  0
SECTION
  2
HEADER
  9
$ACADVER
  1
AC1012
  9
$DWGCODEPAGE
  3
ansi_932
  9
$INSBASE
 10
0.0
 20
0.0
 30
0.0
  9
$EXTMIN
 10
-630.0
 20
-445.5
 30
1.000000E+20
  9
$EXTMAX
 10
630.0
 20
445.5
 30
-1.000000E+20
  9
$LIMMIN
 10
-630.0
 20
-445.5
  9
$LIMMAX
 10
630.0
 20
445.5
  9
$ORTHOMODE
 70
     0
  9
$REGENMODE
 70
     1
  9
$FILLMODE
 70
     1
  9
$QTEXTMODE
 70
     0
  9
$MIRRTEXT
 70
     1
  9
$DRAGMODE
 70
     2
  9
$LTSCALE
 40
1.0
  9
$OSMODE
 70
     0
  9
$ATTMODE
 70
     1
  9
$TEXTSIZE
 40
0.2
  9
$TRACEWID
 40
0.05
  9
$TEXTSTYLE
  7
STANDARD
  9
$CLAYER
  8
0
  9
$CELTYPE
  6
CONTINUOUS
  9
$CECOLOR
 62
   256
  9
$CELTSCALE
 40
1.0
  9
$DELOBJ
 70
     1
  9
$DISPSILH
 70
     0
  9
$DIMSCALE
 40
3.0
  9
$DIMASZ
 40
0.18
  9
$DIMEXO
 40
0.0625
  9
$DIMDLI
 40
0.38
  9
$DIMRND
 40
0.0
  9
$DIMDLE
 40
0.0
  9
$DIMEXE
 40
0.18
  9
$DIMTP
 40
0.0
  9
$DIMTM
 40
0.0
  9
$DIMTXT
 40
0.18
  9
$DIMCEN
 40
0.09
  9
$DIMTSZ
 40
0.0
  9
$DIMTOL
 70
     0
  9
$DIMLIM
 70
     0
  9
$DIMTIH
 70
     1
  9
$DIMTOH
 70
     1
  9
$DIMSE1
 70
     0
  9
$DIMSE2
 70
     0
  9
$DIMTAD
 70
     1
  9
$DIMZIN
 70
     0
  9
$DIMBLK
  1

  9
$DIMASO
 70
     1
  9
$DIMSHO
 70
     1
  9
$DIMPOST
  1

  9
$DIMAPOST
  1

  9
$DIMALT
 70
     0
  9
$DIMALTD
 70
     2
  9
$DIMALTF
 40
25.4
  9
$DIMLFAC
 40
1.0
  9
$DIMTOFL
 70
     0
  9
$DIMTVP
 40
0.0
  9
$DIMTIX
 70
     0
  9
$DIMSOXD
 70
     0
  9
$DIMSAH
 70
     0
  9
$DIMBLK1
  1

  9
$DIMBLK2
  1

  9
$DIMSTYLE
  2
STANDARD
  9
$DIMCLRD
 70
     0
  9
$DIMCLRE
 70
     0
  9
$DIMCLRT
 70
     0
  9
$DIMTFAC
 40
1.0
  9
$DIMGAP
 40
0.09
  9
$DIMJUST
 70
     0
  9
$DIMSD1
 70
     0
  9
$DIMSD2
 70
     0
  9
$DIMTOLJ
 70
     1
  9
$DIMTZIN
 70
     0
  9
$DIMALTZ
 70
     0
  9
$DIMALTTZ
 70
     0
  9
$DIMFIT
 70
     3
  9
$DIMUPT
 70
     0
  9
$DIMUNIT
 70
     2
  9
$DIMDEC
 70
     4
  9
$DIMTDEC
 70
     4
  9
$DIMALTU
 70
     2
  9
$DIMALTTD
 70
     2
  9
$DIMTXSTY
  7
STANDARD
  9
$DIMAUNIT
 70
     0
  9
$LUNITS
 70
     2
  9
$LUPREC
 70
     4
  9
$SKETCHINC
 40
0.1
  9
$FILLETRAD
 40
0.0
  9
$AUNITS
 70
     0
  9
$AUPREC
 70
     0
  9
$MENU
  1
acad
  9
$ELEVATION
 40
0.0
  9
$PELEVATION
 40
0.0
  9
$THICKNESS
 40
0.0
  9
$LIMCHECK
 70
     0
  9
$BLIPMODE
 70
     1
  9
$CHAMFERA
 40
0.0
  9
$CHAMFERB
 40
0.0
  9
$CHAMFERC
 40
0.0
  9
$CHAMFERD
 40
0.0
  9
$SKPOLY
 70
     0
  9
$TDCREATE
 40
2450196.000000000
  9
$TDUPDATE
 40
0.000000000
  9
$TDINDWG
 40
0.0000000000
  9
$TDUSRTIMER
 40
0.0000000000
  9
$USRTIMER
 70
     1
  9
$ANGBASE
 50
0.0
  9
$ANGDIR
 70
     0
  9
$PDMODE
 70
     0
  9
$PDSIZE
 40
0.0
  9
$PLINEWID
 40
0.0
  9
$COORDS
 70
     0
  9
$SPLFRAME
 70
     0
  9
$SPLINETYPE
 70
     6
  9
$SPLINESEGS
 70
     8
  9
$ATTDIA
 70
     0
  9
$ATTREQ
 70
     1
  9
$HANDLING
 70
     1
  9
$HANDSEED
  5
56A
  9
$SURFTAB1
 70
     6
  9
$SURFTAB2
 70
     6
  9
$SURFTYPE
 70
     6
  9
$SURFU
 70
     6
  9
$SURFV
 70
     6
  9
$UCSNAME
  2

  9
$UCSORG
 10
0.0
 20
0.0
 30
0.0
  9
$UCSXDIR
 10
1.0
 20
0.0
 30
0.0
  9
$UCSYDIR
 10
0.0
 20
1.0
 30
0.0
  9
$PUCSNAME
  2

  9
$PUCSORG
 10
0.0
 20
0.0
 30
0.0
  9
$PUCSXDIR
 10
1.0
 20
0.0
 30
0.0
  9
$PUCSYDIR
 10
0.0
 20
1.0
 30
0.0
  9
$USERI1
 70
     0
  9
$USERI2
 70
     0
  9
$USERI3
 70
     0
  9
$USERI4
 70
     0
  9
$USERI5
 70
     0
  9
$USERR1
 40
0.0
  9
$USERR2
 40
0.0
  9
$USERR3
 40
0.0
  9
$USERR4
 40
0.0
  9
$USERR5
 40
0.0
  9
$WORLDVIEW
 70
     1
  9
$SHADEDGE
 70
     3
  9
$SHADEDIF
 70
    70
  9
$TILEMODE
 70
     1
  9
$MAXACTVP
 70
    16
  9
$PINSBASE
 10
0.0
 20
0.0
 30
0.0
  9
$PLIMCHECK
 70
     0
  9
$PEXTMIN
 10
1.000000E+20
 20
1.000000E+20
 30
1.000000E+20
  9
$PEXTMAX
 10
-1.000000E+20
 20
-1.000000E+20
 30
-1.000000E+20
  9
$PLIMMIN
 10
0.0
 20
0.0
  9
$PLIMMAX
 10
12.0
 20
9.0
  9
$UNITMODE
 70
     0
  9
$VISRETAIN
 70
     0
  9
$PLINEGEN
 70
     1
  9
$PSLTSCALE
 70
     0
  9
$TREEDEPTH
 70
  3020
  9
$PICKSTYLE
 70
     1
  9
$CMLSTYLE
  2
STANDARD
  9
$CMLJUST
 70
     0
  9
$CMLSCALE
 40
1.0
  9
$SAVEIMAGES
 70
     0
  0
ENDSEC
  0
SECTION
  2
CLASSES
  0
CLASS
  1
LWPOLYLINE
  2
AcDbPolyline
  3
"AutoCAD"
 90
    32768
280
     0
281
     1
  0
CLASS
  1
IMAGE
  2
AcDbRasterImage
  3
ISM
 90
    32895
280
     0
281
     1
  0
CLASS
  1
OLE2FRAME
  2
AcDbOle2Frame
  3
""
 90
    32768
280
     0
281
     1
  0
CLASS
  1
HATCH
  2
AcDbHatch
  3
"ACAD_SEDONA"
 90
    32768
280
     0
281
     1
  0
CLASS
  1
DICTIONARYVAR
  2
AcDbDictionaryVar
  3
"AutoCAD"
 90
    32768
280
     0
281
     0
  0
CLASS
  1
RASTERVARIABLES
  2
AcDbRasterVariables
  3
ISM
 90
    32768
280
     0
281
     0
  0
CLASS
  1
IMAGEDEF
  2
AcDbRasterImageDef
  3
ISM
 90
    32768
280
     0
281
     0
  0
CLASS
  1
IMAGEDEF_REACTOR
  2
AcDbRasterImageDefReactor
  3
ISM
 90
    32769
280
     0
281
     0
  0
CLASS
  1
IDBUFFER
  2
AcDbIdBuffer
  3
"Acad"
 90
    32768
280
     0
281
     0
  0
CLASS
  1
SPATIAL_FILTER
  2
AcDbSpatialFilter
  3
"Acad"
 90
    32768
280
     0
281
     0
  0
CLASS
  1
XRECORD
  2
AcDbXrecord
  3
"<Built In>"
 90
    32768
280
     0
281
     0
  0
CLASS
  1
SORTENTSTABLE
  2
AcDbSortentsTable
  3
"AutoCAD"
 90
    32768
280
     0
281
     0
  0
CLASS
  1
LAYER_INDEX
  2
AcDbLayerIndex
  3
"Acad"
 90
    32768
280
     0
281
     0
  0
CLASS
  1
SPATIAL_INDEX
  2
AcDbSpatialIndex
  3
"Acad"
 90
    32768
280
     0
281
     0
  0
CLASS
  1
OBJECT_PTR
  2
CAseDLPNTableRecord
  3
"ASE-LPNTableRecord"
 90
    32769
280
     0
281
     0
  0
CLASS
  1
LAYOUT
  2
AcDbLayout
  3
"AutoCAD 2000"
 90
    32768
280
     0
281
     0
  0
CLASS
  1
PLOTSETTINGS
  2
AcDbPlotSettings
  3
"AutoCAD 2000"
 90
    32768
280
     0
281
     0
  0
CLASS
  1
ACDBDICTIONARYWDFLT
  2
AcDbDictionaryWithDefault
  3
"AutoCAD 2000"
 90
    32768
280
     0
281
     0
  0
CLASS
  1
ACDBPLACEHOLDER
  2
AcDbPlaceHolder
  3
"AutoCAD 2000"
 90
    32768
280
     0
281
     0
  0
CLASS
  1
VBA_PROJECT
  2
AcDbVbaProject
  3
"acadvba"
 90
    32768
280
     0
281
     0
  0
CLASS
  1
WIPEOUT
  2
AcDbWipeout
  3
WipeOut|AutoCAD Express Tool|expresstools@autodesk.com
 90
    32895
280
     0
281
     1
  0
CLASS
  1
WIPEOUTVARIABLES
  2
AcDbWipeoutVariables
  3
WipeOut|AutoCAD Express Tool|expresstools@autodesk.com
 90
    32768
280
     0
281
     0
  0
CLASS
  1
RTEXT
  2
RText
  3
RText|AutoCAD Express Tool|expresstools@autodesk.com
 90
    32768
280
     0
281
     1
  0
CLASS
  1
ARCALIGNEDTEXT
  2
AcDbArcAlignedText
  3
ATEXT|AutoCAD Express Tool|expresstools@autodesk.com
 90
    32768
280
     0
281
     1
  0
ENDSEC
  0
SECTION
  2
TABLES
  0
TABLE
  2
VPORT
  5
6
100
AcDbSymbolTable
 70
     1
  0
VPORT
  5
1C
100
AcDbSymbolTableRecord
100
AcDbViewportTableRecord
  2
*ACTIVE
 70
     0
 10
0.0
 20
0.0
 11
1.0
 21
1.0
 12
0.0
 22
0.0
 13
0.0
 23
0.0
 14
1.0
 24
1.0
 15
0.0
 25
0.0
 16
0.0
 26
0.0
 36
1.0
 17
0.0
 27
0.0
 37
0.0
 40
891.0
 41
1.414141
 42
50.0
 43
0.0
 44
0.0
 50
0.0
 51
0.0
 71
     0
 72
   500
 73
     1
 74
     1
 75
     0
 76
     0
 77
     0
 78
     0
  0
ENDTAB
  0
TABLE
  2
LTYPE
  5
3
100
AcDbSymbolTable
 70
     9
  0
LTYPE
  5
C
100
AcDbSymbolTableRecord
100
AcDbLinetypeTableRecord
  2
BYBLOCK
 70
    64
  3

 72
    65
 73
     0
 40
0.0
  0
LTYPE
  5
D
100
AcDbSymbolTableRecord
100
AcDbLinetypeTableRecord
  2
BYLAYER
 70
    64
  3

 72
    65
 73
     0
 40
0.0
  0
LTYPE
  5
E
100
AcDbSymbolTableRecord
100
AcDbLinetypeTableRecord
  2
CONTINUOUS
 70
     0
  3
Solid line
 72
    65
 73
     0
 40
0.0
  0
LTYPE
  5
F
100
AcDbSymbolTableRecord
100
AcDbLinetypeTableRecord
  2
DASHED
 70
     0
  3
__ __ __ __ __ __ __ __ __ __ __ __ __ __ __
 72
    65
 73
     2
 40
2.0
 49
1.2
 74
     0
 49
-0.8
 74
     0
  0
LTYPE
  5
10
100
AcDbSymbolTableRecord
100
AcDbLinetypeTableRecord
  2
CENTER
 70
     0
  3
____ _ ____ _ ____ _ ____ _ ____ _ ____ _ ____
 72
    65
 73
     4
 40
12.0
 49
9.0
 74
     0
 49
-1.0
 74
     0
 49
1.0
 74
     0
 49
-1.0
 74
     0
  0
LTYPE
  5
11
100
AcDbSymbolTableRecord
100
AcDbLinetypeTableRecord
  2
HIDDEN
 70
     0
  3
_ _ _ _ _ _ _ _ _ _ _ _ _ _ _ _ _ _ _ _ _ _ _
 72
    65
 73
     2
 40
3.2
 49
2.4
 74
     0
 49
-0.8
 74
     0
  0
LTYPE
  5
12
100
AcDbSymbolTableRecord
100
AcDbLinetypeTableRecord
  2
PHANTOM
 70
     0
  3
_____ _ _ _____ _ _ _____ _ _ _____ _ _ _____
 72
    65
 73
     6
 40
13.5
 49
9.0
 74
     0
 49
-1.0
 74
     0
 49
1.0
 74
     0
 49
-0.5
 74
     0
 49
1.0
 74
     0
 49
-1.0
 74
     0
  0
LTYPE
  5
13
100
AcDbSymbolTableRecord
100
AcDbLinetypeTableRecord
  2
DOT
 70
     0
  3
...............................................
 72
    65
 73
     2
 40
1.0
 49
0.5
 74
     0
 49
-0.5
 74
     0
  0
LTYPE
  5
14
100
AcDbSymbolTableRecord
100
AcDbLinetypeTableRecord
  2
DASHDOT
 70
     0
  3
__ . __ . __ . __ . __ . __ . __ . __ . __ . __
 72
    65
 73
     4
 40
8.0
 49
5.0
 74
     0
 49
-1.0
 74
     0
 49
1.0
 74
     0
 49
-1.0
 74
     0
  0
ENDTAB
  0
TABLE
  2
LAYER
  5
1
100
AcDbSymbolTable
 70
     7
  0
LAYER
  5
15
100
AcDbSymbolTableRecord
100
AcDbLayerTableRecord
  2
0
 70
     0
 62
     7
  6
CONTINUOUS
  0
LAYER
  5
16
100
AcDbSymbolTableRecord
100
AcDbLayerTableRecord
  2
1
 70
     0
 62
     7
  6
CONTINUOUS
  0
LAYER
  5
17
100
AcDbSymbolTableRecord
100
AcDbLayerTableRecord
  2
2
 70
     0
 62
     7
  6
CONTINUOUS
  0
LAYER
  5
18
100
AcDbSymbolTableRecord
100
AcDbLayerTableRecord
  2
5
 70
     0
 62
     7
  6
CONTINUOUS
  0
LAYER
  5
19
100
AcDbSymbolTableRecord
100
AcDbLayerTableRecord
  2
13
 70
     0
 62
     7
  6
CONTINUOUS
  0
LAYER
  5
1A
100
AcDbSymbolTableRecord
100
AcDbLayerTableRecord
  2
18
 70
     0
 62
     7
  6
CONTINUOUS
  0
LAYER
  5
1B
100
AcDbSymbolTableRecord
100
AcDbLayerTableRecord
  2
20
 70
     0
 62
     7
  6
CONTINUOUS
  0
ENDTAB
  0
TABLE
  2
STYLE
  5
2
100
AcDbSymbolTable
 70
     1
  0
STYLE
  5
1E
100
AcDbSymbolTableRecord
100
AcDbTextStyleTableRecord
  2
STANDARD
 70
    64
 40
0.0
 41
1.0
 50
0.0
 71
     0
 42
1.0
  3
txt
  4
BIGFONT
  0
ENDTAB
  0
TABLE
  2
VIEW
  5
4
100
AcDbSymbolTable
 70
     0
  0
ENDTAB
  0
TABLE
  2
UCS
  5
5
100
AcDbSymbolTable
 70
     0
  0
ENDTAB
  0
TABLE
  2
APPID
  5
7
100
AcDbSymbolTable
 70
     1
  0
APPID
  5
1D
100
AcDbSymbolTableRecord
100
AcDbRegAppTableRecord
  2
ACAD
 70
     0
  0
ENDTAB
  0
TABLE
  2
DIMSTYLE
  5
8
100
AcDbSymbolTable
 70
     1
  0
DIMSTYLE
105
2E
100
AcDbSymbolTableRecord
100
AcDbDimStyleTableRecord
  2
STANDARD
 70
     0
  3

  4

  5

  6

  7

 40
3.0
 41
0.18
 42
0.0625
 43
0.38
 44
0.18
 45
0.0
 46
0.0
 47
0.0
 48
0.0
 71
     0
 72
     0
 73
     1
 74
     1
 75
     0
 76
     0
 77
     1
 78
     0
140
0.18
141
0.09
142
0.0
143
25.4
144
1.0
145
0.0
146
1.0
147
0.09
170
     0
171
     2
172
     0
173
     0
174
     0
175
     0
176
     0
177
     0
178
     0
270
     2
271
     4
272
     4
273
     2
274
     2
275
     0
280
     0
281
     0
282
     0
283
     1
284
     0
285
     0
286
     0
287
     3
288
     0
340
1E
  0
ENDTAB
  0
TABLE
  2
BLOCK_RECORD
  5
29
100
AcDbSymbolTable
 70
     8
  0
BLOCK_RECORD
  5
27
100
AcDbSymbolTableRecord
100
AcDbBlockTableRecord
  2
*MODEL_SPACE
  0
BLOCK_RECORD
  5
28
100
AcDbSymbolTableRecord
100
AcDbBlockTableRecord
  2
*PAPER_SPACE
  0
BLOCK_RECORD
  5
1F
100
AcDbSymbolTableRecord
100
AcDbBlockTableRecord
  2
*D0
  0
BLOCK_RECORD
  5
20
100
AcDbSymbolTableRecord
100
AcDbBlockTableRecord
  2
*D1
  0
BLOCK_RECORD
  5
21
100
AcDbSymbolTableRecord
100
AcDbBlockTableRecord
  2
*D2
  0
BLOCK_RECORD
  5
22
100
AcDbSymbolTableRecord
100
AcDbBlockTableRecord
  2
*D3
  0
BLOCK_RECORD
  5
23
100
AcDbSymbolTableRecord
100
AcDbBlockTableRecord
  2
*D4
  0
BLOCK_RECORD
  5
24
100
AcDbSymbolTableRecord
100
AcDbBlockTableRecord
  2
*D5
  0
BLOCK_RECORD
  5
25
100
AcDbSymbolTableRecord
100
AcDbBlockTableRecord
  2
*D6
  0
BLOCK_RECORD
  5
26
100
AcDbSymbolTableRecord
100
AcDbBlockTableRecord
  2
*D7
  0
ENDTAB
  0
ENDSEC
  0
SECTION
  2
BLOCKS
  0
BLOCK
  5
2A
100
AcDbEntity
  8
0
100
AcDbBlockBegin
  2
*MODEL_SPACE
 70
     0
 10
0.0
 20
0.0
 30
0.0
  3
*MODEL_SPACE
  1

  0
ENDBLK
  5
2B
100
AcDbEntity
  8
0
100
AcDbBlockEnd
  0
BLOCK
  5
2C
100
AcDbEntity
 67
     1
  8
0
100
AcDbBlockBegin
  2
*PAPER_SPACE
 70
     0
 10
0.0
 20
0.0
 30
0.0
  3
*PAPER_SPACE
  1

  0
ENDBLK
  5
2D
100
AcDbEntity
 67
     1
  8
0
100
AcDbBlockEnd
  0
BLOCK
  5
503
100
AcDbEntity
  8
5
100
AcDbBlockBegin
  2
*D0
 70
     1
 10
0.0
 20
0.0
 30
0.0
  3
*D0
  1

  0
TEXT
  5
504
100
AcDbEntity
  8
5
 62
     2
100
AcDbText
 10
-29.57428
 20
-16.214699
 30
0.0
 40
9.0
  1
27
 50
90.0
 41
1.4
 72
     5
 11
-29.57428
 21
-6.134699
 31
0.0
100
AcDbText
  0
LINE
  5
505
100
AcDbEntity
  8
5
 62
     2
100
AcDbLine
 10
11.270829
 20
-50.714699
 30
0.0
 11
-31.07428
 21
-50.714699
 31
0.0
  0
LINE
  5
506
100
AcDbEntity
  8
5
 62
     2
100
AcDbLine
 10
-28.07428
 20
-50.714699
 30
0.0
 11
-29.627194
 21
-56.510254
 31
0.0
  0
LINE
  5
507
100
AcDbEntity
  8
5
 62
     2
100
AcDbLine
 10
-28.07428
 20
-50.714699
 30
0.0
 11
-26.521366
 21
-56.510254
 31
0.0
  0
LINE
  5
508
100
AcDbEntity
  8
5
 62
     2
100
AcDbLine
 10
-29.627194
 20
-56.510254
 30
0.0
 11
-26.521366
 21
-56.510254
 31
0.0
  0
LINE
  5
509
100
AcDbEntity
  8
5
 62
     2
100
AcDbLine
 10
-28.07428
 20
-65.714699
 30
0.0
 11
-28.07428
 21
-2.114699
 31
0.0
  0
LINE
  5
50A
100
AcDbEntity
  8
5
 62
     2
100
AcDbLine
 10
-28.07428
 20
-23.714699
 30
0.0
 11
-26.521366
 21
-17.919144
 31
0.0
  0
LINE
  5
50B
100
AcDbEntity
  8
5
 62
     2
100
AcDbLine
 10
-28.07428
 20
-23.714699
 30
0.0
 11
-29.627194
 21
-17.919144
 31
0.0
  0
LINE
  5
50C
100
AcDbEntity
  8
5
 62
     2
100
AcDbLine
 10
-26.521366
 20
-17.919144
 30
0.0
 11
-29.627194
 21
-17.919144
 31
0.0
  0
LINE
  5
50D
100
AcDbEntity
  8
5
 62
     2
100
AcDbLine
 10
-3.025823
 20
-23.714699
 30
0.0
 11
-31.07428
 21
-23.714699
 31
0.0
  0
ENDBLK
  5
50E
100
AcDbEntity
  8
5
100
AcDbBlockEnd
  0
BLOCK
  5
50F
100
AcDbEntity
  8
5
100
AcDbBlockBegin
  2
*D1
 70
     1
 10
0.0
 20
0.0
 30
0.0
  3
*D1
  1

  0
TEXT
  5
510
100
AcDbEntity
  8
5
 62
     2
100
AcDbText
 10
-29.57428
 20
-143.664699
 30
0.0
 40
9.0
  1
167
 50
90.0
 41
1.4
 72
     5
 11
-29.57428
 21
-127.284699
 31
0.0
100
AcDbText
  0
LINE
  5
511
100
AcDbEntity
  8
5
 62
     2
100
AcDbLine
 10
-0.072032
 20
-217.714699
 30
0.0
 11
-31.07428
 21
-217.714699
 31
0.0
  0
LINE
  5
512
100
AcDbEntity
  8
5
 62
     2
100
AcDbLine
 10
-28.07428
 20
-217.714699
 30
0.0
 11
-26.521366
 21
-211.919144
 31
0.0
  0
LINE
  5
513
100
AcDbEntity
  8
5
 62
     2
100
AcDbLine
 10
-28.07428
 20
-217.714699
 30
0.0
 11
-29.627194
 21
-211.919144
 31
0.0
  0
LINE
  5
514
100
AcDbEntity
  8
5
 62
     2
100
AcDbLine
 10
-26.521366
 20
-211.919144
 30
0.0
 11
-29.627194
 21
-211.919144
 31
0.0
  0
LINE
  5
515
100
AcDbEntity
  8
5
 62
     2
100
AcDbLine
 10
-28.07428
 20
-217.714699
 30
0.0
 11
-28.07428
 21
-50.714699
 31
0.0
  0
LINE
  5
516
100
AcDbEntity
  8
5
 62
     2
100
AcDbLine
 10
-28.07428
 20
-50.714699
 30
0.0
 11
-29.627194
 21
-56.510254
 31
0.0
  0
LINE
  5
517
100
AcDbEntity
  8
5
 62
     2
100
AcDbLine
 10
-28.07428
 20
-50.714699
 30
0.0
 11
-26.521366
 21
-56.510254
 31
0.0
  0
LINE
  5
518
100
AcDbEntity
  8
5
 62
     2
100
AcDbLine
 10
-29.627194
 20
-56.510254
 30
0.0
 11
-26.521366
 21
-56.510254
 31
0.0
  0
LINE
  5
519
100
AcDbEntity
  8
5
 62
     2
100
AcDbLine
 10
11.270829
 20
-50.714699
 30
0.0
 11
-31.07428
 21
-50.714699
 31
0.0
  0
ENDBLK
  5
51A
100
AcDbEntity
  8
5
100
AcDbBlockEnd
  0
BLOCK
  5
51B
100
AcDbEntity
  8
5
100
AcDbBlockBegin
  2
*D2
 70
     1
 10
0.0
 20
0.0
 30
0.0
  3
*D2
  1

  0
TEXT
  5
51C
100
AcDbEntity
  8
5
 62
     2
100
AcDbText
 10
-29.57428
 20
-278.114699
 30
0.0
 40
9.0
  1
102
 50
90.0
 41
1.4
 72
     5
 11
-29.57428
 21
-261.734699
 31
0.0
100
AcDbText
  0
LINE
  5
51D
100
AcDbEntity
  8
5
 62
     2
100
AcDbLine
 10
42.527968
 20
-319.614699
 30
0.0
 11
-31.07428
 21
-319.614699
 31
0.0
  0
LINE
  5
51E
100
AcDbEntity
  8
5
 62
     2
100
AcDbLine
 10
-28.07428
 20
-319.614699
 30
0.0
 11
-26.521366
 21
-313.819144
 31
0.0
  0
LINE
  5
51F
100
AcDbEntity
  8
5
 62
     2
100
AcDbLine
 10
-28.07428
 20
-319.614699
 30
0.0
 11
-29.627194
 21
-313.819144
 31
0.0
  0
LINE
  5
520
100
AcDbEntity
  8
5
 62
     2
100
AcDbLine
 10
-26.521366
 20
-313.819144
 30
0.0
 11
-29.627194
 21
-313.819144
 31
0.0
  0
LINE
  5
521
100
AcDbEntity
  8
5
 62
     2
100
AcDbLine
 10
-28.07428
 20
-319.614699
 30
0.0
 11
-28.07428
 21
-217.714699
 31
0.0
  0
LINE
  5
522
100
AcDbEntity
  8
5
 62
     2
100
AcDbLine
 10
-28.07428
 20
-217.714699
 30
0.0
 11
-29.627194
 21
-223.510254
 31
0.0
  0
LINE
  5
523
100
AcDbEntity
  8
5
 62
     2
100
AcDbLine
 10
-28.07428
 20
-217.714699
 30
0.0
 11
-26.521366
 21
-223.510254
 31
0.0
  0
LINE
  5
524
100
AcDbEntity
  8
5
 62
     2
100
AcDbLine
 10
-29.627194
 20
-223.510254
 30
0.0
 11
-26.521366
 21
-223.510254
 31
0.0
  0
LINE
  5
525
100
AcDbEntity
  8
5
 62
     2
100
AcDbLine
 10
-0.072032
 20
-217.714699
 30
0.0
 11
-31.07428
 21
-217.714699
 31
0.0
  0
ENDBLK
  5
526
100
AcDbEntity
  8
5
100
AcDbBlockEnd
  0
BLOCK
  5
527
100
AcDbEntity
  8
5
100
AcDbBlockBegin
  2
*D3
 70
     1
 10
0.0
 20
0.0
 30
0.0
  3
*D3
  1

  0
TEXT
  5
528
100
AcDbEntity
  8
5
 62
     2
100
AcDbText
 10
44.227968
 20
-349.365967
 30
0.0
 40
9.0
  1
52
 41
1.4
 72
     5
 11
54.307968
 21
-349.365967
 31
0.0
100
AcDbText
  0
LINE
  5
529
100
AcDbEntity
  8
5
 62
     2
100
AcDbLine
 10
24.527968
 20
-292.714699
 30
0.0
 11
24.527968
 21
-353.865967
 31
0.0
  0
LINE
  5
52A
100
AcDbEntity
  8
5
 62
     2
100
AcDbLine
 10
24.527968
 20
-350.865967
 30
0.0
 11
30.323523
 21
-352.418881
 31
0.0
  0
LINE
  5
52B
100
AcDbEntity
  8
5
 62
     2
100
AcDbLine
 10
24.527968
 20
-350.865967
 30
0.0
 11
30.323523
 21
-349.313053
 31
0.0
  0
LINE
  5
52C
100
AcDbEntity
  8
5
 62
     2
100
AcDbLine
 10
30.323523
 20
-352.418881
 30
0.0
 11
30.323523
 21
-349.313053
 31
0.0
  0
LINE
  5
52D
100
AcDbEntity
  8
5
 62
     2
100
AcDbLine
 10
24.527968
 20
-350.865967
 30
0.0
 11
76.527968
 21
-350.865967
 31
0.0
  0
LINE
  5
52E
100
AcDbEntity
  8
5
 62
     2
100
AcDbLine
 10
76.527968
 20
-350.865967
 30
0.0
 11
70.732413
 21
-349.313053
 31
0.0
  0
LINE
  5
52F
100
AcDbEntity
  8
5
 62
     2
100
AcDbLine
 10
76.527968
 20
-350.865967
 30
0.0
 11
70.732413
 21
-352.418881
 31
0.0
  0
LINE
  5
530
100
AcDbEntity
  8
5
 62
     2
100
AcDbLine
 10
70.732413
 20
-349.313053
 30
0.0
 11
70.732413
 21
-352.418881
 31
0.0
  0
LINE
  5
531
100
AcDbEntity
  8
5
 62
     2
100
AcDbLine
 10
76.527968
 20
-292.714699
 30
0.0
 11
76.527968
 21
-353.865967
 31
0.0
  0
ENDBLK
  5
532
100
AcDbEntity
  8
5
100
AcDbBlockEnd
  0
BLOCK
  5
533
100
AcDbEntity
  8
5
100
AcDbBlockBegin
  2
*D4
 70
     1
 10
0.0
 20
0.0
 30
0.0
  3
*D4
  1

  0
TEXT
  5
534
100
AcDbEntity
  8
5
 62
     2
100
AcDbText
 10
-132.679653
 20
212.085301
 30
0.0
 40
9.0
  1
46
 50
90.0
 41
1.4
 72
     5
 11
-132.679653
 21
222.165301
 31
0.0
100
AcDbText
  0
LINE
  5
535
100
AcDbEntity
  8
5
 62
     2
100
AcDbLine
 10
-223.796481
 20
195.385301
 30
0.0
 11
-128.179653
 21
195.385301
 31
0.0
  0
LINE
  5
536
100
AcDbEntity
  8
5
 62
     2
100
AcDbLine
 10
-131.179653
 20
195.385301
 30
0.0
 11
-129.626739
 21
201.180856
 31
0.0
  0
LINE
  5
537
100
AcDbEntity
  8
5
 62
     2
100
AcDbLine
 10
-131.179653
 20
195.385301
 30
0.0
 11
-132.732567
 21
201.180856
 31
0.0
  0
LINE
  5
538
100
AcDbEntity
  8
5
 62
     2
100
AcDbLine
 10
-129.626739
 20
201.180856
 30
0.0
 11
-132.732567
 21
201.180856
 31
0.0
  0
LINE
  5
539
100
AcDbEntity
  8
5
 62
     2
100
AcDbLine
 10
-131.179653
 20
195.385301
 30
0.0
 11
-131.179653
 21
241.385301
 31
0.0
  0
LINE
  5
53A
100
AcDbEntity
  8
5
 62
     2
100
AcDbLine
 10
-131.179653
 20
241.385301
 30
0.0
 11
-132.732567
 21
235.589746
 31
0.0
  0
LINE
  5
53B
100
AcDbEntity
  8
5
 62
     2
100
AcDbLine
 10
-131.179653
 20
241.385301
 30
0.0
 11
-129.626739
 21
235.589746
 31
0.0
  0
LINE
  5
53C
100
AcDbEntity
  8
5
 62
     2
100
AcDbLine
 10
-132.732567
 20
235.589746
 30
0.0
 11
-129.626739
 21
235.589746
 31
0.0
  0
LINE
  5
53D
100
AcDbEntity
  8
5
 62
     2
100
AcDbLine
 10
-157.902145
 20
241.385301
 30
0.0
 11
-128.179653
 21
241.385301
 31
0.0
  0
ENDBLK
  5
53E
100
AcDbEntity
  8
5
100
AcDbBlockEnd
  0
BLOCK
  5
53F
100
AcDbEntity
  8
5
100
AcDbBlockBegin
  2
*D5
 70
     1
 10
0.0
 20
0.0
 30
0.0
  3
*D5
  1

  0
TEXT
  5
540
100
AcDbEntity
  8
5
 62
     2
100
AcDbText
 10
-132.679653
 20
165.085301
 30
0.0
 40
9.0
  1
48
 50
90.0
 41
1.4
 72
     5
 11
-132.679653
 21
175.165301
 31
0.0
100
AcDbText
  0
LINE
  5
541
100
AcDbEntity
  8
5
 62
     2
100
AcDbLine
 10
-288.713032
 20
147.385301
 30
0.0
 11
-128.179653
 21
147.385301
 31
0.0
  0
LINE
  5
542
100
AcDbEntity
  8
5
 62
     2
100
AcDbLine
 10
-131.179653
 20
147.385301
 30
0.0
 11
-129.626739
 21
153.180856
 31
0.0
  0
LINE
  5
543
100
AcDbEntity
  8
5
 62
     2
100
AcDbLine
 10
-131.179653
 20
147.385301
 30
0.0
 11
-132.732567
 21
153.180856
 31
0.0
  0
LINE
  5
544
100
AcDbEntity
  8
5
 62
     2
100
AcDbLine
 10
-129.626739
 20
153.180856
 30
0.0
 11
-132.732567
 21
153.180856
 31
0.0
  0
LINE
  5
545
100
AcDbEntity
  8
5
 62
     2
100
AcDbLine
 10
-131.179653
 20
147.385301
 30
0.0
 11
-131.179653
 21
195.385301
 31
0.0
  0
LINE
  5
546
100
AcDbEntity
  8
5
 62
     2
100
AcDbLine
 10
-131.179653
 20
195.385301
 30
0.0
 11
-132.732567
 21
189.589746
 31
0.0
  0
LINE
  5
547
100
AcDbEntity
  8
5
 62
     2
100
AcDbLine
 10
-131.179653
 20
195.385301
 30
0.0
 11
-129.626739
 21
189.589746
 31
0.0
  0
LINE
  5
548
100
AcDbEntity
  8
5
 62
     2
100
AcDbLine
 10
-132.732567
 20
189.589746
 30
0.0
 11
-129.626739
 21
189.589746
 31
0.0
  0
LINE
  5
549
100
AcDbEntity
  8
5
 62
     2
100
AcDbLine
 10
-223.796481
 20
195.385301
 30
0.0
 11
-128.179653
 21
195.385301
 31
0.0
  0
ENDBLK
  5
54A
100
AcDbEntity
  8
5
100
AcDbBlockEnd
  0
BLOCK
  5
54B
100
AcDbEntity
  8
5
100
AcDbBlockBegin
  2
*D6
 70
     1
 10
0.0
 20
0.0
 30
0.0
  3
*D6
  1

  0
TEXT
  5
54C
100
AcDbEntity
  8
5
 62
     2
100
AcDbText
 10
-250.497032
 20
320.309692
 30
0.0
 40
9.0
  1
146
 41
1.4
 72
     5
 11
-234.117032
 21
320.309692
 31
0.0
100
AcDbText
  0
LINE
  5
54D
100
AcDbEntity
  8
5
 62
     2
100
AcDbLine
 10
-314.172032
 20
275.979757
 30
0.0
 11
-314.172032
 21
321.809692
 31
0.0
  0
LINE
  5
54E
100
AcDbEntity
  8
5
 62
     2
100
AcDbLine
 10
-314.172032
 20
318.809692
 30
0.0
 11
-308.376477
 21
317.256778
 31
0.0
  0
LINE
  5
54F
100
AcDbEntity
  8
5
 62
     2
100
AcDbLine
 10
-314.172032
 20
318.809692
 30
0.0
 11
-308.376477
 21
320.362607
 31
0.0
  0
LINE
  5
550
100
AcDbEntity
  8
5
 62
     2
100
AcDbLine
 10
-308.376477
 20
317.256778
 30
0.0
 11
-308.376477
 21
320.362607
 31
0.0
  0
LINE
  5
551
100
AcDbEntity
  8
5
 62
     2
100
AcDbLine
 10
-314.172032
 20
318.809692
 30
0.0
 11
-167.922032
 21
318.809692
 31
0.0
  0
LINE
  5
552
100
AcDbEntity
  8
5
 62
     2
100
AcDbLine
 10
-167.922032
 20
318.809692
 30
0.0
 11
-173.717587
 21
320.362607
 31
0.0
  0
LINE
  5
553
100
AcDbEntity
  8
5
 62
     2
100
AcDbLine
 10
-167.922032
 20
318.809692
 30
0.0
 11
-173.717587
 21
317.256778
 31
0.0
  0
LINE
  5
554
100
AcDbEntity
  8
5
 62
     2
100
AcDbLine
 10
-173.717587
 20
320.362607
 30
0.0
 11
-173.717587
 21
317.256778
 31
0.0
  0
LINE
  5
555
100
AcDbEntity
  8
5
 62
     2
100
AcDbLine
 10
-167.922032
 20
291.129863
 30
0.0
 11
-167.922032
 21
321.809692
 31
0.0
  0
ENDBLK
  5
556
100
AcDbEntity
  8
5
100
AcDbBlockEnd
  0
BLOCK
  5
557
100
AcDbEntity
  8
5
100
AcDbBlockBegin
  2
*D7
 70
     1
 10
0.0
 20
0.0
 30
0.0
  3
*D7
  1

  0
TEXT
  5
558
100
AcDbEntity
  8
5
 62
     2
100
AcDbText
 10
-132.679653
 20
-36.314699
 30
0.0
 40
9.0
  1
%%c100
 50
90.0
 41
1.4
 72
     5
 11
-132.679653
 21
-13.634699
 31
0.0
100
AcDbText
  0
LINE
  5
559
100
AcDbEntity
  8
5
 62
     2
100
AcDbLine
 10
-170.922032
 20
26.285301
 30
0.0
 11
-128.179653
 21
26.285301
 31
0.0
  0
LINE
  5
55A
100
AcDbEntity
  8
5
 62
     2
100
AcDbLine
 10
-131.179653
 20
26.285301
 30
0.0
 11
-132.732567
 21
20.489746
 31
0.0
  0
LINE
  5
55B
100
AcDbEntity
  8
5
 62
     2
100
AcDbLine
 10
-131.179653
 20
26.285301
 30
0.0
 11
-129.626739
 21
20.489746
 31
0.0
  0
LINE
  5
55C
100
AcDbEntity
  8
5
 62
     2
100
AcDbLine
 10
-132.732567
 20
20.489746
 30
0.0
 11
-129.626739
 21
20.489746
 31
0.0
  0
LINE
  5
55D
100
AcDbEntity
  8
5
 62
     2
100
AcDbLine
 10
-131.179653
 20
26.285301
 30
0.0
 11
-131.179653
 21
-73.714699
 31
0.0
  0
LINE
  5
55E
100
AcDbEntity
  8
5
 62
     2
100
AcDbLine
 10
-131.179653
 20
-73.714699
 30
0.0
 11
-129.626739
 21
-67.919144
 31
0.0
  0
LINE
  5
55F
100
AcDbEntity
  8
5
 62
     2
100
AcDbLine
 10
-131.179653
 20
-73.714699
 30
0.0
 11
-132.732567
 21
-67.919144
 31
0.0
  0
LINE
  5
560
100
AcDbEntity
  8
5
 62
     2
100
AcDbLine
 10
-129.626739
 20
-67.919144
 30
0.0
 11
-132.732567
 21
-67.919144
 31
0.0
  0
LINE
  5
561
100
AcDbEntity
  8
5
 62
     2
100
AcDbLine
 10
-170.922032
 20
-73.714699
 30
0.0
 11
-128.179653
 21
-73.714699
 31
0.0
  0
ENDBLK
  5
562
100
AcDbEntity
  8
5
100
AcDbBlockEnd
  0
ENDSEC
  0
SECTION
  2
ENTITIES
  0
LINE
  5
2F
100
AcDbEntity
  8
1
  6
CENTER
 62
     2
100
AcDbLine
 10
-226.796481
 20
195.385301
 30
0.0
 11
-401.547583
 21
195.385301
 31
0.0
  0
LINE
  5
30
100
AcDbEntity
  8
1
  6
CENTER
 62
     2
100
AcDbLine
 10
-314.172032
 20
19.701201
 30
0.0
 11
-314.172032
 21
-328.414699
 31
0.0
  0
LINE
  5
31
100
AcDbEntity
  8
1
  6
CENTER
 62
     2
100
AcDbLine
 10
50.527968
 20
19.701201
 30
0.0
 11
50.527968
 21
-328.414699
 31
0.0
  0
LINE
  5
32
100
AcDbEntity
  8
1
  6
DASHED
100
AcDbLine
 10
-289.172032
 20
230.385301
 30
0.0
 11
-339.172032
 21
230.385301
 31
0.0
  0
LINE
  5
33
100
AcDbEntity
  8
1
  6
DASHED
100
AcDbLine
 10
-289.172032
 20
160.385301
 30
0.0
 11
-339.172032
 21
160.385301
 31
0.0
  0
LINE
  5
34
100
AcDbEntity
  8
1
  6
DASHED
100
AcDbLine
 10
-349.172032
 20
170.385301
 30
0.0
 11
-349.172032
 21
220.385301
 31
0.0
  0
LINE
  5
35
100
AcDbEntity
  8
1
  6
DASHED
100
AcDbLine
 10
-279.172032
 20
170.385301
 30
0.0
 11
-279.172032
 21
220.385301
 31
0.0
  0
ARC
  5
36
100
AcDbEntity
  8
1
  6
DASHED
100
AcDbCircle
 10
-289.172032
 20
220.385301
 30
0.0
 40
10.0
100
AcDbArc
 50
0.0
 51
90.0
  0
ARC
  5
37
100
AcDbEntity
  8
1
  6
DASHED
100
AcDbCircle
 10
-339.172032
 20
220.385301
 30
0.0
 40
10.0
100
AcDbArc
 50
90.0
 51
180.0
  0
ARC
  5
38
100
AcDbEntity
  8
1
  6
DASHED
100
AcDbCircle
 10
-339.172032
 20
170.385301
 30
0.0
 40
10.0
100
AcDbArc
 50
180.0
 51
270.0
  0
ARC
  5
39
100
AcDbEntity
  8
1
  6
DASHED
100
AcDbCircle
 10
-289.172032
 20
170.385301
 30
0.0
 40
10.0
100
AcDbArc
 50
270.0
 51
360.0
  0
CIRCLE
  5
3A
100
AcDbEntity
  8
1
  6
DASHED
100
AcDbCircle
 10
-289.422032
 20
220.135301
 30
0.0
 40
4.5
  0
CIRCLE
  5
3B
100
AcDbEntity
  8
1
  6
DASHED
100
AcDbCircle
 10
-338.922032
 20
220.135301
 30
0.0
 40
4.5
  0
CIRCLE
  5
3C
100
AcDbEntity
  8
1
  6
DASHED
100
AcDbCircle
 10
-338.922032
 20
170.635301
 30
0.0
 40
4.5
  0
CIRCLE
  5
3D
100
AcDbEntity
  8
1
  6
DASHED
100
AcDbCircle
 10
-289.422032
 20
170.635301
 30
0.0
 40
4.5
  0
LINE
  5
3E
100
AcDbEntity
  8
1
  6
CENTER
 62
     2
100
AcDbLine
 10
-297.922032
 20
220.135301
 30
0.0
 11
-280.922032
 21
220.135301
 31
0.0
  0
LINE
  5
3F
100
AcDbEntity
  8
1
  6
CENTER
 62
     2
100
AcDbLine
 10
-289.422032
 20
211.635301
 30
0.0
 11
-289.422032
 21
228.635301
 31
0.0
  0
LINE
  5
40
100
AcDbEntity
  8
1
  6
CENTER
 62
     2
100
AcDbLine
 10
-330.422032
 20
220.135301
 30
0.0
 11
-347.422032
 21
220.135301
 31
0.0
  0
LINE
  5
41
100
AcDbEntity
  8
1
  6
CENTER
 62
     2
100
AcDbLine
 10
-338.922032
 20
211.635301
 30
0.0
 11
-338.922032
 21
228.635301
 31
0.0
  0
LINE
  5
42
100
AcDbEntity
  8
1
  6
CENTER
 62
     2
100
AcDbLine
 10
-297.922032
 20
170.635301
 30
0.0
 11
-280.922032
 21
170.635301
 31
0.0
  0
LINE
  5
43
100
AcDbEntity
  8
1
  6
CENTER
 62
     2
100
AcDbLine
 10
-289.422032
 20
179.135301
 30
0.0
 11
-289.422032
 21
162.135301
 31
0.0
  0
LINE
  5
44
100
AcDbEntity
  8
1
  6
CENTER
 62
     2
100
AcDbLine
 10
-330.422032
 20
170.635301
 30
0.0
 11
-347.422032
 21
170.635301
 31
0.0
  0
LINE
  5
45
100
AcDbEntity
  8
1
  6
CENTER
 62
     2
100
AcDbLine
 10
-338.922032
 20
179.135301
 30
0.0
 11
-338.922032
 21
162.135301
 31
0.0
  0
LINE
  5
46
100
AcDbEntity
  8
1
  6
CENTER
 62
     2
100
AcDbLine
 10
-234.500084
 20
-217.714699
 30
0.0
 11
-393.253098
 21
-217.714699
 31
0.0
  0
LINE
  5
47
100
AcDbEntity
  8
1
  6
CENTER
 62
     2
100
AcDbLine
 10
2.927968
 20
-217.714699
 30
0.0
 11
93.282051
 21
-217.714699
 31
0.0
  0
LINE
  5
48
100
AcDbEntity
  8
1
100
AcDbLine
 10
-333.172032
 20
-311.714699
 30
0.0
 11
-295.172032
 21
-311.714699
 31
0.0
  0
LINE
  5
49
100
AcDbEntity
  8
1
100
AcDbLine
 10
37.527968
 20
-311.714699
 30
0.0
 11
63.527968
 21
-311.714699
 31
0.0
  0
LINE
  5
4A
100
AcDbEntity
  8
1
100
AcDbLine
 10
24.527968
 20
-289.714699
 30
0.0
 11
24.527968
 21
-145.714699
 31
0.0
  0
LINE
  5
4B
100
AcDbEntity
  8
1
100
AcDbLine
 10
24.527968
 20
-145.714699
 30
0.0
 11
25.527968
 21
-144.714699
 31
0.0
  0
LINE
  5
4C
100
AcDbEntity
  8
1
100
AcDbLine
 10
24.527968
 20
-289.714699
 30
0.0
 11
25.527968
 21
-290.714699
 31
0.0
  0
LINE
  5
4D
100
AcDbEntity
  8
1
100
AcDbLine
 10
76.527968
 20
-289.714699
 30
0.0
 11
76.527968
 21
-145.714699
 31
0.0
  0
LINE
  5
4E
100
AcDbEntity
  8
1
100
AcDbLine
 10
76.527968
 20
-145.714699
 30
0.0
 11
75.527968
 21
-144.714699
 31
0.0
  0
LINE
  5
4F
100
AcDbEntity
  8
1
100
AcDbLine
 10
76.527968
 20
-289.714699
 30
0.0
 11
75.527968
 21
-290.714699
 31
0.0
  0
LINE
  5
50
100
AcDbEntity
  8
1
100
AcDbLine
 10
-346.620769
 20
-62.714699
 30
0.0
 11
-281.723295
 21
-62.714699
 31
0.0
  0
LINE
  5
51
100
AcDbEntity
  8
1
100
AcDbLine
 10
-331.672032
 20
-69.638078
 30
0.0
 11
-331.672032
 21
-139.402823
 31
0.0
  0
LINE
  5
52
100
AcDbEntity
  8
1
100
AcDbLine
 10
-296.672032
 20
-67.714699
 30
0.0
 11
-296.672032
 21
-139.402823
 31
0.0
  0
LINE
  5
53
100
AcDbEntity
  8
1
100
AcDbLine
 10
-333.172032
 20
-314.114699
 30
0.0
 11
-333.172032
 21
-291.930601
 31
0.0
  0
LINE
  5
54
100
AcDbEntity
  8
1
100
AcDbLine
 10
-295.172032
 20
-314.114699
 30
0.0
 11
-295.172032
 21
-291.930601
 31
0.0
  0
LINE
  5
55
100
AcDbEntity
  8
1
100
AcDbLine
 10
37.527968
 20
-314.114699
 30
0.0
 11
37.527968
 21
-291.173171
 31
0.0
  0
LINE
  5
56
100
AcDbEntity
  8
1
100
AcDbLine
 10
63.527968
 20
-314.114699
 30
0.0
 11
63.527968
 21
-291.173171
 31
0.0
  0
LINE
  5
57
100
AcDbEntity
  8
1
100
AcDbLine
 10
-349.172032
 20
-50.714699
 30
0.0
 11
-349.172032
 21
-58.714699
 31
0.0
  0
LINE
  5
58
100
AcDbEntity
  8
1
100
AcDbLine
 10
-279.172032
 20
-50.714699
 30
0.0
 11
-279.172032
 21
-58.714699
 31
0.0
  0
LINE
  5
59
100
AcDbEntity
  8
1
100
AcDbLine
 10
-317.172032
 20
-64.714699
 30
0.0
 11
-317.172032
 21
-75.655396
 31
0.0
  0
LINE
  5
5A
100
AcDbEntity
  8
1
100
AcDbLine
 10
-311.172032
 20
-64.714699
 30
0.0
 11
-311.172032
 21
-75.655396
 31
0.0
  0
LINE
  5
5B
100
AcDbEntity
  8
1
100
AcDbLine
 10
36.527968
 20
-156.298084
 30
0.0
 11
36.527968
 21
-182.714699
 31
0.0
  0
LINE
  5
5C
100
AcDbEntity
  8
1
100
AcDbLine
 10
36.527968
 20
-198.714699
 30
0.0
 11
36.527968
 21
-236.714699
 31
0.0
  0
LINE
  5
5D
100
AcDbEntity
  8
1
100
AcDbLine
 10
64.527968
 20
-156.298084
 30
0.0
 11
64.527968
 21
-182.714699
 31
0.0
  0
LINE
  5
5E
100
AcDbEntity
  8
1
100
AcDbLine
 10
64.527968
 20
-198.714699
 30
0.0
 11
64.527968
 21
-236.714699
 31
0.0
  0
LINE
  5
5F
100
AcDbEntity
  8
1
100
AcDbLine
 10
42.527968
 20
-188.714699
 30
0.0
 11
58.527968
 21
-188.714699
 31
0.0
  0
LINE
  5
60
100
AcDbEntity
  8
1
100
AcDbLine
 10
42.527968
 20
-192.714699
 30
0.0
 11
58.527968
 21
-192.714699
 31
0.0
  0
LINE
  5
61
100
AcDbEntity
  8
1
100
AcDbLine
 10
36.527968
 20
-279.131314
 30
0.0
 11
36.527968
 21
-252.714699
 31
0.0
  0
LINE
  5
62
100
AcDbEntity
  8
1
100
AcDbLine
 10
64.527968
 20
-279.131314
 30
0.0
 11
64.527968
 21
-252.714699
 31
0.0
  0
LINE
  5
63
100
AcDbEntity
  8
1
100
AcDbLine
 10
42.527968
 20
-246.714699
 30
0.0
 11
58.527968
 21
-246.714699
 31
0.0
  0
LINE
  5
64
100
AcDbEntity
  8
1
100
AcDbLine
 10
42.527968
 20
-242.714699
 30
0.0
 11
58.527968
 21
-242.714699
 31
0.0
  0
LINE
  5
65
100
AcDbEntity
  8
1
  6
CENTER
 62
     2
100
AcDbLine
 10
-327.172032
 20
-304.814699
 30
0.0
 11
-327.172032
 21
-324.173351
 31
0.0
  0
LINE
  5
66
100
AcDbEntity
  8
1
  6
CENTER
 62
     2
100
AcDbLine
 10
-301.172032
 20
-305.664699
 30
0.0
 11
-301.172032
 21
-324.173351
 31
0.0
  0
LINE
  5
67
100
AcDbEntity
  8
1
100
AcDbLine
 10
25.527968
 20
-144.714699
 30
0.0
 11
25.527968
 21
-290.714699
 31
0.0
  0
LINE
  5
68
100
AcDbEntity
  8
1
100
AcDbLine
 10
75.527968
 20
-290.714699
 30
0.0
 11
75.527968
 21
-144.714699
 31
0.0
  0
LINE
  5
69
100
AcDbEntity
  8
1
100
AcDbLine
 10
18.079231
 20
-62.714699
 30
0.0
 11
82.976705
 21
-62.714699
 31
0.0
  0
LINE
  5
6A
100
AcDbEntity
  8
1
100
AcDbLine
 10
33.027968
 20
-67.714699
 30
0.0
 11
33.027968
 21
-143.837989
 31
0.0
  0
LINE
  5
6B
100
AcDbEntity
  8
1
100
AcDbLine
 10
68.027968
 20
-67.714699
 30
0.0
 11
68.027968
 21
-143.837989
 31
0.0
  0
LINE
  5
6C
100
AcDbEntity
  8
1
100
AcDbLine
 10
15.527968
 20
-50.714699
 30
0.0
 11
15.527968
 21
-58.714699
 31
0.0
  0
LINE
  5
6D
100
AcDbEntity
  8
1
100
AcDbLine
 10
85.527968
 20
-50.714699
 30
0.0
 11
85.527968
 21
-58.714699
 31
0.0
  0
LINE
  5
6E
100
AcDbEntity
  8
1
100
AcDbLine
 10
47.527968
 20
-64.714699
 30
0.0
 11
47.527968
 21
-75.655396
 31
0.0
  0
LINE
  5
6F
100
AcDbEntity
  8
1
100
AcDbLine
 10
53.527968
 20
-64.714699
 30
0.0
 11
53.527968
 21
-75.655396
 31
0.0
  0
ARC
  5
70
100
AcDbEntity
  8
1
100
AcDbCircle
 10
-345.172032
 20
-58.714699
 30
0.0
 40
4.0
100
AcDbArc
 50
180.0
 51
270.0
  0
ARC
  5
71
100
AcDbEntity
  8
1
100
AcDbCircle
 10
-283.172032
 20
-58.714699
 30
0.0
 40
4.0
100
AcDbArc
 50
270.0
 51
360.0
  0
ARC
  5
72
100
AcDbEntity
  8
1
100
AcDbCircle
 10
-291.672032
 20
-67.714699
 30
0.0
 40
5.0
100
AcDbArc
 50
90.0
 51
180.0
  0
ARC
  5
73
100
AcDbEntity
  8
1
100
AcDbCircle
 10
-281.672032
 20
-77.655396
 30
0.0
 40
15.0
100
AcDbArc
 50
94.528063
 51
180.0
  0
ARC
  5
74
100
AcDbEntity
  8
1
100
AcDbCircle
 10
-346.672032
 20
-77.655396
 30
0.0
 40
15.0
100
AcDbArc
 50
0.0
 51
29.738779
  0
LINE
  5
75
100
AcDbEntity
  8
1
100
AcDbLine
 10
-324.956303
 20
-67.714699
 30
0.0
 11
-324.956303
 21
-82.412718
 31
0.0
  0
LINE
  5
76
100
AcDbEntity
  8
1
100
AcDbLine
 10
-303.387761
 20
-67.714699
 30
0.0
 11
-303.387761
 21
-82.412718
 31
0.0
  0
ARC
  5
77
100
AcDbEntity
  8
1
100
AcDbCircle
 10
-329.956303
 20
-67.714699
 30
0.0
 40
5.0
100
AcDbArc
 50
0.0
 51
90.0
  0
ARC
  5
78
100
AcDbEntity
  8
1
100
AcDbCircle
 10
-298.387761
 20
-67.714699
 30
0.0
 40
5.0
100
AcDbArc
 50
90.0
 51
180.0
  0
LINE
  5
79
100
AcDbEntity
  8
1
100
AcDbLine
 10
-301.164218
 20
-85.310496
 30
0.0
 11
-298.895575
 21
-85.918377
 31
0.0
  0
LINE
  5
7A
100
AcDbEntity
  8
1
100
AcDbLine
 10
-327.179846
 20
-85.310496
 30
0.0
 11
-329.448489
 21
-85.918377
 31
0.0
  0
ARC
  5
7B
100
AcDbEntity
  8
1
100
AcDbCircle
 10
-300.387761
 20
-82.412718
 30
0.0
 40
3.0
100
AcDbArc
 50
180.0
 51
255.0
  0
ARC
  5
7C
100
AcDbEntity
  8
1
100
AcDbCircle
 10
-327.956303
 20
-82.412718
 30
0.0
 40
3.0
100
AcDbArc
 50
285.0
 51
0.0
  0
ARC
  5
7D
100
AcDbEntity
  8
1
100
AcDbCircle
 10
-299.672032
 20
-88.816154
 30
0.0
 40
3.0
100
AcDbArc
 50
0.0
 51
75.0
  0
ARC
  5
7E
100
AcDbEntity
  8
1
100
AcDbCircle
 10
-328.672032
 20
-88.816154
 30
0.0
 40
3.0
100
AcDbArc
 50
105.0
 51
180.0
  0
ARC
  5
7F
100
AcDbEntity
  8
1
100
AcDbCircle
 10
-309.172032
 20
-64.714699
 30
0.0
 40
2.0
100
AcDbArc
 50
90.0
 51
180.0
  0
ARC
  5
80
100
AcDbEntity
  8
1
100
AcDbCircle
 10
-319.172032
 20
-64.714699
 30
0.0
 40
2.0
100
AcDbArc
 50
360.0
 51
90.0
  0
ARC
  5
81
100
AcDbEntity
  8
1
100
AcDbCircle
 10
-319.172032
 20
-75.655396
 30
0.0
 40
2.0
100
AcDbArc
 50
270.0
 51
360.0
  0
ARC
  5
82
100
AcDbEntity
  8
1
100
AcDbCircle
 10
-309.172032
 20
-75.655396
 30
0.0
 40
2.0
100
AcDbArc
 50
180.0
 51
270.0
  0
ARC
  5
83
100
AcDbEntity
  8
1
100
AcDbCircle
 10
-286.672032
 20
-139.402823
 30
0.0
 40
10.0
100
AcDbArc
 50
180.0
 51
250.650764
  0
ARC
  5
84
100
AcDbEntity
  8
1
100
AcDbCircle
 10
-341.672032
 20
-139.402823
 30
0.0
 40
10.0
100
AcDbArc
 50
289.349236
 51
360.0
  0
ARC
  5
85
100
AcDbEntity
  8
1
100
AcDbCircle
 10
-314.172032
 20
-187.714699
 30
0.0
 40
82.0
100
AcDbArc
 50
61.996654
 51
72.60767
  0
ARC
  5
86
100
AcDbEntity
  8
1
100
AcDbCircle
 10
-314.172032
 20
-187.714699
 30
0.0
 40
82.0
100
AcDbArc
 50
107.39233
 51
118.003346
  0
ARC
  5
87
100
AcDbEntity
  8
1
100
AcDbCircle
 10
-286.672032
 20
-99.920907
 30
0.0
 40
10.0
100
AcDbArc
 50
180.0
 51
252.60767
  0
ARC
  5
88
100
AcDbEntity
  8
1
100
AcDbCircle
 10
-341.672032
 20
-99.920907
 30
0.0
 40
10.0
100
AcDbArc
 50
287.39233
 51
360.0
  0
LINE
  5
89
100
AcDbEntity
  8
1
100
AcDbLine
 10
-353.347074
 20
-123.137783
 30
0.0
 11
-354.490354
 21
-120.377659
 31
0.0
  0
LINE
  5
8A
100
AcDbEntity
  8
1
100
AcDbLine
 10
-274.996991
 20
-123.137783
 30
0.0
 11
-273.85371
 21
-120.377659
 31
0.0
  0
ARC
  5
8B
100
AcDbEntity
  8
1
100
AcDbCircle
 10
-277.549228
 20
-118.846926
 30
0.0
 40
4.0
100
AcDbArc
 50
337.5
 51
61.996654
  0
ARC
  5
8C
100
AcDbEntity
  8
1
100
AcDbCircle
 10
-350.794836
 20
-118.846926
 30
0.0
 40
4.0
100
AcDbArc
 50
118.003346
 51
202.5
  0
LINE
  5
8D
100
AcDbEntity
  8
1
100
AcDbLine
 10
-287.797331
 20
-130.574725
 30
0.0
 11
-291.115612
 21
-137.282109
 31
0.0
  0
LINE
  5
8E
100
AcDbEntity
  8
1
100
AcDbLine
 10
-340.546733
 20
-130.574725
 30
0.0
 11
-337.228452
 21
-137.282109
 31
0.0
  0
ARC
  5
8F
100
AcDbEntity
  8
1
100
AcDbCircle
 10
-282.600649
 20
-141.494638
 30
0.0
 40
9.5
100
AcDbArc
 50
153.677446
 51
247.5
  0
ARC
  5
90
100
AcDbEntity
  8
1
100
AcDbCircle
 10
-345.743415
 20
-141.494638
 30
0.0
 40
9.5
100
AcDbArc
 50
292.5
 51
26.322554
  0
ARC
  5
91
100
AcDbEntity
  8
1
100
AcDbCircle
 10
-279.730523
 20
-134.565541
 30
0.0
 40
9.0
100
AcDbArc
 50
85.420213
 51
153.677446
  0
ARC
  5
92
100
AcDbEntity
  8
1
100
AcDbCircle
 10
-348.613541
 20
-134.565541
 30
0.0
 40
9.0
100
AcDbArc
 50
26.322554
 51
94.579787
  0
ARC
  5
93
100
AcDbEntity
  8
1
100
AcDbCircle
 10
-278.692509
 20
-121.607049
 30
0.0
 40
4.0
100
AcDbArc
 50
265.420213
 51
337.5
  0
ARC
  5
94
100
AcDbEntity
  8
1
100
AcDbCircle
 10
-349.651556
 20
-121.607049
 30
0.0
 40
4.0
100
AcDbArc
 50
202.5
 51
274.579787
  0
LINE
  5
95
100
AcDbEntity
  8
1
100
AcDbLine
 10
-291.377504
 20
-297.570253
 30
0.0
 11
-287.900394
 21
-305.964742
 31
0.0
  0
LINE
  5
96
100
AcDbEntity
  8
1
100
AcDbLine
 10
-336.96656
 20
-297.570253
 30
0.0
 11
-340.443671
 21
-305.964742
 31
0.0
  0
ARC
  5
97
100
AcDbEntity
  8
1
100
AcDbCircle
 10
-282.600649
 20
-293.934761
 30
0.0
 40
9.5
100
AcDbArc
 50
112.5
 51
202.5
  0
ARC
  5
98
100
AcDbEntity
  8
1
100
AcDbCircle
 10
-345.743415
 20
-293.934761
 30
0.0
 40
9.5
100
AcDbArc
 50
337.5
 51
67.5
  0
LINE
  5
99
100
AcDbEntity
  8
1
100
AcDbLine
 10
-330.172032
 20
-308.714699
 30
0.0
 11
-298.172032
 21
-308.714699
 31
0.0
  0
LINE
  5
9A
100
AcDbEntity
  8
1
100
AcDbLine
 10
-292.276731
 20
-308.613593
 30
0.0
 11
-289.011217
 21
-308.499559
 31
0.0
  0
ARC
  5
9B
100
AcDbEntity
  8
1
100
AcDbCircle
 10
-290.172032
 20
-291.930601
 30
0.0
 40
5.0
100
AcDbArc
 50
107.920213
 51
180.0
  0
ARC
  5
9C
100
AcDbEntity
  8
1
100
AcDbCircle
 10
-338.172032
 20
-291.930601
 30
0.0
 40
5.0
100
AcDbArc
 50
0.0
 51
72.079787
  0
ARC
  5
9D
100
AcDbEntity
  8
1
100
AcDbCircle
 10
-290.672032
 20
-307.112792
 30
0.0
 40
3.0
100
AcDbArc
 50
0.0
 51
22.5
  0
ARC
  5
9E
100
AcDbEntity
  8
1
100
AcDbCircle
 10
-289.059644
 20
-307.112792
 30
0.0
 40
1.387612
100
AcDbArc
 50
272.0
 51
360.0
  0
ARC
  5
9F
100
AcDbEntity
  8
1
100
AcDbCircle
 10
-337.672032
 20
-307.112792
 30
0.0
 40
3.0
100
AcDbArc
 50
157.5
 51
180.0
  0
ARC
  5
A0
100
AcDbEntity
  8
1
100
AcDbCircle
 10
-339.28442
 20
-307.112792
 30
0.0
 40
1.387612
100
AcDbArc
 50
180.0
 51
268.0
  0
LINE
  5
A1
100
AcDbEntity
  8
1
100
AcDbLine
 10
-336.067334
 20
-308.613593
 30
0.0
 11
-339.332847
 21
-308.499559
 31
0.0
  0
ARC
  5
A2
100
AcDbEntity
  8
1
100
AcDbCircle
 10
-298.172032
 20
-305.714699
 30
0.0
 40
3.0
100
AcDbArc
 50
270.0
 51
360.0
  0
ARC
  5
A3
100
AcDbEntity
  8
1
100
AcDbCircle
 10
-330.172032
 20
-305.714699
 30
0.0
 40
3.0
100
AcDbArc
 50
180.0
 51
270.0
  0
ARC
  5
A4
100
AcDbEntity
  8
1
100
AcDbCircle
 10
-292.172032
 20
-311.611766
 30
0.0
 40
3.0
100
AcDbArc
 50
92.0
 51
180.0
  0
ARC
  5
A5
100
AcDbEntity
  8
1
100
AcDbCircle
 10
-336.172032
 20
-311.611766
 30
0.0
 40
3.0
100
AcDbArc
 50
360.0
 51
88.0
  0
LINE
  5
A6
100
AcDbEntity
  8
1
100
AcDbLine
 10
-333.172032
 20
-312.514699
 30
0.0
 11
-295.172032
 21
-312.514699
 31
0.0
  0
LINE
  5
A7
100
AcDbEntity
  8
1
100
AcDbLine
 10
-333.272032
 20
-314.114699
 30
0.0
 11
-295.072032
 21
-314.114699
 31
0.0
  0
LINE
  5
A8
100
AcDbEntity
  8
1
100
AcDbLine
 10
-307.272032
 20
-315.614699
 30
0.0
 11
-295.072032
 21
-315.614699
 31
0.0
  0
LINE
  5
A9
100
AcDbEntity
  8
1
100
AcDbLine
 10
-295.422032
 20
-315.614699
 30
0.0
 11
-295.422032
 21
-319.123952
 31
0.0
  0
LINE
  5
AA
100
AcDbEntity
  8
1
100
AcDbLine
 10
-295.422032
 20
-319.123952
 30
0.0
 11
-296.272032
 21
-319.614699
 31
0.0
  0
LINE
  5
AB
100
AcDbEntity
  8
1
100
AcDbLine
 10
-298.297032
 20
-315.614699
 30
0.0
 11
-298.297032
 21
-319.123952
 31
0.0
  0
ARC
  5
AC
100
AcDbEntity
  8
1
100
AcDbCircle
 10
-296.859532
 20
-317.275997
 30
0.0
 40
2.341227
100
AcDbArc
 50
232.121121
 51
307.878879
  0
ARC
  5
AD
100
AcDbEntity
  8
1
100
AcDbCircle
 10
-301.172032
 20
-310.992224
 30
0.0
 40
8.625
100
AcDbArc
 50
250.528777
 51
289.471219
  0
LINE
  5
AE
100
AcDbEntity
  8
1
100
AcDbLine
 10
-306.922032
 20
-315.614699
 30
0.0
 11
-306.922032
 21
-319.123952
 31
0.0
  0
LINE
  5
AF
100
AcDbEntity
  8
1
100
AcDbLine
 10
-306.922032
 20
-319.123952
 30
0.0
 11
-306.072032
 21
-319.614699
 31
0.0
  0
LINE
  5
B0
100
AcDbEntity
  8
1
100
AcDbLine
 10
-306.072032
 20
-319.614699
 30
0.0
 11
-296.272032
 21
-319.614699
 31
0.0
  0
LINE
  5
B1
100
AcDbEntity
  8
1
100
AcDbLine
 10
-304.047032
 20
-315.614699
 30
0.0
 11
-304.047032
 21
-319.123952
 31
0.0
  0
ARC
  5
B2
100
AcDbEntity
  8
1
100
AcDbCircle
 10
-305.484532
 20
-317.275997
 30
0.0
 40
2.341227
100
AcDbArc
 50
232.121121
 51
307.878879
  0
LINE
  5
B3
100
AcDbEntity
  8
1
100
AcDbLine
 10
-295.072032
 20
-314.114699
 30
0.0
 11
-295.072032
 21
-315.614699
 31
0.0
  0
LINE
  5
B4
100
AcDbEntity
  8
1
100
AcDbLine
 10
-307.272032
 20
-315.614699
 30
0.0
 11
-307.272032
 21
-314.114699
 31
0.0
  0
LINE
  5
B5
100
AcDbEntity
  8
1
100
AcDbLine
 10
-301.172032
 20
-315.614699
 30
0.0
 11
-301.672032
 21
-314.114699
 31
0.0
  0
LINE
  5
B6
100
AcDbEntity
  8
1
100
AcDbLine
 10
-301.172032
 20
-314.114699
 30
0.0
 11
-300.672032
 21
-315.614699
 31
0.0
  0
LINE
  5
B7
100
AcDbEntity
  8
1
100
AcDbLine
 10
-333.272032
 20
-315.614699
 30
0.0
 11
-321.072032
 21
-315.614699
 31
0.0
  0
LINE
  5
B8
100
AcDbEntity
  8
1
100
AcDbLine
 10
-321.422032
 20
-315.614699
 30
0.0
 11
-321.422032
 21
-319.123952
 31
0.0
  0
LINE
  5
B9
100
AcDbEntity
  8
1
100
AcDbLine
 10
-321.422032
 20
-319.123952
 30
0.0
 11
-322.272032
 21
-319.614699
 31
0.0
  0
LINE
  5
BA
100
AcDbEntity
  8
1
100
AcDbLine
 10
-324.297032
 20
-315.614699
 30
0.0
 11
-324.297032
 21
-319.123952
 31
0.0
  0
ARC
  5
BB
100
AcDbEntity
  8
1
100
AcDbCircle
 10
-322.859532
 20
-317.275997
 30
0.0
 40
2.341227
100
AcDbArc
 50
232.121121
 51
307.878879
  0
ARC
  5
BC
100
AcDbEntity
  8
1
100
AcDbCircle
 10
-327.172032
 20
-310.992224
 30
0.0
 40
8.625
100
AcDbArc
 50
250.528777
 51
289.471219
  0
LINE
  5
BD
100
AcDbEntity
  8
1
100
AcDbLine
 10
-332.922032
 20
-315.614699
 30
0.0
 11
-332.922032
 21
-319.123952
 31
0.0
  0
LINE
  5
BE
100
AcDbEntity
  8
1
100
AcDbLine
 10
-332.922032
 20
-319.123952
 30
0.0
 11
-332.072032
 21
-319.614699
 31
0.0
  0
LINE
  5
BF
100
AcDbEntity
  8
1
100
AcDbLine
 10
-332.072032
 20
-319.614699
 30
0.0
 11
-322.272032
 21
-319.614699
 31
0.0
  0
LINE
  5
C0
100
AcDbEntity
  8
1
100
AcDbLine
 10
-330.047032
 20
-315.614699
 30
0.0
 11
-330.047032
 21
-319.123952
 31
0.0
  0
ARC
  5
C1
100
AcDbEntity
  8
1
100
AcDbCircle
 10
-331.484532
 20
-317.275997
 30
0.0
 40
2.341227
100
AcDbArc
 50
232.121121
 51
307.878879
  0
LINE
  5
C2
100
AcDbEntity
  8
1
100
AcDbLine
 10
-321.072032
 20
-314.114699
 30
0.0
 11
-321.072032
 21
-315.614699
 31
0.0
  0
LINE
  5
C3
100
AcDbEntity
  8
1
100
AcDbLine
 10
-333.272032
 20
-315.614699
 30
0.0
 11
-333.272032
 21
-314.114699
 31
0.0
  0
LINE
  5
C4
100
AcDbEntity
  8
1
100
AcDbLine
 10
-327.172032
 20
-315.614699
 30
0.0
 11
-327.672032
 21
-314.114699
 31
0.0
  0
LINE
  5
C5
100
AcDbEntity
  8
1
100
AcDbLine
 10
-327.172032
 20
-314.114699
 30
0.0
 11
-326.672032
 21
-315.614699
 31
0.0
  0
ARC
  5
C6
100
AcDbEntity
  8
1
100
AcDbCircle
 10
19.527968
 20
-58.714699
 30
0.0
 40
4.0
100
AcDbArc
 50
180.0
 51
270.0
  0
ARC
  5
C7
100
AcDbEntity
  8
1
100
AcDbCircle
 10
81.527968
 20
-58.714699
 30
0.0
 40
4.0
100
AcDbArc
 50
270.0
 51
360.0
  0
ARC
  5
C8
100
AcDbEntity
  8
1
100
AcDbCircle
 10
73.027968
 20
-67.714699
 30
0.0
 40
5.0
100
AcDbArc
 50
148.239147
 51
180.0
  0
ARC
  5
C9
100
AcDbEntity
  8
1
100
AcDbCircle
 10
28.027968
 20
-67.714699
 30
0.0
 40
5.0
100
AcDbArc
 50
0.0
 51
90.0
  0
ARC
  5
CA
100
AcDbEntity
  8
1
100
AcDbCircle
 10
83.027968
 20
-77.655396
 30
0.0
 40
15.0
100
AcDbArc
 50
150.261221
 51
180.0
  0
ARC
  5
CB
100
AcDbEntity
  8
1
100
AcDbCircle
 10
18.027968
 20
-77.655396
 30
0.0
 40
15.0
100
AcDbArc
 50
0.0
 51
85.471937
  0
LINE
  5
CC
100
AcDbEntity
  8
1
100
AcDbLine
 10
39.743697
 20
-67.714699
 30
0.0
 11
39.743697
 21
-82.412718
 31
0.0
  0
LINE
  5
CD
100
AcDbEntity
  8
1
100
AcDbLine
 10
61.312239
 20
-67.714699
 30
0.0
 11
61.312239
 21
-82.412718
 31
0.0
  0
ARC
  5
CE
100
AcDbEntity
  8
1
100
AcDbCircle
 10
34.743697
 20
-67.714699
 30
0.0
 40
5.0
100
AcDbArc
 50
0.0
 51
90.0
  0
ARC
  5
CF
100
AcDbEntity
  8
1
100
AcDbCircle
 10
66.312239
 20
-67.714699
 30
0.0
 40
5.0
100
AcDbArc
 50
90.0
 51
180.0
  0
LINE
  5
D0
100
AcDbEntity
  8
1
100
AcDbLine
 10
63.535782
 20
-85.310496
 30
0.0
 11
65.804425
 21
-85.918377
 31
0.0
  0
LINE
  5
D1
100
AcDbEntity
  8
1
100
AcDbLine
 10
37.520154
 20
-85.310496
 30
0.0
 11
35.251511
 21
-85.918377
 31
0.0
  0
ARC
  5
D2
100
AcDbEntity
  8
1
100
AcDbCircle
 10
64.312239
 20
-82.412718
 30
0.0
 40
3.0
100
AcDbArc
 50
180.0
 51
255.0
  0
ARC
  5
D3
100
AcDbEntity
  8
1
100
AcDbCircle
 10
36.743697
 20
-82.412718
 30
0.0
 40
3.0
100
AcDbArc
 50
285.0
 51
0.0
  0
ARC
  5
D4
100
AcDbEntity
  8
1
100
AcDbCircle
 10
65.027968
 20
-88.816154
 30
0.0
 40
3.0
100
AcDbArc
 50
0.0
 51
75.0
  0
ARC
  5
D5
100
AcDbEntity
  8
1
100
AcDbCircle
 10
36.027968
 20
-88.816154
 30
0.0
 40
3.0
100
AcDbArc
 50
105.0
 51
180.0
  0
ARC
  5
D6
100
AcDbEntity
  8
1
100
AcDbCircle
 10
55.527968
 20
-64.714699
 30
0.0
 40
2.0
100
AcDbArc
 50
90.0
 51
180.0
  0
ARC
  5
D7
100
AcDbEntity
  8
1
100
AcDbCircle
 10
45.527968
 20
-64.714699
 30
0.0
 40
2.0
100
AcDbArc
 50
360.0
 51
90.0
  0
ARC
  5
D8
100
AcDbEntity
  8
1
100
AcDbCircle
 10
45.527968
 20
-75.655396
 30
0.0
 40
2.0
100
AcDbArc
 50
270.0
 51
360.0
  0
ARC
  5
D9
100
AcDbEntity
  8
1
100
AcDbCircle
 10
55.527968
 20
-75.655396
 30
0.0
 40
2.0
100
AcDbArc
 50
180.0
 51
270.0
  0
LINE
  5
DA
100
AcDbEntity
  8
1
100
AcDbLine
 10
25.527968
 20
-144.714699
 30
0.0
 11
28.027968
 21
-144.714699
 31
0.0
  0
LINE
  5
DB
100
AcDbEntity
  8
1
100
AcDbLine
 10
73.027968
 20
-144.714699
 30
0.0
 11
75.527968
 21
-144.714699
 31
0.0
  0
ARC
  5
DC
100
AcDbEntity
  8
1
100
AcDbCircle
 10
73.027968
 20
-139.714699
 30
0.0
 40
5.0
100
AcDbArc
 50
180.0
 51
270.0
  0
ARC
  5
DD
100
AcDbEntity
  8
1
100
AcDbCircle
 10
28.027968
 20
-139.714699
 30
0.0
 40
5.0
100
AcDbArc
 50
270.0
 51
360.0
  0
ARC
  5
DE
100
AcDbEntity
  8
1
100
AcDbCircle
 10
73.027968
 20
-143.837989
 30
0.0
 40
5.0
100
AcDbArc
 50
180.0
 51
270.0
  0
ARC
  5
DF
100
AcDbEntity
  8
1
100
AcDbCircle
 10
28.027968
 20
-143.837989
 30
0.0
 40
5.0
100
AcDbArc
 50
270.0
 51
360.0
  0
LINE
  5
E0
100
AcDbEntity
  8
1
100
AcDbLine
 10
47.027968
 20
-102.920907
 30
0.0
 11
47.027968
 21
-147.271493
 31
0.0
  0
LINE
  5
E1
100
AcDbEntity
  8
1
100
AcDbLine
 10
54.027968
 20
-102.920907
 30
0.0
 11
54.027968
 21
-147.271493
 31
0.0
  0
ARC
  5
E2
100
AcDbEntity
  8
1
100
AcDbCircle
 10
57.027968
 20
-102.920907
 30
0.0
 40
3.0
100
AcDbArc
 50
90.0
 51
180.0
  0
ARC
  5
E3
100
AcDbEntity
  8
1
100
AcDbCircle
 10
44.027968
 20
-102.920907
 30
0.0
 40
3.0
100
AcDbArc
 50
0.0
 51
90.0
  0
ARC
  5
E4
100
AcDbEntity
  8
1
100
AcDbCircle
 10
44.027968
 20
-147.271493
 30
0.0
 40
3.0
100
AcDbArc
 50
270.0
 51
360.0
  0
ARC
  5
E5
100
AcDbEntity
  8
1
100
AcDbCircle
 10
57.027968
 20
-147.271493
 30
0.0
 40
3.0
100
AcDbArc
 50
180.0
 51
270.0
  0
LINE
  5
E6
100
AcDbEntity
  8
1
100
AcDbLine
 10
25.527968
 20
-290.714699
 30
0.0
 11
33.527968
 21
-290.714699
 31
0.0
  0
LINE
  5
E7
100
AcDbEntity
  8
1
100
AcDbLine
 10
67.527968
 20
-290.714699
 30
0.0
 11
75.527968
 21
-290.714699
 31
0.0
  0
ARC
  5
E8
100
AcDbEntity
  8
1
100
AcDbCircle
 10
67.527968
 20
-294.714699
 30
0.0
 40
4.0
100
AcDbArc
 50
90.0
 51
180.0
  0
ARC
  5
E9
100
AcDbEntity
  8
1
100
AcDbCircle
 10
33.527968
 20
-294.714699
 30
0.0
 40
4.0
100
AcDbArc
 50
0.0
 51
90.0
  0
ARC
  5
EA
100
AcDbEntity
  8
1
100
AcDbCircle
 10
67.527968
 20
-291.173171
 30
0.0
 40
4.0
100
AcDbArc
 50
90.0
 51
180.0
  0
ARC
  5
EB
100
AcDbEntity
  8
1
100
AcDbCircle
 10
33.527968
 20
-291.173171
 30
0.0
 40
4.0
100
AcDbArc
 50
0.0
 51
90.0
  0
LINE
  5
EC
100
AcDbEntity
  8
1
100
AcDbLine
 10
47.027968
 20
-288.157905
 30
0.0
 11
47.027968
 21
-308.714699
 31
0.0
  0
LINE
  5
ED
100
AcDbEntity
  8
1
100
AcDbLine
 10
54.027968
 20
-288.157905
 30
0.0
 11
54.027968
 21
-308.714699
 31
0.0
  0
ARC
  5
EE
100
AcDbEntity
  8
1
100
AcDbCircle
 10
57.027968
 20
-288.157905
 30
0.0
 40
3.0
100
AcDbArc
 50
90.0
 51
180.0
  0
ARC
  5
EF
100
AcDbEntity
  8
1
100
AcDbCircle
 10
44.027968
 20
-288.157905
 30
0.0
 40
3.0
100
AcDbArc
 50
0.0
 51
90.0
  0
ARC
  5
F0
100
AcDbEntity
  8
1
100
AcDbCircle
 10
57.027968
 20
-308.714699
 30
0.0
 40
3.0
100
AcDbArc
 50
180.0
 51
270.0
  0
ARC
  5
F1
100
AcDbEntity
  8
1
100
AcDbCircle
 10
44.027968
 20
-308.714699
 30
0.0
 40
3.0
100
AcDbArc
 50
270.0
 51
360.0
  0
LINE
  5
F2
100
AcDbEntity
  8
1
100
AcDbLine
 10
40.527968
 20
-308.714699
 30
0.0
 11
44.027968
 21
-308.714699
 31
0.0
  0
LINE
  5
F3
100
AcDbEntity
  8
1
100
AcDbLine
 10
57.027968
 20
-308.714699
 30
0.0
 11
60.527968
 21
-308.714699
 31
0.0
  0
ARC
  5
F4
100
AcDbEntity
  8
1
100
AcDbCircle
 10
60.527968
 20
-305.714699
 30
0.0
 40
3.0
100
AcDbArc
 50
270.0
 51
360.0
  0
ARC
  5
F5
100
AcDbEntity
  8
1
100
AcDbCircle
 10
40.527968
 20
-305.714699
 30
0.0
 40
3.0
100
AcDbArc
 50
180.0
 51
270.0
  0
LINE
  5
F6
100
AcDbEntity
  8
1
100
AcDbLine
 10
37.527968
 20
-312.514699
 30
0.0
 11
63.527968
 21
-312.514699
 31
0.0
  0
LINE
  5
F7
100
AcDbEntity
  8
1
100
AcDbLine
 10
37.527968
 20
-314.114699
 30
0.0
 11
63.527968
 21
-314.114699
 31
0.0
  0
LINE
  5
F8
100
AcDbEntity
  8
1
100
AcDbLine
 10
44.427968
 20
-315.614699
 30
0.0
 11
56.627968
 21
-315.614699
 31
0.0
  0
LINE
  5
F9
100
AcDbEntity
  8
1
100
AcDbLine
 10
55.527968
 20
-315.614699
 30
0.0
 11
55.527968
 21
-319.614699
 31
0.0
  0
LINE
  5
FA
100
AcDbEntity
  8
1
100
AcDbLine
 10
50.527968
 20
-315.614699
 30
0.0
 11
50.527968
 21
-319.123952
 31
0.0
  0
ARC
  5
FB
100
AcDbEntity
  8
1
100
AcDbCircle
 10
53.027968
 20
-313.001492
 30
0.0
 40
6.613208
100
AcDbArc
 50
247.788205
 51
292.211795
  0
LINE
  5
FC
100
AcDbEntity
  8
1
100
AcDbLine
 10
45.527968
 20
-315.614699
 30
0.0
 11
45.527968
 21
-319.614699
 31
0.0
  0
LINE
  5
FD
100
AcDbEntity
  8
1
100
AcDbLine
 10
45.527968
 20
-319.614699
 30
0.0
 11
55.527968
 21
-319.614699
 31
0.0
  0
ARC
  5
FE
100
AcDbEntity
  8
1
100
AcDbCircle
 10
48.027968
 20
-313.001492
 30
0.0
 40
6.613208
100
AcDbArc
 50
247.788205
 51
292.211795
  0
LINE
  5
FF
100
AcDbEntity
  8
1
100
AcDbLine
 10
56.627968
 20
-314.114699
 30
0.0
 11
56.627968
 21
-315.614699
 31
0.0
  0
LINE
  5
100
100
AcDbEntity
  8
1
100
AcDbLine
 10
44.427968
 20
-315.614699
 30
0.0
 11
44.427968
 21
-314.114699
 31
0.0
  0
LINE
  5
101
100
AcDbEntity
  8
1
100
AcDbLine
 10
-242.172032
 20
169.385301
 30
0.0
 11
-241.172032
 21
170.385301
 31
0.0
  0
LINE
  5
102
100
AcDbEntity
  8
1
100
AcDbLine
 10
-242.172032
 20
221.385301
 30
0.0
 11
-241.172032
 21
220.385301
 31
0.0
  0
LINE
  5
103
100
AcDbEntity
  8
1
100
AcDbLine
 10
42.527968
 20
-150.298084
 30
0.0
 11
58.527968
 21
-150.298084
 31
0.0
  0
LINE
  5
104
100
AcDbEntity
  8
1
100
AcDbLine
 10
42.527968
 20
-285.131314
 30
0.0
 11
58.527968
 21
-285.131314
 31
0.0
  0
ARC
  5
105
100
AcDbEntity
  8
1
100
AcDbCircle
 10
58.527968
 20
-156.298084
 30
0.0
 40
6.0
100
AcDbArc
 50
0.0
 51
90.0
  0
ARC
  5
106
100
AcDbEntity
  8
1
100
AcDbCircle
 10
42.527968
 20
-156.298084
 30
0.0
 40
6.0
100
AcDbArc
 50
90.0
 51
180.0
  0
ARC
  5
107
100
AcDbEntity
  8
1
100
AcDbCircle
 10
42.527968
 20
-182.714699
 30
0.0
 40
6.0
100
AcDbArc
 50
180.0
 51
270.0
  0
ARC
  5
108
100
AcDbEntity
  8
1
100
AcDbCircle
 10
58.527968
 20
-182.714699
 30
0.0
 40
6.0
100
AcDbArc
 50
270.0
 51
360.0
  0
ARC
  5
109
100
AcDbEntity
  8
1
100
AcDbCircle
 10
58.527968
 20
-252.714699
 30
0.0
 40
6.0
100
AcDbArc
 50
0.0
 51
90.0
  0
ARC
  5
10A
100
AcDbEntity
  8
1
100
AcDbCircle
 10
42.527968
 20
-252.714699
 30
0.0
 40
6.0
100
AcDbArc
 50
90.0
 51
180.0
  0
ARC
  5
10B
100
AcDbEntity
  8
1
100
AcDbCircle
 10
42.527968
 20
-279.131314
 30
0.0
 40
6.0
100
AcDbArc
 50
180.0
 51
270.0
  0
ARC
  5
10C
100
AcDbEntity
  8
1
100
AcDbCircle
 10
58.527968
 20
-279.131314
 30
0.0
 40
6.0
100
AcDbArc
 50
270.0
 51
360.0
  0
ARC
  5
10D
100
AcDbEntity
  8
1
100
AcDbCircle
 10
58.527968
 20
-198.714699
 30
0.0
 40
6.0
100
AcDbArc
 50
0.0
 51
90.0
  0
ARC
  5
10E
100
AcDbEntity
  8
1
100
AcDbCircle
 10
42.527968
 20
-198.714699
 30
0.0
 40
6.0
100
AcDbArc
 50
90.0
 51
180.0
  0
ARC
  5
10F
100
AcDbEntity
  8
1
100
AcDbCircle
 10
42.527968
 20
-236.714699
 30
0.0
 40
6.0
100
AcDbArc
 50
180.0
 51
270.0
  0
ARC
  5
110
100
AcDbEntity
  8
1
100
AcDbCircle
 10
58.527968
 20
-236.714699
 30
0.0
 40
6.0
100
AcDbArc
 50
270.0
 51
360.0
  0
LINE
  5
111
100
AcDbEntity
  8
1
100
AcDbLine
 10
-245.586319
 20
186.359363
 30
0.0
 11
-245.586319
 21
204.411238
 31
0.0
  0
LINE
  5
112
100
AcDbEntity
  8
1
100
AcDbLine
 10
-247.179495
 20
187.385301
 30
0.0
 11
-247.179495
 21
203.385301
 31
0.0
  0
ARC
  5
113
100
AcDbEntity
  8
1
100
AcDbCircle
 10
-253.179495
 20
203.385301
 30
0.0
 40
6.0
100
AcDbArc
 50
0.0
 51
90.0
  0
ARC
  5
114
100
AcDbEntity
  8
1
100
AcDbCircle
 10
-253.179495
 20
187.385301
 30
0.0
 40
6.0
100
AcDbArc
 50
270.0
 51
360.0
  0
LINE
  5
115
100
AcDbEntity
  8
1
  6
DASHED
100
AcDbLine
 10
-273.549228
 20
193.885301
 30
0.0
 11
-273.549228
 21
196.885301
 31
0.0
  0
LINE
  5
116
100
AcDbEntity
  8
1
  6
DASHED
100
AcDbLine
 10
-279.172032
 20
198.885301
 30
0.0
 11
-275.549228
 21
198.885301
 31
0.0
  0
LINE
  5
117
100
AcDbEntity
  8
1
  6
DASHED
100
AcDbLine
 10
-279.172032
 20
191.885301
 30
0.0
 11
-275.549228
 21
191.885301
 31
0.0
  0
LINE
  5
118
100
AcDbEntity
  8
1
100
AcDbLine
 10
-241.172032
 20
170.385301
 30
0.0
 11
-241.172032
 21
177.548666
 31
0.0
  0
LINE
  5
119
100
AcDbEntity
  8
1
100
AcDbLine
 10
-241.172032
 20
213.221936
 30
0.0
 11
-241.172032
 21
220.385301
 31
0.0
  0
ARC
  5
11A
100
AcDbEntity
  8
1
100
AcDbCircle
 10
-246.172032
 20
213.221936
 30
0.0
 40
5.0
100
AcDbArc
 50
306.776932
 51
360.0
  0
ARC
  5
11B
100
AcDbEntity
  8
1
100
AcDbCircle
 10
-246.172032
 20
177.548666
 30
0.0
 40
5.0
100
AcDbArc
 50
0.0
 51
53.223068
  0
ARC
  5
11C
100
AcDbEntity
  8
1
100
AcDbCircle
 10
-239.586319
 20
204.411238
 30
0.0
 40
6.0
100
AcDbArc
 50
126.776932
 51
180.0
  0
ARC
  5
11D
100
AcDbEntity
  8
1
100
AcDbCircle
 10
-239.586319
 20
186.359363
 30
0.0
 40
6.0
100
AcDbArc
 50
180.0
 51
233.223068
  0
LINE
  5
11E
100
AcDbEntity
  8
1
100
AcDbLine
 10
61.848468
 20
-180.736665
 30
0.0
 11
61.848468
 21
-167.243756
 31
0.0
  0
LINE
  5
11F
100
AcDbEntity
  8
1
100
AcDbLine
 10
39.207468
 20
-180.736665
 30
0.0
 11
39.207468
 21
-167.243756
 31
0.0
  0
ARC
  5
120
100
AcDbEntity
  8
1
100
AcDbCircle
 10
58.527968
 20
-180.736665
 30
0.0
 40
3.3205
100
AcDbArc
 50
270.0
 51
360.0
  0
ARC
  5
121
100
AcDbEntity
  8
1
100
AcDbCircle
 10
42.527968
 20
-180.736665
 30
0.0
 40
3.3205
100
AcDbArc
 50
180.0
 51
270.0
  0
ARC
  5
122
100
AcDbEntity
  8
1
100
AcDbCircle
 10
42.527968
 20
-202.505788
 30
0.0
 40
3.3205
100
AcDbArc
 50
90.0
 51
180.0
  0
ARC
  5
123
100
AcDbEntity
  8
1
100
AcDbCircle
 10
58.527968
 20
-202.505788
 30
0.0
 40
3.3205
100
AcDbArc
 50
0.0
 51
90.0
  0
LINE
  5
124
100
AcDbEntity
  8
1
100
AcDbLine
 10
42.527968
 20
-163.923256
 30
0.0
 11
58.527968
 21
-163.923256
 31
0.0
  0
ARC
  5
125
100
AcDbEntity
  8
1
100
AcDbCircle
 10
42.527968
 20
-167.243756
 30
0.0
 40
3.3205
100
AcDbArc
 50
90.0
 51
180.0
  0
ARC
  5
126
100
AcDbEntity
  8
1
100
AcDbCircle
 10
58.527968
 20
-167.243756
 30
0.0
 40
3.3205
100
AcDbArc
 50
0.0
 51
90.0
  0
LINE
  5
127
100
AcDbEntity
  8
1
100
AcDbLine
 10
61.848468
 20
-268.185643
 30
0.0
 11
61.848468
 21
-254.692734
 31
0.0
  0
LINE
  5
128
100
AcDbEntity
  8
1
100
AcDbLine
 10
61.848468
 20
-232.923611
 30
0.0
 11
61.848468
 21
-202.505788
 31
0.0
  0
LINE
  5
129
100
AcDbEntity
  8
1
100
AcDbLine
 10
39.207468
 20
-268.185643
 30
0.0
 11
39.207468
 21
-254.692734
 31
0.0
  0
LINE
  5
12A
100
AcDbEntity
  8
1
100
AcDbLine
 10
39.207468
 20
-232.923611
 30
0.0
 11
39.207468
 21
-202.505788
 31
0.0
  0
LINE
  5
12B
100
AcDbEntity
  8
1
100
AcDbLine
 10
42.527968
 20
-271.506143
 30
0.0
 11
58.527968
 21
-271.506143
 31
0.0
  0
ARC
  5
12C
100
AcDbEntity
  8
1
100
AcDbCircle
 10
58.527968
 20
-268.185643
 30
0.0
 40
3.3205
100
AcDbArc
 50
270.0
 51
360.0
  0
ARC
  5
12D
100
AcDbEntity
  8
1
100
AcDbCircle
 10
42.527968
 20
-268.185643
 30
0.0
 40
3.3205
100
AcDbArc
 50
180.0
 51
270.0
  0
ARC
  5
12E
100
AcDbEntity
  8
1
100
AcDbCircle
 10
42.527968
 20
-254.692734
 30
0.0
 40
3.3205
100
AcDbArc
 50
90.0
 51
180.0
  0
ARC
  5
12F
100
AcDbEntity
  8
1
100
AcDbCircle
 10
58.527968
 20
-254.692734
 30
0.0
 40
3.3205
100
AcDbArc
 50
0.0
 51
90.0
  0
ARC
  5
130
100
AcDbEntity
  8
1
100
AcDbCircle
 10
58.527968
 20
-232.923611
 30
0.0
 40
3.3205
100
AcDbArc
 50
270.0
 51
360.0
  0
ARC
  5
131
100
AcDbEntity
  8
1
100
AcDbCircle
 10
42.527968
 20
-232.923611
 30
0.0
 40
3.3205
100
AcDbArc
 50
180.0
 51
270.0
  0
LINE
  5
132
100
AcDbEntity
  8
1
100
AcDbLine
 10
-258.243506
 20
187.385301
 30
0.0
 11
-258.243506
 21
203.385301
 31
0.0
  0
ARC
  5
133
100
AcDbEntity
  8
1
100
AcDbCircle
 10
-261.564014
 20
203.385301
 30
0.0
 40
3.320508
100
AcDbArc
 50
0.0
 51
90.0
  0
ARC
  5
134
100
AcDbEntity
  8
1
100
AcDbCircle
 10
-261.564014
 20
187.385301
 30
0.0
 40
3.320508
100
AcDbArc
 50
270.0
 51
0.0
  0
ARC
  5
135
100
AcDbEntity
  8
1
  6
DASHED
100
AcDbCircle
 10
-275.549228
 20
196.885301
 30
0.0
 40
2.0
100
AcDbArc
 50
0.0
 51
90.0
  0
ARC
  5
136
100
AcDbEntity
  8
1
  6
DASHED
100
AcDbCircle
 10
-275.549228
 20
193.885301
 30
0.0
 40
2.0
100
AcDbArc
 50
270.0
 51
360.0
  0
LINE
  5
137
100
AcDbEntity
  8
1
100
AcDbLine
 10
-250.275244
 20
208.63557
 30
0.0
 11
-258.243506
 21
206.705809
 31
0.0
  0
LINE
  5
138
100
AcDbEntity
  8
1
100
AcDbLine
 10
-250.275244
 20
182.135032
 30
0.0
 11
-258.243506
 21
184.064793
 31
0.0
  0
LINE
  5
139
100
AcDbEntity
  8
1
100
AcDbLine
 10
-386.172032
 20
169.385301
 30
0.0
 11
-387.172032
 21
170.385301
 31
0.0
  0
LINE
  5
13A
100
AcDbEntity
  8
1
100
AcDbLine
 10
-386.172032
 20
221.385301
 30
0.0
 11
-387.172032
 21
220.385301
 31
0.0
  0
LINE
  5
13B
100
AcDbEntity
  8
1
100
AcDbLine
 10
-382.757745
 20
186.359363
 30
0.0
 11
-382.757745
 21
204.411238
 31
0.0
  0
LINE
  5
13C
100
AcDbEntity
  8
1
100
AcDbLine
 10
-381.164569
 20
187.385301
 30
0.0
 11
-381.164569
 21
203.385301
 31
0.0
  0
ARC
  5
13D
100
AcDbEntity
  8
1
100
AcDbCircle
 10
-375.164569
 20
203.385301
 30
0.0
 40
6.0
100
AcDbArc
 50
90.0
 51
180.0
  0
ARC
  5
13E
100
AcDbEntity
  8
1
100
AcDbCircle
 10
-375.164569
 20
187.385301
 30
0.0
 40
6.0
100
AcDbArc
 50
180.0
 51
270.0
  0
LINE
  5
13F
100
AcDbEntity
  8
1
  6
DASHED
100
AcDbLine
 10
-354.794836
 20
193.885301
 30
0.0
 11
-354.794836
 21
196.885301
 31
0.0
  0
LINE
  5
140
100
AcDbEntity
  8
1
  6
DASHED
100
AcDbLine
 10
-349.172032
 20
198.885301
 30
0.0
 11
-352.794836
 21
198.885301
 31
0.0
  0
LINE
  5
141
100
AcDbEntity
  8
1
  6
DASHED
100
AcDbLine
 10
-349.172032
 20
191.885301
 30
0.0
 11
-352.794836
 21
191.885301
 31
0.0
  0
LINE
  5
142
100
AcDbEntity
  8
1
100
AcDbLine
 10
-387.172032
 20
170.385301
 30
0.0
 11
-387.172032
 21
177.548666
 31
0.0
  0
LINE
  5
143
100
AcDbEntity
  8
1
100
AcDbLine
 10
-387.172032
 20
213.221936
 30
0.0
 11
-387.172032
 21
220.385301
 31
0.0
  0
ARC
  5
144
100
AcDbEntity
  8
1
100
AcDbCircle
 10
-382.172032
 20
213.221936
 30
0.0
 40
5.0
100
AcDbArc
 50
180.0
 51
233.223068
  0
ARC
  5
145
100
AcDbEntity
  8
1
100
AcDbCircle
 10
-382.172032
 20
177.548666
 30
0.0
 40
5.0
100
AcDbArc
 50
126.776932
 51
180.0
  0
ARC
  5
146
100
AcDbEntity
  8
1
100
AcDbCircle
 10
-388.757745
 20
204.411238
 30
0.0
 40
6.0
100
AcDbArc
 50
0.0
 51
53.223068
  0
ARC
  5
147
100
AcDbEntity
  8
1
100
AcDbCircle
 10
-388.757745
 20
186.359363
 30
0.0
 40
6.0
100
AcDbArc
 50
306.776932
 51
360.0
  0
LINE
  5
148
100
AcDbEntity
  8
1
100
AcDbLine
 10
-370.100558
 20
187.385301
 30
0.0
 11
-370.100558
 21
203.385301
 31
0.0
  0
ARC
  5
149
100
AcDbEntity
  8
1
100
AcDbCircle
 10
-366.78005
 20
203.385301
 30
0.0
 40
3.320508
100
AcDbArc
 50
90.0
 51
180.0
  0
ARC
  5
14A
100
AcDbEntity
  8
1
100
AcDbCircle
 10
-366.78005
 20
187.385301
 30
0.0
 40
3.320508
100
AcDbArc
 50
180.0
 51
270.0
  0
ARC
  5
14B
100
AcDbEntity
  8
1
  6
DASHED
100
AcDbCircle
 10
-352.794836
 20
196.885301
 30
0.0
 40
2.0
100
AcDbArc
 50
90.0
 51
180.0
  0
ARC
  5
14C
100
AcDbEntity
  8
1
  6
DASHED
100
AcDbCircle
 10
-352.794836
 20
193.885301
 30
0.0
 40
2.0
100
AcDbArc
 50
180.0
 51
270.0
  0
LINE
  5
14D
100
AcDbEntity
  8
1
100
AcDbLine
 10
-378.06882
 20
208.63557
 30
0.0
 11
-370.100558
 21
206.705809
 31
0.0
  0
LINE
  5
14E
100
AcDbEntity
  8
1
100
AcDbLine
 10
-378.06882
 20
182.135032
 30
0.0
 11
-370.100558
 21
184.064793
 31
0.0
  0
CIRCLE
  5
14F
100
AcDbEntity
  8
1
100
AcDbCircle
 10
-314.172032
 20
-217.714699
 30
0.0
 40
72.0
  0
CIRCLE
  5
150
100
AcDbEntity
  8
1
100
AcDbCircle
 10
-314.172032
 20
-217.714699
 30
0.0
 40
73.0
  0
CIRCLE
  5
151
100
AcDbEntity
  8
1
100
AcDbCircle
 10
-314.172032
 20
-217.714699
 30
0.0
 40
52.0
  0
CIRCLE
  5
152
100
AcDbEntity
  8
1
100
AcDbCircle
 10
-314.172032
 20
-217.714699
 30
0.0
 40
56.0
  0
CIRCLE
  5
153
100
AcDbEntity
  8
1
100
AcDbCircle
 10
-314.172032
 20
-217.714699
 30
0.0
 40
64.9
  0
CIRCLE
  5
154
100
AcDbEntity
  8
1
100
AcDbCircle
 10
-314.172032
 20
-217.714699
 30
0.0
 40
68.0
  0
LINE
  5
155
100
AcDbEntity
  8
1
100
AcDbLine
 10
23.402968
 20
-152.814699
 30
0.0
 11
23.402968
 21
-282.614699
 31
0.0
  0
LINE
  5
156
100
AcDbEntity
  8
1
100
AcDbLine
 10
77.652968
 20
-152.814699
 30
0.0
 11
77.652968
 21
-282.614699
 31
0.0
  0
LINE
  5
157
100
AcDbEntity
  8
1
100
AcDbLine
 10
76.64752
 20
-150.044132
 30
0.0
 11
77.652968
 21
-152.814699
 31
0.0
  0
LINE
  5
158
100
AcDbEntity
  8
1
100
AcDbLine
 10
24.408416
 20
-150.044132
 30
0.0
 11
23.402968
 21
-152.814699
 31
0.0
  0
LINE
  5
159
100
AcDbEntity
  8
1
100
AcDbLine
 10
76.64752
 20
-285.385266
 30
0.0
 11
77.652968
 21
-282.614699
 31
0.0
  0
LINE
  5
15A
100
AcDbEntity
  8
1
100
AcDbLine
 10
24.408416
 20
-285.385266
 30
0.0
 11
23.402968
 21
-282.614699
 31
0.0
  0
LINE
  5
15B
100
AcDbEntity
  8
1
100
AcDbLine
 10
-249.272032
 20
222.510301
 30
0.0
 11
-246.501465
 21
221.504853
 31
0.0
  0
LINE
  5
15C
100
AcDbEntity
  8
1
100
AcDbLine
 10
-249.272032
 20
168.260301
 30
0.0
 11
-246.501465
 21
169.265748
 31
0.0
  0
LINE
  5
15D
100
AcDbEntity
  8
1
100
AcDbLine
 10
-379.072032
 20
222.510301
 30
0.0
 11
-381.842599
 21
221.504853
 31
0.0
  0
LINE
  5
15E
100
AcDbEntity
  8
1
100
AcDbLine
 10
-379.072032
 20
168.260301
 30
0.0
 11
-381.842599
 21
169.265748
 31
0.0
  0
ARC
  5
15F
100
AcDbEntity
  8
1
100
AcDbCircle
 10
76.177513
 20
-150.214699
 30
0.0
 40
0.5
100
AcDbArc
 50
19.945998
 51
45.499934
  0
ARC
  5
160
100
AcDbEntity
  8
1
100
AcDbCircle
 10
24.878423
 20
-150.214699
 30
0.0
 40
0.5
100
AcDbArc
 50
134.500066
 51
160.054002
  0
ARC
  5
161
100
AcDbEntity
  8
1
100
AcDbCircle
 10
76.177513
 20
-285.214699
 30
0.0
 40
0.5
100
AcDbArc
 50
314.500066
 51
340.054002
  0
ARC
  5
162
100
AcDbEntity
  8
1
100
AcDbCircle
 10
24.878423
 20
-285.214699
 30
0.0
 40
0.5
100
AcDbArc
 50
199.945998
 51
225.499934
  0
ARC
  5
163
100
AcDbEntity
  8
1
100
AcDbCircle
 10
-246.672032
 20
221.034846
 30
0.0
 40
0.5
100
AcDbArc
 50
44.500066
 51
70.054002
  0
ARC
  5
164
100
AcDbEntity
  8
1
100
AcDbCircle
 10
-246.672032
 20
169.735756
 30
0.0
 40
0.5
100
AcDbArc
 50
289.945998
 51
315.499934
  0
ARC
  5
165
100
AcDbEntity
  8
1
100
AcDbCircle
 10
-381.672032
 20
221.034846
 30
0.0
 40
0.5
100
AcDbArc
 50
109.945998
 51
135.499934
  0
ARC
  5
166
100
AcDbEntity
  8
1
100
AcDbCircle
 10
-381.672032
 20
169.735756
 30
0.0
 40
0.5
100
AcDbArc
 50
224.500066
 51
250.054002
  0
LINE
  5
167
100
AcDbEntity
  8
1
100
AcDbLine
 10
49.027968
 20
-125.607049
 30
0.0
 11
52.027968
 21
-125.607049
 31
0.0
  0
LINE
  5
168
100
AcDbEntity
  8
1
100
AcDbLine
 10
49.027968
 20
-117.096145
 30
0.0
 11
52.027968
 21
-117.096145
 31
0.0
  0
ARC
  5
169
100
AcDbEntity
  8
1
100
AcDbCircle
 10
52.027968
 20
-119.096145
 30
0.0
 40
2.0
100
AcDbArc
 50
0.0
 51
90.0
  0
ARC
  5
16A
100
AcDbEntity
  8
1
100
AcDbCircle
 10
49.027968
 20
-119.096145
 30
0.0
 40
2.0
100
AcDbArc
 50
90.0
 51
180.0
  0
ARC
  5
16B
100
AcDbEntity
  8
1
100
AcDbCircle
 10
49.027968
 20
-123.607049
 30
0.0
 40
2.0
100
AcDbArc
 50
180.0
 51
270.0
  0
ARC
  5
16C
100
AcDbEntity
  8
1
100
AcDbCircle
 10
52.027968
 20
-123.607049
 30
0.0
 40
2.0
100
AcDbArc
 50
270.0
 51
360.0
  0
LINE
  5
16D
100
AcDbEntity
  8
1
100
AcDbLine
 10
-317.172032
 20
-77.655396
 30
0.0
 11
-311.172032
 21
-77.655396
 31
0.0
  0
LINE
  5
16E
100
AcDbEntity
  8
1
100
AcDbLine
 10
53.527968
 20
-77.655396
 30
0.0
 11
47.527968
 21
-77.655396
 31
0.0
  0
LINE
  5
16F
100
AcDbEntity
  8
1
100
AcDbLine
 10
54.027968
 20
-99.920907
 30
0.0
 11
47.027968
 21
-99.920907
 31
0.0
  0
LINE
  5
170
100
AcDbEntity
  8
1
100
AcDbLine
 10
52.027968
 20
-308.714699
 30
0.0
 11
49.027968
 21
-308.714699
 31
0.0
  0
ARC
  5
171
100
AcDbEntity
  8
1
100
AcDbCircle
 10
52.027968
 20
-306.714699
 30
0.0
 40
2.0
100
AcDbArc
 50
270.0
 51
360.0
  0
ARC
  5
172
100
AcDbEntity
  8
1
100
AcDbCircle
 10
49.027968
 20
-306.714699
 30
0.0
 40
2.0
100
AcDbArc
 50
180.0
 51
270.0
  0
LINE
  5
173
100
AcDbEntity
  8
1
100
AcDbLine
 10
33.027968
 20
-148.837989
 30
0.0
 11
44.027968
 21
-148.837989
 31
0.0
  0
LINE
  5
174
100
AcDbEntity
  8
1
100
AcDbLine
 10
57.027968
 20
-148.837989
 30
0.0
 11
68.027968
 21
-148.837989
 31
0.0
  0
LINE
  5
175
100
AcDbEntity
  8
1
100
AcDbLine
 10
37.527968
 20
-287.173171
 30
0.0
 11
44.027968
 21
-287.173171
 31
0.0
  0
LINE
  5
176
100
AcDbEntity
  8
1
100
AcDbLine
 10
57.027968
 20
-287.173171
 30
0.0
 11
63.527968
 21
-287.173171
 31
0.0
  0
LINE
  5
177
100
AcDbEntity
  8
1
100
AcDbLine
 10
42.527968
 20
-199.185288
 30
0.0
 11
58.527968
 21
-199.185288
 31
0.0
  0
LINE
  5
178
100
AcDbEntity
  8
1
100
AcDbLine
 10
42.527968
 20
-236.244111
 30
0.0
 11
58.527968
 21
-236.244111
 31
0.0
  0
LINE
  5
179
100
AcDbEntity
  8
1
100
AcDbLine
 10
63.458927
 20
-195.296272
 30
0.0
 11
61.848468
 21
-199.185288
 31
0.0
  0
LINE
  5
17A
100
AcDbEntity
  8
1
100
AcDbLine
 10
37.597009
 20
-195.296272
 30
0.0
 11
39.207468
 21
-199.185288
 31
0.0
  0
LINE
  5
17B
100
AcDbEntity
  8
1
100
AcDbLine
 10
39.207468
 20
-236.244111
 30
0.0
 11
37.597009
 21
-240.133126
 31
0.0
  0
LINE
  5
17C
100
AcDbEntity
  8
1
100
AcDbLine
 10
61.848468
 20
-236.244111
 30
0.0
 11
63.458927
 21
-240.133126
 31
0.0
  0
LINE
  5
17D
100
AcDbEntity
  8
1
100
AcDbLine
 10
42.527968
 20
-184.057165
 30
0.0
 11
58.527968
 21
-184.057165
 31
0.0
  0
LINE
  5
17E
100
AcDbEntity
  8
1
100
AcDbLine
 10
42.527968
 20
-251.372234
 30
0.0
 11
58.527968
 21
-251.372234
 31
0.0
  0
LINE
  5
17F
100
AcDbEntity
  8
1
100
AcDbLine
 10
63.224393
 20
-186.448812
 30
0.0
 11
61.848468
 21
-184.057165
 31
0.0
  0
LINE
  5
180
100
AcDbEntity
  8
1
100
AcDbLine
 10
37.831543
 20
-186.448812
 30
0.0
 11
39.207468
 21
-184.057165
 31
0.0
  0
LINE
  5
181
100
AcDbEntity
  8
1
100
AcDbLine
 10
63.224393
 20
-248.980587
 30
0.0
 11
61.848468
 21
-251.372234
 31
0.0
  0
LINE
  5
182
100
AcDbEntity
  8
1
100
AcDbLine
 10
37.831543
 20
-248.980587
 30
0.0
 11
39.207468
 21
-251.372234
 31
0.0
  0
LINE
  5
183
100
AcDbEntity
  8
1
100
AcDbLine
 10
63.880998
 20
-153.587905
 30
0.0
 11
61.848468
 21
-163.923256
 31
0.0
  0
LINE
  5
184
100
AcDbEntity
  8
1
100
AcDbLine
 10
37.174938
 20
-153.587905
 30
0.0
 11
39.207468
 21
-163.923256
 31
0.0
  0
LINE
  5
185
100
AcDbEntity
  8
1
100
AcDbLine
 10
61.848468
 20
-271.506143
 30
0.0
 11
63.880998
 21
-281.841493
 31
0.0
  0
LINE
  5
186
100
AcDbEntity
  8
1
100
AcDbLine
 10
37.174938
 20
-281.841493
 30
0.0
 11
39.207468
 21
-271.506143
 31
0.0
  0
ARC
  5
187
100
AcDbEntity
  8
1
100
AcDbCircle
 10
57.027968
 20
-145.837989
 30
0.0
 40
3.0
100
AcDbArc
 50
180.0
 51
270.0
  0
ARC
  5
188
100
AcDbEntity
  8
1
100
AcDbCircle
 10
44.027968
 20
-145.837989
 30
0.0
 40
3.0
100
AcDbArc
 50
270.0
 51
360.0
  0
ARC
  5
189
100
AcDbEntity
  8
1
100
AcDbCircle
 10
57.027968
 20
-290.173171
 30
0.0
 40
3.0
100
AcDbArc
 50
90.0
 51
180.0
  0
ARC
  5
18A
100
AcDbEntity
  8
1
100
AcDbCircle
 10
44.027968
 20
-290.173171
 30
0.0
 40
3.0
100
AcDbArc
 50
0.0
 51
90.0
  0
ARC
  5
18B
100
AcDbEntity
  8
1
100
AcDbCircle
 10
44.027968
 20
-305.714699
 30
0.0
 40
3.0
100
AcDbArc
 50
270.0
 51
0.0
  0
ARC
  5
18C
100
AcDbEntity
  8
1
100
AcDbCircle
 10
57.027968
 20
-305.714699
 30
0.0
 40
3.0
100
AcDbArc
 50
180.0
 51
270.0
  0
LINE
  5
18D
100
AcDbEntity
  8
1
100
AcDbLine
 10
-379.072032
 20
222.510301
 30
0.0
 11
-355.483131
 21
222.510301
 31
0.0
  0
LINE
  5
18E
100
AcDbEntity
  8
1
  6
DASHED
100
AcDbLine
 10
-355.483131
 20
222.510301
 30
0.0
 11
-348.943643
 21
222.510301
 31
0.0
  0
LINE
  5
18F
100
AcDbEntity
  8
1
  6
DASHED
100
AcDbLine
 10
-349.121906
 20
221.385301
 30
0.0
 11
-355.580685
 21
221.385301
 31
0.0
  0
LINE
  5
190
100
AcDbEntity
  8
1
100
AcDbLine
 10
-355.580685
 20
221.385301
 30
0.0
 11
-386.172032
 21
221.385301
 31
0.0
  0
LINE
  5
191
100
AcDbEntity
  8
1
  6
DASHED
100
AcDbLine
 10
-349.172032
 20
220.385301
 30
0.0
 11
-355.6674
 21
220.385301
 31
0.0
  0
LINE
  5
192
100
AcDbEntity
  8
1
100
AcDbLine
 10
-355.6674
 20
220.385301
 30
0.0
 11
-387.172032
 21
220.385301
 31
0.0
  0
LINE
  5
193
100
AcDbEntity
  8
1
100
AcDbLine
 10
-375.164569
 20
209.385301
 30
0.0
 11
-356.621265
 21
209.385301
 31
0.0
  0
LINE
  5
194
100
AcDbEntity
  8
1
  6
DASHED
100
AcDbLine
 10
-356.621265
 20
209.385301
 30
0.0
 11
-349.172032
 21
209.385301
 31
0.0
  0
LINE
  5
195
100
AcDbEntity
  8
1
100
AcDbLine
 10
-366.78005
 20
206.705809
 30
0.0
 11
-356.853617
 21
206.705809
 31
0.0
  0
LINE
  5
196
100
AcDbEntity
  8
1
  6
DASHED
100
AcDbLine
 10
-356.853617
 20
206.705809
 30
0.0
 11
-349.172032
 21
206.705809
 31
0.0
  0
LINE
  5
197
100
AcDbEntity
  8
1
100
AcDbLine
 10
-366.78005
 20
184.064793
 30
0.0
 11
-356.173176
 21
184.064793
 31
0.0
  0
LINE
  5
198
100
AcDbEntity
  8
1
  6
DASHED
100
AcDbLine
 10
-356.173176
 20
184.064793
 30
0.0
 11
-349.172032
 21
184.064793
 31
0.0
  0
LINE
  5
199
100
AcDbEntity
  8
1
100
AcDbLine
 10
-375.164569
 20
181.385301
 30
0.0
 11
-355.357588
 21
181.385301
 31
0.0
  0
LINE
  5
19A
100
AcDbEntity
  8
1
  6
DASHED
100
AcDbLine
 10
-355.357588
 20
181.385301
 30
0.0
 11
-349.172032
 21
181.385301
 31
0.0
  0
LINE
  5
19B
100
AcDbEntity
  8
1
  6
DASHED
100
AcDbLine
 10
-349.172032
 20
170.385301
 30
0.0
 11
-351.020524
 21
170.385301
 31
0.0
  0
LINE
  5
19C
100
AcDbEntity
  8
1
100
AcDbLine
 10
-351.020524
 20
170.385301
 30
0.0
 11
-387.172032
 21
170.385301
 31
0.0
  0
LINE
  5
19D
100
AcDbEntity
  8
1
  6
DASHED
100
AcDbLine
 10
-349.121906
 20
169.385301
 30
0.0
 11
-350.620247
 21
169.385301
 31
0.0
  0
LINE
  5
19E
100
AcDbEntity
  8
1
100
AcDbLine
 10
-350.620247
 20
169.385301
 30
0.0
 11
-386.172032
 21
169.385301
 31
0.0
  0
LINE
  5
19F
100
AcDbEntity
  8
1
100
AcDbLine
 10
-379.072032
 20
168.260301
 30
0.0
 11
-350.169937
 21
168.260301
 31
0.0
  0
LINE
  5
1A0
100
AcDbEntity
  8
1
  6
DASHED
100
AcDbLine
 10
-350.169937
 20
168.260301
 30
0.0
 11
-348.943643
 21
168.260301
 31
0.0
  0
LINE
  5
1A1
100
AcDbEntity
  8
1
  6
DASHED
100
AcDbLine
 10
-279.400421
 20
222.510301
 30
0.0
 11
-272.860933
 21
222.510301
 31
0.0
  0
LINE
  5
1A2
100
AcDbEntity
  8
1
100
AcDbLine
 10
-272.860933
 20
222.510301
 30
0.0
 11
-249.272032
 21
222.510301
 31
0.0
  0
LINE
  5
1A3
100
AcDbEntity
  8
1
  6
DASHED
100
AcDbLine
 10
-279.222158
 20
221.385301
 30
0.0
 11
-272.763379
 21
221.385301
 31
0.0
  0
LINE
  5
1A4
100
AcDbEntity
  8
1
100
AcDbLine
 10
-272.763379
 20
221.385301
 30
0.0
 11
-242.172032
 21
221.385301
 31
0.0
  0
LINE
  5
1A5
100
AcDbEntity
  8
1
  6
DASHED
100
AcDbLine
 10
-279.172032
 20
220.385301
 30
0.0
 11
-272.676664
 21
220.385301
 31
0.0
  0
LINE
  5
1A6
100
AcDbEntity
  8
1
100
AcDbLine
 10
-272.676664
 20
220.385301
 30
0.0
 11
-241.172032
 21
220.385301
 31
0.0
  0
LINE
  5
1A7
100
AcDbEntity
  8
1
100
AcDbLine
 10
-253.179495
 20
209.385301
 30
0.0
 11
-271.722799
 21
209.385301
 31
0.0
  0
LINE
  5
1A8
100
AcDbEntity
  8
1
  6
DASHED
100
AcDbLine
 10
-271.722799
 20
209.385301
 30
0.0
 11
-279.172032
 21
209.385301
 31
0.0
  0
LINE
  5
1A9
100
AcDbEntity
  8
1
100
AcDbLine
 10
-261.564014
 20
206.705809
 30
0.0
 11
-271.490447
 21
206.705809
 31
0.0
  0
LINE
  5
1AA
100
AcDbEntity
  8
1
  6
DASHED
100
AcDbLine
 10
-271.490447
 20
206.705809
 30
0.0
 11
-279.172032
 21
206.705809
 31
0.0
  0
LINE
  5
1AB
100
AcDbEntity
  8
1
100
AcDbLine
 10
-261.564014
 20
184.064793
 30
0.0
 11
-272.170888
 21
184.064793
 31
0.0
  0
LINE
  5
1AC
100
AcDbEntity
  8
1
  6
DASHED
100
AcDbLine
 10
-272.170888
 20
184.064793
 30
0.0
 11
-279.172032
 21
184.064793
 31
0.0
  0
LINE
  5
1AD
100
AcDbEntity
  8
1
100
AcDbLine
 10
-253.179495
 20
181.385301
 30
0.0
 11
-272.986476
 21
181.385301
 31
0.0
  0
LINE
  5
1AE
100
AcDbEntity
  8
1
  6
DASHED
100
AcDbLine
 10
-272.986476
 20
181.385301
 30
0.0
 11
-279.172032
 21
181.385301
 31
0.0
  0
LINE
  5
1AF
100
AcDbEntity
  8
1
  6
DASHED
100
AcDbLine
 10
-279.172032
 20
170.385301
 30
0.0
 11
-277.323541
 21
170.385301
 31
0.0
  0
LINE
  5
1B0
100
AcDbEntity
  8
1
100
AcDbLine
 10
-277.323541
 20
170.385301
 30
0.0
 11
-241.172032
 21
170.385301
 31
0.0
  0
LINE
  5
1B1
100
AcDbEntity
  8
1
  6
DASHED
100
AcDbLine
 10
-279.222158
 20
169.385301
 30
0.0
 11
-277.723817
 21
169.385301
 31
0.0
  0
LINE
  5
1B2
100
AcDbEntity
  8
1
100
AcDbLine
 10
-277.723817
 20
169.385301
 30
0.0
 11
-242.172032
 21
169.385301
 31
0.0
  0
LINE
  5
1B3
100
AcDbEntity
  8
1
  6
DASHED
100
AcDbLine
 10
-279.400421
 20
168.260301
 30
0.0
 11
-278.174128
 21
168.260301
 31
0.0
  0
LINE
  5
1B4
100
AcDbEntity
  8
1
100
AcDbLine
 10
-278.174128
 20
168.260301
 30
0.0
 11
-249.272032
 21
168.260301
 31
0.0
  0
LINE
  5
1B5
100
AcDbEntity
  8
2
  6
CENTER
 62
     2
100
AcDbLine
 10
-338.920769
 20
-76.147491
 30
0.0
 11
-338.920769
 21
-39.63199
 31
0.0
  0
LINE
  5
1B6
100
AcDbEntity
  8
2
  6
CENTER
 62
     2
100
AcDbLine
 10
-289.423295
 20
-76.147491
 30
0.0
 11
-289.423295
 21
-39.63199
 31
0.0
  0
LINE
  5
1B7
100
AcDbEntity
  8
2
  6
CENTER
 62
     2
100
AcDbLine
 10
25.779231
 20
-76.147491
 30
0.0
 11
25.779231
 21
-39.63199
 31
0.0
  0
LINE
  5
1B8
100
AcDbEntity
  8
2
  6
CENTER
 62
     2
100
AcDbLine
 10
75.276705
 20
-76.147491
 30
0.0
 11
75.276705
 21
-39.63199
 31
0.0
  0
LINE
  5
1B9
100
AcDbEntity
  8
2
100
AcDbLine
 10
-331.420769
 20
-64.714699
 30
0.0
 11
-331.420769
 21
-69.493011
 31
0.0
  0
LINE
  5
1BA
100
AcDbEntity
  8
2
100
AcDbLine
 10
-331.420769
 20
-69.493011
 30
0.0
 11
-332.670769
 21
-70.214699
 31
0.0
  0
LINE
  5
1BB
100
AcDbEntity
  8
2
100
AcDbLine
 10
-335.170769
 20
-64.714699
 30
0.0
 11
-335.170769
 21
-69.493011
 31
0.0
  0
ARC
  5
1BC
100
AcDbEntity
  8
2
100
AcDbCircle
 10
-333.295769
 20
-67.082635
 30
0.0
 40
3.053774
100
AcDbArc
 50
232.121121
 51
307.878879
  0
ARC
  5
1BD
100
AcDbEntity
  8
2
100
AcDbCircle
 10
-338.920769
 20
-58.88641
 30
0.0
 40
11.25
100
AcDbArc
 50
250.528777
 51
289.471219
  0
LINE
  5
1BE
100
AcDbEntity
  8
2
100
AcDbLine
 10
-346.420769
 20
-64.714699
 30
0.0
 11
-346.420769
 21
-69.493011
 31
0.0
  0
LINE
  5
1BF
100
AcDbEntity
  8
2
100
AcDbLine
 10
-346.420769
 20
-69.493011
 30
0.0
 11
-345.170769
 21
-70.214699
 31
0.0
  0
LINE
  5
1C0
100
AcDbEntity
  8
2
100
AcDbLine
 10
-345.170769
 20
-70.214699
 30
0.0
 11
-332.670769
 21
-70.214699
 31
0.0
  0
LINE
  5
1C1
100
AcDbEntity
  8
2
100
AcDbLine
 10
-342.670769
 20
-64.714699
 30
0.0
 11
-342.670769
 21
-69.493011
 31
0.0
  0
ARC
  5
1C2
100
AcDbEntity
  8
2
100
AcDbCircle
 10
-344.545769
 20
-67.082635
 30
0.0
 40
3.053774
100
AcDbArc
 50
232.121121
 51
307.878879
  0
LINE
  5
1C3
100
AcDbEntity
  8
2
100
AcDbLine
 10
-331.220769
 20
-62.714699
 30
0.0
 11
-331.220769
 21
-64.714699
 31
0.0
  0
LINE
  5
1C4
100
AcDbEntity
  8
2
100
AcDbLine
 10
-331.220769
 20
-64.714699
 30
0.0
 11
-346.620769
 21
-64.714699
 31
0.0
  0
LINE
  5
1C5
100
AcDbEntity
  8
2
100
AcDbLine
 10
-346.620769
 20
-64.714699
 30
0.0
 11
-346.620769
 21
-62.714699
 31
0.0
  0
LINE
  5
1C6
100
AcDbEntity
  8
2
100
AcDbLine
 10
-338.920769
 20
-64.714699
 30
0.0
 11
-339.420769
 21
-62.714699
 31
0.0
  0
LINE
  5
1C7
100
AcDbEntity
  8
2
100
AcDbLine
 10
-338.920769
 20
-62.714699
 30
0.0
 11
-338.420769
 21
-64.714699
 31
0.0
  0
LINE
  5
1C8
100
AcDbEntity
  8
2
100
AcDbLine
 10
81.776705
 20
-64.714699
 30
0.0
 11
81.776705
 21
-70.214699
 31
0.0
  0
LINE
  5
1C9
100
AcDbEntity
  8
2
100
AcDbLine
 10
75.276705
 20
-64.714699
 30
0.0
 11
75.276705
 21
-69.493011
 31
0.0
  0
ARC
  5
1CA
100
AcDbEntity
  8
2
100
AcDbCircle
 10
78.526705
 20
-62.535941
 30
0.0
 40
7.678759
100
AcDbArc
 50
244.96034
 51
295.03966
  0
LINE
  5
1CB
100
AcDbEntity
  8
2
100
AcDbLine
 10
68.776705
 20
-64.714699
 30
0.0
 11
68.776705
 21
-70.214699
 31
0.0
  0
LINE
  5
1CC
100
AcDbEntity
  8
2
100
AcDbLine
 10
68.776705
 20
-70.214699
 30
0.0
 11
81.776705
 21
-70.214699
 31
0.0
  0
ARC
  5
1CD
100
AcDbEntity
  8
2
100
AcDbCircle
 10
72.026705
 20
-62.535941
 30
0.0
 40
7.678759
100
AcDbArc
 50
244.96034
 51
295.03966
  0
LINE
  5
1CE
100
AcDbEntity
  8
2
100
AcDbLine
 10
82.976705
 20
-62.714699
 30
0.0
 11
82.976705
 21
-64.714699
 31
0.0
  0
LINE
  5
1CF
100
AcDbEntity
  8
2
100
AcDbLine
 10
82.976705
 20
-64.714699
 30
0.0
 11
67.576705
 21
-64.714699
 31
0.0
  0
LINE
  5
1D0
100
AcDbEntity
  8
2
100
AcDbLine
 10
67.576705
 20
-64.714699
 30
0.0
 11
67.576705
 21
-62.714699
 31
0.0
  0
CIRCLE
  5
1D1
100
AcDbEntity
  8
2
100
AcDbCircle
 10
-314.172032
 20
195.385301
 30
0.0
 40
11.0
  0
CIRCLE
  5
1D2
100
AcDbEntity
  8
2
100
AcDbCircle
 10
-289.423295
 20
220.134038
 30
0.0
 40
5.0
  0
LINE
  5
1D3
100
AcDbEntity
  8
2
  6
CENTER
 62
     2
100
AcDbLine
 10
-295.175305
 20
214.382028
 30
0.0
 11
-283.956303
 21
225.601029
 31
0.0
  0
ARC
  5
1D4
100
AcDbEntity
  8
2
  6
CENTER
 62
     2
100
AcDbCircle
 10
-314.172032
 20
195.385301
 30
0.0
 40
35.0
100
AcDbArc
 50
31.294005
 51
58.05225
  0
CIRCLE
  5
1D5
100
AcDbEntity
  8
2
100
AcDbCircle
 10
-338.920769
 20
220.134038
 30
0.0
 40
5.0
  0
LINE
  5
1D6
100
AcDbEntity
  8
2
  6
CENTER
 62
     2
100
AcDbLine
 10
-333.168759
 20
214.382028
 30
0.0
 11
-344.387761
 21
225.601029
 31
0.0
  0
ARC
  5
1D7
100
AcDbEntity
  8
2
  6
CENTER
 62
     2
100
AcDbCircle
 10
-314.172032
 20
195.385301
 30
0.0
 40
35.0
100
AcDbArc
 50
121.294005
 51
148.05225
  0
CIRCLE
  5
1D8
100
AcDbEntity
  8
2
100
AcDbCircle
 10
-338.920769
 20
170.636563
 30
0.0
 40
5.0
  0
LINE
  5
1D9
100
AcDbEntity
  8
2
  6
CENTER
 62
     2
100
AcDbLine
 10
-333.168759
 20
176.388574
 30
0.0
 11
-344.387761
 21
165.169572
 31
0.0
  0
ARC
  5
1DA
100
AcDbEntity
  8
2
  6
CENTER
 62
     2
100
AcDbCircle
 10
-314.172032
 20
195.385301
 30
0.0
 40
35.0
100
AcDbArc
 50
211.294005
 51
238.05225
  0
CIRCLE
  5
1DB
100
AcDbEntity
  8
2
100
AcDbCircle
 10
-289.423295
 20
170.636563
 30
0.0
 40
5.0
  0
LINE
  5
1DC
100
AcDbEntity
  8
2
  6
CENTER
 62
     2
100
AcDbLine
 10
-295.175305
 20
176.388574
 30
0.0
 11
-283.956303
 21
165.169572
 31
0.0
  0
ARC
  5
1DD
100
AcDbEntity
  8
2
  6
CENTER
 62
     2
100
AcDbCircle
 10
-314.172032
 20
195.385301
 30
0.0
 40
35.0
100
AcDbArc
 50
301.294005
 51
328.05225
  0
LINE
  5
1DE
100
AcDbEntity
  8
2
100
AcDbLine
 10
-357.672032
 20
-23.714699
 30
0.0
 11
-270.672032
 21
-23.714699
 31
0.0
  0
LINE
  5
1DF
100
AcDbEntity
  8
2
  6
CENTER
 62
     2
100
AcDbLine
 10
96.527968
 20
36.218756
 30
0.0
 11
96.527968
 21
-83.575128
 31
0.0
  0
LINE
  5
1E0
100
AcDbEntity
  8
2
100
AcDbLine
 10
13.327968
 20
-23.714699
 30
0.0
 11
117.527968
 21
-23.714699
 31
0.0
  0
CIRCLE
  5
1E1
100
AcDbEntity
  8
2
100
AcDbCircle
 10
96.527968
 20
-23.714699
 30
0.0
 40
4.9
  0
LINE
  5
1E2
100
AcDbEntity
  8
2
100
AcDbLine
 10
90.777968
 20
-23.714699
 30
0.0
 11
93.652968
 21
-18.735053
 31
0.0
  0
LINE
  5
1E3
100
AcDbEntity
  8
2
100
AcDbLine
 10
93.652968
 20
-18.735053
 30
0.0
 11
99.402968
 21
-18.735053
 31
0.0
  0
LINE
  5
1E4
100
AcDbEntity
  8
2
100
AcDbLine
 10
99.402968
 20
-18.735053
 30
0.0
 11
102.277968
 21
-23.714699
 31
0.0
  0
LINE
  5
1E5
100
AcDbEntity
  8
2
100
AcDbLine
 10
102.277968
 20
-23.714699
 30
0.0
 11
99.402968
 21
-28.694345
 31
0.0
  0
LINE
  5
1E6
100
AcDbEntity
  8
2
100
AcDbLine
 10
99.402968
 20
-28.694345
 30
0.0
 11
93.652968
 21
-28.694345
 31
0.0
  0
LINE
  5
1E7
100
AcDbEntity
  8
2
100
AcDbLine
 10
93.652968
 20
-28.694345
 30
0.0
 11
90.777968
 21
-23.714699
 31
0.0
  0
CIRCLE
  5
1E8
100
AcDbEntity
  8
2
100
AcDbCircle
 10
96.527968
 20
-23.714699
 30
0.0
 40
6.1
  0
CIRCLE
  5
1E9
100
AcDbEntity
  8
2
100
AcDbCircle
 10
-314.172032
 20
195.385301
 30
0.0
 40
10.0
  0
LINE
  5
1EA
100
AcDbEntity
  8
2
  6
CENTER
 62
     2
100
AcDbLine
 10
-314.172032
 20
149.624422
 30
0.0
 11
-314.172032
 21
272.979757
 31
0.0
  0
LINE
  5
1EB
100
AcDbEntity
  8
2
  6
CENTER
 62
     2
100
AcDbLine
 10
-367.780057
 20
241.385301
 30
0.0
 11
-160.902145
 21
241.385301
 31
0.0
  0
LINE
  5
1EC
100
AcDbEntity
  8
2
  6
CENTER
 62
     2
100
AcDbLine
 10
-160.902145
 20
-23.714699
 30
0.0
 11
-369.457394
 21
-23.714699
 31
0.0
  0
LINE
  5
1ED
100
AcDbEntity
  8
2
  6
CENTER
 62
     2
100
AcDbLine
 10
159.238139
 20
-23.714699
 30
0.0
 11
-0.025823
 21
-23.714699
 31
0.0
  0
CIRCLE
  5
1EE
100
AcDbEntity
  8
2
100
AcDbCircle
 10
96.527968
 20
-23.714699
 30
0.0
 40
6.25
  0
ARC
  5
1EF
100
AcDbEntity
  8
2
100
AcDbCircle
 10
-314.172032
 20
195.385301
 30
0.0
 40
18.0
100
AcDbArc
 50
16.12762
 51
73.87238
  0
ARC
  5
1F0
100
AcDbEntity
  8
2
100
AcDbCircle
 10
-314.172032
 20
195.385301
 30
0.0
 40
18.0
100
AcDbArc
 50
106.12762
 51
343.87238
  0
LINE
  5
1F1
100
AcDbEntity
  8
2
100
AcDbLine
 10
-284.572032
 20
262.385301
 30
0.0
 11
-343.772032
 21
262.385301
 31
0.0
  0
LINE
  5
1F2
100
AcDbEntity
  8
2
100
AcDbLine
 10
-275.60568
 20
254.162818
 30
0.0
 11
-270.834664
 21
199.143299
 31
0.0
  0
LINE
  5
1F3
100
AcDbEntity
  8
2
100
AcDbLine
 10
-352.738384
 20
254.162818
 30
0.0
 11
-357.5094
 21
199.143299
 31
0.0
  0
ARC
  5
1F4
100
AcDbEntity
  8
2
100
AcDbCircle
 10
-284.572032
 20
253.385301
 30
0.0
 40
9.0
100
AcDbArc
 50
4.956004
 51
90.0
  0
ARC
  5
1F5
100
AcDbEntity
  8
2
100
AcDbCircle
 10
-343.772032
 20
253.385301
 30
0.0
 40
9.0
100
AcDbArc
 50
90.0
 51
175.043996
  0
LINE
  5
1F6
100
AcDbEntity
  8
2
100
AcDbLine
 10
-273.787145
 20
179.220188
 30
0.0
 11
-278.959762
 21
166.297571
 31
0.0
  0
LINE
  5
1F7
100
AcDbEntity
  8
2
100
AcDbLine
 10
-354.55692
 20
179.220188
 30
0.0
 11
-349.384302
 21
166.297571
 31
0.0
  0
ARC
  5
1F8
100
AcDbEntity
  8
2
100
AcDbCircle
 10
-314.172032
 20
195.385301
 30
0.0
 40
43.5
100
AcDbArc
 50
175.043996
 51
201.815054
  0
ARC
  5
1F9
100
AcDbEntity
  8
2
100
AcDbCircle
 10
-314.172032
 20
195.385301
 30
0.0
 40
43.5
100
AcDbArc
 50
338.184946
 51
4.956004
  0
ARC
  5
1FA
100
AcDbEntity
  8
2
100
AcDbCircle
 10
-289.172032
 20
170.385301
 30
0.0
 40
11.0
100
AcDbArc
 50
270.0
 51
338.184946
  0
ARC
  5
1FB
100
AcDbEntity
  8
2
100
AcDbCircle
 10
-339.172032
 20
170.385301
 30
0.0
 40
11.0
100
AcDbArc
 50
201.815054
 51
270.0
  0
LINE
  5
1FC
100
AcDbEntity
  8
2
100
AcDbLine
 10
-339.172032
 20
159.385301
 30
0.0
 11
-319.627305
 21
159.385301
 31
0.0
  0
LINE
  5
1FD
100
AcDbEntity
  8
2
100
AcDbLine
 10
-308.716759
 20
159.385301
 30
0.0
 11
-287.172032
 21
159.385301
 31
0.0
  0
ARC
  5
1FE
100
AcDbEntity
  8
2
100
AcDbCircle
 10
-314.172032
 20
166.185301
 30
0.0
 40
8.0
100
AcDbArc
 50
245.188368
 51
294.811632
  0
ARC
  5
1FF
100
AcDbEntity
  8
2
100
AcDbCircle
 10
-308.716759
 20
154.385301
 30
0.0
 40
5.0
100
AcDbArc
 50
90.0
 51
114.811632
  0
ARC
  5
200
100
AcDbEntity
  8
2
100
AcDbCircle
 10
-319.627305
 20
154.385301
 30
0.0
 40
5.0
100
AcDbArc
 50
65.188368
 51
90.0
  0
LINE
  5
201
100
AcDbEntity
  8
2
100
AcDbLine
 10
-319.172032
 20
212.676917
 30
0.0
 11
-319.172032
 21
223.385301
 31
0.0
  0
LINE
  5
202
100
AcDbEntity
  8
2
100
AcDbLine
 10
-309.172032
 20
212.676917
 30
0.0
 11
-309.172032
 21
223.385301
 31
0.0
  0
LINE
  5
203
100
AcDbEntity
  8
2
100
AcDbLine
 10
-296.880416
 20
200.385301
 30
0.0
 11
-286.172032
 21
200.385301
 31
0.0
  0
LINE
  5
204
100
AcDbEntity
  8
2
100
AcDbLine
 10
-296.880416
 20
190.385301
 30
0.0
 11
-286.172032
 21
190.385301
 31
0.0
  0
LINE
  5
205
100
AcDbEntity
  8
2
100
AcDbLine
 10
-317.172032
 20
225.385301
 30
0.0
 11
-311.172032
 21
225.385301
 31
0.0
  0
LINE
  5
206
100
AcDbEntity
  8
2
100
AcDbLine
 10
-284.172032
 20
192.385301
 30
0.0
 11
-284.172032
 21
198.385301
 31
0.0
  0
ARC
  5
207
100
AcDbEntity
  8
2
100
AcDbCircle
 10
-286.172032
 20
198.385301
 30
0.0
 40
2.0
100
AcDbArc
 50
0.0
 51
90.0
  0
ARC
  5
208
100
AcDbEntity
  8
2
100
AcDbCircle
 10
-286.172032
 20
192.385301
 30
0.0
 40
2.0
100
AcDbArc
 50
270.0
 51
360.0
  0
ARC
  5
209
100
AcDbEntity
  8
2
100
AcDbCircle
 10
-311.172032
 20
223.385301
 30
0.0
 40
2.0
100
AcDbArc
 50
0.0
 51
90.0
  0
ARC
  5
20A
100
AcDbEntity
  8
2
100
AcDbCircle
 10
-317.172032
 20
223.385301
 30
0.0
 40
2.0
100
AcDbArc
 50
90.0
 51
180.0
  0
ARC
  5
20B
100
AcDbEntity
  8
2
100
AcDbCircle
 10
-314.172032
 20
195.385301
 30
0.0
 40
18.0
100
AcDbArc
 50
88.314587
 51
91.685413
  0
ARC
  5
20C
100
AcDbEntity
  8
2
100
AcDbCircle
 10
-314.172032
 20
195.385301
 30
0.0
 40
18.0
100
AcDbArc
 50
358.314587
 51
1.685413
  0
LINE
  5
20D
100
AcDbEntity
  8
2
100
AcDbLine
 10
-303.855378
 20
202.496324
 30
0.0
 11
-301.255624
 21
203.997293
 31
0.0
  0
LINE
  5
20E
100
AcDbEntity
  8
2
100
AcDbLine
 10
-302.855378
 20
200.764273
 30
0.0
 11
-300.255624
 21
202.265242
 31
0.0
  0
LINE
  5
20F
100
AcDbEntity
  8
2
100
AcDbLine
 10
-308.79306
 20
206.701955
 30
0.0
 11
-307.292091
 21
209.301709
 31
0.0
  0
LINE
  5
210
100
AcDbEntity
  8
2
100
AcDbLine
 10
-307.061009
 20
205.701955
 30
0.0
 11
-305.56004
 21
208.301709
 31
0.0
  0
ARC
  5
211
100
AcDbEntity
  8
2
100
AcDbCircle
 10
-314.172032
 20
195.385301
 30
0.0
 40
16.0
100
AcDbArc
 50
58.151428
 51
61.848572
  0
ARC
  5
212
100
AcDbEntity
  8
2
100
AcDbCircle
 10
-314.172032
 20
195.385301
 30
0.0
 40
16.0
100
AcDbArc
 50
28.151428
 51
31.848572
  0
ARC
  5
213
100
AcDbEntity
  8
2
100
AcDbCircle
 10
-314.172032
 20
195.385301
 30
0.0
 40
12.0
100
AcDbArc
 50
357.795772
 51
2.204228
  0
ARC
  5
214
100
AcDbEntity
  8
2
100
AcDbCircle
 10
-314.172032
 20
195.385301
 30
0.0
 40
12.0
100
AcDbArc
 50
27.707557
 51
32.292443
  0
ARC
  5
215
100
AcDbEntity
  8
2
100
AcDbCircle
 10
-314.172032
 20
195.385301
 30
0.0
 40
12.0
100
AcDbArc
 50
57.707557
 51
62.292443
  0
ARC
  5
216
100
AcDbEntity
  8
2
100
AcDbCircle
 10
-314.172032
 20
195.385301
 30
0.0
 40
12.0
100
AcDbArc
 50
87.795772
 51
92.204228
  0
LINE
  5
217
100
AcDbEntity
  8
2
100
AcDbLine
 10
-315.672032
 20
208.375682
 30
0.0
 11
-315.672032
 21
212.377946
 31
0.0
  0
LINE
  5
218
100
AcDbEntity
  8
2
100
AcDbLine
 10
-312.672032
 20
208.375682
 30
0.0
 11
-312.672032
 21
212.377946
 31
0.0
  0
LINE
  5
219
100
AcDbEntity
  8
2
100
AcDbLine
 10
-301.181651
 20
196.885301
 30
0.0
 11
-297.179387
 21
196.885301
 31
0.0
  0
LINE
  5
21A
100
AcDbEntity
  8
2
100
AcDbLine
 10
-301.181651
 20
193.885301
 30
0.0
 11
-297.179387
 21
193.885301
 31
0.0
  0
ARC
  5
21B
100
AcDbEntity
  8
2
100
AcDbCircle
 10
-301.181651
 20
195.885301
 30
0.0
 40
1.0
100
AcDbArc
 50
90.0
 51
182.204228
  0
ARC
  5
21C
100
AcDbEntity
  8
2
100
AcDbCircle
 10
-301.181651
 20
194.885301
 30
0.0
 40
1.0
100
AcDbArc
 50
177.795772
 51
270.0
  0
ARC
  5
21D
100
AcDbEntity
  8
2
100
AcDbCircle
 10
-297.179387
 20
194.885301
 30
0.0
 40
1.0
100
AcDbArc
 50
270.0
 51
358.314587
  0
ARC
  5
21E
100
AcDbEntity
  8
2
100
AcDbCircle
 10
-297.179387
 20
195.885301
 30
0.0
 40
1.0
100
AcDbArc
 50
1.685413
 51
90.0
  0
ARC
  5
21F
100
AcDbEntity
  8
2
100
AcDbCircle
 10
-313.672032
 20
212.377946
 30
0.0
 40
1.0
100
AcDbArc
 50
0.0
 51
88.314587
  0
ARC
  5
220
100
AcDbEntity
  8
2
100
AcDbCircle
 10
-314.672032
 20
212.377946
 30
0.0
 40
1.0
100
AcDbArc
 50
91.685413
 51
180.0
  0
ARC
  5
221
100
AcDbEntity
  8
2
100
AcDbCircle
 10
-314.672032
 20
208.375682
 30
0.0
 40
1.0
100
AcDbArc
 50
180.0
 51
272.204228
  0
ARC
  5
222
100
AcDbEntity
  8
2
100
AcDbCircle
 10
-313.672032
 20
208.375682
 30
0.0
 40
1.0
100
AcDbArc
 50
267.795772
 51
360.0
  0
ARC
  5
223
100
AcDbEntity
  8
2
100
AcDbCircle
 10
-303.105378
 20
201.197286
 30
0.0
 40
0.5
100
AcDbArc
 50
207.707557
 51
300.0
  0
ARC
  5
224
100
AcDbEntity
  8
2
100
AcDbCircle
 10
-303.605378
 20
202.063311
 30
0.0
 40
0.5
100
AcDbArc
 50
120.0
 51
212.292443
  0
ARC
  5
225
100
AcDbEntity
  8
2
100
AcDbCircle
 10
-300.505624
 20
202.698255
 30
0.0
 40
0.5
100
AcDbArc
 50
300.0
 51
28.151428
  0
ARC
  5
226
100
AcDbEntity
  8
2
100
AcDbCircle
 10
-301.005624
 20
203.56428
 30
0.0
 40
0.5
100
AcDbArc
 50
31.848572
 51
120.0
  0
ARC
  5
227
100
AcDbEntity
  8
2
100
AcDbCircle
 10
-307.494021
 20
205.951955
 30
0.0
 40
0.5
100
AcDbArc
 50
237.707557
 51
330.0
  0
ARC
  5
228
100
AcDbEntity
  8
2
100
AcDbCircle
 10
-308.360047
 20
206.451955
 30
0.0
 40
0.5
100
AcDbArc
 50
150.0
 51
242.292443
  0
ARC
  5
229
100
AcDbEntity
  8
2
100
AcDbCircle
 10
-306.859078
 20
209.051709
 30
0.0
 40
0.5
100
AcDbArc
 50
61.848572
 51
150.0
  0
ARC
  5
22A
100
AcDbEntity
  8
2
100
AcDbCircle
 10
-305.993053
 20
208.551709
 30
0.0
 40
0.5
100
AcDbArc
 50
330.0
 51
58.151428
  0
ARC
  5
22B
100
AcDbEntity
  8
2
100
AcDbCircle
 10
-314.172032
 20
195.385301
 30
0.0
 40
17.0
100
AcDbArc
 50
13.608961
 51
76.391039
  0
ARC
  5
22C
100
AcDbEntity
  8
2
100
AcDbCircle
 10
-314.172032
 20
195.385301
 30
0.0
 40
17.0
100
AcDbArc
 50
103.608961
 51
346.391039
  0
LINE
  5
22D
100
AcDbEntity
  8
2
100
AcDbLine
 10
-310.172032
 20
211.908012
 30
0.0
 11
-310.172032
 21
223.385301
 31
0.0
  0
LINE
  5
22E
100
AcDbEntity
  8
2
100
AcDbLine
 10
-317.172032
 20
224.385301
 30
0.0
 11
-311.172032
 21
224.385301
 31
0.0
  0
LINE
  5
22F
100
AcDbEntity
  8
2
100
AcDbLine
 10
-318.172032
 20
211.908012
 30
0.0
 11
-318.172032
 21
223.385301
 31
0.0
  0
LINE
  5
230
100
AcDbEntity
  8
2
100
AcDbLine
 10
-297.64932
 20
199.385301
 30
0.0
 11
-286.172032
 21
199.385301
 31
0.0
  0
LINE
  5
231
100
AcDbEntity
  8
2
100
AcDbLine
 10
-285.172032
 20
192.385301
 30
0.0
 11
-285.172032
 21
198.385301
 31
0.0
  0
LINE
  5
232
100
AcDbEntity
  8
2
100
AcDbLine
 10
-297.64932
 20
191.385301
 30
0.0
 11
-286.172032
 21
191.385301
 31
0.0
  0
ARC
  5
233
100
AcDbEntity
  8
2
100
AcDbCircle
 10
-286.172032
 20
198.385301
 30
0.0
 40
1.0
100
AcDbArc
 50
0.0
 51
90.0
  0
ARC
  5
234
100
AcDbEntity
  8
2
100
AcDbCircle
 10
-286.172032
 20
192.385301
 30
0.0
 40
1.0
100
AcDbArc
 50
270.0
 51
0.0
  0
ARC
  5
235
100
AcDbEntity
  8
2
100
AcDbCircle
 10
-311.172032
 20
223.385301
 30
0.0
 40
1.0
100
AcDbArc
 50
0.0
 51
90.0
  0
ARC
  5
236
100
AcDbEntity
  8
2
100
AcDbCircle
 10
-317.172032
 20
223.385301
 30
0.0
 40
1.0
100
AcDbArc
 50
90.0
 51
180.0
  0
ARC
  5
237
100
AcDbEntity
  8
2
100
AcDbCircle
 10
-321.457686
 20
234.370996
 30
0.0
 40
2.285695
100
AcDbArc
 50
270.0
 51
360.0
  0
ARC
  5
238
100
AcDbEntity
  8
2
100
AcDbCircle
 10
-323.846237
 20
236.43955
 30
0.0
 40
2.285695
100
AcDbArc
 50
90.0
 51
180.0
  0
ARC
  5
239
100
AcDbEntity
  8
2
100
AcDbCircle
 10
-322.829103
 20
234.348139
 30
0.0
 40
1.142848
100
AcDbArc
 50
180.0
 51
270.0
  0
ARC
  5
23A
100
AcDbEntity
  8
2
100
AcDbCircle
 10
-322.47482
 20
236.462407
 30
0.0
 40
1.142848
100
AcDbArc
 50
0.0
 51
90.0
  0
LINE
  5
23B
100
AcDbEntity
  8
2
100
AcDbLine
 10
-316.052016
 20
237.605255
 30
0.0
 11
-316.292014
 21
232.085301
 31
0.0
  0
LINE
  5
23C
100
AcDbEntity
  8
2
100
AcDbLine
 10
-312.292048
 20
237.605255
 30
0.0
 11
-312.05205
 21
232.085301
 31
0.0
  0
LINE
  5
23D
100
AcDbEntity
  8
2
100
AcDbLine
 10
-316.052016
 20
237.605255
 30
0.0
 11
-315.023454
 21
232.085301
 31
0.0
  0
LINE
  5
23E
100
AcDbEntity
  8
2
100
AcDbLine
 10
-314.172032
 20
234.748136
 30
0.0
 11
-313.430956
 21
238.725245
 31
0.0
  0
LINE
  5
23F
100
AcDbEntity
  8
2
100
AcDbLine
 10
-317.972
 20
238.725245
 30
0.0
 11
-314.913108
 21
238.725245
 31
0.0
  0
LINE
  5
240
100
AcDbEntity
  8
2
100
AcDbLine
 10
-315.023454
 20
232.085301
 30
0.0
 11
-313.320611
 21
232.085301
 31
0.0
  0
ARC
  5
241
100
AcDbEntity
  8
2
100
AcDbCircle
 10
-304.497827
 20
234.370996
 30
0.0
 40
2.285695
100
AcDbArc
 50
270.0
 51
360.0
  0
ARC
  5
242
100
AcDbEntity
  8
2
100
AcDbCircle
 10
-305.514961
 20
234.348139
 30
0.0
 40
1.142848
100
AcDbArc
 50
270.0
 51
360.0
  0
LINE
  5
243
100
AcDbEntity
  8
2
100
AcDbLine
 10
-307.012092
 20
236.462407
 30
0.0
 11
-307.012092
 21
234.348139
 31
0.0
  0
ARC
  5
244
100
AcDbEntity
  8
2
100
AcDbCircle
 10
-306.886379
 20
236.43955
 30
0.0
 40
2.285695
100
AcDbArc
 50
90.0
 51
180.0
  0
LINE
  5
245
100
AcDbEntity
  8
2
100
AcDbLine
 10
-309.172074
 20
236.43955
 30
0.0
 11
-309.172074
 21
234.370996
 31
0.0
  0
LINE
  5
246
100
AcDbEntity
  8
2
100
AcDbLine
 10
-312.05205
 20
232.085301
 30
0.0
 11
-309.892068
 21
232.085301
 31
0.0
  0
LINE
  5
247
100
AcDbEntity
  8
2
100
AcDbLine
 10
-301.25214
 20
232.245299
 30
0.0
 11
-296.052183
 21
232.245299
 31
0.0
  0
LINE
  5
248
100
AcDbEntity
  8
2
100
AcDbLine
 10
-299.092158
 20
234.805278
 30
0.0
 11
-296.052183
 21
234.805278
 31
0.0
  0
LINE
  5
249
100
AcDbEntity
  8
2
100
AcDbLine
 10
-299.092158
 20
236.005268
 30
0.0
 11
-296.052183
 21
236.005268
 31
0.0
  0
LINE
  5
24A
100
AcDbEntity
  8
2
100
AcDbLine
 10
-299.092158
 20
233.445289
 30
0.0
 11
-299.092158
 21
234.805278
 31
0.0
  0
LINE
  5
24B
100
AcDbEntity
  8
2
100
AcDbLine
 10
-299.092158
 20
236.005268
 30
0.0
 11
-299.092158
 21
237.365257
 31
0.0
  0
LINE
  5
24C
100
AcDbEntity
  8
2
100
AcDbLine
 10
-329.731902
 20
237.365257
 30
0.0
 11
-327.57192
 21
237.365257
 31
0.0
  0
LINE
  5
24D
100
AcDbEntity
  8
2
100
AcDbLine
 10
-332.531879
 20
236.005268
 30
0.0
 11
-324.131949
 21
240.085234
 31
0.0
  0
LINE
  5
24E
100
AcDbEntity
  8
2
100
AcDbLine
 10
-332.531879
 20
236.005268
 30
0.0
 11
-332.531879
 21
240.085234
 31
0.0
  0
LINE
  5
24F
100
AcDbEntity
  8
2
100
AcDbLine
 10
-327.57192
 20
237.365257
 30
0.0
 11
-327.57192
 21
232.085301
 31
0.0
  0
LINE
  5
250
100
AcDbEntity
  8
2
100
AcDbLine
 10
-326.131932
 20
236.43955
 30
0.0
 11
-326.131932
 21
234.370996
 31
0.0
  0
LINE
  5
251
100
AcDbEntity
  8
2
100
AcDbLine
 10
-319.17199
 20
236.43955
 30
0.0
 11
-319.17199
 21
234.370996
 31
0.0
  0
LINE
  5
252
100
AcDbEntity
  8
2
100
AcDbLine
 10
-323.97195
 20
236.462407
 30
0.0
 11
-323.97195
 21
234.348139
 31
0.0
  0
LINE
  5
253
100
AcDbEntity
  8
2
100
AcDbLine
 10
-321.331972
 20
236.462407
 30
0.0
 11
-321.331972
 21
234.348139
 31
0.0
  0
ARC
  5
254
100
AcDbEntity
  8
2
100
AcDbCircle
 10
-323.846237
 20
234.370996
 30
0.0
 40
2.285695
100
AcDbArc
 50
180.0
 51
270.0
  0
ARC
  5
255
100
AcDbEntity
  8
2
100
AcDbCircle
 10
-321.457686
 20
236.43955
 30
0.0
 40
2.285695
100
AcDbArc
 50
360.0
 51
90.0
  0
ARC
  5
256
100
AcDbEntity
  8
2
100
AcDbCircle
 10
-322.47482
 20
234.348139
 30
0.0
 40
1.142848
100
AcDbArc
 50
270.0
 51
360.0
  0
ARC
  5
257
100
AcDbEntity
  8
2
100
AcDbCircle
 10
-322.829103
 20
236.462407
 30
0.0
 40
1.142848
100
AcDbArc
 50
90.0
 51
180.0
  0
LINE
  5
258
100
AcDbEntity
  8
2
100
AcDbLine
 10
-329.731902
 20
232.085301
 30
0.0
 11
-327.57192
 21
232.085301
 31
0.0
  0
LINE
  5
259
100
AcDbEntity
  8
2
100
AcDbLine
 10
-317.972
 20
238.725245
 30
0.0
 11
-318.451996
 21
232.085301
 31
0.0
  0
LINE
  5
25A
100
AcDbEntity
  8
2
100
AcDbLine
 10
-310.372064
 20
238.725245
 30
0.0
 11
-309.892068
 21
232.085301
 31
0.0
  0
LINE
  5
25B
100
AcDbEntity
  8
2
100
AcDbLine
 10
-312.292048
 20
237.605255
 30
0.0
 11
-313.320611
 21
232.085301
 31
0.0
  0
LINE
  5
25C
100
AcDbEntity
  8
2
100
AcDbLine
 10
-314.172032
 20
234.748136
 30
0.0
 11
-314.913108
 21
238.725245
 31
0.0
  0
LINE
  5
25D
100
AcDbEntity
  8
2
100
AcDbLine
 10
-323.846237
 20
238.725245
 30
0.0
 11
-321.457686
 21
238.725245
 31
0.0
  0
LINE
  5
25E
100
AcDbEntity
  8
2
100
AcDbLine
 10
-323.846237
 20
232.085301
 30
0.0
 11
-321.457686
 21
232.085301
 31
0.0
  0
LINE
  5
25F
100
AcDbEntity
  8
2
100
AcDbLine
 10
-318.451996
 20
232.085301
 30
0.0
 11
-316.292014
 21
232.085301
 31
0.0
  0
ARC
  5
260
100
AcDbEntity
  8
2
100
AcDbCircle
 10
-306.886379
 20
234.370996
 30
0.0
 40
2.285695
100
AcDbArc
 50
180.0
 51
270.0
  0
LINE
  5
261
100
AcDbEntity
  8
2
100
AcDbLine
 10
-304.372114
 20
236.462407
 30
0.0
 11
-304.372114
 21
234.348139
 31
0.0
  0
ARC
  5
262
100
AcDbEntity
  8
2
100
AcDbCircle
 10
-305.869244
 20
234.348139
 30
0.0
 40
1.142848
100
AcDbArc
 50
180.0
 51
270.0
  0
ARC
  5
263
100
AcDbEntity
  8
2
100
AcDbCircle
 10
-305.514961
 20
236.462407
 30
0.0
 40
1.142848
100
AcDbArc
 50
0.0
 51
90.0
  0
ARC
  5
264
100
AcDbEntity
  8
2
100
AcDbCircle
 10
-305.869244
 20
236.462407
 30
0.0
 40
1.142848
100
AcDbArc
 50
90.0
 51
180.0
  0
ARC
  5
265
100
AcDbEntity
  8
2
100
AcDbCircle
 10
-304.497827
 20
236.43955
 30
0.0
 40
2.285695
100
AcDbArc
 50
360.0
 51
90.0
  0
LINE
  5
266
100
AcDbEntity
  8
2
100
AcDbLine
 10
-302.212132
 20
236.43955
 30
0.0
 11
-302.212132
 21
234.370996
 31
0.0
  0
LINE
  5
267
100
AcDbEntity
  8
2
100
AcDbLine
 10
-322.47482
 20
237.605255
 30
0.0
 11
-322.829103
 21
237.605255
 31
0.0
  0
LINE
  5
268
100
AcDbEntity
  8
2
100
AcDbLine
 10
-322.47482
 20
233.205291
 30
0.0
 11
-322.829103
 21
233.205291
 31
0.0
  0
LINE
  5
269
100
AcDbEntity
  8
2
100
AcDbLine
 10
-305.869244
 20
237.605255
 30
0.0
 11
-305.514961
 21
237.605255
 31
0.0
  0
LINE
  5
26A
100
AcDbEntity
  8
2
100
AcDbLine
 10
-313.430956
 20
238.725245
 30
0.0
 11
-310.372064
 21
238.725245
 31
0.0
  0
LINE
  5
26B
100
AcDbEntity
  8
2
100
AcDbLine
 10
-306.886379
 20
238.725245
 30
0.0
 11
-304.497827
 21
238.725245
 31
0.0
  0
LINE
  5
26C
100
AcDbEntity
  8
2
100
AcDbLine
 10
-306.886379
 20
232.085301
 30
0.0
 11
-304.497827
 21
232.085301
 31
0.0
  0
LINE
  5
26D
100
AcDbEntity
  8
2
100
AcDbLine
 10
-301.25214
 20
238.565247
 30
0.0
 11
-301.25214
 21
232.245299
 31
0.0
  0
LINE
  5
26E
100
AcDbEntity
  8
2
100
AcDbLine
 10
-301.25214
 20
238.565247
 30
0.0
 11
-296.052183
 21
238.565247
 31
0.0
  0
LINE
  5
26F
100
AcDbEntity
  8
2
100
AcDbLine
 10
-299.092158
 20
233.445289
 30
0.0
 11
-296.052183
 21
233.445289
 31
0.0
  0
LINE
  5
270
100
AcDbEntity
  8
2
100
AcDbLine
 10
-299.092158
 20
237.365257
 30
0.0
 11
-296.052183
 21
237.365257
 31
0.0
  0
LINE
  5
271
100
AcDbEntity
  8
2
100
AcDbLine
 10
-296.052183
 20
237.365257
 30
0.0
 11
-296.052183
 21
238.565247
 31
0.0
  0
LINE
  5
272
100
AcDbEntity
  8
2
100
AcDbLine
 10
-296.052183
 20
232.245299
 30
0.0
 11
-296.052183
 21
233.445289
 31
0.0
  0
LINE
  5
273
100
AcDbEntity
  8
2
100
AcDbLine
 10
-296.052183
 20
234.805278
 30
0.0
 11
-296.052183
 21
236.005268
 31
0.0
  0
LINE
  5
274
100
AcDbEntity
  8
2
100
AcDbLine
 10
-329.731902
 20
237.365257
 30
0.0
 11
-329.731902
 21
232.085301
 31
0.0
  0
LINE
  5
275
100
AcDbEntity
  8
2
100
AcDbLine
 10
-332.531879
 20
240.085234
 30
0.0
 11
-324.131949
 21
240.085234
 31
0.0
  0
LINE
  5
276
100
AcDbEntity
  8
2
100
AcDbLine
 10
-305.869244
 20
233.205291
 30
0.0
 11
-305.514961
 21
233.205291
 31
0.0
  0
LINE
  5
277
100
AcDbEntity
  8
2
100
AcDbLine
 10
-349.213186
 20
-2.714699
 30
0.0
 11
-279.130878
 21
-2.714699
 31
0.0
  0
LINE
  5
278
100
AcDbEntity
  8
2
100
AcDbLine
 10
-270.672032
 20
-23.714699
 30
0.0
 11
-271.135752
 21
-10.435503
 31
0.0
  0
LINE
  5
279
100
AcDbEntity
  8
2
100
AcDbLine
 10
-357.672032
 20
-23.714699
 30
0.0
 11
-357.208312
 21
-10.435503
 31
0.0
  0
ARC
  5
27A
100
AcDbEntity
  8
2
100
AcDbCircle
 10
-279.130878
 20
-10.714699
 30
0.0
 40
8.0
100
AcDbArc
 50
2.0
 51
90.0
  0
ARC
  5
27B
100
AcDbEntity
  8
2
100
AcDbCircle
 10
-349.213186
 20
-10.714699
 30
0.0
 40
8.0
100
AcDbArc
 50
90.0
 51
178.0
  0
LINE
  5
27C
100
AcDbEntity
  8
2
100
AcDbLine
 10
-331.172032
 20
-1.714699
 30
0.0
 11
-284.923295
 21
-1.714699
 31
0.0
  0
LINE
  5
27D
100
AcDbEntity
  8
2
100
AcDbLine
 10
-331.172032
 20
-1.714699
 30
0.0
 11
-332.172032
 21
-2.714699
 31
0.0
  0
LINE
  5
27E
100
AcDbEntity
  8
2
100
AcDbLine
 10
-297.64932
 20
-1.714699
 30
0.0
 11
-296.880416
 21
-2.714699
 31
0.0
  0
LINE
  5
27F
100
AcDbEntity
  8
2
100
AcDbLine
 10
-309.172032
 20
212.676917
 30
0.0
 11
-310.172032
 21
211.908012
 31
0.0
  0
LINE
  5
280
100
AcDbEntity
  8
2
100
AcDbLine
 10
-318.172032
 20
211.908012
 30
0.0
 11
-319.172032
 21
212.676917
 31
0.0
  0
LINE
  5
281
100
AcDbEntity
  8
2
100
AcDbLine
 10
-297.64932
 20
199.385301
 30
0.0
 11
-296.880416
 21
200.385301
 31
0.0
  0
LINE
  5
282
100
AcDbEntity
  8
2
100
AcDbLine
 10
-297.64932
 20
191.385301
 30
0.0
 11
-296.880416
 21
190.385301
 31
0.0
  0
LINE
  5
283
100
AcDbEntity
  8
2
  6
CENTER
 62
     2
100
AcDbLine
 10
-338.920769
 20
3.970046
 30
0.0
 11
-338.920769
 21
-8.598306
 31
0.0
  0
LINE
  5
284
100
AcDbEntity
  8
2
  6
CENTER
 62
     2
100
AcDbLine
 10
-289.423295
 20
3.970046
 30
0.0
 11
-289.423295
 21
-8.598306
 31
0.0
  0
LINE
  5
285
100
AcDbEntity
  8
2
100
AcDbLine
 10
-343.420769
 20
-1.714699
 30
0.0
 11
-334.420769
 21
-1.714699
 31
0.0
  0
ARC
  5
286
100
AcDbEntity
  8
2
100
AcDbCircle
 10
-334.420769
 20
-2.214699
 30
0.0
 40
0.5
100
AcDbArc
 50
0.0
 51
90.0
  0
ARC
  5
287
100
AcDbEntity
  8
2
100
AcDbCircle
 10
-343.420769
 20
-2.214699
 30
0.0
 40
0.5
100
AcDbArc
 50
90.0
 51
180.0
  0
ARC
  5
288
100
AcDbEntity
  8
2
100
AcDbCircle
 10
-333.420769
 20
-2.214699
 30
0.0
 40
0.5
100
AcDbArc
 50
180.0
 51
270.0
  0
ARC
  5
289
100
AcDbEntity
  8
2
100
AcDbCircle
 10
-344.420769
 20
-2.214699
 30
0.0
 40
0.5
100
AcDbArc
 50
270.0
 51
360.0
  0
ARC
  5
28A
100
AcDbEntity
  8
2
100
AcDbCircle
 10
-284.923295
 20
-2.214699
 30
0.0
 40
0.5
100
AcDbArc
 50
0.0
 51
90.0
  0
ARC
  5
28B
100
AcDbEntity
  8
2
100
AcDbCircle
 10
-293.923295
 20
-2.214699
 30
0.0
 40
0.5
100
AcDbArc
 50
90.0
 51
180.0
  0
ARC
  5
28C
100
AcDbEntity
  8
2
100
AcDbCircle
 10
-283.923295
 20
-2.214699
 30
0.0
 40
0.5
100
AcDbArc
 50
180.0
 51
270.0
  0
ARC
  5
28D
100
AcDbEntity
  8
2
100
AcDbCircle
 10
-294.923295
 20
-2.214699
 30
0.0
 40
0.5
100
AcDbArc
 50
270.0
 51
360.0
  0
LINE
  5
28E
100
AcDbEntity
  8
2
100
AcDbLine
 10
-319.627305
 20
-23.714699
 30
0.0
 11
-318.961373
 21
-4.6449
 31
0.0
  0
LINE
  5
28F
100
AcDbEntity
  8
2
100
AcDbLine
 10
-308.716759
 20
-23.714699
 30
0.0
 11
-309.382691
 21
-4.6449
 31
0.0
  0
LINE
  5
290
100
AcDbEntity
  8
2
100
AcDbLine
 10
-323.683141
 20
13.285301
 30
0.0
 11
-304.660923
 21
13.285301
 31
0.0
  0
LINE
  5
291
100
AcDbEntity
  8
2
100
AcDbLine
 10
-324.172032
 20
-0.714699
 30
0.0
 11
-304.172032
 21
-0.714699
 31
0.0
  0
LINE
  5
292
100
AcDbEntity
  8
2
100
AcDbLine
 10
-303.172032
 20
-1.714699
 30
0.0
 11
-304.172032
 21
-0.714699
 31
0.0
  0
LINE
  5
293
100
AcDbEntity
  8
2
100
AcDbLine
 10
-325.172032
 20
-1.714699
 30
0.0
 11
-324.172032
 21
-0.714699
 31
0.0
  0
LINE
  5
294
100
AcDbEntity
  8
2
100
AcDbLine
 10
-304.172032
 20
-0.714699
 30
0.0
 11
-304.660923
 21
13.285301
 31
0.0
  0
LINE
  5
295
100
AcDbEntity
  8
2
100
AcDbLine
 10
-324.172032
 20
-0.714699
 30
0.0
 11
-323.683141
 21
13.285301
 31
0.0
  0
LINE
  5
296
100
AcDbEntity
  8
2
100
AcDbLine
 10
-323.337183
 20
199.385301
 30
0.0
 11
-309.829362
 21
199.385301
 31
0.0
  0
LINE
  5
297
100
AcDbEntity
  8
2
100
AcDbLine
 10
-323.337183
 20
191.385301
 30
0.0
 11
-309.829362
 21
191.385301
 31
0.0
  0
LINE
  5
298
100
AcDbEntity
  8
2
100
AcDbLine
 10
-304.200197
 20
194.635301
 30
0.0
 11
-309.829362
 21
191.385301
 31
0.0
  0
LINE
  5
299
100
AcDbEntity
  8
2
100
AcDbLine
 10
-304.200197
 20
196.135301
 30
0.0
 11
-309.829362
 21
199.385301
 31
0.0
  0
LINE
  5
29A
100
AcDbEntity
  8
2
100
AcDbLine
 10
-322.912667
 20
199.135301
 30
0.0
 11
-310.318253
 21
199.135301
 31
0.0
  0
LINE
  5
29B
100
AcDbEntity
  8
2
100
AcDbLine
 10
-322.912667
 20
191.635301
 30
0.0
 11
-310.318253
 21
191.635301
 31
0.0
  0
ARC
  5
29C
100
AcDbEntity
  8
2
100
AcDbCircle
 10
-314.172032
 20
195.385301
 30
0.0
 40
9.511109
100
AcDbArc
 50
156.779186
 51
203.220814
  0
ARC
  5
29D
100
AcDbEntity
  8
2
100
AcDbCircle
 10
-314.172032
 20
195.385301
 30
0.0
 40
9.511109
100
AcDbArc
 50
356.952608
 51
3.047392
  0
LINE
  5
29E
100
AcDbEntity
  8
2
100
AcDbLine
 10
-322.912667
 20
199.135301
 30
0.0
 11
-323.337183
 21
199.385301
 31
0.0
  0
LINE
  5
29F
100
AcDbEntity
  8
2
100
AcDbLine
 10
-322.912667
 20
191.635301
 30
0.0
 11
-323.337183
 21
191.385301
 31
0.0
  0
LINE
  5
2A0
100
AcDbEntity
  8
2
100
AcDbLine
 10
-322.912667
 20
13.285301
 30
0.0
 11
-323.337183
 21
-0.714699
 31
0.0
  0
LINE
  5
2A1
100
AcDbEntity
  8
2
100
AcDbLine
 10
-309.829362
 20
-0.714699
 30
0.0
 11
-310.318253
 21
13.285301
 31
0.0
  0
LINE
  5
2A2
100
AcDbEntity
  8
2
100
AcDbLine
 10
-310.318253
 20
199.135301
 30
0.0
 11
-304.674372
 21
195.89093
 31
0.0
  0
LINE
  5
2A3
100
AcDbEntity
  8
2
100
AcDbLine
 10
-304.674372
 20
194.879672
 30
0.0
 11
-310.318253
 21
191.635301
 31
0.0
  0
LINE
  5
2A4
100
AcDbEntity
  8
2
100
AcDbLine
 10
-304.674372
 20
195.89093
 30
0.0
 11
-304.200197
 21
196.135301
 31
0.0
  0
LINE
  5
2A5
100
AcDbEntity
  8
2
100
AcDbLine
 10
-304.674372
 20
194.879672
 30
0.0
 11
-304.200197
 21
194.635301
 31
0.0
  0
LINE
  5
2A6
100
AcDbEntity
  8
2
100
AcDbLine
 10
-310.318253
 20
191.635301
 30
0.0
 11
-309.829362
 21
191.385301
 31
0.0
  0
LINE
  5
2A7
100
AcDbEntity
  8
2
100
AcDbLine
 10
-310.318253
 20
199.135301
 30
0.0
 11
-309.829362
 21
199.385301
 31
0.0
  0
LINE
  5
2A8
100
AcDbEntity
  8
2
100
AcDbLine
 10
-355.172032
 20
-50.714699
 30
0.0
 11
-273.172032
 21
-50.714699
 31
0.0
  0
LINE
  5
2A9
100
AcDbEntity
  8
2
100
AcDbLine
 10
-349.172032
 20
-50.714699
 30
0.0
 11
-349.172032
 21
-45.214699
 31
0.0
  0
LINE
  5
2AA
100
AcDbEntity
  8
2
100
AcDbLine
 10
-279.172032
 20
-50.714699
 30
0.0
 11
-279.172032
 21
-45.214699
 31
0.0
  0
LINE
  5
2AB
100
AcDbEntity
  8
2
100
AcDbLine
 10
-355.172032
 20
-50.714699
 30
0.0
 11
-355.172032
 21
-45.214699
 31
0.0
  0
LINE
  5
2AC
100
AcDbEntity
  8
2
100
AcDbLine
 10
-273.172032
 20
-50.714699
 30
0.0
 11
-273.172032
 21
-45.214699
 31
0.0
  0
ARC
  5
2AD
100
AcDbEntity
  8
2
100
AcDbCircle
 10
-272.672032
 20
-45.214699
 30
0.0
 40
0.5
100
AcDbArc
 50
90.0
 51
180.0
  0
ARC
  5
2AE
100
AcDbEntity
  8
2
100
AcDbCircle
 10
-355.672032
 20
-45.214699
 30
0.0
 40
0.5
100
AcDbArc
 50
0.0
 51
90.0
  0
ARC
  5
2AF
100
AcDbEntity
  8
2
100
AcDbCircle
 10
-349.672032
 20
-45.214699
 30
0.0
 40
0.5
100
AcDbArc
 50
0.0
 51
90.0
  0
ARC
  5
2B0
100
AcDbEntity
  8
2
100
AcDbCircle
 10
-278.672032
 20
-45.214699
 30
0.0
 40
0.5
100
AcDbArc
 50
90.0
 51
180.0
  0
LINE
  5
2B1
100
AcDbEntity
  8
2
100
AcDbLine
 10
-270.672032
 20
-23.714699
 30
0.0
 11
-271.388517
 21
-44.232149
 31
0.0
  0
LINE
  5
2B2
100
AcDbEntity
  8
2
100
AcDbLine
 10
-357.672032
 20
-23.714699
 30
0.0
 11
-356.955547
 21
-44.232149
 31
0.0
  0
ARC
  5
2B3
100
AcDbEntity
  8
2
100
AcDbCircle
 10
-356.455852
 20
-44.214699
 30
0.0
 40
0.5
100
AcDbArc
 50
182.0
 51
270.0
  0
ARC
  5
2B4
100
AcDbEntity
  8
2
100
AcDbCircle
 10
-271.888213
 20
-44.214699
 30
0.0
 40
0.5
100
AcDbArc
 50
270.0
 51
358.0
  0
LINE
  5
2B5
100
AcDbEntity
  8
2
100
AcDbLine
 10
-308.716759
 20
-23.714699
 30
0.0
 11
-309.450096
 21
-44.714699
 31
0.0
  0
LINE
  5
2B6
100
AcDbEntity
  8
2
100
AcDbLine
 10
-319.627305
 20
-23.714699
 30
0.0
 11
-318.893969
 21
-44.714699
 31
0.0
  0
ARC
  5
2B7
100
AcDbEntity
  8
2
100
AcDbCircle
 10
-311.381473
 20
-4.714699
 30
0.0
 40
2.0
100
AcDbArc
 50
2.0
 51
90.0
  0
ARC
  5
2B8
100
AcDbEntity
  8
2
100
AcDbCircle
 10
-316.962591
 20
-4.714699
 30
0.0
 40
2.0
100
AcDbArc
 50
90.0
 51
178.0
  0
LINE
  5
2B9
100
AcDbEntity
  8
2
100
AcDbLine
 10
-307.686198
 20
-45.19725
 30
0.0
 11
-307.878872
 21
-50.714699
 31
0.0
  0
LINE
  5
2BA
100
AcDbEntity
  8
2
100
AcDbLine
 10
-320.657866
 20
-45.19725
 30
0.0
 11
-320.465192
 21
-50.714699
 31
0.0
  0
ARC
  5
2BB
100
AcDbEntity
  8
2
100
AcDbCircle
 10
-307.186503
 20
-45.214699
 30
0.0
 40
0.5
100
AcDbArc
 50
90.0
 51
178.0
  0
ARC
  5
2BC
100
AcDbEntity
  8
2
100
AcDbCircle
 10
-321.157561
 20
-45.214699
 30
0.0
 40
0.5
100
AcDbArc
 50
2.0
 51
90.0
  0
LINE
  5
2BD
100
AcDbEntity
  8
2
  6
CENTER
 62
     2
100
AcDbLine
 10
-294.172032
 20
-39.726785
 30
0.0
 11
-294.172032
 21
-22.177438
 31
0.0
  0
LINE
  5
2BE
100
AcDbEntity
  8
2
  6
CENTER
 62
     2
100
AcDbLine
 10
-302.357892
 20
-30.714699
 30
0.0
 11
-285.136258
 21
-30.714699
 31
0.0
  0
LINE
  5
2BF
100
AcDbEntity
  8
2
100
AcDbLine
 10
-287.172032
 20
-30.714699
 30
0.0
 11
-287.172032
 21
-23.714699
 31
0.0
  0
LINE
  5
2C0
100
AcDbEntity
  8
2
100
AcDbLine
 10
-301.172032
 20
-30.714699
 30
0.0
 11
-301.172032
 21
-23.714699
 31
0.0
  0
ARC
  5
2C1
100
AcDbEntity
  8
2
100
AcDbCircle
 10
-294.172032
 20
-30.714699
 30
0.0
 40
7.0
100
AcDbArc
 50
180.0
 51
360.0
  0
CIRCLE
  5
2C2
100
AcDbEntity
  8
2
 62
     2
100
AcDbCircle
 10
-294.172032
 20
-30.714699
 30
0.0
 40
2.459
  0
CIRCLE
  5
2C3
100
AcDbEntity
  8
2
100
AcDbCircle
 10
-294.172032
 20
-30.714699
 30
0.0
 40
4.9
  0
CIRCLE
  5
2C4
100
AcDbEntity
  8
2
100
AcDbCircle
 10
-294.172032
 20
-30.714699
 30
0.0
 40
3.0
  0
LINE
  5
2C5
100
AcDbEntity
  8
2
100
AcDbLine
 10
-297.058783
 20
-25.714699
 30
0.0
 11
-291.285281
 21
-25.714699
 31
0.0
  0
LINE
  5
2C6
100
AcDbEntity
  8
2
100
AcDbLine
 10
-297.058783
 20
-35.714699
 30
0.0
 11
-291.285281
 21
-35.714699
 31
0.0
  0
LINE
  5
2C7
100
AcDbEntity
  8
2
100
AcDbLine
 10
-299.945535
 20
-30.714699
 30
0.0
 11
-297.058783
 21
-25.714699
 31
0.0
  0
LINE
  5
2C8
100
AcDbEntity
  8
2
100
AcDbLine
 10
-291.285281
 20
-35.714699
 30
0.0
 11
-288.398529
 21
-30.714699
 31
0.0
  0
LINE
  5
2C9
100
AcDbEntity
  8
2
100
AcDbLine
 10
-297.058783
 20
-35.714699
 30
0.0
 11
-299.945535
 21
-30.714699
 31
0.0
  0
LINE
  5
2CA
100
AcDbEntity
  8
2
100
AcDbLine
 10
-288.398529
 20
-30.714699
 30
0.0
 11
-291.285281
 21
-25.714699
 31
0.0
  0
LINE
  5
2CB
100
AcDbEntity
  8
2
100
AcDbLine
 10
-292.672032
 20
-31.580725
 30
0.0
 11
-292.672032
 21
-29.848674
 31
0.0
  0
LINE
  5
2CC
100
AcDbEntity
  8
2
100
AcDbLine
 10
-295.672032
 20
-31.580725
 30
0.0
 11
-295.672032
 21
-29.848674
 31
0.0
  0
LINE
  5
2CD
100
AcDbEntity
  8
2
100
AcDbLine
 10
-294.172032
 20
-32.44675
 30
0.0
 11
-295.672032
 21
-31.580725
 31
0.0
  0
LINE
  5
2CE
100
AcDbEntity
  8
2
100
AcDbLine
 10
-292.672032
 20
-29.848674
 30
0.0
 11
-294.172032
 21
-28.982649
 31
0.0
  0
LINE
  5
2CF
100
AcDbEntity
  8
2
100
AcDbLine
 10
-294.172032
 20
-28.982649
 30
0.0
 11
-295.672032
 21
-29.848674
 31
0.0
  0
LINE
  5
2D0
100
AcDbEntity
  8
2
100
AcDbLine
 10
-292.672032
 20
-31.580725
 30
0.0
 11
-294.172032
 21
-32.44675
 31
0.0
  0
LINE
  5
2D1
100
AcDbEntity
  8
2
100
AcDbLine
 10
96.527968
 20
-2.714699
 30
0.0
 11
22.986814
 21
-2.714699
 31
0.0
  0
ARC
  5
2D2
100
AcDbEntity
  8
2
100
AcDbCircle
 10
96.527968
 20
-23.714699
 30
0.0
 40
21.0
100
AcDbArc
 50
270.0
 51
90.0
  0
LINE
  5
2D3
100
AcDbEntity
  8
2
100
AcDbLine
 10
13.327968
 20
-23.714699
 30
0.0
 11
13.791688
 21
-10.435503
 31
0.0
  0
ARC
  5
2D4
100
AcDbEntity
  8
2
100
AcDbCircle
 10
21.786814
 20
-10.714699
 30
0.0
 40
8.0
100
AcDbArc
 50
97.346261
 51
178.0
  0
LINE
  5
2D5
100
AcDbEntity
  8
2
100
AcDbLine
 10
14.527968
 20
-23.714699
 30
0.0
 11
14.991688
 21
-10.435503
 31
0.0
  0
ARC
  5
2D6
100
AcDbEntity
  8
2
100
AcDbCircle
 10
22.986814
 20
-10.714699
 30
0.0
 40
8.0
100
AcDbArc
 50
90.0
 51
178.0
  0
LINE
  5
2D7
100
AcDbEntity
  8
2
100
AcDbLine
 10
33.527968
 20
-1.714699
 30
0.0
 11
79.776705
 21
-1.714699
 31
0.0
  0
LINE
  5
2D8
100
AcDbEntity
  8
2
100
AcDbLine
 10
33.527968
 20
-1.714699
 30
0.0
 11
32.527968
 21
-2.714699
 31
0.0
  0
LINE
  5
2D9
100
AcDbEntity
  8
2
100
AcDbLine
 10
67.05068
 20
-1.714699
 30
0.0
 11
67.819584
 21
-2.714699
 31
0.0
  0
LINE
  5
2DA
100
AcDbEntity
  8
2
  6
CENTER
 62
     2
100
AcDbLine
 10
25.779231
 20
3.970046
 30
0.0
 11
25.779231
 21
-8.598306
 31
0.0
  0
LINE
  5
2DB
100
AcDbEntity
  8
2
  6
CENTER
 62
     2
100
AcDbLine
 10
75.276705
 20
3.970046
 30
0.0
 11
75.276705
 21
-8.598306
 31
0.0
  0
LINE
  5
2DC
100
AcDbEntity
  8
2
100
AcDbLine
 10
21.279231
 20
-1.714699
 30
0.0
 11
30.279231
 21
-1.714699
 31
0.0
  0
ARC
  5
2DD
100
AcDbEntity
  8
2
100
AcDbCircle
 10
30.279231
 20
-2.214699
 30
0.0
 40
0.5
100
AcDbArc
 50
0.0
 51
90.0
  0
ARC
  5
2DE
100
AcDbEntity
  8
2
100
AcDbCircle
 10
21.279231
 20
-2.214699
 30
0.0
 40
0.5
100
AcDbArc
 50
90.0
 51
180.0
  0
ARC
  5
2DF
100
AcDbEntity
  8
2
100
AcDbCircle
 10
31.279231
 20
-2.214699
 30
0.0
 40
0.5
100
AcDbArc
 50
180.0
 51
270.0
  0
ARC
  5
2E0
100
AcDbEntity
  8
2
100
AcDbCircle
 10
79.776705
 20
-2.214699
 30
0.0
 40
0.5
100
AcDbArc
 50
0.0
 51
90.0
  0
ARC
  5
2E1
100
AcDbEntity
  8
2
100
AcDbCircle
 10
70.776705
 20
-2.214699
 30
0.0
 40
0.5
100
AcDbArc
 50
90.0
 51
180.0
  0
ARC
  5
2E2
100
AcDbEntity
  8
2
100
AcDbCircle
 10
80.776705
 20
-2.214699
 30
0.0
 40
0.5
100
AcDbArc
 50
180.0
 51
270.0
  0
ARC
  5
2E3
100
AcDbEntity
  8
2
100
AcDbCircle
 10
69.776705
 20
-2.214699
 30
0.0
 40
0.5
100
AcDbArc
 50
270.0
 51
360.0
  0
LINE
  5
2E4
100
AcDbEntity
  8
2
100
AcDbLine
 10
55.527968
 20
-2.714699
 30
0.0
 11
54.527968
 21
-1.714699
 31
0.0
  0
LINE
  5
2E5
100
AcDbEntity
  8
2
100
AcDbLine
 10
45.527968
 20
-2.714699
 30
0.0
 11
46.527968
 21
-1.714699
 31
0.0
  0
LINE
  5
2E6
100
AcDbEntity
  8
2
100
AcDbLine
 10
14.270829
 20
-50.714699
 30
0.0
 11
85.527968
 21
-50.714699
 31
0.0
  0
LINE
  5
2E7
100
AcDbEntity
  8
2
100
AcDbLine
 10
14.527968
 20
-23.714699
 30
0.0
 11
15.244453
 21
-44.232149
 31
0.0
  0
LINE
  5
2E8
100
AcDbEntity
  8
2
100
AcDbLine
 10
15.527968
 20
-44.912614
 30
0.0
 11
15.527968
 21
-50.714699
 31
0.0
  0
LINE
  5
2E9
100
AcDbEntity
  8
2
100
AcDbLine
 10
-356.455852
 20
-44.714699
 30
0.0
 11
-318.893969
 21
-44.714699
 31
0.0
  0
LINE
  5
2EA
100
AcDbEntity
  8
2
100
AcDbLine
 10
-309.450096
 20
-44.714699
 30
0.0
 11
-271.888213
 21
-44.714699
 31
0.0
  0
ARC
  5
2EB
100
AcDbEntity
  8
2
100
AcDbCircle
 10
15.744148
 20
-44.214699
 30
0.0
 40
0.5
100
AcDbArc
 50
182.0
 51
270.0
  0
ARC
  5
2EC
100
AcDbEntity
  8
2
100
AcDbCircle
 10
15.027968
 20
-44.912614
 30
0.0
 40
0.5
100
AcDbArc
 50
0.0
 51
44.259967
  0
LINE
  5
2ED
100
AcDbEntity
  8
2
100
AcDbLine
 10
20.779231
 20
-2.214699
 30
0.0
 11
20.779231
 21
-2.657467
 31
0.0
  0
ARC
  5
2EE
100
AcDbEntity
  8
2
100
AcDbCircle
 10
20.279231
 20
-2.657467
 30
0.0
 40
0.5
100
AcDbArc
 50
288.574608
 51
360.0
  0
LINE
  5
2EF
100
AcDbEntity
  8
2
100
AcDbLine
 10
85.527968
 20
-47.714699
 30
0.0
 11
85.527968
 21
-50.714699
 31
0.0
  0
ARC
  5
2F0
100
AcDbEntity
  8
2
100
AcDbCircle
 10
88.527968
 20
-47.714699
 30
0.0
 40
3.0
100
AcDbArc
 50
90.0
 51
180.0
  0
LINE
  5
2F1
100
AcDbEntity
  8
2
100
AcDbLine
 10
46.777968
 20
13.285301
 30
0.0
 11
54.277968
 21
13.285301
 31
0.0
  0
LINE
  5
2F2
100
AcDbEntity
  8
2
100
AcDbLine
 10
40.527968
 20
-0.714699
 30
0.0
 11
60.527968
 21
-0.714699
 31
0.0
  0
LINE
  5
2F3
100
AcDbEntity
  8
2
100
AcDbLine
 10
39.527968
 20
-1.714699
 30
0.0
 11
40.527968
 21
-0.714699
 31
0.0
  0
LINE
  5
2F4
100
AcDbEntity
  8
2
100
AcDbLine
 10
60.527968
 20
-0.714699
 30
0.0
 11
61.527968
 21
-1.714699
 31
0.0
  0
LINE
  5
2F5
100
AcDbEntity
  8
2
100
AcDbLine
 10
54.277968
 20
13.285301
 30
0.0
 11
54.527968
 21
-0.714699
 31
0.0
  0
LINE
  5
2F6
100
AcDbEntity
  8
2
100
AcDbLine
 10
46.777968
 20
13.285301
 30
0.0
 11
46.527968
 21
-0.714699
 31
0.0
  0
LINE
  5
2F7
100
AcDbEntity
  8
2
100
AcDbLine
 10
49.777968
 20
-0.714699
 30
0.0
 11
50.027968
 21
13.285301
 31
0.0
  0
LINE
  5
2F8
100
AcDbEntity
  8
2
100
AcDbLine
 10
51.277968
 20
-0.714699
 30
0.0
 11
51.027968
 21
13.285301
 31
0.0
  0
LINE
  5
2F9
100
AcDbEntity
  8
2
100
AcDbLine
 10
62.527968
 20
-45.214699
 30
0.0
 11
62.527968
 21
-50.714699
 31
0.0
  0
LINE
  5
2FA
100
AcDbEntity
  8
2
100
AcDbLine
 10
38.527968
 20
-45.214699
 30
0.0
 11
38.527968
 21
-50.714699
 31
0.0
  0
ARC
  5
2FB
100
AcDbEntity
  8
2
100
AcDbCircle
 10
63.027968
 20
-45.214699
 30
0.0
 40
0.5
100
AcDbArc
 50
90.0
 51
180.0
  0
ARC
  5
2FC
100
AcDbEntity
  8
2
100
AcDbCircle
 10
38.027968
 20
-45.214699
 30
0.0
 40
0.5
100
AcDbArc
 50
0.0
 51
90.0
  0
LINE
  5
2FD
100
AcDbEntity
  8
2
  6
CENTER
 62
     2
100
AcDbLine
 10
82.027968
 20
-22.023386
 30
0.0
 11
82.027968
 21
-37.974206
 31
0.0
  0
LINE
  5
2FE
100
AcDbEntity
  8
2
100
AcDbLine
 10
87.044819
 20
-29.19725
 30
0.0
 11
87.552998
 21
-43.749599
 31
0.0
  0
LINE
  5
2FF
100
AcDbEntity
  8
2
100
AcDbLine
 10
77.011117
 20
-29.19725
 30
0.0
 11
76.259711
 21
-50.714699
 31
0.0
  0
LINE
  5
300
100
AcDbEntity
  8
2
100
AcDbLine
 10
77.510812
 20
-28.714699
 30
0.0
 11
86.545124
 21
-28.714699
 31
0.0
  0
LINE
  5
301
100
AcDbEntity
  8
2
100
AcDbLine
 10
105.510812
 20
-28.714699
 30
0.0
 11
116.123886
 21
-28.714699
 31
0.0
  0
ARC
  5
302
100
AcDbEntity
  8
2
100
AcDbCircle
 10
86.545124
 20
-29.214699
 30
0.0
 40
0.5
100
AcDbArc
 50
2.0
 51
90.0
  0
ARC
  5
303
100
AcDbEntity
  8
2
100
AcDbCircle
 10
77.510812
 20
-29.214699
 30
0.0
 40
0.5
100
AcDbArc
 50
90.0
 51
178.0
  0
ARC
  5
304
100
AcDbEntity
  8
2
100
AcDbCircle
 10
88.552389
 20
-43.714699
 30
0.0
 40
1.0
100
AcDbArc
 50
182.0
 51
270.0
  0
ARC
  5
305
100
AcDbEntity
  8
2
100
AcDbCircle
 10
75.503547
 20
-43.714699
 30
0.0
 40
1.0
100
AcDbArc
 50
270.0
 51
358.0
  0
LINE
  5
306
100
AcDbEntity
  8
2
100
AcDbLine
 10
15.744148
 20
-44.714699
 30
0.0
 11
75.503547
 21
-44.714699
 31
0.0
  0
LINE
  5
307
100
AcDbEntity
  8
2
100
AcDbLine
 10
88.527968
 20
-44.714699
 30
0.0
 11
96.527968
 21
-44.714699
 31
0.0
  0
LINE
  5
308
100
AcDbEntity
  8
2
  6
CENTER
 62
     2
100
AcDbLine
 10
110.027968
 20
-22.023386
 30
0.0
 11
110.027968
 21
-37.974206
 31
0.0
  0
LINE
  5
309
100
AcDbEntity
  8
2
100
AcDbLine
 10
105.011117
 20
-29.19725
 30
0.0
 11
104.547374
 21
-42.477102
 31
0.0
  0
ARC
  5
30A
100
AcDbEntity
  8
2
100
AcDbCircle
 10
103.547983
 20
-42.442203
 30
0.0
 40
1.0
100
AcDbArc
 50
290.548539
 51
358.0
  0
ARC
  5
30B
100
AcDbEntity
  8
2
100
AcDbCircle
 10
116.123886
 20
-27.714699
 30
0.0
 40
1.0
100
AcDbArc
 50
270.0
 51
348.463041
  0
ARC
  5
30C
100
AcDbEntity
  8
2
100
AcDbCircle
 10
105.510812
 20
-29.214699
 30
0.0
 40
0.5
100
AcDbArc
 50
90.0
 51
178.0
  0
LINE
  5
30D
100
AcDbEntity
  8
2
100
AcDbLine
 10
86.277968
 20
-28.714699
 30
0.0
 11
86.277968
 21
-33.414699
 31
0.0
  0
LINE
  5
30E
100
AcDbEntity
  8
2
100
AcDbLine
 10
86.277968
 20
-33.414699
 30
0.0
 11
85.758353
 21
-33.714699
 31
0.0
  0
LINE
  5
30F
100
AcDbEntity
  8
2
100
AcDbLine
 10
86.277968
 20
-33.414699
 30
0.0
 11
77.777968
 21
-33.414699
 31
0.0
  0
LINE
  5
310
100
AcDbEntity
  8
2
100
AcDbLine
 10
77.777968
 20
-28.714699
 30
0.0
 11
77.777968
 21
-33.414699
 31
0.0
  0
LINE
  5
311
100
AcDbEntity
  8
2
100
AcDbLine
 10
77.777968
 20
-33.414699
 30
0.0
 11
78.297583
 21
-33.714699
 31
0.0
  0
LINE
  5
312
100
AcDbEntity
  8
2
100
AcDbLine
 10
78.297583
 20
-33.714699
 30
0.0
 11
85.758353
 21
-33.714699
 31
0.0
  0
LINE
  5
313
100
AcDbEntity
  8
2
100
AcDbLine
 10
114.277968
 20
-28.714699
 30
0.0
 11
114.277968
 21
-33.414699
 31
0.0
  0
LINE
  5
314
100
AcDbEntity
  8
2
100
AcDbLine
 10
114.277968
 20
-33.414699
 30
0.0
 11
113.758353
 21
-33.714699
 31
0.0
  0
LINE
  5
315
100
AcDbEntity
  8
2
100
AcDbLine
 10
114.277968
 20
-33.414699
 30
0.0
 11
105.777968
 21
-33.414699
 31
0.0
  0
LINE
  5
316
100
AcDbEntity
  8
2
100
AcDbLine
 10
105.777968
 20
-28.714699
 30
0.0
 11
105.777968
 21
-33.414699
 31
0.0
  0
LINE
  5
317
100
AcDbEntity
  8
2
100
AcDbLine
 10
105.777968
 20
-33.414699
 30
0.0
 11
106.297583
 21
-33.714699
 31
0.0
  0
LINE
  5
318
100
AcDbEntity
  8
2
100
AcDbLine
 10
106.297583
 20
-33.714699
 30
0.0
 11
113.758353
 21
-33.714699
 31
0.0
  0
LINE
  5
319
100
AcDbEntity
  8
2
100
AcDbLine
 10
14.527968
 20
-37.714699
 30
0.0
 11
15.016859
 21
-37.714699
 31
0.0
  0
LINE
  5
31A
100
AcDbEntity
  8
2
100
AcDbLine
 10
14.527968
 20
-23.714699
 30
0.0
 11
14.527968
 21
-37.714699
 31
0.0
  0
LINE
  5
31B
100
AcDbEntity
  8
2
  6
CENTER
 62
     2
100
AcDbLine
 10
21.699824
 20
-30.714699
 30
0.0
 11
-1.44235
 21
-30.714699
 31
0.0
  0
LINE
  5
31C
100
AcDbEntity
  8
2
100
AcDbLine
 10
14.527968
 20
-35.714699
 30
0.0
 11
9.527968
 21
-35.714699
 31
0.0
  0
LINE
  5
31D
100
AcDbEntity
  8
2
100
AcDbLine
 10
9.527968
 20
-35.714699
 30
0.0
 11
9.527968
 21
-25.714699
 31
0.0
  0
ARC
  5
31E
100
AcDbEntity
  8
2
100
AcDbCircle
 10
16.141176
 20
-33.214699
 30
0.0
 40
6.613208
100
AcDbArc
 50
157.788205
 51
202.211795
  0
LINE
  5
31F
100
AcDbEntity
  8
2
100
AcDbLine
 10
14.527968
 20
-25.714699
 30
0.0
 11
9.527968
 21
-25.714699
 31
0.0
  0
LINE
  5
320
100
AcDbEntity
  8
2
100
AcDbLine
 10
14.527968
 20
-30.714699
 30
0.0
 11
10.018716
 21
-30.714699
 31
0.0
  0
ARC
  5
321
100
AcDbEntity
  8
2
100
AcDbCircle
 10
16.141176
 20
-28.214699
 30
0.0
 40
6.613208
100
AcDbArc
 50
157.788205
 51
202.211795
  0
LINE
  5
322
100
AcDbEntity
  8
2
100
AcDbLine
 10
13.327968
 20
-23.714699
 30
0.0
 11
13.397809
 21
-25.714699
 31
0.0
  0
LINE
  5
323
100
AcDbEntity
  8
2
100
AcDbLine
 10
13.747017
 20
-35.714699
 30
0.0
 11
14.270829
 21
-50.714699
 31
0.0
  0
LINE
  5
324
100
AcDbEntity
  8
2
100
AcDbLine
 10
2.527968
 20
-28.255699
 30
0.0
 11
2.527968
 21
-33.173699
 31
0.0
  0
LINE
  5
325
100
AcDbEntity
  8
2
100
AcDbLine
 10
2.527968
 20
-28.255699
 30
0.0
 11
3.068968
 21
-27.714699
 31
0.0
  0
LINE
  5
326
100
AcDbEntity
  8
2
100
AcDbLine
 10
3.068968
 20
-27.714699
 30
0.0
 11
9.527968
 21
-27.714699
 31
0.0
  0
LINE
  5
327
100
AcDbEntity
  8
2
100
AcDbLine
 10
3.068968
 20
-27.714699
 30
0.0
 11
3.068968
 21
-33.714699
 31
0.0
  0
LINE
  5
328
100
AcDbEntity
  8
2
 62
     2
100
AcDbLine
 10
2.527968
 20
-28.255699
 30
0.0
 11
9.527968
 21
-28.255699
 31
0.0
  0
LINE
  5
329
100
AcDbEntity
  8
2
100
AcDbLine
 10
2.527968
 20
-33.173699
 30
0.0
 11
3.068968
 21
-33.714699
 31
0.0
  0
LINE
  5
32A
100
AcDbEntity
  8
2
100
AcDbLine
 10
3.068968
 20
-33.714699
 30
0.0
 11
9.527968
 21
-33.714699
 31
0.0
  0
LINE
  5
32B
100
AcDbEntity
  8
2
 62
     2
100
AcDbLine
 10
2.527968
 20
-33.173699
 30
0.0
 11
9.527968
 21
-33.173699
 31
0.0
  0
LINE
  5
32C
100
AcDbEntity
  8
2
  6
CENTER
 62
     2
100
AcDbLine
 10
-294.172032
 20
162.954821
 30
0.0
 11
-294.172032
 21
143.414983
 31
0.0
  0
LINE
  5
32D
100
AcDbEntity
  8
2
100
AcDbLine
 10
-296.631032
 20
147.385301
 30
0.0
 11
-291.713032
 21
147.385301
 31
0.0
  0
LINE
  5
32E
100
AcDbEntity
  8
2
100
AcDbLine
 10
-296.631032
 20
147.385301
 30
0.0
 11
-297.172032
 21
147.926301
 31
0.0
  0
LINE
  5
32F
100
AcDbEntity
  8
2
100
AcDbLine
 10
-297.172032
 20
147.926301
 30
0.0
 11
-297.172032
 21
154.385301
 31
0.0
  0
LINE
  5
330
100
AcDbEntity
  8
2
100
AcDbLine
 10
-297.172032
 20
147.926301
 30
0.0
 11
-291.172032
 21
147.926301
 31
0.0
  0
LINE
  5
331
100
AcDbEntity
  8
2
 62
     2
100
AcDbLine
 10
-296.631032
 20
147.385301
 30
0.0
 11
-296.631032
 21
154.385301
 31
0.0
  0
LINE
  5
332
100
AcDbEntity
  8
2
100
AcDbLine
 10
-291.713032
 20
147.385301
 30
0.0
 11
-291.172032
 21
147.926301
 31
0.0
  0
LINE
  5
333
100
AcDbEntity
  8
2
100
AcDbLine
 10
-291.172032
 20
147.926301
 30
0.0
 11
-291.172032
 21
154.385301
 31
0.0
  0
LINE
  5
334
100
AcDbEntity
  8
2
 62
     2
100
AcDbLine
 10
-291.713032
 20
147.385301
 30
0.0
 11
-291.713032
 21
154.385301
 31
0.0
  0
LINE
  5
335
100
AcDbEntity
  8
2
100
AcDbLine
 10
-287.172032
 20
159.568647
 30
0.0
 11
-287.172032
 21
159.385301
 31
0.0
  0
LINE
  5
336
100
AcDbEntity
  8
2
100
AcDbLine
 10
-288.422032
 20
159.385301
 30
0.0
 11
-288.422032
 21
154.876048
 31
0.0
  0
LINE
  5
337
100
AcDbEntity
  8
2
100
AcDbLine
 10
-288.422032
 20
154.876048
 30
0.0
 11
-289.272032
 21
154.385301
 31
0.0
  0
LINE
  5
338
100
AcDbEntity
  8
2
100
AcDbLine
 10
-291.297032
 20
159.385301
 30
0.0
 11
-291.297032
 21
154.876048
 31
0.0
  0
ARC
  5
339
100
AcDbEntity
  8
2
100
AcDbCircle
 10
-289.859532
 20
156.724003
 30
0.0
 40
2.341227
100
AcDbArc
 50
232.121121
 51
307.878879
  0
ARC
  5
33A
100
AcDbEntity
  8
2
100
AcDbCircle
 10
-294.172032
 20
163.007776
 30
0.0
 40
8.625
100
AcDbArc
 50
250.528777
 51
289.471219
  0
LINE
  5
33B
100
AcDbEntity
  8
2
100
AcDbLine
 10
-299.922032
 20
159.385301
 30
0.0
 11
-299.922032
 21
154.876048
 31
0.0
  0
LINE
  5
33C
100
AcDbEntity
  8
2
100
AcDbLine
 10
-299.922032
 20
154.876048
 30
0.0
 11
-299.072032
 21
154.385301
 31
0.0
  0
LINE
  5
33D
100
AcDbEntity
  8
2
100
AcDbLine
 10
-299.072032
 20
154.385301
 30
0.0
 11
-289.272032
 21
154.385301
 31
0.0
  0
LINE
  5
33E
100
AcDbEntity
  8
2
100
AcDbLine
 10
-297.047032
 20
159.385301
 30
0.0
 11
-297.047032
 21
154.876048
 31
0.0
  0
ARC
  5
33F
100
AcDbEntity
  8
2
100
AcDbCircle
 10
-298.484532
 20
156.724003
 30
0.0
 40
2.341227
100
AcDbArc
 50
232.121121
 51
307.878879
  0
TEXT
  5
340
100
AcDbEntity
  8
2
100
AcDbText
 10
-295.672032
 20
200.385301
 30
0.0
 40
10.0
  1
Ｓ
 50
270.0
 72
     5
 11
-295.672032
 21
192.385301
 31
0.0
100
AcDbText
  0
TEXT
  5
341
100
AcDbEntity
  8
2
100
AcDbText
 10
-319.172032
 20
213.885301
 30
0.0
 40
10.0
  1
Ｏ
 72
     5
 11
-311.172032
 21
213.885301
 31
0.0
100
AcDbText
  0
LINE
  5
342
100
AcDbEntity
  8
2
100
AcDbLine
 10
-281.923295
 20
-64.714699
 30
0.0
 11
-281.923295
 21
-69.493011
 31
0.0
  0
LINE
  5
343
100
AcDbEntity
  8
2
100
AcDbLine
 10
-281.923295
 20
-69.493011
 30
0.0
 11
-283.173295
 21
-70.214699
 31
0.0
  0
LINE
  5
344
100
AcDbEntity
  8
2
100
AcDbLine
 10
-285.673295
 20
-64.714699
 30
0.0
 11
-285.673295
 21
-69.493011
 31
0.0
  0
ARC
  5
345
100
AcDbEntity
  8
2
100
AcDbCircle
 10
-283.798295
 20
-67.082635
 30
0.0
 40
3.053774
100
AcDbArc
 50
232.121121
 51
307.878879
  0
ARC
  5
346
100
AcDbEntity
  8
2
100
AcDbCircle
 10
-289.423295
 20
-58.88641
 30
0.0
 40
11.25
100
AcDbArc
 50
250.528779
 51
289.471219
  0
LINE
  5
347
100
AcDbEntity
  8
2
100
AcDbLine
 10
-294.696472
 20
-70.214699
 30
0.0
 11
-283.173295
 21
-70.214699
 31
0.0
  0
ARC
  5
348
100
AcDbEntity
  8
2
100
AcDbCircle
 10
-295.048295
 20
-67.082635
 30
0.0
 40
3.053774
100
AcDbArc
 50
277.775843
 51
307.878879
  0
LINE
  5
349
100
AcDbEntity
  8
2
100
AcDbLine
 10
-281.723295
 20
-62.714699
 30
0.0
 11
-281.723295
 21
-64.714699
 31
0.0
  0
LINE
  5
34A
100
AcDbEntity
  8
2
100
AcDbLine
 10
-281.723295
 20
-64.714699
 30
0.0
 11
-289.257437
 21
-64.714699
 31
0.0
  0
LINE
  5
34B
100
AcDbEntity
  8
2
100
AcDbLine
 10
25.779231
 20
-64.813359
 30
0.0
 11
25.779231
 21
-69.493011
 31
0.0
  0
ARC
  5
34C
100
AcDbEntity
  8
2
100
AcDbCircle
 10
29.029231
 20
-62.535941
 30
0.0
 40
7.678759
100
AcDbArc
 50
244.96034
 51
284.217738
  0
LINE
  5
34D
100
AcDbEntity
  8
2
100
AcDbLine
 10
19.279231
 20
-64.714699
 30
0.0
 11
19.279231
 21
-70.214699
 31
0.0
  0
LINE
  5
34E
100
AcDbEntity
  8
2
100
AcDbLine
 10
19.279231
 20
-70.214699
 30
0.0
 11
31.052408
 21
-70.214699
 31
0.0
  0
ARC
  5
34F
100
AcDbEntity
  8
2
100
AcDbCircle
 10
22.529231
 20
-62.535941
 30
0.0
 40
7.678759
100
AcDbArc
 50
244.96034
 51
295.03966
  0
LINE
  5
350
100
AcDbEntity
  8
2
100
AcDbLine
 10
25.613373
 20
-64.714699
 30
0.0
 11
18.079231
 21
-64.714699
 31
0.0
  0
LINE
  5
351
100
AcDbEntity
  8
2
100
AcDbLine
 10
18.079231
 20
-64.714699
 30
0.0
 11
18.079231
 21
-62.714699
 31
0.0
  0
LINE
  5
352
100
AcDbEntity
  8
2
100
AcDbLine
 10
-293.173295
 20
-68.026224
 30
0.0
 11
-293.173295
 21
-69.493011
 31
0.0
  0
LINE
  5
353
100
AcDbEntity
  8
2
100
AcDbLine
 10
-275.017968
 20
247.385301
 30
0.0
 11
-191.172032
 21
247.385301
 31
0.0
  0
LINE
  5
354
100
AcDbEntity
  8
2
100
AcDbLine
 10
-273.977388
 20
235.385301
 30
0.0
 11
-191.172032
 21
235.385301
 31
0.0
  0
LINE
  5
355
100
AcDbEntity
  8
2
100
AcDbLine
 10
-191.172032
 20
229.385301
 30
0.0
 11
-191.172032
 21
253.385301
 31
0.0
  0
LINE
  5
356
100
AcDbEntity
  8
2
100
AcDbLine
 10
-167.922032
 20
288.129863
 30
0.0
 11
-167.922032
 21
194.640738
 31
0.0
  0
ARC
  5
357
100
AcDbEntity
  8
2
100
AcDbCircle
 10
-183.172032
 20
238.385301
 30
0.0
 40
17.0
100
AcDbArc
 50
100.615108
 51
118.072487
  0
ARC
  5
358
100
AcDbEntity
  8
2
100
AcDbCircle
 10
-183.172032
 20
244.385301
 30
0.0
 40
17.0
100
AcDbArc
 50
241.927513
 51
259.384892
  0
LINE
  5
359
100
AcDbEntity
  8
2
100
AcDbLine
 10
-184.672032
 20
218.441207
 30
0.0
 11
-184.672032
 21
264.329394
 31
0.0
  0
LINE
  5
35A
100
AcDbEntity
  8
2
100
AcDbLine
 10
-179.922032
 20
265.134238
 30
0.0
 11
-183.619696
 21
265.328024
 31
0.0
  0
ARC
  5
35B
100
AcDbEntity
  8
2
100
AcDbCircle
 10
-183.672032
 20
264.329394
 30
0.0
 40
1.0
100
AcDbArc
 50
87.0
 51
180.0
  0
ARC
  5
35C
100
AcDbEntity
  8
2
100
AcDbCircle
 10
-186.672032
 20
257.06015
 30
0.0
 40
2.0
100
AcDbArc
 50
280.615108
 51
360.0
  0
ARC
  5
35D
100
AcDbEntity
  8
2
100
AcDbCircle
 10
-183.672032
 20
218.441207
 30
0.0
 40
1.0
100
AcDbArc
 50
180.0
 51
273.0
  0
ARC
  5
35E
100
AcDbEntity
  8
2
100
AcDbCircle
 10
-186.672032
 20
225.710451
 30
0.0
 40
2.0
100
AcDbArc
 50
0.0
 51
79.384892
  0
ARC
  5
35F
100
AcDbEntity
  8
2
100
AcDbCircle
 10
-173.922032
 20
282.385301
 30
0.0
 40
9.0
100
AcDbArc
 50
55.150095
 51
124.849905
  0
ARC
  5
360
100
AcDbEntity
  8
2
100
AcDbCircle
 10
-169.922032
 20
288.129863
 30
0.0
 40
2.0
100
AcDbArc
 50
0.0
 51
55.150095
  0
ARC
  5
361
100
AcDbEntity
  8
2
100
AcDbCircle
 10
-177.922032
 20
288.129863
 30
0.0
 40
2.0
100
AcDbArc
 50
124.849905
 51
180.0
  0
ARC
  5
362
100
AcDbEntity
  8
2
100
AcDbCircle
 10
-176.922032
 20
247.457271
 30
0.0
 40
3.0
100
AcDbArc
 50
180.0
 51
216.461943
  0
ARC
  5
363
100
AcDbEntity
  8
2
100
AcDbCircle
 10
-185.78282
 20
258.165581
 30
0.0
 40
7.860788
100
AcDbArc
 50
324.671624
 51
360.0
  0
ARC
  5
364
100
AcDbEntity
  8
2
100
AcDbCircle
 10
-183.193735
 20
258.165581
 30
0.0
 40
5.271703
100
AcDbArc
 50
0.0
 51
40.693192
  0
LINE
  5
365
100
AcDbEntity
  8
2
100
AcDbLine
 10
-179.922032
 20
247.457271
 30
0.0
 11
-179.922032
 21
251.885203
 31
0.0
  0
ARC
  5
366
100
AcDbEntity
  8
2
100
AcDbCircle
 10
-176.922032
 20
251.885203
 30
0.0
 40
3.0
100
AcDbArc
 50
144.671624
 51
180.0
  0
ARC
  5
367
100
AcDbEntity
  8
2
100
AcDbCircle
 10
-176.922032
 20
263.5588
 30
0.0
 40
3.0
100
AcDbArc
 50
180.0
 51
220.693192
  0
ARC
  5
368
100
AcDbEntity
  8
2
100
AcDbCircle
 10
-183.621812
 20
256.776207
 30
0.0
 40
5.69978
100
AcDbArc
 50
6.435205
 51
39.636311
  0
ARC
  5
369
100
AcDbEntity
  8
2
100
AcDbCircle
 10
-176.922032
 20
262.325903
 30
0.0
 40
3.0
100
AcDbArc
 50
180.0
 51
219.636311
  0
ARC
  5
36A
100
AcDbEntity
  8
2
100
AcDbCircle
 10
-184.823342
 20
272.921912
 30
0.0
 40
6.90131
100
AcDbArc
 50
320.833506
 51
360.0
  0
ARC
  5
36B
100
AcDbEntity
  8
2
100
AcDbCircle
 10
-180.856633
 20
272.921912
 30
0.0
 40
2.934601
100
AcDbArc
 50
0.0
 51
53.508843
  0
LINE
  5
36C
100
AcDbEntity
  8
2
100
AcDbLine
 10
-179.922032
 20
262.325903
 30
0.0
 11
-179.922032
 21
267.300058
 31
0.0
  0
ARC
  5
36D
100
AcDbEntity
  8
2
100
AcDbCircle
 10
-177.922032
 20
267.300058
 30
0.0
 40
2.0
100
AcDbArc
 50
140.833506
 51
180.0
  0
ARC
  5
36E
100
AcDbEntity
  8
2
100
AcDbCircle
 10
-177.922032
 20
276.889078
 30
0.0
 40
2.0
100
AcDbArc
 50
180.0
 51
233.508843
  0
ARC
  5
36F
100
AcDbEntity
  8
2
100
AcDbCircle
 10
-181.888778
 20
270.310743
 30
0.0
 40
3.966745
100
AcDbArc
 50
16.447827
 51
48.332334
  0
ARC
  5
370
100
AcDbEntity
  8
2
100
AcDbCircle
 10
-177.922032
 20
274.767982
 30
0.0
 40
2.0
100
AcDbArc
 50
180.0
 51
228.332334
  0
ARC
  5
371
100
AcDbEntity
  8
2
100
AcDbCircle
 10
-182.709753
 20
283.874462
 30
0.0
 40
4.787721
100
AcDbArc
 50
310.877267
 51
360.0
  0
LINE
  5
372
100
AcDbEntity
  8
2
100
AcDbLine
 10
-179.922032
 20
274.767982
 30
0.0
 11
-179.922032
 21
279.49829
 31
0.0
  0
ARC
  5
373
100
AcDbEntity
  8
2
100
AcDbCircle
 10
-178.922032
 20
279.49829
 30
0.0
 40
1.0
100
AcDbArc
 50
130.877267
 51
180.0
  0
ARC
  5
374
100
AcDbEntity
  8
2
100
AcDbCircle
 10
-179.0615
 20
283.874462
 30
0.0
 40
1.139468
100
AcDbArc
 50
0.0
 51
102.703645
  0
ARC
  5
375
100
AcDbEntity
  8
2
100
AcDbCircle
 10
-179.422032
 20
285.473797
 30
0.0
 40
0.5
100
AcDbArc
 50
180.0
 51
282.703645
  0
ARC
  5
376
100
AcDbEntity
  8
2
100
AcDbCircle
 10
-180.065223
 20
280.356444
 30
0.0
 40
2.143191
100
AcDbArc
 50
40.095799
 51
68.672153
  0
ARC
  5
377
100
AcDbEntity
  8
2
100
AcDbCircle
 10
-178.922032
 20
283.284372
 30
0.0
 40
1.0
100
AcDbArc
 50
180.0
 51
248.672153
  0
ARC
  5
378
100
AcDbEntity
  8
2
100
AcDbCircle
 10
-180.431027
 20
289.702193
 30
0.0
 40
2.508995
100
AcDbArc
 50
289.592372
 51
360.0
  0
LINE
  5
379
100
AcDbEntity
  8
2
100
AcDbLine
 10
-179.922032
 20
283.284372
 30
0.0
 11
-179.922032
 21
288.129863
 31
0.0
  0
ARC
  5
37A
100
AcDbEntity
  8
2
100
AcDbCircle
 10
-179.422032
 20
286.867412
 30
0.0
 40
0.5
100
AcDbArc
 50
109.592372
 51
180.0
  0
ARC
  5
37B
100
AcDbEntity
  8
2
100
AcDbCircle
 10
-178.051244
 20
289.702193
 30
0.0
 40
0.129212
100
AcDbArc
 50
0.0
 51
90.0
  0
ARC
  5
37C
100
AcDbEntity
  8
2
100
AcDbCircle
 10
-178.051244
 20
287.747422
 30
0.0
 40
2.083982
100
AcDbArc
 50
90.0
 51
143.832151
  0
LINE
  5
37D
100
AcDbEntity
  8
2
100
AcDbLine
 10
-179.922032
 20
217.636364
 30
0.0
 11
-183.619696
 21
217.442577
 31
0.0
  0
ARC
  5
37E
100
AcDbEntity
  8
2
100
AcDbCircle
 10
-173.922032
 20
200.385301
 30
0.0
 40
9.0
100
AcDbArc
 50
235.150095
 51
304.849905
  0
ARC
  5
37F
100
AcDbEntity
  8
2
100
AcDbCircle
 10
-169.922032
 20
194.640738
 30
0.0
 40
2.0
100
AcDbArc
 50
304.849905
 51
360.0
  0
ARC
  5
380
100
AcDbEntity
  8
2
100
AcDbCircle
 10
-177.922032
 20
194.640738
 30
0.0
 40
2.0
100
AcDbArc
 50
180.0
 51
235.150095
  0
ARC
  5
381
100
AcDbEntity
  8
2
100
AcDbCircle
 10
-185.139238
 20
241.385301
 30
0.0
 40
7.217206
100
AcDbArc
 50
323.538056
 51
36.461944
  0
ARC
  5
382
100
AcDbEntity
  8
2
100
AcDbCircle
 10
-176.922032
 20
235.31333
 30
0.0
 40
3.0
100
AcDbArc
 50
143.538057
 51
180.0
  0
ARC
  5
383
100
AcDbEntity
  8
2
100
AcDbCircle
 10
-185.78282
 20
224.60502
 30
0.0
 40
7.860788
100
AcDbArc
 50
0.0
 51
35.328376
  0
ARC
  5
384
100
AcDbEntity
  8
2
100
AcDbCircle
 10
-183.193735
 20
224.60502
 30
0.0
 40
5.271703
100
AcDbArc
 50
319.306808
 51
360.0
  0
LINE
  5
385
100
AcDbEntity
  8
2
100
AcDbLine
 10
-179.922032
 20
235.31333
 30
0.0
 11
-179.922032
 21
230.885399
 31
0.0
  0
ARC
  5
386
100
AcDbEntity
  8
2
100
AcDbCircle
 10
-176.922032
 20
230.885399
 30
0.0
 40
3.0
100
AcDbArc
 50
180.0
 51
215.328376
  0
ARC
  5
387
100
AcDbEntity
  8
2
100
AcDbCircle
 10
-176.922032
 20
219.211801
 30
0.0
 40
3.0
100
AcDbArc
 50
139.306808
 51
180.0
  0
ARC
  5
388
100
AcDbEntity
  8
2
100
AcDbCircle
 10
-183.621812
 20
225.994394
 30
0.0
 40
5.69978
100
AcDbArc
 50
320.363689
 51
353.564795
  0
ARC
  5
389
100
AcDbEntity
  8
2
100
AcDbCircle
 10
-176.922032
 20
220.444699
 30
0.0
 40
3.0
100
AcDbArc
 50
140.363689
 51
180.0
  0
ARC
  5
38A
100
AcDbEntity
  8
2
100
AcDbCircle
 10
-184.823342
 20
209.848689
 30
0.0
 40
6.90131
100
AcDbArc
 50
0.0
 51
39.166494
  0
ARC
  5
38B
100
AcDbEntity
  8
2
100
AcDbCircle
 10
-180.856633
 20
209.848689
 30
0.0
 40
2.934601
100
AcDbArc
 50
306.491157
 51
360.0
  0
LINE
  5
38C
100
AcDbEntity
  8
2
100
AcDbLine
 10
-179.922032
 20
220.444699
 30
0.0
 11
-179.922032
 21
215.470543
 31
0.0
  0
ARC
  5
38D
100
AcDbEntity
  8
2
100
AcDbCircle
 10
-177.922032
 20
215.470543
 30
0.0
 40
2.0
100
AcDbArc
 50
180.0
 51
219.166494
  0
ARC
  5
38E
100
AcDbEntity
  8
2
100
AcDbCircle
 10
-177.922032
 20
205.881524
 30
0.0
 40
2.0
100
AcDbArc
 50
126.491157
 51
180.0
  0
ARC
  5
38F
100
AcDbEntity
  8
2
100
AcDbCircle
 10
-181.888778
 20
212.459858
 30
0.0
 40
3.966745
100
AcDbArc
 50
311.667666
 51
343.552173
  0
ARC
  5
390
100
AcDbEntity
  8
2
100
AcDbCircle
 10
-177.922032
 20
208.002619
 30
0.0
 40
2.0
100
AcDbArc
 50
131.667666
 51
180.0
  0
ARC
  5
391
100
AcDbEntity
  8
2
100
AcDbCircle
 10
-182.709753
 20
198.896139
 30
0.0
 40
4.787721
100
AcDbArc
 50
0.0
 51
49.122733
  0
LINE
  5
392
100
AcDbEntity
  8
2
100
AcDbLine
 10
-179.922032
 20
208.002619
 30
0.0
 11
-179.922032
 21
203.272312
 31
0.0
  0
ARC
  5
393
100
AcDbEntity
  8
2
100
AcDbCircle
 10
-178.922032
 20
203.272312
 30
0.0
 40
1.0
100
AcDbArc
 50
180.0
 51
229.122733
  0
ARC
  5
394
100
AcDbEntity
  8
2
100
AcDbCircle
 10
-179.0615
 20
198.896139
 30
0.0
 40
1.139468
100
AcDbArc
 50
257.296355
 51
360.0
  0
ARC
  5
395
100
AcDbEntity
  8
2
100
AcDbCircle
 10
-179.422032
 20
197.296805
 30
0.0
 40
0.5
100
AcDbArc
 50
77.296355
 51
180.0
  0
ARC
  5
396
100
AcDbEntity
  8
2
100
AcDbCircle
 10
-180.065223
 20
202.414158
 30
0.0
 40
2.143191
100
AcDbArc
 50
291.327847
 51
319.904201
  0
ARC
  5
397
100
AcDbEntity
  8
2
100
AcDbCircle
 10
-178.922032
 20
199.486229
 30
0.0
 40
1.0
100
AcDbArc
 50
111.327847
 51
180.0
  0
ARC
  5
398
100
AcDbEntity
  8
2
100
AcDbCircle
 10
-180.431027
 20
193.068409
 30
0.0
 40
2.508995
100
AcDbArc
 50
0.0
 51
70.407628
  0
LINE
  5
399
100
AcDbEntity
  8
2
100
AcDbLine
 10
-179.922032
 20
199.486229
 30
0.0
 11
-179.922032
 21
194.640738
 31
0.0
  0
ARC
  5
39A
100
AcDbEntity
  8
2
100
AcDbCircle
 10
-179.422032
 20
195.903189
 30
0.0
 40
0.5
100
AcDbArc
 50
180.0
 51
250.407628
  0
ARC
  5
39B
100
AcDbEntity
  8
2
100
AcDbCircle
 10
-178.051244
 20
193.068409
 30
0.0
 40
0.129212
100
AcDbArc
 50
270.0
 51
360.0
  0
ARC
  5
39C
100
AcDbEntity
  8
2
100
AcDbCircle
 10
-178.051244
 20
195.023179
 30
0.0
 40
2.083982
100
AcDbArc
 50
216.167849
 51
270.0
  0
LINE
  5
39D
100
AcDbEntity
  8
2
100
AcDbLine
 10
-179.644872
 20
236.572751
 30
0.0
 11
-179.644872
 21
246.19785
 31
0.0
  0
LINE
  5
39E
100
AcDbEntity
  8
2
100
AcDbLine
 10
-270.881557
 20
-17.714699
 30
0.0
 11
-191.172032
 21
-17.714699
 31
0.0
  0
LINE
  5
39F
100
AcDbEntity
  8
2
100
AcDbLine
 10
-270.881557
 20
-29.714699
 30
0.0
 11
-191.172032
 21
-29.714699
 31
0.0
  0
LINE
  5
3A0
100
AcDbEntity
  8
2
100
AcDbLine
 10
-191.172032
 20
-35.714699
 30
0.0
 11
-191.172032
 21
-11.714699
 31
0.0
  0
LINE
  5
3A1
100
AcDbEntity
  8
2
100
AcDbLine
 10
-167.922032
 20
23.029863
 30
0.0
 11
-167.922032
 21
-70.459262
 31
0.0
  0
ARC
  5
3A2
100
AcDbEntity
  8
2
100
AcDbCircle
 10
-183.172032
 20
-26.714699
 30
0.0
 40
17.0
100
AcDbArc
 50
100.615108
 51
118.072487
  0
ARC
  5
3A3
100
AcDbEntity
  8
2
100
AcDbCircle
 10
-183.172032
 20
-20.714699
 30
0.0
 40
17.0
100
AcDbArc
 50
241.927513
 51
259.384892
  0
LINE
  5
3A4
100
AcDbEntity
  8
2
100
AcDbLine
 10
-184.672032
 20
-46.658793
 30
0.0
 11
-184.672032
 21
-0.770606
 31
0.0
  0
LINE
  5
3A5
100
AcDbEntity
  8
2
100
AcDbLine
 10
-181.087892
 20
0.095338
 30
0.0
 11
-183.619696
 21
0.228024
 31
0.0
  0
ARC
  5
3A6
100
AcDbEntity
  8
2
100
AcDbCircle
 10
-183.672032
 20
-0.770606
 30
0.0
 40
1.0
100
AcDbArc
 50
87.0
 51
180.0
  0
ARC
  5
3A7
100
AcDbEntity
  8
2
100
AcDbCircle
 10
-186.672032
 20
-8.03985
 30
0.0
 40
2.0
100
AcDbArc
 50
280.615108
 51
360.0
  0
ARC
  5
3A8
100
AcDbEntity
  8
2
100
AcDbCircle
 10
-183.672032
 20
-46.658793
 30
0.0
 40
1.0
100
AcDbArc
 50
180.0
 51
273.0
  0
ARC
  5
3A9
100
AcDbEntity
  8
2
100
AcDbCircle
 10
-186.672032
 20
-39.389549
 30
0.0
 40
2.0
100
AcDbArc
 50
0.0
 51
79.384892
  0
ARC
  5
3AA
100
AcDbEntity
  8
2
100
AcDbCircle
 10
-173.922032
 20
17.285301
 30
0.0
 40
9.0
100
AcDbArc
 50
55.150095
 51
106.60155
  0
ARC
  5
3AB
100
AcDbEntity
  8
2
100
AcDbCircle
 10
-169.922032
 20
23.029863
 30
0.0
 40
2.0
100
AcDbArc
 50
0.0
 51
55.150095
  0
ARC
  5
3AC
100
AcDbEntity
  8
2
100
AcDbCircle
 10
-175.922032
 20
23.993505
 30
0.0
 40
2.0
100
AcDbArc
 50
106.60155
 51
138.6508
  0
ARC
  5
3AD
100
AcDbEntity
  8
2
100
AcDbCircle
 10
-184.282627
 20
-15.195128
 30
0.0
 40
6.360594
100
AcDbArc
 50
0.0
 51
38.15537
  0
ARC
  5
3AE
100
AcDbEntity
  8
2
100
AcDbCircle
 10
-185.66025
 20
-15.195128
 30
0.0
 40
7.738218
100
AcDbArc
 50
324.463888
 51
360.0
  0
ARC
  5
3AF
100
AcDbEntity
  8
2
100
AcDbCircle
 10
-176.922032
 20
-9.412189
 30
0.0
 40
3.0
100
AcDbArc
 50
180.0
 51
218.15537
  0
ARC
  5
3B0
100
AcDbEntity
  8
2
100
AcDbCircle
 10
-176.922032
 20
-21.436351
 30
0.0
 40
3.0
100
AcDbArc
 50
144.463888
 51
180.0
  0
ARC
  5
3B1
100
AcDbEntity
  8
2
100
AcDbCircle
 10
-184.18794
 20
-15.900531
 30
0.0
 40
6.265907
100
AcDbArc
 50
3.056458
 51
38.357409
  0
ARC
  5
3B2
100
AcDbEntity
  8
2
100
AcDbCircle
 10
-176.922032
 20
-10.150433
 30
0.0
 40
3.0
100
AcDbArc
 50
180.0
 51
218.357409
  0
ARC
  5
3B3
100
AcDbEntity
  8
2
100
AcDbCircle
 10
-185.492165
 20
0.81643
 30
0.0
 40
7.570133
100
AcDbArc
 50
324.172956
 51
360.0
  0
ARC
  5
3B4
100
AcDbEntity
  8
2
100
AcDbCircle
 10
-182.0039
 20
0.81643
 30
0.0
 40
4.081868
100
AcDbArc
 50
0.0
 51
47.843833
  0
LINE
  5
3B5
100
AcDbEntity
  8
2
100
AcDbLine
 10
-179.922032
 20
-10.150433
 30
0.0
 11
-179.922032
 21
-5.370697
 31
0.0
  0
ARC
  5
3B6
100
AcDbEntity
  8
2
100
AcDbCircle
 10
-176.922032
 20
-5.370697
 30
0.0
 40
3.0
100
AcDbArc
 50
144.172956
 51
180.0
  0
ARC
  5
3B7
100
AcDbEntity
  8
2
100
AcDbCircle
 10
-177.922032
 20
5.325029
 30
0.0
 40
2.0
100
AcDbArc
 50
180.0
 51
227.843833
  0
ARC
  5
3B8
100
AcDbEntity
  8
2
100
AcDbCircle
 10
-182.823321
 20
-1.214699
 30
0.0
 40
4.901289
100
AcDbArc
 50
10.638807
 51
44.748885
  0
ARC
  5
3B9
100
AcDbEntity
  8
2
100
AcDbCircle
 10
-177.922032
 20
3.643815
 30
0.0
 40
2.0
100
AcDbArc
 50
180.0
 51
224.748885
  0
ARC
  5
3BA
100
AcDbEntity
  8
2
100
AcDbCircle
 10
-179.890311
 20
13.869171
 30
0.0
 40
1.968279
100
AcDbArc
 50
0.0
 51
70.961165
  0
ARC
  5
3BB
100
AcDbEntity
  8
2
100
AcDbCircle
 10
-183.85702
 20
13.869171
 30
0.0
 40
5.934988
100
AcDbArc
 50
318.413261
 51
360.0
  0
LINE
  5
3BC
100
AcDbEntity
  8
2
100
AcDbLine
 10
-179.922032
 20
3.643815
 30
0.0
 11
-179.922032
 21
8.602297
 31
0.0
  0
ARC
  5
3BD
100
AcDbEntity
  8
2
100
AcDbCircle
 10
-177.922032
 20
8.602297
 30
0.0
 40
2.0
100
AcDbArc
 50
138.413261
 51
180.0
  0
ARC
  5
3BE
100
AcDbEntity
  8
2
100
AcDbCircle
 10
-178.922032
 20
16.675078
 30
0.0
 40
1.0
100
AcDbArc
 50
180.0
 51
250.961165
  0
ARC
  5
3BF
100
AcDbEntity
  8
2
100
AcDbCircle
 10
-180.9309
 20
10.757301
 30
0.0
 40
3.008868
100
AcDbArc
 50
25.280978
 51
59.926798
  0
ARC
  5
3C0
100
AcDbEntity
  8
2
100
AcDbCircle
 10
-178.922032
 20
14.226518
 30
0.0
 40
1.0
100
AcDbArc
 50
180.0
 51
239.926798
  0
ARC
  5
3C1
100
AcDbEntity
  8
2
100
AcDbCircle
 10
-181.519918
 20
22.388742
 30
0.0
 40
3.597886
100
AcDbArc
 50
304.403497
 51
360.0
  0
LINE
  5
3C2
100
AcDbEntity
  8
2
100
AcDbLine
 10
-179.922033
 20
14.226518
 30
0.0
 11
-179.921748
 21
18.595123
 31
0.0
  0
LINE
  5
3C3
100
AcDbEntity
  8
2
100
AcDbLine
 10
-179.922606
 20
20.918502
 30
0.0
 11
-179.921967
 21
23.26911
 31
0.0
  0
ARC
  5
3C4
100
AcDbEntity
  8
2
100
AcDbCircle
 10
-178.922033
 20
18.595123
 30
0.0
 40
1.0
100
AcDbArc
 50
124.403497
 51
180.0
  0
ARC
  5
3C5
100
AcDbEntity
  8
2
100
AcDbCircle
 10
-178.434952
 20
22.388742
 30
0.0
 40
0.51292
100
AcDbArc
 50
0.0
 51
90.0
  0
ARC
  5
3C6
100
AcDbEntity
  8
2
100
AcDbCircle
 10
-178.434952
 20
19.339897
 30
0.0
 40
3.561766
100
AcDbArc
 50
90.0
 51
114.677644
  0
ARC
  5
3C7
100
AcDbEntity
  8
2
100
AcDbCircle
 10
-179.299172
 20
18.571469
 30
0.0
 40
1.37714
100
AcDbArc
 50
74.225124
 51
80.871457
  0
ARC
  5
3C8
100
AcDbEntity
  8
2
100
AcDbCircle
 10
-178.922039
 20
20.918502
 30
0.0
 40
1.0
100
AcDbArc
 50
180.0
 51
260.871457
  0
ARC
  5
3C9
100
AcDbEntity
  8
2
100
AcDbCircle
 10
-173.921937
 20
17.023865
 30
0.0
 40
9.0
100
AcDbArc
 50
112.895675
 51
128.682467
  0
ARC
  5
3CA
100
AcDbEntity
  8
2
100
AcDbCircle
 10
-178.921967
 20
23.268838
 30
0.0
 40
1.0
100
AcDbArc
 50
128.682467
 51
179.984414
  0
LINE
  5
3CB
100
AcDbEntity
  8
2
100
AcDbLine
 10
-178.059171
 20
-47.366008
 30
0.0
 11
-183.619696
 21
-47.657423
 31
0.0
  0
ARC
  5
3CC
100
AcDbEntity
  8
2
100
AcDbCircle
 10
-173.922032
 20
-64.714699
 30
0.0
 40
9.0
100
AcDbArc
 50
253.39845
 51
304.849905
  0
ARC
  5
3CD
100
AcDbEntity
  8
2
100
AcDbCircle
 10
-169.922032
 20
-70.459262
 30
0.0
 40
2.0
100
AcDbArc
 50
304.849905
 51
360.0
  0
ARC
  5
3CE
100
AcDbEntity
  8
2
100
AcDbCircle
 10
-175.922032
 20
-71.422903
 30
0.0
 40
2.0
100
AcDbArc
 50
221.3492
 51
253.39845
  0
ARC
  5
3CF
100
AcDbEntity
  8
2
100
AcDbCircle
 10
-184.282627
 20
-32.234271
 30
0.0
 40
6.360594
100
AcDbArc
 50
321.84463
 51
360.0
  0
ARC
  5
3D0
100
AcDbEntity
  8
2
100
AcDbCircle
 10
-185.66025
 20
-32.234271
 30
0.0
 40
7.738218
100
AcDbArc
 50
0.0
 51
35.536112
  0
LINE
  5
3D1
100
AcDbEntity
  8
2
100
AcDbLine
 10
-179.922032
 20
-25.993047
 30
0.0
 11
-179.922032
 21
-21.436351
 31
0.0
  0
ARC
  5
3D2
100
AcDbEntity
  8
2
100
AcDbCircle
 10
-176.922032
 20
-38.017209
 30
0.0
 40
3.0
100
AcDbArc
 50
141.84463
 51
180.0
  0
ARC
  5
3D3
100
AcDbEntity
  8
2
100
AcDbCircle
 10
-176.922032
 20
-25.993047
 30
0.0
 40
3.0
100
AcDbArc
 50
180.0
 51
215.536112
  0
ARC
  5
3D4
100
AcDbEntity
  8
2
100
AcDbCircle
 10
-184.18794
 20
-31.528867
 30
0.0
 40
6.265907
100
AcDbArc
 50
321.642591
 51
356.943542
  0
ARC
  5
3D5
100
AcDbEntity
  8
2
100
AcDbCircle
 10
-176.922032
 20
-37.278966
 30
0.0
 40
3.0
100
AcDbArc
 50
141.642591
 51
180.0
  0
ARC
  5
3D6
100
AcDbEntity
  8
2
100
AcDbCircle
 10
-185.492165
 20
-48.245828
 30
0.0
 40
7.570133
100
AcDbArc
 50
0.0
 51
35.827044
  0
ARC
  5
3D7
100
AcDbEntity
  8
2
100
AcDbCircle
 10
-182.0039
 20
-48.245828
 30
0.0
 40
4.081868
100
AcDbArc
 50
312.156167
 51
360.0
  0
LINE
  5
3D8
100
AcDbEntity
  8
2
100
AcDbLine
 10
-179.922032
 20
-37.278966
 30
0.0
 11
-179.922032
 21
-42.058702
 31
0.0
  0
ARC
  5
3D9
100
AcDbEntity
  8
2
100
AcDbCircle
 10
-176.922032
 20
-42.058702
 30
0.0
 40
3.0
100
AcDbArc
 50
180.0
 51
215.827044
  0
ARC
  5
3DA
100
AcDbEntity
  8
2
100
AcDbCircle
 10
-177.922032
 20
-52.754428
 30
0.0
 40
2.0
100
AcDbArc
 50
132.156167
 51
180.0
  0
ARC
  5
3DB
100
AcDbEntity
  8
2
100
AcDbCircle
 10
-182.823321
 20
-46.214699
 30
0.0
 40
4.901289
100
AcDbArc
 50
315.251115
 51
349.361193
  0
ARC
  5
3DC
100
AcDbEntity
  8
2
100
AcDbCircle
 10
-177.922032
 20
-51.073213
 30
0.0
 40
2.0
100
AcDbArc
 50
135.251115
 51
180.0
  0
ARC
  5
3DD
100
AcDbEntity
  8
2
100
AcDbCircle
 10
-179.890311
 20
-61.298569
 30
0.0
 40
1.968279
100
AcDbArc
 50
289.038835
 51
360.0
  0
ARC
  5
3DE
100
AcDbEntity
  8
2
100
AcDbCircle
 10
-183.85702
 20
-61.298569
 30
0.0
 40
5.934988
100
AcDbArc
 50
0.0
 51
41.586739
  0
LINE
  5
3DF
100
AcDbEntity
  8
2
100
AcDbLine
 10
-179.922032
 20
-51.073213
 30
0.0
 11
-179.922032
 21
-56.031696
 31
0.0
  0
ARC
  5
3E0
100
AcDbEntity
  8
2
100
AcDbCircle
 10
-177.922032
 20
-56.031696
 30
0.0
 40
2.0
100
AcDbArc
 50
180.0
 51
221.586739
  0
ARC
  5
3E1
100
AcDbEntity
  8
2
100
AcDbCircle
 10
-178.922032
 20
-64.104477
 30
0.0
 40
1.0
100
AcDbArc
 50
109.038835
 51
180.0
  0
ARC
  5
3E2
100
AcDbEntity
  8
2
100
AcDbCircle
 10
-180.9309
 20
-58.186699
 30
0.0
 40
3.008868
100
AcDbArc
 50
300.073202
 51
334.719022
  0
ARC
  5
3E3
100
AcDbEntity
  8
2
100
AcDbCircle
 10
-178.922032
 20
-61.655917
 30
0.0
 40
1.0
100
AcDbArc
 50
120.073202
 51
180.0
  0
ARC
  5
3E4
100
AcDbEntity
  8
2
100
AcDbCircle
 10
-181.519918
 20
-69.818141
 30
0.0
 40
3.597886
100
AcDbArc
 50
0.0
 51
55.596503
  0
LINE
  5
3E5
100
AcDbEntity
  8
2
100
AcDbLine
 10
-179.922033
 20
-61.655917
 30
0.0
 11
-179.921748
 21
-66.024522
 31
0.0
  0
LINE
  5
3E6
100
AcDbEntity
  8
2
100
AcDbLine
 10
-179.922606
 20
-68.3479
 30
0.0
 11
-179.921967
 21
-70.698509
 31
0.0
  0
ARC
  5
3E7
100
AcDbEntity
  8
2
100
AcDbCircle
 10
-178.922033
 20
-66.024522
 30
0.0
 40
1.0
100
AcDbArc
 50
180.0
 51
235.596503
  0
ARC
  5
3E8
100
AcDbEntity
  8
2
100
AcDbCircle
 10
-178.434952
 20
-69.818141
 30
0.0
 40
0.51292
100
AcDbArc
 50
270.0
 51
360.0
  0
ARC
  5
3E9
100
AcDbEntity
  8
2
100
AcDbCircle
 10
-178.434952
 20
-66.769295
 30
0.0
 40
3.561766
100
AcDbArc
 50
245.322356
 51
270.0
  0
ARC
  5
3EA
100
AcDbEntity
  8
2
100
AcDbCircle
 10
-179.299172
 20
-66.000867
 30
0.0
 40
1.37714
100
AcDbArc
 50
279.128543
 51
285.774876
  0
ARC
  5
3EB
100
AcDbEntity
  8
2
100
AcDbCircle
 10
-178.922039
 20
-68.3479
 30
0.0
 40
1.0
100
AcDbArc
 50
99.128543
 51
180.0
  0
ARC
  5
3EC
100
AcDbEntity
  8
2
100
AcDbCircle
 10
-173.921937
 20
-64.453263
 30
0.0
 40
9.0
100
AcDbArc
 50
231.317533
 51
247.104325
  0
ARC
  5
3ED
100
AcDbEntity
  8
2
100
AcDbCircle
 10
-178.921967
 20
-70.698237
 30
0.0
 40
1.0
100
AcDbArc
 50
180.015586
 51
231.317533
  0
LINE
  5
3EE
100
AcDbEntity
  8
2
100
AcDbLine
 10
-179.644872
 20
-28.478642
 30
0.0
 11
-179.644872
 21
-36.019545
 31
0.0
  0
LINE
  5
3EF
100
AcDbEntity
  8
2
100
AcDbLine
 10
-178.121128
 20
-30.490238
 30
0.0
 11
-179.23913
 21
-29.014289
 31
0.0
  0
ARC
  5
3F0
100
AcDbEntity
  8
2
100
AcDbCircle
 10
-177.644872
 20
-27.80667
 30
0.0
 40
2.0
100
AcDbArc
 50
180.0
 51
217.143214
  0
LINE
  5
3F1
100
AcDbEntity
  8
2
100
AcDbLine
 10
-178.194542
 20
-1.196433
 30
0.0
 11
-180.11912
 21
-1.196433
 31
0.0
  0
LINE
  5
3F2
100
AcDbEntity
  8
2
100
AcDbLine
 10
-178.953371
 20
1.792977
 30
0.0
 11
-179.622555
 21
0.076941
 31
0.0
  0
ARC
  5
3F3
100
AcDbEntity
  8
2
100
AcDbCircle
 10
-180.98322
 20
2.092597
 30
0.0
 40
2.0
100
AcDbArc
 50
267.0
 51
338.696229
  0
ARC
  5
3F4
100
AcDbEntity
  8
2
100
AcDbCircle
 10
-181.48589
 20
0.803567
 30
0.0
 40
2.0
100
AcDbArc
 50
270.0
 51
338.696229
  0
CIRCLE
  5
3F5
100
AcDbEntity
  8
2
  6
PHANTOM
 62
     2
100
AcDbCircle
 10
96.527968
 20
-23.714699
 30
0.0
 40
50.0
  0
LINE
  5
3F6
100
AcDbEntity
  8
2
  6
PHANTOM
 62
     2
100
AcDbLine
 10
103.846789
 20
15.090065
 30
0.0
 11
104.539471
 21
0.543738
 31
0.0
  0
LINE
  5
3F7
100
AcDbEntity
  8
2
  6
PHANTOM
 62
     2
100
AcDbLine
 10
89.209147
 20
15.090065
 30
0.0
 11
88.516465
 21
0.543738
 31
0.0
  0
LINE
  5
3F8
100
AcDbEntity
  8
2
  6
PHANTOM
 62
     2
100
AcDbLine
 10
59.262646
 20
-36.778797
 30
0.0
 11
71.513793
 21
-28.905753
 31
0.0
  0
LINE
  5
3F9
100
AcDbEntity
  8
2
  6
PHANTOM
 62
     2
100
AcDbLine
 10
66.581467
 20
-49.455366
 30
0.0
 11
79.525296
 21
-42.782083
 31
0.0
  0
LINE
  5
3FA
100
AcDbEntity
  8
2
  6
PHANTOM
 62
     2
100
AcDbLine
 10
126.474469
 20
-49.455366
 30
0.0
 11
113.530639
 21
-42.782083
 31
0.0
  0
LINE
  5
3FB
100
AcDbEntity
  8
2
  6
PHANTOM
 62
     2
100
AcDbLine
 10
133.79329
 20
-36.778797
 30
0.0
 11
121.542142
 21
-28.905753
 31
0.0
  0
CIRCLE
  5
3FC
100
AcDbEntity
  8
2
  6
PHANTOM
 62
     2
100
AcDbCircle
 10
96.527968
 20
-23.714699
 30
0.0
 40
23.5
  0
ARC
  5
3FD
100
AcDbEntity
  8
2
  6
PHANTOM
 62
     2
100
AcDbCircle
 10
108.035509
 20
0.710216
 30
0.0
 40
3.5
100
AcDbArc
 50
182.726311
 51
244.773025
  0
ARC
  5
3FE
100
AcDbEntity
  8
2
  6
PHANTOM
 62
     2
100
AcDbCircle
 10
85.020426
 20
0.710216
 30
0.0
 40
3.5
100
AcDbArc
 50
295.226975
 51
357.273689
  0
ARC
  5
3FF
100
AcDbEntity
  8
2
  6
PHANTOM
 62
     2
100
AcDbCircle
 10
69.6216
 20
-25.961334
 30
0.0
 40
3.5
100
AcDbArc
 50
302.726311
 51
4.773025
  0
ARC
  5
400
100
AcDbEntity
  8
2
  6
PHANTOM
 62
     2
100
AcDbCircle
 10
81.129141
 20
-45.89298
 30
0.0
 40
3.5
100
AcDbArc
 50
55.226975
 51
117.273689
  0
ARC
  5
401
100
AcDbEntity
  8
2
  6
PHANTOM
 62
     2
100
AcDbCircle
 10
111.926794
 20
-45.89298
 30
0.0
 40
3.5
100
AcDbArc
 50
62.726311
 51
124.773025
  0
ARC
  5
402
100
AcDbEntity
  8
2
  6
PHANTOM
 62
     2
100
AcDbCircle
 10
123.434336
 20
-25.961334
 30
0.0
 40
3.5
100
AcDbArc
 50
175.226975
 51
237.273689
  0
CIRCLE
  5
403
100
AcDbEntity
  8
2
  6
PHANTOM
 62
     2
100
AcDbCircle
 10
96.527968
 20
-23.714699
 30
0.0
 40
20.5
  0
ARC
  5
404
100
AcDbEntity
  8
2
  6
PHANTOM
 62
     2
100
AcDbCircle
 10
96.527968
 20
-23.714699
 30
0.0
 40
42.0
100
AcDbArc
 50
80.134313
 51
99.865687
  0
ARC
  5
405
100
AcDbEntity
  8
2
  6
PHANTOM
 62
     2
100
AcDbCircle
 10
96.527968
 20
-23.714699
 30
0.0
 40
42.0
100
AcDbArc
 50
103.468688
 51
196.531312
  0
ARC
  5
406
100
AcDbEntity
  8
2
  6
PHANTOM
 62
     2
100
AcDbCircle
 10
96.527968
 20
-23.714699
 30
0.0
 40
42.0
100
AcDbArc
 50
200.134313
 51
219.865687
  0
ARC
  5
407
100
AcDbEntity
  8
2
  6
PHANTOM
 62
     2
100
AcDbCircle
 10
96.527968
 20
-23.714699
 30
0.0
 40
42.0
100
AcDbArc
 50
223.468688
 51
316.531312
  0
ARC
  5
408
100
AcDbEntity
  8
2
  6
PHANTOM
 62
     2
100
AcDbCircle
 10
96.527968
 20
-23.714699
 30
0.0
 40
42.0
100
AcDbArc
 50
320.134313
 51
339.865687
  0
ARC
  5
409
100
AcDbEntity
  8
2
  6
PHANTOM
 62
     2
100
AcDbCircle
 10
96.527968
 20
-23.714699
 30
0.0
 40
42.0
100
AcDbArc
 50
343.468688
 51
76.531312
  0
ARC
  5
40A
100
AcDbEntity
  8
2
  6
PHANTOM
 62
     2
100
AcDbCircle
 10
105.844525
 20
15.185195
 30
0.0
 40
2.0
100
AcDbArc
 50
76.531312
 51
182.726311
  0
ARC
  5
40B
100
AcDbEntity
  8
2
  6
PHANTOM
 62
     2
100
AcDbCircle
 10
87.211411
 20
15.185195
 30
0.0
 40
2.0
100
AcDbArc
 50
357.273689
 51
103.468688
  0
ARC
  5
40C
100
AcDbEntity
  8
2
  6
PHANTOM
 62
     2
100
AcDbCircle
 10
58.181393
 20
-35.096271
 30
0.0
 40
2.0
100
AcDbArc
 50
196.531312
 51
302.726311
  0
ARC
  5
40D
100
AcDbEntity
  8
2
  6
PHANTOM
 62
     2
100
AcDbCircle
 10
67.49795
 20
-51.233021
 30
0.0
 40
2.0
100
AcDbArc
 50
117.273689
 51
223.468688
  0
ARC
  5
40E
100
AcDbEntity
  8
2
  6
PHANTOM
 62
     2
100
AcDbCircle
 10
125.557986
 20
-51.233021
 30
0.0
 40
2.0
100
AcDbArc
 50
316.531312
 51
62.726311
  0
ARC
  5
40F
100
AcDbEntity
  8
2
  6
PHANTOM
 62
     2
100
AcDbCircle
 10
134.874543
 20
-35.096271
 30
0.0
 40
2.0
100
AcDbArc
 50
237.273689
 51
343.468688
  0
DIMENSION
  5
410
100
AcDbEntity
  8
5
100
AcDbDimension
  2
*D0
 10
-28.07428
 20
-23.714699
 30
0.0
 11
-35.87428
 21
-7.214699
 31
0.0
  1
27
100
AcDbAlignedDimension
 13
14.270829
 23
-50.714699
 33
0.0
 14
-0.025823
 24
-23.714699
 34
0.0
 50
90.0
100
AcDbRotatedDimension
  0
DIMENSION
  5
411
100
AcDbEntity
  8
5
100
AcDbDimension
  2
*D1
 10
-28.07428
 20
-50.714699
 30
0.0
 11
-39.02428
 21
-134.664699
 31
0.0
  1
167
100
AcDbAlignedDimension
 13
2.927968
 23
-217.714699
 33
0.0
 14
14.270829
 24
-50.714699
 34
0.0
 50
90.0
100
AcDbRotatedDimension
  0
DIMENSION
  5
412
100
AcDbEntity
  8
5
100
AcDbDimension
  2
*D2
 10
-28.07428
 20
-217.714699
 30
0.0
 11
-39.02428
 21
-269.114699
 31
0.0
  1
102
100
AcDbAlignedDimension
 13
45.527968
 23
-319.614699
 33
0.0
 14
2.927968
 24
-217.714699
 34
0.0
 50
90.0
100
AcDbRotatedDimension
  0
DIMENSION
  5
413
100
AcDbEntity
  8
5
100
AcDbDimension
  2
*D3
 10
76.527968
 20
-350.865967
 30
0.0
 11
50.527968
 21
-344.865967
 31
0.0
  1
52
100
AcDbAlignedDimension
 13
24.527968
 23
-289.714699
 33
0.0
 14
76.527968
 24
-289.714699
 34
0.0
100
AcDbRotatedDimension
  0
DIMENSION
  5
414
100
AcDbEntity
  8
5
100
AcDbDimension
  2
*D4
 10
-131.179653
 20
241.385301
 30
0.0
 11
-138.979653
 21
221.085301
 31
0.0
  1
46
100
AcDbAlignedDimension
 13
-226.796481
 23
195.385301
 33
0.0
 14
-160.902145
 24
241.385301
 34
0.0
 50
90.0
100
AcDbRotatedDimension
  0
DIMENSION
  5
415
100
AcDbEntity
  8
5
100
AcDbDimension
  2
*D5
 10
-131.179653
 20
195.385301
 30
0.0
 11
-138.979653
 21
174.085301
 31
0.0
  1
48
100
AcDbAlignedDimension
 13
-291.713032
 23
147.385301
 33
0.0
 14
-226.796481
 24
195.385301
 34
0.0
 50
90.0
100
AcDbRotatedDimension
  0
DIMENSION
  5
416
100
AcDbEntity
  8
5
100
AcDbDimension
  2
*D6
 10
-167.922032
 20
318.809692
 30
0.0
 11
-241.047032
 21
324.809692
 31
0.0
  1
146
100
AcDbAlignedDimension
 13
-314.172032
 23
272.979757
 33
0.0
 14
-167.922032
 24
288.129863
 34
0.0
100
AcDbRotatedDimension
  0
DIMENSION
  5
417
100
AcDbEntity
  8
5
100
AcDbDimension
  2
*D7
 10
-131.179653
 20
-73.714699
 30
0.0
 11
-145.279653
 21
-27.314699
 31
0.0
 70
     1
  1
%%c100
100
AcDbAlignedDimension
 13
-173.922032
 23
26.285301
 33
0.0
 14
-173.922032
 24
-73.714699
 34
0.0
 50
270.0
  0
LINE
  5
418
100
AcDbEntity
  8
13
100
AcDbLine
 10
-273.988619
 20
-194.741694
 30
0.0
 11
-296.287098
 21
-192.85753
 31
0.0
  0
ARC
  5
419
100
AcDbEntity
  8
13
100
AcDbCircle
 10
-274.072817
 20
-195.738143
 30
0.0
 40
1.0
100
AcDbArc
 50
28.725142
 51
85.170127
  0
ARC
  5
41A
100
AcDbEntity
  8
13
100
AcDbCircle
 10
-314.172032
 20
-217.714699
 30
0.0
 40
46.726536
100
AcDbArc
 50
24.366653
 51
28.725142
  0
ARC
  5
41B
100
AcDbEntity
  8
13
100
AcDbCircle
 10
-272.518636
 20
-198.849104
 30
0.0
 40
1.0
100
AcDbArc
 50
264.829873
 51
24.366653
  0
LINE
  5
41C
100
AcDbEntity
  8
13
100
AcDbLine
 10
-272.60875
 20
-199.845035
 30
0.0
 11
-319.064065
 21
-195.641691
 31
0.0
  0
LINE
  5
41D
100
AcDbEntity
  8
13
100
AcDbLine
 10
-326.038686
 20
-220.66178
 30
0.0
 11
-320.739748
 21
-219.618938
 31
0.0
  0
ARC
  5
41E
100
AcDbEntity
  8
13
100
AcDbCircle
 10
-314.172032
 20
-215.914699
 30
0.0
 40
51.74
100
AcDbArc
 50
285.534107
 51
306.267682
  0
LINE
  5
41F
100
AcDbEntity
  8
13
100
AcDbLine
 10
-328.028623
 20
-265.764699
 30
0.0
 11
-300.315442
 21
-265.764699
 31
0.0
  0
ARC
  5
420
100
AcDbEntity
  8
13
100
AcDbCircle
 10
-314.172032
 20
-215.914699
 30
0.0
 40
51.74
100
AcDbArc
 50
233.732318
 51
254.465893
  0
ARC
  5
421
100
AcDbEntity
  8
13
100
AcDbCircle
 10
-314.172032
 20
-219.514699
 30
0.0
 40
51.74
100
AcDbArc
 50
105.534107
 51
126.267682
  0
ARC
  5
422
100
AcDbEntity
  8
13
100
AcDbCircle
 10
-314.172032
 20
-217.714699
 30
0.0
 40
50.3
100
AcDbArc
 50
127.480672
 51
232.519328
  0
LINE
  5
423
100
AcDbEntity
  8
13
100
AcDbLine
 10
-328.028623
 20
-169.664699
 30
0.0
 11
-300.315442
 21
-169.664699
 31
0.0
  0
ARC
  5
424
100
AcDbEntity
  8
13
100
AcDbCircle
 10
-314.172032
 20
-217.714699
 30
0.0
 40
50.3
100
AcDbArc
 50
307.480672
 51
52.519328
  0
ARC
  5
425
100
AcDbEntity
  8
13
100
AcDbCircle
 10
-314.172032
 20
-219.514699
 30
0.0
 40
51.74
100
AcDbArc
 50
53.732318
 51
74.465893
  0
ARC
  5
426
100
AcDbEntity
  8
13
100
AcDbCircle
 10
-326.164921
 20
-215.663175
 30
0.0
 40
1.0
100
AcDbArc
 50
83.663034
 51
180.0
  0
ARC
  5
427
100
AcDbEntity
  8
13
100
AcDbCircle
 10
-326.164921
 20
-219.766224
 30
0.0
 40
1.0
100
AcDbArc
 50
180.0
 51
276.336979
  0
LINE
  5
428
100
AcDbEntity
  8
13
100
AcDbLine
 10
-326.038686
 20
-214.767619
 30
0.0
 11
-320.739748
 21
-215.810461
 31
0.0
  0
LINE
  5
429
100
AcDbEntity
  8
13
100
AcDbLine
 10
-297.887211
 20
-262.045335
 30
0.0
 11
-298.819533
 21
-261.812165
 31
0.0
  0
LINE
  5
42A
100
AcDbEntity
  8
13
100
AcDbLine
 10
-302.856143
 20
-260.802624
 30
0.0
 11
-298.819533
 21
-261.812165
 31
0.0
  0
LINE
  5
42B
100
AcDbEntity
  8
13
100
AcDbLine
 10
-302.856143
 20
-174.626773
 30
0.0
 11
-298.819533
 21
-173.617232
 31
0.0
  0
LINE
  5
42C
100
AcDbEntity
  8
13
100
AcDbLine
 10
-297.887211
 20
-173.384062
 30
0.0
 11
-298.819533
 21
-173.617232
 31
0.0
  0
LINE
  5
42D
100
AcDbEntity
  8
13
100
AcDbLine
 10
-306.672032
 20
-219.62418
 30
0.0
 11
-310.7106
 21
-219.62418
 31
0.0
  0
ARC
  5
42E
100
AcDbEntity
  8
13
100
AcDbCircle
 10
-319.757819
 20
-218.622493
 30
0.0
 40
1.0
100
AcDbArc
 50
180.0
 51
270.0
  0
LINE
  5
42F
100
AcDbEntity
  8
13
100
AcDbLine
 10
-314.172032
 20
-220.074699
 30
0.0
 11
-320.039542
 21
-220.092121
 31
0.0
  0
ARC
  5
430
100
AcDbEntity
  8
13
100
AcDbCircle
 10
-311.726841
 20
-219.122493
 30
0.0
 40
0.5
100
AcDbArc
 50
270.0
 51
360.0
  0
ARC
  5
431
100
AcDbEntity
  8
13
100
AcDbCircle
 10
-310.439981
 20
-221.085785
 30
0.0
 40
1.0
100
AcDbArc
 50
89.829873
 51
180.0
  0
ARC
  5
432
100
AcDbEntity
  8
13
100
AcDbCircle
 10
-307.806007
 20
-221.093606
 30
0.0
 40
1.0
100
AcDbArc
 50
89.829873
 51
180.0
  0
ARC
  5
433
100
AcDbEntity
  8
13
100
AcDbCircle
 10
-317.904083
 20
-221.082166
 30
0.0
 40
1.0
100
AcDbArc
 50
0.0
 51
85.294322
  0
ARC
  5
434
100
AcDbEntity
  8
13
100
AcDbCircle
 10
-320.538058
 20
-221.153631
 30
0.0
 40
1.0
100
AcDbArc
 50
0.0
 51
96.336979
  0
LINE
  5
435
100
AcDbEntity
  8
13
100
AcDbLine
 10
-320.039542
 20
-220.092121
 30
0.0
 11
-326.054545
 21
-220.760114
 31
0.0
  0
LINE
  5
436
100
AcDbEntity
  8
13
100
AcDbLine
 10
-320.039542
 20
-215.337276
 30
0.0
 11
-326.054546
 21
-214.669285
 31
0.0
  0
ARC
  5
437
100
AcDbEntity
  8
13
100
AcDbCircle
 10
-320.538058
 20
-214.275766
 30
0.0
 40
1.0
100
AcDbArc
 50
263.663025
 51
360.0
  0
ARC
  5
438
100
AcDbEntity
  8
13
100
AcDbCircle
 10
-317.904083
 20
-214.347231
 30
0.0
 40
1.0
100
AcDbArc
 50
274.705423
 51
360.0
  0
LINE
  5
439
100
AcDbEntity
  8
13
100
AcDbLine
 10
-268.472934
 20
-215.219005
 30
0.0
 11
-314.172032
 21
-215.354699
 31
0.0
  0
ARC
  5
43A
100
AcDbEntity
  8
13
100
AcDbCircle
 10
-310.439981
 20
-214.343613
 30
0.0
 40
1.0
100
AcDbArc
 50
180.0
 51
270.170127
  0
LINE
  5
43B
100
AcDbEntity
  8
13
100
AcDbLine
 10
-304.453626
 20
-262.319399
 30
0.0
 11
-323.890438
 21
-262.319399
 31
0.0
  0
ARC
  5
43C
100
AcDbEntity
  8
13
100
AcDbCircle
 10
-323.890438
 20
-262.464699
 30
0.0
 40
2.0
100
AcDbArc
 50
90.0
 51
180.0
  0
ARC
  5
43D
100
AcDbEntity
  8
13
100
AcDbCircle
 10
-333.004401
 20
-251.85907
 30
0.0
 40
10.5
100
AcDbArc
 50
241.121015
 51
284.041436
  0
LINE
  5
43E
100
AcDbEntity
  8
13
100
AcDbLine
 10
-325.890438
 20
-265.425311
 30
0.0
 11
-325.890438
 21
-262.464699
 31
0.0
  0
LINE
  5
43F
100
AcDbEntity
  8
13
100
AcDbLine
 10
-330.456854
 20
-262.045335
 30
0.0
 11
-324.375685
 21
-260.524458
 31
0.0
  0
ARC
  5
440
100
AcDbEntity
  8
13
100
AcDbCircle
 10
-311.040808
 20
-304.668895
 30
0.0
 40
45.281984
100
AcDbArc
 50
82.423638
 51
102.080046
  0
LINE
  5
441
100
AcDbEntity
  8
13
100
AcDbLine
 10
-302.453626
 20
-265.425311
 30
0.0
 11
-302.453626
 21
-262.464699
 31
0.0
  0
ARC
  5
442
100
AcDbEntity
  8
13
100
AcDbCircle
 10
-295.339664
 20
-251.85907
 30
0.0
 40
10.5
100
AcDbArc
 50
255.958564
 51
298.878985
  0
ARC
  5
443
100
AcDbEntity
  8
13
100
AcDbCircle
 10
-314.172032
 20
-217.714699
 30
0.0
 40
46.726536
100
AcDbArc
 50
331.274858
 51
335.633347
  0
LINE
  5
444
100
AcDbEntity
  8
13
100
AcDbLine
 10
-274.687554
 20
-236.345173
 30
0.0
 11
-313.455065
 21
-239.73689
 31
0.0
  0
LINE
  5
445
100
AcDbEntity
  8
13
100
AcDbLine
 10
-275.519774
 20
-240.248146
 30
0.0
 11
-303.924087
 21
-242.733202
 31
0.0
  0
LINE
  5
446
100
AcDbEntity
  8
13
100
AcDbLine
 10
-273.988619
 20
-240.687703
 30
0.0
 11
-296.287098
 21
-242.571868
 31
0.0
  0
ARC
  5
447
100
AcDbEntity
  8
13
100
AcDbCircle
 10
-275.60693
 20
-239.251951
 30
0.0
 40
1.0
100
AcDbArc
 50
275.0
 51
330.818178
  0
ARC
  5
448
100
AcDbEntity
  8
13
100
AcDbCircle
 10
-314.172032
 20
-217.714699
 30
0.0
 40
45.171488
100
AcDbArc
 50
330.818178
 51
333.61959
  0
ARC
  5
449
100
AcDbEntity
  8
13
100
AcDbCircle
 10
-274.600398
 20
-237.341367
 30
0.0
 40
1.0
100
AcDbArc
 50
333.61959
 51
95.0
  0
ARC
  5
44A
100
AcDbEntity
  8
13
100
AcDbCircle
 10
-274.072817
 20
-239.691254
 30
0.0
 40
1.0
100
AcDbArc
 50
274.829873
 51
331.274858
  0
ARC
  5
44B
100
AcDbEntity
  8
13
100
AcDbCircle
 10
-272.518636
 20
-236.580294
 30
0.0
 40
1.0
100
AcDbArc
 50
335.633347
 51
95.170127
  0
LINE
  5
44C
100
AcDbEntity
  8
13
100
AcDbLine
 10
-326.343158
 20
-259.801057
 30
0.0
 11
-326.343158
 21
-247.755159
 31
0.0
  0
LINE
  5
44D
100
AcDbEntity
  8
13
100
AcDbLine
 10
-320.757819
 20
-259.464699
 30
0.0
 11
-320.757819
 21
-247.706448
 31
0.0
  0
LINE
  5
44E
100
AcDbEntity
  8
13
100
AcDbLine
 10
-303.613519
 20
-259.832503
 30
0.0
 11
-303.613519
 21
-250.54346
 31
0.0
  0
ARC
  5
44F
100
AcDbEntity
  8
13
100
AcDbCircle
 10
-312.757819
 20
-247.706448
 30
0.0
 40
8.0
100
AcDbArc
 50
95.0
 51
180.0
  0
ARC
  5
450
100
AcDbEntity
  8
13
100
AcDbCircle
 10
-317.904083
 20
-238.678664
 30
0.0
 40
1.0
100
AcDbArc
 50
275.170127
 51
360.0
  0
ARC
  5
451
100
AcDbEntity
  8
13
100
AcDbCircle
 10
-320.538058
 20
-239.026905
 30
0.0
 40
1.0
100
AcDbArc
 50
284.115518
 51
360.0
  0
ARC
  5
452
100
AcDbEntity
  8
13
100
AcDbCircle
 10
-318.343158
 20
-247.755159
 30
0.0
 40
8.0
100
AcDbArc
 50
95.170127
 51
180.0
  0
ARC
  5
453
100
AcDbEntity
  8
13
100
AcDbCircle
 10
-310.439981
 20
-238.003302
 30
0.0
 40
1.0
100
AcDbArc
 50
180.0
 51
275.170127
  0
ARC
  5
454
100
AcDbEntity
  8
13
100
AcDbCircle
 10
-307.806007
 20
-237.764976
 30
0.0
 40
1.0
100
AcDbArc
 50
180.0
 51
275.170127
  0
LINE
  5
455
100
AcDbEntity
  8
13
100
AcDbLine
 10
-272.60875
 20
-235.584362
 30
0.0
 11
-319.064065
 21
-239.787706
 31
0.0
  0
ARC
  5
456
100
AcDbEntity
  8
13
100
AcDbCircle
 10
-321.757819
 20
-259.464699
 30
0.0
 40
1.0
100
AcDbArc
 50
270.0
 51
360.0
  0
LINE
  5
457
100
AcDbEntity
  8
13
100
AcDbLine
 10
-323.890438
 20
-260.464699
 30
0.0
 11
-304.453626
 21
-260.464699
 31
0.0
  0
ARC
  5
458
100
AcDbEntity
  8
13
100
AcDbCircle
 10
-302.613519
 20
-259.832503
 30
0.0
 40
1.0
100
AcDbArc
 50
180.0
 51
255.958564
  0
ARC
  5
459
100
AcDbEntity
  8
13
100
AcDbCircle
 10
-304.453626
 20
-262.464699
 30
0.0
 40
2.0
100
AcDbArc
 50
0.0
 51
90.0
  0
ARC
  5
45A
100
AcDbEntity
  8
13
100
AcDbCircle
 10
-304.453626
 20
-172.964699
 30
0.0
 40
2.0
100
AcDbArc
 50
270.0
 51
360.0
  0
ARC
  5
45B
100
AcDbEntity
  8
13
100
AcDbCircle
 10
-302.613519
 20
-175.596894
 30
0.0
 40
1.0
100
AcDbArc
 50
104.041436
 51
180.0
  0
LINE
  5
45C
100
AcDbEntity
  8
13
100
AcDbLine
 10
-323.890438
 20
-174.964699
 30
0.0
 11
-304.453626
 21
-174.964699
 31
0.0
  0
ARC
  5
45D
100
AcDbEntity
  8
13
100
AcDbCircle
 10
-321.757819
 20
-175.964699
 30
0.0
 40
1.0
100
AcDbArc
 50
0.0
 51
90.0
  0
ARC
  5
45E
100
AcDbEntity
  8
13
100
AcDbCircle
 10
-307.806007
 20
-197.664421
 30
0.0
 40
1.0
100
AcDbArc
 50
84.829873
 51
180.0
  0
ARC
  5
45F
100
AcDbEntity
  8
13
100
AcDbCircle
 10
-310.439981
 20
-197.426095
 30
0.0
 40
1.0
100
AcDbArc
 50
84.829873
 51
180.0
  0
ARC
  5
460
100
AcDbEntity
  8
13
100
AcDbCircle
 10
-318.343158
 20
-187.674239
 30
0.0
 40
8.0
100
AcDbArc
 50
180.0
 51
264.829873
  0
ARC
  5
461
100
AcDbEntity
  8
13
100
AcDbCircle
 10
-320.538058
 20
-196.402493
 30
0.0
 40
1.0
100
AcDbArc
 50
0.0
 51
75.884482
  0
ARC
  5
462
100
AcDbEntity
  8
13
100
AcDbCircle
 10
-317.904083
 20
-196.750733
 30
0.0
 40
1.0
100
AcDbArc
 50
0.0
 51
84.829873
  0
ARC
  5
463
100
AcDbEntity
  8
13
100
AcDbCircle
 10
-312.757819
 20
-187.722949
 30
0.0
 40
8.0
100
AcDbArc
 50
180.0
 51
265.0
  0
LINE
  5
464
100
AcDbEntity
  8
13
100
AcDbLine
 10
-303.613519
 20
-175.596894
 30
0.0
 11
-303.613519
 21
-184.885937
 31
0.0
  0
LINE
  5
465
100
AcDbEntity
  8
13
100
AcDbLine
 10
-320.757819
 20
-175.964699
 30
0.0
 11
-320.757819
 21
-187.722949
 31
0.0
  0
LINE
  5
466
100
AcDbEntity
  8
13
100
AcDbLine
 10
-326.343158
 20
-175.62834
 30
0.0
 11
-326.343158
 21
-187.674239
 31
0.0
  0
ARC
  5
467
100
AcDbEntity
  8
13
100
AcDbCircle
 10
-314.172032
 20
-217.714699
 30
0.0
 40
46.726536
100
AcDbArc
 50
358.125542
 51
1.874458
  0
ARC
  5
468
100
AcDbEntity
  8
13
100
AcDbCircle
 10
-274.600398
 20
-198.08803
 30
0.0
 40
1.0
100
AcDbArc
 50
265.0
 51
26.38041
  0
ARC
  5
469
100
AcDbEntity
  8
13
100
AcDbCircle
 10
-314.172032
 20
-217.714699
 30
0.0
 40
45.171488
100
AcDbArc
 50
26.38041
 51
29.181822
  0
ARC
  5
46A
100
AcDbEntity
  8
13
100
AcDbCircle
 10
-275.60693
 20
-196.177446
 30
0.0
 40
1.0
100
AcDbArc
 50
29.181822
 51
85.0
  0
LINE
  5
46B
100
AcDbEntity
  8
13
100
AcDbLine
 10
-275.519774
 20
-195.181251
 30
0.0
 11
-303.924087
 21
-192.696196
 31
0.0
  0
LINE
  5
46C
100
AcDbEntity
  8
13
100
AcDbLine
 10
-274.687554
 20
-199.084225
 30
0.0
 11
-313.455065
 21
-195.692507
 31
0.0
  0
LINE
  5
46D
100
AcDbEntity
  8
13
100
AcDbLine
 10
-327.164921
 20
-219.766224
 30
0.0
 11
-327.164921
 21
-215.663175
 31
0.0
  0
ARC
  5
46E
100
AcDbEntity
  8
13
100
AcDbCircle
 10
-319.757819
 20
-218.622493
 30
0.0
 40
1.0
100
AcDbArc
 50
180.0
 51
270.0
  0
ARC
  5
46F
100
AcDbEntity
  8
13
100
AcDbCircle
 10
-270.009873
 20
-218.622493
 30
0.0
 40
1.0
100
AcDbArc
 50
270.0
 51
358.822398
  0
ARC
  5
470
100
AcDbEntity
  8
13
100
AcDbCircle
 10
-268.469965
 20
-219.210397
 30
0.0
 40
1.0
100
AcDbArc
 50
269.829873
 51
358.125542
  0
LINE
  5
471
100
AcDbEntity
  8
13
100
AcDbLine
 10
-268.472934
 20
-220.210392
 30
0.0
 11
-314.172032
 21
-220.074699
 31
0.0
  0
LINE
  5
472
100
AcDbEntity
  8
13
100
AcDbLine
 10
-270.009873
 20
-219.622493
 30
0.0
 11
-319.757819
 21
-219.622493
 31
0.0
  0
LINE
  5
473
100
AcDbEntity
  8
13
100
AcDbLine
 10
-270.009873
 20
-215.806904
 30
0.0
 11
-319.757819
 21
-215.806904
 31
0.0
  0
ARC
  5
474
100
AcDbEntity
  8
13
100
AcDbCircle
 10
-311.726841
 20
-216.306904
 30
0.0
 40
0.5
100
AcDbArc
 50
0.0
 51
90.0
  0
LINE
  5
475
100
AcDbEntity
  8
13
100
AcDbLine
 10
-314.172032
 20
-215.354699
 30
0.0
 11
-320.039542
 21
-215.337276
 31
0.0
  0
ARC
  5
476
100
AcDbEntity
  8
13
100
AcDbCircle
 10
-319.757819
 20
-216.806904
 30
0.0
 40
1.0
100
AcDbArc
 50
90.0
 51
180.0
  0
ARC
  5
477
100
AcDbEntity
  8
13
100
AcDbCircle
 10
-268.469965
 20
-216.219001
 30
0.0
 40
1.0
100
AcDbArc
 50
1.874458
 51
90.170127
  0
ARC
  5
478
100
AcDbEntity
  8
13
100
AcDbCircle
 10
-270.009873
 20
-216.806904
 30
0.0
 40
1.0
100
AcDbArc
 50
1.177602
 51
90.0
  0
ARC
  5
479
100
AcDbEntity
  8
13
100
AcDbCircle
 10
-314.172032
 20
-217.714699
 30
0.0
 40
45.171488
100
AcDbArc
 50
358.822398
 51
1.177602
  0
LINE
  5
47A
100
AcDbEntity
  8
13
100
AcDbLine
 10
-311.226841
 20
-219.122493
 30
0.0
 11
-311.226841
 21
-216.306904
 31
0.0
  0
LINE
  5
47B
100
AcDbEntity
  8
13
100
AcDbLine
 10
-320.757819
 20
-218.57357
 30
0.0
 11
-320.757819
 21
-216.806904
 31
0.0
  0
LINE
  5
47C
100
AcDbEntity
  8
13
100
AcDbLine
 10
-319.538058
 20
-221.153631
 30
0.0
 11
-319.538058
 21
-239.026905
 31
0.0
  0
LINE
  5
47D
100
AcDbEntity
  8
13
100
AcDbLine
 10
-316.904083
 20
-221.082166
 30
0.0
 11
-316.904083
 21
-238.678664
 31
0.0
  0
LINE
  5
47E
100
AcDbEntity
  8
13
100
AcDbLine
 10
-311.439981
 20
-221.085785
 30
0.0
 11
-311.439981
 21
-238.003351
 31
0.0
  0
LINE
  5
47F
100
AcDbEntity
  8
13
100
AcDbLine
 10
-308.806007
 20
-221.093606
 30
0.0
 11
-308.806007
 21
-237.765025
 31
0.0
  0
LINE
  5
480
100
AcDbEntity
  8
13
100
AcDbLine
 10
-316.904083
 20
-214.347231
 30
0.0
 11
-316.904083
 21
-196.750733
 31
0.0
  0
LINE
  5
481
100
AcDbEntity
  8
13
100
AcDbLine
 10
-319.538058
 20
-214.275766
 30
0.0
 11
-319.538058
 21
-196.402493
 31
0.0
  0
LINE
  5
482
100
AcDbEntity
  8
13
100
AcDbLine
 10
-308.806007
 20
-214.335792
 30
0.0
 11
-308.806007
 21
-197.664421
 31
0.0
  0
LINE
  5
483
100
AcDbEntity
  8
13
100
AcDbLine
 10
-311.439981
 20
-214.343613
 30
0.0
 11
-311.439981
 21
-197.426095
 31
0.0
  0
LINE
  5
484
100
AcDbEntity
  8
13
100
AcDbLine
 10
-306.672032
 20
-215.805217
 30
0.0
 11
-310.7106
 21
-215.805217
 31
0.0
  0
ARC
  5
485
100
AcDbEntity
  8
13
100
AcDbCircle
 10
-295.339664
 20
-183.570327
 30
0.0
 40
10.5
100
AcDbArc
 50
61.121015
 51
104.041436
  0
LINE
  5
486
100
AcDbEntity
  8
13
100
AcDbLine
 10
-302.453626
 20
-170.004087
 30
0.0
 11
-302.453626
 21
-172.964699
 31
0.0
  0
ARC
  5
487
100
AcDbEntity
  8
13
100
AcDbCircle
 10
-311.004761
 20
-129.843802
 30
0.0
 40
46.186193
100
AcDbArc
 50
258.114219
 51
277.382098
  0
LINE
  5
488
100
AcDbEntity
  8
13
100
AcDbLine
 10
-330.456854
 20
-173.384062
 30
0.0
 11
-324.375685
 21
-174.90494
 31
0.0
  0
LINE
  5
489
100
AcDbEntity
  8
13
100
AcDbLine
 10
-325.890438
 20
-170.004087
 30
0.0
 11
-325.890438
 21
-172.964699
 31
0.0
  0
ARC
  5
48A
100
AcDbEntity
  8
13
100
AcDbCircle
 10
-333.004401
 20
-183.570327
 30
0.0
 40
10.5
100
AcDbArc
 50
75.958564
 51
118.878985
  0
ARC
  5
48B
100
AcDbEntity
  8
13
100
AcDbCircle
 10
-323.890438
 20
-172.964699
 30
0.0
 40
2.0
100
AcDbArc
 50
180.0
 51
270.0
  0
LINE
  5
48C
100
AcDbEntity
  8
13
100
AcDbLine
 10
-304.453626
 20
-173.109998
 30
0.0
 11
-323.890438
 21
-173.109998
 31
0.0
  0
LINE
  5
48D
100
AcDbEntity
  8
13
100
AcDbLine
 10
-274.879734
 20
-195.193825
 30
0.0
 11
-274.00741
 21
-194.944029
 31
0.0
  0
LINE
  5
48E
100
AcDbEntity
  8
13
100
AcDbLine
 10
-273.593867
 20
-198.994496
 30
0.0
 11
-272.144197
 21
-199.540811
 31
0.0
  0
LINE
  5
48F
100
AcDbEntity
  8
13
100
AcDbLine
 10
-269.153599
 20
-219.578917
 30
0.0
 11
-268.146233
 21
-219.968253
 31
0.0
  0
LINE
  5
490
100
AcDbEntity
  8
13
100
AcDbLine
 10
-269.153599
 20
-215.850482
 30
0.0
 11
-268.146233
 21
-215.461145
 31
0.0
  0
LINE
  5
491
100
AcDbEntity
  8
13
100
AcDbLine
 10
-273.593867
 20
-236.434903
 30
0.0
 11
-272.144197
 21
-235.888587
 31
0.0
  0
LINE
  5
492
100
AcDbEntity
  8
13
100
AcDbLine
 10
-274.879734
 20
-240.235573
 30
0.0
 11
-274.00741
 21
-240.48537
 31
0.0
  0
ARC
  5
493
100
AcDbEntity
  8
13
100
AcDbCircle
 10
-307.806007
 20
-214.335792
 30
0.0
 40
1.0
100
AcDbArc
 50
180.0
 51
270.170127
  0
ARC
  5
494
100
AcDbEntity
  8
13
100
AcDbCircle
 10
-303.226841
 20
-184.726638
 30
0.0
 40
8.0
100
AcDbArc
 50
180.0
 51
265.0
  0
ARC
  5
495
100
AcDbEntity
  8
13
100
AcDbCircle
 10
-303.226841
 20
-250.702759
 30
0.0
 40
8.0
100
AcDbArc
 50
95.0
 51
180.0
  0
ARC
  5
496
100
AcDbEntity
  8
13
100
AcDbCircle
 10
-295.613519
 20
-184.885937
 30
0.0
 40
8.0
100
AcDbArc
 50
180.0
 51
265.170127
  0
ARC
  5
497
100
AcDbEntity
  8
13
100
AcDbCircle
 10
-295.613519
 20
-250.54346
 30
0.0
 40
8.0
100
AcDbArc
 50
94.829873
 51
180.0
  0
POINT
  5
498
100
AcDbEntity
  8
13
100
AcDbPoint
 10
-314.172032
 20
-217.714699
 30
0.0
  0
TEXT
  5
499
100
AcDbEntity
  8
18
100
AcDbText
 10
366.433891
 20
-399.791977
 30
0.0
 40
9.0
  1
１
 72
     5
 11
373.633891
 21
-399.791977
 31
0.0
100
AcDbText
  0
TEXT
  5
49A
100
AcDbEntity
  8
18
100
AcDbText
 10
379.623688
 20
-411.30304
 30
0.0
 40
9.0
  1
３
 72
     5
 11
386.823688
 21
-411.30304
 31
0.0
100
AcDbText
  0
TEXT
  5
49B
100
AcDbEntity
  8
18
100
AcDbText
 10
368.562721
 20
-369.105789
 30
0.0
 40
9.0
  1
７００Ｇ－２ＩＡＳ　１００Ａ
 72
     5
 11
492.762721
 21
-369.105789
 31
0.0
100
AcDbText
  0
TEXT
  5
49C
100
AcDbEntity
  8
18
100
AcDbText
 10
368.562721
 20
-381.105789
 30
0.0
 40
9.0
  1
標準仕様　ＪＩＳ　５，１０Ｋ
 72
     5
 11
492.762721
 21
-381.105789
 31
0.0
100
AcDbText
  0
TEXT
  5
49D
100
AcDbEntity
  8
18
100
AcDbText
 10
460.8
 20
-408.0
 30
0.0
 40
15.0
  1
Ｄ３－０３６１３
 72
     5
 11
577.8
 21
-408.0
 31
0.0
100
AcDbText
  0
TEXT
  5
49E
100
AcDbEntity
  8
18
100
AcDbText
 10
540.474335
 20
-380.65741
 30
0.0
 40
6.0
  1
２００４．１２．２０
 72
     5
 11
599.274335
 21
-380.65741
 31
0.0
100
AcDbText
  0
LINE
  5
49F
100
AcDbEntity
  8
18
100
AcDbLine
 10
364.647228
 20
-204.646854
 30
0.0
 11
514.647228
 21
-204.646854
 31
0.0
  0
LINE
  5
4A0
100
AcDbEntity
  8
18
100
AcDbLine
 10
364.647228
 20
-264.646854
 30
0.0
 11
514.647228
 21
-264.646854
 31
0.0
  0
LINE
  5
4A1
100
AcDbEntity
  8
18
100
AcDbLine
 10
364.647228
 20
-279.646854
 30
0.0
 11
514.647228
 21
-279.646854
 31
0.0
  0
LINE
  5
4A2
100
AcDbEntity
  8
18
100
AcDbLine
 10
364.647228
 20
-294.646854
 30
0.0
 11
514.647228
 21
-294.646854
 31
0.0
  0
LINE
  5
4A3
100
AcDbEntity
  8
18
100
AcDbLine
 10
364.647228
 20
-204.646854
 30
0.0
 11
364.647228
 21
-294.646854
 31
0.0
  0
LINE
  5
4A4
100
AcDbEntity
  8
18
100
AcDbLine
 10
439.647228
 20
-204.646854
 30
0.0
 11
439.647228
 21
-279.646854
 31
0.0
  0
LINE
  5
4A5
100
AcDbEntity
  8
18
100
AcDbLine
 10
514.647228
 20
-204.646854
 30
0.0
 11
514.647228
 21
-294.646854
 31
0.0
  0
TEXT
  5
4A6
100
AcDbEntity
  8
18
100
AcDbText
 10
395.03944
 20
-276.113216
 30
0.0
 40
9.0
  1
A
 72
     5
 11
402.23944
 21
-276.113216
 31
0.0
100
AcDbText
  0
TEXT
  5
4A7
100
AcDbEntity
  8
18
100
AcDbText
 10
470.03944
 20
-276.113216
 30
0.0
 40
9.0
  1
B
 72
     5
 11
477.23944
 21
-276.113216
 31
0.0
100
AcDbText
  0
LINE
  5
4A8
100
AcDbEntity
  8
18
  6
CENTER
 62
     2
100
AcDbLine
 10
376.372112
 20
-245.380165
 30
0.0
 11
421.104321
 21
-245.380165
 31
0.0
  0
LINE
  5
4A9
100
AcDbEntity
  8
18
  6
CENTER
 62
     2
100
AcDbLine
 10
398.940777
 20
-224.570789
 30
0.0
 11
398.940777
 21
-256.779831
 31
0.0
  0
LINE
  5
4AA
100
AcDbEntity
  8
18
100
AcDbLine
 10
418.440777
 20
-239.980165
 30
0.0
 11
418.440777
 21
-250.780165
 31
0.0
  0
LINE
  5
4AB
100
AcDbEntity
  8
18
100
AcDbLine
 10
379.440777
 20
-239.980165
 30
0.0
 11
379.440777
 21
-250.780165
 31
0.0
  0
LINE
  5
4AC
100
AcDbEntity
  8
18
100
AcDbLine
 10
392.030993
 20
-227.380165
 30
0.0
 11
408.840777
 21
-227.380165
 31
0.0
  0
LINE
  5
4AD
100
AcDbEntity
  8
18
100
AcDbLine
 10
409.140777
 20
-233.380165
 30
0.0
 11
424.660503
 21
-233.380165
 31
0.0
  0
LINE
  5
4AE
100
AcDbEntity
  8
18
100
AcDbLine
 10
424.660503
 20
-223.180165
 30
0.0
 11
424.660503
 21
-240.580165
 31
0.0
  0
LINE
  5
4AF
100
AcDbEntity
  8
18
100
AcDbLine
 10
428.260503
 20
-223.180165
 30
0.0
 11
428.260503
 21
-240.580165
 31
0.0
  0
LINE
  5
4B0
100
AcDbEntity
  8
18
100
AcDbLine
 10
409.140777
 20
-230.380165
 30
0.0
 11
424.660503
 21
-230.380165
 31
0.0
  0
LINE
  5
4B1
100
AcDbEntity
  8
18
100
AcDbLine
 10
407.187757
 20
-236.380165
 30
0.0
 11
408.840777
 21
-236.380165
 31
0.0
  0
ARC
  5
4B2
100
AcDbEntity
  8
18
100
AcDbCircle
 10
398.940777
 20
-245.380165
 30
0.0
 40
9.0
100
AcDbArc
 50
167.624033
 51
5.0
  0
LINE
  5
4B3
100
AcDbEntity
  8
18
100
AcDbLine
 10
380.040777
 20
-239.380165
 30
0.0
 11
390.43133
 21
-239.380165
 31
0.0
  0
LINE
  5
4B4
100
AcDbEntity
  8
18
100
AcDbLine
 10
407.450223
 20
-239.380165
 30
0.0
 11
417.840777
 21
-239.380165
 31
0.0
  0
LINE
  5
4B5
100
AcDbEntity
  8
18
100
AcDbLine
 10
380.040777
 20
-251.380165
 30
0.0
 11
392.232573
 21
-251.380165
 31
0.0
  0
LINE
  5
4B6
100
AcDbEntity
  8
18
100
AcDbLine
 10
405.648981
 20
-251.380165
 30
0.0
 11
417.840777
 21
-251.380165
 31
0.0
  0
LINE
  5
4B7
100
AcDbEntity
  8
18
100
AcDbLine
 10
394.838339
 20
-244.480165
 30
0.0
 11
403.043215
 21
-244.480165
 31
0.0
  0
LINE
  5
4B8
100
AcDbEntity
  8
18
100
AcDbLine
 10
394.838339
 20
-246.280165
 30
0.0
 11
403.043215
 21
-246.280165
 31
0.0
  0
ARC
  5
4B9
100
AcDbEntity
  8
18
100
AcDbCircle
 10
426.460503
 20
-223.180165
 30
0.0
 40
1.8
100
AcDbArc
 50
0.0
 51
180.0
  0
ARC
  5
4BA
100
AcDbEntity
  8
18
100
AcDbCircle
 10
426.460503
 20
-240.580165
 30
0.0
 40
1.8
100
AcDbArc
 50
180.0
 51
360.0
  0
LINE
  5
4BB
100
AcDbEntity
  8
18
100
AcDbLine
 10
389.975025
 20
-244.595763
 30
0.0
 11
391.433276
 21
-227.927872
 31
0.0
  0
LINE
  5
4BC
100
AcDbEntity
  8
18
100
AcDbLine
 10
407.906529
 20
-244.595763
 30
0.0
 11
406.448278
 21
-227.927872
 31
0.0
  0
LINE
  5
4BD
100
AcDbEntity
  8
18
100
AcDbLine
 10
409.140777
 20
-236.080165
 30
0.0
 11
409.140777
 21
-227.680165
 31
0.0
  0
TEXT
  5
4BE
100
AcDbEntity
  8
18
100
AcDbText
 10
394.761514
 20
-240.82283
 30
0.0
 40
4.5
  1
O
 72
     5
 11
398.361514
 21
-240.82283
 31
0.0
100
AcDbText
  0
TEXT
  5
4BF
100
AcDbEntity
  8
18
100
AcDbText
 10
407.605245
 20
-249.463827
 30
0.0
 40
4.5
  1
S
 50
90.0
 72
     5
 11
407.605245
 21
-245.863827
 31
0.0
100
AcDbText
  0
ARC
  5
4C0
100
AcDbEntity
  8
18
100
AcDbCircle
 10
392.030993
 20
-227.980165
 30
0.0
 40
0.6
100
AcDbArc
 50
90.0
 51
175.0
  0
ARC
  5
4C1
100
AcDbEntity
  8
18
100
AcDbCircle
 10
405.850561
 20
-227.980165
 30
0.0
 40
0.6
100
AcDbArc
 50
5.0
 51
90.0
  0
ARC
  5
4C2
100
AcDbEntity
  8
18
100
AcDbCircle
 10
380.040777
 20
-239.980165
 30
0.0
 40
0.6
100
AcDbArc
 50
90.0
 51
180.0
  0
ARC
  5
4C3
100
AcDbEntity
  8
18
100
AcDbCircle
 10
380.040777
 20
-250.780165
 30
0.0
 40
0.6
100
AcDbArc
 50
180.0
 51
270.0
  0
ARC
  5
4C4
100
AcDbEntity
  8
18
100
AcDbCircle
 10
417.840777
 20
-239.980165
 30
0.0
 40
0.6
100
AcDbArc
 50
0.0
 51
90.0
  0
ARC
  5
4C5
100
AcDbEntity
  8
18
100
AcDbCircle
 10
417.840777
 20
-250.780165
 30
0.0
 40
0.6
100
AcDbArc
 50
270.0
 51
360.0
  0
ARC
  5
4C6
100
AcDbEntity
  8
18
100
AcDbCircle
 10
408.840777
 20
-227.680165
 30
0.0
 40
0.3
100
AcDbArc
 50
0.0
 51
90.0
  0
ARC
  5
4C7
100
AcDbEntity
  8
18
100
AcDbCircle
 10
408.840777
 20
-236.080165
 30
0.0
 40
0.3
100
AcDbArc
 50
270.0
 51
360.0
  0
LINE
  5
4C8
100
AcDbEntity
  8
18
  6
CENTER
 62
     2
100
AcDbLine
 10
473.940777
 20
-211.861141
 30
0.0
 11
473.940777
 21
-240.133129
 31
0.0
  0
LINE
  5
4C9
100
AcDbEntity
  8
18
  6
CENTER
 62
     2
100
AcDbLine
 10
494.750153
 20
-225.880165
 30
0.0
 11
451.582912
 21
-225.880165
 31
0.0
  0
LINE
  5
4CA
100
AcDbEntity
  8
18
100
AcDbLine
 10
491.940777
 20
-218.970381
 30
0.0
 11
491.940777
 21
-235.780165
 31
0.0
  0
LINE
  5
4CB
100
AcDbEntity
  8
18
100
AcDbLine
 10
485.940777
 20
-236.080165
 30
0.0
 11
485.940777
 21
-251.599892
 31
0.0
  0
LINE
  5
4CC
100
AcDbEntity
  8
18
100
AcDbLine
 10
496.140777
 20
-251.599892
 30
0.0
 11
478.740777
 21
-251.599892
 31
0.0
  0
LINE
  5
4CD
100
AcDbEntity
  8
18
100
AcDbLine
 10
496.140777
 20
-255.199892
 30
0.0
 11
478.740777
 21
-255.199892
 31
0.0
  0
LINE
  5
4CE
100
AcDbEntity
  8
18
100
AcDbLine
 10
488.940777
 20
-236.080165
 30
0.0
 11
488.940777
 21
-251.599892
 31
0.0
  0
LINE
  5
4CF
100
AcDbEntity
  8
18
100
AcDbLine
 10
482.940777
 20
-234.127146
 30
0.0
 11
482.940777
 21
-235.780165
 31
0.0
  0
ARC
  5
4D0
100
AcDbEntity
  8
18
100
AcDbCircle
 10
473.940777
 20
-225.880165
 30
0.0
 40
9.0
100
AcDbArc
 50
77.624033
 51
275.0
  0
LINE
  5
4D1
100
AcDbEntity
  8
18
100
AcDbLine
 10
474.840777
 20
-221.777727
 30
0.0
 11
474.840777
 21
-229.982603
 31
0.0
  0
LINE
  5
4D2
100
AcDbEntity
  8
18
100
AcDbLine
 10
473.040777
 20
-221.777727
 30
0.0
 11
473.040777
 21
-229.982603
 31
0.0
  0
ARC
  5
4D3
100
AcDbEntity
  8
18
100
AcDbCircle
 10
496.140777
 20
-253.399892
 30
0.0
 40
1.8
100
AcDbArc
 50
270.0
 51
90.0
  0
ARC
  5
4D4
100
AcDbEntity
  8
18
100
AcDbCircle
 10
478.740777
 20
-253.399892
 30
0.0
 40
1.8
100
AcDbArc
 50
90.0
 51
270.0
  0
LINE
  5
4D5
100
AcDbEntity
  8
18
100
AcDbLine
 10
474.725179
 20
-216.914413
 30
0.0
 11
491.39307
 21
-218.372664
 31
0.0
  0
LINE
  5
4D6
100
AcDbEntity
  8
18
100
AcDbLine
 10
474.725179
 20
-234.845917
 30
0.0
 11
491.39307
 21
-233.387666
 31
0.0
  0
LINE
  5
4D7
100
AcDbEntity
  8
18
100
AcDbLine
 10
483.240777
 20
-236.080165
 30
0.0
 11
491.640777
 21
-236.080165
 31
0.0
  0
TEXT
  5
4D8
100
AcDbEntity
  8
18
100
AcDbText
 10
478.198112
 20
-221.700902
 30
0.0
 40
4.5
  1
O
 50
270.0
 72
     5
 11
478.198112
 21
-225.300902
 31
0.0
100
AcDbText
  0
TEXT
  5
4D9
100
AcDbEntity
  8
18
100
AcDbText
 10
469.857115
 20
-234.544633
 30
0.0
 40
4.5
  1
S
 72
     5
 11
473.457115
 21
-234.544633
 31
0.0
100
AcDbText
  0
ARC
  5
4DA
100
AcDbEntity
  8
18
100
AcDbCircle
 10
491.340777
 20
-218.970381
 30
0.0
 40
0.6
100
AcDbArc
 50
0.0
 51
85.0
  0
ARC
  5
4DB
100
AcDbEntity
  8
18
100
AcDbCircle
 10
491.340777
 20
-232.789949
 30
0.0
 40
0.6
100
AcDbArc
 50
275.0
 51
360.0
  0
ARC
  5
4DC
100
AcDbEntity
  8
18
100
AcDbCircle
 10
491.640777
 20
-235.780165
 30
0.0
 40
0.3
100
AcDbArc
 50
270.0
 51
360.0
  0
ARC
  5
4DD
100
AcDbEntity
  8
18
100
AcDbCircle
 10
483.240777
 20
-235.780165
 30
0.0
 40
0.3
100
AcDbArc
 50
180.0
 51
270.0
  0
LINE
  5
4DE
100
AcDbEntity
  8
18
100
AcDbLine
 10
455.040777
 20
-219.880165
 30
0.0
 11
467.232573
 21
-219.880165
 31
0.0
  0
LINE
  5
4DF
100
AcDbEntity
  8
18
100
AcDbLine
 10
455.040777
 20
-231.880165
 30
0.0
 11
467.232573
 21
-231.880165
 31
0.0
  0
LINE
  5
4E0
100
AcDbEntity
  8
18
100
AcDbLine
 10
491.940777
 20
-231.880165
 30
0.0
 11
492.840777
 21
-231.880165
 31
0.0
  0
LINE
  5
4E1
100
AcDbEntity
  8
18
100
AcDbLine
 10
491.940777
 20
-219.880165
 30
0.0
 11
492.840777
 21
-219.880165
 31
0.0
  0
LINE
  5
4E2
100
AcDbEntity
  8
18
100
AcDbLine
 10
493.440777
 20
-220.480165
 30
0.0
 11
493.440777
 21
-231.280165
 31
0.0
  0
LINE
  5
4E3
100
AcDbEntity
  8
18
100
AcDbLine
 10
454.440777
 20
-220.480165
 30
0.0
 11
454.440777
 21
-231.280165
 31
0.0
  0
ARC
  5
4E4
100
AcDbEntity
  8
18
100
AcDbCircle
 10
455.040777
 20
-220.480165
 30
0.0
 40
0.6
100
AcDbArc
 50
90.0
 51
180.0
  0
ARC
  5
4E5
100
AcDbEntity
  8
18
100
AcDbCircle
 10
455.040777
 20
-231.280165
 30
0.0
 40
0.6
100
AcDbArc
 50
180.0
 51
270.0
  0
ARC
  5
4E6
100
AcDbEntity
  8
18
100
AcDbCircle
 10
492.840777
 20
-231.280165
 30
0.0
 40
0.6
100
AcDbArc
 50
270.0
 51
360.0
  0
ARC
  5
4E7
100
AcDbEntity
  8
18
100
AcDbCircle
 10
492.840777
 20
-220.480165
 30
0.0
 40
0.6
100
AcDbArc
 50
0.0
 51
90.0
  0
CIRCLE
  5
4E8
100
AcDbEntity
  8
18
100
AcDbCircle
 10
398.940777
 20
-245.380165
 30
0.0
 40
4.2
  0
CIRCLE
  5
4E9
100
AcDbEntity
  8
18
100
AcDbCircle
 10
473.940777
 20
-225.880165
 30
0.0
 40
4.2
  0
POINT
  5
4EA
100
AcDbEntity
  8
18
100
AcDbPoint
 10
364.647228
 20
-204.646854
 30
0.0
  0
TEXT
  5
4EB
100
AcDbEntity
  8
18
100
AcDbText
 10
383.389996
 20
-291.684578
 30
0.0
 40
9.0
  1
駆 動 部 取 付 方 向
 72
     5
 11
498.589996
 21
-291.684578
 31
0.0
100
AcDbText
  0
LINE
  5
4EC
100
AcDbEntity
  8
20
 62
     3
100
AcDbLine
 10
-540.0
 20
-415.5
 30
0.0
 11
600.0
 21
-415.5
 31
0.0
  0
LINE
  5
4ED
100
AcDbEntity
  8
20
 62
     3
100
AcDbLine
 10
-540.0
 20
396.0
 30
0.0
 11
600.0
 21
396.0
 31
0.0
  0
LINE
  5
4EE
100
AcDbEntity
  8
20
 62
     3
100
AcDbLine
 10
-540.0
 20
396.0
 30
0.0
 11
-540.0
 21
-415.5
 31
0.0
  0
LINE
  5
4EF
100
AcDbEntity
  8
20
 62
     3
100
AcDbLine
 10
600.0
 20
396.0
 30
0.0
 11
600.0
 21
-415.5
 31
0.0
  0
LINE
  5
4F0
100
AcDbEntity
  8
20
 62
     3
100
AcDbLine
 10
180.0
 20
-415.5
 30
0.0
 11
180.0
 21
-355.5
 31
0.0
  0
LINE
  5
4F1
100
AcDbEntity
  8
20
 62
     3
100
AcDbLine
 10
321.0
 20
-415.5
 30
0.0
 11
321.0
 21
-355.5
 31
0.0
  0
LINE
  5
4F2
100
AcDbEntity
  8
20
100
AcDbLine
 10
321.0
 20
-385.5
 30
0.0
 11
600.0
 21
-385.5
 31
0.0
  0
LINE
  5
4F3
100
AcDbEntity
  8
20
 62
     3
100
AcDbLine
 10
180.0
 20
-355.5
 30
0.0
 11
600.0
 21
-355.5
 31
0.0
  0
LINE
  5
4F4
100
AcDbEntity
  8
20
100
AcDbLine
 10
540.0
 20
-385.5
 30
0.0
 11
540.0
 21
-355.5
 31
0.0
  0
LINE
  5
4F5
100
AcDbEntity
  8
20
100
AcDbLine
 10
540.0
 20
-370.5
 30
0.0
 11
600.0
 21
-370.5
 31
0.0
  0
LINE
  5
4F6
100
AcDbEntity
  8
20
100
AcDbLine
 10
363.0
 20
-415.5
 30
0.0
 11
363.0
 21
-355.5
 31
0.0
  0
LINE
  5
4F7
100
AcDbEntity
  8
20
100
AcDbLine
 10
393.0
 20
-415.5
 30
0.0
 11
393.0
 21
-385.5
 31
0.0
  0
LINE
  5
4F8
100
AcDbEntity
  8
20
100
AcDbLine
 10
453.0
 20
-415.5
 30
0.0
 11
453.0
 21
-385.5
 31
0.0
  0
LINE
  5
4F9
100
AcDbEntity
  8
20
100
AcDbLine
 10
371.185244
 20
-407.314756
 30
0.0
 11
383.694872
 21
-394.805128
 31
0.0
  0
TEXT
  5
4FA
100
AcDbEntity
  8
20
100
AcDbText
 10
394.599987
 20
-397.490753
 30
0.0
 40
5.4
  1
ＤＲＡＷＩＮＧ　ＮＯ．
 72
     5
 11
452.919987
 21
-397.490753
 31
0.0
100
AcDbText
  0
TEXT
  5
4FB
100
AcDbEntity
  8
20
100
AcDbText
 10
400.5
 20
-409.5
 30
0.0
 40
9.0
  1
図　　　番
 72
     5
 11
443.7
 21
-409.5
 31
0.0
100
AcDbText
  0
TEXT
  5
4FC
100
AcDbEntity
  8
20
100
AcDbText
 10
558.0
 20
-366.0
 30
0.0
 40
6.0
  1
ＤＡＴＥ
 72
     5
 11
580.8
 21
-366.0
 31
0.0
100
AcDbText
  0
TEXT
  5
4FD
100
AcDbEntity
  8
20
100
AcDbText
 10
327.003213
 20
-398.883087
 30
0.0
 40
6.0
  1
ＳＣＡＬＥ
 72
     5
 11
355.803213
 21
-398.883087
 31
0.0
100
AcDbText
  0
TEXT
  5
4FE
100
AcDbEntity
  8
20
100
AcDbText
 10
324.0
 20
-409.5
 30
0.0
 40
9.0
  1
尺　　度
 72
     5
 11
358.2
 21
-409.5
 31
0.0
100
AcDbText
  0
TEXT
  5
4FF
100
AcDbEntity
  8
20
100
AcDbText
 10
322.503213
 20
-367.487654
 30
0.0
 40
6.0
  1
ＦＩＧ．ＮＯ．
 72
     5
 11
363.303213
 21
-367.487654
 31
0.0
100
AcDbText
  0
TEXT
  5
500
100
AcDbEntity
  8
20
100
AcDbText
 10
324.0
 20
-379.5
 30
0.0
 40
9.0
  1
名　　称
 72
     5
 11
358.2
 21
-379.5
 31
0.0
100
AcDbText
  0
TEXT
  5
501
100
AcDbEntity
  8
20
100
AcDbText
 10
181.696575
 20
-379.410759
 30
0.0
 40
6.9
  1
ＴＯＭＯＥ　ＶＡＬＶＥ　ＣＯ．，ＬＴＤ．
 72
     5
 11
318.316575
 21
-379.410759
 31
0.0
100
AcDbText
  0
TEXT
  5
502
100
AcDbEntity
  8
20
100
AcDbText
 10
202.5
 20
-399.869431
 30
0.0
 40
12.0
  1
巴バルブ株式会社
 72
     5
 11
296.1
 21
-399.869431
 31
0.0
100
AcDbText
  0
ENDSEC
  0
SECTION
  2
OBJECTS
  0
DICTIONARY
  5
563
100
AcDbDictionary
  3
ACAD_GROUP
350
564
  3
ACAD_MLINESTYLE
350
565
  0
DICTIONARY
  5
564
102
{ACAD_REACTORS
330
563
102
}
100
AcDbDictionary
  0
DICTIONARY
  5
565
102
{ACAD_REACTORS
330
563
102
}
100
AcDbDictionary
  3
STANDARD
350
566
  0
MLINESTYLE
  5
566
102
{ACAD_REACTORS
330
565
102
}
100
AcDbMlineStyle
  2
STANDARD
 70
     0
  3

 62
     0
 51
90.0
 52
90.0
 71
     2
 49
0.5
 62
   256
  6
BYLAYER
 49
-0.5
 62
   256
  6
BYLAYER
  0
ENDSEC
  0
EOF
