  0
SECTION
  2
HEADER
  9
$ACADVER
  1
AC1012
  9
$DWGCODEPAGE
  3
ansi_932
  9
$INSBASE
 10
0.0
 20
0.0
 30
0.0
  9
$EXTMIN
 10
-630.0
 20
-445.5
 30
1.000000E+20
  9
$EXTMAX
 10
630.0
 20
445.5
 30
-1.000000E+20
  9
$LIMMIN
 10
-630.0
 20
-445.5
  9
$LIMMAX
 10
630.0
 20
445.5
  9
$ORTHOMODE
 70
     0
  9
$REGENMODE
 70
     1
  9
$FILLMODE
 70
     1
  9
$QTEXTMODE
 70
     0
  9
$MIRRTEXT
 70
     1
  9
$DRAGMODE
 70
     2
  9
$LTSCALE
 40
1.0
  9
$OSMODE
 70
     0
  9
$ATTMODE
 70
     1
  9
$TEXTSIZE
 40
0.2
  9
$TRACEWID
 40
0.05
  9
$TEXTSTYLE
  7
STANDARD
  9
$CLAYER
  8
0
  9
$CELTYPE
  6
CONTINUOUS
  9
$CECOLOR
 62
   256
  9
$CELTSCALE
 40
1.0
  9
$DELOBJ
 70
     1
  9
$DISPSILH
 70
     0
  9
$DIMSCALE
 40
3.0
  9
$DIMASZ
 40
0.18
  9
$DIMEXO
 40
0.0625
  9
$DIMDLI
 40
0.38
  9
$DIMRND
 40
0.0
  9
$DIMDLE
 40
0.0
  9
$DIMEXE
 40
0.18
  9
$DIMTP
 40
0.0
  9
$DIMTM
 40
0.0
  9
$DIMTXT
 40
0.18
  9
$DIMCEN
 40
0.09
  9
$DIMTSZ
 40
0.0
  9
$DIMTOL
 70
     0
  9
$DIMLIM
 70
     0
  9
$DIMTIH
 70
     1
  9
$DIMTOH
 70
     1
  9
$DIMSE1
 70
     0
  9
$DIMSE2
 70
     0
  9
$DIMTAD
 70
     1
  9
$DIMZIN
 70
     0
  9
$DIMBLK
  1

  9
$DIMASO
 70
     1
  9
$DIMSHO
 70
     1
  9
$DIMPOST
  1

  9
$DIMAPOST
  1

  9
$DIMALT
 70
     0
  9
$DIMALTD
 70
     2
  9
$DIMALTF
 40
25.4
  9
$DIMLFAC
 40
1.0
  9
$DIMTOFL
 70
     0
  9
$DIMTVP
 40
0.0
  9
$DIMTIX
 70
     0
  9
$DIMSOXD
 70
     0
  9
$DIMSAH
 70
     0
  9
$DIMBLK1
  1

  9
$DIMBLK2
  1

  9
$DIMSTYLE
  2
STANDARD
  9
$DIMCLRD
 70
     0
  9
$DIMCLRE
 70
     0
  9
$DIMCLRT
 70
     0
  9
$DIMTFAC
 40
1.0
  9
$DIMGAP
 40
0.09
  9
$DIMJUST
 70
     0
  9
$DIMSD1
 70
     0
  9
$DIMSD2
 70
     0
  9
$DIMTOLJ
 70
     1
  9
$DIMTZIN
 70
     0
  9
$DIMALTZ
 70
     0
  9
$DIMALTTZ
 70
     0
  9
$DIMFIT
 70
     3
  9
$DIMUPT
 70
     0
  9
$DIMUNIT
 70
     2
  9
$DIMDEC
 70
     4
  9
$DIMTDEC
 70
     4
  9
$DIMALTU
 70
     2
  9
$DIMALTTD
 70
     2
  9
$DIMTXSTY
  7
STANDARD
  9
$DIMAUNIT
 70
     0
  9
$LUNITS
 70
     2
  9
$LUPREC
 70
     4
  9
$SKETCHINC
 40
0.1
  9
$FILLETRAD
 40
0.0
  9
$AUNITS
 70
     0
  9
$AUPREC
 70
     0
  9
$MENU
  1
acad
  9
$ELEVATION
 40
0.0
  9
$PELEVATION
 40
0.0
  9
$THICKNESS
 40
0.0
  9
$LIMCHECK
 70
     0
  9
$BLIPMODE
 70
     1
  9
$CHAMFERA
 40
0.0
  9
$CHAMFERB
 40
0.0
  9
$CHAMFERC
 40
0.0
  9
$CHAMFERD
 40
0.0
  9
$SKPOLY
 70
     0
  9
$TDCREATE
 40
2450197.000000000
  9
$TDUPDATE
 40
0.000000000
  9
$TDINDWG
 40
0.0000000000
  9
$TDUSRTIMER
 40
0.0000000000
  9
$USRTIMER
 70
     1
  9
$ANGBASE
 50
0.0
  9
$ANGDIR
 70
     0
  9
$PDMODE
 70
     0
  9
$PDSIZE
 40
0.0
  9
$PLINEWID
 40
0.0
  9
$COORDS
 70
     0
  9
$SPLFRAME
 70
     0
  9
$SPLINETYPE
 70
     6
  9
$SPLINESEGS
 70
     8
  9
$ATTDIA
 70
     0
  9
$ATTREQ
 70
     1
  9
$HANDLING
 70
     1
  9
$HANDSEED
  5
592
  9
$SURFTAB1
 70
     6
  9
$SURFTAB2
 70
     6
  9
$SURFTYPE
 70
     6
  9
$SURFU
 70
     6
  9
$SURFV
 70
     6
  9
$UCSNAME
  2

  9
$UCSORG
 10
0.0
 20
0.0
 30
0.0
  9
$UCSXDIR
 10
1.0
 20
0.0
 30
0.0
  9
$UCSYDIR
 10
0.0
 20
1.0
 30
0.0
  9
$PUCSNAME
  2

  9
$PUCSORG
 10
0.0
 20
0.0
 30
0.0
  9
$PUCSXDIR
 10
1.0
 20
0.0
 30
0.0
  9
$PUCSYDIR
 10
0.0
 20
1.0
 30
0.0
  9
$USERI1
 70
     0
  9
$USERI2
 70
     0
  9
$USERI3
 70
     0
  9
$USERI4
 70
     0
  9
$USERI5
 70
     0
  9
$USERR1
 40
0.0
  9
$USERR2
 40
0.0
  9
$USERR3
 40
0.0
  9
$USERR4
 40
0.0
  9
$USERR5
 40
0.0
  9
$WORLDVIEW
 70
     1
  9
$SHADEDGE
 70
     3
  9
$SHADEDIF
 70
    70
  9
$TILEMODE
 70
     1
  9
$MAXACTVP
 70
    16
  9
$PINSBASE
 10
0.0
 20
0.0
 30
0.0
  9
$PLIMCHECK
 70
     0
  9
$PEXTMIN
 10
1.000000E+20
 20
1.000000E+20
 30
1.000000E+20
  9
$PEXTMAX
 10
-1.000000E+20
 20
-1.000000E+20
 30
-1.000000E+20
  9
$PLIMMIN
 10
0.0
 20
0.0
  9
$PLIMMAX
 10
12.0
 20
9.0
  9
$UNITMODE
 70
     0
  9
$VISRETAIN
 70
     0
  9
$PLINEGEN
 70
     1
  9
$PSLTSCALE
 70
     0
  9
$TREEDEPTH
 70
  3020
  9
$PICKSTYLE
 70
     1
  9
$CMLSTYLE
  2
STANDARD
  9
$CMLJUST
 70
     0
  9
$CMLSCALE
 40
1.0
  9
$SAVEIMAGES
 70
     0
  0
ENDSEC
  0
SECTION
  2
CLASSES
  0
CLASS
  1
LWPOLYLINE
  2
AcDbPolyline
  3
"AutoCAD"
 90
    32768
280
     0
281
     1
  0
CLASS
  1
IMAGE
  2
AcDbRasterImage
  3
ISM
 90
    32895
280
     0
281
     1
  0
CLASS
  1
OLE2FRAME
  2
AcDbOle2Frame
  3
""
 90
    32768
280
     0
281
     1
  0
CLASS
  1
HATCH
  2
AcDbHatch
  3
"ACAD_SEDONA"
 90
    32768
280
     0
281
     1
  0
CLASS
  1
DICTIONARYVAR
  2
AcDbDictionaryVar
  3
"AutoCAD"
 90
    32768
280
     0
281
     0
  0
CLASS
  1
RASTERVARIABLES
  2
AcDbRasterVariables
  3
ISM
 90
    32768
280
     0
281
     0
  0
CLASS
  1
IMAGEDEF
  2
AcDbRasterImageDef
  3
ISM
 90
    32768
280
     0
281
     0
  0
CLASS
  1
IMAGEDEF_REACTOR
  2
AcDbRasterImageDefReactor
  3
ISM
 90
    32769
280
     0
281
     0
  0
CLASS
  1
IDBUFFER
  2
AcDbIdBuffer
  3
"Acad"
 90
    32768
280
     0
281
     0
  0
CLASS
  1
SPATIAL_FILTER
  2
AcDbSpatialFilter
  3
"Acad"
 90
    32768
280
     0
281
     0
  0
CLASS
  1
XRECORD
  2
AcDbXrecord
  3
"<Built In>"
 90
    32768
280
     0
281
     0
  0
CLASS
  1
SORTENTSTABLE
  2
AcDbSortentsTable
  3
"AutoCAD"
 90
    32768
280
     0
281
     0
  0
CLASS
  1
LAYER_INDEX
  2
AcDbLayerIndex
  3
"Acad"
 90
    32768
280
     0
281
     0
  0
CLASS
  1
SPATIAL_INDEX
  2
AcDbSpatialIndex
  3
"Acad"
 90
    32768
280
     0
281
     0
  0
CLASS
  1
OBJECT_PTR
  2
CAseDLPNTableRecord
  3
"ASE-LPNTableRecord"
 90
    32769
280
     0
281
     0
  0
CLASS
  1
LAYOUT
  2
AcDbLayout
  3
"AutoCAD 2000"
 90
    32768
280
     0
281
     0
  0
CLASS
  1
PLOTSETTINGS
  2
AcDbPlotSettings
  3
"AutoCAD 2000"
 90
    32768
280
     0
281
     0
  0
CLASS
  1
ACDBDICTIONARYWDFLT
  2
AcDbDictionaryWithDefault
  3
"AutoCAD 2000"
 90
    32768
280
     0
281
     0
  0
CLASS
  1
ACDBPLACEHOLDER
  2
AcDbPlaceHolder
  3
"AutoCAD 2000"
 90
    32768
280
     0
281
     0
  0
CLASS
  1
VBA_PROJECT
  2
AcDbVbaProject
  3
"acadvba"
 90
    32768
280
     0
281
     0
  0
CLASS
  1
WIPEOUT
  2
AcDbWipeout
  3
WipeOut|AutoCAD Express Tool|expresstools@autodesk.com
 90
    32895
280
     0
281
     1
  0
CLASS
  1
WIPEOUTVARIABLES
  2
AcDbWipeoutVariables
  3
WipeOut|AutoCAD Express Tool|expresstools@autodesk.com
 90
    32768
280
     0
281
     0
  0
CLASS
  1
RTEXT
  2
RText
  3
RText|AutoCAD Express Tool|expresstools@autodesk.com
 90
    32768
280
     0
281
     1
  0
CLASS
  1
ARCALIGNEDTEXT
  2
AcDbArcAlignedText
  3
ATEXT|AutoCAD Express Tool|expresstools@autodesk.com
 90
    32768
280
     0
281
     1
  0
ENDSEC
  0
SECTION
  2
TABLES
  0
TABLE
  2
VPORT
  5
6
100
AcDbSymbolTable
 70
     1
  0
VPORT
  5
1C
100
AcDbSymbolTableRecord
100
AcDbViewportTableRecord
  2
*ACTIVE
 70
     0
 10
0.0
 20
0.0
 11
1.0
 21
1.0
 12
0.0
 22
0.0
 13
0.0
 23
0.0
 14
1.0
 24
1.0
 15
0.0
 25
0.0
 16
0.0
 26
0.0
 36
1.0
 17
0.0
 27
0.0
 37
0.0
 40
891.0
 41
1.414141
 42
50.0
 43
0.0
 44
0.0
 50
0.0
 51
0.0
 71
     0
 72
   500
 73
     1
 74
     1
 75
     0
 76
     0
 77
     0
 78
     0
  0
ENDTAB
  0
TABLE
  2
LTYPE
  5
3
100
AcDbSymbolTable
 70
     9
  0
LTYPE
  5
C
100
AcDbSymbolTableRecord
100
AcDbLinetypeTableRecord
  2
BYBLOCK
 70
    64
  3

 72
    65
 73
     0
 40
0.0
  0
LTYPE
  5
D
100
AcDbSymbolTableRecord
100
AcDbLinetypeTableRecord
  2
BYLAYER
 70
    64
  3

 72
    65
 73
     0
 40
0.0
  0
LTYPE
  5
E
100
AcDbSymbolTableRecord
100
AcDbLinetypeTableRecord
  2
CONTINUOUS
 70
     0
  3
Solid line
 72
    65
 73
     0
 40
0.0
  0
LTYPE
  5
F
100
AcDbSymbolTableRecord
100
AcDbLinetypeTableRecord
  2
DASHED
 70
     0
  3
__ __ __ __ __ __ __ __ __ __ __ __ __ __ __
 72
    65
 73
     2
 40
2.0
 49
1.2
 74
     0
 49
-0.8
 74
     0
  0
LTYPE
  5
10
100
AcDbSymbolTableRecord
100
AcDbLinetypeTableRecord
  2
CENTER
 70
     0
  3
____ _ ____ _ ____ _ ____ _ ____ _ ____ _ ____
 72
    65
 73
     4
 40
12.0
 49
9.0
 74
     0
 49
-1.0
 74
     0
 49
1.0
 74
     0
 49
-1.0
 74
     0
  0
LTYPE
  5
11
100
AcDbSymbolTableRecord
100
AcDbLinetypeTableRecord
  2
HIDDEN
 70
     0
  3
_ _ _ _ _ _ _ _ _ _ _ _ _ _ _ _ _ _ _ _ _ _ _
 72
    65
 73
     2
 40
3.2
 49
2.4
 74
     0
 49
-0.8
 74
     0
  0
LTYPE
  5
12
100
AcDbSymbolTableRecord
100
AcDbLinetypeTableRecord
  2
PHANTOM
 70
     0
  3
_____ _ _ _____ _ _ _____ _ _ _____ _ _ _____
 72
    65
 73
     6
 40
13.5
 49
9.0
 74
     0
 49
-1.0
 74
     0
 49
1.0
 74
     0
 49
-0.5
 74
     0
 49
1.0
 74
     0
 49
-1.0
 74
     0
  0
LTYPE
  5
13
100
AcDbSymbolTableRecord
100
AcDbLinetypeTableRecord
  2
DOT
 70
     0
  3
...............................................
 72
    65
 73
     2
 40
1.0
 49
0.5
 74
     0
 49
-0.5
 74
     0
  0
LTYPE
  5
14
100
AcDbSymbolTableRecord
100
AcDbLinetypeTableRecord
  2
DASHDOT
 70
     0
  3
__ . __ . __ . __ . __ . __ . __ . __ . __ . __
 72
    65
 73
     4
 40
8.0
 49
5.0
 74
     0
 49
-1.0
 74
     0
 49
1.0
 74
     0
 49
-1.0
 74
     0
  0
ENDTAB
  0
TABLE
  2
LAYER
  5
1
100
AcDbSymbolTable
 70
     7
  0
LAYER
  5
15
100
AcDbSymbolTableRecord
100
AcDbLayerTableRecord
  2
0
 70
     0
 62
     7
  6
CONTINUOUS
  0
LAYER
  5
16
100
AcDbSymbolTableRecord
100
AcDbLayerTableRecord
  2
1
 70
     0
 62
     7
  6
CONTINUOUS
  0
LAYER
  5
17
100
AcDbSymbolTableRecord
100
AcDbLayerTableRecord
  2
2
 70
     0
 62
     7
  6
CONTINUOUS
  0
LAYER
  5
18
100
AcDbSymbolTableRecord
100
AcDbLayerTableRecord
  2
5
 70
     0
 62
     7
  6
CONTINUOUS
  0
LAYER
  5
19
100
AcDbSymbolTableRecord
100
AcDbLayerTableRecord
  2
13
 70
     0
 62
     7
  6
CONTINUOUS
  0
LAYER
  5
1A
100
AcDbSymbolTableRecord
100
AcDbLayerTableRecord
  2
18
 70
     0
 62
     7
  6
CONTINUOUS
  0
LAYER
  5
1B
100
AcDbSymbolTableRecord
100
AcDbLayerTableRecord
  2
20
 70
     0
 62
     7
  6
CONTINUOUS
  0
ENDTAB
  0
TABLE
  2
STYLE
  5
2
100
AcDbSymbolTable
 70
     1
  0
STYLE
  5
1E
100
AcDbSymbolTableRecord
100
AcDbTextStyleTableRecord
  2
STANDARD
 70
    64
 40
0.0
 41
1.0
 50
0.0
 71
     0
 42
1.0
  3
txt
  4
BIGFONT
  0
ENDTAB
  0
TABLE
  2
VIEW
  5
4
100
AcDbSymbolTable
 70
     0
  0
ENDTAB
  0
TABLE
  2
UCS
  5
5
100
AcDbSymbolTable
 70
     0
  0
ENDTAB
  0
TABLE
  2
APPID
  5
7
100
AcDbSymbolTable
 70
     1
  0
APPID
  5
1D
100
AcDbSymbolTableRecord
100
AcDbRegAppTableRecord
  2
ACAD
 70
     0
  0
ENDTAB
  0
TABLE
  2
DIMSTYLE
  5
8
100
AcDbSymbolTable
 70
     1
  0
DIMSTYLE
105
2E
100
AcDbSymbolTableRecord
100
AcDbDimStyleTableRecord
  2
STANDARD
 70
     0
  3

  4

  5

  6

  7

 40
3.0
 41
0.18
 42
0.0625
 43
0.38
 44
0.18
 45
0.0
 46
0.0
 47
0.0
 48
0.0
 71
     0
 72
     0
 73
     1
 74
     1
 75
     0
 76
     0
 77
     1
 78
     0
140
0.18
141
0.09
142
0.0
143
25.4
144
1.0
145
0.0
146
1.0
147
0.09
170
     0
171
     2
172
     0
173
     0
174
     0
175
     0
176
     0
177
     0
178
     0
270
     2
271
     4
272
     4
273
     2
274
     2
275
     0
280
     0
281
     0
282
     0
283
     1
284
     0
285
     0
286
     0
287
     3
288
     0
340
1E
  0
ENDTAB
  0
TABLE
  2
BLOCK_RECORD
  5
29
100
AcDbSymbolTable
 70
     8
  0
BLOCK_RECORD
  5
27
100
AcDbSymbolTableRecord
100
AcDbBlockTableRecord
  2
*MODEL_SPACE
  0
BLOCK_RECORD
  5
28
100
AcDbSymbolTableRecord
100
AcDbBlockTableRecord
  2
*PAPER_SPACE
  0
BLOCK_RECORD
  5
1F
100
AcDbSymbolTableRecord
100
AcDbBlockTableRecord
  2
*D0
  0
BLOCK_RECORD
  5
20
100
AcDbSymbolTableRecord
100
AcDbBlockTableRecord
  2
*D1
  0
BLOCK_RECORD
  5
21
100
AcDbSymbolTableRecord
100
AcDbBlockTableRecord
  2
*D2
  0
BLOCK_RECORD
  5
22
100
AcDbSymbolTableRecord
100
AcDbBlockTableRecord
  2
*D3
  0
BLOCK_RECORD
  5
23
100
AcDbSymbolTableRecord
100
AcDbBlockTableRecord
  2
*D4
  0
BLOCK_RECORD
  5
24
100
AcDbSymbolTableRecord
100
AcDbBlockTableRecord
  2
*D5
  0
BLOCK_RECORD
  5
25
100
AcDbSymbolTableRecord
100
AcDbBlockTableRecord
  2
*D6
  0
BLOCK_RECORD
  5
26
100
AcDbSymbolTableRecord
100
AcDbBlockTableRecord
  2
*D7
  0
ENDTAB
  0
ENDSEC
  0
SECTION
  2
BLOCKS
  0
BLOCK
  5
2A
100
AcDbEntity
  8
0
100
AcDbBlockBegin
  2
*MODEL_SPACE
 70
     0
 10
0.0
 20
0.0
 30
0.0
  3
*MODEL_SPACE
  1

  0
ENDBLK
  5
2B
100
AcDbEntity
  8
0
100
AcDbBlockEnd
  0
BLOCK
  5
2C
100
AcDbEntity
 67
     1
  8
0
100
AcDbBlockBegin
  2
*PAPER_SPACE
 70
     0
 10
0.0
 20
0.0
 30
0.0
  3
*PAPER_SPACE
  1

  0
ENDBLK
  5
2D
100
AcDbEntity
 67
     1
  8
0
100
AcDbBlockEnd
  0
BLOCK
  5
52B
100
AcDbEntity
  8
5
100
AcDbBlockBegin
  2
*D0
 70
     1
 10
0.0
 20
0.0
 30
0.0
  3
*D0
  1

  0
TEXT
  5
52C
100
AcDbEntity
  8
5
 62
     2
100
AcDbText
 10
-9.79398
 20
-12.644699
 30
0.0
 40
9.9
  1
30
 50
90.0
 41
1.4
 72
     5
 11
-9.79398
 21
-1.556699
 31
0.0
100
AcDbText
  0
LINE
  5
52D
100
AcDbEntity
  8
5
 62
     2
100
AcDbLine
 10
26.527968
 20
-20.714699
 30
0.0
 11
-11.29398
 21
-20.714699
 31
0.0
  0
LINE
  5
52E
100
AcDbEntity
  8
5
 62
     2
100
AcDbLine
 10
-8.29398
 20
-20.714699
 30
0.0
 11
-6.741065
 21
-14.919144
 31
0.0
  0
LINE
  5
52F
100
AcDbEntity
  8
5
 62
     2
100
AcDbLine
 10
-8.29398
 20
-20.714699
 30
0.0
 11
-9.846894
 21
-14.919144
 31
0.0
  0
LINE
  5
530
100
AcDbEntity
  8
5
 62
     2
100
AcDbLine
 10
-6.741065
 20
-14.919144
 30
0.0
 11
-9.846894
 21
-14.919144
 31
0.0
  0
LINE
  5
531
100
AcDbEntity
  8
5
 62
     2
100
AcDbLine
 10
-8.29398
 20
-20.714699
 30
0.0
 11
-8.29398
 21
9.285301
 31
0.0
  0
LINE
  5
532
100
AcDbEntity
  8
5
 62
     2
100
AcDbLine
 10
-8.29398
 20
9.285301
 30
0.0
 11
-9.846894
 21
3.489746
 31
0.0
  0
LINE
  5
533
100
AcDbEntity
  8
5
 62
     2
100
AcDbLine
 10
-8.29398
 20
9.285301
 30
0.0
 11
-6.741065
 21
3.489746
 31
0.0
  0
LINE
  5
534
100
AcDbEntity
  8
5
 62
     2
100
AcDbLine
 10
-9.846894
 20
3.489746
 30
0.0
 11
-6.741065
 21
3.489746
 31
0.0
  0
LINE
  5
535
100
AcDbEntity
  8
5
 62
     2
100
AcDbLine
 10
13.199648
 20
9.285301
 30
0.0
 11
-11.29398
 21
9.285301
 31
0.0
  0
ENDBLK
  5
536
100
AcDbEntity
  8
5
100
AcDbBlockEnd
  0
BLOCK
  5
537
100
AcDbEntity
  8
5
100
AcDbBlockBegin
  2
*D1
 70
     1
 10
0.0
 20
0.0
 30
0.0
  3
*D1
  1

  0
TEXT
  5
538
100
AcDbEntity
  8
5
 62
     2
100
AcDbText
 10
-112.875412
 20
214.955301
 30
0.0
 40
9.9
  1
53
 50
90.0
 41
1.4
 72
     5
 11
-112.875412
 21
226.043301
 31
0.0
100
AcDbText
  0
LINE
  5
539
100
AcDbEntity
  8
5
 62
     2
100
AcDbLine
 10
-203.380343
 20
195.385301
 30
0.0
 11
-108.375412
 21
195.385301
 31
0.0
  0
LINE
  5
53A
100
AcDbEntity
  8
5
 62
     2
100
AcDbLine
 10
-111.375412
 20
195.385301
 30
0.0
 11
-109.822498
 21
201.180856
 31
0.0
  0
LINE
  5
53B
100
AcDbEntity
  8
5
 62
     2
100
AcDbLine
 10
-111.375412
 20
195.385301
 30
0.0
 11
-112.928326
 21
201.180856
 31
0.0
  0
LINE
  5
53C
100
AcDbEntity
  8
5
 62
     2
100
AcDbLine
 10
-109.822498
 20
201.180856
 30
0.0
 11
-112.928326
 21
201.180856
 31
0.0
  0
LINE
  5
53D
100
AcDbEntity
  8
5
 62
     2
100
AcDbLine
 10
-111.375412
 20
195.385301
 30
0.0
 11
-111.375412
 21
248.385301
 31
0.0
  0
LINE
  5
53E
100
AcDbEntity
  8
5
 62
     2
100
AcDbLine
 10
-111.375412
 20
248.385301
 30
0.0
 11
-112.928326
 21
242.589746
 31
0.0
  0
LINE
  5
53F
100
AcDbEntity
  8
5
 62
     2
100
AcDbLine
 10
-111.375412
 20
248.385301
 30
0.0
 11
-109.822498
 21
242.589746
 31
0.0
  0
LINE
  5
540
100
AcDbEntity
  8
5
 62
     2
100
AcDbLine
 10
-112.928326
 20
242.589746
 30
0.0
 11
-109.822498
 21
242.589746
 31
0.0
  0
LINE
  5
541
100
AcDbEntity
  8
5
 62
     2
100
AcDbLine
 10
-142.462346
 20
248.385301
 30
0.0
 11
-108.375412
 21
248.385301
 31
0.0
  0
ENDBLK
  5
542
100
AcDbEntity
  8
5
100
AcDbBlockEnd
  0
BLOCK
  5
543
100
AcDbEntity
  8
5
100
AcDbBlockBegin
  2
*D2
 70
     1
 10
0.0
 20
0.0
 30
0.0
  3
*D2
  1

  0
TEXT
  5
544
100
AcDbEntity
  8
5
 62
     2
100
AcDbText
 10
-112.875412
 20
162.955301
 30
0.0
 40
9.9
  1
51
 50
90.0
 41
1.4
 72
     5
 11
-112.875412
 21
174.043301
 31
0.0
100
AcDbText
  0
LINE
  5
545
100
AcDbEntity
  8
5
 62
     2
100
AcDbLine
 10
-283.672032
 20
144.385301
 30
0.0
 11
-108.375412
 21
144.385301
 31
0.0
  0
LINE
  5
546
100
AcDbEntity
  8
5
 62
     2
100
AcDbLine
 10
-111.375412
 20
144.385301
 30
0.0
 11
-109.822498
 21
150.180856
 31
0.0
  0
LINE
  5
547
100
AcDbEntity
  8
5
 62
     2
100
AcDbLine
 10
-111.375412
 20
144.385301
 30
0.0
 11
-112.928326
 21
150.180856
 31
0.0
  0
LINE
  5
548
100
AcDbEntity
  8
5
 62
     2
100
AcDbLine
 10
-109.822498
 20
150.180856
 30
0.0
 11
-112.928326
 21
150.180856
 31
0.0
  0
LINE
  5
549
100
AcDbEntity
  8
5
 62
     2
100
AcDbLine
 10
-111.375412
 20
144.385301
 30
0.0
 11
-111.375412
 21
195.385301
 31
0.0
  0
LINE
  5
54A
100
AcDbEntity
  8
5
 62
     2
100
AcDbLine
 10
-111.375412
 20
195.385301
 30
0.0
 11
-112.928326
 21
189.589746
 31
0.0
  0
LINE
  5
54B
100
AcDbEntity
  8
5
 62
     2
100
AcDbLine
 10
-111.375412
 20
195.385301
 30
0.0
 11
-109.822498
 21
189.589746
 31
0.0
  0
LINE
  5
54C
100
AcDbEntity
  8
5
 62
     2
100
AcDbLine
 10
-112.928326
 20
189.589746
 30
0.0
 11
-109.822498
 21
189.589746
 31
0.0
  0
LINE
  5
54D
100
AcDbEntity
  8
5
 62
     2
100
AcDbLine
 10
-203.380343
 20
195.385301
 30
0.0
 11
-108.375412
 21
195.385301
 31
0.0
  0
ENDBLK
  5
54E
100
AcDbEntity
  8
5
100
AcDbBlockEnd
  0
BLOCK
  5
54F
100
AcDbEntity
  8
5
100
AcDbBlockBegin
  2
*D3
 70
     1
 10
0.0
 20
0.0
 30
0.0
  3
*D3
  1

  0
TEXT
  5
550
100
AcDbEntity
  8
5
 62
     2
100
AcDbText
 10
-9.79398
 20
-126.609699
 30
0.0
 40
9.9
  1
191
 50
90.0
 41
1.4
 72
     5
 11
-9.79398
 21
-108.591699
 31
0.0
100
AcDbText
  0
LINE
  5
551
100
AcDbEntity
  8
5
 62
     2
100
AcDbLine
 10
36.767635
 20
-211.714699
 30
0.0
 11
-11.29398
 21
-211.714699
 31
0.0
  0
LINE
  5
552
100
AcDbEntity
  8
5
 62
     2
100
AcDbLine
 10
-8.29398
 20
-211.714699
 30
0.0
 11
-6.741065
 21
-205.919144
 31
0.0
  0
LINE
  5
553
100
AcDbEntity
  8
5
 62
     2
100
AcDbLine
 10
-8.29398
 20
-211.714699
 30
0.0
 11
-9.846894
 21
-205.919144
 31
0.0
  0
LINE
  5
554
100
AcDbEntity
  8
5
 62
     2
100
AcDbLine
 10
-6.741065
 20
-205.919144
 30
0.0
 11
-9.846894
 21
-205.919144
 31
0.0
  0
LINE
  5
555
100
AcDbEntity
  8
5
 62
     2
100
AcDbLine
 10
-8.29398
 20
-211.714699
 30
0.0
 11
-8.29398
 21
-20.714699
 31
0.0
  0
LINE
  5
556
100
AcDbEntity
  8
5
 62
     2
100
AcDbLine
 10
-8.29398
 20
-20.714699
 30
0.0
 11
-9.846894
 21
-26.510254
 31
0.0
  0
LINE
  5
557
100
AcDbEntity
  8
5
 62
     2
100
AcDbLine
 10
-8.29398
 20
-20.714699
 30
0.0
 11
-6.741065
 21
-26.510254
 31
0.0
  0
LINE
  5
558
100
AcDbEntity
  8
5
 62
     2
100
AcDbLine
 10
-9.846894
 20
-26.510254
 30
0.0
 11
-6.741065
 21
-26.510254
 31
0.0
  0
LINE
  5
559
100
AcDbEntity
  8
5
 62
     2
100
AcDbLine
 10
26.527968
 20
-20.714699
 30
0.0
 11
-11.29398
 21
-20.714699
 31
0.0
  0
ENDBLK
  5
55A
100
AcDbEntity
  8
5
100
AcDbBlockEnd
  0
BLOCK
  5
55B
100
AcDbEntity
  8
5
100
AcDbBlockBegin
  2
*D4
 70
     1
 10
0.0
 20
0.0
 30
0.0
  3
*D4
  1

  0
TEXT
  5
55C
100
AcDbEntity
  8
5
 62
     2
100
AcDbText
 10
-9.79398
 20
-280.459699
 30
0.0
 40
9.9
  1
117
 50
90.0
 41
1.4
 72
     5
 11
-9.79398
 21
-262.441699
 31
0.0
100
AcDbText
  0
LINE
  5
55D
100
AcDbEntity
  8
5
 62
     2
100
AcDbLine
 10
72.527968
 20
-328.414699
 30
0.0
 11
-11.29398
 21
-328.414699
 31
0.0
  0
LINE
  5
55E
100
AcDbEntity
  8
5
 62
     2
100
AcDbLine
 10
-8.29398
 20
-328.414699
 30
0.0
 11
-6.741065
 21
-322.619144
 31
0.0
  0
LINE
  5
55F
100
AcDbEntity
  8
5
 62
     2
100
AcDbLine
 10
-8.29398
 20
-328.414699
 30
0.0
 11
-9.846894
 21
-322.619144
 31
0.0
  0
LINE
  5
560
100
AcDbEntity
  8
5
 62
     2
100
AcDbLine
 10
-6.741065
 20
-322.619144
 30
0.0
 11
-9.846894
 21
-322.619144
 31
0.0
  0
LINE
  5
561
100
AcDbEntity
  8
5
 62
     2
100
AcDbLine
 10
-8.29398
 20
-328.414699
 30
0.0
 11
-8.29398
 21
-211.714699
 31
0.0
  0
LINE
  5
562
100
AcDbEntity
  8
5
 62
     2
100
AcDbLine
 10
-8.29398
 20
-211.714699
 30
0.0
 11
-9.846894
 21
-217.510254
 31
0.0
  0
LINE
  5
563
100
AcDbEntity
  8
5
 62
     2
100
AcDbLine
 10
-8.29398
 20
-211.714699
 30
0.0
 11
-6.741065
 21
-217.510254
 31
0.0
  0
LINE
  5
564
100
AcDbEntity
  8
5
 62
     2
100
AcDbLine
 10
-9.846894
 20
-217.510254
 30
0.0
 11
-6.741065
 21
-217.510254
 31
0.0
  0
LINE
  5
565
100
AcDbEntity
  8
5
 62
     2
100
AcDbLine
 10
36.767635
 20
-211.714699
 30
0.0
 11
-11.29398
 21
-211.714699
 31
0.0
  0
ENDBLK
  5
566
100
AcDbEntity
  8
5
100
AcDbBlockEnd
  0
BLOCK
  5
567
100
AcDbEntity
  8
5
100
AcDbBlockBegin
  2
*D5
 70
     1
 10
0.0
 20
0.0
 30
0.0
  3
*D5
  1

  0
TEXT
  5
568
100
AcDbEntity
  8
5
 62
     2
100
AcDbText
 10
73.597968
 20
-361.331383
 30
0.0
 40
9.9
  1
56
 41
1.4
 72
     5
 11
84.685968
 21
-361.331383
 31
0.0
100
AcDbText
  0
LINE
  5
569
100
AcDbEntity
  8
5
 62
     2
100
AcDbLine
 10
52.527968
 20
-304.214699
 30
0.0
 11
52.527968
 21
-365.831383
 31
0.0
  0
LINE
  5
56A
100
AcDbEntity
  8
5
 62
     2
100
AcDbLine
 10
52.527968
 20
-362.831383
 30
0.0
 11
58.323523
 21
-364.384297
 31
0.0
  0
LINE
  5
56B
100
AcDbEntity
  8
5
 62
     2
100
AcDbLine
 10
52.527968
 20
-362.831383
 30
0.0
 11
58.323523
 21
-361.278468
 31
0.0
  0
LINE
  5
56C
100
AcDbEntity
  8
5
 62
     2
100
AcDbLine
 10
58.323523
 20
-364.384297
 30
0.0
 11
58.323523
 21
-361.278468
 31
0.0
  0
LINE
  5
56D
100
AcDbEntity
  8
5
 62
     2
100
AcDbLine
 10
52.527968
 20
-362.831383
 30
0.0
 11
108.527968
 21
-362.831383
 31
0.0
  0
LINE
  5
56E
100
AcDbEntity
  8
5
 62
     2
100
AcDbLine
 10
108.527968
 20
-362.831383
 30
0.0
 11
102.732413
 21
-361.278468
 31
0.0
  0
LINE
  5
56F
100
AcDbEntity
  8
5
 62
     2
100
AcDbLine
 10
108.527968
 20
-362.831383
 30
0.0
 11
102.732413
 21
-364.384297
 31
0.0
  0
LINE
  5
570
100
AcDbEntity
  8
5
 62
     2
100
AcDbLine
 10
102.732413
 20
-361.278468
 30
0.0
 11
102.732413
 21
-364.384297
 31
0.0
  0
LINE
  5
571
100
AcDbEntity
  8
5
 62
     2
100
AcDbLine
 10
108.527968
 20
-304.214699
 30
0.0
 11
108.527968
 21
-365.831383
 31
0.0
  0
ENDBLK
  5
572
100
AcDbEntity
  8
5
100
AcDbBlockEnd
  0
BLOCK
  5
573
100
AcDbEntity
  8
5
100
AcDbBlockBegin
  2
*D6
 70
     1
 10
0.0
 20
0.0
 30
0.0
  3
*D6
  1

  0
TEXT
  5
574
100
AcDbEntity
  8
5
 62
     2
100
AcDbText
 10
-245.567032
 20
339.99955
 30
0.0
 40
9.9
  1
158
 41
1.4
 72
     5
 11
-227.549032
 21
339.99955
 31
0.0
100
AcDbText
  0
LINE
  5
575
100
AcDbEntity
  8
5
 62
     2
100
AcDbLine
 10
-314.172032
 20
286.822053
 30
0.0
 11
-314.172032
 21
341.49955
 31
0.0
  0
LINE
  5
576
100
AcDbEntity
  8
5
 62
     2
100
AcDbLine
 10
-314.172032
 20
338.49955
 30
0.0
 11
-308.376477
 21
336.946636
 31
0.0
  0
LINE
  5
577
100
AcDbEntity
  8
5
 62
     2
100
AcDbLine
 10
-314.172032
 20
338.49955
 30
0.0
 11
-308.376477
 21
340.052464
 31
0.0
  0
LINE
  5
578
100
AcDbEntity
  8
5
 62
     2
100
AcDbLine
 10
-308.376477
 20
336.946636
 30
0.0
 11
-308.376477
 21
340.052464
 31
0.0
  0
LINE
  5
579
100
AcDbEntity
  8
5
 62
     2
100
AcDbLine
 10
-314.172032
 20
338.49955
 30
0.0
 11
-156.172032
 21
338.49955
 31
0.0
  0
LINE
  5
57A
100
AcDbEntity
  8
5
 62
     2
100
AcDbLine
 10
-156.172032
 20
338.49955
 30
0.0
 11
-161.967587
 21
340.052464
 31
0.0
  0
LINE
  5
57B
100
AcDbEntity
  8
5
 62
     2
100
AcDbLine
 10
-156.172032
 20
338.49955
 30
0.0
 11
-161.967587
 21
336.946636
 31
0.0
  0
LINE
  5
57C
100
AcDbEntity
  8
5
 62
     2
100
AcDbLine
 10
-161.967587
 20
340.052464
 30
0.0
 11
-161.967587
 21
336.946636
 31
0.0
  0
LINE
  5
57D
100
AcDbEntity
  8
5
 62
     2
100
AcDbLine
 10
-156.172032
 20
305.885301
 30
0.0
 11
-156.172032
 21
341.49955
 31
0.0
  0
ENDBLK
  5
57E
100
AcDbEntity
  8
5
100
AcDbBlockEnd
  0
BLOCK
  5
57F
100
AcDbEntity
  8
5
100
AcDbBlockBegin
  2
*D7
 70
     1
 10
0.0
 20
0.0
 30
0.0
  3
*D7
  1

  0
TEXT
  5
580
100
AcDbEntity
  8
5
 62
     2
100
AcDbText
 10
-112.875412
 20
-4.574699
 30
0.0
 40
9.9
  1
%%c125
 50
90.0
 41
1.4
 72
     5
 11
-112.875412
 21
20.373301
 31
0.0
100
AcDbText
  0
LINE
  5
581
100
AcDbEntity
  8
5
 62
     2
100
AcDbLine
 10
-161.172032
 20
71.785301
 30
0.0
 11
-108.375412
 21
71.785301
 31
0.0
  0
LINE
  5
582
100
AcDbEntity
  8
5
 62
     2
100
AcDbLine
 10
-111.375412
 20
71.785301
 30
0.0
 11
-112.928326
 21
65.989746
 31
0.0
  0
LINE
  5
583
100
AcDbEntity
  8
5
 62
     2
100
AcDbLine
 10
-111.375412
 20
71.785301
 30
0.0
 11
-109.822498
 21
65.989746
 31
0.0
  0
LINE
  5
584
100
AcDbEntity
  8
5
 62
     2
100
AcDbLine
 10
-112.928326
 20
65.989746
 30
0.0
 11
-109.822498
 21
65.989746
 31
0.0
  0
LINE
  5
585
100
AcDbEntity
  8
5
 62
     2
100
AcDbLine
 10
-111.375412
 20
71.785301
 30
0.0
 11
-111.375412
 21
-53.214699
 31
0.0
  0
LINE
  5
586
100
AcDbEntity
  8
5
 62
     2
100
AcDbLine
 10
-111.375412
 20
-53.214699
 30
0.0
 11
-109.822498
 21
-47.419144
 31
0.0
  0
LINE
  5
587
100
AcDbEntity
  8
5
 62
     2
100
AcDbLine
 10
-111.375412
 20
-53.214699
 30
0.0
 11
-112.928326
 21
-47.419144
 31
0.0
  0
LINE
  5
588
100
AcDbEntity
  8
5
 62
     2
100
AcDbLine
 10
-109.822498
 20
-47.419144
 30
0.0
 11
-112.928326
 21
-47.419144
 31
0.0
  0
LINE
  5
589
100
AcDbEntity
  8
5
 62
     2
100
AcDbLine
 10
-161.172032
 20
-53.214699
 30
0.0
 11
-108.375412
 21
-53.214699
 31
0.0
  0
ENDBLK
  5
58A
100
AcDbEntity
  8
5
100
AcDbBlockEnd
  0
ENDSEC
  0
SECTION
  2
ENTITIES
  0
LINE
  5
2F
100
AcDbEntity
  8
1
  6
CENTER
 62
     2
100
AcDbLine
 10
-421.032938
 20
195.385301
 30
0.0
 11
-206.380343
 21
195.385301
 31
0.0
  0
LINE
  5
30
100
AcDbEntity
  8
1
  6
CENTER
 62
     2
100
AcDbLine
 10
-314.172032
 20
60.913558
 30
0.0
 11
-314.172032
 21
-337.730725
 31
0.0
  0
LINE
  5
31
100
AcDbEntity
  8
1
  6
CENTER
 62
     2
100
AcDbLine
 10
80.527968
 20
60.913558
 30
0.0
 11
80.527968
 21
-337.730725
 31
0.0
  0
CIRCLE
  5
32
100
AcDbEntity
  8
1
  6
DASHED
100
AcDbCircle
 10
-350.172032
 20
231.385301
 30
0.0
 40
5.5
  0
CIRCLE
  5
33
100
AcDbEntity
  8
1
  6
DASHED
100
AcDbCircle
 10
-278.172032
 20
231.385301
 30
0.0
 40
5.5
  0
CIRCLE
  5
34
100
AcDbEntity
  8
1
  6
DASHED
100
AcDbCircle
 10
-278.172032
 20
159.385301
 30
0.0
 40
5.5
  0
CIRCLE
  5
35
100
AcDbEntity
  8
1
  6
DASHED
100
AcDbCircle
 10
-350.172032
 20
159.385301
 30
0.0
 40
5.5
  0
LINE
  5
36
100
AcDbEntity
  8
1
  6
CENTER
 62
     2
100
AcDbLine
 10
-289.672032
 20
231.385301
 30
0.0
 11
-266.672032
 21
231.385301
 31
0.0
  0
LINE
  5
37
100
AcDbEntity
  8
1
  6
CENTER
 62
     2
100
AcDbLine
 10
-278.172032
 20
219.885301
 30
0.0
 11
-278.172032
 21
242.885301
 31
0.0
  0
LINE
  5
38
100
AcDbEntity
  8
1
  6
DASHED
100
AcDbLine
 10
-365.172032
 20
167.885301
 30
0.0
 11
-365.172032
 21
222.885301
 31
0.0
  0
LINE
  5
39
100
AcDbEntity
  8
1
  6
DASHED
100
AcDbLine
 10
-263.172032
 20
167.885301
 30
0.0
 11
-263.172032
 21
222.885301
 31
0.0
  0
LINE
  5
3A
100
AcDbEntity
  8
1
  6
DASHED
100
AcDbLine
 10
-341.672032
 20
246.385301
 30
0.0
 11
-286.672032
 21
246.385301
 31
0.0
  0
LINE
  5
3B
100
AcDbEntity
  8
1
  6
DASHED
100
AcDbLine
 10
-341.672032
 20
144.385301
 30
0.0
 11
-286.672032
 21
144.385301
 31
0.0
  0
ARC
  5
3C
100
AcDbEntity
  8
1
  6
DASHED
100
AcDbCircle
 10
-286.672032
 20
222.885301
 30
0.0
 40
23.5
100
AcDbArc
 50
0.0
 51
90.0
  0
ARC
  5
3D
100
AcDbEntity
  8
1
  6
DASHED
100
AcDbCircle
 10
-341.672032
 20
222.885301
 30
0.0
 40
23.5
100
AcDbArc
 50
90.0
 51
180.0
  0
ARC
  5
3E
100
AcDbEntity
  8
1
  6
DASHED
100
AcDbCircle
 10
-341.672032
 20
167.885301
 30
0.0
 40
23.5
100
AcDbArc
 50
180.0
 51
270.0
  0
ARC
  5
3F
100
AcDbEntity
  8
1
  6
DASHED
100
AcDbCircle
 10
-286.672032
 20
167.885301
 30
0.0
 40
23.5
100
AcDbArc
 50
270.0
 51
0.0
  0
LINE
  5
40
100
AcDbEntity
  8
1
  6
CENTER
 62
     2
100
AcDbLine
 10
-338.672032
 20
231.385301
 30
0.0
 11
-361.672032
 21
231.385301
 31
0.0
  0
LINE
  5
41
100
AcDbEntity
  8
1
  6
CENTER
 62
     2
100
AcDbLine
 10
-350.172032
 20
219.885301
 30
0.0
 11
-350.172032
 21
242.885301
 31
0.0
  0
LINE
  5
42
100
AcDbEntity
  8
1
  6
CENTER
 62
     2
100
AcDbLine
 10
-278.172032
 20
170.885301
 30
0.0
 11
-278.172032
 21
147.885301
 31
0.0
  0
LINE
  5
43
100
AcDbEntity
  8
1
  6
CENTER
 62
     2
100
AcDbLine
 10
-289.672032
 20
159.385301
 30
0.0
 11
-266.672032
 21
159.385301
 31
0.0
  0
LINE
  5
44
100
AcDbEntity
  8
1
  6
CENTER
 62
     2
100
AcDbLine
 10
-338.672032
 20
159.385301
 30
0.0
 11
-361.672032
 21
159.385301
 31
0.0
  0
LINE
  5
45
100
AcDbEntity
  8
1
  6
CENTER
 62
     2
100
AcDbLine
 10
-350.172032
 20
170.885301
 30
0.0
 11
-350.172032
 21
147.885301
 31
0.0
  0
LINE
  5
46
100
AcDbEntity
  8
1
  6
CENTER
 62
     2
100
AcDbLine
 10
-414.686371
 20
-211.714699
 30
0.0
 11
-214.234406
 21
-211.714699
 31
0.0
  0
LINE
  5
47
100
AcDbEntity
  8
1
  6
CENTER
 62
     2
100
AcDbLine
 10
39.767635
 20
-211.714699
 30
0.0
 11
123.943157
 21
-211.714699
 31
0.0
  0
LINE
  5
48
100
AcDbEntity
  8
1
100
AcDbLine
 10
-267.172032
 20
-34.714699
 30
0.0
 11
-361.172032
 21
-34.714699
 31
0.0
  0
LINE
  5
49
100
AcDbEntity
  8
1
100
AcDbLine
 10
-263.172032
 20
-30.714699
 30
0.0
 11
-263.172032
 21
-20.714699
 31
0.0
  0
LINE
  5
4A
100
AcDbEntity
  8
1
100
AcDbLine
 10
-365.172032
 20
-30.714699
 30
0.0
 11
-365.172032
 21
-20.714699
 31
0.0
  0
LINE
  5
4B
100
AcDbEntity
  8
1
100
AcDbLine
 10
-332.672032
 20
-42.714699
 30
0.0
 11
-332.672032
 21
-115.340429
 31
0.0
  0
LINE
  5
4C
100
AcDbEntity
  8
1
100
AcDbLine
 10
-295.672032
 20
-42.714699
 30
0.0
 11
-295.672032
 21
-115.340429
 31
0.0
  0
LINE
  5
4D
100
AcDbEntity
  8
1
100
AcDbLine
 10
-341.172032
 20
-319.714699
 30
0.0
 11
-287.172032
 21
-319.714699
 31
0.0
  0
LINE
  5
4E
100
AcDbEntity
  8
1
100
AcDbLine
 10
-341.172032
 20
-322.914699
 30
0.0
 11
-341.172032
 21
-305.155857
 31
0.0
  0
LINE
  5
4F
100
AcDbEntity
  8
1
100
AcDbLine
 10
-287.172032
 20
-322.914699
 30
0.0
 11
-287.172032
 21
-305.155857
 31
0.0
  0
LINE
  5
50
100
AcDbEntity
  8
1
100
AcDbLine
 10
131.527968
 20
-30.714699
 30
0.0
 11
131.527968
 21
-20.714699
 31
0.0
  0
LINE
  5
51
100
AcDbEntity
  8
1
100
AcDbLine
 10
29.527968
 20
-30.714699
 30
0.0
 11
29.527968
 21
-20.714699
 31
0.0
  0
LINE
  5
52
100
AcDbEntity
  8
1
100
AcDbLine
 10
62.027968
 20
-42.714699
 30
0.0
 11
62.027968
 21
-119.929909
 31
0.0
  0
LINE
  5
53
100
AcDbEntity
  8
1
100
AcDbLine
 10
99.027968
 20
-42.714699
 30
0.0
 11
99.027968
 21
-119.929909
 31
0.0
  0
LINE
  5
54
100
AcDbEntity
  8
1
100
AcDbLine
 10
-317.172032
 20
-37.714699
 30
0.0
 11
-317.172032
 21
-61.681595
 31
0.0
  0
LINE
  5
55
100
AcDbEntity
  8
1
100
AcDbLine
 10
-311.172032
 20
-37.714699
 30
0.0
 11
-311.172032
 21
-61.681595
 31
0.0
  0
LINE
  5
56
100
AcDbEntity
  8
1
100
AcDbLine
 10
62.527968
 20
-300.85823
 30
0.0
 11
62.527968
 21
-322.914699
 31
0.0
  0
LINE
  5
57
100
AcDbEntity
  8
1
100
AcDbLine
 10
98.527968
 20
-300.85823
 30
0.0
 11
98.527968
 21
-322.914699
 31
0.0
  0
LINE
  5
58
100
AcDbEntity
  8
1
100
AcDbLine
 10
62.527968
 20
-319.714699
 30
0.0
 11
98.527968
 21
-319.714699
 31
0.0
  0
LINE
  5
59
100
AcDbEntity
  8
1
100
AcDbLine
 10
77.527968
 20
-41.64675
 30
0.0
 11
77.527968
 21
-61.681595
 31
0.0
  0
LINE
  5
5A
100
AcDbEntity
  8
1
100
AcDbLine
 10
83.527968
 20
-41.64675
 30
0.0
 11
83.527968
 21
-61.681595
 31
0.0
  0
LINE
  5
5B
100
AcDbEntity
  8
1
100
AcDbLine
 10
33.527968
 20
-34.714699
 30
0.0
 11
127.527968
 21
-34.714699
 31
0.0
  0
LINE
  5
5C
100
AcDbEntity
  8
1
100
AcDbLine
 10
77.027968
 20
-300.173007
 30
0.0
 11
77.027968
 21
-315.714699
 31
0.0
  0
LINE
  5
5D
100
AcDbEntity
  8
1
100
AcDbLine
 10
84.027968
 20
-300.173007
 30
0.0
 11
84.027968
 21
-315.714699
 31
0.0
  0
LINE
  5
5E
100
AcDbEntity
  8
1
  6
CENTER
 62
     2
100
AcDbLine
 10
-332.172032
 20
-312.4167
 30
0.0
 11
-332.172032
 21
-332.709607
 31
0.0
  0
LINE
  5
5F
100
AcDbEntity
  8
1
  6
CENTER
 62
     2
100
AcDbLine
 10
-296.172032
 20
-312.4167
 30
0.0
 11
-296.172032
 21
-332.709607
 31
0.0
  0
LINE
  5
60
100
AcDbEntity
  8
1
100
AcDbLine
 10
71.527968
 20
-180.714699
 30
0.0
 11
89.527968
 21
-180.714699
 31
0.0
  0
LINE
  5
61
100
AcDbEntity
  8
1
100
AcDbLine
 10
71.527968
 20
-242.714699
 30
0.0
 11
89.527968
 21
-242.714699
 31
0.0
  0
LINE
  5
62
100
AcDbEntity
  8
1
100
AcDbLine
 10
71.527968
 20
-176.714699
 30
0.0
 11
89.527968
 21
-176.714699
 31
0.0
  0
LINE
  5
63
100
AcDbEntity
  8
1
100
AcDbLine
 10
71.527968
 20
-246.714699
 30
0.0
 11
89.527968
 21
-246.714699
 31
0.0
  0
LINE
  5
64
100
AcDbEntity
  8
1
100
AcDbLine
 10
95.527968
 20
-170.714699
 30
0.0
 11
95.527968
 21
-133.492873
 31
0.0
  0
LINE
  5
65
100
AcDbEntity
  8
1
100
AcDbLine
 10
65.527968
 20
-170.714699
 30
0.0
 11
65.527968
 21
-133.492873
 31
0.0
  0
LINE
  5
66
100
AcDbEntity
  8
1
100
AcDbLine
 10
65.527968
 20
-290.173007
 30
0.0
 11
65.527968
 21
-252.714699
 31
0.0
  0
LINE
  5
67
100
AcDbEntity
  8
1
100
AcDbLine
 10
65.527968
 20
-236.714699
 30
0.0
 11
65.527968
 21
-186.714699
 31
0.0
  0
LINE
  5
68
100
AcDbEntity
  8
1
100
AcDbLine
 10
95.527968
 20
-290.173007
 30
0.0
 11
95.527968
 21
-252.714699
 31
0.0
  0
LINE
  5
69
100
AcDbEntity
  8
1
100
AcDbLine
 10
95.527968
 20
-236.714699
 30
0.0
 11
95.527968
 21
-186.714699
 31
0.0
  0
ARC
  5
6A
100
AcDbEntity
  8
1
100
AcDbCircle
 10
-361.172032
 20
-30.714699
 30
0.0
 40
4.0
100
AcDbArc
 50
180.0
 51
270.0
  0
ARC
  5
6B
100
AcDbEntity
  8
1
100
AcDbCircle
 10
-267.172032
 20
-30.714699
 30
0.0
 40
4.0
100
AcDbArc
 50
270.0
 51
360.0
  0
ARC
  5
6C
100
AcDbEntity
  8
1
100
AcDbCircle
 10
-287.672032
 20
-42.714699
 30
0.0
 40
8.0
100
AcDbArc
 50
90.0
 51
180.0
  0
ARC
  5
6D
100
AcDbEntity
  8
1
100
AcDbCircle
 10
-340.672032
 20
-42.714699
 30
0.0
 40
8.0
100
AcDbArc
 50
0.0
 51
90.0
  0
ARC
  5
6E
100
AcDbEntity
  8
1
100
AcDbCircle
 10
-265.672032
 20
-64.681595
 30
0.0
 40
30.0
100
AcDbArc
 50
92.528576
 51
180.0
  0
ARC
  5
6F
100
AcDbEntity
  8
1
100
AcDbCircle
 10
-308.172032
 20
-37.714699
 30
0.0
 40
3.0
100
AcDbArc
 50
90.0
 51
180.0
  0
ARC
  5
70
100
AcDbEntity
  8
1
100
AcDbCircle
 10
-320.172032
 20
-37.714699
 30
0.0
 40
3.0
100
AcDbArc
 50
0.0
 51
90.0
  0
ARC
  5
71
100
AcDbEntity
  8
1
100
AcDbCircle
 10
-320.172032
 20
-61.681595
 30
0.0
 40
3.0
100
AcDbArc
 50
270.0
 51
0.0
  0
ARC
  5
72
100
AcDbEntity
  8
1
100
AcDbCircle
 10
-308.172032
 20
-61.681595
 30
0.0
 40
3.0
100
AcDbArc
 50
180.0
 51
270.0
  0
CIRCLE
  5
73
100
AcDbEntity
  8
1
100
AcDbCircle
 10
-314.172032
 20
-211.714699
 30
0.0
 40
90.5
  0
CIRCLE
  5
74
100
AcDbEntity
  8
1
100
AcDbCircle
 10
-314.172032
 20
-211.714699
 30
0.0
 40
89.5
  0
ARC
  5
75
100
AcDbEntity
  8
1
100
AcDbCircle
 10
-285.672032
 20
-115.340429
 30
0.0
 40
10.0
100
AcDbArc
 50
180.0
 51
253.525888
  0
ARC
  5
76
100
AcDbEntity
  8
1
100
AcDbCircle
 10
-342.672032
 20
-115.340429
 30
0.0
 40
10.0
100
AcDbArc
 50
286.474112
 51
360.0
  0
ARC
  5
77
100
AcDbEntity
  8
1
100
AcDbCircle
 10
-314.172032
 20
-211.714699
 30
0.0
 40
127.0
100
AcDbArc
 50
102.006883
 51
110.636394
  0
ARC
  5
78
100
AcDbEntity
  8
1
100
AcDbCircle
 10
-314.172032
 20
-211.714699
 30
0.0
 40
127.0
100
AcDbArc
 50
69.363606
 51
77.993117
  0
ARC
  5
79
100
AcDbEntity
  8
1
100
AcDbCircle
 10
-342.672032
 20
-77.711901
 30
0.0
 40
10.0
100
AcDbArc
 50
282.006883
 51
360.0
  0
ARC
  5
7A
100
AcDbEntity
  8
1
100
AcDbCircle
 10
-285.672032
 20
-77.711901
 30
0.0
 40
10.0
100
AcDbArc
 50
180.0
 51
257.993117
  0
LINE
  5
7B
100
AcDbEntity
  8
1
100
AcDbLine
 10
-360.084469
 20
-100.872272
 30
0.0
 11
-361.217198
 21
-98.137622
 31
0.0
  0
LINE
  5
7C
100
AcDbEntity
  8
1
100
AcDbLine
 10
-268.259595
 20
-100.872272
 30
0.0
 11
-267.126866
 21
-98.137622
 31
0.0
  0
ARC
  5
7D
100
AcDbEntity
  8
1
100
AcDbCircle
 10
-270.822385
 20
-96.606889
 30
0.0
 40
4.0
100
AcDbArc
 50
337.5
 51
69.363606
  0
ARC
  5
7E
100
AcDbEntity
  8
1
100
AcDbCircle
 10
-357.52168
 20
-96.606889
 30
0.0
 40
4.0
100
AcDbArc
 50
110.636394
 51
202.5
  0
LINE
  5
7F
100
AcDbEntity
  8
1
100
AcDbLine
 10
-285.490272
 20
-114.707348
 30
0.0
 11
-285.490272
 21
-120.978477
 31
0.0
  0
LINE
  5
80
100
AcDbEntity
  8
1
100
AcDbLine
 10
-342.853792
 20
-114.707348
 30
0.0
 11
-342.853792
 21
-120.978477
 31
0.0
  0
ARC
  5
81
100
AcDbEntity
  8
1
100
AcDbCircle
 10
-273.990272
 20
-114.707348
 30
0.0
 40
11.5
100
AcDbArc
 50
82.455248
 51
180.0
  0
ARC
  5
82
100
AcDbEntity
  8
1
100
AcDbCircle
 10
-354.353792
 20
-114.707348
 30
0.0
 40
11.5
100
AcDbArc
 50
0.0
 51
97.544752
  0
ARC
  5
83
100
AcDbEntity
  8
1
100
AcDbCircle
 10
-271.955113
 20
-99.341538
 30
0.0
 40
4.0
100
AcDbArc
 50
262.455248
 51
337.5
  0
ARC
  5
84
100
AcDbEntity
  8
1
100
AcDbCircle
 10
-356.388951
 20
-99.341538
 30
0.0
 40
4.0
100
AcDbArc
 50
202.5
 51
277.544752
  0
ARC
  5
85
100
AcDbEntity
  8
1
100
AcDbCircle
 10
-278.490272
 20
-120.978477
 30
0.0
 40
7.0
100
AcDbArc
 50
180.0
 51
248.532908
  0
ARC
  5
86
100
AcDbEntity
  8
1
100
AcDbCircle
 10
-349.853792
 20
-120.978477
 30
0.0
 40
7.0
100
AcDbArc
 50
291.467092
 51
360.0
  0
ARC
  5
87
100
AcDbEntity
  8
1
100
AcDbCircle
 10
-277.172032
 20
-305.155857
 30
0.0
 40
10.0
100
AcDbArc
 50
111.602135
 51
180.0
  0
ARC
  5
88
100
AcDbEntity
  8
1
100
AcDbCircle
 10
-351.172032
 20
-305.155857
 30
0.0
 40
10.0
100
AcDbArc
 50
0.0
 51
68.397865
  0
LINE
  5
89
100
AcDbEntity
  8
1
100
AcDbLine
 10
-285.490272
 20
-308.72205
 30
0.0
 11
-285.490272
 21
-302.461002
 31
0.0
  0
LINE
  5
8A
100
AcDbEntity
  8
1
100
AcDbLine
 10
-342.853792
 20
-308.72205
 30
0.0
 11
-342.853792
 21
-302.461002
 31
0.0
  0
ARC
  5
8B
100
AcDbEntity
  8
1
100
AcDbCircle
 10
-273.990272
 20
-308.72205
 30
0.0
 40
11.5
100
AcDbArc
 50
180.0
 51
200.712095
  0
ARC
  5
8C
100
AcDbEntity
  8
1
100
AcDbCircle
 10
-354.353792
 20
-308.72205
 30
0.0
 40
11.5
100
AcDbArc
 50
339.287905
 51
360.0
  0
ARC
  5
8D
100
AcDbEntity
  8
1
100
AcDbCircle
 10
-278.490272
 20
-302.461002
 30
0.0
 40
7.0
100
AcDbArc
 50
116.066447
 51
180.0
  0
ARC
  5
8E
100
AcDbEntity
  8
1
100
AcDbCircle
 10
-349.853792
 20
-302.461002
 30
0.0
 40
7.0
100
AcDbArc
 50
0.0
 51
63.933553
  0
ARC
  5
8F
100
AcDbEntity
  8
1
100
AcDbCircle
 10
-284.172032
 20
-319.714699
 30
0.0
 40
3.0
100
AcDbArc
 50
128.071029
 51
180.0
  0
ARC
  5
90
100
AcDbEntity
  8
1
100
AcDbCircle
 10
-344.172032
 20
-319.714699
 30
0.0
 40
3.0
100
AcDbArc
 50
0.0
 51
51.928971
  0
ARC
  5
91
100
AcDbEntity
  8
1
100
AcDbCircle
 10
-288.488497
 20
-314.203971
 30
0.0
 40
4.0
100
AcDbArc
 50
308.071029
 51
20.712095
  0
ARC
  5
92
100
AcDbEntity
  8
1
100
AcDbCircle
 10
-339.855567
 20
-314.203971
 30
0.0
 40
4.0
100
AcDbArc
 50
159.287905
 51
231.928971
  0
LINE
  5
93
100
AcDbEntity
  8
1
100
AcDbLine
 10
-338.172032
 20
-316.714699
 30
0.0
 11
-290.172032
 21
-316.714699
 31
0.0
  0
ARC
  5
94
100
AcDbEntity
  8
1
100
AcDbCircle
 10
-290.172032
 20
-313.714699
 30
0.0
 40
3.0
100
AcDbArc
 50
270.0
 51
360.0
  0
ARC
  5
95
100
AcDbEntity
  8
1
100
AcDbCircle
 10
-338.172032
 20
-313.714699
 30
0.0
 40
3.0
100
AcDbArc
 50
180.0
 51
270.0
  0
LINE
  5
96
100
AcDbEntity
  8
1
100
AcDbLine
 10
-341.172032
 20
-320.514699
 30
0.0
 11
-287.172032
 21
-320.514699
 31
0.0
  0
LINE
  5
97
100
AcDbEntity
  8
1
100
AcDbLine
 10
-341.172032
 20
-322.914699
 30
0.0
 11
-287.172032
 21
-322.914699
 31
0.0
  0
LINE
  5
98
100
AcDbEntity
  8
1
100
AcDbLine
 10
-290.422032
 20
-324.414699
 30
0.0
 11
-290.422032
 21
-327.923952
 31
0.0
  0
LINE
  5
99
100
AcDbEntity
  8
1
100
AcDbLine
 10
-290.422032
 20
-327.923952
 30
0.0
 11
-291.272032
 21
-328.414699
 31
0.0
  0
LINE
  5
9A
100
AcDbEntity
  8
1
100
AcDbLine
 10
-293.297032
 20
-324.414699
 30
0.0
 11
-293.297032
 21
-327.923952
 31
0.0
  0
ARC
  5
9B
100
AcDbEntity
  8
1
100
AcDbCircle
 10
-291.859532
 20
-326.075997
 30
0.0
 40
2.341227
100
AcDbArc
 50
232.121121
 51
307.878879
  0
ARC
  5
9C
100
AcDbEntity
  8
1
100
AcDbCircle
 10
-296.172032
 20
-319.792224
 30
0.0
 40
8.625
100
AcDbArc
 50
250.528777
 51
289.471219
  0
LINE
  5
9D
100
AcDbEntity
  8
1
100
AcDbLine
 10
-301.922032
 20
-324.414699
 30
0.0
 11
-301.922032
 21
-327.923952
 31
0.0
  0
LINE
  5
9E
100
AcDbEntity
  8
1
100
AcDbLine
 10
-301.922032
 20
-327.923952
 30
0.0
 11
-301.072032
 21
-328.414699
 31
0.0
  0
LINE
  5
9F
100
AcDbEntity
  8
1
100
AcDbLine
 10
-301.072032
 20
-328.414699
 30
0.0
 11
-291.272032
 21
-328.414699
 31
0.0
  0
LINE
  5
A0
100
AcDbEntity
  8
1
100
AcDbLine
 10
-299.047032
 20
-324.414699
 30
0.0
 11
-299.047032
 21
-327.923952
 31
0.0
  0
ARC
  5
A1
100
AcDbEntity
  8
1
100
AcDbCircle
 10
-300.484532
 20
-326.075997
 30
0.0
 40
2.341227
100
AcDbArc
 50
232.121121
 51
307.878879
  0
LINE
  5
A2
100
AcDbEntity
  8
1
100
AcDbLine
 10
-290.072032
 20
-322.914699
 30
0.0
 11
-290.072032
 21
-324.414699
 31
0.0
  0
LINE
  5
A3
100
AcDbEntity
  8
1
100
AcDbLine
 10
-290.072032
 20
-324.414699
 30
0.0
 11
-302.272032
 21
-324.414699
 31
0.0
  0
LINE
  5
A4
100
AcDbEntity
  8
1
100
AcDbLine
 10
-302.272032
 20
-324.414699
 30
0.0
 11
-302.272032
 21
-322.914699
 31
0.0
  0
LINE
  5
A5
100
AcDbEntity
  8
1
100
AcDbLine
 10
-296.172032
 20
-324.414699
 30
0.0
 11
-296.672032
 21
-322.914699
 31
0.0
  0
LINE
  5
A6
100
AcDbEntity
  8
1
100
AcDbLine
 10
-296.172032
 20
-322.914699
 30
0.0
 11
-295.672032
 21
-324.414699
 31
0.0
  0
LINE
  5
A7
100
AcDbEntity
  8
1
100
AcDbLine
 10
-326.422032
 20
-324.414699
 30
0.0
 11
-326.422032
 21
-327.923952
 31
0.0
  0
LINE
  5
A8
100
AcDbEntity
  8
1
100
AcDbLine
 10
-326.422032
 20
-327.923952
 30
0.0
 11
-327.272032
 21
-328.414699
 31
0.0
  0
LINE
  5
A9
100
AcDbEntity
  8
1
100
AcDbLine
 10
-329.297032
 20
-324.414699
 30
0.0
 11
-329.297032
 21
-327.923952
 31
0.0
  0
ARC
  5
AA
100
AcDbEntity
  8
1
100
AcDbCircle
 10
-327.859532
 20
-326.075997
 30
0.0
 40
2.341227
100
AcDbArc
 50
232.121121
 51
307.878879
  0
ARC
  5
AB
100
AcDbEntity
  8
1
100
AcDbCircle
 10
-332.172032
 20
-319.792224
 30
0.0
 40
8.625
100
AcDbArc
 50
250.528777
 51
289.471219
  0
LINE
  5
AC
100
AcDbEntity
  8
1
100
AcDbLine
 10
-337.922032
 20
-324.414699
 30
0.0
 11
-337.922032
 21
-327.923952
 31
0.0
  0
LINE
  5
AD
100
AcDbEntity
  8
1
100
AcDbLine
 10
-337.922032
 20
-327.923952
 30
0.0
 11
-337.072032
 21
-328.414699
 31
0.0
  0
LINE
  5
AE
100
AcDbEntity
  8
1
100
AcDbLine
 10
-337.072032
 20
-328.414699
 30
0.0
 11
-327.272032
 21
-328.414699
 31
0.0
  0
LINE
  5
AF
100
AcDbEntity
  8
1
100
AcDbLine
 10
-335.047032
 20
-324.414699
 30
0.0
 11
-335.047032
 21
-327.923952
 31
0.0
  0
ARC
  5
B0
100
AcDbEntity
  8
1
100
AcDbCircle
 10
-336.484532
 20
-326.075997
 30
0.0
 40
2.341227
100
AcDbArc
 50
232.121121
 51
307.878879
  0
LINE
  5
B1
100
AcDbEntity
  8
1
100
AcDbLine
 10
-326.072032
 20
-322.914699
 30
0.0
 11
-326.072032
 21
-324.414699
 31
0.0
  0
LINE
  5
B2
100
AcDbEntity
  8
1
100
AcDbLine
 10
-326.072032
 20
-324.414699
 30
0.0
 11
-338.272032
 21
-324.414699
 31
0.0
  0
LINE
  5
B3
100
AcDbEntity
  8
1
100
AcDbLine
 10
-338.272032
 20
-324.414699
 30
0.0
 11
-338.272032
 21
-322.914699
 31
0.0
  0
LINE
  5
B4
100
AcDbEntity
  8
1
100
AcDbLine
 10
-332.172032
 20
-324.414699
 30
0.0
 11
-332.672032
 21
-322.914699
 31
0.0
  0
LINE
  5
B5
100
AcDbEntity
  8
1
100
AcDbLine
 10
-332.172032
 20
-322.914699
 30
0.0
 11
-331.672032
 21
-324.414699
 31
0.0
  0
CIRCLE
  5
B6
100
AcDbEntity
  8
1
100
AcDbCircle
 10
-314.172032
 20
-211.714699
 30
0.0
 40
81.1
  0
CIRCLE
  5
B7
100
AcDbEntity
  8
1
100
AcDbCircle
 10
-314.172032
 20
-211.714699
 30
0.0
 40
83.5
  0
CIRCLE
  5
B8
100
AcDbEntity
  8
1
100
AcDbCircle
 10
-314.172032
 20
-211.714699
 30
0.0
 40
69.95
  0
ARC
  5
B9
100
AcDbEntity
  8
1
100
AcDbCircle
 10
33.527968
 20
-30.714699
 30
0.0
 40
4.0
100
AcDbArc
 50
180.0
 51
270.0
  0
ARC
  5
BA
100
AcDbEntity
  8
1
100
AcDbCircle
 10
127.527968
 20
-30.714699
 30
0.0
 40
4.0
100
AcDbArc
 50
270.0
 51
360.0
  0
ARC
  5
BB
100
AcDbEntity
  8
1
100
AcDbCircle
 10
107.027968
 20
-42.714699
 30
0.0
 40
8.0
100
AcDbArc
 50
90.0
 51
180.0
  0
ARC
  5
BC
100
AcDbEntity
  8
1
100
AcDbCircle
 10
54.027968
 20
-42.714699
 30
0.0
 40
8.0
100
AcDbArc
 50
0.0
 51
90.0
  0
ARC
  5
BD
100
AcDbEntity
  8
1
100
AcDbCircle
 10
32.027968
 20
-64.681595
 30
0.0
 40
30.0
100
AcDbArc
 50
0.0
 51
87.471424
  0
LINE
  5
BE
100
AcDbEntity
  8
1
100
AcDbLine
 10
76.527968
 20
-37.714699
 30
0.0
 11
76.527968
 21
-39.914699
 31
0.0
  0
LINE
  5
BF
100
AcDbEntity
  8
1
100
AcDbLine
 10
84.527968
 20
-37.714699
 30
0.0
 11
84.527968
 21
-39.914699
 31
0.0
  0
ARC
  5
C0
100
AcDbEntity
  8
1
100
AcDbCircle
 10
87.527968
 20
-37.714699
 30
0.0
 40
3.0
100
AcDbArc
 50
90.0
 51
180.0
  0
ARC
  5
C1
100
AcDbEntity
  8
1
100
AcDbCircle
 10
73.527968
 20
-37.714699
 30
0.0
 40
3.0
100
AcDbArc
 50
0.0
 51
90.0
  0
ARC
  5
C2
100
AcDbEntity
  8
1
100
AcDbCircle
 10
77.527968
 20
-39.914699
 30
0.0
 40
1.0
100
AcDbArc
 50
180.0
 51
240.0
  0
ARC
  5
C3
100
AcDbEntity
  8
1
100
AcDbCircle
 10
83.527968
 20
-39.914699
 30
0.0
 40
1.0
100
AcDbArc
 50
300.0
 51
0.0
  0
ARC
  5
C4
100
AcDbEntity
  8
1
100
AcDbCircle
 10
84.527968
 20
-41.64675
 30
0.0
 40
1.0
100
AcDbArc
 50
120.0
 51
180.0
  0
ARC
  5
C5
100
AcDbEntity
  8
1
100
AcDbCircle
 10
76.527968
 20
-41.64675
 30
0.0
 40
1.0
100
AcDbArc
 50
0.0
 51
60.0
  0
ARC
  5
C6
100
AcDbEntity
  8
1
100
AcDbCircle
 10
86.527968
 20
-61.681595
 30
0.0
 40
3.0
100
AcDbArc
 50
180.0
 51
270.0
  0
ARC
  5
C7
100
AcDbEntity
  8
1
100
AcDbCircle
 10
74.527968
 20
-61.681595
 30
0.0
 40
3.0
100
AcDbArc
 50
270.0
 51
360.0
  0
LINE
  5
C8
100
AcDbEntity
  8
1
100
AcDbLine
 10
-340.434478
 20
-40.914699
 30
0.0
 11
-332.877162
 21
-40.914699
 31
0.0
  0
LINE
  5
C9
100
AcDbEntity
  8
1
100
AcDbLine
 10
-295.466902
 20
-40.914699
 30
0.0
 11
-284.31609
 21
-40.914699
 31
0.0
  0
ARC
  5
CA
100
AcDbEntity
  8
1
100
AcDbCircle
 10
-284.31609
 20
-39.914699
 30
0.0
 40
1.0
100
AcDbArc
 50
270.0
 51
306.971752
  0
LINE
  5
CB
100
AcDbEntity
  8
1
100
AcDbLine
 10
108.527968
 20
-122.214699
 30
0.0
 11
108.527968
 21
-301.214699
 31
0.0
  0
LINE
  5
CC
100
AcDbEntity
  8
1
100
AcDbLine
 10
52.527968
 20
-122.214699
 30
0.0
 11
52.527968
 21
-301.214699
 31
0.0
  0
LINE
  5
CD
100
AcDbEntity
  8
1
100
AcDbLine
 10
108.527968
 20
-122.214699
 30
0.0
 11
107.527968
 21
-121.214699
 31
0.0
  0
LINE
  5
CE
100
AcDbEntity
  8
1
100
AcDbLine
 10
52.527968
 20
-122.214699
 30
0.0
 11
53.527968
 21
-121.214699
 31
0.0
  0
LINE
  5
CF
100
AcDbEntity
  8
1
100
AcDbLine
 10
52.527968
 20
-301.214699
 30
0.0
 11
53.527968
 21
-302.214699
 31
0.0
  0
LINE
  5
D0
100
AcDbEntity
  8
1
100
AcDbLine
 10
107.527968
 20
-302.214699
 30
0.0
 11
108.527968
 21
-301.214699
 31
0.0
  0
LINE
  5
D1
100
AcDbEntity
  8
1
100
AcDbLine
 10
107.527968
 20
-121.214699
 30
0.0
 11
107.527968
 21
-302.214699
 31
0.0
  0
LINE
  5
D2
100
AcDbEntity
  8
1
100
AcDbLine
 10
53.527968
 20
-121.214699
 30
0.0
 11
53.527968
 21
-302.214699
 31
0.0
  0
ARC
  5
D3
100
AcDbEntity
  8
1
100
AcDbCircle
 10
104.027968
 20
-116.214699
 30
0.0
 40
5.0
100
AcDbArc
 50
180.0
 51
270.0
  0
ARC
  5
D4
100
AcDbEntity
  8
1
100
AcDbCircle
 10
57.027968
 20
-116.214699
 30
0.0
 40
5.0
100
AcDbArc
 50
270.0
 51
360.0
  0
LINE
  5
D5
100
AcDbEntity
  8
1
100
AcDbLine
 10
53.527968
 20
-121.214699
 30
0.0
 11
57.027968
 21
-121.214699
 31
0.0
  0
LINE
  5
D6
100
AcDbEntity
  8
1
100
AcDbLine
 10
104.027968
 20
-121.214699
 30
0.0
 11
107.527968
 21
-121.214699
 31
0.0
  0
ARC
  5
D7
100
AcDbEntity
  8
1
100
AcDbCircle
 10
104.027968
 20
-119.929909
 30
0.0
 40
5.0
100
AcDbArc
 50
180.0
 51
270.0
  0
ARC
  5
D8
100
AcDbEntity
  8
1
100
AcDbCircle
 10
57.027968
 20
-119.929909
 30
0.0
 40
5.0
100
AcDbArc
 50
270.0
 51
360.0
  0
LINE
  5
D9
100
AcDbEntity
  8
1
100
AcDbLine
 10
77.027968
 20
-82.711901
 30
0.0
 11
77.027968
 21
-122.492873
 31
0.0
  0
LINE
  5
DA
100
AcDbEntity
  8
1
100
AcDbLine
 10
84.027968
 20
-82.711901
 30
0.0
 11
84.027968
 21
-122.492873
 31
0.0
  0
ARC
  5
DB
100
AcDbEntity
  8
1
100
AcDbCircle
 10
89.027968
 20
-82.711901
 30
0.0
 40
5.0
100
AcDbArc
 50
90.0
 51
180.0
  0
ARC
  5
DC
100
AcDbEntity
  8
1
100
AcDbCircle
 10
72.027968
 20
-82.711901
 30
0.0
 40
5.0
100
AcDbArc
 50
0.0
 51
90.0
  0
ARC
  5
DD
100
AcDbEntity
  8
1
100
AcDbCircle
 10
89.027968
 20
-122.492873
 30
0.0
 40
5.0
100
AcDbArc
 50
180.0
 51
270.0
  0
ARC
  5
DE
100
AcDbEntity
  8
1
100
AcDbCircle
 10
72.027968
 20
-122.492873
 30
0.0
 40
5.0
100
AcDbArc
 50
270.0
 51
0.0
  0
LINE
  5
DF
100
AcDbEntity
  8
1
100
AcDbLine
 10
79.027968
 20
-103.341538
 30
0.0
 11
82.027968
 21
-103.341538
 31
0.0
  0
LINE
  5
E0
100
AcDbEntity
  8
1
100
AcDbLine
 10
79.027968
 20
-94.381999
 30
0.0
 11
82.027968
 21
-94.381999
 31
0.0
  0
ARC
  5
E1
100
AcDbEntity
  8
1
100
AcDbCircle
 10
82.027968
 20
-101.341538
 30
0.0
 40
2.0
100
AcDbArc
 50
270.0
 51
360.0
  0
ARC
  5
E2
100
AcDbEntity
  8
1
100
AcDbCircle
 10
79.027968
 20
-101.341538
 30
0.0
 40
2.0
100
AcDbArc
 50
180.0
 51
270.0
  0
ARC
  5
E3
100
AcDbEntity
  8
1
100
AcDbCircle
 10
79.027968
 20
-96.381999
 30
0.0
 40
2.0
100
AcDbArc
 50
90.0
 51
180.0
  0
ARC
  5
E4
100
AcDbEntity
  8
1
100
AcDbCircle
 10
82.027968
 20
-96.381999
 30
0.0
 40
2.0
100
AcDbArc
 50
0.0
 51
90.0
  0
LINE
  5
E5
100
AcDbEntity
  8
1
100
AcDbLine
 10
84.027968
 20
-77.711901
 30
0.0
 11
77.027968
 21
-77.711901
 31
0.0
  0
LINE
  5
E6
100
AcDbEntity
  8
1
100
AcDbLine
 10
89.527968
 20
-127.492873
 30
0.0
 11
71.527968
 21
-127.492873
 31
0.0
  0
LINE
  5
E7
100
AcDbEntity
  8
1
100
AcDbLine
 10
83.527968
 20
-64.681595
 30
0.0
 11
77.527968
 21
-64.681595
 31
0.0
  0
ARC
  5
E8
100
AcDbEntity
  8
1
100
AcDbCircle
 10
57.527968
 20
-307.214699
 30
0.0
 40
5.0
100
AcDbArc
 50
360.0
 51
90.0
  0
ARC
  5
E9
100
AcDbEntity
  8
1
100
AcDbCircle
 10
103.527968
 20
-307.214699
 30
0.0
 40
5.0
100
AcDbArc
 50
90.0
 51
180.0
  0
LINE
  5
EA
100
AcDbEntity
  8
1
100
AcDbLine
 10
53.527968
 20
-302.214699
 30
0.0
 11
57.527968
 21
-302.214699
 31
0.0
  0
LINE
  5
EB
100
AcDbEntity
  8
1
100
AcDbLine
 10
103.527968
 20
-302.214699
 30
0.0
 11
107.527968
 21
-302.214699
 31
0.0
  0
ARC
  5
EC
100
AcDbEntity
  8
1
100
AcDbCircle
 10
103.527968
 20
-300.85823
 30
0.0
 40
5.0
100
AcDbArc
 50
90.0
 51
180.0
  0
ARC
  5
ED
100
AcDbEntity
  8
1
100
AcDbCircle
 10
57.527968
 20
-300.85823
 30
0.0
 40
5.0
100
AcDbArc
 50
360.0
 51
90.0
  0
ARC
  5
EE
100
AcDbEntity
  8
1
100
AcDbCircle
 10
95.527968
 20
-313.714699
 30
0.0
 40
3.0
100
AcDbArc
 50
270.0
 51
360.0
  0
ARC
  5
EF
100
AcDbEntity
  8
1
100
AcDbCircle
 10
65.527968
 20
-313.714699
 30
0.0
 40
3.0
100
AcDbArc
 50
180.0
 51
270.0
  0
ARC
  5
F0
100
AcDbEntity
  8
1
100
AcDbCircle
 10
88.027968
 20
-315.714699
 30
0.0
 40
4.0
100
AcDbArc
 50
180.0
 51
270.0
  0
ARC
  5
F1
100
AcDbEntity
  8
1
100
AcDbCircle
 10
73.027968
 20
-315.714699
 30
0.0
 40
4.0
100
AcDbArc
 50
270.0
 51
360.0
  0
LINE
  5
F2
100
AcDbEntity
  8
1
100
AcDbLine
 10
65.527968
 20
-316.714699
 30
0.0
 11
72.027968
 21
-316.714699
 31
0.0
  0
LINE
  5
F3
100
AcDbEntity
  8
1
100
AcDbLine
 10
89.027968
 20
-316.714699
 30
0.0
 11
95.527968
 21
-316.714699
 31
0.0
  0
LINE
  5
F4
100
AcDbEntity
  8
1
100
AcDbLine
 10
62.527968
 20
-296.173007
 30
0.0
 11
98.527968
 21
-296.173007
 31
0.0
  0
ARC
  5
F5
100
AcDbEntity
  8
1
100
AcDbCircle
 10
88.027968
 20
-300.173007
 30
0.0
 40
4.0
100
AcDbArc
 50
90.0
 51
180.0
  0
ARC
  5
F6
100
AcDbEntity
  8
1
100
AcDbCircle
 10
73.027968
 20
-300.173007
 30
0.0
 40
4.0
100
AcDbArc
 50
360.0
 51
90.0
  0
LINE
  5
F7
100
AcDbEntity
  8
1
100
AcDbLine
 10
62.527968
 20
-320.514699
 30
0.0
 11
98.527968
 21
-320.514699
 31
0.0
  0
LINE
  5
F8
100
AcDbEntity
  8
1
100
AcDbLine
 10
62.527968
 20
-322.914699
 30
0.0
 11
98.527968
 21
-322.914699
 31
0.0
  0
LINE
  5
F9
100
AcDbEntity
  8
1
100
AcDbLine
 10
85.527968
 20
-324.414699
 30
0.0
 11
85.527968
 21
-328.414699
 31
0.0
  0
LINE
  5
FA
100
AcDbEntity
  8
1
100
AcDbLine
 10
80.527968
 20
-324.414699
 30
0.0
 11
80.527968
 21
-327.923952
 31
0.0
  0
ARC
  5
FB
100
AcDbEntity
  8
1
100
AcDbCircle
 10
83.027968
 20
-321.801492
 30
0.0
 40
6.613208
100
AcDbArc
 50
247.788205
 51
292.211795
  0
LINE
  5
FC
100
AcDbEntity
  8
1
100
AcDbLine
 10
75.527968
 20
-324.414699
 30
0.0
 11
75.527968
 21
-328.414699
 31
0.0
  0
LINE
  5
FD
100
AcDbEntity
  8
1
100
AcDbLine
 10
75.527968
 20
-328.414699
 30
0.0
 11
85.527968
 21
-328.414699
 31
0.0
  0
ARC
  5
FE
100
AcDbEntity
  8
1
100
AcDbCircle
 10
78.027968
 20
-321.801492
 30
0.0
 40
6.613208
100
AcDbArc
 50
247.788205
 51
292.211795
  0
LINE
  5
FF
100
AcDbEntity
  8
1
100
AcDbLine
 10
86.627968
 20
-322.914699
 30
0.0
 11
86.627968
 21
-324.414699
 31
0.0
  0
LINE
  5
100
100
AcDbEntity
  8
1
100
AcDbLine
 10
86.627968
 20
-324.414699
 30
0.0
 11
74.427968
 21
-324.414699
 31
0.0
  0
LINE
  5
101
100
AcDbEntity
  8
1
100
AcDbLine
 10
74.427968
 20
-324.414699
 30
0.0
 11
74.427968
 21
-322.914699
 31
0.0
  0
ARC
  5
102
100
AcDbEntity
  8
1
100
AcDbCircle
 10
89.527968
 20
-170.714699
 30
0.0
 40
6.0
100
AcDbArc
 50
270.0
 51
360.0
  0
ARC
  5
103
100
AcDbEntity
  8
1
100
AcDbCircle
 10
71.527968
 20
-186.714699
 30
0.0
 40
6.0
100
AcDbArc
 50
90.0
 51
180.0
  0
ARC
  5
104
100
AcDbEntity
  8
1
100
AcDbCircle
 10
89.527968
 20
-186.714699
 30
0.0
 40
6.0
100
AcDbArc
 50
0.0
 51
90.0
  0
ARC
  5
105
100
AcDbEntity
  8
1
100
AcDbCircle
 10
71.527968
 20
-236.714699
 30
0.0
 40
6.0
100
AcDbArc
 50
180.0
 51
270.0
  0
ARC
  5
106
100
AcDbEntity
  8
1
100
AcDbCircle
 10
89.527968
 20
-236.714699
 30
0.0
 40
6.0
100
AcDbArc
 50
270.0
 51
0.0
  0
ARC
  5
107
100
AcDbEntity
  8
1
100
AcDbCircle
 10
71.527968
 20
-252.714699
 30
0.0
 40
6.0
100
AcDbArc
 50
90.0
 51
180.0
  0
ARC
  5
108
100
AcDbEntity
  8
1
100
AcDbCircle
 10
89.527968
 20
-252.714699
 30
0.0
 40
6.0
100
AcDbArc
 50
0.0
 51
90.0
  0
ARC
  5
109
100
AcDbEntity
  8
1
100
AcDbCircle
 10
89.527968
 20
-133.492873
 30
0.0
 40
6.0
100
AcDbArc
 50
0.0
 51
90.0
  0
ARC
  5
10A
100
AcDbEntity
  8
1
100
AcDbCircle
 10
71.527968
 20
-133.492873
 30
0.0
 40
6.0
100
AcDbArc
 50
90.0
 51
180.0
  0
ARC
  5
10B
100
AcDbEntity
  8
1
100
AcDbCircle
 10
89.527968
 20
-290.173007
 30
0.0
 40
6.0
100
AcDbArc
 50
270.0
 51
360.0
  0
ARC
  5
10C
100
AcDbEntity
  8
1
100
AcDbCircle
 10
71.527968
 20
-290.173007
 30
0.0
 40
6.0
100
AcDbArc
 50
180.0
 51
270.0
  0
LINE
  5
10D
100
AcDbEntity
  8
1
100
AcDbLine
 10
92.044468
 20
-169.341056
 30
0.0
 11
92.044468
 21
-147.765733
 31
0.0
  0
ARC
  5
10E
100
AcDbEntity
  8
1
100
AcDbCircle
 10
71.527968
 20
-170.714699
 30
0.0
 40
6.0
100
AcDbArc
 50
180.000003
 51
269.999998
  0
LINE
  5
10F
100
AcDbEntity
  8
1
100
AcDbLine
 10
69.011468
 20
-169.341056
 30
0.0
 11
69.011468
 21
-147.765733
 31
0.0
  0
LINE
  5
110
100
AcDbEntity
  8
1
100
AcDbLine
 10
69.011468
 20
-275.663665
 30
0.0
 11
69.011468
 21
-254.088342
 31
0.0
  0
LINE
  5
111
100
AcDbEntity
  8
1
100
AcDbLine
 10
69.011468
 20
-233.622442
 30
0.0
 11
69.011468
 21
-189.806957
 31
0.0
  0
LINE
  5
112
100
AcDbEntity
  8
1
100
AcDbLine
 10
92.044468
 20
-275.663665
 30
0.0
 11
92.044468
 21
-254.088342
 31
0.0
  0
LINE
  5
113
100
AcDbEntity
  8
1
100
AcDbLine
 10
92.044468
 20
-233.622442
 30
0.0
 11
92.044468
 21
-189.806957
 31
0.0
  0
ARC
  5
114
100
AcDbEntity
  8
1
100
AcDbCircle
 10
89.527968
 20
-189.806957
 30
0.0
 40
2.5165
100
AcDbArc
 50
0.0
 51
90.0
  0
ARC
  5
115
100
AcDbEntity
  8
1
100
AcDbCircle
 10
71.527968
 20
-189.806957
 30
0.0
 40
2.5165
100
AcDbArc
 50
90.0
 51
180.0
  0
ARC
  5
116
100
AcDbEntity
  8
1
100
AcDbCircle
 10
71.527968
 20
-233.622442
 30
0.0
 40
2.5165
100
AcDbArc
 50
180.0
 51
270.0
  0
ARC
  5
117
100
AcDbEntity
  8
1
100
AcDbCircle
 10
89.527968
 20
-233.622442
 30
0.0
 40
2.5165
100
AcDbArc
 50
270.0
 51
360.0
  0
ARC
  5
118
100
AcDbEntity
  8
1
100
AcDbCircle
 10
89.527968
 20
-254.088342
 30
0.0
 40
2.5165
100
AcDbArc
 50
0.0
 51
90.0
  0
ARC
  5
119
100
AcDbEntity
  8
1
100
AcDbCircle
 10
71.527968
 20
-254.088342
 30
0.0
 40
2.5165
100
AcDbArc
 50
90.0
 51
180.0
  0
ARC
  5
11A
100
AcDbEntity
  8
1
100
AcDbCircle
 10
89.527968
 20
-169.341056
 30
0.0
 40
2.5165
100
AcDbArc
 50
270.0
 51
360.0
  0
ARC
  5
11B
100
AcDbEntity
  8
1
100
AcDbCircle
 10
71.527968
 20
-169.341056
 30
0.0
 40
2.5165
100
AcDbArc
 50
180.0
 51
270.0
  0
ARC
  5
11C
100
AcDbEntity
  8
1
100
AcDbCircle
 10
71.527968
 20
-147.765733
 30
0.0
 40
2.5165
100
AcDbArc
 50
90.0
 51
180.0
  0
ARC
  5
11D
100
AcDbEntity
  8
1
100
AcDbCircle
 10
89.527968
 20
-147.765733
 30
0.0
 40
2.5165
100
AcDbArc
 50
0.0
 51
90.0
  0
ARC
  5
11E
100
AcDbEntity
  8
1
100
AcDbCircle
 10
71.527968
 20
-275.663665
 30
0.0
 40
2.5165
100
AcDbArc
 50
180.0
 51
270.0
  0
ARC
  5
11F
100
AcDbEntity
  8
1
100
AcDbCircle
 10
89.527968
 20
-275.663665
 30
0.0
 40
2.5165
100
AcDbArc
 50
270.0
 51
360.0
  0
CIRCLE
  5
120
100
AcDbEntity
  8
1
100
AcDbCircle
 10
-314.172032
 20
-211.714699
 30
0.0
 40
64.95
  0
LINE
  5
121
100
AcDbEntity
  8
1
100
AcDbLine
 10
51.152968
 20
-130.614699
 30
0.0
 11
51.152968
 21
-292.814699
 31
0.0
  0
LINE
  5
122
100
AcDbEntity
  8
1
100
AcDbLine
 10
109.902968
 20
-130.614699
 30
0.0
 11
109.902968
 21
-292.814699
 31
0.0
  0
LINE
  5
123
100
AcDbEntity
  8
1
100
AcDbLine
 10
109.902968
 20
-130.614699
 30
0.0
 11
108.816081
 21
-128.717587
 31
0.0
  0
LINE
  5
124
100
AcDbEntity
  8
1
100
AcDbLine
 10
51.152968
 20
-130.614699
 30
0.0
 11
52.239855
 21
-128.717587
 31
0.0
  0
ARC
  5
125
100
AcDbEntity
  8
1
100
AcDbCircle
 10
107.948394
 20
-129.214699
 30
0.0
 40
1.0
100
AcDbArc
 50
29.809114
 51
54.579452
  0
ARC
  5
126
100
AcDbEntity
  8
1
100
AcDbCircle
 10
53.107541
 20
-129.214699
 30
0.0
 40
1.0
100
AcDbArc
 50
125.420548
 51
150.190886
  0
LINE
  5
127
100
AcDbEntity
  8
1
100
AcDbLine
 10
109.902968
 20
-292.814699
 30
0.0
 11
108.816081
 21
-294.711811
 31
0.0
  0
LINE
  5
128
100
AcDbEntity
  8
1
100
AcDbLine
 10
51.152968
 20
-292.814699
 30
0.0
 11
52.239855
 21
-294.711811
 31
0.0
  0
ARC
  5
129
100
AcDbEntity
  8
1
100
AcDbCircle
 10
53.107541
 20
-294.214699
 30
0.0
 40
1.0
100
AcDbArc
 50
209.809114
 51
234.579452
  0
ARC
  5
12A
100
AcDbEntity
  8
1
100
AcDbCircle
 10
107.948394
 20
-294.214699
 30
0.0
 40
1.0
100
AcDbArc
 50
305.420548
 51
330.190886
  0
LINE
  5
12B
100
AcDbEntity
  8
1
100
AcDbLine
 10
62.027968
 20
-124.929909
 30
0.0
 11
72.027968
 21
-124.929909
 31
0.0
  0
LINE
  5
12C
100
AcDbEntity
  8
1
100
AcDbLine
 10
89.027968
 20
-124.929909
 30
0.0
 11
99.027968
 21
-124.929909
 31
0.0
  0
LINE
  5
12D
100
AcDbEntity
  8
1
100
AcDbLine
 10
-311.172032
 20
-64.681595
 30
0.0
 11
-317.172032
 21
-64.681595
 31
0.0
  0
LINE
  5
12E
100
AcDbEntity
  8
1
100
AcDbLine
 10
-247.542109
 20
183.86864
 30
0.0
 11
-263.172032
 21
183.86864
 31
0.0
  0
ARC
  5
12F
100
AcDbEntity
  8
1
100
AcDbCircle
 10
-247.542109
 20
186.385301
 30
0.0
 40
2.51666
100
AcDbArc
 50
270.0
 51
0.0
  0
ARC
  5
130
100
AcDbEntity
  8
1
100
AcDbCircle
 10
-247.542109
 20
204.385301
 30
0.0
 40
2.51666
100
AcDbArc
 50
0.0
 51
90.0
  0
LINE
  5
131
100
AcDbEntity
  8
1
100
AcDbLine
 10
-233.804994
 20
209.632959
 30
0.0
 11
-245.025449
 21
206.901961
 31
0.0
  0
LINE
  5
132
100
AcDbEntity
  8
1
100
AcDbLine
 10
-233.804994
 20
181.137642
 30
0.0
 11
-245.025449
 21
183.86864
 31
0.0
  0
LINE
  5
133
100
AcDbEntity
  8
1
100
AcDbLine
 10
-380.801955
 20
183.86864
 30
0.0
 11
-365.172032
 21
183.86864
 31
0.0
  0
ARC
  5
134
100
AcDbEntity
  8
1
100
AcDbCircle
 10
-380.801955
 20
186.385301
 30
0.0
 40
2.51666
100
AcDbArc
 50
180.0
 51
270.0
  0
ARC
  5
135
100
AcDbEntity
  8
1
100
AcDbCircle
 10
-380.801955
 20
204.385301
 30
0.0
 40
2.51666
100
AcDbArc
 50
90.0
 51
180.0
  0
LINE
  5
136
100
AcDbEntity
  8
1
100
AcDbLine
 10
-394.53907
 20
209.632959
 30
0.0
 11
-383.318616
 21
206.901961
 31
0.0
  0
LINE
  5
137
100
AcDbEntity
  8
1
100
AcDbLine
 10
-394.53907
 20
181.137642
 30
0.0
 11
-383.318616
 21
183.86864
 31
0.0
  0
LINE
  5
138
100
AcDbEntity
  8
1
100
AcDbLine
 10
-223.672032
 20
222.385301
 30
0.0
 11
-224.672032
 21
223.385301
 31
0.0
  0
LINE
  5
139
100
AcDbEntity
  8
1
100
AcDbLine
 10
-224.672032
 20
167.385301
 30
0.0
 11
-223.672032
 21
168.385301
 31
0.0
  0
LINE
  5
13A
100
AcDbEntity
  8
1
100
AcDbLine
 10
-263.177352
 20
167.385301
 30
0.0
 11
-224.672032
 21
167.385301
 31
0.0
  0
LINE
  5
13B
100
AcDbEntity
  8
1
100
AcDbLine
 10
-263.172032
 20
168.385301
 30
0.0
 11
-223.672032
 21
168.385301
 31
0.0
  0
LINE
  5
13C
100
AcDbEntity
  8
1
100
AcDbLine
 10
-229.147036
 20
186.06047
 30
0.0
 11
-229.147036
 21
204.710132
 31
0.0
  0
LINE
  5
13D
100
AcDbEntity
  8
1
100
AcDbLine
 10
-230.713959
 20
186.385301
 30
0.0
 11
-230.713959
 21
204.385301
 31
0.0
  0
LINE
  5
13E
100
AcDbEntity
  8
1
100
AcDbLine
 10
-263.172032
 20
180.385301
 30
0.0
 11
-236.713959
 21
180.385301
 31
0.0
  0
ARC
  5
13F
100
AcDbEntity
  8
1
100
AcDbCircle
 10
-236.713959
 20
204.385301
 30
0.0
 40
6.0
100
AcDbArc
 50
0.0
 51
90.0
  0
ARC
  5
140
100
AcDbEntity
  8
1
100
AcDbCircle
 10
-236.713959
 20
186.385301
 30
0.0
 40
6.0
100
AcDbArc
 50
270.0
 51
360.0
  0
LINE
  5
141
100
AcDbEntity
  8
1
100
AcDbLine
 10
-245.025449
 20
186.385301
 30
0.0
 11
-245.025449
 21
204.385301
 31
0.0
  0
LINE
  5
142
100
AcDbEntity
  8
1
100
AcDbLine
 10
-223.672032
 20
168.385301
 30
0.0
 11
-223.672032
 21
176.548666
 31
0.0
  0
LINE
  5
143
100
AcDbEntity
  8
1
100
AcDbLine
 10
-223.672032
 20
214.221936
 30
0.0
 11
-223.672032
 21
222.385301
 31
0.0
  0
ARC
  5
144
100
AcDbEntity
  8
1
100
AcDbCircle
 10
-228.672032
 20
214.221936
 30
0.0
 40
5.0
100
AcDbArc
 50
300.150455
 51
0.0
  0
ARC
  5
145
100
AcDbEntity
  8
1
100
AcDbCircle
 10
-228.672032
 20
176.548666
 30
0.0
 40
5.0
100
AcDbArc
 50
0.0
 51
59.849545
  0
ARC
  5
146
100
AcDbEntity
  8
1
100
AcDbCircle
 10
-223.147036
 20
204.710132
 30
0.0
 40
6.0
100
AcDbArc
 50
120.150455
 51
180.0
  0
ARC
  5
147
100
AcDbEntity
  8
1
100
AcDbCircle
 10
-223.147036
 20
186.06047
 30
0.0
 40
6.0
100
AcDbArc
 50
180.0
 51
239.849545
  0
LINE
  5
148
100
AcDbEntity
  8
1
100
AcDbLine
 10
-404.672032
 20
222.385301
 30
0.0
 11
-403.672032
 21
223.385301
 31
0.0
  0
LINE
  5
149
100
AcDbEntity
  8
1
100
AcDbLine
 10
-403.672032
 20
167.385301
 30
0.0
 11
-404.672032
 21
168.385301
 31
0.0
  0
LINE
  5
14A
100
AcDbEntity
  8
1
100
AcDbLine
 10
-365.166712
 20
167.385301
 30
0.0
 11
-403.672032
 21
167.385301
 31
0.0
  0
LINE
  5
14B
100
AcDbEntity
  8
1
100
AcDbLine
 10
-365.172032
 20
168.385301
 30
0.0
 11
-404.672032
 21
168.385301
 31
0.0
  0
LINE
  5
14C
100
AcDbEntity
  8
1
100
AcDbLine
 10
-399.197028
 20
186.06047
 30
0.0
 11
-399.197028
 21
204.710132
 31
0.0
  0
LINE
  5
14D
100
AcDbEntity
  8
1
100
AcDbLine
 10
-397.630105
 20
186.385301
 30
0.0
 11
-397.630105
 21
204.385301
 31
0.0
  0
LINE
  5
14E
100
AcDbEntity
  8
1
100
AcDbLine
 10
-365.172032
 20
180.385301
 30
0.0
 11
-391.630105
 21
180.385301
 31
0.0
  0
ARC
  5
14F
100
AcDbEntity
  8
1
100
AcDbCircle
 10
-391.630105
 20
204.385301
 30
0.0
 40
6.0
100
AcDbArc
 50
90.0
 51
180.0
  0
ARC
  5
150
100
AcDbEntity
  8
1
100
AcDbCircle
 10
-391.630105
 20
186.385301
 30
0.0
 40
6.0
100
AcDbArc
 50
180.0
 51
270.0
  0
LINE
  5
151
100
AcDbEntity
  8
1
100
AcDbLine
 10
-383.318616
 20
186.385301
 30
0.0
 11
-383.318616
 21
204.385301
 31
0.0
  0
LINE
  5
152
100
AcDbEntity
  8
1
100
AcDbLine
 10
-404.672032
 20
168.385301
 30
0.0
 11
-404.672032
 21
176.548666
 31
0.0
  0
LINE
  5
153
100
AcDbEntity
  8
1
100
AcDbLine
 10
-404.672032
 20
214.221936
 30
0.0
 11
-404.672032
 21
222.385301
 31
0.0
  0
ARC
  5
154
100
AcDbEntity
  8
1
100
AcDbCircle
 10
-399.672032
 20
214.221936
 30
0.0
 40
5.0
100
AcDbArc
 50
180.0
 51
239.849545
  0
ARC
  5
155
100
AcDbEntity
  8
1
100
AcDbCircle
 10
-399.672032
 20
176.548666
 30
0.0
 40
5.0
100
AcDbArc
 50
120.150455
 51
180.0
  0
ARC
  5
156
100
AcDbEntity
  8
1
100
AcDbCircle
 10
-405.197028
 20
204.710132
 30
0.0
 40
6.0
100
AcDbArc
 50
0.0
 51
59.849545
  0
ARC
  5
157
100
AcDbEntity
  8
1
100
AcDbCircle
 10
-405.197028
 20
186.06047
 30
0.0
 40
6.0
100
AcDbArc
 50
300.150455
 51
360.0
  0
LINE
  5
158
100
AcDbEntity
  8
1
100
AcDbLine
 10
-395.272032
 20
224.760301
 30
0.0
 11
-397.169144
 21
223.673414
 31
0.0
  0
LINE
  5
159
100
AcDbEntity
  8
1
100
AcDbLine
 10
-395.272032
 20
166.010301
 30
0.0
 11
-397.169144
 21
167.097188
 31
0.0
  0
ARC
  5
15A
100
AcDbEntity
  8
1
100
AcDbCircle
 10
-396.672032
 20
222.805727
 30
0.0
 40
1.0
100
AcDbArc
 50
119.809114
 51
144.579452
  0
ARC
  5
15B
100
AcDbEntity
  8
1
100
AcDbCircle
 10
-396.672032
 20
167.964874
 30
0.0
 40
1.0
100
AcDbArc
 50
215.420548
 51
240.190886
  0
LINE
  5
15C
100
AcDbEntity
  8
1
100
AcDbLine
 10
-233.072032
 20
224.760301
 30
0.0
 11
-231.17492
 21
223.673414
 31
0.0
  0
LINE
  5
15D
100
AcDbEntity
  8
1
100
AcDbLine
 10
-233.072032
 20
166.010301
 30
0.0
 11
-231.17492
 21
167.097188
 31
0.0
  0
ARC
  5
15E
100
AcDbEntity
  8
1
100
AcDbCircle
 10
-231.672032
 20
167.964874
 30
0.0
 40
1.0
100
AcDbArc
 50
299.809114
 51
324.579452
  0
ARC
  5
15F
100
AcDbEntity
  8
1
100
AcDbCircle
 10
-231.672032
 20
222.805727
 30
0.0
 40
1.0
100
AcDbArc
 50
35.420548
 51
60.190886
  0
LINE
  5
160
100
AcDbEntity
  8
1
100
AcDbLine
 10
-395.272032
 20
166.010301
 30
0.0
 11
-365.097112
 21
166.010301
 31
0.0
  0
LINE
  5
161
100
AcDbEntity
  8
1
100
AcDbLine
 10
-263.246952
 20
166.010301
 30
0.0
 11
-233.072032
 21
166.010301
 31
0.0
  0
LINE
  5
162
100
AcDbEntity
  8
1
100
AcDbLine
 10
71.527968
 20
-171.857556
 30
0.0
 11
89.527968
 21
-171.857556
 31
0.0
  0
LINE
  5
163
100
AcDbEntity
  8
1
100
AcDbLine
 10
71.527968
 20
-187.290457
 30
0.0
 11
89.527968
 21
-187.290457
 31
0.0
  0
LINE
  5
164
100
AcDbEntity
  8
1
100
AcDbLine
 10
71.527968
 20
-236.138942
 30
0.0
 11
89.527968
 21
-236.138942
 31
0.0
  0
LINE
  5
165
100
AcDbEntity
  8
1
100
AcDbLine
 10
71.527968
 20
-251.571842
 30
0.0
 11
89.527968
 21
-251.571842
 31
0.0
  0
LINE
  5
166
100
AcDbEntity
  8
1
100
AcDbLine
 10
94.051683
 20
-174.656273
 30
0.0
 11
92.044468
 21
-171.857556
 31
0.0
  0
LINE
  5
167
100
AcDbEntity
  8
1
100
AcDbLine
 10
67.004253
 20
-174.656273
 30
0.0
 11
69.011468
 21
-171.857556
 31
0.0
  0
LINE
  5
168
100
AcDbEntity
  8
1
100
AcDbLine
 10
66.770019
 20
-183.059303
 30
0.0
 11
69.011468
 21
-187.290457
 31
0.0
  0
LINE
  5
169
100
AcDbEntity
  8
1
100
AcDbLine
 10
94.285917
 20
-183.059303
 30
0.0
 11
92.044468
 21
-187.290457
 31
0.0
  0
LINE
  5
16A
100
AcDbEntity
  8
1
100
AcDbLine
 10
94.285917
 20
-240.370096
 30
0.0
 11
92.044468
 21
-236.138942
 31
0.0
  0
LINE
  5
16B
100
AcDbEntity
  8
1
100
AcDbLine
 10
69.011468
 20
-236.138942
 30
0.0
 11
66.770019
 21
-240.370096
 31
0.0
  0
LINE
  5
16C
100
AcDbEntity
  8
1
100
AcDbLine
 10
67.004253
 20
-248.773126
 30
0.0
 11
69.011468
 21
-251.571842
 31
0.0
  0
LINE
  5
16D
100
AcDbEntity
  8
1
100
AcDbLine
 10
92.044468
 20
-251.571842
 30
0.0
 11
94.051683
 21
-248.773126
 31
0.0
  0
LINE
  5
16E
100
AcDbEntity
  8
1
100
AcDbLine
 10
71.527968
 20
-145.249233
 30
0.0
 11
89.527968
 21
-145.249233
 31
0.0
  0
LINE
  5
16F
100
AcDbEntity
  8
1
100
AcDbLine
 10
71.527968
 20
-278.180165
 30
0.0
 11
89.527968
 21
-278.180165
 31
0.0
  0
LINE
  5
170
100
AcDbEntity
  8
1
100
AcDbLine
 10
94.882124
 20
-130.784919
 30
0.0
 11
92.044468
 21
-145.249233
 31
0.0
  0
LINE
  5
171
100
AcDbEntity
  8
1
100
AcDbLine
 10
66.173812
 20
-130.784919
 30
0.0
 11
69.011468
 21
-145.249233
 31
0.0
  0
LINE
  5
172
100
AcDbEntity
  8
1
100
AcDbLine
 10
92.044468
 20
-278.180165
 30
0.0
 11
94.888257
 21
-292.868799
 31
0.0
  0
LINE
  5
173
100
AcDbEntity
  8
1
100
AcDbLine
 10
66.167678
 20
-292.868799
 30
0.0
 11
69.011468
 21
-278.180165
 31
0.0
  0
ARC
  5
174
100
AcDbEntity
  8
1
100
AcDbCircle
 10
72.027968
 20
-119.929909
 30
0.0
 40
5.0
100
AcDbArc
 50
270.0
 51
360.0
  0
ARC
  5
175
100
AcDbEntity
  8
1
100
AcDbCircle
 10
89.027968
 20
-119.929909
 30
0.0
 40
5.0
100
AcDbArc
 50
180.0
 51
270.0
  0
ARC
  5
176
100
AcDbEntity
  8
1
100
AcDbCircle
 10
89.027968
 20
-311.714699
 30
0.0
 40
5.0
100
AcDbArc
 50
180.0
 51
270.0
  0
ARC
  5
177
100
AcDbEntity
  8
1
100
AcDbCircle
 10
72.027968
 20
-311.714699
 30
0.0
 40
5.0
100
AcDbArc
 50
270.0
 51
360.0
  0
ARC
  5
178
100
AcDbEntity
  8
1
100
AcDbCircle
 10
-362.672032
 20
-64.681595
 30
0.0
 40
30.0
100
AcDbArc
 50
0.0
 51
44.243056
  0
ARC
  5
179
100
AcDbEntity
  8
1
100
AcDbCircle
 10
-362.672032
 20
-64.681595
 30
0.0
 40
30.0
100
AcDbArc
 50
83.804662
 51
87.471424
  0
ARC
  5
17A
100
AcDbEntity
  8
1
100
AcDbCircle
 10
129.027968
 20
-64.681595
 30
0.0
 40
30.0
100
AcDbArc
 50
92.528576
 51
96.195338
  0
ARC
  5
17B
100
AcDbEntity
  8
1
100
AcDbCircle
 10
129.027968
 20
-64.681595
 30
0.0
 40
30.0
100
AcDbArc
 50
134.26024
 51
180.0
  0
LINE
  5
17C
100
AcDbEntity
  8
1
100
AcDbLine
 10
-395.272032
 20
224.760301
 30
0.0
 11
-368.504134
 21
224.760301
 31
0.0
  0
LINE
  5
17D
100
AcDbEntity
  8
1
  6
DASHED
100
AcDbLine
 10
-368.504134
 20
224.760301
 30
0.0
 11
-365.097112
 21
224.760301
 31
0.0
  0
LINE
  5
17E
100
AcDbEntity
  8
1
  6
DASHED
100
AcDbLine
 10
-365.166712
 20
223.385301
 30
0.0
 11
-368.57255
 21
223.385301
 31
0.0
  0
LINE
  5
17F
100
AcDbEntity
  8
1
100
AcDbLine
 10
-368.57255
 20
223.385301
 30
0.0
 11
-403.672032
 21
223.385301
 31
0.0
  0
LINE
  5
180
100
AcDbEntity
  8
1
  6
DASHED
100
AcDbLine
 10
-365.172032
 20
222.385301
 30
0.0
 11
-368.611112
 21
222.385301
 31
0.0
  0
LINE
  5
181
100
AcDbEntity
  8
1
100
AcDbLine
 10
-368.611112
 20
222.385301
 30
0.0
 11
-404.672032
 21
222.385301
 31
0.0
  0
LINE
  5
182
100
AcDbEntity
  8
1
  6
DASHED
100
AcDbLine
 10
-365.172032
 20
210.385301
 30
0.0
 11
-368.339935
 21
210.385301
 31
0.0
  0
LINE
  5
183
100
AcDbEntity
  8
1
100
AcDbLine
 10
-368.339935
 20
210.385301
 30
0.0
 11
-391.630105
 21
210.385301
 31
0.0
  0
LINE
  5
184
100
AcDbEntity
  8
1
100
AcDbLine
 10
-380.801955
 20
206.901961
 30
0.0
 11
-368.006351
 21
206.901961
 31
0.0
  0
LINE
  5
185
100
AcDbEntity
  8
1
  6
DASHED
100
AcDbLine
 10
-368.006351
 20
206.901961
 30
0.0
 11
-365.172032
 21
206.901961
 31
0.0
  0
LINE
  5
186
100
AcDbEntity
  8
1
  6
DASHED
100
AcDbLine
 10
-263.246952
 20
224.760301
 30
0.0
 11
-259.839931
 21
224.760301
 31
0.0
  0
LINE
  5
187
100
AcDbEntity
  8
1
100
AcDbLine
 10
-259.839931
 20
224.760301
 30
0.0
 11
-233.072032
 21
224.760301
 31
0.0
  0
LINE
  5
188
100
AcDbEntity
  8
1
  6
DASHED
100
AcDbLine
 10
-263.177352
 20
223.385301
 30
0.0
 11
-259.771515
 21
223.385301
 31
0.0
  0
LINE
  5
189
100
AcDbEntity
  8
1
100
AcDbLine
 10
-259.771515
 20
223.385301
 30
0.0
 11
-224.672032
 21
223.385301
 31
0.0
  0
LINE
  5
18A
100
AcDbEntity
  8
1
  6
DASHED
100
AcDbLine
 10
-263.172032
 20
222.385301
 30
0.0
 11
-259.732952
 21
222.385301
 31
0.0
  0
LINE
  5
18B
100
AcDbEntity
  8
1
100
AcDbLine
 10
-259.732952
 20
222.385301
 30
0.0
 11
-223.672032
 21
222.385301
 31
0.0
  0
LINE
  5
18C
100
AcDbEntity
  8
1
  6
DASHED
100
AcDbLine
 10
-263.172032
 20
210.385301
 30
0.0
 11
-260.004129
 21
210.385301
 31
0.0
  0
LINE
  5
18D
100
AcDbEntity
  8
1
100
AcDbLine
 10
-260.004129
 20
210.385301
 30
0.0
 11
-236.713959
 21
210.385301
 31
0.0
  0
LINE
  5
18E
100
AcDbEntity
  8
1
100
AcDbLine
 10
-247.542109
 20
206.901961
 30
0.0
 11
-260.337713
 21
206.901961
 31
0.0
  0
LINE
  5
18F
100
AcDbEntity
  8
1
  6
DASHED
100
AcDbLine
 10
-260.337713
 20
206.901961
 30
0.0
 11
-263.172032
 21
206.901961
 31
0.0
  0
LINE
  5
190
100
AcDbEntity
  8
2
100
AcDbLine
 10
-368.672032
 20
9.285301
 30
0.0
 11
-259.672032
 21
9.285301
 31
0.0
  0
LINE
  5
191
100
AcDbEntity
  8
2
100
AcDbLine
 10
39.027968
 20
9.285301
 30
0.0
 11
155.527968
 21
9.285301
 31
0.0
  0
CIRCLE
  5
192
100
AcDbEntity
  8
2
100
AcDbCircle
 10
133.527968
 20
9.285301
 30
0.0
 40
8.0
  0
LINE
  5
193
100
AcDbEntity
  8
2
  6
CENTER
 62
     2
100
AcDbLine
 10
-376.247868
 20
248.385301
 30
0.0
 11
-145.462346
 21
248.385301
 31
0.0
  0
LINE
  5
194
100
AcDbEntity
  8
2
  6
CENTER
 62
     2
100
AcDbLine
 10
-314.172032
 20
131.056981
 30
0.0
 11
-314.172032
 21
283.822053
 31
0.0
  0
LINE
  5
195
100
AcDbEntity
  8
2
  6
CENTER
 62
     2
100
AcDbLine
 10
133.527968
 20
79.551357
 30
0.0
 11
133.527968
 21
-62.948517
 31
0.0
  0
ARC
  5
196
100
AcDbEntity
  8
2
  6
CENTER
 62
     2
100
AcDbCircle
 10
-314.172032
 20
195.385301
 30
0.0
 40
35.0
100
AcDbArc
 50
120.476202
 51
148.950772
  0
ARC
  5
197
100
AcDbEntity
  8
2
  6
CENTER
 62
     2
100
AcDbCircle
 10
-314.172032
 20
195.385301
 30
0.0
 40
35.0
100
AcDbArc
 50
210.215258
 51
238.946865
  0
ARC
  5
198
100
AcDbEntity
  8
2
  6
CENTER
 62
     2
100
AcDbCircle
 10
-314.172032
 20
195.385301
 30
0.0
 40
35.0
100
AcDbArc
 50
300.984616
 51
328.483466
  0
ARC
  5
199
100
AcDbEntity
  8
2
  6
CENTER
 62
     2
100
AcDbCircle
 10
-314.172032
 20
195.385301
 30
0.0
 40
35.0
100
AcDbArc
 50
30.066922
 51
59.647029
  0
LINE
  5
19A
100
AcDbEntity
  8
2
  6
CENTER
 62
     2
100
AcDbLine
 10
-347.026322
 20
162.531011
 30
0.0
 11
-334.016225
 21
175.541108
 31
0.0
  0
LINE
  5
19B
100
AcDbEntity
  8
2
  6
CENTER
 62
     2
100
AcDbLine
 10
-294.435246
 20
215.122087
 30
0.0
 11
-281.476956
 21
228.080377
 31
0.0
  0
LINE
  5
19C
100
AcDbEntity
  8
2
  6
CENTER
 62
     2
100
AcDbLine
 10
-345.775296
 20
226.988565
 30
0.0
 11
-333.071141
 21
214.28441
 31
0.0
  0
LINE
  5
19D
100
AcDbEntity
  8
2
  6
CENTER
 62
     2
100
AcDbLine
 10
-294.70033
 20
175.913598
 30
0.0
 11
-282.211491
 21
163.42476
 31
0.0
  0
LINE
  5
19E
100
AcDbEntity
  8
2
  6
CENTER
 62
     2
100
AcDbLine
 10
-145.462346
 20
9.285301
 30
0.0
 11
-376.247868
 21
9.285301
 31
0.0
  0
LINE
  5
19F
100
AcDbEntity
  8
2
  6
CENTER
 62
     2
100
AcDbLine
 10
210.22119
 20
9.285301
 30
0.0
 11
16.199648
 21
9.285301
 31
0.0
  0
CIRCLE
  5
1A0
100
AcDbEntity
  8
2
100
AcDbCircle
 10
133.527968
 20
9.285301
 30
0.0
 40
6.25
  0
LINE
  5
1A1
100
AcDbEntity
  8
2
100
AcDbLine
 10
126.027968
 20
9.285301
 30
0.0
 11
129.777968
 21
15.780491
 31
0.0
  0
LINE
  5
1A2
100
AcDbEntity
  8
2
100
AcDbLine
 10
129.777968
 20
15.780491
 30
0.0
 11
137.277968
 21
15.780491
 31
0.0
  0
LINE
  5
1A3
100
AcDbEntity
  8
2
100
AcDbLine
 10
137.277968
 20
15.780491
 30
0.0
 11
141.027968
 21
9.285301
 31
0.0
  0
LINE
  5
1A4
100
AcDbEntity
  8
2
100
AcDbLine
 10
141.027968
 20
9.285301
 30
0.0
 11
137.277968
 21
2.79011
 31
0.0
  0
LINE
  5
1A5
100
AcDbEntity
  8
2
100
AcDbLine
 10
137.277968
 20
2.79011
 30
0.0
 11
129.777968
 21
2.79011
 31
0.0
  0
LINE
  5
1A6
100
AcDbEntity
  8
2
100
AcDbLine
 10
129.777968
 20
2.79011
 30
0.0
 11
126.027968
 21
9.285301
 31
0.0
  0
CIRCLE
  5
1A7
100
AcDbEntity
  8
2
100
AcDbCircle
 10
133.527968
 20
9.285301
 30
0.0
 40
7.7
  0
ARC
  5
1A8
100
AcDbEntity
  8
2
100
AcDbCircle
 10
-314.172032
 20
195.385301
 30
0.0
 40
21.0
100
AcDbArc
 50
13.774147
 51
76.225853
  0
ARC
  5
1A9
100
AcDbEntity
  8
2
100
AcDbCircle
 10
-314.172032
 20
195.385301
 30
0.0
 40
21.0
100
AcDbArc
 50
103.774147
 51
346.225853
  0
ARC
  5
1AA
100
AcDbEntity
  8
2
100
AcDbCircle
 10
-323.279099
 20
236.94242
 30
0.0
 40
2.857119
100
AcDbArc
 50
270.0
 51
360.0
  0
ARC
  5
1AB
100
AcDbEntity
  8
2
100
AcDbCircle
 10
-326.264788
 20
239.528112
 30
0.0
 40
2.857119
100
AcDbArc
 50
90.0
 51
180.0
  0
ARC
  5
1AC
100
AcDbEntity
  8
2
100
AcDbCircle
 10
-324.99337
 20
236.913849
 30
0.0
 40
1.42856
100
AcDbArc
 50
180.0
 51
270.0
  0
ARC
  5
1AD
100
AcDbEntity
  8
2
100
AcDbCircle
 10
-324.550517
 20
239.556684
 30
0.0
 40
1.42856
100
AcDbArc
 50
0.0
 51
90.0
  0
LINE
  5
1AE
100
AcDbEntity
  8
2
100
AcDbLine
 10
-316.522013
 20
240.985243
 30
0.0
 11
-316.82201
 21
234.085301
 31
0.0
  0
LINE
  5
1AF
100
AcDbEntity
  8
2
100
AcDbLine
 10
-311.822052
 20
240.985243
 30
0.0
 11
-311.522054
 21
234.085301
 31
0.0
  0
LINE
  5
1B0
100
AcDbEntity
  8
2
100
AcDbLine
 10
-316.522013
 20
240.985243
 30
0.0
 11
-315.236309
 21
234.085301
 31
0.0
  0
LINE
  5
1B1
100
AcDbEntity
  8
2
100
AcDbLine
 10
-314.172032
 20
237.413844
 30
0.0
 11
-313.245687
 21
242.385232
 31
0.0
  0
LINE
  5
1B2
100
AcDbEntity
  8
2
100
AcDbLine
 10
-318.921993
 20
242.385232
 30
0.0
 11
-315.098378
 21
242.385232
 31
0.0
  0
LINE
  5
1B3
100
AcDbEntity
  8
2
100
AcDbLine
 10
-315.236309
 20
234.085301
 30
0.0
 11
-313.107755
 21
234.085301
 31
0.0
  0
ARC
  5
1B4
100
AcDbEntity
  8
2
100
AcDbCircle
 10
-302.079276
 20
236.94242
 30
0.0
 40
2.857119
100
AcDbArc
 50
270.0
 51
360.0
  0
ARC
  5
1B5
100
AcDbEntity
  8
2
100
AcDbCircle
 10
-303.350694
 20
236.913849
 30
0.0
 40
1.42856
100
AcDbArc
 50
270.0
 51
360.0
  0
LINE
  5
1B6
100
AcDbEntity
  8
2
100
AcDbLine
 10
-305.222107
 20
239.556684
 30
0.0
 11
-305.222107
 21
236.913849
 31
0.0
  0
ARC
  5
1B7
100
AcDbEntity
  8
2
100
AcDbCircle
 10
-305.064965
 20
239.528112
 30
0.0
 40
2.857119
100
AcDbArc
 50
90.0
 51
180.0
  0
LINE
  5
1B8
100
AcDbEntity
  8
2
100
AcDbLine
 10
-307.922084
 20
239.528112
 30
0.0
 11
-307.922084
 21
236.94242
 31
0.0
  0
LINE
  5
1B9
100
AcDbEntity
  8
2
100
AcDbLine
 10
-311.522054
 20
234.085301
 30
0.0
 11
-308.822077
 21
234.085301
 31
0.0
  0
LINE
  5
1BA
100
AcDbEntity
  8
2
100
AcDbLine
 10
-298.022167
 20
234.285299
 30
0.0
 11
-291.522221
 21
234.285299
 31
0.0
  0
LINE
  5
1BB
100
AcDbEntity
  8
2
100
AcDbLine
 10
-295.322189
 20
237.485272
 30
0.0
 11
-291.522221
 21
237.485272
 31
0.0
  0
LINE
  5
1BC
100
AcDbEntity
  8
2
100
AcDbLine
 10
-295.322189
 20
238.98526
 30
0.0
 11
-291.522221
 21
238.98526
 31
0.0
  0
LINE
  5
1BD
100
AcDbEntity
  8
2
100
AcDbLine
 10
-295.322189
 20
235.785287
 30
0.0
 11
-295.322189
 21
237.485272
 31
0.0
  0
LINE
  5
1BE
100
AcDbEntity
  8
2
100
AcDbLine
 10
-295.322189
 20
238.98526
 30
0.0
 11
-295.322189
 21
240.685246
 31
0.0
  0
LINE
  5
1BF
100
AcDbEntity
  8
2
100
AcDbLine
 10
-333.62187
 20
240.685246
 30
0.0
 11
-330.921893
 21
240.685246
 31
0.0
  0
LINE
  5
1C0
100
AcDbEntity
  8
2
100
AcDbLine
 10
-337.121841
 20
238.98526
 30
0.0
 11
-326.621928
 21
244.085217
 31
0.0
  0
LINE
  5
1C1
100
AcDbEntity
  8
2
100
AcDbLine
 10
-337.121841
 20
238.98526
 30
0.0
 11
-337.121841
 21
244.085217
 31
0.0
  0
LINE
  5
1C2
100
AcDbEntity
  8
2
100
AcDbLine
 10
-330.921893
 20
240.685246
 30
0.0
 11
-330.921893
 21
234.085301
 31
0.0
  0
LINE
  5
1C3
100
AcDbEntity
  8
2
100
AcDbLine
 10
-329.121908
 20
239.528112
 30
0.0
 11
-329.121908
 21
236.94242
 31
0.0
  0
LINE
  5
1C4
100
AcDbEntity
  8
2
100
AcDbLine
 10
-320.42198
 20
239.528112
 30
0.0
 11
-320.42198
 21
236.94242
 31
0.0
  0
LINE
  5
1C5
100
AcDbEntity
  8
2
100
AcDbLine
 10
-326.42193
 20
239.556684
 30
0.0
 11
-326.42193
 21
236.913849
 31
0.0
  0
LINE
  5
1C6
100
AcDbEntity
  8
2
100
AcDbLine
 10
-323.121958
 20
239.556684
 30
0.0
 11
-323.121958
 21
236.913849
 31
0.0
  0
ARC
  5
1C7
100
AcDbEntity
  8
2
100
AcDbCircle
 10
-326.264788
 20
236.94242
 30
0.0
 40
2.857119
100
AcDbArc
 50
180.0
 51
270.0
  0
ARC
  5
1C8
100
AcDbEntity
  8
2
100
AcDbCircle
 10
-323.279099
 20
239.528112
 30
0.0
 40
2.857119
100
AcDbArc
 50
360.0
 51
90.0
  0
ARC
  5
1C9
100
AcDbEntity
  8
2
100
AcDbCircle
 10
-324.550517
 20
236.913849
 30
0.0
 40
1.42856
100
AcDbArc
 50
270.0
 51
360.0
  0
ARC
  5
1CA
100
AcDbEntity
  8
2
100
AcDbCircle
 10
-324.99337
 20
239.556684
 30
0.0
 40
1.42856
100
AcDbArc
 50
90.0
 51
180.0
  0
LINE
  5
1CB
100
AcDbEntity
  8
2
100
AcDbLine
 10
-333.62187
 20
234.085301
 30
0.0
 11
-330.921893
 21
234.085301
 31
0.0
  0
LINE
  5
1CC
100
AcDbEntity
  8
2
100
AcDbLine
 10
-318.921993
 20
242.385232
 30
0.0
 11
-319.521988
 21
234.085301
 31
0.0
  0
LINE
  5
1CD
100
AcDbEntity
  8
2
100
AcDbLine
 10
-309.422072
 20
242.385232
 30
0.0
 11
-308.822077
 21
234.085301
 31
0.0
  0
LINE
  5
1CE
100
AcDbEntity
  8
2
100
AcDbLine
 10
-311.822052
 20
240.985243
 30
0.0
 11
-313.107755
 21
234.085301
 31
0.0
  0
LINE
  5
1CF
100
AcDbEntity
  8
2
100
AcDbLine
 10
-314.172032
 20
237.413844
 30
0.0
 11
-315.098378
 21
242.385232
 31
0.0
  0
LINE
  5
1D0
100
AcDbEntity
  8
2
100
AcDbLine
 10
-326.264788
 20
242.385232
 30
0.0
 11
-323.279099
 21
242.385232
 31
0.0
  0
LINE
  5
1D1
100
AcDbEntity
  8
2
100
AcDbLine
 10
-326.264788
 20
234.085301
 30
0.0
 11
-323.279099
 21
234.085301
 31
0.0
  0
LINE
  5
1D2
100
AcDbEntity
  8
2
100
AcDbLine
 10
-319.521988
 20
234.085301
 30
0.0
 11
-316.82201
 21
234.085301
 31
0.0
  0
ARC
  5
1D3
100
AcDbEntity
  8
2
100
AcDbCircle
 10
-305.064965
 20
236.94242
 30
0.0
 40
2.857119
100
AcDbArc
 50
180.0
 51
270.0
  0
LINE
  5
1D4
100
AcDbEntity
  8
2
100
AcDbLine
 10
-301.922134
 20
239.556684
 30
0.0
 11
-301.922134
 21
236.913849
 31
0.0
  0
ARC
  5
1D5
100
AcDbEntity
  8
2
100
AcDbCircle
 10
-303.793547
 20
236.913849
 30
0.0
 40
1.42856
100
AcDbArc
 50
180.0
 51
270.0
  0
ARC
  5
1D6
100
AcDbEntity
  8
2
100
AcDbCircle
 10
-303.350694
 20
239.556684
 30
0.0
 40
1.42856
100
AcDbArc
 50
0.0
 51
90.0
  0
ARC
  5
1D7
100
AcDbEntity
  8
2
100
AcDbCircle
 10
-303.793547
 20
239.556684
 30
0.0
 40
1.42856
100
AcDbArc
 50
90.0
 51
180.0
  0
ARC
  5
1D8
100
AcDbEntity
  8
2
100
AcDbCircle
 10
-302.079276
 20
239.528112
 30
0.0
 40
2.857119
100
AcDbArc
 50
360.0
 51
90.0
  0
LINE
  5
1D9
100
AcDbEntity
  8
2
100
AcDbLine
 10
-299.222157
 20
239.528112
 30
0.0
 11
-299.222157
 21
236.94242
 31
0.0
  0
LINE
  5
1DA
100
AcDbEntity
  8
2
100
AcDbLine
 10
-324.550517
 20
240.985243
 30
0.0
 11
-324.99337
 21
240.985243
 31
0.0
  0
LINE
  5
1DB
100
AcDbEntity
  8
2
100
AcDbLine
 10
-324.550517
 20
235.485289
 30
0.0
 11
-324.99337
 21
235.485289
 31
0.0
  0
LINE
  5
1DC
100
AcDbEntity
  8
2
100
AcDbLine
 10
-303.793547
 20
240.985243
 30
0.0
 11
-303.350694
 21
240.985243
 31
0.0
  0
LINE
  5
1DD
100
AcDbEntity
  8
2
100
AcDbLine
 10
-313.245687
 20
242.385232
 30
0.0
 11
-309.422072
 21
242.385232
 31
0.0
  0
LINE
  5
1DE
100
AcDbEntity
  8
2
100
AcDbLine
 10
-305.064965
 20
242.385232
 30
0.0
 11
-302.079276
 21
242.385232
 31
0.0
  0
LINE
  5
1DF
100
AcDbEntity
  8
2
100
AcDbLine
 10
-305.064965
 20
234.085301
 30
0.0
 11
-302.079276
 21
234.085301
 31
0.0
  0
LINE
  5
1E0
100
AcDbEntity
  8
2
100
AcDbLine
 10
-298.022167
 20
242.185233
 30
0.0
 11
-298.022167
 21
234.285299
 31
0.0
  0
LINE
  5
1E1
100
AcDbEntity
  8
2
100
AcDbLine
 10
-298.022167
 20
242.185233
 30
0.0
 11
-291.522221
 21
242.185233
 31
0.0
  0
LINE
  5
1E2
100
AcDbEntity
  8
2
100
AcDbLine
 10
-295.322189
 20
235.785287
 30
0.0
 11
-291.522221
 21
235.785287
 31
0.0
  0
LINE
  5
1E3
100
AcDbEntity
  8
2
100
AcDbLine
 10
-295.322189
 20
240.685246
 30
0.0
 11
-291.522221
 21
240.685246
 31
0.0
  0
LINE
  5
1E4
100
AcDbEntity
  8
2
100
AcDbLine
 10
-291.522221
 20
240.685246
 30
0.0
 11
-291.522221
 21
242.185233
 31
0.0
  0
LINE
  5
1E5
100
AcDbEntity
  8
2
100
AcDbLine
 10
-291.522221
 20
234.285299
 30
0.0
 11
-291.522221
 21
235.785287
 31
0.0
  0
LINE
  5
1E6
100
AcDbEntity
  8
2
100
AcDbLine
 10
-291.522221
 20
237.485272
 30
0.0
 11
-291.522221
 21
238.98526
 31
0.0
  0
LINE
  5
1E7
100
AcDbEntity
  8
2
100
AcDbLine
 10
-333.62187
 20
240.685246
 30
0.0
 11
-333.62187
 21
234.085301
 31
0.0
  0
LINE
  5
1E8
100
AcDbEntity
  8
2
100
AcDbLine
 10
-337.121841
 20
244.085217
 30
0.0
 11
-326.621928
 21
244.085217
 31
0.0
  0
LINE
  5
1E9
100
AcDbEntity
  8
2
100
AcDbLine
 10
-303.793547
 20
235.485289
 30
0.0
 11
-303.350694
 21
235.485289
 31
0.0
  0
ARC
  5
1EA
100
AcDbEntity
  8
2
100
AcDbCircle
 10
-366.072032
 20
218.785301
 30
0.0
 40
106.4
100
AcDbArc
 50
340.808196
 51
25.565032
  0
ARC
  5
1EB
100
AcDbEntity
  8
2
100
AcDbCircle
 10
-262.272032
 20
218.785301
 30
0.0
 40
106.4
100
AcDbArc
 50
154.434968
 51
199.191804
  0
LINE
  5
1EC
100
AcDbEntity
  8
2
100
AcDbLine
 10
-349.234093
 20
270.385301
 30
0.0
 11
-279.109971
 21
270.385301
 31
0.0
  0
ARC
  5
1ED
100
AcDbEntity
  8
2
100
AcDbCircle
 10
-279.109971
 20
260.385301
 30
0.0
 40
10.0
100
AcDbArc
 50
25.565032
 51
90.0
  0
ARC
  5
1EE
100
AcDbEntity
  8
2
100
AcDbCircle
 10
-349.234093
 20
260.385301
 30
0.0
 40
10.0
100
AcDbArc
 50
90.0
 51
154.434968
  0
LINE
  5
1EF
100
AcDbEntity
  8
2
100
AcDbLine
 10
-271.227798
 20
167.597985
 30
0.0
 11
-265.585382
 21
183.808264
 31
0.0
  0
LINE
  5
1F0
100
AcDbEntity
  8
2
100
AcDbLine
 10
-362.758682
 20
183.808264
 30
0.0
 11
-357.116266
 21
167.597985
 31
0.0
  0
ARC
  5
1F1
100
AcDbEntity
  8
2
100
AcDbCircle
 10
-280.672032
 20
170.885301
 30
0.0
 40
10.0
100
AcDbArc
 50
270.0
 51
340.808196
  0
ARC
  5
1F2
100
AcDbEntity
  8
2
100
AcDbCircle
 10
-347.672032
 20
170.885301
 30
0.0
 40
10.0
100
AcDbArc
 50
199.191804
 51
270.0
  0
ARC
  5
1F3
100
AcDbEntity
  8
2
100
AcDbCircle
 10
-289.423295
 20
220.134038
 30
0.0
 40
6.0
100
AcDbArc
 50
317.388015
 51
132.611985
  0
ARC
  5
1F4
100
AcDbEntity
  8
2
100
AcDbCircle
 10
-289.423295
 20
170.636563
 30
0.0
 40
6.0
100
AcDbArc
 50
227.388015
 51
42.611985
  0
ARC
  5
1F5
100
AcDbEntity
  8
2
100
AcDbCircle
 10
-338.920769
 20
170.636563
 30
0.0
 40
6.0
100
AcDbArc
 50
137.388015
 51
312.611985
  0
ARC
  5
1F6
100
AcDbEntity
  8
2
100
AcDbCircle
 10
-314.172032
 20
195.385301
 30
0.0
 40
33.5
100
AcDbArc
 50
239.262291
 51
300.737709
  0
ARC
  5
1F7
100
AcDbEntity
  8
2
100
AcDbCircle
 10
-338.920769
 20
220.134038
 30
0.0
 40
6.0
100
AcDbArc
 50
47.388015
 51
222.611985
  0
ARC
  5
1F8
100
AcDbEntity
  8
2
100
AcDbCircle
 10
-314.172032
 20
195.385301
 30
0.0
 40
33.5
100
AcDbArc
 50
149.262291
 51
210.737709
  0
ARC
  5
1F9
100
AcDbEntity
  8
2
100
AcDbCircle
 10
-282.799695
 20
214.040769
 30
0.0
 40
3.0
100
AcDbArc
 50
137.388015
 51
210.737709
  0
ARC
  5
1FA
100
AcDbEntity
  8
2
100
AcDbCircle
 10
-295.516564
 20
226.757637
 30
0.0
 40
3.0
100
AcDbArc
 50
239.262291
 51
312.611985
  0
ARC
  5
1FB
100
AcDbEntity
  8
2
100
AcDbCircle
 10
-282.799695
 20
176.729833
 30
0.0
 40
3.0
100
AcDbArc
 50
149.262291
 51
222.611985
  0
ARC
  5
1FC
100
AcDbEntity
  8
2
100
AcDbCircle
 10
-295.516564
 20
164.012964
 30
0.0
 40
3.0
100
AcDbArc
 50
47.388015
 51
120.737709
  0
ARC
  5
1FD
100
AcDbEntity
  8
2
100
AcDbCircle
 10
-332.8275
 20
164.012964
 30
0.0
 40
3.0
100
AcDbArc
 50
59.262291
 51
132.611985
  0
ARC
  5
1FE
100
AcDbEntity
  8
2
100
AcDbCircle
 10
-345.544369
 20
176.729833
 30
0.0
 40
3.0
100
AcDbArc
 50
317.388015
 51
30.737709
  0
ARC
  5
1FF
100
AcDbEntity
  8
2
100
AcDbCircle
 10
-345.544369
 20
214.040769
 30
0.0
 40
3.0
100
AcDbArc
 50
329.262291
 51
42.611985
  0
ARC
  5
200
100
AcDbEntity
  8
2
100
AcDbCircle
 10
-332.8275
 20
226.757637
 30
0.0
 40
3.0
100
AcDbArc
 50
227.388015
 51
300.737709
  0
LINE
  5
201
100
AcDbEntity
  8
2
100
AcDbLine
 10
-320.172032
 20
216.551311
 30
0.0
 11
-320.172032
 21
229.385301
 31
0.0
  0
LINE
  5
202
100
AcDbEntity
  8
2
100
AcDbLine
 10
-308.172032
 20
216.551311
 30
0.0
 11
-308.172032
 21
229.385301
 31
0.0
  0
LINE
  5
203
100
AcDbEntity
  8
2
100
AcDbLine
 10
-293.006022
 20
201.385301
 30
0.0
 11
-280.172032
 21
201.385301
 31
0.0
  0
LINE
  5
204
100
AcDbEntity
  8
2
100
AcDbLine
 10
-293.006022
 20
189.385301
 30
0.0
 11
-280.172032
 21
189.385301
 31
0.0
  0
LINE
  5
205
100
AcDbEntity
  8
2
100
AcDbLine
 10
-278.172032
 20
191.385301
 30
0.0
 11
-278.172032
 21
199.385301
 31
0.0
  0
LINE
  5
206
100
AcDbEntity
  8
2
100
AcDbLine
 10
-318.172032
 20
231.385301
 30
0.0
 11
-310.172032
 21
231.385301
 31
0.0
  0
ARC
  5
207
100
AcDbEntity
  8
2
100
AcDbCircle
 10
-314.172032
 20
195.385301
 30
0.0
 40
33.5
100
AcDbArc
 50
59.262291
 51
79.682397
  0
ARC
  5
208
100
AcDbEntity
  8
2
100
AcDbCircle
 10
-314.172032
 20
195.385301
 30
0.0
 40
33.5
100
AcDbArc
 50
100.317603
 51
120.737709
  0
ARC
  5
209
100
AcDbEntity
  8
2
100
AcDbCircle
 10
-314.172032
 20
195.385301
 30
0.0
 40
22.0
100
AcDbArc
 50
105.82662
 51
344.17338
  0
ARC
  5
20A
100
AcDbEntity
  8
2
100
AcDbCircle
 10
-314.172032
 20
195.385301
 30
0.0
 40
22.0
100
AcDbArc
 50
15.82662
 51
74.17338
  0
ARC
  5
20B
100
AcDbEntity
  8
2
100
AcDbCircle
 10
-314.172032
 20
195.385301
 30
0.0
 40
33.5
100
AcDbArc
 50
329.262291
 51
349.682397
  0
ARC
  5
20C
100
AcDbEntity
  8
2
100
AcDbCircle
 10
-314.172032
 20
195.385301
 30
0.0
 40
33.5
100
AcDbArc
 50
10.317603
 51
30.737709
  0
ARC
  5
20D
100
AcDbEntity
  8
2
100
AcDbCircle
 10
-310.172032
 20
229.385301
 30
0.0
 40
2.0
100
AcDbArc
 50
0.0
 51
90.0
  0
ARC
  5
20E
100
AcDbEntity
  8
2
100
AcDbCircle
 10
-318.172032
 20
229.385301
 30
0.0
 40
2.0
100
AcDbArc
 50
90.0
 51
180.0
  0
ARC
  5
20F
100
AcDbEntity
  8
2
100
AcDbCircle
 10
-280.172032
 20
199.385301
 30
0.0
 40
2.0
100
AcDbArc
 50
0.0
 51
90.0
  0
ARC
  5
210
100
AcDbEntity
  8
2
100
AcDbCircle
 10
-280.172032
 20
191.385301
 30
0.0
 40
2.0
100
AcDbArc
 50
270.0
 51
360.0
  0
LINE
  5
211
100
AcDbEntity
  8
2
100
AcDbLine
 10
-293.775954
 20
200.385301
 30
0.0
 11
-280.172032
 21
200.385301
 31
0.0
  0
LINE
  5
212
100
AcDbEntity
  8
2
100
AcDbLine
 10
-293.775954
 20
190.385301
 30
0.0
 11
-280.172032
 21
190.385301
 31
0.0
  0
LINE
  5
213
100
AcDbEntity
  8
2
100
AcDbLine
 10
-279.172032
 20
191.385301
 30
0.0
 11
-279.172032
 21
199.385301
 31
0.0
  0
LINE
  5
214
100
AcDbEntity
  8
2
100
AcDbLine
 10
-309.172032
 20
215.781379
 30
0.0
 11
-309.172032
 21
229.385301
 31
0.0
  0
LINE
  5
215
100
AcDbEntity
  8
2
100
AcDbLine
 10
-319.172032
 20
215.781379
 30
0.0
 11
-319.172032
 21
229.385301
 31
0.0
  0
LINE
  5
216
100
AcDbEntity
  8
2
100
AcDbLine
 10
-318.172032
 20
230.385301
 30
0.0
 11
-310.172032
 21
230.385301
 31
0.0
  0
ARC
  5
217
100
AcDbEntity
  8
2
100
AcDbCircle
 10
-280.172032
 20
199.385301
 30
0.0
 40
1.0
100
AcDbArc
 50
0.0
 51
90.0
  0
ARC
  5
218
100
AcDbEntity
  8
2
100
AcDbCircle
 10
-280.172032
 20
191.385301
 30
0.0
 40
1.0
100
AcDbArc
 50
270.0
 51
360.0
  0
ARC
  5
219
100
AcDbEntity
  8
2
100
AcDbCircle
 10
-310.172032
 20
229.385301
 30
0.0
 40
1.0
100
AcDbArc
 50
0.0
 51
90.0
  0
ARC
  5
21A
100
AcDbEntity
  8
2
100
AcDbCircle
 10
-318.172032
 20
229.385301
 30
0.0
 40
1.0
100
AcDbArc
 50
90.0
 51
180.0
  0
LINE
  5
21B
100
AcDbEntity
  8
2
100
AcDbLine
 10
-293.775954
 20
200.385301
 30
0.0
 11
-293.006022
 21
201.385301
 31
0.0
  0
LINE
  5
21C
100
AcDbEntity
  8
2
100
AcDbLine
 10
-293.006022
 20
189.385301
 30
0.0
 11
-293.775954
 21
190.385301
 31
0.0
  0
LINE
  5
21D
100
AcDbEntity
  8
2
100
AcDbLine
 10
-308.172032
 20
216.551311
 30
0.0
 11
-309.172032
 21
215.781379
 31
0.0
  0
LINE
  5
21E
100
AcDbEntity
  8
2
100
AcDbLine
 10
-319.172032
 20
215.781379
 30
0.0
 11
-320.172032
 21
216.551311
 31
0.0
  0
ARC
  5
21F
100
AcDbEntity
  8
2
100
AcDbCircle
 10
-314.172032
 20
195.385301
 30
0.0
 40
32.5
100
AcDbArc
 50
10.638709
 51
30.737709
  0
ARC
  5
220
100
AcDbEntity
  8
2
100
AcDbCircle
 10
-314.172032
 20
195.385301
 30
0.0
 40
32.5
100
AcDbArc
 50
59.262291
 51
79.361291
  0
ARC
  5
221
100
AcDbEntity
  8
2
100
AcDbCircle
 10
-314.172032
 20
195.385301
 30
0.0
 40
32.5
100
AcDbArc
 50
100.638709
 51
120.737709
  0
ARC
  5
222
100
AcDbEntity
  8
2
100
AcDbCircle
 10
-314.172032
 20
195.385301
 30
0.0
 40
32.5
100
AcDbArc
 50
149.262291
 51
210.737709
  0
ARC
  5
223
100
AcDbEntity
  8
2
100
AcDbCircle
 10
-314.172032
 20
195.385301
 30
0.0
 40
32.5
100
AcDbArc
 50
239.262291
 51
300.737709
  0
ARC
  5
224
100
AcDbEntity
  8
2
100
AcDbCircle
 10
-314.172032
 20
195.385301
 30
0.0
 40
32.5
100
AcDbArc
 50
329.262291
 51
349.361291
  0
ARC
  5
225
100
AcDbEntity
  8
2
100
AcDbCircle
 10
-289.423295
 20
170.636563
 30
0.0
 40
5.0
100
AcDbArc
 50
227.388015
 51
42.611985
  0
ARC
  5
226
100
AcDbEntity
  8
2
100
AcDbCircle
 10
-289.423295
 20
220.134038
 30
0.0
 40
5.0
100
AcDbArc
 50
317.388015
 51
132.611985
  0
ARC
  5
227
100
AcDbEntity
  8
2
100
AcDbCircle
 10
-338.920769
 20
220.134038
 30
0.0
 40
5.0
100
AcDbArc
 50
47.388015
 51
222.611985
  0
ARC
  5
228
100
AcDbEntity
  8
2
100
AcDbCircle
 10
-338.920769
 20
170.636563
 30
0.0
 40
5.0
100
AcDbArc
 50
137.388015
 51
312.611985
  0
ARC
  5
229
100
AcDbEntity
  8
2
100
AcDbCircle
 10
-295.516564
 20
226.757637
 30
0.0
 40
4.0
100
AcDbArc
 50
239.262291
 51
312.611985
  0
ARC
  5
22A
100
AcDbEntity
  8
2
100
AcDbCircle
 10
-282.799695
 20
214.040769
 30
0.0
 40
4.0
100
AcDbArc
 50
137.388015
 51
210.737709
  0
ARC
  5
22B
100
AcDbEntity
  8
2
100
AcDbCircle
 10
-282.799695
 20
176.729833
 30
0.0
 40
4.0
100
AcDbArc
 50
149.262291
 51
222.611985
  0
ARC
  5
22C
100
AcDbEntity
  8
2
100
AcDbCircle
 10
-295.516564
 20
164.012964
 30
0.0
 40
4.0
100
AcDbArc
 50
47.388015
 51
120.737709
  0
ARC
  5
22D
100
AcDbEntity
  8
2
100
AcDbCircle
 10
-332.8275
 20
164.012964
 30
0.0
 40
4.0
100
AcDbArc
 50
59.262291
 51
132.611985
  0
ARC
  5
22E
100
AcDbEntity
  8
2
100
AcDbCircle
 10
-345.544369
 20
176.729833
 30
0.0
 40
4.0
100
AcDbArc
 50
317.388015
 51
30.737709
  0
ARC
  5
22F
100
AcDbEntity
  8
2
100
AcDbCircle
 10
-345.544369
 20
214.040769
 30
0.0
 40
4.0
100
AcDbArc
 50
329.262291
 51
42.611985
  0
ARC
  5
230
100
AcDbEntity
  8
2
100
AcDbCircle
 10
-332.8275
 20
226.757637
 30
0.0
 40
4.0
100
AcDbArc
 50
227.388015
 51
300.737709
  0
LINE
  5
231
100
AcDbEntity
  8
2
100
AcDbLine
 10
-347.672032
 20
160.885301
 30
0.0
 11
-329.599281
 21
160.885301
 31
0.0
  0
LINE
  5
232
100
AcDbEntity
  8
2
100
AcDbLine
 10
-298.744783
 20
160.885301
 30
0.0
 11
-280.422032
 21
160.885301
 31
0.0
  0
ARC
  5
233
100
AcDbEntity
  8
2
100
AcDbCircle
 10
-314.172032
 20
164.385301
 30
0.0
 40
10.5
100
AcDbArc
 50
221.18836
 51
318.81164
  0
ARC
  5
234
100
AcDbEntity
  8
2
100
AcDbCircle
 10
-329.599281
 20
150.885301
 30
0.0
 40
10.0
100
AcDbArc
 50
41.18836
 51
90.0
  0
ARC
  5
235
100
AcDbEntity
  8
2
100
AcDbCircle
 10
-298.744783
 20
150.885301
 30
0.0
 40
10.0
100
AcDbArc
 50
90.0
 51
138.81164
  0
LINE
  5
236
100
AcDbEntity
  8
2
100
AcDbLine
 10
-314.672032
 20
217.385301
 30
0.0
 11
-313.672032
 21
217.385301
 31
0.0
  0
LINE
  5
237
100
AcDbEntity
  8
2
100
AcDbLine
 10
-314.672032
 20
210.385301
 30
0.0
 11
-313.672032
 21
210.385301
 31
0.0
  0
LINE
  5
238
100
AcDbEntity
  8
2
100
AcDbLine
 10
-299.172032
 20
195.885301
 30
0.0
 11
-299.172032
 21
194.885301
 31
0.0
  0
LINE
  5
239
100
AcDbEntity
  8
2
100
AcDbLine
 10
-292.172032
 20
195.885301
 30
0.0
 11
-292.172032
 21
194.885301
 31
0.0
  0
LINE
  5
23A
100
AcDbEntity
  8
2
100
AcDbLine
 10
-315.672032
 20
211.385301
 30
0.0
 11
-315.672032
 21
216.385301
 31
0.0
  0
LINE
  5
23B
100
AcDbEntity
  8
2
100
AcDbLine
 10
-312.672032
 20
211.385301
 30
0.0
 11
-312.672032
 21
216.385301
 31
0.0
  0
LINE
  5
23C
100
AcDbEntity
  8
2
100
AcDbLine
 10
-298.172032
 20
196.885301
 30
0.0
 11
-293.172032
 21
196.885301
 31
0.0
  0
LINE
  5
23D
100
AcDbEntity
  8
2
100
AcDbLine
 10
-298.172032
 20
193.885301
 30
0.0
 11
-293.172032
 21
193.885301
 31
0.0
  0
ARC
  5
23E
100
AcDbEntity
  8
2
100
AcDbCircle
 10
-298.172032
 20
195.885301
 30
0.0
 40
1.0
100
AcDbArc
 50
90.0
 51
180.0
  0
ARC
  5
23F
100
AcDbEntity
  8
2
100
AcDbCircle
 10
-298.172032
 20
194.885301
 30
0.0
 40
1.0
100
AcDbArc
 50
180.0
 51
270.0
  0
ARC
  5
240
100
AcDbEntity
  8
2
100
AcDbCircle
 10
-293.172032
 20
194.885301
 30
0.0
 40
1.0
100
AcDbArc
 50
270.0
 51
360.0
  0
ARC
  5
241
100
AcDbEntity
  8
2
100
AcDbCircle
 10
-293.172032
 20
195.885301
 30
0.0
 40
1.0
100
AcDbArc
 50
0.0
 51
90.0
  0
ARC
  5
242
100
AcDbEntity
  8
2
100
AcDbCircle
 10
-313.672032
 20
211.385301
 30
0.0
 40
1.0
100
AcDbArc
 50
270.0
 51
360.0
  0
ARC
  5
243
100
AcDbEntity
  8
2
100
AcDbCircle
 10
-314.672032
 20
211.385301
 30
0.0
 40
1.0
100
AcDbArc
 50
180.0
 51
270.0
  0
ARC
  5
244
100
AcDbEntity
  8
2
100
AcDbCircle
 10
-314.672032
 20
216.385301
 30
0.0
 40
1.0
100
AcDbArc
 50
90.0
 51
180.0
  0
ARC
  5
245
100
AcDbEntity
  8
2
100
AcDbCircle
 10
-313.672032
 20
216.385301
 30
0.0
 40
1.0
100
AcDbArc
 50
0.0
 51
90.0
  0
LINE
  5
246
100
AcDbEntity
  8
2
100
AcDbLine
 10
-300.815626
 20
204.251326
 30
0.0
 11
-298.217549
 21
205.751326
 31
0.0
  0
LINE
  5
247
100
AcDbEntity
  8
2
100
AcDbLine
 10
-299.815626
 20
202.519275
 30
0.0
 11
-297.217549
 21
204.019275
 31
0.0
  0
LINE
  5
248
100
AcDbEntity
  8
2
100
AcDbLine
 10
-305.306007
 20
208.741707
 30
0.0
 11
-303.806007
 21
211.339783
 31
0.0
  0
LINE
  5
249
100
AcDbEntity
  8
2
100
AcDbLine
 10
-307.038058
 20
209.741707
 30
0.0
 11
-305.538058
 21
212.339783
 31
0.0
  0
ARC
  5
24A
100
AcDbEntity
  8
2
100
AcDbCircle
 10
-297.717549
 20
204.885301
 30
0.0
 40
1.0
100
AcDbArc
 50
300.0
 51
120.0
  0
ARC
  5
24B
100
AcDbEntity
  8
2
100
AcDbCircle
 10
-300.315626
 20
203.385301
 30
0.0
 40
1.0
100
AcDbArc
 50
120.0
 51
300.0
  0
ARC
  5
24C
100
AcDbEntity
  8
2
100
AcDbCircle
 10
-306.172032
 20
209.241707
 30
0.0
 40
1.0
100
AcDbArc
 50
150.0
 51
330.0
  0
ARC
  5
24D
100
AcDbEntity
  8
2
100
AcDbCircle
 10
-304.672032
 20
211.839783
 30
0.0
 40
1.0
100
AcDbArc
 50
330.0
 51
150.0
  0
CIRCLE
  5
24E
100
AcDbEntity
  8
2
100
AcDbCircle
 10
-314.172032
 20
195.385301
 30
0.0
 40
13.0
  0
LINE
  5
24F
100
AcDbEntity
  8
2
100
AcDbLine
 10
-341.672032
 20
144.385301
 30
0.0
 11
-286.672032
 21
144.385301
 31
0.0
  0
LINE
  5
250
100
AcDbEntity
  8
2
100
AcDbLine
 10
-365.172032
 20
167.885301
 30
0.0
 11
-365.172032
 21
191.71964
 31
0.0
  0
LINE
  5
251
100
AcDbEntity
  8
2
100
AcDbLine
 10
-263.172032
 20
167.885301
 30
0.0
 11
-263.172032
 21
191.71964
 31
0.0
  0
ARC
  5
252
100
AcDbEntity
  8
2
100
AcDbCircle
 10
-286.672032
 20
167.885301
 30
0.0
 40
23.5
100
AcDbArc
 50
270.0
 51
360.0
  0
ARC
  5
253
100
AcDbEntity
  8
2
100
AcDbCircle
 10
-341.672032
 20
167.885301
 30
0.0
 40
23.5
100
AcDbArc
 50
180.0
 51
270.0
  0
LINE
  5
254
100
AcDbEntity
  8
2
100
AcDbLine
 10
-297.172032
 20
144.385301
 30
0.0
 11
-297.172032
 21
160.885301
 31
0.0
  0
LINE
  5
255
100
AcDbEntity
  8
2
100
AcDbLine
 10
-275.172032
 20
147.391399
 30
0.0
 11
-275.172032
 21
162.533654
 31
0.0
  0
LINE
  5
256
100
AcDbEntity
  8
2
  6
CENTER
 62
     2
100
AcDbLine
 10
-286.172032
 20
164.454821
 30
0.0
 11
-286.172032
 21
148.414983
 31
0.0
  0
LINE
  5
257
100
AcDbEntity
  8
2
100
AcDbLine
 10
-288.631032
 20
152.385301
 30
0.0
 11
-283.713032
 21
152.385301
 31
0.0
  0
LINE
  5
258
100
AcDbEntity
  8
2
100
AcDbLine
 10
-288.631032
 20
152.385301
 30
0.0
 11
-289.172032
 21
152.926301
 31
0.0
  0
LINE
  5
259
100
AcDbEntity
  8
2
100
AcDbLine
 10
-289.172032
 20
152.926301
 30
0.0
 11
-289.172032
 21
155.885301
 31
0.0
  0
LINE
  5
25A
100
AcDbEntity
  8
2
100
AcDbLine
 10
-289.172032
 20
152.926301
 30
0.0
 11
-283.172032
 21
152.926301
 31
0.0
  0
LINE
  5
25B
100
AcDbEntity
  8
2
 62
     2
100
AcDbLine
 10
-288.631032
 20
152.385301
 30
0.0
 11
-288.631032
 21
155.885301
 31
0.0
  0
LINE
  5
25C
100
AcDbEntity
  8
2
100
AcDbLine
 10
-283.713032
 20
152.385301
 30
0.0
 11
-283.172032
 21
152.926301
 31
0.0
  0
LINE
  5
25D
100
AcDbEntity
  8
2
100
AcDbLine
 10
-283.172032
 20
152.926301
 30
0.0
 11
-283.172032
 21
155.885301
 31
0.0
  0
LINE
  5
25E
100
AcDbEntity
  8
2
 62
     2
100
AcDbLine
 10
-283.713032
 20
152.385301
 30
0.0
 11
-283.713032
 21
155.885301
 31
0.0
  0
LINE
  5
25F
100
AcDbEntity
  8
2
100
AcDbLine
 10
-280.422032
 20
160.885301
 30
0.0
 11
-280.422032
 21
156.376048
 31
0.0
  0
LINE
  5
260
100
AcDbEntity
  8
2
100
AcDbLine
 10
-280.422032
 20
156.376048
 30
0.0
 11
-281.272032
 21
155.885301
 31
0.0
  0
LINE
  5
261
100
AcDbEntity
  8
2
100
AcDbLine
 10
-283.297032
 20
160.885301
 30
0.0
 11
-283.297032
 21
156.376048
 31
0.0
  0
ARC
  5
262
100
AcDbEntity
  8
2
100
AcDbCircle
 10
-281.859532
 20
158.224003
 30
0.0
 40
2.341227
100
AcDbArc
 50
232.121121
 51
307.878879
  0
ARC
  5
263
100
AcDbEntity
  8
2
100
AcDbCircle
 10
-286.172032
 20
164.507776
 30
0.0
 40
8.625
100
AcDbArc
 50
250.528777
 51
289.471219
  0
LINE
  5
264
100
AcDbEntity
  8
2
100
AcDbLine
 10
-291.922032
 20
160.885301
 30
0.0
 11
-291.922032
 21
156.376048
 31
0.0
  0
LINE
  5
265
100
AcDbEntity
  8
2
100
AcDbLine
 10
-291.922032
 20
156.376048
 30
0.0
 11
-291.072032
 21
155.885301
 31
0.0
  0
LINE
  5
266
100
AcDbEntity
  8
2
100
AcDbLine
 10
-291.072032
 20
155.885301
 30
0.0
 11
-281.272032
 21
155.885301
 31
0.0
  0
LINE
  5
267
100
AcDbEntity
  8
2
100
AcDbLine
 10
-289.047032
 20
160.885301
 30
0.0
 11
-289.047032
 21
156.376048
 31
0.0
  0
ARC
  5
268
100
AcDbEntity
  8
2
100
AcDbCircle
 10
-290.484532
 20
158.224003
 30
0.0
 40
2.341227
100
AcDbArc
 50
232.121121
 51
307.878879
  0
LINE
  5
269
100
AcDbEntity
  8
2
100
AcDbLine
 10
-368.672032
 20
9.285301
 30
0.0
 11
-368.072285
 21
26.459798
 31
0.0
  0
LINE
  5
26A
100
AcDbEntity
  8
2
100
AcDbLine
 10
-259.672032
 20
9.285301
 30
0.0
 11
-260.271779
 21
26.459798
 31
0.0
  0
LINE
  5
26B
100
AcDbEntity
  8
2
100
AcDbLine
 10
-363.075331
 20
31.285301
 30
0.0
 11
-265.268733
 21
31.285301
 31
0.0
  0
ARC
  5
26C
100
AcDbEntity
  8
2
100
AcDbCircle
 10
-265.268733
 20
26.285301
 30
0.0
 40
5.0
100
AcDbArc
 50
2.0
 51
90.0
  0
ARC
  5
26D
100
AcDbEntity
  8
2
100
AcDbCircle
 10
-363.075331
 20
26.285301
 30
0.0
 40
5.0
100
AcDbArc
 50
90.0
 51
178.0
  0
LINE
  5
26E
100
AcDbEntity
  8
2
100
AcDbLine
 10
-346.672032
 20
32.285301
 30
0.0
 11
-278.172032
 21
32.285301
 31
0.0
  0
LINE
  5
26F
100
AcDbEntity
  8
2
100
AcDbLine
 10
-346.672032
 20
32.285301
 30
0.0
 11
-347.672032
 21
31.285301
 31
0.0
  0
LINE
  5
270
100
AcDbEntity
  8
2
100
AcDbLine
 10
-344.920769
 20
31.285301
 30
0.0
 11
-343.920769
 21
32.285301
 31
0.0
  0
LINE
  5
271
100
AcDbEntity
  8
2
100
AcDbLine
 10
-283.423295
 20
31.285301
 30
0.0
 11
-284.423295
 21
32.285301
 31
0.0
  0
LINE
  5
272
100
AcDbEntity
  8
2
100
AcDbLine
 10
-282.23068
 20
32.285301
 30
0.0
 11
-281.213725
 21
31.285301
 31
0.0
  0
LINE
  5
273
100
AcDbEntity
  8
2
100
AcDbLine
 10
-335.53562
 20
32.285301
 30
0.0
 11
-334.85859
 21
31.285301
 31
0.0
  0
LINE
  5
274
100
AcDbEntity
  8
2
100
AcDbLine
 10
-330.783065
 20
32.285301
 30
0.0
 11
-331.294174
 21
31.285301
 31
0.0
  0
LINE
  5
275
100
AcDbEntity
  8
2
100
AcDbLine
 10
-292.808444
 20
32.285301
 30
0.0
 11
-293.485474
 21
31.285301
 31
0.0
  0
LINE
  5
276
100
AcDbEntity
  8
2
100
AcDbLine
 10
-297.560999
 20
32.285301
 30
0.0
 11
-297.04989
 21
31.285301
 31
0.0
  0
LINE
  5
277
100
AcDbEntity
  8
2
100
AcDbLine
 10
-335.172032
 20
33.285301
 30
0.0
 11
-279.172032
 21
33.285301
 31
0.0
  0
LINE
  5
278
100
AcDbEntity
  8
2
100
AcDbLine
 10
-336.172032
 20
32.285301
 30
0.0
 11
-335.172032
 21
33.285301
 31
0.0
  0
LINE
  5
279
100
AcDbEntity
  8
2
100
AcDbLine
 10
-278.172032
 20
32.285301
 30
0.0
 11
-278.172032
 21
31.285301
 31
0.0
  0
LINE
  5
27A
100
AcDbEntity
  8
2
100
AcDbLine
 10
-279.172032
 20
33.285301
 30
0.0
 11
-278.172032
 21
32.285301
 31
0.0
  0
LINE
  5
27B
100
AcDbEntity
  8
2
100
AcDbLine
 10
-293.006022
 20
32.285301
 30
0.0
 11
-293.775954
 21
33.285301
 31
0.0
  0
LINE
  5
27C
100
AcDbEntity
  8
2
  6
CENTER
 62
     2
100
AcDbLine
 10
-338.920769
 20
39.263084
 30
0.0
 11
-338.920769
 21
25.452293
 31
0.0
  0
LINE
  5
27D
100
AcDbEntity
  8
2
  6
CENTER
 62
     2
100
AcDbLine
 10
-289.423295
 20
39.263084
 30
0.0
 11
-289.423295
 21
25.452293
 31
0.0
  0
LINE
  5
27E
100
AcDbEntity
  8
2
100
AcDbLine
 10
-298.744783
 20
9.285301
 30
0.0
 11
-299.445636
 21
29.3551
 31
0.0
  0
LINE
  5
27F
100
AcDbEntity
  8
2
100
AcDbLine
 10
-329.599281
 20
9.285301
 30
0.0
 11
-328.898428
 21
29.3551
 31
0.0
  0
ARC
  5
280
100
AcDbEntity
  8
2
100
AcDbCircle
 10
-301.444418
 20
29.285301
 30
0.0
 40
2.0
100
AcDbArc
 50
2.0
 51
90.0
  0
ARC
  5
281
100
AcDbEntity
  8
2
100
AcDbCircle
 10
-326.899646
 20
29.285301
 30
0.0
 40
2.0
100
AcDbArc
 50
90.0
 51
178.0
  0
LINE
  5
282
100
AcDbEntity
  8
2
100
AcDbLine
 10
-325.228692
 20
52.285301
 30
0.0
 11
-303.115372
 21
52.285301
 31
0.0
  0
LINE
  5
283
100
AcDbEntity
  8
2
100
AcDbLine
 10
-326.172032
 20
34.285301
 30
0.0
 11
-302.172032
 21
34.285301
 31
0.0
  0
LINE
  5
284
100
AcDbEntity
  8
2
100
AcDbLine
 10
-327.172032
 20
33.285301
 30
0.0
 11
-326.172032
 21
34.285301
 31
0.0
  0
LINE
  5
285
100
AcDbEntity
  8
2
100
AcDbLine
 10
-301.172032
 20
33.285301
 30
0.0
 11
-302.172032
 21
34.285301
 31
0.0
  0
LINE
  5
286
100
AcDbEntity
  8
2
100
AcDbLine
 10
-302.172032
 20
34.285301
 30
0.0
 11
-303.115372
 21
52.285301
 31
0.0
  0
LINE
  5
287
100
AcDbEntity
  8
2
100
AcDbLine
 10
-326.172032
 20
34.285301
 30
0.0
 11
-325.228692
 21
52.285301
 31
0.0
  0
LINE
  5
288
100
AcDbEntity
  8
2
100
AcDbLine
 10
-325.485741
 20
199.385301
 30
0.0
 11
-310.456204
 21
199.385301
 31
0.0
  0
LINE
  5
289
100
AcDbEntity
  8
2
100
AcDbLine
 10
-325.485741
 20
191.385301
 30
0.0
 11
-310.456204
 21
191.385301
 31
0.0
  0
LINE
  5
28A
100
AcDbEntity
  8
2
100
AcDbLine
 10
-324.591232
 20
191.685301
 30
0.0
 11
-311.379985
 21
191.685301
 31
0.0
  0
LINE
  5
28B
100
AcDbEntity
  8
2
100
AcDbLine
 10
-324.591232
 20
199.085301
 30
0.0
 11
-311.379985
 21
199.085301
 31
0.0
  0
ARC
  5
28C
100
AcDbEntity
  8
2
100
AcDbCircle
 10
-314.172032
 20
195.385301
 30
0.0
 40
11.05666
100
AcDbArc
 50
160.449356
 51
199.550644
  0
ARC
  5
28D
100
AcDbEntity
  8
2
100
AcDbCircle
 10
-314.172032
 20
195.385301
 30
0.0
 40
11.05666
100
AcDbArc
 50
356.370162
 51
3.629838
  0
LINE
  5
28E
100
AcDbEntity
  8
2
100
AcDbLine
 10
-324.591232
 20
199.085301
 30
0.0
 11
-325.485741
 21
199.385301
 31
0.0
  0
LINE
  5
28F
100
AcDbEntity
  8
2
100
AcDbLine
 10
-324.591232
 20
191.685301
 30
0.0
 11
-325.485741
 21
191.385301
 31
0.0
  0
LINE
  5
290
100
AcDbEntity
  8
2
100
AcDbLine
 10
-324.591232
 20
52.285301
 30
0.0
 11
-325.485741
 21
34.285301
 31
0.0
  0
LINE
  5
291
100
AcDbEntity
  8
2
100
AcDbLine
 10
-302.213771
 20
196.385301
 30
0.0
 11
-310.456204
 21
199.385301
 31
0.0
  0
LINE
  5
292
100
AcDbEntity
  8
2
100
AcDbLine
 10
-302.213771
 20
194.385301
 30
0.0
 11
-310.456204
 21
191.385301
 31
0.0
  0
CIRCLE
  5
293
100
AcDbEntity
  8
2
100
AcDbCircle
 10
-314.172032
 20
195.385301
 30
0.0
 40
12.0
  0
LINE
  5
294
100
AcDbEntity
  8
2
100
AcDbLine
 10
-303.137553
 20
196.085301
 30
0.0
 11
-311.379985
 21
199.085301
 31
0.0
  0
LINE
  5
295
100
AcDbEntity
  8
2
100
AcDbLine
 10
-303.137553
 20
194.685301
 30
0.0
 11
-311.379985
 21
191.685301
 31
0.0
  0
LINE
  5
296
100
AcDbEntity
  8
2
100
AcDbLine
 10
-303.137553
 20
196.085301
 30
0.0
 11
-302.213771
 21
196.385301
 31
0.0
  0
LINE
  5
297
100
AcDbEntity
  8
2
100
AcDbLine
 10
-303.137553
 20
194.685301
 30
0.0
 11
-302.213771
 21
194.385301
 31
0.0
  0
LINE
  5
298
100
AcDbEntity
  8
2
100
AcDbLine
 10
-311.379985
 20
199.085301
 30
0.0
 11
-310.456204
 21
199.385301
 31
0.0
  0
LINE
  5
299
100
AcDbEntity
  8
2
100
AcDbLine
 10
-311.379985
 20
191.685301
 30
0.0
 11
-310.456204
 21
191.385301
 31
0.0
  0
LINE
  5
29A
100
AcDbEntity
  8
2
100
AcDbLine
 10
-311.379985
 20
52.285301
 30
0.0
 11
-310.456204
 21
34.285301
 31
0.0
  0
LINE
  5
29B
100
AcDbEntity
  8
2
100
AcDbLine
 10
-365.172032
 20
-20.714699
 30
0.0
 11
-263.172032
 21
-20.714699
 31
0.0
  0
LINE
  5
29C
100
AcDbEntity
  8
2
100
AcDbLine
 10
-259.672032
 20
9.285301
 30
0.0
 11
-260.406587
 21
-11.749599
 31
0.0
  0
LINE
  5
29D
100
AcDbEntity
  8
2
100
AcDbLine
 10
-368.672032
 20
9.285301
 30
0.0
 11
-367.937477
 21
-11.749599
 31
0.0
  0
ARC
  5
29E
100
AcDbEntity
  8
2
100
AcDbCircle
 10
-261.405978
 20
-11.714699
 30
0.0
 40
1.0
100
AcDbArc
 50
270.0
 51
358.0
  0
ARC
  5
29F
100
AcDbEntity
  8
2
100
AcDbCircle
 10
-366.938086
 20
-11.714699
 30
0.0
 40
1.0
100
AcDbArc
 50
182.0
 51
270.0
  0
LINE
  5
2A0
100
AcDbEntity
  8
2
100
AcDbLine
 10
-365.172032
 20
-20.714699
 30
0.0
 11
-365.172032
 21
-0.214699
 31
0.0
  0
LINE
  5
2A1
100
AcDbEntity
  8
2
100
AcDbLine
 10
-263.172032
 20
-20.714699
 30
0.0
 11
-263.172032
 21
-0.214699
 31
0.0
  0
ARC
  5
2A2
100
AcDbEntity
  8
2
100
AcDbCircle
 10
-264.172032
 20
-0.214699
 30
0.0
 40
1.0
100
AcDbArc
 50
0.0
 51
90.0
  0
ARC
  5
2A3
100
AcDbEntity
  8
2
100
AcDbCircle
 10
-364.172032
 20
-0.214699
 30
0.0
 40
1.0
100
AcDbArc
 50
90.0
 51
180.0
  0
LINE
  5
2A4
100
AcDbEntity
  8
2
100
AcDbLine
 10
-366.938086
 20
-12.714699
 30
0.0
 11
-366.172032
 21
-12.714699
 31
0.0
  0
LINE
  5
2A5
100
AcDbEntity
  8
2
100
AcDbLine
 10
-262.172032
 20
-12.714699
 30
0.0
 11
-261.405978
 21
-12.714699
 31
0.0
  0
ARC
  5
2A6
100
AcDbEntity
  8
2
100
AcDbCircle
 10
-262.172032
 20
-13.714699
 30
0.0
 40
1.0
100
AcDbArc
 50
90.0
 51
180.0
  0
ARC
  5
2A7
100
AcDbEntity
  8
2
100
AcDbCircle
 10
-366.172032
 20
-13.714699
 30
0.0
 40
1.0
100
AcDbArc
 50
0.0
 51
90.0
  0
LINE
  5
2A8
100
AcDbEntity
  8
2
100
AcDbLine
 10
-297.172032
 20
-5.714699
 30
0.0
 11
-297.172032
 21
-2.214699
 31
0.0
  0
LINE
  5
2A9
100
AcDbEntity
  8
2
100
AcDbLine
 10
-275.172032
 20
-5.714699
 30
0.0
 11
-275.172032
 21
-2.214699
 31
0.0
  0
LINE
  5
2AA
100
AcDbEntity
  8
2
100
AcDbLine
 10
-294.172032
 20
-8.714699
 30
0.0
 11
-278.172032
 21
-8.714699
 31
0.0
  0
LINE
  5
2AB
100
AcDbEntity
  8
2
100
AcDbLine
 10
-364.172032
 20
0.785301
 30
0.0
 11
-300.172032
 21
0.785301
 31
0.0
  0
LINE
  5
2AC
100
AcDbEntity
  8
2
100
AcDbLine
 10
-272.172032
 20
0.785301
 30
0.0
 11
-264.172032
 21
0.785301
 31
0.0
  0
ARC
  5
2AD
100
AcDbEntity
  8
2
100
AcDbCircle
 10
-278.172032
 20
-5.714699
 30
0.0
 40
3.0
100
AcDbArc
 50
270.0
 51
360.0
  0
ARC
  5
2AE
100
AcDbEntity
  8
2
100
AcDbCircle
 10
-294.172032
 20
-5.714699
 30
0.0
 40
3.0
100
AcDbArc
 50
180.0
 51
270.0
  0
ARC
  5
2AF
100
AcDbEntity
  8
2
100
AcDbCircle
 10
-300.172032
 20
-2.214699
 30
0.0
 40
3.0
100
AcDbArc
 50
0.0
 51
90.0
  0
ARC
  5
2B0
100
AcDbEntity
  8
2
100
AcDbCircle
 10
-272.172032
 20
-2.214699
 30
0.0
 40
3.0
100
AcDbArc
 50
90.0
 51
180.0
  0
LINE
  5
2B1
100
AcDbEntity
  8
2
  6
CENTER
 62
     2
100
AcDbLine
 10
-286.172032
 20
-6.726785
 30
0.0
 11
-286.172032
 21
10.822562
 31
0.0
  0
LINE
  5
2B2
100
AcDbEntity
  8
2
  6
CENTER
 62
     2
100
AcDbLine
 10
-294.357892
 20
2.285301
 30
0.0
 11
-277.136258
 21
2.285301
 31
0.0
  0
CIRCLE
  5
2B3
100
AcDbEntity
  8
2
 62
     2
100
AcDbCircle
 10
-286.172032
 20
2.285301
 30
0.0
 40
2.459
  0
CIRCLE
  5
2B4
100
AcDbEntity
  8
2
100
AcDbCircle
 10
-286.172032
 20
2.285301
 30
0.0
 40
4.9
  0
CIRCLE
  5
2B5
100
AcDbEntity
  8
2
100
AcDbCircle
 10
-286.172032
 20
2.285301
 30
0.0
 40
3.0
  0
LINE
  5
2B6
100
AcDbEntity
  8
2
100
AcDbLine
 10
-289.058783
 20
7.285301
 30
0.0
 11
-283.285281
 21
7.285301
 31
0.0
  0
LINE
  5
2B7
100
AcDbEntity
  8
2
100
AcDbLine
 10
-289.058783
 20
-2.714699
 30
0.0
 11
-283.285281
 21
-2.714699
 31
0.0
  0
LINE
  5
2B8
100
AcDbEntity
  8
2
100
AcDbLine
 10
-291.945535
 20
2.285301
 30
0.0
 11
-289.058783
 21
7.285301
 31
0.0
  0
LINE
  5
2B9
100
AcDbEntity
  8
2
100
AcDbLine
 10
-283.285281
 20
-2.714699
 30
0.0
 11
-280.398529
 21
2.285301
 31
0.0
  0
LINE
  5
2BA
100
AcDbEntity
  8
2
100
AcDbLine
 10
-289.058783
 20
-2.714699
 30
0.0
 11
-291.945535
 21
2.285301
 31
0.0
  0
LINE
  5
2BB
100
AcDbEntity
  8
2
100
AcDbLine
 10
-280.398529
 20
2.285301
 30
0.0
 11
-283.285281
 21
7.285301
 31
0.0
  0
LINE
  5
2BC
100
AcDbEntity
  8
2
100
AcDbLine
 10
-284.672032
 20
1.419275
 30
0.0
 11
-284.672032
 21
3.151326
 31
0.0
  0
LINE
  5
2BD
100
AcDbEntity
  8
2
100
AcDbLine
 10
-287.672032
 20
1.419275
 30
0.0
 11
-287.672032
 21
3.151326
 31
0.0
  0
LINE
  5
2BE
100
AcDbEntity
  8
2
100
AcDbLine
 10
-286.172032
 20
0.55325
 30
0.0
 11
-287.672032
 21
1.419275
 31
0.0
  0
LINE
  5
2BF
100
AcDbEntity
  8
2
100
AcDbLine
 10
-284.672032
 20
3.151326
 30
0.0
 11
-286.172032
 21
4.017352
 31
0.0
  0
LINE
  5
2C0
100
AcDbEntity
  8
2
100
AcDbLine
 10
-286.172032
 20
4.017352
 30
0.0
 11
-287.672032
 21
3.151326
 31
0.0
  0
LINE
  5
2C1
100
AcDbEntity
  8
2
100
AcDbLine
 10
-284.672032
 20
1.419275
 30
0.0
 11
-286.172032
 21
0.55325
 31
0.0
  0
LINE
  5
2C2
100
AcDbEntity
  8
2
100
AcDbLine
 10
-281.172032
 20
-8.714699
 30
0.0
 11
-281.172032
 21
0.945555
 31
0.0
  0
LINE
  5
2C3
100
AcDbEntity
  8
2
100
AcDbLine
 10
-281.172032
 20
3.625047
 30
0.0
 11
-281.172032
 21
9.285301
 31
0.0
  0
LINE
  5
2C4
100
AcDbEntity
  8
2
100
AcDbLine
 10
-291.172032
 20
-8.714699
 30
0.0
 11
-291.172032
 21
0.945555
 31
0.0
  0
LINE
  5
2C5
100
AcDbEntity
  8
2
100
AcDbLine
 10
-291.172032
 20
3.625047
 30
0.0
 11
-291.172032
 21
9.285301
 31
0.0
  0
LINE
  5
2C6
100
AcDbEntity
  8
2
  6
CENTER
 62
     2
100
AcDbLine
 10
-278.109586
 20
-51.210953
 30
0.0
 11
-278.109586
 21
-12.097146
 31
0.0
  0
LINE
  5
2C7
100
AcDbEntity
  8
2
  6
CENTER
 62
     2
100
AcDbLine
 10
-350.234478
 20
-51.210953
 30
0.0
 11
-350.234478
 21
-12.097146
 31
0.0
  0
LINE
  5
2C8
100
AcDbEntity
  8
2
100
AcDbLine
 10
-298.744783
 20
9.285301
 30
0.0
 11
-299.008683
 21
1.728203
 31
0.0
  0
LINE
  5
2C9
100
AcDbEntity
  8
2
100
AcDbLine
 10
-329.599281
 20
9.285301
 30
0.0
 11
-329.374733
 21
2.8551
 31
0.0
  0
ARC
  5
2CA
100
AcDbEntity
  8
2
100
AcDbCircle
 10
-331.373515
 20
2.785301
 30
0.0
 40
2.0
100
AcDbArc
 50
270.0
 51
2.0
  0
ARC
  5
2CB
100
AcDbEntity
  8
2
100
AcDbCircle
 10
-297.009901
 20
1.658404
 30
0.0
 40
2.0
100
AcDbArc
 50
178.0
 51
230.770655
  0
LINE
  5
2CC
100
AcDbEntity
  8
2
100
AcDbLine
 10
44.624669
 20
31.285301
 30
0.0
 11
133.527968
 21
31.285301
 31
0.0
  0
LINE
  5
2CD
100
AcDbEntity
  8
2
100
AcDbLine
 10
46.027968
 20
9.285301
 30
0.0
 11
46.627715
 21
26.459798
 31
0.0
  0
LINE
  5
2CE
100
AcDbEntity
  8
2
100
AcDbLine
 10
39.027968
 20
9.285301
 30
0.0
 11
39.627715
 21
26.459798
 31
0.0
  0
ARC
  5
2CF
100
AcDbEntity
  8
2
100
AcDbCircle
 10
51.624669
 20
26.285301
 30
0.0
 40
5.0
100
AcDbArc
 50
90.0
 51
178.0
  0
ARC
  5
2D0
100
AcDbEntity
  8
2
100
AcDbCircle
 10
44.624669
 20
26.285301
 30
0.0
 40
5.0
100
AcDbArc
 50
90.0
 51
178.0
  0
LINE
  5
2D1
100
AcDbEntity
  8
2
100
AcDbLine
 10
48.027968
 20
32.285301
 30
0.0
 11
116.527968
 21
32.285301
 31
0.0
  0
LINE
  5
2D2
100
AcDbEntity
  8
2
100
AcDbLine
 10
48.027968
 20
32.285301
 30
0.0
 11
47.027968
 21
31.285301
 31
0.0
  0
LINE
  5
2D3
100
AcDbEntity
  8
2
100
AcDbLine
 10
49.779231
 20
31.285301
 30
0.0
 11
50.779231
 21
32.285301
 31
0.0
  0
LINE
  5
2D4
100
AcDbEntity
  8
2
100
AcDbLine
 10
111.276705
 20
31.285301
 30
0.0
 11
110.276705
 21
32.285301
 31
0.0
  0
LINE
  5
2D5
100
AcDbEntity
  8
2
100
AcDbLine
 10
112.46932
 20
32.285301
 30
0.0
 11
113.486275
 21
31.285301
 31
0.0
  0
LINE
  5
2D6
100
AcDbEntity
  8
2
100
AcDbLine
 10
59.16438
 20
32.285301
 30
0.0
 11
59.84141
 21
31.285301
 31
0.0
  0
LINE
  5
2D7
100
AcDbEntity
  8
2
100
AcDbLine
 10
63.916935
 20
32.285301
 30
0.0
 11
63.405826
 21
31.285301
 31
0.0
  0
LINE
  5
2D8
100
AcDbEntity
  8
2
100
AcDbLine
 10
101.891556
 20
32.285301
 30
0.0
 11
101.214526
 21
31.285301
 31
0.0
  0
LINE
  5
2D9
100
AcDbEntity
  8
2
100
AcDbLine
 10
97.139001
 20
32.285301
 30
0.0
 11
97.65011
 21
31.285301
 31
0.0
  0
LINE
  5
2DA
100
AcDbEntity
  8
2
100
AcDbLine
 10
59.527968
 20
33.285301
 30
0.0
 11
115.527968
 21
33.285301
 31
0.0
  0
LINE
  5
2DB
100
AcDbEntity
  8
2
100
AcDbLine
 10
58.527968
 20
32.285301
 30
0.0
 11
59.527968
 21
33.285301
 31
0.0
  0
LINE
  5
2DC
100
AcDbEntity
  8
2
100
AcDbLine
 10
116.527968
 20
32.285301
 30
0.0
 11
116.527968
 21
31.285301
 31
0.0
  0
LINE
  5
2DD
100
AcDbEntity
  8
2
100
AcDbLine
 10
115.527968
 20
33.285301
 30
0.0
 11
116.527968
 21
32.285301
 31
0.0
  0
LINE
  5
2DE
100
AcDbEntity
  8
2
100
AcDbLine
 10
101.693978
 20
32.285301
 30
0.0
 11
100.924046
 21
33.285301
 31
0.0
  0
LINE
  5
2DF
100
AcDbEntity
  8
2
  6
CENTER
 62
     2
100
AcDbLine
 10
55.779231
 20
39.263084
 30
0.0
 11
55.779231
 21
25.452293
 31
0.0
  0
LINE
  5
2E0
100
AcDbEntity
  8
2
  6
CENTER
 62
     2
100
AcDbLine
 10
105.276705
 20
39.263084
 30
0.0
 11
105.276705
 21
25.452293
 31
0.0
  0
LINE
  5
2E1
100
AcDbEntity
  8
2
100
AcDbLine
 10
76.827968
 20
52.285301
 30
0.0
 11
84.227968
 21
52.285301
 31
0.0
  0
LINE
  5
2E2
100
AcDbEntity
  8
2
100
AcDbLine
 10
68.527968
 20
34.285301
 30
0.0
 11
92.527968
 21
34.285301
 31
0.0
  0
LINE
  5
2E3
100
AcDbEntity
  8
2
100
AcDbLine
 10
67.527968
 20
33.285301
 30
0.0
 11
68.527968
 21
34.285301
 31
0.0
  0
LINE
  5
2E4
100
AcDbEntity
  8
2
100
AcDbLine
 10
93.527968
 20
33.285301
 30
0.0
 11
92.527968
 21
34.285301
 31
0.0
  0
LINE
  5
2E5
100
AcDbEntity
  8
2
100
AcDbLine
 10
84.527968
 20
34.285301
 30
0.0
 11
84.227968
 21
52.285301
 31
0.0
  0
LINE
  5
2E6
100
AcDbEntity
  8
2
100
AcDbLine
 10
76.527968
 20
34.285301
 30
0.0
 11
76.827968
 21
52.285301
 31
0.0
  0
LINE
  5
2E7
100
AcDbEntity
  8
2
100
AcDbLine
 10
79.527968
 20
34.285301
 30
0.0
 11
79.827968
 21
52.285301
 31
0.0
  0
LINE
  5
2E8
100
AcDbEntity
  8
2
100
AcDbLine
 10
81.527968
 20
34.285301
 30
0.0
 11
81.227968
 21
52.285301
 31
0.0
  0
LINE
  5
2E9
100
AcDbEntity
  8
2
100
AcDbLine
 10
86.527968
 20
32.285301
 30
0.0
 11
86.527968
 21
31.285301
 31
0.0
  0
LINE
  5
2EA
100
AcDbEntity
  8
2
100
AcDbLine
 10
74.527968
 20
32.285301
 30
0.0
 11
74.527968
 21
31.285301
 31
0.0
  0
LINE
  5
2EB
100
AcDbEntity
  8
2
100
AcDbLine
 10
86.527968
 20
32.285301
 30
0.0
 11
85.527968
 21
33.285301
 31
0.0
  0
LINE
  5
2EC
100
AcDbEntity
  8
2
100
AcDbLine
 10
74.527968
 20
32.285301
 30
0.0
 11
75.527968
 21
33.285301
 31
0.0
  0
LINE
  5
2ED
100
AcDbEntity
  8
2
100
AcDbLine
 10
49.779231
 20
31.285301
 30
0.0
 11
49.779231
 21
30.932274
 31
0.0
  0
LINE
  5
2EE
100
AcDbEntity
  8
2
100
AcDbLine
 10
29.527968
 20
-20.714699
 30
0.0
 11
131.527968
 21
-20.714699
 31
0.0
  0
LINE
  5
2EF
100
AcDbEntity
  8
2
100
AcDbLine
 10
29.527968
 20
-0.214699
 30
0.0
 11
29.527968
 21
-20.714699
 31
0.0
  0
LINE
  5
2F0
100
AcDbEntity
  8
2
100
AcDbLine
 10
131.527968
 20
-13.714699
 30
0.0
 11
131.527968
 21
-20.714699
 31
0.0
  0
ARC
  5
2F1
100
AcDbEntity
  8
2
100
AcDbCircle
 10
30.527968
 20
-0.214699
 30
0.0
 40
1.0
100
AcDbArc
 50
90.0
 51
180.0
  0
LINE
  5
2F2
100
AcDbEntity
  8
2
100
AcDbLine
 10
39.027968
 20
9.285301
 30
0.0
 11
39.167651
 21
5.285301
 31
0.0
  0
LINE
  5
2F3
100
AcDbEntity
  8
2
100
AcDbLine
 10
46.027968
 20
9.285301
 30
0.0
 11
46.288655
 21
1.8202
 31
0.0
  0
LINE
  5
2F4
100
AcDbEntity
  8
2
100
AcDbLine
 10
76.862307
 20
0.785301
 30
0.0
 11
76.862307
 21
-11.714699
 31
0.0
  0
ARC
  5
2F5
100
AcDbEntity
  8
2
100
AcDbCircle
 10
75.862307
 20
1.785301
 30
0.0
 40
1.0
100
AcDbArc
 50
270.0
 51
360.0
  0
ARC
  5
2F6
100
AcDbEntity
  8
2
100
AcDbCircle
 10
45.289264
 20
1.785301
 30
0.0
 40
1.0
100
AcDbArc
 50
270.0
 51
2.0
  0
ARC
  5
2F7
100
AcDbEntity
  8
2
100
AcDbCircle
 10
132.527968
 20
-13.714699
 30
0.0
 40
1.0
100
AcDbArc
 50
90.0
 51
180.0
  0
ARC
  5
2F8
100
AcDbEntity
  8
2
100
AcDbCircle
 10
77.862307
 20
-11.714699
 30
0.0
 40
1.0
100
AcDbArc
 50
180.0
 51
270.0
  0
LINE
  5
2F9
100
AcDbEntity
  8
2
100
AcDbLine
 10
32.534066
 20
-2.214699
 30
0.0
 11
32.534066
 21
-7.714699
 31
0.0
  0
LINE
  5
2FA
100
AcDbEntity
  8
2
100
AcDbLine
 10
30.527968
 20
-8.714699
 30
0.0
 11
31.534066
 21
-8.714699
 31
0.0
  0
ARC
  5
2FB
100
AcDbEntity
  8
2
100
AcDbCircle
 10
35.534066
 20
-2.214699
 30
0.0
 40
3.0
100
AcDbArc
 50
90.0
 51
180.0
  0
ARC
  5
2FC
100
AcDbEntity
  8
2
100
AcDbCircle
 10
30.527968
 20
-9.714699
 30
0.0
 40
1.0
100
AcDbArc
 50
90.0
 51
180.0
  0
ARC
  5
2FD
100
AcDbEntity
  8
2
100
AcDbCircle
 10
31.534066
 20
-7.714699
 30
0.0
 40
1.0
100
AcDbArc
 50
270.0
 51
0.0
  0
LINE
  5
2FE
100
AcDbEntity
  8
2
100
AcDbLine
 10
46.027968
 20
9.285301
 30
0.0
 11
46.027968
 21
1.11127
 31
0.0
  0
LINE
  5
2FF
100
AcDbEntity
  8
2
  6
CENTER
 62
     2
100
AcDbLine
 10
53.199824
 20
2.285301
 30
0.0
 11
33.55765
 21
2.285301
 31
0.0
  0
LINE
  5
300
100
AcDbEntity
  8
2
100
AcDbLine
 10
41.027968
 20
0.785301
 30
0.0
 11
41.027968
 21
7.285301
 31
0.0
  0
ARC
  5
301
100
AcDbEntity
  8
2
100
AcDbCircle
 10
47.641176
 20
-0.214699
 30
0.0
 40
6.613208
100
AcDbArc
 50
157.788205
 51
171.302798
  0
LINE
  5
302
100
AcDbEntity
  8
2
100
AcDbLine
 10
46.027968
 20
7.285301
 30
0.0
 11
41.027968
 21
7.285301
 31
0.0
  0
LINE
  5
303
100
AcDbEntity
  8
2
100
AcDbLine
 10
46.027968
 20
2.285301
 30
0.0
 11
41.518716
 21
2.285301
 31
0.0
  0
ARC
  5
304
100
AcDbEntity
  8
2
100
AcDbCircle
 10
47.641176
 20
4.785301
 30
0.0
 40
6.613208
100
AcDbArc
 50
157.788205
 51
202.211795
  0
LINE
  5
305
100
AcDbEntity
  8
2
100
AcDbLine
 10
37.527968
 20
4.744301
 30
0.0
 11
37.527968
 21
0.785301
 31
0.0
  0
LINE
  5
306
100
AcDbEntity
  8
2
100
AcDbLine
 10
37.527968
 20
4.744301
 30
0.0
 11
38.068968
 21
5.285301
 31
0.0
  0
LINE
  5
307
100
AcDbEntity
  8
2
100
AcDbLine
 10
38.068968
 20
5.285301
 30
0.0
 11
41.027968
 21
5.285301
 31
0.0
  0
LINE
  5
308
100
AcDbEntity
  8
2
100
AcDbLine
 10
38.068968
 20
5.285301
 30
0.0
 11
38.068968
 21
0.785301
 31
0.0
  0
LINE
  5
309
100
AcDbEntity
  8
2
 62
     2
100
AcDbLine
 10
37.527968
 20
4.744301
 30
0.0
 11
41.027968
 21
4.744301
 31
0.0
  0
LINE
  5
30A
100
AcDbEntity
  8
2
100
AcDbLine
 10
75.862307
 20
0.785301
 30
0.0
 11
30.527968
 21
0.785301
 31
0.0
  0
LINE
  5
30B
100
AcDbEntity
  8
2
  6
CENTER
 62
     2
100
AcDbLine
 10
106.527968
 20
13.162658
 30
0.0
 11
106.527968
 21
-6.169159
 31
0.0
  0
LINE
  5
30C
100
AcDbEntity
  8
2
100
AcDbLine
 10
100.510812
 20
4.285301
 30
0.0
 11
112.545124
 21
4.285301
 31
0.0
  0
LINE
  5
30D
100
AcDbEntity
  8
2
100
AcDbLine
 10
142.010812
 20
4.285301
 30
0.0
 11
154.143496
 21
4.285301
 31
0.0
  0
LINE
  5
30E
100
AcDbEntity
  8
2
  6
CENTER
 62
     2
100
AcDbLine
 10
148.027968
 20
13.162658
 30
0.0
 11
148.027968
 21
-6.169159
 31
0.0
  0
LINE
  5
30F
100
AcDbEntity
  8
2
100
AcDbLine
 10
141.511117
 20
3.80275
 30
0.0
 11
141.003762
 21
-10.72599
 31
0.0
  0
ARC
  5
310
100
AcDbEntity
  8
2
100
AcDbCircle
 10
142.010812
 20
3.785301
 30
0.0
 40
0.5
100
AcDbArc
 50
90.0
 51
178.0
  0
ARC
  5
311
100
AcDbEntity
  8
2
100
AcDbCircle
 10
154.143496
 20
5.285301
 30
0.0
 40
1.0
100
AcDbArc
 50
270.0
 51
349.019425
  0
ARC
  5
312
100
AcDbEntity
  8
2
100
AcDbCircle
 10
140.004371
 20
-10.69109
 30
0.0
 40
1.0
100
AcDbArc
 50
287.962843
 51
358.0
  0
LINE
  5
313
100
AcDbEntity
  8
2
100
AcDbLine
 10
100.011117
 20
3.80275
 30
0.0
 11
99.188651
 21
-19.749599
 31
0.0
  0
LINE
  5
314
100
AcDbEntity
  8
2
100
AcDbLine
 10
113.044819
 20
3.80275
 30
0.0
 11
113.867285
 21
-19.749599
 31
0.0
  0
ARC
  5
315
100
AcDbEntity
  8
2
100
AcDbCircle
 10
112.545124
 20
3.785301
 30
0.0
 40
0.5
100
AcDbArc
 50
2.0
 51
90.0
  0
ARC
  5
316
100
AcDbEntity
  8
2
100
AcDbCircle
 10
100.510812
 20
3.785301
 30
0.0
 40
0.5
100
AcDbArc
 50
90.0
 51
178.0
  0
ARC
  5
317
100
AcDbEntity
  8
2
100
AcDbCircle
 10
114.866676
 20
-19.714699
 30
0.0
 40
1.0
100
AcDbArc
 50
182.0
 51
270.0
  0
ARC
  5
318
100
AcDbEntity
  8
2
100
AcDbCircle
 10
98.18926
 20
-19.714699
 30
0.0
 40
1.0
100
AcDbArc
 50
270.0
 51
358.0
  0
LINE
  5
319
100
AcDbEntity
  8
2
100
AcDbLine
 10
77.862307
 20
-12.714699
 30
0.0
 11
98.468626
 21
-12.714699
 31
0.0
  0
LINE
  5
31A
100
AcDbEntity
  8
2
100
AcDbLine
 10
114.58731
 20
-12.714699
 30
0.0
 11
133.527968
 21
-12.714699
 31
0.0
  0
ARC
  5
31B
100
AcDbEntity
  8
2
100
AcDbCircle
 10
114.58731
 20
-11.714699
 30
0.0
 40
1.0
100
AcDbArc
 50
182.0
 51
270.0
  0
ARC
  5
31C
100
AcDbEntity
  8
2
100
AcDbCircle
 10
98.468626
 20
-11.714699
 30
0.0
 40
1.0
100
AcDbArc
 50
270.0
 51
358.0
  0
LINE
  5
31D
100
AcDbEntity
  8
2
100
AcDbLine
 10
153.027968
 20
4.285301
 30
0.0
 11
153.027968
 21
-1.314699
 31
0.0
  0
LINE
  5
31E
100
AcDbEntity
  8
2
100
AcDbLine
 10
153.027968
 20
-1.314699
 30
0.0
 11
152.335148
 21
-1.714699
 31
0.0
  0
LINE
  5
31F
100
AcDbEntity
  8
2
100
AcDbLine
 10
153.027968
 20
-1.314699
 30
0.0
 11
143.027968
 21
-1.314699
 31
0.0
  0
LINE
  5
320
100
AcDbEntity
  8
2
100
AcDbLine
 10
143.027968
 20
4.285301
 30
0.0
 11
143.027968
 21
-1.314699
 31
0.0
  0
LINE
  5
321
100
AcDbEntity
  8
2
100
AcDbLine
 10
143.027968
 20
-1.314699
 30
0.0
 11
143.720788
 21
-1.714699
 31
0.0
  0
LINE
  5
322
100
AcDbEntity
  8
2
100
AcDbLine
 10
143.720788
 20
-1.714699
 30
0.0
 11
152.335148
 21
-1.714699
 31
0.0
  0
LINE
  5
323
100
AcDbEntity
  8
2
100
AcDbLine
 10
111.527968
 20
4.285301
 30
0.0
 11
111.527968
 21
-1.314699
 31
0.0
  0
LINE
  5
324
100
AcDbEntity
  8
2
100
AcDbLine
 10
111.527968
 20
-1.314699
 30
0.0
 11
110.835148
 21
-1.714699
 31
0.0
  0
LINE
  5
325
100
AcDbEntity
  8
2
100
AcDbLine
 10
111.527968
 20
-1.314699
 30
0.0
 11
101.527968
 21
-1.314699
 31
0.0
  0
LINE
  5
326
100
AcDbEntity
  8
2
100
AcDbLine
 10
101.527968
 20
4.285301
 30
0.0
 11
101.527968
 21
-1.314699
 31
0.0
  0
LINE
  5
327
100
AcDbEntity
  8
2
100
AcDbLine
 10
101.527968
 20
-1.314699
 30
0.0
 11
102.220788
 21
-1.714699
 31
0.0
  0
LINE
  5
328
100
AcDbEntity
  8
2
100
AcDbLine
 10
102.220788
 20
-1.714699
 30
0.0
 11
110.835148
 21
-1.714699
 31
0.0
  0
ARC
  5
329
100
AcDbEntity
  8
2
100
AcDbCircle
 10
133.527968
 20
9.285301
 30
0.0
 40
22.0
100
AcDbArc
 50
270.0
 51
330.633011
  0
ARC
  5
32A
100
AcDbEntity
  8
2
100
AcDbCircle
 10
133.527968
 20
9.285301
 30
0.0
 40
22.0
100
AcDbArc
 50
332.419801
 51
90.0
  0
LINE
  5
32B
100
AcDbEntity
  8
2
100
AcDbLine
 10
-340.434478
 20
-37.214699
 30
0.0
 11
-340.434478
 21
-43.319806
 31
0.0
  0
LINE
  5
32C
100
AcDbEntity
  8
2
100
AcDbLine
 10
-340.434478
 20
-43.319806
 30
0.0
 11
-341.984478
 21
-44.214699
 31
0.0
  0
LINE
  5
32D
100
AcDbEntity
  8
2
100
AcDbLine
 10
-345.334478
 20
-37.214699
 30
0.0
 11
-345.334478
 21
-43.319806
 31
0.0
  0
ARC
  5
32E
100
AcDbEntity
  8
2
100
AcDbCircle
 10
-342.884478
 20
-40.170248
 30
0.0
 40
3.990265
100
AcDbArc
 50
232.121121
 51
307.878879
  0
ARC
  5
32F
100
AcDbEntity
  8
2
100
AcDbCircle
 10
-350.234478
 20
-29.460513
 30
0.0
 40
14.7
100
AcDbArc
 50
250.528777
 51
289.471219
  0
LINE
  5
330
100
AcDbEntity
  8
2
100
AcDbLine
 10
-360.034478
 20
-37.214699
 30
0.0
 11
-360.034478
 21
-43.319806
 31
0.0
  0
LINE
  5
331
100
AcDbEntity
  8
2
100
AcDbLine
 10
-360.034478
 20
-43.319806
 30
0.0
 11
-358.484478
 21
-44.214699
 31
0.0
  0
LINE
  5
332
100
AcDbEntity
  8
2
100
AcDbLine
 10
-358.484478
 20
-44.214699
 30
0.0
 11
-341.984478
 21
-44.214699
 31
0.0
  0
LINE
  5
333
100
AcDbEntity
  8
2
100
AcDbLine
 10
-355.134478
 20
-37.214699
 30
0.0
 11
-355.134478
 21
-43.319806
 31
0.0
  0
ARC
  5
334
100
AcDbEntity
  8
2
100
AcDbCircle
 10
-357.584478
 20
-40.170248
 30
0.0
 40
3.990265
100
AcDbArc
 50
232.121121
 51
307.878879
  0
LINE
  5
335
100
AcDbEntity
  8
2
100
AcDbLine
 10
-341.034478
 20
-34.714699
 30
0.0
 11
-341.034478
 21
-37.214699
 31
0.0
  0
LINE
  5
336
100
AcDbEntity
  8
2
100
AcDbLine
 10
-340.434478
 20
-37.214699
 30
0.0
 11
-360.034478
 21
-37.214699
 31
0.0
  0
LINE
  5
337
100
AcDbEntity
  8
2
100
AcDbLine
 10
-359.434478
 20
-37.214699
 30
0.0
 11
-359.434478
 21
-34.714699
 31
0.0
  0
LINE
  5
338
100
AcDbEntity
  8
2
100
AcDbLine
 10
-350.234478
 20
-37.214699
 30
0.0
 11
-350.734478
 21
-34.714699
 31
0.0
  0
LINE
  5
339
100
AcDbEntity
  8
2
100
AcDbLine
 10
-350.234478
 20
-34.714699
 30
0.0
 11
-349.734478
 21
-37.214699
 31
0.0
  0
LINE
  5
33A
100
AcDbEntity
  8
2
  6
CENTER
 62
     2
100
AcDbLine
 10
44.465522
 20
-51.875893
 30
0.0
 11
44.465522
 21
-12.097146
 31
0.0
  0
LINE
  5
33B
100
AcDbEntity
  8
2
  6
CENTER
 62
     2
100
AcDbLine
 10
116.590414
 20
-51.210953
 30
0.0
 11
116.590414
 21
-12.097146
 31
0.0
  0
LINE
  5
33C
100
AcDbEntity
  8
2
100
AcDbLine
 10
125.090414
 20
-37.214699
 30
0.0
 11
125.090414
 21
-44.214699
 31
0.0
  0
LINE
  5
33D
100
AcDbEntity
  8
2
100
AcDbLine
 10
116.590414
 20
-37.214699
 30
0.0
 11
116.590414
 21
-43.319806
 31
0.0
  0
ARC
  5
33E
100
AcDbEntity
  8
2
100
AcDbCircle
 10
120.840414
 20
-33.675263
 30
0.0
 40
10.539436
100
AcDbArc
 50
246.218654
 51
293.781346
  0
LINE
  5
33F
100
AcDbEntity
  8
2
100
AcDbLine
 10
108.090414
 20
-37.214699
 30
0.0
 11
108.090414
 21
-44.214699
 31
0.0
  0
LINE
  5
340
100
AcDbEntity
  8
2
100
AcDbLine
 10
108.090414
 20
-44.214699
 30
0.0
 11
125.090414
 21
-44.214699
 31
0.0
  0
ARC
  5
341
100
AcDbEntity
  8
2
100
AcDbCircle
 10
112.340414
 20
-33.675263
 30
0.0
 40
10.539436
100
AcDbArc
 50
246.218654
 51
293.781346
  0
LINE
  5
342
100
AcDbEntity
  8
2
100
AcDbLine
 10
125.790414
 20
-34.714699
 30
0.0
 11
125.790414
 21
-37.214699
 31
0.0
  0
LINE
  5
343
100
AcDbEntity
  8
2
100
AcDbLine
 10
125.790414
 20
-37.214699
 30
0.0
 11
107.390414
 21
-37.214699
 31
0.0
  0
LINE
  5
344
100
AcDbEntity
  8
2
100
AcDbLine
 10
107.390414
 20
-37.214699
 30
0.0
 11
107.390414
 21
-34.714699
 31
0.0
  0
TEXT
  5
345
100
AcDbEntity
  8
2
100
AcDbText
 10
-291.672032
 20
201.385301
 30
0.0
 40
12.0
  1
Ｓ
 50
270.0
 72
     5
 11
-291.672032
 21
191.785301
 31
0.0
100
AcDbText
  0
TEXT
  5
346
100
AcDbEntity
  8
2
100
AcDbText
 10
-320.172032
 20
217.885301
 30
0.0
 40
12.0
  1
Ｏ
 72
     5
 11
-310.572032
 21
217.885301
 31
0.0
100
AcDbText
  0
LINE
  5
347
100
AcDbEntity
  8
2
100
AcDbLine
 10
-268.309586
 20
-37.214699
 30
0.0
 11
-268.309586
 21
-43.319806
 31
0.0
  0
LINE
  5
348
100
AcDbEntity
  8
2
100
AcDbLine
 10
-268.309586
 20
-43.319806
 30
0.0
 11
-269.859586
 21
-44.214699
 31
0.0
  0
LINE
  5
349
100
AcDbEntity
  8
2
100
AcDbLine
 10
-273.209586
 20
-37.214699
 30
0.0
 11
-273.209586
 21
-43.319806
 31
0.0
  0
ARC
  5
34A
100
AcDbEntity
  8
2
100
AcDbCircle
 10
-270.759586
 20
-40.170248
 30
0.0
 40
3.990265
100
AcDbArc
 50
232.121121
 51
307.878879
  0
ARC
  5
34B
100
AcDbEntity
  8
2
100
AcDbCircle
 10
-278.109586
 20
-29.460513
 30
0.0
 40
14.7
100
AcDbArc
 50
250.528777
 51
289.471219
  0
LINE
  5
34C
100
AcDbEntity
  8
2
100
AcDbLine
 10
-287.163628
 20
-43.750486
 30
0.0
 11
-286.359586
 21
-44.214699
 31
0.0
  0
LINE
  5
34D
100
AcDbEntity
  8
2
100
AcDbLine
 10
-286.359586
 20
-44.214699
 30
0.0
 11
-269.859586
 21
-44.214699
 31
0.0
  0
LINE
  5
34E
100
AcDbEntity
  8
2
100
AcDbLine
 10
-283.009586
 20
-40.19876
 30
0.0
 11
-283.009586
 21
-43.319806
 31
0.0
  0
ARC
  5
34F
100
AcDbEntity
  8
2
100
AcDbCircle
 10
-285.459586
 20
-40.170248
 30
0.0
 40
3.990265
100
AcDbArc
 50
244.424712
 51
307.878879
  0
LINE
  5
350
100
AcDbEntity
  8
2
100
AcDbLine
 10
-268.909586
 20
-34.856803
 30
0.0
 11
-268.909586
 21
-37.214699
 31
0.0
  0
LINE
  5
351
100
AcDbEntity
  8
2
100
AcDbLine
 10
-268.309586
 20
-37.214699
 30
0.0
 11
-277.737257
 21
-37.214699
 31
0.0
  0
LINE
  5
352
100
AcDbEntity
  8
2
100
AcDbLine
 10
52.965522
 20
-43.196278
 30
0.0
 11
52.965522
 21
-44.214699
 31
0.0
  0
LINE
  5
353
100
AcDbEntity
  8
2
100
AcDbLine
 10
44.465522
 20
-37.381279
 30
0.0
 11
44.465522
 21
-43.319806
 31
0.0
  0
ARC
  5
354
100
AcDbEntity
  8
2
100
AcDbCircle
 10
48.715522
 20
-33.675263
 30
0.0
 40
10.539436
100
AcDbArc
 50
246.218654
 51
293.781346
  0
LINE
  5
355
100
AcDbEntity
  8
2
100
AcDbLine
 10
35.965522
 20
-37.214699
 30
0.0
 11
35.965522
 21
-44.214699
 31
0.0
  0
LINE
  5
356
100
AcDbEntity
  8
2
100
AcDbLine
 10
35.965522
 20
-44.214699
 30
0.0
 11
52.965522
 21
-44.214699
 31
0.0
  0
ARC
  5
357
100
AcDbEntity
  8
2
100
AcDbCircle
 10
40.215522
 20
-33.675263
 30
0.0
 40
10.539436
100
AcDbArc
 50
246.218654
 51
293.781346
  0
LINE
  5
358
100
AcDbEntity
  8
2
100
AcDbLine
 10
44.093192
 20
-37.214699
 30
0.0
 11
35.265522
 21
-37.214699
 31
0.0
  0
LINE
  5
359
100
AcDbEntity
  8
2
100
AcDbLine
 10
35.265522
 20
-37.214699
 30
0.0
 11
35.265522
 21
-34.856803
 31
0.0
  0
CIRCLE
  5
35A
100
AcDbEntity
  8
2
  6
PHANTOM
 62
     2
100
AcDbCircle
 10
133.527968
 20
9.285301
 30
0.0
 40
62.5
  0
CIRCLE
  5
35B
100
AcDbEntity
  8
2
  6
PHANTOM
 62
     2
100
AcDbCircle
 10
133.527968
 20
9.285301
 30
0.0
 40
20.5
  0
CIRCLE
  5
35C
100
AcDbEntity
  8
2
  6
PHANTOM
 62
     2
100
AcDbCircle
 10
133.527968
 20
9.285301
 30
0.0
 40
23.5
  0
LINE
  5
35D
100
AcDbEntity
  8
2
  6
PHANTOM
 62
     2
100
AcDbLine
 10
125.027968
 20
54.856673
 30
0.0
 11
125.027968
 21
33.159973
 31
0.0
  0
LINE
  5
35E
100
AcDbEntity
  8
2
  6
PHANTOM
 62
     2
100
AcDbLine
 10
142.027968
 20
54.856673
 30
0.0
 11
142.027968
 21
33.159973
 31
0.0
  0
ARC
  5
35F
100
AcDbEntity
  8
2
  6
PHANTOM
 62
     2
100
AcDbCircle
 10
145.027968
 20
54.856673
 30
0.0
 40
3.0
100
AcDbArc
 50
75.837026
 51
180.0
  0
ARC
  5
360
100
AcDbEntity
  8
2
  6
PHANTOM
 62
     2
100
AcDbCircle
 10
122.027968
 20
54.856673
 30
0.0
 40
3.0
100
AcDbArc
 50
0.0
 51
104.162974
  0
ARC
  5
361
100
AcDbEntity
  8
2
  6
PHANTOM
 62
     2
100
AcDbCircle
 10
145.027968
 20
33.159973
 30
0.0
 40
3.0
100
AcDbArc
 50
180.0
 51
244.28072
  0
ARC
  5
362
100
AcDbEntity
  8
2
  6
PHANTOM
 62
     2
100
AcDbCircle
 10
122.027968
 20
33.159973
 30
0.0
 40
3.0
100
AcDbArc
 50
295.71928
 51
360.0
  0
LINE
  5
363
100
AcDbEntity
  8
2
  6
PHANTOM
 62
     2
100
AcDbLine
 10
98.312002
 20
-20.861602
 30
0.0
 11
117.101895
 21
-10.013252
 31
0.0
  0
LINE
  5
364
100
AcDbEntity
  8
2
  6
PHANTOM
 62
     2
100
AcDbLine
 10
89.812002
 20
-6.13917
 30
0.0
 11
108.601895
 21
4.70918
 31
0.0
  0
ARC
  5
365
100
AcDbEntity
  8
2
  6
PHANTOM
 62
     2
100
AcDbCircle
 10
88.312002
 20
-3.541093
 30
0.0
 40
3.0
100
AcDbArc
 50
195.837026
 51
300.0
  0
ARC
  5
366
100
AcDbEntity
  8
2
  6
PHANTOM
 62
     2
100
AcDbCircle
 10
99.812002
 20
-23.459678
 30
0.0
 40
3.0
100
AcDbArc
 50
120.0
 51
224.162974
  0
ARC
  5
367
100
AcDbEntity
  8
2
  6
PHANTOM
 62
     2
100
AcDbCircle
 10
107.101895
 20
7.307256
 30
0.0
 40
3.0
100
AcDbArc
 50
300.0
 51
4.28072
  0
ARC
  5
368
100
AcDbEntity
  8
2
  6
PHANTOM
 62
     2
100
AcDbCircle
 10
118.601895
 20
-12.611328
 30
0.0
 40
3.0
100
AcDbArc
 50
55.71928
 51
120.0
  0
LINE
  5
369
100
AcDbEntity
  8
2
  6
PHANTOM
 62
     2
100
AcDbLine
 10
177.243934
 20
-6.13917
 30
0.0
 11
158.454041
 21
4.70918
 31
0.0
  0
LINE
  5
36A
100
AcDbEntity
  8
2
  6
PHANTOM
 62
     2
100
AcDbLine
 10
168.743934
 20
-20.861602
 30
0.0
 11
149.954041
 21
-10.013252
 31
0.0
  0
ARC
  5
36B
100
AcDbEntity
  8
2
  6
PHANTOM
 62
     2
100
AcDbCircle
 10
167.243934
 20
-23.459678
 30
0.0
 40
3.0
100
AcDbArc
 50
315.837026
 51
60.0
  0
ARC
  5
36C
100
AcDbEntity
  8
2
  6
PHANTOM
 62
     2
100
AcDbCircle
 10
178.743934
 20
-3.541093
 30
0.0
 40
3.0
100
AcDbArc
 50
240.0
 51
344.162974
  0
ARC
  5
36D
100
AcDbEntity
  8
2
  6
PHANTOM
 62
     2
100
AcDbCircle
 10
148.454041
 20
-12.611328
 30
0.0
 40
3.0
100
AcDbArc
 50
60.0
 51
124.28072
  0
ARC
  5
36E
100
AcDbEntity
  8
2
  6
PHANTOM
 62
     2
100
AcDbCircle
 10
159.954041
 20
7.307256
 30
0.0
 40
3.0
100
AcDbArc
 50
175.71928
 51
240.0
  0
ARC
  5
36F
100
AcDbEntity
  8
2
  6
PHANTOM
 62
     2
100
AcDbCircle
 10
133.527968
 20
9.285301
 30
0.0
 40
23.970298
100
AcDbArc
 50
112.052588
 51
187.947412
  0
ARC
  5
370
100
AcDbEntity
  8
2
  6
PHANTOM
 62
     2
100
AcDbCircle
 10
133.527968
 20
9.285301
 30
0.0
 40
23.970298
100
AcDbArc
 50
232.052588
 51
307.947412
  0
ARC
  5
371
100
AcDbEntity
  8
2
  6
PHANTOM
 62
     2
100
AcDbCircle
 10
133.527968
 20
9.285301
 30
0.0
 40
23.970298
100
AcDbArc
 50
352.052588
 51
67.947412
  0
ARC
  5
372
100
AcDbEntity
  8
2
  6
PHANTOM
 62
     2
100
AcDbCircle
 10
133.527968
 20
9.285301
 30
0.0
 40
50.0
100
AcDbArc
 50
80.212181
 51
99.787819
  0
ARC
  5
373
100
AcDbEntity
  8
2
  6
PHANTOM
 62
     2
100
AcDbCircle
 10
133.527968
 20
9.285301
 30
0.0
 40
50.0
100
AcDbArc
 50
344.162974
 51
75.837026
  0
ARC
  5
374
100
AcDbEntity
  8
2
  6
PHANTOM
 62
     2
100
AcDbCircle
 10
133.527968
 20
9.285301
 30
0.0
 40
50.0
100
AcDbArc
 50
320.212181
 51
339.787819
  0
ARC
  5
375
100
AcDbEntity
  8
2
  6
PHANTOM
 62
     2
100
AcDbCircle
 10
133.527968
 20
9.285301
 30
0.0
 40
50.0
100
AcDbArc
 50
224.162974
 51
315.837026
  0
ARC
  5
376
100
AcDbEntity
  8
2
  6
PHANTOM
 62
     2
100
AcDbCircle
 10
133.527968
 20
9.285301
 30
0.0
 40
50.0
100
AcDbArc
 50
104.162974
 51
195.837026
  0
ARC
  5
377
100
AcDbEntity
  8
2
  6
PHANTOM
 62
     2
100
AcDbCircle
 10
133.527968
 20
9.285301
 30
0.0
 40
50.0
100
AcDbArc
 50
200.212181
 51
219.787819
  0
LINE
  5
378
100
AcDbEntity
  8
2
100
AcDbLine
 10
-265.80439
 20
254.385301
 30
0.0
 11
-180.172032
 21
254.385301
 31
0.0
  0
LINE
  5
379
100
AcDbEntity
  8
2
100
AcDbLine
 10
-262.322333
 20
242.385301
 30
0.0
 11
-180.172032
 21
242.385301
 31
0.0
  0
LINE
  5
37A
100
AcDbEntity
  8
2
100
AcDbLine
 10
-173.172032
 20
225.415003
 30
0.0
 11
-173.172032
 21
271.355598
 31
0.0
  0
LINE
  5
37B
100
AcDbEntity
  8
2
100
AcDbLine
 10
-156.172032
 20
302.885301
 30
0.0
 11
-156.172032
 21
193.885301
 31
0.0
  0
ARC
  5
37C
100
AcDbEntity
  8
2
100
AcDbCircle
 10
-171.672032
 20
243.322801
 30
0.0
 40
19.0625
100
AcDbArc
 50
99.565331
 51
116.48104
  0
ARC
  5
37D
100
AcDbEntity
  8
2
100
AcDbCircle
 10
-171.672032
 20
253.447801
 30
0.0
 40
19.0625
100
AcDbArc
 50
243.51896
 51
260.434669
  0
LINE
  5
37E
100
AcDbEntity
  8
2
100
AcDbLine
 10
-167.189042
 20
224.674778
 30
0.0
 11
-172.119696
 21
224.416373
 31
0.0
  0
LINE
  5
37F
100
AcDbEntity
  8
2
100
AcDbLine
 10
-167.189042
 20
272.095823
 30
0.0
 11
-172.119696
 21
272.354228
 31
0.0
  0
ARC
  5
380
100
AcDbEntity
  8
2
100
AcDbCircle
 10
-172.172032
 20
271.355598
 30
0.0
 40
1.0
100
AcDbArc
 50
87.0
 51
180.0
  0
ARC
  5
381
100
AcDbEntity
  8
2
100
AcDbCircle
 10
-172.172032
 20
225.415003
 30
0.0
 40
1.0
100
AcDbArc
 50
180.0
 51
273.0
  0
ARC
  5
382
100
AcDbEntity
  8
2
100
AcDbCircle
 10
-164.172032
 20
302.885301
 30
0.0
 40
8.0
100
AcDbArc
 50
0.0
 51
90.0
  0
ARC
  5
383
100
AcDbEntity
  8
2
100
AcDbCircle
 10
-164.672032
 20
256.345359
 30
0.0
 40
3.0
100
AcDbArc
 50
180.0
 51
201.343442
  0
ARC
  5
384
100
AcDbEntity
  8
2
100
AcDbCircle
 10
-179.963051
 20
267.698863
 30
0.0
 40
13.791019
100
AcDbArc
 50
0.0
 51
24.402376
  0
ARC
  5
385
100
AcDbEntity
  8
2
100
AcDbCircle
 10
-187.044353
 20
267.698863
 30
0.0
 40
20.872321
100
AcDbArc
 50
339.580898
 51
360.0
  0
LINE
  5
386
100
AcDbEntity
  8
2
100
AcDbLine
 10
-167.672032
 20
256.345359
 30
0.0
 11
-167.672032
 21
259.37018
 31
0.0
  0
ARC
  5
387
100
AcDbEntity
  8
2
100
AcDbCircle
 10
-164.672032
 20
274.635941
 30
0.0
 40
3.0
100
AcDbArc
 50
180.0
 51
204.402376
  0
ARC
  5
388
100
AcDbEntity
  8
2
100
AcDbCircle
 10
-164.672032
 20
259.37018
 30
0.0
 40
3.0
100
AcDbArc
 50
159.580898
 51
180.0
  0
ARC
  5
389
100
AcDbEntity
  8
2
100
AcDbCircle
 10
-185.202984
 20
285.121879
 30
0.0
 40
19.030952
100
AcDbArc
 50
338.735161
 51
360.0
  0
ARC
  5
38A
100
AcDbEntity
  8
2
100
AcDbCircle
 10
-173.745197
 20
285.121879
 30
0.0
 40
7.573165
100
AcDbArc
 50
0.0
 51
30.89258
  0
LINE
  5
38B
100
AcDbEntity
  8
2
100
AcDbLine
 10
-167.672032
 20
273.922405
 30
0.0
 11
-167.672032
 21
277.131707
 31
0.0
  0
ARC
  5
38C
100
AcDbEntity
  8
2
100
AcDbCircle
 10
-164.672032
 20
277.131707
 30
0.0
 40
3.0
100
AcDbArc
 50
158.735161
 51
180.0
  0
ARC
  5
38D
100
AcDbEntity
  8
2
100
AcDbCircle
 10
-164.672032
 20
290.55046
 30
0.0
 40
3.0
100
AcDbArc
 50
180.0
 51
210.89258
  0
ARC
  5
38E
100
AcDbEntity
  8
2
100
AcDbCircle
 10
-180.22211
 20
298.948863
 30
0.0
 40
14.050078
100
AcDbArc
 50
335.031841
 51
360.0
  0
ARC
  5
38F
100
AcDbEntity
  8
2
100
AcDbCircle
 10
-168.764323
 20
298.948863
 30
0.0
 40
2.592291
100
AcDbArc
 50
0.0
 51
50.694353
  0
LINE
  5
390
100
AcDbEntity
  8
2
100
AcDbLine
 10
-167.672032
 20
289.287658
 30
0.0
 11
-167.672032
 21
292.173892
 31
0.0
  0
ARC
  5
391
100
AcDbEntity
  8
2
100
AcDbCircle
 10
-174.004256
 20
307.826333
 30
0.0
 40
7.832224
100
AcDbArc
 50
326.115932
 51
360.0
  0
LINE
  5
392
100
AcDbEntity
  8
2
100
AcDbLine
 10
-167.672032
 20
300.412673
 30
0.0
 11
-167.672032
 21
302.902242
 31
0.0
  0
ARC
  5
393
100
AcDbEntity
  8
2
100
AcDbCircle
 10
-166.672032
 20
302.902242
 30
0.0
 40
1.0
100
AcDbArc
 50
146.115932
 51
180.0
  0
ARC
  5
394
100
AcDbEntity
  8
2
100
AcDbCircle
 10
-166.172032
 20
302.115387
 30
0.0
 40
1.5
100
AcDbArc
 50
180.0
 51
230.694353
  0
ARC
  5
395
100
AcDbEntity
  8
2
100
AcDbCircle
 10
-165.672032
 20
292.173892
 30
0.0
 40
2.0
100
AcDbArc
 50
155.031841
 51
180.0
  0
LINE
  5
396
100
AcDbEntity
  8
2
100
AcDbLine
 10
-167.672032
 20
306.736366
 30
0.0
 11
-167.672032
 21
308.419435
 31
0.0
  0
ARC
  5
397
100
AcDbEntity
  8
2
100
AcDbCircle
 10
-165.672032
 20
308.419435
 30
0.0
 40
2.0
100
AcDbArc
 50
104.477512
 51
180.0
  0
ARC
  5
398
100
AcDbEntity
  8
2
100
AcDbCircle
 10
-164.172032
 20
308.885301
 30
0.0
 40
2.0
100
AcDbArc
 50
90.0
 51
124.767441
  0
ARC
  5
399
100
AcDbEntity
  8
2
100
AcDbCircle
 10
-164.172032
 20
302.60996
 30
0.0
 40
8.0
100
AcDbArc
 50
98.196109
 51
104.477512
  0
ARC
  5
39A
100
AcDbEntity
  8
2
100
AcDbCircle
 10
-184.039219
 20
266.153778
 30
0.0
 40
17.867187
100
AcDbArc
 50
2.638541
 51
21.856863
  0
ARC
  5
39B
100
AcDbEntity
  8
2
100
AcDbCircle
 10
-164.672032
 20
273.922405
 30
0.0
 40
3.0
100
AcDbArc
 50
180.0
 51
201.856863
  0
ARC
  5
39C
100
AcDbEntity
  8
2
100
AcDbCircle
 10
-180.747644
 20
282.182953
 30
0.0
 40
14.575612
100
AcDbArc
 50
5.399008
 51
23.843296
  0
ARC
  5
39D
100
AcDbEntity
  8
2
100
AcDbCircle
 10
-164.672032
 20
289.287658
 30
0.0
 40
3.0
100
AcDbArc
 50
180.0
 51
203.843296
  0
ARC
  5
39E
100
AcDbEntity
  8
2
100
AcDbCircle
 10
-175.538007
 20
294.903778
 30
0.0
 40
9.365975
100
AcDbArc
 50
11.183746
 51
30.463263
  0
ARC
  5
39F
100
AcDbEntity
  8
2
100
AcDbCircle
 10
-166.172032
 20
300.412673
 30
0.0
 40
1.5
100
AcDbArc
 50
180.0
 51
210.463263
  0
ARC
  5
3A0
100
AcDbEntity
  8
2
100
AcDbCircle
 10
-170.400213
 20
303.07105
 30
0.0
 40
4.228181
100
AcDbArc
 50
28.191715
 51
44.512844
  0
ARC
  5
3A1
100
AcDbEntity
  8
2
100
AcDbCircle
 10
-166.672032
 20
306.736366
 30
0.0
 40
1.0
100
AcDbArc
 50
180.0
 51
224.512844
  0
ARC
  5
3A2
100
AcDbEntity
  8
2
100
AcDbCircle
 10
-166.774797
 20
307.826333
 30
0.0
 40
0.602765
100
AcDbArc
 50
0.0
 51
90.0
  0
ARC
  5
3A3
100
AcDbEntity
  8
2
100
AcDbCircle
 10
-166.774797
 20
307.487226
 30
0.0
 40
0.941872
100
AcDbArc
 50
90.0
 51
126.240794
  0
ARC
  5
3A4
100
AcDbEntity
  8
2
100
AcDbCircle
 10
-167.458091
 20
308.419435
 30
0.0
 40
0.213941
100
AcDbArc
 50
180.0
 51
306.240794
  0
ARC
  5
3A5
100
AcDbEntity
  8
2
100
AcDbCircle
 10
-164.172032
 20
193.885301
 30
0.0
 40
8.0
100
AcDbArc
 50
270.0
 51
360.0
  0
ARC
  5
3A6
100
AcDbEntity
  8
2
100
AcDbCircle
 10
-164.672032
 20
240.425242
 30
0.0
 40
3.0
100
AcDbArc
 50
158.656558
 51
180.0
  0
ARC
  5
3A7
100
AcDbEntity
  8
2
100
AcDbCircle
 10
-185.042877
 20
248.385301
 30
0.0
 40
18.870845
100
AcDbArc
 50
338.656558
 51
21.343442
  0
ARC
  5
3A8
100
AcDbEntity
  8
2
100
AcDbCircle
 10
-179.963051
 20
229.071739
 30
0.0
 40
13.791019
100
AcDbArc
 50
335.597624
 51
360.0
  0
ARC
  5
3A9
100
AcDbEntity
  8
2
100
AcDbCircle
 10
-187.044353
 20
229.071739
 30
0.0
 40
20.872321
100
AcDbArc
 50
0.0
 51
20.419102
  0
LINE
  5
3AA
100
AcDbEntity
  8
2
100
AcDbLine
 10
-167.672032
 20
240.425242
 30
0.0
 11
-167.672032
 21
237.400422
 31
0.0
  0
ARC
  5
3AB
100
AcDbEntity
  8
2
100
AcDbCircle
 10
-164.672032
 20
222.13466
 30
0.0
 40
3.0
100
AcDbArc
 50
155.597624
 51
180.0
  0
ARC
  5
3AC
100
AcDbEntity
  8
2
100
AcDbCircle
 10
-164.672032
 20
237.400422
 30
0.0
 40
3.0
100
AcDbArc
 50
180.0
 51
200.419102
  0
ARC
  5
3AD
100
AcDbEntity
  8
2
100
AcDbCircle
 10
-185.202984
 20
211.648722
 30
0.0
 40
19.030952
100
AcDbArc
 50
0.0
 51
21.264839
  0
ARC
  5
3AE
100
AcDbEntity
  8
2
100
AcDbCircle
 10
-173.745197
 20
211.648722
 30
0.0
 40
7.573165
100
AcDbArc
 50
329.10742
 51
360.0
  0
LINE
  5
3AF
100
AcDbEntity
  8
2
100
AcDbLine
 10
-167.672032
 20
222.848197
 30
0.0
 11
-167.672032
 21
219.638895
 31
0.0
  0
ARC
  5
3B0
100
AcDbEntity
  8
2
100
AcDbCircle
 10
-164.672032
 20
219.638895
 30
0.0
 40
3.0
100
AcDbArc
 50
180.0
 51
201.264839
  0
ARC
  5
3B1
100
AcDbEntity
  8
2
100
AcDbCircle
 10
-164.672032
 20
206.220141
 30
0.0
 40
3.0
100
AcDbArc
 50
149.10742
 51
180.0
  0
ARC
  5
3B2
100
AcDbEntity
  8
2
100
AcDbCircle
 10
-180.22211
 20
197.821739
 30
0.0
 40
14.050078
100
AcDbArc
 50
0.0
 51
24.968159
  0
ARC
  5
3B3
100
AcDbEntity
  8
2
100
AcDbCircle
 10
-168.764323
 20
197.821739
 30
0.0
 40
2.592291
100
AcDbArc
 50
309.305647
 51
360.0
  0
LINE
  5
3B4
100
AcDbEntity
  8
2
100
AcDbLine
 10
-167.672032
 20
207.482943
 30
0.0
 11
-167.672032
 21
204.59671
 31
0.0
  0
ARC
  5
3B5
100
AcDbEntity
  8
2
100
AcDbCircle
 10
-174.004256
 20
188.944268
 30
0.0
 40
7.832224
100
AcDbArc
 50
0.0
 51
33.884068
  0
LINE
  5
3B6
100
AcDbEntity
  8
2
100
AcDbLine
 10
-167.672032
 20
196.357928
 30
0.0
 11
-167.672032
 21
193.868359
 31
0.0
  0
ARC
  5
3B7
100
AcDbEntity
  8
2
100
AcDbCircle
 10
-166.672032
 20
193.868359
 30
0.0
 40
1.0
100
AcDbArc
 50
180.0
 51
213.884068
  0
ARC
  5
3B8
100
AcDbEntity
  8
2
100
AcDbCircle
 10
-166.172032
 20
194.655215
 30
0.0
 40
1.5
100
AcDbArc
 50
129.305647
 51
180.0
  0
ARC
  5
3B9
100
AcDbEntity
  8
2
100
AcDbCircle
 10
-165.672032
 20
204.59671
 30
0.0
 40
2.0
100
AcDbArc
 50
180.0
 51
204.968159
  0
LINE
  5
3BA
100
AcDbEntity
  8
2
100
AcDbLine
 10
-167.672032
 20
190.034235
 30
0.0
 11
-167.672032
 21
188.351166
 31
0.0
  0
ARC
  5
3BB
100
AcDbEntity
  8
2
100
AcDbCircle
 10
-165.672032
 20
188.351166
 30
0.0
 40
2.0
100
AcDbArc
 50
180.0
 51
255.522488
  0
ARC
  5
3BC
100
AcDbEntity
  8
2
100
AcDbCircle
 10
-164.172032
 20
187.885301
 30
0.0
 40
2.0
100
AcDbArc
 50
235.232559
 51
270.0
  0
ARC
  5
3BD
100
AcDbEntity
  8
2
100
AcDbCircle
 10
-164.172032
 20
194.160641
 30
0.0
 40
8.0
100
AcDbArc
 50
255.522488
 51
261.803891
  0
ARC
  5
3BE
100
AcDbEntity
  8
2
100
AcDbCircle
 10
-184.039219
 20
230.616824
 30
0.0
 40
17.867187
100
AcDbArc
 50
338.143137
 51
357.361459
  0
ARC
  5
3BF
100
AcDbEntity
  8
2
100
AcDbCircle
 10
-164.672032
 20
222.848197
 30
0.0
 40
3.0
100
AcDbArc
 50
158.143137
 51
180.0
  0
ARC
  5
3C0
100
AcDbEntity
  8
2
100
AcDbCircle
 10
-180.747644
 20
214.587649
 30
0.0
 40
14.575612
100
AcDbArc
 50
336.156704
 51
354.600992
  0
ARC
  5
3C1
100
AcDbEntity
  8
2
100
AcDbCircle
 10
-164.672032
 20
207.482943
 30
0.0
 40
3.0
100
AcDbArc
 50
156.156704
 51
180.0
  0
ARC
  5
3C2
100
AcDbEntity
  8
2
100
AcDbCircle
 10
-175.538007
 20
201.866824
 30
0.0
 40
9.365975
100
AcDbArc
 50
329.536737
 51
348.816254
  0
ARC
  5
3C3
100
AcDbEntity
  8
2
100
AcDbCircle
 10
-166.172032
 20
196.357928
 30
0.0
 40
1.5
100
AcDbArc
 50
149.536737
 51
180.0
  0
ARC
  5
3C4
100
AcDbEntity
  8
2
100
AcDbCircle
 10
-170.400213
 20
193.699551
 30
0.0
 40
4.228181
100
AcDbArc
 50
315.487156
 51
331.808285
  0
ARC
  5
3C5
100
AcDbEntity
  8
2
100
AcDbCircle
 10
-166.672032
 20
190.034235
 30
0.0
 40
1.0
100
AcDbArc
 50
135.487156
 51
180.0
  0
ARC
  5
3C6
100
AcDbEntity
  8
2
100
AcDbCircle
 10
-166.774797
 20
188.944268
 30
0.0
 40
0.602765
100
AcDbArc
 50
270.0
 51
360.0
  0
ARC
  5
3C7
100
AcDbEntity
  8
2
100
AcDbCircle
 10
-166.774797
 20
189.283375
 30
0.0
 40
0.941872
100
AcDbArc
 50
233.759206
 51
270.0
  0
ARC
  5
3C8
100
AcDbEntity
  8
2
100
AcDbCircle
 10
-167.458091
 20
188.351166
 30
0.0
 40
0.213941
100
AcDbArc
 50
53.759206
 51
180.0
  0
LINE
  5
3C9
100
AcDbEntity
  8
2
100
AcDbLine
 10
-180.172032
 20
236.385301
 30
0.0
 11
-180.172032
 21
260.385301
 31
0.0
  0
LINE
  5
3CA
100
AcDbEntity
  8
2
100
AcDbLine
 10
-170.417868
 20
246.385301
 30
0.0
 11
-170.417868
 21
250.385301
 31
0.0
  0
LINE
  5
3CB
100
AcDbEntity
  8
2
100
AcDbLine
 10
-169.417868
 20
250.385301
 30
0.0
 11
-166.278315
 21
250.385301
 31
0.0
  0
LINE
  5
3CC
100
AcDbEntity
  8
2
100
AcDbLine
 10
-169.417868
 20
246.385301
 30
0.0
 11
-166.278315
 21
246.385301
 31
0.0
  0
ARC
  5
3CD
100
AcDbEntity
  8
2
100
AcDbCircle
 10
-169.417868
 20
251.385301
 30
0.0
 40
1.0
100
AcDbArc
 50
180.0
 51
270.0
  0
ARC
  5
3CE
100
AcDbEntity
  8
2
100
AcDbCircle
 10
-169.417868
 20
245.385301
 30
0.0
 40
1.0
100
AcDbArc
 50
90.0
 51
180.0
  0
LINE
  5
3CF
100
AcDbEntity
  8
2
100
AcDbLine
 10
-167.35505
 20
241.808861
 30
0.0
 11
-167.35505
 21
245.385301
 31
0.0
  0
LINE
  5
3D0
100
AcDbEntity
  8
2
100
AcDbLine
 10
-167.35505
 20
254.96174
 30
0.0
 11
-167.35505
 21
251.385301
 31
0.0
  0
ARC
  5
3D1
100
AcDbEntity
  8
2
100
AcDbCircle
 10
-168.35505
 20
251.385301
 30
0.0
 40
1.0
100
AcDbArc
 50
270.0
 51
360.0
  0
ARC
  5
3D2
100
AcDbEntity
  8
2
100
AcDbCircle
 10
-168.35505
 20
245.385301
 30
0.0
 40
1.0
100
AcDbArc
 50
0.0
 51
90.0
  0
ARC
  5
3D3
100
AcDbEntity
  8
2
100
AcDbCircle
 10
-175.172032
 20
264.092464
 30
0.0
 40
2.0
100
AcDbArc
 50
279.565331
 51
360.0
  0
ARC
  5
3D4
100
AcDbEntity
  8
2
100
AcDbCircle
 10
-175.172032
 20
232.678138
 30
0.0
 40
2.0
100
AcDbArc
 50
0.0
 51
80.434669
  0
LINE
  5
3D5
100
AcDbEntity
  8
2
100
AcDbLine
 10
-180.172032
 20
15.285301
 30
0.0
 11
-259.881557
 21
15.285301
 31
0.0
  0
LINE
  5
3D6
100
AcDbEntity
  8
2
100
AcDbLine
 10
-180.172032
 20
3.285301
 30
0.0
 11
-259.881557
 21
3.285301
 31
0.0
  0
LINE
  5
3D7
100
AcDbEntity
  8
2
100
AcDbLine
 10
-173.172032
 20
-13.684997
 30
0.0
 11
-173.172032
 21
32.255598
 31
0.0
  0
LINE
  5
3D8
100
AcDbEntity
  8
2
100
AcDbLine
 10
-156.172032
 20
63.785301
 30
0.0
 11
-156.172032
 21
-45.214699
 31
0.0
  0
ARC
  5
3D9
100
AcDbEntity
  8
2
100
AcDbCircle
 10
-171.672032
 20
4.222801
 30
0.0
 40
19.0625
100
AcDbArc
 50
99.565331
 51
116.48104
  0
ARC
  5
3DA
100
AcDbEntity
  8
2
100
AcDbCircle
 10
-171.672032
 20
14.347801
 30
0.0
 40
19.0625
100
AcDbArc
 50
243.51896
 51
260.434669
  0
LINE
  5
3DB
100
AcDbEntity
  8
2
100
AcDbLine
 10
-167.189042
 20
-14.425222
 30
0.0
 11
-172.119696
 21
-14.683627
 31
0.0
  0
LINE
  5
3DC
100
AcDbEntity
  8
2
100
AcDbLine
 10
-171.226543
 20
33.20742
 30
0.0
 11
-172.119696
 21
33.254228
 31
0.0
  0
ARC
  5
3DD
100
AcDbEntity
  8
2
100
AcDbCircle
 10
-172.172032
 20
32.255598
 30
0.0
 40
1.0
100
AcDbArc
 50
87.0
 51
180.0
  0
ARC
  5
3DE
100
AcDbEntity
  8
2
100
AcDbCircle
 10
-172.172032
 20
-13.684997
 30
0.0
 40
1.0
100
AcDbArc
 50
180.0
 51
273.0
  0
ARC
  5
3DF
100
AcDbEntity
  8
2
100
AcDbCircle
 10
-164.172032
 20
63.785301
 30
0.0
 40
8.0
100
AcDbArc
 50
0.0
 51
90.0
  0
ARC
  5
3E0
100
AcDbEntity
  8
2
100
AcDbCircle
 10
-164.672032
 20
17.245359
 30
0.0
 40
3.0
100
AcDbArc
 50
180.0
 51
201.343442
  0
ARC
  5
3E1
100
AcDbEntity
  8
2
100
AcDbCircle
 10
-179.963051
 20
28.598863
 30
0.0
 40
13.791019
100
AcDbArc
 50
0.0
 51
24.402376
  0
ARC
  5
3E2
100
AcDbEntity
  8
2
100
AcDbCircle
 10
-187.044353
 20
28.598863
 30
0.0
 40
20.872321
100
AcDbArc
 50
339.580898
 51
360.0
  0
LINE
  5
3E3
100
AcDbEntity
  8
2
100
AcDbLine
 10
-167.672032
 20
17.245359
 30
0.0
 11
-167.672032
 21
20.27018
 31
0.0
  0
ARC
  5
3E4
100
AcDbEntity
  8
2
100
AcDbCircle
 10
-164.672032
 20
35.535941
 30
0.0
 40
3.0
100
AcDbArc
 50
180.0
 51
204.402376
  0
ARC
  5
3E5
100
AcDbEntity
  8
2
100
AcDbCircle
 10
-164.672032
 20
20.27018
 30
0.0
 40
3.0
100
AcDbArc
 50
159.580898
 51
180.0
  0
ARC
  5
3E6
100
AcDbEntity
  8
2
100
AcDbCircle
 10
-185.202984
 20
46.021879
 30
0.0
 40
19.030952
100
AcDbArc
 50
338.735161
 51
360.0
  0
ARC
  5
3E7
100
AcDbEntity
  8
2
100
AcDbCircle
 10
-173.745197
 20
46.021879
 30
0.0
 40
7.573165
100
AcDbArc
 50
0.0
 51
30.89258
  0
LINE
  5
3E8
100
AcDbEntity
  8
2
100
AcDbLine
 10
-167.672032
 20
34.822405
 30
0.0
 11
-167.672032
 21
38.031707
 31
0.0
  0
ARC
  5
3E9
100
AcDbEntity
  8
2
100
AcDbCircle
 10
-164.672032
 20
38.031707
 30
0.0
 40
3.0
100
AcDbArc
 50
158.735161
 51
180.0
  0
ARC
  5
3EA
100
AcDbEntity
  8
2
100
AcDbCircle
 10
-164.672032
 20
51.45046
 30
0.0
 40
3.0
100
AcDbArc
 50
180.0
 51
210.89258
  0
ARC
  5
3EB
100
AcDbEntity
  8
2
100
AcDbCircle
 10
-180.22211
 20
59.848863
 30
0.0
 40
14.050078
100
AcDbArc
 50
335.031841
 51
360.0
  0
ARC
  5
3EC
100
AcDbEntity
  8
2
100
AcDbCircle
 10
-168.764323
 20
59.848863
 30
0.0
 40
2.592291
100
AcDbArc
 50
0.0
 51
50.694353
  0
LINE
  5
3ED
100
AcDbEntity
  8
2
100
AcDbLine
 10
-167.672032
 20
50.187658
 30
0.0
 11
-167.672032
 21
53.073892
 31
0.0
  0
ARC
  5
3EE
100
AcDbEntity
  8
2
100
AcDbCircle
 10
-174.004256
 20
68.726333
 30
0.0
 40
7.832224
100
AcDbArc
 50
326.115932
 51
360.0
  0
LINE
  5
3EF
100
AcDbEntity
  8
2
100
AcDbLine
 10
-167.672032
 20
61.312673
 30
0.0
 11
-167.672032
 21
63.802242
 31
0.0
  0
ARC
  5
3F0
100
AcDbEntity
  8
2
100
AcDbCircle
 10
-166.672032
 20
63.802242
 30
0.0
 40
1.0
100
AcDbArc
 50
146.115932
 51
180.0
  0
ARC
  5
3F1
100
AcDbEntity
  8
2
100
AcDbCircle
 10
-166.172032
 20
63.015387
 30
0.0
 40
1.5
100
AcDbArc
 50
180.0
 51
230.694353
  0
ARC
  5
3F2
100
AcDbEntity
  8
2
100
AcDbCircle
 10
-165.672032
 20
53.073892
 30
0.0
 40
2.0
100
AcDbArc
 50
155.031841
 51
180.0
  0
LINE
  5
3F3
100
AcDbEntity
  8
2
100
AcDbLine
 10
-167.672032
 20
67.636366
 30
0.0
 11
-167.672032
 21
69.319435
 31
0.0
  0
ARC
  5
3F4
100
AcDbEntity
  8
2
100
AcDbCircle
 10
-165.672032
 20
69.319435
 30
0.0
 40
2.0
100
AcDbArc
 50
104.477512
 51
180.0
  0
ARC
  5
3F5
100
AcDbEntity
  8
2
100
AcDbCircle
 10
-164.172032
 20
69.785301
 30
0.0
 40
2.0
100
AcDbArc
 50
90.0
 51
124.767441
  0
ARC
  5
3F6
100
AcDbEntity
  8
2
100
AcDbCircle
 10
-164.172032
 20
63.50996
 30
0.0
 40
8.0
100
AcDbArc
 50
98.196109
 51
104.477512
  0
ARC
  5
3F7
100
AcDbEntity
  8
2
100
AcDbCircle
 10
-184.039219
 20
27.053778
 30
0.0
 40
17.867187
100
AcDbArc
 50
2.381773
 51
21.856863
  0
ARC
  5
3F8
100
AcDbEntity
  8
2
100
AcDbCircle
 10
-164.672032
 20
34.822405
 30
0.0
 40
3.0
100
AcDbArc
 50
180.0
 51
201.856863
  0
ARC
  5
3F9
100
AcDbEntity
  8
2
100
AcDbCircle
 10
-180.747644
 20
43.082953
 30
0.0
 40
14.575612
100
AcDbArc
 50
5.399008
 51
23.843296
  0
ARC
  5
3FA
100
AcDbEntity
  8
2
100
AcDbCircle
 10
-164.672032
 20
50.187658
 30
0.0
 40
3.0
100
AcDbArc
 50
180.0
 51
203.843296
  0
ARC
  5
3FB
100
AcDbEntity
  8
2
100
AcDbCircle
 10
-175.538007
 20
55.803778
 30
0.0
 40
9.365975
100
AcDbArc
 50
11.183746
 51
30.463263
  0
ARC
  5
3FC
100
AcDbEntity
  8
2
100
AcDbCircle
 10
-166.172032
 20
61.312673
 30
0.0
 40
1.5
100
AcDbArc
 50
180.0
 51
210.463263
  0
ARC
  5
3FD
100
AcDbEntity
  8
2
100
AcDbCircle
 10
-170.400213
 20
63.97105
 30
0.0
 40
4.228181
100
AcDbArc
 50
28.191715
 51
44.512844
  0
ARC
  5
3FE
100
AcDbEntity
  8
2
100
AcDbCircle
 10
-166.672032
 20
67.636366
 30
0.0
 40
1.0
100
AcDbArc
 50
180.0
 51
224.512844
  0
ARC
  5
3FF
100
AcDbEntity
  8
2
100
AcDbCircle
 10
-166.774797
 20
68.726333
 30
0.0
 40
0.602765
100
AcDbArc
 50
0.0
 51
90.0
  0
ARC
  5
400
100
AcDbEntity
  8
2
100
AcDbCircle
 10
-166.774797
 20
68.387226
 30
0.0
 40
0.941872
100
AcDbArc
 50
90.0
 51
126.240794
  0
ARC
  5
401
100
AcDbEntity
  8
2
100
AcDbCircle
 10
-167.458091
 20
69.319435
 30
0.0
 40
0.213941
100
AcDbArc
 50
180.0
 51
306.240794
  0
ARC
  5
402
100
AcDbEntity
  8
2
100
AcDbCircle
 10
-164.172032
 20
-45.214699
 30
0.0
 40
8.0
100
AcDbArc
 50
270.0
 51
360.0
  0
ARC
  5
403
100
AcDbEntity
  8
2
100
AcDbCircle
 10
-164.672032
 20
1.325242
 30
0.0
 40
3.0
100
AcDbArc
 50
158.656558
 51
180.0
  0
ARC
  5
404
100
AcDbEntity
  8
2
100
AcDbCircle
 10
-185.042877
 20
9.285301
 30
0.0
 40
18.870845
100
AcDbArc
 50
338.656558
 51
21.343442
  0
ARC
  5
405
100
AcDbEntity
  8
2
100
AcDbCircle
 10
-179.963051
 20
-10.028261
 30
0.0
 40
13.791019
100
AcDbArc
 50
335.597624
 51
360.0
  0
ARC
  5
406
100
AcDbEntity
  8
2
100
AcDbCircle
 10
-187.044353
 20
-10.028261
 30
0.0
 40
20.872321
100
AcDbArc
 50
0.0
 51
20.419102
  0
LINE
  5
407
100
AcDbEntity
  8
2
100
AcDbLine
 10
-167.672032
 20
1.325242
 30
0.0
 11
-167.672032
 21
-1.699578
 31
0.0
  0
ARC
  5
408
100
AcDbEntity
  8
2
100
AcDbCircle
 10
-164.672032
 20
-16.96534
 30
0.0
 40
3.0
100
AcDbArc
 50
155.597624
 51
180.0
  0
ARC
  5
409
100
AcDbEntity
  8
2
100
AcDbCircle
 10
-164.672032
 20
-1.699578
 30
0.0
 40
3.0
100
AcDbArc
 50
180.0
 51
200.419102
  0
ARC
  5
40A
100
AcDbEntity
  8
2
100
AcDbCircle
 10
-185.202984
 20
-27.451278
 30
0.0
 40
19.030952
100
AcDbArc
 50
0.0
 51
21.264839
  0
ARC
  5
40B
100
AcDbEntity
  8
2
100
AcDbCircle
 10
-173.745197
 20
-27.451278
 30
0.0
 40
7.573165
100
AcDbArc
 50
329.10742
 51
360.0
  0
LINE
  5
40C
100
AcDbEntity
  8
2
100
AcDbLine
 10
-167.672032
 20
-16.251803
 30
0.0
 11
-167.672032
 21
-19.461105
 31
0.0
  0
ARC
  5
40D
100
AcDbEntity
  8
2
100
AcDbCircle
 10
-164.672032
 20
-19.461105
 30
0.0
 40
3.0
100
AcDbArc
 50
180.0
 51
201.264839
  0
ARC
  5
40E
100
AcDbEntity
  8
2
100
AcDbCircle
 10
-164.672032
 20
-32.879859
 30
0.0
 40
3.0
100
AcDbArc
 50
149.10742
 51
180.0
  0
ARC
  5
40F
100
AcDbEntity
  8
2
100
AcDbCircle
 10
-180.22211
 20
-41.278261
 30
0.0
 40
14.050078
100
AcDbArc
 50
0.0
 51
24.968159
  0
ARC
  5
410
100
AcDbEntity
  8
2
100
AcDbCircle
 10
-168.764323
 20
-41.278261
 30
0.0
 40
2.592291
100
AcDbArc
 50
309.305647
 51
360.0
  0
LINE
  5
411
100
AcDbEntity
  8
2
100
AcDbLine
 10
-167.672032
 20
-31.617057
 30
0.0
 11
-167.672032
 21
-34.50329
 31
0.0
  0
ARC
  5
412
100
AcDbEntity
  8
2
100
AcDbCircle
 10
-174.004256
 20
-50.155732
 30
0.0
 40
7.832224
100
AcDbArc
 50
0.0
 51
33.884068
  0
LINE
  5
413
100
AcDbEntity
  8
2
100
AcDbLine
 10
-167.672032
 20
-42.742072
 30
0.0
 11
-167.672032
 21
-45.231641
 31
0.0
  0
ARC
  5
414
100
AcDbEntity
  8
2
100
AcDbCircle
 10
-166.672032
 20
-45.231641
 30
0.0
 40
1.0
100
AcDbArc
 50
180.0
 51
213.884068
  0
ARC
  5
415
100
AcDbEntity
  8
2
100
AcDbCircle
 10
-166.172032
 20
-44.444785
 30
0.0
 40
1.5
100
AcDbArc
 50
129.305647
 51
180.0
  0
ARC
  5
416
100
AcDbEntity
  8
2
100
AcDbCircle
 10
-165.672032
 20
-34.50329
 30
0.0
 40
2.0
100
AcDbArc
 50
180.0
 51
204.968159
  0
LINE
  5
417
100
AcDbEntity
  8
2
100
AcDbLine
 10
-167.672032
 20
-49.065765
 30
0.0
 11
-167.672032
 21
-50.748834
 31
0.0
  0
ARC
  5
418
100
AcDbEntity
  8
2
100
AcDbCircle
 10
-165.672032
 20
-50.748834
 30
0.0
 40
2.0
100
AcDbArc
 50
180.0
 51
255.522488
  0
ARC
  5
419
100
AcDbEntity
  8
2
100
AcDbCircle
 10
-164.172032
 20
-51.214699
 30
0.0
 40
2.0
100
AcDbArc
 50
235.232559
 51
270.0
  0
ARC
  5
41A
100
AcDbEntity
  8
2
100
AcDbCircle
 10
-164.172032
 20
-44.939359
 30
0.0
 40
8.0
100
AcDbArc
 50
255.522488
 51
261.803891
  0
ARC
  5
41B
100
AcDbEntity
  8
2
100
AcDbCircle
 10
-184.039219
 20
-8.483176
 30
0.0
 40
17.867187
100
AcDbArc
 50
338.143137
 51
357.618227
  0
ARC
  5
41C
100
AcDbEntity
  8
2
100
AcDbCircle
 10
-164.672032
 20
-16.251803
 30
0.0
 40
3.0
100
AcDbArc
 50
158.143137
 51
180.0
  0
ARC
  5
41D
100
AcDbEntity
  8
2
100
AcDbCircle
 10
-180.747644
 20
-24.512351
 30
0.0
 40
14.575612
100
AcDbArc
 50
336.156704
 51
354.600992
  0
ARC
  5
41E
100
AcDbEntity
  8
2
100
AcDbCircle
 10
-164.672032
 20
-31.617057
 30
0.0
 40
3.0
100
AcDbArc
 50
156.156704
 51
180.0
  0
ARC
  5
41F
100
AcDbEntity
  8
2
100
AcDbCircle
 10
-175.538007
 20
-37.233176
 30
0.0
 40
9.365975
100
AcDbArc
 50
329.536737
 51
348.816254
  0
ARC
  5
420
100
AcDbEntity
  8
2
100
AcDbCircle
 10
-166.172032
 20
-42.742072
 30
0.0
 40
1.5
100
AcDbArc
 50
149.536737
 51
180.0
  0
ARC
  5
421
100
AcDbEntity
  8
2
100
AcDbCircle
 10
-170.400213
 20
-45.400449
 30
0.0
 40
4.228181
100
AcDbArc
 50
315.487156
 51
331.808285
  0
ARC
  5
422
100
AcDbEntity
  8
2
100
AcDbCircle
 10
-166.672032
 20
-49.065765
 30
0.0
 40
1.0
100
AcDbArc
 50
135.487156
 51
180.0
  0
ARC
  5
423
100
AcDbEntity
  8
2
100
AcDbCircle
 10
-166.774797
 20
-50.155732
 30
0.0
 40
0.602765
100
AcDbArc
 50
270.0
 51
360.0
  0
ARC
  5
424
100
AcDbEntity
  8
2
100
AcDbCircle
 10
-166.774797
 20
-49.816625
 30
0.0
 40
0.941872
100
AcDbArc
 50
233.759206
 51
270.0
  0
ARC
  5
425
100
AcDbEntity
  8
2
100
AcDbCircle
 10
-167.458091
 20
-50.748834
 30
0.0
 40
0.213941
100
AcDbArc
 50
53.759206
 51
180.0
  0
LINE
  5
426
100
AcDbEntity
  8
2
100
AcDbLine
 10
-180.172032
 20
-2.714699
 30
0.0
 11
-180.172032
 21
21.285301
 31
0.0
  0
LINE
  5
427
100
AcDbEntity
  8
2
100
AcDbLine
 10
-170.478178
 20
32.93996
 30
0.0
 11
-168.031962
 21
32.811759
 31
0.0
  0
LINE
  5
428
100
AcDbEntity
  8
2
100
AcDbLine
 10
-167.85187
 20
31.150365
 30
0.0
 11
-166.633082
 21
31.086491
 31
0.0
  0
ARC
  5
429
100
AcDbEntity
  8
2
100
AcDbCircle
 10
-168.608208
 20
32.191375
 30
0.0
 40
1.0
100
AcDbArc
 50
267.0
 51
345.0
  0
LINE
  5
42A
100
AcDbEntity
  8
2
100
AcDbLine
 10
-166.709541
 20
47.004704
 30
0.0
 11
-170.208281
 21
33.94723
 31
0.0
  0
LINE
  5
42B
100
AcDbEntity
  8
2
100
AcDbLine
 10
-167.285734
 20
33.263214
 30
0.0
 11
-167.642283
 21
31.932556
 31
0.0
  0
ARC
  5
42C
100
AcDbEntity
  8
2
100
AcDbCircle
 10
-171.174207
 20
34.206049
 30
0.0
 40
1.0
100
AcDbArc
 50
267.0
 51
345.0
  0
LINE
  5
42D
100
AcDbEntity
  8
2
100
AcDbLine
 10
-170.417868
 20
-0.880567
 30
0.0
 11
-170.417868
 21
-5.281032
 31
0.0
  0
LINE
  5
42E
100
AcDbEntity
  8
2
100
AcDbLine
 10
-167.35505
 20
5.574575
 30
0.0
 11
-167.35505
 21
2.708861
 31
0.0
  0
LINE
  5
42F
100
AcDbEntity
  8
2
100
AcDbLine
 10
-167.149115
 20
5.1566
 30
0.0
 11
-166.801658
 21
4.451386
 31
0.0
  0
LINE
  5
430
100
AcDbEntity
  8
2
100
AcDbLine
 10
-170.195453
 20
-1.311893
 30
0.0
 11
-166.193952
 21
-9.071928
 31
0.0
  0
LINE
  5
431
100
AcDbEntity
  8
2
100
AcDbLine
 10
-169.851231
 20
-5.443539
 30
0.0
 11
-166.507323
 21
-11.928316
 31
0.0
  0
ARC
  5
432
100
AcDbEntity
  8
2
100
AcDbCircle
 10
-165.35505
 20
6.040529
 30
0.0
 40
2.0
100
AcDbArc
 50
180.0
 51
206.229318
  0
ARC
  5
433
100
AcDbEntity
  8
2
100
AcDbCircle
 10
-168.417868
 20
-0.395273
 30
0.0
 40
2.0
100
AcDbArc
 50
180.0
 51
207.278121
  0
ARC
  5
434
100
AcDbEntity
  8
2
100
AcDbCircle
 10
-170.117868
 20
-5.581032
 30
0.0
 40
0.3
100
AcDbArc
 50
27.278121
 51
180.0
  0
LINE
  5
435
100
AcDbEntity
  8
2
100
AcDbLine
 10
-170.195453
 20
-0.880567
 30
0.0
 11
-167.672032
 21
-0.880567
 31
0.0
  0
LINE
  5
436
100
AcDbEntity
  8
2
100
AcDbLine
 10
-167.149115
 20
5.574575
 30
0.0
 11
-166.540463
 21
5.574575
 31
0.0
  0
ARC
  5
437
100
AcDbEntity
  8
2
100
AcDbCircle
 10
-175.172032
 20
24.992464
 30
0.0
 40
2.0
100
AcDbArc
 50
279.565331
 51
360.0
  0
ARC
  5
438
100
AcDbEntity
  8
2
100
AcDbCircle
 10
-175.172032
 20
-6.421862
 30
0.0
 40
2.0
100
AcDbArc
 50
0.0
 51
80.434669
  0
DIMENSION
  5
439
100
AcDbEntity
  8
5
100
AcDbDimension
  2
*D0
 10
-8.29398
 20
9.285301
 30
0.0
 11
-16.72398
 21
-2.744699
 31
0.0
  1
30
100
AcDbAlignedDimension
 13
29.527968
 23
-20.714699
 33
0.0
 14
16.199648
 24
9.285301
 34
0.0
 50
90.0
100
AcDbRotatedDimension
  0
DIMENSION
  5
43A
100
AcDbEntity
  8
5
100
AcDbDimension
  2
*D1
 10
-111.375412
 20
248.385301
 30
0.0
 11
-119.805412
 21
224.855301
 31
0.0
  1
53
100
AcDbAlignedDimension
 13
-206.380343
 23
195.385301
 33
0.0
 14
-145.462346
 24
248.385301
 34
0.0
 50
90.0
100
AcDbRotatedDimension
  0
DIMENSION
  5
43B
100
AcDbEntity
  8
5
100
AcDbDimension
  2
*D2
 10
-111.375412
 20
195.385301
 30
0.0
 11
-119.805412
 21
172.855301
 31
0.0
  1
51
100
AcDbAlignedDimension
 13
-286.672032
 23
144.385301
 33
0.0
 14
-206.380343
 24
195.385301
 34
0.0
 50
90.0
100
AcDbRotatedDimension
  0
DIMENSION
  5
43C
100
AcDbEntity
  8
5
100
AcDbDimension
  2
*D3
 10
-8.29398
 20
-20.714699
 30
0.0
 11
-20.188979
 21
-116.709699
 31
0.0
  1
191
100
AcDbAlignedDimension
 13
39.767635
 23
-211.714699
 33
0.0
 14
29.527968
 24
-20.714699
 34
0.0
 50
90.0
100
AcDbRotatedDimension
  0
DIMENSION
  5
43D
100
AcDbEntity
  8
5
100
AcDbDimension
  2
*D4
 10
-8.29398
 20
-211.714699
 30
0.0
 11
-20.188979
 21
-270.559699
 31
0.0
  1
117
100
AcDbAlignedDimension
 13
75.527968
 23
-328.414699
 33
0.0
 14
39.767635
 24
-211.714699
 34
0.0
 50
90.0
100
AcDbRotatedDimension
  0
DIMENSION
  5
43E
100
AcDbEntity
  8
5
100
AcDbDimension
  2
*D5
 10
108.527968
 20
-362.831383
 30
0.0
 11
80.527968
 21
-356.381383
 31
0.0
  1
56
100
AcDbAlignedDimension
 13
52.527968
 23
-301.214699
 33
0.0
 14
108.527968
 24
-301.214699
 34
0.0
100
AcDbRotatedDimension
  0
DIMENSION
  5
43F
100
AcDbEntity
  8
5
100
AcDbDimension
  2
*D6
 10
-156.172032
 20
338.49955
 30
0.0
 11
-235.172032
 21
344.94955
 31
0.0
  1
158
100
AcDbAlignedDimension
 13
-314.172032
 23
283.822053
 33
0.0
 14
-156.172032
 24
302.885301
 34
0.0
100
AcDbRotatedDimension
  0
DIMENSION
  5
440
100
AcDbEntity
  8
5
100
AcDbDimension
  2
*D7
 10
-111.375412
 20
-53.214699
 30
0.0
 11
-126.735412
 21
5.325301
 31
0.0
 70
     1
  1
%%c125
100
AcDbAlignedDimension
 13
-164.172032
 23
71.785301
 33
0.0
 14
-164.172032
 24
-53.214699
 34
0.0
 50
270.0
  0
LINE
  5
441
100
AcDbEntity
  8
13
100
AcDbLine
 10
-299.256347
 20
-272.464699
 30
0.0
 11
-298.726597
 21
-272.382409
 31
0.0
  0
LINE
  5
442
100
AcDbEntity
  8
13
100
AcDbLine
 10
-291.615757
 20
-265.216129
 30
0.0
 11
-291.592787
 21
-265.209999
 31
0.0
  0
LINE
  5
443
100
AcDbEntity
  8
13
100
AcDbLine
 10
-291.592787
 20
-265.209999
 30
0.0
 11
-291.611382
 21
-265.221589
 31
0.0
  0
LINE
  5
444
100
AcDbEntity
  8
13
100
AcDbLine
 10
-329.381422
 20
-272.426539
 30
0.0
 11
-329.120247
 21
-272.464699
 31
0.0
  0
LINE
  5
445
100
AcDbEntity
  8
13
100
AcDbLine
 10
-297.825955
 20
-150.964699
 30
0.0
 11
-330.593755
 21
-150.964699
 31
0.0
  0
LINE
  5
446
100
AcDbEntity
  8
13
100
AcDbLine
 10
-297.799972
 20
-272.464699
 30
0.0
 11
-330.544092
 21
-272.464699
 31
0.0
  0
ARC
  5
447
100
AcDbEntity
  8
13
100
AcDbCircle
 10
-314.172032
 20
-208.754699
 30
0.0
 40
65.78
100
AcDbArc
 50
284.411905
 51
298.714138
  0
ARC
  5
448
100
AcDbEntity
  8
13
100
AcDbCircle
 10
-314.172032
 20
-211.714699
 30
0.0
 40
63.2
100
AcDbArc
 50
300.003494
 51
59.996506
  0
ARC
  5
449
100
AcDbEntity
  8
13
100
AcDbCircle
 10
-314.172032
 20
-214.674699
 30
0.0
 40
65.78
100
AcDbArc
 50
61.285862
 51
75.744619
  0
LINE
  5
44A
100
AcDbEntity
  8
13
100
AcDbLine
 10
-330.544092
 20
-272.464699
 30
0.0
 11
-297.799972
 21
-272.464699
 31
0.0
  0
ARC
  5
44B
100
AcDbEntity
  8
13
100
AcDbCircle
 10
-314.172032
 20
-208.754699
 30
0.0
 40
65.78
100
AcDbArc
 50
241.285862
 51
255.588095
  0
ARC
  5
44C
100
AcDbEntity
  8
13
100
AcDbCircle
 10
-314.172032
 20
-214.674699
 30
0.0
 40
65.78
100
AcDbArc
 50
104.411905
 51
118.714138
  0
LINE
  5
44D
100
AcDbEntity
  8
13
100
AcDbLine
 10
-330.631146
 20
-150.964699
 30
0.0
 11
-297.799974
 21
-150.964699
 31
0.0
  0
ARC
  5
44E
100
AcDbEntity
  8
13
100
AcDbCircle
 10
-314.172032
 20
-211.714699
 30
0.0
 40
63.2
100
AcDbArc
 50
120.003494
 51
239.996506
  0
LINE
  5
44F
100
AcDbEntity
  8
13
100
AcDbLine
 10
-261.884421
 20
-187.024346
 30
0.0
 11
-263.343176
 21
-184.194295
 31
0.0
  0
LINE
  5
450
100
AcDbEntity
  8
13
100
AcDbLine
 10
-265.210963
 20
-184.135366
 30
0.0
 11
-263.742379
 21
-186.649546
 31
0.0
  0
LINE
  5
451
100
AcDbEntity
  8
13
100
AcDbLine
 10
-264.693667
 20
-188.150061
 30
0.0
 11
-315.872454
 21
-183.638868
 31
0.0
  0
LINE
  5
452
100
AcDbEntity
  8
13
100
AcDbLine
 10
-322.759152
 20
-183.912314
 30
0.0
 11
-262.849302
 21
-188.479621
 31
0.0
  0
LINE
  5
453
100
AcDbEntity
  8
13
100
AcDbLine
 10
-295.623507
 20
-181.031244
 30
0.0
 11
-265.986641
 21
-183.643607
 31
0.0
  0
LINE
  5
454
100
AcDbEntity
  8
13
100
AcDbLine
 10
-264.134366
 20
-183.657244
 30
0.0
 11
-294.489341
 21
-180.678041
 31
0.0
  0
ARC
  5
455
100
AcDbEntity
  8
13
100
AcDbCircle
 10
-266.074446
 20
-184.639744
 30
0.0
 40
1.0
100
AcDbArc
 50
30.290086
 51
84.962643
  0
ARC
  5
456
100
AcDbEntity
  8
13
100
AcDbCircle
 10
-264.232042
 20
-184.652462
 30
0.0
 40
1.0
100
AcDbArc
 50
27.268929
 51
84.394632
  0
ARC
  5
457
100
AcDbEntity
  8
13
100
AcDbCircle
 10
-262.773287
 20
-187.482514
 30
0.0
 40
1.0
100
AcDbArc
 50
265.640413
 51
27.268929
  0
ARC
  5
458
100
AcDbEntity
  8
13
100
AcDbCircle
 10
-264.605862
 20
-187.153924
 30
0.0
 40
1.0
100
AcDbArc
 50
264.962639
 51
30.290086
  0
LINE
  5
459
100
AcDbEntity
  8
13
100
AcDbLine
 10
-301.707932
 20
-173.169075
 30
0.0
 11
-301.707932
 21
-159.691173
 31
0.0
  0
ARC
  5
45A
100
AcDbEntity
  8
13
100
AcDbCircle
 10
-290.732282
 20
-154.51656
 30
0.0
 40
26.962058
100
AcDbArc
 50
222.414985
 51
259.548018
  0
ARC
  5
45B
100
AcDbEntity
  8
13
100
AcDbCircle
 10
-293.707932
 20
-172.716295
 30
0.0
 40
8.0
100
AcDbArc
 50
180.0
 51
264.394632
  0
ARC
  5
45C
100
AcDbEntity
  8
13
100
AcDbCircle
 10
-315.257817
 20
-176.665905
 30
0.0
 40
7.0
100
AcDbArc
 50
180.0
 51
264.962639
  0
ARC
  5
45D
100
AcDbEntity
  8
13
100
AcDbCircle
 10
-322.227042
 20
-176.932568
 30
0.0
 40
7.0
100
AcDbArc
 50
180.0
 51
265.640413
  0
ARC
  5
45E
100
AcDbEntity
  8
13
100
AcDbCircle
 10
-303.207932
 20
-186.405729
 30
0.0
 40
1.0
100
AcDbArc
 50
85.640413
 51
180.0
  0
ARC
  5
45F
100
AcDbEntity
  8
13
100
AcDbCircle
 10
-310.207932
 20
-185.872075
 30
0.0
 40
1.0
100
AcDbArc
 50
85.640413
 51
180.0
  0
ARC
  5
460
100
AcDbEntity
  8
13
100
AcDbCircle
 10
-318.136132
 20
-185.267658
 30
0.0
 40
1.0
100
AcDbArc
 50
0.0
 51
85.640413
  0
ARC
  5
461
100
AcDbEntity
  8
13
100
AcDbCircle
 10
-325.136132
 20
-184.384896
 30
0.0
 40
1.0
100
AcDbArc
 50
0.0
 51
68.676321
  0
LINE
  5
462
100
AcDbEntity
  8
13
100
AcDbLine
 10
-304.207932
 20
-186.405729
 30
0.0
 11
-304.207932
 21
-207.935185
 31
0.0
  0
LINE
  5
463
100
AcDbEntity
  8
13
100
AcDbLine
 10
-324.136132
 20
-184.384896
 30
0.0
 11
-324.136132
 21
-207.209949
 31
0.0
  0
LINE
  5
464
100
AcDbEntity
  8
13
100
AcDbLine
 10
-311.207932
 20
-185.872075
 30
0.0
 11
-311.207932
 21
-208.118409
 31
0.0
  0
LINE
  5
465
100
AcDbEntity
  8
13
100
AcDbLine
 10
-317.136132
 20
-185.267658
 30
0.0
 11
-317.136132
 21
-208.007877
 31
0.0
  0
LINE
  5
466
100
AcDbEntity
  8
13
100
AcDbLine
 10
-257.23515
 20
-209.436941
 30
0.0
 11
-303.168507
 21
-208.935674
 31
0.0
  0
LINE
  5
467
100
AcDbEntity
  8
13
100
AcDbLine
 10
-256.246062
 20
-212.992518
 30
0.0
 11
-256.246062
 21
-210.436881
 31
0.0
  0
LINE
  5
468
100
AcDbEntity
  8
13
100
AcDbLine
 10
-303.168507
 20
-214.493729
 30
0.0
 11
-257.23515
 21
-213.992458
 31
0.0
  0
LINE
  5
469
100
AcDbEntity
  8
13
100
AcDbLine
 10
-258.445392
 20
-213.902584
 30
0.0
 11
-320.964922
 21
-213.902584
 31
0.0
  0
LINE
  5
46A
100
AcDbEntity
  8
13
100
AcDbLine
 10
-320.964922
 20
-209.526814
 30
0.0
 11
-258.445392
 21
-209.526814
 31
0.0
  0
LINE
  5
46B
100
AcDbEntity
  8
13
100
AcDbLine
 10
-257.445392
 20
-212.902584
 30
0.0
 11
-257.445392
 21
-210.526814
 31
0.0
  0
ARC
  5
46C
100
AcDbEntity
  8
13
100
AcDbCircle
 10
-257.246062
 20
-212.992518
 30
0.0
 40
1.0
100
AcDbArc
 50
270.625245
 51
360.0
  0
ARC
  5
46D
100
AcDbEntity
  8
13
100
AcDbCircle
 10
-258.445392
 20
-212.902584
 30
0.0
 40
1.0
100
AcDbArc
 50
270.0
 51
360.0
  0
ARC
  5
46E
100
AcDbEntity
  8
13
100
AcDbCircle
 10
-258.445392
 20
-210.526814
 30
0.0
 40
1.0
100
AcDbArc
 50
360.0
 51
90.0
  0
ARC
  5
46F
100
AcDbEntity
  8
13
100
AcDbCircle
 10
-257.246062
 20
-210.436881
 30
0.0
 40
1.0
100
AcDbArc
 50
360.0
 51
89.374762
  0
LINE
  5
470
100
AcDbEntity
  8
13
100
AcDbLine
 10
-321.964922
 20
-212.902584
 30
0.0
 11
-321.964922
 21
-210.526814
 31
0.0
  0
LINE
  5
471
100
AcDbEntity
  8
13
100
AcDbLine
 10
-329.227042
 20
-209.209949
 30
0.0
 11
-329.227042
 21
-214.367819
 31
0.0
  0
ARC
  5
472
100
AcDbEntity
  8
13
100
AcDbCircle
 10
-320.964922
 20
-210.526814
 30
0.0
 40
1.0
100
AcDbArc
 50
90.0
 51
180.0
  0
ARC
  5
473
100
AcDbEntity
  8
13
100
AcDbCircle
 10
-320.964922
 20
-212.902584
 30
0.0
 40
1.0
100
AcDbArc
 50
180.0
 51
270.0
  0
LINE
  5
474
100
AcDbEntity
  8
13
100
AcDbLine
 10
-328.227042
 20
-208.209949
 30
0.0
 11
-325.136132
 21
-208.209949
 31
0.0
  0
ARC
  5
475
100
AcDbEntity
  8
13
100
AcDbCircle
 10
-328.227042
 20
-209.209949
 30
0.0
 40
1.0
100
AcDbArc
 50
90.0
 51
180.0
  0
ARC
  5
476
100
AcDbEntity
  8
13
100
AcDbCircle
 10
-325.136132
 20
-207.209949
 30
0.0
 40
1.0
100
AcDbArc
 50
270.0
 51
360.0
  0
LINE
  5
477
100
AcDbEntity
  8
13
100
AcDbLine
 10
-316.490685
 20
-209.151369
 30
0.0
 11
-310.511528
 21
-209.151369
 31
0.0
  0
LINE
  5
478
100
AcDbEntity
  8
13
100
AcDbLine
 10
-317.136132
 20
-209.151369
 30
0.0
 11
-324.136132
 21
-208.209949
 31
0.0
  0
LINE
  5
479
100
AcDbEntity
  8
13
100
AcDbLine
 10
-311.207932
 20
-209.151369
 30
0.0
 11
-304.207932
 21
-208.924331
 31
0.0
  0
ARC
  5
47A
100
AcDbEntity
  8
13
100
AcDbCircle
 10
-303.207932
 20
-207.935185
 30
0.0
 40
1.0
100
AcDbArc
 50
180.0
 51
269.374762
  0
LINE
  5
47B
100
AcDbEntity
  8
13
100
AcDbLine
 10
-310.637802
 20
-212.910039
 30
0.0
 11
-310.637802
 21
-210.519364
 31
0.0
  0
LINE
  5
47C
100
AcDbEntity
  8
13
100
AcDbLine
 10
-329.227042
 20
-159.498042
 30
0.0
 11
-329.227042
 21
-176.932568
 31
0.0
  0
LINE
  5
47D
100
AcDbEntity
  8
13
100
AcDbLine
 10
-322.257817
 20
-176.665905
 30
0.0
 11
-322.257817
 21
-159.642049
 31
0.0
  0
LINE
  5
47E
100
AcDbEntity
  8
13
100
AcDbLine
 10
-328.144585
 20
-208.406234
 30
0.0
 11
-321.964922
 21
-209.526814
 31
0.0
  0
LINE
  5
47F
100
AcDbEntity
  8
13
100
AcDbLine
 10
-257.806846
 20
-213.878751
 30
0.0
 11
-257.174091
 21
-213.920473
 31
0.0
  0
LINE
  5
480
100
AcDbEntity
  8
13
100
AcDbLine
 10
-257.806846
 20
-209.550647
 30
0.0
 11
-257.174091
 21
-209.508926
 31
0.0
  0
LINE
  5
481
100
AcDbEntity
  8
13
100
AcDbLine
 10
-261.884421
 20
-236.405052
 30
0.0
 11
-263.343176
 21
-239.235104
 31
0.0
  0
LINE
  5
482
100
AcDbEntity
  8
13
100
AcDbLine
 10
-265.210963
 20
-239.294033
 30
0.0
 11
-263.742379
 21
-236.779853
 31
0.0
  0
LINE
  5
483
100
AcDbEntity
  8
13
100
AcDbLine
 10
-264.693667
 20
-235.279337
 30
0.0
 11
-315.872454
 21
-239.79053
 31
0.0
  0
LINE
  5
484
100
AcDbEntity
  8
13
100
AcDbLine
 10
-322.759152
 20
-239.517085
 30
0.0
 11
-262.849302
 21
-234.949778
 31
0.0
  0
LINE
  5
485
100
AcDbEntity
  8
13
100
AcDbLine
 10
-295.623507
 20
-242.398154
 30
0.0
 11
-265.986641
 21
-239.785792
 31
0.0
  0
LINE
  5
486
100
AcDbEntity
  8
13
100
AcDbLine
 10
-264.134366
 20
-239.772155
 30
0.0
 11
-294.489341
 21
-242.751357
 31
0.0
  0
ARC
  5
487
100
AcDbEntity
  8
13
100
AcDbCircle
 10
-266.074446
 20
-238.789654
 30
0.0
 40
1.0
100
AcDbArc
 50
275.037357
 51
329.709914
  0
ARC
  5
488
100
AcDbEntity
  8
13
100
AcDbCircle
 10
-264.232042
 20
-238.776936
 30
0.0
 40
1.0
100
AcDbArc
 50
275.605368
 51
332.731071
  0
ARC
  5
489
100
AcDbEntity
  8
13
100
AcDbCircle
 10
-262.773287
 20
-235.946885
 30
0.0
 40
1.0
100
AcDbArc
 50
332.731071
 51
94.359587
  0
ARC
  5
48A
100
AcDbEntity
  8
13
100
AcDbCircle
 10
-264.605862
 20
-236.275475
 30
0.0
 40
1.0
100
AcDbArc
 50
329.709914
 51
95.037361
  0
LINE
  5
48B
100
AcDbEntity
  8
13
100
AcDbLine
 10
-301.707932
 20
-250.260323
 30
0.0
 11
-301.707932
 21
-263.738225
 31
0.0
  0
ARC
  5
48C
100
AcDbEntity
  8
13
100
AcDbCircle
 10
-290.732282
 20
-268.912839
 30
0.0
 40
26.962058
100
AcDbArc
 50
100.451982
 51
137.585015
  0
ARC
  5
48D
100
AcDbEntity
  8
13
100
AcDbCircle
 10
-293.707932
 20
-250.713103
 30
0.0
 40
8.0
100
AcDbArc
 50
95.605368
 51
180.0
  0
ARC
  5
48E
100
AcDbEntity
  8
13
100
AcDbCircle
 10
-315.257817
 20
-246.763494
 30
0.0
 40
7.0
100
AcDbArc
 50
95.037361
 51
180.0
  0
ARC
  5
48F
100
AcDbEntity
  8
13
100
AcDbCircle
 10
-322.227042
 20
-246.496831
 30
0.0
 40
7.0
100
AcDbArc
 50
94.359587
 51
180.0
  0
ARC
  5
490
100
AcDbEntity
  8
13
100
AcDbCircle
 10
-303.207932
 20
-237.02367
 30
0.0
 40
1.0
100
AcDbArc
 50
180.0
 51
274.359587
  0
ARC
  5
491
100
AcDbEntity
  8
13
100
AcDbCircle
 10
-310.207932
 20
-237.557324
 30
0.0
 40
1.0
100
AcDbArc
 50
180.0
 51
274.359587
  0
ARC
  5
492
100
AcDbEntity
  8
13
100
AcDbCircle
 10
-318.136132
 20
-238.161741
 30
0.0
 40
1.0
100
AcDbArc
 50
274.359587
 51
360.0
  0
ARC
  5
493
100
AcDbEntity
  8
13
100
AcDbCircle
 10
-325.136132
 20
-239.044503
 30
0.0
 40
1.0
100
AcDbArc
 50
291.323679
 51
360.0
  0
LINE
  5
494
100
AcDbEntity
  8
13
100
AcDbLine
 10
-304.207932
 20
-237.02367
 30
0.0
 11
-304.207932
 21
-215.494214
 31
0.0
  0
LINE
  5
495
100
AcDbEntity
  8
13
100
AcDbLine
 10
-324.136132
 20
-239.044503
 30
0.0
 11
-324.136132
 21
-216.21945
 31
0.0
  0
LINE
  5
496
100
AcDbEntity
  8
13
100
AcDbLine
 10
-311.207932
 20
-237.557324
 30
0.0
 11
-311.207932
 21
-215.310989
 31
0.0
  0
LINE
  5
497
100
AcDbEntity
  8
13
100
AcDbLine
 10
-317.136132
 20
-238.161741
 30
0.0
 11
-317.136132
 21
-215.421521
 31
0.0
  0
LINE
  5
498
100
AcDbEntity
  8
13
100
AcDbLine
 10
-329.227042
 20
-263.931356
 30
0.0
 11
-329.227042
 21
-246.496831
 31
0.0
  0
LINE
  5
499
100
AcDbEntity
  8
13
100
AcDbLine
 10
-322.257817
 20
-246.763494
 30
0.0
 11
-322.257817
 21
-263.787349
 31
0.0
  0
LINE
  5
49A
100
AcDbEntity
  8
13
100
AcDbLine
 10
-328.144585
 20
-215.023164
 30
0.0
 11
-321.964922
 21
-213.902584
 31
0.0
  0
LINE
  5
49B
100
AcDbEntity
  8
13
100
AcDbLine
 10
-317.136132
 20
-214.27803
 30
0.0
 11
-324.136132
 21
-215.21945
 31
0.0
  0
LINE
  5
49C
100
AcDbEntity
  8
13
100
AcDbLine
 10
-328.227042
 20
-215.21945
 30
0.0
 11
-325.136132
 21
-215.21945
 31
0.0
  0
ARC
  5
49D
100
AcDbEntity
  8
13
100
AcDbCircle
 10
-328.227042
 20
-214.21945
 30
0.0
 40
1.0
100
AcDbArc
 50
180.0
 51
270.0
  0
LINE
  5
49E
100
AcDbEntity
  8
13
100
AcDbLine
 10
-265.471697
 20
-183.688997
 30
0.0
 11
-264.266497
 21
-183.702735
 31
0.0
  0
LINE
  5
49F
100
AcDbEntity
  8
13
100
AcDbLine
 10
-262.76668
 20
-188.319917
 30
0.0
 11
-263.767708
 21
-188.145999
 31
0.0
  0
LINE
  5
4A0
100
AcDbEntity
  8
13
100
AcDbLine
 10
-263.834781
 20
-235.295053
 30
0.0
 11
-262.559749
 21
-235.073529
 31
0.0
  0
LINE
  5
4A1
100
AcDbEntity
  8
13
100
AcDbLine
 10
-302.903572
 20
-267.084469
 30
0.0
 11
-325.025154
 21
-267.084469
 31
0.0
  0
LINE
  5
4A2
100
AcDbEntity
  8
13
100
AcDbLine
 10
-301.220862
 20
-272.464699
 30
0.0
 11
-301.220862
 21
-267.787349
 31
0.0
  0
LINE
  5
4A3
100
AcDbEntity
  8
13
100
AcDbLine
 10
-327.123202
 20
-272.464699
 30
0.0
 11
-327.123202
 21
-267.787349
 31
0.0
  0
LINE
  5
4A4
100
AcDbEntity
  8
13
100
AcDbLine
 10
-325.123202
 20
-265.787349
 30
0.0
 11
-303.220862
 21
-265.787349
 31
0.0
  0
LINE
  5
4A5
100
AcDbEntity
  8
13
100
AcDbLine
 10
-291.592787
 20
-270.128939
 30
0.0
 11
-291.592787
 21
-266.229333
 31
0.0
  0
ARC
  5
4A6
100
AcDbEntity
  8
13
100
AcDbCircle
 10
-299.707932
 20
-263.738225
 30
0.0
 40
2.0
100
AcDbArc
 50
180.0
 51
261.774456
  0
ARC
  5
4A7
100
AcDbEntity
  8
13
100
AcDbCircle
 10
-297.018414
 20
-245.13302
 30
0.0
 40
20.798594
100
AcDbArc
 50
261.774456
 51
285.121397
  0
ARC
  5
4A8
100
AcDbEntity
  8
13
100
AcDbCircle
 10
-331.325651
 20
-245.13302
 30
0.0
 40
20.798594
100
AcDbArc
 50
254.878603
 51
270.300548
  0
LINE
  5
4A9
100
AcDbEntity
  8
13
100
AcDbLine
 10
-336.751277
 20
-270.128939
 30
0.0
 11
-336.751277
 21
-266.229333
 31
0.0
  0
ARC
  5
4AA
100
AcDbEntity
  8
13
100
AcDbCircle
 10
-331.227042
 20
-263.931356
 30
0.0
 40
2.0
100
AcDbArc
 50
270.300548
 51
360.0
  0
ARC
  5
4AB
100
AcDbEntity
  8
13
100
AcDbCircle
 10
-324.257817
 20
-263.787349
 30
0.0
 40
2.0
100
AcDbArc
 50
270.0
 51
360.0
  0
ARC
  5
4AC
100
AcDbEntity
  8
13
100
AcDbCircle
 10
-325.123202
 20
-394.79759
 30
0.0
 40
129.010241
100
AcDbArc
 50
90.0
 51
92.633715
  0
ARC
  5
4AD
100
AcDbEntity
  8
13
100
AcDbCircle
 10
-303.220862
 20
-394.79759
 30
0.0
 40
129.010241
100
AcDbArc
 50
87.366285
 51
90.0
  0
LINE
  5
4AE
100
AcDbEntity
  8
13
100
AcDbLine
 10
-302.903572
 20
-156.34493
 30
0.0
 11
-325.025154
 21
-156.34493
 31
0.0
  0
LINE
  5
4AF
100
AcDbEntity
  8
13
100
AcDbLine
 10
-301.220862
 20
-150.964699
 30
0.0
 11
-301.220862
 21
-155.642049
 31
0.0
  0
LINE
  5
4B0
100
AcDbEntity
  8
13
100
AcDbLine
 10
-327.123202
 20
-150.964699
 30
0.0
 11
-327.123202
 21
-155.642049
 31
0.0
  0
LINE
  5
4B1
100
AcDbEntity
  8
13
100
AcDbLine
 10
-325.123202
 20
-157.642049
 30
0.0
 11
-303.220862
 21
-157.642049
 31
0.0
  0
LINE
  5
4B2
100
AcDbEntity
  8
13
100
AcDbLine
 10
-291.592787
 20
-153.300459
 30
0.0
 11
-291.592787
 21
-157.200066
 31
0.0
  0
ARC
  5
4B3
100
AcDbEntity
  8
13
100
AcDbCircle
 10
-299.707932
 20
-159.691173
 30
0.0
 40
2.0
100
AcDbArc
 50
98.225544
 51
180.0
  0
ARC
  5
4B4
100
AcDbEntity
  8
13
100
AcDbCircle
 10
-297.018414
 20
-178.296378
 30
0.0
 40
20.798594
100
AcDbArc
 50
74.878603
 51
98.225544
  0
ARC
  5
4B5
100
AcDbEntity
  8
13
100
AcDbCircle
 10
-331.325651
 20
-178.296378
 30
0.0
 40
20.798594
100
AcDbArc
 50
89.699452
 51
105.121397
  0
LINE
  5
4B6
100
AcDbEntity
  8
13
100
AcDbLine
 10
-336.751277
 20
-153.300459
 30
0.0
 11
-336.751277
 21
-157.200066
 31
0.0
  0
ARC
  5
4B7
100
AcDbEntity
  8
13
100
AcDbCircle
 10
-331.227042
 20
-159.498042
 30
0.0
 40
2.0
100
AcDbArc
 50
0.0
 51
89.699452
  0
ARC
  5
4B8
100
AcDbEntity
  8
13
100
AcDbCircle
 10
-324.257817
 20
-159.642049
 30
0.0
 40
2.0
100
AcDbArc
 50
0.0
 51
90.0
  0
ARC
  5
4B9
100
AcDbEntity
  8
13
100
AcDbCircle
 10
-325.123202
 20
-28.631809
 30
0.0
 40
129.010241
100
AcDbArc
 50
267.366285
 51
270.0
  0
ARC
  5
4BA
100
AcDbEntity
  8
13
100
AcDbCircle
 10
-303.220862
 20
-28.631809
 30
0.0
 40
129.010241
100
AcDbArc
 50
270.0
 51
272.633715
  0
ARC
  5
4BB
100
AcDbEntity
  8
13
100
AcDbCircle
 10
-325.136132
 20
-216.21945
 30
0.0
 40
1.0
100
AcDbArc
 50
0.0
 51
90.0
  0
POINT
  5
4BC
100
AcDbEntity
  8
13
100
AcDbPoint
 10
-314.172032
 20
-211.714699
 30
0.0
  0
LINE
  5
4BD
100
AcDbEntity
  8
13
100
AcDbLine
 10
-305.0313
 20
-148.724466
 30
0.0
 11
-323.312764
 21
-148.724466
 31
0.0
  0
ARC
  5
4BE
100
AcDbEntity
  8
13
100
AcDbCircle
 10
-314.172032
 20
-211.714699
 30
0.0
 40
63.65
100
AcDbArc
 50
98.256755
 51
261.87937
  0
ARC
  5
4BF
100
AcDbEntity
  8
13
100
AcDbCircle
 10
-314.172032
 20
-211.714699
 30
0.0
 40
63.65
100
AcDbArc
 50
278.12063
 51
81.743245
  0
LINE
  5
4C0
100
AcDbEntity
  8
13
100
AcDbLine
 10
-323.163084
 20
-274.726472
 30
0.0
 11
-305.18098
 21
-274.726472
 31
0.0
  0
TEXT
  5
4C1
100
AcDbEntity
  8
18
100
AcDbText
 10
366.433891
 20
-399.791977
 30
0.0
 40
9.0
  1
１
 72
     5
 11
373.633891
 21
-399.791977
 31
0.0
100
AcDbText
  0
TEXT
  5
4C2
100
AcDbEntity
  8
18
100
AcDbText
 10
379.623688
 20
-411.30304
 30
0.0
 40
9.0
  1
３
 72
     5
 11
386.823688
 21
-411.30304
 31
0.0
100
AcDbText
  0
TEXT
  5
4C3
100
AcDbEntity
  8
18
100
AcDbText
 10
368.562721
 20
-369.105789
 30
0.0
 40
9.0
  1
７００Ｇ－２ＩＡＳ　１２５Ａ
 72
     5
 11
492.762721
 21
-369.105789
 31
0.0
100
AcDbText
  0
TEXT
  5
4C4
100
AcDbEntity
  8
18
100
AcDbText
 10
368.562721
 20
-381.105789
 30
0.0
 40
9.0
  1
標準仕様　ＪＩＳ　５，１０Ｋ
 72
     5
 11
492.762721
 21
-381.105789
 31
0.0
100
AcDbText
  0
TEXT
  5
4C5
100
AcDbEntity
  8
18
100
AcDbText
 10
460.8
 20
-408.0
 30
0.0
 40
15.0
  1
Ｄ３－０３６１４
 72
     5
 11
577.8
 21
-408.0
 31
0.0
100
AcDbText
  0
TEXT
  5
4C6
100
AcDbEntity
  8
18
100
AcDbText
 10
540.474335
 20
-380.65741
 30
0.0
 40
6.0
  1
２００４．１２．２０
 72
     5
 11
599.274335
 21
-380.65741
 31
0.0
100
AcDbText
  0
LINE
  5
4C7
100
AcDbEntity
  8
18
100
AcDbLine
 10
364.647228
 20
-204.646854
 30
0.0
 11
514.647228
 21
-204.646854
 31
0.0
  0
LINE
  5
4C8
100
AcDbEntity
  8
18
100
AcDbLine
 10
364.647228
 20
-264.646854
 30
0.0
 11
514.647228
 21
-264.646854
 31
0.0
  0
LINE
  5
4C9
100
AcDbEntity
  8
18
100
AcDbLine
 10
364.647228
 20
-279.646854
 30
0.0
 11
514.647228
 21
-279.646854
 31
0.0
  0
LINE
  5
4CA
100
AcDbEntity
  8
18
100
AcDbLine
 10
364.647228
 20
-294.646854
 30
0.0
 11
514.647228
 21
-294.646854
 31
0.0
  0
LINE
  5
4CB
100
AcDbEntity
  8
18
100
AcDbLine
 10
364.647228
 20
-204.646854
 30
0.0
 11
364.647228
 21
-294.646854
 31
0.0
  0
LINE
  5
4CC
100
AcDbEntity
  8
18
100
AcDbLine
 10
439.647228
 20
-204.646854
 30
0.0
 11
439.647228
 21
-279.646854
 31
0.0
  0
LINE
  5
4CD
100
AcDbEntity
  8
18
100
AcDbLine
 10
514.647228
 20
-204.646854
 30
0.0
 11
514.647228
 21
-294.646854
 31
0.0
  0
TEXT
  5
4CE
100
AcDbEntity
  8
18
100
AcDbText
 10
395.03944
 20
-276.113216
 30
0.0
 40
9.0
  1
A
 72
     5
 11
402.23944
 21
-276.113216
 31
0.0
100
AcDbText
  0
TEXT
  5
4CF
100
AcDbEntity
  8
18
100
AcDbText
 10
470.03944
 20
-276.113216
 30
0.0
 40
9.0
  1
B
 72
     5
 11
477.23944
 21
-276.113216
 31
0.0
100
AcDbText
  0
LINE
  5
4D0
100
AcDbEntity
  8
18
  6
CENTER
 62
     2
100
AcDbLine
 10
376.372112
 20
-245.380165
 30
0.0
 11
421.104321
 21
-245.380165
 31
0.0
  0
LINE
  5
4D1
100
AcDbEntity
  8
18
  6
CENTER
 62
     2
100
AcDbLine
 10
398.940777
 20
-224.570789
 30
0.0
 11
398.940777
 21
-256.779831
 31
0.0
  0
LINE
  5
4D2
100
AcDbEntity
  8
18
100
AcDbLine
 10
418.440777
 20
-239.980165
 30
0.0
 11
418.440777
 21
-250.780165
 31
0.0
  0
LINE
  5
4D3
100
AcDbEntity
  8
18
100
AcDbLine
 10
379.440777
 20
-239.980165
 30
0.0
 11
379.440777
 21
-250.780165
 31
0.0
  0
LINE
  5
4D4
100
AcDbEntity
  8
18
100
AcDbLine
 10
392.030993
 20
-227.380165
 30
0.0
 11
408.840777
 21
-227.380165
 31
0.0
  0
LINE
  5
4D5
100
AcDbEntity
  8
18
100
AcDbLine
 10
409.140777
 20
-233.380165
 30
0.0
 11
424.660503
 21
-233.380165
 31
0.0
  0
LINE
  5
4D6
100
AcDbEntity
  8
18
100
AcDbLine
 10
424.660503
 20
-223.180165
 30
0.0
 11
424.660503
 21
-240.580165
 31
0.0
  0
LINE
  5
4D7
100
AcDbEntity
  8
18
100
AcDbLine
 10
428.260503
 20
-223.180165
 30
0.0
 11
428.260503
 21
-240.580165
 31
0.0
  0
LINE
  5
4D8
100
AcDbEntity
  8
18
100
AcDbLine
 10
409.140777
 20
-230.380165
 30
0.0
 11
424.660503
 21
-230.380165
 31
0.0
  0
LINE
  5
4D9
100
AcDbEntity
  8
18
100
AcDbLine
 10
407.187757
 20
-236.380165
 30
0.0
 11
408.840777
 21
-236.380165
 31
0.0
  0
ARC
  5
4DA
100
AcDbEntity
  8
18
100
AcDbCircle
 10
398.940777
 20
-245.380165
 30
0.0
 40
9.0
100
AcDbArc
 50
167.624033
 51
5.0
  0
LINE
  5
4DB
100
AcDbEntity
  8
18
100
AcDbLine
 10
380.040777
 20
-239.380165
 30
0.0
 11
390.43133
 21
-239.380165
 31
0.0
  0
LINE
  5
4DC
100
AcDbEntity
  8
18
100
AcDbLine
 10
407.450223
 20
-239.380165
 30
0.0
 11
417.840777
 21
-239.380165
 31
0.0
  0
LINE
  5
4DD
100
AcDbEntity
  8
18
100
AcDbLine
 10
380.040777
 20
-251.380165
 30
0.0
 11
392.232573
 21
-251.380165
 31
0.0
  0
LINE
  5
4DE
100
AcDbEntity
  8
18
100
AcDbLine
 10
405.648981
 20
-251.380165
 30
0.0
 11
417.840777
 21
-251.380165
 31
0.0
  0
LINE
  5
4DF
100
AcDbEntity
  8
18
100
AcDbLine
 10
394.838339
 20
-244.480165
 30
0.0
 11
403.043215
 21
-244.480165
 31
0.0
  0
LINE
  5
4E0
100
AcDbEntity
  8
18
100
AcDbLine
 10
394.838339
 20
-246.280165
 30
0.0
 11
403.043215
 21
-246.280165
 31
0.0
  0
ARC
  5
4E1
100
AcDbEntity
  8
18
100
AcDbCircle
 10
426.460503
 20
-223.180165
 30
0.0
 40
1.8
100
AcDbArc
 50
0.0
 51
180.0
  0
ARC
  5
4E2
100
AcDbEntity
  8
18
100
AcDbCircle
 10
426.460503
 20
-240.580165
 30
0.0
 40
1.8
100
AcDbArc
 50
180.0
 51
360.0
  0
LINE
  5
4E3
100
AcDbEntity
  8
18
100
AcDbLine
 10
389.975025
 20
-244.595763
 30
0.0
 11
391.433276
 21
-227.927872
 31
0.0
  0
LINE
  5
4E4
100
AcDbEntity
  8
18
100
AcDbLine
 10
407.906529
 20
-244.595763
 30
0.0
 11
406.448278
 21
-227.927872
 31
0.0
  0
LINE
  5
4E5
100
AcDbEntity
  8
18
100
AcDbLine
 10
409.140777
 20
-236.080165
 30
0.0
 11
409.140777
 21
-227.680165
 31
0.0
  0
TEXT
  5
4E6
100
AcDbEntity
  8
18
100
AcDbText
 10
394.761514
 20
-240.82283
 30
0.0
 40
4.5
  1
O
 72
     5
 11
398.361514
 21
-240.82283
 31
0.0
100
AcDbText
  0
TEXT
  5
4E7
100
AcDbEntity
  8
18
100
AcDbText
 10
407.605245
 20
-249.463827
 30
0.0
 40
4.5
  1
S
 50
90.0
 72
     5
 11
407.605245
 21
-245.863827
 31
0.0
100
AcDbText
  0
ARC
  5
4E8
100
AcDbEntity
  8
18
100
AcDbCircle
 10
392.030993
 20
-227.980165
 30
0.0
 40
0.6
100
AcDbArc
 50
90.0
 51
175.0
  0
ARC
  5
4E9
100
AcDbEntity
  8
18
100
AcDbCircle
 10
405.850561
 20
-227.980165
 30
0.0
 40
0.6
100
AcDbArc
 50
5.0
 51
90.0
  0
ARC
  5
4EA
100
AcDbEntity
  8
18
100
AcDbCircle
 10
380.040777
 20
-239.980165
 30
0.0
 40
0.6
100
AcDbArc
 50
90.0
 51
180.0
  0
ARC
  5
4EB
100
AcDbEntity
  8
18
100
AcDbCircle
 10
380.040777
 20
-250.780165
 30
0.0
 40
0.6
100
AcDbArc
 50
180.0
 51
270.0
  0
ARC
  5
4EC
100
AcDbEntity
  8
18
100
AcDbCircle
 10
417.840777
 20
-239.980165
 30
0.0
 40
0.6
100
AcDbArc
 50
0.0
 51
90.0
  0
ARC
  5
4ED
100
AcDbEntity
  8
18
100
AcDbCircle
 10
417.840777
 20
-250.780165
 30
0.0
 40
0.6
100
AcDbArc
 50
270.0
 51
360.0
  0
ARC
  5
4EE
100
AcDbEntity
  8
18
100
AcDbCircle
 10
408.840777
 20
-227.680165
 30
0.0
 40
0.3
100
AcDbArc
 50
0.0
 51
90.0
  0
ARC
  5
4EF
100
AcDbEntity
  8
18
100
AcDbCircle
 10
408.840777
 20
-236.080165
 30
0.0
 40
0.3
100
AcDbArc
 50
270.0
 51
360.0
  0
LINE
  5
4F0
100
AcDbEntity
  8
18
  6
CENTER
 62
     2
100
AcDbLine
 10
473.940777
 20
-211.861141
 30
0.0
 11
473.940777
 21
-240.133129
 31
0.0
  0
LINE
  5
4F1
100
AcDbEntity
  8
18
  6
CENTER
 62
     2
100
AcDbLine
 10
494.750153
 20
-225.880165
 30
0.0
 11
451.582912
 21
-225.880165
 31
0.0
  0
LINE
  5
4F2
100
AcDbEntity
  8
18
100
AcDbLine
 10
491.940777
 20
-218.970381
 30
0.0
 11
491.940777
 21
-235.780165
 31
0.0
  0
LINE
  5
4F3
100
AcDbEntity
  8
18
100
AcDbLine
 10
485.940777
 20
-236.080165
 30
0.0
 11
485.940777
 21
-251.599892
 31
0.0
  0
LINE
  5
4F4
100
AcDbEntity
  8
18
100
AcDbLine
 10
496.140777
 20
-251.599892
 30
0.0
 11
478.740777
 21
-251.599892
 31
0.0
  0
LINE
  5
4F5
100
AcDbEntity
  8
18
100
AcDbLine
 10
496.140777
 20
-255.199892
 30
0.0
 11
478.740777
 21
-255.199892
 31
0.0
  0
LINE
  5
4F6
100
AcDbEntity
  8
18
100
AcDbLine
 10
488.940777
 20
-236.080165
 30
0.0
 11
488.940777
 21
-251.599892
 31
0.0
  0
LINE
  5
4F7
100
AcDbEntity
  8
18
100
AcDbLine
 10
482.940777
 20
-234.127146
 30
0.0
 11
482.940777
 21
-235.780165
 31
0.0
  0
ARC
  5
4F8
100
AcDbEntity
  8
18
100
AcDbCircle
 10
473.940777
 20
-225.880165
 30
0.0
 40
9.0
100
AcDbArc
 50
77.624033
 51
275.0
  0
LINE
  5
4F9
100
AcDbEntity
  8
18
100
AcDbLine
 10
474.840777
 20
-221.777727
 30
0.0
 11
474.840777
 21
-229.982603
 31
0.0
  0
LINE
  5
4FA
100
AcDbEntity
  8
18
100
AcDbLine
 10
473.040777
 20
-221.777727
 30
0.0
 11
473.040777
 21
-229.982603
 31
0.0
  0
ARC
  5
4FB
100
AcDbEntity
  8
18
100
AcDbCircle
 10
496.140777
 20
-253.399892
 30
0.0
 40
1.8
100
AcDbArc
 50
270.0
 51
90.0
  0
ARC
  5
4FC
100
AcDbEntity
  8
18
100
AcDbCircle
 10
478.740777
 20
-253.399892
 30
0.0
 40
1.8
100
AcDbArc
 50
90.0
 51
270.0
  0
LINE
  5
4FD
100
AcDbEntity
  8
18
100
AcDbLine
 10
474.725179
 20
-216.914413
 30
0.0
 11
491.39307
 21
-218.372664
 31
0.0
  0
LINE
  5
4FE
100
AcDbEntity
  8
18
100
AcDbLine
 10
474.725179
 20
-234.845917
 30
0.0
 11
491.39307
 21
-233.387666
 31
0.0
  0
LINE
  5
4FF
100
AcDbEntity
  8
18
100
AcDbLine
 10
483.240777
 20
-236.080165
 30
0.0
 11
491.640777
 21
-236.080165
 31
0.0
  0
TEXT
  5
500
100
AcDbEntity
  8
18
100
AcDbText
 10
478.198112
 20
-221.700902
 30
0.0
 40
4.5
  1
O
 50
270.0
 72
     5
 11
478.198112
 21
-225.300902
 31
0.0
100
AcDbText
  0
TEXT
  5
501
100
AcDbEntity
  8
18
100
AcDbText
 10
469.857115
 20
-234.544633
 30
0.0
 40
4.5
  1
S
 72
     5
 11
473.457115
 21
-234.544633
 31
0.0
100
AcDbText
  0
ARC
  5
502
100
AcDbEntity
  8
18
100
AcDbCircle
 10
491.340777
 20
-218.970381
 30
0.0
 40
0.6
100
AcDbArc
 50
0.0
 51
85.0
  0
ARC
  5
503
100
AcDbEntity
  8
18
100
AcDbCircle
 10
491.340777
 20
-232.789949
 30
0.0
 40
0.6
100
AcDbArc
 50
275.0
 51
360.0
  0
ARC
  5
504
100
AcDbEntity
  8
18
100
AcDbCircle
 10
491.640777
 20
-235.780165
 30
0.0
 40
0.3
100
AcDbArc
 50
270.0
 51
360.0
  0
ARC
  5
505
100
AcDbEntity
  8
18
100
AcDbCircle
 10
483.240777
 20
-235.780165
 30
0.0
 40
0.3
100
AcDbArc
 50
180.0
 51
270.0
  0
LINE
  5
506
100
AcDbEntity
  8
18
100
AcDbLine
 10
455.040777
 20
-219.880165
 30
0.0
 11
467.232573
 21
-219.880165
 31
0.0
  0
LINE
  5
507
100
AcDbEntity
  8
18
100
AcDbLine
 10
455.040777
 20
-231.880165
 30
0.0
 11
467.232573
 21
-231.880165
 31
0.0
  0
LINE
  5
508
100
AcDbEntity
  8
18
100
AcDbLine
 10
491.940777
 20
-231.880165
 30
0.0
 11
492.840777
 21
-231.880165
 31
0.0
  0
LINE
  5
509
100
AcDbEntity
  8
18
100
AcDbLine
 10
491.940777
 20
-219.880165
 30
0.0
 11
492.840777
 21
-219.880165
 31
0.0
  0
LINE
  5
50A
100
AcDbEntity
  8
18
100
AcDbLine
 10
493.440777
 20
-220.480165
 30
0.0
 11
493.440777
 21
-231.280165
 31
0.0
  0
LINE
  5
50B
100
AcDbEntity
  8
18
100
AcDbLine
 10
454.440777
 20
-220.480165
 30
0.0
 11
454.440777
 21
-231.280165
 31
0.0
  0
ARC
  5
50C
100
AcDbEntity
  8
18
100
AcDbCircle
 10
455.040777
 20
-220.480165
 30
0.0
 40
0.6
100
AcDbArc
 50
90.0
 51
180.0
  0
ARC
  5
50D
100
AcDbEntity
  8
18
100
AcDbCircle
 10
455.040777
 20
-231.280165
 30
0.0
 40
0.6
100
AcDbArc
 50
180.0
 51
270.0
  0
ARC
  5
50E
100
AcDbEntity
  8
18
100
AcDbCircle
 10
492.840777
 20
-231.280165
 30
0.0
 40
0.6
100
AcDbArc
 50
270.0
 51
360.0
  0
ARC
  5
50F
100
AcDbEntity
  8
18
100
AcDbCircle
 10
492.840777
 20
-220.480165
 30
0.0
 40
0.6
100
AcDbArc
 50
0.0
 51
90.0
  0
CIRCLE
  5
510
100
AcDbEntity
  8
18
100
AcDbCircle
 10
398.940777
 20
-245.380165
 30
0.0
 40
4.2
  0
CIRCLE
  5
511
100
AcDbEntity
  8
18
100
AcDbCircle
 10
473.940777
 20
-225.880165
 30
0.0
 40
4.2
  0
POINT
  5
512
100
AcDbEntity
  8
18
100
AcDbPoint
 10
364.647228
 20
-204.646854
 30
0.0
  0
TEXT
  5
513
100
AcDbEntity
  8
18
100
AcDbText
 10
383.389996
 20
-291.684578
 30
0.0
 40
9.0
  1
駆 動 部 取 付 方 向
 72
     5
 11
498.589996
 21
-291.684578
 31
0.0
100
AcDbText
  0
LINE
  5
514
100
AcDbEntity
  8
20
 62
     3
100
AcDbLine
 10
-540.0
 20
-415.5
 30
0.0
 11
600.0
 21
-415.5
 31
0.0
  0
LINE
  5
515
100
AcDbEntity
  8
20
 62
     3
100
AcDbLine
 10
-540.0
 20
396.0
 30
0.0
 11
600.0
 21
396.0
 31
0.0
  0
LINE
  5
516
100
AcDbEntity
  8
20
 62
     3
100
AcDbLine
 10
-540.0
 20
396.0
 30
0.0
 11
-540.0
 21
-415.5
 31
0.0
  0
LINE
  5
517
100
AcDbEntity
  8
20
 62
     3
100
AcDbLine
 10
600.0
 20
396.0
 30
0.0
 11
600.0
 21
-415.5
 31
0.0
  0
LINE
  5
518
100
AcDbEntity
  8
20
 62
     3
100
AcDbLine
 10
180.0
 20
-415.5
 30
0.0
 11
180.0
 21
-355.5
 31
0.0
  0
LINE
  5
519
100
AcDbEntity
  8
20
 62
     3
100
AcDbLine
 10
321.0
 20
-415.5
 30
0.0
 11
321.0
 21
-355.5
 31
0.0
  0
LINE
  5
51A
100
AcDbEntity
  8
20
100
AcDbLine
 10
321.0
 20
-385.5
 30
0.0
 11
600.0
 21
-385.5
 31
0.0
  0
LINE
  5
51B
100
AcDbEntity
  8
20
 62
     3
100
AcDbLine
 10
180.0
 20
-355.5
 30
0.0
 11
600.0
 21
-355.5
 31
0.0
  0
LINE
  5
51C
100
AcDbEntity
  8
20
100
AcDbLine
 10
540.0
 20
-385.5
 30
0.0
 11
540.0
 21
-355.5
 31
0.0
  0
LINE
  5
51D
100
AcDbEntity
  8
20
100
AcDbLine
 10
540.0
 20
-370.5
 30
0.0
 11
600.0
 21
-370.5
 31
0.0
  0
LINE
  5
51E
100
AcDbEntity
  8
20
100
AcDbLine
 10
363.0
 20
-415.5
 30
0.0
 11
363.0
 21
-355.5
 31
0.0
  0
LINE
  5
51F
100
AcDbEntity
  8
20
100
AcDbLine
 10
393.0
 20
-415.5
 30
0.0
 11
393.0
 21
-385.5
 31
0.0
  0
LINE
  5
520
100
AcDbEntity
  8
20
100
AcDbLine
 10
453.0
 20
-415.5
 30
0.0
 11
453.0
 21
-385.5
 31
0.0
  0
LINE
  5
521
100
AcDbEntity
  8
20
100
AcDbLine
 10
371.185244
 20
-407.314756
 30
0.0
 11
383.694872
 21
-394.805128
 31
0.0
  0
TEXT
  5
522
100
AcDbEntity
  8
20
100
AcDbText
 10
394.599987
 20
-397.490753
 30
0.0
 40
5.4
  1
ＤＲＡＷＩＮＧ　ＮＯ．
 72
     5
 11
452.919987
 21
-397.490753
 31
0.0
100
AcDbText
  0
TEXT
  5
523
100
AcDbEntity
  8
20
100
AcDbText
 10
400.5
 20
-409.5
 30
0.0
 40
9.0
  1
図　　　番
 72
     5
 11
443.7
 21
-409.5
 31
0.0
100
AcDbText
  0
TEXT
  5
524
100
AcDbEntity
  8
20
100
AcDbText
 10
558.0
 20
-366.0
 30
0.0
 40
6.0
  1
ＤＡＴＥ
 72
     5
 11
580.8
 21
-366.0
 31
0.0
100
AcDbText
  0
TEXT
  5
525
100
AcDbEntity
  8
20
100
AcDbText
 10
327.003213
 20
-398.883087
 30
0.0
 40
6.0
  1
ＳＣＡＬＥ
 72
     5
 11
355.803213
 21
-398.883087
 31
0.0
100
AcDbText
  0
TEXT
  5
526
100
AcDbEntity
  8
20
100
AcDbText
 10
324.0
 20
-409.5
 30
0.0
 40
9.0
  1
尺　　度
 72
     5
 11
358.2
 21
-409.5
 31
0.0
100
AcDbText
  0
TEXT
  5
527
100
AcDbEntity
  8
20
100
AcDbText
 10
322.503213
 20
-367.487654
 30
0.0
 40
6.0
  1
ＦＩＧ．ＮＯ．
 72
     5
 11
363.303213
 21
-367.487654
 31
0.0
100
AcDbText
  0
TEXT
  5
528
100
AcDbEntity
  8
20
100
AcDbText
 10
324.0
 20
-379.5
 30
0.0
 40
9.0
  1
名　　称
 72
     5
 11
358.2
 21
-379.5
 31
0.0
100
AcDbText
  0
TEXT
  5
529
100
AcDbEntity
  8
20
100
AcDbText
 10
181.696575
 20
-379.410759
 30
0.0
 40
6.9
  1
ＴＯＭＯＥ　ＶＡＬＶＥ　ＣＯ．，ＬＴＤ．
 72
     5
 11
318.316575
 21
-379.410759
 31
0.0
100
AcDbText
  0
TEXT
  5
52A
100
AcDbEntity
  8
20
100
AcDbText
 10
202.5
 20
-399.869431
 30
0.0
 40
12.0
  1
巴バルブ株式会社
 72
     5
 11
296.1
 21
-399.869431
 31
0.0
100
AcDbText
  0
ENDSEC
  0
SECTION
  2
OBJECTS
  0
DICTIONARY
  5
58B
100
AcDbDictionary
  3
ACAD_GROUP
350
58C
  3
ACAD_MLINESTYLE
350
58D
  0
DICTIONARY
  5
58C
102
{ACAD_REACTORS
330
58B
102
}
100
AcDbDictionary
  0
DICTIONARY
  5
58D
102
{ACAD_REACTORS
330
58B
102
}
100
AcDbDictionary
  3
STANDARD
350
58E
  0
MLINESTYLE
  5
58E
102
{ACAD_REACTORS
330
58D
102
}
100
AcDbMlineStyle
  2
STANDARD
 70
     0
  3

 62
     0
 51
90.0
 52
90.0
 71
     2
 49
0.5
 62
   256
  6
BYLAYER
 49
-0.5
 62
   256
  6
BYLAYER
  0
ENDSEC
  0
EOF
