  0
SECTION
  2
HEADER
  9
$ACADVER
  1
AC1012
  9
$DWGCODEPAGE
  3
ansi_932
  9
$INSBASE
 10
0.0
 20
0.0
 30
0.0
  9
$EXTMIN
 10
-840.0
 20
-594.0
 30
1.000000E+20
  9
$EXTMAX
 10
840.0
 20
594.0
 30
-1.000000E+20
  9
$LIMMIN
 10
-840.0
 20
-594.0
  9
$LIMMAX
 10
840.0
 20
594.0
  9
$ORTHOMODE
 70
     0
  9
$REGENMODE
 70
     1
  9
$FILLMODE
 70
     1
  9
$QTEXTMODE
 70
     0
  9
$MIRRTEXT
 70
     1
  9
$DRAGMODE
 70
     2
  9
$LTSCALE
 40
1.0
  9
$OSMODE
 70
     0
  9
$ATTMODE
 70
     1
  9
$TEXTSIZE
 40
0.2
  9
$TRACEWID
 40
0.05
  9
$TEXTSTYLE
  7
STANDARD
  9
$CLAYER
  8
0
  9
$CELTYPE
  6
CONTINUOUS
  9
$CECOLOR
 62
   256
  9
$CELTSCALE
 40
1.0
  9
$DELOBJ
 70
     1
  9
$DISPSILH
 70
     0
  9
$DIMSCALE
 40
4.0
  9
$DIMASZ
 40
0.18
  9
$DIMEXO
 40
0.0625
  9
$DIMDLI
 40
0.38
  9
$DIMRND
 40
0.0
  9
$DIMDLE
 40
0.0
  9
$DIMEXE
 40
0.18
  9
$DIMTP
 40
0.0
  9
$DIMTM
 40
0.0
  9
$DIMTXT
 40
0.18
  9
$DIMCEN
 40
0.09
  9
$DIMTSZ
 40
0.0
  9
$DIMTOL
 70
     0
  9
$DIMLIM
 70
     0
  9
$DIMTIH
 70
     1
  9
$DIMTOH
 70
     1
  9
$DIMSE1
 70
     0
  9
$DIMSE2
 70
     0
  9
$DIMTAD
 70
     1
  9
$DIMZIN
 70
     0
  9
$DIMBLK
  1

  9
$DIMASO
 70
     1
  9
$DIMSHO
 70
     1
  9
$DIMPOST
  1

  9
$DIMAPOST
  1

  9
$DIMALT
 70
     0
  9
$DIMALTD
 70
     2
  9
$DIMALTF
 40
25.4
  9
$DIMLFAC
 40
1.0
  9
$DIMTOFL
 70
     0
  9
$DIMTVP
 40
0.0
  9
$DIMTIX
 70
     0
  9
$DIMSOXD
 70
     0
  9
$DIMSAH
 70
     0
  9
$DIMBLK1
  1

  9
$DIMBLK2
  1

  9
$DIMSTYLE
  2
STANDARD
  9
$DIMCLRD
 70
     0
  9
$DIMCLRE
 70
     0
  9
$DIMCLRT
 70
     0
  9
$DIMTFAC
 40
1.0
  9
$DIMGAP
 40
0.09
  9
$DIMJUST
 70
     0
  9
$DIMSD1
 70
     0
  9
$DIMSD2
 70
     0
  9
$DIMTOLJ
 70
     1
  9
$DIMTZIN
 70
     0
  9
$DIMALTZ
 70
     0
  9
$DIMALTTZ
 70
     0
  9
$DIMFIT
 70
     3
  9
$DIMUPT
 70
     0
  9
$DIMUNIT
 70
     2
  9
$DIMDEC
 70
     4
  9
$DIMTDEC
 70
     4
  9
$DIMALTU
 70
     2
  9
$DIMALTTD
 70
     2
  9
$DIMTXSTY
  7
STANDARD
  9
$DIMAUNIT
 70
     0
  9
$LUNITS
 70
     2
  9
$LUPREC
 70
     4
  9
$SKETCHINC
 40
0.1
  9
$FILLETRAD
 40
0.0
  9
$AUNITS
 70
     0
  9
$AUPREC
 70
     0
  9
$MENU
  1
acad
  9
$ELEVATION
 40
0.0
  9
$PELEVATION
 40
0.0
  9
$THICKNESS
 40
0.0
  9
$LIMCHECK
 70
     0
  9
$BLIPMODE
 70
     1
  9
$CHAMFERA
 40
0.0
  9
$CHAMFERB
 40
0.0
  9
$CHAMFERC
 40
0.0
  9
$CHAMFERD
 40
0.0
  9
$SKPOLY
 70
     0
  9
$TDCREATE
 40
2450198.000000000
  9
$TDUPDATE
 40
0.000000000
  9
$TDINDWG
 40
0.0000000000
  9
$TDUSRTIMER
 40
0.0000000000
  9
$USRTIMER
 70
     1
  9
$ANGBASE
 50
0.0
  9
$ANGDIR
 70
     0
  9
$PDMODE
 70
     0
  9
$PDSIZE
 40
0.0
  9
$PLINEWID
 40
0.0
  9
$COORDS
 70
     0
  9
$SPLFRAME
 70
     0
  9
$SPLINETYPE
 70
     6
  9
$SPLINESEGS
 70
     8
  9
$ATTDIA
 70
     0
  9
$ATTREQ
 70
     1
  9
$HANDLING
 70
     1
  9
$HANDSEED
  5
601
  9
$SURFTAB1
 70
     6
  9
$SURFTAB2
 70
     6
  9
$SURFTYPE
 70
     6
  9
$SURFU
 70
     6
  9
$SURFV
 70
     6
  9
$UCSNAME
  2

  9
$UCSORG
 10
0.0
 20
0.0
 30
0.0
  9
$UCSXDIR
 10
1.0
 20
0.0
 30
0.0
  9
$UCSYDIR
 10
0.0
 20
1.0
 30
0.0
  9
$PUCSNAME
  2

  9
$PUCSORG
 10
0.0
 20
0.0
 30
0.0
  9
$PUCSXDIR
 10
1.0
 20
0.0
 30
0.0
  9
$PUCSYDIR
 10
0.0
 20
1.0
 30
0.0
  9
$USERI1
 70
     0
  9
$USERI2
 70
     0
  9
$USERI3
 70
     0
  9
$USERI4
 70
     0
  9
$USERI5
 70
     0
  9
$USERR1
 40
0.0
  9
$USERR2
 40
0.0
  9
$USERR3
 40
0.0
  9
$USERR4
 40
0.0
  9
$USERR5
 40
0.0
  9
$WORLDVIEW
 70
     1
  9
$SHADEDGE
 70
     3
  9
$SHADEDIF
 70
    70
  9
$TILEMODE
 70
     1
  9
$MAXACTVP
 70
    16
  9
$PINSBASE
 10
0.0
 20
0.0
 30
0.0
  9
$PLIMCHECK
 70
     0
  9
$PEXTMIN
 10
1.000000E+20
 20
1.000000E+20
 30
1.000000E+20
  9
$PEXTMAX
 10
-1.000000E+20
 20
-1.000000E+20
 30
-1.000000E+20
  9
$PLIMMIN
 10
0.0
 20
0.0
  9
$PLIMMAX
 10
12.0
 20
9.0
  9
$UNITMODE
 70
     0
  9
$VISRETAIN
 70
     0
  9
$PLINEGEN
 70
     1
  9
$PSLTSCALE
 70
     0
  9
$TREEDEPTH
 70
  3020
  9
$PICKSTYLE
 70
     1
  9
$CMLSTYLE
  2
STANDARD
  9
$CMLJUST
 70
     0
  9
$CMLSCALE
 40
1.0
  9
$SAVEIMAGES
 70
     0
  0
ENDSEC
  0
SECTION
  2
CLASSES
  0
CLASS
  1
LWPOLYLINE
  2
AcDbPolyline
  3
"AutoCAD"
 90
    32768
280
     0
281
     1
  0
CLASS
  1
IMAGE
  2
AcDbRasterImage
  3
ISM
 90
    32895
280
     0
281
     1
  0
CLASS
  1
OLE2FRAME
  2
AcDbOle2Frame
  3
""
 90
    32768
280
     0
281
     1
  0
CLASS
  1
HATCH
  2
AcDbHatch
  3
"ACAD_SEDONA"
 90
    32768
280
     0
281
     1
  0
CLASS
  1
DICTIONARYVAR
  2
AcDbDictionaryVar
  3
"AutoCAD"
 90
    32768
280
     0
281
     0
  0
CLASS
  1
RASTERVARIABLES
  2
AcDbRasterVariables
  3
ISM
 90
    32768
280
     0
281
     0
  0
CLASS
  1
IMAGEDEF
  2
AcDbRasterImageDef
  3
ISM
 90
    32768
280
     0
281
     0
  0
CLASS
  1
IMAGEDEF_REACTOR
  2
AcDbRasterImageDefReactor
  3
ISM
 90
    32769
280
     0
281
     0
  0
CLASS
  1
IDBUFFER
  2
AcDbIdBuffer
  3
"Acad"
 90
    32768
280
     0
281
     0
  0
CLASS
  1
SPATIAL_FILTER
  2
AcDbSpatialFilter
  3
"Acad"
 90
    32768
280
     0
281
     0
  0
CLASS
  1
XRECORD
  2
AcDbXrecord
  3
"<Built In>"
 90
    32768
280
     0
281
     0
  0
CLASS
  1
SORTENTSTABLE
  2
AcDbSortentsTable
  3
"AutoCAD"
 90
    32768
280
     0
281
     0
  0
CLASS
  1
LAYER_INDEX
  2
AcDbLayerIndex
  3
"Acad"
 90
    32768
280
     0
281
     0
  0
CLASS
  1
SPATIAL_INDEX
  2
AcDbSpatialIndex
  3
"Acad"
 90
    32768
280
     0
281
     0
  0
CLASS
  1
OBJECT_PTR
  2
CAseDLPNTableRecord
  3
"ASE-LPNTableRecord"
 90
    32769
280
     0
281
     0
  0
CLASS
  1
LAYOUT
  2
AcDbLayout
  3
"AutoCAD 2000"
 90
    32768
280
     0
281
     0
  0
CLASS
  1
PLOTSETTINGS
  2
AcDbPlotSettings
  3
"AutoCAD 2000"
 90
    32768
280
     0
281
     0
  0
CLASS
  1
ACDBDICTIONARYWDFLT
  2
AcDbDictionaryWithDefault
  3
"AutoCAD 2000"
 90
    32768
280
     0
281
     0
  0
CLASS
  1
ACDBPLACEHOLDER
  2
AcDbPlaceHolder
  3
"AutoCAD 2000"
 90
    32768
280
     0
281
     0
  0
CLASS
  1
VBA_PROJECT
  2
AcDbVbaProject
  3
"acadvba"
 90
    32768
280
     0
281
     0
  0
CLASS
  1
WIPEOUT
  2
AcDbWipeout
  3
WipeOut|AutoCAD Express Tool|expresstools@autodesk.com
 90
    32895
280
     0
281
     1
  0
CLASS
  1
WIPEOUTVARIABLES
  2
AcDbWipeoutVariables
  3
WipeOut|AutoCAD Express Tool|expresstools@autodesk.com
 90
    32768
280
     0
281
     0
  0
CLASS
  1
RTEXT
  2
RText
  3
RText|AutoCAD Express Tool|expresstools@autodesk.com
 90
    32768
280
     0
281
     1
  0
CLASS
  1
ARCALIGNEDTEXT
  2
AcDbArcAlignedText
  3
ATEXT|AutoCAD Express Tool|expresstools@autodesk.com
 90
    32768
280
     0
281
     1
  0
ENDSEC
  0
SECTION
  2
TABLES
  0
TABLE
  2
VPORT
  5
6
100
AcDbSymbolTable
 70
     1
  0
VPORT
  5
1C
100
AcDbSymbolTableRecord
100
AcDbViewportTableRecord
  2
*ACTIVE
 70
     0
 10
0.0
 20
0.0
 11
1.0
 21
1.0
 12
0.0
 22
0.0
 13
0.0
 23
0.0
 14
1.0
 24
1.0
 15
0.0
 25
0.0
 16
0.0
 26
0.0
 36
1.0
 17
0.0
 27
0.0
 37
0.0
 40
1188.0
 41
1.414141
 42
50.0
 43
0.0
 44
0.0
 50
0.0
 51
0.0
 71
     0
 72
   500
 73
     1
 74
     1
 75
     0
 76
     0
 77
     0
 78
     0
  0
ENDTAB
  0
TABLE
  2
LTYPE
  5
3
100
AcDbSymbolTable
 70
     9
  0
LTYPE
  5
C
100
AcDbSymbolTableRecord
100
AcDbLinetypeTableRecord
  2
BYBLOCK
 70
    64
  3

 72
    65
 73
     0
 40
0.0
  0
LTYPE
  5
D
100
AcDbSymbolTableRecord
100
AcDbLinetypeTableRecord
  2
BYLAYER
 70
    64
  3

 72
    65
 73
     0
 40
0.0
  0
LTYPE
  5
E
100
AcDbSymbolTableRecord
100
AcDbLinetypeTableRecord
  2
CONTINUOUS
 70
     0
  3
Solid line
 72
    65
 73
     0
 40
0.0
  0
LTYPE
  5
F
100
AcDbSymbolTableRecord
100
AcDbLinetypeTableRecord
  2
DASHED
 70
     0
  3
__ __ __ __ __ __ __ __ __ __ __ __ __ __ __
 72
    65
 73
     2
 40
2.0
 49
1.2
 74
     0
 49
-0.8
 74
     0
  0
LTYPE
  5
10
100
AcDbSymbolTableRecord
100
AcDbLinetypeTableRecord
  2
CENTER
 70
     0
  3
____ _ ____ _ ____ _ ____ _ ____ _ ____ _ ____
 72
    65
 73
     4
 40
12.0
 49
9.0
 74
     0
 49
-1.0
 74
     0
 49
1.0
 74
     0
 49
-1.0
 74
     0
  0
LTYPE
  5
11
100
AcDbSymbolTableRecord
100
AcDbLinetypeTableRecord
  2
HIDDEN
 70
     0
  3
_ _ _ _ _ _ _ _ _ _ _ _ _ _ _ _ _ _ _ _ _ _ _
 72
    65
 73
     2
 40
3.2
 49
2.4
 74
     0
 49
-0.8
 74
     0
  0
LTYPE
  5
12
100
AcDbSymbolTableRecord
100
AcDbLinetypeTableRecord
  2
PHANTOM
 70
     0
  3
_____ _ _ _____ _ _ _____ _ _ _____ _ _ _____
 72
    65
 73
     6
 40
13.5
 49
9.0
 74
     0
 49
-1.0
 74
     0
 49
1.0
 74
     0
 49
-0.5
 74
     0
 49
1.0
 74
     0
 49
-1.0
 74
     0
  0
LTYPE
  5
13
100
AcDbSymbolTableRecord
100
AcDbLinetypeTableRecord
  2
DOT
 70
     0
  3
...............................................
 72
    65
 73
     2
 40
1.0
 49
0.5
 74
     0
 49
-0.5
 74
     0
  0
LTYPE
  5
14
100
AcDbSymbolTableRecord
100
AcDbLinetypeTableRecord
  2
DASHDOT
 70
     0
  3
__ . __ . __ . __ . __ . __ . __ . __ . __ . __
 72
    65
 73
     4
 40
8.0
 49
5.0
 74
     0
 49
-1.0
 74
     0
 49
1.0
 74
     0
 49
-1.0
 74
     0
  0
ENDTAB
  0
TABLE
  2
LAYER
  5
1
100
AcDbSymbolTable
 70
     7
  0
LAYER
  5
15
100
AcDbSymbolTableRecord
100
AcDbLayerTableRecord
  2
0
 70
     0
 62
     7
  6
CONTINUOUS
  0
LAYER
  5
16
100
AcDbSymbolTableRecord
100
AcDbLayerTableRecord
  2
1
 70
     0
 62
     7
  6
CONTINUOUS
  0
LAYER
  5
17
100
AcDbSymbolTableRecord
100
AcDbLayerTableRecord
  2
2
 70
     0
 62
     7
  6
CONTINUOUS
  0
LAYER
  5
18
100
AcDbSymbolTableRecord
100
AcDbLayerTableRecord
  2
5
 70
     0
 62
     7
  6
CONTINUOUS
  0
LAYER
  5
19
100
AcDbSymbolTableRecord
100
AcDbLayerTableRecord
  2
13
 70
     0
 62
     7
  6
CONTINUOUS
  0
LAYER
  5
1A
100
AcDbSymbolTableRecord
100
AcDbLayerTableRecord
  2
18
 70
     0
 62
     7
  6
CONTINUOUS
  0
LAYER
  5
1B
100
AcDbSymbolTableRecord
100
AcDbLayerTableRecord
  2
20
 70
     0
 62
     7
  6
CONTINUOUS
  0
ENDTAB
  0
TABLE
  2
STYLE
  5
2
100
AcDbSymbolTable
 70
     1
  0
STYLE
  5
1E
100
AcDbSymbolTableRecord
100
AcDbTextStyleTableRecord
  2
STANDARD
 70
    64
 40
0.0
 41
1.0
 50
0.0
 71
     0
 42
1.0
  3
txt
  4
BIGFONT
  0
ENDTAB
  0
TABLE
  2
VIEW
  5
4
100
AcDbSymbolTable
 70
     0
  0
ENDTAB
  0
TABLE
  2
UCS
  5
5
100
AcDbSymbolTable
 70
     0
  0
ENDTAB
  0
TABLE
  2
APPID
  5
7
100
AcDbSymbolTable
 70
     1
  0
APPID
  5
1D
100
AcDbSymbolTableRecord
100
AcDbRegAppTableRecord
  2
ACAD
 70
     0
  0
ENDTAB
  0
TABLE
  2
DIMSTYLE
  5
8
100
AcDbSymbolTable
 70
     1
  0
DIMSTYLE
105
2E
100
AcDbSymbolTableRecord
100
AcDbDimStyleTableRecord
  2
STANDARD
 70
     0
  3

  4

  5

  6

  7

 40
4.0
 41
0.18
 42
0.0625
 43
0.38
 44
0.18
 45
0.0
 46
0.0
 47
0.0
 48
0.0
 71
     0
 72
     0
 73
     1
 74
     1
 75
     0
 76
     0
 77
     1
 78
     0
140
0.18
141
0.09
142
0.0
143
25.4
144
1.0
145
0.0
146
1.0
147
0.09
170
     0
171
     2
172
     0
173
     0
174
     0
175
     0
176
     0
177
     0
178
     0
270
     2
271
     4
272
     4
273
     2
274
     2
275
     0
280
     0
281
     0
282
     0
283
     1
284
     0
285
     0
286
     0
287
     3
288
     0
340
1E
  0
ENDTAB
  0
TABLE
  2
BLOCK_RECORD
  5
29
100
AcDbSymbolTable
 70
     8
  0
BLOCK_RECORD
  5
27
100
AcDbSymbolTableRecord
100
AcDbBlockTableRecord
  2
*MODEL_SPACE
  0
BLOCK_RECORD
  5
28
100
AcDbSymbolTableRecord
100
AcDbBlockTableRecord
  2
*PAPER_SPACE
  0
BLOCK_RECORD
  5
1F
100
AcDbSymbolTableRecord
100
AcDbBlockTableRecord
  2
*D0
  0
BLOCK_RECORD
  5
20
100
AcDbSymbolTableRecord
100
AcDbBlockTableRecord
  2
*D1
  0
BLOCK_RECORD
  5
21
100
AcDbSymbolTableRecord
100
AcDbBlockTableRecord
  2
*D2
  0
BLOCK_RECORD
  5
22
100
AcDbSymbolTableRecord
100
AcDbBlockTableRecord
  2
*D3
  0
BLOCK_RECORD
  5
23
100
AcDbSymbolTableRecord
100
AcDbBlockTableRecord
  2
*D4
  0
BLOCK_RECORD
  5
24
100
AcDbSymbolTableRecord
100
AcDbBlockTableRecord
  2
*D5
  0
BLOCK_RECORD
  5
25
100
AcDbSymbolTableRecord
100
AcDbBlockTableRecord
  2
*D6
  0
BLOCK_RECORD
  5
26
100
AcDbSymbolTableRecord
100
AcDbBlockTableRecord
  2
*D7
  0
ENDTAB
  0
ENDSEC
  0
SECTION
  2
BLOCKS
  0
BLOCK
  5
2A
100
AcDbEntity
  8
0
100
AcDbBlockBegin
  2
*MODEL_SPACE
 70
     0
 10
0.0
 20
0.0
 30
0.0
  3
*MODEL_SPACE
  1

  0
ENDBLK
  5
2B
100
AcDbEntity
  8
0
100
AcDbBlockEnd
  0
BLOCK
  5
2C
100
AcDbEntity
 67
     1
  8
0
100
AcDbBlockBegin
  2
*PAPER_SPACE
 70
     0
 10
0.0
 20
0.0
 30
0.0
  3
*PAPER_SPACE
  1

  0
ENDBLK
  5
2D
100
AcDbEntity
 67
     1
  8
0
100
AcDbBlockEnd
  0
BLOCK
  5
59A
100
AcDbEntity
  8
5
100
AcDbBlockBegin
  2
*D0
 70
     1
 10
0.0
 20
0.0
 30
0.0
  3
*D0
  1

  0
TEXT
  5
59B
100
AcDbEntity
  8
5
 62
     2
100
AcDbText
 10
-265.924938
 20
464.522614
 30
0.0
 40
13.2
  1
207
 41
1.4
 72
     5
 11
-241.900938
 21
464.522614
 31
0.0
100
AcDbText
  0
LINE
  5
59C
100
AcDbEntity
  8
5
 62
     2
100
AcDbLine
 10
-355.364938
 20
377.56157
 30
0.0
 11
-355.364938
 21
466.522614
 31
0.0
  0
LINE
  5
59D
100
AcDbEntity
  8
5
 62
     2
100
AcDbLine
 10
-355.364938
 20
462.522614
 30
0.0
 11
-347.637531
 21
460.452061
 31
0.0
  0
LINE
  5
59E
100
AcDbEntity
  8
5
 62
     2
100
AcDbLine
 10
-355.364938
 20
462.522614
 30
0.0
 11
-347.637531
 21
464.593166
 31
0.0
  0
LINE
  5
59F
100
AcDbEntity
  8
5
 62
     2
100
AcDbLine
 10
-347.637531
 20
460.452061
 30
0.0
 11
-347.637531
 21
464.593166
 31
0.0
  0
LINE
  5
5A0
100
AcDbEntity
  8
5
 62
     2
100
AcDbLine
 10
-355.364938
 20
462.522614
 30
0.0
 11
-148.764938
 21
462.522614
 31
0.0
  0
LINE
  5
5A1
100
AcDbEntity
  8
5
 62
     2
100
AcDbLine
 10
-148.764938
 20
462.522614
 30
0.0
 11
-156.492344
 21
464.593166
 31
0.0
  0
LINE
  5
5A2
100
AcDbEntity
  8
5
 62
     2
100
AcDbLine
 10
-148.764938
 20
462.522614
 30
0.0
 11
-156.492344
 21
460.452061
 31
0.0
  0
LINE
  5
5A3
100
AcDbEntity
  8
5
 62
     2
100
AcDbLine
 10
-156.492344
 20
464.593166
 30
0.0
 11
-156.492344
 21
460.452061
 31
0.0
  0
LINE
  5
5A4
100
AcDbEntity
  8
5
 62
     2
100
AcDbLine
 10
-148.764938
 20
338.611254
 30
0.0
 11
-148.764938
 21
466.522614
 31
0.0
  0
ENDBLK
  5
5A5
100
AcDbEntity
  8
5
100
AcDbBlockEnd
  0
BLOCK
  5
5A6
100
AcDbEntity
  8
5
100
AcDbBlockBegin
  2
*D1
 70
     1
 10
0.0
 20
0.0
 30
0.0
  3
*D1
  1

  0
TEXT
  5
5A7
100
AcDbEntity
  8
5
 62
     2
100
AcDbText
 10
11.005495
 20
-8.338746
 30
0.0
 40
13.2
  1
36
 50
90.0
 41
1.4
 72
     5
 11
11.005495
 21
6.445254
 31
0.0
100
AcDbText
  0
LINE
  5
5A8
100
AcDbEntity
  8
5
 62
     2
100
AcDbLine
 10
68.335062
 20
-54.338746
 30
0.0
 11
9.005495
 21
-54.338746
 31
0.0
  0
LINE
  5
5A9
100
AcDbEntity
  8
5
 62
     2
100
AcDbLine
 10
13.005495
 20
-54.338746
 30
0.0
 11
10.934943
 21
-62.066152
 31
0.0
  0
LINE
  5
5AA
100
AcDbEntity
  8
5
 62
     2
100
AcDbLine
 10
13.005495
 20
-54.338746
 30
0.0
 11
15.076047
 21
-62.066152
 31
0.0
  0
LINE
  5
5AB
100
AcDbEntity
  8
5
 62
     2
100
AcDbLine
 10
10.934943
 20
-62.066152
 30
0.0
 11
15.076047
 21
-62.066152
 31
0.0
  0
LINE
  5
5AC
100
AcDbEntity
  8
5
 62
     2
100
AcDbLine
 10
13.005495
 20
-74.338746
 30
0.0
 11
13.005495
 21
12.141254
 31
0.0
  0
LINE
  5
5AD
100
AcDbEntity
  8
5
 62
     2
100
AcDbLine
 10
13.005495
 20
-18.338746
 30
0.0
 11
15.076047
 21
-10.611339
 31
0.0
  0
LINE
  5
5AE
100
AcDbEntity
  8
5
 62
     2
100
AcDbLine
 10
13.005495
 20
-18.338746
 30
0.0
 11
10.934943
 21
-10.611339
 31
0.0
  0
LINE
  5
5AF
100
AcDbEntity
  8
5
 62
     2
100
AcDbLine
 10
15.076047
 20
-10.611339
 30
0.0
 11
10.934943
 21
-10.611339
 31
0.0
  0
LINE
  5
5B0
100
AcDbEntity
  8
5
 62
     2
100
AcDbLine
 10
45.421213
 20
-18.338746
 30
0.0
 11
9.005495
 21
-18.338746
 31
0.0
  0
ENDBLK
  5
5B1
100
AcDbEntity
  8
5
100
AcDbBlockEnd
  0
BLOCK
  5
5B2
100
AcDbEntity
  8
5
100
AcDbBlockBegin
  2
*D2
 70
     1
 10
0.0
 20
0.0
 30
0.0
  3
*D2
  1

  0
TEXT
  5
5B3
100
AcDbEntity
  8
5
 62
     2
100
AcDbText
 10
11.005495
 20
-181.698745
 30
0.0
 40
13.2
  1
227
 50
90.0
 41
1.4
 72
     5
 11
11.005495
 21
-157.674746
 31
0.0
100
AcDbText
  0
LINE
  5
5B4
100
AcDbEntity
  8
5
 62
     2
100
AcDbLine
 10
59.135062
 20
-281.338746
 30
0.0
 11
9.005495
 21
-281.338746
 31
0.0
  0
LINE
  5
5B5
100
AcDbEntity
  8
5
 62
     2
100
AcDbLine
 10
13.005495
 20
-281.338746
 30
0.0
 11
15.076047
 21
-273.611339
 31
0.0
  0
LINE
  5
5B6
100
AcDbEntity
  8
5
 62
     2
100
AcDbLine
 10
13.005495
 20
-281.338746
 30
0.0
 11
10.934943
 21
-273.611339
 31
0.0
  0
LINE
  5
5B7
100
AcDbEntity
  8
5
 62
     2
100
AcDbLine
 10
15.076047
 20
-273.611339
 30
0.0
 11
10.934943
 21
-273.611339
 31
0.0
  0
LINE
  5
5B8
100
AcDbEntity
  8
5
 62
     2
100
AcDbLine
 10
13.005495
 20
-281.338746
 30
0.0
 11
13.005495
 21
-54.338746
 31
0.0
  0
LINE
  5
5B9
100
AcDbEntity
  8
5
 62
     2
100
AcDbLine
 10
13.005495
 20
-54.338746
 30
0.0
 11
10.934943
 21
-62.066152
 31
0.0
  0
LINE
  5
5BA
100
AcDbEntity
  8
5
 62
     2
100
AcDbLine
 10
13.005495
 20
-54.338746
 30
0.0
 11
15.076047
 21
-62.066152
 31
0.0
  0
LINE
  5
5BB
100
AcDbEntity
  8
5
 62
     2
100
AcDbLine
 10
10.934943
 20
-62.066152
 30
0.0
 11
15.076047
 21
-62.066152
 31
0.0
  0
LINE
  5
5BC
100
AcDbEntity
  8
5
 62
     2
100
AcDbLine
 10
68.335062
 20
-54.338746
 30
0.0
 11
9.005495
 21
-54.338746
 31
0.0
  0
ENDBLK
  5
5BD
100
AcDbEntity
  8
5
100
AcDbBlockEnd
  0
BLOCK
  5
5BE
100
AcDbEntity
  8
5
100
AcDbBlockBegin
  2
*D3
 70
     1
 10
0.0
 20
0.0
 30
0.0
  3
*D3
  1

  0
TEXT
  5
5BF
100
AcDbEntity
  8
5
 62
     2
100
AcDbText
 10
11.005495
 20
-383.048745
 30
0.0
 40
13.2
  1
176
 50
90.0
 41
1.4
 72
     5
 11
11.005495
 21
-359.024746
 31
0.0
100
AcDbText
  0
LINE
  5
5C0
100
AcDbEntity
  8
5
 62
     2
100
AcDbLine
 10
114.335062
 20
-457.038746
 30
0.0
 11
9.005495
 21
-457.038746
 31
0.0
  0
LINE
  5
5C1
100
AcDbEntity
  8
5
 62
     2
100
AcDbLine
 10
13.005495
 20
-457.038746
 30
0.0
 11
15.076047
 21
-449.311339
 31
0.0
  0
LINE
  5
5C2
100
AcDbEntity
  8
5
 62
     2
100
AcDbLine
 10
13.005495
 20
-457.038746
 30
0.0
 11
10.934943
 21
-449.311339
 31
0.0
  0
LINE
  5
5C3
100
AcDbEntity
  8
5
 62
     2
100
AcDbLine
 10
15.076047
 20
-449.311339
 30
0.0
 11
10.934943
 21
-449.311339
 31
0.0
  0
LINE
  5
5C4
100
AcDbEntity
  8
5
 62
     2
100
AcDbLine
 10
13.005495
 20
-457.038746
 30
0.0
 11
13.005495
 21
-281.338746
 31
0.0
  0
LINE
  5
5C5
100
AcDbEntity
  8
5
 62
     2
100
AcDbLine
 10
13.005495
 20
-281.338746
 30
0.0
 11
10.934943
 21
-289.066152
 31
0.0
  0
LINE
  5
5C6
100
AcDbEntity
  8
5
 62
     2
100
AcDbLine
 10
13.005495
 20
-281.338746
 30
0.0
 11
15.076047
 21
-289.066152
 31
0.0
  0
LINE
  5
5C7
100
AcDbEntity
  8
5
 62
     2
100
AcDbLine
 10
10.934943
 20
-289.066152
 30
0.0
 11
15.076047
 21
-289.066152
 31
0.0
  0
LINE
  5
5C8
100
AcDbEntity
  8
5
 62
     2
100
AcDbLine
 10
59.135062
 20
-281.338746
 30
0.0
 11
9.005495
 21
-281.338746
 31
0.0
  0
ENDBLK
  5
5C9
100
AcDbEntity
  8
5
100
AcDbBlockEnd
  0
BLOCK
  5
5CA
100
AcDbEntity
  8
5
100
AcDbBlockBegin
  2
*D4
 70
     1
 10
0.0
 20
0.0
 30
0.0
  3
*D4
  1

  0
TEXT
  5
5CB
100
AcDbEntity
  8
5
 62
     2
100
AcDbText
 10
114.095062
 20
-505.562744
 30
0.0
 40
13.2
  1
60
 41
1.4
 72
     5
 11
128.879062
 21
-505.562744
 31
0.0
100
AcDbText
  0
LINE
  5
5CC
100
AcDbEntity
  8
5
 62
     2
100
AcDbLine
 10
93.335062
 20
-412.338746
 30
0.0
 11
93.335062
 21
-511.562744
 31
0.0
  0
LINE
  5
5CD
100
AcDbEntity
  8
5
 62
     2
100
AcDbLine
 10
93.335062
 20
-507.562744
 30
0.0
 11
101.062469
 21
-509.633297
 31
0.0
  0
LINE
  5
5CE
100
AcDbEntity
  8
5
 62
     2
100
AcDbLine
 10
93.335062
 20
-507.562744
 30
0.0
 11
101.062469
 21
-505.492192
 31
0.0
  0
LINE
  5
5CF
100
AcDbEntity
  8
5
 62
     2
100
AcDbLine
 10
101.062469
 20
-509.633297
 30
0.0
 11
101.062469
 21
-505.492192
 31
0.0
  0
LINE
  5
5D0
100
AcDbEntity
  8
5
 62
     2
100
AcDbLine
 10
93.335062
 20
-507.562744
 30
0.0
 11
153.335062
 21
-507.562744
 31
0.0
  0
LINE
  5
5D1
100
AcDbEntity
  8
5
 62
     2
100
AcDbLine
 10
153.335062
 20
-507.562744
 30
0.0
 11
145.607656
 21
-505.492192
 31
0.0
  0
LINE
  5
5D2
100
AcDbEntity
  8
5
 62
     2
100
AcDbLine
 10
153.335062
 20
-507.562744
 30
0.0
 11
145.607656
 21
-509.633297
 31
0.0
  0
LINE
  5
5D3
100
AcDbEntity
  8
5
 62
     2
100
AcDbLine
 10
145.607656
 20
-505.492192
 30
0.0
 11
145.607656
 21
-509.633297
 31
0.0
  0
LINE
  5
5D4
100
AcDbEntity
  8
5
 62
     2
100
AcDbLine
 10
153.335062
 20
-412.338746
 30
0.0
 11
153.335062
 21
-511.562744
 31
0.0
  0
ENDBLK
  5
5D5
100
AcDbEntity
  8
5
100
AcDbBlockEnd
  0
BLOCK
  5
5D6
100
AcDbEntity
  8
5
100
AcDbBlockBegin
  2
*D5
 70
     1
 10
0.0
 20
0.0
 30
0.0
  3
*D5
  1

  0
TEXT
  5
5D7
100
AcDbEntity
  8
5
 62
     2
100
AcDbText
 10
-88.27449
 20
283.621255
 30
0.0
 40
13.2
  1
71
 50
90.0
 41
1.4
 72
     5
 11
-88.27449
 21
298.405254
 31
0.0
100
AcDbText
  0
LINE
  5
5D8
100
AcDbEntity
  8
5
 62
     2
100
AcDbLine
 10
-194.364938
 20
257.361254
 30
0.0
 11
-82.27449
 21
257.361254
 31
0.0
  0
LINE
  5
5D9
100
AcDbEntity
  8
5
 62
     2
100
AcDbLine
 10
-86.27449
 20
257.361254
 30
0.0
 11
-84.203938
 21
265.088661
 31
0.0
  0
LINE
  5
5DA
100
AcDbEntity
  8
5
 62
     2
100
AcDbLine
 10
-86.27449
 20
257.361254
 30
0.0
 11
-88.345043
 21
265.088661
 31
0.0
  0
LINE
  5
5DB
100
AcDbEntity
  8
5
 62
     2
100
AcDbLine
 10
-84.203938
 20
265.088661
 30
0.0
 11
-88.345043
 21
265.088661
 31
0.0
  0
LINE
  5
5DC
100
AcDbEntity
  8
5
 62
     2
100
AcDbLine
 10
-86.27449
 20
257.361254
 30
0.0
 11
-86.27449
 21
328.361254
 31
0.0
  0
LINE
  5
5DD
100
AcDbEntity
  8
5
 62
     2
100
AcDbLine
 10
-86.27449
 20
328.361254
 30
0.0
 11
-88.345043
 21
320.633848
 31
0.0
  0
LINE
  5
5DE
100
AcDbEntity
  8
5
 62
     2
100
AcDbLine
 10
-86.27449
 20
328.361254
 30
0.0
 11
-84.203938
 21
320.633848
 31
0.0
  0
LINE
  5
5DF
100
AcDbEntity
  8
5
 62
     2
100
AcDbLine
 10
-88.345043
 20
320.633848
 30
0.0
 11
-84.203938
 21
320.633848
 31
0.0
  0
LINE
  5
5E0
100
AcDbEntity
  8
5
 62
     2
100
AcDbLine
 10
-129.692315
 20
328.361254
 30
0.0
 11
-82.27449
 21
328.361254
 31
0.0
  0
ENDBLK
  5
5E1
100
AcDbEntity
  8
5
100
AcDbBlockEnd
  0
BLOCK
  5
5E2
100
AcDbEntity
  8
5
100
AcDbBlockBegin
  2
*D6
 70
     1
 10
0.0
 20
0.0
 30
0.0
  3
*D6
  1

  0
TEXT
  5
5E3
100
AcDbEntity
  8
5
 62
     2
100
AcDbText
 10
-88.27449
 20
215.621255
 30
0.0
 40
13.2
  1
65
 50
90.0
 41
1.4
 72
     5
 11
-88.27449
 21
230.405254
 31
0.0
100
AcDbText
  0
LINE
  5
5E4
100
AcDbEntity
  8
5
 62
     2
100
AcDbLine
 10
-315.176938
 20
192.361254
 30
0.0
 11
-82.27449
 21
192.361254
 31
0.0
  0
LINE
  5
5E5
100
AcDbEntity
  8
5
 62
     2
100
AcDbLine
 10
-86.27449
 20
192.361254
 30
0.0
 11
-84.203938
 21
200.088661
 31
0.0
  0
LINE
  5
5E6
100
AcDbEntity
  8
5
 62
     2
100
AcDbLine
 10
-86.27449
 20
192.361254
 30
0.0
 11
-88.345043
 21
200.088661
 31
0.0
  0
LINE
  5
5E7
100
AcDbEntity
  8
5
 62
     2
100
AcDbLine
 10
-84.203938
 20
200.088661
 30
0.0
 11
-88.345043
 21
200.088661
 31
0.0
  0
LINE
  5
5E8
100
AcDbEntity
  8
5
 62
     2
100
AcDbLine
 10
-86.27449
 20
192.361254
 30
0.0
 11
-86.27449
 21
257.361254
 31
0.0
  0
LINE
  5
5E9
100
AcDbEntity
  8
5
 62
     2
100
AcDbLine
 10
-86.27449
 20
257.361254
 30
0.0
 11
-88.345043
 21
249.633848
 31
0.0
  0
LINE
  5
5EA
100
AcDbEntity
  8
5
 62
     2
100
AcDbLine
 10
-86.27449
 20
257.361254
 30
0.0
 11
-84.203938
 21
249.633848
 31
0.0
  0
LINE
  5
5EB
100
AcDbEntity
  8
5
 62
     2
100
AcDbLine
 10
-88.345043
 20
249.633848
 30
0.0
 11
-84.203938
 21
249.633848
 31
0.0
  0
LINE
  5
5EC
100
AcDbEntity
  8
5
 62
     2
100
AcDbLine
 10
-194.364938
 20
257.361254
 30
0.0
 11
-82.27449
 21
257.361254
 31
0.0
  0
ENDBLK
  5
5ED
100
AcDbEntity
  8
5
100
AcDbBlockEnd
  0
BLOCK
  5
5EE
100
AcDbEntity
  8
5
100
AcDbBlockBegin
  2
*D7
 70
     1
 10
0.0
 20
0.0
 30
0.0
  3
*D7
  1

  0
TEXT
  5
5EF
100
AcDbEntity
  8
5
 62
     2
100
AcDbText
 10
-88.27449
 20
-36.818745
 30
0.0
 40
13.2
  1
%%c200
 50
90.0
 41
1.4
 72
     5
 11
-88.27449
 21
-3.554746
 31
0.0
100
AcDbText
  0
LINE
  5
5F0
100
AcDbEntity
  8
5
 62
     2
100
AcDbLine
 10
-165.364938
 20
81.661254
 30
0.0
 11
-82.27449
 21
81.661254
 31
0.0
  0
LINE
  5
5F1
100
AcDbEntity
  8
5
 62
     2
100
AcDbLine
 10
-86.27449
 20
81.661254
 30
0.0
 11
-88.345043
 21
73.933848
 31
0.0
  0
LINE
  5
5F2
100
AcDbEntity
  8
5
 62
     2
100
AcDbLine
 10
-86.27449
 20
81.661254
 30
0.0
 11
-84.203938
 21
73.933848
 31
0.0
  0
LINE
  5
5F3
100
AcDbEntity
  8
5
 62
     2
100
AcDbLine
 10
-88.345043
 20
73.933848
 30
0.0
 11
-84.203938
 21
73.933848
 31
0.0
  0
LINE
  5
5F4
100
AcDbEntity
  8
5
 62
     2
100
AcDbLine
 10
-86.27449
 20
81.661254
 30
0.0
 11
-86.27449
 21
-118.338746
 31
0.0
  0
LINE
  5
5F5
100
AcDbEntity
  8
5
 62
     2
100
AcDbLine
 10
-86.27449
 20
-118.338746
 30
0.0
 11
-84.203938
 21
-110.611339
 31
0.0
  0
LINE
  5
5F6
100
AcDbEntity
  8
5
 62
     2
100
AcDbLine
 10
-86.27449
 20
-118.338746
 30
0.0
 11
-88.345043
 21
-110.611339
 31
0.0
  0
LINE
  5
5F7
100
AcDbEntity
  8
5
 62
     2
100
AcDbLine
 10
-84.203938
 20
-110.611339
 30
0.0
 11
-88.345043
 21
-110.611339
 31
0.0
  0
LINE
  5
5F8
100
AcDbEntity
  8
5
 62
     2
100
AcDbLine
 10
-165.364938
 20
-118.338746
 30
0.0
 11
-82.27449
 21
-118.338746
 31
0.0
  0
ENDBLK
  5
5F9
100
AcDbEntity
  8
5
100
AcDbBlockEnd
  0
ENDSEC
  0
SECTION
  2
ENTITIES
  0
LINE
  5
2F
100
AcDbEntity
  8
1
  6
CENTER
 62
     2
100
AcDbLine
 10
-511.764938
 20
257.361254
 30
0.0
 11
-198.364938
 21
257.361254
 31
0.0
  0
LINE
  5
30
100
AcDbEntity
  8
1
  6
CENTER
 62
     2
100
AcDbLine
 10
123.335062
 20
46.657705
 30
0.0
 11
123.335062
 21
-473.910036
 31
0.0
  0
LINE
  5
31
100
AcDbEntity
  8
1
  6
CENTER
 62
     2
100
AcDbLine
 10
-355.364938
 20
46.657705
 30
0.0
 11
-355.364938
 21
-473.910036
 31
0.0
  0
LINE
  5
32
100
AcDbEntity
  8
1
  6
DASHED
100
AcDbLine
 10
-382.864938
 20
308.361254
 30
0.0
 11
-327.864938
 21
308.361254
 31
0.0
  0
LINE
  5
33
100
AcDbEntity
  8
1
  6
DASHED
100
AcDbLine
 10
-304.364938
 20
284.861254
 30
0.0
 11
-304.364938
 21
229.861254
 31
0.0
  0
LINE
  5
34
100
AcDbEntity
  8
1
  6
DASHED
100
AcDbLine
 10
-327.864938
 20
206.361254
 30
0.0
 11
-382.864938
 21
206.361254
 31
0.0
  0
CIRCLE
  5
35
100
AcDbEntity
  8
1
  6
DASHED
100
AcDbCircle
 10
-391.364938
 20
221.361254
 30
0.0
 40
5.5
  0
CIRCLE
  5
36
100
AcDbEntity
  8
1
  6
DASHED
100
AcDbCircle
 10
-319.364938
 20
221.361254
 30
0.0
 40
5.5
  0
CIRCLE
  5
37
100
AcDbEntity
  8
1
  6
DASHED
100
AcDbCircle
 10
-319.364938
 20
293.361254
 30
0.0
 40
5.5
  0
CIRCLE
  5
38
100
AcDbEntity
  8
1
  6
DASHED
100
AcDbCircle
 10
-391.364938
 20
293.361254
 30
0.0
 40
5.5
  0
LINE
  5
39
100
AcDbEntity
  8
1
  6
CENTER
 62
     2
100
AcDbLine
 10
-329.864938
 20
293.361254
 30
0.0
 11
-308.864938
 21
293.361254
 31
0.0
  0
LINE
  5
3A
100
AcDbEntity
  8
1
  6
CENTER
 62
     2
100
AcDbLine
 10
-319.364938
 20
303.861254
 30
0.0
 11
-319.364938
 21
282.861254
 31
0.0
  0
LINE
  5
3B
100
AcDbEntity
  8
1
  6
DASHED
100
AcDbLine
 10
-406.364938
 20
284.861254
 30
0.0
 11
-406.364938
 21
229.861254
 31
0.0
  0
ARC
  5
3C
100
AcDbEntity
  8
1
  6
DASHED
100
AcDbCircle
 10
-327.864938
 20
284.861254
 30
0.0
 40
23.5
100
AcDbArc
 50
0.0
 51
90.0
  0
ARC
  5
3D
100
AcDbEntity
  8
1
  6
DASHED
100
AcDbCircle
 10
-382.864938
 20
284.861254
 30
0.0
 40
23.5
100
AcDbArc
 50
90.0
 51
180.0
  0
ARC
  5
3E
100
AcDbEntity
  8
1
  6
DASHED
100
AcDbCircle
 10
-382.864938
 20
229.861254
 30
0.0
 40
23.5
100
AcDbArc
 50
180.0
 51
270.0
  0
ARC
  5
3F
100
AcDbEntity
  8
1
  6
DASHED
100
AcDbCircle
 10
-327.864938
 20
229.861254
 30
0.0
 40
23.5
100
AcDbArc
 50
270.0
 51
0.0
  0
LINE
  5
40
100
AcDbEntity
  8
1
  6
CENTER
 62
     2
100
AcDbLine
 10
-380.864938
 20
293.361254
 30
0.0
 11
-401.864938
 21
293.361254
 31
0.0
  0
LINE
  5
41
100
AcDbEntity
  8
1
  6
CENTER
 62
     2
100
AcDbLine
 10
-391.364938
 20
303.861254
 30
0.0
 11
-391.364938
 21
282.861254
 31
0.0
  0
LINE
  5
42
100
AcDbEntity
  8
1
  6
CENTER
 62
     2
100
AcDbLine
 10
-329.864938
 20
221.361254
 30
0.0
 11
-308.864938
 21
221.361254
 31
0.0
  0
LINE
  5
43
100
AcDbEntity
  8
1
  6
CENTER
 62
     2
100
AcDbLine
 10
-319.364938
 20
210.861254
 30
0.0
 11
-319.364938
 21
231.861254
 31
0.0
  0
LINE
  5
44
100
AcDbEntity
  8
1
  6
CENTER
 62
     2
100
AcDbLine
 10
-380.864938
 20
221.361254
 30
0.0
 11
-401.864938
 21
221.361254
 31
0.0
  0
LINE
  5
45
100
AcDbEntity
  8
1
  6
CENTER
 62
     2
100
AcDbLine
 10
-391.364938
 20
210.861254
 30
0.0
 11
-391.364938
 21
231.861254
 31
0.0
  0
LINE
  5
46
100
AcDbEntity
  8
1
  6
CENTER
 62
     2
100
AcDbLine
 10
-511.764938
 20
-281.338746
 30
0.0
 11
-198.364938
 21
-281.338746
 31
0.0
  0
LINE
  5
47
100
AcDbEntity
  8
1
  6
CENTER
 62
     2
100
AcDbLine
 10
63.135062
 20
-281.338746
 30
0.0
 11
182.535062
 21
-281.338746
 31
0.0
  0
LINE
  5
48
100
AcDbEntity
  8
1
100
AcDbLine
 10
-308.364938
 20
-68.338746
 30
0.0
 11
-402.364938
 21
-68.338746
 31
0.0
  0
LINE
  5
49
100
AcDbEntity
  8
1
100
AcDbLine
 10
-406.364938
 20
-54.338746
 30
0.0
 11
-406.364938
 21
-64.338746
 31
0.0
  0
LINE
  5
4A
100
AcDbEntity
  8
1
100
AcDbLine
 10
-304.364938
 20
-54.338746
 30
0.0
 11
-304.364938
 21
-64.338746
 31
0.0
  0
LINE
  5
4B
100
AcDbEntity
  8
1
100
AcDbLine
 10
-376.364938
 20
-78.338746
 30
0.0
 11
-376.364938
 21
-146.8657
 31
0.0
  0
LINE
  5
4C
100
AcDbEntity
  8
1
100
AcDbLine
 10
-334.364938
 20
-78.338746
 30
0.0
 11
-334.364938
 21
-146.8657
 31
0.0
  0
LINE
  5
4D
100
AcDbEntity
  8
1
100
AcDbLine
 10
170.335062
 20
-68.338746
 30
0.0
 11
76.335062
 21
-68.338746
 31
0.0
  0
LINE
  5
4E
100
AcDbEntity
  8
1
100
AcDbLine
 10
72.335062
 20
-54.338746
 30
0.0
 11
72.335062
 21
-64.338746
 31
0.0
  0
LINE
  5
4F
100
AcDbEntity
  8
1
100
AcDbLine
 10
174.335062
 20
-54.338746
 30
0.0
 11
174.335062
 21
-64.338746
 31
0.0
  0
LINE
  5
50
100
AcDbEntity
  8
1
100
AcDbLine
 10
102.335062
 20
-78.338746
 30
0.0
 11
102.335062
 21
-151.610124
 31
0.0
  0
LINE
  5
51
100
AcDbEntity
  8
1
100
AcDbLine
 10
144.335062
 20
-78.338746
 30
0.0
 11
144.335062
 21
-151.610124
 31
0.0
  0
LINE
  5
52
100
AcDbEntity
  8
1
100
AcDbLine
 10
105.335062
 20
-448.338746
 30
0.0
 11
141.335062
 21
-448.338746
 31
0.0
  0
LINE
  5
53
100
AcDbEntity
  8
1
100
AcDbLine
 10
98.335062
 20
-409.067368
 30
0.0
 11
98.335062
 21
-439.338746
 31
0.0
  0
LINE
  5
54
100
AcDbEntity
  8
1
100
AcDbLine
 10
148.335062
 20
-409.067368
 30
0.0
 11
148.335062
 21
-439.338746
 31
0.0
  0
LINE
  5
55
100
AcDbEntity
  8
1
100
AcDbLine
 10
119.335062
 20
-442.338746
 30
0.0
 11
119.335062
 21
-393.925036
 31
0.0
  0
LINE
  5
56
100
AcDbEntity
  8
1
100
AcDbLine
 10
127.335062
 20
-393.925036
 30
0.0
 11
127.335062
 21
-442.338746
 31
0.0
  0
LINE
  5
57
100
AcDbEntity
  8
1
  6
CENTER
 62
     2
100
AcDbLine
 10
-337.364938
 20
-435.974928
 30
0.0
 11
-337.364938
 21
-462.130873
 31
0.0
  0
LINE
  5
58
100
AcDbEntity
  8
1
  6
CENTER
 62
     2
100
AcDbLine
 10
-373.364938
 20
-435.974928
 30
0.0
 11
-373.364938
 21
-462.130873
 31
0.0
  0
LINE
  5
59
100
AcDbEntity
  8
1
100
AcDbLine
 10
-343.464938
 20
-453.038746
 30
0.0
 11
-331.264938
 21
-453.038746
 31
0.0
  0
LINE
  5
5A
100
AcDbEntity
  8
1
100
AcDbLine
 10
-331.614938
 20
-453.038746
 30
0.0
 11
-331.614938
 21
-456.547998
 31
0.0
  0
LINE
  5
5B
100
AcDbEntity
  8
1
100
AcDbLine
 10
-331.614938
 20
-456.547998
 30
0.0
 11
-332.464938
 21
-457.038746
 31
0.0
  0
LINE
  5
5C
100
AcDbEntity
  8
1
100
AcDbLine
 10
-334.489938
 20
-453.038746
 30
0.0
 11
-334.489938
 21
-456.547998
 31
0.0
  0
ARC
  5
5D
100
AcDbEntity
  8
1
100
AcDbCircle
 10
-333.052438
 20
-454.700043
 30
0.0
 40
2.341227
100
AcDbArc
 50
232.121121
 51
307.878879
  0
ARC
  5
5E
100
AcDbEntity
  8
1
100
AcDbCircle
 10
-337.364938
 20
-448.41627
 30
0.0
 40
8.625
100
AcDbArc
 50
250.528777
 51
289.471219
  0
LINE
  5
5F
100
AcDbEntity
  8
1
100
AcDbLine
 10
-343.114938
 20
-453.038746
 30
0.0
 11
-343.114938
 21
-456.547998
 31
0.0
  0
LINE
  5
60
100
AcDbEntity
  8
1
100
AcDbLine
 10
-343.114938
 20
-456.547998
 30
0.0
 11
-342.264938
 21
-457.038746
 31
0.0
  0
LINE
  5
61
100
AcDbEntity
  8
1
100
AcDbLine
 10
-342.264938
 20
-457.038746
 30
0.0
 11
-332.464938
 21
-457.038746
 31
0.0
  0
LINE
  5
62
100
AcDbEntity
  8
1
100
AcDbLine
 10
-340.239938
 20
-453.038746
 30
0.0
 11
-340.239938
 21
-456.547998
 31
0.0
  0
ARC
  5
63
100
AcDbEntity
  8
1
100
AcDbCircle
 10
-341.677438
 20
-454.700043
 30
0.0
 40
2.341227
100
AcDbArc
 50
232.121121
 51
307.878879
  0
LINE
  5
64
100
AcDbEntity
  8
1
100
AcDbLine
 10
-331.264938
 20
-451.538746
 30
0.0
 11
-331.264938
 21
-453.038746
 31
0.0
  0
LINE
  5
65
100
AcDbEntity
  8
1
100
AcDbLine
 10
-343.464938
 20
-453.038746
 30
0.0
 11
-343.464938
 21
-451.538746
 31
0.0
  0
LINE
  5
66
100
AcDbEntity
  8
1
100
AcDbLine
 10
-337.364938
 20
-453.038746
 30
0.0
 11
-337.864938
 21
-451.538746
 31
0.0
  0
LINE
  5
67
100
AcDbEntity
  8
1
100
AcDbLine
 10
-337.364938
 20
-451.538746
 30
0.0
 11
-336.864938
 21
-453.038746
 31
0.0
  0
LINE
  5
68
100
AcDbEntity
  8
1
100
AcDbLine
 10
-379.464938
 20
-453.038746
 30
0.0
 11
-367.264938
 21
-453.038746
 31
0.0
  0
LINE
  5
69
100
AcDbEntity
  8
1
100
AcDbLine
 10
-367.614938
 20
-453.038746
 30
0.0
 11
-367.614938
 21
-456.547998
 31
0.0
  0
LINE
  5
6A
100
AcDbEntity
  8
1
100
AcDbLine
 10
-367.614938
 20
-456.547998
 30
0.0
 11
-368.464938
 21
-457.038746
 31
0.0
  0
LINE
  5
6B
100
AcDbEntity
  8
1
100
AcDbLine
 10
-370.489938
 20
-453.038746
 30
0.0
 11
-370.489938
 21
-456.547998
 31
0.0
  0
ARC
  5
6C
100
AcDbEntity
  8
1
100
AcDbCircle
 10
-369.052438
 20
-454.700043
 30
0.0
 40
2.341227
100
AcDbArc
 50
232.121121
 51
307.878879
  0
ARC
  5
6D
100
AcDbEntity
  8
1
100
AcDbCircle
 10
-373.364938
 20
-448.41627
 30
0.0
 40
8.625
100
AcDbArc
 50
250.528777
 51
289.471219
  0
LINE
  5
6E
100
AcDbEntity
  8
1
100
AcDbLine
 10
-379.114938
 20
-453.038746
 30
0.0
 11
-379.114938
 21
-456.547998
 31
0.0
  0
LINE
  5
6F
100
AcDbEntity
  8
1
100
AcDbLine
 10
-379.114938
 20
-456.547998
 30
0.0
 11
-378.264938
 21
-457.038746
 31
0.0
  0
LINE
  5
70
100
AcDbEntity
  8
1
100
AcDbLine
 10
-378.264938
 20
-457.038746
 30
0.0
 11
-368.464938
 21
-457.038746
 31
0.0
  0
LINE
  5
71
100
AcDbEntity
  8
1
100
AcDbLine
 10
-376.239938
 20
-453.038746
 30
0.0
 11
-376.239938
 21
-456.547998
 31
0.0
  0
ARC
  5
72
100
AcDbEntity
  8
1
100
AcDbCircle
 10
-377.677438
 20
-454.700043
 30
0.0
 40
2.341227
100
AcDbArc
 50
232.121121
 51
307.878879
  0
LINE
  5
73
100
AcDbEntity
  8
1
100
AcDbLine
 10
-367.264938
 20
-451.538746
 30
0.0
 11
-367.264938
 21
-453.038746
 31
0.0
  0
LINE
  5
74
100
AcDbEntity
  8
1
100
AcDbLine
 10
-379.464938
 20
-453.038746
 30
0.0
 11
-379.464938
 21
-451.538746
 31
0.0
  0
LINE
  5
75
100
AcDbEntity
  8
1
100
AcDbLine
 10
-373.364938
 20
-453.038746
 30
0.0
 11
-373.864938
 21
-451.538746
 31
0.0
  0
LINE
  5
76
100
AcDbEntity
  8
1
100
AcDbLine
 10
-373.364938
 20
-451.538746
 30
0.0
 11
-372.864938
 21
-453.038746
 31
0.0
  0
ARC
  5
77
100
AcDbEntity
  8
1
100
AcDbCircle
 10
-402.364938
 20
-64.338746
 30
0.0
 40
4.0
100
AcDbArc
 50
180.0
 51
270.0
  0
ARC
  5
78
100
AcDbEntity
  8
1
100
AcDbCircle
 10
-308.364938
 20
-64.338746
 30
0.0
 40
4.0
100
AcDbArc
 50
270.0
 51
360.0
  0
ARC
  5
79
100
AcDbEntity
  8
1
100
AcDbCircle
 10
-314.364938
 20
-88.338746
 30
0.0
 40
20.0
100
AcDbArc
 50
90.0
 51
180.0
  0
ARC
  5
7A
100
AcDbEntity
  8
1
100
AcDbCircle
 10
-396.364938
 20
-88.338746
 30
0.0
 40
20.0
100
AcDbArc
 50
0.0
 51
42.533881
  0
LINE
  5
7B
100
AcDbEntity
  8
1
100
AcDbLine
 10
-352.364938
 20
-96.276184
 30
0.0
 11
-358.364938
 21
-96.276184
 31
0.0
  0
LINE
  5
7C
100
AcDbEntity
  8
1
100
AcDbLine
 10
-358.364938
 20
-71.338746
 30
0.0
 11
-358.364938
 21
-93.276184
 31
0.0
  0
LINE
  5
7D
100
AcDbEntity
  8
1
100
AcDbLine
 10
-352.364938
 20
-71.338746
 30
0.0
 11
-352.364938
 21
-93.276184
 31
0.0
  0
ARC
  5
7E
100
AcDbEntity
  8
1
100
AcDbCircle
 10
-349.364938
 20
-71.338746
 30
0.0
 40
3.0
100
AcDbArc
 50
90.0
 51
180.0
  0
ARC
  5
7F
100
AcDbEntity
  8
1
100
AcDbCircle
 10
-361.364938
 20
-71.338746
 30
0.0
 40
3.0
100
AcDbArc
 50
0.0
 51
90.0
  0
ARC
  5
80
100
AcDbEntity
  8
1
100
AcDbCircle
 10
-361.364938
 20
-93.276184
 30
0.0
 40
3.0
100
AcDbArc
 50
270.0
 51
360.0
  0
ARC
  5
81
100
AcDbEntity
  8
1
100
AcDbCircle
 10
-349.364938
 20
-93.276184
 30
0.0
 40
3.0
100
AcDbArc
 50
180.0
 51
270.0
  0
ARC
  5
82
100
AcDbEntity
  8
1
100
AcDbCircle
 10
-324.364938
 20
-78.338746
 30
0.0
 40
10.0
100
AcDbArc
 50
90.0
 51
180.0
  0
ARC
  5
83
100
AcDbEntity
  8
1
100
AcDbCircle
 10
-386.364938
 20
-78.338746
 30
0.0
 40
10.0
100
AcDbArc
 50
360.0
 51
65.559036
  0
LINE
  5
84
100
AcDbEntity
  8
1
100
AcDbLine
 10
-381.466616
 20
-74.538746
 30
0.0
 11
-377.115073
 21
-74.538746
 31
0.0
  0
LINE
  5
85
100
AcDbEntity
  8
1
100
AcDbLine
 10
-333.614803
 20
-74.538746
 30
0.0
 11
-329.26326
 21
-74.538746
 31
0.0
  0
ARC
  5
86
100
AcDbEntity
  8
1
100
AcDbCircle
 10
-329.26326
 20
-73.538746
 30
0.0
 40
1.0
100
AcDbArc
 50
270.0
 51
315.189688
  0
ARC
  5
87
100
AcDbEntity
  8
1
100
AcDbCircle
 10
-381.466616
 20
-73.538746
 30
0.0
 40
1.0
100
AcDbArc
 50
260.74853
 51
270.0
  0
CIRCLE
  5
88
100
AcDbEntity
  8
1
100
AcDbCircle
 10
-355.364938
 20
-281.338746
 30
0.0
 40
128.0
  0
CIRCLE
  5
89
100
AcDbEntity
  8
1
100
AcDbCircle
 10
-355.364938
 20
-281.338746
 30
0.0
 40
127.0
  0
ARC
  5
8A
100
AcDbEntity
  8
1
100
AcDbCircle
 10
-355.364938
 20
-231.338746
 30
0.0
 40
120.0
100
AcDbArc
 50
70.579419
 51
77.626375
  0
ARC
  5
8B
100
AcDbEntity
  8
1
100
AcDbCircle
 10
-355.364938
 20
-231.338746
 30
0.0
 40
120.0
100
AcDbArc
 50
102.373625
 51
109.420581
  0
LINE
  5
8C
100
AcDbEntity
  8
1
100
AcDbLine
 10
-396.769509
 20
-126.814782
 30
0.0
 11
-397.798632
 21
-122.974041
 31
0.0
  0
LINE
  5
8D
100
AcDbEntity
  8
1
100
AcDbLine
 10
-313.960366
 20
-126.814782
 30
0.0
 11
-312.931243
 21
-122.974041
 31
0.0
  0
ARC
  5
8E
100
AcDbEntity
  8
1
100
AcDbCircle
 10
-328.364938
 20
-108.265597
 30
0.0
 40
6.0
100
AcDbArc
 50
180.0
 51
257.626375
  0
ARC
  5
8F
100
AcDbEntity
  8
1
100
AcDbCircle
 10
-382.364938
 20
-108.265597
 30
0.0
 40
6.0
100
AcDbArc
 50
282.373625
 51
360.0
  0
ARC
  5
90
100
AcDbEntity
  8
1
100
AcDbCircle
 10
-316.794946
 20
-121.938765
 30
0.0
 40
4.0
100
AcDbArc
 50
345.0
 51
70.579419
  0
ARC
  5
91
100
AcDbEntity
  8
1
100
AcDbCircle
 10
-393.934929
 20
-121.938765
 30
0.0
 40
4.0
100
AcDbArc
 50
109.420581
 51
195.0
  0
LINE
  5
92
100
AcDbEntity
  8
1
100
AcDbLine
 10
-329.336176
 20
-141.279501
 30
0.0
 11
-329.336176
 21
-148.124901
 31
0.0
  0
LINE
  5
93
100
AcDbEntity
  8
1
100
AcDbLine
 10
-381.393699
 20
-141.279501
 30
0.0
 11
-381.393699
 21
-148.124901
 31
0.0
  0
ARC
  5
94
100
AcDbEntity
  8
1
100
AcDbCircle
 10
-317.836176
 20
-141.279501
 30
0.0
 40
11.5
100
AcDbArc
 50
89.955248
 51
180.0
  0
ARC
  5
95
100
AcDbEntity
  8
1
100
AcDbCircle
 10
-392.893699
 20
-141.279501
 30
0.0
 40
11.5
100
AcDbArc
 50
0.0
 51
90.044752
  0
ARC
  5
96
100
AcDbEntity
  8
1
100
AcDbCircle
 10
-317.82407
 20
-125.779505
 30
0.0
 40
4.0
100
AcDbArc
 50
269.955248
 51
345.0
  0
ARC
  5
97
100
AcDbEntity
  8
1
100
AcDbCircle
 10
-392.905806
 20
-125.779505
 30
0.0
 40
4.0
100
AcDbArc
 50
195.0
 51
270.044752
  0
ARC
  5
98
100
AcDbEntity
  8
1
100
AcDbCircle
 10
-324.364938
 20
-146.8657
 30
0.0
 40
10.0
100
AcDbArc
 50
180.0
 51
257.018427
  0
ARC
  5
99
100
AcDbEntity
  8
1
100
AcDbCircle
 10
-319.336176
 20
-148.124901
 30
0.0
 40
10.0
100
AcDbArc
 50
180.0
 51
254.865965
  0
ARC
  5
9A
100
AcDbEntity
  8
1
100
AcDbCircle
 10
-386.364938
 20
-146.8657
 30
0.0
 40
10.0
100
AcDbArc
 50
282.981573
 51
360.0
  0
ARC
  5
9B
100
AcDbEntity
  8
1
100
AcDbCircle
 10
-391.393699
 20
-148.124901
 30
0.0
 40
10.0
100
AcDbArc
 50
285.134035
 51
360.0
  0
LINE
  5
9C
100
AcDbEntity
  8
1
100
AcDbLine
 10
-382.364938
 20
-448.338746
 30
0.0
 11
-328.364938
 21
-448.338746
 31
0.0
  0
LINE
  5
9D
100
AcDbEntity
  8
1
100
AcDbLine
 10
-376.364938
 20
-415.811791
 30
0.0
 11
-376.364938
 21
-439.338746
 31
0.0
  0
LINE
  5
9E
100
AcDbEntity
  8
1
100
AcDbLine
 10
-334.364938
 20
-415.811791
 30
0.0
 11
-334.364938
 21
-439.338746
 31
0.0
  0
ARC
  5
9F
100
AcDbEntity
  8
1
100
AcDbCircle
 10
-324.364938
 20
-415.811791
 30
0.0
 40
10.0
100
AcDbArc
 50
102.981573
 51
180.0
  0
ARC
  5
A0
100
AcDbEntity
  8
1
100
AcDbCircle
 10
-386.364938
 20
-415.811791
 30
0.0
 40
10.0
100
AcDbArc
 50
0.0
 51
77.018427
  0
LINE
  5
A1
100
AcDbEntity
  8
1
100
AcDbLine
 10
-382.364938
 20
-445.338746
 30
0.0
 11
-328.364938
 21
-445.338746
 31
0.0
  0
ARC
  5
A2
100
AcDbEntity
  8
1
100
AcDbCircle
 10
-340.364938
 20
-439.338746
 30
0.0
 40
6.0
100
AcDbArc
 50
270.0
 51
360.0
  0
ARC
  5
A3
100
AcDbEntity
  8
1
100
AcDbCircle
 10
-370.364938
 20
-439.338746
 30
0.0
 40
6.0
100
AcDbArc
 50
180.0
 51
270.0
  0
LINE
  5
A4
100
AcDbEntity
  8
1
100
AcDbLine
 10
-396.769509
 20
-435.862709
 30
0.0
 11
-397.138319
 21
-437.239125
 31
0.0
  0
LINE
  5
A5
100
AcDbEntity
  8
1
100
AcDbLine
 10
-313.960366
 20
-435.862709
 30
0.0
 11
-313.591557
 21
-437.239125
 31
0.0
  0
LINE
  5
A6
100
AcDbEntity
  8
1
100
AcDbLine
 10
-328.364938
 20
-445.338746
 30
0.0
 11
-316.419984
 21
-442.138105
 31
0.0
  0
LINE
  5
A7
100
AcDbEntity
  8
1
100
AcDbLine
 10
-382.364938
 20
-445.338746
 30
0.0
 11
-394.309891
 21
-442.138105
 31
0.0
  0
ARC
  5
A8
100
AcDbEntity
  8
1
100
AcDbCircle
 10
-317.45526
 20
-438.274402
 30
0.0
 40
4.0
100
AcDbArc
 50
285.0
 51
15.0
  0
ARC
  5
A9
100
AcDbEntity
  8
1
100
AcDbCircle
 10
-393.274615
 20
-438.274402
 30
0.0
 40
4.0
100
AcDbArc
 50
165.0
 51
255.0
  0
ARC
  5
AA
100
AcDbEntity
  8
1
100
AcDbCircle
 10
-325.364938
 20
-447.640727
 30
0.0
 40
3.0
100
AcDbArc
 50
105.0
 51
180.0
  0
ARC
  5
AB
100
AcDbEntity
  8
1
100
AcDbCircle
 10
-385.364938
 20
-447.640727
 30
0.0
 40
3.0
100
AcDbArc
 50
0.0
 51
75.0
  0
ARC
  5
AC
100
AcDbEntity
  8
1
100
AcDbCircle
 10
-334.364938
 20
-439.338746
 30
0.0
 40
6.0
100
AcDbArc
 50
0.0
 51
70.528779
  0
ARC
  5
AD
100
AcDbEntity
  8
1
100
AcDbCircle
 10
-376.364938
 20
-439.338746
 30
0.0
 40
6.0
100
AcDbArc
 50
109.471221
 51
180.0
  0
ARC
  5
AE
100
AcDbEntity
  8
1
100
AcDbCircle
 10
-331.364938
 20
-430.853464
 30
0.0
 40
3.0
100
AcDbArc
 50
180.0
 51
250.528779
  0
ARC
  5
AF
100
AcDbEntity
  8
1
100
AcDbCircle
 10
-379.364938
 20
-430.853464
 30
0.0
 40
3.0
100
AcDbArc
 50
289.471221
 51
360.0
  0
LINE
  5
B0
100
AcDbEntity
  8
1
100
AcDbLine
 10
-328.364938
 20
-451.538746
 30
0.0
 11
-328.364938
 21
-447.640727
 31
0.0
  0
LINE
  5
B1
100
AcDbEntity
  8
1
100
AcDbLine
 10
-328.364938
 20
-445.338746
 30
0.0
 11
-328.364938
 21
-439.338746
 31
0.0
  0
LINE
  5
B2
100
AcDbEntity
  8
1
100
AcDbLine
 10
-382.364938
 20
-451.538746
 30
0.0
 11
-382.364938
 21
-447.640727
 31
0.0
  0
LINE
  5
B3
100
AcDbEntity
  8
1
100
AcDbLine
 10
-382.364938
 20
-445.338746
 30
0.0
 11
-382.364938
 21
-439.338746
 31
0.0
  0
LINE
  5
B4
100
AcDbEntity
  8
1
100
AcDbLine
 10
-329.336176
 20
-421.39799
 30
0.0
 11
-329.336176
 21
-414.55259
 31
0.0
  0
LINE
  5
B5
100
AcDbEntity
  8
1
100
AcDbLine
 10
-381.393699
 20
-421.39799
 30
0.0
 11
-381.393699
 21
-414.55259
 31
0.0
  0
ARC
  5
B6
100
AcDbEntity
  8
1
100
AcDbCircle
 10
-317.836176
 20
-421.39799
 30
0.0
 40
11.5
100
AcDbArc
 50
180.0
 51
270.044752
  0
ARC
  5
B7
100
AcDbEntity
  8
1
100
AcDbCircle
 10
-392.893699
 20
-421.39799
 30
0.0
 40
11.5
100
AcDbArc
 50
269.955248
 51
360.0
  0
ARC
  5
B8
100
AcDbEntity
  8
1
100
AcDbCircle
 10
-317.82407
 20
-436.897986
 30
0.0
 40
4.0
100
AcDbArc
 50
15.0
 51
90.044752
  0
ARC
  5
B9
100
AcDbEntity
  8
1
100
AcDbCircle
 10
-392.905806
 20
-436.897986
 30
0.0
 40
4.0
100
AcDbArc
 50
89.955248
 51
165.0
  0
ARC
  5
BA
100
AcDbEntity
  8
1
100
AcDbCircle
 10
-319.336176
 20
-414.55259
 30
0.0
 40
10.0
100
AcDbArc
 50
105.134035
 51
180.0
  0
ARC
  5
BB
100
AcDbEntity
  8
1
100
AcDbCircle
 10
-391.393699
 20
-414.55259
 30
0.0
 40
10.0
100
AcDbArc
 50
0.0
 51
74.865965
  0
LINE
  5
BC
100
AcDbEntity
  8
1
100
AcDbLine
 10
-382.364938
 20
-449.138746
 30
0.0
 11
-328.364938
 21
-449.138746
 31
0.0
  0
LINE
  5
BD
100
AcDbEntity
  8
1
100
AcDbLine
 10
-382.364938
 20
-451.538746
 30
0.0
 11
-328.364938
 21
-451.538746
 31
0.0
  0
CIRCLE
  5
BE
100
AcDbEntity
  8
1
100
AcDbCircle
 10
-355.364938
 20
-281.338746
 30
0.0
 40
121.0
  0
ARC
  5
BF
100
AcDbEntity
  8
1
100
AcDbCircle
 10
170.335062
 20
-64.338746
 30
0.0
 40
4.0
100
AcDbArc
 50
270.0
 51
360.0
  0
ARC
  5
C0
100
AcDbEntity
  8
1
100
AcDbCircle
 10
76.335062
 20
-64.338746
 30
0.0
 40
4.0
100
AcDbArc
 50
180.0
 51
270.0
  0
ARC
  5
C1
100
AcDbEntity
  8
1
100
AcDbCircle
 10
154.335062
 20
-78.338746
 30
0.0
 40
10.0
100
AcDbArc
 50
114.440964
 51
180.0
  0
ARC
  5
C2
100
AcDbEntity
  8
1
100
AcDbCircle
 10
92.335062
 20
-78.338746
 30
0.0
 40
10.0
100
AcDbArc
 50
0.0
 51
90.0
  0
ARC
  5
C3
100
AcDbEntity
  8
1
100
AcDbCircle
 10
74.335062
 20
-96.276184
 30
0.0
 40
28.0
100
AcDbArc
 50
0.0
 51
86.416678
  0
LINE
  5
C4
100
AcDbEntity
  8
1
100
AcDbLine
 10
120.335062
 20
-88.338746
 30
0.0
 11
126.335062
 21
-88.338746
 31
0.0
  0
LINE
  5
C5
100
AcDbEntity
  8
1
100
AcDbLine
 10
120.335062
 20
-75.538746
 30
0.0
 11
120.335062
 21
-85.338746
 31
0.0
  0
LINE
  5
C6
100
AcDbEntity
  8
1
100
AcDbLine
 10
126.335062
 20
-75.538746
 30
0.0
 11
126.335062
 21
-85.338746
 31
0.0
  0
ARC
  5
C7
100
AcDbEntity
  8
1
100
AcDbCircle
 10
129.335062
 20
-85.338746
 30
0.0
 40
3.0
100
AcDbArc
 50
180.0
 51
270.0
  0
ARC
  5
C8
100
AcDbEntity
  8
1
100
AcDbCircle
 10
117.335062
 20
-85.338746
 30
0.0
 40
3.0
100
AcDbArc
 50
270.0
 51
360.0
  0
LINE
  5
C9
100
AcDbEntity
  8
1
100
AcDbLine
 10
119.335062
 20
-71.338746
 30
0.0
 11
119.335062
 21
-73.806695
 31
0.0
  0
LINE
  5
CA
100
AcDbEntity
  8
1
100
AcDbLine
 10
127.335062
 20
-71.338746
 30
0.0
 11
127.335062
 21
-73.806695
 31
0.0
  0
ARC
  5
CB
100
AcDbEntity
  8
1
100
AcDbCircle
 10
127.335062
 20
-75.538746
 30
0.0
 40
1.0
100
AcDbArc
 50
120.0
 51
180.0
  0
ARC
  5
CC
100
AcDbEntity
  8
1
100
AcDbCircle
 10
119.335062
 20
-75.538746
 30
0.0
 40
1.0
100
AcDbArc
 50
0.0
 51
60.0
  0
ARC
  5
CD
100
AcDbEntity
  8
1
100
AcDbCircle
 10
126.335062
 20
-73.806695
 30
0.0
 40
1.0
100
AcDbArc
 50
300.0
 51
360.0
  0
ARC
  5
CE
100
AcDbEntity
  8
1
100
AcDbCircle
 10
120.335062
 20
-73.806695
 30
0.0
 40
1.0
100
AcDbArc
 50
180.0
 51
240.0
  0
ARC
  5
CF
100
AcDbEntity
  8
1
100
AcDbCircle
 10
130.335062
 20
-71.338746
 30
0.0
 40
3.0
100
AcDbArc
 50
90.0
 51
180.0
  0
ARC
  5
D0
100
AcDbEntity
  8
1
100
AcDbCircle
 10
116.335062
 20
-71.338746
 30
0.0
 40
3.0
100
AcDbArc
 50
0.0
 51
90.0
  0
LINE
  5
D1
100
AcDbEntity
  8
1
100
AcDbLine
 10
93.335062
 20
-154.338746
 30
0.0
 11
93.335062
 21
-408.338746
 31
0.0
  0
LINE
  5
D2
100
AcDbEntity
  8
1
100
AcDbLine
 10
153.335062
 20
-154.338746
 30
0.0
 11
153.335062
 21
-408.338746
 31
0.0
  0
LINE
  5
D3
100
AcDbEntity
  8
1
100
AcDbLine
 10
153.335062
 20
-154.338746
 30
0.0
 11
152.335062
 21
-153.338746
 31
0.0
  0
LINE
  5
D4
100
AcDbEntity
  8
1
100
AcDbLine
 10
93.335062
 20
-154.338746
 30
0.0
 11
94.335062
 21
-153.338746
 31
0.0
  0
LINE
  5
D5
100
AcDbEntity
  8
1
100
AcDbLine
 10
93.335062
 20
-408.338746
 30
0.0
 11
94.335062
 21
-409.338746
 31
0.0
  0
LINE
  5
D6
100
AcDbEntity
  8
1
100
AcDbLine
 10
152.335062
 20
-409.338746
 30
0.0
 11
153.335062
 21
-408.338746
 31
0.0
  0
LINE
  5
D7
100
AcDbEntity
  8
1
100
AcDbLine
 10
152.335062
 20
-153.338746
 30
0.0
 11
152.335062
 21
-409.338746
 31
0.0
  0
LINE
  5
D8
100
AcDbEntity
  8
1
100
AcDbLine
 10
94.335062
 20
-153.338746
 30
0.0
 11
94.335062
 21
-409.338746
 31
0.0
  0
LINE
  5
D9
100
AcDbEntity
  8
1
100
AcDbLine
 10
94.335062
 20
-153.338746
 30
0.0
 11
97.335062
 21
-153.338746
 31
0.0
  0
LINE
  5
DA
100
AcDbEntity
  8
1
100
AcDbLine
 10
149.335062
 20
-153.338746
 30
0.0
 11
152.335062
 21
-153.338746
 31
0.0
  0
ARC
  5
DB
100
AcDbEntity
  8
1
100
AcDbCircle
 10
149.335062
 20
-148.338746
 30
0.0
 40
5.0
100
AcDbArc
 50
180.0
 51
270.0
  0
ARC
  5
DC
100
AcDbEntity
  8
1
100
AcDbCircle
 10
97.335062
 20
-148.338746
 30
0.0
 40
5.0
100
AcDbArc
 50
270.0
 51
0.0
  0
ARC
  5
DD
100
AcDbEntity
  8
1
100
AcDbCircle
 10
149.335062
 20
-151.610124
 30
0.0
 40
5.0
100
AcDbArc
 50
180.0
 51
270.0
  0
ARC
  5
DE
100
AcDbEntity
  8
1
100
AcDbCircle
 10
97.335062
 20
-151.610124
 30
0.0
 40
5.0
100
AcDbArc
 50
270.0
 51
360.0
  0
LINE
  5
DF
100
AcDbEntity
  8
1
100
AcDbLine
 10
94.335062
 20
-409.338746
 30
0.0
 11
95.335062
 21
-409.338746
 31
0.0
  0
LINE
  5
E0
100
AcDbEntity
  8
1
100
AcDbLine
 10
151.335062
 20
-409.338746
 30
0.0
 11
152.335062
 21
-409.338746
 31
0.0
  0
ARC
  5
E1
100
AcDbEntity
  8
1
100
AcDbCircle
 10
151.335062
 20
-412.338746
 30
0.0
 40
3.0
100
AcDbArc
 50
90.0
 51
180.0
  0
ARC
  5
E2
100
AcDbEntity
  8
1
100
AcDbCircle
 10
95.335062
 20
-412.338746
 30
0.0
 40
3.0
100
AcDbArc
 50
0.0
 51
90.0
  0
ARC
  5
E3
100
AcDbEntity
  8
1
100
AcDbCircle
 10
151.335062
 20
-409.067368
 30
0.0
 40
3.0
100
AcDbArc
 50
90.0
 51
180.0
  0
ARC
  5
E4
100
AcDbEntity
  8
1
100
AcDbCircle
 10
95.335062
 20
-409.067368
 30
0.0
 40
3.0
100
AcDbArc
 50
0.0
 51
90.0
  0
LINE
  5
E5
100
AcDbEntity
  8
1
100
AcDbLine
 10
141.335062
 20
-448.11371
 30
0.0
 11
141.335062
 21
-451.538746
 31
0.0
  0
LINE
  5
E6
100
AcDbEntity
  8
1
100
AcDbLine
 10
105.335062
 20
-448.11371
 30
0.0
 11
105.335062
 21
-451.538746
 31
0.0
  0
ARC
  5
E7
100
AcDbEntity
  8
1
100
AcDbCircle
 10
142.335062
 20
-439.338746
 30
0.0
 40
6.0
100
AcDbArc
 50
270.0
 51
360.0
  0
ARC
  5
E8
100
AcDbEntity
  8
1
100
AcDbCircle
 10
104.335062
 20
-439.338746
 30
0.0
 40
6.0
100
AcDbArc
 50
180.0
 51
270.0
  0
ARC
  5
E9
100
AcDbEntity
  8
1
100
AcDbCircle
 10
144.335062
 20
-448.11371
 30
0.0
 40
3.0
100
AcDbArc
 50
102.839588
 51
180.0
  0
ARC
  5
EA
100
AcDbEntity
  8
1
100
AcDbCircle
 10
102.335062
 20
-448.11371
 30
0.0
 40
3.0
100
AcDbArc
 50
0.0
 51
77.160412
  0
LINE
  5
EB
100
AcDbEntity
  8
1
100
AcDbLine
 10
111.335062
 20
-439.338746
 30
0.0
 11
111.335062
 21
-445.338746
 31
0.0
  0
LINE
  5
EC
100
AcDbEntity
  8
1
100
AcDbLine
 10
135.335062
 20
-439.338746
 30
0.0
 11
135.335062
 21
-445.338746
 31
0.0
  0
ARC
  5
ED
100
AcDbEntity
  8
1
100
AcDbCircle
 10
129.335062
 20
-439.338746
 30
0.0
 40
6.0
100
AcDbArc
 50
0.0
 51
83.62063
  0
ARC
  5
EE
100
AcDbEntity
  8
1
100
AcDbCircle
 10
117.335062
 20
-439.338746
 30
0.0
 40
6.0
100
AcDbArc
 50
96.37937
 51
180.0
  0
LINE
  5
EF
100
AcDbEntity
  8
1
100
AcDbLine
 10
142.335062
 20
-445.338746
 30
0.0
 11
104.335062
 21
-445.338746
 31
0.0
  0
ARC
  5
F0
100
AcDbEntity
  8
1
100
AcDbCircle
 10
130.335062
 20
-442.338746
 30
0.0
 40
3.0
100
AcDbArc
 50
180.0
 51
270.0
  0
ARC
  5
F1
100
AcDbEntity
  8
1
100
AcDbCircle
 10
116.335062
 20
-442.338746
 30
0.0
 40
3.0
100
AcDbArc
 50
270.0
 51
360.0
  0
ARC
  5
F2
100
AcDbEntity
  8
1
100
AcDbCircle
 10
130.335062
 20
-430.394474
 30
0.0
 40
3.0
100
AcDbArc
 50
180.0
 51
263.62063
  0
ARC
  5
F3
100
AcDbEntity
  8
1
100
AcDbCircle
 10
116.335062
 20
-430.394474
 30
0.0
 40
3.0
100
AcDbArc
 50
276.37937
 51
360.0
  0
LINE
  5
F4
100
AcDbEntity
  8
1
100
AcDbLine
 10
105.335062
 20
-449.138746
 30
0.0
 11
141.335062
 21
-449.138746
 31
0.0
  0
LINE
  5
F5
100
AcDbEntity
  8
1
100
AcDbLine
 10
105.335062
 20
-451.538746
 30
0.0
 11
141.335062
 21
-451.538746
 31
0.0
  0
LINE
  5
F6
100
AcDbEntity
  8
1
100
AcDbLine
 10
128.335062
 20
-453.038746
 30
0.0
 11
128.335062
 21
-457.038746
 31
0.0
  0
ARC
  5
F7
100
AcDbEntity
  8
1
100
AcDbCircle
 10
125.835062
 20
-450.425538
 30
0.0
 40
6.613208
100
AcDbArc
 50
247.788205
 51
292.211795
  0
LINE
  5
F8
100
AcDbEntity
  8
1
100
AcDbLine
 10
129.435062
 20
-453.038746
 30
0.0
 11
117.235062
 21
-453.038746
 31
0.0
  0
LINE
  5
F9
100
AcDbEntity
  8
1
100
AcDbLine
 10
118.335062
 20
-453.038746
 30
0.0
 11
118.335062
 21
-457.038746
 31
0.0
  0
LINE
  5
FA
100
AcDbEntity
  8
1
100
AcDbLine
 10
118.335062
 20
-457.038746
 30
0.0
 11
128.335062
 21
-457.038746
 31
0.0
  0
LINE
  5
FB
100
AcDbEntity
  8
1
100
AcDbLine
 10
123.335062
 20
-453.038746
 30
0.0
 11
123.335062
 21
-456.547998
 31
0.0
  0
ARC
  5
FC
100
AcDbEntity
  8
1
100
AcDbCircle
 10
120.835062
 20
-450.425538
 30
0.0
 40
6.613208
100
AcDbArc
 50
247.788205
 51
292.211795
  0
LINE
  5
FD
100
AcDbEntity
  8
1
100
AcDbLine
 10
129.435062
 20
-451.538746
 30
0.0
 11
129.435062
 21
-453.038746
 31
0.0
  0
LINE
  5
FE
100
AcDbEntity
  8
1
100
AcDbLine
 10
117.235062
 20
-453.038746
 30
0.0
 11
117.235062
 21
-451.538746
 31
0.0
  0
LINE
  5
FF
100
AcDbEntity
  8
1
100
AcDbLine
 10
-228.364938
 20
287.361254
 30
0.0
 11
-227.364938
 21
286.361254
 31
0.0
  0
LINE
  5
100
100
AcDbEntity
  8
1
100
AcDbLine
 10
-227.364938
 20
228.361254
 30
0.0
 11
-228.364938
 21
227.361254
 31
0.0
  0
LINE
  5
101
100
AcDbEntity
  8
1
100
AcDbLine
 10
119.335062
 20
-111.265597
 30
0.0
 11
119.335062
 21
-168.752455
 31
0.0
  0
LINE
  5
102
100
AcDbEntity
  8
1
100
AcDbLine
 10
127.335062
 20
-111.265597
 30
0.0
 11
127.335062
 21
-168.752455
 31
0.0
  0
LINE
  5
103
100
AcDbEntity
  8
1
100
AcDbLine
 10
119.335062
 20
-108.265597
 30
0.0
 11
127.335062
 21
-108.265597
 31
0.0
  0
ARC
  5
104
100
AcDbEntity
  8
1
100
AcDbCircle
 10
130.335062
 20
-111.265597
 30
0.0
 40
3.0
100
AcDbArc
 50
90.0
 51
180.0
  0
ARC
  5
105
100
AcDbEntity
  8
1
100
AcDbCircle
 10
116.335062
 20
-111.265597
 30
0.0
 40
3.0
100
AcDbArc
 50
360.0
 51
90.0
  0
LINE
  5
106
100
AcDbEntity
  8
1
100
AcDbLine
 10
121.335062
 20
-119.45299
 30
0.0
 11
125.335062
 21
-119.45299
 31
0.0
  0
LINE
  5
107
100
AcDbEntity
  8
1
100
AcDbLine
 10
121.335062
 20
-129.779504
 30
0.0
 11
125.335062
 21
-129.779504
 31
0.0
  0
ARC
  5
108
100
AcDbEntity
  8
1
100
AcDbCircle
 10
125.335062
 20
-121.45299
 30
0.0
 40
2.0
100
AcDbArc
 50
0.0
 51
90.0
  0
ARC
  5
109
100
AcDbEntity
  8
1
100
AcDbCircle
 10
121.335062
 20
-121.45299
 30
0.0
 40
2.0
100
AcDbArc
 50
90.0
 51
180.0
  0
ARC
  5
10A
100
AcDbEntity
  8
1
100
AcDbCircle
 10
121.335062
 20
-127.779504
 30
0.0
 40
2.0
100
AcDbArc
 50
180.0
 51
270.0
  0
ARC
  5
10B
100
AcDbEntity
  8
1
100
AcDbCircle
 10
125.335062
 20
-127.779504
 30
0.0
 40
2.0
100
AcDbArc
 50
270.0
 51
360.0
  0
LINE
  5
10C
100
AcDbEntity
  8
1
100
AcDbLine
 10
114.335062
 20
-189.338746
 30
0.0
 11
132.335062
 21
-189.338746
 31
0.0
  0
LINE
  5
10D
100
AcDbEntity
  8
1
100
AcDbLine
 10
114.335062
 20
-193.338746
 30
0.0
 11
132.335062
 21
-193.338746
 31
0.0
  0
LINE
  5
10E
100
AcDbEntity
  8
1
100
AcDbLine
 10
114.335062
 20
-238.338746
 30
0.0
 11
132.335062
 21
-238.338746
 31
0.0
  0
LINE
  5
10F
100
AcDbEntity
  8
1
100
AcDbLine
 10
114.335062
 20
-242.338746
 30
0.0
 11
132.335062
 21
-242.338746
 31
0.0
  0
LINE
  5
110
100
AcDbEntity
  8
1
100
AcDbLine
 10
114.335062
 20
-320.338746
 30
0.0
 11
132.335062
 21
-320.338746
 31
0.0
  0
LINE
  5
111
100
AcDbEntity
  8
1
100
AcDbLine
 10
114.335062
 20
-324.338746
 30
0.0
 11
132.335062
 21
-324.338746
 31
0.0
  0
LINE
  5
112
100
AcDbEntity
  8
1
100
AcDbLine
 10
114.335062
 20
-369.338746
 30
0.0
 11
132.335062
 21
-369.338746
 31
0.0
  0
LINE
  5
113
100
AcDbEntity
  8
1
100
AcDbLine
 10
114.335062
 20
-373.338746
 30
0.0
 11
132.335062
 21
-373.338746
 31
0.0
  0
LINE
  5
114
100
AcDbEntity
  8
1
100
AcDbLine
 10
138.335062
 20
-183.338746
 30
0.0
 11
138.335062
 21
-162.610124
 31
0.0
  0
LINE
  5
115
100
AcDbEntity
  8
1
100
AcDbLine
 10
138.335062
 20
-232.338746
 30
0.0
 11
138.335062
 21
-199.338746
 31
0.0
  0
LINE
  5
116
100
AcDbEntity
  8
1
100
AcDbLine
 10
138.335062
 20
-314.338746
 30
0.0
 11
138.335062
 21
-248.338746
 31
0.0
  0
LINE
  5
117
100
AcDbEntity
  8
1
100
AcDbLine
 10
138.335062
 20
-400.067368
 30
0.0
 11
138.335062
 21
-379.338746
 31
0.0
  0
LINE
  5
118
100
AcDbEntity
  8
1
100
AcDbLine
 10
138.335062
 20
-363.338746
 30
0.0
 11
138.335062
 21
-330.338746
 31
0.0
  0
LINE
  5
119
100
AcDbEntity
  8
1
100
AcDbLine
 10
108.335062
 20
-400.067368
 30
0.0
 11
108.335062
 21
-379.338746
 31
0.0
  0
LINE
  5
11A
100
AcDbEntity
  8
1
100
AcDbLine
 10
108.335062
 20
-363.338746
 30
0.0
 11
108.335062
 21
-330.338746
 31
0.0
  0
LINE
  5
11B
100
AcDbEntity
  8
1
100
AcDbLine
 10
108.335062
 20
-314.338746
 30
0.0
 11
108.335062
 21
-248.338746
 31
0.0
  0
LINE
  5
11C
100
AcDbEntity
  8
1
100
AcDbLine
 10
108.335062
 20
-232.338746
 30
0.0
 11
108.335062
 21
-199.338746
 31
0.0
  0
LINE
  5
11D
100
AcDbEntity
  8
1
100
AcDbLine
 10
108.335062
 20
-183.338746
 30
0.0
 11
108.335062
 21
-162.610124
 31
0.0
  0
ARC
  5
11E
100
AcDbEntity
  8
1
100
AcDbCircle
 10
132.335062
 20
-232.338746
 30
0.0
 40
6.0
100
AcDbArc
 50
270.0
 51
360.0
  0
ARC
  5
11F
100
AcDbEntity
  8
1
100
AcDbCircle
 10
114.335062
 20
-232.338746
 30
0.0
 40
6.0
100
AcDbArc
 50
180.0
 51
270.0
  0
ARC
  5
120
100
AcDbEntity
  8
1
100
AcDbCircle
 10
114.335062
 20
-199.338746
 30
0.0
 40
6.0
100
AcDbArc
 50
90.0
 51
180.0
  0
ARC
  5
121
100
AcDbEntity
  8
1
100
AcDbCircle
 10
132.335062
 20
-199.338746
 30
0.0
 40
6.0
100
AcDbArc
 50
0.0
 51
90.0
  0
ARC
  5
122
100
AcDbEntity
  8
1
100
AcDbCircle
 10
132.335062
 20
-183.338746
 30
0.0
 40
6.0
100
AcDbArc
 50
270.0
 51
0.0
  0
ARC
  5
123
100
AcDbEntity
  8
1
100
AcDbCircle
 10
114.335062
 20
-183.338746
 30
0.0
 40
6.0
100
AcDbArc
 50
180.0
 51
270.0
  0
ARC
  5
124
100
AcDbEntity
  8
1
100
AcDbCircle
 10
114.335062
 20
-248.338746
 30
0.0
 40
6.0
100
AcDbArc
 50
90.0
 51
180.0
  0
ARC
  5
125
100
AcDbEntity
  8
1
100
AcDbCircle
 10
132.335062
 20
-248.338746
 30
0.0
 40
6.0
100
AcDbArc
 50
0.0
 51
90.0
  0
ARC
  5
126
100
AcDbEntity
  8
1
100
AcDbCircle
 10
132.335062
 20
-314.338746
 30
0.0
 40
6.0
100
AcDbArc
 50
270.0
 51
360.0
  0
ARC
  5
127
100
AcDbEntity
  8
1
100
AcDbCircle
 10
114.335062
 20
-314.338746
 30
0.0
 40
6.0
100
AcDbArc
 50
180.0
 51
270.0
  0
ARC
  5
128
100
AcDbEntity
  8
1
100
AcDbCircle
 10
114.335062
 20
-330.338746
 30
0.0
 40
6.0
100
AcDbArc
 50
90.0
 51
180.0
  0
ARC
  5
129
100
AcDbEntity
  8
1
100
AcDbCircle
 10
132.335062
 20
-330.338746
 30
0.0
 40
6.0
100
AcDbArc
 50
0.0
 51
90.0
  0
ARC
  5
12A
100
AcDbEntity
  8
1
100
AcDbCircle
 10
132.335062
 20
-363.338746
 30
0.0
 40
6.0
100
AcDbArc
 50
270.0
 51
0.0
  0
ARC
  5
12B
100
AcDbEntity
  8
1
100
AcDbCircle
 10
114.335062
 20
-363.338746
 30
0.0
 40
6.0
100
AcDbArc
 50
180.0
 51
270.0
  0
ARC
  5
12C
100
AcDbEntity
  8
1
100
AcDbCircle
 10
114.335062
 20
-379.338746
 30
0.0
 40
6.0
100
AcDbArc
 50
90.0
 51
180.0
  0
ARC
  5
12D
100
AcDbEntity
  8
1
100
AcDbCircle
 10
132.335062
 20
-379.338746
 30
0.0
 40
6.0
100
AcDbArc
 50
0.0
 51
90.0
  0
ARC
  5
12E
100
AcDbEntity
  8
1
100
AcDbCircle
 10
132.335062
 20
-162.610124
 30
0.0
 40
6.0
100
AcDbArc
 50
0.0
 51
90.0
  0
ARC
  5
12F
100
AcDbEntity
  8
1
100
AcDbCircle
 10
114.335062
 20
-162.610124
 30
0.0
 40
6.0
100
AcDbArc
 50
90.0
 51
180.0
  0
ARC
  5
130
100
AcDbEntity
  8
1
100
AcDbCircle
 10
132.335062
 20
-400.067368
 30
0.0
 40
6.0
100
AcDbArc
 50
270.0
 51
0.0
  0
ARC
  5
131
100
AcDbEntity
  8
1
100
AcDbCircle
 10
114.335062
 20
-400.067368
 30
0.0
 40
6.0
100
AcDbArc
 50
180.0
 51
270.0
  0
LINE
  5
132
100
AcDbEntity
  8
1
100
AcDbLine
 10
121.335062
 20
-157.778078
 30
0.0
 11
125.335062
 21
-157.778078
 31
0.0
  0
LINE
  5
133
100
AcDbEntity
  8
1
100
AcDbLine
 10
102.335062
 20
-156.610124
 30
0.0
 11
116.335062
 21
-156.610124
 31
0.0
  0
LINE
  5
134
100
AcDbEntity
  8
1
100
AcDbLine
 10
130.335062
 20
-156.610124
 30
0.0
 11
144.335062
 21
-156.610124
 31
0.0
  0
LINE
  5
135
100
AcDbEntity
  8
1
100
AcDbLine
 10
121.335062
 20
-404.899413
 30
0.0
 11
125.335062
 21
-404.899413
 31
0.0
  0
LINE
  5
136
100
AcDbEntity
  8
1
100
AcDbLine
 10
98.335062
 20
-406.067368
 30
0.0
 11
116.335062
 21
-406.067368
 31
0.0
  0
LINE
  5
137
100
AcDbEntity
  8
1
100
AcDbLine
 10
130.335062
 20
-406.067368
 30
0.0
 11
148.335062
 21
-406.067368
 31
0.0
  0
LINE
  5
138
100
AcDbEntity
  8
1
100
AcDbLine
 10
121.335062
 20
-432.897987
 30
0.0
 11
125.335062
 21
-432.897987
 31
0.0
  0
LINE
  5
139
100
AcDbEntity
  8
1
100
AcDbLine
 10
121.335062
 20
-441.102829
 30
0.0
 11
125.335062
 21
-441.102829
 31
0.0
  0
ARC
  5
13A
100
AcDbEntity
  8
1
100
AcDbCircle
 10
125.335062
 20
-434.897987
 30
0.0
 40
2.0
100
AcDbArc
 50
0.0
 51
90.0
  0
ARC
  5
13B
100
AcDbEntity
  8
1
100
AcDbCircle
 10
121.335062
 20
-434.897987
 30
0.0
 40
2.0
100
AcDbArc
 50
90.0
 51
180.0
  0
ARC
  5
13C
100
AcDbEntity
  8
1
100
AcDbCircle
 10
121.335062
 20
-439.102829
 30
0.0
 40
2.0
100
AcDbArc
 50
180.0
 51
270.0
  0
ARC
  5
13D
100
AcDbEntity
  8
1
100
AcDbCircle
 10
125.335062
 20
-439.102829
 30
0.0
 40
2.0
100
AcDbArc
 50
270.0
 51
360.0
  0
LINE
  5
13E
100
AcDbEntity
  8
1
100
AcDbLine
 10
-233.451034
 20
249.363308
 30
0.0
 11
-233.451034
 21
265.359201
 31
0.0
  0
LINE
  5
13F
100
AcDbEntity
  8
1
100
AcDbLine
 10
-234.80375
 20
248.361254
 30
0.0
 11
-234.80375
 21
266.361254
 31
0.0
  0
LINE
  5
140
100
AcDbEntity
  8
1
100
AcDbLine
 10
-262.413337
 20
248.361254
 30
0.0
 11
-262.413337
 21
266.361254
 31
0.0
  0
LINE
  5
141
100
AcDbEntity
  8
1
100
AcDbLine
 10
-266.370556
 20
248.361254
 30
0.0
 11
-266.370556
 21
266.361254
 31
0.0
  0
LINE
  5
142
100
AcDbEntity
  8
1
100
AcDbLine
 10
-256.413337
 20
272.361254
 30
0.0
 11
-240.80375
 21
272.361254
 31
0.0
  0
LINE
  5
143
100
AcDbEntity
  8
1
100
AcDbLine
 10
-256.413337
 20
242.361254
 30
0.0
 11
-240.80375
 21
242.361254
 31
0.0
  0
ARC
  5
144
100
AcDbEntity
  8
1
100
AcDbCircle
 10
-272.370556
 20
266.361254
 30
0.0
 40
6.0
100
AcDbArc
 50
0.0
 51
90.0
  0
ARC
  5
145
100
AcDbEntity
  8
1
100
AcDbCircle
 10
-272.370556
 20
248.361254
 30
0.0
 40
6.0
100
AcDbArc
 50
270.0
 51
360.0
  0
ARC
  5
146
100
AcDbEntity
  8
1
100
AcDbCircle
 10
-256.413337
 20
266.361254
 30
0.0
 40
6.0
100
AcDbArc
 50
90.0
 51
180.0
  0
ARC
  5
147
100
AcDbEntity
  8
1
100
AcDbCircle
 10
-256.413337
 20
248.361254
 30
0.0
 40
6.0
100
AcDbArc
 50
180.0
 51
270.0
  0
ARC
  5
148
100
AcDbEntity
  8
1
100
AcDbCircle
 10
-240.80375
 20
266.361254
 30
0.0
 40
6.0
100
AcDbArc
 50
0.0
 51
90.0
  0
ARC
  5
149
100
AcDbEntity
  8
1
100
AcDbCircle
 10
-240.80375
 20
248.361254
 30
0.0
 40
6.0
100
AcDbArc
 50
270.0
 51
360.0
  0
LINE
  5
14A
100
AcDbEntity
  8
1
100
AcDbLine
 10
-261.497234
 20
269.547788
 30
0.0
 11
-249.20226
 21
269.547788
 31
0.0
  0
LINE
  5
14B
100
AcDbEntity
  8
1
100
AcDbLine
 10
-261.497234
 20
245.174721
 30
0.0
 11
-249.20226
 21
245.174721
 31
0.0
  0
LINE
  5
14C
100
AcDbEntity
  8
1
100
AcDbLine
 10
-282.274241
 20
248.361254
 30
0.0
 11
-282.274241
 21
266.361254
 31
0.0
  0
ARC
  5
14D
100
AcDbEntity
  8
1
100
AcDbCircle
 10
-285.460774
 20
248.361254
 30
0.0
 40
3.186533
100
AcDbArc
 50
270.0
 51
360.0
  0
ARC
  5
14E
100
AcDbEntity
  8
1
100
AcDbCircle
 10
-285.460774
 20
266.361254
 30
0.0
 40
3.186533
100
AcDbArc
 50
0.0
 51
90.0
  0
LINE
  5
14F
100
AcDbEntity
  8
1
100
AcDbLine
 10
-227.364938
 20
228.361254
 30
0.0
 11
-227.364938
 21
238.921769
 31
0.0
  0
LINE
  5
150
100
AcDbEntity
  8
1
100
AcDbLine
 10
-227.364938
 20
275.80074
 30
0.0
 11
-227.364938
 21
286.361254
 31
0.0
  0
ARC
  5
151
100
AcDbEntity
  8
1
100
AcDbCircle
 10
-226.451034
 20
265.359201
 30
0.0
 40
7.0
100
AcDbArc
 50
119.526453
 51
180.0
  0
ARC
  5
152
100
AcDbEntity
  8
1
100
AcDbCircle
 10
-226.451034
 20
249.363308
 30
0.0
 40
7.0
100
AcDbArc
 50
180.0
 51
240.473547
  0
ARC
  5
153
100
AcDbEntity
  8
1
100
AcDbCircle
 10
-232.364938
 20
275.80074
 30
0.0
 40
5.0
100
AcDbArc
 50
299.526453
 51
360.0
  0
ARC
  5
154
100
AcDbEntity
  8
1
100
AcDbCircle
 10
-232.364938
 20
238.921769
 30
0.0
 40
5.0
100
AcDbArc
 50
0.0
 51
60.473547
  0
LINE
  5
155
100
AcDbEntity
  8
1
100
AcDbLine
 10
-246.015726
 20
248.361254
 30
0.0
 11
-246.015726
 21
266.361254
 31
0.0
  0
ARC
  5
156
100
AcDbEntity
  8
1
100
AcDbCircle
 10
-249.20226
 20
266.361254
 30
0.0
 40
3.186533
100
AcDbArc
 50
0.0
 51
90.0
  0
ARC
  5
157
100
AcDbEntity
  8
1
100
AcDbCircle
 10
-249.20226
 20
248.361254
 30
0.0
 40
3.186533
100
AcDbArc
 50
270.0
 51
360.0
  0
LINE
  5
158
100
AcDbEntity
  8
1
100
AcDbLine
 10
-237.865974
 20
271.592838
 30
0.0
 11
-246.015726
 21
269.547788
 31
0.0
  0
LINE
  5
159
100
AcDbEntity
  8
1
100
AcDbLine
 10
-246.015726
 20
245.174721
 30
0.0
 11
-237.865974
 21
243.129671
 31
0.0
  0
LINE
  5
15A
100
AcDbEntity
  8
1
100
AcDbLine
 10
-269.757079
 20
242.960353
 30
0.0
 11
-282.274241
 21
245.174721
 31
0.0
  0
LINE
  5
15B
100
AcDbEntity
  8
1
100
AcDbLine
 10
-282.274241
 20
269.547788
 30
0.0
 11
-269.757079
 21
271.762156
 31
0.0
  0
LINE
  5
15C
100
AcDbEntity
  8
1
100
AcDbLine
 10
-482.364938
 20
287.361254
 30
0.0
 11
-483.364938
 21
286.361254
 31
0.0
  0
LINE
  5
15D
100
AcDbEntity
  8
1
100
AcDbLine
 10
-483.364938
 20
228.361254
 30
0.0
 11
-482.364938
 21
227.361254
 31
0.0
  0
LINE
  5
15E
100
AcDbEntity
  8
1
100
AcDbLine
 10
-477.278842
 20
249.363308
 30
0.0
 11
-477.278842
 21
265.359201
 31
0.0
  0
LINE
  5
15F
100
AcDbEntity
  8
1
100
AcDbLine
 10
-475.926126
 20
248.361254
 30
0.0
 11
-475.926126
 21
266.361254
 31
0.0
  0
LINE
  5
160
100
AcDbEntity
  8
1
100
AcDbLine
 10
-448.316538
 20
248.361254
 30
0.0
 11
-448.316538
 21
266.361254
 31
0.0
  0
LINE
  5
161
100
AcDbEntity
  8
1
100
AcDbLine
 10
-444.35932
 20
248.361254
 30
0.0
 11
-444.35932
 21
266.361254
 31
0.0
  0
LINE
  5
162
100
AcDbEntity
  8
1
100
AcDbLine
 10
-454.316538
 20
272.361254
 30
0.0
 11
-469.926126
 21
272.361254
 31
0.0
  0
LINE
  5
163
100
AcDbEntity
  8
1
100
AcDbLine
 10
-454.316538
 20
242.361254
 30
0.0
 11
-469.926126
 21
242.361254
 31
0.0
  0
ARC
  5
164
100
AcDbEntity
  8
1
100
AcDbCircle
 10
-438.35932
 20
266.361254
 30
0.0
 40
6.0
100
AcDbArc
 50
90.0
 51
180.0
  0
ARC
  5
165
100
AcDbEntity
  8
1
100
AcDbCircle
 10
-438.35932
 20
248.361254
 30
0.0
 40
6.0
100
AcDbArc
 50
180.0
 51
270.0
  0
ARC
  5
166
100
AcDbEntity
  8
1
100
AcDbCircle
 10
-454.316538
 20
266.361254
 30
0.0
 40
6.0
100
AcDbArc
 50
0.0
 51
90.0
  0
ARC
  5
167
100
AcDbEntity
  8
1
100
AcDbCircle
 10
-454.316538
 20
248.361254
 30
0.0
 40
6.0
100
AcDbArc
 50
270.0
 51
0.0
  0
ARC
  5
168
100
AcDbEntity
  8
1
100
AcDbCircle
 10
-469.926126
 20
266.361254
 30
0.0
 40
6.0
100
AcDbArc
 50
90.0
 51
180.0
  0
ARC
  5
169
100
AcDbEntity
  8
1
100
AcDbCircle
 10
-469.926126
 20
248.361254
 30
0.0
 40
6.0
100
AcDbArc
 50
180.0
 51
270.0
  0
LINE
  5
16A
100
AcDbEntity
  8
1
100
AcDbLine
 10
-449.232641
 20
269.547788
 30
0.0
 11
-461.527615
 21
269.547788
 31
0.0
  0
LINE
  5
16B
100
AcDbEntity
  8
1
100
AcDbLine
 10
-449.232641
 20
245.174721
 30
0.0
 11
-461.527615
 21
245.174721
 31
0.0
  0
LINE
  5
16C
100
AcDbEntity
  8
1
100
AcDbLine
 10
-428.455635
 20
248.361254
 30
0.0
 11
-428.455635
 21
266.361254
 31
0.0
  0
ARC
  5
16D
100
AcDbEntity
  8
1
100
AcDbCircle
 10
-425.269101
 20
248.361254
 30
0.0
 40
3.186533
100
AcDbArc
 50
180.0
 51
270.0
  0
ARC
  5
16E
100
AcDbEntity
  8
1
100
AcDbCircle
 10
-425.269101
 20
266.361254
 30
0.0
 40
3.186533
100
AcDbArc
 50
90.0
 51
180.0
  0
LINE
  5
16F
100
AcDbEntity
  8
1
100
AcDbLine
 10
-483.364938
 20
228.361254
 30
0.0
 11
-483.364938
 21
238.921769
 31
0.0
  0
LINE
  5
170
100
AcDbEntity
  8
1
100
AcDbLine
 10
-483.364938
 20
275.80074
 30
0.0
 11
-483.364938
 21
286.361254
 31
0.0
  0
ARC
  5
171
100
AcDbEntity
  8
1
100
AcDbCircle
 10
-484.278842
 20
265.359201
 30
0.0
 40
7.0
100
AcDbArc
 50
0.0
 51
60.473547
  0
ARC
  5
172
100
AcDbEntity
  8
1
100
AcDbCircle
 10
-484.278842
 20
249.363308
 30
0.0
 40
7.0
100
AcDbArc
 50
299.526453
 51
360.0
  0
ARC
  5
173
100
AcDbEntity
  8
1
100
AcDbCircle
 10
-478.364938
 20
275.80074
 30
0.0
 40
5.0
100
AcDbArc
 50
180.0
 51
240.473547
  0
ARC
  5
174
100
AcDbEntity
  8
1
100
AcDbCircle
 10
-478.364938
 20
238.921769
 30
0.0
 40
5.0
100
AcDbArc
 50
119.526453
 51
180.0
  0
LINE
  5
175
100
AcDbEntity
  8
1
100
AcDbLine
 10
-464.714149
 20
248.361254
 30
0.0
 11
-464.714149
 21
266.361254
 31
0.0
  0
ARC
  5
176
100
AcDbEntity
  8
1
100
AcDbCircle
 10
-461.527615
 20
266.361254
 30
0.0
 40
3.186533
100
AcDbArc
 50
90.0
 51
180.0
  0
ARC
  5
177
100
AcDbEntity
  8
1
100
AcDbCircle
 10
-461.527615
 20
248.361254
 30
0.0
 40
3.186533
100
AcDbArc
 50
180.0
 51
270.0
  0
LINE
  5
178
100
AcDbEntity
  8
1
100
AcDbLine
 10
-472.863902
 20
271.592838
 30
0.0
 11
-464.714149
 21
269.547788
 31
0.0
  0
LINE
  5
179
100
AcDbEntity
  8
1
100
AcDbLine
 10
-464.714149
 20
245.174721
 30
0.0
 11
-472.863902
 21
243.129671
 31
0.0
  0
LINE
  5
17A
100
AcDbEntity
  8
1
100
AcDbLine
 10
-440.972796
 20
242.960353
 30
0.0
 11
-428.455635
 21
245.174721
 31
0.0
  0
LINE
  5
17B
100
AcDbEntity
  8
1
100
AcDbLine
 10
-428.455635
 20
269.547788
 30
0.0
 11
-440.972796
 21
271.762156
 31
0.0
  0
LINE
  5
17C
100
AcDbEntity
  8
1
100
AcDbLine
 10
135.521562
 20
-184.152246
 30
0.0
 11
135.521562
 21
-172.957383
 31
0.0
  0
LINE
  5
17D
100
AcDbEntity
  8
1
100
AcDbLine
 10
111.148562
 20
-184.152246
 30
0.0
 11
111.148562
 21
-172.957383
 31
0.0
  0
ARC
  5
17E
100
AcDbEntity
  8
1
100
AcDbCircle
 10
132.335062
 20
-184.152246
 30
0.0
 40
3.1865
100
AcDbArc
 50
270.0
 51
360.0
  0
ARC
  5
17F
100
AcDbEntity
  8
1
100
AcDbCircle
 10
114.335062
 20
-184.152246
 30
0.0
 40
3.1865
100
AcDbArc
 50
180.0
 51
270.0
  0
LINE
  5
180
100
AcDbEntity
  8
1
100
AcDbLine
 10
135.521562
 20
-229.309108
 30
0.0
 11
135.521562
 21
-204.707948
 31
0.0
  0
LINE
  5
181
100
AcDbEntity
  8
1
100
AcDbLine
 10
111.148562
 20
-229.309108
 30
0.0
 11
111.148562
 21
-204.707948
 31
0.0
  0
ARC
  5
182
100
AcDbEntity
  8
1
100
AcDbCircle
 10
114.335062
 20
-204.707948
 30
0.0
 40
3.1865
100
AcDbArc
 50
90.0
 51
180.0
  0
ARC
  5
183
100
AcDbEntity
  8
1
100
AcDbCircle
 10
132.335062
 20
-204.707948
 30
0.0
 40
3.1865
100
AcDbArc
 50
0.0
 51
90.0
  0
ARC
  5
184
100
AcDbEntity
  8
1
100
AcDbCircle
 10
132.335062
 20
-229.309108
 30
0.0
 40
3.1865
100
AcDbArc
 50
270.0
 51
360.0
  0
ARC
  5
185
100
AcDbEntity
  8
1
100
AcDbCircle
 10
114.335062
 20
-229.309108
 30
0.0
 40
3.1865
100
AcDbArc
 50
180.0
 51
270.0
  0
LINE
  5
186
100
AcDbEntity
  8
1
100
AcDbLine
 10
135.521562
 20
-310.76449
 30
0.0
 11
135.521562
 21
-251.913001
 31
0.0
  0
LINE
  5
187
100
AcDbEntity
  8
1
100
AcDbLine
 10
111.148562
 20
-310.76449
 30
0.0
 11
111.148562
 21
-251.913001
 31
0.0
  0
ARC
  5
188
100
AcDbEntity
  8
1
100
AcDbCircle
 10
132.335062
 20
-251.913001
 30
0.0
 40
3.1865
100
AcDbArc
 50
0.0
 51
90.0
  0
ARC
  5
189
100
AcDbEntity
  8
1
100
AcDbCircle
 10
114.335062
 20
-251.913001
 30
0.0
 40
3.1865
100
AcDbArc
 50
90.0
 51
180.0
  0
ARC
  5
18A
100
AcDbEntity
  8
1
100
AcDbCircle
 10
114.335062
 20
-310.76449
 30
0.0
 40
3.1865
100
AcDbArc
 50
180.0
 51
270.0
  0
ARC
  5
18B
100
AcDbEntity
  8
1
100
AcDbCircle
 10
132.335062
 20
-310.76449
 30
0.0
 40
3.1865
100
AcDbArc
 50
270.0
 51
360.0
  0
LINE
  5
18C
100
AcDbEntity
  8
1
100
AcDbLine
 10
135.521562
 20
-357.969543
 30
0.0
 11
135.521562
 21
-333.368383
 31
0.0
  0
LINE
  5
18D
100
AcDbEntity
  8
1
100
AcDbLine
 10
111.148562
 20
-357.969543
 30
0.0
 11
111.148562
 21
-333.368383
 31
0.0
  0
ARC
  5
18E
100
AcDbEntity
  8
1
100
AcDbCircle
 10
132.335062
 20
-333.368383
 30
0.0
 40
3.1865
100
AcDbArc
 50
0.0
 51
90.0
  0
ARC
  5
18F
100
AcDbEntity
  8
1
100
AcDbCircle
 10
114.335062
 20
-333.368383
 30
0.0
 40
3.1865
100
AcDbArc
 50
90.0
 51
180.0
  0
ARC
  5
190
100
AcDbEntity
  8
1
100
AcDbCircle
 10
114.335062
 20
-357.969543
 30
0.0
 40
3.1865
100
AcDbArc
 50
180.0
 51
270.0
  0
ARC
  5
191
100
AcDbEntity
  8
1
100
AcDbCircle
 10
132.335062
 20
-357.969543
 30
0.0
 40
3.1865
100
AcDbArc
 50
270.0
 51
360.0
  0
LINE
  5
192
100
AcDbEntity
  8
1
100
AcDbLine
 10
135.521562
 20
-389.720108
 30
0.0
 11
135.521562
 21
-378.525246
 31
0.0
  0
LINE
  5
193
100
AcDbEntity
  8
1
100
AcDbLine
 10
111.148562
 20
-389.720108
 30
0.0
 11
111.148562
 21
-378.525246
 31
0.0
  0
ARC
  5
194
100
AcDbEntity
  8
1
100
AcDbCircle
 10
114.335062
 20
-378.525246
 30
0.0
 40
3.1865
100
AcDbArc
 50
90.0
 51
180.0
  0
ARC
  5
195
100
AcDbEntity
  8
1
100
AcDbCircle
 10
132.335062
 20
-378.525246
 30
0.0
 40
3.1865
100
AcDbArc
 50
0.0
 51
90.0
  0
CIRCLE
  5
196
100
AcDbEntity
  8
1
100
AcDbCircle
 10
-355.364938
 20
-281.338746
 30
0.0
 40
117.3
  0
LINE
  5
197
100
AcDbEntity
  8
1
100
AcDbLine
 10
155.460062
 20
-164.038746
 30
0.0
 11
155.460062
 21
-398.638746
 31
0.0
  0
LINE
  5
198
100
AcDbEntity
  8
1
100
AcDbLine
 10
91.210062
 20
-164.038746
 30
0.0
 11
91.210062
 21
-398.638746
 31
0.0
  0
LINE
  5
199
100
AcDbEntity
  8
1
100
AcDbLine
 10
155.460062
 20
-164.038746
 30
0.0
 11
153.623355
 21
-160.840715
 31
0.0
  0
LINE
  5
19A
100
AcDbEntity
  8
1
100
AcDbLine
 10
91.210062
 20
-164.038746
 30
0.0
 11
93.046769
 21
-160.840715
 31
0.0
  0
ARC
  5
19B
100
AcDbEntity
  8
1
100
AcDbCircle
 10
152.756196
 20
-161.338746
 30
0.0
 40
1.0
100
AcDbArc
 50
29.869799
 51
54.629162
  0
ARC
  5
19C
100
AcDbEntity
  8
1
100
AcDbCircle
 10
93.913928
 20
-161.338746
 30
0.0
 40
1.0
100
AcDbArc
 50
125.370838
 51
150.130201
  0
LINE
  5
19D
100
AcDbEntity
  8
1
100
AcDbLine
 10
155.460062
 20
-398.638746
 30
0.0
 11
153.623355
 21
-401.836776
 31
0.0
  0
LINE
  5
19E
100
AcDbEntity
  8
1
100
AcDbLine
 10
91.210062
 20
-398.638746
 30
0.0
 11
93.046769
 21
-401.836776
 31
0.0
  0
ARC
  5
19F
100
AcDbEntity
  8
1
100
AcDbCircle
 10
152.756196
 20
-401.338746
 30
0.0
 40
1.0
100
AcDbArc
 50
305.370838
 51
330.130201
  0
ARC
  5
1A0
100
AcDbEntity
  8
1
100
AcDbCircle
 10
93.913928
 20
-401.338746
 30
0.0
 40
1.0
100
AcDbArc
 50
209.869799
 51
234.629162
  0
LINE
  5
1A1
100
AcDbEntity
  8
1
100
AcDbLine
 10
-472.664938
 20
289.486254
 30
0.0
 11
-475.862968
 21
287.649548
 31
0.0
  0
LINE
  5
1A2
100
AcDbEntity
  8
1
100
AcDbLine
 10
-472.664938
 20
225.236254
 30
0.0
 11
-475.862968
 21
227.072961
 31
0.0
  0
ARC
  5
1A3
100
AcDbEntity
  8
1
100
AcDbCircle
 10
-475.364938
 20
286.782388
 30
0.0
 40
1.0
100
AcDbArc
 50
119.869799
 51
144.629162
  0
ARC
  5
1A4
100
AcDbEntity
  8
1
100
AcDbCircle
 10
-475.364938
 20
227.940121
 30
0.0
 40
1.0
100
AcDbArc
 50
215.370838
 51
240.130201
  0
LINE
  5
1A5
100
AcDbEntity
  8
1
100
AcDbLine
 10
-238.064938
 20
289.486254
 30
0.0
 11
-234.866907
 21
287.649548
 31
0.0
  0
LINE
  5
1A6
100
AcDbEntity
  8
1
100
AcDbLine
 10
-238.064938
 20
225.236254
 30
0.0
 11
-234.866907
 21
227.072961
 31
0.0
  0
ARC
  5
1A7
100
AcDbEntity
  8
1
100
AcDbCircle
 10
-235.364938
 20
286.782388
 30
0.0
 40
1.0
100
AcDbArc
 50
35.370838
 51
60.130201
  0
ARC
  5
1A8
100
AcDbEntity
  8
1
100
AcDbCircle
 10
-235.364938
 20
227.940121
 30
0.0
 40
1.0
100
AcDbArc
 50
299.869799
 51
324.629162
  0
CIRCLE
  5
1A9
100
AcDbEntity
  8
1
100
AcDbCircle
 10
-355.364938
 20
-281.338746
 30
0.0
 40
105.5
  0
CIRCLE
  5
1AA
100
AcDbEntity
  8
1
100
AcDbCircle
 10
-355.364938
 20
-281.338746
 30
0.0
 40
99.5
  0
ARC
  5
1AB
100
AcDbEntity
  8
1
100
AcDbCircle
 10
132.335062
 20
-172.957383
 30
0.0
 40
3.1865
100
AcDbArc
 50
0.0
 51
90.0
  0
ARC
  5
1AC
100
AcDbEntity
  8
1
100
AcDbCircle
 10
114.335062
 20
-172.957383
 30
0.0
 40
3.1865
100
AcDbArc
 50
90.0
 51
180.0
  0
LINE
  5
1AD
100
AcDbEntity
  8
1
100
AcDbLine
 10
114.335062
 20
-169.770883
 30
0.0
 11
116.335062
 21
-169.770883
 31
0.0
  0
LINE
  5
1AE
100
AcDbEntity
  8
1
100
AcDbLine
 10
130.335062
 20
-169.770883
 30
0.0
 11
132.335062
 21
-169.770883
 31
0.0
  0
ARC
  5
1AF
100
AcDbEntity
  8
1
100
AcDbCircle
 10
130.335062
 20
-166.770883
 30
0.0
 40
3.0
100
AcDbArc
 50
180.0
 51
270.0
  0
ARC
  5
1B0
100
AcDbEntity
  8
1
100
AcDbCircle
 10
116.335062
 20
-166.770883
 30
0.0
 40
3.0
100
AcDbArc
 50
270.0
 51
360.0
  0
ARC
  5
1B1
100
AcDbEntity
  8
1
100
AcDbCircle
 10
130.335062
 20
-153.610124
 30
0.0
 40
3.0
100
AcDbArc
 50
180.0
 51
270.0
  0
ARC
  5
1B2
100
AcDbEntity
  8
1
100
AcDbCircle
 10
116.335062
 20
-153.610124
 30
0.0
 40
3.0
100
AcDbArc
 50
270.0
 51
360.0
  0
ARC
  5
1B3
100
AcDbEntity
  8
1
100
AcDbCircle
 10
130.335062
 20
-409.067368
 30
0.0
 40
3.0
100
AcDbArc
 50
90.0
 51
180.0
  0
ARC
  5
1B4
100
AcDbEntity
  8
1
100
AcDbCircle
 10
116.335062
 20
-409.067368
 30
0.0
 40
3.0
100
AcDbArc
 50
0.0
 51
90.0
  0
ARC
  5
1B5
100
AcDbEntity
  8
1
100
AcDbCircle
 10
125.335062
 20
-159.778078
 30
0.0
 40
2.0
100
AcDbArc
 50
0.0
 51
90.0
  0
ARC
  5
1B6
100
AcDbEntity
  8
1
100
AcDbCircle
 10
121.335062
 20
-159.778078
 30
0.0
 40
2.0
100
AcDbArc
 50
90.0
 51
180.0
  0
ARC
  5
1B7
100
AcDbEntity
  8
1
100
AcDbCircle
 10
125.335062
 20
-402.899413
 30
0.0
 40
2.0
100
AcDbArc
 50
270.0
 51
360.0
  0
ARC
  5
1B8
100
AcDbEntity
  8
1
100
AcDbCircle
 10
121.335062
 20
-402.899413
 30
0.0
 40
2.0
100
AcDbArc
 50
180.0
 51
270.0
  0
LINE
  5
1B9
100
AcDbEntity
  8
1
100
AcDbLine
 10
114.335062
 20
-248.726501
 30
0.0
 11
132.335062
 21
-248.726501
 31
0.0
  0
LINE
  5
1BA
100
AcDbEntity
  8
1
100
AcDbLine
 10
114.335062
 20
-232.495608
 30
0.0
 11
132.335062
 21
-232.495608
 31
0.0
  0
LINE
  5
1BB
100
AcDbEntity
  8
1
100
AcDbLine
 10
114.335062
 20
-201.521448
 30
0.0
 11
132.335062
 21
-201.521448
 31
0.0
  0
LINE
  5
1BC
100
AcDbEntity
  8
1
100
AcDbLine
 10
119.335062
 20
-171.752455
 30
0.0
 11
127.335062
 21
-171.752455
 31
0.0
  0
LINE
  5
1BD
100
AcDbEntity
  8
1
100
AcDbLine
 10
114.335062
 20
-187.338746
 30
0.0
 11
132.335062
 21
-187.338746
 31
0.0
  0
LINE
  5
1BE
100
AcDbEntity
  8
1
100
AcDbLine
 10
114.335062
 20
-313.95099
 30
0.0
 11
132.335062
 21
-313.95099
 31
0.0
  0
LINE
  5
1BF
100
AcDbEntity
  8
1
100
AcDbLine
 10
114.335062
 20
-330.181883
 30
0.0
 11
132.335062
 21
-330.181883
 31
0.0
  0
LINE
  5
1C0
100
AcDbEntity
  8
1
100
AcDbLine
 10
114.335062
 20
-361.156043
 30
0.0
 11
132.335062
 21
-361.156043
 31
0.0
  0
LINE
  5
1C1
100
AcDbEntity
  8
1
100
AcDbLine
 10
114.335062
 20
-375.338746
 30
0.0
 11
132.335062
 21
-375.338746
 31
0.0
  0
LINE
  5
1C2
100
AcDbEntity
  8
1
100
AcDbLine
 10
135.521562
 20
-232.495608
 30
0.0
 11
137.162012
 21
-235.90253
 31
0.0
  0
LINE
  5
1C3
100
AcDbEntity
  8
1
100
AcDbLine
 10
111.148562
 20
-232.495608
 30
0.0
 11
109.508113
 21
-235.90253
 31
0.0
  0
LINE
  5
1C4
100
AcDbEntity
  8
1
100
AcDbLine
 10
109.445904
 20
-244.860796
 30
0.0
 11
111.148562
 21
-248.726501
 31
0.0
  0
LINE
  5
1C5
100
AcDbEntity
  8
1
100
AcDbLine
 10
137.22422
 20
-244.860796
 30
0.0
 11
135.521562
 21
-248.726501
 31
0.0
  0
LINE
  5
1C6
100
AcDbEntity
  8
1
100
AcDbLine
 10
136.268389
 20
-187.869633
 30
0.0
 11
135.521562
 21
-187.338746
 31
0.0
  0
LINE
  5
1C7
100
AcDbEntity
  8
1
100
AcDbLine
 10
111.148562
 20
-187.338746
 30
0.0
 11
110.401736
 21
-187.869633
 31
0.0
  0
LINE
  5
1C8
100
AcDbEntity
  8
1
100
AcDbLine
 10
109.284405
 20
-196.099786
 30
0.0
 11
111.148562
 21
-201.521448
 31
0.0
  0
LINE
  5
1C9
100
AcDbEntity
  8
1
100
AcDbLine
 10
137.38572
 20
-196.099786
 30
0.0
 11
135.521562
 21
-201.521448
 31
0.0
  0
ARC
  5
1CA
100
AcDbEntity
  8
1
100
AcDbCircle
 10
130.335062
 20
-168.752455
 30
0.0
 40
3.0
100
AcDbArc
 50
180.0
 51
270.0
  0
ARC
  5
1CB
100
AcDbEntity
  8
1
100
AcDbCircle
 10
116.335062
 20
-168.752455
 30
0.0
 40
3.0
100
AcDbArc
 50
270.0
 51
360.0
  0
LINE
  5
1CC
100
AcDbEntity
  8
1
100
AcDbLine
 10
135.521562
 20
-169.770883
 30
0.0
 11
137.648279
 21
-159.822701
 31
0.0
  0
LINE
  5
1CD
100
AcDbEntity
  8
1
100
AcDbLine
 10
109.021845
 20
-159.822701
 30
0.0
 11
111.148562
 21
-169.770883
 31
0.0
  0
LINE
  5
1CE
100
AcDbEntity
  8
1
100
AcDbLine
 10
135.521562
 20
-313.95099
 30
0.0
 11
137.22422
 21
-317.816696
 31
0.0
  0
LINE
  5
1CF
100
AcDbEntity
  8
1
100
AcDbLine
 10
109.445904
 20
-317.816696
 30
0.0
 11
111.148562
 21
-313.95099
 31
0.0
  0
LINE
  5
1D0
100
AcDbEntity
  8
1
100
AcDbLine
 10
109.508113
 20
-326.774962
 30
0.0
 11
111.148562
 21
-330.181883
 31
0.0
  0
LINE
  5
1D1
100
AcDbEntity
  8
1
100
AcDbLine
 10
135.521562
 20
-330.181883
 30
0.0
 11
137.162012
 21
-326.774962
 31
0.0
  0
LINE
  5
1D2
100
AcDbEntity
  8
1
100
AcDbLine
 10
137.38572
 20
-366.577705
 30
0.0
 11
135.521562
 21
-361.156043
 31
0.0
  0
LINE
  5
1D3
100
AcDbEntity
  8
1
100
AcDbLine
 10
135.521562
 20
-375.338746
 30
0.0
 11
136.268389
 21
-374.807858
 31
0.0
  0
LINE
  5
1D4
100
AcDbEntity
  8
1
100
AcDbLine
 10
109.284405
 20
-366.577705
 30
0.0
 11
111.148562
 21
-361.156043
 31
0.0
  0
LINE
  5
1D5
100
AcDbEntity
  8
1
100
AcDbLine
 10
111.148562
 20
-375.338746
 30
0.0
 11
110.401736
 21
-374.807858
 31
0.0
  0
ARC
  5
1D6
100
AcDbEntity
  8
1
100
AcDbCircle
 10
132.335062
 20
-389.720108
 30
0.0
 40
3.1865
100
AcDbArc
 50
270.0
 51
360.0
  0
ARC
  5
1D7
100
AcDbEntity
  8
1
100
AcDbCircle
 10
114.335062
 20
-389.720108
 30
0.0
 40
3.1865
100
AcDbArc
 50
180.0
 51
270.0
  0
LINE
  5
1D8
100
AcDbEntity
  8
1
100
AcDbLine
 10
114.335062
 20
-392.906608
 30
0.0
 11
116.335062
 21
-392.906608
 31
0.0
  0
LINE
  5
1D9
100
AcDbEntity
  8
1
100
AcDbLine
 10
130.335062
 20
-392.906608
 30
0.0
 11
132.335062
 21
-392.906608
 31
0.0
  0
ARC
  5
1DA
100
AcDbEntity
  8
1
100
AcDbCircle
 10
130.335062
 20
-395.906608
 30
0.0
 40
3.0
100
AcDbArc
 50
90.0
 51
180.0
  0
ARC
  5
1DB
100
AcDbEntity
  8
1
100
AcDbCircle
 10
116.335062
 20
-395.906608
 30
0.0
 40
3.0
100
AcDbArc
 50
0.0
 51
90.0
  0
LINE
  5
1DC
100
AcDbEntity
  8
1
100
AcDbLine
 10
119.335062
 20
-390.925036
 30
0.0
 11
127.335062
 21
-390.925036
 31
0.0
  0
ARC
  5
1DD
100
AcDbEntity
  8
1
100
AcDbCircle
 10
130.335062
 20
-393.925036
 30
0.0
 40
3.0
100
AcDbArc
 50
90.0
 51
180.0
  0
ARC
  5
1DE
100
AcDbEntity
  8
1
100
AcDbCircle
 10
116.335062
 20
-393.925036
 30
0.0
 40
3.0
100
AcDbArc
 50
0.0
 51
90.0
  0
LINE
  5
1DF
100
AcDbEntity
  8
1
100
AcDbLine
 10
135.521562
 20
-392.906608
 30
0.0
 11
137.648279
 21
-402.85479
 31
0.0
  0
LINE
  5
1E0
100
AcDbEntity
  8
1
100
AcDbLine
 10
109.021845
 20
-402.85479
 30
0.0
 11
111.148562
 21
-392.906608
 31
0.0
  0
ARC
  5
1E1
100
AcDbEntity
  8
1
100
AcDbCircle
 10
172.335062
 20
-96.276184
 30
0.0
 40
28.0
100
AcDbArc
 50
93.583322
 51
97.670971
  0
ARC
  5
1E2
100
AcDbEntity
  8
1
100
AcDbCircle
 10
172.335062
 20
-96.276184
 30
0.0
 40
28.0
100
AcDbArc
 50
138.815951
 51
180.0
  0
LINE
  5
1E3
100
AcDbEntity
  8
1
100
AcDbLine
 10
-472.664938
 20
289.486254
 30
0.0
 11
-422.864836
 21
289.486254
 31
0.0
  0
LINE
  5
1E4
100
AcDbEntity
  8
1
  6
DASHED
100
AcDbLine
 10
-422.864836
 20
289.486254
 30
0.0
 11
-405.905323
 21
289.486254
 31
0.0
  0
LINE
  5
1E5
100
AcDbEntity
  8
1
  6
DASHED
100
AcDbLine
 10
-406.231581
 20
287.361254
 30
0.0
 11
-422.847327
 21
287.361254
 31
0.0
  0
LINE
  5
1E6
100
AcDbEntity
  8
1
100
AcDbLine
 10
-422.847327
 20
287.361254
 30
0.0
 11
-482.364938
 21
287.361254
 31
0.0
  0
LINE
  5
1E7
100
AcDbEntity
  8
1
100
AcDbLine
 10
-483.364938
 20
286.361254
 30
0.0
 11
-422.828682
 21
286.361254
 31
0.0
  0
LINE
  5
1E8
100
AcDbEntity
  8
1
  6
DASHED
100
AcDbLine
 10
-422.828682
 20
286.361254
 30
0.0
 11
-406.317017
 21
286.361254
 31
0.0
  0
LINE
  5
1E9
100
AcDbEntity
  8
1
  6
DASHED
100
AcDbLine
 10
-406.364938
 20
272.361254
 30
0.0
 11
-421.865306
 21
272.361254
 31
0.0
  0
LINE
  5
1EA
100
AcDbEntity
  8
1
100
AcDbLine
 10
-421.865306
 20
272.361254
 30
0.0
 11
-438.35932
 21
272.361254
 31
0.0
  0
LINE
  5
1EB
100
AcDbEntity
  8
1
  6
DASHED
100
AcDbLine
 10
-406.364938
 20
269.547788
 30
0.0
 11
-421.512762
 21
269.547788
 31
0.0
  0
LINE
  5
1EC
100
AcDbEntity
  8
1
100
AcDbLine
 10
-421.512762
 20
269.547788
 30
0.0
 11
-425.269101
 21
269.547788
 31
0.0
  0
LINE
  5
1ED
100
AcDbEntity
  8
1
  6
DASHED
100
AcDbLine
 10
-406.364938
 20
245.174721
 30
0.0
 11
-418.290564
 21
245.174721
 31
0.0
  0
LINE
  5
1EE
100
AcDbEntity
  8
1
100
AcDbLine
 10
-418.290564
 20
245.174721
 30
0.0
 11
-425.269101
 21
245.174721
 31
0.0
  0
LINE
  5
1EF
100
AcDbEntity
  8
1
  6
DASHED
100
AcDbLine
 10
-406.364938
 20
242.361254
 30
0.0
 11
-417.918615
 21
242.361254
 31
0.0
  0
LINE
  5
1F0
100
AcDbEntity
  8
1
100
AcDbLine
 10
-417.918615
 20
242.361254
 30
0.0
 11
-438.35932
 21
242.361254
 31
0.0
  0
LINE
  5
1F1
100
AcDbEntity
  8
1
100
AcDbLine
 10
-483.364938
 20
228.361254
 30
0.0
 11
-416.06777
 21
228.361254
 31
0.0
  0
LINE
  5
1F2
100
AcDbEntity
  8
1
  6
DASHED
100
AcDbLine
 10
-416.06777
 20
228.361254
 30
0.0
 11
-406.317017
 21
228.361254
 31
0.0
  0
LINE
  5
1F3
100
AcDbEntity
  8
1
  6
DASHED
100
AcDbLine
 10
-406.231581
 20
227.361254
 30
0.0
 11
-415.935567
 21
227.361254
 31
0.0
  0
LINE
  5
1F4
100
AcDbEntity
  8
1
100
AcDbLine
 10
-415.935567
 20
227.361254
 30
0.0
 11
-482.364938
 21
227.361254
 31
0.0
  0
LINE
  5
1F5
100
AcDbEntity
  8
1
100
AcDbLine
 10
-472.664938
 20
225.236254
 30
0.0
 11
-415.654635
 21
225.236254
 31
0.0
  0
LINE
  5
1F6
100
AcDbEntity
  8
1
  6
DASHED
100
AcDbLine
 10
-415.654635
 20
225.236254
 30
0.0
 11
-405.905323
 21
225.236254
 31
0.0
  0
LINE
  5
1F7
100
AcDbEntity
  8
1
  6
DASHED
100
AcDbLine
 10
-304.824552
 20
289.486254
 30
0.0
 11
-287.86504
 21
289.486254
 31
0.0
  0
LINE
  5
1F8
100
AcDbEntity
  8
1
100
AcDbLine
 10
-287.86504
 20
289.486254
 30
0.0
 11
-238.064938
 21
289.486254
 31
0.0
  0
LINE
  5
1F9
100
AcDbEntity
  8
1
  6
DASHED
100
AcDbLine
 10
-304.498295
 20
287.361254
 30
0.0
 11
-287.882549
 21
287.361254
 31
0.0
  0
LINE
  5
1FA
100
AcDbEntity
  8
1
100
AcDbLine
 10
-287.882549
 20
287.361254
 30
0.0
 11
-228.364938
 21
287.361254
 31
0.0
  0
LINE
  5
1FB
100
AcDbEntity
  8
1
100
AcDbLine
 10
-227.364938
 20
286.361254
 30
0.0
 11
-287.901194
 21
286.361254
 31
0.0
  0
LINE
  5
1FC
100
AcDbEntity
  8
1
  6
DASHED
100
AcDbLine
 10
-287.901194
 20
286.361254
 30
0.0
 11
-304.412859
 21
286.361254
 31
0.0
  0
LINE
  5
1FD
100
AcDbEntity
  8
1
  6
DASHED
100
AcDbLine
 10
-304.364938
 20
272.361254
 30
0.0
 11
-288.864569
 21
272.361254
 31
0.0
  0
LINE
  5
1FE
100
AcDbEntity
  8
1
100
AcDbLine
 10
-288.864569
 20
272.361254
 30
0.0
 11
-272.370556
 21
272.361254
 31
0.0
  0
LINE
  5
1FF
100
AcDbEntity
  8
1
  6
DASHED
100
AcDbLine
 10
-304.364938
 20
269.547788
 30
0.0
 11
-289.217114
 21
269.547788
 31
0.0
  0
LINE
  5
200
100
AcDbEntity
  8
1
100
AcDbLine
 10
-289.217114
 20
269.547788
 30
0.0
 11
-285.460774
 21
269.547788
 31
0.0
  0
LINE
  5
201
100
AcDbEntity
  8
1
  6
DASHED
100
AcDbLine
 10
-304.364938
 20
245.174721
 30
0.0
 11
-292.439311
 21
245.174721
 31
0.0
  0
LINE
  5
202
100
AcDbEntity
  8
1
100
AcDbLine
 10
-292.439311
 20
245.174721
 30
0.0
 11
-285.460774
 21
245.174721
 31
0.0
  0
LINE
  5
203
100
AcDbEntity
  8
1
  6
DASHED
100
AcDbLine
 10
-304.364938
 20
242.361254
 30
0.0
 11
-292.81126
 21
242.361254
 31
0.0
  0
LINE
  5
204
100
AcDbEntity
  8
1
100
AcDbLine
 10
-292.81126
 20
242.361254
 30
0.0
 11
-272.370556
 21
242.361254
 31
0.0
  0
LINE
  5
205
100
AcDbEntity
  8
1
100
AcDbLine
 10
-227.364938
 20
228.361254
 30
0.0
 11
-294.662105
 21
228.361254
 31
0.0
  0
LINE
  5
206
100
AcDbEntity
  8
1
  6
DASHED
100
AcDbLine
 10
-294.662105
 20
228.361254
 30
0.0
 11
-304.412859
 21
228.361254
 31
0.0
  0
LINE
  5
207
100
AcDbEntity
  8
1
  6
DASHED
100
AcDbLine
 10
-304.498295
 20
227.361254
 30
0.0
 11
-294.794308
 21
227.361254
 31
0.0
  0
LINE
  5
208
100
AcDbEntity
  8
1
100
AcDbLine
 10
-294.794308
 20
227.361254
 30
0.0
 11
-228.364938
 21
227.361254
 31
0.0
  0
LINE
  5
209
100
AcDbEntity
  8
1
  6
DASHED
100
AcDbLine
 10
-304.824552
 20
225.236254
 30
0.0
 11
-295.07524
 21
225.236254
 31
0.0
  0
LINE
  5
20A
100
AcDbEntity
  8
1
100
AcDbLine
 10
-295.07524
 20
225.236254
 30
0.0
 11
-238.064938
 21
225.236254
 31
0.0
  0
LINE
  5
20B
100
AcDbEntity
  8
2
100
AcDbLine
 10
-287.864938
 20
-18.338746
 30
0.0
 11
-422.864938
 21
-18.338746
 31
0.0
  0
LINE
  5
20C
100
AcDbEntity
  8
2
100
AcDbLine
 10
221.335062
 20
-18.338746
 30
0.0
 11
70.335062
 21
-18.338746
 31
0.0
  0
CIRCLE
  5
20D
100
AcDbEntity
  8
2
100
AcDbCircle
 10
194.335062
 20
-18.338746
 30
0.0
 40
6.25
  0
LINE
  5
20E
100
AcDbEntity
  8
2
100
AcDbLine
 10
186.835062
 20
-18.338746
 30
0.0
 11
190.585062
 21
-11.843555
 31
0.0
  0
LINE
  5
20F
100
AcDbEntity
  8
2
100
AcDbLine
 10
190.585062
 20
-11.843555
 30
0.0
 11
198.085062
 21
-11.843555
 31
0.0
  0
LINE
  5
210
100
AcDbEntity
  8
2
100
AcDbLine
 10
198.085062
 20
-11.843555
 30
0.0
 11
201.835062
 21
-18.338746
 31
0.0
  0
LINE
  5
211
100
AcDbEntity
  8
2
100
AcDbLine
 10
201.835062
 20
-18.338746
 30
0.0
 11
198.085062
 21
-24.833936
 31
0.0
  0
LINE
  5
212
100
AcDbEntity
  8
2
100
AcDbLine
 10
198.085062
 20
-24.833936
 30
0.0
 11
190.585062
 21
-24.833936
 31
0.0
  0
LINE
  5
213
100
AcDbEntity
  8
2
100
AcDbLine
 10
190.585062
 20
-24.833936
 30
0.0
 11
186.835062
 21
-18.338746
 31
0.0
  0
CIRCLE
  5
214
100
AcDbEntity
  8
2
100
AcDbCircle
 10
194.335062
 20
-18.338746
 30
0.0
 40
7.7
  0
LINE
  5
215
100
AcDbEntity
  8
2
  6
CENTER
 62
     2
100
AcDbLine
 10
-355.364938
 20
373.56157
 30
0.0
 11
-355.364938
 21
187.539315
 31
0.0
  0
ARC
  5
216
100
AcDbEntity
  8
2
  6
CENTER
 62
     2
100
AcDbCircle
 10
-355.364938
 20
257.361254
 30
0.0
 40
42.0
100
AcDbArc
 50
122.297217
 51
148.209378
  0
ARC
  5
217
100
AcDbEntity
  8
2
  6
CENTER
 62
     2
100
AcDbCircle
 10
-355.364938
 20
257.361254
 30
0.0
 40
42.0
100
AcDbArc
 50
211.791522
 51
238.288944
  0
ARC
  5
218
100
AcDbEntity
  8
2
  6
CENTER
 62
     2
100
AcDbCircle
 10
-355.364938
 20
257.361254
 30
0.0
 40
42.0
100
AcDbArc
 50
301.437918
 51
327.74136
  0
ARC
  5
219
100
AcDbEntity
  8
2
  6
CENTER
 62
     2
100
AcDbCircle
 10
-355.364938
 20
257.361254
 30
0.0
 40
42.0
100
AcDbArc
 50
31.894454
 51
57.803083
  0
LINE
  5
21A
100
AcDbEntity
  8
2
  6
CENTER
 62
     2
100
AcDbLine
 10
-392.458487
 20
220.267706
 30
0.0
 11
-378.327612
 21
234.39858
 31
0.0
  0
LINE
  5
21B
100
AcDbEntity
  8
2
  6
CENTER
 62
     2
100
AcDbLine
 10
-331.865698
 20
280.860494
 30
0.0
 11
-318.622309
 21
294.103883
 31
0.0
  0
LINE
  5
21C
100
AcDbEntity
  8
2
  6
CENTER
 62
     2
100
AcDbLine
 10
-391.707893
 20
293.70421
 30
0.0
 11
-378.83453
 21
280.830846
 31
0.0
  0
LINE
  5
21D
100
AcDbEntity
  8
2
  6
CENTER
 62
     2
100
AcDbLine
 10
-332.816521
 20
234.812837
 30
0.0
 11
-318.83345
 21
220.829767
 31
0.0
  0
LINE
  5
21E
100
AcDbEntity
  8
2
  6
CENTER
 62
     2
100
AcDbLine
 10
194.335062
 20
-135.223002
 30
0.0
 11
194.335062
 21
96.955247
 31
0.0
  0
LINE
  5
21F
100
AcDbEntity
  8
2
  6
CENTER
 62
     2
100
AcDbLine
 10
310.601664
 20
-18.338746
 30
0.0
 11
49.421213
 21
-18.338746
 31
0.0
  0
LINE
  5
220
100
AcDbEntity
  8
2
  6
CENTER
 62
     2
100
AcDbLine
 10
-435.709176
 20
328.361254
 30
0.0
 11
-133.692315
 21
328.361254
 31
0.0
  0
LINE
  5
221
100
AcDbEntity
  8
2
  6
CENTER
 62
     2
100
AcDbLine
 10
-133.692315
 20
-18.338746
 30
0.0
 11
-439.056527
 21
-18.338746
 31
0.0
  0
ARC
  5
222
100
AcDbEntity
  8
2
100
AcDbCircle
 10
-367.204125
 20
315.075509
 30
0.0
 40
3.714255
100
AcDbArc
 50
270.0
 51
360.0
  0
ARC
  5
223
100
AcDbEntity
  8
2
100
AcDbCircle
 10
-371.085521
 20
318.43691
 30
0.0
 40
3.714255
100
AcDbArc
 50
90.0
 51
180.0
  0
ARC
  5
224
100
AcDbEntity
  8
2
100
AcDbCircle
 10
-369.432678
 20
315.038367
 30
0.0
 40
1.857127
100
AcDbArc
 50
180.0
 51
270.0
  0
ARC
  5
225
100
AcDbEntity
  8
2
100
AcDbCircle
 10
-368.856968
 20
318.474052
 30
0.0
 40
1.857127
100
AcDbArc
 50
0.0
 51
90.0
  0
LINE
  5
226
100
AcDbEntity
  8
2
100
AcDbLine
 10
-358.419912
 20
320.33118
 30
0.0
 11
-358.809909
 21
311.361254
 31
0.0
  0
LINE
  5
227
100
AcDbEntity
  8
2
100
AcDbLine
 10
-352.309963
 20
320.33118
 30
0.0
 11
-351.919966
 21
311.361254
 31
0.0
  0
LINE
  5
228
100
AcDbEntity
  8
2
100
AcDbLine
 10
-358.419912
 20
320.33118
 30
0.0
 11
-356.748498
 21
311.361254
 31
0.0
  0
LINE
  5
229
100
AcDbEntity
  8
2
100
AcDbLine
 10
-355.364938
 20
315.688361
 30
0.0
 11
-354.160689
 21
322.151165
 31
0.0
  0
LINE
  5
22A
100
AcDbEntity
  8
2
100
AcDbLine
 10
-361.539886
 20
322.151165
 30
0.0
 11
-356.569187
 21
322.151165
 31
0.0
  0
LINE
  5
22B
100
AcDbEntity
  8
2
100
AcDbLine
 10
-356.748498
 20
311.361254
 30
0.0
 11
-353.981378
 21
311.361254
 31
0.0
  0
ARC
  5
22C
100
AcDbEntity
  8
2
100
AcDbCircle
 10
-339.644354
 20
315.075509
 30
0.0
 40
3.714255
100
AcDbArc
 50
270.0
 51
360.0
  0
ARC
  5
22D
100
AcDbEntity
  8
2
100
AcDbCircle
 10
-341.297198
 20
315.038367
 30
0.0
 40
1.857127
100
AcDbArc
 50
270.0
 51
360.0
  0
LINE
  5
22E
100
AcDbEntity
  8
2
100
AcDbLine
 10
-343.730035
 20
318.474052
 30
0.0
 11
-343.730035
 21
315.038367
 31
0.0
  0
ARC
  5
22F
100
AcDbEntity
  8
2
100
AcDbCircle
 10
-343.525751
 20
318.43691
 30
0.0
 40
3.714255
100
AcDbArc
 50
90.0
 51
180.0
  0
LINE
  5
230
100
AcDbEntity
  8
2
100
AcDbLine
 10
-347.240005
 20
318.43691
 30
0.0
 11
-347.240005
 21
315.075509
 31
0.0
  0
LINE
  5
231
100
AcDbEntity
  8
2
100
AcDbLine
 10
-351.919966
 20
311.361254
 30
0.0
 11
-348.409996
 21
311.361254
 31
0.0
  0
LINE
  5
232
100
AcDbEntity
  8
2
100
AcDbLine
 10
-334.370113
 20
311.621252
 30
0.0
 11
-325.920183
 21
311.621252
 31
0.0
  0
LINE
  5
233
100
AcDbEntity
  8
2
100
AcDbLine
 10
-330.860142
 20
315.781218
 30
0.0
 11
-325.920183
 21
315.781218
 31
0.0
  0
LINE
  5
234
100
AcDbEntity
  8
2
100
AcDbLine
 10
-330.860142
 20
317.731201
 30
0.0
 11
-325.920183
 21
317.731201
 31
0.0
  0
LINE
  5
235
100
AcDbEntity
  8
2
100
AcDbLine
 10
-330.860142
 20
313.571236
 30
0.0
 11
-330.860142
 21
315.781218
 31
0.0
  0
LINE
  5
236
100
AcDbEntity
  8
2
100
AcDbLine
 10
-330.860142
 20
317.731201
 30
0.0
 11
-330.860142
 21
319.941183
 31
0.0
  0
LINE
  5
237
100
AcDbEntity
  8
2
100
AcDbLine
 10
-380.649727
 20
319.941183
 30
0.0
 11
-377.139756
 21
319.941183
 31
0.0
  0
LINE
  5
238
100
AcDbEntity
  8
2
100
AcDbLine
 10
-385.199689
 20
317.731201
 30
0.0
 11
-371.549803
 21
324.361146
 31
0.0
  0
LINE
  5
239
100
AcDbEntity
  8
2
100
AcDbLine
 10
-385.199689
 20
317.731201
 30
0.0
 11
-385.199689
 21
324.361146
 31
0.0
  0
LINE
  5
23A
100
AcDbEntity
  8
2
100
AcDbLine
 10
-377.139756
 20
319.941183
 30
0.0
 11
-377.139756
 21
311.361254
 31
0.0
  0
LINE
  5
23B
100
AcDbEntity
  8
2
100
AcDbLine
 10
-374.799776
 20
318.43691
 30
0.0
 11
-374.799776
 21
315.075509
 31
0.0
  0
LINE
  5
23C
100
AcDbEntity
  8
2
100
AcDbLine
 10
-363.48987
 20
318.43691
 30
0.0
 11
-363.48987
 21
315.075509
 31
0.0
  0
LINE
  5
23D
100
AcDbEntity
  8
2
100
AcDbLine
 10
-371.289805
 20
318.474052
 30
0.0
 11
-371.289805
 21
315.038367
 31
0.0
  0
LINE
  5
23E
100
AcDbEntity
  8
2
100
AcDbLine
 10
-366.999841
 20
318.474052
 30
0.0
 11
-366.999841
 21
315.038367
 31
0.0
  0
ARC
  5
23F
100
AcDbEntity
  8
2
100
AcDbCircle
 10
-371.085521
 20
315.075509
 30
0.0
 40
3.714255
100
AcDbArc
 50
180.0
 51
270.0
  0
ARC
  5
240
100
AcDbEntity
  8
2
100
AcDbCircle
 10
-367.204125
 20
318.43691
 30
0.0
 40
3.714255
100
AcDbArc
 50
360.0
 51
90.0
  0
ARC
  5
241
100
AcDbEntity
  8
2
100
AcDbCircle
 10
-368.856968
 20
315.038367
 30
0.0
 40
1.857127
100
AcDbArc
 50
270.0
 51
360.0
  0
ARC
  5
242
100
AcDbEntity
  8
2
100
AcDbCircle
 10
-369.432678
 20
318.474052
 30
0.0
 40
1.857127
100
AcDbArc
 50
90.0
 51
180.0
  0
LINE
  5
243
100
AcDbEntity
  8
2
100
AcDbLine
 10
-380.649727
 20
311.361254
 30
0.0
 11
-377.139756
 21
311.361254
 31
0.0
  0
LINE
  5
244
100
AcDbEntity
  8
2
100
AcDbLine
 10
-361.539886
 20
322.151165
 30
0.0
 11
-362.31988
 21
311.361254
 31
0.0
  0
LINE
  5
245
100
AcDbEntity
  8
2
100
AcDbLine
 10
-349.189989
 20
322.151165
 30
0.0
 11
-348.409996
 21
311.361254
 31
0.0
  0
LINE
  5
246
100
AcDbEntity
  8
2
100
AcDbLine
 10
-352.309963
 20
320.33118
 30
0.0
 11
-353.981378
 21
311.361254
 31
0.0
  0
LINE
  5
247
100
AcDbEntity
  8
2
100
AcDbLine
 10
-355.364938
 20
315.688361
 30
0.0
 11
-356.569187
 21
322.151165
 31
0.0
  0
LINE
  5
248
100
AcDbEntity
  8
2
100
AcDbLine
 10
-371.085521
 20
322.151165
 30
0.0
 11
-367.204125
 21
322.151165
 31
0.0
  0
LINE
  5
249
100
AcDbEntity
  8
2
100
AcDbLine
 10
-371.085521
 20
311.361254
 30
0.0
 11
-367.204125
 21
311.361254
 31
0.0
  0
LINE
  5
24A
100
AcDbEntity
  8
2
100
AcDbLine
 10
-362.31988
 20
311.361254
 30
0.0
 11
-358.809909
 21
311.361254
 31
0.0
  0
ARC
  5
24B
100
AcDbEntity
  8
2
100
AcDbCircle
 10
-343.525751
 20
315.075509
 30
0.0
 40
3.714255
100
AcDbArc
 50
180.0
 51
270.0
  0
LINE
  5
24C
100
AcDbEntity
  8
2
100
AcDbLine
 10
-339.44007
 20
318.474052
 30
0.0
 11
-339.44007
 21
315.038367
 31
0.0
  0
ARC
  5
24D
100
AcDbEntity
  8
2
100
AcDbCircle
 10
-341.872907
 20
315.038367
 30
0.0
 40
1.857127
100
AcDbArc
 50
180.0
 51
270.0
  0
ARC
  5
24E
100
AcDbEntity
  8
2
100
AcDbCircle
 10
-341.297198
 20
318.474052
 30
0.0
 40
1.857127
100
AcDbArc
 50
0.0
 51
90.0
  0
ARC
  5
24F
100
AcDbEntity
  8
2
100
AcDbCircle
 10
-341.872907
 20
318.474052
 30
0.0
 40
1.857127
100
AcDbArc
 50
90.0
 51
180.0
  0
ARC
  5
250
100
AcDbEntity
  8
2
100
AcDbCircle
 10
-339.644354
 20
318.43691
 30
0.0
 40
3.714255
100
AcDbArc
 50
360.0
 51
90.0
  0
LINE
  5
251
100
AcDbEntity
  8
2
100
AcDbLine
 10
-335.9301
 20
318.43691
 30
0.0
 11
-335.9301
 21
315.075509
 31
0.0
  0
LINE
  5
252
100
AcDbEntity
  8
2
100
AcDbLine
 10
-368.856968
 20
320.33118
 30
0.0
 11
-369.432678
 21
320.33118
 31
0.0
  0
LINE
  5
253
100
AcDbEntity
  8
2
100
AcDbLine
 10
-368.856968
 20
313.181239
 30
0.0
 11
-369.432678
 21
313.181239
 31
0.0
  0
LINE
  5
254
100
AcDbEntity
  8
2
100
AcDbLine
 10
-341.872907
 20
320.33118
 30
0.0
 11
-341.297198
 21
320.33118
 31
0.0
  0
LINE
  5
255
100
AcDbEntity
  8
2
100
AcDbLine
 10
-354.160689
 20
322.151165
 30
0.0
 11
-349.189989
 21
322.151165
 31
0.0
  0
LINE
  5
256
100
AcDbEntity
  8
2
100
AcDbLine
 10
-343.525751
 20
322.151165
 30
0.0
 11
-339.644354
 21
322.151165
 31
0.0
  0
LINE
  5
257
100
AcDbEntity
  8
2
100
AcDbLine
 10
-343.525751
 20
311.361254
 30
0.0
 11
-339.644354
 21
311.361254
 31
0.0
  0
LINE
  5
258
100
AcDbEntity
  8
2
100
AcDbLine
 10
-334.370113
 20
321.891167
 30
0.0
 11
-334.370113
 21
311.621252
 31
0.0
  0
LINE
  5
259
100
AcDbEntity
  8
2
100
AcDbLine
 10
-334.370113
 20
321.891167
 30
0.0
 11
-325.920183
 21
321.891167
 31
0.0
  0
LINE
  5
25A
100
AcDbEntity
  8
2
100
AcDbLine
 10
-330.860142
 20
313.571236
 30
0.0
 11
-325.920183
 21
313.571236
 31
0.0
  0
LINE
  5
25B
100
AcDbEntity
  8
2
100
AcDbLine
 10
-330.860142
 20
319.941183
 30
0.0
 11
-325.920183
 21
319.941183
 31
0.0
  0
LINE
  5
25C
100
AcDbEntity
  8
2
100
AcDbLine
 10
-325.920183
 20
319.941183
 30
0.0
 11
-325.920183
 21
321.891167
 31
0.0
  0
LINE
  5
25D
100
AcDbEntity
  8
2
100
AcDbLine
 10
-325.920183
 20
311.621252
 30
0.0
 11
-325.920183
 21
313.571236
 31
0.0
  0
LINE
  5
25E
100
AcDbEntity
  8
2
100
AcDbLine
 10
-325.920183
 20
315.781218
 30
0.0
 11
-325.920183
 21
317.731201
 31
0.0
  0
LINE
  5
25F
100
AcDbEntity
  8
2
100
AcDbLine
 10
-380.649727
 20
319.941183
 30
0.0
 11
-380.649727
 21
311.361254
 31
0.0
  0
LINE
  5
260
100
AcDbEntity
  8
2
100
AcDbLine
 10
-385.199689
 20
324.361146
 30
0.0
 11
-371.549803
 21
324.361146
 31
0.0
  0
LINE
  5
261
100
AcDbEntity
  8
2
100
AcDbLine
 10
-341.872907
 20
313.181239
 30
0.0
 11
-341.297198
 21
313.181239
 31
0.0
  0
LINE
  5
262
100
AcDbEntity
  8
2
  6
CENTER
 62
     2
100
AcDbLine
 10
-323.364938
 20
214.118279
 30
0.0
 11
-323.364938
 21
184.363192
 31
0.0
  0
ARC
  5
263
100
AcDbEntity
  8
2
100
AcDbCircle
 10
-438.064938
 20
289.661254
 30
0.0
 40
150.2
100
AcDbArc
 50
352.468987
 51
20.344261
  0
ARC
  5
264
100
AcDbEntity
  8
2
100
AcDbCircle
 10
-272.664938
 20
289.661254
 30
0.0
 40
150.2
100
AcDbArc
 50
159.655739
 51
187.531013
  0
LINE
  5
265
100
AcDbEntity
  8
2
100
AcDbLine
 10
-313.364938
 20
355.361254
 30
0.0
 11
-397.364938
 21
355.361254
 31
0.0
  0
LINE
  5
266
100
AcDbEntity
  8
2
100
AcDbLine
 10
-413.495559
 20
341.879796
 30
0.0
 11
-412.366868
 21
344.923815
 31
0.0
  0
ARC
  5
267
100
AcDbEntity
  8
2
100
AcDbCircle
 10
-397.364938
 20
339.361254
 30
0.0
 40
16.0
100
AcDbArc
 50
90.0
 51
159.655739
  0
LINE
  5
268
100
AcDbEntity
  8
2
100
AcDbLine
 10
-297.234316
 20
341.879796
 30
0.0
 11
-298.363007
 21
344.923815
 31
0.0
  0
ARC
  5
269
100
AcDbEntity
  8
2
100
AcDbCircle
 10
-313.364938
 20
339.361254
 30
0.0
 40
16.0
100
AcDbArc
 50
20.344261
 51
90.0
  0
LINE
  5
26A
100
AcDbEntity
  8
2
100
AcDbLine
 10
-313.364938
 20
204.361254
 30
0.0
 11
-395.364938
 21
204.361254
 31
0.0
  0
LINE
  5
26B
100
AcDbEntity
  8
2
100
AcDbLine
 10
-289.160553
 20
269.975619
 30
0.0
 11
-295.537456
 21
221.739998
 31
0.0
  0
LINE
  5
26C
100
AcDbEntity
  8
2
100
AcDbLine
 10
-421.569322
 20
269.975619
 30
0.0
 11
-415.192419
 21
221.739998
 31
0.0
  0
ARC
  5
26D
100
AcDbEntity
  8
2
100
AcDbCircle
 10
-315.364938
 20
224.361254
 30
0.0
 40
20.0
100
AcDbArc
 50
270.0
 51
352.468987
  0
ARC
  5
26E
100
AcDbEntity
  8
2
100
AcDbCircle
 10
-395.364938
 20
224.361254
 30
0.0
 40
20.0
100
AcDbArc
 50
187.531013
 51
270.0
  0
ARC
  5
26F
100
AcDbEntity
  8
2
100
AcDbCircle
 10
-325.666453
 20
287.059739
 30
0.0
 40
7.5
100
AcDbArc
 50
319.014638
 51
130.985362
  0
ARC
  5
270
100
AcDbEntity
  8
2
100
AcDbCircle
 10
-385.063423
 20
287.059739
 30
0.0
 40
7.5
100
AcDbArc
 50
49.014638
 51
220.985362
  0
ARC
  5
271
100
AcDbEntity
  8
2
100
AcDbCircle
 10
-355.364938
 20
257.361254
 30
0.0
 40
41.0
100
AcDbArc
 50
148.771525
 51
211.228475
  0
ARC
  5
272
100
AcDbEntity
  8
2
100
AcDbCircle
 10
-385.063423
 20
227.66277
 30
0.0
 40
7.5
100
AcDbArc
 50
139.014638
 51
310.985362
  0
ARC
  5
273
100
AcDbEntity
  8
2
100
AcDbCircle
 10
-325.666453
 20
227.66277
 30
0.0
 40
7.5
100
AcDbArc
 50
229.014638
 51
40.985362
  0
ARC
  5
274
100
AcDbEntity
  8
2
100
AcDbCircle
 10
-355.364938
 20
257.361254
 30
0.0
 40
41.0
100
AcDbArc
 50
238.771525
 51
301.228475
  0
ARC
  5
275
100
AcDbEntity
  8
2
100
AcDbCircle
 10
-317.740243
 20
280.173144
 30
0.0
 40
3.0
100
AcDbArc
 50
139.014638
 51
211.228475
  0
ARC
  5
276
100
AcDbEntity
  8
2
100
AcDbCircle
 10
-332.553048
 20
294.98595
 30
0.0
 40
3.0
100
AcDbArc
 50
238.771525
 51
310.985362
  0
ARC
  5
277
100
AcDbEntity
  8
2
100
AcDbCircle
 10
-378.176828
 20
294.98595
 30
0.0
 40
3.0
100
AcDbArc
 50
229.014638
 51
301.228475
  0
ARC
  5
278
100
AcDbEntity
  8
2
100
AcDbCircle
 10
-392.989633
 20
280.173144
 30
0.0
 40
3.0
100
AcDbArc
 50
328.771525
 51
40.985362
  0
ARC
  5
279
100
AcDbEntity
  8
2
100
AcDbCircle
 10
-392.989633
 20
234.549365
 30
0.0
 40
3.0
100
AcDbArc
 50
319.014638
 51
31.228475
  0
ARC
  5
27A
100
AcDbEntity
  8
2
100
AcDbCircle
 10
-378.176828
 20
219.736559
 30
0.0
 40
3.0
100
AcDbArc
 50
58.771525
 51
130.985362
  0
ARC
  5
27B
100
AcDbEntity
  8
2
100
AcDbCircle
 10
-332.553048
 20
219.736559
 30
0.0
 40
3.0
100
AcDbArc
 50
49.014638
 51
121.228475
  0
ARC
  5
27C
100
AcDbEntity
  8
2
100
AcDbCircle
 10
-317.740243
 20
234.549365
 30
0.0
 40
3.0
100
AcDbArc
 50
148.771525
 51
220.985362
  0
LINE
  5
27D
100
AcDbEntity
  8
2
100
AcDbLine
 10
-362.364938
 20
301.361254
 30
0.0
 11
-362.364938
 21
286.018714
 31
0.0
  0
LINE
  5
27E
100
AcDbEntity
  8
2
100
AcDbLine
 10
-348.364938
 20
301.361254
 30
0.0
 11
-348.364938
 21
286.018714
 31
0.0
  0
LINE
  5
27F
100
AcDbEntity
  8
2
100
AcDbLine
 10
-326.707478
 20
264.361254
 30
0.0
 11
-311.364938
 21
264.361254
 31
0.0
  0
LINE
  5
280
100
AcDbEntity
  8
2
100
AcDbLine
 10
-326.707478
 20
250.361254
 30
0.0
 11
-311.364938
 21
250.361254
 31
0.0
  0
LINE
  5
281
100
AcDbEntity
  8
2
100
AcDbLine
 10
-309.364938
 20
262.361254
 30
0.0
 11
-309.364938
 21
252.361254
 31
0.0
  0
LINE
  5
282
100
AcDbEntity
  8
2
100
AcDbLine
 10
-360.364938
 20
303.361254
 30
0.0
 11
-350.364938
 21
303.361254
 31
0.0
  0
ARC
  5
283
100
AcDbEntity
  8
2
100
AcDbCircle
 10
-355.364938
 20
257.361254
 30
0.0
 40
41.0
100
AcDbArc
 50
58.771525
 51
80.169635
  0
ARC
  5
284
100
AcDbEntity
  8
2
100
AcDbCircle
 10
-355.364938
 20
257.361254
 30
0.0
 40
41.0
100
AcDbArc
 50
99.830365
 51
121.228475
  0
ARC
  5
285
100
AcDbEntity
  8
2
100
AcDbCircle
 10
-355.364938
 20
257.361254
 30
0.0
 40
41.0
100
AcDbArc
 50
328.771525
 51
350.169635
  0
ARC
  5
286
100
AcDbEntity
  8
2
100
AcDbCircle
 10
-355.364938
 20
257.361254
 30
0.0
 40
41.0
100
AcDbArc
 50
9.830365
 51
31.228475
  0
ARC
  5
287
100
AcDbEntity
  8
2
100
AcDbCircle
 10
-355.364938
 20
257.361254
 30
0.0
 40
29.5
100
AcDbArc
 50
103.726539
 51
346.273461
  0
ARC
  5
288
100
AcDbEntity
  8
2
100
AcDbCircle
 10
-355.364938
 20
257.361254
 30
0.0
 40
29.5
100
AcDbArc
 50
13.726539
 51
76.273461
  0
ARC
  5
289
100
AcDbEntity
  8
2
100
AcDbCircle
 10
-311.364938
 20
262.361254
 30
0.0
 40
2.0
100
AcDbArc
 50
0.0
 51
90.0
  0
ARC
  5
28A
100
AcDbEntity
  8
2
100
AcDbCircle
 10
-311.364938
 20
252.361254
 30
0.0
 40
2.0
100
AcDbArc
 50
270.0
 51
360.0
  0
ARC
  5
28B
100
AcDbEntity
  8
2
100
AcDbCircle
 10
-350.364938
 20
301.361254
 30
0.0
 40
2.0
100
AcDbArc
 50
0.0
 51
90.0
  0
ARC
  5
28C
100
AcDbEntity
  8
2
100
AcDbCircle
 10
-360.364938
 20
301.361254
 30
0.0
 40
2.0
100
AcDbArc
 50
90.0
 51
180.0
  0
ARC
  5
28D
100
AcDbEntity
  8
2
100
AcDbCircle
 10
-355.364938
 20
257.361254
 30
0.0
 40
40.0
100
AcDbArc
 50
10.078658
 51
31.228475
  0
ARC
  5
28E
100
AcDbEntity
  8
2
100
AcDbCircle
 10
-325.666453
 20
287.059739
 30
0.0
 40
6.5
100
AcDbArc
 50
319.014638
 51
130.985362
  0
ARC
  5
28F
100
AcDbEntity
  8
2
100
AcDbCircle
 10
-355.364938
 20
257.361254
 30
0.0
 40
40.0
100
AcDbArc
 50
58.771525
 51
79.921342
  0
ARC
  5
290
100
AcDbEntity
  8
2
100
AcDbCircle
 10
-355.364938
 20
257.361254
 30
0.0
 40
40.0
100
AcDbArc
 50
100.078658
 51
121.228475
  0
ARC
  5
291
100
AcDbEntity
  8
2
100
AcDbCircle
 10
-385.063423
 20
287.059739
 30
0.0
 40
6.5
100
AcDbArc
 50
49.014638
 51
220.985362
  0
ARC
  5
292
100
AcDbEntity
  8
2
100
AcDbCircle
 10
-355.364938
 20
257.361254
 30
0.0
 40
40.0
100
AcDbArc
 50
148.771525
 51
211.228475
  0
ARC
  5
293
100
AcDbEntity
  8
2
100
AcDbCircle
 10
-385.063423
 20
227.66277
 30
0.0
 40
6.5
100
AcDbArc
 50
139.014638
 51
310.985362
  0
ARC
  5
294
100
AcDbEntity
  8
2
100
AcDbCircle
 10
-355.364938
 20
257.361254
 30
0.0
 40
40.0
100
AcDbArc
 50
238.771525
 51
301.228475
  0
ARC
  5
295
100
AcDbEntity
  8
2
100
AcDbCircle
 10
-325.666453
 20
227.66277
 30
0.0
 40
6.5
100
AcDbArc
 50
229.014638
 51
40.985362
  0
ARC
  5
296
100
AcDbEntity
  8
2
100
AcDbCircle
 10
-355.364938
 20
257.361254
 30
0.0
 40
40.0
100
AcDbArc
 50
328.771525
 51
349.921342
  0
ARC
  5
297
100
AcDbEntity
  8
2
100
AcDbCircle
 10
-332.553048
 20
294.98595
 30
0.0
 40
4.0
100
AcDbArc
 50
238.771525
 51
310.985362
  0
ARC
  5
298
100
AcDbEntity
  8
2
100
AcDbCircle
 10
-317.740243
 20
280.173144
 30
0.0
 40
4.0
100
AcDbArc
 50
139.014638
 51
211.228475
  0
ARC
  5
299
100
AcDbEntity
  8
2
100
AcDbCircle
 10
-317.740243
 20
234.549365
 30
0.0
 40
4.0
100
AcDbArc
 50
148.771525
 51
220.985362
  0
ARC
  5
29A
100
AcDbEntity
  8
2
100
AcDbCircle
 10
-332.553048
 20
219.736559
 30
0.0
 40
4.0
100
AcDbArc
 50
49.014638
 51
121.228475
  0
ARC
  5
29B
100
AcDbEntity
  8
2
100
AcDbCircle
 10
-378.176828
 20
219.736559
 30
0.0
 40
4.0
100
AcDbArc
 50
58.771525
 51
130.985362
  0
ARC
  5
29C
100
AcDbEntity
  8
2
100
AcDbCircle
 10
-392.989633
 20
234.549365
 30
0.0
 40
4.0
100
AcDbArc
 50
319.014638
 51
31.228475
  0
ARC
  5
29D
100
AcDbEntity
  8
2
100
AcDbCircle
 10
-392.989633
 20
280.173144
 30
0.0
 40
4.0
100
AcDbArc
 50
328.771525
 51
40.985362
  0
ARC
  5
29E
100
AcDbEntity
  8
2
100
AcDbCircle
 10
-378.176828
 20
294.98595
 30
0.0
 40
4.0
100
AcDbArc
 50
229.014638
 51
301.228475
  0
CIRCLE
  5
29F
100
AcDbEntity
  8
2
100
AcDbCircle
 10
-355.364938
 20
257.361254
 30
0.0
 40
19.0
  0
LINE
  5
2A0
100
AcDbEntity
  8
2
100
AcDbLine
 10
-354.364938
 20
279.361254
 30
0.0
 11
-356.364938
 21
279.361254
 31
0.0
  0
LINE
  5
2A1
100
AcDbEntity
  8
2
100
AcDbLine
 10
-333.364938
 20
258.361254
 30
0.0
 11
-333.364938
 21
256.361254
 31
0.0
  0
LINE
  5
2A2
100
AcDbEntity
  8
2
100
AcDbLine
 10
-325.364938
 20
258.361254
 30
0.0
 11
-325.364938
 21
256.361254
 31
0.0
  0
LINE
  5
2A3
100
AcDbEntity
  8
2
100
AcDbLine
 10
-354.364938
 20
287.361254
 30
0.0
 11
-356.364938
 21
287.361254
 31
0.0
  0
LINE
  5
2A4
100
AcDbEntity
  8
2
100
AcDbLine
 10
-357.364938
 20
286.361254
 30
0.0
 11
-357.364938
 21
280.361254
 31
0.0
  0
LINE
  5
2A5
100
AcDbEntity
  8
2
100
AcDbLine
 10
-353.364938
 20
286.361254
 30
0.0
 11
-353.364938
 21
280.361254
 31
0.0
  0
LINE
  5
2A6
100
AcDbEntity
  8
2
100
AcDbLine
 10
-332.364938
 20
259.361254
 30
0.0
 11
-326.364938
 21
259.361254
 31
0.0
  0
LINE
  5
2A7
100
AcDbEntity
  8
2
100
AcDbLine
 10
-332.364938
 20
255.361254
 30
0.0
 11
-326.364938
 21
255.361254
 31
0.0
  0
ARC
  5
2A8
100
AcDbEntity
  8
2
100
AcDbCircle
 10
-332.364938
 20
258.361254
 30
0.0
 40
1.0
100
AcDbArc
 50
90.0
 51
180.0
  0
ARC
  5
2A9
100
AcDbEntity
  8
2
100
AcDbCircle
 10
-332.364938
 20
256.361254
 30
0.0
 40
1.0
100
AcDbArc
 50
180.0
 51
270.0
  0
ARC
  5
2AA
100
AcDbEntity
  8
2
100
AcDbCircle
 10
-326.364938
 20
256.361254
 30
0.0
 40
1.0
100
AcDbArc
 50
270.0
 51
360.0
  0
ARC
  5
2AB
100
AcDbEntity
  8
2
100
AcDbCircle
 10
-326.364938
 20
258.361254
 30
0.0
 40
1.0
100
AcDbArc
 50
0.0
 51
90.0
  0
ARC
  5
2AC
100
AcDbEntity
  8
2
100
AcDbCircle
 10
-354.364938
 20
280.361254
 30
0.0
 40
1.0
100
AcDbArc
 50
270.0
 51
360.0
  0
ARC
  5
2AD
100
AcDbEntity
  8
2
100
AcDbCircle
 10
-356.364938
 20
280.361254
 30
0.0
 40
1.0
100
AcDbArc
 50
180.0
 51
270.0
  0
ARC
  5
2AE
100
AcDbEntity
  8
2
100
AcDbCircle
 10
-356.364938
 20
286.361254
 30
0.0
 40
1.0
100
AcDbArc
 50
90.0
 51
180.0
  0
ARC
  5
2AF
100
AcDbEntity
  8
2
100
AcDbCircle
 10
-354.364938
 20
286.361254
 30
0.0
 40
1.0
100
AcDbArc
 50
0.0
 51
90.0
  0
ARC
  5
2B0
100
AcDbEntity
  8
2
100
AcDbCircle
 10
-342.614938
 20
279.444902
 30
0.0
 40
1.5
100
AcDbArc
 50
330.0
 51
150.0
  0
ARC
  5
2B1
100
AcDbEntity
  8
2
100
AcDbCircle
 10
-343.614938
 20
277.712851
 30
0.0
 40
1.5
100
AcDbArc
 50
150.0
 51
330.0
  0
ARC
  5
2B2
100
AcDbEntity
  8
2
100
AcDbCircle
 10
-333.28129
 20
270.111254
 30
0.0
 40
1.5
100
AcDbArc
 50
300.0
 51
120.0
  0
ARC
  5
2B3
100
AcDbEntity
  8
2
100
AcDbCircle
 10
-335.013341
 20
269.111254
 30
0.0
 40
1.5
100
AcDbArc
 50
120.0
 51
300.0
  0
LINE
  5
2B4
100
AcDbEntity
  8
2
100
AcDbLine
 10
-335.763341
 20
270.410293
 30
0.0
 11
-334.03129
 21
271.410293
 31
0.0
  0
LINE
  5
2B5
100
AcDbEntity
  8
2
100
AcDbLine
 10
-334.263341
 20
267.812216
 30
0.0
 11
-332.53129
 21
268.812216
 31
0.0
  0
LINE
  5
2B6
100
AcDbEntity
  8
2
100
AcDbLine
 10
-342.3159
 20
276.962851
 30
0.0
 11
-341.3159
 21
278.694902
 31
0.0
  0
LINE
  5
2B7
100
AcDbEntity
  8
2
100
AcDbLine
 10
-344.913976
 20
278.462851
 30
0.0
 11
-343.913976
 21
280.194902
 31
0.0
  0
LINE
  5
2B8
100
AcDbEntity
  8
2
100
AcDbLine
 10
-310.364938
 20
262.361254
 30
0.0
 11
-310.364938
 21
252.361254
 31
0.0
  0
LINE
  5
2B9
100
AcDbEntity
  8
2
100
AcDbLine
 10
-360.364938
 20
302.361254
 30
0.0
 11
-350.364938
 21
302.361254
 31
0.0
  0
LINE
  5
2BA
100
AcDbEntity
  8
2
100
AcDbLine
 10
-349.364938
 20
301.361254
 30
0.0
 11
-349.364938
 21
285.222518
 31
0.0
  0
LINE
  5
2BB
100
AcDbEntity
  8
2
100
AcDbLine
 10
-361.364938
 20
301.361254
 30
0.0
 11
-361.364938
 21
285.222518
 31
0.0
  0
ARC
  5
2BC
100
AcDbEntity
  8
2
100
AcDbCircle
 10
-355.364938
 20
257.361254
 30
0.0
 40
28.5
100
AcDbArc
 50
102.153197
 51
347.846803
  0
ARC
  5
2BD
100
AcDbEntity
  8
2
100
AcDbCircle
 10
-355.364938
 20
257.361254
 30
0.0
 40
28.5
100
AcDbArc
 50
12.153197
 51
77.846803
  0
LINE
  5
2BE
100
AcDbEntity
  8
2
100
AcDbLine
 10
-327.503674
 20
263.361254
 30
0.0
 11
-311.364938
 21
263.361254
 31
0.0
  0
LINE
  5
2BF
100
AcDbEntity
  8
2
100
AcDbLine
 10
-327.503674
 20
251.361254
 30
0.0
 11
-311.364938
 21
251.361254
 31
0.0
  0
ARC
  5
2C0
100
AcDbEntity
  8
2
100
AcDbCircle
 10
-311.364938
 20
262.361254
 30
0.0
 40
1.0
100
AcDbArc
 50
360.0
 51
90.0
  0
ARC
  5
2C1
100
AcDbEntity
  8
2
100
AcDbCircle
 10
-311.364938
 20
252.361254
 30
0.0
 40
1.0
100
AcDbArc
 50
270.0
 51
360.0
  0
ARC
  5
2C2
100
AcDbEntity
  8
2
100
AcDbCircle
 10
-350.364938
 20
301.361254
 30
0.0
 40
1.0
100
AcDbArc
 50
0.0
 51
90.0
  0
ARC
  5
2C3
100
AcDbEntity
  8
2
100
AcDbCircle
 10
-360.364938
 20
301.361254
 30
0.0
 40
1.0
100
AcDbArc
 50
90.0
 51
180.0
  0
LINE
  5
2C4
100
AcDbEntity
  8
2
100
AcDbLine
 10
-349.364938
 20
285.222518
 30
0.0
 11
-348.364938
 21
286.018714
 31
0.0
  0
LINE
  5
2C5
100
AcDbEntity
  8
2
100
AcDbLine
 10
-361.364938
 20
285.222518
 30
0.0
 11
-362.364938
 21
286.018714
 31
0.0
  0
LINE
  5
2C6
100
AcDbEntity
  8
2
100
AcDbLine
 10
-326.707478
 20
264.361254
 30
0.0
 11
-327.503674
 21
263.361254
 31
0.0
  0
LINE
  5
2C7
100
AcDbEntity
  8
2
100
AcDbLine
 10
-327.503674
 20
251.361254
 30
0.0
 11
-326.707478
 21
250.361254
 31
0.0
  0
LINE
  5
2C8
100
AcDbEntity
  8
2
100
AcDbLine
 10
-313.564938
 20
204.361254
 30
0.0
 11
-313.564938
 21
197.256147
 31
0.0
  0
LINE
  5
2C9
100
AcDbEntity
  8
2
100
AcDbLine
 10
-313.564938
 20
197.256147
 30
0.0
 11
-315.114938
 21
196.361254
 31
0.0
  0
LINE
  5
2CA
100
AcDbEntity
  8
2
100
AcDbLine
 10
-315.114938
 20
196.361254
 30
0.0
 11
-331.614938
 21
196.361254
 31
0.0
  0
LINE
  5
2CB
100
AcDbEntity
  8
2
100
AcDbLine
 10
-318.464938
 20
204.361254
 30
0.0
 11
-318.464938
 21
197.256147
 31
0.0
  0
ARC
  5
2CC
100
AcDbEntity
  8
2
100
AcDbCircle
 10
-316.014938
 20
200.405705
 30
0.0
 40
3.990265
100
AcDbArc
 50
232.121121
 51
307.878879
  0
LINE
  5
2CD
100
AcDbEntity
  8
2
100
AcDbLine
 10
-333.164938
 20
204.361254
 30
0.0
 11
-333.164938
 21
197.256147
 31
0.0
  0
LINE
  5
2CE
100
AcDbEntity
  8
2
100
AcDbLine
 10
-333.164938
 20
197.256147
 30
0.0
 11
-331.614938
 21
196.361254
 31
0.0
  0
LINE
  5
2CF
100
AcDbEntity
  8
2
100
AcDbLine
 10
-328.264938
 20
204.361254
 30
0.0
 11
-328.264938
 21
197.256147
 31
0.0
  0
ARC
  5
2D0
100
AcDbEntity
  8
2
100
AcDbCircle
 10
-330.714938
 20
200.405705
 30
0.0
 40
3.990265
100
AcDbArc
 50
232.121121
 51
307.878879
  0
ARC
  5
2D1
100
AcDbEntity
  8
2
100
AcDbCircle
 10
-323.364938
 20
211.11544
 30
0.0
 40
14.7
100
AcDbArc
 50
250.528777
 51
289.471219
  0
LINE
  5
2D2
100
AcDbEntity
  8
2
100
AcDbLine
 10
-313.364938
 20
204.461506
 30
0.0
 11
-313.364938
 21
204.361254
 31
0.0
  0
LINE
  5
2D3
100
AcDbEntity
  8
2
100
AcDbLine
 10
-327.552938
 20
192.361254
 30
0.0
 11
-319.176938
 21
192.361254
 31
0.0
  0
LINE
  5
2D4
100
AcDbEntity
  8
2
100
AcDbLine
 10
-327.552938
 20
192.361254
 30
0.0
 11
-328.364938
 21
193.173254
 31
0.0
  0
LINE
  5
2D5
100
AcDbEntity
  8
2
100
AcDbLine
 10
-328.364938
 20
193.173254
 30
0.0
 11
-328.364938
 21
196.361254
 31
0.0
  0
LINE
  5
2D6
100
AcDbEntity
  8
2
 62
     2
100
AcDbLine
 10
-327.552938
 20
192.361254
 30
0.0
 11
-327.552938
 21
196.361254
 31
0.0
  0
LINE
  5
2D7
100
AcDbEntity
  8
2
100
AcDbLine
 10
-319.176938
 20
192.361254
 30
0.0
 11
-318.364938
 21
193.173254
 31
0.0
  0
LINE
  5
2D8
100
AcDbEntity
  8
2
100
AcDbLine
 10
-318.364938
 20
193.173254
 30
0.0
 11
-318.364938
 21
196.361254
 31
0.0
  0
LINE
  5
2D9
100
AcDbEntity
  8
2
100
AcDbLine
 10
-318.364938
 20
193.173254
 30
0.0
 11
-328.364938
 21
193.173254
 31
0.0
  0
LINE
  5
2DA
100
AcDbEntity
  8
2
 62
     2
100
AcDbLine
 10
-319.176938
 20
192.361254
 30
0.0
 11
-319.176938
 21
196.361254
 31
0.0
  0
LINE
  5
2DB
100
AcDbEntity
  8
2
100
AcDbLine
 10
-298.769593
 20
8.661254
 30
0.0
 11
-411.960282
 21
8.661254
 31
0.0
  0
LINE
  5
2DC
100
AcDbEntity
  8
2
100
AcDbLine
 10
-309.364938
 20
9.661254
 30
0.0
 11
-395.364938
 21
9.661254
 31
0.0
  0
LINE
  5
2DD
100
AcDbEntity
  8
2
100
AcDbLine
 10
-395.364938
 20
9.661254
 30
0.0
 11
-396.364938
 21
8.661254
 31
0.0
  0
LINE
  5
2DE
100
AcDbEntity
  8
2
100
AcDbLine
 10
-315.9822
 20
9.661254
 30
0.0
 11
-314.966918
 21
8.661254
 31
0.0
  0
LINE
  5
2DF
100
AcDbEntity
  8
2
100
AcDbLine
 10
-392.563423
 20
8.661254
 30
0.0
 11
-391.563423
 21
9.661254
 31
0.0
  0
LINE
  5
2E0
100
AcDbEntity
  8
2
100
AcDbLine
 10
-380.800292
 20
9.661254
 30
0.0
 11
-380.144426
 21
8.661254
 31
0.0
  0
LINE
  5
2E1
100
AcDbEntity
  8
2
100
AcDbLine
 10
-376.621471
 20
8.661254
 30
0.0
 11
-376.103019
 21
9.661254
 31
0.0
  0
LINE
  5
2E2
100
AcDbEntity
  8
2
  6
CENTER
 62
     2
100
AcDbLine
 10
-385.063423
 20
18.989133
 30
0.0
 11
-385.063423
 21
-0.817683
 31
0.0
  0
LINE
  5
2E3
100
AcDbEntity
  8
2
100
AcDbLine
 10
-318.166453
 20
8.661254
 30
0.0
 11
-319.166453
 21
9.661254
 31
0.0
  0
LINE
  5
2E4
100
AcDbEntity
  8
2
100
AcDbLine
 10
-329.929583
 20
9.661254
 30
0.0
 11
-330.585449
 21
8.661254
 31
0.0
  0
LINE
  5
2E5
100
AcDbEntity
  8
2
100
AcDbLine
 10
-334.108404
 20
8.661254
 30
0.0
 11
-334.626856
 21
9.661254
 31
0.0
  0
LINE
  5
2E6
100
AcDbEntity
  8
2
  6
CENTER
 62
     2
100
AcDbLine
 10
-325.666453
 20
18.989133
 30
0.0
 11
-325.666453
 21
-0.817683
 31
0.0
  0
LINE
  5
2E7
100
AcDbEntity
  8
2
100
AcDbLine
 10
-310.364938
 20
10.661254
 30
0.0
 11
-383.864938
 21
10.661254
 31
0.0
  0
LINE
  5
2E8
100
AcDbEntity
  8
2
100
AcDbLine
 10
-309.364938
 20
9.661254
 30
0.0
 11
-309.364938
 21
8.661254
 31
0.0
  0
LINE
  5
2E9
100
AcDbEntity
  8
2
100
AcDbLine
 10
-384.864938
 20
9.661254
 30
0.0
 11
-383.864938
 21
10.661254
 31
0.0
  0
LINE
  5
2EA
100
AcDbEntity
  8
2
100
AcDbLine
 10
-310.364938
 20
10.661254
 30
0.0
 11
-309.364938
 21
9.661254
 31
0.0
  0
LINE
  5
2EB
100
AcDbEntity
  8
2
100
AcDbLine
 10
-327.503674
 20
10.661254
 30
0.0
 11
-326.707478
 21
9.661254
 31
0.0
  0
LINE
  5
2EC
100
AcDbEntity
  8
2
100
AcDbLine
 10
-338.72754
 20
37.661254
 30
0.0
 11
-372.002335
 21
37.661254
 31
0.0
  0
LINE
  5
2ED
100
AcDbEntity
  8
2
100
AcDbLine
 10
-337.364938
 20
11.661254
 30
0.0
 11
-373.364938
 21
11.661254
 31
0.0
  0
LINE
  5
2EE
100
AcDbEntity
  8
2
100
AcDbLine
 10
-374.364938
 20
10.661254
 30
0.0
 11
-373.364938
 21
11.661254
 31
0.0
  0
LINE
  5
2EF
100
AcDbEntity
  8
2
100
AcDbLine
 10
-336.364938
 20
10.661254
 30
0.0
 11
-337.364938
 21
11.661254
 31
0.0
  0
LINE
  5
2F0
100
AcDbEntity
  8
2
100
AcDbLine
 10
-373.364938
 20
11.661254
 30
0.0
 11
-372.002335
 21
37.661254
 31
0.0
  0
LINE
  5
2F1
100
AcDbEntity
  8
2
100
AcDbLine
 10
-337.364938
 20
11.661254
 30
0.0
 11
-338.72754
 21
37.661254
 31
0.0
  0
CIRCLE
  5
2F2
100
AcDbEntity
  8
2
100
AcDbCircle
 10
-355.364938
 20
257.361254
 30
0.0
 40
18.0
  0
LINE
  5
2F3
100
AcDbEntity
  8
2
100
AcDbLine
 10
-372.891774
 20
261.461254
 30
0.0
 11
-347.861686
 21
261.461254
 31
0.0
  0
LINE
  5
2F4
100
AcDbEntity
  8
2
100
AcDbLine
 10
-372.891774
 20
253.261254
 30
0.0
 11
-347.861686
 21
253.261254
 31
0.0
  0
ARC
  5
2F5
100
AcDbEntity
  8
2
100
AcDbCircle
 10
-355.364938
 20
257.361254
 30
0.0
 40
16.637398
100
AcDbArc
 50
167.32707
 51
192.67293
  0
ARC
  5
2F6
100
AcDbEntity
  8
2
100
AcDbCircle
 10
-355.364938
 20
257.361254
 30
0.0
 40
16.637398
100
AcDbArc
 50
357.0715
 51
2.9285
  0
LINE
  5
2F7
100
AcDbEntity
  8
2
100
AcDbLine
 10
-371.59702
 20
261.011254
 30
0.0
 11
-349.19901
 21
261.011254
 31
0.0
  0
LINE
  5
2F8
100
AcDbEntity
  8
2
100
AcDbLine
 10
-371.59702
 20
253.711254
 30
0.0
 11
-349.19901
 21
253.711254
 31
0.0
  0
LINE
  5
2F9
100
AcDbEntity
  8
2
100
AcDbLine
 10
-371.59702
 20
261.011254
 30
0.0
 11
-372.891774
 21
261.461254
 31
0.0
  0
LINE
  5
2FA
100
AcDbEntity
  8
2
100
AcDbLine
 10
-371.59702
 20
253.711254
 30
0.0
 11
-372.891774
 21
253.261254
 31
0.0
  0
LINE
  5
2FB
100
AcDbEntity
  8
2
100
AcDbLine
 10
-371.59702
 20
37.661254
 30
0.0
 11
-372.891774
 21
11.661254
 31
0.0
  0
LINE
  5
2FC
100
AcDbEntity
  8
2
100
AcDbLine
 10
-337.411944
 20
258.661254
 30
0.0
 11
-347.861686
 21
261.461254
 31
0.0
  0
LINE
  5
2FD
100
AcDbEntity
  8
2
100
AcDbLine
 10
-337.411944
 20
256.061254
 30
0.0
 11
-347.861686
 21
253.261254
 31
0.0
  0
LINE
  5
2FE
100
AcDbEntity
  8
2
100
AcDbLine
 10
-338.749267
 20
258.211254
 30
0.0
 11
-349.19901
 21
261.011254
 31
0.0
  0
LINE
  5
2FF
100
AcDbEntity
  8
2
100
AcDbLine
 10
-338.749267
 20
256.511254
 30
0.0
 11
-349.19901
 21
253.711254
 31
0.0
  0
LINE
  5
300
100
AcDbEntity
  8
2
100
AcDbLine
 10
-338.749267
 20
258.211254
 30
0.0
 11
-337.411944
 21
258.661254
 31
0.0
  0
LINE
  5
301
100
AcDbEntity
  8
2
100
AcDbLine
 10
-338.749267
 20
256.511254
 30
0.0
 11
-337.411944
 21
256.061254
 31
0.0
  0
LINE
  5
302
100
AcDbEntity
  8
2
100
AcDbLine
 10
-349.19901
 20
261.011254
 30
0.0
 11
-347.861686
 21
261.461254
 31
0.0
  0
LINE
  5
303
100
AcDbEntity
  8
2
100
AcDbLine
 10
-349.19901
 20
253.711254
 30
0.0
 11
-347.861686
 21
253.261254
 31
0.0
  0
LINE
  5
304
100
AcDbEntity
  8
2
100
AcDbLine
 10
-349.19901
 20
37.661254
 30
0.0
 11
-347.861686
 21
11.661254
 31
0.0
  0
LINE
  5
305
100
AcDbEntity
  8
2
100
AcDbLine
 10
-290.228912
 20
-45.338746
 30
0.0
 11
-420.500963
 21
-45.338746
 31
0.0
  0
LINE
  5
306
100
AcDbEntity
  8
2
100
AcDbLine
 10
-292.364938
 20
-54.338746
 30
0.0
 11
-418.364938
 21
-54.338746
 31
0.0
  0
LINE
  5
307
100
AcDbEntity
  8
2
100
AcDbLine
 10
-406.364938
 20
-46.338746
 30
0.0
 11
-406.364938
 21
-54.338746
 31
0.0
  0
LINE
  5
308
100
AcDbEntity
  8
2
100
AcDbLine
 10
-304.364938
 20
-46.338746
 30
0.0
 11
-304.364938
 21
-54.338746
 31
0.0
  0
ARC
  5
309
100
AcDbEntity
  8
2
100
AcDbCircle
 10
-303.364938
 20
-46.338746
 30
0.0
 40
1.0
100
AcDbArc
 50
90.0
 51
180.0
  0
ARC
  5
30A
100
AcDbEntity
  8
2
100
AcDbCircle
 10
-407.364938
 20
-46.338746
 30
0.0
 40
1.0
100
AcDbArc
 50
0.0
 51
90.0
  0
LINE
  5
30B
100
AcDbEntity
  8
2
100
AcDbLine
 10
-418.364938
 20
-46.338746
 30
0.0
 11
-418.364938
 21
-54.338746
 31
0.0
  0
LINE
  5
30C
100
AcDbEntity
  8
2
100
AcDbLine
 10
-292.364938
 20
-46.338746
 30
0.0
 11
-292.364938
 21
-54.338746
 31
0.0
  0
ARC
  5
30D
100
AcDbEntity
  8
2
100
AcDbCircle
 10
-291.364938
 20
-46.338746
 30
0.0
 40
1.0
100
AcDbArc
 50
90.0
 51
180.0
  0
ARC
  5
30E
100
AcDbEntity
  8
2
100
AcDbCircle
 10
-419.364938
 20
-46.338746
 30
0.0
 40
1.0
100
AcDbArc
 50
0.0
 51
90.0
  0
LINE
  5
30F
100
AcDbEntity
  8
2
  6
CENTER
 62
     2
100
AcDbLine
 10
-323.364938
 20
-12.895823
 30
0.0
 11
-323.364938
 21
-42.744792
 31
0.0
  0
LINE
  5
310
100
AcDbEntity
  8
2
  6
CENTER
 62
     2
100
AcDbLine
 10
-307.100488
 20
-27.338746
 30
0.0
 11
-339.724221
 21
-27.338746
 31
0.0
  0
LINE
  5
311
100
AcDbEntity
  8
2
100
AcDbLine
 10
-313.364938
 20
-27.338746
 30
0.0
 11
-313.364938
 21
-18.338746
 31
0.0
  0
LINE
  5
312
100
AcDbEntity
  8
2
100
AcDbLine
 10
-333.364938
 20
-27.338746
 30
0.0
 11
-333.364938
 21
-18.338746
 31
0.0
  0
ARC
  5
313
100
AcDbEntity
  8
2
100
AcDbCircle
 10
-323.364938
 20
-27.338746
 30
0.0
 40
10.0
100
AcDbArc
 50
180.0
 51
360.0
  0
CIRCLE
  5
314
100
AcDbEntity
  8
2
 62
     2
100
AcDbCircle
 10
-323.364938
 20
-27.338746
 30
0.0
 40
4.188
  0
CIRCLE
  5
315
100
AcDbEntity
  8
2
100
AcDbCircle
 10
-323.364938
 20
-27.338746
 30
0.0
 40
8.25
  0
CIRCLE
  5
316
100
AcDbEntity
  8
2
100
AcDbCircle
 10
-323.364938
 20
-27.338746
 30
0.0
 40
5.0
  0
LINE
  5
317
100
AcDbEntity
  8
2
100
AcDbLine
 10
-318.45746
 20
-18.838746
 30
0.0
 11
-328.272415
 21
-18.838746
 31
0.0
  0
LINE
  5
318
100
AcDbEntity
  8
2
100
AcDbLine
 10
-318.45746
 20
-35.838746
 30
0.0
 11
-328.272415
 21
-35.838746
 31
0.0
  0
LINE
  5
319
100
AcDbEntity
  8
2
100
AcDbLine
 10
-328.272415
 20
-18.838746
 30
0.0
 11
-333.179892
 21
-27.338746
 31
0.0
  0
LINE
  5
31A
100
AcDbEntity
  8
2
100
AcDbLine
 10
-313.549983
 20
-27.338746
 30
0.0
 11
-318.45746
 21
-35.838746
 31
0.0
  0
LINE
  5
31B
100
AcDbEntity
  8
2
100
AcDbLine
 10
-333.179892
 20
-27.338746
 30
0.0
 11
-328.272415
 21
-35.838746
 31
0.0
  0
LINE
  5
31C
100
AcDbEntity
  8
2
100
AcDbLine
 10
-318.45746
 20
-18.838746
 30
0.0
 11
-313.549983
 21
-27.338746
 31
0.0
  0
LINE
  5
31D
100
AcDbEntity
  8
2
  6
CENTER
 62
     2
100
AcDbLine
 10
-319.302492
 20
-85.01696
 30
0.0
 11
-319.302492
 21
-43.279475
 31
0.0
  0
LINE
  5
31E
100
AcDbEntity
  8
2
  6
CENTER
 62
     2
100
AcDbLine
 10
-391.427384
 20
-85.01696
 30
0.0
 11
-391.427384
 21
-43.279475
 31
0.0
  0
LINE
  5
31F
100
AcDbEntity
  8
2
100
AcDbLine
 10
-325.864938
 20
-25.89537
 30
0.0
 11
-325.864938
 21
-28.782121
 31
0.0
  0
LINE
  5
320
100
AcDbEntity
  8
2
100
AcDbLine
 10
-320.864938
 20
-25.89537
 30
0.0
 11
-320.864938
 21
-28.782121
 31
0.0
  0
LINE
  5
321
100
AcDbEntity
  8
2
100
AcDbLine
 10
-323.364938
 20
-24.451994
 30
0.0
 11
-320.864938
 21
-25.89537
 31
0.0
  0
LINE
  5
322
100
AcDbEntity
  8
2
100
AcDbLine
 10
-325.864938
 20
-28.782121
 30
0.0
 11
-323.364938
 21
-30.225497
 31
0.0
  0
LINE
  5
323
100
AcDbEntity
  8
2
100
AcDbLine
 10
-323.364938
 20
-30.225497
 30
0.0
 11
-320.864938
 21
-28.782121
 31
0.0
  0
LINE
  5
324
100
AcDbEntity
  8
2
100
AcDbLine
 10
-325.864938
 20
-25.89537
 30
0.0
 11
-323.364938
 21
-24.451994
 31
0.0
  0
LINE
  5
325
100
AcDbEntity
  8
2
100
AcDbLine
 10
194.335062
 20
8.661254
 30
0.0
 11
81.239718
 21
8.661254
 31
0.0
  0
LINE
  5
326
100
AcDbEntity
  8
2
100
AcDbLine
 10
194.335062
 20
-45.338746
 30
0.0
 11
72.699037
 21
-45.338746
 31
0.0
  0
ARC
  5
327
100
AcDbEntity
  8
2
100
AcDbCircle
 10
194.335062
 20
-18.338746
 30
0.0
 40
27.0
100
AcDbArc
 50
270.0
 51
90.0
  0
CIRCLE
  5
328
100
AcDbEntity
  8
2
100
AcDbCircle
 10
194.335062
 20
-18.338746
 30
0.0
 40
8.0
  0
LINE
  5
329
100
AcDbEntity
  8
2
100
AcDbLine
 10
70.335062
 20
-18.338746
 30
0.0
 11
71.253423
 21
-0.815386
 31
0.0
  0
LINE
  5
32A
100
AcDbEntity
  8
2
100
AcDbLine
 10
-287.864938
 20
-18.338746
 30
0.0
 11
-288.783298
 21
-0.815386
 31
0.0
  0
LINE
  5
32B
100
AcDbEntity
  8
2
100
AcDbLine
 10
-422.864938
 20
-18.338746
 30
0.0
 11
-421.946577
 21
-0.815386
 31
0.0
  0
ARC
  5
32C
100
AcDbEntity
  8
2
100
AcDbCircle
 10
-298.769593
 20
-1.338746
 30
0.0
 40
10.0
100
AcDbArc
 50
3.0
 51
90.0
  0
ARC
  5
32D
100
AcDbEntity
  8
2
100
AcDbCircle
 10
-411.960282
 20
-1.338746
 30
0.0
 40
10.0
100
AcDbArc
 50
90.0
 51
177.0
  0
LINE
  5
32E
100
AcDbEntity
  8
2
100
AcDbLine
 10
-287.864938
 20
-18.338746
 30
0.0
 11
-289.230283
 21
-44.391082
 31
0.0
  0
LINE
  5
32F
100
AcDbEntity
  8
2
100
AcDbLine
 10
-422.864938
 20
-18.338746
 30
0.0
 11
-421.499593
 21
-44.391082
 31
0.0
  0
ARC
  5
330
100
AcDbEntity
  8
2
100
AcDbCircle
 10
-420.500963
 20
-44.338746
 30
0.0
 40
1.0
100
AcDbArc
 50
183.0
 51
270.0
  0
ARC
  5
331
100
AcDbEntity
  8
2
100
AcDbCircle
 10
-290.228912
 20
-44.338746
 30
0.0
 40
1.0
100
AcDbArc
 50
270.0
 51
357.0
  0
ARC
  5
332
100
AcDbEntity
  8
2
100
AcDbCircle
 10
81.239718
 20
-1.338746
 30
0.0
 40
10.0
100
AcDbArc
 50
90.0
 51
177.0
  0
LINE
  5
333
100
AcDbEntity
  8
2
100
AcDbLine
 10
169.335062
 20
9.661254
 30
0.0
 11
83.335062
 21
9.661254
 31
0.0
  0
LINE
  5
334
100
AcDbEntity
  8
2
100
AcDbLine
 10
83.335062
 20
9.661254
 30
0.0
 11
82.335062
 21
8.661254
 31
0.0
  0
LINE
  5
335
100
AcDbEntity
  8
2
100
AcDbLine
 10
162.7178
 20
9.661254
 30
0.0
 11
163.733082
 21
8.661254
 31
0.0
  0
LINE
  5
336
100
AcDbEntity
  8
2
100
AcDbLine
 10
86.136577
 20
8.661254
 30
0.0
 11
87.136577
 21
9.661254
 31
0.0
  0
LINE
  5
337
100
AcDbEntity
  8
2
100
AcDbLine
 10
97.899708
 20
9.661254
 30
0.0
 11
98.555574
 21
8.661254
 31
0.0
  0
LINE
  5
338
100
AcDbEntity
  8
2
100
AcDbLine
 10
102.078529
 20
8.661254
 30
0.0
 11
102.596981
 21
9.661254
 31
0.0
  0
LINE
  5
339
100
AcDbEntity
  8
2
  6
CENTER
 62
     2
100
AcDbLine
 10
93.636577
 20
18.989133
 30
0.0
 11
93.636577
 21
-0.817683
 31
0.0
  0
LINE
  5
33A
100
AcDbEntity
  8
2
100
AcDbLine
 10
160.533547
 20
8.661254
 30
0.0
 11
159.533547
 21
9.661254
 31
0.0
  0
LINE
  5
33B
100
AcDbEntity
  8
2
100
AcDbLine
 10
148.770417
 20
9.661254
 30
0.0
 11
148.114551
 21
8.661254
 31
0.0
  0
LINE
  5
33C
100
AcDbEntity
  8
2
100
AcDbLine
 10
144.591596
 20
8.661254
 30
0.0
 11
144.073144
 21
9.661254
 31
0.0
  0
LINE
  5
33D
100
AcDbEntity
  8
2
  6
CENTER
 62
     2
100
AcDbLine
 10
153.033547
 20
18.989133
 30
0.0
 11
153.033547
 21
-0.817683
 31
0.0
  0
LINE
  5
33E
100
AcDbEntity
  8
2
100
AcDbLine
 10
168.335062
 20
10.661254
 30
0.0
 11
94.835062
 21
10.661254
 31
0.0
  0
LINE
  5
33F
100
AcDbEntity
  8
2
100
AcDbLine
 10
169.335062
 20
9.661254
 30
0.0
 11
169.335062
 21
8.661254
 31
0.0
  0
LINE
  5
340
100
AcDbEntity
  8
2
100
AcDbLine
 10
93.835062
 20
9.661254
 30
0.0
 11
94.835062
 21
10.661254
 31
0.0
  0
LINE
  5
341
100
AcDbEntity
  8
2
100
AcDbLine
 10
168.335062
 20
10.661254
 30
0.0
 11
169.335062
 21
9.661254
 31
0.0
  0
LINE
  5
342
100
AcDbEntity
  8
2
100
AcDbLine
 10
151.196326
 20
10.661254
 30
0.0
 11
151.992522
 21
9.661254
 31
0.0
  0
LINE
  5
343
100
AcDbEntity
  8
2
100
AcDbLine
 10
126.985062
 20
37.661254
 30
0.0
 11
119.685062
 21
37.661254
 31
0.0
  0
LINE
  5
344
100
AcDbEntity
  8
2
100
AcDbLine
 10
141.335062
 20
11.661254
 30
0.0
 11
105.335062
 21
11.661254
 31
0.0
  0
LINE
  5
345
100
AcDbEntity
  8
2
100
AcDbLine
 10
104.335062
 20
10.661254
 30
0.0
 11
105.335062
 21
11.661254
 31
0.0
  0
LINE
  5
346
100
AcDbEntity
  8
2
100
AcDbLine
 10
142.335062
 20
10.661254
 30
0.0
 11
141.335062
 21
11.661254
 31
0.0
  0
LINE
  5
347
100
AcDbEntity
  8
2
100
AcDbLine
 10
116.335062
 20
8.661254
 30
0.0
 11
116.335062
 21
9.661254
 31
0.0
  0
LINE
  5
348
100
AcDbEntity
  8
2
100
AcDbLine
 10
130.335062
 20
8.661254
 30
0.0
 11
130.335062
 21
9.661254
 31
0.0
  0
LINE
  5
349
100
AcDbEntity
  8
2
100
AcDbLine
 10
130.335062
 20
9.661254
 30
0.0
 11
129.335062
 21
10.661254
 31
0.0
  0
LINE
  5
34A
100
AcDbEntity
  8
2
100
AcDbLine
 10
116.335062
 20
9.661254
 30
0.0
 11
117.335062
 21
10.661254
 31
0.0
  0
LINE
  5
34B
100
AcDbEntity
  8
2
100
AcDbLine
 10
119.685062
 20
37.661254
 30
0.0
 11
119.235062
 21
11.661254
 31
0.0
  0
LINE
  5
34C
100
AcDbEntity
  8
2
100
AcDbLine
 10
127.435062
 20
11.661254
 30
0.0
 11
126.985062
 21
37.661254
 31
0.0
  0
LINE
  5
34D
100
AcDbEntity
  8
2
100
AcDbLine
 10
122.035062
 20
11.661254
 30
0.0
 11
122.485062
 21
37.661254
 31
0.0
  0
LINE
  5
34E
100
AcDbEntity
  8
2
100
AcDbLine
 10
124.635062
 20
11.661254
 30
0.0
 11
124.185062
 21
37.661254
 31
0.0
  0
LINE
  5
34F
100
AcDbEntity
  8
2
100
AcDbLine
 10
174.335062
 20
-54.338746
 30
0.0
 11
72.335062
 21
-54.338746
 31
0.0
  0
LINE
  5
350
100
AcDbEntity
  8
2
100
AcDbLine
 10
72.335062
 20
-54.338746
 30
0.0
 11
72.335062
 21
-45.801474
 31
0.0
  0
LINE
  5
351
100
AcDbEntity
  8
2
100
AcDbLine
 10
174.335062
 20
-54.338746
 30
0.0
 11
174.335062
 21
-47.338746
 31
0.0
  0
LINE
  5
352
100
AcDbEntity
  8
2
100
AcDbLine
 10
70.335062
 20
-18.338746
 30
0.0
 11
71.700407
 21
-44.391082
 31
0.0
  0
ARC
  5
353
100
AcDbEntity
  8
2
100
AcDbCircle
 10
72.699037
 20
-44.338746
 30
0.0
 40
1.0
100
AcDbArc
 50
183.0
 51
270.0
  0
ARC
  5
354
100
AcDbEntity
  8
2
100
AcDbCircle
 10
176.335062
 20
-47.338746
 30
0.0
 40
2.0
100
AcDbArc
 50
90.0
 51
180.0
  0
ARC
  5
355
100
AcDbEntity
  8
2
100
AcDbCircle
 10
71.335062
 20
-45.801474
 30
0.0
 40
1.0
100
AcDbArc
 50
0.0
 51
47.000866
  0
LINE
  5
356
100
AcDbEntity
  8
2
100
AcDbLine
 10
138.032001
 20
-54.338746
 30
0.0
 11
138.032001
 21
-46.338746
 31
0.0
  0
LINE
  5
357
100
AcDbEntity
  8
2
100
AcDbLine
 10
108.638124
 20
-54.338746
 30
0.0
 11
108.638124
 21
-46.338746
 31
0.0
  0
LINE
  5
358
100
AcDbEntity
  8
2
  6
CENTER
 62
     2
100
AcDbLine
 10
158.335062
 20
-34.068431
 30
0.0
 11
158.335062
 21
-14.459834
 31
0.0
  0
LINE
  5
359
100
AcDbEntity
  8
2
100
AcDbLine
 10
152.309545
 20
-23.338746
 30
0.0
 11
164.36058
 21
-23.338746
 31
0.0
  0
LINE
  5
35A
100
AcDbEntity
  8
2
100
AcDbLine
 10
206.309545
 20
-23.338746
 30
0.0
 11
220.025527
 21
-23.338746
 31
0.0
  0
LINE
  5
35B
100
AcDbEntity
  8
2
100
AcDbLine
 10
205.81023
 20
-23.812578
 30
0.0
 11
204.825809
 21
-42.596447
 31
0.0
  0
ARC
  5
35C
100
AcDbEntity
  8
2
100
AcDbCircle
 10
206.309545
 20
-23.838746
 30
0.0
 40
0.5
100
AcDbArc
 50
90.0
 51
177.0
  0
ARC
  5
35D
100
AcDbEntity
  8
2
100
AcDbCircle
 10
220.025527
 20
-22.338746
 30
0.0
 40
1.0
100
AcDbArc
 50
270.0
 51
351.150117
  0
ARC
  5
35E
100
AcDbEntity
  8
2
100
AcDbCircle
 10
203.827179
 20
-42.544111
 30
0.0
 40
1.0
100
AcDbArc
 50
291.412594
 51
357.0
  0
LINE
  5
35F
100
AcDbEntity
  8
2
100
AcDbLine
 10
151.81023
 20
-23.812578
 30
0.0
 11
150.731756
 21
-44.391082
 31
0.0
  0
LINE
  5
360
100
AcDbEntity
  8
2
100
AcDbLine
 10
164.859895
 20
-23.812578
 30
0.0
 11
165.938368
 21
-44.391082
 31
0.0
  0
ARC
  5
361
100
AcDbEntity
  8
2
100
AcDbCircle
 10
152.309545
 20
-23.838746
 30
0.0
 40
0.5
100
AcDbArc
 50
90.0
 51
177.0
  0
ARC
  5
362
100
AcDbEntity
  8
2
100
AcDbCircle
 10
164.36058
 20
-23.838746
 30
0.0
 40
0.5
100
AcDbArc
 50
3.0
 51
90.0
  0
ARC
  5
363
100
AcDbEntity
  8
2
100
AcDbCircle
 10
166.936998
 20
-44.338746
 30
0.0
 40
1.0
100
AcDbArc
 50
183.0
 51
270.0
  0
ARC
  5
364
100
AcDbEntity
  8
2
100
AcDbCircle
 10
149.733127
 20
-44.338746
 30
0.0
 40
1.0
100
AcDbArc
 50
270.0
 51
357.0
  0
LINE
  5
365
100
AcDbEntity
  8
2
100
AcDbLine
 10
163.335062
 20
-23.338746
 30
0.0
 11
163.335062
 21
-28.938746
 31
0.0
  0
LINE
  5
366
100
AcDbEntity
  8
2
100
AcDbLine
 10
163.335062
 20
-28.938746
 30
0.0
 11
162.642242
 21
-29.338746
 31
0.0
  0
LINE
  5
367
100
AcDbEntity
  8
2
100
AcDbLine
 10
163.335062
 20
-28.938746
 30
0.0
 11
153.335062
 21
-28.938746
 31
0.0
  0
LINE
  5
368
100
AcDbEntity
  8
2
100
AcDbLine
 10
153.335062
 20
-23.338746
 30
0.0
 11
153.335062
 21
-28.938746
 31
0.0
  0
LINE
  5
369
100
AcDbEntity
  8
2
100
AcDbLine
 10
153.335062
 20
-28.938746
 30
0.0
 11
154.027883
 21
-29.338746
 31
0.0
  0
LINE
  5
36A
100
AcDbEntity
  8
2
100
AcDbLine
 10
154.027883
 20
-29.338746
 30
0.0
 11
162.642242
 21
-29.338746
 31
0.0
  0
LINE
  5
36B
100
AcDbEntity
  8
2
  6
CENTER
 62
     2
100
AcDbLine
 10
212.335062
 20
-34.068431
 30
0.0
 11
212.335062
 21
-14.459834
 31
0.0
  0
LINE
  5
36C
100
AcDbEntity
  8
2
100
AcDbLine
 10
217.335062
 20
-23.338746
 30
0.0
 11
217.335062
 21
-28.938746
 31
0.0
  0
LINE
  5
36D
100
AcDbEntity
  8
2
100
AcDbLine
 10
217.335062
 20
-28.938746
 30
0.0
 11
216.642242
 21
-29.338746
 31
0.0
  0
LINE
  5
36E
100
AcDbEntity
  8
2
100
AcDbLine
 10
217.335062
 20
-28.938746
 30
0.0
 11
207.335062
 21
-28.938746
 31
0.0
  0
LINE
  5
36F
100
AcDbEntity
  8
2
100
AcDbLine
 10
207.335062
 20
-23.338746
 30
0.0
 11
207.335062
 21
-28.938746
 31
0.0
  0
LINE
  5
370
100
AcDbEntity
  8
2
100
AcDbLine
 10
207.335062
 20
-28.938746
 30
0.0
 11
208.027883
 21
-29.338746
 31
0.0
  0
LINE
  5
371
100
AcDbEntity
  8
2
100
AcDbLine
 10
208.027883
 20
-29.338746
 30
0.0
 11
216.642242
 21
-29.338746
 31
0.0
  0
LINE
  5
372
100
AcDbEntity
  8
2
100
AcDbLine
 10
71.33081
 20
-37.338746
 30
0.0
 11
70.335062
 21
-37.338746
 31
0.0
  0
LINE
  5
373
100
AcDbEntity
  8
2
100
AcDbLine
 10
70.335062
 20
-18.338746
 30
0.0
 11
70.335062
 21
-37.338746
 31
0.0
  0
LINE
  5
374
100
AcDbEntity
  8
2
  6
CENTER
 62
     2
100
AcDbLine
 10
79.711924
 20
-27.338746
 30
0.0
 11
50.533037
 21
-27.338746
 31
0.0
  0
LINE
  5
375
100
AcDbEntity
  8
2
100
AcDbLine
 10
70.335062
 20
-35.838746
 30
0.0
 11
62.335062
 21
-35.838746
 31
0.0
  0
LINE
  5
376
100
AcDbEntity
  8
2
100
AcDbLine
 10
62.335062
 20
-35.838746
 30
0.0
 11
62.335062
 21
-18.838746
 31
0.0
  0
ARC
  5
377
100
AcDbEntity
  8
2
100
AcDbCircle
 10
72.874498
 20
-31.588746
 30
0.0
 40
10.539436
100
AcDbArc
 50
156.218654
 51
203.781346
  0
LINE
  5
378
100
AcDbEntity
  8
2
100
AcDbLine
 10
70.335062
 20
-18.838746
 30
0.0
 11
62.335062
 21
-18.838746
 31
0.0
  0
LINE
  5
379
100
AcDbEntity
  8
2
100
AcDbLine
 10
70.335062
 20
-27.338746
 30
0.0
 11
63.229955
 21
-27.338746
 31
0.0
  0
ARC
  5
37A
100
AcDbEntity
  8
2
100
AcDbCircle
 10
72.874498
 20
-23.088746
 30
0.0
 40
10.539436
100
AcDbArc
 50
156.218654
 51
203.781346
  0
LINE
  5
37B
100
AcDbEntity
  8
2
100
AcDbLine
 10
58.335062
 20
-23.150746
 30
0.0
 11
59.147062
 21
-22.338746
 31
0.0
  0
LINE
  5
37C
100
AcDbEntity
  8
2
100
AcDbLine
 10
59.147062
 20
-22.338746
 30
0.0
 11
62.335062
 21
-22.338746
 31
0.0
  0
LINE
  5
37D
100
AcDbEntity
  8
2
100
AcDbLine
 10
59.147062
 20
-22.338746
 30
0.0
 11
59.147062
 21
-32.338746
 31
0.0
  0
LINE
  5
37E
100
AcDbEntity
  8
2
 62
     2
100
AcDbLine
 10
58.335062
 20
-23.150746
 30
0.0
 11
62.335062
 21
-23.150746
 31
0.0
  0
LINE
  5
37F
100
AcDbEntity
  8
2
100
AcDbLine
 10
58.335062
 20
-31.526746
 30
0.0
 11
58.335062
 21
-23.150746
 31
0.0
  0
LINE
  5
380
100
AcDbEntity
  8
2
100
AcDbLine
 10
58.335062
 20
-31.526746
 30
0.0
 11
59.147062
 21
-32.338746
 31
0.0
  0
LINE
  5
381
100
AcDbEntity
  8
2
100
AcDbLine
 10
59.147062
 20
-32.338746
 30
0.0
 11
62.335062
 21
-32.338746
 31
0.0
  0
LINE
  5
382
100
AcDbEntity
  8
2
 62
     2
100
AcDbLine
 10
58.335062
 20
-31.526746
 30
0.0
 11
62.335062
 21
-31.526746
 31
0.0
  0
ARC
  5
383
100
AcDbEntity
  8
2
100
AcDbCircle
 10
139.032001
 20
-46.338746
 30
0.0
 40
1.0
100
AcDbArc
 50
90.0
 51
180.0
  0
ARC
  5
384
100
AcDbEntity
  8
2
100
AcDbCircle
 10
107.638124
 20
-46.338746
 30
0.0
 40
1.0
100
AcDbArc
 50
0.0
 51
90.0
  0
LINE
  5
385
100
AcDbEntity
  8
2
100
AcDbLine
 10
-381.627384
 20
-76.943853
 30
0.0
 11
-383.177384
 21
-77.838746
 31
0.0
  0
LINE
  5
386
100
AcDbEntity
  8
2
100
AcDbLine
 10
-383.177384
 20
-77.838746
 30
0.0
 11
-399.677384
 21
-77.838746
 31
0.0
  0
LINE
  5
387
100
AcDbEntity
  8
2
100
AcDbLine
 10
-386.527384
 20
-70.838746
 30
0.0
 11
-386.527384
 21
-76.943853
 31
0.0
  0
ARC
  5
388
100
AcDbEntity
  8
2
100
AcDbCircle
 10
-384.077384
 20
-73.794295
 30
0.0
 40
3.990265
100
AcDbArc
 50
232.121121
 51
307.878879
  0
LINE
  5
389
100
AcDbEntity
  8
2
100
AcDbLine
 10
-381.627384
 20
-70.838746
 30
0.0
 11
-401.227384
 21
-70.838746
 31
0.0
  0
LINE
  5
38A
100
AcDbEntity
  8
2
100
AcDbLine
 10
-401.227384
 20
-70.838746
 30
0.0
 11
-401.227384
 21
-76.943853
 31
0.0
  0
LINE
  5
38B
100
AcDbEntity
  8
2
100
AcDbLine
 10
-401.227384
 20
-76.943853
 30
0.0
 11
-399.677384
 21
-77.838746
 31
0.0
  0
LINE
  5
38C
100
AcDbEntity
  8
2
100
AcDbLine
 10
-396.327384
 20
-70.838746
 30
0.0
 11
-396.327384
 21
-76.943853
 31
0.0
  0
ARC
  5
38D
100
AcDbEntity
  8
2
100
AcDbCircle
 10
-398.777384
 20
-73.794295
 30
0.0
 40
3.990265
100
AcDbArc
 50
232.121121
 51
307.878879
  0
ARC
  5
38E
100
AcDbEntity
  8
2
100
AcDbCircle
 10
-391.427384
 20
-63.08456
 30
0.0
 40
14.7
100
AcDbArc
 50
250.528777
 51
289.471219
  0
LINE
  5
38F
100
AcDbEntity
  8
2
100
AcDbLine
 10
-400.627384
 20
-70.838746
 30
0.0
 11
-400.627384
 21
-68.338746
 31
0.0
  0
LINE
  5
390
100
AcDbEntity
  8
2
100
AcDbLine
 10
-391.427384
 20
-70.838746
 30
0.0
 11
-391.927384
 21
-68.338746
 31
0.0
  0
LINE
  5
391
100
AcDbEntity
  8
2
100
AcDbLine
 10
-391.427384
 20
-68.338746
 30
0.0
 11
-390.927384
 21
-70.838746
 31
0.0
  0
LINE
  5
392
100
AcDbEntity
  8
2
  6
CENTER
 62
     2
100
AcDbLine
 10
87.272616
 20
-85.01696
 30
0.0
 11
87.272616
 21
-43.279475
 31
0.0
  0
LINE
  5
393
100
AcDbEntity
  8
2
  6
CENTER
 62
     2
100
AcDbLine
 10
159.397508
 20
-85.01696
 30
0.0
 11
159.397508
 21
-43.279475
 31
0.0
  0
LINE
  5
394
100
AcDbEntity
  8
2
100
AcDbLine
 10
150.197508
 20
-70.838746
 30
0.0
 11
168.597508
 21
-70.838746
 31
0.0
  0
LINE
  5
395
100
AcDbEntity
  8
2
100
AcDbLine
 10
167.897508
 20
-70.838746
 30
0.0
 11
167.897508
 21
-77.838746
 31
0.0
  0
ARC
  5
396
100
AcDbEntity
  8
2
100
AcDbCircle
 10
163.647508
 20
-67.29931
 30
0.0
 40
10.539436
100
AcDbArc
 50
246.218654
 51
293.781346
  0
LINE
  5
397
100
AcDbEntity
  8
2
100
AcDbLine
 10
150.897508
 20
-70.838746
 30
0.0
 11
150.897508
 21
-77.838746
 31
0.0
  0
LINE
  5
398
100
AcDbEntity
  8
2
100
AcDbLine
 10
150.897508
 20
-77.838746
 30
0.0
 11
167.897508
 21
-77.838746
 31
0.0
  0
LINE
  5
399
100
AcDbEntity
  8
2
100
AcDbLine
 10
159.397508
 20
-70.838746
 30
0.0
 11
159.397508
 21
-76.943853
 31
0.0
  0
ARC
  5
39A
100
AcDbEntity
  8
2
100
AcDbCircle
 10
155.147508
 20
-67.29931
 30
0.0
 40
10.539436
100
AcDbArc
 50
246.218654
 51
293.781346
  0
LINE
  5
39B
100
AcDbEntity
  8
2
100
AcDbLine
 10
168.597508
 20
-68.338746
 30
0.0
 11
168.597508
 21
-70.838746
 31
0.0
  0
LINE
  5
39C
100
AcDbEntity
  8
2
100
AcDbLine
 10
150.197508
 20
-70.838746
 30
0.0
 11
150.197508
 21
-68.338746
 31
0.0
  0
TEXT
  5
39D
100
AcDbEntity
  8
2
100
AcDbText
 10
-324.864938
 20
264.361254
 30
0.0
 40
14.0
  1
Ｓ
 50
270.0
 72
     5
 11
-324.864938
 21
253.161254
 31
0.0
100
AcDbText
  0
TEXT
  5
39E
100
AcDbEntity
  8
2
100
AcDbText
 10
-362.364938
 20
287.861254
 30
0.0
 40
14.0
  1
Ｏ
 72
     5
 11
-351.164938
 21
287.861254
 31
0.0
100
AcDbText
  0
LINE
  5
39F
100
AcDbEntity
  8
2
100
AcDbLine
 10
-309.502492
 20
-70.838746
 30
0.0
 11
-309.502492
 21
-76.943853
 31
0.0
  0
LINE
  5
3A0
100
AcDbEntity
  8
2
100
AcDbLine
 10
-309.502492
 20
-76.943853
 30
0.0
 11
-311.052492
 21
-77.838746
 31
0.0
  0
LINE
  5
3A1
100
AcDbEntity
  8
2
100
AcDbLine
 10
-311.052492
 20
-77.838746
 30
0.0
 11
-327.552492
 21
-77.838746
 31
0.0
  0
LINE
  5
3A2
100
AcDbEntity
  8
2
100
AcDbLine
 10
-314.402492
 20
-70.838746
 30
0.0
 11
-314.402492
 21
-76.943853
 31
0.0
  0
ARC
  5
3A3
100
AcDbEntity
  8
2
100
AcDbCircle
 10
-311.952492
 20
-73.794295
 30
0.0
 40
3.990265
100
AcDbArc
 50
232.121121
 51
307.878879
  0
LINE
  5
3A4
100
AcDbEntity
  8
2
100
AcDbLine
 10
-309.502492
 20
-70.838746
 30
0.0
 11
-324.047396
 21
-70.838746
 31
0.0
  0
LINE
  5
3A5
100
AcDbEntity
  8
2
100
AcDbLine
 10
-329.102492
 20
-76.943853
 30
0.0
 11
-327.552492
 21
-77.838746
 31
0.0
  0
LINE
  5
3A6
100
AcDbEntity
  8
2
100
AcDbLine
 10
-324.202492
 20
-70.92546
 30
0.0
 11
-324.202492
 21
-76.943853
 31
0.0
  0
ARC
  5
3A7
100
AcDbEntity
  8
2
100
AcDbCircle
 10
-326.652492
 20
-73.794295
 30
0.0
 40
3.990265
100
AcDbArc
 50
232.121121
 51
307.878879
  0
ARC
  5
3A8
100
AcDbEntity
  8
2
100
AcDbCircle
 10
-319.302492
 20
-63.08456
 30
0.0
 40
14.7
100
AcDbArc
 50
250.528777
 51
289.471219
  0
LINE
  5
3A9
100
AcDbEntity
  8
2
100
AcDbLine
 10
-310.102492
 20
-68.338746
 30
0.0
 11
-310.102492
 21
-70.838746
 31
0.0
  0
LINE
  5
3AA
100
AcDbEntity
  8
2
100
AcDbLine
 10
-382.227384
 20
-70.838746
 30
0.0
 11
-382.227384
 21
-68.338746
 31
0.0
  0
LINE
  5
3AB
100
AcDbEntity
  8
2
100
AcDbLine
 10
-381.627384
 20
-70.838746
 30
0.0
 11
-381.627384
 21
-76.943853
 31
0.0
  0
LINE
  5
3AC
100
AcDbEntity
  8
2
100
AcDbLine
 10
78.072616
 20
-70.838746
 30
0.0
 11
86.037058
 21
-70.838746
 31
0.0
  0
ARC
  5
3AD
100
AcDbEntity
  8
2
100
AcDbCircle
 10
91.522616
 20
-67.29931
 30
0.0
 40
10.539436
100
AcDbArc
 50
246.218654
 51
288.726424
  0
LINE
  5
3AE
100
AcDbEntity
  8
2
100
AcDbLine
 10
78.772616
 20
-70.838746
 30
0.0
 11
78.772616
 21
-77.838746
 31
0.0
  0
LINE
  5
3AF
100
AcDbEntity
  8
2
100
AcDbLine
 10
78.772616
 20
-77.838746
 30
0.0
 11
95.407814
 21
-77.838746
 31
0.0
  0
LINE
  5
3B0
100
AcDbEntity
  8
2
100
AcDbLine
 10
87.272616
 20
-71.444356
 30
0.0
 11
87.272616
 21
-76.943853
 31
0.0
  0
ARC
  5
3B1
100
AcDbEntity
  8
2
100
AcDbCircle
 10
83.022616
 20
-67.29931
 30
0.0
 40
10.539436
100
AcDbArc
 50
246.218654
 51
293.781346
  0
LINE
  5
3B2
100
AcDbEntity
  8
2
100
AcDbLine
 10
78.072616
 20
-70.838746
 30
0.0
 11
78.072616
 21
-68.526758
 31
0.0
  0
LINE
  5
3B3
100
AcDbEntity
  8
2
100
AcDbLine
 10
-329.102492
 20
-74.818224
 30
0.0
 11
-329.102492
 21
-76.943853
 31
0.0
  0
LINE
  5
3B4
100
AcDbEntity
  8
2
100
AcDbLine
 10
-288.2842
 20
-10.338746
 30
0.0
 11
-180.364938
 21
-10.338746
 31
0.0
  0
LINE
  5
3B5
100
AcDbEntity
  8
2
100
AcDbLine
 10
-288.2842
 20
-26.338746
 30
0.0
 11
-180.364938
 21
-26.338746
 31
0.0
  0
LINE
  5
3B6
100
AcDbEntity
  8
2
100
AcDbLine
 10
-158.364938
 20
70.661254
 30
0.0
 11
-158.364938
 21
-107.338746
 31
0.0
  0
LINE
  5
3B7
100
AcDbEntity
  8
2
100
AcDbLine
 10
-180.364938
 20
-30.669475
 30
0.0
 11
-180.364938
 21
-6.008017
 31
0.0
  0
LINE
  5
3B8
100
AcDbEntity
  8
2
100
AcDbLine
 10
-157.364938
 20
5.161254
 30
0.0
 11
-157.364938
 21
-41.838746
 31
0.0
  0
LINE
  5
3B9
100
AcDbEntity
  8
2
100
AcDbLine
 10
-158.364938
 20
5.161254
 30
0.0
 11
-157.364938
 21
5.161254
 31
0.0
  0
LINE
  5
3BA
100
AcDbEntity
  8
2
100
AcDbLine
 10
-158.364938
 20
-41.838746
 30
0.0
 11
-157.364938
 21
-41.838746
 31
0.0
  0
LINE
  5
3BB
100
AcDbEntity
  8
2
100
AcDbLine
 10
-156.264938
 20
-8.338746
 30
0.0
 11
-156.264938
 21
-28.338746
 31
0.0
  0
LINE
  5
3BC
100
AcDbEntity
  8
2
100
AcDbLine
 10
-157.364938
 20
-8.338746
 30
0.0
 11
-156.264938
 21
-8.338746
 31
0.0
  0
LINE
  5
3BD
100
AcDbEntity
  8
2
100
AcDbLine
 10
-157.364938
 20
-28.338746
 30
0.0
 11
-156.264938
 21
-28.338746
 31
0.0
  0
ARC
  5
3BE
100
AcDbEntity
  8
2
100
AcDbCircle
 10
-169.364938
 20
-27.338746
 30
0.0
 40
24.0
100
AcDbArc
 50
103.248015
 51
117.279613
  0
ARC
  5
3BF
100
AcDbEntity
  8
2
100
AcDbCircle
 10
-169.364938
 20
70.661254
 30
0.0
 40
11.0
100
AcDbArc
 50
0.0
 51
100.164249
  0
ARC
  5
3C0
100
AcDbEntity
  8
2
100
AcDbCircle
 10
-170.864938
 20
79.027855
 30
0.0
 40
2.5
100
AcDbArc
 50
100.164249
 51
142.289101
  0
LINE
  5
3C1
100
AcDbEntity
  8
2
100
AcDbLine
 10
-174.864938
 20
-7.47296
 30
0.0
 11
-174.864938
 21
-3.494117
 31
0.0
  0
LINE
  5
3C2
100
AcDbEntity
  8
2
100
AcDbLine
 10
-174.864938
 20
16.320688
 30
0.0
 11
-174.864938
 21
21.275347
 31
0.0
  0
LINE
  5
3C3
100
AcDbEntity
  8
2
100
AcDbLine
 10
-174.864938
 20
38.024037
 30
0.0
 11
-174.864938
 21
43.132687
 31
0.0
  0
LINE
  5
3C4
100
AcDbEntity
  8
2
100
AcDbLine
 10
-174.864938
 20
55.926675
 30
0.0
 11
-174.864938
 21
60.907203
 31
0.0
  0
LINE
  5
3C5
100
AcDbEntity
  8
2
100
AcDbLine
 10
-174.864938
 20
69.0698
 30
0.0
 11
-174.864938
 21
72.935414
 31
0.0
  0
LINE
  5
3C6
100
AcDbEntity
  8
2
100
AcDbLine
 10
-174.864938
 20
76.1213
 30
0.0
 11
-174.864938
 21
77.720859
 31
0.0
  0
ARC
  5
3C7
100
AcDbEntity
  8
2
100
AcDbCircle
 10
-169.364938
 20
-9.338746
 30
0.0
 40
24.0
100
AcDbArc
 50
242.720387
 51
256.751985
  0
ARC
  5
3C8
100
AcDbEntity
  8
2
100
AcDbCircle
 10
-169.364938
 20
-107.338746
 30
0.0
 40
11.0
100
AcDbArc
 50
259.835751
 51
360.0
  0
ARC
  5
3C9
100
AcDbEntity
  8
2
100
AcDbCircle
 10
-170.864938
 20
-115.705346
 30
0.0
 40
2.5
100
AcDbArc
 50
217.710899
 51
259.835751
  0
LINE
  5
3CA
100
AcDbEntity
  8
2
100
AcDbLine
 10
-174.864938
 20
-29.204531
 30
0.0
 11
-174.864938
 21
-33.183375
 31
0.0
  0
LINE
  5
3CB
100
AcDbEntity
  8
2
100
AcDbLine
 10
-174.864938
 20
-52.998179
 30
0.0
 11
-174.864938
 21
-57.952838
 31
0.0
  0
LINE
  5
3CC
100
AcDbEntity
  8
2
100
AcDbLine
 10
-174.864938
 20
-74.701528
 30
0.0
 11
-174.864938
 21
-79.810178
 31
0.0
  0
LINE
  5
3CD
100
AcDbEntity
  8
2
100
AcDbLine
 10
-174.864938
 20
-92.604166
 30
0.0
 11
-174.864938
 21
-97.584694
 31
0.0
  0
LINE
  5
3CE
100
AcDbEntity
  8
2
100
AcDbLine
 10
-174.864938
 20
-105.747291
 30
0.0
 11
-174.864938
 21
-109.612905
 31
0.0
  0
LINE
  5
3CF
100
AcDbEntity
  8
2
100
AcDbLine
 10
-174.864938
 20
-112.798791
 30
0.0
 11
-174.864938
 21
-114.39835
 31
0.0
  0
ARC
  5
3D0
100
AcDbEntity
  8
2
100
AcDbCircle
 10
-170.864938
 20
-7.47296
 30
0.0
 40
4.0
100
AcDbArc
 50
180.0
 51
195.71978
  0
ARC
  5
3D1
100
AcDbEntity
  8
2
100
AcDbCircle
 10
-204.973716
 20
7.348255
 30
0.0
 40
31.608779
100
AcDbArc
 50
360.0
 51
16.689417
  0
ARC
  5
3D2
100
AcDbEntity
  8
2
100
AcDbCircle
 10
-209.300615
 20
7.348255
 30
0.0
 40
35.935677
100
AcDbArc
 50
344.2467
 51
360.0
  0
ARC
  5
3D3
100
AcDbEntity
  8
2
100
AcDbCircle
 10
-170.864938
 20
-3.494117
 30
0.0
 40
4.0
100
AcDbArc
 50
164.2467
 51
180.0
  0
ARC
  5
3D4
100
AcDbEntity
  8
2
100
AcDbCircle
 10
-170.864938
 20
17.574513
 30
0.0
 40
4.0
100
AcDbArc
 50
180.0
 51
196.689417
  0
ARC
  5
3D5
100
AcDbEntity
  8
2
100
AcDbCircle
 10
-203.927474
 20
6.249064
 30
0.0
 40
30.562536
100
AcDbArc
 50
0.988683
 51
16.941965
  0
ARC
  5
3D6
100
AcDbEntity
  8
2
100
AcDbCircle
 10
-170.864938
 20
16.320688
 30
0.0
 40
4.0
100
AcDbArc
 50
180.0
 51
196.941965
  0
ARC
  5
3D7
100
AcDbEntity
  8
2
100
AcDbCircle
 10
-204.510851
 20
31.28473
 30
0.0
 40
31.145914
100
AcDbArc
 50
342.954227
 51
0.0
  0
ARC
  5
3D8
100
AcDbEntity
  8
2
100
AcDbCircle
 10
-197.016443
 20
31.28473
 30
0.0
 40
23.651505
100
AcDbArc
 50
0.0
 51
19.314375
  0
ARC
  5
3D9
100
AcDbEntity
  8
2
100
AcDbCircle
 10
-171.864938
 20
21.275347
 30
0.0
 40
3.0
100
AcDbArc
 50
162.954227
 51
180.0
  0
ARC
  5
3DA
100
AcDbEntity
  8
2
100
AcDbCircle
 10
-171.864938
 20
40.099746
 30
0.0
 40
3.0
100
AcDbArc
 50
180.0
 51
199.314375
  0
ARC
  5
3DB
100
AcDbEntity
  8
2
100
AcDbCircle
 10
-197.297908
 20
29.161254
 30
0.0
 40
23.93297
100
AcDbArc
 50
2.375275
 51
19.212225
  0
ARC
  5
3DC
100
AcDbEntity
  8
2
100
AcDbCircle
 10
-171.864938
 20
38.024037
 30
0.0
 40
3.0
100
AcDbArc
 50
180.0
 51
199.212225
  0
ARC
  5
3DD
100
AcDbEntity
  8
2
100
AcDbCircle
 10
-196.384157
 20
51.839446
 30
0.0
 40
23.019219
100
AcDbArc
 50
340.450082
 51
360.0
  0
ARC
  5
3DE
100
AcDbEntity
  8
2
100
AcDbCircle
 10
-187.730359
 20
51.839446
 30
0.0
 40
14.365422
100
AcDbArc
 50
360.0
 51
24.722593
  0
ARC
  5
3DF
100
AcDbEntity
  8
2
100
AcDbCircle
 10
-171.864938
 20
43.132687
 30
0.0
 40
3.0
100
AcDbArc
 50
160.450082
 51
180.0
  0
ARC
  5
3E0
100
AcDbEntity
  8
2
100
AcDbCircle
 10
-172.864938
 20
58.683879
 30
0.0
 40
2.0
100
AcDbArc
 50
180.0
 51
204.722593
  0
ARC
  5
3E1
100
AcDbEntity
  8
2
100
AcDbCircle
 10
-188.872277
 20
48.836399
 30
0.0
 40
15.507339
100
AcDbArc
 50
5.007184
 51
23.890425
  0
ARC
  5
3E2
100
AcDbEntity
  8
2
100
AcDbCircle
 10
-172.864938
 20
55.926675
 30
0.0
 40
2.0
100
AcDbArc
 50
180.0
 51
203.890425
  0
ARC
  5
3E3
100
AcDbEntity
  8
2
100
AcDbCircle
 10
-187.098074
 20
67.611635
 30
0.0
 40
13.733136
100
AcDbArc
 50
334.777506
 51
360.0
  0
ARC
  5
3E4
100
AcDbEntity
  8
2
100
AcDbCircle
 10
-179.603665
 20
67.611635
 30
0.0
 40
6.238728
100
AcDbArc
 50
0.0
 51
35.121584
  0
ARC
  5
3E5
100
AcDbEntity
  8
2
100
AcDbCircle
 10
-172.864938
 20
60.907203
 30
0.0
 40
2.0
100
AcDbArc
 50
154.777506
 51
180.0
  0
ARC
  5
3E6
100
AcDbEntity
  8
2
100
AcDbCircle
 10
-172.864938
 20
72.351486
 30
0.0
 40
2.0
100
AcDbArc
 50
180.0
 51
215.121584
  0
ARC
  5
3E7
100
AcDbEntity
  8
2
100
AcDbCircle
 10
-180.908222
 20
63.933668
 30
0.0
 40
7.543285
100
AcDbArc
 50
11.961267
 51
32.560736
  0
ARC
  5
3E8
100
AcDbEntity
  8
2
100
AcDbCircle
 10
-172.864938
 20
69.0698
 30
0.0
 40
2.0
100
AcDbArc
 50
180.0
 51
212.560736
  0
ARC
  5
3E9
100
AcDbEntity
  8
2
100
AcDbCircle
 10
-179.1408
 20
77.526447
 30
0.0
 40
5.775863
100
AcDbArc
 50
323.813103
 51
360.0
  0
ARC
  5
3EA
100
AcDbEntity
  8
2
100
AcDbCircle
 10
-172.864938
 20
72.935414
 30
0.0
 40
2.0
100
AcDbArc
 50
143.813103
 51
180.0
  0
ARC
  5
3EB
100
AcDbEntity
  8
2
100
AcDbCircle
 10
-174.813901
 20
77.526447
 30
0.0
 40
1.448964
100
AcDbArc
 50
0.0
 51
60.721312
  0
ARC
  5
3EC
100
AcDbEntity
  8
2
100
AcDbCircle
 10
-175.539706
 20
73.424208
 30
0.0
 40
2.174768
100
AcDbArc
 50
44.091053
 51
58.161652
  0
ARC
  5
3ED
100
AcDbEntity
  8
2
100
AcDbCircle
 10
-173.864938
 20
76.1213
 30
0.0
 40
1.0
100
AcDbArc
 50
180.0
 51
238.161652
  0
ARC
  5
3EE
100
AcDbEntity
  8
2
100
AcDbCircle
 10
-171.864938
 20
77.720859
 30
0.0
 40
3.0
100
AcDbArc
 50
109.021483
 51
180.0
  0
ARC
  5
3EF
100
AcDbEntity
  8
2
100
AcDbCircle
 10
-173.860745
 20
79.226433
 30
0.0
 40
0.5
100
AcDbArc
 50
142.97025
 51
240.721312
  0
ARC
  5
3F0
100
AcDbEntity
  8
2
100
AcDbCircle
 10
-209.470036
 20
-18.338746
 30
0.0
 40
36.105098
100
AcDbArc
 50
344.28022
 51
15.71978
  0
ARC
  5
3F1
100
AcDbEntity
  8
2
100
AcDbCircle
 10
-170.864938
 20
-29.204531
 30
0.0
 40
4.0
100
AcDbArc
 50
164.28022
 51
180.0
  0
ARC
  5
3F2
100
AcDbEntity
  8
2
100
AcDbCircle
 10
-204.973716
 20
-44.025747
 30
0.0
 40
31.608779
100
AcDbArc
 50
343.310583
 51
0.0
  0
ARC
  5
3F3
100
AcDbEntity
  8
2
100
AcDbCircle
 10
-209.300615
 20
-44.025747
 30
0.0
 40
35.935677
100
AcDbArc
 50
0.0
 51
15.7533
  0
ARC
  5
3F4
100
AcDbEntity
  8
2
100
AcDbCircle
 10
-170.864938
 20
-33.183375
 30
0.0
 40
4.0
100
AcDbArc
 50
180.0
 51
195.7533
  0
ARC
  5
3F5
100
AcDbEntity
  8
2
100
AcDbCircle
 10
-170.864938
 20
-54.252004
 30
0.0
 40
4.0
100
AcDbArc
 50
163.310583
 51
180.0
  0
ARC
  5
3F6
100
AcDbEntity
  8
2
100
AcDbCircle
 10
-203.927474
 20
-42.926555
 30
0.0
 40
30.562536
100
AcDbArc
 50
343.058035
 51
359.011317
  0
ARC
  5
3F7
100
AcDbEntity
  8
2
100
AcDbCircle
 10
-170.864938
 20
-52.998179
 30
0.0
 40
4.0
100
AcDbArc
 50
163.058035
 51
180.0
  0
ARC
  5
3F8
100
AcDbEntity
  8
2
100
AcDbCircle
 10
-204.510851
 20
-67.962221
 30
0.0
 40
31.145914
100
AcDbArc
 50
360.0
 51
17.045773
  0
ARC
  5
3F9
100
AcDbEntity
  8
2
100
AcDbCircle
 10
-197.016443
 20
-67.962221
 30
0.0
 40
23.651505
100
AcDbArc
 50
340.685625
 51
360.0
  0
ARC
  5
3FA
100
AcDbEntity
  8
2
100
AcDbCircle
 10
-171.864938
 20
-57.952838
 30
0.0
 40
3.0
100
AcDbArc
 50
180.0
 51
197.045773
  0
ARC
  5
3FB
100
AcDbEntity
  8
2
100
AcDbCircle
 10
-171.864938
 20
-76.777237
 30
0.0
 40
3.0
100
AcDbArc
 50
160.685625
 51
180.0
  0
ARC
  5
3FC
100
AcDbEntity
  8
2
100
AcDbCircle
 10
-197.297908
 20
-65.838746
 30
0.0
 40
23.93297
100
AcDbArc
 50
340.787775
 51
357.624725
  0
ARC
  5
3FD
100
AcDbEntity
  8
2
100
AcDbCircle
 10
-171.864938
 20
-74.701528
 30
0.0
 40
3.0
100
AcDbArc
 50
160.787775
 51
180.0
  0
ARC
  5
3FE
100
AcDbEntity
  8
2
100
AcDbCircle
 10
-196.384157
 20
-88.516937
 30
0.0
 40
23.019219
100
AcDbArc
 50
0.0
 51
19.549918
  0
ARC
  5
3FF
100
AcDbEntity
  8
2
100
AcDbCircle
 10
-187.730359
 20
-88.516937
 30
0.0
 40
14.365422
100
AcDbArc
 50
335.277407
 51
0.0
  0
ARC
  5
400
100
AcDbEntity
  8
2
100
AcDbCircle
 10
-171.864938
 20
-79.810178
 30
0.0
 40
3.0
100
AcDbArc
 50
180.0
 51
199.549918
  0
ARC
  5
401
100
AcDbEntity
  8
2
100
AcDbCircle
 10
-172.864938
 20
-95.361371
 30
0.0
 40
2.0
100
AcDbArc
 50
155.277407
 51
180.0
  0
ARC
  5
402
100
AcDbEntity
  8
2
100
AcDbCircle
 10
-188.872277
 20
-85.51389
 30
0.0
 40
15.507339
100
AcDbArc
 50
336.109575
 51
354.992816
  0
ARC
  5
403
100
AcDbEntity
  8
2
100
AcDbCircle
 10
-172.864938
 20
-92.604166
 30
0.0
 40
2.0
100
AcDbArc
 50
156.109575
 51
180.0
  0
ARC
  5
404
100
AcDbEntity
  8
2
100
AcDbCircle
 10
-187.098074
 20
-104.289126
 30
0.0
 40
13.733136
100
AcDbArc
 50
0.0
 51
25.222494
  0
ARC
  5
405
100
AcDbEntity
  8
2
100
AcDbCircle
 10
-179.603665
 20
-104.289126
 30
0.0
 40
6.238728
100
AcDbArc
 50
324.878416
 51
360.0
  0
ARC
  5
406
100
AcDbEntity
  8
2
100
AcDbCircle
 10
-172.864938
 20
-97.584694
 30
0.0
 40
2.0
100
AcDbArc
 50
180.0
 51
205.222494
  0
ARC
  5
407
100
AcDbEntity
  8
2
100
AcDbCircle
 10
-172.864938
 20
-109.028977
 30
0.0
 40
2.0
100
AcDbArc
 50
144.878416
 51
180.0
  0
ARC
  5
408
100
AcDbEntity
  8
2
100
AcDbCircle
 10
-180.908222
 20
-100.611159
 30
0.0
 40
7.543285
100
AcDbArc
 50
327.439264
 51
348.038733
  0
ARC
  5
409
100
AcDbEntity
  8
2
100
AcDbCircle
 10
-172.864938
 20
-105.747291
 30
0.0
 40
2.0
100
AcDbArc
 50
147.439264
 51
180.0
  0
ARC
  5
40A
100
AcDbEntity
  8
2
100
AcDbCircle
 10
-179.1408
 20
-114.203939
 30
0.0
 40
5.775863
100
AcDbArc
 50
0.0
 51
36.186897
  0
ARC
  5
40B
100
AcDbEntity
  8
2
100
AcDbCircle
 10
-172.864938
 20
-109.612905
 30
0.0
 40
2.0
100
AcDbArc
 50
180.0
 51
216.186897
  0
ARC
  5
40C
100
AcDbEntity
  8
2
100
AcDbCircle
 10
-174.813901
 20
-114.203939
 30
0.0
 40
1.448964
100
AcDbArc
 50
299.278688
 51
360.0
  0
ARC
  5
40D
100
AcDbEntity
  8
2
100
AcDbCircle
 10
-175.539706
 20
-110.101699
 30
0.0
 40
2.174768
100
AcDbArc
 50
301.838348
 51
315.908947
  0
ARC
  5
40E
100
AcDbEntity
  8
2
100
AcDbCircle
 10
-173.864938
 20
-112.798791
 30
0.0
 40
1.0
100
AcDbArc
 50
121.838348
 51
180.0
  0
ARC
  5
40F
100
AcDbEntity
  8
2
100
AcDbCircle
 10
-171.864938
 20
-114.39835
 30
0.0
 40
3.0
100
AcDbArc
 50
180.0
 51
250.978517
  0
ARC
  5
410
100
AcDbEntity
  8
2
100
AcDbCircle
 10
-173.860745
 20
-115.903924
 30
0.0
 40
0.5
100
AcDbArc
 50
119.278688
 51
217.02975
  0
LINE
  5
411
100
AcDbEntity
  8
2
100
AcDbLine
 10
-154.264938
 20
-11.838746
 30
0.0
 11
-148.764938
 21
-11.838746
 31
0.0
  0
ARC
  5
412
100
AcDbEntity
  8
2
100
AcDbCircle
 10
-156.443696
 20
-15.088746
 30
0.0
 40
7.678759
100
AcDbArc
 50
334.96034
 51
25.03966
  0
LINE
  5
413
100
AcDbEntity
  8
2
100
AcDbLine
 10
-154.264938
 20
-24.838746
 30
0.0
 11
-148.764938
 21
-24.838746
 31
0.0
  0
LINE
  5
414
100
AcDbEntity
  8
2
100
AcDbLine
 10
-148.764938
 20
-24.838746
 30
0.0
 11
-148.764938
 21
-11.838746
 31
0.0
  0
LINE
  5
415
100
AcDbEntity
  8
2
100
AcDbLine
 10
-154.264938
 20
-18.338746
 30
0.0
 11
-149.486626
 21
-18.338746
 31
0.0
  0
ARC
  5
416
100
AcDbEntity
  8
2
100
AcDbCircle
 10
-156.443696
 20
-21.588746
 30
0.0
 40
7.678759
100
AcDbArc
 50
334.96034
 51
25.03966
  0
LINE
  5
417
100
AcDbEntity
  8
2
100
AcDbLine
 10
-156.264938
 20
-10.638746
 30
0.0
 11
-154.264938
 21
-10.638746
 31
0.0
  0
LINE
  5
418
100
AcDbEntity
  8
2
100
AcDbLine
 10
-154.264938
 20
-10.638746
 30
0.0
 11
-154.264938
 21
-26.038746
 31
0.0
  0
LINE
  5
419
100
AcDbEntity
  8
2
100
AcDbLine
 10
-154.264938
 20
-26.038746
 30
0.0
 11
-156.264938
 21
-26.038746
 31
0.0
  0
LINE
  5
41A
100
AcDbEntity
  8
2
100
AcDbLine
 10
-158.364938
 20
417.361254
 30
0.0
 11
-158.364938
 21
239.361254
 31
0.0
  0
LINE
  5
41B
100
AcDbEntity
  8
2
100
AcDbLine
 10
-180.364938
 20
316.030525
 30
0.0
 11
-180.364938
 21
340.691983
 31
0.0
  0
LINE
  5
41C
100
AcDbEntity
  8
2
100
AcDbLine
 10
-157.364938
 20
351.861254
 30
0.0
 11
-157.364938
 21
304.861254
 31
0.0
  0
LINE
  5
41D
100
AcDbEntity
  8
2
100
AcDbLine
 10
-158.364938
 20
351.861254
 30
0.0
 11
-157.364938
 21
351.861254
 31
0.0
  0
LINE
  5
41E
100
AcDbEntity
  8
2
100
AcDbLine
 10
-158.364938
 20
304.861254
 30
0.0
 11
-157.364938
 21
304.861254
 31
0.0
  0
LINE
  5
41F
100
AcDbEntity
  8
2
100
AcDbLine
 10
-156.264938
 20
338.361254
 30
0.0
 11
-156.264938
 21
318.361254
 31
0.0
  0
LINE
  5
420
100
AcDbEntity
  8
2
100
AcDbLine
 10
-157.364938
 20
338.361254
 30
0.0
 11
-156.264938
 21
338.361254
 31
0.0
  0
LINE
  5
421
100
AcDbEntity
  8
2
100
AcDbLine
 10
-157.364938
 20
318.361254
 30
0.0
 11
-156.264938
 21
318.361254
 31
0.0
  0
LINE
  5
422
100
AcDbEntity
  8
2
100
AcDbLine
 10
-154.264938
 20
335.861254
 30
0.0
 11
-149.486626
 21
335.861254
 31
0.0
  0
LINE
  5
423
100
AcDbEntity
  8
2
100
AcDbLine
 10
-149.486626
 20
335.861254
 30
0.0
 11
-148.764938
 21
334.611254
 31
0.0
  0
LINE
  5
424
100
AcDbEntity
  8
2
100
AcDbLine
 10
-154.264938
 20
332.111254
 30
0.0
 11
-149.486626
 21
332.111254
 31
0.0
  0
ARC
  5
425
100
AcDbEntity
  8
2
100
AcDbCircle
 10
-151.897002
 20
333.986254
 30
0.0
 40
3.053774
100
AcDbArc
 50
322.121121
 51
37.878879
  0
ARC
  5
426
100
AcDbEntity
  8
2
100
AcDbCircle
 10
-160.093227
 20
328.361254
 30
0.0
 40
11.25
100
AcDbArc
 50
340.528779
 51
19.471221
  0
LINE
  5
427
100
AcDbEntity
  8
2
100
AcDbLine
 10
-154.264938
 20
320.861254
 30
0.0
 11
-149.486626
 21
320.861254
 31
0.0
  0
LINE
  5
428
100
AcDbEntity
  8
2
100
AcDbLine
 10
-149.486626
 20
320.861254
 30
0.0
 11
-148.764938
 21
322.111254
 31
0.0
  0
LINE
  5
429
100
AcDbEntity
  8
2
100
AcDbLine
 10
-148.764938
 20
322.111254
 30
0.0
 11
-148.764938
 21
334.611254
 31
0.0
  0
LINE
  5
42A
100
AcDbEntity
  8
2
100
AcDbLine
 10
-154.264938
 20
324.611254
 30
0.0
 11
-149.486626
 21
324.611254
 31
0.0
  0
ARC
  5
42B
100
AcDbEntity
  8
2
100
AcDbCircle
 10
-151.897002
 20
322.736254
 30
0.0
 40
3.053774
100
AcDbArc
 50
322.121121
 51
37.878879
  0
LINE
  5
42C
100
AcDbEntity
  8
2
100
AcDbLine
 10
-156.264938
 20
336.061254
 30
0.0
 11
-154.264938
 21
336.061254
 31
0.0
  0
LINE
  5
42D
100
AcDbEntity
  8
2
100
AcDbLine
 10
-154.264938
 20
336.061254
 30
0.0
 11
-154.264938
 21
320.661254
 31
0.0
  0
LINE
  5
42E
100
AcDbEntity
  8
2
100
AcDbLine
 10
-154.264938
 20
320.661254
 30
0.0
 11
-156.264938
 21
320.661254
 31
0.0
  0
LINE
  5
42F
100
AcDbEntity
  8
2
100
AcDbLine
 10
-154.264938
 20
328.361254
 30
0.0
 11
-156.264938
 21
327.861254
 31
0.0
  0
LINE
  5
430
100
AcDbEntity
  8
2
100
AcDbLine
 10
-156.264938
 20
328.361254
 30
0.0
 11
-154.264938
 21
328.861254
 31
0.0
  0
LINE
  5
431
100
AcDbEntity
  8
2
100
AcDbLine
 10
-295.309377
 20
336.361254
 30
0.0
 11
-180.364938
 21
336.361254
 31
0.0
  0
LINE
  5
432
100
AcDbEntity
  8
2
100
AcDbLine
 10
-291.035859
 20
320.361254
 30
0.0
 11
-180.364938
 21
320.361254
 31
0.0
  0
ARC
  5
433
100
AcDbEntity
  8
2
100
AcDbCircle
 10
-169.364938
 20
319.361254
 30
0.0
 40
24.0
100
AcDbArc
 50
103.248015
 51
117.279613
  0
ARC
  5
434
100
AcDbEntity
  8
2
100
AcDbCircle
 10
-169.364938
 20
417.361254
 30
0.0
 40
11.0
100
AcDbArc
 50
0.0
 51
100.164249
  0
ARC
  5
435
100
AcDbEntity
  8
2
100
AcDbCircle
 10
-170.864938
 20
425.727855
 30
0.0
 40
2.5
100
AcDbArc
 50
100.164249
 51
142.289101
  0
LINE
  5
436
100
AcDbEntity
  8
2
100
AcDbLine
 10
-174.864938
 20
339.22704
 30
0.0
 11
-174.864938
 21
343.205883
 31
0.0
  0
LINE
  5
437
100
AcDbEntity
  8
2
100
AcDbLine
 10
-174.864938
 20
363.020688
 30
0.0
 11
-174.864938
 21
367.975347
 31
0.0
  0
LINE
  5
438
100
AcDbEntity
  8
2
100
AcDbLine
 10
-174.864938
 20
384.724037
 30
0.0
 11
-174.864938
 21
389.832687
 31
0.0
  0
LINE
  5
439
100
AcDbEntity
  8
2
100
AcDbLine
 10
-174.864938
 20
402.626675
 30
0.0
 11
-174.864938
 21
407.607203
 31
0.0
  0
LINE
  5
43A
100
AcDbEntity
  8
2
100
AcDbLine
 10
-174.864938
 20
415.7698
 30
0.0
 11
-174.864938
 21
419.635414
 31
0.0
  0
LINE
  5
43B
100
AcDbEntity
  8
2
100
AcDbLine
 10
-174.864938
 20
422.8213
 30
0.0
 11
-174.864938
 21
424.420859
 31
0.0
  0
ARC
  5
43C
100
AcDbEntity
  8
2
100
AcDbCircle
 10
-169.364938
 20
337.361254
 30
0.0
 40
24.0
100
AcDbArc
 50
242.720387
 51
256.751985
  0
ARC
  5
43D
100
AcDbEntity
  8
2
100
AcDbCircle
 10
-169.364938
 20
239.361254
 30
0.0
 40
11.0
100
AcDbArc
 50
259.835751
 51
360.0
  0
ARC
  5
43E
100
AcDbEntity
  8
2
100
AcDbCircle
 10
-170.864938
 20
230.994654
 30
0.0
 40
2.5
100
AcDbArc
 50
217.710899
 51
259.835751
  0
LINE
  5
43F
100
AcDbEntity
  8
2
100
AcDbLine
 10
-174.864938
 20
317.495469
 30
0.0
 11
-174.864938
 21
313.516625
 31
0.0
  0
LINE
  5
440
100
AcDbEntity
  8
2
100
AcDbLine
 10
-174.864938
 20
293.701821
 30
0.0
 11
-174.864938
 21
288.747162
 31
0.0
  0
LINE
  5
441
100
AcDbEntity
  8
2
100
AcDbLine
 10
-174.864938
 20
271.998472
 30
0.0
 11
-174.864938
 21
266.889822
 31
0.0
  0
LINE
  5
442
100
AcDbEntity
  8
2
100
AcDbLine
 10
-174.864938
 20
254.095834
 30
0.0
 11
-174.864938
 21
249.115306
 31
0.0
  0
LINE
  5
443
100
AcDbEntity
  8
2
100
AcDbLine
 10
-174.864938
 20
240.952709
 30
0.0
 11
-174.864938
 21
237.087095
 31
0.0
  0
LINE
  5
444
100
AcDbEntity
  8
2
100
AcDbLine
 10
-174.864938
 20
233.901209
 30
0.0
 11
-174.864938
 21
232.30165
 31
0.0
  0
ARC
  5
445
100
AcDbEntity
  8
2
100
AcDbCircle
 10
-170.864938
 20
339.22704
 30
0.0
 40
4.0
100
AcDbArc
 50
180.0
 51
195.71978
  0
ARC
  5
446
100
AcDbEntity
  8
2
100
AcDbCircle
 10
-204.973716
 20
354.048255
 30
0.0
 40
31.608779
100
AcDbArc
 50
360.0
 51
16.689417
  0
ARC
  5
447
100
AcDbEntity
  8
2
100
AcDbCircle
 10
-209.300615
 20
354.048255
 30
0.0
 40
35.935677
100
AcDbArc
 50
344.2467
 51
360.0
  0
ARC
  5
448
100
AcDbEntity
  8
2
100
AcDbCircle
 10
-170.864938
 20
343.205883
 30
0.0
 40
4.0
100
AcDbArc
 50
164.2467
 51
180.0
  0
ARC
  5
449
100
AcDbEntity
  8
2
100
AcDbCircle
 10
-170.864938
 20
364.274513
 30
0.0
 40
4.0
100
AcDbArc
 50
180.0
 51
196.689417
  0
ARC
  5
44A
100
AcDbEntity
  8
2
100
AcDbCircle
 10
-203.927474
 20
352.949064
 30
0.0
 40
30.562536
100
AcDbArc
 50
0.988683
 51
16.941965
  0
ARC
  5
44B
100
AcDbEntity
  8
2
100
AcDbCircle
 10
-170.864938
 20
363.020688
 30
0.0
 40
4.0
100
AcDbArc
 50
180.0
 51
196.941965
  0
ARC
  5
44C
100
AcDbEntity
  8
2
100
AcDbCircle
 10
-204.510851
 20
377.98473
 30
0.0
 40
31.145914
100
AcDbArc
 50
342.954227
 51
0.0
  0
ARC
  5
44D
100
AcDbEntity
  8
2
100
AcDbCircle
 10
-197.016443
 20
377.98473
 30
0.0
 40
23.651505
100
AcDbArc
 50
0.0
 51
19.314375
  0
ARC
  5
44E
100
AcDbEntity
  8
2
100
AcDbCircle
 10
-171.864938
 20
367.975347
 30
0.0
 40
3.0
100
AcDbArc
 50
162.954227
 51
180.0
  0
ARC
  5
44F
100
AcDbEntity
  8
2
100
AcDbCircle
 10
-171.864938
 20
386.799746
 30
0.0
 40
3.0
100
AcDbArc
 50
180.0
 51
199.314375
  0
ARC
  5
450
100
AcDbEntity
  8
2
100
AcDbCircle
 10
-197.297908
 20
375.861254
 30
0.0
 40
23.93297
100
AcDbArc
 50
2.375275
 51
19.212225
  0
ARC
  5
451
100
AcDbEntity
  8
2
100
AcDbCircle
 10
-171.864938
 20
384.724037
 30
0.0
 40
3.0
100
AcDbArc
 50
180.0
 51
199.212225
  0
ARC
  5
452
100
AcDbEntity
  8
2
100
AcDbCircle
 10
-196.384157
 20
398.539446
 30
0.0
 40
23.019219
100
AcDbArc
 50
340.450082
 51
360.0
  0
ARC
  5
453
100
AcDbEntity
  8
2
100
AcDbCircle
 10
-187.730359
 20
398.539446
 30
0.0
 40
14.365422
100
AcDbArc
 50
360.0
 51
24.722593
  0
ARC
  5
454
100
AcDbEntity
  8
2
100
AcDbCircle
 10
-171.864938
 20
389.832687
 30
0.0
 40
3.0
100
AcDbArc
 50
160.450082
 51
180.0
  0
ARC
  5
455
100
AcDbEntity
  8
2
100
AcDbCircle
 10
-172.864938
 20
405.383879
 30
0.0
 40
2.0
100
AcDbArc
 50
180.0
 51
204.722593
  0
ARC
  5
456
100
AcDbEntity
  8
2
100
AcDbCircle
 10
-188.872277
 20
395.536399
 30
0.0
 40
15.507339
100
AcDbArc
 50
5.007184
 51
23.890425
  0
ARC
  5
457
100
AcDbEntity
  8
2
100
AcDbCircle
 10
-172.864938
 20
402.626675
 30
0.0
 40
2.0
100
AcDbArc
 50
180.0
 51
203.890425
  0
ARC
  5
458
100
AcDbEntity
  8
2
100
AcDbCircle
 10
-187.098074
 20
414.311635
 30
0.0
 40
13.733136
100
AcDbArc
 50
334.777506
 51
360.0
  0
ARC
  5
459
100
AcDbEntity
  8
2
100
AcDbCircle
 10
-179.603665
 20
414.311635
 30
0.0
 40
6.238728
100
AcDbArc
 50
0.0
 51
35.121584
  0
ARC
  5
45A
100
AcDbEntity
  8
2
100
AcDbCircle
 10
-172.864938
 20
407.607203
 30
0.0
 40
2.0
100
AcDbArc
 50
154.777506
 51
180.0
  0
ARC
  5
45B
100
AcDbEntity
  8
2
100
AcDbCircle
 10
-172.864938
 20
419.051486
 30
0.0
 40
2.0
100
AcDbArc
 50
180.0
 51
215.121584
  0
ARC
  5
45C
100
AcDbEntity
  8
2
100
AcDbCircle
 10
-180.908222
 20
410.633668
 30
0.0
 40
7.543285
100
AcDbArc
 50
11.961267
 51
32.560736
  0
ARC
  5
45D
100
AcDbEntity
  8
2
100
AcDbCircle
 10
-172.864938
 20
415.7698
 30
0.0
 40
2.0
100
AcDbArc
 50
180.0
 51
212.560736
  0
ARC
  5
45E
100
AcDbEntity
  8
2
100
AcDbCircle
 10
-179.1408
 20
424.226447
 30
0.0
 40
5.775863
100
AcDbArc
 50
323.813103
 51
360.0
  0
ARC
  5
45F
100
AcDbEntity
  8
2
100
AcDbCircle
 10
-172.864938
 20
419.635414
 30
0.0
 40
2.0
100
AcDbArc
 50
143.813103
 51
180.0
  0
ARC
  5
460
100
AcDbEntity
  8
2
100
AcDbCircle
 10
-174.813901
 20
424.226447
 30
0.0
 40
1.448964
100
AcDbArc
 50
0.0
 51
60.721312
  0
ARC
  5
461
100
AcDbEntity
  8
2
100
AcDbCircle
 10
-175.539706
 20
420.124208
 30
0.0
 40
2.174768
100
AcDbArc
 50
44.091053
 51
58.161652
  0
ARC
  5
462
100
AcDbEntity
  8
2
100
AcDbCircle
 10
-173.864938
 20
422.8213
 30
0.0
 40
1.0
100
AcDbArc
 50
180.0
 51
238.161652
  0
ARC
  5
463
100
AcDbEntity
  8
2
100
AcDbCircle
 10
-171.864938
 20
424.420859
 30
0.0
 40
3.0
100
AcDbArc
 50
109.021483
 51
180.0
  0
ARC
  5
464
100
AcDbEntity
  8
2
100
AcDbCircle
 10
-173.860745
 20
425.926433
 30
0.0
 40
0.5
100
AcDbArc
 50
142.97025
 51
240.721312
  0
ARC
  5
465
100
AcDbEntity
  8
2
100
AcDbCircle
 10
-209.470036
 20
328.361254
 30
0.0
 40
36.105098
100
AcDbArc
 50
344.28022
 51
15.71978
  0
ARC
  5
466
100
AcDbEntity
  8
2
100
AcDbCircle
 10
-170.864938
 20
317.495469
 30
0.0
 40
4.0
100
AcDbArc
 50
164.28022
 51
180.0
  0
ARC
  5
467
100
AcDbEntity
  8
2
100
AcDbCircle
 10
-204.973716
 20
302.674253
 30
0.0
 40
31.608779
100
AcDbArc
 50
343.310583
 51
0.0
  0
ARC
  5
468
100
AcDbEntity
  8
2
100
AcDbCircle
 10
-209.300615
 20
302.674253
 30
0.0
 40
35.935677
100
AcDbArc
 50
0.0
 51
15.7533
  0
ARC
  5
469
100
AcDbEntity
  8
2
100
AcDbCircle
 10
-170.864938
 20
313.516625
 30
0.0
 40
4.0
100
AcDbArc
 50
180.0
 51
195.7533
  0
ARC
  5
46A
100
AcDbEntity
  8
2
100
AcDbCircle
 10
-170.864938
 20
292.447996
 30
0.0
 40
4.0
100
AcDbArc
 50
163.310583
 51
180.0
  0
ARC
  5
46B
100
AcDbEntity
  8
2
100
AcDbCircle
 10
-203.927474
 20
303.773445
 30
0.0
 40
30.562536
100
AcDbArc
 50
343.058035
 51
359.011317
  0
ARC
  5
46C
100
AcDbEntity
  8
2
100
AcDbCircle
 10
-170.864938
 20
293.701821
 30
0.0
 40
4.0
100
AcDbArc
 50
163.058035
 51
180.0
  0
ARC
  5
46D
100
AcDbEntity
  8
2
100
AcDbCircle
 10
-204.510851
 20
278.737779
 30
0.0
 40
31.145914
100
AcDbArc
 50
360.0
 51
17.045773
  0
ARC
  5
46E
100
AcDbEntity
  8
2
100
AcDbCircle
 10
-197.016443
 20
278.737779
 30
0.0
 40
23.651505
100
AcDbArc
 50
340.685625
 51
360.0
  0
ARC
  5
46F
100
AcDbEntity
  8
2
100
AcDbCircle
 10
-171.864938
 20
288.747162
 30
0.0
 40
3.0
100
AcDbArc
 50
180.0
 51
197.045773
  0
ARC
  5
470
100
AcDbEntity
  8
2
100
AcDbCircle
 10
-171.864938
 20
269.922763
 30
0.0
 40
3.0
100
AcDbArc
 50
160.685625
 51
180.0
  0
ARC
  5
471
100
AcDbEntity
  8
2
100
AcDbCircle
 10
-197.297908
 20
280.861254
 30
0.0
 40
23.93297
100
AcDbArc
 50
340.787775
 51
357.624725
  0
ARC
  5
472
100
AcDbEntity
  8
2
100
AcDbCircle
 10
-171.864938
 20
271.998472
 30
0.0
 40
3.0
100
AcDbArc
 50
160.787775
 51
180.0
  0
ARC
  5
473
100
AcDbEntity
  8
2
100
AcDbCircle
 10
-196.384157
 20
258.183063
 30
0.0
 40
23.019219
100
AcDbArc
 50
0.0
 51
19.549918
  0
ARC
  5
474
100
AcDbEntity
  8
2
100
AcDbCircle
 10
-187.730359
 20
258.183063
 30
0.0
 40
14.365422
100
AcDbArc
 50
335.277407
 51
0.0
  0
ARC
  5
475
100
AcDbEntity
  8
2
100
AcDbCircle
 10
-171.864938
 20
266.889822
 30
0.0
 40
3.0
100
AcDbArc
 50
180.0
 51
199.549918
  0
ARC
  5
476
100
AcDbEntity
  8
2
100
AcDbCircle
 10
-172.864938
 20
251.338629
 30
0.0
 40
2.0
100
AcDbArc
 50
155.277407
 51
180.0
  0
ARC
  5
477
100
AcDbEntity
  8
2
100
AcDbCircle
 10
-188.872277
 20
261.18611
 30
0.0
 40
15.507339
100
AcDbArc
 50
336.109575
 51
354.992816
  0
ARC
  5
478
100
AcDbEntity
  8
2
100
AcDbCircle
 10
-172.864938
 20
254.095834
 30
0.0
 40
2.0
100
AcDbArc
 50
156.109575
 51
180.0
  0
ARC
  5
479
100
AcDbEntity
  8
2
100
AcDbCircle
 10
-187.098074
 20
242.410874
 30
0.0
 40
13.733136
100
AcDbArc
 50
0.0
 51
25.222494
  0
ARC
  5
47A
100
AcDbEntity
  8
2
100
AcDbCircle
 10
-179.603665
 20
242.410874
 30
0.0
 40
6.238728
100
AcDbArc
 50
324.878416
 51
360.0
  0
ARC
  5
47B
100
AcDbEntity
  8
2
100
AcDbCircle
 10
-172.864938
 20
249.115306
 30
0.0
 40
2.0
100
AcDbArc
 50
180.0
 51
205.222494
  0
ARC
  5
47C
100
AcDbEntity
  8
2
100
AcDbCircle
 10
-172.864938
 20
237.671023
 30
0.0
 40
2.0
100
AcDbArc
 50
144.878416
 51
180.0
  0
ARC
  5
47D
100
AcDbEntity
  8
2
100
AcDbCircle
 10
-180.908222
 20
246.088841
 30
0.0
 40
7.543285
100
AcDbArc
 50
327.439264
 51
348.038733
  0
ARC
  5
47E
100
AcDbEntity
  8
2
100
AcDbCircle
 10
-172.864938
 20
240.952709
 30
0.0
 40
2.0
100
AcDbArc
 50
147.439264
 51
180.0
  0
ARC
  5
47F
100
AcDbEntity
  8
2
100
AcDbCircle
 10
-179.1408
 20
232.496061
 30
0.0
 40
5.775863
100
AcDbArc
 50
0.0
 51
36.186897
  0
ARC
  5
480
100
AcDbEntity
  8
2
100
AcDbCircle
 10
-172.864938
 20
237.087095
 30
0.0
 40
2.0
100
AcDbArc
 50
180.0
 51
216.186897
  0
ARC
  5
481
100
AcDbEntity
  8
2
100
AcDbCircle
 10
-174.813901
 20
232.496061
 30
0.0
 40
1.448964
100
AcDbArc
 50
299.278688
 51
360.0
  0
ARC
  5
482
100
AcDbEntity
  8
2
100
AcDbCircle
 10
-175.539706
 20
236.598301
 30
0.0
 40
2.174768
100
AcDbArc
 50
301.838348
 51
315.908947
  0
ARC
  5
483
100
AcDbEntity
  8
2
100
AcDbCircle
 10
-173.864938
 20
233.901209
 30
0.0
 40
1.0
100
AcDbArc
 50
121.838348
 51
180.0
  0
ARC
  5
484
100
AcDbEntity
  8
2
100
AcDbCircle
 10
-171.864938
 20
232.30165
 30
0.0
 40
3.0
100
AcDbArc
 50
180.0
 51
250.978517
  0
ARC
  5
485
100
AcDbEntity
  8
2
100
AcDbCircle
 10
-173.860745
 20
230.796076
 30
0.0
 40
0.5
100
AcDbArc
 50
119.278688
 51
217.02975
  0
CIRCLE
  5
486
100
AcDbEntity
  8
2
  6
PHANTOM
 62
     2
100
AcDbCircle
 10
194.335062
 20
-18.338746
 30
0.0
 40
100.0
  0
CIRCLE
  5
487
100
AcDbEntity
  8
2
  6
PHANTOM
 62
     2
100
AcDbCircle
 10
194.335062
 20
-18.338746
 30
0.0
 40
20.5
  0
LINE
  5
488
100
AcDbEntity
  8
2
  6
PHANTOM
 62
     2
100
AcDbLine
 10
183.335062
 20
5.246207
 30
0.0
 11
183.335062
 21
56.761188
 31
0.0
  0
LINE
  5
489
100
AcDbEntity
  8
2
  6
PHANTOM
 62
     2
100
AcDbLine
 10
205.335062
 20
5.246207
 30
0.0
 11
205.335062
 21
56.761188
 31
0.0
  0
CIRCLE
  5
48A
100
AcDbEntity
  8
2
  6
PHANTOM
 62
     2
100
AcDbCircle
 10
194.335062
 20
-18.338746
 30
0.0
 40
23.5
  0
ARC
  5
48B
100
AcDbEntity
  8
2
  6
PHANTOM
 62
     2
100
AcDbCircle
 10
194.335062
 20
-18.338746
 30
0.0
 40
83.0
100
AcDbArc
 50
82.384177
 51
97.615823
  0
ARC
  5
48C
100
AcDbEntity
  8
2
  6
PHANTOM
 62
     2
100
AcDbCircle
 10
211.335062
 20
56.761188
 30
0.0
 40
6.0
100
AcDbArc
 50
77.245196
 51
180.0
  0
ARC
  5
48D
100
AcDbEntity
  8
2
  6
PHANTOM
 62
     2
100
AcDbCircle
 10
177.335062
 20
56.761188
 30
0.0
 40
6.0
100
AcDbArc
 50
0.0
 51
102.754804
  0
ARC
  5
48E
100
AcDbEntity
  8
2
  6
PHANTOM
 62
     2
100
AcDbCircle
 10
210.335062
 20
5.246207
 30
0.0
 40
5.0
100
AcDbArc
 50
180.0
 51
235.847085
  0
ARC
  5
48F
100
AcDbEntity
  8
2
  6
PHANTOM
 62
     2
100
AcDbCircle
 10
178.335062
 20
5.246207
 30
0.0
 40
5.0
100
AcDbArc
 50
304.152915
 51
360.0
  0
LINE
  5
490
100
AcDbEntity
  8
2
  6
PHANTOM
 62
     2
100
AcDbLine
 10
179.409894
 20
-39.657501
 30
0.0
 11
134.796612
 21
-65.414992
 31
0.0
  0
LINE
  5
491
100
AcDbEntity
  8
2
  6
PHANTOM
 62
     2
100
AcDbLine
 10
168.409894
 20
-20.604943
 30
0.0
 11
123.796612
 21
-46.362433
 31
0.0
  0
ARC
  5
492
100
AcDbEntity
  8
2
  6
PHANTOM
 62
     2
100
AcDbCircle
 10
194.335062
 20
-18.338746
 30
0.0
 40
83.0
100
AcDbArc
 50
202.384177
 51
217.615823
  0
ARC
  5
493
100
AcDbEntity
  8
2
  6
PHANTOM
 62
     2
100
AcDbCircle
 10
120.796612
 20
-41.16628
 30
0.0
 40
6.0
100
AcDbArc
 50
197.245196
 51
300.0
  0
ARC
  5
494
100
AcDbEntity
  8
2
  6
PHANTOM
 62
     2
100
AcDbCircle
 10
137.796612
 20
-70.611144
 30
0.0
 40
6.0
100
AcDbArc
 50
120.0
 51
222.754804
  0
ARC
  5
495
100
AcDbEntity
  8
2
  6
PHANTOM
 62
     2
100
AcDbCircle
 10
165.909894
 20
-16.274816
 30
0.0
 40
5.0
100
AcDbArc
 50
300.0
 51
355.847085
  0
ARC
  5
496
100
AcDbEntity
  8
2
  6
PHANTOM
 62
     2
100
AcDbCircle
 10
181.909894
 20
-43.987628
 30
0.0
 40
5.0
100
AcDbArc
 50
64.152915
 51
120.0
  0
LINE
  5
497
100
AcDbEntity
  8
2
  6
PHANTOM
 62
     2
100
AcDbLine
 10
220.260231
 20
-20.604943
 30
0.0
 11
264.873512
 21
-46.362433
 31
0.0
  0
LINE
  5
498
100
AcDbEntity
  8
2
  6
PHANTOM
 62
     2
100
AcDbLine
 10
209.260231
 20
-39.657501
 30
0.0
 11
253.873512
 21
-65.414992
 31
0.0
  0
ARC
  5
499
100
AcDbEntity
  8
2
  6
PHANTOM
 62
     2
100
AcDbCircle
 10
194.335062
 20
-18.338746
 30
0.0
 40
83.0
100
AcDbArc
 50
322.384177
 51
337.615823
  0
ARC
  5
49A
100
AcDbEntity
  8
2
  6
PHANTOM
 62
     2
100
AcDbCircle
 10
250.873512
 20
-70.611144
 30
0.0
 40
6.0
100
AcDbArc
 50
317.245196
 51
60.0
  0
ARC
  5
49B
100
AcDbEntity
  8
2
  6
PHANTOM
 62
     2
100
AcDbCircle
 10
267.873512
 20
-41.16628
 30
0.0
 40
6.0
100
AcDbArc
 50
240.0
 51
342.754804
  0
ARC
  5
49C
100
AcDbEntity
  8
2
  6
PHANTOM
 62
     2
100
AcDbCircle
 10
206.760231
 20
-43.987628
 30
0.0
 40
5.0
100
AcDbArc
 50
60.0
 51
115.847085
  0
ARC
  5
49D
100
AcDbEntity
  8
2
  6
PHANTOM
 62
     2
100
AcDbCircle
 10
222.760231
 20
-16.274816
 30
0.0
 40
5.0
100
AcDbArc
 50
184.152915
 51
240.0
  0
ARC
  5
49E
100
AcDbEntity
  8
2
  6
PHANTOM
 62
     2
100
AcDbCircle
 10
194.335062
 20
-18.338746
 30
0.0
 40
83.0
100
AcDbArc
 50
102.754804
 51
197.245196
  0
ARC
  5
49F
100
AcDbEntity
  8
2
  6
PHANTOM
 62
     2
100
AcDbCircle
 10
194.335062
 20
-18.338746
 30
0.0
 40
83.0
100
AcDbArc
 50
222.754804
 51
317.245196
  0
ARC
  5
4A0
100
AcDbEntity
  8
2
  6
PHANTOM
 62
     2
100
AcDbCircle
 10
194.335062
 20
-18.338746
 30
0.0
 40
83.0
100
AcDbArc
 50
342.754804
 51
77.245196
  0
DIMENSION
  5
4A1
100
AcDbEntity
  8
5
100
AcDbDimension
  2
*D0
 10
-148.764938
 20
462.522614
 30
0.0
 11
-252.064938
 21
471.122614
 31
0.0
  1
207
100
AcDbAlignedDimension
 13
-355.364938
 23
373.56157
 33
0.0
 14
-148.764938
 24
334.611254
 34
0.0
100
AcDbRotatedDimension
  0
DIMENSION
  5
4A2
100
AcDbEntity
  8
5
100
AcDbDimension
  2
*D1
 10
13.005495
 20
-18.338746
 30
0.0
 11
1.765495
 21
4.861254
 31
0.0
  1
36
100
AcDbAlignedDimension
 13
72.335062
 23
-54.338746
 33
0.0
 14
49.421213
 24
-18.338746
 34
0.0
 50
90.0
100
AcDbRotatedDimension
  0
DIMENSION
  5
4A3
100
AcDbEntity
  8
5
100
AcDbDimension
  2
*D2
 10
13.005495
 20
-54.338746
 30
0.0
 11
-2.854505
 21
-168.498746
 31
0.0
  1
227
100
AcDbAlignedDimension
 13
63.135062
 23
-281.338746
 33
0.0
 14
72.335062
 24
-54.338746
 34
0.0
 50
90.0
100
AcDbRotatedDimension
  0
DIMENSION
  5
4A4
100
AcDbEntity
  8
5
100
AcDbDimension
  2
*D3
 10
13.005495
 20
-281.338746
 30
0.0
 11
-2.854505
 21
-369.848746
 31
0.0
  1
176
100
AcDbAlignedDimension
 13
118.335062
 23
-457.038746
 33
0.0
 14
63.135062
 24
-281.338746
 34
0.0
 50
90.0
100
AcDbRotatedDimension
  0
DIMENSION
  5
4A5
100
AcDbEntity
  8
5
100
AcDbDimension
  2
*D4
 10
153.335062
 20
-507.562744
 30
0.0
 11
123.335062
 21
-498.962744
 31
0.0
  1
60
100
AcDbAlignedDimension
 13
93.335062
 23
-408.338746
 33
0.0
 14
153.335062
 24
-408.338746
 34
0.0
100
AcDbRotatedDimension
  0
DIMENSION
  5
4A6
100
AcDbEntity
  8
5
100
AcDbDimension
  2
*D5
 10
-86.27449
 20
328.361254
 30
0.0
 11
-97.51449
 21
296.821254
 31
0.0
  1
71
100
AcDbAlignedDimension
 13
-198.364938
 23
257.361254
 33
0.0
 14
-133.692315
 24
328.361254
 34
0.0
 50
90.0
100
AcDbRotatedDimension
  0
DIMENSION
  5
4A7
100
AcDbEntity
  8
5
100
AcDbDimension
  2
*D6
 10
-86.27449
 20
257.361254
 30
0.0
 11
-97.51449
 21
228.821254
 31
0.0
  1
65
100
AcDbAlignedDimension
 13
-319.176938
 23
192.361254
 33
0.0
 14
-198.364938
 24
257.361254
 34
0.0
 50
90.0
100
AcDbRotatedDimension
  0
DIMENSION
  5
4A8
100
AcDbEntity
  8
5
100
AcDbDimension
  2
*D7
 10
-86.27449
 20
-118.338746
 30
0.0
 11
-106.75449
 21
-23.618746
 31
0.0
 70
     1
  1
%%c200
100
AcDbAlignedDimension
 13
-169.364938
 23
81.661254
 33
0.0
 14
-169.364938
 24
-118.338746
 34
0.0
 50
270.0
  0
ARC
  5
4A9
100
AcDbEntity
  8
13
100
AcDbCircle
 10
-355.364938
 20
-281.338746
 30
0.0
 40
97.85
100
AcDbArc
 50
119.999927
 51
241.762092
  0
LINE
  5
4AA
100
AcDbEntity
  8
13
100
AcDbLine
 10
-375.555867
 20
-185.988746
 30
0.0
 11
-335.17401
 21
-185.988746
 31
0.0
  0
ARC
  5
4AB
100
AcDbEntity
  8
13
100
AcDbCircle
 10
-355.364938
 20
-284.888746
 30
0.0
 40
100.94
100
AcDbArc
 50
101.538656
 51
118.992348
  0
ARC
  5
4AC
100
AcDbEntity
  8
13
100
AcDbCircle
 10
-355.364938
 20
-277.788746
 30
0.0
 40
100.94
100
AcDbArc
 50
241.007652
 51
258.461344
  0
LINE
  5
4AD
100
AcDbEntity
  8
13
100
AcDbLine
 10
-375.555867
 20
-376.688746
 30
0.0
 11
-335.17401
 21
-376.688746
 31
0.0
  0
ARC
  5
4AE
100
AcDbEntity
  8
13
100
AcDbCircle
 10
-355.364938
 20
-281.338746
 30
0.0
 40
97.85
100
AcDbArc
 50
298.237908
 51
60.000073
  0
LINE
  5
4AF
100
AcDbEntity
  8
13
100
AcDbLine
 10
-365.364938
 20
-229.682476
 30
0.0
 11
-365.364938
 21
-197.988746
 31
0.0
  0
LINE
  5
4B0
100
AcDbEntity
  8
13
100
AcDbLine
 10
-343.364938
 20
-224.843369
 30
0.0
 11
-343.364938
 21
-197.988746
 31
0.0
  0
LINE
  5
4B1
100
AcDbEntity
  8
13
100
AcDbLine
 10
-337.15751
 20
-223.498323
 30
0.0
 11
-337.15751
 21
-197.988746
 31
0.0
  0
ARC
  5
4B2
100
AcDbEntity
  8
13
100
AcDbCircle
 10
-327.15751
 20
-223.498323
 30
0.0
 40
10.0
100
AcDbArc
 50
180.0
 51
265.0
  0
ARC
  5
4B3
100
AcDbEntity
  8
13
100
AcDbCircle
 10
-355.364938
 20
-229.682476
 30
0.0
 40
10.0
100
AcDbArc
 50
180.0
 51
265.000001
  0
LINE
  5
4B4
100
AcDbEntity
  8
13
100
AcDbLine
 10
-376.232669
 20
-230.619798
 30
0.0
 11
-376.232669
 21
-197.988746
 31
0.0
  0
ARC
  5
4B5
100
AcDbEntity
  8
13
100
AcDbCircle
 10
-366.232669
 20
-230.619798
 30
0.0
 40
10.0
100
AcDbArc
 50
180.0
 51
265.0
  0
ARC
  5
4B6
100
AcDbEntity
  8
13
100
AcDbCircle
 10
-333.364938
 20
-224.843369
 30
0.0
 40
10.0
100
AcDbArc
 50
180.0
 51
264.999999
  0
ARC
  5
4B7
100
AcDbEntity
  8
13
100
AcDbCircle
 10
-342.025192
 20
-224.085695
 30
0.0
 40
10.0
100
AcDbArc
 50
180.0
 51
264.999999
  0
LINE
  5
4B8
100
AcDbEntity
  8
13
100
AcDbLine
 10
-374.152414
 20
-193.633353
 30
0.0
 11
-374.152414
 21
-189.322292
 31
0.0
  0
LINE
  5
4B9
100
AcDbEntity
  8
13
100
AcDbLine
 10
-336.577461
 20
-193.241483
 30
0.0
 11
-336.577461
 21
-188.342454
 31
0.0
  0
LINE
  5
4BA
100
AcDbEntity
  8
13
100
AcDbLine
 10
-379.346623
 20
-196.988746
 30
0.0
 11
-330.139878
 21
-196.988746
 31
0.0
  0
LINE
  5
4BB
100
AcDbEntity
  8
13
100
AcDbLine
 10
-327.296555
 20
-195.005142
 30
0.0
 11
-327.296555
 21
-191.085872
 31
0.0
  0
LINE
  5
4BC
100
AcDbEntity
  8
13
100
AcDbLine
 10
-383.433321
 20
-194.613191
 30
0.0
 11
-383.433321
 21
-190.889936
 31
0.0
  0
ARC
  5
4BD
100
AcDbEntity
  8
13
100
AcDbCircle
 10
-355.364938
 20
-392.947274
 30
0.0
 40
197.958528
100
AcDbArc
 50
81.848607
 51
98.151393
  0
ARC
  5
4BE
100
AcDbEntity
  8
13
100
AcDbCircle
 10
-336.15751
 20
-197.988746
 30
0.0
 40
1.0
100
AcDbArc
 50
90.0
 51
180.0
  0
ARC
  5
4BF
100
AcDbEntity
  8
13
100
AcDbCircle
 10
-342.364938
 20
-197.988746
 30
0.0
 40
1.0
100
AcDbArc
 50
90.0
 51
180.0
  0
ARC
  5
4C0
100
AcDbEntity
  8
13
100
AcDbCircle
 10
-366.364938
 20
-197.988746
 30
0.0
 40
1.0
100
AcDbArc
 50
0.0
 51
90.0
  0
ARC
  5
4C1
100
AcDbEntity
  8
13
100
AcDbCircle
 10
-377.232669
 20
-197.988746
 30
0.0
 40
1.0
100
AcDbArc
 50
0.0
 51
90.0
  0
ARC
  5
4C2
100
AcDbEntity
  8
13
100
AcDbCircle
 10
-342.936735
 20
-243.699946
 30
0.0
 40
1.0
100
AcDbArc
 50
85.0
 51
180.0
  0
ARC
  5
4C3
100
AcDbEntity
  8
13
100
AcDbCircle
 10
-349.864938
 20
-243.093807
 30
0.0
 40
1.0
100
AcDbArc
 50
85.0
 51
180.0
  0
ARC
  5
4C4
100
AcDbEntity
  8
13
100
AcDbCircle
 10
-360.864938
 20
-242.131432
 30
0.0
 40
1.0
100
AcDbArc
 50
0.0
 51
85.0
  0
ARC
  5
4C5
100
AcDbEntity
  8
13
100
AcDbCircle
 10
-367.793142
 20
-241.50855
 30
0.0
 40
1.0
100
AcDbArc
 50
0.0
 51
81.84444
  0
LINE
  5
4C6
100
AcDbEntity
  8
13
100
AcDbLine
 10
-376.232669
 20
-277.088746
 30
0.0
 11
-376.232669
 21
-285.588746
 31
0.0
  0
LINE
  5
4C7
100
AcDbEntity
  8
13
100
AcDbLine
 10
-365.364938
 20
-278.969687
 30
0.0
 11
-365.364938
 21
-283.707805
 31
0.0
  0
LINE
  5
4C8
100
AcDbEntity
  8
13
100
AcDbLine
 10
-374.119619
 20
-276.454463
 30
0.0
 11
-365.69633
 21
-277.912331
 31
0.0
  0
LINE
  5
4C9
100
AcDbEntity
  8
13
100
AcDbLine
 10
-365.623675
 20
-284.752586
 30
0.0
 11
-374.214359
 21
-286.239425
 31
0.0
  0
ARC
  5
4CA
100
AcDbEntity
  8
13
100
AcDbCircle
 10
-342.936735
 20
-275.088746
 30
0.0
 40
1.0
100
AcDbArc
 50
180.0
 51
270.0
  0
ARC
  5
4CB
100
AcDbEntity
  8
13
100
AcDbCircle
 10
-367.793142
 20
-275.088746
 30
0.0
 40
1.0
100
AcDbArc
 50
270.0
 51
360.0
  0
ARC
  5
4CC
100
AcDbEntity
  8
13
100
AcDbCircle
 10
-361.857596
 20
-276.392501
 30
0.0
 40
1.0
100
AcDbArc
 50
254.810856
 51
270.0
  0
ARC
  5
4CD
100
AcDbEntity
  8
13
100
AcDbCircle
 10
-348.872279
 20
-276.392501
 30
0.0
 40
1.0
100
AcDbArc
 50
270.0
 51
285.189144
  0
ARC
  5
4CE
100
AcDbEntity
  8
13
100
AcDbCircle
 10
-349.864938
 20
-276.392501
 30
0.0
 40
1.0
100
AcDbArc
 50
180.0
 51
270.0
  0
ARC
  5
4CF
100
AcDbEntity
  8
13
100
AcDbCircle
 10
-360.864938
 20
-276.392501
 30
0.0
 40
1.0
100
AcDbArc
 50
270.0
 51
0.0
  0
ARC
  5
4D0
100
AcDbEntity
  8
13
100
AcDbCircle
 10
-349.864938
 20
-286.284991
 30
0.0
 40
1.0
100
AcDbArc
 50
90.0
 51
180.0
  0
ARC
  5
4D1
100
AcDbEntity
  8
13
100
AcDbCircle
 10
-360.864938
 20
-286.284991
 30
0.0
 40
1.0
100
AcDbArc
 50
0.0
 51
90.0
  0
ARC
  5
4D2
100
AcDbEntity
  8
13
100
AcDbCircle
 10
-367.793142
 20
-287.588746
 30
0.0
 40
1.0
100
AcDbArc
 50
0.0
 51
90.0
  0
ARC
  5
4D3
100
AcDbEntity
  8
13
100
AcDbCircle
 10
-342.936735
 20
-287.588746
 30
0.0
 40
1.0
100
AcDbArc
 50
90.0
 51
180.0
  0
ARC
  5
4D4
100
AcDbEntity
  8
13
100
AcDbCircle
 10
-364.364938
 20
-278.969687
 30
0.0
 40
1.0
100
AcDbArc
 50
90.0
 51
180.0
  0
ARC
  5
4D5
100
AcDbEntity
  8
13
100
AcDbCircle
 10
-364.364938
 20
-283.707805
 30
0.0
 40
1.0
100
AcDbArc
 50
180.0
 51
270.0
  0
ARC
  5
4D6
100
AcDbEntity
  8
13
100
AcDbCircle
 10
-375.232669
 20
-277.088746
 30
0.0
 40
1.0
100
AcDbArc
 50
90.0
 51
180.0
  0
ARC
  5
4D7
100
AcDbEntity
  8
13
100
AcDbCircle
 10
-375.232669
 20
-285.588746
 30
0.0
 40
1.0
100
AcDbArc
 50
180.0
 51
270.0
  0
ARC
  5
4D8
100
AcDbEntity
  8
13
100
AcDbCircle
 10
-361.857596
 20
-286.284991
 30
0.0
 40
1.0
100
AcDbArc
 50
90.0
 51
105.189144
  0
LINE
  5
4D9
100
AcDbEntity
  8
13
100
AcDbLine
 10
-365.364938
 20
-332.995016
 30
0.0
 11
-365.364938
 21
-364.688746
 31
0.0
  0
LINE
  5
4DA
100
AcDbEntity
  8
13
100
AcDbLine
 10
-343.364938
 20
-337.834122
 30
0.0
 11
-343.364938
 21
-364.688746
 31
0.0
  0
LINE
  5
4DB
100
AcDbEntity
  8
13
100
AcDbLine
 10
-337.15751
 20
-339.179168
 30
0.0
 11
-337.15751
 21
-364.688746
 31
0.0
  0
ARC
  5
4DC
100
AcDbEntity
  8
13
100
AcDbCircle
 10
-327.15751
 20
-339.179168
 30
0.0
 40
10.0
100
AcDbArc
 50
95.0
 51
180.0
  0
ARC
  5
4DD
100
AcDbEntity
  8
13
100
AcDbCircle
 10
-355.364938
 20
-332.995016
 30
0.0
 40
10.0
100
AcDbArc
 50
94.999999
 51
180.0
  0
LINE
  5
4DE
100
AcDbEntity
  8
13
100
AcDbLine
 10
-376.232669
 20
-332.057694
 30
0.0
 11
-376.232669
 21
-364.688746
 31
0.0
  0
ARC
  5
4DF
100
AcDbEntity
  8
13
100
AcDbCircle
 10
-366.232669
 20
-332.057694
 30
0.0
 40
10.0
100
AcDbArc
 50
95.0
 51
180.0
  0
ARC
  5
4E0
100
AcDbEntity
  8
13
100
AcDbCircle
 10
-333.364938
 20
-337.834122
 30
0.0
 40
10.0
100
AcDbArc
 50
95.000001
 51
180.0
  0
ARC
  5
4E1
100
AcDbEntity
  8
13
100
AcDbCircle
 10
-342.025192
 20
-338.591796
 30
0.0
 40
10.0
100
AcDbArc
 50
95.000001
 51
180.0
  0
LINE
  5
4E2
100
AcDbEntity
  8
13
100
AcDbLine
 10
-374.152414
 20
-369.044139
 30
0.0
 11
-374.152414
 21
-373.3552
 31
0.0
  0
LINE
  5
4E3
100
AcDbEntity
  8
13
100
AcDbLine
 10
-336.577461
 20
-369.436009
 30
0.0
 11
-336.577461
 21
-374.335037
 31
0.0
  0
LINE
  5
4E4
100
AcDbEntity
  8
13
100
AcDbLine
 10
-379.346623
 20
-365.688746
 30
0.0
 11
-330.139878
 21
-365.688746
 31
0.0
  0
LINE
  5
4E5
100
AcDbEntity
  8
13
100
AcDbLine
 10
-327.296555
 20
-367.67235
 30
0.0
 11
-327.296555
 21
-371.591619
 31
0.0
  0
LINE
  5
4E6
100
AcDbEntity
  8
13
100
AcDbLine
 10
-383.433321
 20
-368.0643
 30
0.0
 11
-383.433321
 21
-371.787555
 31
0.0
  0
ARC
  5
4E7
100
AcDbEntity
  8
13
100
AcDbCircle
 10
-355.364938
 20
-169.730218
 30
0.0
 40
197.958528
100
AcDbArc
 50
261.848607
 51
278.151393
  0
ARC
  5
4E8
100
AcDbEntity
  8
13
100
AcDbCircle
 10
-336.15751
 20
-364.688746
 30
0.0
 40
1.0
100
AcDbArc
 50
180.0
 51
270.0
  0
ARC
  5
4E9
100
AcDbEntity
  8
13
100
AcDbCircle
 10
-342.364938
 20
-364.688746
 30
0.0
 40
1.0
100
AcDbArc
 50
180.0
 51
270.0
  0
ARC
  5
4EA
100
AcDbEntity
  8
13
100
AcDbCircle
 10
-366.364938
 20
-364.688746
 30
0.0
 40
1.0
100
AcDbArc
 50
270.0
 51
360.0
  0
ARC
  5
4EB
100
AcDbEntity
  8
13
100
AcDbCircle
 10
-377.232669
 20
-364.688746
 30
0.0
 40
1.0
100
AcDbArc
 50
270.0
 51
360.0
  0
ARC
  5
4EC
100
AcDbEntity
  8
13
100
AcDbCircle
 10
-349.864938
 20
-319.583684
 30
0.0
 40
1.0
100
AcDbArc
 50
180.0
 51
275.0
  0
ARC
  5
4ED
100
AcDbEntity
  8
13
100
AcDbCircle
 10
-360.864938
 20
-320.54606
 30
0.0
 40
1.0
100
AcDbArc
 50
275.0
 51
360.0
  0
ARC
  5
4EE
100
AcDbEntity
  8
13
100
AcDbCircle
 10
-367.793142
 20
-321.168941
 30
0.0
 40
1.0
100
AcDbArc
 50
278.15556
 51
360.0
  0
ARC
  5
4EF
100
AcDbEntity
  8
13
100
AcDbCircle
 10
-342.936735
 20
-318.977545
 30
0.0
 40
1.0
100
AcDbArc
 50
180.0
 51
275.0
  0
LINE
  5
4F0
100
AcDbEntity
  8
13
100
AcDbLine
 10
-350.864938
 20
-320.99716
 30
0.0
 11
-350.864938
 21
-286.284991
 31
0.0
  0
LINE
  5
4F1
100
AcDbEntity
  8
13
100
AcDbLine
 10
-359.864938
 20
-320.54606
 30
0.0
 11
-359.864938
 21
-286.284991
 31
0.0
  0
LINE
  5
4F2
100
AcDbEntity
  8
13
100
AcDbLine
 10
-366.793142
 20
-321.168941
 30
0.0
 11
-366.793142
 21
-287.588746
 31
0.0
  0
LINE
  5
4F3
100
AcDbEntity
  8
13
100
AcDbLine
 10
-343.936735
 20
-318.922463
 30
0.0
 11
-343.936735
 21
-287.588746
 31
0.0
  0
LINE
  5
4F4
100
AcDbEntity
  8
13
100
AcDbLine
 10
-268.394038
 20
-276.088746
 30
0.0
 11
-342.936735
 21
-276.088746
 31
0.0
  0
LINE
  5
4F5
100
AcDbEntity
  8
13
100
AcDbLine
 10
-275.199803
 20
-277.969687
 30
0.0
 11
-364.364938
 21
-277.969687
 31
0.0
  0
LINE
  5
4F6
100
AcDbEntity
  8
13
100
AcDbLine
 10
-274.234727
 20
-277.969687
 30
0.0
 11
-268.506088
 21
-276.733504
 31
0.0
  0
LINE
  5
4F7
100
AcDbEntity
  8
13
100
AcDbLine
 10
-274.234727
 20
-284.707805
 30
0.0
 11
-268.51685
 21
-285.941666
 31
0.0
  0
LINE
  5
4F8
100
AcDbEntity
  8
13
100
AcDbLine
 10
-275.199803
 20
-284.707805
 30
0.0
 11
-364.364938
 21
-284.707805
 31
0.0
  0
LINE
  5
4F9
100
AcDbEntity
  8
13
100
AcDbLine
 10
-268.394038
 20
-286.588746
 30
0.0
 11
-343.936736
 21
-286.588746
 31
0.0
  0
LINE
  5
4FA
100
AcDbEntity
  8
13
100
AcDbLine
 10
-274.65279
 20
-248.670198
 30
0.0
 11
-367.104226
 21
-240.581745
 31
0.0
  0
LINE
  5
4FB
100
AcDbEntity
  8
13
100
AcDbLine
 10
-283.971912
 20
-245.966754
 30
0.0
 11
-356.236495
 21
-239.644423
 31
0.0
  0
LINE
  5
4FC
100
AcDbEntity
  8
13
100
AcDbLine
 10
-282.199154
 20
-246.121851
 30
0.0
 11
-275.370384
 21
-247.912439
 31
0.0
  0
LINE
  5
4FD
100
AcDbEntity
  8
13
100
AcDbLine
 10
-284.950237
 20
-238.897264
 30
0.0
 11
-279.189423
 21
-238.26349
 31
0.0
  0
LINE
  5
4FE
100
AcDbEntity
  8
13
100
AcDbLine
 10
-286.569409
 20
-238.975647
 30
0.0
 11
-342.896749
 21
-234.047642
 31
0.0
  0
LINE
  5
4FF
100
AcDbEntity
  8
13
100
AcDbLine
 10
-278.11729
 20
-237.826985
 30
0.0
 11
-328.029068
 21
-233.46027
 31
0.0
  0
ARC
  5
500
100
AcDbEntity
  8
13
100
AcDbCircle
 10
-355.364938
 20
-281.338746
 30
0.0
 40
90.0
100
AcDbArc
 50
23.195785
 51
27.76095
  0
ARC
  5
501
100
AcDbEntity
  8
13
100
AcDbCircle
 10
-355.364938
 20
-281.338746
 30
0.0
 40
81.200134
100
AcDbArc
 50
26.966399
 51
31.050673
  0
ARC
  5
502
100
AcDbEntity
  8
13
100
AcDbCircle
 10
-355.364938
 20
-281.338746
 30
0.0
 40
90.0
100
AcDbArc
 50
358.518047
 51
1.481953
  0
ARC
  5
503
100
AcDbEntity
  8
13
100
AcDbCircle
 10
-355.364938
 20
-281.338746
 30
0.0
 40
81.200134
100
AcDbArc
 50
358.307274
 51
1.692726
  0
ARC
  5
504
100
AcDbEntity
  8
13
100
AcDbCircle
 10
-355.364938
 20
-281.338746
 30
0.0
 40
96.040811
100
AcDbArc
 50
283.180734
 51
76.819266
  0
ARC
  5
505
100
AcDbEntity
  8
13
100
AcDbCircle
 10
-268.394038
 20
-279.088746
 30
0.0
 40
3.0
100
AcDbArc
 50
1.481953
 51
90.0
  0
ARC
  5
506
100
AcDbEntity
  8
13
100
AcDbCircle
 10
-268.394038
 20
-283.588746
 30
0.0
 40
3.0
100
AcDbArc
 50
270.0
 51
358.518047
  0
ARC
  5
507
100
AcDbEntity
  8
13
100
AcDbCircle
 10
-278.378757
 20
-240.815569
 30
0.0
 40
3.0
100
AcDbArc
 50
27.76095
 51
85.0
  0
ARC
  5
508
100
AcDbEntity
  8
13
100
AcDbCircle
 10
-274.478478
 20
-246.677809
 30
0.0
 40
2.0
100
AcDbArc
 50
265.0
 51
23.195785
  0
ARC
  5
509
100
AcDbEntity
  8
13
100
AcDbCircle
 10
-275.199803
 20
-278.969687
 30
0.0
 40
1.0
100
AcDbArc
 50
1.692726
 51
90.0
  0
ARC
  5
50A
100
AcDbEntity
  8
13
100
AcDbCircle
 10
-275.199803
 20
-283.707805
 30
0.0
 40
1.0
100
AcDbArc
 50
270.0
 51
358.307274
  0
ARC
  5
50B
100
AcDbEntity
  8
13
100
AcDbCircle
 10
-286.656565
 20
-239.971841
 30
0.0
 40
1.0
100
AcDbArc
 50
31.050673
 51
85.0
  0
ARC
  5
50C
100
AcDbEntity
  8
13
100
AcDbCircle
 10
-283.884756
 20
-244.97056
 30
0.0
 40
1.0
100
AcDbArc
 50
265.0
 51
26.966399
  0
LINE
  5
50D
100
AcDbEntity
  8
13
100
AcDbLine
 10
-343.936735
 20
-276.088745
 30
0.0
 11
-348.610273
 21
-277.357567
 31
0.0
  0
LINE
  5
50E
100
AcDbEntity
  8
13
100
AcDbLine
 10
-350.864938
 20
-276.392501
 30
0.0
 11
-350.864938
 21
-243.093807
 31
0.0
  0
LINE
  5
50F
100
AcDbEntity
  8
13
100
AcDbLine
 10
-343.936735
 20
-275.088746
 30
0.0
 11
-343.936735
 21
-243.699946
 31
0.0
  0
ARC
  5
510
100
AcDbEntity
  8
13
100
AcDbCircle
 10
-355.364938
 20
-646.495732
 30
0.0
 40
271.782739
100
AcDbArc
 50
86.392881
 51
93.607119
  0
ARC
  5
511
100
AcDbEntity
  8
13
100
AcDbCircle
 10
-373.502111
 20
-358.784104
 30
0.0
 40
16.5
100
AcDbArc
 50
256.819266
 51
273.607119
  0
ARC
  5
512
100
AcDbEntity
  8
13
100
AcDbCircle
 10
-337.227765
 20
-358.784104
 30
0.0
 40
16.5
100
AcDbArc
 50
266.392881
 51
283.180734
  0
ARC
  5
513
100
AcDbEntity
  8
13
100
AcDbCircle
 10
-355.364938
 20
-281.338746
 30
0.0
 40
96.040811
100
AcDbArc
 50
103.180734
 51
256.819266
  0
LINE
  5
514
100
AcDbEntity
  8
13
100
AcDbLine
 10
-348.872279
 20
-277.392501
 30
0.0
 11
-361.857596
 21
-277.392501
 31
0.0
  0
LINE
  5
515
100
AcDbEntity
  8
13
100
AcDbLine
 10
-366.793142
 20
-275.088746
 30
0.0
 11
-366.793142
 21
-241.50855
 31
0.0
  0
LINE
  5
516
100
AcDbEntity
  8
13
100
AcDbLine
 10
-346.354942
 20
-283.573526
 30
0.0
 11
-346.354942
 21
-279.137823
 31
0.0
  0
LINE
  5
517
100
AcDbEntity
  8
13
100
AcDbLine
 10
-359.864938
 20
-276.392501
 30
0.0
 11
-359.864938
 21
-242.131432
 31
0.0
  0
LINE
  5
518
100
AcDbEntity
  8
13
100
AcDbLine
 10
-348.470828
 20
-285.284991
 30
0.0
 11
-361.857596
 21
-285.284991
 31
0.0
  0
LINE
  5
519
100
AcDbEntity
  8
13
100
AcDbLine
 10
-343.936736
 20
-286.588746
 30
0.0
 11
-348.738947
 21
-285.284991
 31
0.0
  0
LINE
  5
51A
100
AcDbEntity
  8
13
100
AcDbLine
 10
-375.232669
 20
-276.088746
 30
0.0
 11
-367.793142
 21
-276.088746
 31
0.0
  0
LINE
  5
51B
100
AcDbEntity
  8
13
100
AcDbLine
 10
-375.232669
 20
-286.588746
 30
0.0
 11
-367.793142
 21
-286.588746
 31
0.0
  0
LINE
  5
51C
100
AcDbEntity
  8
13
100
AcDbLine
 10
-366.79314
 20
-286.588746
 30
0.0
 11
-362.119602
 21
-285.319924
 31
0.0
  0
LINE
  5
51D
100
AcDbEntity
  8
13
100
AcDbLine
 10
-366.793142
 20
-276.088745
 30
0.0
 11
-362.119602
 21
-277.357567
 31
0.0
  0
LINE
  5
51E
100
AcDbEntity
  8
13
100
AcDbLine
 10
-274.65279
 20
-314.007294
 30
0.0
 11
-367.104226
 21
-322.095747
 31
0.0
  0
LINE
  5
51F
100
AcDbEntity
  8
13
100
AcDbLine
 10
-283.971912
 20
-316.710738
 30
0.0
 11
-356.236495
 21
-323.033069
 31
0.0
  0
LINE
  5
520
100
AcDbEntity
  8
13
100
AcDbLine
 10
-282.199154
 20
-316.555641
 30
0.0
 11
-275.370384
 21
-314.765053
 31
0.0
  0
LINE
  5
521
100
AcDbEntity
  8
13
100
AcDbLine
 10
-284.950237
 20
-323.780228
 30
0.0
 11
-279.189423
 21
-324.414002
 31
0.0
  0
LINE
  5
522
100
AcDbEntity
  8
13
100
AcDbLine
 10
-286.569409
 20
-323.701845
 30
0.0
 11
-342.896749
 21
-328.629849
 31
0.0
  0
LINE
  5
523
100
AcDbEntity
  8
13
100
AcDbLine
 10
-278.11729
 20
-324.850507
 30
0.0
 11
-328.029068
 21
-329.217221
 31
0.0
  0
ARC
  5
524
100
AcDbEntity
  8
13
100
AcDbCircle
 10
-355.364938
 20
-281.338746
 30
0.0
 40
90.0
100
AcDbArc
 50
332.23905
 51
336.804215
  0
ARC
  5
525
100
AcDbEntity
  8
13
100
AcDbCircle
 10
-355.364938
 20
-281.338746
 30
0.0
 40
81.200134
100
AcDbArc
 50
328.949327
 51
333.033601
  0
ARC
  5
526
100
AcDbEntity
  8
13
100
AcDbCircle
 10
-278.378757
 20
-321.861923
 30
0.0
 40
3.0
100
AcDbArc
 50
275.0
 51
332.23905
  0
ARC
  5
527
100
AcDbEntity
  8
13
100
AcDbCircle
 10
-274.478478
 20
-315.999683
 30
0.0
 40
2.0
100
AcDbArc
 50
336.804215
 51
95.0
  0
ARC
  5
528
100
AcDbEntity
  8
13
100
AcDbCircle
 10
-286.656565
 20
-322.705651
 30
0.0
 40
1.0
100
AcDbArc
 50
275.0
 51
328.949327
  0
ARC
  5
529
100
AcDbEntity
  8
13
100
AcDbCircle
 10
-283.884756
 20
-317.706932
 30
0.0
 40
1.0
100
AcDbArc
 50
333.033601
 51
95.0
  0
ARC
  5
52A
100
AcDbEntity
  8
13
100
AcDbCircle
 10
-337.227765
 20
-203.893387
 30
0.0
 40
16.5
100
AcDbArc
 50
76.819266
 51
93.607119
  0
ARC
  5
52B
100
AcDbEntity
  8
13
100
AcDbCircle
 10
-373.502111
 20
-203.893387
 30
0.0
 40
16.5
100
AcDbArc
 50
86.392881
 51
103.180734
  0
ARC
  5
52C
100
AcDbEntity
  8
13
100
AcDbCircle
 10
-355.364938
 20
83.81824
 30
0.0
 40
271.782739
100
AcDbArc
 50
266.392881
 51
273.607119
  0
ARC
  5
52D
100
AcDbEntity
  8
13
100
AcDbCircle
 10
-355.364938
 20
-284.888746
 30
0.0
 40
100.94
100
AcDbArc
 50
61.007652
 51
78.461344
  0
ARC
  5
52E
100
AcDbEntity
  8
13
100
AcDbCircle
 10
-355.364938
 20
-277.788746
 30
0.0
 40
100.94
100
AcDbArc
 50
281.538656
 51
298.992348
  0
POINT
  5
52F
100
AcDbEntity
  8
13
100
AcDbPoint
 10
-355.364938
 20
-281.338746
 30
0.0
  0
TEXT
  5
530
100
AcDbEntity
  8
18
100
AcDbText
 10
488.578522
 20
-533.055969
 30
0.0
 40
12.0
  1
１
 72
     5
 11
498.178522
 21
-533.055969
 31
0.0
100
AcDbText
  0
TEXT
  5
531
100
AcDbEntity
  8
18
100
AcDbText
 10
506.164917
 20
-548.404053
 30
0.0
 40
12.0
  1
４
 72
     5
 11
515.764917
 21
-548.404053
 31
0.0
100
AcDbText
  0
TEXT
  5
532
100
AcDbEntity
  8
18
100
AcDbText
 10
491.416962
 20
-492.141052
 30
0.0
 40
12.0
  1
７００Ｇ－２ＩＡＳ　２００Ａ
 72
     5
 11
657.016962
 21
-492.141052
 31
0.0
100
AcDbText
  0
TEXT
  5
533
100
AcDbEntity
  8
18
100
AcDbText
 10
491.416962
 20
-508.141052
 30
0.0
 40
12.0
  1
標準仕様　ＪＩＳ　５，１０Ｋ
 72
     5
 11
657.016962
 21
-508.141052
 31
0.0
100
AcDbText
  0
TEXT
  5
534
100
AcDbEntity
  8
18
100
AcDbText
 10
614.4
 20
-544.0
 30
0.0
 40
20.0
  1
Ｄ３－０３６１６
 72
     5
 11
770.4
 21
-544.0
 31
0.0
100
AcDbText
  0
TEXT
  5
535
100
AcDbEntity
  8
18
100
AcDbText
 10
720.632446
 20
-507.543213
 30
0.0
 40
8.0
  1
２００４．１２．２０
 72
     5
 11
799.032446
 21
-507.543213
 31
0.0
100
AcDbText
  0
LINE
  5
536
100
AcDbEntity
  8
18
100
AcDbLine
 10
486.196304
 20
-272.862473
 30
0.0
 11
686.196304
 21
-272.862473
 31
0.0
  0
LINE
  5
537
100
AcDbEntity
  8
18
100
AcDbLine
 10
486.196304
 20
-352.862473
 30
0.0
 11
686.196304
 21
-352.862473
 31
0.0
  0
LINE
  5
538
100
AcDbEntity
  8
18
100
AcDbLine
 10
486.196304
 20
-372.862473
 30
0.0
 11
686.196304
 21
-372.862473
 31
0.0
  0
LINE
  5
539
100
AcDbEntity
  8
18
100
AcDbLine
 10
486.196304
 20
-392.862473
 30
0.0
 11
686.196304
 21
-392.862473
 31
0.0
  0
LINE
  5
53A
100
AcDbEntity
  8
18
100
AcDbLine
 10
486.196304
 20
-272.862473
 30
0.0
 11
486.196304
 21
-392.862473
 31
0.0
  0
LINE
  5
53B
100
AcDbEntity
  8
18
100
AcDbLine
 10
586.196304
 20
-272.862473
 30
0.0
 11
586.196304
 21
-372.862473
 31
0.0
  0
LINE
  5
53C
100
AcDbEntity
  8
18
100
AcDbLine
 10
686.196304
 20
-272.862473
 30
0.0
 11
686.196304
 21
-392.862473
 31
0.0
  0
TEXT
  5
53D
100
AcDbEntity
  8
18
100
AcDbText
 10
526.719254
 20
-368.150955
 30
0.0
 40
12.0
  1
A
 72
     5
 11
536.319254
 21
-368.150955
 31
0.0
100
AcDbText
  0
TEXT
  5
53E
100
AcDbEntity
  8
18
100
AcDbText
 10
626.719254
 20
-368.150955
 30
0.0
 40
12.0
  1
B
 72
     5
 11
636.319254
 21
-368.150955
 31
0.0
100
AcDbText
  0
LINE
  5
53F
100
AcDbEntity
  8
18
  6
CENTER
 62
     2
100
AcDbLine
 10
501.829483
 20
-327.173553
 30
0.0
 11
561.472427
 21
-327.173553
 31
0.0
  0
LINE
  5
540
100
AcDbEntity
  8
18
  6
CENTER
 62
     2
100
AcDbLine
 10
531.921036
 20
-299.427719
 30
0.0
 11
531.921036
 21
-342.373108
 31
0.0
  0
LINE
  5
541
100
AcDbEntity
  8
18
100
AcDbLine
 10
557.921036
 20
-319.973553
 30
0.0
 11
557.921036
 21
-334.373553
 31
0.0
  0
LINE
  5
542
100
AcDbEntity
  8
18
100
AcDbLine
 10
505.921036
 20
-319.973553
 30
0.0
 11
505.921036
 21
-334.373553
 31
0.0
  0
LINE
  5
543
100
AcDbEntity
  8
18
100
AcDbLine
 10
522.707991
 20
-303.173553
 30
0.0
 11
545.121036
 21
-303.173553
 31
0.0
  0
LINE
  5
544
100
AcDbEntity
  8
18
100
AcDbLine
 10
545.521036
 20
-311.173553
 30
0.0
 11
566.214005
 21
-311.173553
 31
0.0
  0
LINE
  5
545
100
AcDbEntity
  8
18
100
AcDbLine
 10
566.214005
 20
-297.573553
 30
0.0
 11
566.214005
 21
-320.773553
 31
0.0
  0
LINE
  5
546
100
AcDbEntity
  8
18
100
AcDbLine
 10
571.014005
 20
-297.573553
 30
0.0
 11
571.014005
 21
-320.773553
 31
0.0
  0
LINE
  5
547
100
AcDbEntity
  8
18
100
AcDbLine
 10
545.521036
 20
-307.173553
 30
0.0
 11
566.214005
 21
-307.173553
 31
0.0
  0
LINE
  5
548
100
AcDbEntity
  8
18
100
AcDbLine
 10
542.91701
 20
-315.173553
 30
0.0
 11
545.121036
 21
-315.173553
 31
0.0
  0
ARC
  5
549
100
AcDbEntity
  8
18
100
AcDbCircle
 10
531.921036
 20
-327.173553
 30
0.0
 40
12.0
100
AcDbArc
 50
167.624033
 51
5.0
  0
LINE
  5
54A
100
AcDbEntity
  8
18
100
AcDbLine
 10
506.721036
 20
-319.173553
 30
0.0
 11
520.575107
 21
-319.173553
 31
0.0
  0
LINE
  5
54B
100
AcDbEntity
  8
18
100
AcDbLine
 10
543.266965
 20
-319.173553
 30
0.0
 11
557.121036
 21
-319.173553
 31
0.0
  0
LINE
  5
54C
100
AcDbEntity
  8
18
100
AcDbLine
 10
506.721036
 20
-335.173553
 30
0.0
 11
522.976764
 21
-335.173553
 31
0.0
  0
LINE
  5
54D
100
AcDbEntity
  8
18
100
AcDbLine
 10
540.865308
 20
-335.173553
 30
0.0
 11
557.121036
 21
-335.173553
 31
0.0
  0
LINE
  5
54E
100
AcDbEntity
  8
18
100
AcDbLine
 10
526.451118
 20
-325.973553
 30
0.0
 11
537.390954
 21
-325.973553
 31
0.0
  0
LINE
  5
54F
100
AcDbEntity
  8
18
100
AcDbLine
 10
526.451118
 20
-328.373553
 30
0.0
 11
537.390954
 21
-328.373553
 31
0.0
  0
ARC
  5
550
100
AcDbEntity
  8
18
100
AcDbCircle
 10
568.614005
 20
-297.573553
 30
0.0
 40
2.4
100
AcDbArc
 50
0.0
 51
180.0
  0
ARC
  5
551
100
AcDbEntity
  8
18
100
AcDbCircle
 10
568.614005
 20
-320.773553
 30
0.0
 40
2.4
100
AcDbArc
 50
180.0
 51
360.0
  0
LINE
  5
552
100
AcDbEntity
  8
18
100
AcDbLine
 10
519.966699
 20
-326.127685
 30
0.0
 11
521.911035
 21
-303.903829
 31
0.0
  0
LINE
  5
553
100
AcDbEntity
  8
18
100
AcDbLine
 10
543.875372
 20
-326.127685
 30
0.0
 11
541.931037
 21
-303.903829
 31
0.0
  0
LINE
  5
554
100
AcDbEntity
  8
18
100
AcDbLine
 10
545.521036
 20
-314.773553
 30
0.0
 11
545.521036
 21
-303.573553
 31
0.0
  0
TEXT
  5
555
100
AcDbEntity
  8
18
100
AcDbText
 10
526.348685
 20
-321.097107
 30
0.0
 40
6.0
  1
O
 72
     5
 11
531.148685
 21
-321.097107
 31
0.0
100
AcDbText
  0
TEXT
  5
556
100
AcDbEntity
  8
18
100
AcDbText
 10
543.47366
 20
-332.618436
 30
0.0
 40
6.0
  1
S
 50
90.0
 72
     5
 11
543.47366
 21
-327.818436
 31
0.0
100
AcDbText
  0
ARC
  5
557
100
AcDbEntity
  8
18
100
AcDbCircle
 10
522.707991
 20
-303.973553
 30
0.0
 40
0.8
100
AcDbArc
 50
90.0
 51
175.0
  0
ARC
  5
558
100
AcDbEntity
  8
18
100
AcDbCircle
 10
541.134081
 20
-303.973553
 30
0.0
 40
0.8
100
AcDbArc
 50
5.0
 51
90.0
  0
ARC
  5
559
100
AcDbEntity
  8
18
100
AcDbCircle
 10
506.721036
 20
-319.973553
 30
0.0
 40
0.8
100
AcDbArc
 50
90.0
 51
180.0
  0
ARC
  5
55A
100
AcDbEntity
  8
18
100
AcDbCircle
 10
506.721036
 20
-334.373553
 30
0.0
 40
0.8
100
AcDbArc
 50
180.0
 51
270.0
  0
ARC
  5
55B
100
AcDbEntity
  8
18
100
AcDbCircle
 10
557.121036
 20
-319.973553
 30
0.0
 40
0.8
100
AcDbArc
 50
0.0
 51
90.0
  0
ARC
  5
55C
100
AcDbEntity
  8
18
100
AcDbCircle
 10
557.121036
 20
-334.373553
 30
0.0
 40
0.8
100
AcDbArc
 50
270.0
 51
360.0
  0
ARC
  5
55D
100
AcDbEntity
  8
18
100
AcDbCircle
 10
545.121036
 20
-303.573553
 30
0.0
 40
0.4
100
AcDbArc
 50
0.0
 51
90.0
  0
ARC
  5
55E
100
AcDbEntity
  8
18
100
AcDbCircle
 10
545.121036
 20
-314.773553
 30
0.0
 40
0.4
100
AcDbArc
 50
270.0
 51
360.0
  0
LINE
  5
55F
100
AcDbEntity
  8
18
  6
CENTER
 62
     2
100
AcDbLine
 10
631.921036
 20
-282.481522
 30
0.0
 11
631.921036
 21
-320.177505
 31
0.0
  0
LINE
  5
560
100
AcDbEntity
  8
18
  6
CENTER
 62
     2
100
AcDbLine
 10
659.66687
 20
-301.173553
 30
0.0
 11
602.11055
 21
-301.173553
 31
0.0
  0
LINE
  5
561
100
AcDbEntity
  8
18
100
AcDbLine
 10
655.921036
 20
-291.960508
 30
0.0
 11
655.921036
 21
-314.373553
 31
0.0
  0
LINE
  5
562
100
AcDbEntity
  8
18
100
AcDbLine
 10
647.921036
 20
-314.773553
 30
0.0
 11
647.921036
 21
-335.466522
 31
0.0
  0
LINE
  5
563
100
AcDbEntity
  8
18
100
AcDbLine
 10
661.521036
 20
-335.466522
 30
0.0
 11
638.321036
 21
-335.466522
 31
0.0
  0
LINE
  5
564
100
AcDbEntity
  8
18
100
AcDbLine
 10
661.521036
 20
-340.266522
 30
0.0
 11
638.321036
 21
-340.266522
 31
0.0
  0
LINE
  5
565
100
AcDbEntity
  8
18
100
AcDbLine
 10
651.921036
 20
-314.773553
 30
0.0
 11
651.921036
 21
-335.466522
 31
0.0
  0
LINE
  5
566
100
AcDbEntity
  8
18
100
AcDbLine
 10
643.921036
 20
-312.169528
 30
0.0
 11
643.921036
 21
-314.373553
 31
0.0
  0
ARC
  5
567
100
AcDbEntity
  8
18
100
AcDbCircle
 10
631.921036
 20
-301.173553
 30
0.0
 40
12.0
100
AcDbArc
 50
77.624033
 51
275.0
  0
LINE
  5
568
100
AcDbEntity
  8
18
100
AcDbLine
 10
633.121036
 20
-295.703636
 30
0.0
 11
633.121036
 21
-306.643471
 31
0.0
  0
LINE
  5
569
100
AcDbEntity
  8
18
100
AcDbLine
 10
630.721036
 20
-295.703636
 30
0.0
 11
630.721036
 21
-306.643471
 31
0.0
  0
ARC
  5
56A
100
AcDbEntity
  8
18
100
AcDbCircle
 10
661.521036
 20
-337.866522
 30
0.0
 40
2.4
100
AcDbArc
 50
270.0
 51
90.0
  0
ARC
  5
56B
100
AcDbEntity
  8
18
100
AcDbCircle
 10
638.321036
 20
-337.866522
 30
0.0
 40
2.4
100
AcDbArc
 50
90.0
 51
270.0
  0
LINE
  5
56C
100
AcDbEntity
  8
18
100
AcDbLine
 10
632.966905
 20
-289.219217
 30
0.0
 11
655.19076
 21
-291.163553
 31
0.0
  0
LINE
  5
56D
100
AcDbEntity
  8
18
100
AcDbLine
 10
632.966905
 20
-313.12789
 30
0.0
 11
655.19076
 21
-311.183554
 31
0.0
  0
LINE
  5
56E
100
AcDbEntity
  8
18
100
AcDbLine
 10
644.321036
 20
-314.773553
 30
0.0
 11
655.521036
 21
-314.773553
 31
0.0
  0
TEXT
  5
56F
100
AcDbEntity
  8
18
100
AcDbText
 10
637.597482
 20
-295.601202
 30
0.0
 40
6.0
  1
O
 50
270.0
 72
     5
 11
637.597482
 21
-300.401202
 31
0.0
100
AcDbText
  0
TEXT
  5
570
100
AcDbEntity
  8
18
100
AcDbText
 10
626.476154
 20
-312.726178
 30
0.0
 40
6.0
  1
S
 72
     5
 11
631.276154
 21
-312.726178
 31
0.0
100
AcDbText
  0
ARC
  5
571
100
AcDbEntity
  8
18
100
AcDbCircle
 10
655.121036
 20
-291.960508
 30
0.0
 40
0.8
100
AcDbArc
 50
0.0
 51
85.0
  0
ARC
  5
572
100
AcDbEntity
  8
18
100
AcDbCircle
 10
655.121036
 20
-310.386599
 30
0.0
 40
0.8
100
AcDbArc
 50
275.0
 51
360.0
  0
ARC
  5
573
100
AcDbEntity
  8
18
100
AcDbCircle
 10
655.521036
 20
-314.373553
 30
0.0
 40
0.4
100
AcDbArc
 50
270.0
 51
360.0
  0
ARC
  5
574
100
AcDbEntity
  8
18
100
AcDbCircle
 10
644.321036
 20
-314.373553
 30
0.0
 40
0.4
100
AcDbArc
 50
180.0
 51
270.0
  0
LINE
  5
575
100
AcDbEntity
  8
18
100
AcDbLine
 10
606.721036
 20
-293.173553
 30
0.0
 11
622.976764
 21
-293.173553
 31
0.0
  0
LINE
  5
576
100
AcDbEntity
  8
18
100
AcDbLine
 10
606.721036
 20
-309.173553
 30
0.0
 11
622.976764
 21
-309.173553
 31
0.0
  0
LINE
  5
577
100
AcDbEntity
  8
18
100
AcDbLine
 10
655.921036
 20
-309.173553
 30
0.0
 11
657.121036
 21
-309.173553
 31
0.0
  0
LINE
  5
578
100
AcDbEntity
  8
18
100
AcDbLine
 10
655.921036
 20
-293.173553
 30
0.0
 11
657.121036
 21
-293.173553
 31
0.0
  0
LINE
  5
579
100
AcDbEntity
  8
18
100
AcDbLine
 10
657.921036
 20
-293.973553
 30
0.0
 11
657.921036
 21
-308.373553
 31
0.0
  0
LINE
  5
57A
100
AcDbEntity
  8
18
100
AcDbLine
 10
605.921036
 20
-293.973553
 30
0.0
 11
605.921036
 21
-308.373553
 31
0.0
  0
ARC
  5
57B
100
AcDbEntity
  8
18
100
AcDbCircle
 10
606.721036
 20
-293.973553
 30
0.0
 40
0.8
100
AcDbArc
 50
90.0
 51
180.0
  0
ARC
  5
57C
100
AcDbEntity
  8
18
100
AcDbCircle
 10
606.721036
 20
-308.373553
 30
0.0
 40
0.8
100
AcDbArc
 50
180.0
 51
270.0
  0
ARC
  5
57D
100
AcDbEntity
  8
18
100
AcDbCircle
 10
657.121036
 20
-308.373553
 30
0.0
 40
0.8
100
AcDbArc
 50
270.0
 51
360.0
  0
ARC
  5
57E
100
AcDbEntity
  8
18
100
AcDbCircle
 10
657.121036
 20
-293.973553
 30
0.0
 40
0.8
100
AcDbArc
 50
0.0
 51
90.0
  0
CIRCLE
  5
57F
100
AcDbEntity
  8
18
100
AcDbCircle
 10
531.921036
 20
-327.173553
 30
0.0
 40
5.6
  0
CIRCLE
  5
580
100
AcDbEntity
  8
18
100
AcDbCircle
 10
631.921036
 20
-301.173553
 30
0.0
 40
5.6
  0
POINT
  5
581
100
AcDbEntity
  8
18
100
AcDbPoint
 10
486.196304
 20
-272.862473
 30
0.0
  0
TEXT
  5
582
100
AcDbEntity
  8
18
100
AcDbText
 10
511.186661
 20
-388.912771
 30
0.0
 40
12.0
  1
駆 動 部 取 付 方 向
 72
     5
 11
664.786661
 21
-388.912771
 31
0.0
100
AcDbText
  0
LINE
  5
583
100
AcDbEntity
  8
20
 62
     3
100
AcDbLine
 10
-720.0
 20
-554.0
 30
0.0
 11
800.0
 21
-554.0
 31
0.0
  0
LINE
  5
584
100
AcDbEntity
  8
20
 62
     3
100
AcDbLine
 10
-720.0
 20
528.0
 30
0.0
 11
800.0
 21
528.0
 31
0.0
  0
LINE
  5
585
100
AcDbEntity
  8
20
 62
     3
100
AcDbLine
 10
-720.0
 20
528.0
 30
0.0
 11
-720.0
 21
-554.0
 31
0.0
  0
LINE
  5
586
100
AcDbEntity
  8
20
 62
     3
100
AcDbLine
 10
800.0
 20
528.0
 30
0.0
 11
800.0
 21
-554.0
 31
0.0
  0
LINE
  5
587
100
AcDbEntity
  8
20
 62
     3
100
AcDbLine
 10
240.0
 20
-554.0
 30
0.0
 11
240.0
 21
-474.0
 31
0.0
  0
LINE
  5
588
100
AcDbEntity
  8
20
 62
     3
100
AcDbLine
 10
428.0
 20
-554.0
 30
0.0
 11
428.0
 21
-474.0
 31
0.0
  0
LINE
  5
589
100
AcDbEntity
  8
20
100
AcDbLine
 10
428.0
 20
-514.0
 30
0.0
 11
800.0
 21
-514.0
 31
0.0
  0
LINE
  5
58A
100
AcDbEntity
  8
20
 62
     3
100
AcDbLine
 10
240.0
 20
-474.0
 30
0.0
 11
800.0
 21
-474.0
 31
0.0
  0
LINE
  5
58B
100
AcDbEntity
  8
20
100
AcDbLine
 10
720.0
 20
-514.0
 30
0.0
 11
720.0
 21
-474.0
 31
0.0
  0
LINE
  5
58C
100
AcDbEntity
  8
20
100
AcDbLine
 10
720.0
 20
-494.0
 30
0.0
 11
800.0
 21
-494.0
 31
0.0
  0
LINE
  5
58D
100
AcDbEntity
  8
20
100
AcDbLine
 10
484.0
 20
-554.0
 30
0.0
 11
484.0
 21
-474.0
 31
0.0
  0
LINE
  5
58E
100
AcDbEntity
  8
20
100
AcDbLine
 10
524.0
 20
-554.0
 30
0.0
 11
524.0
 21
-514.0
 31
0.0
  0
LINE
  5
58F
100
AcDbEntity
  8
20
100
AcDbLine
 10
604.0
 20
-554.0
 30
0.0
 11
604.0
 21
-514.0
 31
0.0
  0
LINE
  5
590
100
AcDbEntity
  8
20
100
AcDbLine
 10
494.913658
 20
-543.086342
 30
0.0
 11
511.593163
 21
-526.406837
 31
0.0
  0
TEXT
  5
591
100
AcDbEntity
  8
20
100
AcDbText
 10
526.133316
 20
-529.987671
 30
0.0
 40
7.2
  1
ＤＲＡＷＩＮＧ　ＮＯ．
 72
     5
 11
603.893316
 21
-529.987671
 31
0.0
100
AcDbText
  0
TEXT
  5
592
100
AcDbEntity
  8
20
100
AcDbText
 10
534.0
 20
-546.0
 30
0.0
 40
12.0
  1
図　　　番
 72
     5
 11
591.6
 21
-546.0
 31
0.0
100
AcDbText
  0
TEXT
  5
593
100
AcDbEntity
  8
20
100
AcDbText
 10
744.0
 20
-488.0
 30
0.0
 40
8.0
  1
ＤＡＴＥ
 72
     5
 11
774.4
 21
-488.0
 31
0.0
100
AcDbText
  0
TEXT
  5
594
100
AcDbEntity
  8
20
100
AcDbText
 10
436.004284
 20
-531.844116
 30
0.0
 40
8.0
  1
ＳＣＡＬＥ
 72
     5
 11
474.404284
 21
-531.844116
 31
0.0
100
AcDbText
  0
TEXT
  5
595
100
AcDbEntity
  8
20
100
AcDbText
 10
432.0
 20
-546.0
 30
0.0
 40
12.0
  1
尺　　度
 72
     5
 11
477.6
 21
-546.0
 31
0.0
100
AcDbText
  0
TEXT
  5
596
100
AcDbEntity
  8
20
100
AcDbText
 10
430.004284
 20
-489.983539
 30
0.0
 40
8.0
  1
ＦＩＧ．ＮＯ．
 72
     5
 11
484.404284
 21
-489.983539
 31
0.0
100
AcDbText
  0
TEXT
  5
597
100
AcDbEntity
  8
20
100
AcDbText
 10
432.0
 20
-506.0
 30
0.0
 40
12.0
  1
名　　称
 72
     5
 11
477.6
 21
-506.0
 31
0.0
100
AcDbText
  0
TEXT
  5
598
100
AcDbEntity
  8
20
100
AcDbText
 10
242.2621
 20
-505.881012
 30
0.0
 40
9.2
  1
ＴＯＭＯＥ　ＶＡＬＶＥ　ＣＯ．，ＬＴＤ．
 72
     5
 11
424.4221
 21
-505.881012
 31
0.0
100
AcDbText
  0
TEXT
  5
599
100
AcDbEntity
  8
20
100
AcDbText
 10
270.0
 20
-533.159241
 30
0.0
 40
16.0
  1
巴バルブ株式会社
 72
     5
 11
394.8
 21
-533.159241
 31
0.0
100
AcDbText
  0
ENDSEC
  0
SECTION
  2
OBJECTS
  0
DICTIONARY
  5
5FA
100
AcDbDictionary
  3
ACAD_GROUP
350
5FB
  3
ACAD_MLINESTYLE
350
5FC
  0
DICTIONARY
  5
5FB
102
{ACAD_REACTORS
330
5FA
102
}
100
AcDbDictionary
  0
DICTIONARY
  5
5FC
102
{ACAD_REACTORS
330
5FA
102
}
100
AcDbDictionary
  3
STANDARD
350
5FD
  0
MLINESTYLE
  5
5FD
102
{ACAD_REACTORS
330
5FC
102
}
100
AcDbMlineStyle
  2
STANDARD
 70
     0
  3

 62
     0
 51
90.0
 52
90.0
 71
     2
 49
0.5
 62
   256
  6
BYLAYER
 49
-0.5
 62
   256
  6
BYLAYER
  0
ENDSEC
  0
EOF
