  0
SECTION
  2
HEADER
  9
$ACADVER
  1
AC1012
  9
$DWGCODEPAGE
  3
ansi_932
  9
$INSBASE
 10
0.0
 20
0.0
 30
0.0
  9
$EXTMIN
 10
-840.0
 20
-594.0
 30
1.000000E+20
  9
$EXTMAX
 10
840.0
 20
594.0
 30
-1.000000E+20
  9
$LIMMIN
 10
-840.0
 20
-594.0
  9
$LIMMAX
 10
840.0
 20
594.0
  9
$ORTHOMODE
 70
     0
  9
$REGENMODE
 70
     1
  9
$FILLMODE
 70
     1
  9
$QTEXTMODE
 70
     0
  9
$MIRRTEXT
 70
     1
  9
$DRAGMODE
 70
     2
  9
$LTSCALE
 40
1.0
  9
$OSMODE
 70
     0
  9
$ATTMODE
 70
     1
  9
$TEXTSIZE
 40
0.2
  9
$TRACEWID
 40
0.05
  9
$TEXTSTYLE
  7
STANDARD
  9
$CLAYER
  8
0
  9
$CELTYPE
  6
CONTINUOUS
  9
$CECOLOR
 62
   256
  9
$CELTSCALE
 40
1.0
  9
$DELOBJ
 70
     1
  9
$DISPSILH
 70
     0
  9
$DIMSCALE
 40
4.0
  9
$DIMASZ
 40
0.18
  9
$DIMEXO
 40
0.0625
  9
$DIMDLI
 40
0.38
  9
$DIMRND
 40
0.0
  9
$DIMDLE
 40
0.0
  9
$DIMEXE
 40
0.18
  9
$DIMTP
 40
0.0
  9
$DIMTM
 40
0.0
  9
$DIMTXT
 40
0.18
  9
$DIMCEN
 40
0.09
  9
$DIMTSZ
 40
0.0
  9
$DIMTOL
 70
     0
  9
$DIMLIM
 70
     0
  9
$DIMTIH
 70
     1
  9
$DIMTOH
 70
     1
  9
$DIMSE1
 70
     0
  9
$DIMSE2
 70
     0
  9
$DIMTAD
 70
     1
  9
$DIMZIN
 70
     0
  9
$DIMBLK
  1

  9
$DIMASO
 70
     1
  9
$DIMSHO
 70
     1
  9
$DIMPOST
  1

  9
$DIMAPOST
  1

  9
$DIMALT
 70
     0
  9
$DIMALTD
 70
     2
  9
$DIMALTF
 40
25.4
  9
$DIMLFAC
 40
1.0
  9
$DIMTOFL
 70
     0
  9
$DIMTVP
 40
0.0
  9
$DIMTIX
 70
     0
  9
$DIMSOXD
 70
     0
  9
$DIMSAH
 70
     0
  9
$DIMBLK1
  1

  9
$DIMBLK2
  1

  9
$DIMSTYLE
  2
STANDARD
  9
$DIMCLRD
 70
     0
  9
$DIMCLRE
 70
     0
  9
$DIMCLRT
 70
     0
  9
$DIMTFAC
 40
1.0
  9
$DIMGAP
 40
0.09
  9
$DIMJUST
 70
     0
  9
$DIMSD1
 70
     0
  9
$DIMSD2
 70
     0
  9
$DIMTOLJ
 70
     1
  9
$DIMTZIN
 70
     0
  9
$DIMALTZ
 70
     0
  9
$DIMALTTZ
 70
     0
  9
$DIMFIT
 70
     3
  9
$DIMUPT
 70
     0
  9
$DIMUNIT
 70
     2
  9
$DIMDEC
 70
     4
  9
$DIMTDEC
 70
     4
  9
$DIMALTU
 70
     2
  9
$DIMALTTD
 70
     2
  9
$DIMTXSTY
  7
STANDARD
  9
$DIMAUNIT
 70
     0
  9
$LUNITS
 70
     2
  9
$LUPREC
 70
     4
  9
$SKETCHINC
 40
0.1
  9
$FILLETRAD
 40
0.0
  9
$AUNITS
 70
     0
  9
$AUPREC
 70
     0
  9
$MENU
  1
acad
  9
$ELEVATION
 40
0.0
  9
$PELEVATION
 40
0.0
  9
$THICKNESS
 40
0.0
  9
$LIMCHECK
 70
     0
  9
$BLIPMODE
 70
     1
  9
$CHAMFERA
 40
0.0
  9
$CHAMFERB
 40
0.0
  9
$CHAMFERC
 40
0.0
  9
$CHAMFERD
 40
0.0
  9
$SKPOLY
 70
     0
  9
$TDCREATE
 40
2450291.000000000
  9
$TDUPDATE
 40
0.000000000
  9
$TDINDWG
 40
0.0000000000
  9
$TDUSRTIMER
 40
0.0000000000
  9
$USRTIMER
 70
     1
  9
$ANGBASE
 50
0.0
  9
$ANGDIR
 70
     0
  9
$PDMODE
 70
     0
  9
$PDSIZE
 40
0.0
  9
$PLINEWID
 40
0.0
  9
$COORDS
 70
     0
  9
$SPLFRAME
 70
     0
  9
$SPLINETYPE
 70
     6
  9
$SPLINESEGS
 70
     8
  9
$ATTDIA
 70
     0
  9
$ATTREQ
 70
     1
  9
$HANDLING
 70
     1
  9
$HANDSEED
  5
5D5
  9
$SURFTAB1
 70
     6
  9
$SURFTAB2
 70
     6
  9
$SURFTYPE
 70
     6
  9
$SURFU
 70
     6
  9
$SURFV
 70
     6
  9
$UCSNAME
  2

  9
$UCSORG
 10
0.0
 20
0.0
 30
0.0
  9
$UCSXDIR
 10
1.0
 20
0.0
 30
0.0
  9
$UCSYDIR
 10
0.0
 20
1.0
 30
0.0
  9
$PUCSNAME
  2

  9
$PUCSORG
 10
0.0
 20
0.0
 30
0.0
  9
$PUCSXDIR
 10
1.0
 20
0.0
 30
0.0
  9
$PUCSYDIR
 10
0.0
 20
1.0
 30
0.0
  9
$USERI1
 70
     0
  9
$USERI2
 70
     0
  9
$USERI3
 70
     0
  9
$USERI4
 70
     0
  9
$USERI5
 70
     0
  9
$USERR1
 40
0.0
  9
$USERR2
 40
0.0
  9
$USERR3
 40
0.0
  9
$USERR4
 40
0.0
  9
$USERR5
 40
0.0
  9
$WORLDVIEW
 70
     1
  9
$SHADEDGE
 70
     3
  9
$SHADEDIF
 70
    70
  9
$TILEMODE
 70
     1
  9
$MAXACTVP
 70
    16
  9
$PINSBASE
 10
0.0
 20
0.0
 30
0.0
  9
$PLIMCHECK
 70
     0
  9
$PEXTMIN
 10
1.000000E+20
 20
1.000000E+20
 30
1.000000E+20
  9
$PEXTMAX
 10
-1.000000E+20
 20
-1.000000E+20
 30
-1.000000E+20
  9
$PLIMMIN
 10
0.0
 20
0.0
  9
$PLIMMAX
 10
12.0
 20
9.0
  9
$UNITMODE
 70
     0
  9
$VISRETAIN
 70
     0
  9
$PLINEGEN
 70
     1
  9
$PSLTSCALE
 70
     0
  9
$TREEDEPTH
 70
  3020
  9
$PICKSTYLE
 70
     1
  9
$CMLSTYLE
  2
STANDARD
  9
$CMLJUST
 70
     0
  9
$CMLSCALE
 40
1.0
  9
$SAVEIMAGES
 70
     0
  0
ENDSEC
  0
SECTION
  2
CLASSES
  0
CLASS
  1
LWPOLYLINE
  2
AcDbPolyline
  3
"AutoCAD"
 90
    32768
280
     0
281
     1
  0
CLASS
  1
IMAGE
  2
AcDbRasterImage
  3
ISM
 90
    32895
280
     0
281
     1
  0
CLASS
  1
OLE2FRAME
  2
AcDbOle2Frame
  3
""
 90
    32768
280
     0
281
     1
  0
CLASS
  1
HATCH
  2
AcDbHatch
  3
"ACAD_SEDONA"
 90
    32768
280
     0
281
     1
  0
CLASS
  1
DICTIONARYVAR
  2
AcDbDictionaryVar
  3
"AutoCAD"
 90
    32768
280
     0
281
     0
  0
CLASS
  1
RASTERVARIABLES
  2
AcDbRasterVariables
  3
ISM
 90
    32768
280
     0
281
     0
  0
CLASS
  1
IMAGEDEF
  2
AcDbRasterImageDef
  3
ISM
 90
    32768
280
     0
281
     0
  0
CLASS
  1
IMAGEDEF_REACTOR
  2
AcDbRasterImageDefReactor
  3
ISM
 90
    32769
280
     0
281
     0
  0
CLASS
  1
IDBUFFER
  2
AcDbIdBuffer
  3
"Acad"
 90
    32768
280
     0
281
     0
  0
CLASS
  1
SPATIAL_FILTER
  2
AcDbSpatialFilter
  3
"Acad"
 90
    32768
280
     0
281
     0
  0
CLASS
  1
XRECORD
  2
AcDbXrecord
  3
"<Built In>"
 90
    32768
280
     0
281
     0
  0
CLASS
  1
SORTENTSTABLE
  2
AcDbSortentsTable
  3
"AutoCAD"
 90
    32768
280
     0
281
     0
  0
CLASS
  1
LAYER_INDEX
  2
AcDbLayerIndex
  3
"Acad"
 90
    32768
280
     0
281
     0
  0
CLASS
  1
SPATIAL_INDEX
  2
AcDbSpatialIndex
  3
"Acad"
 90
    32768
280
     0
281
     0
  0
CLASS
  1
OBJECT_PTR
  2
CAseDLPNTableRecord
  3
"ASE-LPNTableRecord"
 90
    32769
280
     0
281
     0
  0
CLASS
  1
LAYOUT
  2
AcDbLayout
  3
"AutoCAD 2000"
 90
    32768
280
     0
281
     0
  0
CLASS
  1
PLOTSETTINGS
  2
AcDbPlotSettings
  3
"AutoCAD 2000"
 90
    32768
280
     0
281
     0
  0
CLASS
  1
ACDBDICTIONARYWDFLT
  2
AcDbDictionaryWithDefault
  3
"AutoCAD 2000"
 90
    32768
280
     0
281
     0
  0
CLASS
  1
ACDBPLACEHOLDER
  2
AcDbPlaceHolder
  3
"AutoCAD 2000"
 90
    32768
280
     0
281
     0
  0
CLASS
  1
VBA_PROJECT
  2
AcDbVbaProject
  3
"acadvba"
 90
    32768
280
     0
281
     0
  0
CLASS
  1
WIPEOUT
  2
AcDbWipeout
  3
WipeOut|AutoCAD Express Tool|expresstools@autodesk.com
 90
    32895
280
     0
281
     1
  0
CLASS
  1
WIPEOUTVARIABLES
  2
AcDbWipeoutVariables
  3
WipeOut|AutoCAD Express Tool|expresstools@autodesk.com
 90
    32768
280
     0
281
     0
  0
CLASS
  1
RTEXT
  2
RText
  3
RText|AutoCAD Express Tool|expresstools@autodesk.com
 90
    32768
280
     0
281
     1
  0
CLASS
  1
ARCALIGNEDTEXT
  2
AcDbArcAlignedText
  3
ATEXT|AutoCAD Express Tool|expresstools@autodesk.com
 90
    32768
280
     0
281
     1
  0
ENDSEC
  0
SECTION
  2
TABLES
  0
TABLE
  2
VPORT
  5
6
100
AcDbSymbolTable
 70
     1
  0
VPORT
  5
1B
100
AcDbSymbolTableRecord
100
AcDbViewportTableRecord
  2
*ACTIVE
 70
     0
 10
0.0
 20
0.0
 11
1.0
 21
1.0
 12
0.0
 22
0.0
 13
0.0
 23
0.0
 14
1.0
 24
1.0
 15
0.0
 25
0.0
 16
0.0
 26
0.0
 36
1.0
 17
0.0
 27
0.0
 37
0.0
 40
1188.0
 41
1.414141
 42
50.0
 43
0.0
 44
0.0
 50
0.0
 51
0.0
 71
     0
 72
   500
 73
     1
 74
     1
 75
     0
 76
     0
 77
     0
 78
     0
  0
ENDTAB
  0
TABLE
  2
LTYPE
  5
3
100
AcDbSymbolTable
 70
     9
  0
LTYPE
  5
C
100
AcDbSymbolTableRecord
100
AcDbLinetypeTableRecord
  2
BYBLOCK
 70
    64
  3

 72
    65
 73
     0
 40
0.0
  0
LTYPE
  5
D
100
AcDbSymbolTableRecord
100
AcDbLinetypeTableRecord
  2
BYLAYER
 70
    64
  3

 72
    65
 73
     0
 40
0.0
  0
LTYPE
  5
E
100
AcDbSymbolTableRecord
100
AcDbLinetypeTableRecord
  2
CONTINUOUS
 70
     0
  3
Solid line
 72
    65
 73
     0
 40
0.0
  0
LTYPE
  5
F
100
AcDbSymbolTableRecord
100
AcDbLinetypeTableRecord
  2
DASHED
 70
     0
  3
__ __ __ __ __ __ __ __ __ __ __ __ __ __ __
 72
    65
 73
     2
 40
2.0
 49
1.2
 74
     0
 49
-0.8
 74
     0
  0
LTYPE
  5
10
100
AcDbSymbolTableRecord
100
AcDbLinetypeTableRecord
  2
CENTER
 70
     0
  3
____ _ ____ _ ____ _ ____ _ ____ _ ____ _ ____
 72
    65
 73
     4
 40
12.0
 49
9.0
 74
     0
 49
-1.0
 74
     0
 49
1.0
 74
     0
 49
-1.0
 74
     0
  0
LTYPE
  5
11
100
AcDbSymbolTableRecord
100
AcDbLinetypeTableRecord
  2
HIDDEN
 70
     0
  3
_ _ _ _ _ _ _ _ _ _ _ _ _ _ _ _ _ _ _ _ _ _ _
 72
    65
 73
     2
 40
3.2
 49
2.4
 74
     0
 49
-0.8
 74
     0
  0
LTYPE
  5
12
100
AcDbSymbolTableRecord
100
AcDbLinetypeTableRecord
  2
PHANTOM
 70
     0
  3
_____ _ _ _____ _ _ _____ _ _ _____ _ _ _____
 72
    65
 73
     6
 40
13.5
 49
9.0
 74
     0
 49
-1.0
 74
     0
 49
1.0
 74
     0
 49
-0.5
 74
     0
 49
1.0
 74
     0
 49
-1.0
 74
     0
  0
LTYPE
  5
13
100
AcDbSymbolTableRecord
100
AcDbLinetypeTableRecord
  2
DOT
 70
     0
  3
...............................................
 72
    65
 73
     2
 40
1.0
 49
0.5
 74
     0
 49
-0.5
 74
     0
  0
LTYPE
  5
14
100
AcDbSymbolTableRecord
100
AcDbLinetypeTableRecord
  2
DASHDOT
 70
     0
  3
__ . __ . __ . __ . __ . __ . __ . __ . __ . __
 72
    65
 73
     4
 40
8.0
 49
5.0
 74
     0
 49
-1.0
 74
     0
 49
1.0
 74
     0
 49
-1.0
 74
     0
  0
ENDTAB
  0
TABLE
  2
LAYER
  5
1
100
AcDbSymbolTable
 70
     6
  0
LAYER
  5
15
100
AcDbSymbolTableRecord
100
AcDbLayerTableRecord
  2
0
 70
     0
 62
     7
  6
CONTINUOUS
  0
LAYER
  5
16
100
AcDbSymbolTableRecord
100
AcDbLayerTableRecord
  2
1
 70
     0
 62
     7
  6
CONTINUOUS
  0
LAYER
  5
17
100
AcDbSymbolTableRecord
100
AcDbLayerTableRecord
  2
2
 70
     0
 62
     7
  6
CONTINUOUS
  0
LAYER
  5
18
100
AcDbSymbolTableRecord
100
AcDbLayerTableRecord
  2
5
 70
     0
 62
     7
  6
CONTINUOUS
  0
LAYER
  5
19
100
AcDbSymbolTableRecord
100
AcDbLayerTableRecord
  2
18
 70
     0
 62
     7
  6
CONTINUOUS
  0
LAYER
  5
1A
100
AcDbSymbolTableRecord
100
AcDbLayerTableRecord
  2
20
 70
     0
 62
     7
  6
CONTINUOUS
  0
ENDTAB
  0
TABLE
  2
STYLE
  5
2
100
AcDbSymbolTable
 70
     1
  0
STYLE
  5
1D
100
AcDbSymbolTableRecord
100
AcDbTextStyleTableRecord
  2
STANDARD
 70
    64
 40
0.0
 41
1.0
 50
0.0
 71
     0
 42
1.0
  3
txt
  4
BIGFONT
  0
ENDTAB
  0
TABLE
  2
VIEW
  5
4
100
AcDbSymbolTable
 70
     0
  0
ENDTAB
  0
TABLE
  2
UCS
  5
5
100
AcDbSymbolTable
 70
     0
  0
ENDTAB
  0
TABLE
  2
APPID
  5
7
100
AcDbSymbolTable
 70
     1
  0
APPID
  5
1C
100
AcDbSymbolTableRecord
100
AcDbRegAppTableRecord
  2
ACAD
 70
     0
  0
ENDTAB
  0
TABLE
  2
DIMSTYLE
  5
8
100
AcDbSymbolTable
 70
     1
  0
DIMSTYLE
105
2D
100
AcDbSymbolTableRecord
100
AcDbDimStyleTableRecord
  2
STANDARD
 70
     0
  3

  4

  5

  6

  7

 40
4.0
 41
0.18
 42
0.0625
 43
0.38
 44
0.18
 45
0.0
 46
0.0
 47
0.0
 48
0.0
 71
     0
 72
     0
 73
     1
 74
     1
 75
     0
 76
     0
 77
     1
 78
     0
140
0.18
141
0.09
142
0.0
143
25.4
144
1.0
145
0.0
146
1.0
147
0.09
170
     0
171
     2
172
     0
173
     0
174
     0
175
     0
176
     0
177
     0
178
     0
270
     2
271
     4
272
     4
273
     2
274
     2
275
     0
280
     0
281
     0
282
     0
283
     1
284
     0
285
     0
286
     0
287
     3
288
     0
340
1D
  0
ENDTAB
  0
TABLE
  2
BLOCK_RECORD
  5
28
100
AcDbSymbolTable
 70
     8
  0
BLOCK_RECORD
  5
26
100
AcDbSymbolTableRecord
100
AcDbBlockTableRecord
  2
*MODEL_SPACE
  0
BLOCK_RECORD
  5
27
100
AcDbSymbolTableRecord
100
AcDbBlockTableRecord
  2
*PAPER_SPACE
  0
BLOCK_RECORD
  5
1E
100
AcDbSymbolTableRecord
100
AcDbBlockTableRecord
  2
*D0
  0
BLOCK_RECORD
  5
1F
100
AcDbSymbolTableRecord
100
AcDbBlockTableRecord
  2
*D1
  0
BLOCK_RECORD
  5
20
100
AcDbSymbolTableRecord
100
AcDbBlockTableRecord
  2
*D2
  0
BLOCK_RECORD
  5
21
100
AcDbSymbolTableRecord
100
AcDbBlockTableRecord
  2
*D3
  0
BLOCK_RECORD
  5
22
100
AcDbSymbolTableRecord
100
AcDbBlockTableRecord
  2
*D4
  0
BLOCK_RECORD
  5
23
100
AcDbSymbolTableRecord
100
AcDbBlockTableRecord
  2
*D5
  0
BLOCK_RECORD
  5
24
100
AcDbSymbolTableRecord
100
AcDbBlockTableRecord
  2
*D6
  0
BLOCK_RECORD
  5
25
100
AcDbSymbolTableRecord
100
AcDbBlockTableRecord
  2
*D7
  0
ENDTAB
  0
ENDSEC
  0
SECTION
  2
BLOCKS
  0
BLOCK
  5
29
100
AcDbEntity
  8
0
100
AcDbBlockBegin
  2
*MODEL_SPACE
 70
     0
 10
0.0
 20
0.0
 30
0.0
  3
*MODEL_SPACE
  1

  0
ENDBLK
  5
2A
100
AcDbEntity
  8
0
100
AcDbBlockEnd
  0
BLOCK
  5
2B
100
AcDbEntity
 67
     1
  8
0
100
AcDbBlockBegin
  2
*PAPER_SPACE
 70
     0
 10
0.0
 20
0.0
 30
0.0
  3
*PAPER_SPACE
  1

  0
ENDBLK
  5
2C
100
AcDbEntity
 67
     1
  8
0
100
AcDbBlockEnd
  0
BLOCK
  5
572
100
AcDbEntity
  8
5
100
AcDbBlockBegin
  2
*D0
 70
     1
 10
0.0
 20
0.0
 30
0.0
  3
*D0
  1

  0
TEXT
  5
573
100
AcDbEntity
  8
5
 62
     2
100
AcDbText
 10
123.274369
 20
-534.586914
 30
0.0
 40
13.2
  1
78
 41
1.4
 72
     5
 11
138.058369
 21
-534.586914
 31
0.0
100
AcDbText
  0
LINE
  5
574
100
AcDbEntity
  8
5
 62
     2
100
AcDbLine
 10
93.514369
 20
-426.26731
 30
0.0
 11
93.514369
 21
-540.586914
 31
0.0
  0
LINE
  5
575
100
AcDbEntity
  8
5
 62
     2
100
AcDbLine
 10
93.514369
 20
-536.586914
 30
0.0
 11
101.241776
 21
-538.657466
 31
0.0
  0
LINE
  5
576
100
AcDbEntity
  8
5
 62
     2
100
AcDbLine
 10
93.514369
 20
-536.586914
 30
0.0
 11
101.241776
 21
-534.516362
 31
0.0
  0
LINE
  5
577
100
AcDbEntity
  8
5
 62
     2
100
AcDbLine
 10
101.241776
 20
-538.657466
 30
0.0
 11
101.241776
 21
-534.516362
 31
0.0
  0
LINE
  5
578
100
AcDbEntity
  8
5
 62
     2
100
AcDbLine
 10
93.514369
 20
-536.586914
 30
0.0
 11
171.514369
 21
-536.586914
 31
0.0
  0
LINE
  5
579
100
AcDbEntity
  8
5
 62
     2
100
AcDbLine
 10
171.514369
 20
-536.586914
 30
0.0
 11
163.786962
 21
-534.516362
 31
0.0
  0
LINE
  5
57A
100
AcDbEntity
  8
5
 62
     2
100
AcDbLine
 10
171.514369
 20
-536.586914
 30
0.0
 11
163.786962
 21
-538.657466
 31
0.0
  0
LINE
  5
57B
100
AcDbEntity
  8
5
 62
     2
100
AcDbLine
 10
163.786962
 20
-534.516362
 30
0.0
 11
163.786962
 21
-538.657466
 31
0.0
  0
LINE
  5
57C
100
AcDbEntity
  8
5
 62
     2
100
AcDbLine
 10
171.514369
 20
-426.26731
 30
0.0
 11
171.514369
 21
-540.586914
 31
0.0
  0
ENDBLK
  5
57D
100
AcDbEntity
  8
5
100
AcDbBlockEnd
  0
BLOCK
  5
57E
100
AcDbEntity
  8
5
100
AcDbBlockBegin
  2
*D1
 70
     1
 10
0.0
 20
0.0
 30
0.0
  3
*D1
  1

  0
TEXT
  5
57F
100
AcDbEntity
  8
5
 62
     2
100
AcDbText
 10
-9.291853
 20
-97.62731
 30
0.0
 40
13.2
  1
312
 50
90.0
 41
1.4
 72
     5
 11
-9.291853
 21
-73.60331
 31
0.0
100
AcDbText
  0
LINE
  5
580
100
AcDbEntity
  8
5
 62
     2
100
AcDbLine
 10
65.814369
 20
-239.76731
 30
0.0
 11
-11.291853
 21
-239.76731
 31
0.0
  0
LINE
  5
581
100
AcDbEntity
  8
5
 62
     2
100
AcDbLine
 10
-7.291853
 20
-239.76731
 30
0.0
 11
-5.221301
 21
-232.039903
 31
0.0
  0
LINE
  5
582
100
AcDbEntity
  8
5
 62
     2
100
AcDbLine
 10
-7.291853
 20
-239.76731
 30
0.0
 11
-9.362406
 21
-232.039903
 31
0.0
  0
LINE
  5
583
100
AcDbEntity
  8
5
 62
     2
100
AcDbLine
 10
-5.221301
 20
-232.039903
 30
0.0
 11
-9.362406
 21
-232.039903
 31
0.0
  0
LINE
  5
584
100
AcDbEntity
  8
5
 62
     2
100
AcDbLine
 10
-7.291853
 20
-239.76731
 30
0.0
 11
-7.291853
 21
72.23269
 31
0.0
  0
LINE
  5
585
100
AcDbEntity
  8
5
 62
     2
100
AcDbLine
 10
-7.291853
 20
72.23269
 30
0.0
 11
-9.362406
 21
64.505284
 31
0.0
  0
LINE
  5
586
100
AcDbEntity
  8
5
 62
     2
100
AcDbLine
 10
-7.291853
 20
72.23269
 30
0.0
 11
-5.221301
 21
64.505284
 31
0.0
  0
LINE
  5
587
100
AcDbEntity
  8
5
 62
     2
100
AcDbLine
 10
-9.362406
 20
64.505284
 30
0.0
 11
-5.221301
 21
64.505284
 31
0.0
  0
LINE
  5
588
100
AcDbEntity
  8
5
 62
     2
100
AcDbLine
 10
66.014369
 20
72.23269
 30
0.0
 11
-11.291853
 21
72.23269
 31
0.0
  0
ENDBLK
  5
589
100
AcDbEntity
  8
5
100
AcDbBlockEnd
  0
BLOCK
  5
58A
100
AcDbEntity
  8
5
100
AcDbBlockBegin
  2
*D2
 70
     1
 10
0.0
 20
0.0
 30
0.0
  3
*D2
  1

  0
TEXT
  5
58B
100
AcDbEntity
  8
5
 62
     2
100
AcDbText
 10
-9.291853
 20
73.00269
 30
0.0
 40
13.2
  1
38.5
 50
90.0
 41
1.4
 72
     5
 11
-9.291853
 21
106.26669
 31
0.0
100
AcDbText
  0
LINE
  5
58C
100
AcDbEntity
  8
5
 62
     2
100
AcDbLine
 10
-7.291853
 20
72.23269
 30
0.0
 11
-5.221301
 21
79.960097
 31
0.0
  0
LINE
  5
58D
100
AcDbEntity
  8
5
 62
     2
100
AcDbLine
 10
-7.291853
 20
72.23269
 30
0.0
 11
-9.362406
 21
79.960097
 31
0.0
  0
LINE
  5
58E
100
AcDbEntity
  8
5
 62
     2
100
AcDbLine
 10
-5.221301
 20
79.960097
 30
0.0
 11
-9.362406
 21
79.960097
 31
0.0
  0
LINE
  5
58F
100
AcDbEntity
  8
5
 62
     2
100
AcDbLine
 10
-7.291853
 20
72.23269
 30
0.0
 11
-7.291853
 21
110.73269
 31
0.0
  0
LINE
  5
590
100
AcDbEntity
  8
5
 62
     2
100
AcDbLine
 10
-7.291853
 20
110.73269
 30
0.0
 11
-9.362406
 21
103.005284
 31
0.0
  0
LINE
  5
591
100
AcDbEntity
  8
5
 62
     2
100
AcDbLine
 10
-7.291853
 20
110.73269
 30
0.0
 11
-5.221301
 21
103.005284
 31
0.0
  0
LINE
  5
592
100
AcDbEntity
  8
5
 62
     2
100
AcDbLine
 10
-9.362406
 20
103.005284
 30
0.0
 11
-5.221301
 21
103.005284
 31
0.0
  0
LINE
  5
593
100
AcDbEntity
  8
5
 62
     2
100
AcDbLine
 10
54.60052
 20
110.73269
 30
0.0
 11
-11.291853
 21
110.73269
 31
0.0
  0
ENDBLK
  5
594
100
AcDbEntity
  8
5
100
AcDbBlockEnd
  0
BLOCK
  5
595
100
AcDbEntity
  8
5
100
AcDbBlockBegin
  2
*D3
 70
     1
 10
0.0
 20
0.0
 30
0.0
  3
*D3
  1

  0
LINE
  5
596
100
AcDbEntity
  8
5
 62
     2
100
AcDbLine
 10
-338.885631
 20
423.966339
 30
0.0
 11
-338.885631
 21
495.042633
 31
0.0
  0
LINE
  5
597
100
AcDbEntity
  8
5
 62
     2
100
AcDbLine
 10
-338.885631
 20
491.042633
 30
0.0
 11
-331.158224
 21
488.972081
 31
0.0
  0
LINE
  5
598
100
AcDbEntity
  8
5
 62
     2
100
AcDbLine
 10
-338.885631
 20
491.042633
 30
0.0
 11
-331.158224
 21
493.113185
 31
0.0
  0
LINE
  5
599
100
AcDbEntity
  8
5
 62
     2
100
AcDbLine
 10
-331.158224
 20
488.972081
 30
0.0
 11
-331.158224
 21
493.113185
 31
0.0
  0
LINE
  5
59A
100
AcDbEntity
  8
5
 62
     2
100
AcDbLine
 10
-338.885631
 20
491.042633
 30
0.0
 11
-148.285631
 21
491.042633
 31
0.0
  0
LINE
  5
59B
100
AcDbEntity
  8
5
 62
     2
100
AcDbLine
 10
-148.285631
 20
491.042633
 30
0.0
 11
-156.013038
 21
493.113185
 31
0.0
  0
LINE
  5
59C
100
AcDbEntity
  8
5
 62
     2
100
AcDbLine
 10
-148.285631
 20
491.042633
 30
0.0
 11
-156.013038
 21
488.972081
 31
0.0
  0
LINE
  5
59D
100
AcDbEntity
  8
5
 62
     2
100
AcDbLine
 10
-156.013038
 20
493.113185
 30
0.0
 11
-156.013038
 21
488.972081
 31
0.0
  0
LINE
  5
59E
100
AcDbEntity
  8
5
 62
     2
100
AcDbLine
 10
-148.285631
 20
385.016023
 30
0.0
 11
-148.285631
 21
495.042633
 31
0.0
  0
ENDBLK
  5
59F
100
AcDbEntity
  8
5
100
AcDbBlockEnd
  0
BLOCK
  5
5A0
100
AcDbEntity
  8
5
100
AcDbBlockBegin
  2
*D4
 70
     1
 10
0.0
 20
0.0
 30
0.0
  3
*D4
  1

  0
TEXT
  5
5A1
100
AcDbEntity
  8
5
 62
     2
100
AcDbText
 10
-105.525436
 20
330.026024
 30
0.0
 40
13.2
  1
71
 50
90.0
 41
1.4
 72
     5
 11
-105.525436
 21
344.810023
 31
0.0
100
AcDbText
  0
LINE
  5
5A2
100
AcDbEntity
  8
5
 62
     2
100
AcDbLine
 10
-137.506851
 20
303.766023
 30
0.0
 11
-99.525436
 21
303.766023
 31
0.0
  0
LINE
  5
5A3
100
AcDbEntity
  8
5
 62
     2
100
AcDbLine
 10
-103.525436
 20
303.766023
 30
0.0
 11
-101.454884
 21
311.49343
 31
0.0
  0
LINE
  5
5A4
100
AcDbEntity
  8
5
 62
     2
100
AcDbLine
 10
-103.525436
 20
303.766023
 30
0.0
 11
-105.595989
 21
311.49343
 31
0.0
  0
LINE
  5
5A5
100
AcDbEntity
  8
5
 62
     2
100
AcDbLine
 10
-101.454884
 20
311.49343
 30
0.0
 11
-105.595989
 21
311.49343
 31
0.0
  0
LINE
  5
5A6
100
AcDbEntity
  8
5
 62
     2
100
AcDbLine
 10
-103.525436
 20
303.766023
 30
0.0
 11
-103.525436
 21
374.766023
 31
0.0
  0
LINE
  5
5A7
100
AcDbEntity
  8
5
 62
     2
100
AcDbLine
 10
-103.525436
 20
374.766023
 30
0.0
 11
-105.595989
 21
367.038617
 31
0.0
  0
LINE
  5
5A8
100
AcDbEntity
  8
5
 62
     2
100
AcDbLine
 10
-103.525436
 20
374.766023
 30
0.0
 11
-101.454884
 21
367.038617
 31
0.0
  0
LINE
  5
5A9
100
AcDbEntity
  8
5
 62
     2
100
AcDbLine
 10
-105.595989
 20
367.038617
 30
0.0
 11
-101.454884
 21
367.038617
 31
0.0
  0
LINE
  5
5AA
100
AcDbEntity
  8
5
 62
     2
100
AcDbLine
 10
-129.213008
 20
374.766023
 30
0.0
 11
-99.525436
 21
374.766023
 31
0.0
  0
ENDBLK
  5
5AB
100
AcDbEntity
  8
5
100
AcDbBlockEnd
  0
BLOCK
  5
5AC
100
AcDbEntity
  8
5
100
AcDbBlockBegin
  2
*D5
 70
     1
 10
0.0
 20
0.0
 30
0.0
  3
*D5
  1

  0
TEXT
  5
5AD
100
AcDbEntity
  8
5
 62
     2
100
AcDbText
 10
-105.525436
 20
262.026024
 30
0.0
 40
13.2
  1
65
 50
90.0
 41
1.4
 72
     5
 11
-105.525436
 21
276.810023
 31
0.0
100
AcDbText
  0
LINE
  5
5AE
100
AcDbEntity
  8
5
 62
     2
100
AcDbLine
 10
-298.697631
 20
238.766023
 30
0.0
 11
-99.525436
 21
238.766023
 31
0.0
  0
LINE
  5
5AF
100
AcDbEntity
  8
5
 62
     2
100
AcDbLine
 10
-103.525436
 20
238.766023
 30
0.0
 11
-101.454884
 21
246.49343
 31
0.0
  0
LINE
  5
5B0
100
AcDbEntity
  8
5
 62
     2
100
AcDbLine
 10
-103.525436
 20
238.766023
 30
0.0
 11
-105.595989
 21
246.49343
 31
0.0
  0
LINE
  5
5B1
100
AcDbEntity
  8
5
 62
     2
100
AcDbLine
 10
-101.454884
 20
246.49343
 30
0.0
 11
-105.595989
 21
246.49343
 31
0.0
  0
LINE
  5
5B2
100
AcDbEntity
  8
5
 62
     2
100
AcDbLine
 10
-103.525436
 20
238.766023
 30
0.0
 11
-103.525436
 21
303.766023
 31
0.0
  0
LINE
  5
5B3
100
AcDbEntity
  8
5
 62
     2
100
AcDbLine
 10
-103.525436
 20
303.766023
 30
0.0
 11
-105.595989
 21
296.038617
 31
0.0
  0
LINE
  5
5B4
100
AcDbEntity
  8
5
 62
     2
100
AcDbLine
 10
-103.525436
 20
303.766023
 30
0.0
 11
-101.454884
 21
296.038617
 31
0.0
  0
LINE
  5
5B5
100
AcDbEntity
  8
5
 62
     2
100
AcDbLine
 10
-105.595989
 20
296.038617
 30
0.0
 11
-101.454884
 21
296.038617
 31
0.0
  0
ENDBLK
  5
5B6
100
AcDbEntity
  8
5
100
AcDbBlockEnd
  0
BLOCK
  5
5B7
100
AcDbEntity
  8
5
100
AcDbBlockBegin
  2
*D6
 70
     1
 10
0.0
 20
0.0
 30
0.0
  3
*D6
  1

  0
TEXT
  5
5B8
100
AcDbEntity
  8
5
 62
     2
100
AcDbText
 10
-104.799149
 20
92.25269
 30
0.0
 40
13.2
  1
%%c200
 50
90.0
 41
1.4
 72
     5
 11
-104.799149
 21
125.51669
 31
0.0
100
AcDbText
  0
LINE
  5
5B9
100
AcDbEntity
  8
5
 62
     2
100
AcDbLine
 10
-164.885631
 20
210.73269
 30
0.0
 11
-98.799149
 21
210.73269
 31
0.0
  0
LINE
  5
5BA
100
AcDbEntity
  8
5
 62
     2
100
AcDbLine
 10
-102.799149
 20
210.73269
 30
0.0
 11
-104.869701
 21
203.005284
 31
0.0
  0
LINE
  5
5BB
100
AcDbEntity
  8
5
 62
     2
100
AcDbLine
 10
-102.799149
 20
210.73269
 30
0.0
 11
-100.728596
 21
203.005284
 31
0.0
  0
LINE
  5
5BC
100
AcDbEntity
  8
5
 62
     2
100
AcDbLine
 10
-104.869701
 20
203.005284
 30
0.0
 11
-100.728596
 21
203.005284
 31
0.0
  0
LINE
  5
5BD
100
AcDbEntity
  8
5
 62
     2
100
AcDbLine
 10
-102.799149
 20
210.73269
 30
0.0
 11
-102.799149
 21
10.73269
 31
0.0
  0
LINE
  5
5BE
100
AcDbEntity
  8
5
 62
     2
100
AcDbLine
 10
-102.799149
 20
10.73269
 30
0.0
 11
-100.728596
 21
18.460097
 31
0.0
  0
LINE
  5
5BF
100
AcDbEntity
  8
5
 62
     2
100
AcDbLine
 10
-102.799149
 20
10.73269
 30
0.0
 11
-104.869701
 21
18.460097
 31
0.0
  0
LINE
  5
5C0
100
AcDbEntity
  8
5
 62
     2
100
AcDbLine
 10
-100.728596
 20
18.460097
 30
0.0
 11
-104.869701
 21
18.460097
 31
0.0
  0
LINE
  5
5C1
100
AcDbEntity
  8
5
 62
     2
100
AcDbLine
 10
-164.885631
 20
10.73269
 30
0.0
 11
-98.799149
 21
10.73269
 31
0.0
  0
ENDBLK
  5
5C2
100
AcDbEntity
  8
5
100
AcDbBlockEnd
  0
BLOCK
  5
5C3
100
AcDbEntity
  8
5
100
AcDbBlockBegin
  2
*D7
 70
     1
 10
0.0
 20
0.0
 30
0.0
  3
*D7
  1

  0
LINE
  5
5C4
100
AcDbEntity
  8
5
 62
     2
100
AcDbLine
 10
122.014369
 20
-492.06731
 30
0.0
 11
-11.291853
 21
-492.06731
 31
0.0
  0
LINE
  5
5C5
100
AcDbEntity
  8
5
 62
     2
100
AcDbLine
 10
-7.291853
 20
-492.06731
 30
0.0
 11
-5.221301
 21
-484.339903
 31
0.0
  0
LINE
  5
5C6
100
AcDbEntity
  8
5
 62
     2
100
AcDbLine
 10
-7.291853
 20
-492.06731
 30
0.0
 11
-9.362406
 21
-484.339903
 31
0.0
  0
LINE
  5
5C7
100
AcDbEntity
  8
5
 62
     2
100
AcDbLine
 10
-5.221301
 20
-484.339903
 30
0.0
 11
-9.362406
 21
-484.339903
 31
0.0
  0
LINE
  5
5C8
100
AcDbEntity
  8
5
 62
     2
100
AcDbLine
 10
-7.291853
 20
-492.06731
 30
0.0
 11
-7.291853
 21
-239.76731
 31
0.0
  0
LINE
  5
5C9
100
AcDbEntity
  8
5
 62
     2
100
AcDbLine
 10
-7.291853
 20
-239.76731
 30
0.0
 11
-9.362406
 21
-247.494716
 31
0.0
  0
LINE
  5
5CA
100
AcDbEntity
  8
5
 62
     2
100
AcDbLine
 10
-7.291853
 20
-239.76731
 30
0.0
 11
-5.221301
 21
-247.494716
 31
0.0
  0
LINE
  5
5CB
100
AcDbEntity
  8
5
 62
     2
100
AcDbLine
 10
-9.362406
 20
-247.494716
 30
0.0
 11
-5.221301
 21
-247.494716
 31
0.0
  0
LINE
  5
5CC
100
AcDbEntity
  8
5
 62
     2
100
AcDbLine
 10
65.814369
 20
-239.76731
 30
0.0
 11
-11.291853
 21
-239.76731
 31
0.0
  0
ENDBLK
  5
5CD
100
AcDbEntity
  8
5
100
AcDbBlockEnd
  0
ENDSEC
  0
SECTION
  2
ENTITIES
  0
LINE
  5
2E
100
AcDbEntity
  8
1
  6
CENTER
 62
     2
100
AcDbLine
 10
-539.816833
 20
-239.76731
 30
0.0
 11
-137.929214
 21
-239.76731
 31
0.0
  0
LINE
  5
2F
100
AcDbEntity
  8
1
  6
CENTER
 62
     2
100
AcDbLine
 10
69.814369
 20
-239.76731
 30
0.0
 11
194.232638
 21
-239.76731
 31
0.0
  0
LINE
  5
30
100
AcDbEntity
  8
1
100
AcDbLine
 10
-398.385631
 20
56.23269
 30
0.0
 11
-279.385631
 21
56.23269
 31
0.0
  0
LINE
  5
31
100
AcDbEntity
  8
1
100
AcDbLine
 10
-276.385631
 20
72.23269
 30
0.0
 11
-276.385631
 21
59.23269
 31
0.0
  0
LINE
  5
32
100
AcDbEntity
  8
1
100
AcDbLine
 10
-401.385631
 20
72.23269
 30
0.0
 11
-401.385631
 21
59.23269
 31
0.0
  0
LINE
  5
33
100
AcDbEntity
  8
1
100
AcDbLine
 10
-372.885631
 20
-480.76731
 30
0.0
 11
-304.885631
 21
-480.76731
 31
0.0
  0
LINE
  5
34
100
AcDbEntity
  8
1
  6
CENTER
 62
     2
100
AcDbLine
 10
-313.885631
 20
-468.235375
 30
0.0
 11
-313.885631
 21
-498.835961
 31
0.0
  0
LINE
  5
35
100
AcDbEntity
  8
1
  6
CENTER
 62
     2
100
AcDbLine
 10
-363.885631
 20
-468.235375
 30
0.0
 11
-363.885631
 21
-498.835961
 31
0.0
  0
LINE
  5
36
100
AcDbEntity
  8
1
100
AcDbLine
 10
-311.885631
 20
-39.775186
 30
0.0
 11
-311.885631
 21
42.23269
 31
0.0
  0
LINE
  5
37
100
AcDbEntity
  8
1
100
AcDbLine
 10
-365.885631
 20
-39.775186
 30
0.0
 11
-365.885631
 21
42.23269
 31
0.0
  0
ARC
  5
38
100
AcDbEntity
  8
1
100
AcDbCircle
 10
-314.885631
 20
-39.775186
 30
0.0
 40
3.0
100
AcDbArc
 50
345.674888
 51
360.0
  0
ARC
  5
39
100
AcDbEntity
  8
1
100
AcDbCircle
 10
-362.885631
 20
-39.775186
 30
0.0
 40
3.0
100
AcDbArc
 50
180.0
 51
194.325112
  0
LINE
  5
3A
100
AcDbEntity
  8
1
100
AcDbLine
 10
-371.368946
 20
-465.946629
 30
0.0
 11
-371.368946
 21
-455.76731
 31
0.0
  0
LINE
  5
3B
100
AcDbEntity
  8
1
100
AcDbLine
 10
-306.402316
 20
-465.946629
 30
0.0
 11
-306.402316
 21
-455.76731
 31
0.0
  0
LINE
  5
3C
100
AcDbEntity
  8
1
100
AcDbLine
 10
-306.385631
 20
-486.56731
 30
0.0
 11
-306.385631
 21
-491.345622
 31
0.0
  0
LINE
  5
3D
100
AcDbEntity
  8
1
100
AcDbLine
 10
-306.385631
 20
-491.345622
 30
0.0
 11
-307.635631
 21
-492.06731
 31
0.0
  0
LINE
  5
3E
100
AcDbEntity
  8
1
100
AcDbLine
 10
-307.635631
 20
-492.06731
 30
0.0
 11
-320.135631
 21
-492.06731
 31
0.0
  0
LINE
  5
3F
100
AcDbEntity
  8
1
100
AcDbLine
 10
-310.135631
 20
-486.56731
 30
0.0
 11
-310.135631
 21
-491.345622
 31
0.0
  0
ARC
  5
40
100
AcDbEntity
  8
1
100
AcDbCircle
 10
-308.260631
 20
-488.935246
 30
0.0
 40
3.053774
100
AcDbArc
 50
232.121121
 51
307.878879
  0
LINE
  5
41
100
AcDbEntity
  8
1
100
AcDbLine
 10
-321.385631
 20
-486.56731
 30
0.0
 11
-321.385631
 21
-491.345622
 31
0.0
  0
LINE
  5
42
100
AcDbEntity
  8
1
100
AcDbLine
 10
-321.385631
 20
-491.345622
 30
0.0
 11
-320.135631
 21
-492.06731
 31
0.0
  0
LINE
  5
43
100
AcDbEntity
  8
1
100
AcDbLine
 10
-317.635631
 20
-486.56731
 30
0.0
 11
-317.635631
 21
-491.345622
 31
0.0
  0
ARC
  5
44
100
AcDbEntity
  8
1
100
AcDbCircle
 10
-319.510631
 20
-488.935246
 30
0.0
 40
3.053774
100
AcDbArc
 50
232.121121
 51
307.878879
  0
ARC
  5
45
100
AcDbEntity
  8
1
100
AcDbCircle
 10
-313.885631
 20
-480.73902
 30
0.0
 40
11.25
100
AcDbArc
 50
250.528777
 51
289.471219
  0
LINE
  5
46
100
AcDbEntity
  8
1
100
AcDbLine
 10
-306.185631
 20
-484.56731
 30
0.0
 11
-306.185631
 21
-486.56731
 31
0.0
  0
LINE
  5
47
100
AcDbEntity
  8
1
100
AcDbLine
 10
-306.185631
 20
-486.56731
 30
0.0
 11
-321.585631
 21
-486.56731
 31
0.0
  0
LINE
  5
48
100
AcDbEntity
  8
1
100
AcDbLine
 10
-321.585631
 20
-486.56731
 30
0.0
 11
-321.585631
 21
-484.56731
 31
0.0
  0
LINE
  5
49
100
AcDbEntity
  8
1
100
AcDbLine
 10
-313.885631
 20
-486.56731
 30
0.0
 11
-314.385631
 21
-484.56731
 31
0.0
  0
LINE
  5
4A
100
AcDbEntity
  8
1
100
AcDbLine
 10
-313.885631
 20
-484.56731
 30
0.0
 11
-313.385631
 21
-486.56731
 31
0.0
  0
LINE
  5
4B
100
AcDbEntity
  8
1
100
AcDbLine
 10
-356.385631
 20
-486.56731
 30
0.0
 11
-356.385631
 21
-491.345622
 31
0.0
  0
LINE
  5
4C
100
AcDbEntity
  8
1
100
AcDbLine
 10
-356.385631
 20
-491.345622
 30
0.0
 11
-357.635631
 21
-492.06731
 31
0.0
  0
LINE
  5
4D
100
AcDbEntity
  8
1
100
AcDbLine
 10
-357.635631
 20
-492.06731
 30
0.0
 11
-370.135631
 21
-492.06731
 31
0.0
  0
LINE
  5
4E
100
AcDbEntity
  8
1
100
AcDbLine
 10
-360.135631
 20
-486.56731
 30
0.0
 11
-360.135631
 21
-491.345622
 31
0.0
  0
ARC
  5
4F
100
AcDbEntity
  8
1
100
AcDbCircle
 10
-358.260631
 20
-488.935246
 30
0.0
 40
3.053774
100
AcDbArc
 50
232.121121
 51
307.878879
  0
ARC
  5
50
100
AcDbEntity
  8
1
100
AcDbCircle
 10
-363.885631
 20
-480.73902
 30
0.0
 40
11.25
100
AcDbArc
 50
250.528777
 51
289.471219
  0
LINE
  5
51
100
AcDbEntity
  8
1
100
AcDbLine
 10
-371.385631
 20
-486.56731
 30
0.0
 11
-371.385631
 21
-491.345622
 31
0.0
  0
LINE
  5
52
100
AcDbEntity
  8
1
100
AcDbLine
 10
-371.385631
 20
-491.345622
 30
0.0
 11
-370.135631
 21
-492.06731
 31
0.0
  0
LINE
  5
53
100
AcDbEntity
  8
1
100
AcDbLine
 10
-367.635631
 20
-486.56731
 30
0.0
 11
-367.635631
 21
-491.345622
 31
0.0
  0
ARC
  5
54
100
AcDbEntity
  8
1
100
AcDbCircle
 10
-369.510631
 20
-488.935246
 30
0.0
 40
3.053774
100
AcDbArc
 50
232.121121
 51
307.878879
  0
LINE
  5
55
100
AcDbEntity
  8
1
100
AcDbLine
 10
-356.185631
 20
-484.56731
 30
0.0
 11
-356.185631
 21
-486.56731
 31
0.0
  0
LINE
  5
56
100
AcDbEntity
  8
1
100
AcDbLine
 10
-356.185631
 20
-486.56731
 30
0.0
 11
-371.585631
 21
-486.56731
 31
0.0
  0
LINE
  5
57
100
AcDbEntity
  8
1
100
AcDbLine
 10
-371.585631
 20
-486.56731
 30
0.0
 11
-371.585631
 21
-484.56731
 31
0.0
  0
LINE
  5
58
100
AcDbEntity
  8
1
100
AcDbLine
 10
-363.885631
 20
-486.56731
 30
0.0
 11
-364.385631
 21
-484.56731
 31
0.0
  0
LINE
  5
59
100
AcDbEntity
  8
1
100
AcDbLine
 10
-363.885631
 20
-484.56731
 30
0.0
 11
-363.385631
 21
-486.56731
 31
0.0
  0
LINE
  5
5A
100
AcDbEntity
  8
1
  6
CENTER
 62
     2
100
AcDbLine
 10
-383.080631
 20
87.611177
 30
0.0
 11
-383.080631
 21
39.402152
 31
0.0
  0
LINE
  5
5B
100
AcDbEntity
  8
1
  6
CENTER
 62
     2
100
AcDbLine
 10
-294.690631
 20
87.611177
 30
0.0
 11
-294.690631
 21
39.402152
 31
0.0
  0
LINE
  5
5C
100
AcDbEntity
  8
1
100
AcDbLine
 10
73.014369
 20
56.23269
 30
0.0
 11
192.014369
 21
56.23269
 31
0.0
  0
LINE
  5
5D
100
AcDbEntity
  8
1
100
AcDbLine
 10
195.014369
 20
72.23269
 30
0.0
 11
195.014369
 21
59.23269
 31
0.0
  0
LINE
  5
5E
100
AcDbEntity
  8
1
100
AcDbLine
 10
70.014369
 20
72.23269
 30
0.0
 11
70.014369
 21
59.23269
 31
0.0
  0
LINE
  5
5F
100
AcDbEntity
  8
1
100
AcDbLine
 10
159.514369
 20
-51.303321
 30
0.0
 11
159.514369
 21
42.23269
 31
0.0
  0
LINE
  5
60
100
AcDbEntity
  8
1
100
AcDbLine
 10
105.514369
 20
-51.303321
 30
0.0
 11
105.514369
 21
42.23269
 31
0.0
  0
LINE
  5
61
100
AcDbEntity
  8
1
  6
CENTER
 62
     2
100
AcDbLine
 10
88.319369
 20
87.611177
 30
0.0
 11
88.319369
 21
39.402152
 31
0.0
  0
LINE
  5
62
100
AcDbEntity
  8
1
  6
CENTER
 62
     2
100
AcDbLine
 10
176.709369
 20
87.611177
 30
0.0
 11
176.709369
 21
39.402152
 31
0.0
  0
ARC
  5
63
100
AcDbEntity
  8
1
100
AcDbCircle
 10
95.514369
 20
-51.303321
 30
0.0
 40
10.0
100
AcDbArc
 50
270.0
 51
360.0
  0
ARC
  5
64
100
AcDbEntity
  8
1
100
AcDbCircle
 10
169.514369
 20
-51.303321
 30
0.0
 40
10.0
100
AcDbArc
 50
180.0
 51
270.0
  0
ARC
  5
65
100
AcDbEntity
  8
1
100
AcDbCircle
 10
158.964484
 20
-58.899368
 30
0.0
 40
3.0
100
AcDbArc
 50
35.754351
 51
90.0
  0
ARC
  5
66
100
AcDbEntity
  8
1
100
AcDbCircle
 10
106.064254
 20
-58.899368
 30
0.0
 40
3.0
100
AcDbArc
 50
90.0
 51
144.245649
  0
ARC
  5
67
100
AcDbEntity
  8
1
100
AcDbCircle
 10
168.514369
 20
-424.231299
 30
0.0
 40
6.0
100
AcDbArc
 50
90.0
 51
180.0
  0
ARC
  5
68
100
AcDbEntity
  8
1
100
AcDbCircle
 10
96.514369
 20
-424.231299
 30
0.0
 40
6.0
100
AcDbArc
 50
0.0
 51
90.0
  0
LINE
  5
69
100
AcDbEntity
  8
1
100
AcDbLine
 10
104.76473
 20
-423.635252
 30
0.0
 11
160.264009
 21
-423.635252
 31
0.0
  0
ARC
  5
6A
100
AcDbEntity
  8
1
100
AcDbCircle
 10
160.264009
 20
-420.635252
 30
0.0
 40
3.0
100
AcDbArc
 50
270.0
 51
336.449277
  0
ARC
  5
6B
100
AcDbEntity
  8
1
100
AcDbCircle
 10
104.76473
 20
-420.635252
 30
0.0
 40
3.0
100
AcDbArc
 50
203.550723
 51
270.0
  0
LINE
  5
6C
100
AcDbEntity
  8
1
100
AcDbLine
 10
105.514369
 20
-61.303321
 30
0.0
 11
107.514369
 21
-61.303321
 31
0.0
  0
LINE
  5
6D
100
AcDbEntity
  8
1
100
AcDbLine
 10
157.514369
 20
-61.303321
 30
0.0
 11
159.514369
 21
-61.303321
 31
0.0
  0
LINE
  5
6E
100
AcDbEntity
  8
1
100
AcDbLine
 10
102.514369
 20
-418.231299
 30
0.0
 11
107.514369
 21
-418.231299
 31
0.0
  0
LINE
  5
6F
100
AcDbEntity
  8
1
100
AcDbLine
 10
157.514369
 20
-418.231299
 30
0.0
 11
162.514369
 21
-418.231299
 31
0.0
  0
LINE
  5
70
100
AcDbEntity
  8
1
100
AcDbLine
 10
124.814369
 20
-486.56731
 30
0.0
 11
140.214369
 21
-486.56731
 31
0.0
  0
LINE
  5
71
100
AcDbEntity
  8
1
100
AcDbLine
 10
139.014369
 20
-486.56731
 30
0.0
 11
139.014369
 21
-492.06731
 31
0.0
  0
LINE
  5
72
100
AcDbEntity
  8
1
100
AcDbLine
 10
132.514369
 20
-486.56731
 30
0.0
 11
132.514369
 21
-491.345622
 31
0.0
  0
ARC
  5
73
100
AcDbEntity
  8
1
100
AcDbCircle
 10
135.764369
 20
-484.388551
 30
0.0
 40
7.678759
100
AcDbArc
 50
244.96034
 51
295.03966
  0
LINE
  5
74
100
AcDbEntity
  8
1
100
AcDbLine
 10
126.014369
 20
-486.56731
 30
0.0
 11
126.014369
 21
-492.06731
 31
0.0
  0
LINE
  5
75
100
AcDbEntity
  8
1
100
AcDbLine
 10
126.014369
 20
-492.06731
 30
0.0
 11
139.014369
 21
-492.06731
 31
0.0
  0
ARC
  5
76
100
AcDbEntity
  8
1
100
AcDbCircle
 10
129.264369
 20
-484.388551
 30
0.0
 40
7.678759
100
AcDbArc
 50
244.96034
 51
295.03966
  0
LINE
  5
77
100
AcDbEntity
  8
1
100
AcDbLine
 10
140.214369
 20
-484.56731
 30
0.0
 11
140.214369
 21
-486.56731
 31
0.0
  0
LINE
  5
78
100
AcDbEntity
  8
1
100
AcDbLine
 10
124.814369
 20
-486.56731
 30
0.0
 11
124.814369
 21
-484.56731
 31
0.0
  0
ARC
  5
79
100
AcDbEntity
  8
1
100
AcDbCircle
 10
142.035369
 20
-215.324742
 30
0.0
 40
4.2015
100
AcDbArc
 50
0.0
 51
90.0
  0
ARC
  5
7A
100
AcDbEntity
  8
1
100
AcDbCircle
 10
122.993369
 20
-215.324742
 30
0.0
 40
4.2015
100
AcDbArc
 50
90.0
 51
180.0
  0
ARC
  5
7B
100
AcDbEntity
  8
1
100
AcDbCircle
 10
122.993369
 20
-264.209878
 30
0.0
 40
4.2015
100
AcDbArc
 50
180.0
 51
270.0
  0
ARC
  5
7C
100
AcDbEntity
  8
1
100
AcDbCircle
 10
142.035369
 20
-264.209878
 30
0.0
 40
4.2015
100
AcDbArc
 50
270.0
 51
360.0
  0
LINE
  5
7D
100
AcDbEntity
  8
1
100
AcDbLine
 10
122.993369
 20
-268.411378
 30
0.0
 11
142.035369
 21
-268.411378
 31
0.0
  0
LINE
  5
7E
100
AcDbEntity
  8
1
100
AcDbLine
 10
122.993369
 20
-211.123242
 30
0.0
 11
142.035369
 21
-211.123242
 31
0.0
  0
LINE
  5
7F
100
AcDbEntity
  8
1
100
AcDbLine
 10
146.236869
 20
-264.209878
 30
0.0
 11
146.236869
 21
-215.324742
 31
0.0
  0
LINE
  5
80
100
AcDbEntity
  8
1
100
AcDbLine
 10
118.791869
 20
-264.209878
 30
0.0
 11
118.791869
 21
-215.324742
 31
0.0
  0
LINE
  5
81
100
AcDbEntity
  8
1
100
AcDbLine
 10
146.236869
 20
-211.123242
 30
0.0
 11
150.225646
 21
-204.051954
 31
0.0
  0
LINE
  5
82
100
AcDbEntity
  8
1
100
AcDbLine
 10
114.803092
 20
-204.051954
 30
0.0
 11
118.791869
 21
-211.123242
 31
0.0
  0
LINE
  5
83
100
AcDbEntity
  8
1
100
AcDbLine
 10
118.791869
 20
-268.411378
 30
0.0
 11
114.803092
 21
-275.482666
 31
0.0
  0
LINE
  5
84
100
AcDbEntity
  8
1
100
AcDbLine
 10
146.236869
 20
-268.411378
 30
0.0
 11
150.225646
 21
-275.482666
 31
0.0
  0
LINE
  5
85
100
AcDbEntity
  8
1
100
AcDbLine
 10
146.236869
 20
-186.870895
 30
0.0
 11
146.236869
 21
-132.256945
 31
0.0
  0
ARC
  5
86
100
AcDbEntity
  8
1
100
AcDbCircle
 10
142.035369
 20
-132.256945
 30
0.0
 40
4.2015
100
AcDbArc
 50
0.0
 51
90.0
  0
LINE
  5
87
100
AcDbEntity
  8
1
100
AcDbLine
 10
122.993369
 20
-128.055445
 30
0.0
 11
142.035369
 21
-128.055445
 31
0.0
  0
ARC
  5
88
100
AcDbEntity
  8
1
100
AcDbCircle
 10
122.993369
 20
-132.256945
 30
0.0
 40
4.2015
100
AcDbArc
 50
90.0
 51
180.0
  0
LINE
  5
89
100
AcDbEntity
  8
1
100
AcDbLine
 10
118.791869
 20
-186.870895
 30
0.0
 11
118.791869
 21
-132.256945
 31
0.0
  0
ARC
  5
8A
100
AcDbEntity
  8
1
100
AcDbCircle
 10
122.993369
 20
-186.870895
 30
0.0
 40
4.2015
100
AcDbArc
 50
180.0
 51
270.0
  0
ARC
  5
8B
100
AcDbEntity
  8
1
100
AcDbCircle
 10
142.035369
 20
-186.870895
 30
0.0
 40
4.2015
100
AcDbArc
 50
270.0
 51
360.0
  0
LINE
  5
8C
100
AcDbEntity
  8
1
100
AcDbLine
 10
122.993369
 20
-191.072395
 30
0.0
 11
142.035369
 21
-191.072395
 31
0.0
  0
LINE
  5
8D
100
AcDbEntity
  8
1
100
AcDbLine
 10
150.473053
 20
-117.389225
 30
0.0
 11
146.236869
 21
-128.055445
 31
0.0
  0
LINE
  5
8E
100
AcDbEntity
  8
1
100
AcDbLine
 10
114.555686
 20
-117.389225
 30
0.0
 11
118.791869
 21
-128.055445
 31
0.0
  0
LINE
  5
8F
100
AcDbEntity
  8
1
100
AcDbLine
 10
118.791869
 20
-191.072395
 30
0.0
 11
115.205382
 21
-194.94255
 31
0.0
  0
LINE
  5
90
100
AcDbEntity
  8
1
100
AcDbLine
 10
149.823357
 20
-194.94255
 30
0.0
 11
146.236869
 21
-191.072395
 31
0.0
  0
LINE
  5
91
100
AcDbEntity
  8
1
100
AcDbLine
 10
146.236869
 20
-103.387039
 30
0.0
 11
146.236869
 21
-81.695808
 31
0.0
  0
LINE
  5
92
100
AcDbEntity
  8
1
100
AcDbLine
 10
122.993369
 20
-107.588539
 30
0.0
 11
142.035369
 21
-107.588539
 31
0.0
  0
LINE
  5
93
100
AcDbEntity
  8
1
100
AcDbLine
 10
118.791869
 20
-103.387039
 30
0.0
 11
118.791869
 21
-81.695808
 31
0.0
  0
LINE
  5
94
100
AcDbEntity
  8
1
100
AcDbLine
 10
122.993369
 20
-77.494308
 30
0.0
 11
142.035369
 21
-77.494308
 31
0.0
  0
ARC
  5
95
100
AcDbEntity
  8
1
100
AcDbCircle
 10
142.035369
 20
-81.695808
 30
0.0
 40
4.2015
100
AcDbArc
 50
0.0
 51
90.0
  0
ARC
  5
96
100
AcDbEntity
  8
1
100
AcDbCircle
 10
142.035369
 20
-103.387039
 30
0.0
 40
4.2015
100
AcDbArc
 50
270.0
 51
360.0
  0
ARC
  5
97
100
AcDbEntity
  8
1
100
AcDbCircle
 10
122.993369
 20
-103.387039
 30
0.0
 40
4.2015
100
AcDbArc
 50
180.0
 51
270.0
  0
ARC
  5
98
100
AcDbEntity
  8
1
100
AcDbCircle
 10
122.993369
 20
-81.695808
 30
0.0
 40
4.2015
100
AcDbArc
 50
90.0
 51
180.0
  0
LINE
  5
99
100
AcDbEntity
  8
1
100
AcDbLine
 10
152.061029
 20
-64.801105
 30
0.0
 11
146.236869
 21
-77.494308
 31
0.0
  0
LINE
  5
9A
100
AcDbEntity
  8
1
100
AcDbLine
 10
112.967709
 20
-64.801105
 30
0.0
 11
118.791869
 21
-77.494308
 31
0.0
  0
LINE
  5
9B
100
AcDbEntity
  8
1
100
AcDbLine
 10
146.236869
 20
-107.588539
 30
0.0
 11
148.929847
 21
-108.700312
 31
0.0
  0
LINE
  5
9C
100
AcDbEntity
  8
1
100
AcDbLine
 10
118.791869
 20
-107.588539
 30
0.0
 11
116.098891
 21
-108.700312
 31
0.0
  0
LINE
  5
9D
100
AcDbEntity
  8
1
100
AcDbLine
 10
146.236869
 20
-347.277674
 30
0.0
 11
146.236869
 21
-292.663725
 31
0.0
  0
LINE
  5
9E
100
AcDbEntity
  8
1
100
AcDbLine
 10
122.993369
 20
-351.479174
 30
0.0
 11
142.035369
 21
-351.479174
 31
0.0
  0
LINE
  5
9F
100
AcDbEntity
  8
1
100
AcDbLine
 10
118.791869
 20
-347.277674
 30
0.0
 11
118.791869
 21
-292.663725
 31
0.0
  0
LINE
  5
A0
100
AcDbEntity
  8
1
100
AcDbLine
 10
122.993369
 20
-288.462225
 30
0.0
 11
142.035369
 21
-288.462225
 31
0.0
  0
ARC
  5
A1
100
AcDbEntity
  8
1
100
AcDbCircle
 10
142.035369
 20
-292.663725
 30
0.0
 40
4.2015
100
AcDbArc
 50
0.0
 51
90.0
  0
ARC
  5
A2
100
AcDbEntity
  8
1
100
AcDbCircle
 10
122.993369
 20
-292.663725
 30
0.0
 40
4.2015
100
AcDbArc
 50
90.0
 51
180.0
  0
ARC
  5
A3
100
AcDbEntity
  8
1
100
AcDbCircle
 10
122.993369
 20
-347.277674
 30
0.0
 40
4.2015
100
AcDbArc
 50
180.0
 51
270.0
  0
ARC
  5
A4
100
AcDbEntity
  8
1
100
AcDbCircle
 10
142.035369
 20
-347.277674
 30
0.0
 40
4.2015
100
AcDbArc
 50
270.0
 51
360.0
  0
LINE
  5
A5
100
AcDbEntity
  8
1
100
AcDbLine
 10
149.823357
 20
-284.59207
 30
0.0
 11
146.236869
 21
-288.462225
 31
0.0
  0
LINE
  5
A6
100
AcDbEntity
  8
1
100
AcDbLine
 10
115.205382
 20
-284.59207
 30
0.0
 11
118.791869
 21
-288.462225
 31
0.0
  0
LINE
  5
A7
100
AcDbEntity
  8
1
100
AcDbLine
 10
118.791869
 20
-351.479174
 30
0.0
 11
114.555686
 21
-362.145395
 31
0.0
  0
LINE
  5
A8
100
AcDbEntity
  8
1
100
AcDbLine
 10
146.236869
 20
-351.479174
 30
0.0
 11
150.473053
 21
-362.145395
 31
0.0
  0
LINE
  5
A9
100
AcDbEntity
  8
1
100
AcDbLine
 10
146.236869
 20
-397.838812
 30
0.0
 11
146.236869
 21
-376.147581
 31
0.0
  0
LINE
  5
AA
100
AcDbEntity
  8
1
100
AcDbLine
 10
122.993369
 20
-371.946081
 30
0.0
 11
142.035369
 21
-371.946081
 31
0.0
  0
LINE
  5
AB
100
AcDbEntity
  8
1
100
AcDbLine
 10
118.791869
 20
-397.838812
 30
0.0
 11
118.791869
 21
-376.147581
 31
0.0
  0
LINE
  5
AC
100
AcDbEntity
  8
1
100
AcDbLine
 10
122.993369
 20
-402.040312
 30
0.0
 11
142.035369
 21
-402.040312
 31
0.0
  0
ARC
  5
AD
100
AcDbEntity
  8
1
100
AcDbCircle
 10
122.993369
 20
-397.838812
 30
0.0
 40
4.2015
100
AcDbArc
 50
180.0
 51
270.0
  0
ARC
  5
AE
100
AcDbEntity
  8
1
100
AcDbCircle
 10
122.993369
 20
-376.147581
 30
0.0
 40
4.2015
100
AcDbArc
 50
90.0
 51
180.0
  0
ARC
  5
AF
100
AcDbEntity
  8
1
100
AcDbCircle
 10
142.035369
 20
-376.147581
 30
0.0
 40
4.2015
100
AcDbArc
 50
0.0
 51
90.0
  0
ARC
  5
B0
100
AcDbEntity
  8
1
100
AcDbCircle
 10
142.035369
 20
-397.838812
 30
0.0
 40
4.2015
100
AcDbArc
 50
270.0
 51
360.0
  0
LINE
  5
B1
100
AcDbEntity
  8
1
100
AcDbLine
 10
112.967709
 20
-414.733514
 30
0.0
 11
118.791869
 21
-402.040312
 31
0.0
  0
LINE
  5
B2
100
AcDbEntity
  8
1
100
AcDbLine
 10
152.061029
 20
-414.733514
 30
0.0
 11
146.236869
 21
-402.040312
 31
0.0
  0
LINE
  5
B3
100
AcDbEntity
  8
1
100
AcDbLine
 10
91.514369
 20
-413.236181
 30
0.0
 11
91.514369
 21
-66.298439
 31
0.0
  0
LINE
  5
B4
100
AcDbEntity
  8
1
100
AcDbLine
 10
173.514369
 20
-413.236181
 30
0.0
 11
173.514369
 21
-66.298439
 31
0.0
  0
LINE
  5
B5
100
AcDbEntity
  8
1
100
AcDbLine
 10
173.250855
 20
-65.306161
 30
0.0
 11
172.09021
 21
-63.275032
 31
0.0
  0
LINE
  5
B6
100
AcDbEntity
  8
1
100
AcDbLine
 10
91.777883
 20
-65.306161
 30
0.0
 11
92.938528
 21
-63.275032
 31
0.0
  0
ARC
  5
B7
100
AcDbEntity
  8
1
100
AcDbCircle
 10
171.514369
 20
-66.298439
 30
0.0
 40
2.0
100
AcDbArc
 50
0.0
 51
29.744881
  0
ARC
  5
B8
100
AcDbEntity
  8
1
100
AcDbCircle
 10
93.514369
 20
-66.298439
 30
0.0
 40
2.0
100
AcDbArc
 50
150.255119
 51
180.0
  0
ARC
  5
B9
100
AcDbEntity
  8
1
100
AcDbCircle
 10
94.675014
 20
-64.26731
 30
0.0
 40
2.0
100
AcDbArc
 50
125.473231
 51
150.255119
  0
ARC
  5
BA
100
AcDbEntity
  8
1
100
AcDbCircle
 10
170.353724
 20
-64.26731
 30
0.0
 40
2.0
100
AcDbArc
 50
29.744881
 51
54.526769
  0
LINE
  5
BB
100
AcDbEntity
  8
1
100
AcDbLine
 10
173.250855
 20
-414.228459
 30
0.0
 11
172.09021
 21
-416.259588
 31
0.0
  0
LINE
  5
BC
100
AcDbEntity
  8
1
100
AcDbLine
 10
91.777883
 20
-414.228459
 30
0.0
 11
92.938528
 21
-416.259588
 31
0.0
  0
ARC
  5
BD
100
AcDbEntity
  8
1
100
AcDbCircle
 10
171.514369
 20
-413.236181
 30
0.0
 40
2.0
100
AcDbArc
 50
330.255119
 51
360.0
  0
ARC
  5
BE
100
AcDbEntity
  8
1
100
AcDbCircle
 10
93.514369
 20
-413.236181
 30
0.0
 40
2.0
100
AcDbArc
 50
180.0
 51
209.744881
  0
ARC
  5
BF
100
AcDbEntity
  8
1
100
AcDbCircle
 10
94.675014
 20
-415.26731
 30
0.0
 40
2.0
100
AcDbArc
 50
209.744881
 51
234.526769
  0
ARC
  5
C0
100
AcDbEntity
  8
1
100
AcDbCircle
 10
170.353724
 20
-415.26731
 30
0.0
 40
2.0
100
AcDbArc
 50
305.473231
 51
330.255119
  0
CIRCLE
  5
C1
100
AcDbEntity
  8
1
100
AcDbCircle
 10
-338.885631
 20
-239.76731
 30
0.0
 40
182.5
  0
CIRCLE
  5
C2
100
AcDbEntity
  8
1
100
AcDbCircle
 10
-338.885631
 20
-239.76731
 30
0.0
 40
177.5
  0
CIRCLE
  5
C3
100
AcDbEntity
  8
1
100
AcDbCircle
 10
-338.885631
 20
-239.76731
 30
0.0
 40
174.0
  0
ARC
  5
C4
100
AcDbEntity
  8
1
100
AcDbCircle
 10
-279.385631
 20
59.23269
 30
0.0
 40
3.0
100
AcDbArc
 50
270.0
 51
360.0
  0
ARC
  5
C5
100
AcDbEntity
  8
1
100
AcDbCircle
 10
-398.385631
 20
59.23269
 30
0.0
 40
3.0
100
AcDbArc
 50
180.0
 51
270.0
  0
ARC
  5
C6
100
AcDbEntity
  8
1
100
AcDbCircle
 10
-395.885631
 20
26.23269
 30
0.0
 40
30.0
100
AcDbArc
 50
0.0
 51
90.0
  0
ARC
  5
C7
100
AcDbEntity
  8
1
100
AcDbCircle
 10
-281.885631
 20
26.23269
 30
0.0
 40
30.0
100
AcDbArc
 50
90.0
 51
180.0
  0
ARC
  5
C8
100
AcDbEntity
  8
1
100
AcDbCircle
 10
-297.885631
 20
42.23269
 30
0.0
 40
14.0
100
AcDbArc
 50
90.0
 51
180.0
  0
ARC
  5
C9
100
AcDbEntity
  8
1
100
AcDbCircle
 10
-379.885631
 20
42.23269
 30
0.0
 40
14.0
100
AcDbArc
 50
0.0
 51
90.0
  0
LINE
  5
CA
100
AcDbEntity
  8
1
100
AcDbLine
 10
-334.885631
 20
26.23269
 30
0.0
 11
-342.885631
 21
26.23269
 31
0.0
  0
LINE
  5
CB
100
AcDbEntity
  8
1
100
AcDbLine
 10
-342.885631
 20
50.23269
 30
0.0
 11
-342.885631
 21
32.23269
 31
0.0
  0
LINE
  5
CC
100
AcDbEntity
  8
1
100
AcDbLine
 10
-334.885631
 20
50.23269
 30
0.0
 11
-334.885631
 21
32.23269
 31
0.0
  0
ARC
  5
CD
100
AcDbEntity
  8
1
100
AcDbCircle
 10
-328.885631
 20
50.23269
 30
0.0
 40
6.0
100
AcDbArc
 50
90.0
 51
180.0
  0
ARC
  5
CE
100
AcDbEntity
  8
1
100
AcDbCircle
 10
-348.885631
 20
50.23269
 30
0.0
 40
6.0
100
AcDbArc
 50
360.0
 51
90.0
  0
ARC
  5
CF
100
AcDbEntity
  8
1
100
AcDbCircle
 10
-348.885631
 20
32.23269
 30
0.0
 40
6.0
100
AcDbArc
 50
270.0
 51
360.0
  0
ARC
  5
D0
100
AcDbEntity
  8
1
100
AcDbCircle
 10
-328.885631
 20
32.23269
 30
0.0
 40
6.0
100
AcDbArc
 50
180.0
 51
270.0
  0
LINE
  5
D1
100
AcDbEntity
  8
1
100
AcDbLine
 10
-380.870416
 20
-28.695544
 30
0.0
 11
-382.874605
 21
-18.619802
 31
0.0
  0
LINE
  5
D2
100
AcDbEntity
  8
1
100
AcDbLine
 10
-296.900846
 20
-28.695544
 30
0.0
 11
-294.896657
 21
-18.619802
 31
0.0
  0
ARC
  5
D3
100
AcDbEntity
  8
1
100
AcDbCircle
 10
-338.885631
 20
-239.76731
 30
0.0
 40
228.5
100
AcDbArc
 50
79.512272
 51
81.075301
  0
ARC
  5
D4
100
AcDbEntity
  8
1
100
AcDbCircle
 10
-338.885631
 20
-239.76731
 30
0.0
 40
228.5
100
AcDbArc
 50
98.924699
 51
100.487728
  0
ARC
  5
D5
100
AcDbEntity
  8
1
100
AcDbCircle
 10
-301.885631
 20
-4.15481
 30
0.0
 40
10.0
100
AcDbArc
 50
180.0
 51
261.075301
  0
ARC
  5
D6
100
AcDbEntity
  8
1
100
AcDbCircle
 10
-375.885631
 20
-4.15481
 30
0.0
 40
10.0
100
AcDbArc
 50
278.924699
 51
360.0
  0
ARC
  5
D7
100
AcDbEntity
  8
1
100
AcDbCircle
 10
-297.839012
 20
-18.034531
 30
0.0
 40
3.0
100
AcDbArc
 50
348.75
 51
79.512272
  0
ARC
  5
D8
100
AcDbEntity
  8
1
100
AcDbCircle
 10
-379.932249
 20
-18.034531
 30
0.0
 40
3.0
100
AcDbArc
 50
100.487728
 51
191.25
  0
ARC
  5
D9
100
AcDbEntity
  8
1
100
AcDbCircle
 10
-299.867567
 20
-43.610254
 30
0.0
 40
12.5
100
AcDbArc
 50
89.909937
 51
259.46052
  0
ARC
  5
DA
100
AcDbEntity
  8
1
100
AcDbCircle
 10
-377.903695
 20
-43.610254
 30
0.0
 40
12.5
100
AcDbArc
 50
280.53948
 51
90.090063
  0
ARC
  5
DB
100
AcDbEntity
  8
1
100
AcDbCircle
 10
-299.843202
 20
-28.110273
 30
0.0
 40
3.0
100
AcDbArc
 50
269.909937
 51
348.75
  0
ARC
  5
DC
100
AcDbEntity
  8
1
100
AcDbCircle
 10
-377.92806
 20
-28.110273
 30
0.0
 40
3.0
100
AcDbArc
 50
191.25
 51
270.090063
  0
ARC
  5
DD
100
AcDbEntity
  8
1
100
AcDbCircle
 10
-302.885631
 20
-59.831884
 30
0.0
 40
4.0
100
AcDbArc
 50
17.598703
 51
79.46052
  0
ARC
  5
DE
100
AcDbEntity
  8
1
100
AcDbCircle
 10
-374.885631
 20
-59.831884
 30
0.0
 40
4.0
100
AcDbArc
 50
100.53948
 51
162.401297
  0
LINE
  5
DF
100
AcDbEntity
  8
1
100
AcDbLine
 10
-372.885631
 20
-468.291379
 30
0.0
 11
-372.885631
 21
-484.56731
 31
0.0
  0
LINE
  5
E0
100
AcDbEntity
  8
1
100
AcDbLine
 10
-304.885631
 20
-468.291379
 30
0.0
 11
-304.885631
 21
-484.56731
 31
0.0
  0
LINE
  5
E1
100
AcDbEntity
  8
1
100
AcDbLine
 10
-365.885631
 20
-439.759433
 30
0.0
 11
-365.885631
 21
-474.76731
 31
0.0
  0
LINE
  5
E2
100
AcDbEntity
  8
1
100
AcDbLine
 10
-311.885631
 20
-439.759433
 30
0.0
 11
-311.885631
 21
-474.76731
 31
0.0
  0
LINE
  5
E3
100
AcDbEntity
  8
1
100
AcDbLine
 10
-362.885631
 20
-477.76731
 30
0.0
 11
-314.885631
 21
-477.76731
 31
0.0
  0
ARC
  5
E4
100
AcDbEntity
  8
1
100
AcDbCircle
 10
-314.885631
 20
-474.76731
 30
0.0
 40
3.0
100
AcDbArc
 50
270.0
 51
360.0
  0
ARC
  5
E5
100
AcDbEntity
  8
1
100
AcDbCircle
 10
-362.885631
 20
-474.76731
 30
0.0
 40
3.0
100
AcDbArc
 50
180.0
 51
270.0
  0
ARC
  5
E6
100
AcDbEntity
  8
1
100
AcDbCircle
 10
-338.885631
 20
-239.76731
 30
0.0
 40
228.5
100
AcDbArc
 50
259.512272
 51
261.183196
  0
ARC
  5
E7
100
AcDbEntity
  8
1
100
AcDbCircle
 10
-338.885631
 20
-239.76731
 30
0.0
 40
228.5
100
AcDbArc
 50
278.816804
 51
280.487728
  0
LINE
  5
E8
100
AcDbEntity
  8
1
100
AcDbLine
 10
-296.900846
 20
-450.839076
 30
0.0
 11
-294.896657
 21
-460.914817
 31
0.0
  0
LINE
  5
E9
100
AcDbEntity
  8
1
100
AcDbLine
 10
-380.870416
 20
-450.839076
 30
0.0
 11
-382.874605
 21
-460.914817
 31
0.0
  0
ARC
  5
EA
100
AcDbEntity
  8
1
100
AcDbCircle
 10
-379.932249
 20
-461.500088
 30
0.0
 40
3.0
100
AcDbArc
 50
168.75
 51
259.512272
  0
ARC
  5
EB
100
AcDbEntity
  8
1
100
AcDbCircle
 10
-297.839012
 20
-461.500088
 30
0.0
 40
3.0
100
AcDbArc
 50
280.487728
 51
11.25
  0
ARC
  5
EC
100
AcDbEntity
  8
1
100
AcDbCircle
 10
-301.885631
 20
-468.291379
 30
0.0
 40
3.0
100
AcDbArc
 50
99.196867
 51
180.0
  0
ARC
  5
ED
100
AcDbEntity
  8
1
100
AcDbCircle
 10
-375.885631
 20
-468.291379
 30
0.0
 40
3.0
100
AcDbArc
 50
0.0
 51
80.803133
  0
ARC
  5
EE
100
AcDbEntity
  8
1
100
AcDbCircle
 10
-303.402316
 20
-468.531783
 30
0.0
 40
3.0
100
AcDbArc
 50
98.816804
 51
180.0
  0
ARC
  5
EF
100
AcDbEntity
  8
1
100
AcDbCircle
 10
-374.368946
 20
-468.531783
 30
0.0
 40
3.0
100
AcDbArc
 50
0.0
 51
81.183196
  0
ARC
  5
F0
100
AcDbEntity
  8
1
100
AcDbCircle
 10
-309.402316
 20
-455.76731
 30
0.0
 40
3.0
100
AcDbArc
 50
0.0
 51
85.059901
  0
ARC
  5
F1
100
AcDbEntity
  8
1
100
AcDbCircle
 10
-368.368946
 20
-455.76731
 30
0.0
 40
3.0
100
AcDbArc
 50
94.940099
 51
180.0
  0
ARC
  5
F2
100
AcDbEntity
  8
1
100
AcDbCircle
 10
-308.885631
 20
-449.789598
 30
0.0
 40
3.0
100
AcDbArc
 50
180.0
 51
265.059901
  0
ARC
  5
F3
100
AcDbEntity
  8
1
100
AcDbCircle
 10
-368.885631
 20
-449.789598
 30
0.0
 40
3.0
100
AcDbArc
 50
274.940099
 51
360.0
  0
ARC
  5
F4
100
AcDbEntity
  8
1
100
AcDbCircle
 10
-299.867567
 20
-435.924366
 30
0.0
 40
12.5
100
AcDbArc
 50
100.53948
 51
270.090063
  0
ARC
  5
F5
100
AcDbEntity
  8
1
100
AcDbCircle
 10
-377.903695
 20
-435.924366
 30
0.0
 40
12.5
100
AcDbArc
 50
269.909937
 51
79.46052
  0
ARC
  5
F6
100
AcDbEntity
  8
1
100
AcDbCircle
 10
-299.843202
 20
-451.424347
 30
0.0
 40
3.0
100
AcDbArc
 50
11.25
 51
90.090063
  0
ARC
  5
F7
100
AcDbEntity
  8
1
100
AcDbCircle
 10
-377.92806
 20
-451.424347
 30
0.0
 40
3.0
100
AcDbArc
 50
89.909937
 51
168.75
  0
ARC
  5
F8
100
AcDbEntity
  8
1
100
AcDbCircle
 10
-314.885631
 20
-439.759433
 30
0.0
 40
3.0
100
AcDbArc
 50
0.0
 51
14.325112
  0
ARC
  5
F9
100
AcDbEntity
  8
1
100
AcDbCircle
 10
-362.885631
 20
-439.759433
 30
0.0
 40
3.0
100
AcDbArc
 50
165.674888
 51
180.0
  0
ARC
  5
FA
100
AcDbEntity
  8
1
100
AcDbCircle
 10
-302.885631
 20
-419.702736
 30
0.0
 40
4.0
100
AcDbArc
 50
280.53948
 51
342.401297
  0
ARC
  5
FB
100
AcDbEntity
  8
1
100
AcDbCircle
 10
-374.885631
 20
-419.702736
 30
0.0
 40
4.0
100
AcDbArc
 50
197.598703
 51
259.46052
  0
LINE
  5
FC
100
AcDbEntity
  8
1
100
AcDbLine
 10
-372.885631
 20
-481.56731
 30
0.0
 11
-304.885631
 21
-481.56731
 31
0.0
  0
LINE
  5
FD
100
AcDbEntity
  8
1
100
AcDbLine
 10
-372.885631
 20
-484.56731
 30
0.0
 11
-304.885631
 21
-484.56731
 31
0.0
  0
ARC
  5
FE
100
AcDbEntity
  8
1
100
AcDbCircle
 10
192.014369
 20
59.23269
 30
0.0
 40
3.0
100
AcDbArc
 50
270.0
 51
360.0
  0
ARC
  5
FF
100
AcDbEntity
  8
1
100
AcDbCircle
 10
73.014369
 20
59.23269
 30
0.0
 40
3.0
100
AcDbArc
 50
180.0
 51
270.0
  0
ARC
  5
100
100
AcDbEntity
  8
1
100
AcDbCircle
 10
75.514369
 20
26.23269
 30
0.0
 40
30.0
100
AcDbArc
 50
0.0
 51
90.0
  0
ARC
  5
101
100
AcDbEntity
  8
1
100
AcDbCircle
 10
189.514369
 20
26.23269
 30
0.0
 40
30.0
100
AcDbArc
 50
90.0
 51
180.0
  0
ARC
  5
102
100
AcDbEntity
  8
1
100
AcDbCircle
 10
173.514369
 20
42.23269
 30
0.0
 40
14.0
100
AcDbArc
 50
90.0
 51
180.0
  0
ARC
  5
103
100
AcDbEntity
  8
1
100
AcDbCircle
 10
91.514369
 20
42.23269
 30
0.0
 40
14.0
100
AcDbArc
 50
0.0
 51
90.0
  0
LINE
  5
104
100
AcDbEntity
  8
1
100
AcDbLine
 10
136.514369
 20
26.23269
 30
0.0
 11
128.514369
 21
26.23269
 31
0.0
  0
LINE
  5
105
100
AcDbEntity
  8
1
100
AcDbLine
 10
128.514369
 20
50.23269
 30
0.0
 11
128.514369
 21
32.23269
 31
0.0
  0
LINE
  5
106
100
AcDbEntity
  8
1
100
AcDbLine
 10
136.514369
 20
50.23269
 30
0.0
 11
136.514369
 21
32.23269
 31
0.0
  0
ARC
  5
107
100
AcDbEntity
  8
1
100
AcDbCircle
 10
142.514369
 20
50.23269
 30
0.0
 40
6.0
100
AcDbArc
 50
90.0
 51
180.0
  0
ARC
  5
108
100
AcDbEntity
  8
1
100
AcDbCircle
 10
122.514369
 20
50.23269
 30
0.0
 40
6.0
100
AcDbArc
 50
360.0
 51
90.0
  0
ARC
  5
109
100
AcDbEntity
  8
1
100
AcDbCircle
 10
122.514369
 20
32.23269
 30
0.0
 40
6.0
100
AcDbArc
 50
270.0
 51
360.0
  0
ARC
  5
10A
100
AcDbEntity
  8
1
100
AcDbCircle
 10
142.514369
 20
32.23269
 30
0.0
 40
6.0
100
AcDbArc
 50
180.0
 51
270.0
  0
LINE
  5
10B
100
AcDbEntity
  8
1
100
AcDbLine
 10
93.514369
 20
-422.26731
 30
0.0
 11
93.514369
 21
-57.26731
 31
0.0
  0
LINE
  5
10C
100
AcDbEntity
  8
1
100
AcDbLine
 10
171.514369
 20
-422.26731
 30
0.0
 11
171.514369
 21
-57.26731
 31
0.0
  0
LINE
  5
10D
100
AcDbEntity
  8
1
100
AcDbLine
 10
94.514369
 20
-56.26731
 30
0.0
 11
93.514369
 21
-57.26731
 31
0.0
  0
LINE
  5
10E
100
AcDbEntity
  8
1
100
AcDbLine
 10
170.514369
 20
-56.26731
 30
0.0
 11
171.514369
 21
-57.26731
 31
0.0
  0
LINE
  5
10F
100
AcDbEntity
  8
1
100
AcDbLine
 10
171.514369
 20
-422.26731
 30
0.0
 11
170.514369
 21
-423.26731
 31
0.0
  0
LINE
  5
110
100
AcDbEntity
  8
1
100
AcDbLine
 10
93.514369
 20
-422.26731
 30
0.0
 11
94.514369
 21
-423.26731
 31
0.0
  0
LINE
  5
111
100
AcDbEntity
  8
1
100
AcDbLine
 10
170.514369
 20
-56.26731
 30
0.0
 11
170.514369
 21
-423.26731
 31
0.0
  0
LINE
  5
112
100
AcDbEntity
  8
1
100
AcDbLine
 10
94.514369
 20
-56.26731
 30
0.0
 11
94.514369
 21
-423.26731
 31
0.0
  0
ARC
  5
113
100
AcDbEntity
  8
1
100
AcDbCircle
 10
169.514369
 20
-46.26731
 30
0.0
 40
10.0
100
AcDbArc
 50
180.0
 51
270.0
  0
ARC
  5
114
100
AcDbEntity
  8
1
100
AcDbCircle
 10
95.514369
 20
-46.26731
 30
0.0
 40
10.0
100
AcDbArc
 50
270.0
 51
0.0
  0
LINE
  5
115
100
AcDbEntity
  8
1
100
AcDbLine
 10
106.064254
 20
-55.899368
 30
0.0
 11
158.964484
 21
-55.899368
 31
0.0
  0
LINE
  5
116
100
AcDbEntity
  8
1
100
AcDbLine
 10
94.514369
 20
-56.26731
 30
0.0
 11
95.514369
 21
-56.26731
 31
0.0
  0
LINE
  5
117
100
AcDbEntity
  8
1
100
AcDbLine
 10
169.514369
 20
-56.26731
 30
0.0
 11
170.514369
 21
-56.26731
 31
0.0
  0
LINE
  5
118
100
AcDbEntity
  8
1
100
AcDbLine
 10
105.514369
 20
-40.172794
 30
0.0
 11
159.514369
 21
-40.172794
 31
0.0
  0
LINE
  5
119
100
AcDbEntity
  8
1
100
AcDbLine
 10
127.514369
 20
-4.15481
 30
0.0
 11
137.514369
 21
-4.15481
 31
0.0
  0
LINE
  5
11A
100
AcDbEntity
  8
1
100
AcDbLine
 10
127.514369
 20
-34.172794
 30
0.0
 11
127.514369
 21
-10.15481
 31
0.0
  0
LINE
  5
11B
100
AcDbEntity
  8
1
100
AcDbLine
 10
137.514369
 20
-34.172794
 30
0.0
 11
137.514369
 21
-10.15481
 31
0.0
  0
ARC
  5
11C
100
AcDbEntity
  8
1
100
AcDbCircle
 10
143.514369
 20
-10.15481
 30
0.0
 40
6.0
100
AcDbArc
 50
90.0
 51
180.0
  0
ARC
  5
11D
100
AcDbEntity
  8
1
100
AcDbCircle
 10
121.514369
 20
-10.15481
 30
0.0
 40
6.0
100
AcDbArc
 50
0.0
 51
90.0
  0
ARC
  5
11E
100
AcDbEntity
  8
1
100
AcDbCircle
 10
121.514369
 20
-34.172794
 30
0.0
 40
6.0
100
AcDbArc
 50
270.0
 51
360.0
  0
ARC
  5
11F
100
AcDbEntity
  8
1
100
AcDbCircle
 10
143.514369
 20
-34.172794
 30
0.0
 40
6.0
100
AcDbArc
 50
180.0
 51
270.0
  0
LINE
  5
120
100
AcDbEntity
  8
1
100
AcDbLine
 10
130.514369
 20
-15.084649
 30
0.0
 11
134.514369
 21
-15.084649
 31
0.0
  0
LINE
  5
121
100
AcDbEntity
  8
1
100
AcDbLine
 10
130.514369
 20
-31.110273
 30
0.0
 11
134.514369
 21
-31.110273
 31
0.0
  0
ARC
  5
122
100
AcDbEntity
  8
1
100
AcDbCircle
 10
134.514369
 20
-18.084649
 30
0.0
 40
3.0
100
AcDbArc
 50
0.0
 51
90.0
  0
ARC
  5
123
100
AcDbEntity
  8
1
100
AcDbCircle
 10
130.514369
 20
-18.084649
 30
0.0
 40
3.0
100
AcDbArc
 50
90.0
 51
180.0
  0
ARC
  5
124
100
AcDbEntity
  8
1
100
AcDbCircle
 10
130.514369
 20
-28.110273
 30
0.0
 40
3.0
100
AcDbArc
 50
180.0
 51
270.0
  0
ARC
  5
125
100
AcDbEntity
  8
1
100
AcDbCircle
 10
134.514369
 20
-28.110273
 30
0.0
 40
3.0
100
AcDbArc
 50
270.0
 51
360.0
  0
LINE
  5
126
100
AcDbEntity
  8
1
100
AcDbLine
 10
109.514369
 20
-480.76731
 30
0.0
 11
155.514369
 21
-480.76731
 31
0.0
  0
LINE
  5
127
100
AcDbEntity
  8
1
100
AcDbLine
 10
102.514369
 20
-474.76731
 30
0.0
 11
102.514369
 21
-424.231299
 31
0.0
  0
LINE
  5
128
100
AcDbEntity
  8
1
100
AcDbLine
 10
162.514369
 20
-474.76731
 30
0.0
 11
162.514369
 21
-424.231299
 31
0.0
  0
ARC
  5
129
100
AcDbEntity
  8
1
100
AcDbCircle
 10
158.514369
 20
-480.76731
 30
0.0
 40
3.0
100
AcDbArc
 50
90.0
 51
180.0
  0
ARC
  5
12A
100
AcDbEntity
  8
1
100
AcDbCircle
 10
106.514369
 20
-480.76731
 30
0.0
 40
3.0
100
AcDbArc
 50
0.0
 51
90.0
  0
ARC
  5
12B
100
AcDbEntity
  8
1
100
AcDbCircle
 10
159.514369
 20
-474.76731
 30
0.0
 40
3.0
100
AcDbArc
 50
270.0
 51
360.0
  0
ARC
  5
12C
100
AcDbEntity
  8
1
100
AcDbCircle
 10
105.514369
 20
-474.76731
 30
0.0
 40
3.0
100
AcDbArc
 50
180.0
 51
270.0
  0
ARC
  5
12D
100
AcDbEntity
  8
1
100
AcDbCircle
 10
168.514369
 20
-429.26731
 30
0.0
 40
6.0
100
AcDbArc
 50
90.0
 51
180.0
  0
ARC
  5
12E
100
AcDbEntity
  8
1
100
AcDbCircle
 10
96.514369
 20
-429.26731
 30
0.0
 40
6.0
100
AcDbArc
 50
0.0
 51
90.0
  0
LINE
  5
12F
100
AcDbEntity
  8
1
100
AcDbLine
 10
94.514369
 20
-423.26731
 30
0.0
 11
96.514369
 21
-423.26731
 31
0.0
  0
LINE
  5
130
100
AcDbEntity
  8
1
100
AcDbLine
 10
168.514369
 20
-423.26731
 30
0.0
 11
170.514369
 21
-423.26731
 31
0.0
  0
LINE
  5
131
100
AcDbEntity
  8
1
100
AcDbLine
 10
102.514369
 20
-439.361825
 30
0.0
 11
162.514369
 21
-439.361825
 31
0.0
  0
ARC
  5
132
100
AcDbEntity
  8
1
100
AcDbCircle
 10
-295.260051
 20
-422.121522
 30
0.0
 40
4.0
100
AcDbArc
 50
103.454303
 51
162.401297
  0
ARC
  5
133
100
AcDbEntity
  8
1
100
AcDbCircle
 10
-382.511211
 20
-422.121522
 30
0.0
 40
4.0
100
AcDbArc
 50
17.598703
 51
76.545697
  0
ARC
  5
134
100
AcDbEntity
  8
1
100
AcDbCircle
 10
-295.260051
 20
-57.413097
 30
0.0
 40
4.0
100
AcDbArc
 50
197.598703
 51
256.545697
  0
ARC
  5
135
100
AcDbEntity
  8
1
100
AcDbCircle
 10
-382.511211
 20
-57.413097
 30
0.0
 40
4.0
100
AcDbArc
 50
283.454303
 51
342.401297
  0
LINE
  5
136
100
AcDbEntity
  8
1
100
AcDbLine
 10
127.514369
 20
-462.531783
 30
0.0
 11
127.514369
 21
-445.361825
 31
0.0
  0
LINE
  5
137
100
AcDbEntity
  8
1
100
AcDbLine
 10
137.514369
 20
-462.531783
 30
0.0
 11
137.514369
 21
-445.361825
 31
0.0
  0
ARC
  5
138
100
AcDbEntity
  8
1
100
AcDbCircle
 10
143.514369
 20
-445.361825
 30
0.0
 40
6.0
100
AcDbArc
 50
90.0
 51
180.0
  0
ARC
  5
139
100
AcDbEntity
  8
1
100
AcDbCircle
 10
121.514369
 20
-445.361825
 30
0.0
 40
6.0
100
AcDbArc
 50
0.0
 51
90.0
  0
LINE
  5
13A
100
AcDbEntity
  8
1
100
AcDbLine
 10
127.514369
 20
-468.531783
 30
0.0
 11
137.514369
 21
-468.531783
 31
0.0
  0
ARC
  5
13B
100
AcDbEntity
  8
1
100
AcDbCircle
 10
143.514369
 20
-462.531783
 30
0.0
 40
6.0
100
AcDbArc
 50
180.0
 51
255.633409
  0
ARC
  5
13C
100
AcDbEntity
  8
1
100
AcDbCircle
 10
121.514369
 20
-462.531783
 30
0.0
 40
6.0
100
AcDbArc
 50
284.366591
 51
360.0
  0
LINE
  5
13D
100
AcDbEntity
  8
1
100
AcDbLine
 10
130.514369
 20
-448.42435
 30
0.0
 11
134.514369
 21
-448.42435
 31
0.0
  0
LINE
  5
13E
100
AcDbEntity
  8
1
100
AcDbLine
 10
130.514369
 20
-464.44997
 30
0.0
 11
134.514369
 21
-464.44997
 31
0.0
  0
ARC
  5
13F
100
AcDbEntity
  8
1
100
AcDbCircle
 10
134.514369
 20
-451.42435
 30
0.0
 40
3.0
100
AcDbArc
 50
0.0
 51
90.0
  0
ARC
  5
140
100
AcDbEntity
  8
1
100
AcDbCircle
 10
130.514369
 20
-451.42435
 30
0.0
 40
3.0
100
AcDbArc
 50
90.0
 51
180.0
  0
ARC
  5
141
100
AcDbEntity
  8
1
100
AcDbCircle
 10
130.514369
 20
-461.44997
 30
0.0
 40
3.0
100
AcDbArc
 50
180.0
 51
270.0
  0
ARC
  5
142
100
AcDbEntity
  8
1
100
AcDbCircle
 10
134.514369
 20
-461.44997
 30
0.0
 40
3.0
100
AcDbArc
 50
270.0
 51
360.0
  0
LINE
  5
143
100
AcDbEntity
  8
1
100
AcDbLine
 10
142.025619
 20
-474.76731
 30
0.0
 11
142.025619
 21
-455.76731
 31
0.0
  0
LINE
  5
144
100
AcDbEntity
  8
1
100
AcDbLine
 10
123.003119
 20
-474.76731
 30
0.0
 11
123.003119
 21
-455.76731
 31
0.0
  0
LINE
  5
145
100
AcDbEntity
  8
1
100
AcDbLine
 10
105.514369
 20
-477.76731
 30
0.0
 11
120.003119
 21
-477.76731
 31
0.0
  0
LINE
  5
146
100
AcDbEntity
  8
1
100
AcDbLine
 10
145.025619
 20
-477.76731
 30
0.0
 11
159.514369
 21
-477.76731
 31
0.0
  0
ARC
  5
147
100
AcDbEntity
  8
1
100
AcDbCircle
 10
145.025619
 20
-474.76731
 30
0.0
 40
3.0
100
AcDbArc
 50
180.0
 51
270.0
  0
ARC
  5
148
100
AcDbEntity
  8
1
100
AcDbCircle
 10
120.003119
 20
-474.76731
 30
0.0
 40
3.0
100
AcDbArc
 50
270.0
 51
0.0
  0
ARC
  5
149
100
AcDbEntity
  8
1
100
AcDbCircle
 10
139.025619
 20
-455.76731
 30
0.0
 40
3.0
100
AcDbArc
 50
0.0
 51
75.633409
  0
ARC
  5
14A
100
AcDbEntity
  8
1
100
AcDbCircle
 10
126.003119
 20
-455.76731
 30
0.0
 40
3.0
100
AcDbArc
 50
104.366591
 51
180.0
  0
ARC
  5
14B
100
AcDbEntity
  8
1
100
AcDbCircle
 10
140.514369
 20
-449.954942
 30
0.0
 40
3.0
100
AcDbArc
 50
180.0
 51
255.633409
  0
ARC
  5
14C
100
AcDbEntity
  8
1
100
AcDbCircle
 10
124.514369
 20
-449.954942
 30
0.0
 40
3.0
100
AcDbArc
 50
284.366591
 51
360.0
  0
LINE
  5
14D
100
AcDbEntity
  8
1
100
AcDbLine
 10
119.514369
 20
-109.76731
 30
0.0
 11
145.514369
 21
-109.76731
 31
0.0
  0
LINE
  5
14E
100
AcDbEntity
  8
1
100
AcDbLine
 10
119.514369
 20
-114.76731
 30
0.0
 11
145.514369
 21
-114.76731
 31
0.0
  0
LINE
  5
14F
100
AcDbEntity
  8
1
100
AcDbLine
 10
119.514369
 20
-196.76731
 30
0.0
 11
145.514369
 21
-196.76731
 31
0.0
  0
LINE
  5
150
100
AcDbEntity
  8
1
100
AcDbLine
 10
119.514369
 20
-201.76731
 30
0.0
 11
145.514369
 21
-201.76731
 31
0.0
  0
LINE
  5
151
100
AcDbEntity
  8
1
100
AcDbLine
 10
119.514369
 20
-277.76731
 30
0.0
 11
145.514369
 21
-277.76731
 31
0.0
  0
LINE
  5
152
100
AcDbEntity
  8
1
100
AcDbLine
 10
119.514369
 20
-282.76731
 30
0.0
 11
145.514369
 21
-282.76731
 31
0.0
  0
LINE
  5
153
100
AcDbEntity
  8
1
100
AcDbLine
 10
119.514369
 20
-364.76731
 30
0.0
 11
145.514369
 21
-364.76731
 31
0.0
  0
LINE
  5
154
100
AcDbEntity
  8
1
100
AcDbLine
 10
119.514369
 20
-369.76731
 30
0.0
 11
145.514369
 21
-369.76731
 31
0.0
  0
LINE
  5
155
100
AcDbEntity
  8
1
100
AcDbLine
 10
151.514369
 20
-103.76731
 30
0.0
 11
151.514369
 21
-67.303321
 31
0.0
  0
LINE
  5
156
100
AcDbEntity
  8
1
100
AcDbLine
 10
113.514369
 20
-103.76731
 30
0.0
 11
113.514369
 21
-67.303321
 31
0.0
  0
LINE
  5
157
100
AcDbEntity
  8
1
100
AcDbLine
 10
113.514369
 20
-190.76731
 30
0.0
 11
113.514369
 21
-120.76731
 31
0.0
  0
LINE
  5
158
100
AcDbEntity
  8
1
100
AcDbLine
 10
151.514369
 20
-190.76731
 30
0.0
 11
151.514369
 21
-120.76731
 31
0.0
  0
LINE
  5
159
100
AcDbEntity
  8
1
100
AcDbLine
 10
151.514369
 20
-271.76731
 30
0.0
 11
151.514369
 21
-207.76731
 31
0.0
  0
LINE
  5
15A
100
AcDbEntity
  8
1
100
AcDbLine
 10
113.514369
 20
-271.76731
 30
0.0
 11
113.514369
 21
-207.76731
 31
0.0
  0
LINE
  5
15B
100
AcDbEntity
  8
1
100
AcDbLine
 10
113.514369
 20
-412.231299
 30
0.0
 11
113.514369
 21
-375.76731
 31
0.0
  0
LINE
  5
15C
100
AcDbEntity
  8
1
100
AcDbLine
 10
113.514369
 20
-358.76731
 30
0.0
 11
113.514369
 21
-288.76731
 31
0.0
  0
LINE
  5
15D
100
AcDbEntity
  8
1
100
AcDbLine
 10
151.514369
 20
-412.231299
 30
0.0
 11
151.514369
 21
-375.76731
 31
0.0
  0
LINE
  5
15E
100
AcDbEntity
  8
1
100
AcDbLine
 10
151.514369
 20
-358.76731
 30
0.0
 11
151.514369
 21
-288.76731
 31
0.0
  0
ARC
  5
15F
100
AcDbEntity
  8
1
100
AcDbCircle
 10
145.514369
 20
-190.76731
 30
0.0
 40
6.0
100
AcDbArc
 50
270.0
 51
360.0
  0
ARC
  5
160
100
AcDbEntity
  8
1
100
AcDbCircle
 10
119.514369
 20
-190.76731
 30
0.0
 40
6.0
100
AcDbArc
 50
180.0
 51
270.0
  0
ARC
  5
161
100
AcDbEntity
  8
1
100
AcDbCircle
 10
119.514369
 20
-120.76731
 30
0.0
 40
6.0
100
AcDbArc
 50
90.0
 51
180.0
  0
ARC
  5
162
100
AcDbEntity
  8
1
100
AcDbCircle
 10
145.514369
 20
-120.76731
 30
0.0
 40
6.0
100
AcDbArc
 50
0.0
 51
90.0
  0
ARC
  5
163
100
AcDbEntity
  8
1
100
AcDbCircle
 10
145.514369
 20
-207.76731
 30
0.0
 40
6.0
100
AcDbArc
 50
0.0
 51
90.0
  0
ARC
  5
164
100
AcDbEntity
  8
1
100
AcDbCircle
 10
119.514369
 20
-207.76731
 30
0.0
 40
6.0
100
AcDbArc
 50
90.0
 51
180.0
  0
ARC
  5
165
100
AcDbEntity
  8
1
100
AcDbCircle
 10
119.514369
 20
-271.76731
 30
0.0
 40
6.0
100
AcDbArc
 50
180.0
 51
270.0
  0
ARC
  5
166
100
AcDbEntity
  8
1
100
AcDbCircle
 10
145.514369
 20
-271.76731
 30
0.0
 40
6.0
100
AcDbArc
 50
270.0
 51
360.0
  0
ARC
  5
167
100
AcDbEntity
  8
1
100
AcDbCircle
 10
145.514369
 20
-288.76731
 30
0.0
 40
6.0
100
AcDbArc
 50
0.0
 51
90.0
  0
ARC
  5
168
100
AcDbEntity
  8
1
100
AcDbCircle
 10
119.514369
 20
-288.76731
 30
0.0
 40
6.0
100
AcDbArc
 50
90.0
 51
180.0
  0
ARC
  5
169
100
AcDbEntity
  8
1
100
AcDbCircle
 10
119.514369
 20
-358.76731
 30
0.0
 40
6.0
100
AcDbArc
 50
180.0
 51
270.0
  0
ARC
  5
16A
100
AcDbEntity
  8
1
100
AcDbCircle
 10
145.514369
 20
-358.76731
 30
0.0
 40
6.0
100
AcDbArc
 50
270.0
 51
0.0
  0
ARC
  5
16B
100
AcDbEntity
  8
1
100
AcDbCircle
 10
145.514369
 20
-375.76731
 30
0.0
 40
6.0
100
AcDbArc
 50
0.0
 51
90.0
  0
ARC
  5
16C
100
AcDbEntity
  8
1
100
AcDbCircle
 10
119.514369
 20
-375.76731
 30
0.0
 40
6.0
100
AcDbArc
 50
90.0
 51
180.0
  0
ARC
  5
16D
100
AcDbEntity
  8
1
100
AcDbCircle
 10
119.514369
 20
-103.76731
 30
0.0
 40
6.0
100
AcDbArc
 50
180.0
 51
270.0
  0
ARC
  5
16E
100
AcDbEntity
  8
1
100
AcDbCircle
 10
145.514369
 20
-103.76731
 30
0.0
 40
6.0
100
AcDbArc
 50
270.0
 51
360.0
  0
ARC
  5
16F
100
AcDbEntity
  8
1
100
AcDbCircle
 10
157.514369
 20
-67.303321
 30
0.0
 40
6.0
100
AcDbArc
 50
90.0
 51
180.0
  0
ARC
  5
170
100
AcDbEntity
  8
1
100
AcDbCircle
 10
107.514369
 20
-67.303321
 30
0.0
 40
6.0
100
AcDbArc
 50
0.0
 51
90.0
  0
ARC
  5
171
100
AcDbEntity
  8
1
100
AcDbCircle
 10
157.514369
 20
-412.231299
 30
0.0
 40
6.0
100
AcDbArc
 50
180.0
 51
270.0
  0
ARC
  5
172
100
AcDbEntity
  8
1
100
AcDbCircle
 10
107.514369
 20
-412.231299
 30
0.0
 40
6.0
100
AcDbArc
 50
270.0
 51
0.0
  0
LINE
  5
173
100
AcDbEntity
  8
1
100
AcDbLine
 10
109.514369
 20
-481.56731
 30
0.0
 11
155.514369
 21
-481.56731
 31
0.0
  0
LINE
  5
174
100
AcDbEntity
  8
1
100
AcDbLine
 10
109.514369
 20
-484.56731
 30
0.0
 11
155.514369
 21
-484.56731
 31
0.0
  0
LINE
  5
175
100
AcDbEntity
  8
1
100
AcDbLine
 10
155.514369
 20
-480.76731
 30
0.0
 11
155.514369
 21
-484.56731
 31
0.0
  0
LINE
  5
176
100
AcDbEntity
  8
1
100
AcDbLine
 10
109.514369
 20
-480.76731
 30
0.0
 11
109.514369
 21
-484.56731
 31
0.0
  0
CIRCLE
  5
177
100
AcDbEntity
  8
1
100
AcDbCircle
 10
-338.885631
 20
-239.76731
 30
0.0
 40
183.5
  0
CIRCLE
  5
178
100
AcDbEntity
  8
1
100
AcDbCircle
 10
-338.885631
 20
-239.76731
 30
0.0
 40
157.0
  0
CIRCLE
  5
179
100
AcDbEntity
  8
1
100
AcDbCircle
 10
-338.885631
 20
-239.76731
 30
0.0
 40
151.0
  0
LINE
  5
17A
100
AcDbEntity
  8
1
  6
CENTER
 62
     2
100
AcDbLine
 10
-338.885631
 20
174.072998
 30
0.0
 11
-338.885631
 21
-506.519677
 31
0.0
  0
LINE
  5
17B
100
AcDbEntity
  8
1
  6
CENTER
 62
     2
100
AcDbLine
 10
132.514369
 20
176.598465
 30
0.0
 11
132.514369
 21
-506.519677
 31
0.0
  0
LINE
  5
17C
100
AcDbEntity
  8
1
  6
CENTER
 62
     2
100
AcDbLine
 10
-537.868408
 20
303.766023
 30
0.0
 11
-141.506851
 21
303.766023
 31
0.0
  0
LINE
  5
17D
100
AcDbEntity
  8
1
  6
DASHED
100
AcDbLine
 10
-276.385631
 20
333.866023
 30
0.0
 11
-276.385631
 21
273.666023
 31
0.0
  0
LINE
  5
17E
100
AcDbEntity
  8
1
  6
DASHED
100
AcDbLine
 10
-401.385631
 20
333.866023
 30
0.0
 11
-401.385631
 21
273.666023
 31
0.0
  0
LINE
  5
17F
100
AcDbEntity
  8
1
  6
DASHED
100
AcDbLine
 10
-368.985631
 20
366.266023
 30
0.0
 11
-308.785631
 21
366.266023
 31
0.0
  0
LINE
  5
180
100
AcDbEntity
  8
1
  6
DASHED
100
AcDbLine
 10
-368.985631
 20
241.266023
 30
0.0
 11
-308.785631
 21
241.266023
 31
0.0
  0
ARC
  5
181
100
AcDbEntity
  8
1
  6
DASHED
100
AcDbCircle
 10
-308.785631
 20
333.866023
 30
0.0
 40
32.4
100
AcDbArc
 50
0.0
 51
90.0
  0
ARC
  5
182
100
AcDbEntity
  8
1
  6
DASHED
100
AcDbCircle
 10
-368.985631
 20
333.866023
 30
0.0
 40
32.4
100
AcDbArc
 50
90.0
 51
180.0
  0
ARC
  5
183
100
AcDbEntity
  8
1
  6
DASHED
100
AcDbCircle
 10
-368.985631
 20
273.666023
 30
0.0
 40
32.4
100
AcDbArc
 50
180.0
 51
270.0
  0
ARC
  5
184
100
AcDbEntity
  8
1
  6
DASHED
100
AcDbCircle
 10
-308.785631
 20
273.666023
 30
0.0
 40
32.4
100
AcDbArc
 50
270.0
 51
360.0
  0
CIRCLE
  5
185
100
AcDbEntity
  8
1
  6
DASHED
100
AcDbCircle
 10
-294.690631
 20
347.961023
 30
0.0
 40
6.5
  0
CIRCLE
  5
186
100
AcDbEntity
  8
1
  6
DASHED
100
AcDbCircle
 10
-383.080631
 20
347.961023
 30
0.0
 40
6.5
  0
CIRCLE
  5
187
100
AcDbEntity
  8
1
  6
DASHED
100
AcDbCircle
 10
-383.080631
 20
259.571023
 30
0.0
 40
6.5
  0
CIRCLE
  5
188
100
AcDbEntity
  8
1
  6
DASHED
100
AcDbCircle
 10
-294.690631
 20
259.571023
 30
0.0
 40
6.5
  0
LINE
  5
189
100
AcDbEntity
  8
1
  6
CENTER
 62
     2
100
AcDbLine
 10
-294.690631
 20
240.941391
 30
0.0
 11
-294.690631
 21
277.689682
 31
0.0
  0
LINE
  5
18A
100
AcDbEntity
  8
1
  6
CENTER
 62
     2
100
AcDbLine
 10
-294.690631
 20
332.469833
 30
0.0
 11
-294.690631
 21
364.881485
 31
0.0
  0
LINE
  5
18B
100
AcDbEntity
  8
1
  6
CENTER
 62
     2
100
AcDbLine
 10
-383.080631
 20
240.941391
 30
0.0
 11
-383.080631
 21
277.689682
 31
0.0
  0
LINE
  5
18C
100
AcDbEntity
  8
1
  6
CENTER
 62
     2
100
AcDbLine
 10
-383.080631
 20
332.469833
 30
0.0
 11
-383.080631
 21
364.881485
 31
0.0
  0
LINE
  5
18D
100
AcDbEntity
  8
1
  6
CENTER
 62
     2
100
AcDbLine
 10
-401.409513
 20
347.961023
 30
0.0
 11
-365.143888
 21
347.961023
 31
0.0
  0
LINE
  5
18E
100
AcDbEntity
  8
1
  6
CENTER
 62
     2
100
AcDbLine
 10
-311.771802
 20
347.961023
 30
0.0
 11
-276.190412
 21
347.961023
 31
0.0
  0
LINE
  5
18F
100
AcDbEntity
  8
1
  6
CENTER
 62
     2
100
AcDbLine
 10
-401.409513
 20
259.571023
 30
0.0
 11
-365.143888
 21
259.571023
 31
0.0
  0
LINE
  5
190
100
AcDbEntity
  8
1
  6
CENTER
 62
     2
100
AcDbLine
 10
-311.771802
 20
259.571023
 30
0.0
 11
-276.190412
 21
259.571023
 31
0.0
  0
LINE
  5
191
100
AcDbEntity
  8
1
100
AcDbLine
 10
-156.385631
 20
264.766023
 30
0.0
 11
-155.385631
 21
265.766023
 31
0.0
  0
LINE
  5
192
100
AcDbEntity
  8
1
100
AcDbLine
 10
-155.385631
 20
341.766023
 30
0.0
 11
-156.385631
 21
342.766023
 31
0.0
  0
LINE
  5
193
100
AcDbEntity
  8
1
100
AcDbLine
 10
-277.631979
 20
264.766023
 30
0.0
 11
-156.385631
 21
264.766023
 31
0.0
  0
LINE
  5
194
100
AcDbEntity
  8
1
100
AcDbLine
 10
-277.363505
 20
265.766023
 30
0.0
 11
-155.385631
 21
265.766023
 31
0.0
  0
LINE
  5
195
100
AcDbEntity
  8
1
100
AcDbLine
 10
-155.385631
 20
265.766023
 30
0.0
 11
-155.385631
 21
280.564778
 31
0.0
  0
LINE
  5
196
100
AcDbEntity
  8
1
100
AcDbLine
 10
-155.385631
 20
326.967269
 30
0.0
 11
-155.385631
 21
341.766023
 31
0.0
  0
LINE
  5
197
100
AcDbEntity
  8
1
100
AcDbLine
 10
-230.899521
 20
317.488455
 30
0.0
 11
-213.452089
 21
321.983517
 31
0.0
  0
LINE
  5
198
100
AcDbEntity
  8
1
100
AcDbLine
 10
-230.899521
 20
290.043592
 30
0.0
 11
-213.452089
 21
285.54853
 31
0.0
  0
LINE
  5
199
100
AcDbEntity
  8
1
100
AcDbLine
 10
-521.385631
 20
264.766023
 30
0.0
 11
-522.385631
 21
265.766023
 31
0.0
  0
LINE
  5
19A
100
AcDbEntity
  8
1
100
AcDbLine
 10
-522.385631
 20
341.766023
 30
0.0
 11
-521.385631
 21
342.766023
 31
0.0
  0
LINE
  5
19B
100
AcDbEntity
  8
1
100
AcDbLine
 10
-400.139282
 20
264.766023
 30
0.0
 11
-521.385631
 21
264.766023
 31
0.0
  0
LINE
  5
19C
100
AcDbEntity
  8
1
100
AcDbLine
 10
-400.407757
 20
265.766023
 30
0.0
 11
-522.385631
 21
265.766023
 31
0.0
  0
LINE
  5
19D
100
AcDbEntity
  8
1
100
AcDbLine
 10
-522.385631
 20
265.766023
 30
0.0
 11
-522.385631
 21
280.564778
 31
0.0
  0
LINE
  5
19E
100
AcDbEntity
  8
1
100
AcDbLine
 10
-522.385631
 20
326.967269
 30
0.0
 11
-522.385631
 21
341.766023
 31
0.0
  0
LINE
  5
19F
100
AcDbEntity
  8
1
100
AcDbLine
 10
-514.540541
 20
321.800413
 30
0.0
 11
-502.323693
 21
317.488455
 31
0.0
  0
LINE
  5
1A0
100
AcDbEntity
  8
1
100
AcDbLine
 10
-502.323693
 20
290.043592
 30
0.0
 11
-514.540541
 21
285.731634
 31
0.0
  0
LINE
  5
1A1
100
AcDbEntity
  8
1
100
AcDbLine
 10
-446.871741
 20
317.488455
 30
0.0
 11
-464.319173
 21
321.983517
 31
0.0
  0
LINE
  5
1A2
100
AcDbEntity
  8
1
100
AcDbLine
 10
-446.871741
 20
290.043592
 30
0.0
 11
-464.319173
 21
285.54853
 31
0.0
  0
LINE
  5
1A3
100
AcDbEntity
  8
1
100
AcDbLine
 10
-513.34678
 20
344.50251
 30
0.0
 11
-515.377909
 21
343.341865
 31
0.0
  0
LINE
  5
1A4
100
AcDbEntity
  8
1
100
AcDbLine
 10
-513.34678
 20
263.029537
 30
0.0
 11
-515.377909
 21
264.190182
 31
0.0
  0
ARC
  5
1A5
100
AcDbEntity
  8
1
100
AcDbCircle
 10
-512.354502
 20
342.766023
 30
0.0
 40
2.0
100
AcDbArc
 50
90.0
 51
119.744881
  0
ARC
  5
1A6
100
AcDbEntity
  8
1
100
AcDbCircle
 10
-512.354502
 20
264.766023
 30
0.0
 40
2.0
100
AcDbArc
 50
240.255119
 51
270.0
  0
ARC
  5
1A7
100
AcDbEntity
  8
1
100
AcDbCircle
 10
-514.385631
 20
265.926669
 30
0.0
 40
2.0
100
AcDbArc
 50
215.473231
 51
240.255119
  0
ARC
  5
1A8
100
AcDbEntity
  8
1
100
AcDbCircle
 10
-514.385631
 20
341.605378
 30
0.0
 40
2.0
100
AcDbArc
 50
119.744881
 51
144.526769
  0
LINE
  5
1A9
100
AcDbEntity
  8
1
  6
DASHED
100
AcDbLine
 10
-164.424482
 20
344.50251
 30
0.0
 11
-162.393353
 21
343.341865
 31
0.0
  0
LINE
  5
1AA
100
AcDbEntity
  8
1
100
AcDbLine
 10
-164.424482
 20
263.029537
 30
0.0
 11
-162.393353
 21
264.190182
 31
0.0
  0
ARC
  5
1AB
100
AcDbEntity
  8
1
  6
DASHED
100
AcDbCircle
 10
-165.41676
 20
342.766023
 30
0.0
 40
2.0
100
AcDbArc
 50
60.255119
 51
90.0
  0
ARC
  5
1AC
100
AcDbEntity
  8
1
100
AcDbCircle
 10
-165.41676
 20
264.766023
 30
0.0
 40
2.0
100
AcDbArc
 50
270.0
 51
299.744881
  0
ARC
  5
1AD
100
AcDbEntity
  8
1
100
AcDbCircle
 10
-163.385631
 20
265.926669
 30
0.0
 40
2.0
100
AcDbArc
 50
299.744881
 51
324.526769
  0
ARC
  5
1AE
100
AcDbEntity
  8
1
  6
DASHED
100
AcDbCircle
 10
-163.385631
 20
341.605378
 30
0.0
 40
2.0
100
AcDbArc
 50
35.473231
 51
60.255119
  0
LINE
  5
1AF
100
AcDbEntity
  8
1
100
AcDbLine
 10
-512.354502
 20
262.766023
 30
0.0
 11
-399.497104
 21
262.766023
 31
0.0
  0
LINE
  5
1B0
100
AcDbEntity
  8
1
100
AcDbLine
 10
-278.274158
 20
262.766023
 30
0.0
 11
-165.41676
 21
262.766023
 31
0.0
  0
LINE
  5
1B1
100
AcDbEntity
  8
1
  6
DASHED
100
AcDbLine
 10
-160.494908
 20
290.766023
 30
0.0
 11
-160.494908
 21
316.766023
 31
0.0
  0
LINE
  5
1B2
100
AcDbEntity
  8
1
  6
DASHED
100
AcDbLine
 10
-159.363348
 20
289.48907
 30
0.0
 11
-159.363348
 21
318.042977
 31
0.0
  0
LINE
  5
1B3
100
AcDbEntity
  8
1
100
AcDbLine
 10
-204.545577
 20
290.766023
 30
0.0
 11
-204.545577
 21
316.766023
 31
0.0
  0
LINE
  5
1B4
100
AcDbEntity
  8
1
100
AcDbLine
 10
-210.414817
 20
290.766023
 30
0.0
 11
-210.414817
 21
316.766023
 31
0.0
  0
LINE
  5
1B5
100
AcDbEntity
  8
1
100
AcDbLine
 10
-276.385631
 20
322.766023
 30
0.0
 11
-216.414817
 21
322.766023
 31
0.0
  0
LINE
  5
1B6
100
AcDbEntity
  8
1
100
AcDbLine
 10
-276.385631
 20
284.766023
 30
0.0
 11
-216.414817
 21
284.766023
 31
0.0
  0
ARC
  5
1B7
100
AcDbEntity
  8
1
100
AcDbCircle
 10
-216.414817
 20
316.766023
 30
0.0
 40
6.0
100
AcDbArc
 50
0.0
 51
90.0
  0
ARC
  5
1B8
100
AcDbEntity
  8
1
100
AcDbCircle
 10
-216.414817
 20
290.766023
 30
0.0
 40
6.0
100
AcDbArc
 50
270.0
 51
360.0
  0
ARC
  5
1B9
100
AcDbEntity
  8
1
100
AcDbCircle
 10
-198.545577
 20
290.766023
 30
0.0
 40
6.0
100
AcDbArc
 50
180.0
 51
270.0
  0
ARC
  5
1BA
100
AcDbEntity
  8
1
100
AcDbCircle
 10
-198.545577
 20
316.766023
 30
0.0
 40
6.0
100
AcDbArc
 50
90.0
 51
180.0
  0
ARC
  5
1BB
100
AcDbEntity
  8
1
  6
DASHED
100
AcDbCircle
 10
-166.494908
 20
316.766023
 30
0.0
 40
6.0
100
AcDbArc
 50
0.0
 51
90.0
  0
ARC
  5
1BC
100
AcDbEntity
  8
1
  6
DASHED
100
AcDbCircle
 10
-166.494908
 20
290.766023
 30
0.0
 40
6.0
100
AcDbArc
 50
270.0
 51
360.0
  0
ARC
  5
1BD
100
AcDbEntity
  8
1
100
AcDbCircle
 10
-161.385631
 20
326.967269
 30
0.0
 40
6.0
100
AcDbArc
 50
311.953215
 51
360.0
  0
ARC
  5
1BE
100
AcDbEntity
  8
1
100
AcDbCircle
 10
-161.385631
 20
280.564778
 30
0.0
 40
6.0
100
AcDbArc
 50
0.0
 51
48.046785
  0
ARC
  5
1BF
100
AcDbEntity
  8
1
  6
DASHED
100
AcDbCircle
 10
-153.363348
 20
289.48907
 30
0.0
 40
6.0
100
AcDbArc
 50
180.0
 51
228.046785
  0
ARC
  5
1C0
100
AcDbEntity
  8
1
  6
DASHED
100
AcDbCircle
 10
-153.363348
 20
318.042977
 30
0.0
 40
6.0
100
AcDbArc
 50
131.953215
 51
180.0
  0
LINE
  5
1C1
100
AcDbEntity
  8
1
100
AcDbLine
 10
-230.899521
 20
294.244837
 30
0.0
 11
-230.899521
 21
313.28721
 31
0.0
  0
LINE
  5
1C2
100
AcDbEntity
  8
1
100
AcDbLine
 10
-276.385631
 20
317.488455
 30
0.0
 11
-235.100766
 21
317.488455
 31
0.0
  0
LINE
  5
1C3
100
AcDbEntity
  8
1
100
AcDbLine
 10
-204.501926
 20
317.488455
 30
0.0
 11
-179.648814
 21
317.488455
 31
0.0
  0
LINE
  5
1C4
100
AcDbEntity
  8
1
100
AcDbLine
 10
-276.385631
 20
290.043592
 30
0.0
 11
-235.100766
 21
290.043592
 31
0.0
  0
LINE
  5
1C5
100
AcDbEntity
  8
1
100
AcDbLine
 10
-204.501926
 20
290.043592
 30
0.0
 11
-179.648814
 21
290.043592
 31
0.0
  0
ARC
  5
1C6
100
AcDbEntity
  8
1
100
AcDbCircle
 10
-235.100766
 20
313.28721
 30
0.0
 40
4.201245
100
AcDbArc
 50
0.0
 51
90.0
  0
ARC
  5
1C7
100
AcDbEntity
  8
1
100
AcDbCircle
 10
-235.100766
 20
294.244837
 30
0.0
 40
4.201245
100
AcDbArc
 50
270.0
 51
0.0
  0
LINE
  5
1C8
100
AcDbEntity
  8
1
100
AcDbLine
 10
-175.447569
 20
294.244837
 30
0.0
 11
-175.447569
 21
313.28721
 31
0.0
  0
ARC
  5
1C9
100
AcDbEntity
  8
1
100
AcDbCircle
 10
-179.648814
 20
313.28721
 30
0.0
 40
4.201245
100
AcDbArc
 50
0.0
 51
90.0
  0
ARC
  5
1CA
100
AcDbEntity
  8
1
100
AcDbCircle
 10
-179.648814
 20
294.244837
 30
0.0
 40
4.201245
100
AcDbArc
 50
270.0
 51
360.0
  0
LINE
  5
1CB
100
AcDbEntity
  8
1
100
AcDbLine
 10
-517.276354
 20
290.766023
 30
0.0
 11
-517.276354
 21
316.766023
 31
0.0
  0
LINE
  5
1CC
100
AcDbEntity
  8
1
100
AcDbLine
 10
-518.407914
 20
289.48907
 30
0.0
 11
-518.407914
 21
318.042977
 31
0.0
  0
LINE
  5
1CD
100
AcDbEntity
  8
1
100
AcDbLine
 10
-473.225685
 20
290.766023
 30
0.0
 11
-473.225685
 21
316.766023
 31
0.0
  0
LINE
  5
1CE
100
AcDbEntity
  8
1
100
AcDbLine
 10
-467.356445
 20
290.766023
 30
0.0
 11
-467.356445
 21
316.766023
 31
0.0
  0
LINE
  5
1CF
100
AcDbEntity
  8
1
100
AcDbLine
 10
-401.385631
 20
322.766023
 30
0.0
 11
-461.356445
 21
322.766023
 31
0.0
  0
LINE
  5
1D0
100
AcDbEntity
  8
1
100
AcDbLine
 10
-479.225685
 20
322.766023
 30
0.0
 11
-511.276354
 21
322.766023
 31
0.0
  0
LINE
  5
1D1
100
AcDbEntity
  8
1
100
AcDbLine
 10
-401.385631
 20
284.766023
 30
0.0
 11
-461.356445
 21
284.766023
 31
0.0
  0
LINE
  5
1D2
100
AcDbEntity
  8
1
100
AcDbLine
 10
-479.225685
 20
284.766023
 30
0.0
 11
-511.276354
 21
284.766023
 31
0.0
  0
ARC
  5
1D3
100
AcDbEntity
  8
1
100
AcDbCircle
 10
-461.356445
 20
316.766023
 30
0.0
 40
6.0
100
AcDbArc
 50
90.0
 51
180.0
  0
ARC
  5
1D4
100
AcDbEntity
  8
1
100
AcDbCircle
 10
-461.356445
 20
290.766023
 30
0.0
 40
6.0
100
AcDbArc
 50
180.0
 51
270.0
  0
ARC
  5
1D5
100
AcDbEntity
  8
1
100
AcDbCircle
 10
-479.225685
 20
290.766023
 30
0.0
 40
6.0
100
AcDbArc
 50
270.0
 51
360.0
  0
ARC
  5
1D6
100
AcDbEntity
  8
1
100
AcDbCircle
 10
-479.225685
 20
316.766023
 30
0.0
 40
6.0
100
AcDbArc
 50
0.0
 51
90.0
  0
ARC
  5
1D7
100
AcDbEntity
  8
1
100
AcDbCircle
 10
-511.276354
 20
316.766023
 30
0.0
 40
6.0
100
AcDbArc
 50
90.0
 51
180.0
  0
ARC
  5
1D8
100
AcDbEntity
  8
1
100
AcDbCircle
 10
-511.276354
 20
290.766023
 30
0.0
 40
6.0
100
AcDbArc
 50
180.0
 51
270.0
  0
ARC
  5
1D9
100
AcDbEntity
  8
1
100
AcDbCircle
 10
-516.385631
 20
326.967269
 30
0.0
 40
6.0
100
AcDbArc
 50
180.0
 51
228.046785
  0
ARC
  5
1DA
100
AcDbEntity
  8
1
100
AcDbCircle
 10
-516.385631
 20
280.564778
 30
0.0
 40
6.0
100
AcDbArc
 50
131.953215
 51
180.0
  0
ARC
  5
1DB
100
AcDbEntity
  8
1
100
AcDbCircle
 10
-524.407914
 20
289.48907
 30
0.0
 40
6.0
100
AcDbArc
 50
311.953215
 51
360.0
  0
ARC
  5
1DC
100
AcDbEntity
  8
1
100
AcDbCircle
 10
-524.407914
 20
318.042977
 30
0.0
 40
6.0
100
AcDbArc
 50
0.0
 51
48.046785
  0
LINE
  5
1DD
100
AcDbEntity
  8
1
100
AcDbLine
 10
-446.871741
 20
294.244837
 30
0.0
 11
-446.871741
 21
313.28721
 31
0.0
  0
LINE
  5
1DE
100
AcDbEntity
  8
1
100
AcDbLine
 10
-401.385631
 20
317.488455
 30
0.0
 11
-442.670496
 21
317.488455
 31
0.0
  0
LINE
  5
1DF
100
AcDbEntity
  8
1
100
AcDbLine
 10
-473.269336
 20
317.488455
 30
0.0
 11
-498.122447
 21
317.488455
 31
0.0
  0
LINE
  5
1E0
100
AcDbEntity
  8
1
100
AcDbLine
 10
-401.385631
 20
290.043592
 30
0.0
 11
-442.670496
 21
290.043592
 31
0.0
  0
LINE
  5
1E1
100
AcDbEntity
  8
1
100
AcDbLine
 10
-473.269336
 20
290.043592
 30
0.0
 11
-498.122447
 21
290.043592
 31
0.0
  0
ARC
  5
1E2
100
AcDbEntity
  8
1
100
AcDbCircle
 10
-442.670496
 20
313.28721
 30
0.0
 40
4.201245
100
AcDbArc
 50
90.0
 51
180.0
  0
ARC
  5
1E3
100
AcDbEntity
  8
1
100
AcDbCircle
 10
-442.670496
 20
294.244837
 30
0.0
 40
4.201245
100
AcDbArc
 50
180.0
 51
270.0
  0
LINE
  5
1E4
100
AcDbEntity
  8
1
100
AcDbLine
 10
-502.323693
 20
294.244837
 30
0.0
 11
-502.323693
 21
313.28721
 31
0.0
  0
ARC
  5
1E5
100
AcDbEntity
  8
1
100
AcDbCircle
 10
-498.122447
 20
313.28721
 30
0.0
 40
4.201245
100
AcDbArc
 50
90.0
 51
180.0
  0
ARC
  5
1E6
100
AcDbEntity
  8
1
100
AcDbCircle
 10
-498.122447
 20
294.244837
 30
0.0
 40
4.201245
100
AcDbArc
 50
180.0
 51
270.0
  0
LINE
  5
1E7
100
AcDbEntity
  8
1
  6
DASHED
100
AcDbLine
 10
-278.274158
 20
344.766023
 30
0.0
 11
-271.637807
 21
344.766023
 31
0.0
  0
LINE
  5
1E8
100
AcDbEntity
  8
1
  6
DASHED
100
AcDbLine
 10
-277.631979
 20
342.766023
 30
0.0
 11
-271.535139
 21
342.766023
 31
0.0
  0
LINE
  5
1E9
100
AcDbEntity
  8
1
  6
DASHED
100
AcDbLine
 10
-277.363505
 20
341.766023
 30
0.0
 11
-271.493826
 21
341.766023
 31
0.0
  0
LINE
  5
1EA
100
AcDbEntity
  8
1
100
AcDbLine
 10
-512.354502
 20
344.766023
 30
0.0
 11
-406.133455
 21
344.766023
 31
0.0
  0
LINE
  5
1EB
100
AcDbEntity
  8
1
  6
DASHED
100
AcDbLine
 10
-406.133455
 20
344.766023
 30
0.0
 11
-399.497104
 21
344.766023
 31
0.0
  0
LINE
  5
1EC
100
AcDbEntity
  8
1
  6
DASHED
100
AcDbLine
 10
-400.139282
 20
342.766023
 30
0.0
 11
-406.236122
 21
342.766023
 31
0.0
  0
LINE
  5
1ED
100
AcDbEntity
  8
1
100
AcDbLine
 10
-406.236122
 20
342.766023
 30
0.0
 11
-521.385631
 21
342.766023
 31
0.0
  0
LINE
  5
1EE
100
AcDbEntity
  8
1
  6
DASHED
100
AcDbLine
 10
-400.407757
 20
341.766023
 30
0.0
 11
-406.277436
 21
341.766023
 31
0.0
  0
LINE
  5
1EF
100
AcDbEntity
  8
1
100
AcDbLine
 10
-406.277436
 20
341.766023
 30
0.0
 11
-522.385631
 21
341.766023
 31
0.0
  0
LINE
  5
1F0
100
AcDbEntity
  8
1
100
AcDbLine
 10
-271.637807
 20
344.766023
 30
0.0
 11
-173.368659
 21
344.766023
 31
0.0
  0
LINE
  5
1F1
100
AcDbEntity
  8
1
  6
DASHED
100
AcDbLine
 10
-173.368659
 20
344.766023
 30
0.0
 11
-165.41676
 21
344.766023
 31
0.0
  0
LINE
  5
1F2
100
AcDbEntity
  8
1
100
AcDbLine
 10
-271.535139
 20
342.766023
 30
0.0
 11
-173.798074
 21
342.766023
 31
0.0
  0
LINE
  5
1F3
100
AcDbEntity
  8
1
100
AcDbLine
 10
-198.545577
 20
322.766023
 30
0.0
 11
-173.312494
 21
322.766023
 31
0.0
  0
LINE
  5
1F4
100
AcDbEntity
  8
1
  6
DASHED
100
AcDbLine
 10
-173.312494
 20
322.766023
 30
0.0
 11
-166.494908
 21
322.766023
 31
0.0
  0
LINE
  5
1F5
100
AcDbEntity
  8
1
  6
DASHED
100
AcDbLine
 10
-163.230721
 20
321.800413
 30
0.0
 11
-174.385631
 21
317.863268
 31
0.0
  0
LINE
  5
1F6
100
AcDbEntity
  8
1
100
AcDbLine
 10
-174.385631
 20
317.863268
 30
0.0
 11
-175.447569
 21
317.488455
 31
0.0
  0
LINE
  5
1F7
100
AcDbEntity
  8
1
100
AcDbLine
 10
-175.447569
 20
290.043592
 30
0.0
 11
-173.559486
 21
289.377189
 31
0.0
  0
LINE
  5
1F8
100
AcDbEntity
  8
1
  6
DASHED
100
AcDbLine
 10
-173.559486
 20
289.377189
 30
0.0
 11
-163.230721
 21
285.731634
 31
0.0
  0
LINE
  5
1F9
100
AcDbEntity
  8
1
100
AcDbLine
 10
-198.545577
 20
284.766023
 30
0.0
 11
-174.385631
 21
284.766023
 31
0.0
  0
LINE
  5
1FA
100
AcDbEntity
  8
1
  6
DASHED
100
AcDbLine
 10
-174.385631
 20
284.766023
 30
0.0
 11
-166.494908
 21
284.766023
 31
0.0
  0
LINE
  5
1FB
100
AcDbEntity
  8
1
100
AcDbLine
 10
-271.493826
 20
341.766023
 30
0.0
 11
-174.066137
 21
341.766023
 31
0.0
  0
LINE
  5
1FC
100
AcDbEntity
  8
1
  6
DASHED
100
AcDbLine
 10
-173.798074
 20
342.766023
 30
0.0
 11
-157.885631
 21
342.766023
 31
0.0
  0
LINE
  5
1FD
100
AcDbEntity
  8
1
100
AcDbLine
 10
-157.885631
 20
342.766023
 30
0.0
 11
-156.385631
 21
342.766023
 31
0.0
  0
LINE
  5
1FE
100
AcDbEntity
  8
1
  6
DASHED
100
AcDbLine
 10
-174.066137
 20
341.766023
 30
0.0
 11
-157.885631
 21
341.766023
 31
0.0
  0
LINE
  5
1FF
100
AcDbEntity
  8
1
100
AcDbLine
 10
-157.885631
 20
341.766023
 30
0.0
 11
-155.385631
 21
341.766023
 31
0.0
  0
LINE
  5
200
100
AcDbEntity
  8
2
  6
CENTER
 62
     2
100
AcDbLine
 10
-338.885631
 20
419.966339
 30
0.0
 11
-338.885631
 21
226.515483
 31
0.0
  0
ARC
  5
201
100
AcDbEntity
  8
2
  6
CENTER
 62
     2
100
AcDbCircle
 10
-338.885631
 20
303.766023
 30
0.0
 40
42.0
100
AcDbArc
 50
122.297217
 51
148.209378
  0
ARC
  5
202
100
AcDbEntity
  8
2
  6
CENTER
 62
     2
100
AcDbCircle
 10
-338.885631
 20
303.766023
 30
0.0
 40
42.0
100
AcDbArc
 50
211.791522
 51
238.288944
  0
ARC
  5
203
100
AcDbEntity
  8
2
  6
CENTER
 62
     2
100
AcDbCircle
 10
-338.885631
 20
303.766023
 30
0.0
 40
42.0
100
AcDbArc
 50
301.437918
 51
327.74136
  0
ARC
  5
204
100
AcDbEntity
  8
2
  6
CENTER
 62
     2
100
AcDbCircle
 10
-338.885631
 20
303.766023
 30
0.0
 40
42.0
100
AcDbArc
 50
31.894454
 51
57.803083
  0
LINE
  5
205
100
AcDbEntity
  8
2
  6
CENTER
 62
     2
100
AcDbLine
 10
-375.97918
 20
266.672475
 30
0.0
 11
-361.848305
 21
280.803349
 31
0.0
  0
LINE
  5
206
100
AcDbEntity
  8
2
  6
CENTER
 62
     2
100
AcDbLine
 10
-315.386391
 20
327.265263
 30
0.0
 11
-302.143002
 21
340.508652
 31
0.0
  0
LINE
  5
207
100
AcDbEntity
  8
2
  6
CENTER
 62
     2
100
AcDbLine
 10
-375.228586
 20
340.108979
 30
0.0
 11
-362.355223
 21
327.235615
 31
0.0
  0
LINE
  5
208
100
AcDbEntity
  8
2
  6
CENTER
 62
     2
100
AcDbLine
 10
-316.337214
 20
281.217606
 30
0.0
 11
-302.354143
 21
267.234536
 31
0.0
  0
LINE
  5
209
100
AcDbEntity
  8
2
  6
CENTER
 62
     2
100
AcDbLine
 10
-419.229869
 20
374.766023
 30
0.0
 11
-133.213008
 21
374.766023
 31
0.0
  0
ARC
  5
20A
100
AcDbEntity
  8
2
100
AcDbCircle
 10
-350.724818
 20
361.480278
 30
0.0
 40
3.714255
100
AcDbArc
 50
270.0
 51
360.0
  0
ARC
  5
20B
100
AcDbEntity
  8
2
100
AcDbCircle
 10
-354.606214
 20
364.841679
 30
0.0
 40
3.714255
100
AcDbArc
 50
90.0
 51
180.0
  0
ARC
  5
20C
100
AcDbEntity
  8
2
100
AcDbCircle
 10
-352.953371
 20
361.443136
 30
0.0
 40
1.857127
100
AcDbArc
 50
180.0
 51
270.0
  0
ARC
  5
20D
100
AcDbEntity
  8
2
100
AcDbCircle
 10
-352.377661
 20
364.878821
 30
0.0
 40
1.857127
100
AcDbArc
 50
0.0
 51
90.0
  0
LINE
  5
20E
100
AcDbEntity
  8
2
100
AcDbLine
 10
-341.940605
 20
366.735949
 30
0.0
 11
-342.330602
 21
357.766023
 31
0.0
  0
LINE
  5
20F
100
AcDbEntity
  8
2
100
AcDbLine
 10
-335.830656
 20
366.735949
 30
0.0
 11
-335.44066
 21
357.766023
 31
0.0
  0
LINE
  5
210
100
AcDbEntity
  8
2
100
AcDbLine
 10
-341.940605
 20
366.735949
 30
0.0
 11
-340.269191
 21
357.766023
 31
0.0
  0
LINE
  5
211
100
AcDbEntity
  8
2
100
AcDbLine
 10
-338.885631
 20
362.09313
 30
0.0
 11
-337.681382
 21
368.555934
 31
0.0
  0
LINE
  5
212
100
AcDbEntity
  8
2
100
AcDbLine
 10
-345.060579
 20
368.555934
 30
0.0
 11
-340.08988
 21
368.555934
 31
0.0
  0
LINE
  5
213
100
AcDbEntity
  8
2
100
AcDbLine
 10
-340.269191
 20
357.766023
 30
0.0
 11
-337.502071
 21
357.766023
 31
0.0
  0
ARC
  5
214
100
AcDbEntity
  8
2
100
AcDbCircle
 10
-323.165048
 20
361.480278
 30
0.0
 40
3.714255
100
AcDbArc
 50
270.0
 51
360.0
  0
ARC
  5
215
100
AcDbEntity
  8
2
100
AcDbCircle
 10
-324.817891
 20
361.443136
 30
0.0
 40
1.857127
100
AcDbArc
 50
270.0
 51
360.0
  0
LINE
  5
216
100
AcDbEntity
  8
2
100
AcDbLine
 10
-327.250728
 20
364.878821
 30
0.0
 11
-327.250728
 21
361.443136
 31
0.0
  0
ARC
  5
217
100
AcDbEntity
  8
2
100
AcDbCircle
 10
-327.046444
 20
364.841679
 30
0.0
 40
3.714255
100
AcDbArc
 50
90.0
 51
180.0
  0
LINE
  5
218
100
AcDbEntity
  8
2
100
AcDbLine
 10
-330.760699
 20
364.841679
 30
0.0
 11
-330.760699
 21
361.480278
 31
0.0
  0
LINE
  5
219
100
AcDbEntity
  8
2
100
AcDbLine
 10
-335.44066
 20
357.766023
 30
0.0
 11
-331.930689
 21
357.766023
 31
0.0
  0
LINE
  5
21A
100
AcDbEntity
  8
2
100
AcDbLine
 10
-317.890806
 20
358.026021
 30
0.0
 11
-309.440876
 21
358.026021
 31
0.0
  0
LINE
  5
21B
100
AcDbEntity
  8
2
100
AcDbLine
 10
-314.380835
 20
362.185987
 30
0.0
 11
-309.440876
 21
362.185987
 31
0.0
  0
LINE
  5
21C
100
AcDbEntity
  8
2
100
AcDbLine
 10
-314.380835
 20
364.13597
 30
0.0
 11
-309.440876
 21
364.13597
 31
0.0
  0
LINE
  5
21D
100
AcDbEntity
  8
2
100
AcDbLine
 10
-314.380835
 20
359.976005
 30
0.0
 11
-314.380835
 21
362.185987
 31
0.0
  0
LINE
  5
21E
100
AcDbEntity
  8
2
100
AcDbLine
 10
-314.380835
 20
364.13597
 30
0.0
 11
-314.380835
 21
366.345952
 31
0.0
  0
LINE
  5
21F
100
AcDbEntity
  8
2
100
AcDbLine
 10
-364.17042
 20
366.345952
 30
0.0
 11
-360.660449
 21
366.345952
 31
0.0
  0
LINE
  5
220
100
AcDbEntity
  8
2
100
AcDbLine
 10
-368.720382
 20
364.13597
 30
0.0
 11
-355.070496
 21
370.765915
 31
0.0
  0
LINE
  5
221
100
AcDbEntity
  8
2
100
AcDbLine
 10
-368.720382
 20
364.13597
 30
0.0
 11
-368.720382
 21
370.765915
 31
0.0
  0
LINE
  5
222
100
AcDbEntity
  8
2
100
AcDbLine
 10
-360.660449
 20
366.345952
 30
0.0
 11
-360.660449
 21
357.766023
 31
0.0
  0
LINE
  5
223
100
AcDbEntity
  8
2
100
AcDbLine
 10
-358.320469
 20
364.841679
 30
0.0
 11
-358.320469
 21
361.480278
 31
0.0
  0
LINE
  5
224
100
AcDbEntity
  8
2
100
AcDbLine
 10
-347.010563
 20
364.841679
 30
0.0
 11
-347.010563
 21
361.480278
 31
0.0
  0
LINE
  5
225
100
AcDbEntity
  8
2
100
AcDbLine
 10
-354.810498
 20
364.878821
 30
0.0
 11
-354.810498
 21
361.443136
 31
0.0
  0
LINE
  5
226
100
AcDbEntity
  8
2
100
AcDbLine
 10
-350.520534
 20
364.878821
 30
0.0
 11
-350.520534
 21
361.443136
 31
0.0
  0
ARC
  5
227
100
AcDbEntity
  8
2
100
AcDbCircle
 10
-354.606214
 20
361.480278
 30
0.0
 40
3.714255
100
AcDbArc
 50
180.0
 51
270.0
  0
ARC
  5
228
100
AcDbEntity
  8
2
100
AcDbCircle
 10
-350.724818
 20
364.841679
 30
0.0
 40
3.714255
100
AcDbArc
 50
360.0
 51
90.0
  0
ARC
  5
229
100
AcDbEntity
  8
2
100
AcDbCircle
 10
-352.377661
 20
361.443136
 30
0.0
 40
1.857127
100
AcDbArc
 50
270.0
 51
360.0
  0
ARC
  5
22A
100
AcDbEntity
  8
2
100
AcDbCircle
 10
-352.953371
 20
364.878821
 30
0.0
 40
1.857127
100
AcDbArc
 50
90.0
 51
180.0
  0
LINE
  5
22B
100
AcDbEntity
  8
2
100
AcDbLine
 10
-364.17042
 20
357.766023
 30
0.0
 11
-360.660449
 21
357.766023
 31
0.0
  0
LINE
  5
22C
100
AcDbEntity
  8
2
100
AcDbLine
 10
-345.060579
 20
368.555934
 30
0.0
 11
-345.840573
 21
357.766023
 31
0.0
  0
LINE
  5
22D
100
AcDbEntity
  8
2
100
AcDbLine
 10
-332.710682
 20
368.555934
 30
0.0
 11
-331.930689
 21
357.766023
 31
0.0
  0
LINE
  5
22E
100
AcDbEntity
  8
2
100
AcDbLine
 10
-335.830656
 20
366.735949
 30
0.0
 11
-337.502071
 21
357.766023
 31
0.0
  0
LINE
  5
22F
100
AcDbEntity
  8
2
100
AcDbLine
 10
-338.885631
 20
362.09313
 30
0.0
 11
-340.08988
 21
368.555934
 31
0.0
  0
LINE
  5
230
100
AcDbEntity
  8
2
100
AcDbLine
 10
-354.606214
 20
368.555934
 30
0.0
 11
-350.724818
 21
368.555934
 31
0.0
  0
LINE
  5
231
100
AcDbEntity
  8
2
100
AcDbLine
 10
-354.606214
 20
357.766023
 30
0.0
 11
-350.724818
 21
357.766023
 31
0.0
  0
LINE
  5
232
100
AcDbEntity
  8
2
100
AcDbLine
 10
-345.840573
 20
357.766023
 30
0.0
 11
-342.330602
 21
357.766023
 31
0.0
  0
ARC
  5
233
100
AcDbEntity
  8
2
100
AcDbCircle
 10
-327.046444
 20
361.480278
 30
0.0
 40
3.714255
100
AcDbArc
 50
180.0
 51
270.0
  0
LINE
  5
234
100
AcDbEntity
  8
2
100
AcDbLine
 10
-322.960764
 20
364.878821
 30
0.0
 11
-322.960764
 21
361.443136
 31
0.0
  0
ARC
  5
235
100
AcDbEntity
  8
2
100
AcDbCircle
 10
-325.3936
 20
361.443136
 30
0.0
 40
1.857127
100
AcDbArc
 50
180.0
 51
270.0
  0
ARC
  5
236
100
AcDbEntity
  8
2
100
AcDbCircle
 10
-324.817891
 20
364.878821
 30
0.0
 40
1.857127
100
AcDbArc
 50
0.0
 51
90.0
  0
ARC
  5
237
100
AcDbEntity
  8
2
100
AcDbCircle
 10
-325.3936
 20
364.878821
 30
0.0
 40
1.857127
100
AcDbArc
 50
90.0
 51
180.0
  0
ARC
  5
238
100
AcDbEntity
  8
2
100
AcDbCircle
 10
-323.165048
 20
364.841679
 30
0.0
 40
3.714255
100
AcDbArc
 50
360.0
 51
90.0
  0
LINE
  5
239
100
AcDbEntity
  8
2
100
AcDbLine
 10
-319.450793
 20
364.841679
 30
0.0
 11
-319.450793
 21
361.480278
 31
0.0
  0
LINE
  5
23A
100
AcDbEntity
  8
2
100
AcDbLine
 10
-352.377661
 20
366.735949
 30
0.0
 11
-352.953371
 21
366.735949
 31
0.0
  0
LINE
  5
23B
100
AcDbEntity
  8
2
100
AcDbLine
 10
-352.377661
 20
359.586008
 30
0.0
 11
-352.953371
 21
359.586008
 31
0.0
  0
LINE
  5
23C
100
AcDbEntity
  8
2
100
AcDbLine
 10
-325.3936
 20
366.735949
 30
0.0
 11
-324.817891
 21
366.735949
 31
0.0
  0
LINE
  5
23D
100
AcDbEntity
  8
2
100
AcDbLine
 10
-337.681382
 20
368.555934
 30
0.0
 11
-332.710682
 21
368.555934
 31
0.0
  0
LINE
  5
23E
100
AcDbEntity
  8
2
100
AcDbLine
 10
-327.046444
 20
368.555934
 30
0.0
 11
-323.165048
 21
368.555934
 31
0.0
  0
LINE
  5
23F
100
AcDbEntity
  8
2
100
AcDbLine
 10
-327.046444
 20
357.766023
 30
0.0
 11
-323.165048
 21
357.766023
 31
0.0
  0
LINE
  5
240
100
AcDbEntity
  8
2
100
AcDbLine
 10
-317.890806
 20
368.295936
 30
0.0
 11
-317.890806
 21
358.026021
 31
0.0
  0
LINE
  5
241
100
AcDbEntity
  8
2
100
AcDbLine
 10
-317.890806
 20
368.295936
 30
0.0
 11
-309.440876
 21
368.295936
 31
0.0
  0
LINE
  5
242
100
AcDbEntity
  8
2
100
AcDbLine
 10
-314.380835
 20
359.976005
 30
0.0
 11
-309.440876
 21
359.976005
 31
0.0
  0
LINE
  5
243
100
AcDbEntity
  8
2
100
AcDbLine
 10
-314.380835
 20
366.345952
 30
0.0
 11
-309.440876
 21
366.345952
 31
0.0
  0
LINE
  5
244
100
AcDbEntity
  8
2
100
AcDbLine
 10
-309.440876
 20
366.345952
 30
0.0
 11
-309.440876
 21
368.295936
 31
0.0
  0
LINE
  5
245
100
AcDbEntity
  8
2
100
AcDbLine
 10
-309.440876
 20
358.026021
 30
0.0
 11
-309.440876
 21
359.976005
 31
0.0
  0
LINE
  5
246
100
AcDbEntity
  8
2
100
AcDbLine
 10
-309.440876
 20
362.185987
 30
0.0
 11
-309.440876
 21
364.13597
 31
0.0
  0
LINE
  5
247
100
AcDbEntity
  8
2
100
AcDbLine
 10
-364.17042
 20
366.345952
 30
0.0
 11
-364.17042
 21
357.766023
 31
0.0
  0
LINE
  5
248
100
AcDbEntity
  8
2
100
AcDbLine
 10
-368.720382
 20
370.765915
 30
0.0
 11
-355.070496
 21
370.765915
 31
0.0
  0
LINE
  5
249
100
AcDbEntity
  8
2
100
AcDbLine
 10
-325.3936
 20
359.586008
 30
0.0
 11
-324.817891
 21
359.586008
 31
0.0
  0
LINE
  5
24A
100
AcDbEntity
  8
2
  6
CENTER
 62
     2
100
AcDbLine
 10
-306.885631
 20
260.523048
 30
0.0
 11
-306.885631
 21
230.767961
 31
0.0
  0
ARC
  5
24B
100
AcDbEntity
  8
2
100
AcDbCircle
 10
-421.585631
 20
336.066023
 30
0.0
 40
150.2
100
AcDbArc
 50
352.468987
 51
20.344261
  0
ARC
  5
24C
100
AcDbEntity
  8
2
100
AcDbCircle
 10
-256.185631
 20
336.066023
 30
0.0
 40
150.2
100
AcDbArc
 50
159.655739
 51
187.531013
  0
LINE
  5
24D
100
AcDbEntity
  8
2
100
AcDbLine
 10
-296.885631
 20
401.766023
 30
0.0
 11
-380.885631
 21
401.766023
 31
0.0
  0
LINE
  5
24E
100
AcDbEntity
  8
2
100
AcDbLine
 10
-397.016252
 20
388.284565
 30
0.0
 11
-395.887561
 21
391.328584
 31
0.0
  0
ARC
  5
24F
100
AcDbEntity
  8
2
100
AcDbCircle
 10
-380.885631
 20
385.766023
 30
0.0
 40
16.0
100
AcDbArc
 50
90.0
 51
159.655739
  0
LINE
  5
250
100
AcDbEntity
  8
2
100
AcDbLine
 10
-280.755009
 20
388.284565
 30
0.0
 11
-281.883701
 21
391.328584
 31
0.0
  0
ARC
  5
251
100
AcDbEntity
  8
2
100
AcDbCircle
 10
-296.885631
 20
385.766023
 30
0.0
 40
16.0
100
AcDbArc
 50
20.344261
 51
90.0
  0
LINE
  5
252
100
AcDbEntity
  8
2
100
AcDbLine
 10
-296.885631
 20
250.766023
 30
0.0
 11
-378.885631
 21
250.766023
 31
0.0
  0
LINE
  5
253
100
AcDbEntity
  8
2
100
AcDbLine
 10
-272.681246
 20
316.380388
 30
0.0
 11
-279.05815
 21
268.144767
 31
0.0
  0
LINE
  5
254
100
AcDbEntity
  8
2
100
AcDbLine
 10
-405.090015
 20
316.380388
 30
0.0
 11
-398.713112
 21
268.144767
 31
0.0
  0
ARC
  5
255
100
AcDbEntity
  8
2
100
AcDbCircle
 10
-298.885631
 20
270.766023
 30
0.0
 40
20.0
100
AcDbArc
 50
270.0
 51
352.468987
  0
ARC
  5
256
100
AcDbEntity
  8
2
100
AcDbCircle
 10
-378.885631
 20
270.766023
 30
0.0
 40
20.0
100
AcDbArc
 50
187.531013
 51
270.0
  0
ARC
  5
257
100
AcDbEntity
  8
2
100
AcDbCircle
 10
-309.187146
 20
333.464508
 30
0.0
 40
7.5
100
AcDbArc
 50
319.014638
 51
130.985362
  0
ARC
  5
258
100
AcDbEntity
  8
2
100
AcDbCircle
 10
-368.584116
 20
333.464508
 30
0.0
 40
7.5
100
AcDbArc
 50
49.014638
 51
220.985362
  0
ARC
  5
259
100
AcDbEntity
  8
2
100
AcDbCircle
 10
-338.885631
 20
303.766023
 30
0.0
 40
41.0
100
AcDbArc
 50
148.771525
 51
211.228475
  0
ARC
  5
25A
100
AcDbEntity
  8
2
100
AcDbCircle
 10
-368.584116
 20
274.067539
 30
0.0
 40
7.5
100
AcDbArc
 50
139.014638
 51
310.985362
  0
ARC
  5
25B
100
AcDbEntity
  8
2
100
AcDbCircle
 10
-309.187146
 20
274.067539
 30
0.0
 40
7.5
100
AcDbArc
 50
229.014638
 51
40.985362
  0
ARC
  5
25C
100
AcDbEntity
  8
2
100
AcDbCircle
 10
-338.885631
 20
303.766023
 30
0.0
 40
41.0
100
AcDbArc
 50
238.771525
 51
301.228475
  0
ARC
  5
25D
100
AcDbEntity
  8
2
100
AcDbCircle
 10
-301.260936
 20
326.577913
 30
0.0
 40
3.0
100
AcDbArc
 50
139.014638
 51
211.228475
  0
ARC
  5
25E
100
AcDbEntity
  8
2
100
AcDbCircle
 10
-316.073741
 20
341.390719
 30
0.0
 40
3.0
100
AcDbArc
 50
238.771525
 51
310.985362
  0
ARC
  5
25F
100
AcDbEntity
  8
2
100
AcDbCircle
 10
-361.697521
 20
341.390719
 30
0.0
 40
3.0
100
AcDbArc
 50
229.014638
 51
301.228475
  0
ARC
  5
260
100
AcDbEntity
  8
2
100
AcDbCircle
 10
-376.510326
 20
326.577913
 30
0.0
 40
3.0
100
AcDbArc
 50
328.771525
 51
40.985362
  0
ARC
  5
261
100
AcDbEntity
  8
2
100
AcDbCircle
 10
-376.510326
 20
280.954134
 30
0.0
 40
3.0
100
AcDbArc
 50
319.014638
 51
31.228475
  0
ARC
  5
262
100
AcDbEntity
  8
2
100
AcDbCircle
 10
-361.697521
 20
266.141328
 30
0.0
 40
3.0
100
AcDbArc
 50
58.771525
 51
130.985362
  0
ARC
  5
263
100
AcDbEntity
  8
2
100
AcDbCircle
 10
-316.073741
 20
266.141328
 30
0.0
 40
3.0
100
AcDbArc
 50
49.014638
 51
121.228475
  0
ARC
  5
264
100
AcDbEntity
  8
2
100
AcDbCircle
 10
-301.260936
 20
280.954134
 30
0.0
 40
3.0
100
AcDbArc
 50
148.771525
 51
220.985362
  0
LINE
  5
265
100
AcDbEntity
  8
2
100
AcDbLine
 10
-345.885631
 20
347.766023
 30
0.0
 11
-345.885631
 21
332.423483
 31
0.0
  0
LINE
  5
266
100
AcDbEntity
  8
2
100
AcDbLine
 10
-331.885631
 20
347.766023
 30
0.0
 11
-331.885631
 21
332.423483
 31
0.0
  0
LINE
  5
267
100
AcDbEntity
  8
2
100
AcDbLine
 10
-310.228171
 20
310.766023
 30
0.0
 11
-294.885631
 21
310.766023
 31
0.0
  0
LINE
  5
268
100
AcDbEntity
  8
2
100
AcDbLine
 10
-310.228171
 20
296.766023
 30
0.0
 11
-294.885631
 21
296.766023
 31
0.0
  0
LINE
  5
269
100
AcDbEntity
  8
2
100
AcDbLine
 10
-292.885631
 20
308.766023
 30
0.0
 11
-292.885631
 21
298.766023
 31
0.0
  0
LINE
  5
26A
100
AcDbEntity
  8
2
100
AcDbLine
 10
-343.885631
 20
349.766023
 30
0.0
 11
-333.885631
 21
349.766023
 31
0.0
  0
ARC
  5
26B
100
AcDbEntity
  8
2
100
AcDbCircle
 10
-338.885631
 20
303.766023
 30
0.0
 40
41.0
100
AcDbArc
 50
58.771525
 51
80.169635
  0
ARC
  5
26C
100
AcDbEntity
  8
2
100
AcDbCircle
 10
-338.885631
 20
303.766023
 30
0.0
 40
41.0
100
AcDbArc
 50
99.830365
 51
121.228475
  0
ARC
  5
26D
100
AcDbEntity
  8
2
100
AcDbCircle
 10
-338.885631
 20
303.766023
 30
0.0
 40
41.0
100
AcDbArc
 50
328.771525
 51
350.169635
  0
ARC
  5
26E
100
AcDbEntity
  8
2
100
AcDbCircle
 10
-338.885631
 20
303.766023
 30
0.0
 40
41.0
100
AcDbArc
 50
9.830365
 51
31.228475
  0
ARC
  5
26F
100
AcDbEntity
  8
2
100
AcDbCircle
 10
-338.885631
 20
303.766023
 30
0.0
 40
29.5
100
AcDbArc
 50
103.726539
 51
346.273461
  0
ARC
  5
270
100
AcDbEntity
  8
2
100
AcDbCircle
 10
-338.885631
 20
303.766023
 30
0.0
 40
29.5
100
AcDbArc
 50
13.726539
 51
76.273461
  0
ARC
  5
271
100
AcDbEntity
  8
2
100
AcDbCircle
 10
-294.885631
 20
308.766023
 30
0.0
 40
2.0
100
AcDbArc
 50
0.0
 51
90.0
  0
ARC
  5
272
100
AcDbEntity
  8
2
100
AcDbCircle
 10
-294.885631
 20
298.766023
 30
0.0
 40
2.0
100
AcDbArc
 50
270.0
 51
360.0
  0
ARC
  5
273
100
AcDbEntity
  8
2
100
AcDbCircle
 10
-333.885631
 20
347.766023
 30
0.0
 40
2.0
100
AcDbArc
 50
0.0
 51
90.0
  0
ARC
  5
274
100
AcDbEntity
  8
2
100
AcDbCircle
 10
-343.885631
 20
347.766023
 30
0.0
 40
2.0
100
AcDbArc
 50
90.0
 51
180.0
  0
ARC
  5
275
100
AcDbEntity
  8
2
100
AcDbCircle
 10
-338.885631
 20
303.766023
 30
0.0
 40
40.0
100
AcDbArc
 50
10.078658
 51
31.228475
  0
ARC
  5
276
100
AcDbEntity
  8
2
100
AcDbCircle
 10
-309.187146
 20
333.464508
 30
0.0
 40
6.5
100
AcDbArc
 50
319.014638
 51
130.985362
  0
ARC
  5
277
100
AcDbEntity
  8
2
100
AcDbCircle
 10
-338.885631
 20
303.766023
 30
0.0
 40
40.0
100
AcDbArc
 50
58.771525
 51
79.921342
  0
ARC
  5
278
100
AcDbEntity
  8
2
100
AcDbCircle
 10
-338.885631
 20
303.766023
 30
0.0
 40
40.0
100
AcDbArc
 50
100.078658
 51
121.228475
  0
ARC
  5
279
100
AcDbEntity
  8
2
100
AcDbCircle
 10
-368.584116
 20
333.464508
 30
0.0
 40
6.5
100
AcDbArc
 50
49.014638
 51
220.985362
  0
ARC
  5
27A
100
AcDbEntity
  8
2
100
AcDbCircle
 10
-338.885631
 20
303.766023
 30
0.0
 40
40.0
100
AcDbArc
 50
148.771525
 51
211.228475
  0
ARC
  5
27B
100
AcDbEntity
  8
2
100
AcDbCircle
 10
-368.584116
 20
274.067539
 30
0.0
 40
6.5
100
AcDbArc
 50
139.014638
 51
310.985362
  0
ARC
  5
27C
100
AcDbEntity
  8
2
100
AcDbCircle
 10
-338.885631
 20
303.766023
 30
0.0
 40
40.0
100
AcDbArc
 50
238.771525
 51
301.228475
  0
ARC
  5
27D
100
AcDbEntity
  8
2
100
AcDbCircle
 10
-309.187146
 20
274.067539
 30
0.0
 40
6.5
100
AcDbArc
 50
229.014638
 51
40.985362
  0
ARC
  5
27E
100
AcDbEntity
  8
2
100
AcDbCircle
 10
-338.885631
 20
303.766023
 30
0.0
 40
40.0
100
AcDbArc
 50
328.771525
 51
349.921342
  0
ARC
  5
27F
100
AcDbEntity
  8
2
100
AcDbCircle
 10
-316.073741
 20
341.390719
 30
0.0
 40
4.0
100
AcDbArc
 50
238.771525
 51
310.985362
  0
ARC
  5
280
100
AcDbEntity
  8
2
100
AcDbCircle
 10
-301.260936
 20
326.577913
 30
0.0
 40
4.0
100
AcDbArc
 50
139.014638
 51
211.228475
  0
ARC
  5
281
100
AcDbEntity
  8
2
100
AcDbCircle
 10
-301.260936
 20
280.954134
 30
0.0
 40
4.0
100
AcDbArc
 50
148.771525
 51
220.985362
  0
ARC
  5
282
100
AcDbEntity
  8
2
100
AcDbCircle
 10
-316.073741
 20
266.141328
 30
0.0
 40
4.0
100
AcDbArc
 50
49.014638
 51
121.228475
  0
ARC
  5
283
100
AcDbEntity
  8
2
100
AcDbCircle
 10
-361.697521
 20
266.141328
 30
0.0
 40
4.0
100
AcDbArc
 50
58.771525
 51
130.985362
  0
ARC
  5
284
100
AcDbEntity
  8
2
100
AcDbCircle
 10
-376.510326
 20
280.954134
 30
0.0
 40
4.0
100
AcDbArc
 50
319.014638
 51
31.228475
  0
ARC
  5
285
100
AcDbEntity
  8
2
100
AcDbCircle
 10
-376.510326
 20
326.577913
 30
0.0
 40
4.0
100
AcDbArc
 50
328.771525
 51
40.985362
  0
ARC
  5
286
100
AcDbEntity
  8
2
100
AcDbCircle
 10
-361.697521
 20
341.390719
 30
0.0
 40
4.0
100
AcDbArc
 50
229.014638
 51
301.228475
  0
CIRCLE
  5
287
100
AcDbEntity
  8
2
100
AcDbCircle
 10
-338.885631
 20
303.766023
 30
0.0
 40
19.0
  0
LINE
  5
288
100
AcDbEntity
  8
2
100
AcDbLine
 10
-337.885631
 20
325.766023
 30
0.0
 11
-339.885631
 21
325.766023
 31
0.0
  0
LINE
  5
289
100
AcDbEntity
  8
2
100
AcDbLine
 10
-316.885631
 20
304.766023
 30
0.0
 11
-316.885631
 21
302.766023
 31
0.0
  0
LINE
  5
28A
100
AcDbEntity
  8
2
100
AcDbLine
 10
-308.885631
 20
304.766023
 30
0.0
 11
-308.885631
 21
302.766023
 31
0.0
  0
LINE
  5
28B
100
AcDbEntity
  8
2
100
AcDbLine
 10
-337.885631
 20
333.766023
 30
0.0
 11
-339.885631
 21
333.766023
 31
0.0
  0
LINE
  5
28C
100
AcDbEntity
  8
2
100
AcDbLine
 10
-340.885631
 20
332.766023
 30
0.0
 11
-340.885631
 21
326.766023
 31
0.0
  0
LINE
  5
28D
100
AcDbEntity
  8
2
100
AcDbLine
 10
-336.885631
 20
332.766023
 30
0.0
 11
-336.885631
 21
326.766023
 31
0.0
  0
LINE
  5
28E
100
AcDbEntity
  8
2
100
AcDbLine
 10
-315.885631
 20
305.766023
 30
0.0
 11
-309.885631
 21
305.766023
 31
0.0
  0
LINE
  5
28F
100
AcDbEntity
  8
2
100
AcDbLine
 10
-315.885631
 20
301.766023
 30
0.0
 11
-309.885631
 21
301.766023
 31
0.0
  0
ARC
  5
290
100
AcDbEntity
  8
2
100
AcDbCircle
 10
-315.885631
 20
304.766023
 30
0.0
 40
1.0
100
AcDbArc
 50
90.0
 51
180.0
  0
ARC
  5
291
100
AcDbEntity
  8
2
100
AcDbCircle
 10
-315.885631
 20
302.766023
 30
0.0
 40
1.0
100
AcDbArc
 50
180.0
 51
270.0
  0
ARC
  5
292
100
AcDbEntity
  8
2
100
AcDbCircle
 10
-309.885631
 20
302.766023
 30
0.0
 40
1.0
100
AcDbArc
 50
270.0
 51
360.0
  0
ARC
  5
293
100
AcDbEntity
  8
2
100
AcDbCircle
 10
-309.885631
 20
304.766023
 30
0.0
 40
1.0
100
AcDbArc
 50
0.0
 51
90.0
  0
ARC
  5
294
100
AcDbEntity
  8
2
100
AcDbCircle
 10
-337.885631
 20
326.766023
 30
0.0
 40
1.0
100
AcDbArc
 50
270.0
 51
360.0
  0
ARC
  5
295
100
AcDbEntity
  8
2
100
AcDbCircle
 10
-339.885631
 20
326.766023
 30
0.0
 40
1.0
100
AcDbArc
 50
180.0
 51
270.0
  0
ARC
  5
296
100
AcDbEntity
  8
2
100
AcDbCircle
 10
-339.885631
 20
332.766023
 30
0.0
 40
1.0
100
AcDbArc
 50
90.0
 51
180.0
  0
ARC
  5
297
100
AcDbEntity
  8
2
100
AcDbCircle
 10
-337.885631
 20
332.766023
 30
0.0
 40
1.0
100
AcDbArc
 50
0.0
 51
90.0
  0
ARC
  5
298
100
AcDbEntity
  8
2
100
AcDbCircle
 10
-326.135631
 20
325.849671
 30
0.0
 40
1.5
100
AcDbArc
 50
330.0
 51
150.0
  0
ARC
  5
299
100
AcDbEntity
  8
2
100
AcDbCircle
 10
-327.135631
 20
324.11762
 30
0.0
 40
1.5
100
AcDbArc
 50
150.0
 51
330.0
  0
ARC
  5
29A
100
AcDbEntity
  8
2
100
AcDbCircle
 10
-316.801983
 20
316.516023
 30
0.0
 40
1.5
100
AcDbArc
 50
300.0
 51
120.0
  0
ARC
  5
29B
100
AcDbEntity
  8
2
100
AcDbCircle
 10
-318.534034
 20
315.516023
 30
0.0
 40
1.5
100
AcDbArc
 50
120.0
 51
300.0
  0
LINE
  5
29C
100
AcDbEntity
  8
2
100
AcDbLine
 10
-319.284034
 20
316.815062
 30
0.0
 11
-317.551983
 21
317.815062
 31
0.0
  0
LINE
  5
29D
100
AcDbEntity
  8
2
100
AcDbLine
 10
-317.784034
 20
314.216985
 30
0.0
 11
-316.051983
 21
315.216985
 31
0.0
  0
LINE
  5
29E
100
AcDbEntity
  8
2
100
AcDbLine
 10
-325.836593
 20
323.36762
 30
0.0
 11
-324.836593
 21
325.099671
 31
0.0
  0
LINE
  5
29F
100
AcDbEntity
  8
2
100
AcDbLine
 10
-328.434669
 20
324.86762
 30
0.0
 11
-327.434669
 21
326.599671
 31
0.0
  0
LINE
  5
2A0
100
AcDbEntity
  8
2
100
AcDbLine
 10
-293.885631
 20
308.766023
 30
0.0
 11
-293.885631
 21
298.766023
 31
0.0
  0
TEXT
  5
2A1
100
AcDbEntity
  8
2
100
AcDbText
 10
-308.385631
 20
310.766023
 30
0.0
 40
14.0
  1
Ｓ
 50
270.0
 72
     5
 11
-308.385631
 21
299.566023
 31
0.0
100
AcDbText
  0
TEXT
  5
2A2
100
AcDbEntity
  8
2
100
AcDbText
 10
-345.885631
 20
334.266023
 30
0.0
 40
14.0
  1
Ｏ
 72
     5
 11
-334.685631
 21
334.266023
 31
0.0
100
AcDbText
  0
LINE
  5
2A3
100
AcDbEntity
  8
2
100
AcDbLine
 10
-343.885631
 20
348.766023
 30
0.0
 11
-333.885631
 21
348.766023
 31
0.0
  0
LINE
  5
2A4
100
AcDbEntity
  8
2
100
AcDbLine
 10
-332.885631
 20
347.766023
 30
0.0
 11
-332.885631
 21
331.627287
 31
0.0
  0
LINE
  5
2A5
100
AcDbEntity
  8
2
100
AcDbLine
 10
-344.885631
 20
347.766023
 30
0.0
 11
-344.885631
 21
331.627287
 31
0.0
  0
ARC
  5
2A6
100
AcDbEntity
  8
2
100
AcDbCircle
 10
-338.885631
 20
303.766023
 30
0.0
 40
28.5
100
AcDbArc
 50
102.153197
 51
347.846803
  0
ARC
  5
2A7
100
AcDbEntity
  8
2
100
AcDbCircle
 10
-338.885631
 20
303.766023
 30
0.0
 40
28.5
100
AcDbArc
 50
12.153197
 51
77.846803
  0
LINE
  5
2A8
100
AcDbEntity
  8
2
100
AcDbLine
 10
-311.024367
 20
309.766023
 30
0.0
 11
-294.885631
 21
309.766023
 31
0.0
  0
LINE
  5
2A9
100
AcDbEntity
  8
2
100
AcDbLine
 10
-311.024367
 20
297.766023
 30
0.0
 11
-294.885631
 21
297.766023
 31
0.0
  0
ARC
  5
2AA
100
AcDbEntity
  8
2
100
AcDbCircle
 10
-294.885631
 20
308.766023
 30
0.0
 40
1.0
100
AcDbArc
 50
360.0
 51
90.0
  0
ARC
  5
2AB
100
AcDbEntity
  8
2
100
AcDbCircle
 10
-294.885631
 20
298.766023
 30
0.0
 40
1.0
100
AcDbArc
 50
270.0
 51
360.0
  0
ARC
  5
2AC
100
AcDbEntity
  8
2
100
AcDbCircle
 10
-333.885631
 20
347.766023
 30
0.0
 40
1.0
100
AcDbArc
 50
0.0
 51
90.0
  0
ARC
  5
2AD
100
AcDbEntity
  8
2
100
AcDbCircle
 10
-343.885631
 20
347.766023
 30
0.0
 40
1.0
100
AcDbArc
 50
90.0
 51
180.0
  0
LINE
  5
2AE
100
AcDbEntity
  8
2
100
AcDbLine
 10
-332.885631
 20
331.627287
 30
0.0
 11
-331.885631
 21
332.423483
 31
0.0
  0
LINE
  5
2AF
100
AcDbEntity
  8
2
100
AcDbLine
 10
-344.885631
 20
331.627287
 30
0.0
 11
-345.885631
 21
332.423483
 31
0.0
  0
LINE
  5
2B0
100
AcDbEntity
  8
2
100
AcDbLine
 10
-310.228171
 20
310.766023
 30
0.0
 11
-311.024367
 21
309.766023
 31
0.0
  0
LINE
  5
2B1
100
AcDbEntity
  8
2
100
AcDbLine
 10
-311.024367
 20
297.766023
 30
0.0
 11
-310.228171
 21
296.766023
 31
0.0
  0
LINE
  5
2B2
100
AcDbEntity
  8
2
100
AcDbLine
 10
-297.085631
 20
250.766023
 30
0.0
 11
-297.085631
 21
243.660916
 31
0.0
  0
LINE
  5
2B3
100
AcDbEntity
  8
2
100
AcDbLine
 10
-297.085631
 20
243.660916
 30
0.0
 11
-298.635631
 21
242.766023
 31
0.0
  0
LINE
  5
2B4
100
AcDbEntity
  8
2
100
AcDbLine
 10
-298.635631
 20
242.766023
 30
0.0
 11
-315.135631
 21
242.766023
 31
0.0
  0
LINE
  5
2B5
100
AcDbEntity
  8
2
100
AcDbLine
 10
-301.985631
 20
250.766023
 30
0.0
 11
-301.985631
 21
243.660916
 31
0.0
  0
ARC
  5
2B6
100
AcDbEntity
  8
2
100
AcDbCircle
 10
-299.535631
 20
246.810474
 30
0.0
 40
3.990265
100
AcDbArc
 50
232.121121
 51
307.878879
  0
LINE
  5
2B7
100
AcDbEntity
  8
2
100
AcDbLine
 10
-316.685631
 20
250.766023
 30
0.0
 11
-316.685631
 21
243.660916
 31
0.0
  0
LINE
  5
2B8
100
AcDbEntity
  8
2
100
AcDbLine
 10
-316.685631
 20
243.660916
 30
0.0
 11
-315.135631
 21
242.766023
 31
0.0
  0
LINE
  5
2B9
100
AcDbEntity
  8
2
100
AcDbLine
 10
-311.785631
 20
250.766023
 30
0.0
 11
-311.785631
 21
243.660916
 31
0.0
  0
ARC
  5
2BA
100
AcDbEntity
  8
2
100
AcDbCircle
 10
-314.235631
 20
246.810474
 30
0.0
 40
3.990265
100
AcDbArc
 50
232.121121
 51
307.878879
  0
ARC
  5
2BB
100
AcDbEntity
  8
2
100
AcDbCircle
 10
-306.885631
 20
257.520209
 30
0.0
 40
14.7
100
AcDbArc
 50
250.528777
 51
289.471219
  0
LINE
  5
2BC
100
AcDbEntity
  8
2
100
AcDbLine
 10
-296.885631
 20
250.866275
 30
0.0
 11
-296.885631
 21
250.766023
 31
0.0
  0
LINE
  5
2BD
100
AcDbEntity
  8
2
100
AcDbLine
 10
-311.073631
 20
238.766023
 30
0.0
 11
-302.697631
 21
238.766023
 31
0.0
  0
LINE
  5
2BE
100
AcDbEntity
  8
2
100
AcDbLine
 10
-311.073631
 20
238.766023
 30
0.0
 11
-311.885631
 21
239.578023
 31
0.0
  0
LINE
  5
2BF
100
AcDbEntity
  8
2
100
AcDbLine
 10
-311.885631
 20
239.578023
 30
0.0
 11
-311.885631
 21
242.766023
 31
0.0
  0
LINE
  5
2C0
100
AcDbEntity
  8
2
 62
     2
100
AcDbLine
 10
-311.073631
 20
238.766023
 30
0.0
 11
-311.073631
 21
242.766023
 31
0.0
  0
LINE
  5
2C1
100
AcDbEntity
  8
2
100
AcDbLine
 10
-302.697631
 20
238.766023
 30
0.0
 11
-301.885631
 21
239.578023
 31
0.0
  0
LINE
  5
2C2
100
AcDbEntity
  8
2
100
AcDbLine
 10
-301.885631
 20
239.578023
 30
0.0
 11
-301.885631
 21
242.766023
 31
0.0
  0
LINE
  5
2C3
100
AcDbEntity
  8
2
100
AcDbLine
 10
-301.885631
 20
239.578023
 30
0.0
 11
-311.885631
 21
239.578023
 31
0.0
  0
LINE
  5
2C4
100
AcDbEntity
  8
2
 62
     2
100
AcDbLine
 10
-302.697631
 20
238.766023
 30
0.0
 11
-302.697631
 21
242.766023
 31
0.0
  0
LINE
  5
2C5
100
AcDbEntity
  8
2
100
AcDbLine
 10
-278.830071
 20
382.766023
 30
0.0
 11
-179.885631
 21
382.766023
 31
0.0
  0
LINE
  5
2C6
100
AcDbEntity
  8
2
100
AcDbLine
 10
-274.556552
 20
366.766023
 30
0.0
 11
-179.885631
 21
366.766023
 31
0.0
  0
CIRCLE
  5
2C7
100
AcDbEntity
  8
2
100
AcDbCircle
 10
-338.885631
 20
303.766023
 30
0.0
 40
18.0
  0
LINE
  5
2C8
100
AcDbEntity
  8
2
100
AcDbLine
 10
-356.412467
 20
307.866023
 30
0.0
 11
-331.382379
 21
307.866023
 31
0.0
  0
LINE
  5
2C9
100
AcDbEntity
  8
2
100
AcDbLine
 10
-356.412467
 20
299.666023
 30
0.0
 11
-331.382379
 21
299.666023
 31
0.0
  0
ARC
  5
2CA
100
AcDbEntity
  8
2
100
AcDbCircle
 10
-338.885631
 20
303.766023
 30
0.0
 40
16.637398
100
AcDbArc
 50
167.32707
 51
192.67293
  0
ARC
  5
2CB
100
AcDbEntity
  8
2
100
AcDbCircle
 10
-338.885631
 20
303.766023
 30
0.0
 40
16.637398
100
AcDbArc
 50
357.0715
 51
2.9285
  0
LINE
  5
2CC
100
AcDbEntity
  8
2
100
AcDbLine
 10
-355.117713
 20
307.416023
 30
0.0
 11
-332.719703
 21
307.416023
 31
0.0
  0
LINE
  5
2CD
100
AcDbEntity
  8
2
100
AcDbLine
 10
-355.117713
 20
300.116023
 30
0.0
 11
-332.719703
 21
300.116023
 31
0.0
  0
LINE
  5
2CE
100
AcDbEntity
  8
2
100
AcDbLine
 10
-355.117713
 20
307.416023
 30
0.0
 11
-356.412467
 21
307.866023
 31
0.0
  0
LINE
  5
2CF
100
AcDbEntity
  8
2
100
AcDbLine
 10
-355.117713
 20
300.116023
 30
0.0
 11
-356.412467
 21
299.666023
 31
0.0
  0
LINE
  5
2D0
100
AcDbEntity
  8
2
100
AcDbLine
 10
-320.932637
 20
305.066023
 30
0.0
 11
-331.382379
 21
307.866023
 31
0.0
  0
LINE
  5
2D1
100
AcDbEntity
  8
2
100
AcDbLine
 10
-320.932637
 20
302.466023
 30
0.0
 11
-331.382379
 21
299.666023
 31
0.0
  0
LINE
  5
2D2
100
AcDbEntity
  8
2
100
AcDbLine
 10
-322.26996
 20
304.616023
 30
0.0
 11
-332.719703
 21
307.416023
 31
0.0
  0
LINE
  5
2D3
100
AcDbEntity
  8
2
100
AcDbLine
 10
-322.26996
 20
302.916023
 30
0.0
 11
-332.719703
 21
300.116023
 31
0.0
  0
LINE
  5
2D4
100
AcDbEntity
  8
2
100
AcDbLine
 10
-322.26996
 20
304.616023
 30
0.0
 11
-320.932637
 21
305.066023
 31
0.0
  0
LINE
  5
2D5
100
AcDbEntity
  8
2
100
AcDbLine
 10
-322.26996
 20
302.916023
 30
0.0
 11
-320.932637
 21
302.466023
 31
0.0
  0
LINE
  5
2D6
100
AcDbEntity
  8
2
100
AcDbLine
 10
-332.719703
 20
307.416023
 30
0.0
 11
-331.382379
 21
307.866023
 31
0.0
  0
LINE
  5
2D7
100
AcDbEntity
  8
2
100
AcDbLine
 10
-332.719703
 20
300.116023
 30
0.0
 11
-331.382379
 21
299.666023
 31
0.0
  0
LINE
  5
2D8
100
AcDbEntity
  8
2
100
AcDbLine
 10
-368.985631
 20
241.266023
 30
0.0
 11
-311.885631
 21
241.266023
 31
0.0
  0
LINE
  5
2D9
100
AcDbEntity
  8
2
100
AcDbLine
 10
-401.385631
 20
288.360002
 30
0.0
 11
-401.385631
 21
273.666023
 31
0.0
  0
LINE
  5
2DA
100
AcDbEntity
  8
2
100
AcDbLine
 10
-276.385631
 20
288.360002
 30
0.0
 11
-276.385631
 21
273.666023
 31
0.0
  0
ARC
  5
2DB
100
AcDbEntity
  8
2
100
AcDbCircle
 10
-368.985631
 20
273.666023
 30
0.0
 40
32.4
100
AcDbArc
 50
180.0
 51
270.0
  0
LINE
  5
2DC
100
AcDbEntity
  8
2
100
AcDbLine
 10
-319.885631
 20
250.766023
 30
0.0
 11
-319.885631
 21
241.266023
 31
0.0
  0
LINE
  5
2DD
100
AcDbEntity
  8
2
100
AcDbLine
 10
-293.885631
 20
251.401107
 30
0.0
 11
-293.885631
 21
244.895379
 31
0.0
  0
ARC
  5
2DE
100
AcDbEntity
  8
2
100
AcDbCircle
 10
-308.785631
 20
273.666023
 30
0.0
 40
32.4
100
AcDbArc
 50
282.296046
 51
287.502524
  0
ARC
  5
2DF
100
AcDbEntity
  8
2
100
AcDbCircle
 10
-308.785631
 20
273.666023
 30
0.0
 40
32.4
100
AcDbArc
 50
289.286011
 51
0.0
  0
LINE
  5
2E0
100
AcDbEntity
  8
2
100
AcDbLine
 10
-179.885631
 20
362.435294
 30
0.0
 11
-179.885631
 21
387.096753
 31
0.0
  0
LINE
  5
2E1
100
AcDbEntity
  8
2
100
AcDbLine
 10
-156.885631
 20
398.266023
 30
0.0
 11
-156.885631
 21
351.266023
 31
0.0
  0
LINE
  5
2E2
100
AcDbEntity
  8
2
100
AcDbLine
 10
-157.885631
 20
398.266023
 30
0.0
 11
-156.885631
 21
398.266023
 31
0.0
  0
LINE
  5
2E3
100
AcDbEntity
  8
2
100
AcDbLine
 10
-157.885631
 20
351.266023
 30
0.0
 11
-156.885631
 21
351.266023
 31
0.0
  0
LINE
  5
2E4
100
AcDbEntity
  8
2
100
AcDbLine
 10
-155.785631
 20
384.766023
 30
0.0
 11
-155.785631
 21
364.766023
 31
0.0
  0
LINE
  5
2E5
100
AcDbEntity
  8
2
100
AcDbLine
 10
-156.885631
 20
384.766023
 30
0.0
 11
-155.785631
 21
384.766023
 31
0.0
  0
LINE
  5
2E6
100
AcDbEntity
  8
2
100
AcDbLine
 10
-156.885631
 20
364.766023
 30
0.0
 11
-155.785631
 21
364.766023
 31
0.0
  0
LINE
  5
2E7
100
AcDbEntity
  8
2
100
AcDbLine
 10
-153.785631
 20
382.266023
 30
0.0
 11
-149.007319
 21
382.266023
 31
0.0
  0
LINE
  5
2E8
100
AcDbEntity
  8
2
100
AcDbLine
 10
-149.007319
 20
382.266023
 30
0.0
 11
-148.285631
 21
381.016023
 31
0.0
  0
LINE
  5
2E9
100
AcDbEntity
  8
2
100
AcDbLine
 10
-153.785631
 20
378.516023
 30
0.0
 11
-149.007319
 21
378.516023
 31
0.0
  0
ARC
  5
2EA
100
AcDbEntity
  8
2
100
AcDbCircle
 10
-151.417695
 20
380.391023
 30
0.0
 40
3.053774
100
AcDbArc
 50
322.121121
 51
37.878879
  0
ARC
  5
2EB
100
AcDbEntity
  8
2
100
AcDbCircle
 10
-159.61392
 20
374.766023
 30
0.0
 40
11.25
100
AcDbArc
 50
340.528779
 51
19.471221
  0
LINE
  5
2EC
100
AcDbEntity
  8
2
100
AcDbLine
 10
-153.785631
 20
367.266023
 30
0.0
 11
-149.007319
 21
367.266023
 31
0.0
  0
LINE
  5
2ED
100
AcDbEntity
  8
2
100
AcDbLine
 10
-149.007319
 20
367.266023
 30
0.0
 11
-148.285631
 21
368.516023
 31
0.0
  0
LINE
  5
2EE
100
AcDbEntity
  8
2
100
AcDbLine
 10
-148.285631
 20
368.516023
 30
0.0
 11
-148.285631
 21
381.016023
 31
0.0
  0
LINE
  5
2EF
100
AcDbEntity
  8
2
100
AcDbLine
 10
-153.785631
 20
371.016023
 30
0.0
 11
-149.007319
 21
371.016023
 31
0.0
  0
ARC
  5
2F0
100
AcDbEntity
  8
2
100
AcDbCircle
 10
-151.417695
 20
369.141023
 30
0.0
 40
3.053774
100
AcDbArc
 50
322.121121
 51
37.878879
  0
LINE
  5
2F1
100
AcDbEntity
  8
2
100
AcDbLine
 10
-155.785631
 20
382.466023
 30
0.0
 11
-153.785631
 21
382.466023
 31
0.0
  0
LINE
  5
2F2
100
AcDbEntity
  8
2
100
AcDbLine
 10
-153.785631
 20
382.466023
 30
0.0
 11
-153.785631
 21
367.066023
 31
0.0
  0
LINE
  5
2F3
100
AcDbEntity
  8
2
100
AcDbLine
 10
-153.785631
 20
367.066023
 30
0.0
 11
-155.785631
 21
367.066023
 31
0.0
  0
LINE
  5
2F4
100
AcDbEntity
  8
2
100
AcDbLine
 10
-153.785631
 20
374.766023
 30
0.0
 11
-155.785631
 21
374.266023
 31
0.0
  0
LINE
  5
2F5
100
AcDbEntity
  8
2
100
AcDbLine
 10
-155.785631
 20
374.766023
 30
0.0
 11
-153.785631
 21
375.266023
 31
0.0
  0
ARC
  5
2F6
100
AcDbEntity
  8
2
100
AcDbCircle
 10
-168.885631
 20
365.766023
 30
0.0
 40
24.0
100
AcDbArc
 50
103.248015
 51
117.279613
  0
ARC
  5
2F7
100
AcDbEntity
  8
2
100
AcDbCircle
 10
-168.885631
 20
463.766023
 30
0.0
 40
11.0
100
AcDbArc
 50
0.0
 51
100.164249
  0
ARC
  5
2F8
100
AcDbEntity
  8
2
100
AcDbCircle
 10
-170.385631
 20
472.132624
 30
0.0
 40
2.5
100
AcDbArc
 50
100.164249
 51
142.289101
  0
LINE
  5
2F9
100
AcDbEntity
  8
2
100
AcDbLine
 10
-174.385631
 20
385.631809
 30
0.0
 11
-174.385631
 21
389.610652
 31
0.0
  0
LINE
  5
2FA
100
AcDbEntity
  8
2
100
AcDbLine
 10
-174.385631
 20
409.425457
 30
0.0
 11
-174.385631
 21
414.380116
 31
0.0
  0
LINE
  5
2FB
100
AcDbEntity
  8
2
100
AcDbLine
 10
-174.385631
 20
431.128806
 30
0.0
 11
-174.385631
 21
436.237456
 31
0.0
  0
LINE
  5
2FC
100
AcDbEntity
  8
2
100
AcDbLine
 10
-174.385631
 20
449.031444
 30
0.0
 11
-174.385631
 21
454.011972
 31
0.0
  0
LINE
  5
2FD
100
AcDbEntity
  8
2
100
AcDbLine
 10
-174.385631
 20
462.174569
 30
0.0
 11
-174.385631
 21
466.040183
 31
0.0
  0
LINE
  5
2FE
100
AcDbEntity
  8
2
100
AcDbLine
 10
-174.385631
 20
469.226069
 30
0.0
 11
-174.385631
 21
470.825628
 31
0.0
  0
ARC
  5
2FF
100
AcDbEntity
  8
2
100
AcDbCircle
 10
-168.885631
 20
383.766023
 30
0.0
 40
24.0
100
AcDbArc
 50
242.720387
 51
256.751985
  0
ARC
  5
300
100
AcDbEntity
  8
2
100
AcDbCircle
 10
-168.885631
 20
285.766023
 30
0.0
 40
11.0
100
AcDbArc
 50
259.835751
 51
360.0
  0
ARC
  5
301
100
AcDbEntity
  8
2
100
AcDbCircle
 10
-170.385631
 20
277.399423
 30
0.0
 40
2.5
100
AcDbArc
 50
217.710899
 51
259.835751
  0
LINE
  5
302
100
AcDbEntity
  8
2
100
AcDbLine
 10
-174.385631
 20
363.900238
 30
0.0
 11
-174.385631
 21
359.921395
 31
0.0
  0
LINE
  5
303
100
AcDbEntity
  8
2
100
AcDbLine
 10
-174.385631
 20
340.10659
 30
0.0
 11
-174.385631
 21
335.151931
 31
0.0
  0
LINE
  5
304
100
AcDbEntity
  8
2
100
AcDbLine
 10
-174.385631
 20
318.403241
 30
0.0
 11
-174.385631
 21
313.294591
 31
0.0
  0
LINE
  5
305
100
AcDbEntity
  8
2
100
AcDbLine
 10
-174.385631
 20
300.500603
 30
0.0
 11
-174.385631
 21
295.520075
 31
0.0
  0
LINE
  5
306
100
AcDbEntity
  8
2
100
AcDbLine
 10
-174.385631
 20
287.357478
 30
0.0
 11
-174.385631
 21
283.491864
 31
0.0
  0
LINE
  5
307
100
AcDbEntity
  8
2
100
AcDbLine
 10
-174.385631
 20
280.305978
 30
0.0
 11
-174.385631
 21
278.706419
 31
0.0
  0
ARC
  5
308
100
AcDbEntity
  8
2
100
AcDbCircle
 10
-170.385631
 20
385.631809
 30
0.0
 40
4.0
100
AcDbArc
 50
180.0
 51
195.71978
  0
ARC
  5
309
100
AcDbEntity
  8
2
100
AcDbCircle
 10
-204.494409
 20
400.453025
 30
0.0
 40
31.608779
100
AcDbArc
 50
360.0
 51
16.689417
  0
ARC
  5
30A
100
AcDbEntity
  8
2
100
AcDbCircle
 10
-208.821308
 20
400.453025
 30
0.0
 40
35.935677
100
AcDbArc
 50
344.2467
 51
360.0
  0
ARC
  5
30B
100
AcDbEntity
  8
2
100
AcDbCircle
 10
-170.385631
 20
389.610652
 30
0.0
 40
4.0
100
AcDbArc
 50
164.2467
 51
180.0
  0
ARC
  5
30C
100
AcDbEntity
  8
2
100
AcDbCircle
 10
-170.385631
 20
410.679282
 30
0.0
 40
4.0
100
AcDbArc
 50
180.0
 51
196.689417
  0
ARC
  5
30D
100
AcDbEntity
  8
2
100
AcDbCircle
 10
-203.448167
 20
399.353833
 30
0.0
 40
30.562536
100
AcDbArc
 50
0.988683
 51
16.941965
  0
ARC
  5
30E
100
AcDbEntity
  8
2
100
AcDbCircle
 10
-170.385631
 20
409.425457
 30
0.0
 40
4.0
100
AcDbArc
 50
180.0
 51
196.941965
  0
ARC
  5
30F
100
AcDbEntity
  8
2
100
AcDbCircle
 10
-204.031544
 20
424.389499
 30
0.0
 40
31.145914
100
AcDbArc
 50
342.954227
 51
0.0
  0
ARC
  5
310
100
AcDbEntity
  8
2
100
AcDbCircle
 10
-196.537136
 20
424.389499
 30
0.0
 40
23.651505
100
AcDbArc
 50
0.0
 51
19.314375
  0
ARC
  5
311
100
AcDbEntity
  8
2
100
AcDbCircle
 10
-171.385631
 20
414.380116
 30
0.0
 40
3.0
100
AcDbArc
 50
162.954227
 51
180.0
  0
ARC
  5
312
100
AcDbEntity
  8
2
100
AcDbCircle
 10
-171.385631
 20
433.204515
 30
0.0
 40
3.0
100
AcDbArc
 50
180.0
 51
199.314375
  0
ARC
  5
313
100
AcDbEntity
  8
2
100
AcDbCircle
 10
-196.818601
 20
422.266023
 30
0.0
 40
23.93297
100
AcDbArc
 50
2.375275
 51
19.212225
  0
ARC
  5
314
100
AcDbEntity
  8
2
100
AcDbCircle
 10
-171.385631
 20
431.128806
 30
0.0
 40
3.0
100
AcDbArc
 50
180.0
 51
199.212225
  0
ARC
  5
315
100
AcDbEntity
  8
2
100
AcDbCircle
 10
-195.90485
 20
444.944215
 30
0.0
 40
23.019219
100
AcDbArc
 50
340.450082
 51
360.0
  0
ARC
  5
316
100
AcDbEntity
  8
2
100
AcDbCircle
 10
-187.251053
 20
444.944215
 30
0.0
 40
14.365422
100
AcDbArc
 50
360.0
 51
24.722593
  0
ARC
  5
317
100
AcDbEntity
  8
2
100
AcDbCircle
 10
-171.385631
 20
436.237456
 30
0.0
 40
3.0
100
AcDbArc
 50
160.450082
 51
180.0
  0
ARC
  5
318
100
AcDbEntity
  8
2
100
AcDbCircle
 10
-172.385631
 20
451.788649
 30
0.0
 40
2.0
100
AcDbArc
 50
180.0
 51
204.722593
  0
ARC
  5
319
100
AcDbEntity
  8
2
100
AcDbCircle
 10
-188.39297
 20
441.941168
 30
0.0
 40
15.507339
100
AcDbArc
 50
5.007184
 51
23.890425
  0
ARC
  5
31A
100
AcDbEntity
  8
2
100
AcDbCircle
 10
-172.385631
 20
449.031444
 30
0.0
 40
2.0
100
AcDbArc
 50
180.0
 51
203.890425
  0
ARC
  5
31B
100
AcDbEntity
  8
2
100
AcDbCircle
 10
-186.618767
 20
460.716404
 30
0.0
 40
13.733136
100
AcDbArc
 50
334.777506
 51
360.0
  0
ARC
  5
31C
100
AcDbEntity
  8
2
100
AcDbCircle
 10
-179.124358
 20
460.716404
 30
0.0
 40
6.238728
100
AcDbArc
 50
0.0
 51
35.121584
  0
ARC
  5
31D
100
AcDbEntity
  8
2
100
AcDbCircle
 10
-172.385631
 20
454.011972
 30
0.0
 40
2.0
100
AcDbArc
 50
154.777506
 51
180.0
  0
ARC
  5
31E
100
AcDbEntity
  8
2
100
AcDbCircle
 10
-172.385631
 20
465.456255
 30
0.0
 40
2.0
100
AcDbArc
 50
180.0
 51
215.121584
  0
ARC
  5
31F
100
AcDbEntity
  8
2
100
AcDbCircle
 10
-180.428915
 20
457.038437
 30
0.0
 40
7.543285
100
AcDbArc
 50
11.961267
 51
32.560736
  0
ARC
  5
320
100
AcDbEntity
  8
2
100
AcDbCircle
 10
-172.385631
 20
462.174569
 30
0.0
 40
2.0
100
AcDbArc
 50
180.0
 51
212.560736
  0
ARC
  5
321
100
AcDbEntity
  8
2
100
AcDbCircle
 10
-178.661493
 20
470.631216
 30
0.0
 40
5.775863
100
AcDbArc
 50
323.813103
 51
360.0
  0
ARC
  5
322
100
AcDbEntity
  8
2
100
AcDbCircle
 10
-172.385631
 20
466.040183
 30
0.0
 40
2.0
100
AcDbArc
 50
143.813103
 51
180.0
  0
ARC
  5
323
100
AcDbEntity
  8
2
100
AcDbCircle
 10
-174.334595
 20
470.631216
 30
0.0
 40
1.448964
100
AcDbArc
 50
0.0
 51
60.721312
  0
ARC
  5
324
100
AcDbEntity
  8
2
100
AcDbCircle
 10
-175.060399
 20
466.528977
 30
0.0
 40
2.174768
100
AcDbArc
 50
44.091053
 51
58.161652
  0
ARC
  5
325
100
AcDbEntity
  8
2
100
AcDbCircle
 10
-173.385631
 20
469.226069
 30
0.0
 40
1.0
100
AcDbArc
 50
180.0
 51
238.161652
  0
ARC
  5
326
100
AcDbEntity
  8
2
100
AcDbCircle
 10
-171.385631
 20
470.825628
 30
0.0
 40
3.0
100
AcDbArc
 50
109.021483
 51
180.0
  0
ARC
  5
327
100
AcDbEntity
  8
2
100
AcDbCircle
 10
-173.381438
 20
472.331202
 30
0.0
 40
0.5
100
AcDbArc
 50
142.97025
 51
240.721312
  0
ARC
  5
328
100
AcDbEntity
  8
2
100
AcDbCircle
 10
-208.990729
 20
374.766023
 30
0.0
 40
36.105098
100
AcDbArc
 50
344.28022
 51
15.71978
  0
ARC
  5
329
100
AcDbEntity
  8
2
100
AcDbCircle
 10
-170.385631
 20
363.900238
 30
0.0
 40
4.0
100
AcDbArc
 50
164.28022
 51
180.0
  0
ARC
  5
32A
100
AcDbEntity
  8
2
100
AcDbCircle
 10
-204.494409
 20
349.079022
 30
0.0
 40
31.608779
100
AcDbArc
 50
343.310583
 51
0.0
  0
ARC
  5
32B
100
AcDbEntity
  8
2
100
AcDbCircle
 10
-208.821308
 20
349.079022
 30
0.0
 40
35.935677
100
AcDbArc
 50
0.0
 51
15.7533
  0
ARC
  5
32C
100
AcDbEntity
  8
2
100
AcDbCircle
 10
-170.385631
 20
359.921395
 30
0.0
 40
4.0
100
AcDbArc
 50
180.0
 51
195.7533
  0
ARC
  5
32D
100
AcDbEntity
  8
2
100
AcDbCircle
 10
-170.385631
 20
338.852765
 30
0.0
 40
4.0
100
AcDbArc
 50
163.310583
 51
180.0
  0
ARC
  5
32E
100
AcDbEntity
  8
2
100
AcDbCircle
 10
-203.448167
 20
350.178214
 30
0.0
 40
30.562536
100
AcDbArc
 50
343.058035
 51
359.011317
  0
ARC
  5
32F
100
AcDbEntity
  8
2
100
AcDbCircle
 10
-170.385631
 20
340.10659
 30
0.0
 40
4.0
100
AcDbArc
 50
163.058035
 51
180.0
  0
ARC
  5
330
100
AcDbEntity
  8
2
100
AcDbCircle
 10
-204.031544
 20
325.142548
 30
0.0
 40
31.145914
100
AcDbArc
 50
360.0
 51
17.045773
  0
ARC
  5
331
100
AcDbEntity
  8
2
100
AcDbCircle
 10
-196.537136
 20
325.142548
 30
0.0
 40
23.651505
100
AcDbArc
 50
340.685625
 51
360.0
  0
ARC
  5
332
100
AcDbEntity
  8
2
100
AcDbCircle
 10
-171.385631
 20
335.151931
 30
0.0
 40
3.0
100
AcDbArc
 50
180.0
 51
197.045773
  0
ARC
  5
333
100
AcDbEntity
  8
2
100
AcDbCircle
 10
-171.385631
 20
316.327532
 30
0.0
 40
3.0
100
AcDbArc
 50
160.685625
 51
180.0
  0
ARC
  5
334
100
AcDbEntity
  8
2
100
AcDbCircle
 10
-196.818601
 20
327.266023
 30
0.0
 40
23.93297
100
AcDbArc
 50
340.787775
 51
357.624725
  0
ARC
  5
335
100
AcDbEntity
  8
2
100
AcDbCircle
 10
-171.385631
 20
318.403241
 30
0.0
 40
3.0
100
AcDbArc
 50
160.787775
 51
180.0
  0
ARC
  5
336
100
AcDbEntity
  8
2
100
AcDbCircle
 10
-195.90485
 20
304.587832
 30
0.0
 40
23.019219
100
AcDbArc
 50
0.0
 51
19.549918
  0
ARC
  5
337
100
AcDbEntity
  8
2
100
AcDbCircle
 10
-187.251053
 20
304.587832
 30
0.0
 40
14.365422
100
AcDbArc
 50
335.277407
 51
0.0
  0
ARC
  5
338
100
AcDbEntity
  8
2
100
AcDbCircle
 10
-171.385631
 20
313.294591
 30
0.0
 40
3.0
100
AcDbArc
 50
180.0
 51
199.549918
  0
ARC
  5
339
100
AcDbEntity
  8
2
100
AcDbCircle
 10
-172.385631
 20
297.743398
 30
0.0
 40
2.0
100
AcDbArc
 50
155.277407
 51
180.0
  0
ARC
  5
33A
100
AcDbEntity
  8
2
100
AcDbCircle
 10
-188.39297
 20
307.590879
 30
0.0
 40
15.507339
100
AcDbArc
 50
336.109575
 51
354.992816
  0
ARC
  5
33B
100
AcDbEntity
  8
2
100
AcDbCircle
 10
-172.385631
 20
300.500603
 30
0.0
 40
2.0
100
AcDbArc
 50
156.109575
 51
180.0
  0
ARC
  5
33C
100
AcDbEntity
  8
2
100
AcDbCircle
 10
-186.618767
 20
288.815643
 30
0.0
 40
13.733136
100
AcDbArc
 50
0.0
 51
25.222494
  0
ARC
  5
33D
100
AcDbEntity
  8
2
100
AcDbCircle
 10
-179.124358
 20
288.815643
 30
0.0
 40
6.238728
100
AcDbArc
 50
324.878416
 51
360.0
  0
ARC
  5
33E
100
AcDbEntity
  8
2
100
AcDbCircle
 10
-172.385631
 20
295.520075
 30
0.0
 40
2.0
100
AcDbArc
 50
180.0
 51
205.222494
  0
ARC
  5
33F
100
AcDbEntity
  8
2
100
AcDbCircle
 10
-172.385631
 20
284.075792
 30
0.0
 40
2.0
100
AcDbArc
 50
144.878416
 51
180.0
  0
ARC
  5
340
100
AcDbEntity
  8
2
100
AcDbCircle
 10
-180.428915
 20
292.49361
 30
0.0
 40
7.543285
100
AcDbArc
 50
327.439264
 51
348.038733
  0
ARC
  5
341
100
AcDbEntity
  8
2
100
AcDbCircle
 10
-172.385631
 20
287.357478
 30
0.0
 40
2.0
100
AcDbArc
 50
147.439264
 51
180.0
  0
ARC
  5
342
100
AcDbEntity
  8
2
100
AcDbCircle
 10
-178.661493
 20
278.900831
 30
0.0
 40
5.775863
100
AcDbArc
 50
0.0
 51
36.186897
  0
ARC
  5
343
100
AcDbEntity
  8
2
100
AcDbCircle
 10
-172.385631
 20
283.491864
 30
0.0
 40
2.0
100
AcDbArc
 50
180.0
 51
216.186897
  0
ARC
  5
344
100
AcDbEntity
  8
2
100
AcDbCircle
 10
-174.334595
 20
278.900831
 30
0.0
 40
1.448964
100
AcDbArc
 50
299.278688
 51
360.0
  0
ARC
  5
345
100
AcDbEntity
  8
2
100
AcDbCircle
 10
-175.060399
 20
283.00307
 30
0.0
 40
2.174768
100
AcDbArc
 50
301.838348
 51
315.908947
  0
ARC
  5
346
100
AcDbEntity
  8
2
100
AcDbCircle
 10
-173.385631
 20
280.305978
 30
0.0
 40
1.0
100
AcDbArc
 50
121.838348
 51
180.0
  0
ARC
  5
347
100
AcDbEntity
  8
2
100
AcDbCircle
 10
-171.385631
 20
278.706419
 30
0.0
 40
3.0
100
AcDbArc
 50
180.0
 51
250.978517
  0
ARC
  5
348
100
AcDbEntity
  8
2
100
AcDbCircle
 10
-173.381438
 20
277.200845
 30
0.0
 40
0.5
100
AcDbArc
 50
119.278688
 51
217.02975
  0
LINE
  5
349
100
AcDbEntity
  8
2
100
AcDbLine
 10
-157.885631
 20
321.986194
 30
0.0
 11
-157.885631
 21
285.766023
 31
0.0
  0
LINE
  5
34A
100
AcDbEntity
  8
2
100
AcDbLine
 10
-157.885631
 20
463.766023
 30
0.0
 11
-157.885631
 21
342.766023
 31
0.0
  0
LINE
  5
34B
100
AcDbEntity
  8
2
100
AcDbLine
 10
-157.885631
 20
342.766023
 30
0.0
 11
-157.885631
 21
321.986194
 31
0.0
  0
LINE
  5
34C
100
AcDbEntity
  8
2
100
AcDbLine
 10
-271.385631
 20
110.73269
 30
0.0
 11
-406.385631
 21
110.73269
 31
0.0
  0
LINE
  5
34D
100
AcDbEntity
  8
2
100
AcDbLine
 10
-155.785631
 20
120.73269
 30
0.0
 11
-155.785631
 21
100.73269
 31
0.0
  0
LINE
  5
34E
100
AcDbEntity
  8
2
100
AcDbLine
 10
-156.885631
 20
120.73269
 30
0.0
 11
-155.785631
 21
120.73269
 31
0.0
  0
LINE
  5
34F
100
AcDbEntity
  8
2
100
AcDbLine
 10
-156.885631
 20
100.73269
 30
0.0
 11
-155.785631
 21
100.73269
 31
0.0
  0
LINE
  5
350
100
AcDbEntity
  8
2
100
AcDbLine
 10
-153.785631
 20
117.23269
 30
0.0
 11
-148.285631
 21
117.23269
 31
0.0
  0
ARC
  5
351
100
AcDbEntity
  8
2
100
AcDbCircle
 10
-155.964389
 20
113.98269
 30
0.0
 40
7.678759
100
AcDbArc
 50
334.96034
 51
25.03966
  0
LINE
  5
352
100
AcDbEntity
  8
2
100
AcDbLine
 10
-153.785631
 20
104.23269
 30
0.0
 11
-148.285631
 21
104.23269
 31
0.0
  0
LINE
  5
353
100
AcDbEntity
  8
2
100
AcDbLine
 10
-148.285631
 20
104.23269
 30
0.0
 11
-148.285631
 21
117.23269
 31
0.0
  0
LINE
  5
354
100
AcDbEntity
  8
2
100
AcDbLine
 10
-153.785631
 20
110.73269
 30
0.0
 11
-149.007319
 21
110.73269
 31
0.0
  0
ARC
  5
355
100
AcDbEntity
  8
2
100
AcDbCircle
 10
-155.964389
 20
107.48269
 30
0.0
 40
7.678759
100
AcDbArc
 50
334.96034
 51
25.03966
  0
LINE
  5
356
100
AcDbEntity
  8
2
100
AcDbLine
 10
-155.785631
 20
118.43269
 30
0.0
 11
-153.785631
 21
118.43269
 31
0.0
  0
LINE
  5
357
100
AcDbEntity
  8
2
100
AcDbLine
 10
-153.785631
 20
118.43269
 30
0.0
 11
-153.785631
 21
103.03269
 31
0.0
  0
LINE
  5
358
100
AcDbEntity
  8
2
100
AcDbLine
 10
-153.785631
 20
103.03269
 30
0.0
 11
-155.785631
 21
103.03269
 31
0.0
  0
LINE
  5
359
100
AcDbEntity
  8
2
  6
CENTER
 62
     2
100
AcDbLine
 10
-133.213008
 20
110.73269
 30
0.0
 11
-422.57722
 21
110.73269
 31
0.0
  0
LINE
  5
35A
100
AcDbEntity
  8
2
100
AcDbLine
 10
-282.290287
 20
137.73269
 30
0.0
 11
-395.480975
 21
137.73269
 31
0.0
  0
LINE
  5
35B
100
AcDbEntity
  8
2
100
AcDbLine
 10
-292.885631
 20
138.73269
 30
0.0
 11
-378.885631
 21
138.73269
 31
0.0
  0
LINE
  5
35C
100
AcDbEntity
  8
2
100
AcDbLine
 10
-378.885631
 20
138.73269
 30
0.0
 11
-379.885631
 21
137.73269
 31
0.0
  0
LINE
  5
35D
100
AcDbEntity
  8
2
100
AcDbLine
 10
-299.502894
 20
138.73269
 30
0.0
 11
-298.487611
 21
137.73269
 31
0.0
  0
LINE
  5
35E
100
AcDbEntity
  8
2
100
AcDbLine
 10
-376.084116
 20
137.73269
 30
0.0
 11
-375.084116
 21
138.73269
 31
0.0
  0
LINE
  5
35F
100
AcDbEntity
  8
2
100
AcDbLine
 10
-364.320985
 20
138.73269
 30
0.0
 11
-363.665119
 21
137.73269
 31
0.0
  0
LINE
  5
360
100
AcDbEntity
  8
2
100
AcDbLine
 10
-360.142165
 20
137.73269
 30
0.0
 11
-359.623713
 21
138.73269
 31
0.0
  0
LINE
  5
361
100
AcDbEntity
  8
2
  6
CENTER
 62
     2
100
AcDbLine
 10
-368.584116
 20
148.060569
 30
0.0
 11
-368.584116
 21
128.253753
 31
0.0
  0
LINE
  5
362
100
AcDbEntity
  8
2
100
AcDbLine
 10
-301.687146
 20
137.73269
 30
0.0
 11
-302.687146
 21
138.73269
 31
0.0
  0
LINE
  5
363
100
AcDbEntity
  8
2
100
AcDbLine
 10
-313.450276
 20
138.73269
 30
0.0
 11
-314.106143
 21
137.73269
 31
0.0
  0
LINE
  5
364
100
AcDbEntity
  8
2
100
AcDbLine
 10
-317.629097
 20
137.73269
 30
0.0
 11
-318.147549
 21
138.73269
 31
0.0
  0
LINE
  5
365
100
AcDbEntity
  8
2
  6
CENTER
 62
     2
100
AcDbLine
 10
-309.187146
 20
148.060569
 30
0.0
 11
-309.187146
 21
128.253753
 31
0.0
  0
LINE
  5
366
100
AcDbEntity
  8
2
100
AcDbLine
 10
-293.885631
 20
139.73269
 30
0.0
 11
-367.385631
 21
139.73269
 31
0.0
  0
LINE
  5
367
100
AcDbEntity
  8
2
100
AcDbLine
 10
-292.885631
 20
138.73269
 30
0.0
 11
-292.885631
 21
137.73269
 31
0.0
  0
LINE
  5
368
100
AcDbEntity
  8
2
100
AcDbLine
 10
-368.385631
 20
138.73269
 30
0.0
 11
-367.385631
 21
139.73269
 31
0.0
  0
LINE
  5
369
100
AcDbEntity
  8
2
100
AcDbLine
 10
-293.885631
 20
139.73269
 30
0.0
 11
-292.885631
 21
138.73269
 31
0.0
  0
LINE
  5
36A
100
AcDbEntity
  8
2
100
AcDbLine
 10
-311.024367
 20
139.73269
 30
0.0
 11
-310.228171
 21
138.73269
 31
0.0
  0
LINE
  5
36B
100
AcDbEntity
  8
2
100
AcDbLine
 10
-322.248233
 20
166.73269
 30
0.0
 11
-355.523029
 21
166.73269
 31
0.0
  0
LINE
  5
36C
100
AcDbEntity
  8
2
100
AcDbLine
 10
-320.885631
 20
140.73269
 30
0.0
 11
-356.885631
 21
140.73269
 31
0.0
  0
LINE
  5
36D
100
AcDbEntity
  8
2
100
AcDbLine
 10
-357.885631
 20
139.73269
 30
0.0
 11
-356.885631
 21
140.73269
 31
0.0
  0
LINE
  5
36E
100
AcDbEntity
  8
2
100
AcDbLine
 10
-319.885631
 20
139.73269
 30
0.0
 11
-320.885631
 21
140.73269
 31
0.0
  0
LINE
  5
36F
100
AcDbEntity
  8
2
100
AcDbLine
 10
-356.885631
 20
140.73269
 30
0.0
 11
-355.523029
 21
166.73269
 31
0.0
  0
LINE
  5
370
100
AcDbEntity
  8
2
100
AcDbLine
 10
-320.885631
 20
140.73269
 30
0.0
 11
-322.248233
 21
166.73269
 31
0.0
  0
LINE
  5
371
100
AcDbEntity
  8
2
  6
CENTER
 62
     2
100
AcDbLine
 10
-330.926006
 20
159.73269
 30
0.0
 11
-346.898723
 21
159.73269
 31
0.0
  0
CIRCLE
  5
372
100
AcDbEntity
  8
2
100
AcDbCircle
 10
-338.885631
 20
159.73269
 30
0.0
 40
3.5
  0
LINE
  5
373
100
AcDbEntity
  8
2
100
AcDbLine
 10
-355.117713
 20
166.73269
 30
0.0
 11
-356.412467
 21
140.73269
 31
0.0
  0
LINE
  5
374
100
AcDbEntity
  8
2
100
AcDbLine
 10
-332.719703
 20
166.73269
 30
0.0
 11
-331.382379
 21
140.73269
 31
0.0
  0
LINE
  5
375
100
AcDbEntity
  8
2
  6
CENTER
 62
     2
100
AcDbLine
 10
-306.885631
 20
116.175613
 30
0.0
 11
-306.885631
 21
86.326644
 31
0.0
  0
LINE
  5
376
100
AcDbEntity
  8
2
  6
CENTER
 62
     2
100
AcDbLine
 10
-290.621181
 20
101.73269
 30
0.0
 11
-323.244914
 21
101.73269
 31
0.0
  0
CIRCLE
  5
377
100
AcDbEntity
  8
2
 62
     2
100
AcDbCircle
 10
-306.885631
 20
101.73269
 30
0.0
 40
4.188
  0
CIRCLE
  5
378
100
AcDbEntity
  8
2
100
AcDbCircle
 10
-306.885631
 20
101.73269
 30
0.0
 40
8.25
  0
CIRCLE
  5
379
100
AcDbEntity
  8
2
100
AcDbCircle
 10
-306.885631
 20
101.73269
 30
0.0
 40
5.0
  0
LINE
  5
37A
100
AcDbEntity
  8
2
100
AcDbLine
 10
-301.978154
 20
110.23269
 30
0.0
 11
-311.793108
 21
110.23269
 31
0.0
  0
LINE
  5
37B
100
AcDbEntity
  8
2
100
AcDbLine
 10
-301.978154
 20
93.23269
 30
0.0
 11
-311.793108
 21
93.23269
 31
0.0
  0
LINE
  5
37C
100
AcDbEntity
  8
2
100
AcDbLine
 10
-311.793108
 20
110.23269
 30
0.0
 11
-316.700585
 21
101.73269
 31
0.0
  0
LINE
  5
37D
100
AcDbEntity
  8
2
100
AcDbLine
 10
-297.070676
 20
101.73269
 30
0.0
 11
-301.978154
 21
93.23269
 31
0.0
  0
LINE
  5
37E
100
AcDbEntity
  8
2
100
AcDbLine
 10
-316.700585
 20
101.73269
 30
0.0
 11
-311.793108
 21
93.23269
 31
0.0
  0
LINE
  5
37F
100
AcDbEntity
  8
2
100
AcDbLine
 10
-301.978154
 20
110.23269
 30
0.0
 11
-297.070676
 21
101.73269
 31
0.0
  0
LINE
  5
380
100
AcDbEntity
  8
2
100
AcDbLine
 10
-271.804893
 20
118.73269
 30
0.0
 11
-179.885631
 21
118.73269
 31
0.0
  0
LINE
  5
381
100
AcDbEntity
  8
2
100
AcDbLine
 10
-271.804893
 20
102.73269
 30
0.0
 11
-179.885631
 21
102.73269
 31
0.0
  0
LINE
  5
382
100
AcDbEntity
  8
2
100
AcDbLine
 10
-309.385631
 20
103.176066
 30
0.0
 11
-309.385631
 21
100.289314
 31
0.0
  0
LINE
  5
383
100
AcDbEntity
  8
2
100
AcDbLine
 10
-304.385631
 20
103.176066
 30
0.0
 11
-304.385631
 21
100.289314
 31
0.0
  0
LINE
  5
384
100
AcDbEntity
  8
2
100
AcDbLine
 10
-306.885631
 20
104.619442
 30
0.0
 11
-304.385631
 21
103.176066
 31
0.0
  0
LINE
  5
385
100
AcDbEntity
  8
2
100
AcDbLine
 10
-309.385631
 20
100.289314
 30
0.0
 11
-306.885631
 21
98.845939
 31
0.0
  0
LINE
  5
386
100
AcDbEntity
  8
2
100
AcDbLine
 10
-306.885631
 20
98.845939
 30
0.0
 11
-304.385631
 21
100.289314
 31
0.0
  0
LINE
  5
387
100
AcDbEntity
  8
2
100
AcDbLine
 10
-309.385631
 20
103.176066
 30
0.0
 11
-306.885631
 21
104.619442
 31
0.0
  0
LINE
  5
388
100
AcDbEntity
  8
2
100
AcDbLine
 10
-271.385631
 20
110.73269
 30
0.0
 11
-272.303991
 21
128.25605
 31
0.0
  0
LINE
  5
389
100
AcDbEntity
  8
2
100
AcDbLine
 10
-406.385631
 20
110.73269
 30
0.0
 11
-405.467271
 21
128.25605
 31
0.0
  0
ARC
  5
38A
100
AcDbEntity
  8
2
100
AcDbCircle
 10
-282.290287
 20
127.73269
 30
0.0
 40
10.0
100
AcDbArc
 50
3.0
 51
90.0
  0
ARC
  5
38B
100
AcDbEntity
  8
2
100
AcDbCircle
 10
-395.480975
 20
127.73269
 30
0.0
 40
10.0
100
AcDbArc
 50
90.0
 51
177.0
  0
LINE
  5
38C
100
AcDbEntity
  8
2
100
AcDbLine
 10
-271.385631
 20
110.73269
 30
0.0
 11
-272.750976
 21
84.680354
 31
0.0
  0
LINE
  5
38D
100
AcDbEntity
  8
2
100
AcDbLine
 10
-406.385631
 20
110.73269
 30
0.0
 11
-405.020286
 21
84.680354
 31
0.0
  0
ARC
  5
38E
100
AcDbEntity
  8
2
100
AcDbCircle
 10
-404.021656
 20
84.73269
 30
0.0
 40
1.0
100
AcDbArc
 50
183.0
 51
270.0
  0
ARC
  5
38F
100
AcDbEntity
  8
2
100
AcDbCircle
 10
-273.749606
 20
84.73269
 30
0.0
 40
1.0
100
AcDbArc
 50
270.0
 51
357.0
  0
LINE
  5
390
100
AcDbEntity
  8
2
100
AcDbLine
 10
-404.021656
 20
83.73269
 30
0.0
 11
-402.385631
 21
83.73269
 31
0.0
  0
LINE
  5
391
100
AcDbEntity
  8
2
100
AcDbLine
 10
-275.385631
 20
83.73269
 30
0.0
 11
-273.749606
 21
83.73269
 31
0.0
  0
LINE
  5
392
100
AcDbEntity
  8
2
100
AcDbLine
 10
-401.385631
 20
95.23269
 30
0.0
 11
-401.385631
 21
72.23269
 31
0.0
  0
LINE
  5
393
100
AcDbEntity
  8
2
100
AcDbLine
 10
-276.385631
 20
95.23269
 30
0.0
 11
-276.385631
 21
72.23269
 31
0.0
  0
LINE
  5
394
100
AcDbEntity
  8
2
100
AcDbLine
 10
-276.385631
 20
72.23269
 30
0.0
 11
-401.385631
 21
72.23269
 31
0.0
  0
ARC
  5
395
100
AcDbEntity
  8
2
100
AcDbCircle
 10
-277.385631
 20
95.23269
 30
0.0
 40
1.0
100
AcDbArc
 50
0.0
 51
90.0
  0
ARC
  5
396
100
AcDbEntity
  8
2
100
AcDbCircle
 10
-400.385631
 20
95.23269
 30
0.0
 40
1.0
100
AcDbArc
 50
90.0
 51
180.0
  0
ARC
  5
397
100
AcDbEntity
  8
2
100
AcDbCircle
 10
-275.385631
 20
82.73269
 30
0.0
 40
1.0
100
AcDbArc
 50
90.0
 51
180.0
  0
ARC
  5
398
100
AcDbEntity
  8
2
100
AcDbCircle
 10
-402.385631
 20
82.73269
 30
0.0
 40
1.0
100
AcDbArc
 50
0.0
 51
90.0
  0
LINE
  5
399
100
AcDbEntity
  8
2
100
AcDbLine
 10
-319.885631
 20
94.23269
 30
0.0
 11
-319.885631
 21
89.23269
 31
0.0
  0
LINE
  5
39A
100
AcDbEntity
  8
2
100
AcDbLine
 10
-293.885631
 20
94.23269
 30
0.0
 11
-293.885631
 21
89.23269
 31
0.0
  0
LINE
  5
39B
100
AcDbEntity
  8
2
100
AcDbLine
 10
-294.885631
 20
88.23269
 30
0.0
 11
-318.885631
 21
88.23269
 31
0.0
  0
ARC
  5
39C
100
AcDbEntity
  8
2
100
AcDbCircle
 10
-294.885631
 20
89.23269
 30
0.0
 40
1.0
100
AcDbArc
 50
270.0
 51
360.0
  0
ARC
  5
39D
100
AcDbEntity
  8
2
100
AcDbCircle
 10
-318.885631
 20
89.23269
 30
0.0
 40
1.0
100
AcDbArc
 50
180.0
 51
270.0
  0
LINE
  5
39E
100
AcDbEntity
  8
2
100
AcDbLine
 10
-400.385631
 20
96.23269
 30
0.0
 11
-321.885631
 21
96.23269
 31
0.0
  0
LINE
  5
39F
100
AcDbEntity
  8
2
100
AcDbLine
 10
-291.885631
 20
96.23269
 30
0.0
 11
-277.385631
 21
96.23269
 31
0.0
  0
LINE
  5
3A0
100
AcDbEntity
  8
2
100
AcDbLine
 10
-298.385631
 20
88.23269
 30
0.0
 11
-298.385631
 21
99.455122
 31
0.0
  0
LINE
  5
3A1
100
AcDbEntity
  8
2
100
AcDbLine
 10
-298.385631
 20
104.010258
 30
0.0
 11
-298.385631
 21
110.73269
 31
0.0
  0
LINE
  5
3A2
100
AcDbEntity
  8
2
100
AcDbLine
 10
-315.385631
 20
88.23269
 30
0.0
 11
-315.385631
 21
99.455122
 31
0.0
  0
LINE
  5
3A3
100
AcDbEntity
  8
2
100
AcDbLine
 10
-315.385631
 20
104.010258
 30
0.0
 11
-315.385631
 21
110.73269
 31
0.0
  0
LINE
  5
3A4
100
AcDbEntity
  8
2
  6
CENTER
 62
     2
100
AcDbLine
 10
-294.691457
 20
62.647124
 30
0.0
 11
-294.691457
 21
83.209121
 31
0.0
  0
LINE
  5
3A5
100
AcDbEntity
  8
2
  6
CENTER
 62
     2
100
AcDbLine
 10
-383.079805
 20
62.647124
 30
0.0
 11
-383.079805
 21
83.209121
 31
0.0
  0
ARC
  5
3A6
100
AcDbEntity
  8
2
100
AcDbCircle
 10
-291.885631
 20
94.23269
 30
0.0
 40
2.0
100
AcDbArc
 50
90.0
 51
180.0
  0
ARC
  5
3A7
100
AcDbEntity
  8
2
100
AcDbCircle
 10
-321.885631
 20
94.23269
 30
0.0
 40
2.0
100
AcDbArc
 50
360.0
 51
90.0
  0
LINE
  5
3A8
100
AcDbEntity
  8
2
100
AcDbLine
 10
-157.885631
 20
199.73269
 30
0.0
 11
-157.885631
 21
21.73269
 31
0.0
  0
LINE
  5
3A9
100
AcDbEntity
  8
2
100
AcDbLine
 10
-179.885631
 20
98.401961
 30
0.0
 11
-179.885631
 21
123.063419
 31
0.0
  0
LINE
  5
3AA
100
AcDbEntity
  8
2
100
AcDbLine
 10
-156.885631
 20
134.23269
 30
0.0
 11
-156.885631
 21
87.23269
 31
0.0
  0
LINE
  5
3AB
100
AcDbEntity
  8
2
100
AcDbLine
 10
-157.885631
 20
134.23269
 30
0.0
 11
-156.885631
 21
134.23269
 31
0.0
  0
LINE
  5
3AC
100
AcDbEntity
  8
2
100
AcDbLine
 10
-157.885631
 20
87.23269
 30
0.0
 11
-156.885631
 21
87.23269
 31
0.0
  0
ARC
  5
3AD
100
AcDbEntity
  8
2
100
AcDbCircle
 10
-168.885631
 20
101.73269
 30
0.0
 40
24.0
100
AcDbArc
 50
103.248015
 51
117.279613
  0
ARC
  5
3AE
100
AcDbEntity
  8
2
100
AcDbCircle
 10
-168.885631
 20
199.73269
 30
0.0
 40
11.0
100
AcDbArc
 50
0.0
 51
100.164249
  0
ARC
  5
3AF
100
AcDbEntity
  8
2
100
AcDbCircle
 10
-170.385631
 20
208.09929
 30
0.0
 40
2.5
100
AcDbArc
 50
100.164249
 51
142.289101
  0
LINE
  5
3B0
100
AcDbEntity
  8
2
100
AcDbLine
 10
-174.385631
 20
121.598476
 30
0.0
 11
-174.385631
 21
125.577319
 31
0.0
  0
LINE
  5
3B1
100
AcDbEntity
  8
2
100
AcDbLine
 10
-174.385631
 20
145.392123
 30
0.0
 11
-174.385631
 21
150.346783
 31
0.0
  0
LINE
  5
3B2
100
AcDbEntity
  8
2
100
AcDbLine
 10
-174.385631
 20
167.095473
 30
0.0
 11
-174.385631
 21
172.204123
 31
0.0
  0
LINE
  5
3B3
100
AcDbEntity
  8
2
100
AcDbLine
 10
-174.385631
 20
184.998111
 30
0.0
 11
-174.385631
 21
189.978639
 31
0.0
  0
LINE
  5
3B4
100
AcDbEntity
  8
2
100
AcDbLine
 10
-174.385631
 20
198.141236
 30
0.0
 11
-174.385631
 21
202.00685
 31
0.0
  0
LINE
  5
3B5
100
AcDbEntity
  8
2
100
AcDbLine
 10
-174.385631
 20
205.192735
 30
0.0
 11
-174.385631
 21
206.792295
 31
0.0
  0
ARC
  5
3B6
100
AcDbEntity
  8
2
100
AcDbCircle
 10
-168.885631
 20
119.73269
 30
0.0
 40
24.0
100
AcDbArc
 50
242.720387
 51
256.751985
  0
ARC
  5
3B7
100
AcDbEntity
  8
2
100
AcDbCircle
 10
-168.885631
 20
21.73269
 30
0.0
 40
11.0
100
AcDbArc
 50
259.835751
 51
360.0
  0
ARC
  5
3B8
100
AcDbEntity
  8
2
100
AcDbCircle
 10
-170.385631
 20
13.36609
 30
0.0
 40
2.5
100
AcDbArc
 50
217.710899
 51
259.835751
  0
LINE
  5
3B9
100
AcDbEntity
  8
2
100
AcDbLine
 10
-174.385631
 20
99.866905
 30
0.0
 11
-174.385631
 21
95.888061
 31
0.0
  0
LINE
  5
3BA
100
AcDbEntity
  8
2
100
AcDbLine
 10
-174.385631
 20
76.073257
 30
0.0
 11
-174.385631
 21
71.118597
 31
0.0
  0
LINE
  5
3BB
100
AcDbEntity
  8
2
100
AcDbLine
 10
-174.385631
 20
54.369908
 30
0.0
 11
-174.385631
 21
49.261258
 31
0.0
  0
LINE
  5
3BC
100
AcDbEntity
  8
2
100
AcDbLine
 10
-174.385631
 20
36.46727
 30
0.0
 11
-174.385631
 21
31.486742
 31
0.0
  0
LINE
  5
3BD
100
AcDbEntity
  8
2
100
AcDbLine
 10
-174.385631
 20
23.324145
 30
0.0
 11
-174.385631
 21
19.458531
 31
0.0
  0
LINE
  5
3BE
100
AcDbEntity
  8
2
100
AcDbLine
 10
-174.385631
 20
16.272645
 30
0.0
 11
-174.385631
 21
14.673085
 31
0.0
  0
ARC
  5
3BF
100
AcDbEntity
  8
2
100
AcDbCircle
 10
-170.385631
 20
121.598476
 30
0.0
 40
4.0
100
AcDbArc
 50
180.0
 51
195.71978
  0
ARC
  5
3C0
100
AcDbEntity
  8
2
100
AcDbCircle
 10
-204.494409
 20
136.419691
 30
0.0
 40
31.608779
100
AcDbArc
 50
360.0
 51
16.689417
  0
ARC
  5
3C1
100
AcDbEntity
  8
2
100
AcDbCircle
 10
-208.821308
 20
136.419691
 30
0.0
 40
35.935677
100
AcDbArc
 50
344.2467
 51
360.0
  0
ARC
  5
3C2
100
AcDbEntity
  8
2
100
AcDbCircle
 10
-170.385631
 20
125.577319
 30
0.0
 40
4.0
100
AcDbArc
 50
164.2467
 51
180.0
  0
ARC
  5
3C3
100
AcDbEntity
  8
2
100
AcDbCircle
 10
-170.385631
 20
146.645948
 30
0.0
 40
4.0
100
AcDbArc
 50
180.0
 51
196.689417
  0
ARC
  5
3C4
100
AcDbEntity
  8
2
100
AcDbCircle
 10
-203.448167
 20
135.320499
 30
0.0
 40
30.562536
100
AcDbArc
 50
0.988683
 51
16.941965
  0
ARC
  5
3C5
100
AcDbEntity
  8
2
100
AcDbCircle
 10
-170.385631
 20
145.392123
 30
0.0
 40
4.0
100
AcDbArc
 50
180.0
 51
196.941965
  0
ARC
  5
3C6
100
AcDbEntity
  8
2
100
AcDbCircle
 10
-204.031544
 20
160.356166
 30
0.0
 40
31.145914
100
AcDbArc
 50
342.954227
 51
0.0
  0
ARC
  5
3C7
100
AcDbEntity
  8
2
100
AcDbCircle
 10
-196.537136
 20
160.356166
 30
0.0
 40
23.651505
100
AcDbArc
 50
0.0
 51
19.314375
  0
ARC
  5
3C8
100
AcDbEntity
  8
2
100
AcDbCircle
 10
-171.385631
 20
150.346783
 30
0.0
 40
3.0
100
AcDbArc
 50
162.954227
 51
180.0
  0
ARC
  5
3C9
100
AcDbEntity
  8
2
100
AcDbCircle
 10
-171.385631
 20
169.171182
 30
0.0
 40
3.0
100
AcDbArc
 50
180.0
 51
199.314375
  0
ARC
  5
3CA
100
AcDbEntity
  8
2
100
AcDbCircle
 10
-196.818601
 20
158.23269
 30
0.0
 40
23.93297
100
AcDbArc
 50
2.375275
 51
19.212225
  0
ARC
  5
3CB
100
AcDbEntity
  8
2
100
AcDbCircle
 10
-171.385631
 20
167.095473
 30
0.0
 40
3.0
100
AcDbArc
 50
180.0
 51
199.212225
  0
ARC
  5
3CC
100
AcDbEntity
  8
2
100
AcDbCircle
 10
-195.90485
 20
180.910882
 30
0.0
 40
23.019219
100
AcDbArc
 50
340.450082
 51
360.0
  0
ARC
  5
3CD
100
AcDbEntity
  8
2
100
AcDbCircle
 10
-187.251053
 20
180.910882
 30
0.0
 40
14.365422
100
AcDbArc
 50
360.0
 51
24.722593
  0
ARC
  5
3CE
100
AcDbEntity
  8
2
100
AcDbCircle
 10
-171.385631
 20
172.204123
 30
0.0
 40
3.0
100
AcDbArc
 50
160.450082
 51
180.0
  0
ARC
  5
3CF
100
AcDbEntity
  8
2
100
AcDbCircle
 10
-172.385631
 20
187.755315
 30
0.0
 40
2.0
100
AcDbArc
 50
180.0
 51
204.722593
  0
ARC
  5
3D0
100
AcDbEntity
  8
2
100
AcDbCircle
 10
-188.39297
 20
177.907834
 30
0.0
 40
15.507339
100
AcDbArc
 50
5.007184
 51
23.890425
  0
ARC
  5
3D1
100
AcDbEntity
  8
2
100
AcDbCircle
 10
-172.385631
 20
184.998111
 30
0.0
 40
2.0
100
AcDbArc
 50
180.0
 51
203.890425
  0
ARC
  5
3D2
100
AcDbEntity
  8
2
100
AcDbCircle
 10
-186.618767
 20
196.683071
 30
0.0
 40
13.733136
100
AcDbArc
 50
334.777506
 51
360.0
  0
ARC
  5
3D3
100
AcDbEntity
  8
2
100
AcDbCircle
 10
-179.124358
 20
196.683071
 30
0.0
 40
6.238728
100
AcDbArc
 50
0.0
 51
35.121584
  0
ARC
  5
3D4
100
AcDbEntity
  8
2
100
AcDbCircle
 10
-172.385631
 20
189.978639
 30
0.0
 40
2.0
100
AcDbArc
 50
154.777506
 51
180.0
  0
ARC
  5
3D5
100
AcDbEntity
  8
2
100
AcDbCircle
 10
-172.385631
 20
201.422921
 30
0.0
 40
2.0
100
AcDbArc
 50
180.0
 51
215.121584
  0
ARC
  5
3D6
100
AcDbEntity
  8
2
100
AcDbCircle
 10
-180.428915
 20
193.005104
 30
0.0
 40
7.543285
100
AcDbArc
 50
11.961267
 51
32.560736
  0
ARC
  5
3D7
100
AcDbEntity
  8
2
100
AcDbCircle
 10
-172.385631
 20
198.141236
 30
0.0
 40
2.0
100
AcDbArc
 50
180.0
 51
212.560736
  0
ARC
  5
3D8
100
AcDbEntity
  8
2
100
AcDbCircle
 10
-178.661493
 20
206.597883
 30
0.0
 40
5.775863
100
AcDbArc
 50
323.813103
 51
360.0
  0
ARC
  5
3D9
100
AcDbEntity
  8
2
100
AcDbCircle
 10
-172.385631
 20
202.00685
 30
0.0
 40
2.0
100
AcDbArc
 50
143.813103
 51
180.0
  0
ARC
  5
3DA
100
AcDbEntity
  8
2
100
AcDbCircle
 10
-174.334595
 20
206.597883
 30
0.0
 40
1.448964
100
AcDbArc
 50
0.0
 51
60.721312
  0
ARC
  5
3DB
100
AcDbEntity
  8
2
100
AcDbCircle
 10
-175.060399
 20
202.495644
 30
0.0
 40
2.174768
100
AcDbArc
 50
44.091053
 51
58.161652
  0
ARC
  5
3DC
100
AcDbEntity
  8
2
100
AcDbCircle
 10
-173.385631
 20
205.192735
 30
0.0
 40
1.0
100
AcDbArc
 50
180.0
 51
238.161652
  0
ARC
  5
3DD
100
AcDbEntity
  8
2
100
AcDbCircle
 10
-171.385631
 20
206.792295
 30
0.0
 40
3.0
100
AcDbArc
 50
109.021483
 51
180.0
  0
ARC
  5
3DE
100
AcDbEntity
  8
2
100
AcDbCircle
 10
-173.381438
 20
208.297869
 30
0.0
 40
0.5
100
AcDbArc
 50
142.97025
 51
240.721312
  0
ARC
  5
3DF
100
AcDbEntity
  8
2
100
AcDbCircle
 10
-208.990729
 20
110.73269
 30
0.0
 40
36.105098
100
AcDbArc
 50
344.28022
 51
15.71978
  0
ARC
  5
3E0
100
AcDbEntity
  8
2
100
AcDbCircle
 10
-170.385631
 20
99.866905
 30
0.0
 40
4.0
100
AcDbArc
 50
164.28022
 51
180.0
  0
ARC
  5
3E1
100
AcDbEntity
  8
2
100
AcDbCircle
 10
-204.494409
 20
85.045689
 30
0.0
 40
31.608779
100
AcDbArc
 50
343.310583
 51
0.0
  0
ARC
  5
3E2
100
AcDbEntity
  8
2
100
AcDbCircle
 10
-208.821308
 20
85.045689
 30
0.0
 40
35.935677
100
AcDbArc
 50
0.0
 51
15.7533
  0
ARC
  5
3E3
100
AcDbEntity
  8
2
100
AcDbCircle
 10
-170.385631
 20
95.888061
 30
0.0
 40
4.0
100
AcDbArc
 50
180.0
 51
195.7533
  0
ARC
  5
3E4
100
AcDbEntity
  8
2
100
AcDbCircle
 10
-170.385631
 20
74.819432
 30
0.0
 40
4.0
100
AcDbArc
 50
163.310583
 51
180.0
  0
ARC
  5
3E5
100
AcDbEntity
  8
2
100
AcDbCircle
 10
-203.448167
 20
86.144881
 30
0.0
 40
30.562536
100
AcDbArc
 50
343.058035
 51
359.011317
  0
ARC
  5
3E6
100
AcDbEntity
  8
2
100
AcDbCircle
 10
-170.385631
 20
76.073257
 30
0.0
 40
4.0
100
AcDbArc
 50
163.058035
 51
180.0
  0
ARC
  5
3E7
100
AcDbEntity
  8
2
100
AcDbCircle
 10
-204.031544
 20
61.109215
 30
0.0
 40
31.145914
100
AcDbArc
 50
360.0
 51
17.045773
  0
ARC
  5
3E8
100
AcDbEntity
  8
2
100
AcDbCircle
 10
-196.537136
 20
61.109215
 30
0.0
 40
23.651505
100
AcDbArc
 50
340.685625
 51
360.0
  0
ARC
  5
3E9
100
AcDbEntity
  8
2
100
AcDbCircle
 10
-171.385631
 20
71.118597
 30
0.0
 40
3.0
100
AcDbArc
 50
180.0
 51
197.045773
  0
ARC
  5
3EA
100
AcDbEntity
  8
2
100
AcDbCircle
 10
-171.385631
 20
52.294198
 30
0.0
 40
3.0
100
AcDbArc
 50
160.685625
 51
180.0
  0
ARC
  5
3EB
100
AcDbEntity
  8
2
100
AcDbCircle
 10
-196.818601
 20
63.23269
 30
0.0
 40
23.93297
100
AcDbArc
 50
340.787775
 51
357.624725
  0
ARC
  5
3EC
100
AcDbEntity
  8
2
100
AcDbCircle
 10
-171.385631
 20
54.369908
 30
0.0
 40
3.0
100
AcDbArc
 50
160.787775
 51
180.0
  0
ARC
  5
3ED
100
AcDbEntity
  8
2
100
AcDbCircle
 10
-195.90485
 20
40.554498
 30
0.0
 40
23.019219
100
AcDbArc
 50
0.0
 51
19.549918
  0
ARC
  5
3EE
100
AcDbEntity
  8
2
100
AcDbCircle
 10
-187.251053
 20
40.554498
 30
0.0
 40
14.365422
100
AcDbArc
 50
335.277407
 51
0.0
  0
ARC
  5
3EF
100
AcDbEntity
  8
2
100
AcDbCircle
 10
-171.385631
 20
49.261258
 30
0.0
 40
3.0
100
AcDbArc
 50
180.0
 51
199.549918
  0
ARC
  5
3F0
100
AcDbEntity
  8
2
100
AcDbCircle
 10
-172.385631
 20
33.710065
 30
0.0
 40
2.0
100
AcDbArc
 50
155.277407
 51
180.0
  0
ARC
  5
3F1
100
AcDbEntity
  8
2
100
AcDbCircle
 10
-188.39297
 20
43.557546
 30
0.0
 40
15.507339
100
AcDbArc
 50
336.109575
 51
354.992816
  0
ARC
  5
3F2
100
AcDbEntity
  8
2
100
AcDbCircle
 10
-172.385631
 20
36.46727
 30
0.0
 40
2.0
100
AcDbArc
 50
156.109575
 51
180.0
  0
ARC
  5
3F3
100
AcDbEntity
  8
2
100
AcDbCircle
 10
-186.618767
 20
24.78231
 30
0.0
 40
13.733136
100
AcDbArc
 50
0.0
 51
25.222494
  0
ARC
  5
3F4
100
AcDbEntity
  8
2
100
AcDbCircle
 10
-179.124358
 20
24.78231
 30
0.0
 40
6.238728
100
AcDbArc
 50
324.878416
 51
360.0
  0
ARC
  5
3F5
100
AcDbEntity
  8
2
100
AcDbCircle
 10
-172.385631
 20
31.486742
 30
0.0
 40
2.0
100
AcDbArc
 50
180.0
 51
205.222494
  0
ARC
  5
3F6
100
AcDbEntity
  8
2
100
AcDbCircle
 10
-172.385631
 20
20.042459
 30
0.0
 40
2.0
100
AcDbArc
 50
144.878416
 51
180.0
  0
ARC
  5
3F7
100
AcDbEntity
  8
2
100
AcDbCircle
 10
-180.428915
 20
28.460277
 30
0.0
 40
7.543285
100
AcDbArc
 50
327.439264
 51
348.038733
  0
ARC
  5
3F8
100
AcDbEntity
  8
2
100
AcDbCircle
 10
-172.385631
 20
23.324145
 30
0.0
 40
2.0
100
AcDbArc
 50
147.439264
 51
180.0
  0
ARC
  5
3F9
100
AcDbEntity
  8
2
100
AcDbCircle
 10
-178.661493
 20
14.867497
 30
0.0
 40
5.775863
100
AcDbArc
 50
0.0
 51
36.186897
  0
ARC
  5
3FA
100
AcDbEntity
  8
2
100
AcDbCircle
 10
-172.385631
 20
19.458531
 30
0.0
 40
2.0
100
AcDbArc
 50
180.0
 51
216.186897
  0
ARC
  5
3FB
100
AcDbEntity
  8
2
100
AcDbCircle
 10
-174.334595
 20
14.867497
 30
0.0
 40
1.448964
100
AcDbArc
 50
299.278688
 51
360.0
  0
ARC
  5
3FC
100
AcDbEntity
  8
2
100
AcDbCircle
 10
-175.060399
 20
18.969737
 30
0.0
 40
2.174768
100
AcDbArc
 50
301.838348
 51
315.908947
  0
ARC
  5
3FD
100
AcDbEntity
  8
2
100
AcDbCircle
 10
-173.385631
 20
16.272645
 30
0.0
 40
1.0
100
AcDbArc
 50
121.838348
 51
180.0
  0
ARC
  5
3FE
100
AcDbEntity
  8
2
100
AcDbCircle
 10
-171.385631
 20
14.673085
 30
0.0
 40
3.0
100
AcDbArc
 50
180.0
 51
250.978517
  0
ARC
  5
3FF
100
AcDbEntity
  8
2
100
AcDbCircle
 10
-173.381438
 20
13.167511
 30
0.0
 40
0.5
100
AcDbArc
 50
119.278688
 51
217.02975
  0
LINE
  5
400
100
AcDbEntity
  8
2
100
AcDbLine
 10
230.514369
 20
110.73269
 30
0.0
 11
79.514369
 21
110.73269
 31
0.0
  0
CIRCLE
  5
401
100
AcDbEntity
  8
2
100
AcDbCircle
 10
203.514369
 20
110.73269
 30
0.0
 40
6.25
  0
LINE
  5
402
100
AcDbEntity
  8
2
100
AcDbLine
 10
196.014369
 20
110.73269
 30
0.0
 11
199.764369
 21
117.227881
 31
0.0
  0
LINE
  5
403
100
AcDbEntity
  8
2
100
AcDbLine
 10
199.764369
 20
117.227881
 30
0.0
 11
207.264369
 21
117.227881
 31
0.0
  0
LINE
  5
404
100
AcDbEntity
  8
2
100
AcDbLine
 10
207.264369
 20
117.227881
 30
0.0
 11
211.014369
 21
110.73269
 31
0.0
  0
LINE
  5
405
100
AcDbEntity
  8
2
100
AcDbLine
 10
211.014369
 20
110.73269
 30
0.0
 11
207.264369
 21
104.2375
 31
0.0
  0
LINE
  5
406
100
AcDbEntity
  8
2
100
AcDbLine
 10
207.264369
 20
104.2375
 30
0.0
 11
199.764369
 21
104.2375
 31
0.0
  0
LINE
  5
407
100
AcDbEntity
  8
2
100
AcDbLine
 10
199.764369
 20
104.2375
 30
0.0
 11
196.014369
 21
110.73269
 31
0.0
  0
CIRCLE
  5
408
100
AcDbEntity
  8
2
100
AcDbCircle
 10
203.514369
 20
110.73269
 30
0.0
 40
7.7
  0
LINE
  5
409
100
AcDbEntity
  8
2
  6
CENTER
 62
     2
100
AcDbLine
 10
203.514369
 20
-6.151566
 30
0.0
 11
203.514369
 21
226.026683
 31
0.0
  0
LINE
  5
40A
100
AcDbEntity
  8
2
  6
CENTER
 62
     2
100
AcDbLine
 10
319.780971
 20
110.73269
 30
0.0
 11
58.60052
 21
110.73269
 31
0.0
  0
LINE
  5
40B
100
AcDbEntity
  8
2
100
AcDbLine
 10
203.514369
 20
137.73269
 30
0.0
 11
90.419025
 21
137.73269
 31
0.0
  0
ARC
  5
40C
100
AcDbEntity
  8
2
100
AcDbCircle
 10
203.514369
 20
110.73269
 30
0.0
 40
27.0
100
AcDbArc
 50
270.0
 51
90.0
  0
CIRCLE
  5
40D
100
AcDbEntity
  8
2
100
AcDbCircle
 10
203.514369
 20
110.73269
 30
0.0
 40
8.0
  0
LINE
  5
40E
100
AcDbEntity
  8
2
100
AcDbLine
 10
79.514369
 20
110.73269
 30
0.0
 11
80.432729
 21
128.25605
 31
0.0
  0
ARC
  5
40F
100
AcDbEntity
  8
2
100
AcDbCircle
 10
90.419025
 20
127.73269
 30
0.0
 40
10.0
100
AcDbArc
 50
90.0
 51
177.0
  0
LINE
  5
410
100
AcDbEntity
  8
2
100
AcDbLine
 10
178.514369
 20
138.73269
 30
0.0
 11
92.514369
 21
138.73269
 31
0.0
  0
LINE
  5
411
100
AcDbEntity
  8
2
100
AcDbLine
 10
92.514369
 20
138.73269
 30
0.0
 11
91.514369
 21
137.73269
 31
0.0
  0
LINE
  5
412
100
AcDbEntity
  8
2
100
AcDbLine
 10
171.897106
 20
138.73269
 30
0.0
 11
172.912389
 21
137.73269
 31
0.0
  0
LINE
  5
413
100
AcDbEntity
  8
2
100
AcDbLine
 10
95.315884
 20
137.73269
 30
0.0
 11
96.315884
 21
138.73269
 31
0.0
  0
LINE
  5
414
100
AcDbEntity
  8
2
100
AcDbLine
 10
107.079015
 20
138.73269
 30
0.0
 11
107.734881
 21
137.73269
 31
0.0
  0
LINE
  5
415
100
AcDbEntity
  8
2
100
AcDbLine
 10
111.257835
 20
137.73269
 30
0.0
 11
111.776287
 21
138.73269
 31
0.0
  0
LINE
  5
416
100
AcDbEntity
  8
2
  6
CENTER
 62
     2
100
AcDbLine
 10
102.815884
 20
148.060569
 30
0.0
 11
102.815884
 21
128.253753
 31
0.0
  0
LINE
  5
417
100
AcDbEntity
  8
2
100
AcDbLine
 10
169.712854
 20
137.73269
 30
0.0
 11
168.712854
 21
138.73269
 31
0.0
  0
LINE
  5
418
100
AcDbEntity
  8
2
100
AcDbLine
 10
157.949724
 20
138.73269
 30
0.0
 11
157.293857
 21
137.73269
 31
0.0
  0
LINE
  5
419
100
AcDbEntity
  8
2
100
AcDbLine
 10
153.770903
 20
137.73269
 30
0.0
 11
153.252451
 21
138.73269
 31
0.0
  0
LINE
  5
41A
100
AcDbEntity
  8
2
  6
CENTER
 62
     2
100
AcDbLine
 10
162.212854
 20
148.060569
 30
0.0
 11
162.212854
 21
128.253753
 31
0.0
  0
LINE
  5
41B
100
AcDbEntity
  8
2
100
AcDbLine
 10
177.514369
 20
139.73269
 30
0.0
 11
104.014369
 21
139.73269
 31
0.0
  0
LINE
  5
41C
100
AcDbEntity
  8
2
100
AcDbLine
 10
178.514369
 20
138.73269
 30
0.0
 11
178.514369
 21
137.73269
 31
0.0
  0
LINE
  5
41D
100
AcDbEntity
  8
2
100
AcDbLine
 10
103.014369
 20
138.73269
 30
0.0
 11
104.014369
 21
139.73269
 31
0.0
  0
LINE
  5
41E
100
AcDbEntity
  8
2
100
AcDbLine
 10
177.514369
 20
139.73269
 30
0.0
 11
178.514369
 21
138.73269
 31
0.0
  0
LINE
  5
41F
100
AcDbEntity
  8
2
100
AcDbLine
 10
160.375633
 20
139.73269
 30
0.0
 11
161.171829
 21
138.73269
 31
0.0
  0
LINE
  5
420
100
AcDbEntity
  8
2
100
AcDbLine
 10
136.164369
 20
166.73269
 30
0.0
 11
128.864369
 21
166.73269
 31
0.0
  0
LINE
  5
421
100
AcDbEntity
  8
2
100
AcDbLine
 10
150.514369
 20
140.73269
 30
0.0
 11
114.514369
 21
140.73269
 31
0.0
  0
LINE
  5
422
100
AcDbEntity
  8
2
100
AcDbLine
 10
113.514369
 20
139.73269
 30
0.0
 11
114.514369
 21
140.73269
 31
0.0
  0
LINE
  5
423
100
AcDbEntity
  8
2
100
AcDbLine
 10
151.514369
 20
139.73269
 30
0.0
 11
150.514369
 21
140.73269
 31
0.0
  0
LINE
  5
424
100
AcDbEntity
  8
2
  6
CENTER
 62
     2
100
AcDbLine
 10
141.102046
 20
159.73269
 30
0.0
 11
123.763576
 21
159.73269
 31
0.0
  0
LINE
  5
425
100
AcDbEntity
  8
2
100
AcDbLine
 10
125.514369
 20
137.73269
 30
0.0
 11
125.514369
 21
138.73269
 31
0.0
  0
LINE
  5
426
100
AcDbEntity
  8
2
100
AcDbLine
 10
139.514369
 20
137.73269
 30
0.0
 11
139.514369
 21
138.73269
 31
0.0
  0
LINE
  5
427
100
AcDbEntity
  8
2
100
AcDbLine
 10
139.514369
 20
138.73269
 30
0.0
 11
138.514369
 21
139.73269
 31
0.0
  0
LINE
  5
428
100
AcDbEntity
  8
2
100
AcDbLine
 10
125.514369
 20
138.73269
 30
0.0
 11
126.514369
 21
139.73269
 31
0.0
  0
LINE
  5
429
100
AcDbEntity
  8
2
100
AcDbLine
 10
128.864369
 20
166.73269
 30
0.0
 11
128.414369
 21
140.73269
 31
0.0
  0
LINE
  5
42A
100
AcDbEntity
  8
2
100
AcDbLine
 10
136.614369
 20
140.73269
 30
0.0
 11
136.164369
 21
166.73269
 31
0.0
  0
LINE
  5
42B
100
AcDbEntity
  8
2
100
AcDbLine
 10
131.214369
 20
140.73269
 30
0.0
 11
131.664369
 21
166.73269
 31
0.0
  0
LINE
  5
42C
100
AcDbEntity
  8
2
100
AcDbLine
 10
133.814369
 20
140.73269
 30
0.0
 11
133.364369
 21
166.73269
 31
0.0
  0
LINE
  5
42D
100
AcDbEntity
  8
2
100
AcDbLine
 10
79.514369
 20
110.73269
 30
0.0
 11
80.219131
 21
97.285026
 31
0.0
  0
LINE
  5
42E
100
AcDbEntity
  8
2
  6
CENTER
 62
     2
100
AcDbLine
 10
167.514369
 20
95.003005
 30
0.0
 11
167.514369
 21
114.611602
 31
0.0
  0
LINE
  5
42F
100
AcDbEntity
  8
2
100
AcDbLine
 10
161.488851
 20
105.73269
 30
0.0
 11
173.539887
 21
105.73269
 31
0.0
  0
LINE
  5
430
100
AcDbEntity
  8
2
100
AcDbLine
 10
215.488851
 20
105.73269
 30
0.0
 11
229.204834
 21
105.73269
 31
0.0
  0
LINE
  5
431
100
AcDbEntity
  8
2
100
AcDbLine
 10
214.989537
 20
105.258858
 30
0.0
 11
214.005116
 21
86.474989
 31
0.0
  0
ARC
  5
432
100
AcDbEntity
  8
2
100
AcDbCircle
 10
215.488851
 20
105.23269
 30
0.0
 40
0.5
100
AcDbArc
 50
90.0
 51
177.0
  0
ARC
  5
433
100
AcDbEntity
  8
2
100
AcDbCircle
 10
229.204834
 20
106.73269
 30
0.0
 40
1.0
100
AcDbArc
 50
270.0
 51
351.150117
  0
ARC
  5
434
100
AcDbEntity
  8
2
100
AcDbCircle
 10
213.006486
 20
86.527325
 30
0.0
 40
1.0
100
AcDbArc
 50
291.412594
 51
357.0
  0
LINE
  5
435
100
AcDbEntity
  8
2
100
AcDbLine
 10
160.989537
 20
105.258858
 30
0.0
 11
159.308373
 21
73.180354
 31
0.0
  0
LINE
  5
436
100
AcDbEntity
  8
2
100
AcDbLine
 10
174.039202
 20
105.258858
 30
0.0
 11
175.720365
 21
73.180354
 31
0.0
  0
ARC
  5
437
100
AcDbEntity
  8
2
100
AcDbCircle
 10
161.488851
 20
105.23269
 30
0.0
 40
0.5
100
AcDbArc
 50
90.0
 51
177.0
  0
ARC
  5
438
100
AcDbEntity
  8
2
100
AcDbCircle
 10
173.539887
 20
105.23269
 30
0.0
 40
0.5
100
AcDbArc
 50
3.0
 51
90.0
  0
ARC
  5
439
100
AcDbEntity
  8
2
100
AcDbCircle
 10
176.116305
 20
84.73269
 30
0.0
 40
1.0
100
AcDbArc
 50
183.0
 51
270.0
  0
ARC
  5
43A
100
AcDbEntity
  8
2
100
AcDbCircle
 10
158.912433
 20
84.73269
 30
0.0
 40
1.0
100
AcDbArc
 50
270.0
 51
357.0
  0
LINE
  5
43B
100
AcDbEntity
  8
2
100
AcDbLine
 10
172.514369
 20
105.73269
 30
0.0
 11
172.514369
 21
100.13269
 31
0.0
  0
LINE
  5
43C
100
AcDbEntity
  8
2
100
AcDbLine
 10
172.514369
 20
100.13269
 30
0.0
 11
171.821549
 21
99.73269
 31
0.0
  0
LINE
  5
43D
100
AcDbEntity
  8
2
100
AcDbLine
 10
172.514369
 20
100.13269
 30
0.0
 11
162.514369
 21
100.13269
 31
0.0
  0
LINE
  5
43E
100
AcDbEntity
  8
2
100
AcDbLine
 10
162.514369
 20
105.73269
 30
0.0
 11
162.514369
 21
100.13269
 31
0.0
  0
LINE
  5
43F
100
AcDbEntity
  8
2
100
AcDbLine
 10
162.514369
 20
100.13269
 30
0.0
 11
163.207189
 21
99.73269
 31
0.0
  0
LINE
  5
440
100
AcDbEntity
  8
2
100
AcDbLine
 10
163.207189
 20
99.73269
 30
0.0
 11
171.821549
 21
99.73269
 31
0.0
  0
LINE
  5
441
100
AcDbEntity
  8
2
  6
CENTER
 62
     2
100
AcDbLine
 10
221.514369
 20
95.003005
 30
0.0
 11
221.514369
 21
114.611602
 31
0.0
  0
LINE
  5
442
100
AcDbEntity
  8
2
100
AcDbLine
 10
226.514369
 20
105.73269
 30
0.0
 11
226.514369
 21
100.13269
 31
0.0
  0
LINE
  5
443
100
AcDbEntity
  8
2
100
AcDbLine
 10
226.514369
 20
100.13269
 30
0.0
 11
225.821549
 21
99.73269
 31
0.0
  0
LINE
  5
444
100
AcDbEntity
  8
2
100
AcDbLine
 10
226.514369
 20
100.13269
 30
0.0
 11
216.514369
 21
100.13269
 31
0.0
  0
LINE
  5
445
100
AcDbEntity
  8
2
100
AcDbLine
 10
216.514369
 20
105.73269
 30
0.0
 11
216.514369
 21
100.13269
 31
0.0
  0
LINE
  5
446
100
AcDbEntity
  8
2
100
AcDbLine
 10
216.514369
 20
100.13269
 30
0.0
 11
217.207189
 21
99.73269
 31
0.0
  0
LINE
  5
447
100
AcDbEntity
  8
2
100
AcDbLine
 10
217.207189
 20
99.73269
 30
0.0
 11
225.821549
 21
99.73269
 31
0.0
  0
LINE
  5
448
100
AcDbEntity
  8
2
100
AcDbLine
 10
79.514369
 20
110.73269
 30
0.0
 11
79.514369
 21
96.276844
 31
0.0
  0
LINE
  5
449
100
AcDbEntity
  8
2
  6
CENTER
 62
     2
100
AcDbLine
 10
88.891231
 20
101.73269
 30
0.0
 11
59.712344
 21
101.73269
 31
0.0
  0
LINE
  5
44A
100
AcDbEntity
  8
2
100
AcDbLine
 10
73.643724
 20
93.23269
 30
0.0
 11
71.514369
 21
93.23269
 31
0.0
  0
LINE
  5
44B
100
AcDbEntity
  8
2
100
AcDbLine
 10
71.514369
 20
93.23269
 30
0.0
 11
71.514369
 21
110.23269
 31
0.0
  0
ARC
  5
44C
100
AcDbEntity
  8
2
100
AcDbCircle
 10
82.053805
 20
97.48269
 30
0.0
 40
10.539436
100
AcDbArc
 50
156.218654
 51
203.781346
  0
LINE
  5
44D
100
AcDbEntity
  8
2
100
AcDbLine
 10
79.514369
 20
110.23269
 30
0.0
 11
71.514369
 21
110.23269
 31
0.0
  0
LINE
  5
44E
100
AcDbEntity
  8
2
100
AcDbLine
 10
79.514369
 20
101.73269
 30
0.0
 11
72.409262
 21
101.73269
 31
0.0
  0
ARC
  5
44F
100
AcDbEntity
  8
2
100
AcDbCircle
 10
82.053805
 20
105.98269
 30
0.0
 40
10.539436
100
AcDbArc
 50
156.218654
 51
203.781346
  0
LINE
  5
450
100
AcDbEntity
  8
2
100
AcDbLine
 10
67.514369
 20
105.92069
 30
0.0
 11
68.326369
 21
106.73269
 31
0.0
  0
LINE
  5
451
100
AcDbEntity
  8
2
100
AcDbLine
 10
68.326369
 20
106.73269
 30
0.0
 11
71.514369
 21
106.73269
 31
0.0
  0
LINE
  5
452
100
AcDbEntity
  8
2
100
AcDbLine
 10
68.326369
 20
106.73269
 30
0.0
 11
68.326369
 21
96.73269
 31
0.0
  0
LINE
  5
453
100
AcDbEntity
  8
2
 62
     2
100
AcDbLine
 10
67.514369
 20
105.92069
 30
0.0
 11
71.514369
 21
105.92069
 31
0.0
  0
LINE
  5
454
100
AcDbEntity
  8
2
100
AcDbLine
 10
67.514369
 20
97.54469
 30
0.0
 11
67.514369
 21
105.92069
 31
0.0
  0
LINE
  5
455
100
AcDbEntity
  8
2
100
AcDbLine
 10
67.514369
 20
97.54469
 30
0.0
 11
68.326369
 21
96.73269
 31
0.0
  0
LINE
  5
456
100
AcDbEntity
  8
2
100
AcDbLine
 10
68.326369
 20
96.73269
 30
0.0
 11
71.514369
 21
96.73269
 31
0.0
  0
LINE
  5
457
100
AcDbEntity
  8
2
 62
     2
100
AcDbLine
 10
67.514369
 20
97.54469
 30
0.0
 11
71.514369
 21
97.54469
 31
0.0
  0
LINE
  5
458
100
AcDbEntity
  8
2
100
AcDbLine
 10
117.108348
 20
83.73269
 30
0.0
 11
158.912433
 21
83.73269
 31
0.0
  0
LINE
  5
459
100
AcDbEntity
  8
2
100
AcDbLine
 10
176.116305
 20
83.73269
 30
0.0
 11
203.514369
 21
83.73269
 31
0.0
  0
LINE
  5
45A
100
AcDbEntity
  8
2
100
AcDbLine
 10
70.014369
 20
72.23269
 30
0.0
 11
195.014369
 21
72.23269
 31
0.0
  0
LINE
  5
45B
100
AcDbEntity
  8
2
100
AcDbLine
 10
70.014369
 20
72.23269
 30
0.0
 11
70.014369
 21
94.23269
 31
0.0
  0
LINE
  5
45C
100
AcDbEntity
  8
2
100
AcDbLine
 10
75.643724
 20
96.23269
 30
0.0
 11
116.108348
 21
96.23269
 31
0.0
  0
ARC
  5
45D
100
AcDbEntity
  8
2
100
AcDbCircle
 10
72.014369
 20
94.23269
 30
0.0
 40
2.0
100
AcDbArc
 50
104.477512
 51
180.0
  0
LINE
  5
45E
100
AcDbEntity
  8
2
100
AcDbLine
 10
117.108348
 20
96.23269
 30
0.0
 11
117.108348
 21
83.73269
 31
0.0
  0
LINE
  5
45F
100
AcDbEntity
  8
2
100
AcDbLine
 10
195.014369
 20
72.23269
 30
0.0
 11
195.014369
 21
81.73269
 31
0.0
  0
ARC
  5
460
100
AcDbEntity
  8
2
100
AcDbCircle
 10
197.014369
 20
81.73269
 30
0.0
 40
2.0
100
AcDbArc
 50
90.0
 51
180.0
  0
LINE
  5
461
100
AcDbEntity
  8
2
100
AcDbLine
 10
73.643724
 20
94.23269
 30
0.0
 11
73.643724
 21
89.23269
 31
0.0
  0
LINE
  5
462
100
AcDbEntity
  8
2
100
AcDbLine
 10
71.014369
 20
88.23269
 30
0.0
 11
72.643724
 21
88.23269
 31
0.0
  0
ARC
  5
463
100
AcDbEntity
  8
2
100
AcDbCircle
 10
71.014369
 20
87.23269
 30
0.0
 40
1.0
100
AcDbArc
 50
90.0
 51
180.0
  0
ARC
  5
464
100
AcDbEntity
  8
2
100
AcDbCircle
 10
72.643724
 20
89.23269
 30
0.0
 40
1.0
100
AcDbArc
 50
270.0
 51
0.0
  0
ARC
  5
465
100
AcDbEntity
  8
2
100
AcDbCircle
 10
75.643724
 20
94.23269
 30
0.0
 40
2.0
100
AcDbArc
 50
90.0
 51
180.0
  0
ARC
  5
466
100
AcDbEntity
  8
2
100
AcDbCircle
 10
176.718994
 20
73.23269
 30
0.0
 40
1.0
100
AcDbArc
 50
183.0
 51
270.0
  0
ARC
  5
467
100
AcDbEntity
  8
2
100
AcDbCircle
 10
158.309744
 20
73.23269
 30
0.0
 40
1.0
100
AcDbArc
 50
270.0
 51
357.0
  0
ARC
  5
468
100
AcDbEntity
  8
2
100
AcDbCircle
 10
79.220502
 20
97.23269
 30
0.0
 40
1.0
100
AcDbArc
 50
270.0
 51
3.0
  0
ARC
  5
469
100
AcDbEntity
  8
2
100
AcDbCircle
 10
116.108348
 20
97.23269
 30
0.0
 40
1.0
100
AcDbArc
 50
270.0
 51
360.0
  0
LINE
  5
46A
100
AcDbEntity
  8
2
  6
CENTER
 62
     2
100
AcDbLine
 10
176.708543
 20
62.647124
 30
0.0
 11
176.708543
 21
83.209121
 31
0.0
  0
LINE
  5
46B
100
AcDbEntity
  8
2
  6
CENTER
 62
     2
100
AcDbLine
 10
88.320195
 20
62.647124
 30
0.0
 11
88.320195
 21
83.209121
 31
0.0
  0
CIRCLE
  5
46C
100
AcDbEntity
  8
2
  6
PHANTOM
 62
     2
100
AcDbCircle
 10
203.514369
 20
110.73269
 30
0.0
 40
100.0
  0
CIRCLE
  5
46D
100
AcDbEntity
  8
2
  6
PHANTOM
 62
     2
100
AcDbCircle
 10
203.514369
 20
110.73269
 30
0.0
 40
20.5
  0
LINE
  5
46E
100
AcDbEntity
  8
2
  6
PHANTOM
 62
     2
100
AcDbLine
 10
192.514369
 20
134.317643
 30
0.0
 11
192.514369
 21
185.832624
 31
0.0
  0
LINE
  5
46F
100
AcDbEntity
  8
2
  6
PHANTOM
 62
     2
100
AcDbLine
 10
214.514369
 20
134.317643
 30
0.0
 11
214.514369
 21
185.832624
 31
0.0
  0
CIRCLE
  5
470
100
AcDbEntity
  8
2
  6
PHANTOM
 62
     2
100
AcDbCircle
 10
203.514369
 20
110.73269
 30
0.0
 40
23.5
  0
ARC
  5
471
100
AcDbEntity
  8
2
  6
PHANTOM
 62
     2
100
AcDbCircle
 10
203.514369
 20
110.73269
 30
0.0
 40
83.0
100
AcDbArc
 50
82.384177
 51
97.615823
  0
ARC
  5
472
100
AcDbEntity
  8
2
  6
PHANTOM
 62
     2
100
AcDbCircle
 10
220.514369
 20
185.832624
 30
0.0
 40
6.0
100
AcDbArc
 50
77.245196
 51
180.0
  0
ARC
  5
473
100
AcDbEntity
  8
2
  6
PHANTOM
 62
     2
100
AcDbCircle
 10
186.514369
 20
185.832624
 30
0.0
 40
6.0
100
AcDbArc
 50
0.0
 51
102.754804
  0
ARC
  5
474
100
AcDbEntity
  8
2
  6
PHANTOM
 62
     2
100
AcDbCircle
 10
219.514369
 20
134.317643
 30
0.0
 40
5.0
100
AcDbArc
 50
180.0
 51
235.847085
  0
ARC
  5
475
100
AcDbEntity
  8
2
  6
PHANTOM
 62
     2
100
AcDbCircle
 10
187.514369
 20
134.317643
 30
0.0
 40
5.0
100
AcDbArc
 50
304.152915
 51
360.0
  0
LINE
  5
476
100
AcDbEntity
  8
2
  6
PHANTOM
 62
     2
100
AcDbLine
 10
188.589201
 20
89.413934
 30
0.0
 11
143.975919
 21
63.656444
 31
0.0
  0
LINE
  5
477
100
AcDbEntity
  8
2
  6
PHANTOM
 62
     2
100
AcDbLine
 10
177.589201
 20
108.466493
 30
0.0
 11
132.975919
 21
82.709003
 31
0.0
  0
ARC
  5
478
100
AcDbEntity
  8
2
  6
PHANTOM
 62
     2
100
AcDbCircle
 10
203.514369
 20
110.73269
 30
0.0
 40
83.0
100
AcDbArc
 50
202.384177
 51
217.615823
  0
ARC
  5
479
100
AcDbEntity
  8
2
  6
PHANTOM
 62
     2
100
AcDbCircle
 10
129.975919
 20
87.905155
 30
0.0
 40
6.0
100
AcDbArc
 50
197.245196
 51
300.0
  0
ARC
  5
47A
100
AcDbEntity
  8
2
  6
PHANTOM
 62
     2
100
AcDbCircle
 10
146.975919
 20
58.460292
 30
0.0
 40
6.0
100
AcDbArc
 50
120.0
 51
222.754804
  0
ARC
  5
47B
100
AcDbEntity
  8
2
  6
PHANTOM
 62
     2
100
AcDbCircle
 10
175.089201
 20
112.79662
 30
0.0
 40
5.0
100
AcDbArc
 50
300.0
 51
355.847085
  0
ARC
  5
47C
100
AcDbEntity
  8
2
  6
PHANTOM
 62
     2
100
AcDbCircle
 10
191.089201
 20
85.083807
 30
0.0
 40
5.0
100
AcDbArc
 50
64.152915
 51
120.0
  0
LINE
  5
47D
100
AcDbEntity
  8
2
  6
PHANTOM
 62
     2
100
AcDbLine
 10
229.439537
 20
108.466493
 30
0.0
 11
274.052819
 21
82.709003
 31
0.0
  0
LINE
  5
47E
100
AcDbEntity
  8
2
  6
PHANTOM
 62
     2
100
AcDbLine
 10
218.439537
 20
89.413934
 30
0.0
 11
263.052819
 21
63.656444
 31
0.0
  0
ARC
  5
47F
100
AcDbEntity
  8
2
  6
PHANTOM
 62
     2
100
AcDbCircle
 10
203.514369
 20
110.73269
 30
0.0
 40
83.0
100
AcDbArc
 50
322.384177
 51
337.615823
  0
ARC
  5
480
100
AcDbEntity
  8
2
  6
PHANTOM
 62
     2
100
AcDbCircle
 10
260.052819
 20
58.460292
 30
0.0
 40
6.0
100
AcDbArc
 50
317.245196
 51
60.0
  0
ARC
  5
481
100
AcDbEntity
  8
2
  6
PHANTOM
 62
     2
100
AcDbCircle
 10
277.052819
 20
87.905155
 30
0.0
 40
6.0
100
AcDbArc
 50
240.0
 51
342.754804
  0
ARC
  5
482
100
AcDbEntity
  8
2
  6
PHANTOM
 62
     2
100
AcDbCircle
 10
215.939537
 20
85.083807
 30
0.0
 40
5.0
100
AcDbArc
 50
60.0
 51
115.847085
  0
ARC
  5
483
100
AcDbEntity
  8
2
  6
PHANTOM
 62
     2
100
AcDbCircle
 10
231.939537
 20
112.79662
 30
0.0
 40
5.0
100
AcDbArc
 50
184.152915
 51
240.0
  0
ARC
  5
484
100
AcDbEntity
  8
2
  6
PHANTOM
 62
     2
100
AcDbCircle
 10
203.514369
 20
110.73269
 30
0.0
 40
83.0
100
AcDbArc
 50
102.754804
 51
197.245196
  0
ARC
  5
485
100
AcDbEntity
  8
2
  6
PHANTOM
 62
     2
100
AcDbCircle
 10
203.514369
 20
110.73269
 30
0.0
 40
83.0
100
AcDbArc
 50
222.754804
 51
317.245196
  0
ARC
  5
486
100
AcDbEntity
  8
2
  6
PHANTOM
 62
     2
100
AcDbCircle
 10
203.514369
 20
110.73269
 30
0.0
 40
83.0
100
AcDbArc
 50
342.754804
 51
77.245196
  0
DIMENSION
  5
487
100
AcDbEntity
  8
5
100
AcDbDimension
  2
*D0
 10
171.514369
 20
-536.586914
 30
0.0
 11
132.514369
 21
-527.986914
 31
0.0
  1
78
100
AcDbAlignedDimension
 13
93.514369
 23
-422.26731
 33
0.0
 14
171.514369
 24
-422.26731
 34
0.0
100
AcDbRotatedDimension
  0
DIMENSION
  5
488
100
AcDbEntity
  8
5
100
AcDbDimension
  2
*D1
 10
-7.291853
 20
72.23269
 30
0.0
 11
-23.151853
 21
-84.42731
 31
0.0
  1
312
100
AcDbAlignedDimension
 13
69.814369
 23
-239.76731
 33
0.0
 14
70.014369
 24
72.23269
 34
0.0
 50
90.0
100
AcDbRotatedDimension
  0
DIMENSION
  5
489
100
AcDbEntity
  8
5
100
AcDbDimension
  2
*D2
 10
-7.291853
 20
110.73269
 30
0.0
 11
-27.771853
 21
86.20269
 31
0.0
  1
38.5
100
AcDbAlignedDimension
 13
-7.291853
 23
72.23269
 33
0.0
 14
58.60052
 24
110.73269
 34
0.0
 50
90.0
100
AcDbRotatedDimension
  0
TEXT
  5
48A
100
AcDbEntity
  8
5
100
AcDbText
 10
-257.445631
 20
493.042633
 30
0.0
 40
13.2
  1
193
 41
1.4
 72
     5
 11
-233.421631
 21
493.042633
 31
0.0
100
AcDbText
  0
DIMENSION
  5
48B
100
AcDbEntity
  8
5
100
AcDbDimension
  2
*D3
 10
-148.285631
 20
491.042633
 30
0.0
 11
-243.585631
 21
493.042633
 31
0.0
100
AcDbAlignedDimension
 13
-338.885631
 23
419.966339
 33
0.0
 14
-148.285631
 24
381.016023
 34
0.0
100
AcDbRotatedDimension
  0
DIMENSION
  5
48C
100
AcDbEntity
  8
5
100
AcDbDimension
  2
*D4
 10
-103.525436
 20
374.766023
 30
0.0
 11
-114.765436
 21
343.226023
 31
0.0
  1
71
100
AcDbAlignedDimension
 13
-141.506851
 23
303.766023
 33
0.0
 14
-133.213008
 24
374.766023
 34
0.0
 50
90.0
100
AcDbRotatedDimension
  0
DIMENSION
  5
48D
100
AcDbEntity
  8
5
100
AcDbDimension
  2
*D5
 10
-103.525436
 20
303.766023
 30
0.0
 11
-114.765436
 21
275.226023
 31
0.0
  1
65
100
AcDbAlignedDimension
 13
-302.697631
 23
238.766023
 33
0.0
 14
-103.525436
 24
303.766023
 34
0.0
 50
90.0
100
AcDbRotatedDimension
  0
DIMENSION
  5
48E
100
AcDbEntity
  8
5
100
AcDbDimension
  2
*D6
 10
-102.799149
 20
10.73269
 30
0.0
 11
-123.279148
 21
105.45269
 31
0.0
 70
     1
  1
%%c200
100
AcDbAlignedDimension
 13
-168.885631
 23
210.73269
 33
0.0
 14
-168.885631
 24
10.73269
 34
0.0
 50
270.0
  0
TEXT
  5
48F
100
AcDbEntity
  8
5
100
AcDbText
 10
-9.291853
 20
-407.497309
 30
0.0
 40
13.2
  1
253(概略)
 50
90.0
 41
1.4
 72
     5
 11
-9.291854
 21
-328.03331
 31
0.0
100
AcDbText
  0
DIMENSION
  5
490
100
AcDbEntity
  8
5
100
AcDbDimension
  2
*D7
 10
-7.291853
 20
-239.76731
 30
0.0
 11
-9.791853
 21
-365.91731
 31
0.0
100
AcDbAlignedDimension
 13
126.014369
 23
-492.06731
 33
0.0
 14
69.814369
 24
-239.76731
 34
0.0
 50
90.0
100
AcDbRotatedDimension
  0
TEXT
  5
491
100
AcDbEntity
  8
18
100
AcDbText
 10
488.675201
 20
-532.194153
 30
0.0
 40
12.0
  1
１
 72
     5
 11
498.275201
 21
-532.194153
 31
0.0
100
AcDbText
  0
TEXT
  5
492
100
AcDbEntity
  8
18
100
AcDbText
 10
507.024292
 20
-547.251343
 30
0.0
 40
12.0
  1
４
 72
     5
 11
516.624292
 21
-547.251343
 31
0.0
100
AcDbText
  0
TEXT
  5
493
100
AcDbEntity
  8
18
100
AcDbText
 10
491.416962
 20
-508.141052
 30
0.0
 40
12.0
  1
標準仕様　ＪＩＳ　５，１０Ｋ
 72
     5
 11
657.016962
 21
-508.141052
 31
0.0
100
AcDbText
  0
TEXT
  5
494
100
AcDbEntity
  8
18
100
AcDbText
 10
491.416962
 20
-492.141052
 30
0.0
 40
12.0
  1
７００Ｇ－２ＩＡＳ　３００Ａ
 72
     5
 11
657.016962
 21
-492.141052
 31
0.0
100
AcDbText
  0
LINE
  5
495
100
AcDbEntity
  8
18
100
AcDbLine
 10
416.825462
 20
-215.137652
 30
0.0
 11
616.825462
 21
-215.137652
 31
0.0
  0
LINE
  5
496
100
AcDbEntity
  8
18
100
AcDbLine
 10
416.825462
 20
-295.137652
 30
0.0
 11
616.825462
 21
-295.137652
 31
0.0
  0
LINE
  5
497
100
AcDbEntity
  8
18
100
AcDbLine
 10
416.825462
 20
-315.137652
 30
0.0
 11
616.825462
 21
-315.137652
 31
0.0
  0
LINE
  5
498
100
AcDbEntity
  8
18
100
AcDbLine
 10
416.825462
 20
-335.137652
 30
0.0
 11
616.825462
 21
-335.137652
 31
0.0
  0
LINE
  5
499
100
AcDbEntity
  8
18
100
AcDbLine
 10
416.825462
 20
-215.137652
 30
0.0
 11
416.825462
 21
-335.137652
 31
0.0
  0
LINE
  5
49A
100
AcDbEntity
  8
18
100
AcDbLine
 10
516.825462
 20
-215.137652
 30
0.0
 11
516.825462
 21
-315.137652
 31
0.0
  0
LINE
  5
49B
100
AcDbEntity
  8
18
100
AcDbLine
 10
616.825462
 20
-215.137652
 30
0.0
 11
616.825462
 21
-335.137652
 31
0.0
  0
TEXT
  5
49C
100
AcDbEntity
  8
18
100
AcDbText
 10
457.348412
 20
-310.426135
 30
0.0
 40
12.0
  1
A
 72
     5
 11
466.948412
 21
-310.426135
 31
0.0
100
AcDbText
  0
TEXT
  5
49D
100
AcDbEntity
  8
18
100
AcDbText
 10
557.348412
 20
-310.426135
 30
0.0
 40
12.0
  1
B
 72
     5
 11
566.948412
 21
-310.426135
 31
0.0
100
AcDbText
  0
LINE
  5
49E
100
AcDbEntity
  8
18
  6
CENTER
 62
     2
100
AcDbLine
 10
432.458641
 20
-269.448733
 30
0.0
 11
492.101585
 21
-269.448733
 31
0.0
  0
LINE
  5
49F
100
AcDbEntity
  8
18
  6
CENTER
 62
     2
100
AcDbLine
 10
462.550194
 20
-241.702899
 30
0.0
 11
462.550194
 21
-284.648287
 31
0.0
  0
LINE
  5
4A0
100
AcDbEntity
  8
18
100
AcDbLine
 10
488.550194
 20
-262.248733
 30
0.0
 11
488.550194
 21
-276.648733
 31
0.0
  0
LINE
  5
4A1
100
AcDbEntity
  8
18
100
AcDbLine
 10
436.550194
 20
-262.248733
 30
0.0
 11
436.550194
 21
-276.648733
 31
0.0
  0
LINE
  5
4A2
100
AcDbEntity
  8
18
100
AcDbLine
 10
453.337149
 20
-245.448733
 30
0.0
 11
475.750194
 21
-245.448733
 31
0.0
  0
LINE
  5
4A3
100
AcDbEntity
  8
18
100
AcDbLine
 10
476.150194
 20
-253.448733
 30
0.0
 11
496.843163
 21
-253.448733
 31
0.0
  0
LINE
  5
4A4
100
AcDbEntity
  8
18
100
AcDbLine
 10
496.843163
 20
-239.848733
 30
0.0
 11
496.843163
 21
-263.048733
 31
0.0
  0
LINE
  5
4A5
100
AcDbEntity
  8
18
100
AcDbLine
 10
501.643163
 20
-239.848733
 30
0.0
 11
501.643163
 21
-263.048733
 31
0.0
  0
LINE
  5
4A6
100
AcDbEntity
  8
18
100
AcDbLine
 10
476.150194
 20
-249.448733
 30
0.0
 11
496.843163
 21
-249.448733
 31
0.0
  0
LINE
  5
4A7
100
AcDbEntity
  8
18
100
AcDbLine
 10
473.546168
 20
-257.448733
 30
0.0
 11
475.750194
 21
-257.448733
 31
0.0
  0
ARC
  5
4A8
100
AcDbEntity
  8
18
100
AcDbCircle
 10
462.550194
 20
-269.448733
 30
0.0
 40
12.0
100
AcDbArc
 50
167.624033
 51
5.0
  0
LINE
  5
4A9
100
AcDbEntity
  8
18
100
AcDbLine
 10
437.350194
 20
-261.448733
 30
0.0
 11
451.204265
 21
-261.448733
 31
0.0
  0
LINE
  5
4AA
100
AcDbEntity
  8
18
100
AcDbLine
 10
473.896123
 20
-261.448733
 30
0.0
 11
487.750194
 21
-261.448733
 31
0.0
  0
LINE
  5
4AB
100
AcDbEntity
  8
18
100
AcDbLine
 10
437.350194
 20
-277.448733
 30
0.0
 11
453.605922
 21
-277.448733
 31
0.0
  0
LINE
  5
4AC
100
AcDbEntity
  8
18
100
AcDbLine
 10
471.494466
 20
-277.448733
 30
0.0
 11
487.750194
 21
-277.448733
 31
0.0
  0
LINE
  5
4AD
100
AcDbEntity
  8
18
100
AcDbLine
 10
457.080276
 20
-268.248733
 30
0.0
 11
468.020112
 21
-268.248733
 31
0.0
  0
LINE
  5
4AE
100
AcDbEntity
  8
18
100
AcDbLine
 10
457.080276
 20
-270.648733
 30
0.0
 11
468.020112
 21
-270.648733
 31
0.0
  0
ARC
  5
4AF
100
AcDbEntity
  8
18
100
AcDbCircle
 10
499.243163
 20
-239.848733
 30
0.0
 40
2.4
100
AcDbArc
 50
0.0
 51
180.0
  0
ARC
  5
4B0
100
AcDbEntity
  8
18
100
AcDbCircle
 10
499.243163
 20
-263.048733
 30
0.0
 40
2.4
100
AcDbArc
 50
180.0
 51
360.0
  0
LINE
  5
4B1
100
AcDbEntity
  8
18
100
AcDbLine
 10
450.595857
 20
-268.402864
 30
0.0
 11
452.540193
 21
-246.179008
 31
0.0
  0
LINE
  5
4B2
100
AcDbEntity
  8
18
100
AcDbLine
 10
474.50453
 20
-268.402864
 30
0.0
 11
472.560195
 21
-246.179008
 31
0.0
  0
LINE
  5
4B3
100
AcDbEntity
  8
18
100
AcDbLine
 10
476.150194
 20
-257.048733
 30
0.0
 11
476.150194
 21
-245.848733
 31
0.0
  0
TEXT
  5
4B4
100
AcDbEntity
  8
18
100
AcDbText
 10
456.977843
 20
-263.372286
 30
0.0
 40
6.0
  1
O
 72
     5
 11
461.777843
 21
-263.372286
 31
0.0
100
AcDbText
  0
TEXT
  5
4B5
100
AcDbEntity
  8
18
100
AcDbText
 10
474.102818
 20
-274.893615
 30
0.0
 40
6.0
  1
S
 50
90.0
 72
     5
 11
474.102818
 21
-270.093615
 31
0.0
100
AcDbText
  0
ARC
  5
4B6
100
AcDbEntity
  8
18
100
AcDbCircle
 10
453.337149
 20
-246.248733
 30
0.0
 40
0.8
100
AcDbArc
 50
90.0
 51
175.0
  0
ARC
  5
4B7
100
AcDbEntity
  8
18
100
AcDbCircle
 10
471.763239
 20
-246.248733
 30
0.0
 40
0.8
100
AcDbArc
 50
5.0
 51
90.0
  0
ARC
  5
4B8
100
AcDbEntity
  8
18
100
AcDbCircle
 10
437.350194
 20
-262.248733
 30
0.0
 40
0.8
100
AcDbArc
 50
90.0
 51
180.0
  0
ARC
  5
4B9
100
AcDbEntity
  8
18
100
AcDbCircle
 10
437.350194
 20
-276.648733
 30
0.0
 40
0.8
100
AcDbArc
 50
180.0
 51
270.0
  0
ARC
  5
4BA
100
AcDbEntity
  8
18
100
AcDbCircle
 10
487.750194
 20
-262.248733
 30
0.0
 40
0.8
100
AcDbArc
 50
0.0
 51
90.0
  0
ARC
  5
4BB
100
AcDbEntity
  8
18
100
AcDbCircle
 10
487.750194
 20
-276.648733
 30
0.0
 40
0.8
100
AcDbArc
 50
270.0
 51
360.0
  0
ARC
  5
4BC
100
AcDbEntity
  8
18
100
AcDbCircle
 10
475.750194
 20
-245.848733
 30
0.0
 40
0.4
100
AcDbArc
 50
0.0
 51
90.0
  0
ARC
  5
4BD
100
AcDbEntity
  8
18
100
AcDbCircle
 10
475.750194
 20
-257.048733
 30
0.0
 40
0.4
100
AcDbArc
 50
270.0
 51
360.0
  0
LINE
  5
4BE
100
AcDbEntity
  8
18
  6
CENTER
 62
     2
100
AcDbLine
 10
562.550194
 20
-224.756701
 30
0.0
 11
562.550194
 21
-262.452685
 31
0.0
  0
LINE
  5
4BF
100
AcDbEntity
  8
18
  6
CENTER
 62
     2
100
AcDbLine
 10
590.296028
 20
-243.448733
 30
0.0
 11
532.739708
 21
-243.448733
 31
0.0
  0
LINE
  5
4C0
100
AcDbEntity
  8
18
100
AcDbLine
 10
586.550194
 20
-234.235688
 30
0.0
 11
586.550194
 21
-256.648733
 31
0.0
  0
LINE
  5
4C1
100
AcDbEntity
  8
18
100
AcDbLine
 10
578.550194
 20
-257.048733
 30
0.0
 11
578.550194
 21
-277.741702
 31
0.0
  0
LINE
  5
4C2
100
AcDbEntity
  8
18
100
AcDbLine
 10
592.150194
 20
-277.741702
 30
0.0
 11
568.950194
 21
-277.741702
 31
0.0
  0
LINE
  5
4C3
100
AcDbEntity
  8
18
100
AcDbLine
 10
592.150194
 20
-282.541702
 30
0.0
 11
568.950194
 21
-282.541702
 31
0.0
  0
LINE
  5
4C4
100
AcDbEntity
  8
18
100
AcDbLine
 10
582.550194
 20
-257.048733
 30
0.0
 11
582.550194
 21
-277.741702
 31
0.0
  0
LINE
  5
4C5
100
AcDbEntity
  8
18
100
AcDbLine
 10
574.550194
 20
-254.444707
 30
0.0
 11
574.550194
 21
-256.648733
 31
0.0
  0
ARC
  5
4C6
100
AcDbEntity
  8
18
100
AcDbCircle
 10
562.550194
 20
-243.448733
 30
0.0
 40
12.0
100
AcDbArc
 50
77.624033
 51
275.0
  0
LINE
  5
4C7
100
AcDbEntity
  8
18
100
AcDbLine
 10
563.750194
 20
-237.978815
 30
0.0
 11
563.750194
 21
-248.918651
 31
0.0
  0
LINE
  5
4C8
100
AcDbEntity
  8
18
100
AcDbLine
 10
561.350194
 20
-237.978815
 30
0.0
 11
561.350194
 21
-248.918651
 31
0.0
  0
ARC
  5
4C9
100
AcDbEntity
  8
18
100
AcDbCircle
 10
592.150194
 20
-280.141702
 30
0.0
 40
2.4
100
AcDbArc
 50
270.0
 51
90.0
  0
ARC
  5
4CA
100
AcDbEntity
  8
18
100
AcDbCircle
 10
568.950194
 20
-280.141702
 30
0.0
 40
2.4
100
AcDbArc
 50
90.0
 51
270.0
  0
LINE
  5
4CB
100
AcDbEntity
  8
18
100
AcDbLine
 10
563.596063
 20
-231.494397
 30
0.0
 11
585.819918
 21
-233.438732
 31
0.0
  0
LINE
  5
4CC
100
AcDbEntity
  8
18
100
AcDbLine
 10
563.596063
 20
-255.403069
 30
0.0
 11
585.819918
 21
-253.458734
 31
0.0
  0
LINE
  5
4CD
100
AcDbEntity
  8
18
100
AcDbLine
 10
574.950194
 20
-257.048733
 30
0.0
 11
586.150194
 21
-257.048733
 31
0.0
  0
TEXT
  5
4CE
100
AcDbEntity
  8
18
100
AcDbText
 10
568.22664
 20
-237.876382
 30
0.0
 40
6.0
  1
O
 50
270.0
 72
     5
 11
568.22664
 21
-242.676382
 31
0.0
100
AcDbText
  0
TEXT
  5
4CF
100
AcDbEntity
  8
18
100
AcDbText
 10
557.105312
 20
-255.001358
 30
0.0
 40
6.0
  1
S
 72
     5
 11
561.905312
 21
-255.001358
 31
0.0
100
AcDbText
  0
ARC
  5
4D0
100
AcDbEntity
  8
18
100
AcDbCircle
 10
585.750194
 20
-234.235688
 30
0.0
 40
0.8
100
AcDbArc
 50
0.0
 51
85.0
  0
ARC
  5
4D1
100
AcDbEntity
  8
18
100
AcDbCircle
 10
585.750194
 20
-252.661778
 30
0.0
 40
0.8
100
AcDbArc
 50
275.0
 51
360.0
  0
ARC
  5
4D2
100
AcDbEntity
  8
18
100
AcDbCircle
 10
586.150194
 20
-256.648733
 30
0.0
 40
0.4
100
AcDbArc
 50
270.0
 51
360.0
  0
ARC
  5
4D3
100
AcDbEntity
  8
18
100
AcDbCircle
 10
574.950194
 20
-256.648733
 30
0.0
 40
0.4
100
AcDbArc
 50
180.0
 51
270.0
  0
LINE
  5
4D4
100
AcDbEntity
  8
18
100
AcDbLine
 10
537.350194
 20
-235.448733
 30
0.0
 11
553.605922
 21
-235.448733
 31
0.0
  0
LINE
  5
4D5
100
AcDbEntity
  8
18
100
AcDbLine
 10
537.350194
 20
-251.448733
 30
0.0
 11
553.605922
 21
-251.448733
 31
0.0
  0
LINE
  5
4D6
100
AcDbEntity
  8
18
100
AcDbLine
 10
586.550194
 20
-251.448733
 30
0.0
 11
587.750194
 21
-251.448733
 31
0.0
  0
LINE
  5
4D7
100
AcDbEntity
  8
18
100
AcDbLine
 10
586.550194
 20
-235.448733
 30
0.0
 11
587.750194
 21
-235.448733
 31
0.0
  0
LINE
  5
4D8
100
AcDbEntity
  8
18
100
AcDbLine
 10
588.550194
 20
-236.248733
 30
0.0
 11
588.550194
 21
-250.648733
 31
0.0
  0
LINE
  5
4D9
100
AcDbEntity
  8
18
100
AcDbLine
 10
536.550194
 20
-236.248733
 30
0.0
 11
536.550194
 21
-250.648733
 31
0.0
  0
ARC
  5
4DA
100
AcDbEntity
  8
18
100
AcDbCircle
 10
537.350194
 20
-236.248733
 30
0.0
 40
0.8
100
AcDbArc
 50
90.0
 51
180.0
  0
ARC
  5
4DB
100
AcDbEntity
  8
18
100
AcDbCircle
 10
537.350194
 20
-250.648733
 30
0.0
 40
0.8
100
AcDbArc
 50
180.0
 51
270.0
  0
ARC
  5
4DC
100
AcDbEntity
  8
18
100
AcDbCircle
 10
587.750194
 20
-250.648733
 30
0.0
 40
0.8
100
AcDbArc
 50
270.0
 51
360.0
  0
ARC
  5
4DD
100
AcDbEntity
  8
18
100
AcDbCircle
 10
587.750194
 20
-236.248733
 30
0.0
 40
0.8
100
AcDbArc
 50
0.0
 51
90.0
  0
CIRCLE
  5
4DE
100
AcDbEntity
  8
18
100
AcDbCircle
 10
462.550194
 20
-269.448733
 30
0.0
 40
5.6
  0
CIRCLE
  5
4DF
100
AcDbEntity
  8
18
100
AcDbCircle
 10
562.550194
 20
-243.448733
 30
0.0
 40
5.6
  0
TEXT
  5
4E0
100
AcDbEntity
  8
18
100
AcDbText
 10
440.218193
 20
-332.175003
 30
0.0
 40
12.0
  1
駆 動 部 取 付 方 向
 72
     5
 11
593.818193
 21
-332.175003
 31
0.0
100
AcDbText
  0
TEXT
  5
4E1
100
AcDbEntity
  8
18
100
AcDbText
 10
614.4
 20
-544.0
 30
0.0
 40
20.0
  1
Ｄ３－０３６１８
 72
     5
 11
770.4
 21
-544.0
 31
0.0
100
AcDbText
  0
TEXT
  5
4E2
100
AcDbEntity
  8
18
100
AcDbText
 10
721.996399
 20
-508.416687
 30
0.0
 40
8.0
  1
２００４．１２．２０
 41
0.9
 72
     5
 11
792.556399
 21
-508.416687
 31
0.0
100
AcDbText
  0
LINE
  5
4E3
100
AcDbEntity
  8
20
 62
     3
100
AcDbLine
 10
-720.0
 20
-554.0
 30
0.0
 11
800.0
 21
-554.0
 31
0.0
  0
LINE
  5
4E4
100
AcDbEntity
  8
20
 62
     3
100
AcDbLine
 10
-720.0
 20
528.0
 30
0.0
 11
800.0
 21
528.0
 31
0.0
  0
LINE
  5
4E5
100
AcDbEntity
  8
20
 62
     3
100
AcDbLine
 10
-720.0
 20
528.0
 30
0.0
 11
-720.0
 21
-554.0
 31
0.0
  0
LINE
  5
4E6
100
AcDbEntity
  8
20
 62
     3
100
AcDbLine
 10
800.0
 20
528.0
 30
0.0
 11
800.0
 21
-554.0
 31
0.0
  0
LINE
  5
4E7
100
AcDbEntity
  8
20
 62
     3
100
AcDbLine
 10
240.0
 20
-554.0
 30
0.0
 11
240.0
 21
-474.0
 31
0.0
  0
LINE
  5
4E8
100
AcDbEntity
  8
20
 62
     3
100
AcDbLine
 10
428.0
 20
-554.0
 30
0.0
 11
428.0
 21
-474.0
 31
0.0
  0
LINE
  5
4E9
100
AcDbEntity
  8
20
100
AcDbLine
 10
428.0
 20
-514.0
 30
0.0
 11
800.0
 21
-514.0
 31
0.0
  0
LINE
  5
4EA
100
AcDbEntity
  8
20
 62
     3
100
AcDbLine
 10
240.0
 20
-474.0
 30
0.0
 11
800.0
 21
-474.0
 31
0.0
  0
LINE
  5
4EB
100
AcDbEntity
  8
20
100
AcDbLine
 10
720.0
 20
-514.0
 30
0.0
 11
720.0
 21
-474.0
 31
0.0
  0
LINE
  5
4EC
100
AcDbEntity
  8
20
100
AcDbLine
 10
720.0
 20
-494.0
 30
0.0
 11
800.0
 21
-494.0
 31
0.0
  0
LINE
  5
4ED
100
AcDbEntity
  8
20
100
AcDbLine
 10
484.0
 20
-554.0
 30
0.0
 11
484.0
 21
-474.0
 31
0.0
  0
LINE
  5
4EE
100
AcDbEntity
  8
20
100
AcDbLine
 10
524.0
 20
-554.0
 30
0.0
 11
524.0
 21
-514.0
 31
0.0
  0
LINE
  5
4EF
100
AcDbEntity
  8
20
100
AcDbLine
 10
604.0
 20
-554.0
 30
0.0
 11
604.0
 21
-514.0
 31
0.0
  0
LINE
  5
4F0
100
AcDbEntity
  8
20
100
AcDbLine
 10
494.913658
 20
-543.086342
 30
0.0
 11
511.593163
 21
-526.406837
 31
0.0
  0
TEXT
  5
4F1
100
AcDbEntity
  8
20
100
AcDbText
 10
526.133316
 20
-529.987671
 30
0.0
 40
7.2
  1
ＤＲＡＷＩＮＧ　ＮＯ．
 72
     5
 11
603.893316
 21
-529.987671
 31
0.0
100
AcDbText
  0
TEXT
  5
4F2
100
AcDbEntity
  8
20
100
AcDbText
 10
534.0
 20
-546.0
 30
0.0
 40
12.0
  1
図　　　番
 72
     5
 11
591.6
 21
-546.0
 31
0.0
100
AcDbText
  0
TEXT
  5
4F3
100
AcDbEntity
  8
20
100
AcDbText
 10
744.0
 20
-488.0
 30
0.0
 40
8.0
  1
ＤＡＴＥ
 72
     5
 11
774.4
 21
-488.0
 31
0.0
100
AcDbText
  0
TEXT
  5
4F4
100
AcDbEntity
  8
20
100
AcDbText
 10
436.004284
 20
-531.844116
 30
0.0
 40
8.0
  1
ＳＣＡＬＥ
 72
     5
 11
474.404284
 21
-531.844116
 31
0.0
100
AcDbText
  0
TEXT
  5
4F5
100
AcDbEntity
  8
20
100
AcDbText
 10
432.0
 20
-546.0
 30
0.0
 40
12.0
  1
尺　　度
 72
     5
 11
477.6
 21
-546.0
 31
0.0
100
AcDbText
  0
TEXT
  5
4F6
100
AcDbEntity
  8
20
100
AcDbText
 10
430.004284
 20
-489.983539
 30
0.0
 40
8.0
  1
ＦＩＧ．ＮＯ．
 72
     5
 11
484.404284
 21
-489.983539
 31
0.0
100
AcDbText
  0
TEXT
  5
4F7
100
AcDbEntity
  8
20
100
AcDbText
 10
432.0
 20
-506.0
 30
0.0
 40
12.0
  1
名　　称
 72
     5
 11
477.6
 21
-506.0
 31
0.0
100
AcDbText
  0
TEXT
  5
4F8
100
AcDbEntity
  8
20
100
AcDbText
 10
242.2621
 20
-505.881012
 30
0.0
 40
9.2
  1
ＴＯＭＯＥ　ＶＡＬＶＥ　ＣＯ．，ＬＴＤ．
 72
     5
 11
424.4221
 21
-505.881012
 31
0.0
100
AcDbText
  0
TEXT
  5
4F9
100
AcDbEntity
  8
20
100
AcDbText
 10
270.0
 20
-533.159241
 30
0.0
 40
16.0
  1
巴バルブ株式会社
 72
     5
 11
394.8
 21
-533.159241
 31
0.0
100
AcDbText
  0
ARC
  5
4FA
100
AcDbEntity
  8
20
100
AcDbCircle
 10
-338.885631
 20
-239.76731
 30
0.0
 40
148.6
100
AcDbArc
 50
120.006915
 51
180.0
  0
ARC
  5
4FB
100
AcDbEntity
  8
20
100
AcDbCircle
 10
-338.885631
 20
-245.16731
 30
0.0
 40
153.3
100
AcDbArc
 50
101.162271
 51
118.997528
  0
LINE
  5
4FC
100
AcDbEntity
  8
20
100
AcDbLine
 10
-338.885631
 20
-94.76731
 30
0.0
 11
-368.562731
 21
-94.76731
 31
0.0
  0
ARC
  5
4FD
100
AcDbEntity
  8
20
100
AcDbCircle
 10
-338.885631
 20
-239.76731
 30
0.0
 40
148.6
100
AcDbArc
 50
0.0
 51
59.993085
  0
ARC
  5
4FE
100
AcDbEntity
  8
20
100
AcDbCircle
 10
-338.885631
 20
-245.16731
 30
0.0
 40
153.3
100
AcDbArc
 50
61.002472
 51
78.837729
  0
LINE
  5
4FF
100
AcDbEntity
  8
20
100
AcDbLine
 10
-338.885631
 20
-94.76731
 30
0.0
 11
-309.208536
 21
-94.76731
 31
0.0
  0
ARC
  5
500
100
AcDbEntity
  8
20
100
AcDbCircle
 10
-338.885631
 20
-234.36731
 30
0.0
 40
153.3
100
AcDbArc
 50
241.002472
 51
258.837729
  0
ARC
  5
501
100
AcDbEntity
  8
20
100
AcDbCircle
 10
-338.885631
 20
-239.76731
 30
0.0
 40
148.6
100
AcDbArc
 50
180.0
 51
239.993085
  0
LINE
  5
502
100
AcDbEntity
  8
20
100
AcDbLine
 10
-338.885631
 20
-384.76731
 30
0.0
 11
-368.562731
 21
-384.76731
 31
0.0
  0
LINE
  5
503
100
AcDbEntity
  8
20
100
AcDbLine
 10
-338.885631
 20
-384.76731
 30
0.0
 11
-309.208536
 21
-384.76731
 31
0.0
  0
ARC
  5
504
100
AcDbEntity
  8
20
100
AcDbCircle
 10
-338.885631
 20
-234.36731
 30
0.0
 40
153.3
100
AcDbArc
 50
281.162271
 51
298.997528
  0
ARC
  5
505
100
AcDbEntity
  8
20
100
AcDbCircle
 10
-338.885631
 20
-239.76731
 30
0.0
 40
148.6
100
AcDbArc
 50
300.006915
 51
360.0
  0
LINE
  5
506
100
AcDbEntity
  8
20
100
AcDbLine
 10
-347.885626
 20
-233.26731
 30
0.0
 11
-207.186137
 21
-233.26731
 31
0.0
  0
LINE
  5
507
100
AcDbEntity
  8
20
100
AcDbLine
 10
-347.885626
 20
-246.26731
 30
0.0
 11
-207.186137
 21
-246.26731
 31
0.0
  0
ARC
  5
508
100
AcDbEntity
  8
20
100
AcDbCircle
 10
-207.186137
 20
-235.26731
 30
0.0
 40
2.0
100
AcDbArc
 50
1.956961
 51
90.0
  0
ARC
  5
509
100
AcDbEntity
  8
20
100
AcDbCircle
 10
-338.885631
 20
-239.76731
 30
0.0
 40
133.776351
100
AcDbArc
 50
358.043039
 51
1.956961
  0
ARC
  5
50A
100
AcDbEntity
  8
20
100
AcDbCircle
 10
-207.186137
 20
-244.26731
 30
0.0
 40
2.0
100
AcDbArc
 50
270.0
 51
358.043039
  0
ARC
  5
50B
100
AcDbEntity
  8
20
100
AcDbCircle
 10
-338.885631
 20
-239.76731
 30
0.0
 40
138.0
100
AcDbArc
 50
357.05011
 51
2.95306
  0
LINE
  5
50C
100
AcDbEntity
  8
20
100
AcDbLine
 10
-338.931499
 20
-177.288126
 30
0.0
 11
-218.840181
 21
-187.794751
 31
0.0
  0
LINE
  5
50D
100
AcDbEntity
  8
20
100
AcDbLine
 10
-323.746454
 20
-165.566987
 30
0.0
 11
-223.194755
 21
-174.364117
 31
0.0
  0
LINE
  5
50E
100
AcDbEntity
  8
20
100
AcDbLine
 10
-219.590192
 20
-172.141304
 30
0.0
 11
-307.65737
 21
-164.118778
 31
0.0
  0
LINE
  5
50F
100
AcDbEntity
  8
20
100
AcDbLine
 10
-350.673992
 20
-179.082267
 30
0.0
 11
-213.017914
 21
-190.66146
 31
0.0
  0
ARC
  5
510
100
AcDbEntity
  8
20
100
AcDbCircle
 10
-223.369066
 20
-176.356507
 30
0.0
 40
2.0
100
AcDbArc
 50
28.763817
 51
85.000002
  0
ARC
  5
511
100
AcDbEntity
  8
20
100
AcDbCircle
 10
-338.885631
 20
-239.76731
 30
0.0
 40
133.776351
100
AcDbArc
 50
24.174636
 51
28.763817
  0
ARC
  5
512
100
AcDbEntity
  8
20
100
AcDbCircle
 10
-218.66587
 20
-185.802362
 30
0.0
 40
2.0
100
AcDbArc
 50
265.000002
 51
24.174636
  0
ARC
  5
513
100
AcDbEntity
  8
20
100
AcDbCircle
 10
-219.771632
 20
-174.133056
 30
0.0
 40
2.0
100
AcDbArc
 50
28.855665
 51
84.794977
  0
ARC
  5
514
100
AcDbEntity
  8
20
100
AcDbCircle
 10
-338.885631
 20
-239.76731
 30
0.0
 40
138.0
100
AcDbArc
 50
22.069225
 51
28.855665
  0
ARC
  5
515
100
AcDbEntity
  8
20
100
AcDbCircle
 10
-212.850273
 20
-188.668499
 30
0.0
 40
2.0
100
AcDbArc
 50
265.191779
 51
22.069225
  0
LINE
  5
516
100
AcDbEntity
  8
20
100
AcDbLine
 10
-222.135252
 20
-174.456812
 30
0.0
 11
-219.642173
 21
-172.918746
 31
0.0
  0
LINE
  5
517
100
AcDbEntity
  8
20
100
AcDbLine
 10
-216.201911
 20
-187.73338
 30
0.0
 11
-211.915875
 21
-189.879363
 31
0.0
  0
ARC
  5
518
100
AcDbEntity
  8
20
100
AcDbCircle
 10
-322.700586
 20
-153.61265
 30
0.0
 40
12.0
100
AcDbArc
 50
180.0
 51
265.000002
  0
LINE
  5
519
100
AcDbEntity
  8
20
100
AcDbLine
 10
-349.88563
 20
-111.76731
 30
0.0
 11
-349.88563
 21
-165.333789
 31
0.0
  0
ARC
  5
51A
100
AcDbEntity
  8
20
100
AcDbCircle
 10
-337.88563
 20
-165.333789
 30
0.0
 40
12.0
100
AcDbArc
 50
180.0
 51
265.000002
  0
LINE
  5
51B
100
AcDbEntity
  8
20
100
AcDbLine
 10
-361.668142
 20
-111.76731
 30
0.0
 11
-361.668142
 21
-167.124497
 31
0.0
  0
ARC
  5
51C
100
AcDbEntity
  8
20
100
AcDbCircle
 10
-349.668142
 20
-167.124497
 30
0.0
 40
12.0
100
AcDbArc
 50
180.0
 51
265.191779
  0
LINE
  5
51D
100
AcDbEntity
  8
20
100
AcDbLine
 10
-318.568732
 20
-111.76731
 30
0.0
 11
-318.568732
 21
-152.168261
 31
0.0
  0
ARC
  5
51E
100
AcDbEntity
  8
20
100
AcDbCircle
 10
-306.568732
 20
-152.168261
 30
0.0
 40
12.0
100
AcDbArc
 50
180.0
 51
264.794977
  0
LINE
  5
51F
100
AcDbEntity
  8
20
100
AcDbLine
 10
-355.80093
 20
-179.507008
 30
0.0
 11
-355.80093
 21
-227.661435
 31
0.0
  0
LINE
  5
520
100
AcDbEntity
  8
20
100
AcDbLine
 10
-346.385631
 20
-181.28182
 30
0.0
 11
-346.385631
 21
-229.750981
 31
0.0
  0
LINE
  5
521
100
AcDbEntity
  8
20
100
AcDbLine
 10
-331.385631
 20
-182.880039
 30
0.0
 11
-331.385631
 21
-229.750981
 31
0.0
  0
LINE
  5
522
100
AcDbEntity
  8
20
100
AcDbLine
 10
-321.970331
 20
-185.847321
 30
0.0
 11
-321.970331
 21
-227.661435
 31
0.0
  0
ARC
  5
523
100
AcDbEntity
  8
20
100
AcDbCircle
 10
-317.970331
 20
-185.847321
 30
0.0
 40
4.0
100
AcDbArc
 50
85.191779
 51
180.0
  0
ARC
  5
524
100
AcDbEntity
  8
20
100
AcDbCircle
 10
-359.80093
 20
-179.507008
 30
0.0
 40
4.0
100
AcDbArc
 50
0.0
 51
50.706041
  0
ARC
  5
525
100
AcDbEntity
  8
20
100
AcDbCircle
 10
-329.385631
 20
-182.880039
 30
0.0
 40
2.0
100
AcDbArc
 50
85.191779
 51
180.0
  0
ARC
  5
526
100
AcDbEntity
  8
20
100
AcDbCircle
 10
-348.385631
 20
-181.28182
 30
0.0
 40
2.0
100
AcDbArc
 50
0.0
 51
85.191779
  0
LINE
  5
527
100
AcDbEntity
  8
20
100
AcDbLine
 10
-333.958346
 20
-246.26731
 30
0.0
 11
-333.958346
 21
-233.26731
 31
0.0
  0
LINE
  5
528
100
AcDbEntity
  8
20
100
AcDbLine
 10
-349.885626
 20
-244.26731
 30
0.0
 11
-349.885626
 21
-235.26731
 31
0.0
  0
LINE
  5
529
100
AcDbEntity
  8
20
100
AcDbLine
 10
-361.66813
 20
-245.871959
 30
0.0
 11
-361.66813
 21
-233.662661
 31
0.0
  0
ARC
  5
52A
100
AcDbEntity
  8
20
100
AcDbCircle
 10
-347.885626
 20
-235.26731
 30
0.0
 40
2.0
100
AcDbArc
 50
90.0
 51
180.0
  0
ARC
  5
52B
100
AcDbEntity
  8
20
100
AcDbCircle
 10
-347.885626
 20
-244.26731
 30
0.0
 40
2.0
100
AcDbArc
 50
180.0
 51
270.0
  0
LINE
  5
52C
100
AcDbEntity
  8
20
100
AcDbLine
 10
-203.081906
 20
-230.760951
 30
0.0
 11
-338.885631
 21
-231.825513
 31
0.0
  0
ARC
  5
52D
100
AcDbEntity
  8
20
100
AcDbCircle
 10
-203.066229
 20
-232.760889
 30
0.0
 40
2.0
100
AcDbArc
 50
2.95306
 51
90.449131
  0
LINE
  5
52E
100
AcDbEntity
  8
20
100
AcDbLine
 10
-203.081906
 20
-248.773669
 30
0.0
 11
-338.885631
 21
-247.709107
 31
0.0
  0
ARC
  5
52F
100
AcDbEntity
  8
20
100
AcDbCircle
 10
-203.066229
 20
-246.773731
 30
0.0
 40
2.0
100
AcDbArc
 50
269.550869
 51
357.04694
  0
LINE
  5
530
100
AcDbEntity
  8
20
100
AcDbLine
 10
-205.267286
 20
-233.26731
 30
0.0
 11
-202.547072
 21
-231.588999
 31
0.0
  0
LINE
  5
531
100
AcDbEntity
  8
20
100
AcDbLine
 10
-205.267286
 20
-246.26731
 30
0.0
 11
-202.547072
 21
-247.945621
 31
0.0
  0
LINE
  5
532
100
AcDbEntity
  8
20
100
AcDbLine
 10
-338.885631
 20
-231.825513
 30
0.0
 11
-359.832285
 21
-231.661312
 31
0.0
  0
LINE
  5
533
100
AcDbEntity
  8
20
100
AcDbLine
 10
-359.652453
 20
-247.871898
 30
0.0
 11
-338.885631
 21
-247.709107
 31
0.0
  0
ARC
  5
534
100
AcDbEntity
  8
20
100
AcDbCircle
 10
-359.66813
 20
-233.662661
 30
0.0
 40
2.0
100
AcDbArc
 50
89.550869
 51
180.0
  0
ARC
  5
535
100
AcDbEntity
  8
20
100
AcDbCircle
 10
-359.66813
 20
-245.871959
 30
0.0
 40
2.0
100
AcDbArc
 50
180.0
 51
270.449131
  0
LINE
  5
536
100
AcDbEntity
  8
20
100
AcDbLine
 10
-359.393572
 20
-231.95973
 30
0.0
 11
-349.885626
 21
-233.26731
 31
0.0
  0
LINE
  5
537
100
AcDbEntity
  8
20
100
AcDbLine
 10
-349.885626
 20
-246.26731
 30
0.0
 11
-359.391865
 21
-247.574655
 31
0.0
  0
ARC
  5
538
100
AcDbEntity
  8
20
100
AcDbCircle
 10
-317.970331
 20
-227.661435
 30
0.0
 40
4.0
100
AcDbArc
 50
180.0
 51
270.449131
  0
ARC
  5
539
100
AcDbEntity
  8
20
100
AcDbCircle
 10
-359.80093
 20
-227.661435
 30
0.0
 40
4.0
100
AcDbArc
 50
269.550869
 51
360.0
  0
ARC
  5
53A
100
AcDbEntity
  8
20
100
AcDbCircle
 10
-348.385631
 20
-229.750981
 30
0.0
 40
2.0
100
AcDbArc
 50
269.550869
 51
360.0
  0
ARC
  5
53B
100
AcDbEntity
  8
20
100
AcDbCircle
 10
-329.385631
 20
-229.750981
 30
0.0
 40
2.0
100
AcDbArc
 50
180.0
 51
270.449131
  0
LINE
  5
53C
100
AcDbEntity
  8
20
100
AcDbLine
 10
-308.292044
 20
-109.76731
 30
0.0
 11
-369.303884
 21
-109.76731
 31
0.0
  0
ARC
  5
53D
100
AcDbEntity
  8
20
100
AcDbCircle
 10
-316.568732
 20
-111.76731
 30
0.0
 40
2.0
100
AcDbArc
 50
90.0
 51
180.0
  0
ARC
  5
53E
100
AcDbEntity
  8
20
100
AcDbCircle
 10
-363.668142
 20
-111.76731
 30
0.0
 40
2.0
100
AcDbArc
 50
0.0
 51
90.0
  0
ARC
  5
53F
100
AcDbEntity
  8
20
100
AcDbCircle
 10
-351.88563
 20
-111.76731
 30
0.0
 40
2.0
100
AcDbArc
 50
360.0
 51
90.0
  0
LINE
  5
540
100
AcDbEntity
  8
20
100
AcDbLine
 10
-374.288171
 20
-98.171894
 30
0.0
 11
-374.288171
 21
-107.76731
 31
0.0
  0
LINE
  5
541
100
AcDbEntity
  8
20
100
AcDbLine
 10
-363.231717
 20
-95.431106
 30
0.0
 11
-363.231717
 21
-105.204639
 31
0.0
  0
LINE
  5
542
100
AcDbEntity
  8
20
100
AcDbLine
 10
-303.483096
 20
-97.751377
 30
0.0
 11
-303.483096
 21
-107.76731
 31
0.0
  0
LINE
  5
543
100
AcDbEntity
  8
20
100
AcDbLine
 10
-314.539545
 20
-95.431106
 30
0.0
 11
-314.539545
 21
-105.204639
 31
0.0
  0
ARC
  5
544
100
AcDbEntity
  8
20
100
AcDbCircle
 10
-338.885633
 20
-256.874412
 30
0.0
 40
151.307103
100
AcDbArc
 50
76.468611
 51
103.531389
  0
ARC
  5
545
100
AcDbEntity
  8
20
100
AcDbCircle
 10
-361.231717
 20
-105.204639
 30
0.0
 40
2.0
100
AcDbArc
 50
180.0
 51
278.381307
  0
ARC
  5
546
100
AcDbEntity
  8
20
100
AcDbCircle
 10
-316.539545
 20
-105.204639
 30
0.0
 40
2.0
100
AcDbArc
 50
261.618693
 51
360.0
  0
LINE
  5
547
100
AcDbEntity
  8
20
100
AcDbLine
 10
-338.931499
 20
-302.246494
 30
0.0
 11
-218.840181
 21
-291.739869
 31
0.0
  0
LINE
  5
548
100
AcDbEntity
  8
20
100
AcDbLine
 10
-323.746454
 20
-313.967633
 30
0.0
 11
-223.194755
 21
-305.170502
 31
0.0
  0
LINE
  5
549
100
AcDbEntity
  8
20
100
AcDbLine
 10
-219.590192
 20
-307.393316
 30
0.0
 11
-307.65737
 21
-315.415842
 31
0.0
  0
LINE
  5
54A
100
AcDbEntity
  8
20
100
AcDbLine
 10
-350.673992
 20
-300.452353
 30
0.0
 11
-213.017914
 21
-288.873159
 31
0.0
  0
ARC
  5
54B
100
AcDbEntity
  8
20
100
AcDbCircle
 10
-223.369066
 20
-303.178113
 30
0.0
 40
2.0
100
AcDbArc
 50
274.999998
 51
331.236183
  0
ARC
  5
54C
100
AcDbEntity
  8
20
100
AcDbCircle
 10
-338.885631
 20
-239.76731
 30
0.0
 40
133.776351
100
AcDbArc
 50
331.236183
 51
335.825364
  0
ARC
  5
54D
100
AcDbEntity
  8
20
100
AcDbCircle
 10
-218.66587
 20
-293.732258
 30
0.0
 40
2.0
100
AcDbArc
 50
335.825364
 51
94.999998
  0
ARC
  5
54E
100
AcDbEntity
  8
20
100
AcDbCircle
 10
-219.771632
 20
-305.401563
 30
0.0
 40
2.0
100
AcDbArc
 50
275.205023
 51
331.144335
  0
ARC
  5
54F
100
AcDbEntity
  8
20
100
AcDbCircle
 10
-338.885631
 20
-239.76731
 30
0.0
 40
138.0
100
AcDbArc
 50
331.144335
 51
337.930775
  0
ARC
  5
550
100
AcDbEntity
  8
20
100
AcDbCircle
 10
-212.850273
 20
-290.866121
 30
0.0
 40
2.0
100
AcDbArc
 50
337.930775
 51
94.808221
  0
LINE
  5
551
100
AcDbEntity
  8
20
100
AcDbLine
 10
-222.135252
 20
-305.077808
 30
0.0
 11
-219.642173
 21
-306.615874
 31
0.0
  0
LINE
  5
552
100
AcDbEntity
  8
20
100
AcDbLine
 10
-216.201911
 20
-291.80124
 30
0.0
 11
-211.915875
 21
-289.655257
 31
0.0
  0
ARC
  5
553
100
AcDbEntity
  8
20
100
AcDbCircle
 10
-322.700586
 20
-325.921969
 30
0.0
 40
12.0
100
AcDbArc
 50
94.999998
 51
180.0
  0
LINE
  5
554
100
AcDbEntity
  8
20
100
AcDbLine
 10
-349.88563
 20
-367.76731
 30
0.0
 11
-349.88563
 21
-314.20083
 31
0.0
  0
ARC
  5
555
100
AcDbEntity
  8
20
100
AcDbCircle
 10
-337.88563
 20
-314.20083
 30
0.0
 40
12.0
100
AcDbArc
 50
94.999998
 51
180.0
  0
LINE
  5
556
100
AcDbEntity
  8
20
100
AcDbLine
 10
-361.668142
 20
-367.76731
 30
0.0
 11
-361.668142
 21
-312.410123
 31
0.0
  0
ARC
  5
557
100
AcDbEntity
  8
20
100
AcDbCircle
 10
-349.668142
 20
-312.410123
 30
0.0
 40
12.0
100
AcDbArc
 50
94.808221
 51
180.0
  0
LINE
  5
558
100
AcDbEntity
  8
20
100
AcDbLine
 10
-318.568732
 20
-367.76731
 30
0.0
 11
-318.568732
 21
-327.366359
 31
0.0
  0
ARC
  5
559
100
AcDbEntity
  8
20
100
AcDbCircle
 10
-306.568732
 20
-327.366359
 30
0.0
 40
12.0
100
AcDbArc
 50
95.205023
 51
180.0
  0
LINE
  5
55A
100
AcDbEntity
  8
20
100
AcDbLine
 10
-355.80093
 20
-300.027611
 30
0.0
 11
-355.80093
 21
-251.873185
 31
0.0
  0
LINE
  5
55B
100
AcDbEntity
  8
20
100
AcDbLine
 10
-346.385631
 20
-298.2528
 30
0.0
 11
-346.385631
 21
-249.783639
 31
0.0
  0
LINE
  5
55C
100
AcDbEntity
  8
20
100
AcDbLine
 10
-331.385631
 20
-296.65458
 30
0.0
 11
-331.385631
 21
-249.783639
 31
0.0
  0
LINE
  5
55D
100
AcDbEntity
  8
20
100
AcDbLine
 10
-321.970331
 20
-293.687298
 30
0.0
 11
-321.970331
 21
-251.873185
 31
0.0
  0
ARC
  5
55E
100
AcDbEntity
  8
20
100
AcDbCircle
 10
-317.970331
 20
-293.687298
 30
0.0
 40
4.0
100
AcDbArc
 50
180.0
 51
274.808221
  0
ARC
  5
55F
100
AcDbEntity
  8
20
100
AcDbCircle
 10
-359.80093
 20
-300.027611
 30
0.0
 40
4.0
100
AcDbArc
 50
309.293959
 51
360.0
  0
ARC
  5
560
100
AcDbEntity
  8
20
100
AcDbCircle
 10
-329.385631
 20
-296.65458
 30
0.0
 40
2.0
100
AcDbArc
 50
180.0
 51
274.808221
  0
ARC
  5
561
100
AcDbEntity
  8
20
100
AcDbCircle
 10
-348.385631
 20
-298.2528
 30
0.0
 40
2.0
100
AcDbArc
 50
274.808221
 51
360.0
  0
ARC
  5
562
100
AcDbEntity
  8
20
100
AcDbCircle
 10
-317.970331
 20
-251.873185
 30
0.0
 40
4.0
100
AcDbArc
 50
89.550869
 51
180.0
  0
ARC
  5
563
100
AcDbEntity
  8
20
100
AcDbCircle
 10
-359.80093
 20
-251.873185
 30
0.0
 40
4.0
100
AcDbArc
 50
0.0
 51
90.449131
  0
ARC
  5
564
100
AcDbEntity
  8
20
100
AcDbCircle
 10
-348.385631
 20
-249.783639
 30
0.0
 40
2.0
100
AcDbArc
 50
0.0
 51
90.449131
  0
ARC
  5
565
100
AcDbEntity
  8
20
100
AcDbCircle
 10
-329.385631
 20
-249.783639
 30
0.0
 40
2.0
100
AcDbArc
 50
89.550869
 51
180.0
  0
LINE
  5
566
100
AcDbEntity
  8
20
100
AcDbLine
 10
-308.292044
 20
-369.76731
 30
0.0
 11
-369.303884
 21
-369.76731
 31
0.0
  0
ARC
  5
567
100
AcDbEntity
  8
20
100
AcDbCircle
 10
-316.568732
 20
-367.76731
 30
0.0
 40
2.0
100
AcDbArc
 50
180.0
 51
270.0
  0
ARC
  5
568
100
AcDbEntity
  8
20
100
AcDbCircle
 10
-363.668142
 20
-367.76731
 30
0.0
 40
2.0
100
AcDbArc
 50
270.0
 51
360.0
  0
ARC
  5
569
100
AcDbEntity
  8
20
100
AcDbCircle
 10
-351.88563
 20
-367.76731
 30
0.0
 40
2.0
100
AcDbArc
 50
270.0
 51
0.0
  0
LINE
  5
56A
100
AcDbEntity
  8
20
100
AcDbLine
 10
-374.288171
 20
-381.362726
 30
0.0
 11
-374.288171
 21
-371.76731
 31
0.0
  0
LINE
  5
56B
100
AcDbEntity
  8
20
100
AcDbLine
 10
-363.231717
 20
-384.103513
 30
0.0
 11
-363.231717
 21
-374.329981
 31
0.0
  0
LINE
  5
56C
100
AcDbEntity
  8
20
100
AcDbLine
 10
-303.483096
 20
-381.783243
 30
0.0
 11
-303.483096
 21
-371.76731
 31
0.0
  0
LINE
  5
56D
100
AcDbEntity
  8
20
100
AcDbLine
 10
-314.539545
 20
-384.103513
 30
0.0
 11
-314.539545
 21
-374.329981
 31
0.0
  0
ARC
  5
56E
100
AcDbEntity
  8
20
100
AcDbCircle
 10
-338.885633
 20
-222.660207
 30
0.0
 40
151.307103
100
AcDbArc
 50
256.468611
 51
283.531389
  0
ARC
  5
56F
100
AcDbEntity
  8
20
100
AcDbCircle
 10
-361.231717
 20
-374.329981
 30
0.0
 40
2.0
100
AcDbArc
 50
81.618693
 51
180.0
  0
ARC
  5
570
100
AcDbEntity
  8
20
100
AcDbCircle
 10
-316.539545
 20
-374.329981
 30
0.0
 40
2.0
100
AcDbArc
 50
0.0
 51
98.381307
  0
POINT
  5
571
100
AcDbEntity
  8
20
100
AcDbPoint
 10
-338.885631
 20
-239.76731
 30
0.0
  0
ENDSEC
  0
SECTION
  2
OBJECTS
  0
DICTIONARY
  5
5CE
100
AcDbDictionary
  3
ACAD_GROUP
350
5CF
  3
ACAD_MLINESTYLE
350
5D0
  0
DICTIONARY
  5
5CF
102
{ACAD_REACTORS
330
5CE
102
}
100
AcDbDictionary
  0
DICTIONARY
  5
5D0
102
{ACAD_REACTORS
330
5CE
102
}
100
AcDbDictionary
  3
STANDARD
350
5D1
  0
MLINESTYLE
  5
5D1
102
{ACAD_REACTORS
330
5D0
102
}
100
AcDbMlineStyle
  2
STANDARD
 70
     0
  3

 62
     0
 51
90.0
 52
90.0
 71
     2
 49
0.5
 62
   256
  6
BYLAYER
 49
-0.5
 62
   256
  6
BYLAYER
  0
ENDSEC
  0
EOF
