  0
SECTION
  2
HEADER
  9
$ACADVER
  1
AC1015
  9
$ACADMAINTVER
 70
    20
  9
$DWGCODEPAGE
  3
ANSI_932
  9
$INSBASE
 10
0.0
 20
0.0
 30
0.0
  9
$EXTMIN
 10
-360.0
 20
-277.0
 30
0.0
  9
$EXTMAX
 10
404.6974240000001
 20
264.0
 30
0.0
  9
$LIMMIN
 10
-420.0
 20
-297.0
  9
$LIMMAX
 10
420.0
 20
297.0
  9
$ORTHOMODE
 70
     1
  9
$REGENMODE
 70
     1
  9
$FILLMODE
 70
     1
  9
$QTEXTMODE
 70
     0
  9
$MIRRTEXT
 70
     1
  9
$LTSCALE
 40
1.0
  9
$ATTMODE
 70
     1
  9
$TEXTSIZE
 40
1.0
  9
$TRACEWID
 40
0.05
  9
$TEXTSTYLE
  7
STANDARD
  9
$CLAYER
  8
0
  9
$CELTYPE
  6
CONTINUOUS
  9
$CECOLOR
 62
   256
  9
$CELTSCALE
 40
1.0
  9
$DISPSILH
 70
     0
  9
$DIMSCALE
 40
2.0
  9
$DIMASZ
 40
0.18
  9
$DIMEXO
 40
0.0625
  9
$DIMDLI
 40
0.38
  9
$DIMRND
 40
0.0
  9
$DIMDLE
 40
0.0
  9
$DIMEXE
 40
0.18
  9
$DIMTP
 40
0.0
  9
$DIMTM
 40
0.0
  9
$DIMTXT
 40
0.18
  9
$DIMCEN
 40
0.09
  9
$DIMTSZ
 40
0.0
  9
$DIMTOL
 70
     0
  9
$DIMLIM
 70
     0
  9
$DIMTIH
 70
     1
  9
$DIMTOH
 70
     1
  9
$DIMSE1
 70
     0
  9
$DIMSE2
 70
     0
  9
$DIMTAD
 70
     1
  9
$DIMZIN
 70
     0
  9
$DIMBLK
  1

  9
$DIMASO
 70
     1
  9
$DIMSHO
 70
     1
  9
$DIMPOST
  1

  9
$DIMAPOST
  1

  9
$DIMALT
 70
     0
  9
$DIMALTD
 70
     2
  9
$DIMALTF
 40
25.4
  9
$DIMLFAC
 40
1.0
  9
$DIMTOFL
 70
     0
  9
$DIMTVP
 40
0.0
  9
$DIMTIX
 70
     0
  9
$DIMSOXD
 70
     0
  9
$DIMSAH
 70
     0
  9
$DIMBLK1
  1

  9
$DIMBLK2
  1

  9
$DIMSTYLE
  2
STANDARD
  9
$DIMCLRD
 70
     0
  9
$DIMCLRE
 70
     0
  9
$DIMCLRT
 70
     0
  9
$DIMTFAC
 40
1.0
  9
$DIMGAP
 40
0.09
  9
$DIMJUST
 70
     0
  9
$DIMSD1
 70
     0
  9
$DIMSD2
 70
     0
  9
$DIMTOLJ
 70
     1
  9
$DIMTZIN
 70
     0
  9
$DIMALTZ
 70
     0
  9
$DIMALTTZ
 70
     0
  9
$DIMUPT
 70
     0
  9
$DIMDEC
 70
     4
  9
$DIMTDEC
 70
     4
  9
$DIMALTU
 70
     2
  9
$DIMALTTD
 70
     2
  9
$DIMTXSTY
  7
STANDARD
  9
$DIMAUNIT
 70
     0
  9
$DIMADEC
 70
     0
  9
$DIMALTRND
 40
0.0
  9
$DIMAZIN
 70
     0
  9
$DIMDSEP
 70
    46
  9
$DIMATFIT
 70
     3
  9
$DIMFRAC
 70
     0
  9
$DIMLDRBLK
  1

  9
$DIMLUNIT
 70
     2
  9
$DIMLWD
 70
    -2
  9
$DIMLWE
 70
    -2
  9
$DIMTMOVE
 70
     0
  9
$LUNITS
 70
     2
  9
$LUPREC
 70
     4
  9
$SKETCHINC
 40
0.1
  9
$FILLETRAD
 40
0.0
  9
$AUNITS
 70
     0
  9
$AUPREC
 70
     0
  9
$MENU
  1
acad
  9
$ELEVATION
 40
0.0
  9
$PELEVATION
 40
0.0
  9
$THICKNESS
 40
0.0
  9
$LIMCHECK
 70
     0
  9
$CHAMFERA
 40
0.0
  9
$CHAMFERB
 40
0.0
  9
$CHAMFERC
 40
0.0
  9
$CHAMFERD
 40
0.0
  9
$SKPOLY
 70
     0
  9
$TDCREATE
 40
2450695.000000000
  9
$TDUCREATE
 40
2450694.625000000
  9
$TDUPDATE
 40
2454943.638838785
  9
$TDUUPDATE
 40
2454943.263838785
  9
$TDINDWG
 40
0.0014947454
  9
$TDUSRTIMER
 40
0.0014945718
  9
$USRTIMER
 70
     1
  9
$ANGBASE
 50
0.0
  9
$ANGDIR
 70
     0
  9
$PDMODE
 70
     0
  9
$PDSIZE
 40
0.0
  9
$PLINEWID
 40
0.0
  9
$SPLFRAME
 70
     0
  9
$SPLINETYPE
 70
     6
  9
$SPLINESEGS
 70
     8
  9
$HANDSEED
  5
EA0
  9
$SURFTAB1
 70
     6
  9
$SURFTAB2
 70
     6
  9
$SURFTYPE
 70
     6
  9
$SURFU
 70
     6
  9
$SURFV
 70
     6
  9
$UCSBASE
  2

  9
$UCSNAME
  2

  9
$UCSORG
 10
0.0
 20
0.0
 30
0.0
  9
$UCSXDIR
 10
1.0
 20
0.0
 30
0.0
  9
$UCSYDIR
 10
0.0
 20
1.0
 30
0.0
  9
$UCSORTHOREF
  2

  9
$UCSORTHOVIEW
 70
     0
  9
$UCSORGTOP
 10
0.0
 20
0.0
 30
0.0
  9
$UCSORGBOTTOM
 10
0.0
 20
0.0
 30
0.0
  9
$UCSORGLEFT
 10
0.0
 20
0.0
 30
0.0
  9
$UCSORGRIGHT
 10
0.0
 20
0.0
 30
0.0
  9
$UCSORGFRONT
 10
0.0
 20
0.0
 30
0.0
  9
$UCSORGBACK
 10
0.0
 20
0.0
 30
0.0
  9
$PUCSBASE
  2

  9
$PUCSNAME
  2

  9
$PUCSORG
 10
0.0
 20
0.0
 30
0.0
  9
$PUCSXDIR
 10
1.0
 20
0.0
 30
0.0
  9
$PUCSYDIR
 10
0.0
 20
1.0
 30
0.0
  9
$PUCSORTHOREF
  2

  9
$PUCSORTHOVIEW
 70
     0
  9
$PUCSORGTOP
 10
0.0
 20
0.0
 30
0.0
  9
$PUCSORGBOTTOM
 10
0.0
 20
0.0
 30
0.0
  9
$PUCSORGLEFT
 10
0.0
 20
0.0
 30
0.0
  9
$PUCSORGRIGHT
 10
0.0
 20
0.0
 30
0.0
  9
$PUCSORGFRONT
 10
0.0
 20
0.0
 30
0.0
  9
$PUCSORGBACK
 10
0.0
 20
0.0
 30
0.0
  9
$USERI1
 70
     0
  9
$USERI2
 70
     0
  9
$USERI3
 70
     0
  9
$USERI4
 70
     0
  9
$USERI5
 70
     0
  9
$USERR1
 40
0.0
  9
$USERR2
 40
0.0
  9
$USERR3
 40
0.0
  9
$USERR4
 40
0.0
  9
$USERR5
 40
0.0
  9
$WORLDVIEW
 70
     1
  9
$SHADEDGE
 70
     3
  9
$SHADEDIF
 70
    70
  9
$TILEMODE
 70
     1
  9
$MAXACTVP
 70
    16
  9
$PINSBASE
 10
0.0
 20
0.0
 30
0.0
  9
$PLIMCHECK
 70
     0
  9
$PEXTMIN
 10
1.000000000000000E+20
 20
1.000000000000000E+20
 30
1.000000000000000E+20
  9
$PEXTMAX
 10
-1.000000000000000E+20
 20
-1.000000000000000E+20
 30
-1.000000000000000E+20
  9
$PLIMMIN
 10
0.0
 20
0.0
  9
$PLIMMAX
 10
12.0
 20
9.0
  9
$UNITMODE
 70
     0
  9
$VISRETAIN
 70
     0
  9
$PLINEGEN
 70
     1
  9
$PSLTSCALE
 70
     0
  9
$TREEDEPTH
 70
  3020
  9
$CMLSTYLE
  2
STANDARD
  9
$CMLJUST
 70
     0
  9
$CMLSCALE
 40
1.0
  9
$PROXYGRAPHICS
 70
     1
  9
$MEASUREMENT
 70
     0
  9
$CELWEIGHT
370
    -1
  9
$ENDCAPS
280
     0
  9
$JOINSTYLE
280
     0
  9
$LWDISPLAY
290
     0
  9
$INSUNITS
 70
     0
  9
$HYPERLINKBASE
  1

  9
$STYLESHEET
  1

  9
$XEDIT
290
     1
  9
$CEPSNTYPE
380
     0
  9
$PSTYLEMODE
290
     1
  9
$FINGERPRINTGUID
  2
{590D6BFE-5CCC-440D-99AE-E52F259922B6}
  9
$VERSIONGUID
  2
{E3330F63-937D-483C-A29B-CF845228B7F0}
  9
$EXTNAMES
290
     1
  9
$PSVPSCALE
 40
0.0
  9
$OLESTARTUP
290
     0
  0
ENDSEC
  0
SECTION
  2
CLASSES
  0
CLASS
  1
IMAGE
  2
AcDbRasterImage
  3
ISM
 90
    34943
280
     0
281
     1
  0
CLASS
  1
DICTIONARYVAR
  2
AcDbDictionaryVar
  3
ObjectDBX Classes
 90
        0
280
     0
281
     0
  0
CLASS
  1
RASTERVARIABLES
  2
AcDbRasterVariables
  3
ISM
 90
    32768
280
     0
281
     0
  0
CLASS
  1
IMAGEDEF
  2
AcDbRasterImageDef
  3
ISM
 90
    32768
280
     0
281
     0
  0
CLASS
  1
IMAGEDEF_REACTOR
  2
AcDbRasterImageDefReactor
  3
ISM
 90
    32769
280
     0
281
     0
  0
CLASS
  1
IDBUFFER
  2
AcDbIdBuffer
  3
ObjectDBX Classes
 90
    32768
280
     0
281
     0
  0
CLASS
  1
SPATIAL_FILTER
  2
AcDbSpatialFilter
  3
ObjectDBX Classes
 90
    32768
280
     0
281
     0
  0
CLASS
  1
SORTENTSTABLE
  2
AcDbSortentsTable
  3
ObjectDBX Classes
 90
    32768
280
     0
281
     0
  0
CLASS
  1
LAYER_INDEX
  2
AcDbLayerIndex
  3
ObjectDBX Classes
 90
    32768
280
     0
281
     0
  0
CLASS
  1
SPATIAL_INDEX
  2
AcDbSpatialIndex
  3
ObjectDBX Classes
 90
    32768
280
     0
281
     0
  0
CLASS
  1
OBJECT_PTR
  2
CAseDLPNTableRecord
  3
"ASE-LPNTableRecord"
 90
    32769
280
     0
281
     0
  0
CLASS
  1
LAYOUT
  2
AcDbLayout
  3
ObjectDBX Classes
 90
        0
280
     0
281
     0
  0
CLASS
  1
PLOTSETTINGS
  2
AcDbPlotSettings
  3
ObjectDBX Classes
 90
    32768
280
     0
281
     0
  0
CLASS
  1
ACDBDICTIONARYWDFLT
  2
AcDbDictionaryWithDefault
  3
ObjectDBX Classes
 90
        0
280
     0
281
     0
  0
CLASS
  1
ACDBPLACEHOLDER
  2
AcDbPlaceHolder
  3
ObjectDBX Classes
 90
        0
280
     0
281
     0
  0
CLASS
  1
VBA_PROJECT
  2
AcDbVbaProject
  3
acad
 90
    32768
280
     0
281
     0
  0
CLASS
  1
WIPEOUT
  2
AcDbWipeout
  3
"WipeOut|Product Desc: Object Enabler for WipeOut entity                        |Company: Autodesk, Inc.                        |WEB Address: www.autodesk.com"
 90
    34943
280
     0
281
     1
  0
CLASS
  1
WIPEOUTVARIABLES
  2
AcDbWipeoutVariables
  3
"WipeOut|Product Desc:     WipeOut Dbx Application|Company:          Autodesk, Inc.|WEB Address:      www.autodesk.com"
 90
    32768
280
     0
281
     0
  0
CLASS
  1
RTEXT
  2
RText
  3
RText|AutoCAD Express Tool|expresstools@autodesk.com
 90
    32768
280
     0
281
     1
  0
CLASS
  1
ARCALIGNEDTEXT
  2
AcDbArcAlignedText
  3
ATEXT|AutoCAD Express Tool|expresstools@autodesk.com
 90
    32768
280
     0
281
     1
  0
CLASS
  1
MATERIAL
  2
AcDbMaterial
  3
ObjectDBX Classes
 90
     1153
280
     0
281
     0
  0
CLASS
  1
VISUALSTYLE
  2
AcDbVisualStyle
  3
ObjectDBX Classes
 90
     4095
280
     0
281
     0
  0
CLASS
  1
TABLESTYLE
  2
AcDbTableStyle
  3
ObjectDBX Classes
 90
     4095
280
     0
281
     0
  0
CLASS
  1
SCALE
  2
AcDbScale
  3
ObjectDBX Classes
 90
     1153
280
     0
281
     0
  0
CLASS
  1
MLEADERSTYLE
  2
AcDbMLeaderStyle
  3
ACDB_MLEADERSTYLE_CLASS
 90
     4095
280
     0
281
     0
  0
CLASS
  1
CELLSTYLEMAP
  2
AcDbCellStyleMap
  3
ObjectDBX Classes
 90
     1152
280
     0
281
     0
  0
ENDSEC
  0
SECTION
  2
TABLES
  0
TABLE
  2
VPORT
  5
6
330
0
100
AcDbSymbolTable
 70
     1
  0
VPORT
  5
1B
330
6
100
AcDbSymbolTableRecord
100
AcDbViewportTableRecord
  2
*ACTIVE
 70
     0
 10
0.0
 20
0.0
 11
1.0
 21
1.0
 12
233.535422669858
 22
-219.6534596201277
 13
0.0
 23
0.0
 14
1.0
 24
1.0
 15
0.0
 25
0.0
 16
0.0
 26
0.0
 36
1.0
 17
0.0
 27
0.0
 37
0.0
 40
940.6425390770447
 41
1.805914972273567
 42
50.0
 43
0.0
 44
0.0
 50
0.0
 51
0.0
 71
     0
 72
   500
 73
     1
 74
     1
 75
     0
 76
     0
 77
     0
 78
     0
281
     0
 65
     1
110
0.0
120
0.0
130
0.0
111
1.0
121
0.0
131
0.0
112
0.0
122
1.0
132
0.0
 79
     0
146
0.0
  0
ENDTAB
  0
TABLE
  2
LTYPE
  5
3
330
0
100
AcDbSymbolTable
 70
     7
  0
LTYPE
  5
C
330
3
100
AcDbSymbolTableRecord
100
AcDbLinetypeTableRecord
  2
BYBLOCK
 70
     0
  3

 72
    65
 73
     0
 40
0.0
  0
LTYPE
  5
D
330
3
100
AcDbSymbolTableRecord
100
AcDbLinetypeTableRecord
  2
BYLAYER
 70
     0
  3

 72
    65
 73
     0
 40
0.0
  0
LTYPE
  5
E
330
3
100
AcDbSymbolTableRecord
100
AcDbLinetypeTableRecord
  2
CONTINUOUS
 70
     0
  3
Solid line
 72
    65
 73
     0
 40
0.0
  0
LTYPE
  5
F
330
3
100
AcDbSymbolTableRecord
100
AcDbLinetypeTableRecord
  2
DASHED
 70
     0
  3
__ __ __ __ __ __ __ __ __ __ __ __ __ __ __
 72
    65
 73
     2
 40
2.0
 49
1.199999999999999
 74
     0
 49
-0.8
 74
     0
  0
LTYPE
  5
10
330
3
100
AcDbSymbolTableRecord
100
AcDbLinetypeTableRecord
  2
CENTER
 70
     0
  3
____ _ ____ _ ____ _ ____ _ ____ _ ____ _ ____
 72
    65
 73
     4
 40
12.0
 49
9.0
 74
     0
 49
-1.0
 74
     0
 49
1.0
 74
     0
 49
-1.0
 74
     0
  0
LTYPE
  5
11
330
3
100
AcDbSymbolTableRecord
100
AcDbLinetypeTableRecord
  2
HIDDEN
 70
     0
  3
_ _ _ _ _ _ _ _ _ _ _ _ _ _ _ _ _ _ _ _ _ _ _
 72
    65
 73
     2
 40
3.2
 49
2.399999999999999
 74
     0
 49
-0.8
 74
     0
  0
LTYPE
  5
12
330
3
100
AcDbSymbolTableRecord
100
AcDbLinetypeTableRecord
  2
PHANTOM
 70
     0
  3
_____ _ _ _____ _ _ _____ _ _ _____ _ _ _____
 72
    65
 73
     6
 40
13.5
 49
9.0
 74
     0
 49
-1.0
 74
     0
 49
1.0
 74
     0
 49
-0.5
 74
     0
 49
1.0
 74
     0
 49
-1.0
 74
     0
  0
LTYPE
  5
13
330
3
100
AcDbSymbolTableRecord
100
AcDbLinetypeTableRecord
  2
DOT
 70
     0
  3
...............................................
 72
    65
 73
     2
 40
1.0
 49
0.5
 74
     0
 49
-0.5
 74
     0
  0
LTYPE
  5
14
330
3
100
AcDbSymbolTableRecord
100
AcDbLinetypeTableRecord
  2
DASHDOT
 70
     0
  3
__ . __ . __ . __ . __ . __ . __ . __ . __ . __
 72
    65
 73
     4
 40
8.0
 49
5.0
 74
     0
 49
-1.0
 74
     0
 49
1.0
 74
     0
 49
-1.0
 74
     0
  0
ENDTAB
  0
TABLE
  2
LAYER
  5
1
330
0
100
AcDbSymbolTable
 70
     6
  0
LAYER
  5
15
102
{ACAD_XDICTIONARY
360
E81
102
}
330
1
100
AcDbSymbolTableRecord
100
AcDbLayerTableRecord
  2
0
 70
     0
 62
     7
  6
CONTINUOUS
370
    -3
390
E28
  0
LAYER
  5
16
102
{ACAD_XDICTIONARY
360
E83
102
}
330
1
100
AcDbSymbolTableRecord
100
AcDbLayerTableRecord
  2
1
 70
     0
 62
     7
  6
CONTINUOUS
370
    -3
390
E28
  0
LAYER
  5
17
102
{ACAD_XDICTIONARY
360
E85
102
}
330
1
100
AcDbSymbolTableRecord
100
AcDbLayerTableRecord
  2
2
 70
     0
 62
     7
  6
CONTINUOUS
370
    -3
390
E28
  0
LAYER
  5
18
102
{ACAD_XDICTIONARY
360
E87
102
}
330
1
100
AcDbSymbolTableRecord
100
AcDbLayerTableRecord
  2
5
 70
     0
 62
     7
  6
CONTINUOUS
370
    -3
390
E28
  0
LAYER
  5
19
102
{ACAD_XDICTIONARY
360
E89
102
}
330
1
100
AcDbSymbolTableRecord
100
AcDbLayerTableRecord
  2
18
 70
     0
 62
     7
  6
CONTINUOUS
370
    -3
390
E28
  0
LAYER
  5
1A
102
{ACAD_XDICTIONARY
360
E8B
102
}
330
1
100
AcDbSymbolTableRecord
100
AcDbLayerTableRecord
  2
20
 70
     0
 62
     7
  6
CONTINUOUS
370
    -3
390
E28
  0
ENDTAB
  0
TABLE
  2
STYLE
  5
2
330
0
100
AcDbSymbolTable
 70
     1
  0
STYLE
  5
1D
330
2
100
AcDbSymbolTableRecord
100
AcDbTextStyleTableRecord
  2
STANDARD
 70
     0
 40
0.0
 41
1.0
 50
0.0
 71
     0
 42
1.0
  3
simplex.shx
  4
BIGFONT.shx
  0
ENDTAB
  0
TABLE
  2
VIEW
  5
4
330
0
100
AcDbSymbolTable
 70
     0
  0
ENDTAB
  0
TABLE
  2
UCS
  5
5
330
0
100
AcDbSymbolTable
 70
     0
  0
ENDTAB
  0
TABLE
  2
APPID
  5
7
330
0
100
AcDbSymbolTable
 70
     3
  0
APPID
  5
1C
330
7
100
AcDbSymbolTableRecord
100
AcDbRegAppTableRecord
  2
ACAD
 70
     0
  0
APPID
  5
E7A
330
7
100
AcDbSymbolTableRecord
100
AcDbRegAppTableRecord
  2
ACAD_MLEADERVER
 70
     0
  0
APPID
  5
E80
330
7
100
AcDbSymbolTableRecord
100
AcDbRegAppTableRecord
  2
AcadAnnoPO
 70
     0
  0
ENDTAB
  0
TABLE
  2
DIMSTYLE
  5
8
330
0
100
AcDbSymbolTable
 70
     1
100
AcDbDimStyleTable
 71
     0
  0
DIMSTYLE
105
2C
330
8
100
AcDbSymbolTableRecord
100
AcDbDimStyleTableRecord
  2
STANDARD
 70
     0
 40
2.0
 77
     1
340
1D
  0
ENDTAB
  0
TABLE
  2
BLOCK_RECORD
  5
27
330
0
100
AcDbSymbolTable
 70
     7
  0
BLOCK_RECORD
  5
25
330
27
100
AcDbSymbolTableRecord
100
AcDbBlockTableRecord
  2
*MODEL_SPACE
340
E7D
  0
BLOCK_RECORD
  5
26
330
27
100
AcDbSymbolTableRecord
100
AcDbBlockTableRecord
  2
*PAPER_SPACE
340
E7E
  0
BLOCK_RECORD
  5
1E
330
27
100
AcDbSymbolTableRecord
100
AcDbBlockTableRecord
  2
*D0
340
0
  0
BLOCK_RECORD
  5
1F
330
27
100
AcDbSymbolTableRecord
100
AcDbBlockTableRecord
  2
*D1
340
0
  0
BLOCK_RECORD
  5
20
330
27
100
AcDbSymbolTableRecord
100
AcDbBlockTableRecord
  2
*D2
340
0
  0
BLOCK_RECORD
  5
21
330
27
100
AcDbSymbolTableRecord
100
AcDbBlockTableRecord
  2
*D3
340
0
  0
BLOCK_RECORD
  5
22
330
27
100
AcDbSymbolTableRecord
100
AcDbBlockTableRecord
  2
*D4
340
0
  0
BLOCK_RECORD
  5
23
330
27
100
AcDbSymbolTableRecord
100
AcDbBlockTableRecord
  2
*D5
340
0
  0
BLOCK_RECORD
  5
24
330
27
100
AcDbSymbolTableRecord
100
AcDbBlockTableRecord
  2
*D6
340
0
  0
ENDTAB
  0
ENDSEC
  0
SECTION
  2
BLOCKS
  0
BLOCK
  5
28
330
25
100
AcDbEntity
  8
0
100
AcDbBlockBegin
  2
*MODEL_SPACE
 70
     0
 10
0.0
 20
0.0
 30
0.0
  3
*MODEL_SPACE
  1

  0
ENDBLK
  5
29
330
25
100
AcDbEntity
  8
0
100
AcDbBlockEnd
  0
BLOCK
  5
2A
330
26
100
AcDbEntity
 67
     1
  8
0
100
AcDbBlockBegin
  2
*PAPER_SPACE
 70
     0
 10
0.0
 20
0.0
 30
0.0
  3
*PAPER_SPACE
  1

  0
ENDBLK
  5
2B
330
26
100
AcDbEntity
 67
     1
  8
0
100
AcDbBlockEnd
  0
BLOCK
  5
99E
330
1E
100
AcDbEntity
  8
5
100
AcDbBlockBegin
  2
*D0
 70
     1
 10
0.0
 20
0.0
 30
0.0
  3
*D0
  1

  0
TEXT
  5
99F
330
1E
100
AcDbEntity
  8
5
 62
     2
100
AcDbText
 10
-324.633148
 20
193.12296
 30
0.0
 40
6.599999999999999
  1
75
 50
90.0
 41
0.6917647058823527
 72
     5
 11
-324.633148
 21
200.51496
 31
0.0
100
AcDbText
  0
LINE
  5
9A0
330
1E
100
AcDbEntity
  8
5
 62
     2
100
AcDbLine
 10
-310.422
 20
160.24296
 30
0.0
 11
-325.633148
 21
160.24296
 31
0.0
  0
LINE
  5
9A1
330
1E
100
AcDbEntity
  8
5
 62
     2
100
AcDbLine
 10
-323.633148
 20
160.24296
 30
0.0
 11
-322.597872
 21
164.106663
 31
0.0
  0
LINE
  5
9A2
330
1E
100
AcDbEntity
  8
5
 62
     2
100
AcDbLine
 10
-323.633148
 20
160.24296
 30
0.0
 11
-324.668424
 21
164.106663
 31
0.0
  0
LINE
  5
9A3
330
1E
100
AcDbEntity
  8
5
 62
     2
100
AcDbLine
 10
-322.597872
 20
164.106663
 30
0.0
 11
-324.668424
 21
164.106663
 31
0.0
  0
LINE
  5
9A4
330
1E
100
AcDbEntity
  8
5
 62
     2
100
AcDbLine
 10
-323.633148
 20
160.24296
 30
0.0
 11
-323.633148
 21
235.24296
 31
0.0
  0
LINE
  5
9A5
330
1E
100
AcDbEntity
  8
5
 62
     2
100
AcDbLine
 10
-323.633148
 20
235.24296
 30
0.0
 11
-324.668424
 21
231.379257
 31
0.0
  0
LINE
  5
9A6
330
1E
100
AcDbEntity
  8
5
 62
     2
100
AcDbLine
 10
-323.633148
 20
235.24296
 30
0.0
 11
-322.597872
 21
231.379257
 31
0.0
  0
LINE
  5
9A7
330
1E
100
AcDbEntity
  8
5
 62
     2
100
AcDbLine
 10
-324.668424
 20
231.379257
 30
0.0
 11
-322.597872
 21
231.379257
 31
0.0
  0
LINE
  5
9A8
330
1E
100
AcDbEntity
  8
5
 62
     2
100
AcDbLine
 10
-259.842159
 20
235.24296
 30
0.0
 11
-325.633148
 21
235.24296
 31
0.0
  0
ENDBLK
  5
9A9
330
1E
100
AcDbEntity
  8
5
100
AcDbBlockEnd
  0
BLOCK
  5
9AA
330
1F
100
AcDbEntity
  8
5
100
AcDbBlockBegin
  2
*D1
 70
     1
 10
0.0
 20
0.0
 30
0.0
  3
*D1
  1

  0
TEXT
  5
9AB
330
1F
100
AcDbEntity
  8
5
 62
     2
100
AcDbText
 10
-324.633148
 20
130.62296
 30
0.0
 40
6.599999999999999
  1
50
 50
90.0
 41
0.6917647058823526
 72
     5
 11
-324.633148
 21
138.01496
 31
0.0
100
AcDbText
  0
LINE
  5
9AC
330
1F
100
AcDbEntity
  8
5
 62
     2
100
AcDbLine
 10
-244.842159
 20
110.24296
 30
0.0
 11
-325.633148
 21
110.24296
 31
0.0
  0
LINE
  5
9AD
330
1F
100
AcDbEntity
  8
5
 62
     2
100
AcDbLine
 10
-323.633148
 20
110.24296
 30
0.0
 11
-322.597872
 21
114.106663
 31
0.0
  0
LINE
  5
9AE
330
1F
100
AcDbEntity
  8
5
 62
     2
100
AcDbLine
 10
-323.633148
 20
110.24296
 30
0.0
 11
-324.668424
 21
114.106663
 31
0.0
  0
LINE
  5
9AF
330
1F
100
AcDbEntity
  8
5
 62
     2
100
AcDbLine
 10
-322.597872
 20
114.106663
 30
0.0
 11
-324.668424
 21
114.106663
 31
0.0
  0
LINE
  5
9B0
330
1F
100
AcDbEntity
  8
5
 62
     2
100
AcDbLine
 10
-323.633148
 20
110.24296
 30
0.0
 11
-323.633148
 21
160.24296
 31
0.0
  0
LINE
  5
9B1
330
1F
100
AcDbEntity
  8
5
 62
     2
100
AcDbLine
 10
-323.633148
 20
160.24296
 30
0.0
 11
-324.668424
 21
156.379257
 31
0.0
  0
LINE
  5
9B2
330
1F
100
AcDbEntity
  8
5
 62
     2
100
AcDbLine
 10
-323.633148
 20
160.24296
 30
0.0
 11
-322.597872
 21
156.379257
 31
0.0
  0
LINE
  5
9B3
330
1F
100
AcDbEntity
  8
5
 62
     2
100
AcDbLine
 10
-324.668424
 20
156.379257
 30
0.0
 11
-322.597872
 21
156.379257
 31
0.0
  0
LINE
  5
9B4
330
1F
100
AcDbEntity
  8
5
 62
     2
100
AcDbLine
 10
-310.422
 20
160.24296
 30
0.0
 11
-325.633148
 21
160.24296
 31
0.0
  0
ENDBLK
  5
9B5
330
1F
100
AcDbEntity
  8
5
100
AcDbBlockEnd
  0
BLOCK
  5
9B6
330
20
100
AcDbEntity
  8
5
100
AcDbBlockBegin
  2
*D2
 70
     1
 10
0.0
 20
0.0
 30
0.0
  3
*D2
  1

  0
TEXT
  5
9B7
330
20
100
AcDbEntity
  8
5
 62
     2
100
AcDbText
 10
16.480547
 20
-105.471264
 30
0.0
 40
6.599999999999999
  1
138
 50
90.0
 41
0.7643999999999993
 72
     5
 11
16.480547
 21
-93.45926400000001
 31
0.0
100
AcDbText
  0
LINE
  5
9B8
330
20
100
AcDbEntity
  8
5
 62
     2
100
AcDbLine
 10
51.194351
 20
-167.541264
 30
0.0
 11
15.480547
 21
-167.541264
 31
0.0
  0
LINE
  5
9B9
330
20
100
AcDbEntity
  8
5
 62
     2
100
AcDbLine
 10
17.480547
 20
-167.541264
 30
0.0
 11
18.515823
 21
-163.677561
 31
0.0
  0
LINE
  5
9BA
330
20
100
AcDbEntity
  8
5
 62
     2
100
AcDbLine
 10
17.480547
 20
-167.541264
 30
0.0
 11
16.445271
 21
-163.677561
 31
0.0
  0
LINE
  5
9BB
330
20
100
AcDbEntity
  8
5
 62
     2
100
AcDbLine
 10
18.515823
 20
-163.677561
 30
0.0
 11
16.445271
 21
-163.677561
 31
0.0
  0
LINE
  5
9BC
330
20
100
AcDbEntity
  8
5
 62
     2
100
AcDbLine
 10
17.480547
 20
-167.541264
 30
0.0
 11
17.480547
 21
-29.541264
 31
0.0
  0
LINE
  5
9BD
330
20
100
AcDbEntity
  8
5
 62
     2
100
AcDbLine
 10
17.480547
 20
-29.541264
 30
0.0
 11
16.445271
 21
-33.404968
 31
0.0
  0
LINE
  5
9BE
330
20
100
AcDbEntity
  8
5
 62
     2
100
AcDbLine
 10
17.480547
 20
-29.541264
 30
0.0
 11
18.515823
 21
-33.404968
 31
0.0
  0
LINE
  5
9BF
330
20
100
AcDbEntity
  8
5
 62
     2
100
AcDbLine
 10
16.445271
 20
-33.404968
 30
0.0
 11
18.515823
 21
-33.404968
 31
0.0
  0
LINE
  5
9C0
330
20
100
AcDbEntity
  8
5
 62
     2
100
AcDbLine
 10
34.667908
 20
-29.541264
 30
0.0
 11
15.480547
 21
-29.541264
 31
0.0
  0
ENDBLK
  5
9C1
330
20
100
AcDbEntity
  8
5
100
AcDbBlockEnd
  0
BLOCK
  5
9C2
330
21
100
AcDbEntity
  8
5
100
AcDbBlockBegin
  2
*D3
 70
     1
 10
0.0
 20
0.0
 30
0.0
  3
*D3
  1

  0
TEXT
  5
9C3
330
21
100
AcDbEntity
  8
5
 62
     2
100
AcDbText
 10
82.04790799999999
 20
-258.112793
 30
0.0
 40
6.599999999999999
  1
43
 41
0.691764705882354
 72
     5
 11
89.43990799999999
 21
-258.112793
 31
0.0
100
AcDbText
  0
LINE
  5
9C4
330
21
100
AcDbEntity
  8
5
 62
     2
100
AcDbLine
 10
65.16790799999999
 20
-213.541264
 30
0.0
 11
65.16790799999999
 21
-261.112793
 31
0.0
  0
LINE
  5
9C5
330
21
100
AcDbEntity
  8
5
 62
     2
100
AcDbLine
 10
65.16790799999999
 20
-259.112793
 30
0.0
 11
69.031611
 21
-260.148069
 31
0.0
  0
LINE
  5
9C6
330
21
100
AcDbEntity
  8
5
 62
     2
100
AcDbLine
 10
65.16790799999999
 20
-259.112793
 30
0.0
 11
69.031611
 21
-258.077517
 31
0.0
  0
LINE
  5
9C7
330
21
100
AcDbEntity
  8
5
 62
     2
100
AcDbLine
 10
69.031611
 20
-260.148069
 30
0.0
 11
69.031611
 21
-258.077517
 31
0.0
  0
LINE
  5
9C8
330
21
100
AcDbEntity
  8
5
 62
     2
100
AcDbLine
 10
65.16790799999999
 20
-259.112793
 30
0.0
 11
108.167908
 21
-259.112793
 31
0.0
  0
LINE
  5
9C9
330
21
100
AcDbEntity
  8
5
 62
     2
100
AcDbLine
 10
108.167908
 20
-259.112793
 30
0.0
 11
104.304204
 21
-258.077517
 31
0.0
  0
LINE
  5
9CA
330
21
100
AcDbEntity
  8
5
 62
     2
100
AcDbLine
 10
108.167908
 20
-259.112793
 30
0.0
 11
104.304204
 21
-260.148069
 31
0.0
  0
LINE
  5
9CB
330
21
100
AcDbEntity
  8
5
 62
     2
100
AcDbLine
 10
104.304204
 20
-258.077517
 30
0.0
 11
104.304204
 21
-260.148069
 31
0.0
  0
LINE
  5
9CC
330
21
100
AcDbEntity
  8
5
 62
     2
100
AcDbLine
 10
108.167908
 20
-213.541264
 30
0.0
 11
108.167908
 21
-261.112793
 31
0.0
  0
ENDBLK
  5
9CD
330
21
100
AcDbEntity
  8
5
100
AcDbBlockEnd
  0
BLOCK
  5
9CE
330
22
100
AcDbEntity
  8
5
100
AcDbBlockBegin
  2
*D4
 70
     1
 10
0.0
 20
0.0
 30
0.0
  3
*D4
  1

  0
LINE
  5
9CF
330
22
100
AcDbEntity
  8
5
 62
     2
100
AcDbLine
 10
-242.841921
 20
6.832536
 30
0.0
 11
-242.841921
 21
54.47683000000001
 31
0.0
  0
LINE
  5
9D0
330
22
100
AcDbEntity
  8
5
 62
     2
100
AcDbLine
 10
-242.841921
 20
52.47683000000001
 30
0.0
 11
-238.978218
 21
51.44155300000001
 31
0.0
  0
LINE
  5
9D1
330
22
100
AcDbEntity
  8
5
 62
     2
100
AcDbLine
 10
-242.841921
 20
52.47683000000001
 30
0.0
 11
-238.978218
 21
53.512106
 31
0.0
  0
LINE
  5
9D2
330
22
100
AcDbEntity
  8
5
 62
     2
100
AcDbLine
 10
-238.978218
 20
51.44155300000001
 30
0.0
 11
-238.978218
 21
53.512106
 31
0.0
  0
LINE
  5
9D3
330
22
100
AcDbEntity
  8
5
 62
     2
100
AcDbLine
 10
-242.841921
 20
52.47683000000001
 30
0.0
 11
-42.980699
 21
52.47683000000001
 31
0.0
  0
LINE
  5
9D4
330
22
100
AcDbEntity
  8
5
 62
     2
100
AcDbLine
 10
-42.980699
 20
52.47683000000001
 30
0.0
 11
-46.844402
 21
53.512106
 31
0.0
  0
LINE
  5
9D5
330
22
100
AcDbEntity
  8
5
 62
     2
100
AcDbLine
 10
-42.980699
 20
52.47683000000001
 30
0.0
 11
-46.844402
 21
51.44155300000001
 31
0.0
  0
LINE
  5
9D6
330
22
100
AcDbEntity
  8
5
 62
     2
100
AcDbLine
 10
-46.844402
 20
53.512106
 30
0.0
 11
-46.844402
 21
51.44155300000001
 31
0.0
  0
LINE
  5
9D7
330
22
100
AcDbEntity
  8
5
 62
     2
100
AcDbLine
 10
-42.980699
 20
31.178993
 30
0.0
 11
-42.980699
 21
54.47683000000001
 31
0.0
  0
ENDBLK
  5
9D8
330
22
100
AcDbEntity
  8
5
100
AcDbBlockEnd
  0
BLOCK
  5
9D9
330
23
100
AcDbEntity
  8
5
100
AcDbBlockBegin
  2
*D5
 70
     1
 10
0.0
 20
0.0
 30
0.0
  3
*D5
  1

  0
LINE
  5
9DA
330
23
100
AcDbEntity
  8
5
 62
     2
100
AcDbLine
 10
34.667908
 20
-29.541264
 30
0.0
 11
15.480547
 21
-29.541264
 31
0.0
  0
LINE
  5
9DB
330
23
100
AcDbEntity
  8
5
 62
     2
100
AcDbLine
 10
17.480547
 20
-29.541264
 30
0.0
 11
18.515823
 21
-25.677561
 31
0.0
  0
LINE
  5
9DC
330
23
100
AcDbEntity
  8
5
 62
     2
100
AcDbLine
 10
17.480547
 20
-29.541264
 30
0.0
 11
16.445271
 21
-25.677561
 31
0.0
  0
LINE
  5
9DD
330
23
100
AcDbEntity
  8
5
 62
     2
100
AcDbLine
 10
18.515823
 20
-25.677561
 30
0.0
 11
16.445271
 21
-25.677561
 31
0.0
  0
LINE
  5
9DE
330
23
100
AcDbEntity
  8
5
 62
     2
100
AcDbLine
 10
17.480547
 20
-29.541264
 30
0.0
 11
17.480547
 21
36.63610999999999
 31
0.0
  0
LINE
  5
9DF
330
23
100
AcDbEntity
  8
5
 62
     2
100
AcDbLine
 10
17.480547
 20
36.63610999999999
 30
0.0
 11
16.445271
 21
32.772406
 31
0.0
  0
LINE
  5
9E0
330
23
100
AcDbEntity
  8
5
 62
     2
100
AcDbLine
 10
17.480547
 20
36.63610999999999
 30
0.0
 11
18.515823
 21
32.772406
 31
0.0
  0
LINE
  5
9E1
330
23
100
AcDbEntity
  8
5
 62
     2
100
AcDbLine
 10
16.445271
 20
32.772406
 30
0.0
 11
18.515823
 21
32.772406
 31
0.0
  0
LINE
  5
9E2
330
23
100
AcDbEntity
  8
5
 62
     2
100
AcDbLine
 10
84.667908
 20
36.63610999999999
 30
0.0
 11
15.480547
 21
36.63610999999999
 31
0.0
  0
ENDBLK
  5
9E3
330
23
100
AcDbEntity
  8
5
100
AcDbBlockEnd
  0
BLOCK
  5
9E4
330
24
100
AcDbEntity
  8
5
100
AcDbBlockBegin
  2
*D6
 70
     1
 10
0.0
 20
0.0
 30
0.0
  3
*D6
  1

  0
LINE
  5
9E5
330
24
100
AcDbEntity
  8
5
 62
     2
100
AcDbLine
 10
79.667908
 20
-234.441264
 30
0.0
 11
15.480547
 21
-234.441264
 31
0.0
  0
LINE
  5
9E6
330
24
100
AcDbEntity
  8
5
 62
     2
100
AcDbLine
 10
17.480547
 20
-234.441264
 30
0.0
 11
18.515823
 21
-230.577561
 31
0.0
  0
LINE
  5
9E7
330
24
100
AcDbEntity
  8
5
 62
     2
100
AcDbLine
 10
17.480547
 20
-234.441264
 30
0.0
 11
16.445271
 21
-230.577561
 31
0.0
  0
LINE
  5
9E8
330
24
100
AcDbEntity
  8
5
 62
     2
100
AcDbLine
 10
18.515823
 20
-230.577561
 30
0.0
 11
16.445271
 21
-230.577561
 31
0.0
  0
LINE
  5
9E9
330
24
100
AcDbEntity
  8
5
 62
     2
100
AcDbLine
 10
17.480547
 20
-234.441264
 30
0.0
 11
17.480547
 21
-167.541264
 31
0.0
  0
LINE
  5
9EA
330
24
100
AcDbEntity
  8
5
 62
     2
100
AcDbLine
 10
17.480547
 20
-167.541264
 30
0.0
 11
16.445271
 21
-171.404968
 31
0.0
  0
LINE
  5
9EB
330
24
100
AcDbEntity
  8
5
 62
     2
100
AcDbLine
 10
17.480547
 20
-167.541264
 30
0.0
 11
18.515823
 21
-171.404968
 31
0.0
  0
LINE
  5
9EC
330
24
100
AcDbEntity
  8
5
 62
     2
100
AcDbLine
 10
16.445271
 20
-171.404968
 30
0.0
 11
18.515823
 21
-171.404968
 31
0.0
  0
LINE
  5
9ED
330
24
100
AcDbEntity
  8
5
 62
     2
100
AcDbLine
 10
51.194351
 20
-167.541264
 30
0.0
 11
15.480547
 21
-167.541264
 31
0.0
  0
ENDBLK
  5
9EE
330
24
100
AcDbEntity
  8
5
100
AcDbBlockEnd
  0
ENDSEC
  0
SECTION
  2
ENTITIES
  0
LINE
  5
2D
330
25
100
AcDbEntity
  8
1
  6
DASHED
100
AcDbLine
 10
-267.842159
 20
195.24296
 30
0.0
 11
-217.842159
 21
195.24296
 31
0.0
  0
LINE
  5
2E
330
25
100
AcDbEntity
  8
1
  6
DASHED
100
AcDbLine
 10
-267.842159
 20
125.24296
 30
0.0
 11
-217.842159
 21
125.24296
 31
0.0
  0
LINE
  5
2F
330
25
100
AcDbEntity
  8
1
  6
DASHED
100
AcDbLine
 10
-277.842159
 20
135.24296
 30
0.0
 11
-277.842159
 21
185.24296
 31
0.0
  0
LINE
  5
30
330
25
100
AcDbEntity
  8
1
  6
DASHED
100
AcDbLine
 10
-207.842159
 20
135.24296
 30
0.0
 11
-207.842159
 21
185.24296
 31
0.0
  0
ARC
  5
31
330
25
100
AcDbEntity
  8
1
  6
DASHED
100
AcDbCircle
 10
-267.842159
 20
135.24296
 30
0.0
 40
10.0
100
AcDbArc
 50
180.0
 51
270.0
  0
ARC
  5
32
330
25
100
AcDbEntity
  8
1
  6
DASHED
100
AcDbCircle
 10
-217.842159
 20
135.24296
 30
0.0
 40
10.0
100
AcDbArc
 50
270.0
 51
0.0
  0
ARC
  5
33
330
25
100
AcDbEntity
  8
1
  6
DASHED
100
AcDbCircle
 10
-217.842159
 20
185.24296
 30
0.0
 40
10.0
100
AcDbArc
 50
0.0
 51
90.0
  0
ARC
  5
34
330
25
100
AcDbEntity
  8
1
  6
DASHED
100
AcDbCircle
 10
-267.842159
 20
185.24296
 30
0.0
 40
10.0
100
AcDbArc
 50
90.0
 51
180.0
  0
CIRCLE
  5
35
330
25
100
AcDbEntity
  8
1
  6
DASHED
100
AcDbCircle
 10
-218.092159
 20
184.99296
 30
0.0
 40
4.5
  0
CIRCLE
  5
36
330
25
100
AcDbEntity
  8
1
  6
DASHED
100
AcDbCircle
 10
-218.092159
 20
135.49296
 30
0.0
 40
4.5
  0
CIRCLE
  5
37
330
25
100
AcDbEntity
  8
1
  6
DASHED
100
AcDbCircle
 10
-267.592159
 20
135.49296
 30
0.0
 40
4.5
  0
CIRCLE
  5
38
330
25
100
AcDbEntity
  8
1
  6
DASHED
100
AcDbCircle
 10
-267.592159
 20
184.99296
 30
0.0
 40
4.5
  0
LINE
  5
39
330
25
100
AcDbEntity
  8
1
  6
CENTER
 62
     2
100
AcDbLine
 10
-227.278534
 20
184.99296
 30
0.0
 11
-209.192613
 21
184.99296
 31
0.0
  0
LINE
  5
3A
330
25
100
AcDbEntity
  8
1
  6
CENTER
 62
     2
100
AcDbLine
 10
-276.972818
 20
135.49296
 30
0.0
 11
-257.823975
 21
135.49296
 31
0.0
  0
LINE
  5
3B
330
25
100
AcDbEntity
  8
1
  6
CENTER
 62
     2
100
AcDbLine
 10
-218.092159
 20
175.697678
 30
0.0
 11
-218.092159
 21
194.345108
 31
0.0
  0
LINE
  5
3C
330
25
100
AcDbEntity
  8
1
  6
CENTER
 62
     2
100
AcDbLine
 10
-267.592159
 20
126.515915
 30
0.0
 11
-267.592159
 21
145.138733
 31
0.0
  0
LINE
  5
3D
330
25
100
AcDbEntity
  8
1
  6
DASHED
100
AcDbLine
 10
-198.842159
 20
181.74296
 30
0.0
 11
-207.842159
 21
181.74296
 31
0.0
  0
LINE
  5
3E
330
25
100
AcDbEntity
  8
1
  6
DASHED
100
AcDbLine
 10
-198.842159
 20
138.74296
 30
0.0
 11
-207.842159
 21
138.74296
 31
0.0
  0
LINE
  5
3F
330
25
100
AcDbEntity
  8
1
  6
DASHED
100
AcDbLine
 10
-197.842159
 20
180.74296
 30
0.0
 11
-198.842159
 21
181.74296
 31
0.0
  0
LINE
  5
40
330
25
100
AcDbEntity
  8
1
  6
DASHED
100
AcDbLine
 10
-197.842159
 20
139.74296
 30
0.0
 11
-198.842159
 21
138.74296
 31
0.0
  0
LINE
  5
41
330
25
100
AcDbEntity
  8
1
  6
DASHED
100
AcDbLine
 10
-197.842159
 20
180.74296
 30
0.0
 11
-207.842159
 21
180.74296
 31
0.0
  0
LINE
  5
42
330
25
100
AcDbEntity
  8
1
  6
DASHED
100
AcDbLine
 10
-197.842159
 20
139.74296
 30
0.0
 11
-207.842159
 21
139.74296
 31
0.0
  0
LINE
  5
43
330
25
100
AcDbEntity
  8
1
  6
DASHED
100
AcDbLine
 10
-197.842159
 20
139.74296
 30
0.0
 11
-197.842159
 21
147.173652
 31
0.0
  0
LINE
  5
44
330
25
100
AcDbEntity
  8
1
  6
DASHED
100
AcDbLine
 10
-197.842159
 20
173.312268
 30
0.0
 11
-197.842159
 21
180.74296
 31
0.0
  0
ARC
  5
45
330
25
100
AcDbEntity
  8
1
  6
DASHED
100
AcDbCircle
 10
-201.842159
 20
173.312268
 30
0.0
 40
4.0
100
AcDbArc
 50
289.471221
 51
360.0
  0
ARC
  5
46
330
25
100
AcDbEntity
  8
1
  6
DASHED
100
AcDbCircle
 10
-198.842159
 20
164.826987
 30
0.0
 40
5.0
100
AcDbArc
 50
109.471221
 51
180.0
  0
ARC
  5
47
330
25
100
AcDbEntity
  8
1
  6
DASHED
100
AcDbCircle
 10
-201.842159
 20
147.173652
 30
0.0
 40
4.0
100
AcDbArc
 50
0.0
 51
70.528779
  0
ARC
  5
48
330
25
100
AcDbEntity
  8
1
  6
DASHED
100
AcDbCircle
 10
-198.842159
 20
155.658933
 30
0.0
 40
5.0
100
AcDbArc
 50
180.0
 51
250.528779
  0
LINE
  5
49
330
25
100
AcDbEntity
  8
1
  6
DASHED
100
AcDbLine
 10
-197.842159
 20
159.24296
 30
0.0
 11
-197.842159
 21
161.24296
 31
0.0
  0
LINE
  5
4A
330
25
100
AcDbEntity
  8
1
  6
DASHED
100
AcDbLine
 10
-199.842159
 20
163.24296
 30
0.0
 11
-207.842159
 21
163.24296
 31
0.0
  0
LINE
  5
4B
330
25
100
AcDbEntity
  8
1
  6
DASHED
100
AcDbLine
 10
-199.842159
 20
157.24296
 30
0.0
 11
-207.842159
 21
157.24296
 31
0.0
  0
ARC
  5
4C
330
25
100
AcDbEntity
  8
1
  6
DASHED
100
AcDbCircle
 10
-199.842159
 20
161.24296
 30
0.0
 40
2.0
100
AcDbArc
 50
0.0
 51
90.0
  0
ARC
  5
4D
330
25
100
AcDbEntity
  8
1
  6
DASHED
100
AcDbCircle
 10
-199.842159
 20
159.24296
 30
0.0
 40
2.0
100
AcDbArc
 50
270.0
 51
360.0
  0
LINE
  5
4E
330
25
100
AcDbEntity
  8
1
  6
DASHED
100
AcDbLine
 10
-203.842159
 20
168.63546
 30
0.0
 11
-207.842159
 21
168.63546
 31
0.0
  0
LINE
  5
4F
330
25
100
AcDbEntity
  8
1
  6
DASHED
100
AcDbLine
 10
-203.842159
 20
151.85046
 30
0.0
 11
-207.842159
 21
151.85046
 31
0.0
  0
LINE
  5
50
330
25
100
AcDbEntity
  8
1
100
AcDbLine
 10
121.667908
 20
-37.541264
 30
0.0
 11
121.667908
 21
-29.541264
 31
0.0
  0
ARC
  5
51
330
25
100
AcDbEntity
  8
1
100
AcDbCircle
 10
117.667908
 20
-37.541264
 30
0.0
 40
4.0
100
AcDbArc
 50
270.0
 51
360.0
  0
LINE
  5
52
330
25
100
AcDbEntity
  8
1
  6
DASHED
100
AcDbLine
 10
-199.277135
 20
170.24296
 30
0.0
 11
-207.842159
 21
170.24296
 31
0.0
  0
LINE
  5
53
330
25
100
AcDbEntity
  8
1
  6
DASHED
100
AcDbLine
 10
-199.277135
 20
150.24296
 30
0.0
 11
-207.842159
 21
150.24296
 31
0.0
  0
LINE
  5
54
330
25
100
AcDbEntity
  8
1
  6
DASHED
100
AcDbLine
 10
-203.842159
 20
155.658933
 30
0.0
 11
-203.842159
 21
157.24296
 31
0.0
  0
LINE
  5
55
330
25
100
AcDbEntity
  8
1
  6
DASHED
100
AcDbLine
 10
-203.842159
 20
163.24296
 30
0.0
 11
-203.842159
 21
164.826987
 31
0.0
  0
LINE
  5
56
330
25
100
AcDbEntity
  8
1
  6
DASHED
100
AcDbLine
 10
-203.792159
 20
137.61796
 30
0.0
 11
-207.842159
 21
137.61796
 31
0.0
  0
LINE
  5
57
330
25
100
AcDbEntity
  8
1
  6
DASHED
100
AcDbLine
 10
-203.792159
 20
182.86796
 30
0.0
 11
-207.842159
 21
182.86796
 31
0.0
  0
LINE
  5
58
330
25
100
AcDbEntity
  8
1
  6
DASHED
100
AcDbLine
 10
-203.792159
 20
182.86796
 30
0.0
 11
-202.342436
 21
182.031582
 31
0.0
  0
LINE
  5
59
330
25
100
AcDbEntity
  8
1
  6
DASHED
100
AcDbLine
 10
-203.792159
 20
137.61796
 30
0.0
 11
-202.342436
 21
138.4543379999999
 31
0.0
  0
ARC
  5
5A
330
25
100
AcDbEntity
  8
1
  6
DASHED
100
AcDbCircle
 10
-202.842159
 20
181.165396
 30
0.0
 40
1.0
100
AcDbArc
 50
35.279384
 51
60.018361
  0
ARC
  5
5B
330
25
100
AcDbEntity
  8
1
  6
DASHED
100
AcDbCircle
 10
-202.842159
 20
139.320524
 30
0.0
 40
1.0
100
AcDbArc
 50
299.981639
 51
324.720616
  0
LINE
  5
5C
330
25
100
AcDbEntity
  8
1
  6
DASHED
100
AcDbLine
 10
-286.842159
 20
181.74296
 30
0.0
 11
-277.842159
 21
181.74296
 31
0.0
  0
LINE
  5
5D
330
25
100
AcDbEntity
  8
1
  6
DASHED
100
AcDbLine
 10
-286.842159
 20
138.74296
 30
0.0
 11
-277.842159
 21
138.74296
 31
0.0
  0
LINE
  5
5E
330
25
100
AcDbEntity
  8
1
  6
DASHED
100
AcDbLine
 10
-287.842159
 20
180.74296
 30
0.0
 11
-286.842159
 21
181.74296
 31
0.0
  0
LINE
  5
5F
330
25
100
AcDbEntity
  8
1
  6
DASHED
100
AcDbLine
 10
-287.842159
 20
139.74296
 30
0.0
 11
-286.842159
 21
138.74296
 31
0.0
  0
LINE
  5
60
330
25
100
AcDbEntity
  8
1
  6
DASHED
100
AcDbLine
 10
-287.842159
 20
180.74296
 30
0.0
 11
-277.842159
 21
180.74296
 31
0.0
  0
LINE
  5
61
330
25
100
AcDbEntity
  8
1
  6
DASHED
100
AcDbLine
 10
-287.842159
 20
139.74296
 30
0.0
 11
-277.842159
 21
139.74296
 31
0.0
  0
LINE
  5
62
330
25
100
AcDbEntity
  8
1
  6
DASHED
100
AcDbLine
 10
-287.842159
 20
139.74296
 30
0.0
 11
-287.842159
 21
147.173652
 31
0.0
  0
LINE
  5
63
330
25
100
AcDbEntity
  8
1
  6
DASHED
100
AcDbLine
 10
-287.842159
 20
173.312268
 30
0.0
 11
-287.842159
 21
180.74296
 31
0.0
  0
ARC
  5
64
330
25
100
AcDbEntity
  8
1
  6
DASHED
100
AcDbCircle
 10
-283.842159
 20
173.312268
 30
0.0
 40
4.0
100
AcDbArc
 50
180.0
 51
250.528779
  0
ARC
  5
65
330
25
100
AcDbEntity
  8
1
  6
DASHED
100
AcDbCircle
 10
-286.842159
 20
164.826987
 30
0.0
 40
5.0
100
AcDbArc
 50
0.0
 51
70.528779
  0
ARC
  5
66
330
25
100
AcDbEntity
  8
1
  6
DASHED
100
AcDbCircle
 10
-283.842159
 20
147.173652
 30
0.0
 40
4.0
100
AcDbArc
 50
109.471221
 51
180.0
  0
ARC
  5
67
330
25
100
AcDbEntity
  8
1
  6
DASHED
100
AcDbCircle
 10
-286.842159
 20
155.658933
 30
0.0
 40
5.0
100
AcDbArc
 50
289.471221
 51
360.0
  0
LINE
  5
68
330
25
100
AcDbEntity
  8
1
  6
DASHED
100
AcDbLine
 10
-287.842159
 20
159.24296
 30
0.0
 11
-287.842159
 21
161.24296
 31
0.0
  0
LINE
  5
69
330
25
100
AcDbEntity
  8
1
  6
DASHED
100
AcDbLine
 10
-285.842159
 20
163.24296
 30
0.0
 11
-277.842159
 21
163.24296
 31
0.0
  0
LINE
  5
6A
330
25
100
AcDbEntity
  8
1
  6
DASHED
100
AcDbLine
 10
-285.842159
 20
157.24296
 30
0.0
 11
-277.842159
 21
157.24296
 31
0.0
  0
ARC
  5
6B
330
25
100
AcDbEntity
  8
1
  6
DASHED
100
AcDbCircle
 10
-285.842159
 20
161.24296
 30
0.0
 40
2.0
100
AcDbArc
 50
90.0
 51
180.0
  0
ARC
  5
6C
330
25
100
AcDbEntity
  8
1
  6
DASHED
100
AcDbCircle
 10
-285.842159
 20
159.24296
 30
0.0
 40
2.0
100
AcDbArc
 50
180.0
 51
270.0
  0
LINE
  5
6D
330
25
100
AcDbEntity
  8
1
  6
DASHED
100
AcDbLine
 10
-281.842159
 20
168.63546
 30
0.0
 11
-277.842159
 21
168.63546
 31
0.0
  0
LINE
  5
6E
330
25
100
AcDbEntity
  8
1
  6
DASHED
100
AcDbLine
 10
-281.842159
 20
151.85046
 30
0.0
 11
-277.842159
 21
151.85046
 31
0.0
  0
LINE
  5
6F
330
25
100
AcDbEntity
  8
1
  6
DASHED
100
AcDbLine
 10
-286.407183
 20
170.24296
 30
0.0
 11
-277.842159
 21
170.24296
 31
0.0
  0
LINE
  5
70
330
25
100
AcDbEntity
  8
1
  6
DASHED
100
AcDbLine
 10
-286.407183
 20
150.24296
 30
0.0
 11
-277.842159
 21
150.24296
 31
0.0
  0
LINE
  5
71
330
25
100
AcDbEntity
  8
1
  6
DASHED
100
AcDbLine
 10
-281.842159
 20
155.658933
 30
0.0
 11
-281.842159
 21
157.24296
 31
0.0
  0
LINE
  5
72
330
25
100
AcDbEntity
  8
1
  6
DASHED
100
AcDbLine
 10
-281.842159
 20
163.24296
 30
0.0
 11
-281.842159
 21
164.826987
 31
0.0
  0
LINE
  5
73
330
25
100
AcDbEntity
  8
1
  6
DASHED
100
AcDbLine
 10
-281.892159
 20
137.61796
 30
0.0
 11
-277.842159
 21
137.61796
 31
0.0
  0
LINE
  5
74
330
25
100
AcDbEntity
  8
1
  6
DASHED
100
AcDbLine
 10
-281.892159
 20
182.86796
 30
0.0
 11
-277.842159
 21
182.86796
 31
0.0
  0
LINE
  5
75
330
25
100
AcDbEntity
  8
1
  6
DASHED
100
AcDbLine
 10
-281.892159
 20
182.86796
 30
0.0
 11
-283.341881
 21
182.031582
 31
0.0
  0
LINE
  5
76
330
25
100
AcDbEntity
  8
1
  6
DASHED
100
AcDbLine
 10
-281.892159
 20
137.61796
 30
0.0
 11
-283.341881
 21
138.4543379999999
 31
0.0
  0
ARC
  5
77
330
25
100
AcDbEntity
  8
1
  6
DASHED
100
AcDbCircle
 10
-282.842159
 20
181.165396
 30
0.0
 40
1.0
100
AcDbArc
 50
119.981639
 51
144.720616
  0
ARC
  5
78
330
25
100
AcDbEntity
  8
1
  6
DASHED
100
AcDbCircle
 10
-282.842159
 20
139.320524
 30
0.0
 40
1.0
100
AcDbArc
 50
215.279384
 51
240.018361
  0
LINE
  5
79
330
25
100
AcDbEntity
  8
1
  6
CENTER
 62
     2
100
AcDbLine
 10
-299.911798
 20
-167.541323
 30
0.0
 11
-185.761133
 21
-167.541323
 31
0.0
  0
LINE
  5
7A
330
25
100
AcDbEntity
  8
1
  6
CENTER
 62
     2
100
AcDbLine
 10
53.19435099999999
 20
-167.541323
 30
0.0
 11
117.947945
 21
-167.541323
 31
0.0
  0
LINE
  5
7B
330
25
100
AcDbEntity
  8
1
  6
CENTER
 62
     2
100
AcDbLine
 10
86.66790799999999
 20
-238.903687
 30
0.0
 11
86.66790799999999
 21
39.299782
 31
0.0
  0
LINE
  5
7C
330
25
100
AcDbEntity
  8
1
  6
CENTER
 62
     2
100
AcDbLine
 10
-242.841921
 20
-246.370604
 30
0.0
 11
-242.841921
 21
4.832536
 31
0.0
  0
LINE
  5
7D
330
25
100
AcDbEntity
  8
1
100
AcDbLine
 10
83.667908
 20
-132.541323
 30
0.0
 11
83.667908
 21
-92.85367499999999
 31
0.0
  0
LINE
  5
7E
330
25
100
AcDbEntity
  8
1
100
AcDbLine
 10
89.667908
 20
-132.541323
 30
0.0
 11
89.667908
 21
-92.85367499999999
 31
0.0
  0
LINE
  5
7F
330
25
100
AcDbEntity
  8
1
100
AcDbLine
 10
79.77540799999999
 20
-131.541323
 30
0.0
 11
80.66790799999999
 21
-131.541323
 31
0.0
  0
LINE
  5
80
330
25
100
AcDbEntity
  8
1
100
AcDbLine
 10
92.667908
 20
-131.541323
 30
0.0
 11
93.560408
 21
-131.541323
 31
0.0
  0
ARC
  5
81
330
25
100
AcDbEntity
  8
1
100
AcDbCircle
 10
92.667908
 20
-128.541323
 30
0.0
 40
3.0
100
AcDbArc
 50
180.0
 51
270.0
  0
ARC
  5
82
330
25
100
AcDbEntity
  8
1
100
AcDbCircle
 10
80.66790799999999
 20
-128.541323
 30
0.0
 40
3.0
100
AcDbArc
 50
270.0
 51
360.0
  0
LINE
  5
83
330
25
100
AcDbEntity
  8
1
100
AcDbLine
 10
83.667908
 20
-89.853675
 30
0.0
 11
89.667908
 21
-89.853675
 31
0.0
  0
ARC
  5
84
330
25
100
AcDbEntity
  8
1
100
AcDbCircle
 10
92.667908
 20
-92.85367499999999
 30
0.0
 40
3.0
100
AcDbArc
 50
90.0
 51
180.0
  0
ARC
  5
85
330
25
100
AcDbEntity
  8
1
100
AcDbCircle
 10
80.66790799999999
 20
-92.85367499999999
 30
0.0
 40
3.0
100
AcDbArc
 50
0.0
 51
90.0
  0
LINE
  5
86
330
25
100
AcDbEntity
  8
1
100
AcDbLine
 10
83.667908
 20
-223.058694
 30
0.0
 11
83.667908
 21
-202.541323
 31
0.0
  0
LINE
  5
87
330
25
100
AcDbEntity
  8
1
100
AcDbLine
 10
89.667908
 20
-223.058694
 30
0.0
 11
89.667908
 21
-202.541323
 31
0.0
  0
LINE
  5
88
330
25
100
AcDbEntity
  8
1
100
AcDbLine
 10
79.882908
 20
-204.541323
 30
0.0
 11
80.66790799999999
 21
-204.541323
 31
0.0
  0
LINE
  5
89
330
25
100
AcDbEntity
  8
1
100
AcDbLine
 10
92.667908
 20
-204.541323
 30
0.0
 11
93.45290799999999
 21
-204.541323
 31
0.0
  0
ARC
  5
8A
330
25
100
AcDbEntity
  8
1
100
AcDbCircle
 10
92.667908
 20
-207.541323
 30
0.0
 40
3.0
100
AcDbArc
 50
90.0
 51
180.0
  0
ARC
  5
8B
330
25
100
AcDbEntity
  8
1
100
AcDbCircle
 10
80.66790799999999
 20
-207.541323
 30
0.0
 40
3.0
100
AcDbArc
 50
0.0
 51
90.0
  0
LINE
  5
8C
330
25
100
AcDbEntity
  8
1
100
AcDbLine
 10
96.879463
 20
-209.12501
 30
0.0
 11
95.06040799999999
 21
-204.541323
 31
0.0
  0
LINE
  5
8D
330
25
100
AcDbEntity
  8
1
100
AcDbLine
 10
76.456352
 20
-209.12501
 30
0.0
 11
78.275408
 21
-204.541323
 31
0.0
  0
ARC
  5
8E
330
25
100
AcDbEntity
  8
1
100
AcDbCircle
 10
93.45290799999999
 20
-202.933823
 30
0.0
 40
1.607499999999999
100
AcDbArc
 50
270.0
 51
360.0
  0
ARC
  5
8F
330
25
100
AcDbEntity
  8
1
100
AcDbCircle
 10
79.882908
 20
-202.933823
 30
0.0
 40
1.607499999999999
100
AcDbArc
 50
180.0
 51
270.0
  0
LINE
  5
90
330
25
100
AcDbEntity
  8
1
100
AcDbLine
 10
85.66790799999999
 20
-108.472948
 30
0.0
 11
87.667908
 21
-108.472948
 31
0.0
  0
LINE
  5
91
330
25
100
AcDbEntity
  8
1
100
AcDbLine
 10
85.66790799999999
 20
-114.623049
 30
0.0
 11
87.667908
 21
-114.623049
 31
0.0
  0
ARC
  5
92
330
25
100
AcDbEntity
  8
1
100
AcDbCircle
 10
87.667908
 20
-110.472948
 30
0.0
 40
2.0
100
AcDbArc
 50
0.0
 51
90.0
  0
ARC
  5
93
330
25
100
AcDbEntity
  8
1
100
AcDbCircle
 10
85.66790799999999
 20
-110.472948
 30
0.0
 40
2.0
100
AcDbArc
 50
90.0
 51
180.0
  0
ARC
  5
94
330
25
100
AcDbEntity
  8
1
100
AcDbCircle
 10
85.66790799999999
 20
-112.623049
 30
0.0
 40
2.0
100
AcDbArc
 50
180.0
 51
270.0
  0
ARC
  5
95
330
25
100
AcDbEntity
  8
1
100
AcDbCircle
 10
87.667908
 20
-112.623049
 30
0.0
 40
2.0
100
AcDbArc
 50
270.0
 51
360.0
  0
CIRCLE
  5
96
330
25
100
AcDbEntity
  8
1
100
AcDbCircle
 10
-242.841921
 20
-167.541323
 30
0.0
 40
44.0
  0
CIRCLE
  5
97
330
25
100
AcDbEntity
  8
1
100
AcDbCircle
 10
-242.841921
 20
-167.541323
 30
0.0
 40
45.0
  0
LINE
  5
98
330
25
100
AcDbEntity
  8
1
100
AcDbLine
 10
-277.841921
 20
-29.541323
 30
0.0
 11
-207.841921
 21
-29.541323
 31
0.0
  0
LINE
  5
99
330
25
100
AcDbEntity
  8
1
100
AcDbLine
 10
-277.841921
 20
-37.541323
 30
0.0
 11
-277.841921
 21
-29.541323
 31
0.0
  0
LINE
  5
9A
330
25
100
AcDbEntity
  8
1
100
AcDbLine
 10
-207.841921
 20
-37.541323
 30
0.0
 11
-207.841921
 21
-29.541323
 31
0.0
  0
LINE
  5
9B
330
25
100
AcDbEntity
  8
1
100
AcDbLine
 10
-273.841921
 20
-41.54132299999999
 30
0.0
 11
-211.841921
 21
-41.54132299999999
 31
0.0
  0
ARC
  5
9C
330
25
100
AcDbEntity
  8
1
100
AcDbCircle
 10
-273.841921
 20
-37.541323
 30
0.0
 40
4.0
100
AcDbArc
 50
180.0
 51
270.0
  0
ARC
  5
9D
330
25
100
AcDbEntity
  8
1
100
AcDbCircle
 10
-211.841921
 20
-37.541323
 30
0.0
 40
4.0
100
AcDbArc
 50
270.0
 51
360.0
  0
LINE
  5
9E
330
25
100
AcDbEntity
  8
1
100
AcDbLine
 10
-257.841921
 20
-118.551528
 30
0.0
 11
-257.841921
 21
-46.54132299999999
 31
0.0
  0
LINE
  5
9F
330
25
100
AcDbEntity
  8
1
100
AcDbLine
 10
-227.841921
 20
-118.551528
 30
0.0
 11
-227.841921
 21
-46.54132299999999
 31
0.0
  0
ARC
  5
A0
330
25
100
AcDbEntity
  8
1
100
AcDbCircle
 10
-222.841921
 20
-46.54132299999999
 30
0.0
 40
5.0
100
AcDbArc
 50
126.1783
 51
180.0
  0
ARC
  5
A1
330
25
100
AcDbEntity
  8
1
100
AcDbCircle
 10
-262.841921
 20
-46.54132299999999
 30
0.0
 40
5.0
100
AcDbArc
 50
0.0
 51
90.0
  0
ARC
  5
A2
330
25
100
AcDbEntity
  8
1
100
AcDbCircle
 10
-275.841921
 20
-59.450225
 30
0.0
 40
18.0
100
AcDbArc
 50
0.0
 51
84.784091
  0
LINE
  5
A3
330
25
100
AcDbEntity
  8
1
100
AcDbLine
 10
-239.841921
 20
-59.450225
 30
0.0
 11
-245.841921
 21
-59.450225
 31
0.0
  0
LINE
  5
A4
330
25
100
AcDbEntity
  8
1
100
AcDbLine
 10
-245.841921
 20
-57.45022500000001
 30
0.0
 11
-245.841921
 21
-43.54132299999999
 31
0.0
  0
LINE
  5
A5
330
25
100
AcDbEntity
  8
1
100
AcDbLine
 10
-239.841921
 20
-57.45022500000001
 30
0.0
 11
-239.841921
 21
-43.54132299999999
 31
0.0
  0
ARC
  5
A6
330
25
100
AcDbEntity
  8
1
100
AcDbCircle
 10
-237.841921
 20
-43.54132299999999
 30
0.0
 40
2.0
100
AcDbArc
 50
90.0
 51
180.0
  0
ARC
  5
A7
330
25
100
AcDbEntity
  8
1
100
AcDbCircle
 10
-247.841921
 20
-43.54132299999999
 30
0.0
 40
2.0
100
AcDbArc
 50
0.0
 51
90.0
  0
ARC
  5
A8
330
25
100
AcDbEntity
  8
1
100
AcDbCircle
 10
-247.841921
 20
-57.45022500000001
 30
0.0
 40
2.0
100
AcDbArc
 50
270.0
 51
360.0
  0
ARC
  5
A9
330
25
100
AcDbEntity
  8
1
100
AcDbCircle
 10
-237.841921
 20
-57.45022500000001
 30
0.0
 40
2.0
100
AcDbArc
 50
180.0
 51
270.0
  0
ARC
  5
AA
330
25
100
AcDbEntity
  8
1
100
AcDbCircle
 10
-242.841921
 20
-182.541323
 30
0.0
 40
86.0
100
AcDbArc
 50
59.45837
 51
74.90521300000001
  0
ARC
  5
AB
330
25
100
AcDbEntity
  8
1
100
AcDbCircle
 10
-242.841921
 20
-182.541323
 30
0.0
 40
86.0
100
AcDbArc
 50
105.094787
 51
120.5416299999999
  0
ARC
  5
AC
330
25
100
AcDbEntity
  8
1
100
AcDbCircle
 10
-217.841921
 20
-89.853675
 30
0.0
 40
10.0
100
AcDbArc
 50
180.0
 51
254.905213
  0
ARC
  5
AD
330
25
100
AcDbEntity
  8
1
100
AcDbCircle
 10
-267.841921
 20
-89.853675
 30
0.0
 40
10.0
100
AcDbArc
 50
285.094787
 51
360.0
  0
LINE
  5
AE
330
25
100
AcDbEntity
  8
1
100
AcDbLine
 10
-203.610338
 20
-115.838974
 30
0.0
 11
-205.653804
 21
-117.18962
 31
0.0
  0
LINE
  5
AF
330
25
100
AcDbEntity
  8
1
100
AcDbLine
 10
-208.681116
 20
-120.431988
 30
0.0
 11
-212.24429
 21
-126.721168
 31
0.0
  0
LINE
  5
B0
330
25
100
AcDbEntity
  8
1
100
AcDbLine
 10
-273.439551
 20
-126.721168
 30
0.0
 11
-277.002725
 21
-120.431988
 31
0.0
  0
LINE
  5
B1
330
25
100
AcDbEntity
  8
1
100
AcDbLine
 10
-280.030038
 20
-117.18962
 30
0.0
 11
-282.073504
 21
-115.838974
 31
0.0
  0
ARC
  5
B2
330
25
100
AcDbEntity
  8
1
100
AcDbCircle
 10
-200.415514
 20
-125.114916
 30
0.0
 40
9.5
100
AcDbArc
 50
123.463041
 51
150.46601
  0
ARC
  5
B3
330
25
100
AcDbEntity
  8
1
100
AcDbCircle
 10
-198.647747
 20
-123.347149
 30
0.0
 40
9.0
100
AcDbArc
 50
104.223541
 51
123.463041
  0
ARC
  5
B4
330
25
100
AcDbEntity
  8
1
100
AcDbCircle
 10
-205.718815
 20
-130.418217
 30
0.0
 40
7.5
100
AcDbArc
 50
150.46601
 51
225.0
  0
ARC
  5
B5
330
25
100
AcDbEntity
  8
1
100
AcDbCircle
 10
-279.965027
 20
-130.418217
 30
0.0
 40
7.5
100
AcDbArc
 50
315.0
 51
29.53399
  0
ARC
  5
B6
330
25
100
AcDbEntity
  8
1
100
AcDbCircle
 10
-285.268328
 20
-125.114916
 30
0.0
 40
9.5
100
AcDbArc
 50
29.53399
 51
56.53695899999999
  0
ARC
  5
B7
330
25
100
AcDbEntity
  8
1
100
AcDbCircle
 10
-287.0360950000001
 20
-123.347149
 30
0.0
 40
9.0
100
AcDbArc
 50
56.53695899999999
 51
75.776459
  0
ARC
  5
B8
330
25
100
AcDbEntity
  8
1
100
AcDbCircle
 10
-201.841921
 20
-110.745671
 30
0.0
 40
4.0
100
AcDbArc
 50
284.223541
 51
360.0
  0
ARC
  5
B9
330
25
100
AcDbEntity
  8
1
100
AcDbCircle
 10
-283.841921
 20
-110.745671
 30
0.0
 40
4.0
100
AcDbArc
 50
180.0
 51
255.776459
  0
ARC
  5
BA
330
25
100
AcDbEntity
  8
1
100
AcDbCircle
 10
-200.480754
 20
-110.745671
 30
0.0
 40
2.638832999999999
100
AcDbArc
 50
0.0
 51
59.45837
  0
ARC
  5
BB
330
25
100
AcDbEntity
  8
1
100
AcDbCircle
 10
-285.203087
 20
-110.745671
 30
0.0
 40
2.638832999999999
100
AcDbArc
 50
120.5416299999999
 51
180.0
  0
LINE
  5
BC
330
25
100
AcDbEntity
  8
1
100
AcDbLine
 10
-261.841921
 20
-226.541323
 30
0.0
 11
-223.841921
 21
-226.541323
 31
0.0
  0
ARC
  5
BD
330
25
100
AcDbEntity
  8
1
100
AcDbCircle
 10
-218.841921
 20
-211.404747
 30
0.0
 40
5.0
100
AcDbArc
 50
118.685402
 51
180.0
  0
ARC
  5
BE
330
25
100
AcDbEntity
  8
1
100
AcDbCircle
 10
-266.841921
 20
-211.404747
 30
0.0
 40
5.0
100
AcDbArc
 50
0.0
 51
61.31459799999999
  0
LINE
  5
BF
330
25
100
AcDbEntity
  8
1
100
AcDbLine
 10
-258.841921
 20
-223.541323
 30
0.0
 11
-226.841921
 21
-223.541323
 31
0.0
  0
LINE
  5
C0
330
25
100
AcDbEntity
  8
1
100
AcDbLine
 10
-222.422226
 20
-223.160917
 30
0.0
 11
-211.806645
 21
-220.31648
 31
0.0
  0
LINE
  5
C1
330
25
100
AcDbEntity
  8
1
100
AcDbLine
 10
-263.261616
 20
-223.160917
 30
0.0
 11
-273.877197
 21
-220.31648
 31
0.0
  0
ARC
  5
C2
330
25
100
AcDbEntity
  8
1
100
AcDbCircle
 10
-226.841921
 20
-220.541323
 30
0.0
 40
3.0
100
AcDbArc
 50
270.0
 51
360.0
  0
ARC
  5
C3
330
25
100
AcDbEntity
  8
1
100
AcDbCircle
 10
-258.841921
 20
-220.541323
 30
0.0
 40
3.0
100
AcDbArc
 50
180.0
 51
270.0
  0
ARC
  5
C4
330
25
100
AcDbEntity
  8
1
100
AcDbCircle
 10
-220.841921
 20
-225.843304
 30
0.0
 40
3.0
100
AcDbArc
 50
105.0
 51
180.0
  0
ARC
  5
C5
330
25
100
AcDbEntity
  8
1
100
AcDbCircle
 10
-264.841921
 20
-225.843304
 30
0.0
 40
3.0
100
AcDbArc
 50
0.0
 51
75.0
  0
LINE
  5
C6
330
25
100
AcDbEntity
  8
1
100
AcDbLine
 10
-276.841921
 20
-216.452777
 30
0.0
 11
-276.841921
 21
-216.416327
 31
0.0
  0
LINE
  5
C7
330
25
100
AcDbEntity
  8
1
100
AcDbLine
 10
-208.841921
 20
-216.452777
 30
0.0
 11
-208.841921
 21
-216.416327
 31
0.0
  0
ARC
  5
C8
330
25
100
AcDbEntity
  8
1
100
AcDbCircle
 10
-212.841921
 20
-216.452777
 30
0.0
 40
4.0
100
AcDbArc
 50
285.0
 51
360.0
  0
ARC
  5
C9
330
25
100
AcDbEntity
  8
1
100
AcDbCircle
 10
-272.841921
 20
-216.452777
 30
0.0
 40
4.0
100
AcDbArc
 50
180.0
 51
255.0
  0
LINE
  5
CA
330
25
100
AcDbEntity
  8
1
100
AcDbLine
 10
-212.486582
 20
-207.896662
 30
0.0
 11
-209.439203
 21
-214.277374
 31
0.0
  0
LINE
  5
CB
330
25
100
AcDbEntity
  8
1
100
AcDbLine
 10
-273.19726
 20
-207.896662
 30
0.0
 11
-276.244638
 21
-214.277374
 31
0.0
  0
ARC
  5
CC
330
25
100
AcDbEntity
  8
1
100
AcDbCircle
 10
-205.718815
 20
-204.664429
 30
0.0
 40
7.5
100
AcDbArc
 50
135.0
 51
205.528779
  0
ARC
  5
CD
330
25
100
AcDbEntity
  8
1
100
AcDbCircle
 10
-200.415514
 20
-209.96773
 30
0.0
 40
10.0
100
AcDbArc
 50
205.528779
 51
207.426743
  0
ARC
  5
CE
330
25
100
AcDbEntity
  8
1
100
AcDbCircle
 10
-212.841921
 20
-216.416327
 30
0.0
 40
4.0
100
AcDbArc
 50
0.0
 51
27.426743
  0
ARC
  5
CF
330
25
100
AcDbEntity
  8
1
100
AcDbCircle
 10
-279.965027
 20
-204.664429
 30
0.0
 40
7.5
100
AcDbArc
 50
334.471221
 51
45.0
  0
ARC
  5
D0
330
25
100
AcDbEntity
  8
1
100
AcDbCircle
 10
-285.268328
 20
-209.96773
 30
0.0
 40
10.0
100
AcDbArc
 50
332.5732569999999
 51
334.471221
  0
ARC
  5
D1
330
25
100
AcDbEntity
  8
1
100
AcDbCircle
 10
-272.841921
 20
-216.416327
 30
0.0
 40
4.0
100
AcDbArc
 50
152.573257
 51
180.0
  0
LINE
  5
D2
330
25
100
AcDbEntity
  8
1
100
AcDbLine
 10
-235.941921
 20
-230.441323
 30
0.0
 11
-223.741921
 21
-230.441323
 31
0.0
  0
LINE
  5
D3
330
25
100
AcDbEntity
  8
1
100
AcDbLine
 10
-224.091921
 20
-230.441323
 30
0.0
 11
-224.091921
 21
-233.950575
 31
0.0
  0
LINE
  5
D4
330
25
100
AcDbEntity
  8
1
100
AcDbLine
 10
-224.091921
 20
-233.950575
 30
0.0
 11
-224.941921
 21
-234.441323
 31
0.0
  0
LINE
  5
D5
330
25
100
AcDbEntity
  8
1
100
AcDbLine
 10
-226.966921
 20
-230.441323
 30
0.0
 11
-226.966921
 21
-233.950575
 31
0.0
  0
ARC
  5
D6
330
25
100
AcDbEntity
  8
1
100
AcDbCircle
 10
-225.529421
 20
-232.10262
 30
0.0
 40
2.341226999999999
100
AcDbArc
 50
232.121121
 51
307.878879
  0
ARC
  5
D7
330
25
100
AcDbEntity
  8
1
100
AcDbCircle
 10
-229.841921
 20
-225.818847
 30
0.0
 40
8.625
100
AcDbArc
 50
250.528777
 51
289.471219
  0
LINE
  5
D8
330
25
100
AcDbEntity
  8
1
100
AcDbLine
 10
-235.591921
 20
-230.441323
 30
0.0
 11
-235.591921
 21
-233.950575
 31
0.0
  0
LINE
  5
D9
330
25
100
AcDbEntity
  8
1
100
AcDbLine
 10
-235.591921
 20
-233.950575
 30
0.0
 11
-234.741921
 21
-234.441323
 31
0.0
  0
LINE
  5
DA
330
25
100
AcDbEntity
  8
1
100
AcDbLine
 10
-234.741921
 20
-234.441323
 30
0.0
 11
-224.941921
 21
-234.441323
 31
0.0
  0
LINE
  5
DB
330
25
100
AcDbEntity
  8
1
100
AcDbLine
 10
-232.716921
 20
-230.441323
 30
0.0
 11
-232.716921
 21
-233.950575
 31
0.0
  0
ARC
  5
DC
330
25
100
AcDbEntity
  8
1
100
AcDbCircle
 10
-234.154421
 20
-232.10262
 30
0.0
 40
2.341226999999999
100
AcDbArc
 50
232.121121
 51
307.878879
  0
LINE
  5
DD
330
25
100
AcDbEntity
  8
1
100
AcDbLine
 10
-223.741921
 20
-228.941323
 30
0.0
 11
-223.741921
 21
-230.441323
 31
0.0
  0
LINE
  5
DE
330
25
100
AcDbEntity
  8
1
100
AcDbLine
 10
-235.941921
 20
-230.441323
 30
0.0
 11
-235.941921
 21
-228.941323
 31
0.0
  0
LINE
  5
DF
330
25
100
AcDbEntity
  8
1
100
AcDbLine
 10
-229.841921
 20
-230.441323
 30
0.0
 11
-230.341921
 21
-228.941323
 31
0.0
  0
LINE
  5
E0
330
25
100
AcDbEntity
  8
1
100
AcDbLine
 10
-229.841921
 20
-228.941323
 30
0.0
 11
-229.341921
 21
-230.441323
 31
0.0
  0
LINE
  5
E1
330
25
100
AcDbEntity
  8
1
100
AcDbLine
 10
-261.941921
 20
-230.441323
 30
0.0
 11
-249.741921
 21
-230.441323
 31
0.0
  0
LINE
  5
E2
330
25
100
AcDbEntity
  8
1
100
AcDbLine
 10
-250.091921
 20
-230.441323
 30
0.0
 11
-250.091921
 21
-233.950575
 31
0.0
  0
LINE
  5
E3
330
25
100
AcDbEntity
  8
1
100
AcDbLine
 10
-250.091921
 20
-233.950575
 30
0.0
 11
-250.941921
 21
-234.441323
 31
0.0
  0
LINE
  5
E4
330
25
100
AcDbEntity
  8
1
100
AcDbLine
 10
-252.966921
 20
-230.441323
 30
0.0
 11
-252.966921
 21
-233.950575
 31
0.0
  0
ARC
  5
E5
330
25
100
AcDbEntity
  8
1
100
AcDbCircle
 10
-251.529421
 20
-232.10262
 30
0.0
 40
2.341226999999999
100
AcDbArc
 50
232.121121
 51
307.878879
  0
ARC
  5
E6
330
25
100
AcDbEntity
  8
1
100
AcDbCircle
 10
-255.841921
 20
-225.818847
 30
0.0
 40
8.625
100
AcDbArc
 50
250.528777
 51
289.471219
  0
LINE
  5
E7
330
25
100
AcDbEntity
  8
1
100
AcDbLine
 10
-261.591921
 20
-230.441323
 30
0.0
 11
-261.591921
 21
-233.950575
 31
0.0
  0
LINE
  5
E8
330
25
100
AcDbEntity
  8
1
100
AcDbLine
 10
-261.591921
 20
-233.950575
 30
0.0
 11
-260.741921
 21
-234.441323
 31
0.0
  0
LINE
  5
E9
330
25
100
AcDbEntity
  8
1
100
AcDbLine
 10
-260.741921
 20
-234.441323
 30
0.0
 11
-250.941921
 21
-234.441323
 31
0.0
  0
LINE
  5
EA
330
25
100
AcDbEntity
  8
1
100
AcDbLine
 10
-258.716921
 20
-230.441323
 30
0.0
 11
-258.716921
 21
-233.950575
 31
0.0
  0
ARC
  5
EB
330
25
100
AcDbEntity
  8
1
100
AcDbCircle
 10
-260.154421
 20
-232.10262
 30
0.0
 40
2.341226999999999
100
AcDbArc
 50
232.121121
 51
307.878879
  0
LINE
  5
EC
330
25
100
AcDbEntity
  8
1
100
AcDbLine
 10
-249.741921
 20
-228.941323
 30
0.0
 11
-249.741921
 21
-230.441323
 31
0.0
  0
LINE
  5
ED
330
25
100
AcDbEntity
  8
1
100
AcDbLine
 10
-261.941921
 20
-230.441323
 30
0.0
 11
-261.941921
 21
-228.941323
 31
0.0
  0
LINE
  5
EE
330
25
100
AcDbEntity
  8
1
100
AcDbLine
 10
-255.841921
 20
-230.441323
 30
0.0
 11
-256.341921
 21
-228.941323
 31
0.0
  0
LINE
  5
EF
330
25
100
AcDbEntity
  8
1
100
AcDbLine
 10
-255.841921
 20
-228.941323
 30
0.0
 11
-255.341921
 21
-230.441323
 31
0.0
  0
LINE
  5
F0
330
25
100
AcDbEntity
  8
1
  6
CENTER
 62
     2
100
AcDbLine
 10
-229.841921
 20
-219.521168
 30
0.0
 11
-229.841921
 21
-238.523624
 31
0.0
  0
ARC
  5
F1
330
25
100
AcDbEntity
  8
1
100
AcDbCircle
 10
-221.645768
 20
-226.058694
 30
0.0
 40
3.0
100
AcDbArc
 50
105.0
 51
180.0
  0
ARC
  5
F2
330
25
100
AcDbEntity
  8
1
100
AcDbCircle
 10
-264.038073
 20
-226.058694
 30
0.0
 40
3.0
100
AcDbArc
 50
360.0
 51
75.0
  0
LINE
  5
F3
330
25
100
AcDbEntity
  8
1
100
AcDbLine
 10
-261.841921
 20
-227.341323
 30
0.0
 11
-223.841921
 21
-227.341323
 31
0.0
  0
LINE
  5
F4
330
25
100
AcDbEntity
  8
1
100
AcDbLine
 10
-261.941921
 20
-228.941323
 30
0.0
 11
-223.741921
 21
-228.941323
 31
0.0
  0
LINE
  5
F5
330
25
100
AcDbEntity
  8
1
  6
CENTER
 62
     2
100
AcDbLine
 10
-255.841921
 20
-219.521168
 30
0.0
 11
-255.841921
 21
-238.523624
 31
0.0
  0
LINE
  5
F6
330
25
100
AcDbEntity
  8
1
100
AcDbLine
 10
-223.841921
 20
-228.941323
 30
0.0
 11
-223.841921
 21
-225.843304
 31
0.0
  0
LINE
  5
F7
330
25
100
AcDbEntity
  8
1
100
AcDbLine
 10
-223.841921
 20
-220.541323
 30
0.0
 11
-223.841921
 21
-211.404747
 31
0.0
  0
LINE
  5
F8
330
25
100
AcDbEntity
  8
1
100
AcDbLine
 10
-261.841921
 20
-228.941323
 30
0.0
 11
-261.841921
 21
-225.843304
 31
0.0
  0
LINE
  5
F9
330
25
100
AcDbEntity
  8
1
100
AcDbLine
 10
-261.841921
 20
-220.541323
 30
0.0
 11
-261.841921
 21
-211.404747
 31
0.0
  0
LINE
  5
FA
330
25
100
AcDbEntity
  8
1
100
AcDbLine
 10
51.66790800000001
 20
-37.541323
 30
0.0
 11
51.66790800000001
 21
-29.541323
 31
0.0
  0
LINE
  5
FB
330
25
100
AcDbEntity
  8
1
100
AcDbLine
 10
121.667908
 20
-37.541323
 30
0.0
 11
121.667908
 21
-29.541323
 31
0.0
  0
LINE
  5
FC
330
25
100
AcDbEntity
  8
1
100
AcDbLine
 10
55.66790799999999
 20
-41.54132299999999
 30
0.0
 11
117.667908
 21
-41.54132299999999
 31
0.0
  0
ARC
  5
FD
330
25
100
AcDbEntity
  8
1
100
AcDbCircle
 10
55.66790799999999
 20
-37.541323
 30
0.0
 40
4.0
100
AcDbArc
 50
180.0
 51
270.0
  0
ARC
  5
FE
330
25
100
AcDbEntity
  8
1
100
AcDbCircle
 10
117.667908
 20
-37.541323
 30
0.0
 40
4.0
100
AcDbArc
 50
270.0
 51
360.0
  0
LINE
  5
FF
330
25
100
AcDbEntity
  8
1
100
AcDbLine
 10
71.667908
 20
-122.458763
 30
0.0
 11
71.667908
 21
-46.54132299999999
 31
0.0
  0
LINE
  5
100
330
25
100
AcDbEntity
  8
1
100
AcDbLine
 10
101.667908
 20
-122.458763
 30
0.0
 11
101.667908
 21
-46.54132299999999
 31
0.0
  0
ARC
  5
101
330
25
100
AcDbEntity
  8
1
100
AcDbCircle
 10
106.667908
 20
-46.54132299999999
 30
0.0
 40
5.0
100
AcDbArc
 50
90.0
 51
180.0
  0
ARC
  5
102
330
25
100
AcDbEntity
  8
1
100
AcDbCircle
 10
66.667908
 20
-46.54132299999999
 30
0.0
 40
5.0
100
AcDbArc
 50
0.0
 51
53.825064
  0
ARC
  5
103
330
25
100
AcDbEntity
  8
1
100
AcDbCircle
 10
119.667908
 20
-59.450225
 30
0.0
 40
18.0
100
AcDbArc
 50
95.21590899999999
 51
180.0
  0
LINE
  5
104
330
25
100
AcDbEntity
  8
1
100
AcDbLine
 10
89.667908
 20
-59.450225
 30
0.0
 11
83.667908
 21
-59.450225
 31
0.0
  0
LINE
  5
105
330
25
100
AcDbEntity
  8
1
100
AcDbLine
 10
83.667908
 20
-57.45022500000001
 30
0.0
 11
83.667908
 21
-43.54132299999999
 31
0.0
  0
LINE
  5
106
330
25
100
AcDbEntity
  8
1
100
AcDbLine
 10
89.667908
 20
-57.45022500000001
 30
0.0
 11
89.667908
 21
-43.54132299999999
 31
0.0
  0
ARC
  5
107
330
25
100
AcDbEntity
  8
1
100
AcDbCircle
 10
91.66790799999999
 20
-43.54132299999999
 30
0.0
 40
2.0
100
AcDbArc
 50
90.0
 51
180.0
  0
ARC
  5
108
330
25
100
AcDbEntity
  8
1
100
AcDbCircle
 10
81.66790799999999
 20
-43.54132299999999
 30
0.0
 40
2.0
100
AcDbArc
 50
0.0
 51
90.0
  0
ARC
  5
109
330
25
100
AcDbEntity
  8
1
100
AcDbCircle
 10
81.66790799999999
 20
-57.45022500000001
 30
0.0
 40
2.0
100
AcDbArc
 50
270.0
 51
360.0
  0
ARC
  5
10A
330
25
100
AcDbEntity
  8
1
100
AcDbCircle
 10
91.66790799999999
 20
-57.45022500000001
 30
0.0
 40
2.0
100
AcDbArc
 50
180.0
 51
270.0
  0
LINE
  5
10B
330
25
100
AcDbEntity
  8
1
100
AcDbLine
 10
65.16790799999999
 20
-211.541323
 30
0.0
 11
65.16790799999999
 21
-123.541323
 31
0.0
  0
LINE
  5
10C
330
25
100
AcDbEntity
  8
1
100
AcDbLine
 10
108.167908
 20
-211.541323
 30
0.0
 11
108.167908
 21
-123.541323
 31
0.0
  0
LINE
  5
10D
330
25
100
AcDbEntity
  8
1
100
AcDbLine
 10
108.167908
 20
-123.541323
 30
0.0
 11
107.167908
 21
-122.541323
 31
0.0
  0
LINE
  5
10E
330
25
100
AcDbEntity
  8
1
100
AcDbLine
 10
65.16790799999999
 20
-123.541323
 30
0.0
 11
66.167908
 21
-122.541323
 31
0.0
  0
LINE
  5
10F
330
25
100
AcDbEntity
  8
1
100
AcDbLine
 10
66.167908
 20
-212.541323
 30
0.0
 11
65.16790799999999
 21
-211.541323
 31
0.0
  0
LINE
  5
110
330
25
100
AcDbEntity
  8
1
100
AcDbLine
 10
107.167908
 20
-212.541323
 30
0.0
 11
108.167908
 21
-211.541323
 31
0.0
  0
LINE
  5
111
330
25
100
AcDbEntity
  8
1
100
AcDbLine
 10
107.167908
 20
-122.541323
 30
0.0
 11
107.167908
 21
-212.541323
 31
0.0
  0
LINE
  5
112
330
25
100
AcDbEntity
  8
1
100
AcDbLine
 10
66.167908
 20
-122.541323
 30
0.0
 11
66.167908
 21
-212.541323
 31
0.0
  0
ARC
  5
113
330
25
100
AcDbEntity
  8
1
100
AcDbCircle
 10
66.667908
 20
-117.541323
 30
0.0
 40
5.0
100
AcDbArc
 50
270.0
 51
360.0
  0
ARC
  5
114
330
25
100
AcDbEntity
  8
1
100
AcDbCircle
 10
106.667908
 20
-117.541323
 30
0.0
 40
5.0
100
AcDbArc
 50
180.0
 51
270.0
  0
LINE
  5
115
330
25
100
AcDbEntity
  8
1
100
AcDbLine
 10
66.167908
 20
-122.541323
 30
0.0
 11
66.667908
 21
-122.541323
 31
0.0
  0
LINE
  5
116
330
25
100
AcDbEntity
  8
1
100
AcDbLine
 10
106.667908
 20
-122.541323
 30
0.0
 11
107.167908
 21
-122.541323
 31
0.0
  0
LINE
  5
117
330
25
100
AcDbEntity
  8
1
100
AcDbLine
 10
73.667908
 20
-228.941323
 30
0.0
 11
73.667908
 21
-211.018405
 31
0.0
  0
LINE
  5
118
330
25
100
AcDbEntity
  8
1
100
AcDbLine
 10
99.667908
 20
-228.941323
 30
0.0
 11
99.667908
 21
-211.018405
 31
0.0
  0
LINE
  5
119
330
25
100
AcDbEntity
  8
1
100
AcDbLine
 10
73.667908
 20
-226.541323
 30
0.0
 11
99.667908
 21
-226.541323
 31
0.0
  0
ARC
  5
11A
330
25
100
AcDbEntity
  8
1
100
AcDbCircle
 10
103.667908
 20
-216.541323
 30
0.0
 40
4.0
100
AcDbArc
 50
90.0
 51
180.0
  0
ARC
  5
11B
330
25
100
AcDbEntity
  8
1
100
AcDbCircle
 10
69.667908
 20
-216.541323
 30
0.0
 40
4.0
100
AcDbArc
 50
0.0
 51
90.0
  0
ARC
  5
11C
330
25
100
AcDbEntity
  8
1
100
AcDbCircle
 10
103.667908
 20
-211.018405
 30
0.0
 40
4.0
100
AcDbArc
 50
90.0
 51
180.0
  0
ARC
  5
11D
330
25
100
AcDbEntity
  8
1
100
AcDbCircle
 10
69.667908
 20
-211.018405
 30
0.0
 40
4.0
100
AcDbArc
 50
0.0
 51
90.0
  0
LINE
  5
11E
330
25
100
AcDbEntity
  8
1
100
AcDbLine
 10
66.167908
 20
-212.541323
 30
0.0
 11
69.667908
 21
-212.541323
 31
0.0
  0
LINE
  5
11F
330
25
100
AcDbEntity
  8
1
100
AcDbLine
 10
103.667908
 20
-212.541323
 30
0.0
 11
107.167908
 21
-212.541323
 31
0.0
  0
LINE
  5
120
330
25
100
AcDbEntity
  8
1
100
AcDbLine
 10
91.66790799999999
 20
-230.441323
 30
0.0
 11
91.66790799999999
 21
-234.441323
 31
0.0
  0
LINE
  5
121
330
25
100
AcDbEntity
  8
1
100
AcDbLine
 10
86.66790799999999
 20
-230.441323
 30
0.0
 11
86.66790799999999
 21
-233.950575
 31
0.0
  0
ARC
  5
122
330
25
100
AcDbEntity
  8
1
100
AcDbCircle
 10
89.16790799999999
 20
-227.828115
 30
0.0
 40
6.613208
100
AcDbArc
 50
247.7882049999999
 51
292.211795
  0
LINE
  5
123
330
25
100
AcDbEntity
  8
1
100
AcDbLine
 10
81.66790799999999
 20
-230.441323
 30
0.0
 11
81.66790799999999
 21
-234.441323
 31
0.0
  0
LINE
  5
124
330
25
100
AcDbEntity
  8
1
100
AcDbLine
 10
81.66790799999999
 20
-234.441323
 30
0.0
 11
91.66790799999999
 21
-234.441323
 31
0.0
  0
ARC
  5
125
330
25
100
AcDbEntity
  8
1
100
AcDbCircle
 10
84.16790799999999
 20
-227.828115
 30
0.0
 40
6.613208
100
AcDbArc
 50
247.7882049999999
 51
292.211795
  0
LINE
  5
126
330
25
100
AcDbEntity
  8
1
100
AcDbLine
 10
92.76790799999998
 20
-228.941323
 30
0.0
 11
92.76790799999998
 21
-230.441323
 31
0.0
  0
LINE
  5
127
330
25
100
AcDbEntity
  8
1
100
AcDbLine
 10
92.76790799999998
 20
-230.441323
 30
0.0
 11
80.56790799999999
 21
-230.441323
 31
0.0
  0
LINE
  5
128
330
25
100
AcDbEntity
  8
1
100
AcDbLine
 10
80.56790799999999
 20
-230.441323
 30
0.0
 11
80.56790799999999
 21
-228.941323
 31
0.0
  0
LINE
  5
129
330
25
100
AcDbEntity
  8
1
100
AcDbLine
 10
73.667908
 20
-227.341323
 30
0.0
 11
99.667908
 21
-227.341323
 31
0.0
  0
LINE
  5
12A
330
25
100
AcDbEntity
  8
1
100
AcDbLine
 10
73.667908
 20
-228.941323
 30
0.0
 11
99.667908
 21
-228.941323
 31
0.0
  0
LINE
  5
12B
330
25
100
AcDbEntity
  8
1
100
AcDbLine
 10
82.667908
 20
-138.541323
 30
0.0
 11
90.66790799999999
 21
-138.541323
 31
0.0
  0
LINE
  5
12C
330
25
100
AcDbEntity
  8
1
100
AcDbLine
 10
82.667908
 20
-196.541323
 30
0.0
 11
90.66790799999999
 21
-196.541323
 31
0.0
  0
LINE
  5
12D
330
25
100
AcDbEntity
  8
1
100
AcDbLine
 10
76.667908
 20
-190.541323
 30
0.0
 11
76.667908
 21
-144.541323
 31
0.0
  0
LINE
  5
12E
330
25
100
AcDbEntity
  8
1
100
AcDbLine
 10
96.66790800000001
 20
-190.541323
 30
0.0
 11
96.66790800000001
 21
-144.541323
 31
0.0
  0
ARC
  5
12F
330
25
100
AcDbEntity
  8
1
100
AcDbCircle
 10
90.66790799999999
 20
-144.541323
 30
0.0
 40
6.0
100
AcDbArc
 50
0.0
 51
90.0
  0
ARC
  5
130
330
25
100
AcDbEntity
  8
1
100
AcDbCircle
 10
82.667908
 20
-144.541323
 30
0.0
 40
6.0
100
AcDbArc
 50
90.0
 51
180.0
  0
ARC
  5
131
330
25
100
AcDbEntity
  8
1
100
AcDbCircle
 10
82.667908
 20
-190.541323
 30
0.0
 40
6.0
100
AcDbArc
 50
180.0
 51
270.0
  0
ARC
  5
132
330
25
100
AcDbEntity
  8
1
100
AcDbCircle
 10
90.66790799999999
 20
-190.541323
 30
0.0
 40
6.0
100
AcDbArc
 50
270.0
 51
360.0
  0
LINE
  5
133
330
25
100
AcDbEntity
  8
1
100
AcDbLine
 10
83.667908
 20
-135.541323
 30
0.0
 11
89.667908
 21
-135.541323
 31
0.0
  0
LINE
  5
134
330
25
100
AcDbEntity
  8
1
100
AcDbLine
 10
83.667908
 20
-199.541323
 30
0.0
 11
89.667908
 21
-199.541323
 31
0.0
  0
LINE
  5
135
330
25
100
AcDbEntity
  8
1
100
AcDbLine
 10
96.66790800000001
 20
-208.018405
 30
0.0
 11
96.66790800000001
 21
-203.541323
 31
0.0
  0
LINE
  5
136
330
25
100
AcDbEntity
  8
1
100
AcDbLine
 10
96.66790800000001
 20
-131.541323
 30
0.0
 11
96.66790800000001
 21
-121.551528
 31
0.0
  0
LINE
  5
137
330
25
100
AcDbEntity
  8
1
100
AcDbLine
 10
76.667908
 20
-208.018405
 30
0.0
 11
76.667908
 21
-203.541323
 31
0.0
  0
LINE
  5
138
330
25
100
AcDbEntity
  8
1
100
AcDbLine
 10
76.667908
 20
-131.541323
 30
0.0
 11
76.667908
 21
-121.551528
 31
0.0
  0
ARC
  5
139
330
25
100
AcDbEntity
  8
1
100
AcDbCircle
 10
99.667908
 20
-208.018405
 30
0.0
 40
3.0
100
AcDbArc
 50
180.0
 51
270.0
  0
ARC
  5
13A
330
25
100
AcDbEntity
  8
1
100
AcDbCircle
 10
73.667908
 20
-208.018405
 30
0.0
 40
3.0
100
AcDbArc
 50
270.0
 51
360.0
  0
LINE
  5
13B
330
25
100
AcDbEntity
  8
1
100
AcDbLine
 10
95.06040799999999
 20
-188.2737159999999
 30
0.0
 11
95.06040799999999
 21
-146.80893
 31
0.0
  0
LINE
  5
13C
330
25
100
AcDbEntity
  8
1
100
AcDbLine
 10
78.275408
 20
-188.2737159999999
 30
0.0
 11
78.275408
 21
-146.80893
 31
0.0
  0
LINE
  5
13D
330
25
100
AcDbEntity
  8
1
100
AcDbLine
 10
81.996408
 20
-143.08793
 30
0.0
 11
91.33940799999999
 21
-143.08793
 31
0.0
  0
LINE
  5
13E
330
25
100
AcDbEntity
  8
1
100
AcDbLine
 10
81.996408
 20
-191.9947159999999
 30
0.0
 11
91.33940799999999
 21
-191.9947159999999
 31
0.0
  0
ARC
  5
13F
330
25
100
AcDbEntity
  8
1
100
AcDbCircle
 10
91.33940799999999
 20
-188.2737159999999
 30
0.0
 40
3.721
100
AcDbArc
 50
270.0
 51
360.0
  0
ARC
  5
140
330
25
100
AcDbEntity
  8
1
100
AcDbCircle
 10
81.996408
 20
-188.2737159999999
 30
0.0
 40
3.721
100
AcDbArc
 50
180.0
 51
270.0
  0
ARC
  5
141
330
25
100
AcDbEntity
  8
1
100
AcDbCircle
 10
81.996408
 20
-146.80893
 30
0.0
 40
3.721
100
AcDbArc
 50
90.0
 51
180.0
  0
ARC
  5
142
330
25
100
AcDbEntity
  8
1
100
AcDbCircle
 10
91.33940799999999
 20
-146.80893
 30
0.0
 40
3.721
100
AcDbArc
 50
0.0
 51
90.0
  0
LINE
  5
143
330
25
100
AcDbEntity
  8
1
100
AcDbLine
 10
95.06040799999999
 20
-143.08793
 30
0.0
 11
95.70121999999999
 21
-141.275474
 31
0.0
  0
LINE
  5
144
330
25
100
AcDbEntity
  8
1
100
AcDbLine
 10
77.63459499999999
 20
-141.275474
 30
0.0
 11
78.275408
 21
-143.08793
 31
0.0
  0
LINE
  5
145
330
25
100
AcDbEntity
  8
1
100
AcDbLine
 10
78.275408
 20
-191.9947159999999
 30
0.0
 11
77.63459499999999
 21
-193.807171
 31
0.0
  0
LINE
  5
146
330
25
100
AcDbEntity
  8
1
100
AcDbLine
 10
95.70121999999999
 20
-193.807171
 30
0.0
 11
95.06040799999999
 21
-191.9947159999999
 31
0.0
  0
ARC
  5
147
330
25
100
AcDbEntity
  8
1
100
AcDbCircle
 10
76.667908
 20
-220.541323
 30
0.0
 40
3.0
100
AcDbArc
 50
180.0
 51
270.0
  0
ARC
  5
148
330
25
100
AcDbEntity
  8
1
100
AcDbCircle
 10
96.66790800000001
 20
-220.541323
 30
0.0
 40
3.0
100
AcDbArc
 50
270.0
 51
0.0
  0
LINE
  5
149
330
25
100
AcDbEntity
  8
1
100
AcDbLine
 10
76.667908
 20
-223.541323
 30
0.0
 11
80.66790799999999
 21
-223.541323
 31
0.0
  0
LINE
  5
14A
330
25
100
AcDbEntity
  8
1
100
AcDbLine
 10
92.667908
 20
-223.541323
 30
0.0
 11
96.66790800000001
 21
-223.541323
 31
0.0
  0
LINE
  5
14B
330
25
100
AcDbEntity
  8
1
100
AcDbLine
 10
83.667908
 20
-226.058694
 30
0.0
 11
89.667908
 21
-226.058694
 31
0.0
  0
ARC
  5
14C
330
25
100
AcDbEntity
  8
1
100
AcDbCircle
 10
92.667908
 20
-223.058694
 30
0.0
 40
3.0
100
AcDbArc
 50
180.0
 51
270.0
  0
ARC
  5
14D
330
25
100
AcDbEntity
  8
1
100
AcDbCircle
 10
80.66790799999999
 20
-223.058694
 30
0.0
 40
3.0
100
AcDbArc
 50
270.0
 51
360.0
  0
ARC
  5
14E
330
25
100
AcDbEntity
  8
1
100
AcDbCircle
 10
92.667908
 20
-220.541323
 30
0.0
 40
3.0
100
AcDbArc
 50
180.0
 51
270.0
  0
ARC
  5
14F
330
25
100
AcDbEntity
  8
1
100
AcDbCircle
 10
80.66790799999999
 20
-220.541323
 30
0.0
 40
3.0
100
AcDbArc
 50
270.0
 51
360.0
  0
LINE
  5
150
330
25
100
AcDbEntity
  8
1
100
AcDbLine
 10
85.66790799999999
 20
-220.31648
 30
0.0
 11
87.667908
 21
-220.31648
 31
0.0
  0
ARC
  5
151
330
25
100
AcDbEntity
  8
1
100
AcDbCircle
 10
87.667908
 20
-218.31648
 30
0.0
 40
2.0
100
AcDbArc
 50
270.0
 51
360.0
  0
ARC
  5
152
330
25
100
AcDbEntity
  8
1
100
AcDbCircle
 10
85.66790799999999
 20
-218.31648
 30
0.0
 40
2.0
100
AcDbArc
 50
180.0
 51
270.0
  0
LINE
  5
153
330
25
100
AcDbEntity
  8
1
100
AcDbLine
 10
64.042908
 20
-206.591323
 30
0.0
 11
64.042908
 21
-128.491323
 31
0.0
  0
LINE
  5
154
330
25
100
AcDbEntity
  8
1
100
AcDbLine
 10
109.292908
 20
-206.591323
 30
0.0
 11
109.292908
 21
-128.491323
 31
0.0
  0
LINE
  5
155
330
25
100
AcDbEntity
  8
1
100
AcDbLine
 10
109.292908
 20
-128.491323
 30
0.0
 11
108.456529
 21
-127.0416
 31
0.0
  0
LINE
  5
156
330
25
100
AcDbEntity
  8
1
100
AcDbLine
 10
64.042908
 20
-128.491323
 30
0.0
 11
64.879286
 21
-127.0416
 31
0.0
  0
ARC
  5
157
330
25
100
AcDbEntity
  8
1
100
AcDbCircle
 10
107.590344
 20
-127.541323
 30
0.0
 40
1.0
100
AcDbArc
 50
29.98163900000001
 51
54.720616
  0
ARC
  5
158
330
25
100
AcDbEntity
  8
1
100
AcDbCircle
 10
65.74547199999999
 20
-127.541323
 30
0.0
 40
1.0
100
AcDbArc
 50
125.279384
 51
150.018361
  0
LINE
  5
159
330
25
100
AcDbEntity
  8
1
100
AcDbLine
 10
109.292908
 20
-206.591323
 30
0.0
 11
108.456529
 21
-208.041045
 31
0.0
  0
LINE
  5
15A
330
25
100
AcDbEntity
  8
1
100
AcDbLine
 10
64.042908
 20
-206.591323
 30
0.0
 11
64.879286
 21
-208.041045
 31
0.0
  0
ARC
  5
15B
330
25
100
AcDbEntity
  8
1
100
AcDbCircle
 10
107.590344
 20
-207.541323
 30
0.0
 40
1.0
100
AcDbArc
 50
305.279384
 51
330.018361
  0
ARC
  5
15C
330
25
100
AcDbEntity
  8
1
100
AcDbCircle
 10
65.74547199999999
 20
-207.541323
 30
0.0
 40
1.0
100
AcDbArc
 50
209.981639
 51
234.720616
  0
CIRCLE
  5
15D
330
25
100
AcDbEntity
  8
1
100
AcDbCircle
 10
-242.841921
 20
-167.541323
 30
0.0
 40
28.0
  0
CIRCLE
  5
15E
330
25
100
AcDbEntity
  8
1
100
AcDbCircle
 10
-242.841921
 20
-167.541323
 30
0.0
 40
32.0
  0
CIRCLE
  5
15F
330
25
100
AcDbEntity
  8
1
100
AcDbCircle
 10
-242.841921
 20
-167.541323
 30
0.0
 40
39.05
  0
CIRCLE
  5
160
330
25
100
AcDbEntity
  8
1
100
AcDbCircle
 10
-242.841921
 20
-167.541323
 30
0.0
 40
41.0
  0
ARC
  5
161
330
25
100
AcDbEntity
  8
1
100
AcDbCircle
 10
-217.841921
 20
-118.551528
 30
0.0
 40
10.0
100
AcDbArc
 50
180.0
 51
242.964308
  0
ARC
  5
162
330
25
100
AcDbEntity
  8
1
100
AcDbCircle
 10
-267.841921
 20
-118.551528
 30
0.0
 40
10.0
100
AcDbArc
 50
297.035692
 51
360.0
  0
ARC
  5
163
330
25
100
AcDbEntity
  8
1
100
AcDbCircle
 10
106.667908
 20
-122.458763
 30
0.0
 40
5.0
100
AcDbArc
 50
180.0
 51
270.0
  0
ARC
  5
164
330
25
100
AcDbEntity
  8
1
100
AcDbCircle
 10
66.667908
 20
-122.458763
 30
0.0
 40
5.0
100
AcDbArc
 50
270.0
 51
360.0
  0
ARC
  5
165
330
25
100
AcDbEntity
  8
1
100
AcDbCircle
 10
92.667908
 20
-203.541323
 30
0.0
 40
4.0
100
AcDbArc
 50
0.0
 51
90.0
  0
ARC
  5
166
330
25
100
AcDbEntity
  8
1
100
AcDbCircle
 10
80.66790799999999
 20
-203.541323
 30
0.0
 40
4.0
100
AcDbArc
 50
90.0
 51
180.0
  0
ARC
  5
167
330
25
100
AcDbEntity
  8
1
100
AcDbCircle
 10
99.667908
 20
-204.018405
 30
0.0
 40
3.0
100
AcDbArc
 50
180.0
 51
270.0
  0
ARC
  5
168
330
25
100
AcDbEntity
  8
1
100
AcDbCircle
 10
73.667908
 20
-204.018405
 30
0.0
 40
3.0
100
AcDbArc
 50
270.0
 51
360.0
  0
ARC
  5
169
330
25
100
AcDbEntity
  8
1
100
AcDbCircle
 10
92.667908
 20
-202.541323
 30
0.0
 40
3.0
100
AcDbArc
 50
90.0
 51
180.0
  0
ARC
  5
16A
330
25
100
AcDbEntity
  8
1
100
AcDbCircle
 10
80.66790799999999
 20
-202.541323
 30
0.0
 40
3.0
100
AcDbArc
 50
0.0
 51
90.0
  0
LINE
  5
16B
330
25
100
AcDbEntity
  8
1
100
AcDbLine
 10
95.06040799999999
 20
-202.933823
 30
0.0
 11
95.06040799999999
 21
-201.933823
 31
0.0
  0
LINE
  5
16C
330
25
100
AcDbEntity
  8
1
100
AcDbLine
 10
78.275408
 20
-202.933823
 30
0.0
 11
78.275408
 21
-201.933823
 31
0.0
  0
ARC
  5
16D
330
25
100
AcDbEntity
  8
1
100
AcDbCircle
 10
92.667908
 20
-201.933823
 30
0.0
 40
2.3925
100
AcDbArc
 50
0.0
 51
90.0
  0
ARC
  5
16E
330
25
100
AcDbEntity
  8
1
100
AcDbCircle
 10
80.66790799999999
 20
-201.933823
 30
0.0
 40
2.3925
100
AcDbArc
 50
90.0
 51
180.0
  0
ARC
  5
16F
330
25
100
AcDbEntity
  8
1
100
AcDbCircle
 10
99.667908
 20
-121.551528
 30
0.0
 40
3.0
100
AcDbArc
 50
90.0
 51
180.0
  0
ARC
  5
170
330
25
100
AcDbEntity
  8
1
100
AcDbCircle
 10
73.667908
 20
-121.551528
 30
0.0
 40
3.0
100
AcDbArc
 50
360.0
 51
90.0
  0
LINE
  5
171
330
25
100
AcDbEntity
  8
1
100
AcDbLine
 10
71.667908
 20
-127.458763
 30
0.0
 11
73.667908
 21
-127.458763
 31
0.0
  0
LINE
  5
172
330
25
100
AcDbEntity
  8
1
100
AcDbLine
 10
99.667908
 20
-127.458763
 30
0.0
 11
101.667908
 21
-127.458763
 31
0.0
  0
ARC
  5
173
330
25
100
AcDbEntity
  8
1
100
AcDbCircle
 10
92.667908
 20
-132.541323
 30
0.0
 40
3.0
100
AcDbArc
 50
180.0
 51
270.0
  0
ARC
  5
174
330
25
100
AcDbEntity
  8
1
100
AcDbCircle
 10
80.66790799999999
 20
-132.541323
 30
0.0
 40
3.0
100
AcDbArc
 50
270.0
 51
360.0
  0
ARC
  5
175
330
25
100
AcDbEntity
  8
1
100
AcDbCircle
 10
92.667908
 20
-131.541323
 30
0.0
 40
4.0
100
AcDbArc
 50
270.0
 51
360.0
  0
ARC
  5
176
330
25
100
AcDbEntity
  8
1
100
AcDbCircle
 10
80.66790799999999
 20
-131.541323
 30
0.0
 40
4.0
100
AcDbArc
 50
180.0
 51
270.0
  0
LINE
  5
177
330
25
100
AcDbEntity
  8
1
100
AcDbLine
 10
95.06040799999999
 20
-133.041323
 30
0.0
 11
95.06040799999999
 21
-133.148823
 31
0.0
  0
LINE
  5
178
330
25
100
AcDbEntity
  8
1
100
AcDbLine
 10
78.275408
 20
-133.041323
 30
0.0
 11
78.275408
 21
-133.148823
 31
0.0
  0
ARC
  5
179
330
25
100
AcDbEntity
  8
1
100
AcDbCircle
 10
99.667908
 20
-130.458763
 30
0.0
 40
3.0
100
AcDbArc
 50
90.0
 51
180.0
  0
ARC
  5
17A
330
25
100
AcDbEntity
  8
1
100
AcDbCircle
 10
73.667908
 20
-130.458763
 30
0.0
 40
3.0
100
AcDbArc
 50
360.0
 51
90.0
  0
ARC
  5
17B
330
25
100
AcDbEntity
  8
1
100
AcDbCircle
 10
92.667908
 20
-133.148823
 30
0.0
 40
2.3925
100
AcDbArc
 50
270.0
 51
360.0
  0
ARC
  5
17C
330
25
100
AcDbEntity
  8
1
100
AcDbCircle
 10
80.66790799999999
 20
-133.148823
 30
0.0
 40
2.3925
100
AcDbArc
 50
180.0
 51
270.0
  0
LINE
  5
17D
330
25
100
AcDbEntity
  8
1
100
AcDbLine
 10
96.704314
 20
-121.085576
 30
0.0
 11
95.06040799999999
 21
-131.541323
 31
0.0
  0
LINE
  5
17E
330
25
100
AcDbEntity
  8
1
100
AcDbLine
 10
76.631502
 20
-121.085576
 30
0.0
 11
78.275408
 21
-131.541323
 31
0.0
  0
ARC
  5
17F
330
25
100
AcDbEntity
  8
1
100
AcDbCircle
 10
93.560408
 20
-133.041323
 30
0.0
 40
1.5
100
AcDbArc
 50
0.0
 51
90.0
  0
ARC
  5
180
330
25
100
AcDbEntity
  8
1
100
AcDbCircle
 10
79.77540799999999
 20
-133.041323
 30
0.0
 40
1.5
100
AcDbArc
 50
90.0
 51
180.0
  0
LINE
  5
181
330
25
100
AcDbEntity
  8
1
100
AcDbLine
 10
-244.806022
 20
-162.442042
 30
0.0
 11
-244.806022
 21
-177.617106
 31
0.0
  0
LINE
  5
182
330
25
100
AcDbEntity
  8
1
100
AcDbLine
 10
-243.806022
 20
-162.542846
 30
0.0
 11
-243.806022
 21
-177.5398
 31
0.0
  0
LINE
  5
183
330
25
100
AcDbEntity
  8
1
100
AcDbLine
 10
-241.877819
 20
-162.676824
 30
0.0
 11
-241.877819
 21
-177.405822
 31
0.0
  0
LINE
  5
184
330
25
100
AcDbEntity
  8
1
100
AcDbLine
 10
-240.877819
 20
-162.808995
 30
0.0
 11
-240.877819
 21
-177.273652
 31
0.0
  0
LINE
  5
185
330
25
100
AcDbEntity
  8
1
100
AcDbLine
 10
-252.240291
 20
-146.886622
 30
0.0
 11
-233.443551
 21
-146.886622
 31
0.0
  0
LINE
  5
186
330
25
100
AcDbEntity
  8
1
100
AcDbLine
 10
-252.320189
 20
-149.618673
 30
0.0
 11
-252.320189
 21
-157.206772
 31
0.0
  0
LINE
  5
187
330
25
100
AcDbEntity
  8
1
100
AcDbLine
 10
-252.742518
 20
-148.802403
 30
0.0
 11
-254.7656
 21
-148.476241
 31
0.0
  0
LINE
  5
188
330
25
100
AcDbEntity
  8
1
100
AcDbLine
 10
-254.7656
 20
-148.476241
 30
0.0
 11
-255.667399
 21
-148.399398
 31
0.0
  0
LINE
  5
189
330
25
100
AcDbEntity
  8
1
100
AcDbLine
 10
-255.667399
 20
-148.399398
 30
0.0
 11
-256.655447
 21
-148.384405
 31
0.0
  0
LINE
  5
18A
330
25
100
AcDbEntity
  8
1
100
AcDbLine
 10
-256.655447
 20
-148.384405
 30
0.0
 11
-257.647523
 21
-148.438232
 31
0.0
  0
LINE
  5
18B
330
25
100
AcDbEntity
  8
1
100
AcDbLine
 10
-257.647523
 20
-148.438232
 30
0.0
 11
-258.960403
 21
-148.615066
 31
0.0
  0
LINE
  5
18C
330
25
100
AcDbEntity
  8
1
100
AcDbLine
 10
-258.960403
 20
-148.615066
 30
0.0
 11
-258.980237
 21
-148.618673
 31
0.0
  0
LINE
  5
18D
330
25
100
AcDbEntity
  8
1
100
AcDbLine
 10
-258.980237
 20
-148.618673
 30
0.0
 11
-258.965453
 21
-148.608564
 31
0.0
  0
LINE
  5
18E
330
25
100
AcDbEntity
  8
1
100
AcDbLine
 10
-258.965453
 20
-148.608564
 30
0.0
 11
-257.872262
 21
-147.937731
 31
0.0
  0
LINE
  5
18F
330
25
100
AcDbEntity
  8
1
100
AcDbLine
 10
-257.872262
 20
-147.937731
 30
0.0
 11
-256.991426
 21
-147.505966
 31
0.0
  0
LINE
  5
190
330
25
100
AcDbEntity
  8
1
100
AcDbLine
 10
-256.991426
 20
-147.505966
 30
0.0
 11
-256.100218
 21
-147.170907
 31
0.0
  0
LINE
  5
191
330
25
100
AcDbEntity
  8
1
100
AcDbLine
 10
-256.100218
 20
-147.170907
 30
0.0
 11
-255.262126
 21
-146.962608
 31
0.0
  0
LINE
  5
192
330
25
100
AcDbEntity
  8
1
100
AcDbLine
 10
-255.262126
 20
-146.962608
 30
0.0
 11
-254.459176
 21
-146.886622
 31
0.0
  0
LINE
  5
193
330
25
100
AcDbEntity
  8
1
100
AcDbLine
 10
-254.459176
 20
-146.886622
 30
0.0
 11
-252.240291
 21
-146.886622
 31
0.0
  0
LINE
  5
194
330
25
100
AcDbEntity
  8
1
100
AcDbLine
 10
-234.423286
 20
-155.410525
 30
0.0
 11
-234.423286
 21
-149.618673
 31
0.0
  0
LINE
  5
195
330
25
100
AcDbEntity
  8
1
100
AcDbLine
 10
-235.032519
 20
-155.459629
 30
0.0
 11
-235.032519
 21
-149.618673
 31
0.0
  0
LINE
  5
196
330
25
100
AcDbEntity
  8
1
100
AcDbLine
 10
-247.134814
 20
-156.871037
 30
0.0
 11
-247.134814
 21
-149.618673
 31
0.0
  0
LINE
  5
197
330
25
100
AcDbEntity
  8
1
100
AcDbLine
 10
-231.32347
 20
-160.412432
 30
0.0
 11
-221.234318
 21
-161.303793
 31
0.0
  0
LINE
  5
198
330
25
100
AcDbEntity
  8
1
100
AcDbLine
 10
-237.267265
 20
-162.542876
 30
0.0
 11
-219.463593
 21
-163.80839
 31
0.0
  0
LINE
  5
199
330
25
100
AcDbEntity
  8
1
100
AcDbLine
 10
-221.054501
 20
-163.423786
 30
0.0
 11
-240.951276
 21
-161.665936
 31
0.0
  0
LINE
  5
19A
330
25
100
AcDbEntity
  8
1
100
AcDbLine
 10
-243.771671
 20
-162.048461
 30
0.0
 11
-243.806022
 21
-162.542846
 31
0.0
  0
LINE
  5
19B
330
25
100
AcDbEntity
  8
1
100
AcDbLine
 10
-241.843467
 20
-162.18244
 30
0.0
 11
-241.877819
 21
-162.676824
 31
0.0
  0
LINE
  5
19C
330
25
100
AcDbEntity
  8
1
100
AcDbLine
 10
-237.268257
 20
-162.552155
 30
0.0
 11
-237.267265
 21
-162.542876
 31
0.0
  0
LINE
  5
19D
330
25
100
AcDbEntity
  8
1
100
AcDbLine
 10
-219.682944
 20
-161.240402
 30
0.0
 11
-229.390378
 21
-160.245558
 31
0.0
  0
LINE
  5
19E
330
25
100
AcDbEntity
  8
1
100
AcDbLine
 10
-218.937342
 20
-163.214172
 30
0.0
 11
-219.243119
 21
-161.642321
 31
0.0
  0
LINE
  5
19F
330
25
100
AcDbEntity
  8
1
100
AcDbLine
 10
-220.79194
 20
-161.685947
 30
0.0
 11
-220.524117
 21
-162.809819
 31
0.0
  0
LINE
  5
1A0
330
25
100
AcDbEntity
  8
1
100
AcDbLine
 10
-226.703604
 20
-148.618673
 30
0.0
 11
-226.723438
 21
-148.615066
 31
0.0
  0
LINE
  5
1A1
330
25
100
AcDbEntity
  8
1
100
AcDbLine
 10
-226.718388
 20
-148.608564
 30
0.0
 11
-226.703604
 21
-148.618673
 31
0.0
  0
LINE
  5
1A2
330
25
100
AcDbEntity
  8
1
100
AcDbLine
 10
-231.801702
 20
-148.618673
 30
0.0
 11
-234.297948
 21
-148.618673
 31
0.0
  0
LINE
  5
1A3
330
25
100
AcDbEntity
  8
1
100
AcDbLine
 10
-233.443551
 20
-146.886622
 30
0.0
 11
-231.224665
 21
-146.886622
 31
0.0
  0
LINE
  5
1A4
330
25
100
AcDbEntity
  8
1
100
AcDbLine
 10
-234.297948
 20
-148.618673
 30
0.0
 11
-253.882139
 21
-148.618673
 31
0.0
  0
ARC
  5
1A5
330
25
100
AcDbEntity
  8
1
100
AcDbCircle
 10
-248.136188
 20
-149.618673
 30
0.0
 40
1.001373999999999
100
AcDbArc
 50
0.0
 51
93.001862
  0
ARC
  5
1A6
330
25
100
AcDbEntity
  8
1
100
AcDbCircle
 10
-253.320189
 20
-149.618673
 30
0.0
 40
1.0
100
AcDbArc
 50
0.0
 51
90.0
  0
ARC
  5
1A7
330
25
100
AcDbEntity
  8
1
100
AcDbCircle
 10
-234.032519
 20
-149.618673
 30
0.0
 40
1.0
100
AcDbArc
 50
90.0
 51
180.0
  0
ARC
  5
1A8
330
25
100
AcDbEntity
  8
1
100
AcDbCircle
 10
-233.423286
 20
-149.618673
 30
0.0
 40
1.0
100
AcDbArc
 50
90.0
 51
180.0
  0
ARC
  5
1A9
330
25
100
AcDbEntity
  8
1
100
AcDbCircle
 10
-229.250114
 20
-162.292238
 30
0.0
 40
13.909601
100
AcDbArc
 50
79.450149
 51
100.570238
  0
ARC
  5
1AA
330
25
100
AcDbEntity
  8
1
100
AcDbCircle
 10
-232.330756
 20
-156.545162
 30
0.0
 40
9.721667999999999
100
AcDbArc
 50
54.63047299999999
 51
83.466974
  0
LWPOLYLINE
  5
1AB
330
25
100
AcDbEntity
  8
1
100
AcDbPolyline
 90
       79
 70
     0
 43
0.0
 10
-235.032519
 20
-155.459629
 10
-235.029587
 20
-155.513624
 10
-235.026603
 20
-155.567613
 10
-235.023512
 20
-155.62159
 10
-235.013071
 20
-155.783393
 10
-234.999761
 20
-155.944879
 10
-234.99444
 20
-155.99861
 10
-234.988587
 20
-156.052282
 10
-234.98215
 20
-156.10589
 10
-234.9751
 20
-156.159331
 10
-234.96743
 20
-156.212699
 10
-234.959154
 20
-156.265987
 10
-234.930839
 20
-156.425332
 10
-234.897604
 20
-156.583806
 10
-234.885501
 20
-156.636416
 10
-234.87291
 20
-156.688912
 10
-234.859846
 20
-156.741289
 10
-234.846402
 20
-156.793233
 10
-234.832501
 20
-156.845051
 10
-234.818141
 20
-156.896737
 10
-234.772268
 20
-157.050952
 10
-234.722139
 20
-157.2038
 10
-234.704468
 20
-157.254422
 10
-234.68631
 20
-157.304872
 10
-234.667663
 20
-157.355146
 10
-234.648713
 20
-157.404749
 10
-234.629281
 20
-157.454168
 10
-234.609369
 20
-157.503399
 10
-234.54677
 20
-157.649909
 10
-234.479909
 20
-157.794536
 10
-234.456683
 20
-157.842303
 10
-234.43299
 20
-157.88984
 10
-234.408832
 20
-157.937142
 10
-234.376338
 20
-157.999015
 10
-234.343044
 20
-158.060459
 10
-234.308951
 20
-158.121463
 10
-234.201892
 20
-158.301697
 10
-234.164619
 20
-158.360807
 10
-234.126556
 20
-158.419411
 10
-234.087703
 20
-158.477497
 10
-234.0487
 20
-158.53414
 10
-234.008938
 20
-158.590255
 10
-233.968421
 20
-158.645828
 10
-233.842377
 20
-158.809161
 10
-233.798878
 20
-158.862431
 10
-233.754642
 20
-158.915091
 10
-233.709674
 20
-158.967127
 10
-233.664796
 20
-159.017617
 10
-233.61922
 20
-159.06748
 10
-233.572951
 20
-159.116701
 10
-233.430045
 20
-159.260381
 10
-233.38106
 20
-159.306901
 10
-233.331409
 20
-159.352713
 10
-233.281098
 20
-159.397803
 10
-233.231086
 20
-159.441338
 10
-233.180451
 20
-159.48415
 10
-233.129199
 20
-159.526223
 10
-232.9718259999999
 20
-159.647855
 10
-232.918186
 20
-159.686819
 10
-232.863968
 20
-159.724968
 10
-232.80918
 20
-159.762286
 10
-232.72747
 20
-159.815704
 10
-232.644574
 20
-159.867264
 10
-232.560529
 20
-159.916942
 10
-232.475369
 20
-159.964714
 10
-232.389131
 20
-160.010558
 10
-232.30185
 20
-160.05445
 10
-232.215021
 20
-160.09568
 10
-232.127256
 20
-160.13489
 10
-232.038597
 20
-160.171974
 10
-231.94908
 20
-160.206823
 10
-231.858747
 20
-160.239329
 10
-231.767636
 20
-160.269384
 10
-231.657294
 20
-160.302212
 10
-231.546066
 20
-160.331966
 10
-231.434127
 20
-160.359262
 10
-231.321656
 20
-160.384714
 10
-231.20883
 20
-160.408936
 10
-231.095827
 20
-160.432544
  0
LWPOLYLINE
  5
1FC
330
25
100
AcDbEntity
  8
1
100
AcDbPolyline
 90
       79
 70
     0
 43
0.0
 10
-234.423286
 20
-155.410525
 10
-234.414509
 20
-155.449692
 10
-234.40568
 20
-155.488847
 10
-234.396746
 20
-155.527979
 10
-234.387657
 20
-155.567074
 10
-234.37836
 20
-155.606123
 10
-234.362051
 20
-155.672069
 10
-234.345008
 20
-155.737839
 10
-234.327244
 20
-155.803428
 10
-234.269734
 20
-155.999045
 10
-234.206142
 20
-156.192813
 10
-234.183646
 20
-156.2569639999999
 10
-234.16052
 20
-156.320886
 10
-234.136776
 20
-156.384573
 10
-234.11385
 20
-156.444356
 10
-234.090397
 20
-156.503927
 10
-234.066429
 20
-156.563288
 10
-233.991549
 20
-156.7401219999999
 10
-233.912452
 20
-156.91512
 10
-233.885204
 20
-156.973052
 10
-233.857534
 20
-157.030787
 10
-233.829455
 20
-157.088326
 10
-233.800621
 20
-157.14637
 10
-233.771366
 20
-157.204204
 10
-233.741677
 20
-157.261815
 10
-233.649873
 20
-157.433192
 10
-233.55369
 20
-157.602132
 10
-233.520594
 20
-157.657848
 10
-233.48696
 20
-157.713246
 10
-233.452774
 20
-157.768313
 10
-233.422505
 20
-157.816048
 10
-233.391797
 20
-157.863508
 10
-233.360643
 20
-157.910678
 10
-233.264408
 20
-158.050306
 10
-233.163833
 20
-158.186801
 10
-233.129302
 20
-158.231535
 10
-233.094254
 20
-158.275862
 10
-233.05868
 20
-158.319769
 10
-233.009821
 20
-158.378344
 10
-232.960012
 20
-158.436122
 10
-232.909279
 20
-158.4931
 10
-232.751784
 20
-158.659199
 10
-232.697605
 20
-158.712943
 10
-232.642627
 20
-158.76587
 10
-232.586876
 20
-158.817978
 10
-232.529627
 20
-158.869929
 10
-232.471624
 20
-158.921027
 10
-232.41288
 20
-158.971266
 10
-232.23234
 20
-159.116745
 10
-232.17077
 20
-159.163468
 10
-232.108527
 20
-159.209293
 10
-232.045625
 20
-159.254213
 10
-231.981249
 20
-159.298785
 10
-231.916228
 20
-159.342413
 10
-231.850579
 20
-159.385092
 10
-231.650023
 20
-159.507359
 10
-231.582024
 20
-159.546171
 10
-231.51348
 20
-159.583998
 10
-231.444406
 20
-159.620836
 10
-231.373985
 20
-159.657101
 10
-231.303057
 20
-159.692353
 10
-231.231637
 20
-159.7266
 10
-231.0146
 20
-159.823391
 10
-230.941384
 20
-159.853698
 10
-230.867762
 20
-159.883039
 10
-230.79375
 20
-159.911423
 10
-230.718605
 20
-159.939123
 10
-230.64309
 20
-159.965813
 10
-230.567217
 20
-159.991451
 10
-230.337553
 20
-160.061644
 10
-230.260354
 20
-160.082664
 10
-230.18285
 20
-160.102425
 10
-230.105054
 20
-160.120887
 10
-229.986927
 20
-160.146346
 10
-229.868262
 20
-160.169252
 10
-229.749167
 20
-160.190116
 10
-229.62975
 20
-160.209447
 10
-229.510118
 20
-160.227758
 10
-229.390378
 20
-160.245558
  0
ARC
  5
24D
330
25
100
AcDbEntity
  8
1
100
AcDbCircle
 10
-221.278321
 20
-161.801853
 30
0.0
 40
0.5
100
AcDbArc
 50
13.403796
 51
84.951114
  0
ARC
  5
24E
330
25
100
AcDbEntity
  8
1
100
AcDbCircle
 10
-221.010498
 20
-162.925726
 30
0.0
 40
0.5
100
AcDbArc
 50
264.951114
 51
13.403796
  0
ARC
  5
24F
330
25
100
AcDbEntity
  8
1
100
AcDbCircle
 10
-219.428142
 20
-163.309648
 30
0.0
 40
0.5
100
AcDbArc
 50
265.934161
 51
11.008403
  0
ARC
  5
250
330
25
100
AcDbEntity
  8
1
100
AcDbCircle
 10
-219.733918
 20
-161.737797
 30
0.0
 40
0.5
100
AcDbArc
 50
11.008403
 51
84.14859900000001
  0
LINE
  5
251
330
25
100
AcDbEntity
  8
1
100
AcDbLine
 10
-220.875454
 20
-161.335498
 30
0.0
 11
-219.737046
 21
-161.293738
 31
0.0
  0
LINE
  5
252
330
25
100
AcDbEntity
  8
1
100
AcDbLine
 10
-220.597874
 20
-163.428899
 30
0.0
 11
-219.423732
 21
-163.708933
 31
0.0
  0
LINE
  5
253
330
25
100
AcDbEntity
  8
1
100
AcDbLine
 10
-241.665714
 20
-161.614512
 30
0.0
 11
-240.951276
 21
-161.665936
 31
0.0
  0
LWPOLYLINE
  5
254
330
25
100
AcDbEntity
  8
1
100
AcDbPolyline
 90
       16
 70
     0
 43
0.0
 10
-244.810691
 20
-162.432524
 10
-244.8108799999999
 20
-162.429019
 10
-244.811079
 20
-162.425512
 10
-244.811289
 20
-162.422004
 10
-244.811509
 20
-162.418494
 10
-244.811739
 20
-162.414983
 10
-244.814645
 20
-162.380214
 10
-244.818891
 20
-162.345535
 10
-244.824761
 20
-162.311197
 10
-244.832539
 20
-162.27745
 10
-244.84251
 20
-162.2445459999999
 10
-244.854957
 20
-162.212735
 10
-244.880022
 20
-162.164785
 10
-244.910305
 20
-162.119374
 10
-244.944066
 20
-162.075657
 10
-244.979567
 20
-162.032785
  0
LWPOLYLINE
  5
266
330
25
100
AcDbEntity
  8
1
100
AcDbPolyline
 90
       58
 70
     0
 43
0.0
 10
-240.835211
 20
-155.191618
 10
-240.769748
 20
-155.263854
 10
-240.704138
 20
-155.335924
 10
-240.638232
 20
-155.407661
 10
-240.437265
 20
-155.61921
 10
-240.3687
 20
-155.687952
 10
-240.299101
 20
-155.755528
 10
-240.228321
 20
-155.821773
 10
-240.133283
 20
-155.906689
 10
-240.036167
 20
-155.989261
 10
-239.937195
 20
-156.069734
 10
-239.631361
 20
-156.301024
 10
-239.316805
 20
-156.522285
 10
-239.211049
 20
-156.594958
 10
-239.105211
 20
-156.667501
 10
-238.999513
 20
-156.74016
 10
-238.89303
 20
-156.813937
 10
-238.786991
 20
-156.888195
 10
-238.68147
 20
-156.963042
 10
-238.368765
 20
-157.192219
 10
-238.063415
 20
-157.43066
 10
-237.963615
 20
-157.512712
 10
-237.864931
 20
-157.596233
 10
-237.767439
 20
-157.681333
 10
-237.641637
 20
-157.794867
 10
-237.516798
 20
-157.909613
 10
-237.391718
 20
-158.023896
 10
-237.265195
 20
-158.13604
 10
-237.136027
 20
-158.24437
 10
-237.00301
 20
-158.347209
 10
-236.879197
 20
-158.434049
 10
-236.751829
 20
-158.515848
 10
-236.621445
 20
-158.593374
 10
-236.217586
 20
-158.80799
 10
-236.080528
 20
-158.876101
 10
-235.943149
 20
-158.943779
 10
-235.805988
 20
-159.01179
 10
-235.647396
 20
-159.09195
 10
-235.489499
 20
-159.172955
 10
-235.33197
 20
-159.254162
 10
-234.858322
 20
-159.492556
 10
-234.698994
 20
-159.568135
 10
-234.538399
 20
-159.640699
 10
-234.376209
 20
-159.709605
 10
-234.234513
 20
-159.765821
 10
-234.091487
 20
-159.818952
 10
-233.947238
 20
-159.869128
 10
-233.508231
 20
-160.003214
 10
-233.062079
 20
-160.115364
 10
-232.912274
 20
-160.148477
 10
-232.762104
 20
-160.17967
 10
-232.611675
 20
-160.209074
 10
-232.397441
 20
-160.248098
 10
-232.182953
 20
-160.284323
 10
-231.968261
 20
-160.318309
 10
-231.753415
 20
-160.350616
 10
-231.538468
 20
-160.381804
 10
-231.32347
 20
-160.412432
  0
LWPOLYLINE
  5
2A2
330
25
100
AcDbEntity
  8
1
100
AcDbPolyline
 90
       72
 70
     0
 43
0.0
 10
-247.134814
 20
-156.871037
 10
-247.129744
 20
-156.941521
 10
-247.124539
 20
-157.011981
 10
-247.119066
 20
-157.082391
 10
-247.099688
 20
-157.293072
 10
-247.073052
 20
-157.502409
 10
-247.061933
 20
-157.571773
 10
-247.04947
 20
-157.640889
 10
-247.035528
 20
-157.70973
 10
-247.01966
 20
-157.779711
 10
-247.002165
 20
-157.849361
 10
-246.983094
 20
-157.918659
 10
-246.916972
 20
-158.124242
 10
-246.838608
 20
-158.325937
 10
-246.810016
 20
-158.392211
 10
-246.780278
 20
-158.4579719999999
 10
-246.749447
 20
-158.523201
 10
-246.717515
 20
-158.587988
 10
-246.68455
 20
-158.65221
 10
-246.650562
 20
-158.715856
 10
-246.542559
 20
-158.903233
 10
-246.425703
 20
-159.085043
 10
-246.384829
 20
-159.144359
 10
-246.343011
 20
-159.203015
 10
-246.300258
 20
-159.260998
 10
-246.253627
 20
-159.322109
 10
-246.205969
 20
-159.382438
 10
-246.157312
 20
-159.441979
 10
-246.005605
 20
-159.615819
 10
-245.845853
 20
-159.78237
 10
-245.790938
 20
-159.836242
 10
-245.735235
 20
-159.889281
 10
-245.678771
 20
-159.941484
 10
-245.62948
 20
-159.985831
 10
-245.579654
 20
-160.029553
 10
-245.529305
 20
-160.072653
 10
-245.375231
 20
-160.198243
 10
-245.322904
 20
-160.238877
 10
-245.270111
 20
-160.278901
 10
-245.216864
 20
-160.318317
 10
-245.129669
 20
-160.380886
 10
-245.041355
 20
-160.441876
 10
-244.951964
 20
-160.501296
 10
-244.861539
 20
-160.559158
 10
-244.77012
 20
-160.615471
 10
-244.677751
 20
-160.670246
 10
-244.592431
 20
-160.719027
 10
-244.506377
 20
-160.766533
 10
-244.419619
 20
-160.812764
 10
-244.155392
 20
-160.94384
 10
-243.885825
 20
-161.063547
 10
-243.794914
 20
-161.100934
 10
-243.703521
 20
-161.137069
 10
-243.611675
 20
-161.171954
 10
-243.527059
 20
-161.202858
 10
-243.4421
 20
-161.23275
 10
-243.356811
 20
-161.261666
 10
-243.271207
 20
-161.289644
 10
-243.185302
 20
-161.316719
 10
-243.099111
 20
-161.34293
 10
-243.008339
 20
-161.369517
 10
-242.917259
 20
-161.395024
 10
-242.825859
 20
-161.419282
 10
-242.734132
 20
-161.442122
 10
-242.642068
 20
-161.463376
 10
-242.534212
 20
-161.486036
 10
-242.425937
 20
-161.506572
 10
-242.317296
 20
-161.525251
 10
-241.989697
 20
-161.572793
 10
-241.880113
 20
-161.586693
 10
-241.770425
 20
-161.600063
 10
-241.660684
 20
-161.613168
  0
LWPOLYLINE
  5
2EC
330
25
100
AcDbEntity
  8
1
100
AcDbPolyline
 90
       63
 70
     0
 43
0.0
 10
-252.320189
 20
-157.206772
 10
-252.31646
 20
-157.281762
 10
-252.312485
 20
-157.3567139999999
 10
-252.308018
 20
-157.431588
 10
-252.289211
 20
-157.655352
 10
-252.280321
 20
-157.729524
 10
-252.26971
 20
-157.803424
 10
-252.257133
 20
-157.877012
 10
-252.242131
 20
-157.951491
 10
-252.224939
 20
-158.025571
 10
-252.205652
 20
-158.099218
 10
-252.136195
 20
-158.3172
 10
-252.109499
 20
-158.388755
 10
-252.081193
 20
-158.459699
 10
-252.051374
 20
-158.529996
 10
-252.018731
 20
-158.602633
 10
-251.984571
 20
-158.67451
 10
-251.94892
 20
-158.745611
 10
-251.833285
 20
-158.954095
 10
-251.791932
 20
-159.02193
 10
-251.74922
 20
-159.088907
 10
-251.705173
 20
-159.155011
 10
-251.656112
 20
-159.225441
 10
-251.605574
 20
-159.294831
 10
-251.55361
 20
-159.363179
 10
-251.389667
 20
-159.561941
 10
-251.332504
 20
-159.626096
 10
-251.274168
 20
-159.689197
 10
-251.214708
 20
-159.751242
 10
-251.134366
 20
-159.831735
 10
-251.052218
 20
-159.910393
 10
-250.968337
 20
-159.987234
 10
-250.707028
 20
-160.207034
 10
-250.432748
 20
-160.411126
 10
-250.147466
 20
-160.599994
 10
-250.050268
 20
-160.65965
 10
-249.952139
 20
-160.717687
 10
-249.853152
 20
-160.774121
 10
-249.761167
 20
-160.82475
 10
-249.668523
 20
-160.874011
 10
-249.575226
 20
-160.921881
 10
-249.291504
 20
-161.056926
 10
-249.195678
 20
-161.099013
 10
-249.099239
 20
-161.139599
 10
-249.002195
 20
-161.178664
 10
-248.897888
 20
-161.218724
 10
-248.792981
 20
-161.25723
 10
-248.687555
 20
-161.294392
 10
-248.368982
 20
-161.399885
 10
-248.262298
 20
-161.433748
 10
-248.155503
 20
-161.467306
 10
-248.048679
 20
-161.500769
 10
-247.953126
 20
-161.530744
 10
-247.857566
 20
-161.560639
 10
-247.761949
 20
-161.590283
 10
-247.474276
 20
-161.676006
 10
-247.377946
 20
-161.702943
 10
-247.281316
 20
-161.728776
 10
-247.184335
 20
-161.753335
 10
-247.04471
 20
-161.786035
 10
-246.904355
 20
-161.815686
 10
-246.763361
 20
-161.842204
 10
-246.621815
 20
-161.865505
  0
LWPOLYLINE
  5
32D
330
25
100
AcDbEntity
  8
1
100
AcDbPolyline
 90
       65
 70
     0
 43
0.0
 10
-237.267265
 20
-162.542875
 10
-237.369355
 20
-162.538795
 10
-237.471444
 20
-162.534697
 10
-237.573529
 20
-162.530567
 10
-237.879748
 20
-162.517814
 10
-238.185876
 20
-162.504169
 10
-238.491869
 20
-162.489188
 10
-238.79768
 20
-162.472425
 10
-239.103265
 20
-162.453435
 10
-239.408578
 20
-162.431772
 10
-239.713574
 20
-162.406991
 10
-240.018207
 20
-162.378646
 10
-240.322434
 20
-162.346292
 10
-240.423744
 20
-162.334539
 10
-240.525002
 20
-162.322275
 10
-240.626207
 20
-162.309483
 10
-240.690502
 20
-162.301089
 10
-240.754786
 20
-162.292574
 10
-240.81907
 20
-162.284039
 10
-240.883366
 20
-162.275584
 10
-240.947686
 20
-162.267308
 10
-241.012041
 20
-162.259311
 10
-241.080216
 20
-162.251238
 10
-241.148439
 20
-162.243571
 10
-241.216704
 20
-162.236288
 10
-241.285007
 20
-162.229371
 10
-241.353343
 20
-162.2228
 10
-241.421709
 20
-162.216554
 10
-241.506019
 20
-162.209261
 10
-241.590359
 20
-162.202318
 10
-241.674718
 20
-162.19561
 10
-241.75909
 20
-162.189022
 10
-241.843467
 20
-162.182439
 10
-241.955778
 20
-162.173538
 10
-242.068085
 20
-162.164484
 10
-242.180388
 20
-162.155317
 10
-242.517297
 20
-162.12756
 10
-242.854244
 20
-162.1002879999999
 10
-243.191279
 20
-162.074623
 10
-243.528452
 20
-162.051683
 10
-243.865812
 20
-162.032589
 10
-243.978315
 20
-162.027273
 10
-244.090847
 20
-162.02255
 10
-244.203409
 20
-162.018462
 10
-244.283322
 20
-162.015969
 10
-244.36325
 20
-162.013836
 10
-244.443189
 20
-162.012082
 10
-244.523139
 20
-162.010728
 10
-244.603097
 20
-162.009791
 10
-244.680274
 20
-162.009259
 10
-244.757451
 20
-162.008892
 10
-244.834623
 20
-162.008446
 10
-244.911785
 20
-162.007678
 10
-244.988931
 20
-162.006346
 10
-245.14282
 20
-162.001421
 10
-245.296617
 20
-161.993671
 10
-245.450312
 20
-161.983492
 10
-245.603898
 20
-161.971274
 10
-245.757365
 20
-161.957412
 10
-245.910705
 20
-161.942297
 10
-246.050829
 20
-161.927686
 10
-246.190862
 20
-161.912501
 10
-246.330827
 20
-161.896884
 10
-246.470747
 20
-161.880979
 10
-246.610644
 20
-161.864931
  0
LWPOLYLINE
  5
370
330
25
100
AcDbEntity
  8
1
100
AcDbPolyline
 90
       44
 70
     0
 43
0.0
 10
-240.877819
 20
-162.8089929999999
 10
-240.877645
 20
-162.799922
 10
-240.877466
 20
-162.79085
 10
-240.877277
 20
-162.781778
 10
-240.876606
 20
-162.754555
 10
-240.875673
 20
-162.727319
 10
-240.874348
 20
-162.700061
 10
-240.873797
 20
-162.69097
 10
-240.873183
 20
-162.681875
 10
-240.872501
 20
-162.672776
 10
-240.871681
 20
-162.662963
 10
-240.870749
 20
-162.653157
 10
-240.869677
 20
-162.643369
 10
-240.86534
 20
-162.614229
 10
-240.863428
 20
-162.604628
 10
-240.861237
 20
-162.595102
 10
-240.858738
 20
-162.585664
 10
-240.856246
 20
-162.577366
 10
-240.853506
 20
-162.569143
 10
-240.850534
 20
-162.560992
 10
-240.840388
 20
-162.536947
 10
-240.828738
 20
-162.513457
 10
-240.81602
 20
-162.490454
 10
-240.811619
 20
-162.482882
 10
-240.807164
 20
-162.475354
 10
-240.802671
 20
-162.4678669999999
 10
-240.796275
 20
-162.457355
 10
-240.789797
 20
-162.446926
 10
-240.783198
 20
-162.436586
 10
-240.77644
 20
-162.426341
 10
-240.769483
 20
-162.416199
 10
-240.762289
 20
-162.406163
 10
-240.755715
 20
-162.397422
 10
-240.748892
 20
-162.38886
 10
-240.741784
 20
-162.380565
 10
-240.734355
 20
-162.372627
 10
-240.726571
 20
-162.365136
 10
-240.718396
 20
-162.358182
 10
-240.702973
 20
-162.347355
 10
-240.686445
 20
-162.338154
 10
-240.669032
 20
-162.330255
 10
-240.650956
 20
-162.323331
 10
-240.632437
 20
-162.317058
 10
-240.613697
 20
-162.31111
  0
LINE
  5
39E
330
25
100
AcDbEntity
  8
1
100
AcDbLine
 10
-231.224665
 20
-146.448417
 30
0.0
 11
-231.224665
 21
-143.999656
 31
0.0
  0
LINE
  5
39F
330
25
100
AcDbEntity
  8
1
100
AcDbLine
 10
-254.459177
 20
-146.448417
 30
0.0
 11
-254.459177
 21
-143.999656
 31
0.0
  0
LINE
  5
3A0
330
25
100
AcDbEntity
  8
1
100
AcDbLine
 10
-254.209788
 20
-143.991297
 30
0.0
 11
-231.473743
 21
-143.991339
 31
0.0
  0
ARC
  5
3A1
330
25
100
AcDbEntity
  8
1
100
AcDbCircle
 10
-242.841921
 20
-167.541118
 30
0.0
 40
26.15
100
AcDbArc
 50
115.767219
 51
244.232781
  0
ARC
  5
3A2
330
25
100
AcDbEntity
  8
1
100
AcDbCircle
 10
-242.841921
 20
-167.541118
 30
0.0
 40
26.15
100
AcDbArc
 50
295.767702
 51
64.232298
  0
LINE
  5
3A3
330
25
100
AcDbEntity
  8
1
100
AcDbLine
 10
-221.103765
 20
-176.390841
 30
0.0
 11
-237.267265
 21
-177.53977
 31
0.0
  0
LINE
  5
3A4
330
25
100
AcDbEntity
  8
1
100
AcDbLine
 10
-237.267265
 20
-177.53977
 30
0.0
 11
-237.268257
 21
-177.530491
 31
0.0
  0
LINE
  5
3A5
330
25
100
AcDbEntity
  8
1
100
AcDbLine
 10
-251.385893
 20
-186.463973
 30
0.0
 11
-234.297948
 21
-186.463973
 31
0.0
  0
LINE
  5
3A6
330
25
100
AcDbEntity
  8
1
100
AcDbLine
 10
-231.224665
 20
-188.196024
 30
0.0
 11
-252.240291
 21
-188.196024
 31
0.0
  0
LINE
  5
3A7
330
25
100
AcDbEntity
  8
1
100
AcDbLine
 10
-258.980237
 20
-186.463973
 30
0.0
 11
-258.960403
 21
-186.46758
 31
0.0
  0
LINE
  5
3A8
330
25
100
AcDbEntity
  8
1
100
AcDbLine
 10
-258.965453
 20
-186.474082
 30
0.0
 11
-258.980237
 21
-186.463973
 31
0.0
  0
LINE
  5
3A9
330
25
100
AcDbEntity
  8
1
100
AcDbLine
 10
-253.882139
 20
-186.463973
 30
0.0
 11
-251.385893
 21
-186.463973
 31
0.0
  0
LINE
  5
3AA
330
25
100
AcDbEntity
  8
1
100
AcDbLine
 10
-253.417034
 20
-186.312693
 30
0.0
 11
-253.882139
 21
-186.463973
 31
0.0
  0
LINE
  5
3AB
330
25
100
AcDbEntity
  8
1
100
AcDbLine
 10
-252.240291
 20
-188.196024
 30
0.0
 11
-254.459176
 21
-188.196024
 31
0.0
  0
LINE
  5
3AC
330
25
100
AcDbEntity
  8
1
100
AcDbLine
 10
-252.623765
 20
-186.181164
 30
0.0
 11
-252.900755
 21
-186.193758
 31
0.0
  0
LINE
  5
3AD
330
25
100
AcDbEntity
  8
1
100
AcDbLine
 10
-252.900755
 20
-186.193758
 30
0.0
 11
-253.197184
 21
-186.248461
 31
0.0
  0
LINE
  5
3AE
330
25
100
AcDbEntity
  8
1
100
AcDbLine
 10
-253.197184
 20
-186.248461
 30
0.0
 11
-253.417034
 21
-186.312693
 31
0.0
  0
LINE
  5
3AF
330
25
100
AcDbEntity
  8
1
100
AcDbLine
 10
-252.320189
 20
-182.875874
 30
0.0
 11
-252.320189
 21
-185.463533
 31
0.0
  0
LINE
  5
3B0
330
25
100
AcDbEntity
  8
1
100
AcDbLine
 10
-226.723438
 20
-186.46758
 30
0.0
 11
-226.703604
 21
-186.463973
 31
0.0
  0
LINE
  5
3B1
330
25
100
AcDbEntity
  8
1
100
AcDbLine
 10
-226.703604
 20
-186.463973
 30
0.0
 11
-226.718388
 21
-186.474082
 31
0.0
  0
LINE
  5
3B2
330
25
100
AcDbEntity
  8
1
100
AcDbLine
 10
-223.720186
 20
-178.998474
 30
0.0
 11
-231.32347
 21
-179.670214
 31
0.0
  0
LINE
  5
3B3
330
25
100
AcDbEntity
  8
1
100
AcDbLine
 10
-240.951276
 20
-178.41671
 30
0.0
 11
-223.144141
 21
-176.843476
 31
0.0
  0
LINE
  5
3B4
330
25
100
AcDbEntity
  8
1
100
AcDbLine
 10
-247.134814
 20
-185.463533
 30
0.0
 11
-247.134814
 21
-183.211609
 31
0.0
  0
LINE
  5
3B5
330
25
100
AcDbEntity
  8
1
100
AcDbLine
 10
-243.771671
 20
-178.034185
 30
0.0
 11
-243.806022
 21
-177.5398
 31
0.0
  0
LINE
  5
3B6
330
25
100
AcDbEntity
  8
1
100
AcDbLine
 10
-240.626207
 20
-177.773162
 30
0.0
 11
-241.012041
 21
-177.823334
 31
0.0
  0
LINE
  5
3B7
330
25
100
AcDbEntity
  8
1
100
AcDbLine
 10
-241.012041
 20
-177.823334
 30
0.0
 11
-241.421709
 21
-177.866091
 31
0.0
  0
LINE
  5
3B8
330
25
100
AcDbEntity
  8
1
100
AcDbLine
 10
-241.421709
 20
-177.866091
 30
0.0
 11
-241.843467
 21
-177.900206
 31
0.0
  0
LINE
  5
3B9
330
25
100
AcDbEntity
  8
1
100
AcDbLine
 10
-241.248838
 20
-178.442187
 30
0.0
 11
-240.951276
 21
-178.41671
 31
0.0
  0
LINE
  5
3BA
330
25
100
AcDbEntity
  8
1
100
AcDbLine
 10
-241.843467
 20
-177.900206
 30
0.0
 11
-241.877819
 21
-177.405822
 31
0.0
  0
LINE
  5
3BB
330
25
100
AcDbEntity
  8
1
100
AcDbLine
 10
-241.660699
 20
-178.46948
 30
0.0
 11
-241.456505
 21
-178.457887
 31
0.0
  0
LINE
  5
3BC
330
25
100
AcDbEntity
  8
1
100
AcDbLine
 10
-241.456505
 20
-178.457887
 30
0.0
 11
-241.248838
 21
-178.442187
 31
0.0
  0
LINE
  5
3BD
330
25
100
AcDbEntity
  8
1
100
AcDbLine
 10
-234.297948
 20
-186.463973
 30
0.0
 11
-231.801702
 21
-186.463973
 31
0.0
  0
LINE
  5
3BE
330
25
100
AcDbEntity
  8
1
100
AcDbLine
 10
-231.32347
 20
-179.670214
 30
0.0
 11
-231.215518
 21
-179.679171
 31
0.0
  0
LINE
  5
3BF
330
25
100
AcDbEntity
  8
1
100
AcDbLine
 10
-231.312818
 20
-179.651198
 30
0.0
 11
-231.32347
 21
-179.670214
 31
0.0
  0
LINE
  5
3C0
330
25
100
AcDbEntity
  8
1
100
AcDbLine
 10
-222.666313
 20
-177.590123
 30
0.0
 11
-223.330364
 21
-178.749001
 31
0.0
  0
LINE
  5
3C1
330
25
100
AcDbEntity
  8
1
100
AcDbLine
 10
-229.390378
 20
-179.837088
 30
0.0
 11
-221.817423
 21
-179.060991
 31
0.0
  0
LINE
  5
3C2
330
25
100
AcDbEntity
  8
1
100
AcDbLine
 10
-221.417275
 20
-178.779207
 30
0.0
 11
-220.61719
 21
-177.1051939999999
 31
0.0
  0
LWPOLYLINE
  5
3C3
330
25
100
AcDbEntity
  8
1
100
AcDbPolyline
 90
       51
 70
     0
 43
0.0
 10
-231.32347
 20
-179.670214
 10
-231.467421
 20
-179.688765
 10
-231.611311
 20
-179.70762
 10
-231.755078
 20
-179.727081
 10
-232.185032
 20
-179.792137
 10
-232.327696
 20
-179.817058
 10
-232.46993
 20
-179.844102
 10
-232.611675
 20
-179.873573
 10
-232.753038
 20
-179.9057389999999
 10
-232.89384
 20
-179.940509
 10
-233.034076
 20
-179.97775
 10
-233.451305
 20
-180.102984
 10
-233.589199
 20
-180.14879
 10
-233.726489
 20
-180.196408
 10
-233.863169
 20
-180.245704
 10
-234.017922
 20
-180.30369
 10
-234.171868
 20
-180.363648
 10
-234.325
 20
-180.425548
 10
-234.77944
 20
-180.622603
 10
-234.929244
 20
-180.691973
 10
-235.078198
 20
-180.763136
 10
-235.226295
 20
-180.836062
 10
-235.374251
 20
-180.911087
 10
-235.521344
 20
-180.987804
 10
-235.667583
 20
-181.066156
 10
-236.101283
 20
-181.31044
 10
-236.244209
 20
-181.394752
 10
-236.386332
 20
-181.480408
 10
-236.52766
 20
-181.567353
 10
-236.738386
 20
-181.700193
 10
-236.9474
 20
-181.835672
 10
-237.154757
 20
-181.973657
 10
-237.360512
 20
-182.114014
 10
-237.564721
 20
-182.25661
 10
-237.767439
 20
-182.401313
 10
-237.976272
 20
-182.553552
 10
-238.183625
 20
-182.707797
 10
-238.38956
 20
-182.863932
 10
-238.594144
 20
-183.021836
 10
-238.79744
 20
-183.181393
 10
-238.999513
 20
-183.342486
 10
-239.197445
 20
-183.502563
 10
-239.394342
 20
-183.663903
 10
-239.590293
 20
-183.826392
 10
-240.173351
 20
-184.31963
 10
-240.366402
 20
-184.48559
 10
-240.558951
 20
-184.652136
 10
-240.751085
 20
-184.819156
 10
-240.754006
 20
-184.821701
 10
-240.756928
 20
-184.8242459999999
 10
-240.759849
 20
-184.826791
  0
LWPOLYLINE
  5
3F8
330
25
100
AcDbEntity
  8
1
100
AcDbPolyline
 90
      121
 70
     0
 43
0.0
 10
-231.215518
 20
-179.679171
 10
-231.261926
 20
-179.688965
 10
-231.308317
 20
-179.698818
 10
-231.354675
 20
-179.708786
 10
-231.493382
 20
-179.739965
 10
-231.631186
 20
-179.774269
 10
-231.676842
 20
-179.786668
 10
-231.722331
 20
-179.799647
 10
-231.767636
 20
-179.813262
 10
-231.81335
 20
-179.827756
 10
-231.858855
 20
-179.842942
 10
-231.904149
 20
-179.858799
 10
-232.038737
 20
-179.910184
 10
-232.171328
 20
-179.966841
 10
-232.215069
 20
-179.986799
 10
-232.258577
 20
-180.007257
 10
-232.30185
 20
-180.028196
 10
-232.345601
 20
-180.049957
 10
-232.389101
 20
-180.07219
 10
-232.432345
 20
-180.094896
 10
-232.56049
 20
-180.165838
 10
-232.686147
 20
-180.240999
 10
-232.727457
 20
-180.266987
 10
-232.768469
 20
-180.293441
 10
-232.80918
 20
-180.32036
 10
-232.850329
 20
-180.348253
 10
-232.891157
 20
-180.376621
 10
-232.931661
 20
-180.405456
 10
-233.051195
 20
-180.494695
 10
-233.1677009999999
 20
-180.587887
 10
-233.205849
 20
-180.619797
 10
-233.243649
 20
-180.652118
 10
-233.281098
 20
-180.684843
 10
-233.318892
 20
-180.718596
 10
-233.356315
 20
-180.752757
 10
-233.393366
 20
-180.787318
 10
-233.502259
 20
-180.893355
 10
-233.607716
 20
-181.002805
 10
-233.642094
 20
-181.040021
 10
-233.676081
 20
-181.077594
 10
-233.709674
 20
-181.115519
 10
-233.736743
 20
-181.146664
 10
-233.763548
 20
-181.178036
 10
-233.79009
 20
-181.209631
 10
-233.868122
 20
-181.30573
 10
-233.943749
 20
-181.403736
 10
-234.016949
 20
-181.503569
 10
-234.040807
 20
-181.537239
 10
-234.064392
 20
-181.5711
 10
-234.087703
 20
-181.605149
 10
-234.11111
 20
-181.639937
 10
-234.134233
 20
-181.674915
 10
-234.157072
 20
-181.710078
 10
-234.223881
 20
-181.816652
 10
-234.288118
 20
-181.924798
 10
-234.349772
 20
-182.03444
 10
-234.369748
 20
-182.071307
 10
-234.389434
 20
-182.108329
 10
-234.408832
 20
-182.145504
 10
-234.428193
 20
-182.183326
 10
-234.447255
 20
-182.2213
 10
-234.46602
 20
-182.259422
 10
-234.520514
 20
-182.374652
 10
-234.572298
 20
-182.491123
 10
-234.6213529999999
 20
-182.608763
 10
-234.637096
 20
-182.648224
 10
-234.652532
 20
-182.687804
 10
-234.667663
 20
-182.727501
 10
-234.682631
 20
-182.767705
 10
-234.697287
 20
-182.808023
 10
-234.711632
 20
-182.848452
 10
-234.752809
 20
-182.970382
 10
-234.79122
 20
-183.093223
 10
-234.82689
 20
-183.216904
 10
-234.838176
 20
-183.258306
 10
-234.849161
 20
-183.299791
 10
-234.859846
 20
-183.341357
 10
-234.872856
 20
-183.393734
 10
-234.885385
 20
-183.44623
 10
-234.897423
 20
-183.498841
 10
-234.930499
 20
-183.657316
 10
-234.958825
 20
-183.816661
 10
-234.967168
 20
-183.869949
 10
-234.974946
 20
-183.923315
 10
-234.98215
 20
-183.976756
 10
-234.988789
 20
-184.030362
 10
-234.994875
 20
-184.084032
 10
-235.000441
 20
-184.137761
 10
-235.014345
 20
-184.299242
 10
-235.024744
 20
-184.461045
 10
-235.027583
 20
-184.515025
 10
-235.030164
 20
-184.569017
 10
-235.032519
 20
-184.623017
 10
-235.034836
 20
-184.681725
 10
-235.036819
 20
-184.740436
 10
-235.038363
 20
-184.79915
 10
-235.03931
 20
-184.975319
 10
-235.038046
 20
-185.034054
 10
-235.035817
 20
-185.092796
 10
-235.032519
 20
-185.151546
 10
-235.028543
 20
-185.203881
 10
-235.023259
 20
-185.256088
 10
-235.016293
 20
-185.308033
 10
-235.007271
 20
-185.359583
 10
-234.995819
 20
-185.410602
 10
-234.987325
 20
-185.4420209999999
 10
-234.977798
 20
-185.473164
 10
-234.967292
 20
-185.504014
 10
-234.955858
 20
-185.534553
 10
-234.936112
 20
-185.5818689999999
 10
-234.914236
 20
-185.628255
 10
-234.890262
 20
-185.673595
 10
-234.86422
 20
-185.717775
 10
-234.83614
 20
-185.760679
 10
-234.817951
 20
-185.786251
 10
-234.798967
 20
-185.811214
 10
-234.779145
 20
-185.835482
 10
-234.758441
 20
-185.8589669999999
 10
-234.730029
 20
-185.888504
 10
-234.700561
 20
-185.917047
 10
-234.670564
 20
-185.945092
  0
LWPOLYLINE
  5
473
330
25
100
AcDbEntity
  8
1
100
AcDbPolyline
 90
      114
 70
     0
 43
0.0
 10
-229.390378
 20
-179.837088
 10
-229.43828
 20
-179.844179
 10
-229.486175
 20
-179.851303
 10
-229.534056
 20
-179.858492
 10
-229.677549
 20
-179.880779
 10
-229.82067
 20
-179.904831
 10
-229.963233
 20
-179.93153
 10
-230.010599
 20
-179.941171
 10
-230.057874
 20
-179.951236
 10
-230.105054
 20
-179.961759
 10
-230.151766
 20
-179.972678
 10
-230.198375
 20
-179.98407
 10
-230.244877
 20
-179.995928
 10
-230.3837220000001
 20
-180.034199
 10
-230.521525
 20
-180.076333
 10
-230.658222
 20
-180.122088
 10
-230.703531
 20
-180.138102
 10
-230.748708
 20
-180.154484
 10
-230.79375
 20
-180.171223
 10
-230.849295
 20
-180.192421
 10
-230.904623
 20
-180.214157
 10
-230.959727
 20
-180.236434
 10
-231.123623
 20
-180.306542
 10
-231.285247
 20
-180.381637
 10
-231.338583
 20
-180.407793
 10
-231.391639
 20
-180.434516
 10
-231.444406
 20
-180.46181
 10
-231.49626
 20
-180.4893449999999
 10
-231.547819
 20
-180.517437
 10
-231.599076
 20
-180.546085
 10
-231.750963
 20
-180.635331
 10
-231.899876
 20
-180.7294719999999
 10
-231.94882
 20
-180.761927
 10
-231.997405
 20
-180.794915
 10
-232.045625
 20
-180.828433
 10
-232.092862
 20
-180.8620379999999
 10
-232.13973
 20
-180.896153
 10
-232.186224
 20
-180.930776
 10
-232.323401
 20
-181.037654
 10
-232.457003
 20
-181.148981
 10
-232.500716
 20
-181.187063
 10
-232.544009
 20
-181.225626
 10
-232.586876
 20
-181.264668
 10
-232.628764
 20
-181.303669
 10
-232.67022
 20
-181.343132
 10
-232.711235
 20
-181.383055
 10
-232.831518
 20
-181.505574
 10
-232.947431
 20
-181.632192
 10
-232.985046
 20
-181.675303
 10
-233.022133
 20
-181.718865
 10
-233.05868
 20
-181.762877
 10
-233.094244
 20
-181.8067899999999
 10
-233.129281
 20
-181.851126
 10
-233.163799
 20
-181.895868
 10
-233.264346
 20
-182.032383
 10
-233.360583
 20
-182.172009
 10
-233.3917490000001
 20
-182.219171
 10
-233.422477
 20
-182.266617
 10
-233.452774
 20
-182.314333
 10
-233.480201
 20
-182.358336
 10
-233.507279
 20
-182.402549
 10
-233.534011
 20
-182.446966
 10
-233.612182
 20
-182.581402
 10
-233.687402
 20
-182.71752
 10
-233.759787
 20
-182.855199
 10
-233.783306
 20
-182.901419
 10
-233.806527
 20
-182.947794
 10
-233.829455
 20
-182.99432
 10
-233.851821
 20
-183.040426
 10
-233.873907
 20
-183.08667
 10
-233.895716
 20
-183.133047
 10
-233.959509
 20
-183.272925
 10
-234.020903
 20
-183.413815
 10
-234.079968
 20
-183.555577
 10
-234.099151
 20
-183.603001
 10
-234.118087
 20
-183.650501
 10
-234.136776
 20
-183.698073
 10
-234.161183
 20
-183.761298
 10
-234.185081
 20
-183.824683
 10
-234.20839
 20
-183.888268
 10
-234.273976
 20
-184.080649
 10
-234.331358
 20
-184.276355
 10
-234.348287
 20
-184.342526
 10
-234.363981
 20
-184.409234
 10
-234.37836
 20
-184.476523
 10
-234.391451
 20
-184.545134
 10
-234.40289
 20
-184.614235
 10
-234.412449
 20
-184.683682
 10
-234.427572
 20
-184.892647
 10
-234.417593
 20
-185.099502
 10
-234.407628
 20
-185.167308
 10
-234.393964
 20
-185.2343
 10
-234.376375
 20
-185.300332
 10
-234.366436
 20
-185.331776
 10
-234.355555
 20
-185.362974
 10
-234.343752
 20
-185.393938
 10
-234.331051
 20
-185.424678
 10
-234.30368
 20
-185.484072
 10
-234.272994
 20
-185.542087
 10
-234.239029
 20
-185.598158
 10
-234.201822
 20
-185.651719
 10
-234.161411
 20
-185.702205
 10
-234.117834
 20
-185.749051
 10
-234.09548
 20
-185.770499
 10
-234.072504
 20
-185.791524
 10
-234.049031
 20
-185.812704
 10
-234.025181
 20
-185.834615
 10
-234.001446
 20
-185.856867
 10
-233.97702
 20
-185.877881
 10
-233.951455
 20
-185.895163
 10
-233.924303
 20
-185.906216
 10
-233.88723
 20
-185.908994
 10
-233.847977
 20
-185.902423
 10
-233.807634
 20
-185.891177
  0
LWPOLYLINE
  5
4E7
330
25
100
AcDbEntity
  8
1
100
AcDbPolyline
 90
       71
 70
     0
 43
0.0
 10
-252.320189
 20
-182.875874
 10
-252.31646
 20
-182.800881
 10
-252.312486
 20
-182.725926
 10
-252.30802
 20
-182.65105
 10
-252.289213
 20
-182.427279
 10
-252.280322
 20
-182.353104
 10
-252.26971
 20
-182.279202
 10
-252.257132
 20
-182.205612
 10
-252.242129
 20
-182.131135
 10
-252.224936
 20
-182.057057
 10
-252.205648
 20
-181.983413
 10
-252.136189
 20
-181.765439
 10
-252.109495
 20
-181.693886
 10
-252.08119
 20
-181.622944
 10
-252.051374
 20
-181.55265
 10
-252.018732
 20
-181.480007
 10
-251.984573
 20
-181.408125
 10
-251.948923
 20
-181.337018
 10
-251.833284
 20
-181.12852
 10
-251.791926
 20
-181.060682
 10
-251.749204
 20
-180.993701
 10
-251.705145
 20
-180.927594
 10
-251.656072
 20
-180.857169
 10
-251.605521
 20
-180.787786
 10
-251.553543
 20
-180.719445
 10
-251.389587
 20
-180.520698
 10
-251.332437
 20
-180.456547
 10
-251.274126
 20
-180.393448
 10
-251.214708
 20
-180.331404
 10
-251.166438
 20
-180.282556
 10
-251.117511
 20
-180.234382
 10
-251.067942
 20
-180.186877
 10
-250.915552
 20
-180.048363
 10
-250.757979
 20
-179.915797
 10
-250.70438
 20
-179.872919
 10
-250.65027
 20
-179.830693
 10
-250.595666
 20
-179.7891159999999
 10
-250.536447
 20
-179.74515
 10
-250.476692
 20
-179.701924
 10
-250.416417
 20
-179.659428
 10
-250.232628
 20
-179.536245
 10
-250.044723
 20
-179.419347
 10
-249.981247
 20
-179.381739
 10
-249.917377
 20
-179.344798
 10
-249.853128
 20
-179.308514
 10
-249.761248
 20
-179.258099
 10
-249.668654
 20
-179.209011
 10
-249.575368
 20
-179.161267
 10
-249.29154
 20
-179.026268
 10
-249.195673
 20
-178.984069
 10
-249.099208
 20
-178.943297
 10
-249.002165
 20
-178.903971
 10
-248.897906
 20
-178.863553
 10
-248.793075
 20
-178.82465
 10
-248.687737
 20
-178.787108
 10
-248.369336
 20
-178.681124
 10
-248.262624
 20
-178.6475
 10
-248.155731
 20
-178.614473
 10
-248.048723
 20
-178.58189
 10
-247.939607
 20
-178.549025
 10
-247.830401
 20
-178.516543
 10
-247.721067
 20
-178.484527
 10
-247.611564
 20
-178.453056
 10
-247.501856
 20
-178.422213
 10
-247.391903
 20
-178.392079
 10
-247.262813
 20
-178.357855
 10
-247.133309
 20
-178.325136
 10
-247.003366
 20
-178.294341
 10
-246.872958
 20
-178.265892
 10
-246.742061
 20
-178.240209
 10
-246.610647
 20
-178.217714
  0
LWPOLYLINE
  5
530
330
25
100
AcDbEntity
  8
1
100
AcDbPolyline
 90
       93
 70
     0
 43
0.0
 10
-241.660699
 20
-178.46948
 10
-241.705636
 20
-178.472795
 10
-241.750566
 20
-178.476169
 10
-241.795481
 20
-178.47966
 10
-241.930057
 20
-178.491423
 10
-241.974835
 20
-178.495968
 10
-242.019559
 20
-178.500924
 10
-242.064222
 20
-178.506348
 10
-242.126866
 20
-178.514836
 10
-242.189377
 20
-178.524305
 10
-242.251757
 20
-178.534694
 10
-242.438142
 20
-178.570778
 10
-242.623447
 20
-178.612969
 10
-242.684987
 20
-178.628107
 10
-242.746418
 20
-178.643683
 10
-242.807741
 20
-178.659636
 10
-242.861641
 20
-178.673953
 10
-242.915455
 20
-178.688529
 10
-242.969179
 20
-178.70338
 10
-243.129766
 20
-178.749714
 10
-243.289378
 20
-178.799024
 10
-243.342344
 20
-178.816189
 10
-243.395184
 20
-178.833741
 10
-243.447893
 20
-178.851695
 10
-243.499826
 20
-178.869836
 10
-243.551624
 20
-178.888381
 10
-243.603283
 20
-178.907328
 10
-243.757388
 20
-178.966565
 10
-243.910113
 20
-179.029356
 10
-243.960698
 20
-179.051068
 10
-244.011115
 20
-179.0731669999999
 10
-244.061362
 20
-179.095652
 10
-244.113921
 20
-179.119669
 10
-244.166282
 20
-179.144111
 10
-244.21844
 20
-179.168981
 10
-244.373636
 20
-179.246178
 10
-244.526801
 20
-179.327304
 10
-244.577379
 20
-179.35523
 10
-244.627708
 20
-179.383601
 10
-244.677784
 20
-179.41242
 10
-244.739448
 20
-179.448739
 10
-244.800702
 20
-179.48575
 10
-244.861532
 20
-179.523456
 10
-245.041352
 20
-179.640751
 10
-245.100359
 20
-179.681248
 10
-245.158878
 20
-179.722448
 10
-245.216896
 20
-179.764351
 10
-245.270154
 20
-179.803776
 10
-245.322958
 20
-179.843808
 10
-245.375295
 20
-179.884448
 10
-245.529372
 20
-180.010036
 10
-245.579709
 20
-180.053127
 10
-245.629513
 20
-180.096835
 10
-245.678771
 20
-180.141162
 10
-245.729567
 20
-180.18807
 10
-245.779738
 20
-180.235652
 10
-245.829268
 20
-180.283902
 10
-245.973849
 20
-180.432637
 10
-246.020653
 20
-180.483533
 10
-246.066736
 20
-180.535082
 10
-246.112081
 20
-180.587282
 10
-246.154719
 20
-180.637781
 10
-246.196654
 20
-180.688866
 10
-246.237872
 20
-180.740532
 10
-246.357077
 20
-180.898963
 10
-246.395281
 20
-180.9529
 10
-246.432696
 20
-181.0073919999999
 10
-246.469308
 20
-181.062434
 10
-246.520572
 20
-181.142624
 10
-246.570082
 20
-181.223913
 10
-246.617783
 20
-181.30627
 10
-246.663616
 20
-181.389664
 10
-246.707523
 20
-181.474066
 10
-246.749447
 20
-181.559445
 10
-246.780056
 20
-181.625193
 10
-246.80949
 20
-181.691473
 10
-246.837759
 20
-181.758265
 10
-246.864874
 20
-181.82555
 10
-246.890847
 20
-181.893309
 10
-246.915689
 20
-181.961522
 10
-246.939039
 20
-182.02913
 10
-246.96119
 20
-182.097143
 10
-246.982028
 20
-182.165547
 10
-247.001439
 20
-182.234324
 10
-247.019311
 20
-182.303459
 10
-247.035531
 20
-182.372935
 10
-247.054239
 20
-182.464707
 10
-247.070238
 20
-182.556978
 10
-247.083866
 20
-182.649685
 10
-247.113912
 20
-182.929805
 10
-247.121444
 20
-183.023635
 10
-247.128298
 20
-183.117591
 10
-247.134814
 20
-183.211609
  0
ARC
  5
58F
330
25
100
AcDbEntity
  8
1
100
AcDbCircle
 10
-221.068313
 20
-176.889583
 30
0.0
 40
0.5
100
AcDbArc
 50
334.454813
 51
94.06584
  0
ARC
  5
590
330
25
100
AcDbEntity
  8
1
100
AcDbCircle
 10
-223.764189
 20
-178.500414
 30
0.0
 40
0.5
100
AcDbArc
 50
275.048892
 51
330.186789
  0
ARC
  5
591
330
25
100
AcDbEntity
  8
1
100
AcDbCircle
 10
-223.100138
 20
-177.341536
 30
0.0
 40
0.5
100
AcDbArc
 50
330.186789
 51
95.048887
  0
ARC
  5
592
330
25
100
AcDbEntity
  8
1
100
AcDbCircle
 10
-221.868398
 20
-178.563596
 30
0.0
 40
0.5
100
AcDbArc
 50
275.851398
 51
334.454813
  0
ARC
  5
593
330
25
100
AcDbEntity
  8
1
100
AcDbCircle
 10
-256.433677
 20
-173.067362
 30
0.0
 40
13.637431
100
AcDbArc
 50
259.236902
 51
280.783484
  0
ARC
  5
594
330
25
100
AcDbEntity
  8
1
100
AcDbCircle
 10
-253.590191
 20
-179.156741
 30
0.0
 40
9.080957000000001
100
AcDbArc
 50
233.588661
 51
264.508786
  0
ARC
  5
595
330
25
100
AcDbEntity
  8
1
100
AcDbCircle
 10
-229.250114
 20
-172.790407
 30
0.0
 40
13.909601
100
AcDbArc
 50
259.429762
 51
280.549851
  0
ARC
  5
596
330
25
100
AcDbEntity
  8
1
100
AcDbCircle
 10
-231.224665
 20
-181.426291
 30
0.0
 40
6.769733
100
AcDbArc
 50
270.0
 51
311.902552
  0
ARC
  5
597
330
25
100
AcDbEntity
  8
1
100
AcDbCircle
 10
-248.136188
 20
-185.463533
 30
0.0
 40
1.001373999999999
100
AcDbArc
 50
266.997655
 51
359.999517
  0
ARC
  5
598
330
25
100
AcDbEntity
  8
1
100
AcDbCircle
 10
-253.320189
 20
-185.463533
 30
0.0
 40
1.0
100
AcDbArc
 50
269.999517
 51
359.999517
  0
LINE
  5
599
330
25
100
AcDbEntity
  8
1
100
AcDbLine
 10
-222.618543
 20
-176.85381
 30
0.0
 11
-220.954962
 21
-176.486365
 31
0.0
  0
LINE
  5
59A
330
25
100
AcDbEntity
  8
1
100
AcDbLine
 10
-223.369323
 20
-178.978189
 30
0.0
 11
-221.879731
 21
-179.022277
 31
0.0
  0
LWPOLYLINE
  5
59B
330
25
100
AcDbEntity
  8
1
100
AcDbPolyline
 90
       18
 70
     0
 43
0.0
 10
-244.809336
 20
-177.616558
 10
-244.809665
 20
-177.626755
 10
-244.810065
 20
-177.636962
 10
-244.81054
 20
-177.647181
 10
-244.811096
 20
-177.657412
 10
-244.811739
 20
-177.667657
 10
-244.813541
 20
-177.690834
 10
-244.815897
 20
-177.714008
 10
-244.818891
 20
-177.737105
 10
-244.832539
 20
-177.80519
 10
-244.838925
 20
-177.827235
 10
-244.84637
 20
-177.848831
 10
-244.854957
 20
-177.869905
 10
-244.874536
 20
-177.908495
 10
-244.897677
 20
-177.945352
 10
-244.92349
 20
-177.980908
 10
-244.951083
 20
-178.015598
 10
-244.979567
 20
-178.049855
  0
LWPOLYLINE
  5
5AF
330
25
100
AcDbEntity
  8
1
100
AcDbPolyline
 90
       65
 70
     0
 43
0.0
 10
-237.267265
 20
-177.53977
 10
-237.369355
 20
-177.54385
 10
-237.471444
 20
-177.547948
 10
-237.573529
 20
-177.552078
 10
-237.879748
 20
-177.564831
 10
-238.185876
 20
-177.578476
 10
-238.491869
 20
-177.593457
 10
-238.79768
 20
-177.61022
 10
-239.103265
 20
-177.62921
 10
-239.408578
 20
-177.650873
 10
-239.713574
 20
-177.675654
 10
-240.018207
 20
-177.703999
 10
-240.322434
 20
-177.736353
 10
-240.423744
 20
-177.748106
 10
-240.525002
 20
-177.76037
 10
-240.626207
 20
-177.773162
 10
-240.690502
 20
-177.781556
 10
-240.754786
 20
-177.790071
 10
-240.81907
 20
-177.798606
 10
-240.883366
 20
-177.807061
 10
-240.947686
 20
-177.815337
 10
-241.012041
 20
-177.823334
 10
-241.080216
 20
-177.831407
 10
-241.148439
 20
-177.839074
 10
-241.216704
 20
-177.846357
 10
-241.285007
 20
-177.853274
 10
-241.353343
 20
-177.859845
 10
-241.421709
 20
-177.866091
 10
-241.506019
 20
-177.873384
 10
-241.590359
 20
-177.880327
 10
-241.674718
 20
-177.887035
 10
-241.75909
 20
-177.893623
 10
-241.843467
 20
-177.900206
 10
-241.955778
 20
-177.909107
 10
-242.068085
 20
-177.918161
 10
-242.180388
 20
-177.927328
 10
-242.517297
 20
-177.955085
 10
-242.854244
 20
-177.982357
 10
-243.191279
 20
-178.008022
 10
-243.528452
 20
-178.030962
 10
-243.865812
 20
-178.050056
 10
-243.978315
 20
-178.055372
 10
-244.090847
 20
-178.060095
 10
-244.203409
 20
-178.064184
 10
-244.283322
 20
-178.066677
 10
-244.36325
 20
-178.06881
 10
-244.443189
 20
-178.070563
 10
-244.523139
 20
-178.071917
 10
-244.603097
 20
-178.072854
 10
-244.680274
 20
-178.073386
 10
-244.757451
 20
-178.073753
 10
-244.834623
 20
-178.074199
 10
-244.911785
 20
-178.074967
 10
-244.988931
 20
-178.076299
 10
-245.14282
 20
-178.081224
 10
-245.296617
 20
-178.088974
 10
-245.450312
 20
-178.099153
 10
-245.603898
 20
-178.111371
 10
-245.757365
 20
-178.125233
 10
-245.910705
 20
-178.1403479999999
 10
-246.050829
 20
-178.154959
 10
-246.190862
 20
-178.170144
 10
-246.330827
 20
-178.185761
 10
-246.470747
 20
-178.201666
 10
-246.610644
 20
-178.217714
  0
LWPOLYLINE
  5
5F2
330
25
100
AcDbEntity
  8
1
100
AcDbPolyline
 90
       44
 70
     0
 43
0.0
 10
-240.877819
 20
-177.273652
 10
-240.877645
 20
-177.282723
 10
-240.877466
 20
-177.291795
 10
-240.877277
 20
-177.300867
 10
-240.876606
 20
-177.32809
 10
-240.875673
 20
-177.355326
 10
-240.874348
 20
-177.382584
 10
-240.873797
 20
-177.391675
 10
-240.873183
 20
-177.40077
 10
-240.872501
 20
-177.409869
 10
-240.871681
 20
-177.419682
 10
-240.870749
 20
-177.429488
 10
-240.869677
 20
-177.439276
 10
-240.86534
 20
-177.468416
 10
-240.863428
 20
-177.478017
 10
-240.861237
 20
-177.4875429999999
 10
-240.858738
 20
-177.496982
 10
-240.856246
 20
-177.505279
 10
-240.853506
 20
-177.513502
 10
-240.850534
 20
-177.521653
 10
-240.840388
 20
-177.545698
 10
-240.828738
 20
-177.569188
 10
-240.81602
 20
-177.592191
 10
-240.811619
 20
-177.599763
 10
-240.807164
 20
-177.607291
 10
-240.802671
 20
-177.614778
 10
-240.796275
 20
-177.62529
 10
-240.789797
 20
-177.635719
 10
-240.783198
 20
-177.646059
 10
-240.77644
 20
-177.656304
 10
-240.769483
 20
-177.666446
 10
-240.762289
 20
-177.676482
 10
-240.755715
 20
-177.685223
 10
-240.748892
 20
-177.693785
 10
-240.741784
 20
-177.702081
 10
-240.734355
 20
-177.710018
 10
-240.726571
 20
-177.717509
 10
-240.718396
 20
-177.724463
 10
-240.702973
 20
-177.73529
 10
-240.686445
 20
-177.744491
 10
-240.669032
 20
-177.75239
 10
-240.650956
 20
-177.759314
 10
-240.632437
 20
-177.765587
 10
-240.613697
 20
-177.771535
  0
LINE
  5
620
330
25
100
AcDbEntity
  8
1
100
AcDbLine
 10
-231.224665
 20
-188.63382
 30
0.0
 11
-231.224665
 21
-191.082581
 31
0.0
  0
LINE
  5
621
330
25
100
AcDbEntity
  8
1
100
AcDbLine
 10
-254.459177
 20
-188.63382
 30
0.0
 11
-254.459177
 21
-191.082581
 31
0.0
  0
LINE
  5
622
330
25
100
AcDbEntity
  8
1
100
AcDbLine
 10
-254.210001
 20
-191.09093
 30
0.0
 11
-231.473669
 21
-191.090874
 31
0.0
  0
ARC
  5
623
330
25
100
AcDbEntity
  8
1
100
AcDbCircle
 10
-209.841921
 20
-59.450225
 30
0.0
 40
18.0
100
AcDbArc
 50
95.21590899999999
 51
95.76684699999999
  0
ARC
  5
624
330
25
100
AcDbEntity
  8
1
100
AcDbCircle
 10
-209.841921
 20
-59.450225
 30
0.0
 40
18.0
100
AcDbArc
 50
147.14167
 51
180.0
  0
LINE
  5
625
330
25
100
AcDbEntity
  8
1
100
AcDbLine
 10
51.66790800000001
 20
-29.541323
 30
0.0
 11
80.76790799999999
 21
-29.541323
 31
0.0
  0
LINE
  5
626
330
25
100
AcDbEntity
  8
1
100
AcDbLine
 10
92.567908
 20
-29.541323
 30
0.0
 11
121.667908
 21
-29.541323
 31
0.0
  0
ARC
  5
627
330
25
100
AcDbEntity
  8
1
100
AcDbCircle
 10
53.667908
 20
-59.450225
 30
0.0
 40
18.0
100
AcDbArc
 50
0.0
 51
34.963766
  0
ARC
  5
628
330
25
100
AcDbEntity
  8
1
100
AcDbCircle
 10
53.667908
 20
-59.450225
 30
0.0
 40
18.0
100
AcDbArc
 50
84.235003
 51
84.784091
  0
POINT
  5
629
330
25
100
AcDbEntity
  8
2
100
AcDbPoint
 10
-242.842159
 20
160.24296
 30
0.0
  0
LINE
  5
62A
330
25
100
AcDbEntity
  8
2
  6
CENTER
 62
     2
100
AcDbLine
 10
-242.842159
 20
106.404411
 30
0.0
 11
-242.842159
 21
224.232025
 31
0.0
  0
LINE
  5
62B
330
25
100
AcDbEntity
  8
2
  6
CENTER
 62
     2
100
AcDbLine
 10
-34.522953
 20
160.24296
 30
0.0
 11
-306.865204
 21
160.24296
 31
0.0
  0
ARC
  5
62C
330
25
100
AcDbEntity
  8
2
100
AcDbCircle
 10
-277.842159
 20
160.24296
 30
0.0
 40
2.0
100
AcDbArc
 50
111.803748
 51
248.196252
  0
LINE
  5
62D
330
25
100
AcDbEntity
  8
2
100
AcDbLine
 10
-278.585016
 20
162.099883
 30
0.0
 11
-248.413587
 21
174.169883
 31
0.0
  0
LINE
  5
62E
330
25
100
AcDbEntity
  8
2
100
AcDbLine
 10
-278.585016
 20
158.386037
 30
0.0
 11
-250.099302
 21
146.990403
 31
0.0
  0
LINE
  5
62F
330
25
100
AcDbEntity
  8
2
100
AcDbLine
 10
-247.842159
 20
143.24296
 30
0.0
 11
-237.842159
 21
143.24296
 31
0.0
  0
ARC
  5
630
330
25
100
AcDbEntity
  8
2
100
AcDbCircle
 10
-242.842159
 20
160.24296
 30
0.0
 40
15.0
100
AcDbArc
 50
298.072487
 51
241.927513
  0
LINE
  5
631
330
25
100
AcDbEntity
  8
2
100
AcDbLine
 10
-248.842159
 20
144.24296
 30
0.0
 11
-248.842159
 21
147.593849
 31
0.0
  0
LINE
  5
632
330
25
100
AcDbEntity
  8
2
100
AcDbLine
 10
-236.842159
 20
144.24296
 30
0.0
 11
-236.842159
 21
147.593849
 31
0.0
  0
ARC
  5
633
330
25
100
AcDbEntity
  8
2
100
AcDbCircle
 10
-247.842159
 20
144.24296
 30
0.0
 40
1.0
100
AcDbArc
 50
180.0
 51
270.0
  0
ARC
  5
634
330
25
100
AcDbEntity
  8
2
100
AcDbCircle
 10
-250.842159
 20
145.133479
 30
0.0
 40
2.0
100
AcDbArc
 50
0.0
 51
68.196252
  0
ARC
  5
635
330
25
100
AcDbEntity
  8
2
100
AcDbCircle
 10
-234.842159
 20
145.24296
 30
0.0
 40
2.0
100
AcDbArc
 50
118.072487
 51
180.0
  0
ARC
  5
636
330
25
100
AcDbEntity
  8
2
100
AcDbCircle
 10
-250.842159
 20
145.24296
 30
0.0
 40
2.0
100
AcDbArc
 50
0.0
 51
61.92751300000001
  0
LINE
  5
637
330
25
100
AcDbEntity
  8
2
100
AcDbLine
 10
-242.447422
 20
175.237765
 30
0.0
 11
-52.579001
 21
170.239497
 31
0.0
  0
ARC
  5
638
330
25
100
AcDbEntity
  8
2
100
AcDbCircle
 10
-148.342159
 20
146.74296
 30
0.0
 40
0.5
100
AcDbArc
 50
270.0
 51
360.0
  0
ARC
  5
639
330
25
100
AcDbEntity
  8
2
100
AcDbCircle
 10
-157.342159
 20
146.74296
 30
0.0
 40
0.5
100
AcDbArc
 50
167.306936
 51
270.0
  0
LINE
  5
63A
330
25
100
AcDbEntity
  8
2
100
AcDbLine
 10
-157.342159
 20
146.24296
 30
0.0
 11
-148.342159
 21
146.24296
 31
0.0
  0
LINE
  5
63B
330
25
100
AcDbEntity
  8
2
100
AcDbLine
 10
-147.842159
 20
146.74296
 30
0.0
 11
-147.842159
 21
147.251619
 31
0.0
  0
ARC
  5
63C
330
25
100
AcDbEntity
  8
2
100
AcDbCircle
 10
-52.84215899999999
 20
160.24296
 30
0.0
 40
10.0
100
AcDbArc
 50
271.507958
 51
88.492042
  0
ARC
  5
63D
330
25
100
AcDbEntity
  8
2
100
AcDbCircle
 10
-158.31772
 20
146.962688
 30
0.0
 40
0.5
100
AcDbArc
 50
347.306936
 51
91.507958
  0
ARC
  5
63E
330
25
100
AcDbEntity
  8
2
100
AcDbCircle
 10
-147.342159
 20
147.251619
 30
0.0
 40
0.5
100
AcDbArc
 50
91.507958
 51
180.0
  0
LINE
  5
63F
330
25
100
AcDbEntity
  8
2
100
AcDbLine
 10
-235.002909
 20
145.444131
 30
0.0
 11
-52.579001
 21
150.246423
 31
0.0
  0
ARC
  5
640
330
25
100
AcDbEntity
  8
2
100
AcDbCircle
 10
-147.342159
 20
173.234301
 30
0.0
 40
0.5
100
AcDbArc
 50
180.0
 51
268.492042
  0
ARC
  5
641
330
25
100
AcDbEntity
  8
2
100
AcDbCircle
 10
-158.31772
 20
173.523232
 30
0.0
 40
0.5
100
AcDbArc
 50
268.492042
 51
12.693064
  0
LINE
  5
642
330
25
100
AcDbEntity
  8
2
100
AcDbLine
 10
-147.842159
 20
173.74296
 30
0.0
 11
-147.842159
 21
173.234301
 31
0.0
  0
LINE
  5
643
330
25
100
AcDbEntity
  8
2
100
AcDbLine
 10
-157.342159
 20
174.24296
 30
0.0
 11
-148.342159
 21
174.24296
 31
0.0
  0
ARC
  5
644
330
25
100
AcDbEntity
  8
2
100
AcDbCircle
 10
-157.342159
 20
173.74296
 30
0.0
 40
0.5
100
AcDbArc
 50
90.0
 51
192.693064
  0
ARC
  5
645
330
25
100
AcDbEntity
  8
2
100
AcDbCircle
 10
-148.342159
 20
173.74296
 30
0.0
 40
0.5
100
AcDbArc
 50
0.0
 51
90.0
  0
ARC
  5
646
330
25
100
AcDbEntity
  8
2
100
AcDbCircle
 10
-234.950277
 20
143.444824
 30
0.0
 40
2.0
100
AcDbArc
 50
91.507958
 51
164.570915
  0
ARC
  5
647
330
25
100
AcDbEntity
  8
2
100
AcDbCircle
 10
-237.842159
 20
144.24296
 30
0.0
 40
1.0
100
AcDbArc
 50
270.0
 51
360.0
  0
LINE
  5
648
330
25
100
AcDbEntity
  8
2
  6
CENTER
 62
     2
100
AcDbLine
 10
-152.842159
 20
177.834987
 30
0.0
 11
-152.842159
 21
142.511774
 31
0.0
  0
LINE
  5
649
330
25
100
AcDbEntity
  8
2
100
AcDbLine
 10
-240.345102
 20
165.876671
 30
0.0
 11
-236.655815
 21
165.876671
 31
0.0
  0
LINE
  5
64A
330
25
100
AcDbEntity
  8
2
100
AcDbLine
 10
-236.609028
 20
165.678477
 30
0.0
 11
-240.228134
 21
163.868924
 31
0.0
  0
CIRCLE
  5
64B
330
25
100
AcDbEntity
  8
2
100
AcDbCircle
 10
-242.842159
 20
160.24296
 30
0.0
 40
14.0
  0
LINE
  5
64C
330
25
100
AcDbEntity
  8
2
100
AcDbLine
 10
-240.950728
 20
163.481472
 30
0.0
 11
-244.569835
 21
161.671919
 31
0.0
  0
LINE
  5
64D
330
25
100
AcDbEntity
  8
2
100
AcDbLine
 10
-244.948351
 20
161.905855
 30
0.0
 11
-244.948351
 21
163.418118
 31
0.0
  0
LINE
  5
64E
330
25
100
AcDbEntity
  8
2
100
AcDbLine
 10
-245.292428
 20
163.481472
 30
0.0
 11
-248.992761
 21
161.631306
 31
0.0
  0
LINE
  5
64F
330
25
100
AcDbEntity
  8
2
100
AcDbLine
 10
-249.290051
 20
159.70885
 30
0.0
 11
-249.290051
 21
165.615123
 31
0.0
  0
LINE
  5
650
330
25
100
AcDbEntity
  8
2
100
AcDbLine
 10
-245.292428
 20
161.284467
 30
0.0
 11
-248.911535
 21
159.474914
 31
0.0
  0
LINE
  5
651
330
25
100
AcDbEntity
  8
2
100
AcDbLine
 10
-248.95767
 20
161.482661
 30
0.0
 11
-245.339215
 21
161.482661
 31
0.0
  0
ARC
  5
652
330
25
100
AcDbEntity
  8
2
100
AcDbCircle
 10
-249.028503
 20
159.70885
 30
0.0
 40
0.261548
100
AcDbArc
 50
180.0
 51
296.565051
  0
ARC
  5
653
330
25
100
AcDbEntity
  8
2
100
AcDbCircle
 10
-248.95767
 20
161.561125
 30
0.0
 40
0.078464
100
AcDbArc
 50
116.565051
 51
270.0
  0
LINE
  5
654
330
25
100
AcDbEntity
  8
2
100
AcDbLine
 10
-244.791422
 20
153.139273
 30
0.0
 11
-241.058012
 21
153.139273
 31
0.0
  0
LINE
  5
655
330
25
100
AcDbEntity
  8
2
100
AcDbLine
 10
-244.791422
 20
161.482661
 30
0.0
 11
-241.058012
 21
161.482661
 31
0.0
  0
LINE
  5
656
330
25
100
AcDbEntity
  8
2
100
AcDbLine
 10
-244.948351
 20
161.325732
 30
0.0
 11
-244.948351
 21
153.296202
 31
0.0
  0
ARC
  5
657
330
25
100
AcDbEntity
  8
2
100
AcDbCircle
 10
-244.791422
 20
153.296202
 30
0.0
 40
0.156929
100
AcDbArc
 50
180.0
 51
270.0
  0
ARC
  5
658
330
25
100
AcDbEntity
  8
2
100
AcDbCircle
 10
-244.686802
 20
161.905855
 30
0.0
 40
0.261548
100
AcDbArc
 50
180.0
 51
296.565051
  0
ARC
  5
659
330
25
100
AcDbEntity
  8
2
100
AcDbCircle
 10
-244.791422
 20
161.325732
 30
0.0
 40
0.156929
100
AcDbArc
 50
90.0
 51
180.0
  0
ARC
  5
65A
330
25
100
AcDbEntity
  8
2
100
AcDbCircle
 10
-245.339215
 20
161.378042
 30
0.0
 40
0.104619
100
AcDbArc
 50
296.565051
 51
90.0
  0
LINE
  5
65B
330
25
100
AcDbEntity
  8
2
100
AcDbLine
 10
-240.901083
 20
153.296202
 30
0.0
 11
-240.901083
 21
161.325732
 31
0.0
  0
ARC
  5
65C
330
25
100
AcDbEntity
  8
2
100
AcDbCircle
 10
-241.058012
 20
153.296202
 30
0.0
 40
0.156929
100
AcDbArc
 50
270.0
 51
360.0
  0
ARC
  5
65D
330
25
100
AcDbEntity
  8
2
100
AcDbCircle
 10
-241.058012
 20
161.325732
 30
0.0
 40
0.156929
100
AcDbArc
 50
0.0
 51
90.0
  0
LINE
  5
65E
330
25
100
AcDbEntity
  8
2
100
AcDbLine
 10
-249.028503
 20
165.876671
 30
0.0
 11
-245.339215
 21
165.876671
 31
0.0
  0
LINE
  5
65F
330
25
100
AcDbEntity
  8
2
100
AcDbLine
 10
-248.95767
 20
163.679666
 30
0.0
 11
-245.339215
 21
163.679666
 31
0.0
  0
LINE
  5
660
330
25
100
AcDbEntity
  8
2
100
AcDbLine
 10
-245.292428
 20
165.678477
 30
0.0
 11
-248.992761
 21
163.828311
 31
0.0
  0
ARC
  5
661
330
25
100
AcDbEntity
  8
2
100
AcDbCircle
 10
-249.028503
 20
165.615123
 30
0.0
 40
0.261548
100
AcDbArc
 50
90.0
 51
180.0
  0
ARC
  5
662
330
25
100
AcDbEntity
  8
2
100
AcDbCircle
 10
-248.95767
 20
163.75813
 30
0.0
 40
0.078464
100
AcDbArc
 50
116.565051
 51
270.0
  0
LINE
  5
663
330
25
100
AcDbEntity
  8
2
100
AcDbLine
 10
-244.686802
 20
165.876671
 30
0.0
 11
-240.997515
 21
165.876671
 31
0.0
  0
LINE
  5
664
330
25
100
AcDbEntity
  8
2
100
AcDbLine
 10
-244.686802
 20
163.679666
 30
0.0
 11
-240.997515
 21
163.679666
 31
0.0
  0
LINE
  5
665
330
25
100
AcDbEntity
  8
2
100
AcDbLine
 10
-240.950728
 20
165.678477
 30
0.0
 11
-244.569835
 21
163.868924
 31
0.0
  0
ARC
  5
666
330
25
100
AcDbEntity
  8
2
100
AcDbCircle
 10
-244.686802
 20
165.615123
 30
0.0
 40
0.261548
100
AcDbArc
 50
90.0
 51
180.0
  0
ARC
  5
667
330
25
100
AcDbEntity
  8
2
100
AcDbCircle
 10
-245.339215
 20
165.772052
 30
0.0
 40
0.104619
100
AcDbArc
 50
296.565051
 51
90.0
  0
ARC
  5
668
330
25
100
AcDbEntity
  8
2
100
AcDbCircle
 10
-244.686802
 20
164.10286
 30
0.0
 40
0.261548
100
AcDbArc
 50
180.0
 51
296.565051
  0
ARC
  5
669
330
25
100
AcDbEntity
  8
2
100
AcDbCircle
 10
-244.686802
 20
163.418118
 30
0.0
 40
0.261548
100
AcDbArc
 50
90.0
 51
180.0
  0
ARC
  5
66A
330
25
100
AcDbEntity
  8
2
100
AcDbCircle
 10
-245.339215
 20
163.575047
 30
0.0
 40
0.104619
100
AcDbArc
 50
296.565051
 51
90.0
  0
LINE
  5
66B
330
25
100
AcDbEntity
  8
2
100
AcDbLine
 10
-244.948351
 20
164.10286
 30
0.0
 11
-244.948351
 21
165.615123
 31
0.0
  0
ARC
  5
66C
330
25
100
AcDbEntity
  8
2
100
AcDbCircle
 10
-240.345102
 20
165.615123
 30
0.0
 40
0.261548
100
AcDbArc
 50
90.0
 51
180.0
  0
ARC
  5
66D
330
25
100
AcDbEntity
  8
2
100
AcDbCircle
 10
-240.997515
 20
165.772052
 30
0.0
 40
0.104619
100
AcDbArc
 50
296.565051
 51
90.0
  0
ARC
  5
66E
330
25
100
AcDbEntity
  8
2
100
AcDbCircle
 10
-240.345102
 20
164.10286
 30
0.0
 40
0.261548
100
AcDbArc
 50
180.0
 51
296.565051
  0
ARC
  5
66F
330
25
100
AcDbEntity
  8
2
100
AcDbCircle
 10
-240.997515
 20
163.575047
 30
0.0
 40
0.104619
100
AcDbArc
 50
296.565051
 51
90.0
  0
LINE
  5
670
330
25
100
AcDbEntity
  8
2
100
AcDbLine
 10
-240.60665
 20
164.10286
 30
0.0
 11
-240.60665
 21
165.615123
 31
0.0
  0
ARC
  5
671
330
25
100
AcDbEntity
  8
2
100
AcDbCircle
 10
-236.655815
 20
165.772052
 30
0.0
 40
0.104619
100
AcDbArc
 50
296.565051
 51
90.0
  0
LINE
  5
672
330
25
100
AcDbEntity
  8
2
100
AcDbLine
 10
-243.304099
 20
212.358181
 30
0.0
 11
-246.386305
 21
219.799285
 31
0.0
  0
LINE
  5
673
330
25
100
AcDbEntity
  8
2
100
AcDbLine
 10
-242.380219
 20
212.358181
 30
0.0
 11
-239.298013
 21
219.799285
 31
0.0
  0
ARC
  5
674
330
25
100
AcDbEntity
  8
2
100
AcDbCircle
 10
-242.842159
 20
212.549523
 30
0.0
 40
0.5
100
AcDbArc
 50
202.5
 51
337.5
  0
ARC
  5
675
330
25
100
AcDbEntity
  8
2
100
AcDbCircle
 10
-246.848245
 20
219.607944
 30
0.0
 40
0.5
100
AcDbArc
 50
22.5
 51
93.86059799999999
  0
ARC
  5
676
330
25
100
AcDbEntity
  8
2
100
AcDbCircle
 10
-238.836073
 20
219.607944
 30
0.0
 40
0.5
100
AcDbArc
 50
86.139402
 51
157.5
  0
ARC
  5
677
330
25
100
AcDbEntity
  8
2
100
AcDbCircle
 10
-228.588313
 20
218.010407
 30
0.0
 40
0.5
100
AcDbArc
 50
76.139402
 51
147.5
  0
ARC
  5
678
330
25
100
AcDbEntity
  8
2
100
AcDbCircle
 10
-236.478762
 20
219.401706
 30
0.0
 40
0.5
100
AcDbArc
 50
12.5
 51
83.86059799999999
  0
ARC
  5
679
330
25
100
AcDbEntity
  8
2
100
AcDbCircle
 10
-233.759219
 20
211.754869
 30
0.0
 40
0.5
100
AcDbArc
 50
192.5
 51
327.5
  0
LINE
  5
67A
330
25
100
AcDbEntity
  8
2
100
AcDbLine
 10
-233.337524
 20
211.486219
 30
0.0
 11
-229.010009
 21
218.279056
 31
0.0
  0
LINE
  5
67B
330
25
100
AcDbEntity
  8
2
100
AcDbLine
 10
-234.247367
 20
211.646649
 30
0.0
 11
-235.990614
 21
219.509925
 31
0.0
  0
ARC
  5
67C
330
25
100
AcDbEntity
  8
2
100
AcDbCircle
 10
-218.773649
 20
214.657635
 30
0.0
 40
0.5
100
AcDbArc
 50
66.139402
 51
137.5
  0
ARC
  5
67D
330
25
100
AcDbEntity
  8
2
100
AcDbCircle
 10
-226.302628
 20
217.397959
 30
0.0
 40
0.5
100
AcDbArc
 50
2.5
 51
73.86059799999999
  0
ARC
  5
67E
330
25
100
AcDbEntity
  8
2
100
AcDbCircle
 10
-224.952261
 20
209.395051
 30
0.0
 40
0.5
100
AcDbArc
 50
182.5
 51
317.5
  0
LINE
  5
67F
330
25
100
AcDbEntity
  8
2
100
AcDbLine
 10
-224.583622
 20
209.057256
 30
0.0
 11
-219.142288
 21
214.99543
 31
0.0
  0
LINE
  5
680
330
25
100
AcDbEntity
  8
2
100
AcDbLine
 10
-225.451785
 20
209.373242
 30
0.0
 11
-225.803104
 21
217.419769
 31
0.0
  0
ARC
  5
681
330
25
100
AcDbEntity
  8
2
100
AcDbCircle
 10
-209.690295
 20
209.651501
 30
0.0
 40
0.5
100
AcDbArc
 50
56.139402
 51
127.5
  0
ARC
  5
682
330
25
100
AcDbEntity
  8
2
100
AcDbCircle
 10
-216.629039
 20
213.657587
 30
0.0
 40
0.5
100
AcDbArc
 50
352.5
 51
63.86059799999999
  0
ARC
  5
683
330
25
100
AcDbEntity
  8
2
100
AcDbCircle
 10
-216.688877
 20
205.541772
 30
0.0
 40
0.5
100
AcDbArc
 50
172.5
 51
307.5
  0
LINE
  5
684
330
25
100
AcDbEntity
  8
2
100
AcDbLine
 10
-216.384497
 20
205.145096
 30
0.0
 11
-209.994676
 21
210.048178
 31
0.0
  0
LINE
  5
685
330
25
100
AcDbEntity
  8
2
100
AcDbLine
 10
-217.1846
 20
205.607035
 30
0.0
 11
-216.133317
 21
213.592324
 31
0.0
  0
ARC
  5
686
330
25
100
AcDbEntity
  8
2
100
AcDbCircle
 10
-201.614243
 20
203.144114
 30
0.0
 40
0.5
100
AcDbArc
 50
46.139402
 51
117.5
  0
ARC
  5
687
330
25
100
AcDbEntity
  8
2
100
AcDbCircle
 10
-207.751923
 20
208.294238
 30
0.0
 40
0.5
100
AcDbArc
 50
342.5
 51
53.86059799999999
  0
ARC
  5
688
330
25
100
AcDbEntity
  8
2
100
AcDbCircle
 10
-209.220148
 20
200.312112
 30
0.0
 40
0.5
100
AcDbArc
 50
162.5
 51
297.5
  0
LINE
  5
689
330
25
100
AcDbEntity
  8
2
100
AcDbLine
 10
-208.989274
 20
199.868606
 30
0.0
 11
-201.845117
 21
203.587619
 31
0.0
  0
LINE
  5
68A
330
25
100
AcDbEntity
  8
2
100
AcDbLine
 10
-209.697007
 20
200.462465
 30
0.0
 11
-207.275064
 21
208.143885
 31
0.0
  0
ARC
  5
68B
330
25
100
AcDbEntity
  8
2
100
AcDbCircle
 10
-194.790881
 20
195.333196
 30
0.0
 40
0.5
100
AcDbArc
 50
36.139402
 51
107.5
  0
ARC
  5
68C
330
25
100
AcDbEntity
  8
2
100
AcDbCircle
 10
-199.941005
 20
201.470876
 30
0.0
 40
0.5
100
AcDbArc
 50
332.5
 51
43.86059799999999
  0
ARC
  5
68D
330
25
100
AcDbEntity
  8
2
100
AcDbCircle
 10
-202.773007
 20
193.864971
 30
0.0
 40
0.5
100
AcDbArc
 50
152.5
 51
287.5
  0
LINE
  5
68E
330
25
100
AcDbEntity
  8
2
100
AcDbLine
 10
-202.622654
 20
193.388112
 30
0.0
 11
-194.941234
 21
195.810055
 31
0.0
  0
LINE
  5
68F
330
25
100
AcDbEntity
  8
2
100
AcDbLine
 10
-203.216512
 20
194.095845
 30
0.0
 11
-199.4975
 21
201.240001
 31
0.0
  0
ARC
  5
690
330
25
100
AcDbEntity
  8
2
100
AcDbCircle
 10
-189.427532
 20
186.45608
 30
0.0
 40
0.5
100
AcDbArc
 50
26.139402
 51
97.5
  0
ARC
  5
691
330
25
100
AcDbEntity
  8
2
100
AcDbCircle
 10
-193.433618
 20
193.394824
 30
0.0
 40
0.5
100
AcDbArc
 50
322.5
 51
33.860598
  0
ARC
  5
692
330
25
100
AcDbEntity
  8
2
100
AcDbCircle
 10
-197.5433459999999
 20
186.396241
 30
0.0
 40
0.5
100
AcDbArc
 50
142.5
 51
277.5
  0
LINE
  5
693
330
25
100
AcDbEntity
  8
2
100
AcDbLine
 10
-197.478083
 20
185.900519
 30
0.0
 11
-189.492795
 21
186.951802
 31
0.0
  0
LINE
  5
694
330
25
100
AcDbEntity
  8
2
100
AcDbLine
 10
-197.940023
 20
186.700622
 30
0.0
 11
-193.036941
 21
193.090443
 31
0.0
  0
ARC
  5
695
330
25
100
AcDbEntity
  8
2
100
AcDbCircle
 10
-185.68716
 20
176.782491
 30
0.0
 40
0.5
100
AcDbArc
 50
16.139402
 51
87.5
  0
ARC
  5
696
330
25
100
AcDbEntity
  8
2
100
AcDbCircle
 10
-188.427484
 20
184.311469
 30
0.0
 40
0.5
100
AcDbArc
 50
312.5
 51
23.860598
  0
ARC
  5
697
330
25
100
AcDbEntity
  8
2
100
AcDbCircle
 10
-193.690068
 20
178.132858
 30
0.0
 40
0.5
100
AcDbArc
 50
132.5
 51
267.5
  0
LINE
  5
698
330
25
100
AcDbEntity
  8
2
100
AcDbLine
 10
-193.711877
 20
177.633334
 30
0.0
 11
-185.66535
 21
177.282015
 31
0.0
  0
LINE
  5
699
330
25
100
AcDbEntity
  8
2
100
AcDbLine
 10
-194.027863
 20
178.501497
 30
0.0
 11
-188.089689
 21
183.942831
 31
0.0
  0
ARC
  5
69A
330
25
100
AcDbEntity
  8
2
100
AcDbCircle
 10
-185.074712
 20
174.496806
 30
0.0
 40
0.5
100
AcDbArc
 50
302.5
 51
13.860598
  0
LINE
  5
69B
330
25
100
AcDbEntity
  8
2
100
AcDbLine
 10
-185.340808
 20
173.734439
 30
0.0
 11
-184.806062
 21
174.07511
 31
0.0
  0
ARC
  5
69C
330
25
100
AcDbEntity
  8
2
100
AcDbCircle
 10
-242.842159
 20
160.24296
 30
0.0
 40
50.0
100
AcDbArc
 50
127.979872
 51
322.020128
  0
LINE
  5
69D
330
25
100
AcDbEntity
  8
2
100
AcDbLine
 10
-191.607405
 20
135.24296
 30
0.0
 11
-177.842159
 21
135.24296
 31
0.0
  0
LINE
  5
69E
330
25
100
AcDbEntity
  8
2
100
AcDbLine
 10
-167.842159
 20
145.24296
 30
0.0
 11
-167.842159
 21
147.212131
 31
0.0
  0
ARC
  5
69F
330
25
100
AcDbEntity
  8
2
100
AcDbCircle
 10
-177.842159
 20
145.24296
 30
0.0
 40
10.0
100
AcDbArc
 50
270.0
 51
360.0
  0
ARC
  5
6A0
330
25
100
AcDbEntity
  8
2
100
AcDbCircle
 10
-257.842159
 20
225.24296
 30
0.0
 40
10.0
100
AcDbArc
 50
90.0
 51
180.0
  0
ARC
  5
6A1
330
25
100
AcDbEntity
  8
2
100
AcDbCircle
 10
-248.842159
 20
220.947161
 30
0.0
 40
1.0
100
AcDbArc
 50
180.0
 51
275.644778
  0
ARC
  5
6A2
330
25
100
AcDbEntity
  8
2
100
AcDbCircle
 10
-250.842159
 20
234.24296
 30
0.0
 40
1.0
100
AcDbArc
 50
0.0
 51
90.0
  0
LINE
  5
6A3
330
25
100
AcDbEntity
  8
2
100
AcDbLine
 10
-249.842159
 20
234.24296
 30
0.0
 11
-249.842159
 21
220.947161
 31
0.0
  0
LINE
  5
6A4
330
25
100
AcDbEntity
  8
2
100
AcDbLine
 10
-257.842159
 20
235.24296
 30
0.0
 11
-250.842159
 21
235.24296
 31
0.0
  0
LINE
  5
6A5
330
25
100
AcDbEntity
  8
2
100
AcDbLine
 10
-267.842159
 20
211.477714
 30
0.0
 11
-267.842159
 21
225.24296
 31
0.0
  0
ARC
  5
6A6
330
25
100
AcDbEntity
  8
2
100
AcDbCircle
 10
-191.607405
 20
120.24296
 30
0.0
 40
15.0
100
AcDbArc
 50
90.0
 51
142.020128
  0
ARC
  5
6A7
330
25
100
AcDbEntity
  8
2
100
AcDbCircle
 10
-282.842159
 20
211.477714
 30
0.0
 40
15.0
100
AcDbArc
 50
307.979872
 51
360.0
  0
ARC
  5
6A8
330
25
100
AcDbEntity
  8
2
100
AcDbCircle
 10
-242.842159
 20
160.24296
 30
0.0
 40
60.0
100
AcDbArc
 50
13.860598
 51
16.139402
  0
ARC
  5
6A9
330
25
100
AcDbEntity
  8
2
100
AcDbCircle
 10
-242.842159
 20
160.24296
 30
0.0
 40
60.0
100
AcDbArc
 50
23.860598
 51
26.139402
  0
ARC
  5
6AA
330
25
100
AcDbEntity
  8
2
100
AcDbCircle
 10
-242.842159
 20
160.24296
 30
0.0
 40
60.0
100
AcDbArc
 50
93.86059799999999
 51
95.644778
  0
ARC
  5
6AB
330
25
100
AcDbEntity
  8
2
100
AcDbCircle
 10
-242.842159
 20
160.24296
 30
0.0
 40
60.0
100
AcDbArc
 50
83.86059799999999
 51
86.139402
  0
ARC
  5
6AC
330
25
100
AcDbEntity
  8
2
100
AcDbCircle
 10
-242.842159
 20
160.24296
 30
0.0
 40
60.0
100
AcDbArc
 50
73.86059799999999
 51
76.139402
  0
ARC
  5
6AD
330
25
100
AcDbEntity
  8
2
100
AcDbCircle
 10
-242.842159
 20
160.24296
 30
0.0
 40
60.0
100
AcDbArc
 50
63.86059799999999
 51
66.139402
  0
ARC
  5
6AE
330
25
100
AcDbEntity
  8
2
100
AcDbCircle
 10
-242.842159
 20
160.24296
 30
0.0
 40
60.0
100
AcDbArc
 50
53.86059799999999
 51
56.139402
  0
ARC
  5
6AF
330
25
100
AcDbEntity
  8
2
100
AcDbCircle
 10
-242.842159
 20
160.24296
 30
0.0
 40
60.0
100
AcDbArc
 50
43.86059799999999
 51
46.139402
  0
ARC
  5
6B0
330
25
100
AcDbEntity
  8
2
100
AcDbCircle
 10
-242.842159
 20
160.24296
 30
0.0
 40
60.0
100
AcDbArc
 50
33.860598
 51
36.139402
  0
LINE
  5
6B1
330
25
100
AcDbEntity
  8
2
100
AcDbLine
 10
-240.720838
 20
180.749057
 30
0.0
 11
-244.256372
 21
184.284591
 31
0.0
  0
LINE
  5
6B2
330
25
100
AcDbEntity
  8
2
100
AcDbLine
 10
-240.720838
 20
187.820124
 30
0.0
 11
-244.256372
 21
184.284591
 31
0.0
  0
LINE
  5
6B3
330
25
100
AcDbEntity
  8
2
100
AcDbLine
 10
-240.367285
 20
187.466571
 30
0.0
 11
-243.549266
 21
184.284591
 31
0.0
  0
LINE
  5
6B4
330
25
100
AcDbEntity
  8
2
100
AcDbLine
 10
-240.367285
 20
181.10261
 30
0.0
 11
-243.549266
 21
184.284591
 31
0.0
  0
LINE
  5
6B5
330
25
100
AcDbEntity
  8
2
100
AcDbLine
 10
-240.367285
 20
181.10261
 30
0.0
 11
-240.720838
 21
180.749057
 31
0.0
  0
LINE
  5
6B6
330
25
100
AcDbEntity
  8
2
100
AcDbLine
 10
-240.367285
 20
187.466571
 30
0.0
 11
-240.720838
 21
187.820124
 31
0.0
  0
LINE
  5
6B7
330
25
100
AcDbEntity
  8
2
100
AcDbLine
 10
-268.247256
 20
150.292718
 30
0.0
 11
-271.498215
 21
153.543677
 31
0.0
  0
LINE
  5
6B8
330
25
100
AcDbEntity
  8
2
100
AcDbLine
 10
-272.412547
 20
146.127427
 30
0.0
 11
-275.663506
 21
149.378386
 31
0.0
  0
LINE
  5
6B9
330
25
100
AcDbEntity
  8
2
100
AcDbLine
 10
-265.320532
 20
141.044705
 30
0.0
 11
-261.014369
 21
143.059831
 31
0.0
  0
LINE
  5
6BA
330
25
100
AcDbEntity
  8
2
100
AcDbLine
 10
-265.673449
 20
139.388328
 30
0.0
 11
-262.051409
 21
141.006866
 31
0.0
  0
LINE
  5
6BB
330
25
100
AcDbEntity
  8
2
100
AcDbLine
 10
-265.320532
 20
141.044705
 30
0.0
 11
-262.297884
 21
144.343346
 31
0.0
  0
LINE
  5
6BC
330
25
100
AcDbEntity
  8
2
100
AcDbLine
 10
-267.217046
 20
140.947464
 30
0.0
 11
-263.313809
 21
145.359271
 31
0.0
  0
ARC
  5
6BD
330
25
100
AcDbEntity
  8
2
100
AcDbCircle
 10
-262.609842
 20
140.164917
 30
0.0
 40
10.402317
100
AcDbArc
 50
128.830069
 51
141.169931
  0
ARC
  5
6BE
330
25
100
AcDbEntity
  8
2
100
AcDbCircle
 10
-273.297878
 20
150.852953
 30
0.0
 40
10.402317
100
AcDbArc
 50
308.830069
 51
321.169931
  0
LINE
  5
6BF
330
25
100
AcDbEntity
  8
2
100
AcDbLine
 10
-272.412547
 20
146.127427
 30
0.0
 11
-268.247256
 21
150.292718
 31
0.0
  0
ARC
  5
6C0
330
25
100
AcDbEntity
  8
2
100
AcDbCircle
 10
-268.051206
 20
146.925341
 30
0.0
 40
1.724081
100
AcDbArc
 50
51.27054199999999
 51
128.830069
  0
ARC
  5
6C1
330
25
100
AcDbEntity
  8
2
100
AcDbCircle
 10
-266.537454
 20
145.411589
 30
0.0
 40
1.724081
100
AcDbArc
 50
321.169931
 51
38.729458
  0
ARC
  5
6C2
330
25
100
AcDbEntity
  8
2
100
AcDbCircle
 10
-274.182494
 20
139.280301
 30
0.0
 40
11.524047
100
AcDbArc
 50
38.729458
 51
51.27054199999999
  0
LINE
  5
6C3
330
25
100
AcDbEntity
  8
2
100
AcDbLine
 10
-263.313809
 20
145.359271
 30
0.0
 11
-262.297884
 21
144.343346
 31
0.0
  0
ARC
  5
6C4
330
25
100
AcDbEntity
  8
2
100
AcDbCircle
 10
-269.370266
 20
145.606281
 30
0.0
 40
1.724081
100
AcDbArc
 50
141.169931
 51
218.729458
  0
ARC
  5
6C5
330
25
100
AcDbEntity
  8
2
100
AcDbCircle
 10
-267.856514
 20
144.092529
 30
0.0
 40
1.724081
100
AcDbArc
 50
231.270542
 51
308.830069
  0
ARC
  5
6C6
330
25
100
AcDbEntity
  8
2
100
AcDbCircle
 10
-261.725226
 20
151.737569
 30
0.0
 40
11.524047
100
AcDbArc
 50
218.729458
 51
231.270542
  0
LINE
  5
6C7
330
25
100
AcDbEntity
  8
2
100
AcDbLine
 10
-267.224815
 20
140.939695
 30
0.0
 11
-265.673449
 21
139.388328
 31
0.0
  0
LINE
  5
6C8
330
25
100
AcDbEntity
  8
2
100
AcDbLine
 10
-272.209362
 20
148.768831
 30
0.0
 11
-272.9205100000001
 21
148.057684
 31
0.0
  0
LINE
  5
6C9
330
25
100
AcDbEntity
  8
2
100
AcDbLine
 10
-270.177513
 20
150.800681
 30
0.0
 11
-271.498215
 21
149.479979
 31
0.0
  0
LINE
  5
6CA
330
25
100
AcDbEntity
  8
2
100
AcDbLine
 10
-270.177513
 20
150.800681
 30
0.0
 11
-272.209362
 21
152.83253
 31
0.0
  0
LINE
  5
6CB
330
25
100
AcDbEntity
  8
2
100
AcDbLine
 10
-271.498215
 20
149.479979
 30
0.0
 11
-273.530065
 21
151.511828
 31
0.0
  0
LINE
  5
6CC
330
25
100
AcDbEntity
  8
2
100
AcDbLine
 10
-272.209362
 20
148.768831
 30
0.0
 11
-274.241212
 21
150.800681
 31
0.0
  0
LINE
  5
6CD
330
25
100
AcDbEntity
  8
2
100
AcDbLine
 10
-272.9205100000001
 20
148.057684
 30
0.0
 11
-274.952359
 21
150.089533
 31
0.0
  0
LINE
  5
6CE
330
25
100
AcDbEntity
  8
2
100
AcDbLine
 10
-250.787039
 20
132.832501
 30
0.0
 11
-252.237197
 21
134.282659
 31
0.0
  0
LINE
  5
6CF
330
25
100
AcDbEntity
  8
2
100
AcDbLine
 10
-253.873013
 20
129.746527
 30
0.0
 11
-255.323171
 21
131.196685
 31
0.0
  0
ARC
  5
6D0
330
25
100
AcDbEntity
  8
2
100
AcDbCircle
 10
-253.987201
 20
126.340742
 30
0.0
 40
0.143673
100
AcDbArc
 50
225.0
 51
315.0
  0
LINE
  5
6D1
330
25
100
AcDbEntity
  8
2
100
AcDbLine
 10
-253.751102
 20
129.746527
 30
0.0
 11
-250.787039
 21
132.71059
 31
0.0
  0
LINE
  5
6D2
330
25
100
AcDbEntity
  8
2
100
AcDbLine
 10
-258.544846
 20
131.070279
 30
0.0
 11
-251.64761
 21
128.7712
 31
0.0
  0
ARC
  5
6D3
330
25
100
AcDbEntity
  8
2
100
AcDbCircle
 10
-250.847994
 20
132.771545
 30
0.0
 40
0.086204
100
AcDbArc
 50
315.0
 51
45.0
  0
ARC
  5
6D4
330
25
100
AcDbEntity
  8
2
100
AcDbCircle
 10
-251.693044
 20
128.6349
 30
0.0
 40
0.143673
100
AcDbArc
 50
315.0
 51
71.565051
  0
ARC
  5
6D5
330
25
100
AcDbEntity
  8
2
100
AcDbCircle
 10
-253.812057
 20
129.807482
 30
0.0
 40
0.086204
100
AcDbArc
 50
225.0
 51
315.0
  0
LINE
  5
6D6
330
25
100
AcDbEntity
  8
2
100
AcDbLine
 10
-251.591451
 20
128.533307
 30
0.0
 11
-253.885609
 21
126.23915
 31
0.0
  0
ARC
  5
6D7
330
25
100
AcDbEntity
  8
2
100
AcDbCircle
 10
-252.205322
 20
129.760398
 30
0.0
 40
10.402317
100
AcDbArc
 50
128.830069
 51
141.169931
  0
ARC
  5
6D8
330
25
100
AcDbEntity
  8
2
100
AcDbCircle
 10
-252.97634
 20
130.531416
 30
0.0
 40
7.674066
100
AcDbArc
 50
124.473609
 51
145.526391
  0
LINE
  5
6D9
330
25
100
AcDbEntity
  8
2
100
AcDbLine
 10
-262.110811
 20
135.841229
 30
0.0
 11
-257.699004
 21
139.744466
 31
0.0
  0
ARC
  5
6DA
330
25
100
AcDbEntity
  8
2
100
AcDbCircle
 10
-257.646686
 20
136.520821
 30
0.0
 40
1.724081
100
AcDbArc
 50
51.27054199999999
 51
128.830069
  0
LINE
  5
6DB
330
25
100
AcDbEntity
  8
2
100
AcDbLine
 10
-258.714929
 20
140.760391
 30
0.0
 11
-257.699004
 21
139.744466
 31
0.0
  0
ARC
  5
6DC
330
25
100
AcDbEntity
  8
2
100
AcDbCircle
 10
-258.965746
 20
135.201761
 30
0.0
 40
1.724081
100
AcDbArc
 50
141.169931
 51
218.729458
  0
LINE
  5
6DD
330
25
100
AcDbEntity
  8
2
100
AcDbLine
 10
-263.669947
 20
137.384827
 30
0.0
 11
-262.11858
 21
135.83346
 31
0.0
  0
ARC
  5
6DE
330
25
100
AcDbEntity
  8
2
100
AcDbCircle
 10
-262.893358
 20
140.448433
 30
0.0
 40
10.402317
100
AcDbArc
 50
308.830069
 51
321.169931
  0
ARC
  5
6DF
330
25
100
AcDbEntity
  8
2
100
AcDbCircle
 10
-262.740938
 20
140.421446
 30
0.0
 40
8.638035
100
AcDbArc
 50
305.062783
 51
323.774302
  0
LINE
  5
6E0
330
25
100
AcDbEntity
  8
2
100
AcDbLine
 10
-252.359108
 20
134.282659
 30
0.0
 11
-255.323171
 21
131.318596
 31
0.0
  0
ARC
  5
6E1
330
25
100
AcDbEntity
  8
2
100
AcDbCircle
 10
-256.132934
 20
135.007069
 30
0.0
 40
1.724081
100
AcDbArc
 50
321.169931
 51
38.729458
  0
ARC
  5
6E2
330
25
100
AcDbEntity
  8
2
100
AcDbCircle
 10
-258.40009
 20
134.2536649999999
 30
0.0
 40
3.169315999999999
100
AcDbArc
 50
34.668048
 51
55.331952
  0
ARC
  5
6E3
330
25
100
AcDbEntity
  8
2
100
AcDbCircle
 10
-256.402695
 20
135.669143
 30
0.0
 40
0.7219260000000001
100
AcDbArc
 50
330.772957
 51
32.444044
  0
ARC
  5
6E4
330
25
100
AcDbEntity
  8
2
100
AcDbCircle
 10
-252.298152
 20
134.221704
 30
0.0
 40
0.086204
100
AcDbArc
 50
45.0
 51
135.0
  0
ARC
  5
6E5
330
25
100
AcDbEntity
  8
2
100
AcDbCircle
 10
-257.451994
 20
133.68801
 30
0.0
 40
1.724081
100
AcDbArc
 50
231.270542
 51
308.830069
  0
ARC
  5
6E6
330
25
100
AcDbEntity
  8
2
100
AcDbCircle
 10
-258.141776
 20
133.868455
 30
0.0
 40
0.6321630000000001
100
AcDbArc
 50
235.331952
 51
305.062783
  0
ARC
  5
6E7
330
25
100
AcDbEntity
  8
2
100
AcDbCircle
 10
-256.69859
 20
135.955165
 30
0.0
 40
3.169315999999999
100
AcDbArc
 50
214.668048
 51
235.331952
  0
ARC
  5
6E8
330
25
100
AcDbEntity
  8
2
100
AcDbCircle
 10
-255.262215
 20
131.257641
 30
0.0
 40
0.086204
100
AcDbArc
 50
135.0
 51
225.0
  0
ARC
  5
6E9
330
25
100
AcDbEntity
  8
2
100
AcDbCircle
 10
-263.777974
 20
128.875781
 30
0.0
 40
11.524047
100
AcDbArc
 50
38.729458
 51
51.27054199999999
  0
ARC
  5
6EA
330
25
100
AcDbEntity
  8
2
100
AcDbCircle
 10
-256.956905
 20
136.340376
 30
0.0
 40
0.6321630000000001
100
AcDbArc
 50
55.331952
 51
125.062783
  0
ARC
  5
6EB
330
25
100
AcDbEntity
  8
2
100
AcDbCircle
 10
-251.320706
 20
141.33305
 30
0.0
 40
11.524047
100
AcDbArc
 50
218.729458
 51
231.270542
  0
ARC
  5
6EC
330
25
100
AcDbEntity
  8
2
100
AcDbCircle
 10
-258.7853
 20
134.51198
 30
0.0
 40
0.6321630000000001
100
AcDbArc
 50
144.937217
 51
214.668048
  0
LINE
  5
6ED
330
25
100
AcDbEntity
  8
2
100
AcDbLine
 10
-263.669947
 20
137.384827
 30
0.0
 11
-262.051409
 21
141.006866
 31
0.0
  0
LINE
  5
6EE
330
25
100
AcDbEntity
  8
2
100
AcDbLine
 10
-261.014369
 20
143.059831
 30
0.0
 11
-259.998444
 21
142.043906
 31
0.0
  0
ARC
  5
6EF
330
25
100
AcDbEntity
  8
2
100
AcDbCircle
 10
-258.589118
 20
130.9374629999999
 30
0.0
 40
0.14
100
AcDbArc
 50
71.565051
 51
225.0
  0
ARC
  5
6F0
330
25
100
AcDbEntity
  8
2
100
AcDbCircle
 10
-268.573139
 20
144.299818
 30
0.0
 40
0.6321630000000001
100
AcDbArc
 50
235.331952
 51
305.062783
  0
ARC
  5
6F1
330
25
100
AcDbEntity
  8
2
100
AcDbCircle
 10
-266.744743
 20
146.1282139999999
 30
0.0
 40
0.6321630000000001
100
AcDbArc
 50
324.937217
 51
34.668048
  0
ARC
  5
6F2
330
25
100
AcDbEntity
  8
2
100
AcDbCircle
 10
-267.129953
 20
146.386529
 30
0.0
 40
3.169315999999999
100
AcDbArc
 50
214.668048
 51
235.331952
  0
ARC
  5
6F3
330
25
100
AcDbEntity
  8
2
100
AcDbCircle
 10
-269.216664
 20
144.943343
 30
0.0
 40
0.6321630000000001
100
AcDbArc
 50
144.937217
 51
214.668048
  0
ARC
  5
6F4
330
25
100
AcDbEntity
  8
2
100
AcDbCircle
 10
-267.415976
 20
146.682424
 30
0.0
 40
0.7219260000000001
100
AcDbArc
 50
57.55595600000001
 51
119.227043
  0
ARC
  5
6F5
330
25
100
AcDbEntity
  8
2
100
AcDbCircle
 10
-268.8314529999999
 20
144.685029
 30
0.0
 40
3.169315999999999
100
AcDbArc
 50
34.668048
 51
55.331952
  0
ARC
  5
6F6
330
25
100
AcDbEntity
  8
2
100
AcDbCircle
 10
-262.663673
 20
140.34418
 30
0.0
 40
8.638035
100
AcDbArc
 50
126.225698
 51
144.937217
  0
ARC
  5
6F7
330
25
100
AcDbEntity
  8
2
100
AcDbCircle
 10
-272.553703
 20
150.108778
 30
0.0
 40
7.674066
100
AcDbArc
 50
304.473609
 51
325.526391
  0
LINE
  5
6F8
330
25
100
AcDbEntity
  8
2
100
AcDbLine
 10
-254.088794
 20
126.23915
 30
0.0
 11
-258.688112
 21
130.838468
 31
0.0
  0
LINE
  5
6F9
330
25
100
AcDbEntity
  8
2
100
AcDbLine
 10
-262.040414
 20
137.764587
 30
0.0
 11
-260.025288
 21
142.07075
 31
0.0
  0
LINE
  5
6FA
330
25
100
AcDbEntity
  8
2
100
AcDbLine
 10
-262.040414
 20
137.764587
 30
0.0
 11
-258.741773
 21
140.787235
 31
0.0
  0
ARC
  5
6FB
330
25
100
AcDbEntity
  8
2
100
AcDbCircle
 10
-289.331405
 20
161.24296
 30
0.0
 40
0.5
100
AcDbArc
 50
90.0
 51
178.767738
  0
LINE
  5
6FC
330
25
100
AcDbEntity
  8
2
100
AcDbLine
 10
-289.331405
 20
161.74296
 30
0.0
 11
-279.165034
 21
161.74296
 31
0.0
  0
LINE
  5
6FD
330
25
100
AcDbEntity
  8
2
100
AcDbLine
 10
-289.331405
 20
158.74296
 30
0.0
 11
-279.165034
 21
158.74296
 31
0.0
  0
ARC
  5
6FE
330
25
100
AcDbEntity
  8
2
100
AcDbCircle
 10
-289.331405
 20
159.24296
 30
0.0
 40
0.5
100
AcDbArc
 50
181.232262
 51
270.0
  0
LINE
  5
6FF
330
25
100
AcDbEntity
  8
2
100
AcDbLine
 10
-288.548895
 20
151.675916
 30
0.0
 11
-278.700818
 21
153.412398
 31
0.0
  0
ARC
  5
700
330
25
100
AcDbEntity
  8
2
100
AcDbCircle
 10
-288.635719
 20
152.16832
 30
0.0
 40
0.5
100
AcDbArc
 50
100.0
 51
280.0
  0
LINE
  5
701
330
25
100
AcDbEntity
  8
2
100
AcDbLine
 10
-288.722543
 20
152.660724
 30
0.0
 11
-278.874466
 21
154.397205
 31
0.0
  0
LINE
  5
702
330
25
100
AcDbEntity
  8
2
100
AcDbLine
 10
-278.784619
 20
130.736358
 30
0.0
 11
-271.124175
 21
137.164234
 31
0.0
  0
ARC
  5
703
330
25
100
AcDbEntity
  8
2
100
AcDbCircle
 10
-278.463225
 20
130.353336
 30
0.0
 40
0.5
100
AcDbArc
 50
130.0
 51
310.0
  0
LINE
  5
704
330
25
100
AcDbEntity
  8
2
100
AcDbLine
 10
-278.141832
 20
129.970314
 30
0.0
 11
-270.481387
 21
136.39819
 31
0.0
  0
LINE
  5
705
330
25
100
AcDbEntity
  8
2
100
AcDbLine
 10
-283.36234
 20
137.425973
 30
0.0
 11
-274.702086
 21
142.425973
 31
0.0
  0
ARC
  5
706
330
25
100
AcDbEntity
  8
2
100
AcDbCircle
 10
-283.11234
 20
136.99296
 30
0.0
 40
0.5
100
AcDbArc
 50
120.0
 51
300.0
  0
LINE
  5
707
330
25
100
AcDbEntity
  8
2
100
AcDbLine
 10
-282.86234
 20
136.559947
 30
0.0
 11
-274.202086
 21
141.559947
 31
0.0
  0
LINE
  5
708
330
25
100
AcDbEntity
  8
2
100
AcDbLine
 10
-286.708876
 20
144.80887
 30
0.0
 11
-277.311949
 21
148.229071
 31
0.0
  0
ARC
  5
709
330
25
100
AcDbEntity
  8
2
100
AcDbCircle
 10
-286.537866
 20
144.339023
 30
0.0
 40
0.5
100
AcDbArc
 50
110.0
 51
290.0
  0
LINE
  5
70A
330
25
100
AcDbEntity
  8
2
100
AcDbLine
 10
-286.366856
 20
143.869177
 30
0.0
 11
-276.969929
 21
147.289378
 31
0.0
  0
ARC
  5
70B
330
25
100
AcDbEntity
  8
2
100
AcDbCircle
 10
-242.842159
 20
160.24296
 30
0.0
 40
47.0
100
AcDbArc
 50
178.767738
 51
181.232262
  0
LINE
  5
70C
330
25
100
AcDbEntity
  8
2
100
AcDbLine
 10
-259.215942
 20
116.718263
 30
0.0
 11
-255.79574
 21
126.115189
 31
0.0
  0
LINE
  5
70D
330
25
100
AcDbEntity
  8
2
100
AcDbLine
 10
-258.276249
 20
116.376243
 30
0.0
 11
-254.856048
 21
125.773169
 31
0.0
  0
LINE
  5
70E
330
25
100
AcDbEntity
  8
2
100
AcDbLine
 10
-266.525171
 20
120.222779
 30
0.0
 11
-261.525171
 21
128.883033
 31
0.0
  0
ARC
  5
70F
330
25
100
AcDbEntity
  8
2
100
AcDbCircle
 10
-266.092159
 20
119.972779
 30
0.0
 40
0.5
100
AcDbArc
 50
150.0
 51
330.0
  0
LINE
  5
710
330
25
100
AcDbEntity
  8
2
100
AcDbLine
 10
-265.659146
 20
119.722779
 30
0.0
 11
-260.659146
 21
128.383033
 31
0.0
  0
LINE
  5
711
330
25
100
AcDbEntity
  8
2
100
AcDbLine
 10
-273.114805
 20
124.943287
 30
0.0
 11
-266.686929
 21
132.603732
 31
0.0
  0
ARC
  5
712
330
25
100
AcDbEntity
  8
2
100
AcDbCircle
 10
-272.731783
 20
124.621893
 30
0.0
 40
0.5
100
AcDbArc
 50
140.0
 51
320.0
  0
LINE
  5
713
330
25
100
AcDbEntity
  8
2
100
AcDbLine
 10
-272.34876
 20
124.3005
 30
0.0
 11
-265.920884
 21
131.960944
 31
0.0
  0
LINE
  5
714
330
25
100
AcDbEntity
  8
2
100
AcDbLine
 10
-250.424395
 20
114.362575
 30
0.0
 11
-248.687913
 21
124.210653
 31
0.0
  0
LINE
  5
715
330
25
100
AcDbEntity
  8
2
100
AcDbLine
 10
-251.409203
 20
114.536224
 30
0.0
 11
-249.672721
 21
124.384301
 31
0.0
  0
LINE
  5
716
330
25
100
AcDbEntity
  8
2
100
AcDbLine
 10
-244.342159
 20
113.753714
 30
0.0
 11
-244.342159
 21
132.761148
 31
0.0
  0
LINE
  5
717
330
25
100
AcDbEntity
  8
2
100
AcDbLine
 10
-241.342159
 20
113.753714
 30
0.0
 11
-241.342159
 21
132.761148
 31
0.0
  0
LINE
  5
718
330
25
100
AcDbEntity
  8
2
100
AcDbLine
 10
-275.663506
 20
149.378386
 30
0.0
 11
-274.952359
 21
150.089533
 31
0.0
  0
LINE
  5
719
330
25
100
AcDbEntity
  8
2
100
AcDbLine
 10
-274.241212
 20
150.800681
 30
0.0
 11
-273.530065
 21
151.511828
 31
0.0
  0
LINE
  5
71A
330
25
100
AcDbEntity
  8
2
100
AcDbLine
 10
-272.209362
 20
152.83253
 30
0.0
 11
-271.498215
 21
153.543677
 31
0.0
  0
ARC
  5
71B
330
25
100
AcDbEntity
  8
2
100
AcDbCircle
 10
-249.180317
 20
124.297477
 30
0.0
 40
0.5
100
AcDbArc
 50
350.0
 51
170.0
  0
ARC
  5
71C
330
25
100
AcDbEntity
  8
2
100
AcDbCircle
 10
-255.325894
 20
125.944179
 30
0.0
 40
0.5
100
AcDbArc
 50
340.0
 51
160.0
  0
ARC
  5
71D
330
25
100
AcDbEntity
  8
2
100
AcDbCircle
 10
-261.092159
 20
128.633033
 30
0.0
 40
0.5
100
AcDbArc
 50
330.0
 51
150.0
  0
ARC
  5
71E
330
25
100
AcDbEntity
  8
2
100
AcDbCircle
 10
-266.303907
 20
132.2823379999999
 30
0.0
 40
0.5
100
AcDbArc
 50
320.0
 51
140.0
  0
ARC
  5
71F
330
25
100
AcDbEntity
  8
2
100
AcDbCircle
 10
-270.802781
 20
136.781212
 30
0.0
 40
0.5
100
AcDbArc
 50
310.0
 51
130.0
  0
ARC
  5
720
330
25
100
AcDbEntity
  8
2
100
AcDbCircle
 10
-274.452086
 20
141.99296
 30
0.0
 40
0.5
100
AcDbArc
 50
300.0
 51
120.0
  0
ARC
  5
721
330
25
100
AcDbEntity
  8
2
100
AcDbCircle
 10
-277.140939
 20
147.759225
 30
0.0
 40
0.5
100
AcDbArc
 50
290.0
 51
110.0
  0
ARC
  5
722
330
25
100
AcDbEntity
  8
2
100
AcDbCircle
 10
-278.787642
 20
153.904802
 30
0.0
 40
0.5
100
AcDbArc
 50
280.0
 51
100.0
  0
ARC
  5
723
330
25
100
AcDbEntity
  8
2
100
AcDbCircle
 10
-242.842159
 20
160.24296
 30
0.0
 40
47.0
100
AcDbArc
 50
189.999966
 51
190.000034
  0
ARC
  5
724
330
25
100
AcDbEntity
  8
2
100
AcDbCircle
 10
-243.842159
 20
113.753714
 30
0.0
 40
0.5
100
AcDbArc
 50
180.0
 51
268.767738
  0
ARC
  5
725
330
25
100
AcDbEntity
  8
2
100
AcDbCircle
 10
-241.842159
 20
113.753714
 30
0.0
 40
0.5
100
AcDbArc
 50
271.232262
 51
360.0
  0
ARC
  5
726
330
25
100
AcDbEntity
  8
2
100
AcDbCircle
 10
-242.842159
 20
160.24296
 30
0.0
 40
47.0
100
AcDbArc
 50
199.999929
 51
200.000071
  0
ARC
  5
727
330
25
100
AcDbEntity
  8
2
100
AcDbCircle
 10
-242.842159
 20
160.24296
 30
0.0
 40
47.0
100
AcDbArc
 50
268.767738
 51
271.232262
  0
ARC
  5
728
330
25
100
AcDbEntity
  8
2
100
AcDbCircle
 10
-242.842159
 20
160.24296
 30
0.0
 40
27.0
100
AcDbArc
 50
267.916058
 51
272.083942
  0
ARC
  5
729
330
25
100
AcDbEntity
  8
2
100
AcDbCircle
 10
-241.842159
 20
132.761148
 30
0.0
 40
0.5
100
AcDbArc
 50
0.0
 51
92.083942
  0
ARC
  5
72A
330
25
100
AcDbEntity
  8
2
100
AcDbCircle
 10
-243.842159
 20
132.761148
 30
0.0
 40
0.5
100
AcDbArc
 50
87.91605799999999
 51
180.0
  0
ARC
  5
72B
330
25
100
AcDbEntity
  8
2
100
AcDbCircle
 10
-258.746095
 20
116.547253
 30
0.0
 40
0.5
100
AcDbArc
 50
160.0
 51
340.0
  0
ARC
  5
72C
330
25
100
AcDbEntity
  8
2
100
AcDbCircle
 10
-250.916799
 20
114.449399
 30
0.0
 40
0.5
100
AcDbArc
 50
170.0
 51
350.0
  0
LINE
  5
72D
330
25
100
AcDbEntity
  8
2
100
AcDbLine
 10
-220.766748
 20
145.818897
 30
0.0
 11
-219.218332
 21
145.293332
 31
0.0
  0
LINE
  5
72E
330
25
100
AcDbEntity
  8
2
100
AcDbLine
 10
-219.218332
 20
145.293332
 30
0.0
 11
-219.708987
 21
145.846742
 31
0.0
  0
ARC
  5
72F
330
25
100
AcDbEntity
  8
2
  6
CENTER
 62
     2
100
AcDbCircle
 10
-242.842159
 20
160.24296
 30
0.0
 40
35.0
100
AcDbArc
 50
298.585378
 51
330.968199
  0
LINE
  5
730
330
25
100
AcDbEntity
  8
2
  6
CENTER
 62
     2
100
AcDbLine
 10
-210.81747
 20
128.218271
 30
0.0
 11
-225.493318
 21
142.89412
 31
0.0
  0
ARC
  5
731
330
25
100
AcDbEntity
  8
2
  6
CENTER
 62
     2
100
AcDbCircle
 10
-242.842159
 20
160.24296
 30
0.0
 40
35.0
100
AcDbArc
 50
118.005522
 51
150.923658
  0
LINE
  5
732
330
25
100
AcDbEntity
  8
2
  6
CENTER
 62
     2
100
AcDbLine
 10
-259.264542
 20
176.665343
 30
0.0
 11
-275.984142
 21
193.384944
 31
0.0
  0
TEXT
  5
733
330
25
100
AcDbEntity
  8
2
100
AcDbText
 10
-224.293181
 20
128.898579
 30
0.0
 40
10.0
  1
Ｏ
 50
202.4999976762607
 41
0.9230768750869083
 72
     5
 11
-231.684217
 21
125.837112
 31
0.0
100
AcDbText
  0
TEXT
  5
734
330
25
100
AcDbEntity
  8
2
100
AcDbText
 10
-277.802309
 20
169.988462
 30
0.0
 40
10.0
  1
Ｓ
 50
67.49999570693962
 41
0.999999995846251
 72
     5
 11
-274.740841
 21
177.379498
 31
0.0
100
AcDbText
  0
TEXT
  5
735
330
25
100
AcDbEntity
  8
2
100
AcDbText
 10
-263.892453
 20
173.792744
 30
0.0
 40
3.0
  1
Ｊ
 50
54.99999047351323
 41
1.200000196904253
 72
     5
 11
-262.515869
 21
175.758709
 31
0.0
100
AcDbText
  0
TEXT
  5
736
330
25
100
AcDbEntity
  8
2
100
AcDbText
 10
-262.631409
 20
175.575837
 30
0.0
 40
3.0
  1
Ａ
 50
50.00000997822089
 41
0.9230769571433448
 72
     5
 11
-261.088719
 21
177.414344
 31
0.0
100
AcDbText
  0
TEXT
  5
737
330
25
100
AcDbEntity
  8
2
100
AcDbText
 10
-259.668239
 20
178.779264
 30
0.0
 40
3.0
  1
Ａ
 50
39.99999002177876
 41
0.9230769571433686
 72
     5
 11
-257.829732
 21
180.321954
 31
0.0
100
AcDbText
  0
TEXT
  5
738
330
25
100
AcDbEntity
  8
2
100
AcDbText
 10
-257.988666
 20
180.175217
 30
0.0
 40
3.0
  1
Ｎ
 50
34.99998997067269
 41
0.9230768539354228
 72
     5
 11
-256.022701
 21
181.5518
 31
0.0
100
AcDbText
  0
TEXT
  5
739
330
25
100
AcDbEntity
  8
2
100
AcDbText
 10
-261.219756
 20
177.242238
 30
0.0
 40
3.0
  1
Ｐ
 50
44.99999999999952
 41
0.9999998380444418
 72
     5
 11
-259.5227
 21
178.939294
 31
0.0
100
AcDbText
  0
TEXT
  5
73A
330
25
100
AcDbEntity
  8
2
100
AcDbText
 10
-230.318612
 20
138.566422
 30
0.0
 40
3.0
  1
Ｄ
 50
207.7858663593593
 41
0.9999998162600455
 72
     5
 11
-232.441882
 21
137.447618
 31
0.0
100
AcDbText
  0
TEXT
  5
73B
330
25
100
AcDbEntity
  8
2
100
AcDbText
 10
-228.477033
 20
139.740406
 30
0.0
 40
3.0
  1
Ｅ
 50
212.7858592989682
 41
1.090909278045914
 72
     5
 11
-230.494714
 21
138.440804
 31
0.0
100
AcDbText
  0
TEXT
  5
73C
330
25
100
AcDbEntity
  8
2
100
AcDbText
 10
-226.744782
 20
141.070428
 30
0.0
 40
3.0
  1
Ｔ
 50
217.7858621875415
 41
0.9230769534700316
 72
     5
 11
-228.641517
 21
139.599919
 31
0.0
100
AcDbText
  0
TEXT
  5
73D
330
25
100
AcDbEntity
  8
2
100
AcDbText
 10
-225.135041
 20
142.546364
 30
0.0
 40
3.0
  1
Ｎ
 50
222.7858521323252
 41
0.9230767791259532
 72
     5
 11
-226.896395
 21
140.91614
 31
0.0
100
AcDbText
  0
TEXT
  5
73E
330
25
100
AcDbEntity
  8
2
100
AcDbText
 10
-223.660062
 20
144.156982
 30
0.0
 40
3.0
  1
Ｅ
 50
227.7858605481269
 41
1.090909007643269
 72
     5
 11
-225.27263
 21
142.379449
 31
0.0
100
AcDbText
  0
TEXT
  5
73F
330
25
100
AcDbEntity
  8
2
100
AcDbText
 10
-222.33107
 20
145.890024
 30
0.0
 40
3.0
  1
Ｔ
 50
232.7858577647393
 41
0.92307712233138
 72
     5
 11
-223.7825799999999
 21
143.97871
 31
0.0
100
AcDbText
  0
LINE
  5
740
330
25
100
AcDbEntity
  8
2
100
AcDbLine
 10
-242.842159
 20
134.24296
 30
0.0
 11
-245.301159
 21
134.24296
 31
0.0
  0
LINE
  5
741
330
25
100
AcDbEntity
  8
2
100
AcDbLine
 10
-245.301159
 20
134.24296
 30
0.0
 11
-245.842159
 21
134.78396
 31
0.0
  0
LINE
  5
742
330
25
100
AcDbEntity
  8
2
100
AcDbLine
 10
-245.842159
 20
134.78396
 30
0.0
 11
-245.842159
 21
138.261889
 31
0.0
  0
LINE
  5
743
330
25
100
AcDbEntity
  8
2
100
AcDbLine
 10
-245.842159
 20
134.78396
 30
0.0
 11
-242.842159
 21
134.78396
 31
0.0
  0
LINE
  5
744
330
25
100
AcDbEntity
  8
2
100
AcDbLine
 10
-242.842159
 20
134.24296
 30
0.0
 11
-240.383159
 21
134.24296
 31
0.0
  0
LINE
  5
745
330
25
100
AcDbEntity
  8
2
100
AcDbLine
 10
-240.383159
 20
134.24296
 30
0.0
 11
-239.842159
 21
134.78396
 31
0.0
  0
LINE
  5
746
330
25
100
AcDbEntity
  8
2
100
AcDbLine
 10
-239.842159
 20
134.78396
 30
0.0
 11
-239.842159
 21
138.261889
 31
0.0
  0
LINE
  5
747
330
25
100
AcDbEntity
  8
2
100
AcDbLine
 10
-239.842159
 20
134.78396
 30
0.0
 11
-242.842159
 21
134.78396
 31
0.0
  0
POINT
  5
748
330
25
100
AcDbEntity
  8
2
100
AcDbPoint
 10
-242.842159
 20
143.24296
 30
0.0
  0
LINE
  5
749
330
25
100
AcDbEntity
  8
2
100
AcDbLine
 10
-242.842159
 20
143.24296
 30
0.0
 11
-237.092159
 21
143.24296
 31
0.0
  0
LINE
  5
74A
330
25
100
AcDbEntity
  8
2
100
AcDbLine
 10
-237.092159
 20
143.24296
 30
0.0
 11
-237.092159
 21
138.733708
 31
0.0
  0
LINE
  5
74B
330
25
100
AcDbEntity
  8
2
100
AcDbLine
 10
-237.092159
 20
138.733708
 30
0.0
 11
-237.942159
 21
138.24296
 31
0.0
  0
LINE
  5
74C
330
25
100
AcDbEntity
  8
2
100
AcDbLine
 10
-237.942159
 20
138.24296
 30
0.0
 11
-242.842159
 21
138.24296
 31
0.0
  0
LINE
  5
74D
330
25
100
AcDbEntity
  8
2
100
AcDbLine
 10
-239.967159
 20
143.24296
 30
0.0
 11
-239.967159
 21
138.733708
 31
0.0
  0
ARC
  5
74E
330
25
100
AcDbEntity
  8
2
100
AcDbCircle
 10
-238.529659
 20
140.581663
 30
0.0
 40
2.341226999999999
100
AcDbArc
 50
232.121121
 51
307.878879
  0
ARC
  5
74F
330
25
100
AcDbEntity
  8
2
100
AcDbCircle
 10
-242.842159
 20
146.865436
 30
0.0
 40
8.625
100
AcDbArc
 50
270.0
 51
289.471221
  0
LINE
  5
750
330
25
100
AcDbEntity
  8
2
100
AcDbLine
 10
-242.842159
 20
143.24296
 30
0.0
 11
-248.592159
 21
143.24296
 31
0.0
  0
LINE
  5
751
330
25
100
AcDbEntity
  8
2
100
AcDbLine
 10
-248.592159
 20
143.24296
 30
0.0
 11
-248.592159
 21
138.733708
 31
0.0
  0
LINE
  5
752
330
25
100
AcDbEntity
  8
2
100
AcDbLine
 10
-248.592159
 20
138.733708
 30
0.0
 11
-247.742159
 21
138.24296
 31
0.0
  0
LINE
  5
753
330
25
100
AcDbEntity
  8
2
100
AcDbLine
 10
-247.742159
 20
138.24296
 30
0.0
 11
-242.842159
 21
138.24296
 31
0.0
  0
LINE
  5
754
330
25
100
AcDbEntity
  8
2
100
AcDbLine
 10
-245.717159
 20
143.24296
 30
0.0
 11
-245.717159
 21
138.733708
 31
0.0
  0
ARC
  5
755
330
25
100
AcDbEntity
  8
2
100
AcDbCircle
 10
-247.154659
 20
140.581663
 30
0.0
 40
2.341226999999999
100
AcDbArc
 50
232.121121
 51
307.878879
  0
ARC
  5
756
330
25
100
AcDbEntity
  8
2
100
AcDbCircle
 10
-242.842159
 20
146.865436
 30
0.0
 40
8.625
100
AcDbArc
 50
250.528779
 51
270.0
  0
LINE
  5
757
330
25
100
AcDbEntity
  8
2
 62
     2
100
AcDbLine
 10
-245.301159
 20
134.24296
 30
0.0
 11
-245.301159
 21
138.24296
 31
0.0
  0
LINE
  5
758
330
25
100
AcDbEntity
  8
2
 62
     2
100
AcDbLine
 10
-240.383159
 20
134.24296
 30
0.0
 11
-240.383159
 21
138.24296
 31
0.0
  0
CIRCLE
  5
759
330
25
100
AcDbEntity
  8
2
100
AcDbCircle
 10
-218.093421
 20
135.494223
 30
0.0
 40
6.5
  0
LINE
  5
75A
330
25
100
AcDbEntity
  8
2
100
AcDbLine
 10
-214.340645
 20
141.994223
 30
0.0
 11
-221.846198
 21
141.994223
 31
0.0
  0
LINE
  5
75B
330
25
100
AcDbEntity
  8
2
100
AcDbLine
 10
-221.846198
 20
141.994223
 30
0.0
 11
-225.598975
 21
135.494223
 31
0.0
  0
LINE
  5
75C
330
25
100
AcDbEntity
  8
2
100
AcDbLine
 10
-225.598975
 20
135.494223
 30
0.0
 11
-221.846198
 21
128.994223
 31
0.0
  0
LINE
  5
75D
330
25
100
AcDbEntity
  8
2
100
AcDbLine
 10
-221.846198
 20
128.994223
 30
0.0
 11
-214.340645
 21
128.994223
 31
0.0
  0
LINE
  5
75E
330
25
100
AcDbEntity
  8
2
100
AcDbLine
 10
-214.340645
 20
128.994223
 30
0.0
 11
-210.587868
 21
135.494223
 31
0.0
  0
LINE
  5
75F
330
25
100
AcDbEntity
  8
2
100
AcDbLine
 10
-210.587868
 20
135.494223
 30
0.0
 11
-214.340645
 21
141.994223
 31
0.0
  0
LINE
  5
760
330
25
100
AcDbEntity
  8
2
100
AcDbLine
 10
-275.09645
 20
184.991697
 30
0.0
 11
-271.343673
 21
178.491697
 31
0.0
  0
LINE
  5
761
330
25
100
AcDbEntity
  8
2
100
AcDbLine
 10
-271.343673
 20
191.491697
 30
0.0
 11
-275.09645
 21
184.991697
 31
0.0
  0
LINE
  5
762
330
25
100
AcDbEntity
  8
2
100
AcDbLine
 10
-263.838119
 20
191.491697
 30
0.0
 11
-271.343673
 21
191.491697
 31
0.0
  0
LINE
  5
763
330
25
100
AcDbEntity
  8
2
100
AcDbLine
 10
-260.085343
 20
184.991697
 30
0.0
 11
-263.838119
 21
191.491697
 31
0.0
  0
LINE
  5
764
330
25
100
AcDbEntity
  8
2
100
AcDbLine
 10
-263.838119
 20
178.491697
 30
0.0
 11
-260.085343
 21
184.991697
 31
0.0
  0
LINE
  5
765
330
25
100
AcDbEntity
  8
2
100
AcDbLine
 10
-271.343673
 20
178.491697
 30
0.0
 11
-263.838119
 21
178.491697
 31
0.0
  0
CIRCLE
  5
766
330
25
100
AcDbEntity
  8
2
100
AcDbCircle
 10
-267.590896
 20
184.991697
 30
0.0
 40
6.5
  0
LINE
  5
767
330
25
100
AcDbEntity
  8
2
100
AcDbLine
 10
-235.842159
 20
-19.541323
 30
0.0
 11
-235.842159
 21
-27.541323
 31
0.0
  0
LINE
  5
768
330
25
100
AcDbEntity
  8
2
100
AcDbLine
 10
-248.842159
 20
-18.541323
 30
0.0
 11
-249.842159
 21
-19.541323
 31
0.0
  0
LINE
  5
769
330
25
100
AcDbEntity
  8
2
100
AcDbLine
 10
-236.842159
 20
-18.541323
 30
0.0
 11
-235.842159
 21
-19.541323
 31
0.0
  0
LINE
  5
76A
330
25
100
AcDbEntity
  8
2
100
AcDbLine
 10
-249.842159
 20
-19.541323
 30
0.0
 11
-249.842159
 21
-27.541323
 31
0.0
  0
ARC
  5
76B
330
25
100
AcDbEntity
  8
2
100
AcDbCircle
 10
-242.842159
 20
-12.541323
 30
0.0
 40
7.0
100
AcDbArc
 50
238.997281
 51
301.002719
  0
ARC
  5
76C
330
25
100
AcDbEntity
  8
2
100
AcDbCircle
 10
-262.842159
 20
-2.032939999999999
 30
0.0
 40
5.0
100
AcDbArc
 50
290.0
 51
360.0
  0
LINE
  5
76D
330
25
100
AcDbEntity
  8
2
100
AcDbLine
 10
-277.868219
 20
-12.822868
 30
0.0
 11
-261.1320580000001
 21
-6.731403
 31
0.0
  0
LINE
  5
76E
330
25
100
AcDbEntity
  8
2
100
AcDbLine
 10
-231.842159
 20
-17.541323
 30
0.0
 11
-279.842159
 21
-17.541323
 31
0.0
  0
LINE
  5
76F
330
25
100
AcDbEntity
  8
2
100
AcDbLine
 10
-253.842159
 20
-18.541323
 30
0.0
 11
-253.842159
 21
-17.541323
 31
0.0
  0
LINE
  5
770
330
25
100
AcDbEntity
  8
2
100
AcDbLine
 10
-279.842159
 20
-15.641946
 30
0.0
 11
-279.842159
 21
-17.541323
 31
0.0
  0
LINE
  5
771
330
25
100
AcDbEntity
  8
2
100
AcDbLine
 10
-227.842159
 20
2.458677
 30
0.0
 11
-228.842159
 21
3.458676999999999
 31
0.0
  0
LINE
  5
772
330
25
100
AcDbEntity
  8
2
100
AcDbLine
 10
-256.842159
 20
3.458676999999999
 30
0.0
 11
-257.842159
 21
2.458677
 31
0.0
  0
LINE
  5
773
330
25
100
AcDbEntity
  8
2
100
AcDbLine
 10
-257.842159
 20
-2.032939999999999
 30
0.0
 11
-257.842159
 21
2.458677
 31
0.0
  0
LINE
  5
774
330
25
100
AcDbEntity
  8
2
100
AcDbLine
 10
-227.842159
 20
2.351716999999999
 30
0.0
 11
-227.842159
 21
2.458677
 31
0.0
  0
LINE
  5
775
330
25
100
AcDbEntity
  8
2
100
AcDbLine
 10
-231.842159
 20
-18.541323
 30
0.0
 11
-253.842159
 21
-18.541323
 31
0.0
  0
LINE
  5
776
330
25
100
AcDbEntity
  8
2
100
AcDbLine
 10
-231.842159
 20
-18.541323
 30
0.0
 11
-231.842159
 21
-17.541323
 31
0.0
  0
LINE
  5
777
330
25
100
AcDbEntity
  8
2
100
AcDbLine
 10
-249.61139
 20
2.458677
 30
0.0
 11
-249.61139
 21
-17.541323
 31
0.0
  0
LINE
  5
778
330
25
100
AcDbEntity
  8
2
100
AcDbLine
 10
-236.072928
 20
2.458677
 30
0.0
 11
-236.072928
 21
-17.541323
 31
0.0
  0
ARC
  5
779
330
25
100
AcDbEntity
  8
2
100
AcDbCircle
 10
-276.842159
 20
-15.641946
 30
0.0
 40
3.0
100
AcDbArc
 50
110.0
 51
180.0
  0
ARC
  5
77A
330
25
100
AcDbEntity
  8
2
100
AcDbCircle
 10
-248.61139
 20
2.458677
 30
0.0
 40
1.0
100
AcDbArc
 50
90.0
 51
180.0
  0
ARC
  5
77B
330
25
100
AcDbEntity
  8
2
100
AcDbCircle
 10
-237.072928
 20
2.458677
 30
0.0
 40
1.0
100
AcDbArc
 50
0.0
 51
90.0
  0
LINE
  5
77C
330
25
100
AcDbEntity
  8
2
100
AcDbLine
 10
-228.842159
 20
3.458676999999999
 30
0.0
 11
-256.842159
 21
3.458676999999999
 31
0.0
  0
ARC
  5
77D
330
25
100
AcDbEntity
  8
2
100
AcDbCircle
 10
-266.180522
 20
13.140879
 30
0.0
 40
22.811628
100
AcDbArc
 50
283.335578
 51
313.128065
  0
LINE
  5
77E
330
25
100
AcDbEntity
  8
2
100
AcDbLine
 10
-227.245397
 20
-1.226129
 30
0.0
 11
-49.63188399999999
 21
36.526789
 31
0.0
  0
CIRCLE
  5
77F
330
25
100
AcDbEntity
  8
2
100
AcDbCircle
 10
-152.842159
 20
1.458676999999999
 30
0.0
 40
2.0
  0
ARC
  5
780
330
25
100
AcDbEntity
  8
2
100
AcDbCircle
 10
-152.842159
 20
1.458676999999999
 30
0.0
 40
5.0
100
AcDbArc
 50
0.0
 51
180.0
  0
LINE
  5
781
330
25
100
AcDbEntity
  8
2
100
AcDbLine
 10
-147.842159
 20
1.458676999999999
 30
0.0
 11
-147.842159
 21
-7.541322999999999
 31
0.0
  0
LINE
  5
782
330
25
100
AcDbEntity
  8
2
100
AcDbLine
 10
-157.842159
 20
1.458676999999999
 30
0.0
 11
-157.842159
 21
-7.541322999999999
 31
0.0
  0
ARC
  5
783
330
25
100
AcDbEntity
  8
2
100
AcDbCircle
 10
-48.592325
 20
31.636051
 30
0.0
 40
5.0
100
AcDbArc
 50
12.0
 51
102.0
  0
LINE
  5
784
330
25
100
AcDbEntity
  8
2
100
AcDbLine
 10
-43.002552
 20
29.386904
 30
0.0
 11
-43.701587
 21
32.675609
 31
0.0
  0
ARC
  5
785
330
25
100
AcDbEntity
  8
2
100
AcDbCircle
 10
-43.980699
 20
29.178993
 30
0.0
 40
1.0
100
AcDbArc
 50
285.0
 51
12.0
  0
LINE
  5
786
330
25
100
AcDbEntity
  8
2
100
AcDbLine
 10
-43.72188
 20
28.213067
 30
0.0
 11
-121.294557
 21
7.427531
 31
0.0
  0
LINE
  5
787
330
25
100
AcDbEntity
  8
2
100
AcDbLine
 10
-231.842159
 20
-17.541323
 30
0.0
 11
-190.528562
 21
-8.759847
 31
0.0
  0
ARC
  5
788
330
25
100
AcDbEntity
  8
2
100
AcDbCircle
 10
-224.842159
 20
2.351716999999999
 30
0.0
 40
3.0
100
AcDbArc
 50
180.0
 51
282.0
  0
LINE
  5
789
330
25
100
AcDbEntity
  8
2
100
AcDbLine
 10
-141.913227
 20
-5.612391
 30
0.0
 11
-139.226067
 21
-2.925231
 31
0.0
  0
ARC
  5
78A
330
25
100
AcDbEntity
  8
2
100
AcDbCircle
 10
-110.941796
 20
-31.209502
 30
0.0
 40
40.0
100
AcDbArc
 50
105.0
 51
135.0
  0
ARC
  5
78B
330
25
100
AcDbEntity
  8
2
100
AcDbCircle
 10
-156.842159
 20
-7.541322999999999
 30
0.0
 40
1.0
100
AcDbArc
 50
180.0
 51
270.0
  0
ARC
  5
78C
330
25
100
AcDbEntity
  8
2
100
AcDbCircle
 10
-148.842159
 20
-7.541322999999999
 30
0.0
 40
1.0
100
AcDbArc
 50
270.0
 51
360.0
  0
LINE
  5
78D
330
25
100
AcDbEntity
  8
2
100
AcDbLine
 10
-188.449445
 20
-8.541323
 30
0.0
 11
-148.984294
 21
-8.541323
 31
0.0
  0
ARC
  5
78E
330
25
100
AcDbEntity
  8
2
100
AcDbCircle
 10
-148.984294
 20
1.458676999999999
 30
0.0
 40
10.0
100
AcDbArc
 50
270.0
 51
315.0
  0
ARC
  5
78F
330
25
100
AcDbEntity
  8
2
100
AcDbCircle
 10
-188.449445
 20
-18.541323
 30
0.0
 40
10.0
100
AcDbArc
 50
90.0
 51
102.0
  0
LINE
  5
790
330
25
100
AcDbEntity
  8
2
100
AcDbLine
 10
-106.284531
 20
6.765830999999999
 30
0.0
 11
-100.449276
 21
5.994012
 31
0.0
  0
LINE
  5
791
330
25
100
AcDbEntity
  8
2
100
AcDbLine
 10
-106.404807
 20
11.417227
 30
0.0
 11
-100.903077
 21
10.966311
 31
0.0
  0
LINE
  5
792
330
25
100
AcDbEntity
  8
2
100
AcDbLine
 10
-97.00841500000001
 20
12.546301
 30
0.0
 11
-106.529329
 21
8.683847
 31
0.0
  0
LINE
  5
793
330
25
100
AcDbEntity
  8
2
100
AcDbLine
 10
-96.25656600000001
 20
10.693001
 30
0.0
 11
-105.77748
 21
6.830546
 31
0.0
  0
LINE
  5
794
330
25
100
AcDbEntity
  8
2
100
AcDbLine
 10
-96.32740900000001
 20
7.364700999999999
 30
0.0
 11
-106.282764
 21
4.05414
 31
0.0
  0
LINE
  5
795
330
25
100
AcDbEntity
  8
2
100
AcDbLine
 10
-95.696308
 20
5.466883999999999
 30
0.0
 11
-105.651662
 21
2.156322999999999
 31
0.0
  0
LINE
  5
796
330
25
100
AcDbEntity
  8
2
100
AcDbLine
 10
-96.25689600000001
 20
1.72038
 30
0.0
 11
-106.476714
 21
-2.225782
 31
0.0
  0
LINE
  5
797
330
25
100
AcDbEntity
  8
2
100
AcDbLine
 10
-95.53647899999999
 20
-0.145364
 30
0.0
 11
-105.964076
 21
-4.171755
 31
0.0
  0
LINE
  5
798
330
25
100
AcDbEntity
  8
2
100
AcDbLine
 10
-106.189146
 20
2.130168999999999
 30
0.0
 11
-104.034584
 21
1.639770999999999
 31
0.0
  0
ARC
  5
799
330
25
100
AcDbEntity
  8
2
100
AcDbCircle
 10
-105.967213
 20
3.105231
 30
0.0
 40
1.0
100
AcDbArc
 50
108.394069
 51
288.394069
  0
ARC
  5
79A
330
25
100
AcDbEntity
  8
2
100
AcDbCircle
 10
-106.153404
 20
7.757196999999999
 30
0.0
 40
1.0
100
AcDbArc
 50
112.081463
 51
292.081463
  0
ARC
  5
79B
330
25
100
AcDbEntity
  8
2
100
AcDbCircle
 10
-96.01185799999999
 20
6.415791999999999
 30
0.0
 40
1.0
100
AcDbArc
 50
288.394069
 51
108.394069
  0
CIRCLE
  5
79C
330
25
100
AcDbEntity
  8
2
100
AcDbCircle
 10
-96.129642
 20
-3.494280999999999
 30
0.0
 40
1.0
  0
LINE
  5
79D
330
25
100
AcDbEntity
  8
2
100
AcDbLine
 10
-97.04591800000001
 20
-2.463487999999999
 30
0.0
 11
-96.129642
 21
-2.494280999999999
 31
0.0
  0
LINE
  5
79E
330
25
100
AcDbEntity
  8
2
100
AcDbLine
 10
-102.27071
 20
3.280626999999999
 30
0.0
 11
-95.672402
 21
1.762032
 31
0.0
  0
LINE
  5
79F
330
25
100
AcDbEntity
  8
2
100
AcDbLine
 10
-99.316612
 20
0.565915
 30
0.0
 11
-99.27265400000001
 21
0.55591
 31
0.0
  0
ARC
  5
7A0
330
25
100
AcDbEntity
  8
2
100
AcDbCircle
 10
-95.896688
 20
0.787508
 30
0.0
 40
1.0
100
AcDbArc
 50
291.112991
 51
111.112991
  0
LINE
  5
7A1
330
25
100
AcDbEntity
  8
2
100
AcDbLine
 10
-100.669857
 20
12.953903
 30
0.0
 11
-96.55080600000001
 21
12.616309
 31
0.0
  0
LINE
  5
7A2
330
25
100
AcDbEntity
  8
2
100
AcDbLine
 10
-102.272248
 20
8.252553
 30
0.0
 11
-95.880732
 21
7.407157999999999
 31
0.0
  0
ARC
  5
7A3
330
25
100
AcDbEntity
  8
2
100
AcDbCircle
 10
-96.63249100000001
 20
11.619651
 30
0.0
 40
1.0
100
AcDbArc
 50
292.081463
 51
112.081463
  0
ARC
  5
7A4
330
25
100
AcDbEntity
  8
2
100
AcDbCircle
 10
-106.116506
 20
-3.158654
 30
0.0
 40
1.0
100
AcDbArc
 50
111.105845
 51
266.001991
  0
LINE
  5
7A5
330
25
100
AcDbEntity
  8
2
100
AcDbLine
 10
-96.93269100000001
 20
-4.466966999999999
 30
0.0
 11
-96.129642
 21
-4.494280999999999
 31
0.0
  0
CIRCLE
  5
7A6
330
25
100
AcDbEntity
  8
2
100
AcDbCircle
 10
-242.842159
 20
-12.041323
 30
0.0
 40
5.0
  0
CIRCLE
  5
7A7
330
25
100
AcDbEntity
  8
2
100
AcDbCircle
 10
-242.842159
 20
-12.041323
 30
0.0
 40
3.0
  0
CIRCLE
  5
7A8
330
25
100
AcDbEntity
  8
2
100
AcDbCircle
 10
-242.842159
 20
-12.041323
 30
0.0
 40
2.5
  0
LINE
  5
7A9
330
25
100
AcDbEntity
  8
2
100
AcDbLine
 10
-248.615661
 20
-12.041323
 30
0.0
 11
-245.72891
 21
-17.041323
 31
0.0
  0
LINE
  5
7AA
330
25
100
AcDbEntity
  8
2
100
AcDbLine
 10
-245.72891
 20
-17.041323
 30
0.0
 11
-239.955407
 21
-17.041323
 31
0.0
  0
LINE
  5
7AB
330
25
100
AcDbEntity
  8
2
100
AcDbLine
 10
-239.955407
 20
-17.041323
 30
0.0
 11
-237.068656
 21
-12.041323
 31
0.0
  0
LINE
  5
7AC
330
25
100
AcDbEntity
  8
2
100
AcDbLine
 10
-237.068656
 20
-12.041323
 30
0.0
 11
-239.955407
 21
-7.041322999999999
 31
0.0
  0
LINE
  5
7AD
330
25
100
AcDbEntity
  8
2
100
AcDbLine
 10
-239.955407
 20
-7.041322999999999
 30
0.0
 11
-245.72891
 21
-7.041322999999999
 31
0.0
  0
LINE
  5
7AE
330
25
100
AcDbEntity
  8
2
100
AcDbLine
 10
-245.72891
 20
-7.041322999999999
 30
0.0
 11
-248.615661
 21
-12.041323
 31
0.0
  0
ARC
  5
7AF
330
25
100
AcDbEntity
  8
2
  6
CENTER
 62
     2
100
AcDbCircle
 10
-152.842159
 20
1.458676999999999
 30
0.0
 40
52.075925
100
AcDbArc
 50
348.756732
 51
23.167626
  0
LINE
  5
7B0
330
25
100
AcDbEntity
  8
2
  6
CENTER
 62
     2
100
AcDbLine
 10
-142.919538
 20
1.458676999999999
 30
0.0
 11
-163.126812
 21
1.458676999999999
 31
0.0
  0
LINE
  5
7B1
330
25
100
AcDbEntity
  8
2
  6
CENTER
 62
     2
100
AcDbLine
 10
-152.842159
 20
11.850167
 30
0.0
 11
-152.842159
 21
-9.533717999999998
 31
0.0
  0
LINE
  5
7B2
330
25
100
AcDbEntity
  8
2
100
AcDbLine
 10
-234.072928
 20
-7.348441999999999
 30
0.0
 11
-234.072928
 21
-17.541323
 31
0.0
  0
ARC
  5
7B3
330
25
100
AcDbEntity
  8
2
100
AcDbCircle
 10
-229.072928
 20
-7.348441999999999
 30
0.0
 40
5.0
100
AcDbArc
 50
124.714037
 51
180.0
  0
ARC
  5
7B4
330
25
100
AcDbEntity
  8
2
100
AcDbCircle
 10
-224.542545
 20
-13.942048
 30
0.0
 40
13.0
100
AcDbArc
 50
102.0
 51
124.492462
  0
LINE
  5
7B5
330
25
100
AcDbEntity
  8
2
100
AcDbLine
 10
-260.918929
 20
-9.055652
 30
0.0
 11
-277.21674
 21
-12.918979
 31
0.0
  0
LINE
  5
7B6
330
25
100
AcDbEntity
  8
2
  6
CENTER
 62
     2
100
AcDbLine
 10
-251.585249
 20
-12.041323
 30
0.0
 11
-233.793496
 21
-12.041323
 31
0.0
  0
CIRCLE
  5
7B7
330
25
100
AcDbEntity
  8
2
100
AcDbCircle
 10
-152.842159
 20
1.458676999999999
 30
0.0
 40
1.5
  0
ARC
  5
7B8
330
25
100
AcDbEntity
  8
2
100
AcDbCircle
 10
-50.844164
 20
-11.766763
 30
0.0
 40
8.0
100
AcDbArc
 50
359.985133
 51
88.0
  0
LINE
  5
7B9
330
25
100
AcDbEntity
  8
2
100
AcDbLine
 10
-135.793582
 20
-8.655433
 30
0.0
 11
-112.024937
 21
-12.846487
 31
0.0
  0
LINE
  5
7BA
330
25
100
AcDbEntity
  8
2
100
AcDbLine
 10
-109.109198
 20
-2.949384999999999
 30
0.0
 11
-109.056423
 21
-2.194660999999999
 31
0.0
  0
LINE
  5
7BB
330
25
100
AcDbEntity
  8
2
100
AcDbLine
 10
-93.14817299999999
 20
-4.065487999999999
 30
0.0
 11
-93.093701
 21
-3.2865
 31
0.0
  0
LINE
  5
7BC
330
25
100
AcDbEntity
  8
2
100
AcDbLine
 10
-103.759354
 20
1.879024
 30
0.0
 11
-97.77396899999999
 21
1.460485
 31
0.0
  0
LINE
  5
7BD
330
25
100
AcDbEntity
  8
2
100
AcDbLine
 10
-105.009208
 20
-1.659136
 30
0.0
 11
-104.826674
 21
0.9512169999999999
 31
0.0
  0
LINE
  5
7BE
330
25
100
AcDbEntity
  8
2
100
AcDbLine
 10
-97.13843
 20
-3.786462
 30
0.0
 11
-96.92120799999999
 21
-0.6800470000000001
 31
0.0
  0
LINE
  5
7BF
330
25
100
AcDbEntity
  8
2
100
AcDbLine
 10
-104.826674
 20
0.9512169999999999
 30
0.0
 11
-103.759354
 21
1.879024
 31
0.0
  0
LINE
  5
7C0
330
25
100
AcDbEntity
  8
2
100
AcDbLine
 10
-97.77396899999999
 20
1.460485
 30
0.0
 11
-97.56187
 21
1.216493
 31
0.0
  0
LINE
  5
7C1
330
25
100
AcDbEntity
  8
2
100
AcDbLine
 10
-42.844164
 20
-11.768839
 30
0.0
 11
-42.84473499999999
 21
-13.9708
 31
0.0
  0
LINE
  5
7C2
330
25
100
AcDbEntity
  8
2
100
AcDbLine
 10
-50.564968
 20
-3.771637
 30
0.0
 11
-92.02455400000001
 21
-2.323836
 31
0.0
  0
ARC
  5
7C3
330
25
100
AcDbEntity
  8
2
100
AcDbCircle
 10
-187.615907
 20
-33.541323
 30
0.0
 40
1.0
100
AcDbArc
 50
180.0
 51
270.0
  0
LINE
  5
7C4
330
25
100
AcDbEntity
  8
2
100
AcDbLine
 10
-187.615907
 20
-34.541323
 30
0.0
 11
-181.842159
 21
-34.541323
 31
0.0
  0
LINE
  5
7C5
330
25
100
AcDbEntity
  8
2
100
AcDbLine
 10
-178.306625
 20
-33.076857
 30
0.0
 11
-174.771091
 21
-29.541323
 31
0.0
  0
LINE
  5
7C6
330
25
100
AcDbEntity
  8
2
100
AcDbLine
 10
-188.615907
 20
-22.541323
 30
0.0
 11
-176.306625
 21
-10.232041
 31
0.0
  0
ARC
  5
7C7
330
25
100
AcDbEntity
  8
2
100
AcDbCircle
 10
-141.003027
 20
-38.199666
 30
0.0
 40
30.0
100
AcDbArc
 50
80.0
 51
135.0
  0
LINE
  5
7C8
330
25
100
AcDbEntity
  8
2
100
AcDbLine
 10
-188.615907
 20
-22.541323
 30
0.0
 11
-188.615907
 21
-27.541323
 31
0.0
  0
ARC
  5
7C9
330
25
100
AcDbEntity
  8
2
100
AcDbCircle
 10
-96.140866
 20
-3.856219
 30
0.0
 40
1.0
100
AcDbArc
 50
176.0
 51
266.0
  0
LINE
  5
7CA
330
25
100
AcDbEntity
  8
2
100
AcDbLine
 10
-108.181391
 20
-4.016704999999999
 30
0.0
 11
-94.21549399999999
 21
-4.993295999999999
 31
0.0
  0
LINE
  5
7CB
330
25
100
AcDbEntity
  8
2
100
AcDbLine
 10
-179.771091
 20
-13.696507
 30
0.0
 11
-179.771091
 21
-27.541323
 31
0.0
  0
LINE
  5
7CC
330
25
100
AcDbEntity
  8
2
100
AcDbLine
 10
-104.826674
 20
0.9512169999999999
 30
0.0
 11
-99.25745500000001
 21
0.5617790000000001
 31
0.0
  0
ARC
  5
7CD
330
25
100
AcDbEntity
  8
2
100
AcDbCircle
 10
-98.13308200000001
 20
65.93813299999999
 30
0.0
 40
80.0
100
AcDbArc
 50
260.0
 51
269.845396
  0
ARC
  5
7CE
330
25
100
AcDbEntity
  8
2
100
AcDbCircle
 10
-44.844735
 20
-13.970281
 30
0.0
 40
2.0
100
AcDbArc
 50
222.427004
 51
359.985133
  0
ARC
  5
7CF
330
25
100
AcDbEntity
  8
2
100
AcDbCircle
 10
-52.22611
 20
-20.716785
 30
0.0
 40
8.0
100
AcDbArc
 50
42.42700399999999
 51
123.6590879999999
  0
ARC
  5
7D0
330
25
100
AcDbEntity
  8
2
100
AcDbCircle
 10
-61.094113
 20
-7.399182999999999
 30
0.0
 40
8.0
100
AcDbArc
 50
232.340912
 51
303.659088
  0
ARC
  5
7D1
330
25
100
AcDbEntity
  8
2
100
AcDbCircle
 10
-70.869504
 20
-20.065743
 30
0.0
 40
8.0
100
AcDbArc
 50
52.340912
 51
123.6590879999999
  0
ARC
  5
7D2
330
25
100
AcDbEntity
  8
2
100
AcDbCircle
 10
-79.73750799999999
 20
-6.748141
 30
0.0
 40
8.0
100
AcDbArc
 50
232.340912
 51
303.659088
  0
ARC
  5
7D3
330
25
100
AcDbEntity
  8
2
100
AcDbCircle
 10
-89.51289799999999
 20
-19.414701
 30
0.0
 40
8.0
100
AcDbArc
 50
52.340912
 51
123.42906
  0
ARC
  5
7D4
330
25
100
AcDbEntity
  8
2
100
AcDbCircle
 10
-98.32736400000001
 20
-6.061603999999999
 30
0.0
 40
8.0
100
AcDbArc
 50
269.845396
 51
303.42906
  0
ARC
  5
7D5
330
25
100
AcDbEntity
  8
2
100
AcDbCircle
 10
-181.842159
 20
-29.541323
 30
0.0
 40
5.0
100
AcDbArc
 50
270.0
 51
315.0
  0
LINE
  5
7D6
330
25
100
AcDbEntity
  8
2
100
AcDbLine
 10
-109.056423
 20
-2.194660999999999
 30
0.0
 11
-109.971474
 21
-1.023447999999999
 31
0.0
  0
LINE
  5
7D7
330
25
100
AcDbEntity
  8
2
100
AcDbLine
 10
-92.02455400000001
 20
-2.323836
 30
0.0
 11
-93.093701
 21
-3.2865
 31
0.0
  0
ARC
  5
7D8
330
25
100
AcDbEntity
  8
2
100
AcDbCircle
 10
-108.111634
 20
-3.019140999999999
 30
0.0
 40
1.0
100
AcDbArc
 50
176.0
 51
266.0
  0
ARC
  5
7D9
330
25
100
AcDbEntity
  8
2
100
AcDbCircle
 10
-94.14573799999999
 20
-3.995731999999999
 30
0.0
 40
1.0
100
AcDbArc
 50
266.0
 51
356.0
  0
LINE
  5
7DA
330
25
100
AcDbEntity
  8
2
100
AcDbLine
 10
-133.842159
 20
-8.999522
 30
0.0
 11
-133.842159
 21
1.586432999999999
 31
0.0
  0
LINE
  5
7DB
330
25
100
AcDbEntity
  8
2
100
AcDbLine
 10
-131.8327379999999
 20
2.831281999999999
 30
0.0
 11
-109.971474
 21
-1.023447999999999
 31
0.0
  0
ARC
  5
7DC
330
25
100
AcDbEntity
  8
2
100
AcDbCircle
 10
-131.311794
 20
5.785705999999999
 30
0.0
 40
3.0
100
AcDbArc
 50
258.30264
 51
260.0
  0
LINE
  5
7DD
330
25
100
AcDbEntity
  8
2
100
AcDbLine
 10
-174.842159
 20
-8.541323
 30
0.0
 11
-174.842159
 21
-27.541323
 31
0.0
  0
ARC
  5
7DE
330
25
100
AcDbEntity
  8
2
100
AcDbCircle
 10
-179.842159
 20
-6.696507
 30
0.0
 40
5.0
100
AcDbArc
 50
315.0
 51
338.348311
  0
LINE
  5
7DF
330
25
100
AcDbEntity
  8
2
100
AcDbLine
 10
-175.742159
 20
-30.512391
 30
0.0
 11
-175.742159
 21
-29.541323
 31
0.0
  0
LINE
  5
7E0
330
25
100
AcDbEntity
  8
2
100
AcDbLine
 10
-188.615907
 20
-29.541323
 30
0.0
 11
-188.615907
 21
-33.541323
 31
0.0
  0
LINE
  5
7E1
330
25
100
AcDbEntity
  8
2
100
AcDbLine
 10
-179.771091
 20
-29.541323
 30
0.0
 11
-179.771091
 21
-34.092222
 31
0.0
  0
LINE
  5
7E2
330
25
100
AcDbEntity
  8
2
100
AcDbLine
 10
-174.842159
 20
-29.541323
 30
0.0
 11
-174.842159
 21
-29.612391
 31
0.0
  0
LINE
  5
7E3
330
25
100
AcDbEntity
  8
2
100
AcDbLine
 10
-172.771091
 20
-27.541323
 30
0.0
 11
-162.21623
 21
-16.986463
 31
0.0
  0
LINE
  5
7E4
330
25
100
AcDbEntity
  8
2
100
AcDbLine
 10
-167.842159
 20
-27.541323
 30
0.0
 11
-167.842159
 21
-29.541323
 31
0.0
  0
LINE
  5
7E5
330
25
100
AcDbEntity
  8
2
100
AcDbLine
 10
-167.842159
 20
-27.541323
 30
0.0
 11
-292.842159
 21
-27.541323
 31
0.0
  0
LINE
  5
7E6
330
25
100
AcDbEntity
  8
2
100
AcDbLine
 10
-292.842159
 20
-29.541323
 30
0.0
 11
-167.842159
 21
-29.541323
 31
0.0
  0
LINE
  5
7E7
330
25
100
AcDbEntity
  8
2
100
AcDbLine
 10
-203.43081
 20
-27.541323
 30
0.0
 11
-203.43081
 21
-29.541323
 31
0.0
  0
POINT
  5
7E8
330
25
100
AcDbEntity
  8
2
100
AcDbPoint
 10
-218.093421
 20
-27.541323
 30
0.0
  0
LINE
  5
7E9
330
25
100
AcDbEntity
  8
2
  6
CENTER
 62
     2
100
AcDbLine
 10
-218.093421
 20
-55.65367099999999
 30
0.0
 11
-218.093421
 21
-18.337383
 31
0.0
  0
LINE
  5
7EA
330
25
100
AcDbEntity
  8
2
100
AcDbLine
 10
-218.093421
 20
-27.541323
 30
0.0
 11
-225.593421
 21
-27.541323
 31
0.0
  0
LINE
  5
7EB
330
25
100
AcDbEntity
  8
2
100
AcDbLine
 10
-225.593421
 20
-27.541323
 30
0.0
 11
-225.593421
 21
-22.763011
 31
0.0
  0
LINE
  5
7EC
330
25
100
AcDbEntity
  8
2
100
AcDbLine
 10
-225.593421
 20
-22.763011
 30
0.0
 11
-224.343421
 21
-22.041323
 31
0.0
  0
LINE
  5
7ED
330
25
100
AcDbEntity
  8
2
100
AcDbLine
 10
-224.343421
 20
-22.041323
 30
0.0
 11
-218.093421
 21
-22.041323
 31
0.0
  0
LINE
  5
7EE
330
25
100
AcDbEntity
  8
2
100
AcDbLine
 10
-221.843421
 20
-27.541323
 30
0.0
 11
-221.843421
 21
-22.763011
 31
0.0
  0
ARC
  5
7EF
330
25
100
AcDbEntity
  8
2
100
AcDbCircle
 10
-223.718421
 20
-25.173387
 30
0.0
 40
3.053774
100
AcDbArc
 50
52.121121
 51
127.878879
  0
ARC
  5
7F0
330
25
100
AcDbEntity
  8
2
100
AcDbCircle
 10
-218.093421
 20
-33.369612
 30
0.0
 40
11.25
100
AcDbArc
 50
90.0
 51
109.471221
  0
LINE
  5
7F1
330
25
100
AcDbEntity
  8
2
100
AcDbLine
 10
-218.093421
 20
-52.541323
 30
0.0
 11
-221.416921
 21
-52.541323
 31
0.0
  0
LINE
  5
7F2
330
25
100
AcDbEntity
  8
2
100
AcDbLine
 10
-221.416921
 20
-52.541323
 30
0.0
 11
-222.093421
 21
-51.864823
 31
0.0
  0
LINE
  5
7F3
330
25
100
AcDbEntity
  8
2
100
AcDbLine
 10
-222.093421
 20
-51.864823
 30
0.0
 11
-222.093421
 21
-50.041323
 31
0.0
  0
LINE
  5
7F4
330
25
100
AcDbEntity
  8
2
100
AcDbLine
 10
-222.093421
 20
-51.864823
 30
0.0
 11
-218.093421
 21
-51.864823
 31
0.0
  0
LINE
  5
7F5
330
25
100
AcDbEntity
  8
2
 62
     2
100
AcDbLine
 10
-221.416921
 20
-52.541323
 30
0.0
 11
-221.416921
 21
-50.041323
 31
0.0
  0
LINE
  5
7F6
330
25
100
AcDbEntity
  8
2
100
AcDbLine
 10
-218.093421
 20
-27.541323
 30
0.0
 11
-210.593421
 21
-27.541323
 31
0.0
  0
LINE
  5
7F7
330
25
100
AcDbEntity
  8
2
100
AcDbLine
 10
-210.593421
 20
-27.541323
 30
0.0
 11
-210.593421
 21
-22.763011
 31
0.0
  0
LINE
  5
7F8
330
25
100
AcDbEntity
  8
2
100
AcDbLine
 10
-210.593421
 20
-22.763011
 30
0.0
 11
-211.843421
 21
-22.041323
 31
0.0
  0
LINE
  5
7F9
330
25
100
AcDbEntity
  8
2
100
AcDbLine
 10
-211.843421
 20
-22.041323
 30
0.0
 11
-218.093421
 21
-22.041323
 31
0.0
  0
LINE
  5
7FA
330
25
100
AcDbEntity
  8
2
100
AcDbLine
 10
-214.343421
 20
-27.541323
 30
0.0
 11
-214.343421
 21
-22.763011
 31
0.0
  0
ARC
  5
7FB
330
25
100
AcDbEntity
  8
2
100
AcDbCircle
 10
-212.468421
 20
-25.173387
 30
0.0
 40
3.053774
100
AcDbArc
 50
52.121121
 51
127.878879
  0
ARC
  5
7FC
330
25
100
AcDbEntity
  8
2
100
AcDbCircle
 10
-218.093421
 20
-33.369612
 30
0.0
 40
11.25
100
AcDbArc
 50
70.528779
 51
90.0
  0
LINE
  5
7FD
330
25
100
AcDbEntity
  8
2
100
AcDbLine
 10
-218.093421
 20
-52.541323
 30
0.0
 11
-214.769921
 21
-52.541323
 31
0.0
  0
LINE
  5
7FE
330
25
100
AcDbEntity
  8
2
100
AcDbLine
 10
-214.769921
 20
-52.541323
 30
0.0
 11
-214.093421
 21
-51.864823
 31
0.0
  0
LINE
  5
7FF
330
25
100
AcDbEntity
  8
2
100
AcDbLine
 10
-214.093421
 20
-51.864823
 30
0.0
 11
-214.093421
 21
-50.041323
 31
0.0
  0
LINE
  5
800
330
25
100
AcDbEntity
  8
2
100
AcDbLine
 10
-214.093421
 20
-51.864823
 30
0.0
 11
-218.093421
 21
-51.864823
 31
0.0
  0
LINE
  5
801
330
25
100
AcDbEntity
  8
2
 62
     2
100
AcDbLine
 10
-214.769921
 20
-52.541323
 30
0.0
 11
-214.769921
 21
-50.041323
 31
0.0
  0
POINT
  5
802
330
25
100
AcDbEntity
  8
2
100
AcDbPoint
 10
-218.093421
 20
-41.54132299999999
 30
0.0
  0
LINE
  5
803
330
25
100
AcDbEntity
  8
2
100
AcDbLine
 10
-218.093421
 20
-43.54132299999999
 30
0.0
 11
-210.593421
 21
-43.54132299999999
 31
0.0
  0
LINE
  5
804
330
25
100
AcDbEntity
  8
2
100
AcDbLine
 10
-210.593421
 20
-43.54132299999999
 30
0.0
 11
-210.593421
 21
-49.319635
 31
0.0
  0
LINE
  5
805
330
25
100
AcDbEntity
  8
2
100
AcDbLine
 10
-210.593421
 20
-49.319635
 30
0.0
 11
-211.843421
 21
-50.041323
 31
0.0
  0
LINE
  5
806
330
25
100
AcDbEntity
  8
2
100
AcDbLine
 10
-211.843421
 20
-50.041323
 30
0.0
 11
-218.093421
 21
-50.041323
 31
0.0
  0
LINE
  5
807
330
25
100
AcDbEntity
  8
2
100
AcDbLine
 10
-214.343421
 20
-43.54132299999999
 30
0.0
 11
-214.343421
 21
-49.319635
 31
0.0
  0
ARC
  5
808
330
25
100
AcDbEntity
  8
2
100
AcDbCircle
 10
-212.468421
 20
-46.909259
 30
0.0
 40
3.053774
100
AcDbArc
 50
232.121121
 51
307.878879
  0
ARC
  5
809
330
25
100
AcDbEntity
  8
2
100
AcDbCircle
 10
-218.093421
 20
-38.71303300000001
 30
0.0
 40
11.25
100
AcDbArc
 50
270.0
 51
289.471221
  0
LINE
  5
80A
330
25
100
AcDbEntity
  8
2
100
AcDbLine
 10
-218.093421
 20
-43.54132299999999
 30
0.0
 11
-225.593421
 21
-43.54132299999999
 31
0.0
  0
LINE
  5
80B
330
25
100
AcDbEntity
  8
2
100
AcDbLine
 10
-225.593421
 20
-43.54132299999999
 30
0.0
 11
-225.593421
 21
-49.319635
 31
0.0
  0
LINE
  5
80C
330
25
100
AcDbEntity
  8
2
100
AcDbLine
 10
-225.593421
 20
-49.319635
 30
0.0
 11
-224.343421
 21
-50.041323
 31
0.0
  0
LINE
  5
80D
330
25
100
AcDbEntity
  8
2
100
AcDbLine
 10
-224.343421
 20
-50.041323
 30
0.0
 11
-218.093421
 21
-50.041323
 31
0.0
  0
LINE
  5
80E
330
25
100
AcDbEntity
  8
2
100
AcDbLine
 10
-221.843421
 20
-43.54132299999999
 30
0.0
 11
-221.843421
 21
-49.319635
 31
0.0
  0
ARC
  5
80F
330
25
100
AcDbEntity
  8
2
100
AcDbCircle
 10
-223.718421
 20
-46.909259
 30
0.0
 40
3.053774
100
AcDbArc
 50
232.121121
 51
307.878879
  0
ARC
  5
810
330
25
100
AcDbEntity
  8
2
100
AcDbCircle
 10
-218.093421
 20
-38.71303300000001
 30
0.0
 40
11.25
100
AcDbArc
 50
250.528779
 51
270.0
  0
LINE
  5
811
330
25
100
AcDbEntity
  8
2
100
AcDbLine
 10
-210.393421
 20
-41.54132299999999
 30
0.0
 11
-210.393421
 21
-43.54132299999999
 31
0.0
  0
LINE
  5
812
330
25
100
AcDbEntity
  8
2
100
AcDbLine
 10
-210.393421
 20
-43.54132299999999
 30
0.0
 11
-225.793421
 21
-43.54132299999999
 31
0.0
  0
LINE
  5
813
330
25
100
AcDbEntity
  8
2
100
AcDbLine
 10
-225.793421
 20
-43.54132299999999
 30
0.0
 11
-225.793421
 21
-41.54132299999999
 31
0.0
  0
LINE
  5
814
330
25
100
AcDbEntity
  8
2
100
AcDbLine
 10
-225.793421
 20
-41.54132299999999
 30
0.0
 11
-210.393421
 21
-41.54132299999999
 31
0.0
  0
LINE
  5
815
330
25
100
AcDbEntity
  8
2
100
AcDbLine
 10
-218.093421
 20
-43.54132299999999
 30
0.0
 11
-218.593421
 21
-41.54132299999999
 31
0.0
  0
LINE
  5
816
330
25
100
AcDbEntity
  8
2
100
AcDbLine
 10
-218.093421
 20
-41.54132299999999
 30
0.0
 11
-217.593421
 21
-43.54132299999999
 31
0.0
  0
POINT
  5
817
330
25
100
AcDbEntity
  8
2
100
AcDbPoint
 10
-267.590896
 20
-27.541323
 30
0.0
  0
LINE
  5
818
330
25
100
AcDbEntity
  8
2
  6
CENTER
 62
     2
100
AcDbLine
 10
-267.590896
 20
-55.65367099999999
 30
0.0
 11
-267.590896
 21
-18.337383
 31
0.0
  0
LINE
  5
819
330
25
100
AcDbEntity
  8
2
100
AcDbLine
 10
-267.590896
 20
-27.541323
 30
0.0
 11
-275.090896
 21
-27.541323
 31
0.0
  0
LINE
  5
81A
330
25
100
AcDbEntity
  8
2
100
AcDbLine
 10
-275.090896
 20
-27.541323
 30
0.0
 11
-275.090896
 21
-22.763011
 31
0.0
  0
LINE
  5
81B
330
25
100
AcDbEntity
  8
2
100
AcDbLine
 10
-275.090896
 20
-22.763011
 30
0.0
 11
-273.840896
 21
-22.041323
 31
0.0
  0
LINE
  5
81C
330
25
100
AcDbEntity
  8
2
100
AcDbLine
 10
-273.840896
 20
-22.041323
 30
0.0
 11
-267.590896
 21
-22.041323
 31
0.0
  0
LINE
  5
81D
330
25
100
AcDbEntity
  8
2
100
AcDbLine
 10
-271.340896
 20
-27.541323
 30
0.0
 11
-271.340896
 21
-22.763011
 31
0.0
  0
ARC
  5
81E
330
25
100
AcDbEntity
  8
2
100
AcDbCircle
 10
-273.215896
 20
-25.173387
 30
0.0
 40
3.053774
100
AcDbArc
 50
52.121121
 51
127.878879
  0
ARC
  5
81F
330
25
100
AcDbEntity
  8
2
100
AcDbCircle
 10
-267.590896
 20
-33.369612
 30
0.0
 40
11.25
100
AcDbArc
 50
90.0
 51
109.471221
  0
LINE
  5
820
330
25
100
AcDbEntity
  8
2
100
AcDbLine
 10
-267.590896
 20
-52.541323
 30
0.0
 11
-270.914396
 21
-52.541323
 31
0.0
  0
LINE
  5
821
330
25
100
AcDbEntity
  8
2
100
AcDbLine
 10
-270.914396
 20
-52.541323
 30
0.0
 11
-271.590896
 21
-51.864823
 31
0.0
  0
LINE
  5
822
330
25
100
AcDbEntity
  8
2
100
AcDbLine
 10
-271.590896
 20
-51.864823
 30
0.0
 11
-271.590896
 21
-50.041323
 31
0.0
  0
LINE
  5
823
330
25
100
AcDbEntity
  8
2
100
AcDbLine
 10
-271.590896
 20
-51.864823
 30
0.0
 11
-267.590896
 21
-51.864823
 31
0.0
  0
LINE
  5
824
330
25
100
AcDbEntity
  8
2
 62
     2
100
AcDbLine
 10
-270.914396
 20
-52.541323
 30
0.0
 11
-270.914396
 21
-50.041323
 31
0.0
  0
LINE
  5
825
330
25
100
AcDbEntity
  8
2
100
AcDbLine
 10
-267.590896
 20
-27.541323
 30
0.0
 11
-260.090896
 21
-27.541323
 31
0.0
  0
LINE
  5
826
330
25
100
AcDbEntity
  8
2
100
AcDbLine
 10
-260.090896
 20
-27.541323
 30
0.0
 11
-260.090896
 21
-22.763011
 31
0.0
  0
LINE
  5
827
330
25
100
AcDbEntity
  8
2
100
AcDbLine
 10
-260.090896
 20
-22.763011
 30
0.0
 11
-261.340896
 21
-22.041323
 31
0.0
  0
LINE
  5
828
330
25
100
AcDbEntity
  8
2
100
AcDbLine
 10
-261.340896
 20
-22.041323
 30
0.0
 11
-267.590896
 21
-22.041323
 31
0.0
  0
LINE
  5
829
330
25
100
AcDbEntity
  8
2
100
AcDbLine
 10
-263.840896
 20
-27.541323
 30
0.0
 11
-263.840896
 21
-22.763011
 31
0.0
  0
ARC
  5
82A
330
25
100
AcDbEntity
  8
2
100
AcDbCircle
 10
-261.965896
 20
-25.173387
 30
0.0
 40
3.053774
100
AcDbArc
 50
52.121121
 51
127.878879
  0
ARC
  5
82B
330
25
100
AcDbEntity
  8
2
100
AcDbCircle
 10
-267.590896
 20
-33.369612
 30
0.0
 40
11.25
100
AcDbArc
 50
70.528779
 51
90.0
  0
LINE
  5
82C
330
25
100
AcDbEntity
  8
2
100
AcDbLine
 10
-267.590896
 20
-52.541323
 30
0.0
 11
-264.267396
 21
-52.541323
 31
0.0
  0
LINE
  5
82D
330
25
100
AcDbEntity
  8
2
100
AcDbLine
 10
-264.267396
 20
-52.541323
 30
0.0
 11
-263.590896
 21
-51.864823
 31
0.0
  0
LINE
  5
82E
330
25
100
AcDbEntity
  8
2
100
AcDbLine
 10
-263.590896
 20
-51.864823
 30
0.0
 11
-263.590896
 21
-50.041323
 31
0.0
  0
LINE
  5
82F
330
25
100
AcDbEntity
  8
2
100
AcDbLine
 10
-263.590896
 20
-51.864823
 30
0.0
 11
-267.590896
 21
-51.864823
 31
0.0
  0
LINE
  5
830
330
25
100
AcDbEntity
  8
2
 62
     2
100
AcDbLine
 10
-264.267396
 20
-52.541323
 30
0.0
 11
-264.267396
 21
-50.041323
 31
0.0
  0
POINT
  5
831
330
25
100
AcDbEntity
  8
2
100
AcDbPoint
 10
-267.590896
 20
-41.54132299999999
 30
0.0
  0
LINE
  5
832
330
25
100
AcDbEntity
  8
2
100
AcDbLine
 10
-261.340896
 20
-50.041323
 30
0.0
 11
-267.590896
 21
-50.041323
 31
0.0
  0
LINE
  5
833
330
25
100
AcDbEntity
  8
2
100
AcDbLine
 10
-263.840896
 20
-46.034734
 30
0.0
 11
-263.840896
 21
-49.319635
 31
0.0
  0
ARC
  5
834
330
25
100
AcDbEntity
  8
2
100
AcDbCircle
 10
-261.965896
 20
-46.909259
 30
0.0
 40
3.053774
100
AcDbArc
 50
232.121121
 51
294.188212
  0
ARC
  5
835
330
25
100
AcDbEntity
  8
2
100
AcDbCircle
 10
-267.590896
 20
-38.71303300000001
 30
0.0
 40
11.25
100
AcDbArc
 50
270.0
 51
289.471221
  0
LINE
  5
836
330
25
100
AcDbEntity
  8
2
100
AcDbLine
 10
-267.590896
 20
-43.54132299999999
 30
0.0
 11
-275.090896
 21
-43.54132299999999
 31
0.0
  0
LINE
  5
837
330
25
100
AcDbEntity
  8
2
100
AcDbLine
 10
-275.090896
 20
-43.54132299999999
 30
0.0
 11
-275.090896
 21
-49.319635
 31
0.0
  0
LINE
  5
838
330
25
100
AcDbEntity
  8
2
100
AcDbLine
 10
-275.090896
 20
-49.319635
 30
0.0
 11
-273.840896
 21
-50.041323
 31
0.0
  0
LINE
  5
839
330
25
100
AcDbEntity
  8
2
100
AcDbLine
 10
-273.840896
 20
-50.041323
 30
0.0
 11
-267.590896
 21
-50.041323
 31
0.0
  0
LINE
  5
83A
330
25
100
AcDbEntity
  8
2
100
AcDbLine
 10
-271.340896
 20
-43.54132299999999
 30
0.0
 11
-271.340896
 21
-49.319635
 31
0.0
  0
ARC
  5
83B
330
25
100
AcDbEntity
  8
2
100
AcDbCircle
 10
-273.215896
 20
-46.909259
 30
0.0
 40
3.053774
100
AcDbArc
 50
232.121121
 51
307.878879
  0
ARC
  5
83C
330
25
100
AcDbEntity
  8
2
100
AcDbCircle
 10
-267.590896
 20
-38.71303300000001
 30
0.0
 40
11.25
100
AcDbArc
 50
250.528779
 51
270.0
  0
LINE
  5
83D
330
25
100
AcDbEntity
  8
2
100
AcDbLine
 10
-267.756754
 20
-43.54132299999999
 30
0.0
 11
-275.290896
 21
-43.54132299999999
 31
0.0
  0
LINE
  5
83E
330
25
100
AcDbEntity
  8
2
100
AcDbLine
 10
-275.290896
 20
-43.54132299999999
 30
0.0
 11
-275.290896
 21
-41.54132299999999
 31
0.0
  0
LINE
  5
83F
330
25
100
AcDbEntity
  8
2
100
AcDbLine
 10
-275.290896
 20
-41.54132299999999
 30
0.0
 11
-259.890896
 21
-41.54132299999999
 31
0.0
  0
LINE
  5
840
330
25
100
AcDbEntity
  8
2
100
AcDbLine
 10
-260.721786
 20
-49.68387899999999
 30
0.0
 11
-261.340896
 21
-50.041323
 31
0.0
  0
LINE
  5
841
330
25
100
AcDbEntity
  8
2
100
AcDbLine
 10
79.667908
 20
-27.541264
 30
0.0
 11
79.667908
 21
-18.541264
 31
0.0
  0
LINE
  5
842
330
25
100
AcDbEntity
  8
2
100
AcDbLine
 10
93.667908
 20
-18.541264
 30
0.0
 11
93.667908
 21
-27.541264
 31
0.0
  0
LINE
  5
843
330
25
100
AcDbEntity
  8
2
100
AcDbLine
 10
73.667908
 20
-8.541263999999999
 30
0.0
 11
79.667908
 21
-8.541263999999999
 31
0.0
  0
ARC
  5
844
330
25
100
AcDbEntity
  8
2
100
AcDbCircle
 10
75.16790799999999
 20
-7.541263999999999
 30
0.0
 40
1.0
100
AcDbArc
 50
180.0
 51
270.0
  0
LINE
  5
845
330
25
100
AcDbEntity
  8
2
100
AcDbLine
 10
99.667908
 20
-8.541263999999999
 30
0.0
 11
93.667908
 21
-8.541263999999999
 31
0.0
  0
ARC
  5
846
330
25
100
AcDbEntity
  8
2
100
AcDbCircle
 10
98.16790799999999
 20
-7.541263999999999
 30
0.0
 40
1.0
100
AcDbArc
 50
270.0
 51
360.0
  0
LINE
  5
847
330
25
100
AcDbEntity
  8
2
100
AcDbLine
 10
100.667908
 20
3.458736
 30
0.0
 11
101.667908
 21
2.458736
 31
0.0
  0
LINE
  5
848
330
25
100
AcDbEntity
  8
2
100
AcDbLine
 10
101.667908
 20
-17.541264
 30
0.0
 11
101.667908
 21
2.458736
 31
0.0
  0
LINE
  5
849
330
25
100
AcDbEntity
  8
2
100
AcDbLine
 10
92.667908
 20
-7.541263999999999
 30
0.0
 11
92.667908
 21
3.203104999999999
 31
0.0
  0
LINE
  5
84A
330
25
100
AcDbEntity
  8
2
100
AcDbLine
 10
100.667908
 20
-7.541263999999999
 30
0.0
 11
100.667908
 21
5.958736
 31
0.0
  0
ARC
  5
84B
330
25
100
AcDbEntity
  8
2
100
AcDbCircle
 10
100.167908
 20
5.958736
 30
0.0
 40
0.5
100
AcDbArc
 50
0.0
 51
90.0
  0
ARC
  5
84C
330
25
100
AcDbEntity
  8
2
100
AcDbCircle
 10
99.667908
 20
6.958736
 30
0.0
 40
0.5
100
AcDbArc
 50
180.0
 51
270.0
  0
LINE
  5
84D
330
25
100
AcDbEntity
  8
2
100
AcDbLine
 10
100.167908
 20
6.458736
 30
0.0
 11
99.667908
 21
6.458736
 31
0.0
  0
LINE
  5
84E
330
25
100
AcDbEntity
  8
2
100
AcDbLine
 10
99.16790800000001
 20
-7.541263999999999
 30
0.0
 11
99.16790800000001
 21
6.958736
 31
0.0
  0
LINE
  5
84F
330
25
100
AcDbEntity
  8
2
100
AcDbLine
 10
94.75710799999999
 20
4.602326999999999
 30
0.0
 11
93.36268299999998
 21
4.155384999999999
 31
0.0
  0
ARC
  5
850
330
25
100
AcDbEntity
  8
2
100
AcDbCircle
 10
93.667908
 20
3.203104999999999
 30
0.0
 40
1.0
100
AcDbArc
 50
107.771715
 51
180.0
  0
LINE
  5
851
330
25
100
AcDbEntity
  8
2
100
AcDbLine
 10
92.667908
 20
9.705007
 30
0.0
 11
92.667908
 21
3.203104999999999
 31
0.0
  0
LINE
  5
852
330
25
100
AcDbEntity
  8
2
100
AcDbLine
 10
100.667908
 20
-1.068251999999999
 30
0.0
 11
101.467908
 21
-8.614027999999999
 31
0.0
  0
ARC
  5
853
330
25
100
AcDbEntity
  8
2
100
AcDbCircle
 10
99.667908
 20
-7.541263999999999
 30
0.0
 40
1.0
100
AcDbArc
 50
270.0
 51
360.0
  0
ARC
  5
854
330
25
100
AcDbEntity
  8
2
100
AcDbCircle
 10
93.667908
 20
-7.541263999999999
 30
0.0
 40
1.0
100
AcDbArc
 50
180.0
 51
270.0
  0
ARC
  5
855
330
25
100
AcDbEntity
  8
2
100
AcDbCircle
 10
94.45188299999999
 20
5.554607999999999
 30
0.0
 40
1.0
100
AcDbArc
 50
287.771715
 51
6.051866999999999
  0
ARC
  5
856
330
25
100
AcDbEntity
  8
2
100
AcDbCircle
 10
78.883933
 20
5.554607999999999
 30
0.0
 40
1.0
100
AcDbArc
 50
173.948133
 51
252.228285
  0
ARC
  5
857
330
25
100
AcDbEntity
  8
2
100
AcDbCircle
 10
79.667908
 20
-7.541263999999999
 30
0.0
 40
1.0
100
AcDbArc
 50
270.0
 51
360.0
  0
ARC
  5
858
330
25
100
AcDbEntity
  8
2
100
AcDbCircle
 10
73.667908
 20
-7.541263999999999
 30
0.0
 40
1.0
100
AcDbArc
 50
180.0
 51
270.0
  0
ARC
  5
859
330
25
100
AcDbEntity
  8
2
100
AcDbCircle
 10
96.498495
 20
-13.749481
 30
0.0
 40
1.0
100
AcDbArc
 50
279.951879
 51
6.051866999999999
  0
ARC
  5
85A
330
25
100
AcDbEntity
  8
2
100
AcDbCircle
 10
76.837321
 20
-13.749481
 30
0.0
 40
1.0
100
AcDbArc
 50
173.948133
 51
260.048121
  0
ARC
  5
85B
330
25
100
AcDbEntity
  8
2
100
AcDbCircle
 10
86.66790799999999
 20
42.277667
 30
0.0
 40
57.88305300000001
100
AcDbArc
 50
260.048121
 51
264.1497
  0
LINE
  5
85C
330
25
100
AcDbEntity
  8
2
100
AcDbLine
 10
71.867908
 20
-17.541264
 30
0.0
 11
71.867908
 21
-8.614027999999999
 31
0.0
  0
LINE
  5
85D
330
25
100
AcDbEntity
  8
2
100
AcDbLine
 10
72.66790799999999
 20
-1.068251999999999
 30
0.0
 11
71.867908
 21
-8.614027999999999
 31
0.0
  0
LINE
  5
85E
330
25
100
AcDbEntity
  8
2
100
AcDbLine
 10
76.38389
 20
-8.541263999999999
 30
0.0
 11
75.842895
 21
-13.644053
 31
0.0
  0
LINE
  5
85F
330
25
100
AcDbEntity
  8
2
100
AcDbLine
 10
97.667908
 20
-17.541264
 30
0.0
 11
97.667908
 21
-18.541264
 31
0.0
  0
ARC
  5
860
330
25
100
AcDbEntity
  8
2
100
AcDbCircle
 10
92.167908
 20
20.564621
 30
0.0
 40
1.5
100
AcDbArc
 50
69.33280100000001
 51
94.27095600000001
  0
LINE
  5
861
330
25
100
AcDbEntity
  8
2
100
AcDbLine
 10
100.667908
 20
-1.068251999999999
 30
0.0
 11
101.667908
 21
-10.500473
 31
0.0
  0
ARC
  5
862
330
25
100
AcDbEntity
  8
2
100
AcDbCircle
 10
92.24304399999999
 20
31.041935
 30
0.0
 40
5.0
100
AcDbArc
 50
9.174666
 51
77.83324
  0
LINE
  5
863
330
25
100
AcDbEntity
  8
2
100
AcDbLine
 10
97.179078
 20
31.83915900000001
 30
0.0
 11
97.179078
 21
27.256513
 31
0.0
  0
LINE
  5
864
330
25
100
AcDbEntity
  8
2
100
AcDbLine
 10
90.66790799999999
 20
20.228731
 30
0.0
 11
90.66790799999999
 21
17.543117
 31
0.0
  0
ARC
  5
865
330
25
100
AcDbEntity
  8
2
100
AcDbCircle
 10
96.17907800000001
 20
27.256513
 30
0.0
 40
1.0
100
AcDbArc
 50
259.300245
 51
360.0
  0
LINE
  5
866
330
25
100
AcDbEntity
  8
2
100
AcDbLine
 10
97.179078
 20
31.83915900000001
 30
0.0
 11
99.8699
 21
6.458736
 31
0.0
  0
ARC
  5
867
330
25
100
AcDbEntity
  8
2
100
AcDbCircle
 10
92.302972
 20
25.823609
 30
0.0
 40
1.0
100
AcDbArc
 50
6.051866999999999
 51
83.42705999999999
  0
LINE
  5
868
330
25
100
AcDbEntity
  8
2
100
AcDbLine
 10
96.951926
 20
-8.541263999999999
 30
0.0
 11
97.49292099999999
 21
-13.644053
 31
0.0
  0
ARC
  5
869
330
25
100
AcDbEntity
  8
2
100
AcDbCircle
 10
89.667908
 20
9.705007
 30
0.0
 40
3.0
100
AcDbArc
 50
0.0
 51
28.460849
  0
LINE
  5
86A
330
25
100
AcDbEntity
  8
2
100
AcDbLine
 10
93.29739899999999
 20
25.929037
 30
0.0
 11
95.44631
 21
5.660035999999999
 31
0.0
  0
LINE
  5
86B
330
25
100
AcDbEntity
  8
2
100
AcDbLine
 10
92.667908
 20
9.705007
 30
0.0
 11
92.667908
 21
4.542735999999999
 31
0.0
  0
LINE
  5
86C
330
25
100
AcDbEntity
  8
2
100
AcDbLine
 10
80.66790799999999
 20
9.705007
 30
0.0
 11
80.66790799999999
 21
3.203104999999999
 31
0.0
  0
ARC
  5
86D
330
25
100
AcDbEntity
  8
2
100
AcDbCircle
 10
79.667908
 20
3.203104999999999
 30
0.0
 40
1.0
100
AcDbArc
 50
0.0
 51
72.228285
  0
LINE
  5
86E
330
25
100
AcDbEntity
  8
2
100
AcDbLine
 10
80.038417
 20
25.929037
 30
0.0
 11
77.88950600000001
 21
5.660035999999999
 31
0.0
  0
ARC
  5
86F
330
25
100
AcDbEntity
  8
2
100
AcDbCircle
 10
83.667908
 20
9.705007
 30
0.0
 40
3.0
100
AcDbArc
 50
113.205282
 51
180.0
  0
LINE
  5
870
330
25
100
AcDbEntity
  8
2
100
AcDbLine
 10
78.57870699999999
 20
4.602326999999999
 30
0.0
 11
79.97313299999999
 21
4.155384999999999
 31
0.0
  0
LINE
  5
871
330
25
100
AcDbEntity
  8
2
100
AcDbLine
 10
75.66790799999999
 20
-17.541264
 30
0.0
 11
75.66790799999999
 21
-18.541264
 31
0.0
  0
ARC
  5
872
330
25
100
AcDbEntity
  8
2
100
AcDbCircle
 10
81.03284399999999
 20
25.823609
 30
0.0
 40
1.0
100
AcDbArc
 50
96.57294
 51
173.948133
  0
LINE
  5
873
330
25
100
AcDbEntity
  8
2
100
AcDbLine
 10
101.667908
 20
-17.541264
 30
0.0
 11
92.567908
 21
-17.541264
 31
0.0
  0
LINE
  5
874
330
25
100
AcDbEntity
  8
2
100
AcDbLine
 10
75.66790799999999
 20
-18.541264
 30
0.0
 11
80.76790799999999
 21
-18.541264
 31
0.0
  0
LINE
  5
875
330
25
100
AcDbEntity
  8
2
100
AcDbLine
 10
74.167908
 20
-7.541263999999999
 30
0.0
 11
74.167908
 21
6.958736
 31
0.0
  0
LINE
  5
876
330
25
100
AcDbEntity
  8
2
100
AcDbLine
 10
76.156738
 20
31.83915900000001
 30
0.0
 11
73.465916
 21
6.458736
 31
0.0
  0
LINE
  5
877
330
25
100
AcDbEntity
  8
2
100
AcDbLine
 10
73.16790799999999
 20
6.458736
 30
0.0
 11
73.667908
 21
6.458736
 31
0.0
  0
ARC
  5
878
330
25
100
AcDbEntity
  8
2
100
AcDbCircle
 10
73.667908
 20
6.958736
 30
0.0
 40
0.5
100
AcDbArc
 50
270.0
 51
360.0
  0
ARC
  5
879
330
25
100
AcDbEntity
  8
2
100
AcDbCircle
 10
73.16790799999999
 20
5.958736
 30
0.0
 40
0.5
100
AcDbArc
 50
90.0
 51
180.0
  0
LINE
  5
87A
330
25
100
AcDbEntity
  8
2
100
AcDbLine
 10
72.66790799999999
 20
-7.541263999999999
 30
0.0
 11
72.66790799999999
 21
5.958736
 31
0.0
  0
ARC
  5
87B
330
25
100
AcDbEntity
  8
2
100
AcDbCircle
 10
86.66790799999999
 20
-23.081115
 30
0.0
 40
50.228304
100
AcDbArc
 50
79.30024499999999
 51
100.699755
  0
ARC
  5
87C
330
25
100
AcDbEntity
  8
2
100
AcDbCircle
 10
77.15673800000001
 20
27.256513
 30
0.0
 40
1.0
100
AcDbArc
 50
180.0
 51
280.699755
  0
ARC
  5
87D
330
25
100
AcDbEntity
  8
2
100
AcDbCircle
 10
86.66790799999999
 20
12.370062
 30
0.0
 40
11.334722
100
AcDbArc
 50
68.40872399999999
 51
114.66929
  0
LINE
  5
87E
330
25
100
AcDbEntity
  8
2
100
AcDbLine
 10
82.667908
 20
16.391854
 30
0.0
 11
83.667908
 21
15.391854
 31
0.0
  0
ARC
  5
87F
330
25
100
AcDbEntity
  8
2
100
AcDbCircle
 10
86.66790799999999
 20
7.370338999999999
 30
0.0
 40
9.868522999999999
100
AcDbArc
 50
76.97849599999999
 51
113.911756
  0
ARC
  5
880
330
25
100
AcDbEntity
  8
2
100
AcDbCircle
 10
81.167908
 20
20.564621
 30
0.0
 40
1.5
100
AcDbArc
 50
0.0
 51
110.667199
  0
LINE
  5
881
330
25
100
AcDbEntity
  8
2
100
AcDbLine
 10
82.667908
 20
20.564621
 30
0.0
 11
82.667908
 21
20.392998
 31
0.0
  0
LINE
  5
882
330
25
100
AcDbEntity
  8
2
100
AcDbLine
 10
80.66790799999999
 20
-7.541263999999999
 30
0.0
 11
80.66790799999999
 21
3.203104999999999
 31
0.0
  0
LINE
  5
883
330
25
100
AcDbEntity
  8
2
100
AcDbLine
 10
76.156738
 20
31.83915900000001
 30
0.0
 11
76.156738
 21
27.256513
 31
0.0
  0
LINE
  5
884
330
25
100
AcDbEntity
  8
2
100
AcDbLine
 10
70.66790799999999
 20
3.458736
 30
0.0
 11
72.66790799999999
 21
3.458736
 31
0.0
  0
LINE
  5
885
330
25
100
AcDbEntity
  8
2
100
AcDbLine
 10
69.667908
 20
2.458736
 30
0.0
 11
69.667908
 21
-17.541264
 31
0.0
  0
ARC
  5
886
330
25
100
AcDbEntity
  8
2
100
AcDbCircle
 10
70.66790799999999
 20
2.458736
 30
0.0
 40
1.0
100
AcDbArc
 50
90.0
 51
180.0
  0
ARC
  5
887
330
25
100
AcDbEntity
  8
2
100
AcDbCircle
 10
81.09277199999999
 20
31.041935
 30
0.0
 40
5.0
100
AcDbArc
 50
102.16676
 51
170.825334
  0
ARC
  5
888
330
25
100
AcDbEntity
  8
2
100
AcDbCircle
 10
86.66790799999999
 20
5.183288
 30
0.0
 40
31.452822
100
AcDbArc
 50
77.83324
 51
102.16676
  0
LINE
  5
889
330
25
100
AcDbEntity
  8
2
100
AcDbLine
 10
92.567908
 20
-18.541264
 30
0.0
 11
97.667908
 21
-18.541264
 31
0.0
  0
LINE
  5
88A
330
25
100
AcDbEntity
  8
2
100
AcDbLine
 10
80.76790799999999
 20
-17.541264
 30
0.0
 11
69.667908
 21
-17.541264
 31
0.0
  0
ARC
  5
88B
330
25
100
AcDbEntity
  8
2
100
AcDbCircle
 10
86.66790799999999
 20
42.277667
 30
0.0
 40
57.88305300000001
100
AcDbArc
 50
275.8503
 51
279.951879
  0
LINE
  5
88C
330
25
100
AcDbEntity
  8
2
100
AcDbLine
 10
82.667908
 20
18.405683
 30
0.0
 11
82.667908
 21
16.391854
 31
0.0
  0
ARC
  5
88D
330
25
100
AcDbEntity
  8
2
100
AcDbCircle
 10
89.667908
 20
9.705007
 30
0.0
 40
3.0
100
AcDbArc
 50
55.144622
 51
90.0
  0
LINE
  5
88E
330
25
100
AcDbEntity
  8
2
100
AcDbLine
 10
91.00626899999999
 20
12.123767
 30
0.0
 11
81.44508499999998
 21
9.120414
 31
0.0
  0
LINE
  5
88F
330
25
100
AcDbEntity
  8
2
100
AcDbLine
 10
91.60563299999999
 20
10.215689
 30
0.0
 11
82.044449
 21
7.212335
 31
0.0
  0
LINE
  5
890
330
25
100
AcDbEntity
  8
2
100
AcDbLine
 10
81.48968899999999
 20
7.199453999999999
 30
0.0
 11
87.702732
 21
5.560425
 31
0.0
  0
LINE
  5
891
330
25
100
AcDbEntity
  8
2
100
AcDbLine
 10
91.00626899999999
 20
6.59813
 30
0.0
 11
81.44508499999998
 21
3.594776999999999
 31
0.0
  0
LINE
  5
892
330
25
100
AcDbEntity
  8
2
100
AcDbLine
 10
91.60563299999999
 20
4.690051999999999
 30
0.0
 11
82.044449
 21
1.686699
 31
0.0
  0
LINE
  5
893
330
25
100
AcDbEntity
  8
2
100
AcDbLine
 10
91.60563299999999
 20
-0.835584
 30
0.0
 11
82.044449
 21
-3.838937999999999
 31
0.0
  0
LINE
  5
894
330
25
100
AcDbEntity
  8
2
100
AcDbLine
 10
91.00626899999999
 20
1.072494
 30
0.0
 11
81.44508499999998
 21
-1.930859
 31
0.0
  0
LINE
  5
895
330
25
100
AcDbEntity
  8
2
100
AcDbLine
 10
81.48968899999999
 20
1.673816999999999
 30
0.0
 11
83.381985
 21
1.174620999999999
 31
0.0
  0
ARC
  5
896
330
25
100
AcDbEntity
  8
2
100
AcDbCircle
 10
81.74476700000001
 20
-2.884897999999999
 30
0.0
 40
1.0
100
AcDbArc
 50
100.738785
 51
286.6206009999999
  0
ARC
  5
897
330
25
100
AcDbEntity
  8
2
100
AcDbCircle
 10
81.74476700000001
 20
2.640738
 30
0.0
 40
1.0
100
AcDbArc
 50
107.438515
 51
286.6206009999999
  0
ARC
  5
898
330
25
100
AcDbEntity
  8
2
100
AcDbCircle
 10
81.74476700000001
 20
8.166374000000001
 30
0.0
 40
1.0
100
AcDbArc
 50
107.438515
 51
286.6206009999999
  0
LINE
  5
899
330
25
100
AcDbEntity
  8
2
100
AcDbLine
 10
85.347986
 20
2.724404
 30
0.0
 11
91.561029
 21
1.085374999999999
 31
0.0
  0
ARC
  5
89A
330
25
100
AcDbEntity
  8
2
100
AcDbCircle
 10
91.305951
 20
0.118455
 30
0.0
 40
1.0
100
AcDbArc
 50
287.438515
 51
107.438515
  0
LINE
  5
89B
330
25
100
AcDbEntity
  8
2
100
AcDbLine
 10
86.959905
 20
-2.294897999999999
 30
0.0
 11
91.561029
 21
-2.672266
 31
0.0
  0
ARC
  5
89C
330
25
100
AcDbEntity
  8
2
100
AcDbCircle
 10
91.591049
 20
-3.692728999999999
 30
0.0
 40
1.0
100
AcDbArc
 50
273.731968
 51
85.59196300000001
  0
LINE
  5
89D
330
25
100
AcDbEntity
  8
2
100
AcDbLine
 10
85.347986
 20
8.25004
 30
0.0
 11
91.561029
 21
6.611011999999999
 31
0.0
  0
ARC
  5
89E
330
25
100
AcDbEntity
  8
2
100
AcDbCircle
 10
91.305951
 20
5.644091
 30
0.0
 40
1.0
100
AcDbArc
 50
281.107766
 51
107.438515
  0
LINE
  5
89F
330
25
100
AcDbEntity
  8
2
100
AcDbLine
 10
91.49860600000002
 20
20.418031
 30
0.0
 11
82.044449
 21
18.26360799999999
 31
0.0
  0
LINE
  5
8A0
330
25
100
AcDbEntity
  8
2
100
AcDbLine
 10
91.00626899999999
 20
22.353337
 30
0.0
 11
81.44508499999998
 21
20.171686
 31
0.0
  0
LINE
  5
8A1
330
25
100
AcDbEntity
  8
2
100
AcDbLine
 10
81.48968899999999
 20
12.72509
 30
0.0
 11
87.702732
 21
11.086062
 31
0.0
  0
LINE
  5
8A2
330
25
100
AcDbEntity
  8
2
100
AcDbLine
 10
91.00626899999999
 20
17.649403
 30
0.0
 11
81.44508499999998
 21
14.64605
 31
0.0
  0
LINE
  5
8A3
330
25
100
AcDbEntity
  8
2
100
AcDbLine
 10
91.60563299999999
 20
15.741325
 30
0.0
 11
82.044449
 21
12.737972
 31
0.0
  0
ARC
  5
8A4
330
25
100
AcDbEntity
  8
2
100
AcDbCircle
 10
81.74476700000001
 20
19.217647
 30
0.0
 40
1.0
100
AcDbArc
 50
98.020858
 51
286.6206009999999
  0
LINE
  5
8A5
330
25
100
AcDbEntity
  8
2
100
AcDbLine
 10
81.48968899999999
 20
18.25072699999999
 30
0.0
 11
82.667908
 21
17.939907
 31
0.0
  0
ARC
  5
8A6
330
25
100
AcDbEntity
  8
2
100
AcDbCircle
 10
81.74476700000001
 20
13.692011
 30
0.0
 40
1.0
100
AcDbArc
 50
107.438515
 51
286.6206009999999
  0
LINE
  5
8A7
330
25
100
AcDbEntity
  8
2
100
AcDbLine
 10
90.66790799999999
 20
17.897894
 30
0.0
 11
91.561029
 21
17.662285
 31
0.0
  0
LINE
  5
8A8
330
25
100
AcDbEntity
  8
2
100
AcDbLine
 10
85.347986
 20
13.775677
 30
0.0
 11
91.561029
 21
12.136648
 31
0.0
  0
ARC
  5
8A9
330
25
100
AcDbEntity
  8
2
100
AcDbCircle
 10
91.305951
 20
16.695364
 30
0.0
 40
1.0
100
AcDbArc
 50
281.107766
 51
107.438515
  0
ARC
  5
8AA
330
25
100
AcDbEntity
  8
2
100
AcDbCircle
 10
91.305951
 20
11.169728
 30
0.0
 40
1.0
100
AcDbArc
 50
281.107766
 51
107.438515
  0
ARC
  5
8AB
330
25
100
AcDbEntity
  8
2
100
AcDbCircle
 10
91.305951
 20
21.399298
 30
0.0
 40
1.0
100
AcDbArc
 50
281.107766
 51
107.438515
  0
LINE
  5
8AC
330
25
100
AcDbEntity
  8
2
  6
CENTER
 62
     2
100
AcDbLine
 10
66.443483
 20
1.458736
 30
0.0
 11
106.766477
 21
1.458736
 31
0.0
  0
LINE
  5
8AD
330
25
100
AcDbEntity
  8
2
  6
CENTER
 62
     2
100
AcDbLine
 10
86.66790799999999
 20
-12.225919
 30
0.0
 11
57.30852900000001
 21
-12.225919
 31
0.0
  0
LINE
  5
8AE
330
25
100
AcDbEntity
  8
2
100
AcDbLine
 10
69.667908
 20
-17.225919
 30
0.0
 11
69.667908
 21
-7.225919
 31
0.0
  0
ARC
  5
8AF
330
25
100
AcDbEntity
  8
2
100
AcDbCircle
 10
90.66790799999999
 20
3.174165
 30
0.0
 40
1.0
100
AcDbArc
 50
0.0
 51
90.0
  0
ARC
  5
8B0
330
25
100
AcDbEntity
  8
2
100
AcDbCircle
 10
82.667908
 20
3.174165
 30
0.0
 40
1.0
100
AcDbArc
 50
90.0
 51
147.287273
  0
LINE
  5
8B1
330
25
100
AcDbEntity
  8
2
100
AcDbLine
 10
82.667908
 20
4.174165
 30
0.0
 11
83.28956899999999
 21
4.174165
 31
0.0
  0
LINE
  5
8B2
330
25
100
AcDbEntity
  8
2
100
AcDbLine
 10
91.66790799999999
 20
-14.934701
 30
0.0
 11
91.66790799999999
 21
-4.689771
 31
0.0
  0
LINE
  5
8B3
330
25
100
AcDbEntity
  8
2
100
AcDbLine
 10
81.66790799999999
 20
-30.512332
 30
0.0
 11
81.66790799999999
 21
-33.541264
 31
0.0
  0
ARC
  5
8B4
330
25
100
AcDbEntity
  8
2
100
AcDbCircle
 10
81.76790799999999
 20
5.458736
 30
0.0
 40
1.0
100
AcDbArc
 50
90.0
 51
180.0
  0
ARC
  5
8B5
330
25
100
AcDbEntity
  8
2
100
AcDbCircle
 10
91.56790800000001
 20
5.458736
 30
0.0
 40
1.0
100
AcDbArc
 50
0.0
 51
63.950626
  0
LINE
  5
8B6
330
25
100
AcDbEntity
  8
2
100
AcDbLine
 10
92.567908
 20
5.458736
 30
0.0
 11
92.567908
 21
-29.612332
 31
0.0
  0
LINE
  5
8B7
330
25
100
AcDbEntity
  8
2
100
AcDbLine
 10
80.76790799999999
 20
5.458736
 30
0.0
 11
80.76790799999999
 21
-29.612332
 31
0.0
  0
LINE
  5
8B8
330
25
100
AcDbEntity
  8
2
100
AcDbLine
 10
92.567908
 20
-29.612332
 30
0.0
 11
91.66790799999999
 21
-30.512332
 31
0.0
  0
LINE
  5
8B9
330
25
100
AcDbEntity
  8
2
100
AcDbLine
 10
81.66790799999999
 20
-30.512332
 30
0.0
 11
80.76790799999999
 21
-29.612332
 31
0.0
  0
LINE
  5
8BA
330
25
100
AcDbEntity
  8
2
100
AcDbLine
 10
90.66790799999999
 20
-1.130141999999999
 30
0.0
 11
90.66790799999999
 21
-2.599015
 31
0.0
  0
ARC
  5
8BB
330
25
100
AcDbEntity
  8
2
100
AcDbCircle
 10
86.66790799999999
 20
14.467693
 30
0.0
 40
14.567094
100
AcDbArc
 50
254.062329
 51
272.574998
  0
ARC
  5
8BC
330
25
100
AcDbEntity
  8
2
100
AcDbCircle
 10
86.67335200000001
 20
16.528304
 30
0.0
 40
15.364572
100
AcDbArc
 50
258.719715
 51
281.24576
  0
ARC
  5
8BD
330
25
100
AcDbEntity
  8
2
100
AcDbCircle
 10
86.66790799999999
 20
-9.081877
 30
0.0
 40
10.96096
100
AcDbArc
 50
74.115522
 51
105.884478
  0
LINE
  5
8BE
330
25
100
AcDbEntity
  8
2
100
AcDbLine
 10
90.283115
 20
0.8453370000000001
 30
0.0
 11
89.667908
 21
1.460544
 31
0.0
  0
LINE
  5
8BF
330
25
100
AcDbEntity
  8
2
100
AcDbLine
 10
83.667908
 20
1.460544
 30
0.0
 11
82.667908
 21
0.460544
 31
0.0
  0
LINE
  5
8C0
330
25
100
AcDbEntity
  8
2
100
AcDbLine
 10
82.667908
 20
0.460544
 30
0.0
 11
82.667908
 21
-1.546746999999999
 31
0.0
  0
ARC
  5
8C1
330
25
100
AcDbEntity
  8
2
100
AcDbCircle
 10
90.66790799999999
 20
-4.771577999999999
 30
0.0
 40
1.0
100
AcDbArc
 50
0.0
 51
90.0
  0
ARC
  5
8C2
330
25
100
AcDbEntity
  8
2
100
AcDbCircle
 10
82.667908
 20
-4.771577999999999
 30
0.0
 40
1.0
100
AcDbArc
 50
90.0
 51
180.0
  0
LINE
  5
8C3
330
25
100
AcDbEntity
  8
2
100
AcDbLine
 10
82.667908
 20
-3.771577999999999
 30
0.0
 11
90.66790799999999
 21
-3.771577999999999
 31
0.0
  0
LINE
  5
8C4
330
25
100
AcDbEntity
  8
2
100
AcDbLine
 10
90.66790799999999
 20
-3.771577999999999
 30
0.0
 11
82.667908
 21
-3.771577999999999
 31
0.0
  0
ARC
  5
8C5
330
25
100
AcDbEntity
  8
2
100
AcDbCircle
 10
82.667908
 20
-4.771577999999999
 30
0.0
 40
1.0
100
AcDbArc
 50
90.0
 51
180.0
  0
ARC
  5
8C6
330
25
100
AcDbEntity
  8
2
100
AcDbCircle
 10
90.66790799999999
 20
-4.771577999999999
 30
0.0
 40
1.0
100
AcDbArc
 50
0.0
 51
90.0
  0
ARC
  5
8C7
330
25
100
AcDbEntity
  8
2
100
AcDbCircle
 10
90.66790799999999
 20
-14.934701
 30
0.0
 40
1.0
100
AcDbArc
 50
270.0
 51
360.0
  0
ARC
  5
8C8
330
25
100
AcDbEntity
  8
2
100
AcDbCircle
 10
82.667908
 20
-14.934701
 30
0.0
 40
1.0
100
AcDbArc
 50
180.0
 51
270.0
  0
LINE
  5
8C9
330
25
100
AcDbEntity
  8
2
100
AcDbLine
 10
90.66790799999999
 20
-15.934701
 30
0.0
 11
82.667908
 21
-15.934701
 31
0.0
  0
LINE
  5
8CA
330
25
100
AcDbEntity
  8
2
100
AcDbLine
 10
82.667908
 20
-15.934701
 30
0.0
 11
90.66790799999999
 21
-15.934701
 31
0.0
  0
ARC
  5
8CB
330
25
100
AcDbEntity
  8
2
100
AcDbCircle
 10
82.667908
 20
-14.934701
 30
0.0
 40
1.0
100
AcDbArc
 50
180.0
 51
270.0
  0
ARC
  5
8CC
330
25
100
AcDbEntity
  8
2
100
AcDbCircle
 10
90.66790799999999
 20
-14.934701
 30
0.0
 40
1.0
100
AcDbArc
 50
270.0
 51
360.0
  0
ARC
  5
8CD
330
25
100
AcDbEntity
  8
2
100
AcDbCircle
 10
90.66790799999999
 20
-33.541264
 30
0.0
 40
1.0
100
AcDbArc
 50
270.0
 51
360.0
  0
ARC
  5
8CE
330
25
100
AcDbEntity
  8
2
100
AcDbCircle
 10
82.667908
 20
-33.541264
 30
0.0
 40
1.0
100
AcDbArc
 50
180.0
 51
270.0
  0
LINE
  5
8CF
330
25
100
AcDbEntity
  8
2
100
AcDbLine
 10
82.667908
 20
-34.541264
 30
0.0
 11
90.66790799999999
 21
-34.541264
 31
0.0
  0
LINE
  5
8D0
330
25
100
AcDbEntity
  8
2
100
AcDbLine
 10
90.66790799999999
 20
-34.541264
 30
0.0
 11
82.667908
 21
-34.541264
 31
0.0
  0
ARC
  5
8D1
330
25
100
AcDbEntity
  8
2
100
AcDbCircle
 10
82.667908
 20
-33.541264
 30
0.0
 40
1.0
100
AcDbArc
 50
180.0
 51
270.0
  0
ARC
  5
8D2
330
25
100
AcDbEntity
  8
2
100
AcDbCircle
 10
90.66790799999999
 20
-33.541264
 30
0.0
 40
1.0
100
AcDbArc
 50
270.0
 51
360.0
  0
LINE
  5
8D3
330
25
100
AcDbEntity
  8
2
100
AcDbLine
 10
91.66790799999999
 20
-33.541264
 30
0.0
 11
91.66790799999999
 21
-30.512332
 31
0.0
  0
LINE
  5
8D4
330
25
100
AcDbEntity
  8
2
100
AcDbLine
 10
81.66790799999999
 20
1.643695999999999
 30
0.0
 11
81.66790799999999
 21
-1.860865999999999
 31
0.0
  0
LINE
  5
8D5
330
25
100
AcDbEntity
  8
2
100
AcDbLine
 10
84.29751800000001
 20
6.458736
 30
0.0
 11
81.76790799999999
 21
6.458736
 31
0.0
  0
LINE
  5
8D6
330
25
100
AcDbEntity
  8
2
100
AcDbLine
 10
89.963306
 20
4.174165
 30
0.0
 11
90.66790799999999
 21
4.174165
 31
0.0
  0
LINE
  5
8D7
330
25
100
AcDbEntity
  8
2
100
AcDbLine
 10
82.667908
 20
-3.643097
 30
0.0
 11
82.667908
 21
-3.771577999999999
 31
0.0
  0
LINE
  5
8D8
330
25
100
AcDbEntity
  8
2
100
AcDbLine
 10
81.66790799999999
 20
-3.88194
 30
0.0
 11
81.66790799999999
 21
-14.934701
 31
0.0
  0
LINE
  5
8D9
330
25
100
AcDbEntity
  8
2
100
AcDbLine
 10
91.66790799999999
 20
-2.695686999999999
 30
0.0
 11
91.66790799999999
 21
-0.8137399999999999
 31
0.0
  0
LINE
  5
8DA
330
25
100
AcDbEntity
  8
2
100
AcDbLine
 10
91.66790799999999
 20
1.05065
 30
0.0
 11
91.66790799999999
 21
3.174165
 31
0.0
  0
LINE
  5
8DB
330
25
100
AcDbEntity
  8
2
100
AcDbLine
 10
161.667908
 20
-27.541264
 30
0.0
 11
161.667908
 21
-29.541264
 31
0.0
  0
LINE
  5
8DC
330
25
100
AcDbEntity
  8
2
100
AcDbLine
 10
146.531757
 20
-28.041264
 30
0.0
 11
146.531757
 21
-29.041264
 31
0.0
  0
LINE
  5
8DD
330
25
100
AcDbEntity
  8
2
100
AcDbLine
 10
144.935355
 20
-28.041264
 30
0.0
 11
144.935355
 21
-29.041264
 31
0.0
  0
LINE
  5
8DE
330
25
100
AcDbEntity
  8
2
100
AcDbLine
 10
141.582583
 20
-28.041264
 30
0.0
 11
141.582583
 21
-29.041264
 31
0.0
  0
LINE
  5
8DF
330
25
100
AcDbEntity
  8
2
100
AcDbLine
 10
136.576449
 20
-28.041264
 30
0.0
 11
136.576449
 21
-29.041264
 31
0.0
  0
LINE
  5
8E0
330
25
100
AcDbEntity
  8
2
100
AcDbLine
 10
130.069061
 20
-28.041264
 30
0.0
 11
130.069061
 21
-29.041264
 31
0.0
  0
LINE
  5
8E1
330
25
100
AcDbEntity
  8
2
100
AcDbLine
 10
122.258144
 20
-28.041264
 30
0.0
 11
122.258144
 21
-29.041264
 31
0.0
  0
LINE
  5
8E2
330
25
100
AcDbEntity
  8
2
100
AcDbLine
 10
113.381028
 20
-28.041264
 30
0.0
 11
113.381028
 21
-29.041264
 31
0.0
  0
LINE
  5
8E3
330
25
100
AcDbEntity
  8
2
100
AcDbLine
 10
61.667908
 20
-28.041264
 30
0.0
 11
61.667908
 21
-29.041264
 31
0.0
  0
LINE
  5
8E4
330
25
100
AcDbEntity
  8
2
100
AcDbLine
 10
36.66790800000001
 20
-27.541264
 30
0.0
 11
36.66790800000001
 21
-29.541264
 31
0.0
  0
LINE
  5
8E5
330
25
100
AcDbEntity
  8
2
100
AcDbLine
 10
143.859276
 20
-28.041264
 30
0.0
 11
143.859276
 21
-29.041264
 31
0.0
  0
LINE
  5
8E6
330
25
100
AcDbEntity
  8
2
100
AcDbLine
 10
140.031831
 20
-28.041264
 30
0.0
 11
140.031831
 21
-29.041264
 31
0.0
  0
LINE
  5
8E7
330
25
100
AcDbEntity
  8
2
100
AcDbLine
 10
134.583392
 20
-28.041264
 30
0.0
 11
134.583392
 21
-29.041264
 31
0.0
  0
LINE
  5
8E8
330
25
100
AcDbEntity
  8
2
100
AcDbLine
 10
127.679509
 20
-28.041264
 30
0.0
 11
127.679509
 21
-29.041264
 31
0.0
  0
LINE
  5
8E9
330
25
100
AcDbEntity
  8
2
100
AcDbLine
 10
119.52995
 20
-28.041264
 30
0.0
 11
119.52995
 21
-29.041264
 31
0.0
  0
LINE
  5
8EA
330
25
100
AcDbEntity
  8
2
100
AcDbLine
 10
110.382338
 20
-28.041264
 30
0.0
 11
110.382338
 21
-29.041264
 31
0.0
  0
LINE
  5
8EB
330
25
100
AcDbEntity
  8
2
100
AcDbLine
 10
103.721522
 20
-28.041264
 30
0.0
 11
103.721522
 21
-29.041264
 31
0.0
  0
LINE
  5
8EC
330
25
100
AcDbEntity
  8
2
100
AcDbLine
 10
100.514617
 20
-28.041264
 30
0.0
 11
100.514617
 21
-29.041264
 31
0.0
  0
ARC
  5
8ED
330
25
100
AcDbEntity
  8
2
100
AcDbCircle
 10
146.031757
 20
-28.041264
 30
0.0
 40
0.5
100
AcDbArc
 50
0.0
 51
90.0
  0
ARC
  5
8EE
330
25
100
AcDbEntity
  8
2
100
AcDbCircle
 10
146.031757
 20
-29.041264
 30
0.0
 40
0.5
100
AcDbArc
 50
270.0
 51
360.0
  0
ARC
  5
8EF
330
25
100
AcDbEntity
  8
2
100
AcDbCircle
 10
144.435355
 20
-28.041264
 30
0.0
 40
0.5
100
AcDbArc
 50
0.0
 51
90.0
  0
ARC
  5
8F0
330
25
100
AcDbEntity
  8
2
100
AcDbCircle
 10
144.435355
 20
-29.041264
 30
0.0
 40
0.5
100
AcDbArc
 50
270.0
 51
360.0
  0
ARC
  5
8F1
330
25
100
AcDbEntity
  8
2
100
AcDbCircle
 10
143.359276
 20
-28.041264
 30
0.0
 40
0.5
100
AcDbArc
 50
0.0
 51
90.0
  0
ARC
  5
8F2
330
25
100
AcDbEntity
  8
2
100
AcDbCircle
 10
143.359276
 20
-29.041264
 30
0.0
 40
0.5
100
AcDbArc
 50
270.0
 51
360.0
  0
ARC
  5
8F3
330
25
100
AcDbEntity
  8
2
100
AcDbCircle
 10
141.082583
 20
-29.041264
 30
0.0
 40
0.5
100
AcDbArc
 50
270.0
 51
360.0
  0
ARC
  5
8F4
330
25
100
AcDbEntity
  8
2
100
AcDbCircle
 10
141.082583
 20
-28.041264
 30
0.0
 40
0.5
100
AcDbArc
 50
0.0
 51
90.0
  0
ARC
  5
8F5
330
25
100
AcDbEntity
  8
2
100
AcDbCircle
 10
139.531831
 20
-28.041264
 30
0.0
 40
0.5
100
AcDbArc
 50
0.0
 51
90.0
  0
ARC
  5
8F6
330
25
100
AcDbEntity
  8
2
100
AcDbCircle
 10
139.531831
 20
-29.041264
 30
0.0
 40
0.5
100
AcDbArc
 50
270.0
 51
360.0
  0
ARC
  5
8F7
330
25
100
AcDbEntity
  8
2
100
AcDbCircle
 10
136.076449
 20
-28.041264
 30
0.0
 40
0.5
100
AcDbArc
 50
0.0
 51
90.0
  0
ARC
  5
8F8
330
25
100
AcDbEntity
  8
2
100
AcDbCircle
 10
136.076449
 20
-29.041264
 30
0.0
 40
0.5
100
AcDbArc
 50
270.0
 51
360.0
  0
ARC
  5
8F9
330
25
100
AcDbEntity
  8
2
100
AcDbCircle
 10
134.083392
 20
-28.041264
 30
0.0
 40
0.5
100
AcDbArc
 50
0.0
 51
90.0
  0
ARC
  5
8FA
330
25
100
AcDbEntity
  8
2
100
AcDbCircle
 10
134.083392
 20
-29.041264
 30
0.0
 40
0.5
100
AcDbArc
 50
270.0
 51
360.0
  0
ARC
  5
8FB
330
25
100
AcDbEntity
  8
2
100
AcDbCircle
 10
129.569061
 20
-28.041264
 30
0.0
 40
0.5
100
AcDbArc
 50
0.0
 51
90.0
  0
ARC
  5
8FC
330
25
100
AcDbEntity
  8
2
100
AcDbCircle
 10
129.569061
 20
-29.041264
 30
0.0
 40
0.5
100
AcDbArc
 50
270.0
 51
360.0
  0
ARC
  5
8FD
330
25
100
AcDbEntity
  8
2
100
AcDbCircle
 10
127.179509
 20
-28.041264
 30
0.0
 40
0.5
100
AcDbArc
 50
0.0
 51
90.0
  0
ARC
  5
8FE
330
25
100
AcDbEntity
  8
2
100
AcDbCircle
 10
127.179509
 20
-29.041264
 30
0.0
 40
0.5
100
AcDbArc
 50
270.0
 51
360.0
  0
ARC
  5
8FF
330
25
100
AcDbEntity
  8
2
100
AcDbCircle
 10
121.758144
 20
-28.041264
 30
0.0
 40
0.5
100
AcDbArc
 50
0.0
 51
90.0
  0
ARC
  5
900
330
25
100
AcDbEntity
  8
2
100
AcDbCircle
 10
121.758144
 20
-29.041264
 30
0.0
 40
0.5
100
AcDbArc
 50
270.0
 51
360.0
  0
ARC
  5
901
330
25
100
AcDbEntity
  8
2
100
AcDbCircle
 10
119.02995
 20
-28.041264
 30
0.0
 40
0.5
100
AcDbArc
 50
0.0
 51
90.0
  0
ARC
  5
902
330
25
100
AcDbEntity
  8
2
100
AcDbCircle
 10
119.02995
 20
-29.041264
 30
0.0
 40
0.5
100
AcDbArc
 50
270.0
 51
360.0
  0
ARC
  5
903
330
25
100
AcDbEntity
  8
2
100
AcDbCircle
 10
112.881028
 20
-28.041264
 30
0.0
 40
0.5
100
AcDbArc
 50
0.0
 51
90.0
  0
ARC
  5
904
330
25
100
AcDbEntity
  8
2
100
AcDbCircle
 10
112.881028
 20
-29.041264
 30
0.0
 40
0.5
100
AcDbArc
 50
270.0
 51
360.0
  0
ARC
  5
905
330
25
100
AcDbEntity
  8
2
100
AcDbCircle
 10
109.882338
 20
-28.041264
 30
0.0
 40
0.5
100
AcDbArc
 50
0.0
 51
90.0
  0
ARC
  5
906
330
25
100
AcDbEntity
  8
2
100
AcDbCircle
 10
109.882338
 20
-29.041264
 30
0.0
 40
0.5
100
AcDbArc
 50
270.0
 51
360.0
  0
ARC
  5
907
330
25
100
AcDbEntity
  8
2
100
AcDbCircle
 10
103.221522
 20
-29.041264
 30
0.0
 40
0.5
100
AcDbArc
 50
270.0
 51
360.0
  0
ARC
  5
908
330
25
100
AcDbEntity
  8
2
100
AcDbCircle
 10
103.221522
 20
-28.041264
 30
0.0
 40
0.5
100
AcDbArc
 50
0.0
 51
90.0
  0
ARC
  5
909
330
25
100
AcDbEntity
  8
2
100
AcDbCircle
 10
100.014617
 20
-28.041264
 30
0.0
 40
0.5
100
AcDbArc
 50
0.0
 51
90.0
  0
ARC
  5
90A
330
25
100
AcDbEntity
  8
2
100
AcDbCircle
 10
100.014617
 20
-29.041264
 30
0.0
 40
0.5
100
AcDbArc
 50
270.0
 51
360.0
  0
ARC
  5
90B
330
25
100
AcDbEntity
  8
2
100
AcDbCircle
 10
62.167908
 20
-28.041264
 30
0.0
 40
0.5
100
AcDbArc
 50
90.0
 51
180.0
  0
ARC
  5
90C
330
25
100
AcDbEntity
  8
2
100
AcDbCircle
 10
62.167908
 20
-29.041264
 30
0.0
 40
0.5
100
AcDbArc
 50
180.0
 51
270.0
  0
LINE
  5
90D
330
25
100
AcDbEntity
  8
2
100
AcDbLine
 10
79.667908
 20
-28.041264
 30
0.0
 11
79.667908
 21
-29.041264
 31
0.0
  0
ARC
  5
90E
330
25
100
AcDbEntity
  8
2
100
AcDbCircle
 10
79.167908
 20
-28.041264
 30
0.0
 40
0.5
100
AcDbArc
 50
0.0
 51
90.0
  0
LINE
  5
90F
330
25
100
AcDbEntity
  8
2
100
AcDbLine
 10
161.667908
 20
-27.541264
 30
0.0
 11
92.567908
 21
-27.541264
 31
0.0
  0
ARC
  5
910
330
25
100
AcDbEntity
  8
2
100
AcDbCircle
 10
79.167908
 20
-29.041264
 30
0.0
 40
0.5
100
AcDbArc
 50
270.0
 51
360.0
  0
LINE
  5
911
330
25
100
AcDbEntity
  8
2
100
AcDbLine
 10
161.667908
 20
-29.541264
 30
0.0
 11
92.567908
 21
-29.541264
 31
0.0
  0
LINE
  5
912
330
25
100
AcDbEntity
  8
2
100
AcDbLine
 10
80.76790799999999
 20
-27.541264
 30
0.0
 11
36.66790800000001
 21
-27.541264
 31
0.0
  0
ARC
  5
913
330
25
100
AcDbEntity
  8
2
100
AcDbCircle
 10
93.249487
 20
-29.041264
 30
0.0
 40
0.5
100
AcDbArc
 50
270.0
 51
360.0
  0
ARC
  5
914
330
25
100
AcDbEntity
  8
2
100
AcDbCircle
 10
93.249487
 20
-28.041264
 30
0.0
 40
0.5
100
AcDbArc
 50
0.0
 51
90.0
  0
LINE
  5
915
330
25
100
AcDbEntity
  8
2
100
AcDbLine
 10
93.749487
 20
-28.041264
 30
0.0
 11
93.749487
 21
-29.041264
 31
0.0
  0
LINE
  5
916
330
25
100
AcDbEntity
  8
2
100
AcDbLine
 10
80.76790799999999
 20
-29.541264
 30
0.0
 11
36.66790800000001
 21
-29.541264
 31
0.0
  0
LINE
  5
917
330
25
100
AcDbEntity
  8
2
100
AcDbLine
 10
60.66790799999999
 20
-12.225919
 30
0.0
 11
60.66790799999999
 21
-9.766918999999999
 31
0.0
  0
LINE
  5
918
330
25
100
AcDbEntity
  8
2
100
AcDbLine
 10
60.66790799999999
 20
-9.766918999999999
 30
0.0
 11
61.20890799999999
 21
-9.225919000000001
 31
0.0
  0
LINE
  5
919
330
25
100
AcDbEntity
  8
2
100
AcDbLine
 10
61.20890799999999
 20
-9.225919000000001
 30
0.0
 11
64.686836
 21
-9.225919000000001
 31
0.0
  0
LINE
  5
91A
330
25
100
AcDbEntity
  8
2
100
AcDbLine
 10
61.20890799999999
 20
-9.225919000000001
 30
0.0
 11
61.20890799999999
 21
-12.225919
 31
0.0
  0
LINE
  5
91B
330
25
100
AcDbEntity
  8
2
100
AcDbLine
 10
60.66790799999999
 20
-12.225919
 30
0.0
 11
60.66790799999999
 21
-14.684919
 31
0.0
  0
LINE
  5
91C
330
25
100
AcDbEntity
  8
2
100
AcDbLine
 10
60.66790799999999
 20
-14.684919
 30
0.0
 11
61.20890799999999
 21
-15.225919
 31
0.0
  0
LINE
  5
91D
330
25
100
AcDbEntity
  8
2
100
AcDbLine
 10
61.20890799999999
 20
-15.225919
 30
0.0
 11
64.686836
 21
-15.225919
 31
0.0
  0
LINE
  5
91E
330
25
100
AcDbEntity
  8
2
100
AcDbLine
 10
61.20890799999999
 20
-15.225919
 30
0.0
 11
61.20890799999999
 21
-12.225919
 31
0.0
  0
POINT
  5
91F
330
25
100
AcDbEntity
  8
2
100
AcDbPoint
 10
69.667908
 20
-12.225919
 30
0.0
  0
LINE
  5
920
330
25
100
AcDbEntity
  8
2
100
AcDbLine
 10
69.667908
 20
-12.225919
 30
0.0
 11
69.667908
 21
-17.225919
 31
0.0
  0
LINE
  5
921
330
25
100
AcDbEntity
  8
2
100
AcDbLine
 10
69.667908
 20
-17.225919
 30
0.0
 11
65.15865500000001
 21
-17.225919
 31
0.0
  0
LINE
  5
922
330
25
100
AcDbEntity
  8
2
100
AcDbLine
 10
64.667908
 20
-14.725919
 30
0.0
 11
64.667908
 21
-12.225919
 31
0.0
  0
LINE
  5
923
330
25
100
AcDbEntity
  8
2
100
AcDbLine
 10
69.667908
 20
-12.225919
 30
0.0
 11
65.15865500000001
 21
-12.225919
 31
0.0
  0
ARC
  5
924
330
25
100
AcDbEntity
  8
2
100
AcDbCircle
 10
71.281115
 20
-14.725919
 30
0.0
 40
6.613208
100
AcDbArc
 50
157.788205
 51
202.211795
  0
LINE
  5
925
330
25
100
AcDbEntity
  8
2
100
AcDbLine
 10
69.667908
 20
-12.225919
 30
0.0
 11
69.667908
 21
-7.225919
 31
0.0
  0
LINE
  5
926
330
25
100
AcDbEntity
  8
2
100
AcDbLine
 10
69.667908
 20
-7.225919
 30
0.0
 11
65.15865500000001
 21
-7.225919
 31
0.0
  0
LINE
  5
927
330
25
100
AcDbEntity
  8
2
100
AcDbLine
 10
64.667908
 20
-9.725919000000001
 30
0.0
 11
64.667908
 21
-12.225919
 31
0.0
  0
LINE
  5
928
330
25
100
AcDbEntity
  8
2
100
AcDbLine
 10
69.667908
 20
-12.225919
 30
0.0
 11
65.15865500000001
 21
-12.225919
 31
0.0
  0
ARC
  5
929
330
25
100
AcDbEntity
  8
2
100
AcDbCircle
 10
71.281115
 20
-9.725919000000001
 30
0.0
 40
6.613208
100
AcDbArc
 50
157.788205
 51
202.211795
  0
LINE
  5
92A
330
25
100
AcDbEntity
  8
2
 62
     2
100
AcDbLine
 10
60.66790799999999
 20
-14.684919
 30
0.0
 11
64.667908
 21
-14.684919
 31
0.0
  0
LINE
  5
92B
330
25
100
AcDbEntity
  8
2
 62
     2
100
AcDbLine
 10
60.66790799999999
 20
-9.766918999999999
 30
0.0
 11
64.667908
 21
-9.766918999999999
 31
0.0
  0
POINT
  5
92C
330
25
100
AcDbEntity
  8
2
100
AcDbPoint
 10
111.416645
 20
-27.541264
 30
0.0
  0
LINE
  5
92D
330
25
100
AcDbEntity
  8
2
  6
CENTER
 62
     2
100
AcDbLine
 10
111.416645
 20
-55.59986
 30
0.0
 11
111.416645
 21
-18.449551
 31
0.0
  0
LINE
  5
92E
330
25
100
AcDbEntity
  8
2
100
AcDbLine
 10
111.416645
 20
-27.541264
 30
0.0
 11
104.916645
 21
-27.541264
 31
0.0
  0
LINE
  5
92F
330
25
100
AcDbEntity
  8
2
100
AcDbLine
 10
104.916645
 20
-27.541264
 30
0.0
 11
104.916645
 21
-22.762952
 31
0.0
  0
LINE
  5
930
330
25
100
AcDbEntity
  8
2
100
AcDbLine
 10
108.166645
 20
-22.041264
 30
0.0
 11
111.416645
 21
-22.041264
 31
0.0
  0
LINE
  5
931
330
25
100
AcDbEntity
  8
2
100
AcDbLine
 10
111.416645
 20
-27.541264
 30
0.0
 11
111.416645
 21
-22.762952
 31
0.0
  0
ARC
  5
932
330
25
100
AcDbEntity
  8
2
100
AcDbCircle
 10
108.166645
 20
-29.720023
 30
0.0
 40
7.678758999999999
100
AcDbArc
 50
64.96034
 51
115.03966
  0
LINE
  5
933
330
25
100
AcDbEntity
  8
2
100
AcDbLine
 10
111.416645
 20
-52.541264
 30
0.0
 11
108.093145
 21
-52.541264
 31
0.0
  0
LINE
  5
934
330
25
100
AcDbEntity
  8
2
100
AcDbLine
 10
108.093145
 20
-52.541264
 30
0.0
 11
107.416645
 21
-51.864764
 31
0.0
  0
LINE
  5
935
330
25
100
AcDbEntity
  8
2
100
AcDbLine
 10
107.416645
 20
-51.864764
 30
0.0
 11
107.416645
 21
-50.00455
 31
0.0
  0
LINE
  5
936
330
25
100
AcDbEntity
  8
2
100
AcDbLine
 10
107.416645
 20
-51.864764
 30
0.0
 11
111.416645
 21
-51.864764
 31
0.0
  0
LINE
  5
937
330
25
100
AcDbEntity
  8
2
 62
     2
100
AcDbLine
 10
108.093145
 20
-52.541264
 30
0.0
 11
108.093145
 21
-50.040913
 31
0.0
  0
LINE
  5
938
330
25
100
AcDbEntity
  8
2
100
AcDbLine
 10
111.416645
 20
-27.541264
 30
0.0
 11
117.916645
 21
-27.541264
 31
0.0
  0
LINE
  5
939
330
25
100
AcDbEntity
  8
2
100
AcDbLine
 10
117.916645
 20
-27.541264
 30
0.0
 11
117.916645
 21
-22.762952
 31
0.0
  0
LINE
  5
93A
330
25
100
AcDbEntity
  8
2
100
AcDbLine
 10
114.666645
 20
-22.041264
 30
0.0
 11
111.416645
 21
-22.041264
 31
0.0
  0
LINE
  5
93B
330
25
100
AcDbEntity
  8
2
100
AcDbLine
 10
111.416645
 20
-27.541264
 30
0.0
 11
111.416645
 21
-22.762952
 31
0.0
  0
ARC
  5
93C
330
25
100
AcDbEntity
  8
2
100
AcDbCircle
 10
114.666645
 20
-29.720023
 30
0.0
 40
7.678758999999999
100
AcDbArc
 50
64.96034
 51
115.03966
  0
LINE
  5
93D
330
25
100
AcDbEntity
  8
2
100
AcDbLine
 10
111.416645
 20
-52.541264
 30
0.0
 11
114.740145
 21
-52.541264
 31
0.0
  0
LINE
  5
93E
330
25
100
AcDbEntity
  8
2
100
AcDbLine
 10
114.740145
 20
-52.541264
 30
0.0
 11
115.416645
 21
-51.864764
 31
0.0
  0
LINE
  5
93F
330
25
100
AcDbEntity
  8
2
100
AcDbLine
 10
115.416645
 20
-51.864764
 30
0.0
 11
115.416645
 21
-50.00455
 31
0.0
  0
LINE
  5
940
330
25
100
AcDbEntity
  8
2
100
AcDbLine
 10
115.416645
 20
-51.864764
 30
0.0
 11
111.416645
 21
-51.864764
 31
0.0
  0
LINE
  5
941
330
25
100
AcDbEntity
  8
2
 62
     2
100
AcDbLine
 10
114.740145
 20
-52.541264
 30
0.0
 11
114.740145
 21
-50.040913
 31
0.0
  0
POINT
  5
942
330
25
100
AcDbEntity
  8
2
100
AcDbPoint
 10
111.416645
 20
-41.54126399999999
 30
0.0
  0
POINT
  5
943
330
25
100
AcDbEntity
  8
2
100
AcDbPoint
 10
111.416645
 20
-41.54126399999999
 30
0.0
  0
LINE
  5
944
330
25
100
AcDbEntity
  8
2
100
AcDbLine
 10
111.247399
 20
-43.541264
 30
0.0
 11
117.916645
 21
-43.541264
 31
0.0
  0
LINE
  5
945
330
25
100
AcDbEntity
  8
2
100
AcDbLine
 10
117.916645
 20
-43.541264
 30
0.0
 11
117.916645
 21
-49.319576
 31
0.0
  0
LINE
  5
946
330
25
100
AcDbEntity
  8
2
100
AcDbLine
 10
114.666645
 20
-50.041264
 30
0.0
 11
111.416645
 21
-50.041264
 31
0.0
  0
LINE
  5
947
330
25
100
AcDbEntity
  8
2
100
AcDbLine
 10
111.416645
 20
-43.63992399999999
 30
0.0
 11
111.416645
 21
-49.319576
 31
0.0
  0
ARC
  5
948
330
25
100
AcDbEntity
  8
2
100
AcDbCircle
 10
114.666645
 20
-42.36250599999999
 30
0.0
 40
7.678758999999999
100
AcDbArc
 50
244.96034
 51
295.03966
  0
LINE
  5
949
330
25
100
AcDbEntity
  8
2
100
AcDbLine
 10
108.166645
 20
-50.041264
 30
0.0
 11
111.416645
 21
-50.041264
 31
0.0
  0
LINE
  5
94A
330
25
100
AcDbEntity
  8
2
100
AcDbLine
 10
111.416645
 20
-43.541264
 30
0.0
 11
111.416645
 21
-49.319576
 31
0.0
  0
ARC
  5
94B
330
25
100
AcDbEntity
  8
2
100
AcDbCircle
 10
108.166645
 20
-42.36250599999999
 30
0.0
 40
7.678758999999999
100
AcDbArc
 50
244.96034
 51
295.03966
  0
LINE
  5
94C
330
25
100
AcDbEntity
  8
2
100
AcDbLine
 10
119.116645
 20
-41.54126399999999
 30
0.0
 11
119.116645
 21
-43.541264
 31
0.0
  0
LINE
  5
94D
330
25
100
AcDbEntity
  8
2
100
AcDbLine
 10
119.116645
 20
-43.541264
 30
0.0
 11
111.582503
 21
-43.541264
 31
0.0
  0
LINE
  5
94E
330
25
100
AcDbEntity
  8
2
100
AcDbLine
 10
103.716645
 20
-41.54126399999999
 30
0.0
 11
119.116645
 21
-41.54126399999999
 31
0.0
  0
POINT
  5
94F
330
25
100
AcDbEntity
  8
2
100
AcDbPoint
 10
61.919171
 20
-27.541264
 30
0.0
  0
LINE
  5
950
330
25
100
AcDbEntity
  8
2
  6
CENTER
 62
     2
100
AcDbLine
 10
61.919171
 20
-55.59986
 30
0.0
 11
61.919171
 21
-18.449551
 31
0.0
  0
LINE
  5
951
330
25
100
AcDbEntity
  8
2
100
AcDbLine
 10
61.919171
 20
-27.541264
 30
0.0
 11
68.41917099999999
 21
-27.541264
 31
0.0
  0
LINE
  5
952
330
25
100
AcDbEntity
  8
2
100
AcDbLine
 10
68.41917099999999
 20
-27.541264
 30
0.0
 11
68.41917099999999
 21
-22.762952
 31
0.0
  0
LINE
  5
953
330
25
100
AcDbEntity
  8
2
100
AcDbLine
 10
65.16917099999999
 20
-22.041264
 30
0.0
 11
61.919171
 21
-22.041264
 31
0.0
  0
LINE
  5
954
330
25
100
AcDbEntity
  8
2
100
AcDbLine
 10
61.919171
 20
-27.541264
 30
0.0
 11
61.919171
 21
-22.762952
 31
0.0
  0
ARC
  5
955
330
25
100
AcDbEntity
  8
2
100
AcDbCircle
 10
65.16917099999999
 20
-29.720023
 30
0.0
 40
7.678758999999999
100
AcDbArc
 50
64.96034
 51
115.03966
  0
LINE
  5
956
330
25
100
AcDbEntity
  8
2
100
AcDbLine
 10
61.919171
 20
-52.541264
 30
0.0
 11
65.242671
 21
-52.541264
 31
0.0
  0
LINE
  5
957
330
25
100
AcDbEntity
  8
2
100
AcDbLine
 10
65.242671
 20
-52.541264
 30
0.0
 11
65.91917099999999
 21
-51.864764
 31
0.0
  0
LINE
  5
958
330
25
100
AcDbEntity
  8
2
100
AcDbLine
 10
65.91917099999999
 20
-51.864764
 30
0.0
 11
65.91917099999999
 21
-50.00455
 31
0.0
  0
LINE
  5
959
330
25
100
AcDbEntity
  8
2
100
AcDbLine
 10
65.91917099999999
 20
-51.864764
 30
0.0
 11
61.919171
 21
-51.864764
 31
0.0
  0
LINE
  5
95A
330
25
100
AcDbEntity
  8
2
 62
     2
100
AcDbLine
 10
65.242671
 20
-52.541264
 30
0.0
 11
65.242671
 21
-50.040913
 31
0.0
  0
LINE
  5
95B
330
25
100
AcDbEntity
  8
2
100
AcDbLine
 10
61.919171
 20
-27.541264
 30
0.0
 11
55.419171
 21
-27.541264
 31
0.0
  0
LINE
  5
95C
330
25
100
AcDbEntity
  8
2
100
AcDbLine
 10
55.419171
 20
-27.541264
 30
0.0
 11
55.419171
 21
-22.762952
 31
0.0
  0
LINE
  5
95D
330
25
100
AcDbEntity
  8
2
100
AcDbLine
 10
58.669171
 20
-22.041264
 30
0.0
 11
61.919171
 21
-22.041264
 31
0.0
  0
LINE
  5
95E
330
25
100
AcDbEntity
  8
2
100
AcDbLine
 10
61.919171
 20
-27.541264
 30
0.0
 11
61.919171
 21
-22.762952
 31
0.0
  0
ARC
  5
95F
330
25
100
AcDbEntity
  8
2
100
AcDbCircle
 10
58.669171
 20
-29.720023
 30
0.0
 40
7.678758999999999
100
AcDbArc
 50
64.96034
 51
115.03966
  0
LINE
  5
960
330
25
100
AcDbEntity
  8
2
100
AcDbLine
 10
61.919171
 20
-52.541264
 30
0.0
 11
58.59567099999999
 21
-52.541264
 31
0.0
  0
LINE
  5
961
330
25
100
AcDbEntity
  8
2
100
AcDbLine
 10
58.59567099999999
 20
-52.541264
 30
0.0
 11
57.919171
 21
-51.864764
 31
0.0
  0
LINE
  5
962
330
25
100
AcDbEntity
  8
2
100
AcDbLine
 10
57.919171
 20
-51.864764
 30
0.0
 11
57.919171
 21
-50.00455
 31
0.0
  0
LINE
  5
963
330
25
100
AcDbEntity
  8
2
100
AcDbLine
 10
57.919171
 20
-51.864764
 30
0.0
 11
61.919171
 21
-51.864764
 31
0.0
  0
LINE
  5
964
330
25
100
AcDbEntity
  8
2
 62
     2
100
AcDbLine
 10
58.59567099999999
 20
-52.541264
 30
0.0
 11
58.59567099999999
 21
-50.040913
 31
0.0
  0
POINT
  5
965
330
25
100
AcDbEntity
  8
2
100
AcDbPoint
 10
61.919171
 20
-41.54126399999999
 30
0.0
  0
POINT
  5
966
330
25
100
AcDbEntity
  8
2
100
AcDbPoint
 10
61.919171
 20
-41.54126399999999
 30
0.0
  0
LINE
  5
967
330
25
100
AcDbEntity
  8
2
100
AcDbLine
 10
61.919171
 20
-43.541264
 30
0.0
 11
55.419171
 21
-43.541264
 31
0.0
  0
LINE
  5
968
330
25
100
AcDbEntity
  8
2
100
AcDbLine
 10
55.419171
 20
-43.541264
 30
0.0
 11
55.419171
 21
-49.319576
 31
0.0
  0
LINE
  5
969
330
25
100
AcDbEntity
  8
2
100
AcDbLine
 10
58.669171
 20
-50.041264
 30
0.0
 11
61.919171
 21
-50.041264
 31
0.0
  0
LINE
  5
96A
330
25
100
AcDbEntity
  8
2
100
AcDbLine
 10
61.919171
 20
-43.541264
 30
0.0
 11
61.919171
 21
-49.319576
 31
0.0
  0
ARC
  5
96B
330
25
100
AcDbEntity
  8
2
100
AcDbCircle
 10
58.669171
 20
-42.36250599999999
 30
0.0
 40
7.678758999999999
100
AcDbArc
 50
244.96034
 51
295.03966
  0
LINE
  5
96C
330
25
100
AcDbEntity
  8
2
100
AcDbLine
 10
61.919171
 20
-43.541264
 30
0.0
 11
68.41917099999999
 21
-43.541264
 31
0.0
  0
LINE
  5
96D
330
25
100
AcDbEntity
  8
2
100
AcDbLine
 10
68.41917099999999
 20
-43.541264
 30
0.0
 11
68.41917099999999
 21
-49.319576
 31
0.0
  0
LINE
  5
96E
330
25
100
AcDbEntity
  8
2
100
AcDbLine
 10
65.16917099999999
 20
-50.041264
 30
0.0
 11
61.919171
 21
-50.041264
 31
0.0
  0
LINE
  5
96F
330
25
100
AcDbEntity
  8
2
100
AcDbLine
 10
61.919171
 20
-43.541264
 30
0.0
 11
61.919171
 21
-49.319576
 31
0.0
  0
ARC
  5
970
330
25
100
AcDbEntity
  8
2
100
AcDbCircle
 10
65.16917099999999
 20
-42.36250599999999
 30
0.0
 40
7.678758999999999
100
AcDbArc
 50
244.96034
 51
295.03966
  0
LINE
  5
971
330
25
100
AcDbEntity
  8
2
100
AcDbLine
 10
54.21917099999999
 20
-41.54126399999999
 30
0.0
 11
54.21917099999999
 21
-43.541264
 31
0.0
  0
LINE
  5
972
330
25
100
AcDbEntity
  8
2
100
AcDbLine
 10
54.21917099999999
 20
-43.541264
 30
0.0
 11
69.61917099999999
 21
-43.541264
 31
0.0
  0
LINE
  5
973
330
25
100
AcDbEntity
  8
2
100
AcDbLine
 10
69.61917099999999
 20
-43.541264
 30
0.0
 11
69.61917099999999
 21
-41.54126399999999
 31
0.0
  0
LINE
  5
974
330
25
100
AcDbEntity
  8
2
100
AcDbLine
 10
69.61917099999999
 20
-41.54126399999999
 30
0.0
 11
54.21917099999999
 21
-41.54126399999999
 31
0.0
  0
LINE
  5
975
330
25
100
AcDbEntity
  8
2
100
AcDbLine
 10
104.916645
 20
-49.135176
 30
0.0
 11
104.916645
 21
-49.319576
 31
0.0
  0
LINE
  5
976
330
25
100
AcDbEntity
  8
2
100
AcDbLine
 10
-292.842159
 20
-27.541323
 30
0.0
 11
-292.842159
 21
-29.541323
 31
0.0
  0
DIMENSION
  5
977
330
25
100
AcDbEntity
  8
5
100
AcDbDimension
  2
*D0
 10
-323.633148
 20
235.24296
 30
0.0
 11
-329.253148
 21
199.72296
 31
0.0
  1
75
 71
     5
 42
-1.0
100
AcDbAlignedDimension
 13
-308.422
 23
160.24296
 33
0.0
 14
-257.842159
 24
235.24296
 34
0.0
 50
90.0
100
AcDbRotatedDimension
  0
DIMENSION
  5
978
330
25
100
AcDbEntity
  8
5
100
AcDbDimension
  2
*D1
 10
-323.633148
 20
160.24296
 30
0.0
 11
-329.253148
 21
137.22296
 31
0.0
  1
50
 71
     5
 42
-1.0
100
AcDbAlignedDimension
 13
-242.842159
 23
110.24296
 33
0.0
 14
-308.422
 24
160.24296
 34
0.0
 50
90.0
100
AcDbRotatedDimension
  0
DIMENSION
  5
979
330
25
100
AcDbEntity
  8
5
100
AcDbDimension
  2
*D2
 10
17.480547
 20
-29.541264
 30
0.0
 11
9.550546999999999
 21
-98.87126399999999
 31
0.0
  1
138
 71
     5
 42
-1.0
100
AcDbAlignedDimension
 13
53.19435099999999
 23
-167.541264
 33
0.0
 14
36.66790800000001
 24
-29.541264
 34
0.0
 50
90.0
100
AcDbRotatedDimension
  0
DIMENSION
  5
97A
330
25
100
AcDbEntity
  8
5
100
AcDbDimension
  2
*D3
 10
108.167908
 20
-259.112793
 30
0.0
 11
86.66790799999999
 21
-254.812793
 31
0.0
  1
43
 71
     5
 42
-1.0
100
AcDbAlignedDimension
 13
65.16790799999999
 23
-211.541264
 33
0.0
 14
108.167908
 24
-211.541264
 34
0.0
100
AcDbRotatedDimension
  0
TEXT
  5
97B
330
25
100
AcDbEntity
  8
5
100
AcDbText
 10
-149.84131
 20
53.47683
 30
0.0
 40
6.599999999999999
  1
200
 41
0.7077777777777778
 72
     5
 11
-137.82931
 21
53.47683
 31
0.0
100
AcDbText
  0
DIMENSION
  5
97C
330
25
100
AcDbEntity
  8
5
100
AcDbDimension
  2
*D4
 10
-42.980699
 20
52.47683000000001
 30
0.0
 11
-142.91131
 21
54.47683000000001
 31
0.0
 71
     5
 42
-1.0
100
AcDbAlignedDimension
 13
-242.841921
 23
4.832536
 33
0.0
 14
-42.980699
 24
29.178993
 34
0.0
100
AcDbRotatedDimension
  0
TEXT
  5
97D
330
25
100
AcDbEntity
  8
5
100
AcDbText
 10
16.480547
 20
-14.932577
 30
0.0
 40
6.599999999999999
  1
66(概略)
 50
90.0
 41
1.00287250285621
 72
     5
 11
16.480547
 21
20.179422
 31
0.0
100
AcDbText
  0
DIMENSION
  5
97E
330
25
100
AcDbEntity
  8
5
100
AcDbDimension
  2
*D5
 10
17.480547
 20
36.63610999999999
 30
0.0
 11
14.980547
 21
3.547423
 31
0.0
 71
     5
 42
-1.0
100
AcDbAlignedDimension
 13
36.66790800000001
 23
-29.541264
 33
0.0
 14
86.66790799999999
 24
36.63610999999999
 34
0.0
 50
90.0
100
AcDbRotatedDimension
  0
TEXT
  5
97F
330
25
100
AcDbEntity
  8
5
100
AcDbText
 10
16.480547
 20
-205.611264
 30
0.0
 40
6.599999999999999
  1
67
 50
90.0
 41
0.6917647058823527
 72
     5
 11
16.480547
 21
-198.219264
 31
0.0
100
AcDbText
  0
DIMENSION
  5
980
330
25
100
AcDbEntity
  8
5
100
AcDbDimension
  2
*D6
 10
17.480547
 20
-167.541264
 30
0.0
 11
14.980547
 21
-200.991264
 31
0.0
 71
     5
 42
-1.0
100
AcDbAlignedDimension
 13
81.66790799999999
 23
-234.441264
 33
0.0
 14
53.19435099999999
 24
-167.541264
 34
0.0
 50
90.0
100
AcDbRotatedDimension
  0
TEXT
  5
981
330
25
100
AcDbEntity
  8
18
100
AcDbText
 10
244.289261
 20
-266.527985
 30
0.0
 40
6.0
  1
1
100
AcDbText
  0
TEXT
  5
982
330
25
100
AcDbEntity
  8
18
100
AcDbText
 10
253.082458
 20
-274.202026
 30
0.0
 40
6.0
  1
2
100
AcDbText
  0
TEXT
  5
983
330
25
100
AcDbEntity
  8
18
100
AcDbText
 10
245.708481
 20
-254.070526
 30
0.0
 40
6.0
  1
標準仕様　JIS 5K,10K
100
AcDbText
  0
TEXT
  5
984
330
25
100
AcDbEntity
  8
18
100
AcDbText
 10
307.2
 20
-272.0
 30
0.0
 40
10.0
  1
D3－03631
100
AcDbText
  0
TEXT
  5
985
330
25
100
AcDbEntity
  8
18
100
AcDbText
 10
364.888448987024
 20
-254.40094
 30
0.0
 40
4.5
  1
'05. 1.25
100
AcDbText
  0
TEXT
  5
986
330
25
100
AcDbEntity
  8
18
100
AcDbText
 10
245.708481
 20
-246.070526
 30
0.0
 40
6.0
  1
700G-1TLS   50A
100
AcDbText
  0
LINE
  5
987
330
25
100
AcDbEntity
  8
20
 62
     3
100
AcDbLine
 10
-360.0
 20
-277.0
 30
0.0
 11
400.0
 21
-277.0
 31
0.0
  0
LINE
  5
988
330
25
100
AcDbEntity
  8
20
 62
     3
100
AcDbLine
 10
-360.0
 20
264.0
 30
0.0
 11
400.0
 21
264.0
 31
0.0
  0
LINE
  5
989
330
25
100
AcDbEntity
  8
20
 62
     3
100
AcDbLine
 10
-360.0
 20
264.0
 30
0.0
 11
-360.0
 21
-277.0
 31
0.0
  0
LINE
  5
98A
330
25
100
AcDbEntity
  8
20
 62
     3
100
AcDbLine
 10
400.0
 20
264.0
 30
0.0
 11
400.0
 21
-277.0
 31
0.0
  0
LINE
  5
98B
330
25
100
AcDbEntity
  8
20
 62
     3
100
AcDbLine
 10
120.0
 20
-277.0
 30
0.0
 11
120.0
 21
-237.0
 31
0.0
  0
LINE
  5
98C
330
25
100
AcDbEntity
  8
20
 62
     3
100
AcDbLine
 10
214.0
 20
-277.0
 30
0.0
 11
214.0
 21
-237.0
 31
0.0
  0
LINE
  5
98D
330
25
100
AcDbEntity
  8
20
100
AcDbLine
 10
214.0
 20
-257.0
 30
0.0
 11
400.0
 21
-257.0
 31
0.0
  0
LINE
  5
98E
330
25
100
AcDbEntity
  8
20
 62
     3
100
AcDbLine
 10
120.0
 20
-237.0
 30
0.0
 11
400.0
 21
-237.0
 31
0.0
  0
LINE
  5
98F
330
25
100
AcDbEntity
  8
20
100
AcDbLine
 10
360.0
 20
-257.0
 30
0.0
 11
360.0
 21
-237.0
 31
0.0
  0
LINE
  5
990
330
25
100
AcDbEntity
  8
20
100
AcDbLine
 10
360.0
 20
-247.0
 30
0.0
 11
400.0
 21
-247.0
 31
0.0
  0
LINE
  5
991
330
25
100
AcDbEntity
  8
20
100
AcDbLine
 10
242.0
 20
-277.0
 30
0.0
 11
242.0
 21
-237.0
 31
0.0
  0
LINE
  5
992
330
25
100
AcDbEntity
  8
20
100
AcDbLine
 10
262.0
 20
-277.0
 30
0.0
 11
262.0
 21
-257.0
 31
0.0
  0
LINE
  5
993
330
25
100
AcDbEntity
  8
20
100
AcDbLine
 10
302.0
 20
-277.0
 30
0.0
 11
302.0
 21
-257.0
 31
0.0
  0
LINE
  5
994
330
25
100
AcDbEntity
  8
20
100
AcDbLine
 10
247.456829
 20
-271.543171
 30
0.0
 11
255.796581
 21
-263.203419
 31
0.0
  0
TEXT
  5
995
330
25
100
AcDbEntity
  8
20
100
AcDbText
 10
264.9228513205888
 20
-264.993835
 30
0.0
 40
3.6
  1
DRAWING No.
100
AcDbText
  0
TEXT
  5
996
330
25
100
AcDbEntity
  8
20
100
AcDbText
 10
267.0
 20
-273.0
 30
0.0
 40
6.0
  1
図　　番
100
AcDbText
  0
TEXT
  5
997
330
25
100
AcDbEntity
  8
20
100
AcDbText
 10
372.0
 20
-244.0
 30
0.0
 40
4.0
  1
DATE
100
AcDbText
  0
TEXT
  5
998
330
25
100
AcDbEntity
  8
20
100
AcDbText
 10
218.002142
 20
-265.922058
 30
0.0
 40
4.0
  1
SCALE
100
AcDbText
  0
TEXT
  5
999
330
25
100
AcDbEntity
  8
20
100
AcDbText
 10
217.325854155853
 20
-273.0
 30
0.0
 40
6.0
  1
尺　度
100
AcDbText
  0
TEXT
  5
99A
330
25
100
AcDbEntity
  8
20
100
AcDbText
 10
216.5931644894182
 20
-244.991769
 30
0.0
 40
4.0
  1
FIG. No.
100
AcDbText
  0
TEXT
  5
99B
330
25
100
AcDbEntity
  8
20
100
AcDbText
 10
217.325854155853
 20
-253.0
 30
0.0
 40
6.0
  1
名　称
100
AcDbText
  0
TEXT
  5
99C
330
25
100
AcDbEntity
  8
20
100
AcDbText
 10
123.4002924090064
 20
-252.940506
 30
0.0
 40
5.0
  1
TOMOE VALVE Co., LTD.
100
AcDbText
  0
TEXT
  5
99D
330
25
100
AcDbEntity
  8
20
100
AcDbText
 10
128.9486902394569
 20
-266.57962
 30
0.0
 40
8.0
  1
巴バルブ株式会社
100
AcDbText
  0
ENDSEC
  0
SECTION
  2
OBJECTS
  0
DICTIONARY
  5
9EF
330
0
100
AcDbDictionary
281
     1
  3
ACAD_COLOR
350
E53
  3
ACAD_GROUP
350
9F0
  3
ACAD_LAYOUT
350
E7B
  3
ACAD_MATERIAL
350
E29
  3
ACAD_MLEADERSTYLE
350
E78
  3
ACAD_MLINESTYLE
350
9F1
  3
ACAD_PLOTSETTINGS
350
E7C
  3
ACAD_PLOTSTYLENAME
350
E27
  3
ACAD_SCALELIST
350
E56
  3
ACAD_TABLESTYLE
350
E54
  3
ACAD_VISUALSTYLE
350
E42
  3
ACDB_RECOMPOSE_DATA
350
E96
  3
AcDbVariableDictionary
350
E8D
  3
DWGPROPS
350
E97
  0
DICTIONARY
  5
E81
330
15
100
AcDbDictionary
280
     1
281
     1
  3
ADSK_XREC_LAYER_RECONCILED
360
E82
  0
DICTIONARY
  5
E83
330
16
100
AcDbDictionary
280
     1
281
     1
  3
ADSK_XREC_LAYER_RECONCILED
360
E84
  0
DICTIONARY
  5
E85
330
17
100
AcDbDictionary
280
     1
281
     1
  3
ADSK_XREC_LAYER_RECONCILED
360
E86
  0
DICTIONARY
  5
E87
330
18
100
AcDbDictionary
280
     1
281
     1
  3
ADSK_XREC_LAYER_RECONCILED
360
E88
  0
DICTIONARY
  5
E89
330
19
100
AcDbDictionary
280
     1
281
     1
  3
ADSK_XREC_LAYER_RECONCILED
360
E8A
  0
DICTIONARY
  5
E8B
330
1A
100
AcDbDictionary
280
     1
281
     1
  3
ADSK_XREC_LAYER_RECONCILED
360
E8C
  0
DICTIONARY
  5
E53
102
{ACAD_REACTORS
330
9EF
102
}
330
9EF
100
AcDbDictionary
281
     1
  0
DICTIONARY
  5
9F0
102
{ACAD_REACTORS
330
9EF
102
}
330
9EF
100
AcDbDictionary
281
     1
  0
DICTIONARY
  5
E7B
102
{ACAD_REACTORS
330
9EF
102
}
330
9EF
100
AcDbDictionary
281
     1
  3
Model
350
E7D
  3
レイアウト1
350
E7E
  0
DICTIONARY
  5
E29
102
{ACAD_REACTORS
330
9EF
102
}
330
9EF
100
AcDbDictionary
281
     1
  3
ByBlock
350
E32
  3
ByLayer
350
E2A
  3
Global
350
E3A
  0
DICTIONARY
  5
E78
102
{ACAD_REACTORS
330
9EF
102
}
330
9EF
100
AcDbDictionary
281
     1
  3
Standard
350
E79
  0
DICTIONARY
  5
9F1
102
{ACAD_REACTORS
330
9EF
102
}
330
9EF
100
AcDbDictionary
281
     1
  3
STANDARD
350
9F2
  0
DICTIONARY
  5
E7C
102
{ACAD_REACTORS
330
9EF
102
}
330
9EF
100
AcDbDictionary
281
     1
  0
ACDBDICTIONARYWDFLT
  5
E27
102
{ACAD_REACTORS
330
9EF
102
}
330
9EF
100
AcDbDictionary
281
     1
  3
Normal
350
E28
100
AcDbDictionaryWithDefault
340
E28
  0
DICTIONARY
  5
E56
102
{ACAD_REACTORS
330
9EF
102
}
330
9EF
100
AcDbDictionary
281
     1
  3
A0
350
E57
  3
A1
350
E58
  3
A2
350
E59
  3
A3
350
E5A
  3
A4
350
E5B
  3
A5
350
E5C
  3
A6
350
E5D
  3
A7
350
E5E
  3
A8
350
E5F
  3
A9
350
E60
  3
B0
350
E61
  3
B1
350
E62
  3
B2
350
E63
  3
B3
350
E64
  3
B4
350
E65
  3
B5
350
E66
  3
B6
350
E67
  3
B7
350
E68
  3
B8
350
E69
  3
B9
350
E6A
  3
C0
350
E6B
  3
C1
350
E6C
  3
C2
350
E6D
  3
C3
350
E6E
  3
C4
350
E6F
  3
C5
350
E70
  3
C6
350
E71
  3
C7
350
E72
  3
C8
350
E73
  3
C9
350
E74
  3
D0
350
E75
  3
D1
350
E76
  3
D2
350
E77
  0
DICTIONARY
  5
E54
102
{ACAD_REACTORS
330
9EF
102
}
330
9EF
100
AcDbDictionary
281
     1
  3
Standard
350
E55
  0
DICTIONARY
  5
E42
102
{ACAD_REACTORS
330
9EF
102
}
330
9EF
100
AcDbDictionary
281
     1
  3
2dWireframe
350
E48
  3
3D Hidden
350
E4A
  3
3dWireframe
350
E49
  3
Basic
350
E47
  3
Brighten
350
E4E
  3
ColorChange
350
E52
  3
Conceptual
350
E4B
  3
Dim
350
E4D
  3
Facepattern
350
E51
  3
Flat
350
E43
  3
FlatWithEdges
350
E44
  3
Gouraud
350
E45
  3
GouraudWithEdges
350
E46
  3
Linepattern
350
E50
  3
Realistic
350
E4C
  3
Thicken
350
E4F
  0
XRECORD
  5
E96
102
{ACAD_REACTORS
330
9EF
102
}
330
9EF
100
AcDbXrecord
280
     1
 90
        1
330
E55
  0
DICTIONARY
  5
E8D
102
{ACAD_REACTORS
330
9EF
102
}
330
9EF
100
AcDbDictionary
281
     1
  3
CANNOSCALE
350
E90
  3
CMLEADERSTYLE
350
E8F
  3
CTABLESTYLE
350
E8E
  3
DIMASSOC
350
E93
  3
INDEXCTL
350
E92
  3
SORTENTS
350
E91
  0
XRECORD
  5
E97
102
{ACAD_REACTORS
330
9EF
102
}
330
9EF
100
AcDbXrecord
280
     1
  1
DWGPROPS COOKIE
  2

  3

  4

  6

  7

  8
jaterika-arisa
  9

300
=
301
=
302
=
303
=
304
=
305
=
306
=
307
=
308
=
309
=
 40
0.0014945601851852
 41
2450695.0
 42
2454943.638838785
  1

 90
        0
  0
XRECORD
  5
E82
102
{ACAD_REACTORS
330
E81
102
}
330
E81
100
AcDbXrecord
280
     1
290
     1
  0
XRECORD
  5
E84
102
{ACAD_REACTORS
330
E83
102
}
330
E83
100
AcDbXrecord
280
     1
290
     1
  0
XRECORD
  5
E86
102
{ACAD_REACTORS
330
E85
102
}
330
E85
100
AcDbXrecord
280
     1
290
     1
  0
XRECORD
  5
E88
102
{ACAD_REACTORS
330
E87
102
}
330
E87
100
AcDbXrecord
280
     1
290
     1
  0
XRECORD
  5
E8A
102
{ACAD_REACTORS
330
E89
102
}
330
E89
100
AcDbXrecord
280
     1
290
     1
  0
XRECORD
  5
E8C
102
{ACAD_REACTORS
330
E8B
102
}
330
E8B
100
AcDbXrecord
280
     1
290
     1
  0
LAYOUT
  5
E7D
102
{ACAD_XDICTIONARY
360
E9C
102
}
102
{ACAD_REACTORS
330
E7B
102
}
330
E7B
100
AcDbPlotSettings
  1

  2
EMP01
  4

  6

 40
0.0
 41
0.0
 42
0.0
 43
0.0
 44
0.0
 45
0.0
 46
0.0
 47
0.0
 48
0.0
 49
0.0
140
0.0
141
0.0
142
1.0
143
1.0
 70
  1712
 72
     0
 73
     0
 74
     0
  7

 75
     0
147
1.0
148
0.0
149
0.0
100
AcDbLayout
  1
Model
 70
     1
 71
     0
 10
0.0
 20
0.0
 11
12.0
 21
9.0
 12
0.0
 22
0.0
 32
0.0
 14
0.0
 24
0.0
 34
0.0
 15
0.0
 25
0.0
 35
0.0
146
0.0
 13
0.0
 23
0.0
 33
0.0
 16
1.0
 26
0.0
 36
0.0
 17
0.0
 27
1.0
 37
0.0
 76
     0
330
25
331
1B
  0
LAYOUT
  5
E7E
102
{ACAD_XDICTIONARY
360
E9E
102
}
102
{ACAD_REACTORS
330
E7B
102
}
330
E7B
100
AcDbPlotSettings
  1

  2
EMP01
  4

  6

 40
0.0
 41
0.0
 42
0.0
 43
0.0
 44
0.0
 45
0.0
 46
0.0
 47
0.0
 48
0.0
 49
0.0
140
0.0
141
0.0
142
1.0
143
1.0
 70
   688
 72
     0
 73
     0
 74
     5
  7

 75
    16
147
1.0
148
0.0
149
0.0
100
AcDbLayout
  1
レイアウト1
 70
     0
 71
     1
 10
0.0
 20
0.0
 11
12.0
 21
9.0
 12
0.0
 22
0.0
 32
0.0
 14
1.000000000000000E+20
 24
1.000000000000000E+20
 34
1.000000000000000E+20
 15
-1.000000000000000E+20
 25
-1.000000000000000E+20
 35
-1.000000000000000E+20
146
0.0
 13
0.0
 23
0.0
 33
0.0
 16
1.0
 26
0.0
 36
0.0
 17
0.0
 27
1.0
 37
0.0
 76
     0
330
26
  0
MATERIAL
  5
E32
102
{ACAD_XDICTIONARY
360
E33
102
}
102
{ACAD_REACTORS
330
E29
102
}
330
E29
100
AcDbMaterial
  1
ByBlock
 72
     0
 43
0.0208333333333333
 43
0.0
 43
0.0
 43
0.0
 43
0.0
 43
0.0208333333333333
 43
0.0
 43
0.0
 43
0.0
 43
0.0
 43
1.0
 43
0.0
 43
0.0
 43
0.0
 43
0.0
 43
1.0
 77
     0
 47
0.0208333333333333
 47
0.0
 47
0.0
 47
0.0
 47
0.0
 47
0.0208333333333333
 47
0.0
 47
0.0
 47
0.0
 47
0.0
 47
1.0
 47
0.0
 47
0.0
 47
0.0
 47
0.0
 47
1.0
171
     0
 49
0.0208333333333333
 49
0.0
 49
0.0
 49
0.0
 49
0.0
 49
0.0208333333333333
 49
0.0
 49
0.0
 49
0.0
 49
0.0
 49
1.0
 49
0.0
 49
0.0
 49
0.0
 49
0.0
 49
1.0
175
     0
142
0.0208333333333333
142
0.0
142
0.0
142
0.0
142
0.0
142
0.0208333333333333
142
0.0
142
0.0
142
0.0
142
0.0
142
1.0
142
0.0
142
0.0
142
0.0
142
0.0
142
1.0
179
     0
144
0.0208333333333333
144
0.0
144
0.0
144
0.0
144
0.0
144
0.0208333333333333
144
0.0
144
0.0
144
0.0
144
0.0
144
1.0
144
0.0
144
0.0
144
0.0
144
0.0
144
1.0
147
0.0208333333333333
147
0.0
147
0.0
147
0.0
147
0.0
147
0.0208333333333333
147
0.0
147
0.0
147
0.0
147
0.0
147
1.0
147
0.0
147
0.0
147
0.0
147
0.0
147
1.0
  0
MATERIAL
  5
E2A
102
{ACAD_XDICTIONARY
360
E2B
102
}
102
{ACAD_REACTORS
330
E29
102
}
330
E29
100
AcDbMaterial
  1
ByLayer
 72
     0
 43
0.0208333333333333
 43
0.0
 43
0.0
 43
0.0
 43
0.0
 43
0.0208333333333333
 43
0.0
 43
0.0
 43
0.0
 43
0.0
 43
1.0
 43
0.0
 43
0.0
 43
0.0
 43
0.0
 43
1.0
 77
     0
 47
0.0208333333333333
 47
0.0
 47
0.0
 47
0.0
 47
0.0
 47
0.0208333333333333
 47
0.0
 47
0.0
 47
0.0
 47
0.0
 47
1.0
 47
0.0
 47
0.0
 47
0.0
 47
0.0
 47
1.0
171
     0
 49
0.0208333333333333
 49
0.0
 49
0.0
 49
0.0
 49
0.0
 49
0.0208333333333333
 49
0.0
 49
0.0
 49
0.0
 49
0.0
 49
1.0
 49
0.0
 49
0.0
 49
0.0
 49
0.0
 49
1.0
175
     0
142
0.0208333333333333
142
0.0
142
0.0
142
0.0
142
0.0
142
0.0208333333333333
142
0.0
142
0.0
142
0.0
142
0.0
142
1.0
142
0.0
142
0.0
142
0.0
142
0.0
142
1.0
179
     0
144
0.0208333333333333
144
0.0
144
0.0
144
0.0
144
0.0
144
0.0208333333333333
144
0.0
144
0.0
144
0.0
144
0.0
144
1.0
144
0.0
144
0.0
144
0.0
144
0.0
144
1.0
147
0.0208333333333333
147
0.0
147
0.0
147
0.0
147
0.0
147
0.0208333333333333
147
0.0
147
0.0
147
0.0
147
0.0
147
1.0
147
0.0
147
0.0
147
0.0
147
0.0
147
1.0
  0
MATERIAL
  5
E3A
102
{ACAD_XDICTIONARY
360
E3B
102
}
102
{ACAD_REACTORS
330
E29
102
}
330
E29
100
AcDbMaterial
  1
Global
 72
     0
 43
0.0208333333333333
 43
0.0
 43
0.0
 43
0.0
 43
0.0
 43
0.0208333333333333
 43
0.0
 43
0.0
 43
0.0
 43
0.0
 43
1.0
 43
0.0
 43
0.0
 43
0.0
 43
0.0
 43
1.0
 77
     0
 47
0.0208333333333333
 47
0.0
 47
0.0
 47
0.0
 47
0.0
 47
0.0208333333333333
 47
0.0
 47
0.0
 47
0.0
 47
0.0
 47
1.0
 47
0.0
 47
0.0
 47
0.0
 47
0.0
 47
1.0
171
     0
 49
0.0208333333333333
 49
0.0
 49
0.0
 49
0.0
 49
0.0
 49
0.0208333333333333
 49
0.0
 49
0.0
 49
0.0
 49
0.0
 49
1.0
 49
0.0
 49
0.0
 49
0.0
 49
0.0
 49
1.0
175
     0
142
0.0208333333333333
142
0.0
142
0.0
142
0.0
142
0.0
142
0.0208333333333333
142
0.0
142
0.0
142
0.0
142
0.0
142
1.0
142
0.0
142
0.0
142
0.0
142
0.0
142
1.0
179
     0
144
0.0208333333333333
144
0.0
144
0.0
144
0.0
144
0.0
144
0.0208333333333333
144
0.0
144
0.0
144
0.0
144
0.0
144
1.0
144
0.0
144
0.0
144
0.0
144
0.0
144
1.0
147
0.0208333333333333
147
0.0
147
0.0
147
0.0
147
0.0
147
0.0208333333333333
147
0.0
147
0.0
147
0.0
147
0.0
147
1.0
147
0.0
147
0.0
147
0.0
147
0.0
147
1.0
  0
MLEADERSTYLE
  5
E79
102
{ACAD_REACTORS
330
E78
102
}
330
E78
100
AcDbMLeaderStyle
170
     2
171
     1
172
     0
 90
        2
 40
0.0
 41
0.0
173
     1
 91
-1056964608
340
C
 92
       -2
290
     1
 42
0.09
291
     1
 43
0.36
  3
Standard
 44
0.18
300

342
1D
174
     1
178
     6
175
     1
176
     0
 93
-1056964608
 45
0.18
292
     0
297
     0
 46
0.18
 94
-1056964608
 47
1.0
 49
1.0
140
1.0
293
     1
141
0.0
294
     1
177
     0
142
1.0
295
     0
296
     0
143
0.125
1001
ACAD_MLEADERVER
1070
     2
  0
MLINESTYLE
  5
9F2
102
{ACAD_REACTORS
330
9F1
102
}
330
9F1
100
AcDbMlineStyle
  2
STANDARD
 70
     0
  3

 62
     0
 51
90.0
 52
90.0
 71
     2
 49
0.5
 62
   256
  6
BYLAYER
 49
-0.5
 62
   256
  6
BYLAYER
  0
ACDBPLACEHOLDER
  5
E28
102
{ACAD_REACTORS
330
E27
102
}
330
E27
  0
SCALE
  5
E57
102
{ACAD_REACTORS
330
E56
102
}
330
E56
100
AcDbScale
 70
     0
300
1:1
140
1.0
141
1.0
290
     1
  0
SCALE
  5
E58
102
{ACAD_REACTORS
330
E56
102
}
330
E56
100
AcDbScale
 70
     0
300
1:2
140
1.0
141
2.0
290
     0
  0
SCALE
  5
E59
102
{ACAD_REACTORS
330
E56
102
}
330
E56
100
AcDbScale
 70
     0
300
1:4
140
1.0
141
4.0
290
     0
  0
SCALE
  5
E5A
102
{ACAD_REACTORS
330
E56
102
}
330
E56
100
AcDbScale
 70
     0
300
1:5
140
1.0
141
5.0
290
     0
  0
SCALE
  5
E5B
102
{ACAD_REACTORS
330
E56
102
}
330
E56
100
AcDbScale
 70
     0
300
1:8
140
1.0
141
8.0
290
     0
  0
SCALE
  5
E5C
102
{ACAD_REACTORS
330
E56
102
}
330
E56
100
AcDbScale
 70
     0
300
1:10
140
1.0
141
10.0
290
     0
  0
SCALE
  5
E5D
102
{ACAD_REACTORS
330
E56
102
}
330
E56
100
AcDbScale
 70
     0
300
1:16
140
1.0
141
16.0
290
     0
  0
SCALE
  5
E5E
102
{ACAD_REACTORS
330
E56
102
}
330
E56
100
AcDbScale
 70
     0
300
1:20
140
1.0
141
20.0
290
     0
  0
SCALE
  5
E5F
102
{ACAD_REACTORS
330
E56
102
}
330
E56
100
AcDbScale
 70
     0
300
1:30
140
1.0
141
30.0
290
     0
  0
SCALE
  5
E60
102
{ACAD_REACTORS
330
E56
102
}
330
E56
100
AcDbScale
 70
     0
300
1:40
140
1.0
141
40.0
290
     0
  0
SCALE
  5
E61
102
{ACAD_REACTORS
330
E56
102
}
330
E56
100
AcDbScale
 70
     0
300
1:50
140
1.0
141
50.0
290
     0
  0
SCALE
  5
E62
102
{ACAD_REACTORS
330
E56
102
}
330
E56
100
AcDbScale
 70
     0
300
1:100
140
1.0
141
100.0
290
     0
  0
SCALE
  5
E63
102
{ACAD_REACTORS
330
E56
102
}
330
E56
100
AcDbScale
 70
     0
300
2:1
140
2.0
141
1.0
290
     0
  0
SCALE
  5
E64
102
{ACAD_REACTORS
330
E56
102
}
330
E56
100
AcDbScale
 70
     0
300
4:1
140
4.0
141
1.0
290
     0
  0
SCALE
  5
E65
102
{ACAD_REACTORS
330
E56
102
}
330
E56
100
AcDbScale
 70
     0
300
8:1
140
8.0
141
1.0
290
     0
  0
SCALE
  5
E66
102
{ACAD_REACTORS
330
E56
102
}
330
E56
100
AcDbScale
 70
     0
300
10:1
140
10.0
141
1.0
290
     0
  0
SCALE
  5
E67
102
{ACAD_REACTORS
330
E56
102
}
330
E56
100
AcDbScale
 70
     0
300
100:1
140
100.0
141
1.0
290
     0
  0
SCALE
  5
E68
102
{ACAD_REACTORS
330
E56
102
}
330
E56
100
AcDbScale
 70
     0
300
1/128" = 1'-0"
140
0.0078125
141
12.0
290
     0
  0
SCALE
  5
E69
102
{ACAD_REACTORS
330
E56
102
}
330
E56
100
AcDbScale
 70
     0
300
1/64" = 1'-0"
140
0.015625
141
12.0
290
     0
  0
SCALE
  5
E6A
102
{ACAD_REACTORS
330
E56
102
}
330
E56
100
AcDbScale
 70
     0
300
1/32" = 1'-0"
140
0.03125
141
12.0
290
     0
  0
SCALE
  5
E6B
102
{ACAD_REACTORS
330
E56
102
}
330
E56
100
AcDbScale
 70
     0
300
1/16" = 1'-0"
140
0.0625
141
12.0
290
     0
  0
SCALE
  5
E6C
102
{ACAD_REACTORS
330
E56
102
}
330
E56
100
AcDbScale
 70
     0
300
3/32" = 1'-0"
140
0.09375
141
12.0
290
     0
  0
SCALE
  5
E6D
102
{ACAD_REACTORS
330
E56
102
}
330
E56
100
AcDbScale
 70
     0
300
1/8" = 1'-0"
140
0.125
141
12.0
290
     0
  0
SCALE
  5
E6E
102
{ACAD_REACTORS
330
E56
102
}
330
E56
100
AcDbScale
 70
     0
300
3/16" = 1'-0"
140
0.1875
141
12.0
290
     0
  0
SCALE
  5
E6F
102
{ACAD_REACTORS
330
E56
102
}
330
E56
100
AcDbScale
 70
     0
300
1/4" = 1'-0"
140
0.25
141
12.0
290
     0
  0
SCALE
  5
E70
102
{ACAD_REACTORS
330
E56
102
}
330
E56
100
AcDbScale
 70
     0
300
3/8" = 1'-0"
140
0.375
141
12.0
290
     0
  0
SCALE
  5
E71
102
{ACAD_REACTORS
330
E56
102
}
330
E56
100
AcDbScale
 70
     0
300
1/2" = 1'-0"
140
0.5
141
12.0
290
     0
  0
SCALE
  5
E72
102
{ACAD_REACTORS
330
E56
102
}
330
E56
100
AcDbScale
 70
     0
300
3/4" = 1'-0"
140
0.75
141
12.0
290
     0
  0
SCALE
  5
E73
102
{ACAD_REACTORS
330
E56
102
}
330
E56
100
AcDbScale
 70
     0
300
1" = 1'-0"
140
1.0
141
12.0
290
     0
  0
SCALE
  5
E74
102
{ACAD_REACTORS
330
E56
102
}
330
E56
100
AcDbScale
 70
     0
300
1-1/2" = 1'-0"
140
1.5
141
12.0
290
     0
  0
SCALE
  5
E75
102
{ACAD_REACTORS
330
E56
102
}
330
E56
100
AcDbScale
 70
     0
300
3" = 1'-0"
140
3.0
141
12.0
290
     0
  0
SCALE
  5
E76
102
{ACAD_REACTORS
330
E56
102
}
330
E56
100
AcDbScale
 70
     0
300
6" = 1'-0"
140
6.0
141
12.0
290
     0
  0
SCALE
  5
E77
102
{ACAD_REACTORS
330
E56
102
}
330
E56
100
AcDbScale
 70
     0
300
1'-0" = 1'-0"
140
12.0
141
12.0
290
     0
  0
TABLESTYLE
  5
E55
102
{ACAD_XDICTIONARY
360
E94
102
}
102
{ACAD_REACTORS
330
E54
102
}
330
E54
100
AcDbTableStyle
  3
Standard
 70
     0
 71
     0
 40
0.06
 41
0.06
280
     0
281
     0
  7
STANDARD
140
0.18
170
     2
 62
     0
 63
     7
283
     0
274
    -2
284
     1
 64
     0
275
    -2
285
     1
 65
     0
276
    -2
286
     1
 66
     0
277
    -2
287
     1
 67
     0
278
    -2
288
     1
 68
     0
279
    -2
289
     1
 69
     0
  7
STANDARD
140
0.25
170
     5
 62
     0
 63
     7
283
     0
274
    -2
284
     1
 64
     0
275
    -2
285
     1
 65
     0
276
    -2
286
     1
 66
     0
277
    -2
287
     1
 67
     0
278
    -2
288
     1
 68
     0
279
    -2
289
     1
 69
     0
  7
STANDARD
140
0.18
170
     5
 62
     0
 63
     7
283
     0
274
    -2
284
     1
 64
     0
275
    -2
285
     1
 65
     0
276
    -2
286
     1
 66
     0
277
    -2
287
     1
 67
     0
278
    -2
288
     1
 68
     0
279
    -2
289
     1
 69
     0
  0
VISUALSTYLE
  5
E48
102
{ACAD_REACTORS
330
E42
102
}
330
E42
100
AcDbVisualStyle
  2
2dWireframe
 70
     4
 71
     0
 72
     2
 73
     0
 90
        0
 40
-0.6
 41
-30.0
 62
     5
 63
     7
 74
     1
 91
        4
 64
     7
 65
   257
 75
     1
175
     1
 42
1.0
 92
        0
 66
   257
 43
1.0
 76
     1
 77
     6
 78
     2
 67
     7
 79
     5
170
     0
171
     0
290
     0
174
     0
 93
        1
 44
0.0
173
     0
291
     0
 45
0.0
1001
ACAD
1000
AcDbSavedByObjectVersion
1070
     0
  0
VISUALSTYLE
  5
E4A
102
{ACAD_REACTORS
330
E42
102
}
330
E42
100
AcDbVisualStyle
  2
3D Hidden
 70
     6
 71
     1
 72
     2
 73
     2
 90
        0
 40
-0.6
 41
-30.0
 62
     5
 63
     7
 74
     2
 91
        2
 64
     7
 65
   257
 75
     2
175
     1
 42
40.0
 92
        0
 66
   257
 43
1.0
 76
     1
 77
     6
 78
     2
 67
     7
 79
     3
170
     0
171
     0
290
     0
174
     0
 93
        1
 44
0.0
173
     0
291
     0
 45
0.0
1001
ACAD
1000
AcDbSavedByObjectVersion
1070
     0
  0
VISUALSTYLE
  5
E49
102
{ACAD_REACTORS
330
E42
102
}
330
E42
100
AcDbVisualStyle
  2
3dWireframe
 70
     5
 71
     0
 72
     2
 73
     0
 90
        0
 40
-0.6
 41
-30.0
 62
     5
 63
     7
 74
     1
 91
        4
 64
     7
 65
   257
 75
     1
175
     1
 42
1.0
 92
        0
 66
   257
 43
1.0
 76
     1
 77
     6
 78
     2
 67
     7
 79
     5
170
     0
171
     0
290
     0
174
     0
 93
        1
 44
0.0
173
     0
291
     0
 45
0.0
1001
ACAD
1000
AcDbSavedByObjectVersion
1070
     0
  0
VISUALSTYLE
  5
E47
102
{ACAD_REACTORS
330
E42
102
}
330
E42
100
AcDbVisualStyle
  2
Basic
 70
     7
 71
     1
 72
     0
 73
     1
 90
        0
 40
-0.6
 41
-30.0
 62
     5
 63
     7
 74
     0
 91
        4
 64
     7
 65
   257
 75
     1
175
     1
 42
1.0
 92
        8
 66
     7
 43
1.0
 76
     1
 77
     6
 78
     2
 67
     7
 79
     5
170
     0
171
     0
290
     0
174
     0
 93
        1
 44
0.0
173
     0
291
     1
 45
0.0
1001
ACAD
1000
AcDbSavedByObjectVersion
1070
     0
  0
VISUALSTYLE
  5
E4E
102
{ACAD_REACTORS
330
E42
102
}
330
E42
100
AcDbVisualStyle
  2
Brighten
 70
    12
 71
     2
 72
     2
 73
     0
 90
        0
 40
-0.6
 41
-30.0
 62
     5
 63
     7
 74
     1
 91
        4
 64
     7
 65
   257
 75
     1
175
     1
 42
1.0
 92
        8
 66
     7
 43
1.0
 76
     1
 77
     6
 78
     2
 67
     7
 79
     5
170
     0
171
     0
290
     0
174
     0
 93
        1
 44
50.0
173
     0
291
     1
 45
0.0
1001
ACAD
1000
AcDbSavedByObjectVersion
1070
     0
  0
VISUALSTYLE
  5
E52
102
{ACAD_REACTORS
330
E42
102
}
330
E42
100
AcDbVisualStyle
  2
ColorChange
 70
    16
 71
     2
 72
     2
 73
     3
 90
        0
 40
-0.6
 41
-30.0
 62
     5
 63
     8
 74
     1
 91
        4
 64
     7
 65
   257
 75
     1
175
     1
 42
1.0
 92
        8
 66
     8
 43
1.0
 76
     1
 77
     6
 78
     2
 67
     7
 79
     5
170
     0
171
     0
290
     0
174
     0
 93
        1
 44
0.0
173
     0
291
     1
 45
0.0
1001
ACAD
1000
AcDbSavedByObjectVersion
1070
     0
  0
VISUALSTYLE
  5
E4B
102
{ACAD_REACTORS
330
E42
102
}
330
E42
100
AcDbVisualStyle
  2
Conceptual
 70
     9
 71
     3
 72
     2
 73
     0
 90
        0
 40
-0.6
 41
-30.0
 62
     5
 63
     7
 74
     2
 91
        2
 64
     7
 65
   257
 75
     1
175
     1
 42
40.0
 92
        8
 66
     7
 43
1.0
 76
     1
 77
     6
 78
     2
 67
     7
 79
     3
170
     0
171
     0
290
     0
174
     0
 93
        1
 44
0.0
173
     0
291
     0
 45
0.0
1001
ACAD
1000
AcDbSavedByObjectVersion
1070
     0
  0
VISUALSTYLE
  5
E4D
102
{ACAD_REACTORS
330
E42
102
}
330
E42
100
AcDbVisualStyle
  2
Dim
 70
    11
 71
     2
 72
     2
 73
     0
 90
        0
 40
-0.6
 41
-30.0
 62
     5
 63
     7
 74
     1
 91
        4
 64
     7
 65
   257
 75
     1
175
     1
 42
1.0
 92
        8
 66
     7
 43
1.0
 76
     1
 77
     6
 78
     2
 67
     7
 79
     5
170
     0
171
     0
290
     0
174
     0
 93
        1
 44
-50.0
173
     0
291
     1
 45
0.0
1001
ACAD
1000
AcDbSavedByObjectVersion
1070
     0
  0
VISUALSTYLE
  5
E51
102
{ACAD_REACTORS
330
E42
102
}
330
E42
100
AcDbVisualStyle
  2
Facepattern
 70
    15
 71
     2
 72
     2
 73
     0
 90
        0
 40
-0.6
 41
-30.0
 62
     5
 63
     7
 74
     1
 91
        4
 64
     7
 65
   257
 75
     1
175
     1
 42
1.0
 92
        8
 66
     7
 43
1.0
 76
     1
 77
     6
 78
     2
 67
     7
 79
     5
170
     0
171
     0
290
     0
174
     0
 93
        1
 44
0.0
173
     0
291
     1
 45
0.0
1001
ACAD
1000
AcDbSavedByObjectVersion
1070
     0
  0
VISUALSTYLE
  5
E43
102
{ACAD_REACTORS
330
E42
102
}
330
E42
100
AcDbVisualStyle
  2
Flat
 70
     0
 71
     2
 72
     1
 73
     1
 90
        2
 40
-0.6
 41
30.0
 62
     5
 63
     7
 74
     0
 91
        4
 64
     7
 65
   257
 75
     1
175
     1
 42
1.0
 92
        8
 66
     7
 43
1.0
 76
     1
 77
     6
 78
     2
 67
     7
 79
     5
170
     0
171
     0
290
     0
174
     0
 93
       13
 44
0.0
173
     0
291
     1
 45
0.0
1001
ACAD
1000
AcDbSavedByObjectVersion
1070
     0
  0
VISUALSTYLE
  5
E44
102
{ACAD_REACTORS
330
E42
102
}
330
E42
100
AcDbVisualStyle
  2
FlatWithEdges
 70
     1
 71
     2
 72
     1
 73
     1
 90
        2
 40
-0.6
 41
30.0
 62
     5
 63
     7
 74
     1
 91
        4
 64
     7
 65
   257
 75
     1
175
     1
 42
1.0
 92
        0
 66
   257
 43
1.0
 76
     1
 77
     6
 78
     2
 67
     7
 79
     5
170
     0
171
     0
290
     0
174
     0
 93
       13
 44
0.0
173
     0
291
     1
 45
0.0
1001
ACAD
1000
AcDbSavedByObjectVersion
1070
     0
  0
VISUALSTYLE
  5
E45
102
{ACAD_REACTORS
330
E42
102
}
330
E42
100
AcDbVisualStyle
  2
Gouraud
 70
     2
 71
     2
 72
     2
 73
     1
 90
        2
 40
-0.6
 41
30.0
 62
     5
 63
     7
 74
     0
 91
        4
 64
     7
 65
   257
 75
     1
175
     1
 42
1.0
 92
        0
 66
     7
 43
1.0
 76
     1
 77
     6
 78
     2
 67
     7
 79
     5
170
     0
171
     0
290
     0
174
     0
 93
       13
 44
0.0
173
     0
291
     1
 45
0.0
1001
ACAD
1000
AcDbSavedByObjectVersion
1070
     0
  0
VISUALSTYLE
  5
E46
102
{ACAD_REACTORS
330
E42
102
}
330
E42
100
AcDbVisualStyle
  2
GouraudWithEdges
 70
     3
 71
     2
 72
     2
 73
     1
 90
        2
 40
-0.6
 41
30.0
 62
     5
 63
     7
 74
     1
 91
        4
 64
     7
 65
   257
 75
     1
175
     1
 42
1.0
 92
        0
 66
   257
 43
1.0
 76
     1
 77
     6
 78
     2
 67
     7
 79
     5
170
     0
171
     0
290
     0
174
     0
 93
       13
 44
0.0
173
     0
291
     1
 45
0.0
1001
ACAD
1000
AcDbSavedByObjectVersion
1070
     0
  0
VISUALSTYLE
  5
E50
102
{ACAD_REACTORS
330
E42
102
}
330
E42
100
AcDbVisualStyle
  2
Linepattern
 70
    14
 71
     2
 72
     2
 73
     0
 90
        0
 40
-0.6
 41
-30.0
 62
     5
 63
     7
 74
     1
 91
        4
 64
     7
 65
   257
 75
     7
175
     7
 42
1.0
 92
        8
 66
     7
 43
1.0
 76
     1
 77
     6
 78
     2
 67
     7
 79
     5
170
     0
171
     0
290
     0
174
     0
 93
        1
 44
0.0
173
     0
291
     1
 45
0.0
1001
ACAD
1000
AcDbSavedByObjectVersion
1070
     0
  0
VISUALSTYLE
  5
E4C
102
{ACAD_REACTORS
330
E42
102
}
330
E42
100
AcDbVisualStyle
  2
Realistic
 70
     8
 71
     2
 72
     2
 73
     0
 90
        0
 40
-0.6
 41
-30.0
 62
     5
 63
     7
 74
     1
 91
        0
 64
     7
 65
   257
 75
     1
175
     1
 42
1.0
 92
        8
 66
     8
 43
1.0
 76
     1
 77
     6
 78
     2
 67
     7
 79
     5
170
     0
171
     0
290
     0
174
     0
 93
       13
 44
0.0
173
     0
291
     0
 45
0.0
1001
ACAD
1000
AcDbSavedByObjectVersion
1070
     0
  0
VISUALSTYLE
  5
E4F
102
{ACAD_REACTORS
330
E42
102
}
330
E42
100
AcDbVisualStyle
  2
Thicken
 70
    13
 71
     2
 72
     2
 73
     0
 90
        0
 40
-0.6
 41
-30.0
 62
     5
 63
     7
 74
     1
 91
        4
 64
     7
 65
   257
 75
     1
175
     1
 42
1.0
 92
       12
 66
     7
 43
1.0
 76
     1
 77
     6
 78
     2
 67
     7
 79
     5
170
     0
171
     0
290
     0
174
     0
 93
        1
 44
0.0
173
     0
291
     1
 45
0.0
1001
ACAD
1000
AcDbSavedByObjectVersion
1070
     0
  0
DICTIONARYVAR
  5
E90
102
{ACAD_REACTORS
330
E8D
102
}
330
E8D
100
DictionaryVariables
280
     0
  1
1:1
  0
DICTIONARYVAR
  5
E8F
102
{ACAD_REACTORS
330
E8D
102
}
330
E8D
100
DictionaryVariables
280
     0
  1
STANDARD
  0
DICTIONARYVAR
  5
E8E
102
{ACAD_REACTORS
330
E8D
102
}
330
E8D
100
DictionaryVariables
280
     0
  1
STANDARD
  0
DICTIONARYVAR
  5
E93
102
{ACAD_REACTORS
330
E8D
102
}
330
E8D
100
DictionaryVariables
280
     0
  1
1
  0
DICTIONARYVAR
  5
E92
102
{ACAD_REACTORS
330
E8D
102
}
330
E8D
100
DictionaryVariables
280
     0
  1
0
  0
DICTIONARYVAR
  5
E91
102
{ACAD_REACTORS
330
E8D
102
}
330
E8D
100
DictionaryVariables
280
     0
  1
127
  0
DICTIONARY
  5
E9C
330
E7D
100
AcDbDictionary
280
     1
281
     1
  3
ACAD_XREC_ROUNDTRIP
360
E9D
  0
DICTIONARY
  5
E9E
330
E7E
100
AcDbDictionary
280
     1
281
     1
  3
ACAD_XREC_ROUNDTRIP
360
E9F
  0
DICTIONARY
  5
E33
330
E32
100
AcDbDictionary
280
     1
281
     1
  3
ACAD_XREC_ROUNDTRIP
360
E99
  3
BUMPTILE
360
E35
  3
DIFFUSETILE
360
E34
  3
OPACITYTILE
360
E38
  3
REFLECTIONTILE
360
E37
  3
REFRACTIONTILE
360
E39
  3
SPECULARTILE
360
E36
  0
DICTIONARY
  5
E2B
330
E2A
100
AcDbDictionary
280
     1
281
     1
  3
ACAD_XREC_ROUNDTRIP
360
E98
  3
BUMPTILE
360
E2D
  3
DIFFUSETILE
360
E2C
  3
OPACITYTILE
360
E30
  3
REFLECTIONTILE
360
E2F
  3
REFRACTIONTILE
360
E31
  3
SPECULARTILE
360
E2E
  0
DICTIONARY
  5
E3B
330
E3A
100
AcDbDictionary
280
     1
281
     1
  3
ACAD_XREC_ROUNDTRIP
360
E9A
  3
BUMPTILE
360
E3D
  3
DIFFUSETILE
360
E3C
  3
OPACITYTILE
360
E40
  3
REFLECTIONTILE
360
E3F
  3
REFRACTIONTILE
360
E41
  3
SPECULARTILE
360
E3E
  0
DICTIONARY
  5
E94
330
E55
100
AcDbDictionary
280
     1
281
     1
  3
ACAD_ROUNDTRIP_2008_TABLESTYLE_CELLSTYLEMAP
360
E95
  3
ACAD_XREC_ROUNDTRIP
360
E9B
  0
XRECORD
  5
E9D
102
{ACAD_REACTORS
330
E9C
102
}
330
E9C
100
AcDbXrecord
280
     1
102
SHADEPLOT
 70
     0
102
SHADEPLOTRESLEVEL
 70
     2
102
SHADEPLOTCUSTOMDPI
 70
   300
  0
XRECORD
  5
E9F
102
{ACAD_REACTORS
330
E9E
102
}
330
E9E
100
AcDbXrecord
280
     1
102
SHADEPLOT
 70
     0
102
SHADEPLOTRESLEVEL
 70
     2
102
SHADEPLOTCUSTOMDPI
 70
   300
  0
XRECORD
  5
E99
102
{ACAD_REACTORS
330
E33
102
}
330
E33
100
AcDbXrecord
280
     1
102
MATERIAL
148
0.0
149
0.0
149
0.0
 93
        0
 94
      127
282
     0
 72
     0
 77
     0
171
     0
175
     0
179
     0
273
     0
  0
XRECORD
  5
E35
102
{ACAD_REACTORS
330
E33
102
}
330
E33
100
AcDbXrecord
280
     1
270
     1
271
     1
  0
XRECORD
  5
E34
102
{ACAD_REACTORS
330
E33
102
}
330
E33
100
AcDbXrecord
280
     1
270
     1
271
     1
  0
XRECORD
  5
E38
102
{ACAD_REACTORS
330
E33
102
}
330
E33
100
AcDbXrecord
280
     1
270
     1
271
     1
  0
XRECORD
  5
E37
102
{ACAD_REACTORS
330
E33
102
}
330
E33
100
AcDbXrecord
280
     1
270
     1
271
     1
  0
XRECORD
  5
E39
102
{ACAD_REACTORS
330
E33
102
}
330
E33
100
AcDbXrecord
280
     1
270
     1
271
     1
  0
XRECORD
  5
E36
102
{ACAD_REACTORS
330
E33
102
}
330
E33
100
AcDbXrecord
280
     1
270
     1
271
     1
  0
XRECORD
  5
E98
102
{ACAD_REACTORS
330
E2B
102
}
330
E2B
100
AcDbXrecord
280
     1
102
MATERIAL
148
0.0
149
0.0
149
0.0
 93
        0
 94
      127
282
     0
 72
     0
 77
     0
171
     0
175
     0
179
     0
273
     0
  0
XRECORD
  5
E2D
102
{ACAD_REACTORS
330
E2B
102
}
330
E2B
100
AcDbXrecord
280
     1
270
     1
271
     1
  0
XRECORD
  5
E2C
102
{ACAD_REACTORS
330
E2B
102
}
330
E2B
100
AcDbXrecord
280
     1
270
     1
271
     1
  0
XRECORD
  5
E30
102
{ACAD_REACTORS
330
E2B
102
}
330
E2B
100
AcDbXrecord
280
     1
270
     1
271
     1
  0
XRECORD
  5
E2F
102
{ACAD_REACTORS
330
E2B
102
}
330
E2B
100
AcDbXrecord
280
     1
270
     1
271
     1
  0
XRECORD
  5
E31
102
{ACAD_REACTORS
330
E2B
102
}
330
E2B
100
AcDbXrecord
280
     1
270
     1
271
     1
  0
XRECORD
  5
E2E
102
{ACAD_REACTORS
330
E2B
102
}
330
E2B
100
AcDbXrecord
280
     1
270
     1
271
     1
  0
XRECORD
  5
E9A
102
{ACAD_REACTORS
330
E3B
102
}
330
E3B
100
AcDbXrecord
280
     1
102
MATERIAL
148
0.0
149
0.0
149
0.0
 93
        0
 94
      127
282
     0
 72
     0
 77
     0
171
     0
175
     0
179
     0
273
     0
  0
XRECORD
  5
E3D
102
{ACAD_REACTORS
330
E3B
102
}
330
E3B
100
AcDbXrecord
280
     1
270
     1
271
     1
  0
XRECORD
  5
E3C
102
{ACAD_REACTORS
330
E3B
102
}
330
E3B
100
AcDbXrecord
280
     1
270
     1
271
     1
  0
XRECORD
  5
E40
102
{ACAD_REACTORS
330
E3B
102
}
330
E3B
100
AcDbXrecord
280
     1
270
     1
271
     1
  0
XRECORD
  5
E3F
102
{ACAD_REACTORS
330
E3B
102
}
330
E3B
100
AcDbXrecord
280
     1
270
     1
271
     1
  0
XRECORD
  5
E41
102
{ACAD_REACTORS
330
E3B
102
}
330
E3B
100
AcDbXrecord
280
     1
270
     1
271
     1
  0
XRECORD
  5
E3E
102
{ACAD_REACTORS
330
E3B
102
}
330
E3B
100
AcDbXrecord
280
     1
270
     1
271
     1
  0
CELLSTYLEMAP
  5
E95
102
{ACAD_REACTORS
330
E94
102
}
330
E94
100
AcDbCellStyleMap
 90
        3
300
CELLSTYLE
  1
TABLEFORMAT_BEGIN
 90
        5
170
     1
 91
        0
 92
    32768
 62
   257
 93
        1
300
CONTENTFORMAT
  1
CONTENTFORMAT_BEGIN
 90
        0
 91
        0
 92
      512
 93
        0
300

 40
0.0
140
1.0
 94
        5
 62
     0
340
1D
144
0.25
309
CONTENTFORMAT_END
171
     0
 94
        0
309
TABLEFORMAT_END
  1
CELLSTYLE_BEGIN
 90
        1
 91
        1
300
_TITLE
309
CELLSTYLE_END
300
CELLSTYLE
  1
TABLEFORMAT_BEGIN
 90
        5
170
     1
 91
        0
 92
        0
 62
   257
 93
        1
300
CONTENTFORMAT
  1
CONTENTFORMAT_BEGIN
 90
        0
 91
        0
 92
      512
 93
        0
300

 40
0.0
140
1.0
 94
        5
 62
     0
340
1D
144
0.18
309
CONTENTFORMAT_END
171
     0
 94
        0
309
TABLEFORMAT_END
  1
CELLSTYLE_BEGIN
 90
        2
 91
        1
300
_HEADER
309
CELLSTYLE_END
300
CELLSTYLE
  1
TABLEFORMAT_BEGIN
 90
        5
170
     1
 91
        0
 92
        0
 62
   257
 93
        1
300
CONTENTFORMAT
  1
CONTENTFORMAT_BEGIN
 90
        0
 91
        0
 92
      512
 93
        0
300

 40
0.0
140
1.0
 94
        2
 62
     0
340
1D
144
0.18
309
CONTENTFORMAT_END
171
     0
 94
        0
309
TABLEFORMAT_END
  1
CELLSTYLE_BEGIN
 90
        3
 91
        2
300
_DATA
309
CELLSTYLE_END
  0
XRECORD
  5
E9B
102
{ACAD_REACTORS
330
E94
102
}
330
E94
100
AcDbXrecord
280
     1
102
ACAD_ROUNDTRIP_PRE2007_TABLESTYLE
 90
      512
 91
        0
  1

 92
      512
 93
        0
  2

 94
      512
 95
        0
  3

  0
ENDSEC
  0
EOF
