  0
SECTION
  2
HEADER
  9
$ACADVER
  1
AC1015
  9
$ACADMAINTVER
 70
    20
  9
$DWGCODEPAGE
  3
ANSI_932
  9
$INSBASE
 10
0.0
 20
0.0
 30
0.0
  9
$EXTMIN
 10
-380.0591532758835
 20
-270.5416818771998
 30
-0.0000000349181948
  9
$EXTMAX
 10
380.1284436320129
 20
270.5264028560421
 30
0.0000000814935747
  9
$LIMMIN
 10
-380.0
 20
-270.5
  9
$LIMMAX
 10
380.0
 20
270.5
  9
$ORTHOMODE
 70
     0
  9
$REGENMODE
 70
     1
  9
$FILLMODE
 70
     1
  9
$QTEXTMODE
 70
     0
  9
$MIRRTEXT
 70
     1
  9
$LTSCALE
 40
3.0
  9
$ATTMODE
 70
     1
  9
$TEXTSIZE
 40
1.0
  9
$TRACEWID
 40
0.05
  9
$TEXTSTYLE
  7
STANDARD
  9
$CLAYER
  8
0
  9
$CELTYPE
  6
CONTINUOUS
  9
$CECOLOR
 62
   256
  9
$CELTSCALE
 40
1.0
  9
$DISPSILH
 70
     0
  9
$DIMSCALE
 40
2.0
  9
$DIMASZ
 40
2.0
  9
$DIMEXO
 40
1.0
  9
$DIMDLI
 40
0.38
  9
$DIMRND
 40
0.0
  9
$DIMDLE
 40
0.0
  9
$DIMEXE
 40
1.0
  9
$DIMTP
 40
0.0
  9
$DIMTM
 40
0.0
  9
$DIMTXT
 40
3.299999999999998
  9
$DIMCEN
 40
0.09
  9
$DIMTSZ
 40
0.0
  9
$DIMTOL
 70
     0
  9
$DIMLIM
 70
     0
  9
$DIMTIH
 70
     0
  9
$DIMTOH
 70
     0
  9
$DIMSE1
 70
     0
  9
$DIMSE2
 70
     0
  9
$DIMTAD
 70
     1
  9
$DIMZIN
 70
     8
  9
$DIMBLK
  1
Closed
  9
$DIMASO
 70
     1
  9
$DIMSHO
 70
     1
  9
$DIMPOST
  1

  9
$DIMAPOST
  1

  9
$DIMALT
 70
     0
  9
$DIMALTD
 70
     2
  9
$DIMALTF
 40
25.4
  9
$DIMLFAC
 40
1.0
  9
$DIMTOFL
 70
     1
  9
$DIMTVP
 40
0.0
  9
$DIMTIX
 70
     0
  9
$DIMSOXD
 70
     0
  9
$DIMSAH
 70
     0
  9
$DIMBLK1
  1

  9
$DIMBLK2
  1

  9
$DIMSTYLE
  2
STANDARD
  9
$DIMCLRD
 70
   256
  9
$DIMCLRE
 70
   256
  9
$DIMCLRT
 70
     2
  9
$DIMTFAC
 40
1.0
  9
$DIMGAP
 40
1.0
  9
$DIMJUST
 70
     0
  9
$DIMSD1
 70
     0
  9
$DIMSD2
 70
     0
  9
$DIMTOLJ
 70
     1
  9
$DIMTZIN
 70
     0
  9
$DIMALTZ
 70
     0
  9
$DIMALTTZ
 70
     0
  9
$DIMUPT
 70
     0
  9
$DIMDEC
 70
     2
  9
$DIMTDEC
 70
     2
  9
$DIMALTU
 70
     2
  9
$DIMALTTD
 70
     2
  9
$DIMTXSTY
  7
STANDARD
  9
$DIMAUNIT
 70
     0
  9
$DIMADEC
 70
     0
  9
$DIMALTRND
 40
0.0
  9
$DIMAZIN
 70
     2
  9
$DIMDSEP
 70
    46
  9
$DIMATFIT
 70
     3
  9
$DIMFRAC
 70
     0
  9
$DIMLDRBLK
  1
Closed
  9
$DIMLUNIT
 70
     2
  9
$DIMLWD
 70
    -1
  9
$DIMLWE
 70
    -1
  9
$DIMTMOVE
 70
     0
  9
$LUNITS
 70
     2
  9
$LUPREC
 70
     4
  9
$SKETCHINC
 40
0.1
  9
$FILLETRAD
 40
0.0
  9
$AUNITS
 70
     0
  9
$AUPREC
 70
     0
  9
$MENU
  1
acad
  9
$ELEVATION
 40
0.0
  9
$PELEVATION
 40
0.0
  9
$THICKNESS
 40
0.0
  9
$LIMCHECK
 70
     0
  9
$CHAMFERA
 40
0.0
  9
$CHAMFERB
 40
0.0
  9
$CHAMFERC
 40
0.0
  9
$CHAMFERD
 40
0.0
  9
$SKPOLY
 70
     0
  9
$TDCREATE
 40
2454113.000000000
  9
$TDUCREATE
 40
2454112.625000000
  9
$TDUPDATE
 40
2455707.703417743
  9
$TDUUPDATE
 40
2455707.328417743
  9
$TDINDWG
 40
0.1773840509
  9
$TDUSRTIMER
 40
0.1773826042
  9
$USRTIMER
 70
     1
  9
$ANGBASE
 50
0.0
  9
$ANGDIR
 70
     0
  9
$PDMODE
 70
     0
  9
$PDSIZE
 40
0.0
  9
$PLINEWID
 40
0.0
  9
$SPLFRAME
 70
     0
  9
$SPLINETYPE
 70
     6
  9
$SPLINESEGS
 70
     8
  9
$HANDSEED
  5
4EBC
  9
$SURFTAB1
 70
     6
  9
$SURFTAB2
 70
     6
  9
$SURFTYPE
 70
     6
  9
$SURFU
 70
     6
  9
$SURFV
 70
     6
  9
$UCSBASE
  2

  9
$UCSNAME
  2

  9
$UCSORG
 10
0.0
 20
0.0
 30
0.0
  9
$UCSXDIR
 10
1.0
 20
0.0
 30
0.0
  9
$UCSYDIR
 10
0.0
 20
1.0
 30
0.0
  9
$UCSORTHOREF
  2

  9
$UCSORTHOVIEW
 70
     0
  9
$UCSORGTOP
 10
0.0
 20
0.0
 30
0.0
  9
$UCSORGBOTTOM
 10
0.0
 20
0.0
 30
0.0
  9
$UCSORGLEFT
 10
0.0
 20
0.0
 30
0.0
  9
$UCSORGRIGHT
 10
0.0
 20
0.0
 30
0.0
  9
$UCSORGFRONT
 10
0.0
 20
0.0
 30
0.0
  9
$UCSORGBACK
 10
0.0
 20
0.0
 30
0.0
  9
$PUCSBASE
  2

  9
$PUCSNAME
  2

  9
$PUCSORG
 10
0.0
 20
0.0
 30
0.0
  9
$PUCSXDIR
 10
1.0
 20
0.0
 30
0.0
  9
$PUCSYDIR
 10
0.0
 20
1.0
 30
0.0
  9
$PUCSORTHOREF
  2

  9
$PUCSORTHOVIEW
 70
     0
  9
$PUCSORGTOP
 10
0.0
 20
0.0
 30
0.0
  9
$PUCSORGBOTTOM
 10
0.0
 20
0.0
 30
0.0
  9
$PUCSORGLEFT
 10
0.0
 20
0.0
 30
0.0
  9
$PUCSORGRIGHT
 10
0.0
 20
0.0
 30
0.0
  9
$PUCSORGFRONT
 10
0.0
 20
0.0
 30
0.0
  9
$PUCSORGBACK
 10
0.0
 20
0.0
 30
0.0
  9
$USERI1
 70
     0
  9
$USERI2
 70
     0
  9
$USERI3
 70
     0
  9
$USERI4
 70
     0
  9
$USERI5
 70
     0
  9
$USERR1
 40
0.0
  9
$USERR2
 40
0.0
  9
$USERR3
 40
0.0
  9
$USERR4
 40
0.0
  9
$USERR5
 40
0.0
  9
$WORLDVIEW
 70
     1
  9
$SHADEDGE
 70
     3
  9
$SHADEDIF
 70
    70
  9
$TILEMODE
 70
     1
  9
$MAXACTVP
 70
    16
  9
$PINSBASE
 10
0.0
 20
0.0
 30
0.0
  9
$PLIMCHECK
 70
     0
  9
$PEXTMIN
 10
1.000000000000000E+20
 20
1.000000000000000E+20
 30
1.000000000000000E+20
  9
$PEXTMAX
 10
-1.000000000000000E+20
 20
-1.000000000000000E+20
 30
-1.000000000000000E+20
  9
$PLIMMIN
 10
0.0
 20
0.0
  9
$PLIMMAX
 10
12.0
 20
9.0
  9
$UNITMODE
 70
     0
  9
$VISRETAIN
 70
     0
  9
$PLINEGEN
 70
     1
  9
$PSLTSCALE
 70
     0
  9
$TREEDEPTH
 70
  3020
  9
$CMLSTYLE
  2
STANDARD
  9
$CMLJUST
 70
     0
  9
$CMLSCALE
 40
1.0
  9
$PROXYGRAPHICS
 70
     1
  9
$MEASUREMENT
 70
     0
  9
$CELWEIGHT
370
    -1
  9
$ENDCAPS
280
     0
  9
$JOINSTYLE
280
     0
  9
$LWDISPLAY
290
     0
  9
$INSUNITS
 70
     0
  9
$HYPERLINKBASE
  1

  9
$STYLESHEET
  1
monochrome.ctb
  9
$XEDIT
290
     1
  9
$CEPSNTYPE
380
     0
  9
$PSTYLEMODE
290
     1
  9
$FINGERPRINTGUID
  2
{AC9DE233-7BCF-487F-974B-84F4F813A19A}
  9
$VERSIONGUID
  2
{5D4DB14A-5FCF-48C9-8AC3-791109C1DF8D}
  9
$EXTNAMES
290
     1
  9
$PSVPSCALE
 40
0.0
  9
$OLESTARTUP
290
     0
  0
ENDSEC
  0
SECTION
  2
CLASSES
  0
CLASS
  1
IMAGE
  2
AcDbRasterImage
  3
ISM
 90
    34943
280
     0
281
     1
  0
CLASS
  1
DICTIONARYVAR
  2
AcDbDictionaryVar
  3
ObjectDBX Classes
 90
        0
280
     0
281
     0
  0
CLASS
  1
RASTERVARIABLES
  2
AcDbRasterVariables
  3
ISM
 90
    32768
280
     0
281
     0
  0
CLASS
  1
IMAGEDEF
  2
AcDbRasterImageDef
  3
ISM
 90
    32768
280
     0
281
     0
  0
CLASS
  1
IMAGEDEF_REACTOR
  2
AcDbRasterImageDefReactor
  3
ISM
 90
    32769
280
     0
281
     0
  0
CLASS
  1
IDBUFFER
  2
AcDbIdBuffer
  3
ObjectDBX Classes
 90
    32768
280
     0
281
     0
  0
CLASS
  1
SPATIAL_FILTER
  2
AcDbSpatialFilter
  3
ObjectDBX Classes
 90
    32768
280
     0
281
     0
  0
CLASS
  1
SORTENTSTABLE
  2
AcDbSortentsTable
  3
ObjectDBX Classes
 90
    32768
280
     0
281
     0
  0
CLASS
  1
LAYER_INDEX
  2
AcDbLayerIndex
  3
ObjectDBX Classes
 90
    32768
280
     0
281
     0
  0
CLASS
  1
SPATIAL_INDEX
  2
AcDbSpatialIndex
  3
ObjectDBX Classes
 90
    32768
280
     0
281
     0
  0
CLASS
  1
OBJECT_PTR
  2
CAseDLPNTableRecord
  3
"ASE-LPNTableRecord"
 90
    32769
280
     0
281
     0
  0
CLASS
  1
LAYOUT
  2
AcDbLayout
  3
ObjectDBX Classes
 90
        0
280
     0
281
     0
  0
CLASS
  1
PLOTSETTINGS
  2
AcDbPlotSettings
  3
ObjectDBX Classes
 90
    32768
280
     0
281
     0
  0
CLASS
  1
ACDBDICTIONARYWDFLT
  2
AcDbDictionaryWithDefault
  3
ObjectDBX Classes
 90
        0
280
     0
281
     0
  0
CLASS
  1
ACDBPLACEHOLDER
  2
AcDbPlaceHolder
  3
ObjectDBX Classes
 90
        0
280
     0
281
     0
  0
CLASS
  1
VBA_PROJECT
  2
AcDbVbaProject
  3
acad
 90
    32768
280
     0
281
     0
  0
CLASS
  1
WIPEOUT
  2
AcDbWipeout
  3
"WipeOut|Product Desc: Object Enabler for WipeOut entity                        |Company: Autodesk, Inc.                        |WEB Address: www.autodesk.com"
 90
    34943
280
     0
281
     1
  0
CLASS
  1
WIPEOUTVARIABLES
  2
AcDbWipeoutVariables
  3
"WipeOut|Product Desc:     WipeOut Dbx Application|Company:          Autodesk, Inc.|WEB Address:      www.autodesk.com"
 90
    32768
280
     0
281
     0
  0
CLASS
  1
RTEXT
  2
RText
  3
RText|AutoCAD Express Tool|expresstools@autodesk.com
 90
    32768
280
     0
281
     1
  0
CLASS
  1
ARCALIGNEDTEXT
  2
AcDbArcAlignedText
  3
ATEXT|AutoCAD Express Tool|expresstools@autodesk.com
 90
    32768
280
     0
281
     1
  0
CLASS
  1
MATERIAL
  2
AcDbMaterial
  3
ObjectDBX Classes
 90
     1153
280
     0
281
     0
  0
CLASS
  1
VISUALSTYLE
  2
AcDbVisualStyle
  3
ObjectDBX Classes
 90
     4095
280
     0
281
     0
  0
CLASS
  1
TABLESTYLE
  2
AcDbTableStyle
  3
ObjectDBX Classes
 90
     4095
280
     0
281
     0
  0
CLASS
  1
SCALE
  2
AcDbScale
  3
ObjectDBX Classes
 90
     1153
280
     0
281
     0
  0
CLASS
  1
MLEADERSTYLE
  2
AcDbMLeaderStyle
  3
ACDB_MLEADERSTYLE_CLASS
 90
     4095
280
     0
281
     0
  0
CLASS
  1
CELLSTYLEMAP
  2
AcDbCellStyleMap
  3
ObjectDBX Classes
 90
     1152
280
     0
281
     0
  0
ENDSEC
  0
SECTION
  2
TABLES
  0
TABLE
  2
VPORT
  5
6
330
0
100
AcDbSymbolTable
 70
     1
  0
VPORT
  5
4E3B
330
6
100
AcDbSymbolTableRecord
100
AcDbViewportTableRecord
  2
*Active
 70
     0
 10
0.0
 20
0.0
 11
1.0
 21
1.0
 12
173.2188231293014
 22
5.571725777087294
 13
0.0
 23
0.0
 14
1.0
 24
1.0
 15
0.0
 25
0.0
 16
0.0
 26
0.0
 36
1.0
 17
0.0
 27
0.0
 37
0.0
 40
1048.529065106213
 41
2.087030716723549
 42
50.0
 43
0.0
 44
0.0
 50
0.0
 51
0.0
 71
     0
 72
   500
 73
     1
 74
     0
 75
     0
 76
     0
 77
     0
 78
     0
281
     0
 65
     1
110
0.0
120
0.0
130
0.0
111
1.0
121
0.0
131
0.0
112
0.0
122
1.0
132
0.0
 79
     0
146
0.0
  0
ENDTAB
  0
TABLE
  2
LTYPE
  5
3
330
0
100
AcDbSymbolTable
 70
     3
  0
LTYPE
  5
C
330
3
100
AcDbSymbolTableRecord
100
AcDbLinetypeTableRecord
  2
BYBLOCK
 70
     0
  3

 72
    65
 73
     0
 40
0.0
  0
LTYPE
  5
D
330
3
100
AcDbSymbolTableRecord
100
AcDbLinetypeTableRecord
  2
BYLAYER
 70
     0
  3

 72
    65
 73
     0
 40
0.0
  0
LTYPE
  5
E
330
3
100
AcDbSymbolTableRecord
100
AcDbLinetypeTableRecord
  2
CONTINUOUS
 70
     0
  3
Solid line
 72
    65
 73
     0
 40
0.0
  0
LTYPE
  5
10
330
3
100
AcDbSymbolTableRecord
100
AcDbLinetypeTableRecord
  2
CENTER
 70
     0
  3
____ _ ____ _ ____ _ ____ _ ____ _ ____ _ ____
 72
    65
 73
     4
 40
12.0
 49
9.0
 74
     0
 49
-1.0
 74
     0
 49
1.0
 74
     0
 49
-1.0
 74
     0
  0
LTYPE
  5
D63
330
3
100
AcDbSymbolTableRecord
100
AcDbLinetypeTableRecord
  2
HIDDEN
 70
     0
  3
_ _ _ _ _ _ _ _ _ _ _ _ _ _ _ _ _ _ _ _ _ _ _
 72
    65
 73
     2
 40
3.2
 49
2.399999999999999
 74
     0
 49
-0.8
 74
     0
  0
ENDTAB
  0
TABLE
  2
LAYER
  5
1
330
0
100
AcDbSymbolTable
 70
     6
  0
LAYER
  5
15
102
{ACAD_XDICTIONARY
360
4E98
102
}
330
1
100
AcDbSymbolTableRecord
100
AcDbLayerTableRecord
  2
0
 70
     0
 62
     7
  6
CONTINUOUS
370
    -3
390
696
  0
LAYER
  5
69E
102
{ACAD_XDICTIONARY
360
4E9A
102
}
330
1
100
AcDbSymbolTableRecord
100
AcDbLayerTableRecord
  2
FLAME
 70
     0
 62
     3
  6
CONTINUOUS
370
    40
390
696
  0
LAYER
  5
14E4
102
{ACAD_XDICTIONARY
360
4E9C
102
}
330
1
100
AcDbSymbolTableRecord
100
AcDbLayerTableRecord
  2
scale
 70
     0
 62
     6
  6
CONTINUOUS
370
    13
390
696
  0
LAYER
  5
14E5
330
1
100
AcDbSymbolTableRecord
100
AcDbLayerTableRecord
  2
Defpoints
 70
     1
 62
     7
  6
CONTINUOUS
290
     0
370
    -3
390
696
  0
LAYER
  5
421D
102
{ACAD_XDICTIONARY
360
4E9E
102
}
330
1
100
AcDbSymbolTableRecord
100
AcDbLayerTableRecord
  2
1
 70
     0
 62
     7
  6
CONTINUOUS
370
    -3
390
696
  0
LAYER
  5
421E
102
{ACAD_XDICTIONARY
360
4EA0
102
}
330
1
100
AcDbSymbolTableRecord
100
AcDbLayerTableRecord
  2
2
 70
     0
 62
     7
  6
CONTINUOUS
370
    -3
390
696
  0
ENDTAB
  0
TABLE
  2
STYLE
  5
2
330
0
100
AcDbSymbolTable
 70
     2
  0
STYLE
  5
1F
330
2
100
AcDbSymbolTableRecord
100
AcDbTextStyleTableRecord
  2
STANDARD
 70
     0
 40
0.0
 41
1.0
 50
0.0
 71
     0
 42
1.0
  3
simplex.shx
  4
BIGFONT.shx
  0
ENDTAB
  0
TABLE
  2
VIEW
  5
4
330
0
100
AcDbSymbolTable
 70
     0
  0
ENDTAB
  0
TABLE
  2
UCS
  5
5
330
0
100
AcDbSymbolTable
 70
     0
  0
ENDTAB
  0
TABLE
  2
APPID
  5
7
330
0
100
AcDbSymbolTable
 70
     2
  0
APPID
  5
1E
330
7
100
AcDbSymbolTableRecord
100
AcDbRegAppTableRecord
  2
ACAD
 70
     0
  0
APPID
  5
4E97
330
7
100
AcDbSymbolTableRecord
100
AcDbRegAppTableRecord
  2
ACAD_MLEADERVER
 70
     0
  0
ENDTAB
  0
TABLE
  2
DIMSTYLE
  5
8
330
0
100
AcDbSymbolTable
 70
     2
100
AcDbDimStyleTable
 71
     1
340
31
  0
DIMSTYLE
105
31
102
{ACAD_REACTORS
330
4797
330
4799
330
479B
330
479C
330
479D
330
479E
330
479F
102
}
330
8
100
AcDbSymbolTableRecord
100
AcDbDimStyleTableRecord
  2
STANDARD
 70
     0
 40
2.0
 41
2.0
 42
1.0
 44
1.0
 73
     0
 74
     0
 77
     1
 78
     8
 79
     2
140
3.299999999999998
147
1.0
172
     1
176
   256
177
   256
178
     2
271
     2
272
     2
340
1F
341
14CF
342
14CF
371
    -1
372
    -1
  0
ENDTAB
  0
TABLE
  2
BLOCK_RECORD
  5
2C
330
0
100
AcDbSymbolTable
 70
     9
  0
BLOCK_RECORD
  5
2A
330
2C
100
AcDbSymbolTableRecord
100
AcDbBlockTableRecord
  2
*MODEL_SPACE
340
69B
  0
BLOCK_RECORD
  5
2B
330
2C
100
AcDbSymbolTableRecord
100
AcDbBlockTableRecord
  2
*PAPER_SPACE
340
69C
  0
BLOCK_RECORD
  5
14CF
330
2C
100
AcDbSymbolTableRecord
100
AcDbBlockTableRecord
  2
_Closed
340
0
102
{BLKREFS
331
4DFF
331
4E00
331
4E08
331
4E09
331
4E11
331
4E12
331
4E1A
331
4E1B
331
4E23
331
4E24
331
4E2C
331
4E2D
331
4E35
331
4E36
102
}
  0
BLOCK_RECORD
  5
4CCE
330
2C
100
AcDbSymbolTableRecord
100
AcDbBlockTableRecord
  2
*D1
340
0
  0
BLOCK_RECORD
  5
4CDA
330
2C
100
AcDbSymbolTableRecord
100
AcDbBlockTableRecord
  2
*D2
340
0
  0
BLOCK_RECORD
  5
4CE6
330
2C
100
AcDbSymbolTableRecord
100
AcDbBlockTableRecord
  2
*D3
340
0
  0
BLOCK_RECORD
  5
4CF2
330
2C
100
AcDbSymbolTableRecord
100
AcDbBlockTableRecord
  2
*D4
340
0
  0
BLOCK_RECORD
  5
4CFE
330
2C
100
AcDbSymbolTableRecord
100
AcDbBlockTableRecord
  2
*D5
340
0
  0
BLOCK_RECORD
  5
4D0A
330
2C
100
AcDbSymbolTableRecord
100
AcDbBlockTableRecord
  2
*D6
340
0
  0
BLOCK_RECORD
  5
4D16
330
2C
100
AcDbSymbolTableRecord
100
AcDbBlockTableRecord
  2
*D7
340
0
  0
ENDTAB
  0
ENDSEC
  0
SECTION
  2
BLOCKS
  0
BLOCK
  5
2D
330
2A
100
AcDbEntity
  8
0
100
AcDbBlockBegin
  2
*MODEL_SPACE
 70
     0
 10
0.0
 20
0.0
 30
0.0
  3
*MODEL_SPACE
  1

  0
ENDBLK
  5
2E
330
2A
100
AcDbEntity
  8
0
100
AcDbBlockEnd
  0
BLOCK
  5
2F
330
2B
100
AcDbEntity
 67
     1
  8
0
100
AcDbBlockBegin
  2
*PAPER_SPACE
 70
     0
 10
0.0
 20
0.0
 30
0.0
  3
*PAPER_SPACE
  1

  0
ENDBLK
  5
30
330
2B
100
AcDbEntity
 67
     1
  8
0
100
AcDbBlockEnd
  0
BLOCK
  5
14D0
330
14CF
100
AcDbEntity
  8
0
100
AcDbBlockBegin
  2
_Closed
 70
     0
 10
0.0
 20
0.0
 30
0.0
  3
_Closed
  1

  0
LINE
  5
14D1
330
14CF
100
AcDbEntity
  8
0
  6
ByBlock
 62
     0
370
    -2
100
AcDbLine
 10
-1.0
 20
0.1666666666666666
 30
0.0
 11
0.0
 21
0.0
 31
0.0
  0
LINE
  5
14D2
330
14CF
100
AcDbEntity
  8
0
  6
ByBlock
 62
     0
370
    -2
100
AcDbLine
 10
0.0
 20
0.0
 30
0.0
 11
-1.0
 21
-0.1666666666666666
 31
0.0
  0
LINE
  5
14D3
330
14CF
100
AcDbEntity
  8
0
  6
ByBlock
 62
     0
370
    -2
100
AcDbLine
 10
-1.0
 20
0.1666666666666666
 30
0.0
 11
-1.0
 21
-0.1666666666666666
 31
0.0
  0
LINE
  5
14D4
330
14CF
100
AcDbEntity
  8
0
  6
ByBlock
 62
     0
370
    -2
100
AcDbLine
 10
0.0
 20
0.0
 30
0.0
 11
-1.0
 21
0.0
 31
0.0
  0
ENDBLK
  5
14D5
330
14CF
100
AcDbEntity
  8
0
100
AcDbBlockEnd
  0
BLOCK
  5
4CD8
330
4CCE
100
AcDbEntity
  8
0
100
AcDbBlockBegin
  2
*D1
 70
     1
 10
0.0
 20
0.0
 30
0.0
  3
*D1
  1

  0
LINE
  5
4E32
330
4CCE
100
AcDbEntity
  8
scale
100
AcDbLine
 10
-262.841921
 20
48.55948999999998
 30
0.0
 11
-262.841921
 21
88.14701799999998
 31
0.0
  0
LINE
  5
4E33
330
4CCE
100
AcDbEntity
  8
scale
100
AcDbLine
 10
-62.98046099999999
 20
62.67910999999998
 30
0.0
 11
-62.98046099999999
 21
88.14701799999998
 31
0.0
  0
LINE
  5
4E34
330
4CCE
100
AcDbEntity
  8
scale
100
AcDbLine
 10
-258.841921
 20
86.147018
 30
0.0
 11
-66.98046099999999
 21
86.147018
 31
0.0
  0
INSERT
  5
4E35
330
4CCE
100
AcDbEntity
  8
scale
100
AcDbBlockReference
  2
_Closed
 10
-262.841921
 20
86.147018
 30
0.0
 41
4.0
 42
4.0
 43
4.0
 50
180.0
  0
INSERT
  5
4E36
330
4CCE
100
AcDbEntity
  8
scale
100
AcDbBlockReference
  2
_Closed
 10
-62.98046099999999
 20
86.147018
 30
0.0
 41
4.0
 42
4.0
 43
4.0
  0
MTEXT
  5
4E37
330
4CCE
100
AcDbEntity
  8
scale
 62
     2
100
AcDbMText
 10
-162.9111909999999
 20
91.44701799999999
 30
0.0
 40
6.599999999999998
 41
0.0
 71
     5
 72
     1
  1
\A1;200
 73
     1
 44
1.0
1001
ACAD
1000
MTEXTBEGIN
1070
    73
1070
     1
1070
    44
1040
1.0
1070
    74
1070
     0
1000
MTEXTEND
  0
POINT
  5
4E38
330
4CCE
100
AcDbEntity
  8
Defpoints
 62
     0
100
AcDbPoint
 10
-262.841921
 20
46.55948999999998
 30
0.0
  0
POINT
  5
4E39
330
4CCE
100
AcDbEntity
  8
Defpoints
 62
     0
100
AcDbPoint
 10
-62.98046099999999
 20
60.67910999999998
 30
0.0
  0
POINT
  5
4E3A
330
4CCE
100
AcDbEntity
  8
Defpoints
 62
     0
100
AcDbPoint
 10
-62.98046099999999
 20
86.147018
 30
0.0
  0
ENDBLK
  5
4CD9
330
4CCE
100
AcDbEntity
  8
0
100
AcDbBlockEnd
  0
BLOCK
  5
4CE4
330
4CDA
100
AcDbEntity
  8
0
100
AcDbBlockBegin
  2
*D2
 70
     1
 10
0.0
 20
0.0
 30
0.0
  3
*D2
  1

  0
LINE
  5
4E29
330
4CDA
100
AcDbEntity
  8
scale
100
AcDbLine
 10
10.66790799999989
 20
1.958735999999987
 30
0.0
 11
-8.519452999999899
 21
1.958735999999993
 31
0.0
  0
LINE
  5
4E2A
330
4CDA
100
AcDbEntity
  8
scale
100
AcDbLine
 10
60.66790799999989
 20
68.13610999999998
 30
0.0
 11
-8.519452999999883
 21
68.13610999999998
 31
0.0
  0
LINE
  5
4E2B
330
4CDA
100
AcDbEntity
  8
scale
100
AcDbLine
 10
-6.519452999999898
 20
5.958735999999992
 30
0.0
 11
-6.519452999999884
 21
64.13610999999999
 31
0.0
  0
INSERT
  5
4E2C
330
4CDA
100
AcDbEntity
  8
scale
100
AcDbBlockReference
  2
_Closed
 10
-6.5194529999999
 20
1.958735999999993
 30
0.0
 41
4.0
 42
4.0
 43
4.0
 50
270.0
  0
INSERT
  5
4E2D
330
4CDA
100
AcDbEntity
  8
scale
100
AcDbBlockReference
  2
_Closed
 10
-6.519452999999884
 20
68.13610999999998
 30
0.0
 41
4.0
 42
4.0
 43
4.0
 50
90.0
  0
MTEXT
  5
4E2E
330
4CDA
100
AcDbEntity
  8
scale
 62
     2
100
AcDbMText
 10
-11.81945299999989
 20
35.04742299999999
 30
0.0
 40
6.599999999999998
 41
0.0
 71
     5
 72
     1
  1
\A1;66（概略）
 11
0.0000000000000001
 21
1.0
 31
0.0
 73
     1
 44
1.0
1001
ACAD
1000
MTEXTBEGIN
1070
    73
1070
     1
1070
    44
1040
1.0
1070
    74
1070
     0
1000
MTEXTEND
  0
POINT
  5
4E2F
330
4CDA
100
AcDbEntity
  8
Defpoints
 62
     0
100
AcDbPoint
 10
12.6679079999999
 20
1.958735999999986
 30
0.0
  0
POINT
  5
4E30
330
4CDA
100
AcDbEntity
  8
Defpoints
 62
     0
100
AcDbPoint
 10
62.6679079999999
 20
68.13610999999998
 30
0.0
  0
POINT
  5
4E31
330
4CDA
100
AcDbEntity
  8
Defpoints
 62
     0
100
AcDbPoint
 10
-6.519452999999884
 20
68.13610999999998
 30
0.0
  0
ENDBLK
  5
4CE5
330
4CDA
100
AcDbEntity
  8
0
100
AcDbBlockEnd
  0
BLOCK
  5
4CF0
330
4CE6
100
AcDbEntity
  8
0
100
AcDbBlockBegin
  2
*D3
 70
     1
 10
0.0
 20
0.0
 30
0.0
  3
*D3
  1

  0
LINE
  5
4E20
330
4CE6
100
AcDbEntity
  8
scale
100
AcDbLine
 10
39.6679079999999
 20
-207.541264
 30
0.0
 11
39.6679079999999
 21
-252.042084
 31
0.0
  0
LINE
  5
4E21
330
4CE6
100
AcDbEntity
  8
scale
100
AcDbLine
 10
85.6679079999999
 20
-207.541264
 30
0.0
 11
85.6679079999999
 21
-252.042084
 31
0.0
  0
LINE
  5
4E22
330
4CE6
100
AcDbEntity
  8
scale
100
AcDbLine
 10
43.66790799999989
 20
-250.042084
 30
0.0
 11
81.6679079999999
 21
-250.042084
 31
0.0
  0
INSERT
  5
4E23
330
4CE6
100
AcDbEntity
  8
scale
100
AcDbBlockReference
  2
_Closed
 10
39.6679079999999
 20
-250.042084
 30
0.0
 41
4.0
 42
4.0
 43
4.0
 50
180.0
  0
INSERT
  5
4E24
330
4CE6
100
AcDbEntity
  8
scale
100
AcDbBlockReference
  2
_Closed
 10
85.6679079999999
 20
-250.042084
 30
0.0
 41
4.0
 42
4.0
 43
4.0
  0
MTEXT
  5
4E25
330
4CE6
100
AcDbEntity
  8
scale
 62
     2
100
AcDbMText
 10
62.6679079999999
 20
-244.742084
 30
0.0
 40
6.599999999999998
 41
0.0
 71
     5
 72
     1
  1
\A1;46
 73
     1
 44
1.0
1001
ACAD
1000
MTEXTBEGIN
1070
    73
1070
     1
1070
    44
1040
1.0
1070
    74
1070
     0
1000
MTEXTEND
  0
POINT
  5
4E26
330
4CE6
100
AcDbEntity
  8
Defpoints
 62
     0
100
AcDbPoint
 10
39.6679079999999
 20
-205.541264
 30
0.0
  0
POINT
  5
4E27
330
4CE6
100
AcDbEntity
  8
Defpoints
 62
     0
100
AcDbPoint
 10
85.6679079999999
 20
-205.541264
 30
0.0
  0
POINT
  5
4E28
330
4CE6
100
AcDbEntity
  8
Defpoints
 62
     0
100
AcDbPoint
 10
85.6679079999999
 20
-250.042084
 30
0.0
  0
ENDBLK
  5
4CF1
330
4CE6
100
AcDbEntity
  8
0
100
AcDbBlockEnd
  0
BLOCK
  5
4CFC
330
4CF2
100
AcDbEntity
  8
0
100
AcDbBlockBegin
  2
*D4
 70
     1
 10
0.0
 20
0.0
 30
0.0
  3
*D4
  1

  0
LINE
  5
4E17
330
4CF2
100
AcDbEntity
  8
scale
100
AcDbLine
 10
55.66790799999989
 20
-226.941264
 30
0.0
 11
-8.519452999999899
 21
-226.941264
 31
0.0
  0
LINE
  5
4E18
330
4CF2
100
AcDbEntity
  8
scale
100
AcDbLine
 10
23.26219700000001
 20
-149.041264
 30
0.0
 11
-8.519452999999886
 21
-149.041264
 31
0.0
  0
LINE
  5
4E19
330
4CF2
100
AcDbEntity
  8
scale
100
AcDbLine
 10
-6.5194529999999
 20
-222.941264
 30
0.0
 11
-6.519452999999884
 21
-153.0412639999999
 31
0.0
  0
INSERT
  5
4E1A
330
4CF2
100
AcDbEntity
  8
scale
100
AcDbBlockReference
  2
_Closed
 10
-6.519452999999902
 20
-226.941264
 30
0.0
 41
4.0
 42
4.0
 43
4.0
 50
270.0
  0
INSERT
  5
4E1B
330
4CF2
100
AcDbEntity
  8
scale
100
AcDbBlockReference
  2
_Closed
 10
-6.519452999999884
 20
-149.041264
 30
0.0
 41
4.0
 42
4.0
 43
4.0
 50
90.0
  0
MTEXT
  5
4E1C
330
4CF2
100
AcDbEntity
  8
scale
 62
     2
100
AcDbMText
 10
-11.81945299999986
 20
-187.991264
 30
0.0
 40
6.599999999999998
 41
0.0
 71
     5
 72
     1
  1
\A1;78
 11
0.0000000000000001
 21
1.0
 31
0.0
 73
     1
 44
1.0
1001
ACAD
1000
MTEXTBEGIN
1070
    73
1070
     1
1070
    44
1040
1.0
1070
    74
1070
     0
1000
MTEXTEND
  0
POINT
  5
4E1D
330
4CF2
100
AcDbEntity
  8
Defpoints
 62
     0
100
AcDbPoint
 10
57.6679079999999
 20
-226.941264
 30
0.0
  0
POINT
  5
4E1E
330
4CF2
100
AcDbEntity
  8
Defpoints
 62
     0
100
AcDbPoint
 10
25.26219700000002
 20
-149.041264
 30
0.0
  0
POINT
  5
4E1F
330
4CF2
100
AcDbEntity
  8
Defpoints
 62
     0
100
AcDbPoint
 10
-6.519452999999884
 20
-149.041264
 30
0.0
  0
ENDBLK
  5
4CFD
330
4CF2
100
AcDbEntity
  8
0
100
AcDbBlockEnd
  0
BLOCK
  5
4D08
330
4CFE
100
AcDbEntity
  8
0
100
AcDbBlockBegin
  2
*D5
 70
     1
 10
0.0
 20
0.0
 30
0.0
  3
*D5
  1

  0
LINE
  5
4E0E
330
4CFE
100
AcDbEntity
  8
scale
100
AcDbLine
 10
23.26219700000001
 20
-149.041264
 30
0.0
 11
-8.519452999999915
 21
-149.041264
 31
0.0
  0
LINE
  5
4E0F
330
4CFE
100
AcDbEntity
  8
scale
100
AcDbLine
 10
10.66790799999989
 20
1.958735999999987
 30
0.0
 11
-8.519452999999884
 21
1.958735999999993
 31
0.0
  0
LINE
  5
4E10
330
4CFE
100
AcDbEntity
  8
scale
100
AcDbLine
 10
-6.519452999999916
 20
-145.041264
 30
0.0
 11
-6.519452999999884
 21
-2.041264000000007
 31
0.0
  0
INSERT
  5
4E11
330
4CFE
100
AcDbEntity
  8
scale
100
AcDbBlockReference
  2
_Closed
 10
-6.519452999999917
 20
-149.041264
 30
0.0
 41
4.0
 42
4.0
 43
4.0
 50
270.0
  0
INSERT
  5
4E12
330
4CFE
100
AcDbEntity
  8
scale
100
AcDbBlockReference
  2
_Closed
 10
-6.519452999999884
 20
1.958735999999993
 30
0.0
 41
4.0
 42
4.0
 43
4.0
 50
90.0
  0
MTEXT
  5
4E13
330
4CFE
100
AcDbEntity
  8
scale
 62
     2
100
AcDbMText
 10
-11.81945299999989
 20
-73.541264
 30
0.0
 40
6.599999999999998
 41
0.0
 71
     5
 72
     1
  1
\A1;151
 11
0.0000000000000001
 21
1.0
 31
0.0
 73
     1
 44
1.0
1001
ACAD
1000
MTEXTBEGIN
1070
    73
1070
     1
1070
    44
1040
1.0
1070
    74
1070
     0
1000
MTEXTEND
  0
POINT
  5
4E14
330
4CFE
100
AcDbEntity
  8
Defpoints
 62
     0
100
AcDbPoint
 10
25.26219700000002
 20
-149.041264
 30
0.0
  0
POINT
  5
4E15
330
4CFE
100
AcDbEntity
  8
Defpoints
 62
     0
100
AcDbPoint
 10
12.6679079999999
 20
1.958735999999986
 30
0.0
  0
POINT
  5
4E16
330
4CFE
100
AcDbEntity
  8
Defpoints
 62
     0
100
AcDbPoint
 10
-6.519452999999884
 20
1.958735999999993
 30
0.0
  0
ENDBLK
  5
4D09
330
4CFE
100
AcDbEntity
  8
0
100
AcDbBlockEnd
  0
BLOCK
  5
4D14
330
4D0A
100
AcDbEntity
  8
0
100
AcDbBlockBegin
  2
*D6
 70
     1
 10
0.0
 20
0.0
 30
0.0
  3
*D6
  1

  0
LINE
  5
4E05
330
4D0A
100
AcDbEntity
  8
scale
100
AcDbLine
 10
-264.842159
 20
116.74296
 30
0.0
 11
-345.6331480000002
 21
116.74296
 31
0.0
  0
LINE
  5
4E06
330
4D0A
100
AcDbEntity
  8
scale
100
AcDbLine
 10
-330.422
 20
166.74296
 30
0.0
 11
-345.633148
 21
166.74296
 31
0.0
  0
LINE
  5
4E07
330
4D0A
100
AcDbEntity
  8
scale
100
AcDbLine
 10
-343.6331480000002
 20
120.74296
 30
0.0
 11
-343.633148
 21
162.74296
 31
0.0
  0
INSERT
  5
4E08
330
4D0A
100
AcDbEntity
  8
scale
100
AcDbBlockReference
  2
_Closed
 10
-343.6331480000002
 20
116.74296
 30
0.0
 41
4.0
 42
4.0
 43
4.0
 50
270.0
  0
INSERT
  5
4E09
330
4D0A
100
AcDbEntity
  8
scale
100
AcDbBlockReference
  2
_Closed
 10
-343.633148
 20
166.74296
 30
0.0
 41
4.0
 42
4.0
 43
4.0
 50
90.0
  0
MTEXT
  5
4E0A
330
4D0A
100
AcDbEntity
  8
scale
 62
     2
100
AcDbMText
 10
-348.9331480000001
 20
141.74296
 30
0.0
 40
6.599999999999998
 41
0.0
 71
     5
 72
     1
  1
\A1;50
 11
0.0000000000000001
 21
1.0
 31
0.0
 73
     1
 44
1.0
1001
ACAD
1000
MTEXTBEGIN
1070
    73
1070
     1
1070
    44
1040
1.0
1070
    74
1070
     0
1000
MTEXTEND
  0
POINT
  5
4E0B
330
4D0A
100
AcDbEntity
  8
Defpoints
 62
     0
100
AcDbPoint
 10
-262.842159
 20
116.74296
 30
0.0
  0
POINT
  5
4E0C
330
4D0A
100
AcDbEntity
  8
Defpoints
 62
     0
100
AcDbPoint
 10
-328.422
 20
166.74296
 30
0.0
  0
POINT
  5
4E0D
330
4D0A
100
AcDbEntity
  8
Defpoints
 62
     0
100
AcDbPoint
 10
-343.633148
 20
166.74296
 30
0.0
  0
ENDBLK
  5
4D15
330
4D0A
100
AcDbEntity
  8
0
100
AcDbBlockEnd
  0
BLOCK
  5
4D20
330
4D16
100
AcDbEntity
  8
0
100
AcDbBlockBegin
  2
*D7
 70
     1
 10
0.0
 20
0.0
 30
0.0
  3
*D7
  1

  0
LINE
  5
4DFC
330
4D16
100
AcDbEntity
  8
scale
100
AcDbLine
 10
-330.422
 20
166.74296
 30
0.0
 11
-345.633148
 21
166.74296
 31
0.0
  0
LINE
  5
4DFD
330
4D16
100
AcDbEntity
  8
scale
100
AcDbLine
 10
-279.842159
 20
241.7429600000001
 30
0.0
 11
-345.633148
 21
241.7429600000001
 31
0.0
  0
LINE
  5
4DFE
330
4D16
100
AcDbEntity
  8
scale
100
AcDbLine
 10
-343.633148
 20
170.74296
 30
0.0
 11
-343.633148
 21
237.7429600000001
 31
0.0
  0
INSERT
  5
4DFF
330
4D16
100
AcDbEntity
  8
scale
100
AcDbBlockReference
  2
_Closed
 10
-343.633148
 20
166.74296
 30
0.0
 41
4.0
 42
4.0
 43
4.0
 50
270.0
  0
INSERT
  5
4E00
330
4D16
100
AcDbEntity
  8
scale
100
AcDbBlockReference
  2
_Closed
 10
-343.633148
 20
241.7429600000001
 30
0.0
 41
4.0
 42
4.0
 43
4.0
 50
90.0
  0
MTEXT
  5
4E01
330
4D16
100
AcDbEntity
  8
scale
 62
     2
100
AcDbMText
 10
-348.9331480000001
 20
204.24296
 30
0.0
 40
6.599999999999998
 41
0.0
 71
     5
 72
     1
  1
\A1;75
 11
0.0000000000000001
 21
1.0
 31
0.0
 73
     1
 44
1.0
1001
ACAD
1000
MTEXTBEGIN
1070
    73
1070
     1
1070
    44
1040
1.0
1070
    74
1070
     0
1000
MTEXTEND
  0
POINT
  5
4E02
330
4D16
100
AcDbEntity
  8
Defpoints
 62
     0
100
AcDbPoint
 10
-328.422
 20
166.74296
 30
0.0
  0
POINT
  5
4E03
330
4D16
100
AcDbEntity
  8
Defpoints
 62
     0
100
AcDbPoint
 10
-277.842159
 20
241.7429600000001
 30
0.0
  0
POINT
  5
4E04
330
4D16
100
AcDbEntity
  8
Defpoints
 62
     0
100
AcDbPoint
 10
-343.633148
 20
241.7429600000001
 30
0.0
  0
ENDBLK
  5
4D21
330
4D16
100
AcDbEntity
  8
0
100
AcDbBlockEnd
  0
ENDSEC
  0
SECTION
  2
ENTITIES
  0
TEXT
  5
6C0
330
2A
100
AcDbEntity
  8
FLAME
 62
     7
370
    -3
100
AcDbText
 10
115.0
 20
-260.0796206666666
 30
0.0
 40
8.0
  1
巴バルブ株式会社
 41
0.8357142857142861
 72
     5
 11
177.4
 21
-260.0796206666666
 31
0.0
100
AcDbText
  0
TEXT
  5
6C1
330
2A
100
AcDbEntity
  8
FLAME
 62
     7
370
    -3
100
AcDbText
 10
101.1310499999999
 20
-246.440506
 30
0.0
 40
4.599999999999998
  1
TOMOE　VALVE　CO.,LTD.
 41
1.110576923076924
 72
     5
 11
192.21105
 21
-246.440506
 31
0.0
100
AcDbText
  0
TEXT
  5
6C2
330
2A
100
AcDbEntity
  8
FLAME
 62
     7
370
    -3
100
AcDbText
 10
196.0
 20
-246.5
 30
0.0
 40
6.0
  1
名　　称
 41
0.8382352941176474
 72
     5
 11
218.8
 21
-246.5
 31
0.0
100
AcDbText
  0
TEXT
  5
6C3
330
2A
100
AcDbEntity
  8
FLAME
 62
     7
370
    -3
100
AcDbText
 10
198.2990614650061
 20
-238.4917693333334
 30
0.0
 40
4.0
  1
FIG.NO.
100
AcDbText
  0
TEXT
  5
6C4
330
2A
100
AcDbEntity
  8
FLAME
 62
     7
370
    -3
100
AcDbText
 10
196.0
 20
-266.5
 30
0.0
 40
6.0
  1
尺　　度
 41
0.8382352941176472
 72
     5
 11
218.8
 21
-266.5
 31
0.0
100
AcDbText
  0
TEXT
  5
6C5
330
2A
100
AcDbEntity
  8
FLAME
 62
     7
370
    -3
100
AcDbText
 10
198.0021419999999
 20
-259.422058
 30
0.0
 40
4.0
  1
SCALE
100
AcDbText
  0
TEXT
  5
6C6
330
2A
100
AcDbEntity
  8
FLAME
 62
     7
370
    -3
100
AcDbText
 10
352.0
 20
-237.5
 30
0.0
 40
4.0
  1
DATE
 41
1.078378378378369
 72
     5
 11
367.1999999999999
 21
-237.5
 31
0.0
100
AcDbText
  0
TEXT
  5
6C7
330
2A
100
AcDbEntity
  8
FLAME
 62
     7
370
    -3
100
AcDbText
 10
246.9999999999998
 20
-266.5
 30
0.0
 40
6.0
  1
図　　　番
 41
0.8372093023255873
 72
     5
 11
275.8
 21
-266.5
 31
0.0
100
AcDbText
  0
TEXT
  5
6C8
330
2A
100
AcDbEntity
  8
FLAME
 62
     7
370
    -3
100
AcDbText
 10
245.3985729852029
 20
-258.4938353333333
 30
0.0
 40
3.6
  1
DRAWING NO．
100
AcDbText
  0
LINE
  5
6C9
330
2A
100
AcDbEntity
  8
FLAME
 62
     7
370
    -3
100
AcDbLine
 10
227.4568293333333
 20
-265.0431706666666
 30
0.0
 11
235.7965813333333
 21
-256.7034186666666
 31
0.0
  0
LINE
  5
6CA
330
2A
100
AcDbEntity
  8
FLAME
 62
     7
370
    -3
100
AcDbLine
 10
282.0
 20
-270.5
 30
0.0
 11
282.0
 21
-250.5
 31
0.0
  0
LINE
  5
6CB
330
2A
100
AcDbEntity
  8
FLAME
 62
     7
370
    -3
100
AcDbLine
 10
242.0
 20
-270.5
 30
0.0
 11
242.0
 21
-250.5
 31
0.0
  0
LINE
  5
6CC
330
2A
100
AcDbEntity
  8
FLAME
 62
     7
370
    -3
100
AcDbLine
 10
222.0
 20
-270.5
 30
0.0
 11
222.0
 21
-230.5
 31
0.0
  0
LINE
  5
6CD
330
2A
100
AcDbEntity
  8
FLAME
 62
     7
370
    -3
100
AcDbLine
 10
340.0
 20
-240.5
 30
0.0
 11
380.0
 21
-240.5
 31
0.0
  0
LINE
  5
6CE
330
2A
100
AcDbEntity
  8
FLAME
 62
     7
370
    -3
100
AcDbLine
 10
340.0
 20
-250.5
 30
0.0
 11
340.0
 21
-230.5
 31
0.0
  0
LINE
  5
6CF
330
2A
100
AcDbEntity
  8
FLAME
 62
     3
100
AcDbLine
 10
100.0
 20
-230.5
 30
0.0
 11
380.0
 21
-230.5
 31
0.0
  0
LINE
  5
6D0
330
2A
100
AcDbEntity
  8
FLAME
 62
     7
370
    -3
100
AcDbLine
 10
194.0
 20
-250.5
 30
0.0
 11
380.0
 21
-250.5
 31
0.0
  0
LINE
  5
6D1
330
2A
100
AcDbEntity
  8
FLAME
 62
     3
100
AcDbLine
 10
194.0
 20
-270.5
 30
0.0
 11
194.0
 21
-230.5
 31
0.0
  0
LINE
  5
6D2
330
2A
100
AcDbEntity
  8
FLAME
 62
     3
100
AcDbLine
 10
100.0
 20
-270.5
 30
0.0
 11
100.0
 21
-230.5
 31
0.0
  0
LINE
  5
6D3
330
2A
100
AcDbEntity
  8
FLAME
 62
     3
100
AcDbLine
 10
380.0
 20
270.5
 30
0.0
 11
380.0
 21
-270.5
 31
0.0
  0
LINE
  5
6D4
330
2A
100
AcDbEntity
  8
FLAME
 62
     3
100
AcDbLine
 10
-380.0
 20
270.5
 30
0.0
 11
-380.0
 21
-270.5
 31
0.0
  0
LINE
  5
6D5
330
2A
100
AcDbEntity
  8
FLAME
 62
     3
100
AcDbLine
 10
-380.0
 20
270.5
 30
0.0
 11
380.0
 21
270.5
 31
0.0
  0
LINE
  5
6D6
330
2A
100
AcDbEntity
  8
FLAME
 62
     3
100
AcDbLine
 10
-380.0
 20
-270.5
 30
0.0
 11
380.0
 21
-270.5
 31
0.0
  0
TEXT
  5
6D7
330
2A
100
AcDbEntity
  8
FLAME
 62
     7
370
    -3
100
AcDbText
 10
291.4032072225168
 20
-265.5
 30
0.0
 40
10.0
  1
D3-03632
100
AcDbText
  0
TEXT
  5
6D8
330
2A
100
AcDbEntity
  8
FLAME
 62
     7
370
    -3
100
AcDbText
 10
225.7084806666667
 20
-239.570526
 30
0.0
 40
6.0
  1
700G-1TLS 65A
100
AcDbText
  0
TEXT
  5
6D9
330
2A
100
AcDbEntity
  8
FLAME
 62
     7
370
    -3
100
AcDbText
 10
225.7084806666667
 20
-247.570526
 30
0.0
 40
6.0
  1
標準仕様 JIS 5,10K
100
AcDbText
  0
TEXT
  5
6DA
330
2A
100
AcDbEntity
  8
FLAME
 62
     7
370
    -3
100
AcDbText
 10
344.5820919999999
 20
-247.8917693333333
 30
0.0
 40
4.5
  1
'05. 1. 26
100
AcDbText
  0
TEXT
  5
6DB
330
2A
100
AcDbEntity
  8
Defpoints
 62
     7
370
    -3
100
AcDbText
 10
232.8920286666666
 20
-267.3910519999999
 30
0.0
 40
6.0
  1
2
100
AcDbText
  0
TEXT
  5
6DC
330
2A
100
AcDbEntity
  8
Defpoints
 62
     7
370
    -3
100
AcDbText
 10
226.4113320547945
 20
-260.0808413333333
 30
0.0
 40
6.0
  1
1
100
AcDbText
  0
DIMENSION
  5
4797
330
2A
100
AcDbEntity
  8
scale
100
AcDbDimension
  2
*D1
 10
-62.98046099999999
 20
86.147018
 30
0.0
 11
-162.9111909999999
 21
91.44701799999999
 31
0.0
 70
    32
  1
200
 71
     5
 42
199.8614599999999
  3
STANDARD
100
AcDbAlignedDimension
 13
-262.841921
 23
46.55948999999998
 33
0.0
 14
-62.98046099999999
 24
60.67910999999998
 34
0.0
100
AcDbRotatedDimension
  0
DIMENSION
  5
4799
330
2A
100
AcDbEntity
  8
scale
100
AcDbDimension
  2
*D2
 10
-6.519452999999884
 20
68.13610999999998
 30
0.0
 11
-11.81945299999989
 21
35.04742299999999
 31
0.0
 70
    32
  1
66（概略）
 71
     5
 42
66.177374
  3
STANDARD
100
AcDbAlignedDimension
 13
12.6679079999999
 23
1.958735999999986
 33
0.0
 14
62.6679079999999
 24
68.13610999999998
 34
0.0
 50
90.0
100
AcDbRotatedDimension
  0
DIMENSION
  5
479B
330
2A
100
AcDbEntity
  8
scale
100
AcDbDimension
  2
*D3
 10
85.6679079999999
 20
-250.042084
 30
0.0
 11
62.6679079999999
 21
-244.742084
 31
0.0
 70
    32
  1
46
 71
     5
 42
46.0
  3
STANDARD
100
AcDbAlignedDimension
 13
39.6679079999999
 23
-205.541264
 33
0.0
 14
85.6679079999999
 24
-205.541264
 34
0.0
100
AcDbRotatedDimension
  0
DIMENSION
  5
479C
330
2A
100
AcDbEntity
  8
scale
100
AcDbDimension
  2
*D4
 10
-6.519452999999884
 20
-149.041264
 30
0.0
 11
-11.81945299999986
 21
-187.991264
 31
0.0
 70
    32
  1
78
 71
     5
 42
77.90000000000003
  3
STANDARD
100
AcDbAlignedDimension
 13
57.6679079999999
 23
-226.941264
 33
0.0
 14
25.26219700000002
 24
-149.041264
 34
0.0
 50
90.0
100
AcDbRotatedDimension
  0
DIMENSION
  5
479D
330
2A
100
AcDbEntity
  8
scale
100
AcDbDimension
  2
*D5
 10
-6.519452999999884
 20
1.958735999999993
 30
0.0
 11
-11.81945299999989
 21
-73.541264
 31
0.0
 70
    32
  1
151
 71
     5
 42
150.9999999999999
  3
STANDARD
100
AcDbAlignedDimension
 13
25.26219700000002
 23
-149.041264
 33
0.0
 14
12.6679079999999
 24
1.958735999999986
 34
0.0
 50
90.0
100
AcDbRotatedDimension
  0
DIMENSION
  5
479E
330
2A
100
AcDbEntity
  8
scale
100
AcDbDimension
  2
*D6
 10
-343.633148
 20
166.74296
 30
0.0
 11
-348.9331480000001
 21
141.74296
 31
0.0
 70
    32
  1
50
 71
     5
 42
49.99999999999997
  3
STANDARD
100
AcDbAlignedDimension
 13
-262.842159
 23
116.74296
 33
0.0
 14
-328.422
 24
166.74296
 34
0.0
 50
90.0
100
AcDbRotatedDimension
  0
DIMENSION
  5
479F
330
2A
100
AcDbEntity
  8
scale
100
AcDbDimension
  2
*D7
 10
-343.633148
 20
241.7429600000001
 30
0.0
 11
-348.9331480000001
 21
204.24296
 31
0.0
 70
    32
  1
75
 71
     5
 42
75.00000000000003
  3
STANDARD
100
AcDbAlignedDimension
 13
-328.422
 23
166.74296
 33
0.0
 14
-277.842159
 24
241.7429600000001
 34
0.0
 50
90.0
100
AcDbRotatedDimension
  0
LINE
  5
47A0
330
2A
100
AcDbEntity
  8
2
100
AcDbLine
 10
-312.841921
 20
3.958794000000011
 30
0.0
 11
-312.841921
 21
1.95879400000001
 31
0.0
  0
LINE
  5
47A1
330
2A
100
AcDbEntity
  8
2
100
AcDbLine
 10
80.91664500000002
 20
-17.63511700000004
 30
0.0
 11
80.91664500000002
 21
-17.81957599999998
 31
0.0
  0
LINE
  5
47A2
330
2A
100
AcDbEntity
  8
2
100
AcDbLine
 10
45.61917100000004
 20
-10.04126400000001
 30
0.0
 11
30.21917099999996
 21
-10.04126400000001
 31
0.0
  0
LINE
  5
47A3
330
2A
100
AcDbEntity
  8
2
100
AcDbLine
 10
45.61917100000004
 20
-12.04126400000001
 30
0.0
 11
45.61917100000004
 21
-10.04126400000001
 31
0.0
  0
LINE
  5
47A4
330
2A
100
AcDbEntity
  8
2
100
AcDbLine
 10
30.21917099999996
 20
-12.04126400000001
 30
0.0
 11
45.61917100000004
 21
-12.04126400000001
 31
0.0
  0
LINE
  5
47A5
330
2A
100
AcDbEntity
  8
2
100
AcDbLine
 10
30.21917099999996
 20
-10.04126400000001
 30
0.0
 11
30.21917099999996
 21
-12.04126400000001
 31
0.0
  0
ARC
  5
47A6
330
2A
100
AcDbEntity
  8
2
100
AcDbCircle
 10
41.16917100000001
 20
-10.86250599999999
 30
0.0
 40
7.678758999999998
100
AcDbArc
 50
244.9603400000023
 51
295.0396599999977
  0
LINE
  5
47A7
330
2A
100
AcDbEntity
  8
2
100
AcDbLine
 10
37.91917100000001
 20
-12.04126400000001
 30
0.0
 11
37.91917100000001
 21
-17.81957599999998
 31
0.0
  0
LINE
  5
47A8
330
2A
100
AcDbEntity
  8
2
100
AcDbLine
 10
41.16917100000001
 20
-18.54126400000001
 30
0.0
 11
37.91917100000001
 21
-18.54126400000001
 31
0.0
  0
LINE
  5
47A9
330
2A
100
AcDbEntity
  8
2
100
AcDbLine
 10
44.419171
 20
-12.04126400000001
 30
0.0
 11
44.419171
 21
-17.81957599999998
 31
0.0
  0
LINE
  5
47AA
330
2A
100
AcDbEntity
  8
2
100
AcDbLine
 10
37.91917100000001
 20
-12.04126400000001
 30
0.0
 11
44.419171
 21
-12.04126400000001
 31
0.0
  0
ARC
  5
47AB
330
2A
100
AcDbEntity
  8
2
100
AcDbCircle
 10
34.66917100000002
 20
-10.86250599999999
 30
0.0
 40
7.678758999999998
100
AcDbArc
 50
244.9603400000023
 51
295.0396599999977
  0
LINE
  5
47AC
330
2A
100
AcDbEntity
  8
2
100
AcDbLine
 10
37.91917100000001
 20
-12.04126400000001
 30
0.0
 11
37.91917100000001
 21
-17.81957599999998
 31
0.0
  0
LINE
  5
47AD
330
2A
100
AcDbEntity
  8
2
100
AcDbLine
 10
34.66917100000002
 20
-18.54126400000001
 30
0.0
 11
37.91917100000001
 21
-18.54126400000001
 31
0.0
  0
LINE
  5
47AE
330
2A
100
AcDbEntity
  8
2
100
AcDbLine
 10
31.41917100000001
 20
-12.04126400000001
 30
0.0
 11
31.41917100000001
 21
-17.81957599999998
 31
0.0
  0
LINE
  5
47AF
330
2A
100
AcDbEntity
  8
2
100
AcDbLine
 10
37.91917100000001
 20
-12.04126400000001
 30
0.0
 11
31.41917100000001
 21
-12.04126400000001
 31
0.0
  0
POINT
  5
47B0
330
2A
100
AcDbEntity
  8
2
100
AcDbPoint
 10
37.91917100000001
 20
-10.04126400000001
 30
0.0
  0
POINT
  5
47B1
330
2A
100
AcDbEntity
  8
2
100
AcDbPoint
 10
37.91917100000001
 20
-10.04126400000001
 30
0.0
  0
LINE
  5
47B2
330
2A
100
AcDbEntity
  8
2
 62
     4
370
    13
100
AcDbLine
 10
34.59567100000004
 20
-21.04126400000001
 30
0.0
 11
34.59567100000004
 21
-18.54091299999999
 31
0.0
  0
LINE
  5
47B3
330
2A
100
AcDbEntity
  8
2
100
AcDbLine
 10
33.91917100000001
 20
-20.36476400000004
 30
0.0
 11
37.91917100000001
 21
-20.36476400000004
 31
0.0
  0
LINE
  5
47B4
330
2A
100
AcDbEntity
  8
2
100
AcDbLine
 10
33.91917100000001
 20
-20.36476400000004
 30
0.0
 11
33.91917100000001
 21
-18.50454999999999
 31
0.0
  0
LINE
  5
47B5
330
2A
100
AcDbEntity
  8
2
100
AcDbLine
 10
34.59567100000004
 20
-21.04126400000001
 30
0.0
 11
33.91917100000001
 21
-20.36476400000004
 31
0.0
  0
LINE
  5
47B6
330
2A
100
AcDbEntity
  8
2
100
AcDbLine
 10
37.91917100000001
 20
-21.04126400000001
 30
0.0
 11
34.59567100000004
 21
-21.04126400000001
 31
0.0
  0
ARC
  5
47B7
330
2A
100
AcDbEntity
  8
2
100
AcDbCircle
 10
34.66917100000002
 20
1.779976999999973
 30
0.0
 40
7.678758999999998
100
AcDbArc
 50
64.9603400000023
 51
115.0396599999977
  0
LINE
  5
47B8
330
2A
100
AcDbEntity
  8
2
100
AcDbLine
 10
37.91917100000001
 20
3.958735999999986
 30
0.0
 11
37.91917100000001
 21
8.737048000000013
 31
0.0
  0
LINE
  5
47B9
330
2A
100
AcDbEntity
  8
2
100
AcDbLine
 10
34.66917100000002
 20
9.458735999999987
 30
0.0
 11
37.91917100000001
 21
9.458735999999987
 31
0.0
  0
LINE
  5
47BA
330
2A
100
AcDbEntity
  8
2
100
AcDbLine
 10
31.41917100000001
 20
3.958735999999986
 30
0.0
 11
31.41917100000001
 21
8.737048000000013
 31
0.0
  0
LINE
  5
47BB
330
2A
100
AcDbEntity
  8
2
100
AcDbLine
 10
37.91917100000001
 20
3.958735999999986
 30
0.0
 11
31.41917100000001
 21
3.958735999999986
 31
0.0
  0
LINE
  5
47BC
330
2A
100
AcDbEntity
  8
2
 62
     4
370
    13
100
AcDbLine
 10
41.24267099999996
 20
-21.04126400000001
 30
0.0
 11
41.24267099999996
 21
-18.54091299999999
 31
0.0
  0
LINE
  5
47BD
330
2A
100
AcDbEntity
  8
2
100
AcDbLine
 10
41.919171
 20
-20.36476400000004
 30
0.0
 11
37.91917100000001
 21
-20.36476400000004
 31
0.0
  0
LINE
  5
47BE
330
2A
100
AcDbEntity
  8
2
100
AcDbLine
 10
41.919171
 20
-20.36476400000004
 30
0.0
 11
41.919171
 21
-18.50454999999999
 31
0.0
  0
LINE
  5
47BF
330
2A
100
AcDbEntity
  8
2
100
AcDbLine
 10
41.24267099999996
 20
-21.04126400000001
 30
0.0
 11
41.919171
 21
-20.36476400000004
 31
0.0
  0
LINE
  5
47C0
330
2A
100
AcDbEntity
  8
2
100
AcDbLine
 10
37.91917100000001
 20
-21.04126400000001
 30
0.0
 11
41.24267099999996
 21
-21.04126400000001
 31
0.0
  0
ARC
  5
47C1
330
2A
100
AcDbEntity
  8
2
100
AcDbCircle
 10
41.16917100000001
 20
1.779976999999973
 30
0.0
 40
7.678758999999998
100
AcDbArc
 50
64.9603400000023
 51
115.0396599999977
  0
LINE
  5
47C2
330
2A
100
AcDbEntity
  8
2
100
AcDbLine
 10
37.91917100000001
 20
3.958735999999986
 30
0.0
 11
37.91917100000001
 21
8.737048000000013
 31
0.0
  0
LINE
  5
47C3
330
2A
100
AcDbEntity
  8
2
100
AcDbLine
 10
41.16917100000001
 20
9.458735999999987
 30
0.0
 11
37.91917100000001
 21
9.458735999999987
 31
0.0
  0
LINE
  5
47C4
330
2A
100
AcDbEntity
  8
2
100
AcDbLine
 10
44.419171
 20
3.958735999999986
 30
0.0
 11
44.419171
 21
8.737048000000013
 31
0.0
  0
LINE
  5
47C5
330
2A
100
AcDbEntity
  8
2
100
AcDbLine
 10
37.91917100000001
 20
3.958735999999986
 30
0.0
 11
44.419171
 21
3.958735999999986
 31
0.0
  0
LINE
  5
47C6
330
2A
100
AcDbEntity
  8
2
  6
CENTER
 62
     2
370
    13
100
AcDbLine
 10
37.91917100000001
 20
-22.11072200000001
 30
0.0
 11
37.91917100000001
 21
11.01877100000001
 31
0.0
  0
POINT
  5
47C7
330
2A
100
AcDbEntity
  8
2
100
AcDbPoint
 10
37.91917100000001
 20
3.958735999999986
 30
0.0
  0
LINE
  5
47C8
330
2A
100
AcDbEntity
  8
2
100
AcDbLine
 10
79.71664499999997
 20
-10.04126400000001
 30
0.0
 11
95.11664500000007
 21
-10.04126400000001
 31
0.0
  0
LINE
  5
47C9
330
2A
100
AcDbEntity
  8
2
100
AcDbLine
 10
95.11664500000007
 20
-12.04126400000001
 30
0.0
 11
87.24728899999991
 21
-12.04126400000001
 31
0.0
  0
LINE
  5
47CA
330
2A
100
AcDbEntity
  8
2
100
AcDbLine
 10
95.11664500000007
 20
-10.04126400000001
 30
0.0
 11
95.11664500000007
 21
-12.04126400000001
 31
0.0
  0
ARC
  5
47CB
330
2A
100
AcDbEntity
  8
2
100
AcDbCircle
 10
84.16664500000001
 20
-10.86250599999999
 30
0.0
 40
7.678758999999998
100
AcDbArc
 50
244.9603400000023
 51
295.0396599999977
  0
LINE
  5
47CC
330
2A
100
AcDbEntity
  8
2
100
AcDbLine
 10
87.41664500000002
 20
-12.04126400000001
 30
0.0
 11
87.41664500000002
 21
-17.81957599999998
 31
0.0
  0
LINE
  5
47CD
330
2A
100
AcDbEntity
  8
2
100
AcDbLine
 10
84.16664500000001
 20
-18.54126400000001
 30
0.0
 11
87.41664500000002
 21
-18.54126400000001
 31
0.0
  0
ARC
  5
47CE
330
2A
100
AcDbEntity
  8
2
100
AcDbCircle
 10
90.66664499999999
 20
-10.86250599999999
 30
0.0
 40
7.678758999999998
100
AcDbArc
 50
244.9603400000023
 51
295.0396599999977
  0
LINE
  5
47CF
330
2A
100
AcDbEntity
  8
2
100
AcDbLine
 10
87.41664500000002
 20
-12.13992400000001
 30
0.0
 11
87.41664500000002
 21
-17.81957599999998
 31
0.0
  0
LINE
  5
47D0
330
2A
100
AcDbEntity
  8
2
100
AcDbLine
 10
90.66664499999999
 20
-18.54126400000001
 30
0.0
 11
87.41664500000002
 21
-18.54126400000001
 31
0.0
  0
LINE
  5
47D1
330
2A
100
AcDbEntity
  8
2
100
AcDbLine
 10
93.91664500000002
 20
-12.04126400000001
 30
0.0
 11
93.91664500000002
 21
-17.81957599999998
 31
0.0
  0
LINE
  5
47D2
330
2A
100
AcDbEntity
  8
2
100
AcDbLine
 10
87.41664500000002
 20
-12.04126400000001
 30
0.0
 11
93.91664500000002
 21
-12.04126400000001
 31
0.0
  0
POINT
  5
47D3
330
2A
100
AcDbEntity
  8
2
100
AcDbPoint
 10
87.41664500000002
 20
-10.04126400000001
 30
0.0
  0
POINT
  5
47D4
330
2A
100
AcDbEntity
  8
2
100
AcDbPoint
 10
87.41664500000002
 20
-10.04126400000001
 30
0.0
  0
LINE
  5
47D5
330
2A
100
AcDbEntity
  8
2
 62
     4
370
    13
100
AcDbLine
 10
90.74014499999998
 20
-21.04126400000001
 30
0.0
 11
90.74014499999998
 21
-18.54091299999999
 31
0.0
  0
LINE
  5
47D6
330
2A
100
AcDbEntity
  8
2
100
AcDbLine
 10
91.41664500000002
 20
-20.36476400000004
 30
0.0
 11
87.41664500000002
 21
-20.36476400000004
 31
0.0
  0
LINE
  5
47D7
330
2A
100
AcDbEntity
  8
2
100
AcDbLine
 10
91.41664500000002
 20
-20.36476400000004
 30
0.0
 11
91.41664500000002
 21
-18.50454999999999
 31
0.0
  0
LINE
  5
47D8
330
2A
100
AcDbEntity
  8
2
100
AcDbLine
 10
90.74014499999998
 20
-21.04126400000001
 30
0.0
 11
91.41664500000002
 21
-20.36476400000004
 31
0.0
  0
LINE
  5
47D9
330
2A
100
AcDbEntity
  8
2
100
AcDbLine
 10
87.41664500000002
 20
-21.04126400000001
 30
0.0
 11
90.74014499999998
 21
-21.04126400000001
 31
0.0
  0
ARC
  5
47DA
330
2A
100
AcDbEntity
  8
2
100
AcDbCircle
 10
90.66664499999999
 20
1.779976999999973
 30
0.0
 40
7.678758999999998
100
AcDbArc
 50
64.9603400000023
 51
115.0396599999977
  0
LINE
  5
47DB
330
2A
100
AcDbEntity
  8
2
100
AcDbLine
 10
87.41664500000002
 20
3.958735999999986
 30
0.0
 11
87.41664500000002
 21
8.737048000000013
 31
0.0
  0
LINE
  5
47DC
330
2A
100
AcDbEntity
  8
2
100
AcDbLine
 10
90.66664499999999
 20
9.458735999999987
 30
0.0
 11
87.41664500000002
 21
9.458735999999987
 31
0.0
  0
LINE
  5
47DD
330
2A
100
AcDbEntity
  8
2
100
AcDbLine
 10
93.91664500000002
 20
3.958735999999986
 30
0.0
 11
93.91664500000002
 21
8.737048000000013
 31
0.0
  0
LINE
  5
47DE
330
2A
100
AcDbEntity
  8
2
100
AcDbLine
 10
87.41664500000002
 20
3.958735999999986
 30
0.0
 11
93.91664500000002
 21
3.958735999999986
 31
0.0
  0
LINE
  5
47DF
330
2A
100
AcDbEntity
  8
2
 62
     4
370
    13
100
AcDbLine
 10
84.09314500000006
 20
-21.04126400000001
 30
0.0
 11
84.09314500000006
 21
-18.54091299999999
 31
0.0
  0
LINE
  5
47E0
330
2A
100
AcDbEntity
  8
2
100
AcDbLine
 10
83.41664500000002
 20
-20.36476400000004
 30
0.0
 11
87.41664500000002
 21
-20.36476400000004
 31
0.0
  0
LINE
  5
47E1
330
2A
100
AcDbEntity
  8
2
100
AcDbLine
 10
83.41664500000002
 20
-20.36476400000004
 30
0.0
 11
83.41664500000002
 21
-18.50454999999999
 31
0.0
  0
LINE
  5
47E2
330
2A
100
AcDbEntity
  8
2
100
AcDbLine
 10
84.09314500000006
 20
-21.04126400000001
 30
0.0
 11
83.41664500000002
 21
-20.36476400000004
 31
0.0
  0
LINE
  5
47E3
330
2A
100
AcDbEntity
  8
2
100
AcDbLine
 10
87.41664500000002
 20
-21.04126400000001
 30
0.0
 11
84.09314500000006
 21
-21.04126400000001
 31
0.0
  0
ARC
  5
47E4
330
2A
100
AcDbEntity
  8
2
100
AcDbCircle
 10
84.16664500000001
 20
1.779976999999973
 30
0.0
 40
7.678758999999998
100
AcDbArc
 50
64.9603400000023
 51
115.0396599999977
  0
LINE
  5
47E5
330
2A
100
AcDbEntity
  8
2
100
AcDbLine
 10
87.41664500000002
 20
3.958735999999986
 30
0.0
 11
87.41664500000002
 21
8.737048000000013
 31
0.0
  0
LINE
  5
47E6
330
2A
100
AcDbEntity
  8
2
100
AcDbLine
 10
84.16664500000001
 20
9.458735999999987
 30
0.0
 11
87.41664500000002
 21
9.458735999999987
 31
0.0
  0
LINE
  5
47E7
330
2A
100
AcDbEntity
  8
2
100
AcDbLine
 10
80.91664500000002
 20
3.958735999999986
 30
0.0
 11
80.91664500000002
 21
8.737048000000013
 31
0.0
  0
LINE
  5
47E8
330
2A
100
AcDbEntity
  8
2
100
AcDbLine
 10
87.41664500000002
 20
3.958735999999986
 30
0.0
 11
80.91664500000002
 21
3.958735999999986
 31
0.0
  0
LINE
  5
47E9
330
2A
100
AcDbEntity
  8
2
  6
CENTER
 62
     2
370
    13
100
AcDbLine
 10
87.41664500000002
 20
-22.05954600000001
 30
0.0
 11
87.41664500000002
 21
11.36601000000001
 31
0.0
  0
POINT
  5
47EA
330
2A
100
AcDbEntity
  8
2
100
AcDbPoint
 10
87.41664500000002
 20
3.958735999999986
 30
0.0
  0
LINE
  5
47EB
330
2A
100
AcDbEntity
  8
2
 62
     4
370
    13
100
AcDbLine
 10
36.6679079999999
 20
21.73308100000003
 30
0.0
 11
40.66790799999989
 21
21.73308100000003
 31
0.0
  0
LINE
  5
47EC
330
2A
100
AcDbEntity
  8
2
 62
     4
370
    13
100
AcDbLine
 10
36.6679079999999
 20
16.81508100000002
 30
0.0
 11
40.66790799999989
 21
16.81508100000002
 31
0.0
  0
ARC
  5
47ED
330
2A
100
AcDbEntity
  8
2
100
AcDbCircle
 10
47.28111499999999
 20
21.77408100000002
 30
0.0
 40
6.613208
100
AcDbArc
 50
157.7882050000007
 51
202.2117949999993
  0
LINE
  5
47EE
330
2A
100
AcDbEntity
  8
2
100
AcDbLine
 10
45.66790799999989
 20
19.27408100000002
 30
0.0
 11
41.15865499999995
 21
19.27408100000002
 31
0.0
  0
LINE
  5
47EF
330
2A
100
AcDbEntity
  8
2
100
AcDbLine
 10
40.66790799999989
 20
21.77408100000002
 30
0.0
 11
40.66790799999989
 21
19.27408100000002
 31
0.0
  0
LINE
  5
47F0
330
2A
100
AcDbEntity
  8
2
100
AcDbLine
 10
45.66790799999989
 20
24.27408100000004
 30
0.0
 11
41.15865499999995
 21
24.27408100000004
 31
0.0
  0
LINE
  5
47F1
330
2A
100
AcDbEntity
  8
2
100
AcDbLine
 10
45.66790799999989
 20
19.27408100000002
 30
0.0
 11
45.66790799999989
 21
24.27408100000004
 31
0.0
  0
ARC
  5
47F2
330
2A
100
AcDbEntity
  8
2
100
AcDbCircle
 10
47.28111499999999
 20
16.77408100000002
 30
0.0
 40
6.613208
100
AcDbArc
 50
157.7882050000007
 51
202.2117949999993
  0
LINE
  5
47F3
330
2A
100
AcDbEntity
  8
2
100
AcDbLine
 10
45.66790799999989
 20
19.27408100000002
 30
0.0
 11
41.15865499999995
 21
19.27408100000002
 31
0.0
  0
LINE
  5
47F4
330
2A
100
AcDbEntity
  8
2
100
AcDbLine
 10
40.66790799999989
 20
16.77408100000002
 30
0.0
 11
40.66790799999989
 21
19.27408100000002
 31
0.0
  0
LINE
  5
47F5
330
2A
100
AcDbEntity
  8
2
100
AcDbLine
 10
45.66790799999989
 20
14.27408100000002
 30
0.0
 11
41.15865499999995
 21
14.27408100000002
 31
0.0
  0
LINE
  5
47F6
330
2A
100
AcDbEntity
  8
2
100
AcDbLine
 10
45.66790799999989
 20
19.27408100000002
 30
0.0
 11
45.66790799999989
 21
14.27408100000002
 31
0.0
  0
POINT
  5
47F7
330
2A
100
AcDbEntity
  8
2
100
AcDbPoint
 10
45.66790799999989
 20
19.27408100000002
 30
0.0
  0
LINE
  5
47F8
330
2A
100
AcDbEntity
  8
2
100
AcDbLine
 10
37.20890800000006
 20
16.27408100000002
 30
0.0
 11
37.20890800000006
 21
19.27408100000002
 31
0.0
  0
LINE
  5
47F9
330
2A
100
AcDbEntity
  8
2
100
AcDbLine
 10
37.20890800000006
 20
16.27408100000002
 30
0.0
 11
40.68683599999984
 21
16.27408100000002
 31
0.0
  0
LINE
  5
47FA
330
2A
100
AcDbEntity
  8
2
100
AcDbLine
 10
36.6679079999999
 20
16.81508100000002
 30
0.0
 11
37.20890800000006
 21
16.27408100000002
 31
0.0
  0
LINE
  5
47FB
330
2A
100
AcDbEntity
  8
2
100
AcDbLine
 10
36.6679079999999
 20
19.27408100000002
 30
0.0
 11
36.6679079999999
 21
16.81508100000002
 31
0.0
  0
LINE
  5
47FC
330
2A
100
AcDbEntity
  8
2
100
AcDbLine
 10
37.20890800000006
 20
22.27408100000002
 30
0.0
 11
37.20890800000006
 21
19.27408100000002
 31
0.0
  0
LINE
  5
47FD
330
2A
100
AcDbEntity
  8
2
100
AcDbLine
 10
37.20890800000006
 20
22.27408100000002
 30
0.0
 11
40.68683599999984
 21
22.27408100000002
 31
0.0
  0
LINE
  5
47FE
330
2A
100
AcDbEntity
  8
2
100
AcDbLine
 10
36.6679079999999
 20
21.73308100000003
 30
0.0
 11
37.20890800000006
 21
22.27408100000002
 31
0.0
  0
LINE
  5
47FF
330
2A
100
AcDbEntity
  8
2
100
AcDbLine
 10
36.6679079999999
 20
19.27408100000002
 30
0.0
 11
36.6679079999999
 21
21.73308100000003
 31
0.0
  0
LINE
  5
4800
330
2A
100
AcDbEntity
  8
2
100
AcDbLine
 10
56.76790800000002
 20
1.958735999999986
 30
0.0
 11
12.6679079999999
 21
1.958735999999986
 31
0.0
  0
LINE
  5
4801
330
2A
100
AcDbEntity
  8
2
100
AcDbLine
 10
69.74948700000004
 20
3.458735999999986
 30
0.0
 11
69.74948700000004
 21
2.458735999999986
 31
0.0
  0
ARC
  5
4802
330
2A
100
AcDbEntity
  8
2
100
AcDbCircle
 10
69.24948700000005
 20
3.458735999999986
 30
0.0
 40
0.5
100
AcDbArc
 50
0.0
 51
90.0
  0
ARC
  5
4803
330
2A
100
AcDbEntity
  8
2
100
AcDbCircle
 10
69.24948700000005
 20
2.458735999999986
 30
0.0
 40
0.5
100
AcDbArc
 50
270.0
 51
0.0
  0
LINE
  5
4804
330
2A
100
AcDbEntity
  8
2
100
AcDbLine
 10
56.76790800000002
 20
3.958735999999986
 30
0.0
 11
12.6679079999999
 21
3.958735999999986
 31
0.0
  0
LINE
  5
4805
330
2A
100
AcDbEntity
  8
2
100
AcDbLine
 10
137.6679079999999
 20
1.958735999999986
 30
0.0
 11
68.56790799999997
 21
1.958735999999986
 31
0.0
  0
ARC
  5
4806
330
2A
100
AcDbEntity
  8
2
100
AcDbCircle
 10
55.1679079999999
 20
2.458735999999986
 30
0.0
 40
0.5
100
AcDbArc
 50
270.0
 51
0.0
  0
LINE
  5
4807
330
2A
100
AcDbEntity
  8
2
100
AcDbLine
 10
137.6679079999999
 20
3.958735999999986
 30
0.0
 11
68.56790799999997
 21
3.958735999999986
 31
0.0
  0
ARC
  5
4808
330
2A
100
AcDbEntity
  8
2
100
AcDbCircle
 10
55.1679079999999
 20
3.458735999999986
 30
0.0
 40
0.5
100
AcDbArc
 50
0.0
 51
90.0
  0
LINE
  5
4809
330
2A
100
AcDbEntity
  8
2
100
AcDbLine
 10
55.66790799999989
 20
3.458735999999986
 30
0.0
 11
55.66790799999989
 21
2.458735999999986
 31
0.0
  0
ARC
  5
480A
330
2A
100
AcDbEntity
  8
2
100
AcDbCircle
 10
38.1679079999999
 20
2.458735999999986
 30
0.0
 40
0.5
100
AcDbArc
 50
180.0
 51
270.0
  0
ARC
  5
480B
330
2A
100
AcDbEntity
  8
2
100
AcDbCircle
 10
38.1679079999999
 20
3.458735999999986
 30
0.0
 40
0.5
100
AcDbArc
 50
90.0
 51
180.0
  0
ARC
  5
480C
330
2A
100
AcDbEntity
  8
2
100
AcDbCircle
 10
76.01461700000005
 20
2.458735999999986
 30
0.0
 40
0.5
100
AcDbArc
 50
270.0
 51
0.0
  0
ARC
  5
480D
330
2A
100
AcDbEntity
  8
2
100
AcDbCircle
 10
76.01461700000005
 20
3.458735999999986
 30
0.0
 40
0.5
100
AcDbArc
 50
0.0
 51
90.0
  0
ARC
  5
480E
330
2A
100
AcDbEntity
  8
2
100
AcDbCircle
 10
79.22152200000005
 20
3.458735999999986
 30
0.0
 40
0.5
100
AcDbArc
 50
0.0
 51
90.0
  0
ARC
  5
480F
330
2A
100
AcDbEntity
  8
2
100
AcDbCircle
 10
79.22152200000005
 20
2.458735999999986
 30
0.0
 40
0.5
100
AcDbArc
 50
270.0
 51
0.0
  0
ARC
  5
4810
330
2A
100
AcDbEntity
  8
2
100
AcDbCircle
 10
85.88233799999988
 20
2.458735999999986
 30
0.0
 40
0.5
100
AcDbArc
 50
270.0
 51
0.0
  0
ARC
  5
4811
330
2A
100
AcDbEntity
  8
2
100
AcDbCircle
 10
85.88233799999988
 20
3.458735999999986
 30
0.0
 40
0.5
100
AcDbArc
 50
0.0
 51
90.0
  0
ARC
  5
4812
330
2A
100
AcDbEntity
  8
2
100
AcDbCircle
 10
88.88102800000002
 20
2.458735999999986
 30
0.0
 40
0.5
100
AcDbArc
 50
270.0
 51
0.0
  0
ARC
  5
4813
330
2A
100
AcDbEntity
  8
2
100
AcDbCircle
 10
88.88102800000002
 20
3.458735999999986
 30
0.0
 40
0.5
100
AcDbArc
 50
0.0
 51
90.0
  0
ARC
  5
4814
330
2A
100
AcDbEntity
  8
2
100
AcDbCircle
 10
95.0299500000001
 20
2.458735999999986
 30
0.0
 40
0.5
100
AcDbArc
 50
270.0
 51
0.0
  0
ARC
  5
4815
330
2A
100
AcDbEntity
  8
2
100
AcDbCircle
 10
95.0299500000001
 20
3.458735999999986
 30
0.0
 40
0.5
100
AcDbArc
 50
0.0
 51
90.0
  0
ARC
  5
4816
330
2A
100
AcDbEntity
  8
2
100
AcDbCircle
 10
97.7581439999999
 20
2.458735999999986
 30
0.0
 40
0.5
100
AcDbArc
 50
270.0
 51
0.0
  0
ARC
  5
4817
330
2A
100
AcDbEntity
  8
2
100
AcDbCircle
 10
97.7581439999999
 20
3.458735999999986
 30
0.0
 40
0.5
100
AcDbArc
 50
0.0
 51
90.0
  0
ARC
  5
4818
330
2A
100
AcDbEntity
  8
2
100
AcDbCircle
 10
103.179509
 20
2.458735999999986
 30
0.0
 40
0.5
100
AcDbArc
 50
270.0
 51
0.0
  0
ARC
  5
4819
330
2A
100
AcDbEntity
  8
2
100
AcDbCircle
 10
103.179509
 20
3.458735999999986
 30
0.0
 40
0.5
100
AcDbArc
 50
0.0
 51
90.0
  0
ARC
  5
481A
330
2A
100
AcDbEntity
  8
2
100
AcDbCircle
 10
105.5690610000001
 20
2.458735999999986
 30
0.0
 40
0.5
100
AcDbArc
 50
270.0
 51
0.0
  0
ARC
  5
481B
330
2A
100
AcDbEntity
  8
2
100
AcDbCircle
 10
105.5690610000001
 20
3.458735999999986
 30
0.0
 40
0.5
100
AcDbArc
 50
0.0
 51
90.0
  0
ARC
  5
481C
330
2A
100
AcDbEntity
  8
2
100
AcDbCircle
 10
110.083392
 20
2.458735999999986
 30
0.0
 40
0.5
100
AcDbArc
 50
270.0
 51
0.0
  0
ARC
  5
481D
330
2A
100
AcDbEntity
  8
2
100
AcDbCircle
 10
110.083392
 20
3.458735999999986
 30
0.0
 40
0.5
100
AcDbArc
 50
0.0
 51
90.0
  0
ARC
  5
481E
330
2A
100
AcDbEntity
  8
2
100
AcDbCircle
 10
112.0764490000001
 20
2.458735999999986
 30
0.0
 40
0.5
100
AcDbArc
 50
270.0
 51
0.0
  0
ARC
  5
481F
330
2A
100
AcDbEntity
  8
2
100
AcDbCircle
 10
112.0764490000001
 20
3.458735999999986
 30
0.0
 40
0.5
100
AcDbArc
 50
0.0
 51
90.0
  0
ARC
  5
4820
330
2A
100
AcDbEntity
  8
2
100
AcDbCircle
 10
115.531831
 20
2.458735999999986
 30
0.0
 40
0.5
100
AcDbArc
 50
270.0
 51
0.0
  0
ARC
  5
4821
330
2A
100
AcDbEntity
  8
2
100
AcDbCircle
 10
115.531831
 20
3.458735999999986
 30
0.0
 40
0.5
100
AcDbArc
 50
0.0
 51
90.0
  0
ARC
  5
4822
330
2A
100
AcDbEntity
  8
2
100
AcDbCircle
 10
117.0825829999999
 20
3.458735999999986
 30
0.0
 40
0.5
100
AcDbArc
 50
0.0
 51
90.0
  0
ARC
  5
4823
330
2A
100
AcDbEntity
  8
2
100
AcDbCircle
 10
117.0825829999999
 20
2.458735999999986
 30
0.0
 40
0.5
100
AcDbArc
 50
270.0
 51
0.0
  0
ARC
  5
4824
330
2A
100
AcDbEntity
  8
2
100
AcDbCircle
 10
119.3592760000001
 20
2.458735999999986
 30
0.0
 40
0.5
100
AcDbArc
 50
270.0
 51
0.0
  0
ARC
  5
4825
330
2A
100
AcDbEntity
  8
2
100
AcDbCircle
 10
119.3592760000001
 20
3.458735999999986
 30
0.0
 40
0.5
100
AcDbArc
 50
0.0
 51
90.0
  0
ARC
  5
4826
330
2A
100
AcDbEntity
  8
2
100
AcDbCircle
 10
120.435355
 20
2.458735999999986
 30
0.0
 40
0.5
100
AcDbArc
 50
270.0
 51
0.0
  0
ARC
  5
4827
330
2A
100
AcDbEntity
  8
2
100
AcDbCircle
 10
120.435355
 20
3.458735999999986
 30
0.0
 40
0.5
100
AcDbArc
 50
0.0
 51
90.0
  0
ARC
  5
4828
330
2A
100
AcDbEntity
  8
2
100
AcDbCircle
 10
122.0317569999999
 20
2.458735999999986
 30
0.0
 40
0.5
100
AcDbArc
 50
270.0
 51
0.0
  0
ARC
  5
4829
330
2A
100
AcDbEntity
  8
2
100
AcDbCircle
 10
122.0317569999999
 20
3.458735999999986
 30
0.0
 40
0.5
100
AcDbArc
 50
0.0
 51
90.0
  0
LINE
  5
482A
330
2A
100
AcDbEntity
  8
2
100
AcDbLine
 10
76.51461700000004
 20
3.458735999999986
 30
0.0
 11
76.51461700000004
 21
2.458735999999986
 31
0.0
  0
LINE
  5
482B
330
2A
100
AcDbEntity
  8
2
100
AcDbLine
 10
79.72152200000005
 20
3.458735999999986
 30
0.0
 11
79.72152200000005
 21
2.458735999999986
 31
0.0
  0
LINE
  5
482C
330
2A
100
AcDbEntity
  8
2
100
AcDbLine
 10
86.38233799999989
 20
3.458735999999986
 30
0.0
 11
86.38233799999989
 21
2.458735999999986
 31
0.0
  0
LINE
  5
482D
330
2A
100
AcDbEntity
  8
2
100
AcDbLine
 10
95.52995000000008
 20
3.458735999999986
 30
0.0
 11
95.52995000000008
 21
2.458735999999986
 31
0.0
  0
LINE
  5
482E
330
2A
100
AcDbEntity
  8
2
100
AcDbLine
 10
103.679509
 20
3.458735999999986
 30
0.0
 11
103.679509
 21
2.458735999999986
 31
0.0
  0
LINE
  5
482F
330
2A
100
AcDbEntity
  8
2
100
AcDbLine
 10
110.583392
 20
3.458735999999986
 30
0.0
 11
110.583392
 21
2.458735999999986
 31
0.0
  0
LINE
  5
4830
330
2A
100
AcDbEntity
  8
2
100
AcDbLine
 10
116.031831
 20
3.458735999999986
 30
0.0
 11
116.031831
 21
2.458735999999986
 31
0.0
  0
LINE
  5
4831
330
2A
100
AcDbEntity
  8
2
100
AcDbLine
 10
119.8592760000001
 20
3.458735999999986
 30
0.0
 11
119.8592760000001
 21
2.458735999999986
 31
0.0
  0
LINE
  5
4832
330
2A
100
AcDbEntity
  8
2
100
AcDbLine
 10
12.6679079999999
 20
3.958735999999986
 30
0.0
 11
12.6679079999999
 21
1.958735999999986
 31
0.0
  0
LINE
  5
4833
330
2A
100
AcDbEntity
  8
2
100
AcDbLine
 10
37.6679079999999
 20
3.458735999999986
 30
0.0
 11
37.6679079999999
 21
2.458735999999986
 31
0.0
  0
LINE
  5
4834
330
2A
100
AcDbEntity
  8
2
100
AcDbLine
 10
89.38102800000001
 20
3.458735999999986
 30
0.0
 11
89.38102800000001
 21
2.458735999999986
 31
0.0
  0
LINE
  5
4835
330
2A
100
AcDbEntity
  8
2
100
AcDbLine
 10
98.25814399999993
 20
3.458735999999986
 30
0.0
 11
98.25814399999993
 21
2.458735999999986
 31
0.0
  0
LINE
  5
4836
330
2A
100
AcDbEntity
  8
2
100
AcDbLine
 10
106.0690610000001
 20
3.458735999999986
 30
0.0
 11
106.0690610000001
 21
2.458735999999986
 31
0.0
  0
LINE
  5
4837
330
2A
100
AcDbEntity
  8
2
100
AcDbLine
 10
112.5764490000001
 20
3.458735999999986
 30
0.0
 11
112.5764490000001
 21
2.458735999999986
 31
0.0
  0
LINE
  5
4838
330
2A
100
AcDbEntity
  8
2
100
AcDbLine
 10
117.5825829999999
 20
3.458735999999986
 30
0.0
 11
117.5825829999999
 21
2.458735999999986
 31
0.0
  0
LINE
  5
4839
330
2A
100
AcDbEntity
  8
2
100
AcDbLine
 10
120.935355
 20
3.458735999999986
 30
0.0
 11
120.935355
 21
2.458735999999986
 31
0.0
  0
LINE
  5
483A
330
2A
100
AcDbEntity
  8
2
100
AcDbLine
 10
122.5317569999999
 20
3.458735999999986
 30
0.0
 11
122.5317569999999
 21
2.458735999999986
 31
0.0
  0
LINE
  5
483B
330
2A
100
AcDbEntity
  8
2
100
AcDbLine
 10
137.6679079999999
 20
3.958735999999986
 30
0.0
 11
137.6679079999999
 21
1.958735999999986
 31
0.0
  0
LINE
  5
483C
330
2A
100
AcDbEntity
  8
2
100
AcDbLine
 10
67.6679079999999
 20
32.55065000000002
 30
0.0
 11
67.6679079999999
 21
34.67416500000002
 31
0.0
  0
LINE
  5
483D
330
2A
100
AcDbEntity
  8
2
100
AcDbLine
 10
67.6679079999999
 20
28.80431299999998
 30
0.0
 11
67.6679079999999
 21
30.68626
 31
0.0
  0
LINE
  5
483E
330
2A
100
AcDbEntity
  8
2
100
AcDbLine
 10
57.6679079999999
 20
27.61806000000002
 30
0.0
 11
57.6679079999999
 21
16.56529899999998
 31
0.0
  0
LINE
  5
483F
330
2A
100
AcDbEntity
  8
2
100
AcDbLine
 10
58.66790799999989
 20
27.85690299999999
 30
0.0
 11
58.66790799999989
 21
27.72842200000003
 31
0.0
  0
LINE
  5
4840
330
2A
100
AcDbEntity
  8
2
100
AcDbLine
 10
65.9633060000001
 20
35.67416500000002
 30
0.0
 11
66.6679079999999
 21
35.67416500000002
 31
0.0
  0
LINE
  5
4841
330
2A
100
AcDbEntity
  8
2
100
AcDbLine
 10
60.29751800000007
 20
37.95873599999999
 30
0.0
 11
57.76790800000004
 21
37.95873599999999
 31
0.0
  0
LINE
  5
4842
330
2A
100
AcDbEntity
  8
2
100
AcDbLine
 10
57.6679079999999
 20
33.14369599999999
 30
0.0
 11
57.6679079999999
 21
29.63913400000001
 31
0.0
  0
LINE
  5
4843
330
2A
100
AcDbEntity
  8
2
100
AcDbLine
 10
67.6679079999999
 20
-2.041264000000011
 30
0.0
 11
67.6679079999999
 21
0.9876679999999852
 31
0.0
  0
ARC
  5
4844
330
2A
100
AcDbEntity
  8
2
100
AcDbCircle
 10
66.6679079999999
 20
-2.041264000000011
 30
0.0
 40
1.0
100
AcDbArc
 50
270.0
 51
0.0
  0
ARC
  5
4845
330
2A
100
AcDbEntity
  8
2
100
AcDbCircle
 10
58.66790799999989
 20
-2.041264000000011
 30
0.0
 40
1.0
100
AcDbArc
 50
180.0
 51
270.0
  0
LINE
  5
4846
330
2A
100
AcDbEntity
  8
2
100
AcDbLine
 10
66.6679079999999
 20
-3.041264000000011
 30
0.0
 11
58.66790799999989
 21
-3.041264000000011
 31
0.0
  0
LINE
  5
4847
330
2A
100
AcDbEntity
  8
2
100
AcDbLine
 10
58.66790799999989
 20
-3.041264000000011
 30
0.0
 11
66.6679079999999
 21
-3.041264000000011
 31
0.0
  0
ARC
  5
4848
330
2A
100
AcDbEntity
  8
2
100
AcDbCircle
 10
58.66790799999989
 20
-2.041264000000011
 30
0.0
 40
1.0
100
AcDbArc
 50
180.0
 51
270.0
  0
ARC
  5
4849
330
2A
100
AcDbEntity
  8
2
100
AcDbCircle
 10
66.6679079999999
 20
-2.041264000000011
 30
0.0
 40
1.0
100
AcDbArc
 50
270.0
 51
0.0
  0
ARC
  5
484A
330
2A
100
AcDbEntity
  8
2
100
AcDbCircle
 10
66.6679079999999
 20
16.56529899999998
 30
0.0
 40
1.0
100
AcDbArc
 50
270.0
 51
0.0
  0
ARC
  5
484B
330
2A
100
AcDbEntity
  8
2
100
AcDbCircle
 10
58.66790799999989
 20
16.56529899999998
 30
0.0
 40
1.0
100
AcDbArc
 50
180.0
 51
270.0
  0
LINE
  5
484C
330
2A
100
AcDbEntity
  8
2
100
AcDbLine
 10
58.66790799999989
 20
15.56529899999998
 30
0.0
 11
66.6679079999999
 21
15.56529899999998
 31
0.0
  0
LINE
  5
484D
330
2A
100
AcDbEntity
  8
2
100
AcDbLine
 10
66.6679079999999
 20
15.56529899999998
 30
0.0
 11
58.66790799999989
 21
15.56529899999998
 31
0.0
  0
ARC
  5
484E
330
2A
100
AcDbEntity
  8
2
100
AcDbCircle
 10
58.66790799999989
 20
16.56529899999998
 30
0.0
 40
1.0
100
AcDbArc
 50
180.0
 51
270.0
  0
ARC
  5
484F
330
2A
100
AcDbEntity
  8
2
100
AcDbCircle
 10
66.6679079999999
 20
16.56529899999998
 30
0.0
 40
1.0
100
AcDbArc
 50
270.0
 51
0.0
  0
ARC
  5
4850
330
2A
100
AcDbEntity
  8
2
100
AcDbCircle
 10
66.6679079999999
 20
26.72842200000002
 30
0.0
 40
1.0
100
AcDbArc
 50
0.0
 51
90.0
  0
ARC
  5
4851
330
2A
100
AcDbEntity
  8
2
100
AcDbCircle
 10
58.66790799999989
 20
26.72842200000002
 30
0.0
 40
1.0
100
AcDbArc
 50
90.0
 51
180.0
  0
LINE
  5
4852
330
2A
100
AcDbEntity
  8
2
100
AcDbLine
 10
66.6679079999999
 20
27.72842200000003
 30
0.0
 11
58.66790799999989
 21
27.72842200000003
 31
0.0
  0
LINE
  5
4853
330
2A
100
AcDbEntity
  8
2
100
AcDbLine
 10
58.66790799999989
 20
27.72842200000003
 30
0.0
 11
66.6679079999999
 21
27.72842200000003
 31
0.0
  0
ARC
  5
4854
330
2A
100
AcDbEntity
  8
2
100
AcDbCircle
 10
58.66790799999989
 20
26.72842200000002
 30
0.0
 40
1.0
100
AcDbArc
 50
90.0
 51
180.0
  0
ARC
  5
4855
330
2A
100
AcDbEntity
  8
2
100
AcDbCircle
 10
66.6679079999999
 20
26.72842200000002
 30
0.0
 40
1.0
100
AcDbArc
 50
0.0
 51
90.0
  0
LINE
  5
4856
330
2A
100
AcDbEntity
  8
2
100
AcDbLine
 10
58.66790799999989
 20
31.96054400000003
 30
0.0
 11
58.66790799999989
 21
29.95325300000002
 31
0.0
  0
LINE
  5
4857
330
2A
100
AcDbEntity
  8
2
100
AcDbLine
 10
59.6679079999999
 20
32.96054400000004
 30
0.0
 11
58.66790799999989
 21
31.96054400000003
 31
0.0
  0
LINE
  5
4858
330
2A
100
AcDbEntity
  8
2
100
AcDbLine
 10
66.28311499999995
 20
32.34533699999996
 30
0.0
 11
65.66790799999989
 21
32.96054400000004
 31
0.0
  0
ARC
  5
4859
330
2A
100
AcDbEntity
  8
2
100
AcDbCircle
 10
62.6679079999999
 20
22.41812299999998
 30
0.0
 40
10.96096
100
AcDbArc
 50
74.11552199999966
 51
105.8844780000003
  0
ARC
  5
485A
330
2A
100
AcDbEntity
  8
2
100
AcDbCircle
 10
62.67335200000002
 20
48.02830399999999
 30
0.0
 40
15.364572
100
AcDbArc
 50
258.7197149999992
 51
281.2457599999992
  0
ARC
  5
485B
330
2A
100
AcDbEntity
  8
2
100
AcDbCircle
 10
62.6679079999999
 20
45.967693
 30
0.0
 40
14.567094
100
AcDbArc
 50
254.0623289999992
 51
272.5749979999977
  0
LINE
  5
485C
330
2A
100
AcDbEntity
  8
2
100
AcDbLine
 10
66.6679079999999
 20
30.36985800000002
 30
0.0
 11
66.6679079999999
 21
28.90098499999999
 31
0.0
  0
LINE
  5
485D
330
2A
100
AcDbEntity
  8
2
100
AcDbLine
 10
57.6679079999999
 20
0.9876679999999852
 30
0.0
 11
56.76790800000002
 21
1.887668000000019
 31
0.0
  0
LINE
  5
485E
330
2A
100
AcDbEntity
  8
2
100
AcDbLine
 10
68.56790799999997
 20
1.887668000000019
 30
0.0
 11
67.6679079999999
 21
0.9876679999999852
 31
0.0
  0
LINE
  5
485F
330
2A
100
AcDbEntity
  8
2
100
AcDbLine
 10
56.76790800000002
 20
36.95873599999999
 30
0.0
 11
56.76790800000002
 21
1.887668000000019
 31
0.0
  0
LINE
  5
4860
330
2A
100
AcDbEntity
  8
2
100
AcDbLine
 10
68.56790799999997
 20
36.95873599999999
 30
0.0
 11
68.56790799999997
 21
1.887668000000019
 31
0.0
  0
ARC
  5
4861
330
2A
100
AcDbEntity
  8
2
100
AcDbCircle
 10
67.56790799999999
 20
36.95873599999999
 30
0.0
 40
1.0
100
AcDbArc
 50
0.0
 51
63.95062599999918
  0
ARC
  5
4862
330
2A
100
AcDbEntity
  8
2
100
AcDbCircle
 10
57.76790800000004
 20
36.95873599999999
 30
0.0
 40
1.0
100
AcDbArc
 50
90.0
 51
180.0
  0
LINE
  5
4863
330
2A
100
AcDbEntity
  8
2
100
AcDbLine
 10
57.6679079999999
 20
0.9876679999999852
 30
0.0
 11
57.6679079999999
 21
-2.041264000000011
 31
0.0
  0
LINE
  5
4864
330
2A
100
AcDbEntity
  8
2
100
AcDbLine
 10
67.6679079999999
 20
16.56529899999998
 30
0.0
 11
67.6679079999999
 21
26.81022899999999
 31
0.0
  0
LINE
  5
4865
330
2A
100
AcDbEntity
  8
2
100
AcDbLine
 10
58.66790799999989
 20
35.67416500000002
 30
0.0
 11
59.28956900000002
 21
35.67416500000002
 31
0.0
  0
ARC
  5
4866
330
2A
100
AcDbEntity
  8
2
100
AcDbCircle
 10
58.66790799999989
 20
34.67416500000002
 30
0.0
 40
1.0
100
AcDbArc
 50
90.0
 51
147.2872729999987
  0
ARC
  5
4867
330
2A
100
AcDbEntity
  8
2
100
AcDbCircle
 10
66.6679079999999
 20
34.67416500000002
 30
0.0
 40
1.0
100
AcDbArc
 50
0.0
 51
90.0
  0
LINE
  5
4868
330
2A
100
AcDbEntity
  8
2
100
AcDbLine
 10
45.66790799999989
 20
14.27408100000002
 30
0.0
 11
45.66790799999989
 21
24.27408100000004
 31
0.0
  0
LINE
  5
4869
330
2A
100
AcDbEntity
  8
2
  6
CENTER
 62
     2
370
    13
100
AcDbLine
 10
62.6679079999999
 20
19.27408100000002
 30
0.0
 11
33.30852899999991
 21
19.27408100000002
 31
0.0
  0
LINE
  5
486A
330
2A
100
AcDbEntity
  8
2
  6
CENTER
 62
     2
370
    13
100
AcDbLine
 10
42.44348300000001
 20
32.95873599999999
 30
0.0
 11
82.76647700000012
 21
32.95873599999999
 31
0.0
  0
ARC
  5
486B
330
2A
100
AcDbEntity
  8
2
100
AcDbCircle
 10
67.30595100000005
 20
52.89929799999999
 30
0.0
 40
1.0
100
AcDbArc
 50
281.1077659999972
 51
107.4385149999999
  0
ARC
  5
486C
330
2A
100
AcDbEntity
  8
2
100
AcDbCircle
 10
67.30595100000005
 20
42.66972800000002
 30
0.0
 40
1.0
100
AcDbArc
 50
281.1077659999972
 51
107.4385149999999
  0
ARC
  5
486D
330
2A
100
AcDbEntity
  8
2
100
AcDbCircle
 10
67.30595100000005
 20
48.19536399999998
 30
0.0
 40
1.0
100
AcDbArc
 50
281.1077659999972
 51
107.4385149999999
  0
LINE
  5
486E
330
2A
100
AcDbEntity
  8
2
100
AcDbLine
 10
61.34798599999999
 20
45.27567699999997
 30
0.0
 11
67.56102899999996
 21
43.63664799999997
 31
0.0
  0
LINE
  5
486F
330
2A
100
AcDbEntity
  8
2
100
AcDbLine
 10
66.6679079999999
 20
49.39789400000001
 30
0.0
 11
67.56102899999996
 21
49.16228499999999
 31
0.0
  0
ARC
  5
4870
330
2A
100
AcDbEntity
  8
2
100
AcDbCircle
 10
57.74476700000015
 20
45.19201099999998
 30
0.0
 40
1.0
100
AcDbArc
 50
107.4385149999999
 51
286.6206009999988
  0
LINE
  5
4871
330
2A
100
AcDbEntity
  8
2
100
AcDbLine
 10
57.489689
 20
49.75072699999998
 30
0.0
 11
58.66790799999989
 21
49.439907
 31
0.0
  0
ARC
  5
4872
330
2A
100
AcDbEntity
  8
2
100
AcDbCircle
 10
57.74476700000015
 20
50.717647
 30
0.0
 40
1.0
100
AcDbArc
 50
98.02085800000106
 51
286.6206009999988
  0
LINE
  5
4873
330
2A
100
AcDbEntity
  8
2
100
AcDbLine
 10
67.60563300000011
 20
47.24132500000002
 30
0.0
 11
58.044449
 21
44.237972
 31
0.0
  0
LINE
  5
4874
330
2A
100
AcDbEntity
  8
2
100
AcDbLine
 10
67.00626899999997
 20
49.14940300000001
 30
0.0
 11
57.44508500000007
 21
46.14605
 31
0.0
  0
LINE
  5
4875
330
2A
100
AcDbEntity
  8
2
100
AcDbLine
 10
57.489689
 20
44.22509000000001
 30
0.0
 11
63.70273199999997
 21
42.58606199999997
 31
0.0
  0
LINE
  5
4876
330
2A
100
AcDbEntity
  8
2
100
AcDbLine
 10
67.00626899999997
 20
53.85333700000001
 30
0.0
 11
57.44508500000007
 21
51.67168600000002
 31
0.0
  0
LINE
  5
4877
330
2A
100
AcDbEntity
  8
2
100
AcDbLine
 10
67.49860600000011
 20
51.91803099999997
 30
0.0
 11
58.044449
 21
49.76360799999998
 31
0.0
  0
ARC
  5
4878
330
2A
100
AcDbEntity
  8
2
100
AcDbCircle
 10
67.30595100000005
 20
37.14409100000001
 30
0.0
 40
1.0
100
AcDbArc
 50
281.1077659999972
 51
107.4385149999999
  0
LINE
  5
4879
330
2A
100
AcDbEntity
  8
2
100
AcDbLine
 10
61.34798599999999
 20
39.75004000000001
 30
0.0
 11
67.56102899999996
 21
38.11101200000003
 31
0.0
  0
ARC
  5
487A
330
2A
100
AcDbEntity
  8
2
100
AcDbCircle
 10
67.59104900000011
 20
27.80727100000002
 30
0.0
 40
1.0
100
AcDbArc
 50
273.7319680000041
 51
85.59196300000492
  0
LINE
  5
487B
330
2A
100
AcDbEntity
  8
2
100
AcDbLine
 10
62.95990499999994
 20
29.20510200000001
 30
0.0
 11
67.56102899999996
 21
28.82773400000002
 31
0.0
  0
ARC
  5
487C
330
2A
100
AcDbEntity
  8
2
100
AcDbCircle
 10
67.30595100000005
 20
31.61845499999998
 30
0.0
 40
1.0
100
AcDbArc
 50
287.438515
 51
107.4385149999999
  0
LINE
  5
487D
330
2A
100
AcDbEntity
  8
2
100
AcDbLine
 10
61.34798599999999
 20
34.22440399999999
 30
0.0
 11
67.56102899999996
 21
32.585375
 31
0.0
  0
ARC
  5
487E
330
2A
100
AcDbEntity
  8
2
100
AcDbCircle
 10
57.74476700000015
 20
39.66637400000003
 30
0.0
 40
1.0
100
AcDbArc
 50
107.4385149999999
 51
286.6206009999988
  0
ARC
  5
487F
330
2A
100
AcDbEntity
  8
2
100
AcDbCircle
 10
57.74476700000015
 20
34.140738
 30
0.0
 40
1.0
100
AcDbArc
 50
107.4385149999999
 51
286.6206009999988
  0
ARC
  5
4880
330
2A
100
AcDbEntity
  8
2
100
AcDbCircle
 10
57.74476700000015
 20
28.61510199999998
 30
0.0
 40
1.0
100
AcDbArc
 50
100.7387850000046
 51
286.6206009999988
  0
LINE
  5
4881
330
2A
100
AcDbEntity
  8
2
100
AcDbLine
 10
57.489689
 20
33.17381699999998
 30
0.0
 11
59.38198499999998
 21
32.674621
 31
0.0
  0
LINE
  5
4882
330
2A
100
AcDbEntity
  8
2
100
AcDbLine
 10
67.00626899999997
 20
32.57249400000001
 30
0.0
 11
57.44508500000007
 21
29.569141
 31
0.0
  0
LINE
  5
4883
330
2A
100
AcDbEntity
  8
2
100
AcDbLine
 10
67.60563300000011
 20
30.66441600000002
 30
0.0
 11
58.044449
 21
27.66106200000002
 31
0.0
  0
LINE
  5
4884
330
2A
100
AcDbEntity
  8
2
100
AcDbLine
 10
67.60563300000011
 20
36.19005199999997
 30
0.0
 11
58.044449
 21
33.18669899999998
 31
0.0
  0
LINE
  5
4885
330
2A
100
AcDbEntity
  8
2
100
AcDbLine
 10
67.00626899999997
 20
38.09812999999997
 30
0.0
 11
57.44508500000007
 21
35.09477700000002
 31
0.0
  0
LINE
  5
4886
330
2A
100
AcDbEntity
  8
2
100
AcDbLine
 10
57.489689
 20
38.69945400000001
 30
0.0
 11
63.70273199999997
 21
37.06042500000001
 31
0.0
  0
LINE
  5
4887
330
2A
100
AcDbEntity
  8
2
100
AcDbLine
 10
67.60563300000011
 20
41.71568899999999
 30
0.0
 11
58.044449
 21
38.712335
 31
0.0
  0
LINE
  5
4888
330
2A
100
AcDbEntity
  8
2
100
AcDbLine
 10
67.00626899999997
 20
43.62376699999997
 30
0.0
 11
57.44508500000007
 21
40.62041399999997
 31
0.0
  0
ARC
  5
4889
330
2A
100
AcDbEntity
  8
2
100
AcDbCircle
 10
65.66790799999989
 20
41.20500700000002
 30
0.0
 40
3.0
100
AcDbArc
 50
55.14462199999815
 51
90.0
  0
LINE
  5
488A
330
2A
100
AcDbEntity
  8
2
100
AcDbLine
 10
58.66790799999989
 20
49.90568300000001
 30
0.0
 11
58.66790799999989
 21
47.89185399999996
 31
0.0
  0
ARC
  5
488B
330
2A
100
AcDbEntity
  8
2
100
AcDbCircle
 10
62.6679079999999
 20
73.77766700000002
 30
0.0
 40
57.88305300000001
100
AcDbArc
 50
275.8503000000005
 51
279.9518790000043
  0
LINE
  5
488C
330
2A
100
AcDbEntity
  8
2
100
AcDbLine
 10
56.76790800000002
 20
13.95873599999999
 30
0.0
 11
45.66790799999989
 21
13.95873599999999
 31
0.0
  0
LINE
  5
488D
330
2A
100
AcDbEntity
  8
2
100
AcDbLine
 10
68.56790799999997
 20
12.95873599999999
 30
0.0
 11
73.66790799999989
 21
12.95873599999999
 31
0.0
  0
ARC
  5
488E
330
2A
100
AcDbEntity
  8
2
100
AcDbCircle
 10
62.6679079999999
 20
36.68328800000001
 30
0.0
 40
31.452822
100
AcDbArc
 50
77.83324000000232
 51
102.1667599999976
  0
ARC
  5
488F
330
2A
100
AcDbEntity
  8
2
100
AcDbCircle
 10
57.09277199999997
 20
62.54193499999995
 30
0.0
 40
5.0
100
AcDbArc
 50
102.1667599999976
 51
170.825334000002
  0
ARC
  5
4890
330
2A
100
AcDbEntity
  8
2
100
AcDbCircle
 10
46.66790799999989
 20
33.95873599999999
 30
0.0
 40
1.0
100
AcDbArc
 50
90.0
 51
180.0
  0
LINE
  5
4891
330
2A
100
AcDbEntity
  8
2
100
AcDbLine
 10
45.66790799999989
 20
33.95873599999999
 30
0.0
 11
45.66790799999989
 21
13.95873599999999
 31
0.0
  0
LINE
  5
4892
330
2A
100
AcDbEntity
  8
2
100
AcDbLine
 10
46.66790799999989
 20
34.95873599999999
 30
0.0
 11
48.66790799999989
 21
34.95873599999999
 31
0.0
  0
LINE
  5
4893
330
2A
100
AcDbEntity
  8
2
100
AcDbLine
 10
52.15673800000013
 20
63.339159
 30
0.0
 11
52.15673800000013
 21
58.75651299999998
 31
0.0
  0
LINE
  5
4894
330
2A
100
AcDbEntity
  8
2
100
AcDbLine
 10
56.6679079999999
 20
23.95873599999999
 30
0.0
 11
56.6679079999999
 21
34.703105
 31
0.0
  0
LINE
  5
4895
330
2A
100
AcDbEntity
  8
2
100
AcDbLine
 10
58.66790799999989
 20
52.06462099999999
 30
0.0
 11
58.66790799999989
 21
51.89299799999997
 31
0.0
  0
ARC
  5
4896
330
2A
100
AcDbEntity
  8
2
100
AcDbCircle
 10
57.1679079999999
 20
52.06462099999999
 30
0.0
 40
1.5
100
AcDbArc
 50
0.0
 51
110.667199000002
  0
ARC
  5
4897
330
2A
100
AcDbEntity
  8
2
100
AcDbCircle
 10
62.6679079999999
 20
38.870339
 30
0.0
 40
9.868522999999999
100
AcDbArc
 50
76.97849600000059
 51
113.9117559999998
  0
LINE
  5
4898
330
2A
100
AcDbEntity
  8
2
100
AcDbLine
 10
58.66790799999989
 20
47.89185399999996
 30
0.0
 11
59.6679079999999
 21
46.89185399999995
 31
0.0
  0
ARC
  5
4899
330
2A
100
AcDbEntity
  8
2
100
AcDbCircle
 10
62.6679079999999
 20
43.870062
 30
0.0
 40
11.334722
100
AcDbArc
 50
68.40872399999852
 51
114.6692899999975
  0
ARC
  5
489A
330
2A
100
AcDbEntity
  8
2
100
AcDbCircle
 10
53.15673800000013
 20
58.75651299999998
 30
0.0
 40
1.0
100
AcDbArc
 50
180.0
 51
280.6997549999952
  0
ARC
  5
489B
330
2A
100
AcDbEntity
  8
2
100
AcDbCircle
 10
62.6679079999999
 20
8.418884999999987
 30
0.0
 40
50.228304
100
AcDbArc
 50
79.30024500000476
 51
100.6997549999952
  0
LINE
  5
489C
330
2A
100
AcDbEntity
  8
2
100
AcDbLine
 10
48.66790799999989
 20
23.95873599999999
 30
0.0
 11
48.66790799999989
 21
37.45873599999999
 31
0.0
  0
ARC
  5
489D
330
2A
100
AcDbEntity
  8
2
100
AcDbCircle
 10
49.1679079999999
 20
37.45873599999999
 30
0.0
 40
0.5
100
AcDbArc
 50
90.0
 51
180.0
  0
ARC
  5
489E
330
2A
100
AcDbEntity
  8
2
100
AcDbCircle
 10
49.6679079999999
 20
38.45873599999999
 30
0.0
 40
0.5
100
AcDbArc
 50
270.0
 51
0.0
  0
LINE
  5
489F
330
2A
100
AcDbEntity
  8
2
100
AcDbLine
 10
49.1679079999999
 20
37.95873599999999
 30
0.0
 11
49.6679079999999
 21
37.95873599999999
 31
0.0
  0
LINE
  5
48A0
330
2A
100
AcDbEntity
  8
2
100
AcDbLine
 10
52.15673800000013
 20
63.339159
 30
0.0
 11
49.46591600000011
 21
37.95873599999999
 31
0.0
  0
LINE
  5
48A1
330
2A
100
AcDbEntity
  8
2
100
AcDbLine
 10
50.1679079999999
 20
23.95873599999999
 30
0.0
 11
50.1679079999999
 21
38.45873599999999
 31
0.0
  0
LINE
  5
48A2
330
2A
100
AcDbEntity
  8
2
100
AcDbLine
 10
51.6679079999999
 20
12.95873599999999
 30
0.0
 11
56.76790800000002
 21
12.95873599999999
 31
0.0
  0
LINE
  5
48A3
330
2A
100
AcDbEntity
  8
2
100
AcDbLine
 10
77.6679079999999
 20
13.95873599999999
 30
0.0
 11
68.56790799999997
 21
13.95873599999999
 31
0.0
  0
ARC
  5
48A4
330
2A
100
AcDbEntity
  8
2
100
AcDbCircle
 10
57.03284400000007
 20
57.32360900000003
 30
0.0
 40
1.0
100
AcDbArc
 50
96.57294000000135
 51
173.9481329999994
  0
LINE
  5
48A5
330
2A
100
AcDbEntity
  8
2
100
AcDbLine
 10
51.6679079999999
 20
13.95873599999999
 30
0.0
 11
51.6679079999999
 21
12.95873599999999
 31
0.0
  0
LINE
  5
48A6
330
2A
100
AcDbEntity
  8
2
100
AcDbLine
 10
54.57870700000011
 20
36.102327
 30
0.0
 11
55.97313299999996
 21
35.65538500000002
 31
0.0
  0
ARC
  5
48A7
330
2A
100
AcDbEntity
  8
2
100
AcDbCircle
 10
59.6679079999999
 20
41.20500700000002
 30
0.0
 40
3.0
100
AcDbArc
 50
113.2052819999986
 51
180.0
  0
LINE
  5
48A8
330
2A
100
AcDbEntity
  8
2
100
AcDbLine
 10
56.03841699999998
 20
57.42903699999999
 30
0.0
 11
53.88950599999998
 21
37.16003599999999
 31
0.0
  0
ARC
  5
48A9
330
2A
100
AcDbEntity
  8
2
100
AcDbCircle
 10
55.66790799999989
 20
34.703105
 30
0.0
 40
1.0
100
AcDbArc
 50
0.0
 51
72.22828499999806
  0
LINE
  5
48AA
330
2A
100
AcDbEntity
  8
2
100
AcDbLine
 10
56.6679079999999
 20
41.20500700000002
 30
0.0
 11
56.6679079999999
 21
34.703105
 31
0.0
  0
LINE
  5
48AB
330
2A
100
AcDbEntity
  8
2
100
AcDbLine
 10
68.66790799999989
 20
41.20500700000002
 30
0.0
 11
68.66790799999989
 21
36.04273599999999
 31
0.0
  0
LINE
  5
48AC
330
2A
100
AcDbEntity
  8
2
100
AcDbLine
 10
69.29739900000004
 20
57.42903699999999
 30
0.0
 11
71.44631000000003
 21
37.16003599999999
 31
0.0
  0
ARC
  5
48AD
330
2A
100
AcDbEntity
  8
2
100
AcDbCircle
 10
65.66790799999989
 20
41.20500700000002
 30
0.0
 40
3.0
100
AcDbArc
 50
0.0
 51
28.46084899999823
  0
LINE
  5
48AE
330
2A
100
AcDbEntity
  8
2
100
AcDbLine
 10
72.95192599999996
 20
22.95873599999999
 30
0.0
 11
73.49292100000003
 21
17.85594700000001
 31
0.0
  0
ARC
  5
48AF
330
2A
100
AcDbEntity
  8
2
100
AcDbCircle
 10
68.30297199999995
 20
57.32360900000003
 30
0.0
 40
1.0
100
AcDbArc
 50
6.051867000000558
 51
83.42705999999862
  0
LINE
  5
48B0
330
2A
100
AcDbEntity
  8
2
100
AcDbLine
 10
73.17907800000011
 20
63.339159
 30
0.0
 11
75.86990000000014
 21
37.95873599999999
 31
0.0
  0
ARC
  5
48B1
330
2A
100
AcDbEntity
  8
2
100
AcDbCircle
 10
72.17907800000012
 20
58.75651299999998
 30
0.0
 40
1.0
100
AcDbArc
 50
259.3002450000047
 51
0.0
  0
LINE
  5
48B2
330
2A
100
AcDbEntity
  8
2
100
AcDbLine
 10
66.6679079999999
 20
51.72873099999998
 30
0.0
 11
66.6679079999999
 21
49.043117
 31
0.0
  0
LINE
  5
48B3
330
2A
100
AcDbEntity
  8
2
100
AcDbLine
 10
73.17907800000011
 20
63.339159
 30
0.0
 11
73.17907800000011
 21
58.75651299999998
 31
0.0
  0
ARC
  5
48B4
330
2A
100
AcDbEntity
  8
2
100
AcDbCircle
 10
68.24304400000007
 20
62.54193499999995
 30
0.0
 40
5.0
100
AcDbArc
 50
9.174665999997953
 51
77.83324000000232
  0
LINE
  5
48B5
330
2A
100
AcDbEntity
  8
2
100
AcDbLine
 10
76.6679079999999
 20
30.43174800000004
 30
0.0
 11
77.6679079999999
 21
20.999527
 31
0.0
  0
ARC
  5
48B6
330
2A
100
AcDbEntity
  8
2
100
AcDbCircle
 10
68.16790799999989
 20
52.06462099999999
 30
0.0
 40
1.5
100
AcDbArc
 50
69.33280099999802
 51
94.2709560000032
  0
LINE
  5
48B7
330
2A
100
AcDbEntity
  8
2
100
AcDbLine
 10
73.66790799999989
 20
13.95873599999999
 30
0.0
 11
73.66790799999989
 21
12.95873599999999
 31
0.0
  0
LINE
  5
48B8
330
2A
100
AcDbEntity
  8
2
100
AcDbLine
 10
52.38389000000006
 20
22.95873599999999
 30
0.0
 11
51.842895
 21
17.85594700000001
 31
0.0
  0
LINE
  5
48B9
330
2A
100
AcDbEntity
  8
2
100
AcDbLine
 10
48.66790799999989
 20
30.43174800000004
 30
0.0
 11
47.86790799999994
 21
22.88597199999998
 31
0.0
  0
LINE
  5
48BA
330
2A
100
AcDbEntity
  8
2
100
AcDbLine
 10
47.86790799999994
 20
13.95873599999999
 30
0.0
 11
47.86790799999994
 21
22.88597199999998
 31
0.0
  0
ARC
  5
48BB
330
2A
100
AcDbEntity
  8
2
100
AcDbCircle
 10
62.6679079999999
 20
73.77766700000002
 30
0.0
 40
57.88305300000001
100
AcDbArc
 50
260.0481209999957
 51
264.1496999999993
  0
ARC
  5
48BC
330
2A
100
AcDbEntity
  8
2
100
AcDbCircle
 10
52.83732099999998
 20
17.750519
 30
0.0
 40
1.0
100
AcDbArc
 50
173.9481329999994
 51
260.0481209999957
  0
ARC
  5
48BD
330
2A
100
AcDbEntity
  8
2
100
AcDbCircle
 10
72.49849500000005
 20
17.750519
 30
0.0
 40
1.0
100
AcDbArc
 50
279.9518790000043
 51
6.051867000000558
  0
ARC
  5
48BE
330
2A
100
AcDbEntity
  8
2
100
AcDbCircle
 10
49.6679079999999
 20
23.95873599999999
 30
0.0
 40
1.0
100
AcDbArc
 50
180.0
 51
270.0
  0
ARC
  5
48BF
330
2A
100
AcDbEntity
  8
2
100
AcDbCircle
 10
55.66790799999989
 20
23.95873599999999
 30
0.0
 40
1.0
100
AcDbArc
 50
270.0
 51
0.0
  0
ARC
  5
48C0
330
2A
100
AcDbEntity
  8
2
100
AcDbCircle
 10
54.88393300000007
 20
37.05460800000003
 30
0.0
 40
1.0
100
AcDbArc
 50
173.9481329999994
 51
252.2282849999981
  0
ARC
  5
48C1
330
2A
100
AcDbEntity
  8
2
100
AcDbCircle
 10
70.45188299999995
 20
37.05460800000003
 30
0.0
 40
1.0
100
AcDbArc
 50
287.771715000002
 51
6.051867000000558
  0
ARC
  5
48C2
330
2A
100
AcDbEntity
  8
2
100
AcDbCircle
 10
69.6679079999999
 20
23.95873599999999
 30
0.0
 40
1.0
100
AcDbArc
 50
180.0
 51
270.0
  0
ARC
  5
48C3
330
2A
100
AcDbEntity
  8
2
100
AcDbCircle
 10
75.66790799999989
 20
23.95873599999999
 30
0.0
 40
1.0
100
AcDbArc
 50
270.0
 51
0.0
  0
LINE
  5
48C4
330
2A
100
AcDbEntity
  8
2
100
AcDbLine
 10
76.6679079999999
 20
30.43174800000004
 30
0.0
 11
77.46790800000008
 21
22.88597199999998
 31
0.0
  0
LINE
  5
48C5
330
2A
100
AcDbEntity
  8
2
100
AcDbLine
 10
68.66790799999989
 20
41.20500700000002
 30
0.0
 11
68.66790799999989
 21
34.703105
 31
0.0
  0
ARC
  5
48C6
330
2A
100
AcDbEntity
  8
2
100
AcDbCircle
 10
69.6679079999999
 20
34.703105
 30
0.0
 40
1.0
100
AcDbArc
 50
107.7717150000019
 51
180.0
  0
LINE
  5
48C7
330
2A
100
AcDbEntity
  8
2
100
AcDbLine
 10
70.75710800000002
 20
36.102327
 30
0.0
 11
69.36268300000006
 21
35.65538500000002
 31
0.0
  0
LINE
  5
48C8
330
2A
100
AcDbEntity
  8
2
100
AcDbLine
 10
75.1679079999999
 20
23.95873599999999
 30
0.0
 11
75.1679079999999
 21
38.45873599999999
 31
0.0
  0
LINE
  5
48C9
330
2A
100
AcDbEntity
  8
2
100
AcDbLine
 10
76.16790799999989
 20
37.95873599999999
 30
0.0
 11
75.66790799999989
 21
37.95873599999999
 31
0.0
  0
ARC
  5
48CA
330
2A
100
AcDbEntity
  8
2
100
AcDbCircle
 10
75.66790799999989
 20
38.45873599999999
 30
0.0
 40
0.5
100
AcDbArc
 50
180.0
 51
270.0
  0
ARC
  5
48CB
330
2A
100
AcDbEntity
  8
2
100
AcDbCircle
 10
76.16790799999989
 20
37.45873599999999
 30
0.0
 40
0.5
100
AcDbArc
 50
0.0
 51
90.0
  0
LINE
  5
48CC
330
2A
100
AcDbEntity
  8
2
100
AcDbLine
 10
76.6679079999999
 20
23.95873599999999
 30
0.0
 11
76.6679079999999
 21
37.45873599999999
 31
0.0
  0
LINE
  5
48CD
330
2A
100
AcDbEntity
  8
2
100
AcDbLine
 10
68.66790799999989
 20
23.95873599999999
 30
0.0
 11
68.66790799999989
 21
34.703105
 31
0.0
  0
LINE
  5
48CE
330
2A
100
AcDbEntity
  8
2
100
AcDbLine
 10
77.6679079999999
 20
13.95873599999999
 30
0.0
 11
77.6679079999999
 21
33.95873599999999
 31
0.0
  0
LINE
  5
48CF
330
2A
100
AcDbEntity
  8
2
100
AcDbLine
 10
76.6679079999999
 20
34.95873599999999
 30
0.0
 11
77.6679079999999
 21
33.95873599999999
 31
0.0
  0
ARC
  5
48D0
330
2A
100
AcDbEntity
  8
2
100
AcDbCircle
 10
74.1679079999999
 20
23.95873599999999
 30
0.0
 40
1.0
100
AcDbArc
 50
270.0
 51
0.0
  0
LINE
  5
48D1
330
2A
100
AcDbEntity
  8
2
100
AcDbLine
 10
75.66790799999989
 20
22.95873599999999
 30
0.0
 11
69.6679079999999
 21
22.95873599999999
 31
0.0
  0
ARC
  5
48D2
330
2A
100
AcDbEntity
  8
2
100
AcDbCircle
 10
51.16790799999989
 20
23.95873599999999
 30
0.0
 40
1.0
100
AcDbArc
 50
180.0
 51
270.0
  0
LINE
  5
48D3
330
2A
100
AcDbEntity
  8
2
100
AcDbLine
 10
49.6679079999999
 20
22.95873599999999
 30
0.0
 11
55.66790799999989
 21
22.95873599999999
 31
0.0
  0
LINE
  5
48D4
330
2A
100
AcDbEntity
  8
2
100
AcDbLine
 10
69.6679079999999
 20
12.95873599999999
 30
0.0
 11
69.6679079999999
 21
3.958735999999986
 31
0.0
  0
LINE
  5
48D5
330
2A
100
AcDbEntity
  8
2
100
AcDbLine
 10
55.66790799999989
 20
3.958735999999986
 30
0.0
 11
55.66790799999989
 21
12.95873599999999
 31
0.0
  0
LINE
  5
48D6
330
2A
100
AcDbEntity
  8
2
100
AcDbLine
 10
-280.721776
 20
-18.18389400000001
 30
0.0
 11
-281.3406580000001
 21
-18.54120599999999
 31
0.0
  0
LINE
  5
48D7
330
2A
100
AcDbEntity
  8
2
100
AcDbLine
 10
-295.290658
 20
-10.04120599999999
 30
0.0
 11
-279.890658
 21
-10.04120599999999
 31
0.0
  0
LINE
  5
48D8
330
2A
100
AcDbEntity
  8
2
100
AcDbLine
 10
-295.290658
 20
-12.04120599999999
 30
0.0
 11
-295.290658
 21
-10.04120599999999
 31
0.0
  0
LINE
  5
48D9
330
2A
100
AcDbEntity
  8
2
100
AcDbLine
 10
-287.7565160000001
 20
-12.04120599999999
 30
0.0
 11
-295.290658
 21
-12.04120599999999
 31
0.0
  0
ARC
  5
48DA
330
2A
100
AcDbEntity
  8
2
100
AcDbCircle
 10
-287.5906580000001
 20
-7.212916000000006
 30
0.0
 40
11.25
100
AcDbArc
 50
250.5287789999982
 51
270.0
  0
ARC
  5
48DB
330
2A
100
AcDbEntity
  8
2
100
AcDbCircle
 10
-293.2156580000001
 20
-15.40914199999997
 30
0.0
 40
3.053774
100
AcDbArc
 50
232.1211210000014
 51
307.8788789999986
  0
LINE
  5
48DC
330
2A
100
AcDbEntity
  8
2
100
AcDbLine
 10
-291.3406580000001
 20
-12.04120599999999
 30
0.0
 11
-291.3406580000001
 21
-17.81951800000001
 31
0.0
  0
LINE
  5
48DD
330
2A
100
AcDbEntity
  8
2
100
AcDbLine
 10
-293.8406580000001
 20
-18.54120599999999
 30
0.0
 11
-287.5906580000001
 21
-18.54120599999999
 31
0.0
  0
LINE
  5
48DE
330
2A
100
AcDbEntity
  8
2
100
AcDbLine
 10
-295.0906580000001
 20
-17.81951800000001
 30
0.0
 11
-293.8406580000001
 21
-18.54120599999999
 31
0.0
  0
LINE
  5
48DF
330
2A
100
AcDbEntity
  8
2
100
AcDbLine
 10
-295.0906580000001
 20
-12.04120599999999
 30
0.0
 11
-295.0906580000001
 21
-17.81951800000001
 31
0.0
  0
LINE
  5
48E0
330
2A
100
AcDbEntity
  8
2
100
AcDbLine
 10
-287.5906580000001
 20
-12.04120599999999
 30
0.0
 11
-295.0906580000001
 21
-12.04120599999999
 31
0.0
  0
ARC
  5
48E1
330
2A
100
AcDbEntity
  8
2
100
AcDbCircle
 10
-287.5906580000001
 20
-7.212916000000006
 30
0.0
 40
11.25
100
AcDbArc
 50
270.0
 51
289.4712210000018
  0
ARC
  5
48E2
330
2A
100
AcDbEntity
  8
2
100
AcDbCircle
 10
-281.9656580000001
 20
-15.40914199999997
 30
0.0
 40
3.053774
100
AcDbArc
 50
232.1211210000014
 51
294.1832160000007
  0
LINE
  5
48E3
330
2A
100
AcDbEntity
  8
2
100
AcDbLine
 10
-283.8406580000001
 20
-14.53494699999999
 30
0.0
 11
-283.8406580000001
 21
-17.81951800000001
 31
0.0
  0
LINE
  5
48E4
330
2A
100
AcDbEntity
  8
2
100
AcDbLine
 10
-281.3406580000001
 20
-18.54120599999999
 30
0.0
 11
-287.5906580000001
 21
-18.54120599999999
 31
0.0
  0
POINT
  5
48E5
330
2A
100
AcDbEntity
  8
2
100
AcDbPoint
 10
-287.5906580000001
 20
-10.04120599999999
 30
0.0
  0
LINE
  5
48E6
330
2A
100
AcDbEntity
  8
2
 62
     4
370
    13
100
AcDbLine
 10
-284.267158
 20
-21.04120599999999
 30
0.0
 11
-284.267158
 21
-18.54120599999999
 31
0.0
  0
LINE
  5
48E7
330
2A
100
AcDbEntity
  8
2
100
AcDbLine
 10
-283.5906580000001
 20
-20.36470600000001
 30
0.0
 11
-287.5906580000001
 21
-20.36470600000001
 31
0.0
  0
LINE
  5
48E8
330
2A
100
AcDbEntity
  8
2
100
AcDbLine
 10
-283.5906580000001
 20
-20.36470600000001
 30
0.0
 11
-283.5906580000001
 21
-18.54120599999999
 31
0.0
  0
LINE
  5
48E9
330
2A
100
AcDbEntity
  8
2
100
AcDbLine
 10
-284.267158
 20
-21.04120599999999
 30
0.0
 11
-283.5906580000001
 21
-20.36470600000001
 31
0.0
  0
LINE
  5
48EA
330
2A
100
AcDbEntity
  8
2
100
AcDbLine
 10
-287.5906580000001
 20
-21.04120599999999
 30
0.0
 11
-284.267158
 21
-21.04120599999999
 31
0.0
  0
ARC
  5
48EB
330
2A
100
AcDbEntity
  8
2
100
AcDbCircle
 10
-287.5906580000001
 20
-1.869496000000026
 30
0.0
 40
11.25
100
AcDbArc
 50
70.5287789999982
 51
90.0
  0
ARC
  5
48EC
330
2A
100
AcDbEntity
  8
2
100
AcDbCircle
 10
-281.9656580000001
 20
6.326729999999997
 30
0.0
 40
3.053774
100
AcDbArc
 50
52.1211210000014
 51
127.8788789999985
  0
LINE
  5
48ED
330
2A
100
AcDbEntity
  8
2
100
AcDbLine
 10
-283.8406580000001
 20
3.958794000000011
 30
0.0
 11
-283.8406580000001
 21
8.737105999999982
 31
0.0
  0
LINE
  5
48EE
330
2A
100
AcDbEntity
  8
2
100
AcDbLine
 10
-281.3406580000001
 20
9.458794000000011
 30
0.0
 11
-287.5906580000001
 21
9.458794000000011
 31
0.0
  0
LINE
  5
48EF
330
2A
100
AcDbEntity
  8
2
100
AcDbLine
 10
-280.0906580000001
 20
8.737105999999982
 30
0.0
 11
-281.3406580000001
 21
9.458794000000011
 31
0.0
  0
LINE
  5
48F0
330
2A
100
AcDbEntity
  8
2
100
AcDbLine
 10
-280.0906580000001
 20
3.958794000000011
 30
0.0
 11
-280.0906580000001
 21
8.737105999999982
 31
0.0
  0
LINE
  5
48F1
330
2A
100
AcDbEntity
  8
2
100
AcDbLine
 10
-287.5906580000001
 20
3.958794000000011
 30
0.0
 11
-280.0906580000001
 21
3.958794000000011
 31
0.0
  0
LINE
  5
48F2
330
2A
100
AcDbEntity
  8
2
 62
     4
370
    13
100
AcDbLine
 10
-290.914158
 20
-21.04120599999999
 30
0.0
 11
-290.914158
 21
-18.54120599999999
 31
0.0
  0
LINE
  5
48F3
330
2A
100
AcDbEntity
  8
2
100
AcDbLine
 10
-291.5906580000001
 20
-20.36470600000001
 30
0.0
 11
-287.5906580000001
 21
-20.36470600000001
 31
0.0
  0
LINE
  5
48F4
330
2A
100
AcDbEntity
  8
2
100
AcDbLine
 10
-291.5906580000001
 20
-20.36470600000001
 30
0.0
 11
-291.5906580000001
 21
-18.54120599999999
 31
0.0
  0
LINE
  5
48F5
330
2A
100
AcDbEntity
  8
2
100
AcDbLine
 10
-290.914158
 20
-21.04120599999999
 30
0.0
 11
-291.5906580000001
 21
-20.36470600000001
 31
0.0
  0
LINE
  5
48F6
330
2A
100
AcDbEntity
  8
2
100
AcDbLine
 10
-287.5906580000001
 20
-21.04120599999999
 30
0.0
 11
-290.914158
 21
-21.04120599999999
 31
0.0
  0
ARC
  5
48F7
330
2A
100
AcDbEntity
  8
2
100
AcDbCircle
 10
-287.5906580000001
 20
-1.869496000000026
 30
0.0
 40
11.25
100
AcDbArc
 50
90.0
 51
109.4712210000018
  0
ARC
  5
48F8
330
2A
100
AcDbEntity
  8
2
100
AcDbCircle
 10
-293.2156580000001
 20
6.326729999999997
 30
0.0
 40
3.053774
100
AcDbArc
 50
52.1211210000014
 51
127.8788789999985
  0
LINE
  5
48F9
330
2A
100
AcDbEntity
  8
2
100
AcDbLine
 10
-291.3406580000001
 20
3.958794000000011
 30
0.0
 11
-291.3406580000001
 21
8.737105999999982
 31
0.0
  0
LINE
  5
48FA
330
2A
100
AcDbEntity
  8
2
100
AcDbLine
 10
-293.8406580000001
 20
9.458794000000011
 30
0.0
 11
-287.5906580000001
 21
9.458794000000011
 31
0.0
  0
LINE
  5
48FB
330
2A
100
AcDbEntity
  8
2
100
AcDbLine
 10
-295.0906580000001
 20
8.737105999999982
 30
0.0
 11
-293.8406580000001
 21
9.458794000000011
 31
0.0
  0
LINE
  5
48FC
330
2A
100
AcDbEntity
  8
2
100
AcDbLine
 10
-295.0906580000001
 20
3.958794000000011
 30
0.0
 11
-295.0906580000001
 21
8.737105999999982
 31
0.0
  0
LINE
  5
48FD
330
2A
100
AcDbEntity
  8
2
100
AcDbLine
 10
-287.5906580000001
 20
3.958794000000011
 30
0.0
 11
-295.0906580000001
 21
3.958794000000011
 31
0.0
  0
LINE
  5
48FE
330
2A
100
AcDbEntity
  8
2
  6
CENTER
 62
     2
370
    13
100
AcDbLine
 10
-287.5906580000001
 20
-24.15355499999999
 30
0.0
 11
-287.5906580000001
 21
13.162733
 31
0.0
  0
POINT
  5
48FF
330
2A
100
AcDbEntity
  8
2
100
AcDbPoint
 10
-287.5906580000001
 20
3.958794000000011
 30
0.0
  0
LINE
  5
4900
330
2A
100
AcDbEntity
  8
2
100
AcDbLine
 10
-238.093183
 20
-10.04120599999999
 30
0.0
 11
-237.5931829999999
 21
-12.04120599999999
 31
0.0
  0
LINE
  5
4901
330
2A
100
AcDbEntity
  8
2
100
AcDbLine
 10
-238.093183
 20
-12.04120599999999
 30
0.0
 11
-238.593183
 21
-10.04120599999999
 31
0.0
  0
LINE
  5
4902
330
2A
100
AcDbEntity
  8
2
100
AcDbLine
 10
-245.793183
 20
-10.04120599999999
 30
0.0
 11
-230.393183
 21
-10.04120599999999
 31
0.0
  0
LINE
  5
4903
330
2A
100
AcDbEntity
  8
2
100
AcDbLine
 10
-245.793183
 20
-12.04120599999999
 30
0.0
 11
-245.793183
 21
-10.04120599999999
 31
0.0
  0
LINE
  5
4904
330
2A
100
AcDbEntity
  8
2
100
AcDbLine
 10
-230.393183
 20
-12.04120599999999
 30
0.0
 11
-245.793183
 21
-12.04120599999999
 31
0.0
  0
LINE
  5
4905
330
2A
100
AcDbEntity
  8
2
100
AcDbLine
 10
-230.393183
 20
-10.04120599999999
 30
0.0
 11
-230.393183
 21
-12.04120599999999
 31
0.0
  0
ARC
  5
4906
330
2A
100
AcDbEntity
  8
2
100
AcDbCircle
 10
-238.093183
 20
-7.212916000000006
 30
0.0
 40
11.25
100
AcDbArc
 50
250.5287789999982
 51
270.0
  0
ARC
  5
4907
330
2A
100
AcDbEntity
  8
2
100
AcDbCircle
 10
-243.718183
 20
-15.40914199999997
 30
0.0
 40
3.053774
100
AcDbArc
 50
232.1211210000014
 51
307.8788789999986
  0
LINE
  5
4908
330
2A
100
AcDbEntity
  8
2
100
AcDbLine
 10
-241.8431829999999
 20
-12.04120599999999
 30
0.0
 11
-241.8431829999999
 21
-17.81951800000001
 31
0.0
  0
LINE
  5
4909
330
2A
100
AcDbEntity
  8
2
100
AcDbLine
 10
-244.343183
 20
-18.54120599999999
 30
0.0
 11
-238.093183
 21
-18.54120599999999
 31
0.0
  0
LINE
  5
490A
330
2A
100
AcDbEntity
  8
2
100
AcDbLine
 10
-245.5931829999999
 20
-17.81951800000001
 30
0.0
 11
-244.343183
 21
-18.54120599999999
 31
0.0
  0
LINE
  5
490B
330
2A
100
AcDbEntity
  8
2
100
AcDbLine
 10
-245.5931829999999
 20
-12.04120599999999
 30
0.0
 11
-245.5931829999999
 21
-17.81951800000001
 31
0.0
  0
LINE
  5
490C
330
2A
100
AcDbEntity
  8
2
100
AcDbLine
 10
-238.093183
 20
-12.04120599999999
 30
0.0
 11
-245.5931829999999
 21
-12.04120599999999
 31
0.0
  0
ARC
  5
490D
330
2A
100
AcDbEntity
  8
2
100
AcDbCircle
 10
-238.093183
 20
-7.212916000000006
 30
0.0
 40
11.25
100
AcDbArc
 50
270.0
 51
289.4712210000018
  0
ARC
  5
490E
330
2A
100
AcDbEntity
  8
2
100
AcDbCircle
 10
-232.4681829999999
 20
-15.40914199999997
 30
0.0
 40
3.053774
100
AcDbArc
 50
232.1211210000014
 51
307.8788789999986
  0
LINE
  5
490F
330
2A
100
AcDbEntity
  8
2
100
AcDbLine
 10
-234.343183
 20
-12.04120599999999
 30
0.0
 11
-234.343183
 21
-17.81951800000001
 31
0.0
  0
LINE
  5
4910
330
2A
100
AcDbEntity
  8
2
100
AcDbLine
 10
-231.843183
 20
-18.54120599999999
 30
0.0
 11
-238.093183
 21
-18.54120599999999
 31
0.0
  0
LINE
  5
4911
330
2A
100
AcDbEntity
  8
2
100
AcDbLine
 10
-230.593183
 20
-17.81951800000001
 30
0.0
 11
-231.843183
 21
-18.54120599999999
 31
0.0
  0
LINE
  5
4912
330
2A
100
AcDbEntity
  8
2
100
AcDbLine
 10
-230.593183
 20
-12.04120599999999
 30
0.0
 11
-230.593183
 21
-17.81951800000001
 31
0.0
  0
LINE
  5
4913
330
2A
100
AcDbEntity
  8
2
100
AcDbLine
 10
-238.093183
 20
-12.04120599999999
 30
0.0
 11
-230.593183
 21
-12.04120599999999
 31
0.0
  0
POINT
  5
4914
330
2A
100
AcDbEntity
  8
2
100
AcDbPoint
 10
-238.093183
 20
-10.04120599999999
 30
0.0
  0
LINE
  5
4915
330
2A
100
AcDbEntity
  8
2
 62
     4
370
    13
100
AcDbLine
 10
-234.769683
 20
-21.04120599999999
 30
0.0
 11
-234.769683
 21
-18.54120599999999
 31
0.0
  0
LINE
  5
4916
330
2A
100
AcDbEntity
  8
2
100
AcDbLine
 10
-234.093183
 20
-20.36470600000001
 30
0.0
 11
-238.093183
 21
-20.36470600000001
 31
0.0
  0
LINE
  5
4917
330
2A
100
AcDbEntity
  8
2
100
AcDbLine
 10
-234.093183
 20
-20.36470600000001
 30
0.0
 11
-234.093183
 21
-18.54120599999999
 31
0.0
  0
LINE
  5
4918
330
2A
100
AcDbEntity
  8
2
100
AcDbLine
 10
-234.769683
 20
-21.04120599999999
 30
0.0
 11
-234.093183
 21
-20.36470600000001
 31
0.0
  0
LINE
  5
4919
330
2A
100
AcDbEntity
  8
2
100
AcDbLine
 10
-238.093183
 20
-21.04120599999999
 30
0.0
 11
-234.769683
 21
-21.04120599999999
 31
0.0
  0
ARC
  5
491A
330
2A
100
AcDbEntity
  8
2
100
AcDbCircle
 10
-238.093183
 20
-1.869496000000026
 30
0.0
 40
11.25
100
AcDbArc
 50
70.5287789999982
 51
90.0
  0
ARC
  5
491B
330
2A
100
AcDbEntity
  8
2
100
AcDbCircle
 10
-232.4681829999999
 20
6.326729999999997
 30
0.0
 40
3.053774
100
AcDbArc
 50
52.1211210000014
 51
127.8788789999985
  0
LINE
  5
491C
330
2A
100
AcDbEntity
  8
2
100
AcDbLine
 10
-234.343183
 20
3.958794000000011
 30
0.0
 11
-234.343183
 21
8.737105999999982
 31
0.0
  0
LINE
  5
491D
330
2A
100
AcDbEntity
  8
2
100
AcDbLine
 10
-231.843183
 20
9.458794000000011
 30
0.0
 11
-238.093183
 21
9.458794000000011
 31
0.0
  0
LINE
  5
491E
330
2A
100
AcDbEntity
  8
2
100
AcDbLine
 10
-230.593183
 20
8.737105999999982
 30
0.0
 11
-231.843183
 21
9.458794000000011
 31
0.0
  0
LINE
  5
491F
330
2A
100
AcDbEntity
  8
2
100
AcDbLine
 10
-230.593183
 20
3.958794000000011
 30
0.0
 11
-230.593183
 21
8.737105999999982
 31
0.0
  0
LINE
  5
4920
330
2A
100
AcDbEntity
  8
2
100
AcDbLine
 10
-238.093183
 20
3.958794000000011
 30
0.0
 11
-230.593183
 21
3.958794000000011
 31
0.0
  0
LINE
  5
4921
330
2A
100
AcDbEntity
  8
2
 62
     4
370
    13
100
AcDbLine
 10
-241.416683
 20
-21.04120599999999
 30
0.0
 11
-241.416683
 21
-18.54120599999999
 31
0.0
  0
LINE
  5
4922
330
2A
100
AcDbEntity
  8
2
100
AcDbLine
 10
-242.093183
 20
-20.36470600000001
 30
0.0
 11
-238.093183
 21
-20.36470600000001
 31
0.0
  0
LINE
  5
4923
330
2A
100
AcDbEntity
  8
2
100
AcDbLine
 10
-242.093183
 20
-20.36470600000001
 30
0.0
 11
-242.093183
 21
-18.54120599999999
 31
0.0
  0
LINE
  5
4924
330
2A
100
AcDbEntity
  8
2
100
AcDbLine
 10
-241.416683
 20
-21.04120599999999
 30
0.0
 11
-242.093183
 21
-20.36470600000001
 31
0.0
  0
LINE
  5
4925
330
2A
100
AcDbEntity
  8
2
100
AcDbLine
 10
-238.093183
 20
-21.04120599999999
 30
0.0
 11
-241.416683
 21
-21.04120599999999
 31
0.0
  0
ARC
  5
4926
330
2A
100
AcDbEntity
  8
2
100
AcDbCircle
 10
-238.093183
 20
-1.869496000000026
 30
0.0
 40
11.25
100
AcDbArc
 50
90.0
 51
109.4712210000018
  0
ARC
  5
4927
330
2A
100
AcDbEntity
  8
2
100
AcDbCircle
 10
-243.718183
 20
6.326729999999997
 30
0.0
 40
3.053774
100
AcDbArc
 50
52.1211210000014
 51
127.8788789999985
  0
LINE
  5
4928
330
2A
100
AcDbEntity
  8
2
100
AcDbLine
 10
-241.8431829999999
 20
3.958794000000011
 30
0.0
 11
-241.8431829999999
 21
8.737105999999982
 31
0.0
  0
LINE
  5
4929
330
2A
100
AcDbEntity
  8
2
100
AcDbLine
 10
-244.343183
 20
9.458794000000011
 30
0.0
 11
-238.093183
 21
9.458794000000011
 31
0.0
  0
LINE
  5
492A
330
2A
100
AcDbEntity
  8
2
100
AcDbLine
 10
-245.5931829999999
 20
8.737105999999982
 30
0.0
 11
-244.343183
 21
9.458794000000011
 31
0.0
  0
LINE
  5
492B
330
2A
100
AcDbEntity
  8
2
100
AcDbLine
 10
-245.5931829999999
 20
3.958794000000011
 30
0.0
 11
-245.5931829999999
 21
8.737105999999982
 31
0.0
  0
LINE
  5
492C
330
2A
100
AcDbEntity
  8
2
100
AcDbLine
 10
-238.093183
 20
3.958794000000011
 30
0.0
 11
-245.5931829999999
 21
3.958794000000011
 31
0.0
  0
LINE
  5
492D
330
2A
100
AcDbEntity
  8
2
  6
CENTER
 62
     2
370
    13
100
AcDbLine
 10
-238.093183
 20
-24.15355499999999
 30
0.0
 11
-238.093183
 21
13.162733
 31
0.0
  0
POINT
  5
492E
330
2A
100
AcDbEntity
  8
2
100
AcDbPoint
 10
-238.093183
 20
3.958794000000011
 30
0.0
  0
LINE
  5
492F
330
2A
100
AcDbEntity
  8
2
100
AcDbLine
 10
-223.430572
 20
3.958794000000011
 30
0.0
 11
-223.430572
 21
1.95879400000001
 31
0.0
  0
LINE
  5
4930
330
2A
100
AcDbEntity
  8
2
100
AcDbLine
 10
-312.841921
 20
1.95879400000001
 30
0.0
 11
-187.8419209999999
 21
1.95879400000001
 31
0.0
  0
LINE
  5
4931
330
2A
100
AcDbEntity
  8
2
100
AcDbLine
 10
-187.8419209999999
 20
3.958794000000011
 30
0.0
 11
-312.841921
 21
3.958794000000011
 31
0.0
  0
LINE
  5
4932
330
2A
100
AcDbEntity
  8
2
100
AcDbLine
 10
-187.8419209999999
 20
3.958794000000011
 30
0.0
 11
-187.8419209999999
 21
1.95879400000001
 31
0.0
  0
LINE
  5
4933
330
2A
100
AcDbEntity
  8
2
100
AcDbLine
 10
-192.770853
 20
3.958794000000011
 30
0.0
 11
-182.215992
 21
14.51365399999997
 31
0.0
  0
LINE
  5
4934
330
2A
100
AcDbEntity
  8
2
100
AcDbLine
 10
-194.8419209999999
 20
1.95879400000001
 30
0.0
 11
-194.8419209999999
 21
1.887725999999985
 31
0.0
  0
LINE
  5
4935
330
2A
100
AcDbEntity
  8
2
100
AcDbLine
 10
-199.770853
 20
1.95879400000001
 30
0.0
 11
-199.770853
 21
-2.592105000000002
 31
0.0
  0
LINE
  5
4936
330
2A
100
AcDbEntity
  8
2
100
AcDbLine
 10
-208.615669
 20
1.95879400000001
 30
0.0
 11
-208.615669
 21
-2.041205999999987
 31
0.0
  0
LINE
  5
4937
330
2A
100
AcDbEntity
  8
2
100
AcDbLine
 10
-195.741921
 20
0.9877260000000092
 30
0.0
 11
-195.741921
 21
1.95879400000001
 31
0.0
  0
ARC
  5
4938
330
2A
100
AcDbEntity
  8
2
100
AcDbCircle
 10
-199.8419209999999
 20
24.80360999999999
 30
0.0
 40
5.0
100
AcDbArc
 50
315.0
 51
338.3483109999994
  0
LINE
  5
4939
330
2A
100
AcDbEntity
  8
2
100
AcDbLine
 10
-194.8419209999999
 20
22.95879400000001
 30
0.0
 11
-194.8419209999999
 21
3.958794000000011
 31
0.0
  0
ARC
  5
493A
330
2A
100
AcDbEntity
  8
2
100
AcDbCircle
 10
-151.311556
 20
37.28582299999999
 30
0.0
 40
3.0
100
AcDbArc
 50
258.3026400000039
 51
260.0000000000014
  0
LINE
  5
493B
330
2A
100
AcDbEntity
  8
2
100
AcDbLine
 10
-151.8325
 20
34.33139899999999
 30
0.0
 11
-129.971236
 21
30.47666900000002
 31
0.0
  0
LINE
  5
493C
330
2A
100
AcDbEntity
  8
2
100
AcDbLine
 10
-153.8419209999999
 20
22.50059499999998
 30
0.0
 11
-153.8419209999999
 21
33.08654999999999
 31
0.0
  0
ARC
  5
493D
330
2A
100
AcDbEntity
  8
2
100
AcDbCircle
 10
-114.1454999999999
 20
27.50438500000001
 30
0.0
 40
1.0
100
AcDbArc
 50
266.0000000000035
 51
356.0000000000002
  0
ARC
  5
493E
330
2A
100
AcDbEntity
  8
2
100
AcDbCircle
 10
-128.111396
 20
28.480976
 30
0.0
 40
1.0
100
AcDbArc
 50
176.0000000000002
 51
266.0000000000035
  0
LINE
  5
493F
330
2A
100
AcDbEntity
  8
2
100
AcDbLine
 10
-112.024316
 20
29.17628100000002
 30
0.0
 11
-113.0934629999999
 21
28.213617
 31
0.0
  0
LINE
  5
4940
330
2A
100
AcDbEntity
  8
2
100
AcDbLine
 10
-129.056185
 20
29.30545599999999
 30
0.0
 11
-129.971236
 21
30.47666900000002
 31
0.0
  0
ARC
  5
4941
330
2A
100
AcDbEntity
  8
2
100
AcDbCircle
 10
-201.841921
 20
1.95879400000001
 30
0.0
 40
5.0
100
AcDbArc
 50
270.0
 51
315.0
  0
ARC
  5
4942
330
2A
100
AcDbEntity
  8
2
100
AcDbCircle
 10
-118.327126
 20
25.438513
 30
0.0
 40
8.0
100
AcDbArc
 50
269.8453959999986
 51
303.429059999999
  0
ARC
  5
4943
330
2A
100
AcDbEntity
  8
2
100
AcDbCircle
 10
-109.51266
 20
12.08541600000001
 30
0.0
 40
8.0
100
AcDbArc
 50
52.34091199999975
 51
123.429059999999
  0
ARC
  5
4944
330
2A
100
AcDbEntity
  8
2
100
AcDbCircle
 10
-99.73726999999996
 20
24.75197600000001
 30
0.0
 40
8.0
100
AcDbArc
 50
232.3409119999997
 51
303.6590880000001
  0
ARC
  5
4945
330
2A
100
AcDbEntity
  8
2
100
AcDbCircle
 10
-90.86926600000003
 20
11.43437399999999
 30
0.0
 40
8.0
100
AcDbArc
 50
52.34091199999975
 51
123.6590879999999
  0
ARC
  5
4946
330
2A
100
AcDbEntity
  8
2
100
AcDbCircle
 10
-81.09387500000002
 20
24.100934
 30
0.0
 40
8.0
100
AcDbArc
 50
232.3409119999997
 51
303.6590880000001
  0
ARC
  5
4947
330
2A
100
AcDbEntity
  8
2
100
AcDbCircle
 10
-72.22587199999998
 20
10.78333199999997
 30
0.0
 40
8.0
100
AcDbArc
 50
42.42700399999949
 51
123.6590879999999
  0
ARC
  5
4948
330
2A
100
AcDbEntity
  8
2
100
AcDbCircle
 10
-64.84449700000005
 20
17.52983599999999
 30
0.0
 40
2.0
100
AcDbArc
 50
222.4270039999995
 51
359.9851329999987
  0
ARC
  5
4949
330
2A
100
AcDbEntity
  8
2
100
AcDbCircle
 10
-118.1328439999999
 20
97.43825000000001
 30
0.0
 40
80.0
100
AcDbArc
 50
260.0000000000014
 51
269.8453959999986
  0
LINE
  5
494A
330
2A
100
AcDbEntity
  8
2
100
AcDbLine
 10
-124.826436
 20
32.45133399999998
 30
0.0
 11
-119.257217
 21
32.06189599999999
 31
0.0
  0
LINE
  5
494B
330
2A
100
AcDbEntity
  8
2
100
AcDbLine
 10
-199.770853
 20
17.80360999999999
 30
0.0
 11
-199.770853
 21
3.958794000000011
 31
0.0
  0
LINE
  5
494C
330
2A
100
AcDbEntity
  8
2
100
AcDbLine
 10
-128.181153
 20
27.48341199999999
 30
0.0
 11
-114.2152559999999
 21
26.506821
 31
0.0
  0
ARC
  5
494D
330
2A
100
AcDbEntity
  8
2
100
AcDbCircle
 10
-116.140628
 20
27.64389799999998
 30
0.0
 40
1.0
100
AcDbArc
 50
176.0000000000002
 51
266.0000000000035
  0
LINE
  5
494E
330
2A
100
AcDbEntity
  8
2
100
AcDbLine
 10
-208.615669
 20
8.958794000000011
 30
0.0
 11
-208.615669
 21
3.958794000000011
 31
0.0
  0
ARC
  5
494F
330
2A
100
AcDbEntity
  8
2
100
AcDbCircle
 10
-161.002789
 20
-6.69954899999999
 30
0.0
 40
30.0
100
AcDbArc
 50
80.0000000000014
 51
135.0
  0
LINE
  5
4950
330
2A
100
AcDbEntity
  8
2
100
AcDbLine
 10
-208.615669
 20
8.958794000000011
 30
0.0
 11
-196.306387
 21
21.26807600000001
 31
0.0
  0
LINE
  5
4951
330
2A
100
AcDbEntity
  8
2
100
AcDbLine
 10
-198.306387
 20
-1.576739999999972
 30
0.0
 11
-194.770853
 21
1.95879400000001
 31
0.0
  0
LINE
  5
4952
330
2A
100
AcDbEntity
  8
2
100
AcDbLine
 10
-207.615669
 20
-3.041205999999987
 30
0.0
 11
-201.841921
 21
-3.041205999999987
 31
0.0
  0
ARC
  5
4953
330
2A
100
AcDbEntity
  8
2
100
AcDbCircle
 10
-207.615669
 20
-2.041205999999987
 30
0.0
 40
1.0
100
AcDbArc
 50
180.0
 51
270.0
  0
LINE
  5
4954
330
2A
100
AcDbEntity
  8
2
100
AcDbLine
 10
-70.56473000000005
 20
27.72847999999999
 30
0.0
 11
-112.024316
 21
29.17628100000002
 31
0.0
  0
LINE
  5
4955
330
2A
100
AcDbEntity
  8
2
100
AcDbLine
 10
-62.84392600000001
 20
19.73127799999996
 30
0.0
 11
-62.84449700000005
 21
17.52931699999999
 31
0.0
  0
LINE
  5
4956
330
2A
100
AcDbEntity
  8
2
100
AcDbLine
 10
-117.773731
 20
32.96060199999999
 30
0.0
 11
-117.5616319999999
 21
32.71661
 31
0.0
  0
LINE
  5
4957
330
2A
100
AcDbEntity
  8
2
100
AcDbLine
 10
-124.826436
 20
32.45133399999998
 30
0.0
 11
-123.7591159999999
 21
33.37914100000001
 31
0.0
  0
LINE
  5
4958
330
2A
100
AcDbEntity
  8
2
100
AcDbLine
 10
-117.138192
 20
27.71365500000002
 30
0.0
 11
-116.92097
 21
30.82006999999999
 31
0.0
  0
LINE
  5
4959
330
2A
100
AcDbEntity
  8
2
100
AcDbLine
 10
-125.0089699999999
 20
29.840981
 30
0.0
 11
-124.826436
 21
32.45133399999998
 31
0.0
  0
LINE
  5
495A
330
2A
100
AcDbEntity
  8
2
100
AcDbLine
 10
-123.7591159999999
 20
33.37914100000001
 30
0.0
 11
-117.773731
 21
32.96060199999999
 31
0.0
  0
LINE
  5
495B
330
2A
100
AcDbEntity
  8
2
100
AcDbLine
 10
-113.1479349999999
 20
27.43462899999997
 30
0.0
 11
-113.0934629999999
 21
28.213617
 31
0.0
  0
LINE
  5
495C
330
2A
100
AcDbEntity
  8
2
100
AcDbLine
 10
-129.10896
 20
28.55073199999998
 30
0.0
 11
-129.056185
 21
29.30545599999999
 31
0.0
  0
LINE
  5
495D
330
2A
100
AcDbEntity
  8
2
100
AcDbLine
 10
-155.7933439999999
 20
22.84468400000003
 30
0.0
 11
-132.024699
 21
18.65363000000002
 31
0.0
  0
ARC
  5
495E
330
2A
100
AcDbEntity
  8
2
100
AcDbCircle
 10
-70.84392600000002
 20
19.73335400000002
 30
0.0
 40
8.0
100
AcDbArc
 50
359.9851329999987
 51
88.0000000000029
  0
CIRCLE
  5
495F
330
2A
100
AcDbEntity
  8
2
100
AcDbCircle
 10
-172.8419209999999
 20
32.95879400000001
 30
0.0
 40
1.5
  0
LINE
  5
4960
330
2A
100
AcDbEntity
  8
2
  6
CENTER
 62
     2
370
    13
100
AcDbLine
 10
-271.585011
 20
19.45879400000001
 30
0.0
 11
-253.793258
 21
19.45879400000001
 31
0.0
  0
LINE
  5
4961
330
2A
100
AcDbEntity
  8
2
100
AcDbLine
 10
-280.9186910000001
 20
22.44446499999998
 30
0.0
 11
-297.216502
 21
18.58113800000001
 31
0.0
  0
ARC
  5
4962
330
2A
100
AcDbEntity
  8
2
100
AcDbCircle
 10
-244.5423069999999
 20
17.55806899999999
 30
0.0
 40
13.0
100
AcDbArc
 50
102.0000000000029
 51
124.4924620000003
  0
ARC
  5
4963
330
2A
100
AcDbEntity
  8
2
100
AcDbCircle
 10
-249.07269
 20
24.15167500000001
 30
0.0
 40
5.0
100
AcDbArc
 50
124.7140370000032
 51
180.0
  0
LINE
  5
4964
330
2A
100
AcDbEntity
  8
2
100
AcDbLine
 10
-254.07269
 20
24.15167500000001
 30
0.0
 11
-254.07269
 21
13.95879400000001
 31
0.0
  0
LINE
  5
4965
330
2A
100
AcDbEntity
  8
2
  6
CENTER
 62
     2
370
    13
100
AcDbLine
 10
-172.8419209999999
 20
43.35028399999997
 30
0.0
 11
-172.8419209999999
 21
21.96639900000002
 31
0.0
  0
LINE
  5
4966
330
2A
100
AcDbEntity
  8
2
  6
CENTER
 62
     2
370
    13
100
AcDbLine
 10
-162.9193
 20
32.95879400000001
 30
0.0
 11
-183.126574
 21
32.95879400000001
 31
0.0
  0
ARC
  5
4967
330
2A
100
AcDbEntity
  8
2
  6
CENTER
 62
     2
370
    13
100
AcDbCircle
 10
-172.8419209999999
 20
32.95879400000001
 30
0.0
 40
52.075925
100
AcDbArc
 50
348.7567320000009
 51
23.16762600000255
  0
LINE
  5
4968
330
2A
100
AcDbEntity
  8
2
100
AcDbLine
 10
-265.728672
 20
24.45879400000001
 30
0.0
 11
-268.615423
 21
19.45879400000001
 31
0.0
  0
LINE
  5
4969
330
2A
100
AcDbEntity
  8
2
100
AcDbLine
 10
-259.955169
 20
24.45879400000001
 30
0.0
 11
-265.728672
 21
24.45879400000001
 31
0.0
  0
LINE
  5
496A
330
2A
100
AcDbEntity
  8
2
100
AcDbLine
 10
-257.0684180000001
 20
19.45879400000001
 30
0.0
 11
-259.955169
 21
24.45879400000001
 31
0.0
  0
LINE
  5
496B
330
2A
100
AcDbEntity
  8
2
100
AcDbLine
 10
-259.955169
 20
14.45879400000001
 30
0.0
 11
-257.0684180000001
 21
19.45879400000001
 31
0.0
  0
LINE
  5
496C
330
2A
100
AcDbEntity
  8
2
100
AcDbLine
 10
-265.728672
 20
14.45879400000001
 30
0.0
 11
-259.955169
 21
14.45879400000001
 31
0.0
  0
LINE
  5
496D
330
2A
100
AcDbEntity
  8
2
100
AcDbLine
 10
-268.615423
 20
19.45879400000001
 30
0.0
 11
-265.728672
 21
14.45879400000001
 31
0.0
  0
CIRCLE
  5
496E
330
2A
100
AcDbEntity
  8
2
100
AcDbCircle
 10
-262.841921
 20
19.45879400000001
 30
0.0
 40
2.5
  0
CIRCLE
  5
496F
330
2A
100
AcDbEntity
  8
2
100
AcDbCircle
 10
-262.841921
 20
19.45879400000001
 30
0.0
 40
3.0
  0
CIRCLE
  5
4970
330
2A
100
AcDbEntity
  8
2
100
AcDbCircle
 10
-262.841921
 20
19.45879400000001
 30
0.0
 40
5.0
  0
LINE
  5
4971
330
2A
100
AcDbEntity
  8
2
100
AcDbLine
 10
-116.932453
 20
27.03314999999998
 30
0.0
 11
-116.129404
 21
27.00583599999999
 31
0.0
  0
ARC
  5
4972
330
2A
100
AcDbEntity
  8
2
100
AcDbCircle
 10
-126.116268
 20
28.34146299999998
 30
0.0
 40
1.0
100
AcDbArc
 50
111.1058450000037
 51
266.0019910000013
  0
ARC
  5
4973
330
2A
100
AcDbEntity
  8
2
100
AcDbCircle
 10
-116.632253
 20
43.11976800000002
 30
0.0
 40
1.0
100
AcDbArc
 50
292.0814630000018
 51
112.0814630000018
  0
LINE
  5
4974
330
2A
100
AcDbEntity
  8
2
100
AcDbLine
 10
-122.27201
 20
39.75267000000002
 30
0.0
 11
-115.880494
 21
38.90727500000004
 31
0.0
  0
LINE
  5
4975
330
2A
100
AcDbEntity
  8
2
100
AcDbLine
 10
-120.669619
 20
44.45402
 30
0.0
 11
-116.550568
 21
44.11642599999999
 31
0.0
  0
ARC
  5
4976
330
2A
100
AcDbEntity
  8
2
100
AcDbCircle
 10
-115.8964499999999
 20
32.28762499999999
 30
0.0
 40
1.0
100
AcDbArc
 50
291.1129909999999
 51
111.1129909999999
  0
LINE
  5
4977
330
2A
100
AcDbEntity
  8
2
100
AcDbLine
 10
-119.316374
 20
32.06603200000001
 30
0.0
 11
-119.272416
 21
32.05602699999996
 31
0.0
  0
LINE
  5
4978
330
2A
100
AcDbEntity
  8
2
100
AcDbLine
 10
-122.2704719999999
 20
34.78074400000004
 30
0.0
 11
-115.672164
 21
33.26214900000002
 31
0.0
  0
LINE
  5
4979
330
2A
100
AcDbEntity
  8
2
100
AcDbLine
 10
-117.0456799999999
 20
29.036629
 30
0.0
 11
-116.129404
 21
29.00583599999999
 31
0.0
  0
CIRCLE
  5
497A
330
2A
100
AcDbEntity
  8
2
100
AcDbCircle
 10
-116.129404
 20
28.00583599999999
 30
0.0
 40
1.0
  0
ARC
  5
497B
330
2A
100
AcDbEntity
  8
2
100
AcDbCircle
 10
-116.01162
 20
37.915909
 30
0.0
 40
1.0
100
AcDbArc
 50
288.3940689999957
 51
108.3940689999956
  0
ARC
  5
497C
330
2A
100
AcDbEntity
  8
2
100
AcDbCircle
 10
-126.153166
 20
39.25731400000001
 30
0.0
 40
1.0
100
AcDbArc
 50
112.0814630000018
 51
292.0814630000018
  0
ARC
  5
497D
330
2A
100
AcDbEntity
  8
2
100
AcDbCircle
 10
-125.966975
 20
34.605348
 30
0.0
 40
1.0
100
AcDbArc
 50
108.3940689999956
 51
288.3940689999957
  0
LINE
  5
497E
330
2A
100
AcDbEntity
  8
2
100
AcDbLine
 10
-126.1889080000001
 20
33.63028600000002
 30
0.0
 11
-124.034346
 21
33.13988699999999
 31
0.0
  0
LINE
  5
497F
330
2A
100
AcDbEntity
  8
2
100
AcDbLine
 10
-115.536241
 20
31.35475300000002
 30
0.0
 11
-125.963838
 21
27.32836199999997
 31
0.0
  0
LINE
  5
4980
330
2A
100
AcDbEntity
  8
2
100
AcDbLine
 10
-116.256658
 20
33.22049700000003
 30
0.0
 11
-126.476476
 21
29.27433500000001
 31
0.0
  0
LINE
  5
4981
330
2A
100
AcDbEntity
  8
2
100
AcDbLine
 10
-115.6960699999999
 20
36.96700099999997
 30
0.0
 11
-125.651424
 21
33.65643999999998
 31
0.0
  0
LINE
  5
4982
330
2A
100
AcDbEntity
  8
2
100
AcDbLine
 10
-116.327171
 20
38.86481800000002
 30
0.0
 11
-126.2825259999999
 21
35.55425700000001
 31
0.0
  0
LINE
  5
4983
330
2A
100
AcDbEntity
  8
2
100
AcDbLine
 10
-116.2563279999999
 20
42.19311800000002
 30
0.0
 11
-125.777242
 21
38.33066300000002
 31
0.0
  0
LINE
  5
4984
330
2A
100
AcDbEntity
  8
2
100
AcDbLine
 10
-117.0081769999999
 20
44.04641800000002
 30
0.0
 11
-126.529091
 21
40.183964
 31
0.0
  0
LINE
  5
4985
330
2A
100
AcDbEntity
  8
2
100
AcDbLine
 10
-126.404569
 20
42.91734400000001
 30
0.0
 11
-120.902839
 21
42.466428
 31
0.0
  0
LINE
  5
4986
330
2A
100
AcDbEntity
  8
2
100
AcDbLine
 10
-126.2842929999999
 20
38.26594799999997
 30
0.0
 11
-120.4490379999999
 21
37.49412899999999
 31
0.0
  0
ARC
  5
4987
330
2A
100
AcDbEntity
  8
2
100
AcDbCircle
 10
-208.449207
 20
12.95879400000001
 30
0.0
 40
10.0
100
AcDbArc
 50
90.0
 51
102.0000000000029
  0
ARC
  5
4988
330
2A
100
AcDbEntity
  8
2
100
AcDbCircle
 10
-168.984056
 20
32.95879400000001
 30
0.0
 40
10.0
100
AcDbArc
 50
270.0
 51
315.0
  0
LINE
  5
4989
330
2A
100
AcDbEntity
  8
2
100
AcDbLine
 10
-208.449207
 20
22.95879400000001
 30
0.0
 11
-168.984056
 21
22.95879400000001
 31
0.0
  0
ARC
  5
498A
330
2A
100
AcDbEntity
  8
2
100
AcDbCircle
 10
-168.8419209999999
 20
23.95879400000001
 30
0.0
 40
1.0
100
AcDbArc
 50
270.0
 51
0.0
  0
ARC
  5
498B
330
2A
100
AcDbEntity
  8
2
100
AcDbCircle
 10
-176.8419209999999
 20
23.95879400000001
 30
0.0
 40
1.0
100
AcDbArc
 50
180.0
 51
270.0
  0
ARC
  5
498C
330
2A
100
AcDbEntity
  8
2
100
AcDbCircle
 10
-130.941558
 20
0.2906150000000025
 30
0.0
 40
40.0
100
AcDbArc
 50
105.0000000000016
 51
135.0
  0
LINE
  5
498D
330
2A
100
AcDbEntity
  8
2
100
AcDbLine
 10
-161.9129889999999
 20
25.88772599999999
 30
0.0
 11
-159.225829
 21
28.57488599999999
 31
0.0
  0
ARC
  5
498E
330
2A
100
AcDbEntity
  8
2
100
AcDbCircle
 10
-244.8419209999999
 20
33.85183400000001
 30
0.0
 40
3.0
100
AcDbArc
 50
180.0
 51
282.000000000003
  0
LINE
  5
498F
330
2A
100
AcDbEntity
  8
2
100
AcDbLine
 10
-251.841921
 20
13.95879400000001
 30
0.0
 11
-210.528324
 21
22.74027000000001
 31
0.0
  0
LINE
  5
4990
330
2A
100
AcDbEntity
  8
2
100
AcDbLine
 10
-63.72164199999997
 20
59.71318400000001
 30
0.0
 11
-141.294319
 21
38.92764799999998
 31
0.0
  0
ARC
  5
4991
330
2A
100
AcDbEntity
  8
2
100
AcDbCircle
 10
-63.98046099999999
 20
60.67910999999998
 30
0.0
 40
1.0
100
AcDbArc
 50
285.0000000000017
 51
11.99999999999979
  0
LINE
  5
4992
330
2A
100
AcDbEntity
  8
2
100
AcDbLine
 10
-63.00231400000007
 20
60.88702099999999
 30
0.0
 11
-63.70134899999993
 21
64.17572599999999
 31
0.0
  0
ARC
  5
4993
330
2A
100
AcDbEntity
  8
2
100
AcDbCircle
 10
-68.59208699999999
 20
63.13616800000001
 30
0.0
 40
5.0
100
AcDbArc
 50
11.99999999999979
 51
102.0000000000029
  0
LINE
  5
4994
330
2A
100
AcDbEntity
  8
2
100
AcDbLine
 10
-177.8419209999999
 20
32.95879400000001
 30
0.0
 11
-177.8419209999999
 21
23.95879400000001
 31
0.0
  0
LINE
  5
4995
330
2A
100
AcDbEntity
  8
2
100
AcDbLine
 10
-167.8419209999999
 20
32.95879400000001
 30
0.0
 11
-167.8419209999999
 21
23.95879400000001
 31
0.0
  0
ARC
  5
4996
330
2A
100
AcDbEntity
  8
2
100
AcDbCircle
 10
-172.8419209999999
 20
32.95879400000001
 30
0.0
 40
5.0
100
AcDbArc
 50
0.0
 51
180.0
  0
CIRCLE
  5
4997
330
2A
100
AcDbEntity
  8
2
100
AcDbCircle
 10
-172.8419209999999
 20
32.95879400000001
 30
0.0
 40
2.0
  0
LINE
  5
4998
330
2A
100
AcDbEntity
  8
2
100
AcDbLine
 10
-247.2451589999999
 20
30.27398799999998
 30
0.0
 11
-69.63164600000005
 21
68.02690600000001
 31
0.0
  0
ARC
  5
4999
330
2A
100
AcDbEntity
  8
2
100
AcDbCircle
 10
-286.180284
 20
44.64099599999997
 30
0.0
 40
22.811628
100
AcDbArc
 50
283.3355780000015
 51
313.1280649999998
  0
LINE
  5
499A
330
2A
100
AcDbEntity
  8
2
100
AcDbLine
 10
-248.8419209999999
 20
34.95879400000001
 30
0.0
 11
-276.841921
 21
34.95879400000001
 31
0.0
  0
ARC
  5
499B
330
2A
100
AcDbEntity
  8
2
100
AcDbCircle
 10
-257.07269
 20
33.95879400000001
 30
0.0
 40
1.0
100
AcDbArc
 50
0.0
 51
90.0
  0
ARC
  5
499C
330
2A
100
AcDbEntity
  8
2
100
AcDbCircle
 10
-268.6111519999999
 20
33.95879400000001
 30
0.0
 40
1.0
100
AcDbArc
 50
90.0
 51
180.0
  0
ARC
  5
499D
330
2A
100
AcDbEntity
  8
2
100
AcDbCircle
 10
-296.841921
 20
15.85817100000002
 30
0.0
 40
3.0
100
AcDbArc
 50
109.9999999999964
 51
180.0
  0
LINE
  5
499E
330
2A
100
AcDbEntity
  8
2
100
AcDbLine
 10
-256.07269
 20
33.95879400000001
 30
0.0
 11
-256.07269
 21
13.95879400000001
 31
0.0
  0
LINE
  5
499F
330
2A
100
AcDbEntity
  8
2
100
AcDbLine
 10
-269.611152
 20
33.95879400000001
 30
0.0
 11
-269.611152
 21
13.95879400000001
 31
0.0
  0
LINE
  5
49A0
330
2A
100
AcDbEntity
  8
2
100
AcDbLine
 10
-251.841921
 20
12.95879400000001
 30
0.0
 11
-251.841921
 21
13.95879400000001
 31
0.0
  0
LINE
  5
49A1
330
2A
100
AcDbEntity
  8
2
100
AcDbLine
 10
-251.841921
 20
12.95879400000001
 30
0.0
 11
-273.8419209999999
 21
12.95879400000001
 31
0.0
  0
LINE
  5
49A2
330
2A
100
AcDbEntity
  8
2
100
AcDbLine
 10
-247.841921
 20
33.85183400000001
 30
0.0
 11
-247.841921
 21
33.95879400000001
 31
0.0
  0
LINE
  5
49A3
330
2A
100
AcDbEntity
  8
2
100
AcDbLine
 10
-277.841921
 20
29.46717699999999
 30
0.0
 11
-277.841921
 21
33.95879400000001
 31
0.0
  0
LINE
  5
49A4
330
2A
100
AcDbEntity
  8
2
100
AcDbLine
 10
-276.841921
 20
34.95879400000001
 30
0.0
 11
-277.841921
 21
33.95879400000001
 31
0.0
  0
LINE
  5
49A5
330
2A
100
AcDbEntity
  8
2
100
AcDbLine
 10
-247.841921
 20
33.95879400000001
 30
0.0
 11
-248.8419209999999
 21
34.95879400000001
 31
0.0
  0
LINE
  5
49A6
330
2A
100
AcDbEntity
  8
2
100
AcDbLine
 10
-299.841921
 20
15.85817100000002
 30
0.0
 11
-299.841921
 21
13.95879400000001
 31
0.0
  0
LINE
  5
49A7
330
2A
100
AcDbEntity
  8
2
100
AcDbLine
 10
-273.8419209999999
 20
12.95879400000001
 30
0.0
 11
-273.8419209999999
 21
13.95879400000001
 31
0.0
  0
LINE
  5
49A8
330
2A
100
AcDbEntity
  8
2
100
AcDbLine
 10
-251.841921
 20
13.95879400000001
 30
0.0
 11
-299.841921
 21
13.95879400000001
 31
0.0
  0
LINE
  5
49A9
330
2A
100
AcDbEntity
  8
2
100
AcDbLine
 10
-297.867981
 20
18.67724900000002
 30
0.0
 11
-281.13182
 21
24.76871399999999
 31
0.0
  0
ARC
  5
49AA
330
2A
100
AcDbEntity
  8
2
100
AcDbCircle
 10
-282.8419209999999
 20
29.46717699999999
 30
0.0
 40
5.0
100
AcDbArc
 50
289.9999999999965
 51
0.0
  0
ARC
  5
49AB
330
2A
100
AcDbEntity
  8
2
100
AcDbCircle
 10
-262.841921
 20
18.95879400000001
 30
0.0
 40
7.0
100
AcDbArc
 50
238.997281
 51
301.002719
  0
LINE
  5
49AC
330
2A
100
AcDbEntity
  8
2
100
AcDbLine
 10
-269.8419209999999
 20
11.95879400000001
 30
0.0
 11
-269.8419209999999
 21
3.958794000000011
 31
0.0
  0
LINE
  5
49AD
330
2A
100
AcDbEntity
  8
2
100
AcDbLine
 10
-256.841921
 20
12.95879400000001
 30
0.0
 11
-255.841921
 21
11.95879400000001
 31
0.0
  0
LINE
  5
49AE
330
2A
100
AcDbEntity
  8
2
100
AcDbLine
 10
-268.841921
 20
12.95879400000001
 30
0.0
 11
-269.8419209999999
 21
11.95879400000001
 31
0.0
  0
LINE
  5
49AF
330
2A
100
AcDbEntity
  8
2
100
AcDbLine
 10
-255.841921
 20
11.95879400000001
 30
0.0
 11
-255.841921
 21
3.958794000000011
 31
0.0
  0
ARC
  5
49B0
330
2A
100
AcDbEntity
  8
2
100
AcDbCircle
 10
-72.84192099999995
 20
166.74296
 30
0.0
 40
10.0
100
AcDbArc
 50
271.5079580000016
 51
88.49204199999837
  0
CIRCLE
  5
49B1
330
2A
100
AcDbEntity
  8
2
100
AcDbCircle
 10
-287.5906580000001
 20
191.491697
 30
0.0
 40
6.5
  0
LINE
  5
49B2
330
2A
100
AcDbEntity
  8
2
100
AcDbLine
 10
-291.343435
 20
184.991697
 30
0.0
 11
-283.8378809999999
 21
184.991697
 31
0.0
  0
LINE
  5
49B3
330
2A
100
AcDbEntity
  8
2
100
AcDbLine
 10
-283.8378809999999
 20
184.991697
 30
0.0
 11
-280.085105
 21
191.491697
 31
0.0
  0
LINE
  5
49B4
330
2A
100
AcDbEntity
  8
2
100
AcDbLine
 10
-280.085105
 20
191.491697
 30
0.0
 11
-283.8378809999999
 21
197.991697
 31
0.0
  0
LINE
  5
49B5
330
2A
100
AcDbEntity
  8
2
100
AcDbLine
 10
-283.8378809999999
 20
197.991697
 30
0.0
 11
-291.343435
 21
197.991697
 31
0.0
  0
LINE
  5
49B6
330
2A
100
AcDbEntity
  8
2
100
AcDbLine
 10
-291.343435
 20
197.991697
 30
0.0
 11
-295.096212
 21
191.491697
 31
0.0
  0
LINE
  5
49B7
330
2A
100
AcDbEntity
  8
2
100
AcDbLine
 10
-295.096212
 20
191.491697
 30
0.0
 11
-291.343435
 21
184.991697
 31
0.0
  0
LINE
  5
49B8
330
2A
100
AcDbEntity
  8
2
100
AcDbLine
 10
-230.58763
 20
141.994223
 30
0.0
 11
-234.3404069999999
 21
148.494223
 31
0.0
  0
LINE
  5
49B9
330
2A
100
AcDbEntity
  8
2
100
AcDbLine
 10
-234.3404069999999
 20
135.494223
 30
0.0
 11
-230.58763
 21
141.994223
 31
0.0
  0
LINE
  5
49BA
330
2A
100
AcDbEntity
  8
2
100
AcDbLine
 10
-241.84596
 20
135.494223
 30
0.0
 11
-234.3404069999999
 21
135.494223
 31
0.0
  0
LINE
  5
49BB
330
2A
100
AcDbEntity
  8
2
100
AcDbLine
 10
-245.598737
 20
141.994223
 30
0.0
 11
-241.84596
 21
135.494223
 31
0.0
  0
LINE
  5
49BC
330
2A
100
AcDbEntity
  8
2
100
AcDbLine
 10
-241.84596
 20
148.494223
 30
0.0
 11
-245.598737
 21
141.994223
 31
0.0
  0
LINE
  5
49BD
330
2A
100
AcDbEntity
  8
2
100
AcDbLine
 10
-234.3404069999999
 20
148.494223
 30
0.0
 11
-241.84596
 21
148.494223
 31
0.0
  0
CIRCLE
  5
49BE
330
2A
100
AcDbEntity
  8
2
100
AcDbCircle
 10
-238.093183
 20
141.994223
 30
0.0
 40
6.5
  0
LINE
  5
49BF
330
2A
100
AcDbEntity
  8
2
 62
     4
370
    13
100
AcDbLine
 10
-260.382921
 20
140.74296
 30
0.0
 11
-260.382921
 21
144.74296
 31
0.0
  0
LINE
  5
49C0
330
2A
100
AcDbEntity
  8
2
 62
     4
370
    13
100
AcDbLine
 10
-265.300921
 20
140.74296
 30
0.0
 11
-265.300921
 21
144.74296
 31
0.0
  0
ARC
  5
49C1
330
2A
100
AcDbEntity
  8
2
100
AcDbCircle
 10
-262.841921
 20
153.365436
 30
0.0
 40
8.625
100
AcDbArc
 50
250.5287789999982
 51
270.0
  0
ARC
  5
49C2
330
2A
100
AcDbEntity
  8
2
100
AcDbCircle
 10
-267.1544209999999
 20
147.081663
 30
0.0
 40
2.341226999999999
100
AcDbArc
 50
232.1211210000014
 51
307.8788789999986
  0
LINE
  5
49C3
330
2A
100
AcDbEntity
  8
2
100
AcDbLine
 10
-265.716921
 20
149.74296
 30
0.0
 11
-265.716921
 21
145.2337079999999
 31
0.0
  0
LINE
  5
49C4
330
2A
100
AcDbEntity
  8
2
100
AcDbLine
 10
-267.741921
 20
144.74296
 30
0.0
 11
-262.841921
 21
144.74296
 31
0.0
  0
LINE
  5
49C5
330
2A
100
AcDbEntity
  8
2
100
AcDbLine
 10
-268.591921
 20
145.2337079999999
 30
0.0
 11
-267.741921
 21
144.74296
 31
0.0
  0
LINE
  5
49C6
330
2A
100
AcDbEntity
  8
2
100
AcDbLine
 10
-268.591921
 20
149.74296
 30
0.0
 11
-268.591921
 21
145.2337079999999
 31
0.0
  0
LINE
  5
49C7
330
2A
100
AcDbEntity
  8
2
100
AcDbLine
 10
-262.841921
 20
149.74296
 30
0.0
 11
-268.591921
 21
149.74296
 31
0.0
  0
ARC
  5
49C8
330
2A
100
AcDbEntity
  8
2
100
AcDbCircle
 10
-262.841921
 20
153.365436
 30
0.0
 40
8.625
100
AcDbArc
 50
270.0
 51
289.4712210000018
  0
ARC
  5
49C9
330
2A
100
AcDbEntity
  8
2
100
AcDbCircle
 10
-258.529421
 20
147.081663
 30
0.0
 40
2.341226999999999
100
AcDbArc
 50
232.1211210000014
 51
307.8788789999986
  0
LINE
  5
49CA
330
2A
100
AcDbEntity
  8
2
100
AcDbLine
 10
-259.966921
 20
149.74296
 30
0.0
 11
-259.966921
 21
145.2337079999999
 31
0.0
  0
LINE
  5
49CB
330
2A
100
AcDbEntity
  8
2
100
AcDbLine
 10
-257.941921
 20
144.74296
 30
0.0
 11
-262.841921
 21
144.74296
 31
0.0
  0
LINE
  5
49CC
330
2A
100
AcDbEntity
  8
2
100
AcDbLine
 10
-257.091921
 20
145.2337079999999
 30
0.0
 11
-257.941921
 21
144.74296
 31
0.0
  0
LINE
  5
49CD
330
2A
100
AcDbEntity
  8
2
100
AcDbLine
 10
-257.091921
 20
149.74296
 30
0.0
 11
-257.091921
 21
145.2337079999999
 31
0.0
  0
LINE
  5
49CE
330
2A
100
AcDbEntity
  8
2
100
AcDbLine
 10
-262.841921
 20
149.74296
 30
0.0
 11
-257.091921
 21
149.74296
 31
0.0
  0
POINT
  5
49CF
330
2A
100
AcDbEntity
  8
2
100
AcDbPoint
 10
-262.841921
 20
149.74296
 30
0.0
  0
LINE
  5
49D0
330
2A
100
AcDbEntity
  8
2
100
AcDbLine
 10
-259.8419209999999
 20
141.28396
 30
0.0
 11
-262.841921
 21
141.28396
 31
0.0
  0
LINE
  5
49D1
330
2A
100
AcDbEntity
  8
2
100
AcDbLine
 10
-259.8419209999999
 20
141.28396
 30
0.0
 11
-259.8419209999999
 21
144.761889
 31
0.0
  0
LINE
  5
49D2
330
2A
100
AcDbEntity
  8
2
100
AcDbLine
 10
-260.382921
 20
140.74296
 30
0.0
 11
-259.8419209999999
 21
141.28396
 31
0.0
  0
LINE
  5
49D3
330
2A
100
AcDbEntity
  8
2
100
AcDbLine
 10
-262.841921
 20
140.74296
 30
0.0
 11
-260.382921
 21
140.74296
 31
0.0
  0
LINE
  5
49D4
330
2A
100
AcDbEntity
  8
2
100
AcDbLine
 10
-265.8419209999999
 20
141.28396
 30
0.0
 11
-262.841921
 21
141.28396
 31
0.0
  0
LINE
  5
49D5
330
2A
100
AcDbEntity
  8
2
100
AcDbLine
 10
-265.8419209999999
 20
141.28396
 30
0.0
 11
-265.8419209999999
 21
144.761889
 31
0.0
  0
LINE
  5
49D6
330
2A
100
AcDbEntity
  8
2
100
AcDbLine
 10
-265.300921
 20
140.74296
 30
0.0
 11
-265.8419209999999
 21
141.28396
 31
0.0
  0
LINE
  5
49D7
330
2A
100
AcDbEntity
  8
2
100
AcDbLine
 10
-262.841921
 20
140.74296
 30
0.0
 11
-265.300921
 21
140.74296
 31
0.0
  0
TEXT
  5
49D8
330
2A
100
AcDbEntity
  8
2
100
AcDbText
 10
-242.330832
 20
152.390024
 30
0.0
 40
3.0
  1
Ｔ
 50
232.7858577647398
 41
0.9230771223314278
 72
     5
 11
-243.782342
 21
150.4787099999999
 31
0.0
100
AcDbText
  0
TEXT
  5
49D9
330
2A
100
AcDbEntity
  8
2
100
AcDbText
 10
-243.6598240000001
 20
150.6569819999999
 30
0.0
 40
3.0
  1
Ｅ
 50
227.7858605481266
 41
1.090909007643223
 72
     5
 11
-245.272392
 21
148.879449
 31
0.0
100
AcDbText
  0
TEXT
  5
49DA
330
2A
100
AcDbEntity
  8
2
100
AcDbText
 10
-245.1348029999999
 20
149.0463639999999
 30
0.0
 40
3.0
  1
Ｎ
 50
222.7858521323227
 41
0.923076779125947
 72
     5
 11
-246.896157
 21
147.41614
 31
0.0
100
AcDbText
  0
TEXT
  5
49DB
330
2A
100
AcDbEntity
  8
2
100
AcDbText
 10
-246.744544
 20
147.570428
 30
0.0
 40
3.0
  1
Ｔ
 50
217.7858621875427
 41
0.9230769534700058
 72
     5
 11
-248.6412789999999
 21
146.099919
 31
0.0
100
AcDbText
  0
TEXT
  5
49DC
330
2A
100
AcDbEntity
  8
2
100
AcDbText
 10
-248.4767950000001
 20
146.240406
 30
0.0
 40
3.0
  1
Ｅ
 50
212.7858592989693
 41
1.090909278045881
 72
     5
 11
-250.494476
 21
144.940804
 31
0.0
100
AcDbText
  0
TEXT
  5
49DD
330
2A
100
AcDbEntity
  8
2
100
AcDbText
 10
-250.3183740000001
 20
145.066422
 30
0.0
 40
3.0
  1
Ｄ
 50
207.78586635936
 41
0.9999998162600247
 72
     5
 11
-252.441644
 21
143.947618
 31
0.0
100
AcDbText
  0
TEXT
  5
49DE
330
2A
100
AcDbEntity
  8
2
100
AcDbText
 10
-281.219518
 20
183.7422379999999
 30
0.0
 40
3.0
  1
Ｐ
 50
45.00000000000143
 41
0.9999998380444418
 72
     5
 11
-279.522462
 21
185.439294
 31
0.0
100
AcDbText
  0
TEXT
  5
49DF
330
2A
100
AcDbEntity
  8
2
100
AcDbText
 10
-277.988428
 20
186.6752169999999
 30
0.0
 40
3.0
  1
Ｎ
 50
34.99998997067514
 41
0.9230768539354238
 72
     5
 11
-276.022463
 21
188.0518
 31
0.0
100
AcDbText
  0
TEXT
  5
49E0
330
2A
100
AcDbEntity
  8
2
100
AcDbText
 10
-279.668001
 20
185.279264
 30
0.0
 40
3.0
  1
Ａ
 50
39.9999900217805
 41
0.9230769571433352
 72
     5
 11
-277.8294940000001
 21
186.821954
 31
0.0
100
AcDbText
  0
TEXT
  5
49E1
330
2A
100
AcDbEntity
  8
2
100
AcDbText
 10
-282.631171
 20
182.075837
 30
0.0
 40
3.0
  1
Ａ
 50
50.00000997822089
 41
0.9230769571433446
 72
     5
 11
-281.088481
 21
183.914344
 31
0.0
100
AcDbText
  0
TEXT
  5
49E2
330
2A
100
AcDbEntity
  8
2
100
AcDbText
 10
-283.892215
 20
180.2927439999999
 30
0.0
 40
3.0
  1
Ｊ
 50
54.9999904735144
 41
1.200000196904288
 72
     5
 11
-282.515631
 21
182.258709
 31
0.0
100
AcDbText
  0
TEXT
  5
49E3
330
2A
100
AcDbEntity
  8
2
100
AcDbText
 10
-297.8020710000001
 20
176.488462
 30
0.0
 40
10.0
  1
Ｓ
 50
67.49999570693849
 41
0.9999999958462593
 72
     5
 11
-294.740603
 21
183.879498
 31
0.0
100
AcDbText
  0
TEXT
  5
49E4
330
2A
100
AcDbEntity
  8
2
100
AcDbText
 10
-244.292943
 20
135.398579
 30
0.0
 40
10.0
  1
Ｏ
 50
202.4999976762606
 41
0.9230768750869078
 72
     5
 11
-251.683979
 21
132.337112
 31
0.0
100
AcDbText
  0
LINE
  5
49E5
330
2A
100
AcDbEntity
  8
2
  6
CENTER
 62
     2
370
    13
100
AcDbLine
 10
-279.2643040000001
 20
183.165343
 30
0.0
 11
-295.9839039999999
 21
199.884944
 31
0.0
  0
ARC
  5
49E6
330
2A
100
AcDbEntity
  8
2
  6
CENTER
 62
     2
370
    13
100
AcDbCircle
 10
-262.841921
 20
166.74296
 30
0.0
 40
35.0
100
AcDbArc
 50
118.0055220000028
 51
150.923657999999
  0
LINE
  5
49E7
330
2A
100
AcDbEntity
  8
2
  6
CENTER
 62
     2
370
    13
100
AcDbLine
 10
-230.817232
 20
134.7182709999999
 30
0.0
 11
-245.49308
 21
149.39412
 31
0.0
  0
ARC
  5
49E8
330
2A
100
AcDbEntity
  8
2
  6
CENTER
 62
     2
370
    13
100
AcDbCircle
 10
-262.841921
 20
166.74296
 30
0.0
 40
35.0
100
AcDbArc
 50
298.5853780000008
 51
330.9681990000004
  0
LINE
  5
49E9
330
2A
100
AcDbEntity
  8
2
100
AcDbLine
 10
-239.2180940000001
 20
151.7933319999999
 30
0.0
 11
-239.708749
 21
152.346742
 31
0.0
  0
LINE
  5
49EA
330
2A
100
AcDbEntity
  8
2
100
AcDbLine
 10
-240.76651
 20
152.318897
 30
0.0
 11
-239.2180940000001
 21
151.7933319999999
 31
0.0
  0
ARC
  5
49EB
330
2A
100
AcDbEntity
  8
2
100
AcDbCircle
 10
-270.916561
 20
120.9493989999999
 30
0.0
 40
0.5
100
AcDbArc
 50
170.0000000000014
 51
350.0000000000014
  0
ARC
  5
49EC
330
2A
100
AcDbEntity
  8
2
100
AcDbCircle
 10
-278.745857
 20
123.047253
 30
0.0
 40
0.5
100
AcDbArc
 50
159.9999999999993
 51
339.9999999999994
  0
ARC
  5
49ED
330
2A
100
AcDbEntity
  8
2
100
AcDbCircle
 10
-263.8419209999999
 20
139.261148
 30
0.0
 40
0.5
100
AcDbArc
 50
87.91605799999961
 51
180.0
  0
ARC
  5
49EE
330
2A
100
AcDbEntity
  8
2
100
AcDbCircle
 10
-261.8419209999999
 20
139.261148
 30
0.0
 40
0.5
100
AcDbArc
 50
0.0
 51
92.08394200000041
  0
ARC
  5
49EF
330
2A
100
AcDbEntity
  8
2
100
AcDbCircle
 10
-262.841921
 20
166.74296
 30
0.0
 40
27.0
100
AcDbArc
 50
267.9160579999996
 51
272.0839420000004
  0
ARC
  5
49F0
330
2A
100
AcDbEntity
  8
2
100
AcDbCircle
 10
-262.841921
 20
166.74296
 30
0.0
 40
47.0
100
AcDbArc
 50
268.7677379999984
 51
271.2322620000017
  0
ARC
  5
49F1
330
2A
100
AcDbEntity
  8
2
100
AcDbCircle
 10
-262.841921
 20
166.74296
 30
0.0
 40
47.0
100
AcDbArc
 50
199.9999290000007
 51
200.0000709999997
  0
ARC
  5
49F2
330
2A
100
AcDbEntity
  8
2
100
AcDbCircle
 10
-261.8419209999999
 20
120.253714
 30
0.0
 40
0.5
100
AcDbArc
 50
271.2322620000017
 51
0.0
  0
ARC
  5
49F3
330
2A
100
AcDbEntity
  8
2
100
AcDbCircle
 10
-263.8419209999999
 20
120.253714
 30
0.0
 40
0.5
100
AcDbArc
 50
180.0
 51
268.7677379999984
  0
ARC
  5
49F4
330
2A
100
AcDbEntity
  8
2
100
AcDbCircle
 10
-262.841921
 20
166.74296
 30
0.0
 40
47.0
100
AcDbArc
 50
189.999966000001
 51
190.0000339999996
  0
ARC
  5
49F5
330
2A
100
AcDbEntity
  8
2
100
AcDbCircle
 10
-298.7874039999999
 20
160.404802
 30
0.0
 40
0.5
100
AcDbArc
 50
279.9999999999986
 51
99.99999999999859
  0
ARC
  5
49F6
330
2A
100
AcDbEntity
  8
2
100
AcDbCircle
 10
-297.140701
 20
154.259225
 30
0.0
 40
0.5
100
AcDbArc
 50
289.9999999999965
 51
109.9999999999964
  0
ARC
  5
49F7
330
2A
100
AcDbEntity
  8
2
100
AcDbCircle
 10
-294.4518479999999
 20
148.49296
 30
0.0
 40
0.5
100
AcDbArc
 50
300.0000000000005
 51
120.0000000000005
  0
ARC
  5
49F8
330
2A
100
AcDbEntity
  8
2
100
AcDbCircle
 10
-290.802543
 20
143.281212
 30
0.0
 40
0.5
100
AcDbArc
 50
310.0000000000026
 51
130.0000000000026
  0
ARC
  5
49F9
330
2A
100
AcDbEntity
  8
2
100
AcDbCircle
 10
-286.303669
 20
138.782338
 30
0.0
 40
0.5
100
AcDbArc
 50
319.9999999999999
 51
139.9999999999999
  0
ARC
  5
49FA
330
2A
100
AcDbEntity
  8
2
100
AcDbCircle
 10
-281.091921
 20
135.133033
 30
0.0
 40
0.5
100
AcDbArc
 50
329.9999999999995
 51
149.9999999999994
  0
ARC
  5
49FB
330
2A
100
AcDbEntity
  8
2
100
AcDbCircle
 10
-275.325656
 20
132.444179
 30
0.0
 40
0.5
100
AcDbArc
 50
339.9999999999994
 51
159.9999999999993
  0
ARC
  5
49FC
330
2A
100
AcDbEntity
  8
2
100
AcDbCircle
 10
-269.180079
 20
130.797477
 30
0.0
 40
0.5
100
AcDbArc
 50
350.0000000000014
 51
170.0000000000014
  0
LINE
  5
49FD
330
2A
100
AcDbEntity
  8
2
100
AcDbLine
 10
-292.209124
 20
159.33253
 30
0.0
 11
-291.497977
 21
160.043677
 31
0.0
  0
LINE
  5
49FE
330
2A
100
AcDbEntity
  8
2
100
AcDbLine
 10
-294.240974
 20
157.300681
 30
0.0
 11
-293.529827
 21
158.011828
 31
0.0
  0
LINE
  5
49FF
330
2A
100
AcDbEntity
  8
2
100
AcDbLine
 10
-295.663268
 20
155.878386
 30
0.0
 11
-294.952121
 21
156.589533
 31
0.0
  0
LINE
  5
4A00
330
2A
100
AcDbEntity
  8
2
100
AcDbLine
 10
-261.3419209999999
 20
120.253714
 30
0.0
 11
-261.3419209999999
 21
139.261148
 31
0.0
  0
LINE
  5
4A01
330
2A
100
AcDbEntity
  8
2
100
AcDbLine
 10
-264.341921
 20
120.253714
 30
0.0
 11
-264.341921
 21
139.261148
 31
0.0
  0
LINE
  5
4A02
330
2A
100
AcDbEntity
  8
2
100
AcDbLine
 10
-271.408965
 20
121.036224
 30
0.0
 11
-269.672483
 21
130.884301
 31
0.0
  0
LINE
  5
4A03
330
2A
100
AcDbEntity
  8
2
100
AcDbLine
 10
-270.4241569999999
 20
120.862575
 30
0.0
 11
-268.687675
 21
130.7106529999999
 31
0.0
  0
LINE
  5
4A04
330
2A
100
AcDbEntity
  8
2
100
AcDbLine
 10
-292.348522
 20
130.8005
 30
0.0
 11
-285.920646
 21
138.460944
 31
0.0
  0
ARC
  5
4A05
330
2A
100
AcDbEntity
  8
2
100
AcDbCircle
 10
-292.7315450000001
 20
131.121893
 30
0.0
 40
0.5
100
AcDbArc
 50
139.9999999999999
 51
319.9999999999999
  0
LINE
  5
4A06
330
2A
100
AcDbEntity
  8
2
100
AcDbLine
 10
-293.114567
 20
131.443287
 30
0.0
 11
-286.686691
 21
139.103732
 31
0.0
  0
LINE
  5
4A07
330
2A
100
AcDbEntity
  8
2
100
AcDbLine
 10
-285.658908
 20
126.222779
 30
0.0
 11
-280.658908
 21
134.883033
 31
0.0
  0
ARC
  5
4A08
330
2A
100
AcDbEntity
  8
2
100
AcDbCircle
 10
-286.091921
 20
126.472779
 30
0.0
 40
0.5
100
AcDbArc
 50
149.9999999999994
 51
329.9999999999995
  0
LINE
  5
4A09
330
2A
100
AcDbEntity
  8
2
100
AcDbLine
 10
-286.5249330000001
 20
126.722779
 30
0.0
 11
-281.524933
 21
135.383033
 31
0.0
  0
LINE
  5
4A0A
330
2A
100
AcDbEntity
  8
2
100
AcDbLine
 10
-278.2760109999999
 20
122.876243
 30
0.0
 11
-274.85581
 21
132.273169
 31
0.0
  0
LINE
  5
4A0B
330
2A
100
AcDbEntity
  8
2
100
AcDbLine
 10
-279.215704
 20
123.218263
 30
0.0
 11
-275.7955019999999
 21
132.615189
 31
0.0
  0
ARC
  5
4A0C
330
2A
100
AcDbEntity
  8
2
100
AcDbCircle
 10
-262.841921
 20
166.74296
 30
0.0
 40
47.0
100
AcDbArc
 50
178.7677379999984
 51
181.2322620000015
  0
LINE
  5
4A0D
330
2A
100
AcDbEntity
  8
2
100
AcDbLine
 10
-306.366618
 20
150.369177
 30
0.0
 11
-296.969691
 21
153.789378
 31
0.0
  0
ARC
  5
4A0E
330
2A
100
AcDbEntity
  8
2
100
AcDbCircle
 10
-306.5376280000001
 20
150.839023
 30
0.0
 40
0.5
100
AcDbArc
 50
109.9999999999964
 51
289.9999999999965
  0
LINE
  5
4A0F
330
2A
100
AcDbEntity
  8
2
100
AcDbLine
 10
-306.7086380000001
 20
151.3088699999999
 30
0.0
 11
-297.311711
 21
154.7290709999999
 31
0.0
  0
LINE
  5
4A10
330
2A
100
AcDbEntity
  8
2
100
AcDbLine
 10
-302.862102
 20
143.0599469999999
 30
0.0
 11
-294.2018479999999
 21
148.0599469999999
 31
0.0
  0
ARC
  5
4A11
330
2A
100
AcDbEntity
  8
2
100
AcDbCircle
 10
-303.112102
 20
143.49296
 30
0.0
 40
0.5
100
AcDbArc
 50
120.0000000000005
 51
300.0000000000005
  0
LINE
  5
4A12
330
2A
100
AcDbEntity
  8
2
100
AcDbLine
 10
-303.362102
 20
143.925973
 30
0.0
 11
-294.7018479999999
 21
148.925973
 31
0.0
  0
LINE
  5
4A13
330
2A
100
AcDbEntity
  8
2
100
AcDbLine
 10
-298.1415939999999
 20
136.470314
 30
0.0
 11
-290.481149
 21
142.89819
 31
0.0
  0
ARC
  5
4A14
330
2A
100
AcDbEntity
  8
2
100
AcDbCircle
 10
-298.462987
 20
136.853336
 30
0.0
 40
0.5
100
AcDbArc
 50
130.0000000000026
 51
310.0000000000026
  0
LINE
  5
4A15
330
2A
100
AcDbEntity
  8
2
100
AcDbLine
 10
-298.7843809999999
 20
137.236358
 30
0.0
 11
-291.123937
 21
143.664234
 31
0.0
  0
LINE
  5
4A16
330
2A
100
AcDbEntity
  8
2
100
AcDbLine
 10
-308.722305
 20
159.1607239999999
 30
0.0
 11
-298.8742279999999
 21
160.897205
 31
0.0
  0
ARC
  5
4A17
330
2A
100
AcDbEntity
  8
2
100
AcDbCircle
 10
-308.635481
 20
158.66832
 30
0.0
 40
0.5
100
AcDbArc
 50
99.99999999999859
 51
279.9999999999986
  0
LINE
  5
4A18
330
2A
100
AcDbEntity
  8
2
100
AcDbLine
 10
-308.548657
 20
158.175916
 30
0.0
 11
-298.70058
 21
159.912398
 31
0.0
  0
ARC
  5
4A19
330
2A
100
AcDbEntity
  8
2
100
AcDbCircle
 10
-309.3311670000001
 20
165.74296
 30
0.0
 40
0.5
100
AcDbArc
 50
181.2322620000015
 51
270.0
  0
LINE
  5
4A1A
330
2A
100
AcDbEntity
  8
2
100
AcDbLine
 10
-309.3311670000001
 20
165.24296
 30
0.0
 11
-299.164796
 21
165.24296
 31
0.0
  0
LINE
  5
4A1B
330
2A
100
AcDbEntity
  8
2
100
AcDbLine
 10
-309.3311670000001
 20
168.24296
 30
0.0
 11
-299.164796
 21
168.24296
 31
0.0
  0
ARC
  5
4A1C
330
2A
100
AcDbEntity
  8
2
100
AcDbCircle
 10
-309.3311670000001
 20
167.74296
 30
0.0
 40
0.5
100
AcDbArc
 50
90.0
 51
178.7677379999984
  0
LINE
  5
4A1D
330
2A
100
AcDbEntity
  8
2
100
AcDbLine
 10
-282.040176
 20
144.264587
 30
0.0
 11
-278.741535
 21
147.287235
 31
0.0
  0
LINE
  5
4A1E
330
2A
100
AcDbEntity
  8
2
100
AcDbLine
 10
-282.040176
 20
144.264587
 30
0.0
 11
-280.02505
 21
148.57075
 31
0.0
  0
LINE
  5
4A1F
330
2A
100
AcDbEntity
  8
2
100
AcDbLine
 10
-274.0885560000001
 20
132.73915
 30
0.0
 11
-278.687874
 21
137.338468
 31
0.0
  0
ARC
  5
4A20
330
2A
100
AcDbEntity
  8
2
100
AcDbCircle
 10
-292.5534649999999
 20
156.608778
 30
0.0
 40
7.674066
100
AcDbArc
 50
304.4736089999992
 51
325.5263910000026
  0
ARC
  5
4A21
330
2A
100
AcDbEntity
  8
2
100
AcDbCircle
 10
-282.6634349999999
 20
146.84418
 30
0.0
 40
8.638035
100
AcDbArc
 50
126.2256979999984
 51
144.9372170000002
  0
ARC
  5
4A22
330
2A
100
AcDbEntity
  8
2
100
AcDbCircle
 10
-288.8312149999999
 20
151.185029
 30
0.0
 40
3.169315999999998
100
AcDbArc
 50
34.66804800000332
 51
55.33195200000122
  0
ARC
  5
4A23
330
2A
100
AcDbEntity
  8
2
100
AcDbCircle
 10
-287.4157379999999
 20
153.1824239999999
 30
0.0
 40
0.7219260000000001
100
AcDbArc
 50
57.5559559999998
 51
119.227042999997
  0
ARC
  5
4A24
330
2A
100
AcDbEntity
  8
2
100
AcDbCircle
 10
-289.2164259999999
 20
151.443343
 30
0.0
 40
0.6321630000000002
100
AcDbArc
 50
144.9372170000002
 51
214.6680480000033
  0
ARC
  5
4A25
330
2A
100
AcDbEntity
  8
2
100
AcDbCircle
 10
-287.129715
 20
152.886529
 30
0.0
 40
3.169315999999998
100
AcDbArc
 50
214.6680480000033
 51
235.3319520000012
  0
ARC
  5
4A26
330
2A
100
AcDbEntity
  8
2
100
AcDbCircle
 10
-286.744505
 20
152.6282139999999
 30
0.0
 40
0.6321630000000002
100
AcDbArc
 50
324.9372170000002
 51
34.66804800000332
  0
ARC
  5
4A27
330
2A
100
AcDbEntity
  8
2
100
AcDbCircle
 10
-288.572901
 20
150.7998179999999
 30
0.0
 40
0.6321630000000002
100
AcDbArc
 50
235.3319520000012
 51
305.0627830000024
  0
ARC
  5
4A28
330
2A
100
AcDbEntity
  8
2
100
AcDbCircle
 10
-278.5888799999999
 20
137.437463
 30
0.0
 40
0.14
100
AcDbArc
 50
71.56505100000103
 51
225.0
  0
LINE
  5
4A29
330
2A
100
AcDbEntity
  8
2
100
AcDbLine
 10
-281.014131
 20
149.559831
 30
0.0
 11
-279.998206
 21
148.543906
 31
0.0
  0
LINE
  5
4A2A
330
2A
100
AcDbEntity
  8
2
100
AcDbLine
 10
-283.669709
 20
143.884827
 30
0.0
 11
-282.0511710000001
 21
147.506866
 31
0.0
  0
ARC
  5
4A2B
330
2A
100
AcDbEntity
  8
2
100
AcDbCircle
 10
-278.785062
 20
141.01198
 30
0.0
 40
0.6321630000000002
100
AcDbArc
 50
144.9372170000002
 51
214.6680480000033
  0
ARC
  5
4A2C
330
2A
100
AcDbEntity
  8
2
100
AcDbCircle
 10
-271.320468
 20
147.8330499999999
 30
0.0
 40
11.524047
100
AcDbArc
 50
218.7294579999997
 51
231.2705420000028
  0
ARC
  5
4A2D
330
2A
100
AcDbEntity
  8
2
100
AcDbCircle
 10
-276.9566669999999
 20
142.840376
 30
0.0
 40
0.6321630000000002
100
AcDbArc
 50
55.33195200000122
 51
125.0627830000023
  0
ARC
  5
4A2E
330
2A
100
AcDbEntity
  8
2
100
AcDbCircle
 10
-283.777736
 20
135.375781
 30
0.0
 40
11.524047
100
AcDbArc
 50
38.72945799999973
 51
51.27054200000279
  0
ARC
  5
4A2F
330
2A
100
AcDbEntity
  8
2
100
AcDbCircle
 10
-275.261977
 20
137.757641
 30
0.0
 40
0.086204
100
AcDbArc
 50
135.0
 51
225.0
  0
ARC
  5
4A30
330
2A
100
AcDbEntity
  8
2
100
AcDbCircle
 10
-276.698352
 20
142.4551649999999
 30
0.0
 40
3.169315999999998
100
AcDbArc
 50
214.6680480000033
 51
235.3319520000012
  0
ARC
  5
4A31
330
2A
100
AcDbEntity
  8
2
100
AcDbCircle
 10
-278.141538
 20
140.368455
 30
0.0
 40
0.6321630000000002
100
AcDbArc
 50
235.3319520000012
 51
305.0627830000024
  0
ARC
  5
4A32
330
2A
100
AcDbEntity
  8
2
100
AcDbCircle
 10
-277.4517559999999
 20
140.18801
 30
0.0
 40
1.724081
100
AcDbArc
 50
231.2705420000028
 51
308.8300689999996
  0
ARC
  5
4A33
330
2A
100
AcDbEntity
  8
2
100
AcDbCircle
 10
-272.297914
 20
140.721704
 30
0.0
 40
0.086204
100
AcDbArc
 50
45.0
 51
135.0
  0
ARC
  5
4A34
330
2A
100
AcDbEntity
  8
2
100
AcDbCircle
 10
-276.4024569999999
 20
142.1691429999999
 30
0.0
 40
0.7219260000000001
100
AcDbArc
 50
330.7729570000002
 51
32.44404400000195
  0
ARC
  5
4A35
330
2A
100
AcDbEntity
  8
2
100
AcDbCircle
 10
-278.399852
 20
140.7536649999999
 30
0.0
 40
3.169315999999998
100
AcDbArc
 50
34.66804800000332
 51
55.33195200000122
  0
ARC
  5
4A36
330
2A
100
AcDbEntity
  8
2
100
AcDbCircle
 10
-276.132696
 20
141.507069
 30
0.0
 40
1.724081
100
AcDbArc
 50
321.1699310000005
 51
38.72945799999973
  0
LINE
  5
4A37
330
2A
100
AcDbEntity
  8
2
100
AcDbLine
 10
-272.35887
 20
140.7826589999999
 30
0.0
 11
-275.322933
 21
137.8185959999999
 31
0.0
  0
ARC
  5
4A38
330
2A
100
AcDbEntity
  8
2
100
AcDbCircle
 10
-282.7407
 20
146.921446
 30
0.0
 40
8.638035
100
AcDbArc
 50
305.0627830000024
 51
323.7743020000035
  0
ARC
  5
4A39
330
2A
100
AcDbEntity
  8
2
100
AcDbCircle
 10
-282.8931199999999
 20
146.948433
 30
0.0
 40
10.402317
100
AcDbArc
 50
308.8300689999996
 51
321.1699310000005
  0
LINE
  5
4A3A
330
2A
100
AcDbEntity
  8
2
100
AcDbLine
 10
-283.669709
 20
143.884827
 30
0.0
 11
-282.118342
 21
142.33346
 31
0.0
  0
ARC
  5
4A3B
330
2A
100
AcDbEntity
  8
2
100
AcDbCircle
 10
-278.965508
 20
141.701761
 30
0.0
 40
1.724081
100
AcDbArc
 50
141.1699310000004
 51
218.7294579999997
  0
LINE
  5
4A3C
330
2A
100
AcDbEntity
  8
2
100
AcDbLine
 10
-278.714691
 20
147.260391
 30
0.0
 11
-277.698766
 21
146.244466
 31
0.0
  0
ARC
  5
4A3D
330
2A
100
AcDbEntity
  8
2
100
AcDbCircle
 10
-277.646448
 20
143.0208209999999
 30
0.0
 40
1.724081
100
AcDbArc
 50
51.27054200000279
 51
128.8300689999995
  0
LINE
  5
4A3E
330
2A
100
AcDbEntity
  8
2
100
AcDbLine
 10
-282.1105729999999
 20
142.341229
 30
0.0
 11
-277.698766
 21
146.244466
 31
0.0
  0
ARC
  5
4A3F
330
2A
100
AcDbEntity
  8
2
100
AcDbCircle
 10
-272.976102
 20
137.0314159999999
 30
0.0
 40
7.674066
100
AcDbArc
 50
124.4736089999992
 51
145.5263910000025
  0
ARC
  5
4A40
330
2A
100
AcDbEntity
  8
2
100
AcDbCircle
 10
-272.205084
 20
136.260398
 30
0.0
 40
10.402317
100
AcDbArc
 50
128.8300689999995
 51
141.1699310000004
  0
LINE
  5
4A41
330
2A
100
AcDbEntity
  8
2
100
AcDbLine
 10
-271.5912129999999
 20
135.033307
 30
0.0
 11
-273.885371
 21
132.73915
 31
0.0
  0
ARC
  5
4A42
330
2A
100
AcDbEntity
  8
2
100
AcDbCircle
 10
-273.811819
 20
136.307482
 30
0.0
 40
0.086204
100
AcDbArc
 50
225.0
 51
315.0
  0
ARC
  5
4A43
330
2A
100
AcDbEntity
  8
2
100
AcDbCircle
 10
-271.692806
 20
135.1349
 30
0.0
 40
0.143673
100
AcDbArc
 50
315.0
 51
71.56505100000103
  0
ARC
  5
4A44
330
2A
100
AcDbEntity
  8
2
100
AcDbCircle
 10
-270.847756
 20
139.271545
 30
0.0
 40
0.086204
100
AcDbArc
 50
315.0
 51
45.0
  0
LINE
  5
4A45
330
2A
100
AcDbEntity
  8
2
100
AcDbLine
 10
-278.5446079999999
 20
137.570279
 30
0.0
 11
-271.647372
 21
135.2712
 31
0.0
  0
LINE
  5
4A46
330
2A
100
AcDbEntity
  8
2
100
AcDbLine
 10
-273.7508640000001
 20
136.246527
 30
0.0
 11
-270.786801
 21
139.21059
 31
0.0
  0
ARC
  5
4A47
330
2A
100
AcDbEntity
  8
2
100
AcDbCircle
 10
-273.9869630000001
 20
132.840742
 30
0.0
 40
0.143673
100
AcDbArc
 50
225.0
 51
315.0
  0
LINE
  5
4A48
330
2A
100
AcDbEntity
  8
2
100
AcDbLine
 10
-273.8727750000001
 20
136.246527
 30
0.0
 11
-275.322933
 21
137.696685
 31
0.0
  0
LINE
  5
4A49
330
2A
100
AcDbEntity
  8
2
100
AcDbLine
 10
-270.786801
 20
139.332501
 30
0.0
 11
-272.236959
 21
140.7826589999999
 31
0.0
  0
LINE
  5
4A4A
330
2A
100
AcDbEntity
  8
2
100
AcDbLine
 10
-292.9202720000001
 20
154.557684
 30
0.0
 11
-294.952121
 21
156.589533
 31
0.0
  0
LINE
  5
4A4B
330
2A
100
AcDbEntity
  8
2
100
AcDbLine
 10
-292.209124
 20
155.2688309999999
 30
0.0
 11
-294.240974
 21
157.300681
 31
0.0
  0
LINE
  5
4A4C
330
2A
100
AcDbEntity
  8
2
100
AcDbLine
 10
-291.497977
 20
155.979979
 30
0.0
 11
-293.529827
 21
158.011828
 31
0.0
  0
LINE
  5
4A4D
330
2A
100
AcDbEntity
  8
2
100
AcDbLine
 10
-290.177275
 20
157.300681
 30
0.0
 11
-292.209124
 21
159.33253
 31
0.0
  0
LINE
  5
4A4E
330
2A
100
AcDbEntity
  8
2
100
AcDbLine
 10
-290.177275
 20
157.300681
 30
0.0
 11
-291.497977
 21
155.979979
 31
0.0
  0
LINE
  5
4A4F
330
2A
100
AcDbEntity
  8
2
100
AcDbLine
 10
-292.209124
 20
155.2688309999999
 30
0.0
 11
-292.9202720000001
 21
154.557684
 31
0.0
  0
LINE
  5
4A50
330
2A
100
AcDbEntity
  8
2
100
AcDbLine
 10
-287.224577
 20
147.439695
 30
0.0
 11
-285.673211
 21
145.888328
 31
0.0
  0
ARC
  5
4A51
330
2A
100
AcDbEntity
  8
2
100
AcDbCircle
 10
-281.7249879999999
 20
158.237569
 30
0.0
 40
11.524047
100
AcDbArc
 50
218.7294579999997
 51
231.2705420000028
  0
ARC
  5
4A52
330
2A
100
AcDbEntity
  8
2
100
AcDbCircle
 10
-287.856276
 20
150.592529
 30
0.0
 40
1.724081
100
AcDbArc
 50
231.2705420000028
 51
308.8300689999996
  0
ARC
  5
4A53
330
2A
100
AcDbEntity
  8
2
100
AcDbCircle
 10
-289.370028
 20
152.1062809999999
 30
0.0
 40
1.724081
100
AcDbArc
 50
141.1699310000004
 51
218.7294579999997
  0
LINE
  5
4A54
330
2A
100
AcDbEntity
  8
2
100
AcDbLine
 10
-283.313571
 20
151.859271
 30
0.0
 11
-282.297646
 21
150.843346
 31
0.0
  0
ARC
  5
4A55
330
2A
100
AcDbEntity
  8
2
100
AcDbCircle
 10
-294.1822560000001
 20
145.780301
 30
0.0
 40
11.524047
100
AcDbArc
 50
38.72945799999973
 51
51.27054200000279
  0
ARC
  5
4A56
330
2A
100
AcDbEntity
  8
2
100
AcDbCircle
 10
-286.5372159999999
 20
151.911589
 30
0.0
 40
1.724081
100
AcDbArc
 50
321.1699310000005
 51
38.72945799999973
  0
ARC
  5
4A57
330
2A
100
AcDbEntity
  8
2
100
AcDbCircle
 10
-288.050968
 20
153.425341
 30
0.0
 40
1.724081
100
AcDbArc
 50
51.27054200000279
 51
128.8300689999995
  0
LINE
  5
4A58
330
2A
100
AcDbEntity
  8
2
100
AcDbLine
 10
-292.4123090000001
 20
152.627427
 30
0.0
 11
-288.247018
 21
156.792718
 31
0.0
  0
ARC
  5
4A59
330
2A
100
AcDbEntity
  8
2
100
AcDbCircle
 10
-293.29764
 20
157.352953
 30
0.0
 40
10.402317
100
AcDbArc
 50
308.8300689999996
 51
321.1699310000005
  0
ARC
  5
4A5A
330
2A
100
AcDbEntity
  8
2
100
AcDbCircle
 10
-282.609604
 20
146.664917
 30
0.0
 40
10.402317
100
AcDbArc
 50
128.8300689999995
 51
141.1699310000004
  0
LINE
  5
4A5B
330
2A
100
AcDbEntity
  8
2
100
AcDbLine
 10
-287.216808
 20
147.4474639999999
 30
0.0
 11
-283.313571
 21
151.859271
 31
0.0
  0
LINE
  5
4A5C
330
2A
100
AcDbEntity
  8
2
100
AcDbLine
 10
-285.320294
 20
147.544705
 30
0.0
 11
-282.297646
 21
150.843346
 31
0.0
  0
LINE
  5
4A5D
330
2A
100
AcDbEntity
  8
2
100
AcDbLine
 10
-285.673211
 20
145.888328
 30
0.0
 11
-282.0511710000001
 21
147.506866
 31
0.0
  0
LINE
  5
4A5E
330
2A
100
AcDbEntity
  8
2
100
AcDbLine
 10
-285.320294
 20
147.544705
 30
0.0
 11
-281.014131
 21
149.559831
 31
0.0
  0
LINE
  5
4A5F
330
2A
100
AcDbEntity
  8
2
100
AcDbLine
 10
-292.4123090000001
 20
152.627427
 30
0.0
 11
-295.663268
 21
155.878386
 31
0.0
  0
LINE
  5
4A60
330
2A
100
AcDbEntity
  8
2
100
AcDbLine
 10
-288.247018
 20
156.792718
 30
0.0
 11
-291.497977
 21
160.043677
 31
0.0
  0
LINE
  5
4A61
330
2A
100
AcDbEntity
  8
2
100
AcDbLine
 10
-260.3670469999999
 20
193.966571
 30
0.0
 11
-260.7206
 21
194.3201239999999
 31
0.0
  0
LINE
  5
4A62
330
2A
100
AcDbEntity
  8
2
100
AcDbLine
 10
-260.3670469999999
 20
187.60261
 30
0.0
 11
-260.7206
 21
187.249057
 31
0.0
  0
LINE
  5
4A63
330
2A
100
AcDbEntity
  8
2
100
AcDbLine
 10
-260.3670469999999
 20
187.60261
 30
0.0
 11
-263.5490279999999
 21
190.7845909999999
 31
0.0
  0
LINE
  5
4A64
330
2A
100
AcDbEntity
  8
2
100
AcDbLine
 10
-260.3670469999999
 20
193.966571
 30
0.0
 11
-263.5490279999999
 21
190.7845909999999
 31
0.0
  0
LINE
  5
4A65
330
2A
100
AcDbEntity
  8
2
100
AcDbLine
 10
-260.7206
 20
194.3201239999999
 30
0.0
 11
-264.256134
 21
190.7845909999999
 31
0.0
  0
LINE
  5
4A66
330
2A
100
AcDbEntity
  8
2
100
AcDbLine
 10
-260.7206
 20
187.249057
 30
0.0
 11
-264.256134
 21
190.7845909999999
 31
0.0
  0
ARC
  5
4A67
330
2A
100
AcDbEntity
  8
2
100
AcDbCircle
 10
-262.841921
 20
166.74296
 30
0.0
 40
60.0
100
AcDbArc
 50
33.86059800000004
 51
36.13940199999927
  0
ARC
  5
4A68
330
2A
100
AcDbEntity
  8
2
100
AcDbCircle
 10
-262.841921
 20
166.74296
 30
0.0
 40
60.0
100
AcDbArc
 50
43.86059799999858
 51
46.13940199999906
  0
ARC
  5
4A69
330
2A
100
AcDbEntity
  8
2
100
AcDbCircle
 10
-262.841921
 20
166.74296
 30
0.0
 40
60.0
100
AcDbArc
 50
53.86059799999618
 51
56.13940199999997
  0
ARC
  5
4A6A
330
2A
100
AcDbEntity
  8
2
100
AcDbCircle
 10
-262.841921
 20
166.74296
 30
0.0
 40
60.0
100
AcDbArc
 50
63.8605979999999
 51
66.13940200000101
  0
ARC
  5
4A6B
330
2A
100
AcDbEntity
  8
2
100
AcDbCircle
 10
-262.841921
 20
166.74296
 30
0.0
 40
60.0
100
AcDbArc
 50
73.86059800000115
 51
76.13940199999797
  0
ARC
  5
4A6C
330
2A
100
AcDbEntity
  8
2
100
AcDbCircle
 10
-262.841921
 20
166.74296
 30
0.0
 40
60.0
100
AcDbArc
 50
83.86059799999911
 51
86.13940200000353
  0
ARC
  5
4A6D
330
2A
100
AcDbEntity
  8
2
100
AcDbCircle
 10
-262.841921
 20
166.74296
 30
0.0
 40
60.0
100
AcDbArc
 50
93.86059799999646
 51
95.64477799999815
  0
ARC
  5
4A6E
330
2A
100
AcDbEntity
  8
2
100
AcDbCircle
 10
-262.841921
 20
166.74296
 30
0.0
 40
60.0
100
AcDbArc
 50
23.86059799999768
 51
26.13940200000155
  0
ARC
  5
4A6F
330
2A
100
AcDbEntity
  8
2
100
AcDbCircle
 10
-262.841921
 20
166.74296
 30
0.0
 40
60.0
100
AcDbArc
 50
13.86059799999887
 51
16.13940199999795
  0
ARC
  5
4A70
330
2A
100
AcDbEntity
  8
2
100
AcDbCircle
 10
-302.841921
 20
217.977714
 30
0.0
 40
15.0
100
AcDbArc
 50
307.9798720000023
 51
0.0
  0
ARC
  5
4A71
330
2A
100
AcDbEntity
  8
2
100
AcDbCircle
 10
-211.607167
 20
126.74296
 30
0.0
 40
15.0
100
AcDbArc
 50
90.0
 51
142.0201280000003
  0
LINE
  5
4A72
330
2A
100
AcDbEntity
  8
2
100
AcDbLine
 10
-287.841921
 20
217.977714
 30
0.0
 11
-287.841921
 21
231.74296
 31
0.0
  0
LINE
  5
4A73
330
2A
100
AcDbEntity
  8
2
100
AcDbLine
 10
-277.841921
 20
241.7429600000001
 30
0.0
 11
-270.841921
 21
241.7429600000001
 31
0.0
  0
LINE
  5
4A74
330
2A
100
AcDbEntity
  8
2
100
AcDbLine
 10
-269.8419209999999
 20
240.74296
 30
0.0
 11
-269.8419209999999
 21
227.447161
 31
0.0
  0
ARC
  5
4A75
330
2A
100
AcDbEntity
  8
2
100
AcDbCircle
 10
-270.841921
 20
240.74296
 30
0.0
 40
1.0
100
AcDbArc
 50
0.0
 51
90.0
  0
ARC
  5
4A76
330
2A
100
AcDbEntity
  8
2
100
AcDbCircle
 10
-268.841921
 20
227.447161
 30
0.0
 40
1.0
100
AcDbArc
 50
180.0
 51
275.6447779999982
  0
ARC
  5
4A77
330
2A
100
AcDbEntity
  8
2
100
AcDbCircle
 10
-277.841921
 20
231.74296
 30
0.0
 40
10.0
100
AcDbArc
 50
90.0
 51
180.0
  0
ARC
  5
4A78
330
2A
100
AcDbEntity
  8
2
100
AcDbCircle
 10
-197.8419209999999
 20
151.74296
 30
0.0
 40
10.0
100
AcDbArc
 50
270.0
 51
0.0
  0
LINE
  5
4A79
330
2A
100
AcDbEntity
  8
2
100
AcDbLine
 10
-187.8419209999999
 20
151.74296
 30
0.0
 11
-187.8419209999999
 21
153.712131
 31
0.0
  0
LINE
  5
4A7A
330
2A
100
AcDbEntity
  8
2
100
AcDbLine
 10
-211.607167
 20
141.74296
 30
0.0
 11
-197.8419209999999
 21
141.74296
 31
0.0
  0
ARC
  5
4A7B
330
2A
100
AcDbEntity
  8
2
100
AcDbCircle
 10
-262.841921
 20
166.74296
 30
0.0
 40
50.0
100
AcDbArc
 50
127.9798720000023
 51
322.0201280000003
  0
LINE
  5
4A7C
330
2A
100
AcDbEntity
  8
2
100
AcDbLine
 10
-205.3405699999999
 20
180.2344389999999
 30
0.0
 11
-204.805824
 21
180.57511
 31
0.0
  0
ARC
  5
4A7D
330
2A
100
AcDbEntity
  8
2
100
AcDbCircle
 10
-205.074474
 20
180.996806
 30
0.0
 40
0.5
100
AcDbArc
 50
302.5000000000028
 51
13.86059799999887
  0
LINE
  5
4A7E
330
2A
100
AcDbEntity
  8
2
100
AcDbLine
 10
-214.0276249999999
 20
185.0014969999999
 30
0.0
 11
-208.0894510000001
 21
190.442831
 31
0.0
  0
LINE
  5
4A7F
330
2A
100
AcDbEntity
  8
2
100
AcDbLine
 10
-213.711639
 20
184.133334
 30
0.0
 11
-205.665112
 21
183.782015
 31
0.0
  0
ARC
  5
4A80
330
2A
100
AcDbEntity
  8
2
100
AcDbCircle
 10
-213.68983
 20
184.632858
 30
0.0
 40
0.5
100
AcDbArc
 50
132.4999999999997
 51
267.5000000000015
  0
ARC
  5
4A81
330
2A
100
AcDbEntity
  8
2
100
AcDbCircle
 10
-208.427246
 20
190.811469
 30
0.0
 40
0.5
100
AcDbArc
 50
312.4999999999998
 51
23.86059799999768
  0
ARC
  5
4A82
330
2A
100
AcDbEntity
  8
2
100
AcDbCircle
 10
-205.686922
 20
183.282491
 30
0.0
 40
0.5
100
AcDbArc
 50
16.13940199999795
 51
87.50000000000143
  0
LINE
  5
4A83
330
2A
100
AcDbEntity
  8
2
100
AcDbLine
 10
-217.939785
 20
193.200622
 30
0.0
 11
-213.036703
 21
199.590443
 31
0.0
  0
LINE
  5
4A84
330
2A
100
AcDbEntity
  8
2
100
AcDbLine
 10
-217.477845
 20
192.400519
 30
0.0
 11
-209.492557
 21
193.451802
 31
0.0
  0
ARC
  5
4A85
330
2A
100
AcDbEntity
  8
2
100
AcDbCircle
 10
-217.5431080000001
 20
192.896241
 30
0.0
 40
0.5
100
AcDbArc
 50
142.4999999999993
 51
277.4999999999991
  0
ARC
  5
4A86
330
2A
100
AcDbEntity
  8
2
100
AcDbCircle
 10
-213.4333799999999
 20
199.8948239999999
 30
0.0
 40
0.5
100
AcDbArc
 50
322.4999999999993
 51
33.86059800000004
  0
ARC
  5
4A87
330
2A
100
AcDbEntity
  8
2
100
AcDbCircle
 10
-209.427294
 20
192.95608
 30
0.0
 40
0.5
100
AcDbArc
 50
26.13940200000155
 51
97.499999999999
  0
LINE
  5
4A88
330
2A
100
AcDbEntity
  8
2
100
AcDbLine
 10
-223.216274
 20
200.595845
 30
0.0
 11
-219.497262
 21
207.740001
 31
0.0
  0
LINE
  5
4A89
330
2A
100
AcDbEntity
  8
2
100
AcDbLine
 10
-222.6224159999999
 20
199.888112
 30
0.0
 11
-214.940996
 21
202.310055
 31
0.0
  0
ARC
  5
4A8A
330
2A
100
AcDbEntity
  8
2
100
AcDbCircle
 10
-222.7727689999999
 20
200.364971
 30
0.0
 40
0.5
100
AcDbArc
 50
152.4999999999998
 51
287.4999999999998
  0
ARC
  5
4A8B
330
2A
100
AcDbEntity
  8
2
100
AcDbCircle
 10
-219.9407670000001
 20
207.970876
 30
0.0
 40
0.5
100
AcDbArc
 50
332.4999999999999
 51
43.86059799999858
  0
ARC
  5
4A8C
330
2A
100
AcDbEntity
  8
2
100
AcDbCircle
 10
-214.790643
 20
201.833196
 30
0.0
 40
0.5
100
AcDbArc
 50
36.13940199999927
 51
107.4999999999998
  0
LINE
  5
4A8D
330
2A
100
AcDbEntity
  8
2
100
AcDbLine
 10
-229.696769
 20
206.962465
 30
0.0
 11
-227.274826
 21
214.643885
 31
0.0
  0
LINE
  5
4A8E
330
2A
100
AcDbEntity
  8
2
100
AcDbLine
 10
-228.9890359999999
 20
206.368606
 30
0.0
 11
-221.844879
 21
210.087619
 31
0.0
  0
ARC
  5
4A8F
330
2A
100
AcDbEntity
  8
2
100
AcDbCircle
 10
-229.21991
 20
206.812112
 30
0.0
 40
0.5
100
AcDbArc
 50
162.5000000000001
 51
297.5000000000001
  0
ARC
  5
4A90
330
2A
100
AcDbEntity
  8
2
100
AcDbCircle
 10
-227.751685
 20
214.7942379999999
 30
0.0
 40
0.5
100
AcDbArc
 50
342.5000000000002
 51
53.86059799999618
  0
ARC
  5
4A91
330
2A
100
AcDbEntity
  8
2
100
AcDbCircle
 10
-221.614005
 20
209.644114
 30
0.0
 40
0.5
100
AcDbArc
 50
46.13940199999906
 51
117.5000000000001
  0
LINE
  5
4A92
330
2A
100
AcDbEntity
  8
2
100
AcDbLine
 10
-237.1843619999999
 20
212.107035
 30
0.0
 11
-236.133079
 21
220.092324
 31
0.0
  0
LINE
  5
4A93
330
2A
100
AcDbEntity
  8
2
100
AcDbLine
 10
-236.3842589999999
 20
211.645096
 30
0.0
 11
-229.9944379999999
 21
216.548178
 31
0.0
  0
ARC
  5
4A94
330
2A
100
AcDbEntity
  8
2
100
AcDbCircle
 10
-236.688639
 20
212.041772
 30
0.0
 40
0.5
100
AcDbArc
 50
172.500000000001
 51
307.5000000000007
  0
ARC
  5
4A95
330
2A
100
AcDbEntity
  8
2
100
AcDbCircle
 10
-236.6288009999999
 20
220.157587
 30
0.0
 40
0.5
100
AcDbArc
 50
352.500000000001
 51
63.8605979999999
  0
ARC
  5
4A96
330
2A
100
AcDbEntity
  8
2
100
AcDbCircle
 10
-229.690057
 20
216.151501
 30
0.0
 40
0.5
100
AcDbArc
 50
56.13940199999997
 51
127.5000000000007
  0
LINE
  5
4A97
330
2A
100
AcDbEntity
  8
2
100
AcDbLine
 10
-245.451547
 20
215.873242
 30
0.0
 11
-245.802866
 21
223.919769
 31
0.0
  0
LINE
  5
4A98
330
2A
100
AcDbEntity
  8
2
100
AcDbLine
 10
-244.583384
 20
215.557256
 30
0.0
 11
-239.1420500000001
 21
221.49543
 31
0.0
  0
ARC
  5
4A99
330
2A
100
AcDbEntity
  8
2
100
AcDbCircle
 10
-244.952023
 20
215.895051
 30
0.0
 40
0.5
100
AcDbArc
 50
182.4999999999984
 51
317.5000000000025
  0
ARC
  5
4A9A
330
2A
100
AcDbEntity
  8
2
100
AcDbCircle
 10
-246.30239
 20
223.897959
 30
0.0
 40
0.5
100
AcDbArc
 50
2.499999999998424
 51
73.86059800000115
  0
ARC
  5
4A9B
330
2A
100
AcDbEntity
  8
2
100
AcDbCircle
 10
-238.773411
 20
221.157635
 30
0.0
 40
0.5
100
AcDbArc
 50
66.13940200000101
 51
137.5000000000024
  0
LINE
  5
4A9C
330
2A
100
AcDbEntity
  8
2
100
AcDbLine
 10
-254.247129
 20
218.146649
 30
0.0
 11
-255.990376
 21
226.009925
 31
0.0
  0
LINE
  5
4A9D
330
2A
100
AcDbEntity
  8
2
100
AcDbLine
 10
-253.337286
 20
217.986219
 30
0.0
 11
-249.009771
 21
224.779056
 31
0.0
  0
ARC
  5
4A9E
330
2A
100
AcDbEntity
  8
2
100
AcDbCircle
 10
-253.758981
 20
218.254869
 30
0.0
 40
0.5
100
AcDbArc
 50
192.5000000000013
 51
327.5000000000017
  0
ARC
  5
4A9F
330
2A
100
AcDbEntity
  8
2
100
AcDbCircle
 10
-256.478524
 20
225.901706
 30
0.0
 40
0.5
100
AcDbArc
 50
12.50000000000127
 51
83.86059799999911
  0
ARC
  5
4AA0
330
2A
100
AcDbEntity
  8
2
100
AcDbCircle
 10
-248.588075
 20
224.510407
 30
0.0
 40
0.5
100
AcDbArc
 50
76.13940199999797
 51
147.5000000000016
  0
ARC
  5
4AA1
330
2A
100
AcDbEntity
  8
2
100
AcDbCircle
 10
-258.835835
 20
226.107944
 30
0.0
 40
0.5
100
AcDbArc
 50
86.13940200000353
 51
157.5000000000002
  0
ARC
  5
4AA2
330
2A
100
AcDbEntity
  8
2
100
AcDbCircle
 10
-266.8480070000001
 20
226.107944
 30
0.0
 40
0.5
100
AcDbArc
 50
22.49999999999975
 51
93.86059799999646
  0
ARC
  5
4AA3
330
2A
100
AcDbEntity
  8
2
100
AcDbCircle
 10
-262.841921
 20
219.049523
 30
0.0
 40
0.5
100
AcDbArc
 50
202.4999999999998
 51
337.5000000000002
  0
LINE
  5
4AA4
330
2A
100
AcDbEntity
  8
2
100
AcDbLine
 10
-262.379981
 20
218.858181
 30
0.0
 11
-259.297775
 21
226.299285
 31
0.0
  0
LINE
  5
4AA5
330
2A
100
AcDbEntity
  8
2
100
AcDbLine
 10
-263.303861
 20
218.858181
 30
0.0
 11
-266.386067
 21
226.299285
 31
0.0
  0
ARC
  5
4AA6
330
2A
100
AcDbEntity
  8
2
100
AcDbCircle
 10
-256.655577
 20
172.272052
 30
0.0
 40
0.104619
100
AcDbArc
 50
296.5650510000025
 51
90.0
  0
LINE
  5
4AA7
330
2A
100
AcDbEntity
  8
2
100
AcDbLine
 10
-260.606412
 20
170.60286
 30
0.0
 11
-260.606412
 21
172.115123
 31
0.0
  0
ARC
  5
4AA8
330
2A
100
AcDbEntity
  8
2
100
AcDbCircle
 10
-260.9972769999999
 20
170.075047
 30
0.0
 40
0.104619
100
AcDbArc
 50
296.5650510000025
 51
90.0
  0
ARC
  5
4AA9
330
2A
100
AcDbEntity
  8
2
100
AcDbCircle
 10
-260.344864
 20
170.60286
 30
0.0
 40
0.261548
100
AcDbArc
 50
180.0
 51
296.5650510000025
  0
ARC
  5
4AAA
330
2A
100
AcDbEntity
  8
2
100
AcDbCircle
 10
-260.9972769999999
 20
172.272052
 30
0.0
 40
0.104619
100
AcDbArc
 50
296.5650510000025
 51
90.0
  0
ARC
  5
4AAB
330
2A
100
AcDbEntity
  8
2
100
AcDbCircle
 10
-260.344864
 20
172.115123
 30
0.0
 40
0.261548
100
AcDbArc
 50
90.0
 51
180.0
  0
LINE
  5
4AAC
330
2A
100
AcDbEntity
  8
2
100
AcDbLine
 10
-264.9481129999999
 20
170.60286
 30
0.0
 11
-264.9481129999999
 21
172.115123
 31
0.0
  0
ARC
  5
4AAD
330
2A
100
AcDbEntity
  8
2
100
AcDbCircle
 10
-265.338977
 20
170.075047
 30
0.0
 40
0.104619
100
AcDbArc
 50
296.5650510000025
 51
90.0
  0
ARC
  5
4AAE
330
2A
100
AcDbEntity
  8
2
100
AcDbCircle
 10
-264.6865640000001
 20
169.918118
 30
0.0
 40
0.261548
100
AcDbArc
 50
90.0
 51
180.0
  0
ARC
  5
4AAF
330
2A
100
AcDbEntity
  8
2
100
AcDbCircle
 10
-264.6865640000001
 20
170.60286
 30
0.0
 40
0.261548
100
AcDbArc
 50
180.0
 51
296.5650510000025
  0
ARC
  5
4AB0
330
2A
100
AcDbEntity
  8
2
100
AcDbCircle
 10
-265.338977
 20
172.272052
 30
0.0
 40
0.104619
100
AcDbArc
 50
296.5650510000025
 51
90.0
  0
ARC
  5
4AB1
330
2A
100
AcDbEntity
  8
2
100
AcDbCircle
 10
-264.6865640000001
 20
172.115123
 30
0.0
 40
0.261548
100
AcDbArc
 50
90.0
 51
180.0
  0
LINE
  5
4AB2
330
2A
100
AcDbEntity
  8
2
100
AcDbLine
 10
-260.95049
 20
172.178477
 30
0.0
 11
-264.5695970000001
 21
170.368924
 31
0.0
  0
LINE
  5
4AB3
330
2A
100
AcDbEntity
  8
2
100
AcDbLine
 10
-264.6865640000001
 20
170.179666
 30
0.0
 11
-260.9972769999999
 21
170.179666
 31
0.0
  0
LINE
  5
4AB4
330
2A
100
AcDbEntity
  8
2
100
AcDbLine
 10
-264.6865640000001
 20
172.376671
 30
0.0
 11
-260.9972769999999
 21
172.376671
 31
0.0
  0
ARC
  5
4AB5
330
2A
100
AcDbEntity
  8
2
100
AcDbCircle
 10
-268.9574319999999
 20
170.25813
 30
0.0
 40
0.078464
100
AcDbArc
 50
116.5650510000024
 51
270.0
  0
ARC
  5
4AB6
330
2A
100
AcDbEntity
  8
2
100
AcDbCircle
 10
-269.028265
 20
172.115123
 30
0.0
 40
0.261548
100
AcDbArc
 50
90.0
 51
180.0
  0
LINE
  5
4AB7
330
2A
100
AcDbEntity
  8
2
100
AcDbLine
 10
-265.29219
 20
172.178477
 30
0.0
 11
-268.992523
 21
170.328311
 31
0.0
  0
LINE
  5
4AB8
330
2A
100
AcDbEntity
  8
2
100
AcDbLine
 10
-268.9574319999999
 20
170.179666
 30
0.0
 11
-265.338977
 21
170.179666
 31
0.0
  0
LINE
  5
4AB9
330
2A
100
AcDbEntity
  8
2
100
AcDbLine
 10
-269.028265
 20
172.376671
 30
0.0
 11
-265.338977
 21
172.376671
 31
0.0
  0
ARC
  5
4ABA
330
2A
100
AcDbEntity
  8
2
100
AcDbCircle
 10
-261.057774
 20
167.825732
 30
0.0
 40
0.156929
100
AcDbArc
 50
0.0
 51
90.0
  0
ARC
  5
4ABB
330
2A
100
AcDbEntity
  8
2
100
AcDbCircle
 10
-261.057774
 20
159.796202
 30
0.0
 40
0.156929
100
AcDbArc
 50
270.0
 51
0.0
  0
LINE
  5
4ABC
330
2A
100
AcDbEntity
  8
2
100
AcDbLine
 10
-260.900845
 20
159.796202
 30
0.0
 11
-260.900845
 21
167.825732
 31
0.0
  0
ARC
  5
4ABD
330
2A
100
AcDbEntity
  8
2
100
AcDbCircle
 10
-265.338977
 20
167.878042
 30
0.0
 40
0.104619
100
AcDbArc
 50
296.5650510000025
 51
90.0
  0
ARC
  5
4ABE
330
2A
100
AcDbEntity
  8
2
100
AcDbCircle
 10
-264.7911839999999
 20
167.825732
 30
0.0
 40
0.156929
100
AcDbArc
 50
90.0
 51
180.0
  0
ARC
  5
4ABF
330
2A
100
AcDbEntity
  8
2
100
AcDbCircle
 10
-264.6865640000001
 20
168.405855
 30
0.0
 40
0.261548
100
AcDbArc
 50
180.0
 51
296.5650510000025
  0
ARC
  5
4AC0
330
2A
100
AcDbEntity
  8
2
100
AcDbCircle
 10
-264.7911839999999
 20
159.796202
 30
0.0
 40
0.156929
100
AcDbArc
 50
180.0
 51
270.0
  0
LINE
  5
4AC1
330
2A
100
AcDbEntity
  8
2
100
AcDbLine
 10
-264.9481129999999
 20
167.825732
 30
0.0
 11
-264.9481129999999
 21
159.796202
 31
0.0
  0
LINE
  5
4AC2
330
2A
100
AcDbEntity
  8
2
100
AcDbLine
 10
-264.7911839999999
 20
167.982661
 30
0.0
 11
-261.057774
 21
167.982661
 31
0.0
  0
LINE
  5
4AC3
330
2A
100
AcDbEntity
  8
2
100
AcDbLine
 10
-264.7911839999999
 20
159.639273
 30
0.0
 11
-261.057774
 21
159.639273
 31
0.0
  0
ARC
  5
4AC4
330
2A
100
AcDbEntity
  8
2
100
AcDbCircle
 10
-268.9574319999999
 20
168.061125
 30
0.0
 40
0.078464
100
AcDbArc
 50
116.5650510000024
 51
270.0
  0
ARC
  5
4AC5
330
2A
100
AcDbEntity
  8
2
100
AcDbCircle
 10
-269.028265
 20
166.20885
 30
0.0
 40
0.261548
100
AcDbArc
 50
180.0
 51
296.5650510000025
  0
LINE
  5
4AC6
330
2A
100
AcDbEntity
  8
2
100
AcDbLine
 10
-268.9574319999999
 20
167.982661
 30
0.0
 11
-265.338977
 21
167.982661
 31
0.0
  0
LINE
  5
4AC7
330
2A
100
AcDbEntity
  8
2
100
AcDbLine
 10
-265.29219
 20
167.784467
 30
0.0
 11
-268.911297
 21
165.974914
 31
0.0
  0
LINE
  5
4AC8
330
2A
100
AcDbEntity
  8
2
100
AcDbLine
 10
-269.289813
 20
166.20885
 30
0.0
 11
-269.289813
 21
172.115123
 31
0.0
  0
LINE
  5
4AC9
330
2A
100
AcDbEntity
  8
2
100
AcDbLine
 10
-265.29219
 20
169.981472
 30
0.0
 11
-268.992523
 21
168.131306
 31
0.0
  0
LINE
  5
4ACA
330
2A
100
AcDbEntity
  8
2
100
AcDbLine
 10
-264.9481129999999
 20
168.405855
 30
0.0
 11
-264.9481129999999
 21
169.918118
 31
0.0
  0
LINE
  5
4ACB
330
2A
100
AcDbEntity
  8
2
100
AcDbLine
 10
-260.95049
 20
169.981472
 30
0.0
 11
-264.5695970000001
 21
168.171919
 31
0.0
  0
CIRCLE
  5
4ACC
330
2A
100
AcDbEntity
  8
2
100
AcDbCircle
 10
-262.841921
 20
166.74296
 30
0.0
 40
14.0
  0
LINE
  5
4ACD
330
2A
100
AcDbEntity
  8
2
100
AcDbLine
 10
-256.60879
 20
172.178477
 30
0.0
 11
-260.227896
 21
170.368924
 31
0.0
  0
LINE
  5
4ACE
330
2A
100
AcDbEntity
  8
2
100
AcDbLine
 10
-260.344864
 20
172.376671
 30
0.0
 11
-256.655577
 21
172.376671
 31
0.0
  0
LINE
  5
4ACF
330
2A
100
AcDbEntity
  8
2
  6
CENTER
 62
     2
370
    13
100
AcDbLine
 10
-172.8419209999999
 20
184.334987
 30
0.0
 11
-172.8419209999999
 21
149.011774
 31
0.0
  0
ARC
  5
4AD0
330
2A
100
AcDbEntity
  8
2
100
AcDbCircle
 10
-257.8419209999999
 20
150.74296
 30
0.0
 40
1.0
100
AcDbArc
 50
270.0
 51
0.0
  0
ARC
  5
4AD1
330
2A
100
AcDbEntity
  8
2
100
AcDbCircle
 10
-254.9500390000001
 20
149.944824
 30
0.0
 40
2.0
100
AcDbArc
 50
91.50795800000162
 51
164.5709150000004
  0
ARC
  5
4AD2
330
2A
100
AcDbEntity
  8
2
100
AcDbCircle
 10
-168.3419209999999
 20
180.24296
 30
0.0
 40
0.5
100
AcDbArc
 50
0.0
 51
90.0
  0
ARC
  5
4AD3
330
2A
100
AcDbEntity
  8
2
100
AcDbCircle
 10
-177.3419209999999
 20
180.24296
 30
0.0
 40
0.5
100
AcDbArc
 50
90.0
 51
192.6930640000009
  0
LINE
  5
4AD4
330
2A
100
AcDbEntity
  8
2
100
AcDbLine
 10
-177.3419209999999
 20
180.74296
 30
0.0
 11
-168.3419209999999
 21
180.74296
 31
0.0
  0
LINE
  5
4AD5
330
2A
100
AcDbEntity
  8
2
100
AcDbLine
 10
-167.8419209999999
 20
180.24296
 30
0.0
 11
-167.8419209999999
 21
179.7343009999999
 31
0.0
  0
ARC
  5
4AD6
330
2A
100
AcDbEntity
  8
2
100
AcDbCircle
 10
-178.317482
 20
180.023232
 30
0.0
 40
0.5
100
AcDbArc
 50
268.4920419999984
 51
12.69306400000097
  0
ARC
  5
4AD7
330
2A
100
AcDbEntity
  8
2
100
AcDbCircle
 10
-167.3419209999999
 20
179.7343009999999
 30
0.0
 40
0.5
100
AcDbArc
 50
180.0
 51
268.4920419999984
  0
LINE
  5
4AD8
330
2A
100
AcDbEntity
  8
2
100
AcDbLine
 10
-255.002671
 20
151.9441309999999
 30
0.0
 11
-72.57876299999998
 21
156.746423
 31
0.0
  0
ARC
  5
4AD9
330
2A
100
AcDbEntity
  8
2
100
AcDbCircle
 10
-167.3419209999999
 20
153.751619
 30
0.0
 40
0.5
100
AcDbArc
 50
91.50795800000162
 51
180.0
  0
ARC
  5
4ADA
330
2A
100
AcDbEntity
  8
2
100
AcDbCircle
 10
-178.317482
 20
153.4626879999999
 30
0.0
 40
0.5
100
AcDbArc
 50
347.306935999999
 51
91.50795800000162
  0
LINE
  5
4ADB
330
2A
100
AcDbEntity
  8
2
100
AcDbLine
 10
-167.8419209999999
 20
153.24296
 30
0.0
 11
-167.8419209999999
 21
153.751619
 31
0.0
  0
LINE
  5
4ADC
330
2A
100
AcDbEntity
  8
2
100
AcDbLine
 10
-177.3419209999999
 20
152.74296
 30
0.0
 11
-168.3419209999999
 21
152.74296
 31
0.0
  0
ARC
  5
4ADD
330
2A
100
AcDbEntity
  8
2
100
AcDbCircle
 10
-177.3419209999999
 20
153.24296
 30
0.0
 40
0.5
100
AcDbArc
 50
167.306935999999
 51
270.0
  0
ARC
  5
4ADE
330
2A
100
AcDbEntity
  8
2
100
AcDbCircle
 10
-168.3419209999999
 20
153.24296
 30
0.0
 40
0.5
100
AcDbArc
 50
270.0
 51
0.0
  0
LINE
  5
4ADF
330
2A
100
AcDbEntity
  8
2
100
AcDbLine
 10
-262.447184
 20
181.7377649999999
 30
0.0
 11
-72.57876299999998
 21
176.739497
 31
0.0
  0
ARC
  5
4AE0
330
2A
100
AcDbEntity
  8
2
100
AcDbCircle
 10
-270.841921
 20
151.74296
 30
0.0
 40
2.0
100
AcDbArc
 50
0.0
 51
61.92751300000129
  0
ARC
  5
4AE1
330
2A
100
AcDbEntity
  8
2
100
AcDbCircle
 10
-254.841921
 20
151.74296
 30
0.0
 40
2.0
100
AcDbArc
 50
118.0724869999987
 51
180.0
  0
ARC
  5
4AE2
330
2A
100
AcDbEntity
  8
2
100
AcDbCircle
 10
-270.841921
 20
151.6334789999999
 30
0.0
 40
2.0
100
AcDbArc
 50
0.0
 51
68.1962519999999
  0
ARC
  5
4AE3
330
2A
100
AcDbEntity
  8
2
100
AcDbCircle
 10
-267.8419209999999
 20
150.74296
 30
0.0
 40
1.0
100
AcDbArc
 50
180.0
 51
270.0
  0
LINE
  5
4AE4
330
2A
100
AcDbEntity
  8
2
100
AcDbLine
 10
-256.841921
 20
150.74296
 30
0.0
 11
-256.841921
 21
154.093849
 31
0.0
  0
LINE
  5
4AE5
330
2A
100
AcDbEntity
  8
2
100
AcDbLine
 10
-268.841921
 20
150.74296
 30
0.0
 11
-268.841921
 21
154.093849
 31
0.0
  0
ARC
  5
4AE6
330
2A
100
AcDbEntity
  8
2
100
AcDbCircle
 10
-262.841921
 20
166.74296
 30
0.0
 40
15.0
100
AcDbArc
 50
298.0724869999987
 51
241.9275129999999
  0
LINE
  5
4AE7
330
2A
100
AcDbEntity
  8
2
100
AcDbLine
 10
-267.8419209999999
 20
149.74296
 30
0.0
 11
-257.8419209999999
 21
149.74296
 31
0.0
  0
LINE
  5
4AE8
330
2A
100
AcDbEntity
  8
2
100
AcDbLine
 10
-298.5847779999998
 20
164.886037
 30
0.0
 11
-270.099064
 21
153.490403
 31
0.0
  0
LINE
  5
4AE9
330
2A
100
AcDbEntity
  8
2
100
AcDbLine
 10
-298.5847779999998
 20
168.5998829999999
 30
0.0
 11
-268.413349
 21
180.669883
 31
0.0
  0
ARC
  5
4AEA
330
2A
100
AcDbEntity
  8
2
100
AcDbCircle
 10
-297.841921
 20
166.74296
 30
0.0
 40
2.0
100
AcDbArc
 50
111.8037480000001
 51
248.1962519999999
  0
LINE
  5
4AEB
330
2A
100
AcDbEntity
  8
2
  6
CENTER
 62
     2
370
    13
100
AcDbLine
 10
-327.128876
 20
166.74296
 30
0.0
 11
-49.081548
 21
166.74296
 31
0.0
  0
LINE
  5
4AEC
330
2A
100
AcDbEntity
  8
2
  6
CENTER
 62
     2
370
    13
100
AcDbLine
 10
-262.841921
 20
100.89296
 30
0.0
 11
-262.841921
 21
229.172485
 31
0.0
  0
LINE
  5
4AED
330
2A
100
AcDbEntity
  8
1
100
AcDbLine
 10
68.56790799999997
 20
1.958735999999986
 30
0.0
 11
97.6679079999999
 21
1.958735999999986
 31
0.0
  0
LINE
  5
4AEE
330
2A
100
AcDbEntity
  8
1
100
AcDbLine
 10
27.6679079999999
 20
1.958735999999986
 30
0.0
 11
56.76790800000002
 21
1.958735999999986
 31
0.0
  0
ARC
  5
4AEF
330
2A
100
AcDbEntity
  8
1
100
AcDbCircle
 10
29.6679079999999
 20
-27.95016699999997
 30
0.0
 40
18.0
100
AcDbArc
 50
84.23315299999673
 51
84.7840909999992
  0
ARC
  5
4AF0
330
2A
100
AcDbEntity
  8
1
100
AcDbCircle
 10
29.6679079999999
 20
-27.95016699999997
 30
0.0
 40
18.0
100
AcDbArc
 50
0.0
 51
34.96376599999805
  0
ARC
  5
4AF1
330
2A
100
AcDbEntity
  8
1
100
AcDbCircle
 10
61.6679079999999
 20
-208.538854
 30
0.0
 40
2.0
100
AcDbArc
 50
180.0
 51
270.0
  0
ARC
  5
4AF2
330
2A
100
AcDbEntity
  8
1
100
AcDbCircle
 10
63.66790799999989
 20
-208.538854
 30
0.0
 40
2.0
100
AcDbArc
 50
270.0
 51
0.0
  0
LINE
  5
4AF3
330
2A
100
AcDbEntity
  8
1
100
AcDbLine
 10
61.6679079999999
 20
-210.538854
 30
0.0
 11
63.66790799999989
 21
-210.538854
 31
0.0
  0
ARC
  5
4AF4
330
2A
100
AcDbEntity
  8
1
100
AcDbCircle
 10
56.6679079999999
 20
-213.041264
 30
0.0
 40
3.0
100
AcDbArc
 50
270.0
 51
0.0
  0
ARC
  5
4AF5
330
2A
100
AcDbEntity
  8
1
100
AcDbCircle
 10
68.66790799999989
 20
-213.041264
 30
0.0
 40
3.0
100
AcDbArc
 50
180.0
 51
270.0
  0
ARC
  5
4AF6
330
2A
100
AcDbEntity
  8
1
100
AcDbCircle
 10
56.6679079999999
 20
-215.558636
 30
0.0
 40
3.0
100
AcDbArc
 50
270.0
 51
0.0
  0
ARC
  5
4AF7
330
2A
100
AcDbEntity
  8
1
100
AcDbCircle
 10
68.66790799999989
 20
-215.558636
 30
0.0
 40
3.0
100
AcDbArc
 50
180.0
 51
270.0
  0
LINE
  5
4AF8
330
2A
100
AcDbEntity
  8
1
100
AcDbLine
 10
59.6679079999999
 20
-218.558636
 30
0.0
 11
65.66790799999989
 21
-218.558636
 31
0.0
  0
LINE
  5
4AF9
330
2A
100
AcDbEntity
  8
1
100
AcDbLine
 10
68.66790799999989
 20
-216.041264
 30
0.0
 11
72.6679079999999
 21
-216.041264
 31
0.0
  0
LINE
  5
4AFA
330
2A
100
AcDbEntity
  8
1
100
AcDbLine
 10
52.6679079999999
 20
-216.041264
 30
0.0
 11
56.6679079999999
 21
-216.041264
 31
0.0
  0
ARC
  5
4AFB
330
2A
100
AcDbEntity
  8
1
100
AcDbCircle
 10
52.6679079999999
 20
-213.041264
 30
0.0
 40
3.0
100
AcDbArc
 50
180.0
 51
270.0
  0
ARC
  5
4AFC
330
2A
100
AcDbEntity
  8
1
100
AcDbCircle
 10
72.6679079999999
 20
-213.041264
 30
0.0
 40
3.0
100
AcDbArc
 50
270.0
 51
0.0
  0
LINE
  5
4AFD
330
2A
100
AcDbEntity
  8
1
100
AcDbLine
 10
51.09358199999997
 20
-205.099236
 30
0.0
 11
54.38340800000014
 21
-195.0412639999999
 31
0.0
  0
LINE
  5
4AFE
330
2A
100
AcDbEntity
  8
1
100
AcDbLine
 10
74.24223400000006
 20
-205.099236
 30
0.0
 11
70.95240800000009
 21
-195.0412639999999
 31
0.0
  0
ARC
  5
4AFF
330
2A
100
AcDbEntity
  8
1
100
AcDbCircle
 10
56.59890799999993
 20
-192.825764
 30
0.0
 40
2.2155
100
AcDbArc
 50
180.0
 51
270.0
  0
ARC
  5
4B00
330
2A
100
AcDbEntity
  8
1
100
AcDbCircle
 10
68.73690799999986
 20
-192.825764
 30
0.0
 40
2.2155
100
AcDbArc
 50
270.0
 51
0.0
  0
ARC
  5
4B01
330
2A
100
AcDbEntity
  8
1
100
AcDbCircle
 10
56.6679079999999
 20
-198.0412639999999
 30
0.0
 40
3.0
100
AcDbArc
 50
0.0
 51
90.0
  0
ARC
  5
4B02
330
2A
100
AcDbEntity
  8
1
100
AcDbCircle
 10
68.66790799999989
 20
-198.0412639999999
 30
0.0
 40
3.0
100
AcDbArc
 50
90.0
 51
180.0
  0
ARC
  5
4B03
330
2A
100
AcDbEntity
  8
1
100
AcDbCircle
 10
57.1679079999999
 20
-192.825764
 30
0.0
 40
2.784499999999998
100
AcDbArc
 50
90.0
 51
180.0
  0
ARC
  5
4B04
330
2A
100
AcDbEntity
  8
1
100
AcDbCircle
 10
68.16790799999989
 20
-192.825764
 30
0.0
 40
2.784499999999998
100
AcDbArc
 50
0.0
 51
90.0
  0
ARC
  5
4B05
330
2A
100
AcDbEntity
  8
1
100
AcDbCircle
 10
57.1679079999999
 20
-192.5412639999999
 30
0.0
 40
2.5
100
AcDbArc
 50
0.0
 51
90.0
  0
ARC
  5
4B06
330
2A
100
AcDbEntity
  8
1
100
AcDbCircle
 10
68.16790799999989
 20
-192.5412639999999
 30
0.0
 40
2.5
100
AcDbArc
 50
90.0
 51
180.0
  0
LINE
  5
4B07
330
2A
100
AcDbEntity
  8
1
100
AcDbLine
 10
59.6679079999999
 20
-215.558636
 30
0.0
 11
59.6679079999999
 21
-192.5412639999999
 31
0.0
  0
LINE
  5
4B08
330
2A
100
AcDbEntity
  8
1
100
AcDbLine
 10
65.66790799999989
 20
-215.558636
 30
0.0
 11
65.66790799999989
 21
-192.5412639999999
 31
0.0
  0
ARC
  5
4B09
330
2A
100
AcDbEntity
  8
1
100
AcDbCircle
 10
49.6679079999999
 20
-204.632917
 30
0.0
 40
1.5
100
AcDbArc
 50
270.0
 51
0.0
  0
ARC
  5
4B0A
330
2A
100
AcDbEntity
  8
1
100
AcDbCircle
 10
75.66790799999989
 20
-204.632917
 30
0.0
 40
1.5
100
AcDbArc
 50
180.0
 51
270.0
  0
ARC
  5
4B0B
330
2A
100
AcDbEntity
  8
1
100
AcDbCircle
 10
57.1679079999999
 20
-196.0412639999999
 30
0.0
 40
6.0
100
AcDbArc
 50
90.0
 51
180.0
  0
ARC
  5
4B0C
330
2A
100
AcDbEntity
  8
1
100
AcDbCircle
 10
68.16790799999989
 20
-196.0412639999999
 30
0.0
 40
6.0
100
AcDbArc
 50
0.0
 51
90.0
  0
LINE
  5
4B0D
330
2A
100
AcDbEntity
  8
1
100
AcDbLine
 10
74.1679079999999
 20
-204.632917
 30
0.0
 11
74.1679079999999
 21
-196.0412639999999
 31
0.0
  0
LINE
  5
4B0E
330
2A
100
AcDbEntity
  8
1
100
AcDbLine
 10
51.16790799999989
 20
-204.632917
 30
0.0
 11
51.16790799999989
 21
-196.0412639999999
 31
0.0
  0
ARC
  5
4B0F
330
2A
100
AcDbEntity
  8
1
100
AcDbCircle
 10
47.6679079999999
 20
-93.06475599999997
 30
0.0
 40
3.5
100
AcDbArc
 50
0.0
 51
90.0
  0
ARC
  5
4B10
330
2A
100
AcDbEntity
  8
1
100
AcDbCircle
 10
77.6679079999999
 20
-93.06475599999997
 30
0.0
 40
3.5
100
AcDbArc
 50
90.0
 51
180.0
  0
ARC
  5
4B11
330
2A
100
AcDbEntity
  8
1
100
AcDbCircle
 10
63.66790799999989
 20
-87.06454100000001
 30
0.0
 40
2.0
100
AcDbArc
 50
270.0
 51
0.0
  0
ARC
  5
4B12
330
2A
100
AcDbEntity
  8
1
100
AcDbCircle
 10
61.6679079999999
 20
-87.06454100000001
 30
0.0
 40
2.0
100
AcDbArc
 50
180.0
 51
270.0
  0
ARC
  5
4B13
330
2A
100
AcDbEntity
  8
1
100
AcDbCircle
 10
61.6679079999999
 20
-84.34064599999997
 30
0.0
 40
2.0
100
AcDbArc
 50
90.0
 51
180.0
  0
ARC
  5
4B14
330
2A
100
AcDbEntity
  8
1
100
AcDbCircle
 10
63.66790799999989
 20
-84.34064599999997
 30
0.0
 40
2.0
100
AcDbArc
 50
0.0
 51
90.0
  0
LINE
  5
4B15
330
2A
100
AcDbEntity
  8
1
100
AcDbLine
 10
61.6679079999999
 20
-89.06454100000003
 30
0.0
 11
63.66790799999989
 21
-89.06454100000003
 31
0.0
  0
LINE
  5
4B16
330
2A
100
AcDbEntity
  8
1
100
AcDbLine
 10
61.6679079999999
 20
-82.34064599999998
 30
0.0
 11
63.66790799999989
 21
-82.34064599999998
 31
0.0
  0
ARC
  5
4B17
330
2A
100
AcDbEntity
  8
1
100
AcDbCircle
 10
57.1679079999999
 20
-105.5412639999999
 30
0.0
 40
2.5
100
AcDbArc
 50
270.0
 51
0.0
  0
ARC
  5
4B18
330
2A
100
AcDbEntity
  8
1
100
AcDbCircle
 10
68.16790799999989
 20
-105.5412639999999
 30
0.0
 40
2.5
100
AcDbArc
 50
180.0
 51
270.0
  0
ARC
  5
4B19
330
2A
100
AcDbEntity
  8
1
100
AcDbCircle
 10
57.1679079999999
 20
-102.0412639999999
 30
0.0
 40
6.0
100
AcDbArc
 50
180.0
 51
270.0
  0
ARC
  5
4B1A
330
2A
100
AcDbEntity
  8
1
100
AcDbCircle
 10
68.16790799999989
 20
-102.0412639999999
 30
0.0
 40
6.0
100
AcDbArc
 50
270.0
 51
0.0
  0
LINE
  5
4B1B
330
2A
100
AcDbEntity
  8
1
100
AcDbLine
 10
74.1679079999999
 20
-102.0412639999999
 30
0.0
 11
74.1679079999999
 21
-93.06475599999997
 31
0.0
  0
LINE
  5
4B1C
330
2A
100
AcDbEntity
  8
1
100
AcDbLine
 10
51.16790799999989
 20
-93.06475599999997
 30
0.0
 11
51.16790799999989
 21
-102.0412639999999
 31
0.0
  0
LINE
  5
4B1D
330
2A
100
AcDbEntity
  8
1
100
AcDbLine
 10
59.6679079999999
 20
-108.0412639999999
 30
0.0
 11
65.66790799999989
 21
-108.0412639999999
 31
0.0
  0
ARC
  5
4B1E
330
2A
100
AcDbEntity
  8
1
100
AcDbCircle
 10
68.66790799999989
 20
-64.03155600000002
 30
0.0
 40
3.0
100
AcDbArc
 50
90.0
 51
180.0
  0
ARC
  5
4B1F
330
2A
100
AcDbEntity
  8
1
100
AcDbCircle
 10
56.6679079999999
 20
-64.03155600000002
 30
0.0
 40
3.0
100
AcDbArc
 50
0.0
 51
90.0
  0
LINE
  5
4B20
330
2A
100
AcDbEntity
  8
1
100
AcDbLine
 10
65.66790799999989
 20
-105.5412639999999
 30
0.0
 11
65.66790799999989
 21
-64.03155600000002
 31
0.0
  0
LINE
  5
4B21
330
2A
100
AcDbEntity
  8
1
100
AcDbLine
 10
59.6679079999999
 20
-105.5412639999999
 30
0.0
 11
59.6679079999999
 21
-64.03155600000002
 31
0.0
  0
LINE
  5
4B22
330
2A
100
AcDbEntity
  8
1
100
AcDbLine
 10
59.6679079999999
 20
-61.03155600000001
 30
0.0
 11
65.66790799999989
 21
-61.03155600000001
 31
0.0
  0
LINE
  5
4B23
330
2A
100
AcDbEntity
  8
1
100
AcDbLine
 10
59.6679079999999
 20
-190.0412639999999
 30
0.0
 11
65.66790799999989
 21
-190.0412639999999
 31
0.0
  0
ARC
  5
4B24
330
2A
100
AcDbEntity
  8
1
100
AcDbCircle
 10
68.16790799999989
 20
-181.0412639999999
 30
0.0
 40
6.0
100
AcDbArc
 50
270.0
 51
0.0
  0
ARC
  5
4B25
330
2A
100
AcDbEntity
  8
1
100
AcDbCircle
 10
57.1679079999999
 20
-181.0412639999999
 30
0.0
 40
6.0
100
AcDbArc
 50
180.0
 51
270.0
  0
ARC
  5
4B26
330
2A
100
AcDbEntity
  8
1
100
AcDbCircle
 10
68.16790799999989
 20
-117.0412639999999
 30
0.0
 40
6.0
100
AcDbArc
 50
0.0
 51
90.0
  0
ARC
  5
4B27
330
2A
100
AcDbEntity
  8
1
100
AcDbCircle
 10
57.1679079999999
 20
-117.0412639999999
 30
0.0
 40
6.0
100
AcDbArc
 50
90.0
 51
180.0
  0
LINE
  5
4B28
330
2A
100
AcDbEntity
  8
1
100
AcDbLine
 10
57.1679079999999
 20
-187.0412639999999
 30
0.0
 11
68.16790799999989
 21
-187.0412639999999
 31
0.0
  0
LINE
  5
4B29
330
2A
100
AcDbEntity
  8
1
100
AcDbLine
 10
57.1679079999999
 20
-111.0412639999999
 30
0.0
 11
68.16790799999989
 21
-111.0412639999999
 31
0.0
  0
LINE
  5
4B2A
330
2A
100
AcDbEntity
  8
1
100
AcDbLine
 10
74.1679079999999
 20
-181.0412639999999
 30
0.0
 11
74.1679079999999
 21
-117.0412639999999
 31
0.0
  0
LINE
  5
4B2B
330
2A
100
AcDbEntity
  8
1
100
AcDbLine
 10
51.16790799999989
 20
-181.0412639999999
 30
0.0
 11
51.16790799999989
 21
-117.0412639999999
 31
0.0
  0
LINE
  5
4B2C
330
2A
100
AcDbEntity
  8
1
100
AcDbLine
 10
49.6679079999999
 20
-221.441264
 30
0.0
 11
75.66790799999989
 21
-221.441264
 31
0.0
  0
LINE
  5
4B2D
330
2A
100
AcDbEntity
  8
1
100
AcDbLine
 10
49.6679079999999
 20
-219.841264
 30
0.0
 11
75.66790799999989
 21
-219.841264
 31
0.0
  0
LINE
  5
4B2E
330
2A
100
AcDbEntity
  8
1
100
AcDbLine
 10
79.6679079999999
 20
-206.541264
 30
0.0
 11
84.66790799999989
 21
-206.541264
 31
0.0
  0
LINE
  5
4B2F
330
2A
100
AcDbEntity
  8
1
100
AcDbLine
 10
40.66790799999989
 20
-206.541264
 30
0.0
 11
45.66790799999989
 21
-206.541264
 31
0.0
  0
ARC
  5
4B30
330
2A
100
AcDbEntity
  8
1
100
AcDbCircle
 10
45.66790799999989
 20
-206.132917
 30
0.0
 40
4.0
100
AcDbArc
 50
0.0
 51
90.0
  0
ARC
  5
4B31
330
2A
100
AcDbEntity
  8
1
100
AcDbCircle
 10
79.6679079999999
 20
-206.132917
 30
0.0
 40
4.0
100
AcDbArc
 50
90.0
 51
180.0
  0
ARC
  5
4B32
330
2A
100
AcDbEntity
  8
1
100
AcDbCircle
 10
45.66790799999989
 20
-210.541264
 30
0.0
 40
4.0
100
AcDbArc
 50
0.0
 51
90.0
  0
ARC
  5
4B33
330
2A
100
AcDbEntity
  8
1
100
AcDbCircle
 10
79.6679079999999
 20
-210.541264
 30
0.0
 40
4.0
100
AcDbArc
 50
90.0
 51
180.0
  0
LINE
  5
4B34
330
2A
100
AcDbEntity
  8
1
100
AcDbLine
 10
75.66790799999989
 20
-221.441264
 30
0.0
 11
75.66790799999989
 21
-206.132917
 31
0.0
  0
LINE
  5
4B35
330
2A
100
AcDbEntity
  8
1
100
AcDbLine
 10
49.6679079999999
 20
-221.441264
 30
0.0
 11
49.6679079999999
 21
-206.132917
 31
0.0
  0
LINE
  5
4B36
330
2A
100
AcDbEntity
  8
1
100
AcDbLine
 10
49.6679079999999
 20
-219.041264
 30
0.0
 11
75.66790799999989
 21
-219.041264
 31
0.0
  0
LINE
  5
4B37
330
2A
100
AcDbEntity
  8
1
100
AcDbLine
 10
82.6679079999999
 20
-91.541264
 30
0.0
 11
84.66790799999989
 21
-91.541264
 31
0.0
  0
LINE
  5
4B38
330
2A
100
AcDbEntity
  8
1
100
AcDbLine
 10
40.66790799999989
 20
-91.541264
 30
0.0
 11
42.6679079999999
 21
-91.541264
 31
0.0
  0
ARC
  5
4B39
330
2A
100
AcDbEntity
  8
1
100
AcDbCircle
 10
42.6679079999999
 20
-89.56475599999997
 30
0.0
 40
5.0
100
AcDbArc
 50
270.0
 51
0.0
  0
ARC
  5
4B3A
330
2A
100
AcDbEntity
  8
1
100
AcDbCircle
 10
82.6679079999999
 20
-89.56475599999997
 30
0.0
 40
5.0
100
AcDbArc
 50
180.0
 51
270.0
  0
LINE
  5
4B3B
330
2A
100
AcDbEntity
  8
1
100
AcDbLine
 10
40.66790799999989
 20
-206.541264
 30
0.0
 11
39.6679079999999
 21
-205.541264
 31
0.0
  0
LINE
  5
4B3C
330
2A
100
AcDbEntity
  8
1
100
AcDbLine
 10
85.6679079999999
 20
-205.541264
 30
0.0
 11
84.66790799999989
 21
-206.541264
 31
0.0
  0
LINE
  5
4B3D
330
2A
100
AcDbEntity
  8
1
100
AcDbLine
 10
85.6679079999999
 20
-92.54126400000002
 30
0.0
 11
84.66790799999989
 21
-91.541264
 31
0.0
  0
LINE
  5
4B3E
330
2A
100
AcDbEntity
  8
1
100
AcDbLine
 10
40.66790799999989
 20
-91.541264
 30
0.0
 11
39.6679079999999
 21
-92.54126400000002
 31
0.0
  0
LINE
  5
4B3F
330
2A
100
AcDbEntity
  8
1
100
AcDbLine
 10
85.6679079999999
 20
-205.541264
 30
0.0
 11
85.6679079999999
 21
-92.54126400000002
 31
0.0
  0
LINE
  5
4B40
330
2A
100
AcDbEntity
  8
1
100
AcDbLine
 10
39.6679079999999
 20
-205.541264
 30
0.0
 11
39.6679079999999
 21
-92.54126400000002
 31
0.0
  0
LINE
  5
4B41
330
2A
100
AcDbEntity
  8
1
100
AcDbLine
 10
40.66790799999989
 20
-91.541264
 30
0.0
 11
40.66790799999989
 21
-206.541264
 31
0.0
  0
LINE
  5
4B42
330
2A
100
AcDbEntity
  8
1
100
AcDbLine
 10
84.66790799999989
 20
-91.541264
 30
0.0
 11
84.66790799999989
 21
-206.541264
 31
0.0
  0
ARC
  5
4B43
330
2A
100
AcDbEntity
  8
1
100
AcDbCircle
 10
42.6679079999999
 20
-86.541264
 30
0.0
 40
5.0
100
AcDbArc
 50
270.0
 51
0.0
  0
ARC
  5
4B44
330
2A
100
AcDbEntity
  8
1
100
AcDbCircle
 10
82.6679079999999
 20
-86.541264
 30
0.0
 40
5.0
100
AcDbArc
 50
180.0
 51
270.0
  0
ARC
  5
4B45
330
2A
100
AcDbEntity
  8
1
100
AcDbCircle
 10
67.6679079999999
 20
-25.95016699999997
 30
0.0
 40
2.0
100
AcDbArc
 50
180.0
 51
270.0
  0
ARC
  5
4B46
330
2A
100
AcDbEntity
  8
1
100
AcDbCircle
 10
57.6679079999999
 20
-25.95016699999997
 30
0.0
 40
2.0
100
AcDbArc
 50
270.0
 51
0.0
  0
ARC
  5
4B47
330
2A
100
AcDbEntity
  8
1
100
AcDbCircle
 10
57.6679079999999
 20
-12.04126400000001
 30
0.0
 40
2.0
100
AcDbArc
 50
0.0
 51
90.0
  0
ARC
  5
4B48
330
2A
100
AcDbEntity
  8
1
100
AcDbCircle
 10
67.6679079999999
 20
-12.04126400000001
 30
0.0
 40
2.0
100
AcDbArc
 50
90.0
 51
180.0
  0
LINE
  5
4B49
330
2A
100
AcDbEntity
  8
1
100
AcDbLine
 10
65.66790799999989
 20
-25.95016699999997
 30
0.0
 11
65.66790799999989
 21
-12.04126400000001
 31
0.0
  0
LINE
  5
4B4A
330
2A
100
AcDbEntity
  8
1
100
AcDbLine
 10
59.6679079999999
 20
-25.95016699999997
 30
0.0
 11
59.6679079999999
 21
-12.04126400000001
 31
0.0
  0
LINE
  5
4B4B
330
2A
100
AcDbEntity
  8
1
100
AcDbLine
 10
65.66790799999989
 20
-27.95016699999997
 30
0.0
 11
59.6679079999999
 21
-27.95016699999997
 31
0.0
  0
ARC
  5
4B4C
330
2A
100
AcDbEntity
  8
1
100
AcDbCircle
 10
95.6679079999999
 20
-27.95016699999997
 30
0.0
 40
18.0
100
AcDbArc
 50
95.21590900000081
 51
180.0
  0
ARC
  5
4B4D
330
2A
100
AcDbEntity
  8
1
100
AcDbCircle
 10
42.6679079999999
 20
-15.04126400000001
 30
0.0
 40
5.0
100
AcDbArc
 50
0.0
 51
53.82506399999638
  0
ARC
  5
4B4E
330
2A
100
AcDbEntity
  8
1
100
AcDbCircle
 10
82.6679079999999
 20
-15.04126400000001
 30
0.0
 40
5.0
100
AcDbArc
 50
90.0
 51
180.0
  0
LINE
  5
4B4F
330
2A
100
AcDbEntity
  8
1
100
AcDbLine
 10
77.6679079999999
 20
-89.56475599999997
 30
0.0
 11
77.6679079999999
 21
-15.04126400000001
 31
0.0
  0
LINE
  5
4B50
330
2A
100
AcDbEntity
  8
1
100
AcDbLine
 10
47.6679079999999
 20
-89.56475599999997
 30
0.0
 11
47.6679079999999
 21
-15.04126400000001
 31
0.0
  0
ARC
  5
4B51
330
2A
100
AcDbEntity
  8
1
100
AcDbCircle
 10
31.6679079999999
 20
-6.041264000000013
 30
0.0
 40
4.0
100
AcDbArc
 50
180.0
 51
270.0
  0
ARC
  5
4B52
330
2A
100
AcDbEntity
  8
1
100
AcDbCircle
 10
93.66790799999987
 20
-6.041264000000013
 30
0.0
 40
4.0
100
AcDbArc
 50
270.0
 51
0.0
  0
LINE
  5
4B53
330
2A
100
AcDbEntity
  8
1
100
AcDbLine
 10
31.6679079999999
 20
-10.04126400000001
 30
0.0
 11
93.66790799999987
 21
-10.04126400000001
 31
0.0
  0
LINE
  5
4B54
330
2A
100
AcDbEntity
  8
1
100
AcDbLine
 10
27.6679079999999
 20
-6.041264000000013
 30
0.0
 11
27.6679079999999
 21
1.958735999999986
 31
0.0
  0
LINE
  5
4B55
330
2A
100
AcDbEntity
  8
1
100
AcDbLine
 10
97.6679079999999
 20
-6.041264000000013
 30
0.0
 11
97.6679079999999
 21
1.958735999999986
 31
0.0
  0
ARC
  5
4B56
330
2A
100
AcDbEntity
  8
1
100
AcDbCircle
 10
40.24547200000006
 20
-198.5412639999999
 30
0.0
 40
1.0
100
AcDbArc
 50
209.9816389999975
 51
234.7206159999996
  0
ARC
  5
4B57
330
2A
100
AcDbEntity
  8
1
100
AcDbCircle
 10
85.09034399999995
 20
-198.5412639999999
 30
0.0
 40
1.0
100
AcDbArc
 50
305.2793840000003
 51
330.0183610000025
  0
LINE
  5
4B58
330
2A
100
AcDbEntity
  8
1
100
AcDbLine
 10
38.5429079999999
 20
-197.591264
 30
0.0
 11
39.37928599999987
 21
-199.0409869999999
 31
0.0
  0
LINE
  5
4B59
330
2A
100
AcDbEntity
  8
1
100
AcDbLine
 10
86.79290799999987
 20
-197.591264
 30
0.0
 11
85.95652900000002
 21
-199.0409869999999
 31
0.0
  0
ARC
  5
4B5A
330
2A
100
AcDbEntity
  8
1
100
AcDbCircle
 10
40.24547200000006
 20
-99.54126399999996
 30
0.0
 40
1.0
100
AcDbArc
 50
125.2793840000003
 51
150.0183610000024
  0
LINE
  5
4B5B
330
2A
100
AcDbEntity
  8
1
100
AcDbLine
 10
38.5429079999999
 20
-100.491264
 30
0.0
 11
39.37928599999987
 21
-99.041542
 31
0.0
  0
ARC
  5
4B5C
330
2A
100
AcDbEntity
  8
1
100
AcDbCircle
 10
85.09034399999995
 20
-99.54126399999996
 30
0.0
 40
1.0
100
AcDbArc
 50
29.98163899999754
 51
54.72061599999963
  0
LINE
  5
4B5D
330
2A
100
AcDbEntity
  8
1
100
AcDbLine
 10
86.79290799999987
 20
-100.491264
 30
0.0
 11
85.95652900000002
 21
-99.041542
 31
0.0
  0
LINE
  5
4B5E
330
2A
100
AcDbEntity
  8
1
100
AcDbLine
 10
86.79290799999987
 20
-197.591264
 30
0.0
 11
86.79290799999987
 21
-100.491264
 31
0.0
  0
LINE
  5
4B5F
330
2A
100
AcDbEntity
  8
1
100
AcDbLine
 10
38.5429079999999
 20
-197.591264
 30
0.0
 11
38.5429079999999
 21
-100.491264
 31
0.0
  0
LINE
  5
4B60
330
2A
100
AcDbEntity
  8
1
100
AcDbLine
 10
68.66790799999989
 20
-195.0412639999999
 30
0.0
 11
68.73690799999986
 21
-195.0412639999999
 31
0.0
  0
LINE
  5
4B61
330
2A
100
AcDbEntity
  8
1
100
AcDbLine
 10
56.59890799999993
 20
-195.0412639999999
 30
0.0
 11
56.6679079999999
 21
-195.0412639999999
 31
0.0
  0
LINE
  5
4B62
330
2A
100
AcDbEntity
  8
1
100
AcDbLine
 10
50.8290710000001
 20
-91.56240799999999
 30
0.0
 11
54.38340800000014
 21
-99.04126399999995
 31
0.0
  0
LINE
  5
4B63
330
2A
100
AcDbEntity
  8
1
100
AcDbLine
 10
74.50674500000014
 20
-91.56240799999999
 30
0.0
 11
70.95240800000009
 21
-99.04126399999995
 31
0.0
  0
ARC
  5
4B64
330
2A
100
AcDbEntity
  8
1
100
AcDbCircle
 10
56.6679079999999
 20
-96.21976
 30
0.0
 40
3.0
100
AcDbArc
 50
283.1214989999987
 51
0.0
  0
ARC
  5
4B65
330
2A
100
AcDbEntity
  8
1
100
AcDbCircle
 10
68.66790799999989
 20
-96.21976
 30
0.0
 40
3.0
100
AcDbArc
 50
180.0
 51
256.8785010000013
  0
ARC
  5
4B66
330
2A
100
AcDbEntity
  8
1
100
AcDbCircle
 10
67.11590799999999
 20
-102.8777639999999
 30
0.0
 40
3.8365
100
AcDbArc
 50
0.0
 51
76.8785010000013
  0
ARC
  5
4B67
330
2A
100
AcDbEntity
  8
1
100
AcDbCircle
 10
58.21990800000002
 20
-102.8777639999999
 30
0.0
 40
3.8365
100
AcDbArc
 50
103.1214989999987
 51
180.0
  0
ARC
  5
4B68
330
2A
100
AcDbEntity
  8
1
100
AcDbCircle
 10
57.1679079999999
 20
-105.2567639999999
 30
0.0
 40
2.784499999999998
100
AcDbArc
 50
180.0
 51
270.0
  0
ARC
  5
4B69
330
2A
100
AcDbEntity
  8
1
100
AcDbCircle
 10
68.16790799999989
 20
-105.2567639999999
 30
0.0
 40
2.784499999999998
100
AcDbArc
 50
270.0
 51
0.0
  0
LINE
  5
4B6A
330
2A
100
AcDbEntity
  8
1
100
AcDbLine
 10
70.95240800000009
 20
-178.773938
 30
0.0
 11
73.14028600000006
 21
-184.399159
 31
0.0
  0
LINE
  5
4B6B
330
2A
100
AcDbEntity
  8
1
100
AcDbLine
 10
52.19552999999996
 20
-184.399159
 30
0.0
 11
54.38340800000014
 21
-178.773938
 31
0.0
  0
LINE
  5
4B6C
330
2A
100
AcDbEntity
  8
1
100
AcDbLine
 10
52.19552999999996
 20
-113.683369
 30
0.0
 11
54.38340800000014
 21
-119.3085909999999
 31
0.0
  0
LINE
  5
4B6D
330
2A
100
AcDbEntity
  8
1
100
AcDbLine
 10
73.14028600000006
 20
-113.683369
 30
0.0
 11
70.95240800000009
 21
-119.3085909999999
 31
0.0
  0
ARC
  5
4B6E
330
2A
100
AcDbEntity
  8
1
100
AcDbCircle
 10
58.21990800000002
 20
-174.937438
 30
0.0
 40
3.8365
100
AcDbArc
 50
180.0
 51
270.0
  0
ARC
  5
4B6F
330
2A
100
AcDbEntity
  8
1
100
AcDbCircle
 10
67.11590799999999
 20
-174.937438
 30
0.0
 40
3.8365
100
AcDbArc
 50
270.0
 51
0.0
  0
ARC
  5
4B70
330
2A
100
AcDbEntity
  8
1
100
AcDbCircle
 10
67.11590799999999
 20
-123.1450909999999
 30
0.0
 40
3.8365
100
AcDbArc
 50
0.0
 51
90.0
  0
ARC
  5
4B71
330
2A
100
AcDbEntity
  8
1
100
AcDbCircle
 10
58.21990800000002
 20
-123.1450909999999
 30
0.0
 40
3.8365
100
AcDbArc
 50
90.0
 51
180.0
  0
LINE
  5
4B72
330
2A
100
AcDbEntity
  8
1
100
AcDbLine
 10
54.38340800000014
 20
-174.937438
 30
0.0
 11
54.38340800000014
 21
-123.1450909999999
 31
0.0
  0
LINE
  5
4B73
330
2A
100
AcDbEntity
  8
1
100
AcDbLine
 10
58.21990800000002
 20
-178.773938
 30
0.0
 11
67.11590799999999
 21
-178.773938
 31
0.0
  0
LINE
  5
4B74
330
2A
100
AcDbEntity
  8
1
100
AcDbLine
 10
70.95240800000009
 20
-174.937438
 30
0.0
 11
70.95240800000009
 21
-123.1450909999999
 31
0.0
  0
LINE
  5
4B75
330
2A
100
AcDbEntity
  8
1
100
AcDbLine
 10
58.21990800000002
 20
-119.3085909999999
 30
0.0
 11
67.11590799999999
 21
-119.3085909999999
 31
0.0
  0
LINE
  5
4B76
330
2A
100
AcDbEntity
  8
1
100
AcDbLine
 10
54.38340800000014
 20
-105.2567639999999
 30
0.0
 11
54.38340800000014
 21
-102.8777639999999
 31
0.0
  0
LINE
  5
4B77
330
2A
100
AcDbEntity
  8
1
100
AcDbLine
 10
70.95240800000009
 20
-105.2567639999999
 30
0.0
 11
70.95240800000009
 21
-102.8777639999999
 31
0.0
  0
LINE
  5
4B78
330
2A
100
AcDbEntity
  8
1
100
AcDbLine
 10
56.56790799999999
 20
-222.941264
 30
0.0
 11
56.56790799999999
 21
-221.441264
 31
0.0
  0
LINE
  5
4B79
330
2A
100
AcDbEntity
  8
1
100
AcDbLine
 10
68.76790800000003
 20
-222.941264
 30
0.0
 11
56.56790799999999
 21
-222.941264
 31
0.0
  0
LINE
  5
4B7A
330
2A
100
AcDbEntity
  8
1
100
AcDbLine
 10
68.76790800000003
 20
-221.441264
 30
0.0
 11
68.76790800000003
 21
-222.941264
 31
0.0
  0
ARC
  5
4B7B
330
2A
100
AcDbEntity
  8
1
100
AcDbCircle
 10
60.1679079999999
 20
-220.3280569999999
 30
0.0
 40
6.613208
100
AcDbArc
 50
247.7882050000006
 51
292.2117949999993
  0
LINE
  5
4B7C
330
2A
100
AcDbEntity
  8
1
100
AcDbLine
 10
57.6679079999999
 20
-226.941264
 30
0.0
 11
67.6679079999999
 21
-226.941264
 31
0.0
  0
LINE
  5
4B7D
330
2A
100
AcDbEntity
  8
1
100
AcDbLine
 10
57.6679079999999
 20
-222.941264
 30
0.0
 11
57.6679079999999
 21
-226.941264
 31
0.0
  0
ARC
  5
4B7E
330
2A
100
AcDbEntity
  8
1
100
AcDbCircle
 10
65.1679079999999
 20
-220.3280569999999
 30
0.0
 40
6.613208
100
AcDbArc
 50
247.7882050000006
 51
292.2117949999993
  0
LINE
  5
4B7F
330
2A
100
AcDbEntity
  8
1
100
AcDbLine
 10
62.6679079999999
 20
-222.941264
 30
0.0
 11
62.6679079999999
 21
-226.450517
 31
0.0
  0
LINE
  5
4B80
330
2A
100
AcDbEntity
  8
1
100
AcDbLine
 10
67.6679079999999
 20
-222.941264
 30
0.0
 11
67.6679079999999
 21
-226.941264
 31
0.0
  0
LINE
  5
4B81
330
2A
100
AcDbEntity
  8
1
  6
CENTER
 62
     2
370
    13
100
AcDbLine
 10
62.6679079999999
 20
-237.973517
 30
0.0
 11
62.6679079999999
 21
70.53371400000003
 31
0.0
  0
LINE
  5
4B82
330
2A
100
AcDbEntity
  8
1
  6
CENTER
 62
     2
370
    13
100
AcDbLine
 10
25.26219700000002
 20
-149.0412639999999
 30
0.0
 11
99.270575
 21
-149.0412639999999
 31
0.0
  0
ARC
  5
4B83
330
2A
100
AcDbEntity
  8
1
100
AcDbCircle
 10
-262.739559
 20
-149.041323
 30
0.0
 40
28.9
100
AcDbArc
 50
358.5876369999997
 51
1.412363000000311
  0
ARC
  5
4B84
330
2A
100
AcDbEntity
  8
1
100
AcDbCircle
 10
-262.739559
 20
-149.041323
 30
0.0
 40
30.5
100
AcDbArc
 50
358.6403119999987
 51
1.359688000001271
  0
LINE
  5
4B85
330
2A
100
AcDbEntity
  8
1
100
AcDbLine
 10
-233.8644830000001
 20
-150.2413229999999
 30
0.0
 11
-232.863829
 21
-150.558485
 31
0.0
  0
LINE
  5
4B86
330
2A
100
AcDbEntity
  8
1
100
AcDbLine
 10
-233.8644830000001
 20
-147.841323
 30
0.0
 11
-232.862013
 21
-147.523584
 31
0.0
  0
ARC
  5
4B87
330
2A
100
AcDbEntity
  8
1
100
AcDbCircle
 10
-233.247865
 20
-149.7413229999999
 30
0.0
 40
1.0
100
AcDbArc
 50
270.0
 51
358.6403119999987
  0
ARC
  5
4B88
330
2A
100
AcDbEntity
  8
1
100
AcDbCircle
 10
-233.247865
 20
-148.341323
 30
0.0
 40
1.0
100
AcDbArc
 50
1.359688000001271
 51
90.0
  0
ARC
  5
4B89
330
2A
100
AcDbEntity
  8
1
100
AcDbCircle
 10
-234.3481870000001
 20
-149.7413229999999
 30
0.0
 40
0.5
100
AcDbArc
 50
270.0
 51
358.5876369999997
  0
ARC
  5
4B8A
330
2A
100
AcDbEntity
  8
1
100
AcDbCircle
 10
-234.3481870000001
 20
-148.341323
 30
0.0
 40
0.5
100
AcDbArc
 50
1.412363000000311
 51
90.0
  0
ARC
  5
4B8B
330
2A
100
AcDbEntity
  8
1
100
AcDbCircle
 10
-262.739559
 20
-149.041323
 30
0.0
 40
30.5
100
AcDbArc
 50
17.42680900000214
 51
20.40161199999873
  0
POINT
  5
4B8C
330
2A
100
AcDbEntity
  8
1
100
AcDbPoint
 10
-262.739559
 20
-149.041323
 30
0.0
  0
LINE
  5
4B8D
330
2A
100
AcDbEntity
  8
1
100
AcDbLine
 10
-274.7865509999999
 20
-179.441323
 30
0.0
 11
-250.6925680000001
 21
-179.441323
 31
0.0
  0
ARC
  5
4B8E
330
2A
100
AcDbEntity
  8
1
100
AcDbCircle
 10
-262.739559
 20
-149.041323
 30
0.0
 40
32.7
100
AcDbArc
 50
291.6175619999971
 51
68.38243800000292
  0
LINE
  5
4B8F
330
2A
100
AcDbEntity
  8
1
100
AcDbLine
 10
-274.7865509999999
 20
-118.641323
 30
0.0
 11
-250.6925680000001
 21
-118.641323
 31
0.0
  0
ARC
  5
4B90
330
2A
100
AcDbEntity
  8
1
100
AcDbCircle
 10
-262.739559
 20
-149.041323
 30
0.0
 40
32.7
100
AcDbArc
 50
111.6175619999971
 51
248.3824380000029
  0
ARC
  5
4B91
330
2A
100
AcDbEntity
  8
1
100
AcDbCircle
 10
-265.739559
 20
-161.611534
 30
0.0
 40
1.0
100
AcDbArc
 50
278.6232970000028
 51
0.0
  0
ARC
  5
4B92
330
2A
100
AcDbEntity
  8
1
100
AcDbCircle
 10
-267.239559
 20
-161.9727729999999
 30
0.0
 40
1.0
100
AcDbArc
 50
288.4576750000028
 51
0.0
  0
ARC
  5
4B93
330
2A
100
AcDbEntity
  8
1
100
AcDbCircle
 10
-264.390123
 20
-170.509793
 30
0.0
 40
8.0
100
AcDbArc
 50
94.99999999999976
 51
180.0
  0
ARC
  5
4B94
330
2A
100
AcDbEntity
  8
1
100
AcDbCircle
 10
-258.739559
 20
-170.517343
 30
0.0
 40
8.0
100
AcDbArc
 50
94.99999999999976
 51
180.0
  0
ARC
  5
4B95
330
2A
100
AcDbEntity
  8
1
100
AcDbCircle
 10
-268.739559
 20
-171.441323
 30
0.0
 40
2.0
100
AcDbArc
 50
270.0
 51
0.0
  0
ARC
  5
4B96
330
2A
100
AcDbEntity
  8
1
100
AcDbCircle
 10
-274.390123
 20
-171.441323
 30
0.0
 40
2.0
100
AcDbArc
 50
270.0
 51
0.0
  0
LINE
  5
4B97
330
2A
100
AcDbEntity
  8
1
100
AcDbLine
 10
-266.739559
 20
-170.517343
 30
0.0
 11
-266.739559
 21
-171.441323
 31
0.0
  0
ARC
  5
4B98
330
2A
100
AcDbEntity
  8
1
100
AcDbCircle
 10
-267.239559
 20
-139.109872
 30
0.0
 40
1.0
100
AcDbArc
 50
0.0
 51
71.54232499999714
  0
ARC
  5
4B99
330
2A
100
AcDbEntity
  8
1
100
AcDbCircle
 10
-265.739559
 20
-139.471112
 30
0.0
 40
1.0
100
AcDbArc
 50
0.0
 51
81.37670299999721
  0
ARC
  5
4B9A
330
2A
100
AcDbEntity
  8
1
100
AcDbCircle
 10
-268.739559
 20
-126.641323
 30
0.0
 40
2.0
100
AcDbArc
 50
0.0
 51
90.0
  0
ARC
  5
4B9B
330
2A
100
AcDbEntity
  8
1
100
AcDbCircle
 10
-274.390123
 20
-126.641323
 30
0.0
 40
2.0
100
AcDbArc
 50
0.0
 51
90.0
  0
ARC
  5
4B9C
330
2A
100
AcDbEntity
  8
1
100
AcDbCircle
 10
-264.390123
 20
-130.572852
 30
0.0
 40
8.0
100
AcDbArc
 50
180.0
 51
265.0000000000003
  0
ARC
  5
4B9D
330
2A
100
AcDbEntity
  8
1
100
AcDbCircle
 10
-258.739559
 20
-130.565302
 30
0.0
 40
8.0
100
AcDbArc
 50
180.0
 51
265.0000000000003
  0
LINE
  5
4B9E
330
2A
100
AcDbEntity
  8
1
100
AcDbLine
 10
-266.739559
 20
-130.565302
 30
0.0
 11
-266.739559
 21
-126.641323
 31
0.0
  0
LINE
  5
4B9F
330
2A
100
AcDbEntity
  8
1
100
AcDbLine
 10
-272.390123
 20
-171.441323
 30
0.0
 11
-272.390123
 21
-170.509793
 31
0.0
  0
LINE
  5
4BA0
330
2A
100
AcDbEntity
  8
1
100
AcDbLine
 10
-272.390123
 20
-126.641323
 30
0.0
 11
-272.390123
 21
-130.572852
 31
0.0
  0
LINE
  5
4BA1
330
2A
100
AcDbEntity
  8
1
100
AcDbLine
 10
-266.945528
 20
-150.247695
 30
0.0
 11
-270.905921
 21
-150.671727
 31
0.0
  0
LINE
  5
4BA2
330
2A
100
AcDbEntity
  8
1
100
AcDbLine
 10
-266.945528
 20
-147.83495
 30
0.0
 11
-270.905921
 21
-147.410918
 31
0.0
  0
ARC
  5
4BA3
330
2A
100
AcDbEntity
  8
1
100
AcDbCircle
 10
-271.055929
 20
-150.2413229999999
 30
0.0
 40
0.5
100
AcDbArc
 50
180.0
 51
270.0
  0
ARC
  5
4BA4
330
2A
100
AcDbEntity
  8
1
100
AcDbCircle
 10
-271.055929
 20
-147.841323
 30
0.0
 40
0.5
100
AcDbArc
 50
90.0
 51
180.0
  0
ARC
  5
4BA5
330
2A
100
AcDbEntity
  8
1
100
AcDbCircle
 10
-266.386009
 20
-149.7413229999999
 30
0.0
 40
0.5
100
AcDbArc
 50
180.0
 51
270.0
  0
ARC
  5
4BA6
330
2A
100
AcDbEntity
  8
1
100
AcDbCircle
 10
-266.386009
 20
-148.341323
 30
0.0
 40
0.5
100
AcDbArc
 50
90.0
 51
180.0
  0
LINE
  5
4BA7
330
2A
100
AcDbEntity
  8
1
100
AcDbLine
 10
-271.555929
 20
-147.841323
 30
0.0
 11
-271.555929
 21
-150.2413229999999
 31
0.0
  0
LINE
  5
4BA8
330
2A
100
AcDbEntity
  8
1
100
AcDbLine
 10
-266.8860089999999
 20
-149.7413229999999
 30
0.0
 11
-266.8860089999999
 21
-148.341323
 31
0.0
  0
ARC
  5
4BA9
330
2A
100
AcDbEntity
  8
1
100
AcDbCircle
 10
-262.739559
 20
-101.033506
 30
0.0
 40
74.10781599999999
100
AcDbArc
 50
257.7040010000006
 51
270.0
  0
LINE
  5
4BAA
330
2A
100
AcDbEntity
  8
1
100
AcDbLine
 10
-278.5217190000001
 20
-174.740145
 30
0.0
 11
-278.5217190000001
 21
-177.680691
 31
0.0
  0
LINE
  5
4BAB
330
2A
100
AcDbEntity
  8
1
100
AcDbLine
 10
-275.312227
 20
-173.441323
 30
0.0
 11
-262.739559
 21
-173.441323
 31
0.0
  0
LINE
  5
4BAC
330
2A
100
AcDbEntity
  8
1
100
AcDbLine
 10
-272.477295
 20
-173.441323
 30
0.0
 11
-272.492514
 21
-173.441323
 31
0.0
  0
ARC
  5
4BAD
330
2A
100
AcDbEntity
  8
1
100
AcDbCircle
 10
-262.739559
 20
-197.0491389999999
 30
0.0
 40
74.10781599999999
100
AcDbArc
 50
90.0
 51
102.2959989999994
  0
LINE
  5
4BAE
330
2A
100
AcDbEntity
  8
1
100
AcDbLine
 10
-278.5217190000001
 20
-123.3424999999999
 30
0.0
 11
-278.5217190000001
 21
-120.401954
 31
0.0
  0
LINE
  5
4BAF
330
2A
100
AcDbEntity
  8
1
100
AcDbLine
 10
-275.312227
 20
-124.641323
 30
0.0
 11
-262.739559
 21
-124.641323
 31
0.0
  0
LINE
  5
4BB0
330
2A
100
AcDbEntity
  8
1
100
AcDbLine
 10
-272.477295
 20
-124.641323
 30
0.0
 11
-272.492514
 21
-124.641323
 31
0.0
  0
ARC
  5
4BB1
330
2A
100
AcDbEntity
  8
1
100
AcDbCircle
 10
-265.739559
 20
-151.7413229999999
 30
0.0
 40
1.0
100
AcDbArc
 50
0.0
 51
90.0
  0
ARC
  5
4BB2
330
2A
100
AcDbEntity
  8
1
100
AcDbCircle
 10
-267.239559
 20
-151.7413229999999
 30
0.0
 40
1.0
100
AcDbArc
 50
0.0
 51
90.0
  0
LINE
  5
4BB3
330
2A
100
AcDbEntity
  8
1
100
AcDbLine
 10
-266.239559
 20
-151.7413229999999
 30
0.0
 11
-266.239559
 21
-161.9727729999999
 31
0.0
  0
LINE
  5
4BB4
330
2A
100
AcDbEntity
  8
1
100
AcDbLine
 10
-264.739559
 20
-151.7413229999999
 30
0.0
 11
-264.739559
 21
-161.611534
 31
0.0
  0
LINE
  5
4BB5
330
2A
100
AcDbEntity
  8
1
100
AcDbLine
 10
-264.739559
 20
-146.341323
 30
0.0
 11
-264.739559
 21
-139.471112
 31
0.0
  0
LINE
  5
4BB6
330
2A
100
AcDbEntity
  8
1
100
AcDbLine
 10
-266.239559
 20
-146.341323
 30
0.0
 11
-266.239559
 21
-139.109872
 31
0.0
  0
ARC
  5
4BB7
330
2A
100
AcDbEntity
  8
1
100
AcDbCircle
 10
-265.739559
 20
-146.341323
 30
0.0
 40
1.0
100
AcDbArc
 50
270.0
 51
0.0
  0
ARC
  5
4BB8
330
2A
100
AcDbEntity
  8
1
100
AcDbCircle
 10
-267.239559
 20
-146.341323
 30
0.0
 40
1.0
100
AcDbArc
 50
270.0
 51
0.0
  0
ARC
  5
4BB9
330
2A
100
AcDbEntity
  8
1
100
AcDbCircle
 10
-246.954197
 20
-171.441323
 30
0.0
 40
7.047625999999998
100
AcDbArc
 50
94.99999999999976
 51
180.0
  0
ARC
  5
4BBA
330
2A
100
AcDbEntity
  8
1
100
AcDbCircle
 10
-249.239559
 20
-172.5972779999999
 30
0.0
 40
8.0
100
AcDbArc
 50
94.99999999999976
 51
180.0
  0
ARC
  5
4BBB
330
2A
100
AcDbEntity
  8
1
100
AcDbCircle
 10
-253.8583609999999
 20
-172.499461
 30
0.0
 40
8.0
100
AcDbArc
 50
94.99999999999976
 51
180.0
  0
ARC
  5
4BBC
330
2A
100
AcDbEntity
  8
1
100
AcDbCircle
 10
-252.0018230000001
 20
-171.441323
 30
0.0
 40
2.0
100
AcDbArc
 50
180.0
 51
270.0
  0
ARC
  5
4BBD
330
2A
100
AcDbEntity
  8
1
100
AcDbCircle
 10
-262.739559
 20
-101.033506
 30
0.0
 40
74.10781599999999
100
AcDbArc
 50
270.0
 51
282.2959989999993
  0
LINE
  5
4BBE
330
2A
100
AcDbEntity
  8
1
100
AcDbLine
 10
-246.957399
 20
-174.740145
 30
0.0
 11
-246.957399
 21
-177.680691
 31
0.0
  0
LINE
  5
4BBF
330
2A
100
AcDbEntity
  8
1
100
AcDbLine
 10
-250.1668910000001
 20
-173.441323
 30
0.0
 11
-262.739559
 21
-173.441323
 31
0.0
  0
LINE
  5
4BC0
330
2A
100
AcDbEntity
  8
1
100
AcDbLine
 10
-253.001823
 20
-173.441323
 30
0.0
 11
-252.9866049999999
 21
-173.441323
 31
0.0
  0
ARC
  5
4BC1
330
2A
100
AcDbEntity
  8
1
100
AcDbCircle
 10
-252.0018230000001
 20
-126.641323
 30
0.0
 40
2.0
100
AcDbArc
 50
90.0
 51
180.0
  0
ARC
  5
4BC2
330
2A
100
AcDbEntity
  8
1
100
AcDbCircle
 10
-262.739559
 20
-197.0491389999999
 30
0.0
 40
74.10781599999999
100
AcDbArc
 50
77.70400100000059
 51
90.0
  0
LINE
  5
4BC3
330
2A
100
AcDbEntity
  8
1
100
AcDbLine
 10
-246.957399
 20
-123.3424999999999
 30
0.0
 11
-246.957399
 21
-120.401954
 31
0.0
  0
LINE
  5
4BC4
330
2A
100
AcDbEntity
  8
1
100
AcDbLine
 10
-250.1668910000001
 20
-124.641323
 30
0.0
 11
-262.739559
 21
-124.641323
 31
0.0
  0
LINE
  5
4BC5
330
2A
100
AcDbEntity
  8
1
100
AcDbLine
 10
-253.001823
 20
-124.641323
 30
0.0
 11
-252.9866049999999
 21
-124.641323
 31
0.0
  0
ARC
  5
4BC6
330
2A
100
AcDbEntity
  8
1
100
AcDbCircle
 10
-249.239559
 20
-128.485367
 30
0.0
 40
8.0
100
AcDbArc
 50
180.0
 51
265.0000000000003
  0
ARC
  5
4BC7
330
2A
100
AcDbEntity
  8
1
100
AcDbCircle
 10
-246.0018230000001
 20
-128.768632
 30
0.0
 40
8.0
100
AcDbArc
 50
180.0
 51
265.0000000000003
  0
ARC
  5
4BC8
330
2A
100
AcDbEntity
  8
1
100
AcDbCircle
 10
-253.8583609999999
 20
-128.583184
 30
0.0
 40
8.0
100
AcDbArc
 50
180.0
 51
265.0000000000003
  0
LINE
  5
4BC9
330
2A
100
AcDbEntity
  8
1
100
AcDbLine
 10
-254.0018230000001
 20
-128.768632
 30
0.0
 11
-254.0018230000001
 21
-126.641323
 31
0.0
  0
ARC
  5
4BCA
330
2A
100
AcDbEntity
  8
1
100
AcDbCircle
 10
-259.739559
 20
-161.068543
 30
0.0
 40
1.0
100
AcDbArc
 50
180.0
 51
274.9999999999997
  0
ARC
  5
4BCB
330
2A
100
AcDbEntity
  8
1
100
AcDbCircle
 10
-258.239559
 20
-160.93731
 30
0.0
 40
1.0
100
AcDbArc
 50
180.0
 51
274.9999999999997
  0
ARC
  5
4BCC
330
2A
100
AcDbEntity
  8
1
100
AcDbCircle
 10
-259.739559
 20
-151.7413229999999
 30
0.0
 40
1.0
100
AcDbArc
 50
90.0
 51
180.0
  0
ARC
  5
4BCD
330
2A
100
AcDbEntity
  8
1
100
AcDbCircle
 10
-258.239559
 20
-151.7413229999999
 30
0.0
 40
1.0
100
AcDbArc
 50
90.0
 51
180.0
  0
LINE
  5
4BCE
330
2A
100
AcDbEntity
  8
1
100
AcDbLine
 10
-259.239559
 20
-151.7413229999999
 30
0.0
 11
-259.239559
 21
-160.93731
 31
0.0
  0
LINE
  5
4BCF
330
2A
100
AcDbEntity
  8
1
100
AcDbLine
 10
-260.739559
 20
-151.7413229999999
 30
0.0
 11
-260.739559
 21
-161.068543
 31
0.0
  0
LINE
  5
4BD0
330
2A
100
AcDbEntity
  8
1
100
AcDbLine
 10
-236.364737
 20
-160.5667449999999
 30
0.0
 11
-235.412363
 21
-160.244461
 31
0.0
  0
LINE
  5
4BD1
330
2A
100
AcDbEntity
  8
1
100
AcDbLine
 10
-237.077865
 20
-163.116538
 30
0.0
 11
-236.3980839999999
 21
-163.266976
 31
0.0
  0
ARC
  5
4BD2
330
2A
100
AcDbEntity
  8
1
100
AcDbCircle
 10
-237.762822
 20
-162.558815
 30
0.0
 40
0.5
100
AcDbArc
 50
274.9999999999997
 51
331.5776019999999
  0
ARC
  5
4BD3
330
2A
100
AcDbEntity
  8
1
100
AcDbCircle
 10
-237.0214129999999
 20
-161.088603
 30
0.0
 40
0.5
100
AcDbArc
 50
334.899963999999
 51
94.99999999999976
  0
ARC
  5
4BD4
330
2A
100
AcDbEntity
  8
1
100
AcDbCircle
 10
-236.460385
 20
-162.444867
 30
0.0
 40
1.0
100
AcDbArc
 50
274.9999999999997
 51
332.9764029999977
  0
ARC
  5
4BD5
330
2A
100
AcDbEntity
  8
1
100
AcDbCircle
 10
-235.762635
 20
-160.978474
 30
0.0
 40
1.0
100
AcDbArc
 50
336.1308550000003
 51
94.99999999999976
  0
LINE
  5
4BD6
330
2A
100
AcDbEntity
  8
1
100
AcDbLine
 10
-249.9368050000001
 20
-164.627721
 30
0.0
 11
-236.3732290000001
 21
-163.441061
 31
0.0
  0
LINE
  5
4BD7
330
2A
100
AcDbEntity
  8
1
100
AcDbLine
 10
-265.087369
 20
-162.540236
 30
0.0
 11
-235.849791
 21
-159.982279
 31
0.0
  0
ARC
  5
4BD8
330
2A
100
AcDbEntity
  8
1
100
AcDbCircle
 10
-262.739559
 20
-149.041323
 30
0.0
 40
28.9
100
AcDbArc
 50
331.5776019999999
 51
334.899963999999
  0
ARC
  5
4BD9
330
2A
100
AcDbEntity
  8
1
100
AcDbCircle
 10
-262.739559
 20
-149.041323
 30
0.0
 40
30.5
100
AcDbArc
 50
332.9764029999977
 51
336.1308550000003
  0
LINE
  5
4BDA
330
2A
100
AcDbEntity
  8
1
100
AcDbLine
 10
-254.555607
 20
-164.529903
 30
0.0
 11
-237.719244
 21
-163.056913
 31
0.0
  0
LINE
  5
4BDB
330
2A
100
AcDbEntity
  8
1
100
AcDbLine
 10
-259.436805
 20
-162.547785
 30
0.0
 11
-237.064991
 21
-160.590505
 31
0.0
  0
LINE
  5
4BDC
330
2A
100
AcDbEntity
  8
1
100
AcDbLine
 10
-260.739559
 20
-146.341323
 30
0.0
 11
-260.739559
 21
-140.0141019999999
 31
0.0
  0
LINE
  5
4BDD
330
2A
100
AcDbEntity
  8
1
100
AcDbLine
 10
-259.239559
 20
-146.341323
 30
0.0
 11
-259.239559
 21
-140.145335
 31
0.0
  0
ARC
  5
4BDE
330
2A
100
AcDbEntity
  8
1
100
AcDbCircle
 10
-259.739559
 20
-146.341323
 30
0.0
 40
1.0
100
AcDbArc
 50
180.0
 51
270.0
  0
ARC
  5
4BDF
330
2A
100
AcDbEntity
  8
1
100
AcDbCircle
 10
-258.239559
 20
-146.341323
 30
0.0
 40
1.0
100
AcDbArc
 50
180.0
 51
270.0
  0
ARC
  5
4BE0
330
2A
100
AcDbEntity
  8
1
100
AcDbCircle
 10
-259.739559
 20
-140.0141019999999
 30
0.0
 40
1.0
100
AcDbArc
 50
85.00000000000026
 51
180.0
  0
ARC
  5
4BE1
330
2A
100
AcDbEntity
  8
1
100
AcDbCircle
 10
-258.239559
 20
-140.145335
 30
0.0
 40
1.0
100
AcDbArc
 50
85.00000000000026
 51
180.0
  0
LINE
  5
4BE2
330
2A
100
AcDbEntity
  8
1
100
AcDbLine
 10
-235.227553
 20
-140.612799
 30
0.0
 11
-234.362485
 21
-140.9232779999999
 31
0.0
  0
LINE
  5
4BE3
330
2A
100
AcDbEntity
  8
1
100
AcDbLine
 10
-234.972453
 20
-137.9524589999999
 30
0.0
 11
-235.769969
 21
-138.136373
 31
0.0
  0
ARC
  5
4BE4
330
2A
100
AcDbEntity
  8
1
100
AcDbCircle
 10
-234.5936
 20
-140.206449
 30
0.0
 40
1.0
100
AcDbArc
 50
265.0000000000003
 51
17.42680900000214
  0
ARC
  5
4BE5
330
2A
100
AcDbEntity
  8
1
100
AcDbCircle
 10
-235.09003
 20
-138.7576689999999
 30
0.0
 40
1.0
100
AcDbArc
 50
20.40161199999873
 51
85.00000000000026
  0
ARC
  5
4BE6
330
2A
100
AcDbEntity
  8
1
100
AcDbCircle
 10
-235.783011
 20
-140.102389
 30
0.0
 40
0.5
100
AcDbArc
 50
265.0000000000003
 51
18.3457939999993
  0
ARC
  5
4BE7
330
2A
100
AcDbEntity
  8
1
100
AcDbCircle
 10
-236.308467
 20
-138.65107
 30
0.0
 40
0.5
100
AcDbArc
 50
21.46014700000074
 51
85.00000000000026
  0
LINE
  5
4BE8
330
2A
100
AcDbEntity
  8
1
100
AcDbLine
 10
-249.9368050000001
 20
-136.454925
 30
0.0
 11
-235.002874
 21
-137.761474
 31
0.0
  0
LINE
  5
4BE9
330
2A
100
AcDbEntity
  8
1
100
AcDbLine
 10
-265.087369
 20
-138.54241
 30
0.0
 11
-234.680756
 21
-141.2026439999999
 31
0.0
  0
ARC
  5
4BEA
330
2A
100
AcDbEntity
  8
1
100
AcDbCircle
 10
-262.739559
 20
-149.041323
 30
0.0
 40
28.9
100
AcDbArc
 50
18.3457939999993
 51
21.46014700000074
  0
LINE
  5
4BEB
330
2A
100
AcDbEntity
  8
1
100
AcDbLine
 10
-271.055929
 20
-150.7413229999999
 30
0.0
 11
-233.247865
 21
-150.7413229999999
 31
0.0
  0
LINE
  5
4BEC
330
2A
100
AcDbEntity
  8
1
100
AcDbLine
 10
-271.055929
 20
-147.341323
 30
0.0
 11
-233.247865
 21
-147.341323
 31
0.0
  0
LINE
  5
4BED
330
2A
100
AcDbEntity
  8
1
100
AcDbLine
 10
-254.555607
 20
-136.5527419999999
 30
0.0
 11
-236.264889
 21
-138.152972
 31
0.0
  0
LINE
  5
4BEE
330
2A
100
AcDbEntity
  8
1
100
AcDbLine
 10
-259.436805
 20
-138.53486
 30
0.0
 11
-235.826589
 21
-140.600486
 31
0.0
  0
LINE
  5
4BEF
330
2A
100
AcDbEntity
  8
1
100
AcDbLine
 10
-266.386009
 20
-147.841323
 30
0.0
 11
-234.3481870000001
 21
-147.841323
 31
0.0
  0
LINE
  5
4BF0
330
2A
100
AcDbEntity
  8
1
100
AcDbLine
 10
-266.386009
 20
-150.2413229999999
 30
0.0
 11
-234.3481870000001
 21
-150.2413229999999
 31
0.0
  0
LINE
  5
4BF1
330
2A
100
AcDbEntity
  8
1
100
AcDbLine
 10
-205.3421590000001
 20
183.399482
 30
0.0
 11
-205.3421590000001
 21
188.74296
 31
0.0
  0
LINE
  5
4BF2
330
2A
100
AcDbEntity
  8
1
  6
HIDDEN
 62
     4
370
    13
100
AcDbLine
 10
-205.3421590000001
 20
182.079595
 30
0.0
 11
-205.3421590000001
 21
183.399482
 31
0.0
  0
LINE
  5
4BF3
330
2A
100
AcDbEntity
  8
1
  6
HIDDEN
 62
     4
370
    13
100
AcDbLine
 10
-209.944535
 20
188.74296
 30
0.0
 11
-227.842159
 21
188.74296
 31
0.0
  0
LINE
  5
4BF4
330
2A
100
AcDbEntity
  8
1
100
AcDbLine
 10
-205.3421590000001
 20
188.74296
 30
0.0
 11
-209.944535
 21
188.74296
 31
0.0
  0
LINE
  5
4BF5
330
2A
100
AcDbEntity
  8
1
100
AcDbLine
 10
-208.853226
 20
189.74296
 30
0.0
 11
-206.342159
 21
189.74296
 31
0.0
  0
LINE
  5
4BF6
330
2A
100
AcDbEntity
  8
1
  6
HIDDEN
 62
     4
370
    13
100
AcDbLine
 10
-227.842159
 20
189.74296
 30
0.0
 11
-208.853226
 21
189.74296
 31
0.0
  0
LINE
  5
4BF7
330
2A
100
AcDbEntity
  8
1
  6
HIDDEN
 62
     4
370
    13
100
AcDbLine
 10
-306.6369569999999
 20
142.61796
 30
0.0
 11
-297.842159
 21
142.61796
 31
0.0
  0
LINE
  5
4BF8
330
2A
100
AcDbEntity
  8
1
100
AcDbLine
 10
-311.392159
 20
142.61796
 30
0.0
 11
-306.6369569999999
 21
142.61796
 31
0.0
  0
LINE
  5
4BF9
330
2A
100
AcDbEntity
  8
1
100
AcDbLine
 10
-307.2381049999999
 20
143.74296
 30
0.0
 11
-319.342159
 21
143.74296
 31
0.0
  0
LINE
  5
4BFA
330
2A
100
AcDbEntity
  8
1
  6
HIDDEN
 62
     4
370
    13
100
AcDbLine
 10
-297.842159
 20
143.74296
 30
0.0
 11
-307.2381049999999
 21
143.74296
 31
0.0
  0
LINE
  5
4BFB
330
2A
100
AcDbEntity
  8
1
  6
HIDDEN
 62
     4
370
    13
100
AcDbLine
 10
-307.742047
 20
144.74296
 30
0.0
 11
-297.842159
 21
144.74296
 31
0.0
  0
LINE
  5
4BFC
330
2A
100
AcDbEntity
  8
1
100
AcDbLine
 10
-320.342159
 20
144.74296
 30
0.0
 11
-307.742047
 21
144.74296
 31
0.0
  0
ARC
  5
4BFD
330
2A
100
AcDbEntity
  8
1
  6
HIDDEN
 62
     4
370
    13
100
AcDbCircle
 10
-311.995954
 20
161.24296
 30
0.0
 40
6.0
100
AcDbArc
 50
274.679964000003
 51
0.0
  0
ARC
  5
4BFE
330
2A
100
AcDbEntity
  8
1
100
AcDbCircle
 10
-311.995954
 20
161.24296
 30
0.0
 40
6.0
100
AcDbArc
 50
270.0
 51
274.679964000003
  0
ARC
  5
4BFF
330
2A
100
AcDbEntity
  8
1
  6
HIDDEN
 62
     4
370
    13
100
AcDbCircle
 10
-313.3421590000001
 20
162.294985
 30
0.0
 40
5.0
100
AcDbArc
 50
285.8409069999959
 51
0.0
  0
ARC
  5
4C00
330
2A
100
AcDbEntity
  8
1
100
AcDbCircle
 10
-313.3421590000001
 20
162.294985
 30
0.0
 40
5.0
100
AcDbArc
 50
285.0000000000017
 51
285.8382170000029
  0
LINE
  5
4C01
330
2A
100
AcDbEntity
  8
1
100
AcDbLine
 10
-312.752078
 20
163.74296
 30
0.0
 11
-312.842159
 21
163.74296
 31
0.0
  0
LINE
  5
4C02
330
2A
100
AcDbEntity
  8
1
  6
HIDDEN
 62
     4
370
    13
100
AcDbLine
 10
-297.842159
 20
163.74296
 30
0.0
 11
-312.752078
 21
163.74296
 31
0.0
  0
LINE
  5
4C03
330
2A
100
AcDbEntity
  8
1
100
AcDbLine
 10
-312.752078
 20
169.74296
 30
0.0
 11
-312.842159
 21
169.74296
 31
0.0
  0
LINE
  5
4C04
330
2A
100
AcDbEntity
  8
1
  6
HIDDEN
 62
     4
370
    13
100
AcDbLine
 10
-297.842159
 20
169.74296
 30
0.0
 11
-312.752078
 21
169.74296
 31
0.0
  0
ARC
  5
4C05
330
2A
100
AcDbEntity
  8
1
100
AcDbCircle
 10
-313.3421590000001
 20
171.1909349999999
 30
0.0
 40
5.0
100
AcDbArc
 50
74.16178299999709
 51
74.99999999999841
  0
ARC
  5
4C06
330
2A
100
AcDbEntity
  8
1
  6
HIDDEN
 62
     4
370
    13
100
AcDbCircle
 10
-313.3421590000001
 20
171.1909349999999
 30
0.0
 40
5.0
100
AcDbArc
 50
0.0
 51
74.16178299999709
  0
ARC
  5
4C07
330
2A
100
AcDbEntity
  8
1
100
AcDbCircle
 10
-311.995954
 20
172.24296
 30
0.0
 40
6.0
100
AcDbArc
 50
85.32003599999699
 51
90.0
  0
ARC
  5
4C08
330
2A
100
AcDbEntity
  8
1
  6
HIDDEN
 62
     4
370
    13
100
AcDbCircle
 10
-311.995954
 20
172.24296
 30
0.0
 40
6.0
100
AcDbArc
 50
0.0
 51
85.32003599999699
  0
LINE
  5
4C09
330
2A
100
AcDbEntity
  8
1
  6
HIDDEN
 62
     4
370
    13
100
AcDbLine
 10
-307.741809
 20
188.74296
 30
0.0
 11
-297.842159
 21
188.74296
 31
0.0
  0
LINE
  5
4C0A
330
2A
100
AcDbEntity
  8
1
100
AcDbLine
 10
-320.342159
 20
188.74296
 30
0.0
 11
-307.742047
 21
188.74296
 31
0.0
  0
LINE
  5
4C0B
330
2A
100
AcDbEntity
  8
1
100
AcDbLine
 10
-307.237867
 20
189.74296
 30
0.0
 11
-319.342159
 21
189.74296
 31
0.0
  0
LINE
  5
4C0C
330
2A
100
AcDbEntity
  8
1
  6
HIDDEN
 62
     4
370
    13
100
AcDbLine
 10
-297.842159
 20
189.74296
 30
0.0
 11
-307.237867
 21
189.74296
 31
0.0
  0
LINE
  5
4C0D
330
2A
100
AcDbEntity
  8
1
  6
HIDDEN
 62
     4
370
    13
100
AcDbLine
 10
-306.636719
 20
190.86796
 30
0.0
 11
-297.842159
 21
190.86796
 31
0.0
  0
LINE
  5
4C0E
330
2A
100
AcDbEntity
  8
1
100
AcDbLine
 10
-311.392159
 20
190.86796
 30
0.0
 11
-306.636719
 21
190.86796
 31
0.0
  0
LINE
  5
4C0F
330
2A
100
AcDbEntity
  8
1
  6
HIDDEN
 62
     4
370
    13
100
AcDbLine
 10
-308.342159
 20
171.1909349999999
 30
0.0
 11
-308.342159
 21
169.74296
 31
0.0
  0
LINE
  5
4C10
330
2A
100
AcDbEntity
  8
1
  6
HIDDEN
 62
     4
370
    13
100
AcDbLine
 10
-308.342159
 20
158.45846
 30
0.0
 11
-306.681204
 21
158.45846
 31
0.0
  0
LINE
  5
4C11
330
2A
100
AcDbEntity
  8
1
  6
HIDDEN
 62
     4
370
    13
100
AcDbLine
 10
-219.003113
 20
158.45846
 30
0.0
 11
-217.342159
 21
158.45846
 31
0.0
  0
LINE
  5
4C12
330
2A
100
AcDbEntity
  8
1
  6
HIDDEN
 62
     4
370
    13
100
AcDbLine
 10
-219.003113
 20
175.02746
 30
0.0
 11
-217.342159
 21
175.02746
 31
0.0
  0
LINE
  5
4C13
330
2A
100
AcDbEntity
  8
1
  6
HIDDEN
 62
     4
370
    13
100
AcDbLine
 10
-308.342159
 20
175.02746
 30
0.0
 11
-306.681204
 21
175.02746
 31
0.0
  0
CIRCLE
  5
4C14
330
2A
100
AcDbEntity
  8
1
100
AcDbCircle
 10
-262.841921
 20
-149.041323
 30
0.0
 40
50.5
  0
CIRCLE
  5
4C15
330
2A
100
AcDbEntity
  8
1
100
AcDbCircle
 10
-262.841921
 20
-149.041323
 30
0.0
 40
48.55
  0
CIRCLE
  5
4C16
330
2A
100
AcDbEntity
  8
1
100
AcDbCircle
 10
-262.841921
 20
-149.041323
 30
0.0
 40
38.5
  0
CIRCLE
  5
4C17
330
2A
100
AcDbEntity
  8
1
100
AcDbCircle
 10
-262.841921
 20
-149.041323
 30
0.0
 40
34.5
  0
ARC
  5
4C18
330
2A
100
AcDbEntity
  8
1
100
AcDbCircle
 10
-312.842159
 20
165.74296
 30
0.0
 40
2.0
100
AcDbArc
 50
180.0
 51
270.0
  0
ARC
  5
4C19
330
2A
100
AcDbEntity
  8
1
100
AcDbCircle
 10
-312.842159
 20
167.74296
 30
0.0
 40
2.0
100
AcDbArc
 50
90.0
 51
180.0
  0
LINE
  5
4C1A
330
2A
100
AcDbEntity
  8
1
100
AcDbLine
 10
-314.842159
 20
165.74296
 30
0.0
 11
-314.842159
 21
167.74296
 31
0.0
  0
ARC
  5
4C1B
330
2A
100
AcDbEntity
  8
1
  6
HIDDEN
 62
     4
370
    13
100
AcDbCircle
 10
-212.842159
 20
165.74296
 30
0.0
 40
2.0
100
AcDbArc
 50
270.0
 51
0.0
  0
ARC
  5
4C1C
330
2A
100
AcDbEntity
  8
1
  6
HIDDEN
 62
     4
370
    13
100
AcDbCircle
 10
-212.842159
 20
167.74296
 30
0.0
 40
2.0
100
AcDbArc
 50
0.0
 51
90.0
  0
LINE
  5
4C1D
330
2A
100
AcDbEntity
  8
1
  6
HIDDEN
 62
     4
370
    13
100
AcDbLine
 10
-227.842159
 20
163.74296
 30
0.0
 11
-212.842159
 21
163.74296
 31
0.0
  0
LINE
  5
4C1E
330
2A
100
AcDbEntity
  8
1
  6
HIDDEN
 62
     4
370
    13
100
AcDbLine
 10
-227.842159
 20
169.74296
 30
0.0
 11
-212.842159
 21
169.74296
 31
0.0
  0
LINE
  5
4C1F
330
2A
100
AcDbEntity
  8
1
  6
HIDDEN
 62
     4
370
    13
100
AcDbLine
 10
-210.842159
 20
165.74296
 30
0.0
 11
-210.842159
 21
167.74296
 31
0.0
  0
CIRCLE
  5
4C20
330
2A
100
AcDbEntity
  8
1
100
AcDbCircle
 10
-262.841921
 20
-149.041323
 30
0.0
 40
56.5
  0
LINE
  5
4C21
330
2A
100
AcDbEntity
  8
1
100
AcDbLine
 10
-281.941921
 20
-221.441323
 30
0.0
 11
-243.7419210000001
 21
-221.441323
 31
0.0
  0
LINE
  5
4C22
330
2A
100
AcDbEntity
  8
1
100
AcDbLine
 10
-281.841921
 20
-219.841323
 30
0.0
 11
-243.841921
 21
-219.841323
 31
0.0
  0
LINE
  5
4C23
330
2A
100
AcDbEntity
  8
1
100
AcDbLine
 10
-281.841921
 20
-213.041323
 30
0.0
 11
-281.841921
 21
-206.749641
 31
0.0
  0
LINE
  5
4C24
330
2A
100
AcDbEntity
  8
1
100
AcDbLine
 10
-281.841921
 20
-221.441323
 30
0.0
 11
-281.841921
 21
-218.343304
 31
0.0
  0
ARC
  5
4C25
330
2A
100
AcDbEntity
  8
1
100
AcDbCircle
 10
-284.0380729999999
 20
-218.558694
 30
0.0
 40
3.0
100
AcDbArc
 50
0.0
 51
74.99999999999841
  0
LINE
  5
4C26
330
2A
100
AcDbEntity
  8
1
100
AcDbLine
 10
-243.841921
 20
-213.041323
 30
0.0
 11
-243.841921
 21
-206.749641
 31
0.0
  0
LINE
  5
4C27
330
2A
100
AcDbEntity
  8
1
100
AcDbLine
 10
-243.841921
 20
-221.441323
 30
0.0
 11
-243.841921
 21
-218.343304
 31
0.0
  0
ARC
  5
4C28
330
2A
100
AcDbEntity
  8
1
100
AcDbCircle
 10
-241.645768
 20
-218.558694
 30
0.0
 40
3.0
100
AcDbArc
 50
105.0000000000016
 51
180.0
  0
LINE
  5
4C29
330
2A
100
AcDbEntity
  8
1
  6
CENTER
 62
     2
370
    13
100
AcDbLine
 10
-249.841921
 20
-212.021168
 30
0.0
 11
-249.841921
 21
-231.023624
 31
0.0
  0
LINE
  5
4C2A
330
2A
100
AcDbEntity
  8
1
  6
CENTER
 62
     2
370
    13
100
AcDbLine
 10
-275.841921
 20
-212.021168
 30
0.0
 11
-275.841921
 21
-231.023624
 31
0.0
  0
ARC
  5
4C2B
330
2A
100
AcDbEntity
  8
1
100
AcDbCircle
 10
-284.8419209999999
 20
-218.343304
 30
0.0
 40
3.0
100
AcDbArc
 50
0.0
 51
74.99999999999841
  0
ARC
  5
4C2C
330
2A
100
AcDbEntity
  8
1
100
AcDbCircle
 10
-240.8419209999999
 20
-218.343304
 30
0.0
 40
3.0
100
AcDbArc
 50
105.0000000000016
 51
180.0
  0
ARC
  5
4C2D
330
2A
100
AcDbEntity
  8
1
100
AcDbCircle
 10
-301.3419209999999
 20
-206.675209
 30
0.0
 40
4.0
100
AcDbArc
 50
180.0
 51
254.9999999999984
  0
ARC
  5
4C2E
330
2A
100
AcDbEntity
  8
1
100
AcDbCircle
 10
-301.3419209999999
 20
-206.368584
 30
0.0
 40
4.0
100
AcDbArc
 50
144.5505720000008
 51
180.0
  0
ARC
  5
4C2F
330
2A
100
AcDbEntity
  8
1
100
AcDbCircle
 10
-312.3393960000001
 20
-198.538797
 30
0.0
 40
9.5
100
AcDbArc
 50
324.5505720000009
 51
338.5781779999996
  0
ARC
  5
4C30
330
2A
100
AcDbEntity
  8
1
100
AcDbCircle
 10
-308.803862
 20
-195.0032629999999
 30
0.0
 40
7.5
100
AcDbArc
 50
338.5781779999996
 51
45.0
  0
LINE
  5
4C31
330
2A
100
AcDbEntity
  8
1
100
AcDbLine
 10
-301.8219859999998
 20
-197.742499
 30
0.0
 11
-303.495686
 21
-202.008495
 31
0.0
  0
ARC
  5
4C32
330
2A
100
AcDbEntity
  8
1
100
AcDbCircle
 10
-224.3419209999999
 20
-206.675209
 30
0.0
 40
4.0
100
AcDbArc
 50
285.0000000000017
 51
0.0
  0
ARC
  5
4C33
330
2A
100
AcDbEntity
  8
1
100
AcDbCircle
 10
-224.3419209999999
 20
-206.368584
 30
0.0
 40
4.0
100
AcDbArc
 50
0.0
 51
35.44942799999918
  0
ARC
  5
4C34
330
2A
100
AcDbEntity
  8
1
100
AcDbCircle
 10
-213.3444460000001
 20
-198.538797
 30
0.0
 40
9.5
100
AcDbArc
 50
201.4218220000004
 51
215.4494279999992
  0
ARC
  5
4C35
330
2A
100
AcDbEntity
  8
1
100
AcDbCircle
 10
-216.87998
 20
-195.0032629999999
 30
0.0
 40
7.5
100
AcDbArc
 50
135.0
 51
201.4218220000004
  0
LINE
  5
4C36
330
2A
100
AcDbEntity
  8
1
100
AcDbLine
 10
-223.861856
 20
-197.742499
 30
0.0
 11
-222.1881559999999
 21
-202.008495
 31
0.0
  0
LINE
  5
4C37
330
2A
100
AcDbEntity
  8
1
100
AcDbLine
 10
-220.3419209999999
 20
-206.675209
 30
0.0
 11
-220.3419209999999
 21
-206.368584
 31
0.0
  0
LINE
  5
4C38
330
2A
100
AcDbEntity
  8
1
100
AcDbLine
 10
-305.3419209999999
 20
-206.675209
 30
0.0
 11
-305.3419209999999
 21
-206.368584
 31
0.0
  0
ARC
  5
4C39
330
2A
100
AcDbEntity
  8
1
100
AcDbCircle
 10
-278.841921
 20
-213.041323
 30
0.0
 40
3.0
100
AcDbArc
 50
180.0
 51
270.0
  0
ARC
  5
4C3A
330
2A
100
AcDbEntity
  8
1
100
AcDbCircle
 10
-246.8419209999999
 20
-213.041323
 30
0.0
 40
3.0
100
AcDbArc
 50
270.0
 51
0.0
  0
LINE
  5
4C3B
330
2A
100
AcDbEntity
  8
1
100
AcDbLine
 10
-283.261616
 20
-215.660917
 30
0.0
 11
-302.377197
 21
-210.538912
 31
0.0
  0
LINE
  5
4C3C
330
2A
100
AcDbEntity
  8
1
100
AcDbLine
 10
-242.4222259999999
 20
-215.660917
 30
0.0
 11
-223.306645
 21
-210.538912
 31
0.0
  0
LINE
  5
4C3D
330
2A
100
AcDbEntity
  8
1
100
AcDbLine
 10
-278.841921
 20
-216.041323
 30
0.0
 11
-246.8419209999999
 21
-216.041323
 31
0.0
  0
ARC
  5
4C3E
330
2A
100
AcDbEntity
  8
1
100
AcDbCircle
 10
-286.8419209999999
 20
-206.749641
 30
0.0
 40
5.0
100
AcDbArc
 50
0.0
 51
67.41832700000395
  0
ARC
  5
4C3F
330
2A
100
AcDbEntity
  8
1
100
AcDbCircle
 10
-238.8419209999999
 20
-206.749641
 30
0.0
 40
5.0
100
AcDbArc
 50
112.581672999996
 51
180.0
  0
LINE
  5
4C40
330
2A
100
AcDbEntity
  8
1
100
AcDbLine
 10
-281.841921
 20
-219.041323
 30
0.0
 11
-243.841921
 21
-219.041323
 31
0.0
  0
ARC
  5
4C41
330
2A
100
AcDbEntity
  8
1
100
AcDbCircle
 10
-311.490611
 20
-85.19283000000001
 30
0.0
 40
3.351309999999998
100
AcDbArc
 50
121.6741490000026
 51
180.0
  0
ARC
  5
4C42
330
2A
100
AcDbEntity
  8
1
100
AcDbCircle
 10
-310.841921
 20
-85.19283000000001
 30
0.0
 40
4.0
100
AcDbArc
 50
180.0
 51
255.4530979999984
  0
LINE
  5
4C43
330
2A
100
AcDbEntity
  8
1
100
AcDbLine
 10
-303.495686
 20
-96.07415000000003
 30
0.0
 11
-301.8219859999998
 21
-100.340147
 31
0.0
  0
LINE
  5
4C44
330
2A
100
AcDbEntity
  8
1
100
AcDbLine
 10
-309.144572
 20
-90.26790600000003
 30
0.0
 11
-307.101105
 21
-91.61855200000003
 31
0.0
  0
ARC
  5
4C45
330
2A
100
AcDbEntity
  8
1
100
AcDbCircle
 10
-314.107162
 20
-97.77608099999998
 30
0.0
 40
9.0
100
AcDbArc
 50
56.53695900000126
 51
75.45309799999829
  0
ARC
  5
4C46
330
2A
100
AcDbEntity
  8
1
100
AcDbCircle
 10
-312.3393960000001
 20
-99.54384800000005
 30
0.0
 40
9.5
100
AcDbArc
 50
21.42182200000043
 51
56.53695900000126
  0
ARC
  5
4C47
330
2A
100
AcDbEntity
  8
1
100
AcDbCircle
 10
-308.803862
 20
-103.079382
 30
0.0
 40
7.5
100
AcDbArc
 50
315.0
 51
21.42182200000043
  0
ARC
  5
4C48
330
2A
100
AcDbEntity
  8
1
100
AcDbCircle
 10
-214.193231
 20
-85.19283000000001
 30
0.0
 40
3.351309999999998
100
AcDbArc
 50
0.0
 51
58.32585099999739
  0
ARC
  5
4C49
330
2A
100
AcDbEntity
  8
1
100
AcDbCircle
 10
-214.841921
 20
-85.19283000000001
 30
0.0
 40
4.0
100
AcDbArc
 50
284.5469020000017
 51
0.0
  0
LINE
  5
4C4A
330
2A
100
AcDbEntity
  8
1
100
AcDbLine
 10
-222.1881559999999
 20
-96.07415000000003
 30
0.0
 11
-223.861856
 21
-100.340147
 31
0.0
  0
LINE
  5
4C4B
330
2A
100
AcDbEntity
  8
1
100
AcDbLine
 10
-216.53927
 20
-90.26790600000003
 30
0.0
 11
-218.5827360000001
 21
-91.61855200000003
 31
0.0
  0
ARC
  5
4C4C
330
2A
100
AcDbEntity
  8
1
100
AcDbCircle
 10
-211.576679
 20
-97.77608099999998
 30
0.0
 40
9.0
100
AcDbArc
 50
104.5469020000017
 51
123.4630409999987
  0
ARC
  5
4C4D
330
2A
100
AcDbEntity
  8
1
100
AcDbCircle
 10
-213.3444460000001
 20
-99.54384800000005
 30
0.0
 40
9.5
100
AcDbArc
 50
123.4630409999987
 51
158.5781779999996
  0
ARC
  5
4C4E
330
2A
100
AcDbEntity
  8
1
100
AcDbCircle
 10
-216.87998
 20
-103.079382
 30
0.0
 40
7.5
100
AcDbArc
 50
158.5781779999996
 51
225.0
  0
ARC
  5
4C4F
330
2A
100
AcDbEntity
  8
1
100
AcDbCircle
 10
-287.841921
 20
-61.03161399999999
 30
0.0
 40
10.0
100
AcDbArc
 50
283.6416770000035
 51
0.0
  0
ARC
  5
4C50
330
2A
100
AcDbEntity
  8
1
100
AcDbCircle
 10
-237.841921
 20
-61.03161399999999
 30
0.0
 40
10.0
100
AcDbArc
 50
180.0
 51
256.3583229999965
  0
ARC
  5
4C51
330
2A
100
AcDbEntity
  8
1
100
AcDbCircle
 10
-262.841921
 20
-164.041323
 30
0.0
 40
96.0
100
AcDbArc
 50
103.6416770000035
 51
121.6741490000026
  0
ARC
  5
4C52
330
2A
100
AcDbEntity
  8
1
100
AcDbCircle
 10
-262.841921
 20
-164.041323
 30
0.0
 40
96.0
100
AcDbArc
 50
58.32585099999739
 51
76.35832299999653
  0
ARC
  5
4C53
330
2A
100
AcDbEntity
  8
1
100
AcDbCircle
 10
-282.8419209999999
 20
-89.82772599999998
 30
0.0
 40
5.0
100
AcDbArc
 50
288.6629250000036
 51
0.0
  0
ARC
  5
4C54
330
2A
100
AcDbEntity
  8
1
100
AcDbCircle
 10
-242.8419209999999
 20
-89.82772599999998
 30
0.0
 40
5.0
100
AcDbArc
 50
180.0
 51
251.3370749999964
  0
CIRCLE
  5
4C55
330
2A
100
AcDbEntity
  8
1
100
AcDbCircle
 10
-262.841921
 20
-149.041323
 30
0.0
 40
57.5
  0
ARC
  5
4C56
330
2A
100
AcDbEntity
  8
1
100
AcDbCircle
 10
-257.8419209999999
 20
-25.95022499999999
 30
0.0
 40
2.0
100
AcDbArc
 50
180.0
 51
270.0
  0
ARC
  5
4C57
330
2A
100
AcDbEntity
  8
1
100
AcDbCircle
 10
-267.8419209999999
 20
-25.95022499999999
 30
0.0
 40
2.0
100
AcDbArc
 50
270.0
 51
0.0
  0
ARC
  5
4C58
330
2A
100
AcDbEntity
  8
1
100
AcDbCircle
 10
-267.8419209999999
 20
-12.04132299999997
 30
0.0
 40
2.0
100
AcDbArc
 50
0.0
 51
90.0
  0
ARC
  5
4C59
330
2A
100
AcDbEntity
  8
1
100
AcDbCircle
 10
-257.8419209999999
 20
-12.04132299999997
 30
0.0
 40
2.0
100
AcDbArc
 50
90.0
 51
180.0
  0
LINE
  5
4C5A
330
2A
100
AcDbEntity
  8
1
100
AcDbLine
 10
-259.8419209999999
 20
-25.95022499999999
 30
0.0
 11
-259.8419209999999
 21
-12.04132299999997
 31
0.0
  0
LINE
  5
4C5B
330
2A
100
AcDbEntity
  8
1
100
AcDbLine
 10
-265.8419209999999
 20
-25.95022499999999
 30
0.0
 11
-265.8419209999999
 21
-12.04132299999997
 31
0.0
  0
LINE
  5
4C5C
330
2A
100
AcDbEntity
  8
1
100
AcDbLine
 10
-259.8419209999999
 20
-27.95022499999999
 30
0.0
 11
-265.8419209999999
 21
-27.95022499999999
 31
0.0
  0
ARC
  5
4C5D
330
2A
100
AcDbEntity
  8
1
100
AcDbCircle
 10
-295.841921
 20
-27.95022499999999
 30
0.0
 40
18.0
100
AcDbArc
 50
0.0
 51
84.7840909999992
  0
ARC
  5
4C5E
330
2A
100
AcDbEntity
  8
1
100
AcDbCircle
 10
-229.841921
 20
-27.95022499999999
 30
0.0
 40
18.0
100
AcDbArc
 50
147.1412919999981
 51
180.0
  0
ARC
  5
4C5F
330
2A
100
AcDbEntity
  8
1
100
AcDbCircle
 10
-282.8419209999999
 20
-15.04132300000003
 30
0.0
 40
5.0
100
AcDbArc
 50
0.0
 51
90.0
  0
ARC
  5
4C60
330
2A
100
AcDbEntity
  8
1
100
AcDbCircle
 10
-242.8419209999999
 20
-15.04132300000003
 30
0.0
 40
5.0
100
AcDbArc
 50
126.1749309999981
 51
180.0
  0
LINE
  5
4C61
330
2A
100
AcDbEntity
  8
1
100
AcDbLine
 10
-247.841921
 20
-89.82772599999998
 30
0.0
 11
-247.841921
 21
-15.04132300000003
 31
0.0
  0
LINE
  5
4C62
330
2A
100
AcDbEntity
  8
1
100
AcDbLine
 10
-277.841921
 20
-89.82772599999998
 30
0.0
 11
-277.841921
 21
-15.04132300000003
 31
0.0
  0
ARC
  5
4C63
330
2A
100
AcDbEntity
  8
1
100
AcDbCircle
 10
-293.841921
 20
-6.041322999999977
 30
0.0
 40
4.0
100
AcDbArc
 50
180.0
 51
270.0
  0
ARC
  5
4C64
330
2A
100
AcDbEntity
  8
1
100
AcDbCircle
 10
-231.841921
 20
-6.041322999999977
 30
0.0
 40
4.0
100
AcDbArc
 50
270.0
 51
0.0
  0
LINE
  5
4C65
330
2A
100
AcDbEntity
  8
1
100
AcDbLine
 10
-295.290658
 20
-10.04132299999997
 30
0.0
 11
-230.393184
 21
-10.04132299999997
 31
0.0
  0
LINE
  5
4C66
330
2A
100
AcDbEntity
  8
1
100
AcDbLine
 10
-297.841921
 20
-6.041322999999977
 30
0.0
 11
-297.841921
 21
1.958677000000021
 31
0.0
  0
LINE
  5
4C67
330
2A
100
AcDbEntity
  8
1
100
AcDbLine
 10
-227.841921
 20
-6.041322999999977
 30
0.0
 11
-227.841921
 21
1.958677000000021
 31
0.0
  0
LINE
  5
4C68
330
2A
100
AcDbEntity
  8
1
  6
HIDDEN
 62
     4
370
    13
100
AcDbLine
 10
-299.868743
 20
155.8909509999999
 30
0.0
 11
-297.842159
 21
156.290369
 31
0.0
  0
LINE
  5
4C69
330
2A
100
AcDbEntity
  8
1
  6
HIDDEN
 62
     4
370
    13
100
AcDbLine
 10
-303.1565479999999
 20
169.74296
 30
0.0
 11
-303.1565479999999
 21
172.24296
 31
0.0
  0
LINE
  5
4C6A
330
2A
100
AcDbEntity
  8
1
  6
HIDDEN
 62
     4
370
    13
100
AcDbLine
 10
-303.1565479999999
 20
161.24296
 30
0.0
 11
-303.1565479999999
 21
163.74296
 31
0.0
  0
LINE
  5
4C6B
330
2A
100
AcDbEntity
  8
1
  6
HIDDEN
 62
     4
370
    13
100
AcDbLine
 10
-305.995954
 20
169.74296
 30
0.0
 11
-305.995954
 21
172.24296
 31
0.0
  0
LINE
  5
4C6C
330
2A
100
AcDbEntity
  8
1
  6
HIDDEN
 62
     4
370
    13
100
AcDbLine
 10
-305.995954
 20
161.24296
 30
0.0
 11
-305.995954
 21
163.74296
 31
0.0
  0
LINE
  5
4C6D
330
2A
100
AcDbEntity
  8
1
  6
HIDDEN
 62
     4
370
    13
100
AcDbLine
 10
-308.342159
 20
162.294985
 30
0.0
 11
-308.342159
 21
163.74296
 31
0.0
  0
LINE
  5
4C6E
330
2A
100
AcDbEntity
  8
1
  6
HIDDEN
 62
     4
370
    13
100
AcDbLine
 10
-299.868743
 20
177.594969
 30
0.0
 11
-297.842159
 21
177.195551
 31
0.0
  0
ARC
  5
4C6F
330
2A
100
AcDbEntity
  8
1
100
AcDbCircle
 10
-312.342159
 20
144.3205239999999
 30
0.0
 40
1.0
100
AcDbArc
 50
215.2793840000022
 51
240.018360999998
  0
ARC
  5
4C70
330
2A
100
AcDbEntity
  8
1
100
AcDbCircle
 10
-312.342159
 20
189.165396
 30
0.0
 40
1.0
100
AcDbArc
 50
119.981639000002
 51
144.7206159999977
  0
LINE
  5
4C71
330
2A
100
AcDbEntity
  8
1
100
AcDbLine
 10
-311.392159
 20
142.61796
 30
0.0
 11
-312.8418810000001
 21
143.454338
 31
0.0
  0
LINE
  5
4C72
330
2A
100
AcDbEntity
  8
1
100
AcDbLine
 10
-311.392159
 20
190.86796
 30
0.0
 11
-312.8418810000001
 21
190.031582
 31
0.0
  0
ARC
  5
4C73
330
2A
100
AcDbEntity
  8
1
100
AcDbCircle
 10
-315.3421590000001
 20
151.406325
 30
0.0
 40
5.0
100
AcDbArc
 50
105.0000000000016
 51
180.0
  0
ARC
  5
4C74
330
2A
100
AcDbEntity
  8
1
100
AcDbCircle
 10
-315.3421590000001
 20
182.079595
 30
0.0
 40
5.0
100
AcDbArc
 50
180.0
 51
254.9999999999984
  0
LINE
  5
4C75
330
2A
100
AcDbEntity
  8
1
100
AcDbLine
 10
-320.342159
 20
182.079595
 30
0.0
 11
-320.342159
 21
188.74296
 31
0.0
  0
LINE
  5
4C76
330
2A
100
AcDbEntity
  8
1
100
AcDbLine
 10
-320.342159
 20
144.74296
 30
0.0
 11
-320.342159
 21
151.406325
 31
0.0
  0
LINE
  5
4C77
330
2A
100
AcDbEntity
  8
1
100
AcDbLine
 10
-316.636254
 20
156.235954
 30
0.0
 11
-312.0480640000001
 21
157.465356
 31
0.0
  0
LINE
  5
4C78
330
2A
100
AcDbEntity
  8
1
100
AcDbLine
 10
-316.636254
 20
177.249966
 30
0.0
 11
-312.0480640000001
 21
176.020564
 31
0.0
  0
ARC
  5
4C79
330
2A
100
AcDbEntity
  8
1
  6
HIDDEN
 62
     4
370
    13
100
AcDbCircle
 10
-297.1565479999999
 20
172.24296
 30
0.0
 40
6.0
100
AcDbArc
 50
96.56142999999538
 51
180.0
  0
ARC
  5
4C7A
330
2A
100
AcDbEntity
  8
1
  6
HIDDEN
 62
     4
370
    13
100
AcDbCircle
 10
-297.1565479999999
 20
161.24296
 30
0.0
 40
6.0
100
AcDbArc
 50
180.0
 51
263.4385700000046
  0
LINE
  5
4C7B
330
2A
100
AcDbEntity
  8
1
100
AcDbLine
 10
-311.995954
 20
155.24296
 30
0.0
 11
-318.548439
 21
155.24296
 31
0.0
  0
LINE
  5
4C7C
330
2A
100
AcDbEntity
  8
1
100
AcDbLine
 10
-311.995954
 20
178.24296
 30
0.0
 11
-318.548439
 21
178.24296
 31
0.0
  0
LINE
  5
4C7D
330
2A
100
AcDbEntity
  8
1
100
AcDbLine
 10
-320.342159
 20
144.74296
 30
0.0
 11
-319.342159
 21
143.74296
 31
0.0
  0
LINE
  5
4C7E
330
2A
100
AcDbEntity
  8
1
100
AcDbLine
 10
-319.342159
 20
189.74296
 30
0.0
 11
-320.342159
 21
188.74296
 31
0.0
  0
LINE
  5
4C7F
330
2A
100
AcDbEntity
  8
1
  6
HIDDEN
 62
     4
370
    13
100
AcDbLine
 10
-225.815575
 20
155.8909509999999
 30
0.0
 11
-227.842159
 21
156.290369
 31
0.0
  0
LINE
  5
4C80
330
2A
100
AcDbEntity
  8
1
  6
HIDDEN
 62
     4
370
    13
100
AcDbLine
 10
-222.527769
 20
169.74296
 30
0.0
 11
-222.527769
 21
172.24296
 31
0.0
  0
LINE
  5
4C81
330
2A
100
AcDbEntity
  8
1
  6
HIDDEN
 62
     4
370
    13
100
AcDbLine
 10
-222.527769
 20
161.24296
 30
0.0
 11
-222.527769
 21
163.74296
 31
0.0
  0
LINE
  5
4C82
330
2A
100
AcDbEntity
  8
1
  6
HIDDEN
 62
     4
370
    13
100
AcDbLine
 10
-219.688364
 20
169.74296
 30
0.0
 11
-219.688364
 21
172.24296
 31
0.0
  0
LINE
  5
4C83
330
2A
100
AcDbEntity
  8
1
  6
HIDDEN
 62
     4
370
    13
100
AcDbLine
 10
-219.688364
 20
161.24296
 30
0.0
 11
-219.688364
 21
163.74296
 31
0.0
  0
LINE
  5
4C84
330
2A
100
AcDbEntity
  8
1
  6
HIDDEN
 62
     4
370
    13
100
AcDbLine
 10
-217.342159
 20
169.74296
 30
0.0
 11
-217.342159
 21
171.1909349999999
 31
0.0
  0
LINE
  5
4C85
330
2A
100
AcDbEntity
  8
1
  6
HIDDEN
 62
     4
370
    13
100
AcDbLine
 10
-217.342159
 20
162.294985
 30
0.0
 11
-217.342159
 21
163.74296
 31
0.0
  0
LINE
  5
4C86
330
2A
100
AcDbEntity
  8
1
  6
HIDDEN
 62
     4
370
    13
100
AcDbLine
 10
-225.815575
 20
177.594969
 30
0.0
 11
-227.842159
 21
177.195551
 31
0.0
  0
ARC
  5
4C87
330
2A
100
AcDbEntity
  8
1
  6
HIDDEN
 62
     4
370
    13
100
AcDbCircle
 10
-213.3421590000001
 20
144.3205239999999
 30
0.0
 40
1.0
100
AcDbArc
 50
299.981639000002
 51
324.7206159999977
  0
ARC
  5
4C88
330
2A
100
AcDbEntity
  8
1
  6
HIDDEN
 62
     4
370
    13
100
AcDbCircle
 10
-213.3421590000001
 20
189.165396
 30
0.0
 40
1.0
100
AcDbArc
 50
35.27938400000226
 51
60.01836099999802
  0
LINE
  5
4C89
330
2A
100
AcDbEntity
  8
1
  6
HIDDEN
 62
     4
370
    13
100
AcDbLine
 10
-214.292159
 20
142.61796
 30
0.0
 11
-212.842436
 21
143.454338
 31
0.0
  0
LINE
  5
4C8A
330
2A
100
AcDbEntity
  8
1
  6
HIDDEN
 62
     4
370
    13
100
AcDbLine
 10
-214.292159
 20
190.86796
 30
0.0
 11
-212.842436
 21
190.031582
 31
0.0
  0
LINE
  5
4C8B
330
2A
100
AcDbEntity
  8
1
  6
HIDDEN
 62
     4
370
    13
100
AcDbLine
 10
-214.292159
 20
190.86796
 30
0.0
 11
-227.842159
 21
190.86796
 31
0.0
  0
LINE
  5
4C8C
330
2A
100
AcDbEntity
  8
1
  6
HIDDEN
 62
     4
370
    13
100
AcDbLine
 10
-214.292159
 20
142.61796
 30
0.0
 11
-227.842159
 21
142.61796
 31
0.0
  0
ARC
  5
4C8D
330
2A
100
AcDbEntity
  8
1
  6
HIDDEN
 62
     4
370
    13
100
AcDbCircle
 10
-210.342159
 20
151.406325
 30
0.0
 40
5.0
100
AcDbArc
 50
0.0
 51
74.99999999999841
  0
ARC
  5
4C8E
330
2A
100
AcDbEntity
  8
1
  6
HIDDEN
 62
     4
370
    13
100
AcDbCircle
 10
-210.342159
 20
182.079595
 30
0.0
 40
5.0
100
AcDbArc
 50
285.0000000000017
 51
0.0
  0
ARC
  5
4C8F
330
2A
100
AcDbEntity
  8
1
  6
HIDDEN
 62
     4
370
    13
100
AcDbCircle
 10
-212.342159
 20
162.294985
 30
0.0
 40
5.0
100
AcDbArc
 50
180.0
 51
254.9999999999984
  0
ARC
  5
4C90
330
2A
100
AcDbEntity
  8
1
  6
HIDDEN
 62
     4
370
    13
100
AcDbCircle
 10
-212.342159
 20
171.1909349999999
 30
0.0
 40
5.0
100
AcDbArc
 50
105.0000000000016
 51
180.0
  0
LINE
  5
4C91
330
2A
100
AcDbEntity
  8
1
  6
HIDDEN
 62
     4
370
    13
100
AcDbLine
 10
-205.3421590000001
 20
144.74296
 30
0.0
 11
-205.3421590000001
 21
151.406325
 31
0.0
  0
LINE
  5
4C92
330
2A
100
AcDbEntity
  8
1
  6
HIDDEN
 62
     4
370
    13
100
AcDbLine
 10
-209.048064
 20
156.235954
 30
0.0
 11
-213.636254
 21
157.465356
 31
0.0
  0
LINE
  5
4C93
330
2A
100
AcDbEntity
  8
1
  6
HIDDEN
 62
     4
370
    13
100
AcDbLine
 10
-209.048064
 20
177.249966
 30
0.0
 11
-213.636254
 21
176.020564
 31
0.0
  0
ARC
  5
4C94
330
2A
100
AcDbEntity
  8
1
  6
HIDDEN
 62
     4
370
    13
100
AcDbCircle
 10
-228.527769
 20
172.24296
 30
0.0
 40
6.0
100
AcDbArc
 50
0.0
 51
83.43857000000463
  0
ARC
  5
4C95
330
2A
100
AcDbEntity
  8
1
  6
HIDDEN
 62
     4
370
    13
100
AcDbCircle
 10
-228.527769
 20
161.24296
 30
0.0
 40
6.0
100
AcDbArc
 50
276.5614299999954
 51
0.0
  0
ARC
  5
4C96
330
2A
100
AcDbEntity
  8
1
  6
HIDDEN
 62
     4
370
    13
100
AcDbCircle
 10
-213.688364
 20
161.24296
 30
0.0
 40
6.0
100
AcDbArc
 50
180.0
 51
270.0
  0
ARC
  5
4C97
330
2A
100
AcDbEntity
  8
1
  6
HIDDEN
 62
     4
370
    13
100
AcDbCircle
 10
-213.688364
 20
172.24296
 30
0.0
 40
6.0
100
AcDbArc
 50
90.0
 51
180.0
  0
LINE
  5
4C98
330
2A
100
AcDbEntity
  8
1
  6
HIDDEN
 62
     4
370
    13
100
AcDbLine
 10
-213.688364
 20
155.24296
 30
0.0
 11
-207.1358790000001
 21
155.24296
 31
0.0
  0
LINE
  5
4C99
330
2A
100
AcDbEntity
  8
1
  6
HIDDEN
 62
     4
370
    13
100
AcDbLine
 10
-213.688364
 20
178.24296
 30
0.0
 11
-207.1358790000001
 21
178.24296
 31
0.0
  0
LINE
  5
4C9A
330
2A
100
AcDbEntity
  8
1
  6
HIDDEN
 62
     4
370
    13
100
AcDbLine
 10
-205.3421590000001
 20
144.74296
 30
0.0
 11
-227.842159
 21
144.74296
 31
0.0
  0
LINE
  5
4C9B
330
2A
100
AcDbEntity
  8
1
  6
HIDDEN
 62
     4
370
    13
100
AcDbLine
 10
-205.3421590000001
 20
144.74296
 30
0.0
 11
-206.342159
 21
143.74296
 31
0.0
  0
LINE
  5
4C9C
330
2A
100
AcDbEntity
  8
1
100
AcDbLine
 10
-206.342159
 20
189.74296
 30
0.0
 11
-205.3421590000001
 21
188.74296
 31
0.0
  0
LINE
  5
4C9D
330
2A
100
AcDbEntity
  8
1
  6
HIDDEN
 62
     4
370
    13
100
AcDbLine
 10
-227.842159
 20
143.74296
 30
0.0
 11
-206.342159
 21
143.74296
 31
0.0
  0
LINE
  5
4C9E
330
2A
100
AcDbEntity
  8
1
100
AcDbLine
 10
-275.841921
 20
-221.441323
 30
0.0
 11
-275.341921
 21
-222.941323
 31
0.0
  0
LINE
  5
4C9F
330
2A
100
AcDbEntity
  8
1
100
AcDbLine
 10
-275.841921
 20
-222.941323
 30
0.0
 11
-276.3419209999999
 21
-221.441323
 31
0.0
  0
LINE
  5
4CA0
330
2A
100
AcDbEntity
  8
1
100
AcDbLine
 10
-281.941921
 20
-222.941323
 30
0.0
 11
-281.941921
 21
-221.441323
 31
0.0
  0
LINE
  5
4CA1
330
2A
100
AcDbEntity
  8
1
100
AcDbLine
 10
-269.741921
 20
-221.441323
 30
0.0
 11
-269.741921
 21
-222.941323
 31
0.0
  0
ARC
  5
4CA2
330
2A
100
AcDbEntity
  8
1
100
AcDbCircle
 10
-280.1544209999999
 20
-224.60262
 30
0.0
 40
2.341226999999999
100
AcDbArc
 50
232.1211210000014
 51
307.8788789999986
  0
LINE
  5
4CA3
330
2A
100
AcDbEntity
  8
1
100
AcDbLine
 10
-278.716921
 20
-222.941323
 30
0.0
 11
-278.716921
 21
-226.450575
 31
0.0
  0
LINE
  5
4CA4
330
2A
100
AcDbEntity
  8
1
100
AcDbLine
 10
-280.741921
 20
-226.941323
 30
0.0
 11
-270.941921
 21
-226.941323
 31
0.0
  0
LINE
  5
4CA5
330
2A
100
AcDbEntity
  8
1
100
AcDbLine
 10
-281.591921
 20
-226.450575
 30
0.0
 11
-280.741921
 21
-226.941323
 31
0.0
  0
LINE
  5
4CA6
330
2A
100
AcDbEntity
  8
1
100
AcDbLine
 10
-281.591921
 20
-222.941323
 30
0.0
 11
-281.591921
 21
-226.450575
 31
0.0
  0
ARC
  5
4CA7
330
2A
100
AcDbEntity
  8
1
100
AcDbCircle
 10
-275.841921
 20
-218.3188470000001
 30
0.0
 40
8.625
100
AcDbArc
 50
250.5287770000021
 51
289.4712189999984
  0
ARC
  5
4CA8
330
2A
100
AcDbEntity
  8
1
100
AcDbCircle
 10
-271.529421
 20
-224.60262
 30
0.0
 40
2.341226999999999
100
AcDbArc
 50
232.1211210000014
 51
307.8788789999986
  0
LINE
  5
4CA9
330
2A
100
AcDbEntity
  8
1
100
AcDbLine
 10
-272.9669209999999
 20
-222.941323
 30
0.0
 11
-272.9669209999999
 21
-226.450575
 31
0.0
  0
LINE
  5
4CAA
330
2A
100
AcDbEntity
  8
1
100
AcDbLine
 10
-270.0919209999999
 20
-226.450575
 30
0.0
 11
-270.941921
 21
-226.941323
 31
0.0
  0
LINE
  5
4CAB
330
2A
100
AcDbEntity
  8
1
100
AcDbLine
 10
-270.0919209999999
 20
-222.941323
 30
0.0
 11
-270.0919209999999
 21
-226.450575
 31
0.0
  0
LINE
  5
4CAC
330
2A
100
AcDbEntity
  8
1
100
AcDbLine
 10
-281.941921
 20
-222.941323
 30
0.0
 11
-269.741921
 21
-222.941323
 31
0.0
  0
LINE
  5
4CAD
330
2A
100
AcDbEntity
  8
1
100
AcDbLine
 10
-249.841921
 20
-221.441323
 30
0.0
 11
-249.3419209999999
 21
-222.941323
 31
0.0
  0
LINE
  5
4CAE
330
2A
100
AcDbEntity
  8
1
100
AcDbLine
 10
-249.841921
 20
-222.941323
 30
0.0
 11
-250.341921
 21
-221.441323
 31
0.0
  0
LINE
  5
4CAF
330
2A
100
AcDbEntity
  8
1
100
AcDbLine
 10
-255.941921
 20
-222.941323
 30
0.0
 11
-255.941921
 21
-221.441323
 31
0.0
  0
LINE
  5
4CB0
330
2A
100
AcDbEntity
  8
1
100
AcDbLine
 10
-243.7419210000001
 20
-221.441323
 30
0.0
 11
-243.7419210000001
 21
-222.941323
 31
0.0
  0
ARC
  5
4CB1
330
2A
100
AcDbEntity
  8
1
100
AcDbCircle
 10
-254.154421
 20
-224.60262
 30
0.0
 40
2.341226999999999
100
AcDbArc
 50
232.1211210000014
 51
307.8788789999986
  0
LINE
  5
4CB2
330
2A
100
AcDbEntity
  8
1
100
AcDbLine
 10
-252.716921
 20
-222.941323
 30
0.0
 11
-252.716921
 21
-226.450575
 31
0.0
  0
LINE
  5
4CB3
330
2A
100
AcDbEntity
  8
1
100
AcDbLine
 10
-254.7419210000001
 20
-226.941323
 30
0.0
 11
-244.941921
 21
-226.941323
 31
0.0
  0
LINE
  5
4CB4
330
2A
100
AcDbEntity
  8
1
100
AcDbLine
 10
-255.5919209999999
 20
-226.450575
 30
0.0
 11
-254.7419210000001
 21
-226.941323
 31
0.0
  0
LINE
  5
4CB5
330
2A
100
AcDbEntity
  8
1
100
AcDbLine
 10
-255.5919209999999
 20
-222.941323
 30
0.0
 11
-255.5919209999999
 21
-226.450575
 31
0.0
  0
ARC
  5
4CB6
330
2A
100
AcDbEntity
  8
1
100
AcDbCircle
 10
-249.841921
 20
-218.3188470000001
 30
0.0
 40
8.625
100
AcDbArc
 50
250.5287770000021
 51
289.4712189999984
  0
ARC
  5
4CB7
330
2A
100
AcDbEntity
  8
1
100
AcDbCircle
 10
-245.5294209999999
 20
-224.60262
 30
0.0
 40
2.341226999999999
100
AcDbArc
 50
232.1211210000014
 51
307.8788789999986
  0
LINE
  5
4CB8
330
2A
100
AcDbEntity
  8
1
100
AcDbLine
 10
-246.966921
 20
-222.941323
 30
0.0
 11
-246.966921
 21
-226.450575
 31
0.0
  0
LINE
  5
4CB9
330
2A
100
AcDbEntity
  8
1
100
AcDbLine
 10
-244.091921
 20
-226.450575
 30
0.0
 11
-244.941921
 21
-226.941323
 31
0.0
  0
LINE
  5
4CBA
330
2A
100
AcDbEntity
  8
1
100
AcDbLine
 10
-244.091921
 20
-222.941323
 30
0.0
 11
-244.091921
 21
-226.450575
 31
0.0
  0
LINE
  5
4CBB
330
2A
100
AcDbEntity
  8
1
100
AcDbLine
 10
-255.941921
 20
-222.941323
 30
0.0
 11
-243.7419210000001
 21
-222.941323
 31
0.0
  0
LINE
  5
4CBC
330
2A
100
AcDbEntity
  8
1
  6
CENTER
 62
     2
370
    13
100
AcDbLine
 10
-334.961777
 20
-149.041323
 30
0.0
 11
-190.517342
 21
-149.041323
 31
0.0
  0
LINE
  5
4CBD
330
2A
100
AcDbEntity
  8
1
  6
CENTER
 62
     2
370
    13
100
AcDbLine
 10
-262.841921
 20
46.55948999999998
 30
0.0
 11
-262.841921
 21
-237.973576
 31
0.0
  0
LINE
  5
4CBE
330
2A
100
AcDbEntity
  8
1
  6
CENTER
 62
     2
370
    13
100
AcDbLine
 10
-287.592159
 20
133.015915
 30
0.0
 11
-287.592159
 21
151.638733
 31
0.0
  0
LINE
  5
4CBF
330
2A
100
AcDbEntity
  8
1
  6
CENTER
 62
     2
370
    13
100
AcDbLine
 10
-238.092159
 20
182.197678
 30
0.0
 11
-238.092159
 21
200.845108
 31
0.0
  0
LINE
  5
4CC0
330
2A
100
AcDbEntity
  8
1
  6
CENTER
 62
     2
370
    13
100
AcDbLine
 10
-296.972818
 20
141.99296
 30
0.0
 11
-277.823975
 21
141.99296
 31
0.0
  0
LINE
  5
4CC1
330
2A
100
AcDbEntity
  8
1
  6
CENTER
 62
     2
370
    13
100
AcDbLine
 10
-247.2785340000001
 20
191.49296
 30
0.0
 11
-229.1926129999999
 21
191.49296
 31
0.0
  0
CIRCLE
  5
4CC2
330
2A
100
AcDbEntity
  8
1
  6
HIDDEN
 62
     4
370
    13
100
AcDbCircle
 10
-287.592159
 20
191.49296
 30
0.0
 40
4.5
  0
CIRCLE
  5
4CC3
330
2A
100
AcDbEntity
  8
1
  6
HIDDEN
 62
     4
370
    13
100
AcDbCircle
 10
-287.592159
 20
141.99296
 30
0.0
 40
4.5
  0
CIRCLE
  5
4CC4
330
2A
100
AcDbEntity
  8
1
  6
HIDDEN
 62
     4
370
    13
100
AcDbCircle
 10
-238.092159
 20
141.99296
 30
0.0
 40
4.5
  0
CIRCLE
  5
4CC5
330
2A
100
AcDbEntity
  8
1
  6
HIDDEN
 62
     4
370
    13
100
AcDbCircle
 10
-238.092159
 20
191.49296
 30
0.0
 40
4.5
  0
ARC
  5
4CC6
330
2A
100
AcDbEntity
  8
1
  6
HIDDEN
 62
     4
370
    13
100
AcDbCircle
 10
-287.842159
 20
191.74296
 30
0.0
 40
10.0
100
AcDbArc
 50
90.0
 51
180.0
  0
ARC
  5
4CC7
330
2A
100
AcDbEntity
  8
1
  6
HIDDEN
 62
     4
370
    13
100
AcDbCircle
 10
-237.842159
 20
191.74296
 30
0.0
 40
10.0
100
AcDbArc
 50
0.0
 51
90.0
  0
ARC
  5
4CC8
330
2A
100
AcDbEntity
  8
1
  6
HIDDEN
 62
     4
370
    13
100
AcDbCircle
 10
-237.842159
 20
141.74296
 30
0.0
 40
10.0
100
AcDbArc
 50
270.0
 51
0.0
  0
ARC
  5
4CC9
330
2A
100
AcDbEntity
  8
1
  6
HIDDEN
 62
     4
370
    13
100
AcDbCircle
 10
-287.842159
 20
141.74296
 30
0.0
 40
10.0
100
AcDbArc
 50
180.0
 51
270.0
  0
LINE
  5
4CCA
330
2A
100
AcDbEntity
  8
1
  6
HIDDEN
 62
     4
370
    13
100
AcDbLine
 10
-227.842159
 20
141.74296
 30
0.0
 11
-227.842159
 21
191.74296
 31
0.0
  0
LINE
  5
4CCB
330
2A
100
AcDbEntity
  8
1
  6
HIDDEN
 62
     4
370
    13
100
AcDbLine
 10
-297.842159
 20
141.74296
 30
0.0
 11
-297.842159
 21
191.74296
 31
0.0
  0
LINE
  5
4CCC
330
2A
100
AcDbEntity
  8
1
  6
HIDDEN
 62
     4
370
    13
100
AcDbLine
 10
-287.842159
 20
131.74296
 30
0.0
 11
-237.842159
 21
131.74296
 31
0.0
  0
LINE
  5
4CCD
330
2A
100
AcDbEntity
  8
1
  6
HIDDEN
 62
     4
370
    13
100
AcDbLine
 10
-287.842159
 20
201.74296
 30
0.0
 11
-237.842159
 21
201.74296
 31
0.0
  0
ENDSEC
  0
SECTION
  2
OBJECTS
  0
DICTIONARY
  5
68A
330
0
100
AcDbDictionary
281
     1
  3
ACAD_COLOR
350
698
  3
ACAD_GROUP
350
68B
  3
ACAD_LAYOUT
350
699
  3
ACAD_MATERIAL
350
697
  3
ACAD_MLEADERSTYLE
350
4E95
  3
ACAD_MLINESTYLE
350
68C
  3
ACAD_PLOTSETTINGS
350
69A
  3
ACAD_PLOTSTYLENAME
350
695
  3
ACAD_SCALELIST
350
4E73
  3
ACAD_TABLESTYLE
350
4E71
  3
ACAD_VISUALSTYLE
350
4E60
  3
ACDB_RECOMPOSE_DATA
350
4EB2
  3
AcDbVariableDictionary
350
4178
  3
DWGPROPS
350
4EB3
  0
DICTIONARY
  5
4E98
330
15
100
AcDbDictionary
280
     1
281
     1
  3
ADSK_XREC_LAYER_RECONCILED
360
4E99
  0
DICTIONARY
  5
4E9A
330
69E
100
AcDbDictionary
280
     1
281
     1
  3
ADSK_XREC_LAYER_RECONCILED
360
4E9B
  0
DICTIONARY
  5
4E9C
330
14E4
100
AcDbDictionary
280
     1
281
     1
  3
ADSK_XREC_LAYER_RECONCILED
360
4E9D
  0
DICTIONARY
  5
4E9E
330
421D
100
AcDbDictionary
280
     1
281
     1
  3
ADSK_XREC_LAYER_RECONCILED
360
4E9F
  0
DICTIONARY
  5
4EA0
330
421E
100
AcDbDictionary
280
     1
281
     1
  3
ADSK_XREC_LAYER_RECONCILED
360
4EA1
  0
DICTIONARY
  5
698
102
{ACAD_REACTORS
330
68A
102
}
330
68A
100
AcDbDictionary
281
     1
  0
DICTIONARY
  5
68B
102
{ACAD_REACTORS
330
68A
102
}
330
68A
100
AcDbDictionary
281
     1
  0
DICTIONARY
  5
699
102
{ACAD_REACTORS
330
68A
102
}
330
68A
100
AcDbDictionary
281
     1
  3
Model
350
69B
  3
レイアウト1
350
69C
  0
DICTIONARY
  5
697
102
{ACAD_REACTORS
330
68A
102
}
330
68A
100
AcDbDictionary
281
     1
  3
ByBlock
350
4E50
  3
ByLayer
350
4E48
  3
Global
350
4E58
  0
DICTIONARY
  5
4E95
102
{ACAD_REACTORS
330
68A
102
}
330
68A
100
AcDbDictionary
281
     1
  3
Standard
350
4E96
  0
DICTIONARY
  5
68C
102
{ACAD_REACTORS
330
68A
102
}
330
68A
100
AcDbDictionary
281
     1
  3
STANDARD
350
68D
  0
DICTIONARY
  5
69A
102
{ACAD_REACTORS
330
68A
102
}
330
68A
100
AcDbDictionary
281
     1
  0
ACDBDICTIONARYWDFLT
  5
695
102
{ACAD_REACTORS
330
68A
102
}
330
68A
100
AcDbDictionary
281
     1
  3
Normal
350
696
100
AcDbDictionaryWithDefault
340
696
  0
DICTIONARY
  5
4E73
102
{ACAD_REACTORS
330
68A
102
}
330
68A
100
AcDbDictionary
281
     1
  3
A0
350
4E74
  3
A1
350
4E75
  3
A2
350
4E76
  3
A3
350
4E77
  3
A4
350
4E78
  3
A5
350
4E79
  3
A6
350
4E7A
  3
A7
350
4E7B
  3
A8
350
4E7C
  3
A9
350
4E7D
  3
B0
350
4E7E
  3
B1
350
4E7F
  3
B2
350
4E80
  3
B3
350
4E81
  3
B4
350
4E82
  3
B5
350
4E83
  3
B6
350
4E84
  3
B7
350
4E85
  3
B8
350
4E86
  3
B9
350
4E87
  3
C0
350
4E88
  3
C1
350
4E89
  3
C2
350
4E8A
  3
C3
350
4E8B
  3
C4
350
4E8C
  3
C5
350
4E8D
  3
C6
350
4E8E
  3
C7
350
4E8F
  3
C8
350
4E90
  3
C9
350
4E91
  3
D0
350
4E92
  3
D1
350
4E93
  3
D2
350
4E94
  0
DICTIONARY
  5
4E71
102
{ACAD_REACTORS
330
68A
102
}
330
68A
100
AcDbDictionary
281
     1
  3
Standard
350
4E72
  0
DICTIONARY
  5
4E60
102
{ACAD_REACTORS
330
68A
102
}
330
68A
100
AcDbDictionary
281
     1
  3
2dWireframe
350
4E66
  3
3D Hidden
350
4E68
  3
3dWireframe
350
4E67
  3
Basic
350
4E65
  3
Brighten
350
4E6C
  3
ColorChange
350
4E70
  3
Conceptual
350
4E69
  3
Dim
350
4E6B
  3
Facepattern
350
4E6F
  3
Flat
350
4E61
  3
FlatWithEdges
350
4E62
  3
Gouraud
350
4E63
  3
GouraudWithEdges
350
4E64
  3
Linepattern
350
4E6E
  3
Realistic
350
4E6A
  3
Thicken
350
4E6D
  0
XRECORD
  5
4EB2
102
{ACAD_REACTORS
330
68A
102
}
330
68A
100
AcDbXrecord
280
     1
 90
        1
330
4E72
  0
DICTIONARY
  5
4178
102
{ACAD_REACTORS
330
68A
102
}
330
68A
100
AcDbDictionary
281
     1
  3
CANNOSCALE
350
4EAD
  3
CMLEADERSTYLE
350
4EAC
  3
CTABLESTYLE
350
4EAB
  3
DIMASSOC
350
4179
  3
INDEXCTL
350
4EAF
  3
PROJECTNAME
350
417A
  3
SORTENTS
350
4EAE
  0
XRECORD
  5
4EB3
102
{ACAD_REACTORS
330
68A
102
}
330
68A
100
AcDbXrecord
280
     1
  1
DWGPROPS COOKIE
  2

  3

  4

  6

  7

  8
miyazaki-tomoko
  9

300
=
301
=
302
=
303
=
304
=
305
=
306
=
307
=
308
=
309
=
 40
0.1773838773148148
 41
2454113.0
 42
2455707.703417743
  1

 90
        0
  0
XRECORD
  5
4E99
102
{ACAD_REACTORS
330
4E98
102
}
330
4E98
100
AcDbXrecord
280
     1
290
     1
  0
XRECORD
  5
4E9B
102
{ACAD_REACTORS
330
4E9A
102
}
330
4E9A
100
AcDbXrecord
280
     1
290
     1
  0
XRECORD
  5
4E9D
102
{ACAD_REACTORS
330
4E9C
102
}
330
4E9C
100
AcDbXrecord
280
     1
290
     1
  0
XRECORD
  5
4E9F
102
{ACAD_REACTORS
330
4E9E
102
}
330
4E9E
100
AcDbXrecord
280
     1
290
     1
  0
XRECORD
  5
4EA1
102
{ACAD_REACTORS
330
4EA0
102
}
330
4EA0
100
AcDbXrecord
280
     1
290
     1
  0
LAYOUT
  5
69B
102
{ACAD_XDICTIONARY
360
4EB4
102
}
102
{ACAD_REACTORS
330
699
102
}
330
699
100
AcDbPlotSettings
  1

  2
EMP01
  4
A3
  6

 40
5.873749732971191
 41
5.873747825622557
 42
5.873748779296875
 43
5.873748779296875
 44
296.9259948730469
 45
419.9466552734373
 46
7.33
 47
14.09
 48
0.0
 49
0.0
140
0.0
141
0.0
142
1.0
143
4.0
 70
 11940
 72
     1
 73
     1
 74
     1
  7
monochrome.ctb
 75
     0
147
0.25
148
540.012355765808
149
415.5009739385
100
AcDbLayout
  1
Model
 70
     1
 71
     0
 10
0.0
 20
0.0
 11
12.0
 21
9.0
 12
0.0
 22
0.0
 32
0.0
 14
0.0
 24
0.0
 34
0.0
 15
0.0
 25
0.0
 35
0.0
146
0.0
 13
0.0
 23
0.0
 33
0.0
 16
1.0
 26
0.0
 36
0.0
 17
0.0
 27
1.0
 37
0.0
 76
     0
330
2A
331
4E3B
  0
LAYOUT
  5
69C
102
{ACAD_XDICTIONARY
360
4EB6
102
}
102
{ACAD_REACTORS
330
699
102
}
330
699
100
AcDbPlotSettings
  1

  2
EMP01
  4

  6

 40
0.0
 41
0.0
 42
0.0
 43
0.0
 44
0.0
 45
0.0
 46
0.0
 47
0.0
 48
0.0
 49
0.0
140
0.0
141
0.0
142
1.0
143
1.0
 70
   688
 72
     0
 73
     0
 74
     5
  7
monochrome.ctb
 75
    16
147
1.0
148
0.0
149
0.0
100
AcDbLayout
  1
レイアウト1
 70
     0
 71
     1
 10
0.0
 20
0.0
 11
12.0
 21
9.0
 12
0.0
 22
0.0
 32
0.0
 14
1.000000000000000E+20
 24
1.000000000000000E+20
 34
1.000000000000000E+20
 15
-1.000000000000000E+20
 25
-1.000000000000000E+20
 35
-1.000000000000000E+20
146
0.0
 13
0.0
 23
0.0
 33
0.0
 16
1.0
 26
0.0
 36
0.0
 17
0.0
 27
1.0
 37
0.0
 76
     0
330
2B
  0
MATERIAL
  5
4E50
102
{ACAD_XDICTIONARY
360
4E51
102
}
102
{ACAD_REACTORS
330
697
102
}
330
697
100
AcDbMaterial
  1
ByBlock
 72
     0
 43
0.0208333333333333
 43
0.0
 43
0.0
 43
0.0
 43
0.0
 43
0.0208333333333333
 43
0.0
 43
0.0
 43
0.0
 43
0.0
 43
1.0
 43
0.0
 43
0.0
 43
0.0
 43
0.0
 43
1.0
 77
     0
 47
0.0208333333333333
 47
0.0
 47
0.0
 47
0.0
 47
0.0
 47
0.0208333333333333
 47
0.0
 47
0.0
 47
0.0
 47
0.0
 47
1.0
 47
0.0
 47
0.0
 47
0.0
 47
0.0
 47
1.0
171
     0
 49
0.0208333333333333
 49
0.0
 49
0.0
 49
0.0
 49
0.0
 49
0.0208333333333333
 49
0.0
 49
0.0
 49
0.0
 49
0.0
 49
1.0
 49
0.0
 49
0.0
 49
0.0
 49
0.0
 49
1.0
175
     0
142
0.0208333333333333
142
0.0
142
0.0
142
0.0
142
0.0
142
0.0208333333333333
142
0.0
142
0.0
142
0.0
142
0.0
142
1.0
142
0.0
142
0.0
142
0.0
142
0.0
142
1.0
179
     0
144
0.0208333333333333
144
0.0
144
0.0
144
0.0
144
0.0
144
0.0208333333333333
144
0.0
144
0.0
144
0.0
144
0.0
144
1.0
144
0.0
144
0.0
144
0.0
144
0.0
144
1.0
147
0.0208333333333333
147
0.0
147
0.0
147
0.0
147
0.0
147
0.0208333333333333
147
0.0
147
0.0
147
0.0
147
0.0
147
1.0
147
0.0
147
0.0
147
0.0
147
0.0
147
1.0
  0
MATERIAL
  5
4E48
102
{ACAD_XDICTIONARY
360
4E49
102
}
102
{ACAD_REACTORS
330
697
102
}
330
697
100
AcDbMaterial
  1
ByLayer
 72
     0
 43
0.0208333333333333
 43
0.0
 43
0.0
 43
0.0
 43
0.0
 43
0.0208333333333333
 43
0.0
 43
0.0
 43
0.0
 43
0.0
 43
1.0
 43
0.0
 43
0.0
 43
0.0
 43
0.0
 43
1.0
 77
     0
 47
0.0208333333333333
 47
0.0
 47
0.0
 47
0.0
 47
0.0
 47
0.0208333333333333
 47
0.0
 47
0.0
 47
0.0
 47
0.0
 47
1.0
 47
0.0
 47
0.0
 47
0.0
 47
0.0
 47
1.0
171
     0
 49
0.0208333333333333
 49
0.0
 49
0.0
 49
0.0
 49
0.0
 49
0.0208333333333333
 49
0.0
 49
0.0
 49
0.0
 49
0.0
 49
1.0
 49
0.0
 49
0.0
 49
0.0
 49
0.0
 49
1.0
175
     0
142
0.0208333333333333
142
0.0
142
0.0
142
0.0
142
0.0
142
0.0208333333333333
142
0.0
142
0.0
142
0.0
142
0.0
142
1.0
142
0.0
142
0.0
142
0.0
142
0.0
142
1.0
179
     0
144
0.0208333333333333
144
0.0
144
0.0
144
0.0
144
0.0
144
0.0208333333333333
144
0.0
144
0.0
144
0.0
144
0.0
144
1.0
144
0.0
144
0.0
144
0.0
144
0.0
144
1.0
147
0.0208333333333333
147
0.0
147
0.0
147
0.0
147
0.0
147
0.0208333333333333
147
0.0
147
0.0
147
0.0
147
0.0
147
1.0
147
0.0
147
0.0
147
0.0
147
0.0
147
1.0
  0
MATERIAL
  5
4E58
102
{ACAD_XDICTIONARY
360
4E59
102
}
102
{ACAD_REACTORS
330
697
102
}
330
697
100
AcDbMaterial
  1
Global
 72
     0
 43
0.0208333333333333
 43
0.0
 43
0.0
 43
0.0
 43
0.0
 43
0.0208333333333333
 43
0.0
 43
0.0
 43
0.0
 43
0.0
 43
1.0
 43
0.0
 43
0.0
 43
0.0
 43
0.0
 43
1.0
 77
     0
 47
0.0208333333333333
 47
0.0
 47
0.0
 47
0.0
 47
0.0
 47
0.0208333333333333
 47
0.0
 47
0.0
 47
0.0
 47
0.0
 47
1.0
 47
0.0
 47
0.0
 47
0.0
 47
0.0
 47
1.0
171
     0
 49
0.0208333333333333
 49
0.0
 49
0.0
 49
0.0
 49
0.0
 49
0.0208333333333333
 49
0.0
 49
0.0
 49
0.0
 49
0.0
 49
1.0
 49
0.0
 49
0.0
 49
0.0
 49
0.0
 49
1.0
175
     0
142
0.0208333333333333
142
0.0
142
0.0
142
0.0
142
0.0
142
0.0208333333333333
142
0.0
142
0.0
142
0.0
142
0.0
142
1.0
142
0.0
142
0.0
142
0.0
142
0.0
142
1.0
179
     0
144
0.0208333333333333
144
0.0
144
0.0
144
0.0
144
0.0
144
0.0208333333333333
144
0.0
144
0.0
144
0.0
144
0.0
144
1.0
144
0.0
144
0.0
144
0.0
144
0.0
144
1.0
147
0.0208333333333333
147
0.0
147
0.0
147
0.0
147
0.0
147
0.0208333333333333
147
0.0
147
0.0
147
0.0
147
0.0
147
1.0
147
0.0
147
0.0
147
0.0
147
0.0
147
1.0
  0
MLEADERSTYLE
  5
4E96
102
{ACAD_REACTORS
330
4E95
102
}
330
4E95
100
AcDbMLeaderStyle
170
     2
171
     1
172
     0
 90
        2
 40
0.0
 41
0.0
173
     1
 91
-1056964608
340
C
 92
       -2
290
     1
 42
0.09
291
     1
 43
0.36
  3
Standard
 44
0.18
300

342
1F
174
     1
178
     6
175
     1
176
     0
 93
-1056964608
 45
0.18
292
     0
297
     0
 46
0.18
 94
-1056964608
 47
1.0
 49
1.0
140
1.0
293
     1
141
0.0
294
     1
177
     0
142
1.0
295
     0
296
     0
143
0.125
1001
ACAD_MLEADERVER
1070
     2
  0
MLINESTYLE
  5
68D
102
{ACAD_REACTORS
330
68C
102
}
330
68C
100
AcDbMlineStyle
  2
STANDARD
 70
     0
  3

 62
     0
 51
90.0
 52
90.0
 71
     2
 49
0.5
 62
   256
  6
BYLAYER
 49
-0.5
 62
   256
  6
BYLAYER
  0
ACDBPLACEHOLDER
  5
696
102
{ACAD_REACTORS
330
695
102
}
330
695
  0
SCALE
  5
4E74
102
{ACAD_REACTORS
330
4E73
102
}
330
4E73
100
AcDbScale
 70
     0
300
1:1
140
1.0
141
1.0
290
     1
  0
SCALE
  5
4E75
102
{ACAD_REACTORS
330
4E73
102
}
330
4E73
100
AcDbScale
 70
     0
300
1:2
140
1.0
141
2.0
290
     0
  0
SCALE
  5
4E76
102
{ACAD_REACTORS
330
4E73
102
}
330
4E73
100
AcDbScale
 70
     0
300
1:4
140
1.0
141
4.0
290
     0
  0
SCALE
  5
4E77
102
{ACAD_REACTORS
330
4E73
102
}
330
4E73
100
AcDbScale
 70
     0
300
1:5
140
1.0
141
5.0
290
     0
  0
SCALE
  5
4E78
102
{ACAD_REACTORS
330
4E73
102
}
330
4E73
100
AcDbScale
 70
     0
300
1:8
140
1.0
141
8.0
290
     0
  0
SCALE
  5
4E79
102
{ACAD_REACTORS
330
4E73
102
}
330
4E73
100
AcDbScale
 70
     0
300
1:10
140
1.0
141
10.0
290
     0
  0
SCALE
  5
4E7A
102
{ACAD_REACTORS
330
4E73
102
}
330
4E73
100
AcDbScale
 70
     0
300
1:16
140
1.0
141
16.0
290
     0
  0
SCALE
  5
4E7B
102
{ACAD_REACTORS
330
4E73
102
}
330
4E73
100
AcDbScale
 70
     0
300
1:20
140
1.0
141
20.0
290
     0
  0
SCALE
  5
4E7C
102
{ACAD_REACTORS
330
4E73
102
}
330
4E73
100
AcDbScale
 70
     0
300
1:30
140
1.0
141
30.0
290
     0
  0
SCALE
  5
4E7D
102
{ACAD_REACTORS
330
4E73
102
}
330
4E73
100
AcDbScale
 70
     0
300
1:40
140
1.0
141
40.0
290
     0
  0
SCALE
  5
4E7E
102
{ACAD_REACTORS
330
4E73
102
}
330
4E73
100
AcDbScale
 70
     0
300
1:50
140
1.0
141
50.0
290
     0
  0
SCALE
  5
4E7F
102
{ACAD_REACTORS
330
4E73
102
}
330
4E73
100
AcDbScale
 70
     0
300
1:100
140
1.0
141
100.0
290
     0
  0
SCALE
  5
4E80
102
{ACAD_REACTORS
330
4E73
102
}
330
4E73
100
AcDbScale
 70
     0
300
2:1
140
2.0
141
1.0
290
     0
  0
SCALE
  5
4E81
102
{ACAD_REACTORS
330
4E73
102
}
330
4E73
100
AcDbScale
 70
     0
300
4:1
140
4.0
141
1.0
290
     0
  0
SCALE
  5
4E82
102
{ACAD_REACTORS
330
4E73
102
}
330
4E73
100
AcDbScale
 70
     0
300
8:1
140
8.0
141
1.0
290
     0
  0
SCALE
  5
4E83
102
{ACAD_REACTORS
330
4E73
102
}
330
4E73
100
AcDbScale
 70
     0
300
10:1
140
10.0
141
1.0
290
     0
  0
SCALE
  5
4E84
102
{ACAD_REACTORS
330
4E73
102
}
330
4E73
100
AcDbScale
 70
     0
300
100:1
140
100.0
141
1.0
290
     0
  0
SCALE
  5
4E85
102
{ACAD_REACTORS
330
4E73
102
}
330
4E73
100
AcDbScale
 70
     0
300
1/128" = 1'-0"
140
0.0078125
141
12.0
290
     0
  0
SCALE
  5
4E86
102
{ACAD_REACTORS
330
4E73
102
}
330
4E73
100
AcDbScale
 70
     0
300
1/64" = 1'-0"
140
0.015625
141
12.0
290
     0
  0
SCALE
  5
4E87
102
{ACAD_REACTORS
330
4E73
102
}
330
4E73
100
AcDbScale
 70
     0
300
1/32" = 1'-0"
140
0.03125
141
12.0
290
     0
  0
SCALE
  5
4E88
102
{ACAD_REACTORS
330
4E73
102
}
330
4E73
100
AcDbScale
 70
     0
300
1/16" = 1'-0"
140
0.0625
141
12.0
290
     0
  0
SCALE
  5
4E89
102
{ACAD_REACTORS
330
4E73
102
}
330
4E73
100
AcDbScale
 70
     0
300
3/32" = 1'-0"
140
0.09375
141
12.0
290
     0
  0
SCALE
  5
4E8A
102
{ACAD_REACTORS
330
4E73
102
}
330
4E73
100
AcDbScale
 70
     0
300
1/8" = 1'-0"
140
0.125
141
12.0
290
     0
  0
SCALE
  5
4E8B
102
{ACAD_REACTORS
330
4E73
102
}
330
4E73
100
AcDbScale
 70
     0
300
3/16" = 1'-0"
140
0.1875
141
12.0
290
     0
  0
SCALE
  5
4E8C
102
{ACAD_REACTORS
330
4E73
102
}
330
4E73
100
AcDbScale
 70
     0
300
1/4" = 1'-0"
140
0.25
141
12.0
290
     0
  0
SCALE
  5
4E8D
102
{ACAD_REACTORS
330
4E73
102
}
330
4E73
100
AcDbScale
 70
     0
300
3/8" = 1'-0"
140
0.375
141
12.0
290
     0
  0
SCALE
  5
4E8E
102
{ACAD_REACTORS
330
4E73
102
}
330
4E73
100
AcDbScale
 70
     0
300
1/2" = 1'-0"
140
0.5
141
12.0
290
     0
  0
SCALE
  5
4E8F
102
{ACAD_REACTORS
330
4E73
102
}
330
4E73
100
AcDbScale
 70
     0
300
3/4" = 1'-0"
140
0.75
141
12.0
290
     0
  0
SCALE
  5
4E90
102
{ACAD_REACTORS
330
4E73
102
}
330
4E73
100
AcDbScale
 70
     0
300
1" = 1'-0"
140
1.0
141
12.0
290
     0
  0
SCALE
  5
4E91
102
{ACAD_REACTORS
330
4E73
102
}
330
4E73
100
AcDbScale
 70
     0
300
1-1/2" = 1'-0"
140
1.5
141
12.0
290
     0
  0
SCALE
  5
4E92
102
{ACAD_REACTORS
330
4E73
102
}
330
4E73
100
AcDbScale
 70
     0
300
3" = 1'-0"
140
3.0
141
12.0
290
     0
  0
SCALE
  5
4E93
102
{ACAD_REACTORS
330
4E73
102
}
330
4E73
100
AcDbScale
 70
     0
300
6" = 1'-0"
140
6.0
141
12.0
290
     0
  0
SCALE
  5
4E94
102
{ACAD_REACTORS
330
4E73
102
}
330
4E73
100
AcDbScale
 70
     0
300
1'-0" = 1'-0"
140
12.0
141
12.0
290
     0
  0
TABLESTYLE
  5
4E72
102
{ACAD_XDICTIONARY
360
4EB0
102
}
102
{ACAD_REACTORS
330
4E71
102
}
330
4E71
100
AcDbTableStyle
  3
Standard
 70
     0
 71
     0
 40
0.06
 41
0.06
280
     0
281
     0
  7
STANDARD
140
0.18
170
     2
 62
     0
 63
     7
283
     0
274
    -2
284
     1
 64
     0
275
    -2
285
     1
 65
     0
276
    -2
286
     1
 66
     0
277
    -2
287
     1
 67
     0
278
    -2
288
     1
 68
     0
279
    -2
289
     1
 69
     0
  7
STANDARD
140
0.25
170
     5
 62
     0
 63
     7
283
     0
274
    -2
284
     1
 64
     0
275
    -2
285
     1
 65
     0
276
    -2
286
     1
 66
     0
277
    -2
287
     1
 67
     0
278
    -2
288
     1
 68
     0
279
    -2
289
     1
 69
     0
  7
STANDARD
140
0.18
170
     5
 62
     0
 63
     7
283
     0
274
    -2
284
     1
 64
     0
275
    -2
285
     1
 65
     0
276
    -2
286
     1
 66
     0
277
    -2
287
     1
 67
     0
278
    -2
288
     1
 68
     0
279
    -2
289
     1
 69
     0
  0
VISUALSTYLE
  5
4E66
102
{ACAD_REACTORS
330
4E60
102
}
330
4E60
100
AcDbVisualStyle
  2
2dWireframe
 70
     4
 71
     0
 72
     2
 73
     0
 90
        0
 40
-0.6
 41
-30.0
 62
     5
 63
     7
 74
     1
 91
        4
 64
     7
 65
   257
 75
     1
175
     1
 42
1.0
 92
        0
 66
   257
 43
1.0
 76
     1
 77
     6
 78
     2
 67
     7
 79
     5
170
     0
171
     0
290
     0
174
     0
 93
        1
 44
0.0
173
     0
291
     0
 45
0.0
1001
ACAD
1000
AcDbSavedByObjectVersion
1070
     0
  0
VISUALSTYLE
  5
4E68
102
{ACAD_REACTORS
330
4E60
102
}
330
4E60
100
AcDbVisualStyle
  2
3D Hidden
 70
     6
 71
     1
 72
     2
 73
     2
 90
        0
 40
-0.6
 41
-30.0
 62
     5
 63
     7
 74
     2
 91
        2
 64
     7
 65
   257
 75
     2
175
     1
 42
40.0
 92
        0
 66
   257
 43
1.0
 76
     1
 77
     6
 78
     2
 67
     7
 79
     3
170
     0
171
     0
290
     0
174
     0
 93
        1
 44
0.0
173
     0
291
     0
 45
0.0
1001
ACAD
1000
AcDbSavedByObjectVersion
1070
     0
  0
VISUALSTYLE
  5
4E67
102
{ACAD_REACTORS
330
4E60
102
}
330
4E60
100
AcDbVisualStyle
  2
3dWireframe
 70
     5
 71
     0
 72
     2
 73
     0
 90
        0
 40
-0.6
 41
-30.0
 62
     5
 63
     7
 74
     1
 91
        4
 64
     7
 65
   257
 75
     1
175
     1
 42
1.0
 92
        0
 66
   257
 43
1.0
 76
     1
 77
     6
 78
     2
 67
     7
 79
     5
170
     0
171
     0
290
     0
174
     0
 93
        1
 44
0.0
173
     0
291
     0
 45
0.0
1001
ACAD
1000
AcDbSavedByObjectVersion
1070
     0
  0
VISUALSTYLE
  5
4E65
102
{ACAD_REACTORS
330
4E60
102
}
330
4E60
100
AcDbVisualStyle
  2
Basic
 70
     7
 71
     1
 72
     0
 73
     1
 90
        0
 40
-0.6
 41
-30.0
 62
     5
 63
     7
 74
     0
 91
        4
 64
     7
 65
   257
 75
     1
175
     1
 42
1.0
 92
        8
 66
     7
 43
1.0
 76
     1
 77
     6
 78
     2
 67
     7
 79
     5
170
     0
171
     0
290
     0
174
     0
 93
        1
 44
0.0
173
     0
291
     1
 45
0.0
1001
ACAD
1000
AcDbSavedByObjectVersion
1070
     0
  0
VISUALSTYLE
  5
4E6C
102
{ACAD_REACTORS
330
4E60
102
}
330
4E60
100
AcDbVisualStyle
  2
Brighten
 70
    12
 71
     2
 72
     2
 73
     0
 90
        0
 40
-0.6
 41
-30.0
 62
     5
 63
     7
 74
     1
 91
        4
 64
     7
 65
   257
 75
     1
175
     1
 42
1.0
 92
        8
 66
     7
 43
1.0
 76
     1
 77
     6
 78
     2
 67
     7
 79
     5
170
     0
171
     0
290
     0
174
     0
 93
        1
 44
50.0
173
     0
291
     1
 45
0.0
1001
ACAD
1000
AcDbSavedByObjectVersion
1070
     0
  0
VISUALSTYLE
  5
4E70
102
{ACAD_REACTORS
330
4E60
102
}
330
4E60
100
AcDbVisualStyle
  2
ColorChange
 70
    16
 71
     2
 72
     2
 73
     3
 90
        0
 40
-0.6
 41
-30.0
 62
     5
 63
     8
 74
     1
 91
        4
 64
     7
 65
   257
 75
     1
175
     1
 42
1.0
 92
        8
 66
     8
 43
1.0
 76
     1
 77
     6
 78
     2
 67
     7
 79
     5
170
     0
171
     0
290
     0
174
     0
 93
        1
 44
0.0
173
     0
291
     1
 45
0.0
1001
ACAD
1000
AcDbSavedByObjectVersion
1070
     0
  0
VISUALSTYLE
  5
4E69
102
{ACAD_REACTORS
330
4E60
102
}
330
4E60
100
AcDbVisualStyle
  2
Conceptual
 70
     9
 71
     3
 72
     2
 73
     0
 90
        0
 40
-0.6
 41
-30.0
 62
     5
 63
     7
 74
     2
 91
        2
 64
     7
 65
   257
 75
     1
175
     1
 42
40.0
 92
        8
 66
     7
 43
1.0
 76
     1
 77
     6
 78
     2
 67
     7
 79
     3
170
     0
171
     0
290
     0
174
     0
 93
        1
 44
0.0
173
     0
291
     0
 45
0.0
1001
ACAD
1000
AcDbSavedByObjectVersion
1070
     0
  0
VISUALSTYLE
  5
4E6B
102
{ACAD_REACTORS
330
4E60
102
}
330
4E60
100
AcDbVisualStyle
  2
Dim
 70
    11
 71
     2
 72
     2
 73
     0
 90
        0
 40
-0.6
 41
-30.0
 62
     5
 63
     7
 74
     1
 91
        4
 64
     7
 65
   257
 75
     1
175
     1
 42
1.0
 92
        8
 66
     7
 43
1.0
 76
     1
 77
     6
 78
     2
 67
     7
 79
     5
170
     0
171
     0
290
     0
174
     0
 93
        1
 44
-50.0
173
     0
291
     1
 45
0.0
1001
ACAD
1000
AcDbSavedByObjectVersion
1070
     0
  0
VISUALSTYLE
  5
4E6F
102
{ACAD_REACTORS
330
4E60
102
}
330
4E60
100
AcDbVisualStyle
  2
Facepattern
 70
    15
 71
     2
 72
     2
 73
     0
 90
        0
 40
-0.6
 41
-30.0
 62
     5
 63
     7
 74
     1
 91
        4
 64
     7
 65
   257
 75
     1
175
     1
 42
1.0
 92
        8
 66
     7
 43
1.0
 76
     1
 77
     6
 78
     2
 67
     7
 79
     5
170
     0
171
     0
290
     0
174
     0
 93
        1
 44
0.0
173
     0
291
     1
 45
0.0
1001
ACAD
1000
AcDbSavedByObjectVersion
1070
     0
  0
VISUALSTYLE
  5
4E61
102
{ACAD_REACTORS
330
4E60
102
}
330
4E60
100
AcDbVisualStyle
  2
Flat
 70
     0
 71
     2
 72
     1
 73
     1
 90
        2
 40
-0.6
 41
30.0
 62
     5
 63
     7
 74
     0
 91
        4
 64
     7
 65
   257
 75
     1
175
     1
 42
1.0
 92
        8
 66
     7
 43
1.0
 76
     1
 77
     6
 78
     2
 67
     7
 79
     5
170
     0
171
     0
290
     0
174
     0
 93
       13
 44
0.0
173
     0
291
     1
 45
0.0
1001
ACAD
1000
AcDbSavedByObjectVersion
1070
     0
  0
VISUALSTYLE
  5
4E62
102
{ACAD_REACTORS
330
4E60
102
}
330
4E60
100
AcDbVisualStyle
  2
FlatWithEdges
 70
     1
 71
     2
 72
     1
 73
     1
 90
        2
 40
-0.6
 41
30.0
 62
     5
 63
     7
 74
     1
 91
        4
 64
     7
 65
   257
 75
     1
175
     1
 42
1.0
 92
        0
 66
   257
 43
1.0
 76
     1
 77
     6
 78
     2
 67
     7
 79
     5
170
     0
171
     0
290
     0
174
     0
 93
       13
 44
0.0
173
     0
291
     1
 45
0.0
1001
ACAD
1000
AcDbSavedByObjectVersion
1070
     0
  0
VISUALSTYLE
  5
4E63
102
{ACAD_REACTORS
330
4E60
102
}
330
4E60
100
AcDbVisualStyle
  2
Gouraud
 70
     2
 71
     2
 72
     2
 73
     1
 90
        2
 40
-0.6
 41
30.0
 62
     5
 63
     7
 74
     0
 91
        4
 64
     7
 65
   257
 75
     1
175
     1
 42
1.0
 92
        0
 66
     7
 43
1.0
 76
     1
 77
     6
 78
     2
 67
     7
 79
     5
170
     0
171
     0
290
     0
174
     0
 93
       13
 44
0.0
173
     0
291
     1
 45
0.0
1001
ACAD
1000
AcDbSavedByObjectVersion
1070
     0
  0
VISUALSTYLE
  5
4E64
102
{ACAD_REACTORS
330
4E60
102
}
330
4E60
100
AcDbVisualStyle
  2
GouraudWithEdges
 70
     3
 71
     2
 72
     2
 73
     1
 90
        2
 40
-0.6
 41
30.0
 62
     5
 63
     7
 74
     1
 91
        4
 64
     7
 65
   257
 75
     1
175
     1
 42
1.0
 92
        0
 66
   257
 43
1.0
 76
     1
 77
     6
 78
     2
 67
     7
 79
     5
170
     0
171
     0
290
     0
174
     0
 93
       13
 44
0.0
173
     0
291
     1
 45
0.0
1001
ACAD
1000
AcDbSavedByObjectVersion
1070
     0
  0
VISUALSTYLE
  5
4E6E
102
{ACAD_REACTORS
330
4E60
102
}
330
4E60
100
AcDbVisualStyle
  2
Linepattern
 70
    14
 71
     2
 72
     2
 73
     0
 90
        0
 40
-0.6
 41
-30.0
 62
     5
 63
     7
 74
     1
 91
        4
 64
     7
 65
   257
 75
     7
175
     7
 42
1.0
 92
        8
 66
     7
 43
1.0
 76
     1
 77
     6
 78
     2
 67
     7
 79
     5
170
     0
171
     0
290
     0
174
     0
 93
        1
 44
0.0
173
     0
291
     1
 45
0.0
1001
ACAD
1000
AcDbSavedByObjectVersion
1070
     0
  0
VISUALSTYLE
  5
4E6A
102
{ACAD_REACTORS
330
4E60
102
}
330
4E60
100
AcDbVisualStyle
  2
Realistic
 70
     8
 71
     2
 72
     2
 73
     0
 90
        0
 40
-0.6
 41
-30.0
 62
     5
 63
     7
 74
     1
 91
        0
 64
     7
 65
   257
 75
     1
175
     1
 42
1.0
 92
        8
 66
     8
 43
1.0
 76
     1
 77
     6
 78
     2
 67
     7
 79
     5
170
     0
171
     0
290
     0
174
     0
 93
       13
 44
0.0
173
     0
291
     0
 45
0.0
1001
ACAD
1000
AcDbSavedByObjectVersion
1070
     0
  0
VISUALSTYLE
  5
4E6D
102
{ACAD_REACTORS
330
4E60
102
}
330
4E60
100
AcDbVisualStyle
  2
Thicken
 70
    13
 71
     2
 72
     2
 73
     0
 90
        0
 40
-0.6
 41
-30.0
 62
     5
 63
     7
 74
     1
 91
        4
 64
     7
 65
   257
 75
     1
175
     1
 42
1.0
 92
       12
 66
     7
 43
1.0
 76
     1
 77
     6
 78
     2
 67
     7
 79
     5
170
     0
171
     0
290
     0
174
     0
 93
        1
 44
0.0
173
     0
291
     1
 45
0.0
1001
ACAD
1000
AcDbSavedByObjectVersion
1070
     0
  0
DICTIONARYVAR
  5
4EAD
102
{ACAD_REACTORS
330
4178
102
}
330
4178
100
DictionaryVariables
280
     0
  1
1:1
  0
DICTIONARYVAR
  5
4EAC
102
{ACAD_REACTORS
330
4178
102
}
330
4178
100
DictionaryVariables
280
     0
  1
STANDARD
  0
DICTIONARYVAR
  5
4EAB
102
{ACAD_REACTORS
330
4178
102
}
330
4178
100
DictionaryVariables
280
     0
  1
STANDARD
  0
DICTIONARYVAR
  5
4179
102
{ACAD_REACTORS
330
4178
102
}
330
4178
100
DictionaryVariables
280
     0
  1
1
  0
DICTIONARYVAR
  5
4EAF
102
{ACAD_REACTORS
330
4178
102
}
330
4178
100
DictionaryVariables
280
     0
  1
0
  0
DICTIONARYVAR
  5
417A
102
{ACAD_REACTORS
330
4178
102
}
330
4178
100
DictionaryVariables
280
     0
  1

  0
DICTIONARYVAR
  5
4EAE
102
{ACAD_REACTORS
330
4178
102
}
330
4178
100
DictionaryVariables
280
     0
  1
127
  0
DICTIONARY
  5
4EB4
330
69B
100
AcDbDictionary
280
     1
281
     1
  3
ACAD_XREC_ROUNDTRIP
360
4EB5
  0
DICTIONARY
  5
4EB6
330
69C
100
AcDbDictionary
280
     1
281
     1
  3
ACAD_XREC_ROUNDTRIP
360
4EB7
  0
DICTIONARY
  5
4E51
330
4E50
100
AcDbDictionary
280
     1
281
     1
  3
ACAD_XREC_ROUNDTRIP
360
4EB9
  3
BUMPTILE
360
4E53
  3
DIFFUSETILE
360
4E52
  3
OPACITYTILE
360
4E56
  3
REFLECTIONTILE
360
4E55
  3
REFRACTIONTILE
360
4E57
  3
SPECULARTILE
360
4E54
  0
DICTIONARY
  5
4E49
330
4E48
100
AcDbDictionary
280
     1
281
     1
  3
ACAD_XREC_ROUNDTRIP
360
4EB8
  3
BUMPTILE
360
4E4B
  3
DIFFUSETILE
360
4E4A
  3
OPACITYTILE
360
4E4E
  3
REFLECTIONTILE
360
4E4D
  3
REFRACTIONTILE
360
4E4F
  3
SPECULARTILE
360
4E4C
  0
DICTIONARY
  5
4E59
330
4E58
100
AcDbDictionary
280
     1
281
     1
  3
ACAD_XREC_ROUNDTRIP
360
4EBA
  3
BUMPTILE
360
4E5B
  3
DIFFUSETILE
360
4E5A
  3
OPACITYTILE
360
4E5E
  3
REFLECTIONTILE
360
4E5D
  3
REFRACTIONTILE
360
4E5F
  3
SPECULARTILE
360
4E5C
  0
DICTIONARY
  5
4EB0
330
4E72
100
AcDbDictionary
280
     1
281
     1
  3
ACAD_ROUNDTRIP_2008_TABLESTYLE_CELLSTYLEMAP
360
4EB1
  3
ACAD_XREC_ROUNDTRIP
360
4EBB
  0
XRECORD
  5
4EB5
102
{ACAD_REACTORS
330
4EB4
102
}
330
4EB4
100
AcDbXrecord
280
     1
102
SHADEPLOT
 70
     0
102
SHADEPLOTRESLEVEL
 70
     2
102
SHADEPLOTCUSTOMDPI
 70
   300
  0
XRECORD
  5
4EB7
102
{ACAD_REACTORS
330
4EB6
102
}
330
4EB6
100
AcDbXrecord
280
     1
102
SHADEPLOT
 70
     0
102
SHADEPLOTRESLEVEL
 70
     2
102
SHADEPLOTCUSTOMDPI
 70
   300
  0
XRECORD
  5
4EB9
102
{ACAD_REACTORS
330
4E51
102
}
330
4E51
100
AcDbXrecord
280
     1
102
MATERIAL
148
0.0
149
0.0
149
0.0
 93
        0
 94
      127
282
     0
 72
     0
 77
     0
171
     0
175
     0
179
     0
273
     0
  0
XRECORD
  5
4E53
102
{ACAD_REACTORS
330
4E51
102
}
330
4E51
100
AcDbXrecord
280
     1
270
     1
271
     1
  0
XRECORD
  5
4E52
102
{ACAD_REACTORS
330
4E51
102
}
330
4E51
100
AcDbXrecord
280
     1
270
     1
271
     1
  0
XRECORD
  5
4E56
102
{ACAD_REACTORS
330
4E51
102
}
330
4E51
100
AcDbXrecord
280
     1
270
     1
271
     1
  0
XRECORD
  5
4E55
102
{ACAD_REACTORS
330
4E51
102
}
330
4E51
100
AcDbXrecord
280
     1
270
     1
271
     1
  0
XRECORD
  5
4E57
102
{ACAD_REACTORS
330
4E51
102
}
330
4E51
100
AcDbXrecord
280
     1
270
     1
271
     1
  0
XRECORD
  5
4E54
102
{ACAD_REACTORS
330
4E51
102
}
330
4E51
100
AcDbXrecord
280
     1
270
     1
271
     1
  0
XRECORD
  5
4EB8
102
{ACAD_REACTORS
330
4E49
102
}
330
4E49
100
AcDbXrecord
280
     1
102
MATERIAL
148
0.0
149
0.0
149
0.0
 93
        0
 94
      127
282
     0
 72
     0
 77
     0
171
     0
175
     0
179
     0
273
     0
  0
XRECORD
  5
4E4B
102
{ACAD_REACTORS
330
4E49
102
}
330
4E49
100
AcDbXrecord
280
     1
270
     1
271
     1
  0
XRECORD
  5
4E4A
102
{ACAD_REACTORS
330
4E49
102
}
330
4E49
100
AcDbXrecord
280
     1
270
     1
271
     1
  0
XRECORD
  5
4E4E
102
{ACAD_REACTORS
330
4E49
102
}
330
4E49
100
AcDbXrecord
280
     1
270
     1
271
     1
  0
XRECORD
  5
4E4D
102
{ACAD_REACTORS
330
4E49
102
}
330
4E49
100
AcDbXrecord
280
     1
270
     1
271
     1
  0
XRECORD
  5
4E4F
102
{ACAD_REACTORS
330
4E49
102
}
330
4E49
100
AcDbXrecord
280
     1
270
     1
271
     1
  0
XRECORD
  5
4E4C
102
{ACAD_REACTORS
330
4E49
102
}
330
4E49
100
AcDbXrecord
280
     1
270
     1
271
     1
  0
XRECORD
  5
4EBA
102
{ACAD_REACTORS
330
4E59
102
}
330
4E59
100
AcDbXrecord
280
     1
102
MATERIAL
148
0.0
149
0.0
149
0.0
 93
        0
 94
      127
282
     0
 72
     0
 77
     0
171
     0
175
     0
179
     0
273
     0
  0
XRECORD
  5
4E5B
102
{ACAD_REACTORS
330
4E59
102
}
330
4E59
100
AcDbXrecord
280
     1
270
     1
271
     1
  0
XRECORD
  5
4E5A
102
{ACAD_REACTORS
330
4E59
102
}
330
4E59
100
AcDbXrecord
280
     1
270
     1
271
     1
  0
XRECORD
  5
4E5E
102
{ACAD_REACTORS
330
4E59
102
}
330
4E59
100
AcDbXrecord
280
     1
270
     1
271
     1
  0
XRECORD
  5
4E5D
102
{ACAD_REACTORS
330
4E59
102
}
330
4E59
100
AcDbXrecord
280
     1
270
     1
271
     1
  0
XRECORD
  5
4E5F
102
{ACAD_REACTORS
330
4E59
102
}
330
4E59
100
AcDbXrecord
280
     1
270
     1
271
     1
  0
XRECORD
  5
4E5C
102
{ACAD_REACTORS
330
4E59
102
}
330
4E59
100
AcDbXrecord
280
     1
270
     1
271
     1
  0
CELLSTYLEMAP
  5
4EB1
102
{ACAD_REACTORS
330
4EB0
102
}
330
4EB0
100
AcDbCellStyleMap
 90
        3
300
CELLSTYLE
  1
TABLEFORMAT_BEGIN
 90
        5
170
     1
 91
        0
 92
    32768
 62
   257
 93
        1
300
CONTENTFORMAT
  1
CONTENTFORMAT_BEGIN
 90
        0
 91
        0
 92
      512
 93
        0
300

 40
0.0
140
1.0
 94
        5
 62
     0
340
1F
144
0.25
309
CONTENTFORMAT_END
171
     0
 94
        0
309
TABLEFORMAT_END
  1
CELLSTYLE_BEGIN
 90
        1
 91
        1
300
_TITLE
309
CELLSTYLE_END
300
CELLSTYLE
  1
TABLEFORMAT_BEGIN
 90
        5
170
     1
 91
        0
 92
        0
 62
   257
 93
        1
300
CONTENTFORMAT
  1
CONTENTFORMAT_BEGIN
 90
        0
 91
        0
 92
      512
 93
        0
300

 40
0.0
140
1.0
 94
        5
 62
     0
340
1F
144
0.18
309
CONTENTFORMAT_END
171
     0
 94
        0
309
TABLEFORMAT_END
  1
CELLSTYLE_BEGIN
 90
        2
 91
        1
300
_HEADER
309
CELLSTYLE_END
300
CELLSTYLE
  1
TABLEFORMAT_BEGIN
 90
        5
170
     1
 91
        0
 92
        0
 62
   257
 93
        1
300
CONTENTFORMAT
  1
CONTENTFORMAT_BEGIN
 90
        0
 91
        0
 92
      512
 93
        0
300

 40
0.0
140
1.0
 94
        2
 62
     0
340
1F
144
0.18
309
CONTENTFORMAT_END
171
     0
 94
        0
309
TABLEFORMAT_END
  1
CELLSTYLE_BEGIN
 90
        3
 91
        2
300
_DATA
309
CELLSTYLE_END
  0
XRECORD
  5
4EBB
102
{ACAD_REACTORS
330
4EB0
102
}
330
4EB0
100
AcDbXrecord
280
     1
102
ACAD_ROUNDTRIP_PRE2007_TABLESTYLE
 90
      512
 91
        0
  1

 92
      512
 93
        0
  2

 94
      512
 95
        0
  3

  0
ENDSEC
  0
EOF
