  0
SECTION
  2
HEADER
  9
$ACADVER
  1
AC1015
  9
$ACADMAINTVER
 70
    20
  9
$DWGCODEPAGE
  3
ANSI_932
  9
$INSBASE
 10
0.0
 20
0.0
 30
0.0
  9
$EXTMIN
 10
-360.0
 20
-277.0
 30
0.0
  9
$EXTMAX
 10
406.1010189999999
 20
264.0
 30
0.0
  9
$LIMMIN
 10
-420.0
 20
-297.0
  9
$LIMMAX
 10
420.0
 20
297.0
  9
$ORTHOMODE
 70
     1
  9
$REGENMODE
 70
     1
  9
$FILLMODE
 70
     1
  9
$QTEXTMODE
 70
     0
  9
$MIRRTEXT
 70
     1
  9
$LTSCALE
 40
1.0
  9
$ATTMODE
 70
     1
  9
$TEXTSIZE
 40
1.0
  9
$TRACEWID
 40
0.05
  9
$TEXTSTYLE
  7
STANDARD
  9
$CLAYER
  8
0
  9
$CELTYPE
  6
CONTINUOUS
  9
$CECOLOR
 62
   256
  9
$CELTSCALE
 40
1.0
  9
$DISPSILH
 70
     0
  9
$DIMSCALE
 40
2.0
  9
$DIMASZ
 40
0.18
  9
$DIMEXO
 40
0.0625
  9
$DIMDLI
 40
0.38
  9
$DIMRND
 40
0.0
  9
$DIMDLE
 40
0.0
  9
$DIMEXE
 40
0.18
  9
$DIMTP
 40
0.0
  9
$DIMTM
 40
0.0
  9
$DIMTXT
 40
0.18
  9
$DIMCEN
 40
0.09
  9
$DIMTSZ
 40
0.0
  9
$DIMTOL
 70
     0
  9
$DIMLIM
 70
     0
  9
$DIMTIH
 70
     1
  9
$DIMTOH
 70
     1
  9
$DIMSE1
 70
     0
  9
$DIMSE2
 70
     0
  9
$DIMTAD
 70
     1
  9
$DIMZIN
 70
     0
  9
$DIMBLK
  1

  9
$DIMASO
 70
     1
  9
$DIMSHO
 70
     1
  9
$DIMPOST
  1

  9
$DIMAPOST
  1

  9
$DIMALT
 70
     0
  9
$DIMALTD
 70
     2
  9
$DIMALTF
 40
25.4
  9
$DIMLFAC
 40
1.0
  9
$DIMTOFL
 70
     0
  9
$DIMTVP
 40
0.0
  9
$DIMTIX
 70
     0
  9
$DIMSOXD
 70
     0
  9
$DIMSAH
 70
     0
  9
$DIMBLK1
  1

  9
$DIMBLK2
  1

  9
$DIMSTYLE
  2
STANDARD
  9
$DIMCLRD
 70
     0
  9
$DIMCLRE
 70
     0
  9
$DIMCLRT
 70
     0
  9
$DIMTFAC
 40
1.0
  9
$DIMGAP
 40
0.09
  9
$DIMJUST
 70
     0
  9
$DIMSD1
 70
     0
  9
$DIMSD2
 70
     0
  9
$DIMTOLJ
 70
     1
  9
$DIMTZIN
 70
     0
  9
$DIMALTZ
 70
     0
  9
$DIMALTTZ
 70
     0
  9
$DIMUPT
 70
     0
  9
$DIMDEC
 70
     4
  9
$DIMTDEC
 70
     4
  9
$DIMALTU
 70
     2
  9
$DIMALTTD
 70
     2
  9
$DIMTXSTY
  7
STANDARD
  9
$DIMAUNIT
 70
     0
  9
$DIMADEC
 70
     0
  9
$DIMALTRND
 40
0.0
  9
$DIMAZIN
 70
     0
  9
$DIMDSEP
 70
    46
  9
$DIMATFIT
 70
     3
  9
$DIMFRAC
 70
     0
  9
$DIMLDRBLK
  1

  9
$DIMLUNIT
 70
     2
  9
$DIMLWD
 70
    -2
  9
$DIMLWE
 70
    -2
  9
$DIMTMOVE
 70
     0
  9
$LUNITS
 70
     2
  9
$LUPREC
 70
     4
  9
$SKETCHINC
 40
0.1
  9
$FILLETRAD
 40
0.0
  9
$AUNITS
 70
     0
  9
$AUPREC
 70
     0
  9
$MENU
  1
acad
  9
$ELEVATION
 40
0.0
  9
$PELEVATION
 40
0.0
  9
$THICKNESS
 40
0.0
  9
$LIMCHECK
 70
     0
  9
$CHAMFERA
 40
0.0
  9
$CHAMFERB
 40
0.0
  9
$CHAMFERC
 40
0.0
  9
$CHAMFERD
 40
0.0
  9
$SKPOLY
 70
     0
  9
$TDCREATE
 40
2450695.000000000
  9
$TDUCREATE
 40
2450694.625000000
  9
$TDUPDATE
 40
2454943.640433380
  9
$TDUUPDATE
 40
2454943.265433380
  9
$TDINDWG
 40
0.0014417824
  9
$TDUSRTIMER
 40
0.0014417824
  9
$USRTIMER
 70
     1
  9
$ANGBASE
 50
0.0
  9
$ANGDIR
 70
     0
  9
$PDMODE
 70
     0
  9
$PDSIZE
 40
0.0
  9
$PLINEWID
 40
0.0
  9
$SPLFRAME
 70
     0
  9
$SPLINETYPE
 70
     6
  9
$SPLINESEGS
 70
     8
  9
$HANDSEED
  5
62A
  9
$SURFTAB1
 70
     6
  9
$SURFTAB2
 70
     6
  9
$SURFTYPE
 70
     6
  9
$SURFU
 70
     6
  9
$SURFV
 70
     6
  9
$UCSBASE
  2

  9
$UCSNAME
  2

  9
$UCSORG
 10
0.0
 20
0.0
 30
0.0
  9
$UCSXDIR
 10
1.0
 20
0.0
 30
0.0
  9
$UCSYDIR
 10
0.0
 20
1.0
 30
0.0
  9
$UCSORTHOREF
  2

  9
$UCSORTHOVIEW
 70
     0
  9
$UCSORGTOP
 10
0.0
 20
0.0
 30
0.0
  9
$UCSORGBOTTOM
 10
0.0
 20
0.0
 30
0.0
  9
$UCSORGLEFT
 10
0.0
 20
0.0
 30
0.0
  9
$UCSORGRIGHT
 10
0.0
 20
0.0
 30
0.0
  9
$UCSORGFRONT
 10
0.0
 20
0.0
 30
0.0
  9
$UCSORGBACK
 10
0.0
 20
0.0
 30
0.0
  9
$PUCSBASE
  2

  9
$PUCSNAME
  2

  9
$PUCSORG
 10
0.0
 20
0.0
 30
0.0
  9
$PUCSXDIR
 10
1.0
 20
0.0
 30
0.0
  9
$PUCSYDIR
 10
0.0
 20
1.0
 30
0.0
  9
$PUCSORTHOREF
  2

  9
$PUCSORTHOVIEW
 70
     0
  9
$PUCSORGTOP
 10
0.0
 20
0.0
 30
0.0
  9
$PUCSORGBOTTOM
 10
0.0
 20
0.0
 30
0.0
  9
$PUCSORGLEFT
 10
0.0
 20
0.0
 30
0.0
  9
$PUCSORGRIGHT
 10
0.0
 20
0.0
 30
0.0
  9
$PUCSORGFRONT
 10
0.0
 20
0.0
 30
0.0
  9
$PUCSORGBACK
 10
0.0
 20
0.0
 30
0.0
  9
$USERI1
 70
     0
  9
$USERI2
 70
     0
  9
$USERI3
 70
     0
  9
$USERI4
 70
     0
  9
$USERI5
 70
     0
  9
$USERR1
 40
0.0
  9
$USERR2
 40
0.0
  9
$USERR3
 40
0.0
  9
$USERR4
 40
0.0
  9
$USERR5
 40
0.0
  9
$WORLDVIEW
 70
     1
  9
$SHADEDGE
 70
     3
  9
$SHADEDIF
 70
    70
  9
$TILEMODE
 70
     1
  9
$MAXACTVP
 70
    16
  9
$PINSBASE
 10
0.0
 20
0.0
 30
0.0
  9
$PLIMCHECK
 70
     0
  9
$PEXTMIN
 10
1.000000000000000E+20
 20
1.000000000000000E+20
 30
1.000000000000000E+20
  9
$PEXTMAX
 10
-1.000000000000000E+20
 20
-1.000000000000000E+20
 30
-1.000000000000000E+20
  9
$PLIMMIN
 10
0.0
 20
0.0
  9
$PLIMMAX
 10
12.0
 20
9.0
  9
$UNITMODE
 70
     0
  9
$VISRETAIN
 70
     0
  9
$PLINEGEN
 70
     1
  9
$PSLTSCALE
 70
     0
  9
$TREEDEPTH
 70
  3020
  9
$CMLSTYLE
  2
STANDARD
  9
$CMLJUST
 70
     0
  9
$CMLSCALE
 40
1.0
  9
$PROXYGRAPHICS
 70
     1
  9
$MEASUREMENT
 70
     0
  9
$CELWEIGHT
370
    -1
  9
$ENDCAPS
280
     0
  9
$JOINSTYLE
280
     0
  9
$LWDISPLAY
290
     0
  9
$INSUNITS
 70
     0
  9
$HYPERLINKBASE
  1

  9
$STYLESHEET
  1

  9
$XEDIT
290
     1
  9
$CEPSNTYPE
380
     0
  9
$PSTYLEMODE
290
     1
  9
$FINGERPRINTGUID
  2
{1EA046D2-5A81-456E-B4E6-21278D9A8B85}
  9
$VERSIONGUID
  2
{578D56DA-155E-43B9-ADD1-5E71AEE1385B}
  9
$EXTNAMES
290
     1
  9
$PSVPSCALE
 40
0.0
  9
$OLESTARTUP
290
     0
  0
ENDSEC
  0
SECTION
  2
CLASSES
  0
CLASS
  1
IMAGE
  2
AcDbRasterImage
  3
ISM
 90
    34943
280
     0
281
     1
  0
CLASS
  1
DICTIONARYVAR
  2
AcDbDictionaryVar
  3
ObjectDBX Classes
 90
        0
280
     0
281
     0
  0
CLASS
  1
RASTERVARIABLES
  2
AcDbRasterVariables
  3
ISM
 90
    32768
280
     0
281
     0
  0
CLASS
  1
IMAGEDEF
  2
AcDbRasterImageDef
  3
ISM
 90
    32768
280
     0
281
     0
  0
CLASS
  1
IMAGEDEF_REACTOR
  2
AcDbRasterImageDefReactor
  3
ISM
 90
    32769
280
     0
281
     0
  0
CLASS
  1
IDBUFFER
  2
AcDbIdBuffer
  3
ObjectDBX Classes
 90
    32768
280
     0
281
     0
  0
CLASS
  1
SPATIAL_FILTER
  2
AcDbSpatialFilter
  3
ObjectDBX Classes
 90
    32768
280
     0
281
     0
  0
CLASS
  1
SORTENTSTABLE
  2
AcDbSortentsTable
  3
ObjectDBX Classes
 90
    32768
280
     0
281
     0
  0
CLASS
  1
LAYER_INDEX
  2
AcDbLayerIndex
  3
ObjectDBX Classes
 90
    32768
280
     0
281
     0
  0
CLASS
  1
SPATIAL_INDEX
  2
AcDbSpatialIndex
  3
ObjectDBX Classes
 90
    32768
280
     0
281
     0
  0
CLASS
  1
OBJECT_PTR
  2
CAseDLPNTableRecord
  3
"ASE-LPNTableRecord"
 90
    32769
280
     0
281
     0
  0
CLASS
  1
LAYOUT
  2
AcDbLayout
  3
ObjectDBX Classes
 90
        0
280
     0
281
     0
  0
CLASS
  1
PLOTSETTINGS
  2
AcDbPlotSettings
  3
ObjectDBX Classes
 90
    32768
280
     0
281
     0
  0
CLASS
  1
ACDBDICTIONARYWDFLT
  2
AcDbDictionaryWithDefault
  3
ObjectDBX Classes
 90
        0
280
     0
281
     0
  0
CLASS
  1
ACDBPLACEHOLDER
  2
AcDbPlaceHolder
  3
ObjectDBX Classes
 90
        0
280
     0
281
     0
  0
CLASS
  1
VBA_PROJECT
  2
AcDbVbaProject
  3
acad
 90
    32768
280
     0
281
     0
  0
CLASS
  1
WIPEOUT
  2
AcDbWipeout
  3
"WipeOut|Product Desc: Object Enabler for WipeOut entity                        |Company: Autodesk, Inc.                        |WEB Address: www.autodesk.com"
 90
    34943
280
     0
281
     1
  0
CLASS
  1
WIPEOUTVARIABLES
  2
AcDbWipeoutVariables
  3
"WipeOut|Product Desc:     WipeOut Dbx Application|Company:          Autodesk, Inc.|WEB Address:      www.autodesk.com"
 90
    32768
280
     0
281
     0
  0
CLASS
  1
RTEXT
  2
RText
  3
RText|AutoCAD Express Tool|expresstools@autodesk.com
 90
    32768
280
     0
281
     1
  0
CLASS
  1
ARCALIGNEDTEXT
  2
AcDbArcAlignedText
  3
ATEXT|AutoCAD Express Tool|expresstools@autodesk.com
 90
    32768
280
     0
281
     1
  0
CLASS
  1
MATERIAL
  2
AcDbMaterial
  3
ObjectDBX Classes
 90
     1153
280
     0
281
     0
  0
CLASS
  1
VISUALSTYLE
  2
AcDbVisualStyle
  3
ObjectDBX Classes
 90
     4095
280
     0
281
     0
  0
CLASS
  1
TABLESTYLE
  2
AcDbTableStyle
  3
ObjectDBX Classes
 90
     4095
280
     0
281
     0
  0
CLASS
  1
SCALE
  2
AcDbScale
  3
ObjectDBX Classes
 90
     1153
280
     0
281
     0
  0
CLASS
  1
MLEADERSTYLE
  2
AcDbMLeaderStyle
  3
ACDB_MLEADERSTYLE_CLASS
 90
     4095
280
     0
281
     0
  0
CLASS
  1
CELLSTYLEMAP
  2
AcDbCellStyleMap
  3
ObjectDBX Classes
 90
     1152
280
     0
281
     0
  0
ENDSEC
  0
SECTION
  2
TABLES
  0
TABLE
  2
VPORT
  5
6
330
0
100
AcDbSymbolTable
 70
     1
  0
VPORT
  5
1B
330
6
100
AcDbSymbolTableRecord
100
AcDbViewportTableRecord
  2
*ACTIVE
 70
     0
 10
0.0
 20
0.0
 11
1.0
 21
1.0
 12
654.0958164284107
 22
-158.5992543282979
 13
0.0
 23
0.0
 14
1.0
 24
1.0
 15
0.0
 25
0.0
 16
0.0
 26
0.0
 36
1.0
 17
0.0
 27
0.0
 37
0.0
 40
1683.40657592834
 41
1.805914972273567
 42
50.0
 43
0.0
 44
0.0
 50
0.0
 51
0.0
 71
     0
 72
   500
 73
     1
 74
     1
 75
     0
 76
     0
 77
     0
 78
     0
281
     0
 65
     1
110
0.0
120
0.0
130
0.0
111
1.0
121
0.0
131
0.0
112
0.0
122
1.0
132
0.0
 79
     0
146
0.0
  0
ENDTAB
  0
TABLE
  2
LTYPE
  5
3
330
0
100
AcDbSymbolTable
 70
     7
  0
LTYPE
  5
C
330
3
100
AcDbSymbolTableRecord
100
AcDbLinetypeTableRecord
  2
BYBLOCK
 70
     0
  3

 72
    65
 73
     0
 40
0.0
  0
LTYPE
  5
D
330
3
100
AcDbSymbolTableRecord
100
AcDbLinetypeTableRecord
  2
BYLAYER
 70
     0
  3

 72
    65
 73
     0
 40
0.0
  0
LTYPE
  5
E
330
3
100
AcDbSymbolTableRecord
100
AcDbLinetypeTableRecord
  2
CONTINUOUS
 70
     0
  3
Solid line
 72
    65
 73
     0
 40
0.0
  0
LTYPE
  5
F
330
3
100
AcDbSymbolTableRecord
100
AcDbLinetypeTableRecord
  2
DASHED
 70
     0
  3
__ __ __ __ __ __ __ __ __ __ __ __ __ __ __
 72
    65
 73
     2
 40
2.0
 49
1.199999999999999
 74
     0
 49
-0.8
 74
     0
  0
LTYPE
  5
10
330
3
100
AcDbSymbolTableRecord
100
AcDbLinetypeTableRecord
  2
CENTER
 70
     0
  3
____ _ ____ _ ____ _ ____ _ ____ _ ____ _ ____
 72
    65
 73
     4
 40
12.0
 49
9.0
 74
     0
 49
-1.0
 74
     0
 49
1.0
 74
     0
 49
-1.0
 74
     0
  0
LTYPE
  5
11
330
3
100
AcDbSymbolTableRecord
100
AcDbLinetypeTableRecord
  2
HIDDEN
 70
     0
  3
_ _ _ _ _ _ _ _ _ _ _ _ _ _ _ _ _ _ _ _ _ _ _
 72
    65
 73
     2
 40
3.2
 49
2.399999999999999
 74
     0
 49
-0.8
 74
     0
  0
LTYPE
  5
12
330
3
100
AcDbSymbolTableRecord
100
AcDbLinetypeTableRecord
  2
PHANTOM
 70
     0
  3
_____ _ _ _____ _ _ _____ _ _ _____ _ _ _____
 72
    65
 73
     6
 40
13.5
 49
9.0
 74
     0
 49
-1.0
 74
     0
 49
1.0
 74
     0
 49
-0.5
 74
     0
 49
1.0
 74
     0
 49
-1.0
 74
     0
  0
LTYPE
  5
13
330
3
100
AcDbSymbolTableRecord
100
AcDbLinetypeTableRecord
  2
DOT
 70
     0
  3
...............................................
 72
    65
 73
     2
 40
1.0
 49
0.5
 74
     0
 49
-0.5
 74
     0
  0
LTYPE
  5
14
330
3
100
AcDbSymbolTableRecord
100
AcDbLinetypeTableRecord
  2
DASHDOT
 70
     0
  3
__ . __ . __ . __ . __ . __ . __ . __ . __ . __
 72
    65
 73
     4
 40
8.0
 49
5.0
 74
     0
 49
-1.0
 74
     0
 49
1.0
 74
     0
 49
-1.0
 74
     0
  0
ENDTAB
  0
TABLE
  2
LAYER
  5
1
330
0
100
AcDbSymbolTable
 70
     6
  0
LAYER
  5
15
102
{ACAD_XDICTIONARY
360
60B
102
}
330
1
100
AcDbSymbolTableRecord
100
AcDbLayerTableRecord
  2
0
 70
     0
 62
     7
  6
CONTINUOUS
370
    -3
390
5B2
  0
LAYER
  5
16
102
{ACAD_XDICTIONARY
360
60D
102
}
330
1
100
AcDbSymbolTableRecord
100
AcDbLayerTableRecord
  2
1
 70
     0
 62
     7
  6
CONTINUOUS
370
    -3
390
5B2
  0
LAYER
  5
17
102
{ACAD_XDICTIONARY
360
60F
102
}
330
1
100
AcDbSymbolTableRecord
100
AcDbLayerTableRecord
  2
2
 70
     0
 62
     7
  6
CONTINUOUS
370
    -3
390
5B2
  0
LAYER
  5
18
102
{ACAD_XDICTIONARY
360
611
102
}
330
1
100
AcDbSymbolTableRecord
100
AcDbLayerTableRecord
  2
5
 70
     0
 62
     7
  6
CONTINUOUS
370
    -3
390
5B2
  0
LAYER
  5
19
102
{ACAD_XDICTIONARY
360
613
102
}
330
1
100
AcDbSymbolTableRecord
100
AcDbLayerTableRecord
  2
18
 70
     0
 62
     7
  6
CONTINUOUS
370
    -3
390
5B2
  0
LAYER
  5
1A
102
{ACAD_XDICTIONARY
360
615
102
}
330
1
100
AcDbSymbolTableRecord
100
AcDbLayerTableRecord
  2
20
 70
     0
 62
     7
  6
CONTINUOUS
370
    -3
390
5B2
  0
ENDTAB
  0
TABLE
  2
STYLE
  5
2
330
0
100
AcDbSymbolTable
 70
     1
  0
STYLE
  5
1D
330
2
100
AcDbSymbolTableRecord
100
AcDbTextStyleTableRecord
  2
STANDARD
 70
     0
 40
0.0
 41
1.0
 50
0.0
 71
     0
 42
1.0
  3
simplex.shx
  4
BIGFONT.shx
  0
ENDTAB
  0
TABLE
  2
VIEW
  5
4
330
0
100
AcDbSymbolTable
 70
     0
  0
ENDTAB
  0
TABLE
  2
UCS
  5
5
330
0
100
AcDbSymbolTable
 70
     0
  0
ENDTAB
  0
TABLE
  2
APPID
  5
7
330
0
100
AcDbSymbolTable
 70
     3
  0
APPID
  5
1C
330
7
100
AcDbSymbolTableRecord
100
AcDbRegAppTableRecord
  2
ACAD
 70
     0
  0
APPID
  5
604
330
7
100
AcDbSymbolTableRecord
100
AcDbRegAppTableRecord
  2
ACAD_MLEADERVER
 70
     0
  0
APPID
  5
60A
330
7
100
AcDbSymbolTableRecord
100
AcDbRegAppTableRecord
  2
AcadAnnoPO
 70
     0
  0
ENDTAB
  0
TABLE
  2
DIMSTYLE
  5
8
330
0
100
AcDbSymbolTable
 70
     1
100
AcDbDimStyleTable
 71
     0
  0
DIMSTYLE
105
2C
330
8
100
AcDbSymbolTableRecord
100
AcDbDimStyleTableRecord
  2
STANDARD
 70
     0
 40
2.0
 77
     1
340
1D
  0
ENDTAB
  0
TABLE
  2
BLOCK_RECORD
  5
27
330
0
100
AcDbSymbolTable
 70
     7
  0
BLOCK_RECORD
  5
25
330
27
100
AcDbSymbolTableRecord
100
AcDbBlockTableRecord
  2
*MODEL_SPACE
340
607
  0
BLOCK_RECORD
  5
26
330
27
100
AcDbSymbolTableRecord
100
AcDbBlockTableRecord
  2
*PAPER_SPACE
340
608
  0
BLOCK_RECORD
  5
1E
330
27
100
AcDbSymbolTableRecord
100
AcDbBlockTableRecord
  2
*D0
340
0
  0
BLOCK_RECORD
  5
1F
330
27
100
AcDbSymbolTableRecord
100
AcDbBlockTableRecord
  2
*D1
340
0
  0
BLOCK_RECORD
  5
20
330
27
100
AcDbSymbolTableRecord
100
AcDbBlockTableRecord
  2
*D2
340
0
  0
BLOCK_RECORD
  5
21
330
27
100
AcDbSymbolTableRecord
100
AcDbBlockTableRecord
  2
*D3
340
0
  0
BLOCK_RECORD
  5
22
330
27
100
AcDbSymbolTableRecord
100
AcDbBlockTableRecord
  2
*D4
340
0
  0
BLOCK_RECORD
  5
23
330
27
100
AcDbSymbolTableRecord
100
AcDbBlockTableRecord
  2
*D5
340
0
  0
BLOCK_RECORD
  5
24
330
27
100
AcDbSymbolTableRecord
100
AcDbBlockTableRecord
  2
*D6
340
0
  0
ENDTAB
  0
ENDSEC
  0
SECTION
  2
BLOCKS
  0
BLOCK
  5
28
330
25
100
AcDbEntity
  8
0
100
AcDbBlockBegin
  2
*MODEL_SPACE
 70
     0
 10
0.0
 20
0.0
 30
0.0
  3
*MODEL_SPACE
  1

  0
ENDBLK
  5
29
330
25
100
AcDbEntity
  8
0
100
AcDbBlockEnd
  0
BLOCK
  5
2A
330
26
100
AcDbEntity
 67
     1
  8
0
100
AcDbBlockBegin
  2
*PAPER_SPACE
 70
     0
 10
0.0
 20
0.0
 30
0.0
  3
*PAPER_SPACE
  1

  0
ENDBLK
  5
2B
330
26
100
AcDbEntity
 67
     1
  8
0
100
AcDbBlockEnd
  0
BLOCK
  5
554
330
1E
100
AcDbEntity
  8
5
100
AcDbBlockBegin
  2
*D0
 70
     1
 10
0.0
 20
0.0
 30
0.0
  3
*D0
  1

  0
TEXT
  5
555
330
1E
100
AcDbEntity
  8
5
 62
     2
100
AcDbText
 10
12.480547
 20
-79.47126400000001
 30
0.0
 40
6.599999999999999
  1
156
 50
90.0
 41
0.7800000000000002
 72
     5
 11
12.480547
 21
-67.459264
 31
0.0
100
AcDbText
  0
LINE
  5
556
330
1E
100
AcDbEntity
  8
5
 62
     2
100
AcDbLine
 10
41.427908
 20
-150.541264
 30
0.0
 11
11.480547
 21
-150.541264
 31
0.0
  0
LINE
  5
557
330
1E
100
AcDbEntity
  8
5
 62
     2
100
AcDbLine
 10
13.480547
 20
-150.541264
 30
0.0
 11
14.515823
 21
-146.677561
 31
0.0
  0
LINE
  5
558
330
1E
100
AcDbEntity
  8
5
 62
     2
100
AcDbLine
 10
13.480547
 20
-150.541264
 30
0.0
 11
12.445271
 21
-146.677561
 31
0.0
  0
LINE
  5
559
330
1E
100
AcDbEntity
  8
5
 62
     2
100
AcDbLine
 10
14.515823
 20
-146.677561
 30
0.0
 11
12.445271
 21
-146.677561
 31
0.0
  0
LINE
  5
55A
330
1E
100
AcDbEntity
  8
5
 62
     2
100
AcDbLine
 10
13.480547
 20
-150.541264
 30
0.0
 11
13.480547
 21
5.458736
 31
0.0
  0
LINE
  5
55B
330
1E
100
AcDbEntity
  8
5
 62
     2
100
AcDbLine
 10
13.480547
 20
5.458736
 30
0.0
 11
12.445271
 21
1.595031999999999
 31
0.0
  0
LINE
  5
55C
330
1E
100
AcDbEntity
  8
5
 62
     2
100
AcDbLine
 10
13.480547
 20
5.458736
 30
0.0
 11
14.515823
 21
1.595031999999999
 31
0.0
  0
LINE
  5
55D
330
1E
100
AcDbEntity
  8
5
 62
     2
100
AcDbLine
 10
12.445271
 20
1.595031999999999
 30
0.0
 11
14.515823
 21
1.595031999999999
 31
0.0
  0
LINE
  5
55E
330
1E
100
AcDbEntity
  8
5
 62
     2
100
AcDbLine
 10
30.667908
 20
5.458736
 30
0.0
 11
11.480547
 21
5.458736
 31
0.0
  0
ENDBLK
  5
55F
330
1E
100
AcDbEntity
  8
5
100
AcDbBlockEnd
  0
BLOCK
  5
560
330
1F
100
AcDbEntity
  8
5
100
AcDbBlockBegin
  2
*D1
 70
     1
 10
0.0
 20
0.0
 30
0.0
  3
*D1
  1

  0
TEXT
  5
561
330
1F
100
AcDbEntity
  8
5
 62
     2
100
AcDbText
 10
12.480547
 20
-197.611264
 30
0.0
 40
6.599999999999999
  1
85
 50
90.0
 41
0.6917647058823527
 72
     5
 11
12.480547
 21
-190.2192639999999
 31
0.0
100
AcDbText
  0
LINE
  5
562
330
1F
100
AcDbEntity
  8
5
 62
     2
100
AcDbLine
 10
75.66790799999999
 20
-235.441264
 30
0.0
 11
11.480547
 21
-235.441264
 31
0.0
  0
LINE
  5
563
330
1F
100
AcDbEntity
  8
5
 62
     2
100
AcDbLine
 10
13.480547
 20
-235.441264
 30
0.0
 11
14.515823
 21
-231.577561
 31
0.0
  0
LINE
  5
564
330
1F
100
AcDbEntity
  8
5
 62
     2
100
AcDbLine
 10
13.480547
 20
-235.441264
 30
0.0
 11
12.445271
 21
-231.577561
 31
0.0
  0
LINE
  5
565
330
1F
100
AcDbEntity
  8
5
 62
     2
100
AcDbLine
 10
14.515823
 20
-231.577561
 30
0.0
 11
12.445271
 21
-231.577561
 31
0.0
  0
LINE
  5
566
330
1F
100
AcDbEntity
  8
5
 62
     2
100
AcDbLine
 10
13.480547
 20
-235.441264
 30
0.0
 11
13.480547
 21
-150.541264
 31
0.0
  0
LINE
  5
567
330
1F
100
AcDbEntity
  8
5
 62
     2
100
AcDbLine
 10
13.480547
 20
-150.541264
 30
0.0
 11
12.445271
 21
-154.404968
 31
0.0
  0
LINE
  5
568
330
1F
100
AcDbEntity
  8
5
 62
     2
100
AcDbLine
 10
13.480547
 20
-150.541264
 30
0.0
 11
14.515823
 21
-154.404968
 31
0.0
  0
LINE
  5
569
330
1F
100
AcDbEntity
  8
5
 62
     2
100
AcDbLine
 10
12.445271
 20
-154.404968
 30
0.0
 11
14.515823
 21
-154.404968
 31
0.0
  0
LINE
  5
56A
330
1F
100
AcDbEntity
  8
5
 62
     2
100
AcDbLine
 10
41.427908
 20
-150.541264
 30
0.0
 11
11.480547
 21
-150.541264
 31
0.0
  0
ENDBLK
  5
56B
330
1F
100
AcDbEntity
  8
5
100
AcDbBlockEnd
  0
BLOCK
  5
56C
330
20
100
AcDbEntity
  8
5
100
AcDbBlockBegin
  2
*D2
 70
     1
 10
0.0
 20
0.0
 30
0.0
  3
*D2
  1

  0
TEXT
  5
56D
330
20
100
AcDbEntity
  8
5
 62
     2
100
AcDbText
 10
78.04790799999999
 20
-260.486511
 30
0.0
 40
6.599999999999999
  1
46
 41
0.7127272727272739
 72
     5
 11
85.43990800000001
 21
-260.486511
 31
0.0
100
AcDbText
  0
LINE
  5
56E
330
20
100
AcDbEntity
  8
5
 62
     2
100
AcDbLine
 10
59.667908
 20
-214.541264
 30
0.0
 11
59.667908
 21
-263.486511
 31
0.0
  0
LINE
  5
56F
330
20
100
AcDbEntity
  8
5
 62
     2
100
AcDbLine
 10
59.667908
 20
-261.486511
 30
0.0
 11
63.531611
 21
-262.521787
 31
0.0
  0
LINE
  5
570
330
20
100
AcDbEntity
  8
5
 62
     2
100
AcDbLine
 10
59.667908
 20
-261.486511
 30
0.0
 11
63.531611
 21
-260.451235
 31
0.0
  0
LINE
  5
571
330
20
100
AcDbEntity
  8
5
 62
     2
100
AcDbLine
 10
63.531611
 20
-262.521787
 30
0.0
 11
63.531611
 21
-260.451235
 31
0.0
  0
LINE
  5
572
330
20
100
AcDbEntity
  8
5
 62
     2
100
AcDbLine
 10
59.667908
 20
-261.486511
 30
0.0
 11
105.667908
 21
-261.486511
 31
0.0
  0
LINE
  5
573
330
20
100
AcDbEntity
  8
5
 62
     2
100
AcDbLine
 10
105.667908
 20
-261.486511
 30
0.0
 11
101.804204
 21
-260.451235
 31
0.0
  0
LINE
  5
574
330
20
100
AcDbEntity
  8
5
 62
     2
100
AcDbLine
 10
105.667908
 20
-261.486511
 30
0.0
 11
101.804204
 21
-262.521787
 31
0.0
  0
LINE
  5
575
330
20
100
AcDbEntity
  8
5
 62
     2
100
AcDbLine
 10
101.804204
 20
-260.451235
 30
0.0
 11
101.804204
 21
-262.521787
 31
0.0
  0
LINE
  5
576
330
20
100
AcDbEntity
  8
5
 62
     2
100
AcDbLine
 10
105.667908
 20
-214.541264
 30
0.0
 11
105.667908
 21
-263.486511
 31
0.0
  0
ENDBLK
  5
577
330
20
100
AcDbEntity
  8
5
100
AcDbBlockEnd
  0
BLOCK
  5
578
330
21
100
AcDbEntity
  8
5
100
AcDbBlockBegin
  2
*D3
 70
     1
 10
0.0
 20
0.0
 30
0.0
  3
*D3
  1

  0
TEXT
  5
579
330
21
100
AcDbEntity
  8
5
 62
     2
100
AcDbText
 10
-336.49295
 20
198.12296
 30
0.0
 40
6.599999999999999
  1
75
 50
90.0
 41
0.6917647058823527
 72
     5
 11
-336.49295
 21
205.51496
 31
0.0
100
AcDbText
  0
LINE
  5
57A
330
21
100
AcDbEntity
  8
5
 62
     2
100
AcDbLine
 10
-324.130847
 20
165.24296
 30
0.0
 11
-337.49295
 21
165.24296
 31
0.0
  0
LINE
  5
57B
330
21
100
AcDbEntity
  8
5
 62
     2
100
AcDbLine
 10
-335.49295
 20
165.24296
 30
0.0
 11
-334.457674
 21
169.106663
 31
0.0
  0
LINE
  5
57C
330
21
100
AcDbEntity
  8
5
 62
     2
100
AcDbLine
 10
-335.49295
 20
165.24296
 30
0.0
 11
-336.528227
 21
169.106663
 31
0.0
  0
LINE
  5
57D
330
21
100
AcDbEntity
  8
5
 62
     2
100
AcDbLine
 10
-334.457674
 20
169.106663
 30
0.0
 11
-336.528227
 21
169.106663
 31
0.0
  0
LINE
  5
57E
330
21
100
AcDbEntity
  8
5
 62
     2
100
AcDbLine
 10
-335.49295
 20
165.24296
 30
0.0
 11
-335.49295
 21
240.24296
 31
0.0
  0
LINE
  5
57F
330
21
100
AcDbEntity
  8
5
 62
     2
100
AcDbLine
 10
-335.49295
 20
240.24296
 30
0.0
 11
-336.528227
 21
236.379257
 31
0.0
  0
LINE
  5
580
330
21
100
AcDbEntity
  8
5
 62
     2
100
AcDbLine
 10
-335.49295
 20
240.24296
 30
0.0
 11
-334.457674
 21
236.379257
 31
0.0
  0
LINE
  5
581
330
21
100
AcDbEntity
  8
5
 62
     2
100
AcDbLine
 10
-336.528227
 20
236.379257
 30
0.0
 11
-334.457674
 21
236.379257
 31
0.0
  0
LINE
  5
582
330
21
100
AcDbEntity
  8
5
 62
     2
100
AcDbLine
 10
-259.842159
 20
240.24296
 30
0.0
 11
-337.49295
 21
240.24296
 31
0.0
  0
ENDBLK
  5
583
330
21
100
AcDbEntity
  8
5
100
AcDbBlockEnd
  0
BLOCK
  5
584
330
22
100
AcDbEntity
  8
5
100
AcDbBlockBegin
  2
*D4
 70
     1
 10
0.0
 20
0.0
 30
0.0
  3
*D4
  1

  0
TEXT
  5
585
330
22
100
AcDbEntity
  8
5
 62
     2
100
AcDbText
 10
-336.49295
 20
135.62296
 30
0.0
 40
6.599999999999999
  1
50
 50
90.0
 41
0.6917647058823526
 72
     5
 11
-336.49295
 21
143.01496
 31
0.0
100
AcDbText
  0
LINE
  5
586
330
22
100
AcDbEntity
  8
5
 62
     2
100
AcDbLine
 10
-244.842159
 20
115.24296
 30
0.0
 11
-337.49295
 21
115.24296
 31
0.0
  0
LINE
  5
587
330
22
100
AcDbEntity
  8
5
 62
     2
100
AcDbLine
 10
-335.49295
 20
115.24296
 30
0.0
 11
-334.457674
 21
119.106663
 31
0.0
  0
LINE
  5
588
330
22
100
AcDbEntity
  8
5
 62
     2
100
AcDbLine
 10
-335.49295
 20
115.24296
 30
0.0
 11
-336.528227
 21
119.106663
 31
0.0
  0
LINE
  5
589
330
22
100
AcDbEntity
  8
5
 62
     2
100
AcDbLine
 10
-334.457674
 20
119.106663
 30
0.0
 11
-336.528227
 21
119.106663
 31
0.0
  0
LINE
  5
58A
330
22
100
AcDbEntity
  8
5
 62
     2
100
AcDbLine
 10
-335.49295
 20
115.24296
 30
0.0
 11
-335.49295
 21
165.24296
 31
0.0
  0
LINE
  5
58B
330
22
100
AcDbEntity
  8
5
 62
     2
100
AcDbLine
 10
-335.49295
 20
165.24296
 30
0.0
 11
-336.528227
 21
161.379257
 31
0.0
  0
LINE
  5
58C
330
22
100
AcDbEntity
  8
5
 62
     2
100
AcDbLine
 10
-335.49295
 20
165.24296
 30
0.0
 11
-334.457674
 21
161.379257
 31
0.0
  0
LINE
  5
58D
330
22
100
AcDbEntity
  8
5
 62
     2
100
AcDbLine
 10
-336.528227
 20
161.379257
 30
0.0
 11
-334.457674
 21
161.379257
 31
0.0
  0
LINE
  5
58E
330
22
100
AcDbEntity
  8
5
 62
     2
100
AcDbLine
 10
-324.130847
 20
165.24296
 30
0.0
 11
-337.49295
 21
165.24296
 31
0.0
  0
ENDBLK
  5
58F
330
22
100
AcDbEntity
  8
5
100
AcDbBlockEnd
  0
BLOCK
  5
590
330
23
100
AcDbEntity
  8
5
100
AcDbBlockBegin
  2
*D5
 70
     1
 10
0.0
 20
0.0
 30
0.0
  3
*D5
  1

  0
LINE
  5
591
330
23
100
AcDbEntity
  8
5
 62
     2
100
AcDbLine
 10
-242.841921
 20
54.531397
 30
0.0
 11
-242.841921
 21
83.79112199999999
 31
0.0
  0
LINE
  5
592
330
23
100
AcDbEntity
  8
5
 62
     2
100
AcDbLine
 10
-242.841921
 20
81.791122
 30
0.0
 11
-238.978218
 21
80.75584599999999
 31
0.0
  0
LINE
  5
593
330
23
100
AcDbEntity
  8
5
 62
     2
100
AcDbLine
 10
-242.841921
 20
81.791122
 30
0.0
 11
-238.978218
 21
82.82639899999999
 31
0.0
  0
LINE
  5
594
330
23
100
AcDbEntity
  8
5
 62
     2
100
AcDbLine
 10
-238.978218
 20
80.75584599999999
 30
0.0
 11
-238.978218
 21
82.82639899999999
 31
0.0
  0
LINE
  5
595
330
23
100
AcDbEntity
  8
5
 62
     2
100
AcDbLine
 10
-242.841921
 20
81.791122
 30
0.0
 11
-42.98046099999999
 21
81.791122
 31
0.0
  0
LINE
  5
596
330
23
100
AcDbEntity
  8
5
 62
     2
100
AcDbLine
 10
-42.98046099999999
 20
81.791122
 30
0.0
 11
-46.84416399999999
 21
82.82639899999999
 31
0.0
  0
LINE
  5
597
330
23
100
AcDbEntity
  8
5
 62
     2
100
AcDbLine
 10
-42.98046099999999
 20
81.791122
 30
0.0
 11
-46.84416399999999
 21
80.75584599999999
 31
0.0
  0
LINE
  5
598
330
23
100
AcDbEntity
  8
5
 62
     2
100
AcDbLine
 10
-46.84416399999999
 20
82.82639899999999
 30
0.0
 11
-46.84416399999999
 21
80.75584599999999
 31
0.0
  0
LINE
  5
599
330
23
100
AcDbEntity
  8
5
 62
     2
100
AcDbLine
 10
-42.98046099999999
 20
66.179052
 30
0.0
 11
-42.98046099999999
 21
83.79112199999999
 31
0.0
  0
ENDBLK
  5
59A
330
23
100
AcDbEntity
  8
5
100
AcDbBlockEnd
  0
BLOCK
  5
59B
330
24
100
AcDbEntity
  8
5
100
AcDbBlockBegin
  2
*D6
 70
     1
 10
0.0
 20
0.0
 30
0.0
  3
*D6
  1

  0
LINE
  5
59C
330
24
100
AcDbEntity
  8
5
 62
     2
100
AcDbLine
 10
30.667908
 20
5.458736
 30
0.0
 11
11.480547
 21
5.458736
 31
0.0
  0
LINE
  5
59D
330
24
100
AcDbEntity
  8
5
 62
     2
100
AcDbLine
 10
13.480547
 20
5.458736
 30
0.0
 11
14.515823
 21
9.322438999999999
 31
0.0
  0
LINE
  5
59E
330
24
100
AcDbEntity
  8
5
 62
     2
100
AcDbLine
 10
13.480547
 20
5.458736
 30
0.0
 11
12.445271
 21
9.322438999999999
 31
0.0
  0
LINE
  5
59F
330
24
100
AcDbEntity
  8
5
 62
     2
100
AcDbLine
 10
14.515823
 20
9.322438999999999
 30
0.0
 11
12.445271
 21
9.322438999999999
 31
0.0
  0
LINE
  5
5A0
330
24
100
AcDbEntity
  8
5
 62
     2
100
AcDbLine
 10
13.480547
 20
5.458736
 30
0.0
 11
13.480547
 21
71.63611
 31
0.0
  0
LINE
  5
5A1
330
24
100
AcDbEntity
  8
5
 62
     2
100
AcDbLine
 10
13.480547
 20
71.63611
 30
0.0
 11
12.445271
 21
67.772406
 31
0.0
  0
LINE
  5
5A2
330
24
100
AcDbEntity
  8
5
 62
     2
100
AcDbLine
 10
13.480547
 20
71.63611
 30
0.0
 11
14.515823
 21
67.772406
 31
0.0
  0
LINE
  5
5A3
330
24
100
AcDbEntity
  8
5
 62
     2
100
AcDbLine
 10
12.445271
 20
67.772406
 30
0.0
 11
14.515823
 21
67.772406
 31
0.0
  0
LINE
  5
5A4
330
24
100
AcDbEntity
  8
5
 62
     2
100
AcDbLine
 10
80.66790799999999
 20
71.63611
 30
0.0
 11
11.480547
 21
71.63611
 31
0.0
  0
ENDBLK
  5
5A5
330
24
100
AcDbEntity
  8
5
100
AcDbBlockEnd
  0
ENDSEC
  0
SECTION
  2
ENTITIES
  0
LINE
  5
2D
330
25
100
AcDbEntity
  8
1
  6
DASHED
100
AcDbLine
 10
-267.842159
 20
200.24296
 30
0.0
 11
-217.842159
 21
200.24296
 31
0.0
  0
LINE
  5
2E
330
25
100
AcDbEntity
  8
1
  6
DASHED
100
AcDbLine
 10
-267.842159
 20
130.24296
 30
0.0
 11
-217.842159
 21
130.24296
 31
0.0
  0
LINE
  5
2F
330
25
100
AcDbEntity
  8
1
  6
DASHED
100
AcDbLine
 10
-277.842159
 20
140.24296
 30
0.0
 11
-277.842159
 21
190.24296
 31
0.0
  0
LINE
  5
30
330
25
100
AcDbEntity
  8
1
  6
DASHED
100
AcDbLine
 10
-207.842159
 20
140.24296
 30
0.0
 11
-207.842159
 21
190.24296
 31
0.0
  0
ARC
  5
31
330
25
100
AcDbEntity
  8
1
  6
DASHED
100
AcDbCircle
 10
-267.842159
 20
140.24296
 30
0.0
 40
10.0
100
AcDbArc
 50
180.0
 51
270.0
  0
ARC
  5
32
330
25
100
AcDbEntity
  8
1
  6
DASHED
100
AcDbCircle
 10
-217.842159
 20
140.24296
 30
0.0
 40
10.0
100
AcDbArc
 50
270.0
 51
0.0
  0
ARC
  5
33
330
25
100
AcDbEntity
  8
1
  6
DASHED
100
AcDbCircle
 10
-217.842159
 20
190.24296
 30
0.0
 40
10.0
100
AcDbArc
 50
0.0
 51
90.0
  0
ARC
  5
34
330
25
100
AcDbEntity
  8
1
  6
DASHED
100
AcDbCircle
 10
-267.842159
 20
190.24296
 30
0.0
 40
10.0
100
AcDbArc
 50
90.0
 51
180.0
  0
CIRCLE
  5
35
330
25
100
AcDbEntity
  8
1
  6
DASHED
100
AcDbCircle
 10
-218.092159
 20
189.99296
 30
0.0
 40
4.5
  0
CIRCLE
  5
36
330
25
100
AcDbEntity
  8
1
  6
DASHED
100
AcDbCircle
 10
-218.092159
 20
140.49296
 30
0.0
 40
4.5
  0
CIRCLE
  5
37
330
25
100
AcDbEntity
  8
1
  6
DASHED
100
AcDbCircle
 10
-267.592159
 20
140.49296
 30
0.0
 40
4.5
  0
CIRCLE
  5
38
330
25
100
AcDbEntity
  8
1
  6
DASHED
100
AcDbCircle
 10
-267.592159
 20
189.99296
 30
0.0
 40
4.5
  0
LINE
  5
39
330
25
100
AcDbEntity
  8
1
  6
CENTER
 62
     2
100
AcDbLine
 10
-227.278534
 20
189.99296
 30
0.0
 11
-209.192613
 21
189.99296
 31
0.0
  0
LINE
  5
3A
330
25
100
AcDbEntity
  8
1
  6
CENTER
 62
     2
100
AcDbLine
 10
-276.972818
 20
140.49296
 30
0.0
 11
-257.823975
 21
140.49296
 31
0.0
  0
LINE
  5
3B
330
25
100
AcDbEntity
  8
1
  6
CENTER
 62
     2
100
AcDbLine
 10
-218.092159
 20
180.697678
 30
0.0
 11
-218.092159
 21
199.345108
 31
0.0
  0
LINE
  5
3C
330
25
100
AcDbEntity
  8
1
  6
CENTER
 62
     2
100
AcDbLine
 10
-267.592159
 20
131.5159149999999
 30
0.0
 11
-267.592159
 21
150.138733
 31
0.0
  0
LINE
  5
3D
330
25
100
AcDbEntity
  8
1
  6
CENTER
 62
     2
100
AcDbLine
 10
-242.841921
 20
52.531397
 30
0.0
 11
-242.841921
 21
-245.490494
 31
0.0
  0
LINE
  5
3E
330
25
100
AcDbEntity
  8
1
  6
CENTER
 62
     2
100
AcDbLine
 10
-322.130847
 20
-150.541323
 30
0.0
 11
-160.441921
 21
-150.541323
 31
0.0
  0
LINE
  5
3F
330
25
100
AcDbEntity
  8
1
100
AcDbLine
 10
-210.393184
 20
-6.541323
 30
0.0
 11
-275.290658
 21
-6.541323
 31
0.0
  0
LINE
  5
40
330
25
100
AcDbEntity
  8
1
100
AcDbLine
 10
-277.841921
 20
5.458676999999999
 30
0.0
 11
-277.841921
 21
-2.541322999999999
 31
0.0
  0
LINE
  5
41
330
25
100
AcDbEntity
  8
1
100
AcDbLine
 10
-207.841921
 20
5.458676999999999
 30
0.0
 11
-207.841921
 21
-2.541322999999999
 31
0.0
  0
LINE
  5
42
330
25
100
AcDbEntity
  8
1
100
AcDbLine
 10
-258.841921
 20
-14.541323
 30
0.0
 11
-258.841921
 21
-82.32842099999999
 31
0.0
  0
LINE
  5
43
330
25
100
AcDbEntity
  8
1
100
AcDbLine
 10
-226.841921
 20
-14.541323
 30
0.0
 11
-226.841921
 21
-82.32842099999999
 31
0.0
  0
LINE
  5
44
330
25
100
AcDbEntity
  8
1
100
AcDbLine
 10
-235.941921
 20
-231.441323
 30
0.0
 11
-223.741921
 21
-231.441323
 31
0.0
  0
LINE
  5
45
330
25
100
AcDbEntity
  8
1
100
AcDbLine
 10
-224.091921
 20
-231.441323
 30
0.0
 11
-224.091921
 21
-234.950575
 31
0.0
  0
LINE
  5
46
330
25
100
AcDbEntity
  8
1
100
AcDbLine
 10
-224.091921
 20
-234.950575
 30
0.0
 11
-224.941921
 21
-235.441323
 31
0.0
  0
LINE
  5
47
330
25
100
AcDbEntity
  8
1
100
AcDbLine
 10
-224.941921
 20
-235.441323
 30
0.0
 11
-234.741921
 21
-235.441323
 31
0.0
  0
LINE
  5
48
330
25
100
AcDbEntity
  8
1
100
AcDbLine
 10
-226.966921
 20
-231.441323
 30
0.0
 11
-226.966921
 21
-234.950575
 31
0.0
  0
ARC
  5
49
330
25
100
AcDbEntity
  8
1
100
AcDbCircle
 10
-225.529421
 20
-233.10262
 30
0.0
 40
2.341226999999999
100
AcDbArc
 50
232.121121
 51
307.878879
  0
LINE
  5
4A
330
25
100
AcDbEntity
  8
1
100
AcDbLine
 10
-235.591921
 20
-231.441323
 30
0.0
 11
-235.591921
 21
-234.950575
 31
0.0
  0
LINE
  5
4B
330
25
100
AcDbEntity
  8
1
100
AcDbLine
 10
-235.591921
 20
-234.950575
 30
0.0
 11
-234.741921
 21
-235.441323
 31
0.0
  0
LINE
  5
4C
330
25
100
AcDbEntity
  8
1
100
AcDbLine
 10
-232.716921
 20
-231.441323
 30
0.0
 11
-232.716921
 21
-234.950575
 31
0.0
  0
ARC
  5
4D
330
25
100
AcDbEntity
  8
1
100
AcDbCircle
 10
-234.154421
 20
-233.10262
 30
0.0
 40
2.341226999999999
100
AcDbArc
 50
232.121121
 51
307.878879
  0
ARC
  5
4E
330
25
100
AcDbEntity
  8
1
100
AcDbCircle
 10
-229.841921
 20
-226.8188470000001
 30
0.0
 40
8.625
100
AcDbArc
 50
250.528777
 51
289.471219
  0
LINE
  5
4F
330
25
100
AcDbEntity
  8
1
100
AcDbLine
 10
-223.741921
 20
-229.941323
 30
0.0
 11
-223.741921
 21
-231.441323
 31
0.0
  0
LINE
  5
50
330
25
100
AcDbEntity
  8
1
100
AcDbLine
 10
-235.941921
 20
-231.441323
 30
0.0
 11
-235.941921
 21
-229.941323
 31
0.0
  0
LINE
  5
51
330
25
100
AcDbEntity
  8
1
100
AcDbLine
 10
-229.841921
 20
-231.441323
 30
0.0
 11
-230.341921
 21
-229.941323
 31
0.0
  0
LINE
  5
52
330
25
100
AcDbEntity
  8
1
100
AcDbLine
 10
-229.841921
 20
-229.941323
 30
0.0
 11
-229.341921
 21
-231.441323
 31
0.0
  0
LINE
  5
53
330
25
100
AcDbEntity
  8
1
100
AcDbLine
 10
-261.941921
 20
-231.441323
 30
0.0
 11
-249.741921
 21
-231.441323
 31
0.0
  0
LINE
  5
54
330
25
100
AcDbEntity
  8
1
100
AcDbLine
 10
-250.091921
 20
-231.441323
 30
0.0
 11
-250.091921
 21
-234.950575
 31
0.0
  0
LINE
  5
55
330
25
100
AcDbEntity
  8
1
100
AcDbLine
 10
-250.091921
 20
-234.950575
 30
0.0
 11
-250.941921
 21
-235.441323
 31
0.0
  0
LINE
  5
56
330
25
100
AcDbEntity
  8
1
100
AcDbLine
 10
-252.966921
 20
-231.441323
 30
0.0
 11
-252.966921
 21
-234.950575
 31
0.0
  0
ARC
  5
57
330
25
100
AcDbEntity
  8
1
100
AcDbCircle
 10
-251.529421
 20
-233.10262
 30
0.0
 40
2.341226999999999
100
AcDbArc
 50
232.121121
 51
307.878879
  0
ARC
  5
58
330
25
100
AcDbEntity
  8
1
100
AcDbCircle
 10
-255.841921
 20
-226.8188470000001
 30
0.0
 40
8.625
100
AcDbArc
 50
250.528777
 51
289.471219
  0
LINE
  5
59
330
25
100
AcDbEntity
  8
1
100
AcDbLine
 10
-261.591921
 20
-231.441323
 30
0.0
 11
-261.591921
 21
-234.950575
 31
0.0
  0
LINE
  5
5A
330
25
100
AcDbEntity
  8
1
100
AcDbLine
 10
-261.591921
 20
-234.950575
 30
0.0
 11
-260.741921
 21
-235.441323
 31
0.0
  0
LINE
  5
5B
330
25
100
AcDbEntity
  8
1
100
AcDbLine
 10
-260.741921
 20
-235.441323
 30
0.0
 11
-250.941921
 21
-235.441323
 31
0.0
  0
LINE
  5
5C
330
25
100
AcDbEntity
  8
1
100
AcDbLine
 10
-258.716921
 20
-231.441323
 30
0.0
 11
-258.716921
 21
-234.950575
 31
0.0
  0
ARC
  5
5D
330
25
100
AcDbEntity
  8
1
100
AcDbCircle
 10
-260.154421
 20
-233.10262
 30
0.0
 40
2.341226999999999
100
AcDbArc
 50
232.121121
 51
307.878879
  0
LINE
  5
5E
330
25
100
AcDbEntity
  8
1
100
AcDbLine
 10
-249.741921
 20
-229.941323
 30
0.0
 11
-249.741921
 21
-231.441323
 31
0.0
  0
LINE
  5
5F
330
25
100
AcDbEntity
  8
1
100
AcDbLine
 10
-261.941921
 20
-231.441323
 30
0.0
 11
-261.941921
 21
-229.941323
 31
0.0
  0
LINE
  5
60
330
25
100
AcDbEntity
  8
1
100
AcDbLine
 10
-255.841921
 20
-231.441323
 30
0.0
 11
-256.341921
 21
-229.941323
 31
0.0
  0
LINE
  5
61
330
25
100
AcDbEntity
  8
1
100
AcDbLine
 10
-255.841921
 20
-229.941323
 30
0.0
 11
-255.341921
 21
-231.441323
 31
0.0
  0
LINE
  5
62
330
25
100
AcDbEntity
  8
1
  6
DASHED
100
AcDbLine
 10
-194.56177
 20
175.660255
 30
0.0
 11
-205.297654
 21
173.831417
 31
0.0
  0
LINE
  5
63
330
25
100
AcDbEntity
  8
1
  6
DASHED
100
AcDbLine
 10
-194.56177
 20
154.825665
 30
0.0
 11
-205.297654
 21
156.654503
 31
0.0
  0
LINE
  5
64
330
25
100
AcDbEntity
  8
1
100
AcDbLine
 10
-298.892159
 20
189.36796
 30
0.0
 11
-300.341881
 21
188.531582
 31
0.0
  0
LINE
  5
65
330
25
100
AcDbEntity
  8
1
100
AcDbLine
 10
-298.892159
 20
141.11796
 30
0.0
 11
-300.341881
 21
141.954338
 31
0.0
  0
ARC
  5
66
330
25
100
AcDbEntity
  8
1
100
AcDbCircle
 10
-299.842159
 20
187.665396
 30
0.0
 40
1.0
100
AcDbArc
 50
119.981639
 51
144.720616
  0
ARC
  5
67
330
25
100
AcDbEntity
  8
1
100
AcDbCircle
 10
-299.842159
 20
142.820524
 30
0.0
 40
1.0
100
AcDbArc
 50
215.279384
 51
240.018361
  0
LINE
  5
68
330
25
100
AcDbEntity
  8
1
100
AcDbLine
 10
-186.792159
 20
189.36796
 30
0.0
 11
-185.342436
 21
188.531582
 31
0.0
  0
LINE
  5
69
330
25
100
AcDbEntity
  8
1
  6
DASHED
100
AcDbLine
 10
-186.792159
 20
141.11796
 30
0.0
 11
-185.342436
 21
141.954338
 31
0.0
  0
ARC
  5
6A
330
25
100
AcDbEntity
  8
1
100
AcDbCircle
 10
-185.842159
 20
187.665396
 30
0.0
 40
1.0
100
AcDbArc
 50
35.279384
 51
60.018361
  0
ARC
  5
6B
330
25
100
AcDbEntity
  8
1
  6
DASHED
100
AcDbCircle
 10
-185.842159
 20
142.820524
 30
0.0
 40
1.0
100
AcDbArc
 50
299.981639
 51
324.720616
  0
LINE
  5
6C
330
25
100
AcDbEntity
  8
1
  6
DASHED
100
AcDbLine
 10
-207.842159
 20
141.11796
 30
0.0
 11
-186.792159
 21
141.11796
 31
0.0
  0
LINE
  5
6D
330
25
100
AcDbEntity
  8
1
  6
DASHED
100
AcDbLine
 10
-291.122548
 20
175.660255
 30
0.0
 11
-280.386664
 21
173.831417
 31
0.0
  0
LINE
  5
6E
330
25
100
AcDbEntity
  8
1
  6
DASHED
100
AcDbLine
 10
-291.122548
 20
154.825665
 30
0.0
 11
-280.386664
 21
156.654503
 31
0.0
  0
ARC
  5
6F
330
25
100
AcDbEntity
  8
1
100
AcDbCircle
 10
-273.841921
 20
-2.541322999999999
 30
0.0
 40
4.0
100
AcDbArc
 50
180.0
 51
270.0
  0
ARC
  5
70
330
25
100
AcDbEntity
  8
1
100
AcDbCircle
 10
-211.841921
 20
-2.541322999999999
 30
0.0
 40
4.0
100
AcDbArc
 50
270.0
 51
0.0
  0
ARC
  5
71
330
25
100
AcDbEntity
  8
1
100
AcDbCircle
 10
-218.841921
 20
-14.541323
 30
0.0
 40
8.0
100
AcDbArc
 50
147.555098
 51
180.0
  0
ARC
  5
72
330
25
100
AcDbEntity
  8
1
100
AcDbCircle
 10
-266.841921
 20
-14.541323
 30
0.0
 40
8.0
100
AcDbArc
 50
0.0
 51
90.0
  0
ARC
  5
73
330
25
100
AcDbEntity
  8
1
100
AcDbCircle
 10
-208.841921
 20
-24.335817
 30
0.0
 40
18.0
100
AcDbArc
 50
148.911326
 51
180.0
  0
ARC
  5
74
330
25
100
AcDbEntity
  8
1
100
AcDbCircle
 10
-276.841921
 20
-24.335817
 30
0.0
 40
18.0
100
AcDbArc
 50
0.0
 51
82.16252
  0
LINE
  5
75
330
25
100
AcDbEntity
  8
1
100
AcDbLine
 10
-239.341921
 20
-24.335817
 30
0.0
 11
-246.341921
 21
-24.335817
 31
0.0
  0
LINE
  5
76
330
25
100
AcDbEntity
  8
1
100
AcDbLine
 10
-246.341921
 20
-9.541323
 30
0.0
 11
-246.341921
 21
-21.335817
 31
0.0
  0
LINE
  5
77
330
25
100
AcDbEntity
  8
1
100
AcDbLine
 10
-239.341921
 20
-9.541323
 30
0.0
 11
-239.341921
 21
-21.335817
 31
0.0
  0
ARC
  5
78
330
25
100
AcDbEntity
  8
1
100
AcDbCircle
 10
-236.341921
 20
-9.541323
 30
0.0
 40
3.0
100
AcDbArc
 50
90.0
 51
180.0
  0
ARC
  5
79
330
25
100
AcDbEntity
  8
1
100
AcDbCircle
 10
-249.341921
 20
-9.541323
 30
0.0
 40
3.0
100
AcDbArc
 50
360.0
 51
90.0
  0
ARC
  5
7A
330
25
100
AcDbEntity
  8
1
100
AcDbCircle
 10
-249.341921
 20
-21.335817
 30
0.0
 40
3.0
100
AcDbArc
 50
270.0
 51
0.0
  0
ARC
  5
7B
330
25
100
AcDbEntity
  8
1
100
AcDbCircle
 10
-236.341921
 20
-21.335817
 30
0.0
 40
3.0
100
AcDbArc
 50
180.0
 51
270.0
  0
ARC
  5
7C
330
25
100
AcDbEntity
  8
1
100
AcDbCircle
 10
-216.841921
 20
-82.32842099999999
 30
0.0
 40
10.0
100
AcDbArc
 50
180.0
 51
249.135176
  0
ARC
  5
7D
330
25
100
AcDbEntity
  8
1
100
AcDbCircle
 10
-268.841921
 20
-82.32842099999999
 30
0.0
 40
10.0
100
AcDbArc
 50
290.864824
 51
360.0
  0
ARC
  5
7E
330
25
100
AcDbEntity
  8
1
100
AcDbCircle
 10
-242.841921
 20
-145.541323
 30
0.0
 40
90.0
100
AcDbArc
 50
68.89028
 51
74.929938
  0
ARC
  5
7F
330
25
100
AcDbEntity
  8
1
100
AcDbCircle
 10
-242.841921
 20
-145.541323
 30
0.0
 40
90.0
100
AcDbArc
 50
105.070062
 51
111.10972
  0
ARC
  5
80
330
25
100
AcDbEntity
  8
1
100
AcDbCircle
 10
-216.841921
 20
-48.980461
 30
0.0
 40
10.0
100
AcDbArc
 50
180.0
 51
254.929938
  0
ARC
  5
81
330
25
100
AcDbEntity
  8
1
100
AcDbCircle
 10
-268.841921
 20
-48.980461
 30
0.0
 40
10.0
100
AcDbArc
 50
285.070062
 51
360.0
  0
LINE
  5
82
330
25
100
AcDbEntity
  8
1
100
AcDbLine
 10
-276.477421
 20
-69.338043
 30
0.0
 11
-277.510775
 21
-66.84330600000001
 31
0.0
  0
LINE
  5
83
330
25
100
AcDbEntity
  8
1
100
AcDbLine
 10
-209.206421
 20
-69.338043
 30
0.0
 11
-208.173067
 21
-66.84330600000001
 31
0.0
  0
ARC
  5
84
330
25
100
AcDbEntity
  8
1
100
AcDbCircle
 10
-242.841921
 20
-150.541323
 30
0.0
 40
65.5
100
AcDbArc
 50
65.59253100000001
 51
67.5
  0
ARC
  5
85
330
25
100
AcDbEntity
  8
1
100
AcDbCircle
 10
-242.841921
 20
-150.541323
 30
0.0
 40
65.5
100
AcDbArc
 50
112.5
 51
114.407469
  0
ARC
  5
86
330
25
100
AcDbEntity
  8
1
100
AcDbCircle
 10
-214.140663
 20
-81.25035799999999
 30
0.0
 40
9.5
100
AcDbArc
 50
84.735285
 51
247.5
  0
ARC
  5
87
330
25
100
AcDbEntity
  8
1
100
AcDbCircle
 10
-271.5431779999999
 20
-81.25035799999999
 30
0.0
 40
9.5
100
AcDbArc
 50
292.5
 51
95.26471499999999
  0
ARC
  5
88
330
25
100
AcDbEntity
  8
1
100
AcDbCircle
 10
-211.868585
 20
-65.312572
 30
0.0
 40
4.0
100
AcDbArc
 50
337.5
 51
68.89028
  0
ARC
  5
89
330
25
100
AcDbEntity
  8
1
100
AcDbCircle
 10
-212.901939
 20
-67.807309
 30
0.0
 40
4.0
100
AcDbArc
 50
264.735285
 51
337.5
  0
ARC
  5
8A
330
25
100
AcDbEntity
  8
1
100
AcDbCircle
 10
-273.815257
 20
-65.312572
 30
0.0
 40
4.0
100
AcDbArc
 50
111.10972
 51
202.5
  0
ARC
  5
8B
330
25
100
AcDbEntity
  8
1
100
AcDbCircle
 10
-272.781903
 20
-67.807309
 30
0.0
 40
4.0
100
AcDbArc
 50
202.5
 51
275.264715
  0
ARC
  5
8C
330
25
100
AcDbEntity
  8
1
100
AcDbCircle
 10
-217.841921
 20
-95.44821999999999
 30
0.0
 40
5.0
100
AcDbArc
 50
3.562470999999999
 51
65.59253100000001
  0
ARC
  5
8D
330
25
100
AcDbEntity
  8
1
100
AcDbCircle
 10
-267.841921
 20
-95.44821999999999
 30
0.0
 40
5.0
100
AcDbArc
 50
114.407469
 51
176.437529
  0
LINE
  5
8E
330
25
100
AcDbEntity
  8
1
100
AcDbLine
 10
-261.841921
 20
-227.541323
 30
0.0
 11
-223.841921
 21
-227.541323
 31
0.0
  0
LINE
  5
8F
330
25
100
AcDbEntity
  8
1
100
AcDbLine
 10
-261.841921
 20
-214.165218
 30
0.0
 11
-261.841921
 21
-229.941323
 31
0.0
  0
LINE
  5
90
330
25
100
AcDbEntity
  8
1
100
AcDbLine
 10
-223.841921
 20
-214.165218
 30
0.0
 11
-223.841921
 21
-229.941323
 31
0.0
  0
ARC
  5
91
330
25
100
AcDbEntity
  8
1
100
AcDbCircle
 10
-218.841921
 20
-214.165218
 30
0.0
 40
5.0
100
AcDbArc
 50
110.667316
 51
180.0
  0
ARC
  5
92
330
25
100
AcDbEntity
  8
1
100
AcDbCircle
 10
-266.841921
 20
-214.165218
 30
0.0
 40
5.0
100
AcDbArc
 50
0.0
 51
69.332684
  0
LINE
  5
93
330
25
100
AcDbEntity
  8
1
100
AcDbLine
 10
-258.841921
 20
-224.541323
 30
0.0
 11
-226.841921
 21
-224.541323
 31
0.0
  0
ARC
  5
94
330
25
100
AcDbEntity
  8
1
100
AcDbCircle
 10
-226.841921
 20
-221.541323
 30
0.0
 40
3.0
100
AcDbArc
 50
270.0
 51
360.0
  0
ARC
  5
95
330
25
100
AcDbEntity
  8
1
100
AcDbCircle
 10
-258.841921
 20
-221.541323
 30
0.0
 40
3.0
100
AcDbArc
 50
180.0
 51
270.0
  0
ARC
  5
96
330
25
100
AcDbEntity
  8
1
100
AcDbCircle
 10
-242.841921
 20
-150.541323
 30
0.0
 40
65.5
100
AcDbArc
 50
244.4054480000001
 51
247.666317
  0
ARC
  5
97
330
25
100
AcDbEntity
  8
1
100
AcDbCircle
 10
-242.841921
 20
-150.541323
 30
0.0
 40
65.5
100
AcDbArc
 50
292.333683
 51
295.594552
  0
ARC
  5
98
330
25
100
AcDbEntity
  8
1
100
AcDbCircle
 10
-214.341921
 20
-219.915309
 30
0.0
 40
9.5
100
AcDbArc
 50
112.333683
 51
180.0
  0
ARC
  5
99
330
25
100
AcDbEntity
  8
1
100
AcDbCircle
 10
-271.341921
 20
-219.915309
 30
0.0
 40
9.5
100
AcDbArc
 50
0.0
 51
67.66631700000001
  0
LINE
  5
9A
330
25
100
AcDbEntity
  8
1
100
AcDbLine
 10
-272.841921
 20
-205.939879
 30
0.0
 11
-272.841921
 21
-206.908423
 31
0.0
  0
LINE
  5
9B
330
25
100
AcDbEntity
  8
1
100
AcDbLine
 10
-212.841921
 20
-205.939879
 30
0.0
 11
-212.841921
 21
-206.908423
 31
0.0
  0
ARC
  5
9C
330
25
100
AcDbEntity
  8
1
100
AcDbCircle
 10
-215.841921
 20
-206.908423
 30
0.0
 40
3.0
100
AcDbArc
 50
295.594552
 51
360.0
  0
ARC
  5
9D
330
25
100
AcDbEntity
  8
1
100
AcDbCircle
 10
-269.841921
 20
-206.908423
 30
0.0
 40
3.0
100
AcDbArc
 50
180.0
 51
244.4054480000001
  0
LINE
  5
9E
330
25
100
AcDbEntity
  8
1
  6
CENTER
 62
     2
100
AcDbLine
 10
-229.841921
 20
-219.397714
 30
0.0
 11
-229.841921
 21
-239.558114
 31
0.0
  0
LINE
  5
9F
330
25
100
AcDbEntity
  8
1
  6
CENTER
 62
     2
100
AcDbLine
 10
-255.841921
 20
-219.397714
 30
0.0
 11
-255.841921
 21
-239.558114
 31
0.0
  0
LINE
  5
A0
330
25
100
AcDbEntity
  8
1
100
AcDbLine
 10
-261.841921
 20
-228.341323
 30
0.0
 11
-223.841921
 21
-228.341323
 31
0.0
  0
LINE
  5
A1
330
25
100
AcDbEntity
  8
1
100
AcDbLine
 10
-261.941921
 20
-229.941323
 30
0.0
 11
-223.741921
 21
-229.941323
 31
0.0
  0
LINE
  5
A2
330
25
100
AcDbEntity
  8
1
  6
DASHED
100
AcDbLine
 10
-180.842159
 20
142.24296
 30
0.0
 11
-207.842159
 21
142.24296
 31
0.0
  0
LINE
  5
A3
330
25
100
AcDbEntity
  8
1
100
AcDbLine
 10
-179.842159
 20
187.24296
 30
0.0
 11
-180.842159
 21
188.24296
 31
0.0
  0
LINE
  5
A4
330
25
100
AcDbEntity
  8
1
  6
DASHED
100
AcDbLine
 10
-179.842159
 20
143.24296
 30
0.0
 11
-180.842159
 21
142.24296
 31
0.0
  0
LINE
  5
A5
330
25
100
AcDbEntity
  8
1
  6
DASHED
100
AcDbLine
 10
-179.842159
 20
143.24296
 30
0.0
 11
-207.842159
 21
143.24296
 31
0.0
  0
CIRCLE
  5
A6
330
25
100
AcDbEntity
  8
1
100
AcDbCircle
 10
-242.841921
 20
-150.541323
 30
0.0
 40
63.0
  0
LINE
  5
A7
330
25
100
AcDbEntity
  8
1
  6
DASHED
100
AcDbLine
 10
-188.574305
 20
160.24296
 30
0.0
 11
-188.574305
 21
170.24296
 31
0.0
  0
LINE
  5
A8
330
25
100
AcDbEntity
  8
1
  6
DASHED
100
AcDbLine
 10
-191.141095
 20
160.24296
 30
0.0
 11
-191.141095
 21
170.24296
 31
0.0
  0
LINE
  5
A9
330
25
100
AcDbEntity
  8
1
  6
DASHED
100
AcDbLine
 10
-197.141095
 20
176.24296
 30
0.0
 11
-207.842159
 21
176.24296
 31
0.0
  0
LINE
  5
AA
330
25
100
AcDbEntity
  8
1
  6
DASHED
100
AcDbLine
 10
-197.141095
 20
154.24296
 30
0.0
 11
-207.842159
 21
154.24296
 31
0.0
  0
ARC
  5
AB
330
25
100
AcDbEntity
  8
1
  6
DASHED
100
AcDbCircle
 10
-197.141095
 20
170.24296
 30
0.0
 40
6.0
100
AcDbArc
 50
0.0
 51
90.0
  0
ARC
  5
AC
330
25
100
AcDbEntity
  8
1
  6
DASHED
100
AcDbCircle
 10
-197.141095
 20
160.24296
 30
0.0
 40
6.0
100
AcDbArc
 50
270.0
 51
360.0
  0
LINE
  5
AD
330
25
100
AcDbEntity
  8
1
  6
DASHED
100
AcDbLine
 10
-183.548064
 20
175.249966
 30
0.0
 11
-184.395073
 21
175.02301
 31
0.0
  0
LINE
  5
AE
330
25
100
AcDbEntity
  8
1
  6
DASHED
100
AcDbLine
 10
-183.548064
 20
155.235954
 30
0.0
 11
-184.395073
 21
155.46291
 31
0.0
  0
ARC
  5
AF
330
25
100
AcDbEntity
  8
1
  6
DASHED
100
AcDbCircle
 10
-182.574305
 20
160.24296
 30
0.0
 40
6.0
100
AcDbArc
 50
180.0
 51
189.755138
  0
LINE
  5
B0
330
25
100
AcDbEntity
  8
1
  6
DASHED
100
AcDbLine
 10
-179.842159
 20
143.24296
 30
0.0
 11
-179.842159
 21
150.406325
 31
0.0
  0
LINE
  5
B1
330
25
100
AcDbEntity
  8
1
100
AcDbLine
 10
-179.842159
 20
180.079595
 30
0.0
 11
-179.842159
 21
187.24296
 31
0.0
  0
ARC
  5
B2
330
25
100
AcDbEntity
  8
1
  6
DASHED
100
AcDbCircle
 10
-184.842159
 20
150.406325
 30
0.0
 40
5.0
100
AcDbArc
 50
0.0
 51
75.0
  0
ARC
  5
B3
330
25
100
AcDbEntity
  8
1
  6
DASHED
100
AcDbCircle
 10
-182.842159
 20
169.227455
 30
0.0
 40
6.0
100
AcDbArc
 50
105.0
 51
160.202999
  0
ARC
  5
B4
330
25
100
AcDbEntity
  8
1
  6
DASHED
100
AcDbCircle
 10
-182.842159
 20
161.258465
 30
0.0
 40
6.0
100
AcDbArc
 50
199.797001
 51
255.0
  0
LINE
  5
B5
330
25
100
AcDbEntity
  8
1
  6
DASHED
100
AcDbLine
 10
-205.297654
 20
160.24296
 30
0.0
 11
-205.297654
 21
170.24296
 31
0.0
  0
ARC
  5
B6
330
25
100
AcDbEntity
  8
1
  6
DASHED
100
AcDbCircle
 10
-208.886111
 20
170.24296
 30
0.0
 40
3.588457
100
AcDbArc
 50
360.0
 51
73.08698299999999
  0
ARC
  5
B7
330
25
100
AcDbEntity
  8
1
  6
DASHED
100
AcDbCircle
 10
-208.886111
 20
160.24296
 30
0.0
 40
3.588457
100
AcDbArc
 50
286.913017
 51
360.0
  0
ARC
  5
B8
330
25
100
AcDbEntity
  8
1
  6
DASHED
100
AcDbCircle
 10
-182.574305
 20
170.24296
 30
0.0
 40
6.0
100
AcDbArc
 50
170.244862
 51
180.0
  0
CIRCLE
  5
B9
330
25
100
AcDbEntity
  8
1
100
AcDbCircle
 10
-242.841921
 20
-150.541323
 30
0.0
 40
62.0
  0
LINE
  5
BA
330
25
100
AcDbEntity
  8
1
100
AcDbLine
 10
-305.842159
 20
187.24296
 30
0.0
 11
-304.842159
 21
188.24296
 31
0.0
  0
LINE
  5
BB
330
25
100
AcDbEntity
  8
1
100
AcDbLine
 10
-305.842159
 20
143.24296
 30
0.0
 11
-304.842159
 21
142.24296
 31
0.0
  0
LINE
  5
BC
330
25
100
AcDbEntity
  8
1
100
AcDbLine
 10
-297.110013
 20
160.24296
 30
0.0
 11
-297.110013
 21
170.24296
 31
0.0
  0
LINE
  5
BD
330
25
100
AcDbEntity
  8
1
100
AcDbLine
 10
-294.543223
 20
160.24296
 30
0.0
 11
-294.543223
 21
170.24296
 31
0.0
  0
LINE
  5
BE
330
25
100
AcDbEntity
  8
1
  6
DASHED
100
AcDbLine
 10
-288.543223
 20
176.24296
 30
0.0
 11
-277.842159
 21
176.24296
 31
0.0
  0
LINE
  5
BF
330
25
100
AcDbEntity
  8
1
  6
DASHED
100
AcDbLine
 10
-288.543223
 20
154.24296
 30
0.0
 11
-277.842159
 21
154.24296
 31
0.0
  0
LINE
  5
C0
330
25
100
AcDbEntity
  8
1
100
AcDbLine
 10
-302.136254
 20
175.249966
 30
0.0
 11
-301.289245
 21
175.02301
 31
0.0
  0
LINE
  5
C1
330
25
100
AcDbEntity
  8
1
100
AcDbLine
 10
-302.136254
 20
155.235954
 30
0.0
 11
-301.289245
 21
155.46291
 31
0.0
  0
ARC
  5
C2
330
25
100
AcDbEntity
  8
1
100
AcDbCircle
 10
-303.110013
 20
160.24296
 30
0.0
 40
6.0
100
AcDbArc
 50
350.244862
 51
360.0
  0
LINE
  5
C3
330
25
100
AcDbEntity
  8
1
100
AcDbLine
 10
-305.842159
 20
143.24296
 30
0.0
 11
-305.842159
 21
150.406325
 31
0.0
  0
LINE
  5
C4
330
25
100
AcDbEntity
  8
1
100
AcDbLine
 10
-305.842159
 20
180.079595
 30
0.0
 11
-305.842159
 21
187.24296
 31
0.0
  0
ARC
  5
C5
330
25
100
AcDbEntity
  8
1
100
AcDbCircle
 10
-300.842159
 20
180.079595
 30
0.0
 40
5.0
100
AcDbArc
 50
180.0
 51
255.0
  0
ARC
  5
C6
330
25
100
AcDbEntity
  8
1
100
AcDbCircle
 10
-300.842159
 20
150.406325
 30
0.0
 40
5.0
100
AcDbArc
 50
105.0
 51
180.0
  0
ARC
  5
C7
330
25
100
AcDbEntity
  8
1
100
AcDbCircle
 10
-302.842159
 20
169.227455
 30
0.0
 40
6.0
100
AcDbArc
 50
19.797001
 51
75.0
  0
ARC
  5
C8
330
25
100
AcDbEntity
  8
1
100
AcDbCircle
 10
-302.842159
 20
161.258465
 30
0.0
 40
6.0
100
AcDbArc
 50
285.0
 51
340.202999
  0
LINE
  5
C9
330
25
100
AcDbEntity
  8
1
  6
DASHED
100
AcDbLine
 10
-280.386664
 20
160.24296
 30
0.0
 11
-280.386664
 21
170.24296
 31
0.0
  0
ARC
  5
CA
330
25
100
AcDbEntity
  8
1
  6
DASHED
100
AcDbCircle
 10
-276.798206
 20
170.24296
 30
0.0
 40
3.588457
100
AcDbArc
 50
106.913017
 51
180.0
  0
ARC
  5
CB
330
25
100
AcDbEntity
  8
1
  6
DASHED
100
AcDbCircle
 10
-276.798206
 20
160.24296
 30
0.0
 40
3.588457
100
AcDbArc
 50
180.0
 51
253.086983
  0
ARC
  5
CC
330
25
100
AcDbEntity
  8
1
100
AcDbCircle
 10
-303.110013
 20
170.24296
 30
0.0
 40
6.0
100
AcDbArc
 50
0.0
 51
9.755138
  0
CIRCLE
  5
CD
330
25
100
AcDbEntity
  8
1
100
AcDbCircle
 10
-242.841921
 20
-150.541323
 30
0.0
 40
58.0
  0
CIRCLE
  5
CE
330
25
100
AcDbEntity
  8
1
100
AcDbCircle
 10
-242.841921
 20
-150.541323
 30
0.0
 40
56.05
  0
CIRCLE
  5
CF
330
25
100
AcDbEntity
  8
1
100
AcDbCircle
 10
-242.841921
 20
-150.541323
 30
0.0
 40
46.0
  0
CIRCLE
  5
D0
330
25
100
AcDbEntity
  8
1
100
AcDbCircle
 10
-242.841921
 20
-150.541323
 30
0.0
 40
42.0
  0
LINE
  5
D1
330
25
100
AcDbEntity
  8
1
100
AcDbLine
 10
-298.892159
 20
189.36796
 30
0.0
 11
-286.636957
 21
189.36796
 31
0.0
  0
LINE
  5
D2
330
25
100
AcDbEntity
  8
1
  6
DASHED
100
AcDbLine
 10
-286.636957
 20
189.36796
 30
0.0
 11
-277.842159
 21
189.36796
 31
0.0
  0
LINE
  5
D3
330
25
100
AcDbEntity
  8
1
100
AcDbLine
 10
-304.842159
 20
188.24296
 30
0.0
 11
-287.2381049999999
 21
188.24296
 31
0.0
  0
LINE
  5
D4
330
25
100
AcDbEntity
  8
1
  6
DASHED
100
AcDbLine
 10
-287.2381049999999
 20
188.24296
 30
0.0
 11
-277.842159
 21
188.24296
 31
0.0
  0
LINE
  5
D5
330
25
100
AcDbEntity
  8
1
100
AcDbLine
 10
-305.842159
 20
187.24296
 30
0.0
 11
-287.742047
 21
187.24296
 31
0.0
  0
LINE
  5
D6
330
25
100
AcDbEntity
  8
1
  6
DASHED
100
AcDbLine
 10
-287.742047
 20
187.24296
 30
0.0
 11
-277.842159
 21
187.24296
 31
0.0
  0
ARC
  5
D7
330
25
100
AcDbEntity
  8
1
  6
DASHED
100
AcDbCircle
 10
-288.543223
 20
170.24296
 30
0.0
 40
6.0
100
AcDbArc
 50
90.0
 51
123.188737
  0
ARC
  5
D8
330
25
100
AcDbEntity
  8
1
100
AcDbCircle
 10
-288.543223
 20
170.24296
 30
0.0
 40
6.0
100
AcDbArc
 50
123.188737
 51
180.0
  0
ARC
  5
D9
330
25
100
AcDbEntity
  8
1
100
AcDbCircle
 10
-288.543223
 20
160.24296
 30
0.0
 40
6.0
100
AcDbArc
 50
180.0
 51
236.811263
  0
ARC
  5
DA
330
25
100
AcDbEntity
  8
1
  6
DASHED
100
AcDbCircle
 10
-288.543223
 20
160.24296
 30
0.0
 40
6.0
100
AcDbArc
 50
236.811263
 51
270.0
  0
LINE
  5
DB
330
25
100
AcDbEntity
  8
1
100
AcDbLine
 10
-305.842159
 20
143.24296
 30
0.0
 11
-287.741809
 21
143.24296
 31
0.0
  0
LINE
  5
DC
330
25
100
AcDbEntity
  8
1
  6
DASHED
100
AcDbLine
 10
-287.741809
 20
143.24296
 30
0.0
 11
-277.842159
 21
143.24296
 31
0.0
  0
LINE
  5
DD
330
25
100
AcDbEntity
  8
1
100
AcDbLine
 10
-304.842159
 20
142.24296
 30
0.0
 11
-287.237867
 21
142.24296
 31
0.0
  0
LINE
  5
DE
330
25
100
AcDbEntity
  8
1
  6
DASHED
100
AcDbLine
 10
-287.237867
 20
142.24296
 30
0.0
 11
-277.842159
 21
142.24296
 31
0.0
  0
LINE
  5
DF
330
25
100
AcDbEntity
  8
1
100
AcDbLine
 10
-298.892159
 20
141.11796
 30
0.0
 11
-286.636719
 21
141.11796
 31
0.0
  0
LINE
  5
E0
330
25
100
AcDbEntity
  8
1
  6
DASHED
100
AcDbLine
 10
-286.636719
 20
141.11796
 30
0.0
 11
-277.842159
 21
141.11796
 31
0.0
  0
ARC
  5
E1
330
25
100
AcDbEntity
  8
1
  6
DASHED
100
AcDbCircle
 10
-184.842159
 20
180.079595
 30
0.0
 40
5.0
100
AcDbArc
 50
285.0
 51
344.591136
  0
ARC
  5
E2
330
25
100
AcDbEntity
  8
1
100
AcDbCircle
 10
-184.842159
 20
180.079595
 30
0.0
 40
5.0
100
AcDbArc
 50
344.591136
 51
0.0
  0
LINE
  5
E3
330
25
100
AcDbEntity
  8
1
100
AcDbLine
 10
-179.842159
 20
187.24296
 30
0.0
 11
-189.944535
 21
187.24296
 31
0.0
  0
LINE
  5
E4
330
25
100
AcDbEntity
  8
1
  6
DASHED
100
AcDbLine
 10
-189.944535
 20
187.24296
 30
0.0
 11
-207.842159
 21
187.24296
 31
0.0
  0
LINE
  5
E5
330
25
100
AcDbEntity
  8
1
100
AcDbLine
 10
-180.842159
 20
188.24296
 30
0.0
 11
-188.853226
 21
188.24296
 31
0.0
  0
LINE
  5
E6
330
25
100
AcDbEntity
  8
1
  6
DASHED
100
AcDbLine
 10
-188.853226
 20
188.24296
 30
0.0
 11
-207.842159
 21
188.24296
 31
0.0
  0
LINE
  5
E7
330
25
100
AcDbEntity
  8
1
  6
DASHED
100
AcDbLine
 10
-207.842159
 20
189.36796
 30
0.0
 11
-187.930447
 21
189.36796
 31
0.0
  0
LINE
  5
E8
330
25
100
AcDbEntity
  8
1
100
AcDbLine
 10
-187.930447
 20
189.36796
 30
0.0
 11
-186.792159
 21
189.36796
 31
0.0
  0
ARC
  5
E9
330
25
100
AcDbEntity
  8
1
100
AcDbCircle
 10
-206.341921
 20
-150.073578
 30
0.0
 40
1.0
100
AcDbArc
 50
0.0
 51
89.344923
  0
ARC
  5
EA
330
25
100
AcDbEntity
  8
1
100
AcDbCircle
 10
-206.341921
 20
-151.009067
 30
0.0
 40
1.0
100
AcDbArc
 50
270.655077
 51
360.0
  0
ARC
  5
EB
330
25
100
AcDbEntity
  8
1
100
AcDbCircle
 10
-207.588508
 20
-150.921144
 30
0.0
 40
1.0
100
AcDbArc
 50
270.0
 51
360.0
  0
ARC
  5
EC
330
25
100
AcDbEntity
  8
1
100
AcDbCircle
 10
-207.588508
 20
-150.161502
 30
0.0
 40
1.0
100
AcDbArc
 50
0.0
 51
90.0
  0
LINE
  5
ED
330
25
100
AcDbEntity
  8
1
100
AcDbLine
 10
-240.841921
 20
-137.525322
 30
0.0
 11
-240.841921
 21
-147.693636
 31
0.0
  0
LINE
  5
EE
330
25
100
AcDbEntity
  8
1
100
AcDbLine
 10
-239.315401
 20
-147.700427
 30
0.0
 11
-239.315401
 21
-137.638147
 31
0.0
  0
LINE
  5
EF
330
25
100
AcDbEntity
  8
1
100
AcDbLine
 10
-206.330488
 20
-149.073643
 30
0.0
 11
-252.213006
 21
-148.552254
 31
0.0
  0
LINE
  5
F0
330
25
100
AcDbEntity
  8
1
100
AcDbLine
 10
-252.213006
 20
-152.530391
 30
0.0
 11
-206.330488
 21
-152.009001
 31
0.0
  0
ARC
  5
F1
330
25
100
AcDbEntity
  8
1
100
AcDbCircle
 10
-252.224439
 20
-149.552188
 30
0.0
 40
1.0
100
AcDbArc
 50
89.344923
 51
180.0
  0
ARC
  5
F2
330
25
100
AcDbEntity
  8
1
100
AcDbCircle
 10
-252.224439
 20
-151.530456
 30
0.0
 40
1.0
100
AcDbArc
 50
180.0
 51
270.655077
  0
LINE
  5
F3
330
25
100
AcDbEntity
  8
1
100
AcDbLine
 10
-253.224439
 20
-149.552188
 30
0.0
 11
-253.224439
 21
-151.530456
 31
0.0
  0
LINE
  5
F4
330
25
100
AcDbEntity
  8
1
100
AcDbLine
 10
-248.134814
 20
-150.921144
 30
0.0
 11
-248.134814
 21
-150.161502
 31
0.0
  0
ARC
  5
F5
330
25
100
AcDbEntity
  8
1
100
AcDbCircle
 10
-247.134814
 20
-150.161502
 30
0.0
 40
1.0
100
AcDbArc
 50
90.0
 51
180.0
  0
ARC
  5
F6
330
25
100
AcDbEntity
  8
1
100
AcDbCircle
 10
-247.134814
 20
-150.921144
 30
0.0
 40
1.0
100
AcDbArc
 50
180.0
 51
270.0
  0
LINE
  5
F7
330
25
100
AcDbEntity
  8
1
100
AcDbLine
 10
-252.464272
 20
-148.633411
 30
0.0
 11
-248.134814
 21
-149.161502
 31
0.0
  0
LINE
  5
F8
330
25
100
AcDbEntity
  8
1
100
AcDbLine
 10
-247.134814
 20
-149.161502
 30
0.0
 11
-207.588508
 21
-149.161502
 31
0.0
  0
ARC
  5
F9
330
25
100
AcDbEntity
  8
1
100
AcDbCircle
 10
-244.535974
 20
-150.541392
 30
0.0
 40
5.435330999999999
100
AcDbArc
 50
345.294623
 51
14.708504
  0
LINE
  5
FA
330
25
100
AcDbEntity
  8
1
100
AcDbLine
 10
-244.841921
 20
-137.229682
 30
0.0
 11
-244.841921
 21
-147.625034
 31
0.0
  0
LINE
  5
FB
330
25
100
AcDbEntity
  8
1
100
AcDbLine
 10
-246.368441
 20
-147.60758
 30
0.0
 11
-246.368441
 21
-137.111918
 31
0.0
  0
ARC
  5
FC
330
25
100
AcDbEntity
  8
1
100
AcDbCircle
 10
-247.368441
 20
-147.60758
 30
0.0
 40
1.0
100
AcDbArc
 50
269.344923
 51
0.0
  0
ARC
  5
FD
330
25
100
AcDbEntity
  8
1
100
AcDbCircle
 10
-245.841921
 20
-147.625034
 30
0.0
 40
1.0
100
AcDbArc
 50
269.344923
 51
360.0
  0
ARC
  5
FE
330
25
100
AcDbEntity
  8
1
100
AcDbCircle
 10
-239.841921
 20
-147.693636
 30
0.0
 40
1.0
100
AcDbArc
 50
180.0
 51
269.344923
  0
ARC
  5
FF
330
25
100
AcDbEntity
  8
1
100
AcDbCircle
 10
-238.315401
 20
-147.700427
 30
0.0
 40
1.0
100
AcDbArc
 50
180.0
 51
269.038431
  0
LINE
  5
100
330
25
100
AcDbEntity
  8
1
100
AcDbLine
 10
-247.134814
 20
-151.921144
 30
0.0
 11
-207.588508
 21
-151.921144
 31
0.0
  0
LINE
  5
101
330
25
100
AcDbEntity
  8
1
100
AcDbLine
 10
-252.464272
 20
-152.449234
 30
0.0
 11
-248.134814
 21
-151.921144
 31
0.0
  0
ARC
  5
102
330
25
100
AcDbEntity
  8
1
100
AcDbCircle
 10
-247.368441
 20
-153.475065
 30
0.0
 40
1.0
100
AcDbArc
 50
360.0
 51
90.65507700000001
  0
ARC
  5
103
330
25
100
AcDbEntity
  8
1
100
AcDbCircle
 10
-245.841921
 20
-153.457612
 30
0.0
 40
1.0
100
AcDbArc
 50
0.0
 51
90.65507700000001
  0
ARC
  5
104
330
25
100
AcDbEntity
  8
1
100
AcDbCircle
 10
-239.841921
 20
-153.389009
 30
0.0
 40
1.0
100
AcDbArc
 50
90.65507700000001
 51
180.0
  0
ARC
  5
105
330
25
100
AcDbEntity
  8
1
100
AcDbCircle
 10
-238.315401
 20
-153.382218
 30
0.0
 40
1.0
100
AcDbArc
 50
90.961569
 51
180.0
  0
LINE
  5
106
330
25
100
AcDbEntity
  8
1
100
AcDbLine
 10
-246.368441
 20
-153.475065
 30
0.0
 11
-246.368441
 21
-167.970727
 31
0.0
  0
LINE
  5
107
330
25
100
AcDbEntity
  8
1
100
AcDbLine
 10
-210.001511
 20
-139.725586
 30
0.0
 11
-239.109292
 21
-137.14851
 31
0.0
  0
LINE
  5
108
330
25
100
AcDbEntity
  8
1
100
AcDbLine
 10
-246.648708
 20
-137.096142
 30
0.0
 11
-208.312128
 21
-139.929599
 31
0.0
  0
LINE
  5
109
330
25
100
AcDbEntity
  8
1
100
AcDbLine
 10
-207.299427
 20
-138.589453
 30
0.0
 11
-207.620814
 21
-137.708832
 31
0.0
  0
LINE
  5
10A
330
25
100
AcDbEntity
  8
1
100
AcDbLine
 10
-208.460128
 20
-137.05669
 30
0.0
 11
-225.577257
 21
-135.345847
 31
0.0
  0
LINE
  5
10B
330
25
100
AcDbEntity
  8
1
100
AcDbLine
 10
-226.579512
 20
-135.497376
 30
0.0
 11
-210.143999
 21
-136.952504
 31
0.0
  0
LINE
  5
10C
330
25
100
AcDbEntity
  8
1
100
AcDbLine
 10
-209.306402
 20
-137.570563
 30
0.0
 11
-208.987533
 21
-138.351438
 31
0.0
  0
ARC
  5
10D
330
25
100
AcDbEntity
  8
1
100
AcDbCircle
 10
-210.232189
 20
-137.948608
 30
0.0
 40
1.0
100
AcDbArc
 50
22.212617
 51
84.94047399999999
  0
ARC
  5
10E
330
25
100
AcDbEntity
  8
1
100
AcDbCircle
 10
-209.91332
 20
-138.729482
 30
0.0
 40
1.0
100
AcDbArc
 50
264.940474
 51
22.212617
  0
ARC
  5
10F
330
25
100
AcDbEntity
  8
1
100
AcDbCircle
 10
-208.238822
 20
-138.93229
 30
0.0
 40
1.0
100
AcDbArc
 50
265.796147
 51
20.049778
  0
ARC
  5
110
330
25
100
AcDbEntity
  8
1
100
AcDbCircle
 10
-208.560209
 20
-138.051669
 30
0.0
 40
1.0
100
AcDbArc
 50
20.049778
 51
84.25620399999999
  0
ARC
  5
111
330
25
100
AcDbEntity
  8
1
100
AcDbCircle
 10
-225.224895
 20
-120.197134
 30
0.0
 40
15.36009
100
AcDbArc
 50
208.439909
 51
264.940474
  0
LINE
  5
112
330
25
100
AcDbEntity
  8
1
100
AcDbLine
 10
-247.841921
 20
-122.250723
 30
0.0
 11
-247.841921
 21
-127.608573
 31
0.0
  0
ARC
  5
113
330
25
100
AcDbEntity
  8
1
100
AcDbCircle
 10
-238.264667
 20
-127.608573
 30
0.0
 40
9.577253
100
AcDbArc
 50
180.0
 51
264.940474
  0
LINE
  5
114
330
25
100
AcDbEntity
  8
1
100
AcDbLine
 10
-254.059036
 20
-129.117904
 30
0.0
 11
-254.059036
 21
-121.87264
 31
0.0
  0
ARC
  5
115
330
25
100
AcDbEntity
  8
1
100
AcDbCircle
 10
-246.059036
 20
-129.117904
 30
0.0
 40
8.0
100
AcDbArc
 50
180.0
 51
265.772954
  0
LINE
  5
116
330
25
100
AcDbEntity
  8
1
100
AcDbLine
 10
-247.841921
 20
-122.250723
 30
0.0
 11
-247.841921
 21
-127.608573
 31
0.0
  0
LINE
  5
117
330
25
100
AcDbEntity
  8
1
100
AcDbLine
 10
-232.781628
 20
-127.38551
 30
0.0
 11
-232.781628
 21
-122.250723
 31
0.0
  0
ARC
  5
118
330
25
100
AcDbEntity
  8
1
100
AcDbCircle
 10
-224.781628
 20
-127.38551
 30
0.0
 40
8.0
100
AcDbArc
 50
180.0
 51
264.292292
  0
LINE
  5
119
330
25
100
AcDbEntity
  8
1
100
AcDbLine
 10
-256.044273
 20
-117.941323
 30
0.0
 11
-229.945686
 21
-117.941323
 31
0.0
  0
LINE
  5
11A
330
25
100
AcDbEntity
  8
1
100
AcDbLine
 10
-231.701621
 20
-120.250723
 30
0.0
 11
-254.059036
 21
-120.250723
 31
0.0
  0
ARC
  5
11B
330
25
100
AcDbEntity
  8
1
100
AcDbCircle
 10
-230.781628
 20
-122.250723
 30
0.0
 40
2.0
100
AcDbArc
 50
90.0
 51
180.0
  0
ARC
  5
11C
330
25
100
AcDbEntity
  8
1
100
AcDbCircle
 10
-249.841921
 20
-122.250723
 30
0.0
 40
2.0
100
AcDbArc
 50
0.0
 51
90.0
  0
LINE
  5
11D
330
25
100
AcDbEntity
  8
1
100
AcDbLine
 10
-256.88883
 20
-114.231327
 30
0.0
 11
-256.88883
 21
-118.250723
 31
0.0
  0
ARC
  5
11E
330
25
100
AcDbEntity
  8
1
100
AcDbCircle
 10
-254.88883
 20
-118.250723
 30
0.0
 40
2.0
100
AcDbArc
 50
180.0
 51
270.0
  0
ARC
  5
11F
330
25
100
AcDbEntity
  8
1
100
AcDbCircle
 10
-256.059036
 20
-121.87264
 30
0.0
 40
2.0
100
AcDbArc
 50
0.0
 51
54.18970699999999
  0
LINE
  5
120
330
25
100
AcDbEntity
  8
1
100
AcDbLine
 10
-228.795012
 20
-113.663181
 30
0.0
 11
-228.795012
 21
-118.250723
 31
0.0
  0
ARC
  5
121
330
25
100
AcDbEntity
  8
1
100
AcDbCircle
 10
-230.795012
 20
-118.250723
 30
0.0
 40
2.0
100
AcDbArc
 50
270.0
 51
360.0
  0
LINE
  5
122
330
25
100
AcDbEntity
  8
1
100
AcDbLine
 10
-240.841921
 20
-167.557323
 30
0.0
 11
-240.841921
 21
-153.389009
 31
0.0
  0
LINE
  5
123
330
25
100
AcDbEntity
  8
1
100
AcDbLine
 10
-239.315401
 20
-153.382218
 30
0.0
 11
-239.315401
 21
-167.444498
 31
0.0
  0
LINE
  5
124
330
25
100
AcDbEntity
  8
1
100
AcDbLine
 10
-244.841921
 20
-167.852963
 30
0.0
 11
-244.841921
 21
-153.457612
 31
0.0
  0
LINE
  5
125
330
25
100
AcDbEntity
  8
1
100
AcDbLine
 10
-210.001511
 20
-165.35706
 30
0.0
 11
-239.109292
 21
-167.934136
 31
0.0
  0
LINE
  5
126
330
25
100
AcDbEntity
  8
1
100
AcDbLine
 10
-246.648708
 20
-167.986503
 30
0.0
 11
-208.312128
 21
-165.153046
 31
0.0
  0
LINE
  5
127
330
25
100
AcDbEntity
  8
1
100
AcDbLine
 10
-207.299427
 20
-166.493192
 30
0.0
 11
-207.620814
 21
-167.373813
 31
0.0
  0
LINE
  5
128
330
25
100
AcDbEntity
  8
1
100
AcDbLine
 10
-208.460128
 20
-168.025956
 30
0.0
 11
-225.577257
 21
-169.736798
 31
0.0
  0
LINE
  5
129
330
25
100
AcDbEntity
  8
1
100
AcDbLine
 10
-226.579512
 20
-169.58527
 30
0.0
 11
-210.143999
 21
-168.130141
 31
0.0
  0
LINE
  5
12A
330
25
100
AcDbEntity
  8
1
100
AcDbLine
 10
-209.306402
 20
-167.512082
 30
0.0
 11
-208.987533
 21
-166.731208
 31
0.0
  0
ARC
  5
12B
330
25
100
AcDbEntity
  8
1
100
AcDbCircle
 10
-210.232189
 20
-167.134037
 30
0.0
 40
1.0
100
AcDbArc
 50
275.059526
 51
337.787383
  0
ARC
  5
12C
330
25
100
AcDbEntity
  8
1
100
AcDbCircle
 10
-209.91332
 20
-166.353163
 30
0.0
 40
1.0
100
AcDbArc
 50
337.787383
 51
95.059526
  0
ARC
  5
12D
330
25
100
AcDbEntity
  8
1
100
AcDbCircle
 10
-208.238822
 20
-166.150356
 30
0.0
 40
1.0
100
AcDbArc
 50
339.950223
 51
94.20385300000001
  0
ARC
  5
12E
330
25
100
AcDbEntity
  8
1
100
AcDbCircle
 10
-208.560209
 20
-167.030977
 30
0.0
 40
1.0
100
AcDbArc
 50
275.743796
 51
339.950223
  0
ARC
  5
12F
330
25
100
AcDbEntity
  8
1
100
AcDbCircle
 10
-225.224895
 20
-184.885511
 30
0.0
 40
15.36009
100
AcDbArc
 50
95.059526
 51
151.560091
  0
ARC
  5
130
330
25
100
AcDbEntity
  8
1
100
AcDbCircle
 10
-238.264667
 20
-177.474072
 30
0.0
 40
9.577253
100
AcDbArc
 50
95.059526
 51
180.0
  0
LINE
  5
131
330
25
100
AcDbEntity
  8
1
100
AcDbLine
 10
-254.059036
 20
-175.964742
 30
0.0
 11
-254.059036
 21
-179.210005
 31
0.0
  0
ARC
  5
132
330
25
100
AcDbEntity
  8
1
100
AcDbCircle
 10
-246.059036
 20
-175.964742
 30
0.0
 40
8.0
100
AcDbArc
 50
94.22704600000001
 51
180.0
  0
LINE
  5
133
330
25
100
AcDbEntity
  8
1
100
AcDbLine
 10
-247.841921
 20
-178.831923
 30
0.0
 11
-247.841921
 21
-177.474072
 31
0.0
  0
LINE
  5
134
330
25
100
AcDbEntity
  8
1
100
AcDbLine
 10
-232.781628
 20
-177.697136
 30
0.0
 11
-232.781628
 21
-178.831923
 31
0.0
  0
ARC
  5
135
330
25
100
AcDbEntity
  8
1
100
AcDbCircle
 10
-224.781628
 20
-177.697136
 30
0.0
 40
8.0
100
AcDbArc
 50
95.707708
 51
180.0
  0
LINE
  5
136
330
25
100
AcDbEntity
  8
1
100
AcDbLine
 10
-256.044273
 20
-183.141323
 30
0.0
 11
-229.945686
 21
-183.141323
 31
0.0
  0
LINE
  5
137
330
25
100
AcDbEntity
  8
1
100
AcDbLine
 10
-231.701621
 20
-180.831923
 30
0.0
 11
-254.059036
 21
-180.831923
 31
0.0
  0
ARC
  5
138
330
25
100
AcDbEntity
  8
1
100
AcDbCircle
 10
-230.781628
 20
-178.831923
 30
0.0
 40
2.0
100
AcDbArc
 50
180.0
 51
270.0
  0
ARC
  5
139
330
25
100
AcDbEntity
  8
1
100
AcDbCircle
 10
-249.841921
 20
-178.831923
 30
0.0
 40
2.0
100
AcDbArc
 50
270.0
 51
360.0
  0
LINE
  5
13A
330
25
100
AcDbEntity
  8
1
100
AcDbLine
 10
-256.88883
 20
-186.56358
 30
0.0
 11
-256.88883
 21
-182.831923
 31
0.0
  0
ARC
  5
13B
330
25
100
AcDbEntity
  8
1
100
AcDbCircle
 10
-254.88883
 20
-182.831923
 30
0.0
 40
2.0
100
AcDbArc
 50
90.0
 51
180.0
  0
ARC
  5
13C
330
25
100
AcDbEntity
  8
1
100
AcDbCircle
 10
-256.059036
 20
-179.210005
 30
0.0
 40
2.0
100
AcDbArc
 50
305.810293
 51
360.0
  0
LINE
  5
13D
330
25
100
AcDbEntity
  8
1
100
AcDbLine
 10
-228.795012
 20
-186.426418
 30
0.0
 11
-228.795012
 21
-182.831923
 31
0.0
  0
ARC
  5
13E
330
25
100
AcDbEntity
  8
1
100
AcDbCircle
 10
-230.795012
 20
-182.831923
 30
0.0
 40
2.0
100
AcDbArc
 50
0.0
 51
90.0
  0
ARC
  5
13F
330
25
100
AcDbEntity
  8
1
100
AcDbCircle
 10
-242.841921
 20
-150.541323
 30
0.0
 40
40.1
100
AcDbArc
 50
289.923301
 51
70.076699
  0
LINE
  5
140
330
25
100
AcDbEntity
  8
1
100
AcDbLine
 10
-229.177368
 20
-112.841323
 30
0.0
 11
-256.506474
 21
-112.841323
 31
0.0
  0
ARC
  5
141
330
25
100
AcDbEntity
  8
1
100
AcDbCircle
 10
-242.841921
 20
-150.541323
 30
0.0
 40
40.1
100
AcDbArc
 50
109.923301
 51
250.076699
  0
LINE
  5
142
330
25
100
AcDbEntity
  8
1
100
AcDbLine
 10
-229.177368
 20
-188.241323
 30
0.0
 11
-256.506474
 21
-188.241323
 31
0.0
  0
POINT
  5
143
330
25
100
AcDbEntity
  8
1
100
AcDbPoint
 10
-242.841921
 20
-150.541323
 30
0.0
  0
LINE
  5
144
330
25
100
AcDbEntity
  8
1
  6
CENTER
 62
     2
100
AcDbLine
 10
43.427908
 20
-150.541264
 30
0.0
 11
119.612148
 21
-150.541264
 31
0.0
  0
LINE
  5
145
330
25
100
AcDbEntity
  8
1
  6
CENTER
 62
     2
100
AcDbLine
 10
82.667908
 20
74.039215
 30
0.0
 11
82.667908
 21
-239.467422
 31
0.0
  0
LINE
  5
146
330
25
100
AcDbEntity
  8
1
100
AcDbLine
 10
113.667908
 20
-6.541263999999999
 30
0.0
 11
51.66790800000001
 21
-6.541263999999999
 31
0.0
  0
LINE
  5
147
330
25
100
AcDbEntity
  8
1
100
AcDbLine
 10
47.667908
 20
5.458736
 30
0.0
 11
47.667908
 21
-2.541263999999999
 31
0.0
  0
LINE
  5
148
330
25
100
AcDbEntity
  8
1
100
AcDbLine
 10
117.667908
 20
5.458736
 30
0.0
 11
117.667908
 21
-2.541263999999999
 31
0.0
  0
LINE
  5
149
330
25
100
AcDbEntity
  8
1
100
AcDbLine
 10
66.667908
 20
-14.541264
 30
0.0
 11
66.667908
 21
-87.67259499999999
 31
0.0
  0
LINE
  5
14A
330
25
100
AcDbEntity
  8
1
100
AcDbLine
 10
98.667908
 20
-14.541264
 30
0.0
 11
98.667908
 21
-87.67259499999999
 31
0.0
  0
LINE
  5
14B
330
25
100
AcDbEntity
  8
1
100
AcDbLine
 10
76.567908
 20
-231.441264
 30
0.0
 11
88.767908
 21
-231.441264
 31
0.0
  0
LINE
  5
14C
330
25
100
AcDbEntity
  8
1
100
AcDbLine
 10
87.667908
 20
-231.441264
 30
0.0
 11
87.667908
 21
-235.441264
 31
0.0
  0
ARC
  5
14D
330
25
100
AcDbEntity
  8
1
100
AcDbCircle
 10
85.167908
 20
-228.828057
 30
0.0
 40
6.613208
100
AcDbArc
 50
247.7882049999999
 51
292.211795
  0
LINE
  5
14E
330
25
100
AcDbEntity
  8
1
100
AcDbLine
 10
77.66790799999999
 20
-231.441264
 30
0.0
 11
77.66790799999999
 21
-235.441264
 31
0.0
  0
LINE
  5
14F
330
25
100
AcDbEntity
  8
1
100
AcDbLine
 10
77.66790799999999
 20
-235.441264
 30
0.0
 11
87.667908
 21
-235.441264
 31
0.0
  0
LINE
  5
150
330
25
100
AcDbEntity
  8
1
100
AcDbLine
 10
82.667908
 20
-231.441264
 30
0.0
 11
82.667908
 21
-234.950517
 31
0.0
  0
ARC
  5
151
330
25
100
AcDbEntity
  8
1
100
AcDbCircle
 10
80.167908
 20
-228.828057
 30
0.0
 40
6.613208
100
AcDbArc
 50
247.7882049999999
 51
292.211795
  0
LINE
  5
152
330
25
100
AcDbEntity
  8
1
100
AcDbLine
 10
88.767908
 20
-229.941264
 30
0.0
 11
88.767908
 21
-231.441264
 31
0.0
  0
LINE
  5
153
330
25
100
AcDbEntity
  8
1
100
AcDbLine
 10
76.567908
 20
-231.441264
 30
0.0
 11
76.567908
 21
-229.941264
 31
0.0
  0
LINE
  5
154
330
25
100
AcDbEntity
  8
1
100
AcDbLine
 10
72.66790799999999
 20
-224.541264
 30
0.0
 11
92.667908
 21
-224.541264
 31
0.0
  0
ARC
  5
155
330
25
100
AcDbEntity
  8
1
100
AcDbCircle
 10
92.667908
 20
-221.541264
 30
0.0
 40
3.0
100
AcDbArc
 50
270.0
 51
360.0
  0
ARC
  5
156
330
25
100
AcDbEntity
  8
1
100
AcDbCircle
 10
72.66790799999999
 20
-221.541264
 30
0.0
 40
3.0
100
AcDbArc
 50
180.0
 51
270.0
  0
LINE
  5
157
330
25
100
AcDbEntity
  8
1
100
AcDbLine
 10
91.25640799999999
 20
-171.664629
 30
0.0
 11
91.25640799999999
 21
-129.4179
 31
0.0
  0
LINE
  5
158
330
25
100
AcDbEntity
  8
1
100
AcDbLine
 10
74.079408
 20
-171.664629
 30
0.0
 11
74.079408
 21
-129.4179
 31
0.0
  0
LINE
  5
159
330
25
100
AcDbEntity
  8
1
100
AcDbLine
 10
92.04345999999999
 20
-112.646693
 30
0.0
 11
91.25640799999999
 21
-111.728764
 31
0.0
  0
LINE
  5
15A
330
25
100
AcDbEntity
  8
1
100
AcDbLine
 10
73.292355
 20
-112.646693
 30
0.0
 11
74.079408
 21
-111.728764
 31
0.0
  0
LINE
  5
15B
330
25
100
AcDbEntity
  8
1
100
AcDbLine
 10
93.06861899999999
 20
-94.932846
 30
0.0
 11
91.25640799999999
 21
-104.791649
 31
0.0
  0
LINE
  5
15C
330
25
100
AcDbEntity
  8
1
100
AcDbLine
 10
72.267196
 20
-94.932846
 30
0.0
 11
74.079408
 21
-104.791649
 31
0.0
  0
ARC
  5
15D
330
25
100
AcDbEntity
  8
1
100
AcDbCircle
 10
87.78785
 20
-108.260206
 30
0.0
 40
3.468558
100
AcDbArc
 50
270.0
 51
77.681338
  0
ARC
  5
15E
330
25
100
AcDbEntity
  8
1
100
AcDbCircle
 10
77.547966
 20
-108.260206
 30
0.0
 40
3.468558
100
AcDbArc
 50
102.318662
 51
270.0
  0
LINE
  5
15F
330
25
100
AcDbEntity
  8
1
100
AcDbLine
 10
77.547966
 20
-111.728764
 30
0.0
 11
87.78785
 21
-111.728764
 31
0.0
  0
LINE
  5
160
330
25
100
AcDbEntity
  8
1
100
AcDbLine
 10
77.66790799999999
 20
-125.8294
 30
0.0
 11
87.667908
 21
-125.8294
 31
0.0
  0
ARC
  5
161
330
25
100
AcDbEntity
  8
1
100
AcDbCircle
 10
87.667908
 20
-129.4179
 30
0.0
 40
3.588499999999999
100
AcDbArc
 50
0.0
 51
90.0
  0
ARC
  5
162
330
25
100
AcDbEntity
  8
1
100
AcDbCircle
 10
77.66790799999999
 20
-129.4179
 30
0.0
 40
3.588499999999999
100
AcDbArc
 50
90.0
 51
180.0
  0
LINE
  5
163
330
25
100
AcDbEntity
  8
1
100
AcDbLine
 10
77.66790799999999
 20
-175.253129
 30
0.0
 11
87.667908
 21
-175.253129
 31
0.0
  0
ARC
  5
164
330
25
100
AcDbEntity
  8
1
100
AcDbCircle
 10
87.667908
 20
-171.664629
 30
0.0
 40
3.588499999999999
100
AcDbArc
 50
270.0
 51
360.0
  0
ARC
  5
165
330
25
100
AcDbEntity
  8
1
100
AcDbCircle
 10
77.66790799999999
 20
-171.664629
 30
0.0
 40
3.588499999999999
100
AcDbArc
 50
180.0
 51
270.0
  0
LINE
  5
166
330
25
100
AcDbEntity
  8
1
100
AcDbLine
 10
91.25640799999999
 20
-125.8294
 30
0.0
 11
92.74209499999999
 21
-121.339293
 31
0.0
  0
LINE
  5
167
330
25
100
AcDbEntity
  8
1
100
AcDbLine
 10
74.079408
 20
-125.8294
 30
0.0
 11
72.59371999999999
 21
-121.339293
 31
0.0
  0
LINE
  5
168
330
25
100
AcDbEntity
  8
1
100
AcDbLine
 10
72.59371999999999
 20
-179.743236
 30
0.0
 11
74.079408
 21
-175.253129
 31
0.0
  0
LINE
  5
169
330
25
100
AcDbEntity
  8
1
100
AcDbLine
 10
91.25640799999999
 20
-175.253129
 30
0.0
 11
92.74209499999999
 21
-179.743236
 31
0.0
  0
LINE
  5
16A
330
25
100
AcDbEntity
  8
1
100
AcDbLine
 10
92.04345999999999
 20
-188.435836
 30
0.0
 11
91.25640799999999
 21
-189.353764
 31
0.0
  0
LINE
  5
16B
330
25
100
AcDbEntity
  8
1
100
AcDbLine
 10
73.292355
 20
-188.435836
 30
0.0
 11
74.079408
 21
-189.353764
 31
0.0
  0
LINE
  5
16C
330
25
100
AcDbEntity
  8
1
100
AcDbLine
 10
72.26465799999999
 20
-206.221432
 30
0.0
 11
74.079408
 21
-196.29088
 31
0.0
  0
LINE
  5
16D
330
25
100
AcDbEntity
  8
1
100
AcDbLine
 10
93.071157
 20
-206.221432
 30
0.0
 11
91.25640799999999
 21
-196.29088
 31
0.0
  0
ARC
  5
16E
330
25
100
AcDbEntity
  8
1
100
AcDbCircle
 10
77.547966
 20
-192.8223219999999
 30
0.0
 40
3.468558
100
AcDbArc
 50
90.0
 51
257.681338
  0
ARC
  5
16F
330
25
100
AcDbEntity
  8
1
100
AcDbCircle
 10
87.78785
 20
-192.8223219999999
 30
0.0
 40
3.468558
100
AcDbArc
 50
282.318662
 51
90.0
  0
LINE
  5
170
330
25
100
AcDbEntity
  8
1
100
AcDbLine
 10
77.547966
 20
-189.353764
 30
0.0
 11
87.78785
 21
-189.353764
 31
0.0
  0
LINE
  5
171
330
25
100
AcDbEntity
  8
1
100
AcDbLine
 10
58.542908
 20
-94.491264
 30
0.0
 11
58.542908
 21
-206.591264
 31
0.0
  0
LINE
  5
172
330
25
100
AcDbEntity
  8
1
100
AcDbLine
 10
106.792908
 20
-94.491264
 30
0.0
 11
106.792908
 21
-206.591264
 31
0.0
  0
LINE
  5
173
330
25
100
AcDbEntity
  8
1
100
AcDbLine
 10
106.792908
 20
-94.491264
 30
0.0
 11
105.956529
 21
-93.04154200000001
 31
0.0
  0
LINE
  5
174
330
25
100
AcDbEntity
  8
1
100
AcDbLine
 10
58.542908
 20
-94.491264
 30
0.0
 11
59.379286
 21
-93.04154200000001
 31
0.0
  0
ARC
  5
175
330
25
100
AcDbEntity
  8
1
100
AcDbCircle
 10
105.090344
 20
-93.541264
 30
0.0
 40
1.0
100
AcDbArc
 50
29.98163900000001
 51
54.720616
  0
ARC
  5
176
330
25
100
AcDbEntity
  8
1
100
AcDbCircle
 10
60.245472
 20
-93.541264
 30
0.0
 40
1.0
100
AcDbArc
 50
125.279384
 51
150.018361
  0
LINE
  5
177
330
25
100
AcDbEntity
  8
1
100
AcDbLine
 10
106.792908
 20
-206.591264
 30
0.0
 11
105.956529
 21
-208.040987
 31
0.0
  0
LINE
  5
178
330
25
100
AcDbEntity
  8
1
100
AcDbLine
 10
58.542908
 20
-206.591264
 30
0.0
 11
59.379286
 21
-208.040987
 31
0.0
  0
ARC
  5
179
330
25
100
AcDbEntity
  8
1
100
AcDbCircle
 10
105.090344
 20
-207.541264
 30
0.0
 40
1.0
100
AcDbArc
 50
305.279384
 51
330.018361
  0
ARC
  5
17A
330
25
100
AcDbEntity
  8
1
100
AcDbCircle
 10
60.245472
 20
-207.541264
 30
0.0
 40
1.0
100
AcDbArc
 50
209.981639
 51
234.720616
  0
ARC
  5
17B
330
25
100
AcDbEntity
  8
1
100
AcDbCircle
 10
51.66790800000001
 20
-2.541263999999999
 30
0.0
 40
4.0
100
AcDbArc
 50
180.0
 51
270.0
  0
ARC
  5
17C
330
25
100
AcDbEntity
  8
1
100
AcDbCircle
 10
113.667908
 20
-2.541263999999999
 30
0.0
 40
4.0
100
AcDbArc
 50
270.0
 51
0.0
  0
ARC
  5
17D
330
25
100
AcDbEntity
  8
1
100
AcDbCircle
 10
106.667908
 20
-14.541264
 30
0.0
 40
8.0
100
AcDbArc
 50
90.0
 51
180.0
  0
ARC
  5
17E
330
25
100
AcDbEntity
  8
1
100
AcDbCircle
 10
58.667908
 20
-14.541264
 30
0.0
 40
8.0
100
AcDbArc
 50
0.0
 51
44.035614
  0
ARC
  5
17F
330
25
100
AcDbEntity
  8
1
100
AcDbCircle
 10
116.667908
 20
-24.335759
 30
0.0
 40
18.0
100
AcDbArc
 50
97.83748
 51
180.0
  0
LINE
  5
180
330
25
100
AcDbEntity
  8
1
100
AcDbLine
 10
86.167908
 20
-24.335759
 30
0.0
 11
79.167908
 21
-24.335759
 31
0.0
  0
LINE
  5
181
330
25
100
AcDbEntity
  8
1
100
AcDbLine
 10
79.167908
 20
-9.541263999999999
 30
0.0
 11
79.167908
 21
-21.335759
 31
0.0
  0
LINE
  5
182
330
25
100
AcDbEntity
  8
1
100
AcDbLine
 10
86.167908
 20
-9.541263999999999
 30
0.0
 11
86.167908
 21
-21.335759
 31
0.0
  0
ARC
  5
183
330
25
100
AcDbEntity
  8
1
100
AcDbCircle
 10
89.16790799999999
 20
-9.541263999999999
 30
0.0
 40
3.0
100
AcDbArc
 50
90.0
 51
180.0
  0
ARC
  5
184
330
25
100
AcDbEntity
  8
1
100
AcDbCircle
 10
76.167908
 20
-9.541263999999999
 30
0.0
 40
3.0
100
AcDbArc
 50
360.0
 51
90.0
  0
ARC
  5
185
330
25
100
AcDbEntity
  8
1
100
AcDbCircle
 10
76.167908
 20
-21.335759
 30
0.0
 40
3.0
100
AcDbArc
 50
270.0
 51
0.0
  0
ARC
  5
186
330
25
100
AcDbEntity
  8
1
100
AcDbCircle
 10
89.16790799999999
 20
-21.335759
 30
0.0
 40
3.0
100
AcDbArc
 50
180.0
 51
270.0
  0
LINE
  5
187
330
25
100
AcDbEntity
  8
1
100
AcDbLine
 10
59.667908
 20
-88.541264
 30
0.0
 11
59.667908
 21
-212.541264
 31
0.0
  0
LINE
  5
188
330
25
100
AcDbEntity
  8
1
100
AcDbLine
 10
105.667908
 20
-88.541264
 30
0.0
 11
105.667908
 21
-212.541264
 31
0.0
  0
LINE
  5
189
330
25
100
AcDbEntity
  8
1
100
AcDbLine
 10
59.667908
 20
-212.541264
 30
0.0
 11
60.66790799999999
 21
-213.541264
 31
0.0
  0
LINE
  5
18A
330
25
100
AcDbEntity
  8
1
100
AcDbLine
 10
105.667908
 20
-212.541264
 30
0.0
 11
104.667908
 21
-213.541264
 31
0.0
  0
LINE
  5
18B
330
25
100
AcDbEntity
  8
1
100
AcDbLine
 10
105.667908
 20
-88.541264
 30
0.0
 11
104.667908
 21
-87.541264
 31
0.0
  0
LINE
  5
18C
330
25
100
AcDbEntity
  8
1
100
AcDbLine
 10
59.667908
 20
-88.541264
 30
0.0
 11
60.66790799999999
 21
-87.541264
 31
0.0
  0
LINE
  5
18D
330
25
100
AcDbEntity
  8
1
100
AcDbLine
 10
60.66790799999999
 20
-87.541264
 30
0.0
 11
60.66790799999999
 21
-213.541264
 31
0.0
  0
LINE
  5
18E
330
25
100
AcDbEntity
  8
1
100
AcDbLine
 10
104.667908
 20
-87.541264
 30
0.0
 11
104.667908
 21
-213.541264
 31
0.0
  0
ARC
  5
18F
330
25
100
AcDbEntity
  8
1
100
AcDbCircle
 10
102.667908
 20
-83.541264
 30
0.0
 40
4.0
100
AcDbArc
 50
180.0
 51
270.0
  0
ARC
  5
190
330
25
100
AcDbEntity
  8
1
100
AcDbCircle
 10
62.66790799999999
 20
-83.541264
 30
0.0
 40
4.0
100
AcDbArc
 50
270.0
 51
360.0
  0
LINE
  5
191
330
25
100
AcDbEntity
  8
1
100
AcDbLine
 10
102.667908
 20
-87.541264
 30
0.0
 11
104.667908
 21
-87.541264
 31
0.0
  0
LINE
  5
192
330
25
100
AcDbEntity
  8
1
100
AcDbLine
 10
60.66790799999999
 20
-87.541264
 30
0.0
 11
62.66790799999999
 21
-87.541264
 31
0.0
  0
ARC
  5
193
330
25
100
AcDbEntity
  8
1
100
AcDbCircle
 10
62.66790799999999
 20
-87.67259499999999
 30
0.0
 40
4.0
100
AcDbArc
 50
270.0
 51
360.0
  0
ARC
  5
194
330
25
100
AcDbEntity
  8
1
100
AcDbCircle
 10
102.667908
 20
-87.67259499999999
 30
0.0
 40
4.0
100
AcDbArc
 50
180.0
 51
270.0
  0
LINE
  5
195
330
25
100
AcDbEntity
  8
1
100
AcDbLine
 10
69.667908
 20
-227.541264
 30
0.0
 11
95.66790799999999
 21
-227.541264
 31
0.0
  0
LINE
  5
196
330
25
100
AcDbEntity
  8
1
100
AcDbLine
 10
69.667908
 20
-213.486932
 30
0.0
 11
69.667908
 21
-229.941264
 31
0.0
  0
LINE
  5
197
330
25
100
AcDbEntity
  8
1
100
AcDbLine
 10
95.66790799999999
 20
-213.486932
 30
0.0
 11
95.66790799999999
 21
-229.941264
 31
0.0
  0
ARC
  5
198
330
25
100
AcDbEntity
  8
1
100
AcDbCircle
 10
99.667908
 20
-217.541264
 30
0.0
 40
4.0
100
AcDbArc
 50
90.0
 51
180.0
  0
ARC
  5
199
330
25
100
AcDbEntity
  8
1
100
AcDbCircle
 10
65.66790799999999
 20
-217.541264
 30
0.0
 40
4.0
100
AcDbArc
 50
0.0
 51
90.0
  0
LINE
  5
19A
330
25
100
AcDbEntity
  8
1
100
AcDbLine
 10
60.66790799999999
 20
-213.541264
 30
0.0
 11
65.66790799999999
 21
-213.541264
 31
0.0
  0
LINE
  5
19B
330
25
100
AcDbEntity
  8
1
100
AcDbLine
 10
99.667908
 20
-213.541264
 30
0.0
 11
104.667908
 21
-213.541264
 31
0.0
  0
ARC
  5
19C
330
25
100
AcDbEntity
  8
1
100
AcDbCircle
 10
99.667908
 20
-213.486932
 30
0.0
 40
4.0
100
AcDbArc
 50
90.0
 51
180.0
  0
ARC
  5
19D
330
25
100
AcDbEntity
  8
1
100
AcDbCircle
 10
65.66790799999999
 20
-213.486932
 30
0.0
 40
4.0
100
AcDbArc
 50
0.0
 51
90.0
  0
LINE
  5
19E
330
25
100
AcDbEntity
  8
1
100
AcDbLine
 10
69.667908
 20
-228.341264
 30
0.0
 11
95.66790799999999
 21
-228.341264
 31
0.0
  0
LINE
  5
19F
330
25
100
AcDbEntity
  8
1
100
AcDbLine
 10
69.667908
 20
-229.941264
 30
0.0
 11
95.66790799999999
 21
-229.941264
 31
0.0
  0
LINE
  5
1A0
330
25
100
AcDbEntity
  8
1
100
AcDbLine
 10
77.66790799999999
 20
-114.5412639999999
 30
0.0
 11
87.667908
 21
-114.5412639999999
 31
0.0
  0
LINE
  5
1A1
330
25
100
AcDbEntity
  8
1
100
AcDbLine
 10
77.66790799999999
 20
-118.541264
 30
0.0
 11
87.667908
 21
-118.541264
 31
0.0
  0
LINE
  5
1A2
330
25
100
AcDbEntity
  8
1
100
AcDbLine
 10
77.66790799999999
 20
-182.541264
 30
0.0
 11
87.667908
 21
-182.541264
 31
0.0
  0
LINE
  5
1A3
330
25
100
AcDbEntity
  8
1
100
AcDbLine
 10
77.66790799999999
 20
-186.541264
 30
0.0
 11
87.667908
 21
-186.541264
 31
0.0
  0
LINE
  5
1A4
330
25
100
AcDbEntity
  8
1
100
AcDbLine
 10
93.667908
 20
-108.541264
 30
0.0
 11
93.667908
 21
-97.546715
 31
0.0
  0
LINE
  5
1A5
330
25
100
AcDbEntity
  8
1
100
AcDbLine
 10
71.667908
 20
-108.541264
 30
0.0
 11
71.667908
 21
-97.546715
 31
0.0
  0
LINE
  5
1A6
330
25
100
AcDbEntity
  8
1
100
AcDbLine
 10
93.667908
 20
-203.612812
 30
0.0
 11
93.667908
 21
-192.541264
 31
0.0
  0
LINE
  5
1A7
330
25
100
AcDbEntity
  8
1
100
AcDbLine
 10
93.667908
 20
-176.541264
 30
0.0
 11
93.667908
 21
-124.541264
 31
0.0
  0
LINE
  5
1A8
330
25
100
AcDbEntity
  8
1
100
AcDbLine
 10
71.667908
 20
-203.612812
 30
0.0
 11
71.667908
 21
-192.541264
 31
0.0
  0
LINE
  5
1A9
330
25
100
AcDbEntity
  8
1
100
AcDbLine
 10
71.667908
 20
-176.541264
 30
0.0
 11
71.667908
 21
-124.541264
 31
0.0
  0
ARC
  5
1AA
330
25
100
AcDbEntity
  8
1
100
AcDbCircle
 10
77.66790799999999
 20
-124.541264
 30
0.0
 40
6.0
100
AcDbArc
 50
90.0
 51
180.0
  0
ARC
  5
1AB
330
25
100
AcDbEntity
  8
1
100
AcDbCircle
 10
87.667908
 20
-124.541264
 30
0.0
 40
6.0
100
AcDbArc
 50
0.0
 51
90.0
  0
ARC
  5
1AC
330
25
100
AcDbEntity
  8
1
100
AcDbCircle
 10
87.667908
 20
-176.541264
 30
0.0
 40
6.0
100
AcDbArc
 50
270.0
 51
360.0
  0
ARC
  5
1AD
330
25
100
AcDbEntity
  8
1
100
AcDbCircle
 10
77.66790799999999
 20
-176.541264
 30
0.0
 40
6.0
100
AcDbArc
 50
180.0
 51
270.0
  0
ARC
  5
1AE
330
25
100
AcDbEntity
  8
1
100
AcDbCircle
 10
77.66790799999999
 20
-192.541264
 30
0.0
 40
6.0
100
AcDbArc
 50
90.0
 51
180.0
  0
ARC
  5
1AF
330
25
100
AcDbEntity
  8
1
100
AcDbCircle
 10
87.667908
 20
-192.541264
 30
0.0
 40
6.0
100
AcDbArc
 50
0.0
 51
90.0
  0
ARC
  5
1B0
330
25
100
AcDbEntity
  8
1
100
AcDbCircle
 10
87.667908
 20
-108.541264
 30
0.0
 40
6.0
100
AcDbArc
 50
270.0
 51
360.0
  0
ARC
  5
1B1
330
25
100
AcDbEntity
  8
1
100
AcDbCircle
 10
77.66790799999999
 20
-108.541264
 30
0.0
 40
6.0
100
AcDbArc
 50
180.0
 51
270.0
  0
LINE
  5
1B2
330
25
100
AcDbEntity
  8
1
100
AcDbLine
 10
79.167908
 20
-48.980403
 30
0.0
 11
86.167908
 21
-48.980403
 31
0.0
  0
LINE
  5
1B3
330
25
100
AcDbEntity
  8
1
100
AcDbLine
 10
79.167908
 20
-108.387528
 30
0.0
 11
86.167908
 21
-108.387528
 31
0.0
  0
LINE
  5
1B4
330
25
100
AcDbEntity
  8
1
100
AcDbLine
 10
79.167908
 20
-51.980403
 30
0.0
 11
79.167908
 21
-105.387528
 31
0.0
  0
LINE
  5
1B5
330
25
100
AcDbEntity
  8
1
100
AcDbLine
 10
86.167908
 20
-51.980403
 30
0.0
 11
86.167908
 21
-105.387528
 31
0.0
  0
LINE
  5
1B6
330
25
100
AcDbEntity
  8
1
100
AcDbLine
 10
66.667908
 20
-91.672595
 30
0.0
 11
76.167908
 21
-91.672595
 31
0.0
  0
LINE
  5
1B7
330
25
100
AcDbEntity
  8
1
100
AcDbLine
 10
89.16790799999999
 20
-91.672595
 30
0.0
 11
98.667908
 21
-91.672595
 31
0.0
  0
ARC
  5
1B8
330
25
100
AcDbEntity
  8
1
100
AcDbCircle
 10
89.16790799999999
 20
-88.67259500000001
 30
0.0
 40
3.0
100
AcDbArc
 50
180.0
 51
270.0
  0
ARC
  5
1B9
330
25
100
AcDbEntity
  8
1
100
AcDbCircle
 10
76.167908
 20
-88.67259500000001
 30
0.0
 40
3.0
100
AcDbArc
 50
270.0
 51
360.0
  0
ARC
  5
1BA
330
25
100
AcDbEntity
  8
1
100
AcDbCircle
 10
87.667908
 20
-97.546715
 30
0.0
 40
6.0
100
AcDbArc
 50
0.0
 51
80.40593199999999
  0
ARC
  5
1BB
330
25
100
AcDbEntity
  8
1
100
AcDbCircle
 10
77.66790799999999
 20
-97.546715
 30
0.0
 40
6.0
100
AcDbArc
 50
99.59406800000001
 51
180.0
  0
ARC
  5
1BC
330
25
100
AcDbEntity
  8
1
100
AcDbCircle
 10
89.16790799999999
 20
-51.980403
 30
0.0
 40
3.0
100
AcDbArc
 50
90.0
 51
180.0
  0
ARC
  5
1BD
330
25
100
AcDbEntity
  8
1
100
AcDbCircle
 10
76.167908
 20
-51.980403
 30
0.0
 40
3.0
100
AcDbArc
 50
0.0
 51
90.0
  0
ARC
  5
1BE
330
25
100
AcDbEntity
  8
1
100
AcDbCircle
 10
89.16790799999999
 20
-101.94058
 30
0.0
 40
3.0
100
AcDbArc
 50
180.0
 51
257.681338
  0
ARC
  5
1BF
330
25
100
AcDbEntity
  8
1
100
AcDbCircle
 10
76.167908
 20
-101.94058
 30
0.0
 40
3.0
100
AcDbArc
 50
282.318662
 51
360.0
  0
ARC
  5
1C0
330
25
100
AcDbEntity
  8
1
100
AcDbCircle
 10
89.16790799999999
 20
-105.387528
 30
0.0
 40
3.0
100
AcDbArc
 50
180.0
 51
270.0
  0
ARC
  5
1C1
330
25
100
AcDbEntity
  8
1
100
AcDbCircle
 10
76.167908
 20
-105.387528
 30
0.0
 40
3.0
100
AcDbArc
 50
270.0
 51
360.0
  0
LINE
  5
1C2
330
25
100
AcDbEntity
  8
1
100
AcDbLine
 10
82.167908
 20
-71.807251
 30
0.0
 11
83.16790799999999
 21
-71.807251
 31
0.0
  0
LINE
  5
1C3
330
25
100
AcDbEntity
  8
1
100
AcDbLine
 10
82.167908
 20
-61.58094399999999
 30
0.0
 11
83.16790799999999
 21
-61.58094399999999
 31
0.0
  0
LINE
  5
1C4
330
25
100
AcDbEntity
  8
1
100
AcDbLine
 10
82.167908
 20
-90.89501199999999
 30
0.0
 11
83.16790799999999
 21
-90.89501199999999
 31
0.0
  0
ARC
  5
1C5
330
25
100
AcDbEntity
  8
1
100
AcDbCircle
 10
83.16790799999999
 20
-64.58094399999999
 30
0.0
 40
3.0
100
AcDbArc
 50
0.0
 51
90.0
  0
ARC
  5
1C6
330
25
100
AcDbEntity
  8
1
100
AcDbCircle
 10
82.167908
 20
-64.58094399999999
 30
0.0
 40
3.0
100
AcDbArc
 50
90.0
 51
180.0
  0
ARC
  5
1C7
330
25
100
AcDbEntity
  8
1
100
AcDbCircle
 10
82.167908
 20
-68.80725100000001
 30
0.0
 40
3.0
100
AcDbArc
 50
180.0
 51
270.0
  0
ARC
  5
1C8
330
25
100
AcDbEntity
  8
1
100
AcDbCircle
 10
83.16790799999999
 20
-68.80725100000001
 30
0.0
 40
3.0
100
AcDbArc
 50
270.0
 51
360.0
  0
ARC
  5
1C9
330
25
100
AcDbEntity
  8
1
100
AcDbCircle
 10
83.16790799999999
 20
-93.89501199999999
 30
0.0
 40
3.0
100
AcDbArc
 50
0.0
 51
90.0
  0
ARC
  5
1CA
330
25
100
AcDbEntity
  8
1
100
AcDbCircle
 10
82.167908
 20
-93.89501199999999
 30
0.0
 40
3.0
100
AcDbArc
 50
90.0
 51
180.0
  0
LINE
  5
1CB
330
25
100
AcDbEntity
  8
1
100
AcDbLine
 10
79.167908
 20
-219.915251
 30
0.0
 11
86.167908
 21
-219.915251
 31
0.0
  0
LINE
  5
1CC
330
25
100
AcDbEntity
  8
1
100
AcDbLine
 10
79.167908
 20
-191.360923
 30
0.0
 11
86.167908
 21
-191.360923
 31
0.0
  0
LINE
  5
1CD
330
25
100
AcDbEntity
  8
1
100
AcDbLine
 10
79.167908
 20
-194.360923
 30
0.0
 11
79.167908
 21
-216.915251
 31
0.0
  0
LINE
  5
1CE
330
25
100
AcDbEntity
  8
1
100
AcDbLine
 10
86.167908
 20
-194.360923
 30
0.0
 11
86.167908
 21
-216.915251
 31
0.0
  0
ARC
  5
1CF
330
25
100
AcDbEntity
  8
1
100
AcDbCircle
 10
89.16790799999999
 20
-216.915251
 30
0.0
 40
3.0
100
AcDbArc
 50
180.0
 51
270.0
  0
ARC
  5
1D0
330
25
100
AcDbEntity
  8
1
100
AcDbCircle
 10
76.167908
 20
-216.915251
 30
0.0
 40
3.0
100
AcDbArc
 50
270.0
 51
360.0
  0
ARC
  5
1D1
330
25
100
AcDbEntity
  8
1
100
AcDbCircle
 10
89.16790799999999
 20
-194.360923
 30
0.0
 40
3.0
100
AcDbArc
 50
90.0
 51
180.0
  0
ARC
  5
1D2
330
25
100
AcDbEntity
  8
1
100
AcDbCircle
 10
76.167908
 20
-194.360923
 30
0.0
 40
3.0
100
AcDbArc
 50
360.0
 51
90.0
  0
LINE
  5
1D3
330
25
100
AcDbEntity
  8
1
100
AcDbLine
 10
69.667908
 20
-209.486932
 30
0.0
 11
76.167908
 21
-209.486932
 31
0.0
  0
LINE
  5
1D4
330
25
100
AcDbEntity
  8
1
100
AcDbLine
 10
89.16790799999999
 20
-209.486932
 30
0.0
 11
95.66790799999999
 21
-209.486932
 31
0.0
  0
ARC
  5
1D5
330
25
100
AcDbEntity
  8
1
100
AcDbCircle
 10
89.16790799999999
 20
-212.486932
 30
0.0
 40
3.0
100
AcDbArc
 50
90.0
 51
180.0
  0
ARC
  5
1D6
330
25
100
AcDbEntity
  8
1
100
AcDbCircle
 10
76.167908
 20
-212.486932
 30
0.0
 40
3.0
100
AcDbArc
 50
0.0
 51
90.0
  0
ARC
  5
1D7
330
25
100
AcDbEntity
  8
1
100
AcDbCircle
 10
89.16790799999999
 20
-199.141949
 30
0.0
 40
3.0
100
AcDbArc
 50
102.318662
 51
180.0
  0
ARC
  5
1D8
330
25
100
AcDbEntity
  8
1
100
AcDbCircle
 10
76.167908
 20
-199.141949
 30
0.0
 40
3.0
100
AcDbArc
 50
0.0
 51
77.681338
  0
ARC
  5
1D9
330
25
100
AcDbEntity
  8
1
100
AcDbCircle
 10
87.667908
 20
-203.612812
 30
0.0
 40
6.0
100
AcDbArc
 50
279.594068
 51
360.0
  0
ARC
  5
1DA
330
25
100
AcDbEntity
  8
1
100
AcDbCircle
 10
77.66790799999999
 20
-203.612812
 30
0.0
 40
6.0
100
AcDbArc
 50
180.0
 51
260.405932
  0
LINE
  5
1DB
330
25
100
AcDbEntity
  8
1
100
AcDbLine
 10
82.167908
 20
-209.613985
 30
0.0
 11
83.16790799999999
 21
-209.613985
 31
0.0
  0
ARC
  5
1DC
330
25
100
AcDbEntity
  8
1
100
AcDbCircle
 10
83.16790799999999
 20
-206.613985
 30
0.0
 40
3.0
100
AcDbArc
 50
270.0
 51
360.0
  0
ARC
  5
1DD
330
25
100
AcDbEntity
  8
1
100
AcDbCircle
 10
82.167908
 20
-206.613985
 30
0.0
 40
3.0
100
AcDbArc
 50
180.0
 51
270.0
  0
LINE
  5
1DE
330
25
100
AcDbEntity
  8
1
100
AcDbLine
 10
47.667908
 20
5.458736
 30
0.0
 11
76.76790799999999
 21
5.458736
 31
0.0
  0
LINE
  5
1DF
330
25
100
AcDbEntity
  8
1
100
AcDbLine
 10
88.567908
 20
5.458736
 30
0.0
 11
117.667908
 21
5.458736
 31
0.0
  0
ARC
  5
1E0
330
25
100
AcDbEntity
  8
1
100
AcDbCircle
 10
48.667908
 20
-24.335759
 30
0.0
 40
18.0
100
AcDbArc
 50
0.0
 51
32.823914
  0
ARC
  5
1E1
330
25
100
AcDbEntity
  8
1
100
AcDbCircle
 10
48.667908
 20
-24.335759
 30
0.0
 40
18.0
100
AcDbArc
 50
81.33383499999998
 51
82.16252
  0
LINE
  5
1E2
330
25
100
AcDbEntity
  8
2
100
AcDbLine
 10
-235.841921
 20
15.458736
 30
0.0
 11
-235.841921
 21
7.458736
 31
0.0
  0
LINE
  5
1E3
330
25
100
AcDbEntity
  8
2
100
AcDbLine
 10
-248.841921
 20
16.458736
 30
0.0
 11
-249.841921
 21
15.458736
 31
0.0
  0
LINE
  5
1E4
330
25
100
AcDbEntity
  8
2
100
AcDbLine
 10
-236.841921
 20
16.458736
 30
0.0
 11
-235.841921
 21
15.458736
 31
0.0
  0
LINE
  5
1E5
330
25
100
AcDbEntity
  8
2
100
AcDbLine
 10
-249.841921
 20
15.458736
 30
0.0
 11
-249.841921
 21
7.458736
 31
0.0
  0
ARC
  5
1E6
330
25
100
AcDbEntity
  8
2
100
AcDbCircle
 10
-242.841921
 20
22.458736
 30
0.0
 40
7.0
100
AcDbArc
 50
238.997281
 51
301.002719
  0
ARC
  5
1E7
330
25
100
AcDbEntity
  8
2
100
AcDbCircle
 10
-262.841921
 20
32.967119
 30
0.0
 40
5.0
100
AcDbArc
 50
290.0
 51
360.0
  0
LINE
  5
1E8
330
25
100
AcDbEntity
  8
2
100
AcDbLine
 10
-277.867981
 20
22.177191
 30
0.0
 11
-261.13182
 21
28.268656
 31
0.0
  0
LINE
  5
1E9
330
25
100
AcDbEntity
  8
2
100
AcDbLine
 10
-231.841921
 20
17.458736
 30
0.0
 11
-279.841921
 21
17.458736
 31
0.0
  0
LINE
  5
1EA
330
25
100
AcDbEntity
  8
2
100
AcDbLine
 10
-253.841921
 20
16.458736
 30
0.0
 11
-253.841921
 21
17.458736
 31
0.0
  0
LINE
  5
1EB
330
25
100
AcDbEntity
  8
2
100
AcDbLine
 10
-279.841921
 20
19.358113
 30
0.0
 11
-279.841921
 21
17.458736
 31
0.0
  0
LINE
  5
1EC
330
25
100
AcDbEntity
  8
2
100
AcDbLine
 10
-227.841921
 20
37.458736
 30
0.0
 11
-228.841921
 21
38.458736
 31
0.0
  0
LINE
  5
1ED
330
25
100
AcDbEntity
  8
2
100
AcDbLine
 10
-256.841921
 20
38.458736
 30
0.0
 11
-257.841921
 21
37.458736
 31
0.0
  0
LINE
  5
1EE
330
25
100
AcDbEntity
  8
2
100
AcDbLine
 10
-257.841921
 20
32.967119
 30
0.0
 11
-257.841921
 21
37.458736
 31
0.0
  0
LINE
  5
1EF
330
25
100
AcDbEntity
  8
2
100
AcDbLine
 10
-227.841921
 20
37.351776
 30
0.0
 11
-227.841921
 21
37.458736
 31
0.0
  0
LINE
  5
1F0
330
25
100
AcDbEntity
  8
2
100
AcDbLine
 10
-231.841921
 20
16.458736
 30
0.0
 11
-253.841921
 21
16.458736
 31
0.0
  0
LINE
  5
1F1
330
25
100
AcDbEntity
  8
2
100
AcDbLine
 10
-231.841921
 20
16.458736
 30
0.0
 11
-231.841921
 21
17.458736
 31
0.0
  0
LINE
  5
1F2
330
25
100
AcDbEntity
  8
2
100
AcDbLine
 10
-249.611152
 20
37.458736
 30
0.0
 11
-249.611152
 21
17.458736
 31
0.0
  0
LINE
  5
1F3
330
25
100
AcDbEntity
  8
2
100
AcDbLine
 10
-236.07269
 20
37.458736
 30
0.0
 11
-236.07269
 21
17.458736
 31
0.0
  0
ARC
  5
1F4
330
25
100
AcDbEntity
  8
2
100
AcDbCircle
 10
-276.841921
 20
19.358113
 30
0.0
 40
3.0
100
AcDbArc
 50
110.0
 51
180.0
  0
ARC
  5
1F5
330
25
100
AcDbEntity
  8
2
100
AcDbCircle
 10
-248.611152
 20
37.458736
 30
0.0
 40
1.0
100
AcDbArc
 50
90.0
 51
180.0
  0
ARC
  5
1F6
330
25
100
AcDbEntity
  8
2
100
AcDbCircle
 10
-237.07269
 20
37.458736
 30
0.0
 40
1.0
100
AcDbArc
 50
0.0
 51
90.0
  0
LINE
  5
1F7
330
25
100
AcDbEntity
  8
2
100
AcDbLine
 10
-228.841921
 20
38.458736
 30
0.0
 11
-256.841921
 21
38.458736
 31
0.0
  0
ARC
  5
1F8
330
25
100
AcDbEntity
  8
2
100
AcDbCircle
 10
-266.180284
 20
48.140938
 30
0.0
 40
22.811628
100
AcDbArc
 50
283.335578
 51
313.128065
  0
LINE
  5
1F9
330
25
100
AcDbEntity
  8
2
100
AcDbLine
 10
-227.245159
 20
33.77393
 30
0.0
 11
-49.631646
 21
71.526848
 31
0.0
  0
CIRCLE
  5
1FA
330
25
100
AcDbEntity
  8
2
100
AcDbCircle
 10
-152.841921
 20
36.458736
 30
0.0
 40
2.0
  0
ARC
  5
1FB
330
25
100
AcDbEntity
  8
2
100
AcDbCircle
 10
-152.841921
 20
36.458736
 30
0.0
 40
5.0
100
AcDbArc
 50
0.0
 51
180.0
  0
LINE
  5
1FC
330
25
100
AcDbEntity
  8
2
100
AcDbLine
 10
-147.841921
 20
36.458736
 30
0.0
 11
-147.841921
 21
27.458736
 31
0.0
  0
LINE
  5
1FD
330
25
100
AcDbEntity
  8
2
100
AcDbLine
 10
-157.841921
 20
36.458736
 30
0.0
 11
-157.841921
 21
27.458736
 31
0.0
  0
LINE
  5
1FE
330
25
100
AcDbEntity
  8
2
100
AcDbLine
 10
-231.841921
 20
17.458736
 30
0.0
 11
-190.528324
 21
26.240212
 31
0.0
  0
ARC
  5
1FF
330
25
100
AcDbEntity
  8
2
100
AcDbCircle
 10
-224.841921
 20
37.351776
 30
0.0
 40
3.0
100
AcDbArc
 50
180.0
 51
282.0
  0
LINE
  5
200
330
25
100
AcDbEntity
  8
2
100
AcDbLine
 10
-141.9129889999999
 20
29.387668
 30
0.0
 11
-139.225829
 21
32.07482800000001
 31
0.0
  0
ARC
  5
201
330
25
100
AcDbEntity
  8
2
100
AcDbCircle
 10
-156.841921
 20
27.458736
 30
0.0
 40
1.0
100
AcDbArc
 50
180.0
 51
270.0
  0
ARC
  5
202
330
25
100
AcDbEntity
  8
2
100
AcDbCircle
 10
-148.8419209999999
 20
27.458736
 30
0.0
 40
1.0
100
AcDbArc
 50
270.0
 51
360.0
  0
LINE
  5
203
330
25
100
AcDbEntity
  8
2
100
AcDbLine
 10
-188.449207
 20
26.458736
 30
0.0
 11
-148.984056
 21
26.458736
 31
0.0
  0
ARC
  5
204
330
25
100
AcDbEntity
  8
2
100
AcDbCircle
 10
-148.984056
 20
36.458736
 30
0.0
 40
10.0
100
AcDbArc
 50
270.0
 51
315.0
  0
ARC
  5
205
330
25
100
AcDbEntity
  8
2
100
AcDbCircle
 10
-188.449207
 20
16.458736
 30
0.0
 40
10.0
100
AcDbArc
 50
90.0
 51
102.0
  0
CIRCLE
  5
206
330
25
100
AcDbEntity
  8
2
100
AcDbCircle
 10
-242.841921
 20
22.958736
 30
0.0
 40
5.0
  0
CIRCLE
  5
207
330
25
100
AcDbEntity
  8
2
100
AcDbCircle
 10
-242.841921
 20
22.958736
 30
0.0
 40
3.0
  0
CIRCLE
  5
208
330
25
100
AcDbEntity
  8
2
100
AcDbCircle
 10
-242.841921
 20
22.958736
 30
0.0
 40
2.5
  0
LINE
  5
209
330
25
100
AcDbEntity
  8
2
100
AcDbLine
 10
-248.615423
 20
22.958736
 30
0.0
 11
-245.728672
 21
17.958736
 31
0.0
  0
LINE
  5
20A
330
25
100
AcDbEntity
  8
2
100
AcDbLine
 10
-245.728672
 20
17.958736
 30
0.0
 11
-239.955169
 21
17.958736
 31
0.0
  0
LINE
  5
20B
330
25
100
AcDbEntity
  8
2
100
AcDbLine
 10
-239.955169
 20
17.958736
 30
0.0
 11
-237.068418
 21
22.958736
 31
0.0
  0
LINE
  5
20C
330
25
100
AcDbEntity
  8
2
100
AcDbLine
 10
-237.068418
 20
22.958736
 30
0.0
 11
-239.955169
 21
27.958736
 31
0.0
  0
LINE
  5
20D
330
25
100
AcDbEntity
  8
2
100
AcDbLine
 10
-239.955169
 20
27.958736
 30
0.0
 11
-245.728672
 21
27.958736
 31
0.0
  0
LINE
  5
20E
330
25
100
AcDbEntity
  8
2
100
AcDbLine
 10
-245.728672
 20
27.958736
 30
0.0
 11
-248.615423
 21
22.958736
 31
0.0
  0
LINE
  5
20F
330
25
100
AcDbEntity
  8
2
  6
CENTER
 62
     2
100
AcDbLine
 10
-142.9193
 20
36.458736
 30
0.0
 11
-163.126574
 21
36.458736
 31
0.0
  0
LINE
  5
210
330
25
100
AcDbEntity
  8
2
  6
CENTER
 62
     2
100
AcDbLine
 10
-152.841921
 20
46.85022599999999
 30
0.0
 11
-152.841921
 21
25.466341
 31
0.0
  0
LINE
  5
211
330
25
100
AcDbEntity
  8
2
100
AcDbLine
 10
-234.07269
 20
27.651616
 30
0.0
 11
-234.07269
 21
17.458736
 31
0.0
  0
ARC
  5
212
330
25
100
AcDbEntity
  8
2
100
AcDbCircle
 10
-229.07269
 20
27.651616
 30
0.0
 40
5.0
100
AcDbArc
 50
124.714037
 51
180.0
  0
ARC
  5
213
330
25
100
AcDbEntity
  8
2
100
AcDbCircle
 10
-224.542307
 20
21.058011
 30
0.0
 40
13.0
100
AcDbArc
 50
102.0
 51
124.492462
  0
LINE
  5
214
330
25
100
AcDbEntity
  8
2
100
AcDbLine
 10
-260.918691
 20
25.944406
 30
0.0
 11
-277.216502
 21
22.08108
 31
0.0
  0
LINE
  5
215
330
25
100
AcDbEntity
  8
2
  6
CENTER
 62
     2
100
AcDbLine
 10
-251.585011
 20
22.958736
 30
0.0
 11
-233.793258
 21
22.958736
 31
0.0
  0
CIRCLE
  5
216
330
25
100
AcDbEntity
  8
2
100
AcDbCircle
 10
-152.841921
 20
36.458736
 30
0.0
 40
1.5
  0
ARC
  5
217
330
25
100
AcDbEntity
  8
2
100
AcDbCircle
 10
-187.615669
 20
1.458736
 30
0.0
 40
1.0
100
AcDbArc
 50
180.0
 51
270.0
  0
LINE
  5
218
330
25
100
AcDbEntity
  8
2
100
AcDbLine
 10
-187.615669
 20
0.458736
 30
0.0
 11
-181.841921
 21
0.458736
 31
0.0
  0
LINE
  5
219
330
25
100
AcDbEntity
  8
2
100
AcDbLine
 10
-178.306387
 20
1.923202
 30
0.0
 11
-174.770853
 21
5.458736
 31
0.0
  0
LINE
  5
21A
330
25
100
AcDbEntity
  8
2
100
AcDbLine
 10
-188.615669
 20
12.458736
 30
0.0
 11
-176.306387
 21
24.768018
 31
0.0
  0
ARC
  5
21B
330
25
100
AcDbEntity
  8
2
100
AcDbCircle
 10
-141.002789
 20
-3.199606999999999
 30
0.0
 40
30.0
100
AcDbArc
 50
80.0
 51
135.0
  0
LINE
  5
21C
330
25
100
AcDbEntity
  8
2
100
AcDbLine
 10
-188.615669
 20
12.458736
 30
0.0
 11
-188.615669
 21
7.458736
 31
0.0
  0
LINE
  5
21D
330
25
100
AcDbEntity
  8
2
100
AcDbLine
 10
-179.770853
 20
21.303552
 30
0.0
 11
-179.770853
 21
7.458736
 31
0.0
  0
ARC
  5
21E
330
25
100
AcDbEntity
  8
2
100
AcDbCircle
 10
-181.841921
 20
5.458736
 30
0.0
 40
5.0
100
AcDbArc
 50
270.0
 51
315.0
  0
LINE
  5
21F
330
25
100
AcDbEntity
  8
2
100
AcDbLine
 10
-174.8419209999999
 20
26.458736
 30
0.0
 11
-174.8419209999999
 21
7.458736
 31
0.0
  0
ARC
  5
220
330
25
100
AcDbEntity
  8
2
100
AcDbCircle
 10
-179.841921
 20
28.30355200000001
 30
0.0
 40
5.0
100
AcDbArc
 50
315.0
 51
338.348311
  0
LINE
  5
221
330
25
100
AcDbEntity
  8
2
100
AcDbLine
 10
-175.741921
 20
4.487668
 30
0.0
 11
-175.741921
 21
5.458736
 31
0.0
  0
LINE
  5
222
330
25
100
AcDbEntity
  8
2
100
AcDbLine
 10
-188.615669
 20
5.458736
 30
0.0
 11
-188.615669
 21
1.458736
 31
0.0
  0
LINE
  5
223
330
25
100
AcDbEntity
  8
2
100
AcDbLine
 10
-179.770853
 20
5.458736
 30
0.0
 11
-179.770853
 21
0.9078370000000001
 31
0.0
  0
LINE
  5
224
330
25
100
AcDbEntity
  8
2
100
AcDbLine
 10
-174.8419209999999
 20
5.458736
 30
0.0
 11
-174.8419209999999
 21
5.387667999999999
 31
0.0
  0
LINE
  5
225
330
25
100
AcDbEntity
  8
2
100
AcDbLine
 10
-172.770853
 20
7.458736
 30
0.0
 11
-162.215992
 21
18.013596
 31
0.0
  0
LINE
  5
226
330
25
100
AcDbEntity
  8
2
100
AcDbLine
 10
-167.841921
 20
7.458736
 30
0.0
 11
-167.841921
 21
5.458736
 31
0.0
  0
LINE
  5
227
330
25
100
AcDbEntity
  8
2
100
AcDbLine
 10
-167.841921
 20
7.458736
 30
0.0
 11
-292.841921
 21
7.458736
 31
0.0
  0
LINE
  5
228
330
25
100
AcDbEntity
  8
2
100
AcDbLine
 10
-292.841921
 20
5.458736
 30
0.0
 11
-167.841921
 21
5.458736
 31
0.0
  0
LINE
  5
229
330
25
100
AcDbEntity
  8
2
100
AcDbLine
 10
-203.430572
 20
7.458736
 30
0.0
 11
-203.430572
 21
5.458736
 31
0.0
  0
POINT
  5
22A
330
25
100
AcDbEntity
  8
2
100
AcDbPoint
 10
-218.093183
 20
7.458736
 30
0.0
  0
LINE
  5
22B
330
25
100
AcDbEntity
  8
2
100
AcDbLine
 10
-218.093183
 20
7.458736
 30
0.0
 11
-225.593183
 21
7.458736
 31
0.0
  0
LINE
  5
22C
330
25
100
AcDbEntity
  8
2
100
AcDbLine
 10
-225.593183
 20
7.458736
 30
0.0
 11
-225.593183
 21
12.237048
 31
0.0
  0
LINE
  5
22D
330
25
100
AcDbEntity
  8
2
100
AcDbLine
 10
-225.593183
 20
12.237048
 30
0.0
 11
-224.343183
 21
12.958736
 31
0.0
  0
LINE
  5
22E
330
25
100
AcDbEntity
  8
2
100
AcDbLine
 10
-224.343183
 20
12.958736
 30
0.0
 11
-218.093183
 21
12.958736
 31
0.0
  0
LINE
  5
22F
330
25
100
AcDbEntity
  8
2
100
AcDbLine
 10
-221.843183
 20
7.458736
 30
0.0
 11
-221.843183
 21
12.237048
 31
0.0
  0
ARC
  5
230
330
25
100
AcDbEntity
  8
2
100
AcDbCircle
 10
-223.718183
 20
9.826672
 30
0.0
 40
3.053774
100
AcDbArc
 50
52.121121
 51
127.878879
  0
ARC
  5
231
330
25
100
AcDbEntity
  8
2
100
AcDbCircle
 10
-218.093183
 20
1.630445999999999
 30
0.0
 40
11.25
100
AcDbArc
 50
90.0
 51
109.471221
  0
LINE
  5
232
330
25
100
AcDbEntity
  8
2
100
AcDbLine
 10
-218.093183
 20
-17.541264
 30
0.0
 11
-221.416683
 21
-17.541264
 31
0.0
  0
LINE
  5
233
330
25
100
AcDbEntity
  8
2
100
AcDbLine
 10
-221.416683
 20
-17.541264
 30
0.0
 11
-222.093183
 21
-16.864764
 31
0.0
  0
LINE
  5
234
330
25
100
AcDbEntity
  8
2
100
AcDbLine
 10
-222.093183
 20
-16.864764
 30
0.0
 11
-222.093183
 21
-15.041264
 31
0.0
  0
LINE
  5
235
330
25
100
AcDbEntity
  8
2
100
AcDbLine
 10
-222.093183
 20
-16.864764
 30
0.0
 11
-218.093183
 21
-16.864764
 31
0.0
  0
LINE
  5
236
330
25
100
AcDbEntity
  8
2
 62
     2
100
AcDbLine
 10
-221.416683
 20
-17.541264
 30
0.0
 11
-221.416683
 21
-15.041264
 31
0.0
  0
LINE
  5
237
330
25
100
AcDbEntity
  8
2
100
AcDbLine
 10
-218.093183
 20
7.458736
 30
0.0
 11
-210.593183
 21
7.458736
 31
0.0
  0
LINE
  5
238
330
25
100
AcDbEntity
  8
2
100
AcDbLine
 10
-210.593183
 20
7.458736
 30
0.0
 11
-210.593183
 21
12.237048
 31
0.0
  0
LINE
  5
239
330
25
100
AcDbEntity
  8
2
100
AcDbLine
 10
-210.593183
 20
12.237048
 30
0.0
 11
-211.843183
 21
12.958736
 31
0.0
  0
LINE
  5
23A
330
25
100
AcDbEntity
  8
2
100
AcDbLine
 10
-211.843183
 20
12.958736
 30
0.0
 11
-218.093183
 21
12.958736
 31
0.0
  0
LINE
  5
23B
330
25
100
AcDbEntity
  8
2
100
AcDbLine
 10
-214.343183
 20
7.458736
 30
0.0
 11
-214.343183
 21
12.237048
 31
0.0
  0
ARC
  5
23C
330
25
100
AcDbEntity
  8
2
100
AcDbCircle
 10
-212.468183
 20
9.826672
 30
0.0
 40
3.053774
100
AcDbArc
 50
52.121121
 51
127.878879
  0
ARC
  5
23D
330
25
100
AcDbEntity
  8
2
100
AcDbCircle
 10
-218.093183
 20
1.630445999999999
 30
0.0
 40
11.25
100
AcDbArc
 50
70.528779
 51
90.0
  0
LINE
  5
23E
330
25
100
AcDbEntity
  8
2
100
AcDbLine
 10
-218.093183
 20
-17.541264
 30
0.0
 11
-214.769683
 21
-17.541264
 31
0.0
  0
LINE
  5
23F
330
25
100
AcDbEntity
  8
2
100
AcDbLine
 10
-214.769683
 20
-17.541264
 30
0.0
 11
-214.093183
 21
-16.864764
 31
0.0
  0
LINE
  5
240
330
25
100
AcDbEntity
  8
2
100
AcDbLine
 10
-214.093183
 20
-16.864764
 30
0.0
 11
-214.093183
 21
-15.041264
 31
0.0
  0
LINE
  5
241
330
25
100
AcDbEntity
  8
2
100
AcDbLine
 10
-214.093183
 20
-16.864764
 30
0.0
 11
-218.093183
 21
-16.864764
 31
0.0
  0
LINE
  5
242
330
25
100
AcDbEntity
  8
2
 62
     2
100
AcDbLine
 10
-214.769683
 20
-17.541264
 30
0.0
 11
-214.769683
 21
-15.041264
 31
0.0
  0
POINT
  5
243
330
25
100
AcDbEntity
  8
2
100
AcDbPoint
 10
-218.093183
 20
-6.541263999999999
 30
0.0
  0
LINE
  5
244
330
25
100
AcDbEntity
  8
2
100
AcDbLine
 10
-218.093183
 20
-8.541263999999999
 30
0.0
 11
-210.593183
 21
-8.541263999999999
 31
0.0
  0
LINE
  5
245
330
25
100
AcDbEntity
  8
2
100
AcDbLine
 10
-210.593183
 20
-8.541263999999999
 30
0.0
 11
-210.593183
 21
-14.319576
 31
0.0
  0
LINE
  5
246
330
25
100
AcDbEntity
  8
2
100
AcDbLine
 10
-210.593183
 20
-14.319576
 30
0.0
 11
-211.843183
 21
-15.041264
 31
0.0
  0
LINE
  5
247
330
25
100
AcDbEntity
  8
2
100
AcDbLine
 10
-211.843183
 20
-15.041264
 30
0.0
 11
-218.093183
 21
-15.041264
 31
0.0
  0
LINE
  5
248
330
25
100
AcDbEntity
  8
2
100
AcDbLine
 10
-214.343183
 20
-8.541263999999999
 30
0.0
 11
-214.343183
 21
-14.319576
 31
0.0
  0
ARC
  5
249
330
25
100
AcDbEntity
  8
2
100
AcDbCircle
 10
-212.468183
 20
-11.9092
 30
0.0
 40
3.053774
100
AcDbArc
 50
232.121121
 51
307.878879
  0
ARC
  5
24A
330
25
100
AcDbEntity
  8
2
100
AcDbCircle
 10
-218.093183
 20
-3.712975
 30
0.0
 40
11.25
100
AcDbArc
 50
270.0
 51
289.471221
  0
LINE
  5
24B
330
25
100
AcDbEntity
  8
2
100
AcDbLine
 10
-218.093183
 20
-8.541263999999999
 30
0.0
 11
-225.593183
 21
-8.541263999999999
 31
0.0
  0
LINE
  5
24C
330
25
100
AcDbEntity
  8
2
100
AcDbLine
 10
-225.593183
 20
-8.541263999999999
 30
0.0
 11
-225.593183
 21
-14.319576
 31
0.0
  0
LINE
  5
24D
330
25
100
AcDbEntity
  8
2
100
AcDbLine
 10
-225.593183
 20
-14.319576
 30
0.0
 11
-224.343183
 21
-15.041264
 31
0.0
  0
LINE
  5
24E
330
25
100
AcDbEntity
  8
2
100
AcDbLine
 10
-224.343183
 20
-15.041264
 30
0.0
 11
-218.093183
 21
-15.041264
 31
0.0
  0
LINE
  5
24F
330
25
100
AcDbEntity
  8
2
100
AcDbLine
 10
-221.843183
 20
-8.541263999999999
 30
0.0
 11
-221.843183
 21
-14.319576
 31
0.0
  0
ARC
  5
250
330
25
100
AcDbEntity
  8
2
100
AcDbCircle
 10
-223.718183
 20
-11.9092
 30
0.0
 40
3.053774
100
AcDbArc
 50
232.121121
 51
307.878879
  0
ARC
  5
251
330
25
100
AcDbEntity
  8
2
100
AcDbCircle
 10
-218.093183
 20
-3.712975
 30
0.0
 40
11.25
100
AcDbArc
 50
250.528779
 51
270.0
  0
LINE
  5
252
330
25
100
AcDbEntity
  8
2
100
AcDbLine
 10
-210.393183
 20
-6.541263999999999
 30
0.0
 11
-210.393183
 21
-8.541263999999999
 31
0.0
  0
LINE
  5
253
330
25
100
AcDbEntity
  8
2
100
AcDbLine
 10
-210.393183
 20
-8.541263999999999
 30
0.0
 11
-225.793183
 21
-8.541263999999999
 31
0.0
  0
LINE
  5
254
330
25
100
AcDbEntity
  8
2
100
AcDbLine
 10
-225.793183
 20
-8.541263999999999
 30
0.0
 11
-225.793183
 21
-6.541263999999999
 31
0.0
  0
LINE
  5
255
330
25
100
AcDbEntity
  8
2
100
AcDbLine
 10
-225.793183
 20
-6.541263999999999
 30
0.0
 11
-210.393183
 21
-6.541263999999999
 31
0.0
  0
LINE
  5
256
330
25
100
AcDbEntity
  8
2
100
AcDbLine
 10
-218.093183
 20
-8.541263999999999
 30
0.0
 11
-218.593183
 21
-6.541263999999999
 31
0.0
  0
LINE
  5
257
330
25
100
AcDbEntity
  8
2
100
AcDbLine
 10
-218.093183
 20
-6.541263999999999
 30
0.0
 11
-217.593183
 21
-8.541263999999999
 31
0.0
  0
POINT
  5
258
330
25
100
AcDbEntity
  8
2
100
AcDbPoint
 10
-267.590658
 20
7.458736
 30
0.0
  0
LINE
  5
259
330
25
100
AcDbEntity
  8
2
100
AcDbLine
 10
-267.590658
 20
7.458736
 30
0.0
 11
-275.090658
 21
7.458736
 31
0.0
  0
LINE
  5
25A
330
25
100
AcDbEntity
  8
2
100
AcDbLine
 10
-275.090658
 20
7.458736
 30
0.0
 11
-275.090658
 21
12.237048
 31
0.0
  0
LINE
  5
25B
330
25
100
AcDbEntity
  8
2
100
AcDbLine
 10
-275.090658
 20
12.237048
 30
0.0
 11
-273.840658
 21
12.958736
 31
0.0
  0
LINE
  5
25C
330
25
100
AcDbEntity
  8
2
100
AcDbLine
 10
-273.840658
 20
12.958736
 30
0.0
 11
-267.590658
 21
12.958736
 31
0.0
  0
LINE
  5
25D
330
25
100
AcDbEntity
  8
2
100
AcDbLine
 10
-271.340658
 20
7.458736
 30
0.0
 11
-271.340658
 21
12.237048
 31
0.0
  0
ARC
  5
25E
330
25
100
AcDbEntity
  8
2
100
AcDbCircle
 10
-273.215658
 20
9.826672
 30
0.0
 40
3.053774
100
AcDbArc
 50
52.121121
 51
127.878879
  0
ARC
  5
25F
330
25
100
AcDbEntity
  8
2
100
AcDbCircle
 10
-267.590658
 20
1.630445999999999
 30
0.0
 40
11.25
100
AcDbArc
 50
90.0
 51
109.471221
  0
LINE
  5
260
330
25
100
AcDbEntity
  8
2
100
AcDbLine
 10
-267.590658
 20
-17.541264
 30
0.0
 11
-270.914158
 21
-17.541264
 31
0.0
  0
LINE
  5
261
330
25
100
AcDbEntity
  8
2
100
AcDbLine
 10
-270.914158
 20
-17.541264
 30
0.0
 11
-271.590658
 21
-16.864764
 31
0.0
  0
LINE
  5
262
330
25
100
AcDbEntity
  8
2
100
AcDbLine
 10
-271.590658
 20
-16.864764
 30
0.0
 11
-271.590658
 21
-15.041264
 31
0.0
  0
LINE
  5
263
330
25
100
AcDbEntity
  8
2
100
AcDbLine
 10
-271.590658
 20
-16.864764
 30
0.0
 11
-267.590658
 21
-16.864764
 31
0.0
  0
LINE
  5
264
330
25
100
AcDbEntity
  8
2
 62
     2
100
AcDbLine
 10
-270.914158
 20
-17.541264
 30
0.0
 11
-270.914158
 21
-15.041264
 31
0.0
  0
LINE
  5
265
330
25
100
AcDbEntity
  8
2
100
AcDbLine
 10
-267.590658
 20
7.458736
 30
0.0
 11
-260.090658
 21
7.458736
 31
0.0
  0
LINE
  5
266
330
25
100
AcDbEntity
  8
2
100
AcDbLine
 10
-260.090658
 20
7.458736
 30
0.0
 11
-260.090658
 21
12.237048
 31
0.0
  0
LINE
  5
267
330
25
100
AcDbEntity
  8
2
100
AcDbLine
 10
-260.090658
 20
12.237048
 30
0.0
 11
-261.340658
 21
12.958736
 31
0.0
  0
LINE
  5
268
330
25
100
AcDbEntity
  8
2
100
AcDbLine
 10
-261.340658
 20
12.958736
 30
0.0
 11
-267.590658
 21
12.958736
 31
0.0
  0
LINE
  5
269
330
25
100
AcDbEntity
  8
2
100
AcDbLine
 10
-263.840658
 20
7.458736
 30
0.0
 11
-263.840658
 21
12.237048
 31
0.0
  0
ARC
  5
26A
330
25
100
AcDbEntity
  8
2
100
AcDbCircle
 10
-261.965658
 20
9.826672
 30
0.0
 40
3.053774
100
AcDbArc
 50
52.121121
 51
127.878879
  0
ARC
  5
26B
330
25
100
AcDbEntity
  8
2
100
AcDbCircle
 10
-267.590658
 20
1.630445999999999
 30
0.0
 40
11.25
100
AcDbArc
 50
70.528779
 51
90.0
  0
LINE
  5
26C
330
25
100
AcDbEntity
  8
2
100
AcDbLine
 10
-267.590658
 20
-17.541264
 30
0.0
 11
-264.267158
 21
-17.541264
 31
0.0
  0
LINE
  5
26D
330
25
100
AcDbEntity
  8
2
100
AcDbLine
 10
-264.267158
 20
-17.541264
 30
0.0
 11
-263.590658
 21
-16.864764
 31
0.0
  0
LINE
  5
26E
330
25
100
AcDbEntity
  8
2
100
AcDbLine
 10
-263.590658
 20
-16.864764
 30
0.0
 11
-263.590658
 21
-15.041264
 31
0.0
  0
LINE
  5
26F
330
25
100
AcDbEntity
  8
2
100
AcDbLine
 10
-263.590658
 20
-16.864764
 30
0.0
 11
-267.590658
 21
-16.864764
 31
0.0
  0
LINE
  5
270
330
25
100
AcDbEntity
  8
2
 62
     2
100
AcDbLine
 10
-264.267158
 20
-17.541264
 30
0.0
 11
-264.267158
 21
-15.041264
 31
0.0
  0
POINT
  5
271
330
25
100
AcDbEntity
  8
2
100
AcDbPoint
 10
-267.590658
 20
-6.541263999999999
 30
0.0
  0
LINE
  5
272
330
25
100
AcDbEntity
  8
2
100
AcDbLine
 10
-261.4272759999999
 20
-15.041264
 30
0.0
 11
-267.590658
 21
-15.041264
 31
0.0
  0
LINE
  5
273
330
25
100
AcDbEntity
  8
2
100
AcDbLine
 10
-263.840658
 20
-11.887237
 30
0.0
 11
-263.840658
 21
-14.319576
 31
0.0
  0
ARC
  5
274
330
25
100
AcDbEntity
  8
2
100
AcDbCircle
 10
-261.965658
 20
-11.9092
 30
0.0
 40
3.053774
100
AcDbArc
 50
232.121121
 51
278.830106
  0
ARC
  5
275
330
25
100
AcDbEntity
  8
2
100
AcDbCircle
 10
-267.590658
 20
-3.712975
 30
0.0
 40
11.25
100
AcDbArc
 50
270.0
 51
289.471221
  0
LINE
  5
276
330
25
100
AcDbEntity
  8
2
100
AcDbLine
 10
-268.208724
 20
-8.541263999999999
 30
0.0
 11
-275.090658
 21
-8.541263999999999
 31
0.0
  0
LINE
  5
277
330
25
100
AcDbEntity
  8
2
100
AcDbLine
 10
-275.090658
 20
-8.541263999999999
 30
0.0
 11
-275.090658
 21
-14.319576
 31
0.0
  0
LINE
  5
278
330
25
100
AcDbEntity
  8
2
100
AcDbLine
 10
-275.090658
 20
-14.319576
 30
0.0
 11
-273.840658
 21
-15.041264
 31
0.0
  0
LINE
  5
279
330
25
100
AcDbEntity
  8
2
100
AcDbLine
 10
-273.840658
 20
-15.041264
 30
0.0
 11
-267.590658
 21
-15.041264
 31
0.0
  0
LINE
  5
27A
330
25
100
AcDbEntity
  8
2
100
AcDbLine
 10
-271.340658
 20
-8.541263999999999
 30
0.0
 11
-271.340658
 21
-14.319576
 31
0.0
  0
ARC
  5
27B
330
25
100
AcDbEntity
  8
2
100
AcDbCircle
 10
-273.215658
 20
-11.9092
 30
0.0
 40
3.053774
100
AcDbArc
 50
232.121121
 51
307.878879
  0
ARC
  5
27C
330
25
100
AcDbEntity
  8
2
100
AcDbCircle
 10
-267.590658
 20
-3.712975
 30
0.0
 40
11.25
100
AcDbArc
 50
250.528779
 51
270.0
  0
LINE
  5
27D
330
25
100
AcDbEntity
  8
2
100
AcDbLine
 10
-268.208724
 20
-8.541263999999999
 30
0.0
 11
-275.290658
 21
-8.541263999999999
 31
0.0
  0
LINE
  5
27E
330
25
100
AcDbEntity
  8
2
100
AcDbLine
 10
-275.290658
 20
-8.541263999999999
 30
0.0
 11
-275.290658
 21
-6.541263999999999
 31
0.0
  0
LINE
  5
27F
330
25
100
AcDbEntity
  8
2
100
AcDbLine
 10
-275.290658
 20
-6.541263999999999
 30
0.0
 11
-259.890658
 21
-6.541263999999999
 31
0.0
  0
ARC
  5
280
330
25
100
AcDbEntity
  8
2
100
AcDbCircle
 10
-48.59208699999999
 20
66.63611
 30
0.0
 40
5.0
100
AcDbArc
 50
12.0
 51
102.0
  0
LINE
  5
281
330
25
100
AcDbEntity
  8
2
100
AcDbLine
 10
-43.002314
 20
64.386963
 30
0.0
 11
-43.701349
 21
67.675668
 31
0.0
  0
ARC
  5
282
330
25
100
AcDbEntity
  8
2
100
AcDbCircle
 10
-43.980461
 20
64.17905199999999
 30
0.0
 40
1.0
100
AcDbArc
 50
285.0
 51
12.0
  0
LINE
  5
283
330
25
100
AcDbEntity
  8
2
100
AcDbLine
 10
-43.72164199999999
 20
63.213126
 30
0.0
 11
-121.294319
 21
42.42759
 31
0.0
  0
ARC
  5
284
330
25
100
AcDbEntity
  8
2
100
AcDbCircle
 10
-110.941558
 20
3.790557
 30
0.0
 40
40.0
100
AcDbArc
 50
105.0
 51
135.0
  0
LINE
  5
285
330
25
100
AcDbEntity
  8
2
100
AcDbLine
 10
-106.284293
 20
41.76588999999999
 30
0.0
 11
-100.449038
 21
40.994071
 31
0.0
  0
LINE
  5
286
330
25
100
AcDbEntity
  8
2
100
AcDbLine
 10
-106.404569
 20
46.41728599999999
 30
0.0
 11
-100.902839
 21
45.96637
 31
0.0
  0
LINE
  5
287
330
25
100
AcDbEntity
  8
2
100
AcDbLine
 10
-97.00817700000001
 20
47.54636
 30
0.0
 11
-106.529091
 21
43.683906
 31
0.0
  0
LINE
  5
288
330
25
100
AcDbEntity
  8
2
100
AcDbLine
 10
-96.25632799999999
 20
45.69306
 30
0.0
 11
-105.777242
 21
41.83060499999999
 31
0.0
  0
LINE
  5
289
330
25
100
AcDbEntity
  8
2
100
AcDbLine
 10
-96.327171
 20
42.36475999999999
 30
0.0
 11
-106.282526
 21
39.054199
 31
0.0
  0
LINE
  5
28A
330
25
100
AcDbEntity
  8
2
100
AcDbLine
 10
-95.69606999999999
 20
40.466943
 30
0.0
 11
-105.651424
 21
37.156382
 31
0.0
  0
LINE
  5
28B
330
25
100
AcDbEntity
  8
2
100
AcDbLine
 10
-96.256658
 20
36.720439
 30
0.0
 11
-106.476476
 21
32.774277
 31
0.0
  0
LINE
  5
28C
330
25
100
AcDbEntity
  8
2
100
AcDbLine
 10
-95.536241
 20
34.854695
 30
0.0
 11
-105.963838
 21
30.828304
 31
0.0
  0
LINE
  5
28D
330
25
100
AcDbEntity
  8
2
100
AcDbLine
 10
-106.188908
 20
37.130228
 30
0.0
 11
-104.034346
 21
36.639829
 31
0.0
  0
ARC
  5
28E
330
25
100
AcDbEntity
  8
2
100
AcDbCircle
 10
-105.966975
 20
38.10529000000001
 30
0.0
 40
1.0
100
AcDbArc
 50
108.394069
 51
288.394069
  0
ARC
  5
28F
330
25
100
AcDbEntity
  8
2
100
AcDbCircle
 10
-106.1531659999999
 20
42.757256
 30
0.0
 40
1.0
100
AcDbArc
 50
112.081463
 51
292.081463
  0
ARC
  5
290
330
25
100
AcDbEntity
  8
2
100
AcDbCircle
 10
-96.01162
 20
41.415851
 30
0.0
 40
1.0
100
AcDbArc
 50
288.394069
 51
108.394069
  0
CIRCLE
  5
291
330
25
100
AcDbEntity
  8
2
100
AcDbCircle
 10
-96.12940400000001
 20
31.50577800000001
 30
0.0
 40
1.0
  0
LINE
  5
292
330
25
100
AcDbEntity
  8
2
100
AcDbLine
 10
-97.04568000000001
 20
32.536571
 30
0.0
 11
-96.12940400000001
 21
32.505778
 31
0.0
  0
LINE
  5
293
330
25
100
AcDbEntity
  8
2
100
AcDbLine
 10
-102.270472
 20
38.280686
 30
0.0
 11
-95.67216399999999
 21
36.762091
 31
0.0
  0
LINE
  5
294
330
25
100
AcDbEntity
  8
2
100
AcDbLine
 10
-99.31637399999999
 20
35.565974
 30
0.0
 11
-99.27241600000002
 21
35.555969
 31
0.0
  0
ARC
  5
295
330
25
100
AcDbEntity
  8
2
100
AcDbCircle
 10
-95.89645
 20
35.787567
 30
0.0
 40
1.0
100
AcDbArc
 50
291.112991
 51
111.112991
  0
LINE
  5
296
330
25
100
AcDbEntity
  8
2
100
AcDbLine
 10
-100.669619
 20
47.95396199999999
 30
0.0
 11
-96.550568
 21
47.616368
 31
0.0
  0
LINE
  5
297
330
25
100
AcDbEntity
  8
2
100
AcDbLine
 10
-102.27201
 20
43.25261199999999
 30
0.0
 11
-95.880494
 21
42.40721699999999
 31
0.0
  0
ARC
  5
298
330
25
100
AcDbEntity
  8
2
100
AcDbCircle
 10
-96.632253
 20
46.61971
 30
0.0
 40
1.0
100
AcDbArc
 50
292.081463
 51
112.081463
  0
ARC
  5
299
330
25
100
AcDbEntity
  8
2
100
AcDbCircle
 10
-106.116268
 20
31.841405
 30
0.0
 40
1.0
100
AcDbArc
 50
111.105845
 51
266.001991
  0
LINE
  5
29A
330
25
100
AcDbEntity
  8
2
100
AcDbLine
 10
-96.932453
 20
30.533092
 30
0.0
 11
-96.12940400000001
 21
30.50577800000001
 31
0.0
  0
ARC
  5
29B
330
25
100
AcDbEntity
  8
2
  6
CENTER
 62
     2
100
AcDbCircle
 10
-152.841921
 20
36.458736
 30
0.0
 40
52.075925
100
AcDbArc
 50
348.756732
 51
23.167626
  0
ARC
  5
29C
330
25
100
AcDbEntity
  8
2
100
AcDbCircle
 10
-50.84392600000001
 20
23.233296
 30
0.0
 40
8.0
100
AcDbArc
 50
359.985133
 51
88.0
  0
LINE
  5
29D
330
25
100
AcDbEntity
  8
2
100
AcDbLine
 10
-135.793344
 20
26.344626
 30
0.0
 11
-112.024699
 21
22.153572
 31
0.0
  0
LINE
  5
29E
330
25
100
AcDbEntity
  8
2
100
AcDbLine
 10
-109.10896
 20
32.050674
 30
0.0
 11
-109.056185
 21
32.805398
 31
0.0
  0
LINE
  5
29F
330
25
100
AcDbEntity
  8
2
100
AcDbLine
 10
-93.147935
 20
30.934571
 30
0.0
 11
-93.09346299999999
 21
31.713559
 31
0.0
  0
LINE
  5
2A0
330
25
100
AcDbEntity
  8
2
100
AcDbLine
 10
-103.759116
 20
36.879083
 30
0.0
 11
-97.77373100000001
 21
36.460544
 31
0.0
  0
LINE
  5
2A1
330
25
100
AcDbEntity
  8
2
100
AcDbLine
 10
-105.00897
 20
33.340923
 30
0.0
 11
-104.826436
 21
35.951276
 31
0.0
  0
LINE
  5
2A2
330
25
100
AcDbEntity
  8
2
100
AcDbLine
 10
-97.13819200000001
 20
31.213597
 30
0.0
 11
-96.92097
 21
34.320012
 31
0.0
  0
LINE
  5
2A3
330
25
100
AcDbEntity
  8
2
100
AcDbLine
 10
-104.826436
 20
35.951276
 30
0.0
 11
-103.759116
 21
36.879083
 31
0.0
  0
LINE
  5
2A4
330
25
100
AcDbEntity
  8
2
100
AcDbLine
 10
-97.77373100000001
 20
36.460544
 30
0.0
 11
-97.56163199999999
 21
36.216552
 31
0.0
  0
LINE
  5
2A5
330
25
100
AcDbEntity
  8
2
100
AcDbLine
 10
-42.843926
 20
23.23122
 30
0.0
 11
-42.84449699999999
 21
21.029259
 31
0.0
  0
LINE
  5
2A6
330
25
100
AcDbEntity
  8
2
100
AcDbLine
 10
-50.56473
 20
31.228422
 30
0.0
 11
-92.024316
 21
32.676223
 31
0.0
  0
ARC
  5
2A7
330
25
100
AcDbEntity
  8
2
100
AcDbCircle
 10
-96.14062800000001
 20
31.14384
 30
0.0
 40
1.0
100
AcDbArc
 50
176.0
 51
266.0
  0
LINE
  5
2A8
330
25
100
AcDbEntity
  8
2
100
AcDbLine
 10
-108.181153
 20
30.983354
 30
0.0
 11
-94.215256
 21
30.006763
 31
0.0
  0
LINE
  5
2A9
330
25
100
AcDbEntity
  8
2
100
AcDbLine
 10
-104.826436
 20
35.951276
 30
0.0
 11
-99.257217
 21
35.561838
 31
0.0
  0
ARC
  5
2AA
330
25
100
AcDbEntity
  8
2
100
AcDbCircle
 10
-98.132844
 20
100.938192
 30
0.0
 40
80.0
100
AcDbArc
 50
260.0
 51
269.845396
  0
ARC
  5
2AB
330
25
100
AcDbEntity
  8
2
100
AcDbCircle
 10
-44.84449699999999
 20
21.029778
 30
0.0
 40
2.0
100
AcDbArc
 50
222.427004
 51
359.985133
  0
ARC
  5
2AC
330
25
100
AcDbEntity
  8
2
100
AcDbCircle
 10
-52.22587199999999
 20
14.283274
 30
0.0
 40
8.0
100
AcDbArc
 50
42.42700399999999
 51
123.6590879999999
  0
ARC
  5
2AD
330
25
100
AcDbEntity
  8
2
100
AcDbCircle
 10
-61.093875
 20
27.600876
 30
0.0
 40
8.0
100
AcDbArc
 50
232.340912
 51
303.659088
  0
ARC
  5
2AE
330
25
100
AcDbEntity
  8
2
100
AcDbCircle
 10
-70.86926600000001
 20
14.934316
 30
0.0
 40
8.0
100
AcDbArc
 50
52.340912
 51
123.6590879999999
  0
ARC
  5
2AF
330
25
100
AcDbEntity
  8
2
100
AcDbCircle
 10
-79.73727
 20
28.251918
 30
0.0
 40
8.0
100
AcDbArc
 50
232.340912
 51
303.659088
  0
ARC
  5
2B0
330
25
100
AcDbEntity
  8
2
100
AcDbCircle
 10
-89.51266
 20
15.585358
 30
0.0
 40
8.0
100
AcDbArc
 50
52.340912
 51
123.42906
  0
ARC
  5
2B1
330
25
100
AcDbEntity
  8
2
100
AcDbCircle
 10
-98.327126
 20
28.938455
 30
0.0
 40
8.0
100
AcDbArc
 50
269.845396
 51
303.42906
  0
LINE
  5
2B2
330
25
100
AcDbEntity
  8
2
100
AcDbLine
 10
-109.056185
 20
32.805398
 30
0.0
 11
-109.971236
 21
33.976611
 31
0.0
  0
LINE
  5
2B3
330
25
100
AcDbEntity
  8
2
100
AcDbLine
 10
-92.024316
 20
32.676223
 30
0.0
 11
-93.09346299999999
 21
31.713559
 31
0.0
  0
ARC
  5
2B4
330
25
100
AcDbEntity
  8
2
100
AcDbCircle
 10
-108.111396
 20
31.980918
 30
0.0
 40
1.0
100
AcDbArc
 50
176.0
 51
266.0
  0
ARC
  5
2B5
330
25
100
AcDbEntity
  8
2
100
AcDbCircle
 10
-94.1455
 20
31.00432700000001
 30
0.0
 40
1.0
100
AcDbArc
 50
266.0
 51
356.0
  0
LINE
  5
2B6
330
25
100
AcDbEntity
  8
2
100
AcDbLine
 10
-133.841921
 20
26.000537
 30
0.0
 11
-133.841921
 21
36.586492
 31
0.0
  0
LINE
  5
2B7
330
25
100
AcDbEntity
  8
2
100
AcDbLine
 10
-131.8325
 20
37.831341
 30
0.0
 11
-109.971236
 21
33.976611
 31
0.0
  0
ARC
  5
2B8
330
25
100
AcDbEntity
  8
2
100
AcDbCircle
 10
-131.311556
 20
40.785765
 30
0.0
 40
3.0
100
AcDbArc
 50
258.30264
 51
260.0
  0
LINE
  5
2B9
330
25
100
AcDbEntity
  8
2
  6
CENTER
 62
     2
100
AcDbLine
 10
-242.841921
 20
99.39296
 30
0.0
 11
-242.841921
 21
232.339766
 31
0.0
  0
LINE
  5
2BA
330
25
100
AcDbEntity
  8
2
  6
CENTER
 62
     2
100
AcDbLine
 10
-320.832001
 20
165.24296
 30
0.0
 11
-33.27095
 21
165.24296
 31
0.0
  0
ARC
  5
2BB
330
25
100
AcDbEntity
  8
2
100
AcDbCircle
 10
-277.841921
 20
165.24296
 30
0.0
 40
2.0
100
AcDbArc
 50
111.803748
 51
248.196252
  0
LINE
  5
2BC
330
25
100
AcDbEntity
  8
2
100
AcDbLine
 10
-278.584778
 20
167.099883
 30
0.0
 11
-248.413349
 21
179.169883
 31
0.0
  0
LINE
  5
2BD
330
25
100
AcDbEntity
  8
2
100
AcDbLine
 10
-278.584778
 20
163.386037
 30
0.0
 11
-250.099064
 21
151.990403
 31
0.0
  0
LINE
  5
2BE
330
25
100
AcDbEntity
  8
2
100
AcDbLine
 10
-247.841921
 20
148.24296
 30
0.0
 11
-237.841921
 21
148.24296
 31
0.0
  0
ARC
  5
2BF
330
25
100
AcDbEntity
  8
2
100
AcDbCircle
 10
-242.841921
 20
165.24296
 30
0.0
 40
15.0
100
AcDbArc
 50
298.072487
 51
241.927513
  0
LINE
  5
2C0
330
25
100
AcDbEntity
  8
2
100
AcDbLine
 10
-248.841921
 20
149.24296
 30
0.0
 11
-248.841921
 21
152.593849
 31
0.0
  0
LINE
  5
2C1
330
25
100
AcDbEntity
  8
2
100
AcDbLine
 10
-236.841921
 20
149.24296
 30
0.0
 11
-236.841921
 21
152.593849
 31
0.0
  0
ARC
  5
2C2
330
25
100
AcDbEntity
  8
2
100
AcDbCircle
 10
-247.841921
 20
149.24296
 30
0.0
 40
1.0
100
AcDbArc
 50
180.0
 51
270.0
  0
ARC
  5
2C3
330
25
100
AcDbEntity
  8
2
100
AcDbCircle
 10
-250.841921
 20
150.133479
 30
0.0
 40
2.0
100
AcDbArc
 50
0.0
 51
68.196252
  0
ARC
  5
2C4
330
25
100
AcDbEntity
  8
2
100
AcDbCircle
 10
-234.841921
 20
150.24296
 30
0.0
 40
2.0
100
AcDbArc
 50
118.072487
 51
180.0
  0
ARC
  5
2C5
330
25
100
AcDbEntity
  8
2
100
AcDbCircle
 10
-250.841921
 20
150.24296
 30
0.0
 40
2.0
100
AcDbArc
 50
0.0
 51
61.92751300000001
  0
LINE
  5
2C6
330
25
100
AcDbEntity
  8
2
100
AcDbLine
 10
-242.447184
 20
180.237765
 30
0.0
 11
-52.578763
 21
175.239497
 31
0.0
  0
ARC
  5
2C7
330
25
100
AcDbEntity
  8
2
100
AcDbCircle
 10
-148.341921
 20
151.74296
 30
0.0
 40
0.5
100
AcDbArc
 50
270.0
 51
360.0
  0
ARC
  5
2C8
330
25
100
AcDbEntity
  8
2
100
AcDbCircle
 10
-157.341921
 20
151.74296
 30
0.0
 40
0.5
100
AcDbArc
 50
167.306936
 51
270.0
  0
LINE
  5
2C9
330
25
100
AcDbEntity
  8
2
100
AcDbLine
 10
-157.341921
 20
151.24296
 30
0.0
 11
-148.341921
 21
151.24296
 31
0.0
  0
LINE
  5
2CA
330
25
100
AcDbEntity
  8
2
100
AcDbLine
 10
-147.841921
 20
151.74296
 30
0.0
 11
-147.841921
 21
152.251619
 31
0.0
  0
ARC
  5
2CB
330
25
100
AcDbEntity
  8
2
100
AcDbCircle
 10
-52.841921
 20
165.24296
 30
0.0
 40
10.0
100
AcDbArc
 50
271.507958
 51
88.492042
  0
ARC
  5
2CC
330
25
100
AcDbEntity
  8
2
100
AcDbCircle
 10
-158.317482
 20
151.962688
 30
0.0
 40
0.5
100
AcDbArc
 50
347.306936
 51
91.507958
  0
ARC
  5
2CD
330
25
100
AcDbEntity
  8
2
100
AcDbCircle
 10
-147.341921
 20
152.251619
 30
0.0
 40
0.5
100
AcDbArc
 50
91.507958
 51
180.0
  0
LINE
  5
2CE
330
25
100
AcDbEntity
  8
2
100
AcDbLine
 10
-235.002671
 20
150.444131
 30
0.0
 11
-52.578763
 21
155.246423
 31
0.0
  0
ARC
  5
2CF
330
25
100
AcDbEntity
  8
2
100
AcDbCircle
 10
-147.341921
 20
178.234301
 30
0.0
 40
0.5
100
AcDbArc
 50
180.0
 51
268.492042
  0
ARC
  5
2D0
330
25
100
AcDbEntity
  8
2
100
AcDbCircle
 10
-158.317482
 20
178.523232
 30
0.0
 40
0.5
100
AcDbArc
 50
268.492042
 51
12.693064
  0
LINE
  5
2D1
330
25
100
AcDbEntity
  8
2
100
AcDbLine
 10
-147.841921
 20
178.74296
 30
0.0
 11
-147.841921
 21
178.234301
 31
0.0
  0
LINE
  5
2D2
330
25
100
AcDbEntity
  8
2
100
AcDbLine
 10
-157.341921
 20
179.24296
 30
0.0
 11
-148.341921
 21
179.24296
 31
0.0
  0
ARC
  5
2D3
330
25
100
AcDbEntity
  8
2
100
AcDbCircle
 10
-157.341921
 20
178.74296
 30
0.0
 40
0.5
100
AcDbArc
 50
90.0
 51
192.693064
  0
ARC
  5
2D4
330
25
100
AcDbEntity
  8
2
100
AcDbCircle
 10
-148.341921
 20
178.74296
 30
0.0
 40
0.5
100
AcDbArc
 50
0.0
 51
90.0
  0
ARC
  5
2D5
330
25
100
AcDbEntity
  8
2
100
AcDbCircle
 10
-234.950039
 20
148.444824
 30
0.0
 40
2.0
100
AcDbArc
 50
91.507958
 51
164.570915
  0
ARC
  5
2D6
330
25
100
AcDbEntity
  8
2
100
AcDbCircle
 10
-237.841921
 20
149.24296
 30
0.0
 40
1.0
100
AcDbArc
 50
270.0
 51
360.0
  0
LINE
  5
2D7
330
25
100
AcDbEntity
  8
2
  6
CENTER
 62
     2
100
AcDbLine
 10
-152.841921
 20
182.834987
 30
0.0
 11
-152.841921
 21
147.511774
 31
0.0
  0
LINE
  5
2D8
330
25
100
AcDbEntity
  8
2
100
AcDbLine
 10
-240.344864
 20
170.876671
 30
0.0
 11
-236.655577
 21
170.876671
 31
0.0
  0
LINE
  5
2D9
330
25
100
AcDbEntity
  8
2
100
AcDbLine
 10
-236.60879
 20
170.678477
 30
0.0
 11
-240.227896
 21
168.868924
 31
0.0
  0
CIRCLE
  5
2DA
330
25
100
AcDbEntity
  8
2
100
AcDbCircle
 10
-242.841921
 20
165.24296
 30
0.0
 40
14.0
  0
LINE
  5
2DB
330
25
100
AcDbEntity
  8
2
100
AcDbLine
 10
-240.95049
 20
168.481472
 30
0.0
 11
-244.569597
 21
166.671919
 31
0.0
  0
LINE
  5
2DC
330
25
100
AcDbEntity
  8
2
100
AcDbLine
 10
-244.948113
 20
166.905855
 30
0.0
 11
-244.948113
 21
168.418118
 31
0.0
  0
LINE
  5
2DD
330
25
100
AcDbEntity
  8
2
100
AcDbLine
 10
-245.29219
 20
168.481472
 30
0.0
 11
-248.992523
 21
166.631306
 31
0.0
  0
LINE
  5
2DE
330
25
100
AcDbEntity
  8
2
100
AcDbLine
 10
-249.289813
 20
164.70885
 30
0.0
 11
-249.289813
 21
170.615123
 31
0.0
  0
LINE
  5
2DF
330
25
100
AcDbEntity
  8
2
100
AcDbLine
 10
-245.29219
 20
166.284467
 30
0.0
 11
-248.911297
 21
164.474914
 31
0.0
  0
LINE
  5
2E0
330
25
100
AcDbEntity
  8
2
100
AcDbLine
 10
-248.957432
 20
166.482661
 30
0.0
 11
-245.338977
 21
166.482661
 31
0.0
  0
ARC
  5
2E1
330
25
100
AcDbEntity
  8
2
100
AcDbCircle
 10
-249.028265
 20
164.70885
 30
0.0
 40
0.261548
100
AcDbArc
 50
180.0
 51
296.565051
  0
ARC
  5
2E2
330
25
100
AcDbEntity
  8
2
100
AcDbCircle
 10
-248.957432
 20
166.561125
 30
0.0
 40
0.078464
100
AcDbArc
 50
116.565051
 51
270.0
  0
LINE
  5
2E3
330
25
100
AcDbEntity
  8
2
100
AcDbLine
 10
-244.791184
 20
158.139273
 30
0.0
 11
-241.057774
 21
158.139273
 31
0.0
  0
LINE
  5
2E4
330
25
100
AcDbEntity
  8
2
100
AcDbLine
 10
-244.791184
 20
166.482661
 30
0.0
 11
-241.057774
 21
166.482661
 31
0.0
  0
LINE
  5
2E5
330
25
100
AcDbEntity
  8
2
100
AcDbLine
 10
-244.948113
 20
166.325732
 30
0.0
 11
-244.948113
 21
158.296202
 31
0.0
  0
ARC
  5
2E6
330
25
100
AcDbEntity
  8
2
100
AcDbCircle
 10
-244.791184
 20
158.296202
 30
0.0
 40
0.156929
100
AcDbArc
 50
180.0
 51
270.0
  0
ARC
  5
2E7
330
25
100
AcDbEntity
  8
2
100
AcDbCircle
 10
-244.686564
 20
166.905855
 30
0.0
 40
0.261548
100
AcDbArc
 50
180.0
 51
296.565051
  0
ARC
  5
2E8
330
25
100
AcDbEntity
  8
2
100
AcDbCircle
 10
-244.791184
 20
166.325732
 30
0.0
 40
0.156929
100
AcDbArc
 50
90.0
 51
180.0
  0
ARC
  5
2E9
330
25
100
AcDbEntity
  8
2
100
AcDbCircle
 10
-245.338977
 20
166.378042
 30
0.0
 40
0.104619
100
AcDbArc
 50
296.565051
 51
90.0
  0
LINE
  5
2EA
330
25
100
AcDbEntity
  8
2
100
AcDbLine
 10
-240.900845
 20
158.296202
 30
0.0
 11
-240.900845
 21
166.325732
 31
0.0
  0
ARC
  5
2EB
330
25
100
AcDbEntity
  8
2
100
AcDbCircle
 10
-241.057774
 20
158.296202
 30
0.0
 40
0.156929
100
AcDbArc
 50
270.0
 51
360.0
  0
ARC
  5
2EC
330
25
100
AcDbEntity
  8
2
100
AcDbCircle
 10
-241.057774
 20
166.325732
 30
0.0
 40
0.156929
100
AcDbArc
 50
0.0
 51
90.0
  0
LINE
  5
2ED
330
25
100
AcDbEntity
  8
2
100
AcDbLine
 10
-249.028265
 20
170.876671
 30
0.0
 11
-245.338977
 21
170.876671
 31
0.0
  0
LINE
  5
2EE
330
25
100
AcDbEntity
  8
2
100
AcDbLine
 10
-248.957432
 20
168.679666
 30
0.0
 11
-245.338977
 21
168.679666
 31
0.0
  0
LINE
  5
2EF
330
25
100
AcDbEntity
  8
2
100
AcDbLine
 10
-245.29219
 20
170.678477
 30
0.0
 11
-248.992523
 21
168.828311
 31
0.0
  0
ARC
  5
2F0
330
25
100
AcDbEntity
  8
2
100
AcDbCircle
 10
-249.028265
 20
170.615123
 30
0.0
 40
0.261548
100
AcDbArc
 50
90.0
 51
180.0
  0
ARC
  5
2F1
330
25
100
AcDbEntity
  8
2
100
AcDbCircle
 10
-248.957432
 20
168.75813
 30
0.0
 40
0.078464
100
AcDbArc
 50
116.565051
 51
270.0
  0
LINE
  5
2F2
330
25
100
AcDbEntity
  8
2
100
AcDbLine
 10
-244.686564
 20
170.876671
 30
0.0
 11
-240.997277
 21
170.876671
 31
0.0
  0
LINE
  5
2F3
330
25
100
AcDbEntity
  8
2
100
AcDbLine
 10
-244.686564
 20
168.679666
 30
0.0
 11
-240.997277
 21
168.679666
 31
0.0
  0
LINE
  5
2F4
330
25
100
AcDbEntity
  8
2
100
AcDbLine
 10
-240.95049
 20
170.678477
 30
0.0
 11
-244.569597
 21
168.868924
 31
0.0
  0
ARC
  5
2F5
330
25
100
AcDbEntity
  8
2
100
AcDbCircle
 10
-244.686564
 20
170.615123
 30
0.0
 40
0.261548
100
AcDbArc
 50
90.0
 51
180.0
  0
ARC
  5
2F6
330
25
100
AcDbEntity
  8
2
100
AcDbCircle
 10
-245.338977
 20
170.772052
 30
0.0
 40
0.104619
100
AcDbArc
 50
296.565051
 51
90.0
  0
ARC
  5
2F7
330
25
100
AcDbEntity
  8
2
100
AcDbCircle
 10
-244.686564
 20
169.10286
 30
0.0
 40
0.261548
100
AcDbArc
 50
180.0
 51
296.565051
  0
ARC
  5
2F8
330
25
100
AcDbEntity
  8
2
100
AcDbCircle
 10
-244.686564
 20
168.418118
 30
0.0
 40
0.261548
100
AcDbArc
 50
90.0
 51
180.0
  0
ARC
  5
2F9
330
25
100
AcDbEntity
  8
2
100
AcDbCircle
 10
-245.338977
 20
168.575047
 30
0.0
 40
0.104619
100
AcDbArc
 50
296.565051
 51
90.0
  0
LINE
  5
2FA
330
25
100
AcDbEntity
  8
2
100
AcDbLine
 10
-244.948113
 20
169.10286
 30
0.0
 11
-244.948113
 21
170.615123
 31
0.0
  0
ARC
  5
2FB
330
25
100
AcDbEntity
  8
2
100
AcDbCircle
 10
-240.344864
 20
170.615123
 30
0.0
 40
0.261548
100
AcDbArc
 50
90.0
 51
180.0
  0
ARC
  5
2FC
330
25
100
AcDbEntity
  8
2
100
AcDbCircle
 10
-240.997277
 20
170.772052
 30
0.0
 40
0.104619
100
AcDbArc
 50
296.565051
 51
90.0
  0
ARC
  5
2FD
330
25
100
AcDbEntity
  8
2
100
AcDbCircle
 10
-240.344864
 20
169.10286
 30
0.0
 40
0.261548
100
AcDbArc
 50
180.0
 51
296.565051
  0
ARC
  5
2FE
330
25
100
AcDbEntity
  8
2
100
AcDbCircle
 10
-240.997277
 20
168.575047
 30
0.0
 40
0.104619
100
AcDbArc
 50
296.565051
 51
90.0
  0
LINE
  5
2FF
330
25
100
AcDbEntity
  8
2
100
AcDbLine
 10
-240.606412
 20
169.10286
 30
0.0
 11
-240.606412
 21
170.615123
 31
0.0
  0
ARC
  5
300
330
25
100
AcDbEntity
  8
2
100
AcDbCircle
 10
-236.655577
 20
170.772052
 30
0.0
 40
0.104619
100
AcDbArc
 50
296.565051
 51
90.0
  0
LINE
  5
301
330
25
100
AcDbEntity
  8
2
100
AcDbLine
 10
-243.303861
 20
217.358181
 30
0.0
 11
-246.386067
 21
224.799285
 31
0.0
  0
LINE
  5
302
330
25
100
AcDbEntity
  8
2
100
AcDbLine
 10
-242.379981
 20
217.358181
 30
0.0
 11
-239.297775
 21
224.799285
 31
0.0
  0
ARC
  5
303
330
25
100
AcDbEntity
  8
2
100
AcDbCircle
 10
-242.841921
 20
217.549523
 30
0.0
 40
0.5
100
AcDbArc
 50
202.5
 51
337.5
  0
ARC
  5
304
330
25
100
AcDbEntity
  8
2
100
AcDbCircle
 10
-246.848007
 20
224.607944
 30
0.0
 40
0.5
100
AcDbArc
 50
22.5
 51
93.86059799999999
  0
ARC
  5
305
330
25
100
AcDbEntity
  8
2
100
AcDbCircle
 10
-238.835835
 20
224.607944
 30
0.0
 40
0.5
100
AcDbArc
 50
86.139402
 51
157.5
  0
ARC
  5
306
330
25
100
AcDbEntity
  8
2
100
AcDbCircle
 10
-228.588075
 20
223.010407
 30
0.0
 40
0.5
100
AcDbArc
 50
76.139402
 51
147.5
  0
ARC
  5
307
330
25
100
AcDbEntity
  8
2
100
AcDbCircle
 10
-236.478524
 20
224.401706
 30
0.0
 40
0.5
100
AcDbArc
 50
12.5
 51
83.86059799999999
  0
ARC
  5
308
330
25
100
AcDbEntity
  8
2
100
AcDbCircle
 10
-233.758981
 20
216.754869
 30
0.0
 40
0.5
100
AcDbArc
 50
192.5
 51
327.5
  0
LINE
  5
309
330
25
100
AcDbEntity
  8
2
100
AcDbLine
 10
-233.337286
 20
216.486219
 30
0.0
 11
-229.009771
 21
223.279056
 31
0.0
  0
LINE
  5
30A
330
25
100
AcDbEntity
  8
2
100
AcDbLine
 10
-234.247129
 20
216.646649
 30
0.0
 11
-235.990376
 21
224.509925
 31
0.0
  0
ARC
  5
30B
330
25
100
AcDbEntity
  8
2
100
AcDbCircle
 10
-218.773411
 20
219.657635
 30
0.0
 40
0.5
100
AcDbArc
 50
66.139402
 51
137.5
  0
ARC
  5
30C
330
25
100
AcDbEntity
  8
2
100
AcDbCircle
 10
-226.30239
 20
222.397959
 30
0.0
 40
0.5
100
AcDbArc
 50
2.5
 51
73.86059799999999
  0
ARC
  5
30D
330
25
100
AcDbEntity
  8
2
100
AcDbCircle
 10
-224.952023
 20
214.395051
 30
0.0
 40
0.5
100
AcDbArc
 50
182.5
 51
317.5
  0
LINE
  5
30E
330
25
100
AcDbEntity
  8
2
100
AcDbLine
 10
-224.583384
 20
214.057256
 30
0.0
 11
-219.14205
 21
219.99543
 31
0.0
  0
LINE
  5
30F
330
25
100
AcDbEntity
  8
2
100
AcDbLine
 10
-225.451547
 20
214.373242
 30
0.0
 11
-225.802866
 21
222.419769
 31
0.0
  0
ARC
  5
310
330
25
100
AcDbEntity
  8
2
100
AcDbCircle
 10
-209.690057
 20
214.651501
 30
0.0
 40
0.5
100
AcDbArc
 50
56.139402
 51
127.5
  0
ARC
  5
311
330
25
100
AcDbEntity
  8
2
100
AcDbCircle
 10
-216.628801
 20
218.657587
 30
0.0
 40
0.5
100
AcDbArc
 50
352.5
 51
63.86059799999999
  0
ARC
  5
312
330
25
100
AcDbEntity
  8
2
100
AcDbCircle
 10
-216.688639
 20
210.541772
 30
0.0
 40
0.5
100
AcDbArc
 50
172.5
 51
307.5
  0
LINE
  5
313
330
25
100
AcDbEntity
  8
2
100
AcDbLine
 10
-216.384259
 20
210.145096
 30
0.0
 11
-209.994438
 21
215.048178
 31
0.0
  0
LINE
  5
314
330
25
100
AcDbEntity
  8
2
100
AcDbLine
 10
-217.184362
 20
210.607035
 30
0.0
 11
-216.133079
 21
218.592324
 31
0.0
  0
ARC
  5
315
330
25
100
AcDbEntity
  8
2
100
AcDbCircle
 10
-201.614005
 20
208.144114
 30
0.0
 40
0.5
100
AcDbArc
 50
46.139402
 51
117.5
  0
ARC
  5
316
330
25
100
AcDbEntity
  8
2
100
AcDbCircle
 10
-207.751685
 20
213.294238
 30
0.0
 40
0.5
100
AcDbArc
 50
342.5
 51
53.86059799999999
  0
ARC
  5
317
330
25
100
AcDbEntity
  8
2
100
AcDbCircle
 10
-209.21991
 20
205.312112
 30
0.0
 40
0.5
100
AcDbArc
 50
162.5
 51
297.5
  0
LINE
  5
318
330
25
100
AcDbEntity
  8
2
100
AcDbLine
 10
-208.989036
 20
204.868606
 30
0.0
 11
-201.844879
 21
208.587619
 31
0.0
  0
LINE
  5
319
330
25
100
AcDbEntity
  8
2
100
AcDbLine
 10
-209.696769
 20
205.462465
 30
0.0
 11
-207.274826
 21
213.143885
 31
0.0
  0
ARC
  5
31A
330
25
100
AcDbEntity
  8
2
100
AcDbCircle
 10
-194.790643
 20
200.333196
 30
0.0
 40
0.5
100
AcDbArc
 50
36.139402
 51
107.5
  0
ARC
  5
31B
330
25
100
AcDbEntity
  8
2
100
AcDbCircle
 10
-199.940767
 20
206.470876
 30
0.0
 40
0.5
100
AcDbArc
 50
332.5
 51
43.86059799999999
  0
ARC
  5
31C
330
25
100
AcDbEntity
  8
2
100
AcDbCircle
 10
-202.772769
 20
198.864971
 30
0.0
 40
0.5
100
AcDbArc
 50
152.5
 51
287.5
  0
LINE
  5
31D
330
25
100
AcDbEntity
  8
2
100
AcDbLine
 10
-202.622416
 20
198.388112
 30
0.0
 11
-194.940996
 21
200.810055
 31
0.0
  0
LINE
  5
31E
330
25
100
AcDbEntity
  8
2
100
AcDbLine
 10
-203.216274
 20
199.095845
 30
0.0
 11
-199.497262
 21
206.240001
 31
0.0
  0
ARC
  5
31F
330
25
100
AcDbEntity
  8
2
100
AcDbCircle
 10
-189.427294
 20
191.45608
 30
0.0
 40
0.5
100
AcDbArc
 50
26.139402
 51
97.5
  0
ARC
  5
320
330
25
100
AcDbEntity
  8
2
100
AcDbCircle
 10
-193.43338
 20
198.394824
 30
0.0
 40
0.5
100
AcDbArc
 50
322.5
 51
33.860598
  0
ARC
  5
321
330
25
100
AcDbEntity
  8
2
100
AcDbCircle
 10
-197.543108
 20
191.396241
 30
0.0
 40
0.5
100
AcDbArc
 50
142.5
 51
277.5
  0
LINE
  5
322
330
25
100
AcDbEntity
  8
2
100
AcDbLine
 10
-197.477845
 20
190.900519
 30
0.0
 11
-189.492557
 21
191.951802
 31
0.0
  0
LINE
  5
323
330
25
100
AcDbEntity
  8
2
100
AcDbLine
 10
-197.939785
 20
191.700622
 30
0.0
 11
-193.036703
 21
198.090443
 31
0.0
  0
ARC
  5
324
330
25
100
AcDbEntity
  8
2
100
AcDbCircle
 10
-185.686922
 20
181.782491
 30
0.0
 40
0.5
100
AcDbArc
 50
16.139402
 51
87.5
  0
ARC
  5
325
330
25
100
AcDbEntity
  8
2
100
AcDbCircle
 10
-188.427246
 20
189.311469
 30
0.0
 40
0.5
100
AcDbArc
 50
312.5
 51
23.860598
  0
ARC
  5
326
330
25
100
AcDbEntity
  8
2
100
AcDbCircle
 10
-193.68983
 20
183.132858
 30
0.0
 40
0.5
100
AcDbArc
 50
132.5
 51
267.5
  0
LINE
  5
327
330
25
100
AcDbEntity
  8
2
100
AcDbLine
 10
-193.711639
 20
182.633334
 30
0.0
 11
-185.665112
 21
182.282015
 31
0.0
  0
LINE
  5
328
330
25
100
AcDbEntity
  8
2
100
AcDbLine
 10
-194.027625
 20
183.501497
 30
0.0
 11
-188.089451
 21
188.942831
 31
0.0
  0
ARC
  5
329
330
25
100
AcDbEntity
  8
2
100
AcDbCircle
 10
-185.074474
 20
179.496806
 30
0.0
 40
0.5
100
AcDbArc
 50
302.5
 51
13.860598
  0
LINE
  5
32A
330
25
100
AcDbEntity
  8
2
100
AcDbLine
 10
-185.34057
 20
178.734439
 30
0.0
 11
-184.805824
 21
179.07511
 31
0.0
  0
ARC
  5
32B
330
25
100
AcDbEntity
  8
2
100
AcDbCircle
 10
-242.841921
 20
165.24296
 30
0.0
 40
50.0
100
AcDbArc
 50
127.979872
 51
322.020128
  0
LINE
  5
32C
330
25
100
AcDbEntity
  8
2
100
AcDbLine
 10
-191.607167
 20
140.24296
 30
0.0
 11
-177.841921
 21
140.24296
 31
0.0
  0
LINE
  5
32D
330
25
100
AcDbEntity
  8
2
100
AcDbLine
 10
-167.841921
 20
150.24296
 30
0.0
 11
-167.841921
 21
152.212131
 31
0.0
  0
ARC
  5
32E
330
25
100
AcDbEntity
  8
2
100
AcDbCircle
 10
-177.841921
 20
150.24296
 30
0.0
 40
10.0
100
AcDbArc
 50
270.0
 51
360.0
  0
ARC
  5
32F
330
25
100
AcDbEntity
  8
2
100
AcDbCircle
 10
-257.841921
 20
230.24296
 30
0.0
 40
10.0
100
AcDbArc
 50
90.0
 51
180.0
  0
ARC
  5
330
330
25
100
AcDbEntity
  8
2
100
AcDbCircle
 10
-248.841921
 20
225.947161
 30
0.0
 40
1.0
100
AcDbArc
 50
180.0
 51
275.644778
  0
ARC
  5
331
330
25
100
AcDbEntity
  8
2
100
AcDbCircle
 10
-250.841921
 20
239.24296
 30
0.0
 40
1.0
100
AcDbArc
 50
0.0
 51
90.0
  0
LINE
  5
332
330
25
100
AcDbEntity
  8
2
100
AcDbLine
 10
-249.841921
 20
239.24296
 30
0.0
 11
-249.841921
 21
225.947161
 31
0.0
  0
LINE
  5
333
330
25
100
AcDbEntity
  8
2
100
AcDbLine
 10
-257.841921
 20
240.24296
 30
0.0
 11
-250.841921
 21
240.24296
 31
0.0
  0
LINE
  5
334
330
25
100
AcDbEntity
  8
2
100
AcDbLine
 10
-267.841921
 20
216.477714
 30
0.0
 11
-267.841921
 21
230.24296
 31
0.0
  0
ARC
  5
335
330
25
100
AcDbEntity
  8
2
100
AcDbCircle
 10
-191.607167
 20
125.24296
 30
0.0
 40
15.0
100
AcDbArc
 50
90.0
 51
142.020128
  0
ARC
  5
336
330
25
100
AcDbEntity
  8
2
100
AcDbCircle
 10
-282.841921
 20
216.477714
 30
0.0
 40
15.0
100
AcDbArc
 50
307.979872
 51
360.0
  0
ARC
  5
337
330
25
100
AcDbEntity
  8
2
100
AcDbCircle
 10
-242.841921
 20
165.24296
 30
0.0
 40
60.0
100
AcDbArc
 50
13.860598
 51
16.139402
  0
ARC
  5
338
330
25
100
AcDbEntity
  8
2
100
AcDbCircle
 10
-242.841921
 20
165.24296
 30
0.0
 40
60.0
100
AcDbArc
 50
23.860598
 51
26.139402
  0
ARC
  5
339
330
25
100
AcDbEntity
  8
2
100
AcDbCircle
 10
-242.841921
 20
165.24296
 30
0.0
 40
60.0
100
AcDbArc
 50
93.86059799999999
 51
95.644778
  0
ARC
  5
33A
330
25
100
AcDbEntity
  8
2
100
AcDbCircle
 10
-242.841921
 20
165.24296
 30
0.0
 40
60.0
100
AcDbArc
 50
83.86059799999999
 51
86.139402
  0
ARC
  5
33B
330
25
100
AcDbEntity
  8
2
100
AcDbCircle
 10
-242.841921
 20
165.24296
 30
0.0
 40
60.0
100
AcDbArc
 50
73.86059799999999
 51
76.139402
  0
ARC
  5
33C
330
25
100
AcDbEntity
  8
2
100
AcDbCircle
 10
-242.841921
 20
165.24296
 30
0.0
 40
60.0
100
AcDbArc
 50
63.86059799999999
 51
66.139402
  0
ARC
  5
33D
330
25
100
AcDbEntity
  8
2
100
AcDbCircle
 10
-242.841921
 20
165.24296
 30
0.0
 40
60.0
100
AcDbArc
 50
53.86059799999999
 51
56.139402
  0
ARC
  5
33E
330
25
100
AcDbEntity
  8
2
100
AcDbCircle
 10
-242.841921
 20
165.24296
 30
0.0
 40
60.0
100
AcDbArc
 50
43.86059799999999
 51
46.139402
  0
ARC
  5
33F
330
25
100
AcDbEntity
  8
2
100
AcDbCircle
 10
-242.841921
 20
165.24296
 30
0.0
 40
60.0
100
AcDbArc
 50
33.860598
 51
36.139402
  0
LINE
  5
340
330
25
100
AcDbEntity
  8
2
100
AcDbLine
 10
-240.7206
 20
185.749057
 30
0.0
 11
-244.256134
 21
189.284591
 31
0.0
  0
LINE
  5
341
330
25
100
AcDbEntity
  8
2
100
AcDbLine
 10
-240.7206
 20
192.820124
 30
0.0
 11
-244.256134
 21
189.284591
 31
0.0
  0
LINE
  5
342
330
25
100
AcDbEntity
  8
2
100
AcDbLine
 10
-240.367047
 20
192.466571
 30
0.0
 11
-243.549028
 21
189.284591
 31
0.0
  0
LINE
  5
343
330
25
100
AcDbEntity
  8
2
100
AcDbLine
 10
-240.367047
 20
186.10261
 30
0.0
 11
-243.549028
 21
189.284591
 31
0.0
  0
LINE
  5
344
330
25
100
AcDbEntity
  8
2
100
AcDbLine
 10
-240.367047
 20
186.10261
 30
0.0
 11
-240.7206
 21
185.749057
 31
0.0
  0
LINE
  5
345
330
25
100
AcDbEntity
  8
2
100
AcDbLine
 10
-240.367047
 20
192.466571
 30
0.0
 11
-240.7206
 21
192.820124
 31
0.0
  0
LINE
  5
346
330
25
100
AcDbEntity
  8
2
100
AcDbLine
 10
-268.247018
 20
155.292718
 30
0.0
 11
-271.497977
 21
158.543677
 31
0.0
  0
LINE
  5
347
330
25
100
AcDbEntity
  8
2
100
AcDbLine
 10
-272.412309
 20
151.127427
 30
0.0
 11
-275.663268
 21
154.378386
 31
0.0
  0
LINE
  5
348
330
25
100
AcDbEntity
  8
2
100
AcDbLine
 10
-265.320294
 20
146.044705
 30
0.0
 11
-261.014131
 21
148.059831
 31
0.0
  0
LINE
  5
349
330
25
100
AcDbEntity
  8
2
100
AcDbLine
 10
-265.673211
 20
144.388328
 30
0.0
 11
-262.051171
 21
146.006866
 31
0.0
  0
LINE
  5
34A
330
25
100
AcDbEntity
  8
2
100
AcDbLine
 10
-265.320294
 20
146.044705
 30
0.0
 11
-262.297646
 21
149.343346
 31
0.0
  0
LINE
  5
34B
330
25
100
AcDbEntity
  8
2
100
AcDbLine
 10
-267.216808
 20
145.947464
 30
0.0
 11
-263.313571
 21
150.359271
 31
0.0
  0
ARC
  5
34C
330
25
100
AcDbEntity
  8
2
100
AcDbCircle
 10
-262.609604
 20
145.164917
 30
0.0
 40
10.402317
100
AcDbArc
 50
128.830069
 51
141.169931
  0
ARC
  5
34D
330
25
100
AcDbEntity
  8
2
100
AcDbCircle
 10
-273.29764
 20
155.852953
 30
0.0
 40
10.402317
100
AcDbArc
 50
308.830069
 51
321.169931
  0
LINE
  5
34E
330
25
100
AcDbEntity
  8
2
100
AcDbLine
 10
-272.412309
 20
151.127427
 30
0.0
 11
-268.247018
 21
155.292718
 31
0.0
  0
ARC
  5
34F
330
25
100
AcDbEntity
  8
2
100
AcDbCircle
 10
-268.050968
 20
151.925341
 30
0.0
 40
1.724081
100
AcDbArc
 50
51.27054199999999
 51
128.830069
  0
ARC
  5
350
330
25
100
AcDbEntity
  8
2
100
AcDbCircle
 10
-266.537216
 20
150.411589
 30
0.0
 40
1.724081
100
AcDbArc
 50
321.169931
 51
38.729458
  0
ARC
  5
351
330
25
100
AcDbEntity
  8
2
100
AcDbCircle
 10
-274.182256
 20
144.280301
 30
0.0
 40
11.524047
100
AcDbArc
 50
38.729458
 51
51.27054199999999
  0
LINE
  5
352
330
25
100
AcDbEntity
  8
2
100
AcDbLine
 10
-263.313571
 20
150.359271
 30
0.0
 11
-262.297646
 21
149.343346
 31
0.0
  0
ARC
  5
353
330
25
100
AcDbEntity
  8
2
100
AcDbCircle
 10
-269.370028
 20
150.606281
 30
0.0
 40
1.724081
100
AcDbArc
 50
141.169931
 51
218.729458
  0
ARC
  5
354
330
25
100
AcDbEntity
  8
2
100
AcDbCircle
 10
-267.856276
 20
149.092529
 30
0.0
 40
1.724081
100
AcDbArc
 50
231.270542
 51
308.830069
  0
ARC
  5
355
330
25
100
AcDbEntity
  8
2
100
AcDbCircle
 10
-261.724988
 20
156.737569
 30
0.0
 40
11.524047
100
AcDbArc
 50
218.729458
 51
231.270542
  0
LINE
  5
356
330
25
100
AcDbEntity
  8
2
100
AcDbLine
 10
-267.224577
 20
145.939695
 30
0.0
 11
-265.673211
 21
144.388328
 31
0.0
  0
LINE
  5
357
330
25
100
AcDbEntity
  8
2
100
AcDbLine
 10
-272.2091240000001
 20
153.768831
 30
0.0
 11
-272.920272
 21
153.057684
 31
0.0
  0
LINE
  5
358
330
25
100
AcDbEntity
  8
2
100
AcDbLine
 10
-270.177275
 20
155.800681
 30
0.0
 11
-271.497977
 21
154.479979
 31
0.0
  0
LINE
  5
359
330
25
100
AcDbEntity
  8
2
100
AcDbLine
 10
-270.177275
 20
155.800681
 30
0.0
 11
-272.2091240000001
 21
157.83253
 31
0.0
  0
LINE
  5
35A
330
25
100
AcDbEntity
  8
2
100
AcDbLine
 10
-271.497977
 20
154.479979
 30
0.0
 11
-273.529827
 21
156.511828
 31
0.0
  0
LINE
  5
35B
330
25
100
AcDbEntity
  8
2
100
AcDbLine
 10
-272.2091240000001
 20
153.768831
 30
0.0
 11
-274.240974
 21
155.800681
 31
0.0
  0
LINE
  5
35C
330
25
100
AcDbEntity
  8
2
100
AcDbLine
 10
-272.920272
 20
153.057684
 30
0.0
 11
-274.952121
 21
155.089533
 31
0.0
  0
LINE
  5
35D
330
25
100
AcDbEntity
  8
2
100
AcDbLine
 10
-250.786801
 20
137.832501
 30
0.0
 11
-252.236959
 21
139.282659
 31
0.0
  0
LINE
  5
35E
330
25
100
AcDbEntity
  8
2
100
AcDbLine
 10
-253.872775
 20
134.746527
 30
0.0
 11
-255.322933
 21
136.196685
 31
0.0
  0
ARC
  5
35F
330
25
100
AcDbEntity
  8
2
100
AcDbCircle
 10
-253.986963
 20
131.340742
 30
0.0
 40
0.143673
100
AcDbArc
 50
225.0
 51
315.0
  0
LINE
  5
360
330
25
100
AcDbEntity
  8
2
100
AcDbLine
 10
-253.750864
 20
134.746527
 30
0.0
 11
-250.786801
 21
137.71059
 31
0.0
  0
LINE
  5
361
330
25
100
AcDbEntity
  8
2
100
AcDbLine
 10
-258.544608
 20
136.070279
 30
0.0
 11
-251.647372
 21
133.7712
 31
0.0
  0
ARC
  5
362
330
25
100
AcDbEntity
  8
2
100
AcDbCircle
 10
-250.847756
 20
137.771545
 30
0.0
 40
0.086204
100
AcDbArc
 50
315.0
 51
45.0
  0
ARC
  5
363
330
25
100
AcDbEntity
  8
2
100
AcDbCircle
 10
-251.692806
 20
133.6349
 30
0.0
 40
0.143673
100
AcDbArc
 50
315.0
 51
71.565051
  0
ARC
  5
364
330
25
100
AcDbEntity
  8
2
100
AcDbCircle
 10
-253.811819
 20
134.807482
 30
0.0
 40
0.086204
100
AcDbArc
 50
225.0
 51
315.0
  0
LINE
  5
365
330
25
100
AcDbEntity
  8
2
100
AcDbLine
 10
-251.591213
 20
133.533307
 30
0.0
 11
-253.885371
 21
131.23915
 31
0.0
  0
ARC
  5
366
330
25
100
AcDbEntity
  8
2
100
AcDbCircle
 10
-252.205084
 20
134.760398
 30
0.0
 40
10.402317
100
AcDbArc
 50
128.830069
 51
141.169931
  0
ARC
  5
367
330
25
100
AcDbEntity
  8
2
100
AcDbCircle
 10
-252.976102
 20
135.531416
 30
0.0
 40
7.674066
100
AcDbArc
 50
124.473609
 51
145.526391
  0
LINE
  5
368
330
25
100
AcDbEntity
  8
2
100
AcDbLine
 10
-262.110573
 20
140.841229
 30
0.0
 11
-257.698766
 21
144.744466
 31
0.0
  0
ARC
  5
369
330
25
100
AcDbEntity
  8
2
100
AcDbCircle
 10
-257.646448
 20
141.520821
 30
0.0
 40
1.724081
100
AcDbArc
 50
51.27054199999999
 51
128.830069
  0
LINE
  5
36A
330
25
100
AcDbEntity
  8
2
100
AcDbLine
 10
-258.714691
 20
145.760391
 30
0.0
 11
-257.698766
 21
144.744466
 31
0.0
  0
ARC
  5
36B
330
25
100
AcDbEntity
  8
2
100
AcDbCircle
 10
-258.965508
 20
140.201761
 30
0.0
 40
1.724081
100
AcDbArc
 50
141.169931
 51
218.729458
  0
LINE
  5
36C
330
25
100
AcDbEntity
  8
2
100
AcDbLine
 10
-263.669709
 20
142.384827
 30
0.0
 11
-262.118342
 21
140.83346
 31
0.0
  0
ARC
  5
36D
330
25
100
AcDbEntity
  8
2
100
AcDbCircle
 10
-262.89312
 20
145.448433
 30
0.0
 40
10.402317
100
AcDbArc
 50
308.830069
 51
321.169931
  0
ARC
  5
36E
330
25
100
AcDbEntity
  8
2
100
AcDbCircle
 10
-262.7407
 20
145.421446
 30
0.0
 40
8.638035
100
AcDbArc
 50
305.062783
 51
323.774302
  0
LINE
  5
36F
330
25
100
AcDbEntity
  8
2
100
AcDbLine
 10
-252.35887
 20
139.282659
 30
0.0
 11
-255.322933
 21
136.318596
 31
0.0
  0
ARC
  5
370
330
25
100
AcDbEntity
  8
2
100
AcDbCircle
 10
-256.132696
 20
140.007069
 30
0.0
 40
1.724081
100
AcDbArc
 50
321.169931
 51
38.729458
  0
ARC
  5
371
330
25
100
AcDbEntity
  8
2
100
AcDbCircle
 10
-258.399852
 20
139.253665
 30
0.0
 40
3.169315999999999
100
AcDbArc
 50
34.668048
 51
55.331952
  0
ARC
  5
372
330
25
100
AcDbEntity
  8
2
100
AcDbCircle
 10
-256.402457
 20
140.669143
 30
0.0
 40
0.7219260000000001
100
AcDbArc
 50
330.772957
 51
32.444044
  0
ARC
  5
373
330
25
100
AcDbEntity
  8
2
100
AcDbCircle
 10
-252.297914
 20
139.221704
 30
0.0
 40
0.086204
100
AcDbArc
 50
45.0
 51
135.0
  0
ARC
  5
374
330
25
100
AcDbEntity
  8
2
100
AcDbCircle
 10
-257.451756
 20
138.68801
 30
0.0
 40
1.724081
100
AcDbArc
 50
231.270542
 51
308.830069
  0
ARC
  5
375
330
25
100
AcDbEntity
  8
2
100
AcDbCircle
 10
-258.141538
 20
138.868455
 30
0.0
 40
0.6321630000000001
100
AcDbArc
 50
235.331952
 51
305.062783
  0
ARC
  5
376
330
25
100
AcDbEntity
  8
2
100
AcDbCircle
 10
-256.698352
 20
140.955165
 30
0.0
 40
3.169315999999999
100
AcDbArc
 50
214.668048
 51
235.331952
  0
ARC
  5
377
330
25
100
AcDbEntity
  8
2
100
AcDbCircle
 10
-255.261977
 20
136.2576409999999
 30
0.0
 40
0.086204
100
AcDbArc
 50
135.0
 51
225.0
  0
ARC
  5
378
330
25
100
AcDbEntity
  8
2
100
AcDbCircle
 10
-263.777736
 20
133.875781
 30
0.0
 40
11.524047
100
AcDbArc
 50
38.729458
 51
51.27054199999999
  0
ARC
  5
379
330
25
100
AcDbEntity
  8
2
100
AcDbCircle
 10
-256.956667
 20
141.340376
 30
0.0
 40
0.6321630000000001
100
AcDbArc
 50
55.331952
 51
125.062783
  0
ARC
  5
37A
330
25
100
AcDbEntity
  8
2
100
AcDbCircle
 10
-251.320468
 20
146.33305
 30
0.0
 40
11.524047
100
AcDbArc
 50
218.729458
 51
231.270542
  0
ARC
  5
37B
330
25
100
AcDbEntity
  8
2
100
AcDbCircle
 10
-258.7850620000001
 20
139.51198
 30
0.0
 40
0.6321630000000001
100
AcDbArc
 50
144.937217
 51
214.668048
  0
LINE
  5
37C
330
25
100
AcDbEntity
  8
2
100
AcDbLine
 10
-263.669709
 20
142.384827
 30
0.0
 11
-262.051171
 21
146.006866
 31
0.0
  0
LINE
  5
37D
330
25
100
AcDbEntity
  8
2
100
AcDbLine
 10
-261.014131
 20
148.059831
 30
0.0
 11
-259.998206
 21
147.043906
 31
0.0
  0
ARC
  5
37E
330
25
100
AcDbEntity
  8
2
100
AcDbCircle
 10
-258.58888
 20
135.937463
 30
0.0
 40
0.14
100
AcDbArc
 50
71.565051
 51
225.0
  0
ARC
  5
37F
330
25
100
AcDbEntity
  8
2
100
AcDbCircle
 10
-268.572901
 20
149.299818
 30
0.0
 40
0.6321630000000001
100
AcDbArc
 50
235.331952
 51
305.062783
  0
ARC
  5
380
330
25
100
AcDbEntity
  8
2
100
AcDbCircle
 10
-266.744505
 20
151.128214
 30
0.0
 40
0.6321630000000001
100
AcDbArc
 50
324.937217
 51
34.668048
  0
ARC
  5
381
330
25
100
AcDbEntity
  8
2
100
AcDbCircle
 10
-267.129715
 20
151.386529
 30
0.0
 40
3.169315999999999
100
AcDbArc
 50
214.668048
 51
235.331952
  0
ARC
  5
382
330
25
100
AcDbEntity
  8
2
100
AcDbCircle
 10
-269.216426
 20
149.943343
 30
0.0
 40
0.6321630000000001
100
AcDbArc
 50
144.937217
 51
214.668048
  0
ARC
  5
383
330
25
100
AcDbEntity
  8
2
100
AcDbCircle
 10
-267.415738
 20
151.682424
 30
0.0
 40
0.7219260000000001
100
AcDbArc
 50
57.55595600000001
 51
119.227043
  0
ARC
  5
384
330
25
100
AcDbEntity
  8
2
100
AcDbCircle
 10
-268.831215
 20
149.685029
 30
0.0
 40
3.169315999999999
100
AcDbArc
 50
34.668048
 51
55.331952
  0
ARC
  5
385
330
25
100
AcDbEntity
  8
2
100
AcDbCircle
 10
-262.663435
 20
145.34418
 30
0.0
 40
8.638035
100
AcDbArc
 50
126.225698
 51
144.937217
  0
ARC
  5
386
330
25
100
AcDbEntity
  8
2
100
AcDbCircle
 10
-272.553465
 20
155.108778
 30
0.0
 40
7.674066
100
AcDbArc
 50
304.473609
 51
325.526391
  0
LINE
  5
387
330
25
100
AcDbEntity
  8
2
100
AcDbLine
 10
-254.088556
 20
131.23915
 30
0.0
 11
-258.687874
 21
135.838468
 31
0.0
  0
LINE
  5
388
330
25
100
AcDbEntity
  8
2
100
AcDbLine
 10
-262.040176
 20
142.764587
 30
0.0
 11
-260.02505
 21
147.07075
 31
0.0
  0
LINE
  5
389
330
25
100
AcDbEntity
  8
2
100
AcDbLine
 10
-262.040176
 20
142.764587
 30
0.0
 11
-258.741535
 21
145.787235
 31
0.0
  0
ARC
  5
38A
330
25
100
AcDbEntity
  8
2
100
AcDbCircle
 10
-289.331167
 20
166.24296
 30
0.0
 40
0.5
100
AcDbArc
 50
90.0
 51
178.767738
  0
LINE
  5
38B
330
25
100
AcDbEntity
  8
2
100
AcDbLine
 10
-289.331167
 20
166.74296
 30
0.0
 11
-279.164796
 21
166.74296
 31
0.0
  0
LINE
  5
38C
330
25
100
AcDbEntity
  8
2
100
AcDbLine
 10
-289.331167
 20
163.74296
 30
0.0
 11
-279.164796
 21
163.74296
 31
0.0
  0
ARC
  5
38D
330
25
100
AcDbEntity
  8
2
100
AcDbCircle
 10
-289.331167
 20
164.24296
 30
0.0
 40
0.5
100
AcDbArc
 50
181.232262
 51
270.0
  0
LINE
  5
38E
330
25
100
AcDbEntity
  8
2
100
AcDbLine
 10
-288.548657
 20
156.675916
 30
0.0
 11
-278.70058
 21
158.412398
 31
0.0
  0
ARC
  5
38F
330
25
100
AcDbEntity
  8
2
100
AcDbCircle
 10
-288.635481
 20
157.16832
 30
0.0
 40
0.5
100
AcDbArc
 50
100.0
 51
280.0
  0
LINE
  5
390
330
25
100
AcDbEntity
  8
2
100
AcDbLine
 10
-288.722305
 20
157.660724
 30
0.0
 11
-278.874228
 21
159.397205
 31
0.0
  0
LINE
  5
391
330
25
100
AcDbEntity
  8
2
100
AcDbLine
 10
-278.784381
 20
135.736358
 30
0.0
 11
-271.123937
 21
142.164234
 31
0.0
  0
ARC
  5
392
330
25
100
AcDbEntity
  8
2
100
AcDbCircle
 10
-278.462987
 20
135.353336
 30
0.0
 40
0.5
100
AcDbArc
 50
130.0
 51
310.0
  0
LINE
  5
393
330
25
100
AcDbEntity
  8
2
100
AcDbLine
 10
-278.141594
 20
134.970314
 30
0.0
 11
-270.481149
 21
141.39819
 31
0.0
  0
LINE
  5
394
330
25
100
AcDbEntity
  8
2
100
AcDbLine
 10
-283.362102
 20
142.425973
 30
0.0
 11
-274.701848
 21
147.425973
 31
0.0
  0
ARC
  5
395
330
25
100
AcDbEntity
  8
2
100
AcDbCircle
 10
-283.112102
 20
141.99296
 30
0.0
 40
0.5
100
AcDbArc
 50
120.0
 51
300.0
  0
LINE
  5
396
330
25
100
AcDbEntity
  8
2
100
AcDbLine
 10
-282.862102
 20
141.559947
 30
0.0
 11
-274.201848
 21
146.559947
 31
0.0
  0
LINE
  5
397
330
25
100
AcDbEntity
  8
2
100
AcDbLine
 10
-286.708638
 20
149.80887
 30
0.0
 11
-277.311711
 21
153.229071
 31
0.0
  0
ARC
  5
398
330
25
100
AcDbEntity
  8
2
100
AcDbCircle
 10
-286.537628
 20
149.339023
 30
0.0
 40
0.5
100
AcDbArc
 50
110.0
 51
290.0
  0
LINE
  5
399
330
25
100
AcDbEntity
  8
2
100
AcDbLine
 10
-286.366618
 20
148.869177
 30
0.0
 11
-276.969691
 21
152.289378
 31
0.0
  0
ARC
  5
39A
330
25
100
AcDbEntity
  8
2
100
AcDbCircle
 10
-242.841921
 20
165.24296
 30
0.0
 40
47.0
100
AcDbArc
 50
178.767738
 51
181.232262
  0
LINE
  5
39B
330
25
100
AcDbEntity
  8
2
100
AcDbLine
 10
-259.215704
 20
121.718263
 30
0.0
 11
-255.795502
 21
131.115189
 31
0.0
  0
LINE
  5
39C
330
25
100
AcDbEntity
  8
2
100
AcDbLine
 10
-258.276011
 20
121.376243
 30
0.0
 11
-254.85581
 21
130.773169
 31
0.0
  0
LINE
  5
39D
330
25
100
AcDbEntity
  8
2
100
AcDbLine
 10
-266.524933
 20
125.222779
 30
0.0
 11
-261.5249330000001
 21
133.883033
 31
0.0
  0
ARC
  5
39E
330
25
100
AcDbEntity
  8
2
100
AcDbCircle
 10
-266.091921
 20
124.972779
 30
0.0
 40
0.5
100
AcDbArc
 50
150.0
 51
330.0
  0
LINE
  5
39F
330
25
100
AcDbEntity
  8
2
100
AcDbLine
 10
-265.658908
 20
124.722779
 30
0.0
 11
-260.658908
 21
133.383033
 31
0.0
  0
LINE
  5
3A0
330
25
100
AcDbEntity
  8
2
100
AcDbLine
 10
-273.114567
 20
129.943287
 30
0.0
 11
-266.686691
 21
137.603732
 31
0.0
  0
ARC
  5
3A1
330
25
100
AcDbEntity
  8
2
100
AcDbCircle
 10
-272.731545
 20
129.621893
 30
0.0
 40
0.5
100
AcDbArc
 50
140.0
 51
320.0
  0
LINE
  5
3A2
330
25
100
AcDbEntity
  8
2
100
AcDbLine
 10
-272.348522
 20
129.3005
 30
0.0
 11
-265.920646
 21
136.960944
 31
0.0
  0
LINE
  5
3A3
330
25
100
AcDbEntity
  8
2
100
AcDbLine
 10
-250.424157
 20
119.362575
 30
0.0
 11
-248.687675
 21
129.210653
 31
0.0
  0
LINE
  5
3A4
330
25
100
AcDbEntity
  8
2
100
AcDbLine
 10
-251.408965
 20
119.536224
 30
0.0
 11
-249.672483
 21
129.384301
 31
0.0
  0
LINE
  5
3A5
330
25
100
AcDbEntity
  8
2
100
AcDbLine
 10
-244.341921
 20
118.753714
 30
0.0
 11
-244.341921
 21
137.761148
 31
0.0
  0
LINE
  5
3A6
330
25
100
AcDbEntity
  8
2
100
AcDbLine
 10
-241.341921
 20
118.753714
 30
0.0
 11
-241.341921
 21
137.761148
 31
0.0
  0
LINE
  5
3A7
330
25
100
AcDbEntity
  8
2
100
AcDbLine
 10
-275.663268
 20
154.378386
 30
0.0
 11
-274.952121
 21
155.089533
 31
0.0
  0
LINE
  5
3A8
330
25
100
AcDbEntity
  8
2
100
AcDbLine
 10
-274.240974
 20
155.800681
 30
0.0
 11
-273.529827
 21
156.511828
 31
0.0
  0
LINE
  5
3A9
330
25
100
AcDbEntity
  8
2
100
AcDbLine
 10
-272.2091240000001
 20
157.83253
 30
0.0
 11
-271.497977
 21
158.543677
 31
0.0
  0
ARC
  5
3AA
330
25
100
AcDbEntity
  8
2
100
AcDbCircle
 10
-249.180079
 20
129.297477
 30
0.0
 40
0.5
100
AcDbArc
 50
350.0
 51
170.0
  0
ARC
  5
3AB
330
25
100
AcDbEntity
  8
2
100
AcDbCircle
 10
-255.325656
 20
130.944179
 30
0.0
 40
0.5
100
AcDbArc
 50
340.0
 51
160.0
  0
ARC
  5
3AC
330
25
100
AcDbEntity
  8
2
100
AcDbCircle
 10
-261.091921
 20
133.633033
 30
0.0
 40
0.5
100
AcDbArc
 50
330.0
 51
150.0
  0
ARC
  5
3AD
330
25
100
AcDbEntity
  8
2
100
AcDbCircle
 10
-266.303669
 20
137.282338
 30
0.0
 40
0.5
100
AcDbArc
 50
320.0
 51
140.0
  0
ARC
  5
3AE
330
25
100
AcDbEntity
  8
2
100
AcDbCircle
 10
-270.802543
 20
141.781212
 30
0.0
 40
0.5
100
AcDbArc
 50
310.0
 51
130.0
  0
ARC
  5
3AF
330
25
100
AcDbEntity
  8
2
100
AcDbCircle
 10
-274.451848
 20
146.99296
 30
0.0
 40
0.5
100
AcDbArc
 50
300.0
 51
120.0
  0
ARC
  5
3B0
330
25
100
AcDbEntity
  8
2
100
AcDbCircle
 10
-277.140701
 20
152.759225
 30
0.0
 40
0.5
100
AcDbArc
 50
290.0
 51
110.0
  0
ARC
  5
3B1
330
25
100
AcDbEntity
  8
2
100
AcDbCircle
 10
-278.787404
 20
158.904802
 30
0.0
 40
0.5
100
AcDbArc
 50
280.0
 51
100.0
  0
ARC
  5
3B2
330
25
100
AcDbEntity
  8
2
100
AcDbCircle
 10
-242.841921
 20
165.24296
 30
0.0
 40
47.0
100
AcDbArc
 50
189.999966
 51
190.000034
  0
ARC
  5
3B3
330
25
100
AcDbEntity
  8
2
100
AcDbCircle
 10
-243.841921
 20
118.753714
 30
0.0
 40
0.5
100
AcDbArc
 50
180.0
 51
268.767738
  0
ARC
  5
3B4
330
25
100
AcDbEntity
  8
2
100
AcDbCircle
 10
-241.841921
 20
118.753714
 30
0.0
 40
0.5
100
AcDbArc
 50
271.232262
 51
360.0
  0
ARC
  5
3B5
330
25
100
AcDbEntity
  8
2
100
AcDbCircle
 10
-242.841921
 20
165.24296
 30
0.0
 40
47.0
100
AcDbArc
 50
199.999929
 51
200.000071
  0
ARC
  5
3B6
330
25
100
AcDbEntity
  8
2
100
AcDbCircle
 10
-242.841921
 20
165.24296
 30
0.0
 40
47.0
100
AcDbArc
 50
268.767738
 51
271.232262
  0
ARC
  5
3B7
330
25
100
AcDbEntity
  8
2
100
AcDbCircle
 10
-242.841921
 20
165.24296
 30
0.0
 40
27.0
100
AcDbArc
 50
267.916058
 51
272.083942
  0
ARC
  5
3B8
330
25
100
AcDbEntity
  8
2
100
AcDbCircle
 10
-241.841921
 20
137.761148
 30
0.0
 40
0.5
100
AcDbArc
 50
0.0
 51
92.083942
  0
ARC
  5
3B9
330
25
100
AcDbEntity
  8
2
100
AcDbCircle
 10
-243.841921
 20
137.761148
 30
0.0
 40
0.5
100
AcDbArc
 50
87.91605799999999
 51
180.0
  0
ARC
  5
3BA
330
25
100
AcDbEntity
  8
2
100
AcDbCircle
 10
-258.745857
 20
121.547253
 30
0.0
 40
0.5
100
AcDbArc
 50
160.0
 51
340.0
  0
ARC
  5
3BB
330
25
100
AcDbEntity
  8
2
100
AcDbCircle
 10
-250.916561
 20
119.449399
 30
0.0
 40
0.5
100
AcDbArc
 50
170.0
 51
350.0
  0
LINE
  5
3BC
330
25
100
AcDbEntity
  8
2
100
AcDbLine
 10
-220.76651
 20
150.818897
 30
0.0
 11
-219.218094
 21
150.293332
 31
0.0
  0
LINE
  5
3BD
330
25
100
AcDbEntity
  8
2
100
AcDbLine
 10
-219.218094
 20
150.293332
 30
0.0
 11
-219.708749
 21
150.846742
 31
0.0
  0
ARC
  5
3BE
330
25
100
AcDbEntity
  8
2
  6
CENTER
 62
     2
100
AcDbCircle
 10
-242.841921
 20
165.24296
 30
0.0
 40
35.0
100
AcDbArc
 50
298.585378
 51
330.968199
  0
LINE
  5
3BF
330
25
100
AcDbEntity
  8
2
  6
CENTER
 62
     2
100
AcDbLine
 10
-210.817232
 20
133.218271
 30
0.0
 11
-225.49308
 21
147.89412
 31
0.0
  0
ARC
  5
3C0
330
25
100
AcDbEntity
  8
2
  6
CENTER
 62
     2
100
AcDbCircle
 10
-242.841921
 20
165.24296
 30
0.0
 40
35.0
100
AcDbArc
 50
118.005522
 51
150.923658
  0
LINE
  5
3C1
330
25
100
AcDbEntity
  8
2
  6
CENTER
 62
     2
100
AcDbLine
 10
-259.264304
 20
181.665343
 30
0.0
 11
-275.983904
 21
198.384944
 31
0.0
  0
TEXT
  5
3C2
330
25
100
AcDbEntity
  8
2
100
AcDbText
 10
-224.292943
 20
133.898579
 30
0.0
 40
10.0
  1
Ｏ
 50
202.4999976762606
 41
0.923076875086908
 72
     5
 11
-231.683979
 21
130.837112
 31
0.0
100
AcDbText
  0
TEXT
  5
3C3
330
25
100
AcDbEntity
  8
2
100
AcDbText
 10
-277.802071
 20
174.988462
 30
0.0
 40
10.0
  1
Ｓ
 50
67.49999570693924
 41
0.9999999958462538
 72
     5
 11
-274.740603
 21
182.379498
 31
0.0
100
AcDbText
  0
TEXT
  5
3C4
330
25
100
AcDbEntity
  8
2
100
AcDbText
 10
-263.8922149999999
 20
178.792744
 30
0.0
 40
3.0
  1
Ｊ
 50
54.99999047351323
 41
1.200000196904253
 72
     5
 11
-262.515631
 21
180.758709
 31
0.0
100
AcDbText
  0
TEXT
  5
3C5
330
25
100
AcDbEntity
  8
2
100
AcDbText
 10
-262.631171
 20
180.575837
 30
0.0
 40
3.0
  1
Ａ
 50
50.00000997822089
 41
0.9230769571433448
 72
     5
 11
-261.088481
 21
182.414344
 31
0.0
100
AcDbText
  0
TEXT
  5
3C6
330
25
100
AcDbEntity
  8
2
100
AcDbText
 10
-259.668001
 20
183.779264
 30
0.0
 40
3.0
  1
Ａ
 50
39.99999002177963
 41
0.9230769571433519
 72
     5
 11
-257.829494
 21
185.321954
 31
0.0
100
AcDbText
  0
TEXT
  5
3C7
330
25
100
AcDbEntity
  8
2
100
AcDbText
 10
-257.988428
 20
185.175217
 30
0.0
 40
3.0
  1
Ｎ
 50
34.99998997067347
 41
0.9230768539354048
 72
     5
 11
-256.022463
 21
186.5517999999999
 31
0.0
100
AcDbText
  0
TEXT
  5
3C8
330
25
100
AcDbEntity
  8
2
100
AcDbText
 10
-261.219518
 20
182.242238
 30
0.0
 40
3.0
  1
Ｐ
 50
45.00000000000047
 41
0.999999838044425
 72
     5
 11
-259.522462
 21
183.939294
 31
0.0
100
AcDbText
  0
TEXT
  5
3C9
330
25
100
AcDbEntity
  8
2
100
AcDbText
 10
-230.3183740000001
 20
143.566422
 30
0.0
 40
3.0
  1
Ｄ
 50
207.7858663593596
 41
0.9999998162600352
 72
     5
 11
-232.441644
 21
142.447618
 31
0.0
100
AcDbText
  0
TEXT
  5
3CA
330
25
100
AcDbEntity
  8
2
100
AcDbText
 10
-228.476795
 20
144.740406
 30
0.0
 40
3.0
  1
Ｅ
 50
212.7858592989686
 41
1.090909278045903
 72
     5
 11
-230.494476
 21
143.440804
 31
0.0
100
AcDbText
  0
TEXT
  5
3CB
330
25
100
AcDbEntity
  8
2
100
AcDbText
 10
-226.744544
 20
146.070428
 30
0.0
 40
3.0
  1
Ｔ
 50
217.7858621875415
 41
0.9230769534700316
 72
     5
 11
-228.641279
 21
144.599919
 31
0.0
100
AcDbText
  0
TEXT
  5
3CC
330
25
100
AcDbEntity
  8
2
100
AcDbText
 10
-225.134803
 20
147.546364
 30
0.0
 40
3.0
  1
Ｎ
 50
222.7858521323252
 41
0.9230767791259532
 72
     5
 11
-226.896157
 21
145.91614
 31
0.0
100
AcDbText
  0
TEXT
  5
3CD
330
25
100
AcDbEntity
  8
2
100
AcDbText
 10
-223.659824
 20
149.156982
 30
0.0
 40
3.0
  1
Ｅ
 50
227.7858605481269
 41
1.090909007643269
 72
     5
 11
-225.272392
 21
147.379449
 31
0.0
100
AcDbText
  0
TEXT
  5
3CE
330
25
100
AcDbEntity
  8
2
100
AcDbText
 10
-222.330832
 20
150.890024
 30
0.0
 40
3.0
  1
Ｔ
 50
232.7858577647382
 41
0.9230771223313933
 72
     5
 11
-223.782342
 21
148.97871
 31
0.0
100
AcDbText
  0
LINE
  5
3CF
330
25
100
AcDbEntity
  8
2
100
AcDbLine
 10
-242.841921
 20
139.24296
 30
0.0
 11
-245.300921
 21
139.24296
 31
0.0
  0
LINE
  5
3D0
330
25
100
AcDbEntity
  8
2
100
AcDbLine
 10
-245.300921
 20
139.24296
 30
0.0
 11
-245.841921
 21
139.78396
 31
0.0
  0
LINE
  5
3D1
330
25
100
AcDbEntity
  8
2
100
AcDbLine
 10
-245.841921
 20
139.78396
 30
0.0
 11
-245.841921
 21
143.261889
 31
0.0
  0
LINE
  5
3D2
330
25
100
AcDbEntity
  8
2
100
AcDbLine
 10
-245.841921
 20
139.78396
 30
0.0
 11
-242.841921
 21
139.78396
 31
0.0
  0
LINE
  5
3D3
330
25
100
AcDbEntity
  8
2
100
AcDbLine
 10
-242.841921
 20
139.24296
 30
0.0
 11
-240.382921
 21
139.24296
 31
0.0
  0
LINE
  5
3D4
330
25
100
AcDbEntity
  8
2
100
AcDbLine
 10
-240.382921
 20
139.24296
 30
0.0
 11
-239.841921
 21
139.78396
 31
0.0
  0
LINE
  5
3D5
330
25
100
AcDbEntity
  8
2
100
AcDbLine
 10
-239.841921
 20
139.78396
 30
0.0
 11
-239.841921
 21
143.261889
 31
0.0
  0
LINE
  5
3D6
330
25
100
AcDbEntity
  8
2
100
AcDbLine
 10
-239.841921
 20
139.78396
 30
0.0
 11
-242.841921
 21
139.78396
 31
0.0
  0
POINT
  5
3D7
330
25
100
AcDbEntity
  8
2
100
AcDbPoint
 10
-242.841921
 20
148.24296
 30
0.0
  0
LINE
  5
3D8
330
25
100
AcDbEntity
  8
2
100
AcDbLine
 10
-242.841921
 20
148.24296
 30
0.0
 11
-237.091921
 21
148.24296
 31
0.0
  0
LINE
  5
3D9
330
25
100
AcDbEntity
  8
2
100
AcDbLine
 10
-237.091921
 20
148.24296
 30
0.0
 11
-237.091921
 21
143.733708
 31
0.0
  0
LINE
  5
3DA
330
25
100
AcDbEntity
  8
2
100
AcDbLine
 10
-237.091921
 20
143.733708
 30
0.0
 11
-237.941921
 21
143.24296
 31
0.0
  0
LINE
  5
3DB
330
25
100
AcDbEntity
  8
2
100
AcDbLine
 10
-237.941921
 20
143.24296
 30
0.0
 11
-242.841921
 21
143.24296
 31
0.0
  0
LINE
  5
3DC
330
25
100
AcDbEntity
  8
2
100
AcDbLine
 10
-239.966921
 20
148.24296
 30
0.0
 11
-239.966921
 21
143.733708
 31
0.0
  0
ARC
  5
3DD
330
25
100
AcDbEntity
  8
2
100
AcDbCircle
 10
-238.529421
 20
145.581663
 30
0.0
 40
2.341226999999999
100
AcDbArc
 50
232.121121
 51
307.878879
  0
ARC
  5
3DE
330
25
100
AcDbEntity
  8
2
100
AcDbCircle
 10
-242.841921
 20
151.865436
 30
0.0
 40
8.625
100
AcDbArc
 50
270.0
 51
289.471221
  0
LINE
  5
3DF
330
25
100
AcDbEntity
  8
2
100
AcDbLine
 10
-242.841921
 20
148.24296
 30
0.0
 11
-248.591921
 21
148.24296
 31
0.0
  0
LINE
  5
3E0
330
25
100
AcDbEntity
  8
2
100
AcDbLine
 10
-248.591921
 20
148.24296
 30
0.0
 11
-248.591921
 21
143.733708
 31
0.0
  0
LINE
  5
3E1
330
25
100
AcDbEntity
  8
2
100
AcDbLine
 10
-248.591921
 20
143.733708
 30
0.0
 11
-247.741921
 21
143.24296
 31
0.0
  0
LINE
  5
3E2
330
25
100
AcDbEntity
  8
2
100
AcDbLine
 10
-247.741921
 20
143.24296
 30
0.0
 11
-242.841921
 21
143.24296
 31
0.0
  0
LINE
  5
3E3
330
25
100
AcDbEntity
  8
2
100
AcDbLine
 10
-245.716921
 20
148.24296
 30
0.0
 11
-245.716921
 21
143.733708
 31
0.0
  0
ARC
  5
3E4
330
25
100
AcDbEntity
  8
2
100
AcDbCircle
 10
-247.154421
 20
145.581663
 30
0.0
 40
2.341226999999999
100
AcDbArc
 50
232.121121
 51
307.878879
  0
ARC
  5
3E5
330
25
100
AcDbEntity
  8
2
100
AcDbCircle
 10
-242.841921
 20
151.865436
 30
0.0
 40
8.625
100
AcDbArc
 50
250.528779
 51
270.0
  0
LINE
  5
3E6
330
25
100
AcDbEntity
  8
2
 62
     2
100
AcDbLine
 10
-245.300921
 20
139.24296
 30
0.0
 11
-245.300921
 21
143.24296
 31
0.0
  0
LINE
  5
3E7
330
25
100
AcDbEntity
  8
2
 62
     2
100
AcDbLine
 10
-240.382921
 20
139.24296
 30
0.0
 11
-240.382921
 21
143.24296
 31
0.0
  0
CIRCLE
  5
3E8
330
25
100
AcDbEntity
  8
2
100
AcDbCircle
 10
-218.093183
 20
140.494223
 30
0.0
 40
6.5
  0
LINE
  5
3E9
330
25
100
AcDbEntity
  8
2
100
AcDbLine
 10
-214.340407
 20
146.994223
 30
0.0
 11
-221.84596
 21
146.994223
 31
0.0
  0
LINE
  5
3EA
330
25
100
AcDbEntity
  8
2
100
AcDbLine
 10
-221.84596
 20
146.994223
 30
0.0
 11
-225.598737
 21
140.494223
 31
0.0
  0
LINE
  5
3EB
330
25
100
AcDbEntity
  8
2
100
AcDbLine
 10
-225.598737
 20
140.494223
 30
0.0
 11
-221.84596
 21
133.994223
 31
0.0
  0
LINE
  5
3EC
330
25
100
AcDbEntity
  8
2
100
AcDbLine
 10
-221.84596
 20
133.994223
 30
0.0
 11
-214.340407
 21
133.994223
 31
0.0
  0
LINE
  5
3ED
330
25
100
AcDbEntity
  8
2
100
AcDbLine
 10
-214.340407
 20
133.994223
 30
0.0
 11
-210.58763
 21
140.494223
 31
0.0
  0
LINE
  5
3EE
330
25
100
AcDbEntity
  8
2
100
AcDbLine
 10
-210.58763
 20
140.494223
 30
0.0
 11
-214.340407
 21
146.994223
 31
0.0
  0
LINE
  5
3EF
330
25
100
AcDbEntity
  8
2
100
AcDbLine
 10
-275.096212
 20
189.9916969999999
 30
0.0
 11
-271.343435
 21
183.491697
 31
0.0
  0
LINE
  5
3F0
330
25
100
AcDbEntity
  8
2
100
AcDbLine
 10
-271.343435
 20
196.491697
 30
0.0
 11
-275.096212
 21
189.9916969999999
 31
0.0
  0
LINE
  5
3F1
330
25
100
AcDbEntity
  8
2
100
AcDbLine
 10
-263.837881
 20
196.491697
 30
0.0
 11
-271.343435
 21
196.491697
 31
0.0
  0
LINE
  5
3F2
330
25
100
AcDbEntity
  8
2
100
AcDbLine
 10
-260.085105
 20
189.9916969999999
 30
0.0
 11
-263.837881
 21
196.491697
 31
0.0
  0
LINE
  5
3F3
330
25
100
AcDbEntity
  8
2
100
AcDbLine
 10
-263.837881
 20
183.491697
 30
0.0
 11
-260.085105
 21
189.9916969999999
 31
0.0
  0
LINE
  5
3F4
330
25
100
AcDbEntity
  8
2
100
AcDbLine
 10
-271.343435
 20
183.491697
 30
0.0
 11
-263.837881
 21
183.491697
 31
0.0
  0
CIRCLE
  5
3F5
330
25
100
AcDbEntity
  8
2
100
AcDbCircle
 10
-267.590658
 20
189.9916969999999
 30
0.0
 40
6.5
  0
LINE
  5
3F6
330
25
100
AcDbEntity
  8
2
100
AcDbLine
 10
-261.404954
 20
-15.078386
 30
0.0
 11
-261.340658
 21
-15.041264
 31
0.0
  0
LINE
  5
3F7
330
25
100
AcDbEntity
  8
2
100
AcDbLine
 10
75.66790799999999
 20
7.458736
 30
0.0
 11
75.66790799999999
 21
16.458736
 31
0.0
  0
LINE
  5
3F8
330
25
100
AcDbEntity
  8
2
100
AcDbLine
 10
89.667908
 20
16.458736
 30
0.0
 11
89.667908
 21
7.458736
 31
0.0
  0
LINE
  5
3F9
330
25
100
AcDbEntity
  8
2
100
AcDbLine
 10
69.667908
 20
26.458736
 30
0.0
 11
75.66790799999999
 21
26.458736
 31
0.0
  0
ARC
  5
3FA
330
25
100
AcDbEntity
  8
2
100
AcDbCircle
 10
71.167908
 20
27.458736
 30
0.0
 40
1.0
100
AcDbArc
 50
180.0
 51
270.0
  0
LINE
  5
3FB
330
25
100
AcDbEntity
  8
2
100
AcDbLine
 10
95.66790799999999
 20
26.458736
 30
0.0
 11
89.667908
 21
26.458736
 31
0.0
  0
ARC
  5
3FC
330
25
100
AcDbEntity
  8
2
100
AcDbCircle
 10
94.16790799999999
 20
27.458736
 30
0.0
 40
1.0
100
AcDbArc
 50
270.0
 51
360.0
  0
LINE
  5
3FD
330
25
100
AcDbEntity
  8
2
100
AcDbLine
 10
96.66790800000001
 20
38.458736
 30
0.0
 11
97.667908
 21
37.458736
 31
0.0
  0
LINE
  5
3FE
330
25
100
AcDbEntity
  8
2
100
AcDbLine
 10
97.667908
 20
17.458736
 30
0.0
 11
97.667908
 21
37.458736
 31
0.0
  0
LINE
  5
3FF
330
25
100
AcDbEntity
  8
2
100
AcDbLine
 10
88.667908
 20
27.458736
 30
0.0
 11
88.667908
 21
38.203105
 31
0.0
  0
LINE
  5
400
330
25
100
AcDbEntity
  8
2
100
AcDbLine
 10
96.66790800000001
 20
27.458736
 30
0.0
 11
96.66790800000001
 21
40.958736
 31
0.0
  0
ARC
  5
401
330
25
100
AcDbEntity
  8
2
100
AcDbCircle
 10
96.167908
 20
40.958736
 30
0.0
 40
0.5
100
AcDbArc
 50
0.0
 51
90.0
  0
ARC
  5
402
330
25
100
AcDbEntity
  8
2
100
AcDbCircle
 10
95.66790799999999
 20
41.958736
 30
0.0
 40
0.5
100
AcDbArc
 50
180.0
 51
270.0
  0
LINE
  5
403
330
25
100
AcDbEntity
  8
2
100
AcDbLine
 10
96.167908
 20
41.458736
 30
0.0
 11
95.66790799999999
 21
41.458736
 31
0.0
  0
LINE
  5
404
330
25
100
AcDbEntity
  8
2
100
AcDbLine
 10
95.167908
 20
27.458736
 30
0.0
 11
95.167908
 21
41.958736
 31
0.0
  0
LINE
  5
405
330
25
100
AcDbEntity
  8
2
100
AcDbLine
 10
90.75710800000001
 20
39.602327
 30
0.0
 11
89.362683
 21
39.155385
 31
0.0
  0
ARC
  5
406
330
25
100
AcDbEntity
  8
2
100
AcDbCircle
 10
89.667908
 20
38.203105
 30
0.0
 40
1.0
100
AcDbArc
 50
107.771715
 51
180.0
  0
LINE
  5
407
330
25
100
AcDbEntity
  8
2
100
AcDbLine
 10
88.667908
 20
44.705007
 30
0.0
 11
88.667908
 21
38.203105
 31
0.0
  0
LINE
  5
408
330
25
100
AcDbEntity
  8
2
100
AcDbLine
 10
96.66790800000001
 20
33.931748
 30
0.0
 11
97.46790799999999
 21
26.385972
 31
0.0
  0
ARC
  5
409
330
25
100
AcDbEntity
  8
2
100
AcDbCircle
 10
95.66790799999999
 20
27.458736
 30
0.0
 40
1.0
100
AcDbArc
 50
270.0
 51
360.0
  0
ARC
  5
40A
330
25
100
AcDbEntity
  8
2
100
AcDbCircle
 10
89.667908
 20
27.458736
 30
0.0
 40
1.0
100
AcDbArc
 50
180.0
 51
270.0
  0
ARC
  5
40B
330
25
100
AcDbEntity
  8
2
100
AcDbCircle
 10
90.45188299999999
 20
40.554608
 30
0.0
 40
1.0
100
AcDbArc
 50
287.771715
 51
6.051866999999999
  0
ARC
  5
40C
330
25
100
AcDbEntity
  8
2
100
AcDbCircle
 10
74.883933
 20
40.554608
 30
0.0
 40
1.0
100
AcDbArc
 50
173.948133
 51
252.228285
  0
ARC
  5
40D
330
25
100
AcDbEntity
  8
2
100
AcDbCircle
 10
75.66790799999999
 20
27.458736
 30
0.0
 40
1.0
100
AcDbArc
 50
270.0
 51
360.0
  0
ARC
  5
40E
330
25
100
AcDbEntity
  8
2
100
AcDbCircle
 10
69.667908
 20
27.458736
 30
0.0
 40
1.0
100
AcDbArc
 50
180.0
 51
270.0
  0
ARC
  5
40F
330
25
100
AcDbEntity
  8
2
100
AcDbCircle
 10
92.49849499999999
 20
21.250519
 30
0.0
 40
1.0
100
AcDbArc
 50
279.951879
 51
6.051866999999999
  0
ARC
  5
410
330
25
100
AcDbEntity
  8
2
100
AcDbCircle
 10
72.837321
 20
21.250519
 30
0.0
 40
1.0
100
AcDbArc
 50
173.948133
 51
260.048121
  0
ARC
  5
411
330
25
100
AcDbEntity
  8
2
100
AcDbCircle
 10
82.667908
 20
77.277667
 30
0.0
 40
57.88305300000001
100
AcDbArc
 50
260.048121
 51
264.1497
  0
LINE
  5
412
330
25
100
AcDbEntity
  8
2
100
AcDbLine
 10
67.867908
 20
17.458736
 30
0.0
 11
67.867908
 21
26.385972
 31
0.0
  0
LINE
  5
413
330
25
100
AcDbEntity
  8
2
100
AcDbLine
 10
68.667908
 20
33.931748
 30
0.0
 11
67.867908
 21
26.385972
 31
0.0
  0
LINE
  5
414
330
25
100
AcDbEntity
  8
2
100
AcDbLine
 10
72.38389000000001
 20
26.458736
 30
0.0
 11
71.842895
 21
21.355947
 31
0.0
  0
LINE
  5
415
330
25
100
AcDbEntity
  8
2
100
AcDbLine
 10
93.667908
 20
17.458736
 30
0.0
 11
93.667908
 21
16.458736
 31
0.0
  0
ARC
  5
416
330
25
100
AcDbEntity
  8
2
100
AcDbCircle
 10
88.16790799999999
 20
55.564621
 30
0.0
 40
1.5
100
AcDbArc
 50
69.33280100000001
 51
94.27095600000001
  0
LINE
  5
417
330
25
100
AcDbEntity
  8
2
100
AcDbLine
 10
96.66790800000001
 20
33.931748
 30
0.0
 11
97.667908
 21
24.499527
 31
0.0
  0
ARC
  5
418
330
25
100
AcDbEntity
  8
2
100
AcDbCircle
 10
88.243044
 20
66.041935
 30
0.0
 40
5.0
100
AcDbArc
 50
9.174666
 51
77.83324
  0
LINE
  5
419
330
25
100
AcDbEntity
  8
2
100
AcDbLine
 10
93.179078
 20
66.83915899999999
 30
0.0
 11
93.179078
 21
62.25651299999999
 31
0.0
  0
LINE
  5
41A
330
25
100
AcDbEntity
  8
2
100
AcDbLine
 10
86.66790799999999
 20
55.228731
 30
0.0
 11
86.66790799999999
 21
52.543117
 31
0.0
  0
ARC
  5
41B
330
25
100
AcDbEntity
  8
2
100
AcDbCircle
 10
92.179078
 20
62.25651299999999
 30
0.0
 40
1.0
100
AcDbArc
 50
259.300245
 51
360.0
  0
LINE
  5
41C
330
25
100
AcDbEntity
  8
2
100
AcDbLine
 10
93.179078
 20
66.83915899999999
 30
0.0
 11
95.8699
 21
41.458736
 31
0.0
  0
ARC
  5
41D
330
25
100
AcDbEntity
  8
2
100
AcDbCircle
 10
88.302972
 20
60.823609
 30
0.0
 40
1.0
100
AcDbArc
 50
6.051866999999999
 51
83.42705999999999
  0
LINE
  5
41E
330
25
100
AcDbEntity
  8
2
100
AcDbLine
 10
92.951926
 20
26.458736
 30
0.0
 11
93.49292099999999
 21
21.355947
 31
0.0
  0
ARC
  5
41F
330
25
100
AcDbEntity
  8
2
100
AcDbCircle
 10
85.66790799999999
 20
44.705007
 30
0.0
 40
3.0
100
AcDbArc
 50
0.0
 51
28.460849
  0
LINE
  5
420
330
25
100
AcDbEntity
  8
2
100
AcDbLine
 10
89.29739899999999
 20
60.929037
 30
0.0
 11
91.44631
 21
40.660036
 31
0.0
  0
LINE
  5
421
330
25
100
AcDbEntity
  8
2
100
AcDbLine
 10
88.667908
 20
44.705007
 30
0.0
 11
88.667908
 21
39.542736
 31
0.0
  0
LINE
  5
422
330
25
100
AcDbEntity
  8
2
100
AcDbLine
 10
76.667908
 20
44.705007
 30
0.0
 11
76.667908
 21
38.203105
 31
0.0
  0
ARC
  5
423
330
25
100
AcDbEntity
  8
2
100
AcDbCircle
 10
75.66790799999999
 20
38.203105
 30
0.0
 40
1.0
100
AcDbArc
 50
0.0
 51
72.228285
  0
LINE
  5
424
330
25
100
AcDbEntity
  8
2
100
AcDbLine
 10
76.03841700000001
 20
60.929037
 30
0.0
 11
73.88950600000001
 21
40.660036
 31
0.0
  0
ARC
  5
425
330
25
100
AcDbEntity
  8
2
100
AcDbCircle
 10
79.667908
 20
44.705007
 30
0.0
 40
3.0
100
AcDbArc
 50
113.205282
 51
180.0
  0
LINE
  5
426
330
25
100
AcDbEntity
  8
2
100
AcDbLine
 10
74.57870699999999
 20
39.602327
 30
0.0
 11
75.97313299999999
 21
39.155385
 31
0.0
  0
LINE
  5
427
330
25
100
AcDbEntity
  8
2
100
AcDbLine
 10
71.667908
 20
17.458736
 30
0.0
 11
71.667908
 21
16.458736
 31
0.0
  0
ARC
  5
428
330
25
100
AcDbEntity
  8
2
100
AcDbCircle
 10
77.032844
 20
60.823609
 30
0.0
 40
1.0
100
AcDbArc
 50
96.57294
 51
173.948133
  0
LINE
  5
429
330
25
100
AcDbEntity
  8
2
100
AcDbLine
 10
97.667908
 20
17.458736
 30
0.0
 11
88.567908
 21
17.458736
 31
0.0
  0
LINE
  5
42A
330
25
100
AcDbEntity
  8
2
100
AcDbLine
 10
71.667908
 20
16.458736
 30
0.0
 11
76.76790799999999
 21
16.458736
 31
0.0
  0
LINE
  5
42B
330
25
100
AcDbEntity
  8
2
100
AcDbLine
 10
70.16790799999999
 20
27.458736
 30
0.0
 11
70.16790799999999
 21
41.958736
 31
0.0
  0
LINE
  5
42C
330
25
100
AcDbEntity
  8
2
100
AcDbLine
 10
72.15673800000001
 20
66.83915899999999
 30
0.0
 11
69.46591600000001
 21
41.458736
 31
0.0
  0
LINE
  5
42D
330
25
100
AcDbEntity
  8
2
100
AcDbLine
 10
69.167908
 20
41.458736
 30
0.0
 11
69.667908
 21
41.458736
 31
0.0
  0
ARC
  5
42E
330
25
100
AcDbEntity
  8
2
100
AcDbCircle
 10
69.667908
 20
41.958736
 30
0.0
 40
0.5
100
AcDbArc
 50
270.0
 51
360.0
  0
ARC
  5
42F
330
25
100
AcDbEntity
  8
2
100
AcDbCircle
 10
69.167908
 20
40.958736
 30
0.0
 40
0.5
100
AcDbArc
 50
90.0
 51
180.0
  0
LINE
  5
430
330
25
100
AcDbEntity
  8
2
100
AcDbLine
 10
68.667908
 20
27.458736
 30
0.0
 11
68.667908
 21
40.958736
 31
0.0
  0
ARC
  5
431
330
25
100
AcDbEntity
  8
2
100
AcDbCircle
 10
82.667908
 20
11.918885
 30
0.0
 40
50.228304
100
AcDbArc
 50
79.30024499999999
 51
100.699755
  0
ARC
  5
432
330
25
100
AcDbEntity
  8
2
100
AcDbCircle
 10
73.156738
 20
62.25651299999999
 30
0.0
 40
1.0
100
AcDbArc
 50
180.0
 51
280.699755
  0
ARC
  5
433
330
25
100
AcDbEntity
  8
2
100
AcDbCircle
 10
82.667908
 20
47.37006199999999
 30
0.0
 40
11.334722
100
AcDbArc
 50
68.40872399999999
 51
114.66929
  0
LINE
  5
434
330
25
100
AcDbEntity
  8
2
100
AcDbLine
 10
78.667908
 20
51.39185399999999
 30
0.0
 11
79.667908
 21
50.391854
 31
0.0
  0
ARC
  5
435
330
25
100
AcDbEntity
  8
2
100
AcDbCircle
 10
82.667908
 20
42.370339
 30
0.0
 40
9.868522999999999
100
AcDbArc
 50
76.97849599999999
 51
113.911756
  0
ARC
  5
436
330
25
100
AcDbEntity
  8
2
100
AcDbCircle
 10
77.167908
 20
55.564621
 30
0.0
 40
1.5
100
AcDbArc
 50
0.0
 51
110.667199
  0
LINE
  5
437
330
25
100
AcDbEntity
  8
2
100
AcDbLine
 10
78.667908
 20
55.564621
 30
0.0
 11
78.667908
 21
55.392998
 31
0.0
  0
LINE
  5
438
330
25
100
AcDbEntity
  8
2
100
AcDbLine
 10
76.667908
 20
27.458736
 30
0.0
 11
76.667908
 21
38.203105
 31
0.0
  0
LINE
  5
439
330
25
100
AcDbEntity
  8
2
100
AcDbLine
 10
72.15673800000001
 20
66.83915899999999
 30
0.0
 11
72.15673800000001
 21
62.25651299999999
 31
0.0
  0
LINE
  5
43A
330
25
100
AcDbEntity
  8
2
100
AcDbLine
 10
66.667908
 20
38.458736
 30
0.0
 11
68.667908
 21
38.458736
 31
0.0
  0
LINE
  5
43B
330
25
100
AcDbEntity
  8
2
100
AcDbLine
 10
65.66790799999999
 20
37.458736
 30
0.0
 11
65.66790799999999
 21
17.458736
 31
0.0
  0
ARC
  5
43C
330
25
100
AcDbEntity
  8
2
100
AcDbCircle
 10
66.667908
 20
37.458736
 30
0.0
 40
1.0
100
AcDbArc
 50
90.0
 51
180.0
  0
ARC
  5
43D
330
25
100
AcDbEntity
  8
2
100
AcDbCircle
 10
77.09277199999999
 20
66.041935
 30
0.0
 40
5.0
100
AcDbArc
 50
102.16676
 51
170.825334
  0
ARC
  5
43E
330
25
100
AcDbEntity
  8
2
100
AcDbCircle
 10
82.667908
 20
40.18328799999999
 30
0.0
 40
31.452822
100
AcDbArc
 50
77.83324
 51
102.16676
  0
LINE
  5
43F
330
25
100
AcDbEntity
  8
2
100
AcDbLine
 10
88.567908
 20
16.458736
 30
0.0
 11
93.667908
 21
16.458736
 31
0.0
  0
LINE
  5
440
330
25
100
AcDbEntity
  8
2
100
AcDbLine
 10
76.76790799999999
 20
17.458736
 30
0.0
 11
65.66790799999999
 21
17.458736
 31
0.0
  0
ARC
  5
441
330
25
100
AcDbEntity
  8
2
100
AcDbCircle
 10
82.667908
 20
77.277667
 30
0.0
 40
57.88305300000001
100
AcDbArc
 50
275.8503
 51
279.951879
  0
LINE
  5
442
330
25
100
AcDbEntity
  8
2
100
AcDbLine
 10
78.667908
 20
53.405683
 30
0.0
 11
78.667908
 21
51.39185399999999
 31
0.0
  0
ARC
  5
443
330
25
100
AcDbEntity
  8
2
100
AcDbCircle
 10
85.66790799999999
 20
44.705007
 30
0.0
 40
3.0
100
AcDbArc
 50
55.144622
 51
90.0
  0
LINE
  5
444
330
25
100
AcDbEntity
  8
2
100
AcDbLine
 10
87.00626899999999
 20
47.123767
 30
0.0
 11
77.44508499999999
 21
44.120414
 31
0.0
  0
LINE
  5
445
330
25
100
AcDbEntity
  8
2
100
AcDbLine
 10
87.60563299999999
 20
45.21568900000001
 30
0.0
 11
78.044449
 21
42.21233499999999
 31
0.0
  0
LINE
  5
446
330
25
100
AcDbEntity
  8
2
100
AcDbLine
 10
77.489689
 20
42.19945399999999
 30
0.0
 11
83.70273199999999
 21
40.560425
 31
0.0
  0
LINE
  5
447
330
25
100
AcDbEntity
  8
2
100
AcDbLine
 10
87.00626899999999
 20
41.59812999999999
 30
0.0
 11
77.44508499999999
 21
38.594777
 31
0.0
  0
LINE
  5
448
330
25
100
AcDbEntity
  8
2
100
AcDbLine
 10
87.60563299999999
 20
39.690052
 30
0.0
 11
78.044449
 21
36.686699
 31
0.0
  0
LINE
  5
449
330
25
100
AcDbEntity
  8
2
100
AcDbLine
 10
87.60563299999999
 20
34.164416
 30
0.0
 11
78.044449
 21
31.161062
 31
0.0
  0
LINE
  5
44A
330
25
100
AcDbEntity
  8
2
100
AcDbLine
 10
87.00626899999999
 20
36.072494
 30
0.0
 11
77.44508499999999
 21
33.069141
 31
0.0
  0
LINE
  5
44B
330
25
100
AcDbEntity
  8
2
100
AcDbLine
 10
77.489689
 20
36.673817
 30
0.0
 11
79.381985
 21
36.174621
 31
0.0
  0
ARC
  5
44C
330
25
100
AcDbEntity
  8
2
100
AcDbCircle
 10
77.74476700000001
 20
32.115102
 30
0.0
 40
1.0
100
AcDbArc
 50
100.738785
 51
286.6206009999999
  0
ARC
  5
44D
330
25
100
AcDbEntity
  8
2
100
AcDbCircle
 10
77.74476700000001
 20
37.640738
 30
0.0
 40
1.0
100
AcDbArc
 50
107.438515
 51
286.6206009999999
  0
ARC
  5
44E
330
25
100
AcDbEntity
  8
2
100
AcDbCircle
 10
77.74476700000001
 20
43.166374
 30
0.0
 40
1.0
100
AcDbArc
 50
107.438515
 51
286.6206009999999
  0
LINE
  5
44F
330
25
100
AcDbEntity
  8
2
100
AcDbLine
 10
81.34798599999999
 20
37.724404
 30
0.0
 11
87.561029
 21
36.085375
 31
0.0
  0
ARC
  5
450
330
25
100
AcDbEntity
  8
2
100
AcDbCircle
 10
87.305951
 20
35.118455
 30
0.0
 40
1.0
100
AcDbArc
 50
287.438515
 51
107.438515
  0
LINE
  5
451
330
25
100
AcDbEntity
  8
2
100
AcDbLine
 10
82.959905
 20
32.705102
 30
0.0
 11
87.561029
 21
32.327734
 31
0.0
  0
ARC
  5
452
330
25
100
AcDbEntity
  8
2
100
AcDbCircle
 10
87.591049
 20
31.307271
 30
0.0
 40
1.0
100
AcDbArc
 50
273.731968
 51
85.59196300000001
  0
LINE
  5
453
330
25
100
AcDbEntity
  8
2
100
AcDbLine
 10
81.34798599999999
 20
43.25004
 30
0.0
 11
87.561029
 21
41.611012
 31
0.0
  0
ARC
  5
454
330
25
100
AcDbEntity
  8
2
100
AcDbCircle
 10
87.305951
 20
40.64409099999999
 30
0.0
 40
1.0
100
AcDbArc
 50
281.107766
 51
107.438515
  0
LINE
  5
455
330
25
100
AcDbEntity
  8
2
100
AcDbLine
 10
87.49860600000001
 20
55.418031
 30
0.0
 11
78.044449
 21
53.26360799999999
 31
0.0
  0
LINE
  5
456
330
25
100
AcDbEntity
  8
2
100
AcDbLine
 10
87.00626899999999
 20
57.35333699999999
 30
0.0
 11
77.44508499999999
 21
55.171686
 31
0.0
  0
LINE
  5
457
330
25
100
AcDbEntity
  8
2
100
AcDbLine
 10
77.489689
 20
47.72509
 30
0.0
 11
83.70273199999999
 21
46.08606199999999
 31
0.0
  0
LINE
  5
458
330
25
100
AcDbEntity
  8
2
100
AcDbLine
 10
87.00626899999999
 20
52.649403
 30
0.0
 11
77.44508499999999
 21
49.64605
 31
0.0
  0
LINE
  5
459
330
25
100
AcDbEntity
  8
2
100
AcDbLine
 10
87.60563299999999
 20
50.74132500000001
 30
0.0
 11
78.044449
 21
47.73797199999999
 31
0.0
  0
ARC
  5
45A
330
25
100
AcDbEntity
  8
2
100
AcDbCircle
 10
77.74476700000001
 20
54.217647
 30
0.0
 40
1.0
100
AcDbArc
 50
98.020858
 51
286.6206009999999
  0
LINE
  5
45B
330
25
100
AcDbEntity
  8
2
100
AcDbLine
 10
77.489689
 20
53.250727
 30
0.0
 11
78.667908
 21
52.939907
 31
0.0
  0
ARC
  5
45C
330
25
100
AcDbEntity
  8
2
100
AcDbCircle
 10
77.74476700000001
 20
48.692011
 30
0.0
 40
1.0
100
AcDbArc
 50
107.438515
 51
286.6206009999999
  0
LINE
  5
45D
330
25
100
AcDbEntity
  8
2
100
AcDbLine
 10
86.66790799999999
 20
52.897894
 30
0.0
 11
87.561029
 21
52.662285
 31
0.0
  0
LINE
  5
45E
330
25
100
AcDbEntity
  8
2
100
AcDbLine
 10
81.34798599999999
 20
48.775677
 30
0.0
 11
87.561029
 21
47.136648
 31
0.0
  0
ARC
  5
45F
330
25
100
AcDbEntity
  8
2
100
AcDbCircle
 10
87.305951
 20
51.695364
 30
0.0
 40
1.0
100
AcDbArc
 50
281.107766
 51
107.438515
  0
ARC
  5
460
330
25
100
AcDbEntity
  8
2
100
AcDbCircle
 10
87.305951
 20
46.169728
 30
0.0
 40
1.0
100
AcDbArc
 50
281.107766
 51
107.438515
  0
ARC
  5
461
330
25
100
AcDbEntity
  8
2
100
AcDbCircle
 10
87.305951
 20
56.39929799999999
 30
0.0
 40
1.0
100
AcDbArc
 50
281.107766
 51
107.438515
  0
LINE
  5
462
330
25
100
AcDbEntity
  8
2
  6
CENTER
 62
     2
100
AcDbLine
 10
62.44348299999999
 20
36.458736
 30
0.0
 11
102.766477
 21
36.458736
 31
0.0
  0
LINE
  5
463
330
25
100
AcDbEntity
  8
2
  6
CENTER
 62
     2
100
AcDbLine
 10
82.667908
 20
22.774081
 30
0.0
 11
53.308529
 21
22.774081
 31
0.0
  0
LINE
  5
464
330
25
100
AcDbEntity
  8
2
100
AcDbLine
 10
65.66790799999999
 20
17.774081
 30
0.0
 11
65.66790799999999
 21
27.774081
 31
0.0
  0
ARC
  5
465
330
25
100
AcDbEntity
  8
2
100
AcDbCircle
 10
86.66790799999999
 20
38.174165
 30
0.0
 40
1.0
100
AcDbArc
 50
0.0
 51
90.0
  0
ARC
  5
466
330
25
100
AcDbEntity
  8
2
100
AcDbCircle
 10
78.667908
 20
38.174165
 30
0.0
 40
1.0
100
AcDbArc
 50
90.0
 51
147.287273
  0
LINE
  5
467
330
25
100
AcDbEntity
  8
2
100
AcDbLine
 10
78.667908
 20
39.174165
 30
0.0
 11
79.289569
 21
39.174165
 31
0.0
  0
LINE
  5
468
330
25
100
AcDbEntity
  8
2
100
AcDbLine
 10
87.667908
 20
20.065299
 30
0.0
 11
87.667908
 21
30.310229
 31
0.0
  0
LINE
  5
469
330
25
100
AcDbEntity
  8
2
100
AcDbLine
 10
77.66790799999999
 20
4.487668
 30
0.0
 11
77.66790799999999
 21
1.458736
 31
0.0
  0
ARC
  5
46A
330
25
100
AcDbEntity
  8
2
100
AcDbCircle
 10
77.76790799999999
 20
40.458736
 30
0.0
 40
1.0
100
AcDbArc
 50
90.0
 51
180.0
  0
ARC
  5
46B
330
25
100
AcDbEntity
  8
2
100
AcDbCircle
 10
87.567908
 20
40.458736
 30
0.0
 40
1.0
100
AcDbArc
 50
0.0
 51
63.950626
  0
LINE
  5
46C
330
25
100
AcDbEntity
  8
2
100
AcDbLine
 10
88.567908
 20
40.458736
 30
0.0
 11
88.567908
 21
5.387667999999999
 31
0.0
  0
LINE
  5
46D
330
25
100
AcDbEntity
  8
2
100
AcDbLine
 10
76.76790799999999
 20
40.458736
 30
0.0
 11
76.76790799999999
 21
5.387667999999999
 31
0.0
  0
LINE
  5
46E
330
25
100
AcDbEntity
  8
2
100
AcDbLine
 10
88.567908
 20
5.387667999999999
 30
0.0
 11
87.667908
 21
4.487668
 31
0.0
  0
LINE
  5
46F
330
25
100
AcDbEntity
  8
2
100
AcDbLine
 10
77.66790799999999
 20
4.487668
 30
0.0
 11
76.76790799999999
 21
5.387667999999999
 31
0.0
  0
LINE
  5
470
330
25
100
AcDbEntity
  8
2
100
AcDbLine
 10
86.66790799999999
 20
33.869858
 30
0.0
 11
86.66790799999999
 21
32.400985
 31
0.0
  0
ARC
  5
471
330
25
100
AcDbEntity
  8
2
100
AcDbCircle
 10
82.667908
 20
49.46769299999999
 30
0.0
 40
14.567094
100
AcDbArc
 50
254.062329
 51
272.574998
  0
ARC
  5
472
330
25
100
AcDbEntity
  8
2
100
AcDbCircle
 10
82.67335200000001
 20
51.528304
 30
0.0
 40
15.364572
100
AcDbArc
 50
258.719715
 51
281.24576
  0
ARC
  5
473
330
25
100
AcDbEntity
  8
2
100
AcDbCircle
 10
82.667908
 20
25.918123
 30
0.0
 40
10.96096
100
AcDbArc
 50
74.115522
 51
105.884478
  0
LINE
  5
474
330
25
100
AcDbEntity
  8
2
100
AcDbLine
 10
86.283115
 20
35.845337
 30
0.0
 11
85.66790799999999
 21
36.460544
 31
0.0
  0
LINE
  5
475
330
25
100
AcDbEntity
  8
2
100
AcDbLine
 10
79.667908
 20
36.460544
 30
0.0
 11
78.667908
 21
35.460544
 31
0.0
  0
LINE
  5
476
330
25
100
AcDbEntity
  8
2
100
AcDbLine
 10
78.667908
 20
35.460544
 30
0.0
 11
78.667908
 21
33.45325300000001
 31
0.0
  0
ARC
  5
477
330
25
100
AcDbEntity
  8
2
100
AcDbCircle
 10
86.66790799999999
 20
30.228422
 30
0.0
 40
1.0
100
AcDbArc
 50
0.0
 51
90.0
  0
ARC
  5
478
330
25
100
AcDbEntity
  8
2
100
AcDbCircle
 10
78.667908
 20
30.228422
 30
0.0
 40
1.0
100
AcDbArc
 50
90.0
 51
180.0
  0
LINE
  5
479
330
25
100
AcDbEntity
  8
2
100
AcDbLine
 10
78.667908
 20
31.228422
 30
0.0
 11
86.66790799999999
 21
31.228422
 31
0.0
  0
LINE
  5
47A
330
25
100
AcDbEntity
  8
2
100
AcDbLine
 10
86.66790799999999
 20
31.228422
 30
0.0
 11
78.667908
 21
31.228422
 31
0.0
  0
ARC
  5
47B
330
25
100
AcDbEntity
  8
2
100
AcDbCircle
 10
78.667908
 20
30.228422
 30
0.0
 40
1.0
100
AcDbArc
 50
90.0
 51
180.0
  0
ARC
  5
47C
330
25
100
AcDbEntity
  8
2
100
AcDbCircle
 10
86.66790799999999
 20
30.228422
 30
0.0
 40
1.0
100
AcDbArc
 50
0.0
 51
90.0
  0
ARC
  5
47D
330
25
100
AcDbEntity
  8
2
100
AcDbCircle
 10
86.66790799999999
 20
20.065299
 30
0.0
 40
1.0
100
AcDbArc
 50
270.0
 51
360.0
  0
ARC
  5
47E
330
25
100
AcDbEntity
  8
2
100
AcDbCircle
 10
78.667908
 20
20.065299
 30
0.0
 40
1.0
100
AcDbArc
 50
180.0
 51
270.0
  0
LINE
  5
47F
330
25
100
AcDbEntity
  8
2
100
AcDbLine
 10
86.66790799999999
 20
19.065299
 30
0.0
 11
78.667908
 21
19.065299
 31
0.0
  0
LINE
  5
480
330
25
100
AcDbEntity
  8
2
100
AcDbLine
 10
78.667908
 20
19.065299
 30
0.0
 11
86.66790799999999
 21
19.065299
 31
0.0
  0
ARC
  5
481
330
25
100
AcDbEntity
  8
2
100
AcDbCircle
 10
78.667908
 20
20.065299
 30
0.0
 40
1.0
100
AcDbArc
 50
180.0
 51
270.0
  0
ARC
  5
482
330
25
100
AcDbEntity
  8
2
100
AcDbCircle
 10
86.66790799999999
 20
20.065299
 30
0.0
 40
1.0
100
AcDbArc
 50
270.0
 51
360.0
  0
ARC
  5
483
330
25
100
AcDbEntity
  8
2
100
AcDbCircle
 10
86.66790799999999
 20
1.458736
 30
0.0
 40
1.0
100
AcDbArc
 50
270.0
 51
360.0
  0
ARC
  5
484
330
25
100
AcDbEntity
  8
2
100
AcDbCircle
 10
78.667908
 20
1.458736
 30
0.0
 40
1.0
100
AcDbArc
 50
180.0
 51
270.0
  0
LINE
  5
485
330
25
100
AcDbEntity
  8
2
100
AcDbLine
 10
78.667908
 20
0.458736
 30
0.0
 11
86.66790799999999
 21
0.458736
 31
0.0
  0
LINE
  5
486
330
25
100
AcDbEntity
  8
2
100
AcDbLine
 10
86.66790799999999
 20
0.458736
 30
0.0
 11
78.667908
 21
0.458736
 31
0.0
  0
ARC
  5
487
330
25
100
AcDbEntity
  8
2
100
AcDbCircle
 10
78.667908
 20
1.458736
 30
0.0
 40
1.0
100
AcDbArc
 50
180.0
 51
270.0
  0
ARC
  5
488
330
25
100
AcDbEntity
  8
2
100
AcDbCircle
 10
86.66790799999999
 20
1.458736
 30
0.0
 40
1.0
100
AcDbArc
 50
270.0
 51
360.0
  0
LINE
  5
489
330
25
100
AcDbEntity
  8
2
100
AcDbLine
 10
87.667908
 20
1.458736
 30
0.0
 11
87.667908
 21
4.487668
 31
0.0
  0
LINE
  5
48A
330
25
100
AcDbEntity
  8
2
100
AcDbLine
 10
77.66790799999999
 20
36.64369600000001
 30
0.0
 11
77.66790799999999
 21
33.13913400000001
 31
0.0
  0
LINE
  5
48B
330
25
100
AcDbEntity
  8
2
100
AcDbLine
 10
80.29751800000001
 20
41.458736
 30
0.0
 11
77.76790799999999
 21
41.458736
 31
0.0
  0
LINE
  5
48C
330
25
100
AcDbEntity
  8
2
100
AcDbLine
 10
85.96330599999999
 20
39.174165
 30
0.0
 11
86.66790799999999
 21
39.174165
 31
0.0
  0
LINE
  5
48D
330
25
100
AcDbEntity
  8
2
100
AcDbLine
 10
78.667908
 20
31.356903
 30
0.0
 11
78.667908
 21
31.228422
 31
0.0
  0
LINE
  5
48E
330
25
100
AcDbEntity
  8
2
100
AcDbLine
 10
77.66790799999999
 20
31.11806
 30
0.0
 11
77.66790799999999
 21
20.065299
 31
0.0
  0
LINE
  5
48F
330
25
100
AcDbEntity
  8
2
100
AcDbLine
 10
87.667908
 20
32.304313
 30
0.0
 11
87.667908
 21
34.18626
 31
0.0
  0
LINE
  5
490
330
25
100
AcDbEntity
  8
2
100
AcDbLine
 10
87.667908
 20
36.05065
 30
0.0
 11
87.667908
 21
38.174165
 31
0.0
  0
LINE
  5
491
330
25
100
AcDbEntity
  8
2
100
AcDbLine
 10
157.667908
 20
7.458736
 30
0.0
 11
157.667908
 21
5.458736
 31
0.0
  0
LINE
  5
492
330
25
100
AcDbEntity
  8
2
100
AcDbLine
 10
142.531757
 20
6.958736
 30
0.0
 11
142.531757
 21
5.958736
 31
0.0
  0
LINE
  5
493
330
25
100
AcDbEntity
  8
2
100
AcDbLine
 10
140.935355
 20
6.958736
 30
0.0
 11
140.935355
 21
5.958736
 31
0.0
  0
LINE
  5
494
330
25
100
AcDbEntity
  8
2
100
AcDbLine
 10
137.582583
 20
6.958736
 30
0.0
 11
137.582583
 21
5.958736
 31
0.0
  0
LINE
  5
495
330
25
100
AcDbEntity
  8
2
100
AcDbLine
 10
132.576449
 20
6.958736
 30
0.0
 11
132.576449
 21
5.958736
 31
0.0
  0
LINE
  5
496
330
25
100
AcDbEntity
  8
2
100
AcDbLine
 10
126.069061
 20
6.958736
 30
0.0
 11
126.069061
 21
5.958736
 31
0.0
  0
LINE
  5
497
330
25
100
AcDbEntity
  8
2
100
AcDbLine
 10
118.258144
 20
6.958736
 30
0.0
 11
118.258144
 21
5.958736
 31
0.0
  0
LINE
  5
498
330
25
100
AcDbEntity
  8
2
100
AcDbLine
 10
109.381028
 20
6.958736
 30
0.0
 11
109.381028
 21
5.958736
 31
0.0
  0
LINE
  5
499
330
25
100
AcDbEntity
  8
2
100
AcDbLine
 10
57.66790799999999
 20
6.958736
 30
0.0
 11
57.66790799999999
 21
5.958736
 31
0.0
  0
LINE
  5
49A
330
25
100
AcDbEntity
  8
2
100
AcDbLine
 10
32.66790800000001
 20
7.458736
 30
0.0
 11
32.66790800000001
 21
5.458736
 31
0.0
  0
LINE
  5
49B
330
25
100
AcDbEntity
  8
2
100
AcDbLine
 10
139.859276
 20
6.958736
 30
0.0
 11
139.859276
 21
5.958736
 31
0.0
  0
LINE
  5
49C
330
25
100
AcDbEntity
  8
2
100
AcDbLine
 10
136.031831
 20
6.958736
 30
0.0
 11
136.031831
 21
5.958736
 31
0.0
  0
LINE
  5
49D
330
25
100
AcDbEntity
  8
2
100
AcDbLine
 10
130.583392
 20
6.958736
 30
0.0
 11
130.583392
 21
5.958736
 31
0.0
  0
LINE
  5
49E
330
25
100
AcDbEntity
  8
2
100
AcDbLine
 10
123.679509
 20
6.958736
 30
0.0
 11
123.679509
 21
5.958736
 31
0.0
  0
LINE
  5
49F
330
25
100
AcDbEntity
  8
2
100
AcDbLine
 10
115.52995
 20
6.958736
 30
0.0
 11
115.52995
 21
5.958736
 31
0.0
  0
LINE
  5
4A0
330
25
100
AcDbEntity
  8
2
100
AcDbLine
 10
106.382338
 20
6.958736
 30
0.0
 11
106.382338
 21
5.958736
 31
0.0
  0
LINE
  5
4A1
330
25
100
AcDbEntity
  8
2
100
AcDbLine
 10
99.721522
 20
6.958736
 30
0.0
 11
99.721522
 21
5.958736
 31
0.0
  0
LINE
  5
4A2
330
25
100
AcDbEntity
  8
2
100
AcDbLine
 10
96.514617
 20
6.958736
 30
0.0
 11
96.514617
 21
5.958736
 31
0.0
  0
ARC
  5
4A3
330
25
100
AcDbEntity
  8
2
100
AcDbCircle
 10
142.031757
 20
6.958736
 30
0.0
 40
0.5
100
AcDbArc
 50
0.0
 51
90.0
  0
ARC
  5
4A4
330
25
100
AcDbEntity
  8
2
100
AcDbCircle
 10
142.031757
 20
5.958736
 30
0.0
 40
0.5
100
AcDbArc
 50
270.0
 51
360.0
  0
ARC
  5
4A5
330
25
100
AcDbEntity
  8
2
100
AcDbCircle
 10
140.435355
 20
6.958736
 30
0.0
 40
0.5
100
AcDbArc
 50
0.0
 51
90.0
  0
ARC
  5
4A6
330
25
100
AcDbEntity
  8
2
100
AcDbCircle
 10
140.435355
 20
5.958736
 30
0.0
 40
0.5
100
AcDbArc
 50
270.0
 51
360.0
  0
ARC
  5
4A7
330
25
100
AcDbEntity
  8
2
100
AcDbCircle
 10
139.359276
 20
6.958736
 30
0.0
 40
0.5
100
AcDbArc
 50
0.0
 51
90.0
  0
ARC
  5
4A8
330
25
100
AcDbEntity
  8
2
100
AcDbCircle
 10
139.359276
 20
5.958736
 30
0.0
 40
0.5
100
AcDbArc
 50
270.0
 51
360.0
  0
ARC
  5
4A9
330
25
100
AcDbEntity
  8
2
100
AcDbCircle
 10
137.082583
 20
5.958736
 30
0.0
 40
0.5
100
AcDbArc
 50
270.0
 51
360.0
  0
ARC
  5
4AA
330
25
100
AcDbEntity
  8
2
100
AcDbCircle
 10
137.082583
 20
6.958736
 30
0.0
 40
0.5
100
AcDbArc
 50
0.0
 51
90.0
  0
ARC
  5
4AB
330
25
100
AcDbEntity
  8
2
100
AcDbCircle
 10
135.531831
 20
6.958736
 30
0.0
 40
0.5
100
AcDbArc
 50
0.0
 51
90.0
  0
ARC
  5
4AC
330
25
100
AcDbEntity
  8
2
100
AcDbCircle
 10
135.531831
 20
5.958736
 30
0.0
 40
0.5
100
AcDbArc
 50
270.0
 51
360.0
  0
ARC
  5
4AD
330
25
100
AcDbEntity
  8
2
100
AcDbCircle
 10
132.076449
 20
6.958736
 30
0.0
 40
0.5
100
AcDbArc
 50
0.0
 51
90.0
  0
ARC
  5
4AE
330
25
100
AcDbEntity
  8
2
100
AcDbCircle
 10
132.076449
 20
5.958736
 30
0.0
 40
0.5
100
AcDbArc
 50
270.0
 51
360.0
  0
ARC
  5
4AF
330
25
100
AcDbEntity
  8
2
100
AcDbCircle
 10
130.083392
 20
6.958736
 30
0.0
 40
0.5
100
AcDbArc
 50
0.0
 51
90.0
  0
ARC
  5
4B0
330
25
100
AcDbEntity
  8
2
100
AcDbCircle
 10
130.083392
 20
5.958736
 30
0.0
 40
0.5
100
AcDbArc
 50
270.0
 51
360.0
  0
ARC
  5
4B1
330
25
100
AcDbEntity
  8
2
100
AcDbCircle
 10
125.569061
 20
6.958736
 30
0.0
 40
0.5
100
AcDbArc
 50
0.0
 51
90.0
  0
ARC
  5
4B2
330
25
100
AcDbEntity
  8
2
100
AcDbCircle
 10
125.569061
 20
5.958736
 30
0.0
 40
0.5
100
AcDbArc
 50
270.0
 51
360.0
  0
ARC
  5
4B3
330
25
100
AcDbEntity
  8
2
100
AcDbCircle
 10
123.179509
 20
6.958736
 30
0.0
 40
0.5
100
AcDbArc
 50
0.0
 51
90.0
  0
ARC
  5
4B4
330
25
100
AcDbEntity
  8
2
100
AcDbCircle
 10
123.179509
 20
5.958736
 30
0.0
 40
0.5
100
AcDbArc
 50
270.0
 51
360.0
  0
ARC
  5
4B5
330
25
100
AcDbEntity
  8
2
100
AcDbCircle
 10
117.758144
 20
6.958736
 30
0.0
 40
0.5
100
AcDbArc
 50
0.0
 51
90.0
  0
ARC
  5
4B6
330
25
100
AcDbEntity
  8
2
100
AcDbCircle
 10
117.758144
 20
5.958736
 30
0.0
 40
0.5
100
AcDbArc
 50
270.0
 51
360.0
  0
ARC
  5
4B7
330
25
100
AcDbEntity
  8
2
100
AcDbCircle
 10
115.02995
 20
6.958736
 30
0.0
 40
0.5
100
AcDbArc
 50
0.0
 51
90.0
  0
ARC
  5
4B8
330
25
100
AcDbEntity
  8
2
100
AcDbCircle
 10
115.02995
 20
5.958736
 30
0.0
 40
0.5
100
AcDbArc
 50
270.0
 51
360.0
  0
ARC
  5
4B9
330
25
100
AcDbEntity
  8
2
100
AcDbCircle
 10
108.881028
 20
6.958736
 30
0.0
 40
0.5
100
AcDbArc
 50
0.0
 51
90.0
  0
ARC
  5
4BA
330
25
100
AcDbEntity
  8
2
100
AcDbCircle
 10
108.881028
 20
5.958736
 30
0.0
 40
0.5
100
AcDbArc
 50
270.0
 51
360.0
  0
ARC
  5
4BB
330
25
100
AcDbEntity
  8
2
100
AcDbCircle
 10
105.882338
 20
6.958736
 30
0.0
 40
0.5
100
AcDbArc
 50
0.0
 51
90.0
  0
ARC
  5
4BC
330
25
100
AcDbEntity
  8
2
100
AcDbCircle
 10
105.882338
 20
5.958736
 30
0.0
 40
0.5
100
AcDbArc
 50
270.0
 51
360.0
  0
ARC
  5
4BD
330
25
100
AcDbEntity
  8
2
100
AcDbCircle
 10
99.22152199999999
 20
5.958736
 30
0.0
 40
0.5
100
AcDbArc
 50
270.0
 51
360.0
  0
ARC
  5
4BE
330
25
100
AcDbEntity
  8
2
100
AcDbCircle
 10
99.22152199999999
 20
6.958736
 30
0.0
 40
0.5
100
AcDbArc
 50
0.0
 51
90.0
  0
ARC
  5
4BF
330
25
100
AcDbEntity
  8
2
100
AcDbCircle
 10
96.01461700000001
 20
6.958736
 30
0.0
 40
0.5
100
AcDbArc
 50
0.0
 51
90.0
  0
ARC
  5
4C0
330
25
100
AcDbEntity
  8
2
100
AcDbCircle
 10
96.01461700000001
 20
5.958736
 30
0.0
 40
0.5
100
AcDbArc
 50
270.0
 51
360.0
  0
ARC
  5
4C1
330
25
100
AcDbEntity
  8
2
100
AcDbCircle
 10
58.16790799999999
 20
6.958736
 30
0.0
 40
0.5
100
AcDbArc
 50
90.0
 51
180.0
  0
ARC
  5
4C2
330
25
100
AcDbEntity
  8
2
100
AcDbCircle
 10
58.16790799999999
 20
5.958736
 30
0.0
 40
0.5
100
AcDbArc
 50
180.0
 51
270.0
  0
LINE
  5
4C3
330
25
100
AcDbEntity
  8
2
100
AcDbLine
 10
75.66790799999999
 20
6.958736
 30
0.0
 11
75.66790799999999
 21
5.958736
 31
0.0
  0
ARC
  5
4C4
330
25
100
AcDbEntity
  8
2
100
AcDbCircle
 10
75.16790799999999
 20
6.958736
 30
0.0
 40
0.5
100
AcDbArc
 50
0.0
 51
90.0
  0
LINE
  5
4C5
330
25
100
AcDbEntity
  8
2
100
AcDbLine
 10
157.667908
 20
7.458736
 30
0.0
 11
88.567908
 21
7.458736
 31
0.0
  0
ARC
  5
4C6
330
25
100
AcDbEntity
  8
2
100
AcDbCircle
 10
75.16790799999999
 20
5.958736
 30
0.0
 40
0.5
100
AcDbArc
 50
270.0
 51
360.0
  0
LINE
  5
4C7
330
25
100
AcDbEntity
  8
2
100
AcDbLine
 10
157.667908
 20
5.458736
 30
0.0
 11
88.567908
 21
5.458736
 31
0.0
  0
LINE
  5
4C8
330
25
100
AcDbEntity
  8
2
100
AcDbLine
 10
76.76790799999999
 20
7.458736
 30
0.0
 11
32.66790800000001
 21
7.458736
 31
0.0
  0
ARC
  5
4C9
330
25
100
AcDbEntity
  8
2
100
AcDbCircle
 10
89.24948699999999
 20
5.958736
 30
0.0
 40
0.5
100
AcDbArc
 50
270.0
 51
360.0
  0
ARC
  5
4CA
330
25
100
AcDbEntity
  8
2
100
AcDbCircle
 10
89.24948699999999
 20
6.958736
 30
0.0
 40
0.5
100
AcDbArc
 50
0.0
 51
90.0
  0
LINE
  5
4CB
330
25
100
AcDbEntity
  8
2
100
AcDbLine
 10
89.749487
 20
6.958736
 30
0.0
 11
89.749487
 21
5.958736
 31
0.0
  0
LINE
  5
4CC
330
25
100
AcDbEntity
  8
2
100
AcDbLine
 10
76.76790799999999
 20
5.458736
 30
0.0
 11
32.66790800000001
 21
5.458736
 31
0.0
  0
LINE
  5
4CD
330
25
100
AcDbEntity
  8
2
100
AcDbLine
 10
56.667908
 20
22.774081
 30
0.0
 11
56.667908
 21
25.233081
 31
0.0
  0
LINE
  5
4CE
330
25
100
AcDbEntity
  8
2
100
AcDbLine
 10
56.667908
 20
25.233081
 30
0.0
 11
57.20890799999999
 21
25.774081
 31
0.0
  0
LINE
  5
4CF
330
25
100
AcDbEntity
  8
2
100
AcDbLine
 10
57.20890799999999
 20
25.774081
 30
0.0
 11
60.68683599999999
 21
25.774081
 31
0.0
  0
LINE
  5
4D0
330
25
100
AcDbEntity
  8
2
100
AcDbLine
 10
57.20890799999999
 20
25.774081
 30
0.0
 11
57.20890799999999
 21
22.774081
 31
0.0
  0
LINE
  5
4D1
330
25
100
AcDbEntity
  8
2
100
AcDbLine
 10
56.667908
 20
22.774081
 30
0.0
 11
56.667908
 21
20.315081
 31
0.0
  0
LINE
  5
4D2
330
25
100
AcDbEntity
  8
2
100
AcDbLine
 10
56.667908
 20
20.315081
 30
0.0
 11
57.20890799999999
 21
19.774081
 31
0.0
  0
LINE
  5
4D3
330
25
100
AcDbEntity
  8
2
100
AcDbLine
 10
57.20890799999999
 20
19.774081
 30
0.0
 11
60.68683599999999
 21
19.774081
 31
0.0
  0
LINE
  5
4D4
330
25
100
AcDbEntity
  8
2
100
AcDbLine
 10
57.20890799999999
 20
19.774081
 30
0.0
 11
57.20890799999999
 21
22.774081
 31
0.0
  0
POINT
  5
4D5
330
25
100
AcDbEntity
  8
2
100
AcDbPoint
 10
65.66790799999999
 20
22.774081
 30
0.0
  0
LINE
  5
4D6
330
25
100
AcDbEntity
  8
2
100
AcDbLine
 10
65.66790799999999
 20
22.774081
 30
0.0
 11
65.66790799999999
 21
17.774081
 31
0.0
  0
LINE
  5
4D7
330
25
100
AcDbEntity
  8
2
100
AcDbLine
 10
65.66790799999999
 20
17.774081
 30
0.0
 11
61.158655
 21
17.774081
 31
0.0
  0
LINE
  5
4D8
330
25
100
AcDbEntity
  8
2
100
AcDbLine
 10
60.66790799999999
 20
20.274081
 30
0.0
 11
60.66790799999999
 21
22.774081
 31
0.0
  0
LINE
  5
4D9
330
25
100
AcDbEntity
  8
2
100
AcDbLine
 10
65.66790799999999
 20
22.774081
 30
0.0
 11
61.158655
 21
22.774081
 31
0.0
  0
ARC
  5
4DA
330
25
100
AcDbEntity
  8
2
100
AcDbCircle
 10
67.281115
 20
20.274081
 30
0.0
 40
6.613208
100
AcDbArc
 50
157.788205
 51
202.211795
  0
LINE
  5
4DB
330
25
100
AcDbEntity
  8
2
100
AcDbLine
 10
65.66790799999999
 20
22.774081
 30
0.0
 11
65.66790799999999
 21
27.774081
 31
0.0
  0
LINE
  5
4DC
330
25
100
AcDbEntity
  8
2
100
AcDbLine
 10
65.66790799999999
 20
27.774081
 30
0.0
 11
61.158655
 21
27.774081
 31
0.0
  0
LINE
  5
4DD
330
25
100
AcDbEntity
  8
2
100
AcDbLine
 10
60.66790799999999
 20
25.274081
 30
0.0
 11
60.66790799999999
 21
22.774081
 31
0.0
  0
LINE
  5
4DE
330
25
100
AcDbEntity
  8
2
100
AcDbLine
 10
65.66790799999999
 20
22.774081
 30
0.0
 11
61.158655
 21
22.774081
 31
0.0
  0
ARC
  5
4DF
330
25
100
AcDbEntity
  8
2
100
AcDbCircle
 10
67.281115
 20
25.274081
 30
0.0
 40
6.613208
100
AcDbArc
 50
157.788205
 51
202.211795
  0
LINE
  5
4E0
330
25
100
AcDbEntity
  8
2
 62
     2
100
AcDbLine
 10
56.667908
 20
20.315081
 30
0.0
 11
60.66790799999999
 21
20.315081
 31
0.0
  0
LINE
  5
4E1
330
25
100
AcDbEntity
  8
2
 62
     2
100
AcDbLine
 10
56.667908
 20
25.233081
 30
0.0
 11
60.66790799999999
 21
25.233081
 31
0.0
  0
POINT
  5
4E2
330
25
100
AcDbEntity
  8
2
100
AcDbPoint
 10
107.416645
 20
7.458736
 30
0.0
  0
LINE
  5
4E3
330
25
100
AcDbEntity
  8
2
  6
CENTER
 62
     2
100
AcDbLine
 10
107.416645
 20
-20.59986
 30
0.0
 11
107.416645
 21
16.550449
 31
0.0
  0
LINE
  5
4E4
330
25
100
AcDbEntity
  8
2
100
AcDbLine
 10
107.416645
 20
7.458736
 30
0.0
 11
100.916645
 21
7.458736
 31
0.0
  0
LINE
  5
4E5
330
25
100
AcDbEntity
  8
2
100
AcDbLine
 10
100.916645
 20
7.458736
 30
0.0
 11
100.916645
 21
12.237048
 31
0.0
  0
LINE
  5
4E6
330
25
100
AcDbEntity
  8
2
100
AcDbLine
 10
104.166645
 20
12.958736
 30
0.0
 11
107.416645
 21
12.958736
 31
0.0
  0
LINE
  5
4E7
330
25
100
AcDbEntity
  8
2
100
AcDbLine
 10
107.416645
 20
7.458736
 30
0.0
 11
107.416645
 21
12.237048
 31
0.0
  0
ARC
  5
4E8
330
25
100
AcDbEntity
  8
2
100
AcDbCircle
 10
104.166645
 20
5.279976999999999
 30
0.0
 40
7.678758999999999
100
AcDbArc
 50
64.96034
 51
115.03966
  0
LINE
  5
4E9
330
25
100
AcDbEntity
  8
2
100
AcDbLine
 10
107.416645
 20
-17.541264
 30
0.0
 11
104.093145
 21
-17.541264
 31
0.0
  0
LINE
  5
4EA
330
25
100
AcDbEntity
  8
2
100
AcDbLine
 10
104.093145
 20
-17.541264
 30
0.0
 11
103.416645
 21
-16.864764
 31
0.0
  0
LINE
  5
4EB
330
25
100
AcDbEntity
  8
2
100
AcDbLine
 10
103.416645
 20
-16.864764
 30
0.0
 11
103.416645
 21
-15.00455
 31
0.0
  0
LINE
  5
4EC
330
25
100
AcDbEntity
  8
2
100
AcDbLine
 10
103.416645
 20
-16.864764
 30
0.0
 11
107.416645
 21
-16.864764
 31
0.0
  0
LINE
  5
4ED
330
25
100
AcDbEntity
  8
2
 62
     2
100
AcDbLine
 10
104.093145
 20
-17.541264
 30
0.0
 11
104.093145
 21
-15.040913
 31
0.0
  0
LINE
  5
4EE
330
25
100
AcDbEntity
  8
2
100
AcDbLine
 10
107.416645
 20
7.458736
 30
0.0
 11
113.916645
 21
7.458736
 31
0.0
  0
LINE
  5
4EF
330
25
100
AcDbEntity
  8
2
100
AcDbLine
 10
113.916645
 20
7.458736
 30
0.0
 11
113.916645
 21
12.237048
 31
0.0
  0
LINE
  5
4F0
330
25
100
AcDbEntity
  8
2
100
AcDbLine
 10
110.666645
 20
12.958736
 30
0.0
 11
107.416645
 21
12.958736
 31
0.0
  0
LINE
  5
4F1
330
25
100
AcDbEntity
  8
2
100
AcDbLine
 10
107.416645
 20
7.458736
 30
0.0
 11
107.416645
 21
12.237048
 31
0.0
  0
ARC
  5
4F2
330
25
100
AcDbEntity
  8
2
100
AcDbCircle
 10
110.666645
 20
5.279976999999999
 30
0.0
 40
7.678758999999999
100
AcDbArc
 50
64.96034
 51
115.03966
  0
LINE
  5
4F3
330
25
100
AcDbEntity
  8
2
100
AcDbLine
 10
107.416645
 20
-17.541264
 30
0.0
 11
110.740145
 21
-17.541264
 31
0.0
  0
LINE
  5
4F4
330
25
100
AcDbEntity
  8
2
100
AcDbLine
 10
110.740145
 20
-17.541264
 30
0.0
 11
111.416645
 21
-16.864764
 31
0.0
  0
LINE
  5
4F5
330
25
100
AcDbEntity
  8
2
100
AcDbLine
 10
111.416645
 20
-16.864764
 30
0.0
 11
111.416645
 21
-15.00455
 31
0.0
  0
LINE
  5
4F6
330
25
100
AcDbEntity
  8
2
100
AcDbLine
 10
111.416645
 20
-16.864764
 30
0.0
 11
107.416645
 21
-16.864764
 31
0.0
  0
LINE
  5
4F7
330
25
100
AcDbEntity
  8
2
 62
     2
100
AcDbLine
 10
110.740145
 20
-17.541264
 30
0.0
 11
110.740145
 21
-15.040913
 31
0.0
  0
POINT
  5
4F8
330
25
100
AcDbEntity
  8
2
100
AcDbPoint
 10
107.416645
 20
-6.541263999999999
 30
0.0
  0
POINT
  5
4F9
330
25
100
AcDbEntity
  8
2
100
AcDbPoint
 10
107.416645
 20
-6.541263999999999
 30
0.0
  0
LINE
  5
4FA
330
25
100
AcDbEntity
  8
2
100
AcDbLine
 10
108.034604
 20
-8.541263999999999
 30
0.0
 11
113.916645
 21
-8.541263999999999
 31
0.0
  0
LINE
  5
4FB
330
25
100
AcDbEntity
  8
2
100
AcDbLine
 10
113.916645
 20
-8.541263999999999
 30
0.0
 11
113.916645
 21
-14.319576
 31
0.0
  0
LINE
  5
4FC
330
25
100
AcDbEntity
  8
2
100
AcDbLine
 10
110.666645
 20
-15.041264
 30
0.0
 11
107.416645
 21
-15.041264
 31
0.0
  0
LINE
  5
4FD
330
25
100
AcDbEntity
  8
2
100
AcDbLine
 10
107.416645
 20
-8.639924
 30
0.0
 11
107.416645
 21
-14.319576
 31
0.0
  0
ARC
  5
4FE
330
25
100
AcDbEntity
  8
2
100
AcDbCircle
 10
110.666645
 20
-7.362505999999999
 30
0.0
 40
7.678758999999999
100
AcDbArc
 50
244.96034
 51
295.03966
  0
LINE
  5
4FF
330
25
100
AcDbEntity
  8
2
100
AcDbLine
 10
104.166645
 20
-15.041264
 30
0.0
 11
107.416645
 21
-15.041264
 31
0.0
  0
LINE
  5
500
330
25
100
AcDbEntity
  8
2
100
AcDbLine
 10
107.416645
 20
-8.541263999999999
 30
0.0
 11
107.416645
 21
-14.319576
 31
0.0
  0
ARC
  5
501
330
25
100
AcDbEntity
  8
2
100
AcDbCircle
 10
104.166645
 20
-7.362505999999999
 30
0.0
 40
7.678758999999999
100
AcDbArc
 50
250.011317
 51
295.03966
  0
LINE
  5
502
330
25
100
AcDbEntity
  8
2
100
AcDbLine
 10
115.116645
 20
-6.541263999999999
 30
0.0
 11
115.116645
 21
-8.541263999999999
 31
0.0
  0
LINE
  5
503
330
25
100
AcDbEntity
  8
2
100
AcDbLine
 10
115.116645
 20
-8.541263999999999
 30
0.0
 11
108.034604
 21
-8.541263999999999
 31
0.0
  0
LINE
  5
504
330
25
100
AcDbEntity
  8
2
100
AcDbLine
 10
99.71664500000001
 20
-6.541263999999999
 30
0.0
 11
115.116645
 21
-6.541263999999999
 31
0.0
  0
POINT
  5
505
330
25
100
AcDbEntity
  8
2
100
AcDbPoint
 10
57.919171
 20
7.458736
 30
0.0
  0
LINE
  5
506
330
25
100
AcDbEntity
  8
2
  6
CENTER
 62
     2
100
AcDbLine
 10
57.919171
 20
-20.59986
 30
0.0
 11
57.919171
 21
16.550449
 31
0.0
  0
LINE
  5
507
330
25
100
AcDbEntity
  8
2
100
AcDbLine
 10
57.919171
 20
7.458736
 30
0.0
 11
64.41917099999999
 21
7.458736
 31
0.0
  0
LINE
  5
508
330
25
100
AcDbEntity
  8
2
100
AcDbLine
 10
64.41917099999999
 20
7.458736
 30
0.0
 11
64.41917099999999
 21
12.237048
 31
0.0
  0
LINE
  5
509
330
25
100
AcDbEntity
  8
2
100
AcDbLine
 10
61.169171
 20
12.958736
 30
0.0
 11
57.919171
 21
12.958736
 31
0.0
  0
LINE
  5
50A
330
25
100
AcDbEntity
  8
2
100
AcDbLine
 10
57.919171
 20
7.458736
 30
0.0
 11
57.919171
 21
12.237048
 31
0.0
  0
ARC
  5
50B
330
25
100
AcDbEntity
  8
2
100
AcDbCircle
 10
61.169171
 20
5.279976999999999
 30
0.0
 40
7.678758999999999
100
AcDbArc
 50
64.96034
 51
115.03966
  0
LINE
  5
50C
330
25
100
AcDbEntity
  8
2
100
AcDbLine
 10
57.919171
 20
-17.541264
 30
0.0
 11
61.24267099999999
 21
-17.541264
 31
0.0
  0
LINE
  5
50D
330
25
100
AcDbEntity
  8
2
100
AcDbLine
 10
61.24267099999999
 20
-17.541264
 30
0.0
 11
61.919171
 21
-16.864764
 31
0.0
  0
LINE
  5
50E
330
25
100
AcDbEntity
  8
2
100
AcDbLine
 10
61.919171
 20
-16.864764
 30
0.0
 11
61.919171
 21
-15.00455
 31
0.0
  0
LINE
  5
50F
330
25
100
AcDbEntity
  8
2
100
AcDbLine
 10
61.919171
 20
-16.864764
 30
0.0
 11
57.919171
 21
-16.864764
 31
0.0
  0
LINE
  5
510
330
25
100
AcDbEntity
  8
2
 62
     2
100
AcDbLine
 10
61.24267099999999
 20
-17.541264
 30
0.0
 11
61.24267099999999
 21
-15.040913
 31
0.0
  0
LINE
  5
511
330
25
100
AcDbEntity
  8
2
100
AcDbLine
 10
57.919171
 20
7.458736
 30
0.0
 11
51.419171
 21
7.458736
 31
0.0
  0
LINE
  5
512
330
25
100
AcDbEntity
  8
2
100
AcDbLine
 10
51.419171
 20
7.458736
 30
0.0
 11
51.419171
 21
12.237048
 31
0.0
  0
LINE
  5
513
330
25
100
AcDbEntity
  8
2
100
AcDbLine
 10
54.66917099999999
 20
12.958736
 30
0.0
 11
57.919171
 21
12.958736
 31
0.0
  0
LINE
  5
514
330
25
100
AcDbEntity
  8
2
100
AcDbLine
 10
57.919171
 20
7.458736
 30
0.0
 11
57.919171
 21
12.237048
 31
0.0
  0
ARC
  5
515
330
25
100
AcDbEntity
  8
2
100
AcDbCircle
 10
54.66917099999999
 20
5.279976999999999
 30
0.0
 40
7.678758999999999
100
AcDbArc
 50
64.96034
 51
115.03966
  0
LINE
  5
516
330
25
100
AcDbEntity
  8
2
100
AcDbLine
 10
57.919171
 20
-17.541264
 30
0.0
 11
54.595671
 21
-17.541264
 31
0.0
  0
LINE
  5
517
330
25
100
AcDbEntity
  8
2
100
AcDbLine
 10
54.595671
 20
-17.541264
 30
0.0
 11
53.919171
 21
-16.864764
 31
0.0
  0
LINE
  5
518
330
25
100
AcDbEntity
  8
2
100
AcDbLine
 10
53.919171
 20
-16.864764
 30
0.0
 11
53.919171
 21
-15.00455
 31
0.0
  0
LINE
  5
519
330
25
100
AcDbEntity
  8
2
100
AcDbLine
 10
53.919171
 20
-16.864764
 30
0.0
 11
57.919171
 21
-16.864764
 31
0.0
  0
LINE
  5
51A
330
25
100
AcDbEntity
  8
2
 62
     2
100
AcDbLine
 10
54.595671
 20
-17.541264
 30
0.0
 11
54.595671
 21
-15.040913
 31
0.0
  0
POINT
  5
51B
330
25
100
AcDbEntity
  8
2
100
AcDbPoint
 10
57.919171
 20
-6.541263999999999
 30
0.0
  0
POINT
  5
51C
330
25
100
AcDbEntity
  8
2
100
AcDbPoint
 10
57.919171
 20
-6.541263999999999
 30
0.0
  0
LINE
  5
51D
330
25
100
AcDbEntity
  8
2
100
AcDbLine
 10
57.919171
 20
-8.541263999999999
 30
0.0
 11
51.419171
 21
-8.541263999999999
 31
0.0
  0
LINE
  5
51E
330
25
100
AcDbEntity
  8
2
100
AcDbLine
 10
51.419171
 20
-8.541263999999999
 30
0.0
 11
51.419171
 21
-14.319576
 31
0.0
  0
LINE
  5
51F
330
25
100
AcDbEntity
  8
2
100
AcDbLine
 10
54.66917099999999
 20
-15.041264
 30
0.0
 11
57.919171
 21
-15.041264
 31
0.0
  0
LINE
  5
520
330
25
100
AcDbEntity
  8
2
100
AcDbLine
 10
57.919171
 20
-8.541263999999999
 30
0.0
 11
57.919171
 21
-14.319576
 31
0.0
  0
ARC
  5
521
330
25
100
AcDbEntity
  8
2
100
AcDbCircle
 10
54.66917099999999
 20
-7.362505999999999
 30
0.0
 40
7.678758999999999
100
AcDbArc
 50
244.96034
 51
295.03966
  0
LINE
  5
522
330
25
100
AcDbEntity
  8
2
100
AcDbLine
 10
57.919171
 20
-8.541263999999999
 30
0.0
 11
64.41917099999999
 21
-8.541263999999999
 31
0.0
  0
LINE
  5
523
330
25
100
AcDbEntity
  8
2
100
AcDbLine
 10
64.41917099999999
 20
-8.541263999999999
 30
0.0
 11
64.41917099999999
 21
-14.319576
 31
0.0
  0
LINE
  5
524
330
25
100
AcDbEntity
  8
2
100
AcDbLine
 10
61.169171
 20
-15.041264
 30
0.0
 11
57.919171
 21
-15.041264
 31
0.0
  0
LINE
  5
525
330
25
100
AcDbEntity
  8
2
100
AcDbLine
 10
57.919171
 20
-8.541263999999999
 30
0.0
 11
57.919171
 21
-14.319576
 31
0.0
  0
ARC
  5
526
330
25
100
AcDbEntity
  8
2
100
AcDbCircle
 10
61.169171
 20
-7.362505999999999
 30
0.0
 40
7.678758999999999
100
AcDbArc
 50
244.96034
 51
295.03966
  0
LINE
  5
527
330
25
100
AcDbEntity
  8
2
100
AcDbLine
 10
50.219171
 20
-6.541263999999999
 30
0.0
 11
50.219171
 21
-8.541263999999999
 31
0.0
  0
LINE
  5
528
330
25
100
AcDbEntity
  8
2
100
AcDbLine
 10
50.219171
 20
-8.541263999999999
 30
0.0
 11
65.61917099999999
 21
-8.541263999999999
 31
0.0
  0
LINE
  5
529
330
25
100
AcDbEntity
  8
2
100
AcDbLine
 10
65.61917099999999
 20
-8.541263999999999
 30
0.0
 11
65.61917099999999
 21
-6.541263999999999
 31
0.0
  0
LINE
  5
52A
330
25
100
AcDbEntity
  8
2
100
AcDbLine
 10
65.61917099999999
 20
-6.541263999999999
 30
0.0
 11
50.219171
 21
-6.541263999999999
 31
0.0
  0
LINE
  5
52B
330
25
100
AcDbEntity
  8
2
  6
CENTER
 62
     2
100
AcDbLine
 10
-218.093184
 20
-18.278154
 30
0.0
 11
-218.093184
 21
14.570618
 31
0.0
  0
LINE
  5
52C
330
25
100
AcDbEntity
  8
2
  6
CENTER
 62
     2
100
AcDbLine
 10
-267.590658
 20
-18.781578
 30
0.0
 11
-267.590658
 21
14.444769
 31
0.0
  0
LINE
  5
52D
330
25
100
AcDbEntity
  8
2
100
AcDbLine
 10
-292.841921
 20
7.458736
 30
0.0
 11
-292.841921
 21
5.458736
 31
0.0
  0
DIMENSION
  5
52E
330
25
100
AcDbEntity
  8
5
100
AcDbDimension
  2
*D0
 10
13.480547
 20
5.458736
 30
0.0
 11
5.550546999999999
 21
-72.871264
 31
0.0
  1
156
 71
     5
 42
-1.0
100
AcDbAlignedDimension
 13
43.427908
 23
-150.541264
 33
0.0
 14
32.66790800000001
 24
5.458736
 34
0.0
 50
90.0
100
AcDbRotatedDimension
  0
DIMENSION
  5
52F
330
25
100
AcDbEntity
  8
5
100
AcDbDimension
  2
*D1
 10
13.480547
 20
-150.541264
 30
0.0
 11
7.860547
 21
-191.011264
 31
0.0
  1
85
 71
     5
 42
-1.0
100
AcDbAlignedDimension
 13
77.66790799999999
 23
-235.441264
 33
0.0
 14
43.427908
 24
-150.541264
 34
0.0
 50
90.0
100
AcDbRotatedDimension
  0
DIMENSION
  5
530
330
25
100
AcDbEntity
  8
5
100
AcDbDimension
  2
*D2
 10
105.667908
 20
-261.486511
 30
0.0
 11
82.667908
 21
-257.186511
 31
0.0
  1
46
 71
     5
 42
-1.0
100
AcDbAlignedDimension
 13
59.667908
 23
-212.541264
 33
0.0
 14
105.667908
 24
-212.541264
 34
0.0
100
AcDbRotatedDimension
  0
DIMENSION
  5
531
330
25
100
AcDbEntity
  8
5
100
AcDbDimension
  2
*D3
 10
-335.49295
 20
240.24296
 30
0.0
 11
-341.11295
 21
204.72296
 31
0.0
  1
75
 71
     5
 42
-1.0
100
AcDbAlignedDimension
 13
-322.130847
 23
165.24296
 33
0.0
 14
-257.842159
 24
240.24296
 34
0.0
 50
90.0
100
AcDbRotatedDimension
  0
DIMENSION
  5
532
330
25
100
AcDbEntity
  8
5
100
AcDbDimension
  2
*D4
 10
-335.49295
 20
165.24296
 30
0.0
 11
-341.11295
 21
142.22296
 31
0.0
  1
50
 71
     5
 42
-1.0
100
AcDbAlignedDimension
 13
-242.842159
 23
115.24296
 33
0.0
 14
-322.130847
 24
165.24296
 34
0.0
 50
90.0
100
AcDbRotatedDimension
  0
TEXT
  5
533
330
25
100
AcDbEntity
  8
5
100
AcDbText
 10
-156.771191
 20
82.791122
 30
0.0
 40
6.599999999999999
  1
200
 41
0.7077777777777778
 72
     5
 11
-144.759191
 21
82.791122
 31
0.0
100
AcDbText
  0
DIMENSION
  5
534
330
25
100
AcDbEntity
  8
5
100
AcDbDimension
  2
*D5
 10
-42.98046099999999
 20
81.791122
 30
0.0
 11
-142.911191
 21
83.79112199999999
 31
0.0
 71
     5
 42
-1.0
100
AcDbAlignedDimension
 13
-242.841921
 23
52.531397
 33
0.0
 14
-42.98046099999999
 24
64.17905199999999
 34
0.0
100
AcDbRotatedDimension
  0
TEXT
  5
535
330
25
100
AcDbEntity
  8
5
100
AcDbText
 10
12.480547
 20
20.067423
 30
0.0
 40
6.599999999999999
  1
66(概略)
 50
90.0
 41
1.00287250285621
 72
     5
 11
12.480547
 21
55.179422
 31
0.0
100
AcDbText
  0
DIMENSION
  5
536
330
25
100
AcDbEntity
  8
5
100
AcDbDimension
  2
*D6
 10
13.480547
 20
71.63611
 30
0.0
 11
10.980547
 21
38.547423
 31
0.0
 71
     5
 42
-1.0
100
AcDbAlignedDimension
 13
32.66790800000001
 23
5.458736
 33
0.0
 14
82.667908
 24
71.63611
 34
0.0
 50
90.0
100
AcDbRotatedDimension
  0
TEXT
  5
537
330
25
100
AcDbEntity
  8
18
100
AcDbText
 10
244.289261
 20
-266.527985
 30
0.0
 40
6.0
  1
1
100
AcDbText
  0
TEXT
  5
538
330
25
100
AcDbEntity
  8
18
100
AcDbText
 10
253.082458
 20
-274.202026
 30
0.0
 40
6.0
  1
2
100
AcDbText
  0
TEXT
  5
539
330
25
100
AcDbEntity
  8
18
100
AcDbText
 10
245.708481
 20
-254.070526
 30
0.0
 40
6.0
  1
標準仕様　JIS 5K,10K
100
AcDbText
  0
TEXT
  5
53A
330
25
100
AcDbEntity
  8
18
100
AcDbText
 10
245.708481
 20
-246.070526
 30
0.0
 40
6.0
  1
700G-1TLS   80A
100
AcDbText
  0
TEXT
  5
53B
330
25
100
AcDbEntity
  8
18
100
AcDbText
 10
307.2
 20
-272.0
 30
0.0
 40
10.0
  1
D3－03633
100
AcDbText
  0
TEXT
  5
53C
330
25
100
AcDbEntity
  8
18
100
AcDbText
 10
364.701019
 20
-254.997955
 30
0.0
 40
4.5
  1
'05. 1.26
100
AcDbText
  0
LINE
  5
53D
330
25
100
AcDbEntity
  8
20
 62
     3
100
AcDbLine
 10
-360.0
 20
-277.0
 30
0.0
 11
400.0
 21
-277.0
 31
0.0
  0
LINE
  5
53E
330
25
100
AcDbEntity
  8
20
 62
     3
100
AcDbLine
 10
-360.0
 20
264.0
 30
0.0
 11
400.0
 21
264.0
 31
0.0
  0
LINE
  5
53F
330
25
100
AcDbEntity
  8
20
 62
     3
100
AcDbLine
 10
-360.0
 20
264.0
 30
0.0
 11
-360.0
 21
-277.0
 31
0.0
  0
LINE
  5
540
330
25
100
AcDbEntity
  8
20
 62
     3
100
AcDbLine
 10
400.0
 20
264.0
 30
0.0
 11
400.0
 21
-277.0
 31
0.0
  0
LINE
  5
541
330
25
100
AcDbEntity
  8
20
 62
     3
100
AcDbLine
 10
120.0
 20
-277.0
 30
0.0
 11
120.0
 21
-237.0
 31
0.0
  0
LINE
  5
542
330
25
100
AcDbEntity
  8
20
 62
     3
100
AcDbLine
 10
214.0
 20
-277.0
 30
0.0
 11
214.0
 21
-237.0
 31
0.0
  0
LINE
  5
543
330
25
100
AcDbEntity
  8
20
100
AcDbLine
 10
214.0
 20
-257.0
 30
0.0
 11
400.0
 21
-257.0
 31
0.0
  0
LINE
  5
544
330
25
100
AcDbEntity
  8
20
 62
     3
100
AcDbLine
 10
120.0
 20
-237.0
 30
0.0
 11
400.0
 21
-237.0
 31
0.0
  0
LINE
  5
545
330
25
100
AcDbEntity
  8
20
100
AcDbLine
 10
360.0
 20
-257.0
 30
0.0
 11
360.0
 21
-237.0
 31
0.0
  0
LINE
  5
546
330
25
100
AcDbEntity
  8
20
100
AcDbLine
 10
360.0
 20
-247.0
 30
0.0
 11
400.0
 21
-247.0
 31
0.0
  0
LINE
  5
547
330
25
100
AcDbEntity
  8
20
100
AcDbLine
 10
242.0
 20
-277.0
 30
0.0
 11
242.0
 21
-237.0
 31
0.0
  0
LINE
  5
548
330
25
100
AcDbEntity
  8
20
100
AcDbLine
 10
262.0
 20
-277.0
 30
0.0
 11
262.0
 21
-257.0
 31
0.0
  0
LINE
  5
549
330
25
100
AcDbEntity
  8
20
100
AcDbLine
 10
302.0
 20
-277.0
 30
0.0
 11
302.0
 21
-257.0
 31
0.0
  0
LINE
  5
54A
330
25
100
AcDbEntity
  8
20
100
AcDbLine
 10
247.456829
 20
-271.543171
 30
0.0
 11
255.796581
 21
-263.203419
 31
0.0
  0
TEXT
  5
54B
330
25
100
AcDbEntity
  8
20
100
AcDbText
 10
264.7354559408889
 20
-264.993835
 30
0.0
 40
3.6
  1
DRAWING No.
100
AcDbText
  0
TEXT
  5
54C
330
25
100
AcDbEntity
  8
20
100
AcDbText
 10
267.0
 20
-273.0
 30
0.0
 40
6.0
  1
図　　番
100
AcDbText
  0
TEXT
  5
54D
330
25
100
AcDbEntity
  8
20
100
AcDbText
 10
372.0
 20
-244.0
 30
0.0
 40
4.0
  1
DATE
100
AcDbText
  0
TEXT
  5
54E
330
25
100
AcDbEntity
  8
20
100
AcDbText
 10
218.002142
 20
-265.922058
 30
0.0
 40
4.0
  1
SCALE
100
AcDbText
  0
TEXT
  5
54F
330
25
100
AcDbEntity
  8
20
100
AcDbText
 10
217.1315953548096
 20
-273.0
 30
0.0
 40
6.0
  1
尺　度
100
AcDbText
  0
TEXT
  5
550
330
25
100
AcDbEntity
  8
20
100
AcDbText
 10
216.8881292628041
 20
-244.991769
 30
0.0
 40
4.0
  1
FIG. No.
100
AcDbText
  0
TEXT
  5
551
330
25
100
AcDbEntity
  8
20
100
AcDbText
 10
217.1315953548096
 20
-253.0
 30
0.0
 40
6.0
  1
名　称
100
AcDbText
  0
TEXT
  5
552
330
25
100
AcDbEntity
  8
20
100
AcDbText
 10
123.7714316684046
 20
-252.1867328438594
 30
0.0
 40
5.0
  1
TOMOE VALVE Co., LTD.
100
AcDbText
  0
TEXT
  5
553
330
25
100
AcDbEntity
  8
20
100
AcDbText
 10
129.7192341655845
 20
-266.57962
 30
0.0
 40
8.0
  1
巴バルブ株式会社
100
AcDbText
  0
ENDSEC
  0
SECTION
  2
OBJECTS
  0
DICTIONARY
  5
5A6
330
0
100
AcDbDictionary
281
     1
  3
ACAD_COLOR
350
5DD
  3
ACAD_GROUP
350
5A7
  3
ACAD_LAYOUT
350
605
  3
ACAD_MATERIAL
350
5B3
  3
ACAD_MLEADERSTYLE
350
602
  3
ACAD_MLINESTYLE
350
5A8
  3
ACAD_PLOTSETTINGS
350
606
  3
ACAD_PLOTSTYLENAME
350
5B1
  3
ACAD_SCALELIST
350
5E0
  3
ACAD_TABLESTYLE
350
5DE
  3
ACAD_VISUALSTYLE
350
5CC
  3
ACDB_RECOMPOSE_DATA
350
620
  3
AcDbVariableDictionary
350
617
  3
DWGPROPS
350
621
  0
DICTIONARY
  5
60B
330
15
100
AcDbDictionary
280
     1
281
     1
  3
ADSK_XREC_LAYER_RECONCILED
360
60C
  0
DICTIONARY
  5
60D
330
16
100
AcDbDictionary
280
     1
281
     1
  3
ADSK_XREC_LAYER_RECONCILED
360
60E
  0
DICTIONARY
  5
60F
330
17
100
AcDbDictionary
280
     1
281
     1
  3
ADSK_XREC_LAYER_RECONCILED
360
610
  0
DICTIONARY
  5
611
330
18
100
AcDbDictionary
280
     1
281
     1
  3
ADSK_XREC_LAYER_RECONCILED
360
612
  0
DICTIONARY
  5
613
330
19
100
AcDbDictionary
280
     1
281
     1
  3
ADSK_XREC_LAYER_RECONCILED
360
614
  0
DICTIONARY
  5
615
330
1A
100
AcDbDictionary
280
     1
281
     1
  3
ADSK_XREC_LAYER_RECONCILED
360
616
  0
DICTIONARY
  5
5DD
102
{ACAD_REACTORS
330
5A6
102
}
330
5A6
100
AcDbDictionary
281
     1
  0
DICTIONARY
  5
5A7
102
{ACAD_REACTORS
330
5A6
102
}
330
5A6
100
AcDbDictionary
281
     1
  0
DICTIONARY
  5
605
102
{ACAD_REACTORS
330
5A6
102
}
330
5A6
100
AcDbDictionary
281
     1
  3
Model
350
607
  3
レイアウト1
350
608
  0
DICTIONARY
  5
5B3
102
{ACAD_REACTORS
330
5A6
102
}
330
5A6
100
AcDbDictionary
281
     1
  3
ByBlock
350
5BC
  3
ByLayer
350
5B4
  3
Global
350
5C4
  0
DICTIONARY
  5
602
102
{ACAD_REACTORS
330
5A6
102
}
330
5A6
100
AcDbDictionary
281
     1
  3
Standard
350
603
  0
DICTIONARY
  5
5A8
102
{ACAD_REACTORS
330
5A6
102
}
330
5A6
100
AcDbDictionary
281
     1
  3
STANDARD
350
5A9
  0
DICTIONARY
  5
606
102
{ACAD_REACTORS
330
5A6
102
}
330
5A6
100
AcDbDictionary
281
     1
  0
ACDBDICTIONARYWDFLT
  5
5B1
102
{ACAD_REACTORS
330
5A6
102
}
330
5A6
100
AcDbDictionary
281
     1
  3
Normal
350
5B2
100
AcDbDictionaryWithDefault
340
5B2
  0
DICTIONARY
  5
5E0
102
{ACAD_REACTORS
330
5A6
102
}
330
5A6
100
AcDbDictionary
281
     1
  3
A0
350
5E1
  3
A1
350
5E2
  3
A2
350
5E3
  3
A3
350
5E4
  3
A4
350
5E5
  3
A5
350
5E6
  3
A6
350
5E7
  3
A7
350
5E8
  3
A8
350
5E9
  3
A9
350
5EA
  3
B0
350
5EB
  3
B1
350
5EC
  3
B2
350
5ED
  3
B3
350
5EE
  3
B4
350
5EF
  3
B5
350
5F0
  3
B6
350
5F1
  3
B7
350
5F2
  3
B8
350
5F3
  3
B9
350
5F4
  3
C0
350
5F5
  3
C1
350
5F6
  3
C2
350
5F7
  3
C3
350
5F8
  3
C4
350
5F9
  3
C5
350
5FA
  3
C6
350
5FB
  3
C7
350
5FC
  3
C8
350
5FD
  3
C9
350
5FE
  3
D0
350
5FF
  3
D1
350
600
  3
D2
350
601
  0
DICTIONARY
  5
5DE
102
{ACAD_REACTORS
330
5A6
102
}
330
5A6
100
AcDbDictionary
281
     1
  3
Standard
350
5DF
  0
DICTIONARY
  5
5CC
102
{ACAD_REACTORS
330
5A6
102
}
330
5A6
100
AcDbDictionary
281
     1
  3
2dWireframe
350
5D2
  3
3D Hidden
350
5D4
  3
3dWireframe
350
5D3
  3
Basic
350
5D1
  3
Brighten
350
5D8
  3
ColorChange
350
5DC
  3
Conceptual
350
5D5
  3
Dim
350
5D7
  3
Facepattern
350
5DB
  3
Flat
350
5CD
  3
FlatWithEdges
350
5CE
  3
Gouraud
350
5CF
  3
GouraudWithEdges
350
5D0
  3
Linepattern
350
5DA
  3
Realistic
350
5D6
  3
Thicken
350
5D9
  0
XRECORD
  5
620
102
{ACAD_REACTORS
330
5A6
102
}
330
5A6
100
AcDbXrecord
280
     1
 90
        1
330
5DF
  0
DICTIONARY
  5
617
102
{ACAD_REACTORS
330
5A6
102
}
330
5A6
100
AcDbDictionary
281
     1
  3
CANNOSCALE
350
61A
  3
CMLEADERSTYLE
350
619
  3
CTABLESTYLE
350
618
  3
DIMASSOC
350
61D
  3
INDEXCTL
350
61C
  3
SORTENTS
350
61B
  0
XRECORD
  5
621
102
{ACAD_REACTORS
330
5A6
102
}
330
5A6
100
AcDbXrecord
280
     1
  1
DWGPROPS COOKIE
  2

  3

  4

  6

  7

  8
jaterika-arisa
  9

300
=
301
=
302
=
303
=
304
=
305
=
306
=
307
=
308
=
309
=
 40
0.0014415972222222
 41
2450695.0
 42
2454943.64043338
  1

 90
        0
  0
XRECORD
  5
60C
102
{ACAD_REACTORS
330
60B
102
}
330
60B
100
AcDbXrecord
280
     1
290
     1
  0
XRECORD
  5
60E
102
{ACAD_REACTORS
330
60D
102
}
330
60D
100
AcDbXrecord
280
     1
290
     1
  0
XRECORD
  5
610
102
{ACAD_REACTORS
330
60F
102
}
330
60F
100
AcDbXrecord
280
     1
290
     1
  0
XRECORD
  5
612
102
{ACAD_REACTORS
330
611
102
}
330
611
100
AcDbXrecord
280
     1
290
     1
  0
XRECORD
  5
614
102
{ACAD_REACTORS
330
613
102
}
330
613
100
AcDbXrecord
280
     1
290
     1
  0
XRECORD
  5
616
102
{ACAD_REACTORS
330
615
102
}
330
615
100
AcDbXrecord
280
     1
290
     1
  0
LAYOUT
  5
607
102
{ACAD_XDICTIONARY
360
626
102
}
102
{ACAD_REACTORS
330
605
102
}
330
605
100
AcDbPlotSettings
  1

  2
EMP01
  4

  6

 40
0.0
 41
0.0
 42
0.0
 43
0.0
 44
0.0
 45
0.0
 46
0.0
 47
0.0
 48
0.0
 49
0.0
140
0.0
141
0.0
142
1.0
143
1.0
 70
  1712
 72
     0
 73
     0
 74
     0
  7

 75
     0
147
1.0
148
0.0
149
0.0
100
AcDbLayout
  1
Model
 70
     1
 71
     0
 10
0.0
 20
0.0
 11
12.0
 21
9.0
 12
0.0
 22
0.0
 32
0.0
 14
0.0
 24
0.0
 34
0.0
 15
0.0
 25
0.0
 35
0.0
146
0.0
 13
0.0
 23
0.0
 33
0.0
 16
1.0
 26
0.0
 36
0.0
 17
0.0
 27
1.0
 37
0.0
 76
     0
330
25
331
1B
  0
LAYOUT
  5
608
102
{ACAD_XDICTIONARY
360
628
102
}
102
{ACAD_REACTORS
330
605
102
}
330
605
100
AcDbPlotSettings
  1

  2
EMP01
  4

  6

 40
0.0
 41
0.0
 42
0.0
 43
0.0
 44
0.0
 45
0.0
 46
0.0
 47
0.0
 48
0.0
 49
0.0
140
0.0
141
0.0
142
1.0
143
1.0
 70
   688
 72
     0
 73
     0
 74
     5
  7

 75
    16
147
1.0
148
0.0
149
0.0
100
AcDbLayout
  1
レイアウト1
 70
     0
 71
     1
 10
0.0
 20
0.0
 11
12.0
 21
9.0
 12
0.0
 22
0.0
 32
0.0
 14
1.000000000000000E+20
 24
1.000000000000000E+20
 34
1.000000000000000E+20
 15
-1.000000000000000E+20
 25
-1.000000000000000E+20
 35
-1.000000000000000E+20
146
0.0
 13
0.0
 23
0.0
 33
0.0
 16
1.0
 26
0.0
 36
0.0
 17
0.0
 27
1.0
 37
0.0
 76
     0
330
26
  0
MATERIAL
  5
5BC
102
{ACAD_XDICTIONARY
360
5BD
102
}
102
{ACAD_REACTORS
330
5B3
102
}
330
5B3
100
AcDbMaterial
  1
ByBlock
 72
     0
 43
0.0208333333333333
 43
0.0
 43
0.0
 43
0.0
 43
0.0
 43
0.0208333333333333
 43
0.0
 43
0.0
 43
0.0
 43
0.0
 43
1.0
 43
0.0
 43
0.0
 43
0.0
 43
0.0
 43
1.0
 77
     0
 47
0.0208333333333333
 47
0.0
 47
0.0
 47
0.0
 47
0.0
 47
0.0208333333333333
 47
0.0
 47
0.0
 47
0.0
 47
0.0
 47
1.0
 47
0.0
 47
0.0
 47
0.0
 47
0.0
 47
1.0
171
     0
 49
0.0208333333333333
 49
0.0
 49
0.0
 49
0.0
 49
0.0
 49
0.0208333333333333
 49
0.0
 49
0.0
 49
0.0
 49
0.0
 49
1.0
 49
0.0
 49
0.0
 49
0.0
 49
0.0
 49
1.0
175
     0
142
0.0208333333333333
142
0.0
142
0.0
142
0.0
142
0.0
142
0.0208333333333333
142
0.0
142
0.0
142
0.0
142
0.0
142
1.0
142
0.0
142
0.0
142
0.0
142
0.0
142
1.0
179
     0
144
0.0208333333333333
144
0.0
144
0.0
144
0.0
144
0.0
144
0.0208333333333333
144
0.0
144
0.0
144
0.0
144
0.0
144
1.0
144
0.0
144
0.0
144
0.0
144
0.0
144
1.0
147
0.0208333333333333
147
0.0
147
0.0
147
0.0
147
0.0
147
0.0208333333333333
147
0.0
147
0.0
147
0.0
147
0.0
147
1.0
147
0.0
147
0.0
147
0.0
147
0.0
147
1.0
  0
MATERIAL
  5
5B4
102
{ACAD_XDICTIONARY
360
5B5
102
}
102
{ACAD_REACTORS
330
5B3
102
}
330
5B3
100
AcDbMaterial
  1
ByLayer
 72
     0
 43
0.0208333333333333
 43
0.0
 43
0.0
 43
0.0
 43
0.0
 43
0.0208333333333333
 43
0.0
 43
0.0
 43
0.0
 43
0.0
 43
1.0
 43
0.0
 43
0.0
 43
0.0
 43
0.0
 43
1.0
 77
     0
 47
0.0208333333333333
 47
0.0
 47
0.0
 47
0.0
 47
0.0
 47
0.0208333333333333
 47
0.0
 47
0.0
 47
0.0
 47
0.0
 47
1.0
 47
0.0
 47
0.0
 47
0.0
 47
0.0
 47
1.0
171
     0
 49
0.0208333333333333
 49
0.0
 49
0.0
 49
0.0
 49
0.0
 49
0.0208333333333333
 49
0.0
 49
0.0
 49
0.0
 49
0.0
 49
1.0
 49
0.0
 49
0.0
 49
0.0
 49
0.0
 49
1.0
175
     0
142
0.0208333333333333
142
0.0
142
0.0
142
0.0
142
0.0
142
0.0208333333333333
142
0.0
142
0.0
142
0.0
142
0.0
142
1.0
142
0.0
142
0.0
142
0.0
142
0.0
142
1.0
179
     0
144
0.0208333333333333
144
0.0
144
0.0
144
0.0
144
0.0
144
0.0208333333333333
144
0.0
144
0.0
144
0.0
144
0.0
144
1.0
144
0.0
144
0.0
144
0.0
144
0.0
144
1.0
147
0.0208333333333333
147
0.0
147
0.0
147
0.0
147
0.0
147
0.0208333333333333
147
0.0
147
0.0
147
0.0
147
0.0
147
1.0
147
0.0
147
0.0
147
0.0
147
0.0
147
1.0
  0
MATERIAL
  5
5C4
102
{ACAD_XDICTIONARY
360
5C5
102
}
102
{ACAD_REACTORS
330
5B3
102
}
330
5B3
100
AcDbMaterial
  1
Global
 72
     0
 43
0.0208333333333333
 43
0.0
 43
0.0
 43
0.0
 43
0.0
 43
0.0208333333333333
 43
0.0
 43
0.0
 43
0.0
 43
0.0
 43
1.0
 43
0.0
 43
0.0
 43
0.0
 43
0.0
 43
1.0
 77
     0
 47
0.0208333333333333
 47
0.0
 47
0.0
 47
0.0
 47
0.0
 47
0.0208333333333333
 47
0.0
 47
0.0
 47
0.0
 47
0.0
 47
1.0
 47
0.0
 47
0.0
 47
0.0
 47
0.0
 47
1.0
171
     0
 49
0.0208333333333333
 49
0.0
 49
0.0
 49
0.0
 49
0.0
 49
0.0208333333333333
 49
0.0
 49
0.0
 49
0.0
 49
0.0
 49
1.0
 49
0.0
 49
0.0
 49
0.0
 49
0.0
 49
1.0
175
     0
142
0.0208333333333333
142
0.0
142
0.0
142
0.0
142
0.0
142
0.0208333333333333
142
0.0
142
0.0
142
0.0
142
0.0
142
1.0
142
0.0
142
0.0
142
0.0
142
0.0
142
1.0
179
     0
144
0.0208333333333333
144
0.0
144
0.0
144
0.0
144
0.0
144
0.0208333333333333
144
0.0
144
0.0
144
0.0
144
0.0
144
1.0
144
0.0
144
0.0
144
0.0
144
0.0
144
1.0
147
0.0208333333333333
147
0.0
147
0.0
147
0.0
147
0.0
147
0.0208333333333333
147
0.0
147
0.0
147
0.0
147
0.0
147
1.0
147
0.0
147
0.0
147
0.0
147
0.0
147
1.0
  0
MLEADERSTYLE
  5
603
102
{ACAD_REACTORS
330
602
102
}
330
602
100
AcDbMLeaderStyle
170
     2
171
     1
172
     0
 90
        2
 40
0.0
 41
0.0
173
     1
 91
-1056964608
340
C
 92
       -2
290
     1
 42
0.09
291
     1
 43
0.36
  3
Standard
 44
0.18
300

342
1D
174
     1
178
     6
175
     1
176
     0
 93
-1056964608
 45
0.18
292
     0
297
     0
 46
0.18
 94
-1056964608
 47
1.0
 49
1.0
140
1.0
293
     1
141
0.0
294
     1
177
     0
142
1.0
295
     0
296
     0
143
0.125
1001
ACAD_MLEADERVER
1070
     2
  0
MLINESTYLE
  5
5A9
102
{ACAD_REACTORS
330
5A8
102
}
330
5A8
100
AcDbMlineStyle
  2
STANDARD
 70
     0
  3

 62
     0
 51
90.0
 52
90.0
 71
     2
 49
0.5
 62
   256
  6
BYLAYER
 49
-0.5
 62
   256
  6
BYLAYER
  0
ACDBPLACEHOLDER
  5
5B2
102
{ACAD_REACTORS
330
5B1
102
}
330
5B1
  0
SCALE
  5
5E1
102
{ACAD_REACTORS
330
5E0
102
}
330
5E0
100
AcDbScale
 70
     0
300
1:1
140
1.0
141
1.0
290
     1
  0
SCALE
  5
5E2
102
{ACAD_REACTORS
330
5E0
102
}
330
5E0
100
AcDbScale
 70
     0
300
1:2
140
1.0
141
2.0
290
     0
  0
SCALE
  5
5E3
102
{ACAD_REACTORS
330
5E0
102
}
330
5E0
100
AcDbScale
 70
     0
300
1:4
140
1.0
141
4.0
290
     0
  0
SCALE
  5
5E4
102
{ACAD_REACTORS
330
5E0
102
}
330
5E0
100
AcDbScale
 70
     0
300
1:5
140
1.0
141
5.0
290
     0
  0
SCALE
  5
5E5
102
{ACAD_REACTORS
330
5E0
102
}
330
5E0
100
AcDbScale
 70
     0
300
1:8
140
1.0
141
8.0
290
     0
  0
SCALE
  5
5E6
102
{ACAD_REACTORS
330
5E0
102
}
330
5E0
100
AcDbScale
 70
     0
300
1:10
140
1.0
141
10.0
290
     0
  0
SCALE
  5
5E7
102
{ACAD_REACTORS
330
5E0
102
}
330
5E0
100
AcDbScale
 70
     0
300
1:16
140
1.0
141
16.0
290
     0
  0
SCALE
  5
5E8
102
{ACAD_REACTORS
330
5E0
102
}
330
5E0
100
AcDbScale
 70
     0
300
1:20
140
1.0
141
20.0
290
     0
  0
SCALE
  5
5E9
102
{ACAD_REACTORS
330
5E0
102
}
330
5E0
100
AcDbScale
 70
     0
300
1:30
140
1.0
141
30.0
290
     0
  0
SCALE
  5
5EA
102
{ACAD_REACTORS
330
5E0
102
}
330
5E0
100
AcDbScale
 70
     0
300
1:40
140
1.0
141
40.0
290
     0
  0
SCALE
  5
5EB
102
{ACAD_REACTORS
330
5E0
102
}
330
5E0
100
AcDbScale
 70
     0
300
1:50
140
1.0
141
50.0
290
     0
  0
SCALE
  5
5EC
102
{ACAD_REACTORS
330
5E0
102
}
330
5E0
100
AcDbScale
 70
     0
300
1:100
140
1.0
141
100.0
290
     0
  0
SCALE
  5
5ED
102
{ACAD_REACTORS
330
5E0
102
}
330
5E0
100
AcDbScale
 70
     0
300
2:1
140
2.0
141
1.0
290
     0
  0
SCALE
  5
5EE
102
{ACAD_REACTORS
330
5E0
102
}
330
5E0
100
AcDbScale
 70
     0
300
4:1
140
4.0
141
1.0
290
     0
  0
SCALE
  5
5EF
102
{ACAD_REACTORS
330
5E0
102
}
330
5E0
100
AcDbScale
 70
     0
300
8:1
140
8.0
141
1.0
290
     0
  0
SCALE
  5
5F0
102
{ACAD_REACTORS
330
5E0
102
}
330
5E0
100
AcDbScale
 70
     0
300
10:1
140
10.0
141
1.0
290
     0
  0
SCALE
  5
5F1
102
{ACAD_REACTORS
330
5E0
102
}
330
5E0
100
AcDbScale
 70
     0
300
100:1
140
100.0
141
1.0
290
     0
  0
SCALE
  5
5F2
102
{ACAD_REACTORS
330
5E0
102
}
330
5E0
100
AcDbScale
 70
     0
300
1/128" = 1'-0"
140
0.0078125
141
12.0
290
     0
  0
SCALE
  5
5F3
102
{ACAD_REACTORS
330
5E0
102
}
330
5E0
100
AcDbScale
 70
     0
300
1/64" = 1'-0"
140
0.015625
141
12.0
290
     0
  0
SCALE
  5
5F4
102
{ACAD_REACTORS
330
5E0
102
}
330
5E0
100
AcDbScale
 70
     0
300
1/32" = 1'-0"
140
0.03125
141
12.0
290
     0
  0
SCALE
  5
5F5
102
{ACAD_REACTORS
330
5E0
102
}
330
5E0
100
AcDbScale
 70
     0
300
1/16" = 1'-0"
140
0.0625
141
12.0
290
     0
  0
SCALE
  5
5F6
102
{ACAD_REACTORS
330
5E0
102
}
330
5E0
100
AcDbScale
 70
     0
300
3/32" = 1'-0"
140
0.09375
141
12.0
290
     0
  0
SCALE
  5
5F7
102
{ACAD_REACTORS
330
5E0
102
}
330
5E0
100
AcDbScale
 70
     0
300
1/8" = 1'-0"
140
0.125
141
12.0
290
     0
  0
SCALE
  5
5F8
102
{ACAD_REACTORS
330
5E0
102
}
330
5E0
100
AcDbScale
 70
     0
300
3/16" = 1'-0"
140
0.1875
141
12.0
290
     0
  0
SCALE
  5
5F9
102
{ACAD_REACTORS
330
5E0
102
}
330
5E0
100
AcDbScale
 70
     0
300
1/4" = 1'-0"
140
0.25
141
12.0
290
     0
  0
SCALE
  5
5FA
102
{ACAD_REACTORS
330
5E0
102
}
330
5E0
100
AcDbScale
 70
     0
300
3/8" = 1'-0"
140
0.375
141
12.0
290
     0
  0
SCALE
  5
5FB
102
{ACAD_REACTORS
330
5E0
102
}
330
5E0
100
AcDbScale
 70
     0
300
1/2" = 1'-0"
140
0.5
141
12.0
290
     0
  0
SCALE
  5
5FC
102
{ACAD_REACTORS
330
5E0
102
}
330
5E0
100
AcDbScale
 70
     0
300
3/4" = 1'-0"
140
0.75
141
12.0
290
     0
  0
SCALE
  5
5FD
102
{ACAD_REACTORS
330
5E0
102
}
330
5E0
100
AcDbScale
 70
     0
300
1" = 1'-0"
140
1.0
141
12.0
290
     0
  0
SCALE
  5
5FE
102
{ACAD_REACTORS
330
5E0
102
}
330
5E0
100
AcDbScale
 70
     0
300
1-1/2" = 1'-0"
140
1.5
141
12.0
290
     0
  0
SCALE
  5
5FF
102
{ACAD_REACTORS
330
5E0
102
}
330
5E0
100
AcDbScale
 70
     0
300
3" = 1'-0"
140
3.0
141
12.0
290
     0
  0
SCALE
  5
600
102
{ACAD_REACTORS
330
5E0
102
}
330
5E0
100
AcDbScale
 70
     0
300
6" = 1'-0"
140
6.0
141
12.0
290
     0
  0
SCALE
  5
601
102
{ACAD_REACTORS
330
5E0
102
}
330
5E0
100
AcDbScale
 70
     0
300
1'-0" = 1'-0"
140
12.0
141
12.0
290
     0
  0
TABLESTYLE
  5
5DF
102
{ACAD_XDICTIONARY
360
61E
102
}
102
{ACAD_REACTORS
330
5DE
102
}
330
5DE
100
AcDbTableStyle
  3
Standard
 70
     0
 71
     0
 40
0.06
 41
0.06
280
     0
281
     0
  7
STANDARD
140
0.18
170
     2
 62
     0
 63
     7
283
     0
274
    -2
284
     1
 64
     0
275
    -2
285
     1
 65
     0
276
    -2
286
     1
 66
     0
277
    -2
287
     1
 67
     0
278
    -2
288
     1
 68
     0
279
    -2
289
     1
 69
     0
  7
STANDARD
140
0.25
170
     5
 62
     0
 63
     7
283
     0
274
    -2
284
     1
 64
     0
275
    -2
285
     1
 65
     0
276
    -2
286
     1
 66
     0
277
    -2
287
     1
 67
     0
278
    -2
288
     1
 68
     0
279
    -2
289
     1
 69
     0
  7
STANDARD
140
0.18
170
     5
 62
     0
 63
     7
283
     0
274
    -2
284
     1
 64
     0
275
    -2
285
     1
 65
     0
276
    -2
286
     1
 66
     0
277
    -2
287
     1
 67
     0
278
    -2
288
     1
 68
     0
279
    -2
289
     1
 69
     0
  0
VISUALSTYLE
  5
5D2
102
{ACAD_REACTORS
330
5CC
102
}
330
5CC
100
AcDbVisualStyle
  2
2dWireframe
 70
     4
 71
     0
 72
     2
 73
     0
 90
        0
 40
-0.6
 41
-30.0
 62
     5
 63
     7
 74
     1
 91
        4
 64
     7
 65
   257
 75
     1
175
     1
 42
1.0
 92
        0
 66
   257
 43
1.0
 76
     1
 77
     6
 78
     2
 67
     7
 79
     5
170
     0
171
     0
290
     0
174
     0
 93
        1
 44
0.0
173
     0
291
     0
 45
0.0
1001
ACAD
1000
AcDbSavedByObjectVersion
1070
     0
  0
VISUALSTYLE
  5
5D4
102
{ACAD_REACTORS
330
5CC
102
}
330
5CC
100
AcDbVisualStyle
  2
3D Hidden
 70
     6
 71
     1
 72
     2
 73
     2
 90
        0
 40
-0.6
 41
-30.0
 62
     5
 63
     7
 74
     2
 91
        2
 64
     7
 65
   257
 75
     2
175
     1
 42
40.0
 92
        0
 66
   257
 43
1.0
 76
     1
 77
     6
 78
     2
 67
     7
 79
     3
170
     0
171
     0
290
     0
174
     0
 93
        1
 44
0.0
173
     0
291
     0
 45
0.0
1001
ACAD
1000
AcDbSavedByObjectVersion
1070
     0
  0
VISUALSTYLE
  5
5D3
102
{ACAD_REACTORS
330
5CC
102
}
330
5CC
100
AcDbVisualStyle
  2
3dWireframe
 70
     5
 71
     0
 72
     2
 73
     0
 90
        0
 40
-0.6
 41
-30.0
 62
     5
 63
     7
 74
     1
 91
        4
 64
     7
 65
   257
 75
     1
175
     1
 42
1.0
 92
        0
 66
   257
 43
1.0
 76
     1
 77
     6
 78
     2
 67
     7
 79
     5
170
     0
171
     0
290
     0
174
     0
 93
        1
 44
0.0
173
     0
291
     0
 45
0.0
1001
ACAD
1000
AcDbSavedByObjectVersion
1070
     0
  0
VISUALSTYLE
  5
5D1
102
{ACAD_REACTORS
330
5CC
102
}
330
5CC
100
AcDbVisualStyle
  2
Basic
 70
     7
 71
     1
 72
     0
 73
     1
 90
        0
 40
-0.6
 41
-30.0
 62
     5
 63
     7
 74
     0
 91
        4
 64
     7
 65
   257
 75
     1
175
     1
 42
1.0
 92
        8
 66
     7
 43
1.0
 76
     1
 77
     6
 78
     2
 67
     7
 79
     5
170
     0
171
     0
290
     0
174
     0
 93
        1
 44
0.0
173
     0
291
     1
 45
0.0
1001
ACAD
1000
AcDbSavedByObjectVersion
1070
     0
  0
VISUALSTYLE
  5
5D8
102
{ACAD_REACTORS
330
5CC
102
}
330
5CC
100
AcDbVisualStyle
  2
Brighten
 70
    12
 71
     2
 72
     2
 73
     0
 90
        0
 40
-0.6
 41
-30.0
 62
     5
 63
     7
 74
     1
 91
        4
 64
     7
 65
   257
 75
     1
175
     1
 42
1.0
 92
        8
 66
     7
 43
1.0
 76
     1
 77
     6
 78
     2
 67
     7
 79
     5
170
     0
171
     0
290
     0
174
     0
 93
        1
 44
50.0
173
     0
291
     1
 45
0.0
1001
ACAD
1000
AcDbSavedByObjectVersion
1070
     0
  0
VISUALSTYLE
  5
5DC
102
{ACAD_REACTORS
330
5CC
102
}
330
5CC
100
AcDbVisualStyle
  2
ColorChange
 70
    16
 71
     2
 72
     2
 73
     3
 90
        0
 40
-0.6
 41
-30.0
 62
     5
 63
     8
 74
     1
 91
        4
 64
     7
 65
   257
 75
     1
175
     1
 42
1.0
 92
        8
 66
     8
 43
1.0
 76
     1
 77
     6
 78
     2
 67
     7
 79
     5
170
     0
171
     0
290
     0
174
     0
 93
        1
 44
0.0
173
     0
291
     1
 45
0.0
1001
ACAD
1000
AcDbSavedByObjectVersion
1070
     0
  0
VISUALSTYLE
  5
5D5
102
{ACAD_REACTORS
330
5CC
102
}
330
5CC
100
AcDbVisualStyle
  2
Conceptual
 70
     9
 71
     3
 72
     2
 73
     0
 90
        0
 40
-0.6
 41
-30.0
 62
     5
 63
     7
 74
     2
 91
        2
 64
     7
 65
   257
 75
     1
175
     1
 42
40.0
 92
        8
 66
     7
 43
1.0
 76
     1
 77
     6
 78
     2
 67
     7
 79
     3
170
     0
171
     0
290
     0
174
     0
 93
        1
 44
0.0
173
     0
291
     0
 45
0.0
1001
ACAD
1000
AcDbSavedByObjectVersion
1070
     0
  0
VISUALSTYLE
  5
5D7
102
{ACAD_REACTORS
330
5CC
102
}
330
5CC
100
AcDbVisualStyle
  2
Dim
 70
    11
 71
     2
 72
     2
 73
     0
 90
        0
 40
-0.6
 41
-30.0
 62
     5
 63
     7
 74
     1
 91
        4
 64
     7
 65
   257
 75
     1
175
     1
 42
1.0
 92
        8
 66
     7
 43
1.0
 76
     1
 77
     6
 78
     2
 67
     7
 79
     5
170
     0
171
     0
290
     0
174
     0
 93
        1
 44
-50.0
173
     0
291
     1
 45
0.0
1001
ACAD
1000
AcDbSavedByObjectVersion
1070
     0
  0
VISUALSTYLE
  5
5DB
102
{ACAD_REACTORS
330
5CC
102
}
330
5CC
100
AcDbVisualStyle
  2
Facepattern
 70
    15
 71
     2
 72
     2
 73
     0
 90
        0
 40
-0.6
 41
-30.0
 62
     5
 63
     7
 74
     1
 91
        4
 64
     7
 65
   257
 75
     1
175
     1
 42
1.0
 92
        8
 66
     7
 43
1.0
 76
     1
 77
     6
 78
     2
 67
     7
 79
     5
170
     0
171
     0
290
     0
174
     0
 93
        1
 44
0.0
173
     0
291
     1
 45
0.0
1001
ACAD
1000
AcDbSavedByObjectVersion
1070
     0
  0
VISUALSTYLE
  5
5CD
102
{ACAD_REACTORS
330
5CC
102
}
330
5CC
100
AcDbVisualStyle
  2
Flat
 70
     0
 71
     2
 72
     1
 73
     1
 90
        2
 40
-0.6
 41
30.0
 62
     5
 63
     7
 74
     0
 91
        4
 64
     7
 65
   257
 75
     1
175
     1
 42
1.0
 92
        8
 66
     7
 43
1.0
 76
     1
 77
     6
 78
     2
 67
     7
 79
     5
170
     0
171
     0
290
     0
174
     0
 93
       13
 44
0.0
173
     0
291
     1
 45
0.0
1001
ACAD
1000
AcDbSavedByObjectVersion
1070
     0
  0
VISUALSTYLE
  5
5CE
102
{ACAD_REACTORS
330
5CC
102
}
330
5CC
100
AcDbVisualStyle
  2
FlatWithEdges
 70
     1
 71
     2
 72
     1
 73
     1
 90
        2
 40
-0.6
 41
30.0
 62
     5
 63
     7
 74
     1
 91
        4
 64
     7
 65
   257
 75
     1
175
     1
 42
1.0
 92
        0
 66
   257
 43
1.0
 76
     1
 77
     6
 78
     2
 67
     7
 79
     5
170
     0
171
     0
290
     0
174
     0
 93
       13
 44
0.0
173
     0
291
     1
 45
0.0
1001
ACAD
1000
AcDbSavedByObjectVersion
1070
     0
  0
VISUALSTYLE
  5
5CF
102
{ACAD_REACTORS
330
5CC
102
}
330
5CC
100
AcDbVisualStyle
  2
Gouraud
 70
     2
 71
     2
 72
     2
 73
     1
 90
        2
 40
-0.6
 41
30.0
 62
     5
 63
     7
 74
     0
 91
        4
 64
     7
 65
   257
 75
     1
175
     1
 42
1.0
 92
        0
 66
     7
 43
1.0
 76
     1
 77
     6
 78
     2
 67
     7
 79
     5
170
     0
171
     0
290
     0
174
     0
 93
       13
 44
0.0
173
     0
291
     1
 45
0.0
1001
ACAD
1000
AcDbSavedByObjectVersion
1070
     0
  0
VISUALSTYLE
  5
5D0
102
{ACAD_REACTORS
330
5CC
102
}
330
5CC
100
AcDbVisualStyle
  2
GouraudWithEdges
 70
     3
 71
     2
 72
     2
 73
     1
 90
        2
 40
-0.6
 41
30.0
 62
     5
 63
     7
 74
     1
 91
        4
 64
     7
 65
   257
 75
     1
175
     1
 42
1.0
 92
        0
 66
   257
 43
1.0
 76
     1
 77
     6
 78
     2
 67
     7
 79
     5
170
     0
171
     0
290
     0
174
     0
 93
       13
 44
0.0
173
     0
291
     1
 45
0.0
1001
ACAD
1000
AcDbSavedByObjectVersion
1070
     0
  0
VISUALSTYLE
  5
5DA
102
{ACAD_REACTORS
330
5CC
102
}
330
5CC
100
AcDbVisualStyle
  2
Linepattern
 70
    14
 71
     2
 72
     2
 73
     0
 90
        0
 40
-0.6
 41
-30.0
 62
     5
 63
     7
 74
     1
 91
        4
 64
     7
 65
   257
 75
     7
175
     7
 42
1.0
 92
        8
 66
     7
 43
1.0
 76
     1
 77
     6
 78
     2
 67
     7
 79
     5
170
     0
171
     0
290
     0
174
     0
 93
        1
 44
0.0
173
     0
291
     1
 45
0.0
1001
ACAD
1000
AcDbSavedByObjectVersion
1070
     0
  0
VISUALSTYLE
  5
5D6
102
{ACAD_REACTORS
330
5CC
102
}
330
5CC
100
AcDbVisualStyle
  2
Realistic
 70
     8
 71
     2
 72
     2
 73
     0
 90
        0
 40
-0.6
 41
-30.0
 62
     5
 63
     7
 74
     1
 91
        0
 64
     7
 65
   257
 75
     1
175
     1
 42
1.0
 92
        8
 66
     8
 43
1.0
 76
     1
 77
     6
 78
     2
 67
     7
 79
     5
170
     0
171
     0
290
     0
174
     0
 93
       13
 44
0.0
173
     0
291
     0
 45
0.0
1001
ACAD
1000
AcDbSavedByObjectVersion
1070
     0
  0
VISUALSTYLE
  5
5D9
102
{ACAD_REACTORS
330
5CC
102
}
330
5CC
100
AcDbVisualStyle
  2
Thicken
 70
    13
 71
     2
 72
     2
 73
     0
 90
        0
 40
-0.6
 41
-30.0
 62
     5
 63
     7
 74
     1
 91
        4
 64
     7
 65
   257
 75
     1
175
     1
 42
1.0
 92
       12
 66
     7
 43
1.0
 76
     1
 77
     6
 78
     2
 67
     7
 79
     5
170
     0
171
     0
290
     0
174
     0
 93
        1
 44
0.0
173
     0
291
     1
 45
0.0
1001
ACAD
1000
AcDbSavedByObjectVersion
1070
     0
  0
DICTIONARYVAR
  5
61A
102
{ACAD_REACTORS
330
617
102
}
330
617
100
DictionaryVariables
280
     0
  1
1:1
  0
DICTIONARYVAR
  5
619
102
{ACAD_REACTORS
330
617
102
}
330
617
100
DictionaryVariables
280
     0
  1
STANDARD
  0
DICTIONARYVAR
  5
618
102
{ACAD_REACTORS
330
617
102
}
330
617
100
DictionaryVariables
280
     0
  1
STANDARD
  0
DICTIONARYVAR
  5
61D
102
{ACAD_REACTORS
330
617
102
}
330
617
100
DictionaryVariables
280
     0
  1
1
  0
DICTIONARYVAR
  5
61C
102
{ACAD_REACTORS
330
617
102
}
330
617
100
DictionaryVariables
280
     0
  1
0
  0
DICTIONARYVAR
  5
61B
102
{ACAD_REACTORS
330
617
102
}
330
617
100
DictionaryVariables
280
     0
  1
127
  0
DICTIONARY
  5
626
330
607
100
AcDbDictionary
280
     1
281
     1
  3
ACAD_XREC_ROUNDTRIP
360
627
  0
DICTIONARY
  5
628
330
608
100
AcDbDictionary
280
     1
281
     1
  3
ACAD_XREC_ROUNDTRIP
360
629
  0
DICTIONARY
  5
5BD
330
5BC
100
AcDbDictionary
280
     1
281
     1
  3
ACAD_XREC_ROUNDTRIP
360
623
  3
BUMPTILE
360
5BF
  3
DIFFUSETILE
360
5BE
  3
OPACITYTILE
360
5C2
  3
REFLECTIONTILE
360
5C1
  3
REFRACTIONTILE
360
5C3
  3
SPECULARTILE
360
5C0
  0
DICTIONARY
  5
5B5
330
5B4
100
AcDbDictionary
280
     1
281
     1
  3
ACAD_XREC_ROUNDTRIP
360
622
  3
BUMPTILE
360
5B7
  3
DIFFUSETILE
360
5B6
  3
OPACITYTILE
360
5BA
  3
REFLECTIONTILE
360
5B9
  3
REFRACTIONTILE
360
5BB
  3
SPECULARTILE
360
5B8
  0
DICTIONARY
  5
5C5
330
5C4
100
AcDbDictionary
280
     1
281
     1
  3
ACAD_XREC_ROUNDTRIP
360
624
  3
BUMPTILE
360
5C7
  3
DIFFUSETILE
360
5C6
  3
OPACITYTILE
360
5CA
  3
REFLECTIONTILE
360
5C9
  3
REFRACTIONTILE
360
5CB
  3
SPECULARTILE
360
5C8
  0
DICTIONARY
  5
61E
330
5DF
100
AcDbDictionary
280
     1
281
     1
  3
ACAD_ROUNDTRIP_2008_TABLESTYLE_CELLSTYLEMAP
360
61F
  3
ACAD_XREC_ROUNDTRIP
360
625
  0
XRECORD
  5
627
102
{ACAD_REACTORS
330
626
102
}
330
626
100
AcDbXrecord
280
     1
102
SHADEPLOT
 70
     0
102
SHADEPLOTRESLEVEL
 70
     2
102
SHADEPLOTCUSTOMDPI
 70
   300
  0
XRECORD
  5
629
102
{ACAD_REACTORS
330
628
102
}
330
628
100
AcDbXrecord
280
     1
102
SHADEPLOT
 70
     0
102
SHADEPLOTRESLEVEL
 70
     2
102
SHADEPLOTCUSTOMDPI
 70
   300
  0
XRECORD
  5
623
102
{ACAD_REACTORS
330
5BD
102
}
330
5BD
100
AcDbXrecord
280
     1
102
MATERIAL
148
0.0
149
0.0
149
0.0
 93
        0
 94
      127
282
     0
 72
     0
 77
     0
171
     0
175
     0
179
     0
273
     0
  0
XRECORD
  5
5BF
102
{ACAD_REACTORS
330
5BD
102
}
330
5BD
100
AcDbXrecord
280
     1
270
     1
271
     1
  0
XRECORD
  5
5BE
102
{ACAD_REACTORS
330
5BD
102
}
330
5BD
100
AcDbXrecord
280
     1
270
     1
271
     1
  0
XRECORD
  5
5C2
102
{ACAD_REACTORS
330
5BD
102
}
330
5BD
100
AcDbXrecord
280
     1
270
     1
271
     1
  0
XRECORD
  5
5C1
102
{ACAD_REACTORS
330
5BD
102
}
330
5BD
100
AcDbXrecord
280
     1
270
     1
271
     1
  0
XRECORD
  5
5C3
102
{ACAD_REACTORS
330
5BD
102
}
330
5BD
100
AcDbXrecord
280
     1
270
     1
271
     1
  0
XRECORD
  5
5C0
102
{ACAD_REACTORS
330
5BD
102
}
330
5BD
100
AcDbXrecord
280
     1
270
     1
271
     1
  0
XRECORD
  5
622
102
{ACAD_REACTORS
330
5B5
102
}
330
5B5
100
AcDbXrecord
280
     1
102
MATERIAL
148
0.0
149
0.0
149
0.0
 93
        0
 94
      127
282
     0
 72
     0
 77
     0
171
     0
175
     0
179
     0
273
     0
  0
XRECORD
  5
5B7
102
{ACAD_REACTORS
330
5B5
102
}
330
5B5
100
AcDbXrecord
280
     1
270
     1
271
     1
  0
XRECORD
  5
5B6
102
{ACAD_REACTORS
330
5B5
102
}
330
5B5
100
AcDbXrecord
280
     1
270
     1
271
     1
  0
XRECORD
  5
5BA
102
{ACAD_REACTORS
330
5B5
102
}
330
5B5
100
AcDbXrecord
280
     1
270
     1
271
     1
  0
XRECORD
  5
5B9
102
{ACAD_REACTORS
330
5B5
102
}
330
5B5
100
AcDbXrecord
280
     1
270
     1
271
     1
  0
XRECORD
  5
5BB
102
{ACAD_REACTORS
330
5B5
102
}
330
5B5
100
AcDbXrecord
280
     1
270
     1
271
     1
  0
XRECORD
  5
5B8
102
{ACAD_REACTORS
330
5B5
102
}
330
5B5
100
AcDbXrecord
280
     1
270
     1
271
     1
  0
XRECORD
  5
624
102
{ACAD_REACTORS
330
5C5
102
}
330
5C5
100
AcDbXrecord
280
     1
102
MATERIAL
148
0.0
149
0.0
149
0.0
 93
        0
 94
      127
282
     0
 72
     0
 77
     0
171
     0
175
     0
179
     0
273
     0
  0
XRECORD
  5
5C7
102
{ACAD_REACTORS
330
5C5
102
}
330
5C5
100
AcDbXrecord
280
     1
270
     1
271
     1
  0
XRECORD
  5
5C6
102
{ACAD_REACTORS
330
5C5
102
}
330
5C5
100
AcDbXrecord
280
     1
270
     1
271
     1
  0
XRECORD
  5
5CA
102
{ACAD_REACTORS
330
5C5
102
}
330
5C5
100
AcDbXrecord
280
     1
270
     1
271
     1
  0
XRECORD
  5
5C9
102
{ACAD_REACTORS
330
5C5
102
}
330
5C5
100
AcDbXrecord
280
     1
270
     1
271
     1
  0
XRECORD
  5
5CB
102
{ACAD_REACTORS
330
5C5
102
}
330
5C5
100
AcDbXrecord
280
     1
270
     1
271
     1
  0
XRECORD
  5
5C8
102
{ACAD_REACTORS
330
5C5
102
}
330
5C5
100
AcDbXrecord
280
     1
270
     1
271
     1
  0
CELLSTYLEMAP
  5
61F
102
{ACAD_REACTORS
330
61E
102
}
330
61E
100
AcDbCellStyleMap
 90
        3
300
CELLSTYLE
  1
TABLEFORMAT_BEGIN
 90
        5
170
     1
 91
        0
 92
    32768
 62
   257
 93
        1
300
CONTENTFORMAT
  1
CONTENTFORMAT_BEGIN
 90
        0
 91
        0
 92
      512
 93
        0
300

 40
0.0
140
1.0
 94
        5
 62
     0
340
1D
144
0.25
309
CONTENTFORMAT_END
171
     0
 94
        0
309
TABLEFORMAT_END
  1
CELLSTYLE_BEGIN
 90
        1
 91
        1
300
_TITLE
309
CELLSTYLE_END
300
CELLSTYLE
  1
TABLEFORMAT_BEGIN
 90
        5
170
     1
 91
        0
 92
        0
 62
   257
 93
        1
300
CONTENTFORMAT
  1
CONTENTFORMAT_BEGIN
 90
        0
 91
        0
 92
      512
 93
        0
300

 40
0.0
140
1.0
 94
        5
 62
     0
340
1D
144
0.18
309
CONTENTFORMAT_END
171
     0
 94
        0
309
TABLEFORMAT_END
  1
CELLSTYLE_BEGIN
 90
        2
 91
        1
300
_HEADER
309
CELLSTYLE_END
300
CELLSTYLE
  1
TABLEFORMAT_BEGIN
 90
        5
170
     1
 91
        0
 92
        0
 62
   257
 93
        1
300
CONTENTFORMAT
  1
CONTENTFORMAT_BEGIN
 90
        0
 91
        0
 92
      512
 93
        0
300

 40
0.0
140
1.0
 94
        2
 62
     0
340
1D
144
0.18
309
CONTENTFORMAT_END
171
     0
 94
        0
309
TABLEFORMAT_END
  1
CELLSTYLE_BEGIN
 90
        3
 91
        2
300
_DATA
309
CELLSTYLE_END
  0
XRECORD
  5
625
102
{ACAD_REACTORS
330
61E
102
}
330
61E
100
AcDbXrecord
280
     1
102
ACAD_ROUNDTRIP_PRE2007_TABLESTYLE
 90
      512
 91
        0
  1

 92
      512
 93
        0
  2

 94
      512
 95
        0
  3

  0
ENDSEC
  0
EOF
