  0
SECTION
  2
HEADER
  9
$ACADVER
  1
AC1015
  9
$ACADMAINTVER
 70
    20
  9
$DWGCODEPAGE
  3
ANSI_932
  9
$INSBASE
 10
0.0
 20
0.0
 30
0.0
  9
$EXTMIN
 10
-360.0402811775452
 20
-277.0326218847565
 30
-0.0000000349181948
  9
$EXTMAX
 10
400.0305195106547
 20
264.0261854266587
 30
0.0000000814935747
  9
$LIMMIN
 10
-420.0
 20
-297.0
  9
$LIMMAX
 10
420.0
 20
297.0
  9
$ORTHOMODE
 70
     1
  9
$REGENMODE
 70
     1
  9
$FILLMODE
 70
     1
  9
$QTEXTMODE
 70
     0
  9
$MIRRTEXT
 70
     1
  9
$LTSCALE
 40
1.0
  9
$ATTMODE
 70
     1
  9
$TEXTSIZE
 40
1.0
  9
$TRACEWID
 40
0.05
  9
$TEXTSTYLE
  7
STANDARD
  9
$CLAYER
  8
0
  9
$CELTYPE
  6
CONTINUOUS
  9
$CECOLOR
 62
   256
  9
$CELTSCALE
 40
1.0
  9
$DISPSILH
 70
     0
  9
$DIMSCALE
 40
2.0
  9
$DIMASZ
 40
0.18
  9
$DIMEXO
 40
0.0625
  9
$DIMDLI
 40
0.38
  9
$DIMRND
 40
0.0
  9
$DIMDLE
 40
0.0
  9
$DIMEXE
 40
0.18
  9
$DIMTP
 40
0.0
  9
$DIMTM
 40
0.0
  9
$DIMTXT
 40
0.18
  9
$DIMCEN
 40
0.09
  9
$DIMTSZ
 40
0.0
  9
$DIMTOL
 70
     0
  9
$DIMLIM
 70
     0
  9
$DIMTIH
 70
     1
  9
$DIMTOH
 70
     1
  9
$DIMSE1
 70
     0
  9
$DIMSE2
 70
     0
  9
$DIMTAD
 70
     1
  9
$DIMZIN
 70
     0
  9
$DIMBLK
  1

  9
$DIMASO
 70
     1
  9
$DIMSHO
 70
     1
  9
$DIMPOST
  1

  9
$DIMAPOST
  1

  9
$DIMALT
 70
     0
  9
$DIMALTD
 70
     2
  9
$DIMALTF
 40
25.4
  9
$DIMLFAC
 40
1.0
  9
$DIMTOFL
 70
     0
  9
$DIMTVP
 40
0.0
  9
$DIMTIX
 70
     0
  9
$DIMSOXD
 70
     0
  9
$DIMSAH
 70
     0
  9
$DIMBLK1
  1

  9
$DIMBLK2
  1

  9
$DIMSTYLE
  2
STANDARD
  9
$DIMCLRD
 70
     0
  9
$DIMCLRE
 70
     0
  9
$DIMCLRT
 70
     0
  9
$DIMTFAC
 40
1.0
  9
$DIMGAP
 40
0.09
  9
$DIMJUST
 70
     0
  9
$DIMSD1
 70
     0
  9
$DIMSD2
 70
     0
  9
$DIMTOLJ
 70
     1
  9
$DIMTZIN
 70
     0
  9
$DIMALTZ
 70
     0
  9
$DIMALTTZ
 70
     0
  9
$DIMUPT
 70
     0
  9
$DIMDEC
 70
     4
  9
$DIMTDEC
 70
     4
  9
$DIMALTU
 70
     2
  9
$DIMALTTD
 70
     2
  9
$DIMTXSTY
  7
STANDARD
  9
$DIMAUNIT
 70
     0
  9
$DIMADEC
 70
     0
  9
$DIMALTRND
 40
0.0
  9
$DIMAZIN
 70
     0
  9
$DIMDSEP
 70
    46
  9
$DIMATFIT
 70
     3
  9
$DIMFRAC
 70
     0
  9
$DIMLDRBLK
  1

  9
$DIMLUNIT
 70
     2
  9
$DIMLWD
 70
    -2
  9
$DIMLWE
 70
    -2
  9
$DIMTMOVE
 70
     0
  9
$LUNITS
 70
     2
  9
$LUPREC
 70
     4
  9
$SKETCHINC
 40
0.1
  9
$FILLETRAD
 40
0.0
  9
$AUNITS
 70
     0
  9
$AUPREC
 70
     0
  9
$MENU
  1
acad
  9
$ELEVATION
 40
0.0
  9
$PELEVATION
 40
0.0
  9
$THICKNESS
 40
0.0
  9
$LIMCHECK
 70
     0
  9
$CHAMFERA
 40
0.0
  9
$CHAMFERB
 40
0.0
  9
$CHAMFERC
 40
0.0
  9
$CHAMFERD
 40
0.0
  9
$SKPOLY
 70
     0
  9
$TDCREATE
 40
2450695.000000000
  9
$TDUCREATE
 40
2450694.625000000
  9
$TDUPDATE
 40
2456181.403161817
  9
$TDUUPDATE
 40
2456181.028161817
  9
$TDINDWG
 40
0.0163936227
  9
$TDUSRTIMER
 40
0.0163930787
  9
$USRTIMER
 70
     1
  9
$ANGBASE
 50
0.0
  9
$ANGDIR
 70
     0
  9
$PDMODE
 70
     0
  9
$PDSIZE
 40
0.0
  9
$PLINEWID
 40
0.0
  9
$SPLFRAME
 70
     0
  9
$SPLINETYPE
 70
     6
  9
$SPLINESEGS
 70
     8
  9
$HANDSEED
  5
A5B
  9
$SURFTAB1
 70
     6
  9
$SURFTAB2
 70
     6
  9
$SURFTYPE
 70
     6
  9
$SURFU
 70
     6
  9
$SURFV
 70
     6
  9
$UCSBASE
  2

  9
$UCSNAME
  2

  9
$UCSORG
 10
0.0
 20
0.0
 30
0.0
  9
$UCSXDIR
 10
1.0
 20
0.0
 30
0.0
  9
$UCSYDIR
 10
0.0
 20
1.0
 30
0.0
  9
$UCSORTHOREF
  2

  9
$UCSORTHOVIEW
 70
     0
  9
$UCSORGTOP
 10
0.0
 20
0.0
 30
0.0
  9
$UCSORGBOTTOM
 10
0.0
 20
0.0
 30
0.0
  9
$UCSORGLEFT
 10
0.0
 20
0.0
 30
0.0
  9
$UCSORGRIGHT
 10
0.0
 20
0.0
 30
0.0
  9
$UCSORGFRONT
 10
0.0
 20
0.0
 30
0.0
  9
$UCSORGBACK
 10
0.0
 20
0.0
 30
0.0
  9
$PUCSBASE
  2

  9
$PUCSNAME
  2

  9
$PUCSORG
 10
0.0
 20
0.0
 30
0.0
  9
$PUCSXDIR
 10
1.0
 20
0.0
 30
0.0
  9
$PUCSYDIR
 10
0.0
 20
1.0
 30
0.0
  9
$PUCSORTHOREF
  2

  9
$PUCSORTHOVIEW
 70
     0
  9
$PUCSORGTOP
 10
0.0
 20
0.0
 30
0.0
  9
$PUCSORGBOTTOM
 10
0.0
 20
0.0
 30
0.0
  9
$PUCSORGLEFT
 10
0.0
 20
0.0
 30
0.0
  9
$PUCSORGRIGHT
 10
0.0
 20
0.0
 30
0.0
  9
$PUCSORGFRONT
 10
0.0
 20
0.0
 30
0.0
  9
$PUCSORGBACK
 10
0.0
 20
0.0
 30
0.0
  9
$USERI1
 70
     0
  9
$USERI2
 70
     0
  9
$USERI3
 70
     0
  9
$USERI4
 70
     0
  9
$USERI5
 70
     0
  9
$USERR1
 40
0.0
  9
$USERR2
 40
0.0
  9
$USERR3
 40
0.0
  9
$USERR4
 40
0.0
  9
$USERR5
 40
0.0
  9
$WORLDVIEW
 70
     1
  9
$SHADEDGE
 70
     3
  9
$SHADEDIF
 70
    70
  9
$TILEMODE
 70
     1
  9
$MAXACTVP
 70
    16
  9
$PINSBASE
 10
0.0
 20
0.0
 30
0.0
  9
$PLIMCHECK
 70
     0
  9
$PEXTMIN
 10
1.000000000000000E+20
 20
1.000000000000000E+20
 30
1.000000000000000E+20
  9
$PEXTMAX
 10
-1.000000000000000E+20
 20
-1.000000000000000E+20
 30
-1.000000000000000E+20
  9
$PLIMMIN
 10
0.0
 20
0.0
  9
$PLIMMAX
 10
12.0
 20
9.0
  9
$UNITMODE
 70
     0
  9
$VISRETAIN
 70
     0
  9
$PLINEGEN
 70
     1
  9
$PSLTSCALE
 70
     0
  9
$TREEDEPTH
 70
  3020
  9
$CMLSTYLE
  2
STANDARD
  9
$CMLJUST
 70
     0
  9
$CMLSCALE
 40
1.0
  9
$PROXYGRAPHICS
 70
     1
  9
$MEASUREMENT
 70
     0
  9
$CELWEIGHT
370
    -1
  9
$ENDCAPS
280
     0
  9
$JOINSTYLE
280
     0
  9
$LWDISPLAY
290
     0
  9
$INSUNITS
 70
     0
  9
$HYPERLINKBASE
  1

  9
$STYLESHEET
  1
monochrome.ctb
  9
$XEDIT
290
     1
  9
$CEPSNTYPE
380
     0
  9
$PSTYLEMODE
290
     1
  9
$FINGERPRINTGUID
  2
{9BB27BEE-FFA2-4350-91F3-E17DA84A0393}
  9
$VERSIONGUID
  2
{DD71A8B3-14F1-4879-AA16-178AD0CA9AAD}
  9
$EXTNAMES
290
     1
  9
$PSVPSCALE
 40
0.0
  9
$OLESTARTUP
290
     0
  0
ENDSEC
  0
SECTION
  2
CLASSES
  0
CLASS
  1
IMAGE
  2
AcDbRasterImage
  3
ISM
 90
    34943
280
     0
281
     1
  0
CLASS
  1
DICTIONARYVAR
  2
AcDbDictionaryVar
  3
ObjectDBX Classes
 90
        0
280
     0
281
     0
  0
CLASS
  1
RASTERVARIABLES
  2
AcDbRasterVariables
  3
ISM
 90
    32768
280
     0
281
     0
  0
CLASS
  1
IMAGEDEF
  2
AcDbRasterImageDef
  3
ISM
 90
    32768
280
     0
281
     0
  0
CLASS
  1
IMAGEDEF_REACTOR
  2
AcDbRasterImageDefReactor
  3
ISM
 90
    32769
280
     0
281
     0
  0
CLASS
  1
IDBUFFER
  2
AcDbIdBuffer
  3
ObjectDBX Classes
 90
    32768
280
     0
281
     0
  0
CLASS
  1
SPATIAL_FILTER
  2
AcDbSpatialFilter
  3
ObjectDBX Classes
 90
    32768
280
     0
281
     0
  0
CLASS
  1
SORTENTSTABLE
  2
AcDbSortentsTable
  3
ObjectDBX Classes
 90
    32768
280
     0
281
     0
  0
CLASS
  1
LAYER_INDEX
  2
AcDbLayerIndex
  3
ObjectDBX Classes
 90
    32768
280
     0
281
     0
  0
CLASS
  1
SPATIAL_INDEX
  2
AcDbSpatialIndex
  3
ObjectDBX Classes
 90
    32768
280
     0
281
     0
  0
CLASS
  1
OBJECT_PTR
  2
CAseDLPNTableRecord
  3
"ASE-LPNTableRecord"
 90
    32769
280
     0
281
     0
  0
CLASS
  1
LAYOUT
  2
AcDbLayout
  3
ObjectDBX Classes
 90
        0
280
     0
281
     0
  0
CLASS
  1
PLOTSETTINGS
  2
AcDbPlotSettings
  3
ObjectDBX Classes
 90
    32768
280
     0
281
     0
  0
CLASS
  1
ACDBDICTIONARYWDFLT
  2
AcDbDictionaryWithDefault
  3
ObjectDBX Classes
 90
        0
280
     0
281
     0
  0
CLASS
  1
ACDBPLACEHOLDER
  2
AcDbPlaceHolder
  3
ObjectDBX Classes
 90
        0
280
     0
281
     0
  0
CLASS
  1
VBA_PROJECT
  2
AcDbVbaProject
  3
acad
 90
    32768
280
     0
281
     0
  0
CLASS
  1
WIPEOUT
  2
AcDbWipeout
  3
"WipeOut|Product Desc: Object Enabler for WipeOut entity                        |Company: Autodesk, Inc.                        |WEB Address: www.autodesk.com"
 90
    34943
280
     0
281
     1
  0
CLASS
  1
WIPEOUTVARIABLES
  2
AcDbWipeoutVariables
  3
"WipeOut|Product Desc:     WipeOut Dbx Application|Company:          Autodesk, Inc.|WEB Address:      www.autodesk.com"
 90
    32768
280
     0
281
     0
  0
CLASS
  1
RTEXT
  2
RText
  3
RText|AutoCAD Express Tool|expresstools@autodesk.com
 90
    32768
280
     0
281
     1
  0
CLASS
  1
ARCALIGNEDTEXT
  2
AcDbArcAlignedText
  3
ATEXT|AutoCAD Express Tool|expresstools@autodesk.com
 90
    32768
280
     0
281
     1
  0
CLASS
  1
MATERIAL
  2
AcDbMaterial
  3
ObjectDBX Classes
 90
     1153
280
     0
281
     0
  0
CLASS
  1
VISUALSTYLE
  2
AcDbVisualStyle
  3
ObjectDBX Classes
 90
     4095
280
     0
281
     0
  0
CLASS
  1
TABLESTYLE
  2
AcDbTableStyle
  3
ObjectDBX Classes
 90
     4095
280
     0
281
     0
  0
CLASS
  1
SCALE
  2
AcDbScale
  3
ObjectDBX Classes
 90
     1153
280
     0
281
     0
  0
CLASS
  1
MLEADERSTYLE
  2
AcDbMLeaderStyle
  3
ACDB_MLEADERSTYLE_CLASS
 90
     4095
280
     0
281
     0
  0
CLASS
  1
CELLSTYLEMAP
  2
AcDbCellStyleMap
  3
ObjectDBX Classes
 90
     1152
280
     0
281
     0
  0
ENDSEC
  0
SECTION
  2
TABLES
  0
TABLE
  2
VPORT
  5
6
330
0
100
AcDbSymbolTable
 70
     1
  0
VPORT
  5
1B
330
6
100
AcDbSymbolTableRecord
100
AcDbViewportTableRecord
  2
*ACTIVE
 70
     0
 10
0.0
 20
0.0
 11
1.0
 21
1.0
 12
106.1030200529781
 22
-41.07157689923695
 13
0.0
 23
0.0
 14
1.0
 24
1.0
 15
0.0
 25
0.0
 16
0.0
 26
0.0
 36
1.0
 17
0.0
 27
0.0
 37
0.0
 40
758.0548056454555
 41
2.254205607476635
 42
50.0
 43
0.0
 44
0.0
 50
0.0
 51
0.0
 71
     0
 72
   500
 73
     1
 74
     0
 75
     0
 76
     0
 77
     0
 78
     0
281
     0
 65
     1
110
0.0
120
0.0
130
0.0
111
1.0
121
0.0
131
0.0
112
0.0
122
1.0
132
0.0
 79
     0
146
0.0
  0
ENDTAB
  0
TABLE
  2
LTYPE
  5
3
330
0
100
AcDbSymbolTable
 70
     7
  0
LTYPE
  5
C
330
3
100
AcDbSymbolTableRecord
100
AcDbLinetypeTableRecord
  2
BYBLOCK
 70
     0
  3

 72
    65
 73
     0
 40
0.0
  0
LTYPE
  5
D
330
3
100
AcDbSymbolTableRecord
100
AcDbLinetypeTableRecord
  2
BYLAYER
 70
     0
  3

 72
    65
 73
     0
 40
0.0
  0
LTYPE
  5
E
330
3
100
AcDbSymbolTableRecord
100
AcDbLinetypeTableRecord
  2
CONTINUOUS
 70
     0
  3
Solid line
 72
    65
 73
     0
 40
0.0
  0
LTYPE
  5
F
330
3
100
AcDbSymbolTableRecord
100
AcDbLinetypeTableRecord
  2
DASHED
 70
     0
  3
__ __ __ __ __ __ __ __ __ __ __ __ __ __ __
 72
    65
 73
     2
 40
2.0
 49
1.199999999999999
 74
     0
 49
-0.8
 74
     0
  0
LTYPE
  5
10
330
3
100
AcDbSymbolTableRecord
100
AcDbLinetypeTableRecord
  2
CENTER
 70
     0
  3
____ _ ____ _ ____ _ ____ _ ____ _ ____ _ ____
 72
    65
 73
     4
 40
12.0
 49
9.0
 74
     0
 49
-1.0
 74
     0
 49
1.0
 74
     0
 49
-1.0
 74
     0
  0
LTYPE
  5
11
330
3
100
AcDbSymbolTableRecord
100
AcDbLinetypeTableRecord
  2
HIDDEN
 70
     0
  3
_ _ _ _ _ _ _ _ _ _ _ _ _ _ _ _ _ _ _ _ _ _ _
 72
    65
 73
     2
 40
3.2
 49
2.399999999999999
 74
     0
 49
-0.8
 74
     0
  0
LTYPE
  5
12
330
3
100
AcDbSymbolTableRecord
100
AcDbLinetypeTableRecord
  2
PHANTOM
 70
     0
  3
_____ _ _ _____ _ _ _____ _ _ _____ _ _ _____
 72
    65
 73
     6
 40
13.5
 49
9.0
 74
     0
 49
-1.0
 74
     0
 49
1.0
 74
     0
 49
-0.5
 74
     0
 49
1.0
 74
     0
 49
-1.0
 74
     0
  0
LTYPE
  5
13
330
3
100
AcDbSymbolTableRecord
100
AcDbLinetypeTableRecord
  2
DOT
 70
     0
  3
...............................................
 72
    65
 73
     2
 40
1.0
 49
0.5
 74
     0
 49
-0.5
 74
     0
  0
LTYPE
  5
14
330
3
100
AcDbSymbolTableRecord
100
AcDbLinetypeTableRecord
  2
DASHDOT
 70
     0
  3
__ . __ . __ . __ . __ . __ . __ . __ . __ . __
 72
    65
 73
     4
 40
8.0
 49
5.0
 74
     0
 49
-1.0
 74
     0
 49
1.0
 74
     0
 49
-1.0
 74
     0
  0
ENDTAB
  0
TABLE
  2
LAYER
  5
1
102
{ACAD_XDICTIONARY
360
692
102
}
330
0
100
AcDbSymbolTable
 70
     9
  0
LAYER
  5
15
102
{ACAD_XDICTIONARY
360
65F
102
}
330
1
100
AcDbSymbolTableRecord
100
AcDbLayerTableRecord
  2
0
 70
     0
 62
     7
  6
CONTINUOUS
370
    -3
390
606
  0
LAYER
  5
16
102
{ACAD_XDICTIONARY
360
661
102
}
330
1
100
AcDbSymbolTableRecord
100
AcDbLayerTableRecord
  2
1
 70
     0
 62
     7
  6
CONTINUOUS
370
    -3
390
606
  0
LAYER
  5
17
102
{ACAD_XDICTIONARY
360
663
102
}
330
1
100
AcDbSymbolTableRecord
100
AcDbLayerTableRecord
  2
2
 70
     0
 62
     7
  6
CONTINUOUS
370
    -3
390
606
  0
LAYER
  5
18
102
{ACAD_XDICTIONARY
360
665
102
}
330
1
100
AcDbSymbolTableRecord
100
AcDbLayerTableRecord
  2
5
 70
     0
 62
     7
  6
CONTINUOUS
370
    -3
390
606
  0
LAYER
  5
19
102
{ACAD_XDICTIONARY
360
667
102
}
330
1
100
AcDbSymbolTableRecord
100
AcDbLayerTableRecord
  2
18
 70
     0
 62
     7
  6
CONTINUOUS
370
    -3
390
606
  0
LAYER
  5
1A
102
{ACAD_XDICTIONARY
360
669
102
}
330
1
100
AcDbSymbolTableRecord
100
AcDbLayerTableRecord
  2
20
 70
     0
 62
     7
  6
CONTINUOUS
370
    -3
390
606
  0
LAYER
  5
689
330
1
100
AcDbSymbolTableRecord
100
AcDbLayerTableRecord
  2
Defpoints
 70
     1
 62
     7
  6
CONTINUOUS
290
     0
370
    -3
390
606
  0
LAYER
  5
791
102
{ACAD_XDICTIONARY
360
792
102
}
330
1
100
AcDbSymbolTableRecord
100
AcDbLayerTableRecord
  2
SCALE
 70
     0
 62
     6
  6
CONTINUOUS
370
    -3
390
606
  0
LAYER
  5
793
330
1
100
AcDbSymbolTableRecord
100
AcDbLayerTableRecord
  2
13
 70
     0
 62
     7
  6
CONTINUOUS
370
    -3
390
606
  0
ENDTAB
  0
TABLE
  2
STYLE
  5
2
330
0
100
AcDbSymbolTable
 70
     2
  0
STYLE
  5
1D
330
2
100
AcDbSymbolTableRecord
100
AcDbTextStyleTableRecord
  2
STANDARD
 70
     0
 40
0.0
 41
1.0
 50
0.0
 71
     0
 42
1.0
  3
simplex.shx
  4
BIGFONT.shx
  0
ENDTAB
  0
TABLE
  2
VIEW
  5
4
330
0
100
AcDbSymbolTable
 70
     0
  0
ENDTAB
  0
TABLE
  2
UCS
  5
5
330
0
100
AcDbSymbolTable
 70
     0
  0
ENDTAB
  0
TABLE
  2
APPID
  5
7
330
0
100
AcDbSymbolTable
 70
     8
  0
APPID
  5
1C
330
7
100
AcDbSymbolTableRecord
100
AcDbRegAppTableRecord
  2
ACAD
 70
     0
  0
APPID
  5
658
330
7
100
AcDbSymbolTableRecord
100
AcDbRegAppTableRecord
  2
ACAD_MLEADERVER
 70
     0
  0
APPID
  5
65E
330
7
100
AcDbSymbolTableRecord
100
AcDbRegAppTableRecord
  2
AcadAnnoPO
 70
     0
  0
APPID
  5
68B
330
7
100
AcDbSymbolTableRecord
100
AcDbRegAppTableRecord
  2
ACAD_PSEXT
 70
     0
  0
APPID
  5
68C
330
7
100
AcDbSymbolTableRecord
100
AcDbRegAppTableRecord
  2
ACAD_DSTYLE_DIMBREAK
 70
     0
  0
APPID
  5
68D
330
7
100
AcDbSymbolTableRecord
100
AcDbRegAppTableRecord
  2
ACAD_DSTYLE_DIMJAG
 70
     0
  0
APPID
  5
68E
330
7
100
AcDbSymbolTableRecord
100
AcDbRegAppTableRecord
  2
ACAD_DSTYLE_DIMTALN
 70
     0
  0
APPID
  5
68F
330
7
100
AcDbSymbolTableRecord
100
AcDbRegAppTableRecord
  2
ACAD_DSTYLE_DIMJOGGED_JOGANGLE_SYMBOL
 70
     0
  0
ENDTAB
  0
TABLE
  2
DIMSTYLE
  5
8
330
0
100
AcDbSymbolTable
 70
     3
100
AcDbDimStyleTable
 71
     1
340
2C
  0
DIMSTYLE
105
2C
330
8
100
AcDbSymbolTableRecord
100
AcDbDimStyleTableRecord
  2
STANDARD
 70
     0
 40
2.0
 77
     1
340
1D
  0
DIMSTYLE
105
68A
330
8
100
AcDbSymbolTableRecord
100
AcDbDimStyleTableRecord
  2
STD （1／2）
 70
     0
 40
2.0
 41
2.5
 42
0.75
 43
3.75
 44
0.75
 73
     0
 74
     0
 77
     1
 78
     8
 79
     2
140
3.0
141
2.5
143
0.03937007874016
147
0.75
171
     3
172
     1
176
     6
177
     6
178
     2
271
     2
272
     2
274
     3
283
     0
284
     8
340
1D
341
682
342
682
371
    13
372
    13
1001
ACAD_DSTYLE_DIMBREAK
1070
   391
1040
3.75
1001
ACAD_DSTYLE_DIMJAG
1070
   388
1040
1.5
1001
ACAD_DSTYLE_DIMTALN
1070
   392
1070
     0
1001
ACAD_DSTYLE_DIMJOGGED_JOGANGLE_SYMBOL
1070
   384
1040
0.7853981633974481
  0
ENDTAB
  0
TABLE
  2
BLOCK_RECORD
  5
27
330
0
100
AcDbSymbolTable
 70
    12
  0
BLOCK_RECORD
  5
25
330
27
100
AcDbSymbolTableRecord
100
AcDbBlockTableRecord
  2
*MODEL_SPACE
340
65B
  0
BLOCK_RECORD
  5
26
330
27
100
AcDbSymbolTableRecord
100
AcDbBlockTableRecord
  2
*PAPER_SPACE
340
65C
  0
BLOCK_RECORD
  5
1E
330
27
100
AcDbSymbolTableRecord
100
AcDbBlockTableRecord
  2
*D0
340
0
  0
BLOCK_RECORD
  5
1F
330
27
100
AcDbSymbolTableRecord
100
AcDbBlockTableRecord
  2
*D1
340
0
  0
BLOCK_RECORD
  5
20
330
27
100
AcDbSymbolTableRecord
100
AcDbBlockTableRecord
  2
*D2
340
0
  0
BLOCK_RECORD
  5
21
330
27
100
AcDbSymbolTableRecord
100
AcDbBlockTableRecord
  2
*D3
340
0
  0
BLOCK_RECORD
  5
22
330
27
100
AcDbSymbolTableRecord
100
AcDbBlockTableRecord
  2
*D4
340
0
  0
BLOCK_RECORD
  5
23
330
27
100
AcDbSymbolTableRecord
100
AcDbBlockTableRecord
  2
*D5
340
0
  0
BLOCK_RECORD
  5
24
330
27
100
AcDbSymbolTableRecord
100
AcDbBlockTableRecord
  2
*D6
340
0
  0
BLOCK_RECORD
  5
682
330
27
100
AcDbSymbolTableRecord
100
AcDbBlockTableRecord
  2
_Closed
340
0
310
2800000020000000200000000100080000000000000400000000000000000000000000000000000000000000000080000080000000808000800000008000800080800000C0C0C000C0DCC000F0CAA6000020400000206000002080000020A0000020C0000020E00000400000004020000040400000406000004080000040A0
310
000040C0000040E00000600000006020000060400000606000006080000060A0000060C0000060E00000800000008020000080400000806000008080000080A0000080C0000080E00000A0000000A0200000A0400000A0600000A0800000A0A00000A0C00000A0E00000C0000000C0200000C0400000C0600000C0800000C0
310
A00000C0C00000C0E00000E0000000E0200000E0400000E0600000E0800000E0A00000E0C00000E0E00040000000400020004000400040006000400080004000A0004000C0004000E00040200000402020004020400040206000402080004020A0004020C0004020E000404000004040200040404000404060004040800040
310
40A0004040C0004040E00040600000406020004060400040606000406080004060A0004060C0004060E00040800000408020004080400040806000408080004080A0004080C0004080E00040A0000040A0200040A0400040A0600040A0800040A0A00040A0C00040A0E00040C0000040C0200040C0400040C0600040C08000
310
40C0A00040C0C00040C0E00040E0000040E0200040E0400040E0600040E0800040E0A00040E0C00040E0E00080000000800020008000400080006000800080008000A0008000C0008000E00080200000802020008020400080206000802080008020A0008020C0008020E00080400000804020008040400080406000804080
310
008040A0008040C0008040E00080600000806020008060400080606000806080008060A0008060C0008060E00080800000808020008080400080806000808080008080A0008080C0008080E00080A0000080A0200080A0400080A0600080A0800080A0A00080A0C00080A0E00080C0000080C0200080C0400080C0600080C0
310
800080C0A00080C0C00080C0E00080E0000080E0200080E0400080E0600080E0800080E0A00080E0C00080E0E000C0000000C0002000C0004000C0006000C0008000C000A000C000C000C000E000C0200000C0202000C0204000C0206000C0208000C020A000C020C000C020E000C0400000C0402000C0404000C0406000C0
310
408000C040A000C040C000C040E000C0600000C0602000C0604000C0606000C0608000C060A000C060C000C060E000C0800000C0802000C0804000C0806000C0808000C080A000C080C000C080E000C0A00000C0A02000C0A04000C0A06000C0A08000C0A0A000C0A0C000C0A0E000C0C00000C0C02000C0C04000C0C06000
310
C0C08000C0C0A000F0FBFF00A4A0A000808080000000FF0000FF000000FFFF00FF000000FF00FF00FFFF0000FFFFFF0000000000000000000000000000000000000000000000000000000000000000000000000000000000000000000000000000000000000000000000000000000000000000000000000000000000000000
310
00000000000000000000000000000000000000000000000000000000000000000000000000000000000000000000000000000000000000000000000000000000000000000000000000000000000000000000000000000000000000000000000000000000000000000000000000000000000000000000000000000000000000
310
00000000000000000000000000000000000000000000000000000000000000000000000000000000000000000000000000000000000000000000000000000000000000000000000000000000000000000000000000000000000000000000000000000000000000000000000000000000000000000000000000000000000000
310
0000000000000000000000000000000000000000FFFFFF0000000000000000000000000000000000000000000000000000000000FF0000FFFFFFFFFFFF0000000000000000000000000000000000000000000000FF0000000000000000FFFFFFFFFFFF0000000000000000000000000000000000FF00000000000000000000
310
00000000FFFFFFFFFFFF0000000000000000000000FF0000000000000000000000000000000000000000FFFFFFFFFFFF0000000000FFFFFFFFFFFFFFFFFFFFFFFFFFFFFFFFFFFFFFFFFFFFFFFFFFFFFFFFFFFF0000FF000000000000000000000000000000000000FFFFFFFFFFFFFF000000000000FF000000000000000000
310
00FFFFFFFFFFFFFFFF00000000000000000000000000FF000000FFFFFFFFFFFFFF000000000000000000000000000000000000000000FFFFFFFF000000000000000000000000000000000000000000000000000000000000000000000000000000000000000000000000000000000000000000000000000000000000000000
310
00000000000000000000000000000000000000000000000000000000000000000000000000000000000000000000000000000000000000000000000000000000000000000000000000000000000000000000000000000000000000000000000000000000000000000000000000000000000000000000000000000000000000
310
00000000000000000000000000000000000000000000000000000000000000000000000000000000000000000000000000000000000000000000000000000000000000000000000000000000000000000000000000000000000000000000000000000000000000000000000000000000000000000000000000000000000000
310
0000000000000000000000000000000000000000000000000000000000000000000000000000000000000000000000000000000000000000
  0
BLOCK_RECORD
  5
78B
330
27
100
AcDbSymbolTableRecord
100
AcDbBlockTableRecord
  2
_Open
340
0
  0
ENDTAB
  0
ENDSEC
  0
SECTION
  2
BLOCKS
  0
BLOCK
  5
28
330
25
100
AcDbEntity
  8
0
100
AcDbBlockBegin
  2
*MODEL_SPACE
 70
     0
 10
0.0
 20
0.0
 30
0.0
  3
*MODEL_SPACE
  1

  0
ENDBLK
  5
29
330
25
100
AcDbEntity
  8
0
100
AcDbBlockEnd
  0
BLOCK
  5
2A
330
26
100
AcDbEntity
 67
     1
  8
0
100
AcDbBlockBegin
  2
*PAPER_SPACE
 70
     0
 10
0.0
 20
0.0
 30
0.0
  3
*PAPER_SPACE
  1

  0
ENDBLK
  5
2B
330
26
100
AcDbEntity
 67
     1
  8
0
100
AcDbBlockEnd
  0
BLOCK
  5
5A8
330
1E
100
AcDbEntity
  8
5
100
AcDbBlockBegin
  2
*D0
 70
     1
 10
0.0
 20
0.0
 30
0.0
  3
*D0
  1

  0
TEXT
  5
5A9
330
1E
100
AcDbEntity
  8
5
 62
     2
100
AcDbText
 10
12.480547
 20
-64.971264
 30
0.0
 40
6.599999999999997
  1
167
 50
90.0
 41
0.7644000000000003
 72
     5
 11
12.480547
 21
-52.959264
 31
0.0
100
AcDbText
  0
LINE
  5
5AA
330
1E
100
AcDbEntity
  8
5
 62
     2
100
AcDbLine
 10
33.067908
 20
-141.5412639999999
 30
0.0
 11
11.480547
 21
-141.5412639999999
 31
0.0
  0
LINE
  5
5AB
330
1E
100
AcDbEntity
  8
5
 62
     2
100
AcDbLine
 10
13.480547
 20
-141.5412639999999
 30
0.0
 11
14.515823
 21
-137.677561
 31
0.0
  0
LINE
  5
5AC
330
1E
100
AcDbEntity
  8
5
 62
     2
100
AcDbLine
 10
13.480547
 20
-141.5412639999999
 30
0.0
 11
12.445271
 21
-137.677561
 31
0.0
  0
LINE
  5
5AD
330
1E
100
AcDbEntity
  8
5
 62
     2
100
AcDbLine
 10
14.515823
 20
-137.677561
 30
0.0
 11
12.445271
 21
-137.677561
 31
0.0
  0
LINE
  5
5AE
330
1E
100
AcDbEntity
  8
5
 62
     2
100
AcDbLine
 10
13.480547
 20
-141.5412639999999
 30
0.0
 11
13.480547
 21
25.458736
 31
0.0
  0
LINE
  5
5AF
330
1E
100
AcDbEntity
  8
5
 62
     2
100
AcDbLine
 10
13.480547
 20
25.458736
 30
0.0
 11
12.445271
 21
21.595032
 31
0.0
  0
LINE
  5
5B0
330
1E
100
AcDbEntity
  8
5
 62
     2
100
AcDbLine
 10
13.480547
 20
25.458736
 30
0.0
 11
14.515823
 21
21.595032
 31
0.0
  0
LINE
  5
5B1
330
1E
100
AcDbEntity
  8
5
 62
     2
100
AcDbLine
 10
12.445271
 20
21.595032
 30
0.0
 11
14.515823
 21
21.595032
 31
0.0
  0
LINE
  5
5B2
330
1E
100
AcDbEntity
  8
5
 62
     2
100
AcDbLine
 10
30.667908
 20
25.458736
 30
0.0
 11
11.480547
 21
25.458736
 31
0.0
  0
ENDBLK
  5
5B3
330
1E
100
AcDbEntity
  8
5
100
AcDbBlockEnd
  0
BLOCK
  5
5B4
330
1F
100
AcDbEntity
  8
5
100
AcDbBlockBegin
  2
*D1
 70
     1
 10
0.0
 20
0.0
 30
0.0
  3
*D1
  1

  0
TEXT
  5
5B5
330
1F
100
AcDbEntity
  8
5
 62
     2
100
AcDbText
 10
12.480547
 20
-199.4212639999999
 30
0.0
 40
6.599999999999997
  1
102
 50
90.0
 41
0.7644000000000003
 72
     5
 11
12.480547
 21
-187.4092639999999
 31
0.0
100
AcDbText
  0
LINE
  5
5B6
330
1F
100
AcDbEntity
  8
5
 62
     2
100
AcDbLine
 10
75.66790799999998
 20
-243.441264
 30
0.0
 11
11.480547
 21
-243.441264
 31
0.0
  0
LINE
  5
5B7
330
1F
100
AcDbEntity
  8
5
 62
     2
100
AcDbLine
 10
13.480547
 20
-243.441264
 30
0.0
 11
14.515823
 21
-239.577561
 31
0.0
  0
LINE
  5
5B8
330
1F
100
AcDbEntity
  8
5
 62
     2
100
AcDbLine
 10
13.480547
 20
-243.441264
 30
0.0
 11
12.445271
 21
-239.577561
 31
0.0
  0
LINE
  5
5B9
330
1F
100
AcDbEntity
  8
5
 62
     2
100
AcDbLine
 10
14.515823
 20
-239.577561
 30
0.0
 11
12.445271
 21
-239.577561
 31
0.0
  0
LINE
  5
5BA
330
1F
100
AcDbEntity
  8
5
 62
     2
100
AcDbLine
 10
13.480547
 20
-243.441264
 30
0.0
 11
13.480547
 21
-141.5412639999999
 31
0.0
  0
LINE
  5
5BB
330
1F
100
AcDbEntity
  8
5
 62
     2
100
AcDbLine
 10
13.480547
 20
-141.5412639999999
 30
0.0
 11
12.445271
 21
-145.404968
 31
0.0
  0
LINE
  5
5BC
330
1F
100
AcDbEntity
  8
5
 62
     2
100
AcDbLine
 10
13.480547
 20
-141.5412639999999
 30
0.0
 11
14.515823
 21
-145.404968
 31
0.0
  0
LINE
  5
5BD
330
1F
100
AcDbEntity
  8
5
 62
     2
100
AcDbLine
 10
12.445271
 20
-145.404968
 30
0.0
 11
14.515823
 21
-145.404968
 31
0.0
  0
LINE
  5
5BE
330
1F
100
AcDbEntity
  8
5
 62
     2
100
AcDbLine
 10
33.067908
 20
-141.5412639999999
 30
0.0
 11
11.480547
 21
-141.5412639999999
 31
0.0
  0
ENDBLK
  5
5BF
330
1F
100
AcDbEntity
  8
5
100
AcDbBlockEnd
  0
BLOCK
  5
5C0
330
20
100
AcDbEntity
  8
5
100
AcDbBlockBegin
  2
*D2
 70
     1
 10
0.0
 20
0.0
 30
0.0
  3
*D2
  1

  0
TEXT
  5
5C1
330
20
100
AcDbEntity
  8
5
 62
     2
100
AcDbText
 10
78.04790799999998
 20
-264.2789
 30
0.0
 40
6.599999999999997
  1
52
 41
0.6917647058823569
 72
     5
 11
85.43990800000001
 21
-264.2789
 31
0.0
100
AcDbText
  0
LINE
  5
5C2
330
20
100
AcDbEntity
  8
5
 62
     2
100
AcDbLine
 10
56.667908
 20
-215.541264
 30
0.0
 11
56.667908
 21
-267.2789
 31
0.0
  0
LINE
  5
5C3
330
20
100
AcDbEntity
  8
5
 62
     2
100
AcDbLine
 10
56.667908
 20
-265.2789
 30
0.0
 11
60.531611
 21
-266.314176
 31
0.0
  0
LINE
  5
5C4
330
20
100
AcDbEntity
  8
5
 62
     2
100
AcDbLine
 10
56.667908
 20
-265.2789
 30
0.0
 11
60.531611
 21
-264.243624
 31
0.0
  0
LINE
  5
5C5
330
20
100
AcDbEntity
  8
5
 62
     2
100
AcDbLine
 10
60.531611
 20
-266.314176
 30
0.0
 11
60.531611
 21
-264.243624
 31
0.0
  0
LINE
  5
5C6
330
20
100
AcDbEntity
  8
5
 62
     2
100
AcDbLine
 10
56.667908
 20
-265.2789
 30
0.0
 11
108.667908
 21
-265.2789
 31
0.0
  0
LINE
  5
5C7
330
20
100
AcDbEntity
  8
5
 62
     2
100
AcDbLine
 10
108.667908
 20
-265.2789
 30
0.0
 11
104.804204
 21
-264.243624
 31
0.0
  0
LINE
  5
5C8
330
20
100
AcDbEntity
  8
5
 62
     2
100
AcDbLine
 10
108.667908
 20
-265.2789
 30
0.0
 11
104.804204
 21
-266.314176
 31
0.0
  0
LINE
  5
5C9
330
20
100
AcDbEntity
  8
5
 62
     2
100
AcDbLine
 10
104.804204
 20
-264.243624
 30
0.0
 11
104.804204
 21
-266.314176
 31
0.0
  0
LINE
  5
5CA
330
20
100
AcDbEntity
  8
5
 62
     2
100
AcDbLine
 10
108.667908
 20
-215.541264
 30
0.0
 11
108.667908
 21
-267.2789
 31
0.0
  0
ENDBLK
  5
5CB
330
20
100
AcDbEntity
  8
5
100
AcDbBlockEnd
  0
BLOCK
  5
5CC
330
21
100
AcDbEntity
  8
5
100
AcDbBlockBegin
  2
*D3
 70
     1
 10
0.0
 20
0.0
 30
0.0
  3
*D3
  1

  0
TEXT
  5
5CD
330
21
100
AcDbEntity
  8
5
 62
     2
100
AcDbText
 10
-332.49295
 20
205.12296
 30
0.0
 40
6.599999999999997
  1
75
 50
90.0
 41
0.6917647058823527
 72
     5
 11
-332.49295
 21
212.51496
 31
0.0
100
AcDbText
  0
LINE
  5
5CE
330
21
100
AcDbEntity
  8
5
 62
     2
100
AcDbLine
 10
-320.130847
 20
172.24296
 30
0.0
 11
-333.49295
 21
172.24296
 31
0.0
  0
LINE
  5
5CF
330
21
100
AcDbEntity
  8
5
 62
     2
100
AcDbLine
 10
-331.49295
 20
172.24296
 30
0.0
 11
-330.457674
 21
176.106663
 31
0.0
  0
LINE
  5
5D0
330
21
100
AcDbEntity
  8
5
 62
     2
100
AcDbLine
 10
-331.49295
 20
172.24296
 30
0.0
 11
-332.528227
 21
176.106663
 31
0.0
  0
LINE
  5
5D1
330
21
100
AcDbEntity
  8
5
 62
     2
100
AcDbLine
 10
-330.457674
 20
176.106663
 30
0.0
 11
-332.528227
 21
176.106663
 31
0.0
  0
LINE
  5
5D2
330
21
100
AcDbEntity
  8
5
 62
     2
100
AcDbLine
 10
-331.49295
 20
172.24296
 30
0.0
 11
-331.49295
 21
247.24296
 31
0.0
  0
LINE
  5
5D3
330
21
100
AcDbEntity
  8
5
 62
     2
100
AcDbLine
 10
-331.49295
 20
247.24296
 30
0.0
 11
-332.528227
 21
243.379257
 31
0.0
  0
LINE
  5
5D4
330
21
100
AcDbEntity
  8
5
 62
     2
100
AcDbLine
 10
-331.49295
 20
247.24296
 30
0.0
 11
-330.457674
 21
243.379257
 31
0.0
  0
LINE
  5
5D5
330
21
100
AcDbEntity
  8
5
 62
     2
100
AcDbLine
 10
-332.528227
 20
243.379257
 30
0.0
 11
-330.457674
 21
243.379257
 31
0.0
  0
LINE
  5
5D6
330
21
100
AcDbEntity
  8
5
 62
     2
100
AcDbLine
 10
-247.842159
 20
247.24296
 30
0.0
 11
-333.49295
 21
247.24296
 31
0.0
  0
ENDBLK
  5
5D7
330
21
100
AcDbEntity
  8
5
100
AcDbBlockEnd
  0
BLOCK
  5
5D8
330
22
100
AcDbEntity
  8
5
100
AcDbBlockBegin
  2
*D4
 70
     1
 10
0.0
 20
0.0
 30
0.0
  3
*D4
  1

  0
TEXT
  5
5D9
330
22
100
AcDbEntity
  8
5
 62
     2
100
AcDbText
 10
-332.49295
 20
142.62296
 30
0.0
 40
6.599999999999997
  1
50
 50
90.0
 41
0.691764705882353
 72
     5
 11
-332.49295
 21
150.01496
 31
0.0
100
AcDbText
  0
LINE
  5
5DA
330
22
100
AcDbEntity
  8
5
 62
     2
100
AcDbLine
 10
-232.842159
 20
122.24296
 30
0.0
 11
-333.49295
 21
122.24296
 31
0.0
  0
LINE
  5
5DB
330
22
100
AcDbEntity
  8
5
 62
     2
100
AcDbLine
 10
-331.49295
 20
122.24296
 30
0.0
 11
-330.457674
 21
126.106663
 31
0.0
  0
LINE
  5
5DC
330
22
100
AcDbEntity
  8
5
 62
     2
100
AcDbLine
 10
-331.49295
 20
122.24296
 30
0.0
 11
-332.528227
 21
126.106663
 31
0.0
  0
LINE
  5
5DD
330
22
100
AcDbEntity
  8
5
 62
     2
100
AcDbLine
 10
-330.457674
 20
126.106663
 30
0.0
 11
-332.528227
 21
126.106663
 31
0.0
  0
LINE
  5
5DE
330
22
100
AcDbEntity
  8
5
 62
     2
100
AcDbLine
 10
-331.49295
 20
122.24296
 30
0.0
 11
-331.49295
 21
172.24296
 31
0.0
  0
LINE
  5
5DF
330
22
100
AcDbEntity
  8
5
 62
     2
100
AcDbLine
 10
-331.49295
 20
172.24296
 30
0.0
 11
-332.528227
 21
168.379257
 31
0.0
  0
LINE
  5
5E0
330
22
100
AcDbEntity
  8
5
 62
     2
100
AcDbLine
 10
-331.49295
 20
172.24296
 30
0.0
 11
-330.457674
 21
168.379257
 31
0.0
  0
LINE
  5
5E1
330
22
100
AcDbEntity
  8
5
 62
     2
100
AcDbLine
 10
-332.528227
 20
168.379257
 30
0.0
 11
-330.457674
 21
168.379257
 31
0.0
  0
LINE
  5
5E2
330
22
100
AcDbEntity
  8
5
 62
     2
100
AcDbLine
 10
-320.130847
 20
172.24296
 30
0.0
 11
-333.49295
 21
172.24296
 31
0.0
  0
ENDBLK
  5
5E3
330
22
100
AcDbEntity
  8
5
100
AcDbBlockEnd
  0
BLOCK
  5
5E4
330
23
100
AcDbEntity
  8
5
100
AcDbBlockBegin
  2
*D5
 70
     1
 10
0.0
 20
0.0
 30
0.0
  3
*D5
  1

  0
LINE
  5
5E5
330
23
100
AcDbEntity
  8
5
 62
     2
100
AcDbLine
 10
-230.841921
 20
73.35784499999999
 30
0.0
 11
-230.841921
 21
103.317978
 31
0.0
  0
LINE
  5
5E6
330
23
100
AcDbEntity
  8
5
 62
     2
100
AcDbLine
 10
-230.841921
 20
101.317978
 30
0.0
 11
-226.978218
 21
100.282702
 31
0.0
  0
LINE
  5
5E7
330
23
100
AcDbEntity
  8
5
 62
     2
100
AcDbLine
 10
-230.841921
 20
101.317978
 30
0.0
 11
-226.978218
 21
102.353254
 31
0.0
  0
LINE
  5
5E8
330
23
100
AcDbEntity
  8
5
 62
     2
100
AcDbLine
 10
-226.978218
 20
100.282702
 30
0.0
 11
-226.978218
 21
102.353254
 31
0.0
  0
LINE
  5
5E9
330
23
100
AcDbEntity
  8
5
 62
     2
100
AcDbLine
 10
-230.841921
 20
101.317978
 30
0.0
 11
-30.980461
 21
101.317978
 31
0.0
  0
LINE
  5
5EA
330
23
100
AcDbEntity
  8
5
 62
     2
100
AcDbLine
 10
-30.980461
 20
101.317978
 30
0.0
 11
-34.844164
 21
102.353254
 31
0.0
  0
LINE
  5
5EB
330
23
100
AcDbEntity
  8
5
 62
     2
100
AcDbLine
 10
-30.980461
 20
101.317978
 30
0.0
 11
-34.844164
 21
100.282702
 31
0.0
  0
LINE
  5
5EC
330
23
100
AcDbEntity
  8
5
 62
     2
100
AcDbLine
 10
-34.844164
 20
102.353254
 30
0.0
 11
-34.844164
 21
100.282702
 31
0.0
  0
LINE
  5
5ED
330
23
100
AcDbEntity
  8
5
 62
     2
100
AcDbLine
 10
-30.980461
 20
86.179052
 30
0.0
 11
-30.980461
 21
103.317978
 31
0.0
  0
ENDBLK
  5
5EE
330
23
100
AcDbEntity
  8
5
100
AcDbBlockEnd
  0
BLOCK
  5
5EF
330
24
100
AcDbEntity
  8
5
100
AcDbBlockBegin
  2
*D6
 70
     1
 10
0.0
 20
0.0
 30
0.0
  3
*D6
  1

  0
LINE
  5
5F0
330
24
100
AcDbEntity
  8
5
 62
     2
100
AcDbLine
 10
30.667908
 20
25.458736
 30
0.0
 11
11.480547
 21
25.458736
 31
0.0
  0
LINE
  5
5F1
330
24
100
AcDbEntity
  8
5
 62
     2
100
AcDbLine
 10
13.480547
 20
25.458736
 30
0.0
 11
14.515823
 21
29.322439
 31
0.0
  0
LINE
  5
5F2
330
24
100
AcDbEntity
  8
5
 62
     2
100
AcDbLine
 10
13.480547
 20
25.458736
 30
0.0
 11
12.445271
 21
29.322439
 31
0.0
  0
LINE
  5
5F3
330
24
100
AcDbEntity
  8
5
 62
     2
100
AcDbLine
 10
14.515823
 20
29.322439
 30
0.0
 11
12.445271
 21
29.322439
 31
0.0
  0
LINE
  5
5F4
330
24
100
AcDbEntity
  8
5
 62
     2
100
AcDbLine
 10
13.480547
 20
25.458736
 30
0.0
 11
13.480547
 21
91.63611000000001
 31
0.0
  0
LINE
  5
5F5
330
24
100
AcDbEntity
  8
5
 62
     2
100
AcDbLine
 10
13.480547
 20
91.63611000000001
 30
0.0
 11
12.445271
 21
87.772406
 31
0.0
  0
LINE
  5
5F6
330
24
100
AcDbEntity
  8
5
 62
     2
100
AcDbLine
 10
13.480547
 20
91.63611000000001
 30
0.0
 11
14.515823
 21
87.772406
 31
0.0
  0
LINE
  5
5F7
330
24
100
AcDbEntity
  8
5
 62
     2
100
AcDbLine
 10
12.445271
 20
87.772406
 30
0.0
 11
14.515823
 21
87.772406
 31
0.0
  0
LINE
  5
5F8
330
24
100
AcDbEntity
  8
5
 62
     2
100
AcDbLine
 10
80.66790799999997
 20
91.63611000000001
 30
0.0
 11
11.480547
 21
91.63611000000001
 31
0.0
  0
ENDBLK
  5
5F9
330
24
100
AcDbEntity
  8
5
100
AcDbBlockEnd
  0
BLOCK
  5
683
330
682
100
AcDbEntity
  8
0
100
AcDbBlockBegin
  2
_Closed
 70
     0
 10
0.0
 20
0.0
 30
0.0
  3
_Closed
  1

  0
LINE
  5
684
330
682
100
AcDbEntity
  8
0
  6
ByBlock
 62
     0
370
    -2
100
AcDbLine
 10
-1.0
 20
0.1666666666666666
 30
0.0
 11
0.0
 21
0.0
 31
0.0
  0
LINE
  5
685
330
682
100
AcDbEntity
  8
0
  6
ByBlock
 62
     0
370
    -2
100
AcDbLine
 10
0.0
 20
0.0
 30
0.0
 11
-1.0
 21
-0.1666666666666666
 31
0.0
  0
LINE
  5
686
330
682
100
AcDbEntity
  8
0
  6
ByBlock
 62
     0
370
    -2
100
AcDbLine
 10
-1.0
 20
0.1666666666666666
 30
0.0
 11
-1.0
 21
-0.1666666666666666
 31
0.0
  0
LINE
  5
687
330
682
100
AcDbEntity
  8
0
  6
ByBlock
 62
     0
370
    -2
100
AcDbLine
 10
0.0
 20
0.0
 30
0.0
 11
-1.0
 21
0.0
 31
0.0
  0
ENDBLK
  5
688
330
682
100
AcDbEntity
  8
0
100
AcDbBlockEnd
  0
BLOCK
  5
78C
330
78B
100
AcDbEntity
  8
0
100
AcDbBlockBegin
  2
_Open
 70
     0
 10
0.0
 20
0.0
 30
0.0
  3
_Open
  1

  0
LINE
  5
78D
330
78B
100
AcDbEntity
  8
0
  6
ByBlock
 62
     0
370
    -2
100
AcDbLine
 10
-1.0
 20
0.1666666666666666
 30
0.0
 11
0.0
 21
0.0
 31
0.0
  0
LINE
  5
78E
330
78B
100
AcDbEntity
  8
0
  6
ByBlock
 62
     0
370
    -2
100
AcDbLine
 10
-1.0
 20
-0.1666666666666666
 30
0.0
 11
0.0
 21
0.0
 31
0.0
  0
LINE
  5
78F
330
78B
100
AcDbEntity
  8
0
  6
ByBlock
 62
     0
370
    -2
100
AcDbLine
 10
0.0
 20
0.0
 30
0.0
 11
-1.0
 21
0.0
 31
0.0
  0
ENDBLK
  5
790
330
78B
100
AcDbEntity
  8
0
100
AcDbBlockEnd
  0
ENDSEC
  0
SECTION
  2
ENTITIES
  0
LINE
  5
2D
330
25
100
AcDbEntity
  8
1
  6
DASHED
100
AcDbLine
 10
-255.842159
 20
207.24296
 30
0.0
 11
-205.842159
 21
207.24296
 31
0.0
  0
LINE
  5
2E
330
25
100
AcDbEntity
  8
1
  6
DASHED
100
AcDbLine
 10
-255.842159
 20
137.24296
 30
0.0
 11
-205.842159
 21
137.24296
 31
0.0
  0
LINE
  5
2F
330
25
100
AcDbEntity
  8
1
  6
DASHED
100
AcDbLine
 10
-265.842159
 20
147.24296
 30
0.0
 11
-265.842159
 21
197.24296
 31
0.0
  0
LINE
  5
30
330
25
100
AcDbEntity
  8
1
  6
DASHED
100
AcDbLine
 10
-195.842159
 20
147.24296
 30
0.0
 11
-195.842159
 21
197.24296
 31
0.0
  0
ARC
  5
31
330
25
100
AcDbEntity
  8
1
  6
DASHED
100
AcDbCircle
 10
-255.842159
 20
147.24296
 30
0.0
 40
10.0
100
AcDbArc
 50
180.0
 51
270.0
  0
ARC
  5
32
330
25
100
AcDbEntity
  8
1
  6
DASHED
100
AcDbCircle
 10
-205.842159
 20
147.24296
 30
0.0
 40
10.0
100
AcDbArc
 50
270.0
 51
0.0
  0
ARC
  5
33
330
25
100
AcDbEntity
  8
1
  6
DASHED
100
AcDbCircle
 10
-205.842159
 20
197.24296
 30
0.0
 40
10.0
100
AcDbArc
 50
0.0
 51
90.0
  0
ARC
  5
34
330
25
100
AcDbEntity
  8
1
  6
DASHED
100
AcDbCircle
 10
-255.842159
 20
197.24296
 30
0.0
 40
10.0
100
AcDbArc
 50
90.0
 51
180.0
  0
CIRCLE
  5
35
330
25
100
AcDbEntity
  8
1
  6
DASHED
100
AcDbCircle
 10
-206.092159
 20
196.99296
 30
0.0
 40
4.5
  0
CIRCLE
  5
36
330
25
100
AcDbEntity
  8
1
  6
DASHED
100
AcDbCircle
 10
-206.092159
 20
147.49296
 30
0.0
 40
4.5
  0
CIRCLE
  5
37
330
25
100
AcDbEntity
  8
1
  6
DASHED
100
AcDbCircle
 10
-255.592159
 20
147.49296
 30
0.0
 40
4.5
  0
CIRCLE
  5
38
330
25
100
AcDbEntity
  8
1
  6
DASHED
100
AcDbCircle
 10
-255.592159
 20
196.99296
 30
0.0
 40
4.5
  0
LINE
  5
39
330
25
100
AcDbEntity
  8
1
  6
CENTER
 62
     2
100
AcDbLine
 10
-215.278534
 20
196.99296
 30
0.0
 11
-197.192613
 21
196.99296
 31
0.0
  0
LINE
  5
3A
330
25
100
AcDbEntity
  8
1
  6
CENTER
 62
     2
100
AcDbLine
 10
-264.972818
 20
147.49296
 30
0.0
 11
-245.823975
 21
147.49296
 31
0.0
  0
LINE
  5
3B
330
25
100
AcDbEntity
  8
1
  6
CENTER
 62
     2
100
AcDbLine
 10
-206.092159
 20
187.697678
 30
0.0
 11
-206.092159
 21
206.345108
 31
0.0
  0
LINE
  5
3C
330
25
100
AcDbEntity
  8
1
  6
CENTER
 62
     2
100
AcDbLine
 10
-255.592159
 20
138.5159149999999
 30
0.0
 11
-255.592159
 21
157.138733
 31
0.0
  0
LINE
  5
3D
330
25
100
AcDbEntity
  8
1
  6
CENTER
 62
     2
100
AcDbLine
 10
-230.841921
 20
67.20591
 30
0.0
 11
-230.841921
 21
-252.241323
 31
0.0
  0
LINE
  5
3E
330
25
100
AcDbEntity
  8
1
  6
CENTER
 62
     2
100
AcDbLine
 10
-255.590658
 20
-0.357618
 30
0.0
 11
-255.590658
 21
36.662163
 31
0.0
  0
LINE
  5
3F
330
25
100
AcDbEntity
  8
1
  6
CENTER
 62
     2
100
AcDbLine
 10
-143.4663699999999
 20
-141.541323
 30
0.0
 11
-318.376957
 21
-141.541323
 31
0.0
  0
LINE
  5
40
330
25
100
AcDbEntity
  8
1
100
AcDbLine
 10
-249.841921
 20
-235.541323
 30
0.0
 11
-211.841921
 21
-235.541323
 31
0.0
  0
LINE
  5
41
330
25
100
AcDbEntity
  8
1
100
AcDbLine
 10
-263.290658
 20
13.458677
 30
0.0
 11
-198.393184
 21
13.458677
 31
0.0
  0
LINE
  5
42
330
25
100
AcDbEntity
  8
1
100
AcDbLine
 10
-248.341921
 20
8.458676999999998
 30
0.0
 11
-248.341921
 21
-63.22944599999999
 31
0.0
  0
LINE
  5
43
330
25
100
AcDbEntity
  8
1
100
AcDbLine
 10
-213.341921
 20
5.535299
 30
0.0
 11
-213.341921
 21
-63.22944599999999
 31
0.0
  0
LINE
  5
44
330
25
100
AcDbEntity
  8
1
100
AcDbLine
 10
-249.841921
 20
-237.941323
 30
0.0
 11
-249.841921
 21
-215.757224
 31
0.0
  0
LINE
  5
45
330
25
100
AcDbEntity
  8
1
100
AcDbLine
 10
-211.841921
 20
-237.941323
 30
0.0
 11
-211.841921
 21
-215.757224
 31
0.0
  0
LINE
  5
46
330
25
100
AcDbEntity
  8
1
100
AcDbLine
 10
-265.841921
 20
25.458677
 30
0.0
 11
-265.841921
 21
17.45867699999999
 31
0.0
  0
LINE
  5
47
330
25
100
AcDbEntity
  8
1
100
AcDbLine
 10
-195.841921
 20
25.458677
 30
0.0
 11
-195.841921
 21
17.45867699999999
 31
0.0
  0
LINE
  5
48
330
25
100
AcDbEntity
  8
1
100
AcDbLine
 10
-233.841921
 20
11.458677
 30
0.0
 11
-233.841921
 21
0.5179800000000001
 31
0.0
  0
LINE
  5
49
330
25
100
AcDbEntity
  8
1
100
AcDbLine
 10
-227.841921
 20
11.458677
 30
0.0
 11
-227.841921
 21
0.5179800000000001
 31
0.0
  0
LINE
  5
4A
330
25
100
AcDbEntity
  8
1
  6
DASHED
100
AcDbLine
 10
-169.849622
 20
158.24296
 30
0.0
 11
-195.842159
 21
158.24296
 31
0.0
  0
LINE
  5
4B
330
25
100
AcDbEntity
  8
1
  6
CENTER
 62
     2
100
AcDbLine
 10
-243.841921
 20
-228.641323
 30
0.0
 11
-243.841921
 21
-247.999974
 31
0.0
  0
LINE
  5
4C
330
25
100
AcDbEntity
  8
1
  6
CENTER
 62
     2
100
AcDbLine
 10
-217.841921
 20
-229.491323
 30
0.0
 11
-217.841921
 21
-247.999974
 31
0.0
  0
ARC
  5
4D
330
25
100
AcDbEntity
  8
1
100
AcDbCircle
 10
-261.841921
 20
17.45867699999999
 30
0.0
 40
4.0
100
AcDbArc
 50
180.0
 51
270.0
  0
ARC
  5
4E
330
25
100
AcDbEntity
  8
1
100
AcDbCircle
 10
-199.841921
 20
17.45867699999999
 30
0.0
 40
4.0
100
AcDbArc
 50
270.0
 51
360.0
  0
ARC
  5
4F
330
25
100
AcDbEntity
  8
1
100
AcDbCircle
 10
-253.341921
 20
8.458676999999998
 30
0.0
 40
5.0
100
AcDbArc
 50
0.0
 51
90.0
  0
ARC
  5
50
330
25
100
AcDbEntity
  8
1
100
AcDbCircle
 10
-198.341921
 20
-1.48202
 30
0.0
 40
15.0
100
AcDbArc
 50
154.571793
 51
180.0
  0
ARC
  5
51
330
25
100
AcDbEntity
  8
1
100
AcDbCircle
 10
-263.341921
 20
-1.48202
 30
0.0
 40
15.0
100
AcDbArc
 50
0.0
 51
85.47193699999999
  0
LINE
  5
52
330
25
100
AcDbEntity
  8
1
100
AcDbLine
 10
-241.626192
 20
8.458676999999998
 30
0.0
 11
-241.626192
 21
-6.239341999999997
 31
0.0
  0
LINE
  5
53
330
25
100
AcDbEntity
  8
1
100
AcDbLine
 10
-220.05765
 20
8.458676999999998
 30
0.0
 11
-220.05765
 21
-6.239341999999997
 31
0.0
  0
ARC
  5
54
330
25
100
AcDbEntity
  8
1
100
AcDbCircle
 10
-246.626192
 20
8.458676999999998
 30
0.0
 40
5.0
100
AcDbArc
 50
0.0
 51
90.0
  0
ARC
  5
55
330
25
100
AcDbEntity
  8
1
100
AcDbCircle
 10
-215.05765
 20
8.458676999999998
 30
0.0
 40
5.0
100
AcDbArc
 50
90.0
 51
180.0
  0
LINE
  5
56
330
25
100
AcDbEntity
  8
1
100
AcDbLine
 10
-217.834107
 20
-9.137119
 30
0.0
 11
-215.565464
 21
-9.744999999999999
 31
0.0
  0
LINE
  5
57
330
25
100
AcDbEntity
  8
1
100
AcDbLine
 10
-243.849735
 20
-9.137119
 30
0.0
 11
-246.118378
 21
-9.744999999999999
 31
0.0
  0
ARC
  5
58
330
25
100
AcDbEntity
  8
1
100
AcDbCircle
 10
-217.05765
 20
-6.239341999999997
 30
0.0
 40
3.0
100
AcDbArc
 50
180.0
 51
255.0
  0
ARC
  5
59
330
25
100
AcDbEntity
  8
1
100
AcDbCircle
 10
-244.626192
 20
-6.239341999999997
 30
0.0
 40
3.0
100
AcDbArc
 50
285.0
 51
0.0
  0
ARC
  5
5A
330
25
100
AcDbEntity
  8
1
100
AcDbCircle
 10
-216.341921
 20
-12.642778
 30
0.0
 40
3.0
100
AcDbArc
 50
0.0
 51
75.0
  0
ARC
  5
5B
330
25
100
AcDbEntity
  8
1
100
AcDbCircle
 10
-245.341921
 20
-12.642778
 30
0.0
 40
3.0
100
AcDbArc
 50
105.0
 51
180.0
  0
ARC
  5
5C
330
25
100
AcDbEntity
  8
1
100
AcDbCircle
 10
-225.841921
 20
11.458677
 30
0.0
 40
2.0
100
AcDbArc
 50
90.0
 51
180.0
  0
ARC
  5
5D
330
25
100
AcDbEntity
  8
1
100
AcDbCircle
 10
-235.841921
 20
11.458677
 30
0.0
 40
2.0
100
AcDbArc
 50
360.0
 51
90.0
  0
ARC
  5
5E
330
25
100
AcDbEntity
  8
1
100
AcDbCircle
 10
-235.841921
 20
0.5179800000000001
 30
0.0
 40
2.0
100
AcDbArc
 50
270.0
 51
360.0
  0
ARC
  5
5F
330
25
100
AcDbEntity
  8
1
100
AcDbCircle
 10
-225.841921
 20
0.5179800000000001
 30
0.0
 40
2.0
100
AcDbArc
 50
180.0
 51
270.0
  0
ARC
  5
60
330
25
100
AcDbEntity
  8
1
100
AcDbCircle
 10
-203.341921
 20
-63.22944599999999
 30
0.0
 40
10.0
100
AcDbArc
 50
180.0
 51
250.650764
  0
ARC
  5
61
330
25
100
AcDbEntity
  8
1
100
AcDbCircle
 10
-258.341921
 20
-63.22944599999999
 30
0.0
 40
10.0
100
AcDbArc
 50
289.349236
 51
360.0
  0
ARC
  5
62
330
25
100
AcDbEntity
  8
1
100
AcDbCircle
 10
-230.841921
 20
-111.541323
 30
0.0
 40
82.0
100
AcDbArc
 50
61.99665400000001
 51
72.60767
  0
ARC
  5
63
330
25
100
AcDbEntity
  8
1
100
AcDbCircle
 10
-230.841921
 20
-111.541323
 30
0.0
 40
82.0
100
AcDbArc
 50
107.39233
 51
118.003346
  0
ARC
  5
64
330
25
100
AcDbEntity
  8
1
100
AcDbCircle
 10
-203.341921
 20
-23.74753
 30
0.0
 40
10.0
100
AcDbArc
 50
180.0
 51
252.60767
  0
ARC
  5
65
330
25
100
AcDbEntity
  8
1
100
AcDbCircle
 10
-258.341921
 20
-23.74753
 30
0.0
 40
10.0
100
AcDbArc
 50
287.3923299999999
 51
360.0
  0
LINE
  5
66
330
25
100
AcDbEntity
  8
1
100
AcDbLine
 10
-270.016962
 20
-46.96440599999998
 30
0.0
 11
-271.1602430000001
 21
-44.204283
 31
0.0
  0
LINE
  5
67
330
25
100
AcDbEntity
  8
1
100
AcDbLine
 10
-191.666879
 20
-46.96440599999998
 30
0.0
 11
-190.523599
 21
-44.204283
 31
0.0
  0
ARC
  5
68
330
25
100
AcDbEntity
  8
1
100
AcDbCircle
 10
-194.219117
 20
-42.67354899999999
 30
0.0
 40
4.0
100
AcDbArc
 50
337.5
 51
61.99665400000001
  0
ARC
  5
69
330
25
100
AcDbEntity
  8
1
100
AcDbCircle
 10
-267.464725
 20
-42.67354899999999
 30
0.0
 40
4.0
100
AcDbArc
 50
118.003346
 51
202.5
  0
LINE
  5
6A
330
25
100
AcDbEntity
  8
1
100
AcDbLine
 10
-204.46722
 20
-54.401348
 30
0.0
 11
-207.785501
 21
-61.10873299999999
 31
0.0
  0
LINE
  5
6B
330
25
100
AcDbEntity
  8
1
100
AcDbLine
 10
-257.216622
 20
-54.401348
 30
0.0
 11
-253.89834
 21
-61.10873299999999
 31
0.0
  0
ARC
  5
6C
330
25
100
AcDbEntity
  8
1
100
AcDbCircle
 10
-199.270538
 20
-65.32126099999999
 30
0.0
 40
9.5
100
AcDbArc
 50
153.677446
 51
247.5
  0
ARC
  5
6D
330
25
100
AcDbEntity
  8
1
100
AcDbCircle
 10
-262.413304
 20
-65.32126099999999
 30
0.0
 40
9.5
100
AcDbArc
 50
292.5
 51
26.322554
  0
ARC
  5
6E
330
25
100
AcDbEntity
  8
1
100
AcDbCircle
 10
-196.400412
 20
-58.392165
 30
0.0
 40
9.0
100
AcDbArc
 50
85.420213
 51
153.677446
  0
ARC
  5
6F
330
25
100
AcDbEntity
  8
1
100
AcDbCircle
 10
-265.2834299999999
 20
-58.392165
 30
0.0
 40
9.0
100
AcDbArc
 50
26.322554
 51
94.57978699999999
  0
ARC
  5
70
330
25
100
AcDbEntity
  8
1
100
AcDbCircle
 10
-195.362397
 20
-45.43367199999997
 30
0.0
 40
4.0
100
AcDbArc
 50
265.420213
 51
337.5
  0
ARC
  5
71
330
25
100
AcDbEntity
  8
1
100
AcDbCircle
 10
-266.321444
 20
-45.43367199999997
 30
0.0
 40
4.0
100
AcDbArc
 50
202.5
 51
274.579787
  0
LINE
  5
72
330
25
100
AcDbEntity
  8
1
100
AcDbLine
 10
-208.047393
 20
-221.396877
 30
0.0
 11
-204.570282
 21
-229.791365
 31
0.0
  0
LINE
  5
73
330
25
100
AcDbEntity
  8
1
100
AcDbLine
 10
-253.636448
 20
-221.396877
 30
0.0
 11
-257.113559
 21
-229.791365
 31
0.0
  0
ARC
  5
74
330
25
100
AcDbEntity
  8
1
100
AcDbCircle
 10
-199.270538
 20
-217.761384
 30
0.0
 40
9.5
100
AcDbArc
 50
112.5
 51
202.5
  0
ARC
  5
75
330
25
100
AcDbEntity
  8
1
100
AcDbCircle
 10
-262.413304
 20
-217.761384
 30
0.0
 40
9.5
100
AcDbArc
 50
337.5
 51
67.5
  0
LINE
  5
76
330
25
100
AcDbEntity
  8
1
100
AcDbLine
 10
-246.841921
 20
-232.541323
 30
0.0
 11
-214.841921
 21
-232.541323
 31
0.0
  0
LINE
  5
77
330
25
100
AcDbEntity
  8
1
100
AcDbLine
 10
-208.946619
 20
-232.440217
 30
0.0
 11
-205.681106
 21
-232.326182
 31
0.0
  0
ARC
  5
78
330
25
100
AcDbEntity
  8
1
100
AcDbCircle
 10
-206.841921
 20
-215.757224
 30
0.0
 40
5.0
100
AcDbArc
 50
107.920213
 51
180.0
  0
ARC
  5
79
330
25
100
AcDbEntity
  8
1
100
AcDbCircle
 10
-254.841921
 20
-215.757224
 30
0.0
 40
5.0
100
AcDbArc
 50
0.0
 51
72.07978699999998
  0
ARC
  5
7A
330
25
100
AcDbEntity
  8
1
100
AcDbCircle
 10
-207.341921
 20
-230.939416
 30
0.0
 40
3.0
100
AcDbArc
 50
0.0
 51
22.5
  0
ARC
  5
7B
330
25
100
AcDbEntity
  8
1
100
AcDbCircle
 10
-205.729533
 20
-230.939416
 30
0.0
 40
1.387612
100
AcDbArc
 50
272.0
 51
360.0
  0
ARC
  5
7C
330
25
100
AcDbEntity
  8
1
100
AcDbCircle
 10
-254.341921
 20
-230.939416
 30
0.0
 40
3.0
100
AcDbArc
 50
157.5
 51
180.0
  0
ARC
  5
7D
330
25
100
AcDbEntity
  8
1
100
AcDbCircle
 10
-255.954309
 20
-230.939416
 30
0.0
 40
1.387612
100
AcDbArc
 50
180.0
 51
268.0
  0
LINE
  5
7E
330
25
100
AcDbEntity
  8
1
100
AcDbLine
 10
-252.737222
 20
-232.440217
 30
0.0
 11
-256.002736
 21
-232.326182
 31
0.0
  0
ARC
  5
7F
330
25
100
AcDbEntity
  8
1
100
AcDbCircle
 10
-214.841921
 20
-229.541323
 30
0.0
 40
3.0
100
AcDbArc
 50
270.0
 51
360.0
  0
ARC
  5
80
330
25
100
AcDbEntity
  8
1
100
AcDbCircle
 10
-246.841921
 20
-229.541323
 30
0.0
 40
3.0
100
AcDbArc
 50
180.0
 51
270.0
  0
ARC
  5
81
330
25
100
AcDbEntity
  8
1
100
AcDbCircle
 10
-208.841921
 20
-235.438389
 30
0.0
 40
3.0
100
AcDbArc
 50
92.0
 51
180.0
  0
ARC
  5
82
330
25
100
AcDbEntity
  8
1
100
AcDbCircle
 10
-252.841921
 20
-235.438389
 30
0.0
 40
3.0
100
AcDbArc
 50
360.0
 51
88.0
  0
LINE
  5
83
330
25
100
AcDbEntity
  8
1
100
AcDbLine
 10
-249.841921
 20
-236.341323
 30
0.0
 11
-211.841921
 21
-236.341323
 31
0.0
  0
LINE
  5
84
330
25
100
AcDbEntity
  8
1
100
AcDbLine
 10
-249.941921
 20
-237.941323
 30
0.0
 11
-211.741921
 21
-237.941323
 31
0.0
  0
LINE
  5
85
330
25
100
AcDbEntity
  8
1
100
AcDbLine
 10
-223.941921
 20
-239.441323
 30
0.0
 11
-211.741921
 21
-239.441323
 31
0.0
  0
LINE
  5
86
330
25
100
AcDbEntity
  8
1
100
AcDbLine
 10
-212.091921
 20
-239.441323
 30
0.0
 11
-212.091921
 21
-242.950575
 31
0.0
  0
LINE
  5
87
330
25
100
AcDbEntity
  8
1
100
AcDbLine
 10
-212.091921
 20
-242.950575
 30
0.0
 11
-212.941921
 21
-243.441323
 31
0.0
  0
LINE
  5
88
330
25
100
AcDbEntity
  8
1
100
AcDbLine
 10
-214.966921
 20
-239.441323
 30
0.0
 11
-214.966921
 21
-242.950575
 31
0.0
  0
ARC
  5
89
330
25
100
AcDbEntity
  8
1
100
AcDbCircle
 10
-213.529421
 20
-241.10262
 30
0.0
 40
2.341226999999999
100
AcDbArc
 50
232.121121
 51
307.878879
  0
ARC
  5
8A
330
25
100
AcDbEntity
  8
1
100
AcDbCircle
 10
-217.841921
 20
-234.818847
 30
0.0
 40
8.625
100
AcDbArc
 50
250.528777
 51
289.471219
  0
LINE
  5
8B
330
25
100
AcDbEntity
  8
1
100
AcDbLine
 10
-223.591921
 20
-239.441323
 30
0.0
 11
-223.591921
 21
-242.950575
 31
0.0
  0
LINE
  5
8C
330
25
100
AcDbEntity
  8
1
100
AcDbLine
 10
-223.591921
 20
-242.950575
 30
0.0
 11
-222.741921
 21
-243.441323
 31
0.0
  0
LINE
  5
8D
330
25
100
AcDbEntity
  8
1
100
AcDbLine
 10
-222.741921
 20
-243.441323
 30
0.0
 11
-212.941921
 21
-243.441323
 31
0.0
  0
LINE
  5
8E
330
25
100
AcDbEntity
  8
1
100
AcDbLine
 10
-220.716921
 20
-239.441323
 30
0.0
 11
-220.716921
 21
-242.950575
 31
0.0
  0
ARC
  5
8F
330
25
100
AcDbEntity
  8
1
100
AcDbCircle
 10
-222.154421
 20
-241.10262
 30
0.0
 40
2.341226999999999
100
AcDbArc
 50
232.121121
 51
307.878879
  0
LINE
  5
90
330
25
100
AcDbEntity
  8
1
100
AcDbLine
 10
-211.741921
 20
-237.941323
 30
0.0
 11
-211.741921
 21
-239.441323
 31
0.0
  0
LINE
  5
91
330
25
100
AcDbEntity
  8
1
100
AcDbLine
 10
-223.941921
 20
-239.441323
 30
0.0
 11
-223.941921
 21
-237.941323
 31
0.0
  0
LINE
  5
92
330
25
100
AcDbEntity
  8
1
100
AcDbLine
 10
-217.841921
 20
-239.441323
 30
0.0
 11
-218.341921
 21
-237.941323
 31
0.0
  0
LINE
  5
93
330
25
100
AcDbEntity
  8
1
100
AcDbLine
 10
-217.841921
 20
-237.941323
 30
0.0
 11
-217.341921
 21
-239.441323
 31
0.0
  0
LINE
  5
94
330
25
100
AcDbEntity
  8
1
100
AcDbLine
 10
-249.941921
 20
-239.441323
 30
0.0
 11
-237.741921
 21
-239.441323
 31
0.0
  0
LINE
  5
95
330
25
100
AcDbEntity
  8
1
100
AcDbLine
 10
-238.091921
 20
-239.441323
 30
0.0
 11
-238.091921
 21
-242.950575
 31
0.0
  0
LINE
  5
96
330
25
100
AcDbEntity
  8
1
100
AcDbLine
 10
-238.091921
 20
-242.950575
 30
0.0
 11
-238.941921
 21
-243.441323
 31
0.0
  0
LINE
  5
97
330
25
100
AcDbEntity
  8
1
100
AcDbLine
 10
-240.966921
 20
-239.441323
 30
0.0
 11
-240.966921
 21
-242.950575
 31
0.0
  0
ARC
  5
98
330
25
100
AcDbEntity
  8
1
100
AcDbCircle
 10
-239.529421
 20
-241.10262
 30
0.0
 40
2.341226999999999
100
AcDbArc
 50
232.121121
 51
307.878879
  0
ARC
  5
99
330
25
100
AcDbEntity
  8
1
100
AcDbCircle
 10
-243.841921
 20
-234.818847
 30
0.0
 40
8.625
100
AcDbArc
 50
250.528777
 51
289.471219
  0
LINE
  5
9A
330
25
100
AcDbEntity
  8
1
100
AcDbLine
 10
-249.591921
 20
-239.441323
 30
0.0
 11
-249.591921
 21
-242.950575
 31
0.0
  0
LINE
  5
9B
330
25
100
AcDbEntity
  8
1
100
AcDbLine
 10
-249.591921
 20
-242.950575
 30
0.0
 11
-248.741921
 21
-243.441323
 31
0.0
  0
LINE
  5
9C
330
25
100
AcDbEntity
  8
1
100
AcDbLine
 10
-248.741921
 20
-243.441323
 30
0.0
 11
-238.941921
 21
-243.441323
 31
0.0
  0
LINE
  5
9D
330
25
100
AcDbEntity
  8
1
100
AcDbLine
 10
-246.716921
 20
-239.441323
 30
0.0
 11
-246.716921
 21
-242.950575
 31
0.0
  0
ARC
  5
9E
330
25
100
AcDbEntity
  8
1
100
AcDbCircle
 10
-248.154421
 20
-241.10262
 30
0.0
 40
2.341226999999999
100
AcDbArc
 50
232.121121
 51
307.878879
  0
LINE
  5
9F
330
25
100
AcDbEntity
  8
1
100
AcDbLine
 10
-237.741921
 20
-237.941323
 30
0.0
 11
-237.741921
 21
-239.441323
 31
0.0
  0
LINE
  5
A0
330
25
100
AcDbEntity
  8
1
100
AcDbLine
 10
-249.941921
 20
-239.441323
 30
0.0
 11
-249.941921
 21
-237.941323
 31
0.0
  0
LINE
  5
A1
330
25
100
AcDbEntity
  8
1
100
AcDbLine
 10
-243.841921
 20
-239.441323
 30
0.0
 11
-244.341921
 21
-237.941323
 31
0.0
  0
LINE
  5
A2
330
25
100
AcDbEntity
  8
1
100
AcDbLine
 10
-243.841921
 20
-237.941323
 30
0.0
 11
-243.341921
 21
-239.441323
 31
0.0
  0
LINE
  5
A3
330
25
100
AcDbEntity
  8
1
100
AcDbLine
 10
-158.842159
 20
146.24296
 30
0.0
 11
-157.842159
 21
147.24296
 31
0.0
  0
LINE
  5
A4
330
25
100
AcDbEntity
  8
1
100
AcDbLine
 10
-158.842159
 20
198.24296
 30
0.0
 11
-157.842159
 21
197.24296
 31
0.0
  0
LINE
  5
A5
330
25
100
AcDbEntity
  8
1
  6
DASHED
100
AcDbLine
 10
-162.2564459999999
 20
163.217022
 30
0.0
 11
-162.2564459999999
 21
181.268898
 31
0.0
  0
LINE
  5
A6
330
25
100
AcDbEntity
  8
1
  6
DASHED
100
AcDbLine
 10
-163.849622
 20
164.24296
 30
0.0
 11
-163.849622
 21
180.24296
 31
0.0
  0
ARC
  5
A7
330
25
100
AcDbEntity
  8
1
  6
DASHED
100
AcDbCircle
 10
-169.849622
 20
164.24296
 30
0.0
 40
6.0
100
AcDbArc
 50
270.0
 51
360.0
  0
LINE
  5
A8
330
25
100
AcDbEntity
  8
1
  6
DASHED
100
AcDbLine
 10
-190.219355
 20
170.74296
 30
0.0
 11
-190.219355
 21
173.74296
 31
0.0
  0
LINE
  5
A9
330
25
100
AcDbEntity
  8
1
  6
DASHED
100
AcDbLine
 10
-195.842159
 20
175.74296
 30
0.0
 11
-192.219355
 21
175.74296
 31
0.0
  0
LINE
  5
AA
330
25
100
AcDbEntity
  8
1
  6
DASHED
100
AcDbLine
 10
-195.842159
 20
168.74296
 30
0.0
 11
-192.219355
 21
168.74296
 31
0.0
  0
LINE
  5
AB
330
25
100
AcDbEntity
  8
1
100
AcDbLine
 10
-157.842159
 20
190.079595
 30
0.0
 11
-157.842159
 21
197.24296
 31
0.0
  0
LINE
  5
AC
330
25
100
AcDbEntity
  8
1
  6
DASHED
100
AcDbLine
 10
-178.234141
 20
183.563468
 30
0.0
 11
-195.842159
 21
183.563468
 31
0.0
  0
LINE
  5
AD
330
25
100
AcDbEntity
  8
1
  6
DASHED
100
AcDbLine
 10
-178.234141
 20
160.922452
 30
0.0
 11
-195.842159
 21
160.922452
 31
0.0
  0
ARC
  5
AE
330
25
100
AcDbEntity
  8
1
  6
DASHED
100
AcDbCircle
 10
-162.842159
 20
154.406325
 30
0.0
 40
5.0
100
AcDbArc
 50
0.0
 51
53.223068
  0
ARC
  5
AF
330
25
100
AcDbEntity
  8
1
  6
DASHED
100
AcDbCircle
 10
-156.256446
 20
163.217022
 30
0.0
 40
6.0
100
AcDbArc
 50
180.0
 51
233.223068
  0
LINE
  5
B0
330
25
100
AcDbEntity
  8
1
  6
DASHED
100
AcDbLine
 10
-174.913633
 20
164.24296
 30
0.0
 11
-174.913633
 21
180.24296
 31
0.0
  0
ARC
  5
B1
330
25
100
AcDbEntity
  8
1
  6
DASHED
100
AcDbCircle
 10
-178.234141
 20
180.24296
 30
0.0
 40
3.320508
100
AcDbArc
 50
0.0
 51
90.0
  0
ARC
  5
B2
330
25
100
AcDbEntity
  8
1
  6
DASHED
100
AcDbCircle
 10
-178.234141
 20
164.24296
 30
0.0
 40
3.320508
100
AcDbArc
 50
270.0
 51
0.0
  0
ARC
  5
B3
330
25
100
AcDbEntity
  8
1
  6
DASHED
100
AcDbCircle
 10
-192.219355
 20
173.74296
 30
0.0
 40
2.0
100
AcDbArc
 50
0.0
 51
90.0
  0
ARC
  5
B4
330
25
100
AcDbEntity
  8
1
  6
DASHED
100
AcDbCircle
 10
-192.219355
 20
170.74296
 30
0.0
 40
2.0
100
AcDbArc
 50
270.0
 51
360.0
  0
LINE
  5
B5
330
25
100
AcDbEntity
  8
1
  6
DASHED
100
AcDbLine
 10
-166.94537
 20
185.493229
 30
0.0
 11
-174.913633
 21
183.563468
 31
0.0
  0
LINE
  5
B6
330
25
100
AcDbEntity
  8
1
  6
DASHED
100
AcDbLine
 10
-166.94537
 20
158.9926909999999
 30
0.0
 11
-174.913633
 21
160.922452
 31
0.0
  0
LINE
  5
B7
330
25
100
AcDbEntity
  8
1
100
AcDbLine
 10
-302.842159
 20
146.24296
 30
0.0
 11
-303.842159
 21
147.24296
 31
0.0
  0
LINE
  5
B8
330
25
100
AcDbEntity
  8
1
100
AcDbLine
 10
-302.842159
 20
198.24296
 30
0.0
 11
-303.842159
 21
197.24296
 31
0.0
  0
LINE
  5
B9
330
25
100
AcDbEntity
  8
1
100
AcDbLine
 10
-299.427872
 20
163.217022
 30
0.0
 11
-299.427872
 21
181.268898
 31
0.0
  0
LINE
  5
BA
330
25
100
AcDbEntity
  8
1
100
AcDbLine
 10
-297.834696
 20
164.24296
 30
0.0
 11
-297.834696
 21
180.24296
 31
0.0
  0
ARC
  5
BB
330
25
100
AcDbEntity
  8
1
100
AcDbCircle
 10
-291.834696
 20
180.24296
 30
0.0
 40
6.0
100
AcDbArc
 50
90.0
 51
180.0
  0
ARC
  5
BC
330
25
100
AcDbEntity
  8
1
100
AcDbCircle
 10
-291.834696
 20
164.24296
 30
0.0
 40
6.0
100
AcDbArc
 50
180.0
 51
270.0
  0
LINE
  5
BD
330
25
100
AcDbEntity
  8
1
  6
DASHED
100
AcDbLine
 10
-271.464963
 20
170.74296
 30
0.0
 11
-271.464963
 21
173.74296
 31
0.0
  0
LINE
  5
BE
330
25
100
AcDbEntity
  8
1
  6
DASHED
100
AcDbLine
 10
-265.842159
 20
175.74296
 30
0.0
 11
-269.464963
 21
175.74296
 31
0.0
  0
LINE
  5
BF
330
25
100
AcDbEntity
  8
1
  6
DASHED
100
AcDbLine
 10
-265.842159
 20
168.74296
 30
0.0
 11
-269.464963
 21
168.74296
 31
0.0
  0
LINE
  5
C0
330
25
100
AcDbEntity
  8
1
100
AcDbLine
 10
-303.842159
 20
147.24296
 30
0.0
 11
-303.842159
 21
154.406325
 31
0.0
  0
LINE
  5
C1
330
25
100
AcDbEntity
  8
1
100
AcDbLine
 10
-303.842159
 20
190.079595
 30
0.0
 11
-303.842159
 21
197.24296
 31
0.0
  0
ARC
  5
C2
330
25
100
AcDbEntity
  8
1
100
AcDbCircle
 10
-298.842159
 20
190.079595
 30
0.0
 40
5.0
100
AcDbArc
 50
180.0
 51
233.223068
  0
ARC
  5
C3
330
25
100
AcDbEntity
  8
1
100
AcDbCircle
 10
-298.842159
 20
154.406325
 30
0.0
 40
5.0
100
AcDbArc
 50
126.776932
 51
180.0
  0
ARC
  5
C4
330
25
100
AcDbEntity
  8
1
100
AcDbCircle
 10
-305.4278720000001
 20
181.268898
 30
0.0
 40
6.0
100
AcDbArc
 50
0.0
 51
53.223068
  0
ARC
  5
C5
330
25
100
AcDbEntity
  8
1
100
AcDbCircle
 10
-305.4278720000001
 20
163.217022
 30
0.0
 40
6.0
100
AcDbArc
 50
306.776932
 51
360.0
  0
LINE
  5
C6
330
25
100
AcDbEntity
  8
1
100
AcDbLine
 10
-286.770685
 20
164.24296
 30
0.0
 11
-286.770685
 21
180.24296
 31
0.0
  0
ARC
  5
C7
330
25
100
AcDbEntity
  8
1
100
AcDbCircle
 10
-283.450177
 20
180.24296
 30
0.0
 40
3.320508
100
AcDbArc
 50
90.0
 51
180.0
  0
ARC
  5
C8
330
25
100
AcDbEntity
  8
1
100
AcDbCircle
 10
-283.450177
 20
164.24296
 30
0.0
 40
3.320508
100
AcDbArc
 50
180.0
 51
270.0
  0
ARC
  5
C9
330
25
100
AcDbEntity
  8
1
  6
DASHED
100
AcDbCircle
 10
-269.464963
 20
173.74296
 30
0.0
 40
2.0
100
AcDbArc
 50
90.0
 51
180.0
  0
ARC
  5
CA
330
25
100
AcDbEntity
  8
1
  6
DASHED
100
AcDbCircle
 10
-269.464963
 20
170.74296
 30
0.0
 40
2.0
100
AcDbArc
 50
180.0
 51
270.0
  0
LINE
  5
CB
330
25
100
AcDbEntity
  8
1
100
AcDbLine
 10
-294.738947
 20
185.493229
 30
0.0
 11
-286.770685
 21
183.563468
 31
0.0
  0
LINE
  5
CC
330
25
100
AcDbEntity
  8
1
100
AcDbLine
 10
-294.738947
 20
158.9926909999999
 30
0.0
 11
-286.770685
 21
160.922452
 31
0.0
  0
CIRCLE
  5
CD
330
25
100
AcDbEntity
  8
1
100
AcDbCircle
 10
-230.841921
 20
-141.541323
 30
0.0
 40
72.0
  0
CIRCLE
  5
CE
330
25
100
AcDbEntity
  8
1
100
AcDbCircle
 10
-230.841921
 20
-141.541323
 30
0.0
 40
73.0
  0
CIRCLE
  5
D2
330
25
100
AcDbEntity
  8
1
100
AcDbCircle
 10
-230.841921
 20
-141.541323
 30
0.0
 40
68.0
  0
LINE
  5
D3
330
25
100
AcDbEntity
  8
1
100
AcDbLine
 10
-165.942159
 20
199.36796
 30
0.0
 11
-163.171592
 21
198.362512
 31
0.0
  0
LINE
  5
D4
330
25
100
AcDbEntity
  8
1
100
AcDbLine
 10
-165.942159
 20
145.11796
 30
0.0
 11
-163.171592
 21
146.123408
 31
0.0
  0
LINE
  5
D5
330
25
100
AcDbEntity
  8
1
100
AcDbLine
 10
-295.742159
 20
199.36796
 30
0.0
 11
-298.512726
 21
198.362512
 31
0.0
  0
LINE
  5
D6
330
25
100
AcDbEntity
  8
1
100
AcDbLine
 10
-295.742159
 20
145.11796
 30
0.0
 11
-298.512726
 21
146.123408
 31
0.0
  0
ARC
  5
D7
330
25
100
AcDbEntity
  8
1
100
AcDbCircle
 10
-163.342159
 20
197.892505
 30
0.0
 40
0.5
100
AcDbArc
 50
44.500066
 51
70.054002
  0
ARC
  5
D8
330
25
100
AcDbEntity
  8
1
100
AcDbCircle
 10
-163.342159
 20
146.593415
 30
0.0
 40
0.5
100
AcDbArc
 50
289.9459979999999
 51
315.499934
  0
ARC
  5
D9
330
25
100
AcDbEntity
  8
1
100
AcDbCircle
 10
-298.342159
 20
197.892505
 30
0.0
 40
0.5
100
AcDbArc
 50
109.945998
 51
135.499934
  0
ARC
  5
DA
330
25
100
AcDbEntity
  8
1
100
AcDbCircle
 10
-298.342159
 20
146.593415
 30
0.0
 40
0.5
100
AcDbArc
 50
224.500066
 51
250.054002
  0
LINE
  5
DB
330
25
100
AcDbEntity
  8
1
100
AcDbLine
 10
-233.841921
 20
-1.48202
 30
0.0
 11
-227.841921
 21
-1.48202
 31
0.0
  0
LINE
  5
DC
330
25
100
AcDbEntity
  8
1
100
AcDbLine
 10
-295.742159
 20
199.36796
 30
0.0
 11
-272.844711
 21
199.36796
 31
0.0
  0
LINE
  5
DD
330
25
100
AcDbEntity
  8
1
  6
DASHED
100
AcDbLine
 10
-272.844711
 20
199.36796
 30
0.0
 11
-265.613769
 21
199.36796
 31
0.0
  0
LINE
  5
DE
330
25
100
AcDbEntity
  8
1
  6
DASHED
100
AcDbLine
 10
-265.792033
 20
198.24296
 30
0.0
 11
-273.550234
 21
198.24296
 31
0.0
  0
LINE
  5
DF
330
25
100
AcDbEntity
  8
1
100
AcDbLine
 10
-273.550234
 20
198.24296
 30
0.0
 11
-302.842159
 21
198.24296
 31
0.0
  0
LINE
  5
E0
330
25
100
AcDbEntity
  8
1
  6
DASHED
100
AcDbLine
 10
-265.842159
 20
197.24296
 30
0.0
 11
-274.143191
 21
197.24296
 31
0.0
  0
LINE
  5
E1
330
25
100
AcDbEntity
  8
1
100
AcDbLine
 10
-274.143191
 20
197.24296
 30
0.0
 11
-303.842159
 21
197.24296
 31
0.0
  0
LINE
  5
E2
330
25
100
AcDbEntity
  8
1
100
AcDbLine
 10
-291.834696
 20
186.24296
 30
0.0
 11
-278.841921
 21
186.24296
 31
0.0
  0
LINE
  5
E3
330
25
100
AcDbEntity
  8
1
  6
DASHED
100
AcDbLine
 10
-278.841921
 20
186.24296
 30
0.0
 11
-265.842159
 21
186.24296
 31
0.0
  0
LINE
  5
E4
330
25
100
AcDbEntity
  8
1
100
AcDbLine
 10
-283.450177
 20
183.563468
 30
0.0
 11
-279.543523
 21
183.563468
 31
0.0
  0
LINE
  5
E5
330
25
100
AcDbEntity
  8
1
  6
DASHED
100
AcDbLine
 10
-279.543523
 20
183.563468
 30
0.0
 11
-265.842159
 21
183.563468
 31
0.0
  0
LINE
  5
E6
330
25
100
AcDbEntity
  8
1
100
AcDbLine
 10
-283.450177
 20
160.922452
 30
0.0
 11
-279.543523
 21
160.922452
 31
0.0
  0
LINE
  5
E7
330
25
100
AcDbEntity
  8
1
  6
DASHED
100
AcDbLine
 10
-279.543523
 20
160.922452
 30
0.0
 11
-265.842159
 21
160.922452
 31
0.0
  0
LINE
  5
E8
330
25
100
AcDbEntity
  8
1
100
AcDbLine
 10
-291.834696
 20
158.24296
 30
0.0
 11
-278.842159
 21
158.24296
 31
0.0
  0
LINE
  5
E9
330
25
100
AcDbEntity
  8
1
  6
DASHED
100
AcDbLine
 10
-278.841921
 20
158.24296
 30
0.0
 11
-265.842159
 21
158.24296
 31
0.0
  0
LINE
  5
EA
330
25
100
AcDbEntity
  8
1
  6
DASHED
100
AcDbLine
 10
-265.842159
 20
147.24296
 30
0.0
 11
-274.143429
 21
147.24296
 31
0.0
  0
LINE
  5
EB
330
25
100
AcDbEntity
  8
1
100
AcDbLine
 10
-274.143429
 20
147.24296
 30
0.0
 11
-303.842159
 21
147.24296
 31
0.0
  0
LINE
  5
EC
330
25
100
AcDbEntity
  8
1
  6
DASHED
100
AcDbLine
 10
-265.792033
 20
146.24296
 30
0.0
 11
-273.550472
 21
146.24296
 31
0.0
  0
LINE
  5
ED
330
25
100
AcDbEntity
  8
1
100
AcDbLine
 10
-273.550472
 20
146.24296
 30
0.0
 11
-302.842159
 21
146.24296
 31
0.0
  0
LINE
  5
EE
330
25
100
AcDbEntity
  8
1
100
AcDbLine
 10
-295.742159
 20
145.11796
 30
0.0
 11
-272.844949
 21
145.11796
 31
0.0
  0
LINE
  5
EF
330
25
100
AcDbEntity
  8
1
  6
DASHED
100
AcDbLine
 10
-272.844949
 20
145.11796
 30
0.0
 11
-265.613769
 21
145.11796
 31
0.0
  0
LINE
  5
F0
330
25
100
AcDbEntity
  8
1
  6
DASHED
100
AcDbLine
 10
-196.070548
 20
199.36796
 30
0.0
 11
-185.427718
 21
199.36796
 31
0.0
  0
LINE
  5
F1
330
25
100
AcDbEntity
  8
1
100
AcDbLine
 10
-185.427718
 20
199.36796
 30
0.0
 11
-165.942159
 21
199.36796
 31
0.0
  0
LINE
  5
F2
330
25
100
AcDbEntity
  8
1
  6
DASHED
100
AcDbLine
 10
-195.892284
 20
198.24296
 30
0.0
 11
-186.019033
 21
198.24296
 31
0.0
  0
LINE
  5
F3
330
25
100
AcDbEntity
  8
1
100
AcDbLine
 10
-186.019033
 20
198.24296
 30
0.0
 11
-182.876747
 21
198.24296
 31
0.0
  0
LINE
  5
F4
330
25
100
AcDbEntity
  8
1
  6
DASHED
100
AcDbLine
 10
-182.876747
 20
198.24296
 30
0.0
 11
-176.767898
 21
198.24296
 31
0.0
  0
LINE
  5
F5
330
25
100
AcDbEntity
  8
1
100
AcDbLine
 10
-176.767898
 20
198.24296
 30
0.0
 11
-158.842159
 21
198.24296
 31
0.0
  0
LINE
  5
F6
330
25
100
AcDbEntity
  8
1
  6
DASHED
100
AcDbLine
 10
-195.842159
 20
197.24296
 30
0.0
 11
-176.29836
 21
197.24296
 31
0.0
  0
LINE
  5
F7
330
25
100
AcDbEntity
  8
1
100
AcDbLine
 10
-176.29836
 20
197.24296
 30
0.0
 11
-157.842159
 21
197.24296
 31
0.0
  0
ARC
  5
F8
330
25
100
AcDbEntity
  8
1
100
AcDbCircle
 10
-156.256446
 20
181.268898
 30
0.0
 40
6.0
100
AcDbArc
 50
126.776932
 51
136.496811
  0
ARC
  5
F9
330
25
100
AcDbEntity
  8
1
  6
DASHED
100
AcDbCircle
 10
-169.849622
 20
180.24296
 30
0.0
 40
6.0
100
AcDbArc
 50
0.0
 51
62.599987
  0
ARC
  5
FA
330
25
100
AcDbEntity
  8
1
100
AcDbCircle
 10
-169.849622
 20
180.24296
 30
0.0
 40
6.0
100
AcDbArc
 50
62.599987
 51
90.0
  0
LINE
  5
FB
330
25
100
AcDbEntity
  8
1
100
AcDbLine
 10
-169.849622
 20
186.24296
 30
0.0
 11
-172.643705
 21
186.24296
 31
0.0
  0
LINE
  5
FC
330
25
100
AcDbEntity
  8
1
  6
DASHED
100
AcDbLine
 10
-172.542352
 20
186.24296
 30
0.0
 11
-195.842159
 21
186.24296
 31
0.0
  0
LINE
  5
FD
330
25
100
AcDbEntity
  8
1
100
AcDbLine
 10
-157.842159
 20
147.24296
 30
0.0
 11
-157.842159
 21
151.242643
 31
0.0
  0
LINE
  5
FE
330
25
100
AcDbEntity
  8
1
  6
DASHED
100
AcDbLine
 10
-157.842159
 20
147.24296
 30
0.0
 11
-157.842159
 21
154.406325
 31
0.0
  0
LINE
  5
FF
330
25
100
AcDbEntity
  8
1
  6
DASHED
100
AcDbLine
 10
-195.842159
 20
147.24296
 30
0.0
 11
-165.842159
 21
147.24296
 31
0.0
  0
LINE
  5
100
330
25
100
AcDbEntity
  8
1
100
AcDbLine
 10
-165.842159
 20
147.24296
 30
0.0
 11
-157.842159
 21
147.24296
 31
0.0
  0
LINE
  5
101
330
25
100
AcDbEntity
  8
1
  6
DASHED
100
AcDbLine
 10
-195.892284
 20
146.24296
 30
0.0
 11
-184.99257
 21
146.24296
 31
0.0
  0
LINE
  5
102
330
25
100
AcDbEntity
  8
1
100
AcDbLine
 10
-184.992332
 20
146.24296
 30
0.0
 11
-158.842159
 21
146.24296
 31
0.0
  0
LINE
  5
103
330
25
100
AcDbEntity
  8
1
  6
DASHED
100
AcDbLine
 10
-196.070548
 20
145.11796
 30
0.0
 11
-187.3037919999999
 21
145.11796
 31
0.0
  0
LINE
  5
104
330
25
100
AcDbEntity
  8
1
100
AcDbLine
 10
-187.303554
 20
145.11796
 30
0.0
 11
-165.942159
 21
145.11796
 31
0.0
  0
LINE
  5
186
330
25
100
AcDbEntity
  8
1
  6
CENTER
 62
     2
100
AcDbLine
 10
35.067908
 20
-141.5412639999999
 30
0.0
 11
135.367908
 21
-141.5412639999999
 31
0.0
  0
LINE
  5
187
330
25
100
AcDbEntity
  8
1
  6
CENTER
 62
     2
100
AcDbLine
 10
82.667908
 20
94.065498
 30
0.0
 11
82.667908
 21
-246.661179
 31
0.0
  0
LINE
  5
188
330
25
100
AcDbEntity
  8
1
100
AcDbLine
 10
69.667908
 20
-235.541264
 30
0.0
 11
95.66790799999999
 21
-235.541264
 31
0.0
  0
LINE
  5
189
330
25
100
AcDbEntity
  8
1
100
AcDbLine
 10
56.667908
 20
-213.541264
 30
0.0
 11
56.667908
 21
-69.54126399999998
 31
0.0
  0
LINE
  5
18A
330
25
100
AcDbEntity
  8
1
100
AcDbLine
 10
56.667908
 20
-69.54126399999998
 30
0.0
 11
57.66790799999998
 21
-68.541264
 31
0.0
  0
LINE
  5
18B
330
25
100
AcDbEntity
  8
1
100
AcDbLine
 10
56.667908
 20
-213.541264
 30
0.0
 11
57.66790799999998
 21
-214.541264
 31
0.0
  0
LINE
  5
18C
330
25
100
AcDbEntity
  8
1
100
AcDbLine
 10
108.667908
 20
-213.541264
 30
0.0
 11
108.667908
 21
-69.54126399999998
 31
0.0
  0
LINE
  5
18D
330
25
100
AcDbEntity
  8
1
100
AcDbLine
 10
108.667908
 20
-69.54126399999998
 30
0.0
 11
107.667908
 21
-68.541264
 31
0.0
  0
LINE
  5
18E
330
25
100
AcDbEntity
  8
1
100
AcDbLine
 10
108.667908
 20
-213.541264
 30
0.0
 11
107.667908
 21
-214.541264
 31
0.0
  0
LINE
  5
18F
330
25
100
AcDbEntity
  8
1
100
AcDbLine
 10
69.667908
 20
-237.941264
 30
0.0
 11
69.667908
 21
-214.999736
 31
0.0
  0
LINE
  5
190
330
25
100
AcDbEntity
  8
1
100
AcDbLine
 10
95.66790799999999
 20
-237.941264
 30
0.0
 11
95.66790799999999
 21
-214.999736
 31
0.0
  0
LINE
  5
191
330
25
100
AcDbEntity
  8
1
100
AcDbLine
 10
68.667908
 20
-80.12464900000002
 30
0.0
 11
68.667908
 21
-106.541264
 31
0.0
  0
LINE
  5
192
330
25
100
AcDbEntity
  8
1
100
AcDbLine
 10
68.667908
 20
-122.541264
 30
0.0
 11
68.667908
 21
-160.541264
 31
0.0
  0
LINE
  5
193
330
25
100
AcDbEntity
  8
1
100
AcDbLine
 10
96.66790800000001
 20
-80.12464900000002
 30
0.0
 11
96.66790800000001
 21
-106.541264
 31
0.0
  0
LINE
  5
194
330
25
100
AcDbEntity
  8
1
100
AcDbLine
 10
96.66790800000001
 20
-122.541264
 30
0.0
 11
96.66790800000001
 21
-160.541264
 31
0.0
  0
LINE
  5
195
330
25
100
AcDbEntity
  8
1
100
AcDbLine
 10
74.667908
 20
-112.541264
 30
0.0
 11
90.66790799999999
 21
-112.541264
 31
0.0
  0
LINE
  5
196
330
25
100
AcDbEntity
  8
1
100
AcDbLine
 10
74.667908
 20
-116.5412639999999
 30
0.0
 11
90.66790799999999
 21
-116.5412639999999
 31
0.0
  0
LINE
  5
197
330
25
100
AcDbEntity
  8
1
100
AcDbLine
 10
68.667908
 20
-202.957879
 30
0.0
 11
68.667908
 21
-176.541264
 31
0.0
  0
LINE
  5
198
330
25
100
AcDbEntity
  8
1
100
AcDbLine
 10
96.66790800000001
 20
-202.957879
 30
0.0
 11
96.66790800000001
 21
-176.541264
 31
0.0
  0
LINE
  5
199
330
25
100
AcDbEntity
  8
1
100
AcDbLine
 10
74.667908
 20
-170.541264
 30
0.0
 11
90.66790799999999
 21
-170.541264
 31
0.0
  0
LINE
  5
19A
330
25
100
AcDbEntity
  8
1
100
AcDbLine
 10
74.667908
 20
-166.5412639999999
 30
0.0
 11
90.66790799999999
 21
-166.5412639999999
 31
0.0
  0
LINE
  5
19B
330
25
100
AcDbEntity
  8
1
100
AcDbLine
 10
57.66790799999998
 20
-68.541264
 30
0.0
 11
57.66790799999998
 21
-214.541264
 31
0.0
  0
LINE
  5
19C
330
25
100
AcDbEntity
  8
1
100
AcDbLine
 10
107.667908
 20
-214.541264
 30
0.0
 11
107.667908
 21
-68.541264
 31
0.0
  0
LINE
  5
19D
330
25
100
AcDbEntity
  8
1
100
AcDbLine
 10
51.66790800000001
 20
13.458736
 30
0.0
 11
113.667908
 21
13.458736
 31
0.0
  0
LINE
  5
19E
330
25
100
AcDbEntity
  8
1
100
AcDbLine
 10
65.16790799999999
 20
8.458736
 30
0.0
 11
65.16790799999999
 21
-67.66455400000001
 31
0.0
  0
LINE
  5
19F
330
25
100
AcDbEntity
  8
1
100
AcDbLine
 10
100.167908
 20
8.458736
 30
0.0
 11
100.167908
 21
-67.66455400000001
 31
0.0
  0
LINE
  5
1A0
330
25
100
AcDbEntity
  8
1
100
AcDbLine
 10
47.667908
 20
25.458736
 30
0.0
 11
47.667908
 21
17.458736
 31
0.0
  0
LINE
  5
1A1
330
25
100
AcDbEntity
  8
1
100
AcDbLine
 10
117.667908
 20
25.458736
 30
0.0
 11
117.667908
 21
17.458736
 31
0.0
  0
LINE
  5
1A2
330
25
100
AcDbEntity
  8
1
100
AcDbLine
 10
79.667908
 20
11.458736
 30
0.0
 11
79.667908
 21
0.518039
 31
0.0
  0
LINE
  5
1A3
330
25
100
AcDbEntity
  8
1
100
AcDbLine
 10
85.66790799999997
 20
11.458736
 30
0.0
 11
85.66790799999997
 21
0.518039
 31
0.0
  0
ARC
  5
1A4
330
25
100
AcDbEntity
  8
1
100
AcDbCircle
 10
51.66790800000001
 20
17.458736
 30
0.0
 40
4.0
100
AcDbArc
 50
180.0
 51
270.0
  0
ARC
  5
1A5
330
25
100
AcDbEntity
  8
1
100
AcDbCircle
 10
113.667908
 20
17.458736
 30
0.0
 40
4.0
100
AcDbArc
 50
270.0
 51
360.0
  0
ARC
  5
1A6
330
25
100
AcDbEntity
  8
1
100
AcDbCircle
 10
105.167908
 20
8.458736
 30
0.0
 40
5.0
100
AcDbArc
 50
90.0
 51
180.0
  0
ARC
  5
1A7
330
25
100
AcDbEntity
  8
1
100
AcDbCircle
 10
60.16790799999998
 20
8.458736
 30
0.0
 40
5.0
100
AcDbArc
 50
0.0
 51
31.760846
  0
ARC
  5
1A8
330
25
100
AcDbEntity
  8
1
100
AcDbCircle
 10
115.167908
 20
-1.481961
 30
0.0
 40
15.0
100
AcDbArc
 50
94.528063
 51
180.0
  0
LINE
  5
1A9
330
25
100
AcDbEntity
  8
1
100
AcDbLine
 10
71.88363599999998
 20
8.458736
 30
0.0
 11
71.88363599999998
 21
-6.239283
 31
0.0
  0
LINE
  5
1AA
330
25
100
AcDbEntity
  8
1
100
AcDbLine
 10
93.45217899999999
 20
8.458736
 30
0.0
 11
93.45217899999999
 21
-6.239283
 31
0.0
  0
ARC
  5
1AB
330
25
100
AcDbEntity
  8
1
100
AcDbCircle
 10
66.88363599999999
 20
8.458736
 30
0.0
 40
5.0
100
AcDbArc
 50
0.0
 51
90.0
  0
ARC
  5
1AC
330
25
100
AcDbEntity
  8
1
100
AcDbCircle
 10
98.45217900000001
 20
8.458736
 30
0.0
 40
5.0
100
AcDbArc
 50
90.0
 51
180.0
  0
LINE
  5
1AD
330
25
100
AcDbEntity
  8
1
100
AcDbLine
 10
95.67572199999998
 20
-9.137060999999999
 30
0.0
 11
97.94436500000001
 21
-9.744941999999999
 31
0.0
  0
LINE
  5
1AE
330
25
100
AcDbEntity
  8
1
100
AcDbLine
 10
69.660094
 20
-9.137060999999999
 30
0.0
 11
67.391451
 21
-9.744941999999999
 31
0.0
  0
ARC
  5
1AF
330
25
100
AcDbEntity
  8
1
100
AcDbCircle
 10
96.452179
 20
-6.239283
 30
0.0
 40
3.0
100
AcDbArc
 50
180.0
 51
255.0
  0
ARC
  5
1B0
330
25
100
AcDbEntity
  8
1
100
AcDbCircle
 10
68.88363599999999
 20
-6.239283
 30
0.0
 40
3.0
100
AcDbArc
 50
285.0
 51
0.0
  0
ARC
  5
1B1
330
25
100
AcDbEntity
  8
1
100
AcDbCircle
 10
97.167908
 20
-12.642719
 30
0.0
 40
3.0
100
AcDbArc
 50
0.0
 51
75.0
  0
ARC
  5
1B2
330
25
100
AcDbEntity
  8
1
100
AcDbCircle
 10
68.16790799999999
 20
-12.642719
 30
0.0
 40
3.0
100
AcDbArc
 50
105.0
 51
180.0
  0
ARC
  5
1B3
330
25
100
AcDbEntity
  8
1
100
AcDbCircle
 10
87.667908
 20
11.458736
 30
0.0
 40
2.0
100
AcDbArc
 50
90.0
 51
180.0
  0
ARC
  5
1B4
330
25
100
AcDbEntity
  8
1
100
AcDbCircle
 10
77.66790799999998
 20
11.458736
 30
0.0
 40
2.0
100
AcDbArc
 50
360.0
 51
90.0
  0
ARC
  5
1B5
330
25
100
AcDbEntity
  8
1
100
AcDbCircle
 10
77.66790799999998
 20
0.518039
 30
0.0
 40
2.0
100
AcDbArc
 50
270.0
 51
360.0
  0
ARC
  5
1B6
330
25
100
AcDbEntity
  8
1
100
AcDbCircle
 10
87.667908
 20
0.518039
 30
0.0
 40
2.0
100
AcDbArc
 50
180.0
 51
270.0
  0
LINE
  5
1B7
330
25
100
AcDbEntity
  8
1
100
AcDbLine
 10
57.66790799999998
 20
-68.541264
 30
0.0
 11
60.16790799999998
 21
-68.541264
 31
0.0
  0
LINE
  5
1B8
330
25
100
AcDbEntity
  8
1
100
AcDbLine
 10
105.167908
 20
-68.541264
 30
0.0
 11
107.667908
 21
-68.541264
 31
0.0
  0
ARC
  5
1B9
330
25
100
AcDbEntity
  8
1
100
AcDbCircle
 10
105.167908
 20
-63.541264
 30
0.0
 40
5.0
100
AcDbArc
 50
180.0
 51
270.0
  0
ARC
  5
1BA
330
25
100
AcDbEntity
  8
1
100
AcDbCircle
 10
60.16790799999998
 20
-63.541264
 30
0.0
 40
5.0
100
AcDbArc
 50
270.0
 51
360.0
  0
ARC
  5
1BB
330
25
100
AcDbEntity
  8
1
100
AcDbCircle
 10
105.167908
 20
-67.66455400000001
 30
0.0
 40
5.0
100
AcDbArc
 50
180.0
 51
270.0
  0
ARC
  5
1BC
330
25
100
AcDbEntity
  8
1
100
AcDbCircle
 10
60.16790799999998
 20
-67.66455400000001
 30
0.0
 40
5.0
100
AcDbArc
 50
270.0
 51
360.0
  0
LINE
  5
1BD
330
25
100
AcDbEntity
  8
1
100
AcDbLine
 10
79.167908
 20
-26.747472
 30
0.0
 11
79.167908
 21
-71.098058
 31
0.0
  0
LINE
  5
1BE
330
25
100
AcDbEntity
  8
1
100
AcDbLine
 10
86.167908
 20
-26.747472
 30
0.0
 11
86.167908
 21
-71.098058
 31
0.0
  0
ARC
  5
1BF
330
25
100
AcDbEntity
  8
1
100
AcDbCircle
 10
89.16790799999999
 20
-26.747472
 30
0.0
 40
3.0
100
AcDbArc
 50
90.0
 51
180.0
  0
ARC
  5
1C0
330
25
100
AcDbEntity
  8
1
100
AcDbCircle
 10
76.167908
 20
-26.747472
 30
0.0
 40
3.0
100
AcDbArc
 50
0.0
 51
90.0
  0
ARC
  5
1C1
330
25
100
AcDbEntity
  8
1
100
AcDbCircle
 10
76.167908
 20
-71.098058
 30
0.0
 40
3.0
100
AcDbArc
 50
270.0
 51
360.0
  0
ARC
  5
1C2
330
25
100
AcDbEntity
  8
1
100
AcDbCircle
 10
89.16790799999999
 20
-71.098058
 30
0.0
 40
3.0
100
AcDbArc
 50
180.0
 51
270.0
  0
LINE
  5
1C3
330
25
100
AcDbEntity
  8
1
100
AcDbLine
 10
57.66790799999998
 20
-214.541264
 30
0.0
 11
65.66790799999999
 21
-214.541264
 31
0.0
  0
LINE
  5
1C4
330
25
100
AcDbEntity
  8
1
100
AcDbLine
 10
99.667908
 20
-214.541264
 30
0.0
 11
107.667908
 21
-214.541264
 31
0.0
  0
ARC
  5
1C5
330
25
100
AcDbEntity
  8
1
100
AcDbCircle
 10
99.667908
 20
-218.541264
 30
0.0
 40
4.0
100
AcDbArc
 50
90.0
 51
180.0
  0
ARC
  5
1C6
330
25
100
AcDbEntity
  8
1
100
AcDbCircle
 10
65.66790799999999
 20
-218.541264
 30
0.0
 40
4.0
100
AcDbArc
 50
0.0
 51
90.0
  0
ARC
  5
1C7
330
25
100
AcDbEntity
  8
1
100
AcDbCircle
 10
99.667908
 20
-214.999736
 30
0.0
 40
4.0
100
AcDbArc
 50
90.0
 51
180.0
  0
ARC
  5
1C8
330
25
100
AcDbEntity
  8
1
100
AcDbCircle
 10
65.66790799999999
 20
-214.999736
 30
0.0
 40
4.0
100
AcDbArc
 50
0.0
 51
90.0
  0
LINE
  5
1C9
330
25
100
AcDbEntity
  8
1
100
AcDbLine
 10
79.167908
 20
-211.98447
 30
0.0
 11
79.167908
 21
-232.541264
 31
0.0
  0
LINE
  5
1CA
330
25
100
AcDbEntity
  8
1
100
AcDbLine
 10
86.167908
 20
-211.98447
 30
0.0
 11
86.167908
 21
-232.541264
 31
0.0
  0
ARC
  5
1CB
330
25
100
AcDbEntity
  8
1
100
AcDbCircle
 10
89.16790799999999
 20
-211.98447
 30
0.0
 40
3.0
100
AcDbArc
 50
90.0
 51
180.0
  0
ARC
  5
1CC
330
25
100
AcDbEntity
  8
1
100
AcDbCircle
 10
76.167908
 20
-211.98447
 30
0.0
 40
3.0
100
AcDbArc
 50
0.0
 51
90.0
  0
ARC
  5
1CD
330
25
100
AcDbEntity
  8
1
100
AcDbCircle
 10
89.16790799999999
 20
-232.541264
 30
0.0
 40
3.0
100
AcDbArc
 50
180.0
 51
270.0
  0
ARC
  5
1CE
330
25
100
AcDbEntity
  8
1
100
AcDbCircle
 10
76.167908
 20
-232.541264
 30
0.0
 40
3.0
100
AcDbArc
 50
270.0
 51
360.0
  0
LINE
  5
1CF
330
25
100
AcDbEntity
  8
1
100
AcDbLine
 10
72.66790799999998
 20
-232.541264
 30
0.0
 11
76.167908
 21
-232.541264
 31
0.0
  0
LINE
  5
1D0
330
25
100
AcDbEntity
  8
1
100
AcDbLine
 10
89.16790799999999
 20
-232.541264
 30
0.0
 11
92.667908
 21
-232.541264
 31
0.0
  0
ARC
  5
1D1
330
25
100
AcDbEntity
  8
1
100
AcDbCircle
 10
92.667908
 20
-229.541264
 30
0.0
 40
3.0
100
AcDbArc
 50
270.0
 51
360.0
  0
ARC
  5
1D2
330
25
100
AcDbEntity
  8
1
100
AcDbCircle
 10
72.66790799999998
 20
-229.541264
 30
0.0
 40
3.0
100
AcDbArc
 50
180.0
 51
270.0
  0
LINE
  5
1D3
330
25
100
AcDbEntity
  8
1
100
AcDbLine
 10
69.667908
 20
-236.341264
 30
0.0
 11
95.66790799999999
 21
-236.341264
 31
0.0
  0
LINE
  5
1D4
330
25
100
AcDbEntity
  8
1
100
AcDbLine
 10
69.667908
 20
-237.941264
 30
0.0
 11
95.66790799999999
 21
-237.941264
 31
0.0
  0
LINE
  5
1D5
330
25
100
AcDbEntity
  8
1
100
AcDbLine
 10
76.567908
 20
-239.441264
 30
0.0
 11
88.767908
 21
-239.441264
 31
0.0
  0
LINE
  5
1D6
330
25
100
AcDbEntity
  8
1
100
AcDbLine
 10
87.667908
 20
-239.441264
 30
0.0
 11
87.667908
 21
-243.441264
 31
0.0
  0
LINE
  5
1D7
330
25
100
AcDbEntity
  8
1
100
AcDbLine
 10
82.667908
 20
-239.441264
 30
0.0
 11
82.667908
 21
-242.950517
 31
0.0
  0
ARC
  5
1D8
330
25
100
AcDbEntity
  8
1
100
AcDbCircle
 10
85.167908
 20
-236.828057
 30
0.0
 40
6.613208
100
AcDbArc
 50
247.7882049999999
 51
292.211795
  0
LINE
  5
1D9
330
25
100
AcDbEntity
  8
1
100
AcDbLine
 10
77.66790799999998
 20
-239.441264
 30
0.0
 11
77.66790799999998
 21
-243.441264
 31
0.0
  0
LINE
  5
1DA
330
25
100
AcDbEntity
  8
1
100
AcDbLine
 10
77.66790799999998
 20
-243.441264
 30
0.0
 11
87.667908
 21
-243.441264
 31
0.0
  0
ARC
  5
1DB
330
25
100
AcDbEntity
  8
1
100
AcDbCircle
 10
80.167908
 20
-236.828057
 30
0.0
 40
6.613208
100
AcDbArc
 50
247.7882049999999
 51
292.211795
  0
LINE
  5
1DC
330
25
100
AcDbEntity
  8
1
100
AcDbLine
 10
88.767908
 20
-237.941264
 30
0.0
 11
88.767908
 21
-239.441264
 31
0.0
  0
LINE
  5
1DD
330
25
100
AcDbEntity
  8
1
100
AcDbLine
 10
76.567908
 20
-239.441264
 30
0.0
 11
76.567908
 21
-237.941264
 31
0.0
  0
LINE
  5
1DE
330
25
100
AcDbEntity
  8
1
100
AcDbLine
 10
74.667908
 20
-74.124649
 30
0.0
 11
90.66790799999999
 21
-74.124649
 31
0.0
  0
LINE
  5
1DF
330
25
100
AcDbEntity
  8
1
100
AcDbLine
 10
74.667908
 20
-208.957879
 30
0.0
 11
90.66790799999999
 21
-208.957879
 31
0.0
  0
ARC
  5
1E0
330
25
100
AcDbEntity
  8
1
100
AcDbCircle
 10
90.66790799999999
 20
-80.12464900000002
 30
0.0
 40
6.0
100
AcDbArc
 50
0.0
 51
90.0
  0
ARC
  5
1E1
330
25
100
AcDbEntity
  8
1
100
AcDbCircle
 10
74.667908
 20
-80.12464900000002
 30
0.0
 40
6.0
100
AcDbArc
 50
90.0
 51
180.0
  0
ARC
  5
1E2
330
25
100
AcDbEntity
  8
1
100
AcDbCircle
 10
74.667908
 20
-106.541264
 30
0.0
 40
6.0
100
AcDbArc
 50
180.0
 51
270.0
  0
ARC
  5
1E3
330
25
100
AcDbEntity
  8
1
100
AcDbCircle
 10
90.66790799999999
 20
-106.541264
 30
0.0
 40
6.0
100
AcDbArc
 50
270.0
 51
360.0
  0
ARC
  5
1E4
330
25
100
AcDbEntity
  8
1
100
AcDbCircle
 10
90.66790799999999
 20
-176.541264
 30
0.0
 40
6.0
100
AcDbArc
 50
0.0
 51
90.0
  0
ARC
  5
1E5
330
25
100
AcDbEntity
  8
1
100
AcDbCircle
 10
74.667908
 20
-176.541264
 30
0.0
 40
6.0
100
AcDbArc
 50
90.0
 51
180.0
  0
ARC
  5
1E6
330
25
100
AcDbEntity
  8
1
100
AcDbCircle
 10
74.667908
 20
-202.957879
 30
0.0
 40
6.0
100
AcDbArc
 50
180.0
 51
270.0
  0
ARC
  5
1E7
330
25
100
AcDbEntity
  8
1
100
AcDbCircle
 10
90.66790799999999
 20
-202.957879
 30
0.0
 40
6.0
100
AcDbArc
 50
270.0
 51
360.0
  0
ARC
  5
1E8
330
25
100
AcDbEntity
  8
1
100
AcDbCircle
 10
90.66790799999999
 20
-122.541264
 30
0.0
 40
6.0
100
AcDbArc
 50
0.0
 51
90.0
  0
ARC
  5
1E9
330
25
100
AcDbEntity
  8
1
100
AcDbCircle
 10
74.667908
 20
-122.541264
 30
0.0
 40
6.0
100
AcDbArc
 50
90.0
 51
180.0
  0
ARC
  5
1EA
330
25
100
AcDbEntity
  8
1
100
AcDbCircle
 10
74.667908
 20
-160.541264
 30
0.0
 40
6.0
100
AcDbArc
 50
180.0
 51
270.0
  0
ARC
  5
1EB
330
25
100
AcDbEntity
  8
1
100
AcDbCircle
 10
90.66790799999999
 20
-160.541264
 30
0.0
 40
6.0
100
AcDbArc
 50
270.0
 51
360.0
  0
LINE
  5
1EC
330
25
100
AcDbEntity
  8
1
100
AcDbLine
 10
93.988408
 20
-104.56323
 30
0.0
 11
93.988408
 21
-91.07032100000001
 31
0.0
  0
LINE
  5
1ED
330
25
100
AcDbEntity
  8
1
100
AcDbLine
 10
71.347408
 20
-104.56323
 30
0.0
 11
71.347408
 21
-91.07032100000001
 31
0.0
  0
ARC
  5
1EE
330
25
100
AcDbEntity
  8
1
100
AcDbCircle
 10
90.66790799999999
 20
-104.56323
 30
0.0
 40
3.3205
100
AcDbArc
 50
270.0
 51
360.0
  0
ARC
  5
1EF
330
25
100
AcDbEntity
  8
1
100
AcDbCircle
 10
74.667908
 20
-104.56323
 30
0.0
 40
3.3205
100
AcDbArc
 50
180.0
 51
270.0
  0
ARC
  5
1F0
330
25
100
AcDbEntity
  8
1
100
AcDbCircle
 10
74.667908
 20
-126.332353
 30
0.0
 40
3.3205
100
AcDbArc
 50
90.0
 51
180.0
  0
ARC
  5
1F1
330
25
100
AcDbEntity
  8
1
100
AcDbCircle
 10
90.66790799999999
 20
-126.332353
 30
0.0
 40
3.3205
100
AcDbArc
 50
0.0
 51
90.0
  0
LINE
  5
1F2
330
25
100
AcDbEntity
  8
1
100
AcDbLine
 10
74.667908
 20
-87.749821
 30
0.0
 11
90.66790799999999
 21
-87.749821
 31
0.0
  0
ARC
  5
1F3
330
25
100
AcDbEntity
  8
1
100
AcDbCircle
 10
74.667908
 20
-91.07032100000001
 30
0.0
 40
3.3205
100
AcDbArc
 50
90.0
 51
180.0
  0
ARC
  5
1F4
330
25
100
AcDbEntity
  8
1
100
AcDbCircle
 10
90.66790799999999
 20
-91.07032100000001
 30
0.0
 40
3.3205
100
AcDbArc
 50
0.0
 51
90.0
  0
LINE
  5
1F5
330
25
100
AcDbEntity
  8
1
100
AcDbLine
 10
93.988408
 20
-192.012208
 30
0.0
 11
93.988408
 21
-178.519299
 31
0.0
  0
LINE
  5
1F6
330
25
100
AcDbEntity
  8
1
100
AcDbLine
 10
93.988408
 20
-156.750176
 30
0.0
 11
93.988408
 21
-126.332353
 31
0.0
  0
LINE
  5
1F7
330
25
100
AcDbEntity
  8
1
100
AcDbLine
 10
71.347408
 20
-192.012208
 30
0.0
 11
71.347408
 21
-178.519299
 31
0.0
  0
LINE
  5
1F8
330
25
100
AcDbEntity
  8
1
100
AcDbLine
 10
71.347408
 20
-156.750176
 30
0.0
 11
71.347408
 21
-126.332353
 31
0.0
  0
LINE
  5
1F9
330
25
100
AcDbEntity
  8
1
100
AcDbLine
 10
74.667908
 20
-195.332708
 30
0.0
 11
90.66790799999999
 21
-195.332708
 31
0.0
  0
ARC
  5
1FA
330
25
100
AcDbEntity
  8
1
100
AcDbCircle
 10
90.66790799999999
 20
-192.012208
 30
0.0
 40
3.3205
100
AcDbArc
 50
270.0
 51
360.0
  0
ARC
  5
1FB
330
25
100
AcDbEntity
  8
1
100
AcDbCircle
 10
74.667908
 20
-192.012208
 30
0.0
 40
3.3205
100
AcDbArc
 50
180.0
 51
270.0
  0
ARC
  5
1FC
330
25
100
AcDbEntity
  8
1
100
AcDbCircle
 10
74.667908
 20
-178.519299
 30
0.0
 40
3.3205
100
AcDbArc
 50
90.0
 51
180.0
  0
ARC
  5
1FD
330
25
100
AcDbEntity
  8
1
100
AcDbCircle
 10
90.66790799999999
 20
-178.519299
 30
0.0
 40
3.3205
100
AcDbArc
 50
0.0
 51
90.0
  0
ARC
  5
1FE
330
25
100
AcDbEntity
  8
1
100
AcDbCircle
 10
90.66790799999999
 20
-156.750176
 30
0.0
 40
3.3205
100
AcDbArc
 50
270.0
 51
360.0
  0
ARC
  5
1FF
330
25
100
AcDbEntity
  8
1
100
AcDbCircle
 10
74.667908
 20
-156.750176
 30
0.0
 40
3.3205
100
AcDbArc
 50
180.0
 51
270.0
  0
LINE
  5
200
330
25
100
AcDbEntity
  8
1
100
AcDbLine
 10
55.542908
 20
-76.641264
 30
0.0
 11
55.542908
 21
-206.441264
 31
0.0
  0
LINE
  5
201
330
25
100
AcDbEntity
  8
1
100
AcDbLine
 10
109.792908
 20
-76.641264
 30
0.0
 11
109.792908
 21
-206.441264
 31
0.0
  0
LINE
  5
202
330
25
100
AcDbEntity
  8
1
100
AcDbLine
 10
108.78746
 20
-73.87069699999996
 30
0.0
 11
109.792908
 21
-76.641264
 31
0.0
  0
LINE
  5
203
330
25
100
AcDbEntity
  8
1
100
AcDbLine
 10
56.548355
 20
-73.87069699999996
 30
0.0
 11
55.542908
 21
-76.641264
 31
0.0
  0
LINE
  5
204
330
25
100
AcDbEntity
  8
1
100
AcDbLine
 10
108.78746
 20
-209.211831
 30
0.0
 11
109.792908
 21
-206.441264
 31
0.0
  0
LINE
  5
205
330
25
100
AcDbEntity
  8
1
100
AcDbLine
 10
56.548355
 20
-209.211831
 30
0.0
 11
55.542908
 21
-206.441264
 31
0.0
  0
ARC
  5
206
330
25
100
AcDbEntity
  8
1
100
AcDbCircle
 10
108.317453
 20
-74.04126399999999
 30
0.0
 40
0.5
100
AcDbArc
 50
19.945998
 51
45.499934
  0
ARC
  5
207
330
25
100
AcDbEntity
  8
1
100
AcDbCircle
 10
57.018363
 20
-74.04126399999999
 30
0.0
 40
0.5
100
AcDbArc
 50
134.500066
 51
160.054002
  0
ARC
  5
208
330
25
100
AcDbEntity
  8
1
100
AcDbCircle
 10
108.317453
 20
-209.041264
 30
0.0
 40
0.5
100
AcDbArc
 50
314.500066
 51
340.054002
  0
ARC
  5
209
330
25
100
AcDbEntity
  8
1
100
AcDbCircle
 10
57.018363
 20
-209.041264
 30
0.0
 40
0.5
100
AcDbArc
 50
199.945998
 51
225.499934
  0
LINE
  5
20A
330
25
100
AcDbEntity
  8
1
100
AcDbLine
 10
81.167908
 20
-49.433614
 30
0.0
 11
84.16790799999999
 21
-49.433614
 31
0.0
  0
LINE
  5
20B
330
25
100
AcDbEntity
  8
1
100
AcDbLine
 10
81.167908
 20
-40.92270999999999
 30
0.0
 11
84.16790799999999
 21
-40.92270999999999
 31
0.0
  0
ARC
  5
20C
330
25
100
AcDbEntity
  8
1
100
AcDbCircle
 10
84.16790799999999
 20
-42.92270999999997
 30
0.0
 40
2.0
100
AcDbArc
 50
0.0
 51
90.0
  0
ARC
  5
20D
330
25
100
AcDbEntity
  8
1
100
AcDbCircle
 10
81.167908
 20
-42.92270999999997
 30
0.0
 40
2.0
100
AcDbArc
 50
90.0
 51
180.0
  0
ARC
  5
20E
330
25
100
AcDbEntity
  8
1
100
AcDbCircle
 10
81.167908
 20
-47.433614
 30
0.0
 40
2.0
100
AcDbArc
 50
180.0
 51
270.0
  0
ARC
  5
20F
330
25
100
AcDbEntity
  8
1
100
AcDbCircle
 10
84.16790799999999
 20
-47.433614
 30
0.0
 40
2.0
100
AcDbArc
 50
270.0
 51
360.0
  0
LINE
  5
210
330
25
100
AcDbEntity
  8
1
100
AcDbLine
 10
85.66790799999997
 20
-1.481961
 30
0.0
 11
79.667908
 21
-1.481961
 31
0.0
  0
LINE
  5
211
330
25
100
AcDbEntity
  8
1
100
AcDbLine
 10
86.167908
 20
-23.747472
 30
0.0
 11
79.167908
 21
-23.747472
 31
0.0
  0
LINE
  5
212
330
25
100
AcDbEntity
  8
1
100
AcDbLine
 10
84.16790799999999
 20
-232.541264
 30
0.0
 11
81.167908
 21
-232.541264
 31
0.0
  0
ARC
  5
213
330
25
100
AcDbEntity
  8
1
100
AcDbCircle
 10
84.16790799999999
 20
-230.541264
 30
0.0
 40
2.0
100
AcDbArc
 50
270.0
 51
360.0
  0
ARC
  5
214
330
25
100
AcDbEntity
  8
1
100
AcDbCircle
 10
81.167908
 20
-230.541264
 30
0.0
 40
2.0
100
AcDbArc
 50
180.0
 51
270.0
  0
LINE
  5
215
330
25
100
AcDbEntity
  8
1
100
AcDbLine
 10
65.16790799999999
 20
-72.66455400000002
 30
0.0
 11
76.167908
 21
-72.66455400000002
 31
0.0
  0
LINE
  5
216
330
25
100
AcDbEntity
  8
1
100
AcDbLine
 10
89.16790799999999
 20
-72.66455400000002
 30
0.0
 11
100.167908
 21
-72.66455400000002
 31
0.0
  0
LINE
  5
217
330
25
100
AcDbEntity
  8
1
100
AcDbLine
 10
69.667908
 20
-210.999736
 30
0.0
 11
76.167908
 21
-210.999736
 31
0.0
  0
LINE
  5
218
330
25
100
AcDbEntity
  8
1
100
AcDbLine
 10
89.16790799999999
 20
-210.999736
 30
0.0
 11
95.66790799999999
 21
-210.999736
 31
0.0
  0
LINE
  5
219
330
25
100
AcDbEntity
  8
1
100
AcDbLine
 10
74.667908
 20
-123.011853
 30
0.0
 11
90.66790799999999
 21
-123.011853
 31
0.0
  0
LINE
  5
21A
330
25
100
AcDbEntity
  8
1
100
AcDbLine
 10
74.667908
 20
-160.070676
 30
0.0
 11
90.66790799999999
 21
-160.070676
 31
0.0
  0
LINE
  5
21B
330
25
100
AcDbEntity
  8
1
100
AcDbLine
 10
95.59886699999999
 20
-119.122837
 30
0.0
 11
93.988408
 21
-123.011853
 31
0.0
  0
LINE
  5
21C
330
25
100
AcDbEntity
  8
1
100
AcDbLine
 10
69.73694899999999
 20
-119.122837
 30
0.0
 11
71.347408
 21
-123.011853
 31
0.0
  0
LINE
  5
21D
330
25
100
AcDbEntity
  8
1
100
AcDbLine
 10
71.347408
 20
-160.070676
 30
0.0
 11
69.73694899999999
 21
-163.959691
 31
0.0
  0
LINE
  5
21E
330
25
100
AcDbEntity
  8
1
100
AcDbLine
 10
93.988408
 20
-160.070676
 30
0.0
 11
95.59886699999999
 21
-163.959691
 31
0.0
  0
LINE
  5
21F
330
25
100
AcDbEntity
  8
1
100
AcDbLine
 10
74.667908
 20
-107.88373
 30
0.0
 11
90.66790799999999
 21
-107.88373
 31
0.0
  0
LINE
  5
220
330
25
100
AcDbEntity
  8
1
100
AcDbLine
 10
74.667908
 20
-175.198799
 30
0.0
 11
90.66790799999999
 21
-175.198799
 31
0.0
  0
LINE
  5
221
330
25
100
AcDbEntity
  8
1
100
AcDbLine
 10
95.36433200000001
 20
-110.275377
 30
0.0
 11
93.988408
 21
-107.88373
 31
0.0
  0
LINE
  5
222
330
25
100
AcDbEntity
  8
1
100
AcDbLine
 10
69.97148299999999
 20
-110.275377
 30
0.0
 11
71.347408
 21
-107.88373
 31
0.0
  0
LINE
  5
223
330
25
100
AcDbEntity
  8
1
100
AcDbLine
 10
95.36433200000001
 20
-172.807152
 30
0.0
 11
93.988408
 21
-175.198799
 31
0.0
  0
LINE
  5
224
330
25
100
AcDbEntity
  8
1
100
AcDbLine
 10
69.97148299999999
 20
-172.807152
 30
0.0
 11
71.347408
 21
-175.198799
 31
0.0
  0
LINE
  5
225
330
25
100
AcDbEntity
  8
1
100
AcDbLine
 10
96.020938
 20
-77.41446999999998
 30
0.0
 11
93.988408
 21
-87.749821
 31
0.0
  0
LINE
  5
226
330
25
100
AcDbEntity
  8
1
100
AcDbLine
 10
69.31487800000001
 20
-77.41446999999998
 30
0.0
 11
71.347408
 21
-87.749821
 31
0.0
  0
LINE
  5
227
330
25
100
AcDbEntity
  8
1
100
AcDbLine
 10
93.988408
 20
-195.332708
 30
0.0
 11
96.020938
 21
-205.668058
 31
0.0
  0
LINE
  5
228
330
25
100
AcDbEntity
  8
1
100
AcDbLine
 10
69.31487800000001
 20
-205.668058
 30
0.0
 11
71.347408
 21
-195.332708
 31
0.0
  0
ARC
  5
229
330
25
100
AcDbEntity
  8
1
100
AcDbCircle
 10
89.16790799999999
 20
-69.664554
 30
0.0
 40
3.0
100
AcDbArc
 50
180.0
 51
270.0
  0
ARC
  5
22A
330
25
100
AcDbEntity
  8
1
100
AcDbCircle
 10
76.167908
 20
-69.664554
 30
0.0
 40
3.0
100
AcDbArc
 50
270.0
 51
360.0
  0
ARC
  5
22B
330
25
100
AcDbEntity
  8
1
100
AcDbCircle
 10
89.16790799999999
 20
-213.999736
 30
0.0
 40
3.0
100
AcDbArc
 50
90.0
 51
180.0
  0
ARC
  5
22C
330
25
100
AcDbEntity
  8
1
100
AcDbCircle
 10
76.167908
 20
-213.999736
 30
0.0
 40
3.0
100
AcDbArc
 50
0.0
 51
90.0
  0
ARC
  5
22D
330
25
100
AcDbEntity
  8
1
100
AcDbCircle
 10
76.167908
 20
-229.541264
 30
0.0
 40
3.0
100
AcDbArc
 50
270.0
 51
0.0
  0
ARC
  5
22E
330
25
100
AcDbEntity
  8
1
100
AcDbCircle
 10
89.16790799999999
 20
-229.541264
 30
0.0
 40
3.0
100
AcDbArc
 50
180.0
 51
270.0
  0
LINE
  5
22F
330
25
100
AcDbEntity
  8
1
100
AcDbLine
 10
75.66790799999998
 20
27.458736
 30
0.0
 11
75.66790799999998
 21
36.458736
 31
0.0
  0
LINE
  5
230
330
25
100
AcDbEntity
  8
1
100
AcDbLine
 10
89.667908
 20
36.458736
 30
0.0
 11
89.667908
 21
27.458736
 31
0.0
  0
LINE
  5
231
330
25
100
AcDbEntity
  8
1
100
AcDbLine
 10
76.667908
 20
36.458736
 30
0.0
 11
75.66790799999998
 21
36.458736
 31
0.0
  0
LINE
  5
232
330
25
100
AcDbEntity
  8
1
  6
CENTER
 62
     2
100
AcDbLine
 10
-206.093183
 20
-0.653613
 30
0.0
 11
-206.093183
 21
36.662675
 31
0.0
  0
LINE
  5
233
330
25
100
AcDbEntity
  8
1
100
AcDbLine
 10
47.667908
 20
25.458736
 30
0.0
 11
76.76790799999998
 21
25.458736
 31
0.0
  0
LINE
  5
234
330
25
100
AcDbEntity
  8
1
100
AcDbLine
 10
88.567908
 20
25.458736
 30
0.0
 11
117.667908
 21
25.458736
 31
0.0
  0
ARC
  5
235
330
25
100
AcDbEntity
  8
1
100
AcDbCircle
 10
-162.842159
 20
190.079595
 30
0.0
 40
5.0
100
AcDbArc
 50
306.776932
 51
360.0
  0
ARC
  5
236
330
25
100
AcDbEntity
  8
1
  6
DASHED
100
AcDbCircle
 10
-156.256446
 20
181.268898
 30
0.0
 40
6.0
100
AcDbArc
 50
136.496811
 51
180.0
  0
ARC
  5
237
330
25
100
AcDbEntity
  8
1
100
AcDbCircle
 10
50.167908
 20
-1.481961
 30
0.0
 40
15.0
100
AcDbArc
 50
0.0
 51
27.013751
  0
ARC
  5
238
330
25
100
AcDbEntity
  8
1
100
AcDbCircle
 10
50.167908
 20
-1.481961
 30
0.0
 40
15.0
100
AcDbArc
 50
84.90347900000001
 51
85.47193699999999
  0
LINE
  5
239
330
25
100
AcDbEntity
  8
2
100
AcDbLine
 10
75.66790799999998
 20
27.458736
 30
0.0
 11
75.66790799999998
 21
36.458736
 31
0.0
  0
LINE
  5
23A
330
25
100
AcDbEntity
  8
2
100
AcDbLine
 10
89.667908
 20
36.458736
 30
0.0
 11
89.667908
 21
27.458736
 31
0.0
  0
LINE
  5
23B
330
25
100
AcDbEntity
  8
2
100
AcDbLine
 10
69.667908
 20
46.458736
 30
0.0
 11
75.66790799999998
 21
46.458736
 31
0.0
  0
ARC
  5
23C
330
25
100
AcDbEntity
  8
2
100
AcDbCircle
 10
71.167908
 20
47.458736
 30
0.0
 40
1.0
100
AcDbArc
 50
180.0
 51
270.0
  0
LINE
  5
23D
330
25
100
AcDbEntity
  8
2
100
AcDbLine
 10
95.66790799999999
 20
46.458736
 30
0.0
 11
89.667908
 21
46.458736
 31
0.0
  0
ARC
  5
23E
330
25
100
AcDbEntity
  8
2
100
AcDbCircle
 10
94.16790799999999
 20
47.458736
 30
0.0
 40
1.0
100
AcDbArc
 50
270.0
 51
360.0
  0
LINE
  5
23F
330
25
100
AcDbEntity
  8
2
100
AcDbLine
 10
96.66790800000001
 20
58.458736
 30
0.0
 11
97.667908
 21
57.458736
 31
0.0
  0
LINE
  5
240
330
25
100
AcDbEntity
  8
2
100
AcDbLine
 10
97.667908
 20
37.458736
 30
0.0
 11
97.667908
 21
57.458736
 31
0.0
  0
LINE
  5
241
330
25
100
AcDbEntity
  8
2
100
AcDbLine
 10
88.667908
 20
47.458736
 30
0.0
 11
88.667908
 21
58.20310500000001
 31
0.0
  0
LINE
  5
242
330
25
100
AcDbEntity
  8
2
100
AcDbLine
 10
96.66790800000001
 20
47.458736
 30
0.0
 11
96.66790800000001
 21
60.958736
 31
0.0
  0
ARC
  5
243
330
25
100
AcDbEntity
  8
2
100
AcDbCircle
 10
96.167908
 20
60.958736
 30
0.0
 40
0.5
100
AcDbArc
 50
0.0
 51
90.0
  0
ARC
  5
244
330
25
100
AcDbEntity
  8
2
100
AcDbCircle
 10
95.66790799999999
 20
61.958736
 30
0.0
 40
0.5
100
AcDbArc
 50
180.0
 51
270.0
  0
LINE
  5
245
330
25
100
AcDbEntity
  8
2
100
AcDbLine
 10
96.167908
 20
61.458736
 30
0.0
 11
95.66790799999999
 21
61.458736
 31
0.0
  0
LINE
  5
246
330
25
100
AcDbEntity
  8
2
100
AcDbLine
 10
95.167908
 20
47.458736
 30
0.0
 11
95.167908
 21
61.958736
 31
0.0
  0
LINE
  5
247
330
25
100
AcDbEntity
  8
2
100
AcDbLine
 10
90.75710800000001
 20
59.602327
 30
0.0
 11
89.362683
 21
59.155385
 31
0.0
  0
ARC
  5
248
330
25
100
AcDbEntity
  8
2
100
AcDbCircle
 10
89.667908
 20
58.20310500000001
 30
0.0
 40
1.0
100
AcDbArc
 50
107.771715
 51
180.0
  0
LINE
  5
249
330
25
100
AcDbEntity
  8
2
100
AcDbLine
 10
88.667908
 20
64.70500699999999
 30
0.0
 11
88.667908
 21
58.20310500000001
 31
0.0
  0
LINE
  5
24A
330
25
100
AcDbEntity
  8
2
100
AcDbLine
 10
96.66790800000001
 20
53.931748
 30
0.0
 11
97.46790799999999
 21
46.38597199999998
 31
0.0
  0
ARC
  5
24B
330
25
100
AcDbEntity
  8
2
100
AcDbCircle
 10
95.66790799999999
 20
47.458736
 30
0.0
 40
1.0
100
AcDbArc
 50
270.0
 51
360.0
  0
ARC
  5
24C
330
25
100
AcDbEntity
  8
2
100
AcDbCircle
 10
89.667908
 20
47.458736
 30
0.0
 40
1.0
100
AcDbArc
 50
180.0
 51
270.0
  0
ARC
  5
24D
330
25
100
AcDbEntity
  8
2
100
AcDbCircle
 10
90.45188299999999
 20
60.55460799999998
 30
0.0
 40
1.0
100
AcDbArc
 50
287.771715
 51
6.051866999999997
  0
ARC
  5
24E
330
25
100
AcDbEntity
  8
2
100
AcDbCircle
 10
74.883933
 20
60.55460799999998
 30
0.0
 40
1.0
100
AcDbArc
 50
173.948133
 51
252.228285
  0
ARC
  5
24F
330
25
100
AcDbEntity
  8
2
100
AcDbCircle
 10
75.66790799999998
 20
47.458736
 30
0.0
 40
1.0
100
AcDbArc
 50
270.0
 51
360.0
  0
ARC
  5
250
330
25
100
AcDbEntity
  8
2
100
AcDbCircle
 10
69.667908
 20
47.458736
 30
0.0
 40
1.0
100
AcDbArc
 50
180.0
 51
270.0
  0
ARC
  5
251
330
25
100
AcDbEntity
  8
2
100
AcDbCircle
 10
92.49849500000001
 20
41.25051899999998
 30
0.0
 40
1.0
100
AcDbArc
 50
279.951879
 51
6.051866999999997
  0
ARC
  5
252
330
25
100
AcDbEntity
  8
2
100
AcDbCircle
 10
72.837321
 20
41.25051899999998
 30
0.0
 40
1.0
100
AcDbArc
 50
173.948133
 51
260.048121
  0
ARC
  5
253
330
25
100
AcDbEntity
  8
2
100
AcDbCircle
 10
82.667908
 20
97.27766700000001
 30
0.0
 40
57.88305300000001
100
AcDbArc
 50
260.048121
 51
264.1497
  0
LINE
  5
254
330
25
100
AcDbEntity
  8
2
100
AcDbLine
 10
67.867908
 20
37.458736
 30
0.0
 11
67.867908
 21
46.38597199999998
 31
0.0
  0
LINE
  5
255
330
25
100
AcDbEntity
  8
2
100
AcDbLine
 10
68.667908
 20
53.931748
 30
0.0
 11
67.867908
 21
46.38597199999998
 31
0.0
  0
LINE
  5
256
330
25
100
AcDbEntity
  8
2
100
AcDbLine
 10
72.38389000000002
 20
46.458736
 30
0.0
 11
71.842895
 21
41.355947
 31
0.0
  0
LINE
  5
257
330
25
100
AcDbEntity
  8
2
100
AcDbLine
 10
93.667908
 20
37.458736
 30
0.0
 11
93.667908
 21
36.458736
 31
0.0
  0
ARC
  5
258
330
25
100
AcDbEntity
  8
2
100
AcDbCircle
 10
88.16790799999997
 20
75.564621
 30
0.0
 40
1.5
100
AcDbArc
 50
69.33280100000001
 51
94.27095599999999
  0
LINE
  5
259
330
25
100
AcDbEntity
  8
2
100
AcDbLine
 10
96.66790800000001
 20
53.931748
 30
0.0
 11
97.667908
 21
44.49952699999999
 31
0.0
  0
ARC
  5
25A
330
25
100
AcDbEntity
  8
2
100
AcDbCircle
 10
88.243044
 20
86.04193499999999
 30
0.0
 40
5.0
100
AcDbArc
 50
9.174666
 51
77.83324
  0
LINE
  5
25B
330
25
100
AcDbEntity
  8
2
100
AcDbLine
 10
93.179078
 20
86.839159
 30
0.0
 11
93.179078
 21
82.256513
 31
0.0
  0
LINE
  5
25C
330
25
100
AcDbEntity
  8
2
100
AcDbLine
 10
86.66790799999999
 20
75.22873100000002
 30
0.0
 11
86.66790799999999
 21
72.54311700000002
 31
0.0
  0
ARC
  5
25D
330
25
100
AcDbEntity
  8
2
100
AcDbCircle
 10
92.179078
 20
82.256513
 30
0.0
 40
1.0
100
AcDbArc
 50
259.300245
 51
360.0
  0
LINE
  5
25E
330
25
100
AcDbEntity
  8
2
100
AcDbLine
 10
93.179078
 20
86.839159
 30
0.0
 11
95.8699
 21
61.458736
 31
0.0
  0
ARC
  5
25F
330
25
100
AcDbEntity
  8
2
100
AcDbCircle
 10
88.302972
 20
80.82360899999997
 30
0.0
 40
1.0
100
AcDbArc
 50
6.051866999999997
 51
83.42705999999997
  0
LINE
  5
260
330
25
100
AcDbEntity
  8
2
100
AcDbLine
 10
92.951926
 20
46.458736
 30
0.0
 11
93.49292099999999
 21
41.355947
 31
0.0
  0
ARC
  5
261
330
25
100
AcDbEntity
  8
2
100
AcDbCircle
 10
85.66790799999997
 20
64.70500699999999
 30
0.0
 40
3.0
100
AcDbArc
 50
0.0
 51
28.460849
  0
LINE
  5
262
330
25
100
AcDbEntity
  8
2
100
AcDbLine
 10
89.29739899999999
 20
80.92903699999999
 30
0.0
 11
91.44631
 21
60.660036
 31
0.0
  0
LINE
  5
263
330
25
100
AcDbEntity
  8
2
100
AcDbLine
 10
88.667908
 20
64.70500699999999
 30
0.0
 11
88.667908
 21
59.542736
 31
0.0
  0
LINE
  5
264
330
25
100
AcDbEntity
  8
2
100
AcDbLine
 10
76.667908
 20
64.70500699999999
 30
0.0
 11
76.667908
 21
58.20310500000001
 31
0.0
  0
ARC
  5
265
330
25
100
AcDbEntity
  8
2
100
AcDbCircle
 10
75.66790799999998
 20
58.20310500000001
 30
0.0
 40
1.0
100
AcDbArc
 50
0.0
 51
72.228285
  0
LINE
  5
266
330
25
100
AcDbEntity
  8
2
100
AcDbLine
 10
76.03841700000002
 20
80.92903699999999
 30
0.0
 11
73.88950600000002
 21
60.660036
 31
0.0
  0
ARC
  5
267
330
25
100
AcDbEntity
  8
2
100
AcDbCircle
 10
79.667908
 20
64.70500699999999
 30
0.0
 40
3.0
100
AcDbArc
 50
113.205282
 51
180.0
  0
LINE
  5
268
330
25
100
AcDbEntity
  8
2
100
AcDbLine
 10
74.57870699999998
 20
59.602327
 30
0.0
 11
75.97313299999997
 21
59.155385
 31
0.0
  0
LINE
  5
269
330
25
100
AcDbEntity
  8
2
100
AcDbLine
 10
71.667908
 20
37.458736
 30
0.0
 11
71.667908
 21
36.458736
 31
0.0
  0
ARC
  5
26A
330
25
100
AcDbEntity
  8
2
100
AcDbCircle
 10
77.032844
 20
80.82360899999997
 30
0.0
 40
1.0
100
AcDbArc
 50
96.57294
 51
173.948133
  0
LINE
  5
26B
330
25
100
AcDbEntity
  8
2
100
AcDbLine
 10
97.667908
 20
37.458736
 30
0.0
 11
88.567908
 21
37.458736
 31
0.0
  0
LINE
  5
26C
330
25
100
AcDbEntity
  8
2
100
AcDbLine
 10
71.667908
 20
36.458736
 30
0.0
 11
76.76790799999998
 21
36.458736
 31
0.0
  0
LINE
  5
26D
330
25
100
AcDbEntity
  8
2
100
AcDbLine
 10
70.16790799999999
 20
47.458736
 30
0.0
 11
70.16790799999999
 21
61.958736
 31
0.0
  0
LINE
  5
26E
330
25
100
AcDbEntity
  8
2
100
AcDbLine
 10
72.15673800000002
 20
86.839159
 30
0.0
 11
69.46591600000001
 21
61.458736
 31
0.0
  0
LINE
  5
26F
330
25
100
AcDbEntity
  8
2
100
AcDbLine
 10
69.167908
 20
61.458736
 30
0.0
 11
69.667908
 21
61.458736
 31
0.0
  0
ARC
  5
270
330
25
100
AcDbEntity
  8
2
100
AcDbCircle
 10
69.667908
 20
61.958736
 30
0.0
 40
0.5
100
AcDbArc
 50
270.0
 51
360.0
  0
ARC
  5
271
330
25
100
AcDbEntity
  8
2
100
AcDbCircle
 10
69.167908
 20
60.958736
 30
0.0
 40
0.5
100
AcDbArc
 50
90.0
 51
180.0
  0
LINE
  5
272
330
25
100
AcDbEntity
  8
2
100
AcDbLine
 10
68.667908
 20
47.458736
 30
0.0
 11
68.667908
 21
60.958736
 31
0.0
  0
ARC
  5
273
330
25
100
AcDbEntity
  8
2
100
AcDbCircle
 10
82.667908
 20
31.918885
 30
0.0
 40
50.228304
100
AcDbArc
 50
79.30024499999998
 51
100.699755
  0
ARC
  5
274
330
25
100
AcDbEntity
  8
2
100
AcDbCircle
 10
73.156738
 20
82.256513
 30
0.0
 40
1.0
100
AcDbArc
 50
180.0
 51
280.699755
  0
ARC
  5
275
330
25
100
AcDbEntity
  8
2
100
AcDbCircle
 10
82.667908
 20
67.370062
 30
0.0
 40
11.334722
100
AcDbArc
 50
68.40872399999999
 51
114.66929
  0
LINE
  5
276
330
25
100
AcDbEntity
  8
2
100
AcDbLine
 10
78.667908
 20
71.39185400000002
 30
0.0
 11
79.667908
 21
70.391854
 31
0.0
  0
ARC
  5
277
330
25
100
AcDbEntity
  8
2
100
AcDbCircle
 10
82.667908
 20
62.370339
 30
0.0
 40
9.868522999999999
100
AcDbArc
 50
76.97849599999997
 51
113.911756
  0
ARC
  5
278
330
25
100
AcDbEntity
  8
2
100
AcDbCircle
 10
77.167908
 20
75.564621
 30
0.0
 40
1.5
100
AcDbArc
 50
0.0
 51
110.667199
  0
LINE
  5
279
330
25
100
AcDbEntity
  8
2
100
AcDbLine
 10
78.667908
 20
75.564621
 30
0.0
 11
78.667908
 21
75.39299799999998
 31
0.0
  0
LINE
  5
27A
330
25
100
AcDbEntity
  8
2
100
AcDbLine
 10
76.667908
 20
47.458736
 30
0.0
 11
76.667908
 21
58.20310500000001
 31
0.0
  0
LINE
  5
27B
330
25
100
AcDbEntity
  8
2
100
AcDbLine
 10
72.15673800000002
 20
86.839159
 30
0.0
 11
72.15673800000002
 21
82.256513
 31
0.0
  0
LINE
  5
27C
330
25
100
AcDbEntity
  8
2
100
AcDbLine
 10
66.667908
 20
58.458736
 30
0.0
 11
68.667908
 21
58.458736
 31
0.0
  0
LINE
  5
27D
330
25
100
AcDbEntity
  8
2
100
AcDbLine
 10
65.66790799999999
 20
57.458736
 30
0.0
 11
65.66790799999999
 21
37.458736
 31
0.0
  0
ARC
  5
27E
330
25
100
AcDbEntity
  8
2
100
AcDbCircle
 10
66.667908
 20
57.458736
 30
0.0
 40
1.0
100
AcDbArc
 50
90.0
 51
180.0
  0
ARC
  5
27F
330
25
100
AcDbEntity
  8
2
100
AcDbCircle
 10
77.09277199999998
 20
86.04193499999999
 30
0.0
 40
5.0
100
AcDbArc
 50
102.16676
 51
170.825334
  0
ARC
  5
280
330
25
100
AcDbEntity
  8
2
100
AcDbCircle
 10
82.667908
 20
60.18328799999999
 30
0.0
 40
31.452822
100
AcDbArc
 50
77.83324
 51
102.16676
  0
LINE
  5
281
330
25
100
AcDbEntity
  8
2
100
AcDbLine
 10
88.567908
 20
36.458736
 30
0.0
 11
93.667908
 21
36.458736
 31
0.0
  0
LINE
  5
282
330
25
100
AcDbEntity
  8
2
100
AcDbLine
 10
76.76790799999998
 20
37.458736
 30
0.0
 11
65.66790799999999
 21
37.458736
 31
0.0
  0
ARC
  5
283
330
25
100
AcDbEntity
  8
2
100
AcDbCircle
 10
82.667908
 20
97.27766700000001
 30
0.0
 40
57.88305300000001
100
AcDbArc
 50
275.8503
 51
279.951879
  0
LINE
  5
284
330
25
100
AcDbEntity
  8
2
100
AcDbLine
 10
78.667908
 20
73.405683
 30
0.0
 11
78.667908
 21
71.39185400000002
 31
0.0
  0
ARC
  5
285
330
25
100
AcDbEntity
  8
2
100
AcDbCircle
 10
85.66790799999997
 20
64.70500699999999
 30
0.0
 40
3.0
100
AcDbArc
 50
55.144622
 51
90.0
  0
LINE
  5
286
330
25
100
AcDbEntity
  8
2
100
AcDbLine
 10
87.00626899999996
 20
67.123767
 30
0.0
 11
77.44508499999998
 21
64.12041399999999
 31
0.0
  0
LINE
  5
287
330
25
100
AcDbEntity
  8
2
100
AcDbLine
 10
87.60563299999999
 20
65.215689
 30
0.0
 11
78.044449
 21
62.212335
 31
0.0
  0
LINE
  5
288
330
25
100
AcDbEntity
  8
2
100
AcDbLine
 10
77.489689
 20
62.199454
 30
0.0
 11
83.70273199999997
 21
60.560425
 31
0.0
  0
LINE
  5
289
330
25
100
AcDbEntity
  8
2
100
AcDbLine
 10
87.00626899999996
 20
61.59813
 30
0.0
 11
77.44508499999998
 21
58.594777
 31
0.0
  0
LINE
  5
28A
330
25
100
AcDbEntity
  8
2
100
AcDbLine
 10
87.60563299999999
 20
59.690052
 30
0.0
 11
78.044449
 21
56.686699
 31
0.0
  0
LINE
  5
28B
330
25
100
AcDbEntity
  8
2
100
AcDbLine
 10
87.60563299999999
 20
54.164416
 30
0.0
 11
78.044449
 21
51.161062
 31
0.0
  0
LINE
  5
28C
330
25
100
AcDbEntity
  8
2
100
AcDbLine
 10
87.00626899999996
 20
56.07249399999999
 30
0.0
 11
77.44508499999998
 21
53.069141
 31
0.0
  0
LINE
  5
28D
330
25
100
AcDbEntity
  8
2
100
AcDbLine
 10
77.489689
 20
56.673817
 30
0.0
 11
79.381985
 21
56.174621
 31
0.0
  0
ARC
  5
28E
330
25
100
AcDbEntity
  8
2
100
AcDbCircle
 10
77.74476700000002
 20
52.115102
 30
0.0
 40
1.0
100
AcDbArc
 50
100.738785
 51
286.6206009999999
  0
ARC
  5
28F
330
25
100
AcDbEntity
  8
2
100
AcDbCircle
 10
77.74476700000002
 20
57.640738
 30
0.0
 40
1.0
100
AcDbArc
 50
107.438515
 51
286.6206009999999
  0
ARC
  5
290
330
25
100
AcDbEntity
  8
2
100
AcDbCircle
 10
77.74476700000002
 20
63.166374
 30
0.0
 40
1.0
100
AcDbArc
 50
107.438515
 51
286.6206009999999
  0
LINE
  5
291
330
25
100
AcDbEntity
  8
2
100
AcDbLine
 10
81.34798599999998
 20
57.724404
 30
0.0
 11
87.561029
 21
56.085375
 31
0.0
  0
ARC
  5
292
330
25
100
AcDbEntity
  8
2
100
AcDbCircle
 10
87.305951
 20
55.118455
 30
0.0
 40
1.0
100
AcDbArc
 50
287.438515
 51
107.438515
  0
LINE
  5
293
330
25
100
AcDbEntity
  8
2
100
AcDbLine
 10
82.959905
 20
52.705102
 30
0.0
 11
87.561029
 21
52.327734
 31
0.0
  0
ARC
  5
294
330
25
100
AcDbEntity
  8
2
100
AcDbCircle
 10
87.591049
 20
51.307271
 30
0.0
 40
1.0
100
AcDbArc
 50
273.731968
 51
85.59196300000001
  0
LINE
  5
295
330
25
100
AcDbEntity
  8
2
100
AcDbLine
 10
81.34798599999998
 20
63.25004
 30
0.0
 11
87.561029
 21
61.611012
 31
0.0
  0
ARC
  5
296
330
25
100
AcDbEntity
  8
2
100
AcDbCircle
 10
87.305951
 20
60.644091
 30
0.0
 40
1.0
100
AcDbArc
 50
281.107766
 51
107.438515
  0
LINE
  5
297
330
25
100
AcDbEntity
  8
2
100
AcDbLine
 10
87.49860600000003
 20
75.418031
 30
0.0
 11
78.044449
 21
73.26360799999998
 31
0.0
  0
LINE
  5
298
330
25
100
AcDbEntity
  8
2
100
AcDbLine
 10
87.00626899999996
 20
77.35333699999998
 30
0.0
 11
77.44508499999998
 21
75.17168599999997
 31
0.0
  0
LINE
  5
299
330
25
100
AcDbEntity
  8
2
100
AcDbLine
 10
77.489689
 20
67.72509000000001
 30
0.0
 11
83.70273199999997
 21
66.086062
 31
0.0
  0
LINE
  5
29A
330
25
100
AcDbEntity
  8
2
100
AcDbLine
 10
87.00626899999996
 20
72.64940300000002
 30
0.0
 11
77.44508499999998
 21
69.64605
 31
0.0
  0
LINE
  5
29B
330
25
100
AcDbEntity
  8
2
100
AcDbLine
 10
87.60563299999999
 20
70.74132500000001
 30
0.0
 11
78.044449
 21
67.737972
 31
0.0
  0
ARC
  5
29C
330
25
100
AcDbEntity
  8
2
100
AcDbCircle
 10
77.74476700000002
 20
74.217647
 30
0.0
 40
1.0
100
AcDbArc
 50
98.020858
 51
286.6206009999999
  0
LINE
  5
29D
330
25
100
AcDbEntity
  8
2
100
AcDbLine
 10
77.489689
 20
73.25072699999998
 30
0.0
 11
78.667908
 21
72.93990699999998
 31
0.0
  0
ARC
  5
29E
330
25
100
AcDbEntity
  8
2
100
AcDbCircle
 10
77.74476700000002
 20
68.69201099999999
 30
0.0
 40
1.0
100
AcDbArc
 50
107.438515
 51
286.6206009999999
  0
LINE
  5
29F
330
25
100
AcDbEntity
  8
2
100
AcDbLine
 10
86.66790799999999
 20
72.897894
 30
0.0
 11
87.561029
 21
72.662285
 31
0.0
  0
LINE
  5
2A0
330
25
100
AcDbEntity
  8
2
100
AcDbLine
 10
81.34798599999998
 20
68.775677
 30
0.0
 11
87.561029
 21
67.136648
 31
0.0
  0
ARC
  5
2A1
330
25
100
AcDbEntity
  8
2
100
AcDbCircle
 10
87.305951
 20
71.695364
 30
0.0
 40
1.0
100
AcDbArc
 50
281.107766
 51
107.438515
  0
ARC
  5
2A2
330
25
100
AcDbEntity
  8
2
100
AcDbCircle
 10
87.305951
 20
66.169728
 30
0.0
 40
1.0
100
AcDbArc
 50
281.107766
 51
107.438515
  0
ARC
  5
2A3
330
25
100
AcDbEntity
  8
2
100
AcDbCircle
 10
87.305951
 20
76.399298
 30
0.0
 40
1.0
100
AcDbArc
 50
281.107766
 51
107.438515
  0
LINE
  5
2A4
330
25
100
AcDbEntity
  8
2
  6
CENTER
 62
     2
100
AcDbLine
 10
62.44348299999999
 20
56.458736
 30
0.0
 11
102.766477
 21
56.458736
 31
0.0
  0
LINE
  5
2A5
330
25
100
AcDbEntity
  8
2
  6
CENTER
 62
     2
100
AcDbLine
 10
82.667908
 20
42.774081
 30
0.0
 11
53.308529
 21
42.774081
 31
0.0
  0
LINE
  5
2A6
330
25
100
AcDbEntity
  8
2
100
AcDbLine
 10
65.66790799999999
 20
37.77408100000001
 30
0.0
 11
65.66790799999999
 21
47.774081
 31
0.0
  0
ARC
  5
2A7
330
25
100
AcDbEntity
  8
2
100
AcDbCircle
 10
86.66790799999999
 20
58.174165
 30
0.0
 40
1.0
100
AcDbArc
 50
0.0
 51
90.0
  0
ARC
  5
2A8
330
25
100
AcDbEntity
  8
2
100
AcDbCircle
 10
78.667908
 20
58.174165
 30
0.0
 40
1.0
100
AcDbArc
 50
90.0
 51
147.287273
  0
LINE
  5
2A9
330
25
100
AcDbEntity
  8
2
100
AcDbLine
 10
78.667908
 20
59.174165
 30
0.0
 11
79.289569
 21
59.174165
 31
0.0
  0
LINE
  5
2AA
330
25
100
AcDbEntity
  8
2
100
AcDbLine
 10
87.667908
 20
40.06529899999999
 30
0.0
 11
87.667908
 21
50.31022899999999
 31
0.0
  0
LINE
  5
2AB
330
25
100
AcDbEntity
  8
2
100
AcDbLine
 10
77.66790799999998
 20
24.487668
 30
0.0
 11
77.66790799999998
 21
21.458736
 31
0.0
  0
ARC
  5
2AC
330
25
100
AcDbEntity
  8
2
100
AcDbCircle
 10
77.76790799999997
 20
60.458736
 30
0.0
 40
1.0
100
AcDbArc
 50
90.0
 51
180.0
  0
ARC
  5
2AD
330
25
100
AcDbEntity
  8
2
100
AcDbCircle
 10
87.567908
 20
60.458736
 30
0.0
 40
1.0
100
AcDbArc
 50
0.0
 51
63.950626
  0
LINE
  5
2AE
330
25
100
AcDbEntity
  8
2
100
AcDbLine
 10
88.567908
 20
60.458736
 30
0.0
 11
88.567908
 21
25.387668
 31
0.0
  0
LINE
  5
2AF
330
25
100
AcDbEntity
  8
2
100
AcDbLine
 10
76.76790799999998
 20
60.458736
 30
0.0
 11
76.76790799999998
 21
25.387668
 31
0.0
  0
LINE
  5
2B0
330
25
100
AcDbEntity
  8
2
100
AcDbLine
 10
88.567908
 20
25.387668
 30
0.0
 11
87.667908
 21
24.487668
 31
0.0
  0
LINE
  5
2B1
330
25
100
AcDbEntity
  8
2
100
AcDbLine
 10
77.66790799999998
 20
24.487668
 30
0.0
 11
76.76790799999998
 21
25.387668
 31
0.0
  0
LINE
  5
2B2
330
25
100
AcDbEntity
  8
2
100
AcDbLine
 10
86.66790799999999
 20
53.86985799999999
 30
0.0
 11
86.66790799999999
 21
52.400985
 31
0.0
  0
ARC
  5
2B3
330
25
100
AcDbEntity
  8
2
100
AcDbCircle
 10
82.667908
 20
69.46769300000001
 30
0.0
 40
14.567094
100
AcDbArc
 50
254.062329
 51
272.574998
  0
ARC
  5
2B4
330
25
100
AcDbEntity
  8
2
100
AcDbCircle
 10
82.67335200000003
 20
71.528304
 30
0.0
 40
15.364572
100
AcDbArc
 50
258.719715
 51
281.24576
  0
ARC
  5
2B5
330
25
100
AcDbEntity
  8
2
100
AcDbCircle
 10
82.667908
 20
45.91812299999999
 30
0.0
 40
10.96096
100
AcDbArc
 50
74.115522
 51
105.884478
  0
LINE
  5
2B6
330
25
100
AcDbEntity
  8
2
100
AcDbLine
 10
86.283115
 20
55.845337
 30
0.0
 11
85.66790799999997
 21
56.46054399999999
 31
0.0
  0
LINE
  5
2B7
330
25
100
AcDbEntity
  8
2
100
AcDbLine
 10
79.667908
 20
56.46054399999999
 30
0.0
 11
78.667908
 21
55.46054399999999
 31
0.0
  0
LINE
  5
2B8
330
25
100
AcDbEntity
  8
2
100
AcDbLine
 10
78.667908
 20
55.46054399999999
 30
0.0
 11
78.667908
 21
53.453253
 31
0.0
  0
ARC
  5
2B9
330
25
100
AcDbEntity
  8
2
100
AcDbCircle
 10
86.66790799999999
 20
50.22842199999999
 30
0.0
 40
1.0
100
AcDbArc
 50
0.0
 51
90.0
  0
ARC
  5
2BA
330
25
100
AcDbEntity
  8
2
100
AcDbCircle
 10
78.667908
 20
50.22842199999999
 30
0.0
 40
1.0
100
AcDbArc
 50
90.0
 51
180.0
  0
LINE
  5
2BB
330
25
100
AcDbEntity
  8
2
100
AcDbLine
 10
78.667908
 20
51.228422
 30
0.0
 11
86.66790799999999
 21
51.228422
 31
0.0
  0
LINE
  5
2BC
330
25
100
AcDbEntity
  8
2
100
AcDbLine
 10
86.66790799999999
 20
51.228422
 30
0.0
 11
78.667908
 21
51.228422
 31
0.0
  0
ARC
  5
2BD
330
25
100
AcDbEntity
  8
2
100
AcDbCircle
 10
78.667908
 20
50.22842199999999
 30
0.0
 40
1.0
100
AcDbArc
 50
90.0
 51
180.0
  0
ARC
  5
2BE
330
25
100
AcDbEntity
  8
2
100
AcDbCircle
 10
86.66790799999999
 20
50.22842199999999
 30
0.0
 40
1.0
100
AcDbArc
 50
0.0
 51
90.0
  0
ARC
  5
2BF
330
25
100
AcDbEntity
  8
2
100
AcDbCircle
 10
86.66790799999999
 20
40.06529899999999
 30
0.0
 40
1.0
100
AcDbArc
 50
270.0
 51
360.0
  0
ARC
  5
2C0
330
25
100
AcDbEntity
  8
2
100
AcDbCircle
 10
78.667908
 20
40.06529899999999
 30
0.0
 40
1.0
100
AcDbArc
 50
180.0
 51
270.0
  0
LINE
  5
2C1
330
25
100
AcDbEntity
  8
2
100
AcDbLine
 10
86.66790799999999
 20
39.065299
 30
0.0
 11
78.667908
 21
39.065299
 31
0.0
  0
LINE
  5
2C2
330
25
100
AcDbEntity
  8
2
100
AcDbLine
 10
78.667908
 20
39.065299
 30
0.0
 11
86.66790799999999
 21
39.065299
 31
0.0
  0
ARC
  5
2C3
330
25
100
AcDbEntity
  8
2
100
AcDbCircle
 10
78.667908
 20
40.06529899999999
 30
0.0
 40
1.0
100
AcDbArc
 50
180.0
 51
270.0
  0
ARC
  5
2C4
330
25
100
AcDbEntity
  8
2
100
AcDbCircle
 10
86.66790799999999
 20
40.06529899999999
 30
0.0
 40
1.0
100
AcDbArc
 50
270.0
 51
360.0
  0
ARC
  5
2C5
330
25
100
AcDbEntity
  8
2
100
AcDbCircle
 10
86.66790799999999
 20
21.458736
 30
0.0
 40
1.0
100
AcDbArc
 50
270.0
 51
360.0
  0
ARC
  5
2C6
330
25
100
AcDbEntity
  8
2
100
AcDbCircle
 10
78.667908
 20
21.458736
 30
0.0
 40
1.0
100
AcDbArc
 50
180.0
 51
270.0
  0
LINE
  5
2C7
330
25
100
AcDbEntity
  8
2
100
AcDbLine
 10
78.667908
 20
20.458736
 30
0.0
 11
86.66790799999999
 21
20.458736
 31
0.0
  0
LINE
  5
2C8
330
25
100
AcDbEntity
  8
2
100
AcDbLine
 10
86.66790799999999
 20
20.458736
 30
0.0
 11
78.667908
 21
20.458736
 31
0.0
  0
ARC
  5
2C9
330
25
100
AcDbEntity
  8
2
100
AcDbCircle
 10
78.667908
 20
21.458736
 30
0.0
 40
1.0
100
AcDbArc
 50
180.0
 51
270.0
  0
ARC
  5
2CA
330
25
100
AcDbEntity
  8
2
100
AcDbCircle
 10
86.66790799999999
 20
21.458736
 30
0.0
 40
1.0
100
AcDbArc
 50
270.0
 51
360.0
  0
LINE
  5
2CB
330
25
100
AcDbEntity
  8
2
100
AcDbLine
 10
87.667908
 20
21.458736
 30
0.0
 11
87.667908
 21
24.487668
 31
0.0
  0
LINE
  5
2CC
330
25
100
AcDbEntity
  8
2
100
AcDbLine
 10
77.66790799999998
 20
56.643696
 30
0.0
 11
77.66790799999998
 21
53.139134
 31
0.0
  0
LINE
  5
2CD
330
25
100
AcDbEntity
  8
2
100
AcDbLine
 10
80.29751800000003
 20
61.458736
 30
0.0
 11
77.76790799999997
 21
61.458736
 31
0.0
  0
LINE
  5
2CE
330
25
100
AcDbEntity
  8
2
100
AcDbLine
 10
85.96330599999998
 20
59.174165
 30
0.0
 11
86.66790799999999
 21
59.174165
 31
0.0
  0
LINE
  5
2CF
330
25
100
AcDbEntity
  8
2
100
AcDbLine
 10
78.667908
 20
51.356903
 30
0.0
 11
78.667908
 21
51.228422
 31
0.0
  0
LINE
  5
2D0
330
25
100
AcDbEntity
  8
2
100
AcDbLine
 10
77.66790799999998
 20
51.11806
 30
0.0
 11
77.66790799999998
 21
40.06529899999999
 31
0.0
  0
LINE
  5
2D1
330
25
100
AcDbEntity
  8
2
100
AcDbLine
 10
87.667908
 20
52.304313
 30
0.0
 11
87.667908
 21
54.18625999999999
 31
0.0
  0
LINE
  5
2D2
330
25
100
AcDbEntity
  8
2
100
AcDbLine
 10
87.667908
 20
56.05064999999999
 30
0.0
 11
87.667908
 21
58.174165
 31
0.0
  0
LINE
  5
2D3
330
25
100
AcDbEntity
  8
2
100
AcDbLine
 10
157.667908
 20
27.458736
 30
0.0
 11
157.667908
 21
25.458736
 31
0.0
  0
LINE
  5
2D4
330
25
100
AcDbEntity
  8
2
100
AcDbLine
 10
142.531757
 20
26.958736
 30
0.0
 11
142.531757
 21
25.958736
 31
0.0
  0
LINE
  5
2D5
330
25
100
AcDbEntity
  8
2
100
AcDbLine
 10
140.935355
 20
26.958736
 30
0.0
 11
140.935355
 21
25.958736
 31
0.0
  0
LINE
  5
2D6
330
25
100
AcDbEntity
  8
2
100
AcDbLine
 10
137.582583
 20
26.958736
 30
0.0
 11
137.582583
 21
25.958736
 31
0.0
  0
LINE
  5
2D7
330
25
100
AcDbEntity
  8
2
100
AcDbLine
 10
132.576449
 20
26.958736
 30
0.0
 11
132.576449
 21
25.958736
 31
0.0
  0
LINE
  5
2D8
330
25
100
AcDbEntity
  8
2
100
AcDbLine
 10
126.069061
 20
26.958736
 30
0.0
 11
126.069061
 21
25.958736
 31
0.0
  0
LINE
  5
2D9
330
25
100
AcDbEntity
  8
2
100
AcDbLine
 10
118.258144
 20
26.958736
 30
0.0
 11
118.258144
 21
25.958736
 31
0.0
  0
LINE
  5
2DA
330
25
100
AcDbEntity
  8
2
100
AcDbLine
 10
109.381028
 20
26.958736
 30
0.0
 11
109.381028
 21
25.958736
 31
0.0
  0
LINE
  5
2DB
330
25
100
AcDbEntity
  8
2
100
AcDbLine
 10
57.66790799999998
 20
26.958736
 30
0.0
 11
57.66790799999998
 21
25.958736
 31
0.0
  0
LINE
  5
2DC
330
25
100
AcDbEntity
  8
2
100
AcDbLine
 10
32.66790800000001
 20
27.458736
 30
0.0
 11
32.66790800000001
 21
25.458736
 31
0.0
  0
LINE
  5
2DD
330
25
100
AcDbEntity
  8
2
100
AcDbLine
 10
139.859276
 20
26.958736
 30
0.0
 11
139.859276
 21
25.958736
 31
0.0
  0
LINE
  5
2DE
330
25
100
AcDbEntity
  8
2
100
AcDbLine
 10
136.031831
 20
26.958736
 30
0.0
 11
136.031831
 21
25.958736
 31
0.0
  0
LINE
  5
2DF
330
25
100
AcDbEntity
  8
2
100
AcDbLine
 10
130.583392
 20
26.958736
 30
0.0
 11
130.583392
 21
25.958736
 31
0.0
  0
LINE
  5
2E0
330
25
100
AcDbEntity
  8
2
100
AcDbLine
 10
123.679509
 20
26.958736
 30
0.0
 11
123.679509
 21
25.958736
 31
0.0
  0
LINE
  5
2E1
330
25
100
AcDbEntity
  8
2
100
AcDbLine
 10
115.52995
 20
26.958736
 30
0.0
 11
115.52995
 21
25.958736
 31
0.0
  0
LINE
  5
2E2
330
25
100
AcDbEntity
  8
2
100
AcDbLine
 10
106.382338
 20
26.958736
 30
0.0
 11
106.382338
 21
25.958736
 31
0.0
  0
LINE
  5
2E3
330
25
100
AcDbEntity
  8
2
100
AcDbLine
 10
99.721522
 20
26.958736
 30
0.0
 11
99.721522
 21
25.958736
 31
0.0
  0
LINE
  5
2E4
330
25
100
AcDbEntity
  8
2
100
AcDbLine
 10
96.514617
 20
26.958736
 30
0.0
 11
96.514617
 21
25.958736
 31
0.0
  0
ARC
  5
2E5
330
25
100
AcDbEntity
  8
2
100
AcDbCircle
 10
142.031757
 20
26.958736
 30
0.0
 40
0.5
100
AcDbArc
 50
0.0
 51
90.0
  0
ARC
  5
2E6
330
25
100
AcDbEntity
  8
2
100
AcDbCircle
 10
142.031757
 20
25.958736
 30
0.0
 40
0.5
100
AcDbArc
 50
270.0
 51
360.0
  0
ARC
  5
2E7
330
25
100
AcDbEntity
  8
2
100
AcDbCircle
 10
140.435355
 20
26.958736
 30
0.0
 40
0.5
100
AcDbArc
 50
0.0
 51
90.0
  0
ARC
  5
2E8
330
25
100
AcDbEntity
  8
2
100
AcDbCircle
 10
140.435355
 20
25.958736
 30
0.0
 40
0.5
100
AcDbArc
 50
270.0
 51
360.0
  0
ARC
  5
2E9
330
25
100
AcDbEntity
  8
2
100
AcDbCircle
 10
139.359276
 20
26.958736
 30
0.0
 40
0.5
100
AcDbArc
 50
0.0
 51
90.0
  0
ARC
  5
2EA
330
25
100
AcDbEntity
  8
2
100
AcDbCircle
 10
139.359276
 20
25.958736
 30
0.0
 40
0.5
100
AcDbArc
 50
270.0
 51
360.0
  0
ARC
  5
2EB
330
25
100
AcDbEntity
  8
2
100
AcDbCircle
 10
137.082583
 20
25.958736
 30
0.0
 40
0.5
100
AcDbArc
 50
270.0
 51
360.0
  0
ARC
  5
2EC
330
25
100
AcDbEntity
  8
2
100
AcDbCircle
 10
137.082583
 20
26.958736
 30
0.0
 40
0.5
100
AcDbArc
 50
0.0
 51
90.0
  0
ARC
  5
2ED
330
25
100
AcDbEntity
  8
2
100
AcDbCircle
 10
135.531831
 20
26.958736
 30
0.0
 40
0.5
100
AcDbArc
 50
0.0
 51
90.0
  0
ARC
  5
2EE
330
25
100
AcDbEntity
  8
2
100
AcDbCircle
 10
135.531831
 20
25.958736
 30
0.0
 40
0.5
100
AcDbArc
 50
270.0
 51
360.0
  0
ARC
  5
2EF
330
25
100
AcDbEntity
  8
2
100
AcDbCircle
 10
132.076449
 20
26.958736
 30
0.0
 40
0.5
100
AcDbArc
 50
0.0
 51
90.0
  0
ARC
  5
2F0
330
25
100
AcDbEntity
  8
2
100
AcDbCircle
 10
132.076449
 20
25.958736
 30
0.0
 40
0.5
100
AcDbArc
 50
270.0
 51
360.0
  0
ARC
  5
2F1
330
25
100
AcDbEntity
  8
2
100
AcDbCircle
 10
130.083392
 20
26.958736
 30
0.0
 40
0.5
100
AcDbArc
 50
0.0
 51
90.0
  0
ARC
  5
2F2
330
25
100
AcDbEntity
  8
2
100
AcDbCircle
 10
130.083392
 20
25.958736
 30
0.0
 40
0.5
100
AcDbArc
 50
270.0
 51
360.0
  0
ARC
  5
2F3
330
25
100
AcDbEntity
  8
2
100
AcDbCircle
 10
125.569061
 20
26.958736
 30
0.0
 40
0.5
100
AcDbArc
 50
0.0
 51
90.0
  0
ARC
  5
2F4
330
25
100
AcDbEntity
  8
2
100
AcDbCircle
 10
125.569061
 20
25.958736
 30
0.0
 40
0.5
100
AcDbArc
 50
270.0
 51
360.0
  0
ARC
  5
2F5
330
25
100
AcDbEntity
  8
2
100
AcDbCircle
 10
123.179509
 20
26.958736
 30
0.0
 40
0.5
100
AcDbArc
 50
0.0
 51
90.0
  0
ARC
  5
2F6
330
25
100
AcDbEntity
  8
2
100
AcDbCircle
 10
123.179509
 20
25.958736
 30
0.0
 40
0.5
100
AcDbArc
 50
270.0
 51
360.0
  0
ARC
  5
2F7
330
25
100
AcDbEntity
  8
2
100
AcDbCircle
 10
117.758144
 20
26.958736
 30
0.0
 40
0.5
100
AcDbArc
 50
0.0
 51
90.0
  0
ARC
  5
2F8
330
25
100
AcDbEntity
  8
2
100
AcDbCircle
 10
117.758144
 20
25.958736
 30
0.0
 40
0.5
100
AcDbArc
 50
270.0
 51
360.0
  0
ARC
  5
2F9
330
25
100
AcDbEntity
  8
2
100
AcDbCircle
 10
115.02995
 20
26.958736
 30
0.0
 40
0.5
100
AcDbArc
 50
0.0
 51
90.0
  0
ARC
  5
2FA
330
25
100
AcDbEntity
  8
2
100
AcDbCircle
 10
115.02995
 20
25.958736
 30
0.0
 40
0.5
100
AcDbArc
 50
270.0
 51
360.0
  0
ARC
  5
2FB
330
25
100
AcDbEntity
  8
2
100
AcDbCircle
 10
108.881028
 20
26.958736
 30
0.0
 40
0.5
100
AcDbArc
 50
0.0
 51
90.0
  0
ARC
  5
2FC
330
25
100
AcDbEntity
  8
2
100
AcDbCircle
 10
108.881028
 20
25.958736
 30
0.0
 40
0.5
100
AcDbArc
 50
270.0
 51
360.0
  0
ARC
  5
2FD
330
25
100
AcDbEntity
  8
2
100
AcDbCircle
 10
105.882338
 20
26.958736
 30
0.0
 40
0.5
100
AcDbArc
 50
0.0
 51
90.0
  0
ARC
  5
2FE
330
25
100
AcDbEntity
  8
2
100
AcDbCircle
 10
105.882338
 20
25.958736
 30
0.0
 40
0.5
100
AcDbArc
 50
270.0
 51
360.0
  0
ARC
  5
2FF
330
25
100
AcDbEntity
  8
2
100
AcDbCircle
 10
99.22152199999999
 20
25.958736
 30
0.0
 40
0.5
100
AcDbArc
 50
270.0
 51
360.0
  0
ARC
  5
300
330
25
100
AcDbEntity
  8
2
100
AcDbCircle
 10
99.22152199999999
 20
26.958736
 30
0.0
 40
0.5
100
AcDbArc
 50
0.0
 51
90.0
  0
ARC
  5
301
330
25
100
AcDbEntity
  8
2
100
AcDbCircle
 10
96.01461700000001
 20
26.958736
 30
0.0
 40
0.5
100
AcDbArc
 50
0.0
 51
90.0
  0
ARC
  5
302
330
25
100
AcDbEntity
  8
2
100
AcDbCircle
 10
96.01461700000001
 20
25.958736
 30
0.0
 40
0.5
100
AcDbArc
 50
270.0
 51
360.0
  0
ARC
  5
303
330
25
100
AcDbEntity
  8
2
100
AcDbCircle
 10
58.16790799999999
 20
26.958736
 30
0.0
 40
0.5
100
AcDbArc
 50
90.0
 51
180.0
  0
ARC
  5
304
330
25
100
AcDbEntity
  8
2
100
AcDbCircle
 10
58.16790799999999
 20
25.958736
 30
0.0
 40
0.5
100
AcDbArc
 50
180.0
 51
270.0
  0
LINE
  5
305
330
25
100
AcDbEntity
  8
2
100
AcDbLine
 10
75.66790799999998
 20
26.958736
 30
0.0
 11
75.66790799999998
 21
25.958736
 31
0.0
  0
ARC
  5
306
330
25
100
AcDbEntity
  8
2
100
AcDbCircle
 10
75.16790799999998
 20
26.958736
 30
0.0
 40
0.5
100
AcDbArc
 50
0.0
 51
90.0
  0
LINE
  5
307
330
25
100
AcDbEntity
  8
2
100
AcDbLine
 10
157.667908
 20
27.458736
 30
0.0
 11
88.567908
 21
27.458736
 31
0.0
  0
ARC
  5
308
330
25
100
AcDbEntity
  8
2
100
AcDbCircle
 10
75.16790799999998
 20
25.958736
 30
0.0
 40
0.5
100
AcDbArc
 50
270.0
 51
360.0
  0
LINE
  5
309
330
25
100
AcDbEntity
  8
2
100
AcDbLine
 10
157.667908
 20
25.458736
 30
0.0
 11
88.567908
 21
25.458736
 31
0.0
  0
LINE
  5
30A
330
25
100
AcDbEntity
  8
2
100
AcDbLine
 10
76.76790799999998
 20
27.458736
 30
0.0
 11
32.66790800000001
 21
27.458736
 31
0.0
  0
ARC
  5
30B
330
25
100
AcDbEntity
  8
2
100
AcDbCircle
 10
89.24948699999999
 20
25.958736
 30
0.0
 40
0.5
100
AcDbArc
 50
270.0
 51
360.0
  0
ARC
  5
30C
330
25
100
AcDbEntity
  8
2
100
AcDbCircle
 10
89.24948699999999
 20
26.958736
 30
0.0
 40
0.5
100
AcDbArc
 50
0.0
 51
90.0
  0
LINE
  5
30D
330
25
100
AcDbEntity
  8
2
100
AcDbLine
 10
89.749487
 20
26.958736
 30
0.0
 11
89.749487
 21
25.958736
 31
0.0
  0
LINE
  5
30E
330
25
100
AcDbEntity
  8
2
100
AcDbLine
 10
76.76790799999998
 20
25.458736
 30
0.0
 11
32.66790800000001
 21
25.458736
 31
0.0
  0
LINE
  5
30F
330
25
100
AcDbEntity
  8
2
100
AcDbLine
 10
56.667908
 20
42.774081
 30
0.0
 11
56.667908
 21
45.233081
 31
0.0
  0
LINE
  5
310
330
25
100
AcDbEntity
  8
2
100
AcDbLine
 10
56.667908
 20
45.233081
 30
0.0
 11
57.20890799999999
 21
45.774081
 31
0.0
  0
LINE
  5
311
330
25
100
AcDbEntity
  8
2
100
AcDbLine
 10
57.20890799999999
 20
45.774081
 30
0.0
 11
60.68683599999999
 21
45.774081
 31
0.0
  0
LINE
  5
312
330
25
100
AcDbEntity
  8
2
100
AcDbLine
 10
57.20890799999999
 20
45.774081
 30
0.0
 11
57.20890799999999
 21
42.774081
 31
0.0
  0
LINE
  5
313
330
25
100
AcDbEntity
  8
2
100
AcDbLine
 10
56.667908
 20
42.774081
 30
0.0
 11
56.667908
 21
40.31508099999999
 31
0.0
  0
LINE
  5
314
330
25
100
AcDbEntity
  8
2
100
AcDbLine
 10
56.667908
 20
40.31508099999999
 30
0.0
 11
57.20890799999999
 21
39.774081
 31
0.0
  0
LINE
  5
315
330
25
100
AcDbEntity
  8
2
100
AcDbLine
 10
57.20890799999999
 20
39.774081
 30
0.0
 11
60.68683599999999
 21
39.774081
 31
0.0
  0
LINE
  5
316
330
25
100
AcDbEntity
  8
2
100
AcDbLine
 10
57.20890799999999
 20
39.774081
 30
0.0
 11
57.20890799999999
 21
42.774081
 31
0.0
  0
POINT
  5
317
330
25
100
AcDbEntity
  8
2
100
AcDbPoint
 10
65.66790799999999
 20
42.774081
 30
0.0
  0
LINE
  5
318
330
25
100
AcDbEntity
  8
2
100
AcDbLine
 10
65.66790799999999
 20
42.774081
 30
0.0
 11
65.66790799999999
 21
37.77408100000001
 31
0.0
  0
LINE
  5
319
330
25
100
AcDbEntity
  8
2
100
AcDbLine
 10
65.66790799999999
 20
37.77408100000001
 30
0.0
 11
61.158655
 21
37.77408100000001
 31
0.0
  0
LINE
  5
31A
330
25
100
AcDbEntity
  8
2
100
AcDbLine
 10
60.66790799999999
 20
40.274081
 30
0.0
 11
60.66790799999999
 21
42.774081
 31
0.0
  0
LINE
  5
31B
330
25
100
AcDbEntity
  8
2
100
AcDbLine
 10
65.66790799999999
 20
42.774081
 30
0.0
 11
61.158655
 21
42.774081
 31
0.0
  0
ARC
  5
31C
330
25
100
AcDbEntity
  8
2
100
AcDbCircle
 10
67.281115
 20
40.274081
 30
0.0
 40
6.613208
100
AcDbArc
 50
157.788205
 51
202.211795
  0
LINE
  5
31D
330
25
100
AcDbEntity
  8
2
100
AcDbLine
 10
65.66790799999999
 20
42.774081
 30
0.0
 11
65.66790799999999
 21
47.774081
 31
0.0
  0
LINE
  5
31E
330
25
100
AcDbEntity
  8
2
100
AcDbLine
 10
65.66790799999999
 20
47.774081
 30
0.0
 11
61.158655
 21
47.774081
 31
0.0
  0
LINE
  5
31F
330
25
100
AcDbEntity
  8
2
100
AcDbLine
 10
60.66790799999999
 20
45.274081
 30
0.0
 11
60.66790799999999
 21
42.774081
 31
0.0
  0
LINE
  5
320
330
25
100
AcDbEntity
  8
2
100
AcDbLine
 10
65.66790799999999
 20
42.774081
 30
0.0
 11
61.158655
 21
42.774081
 31
0.0
  0
ARC
  5
321
330
25
100
AcDbEntity
  8
2
100
AcDbCircle
 10
67.281115
 20
45.274081
 30
0.0
 40
6.613208
100
AcDbArc
 50
157.788205
 51
202.211795
  0
LINE
  5
322
330
25
100
AcDbEntity
  8
2
 62
     2
100
AcDbLine
 10
56.667908
 20
40.31508099999999
 30
0.0
 11
60.66790799999999
 21
40.31508099999999
 31
0.0
  0
LINE
  5
323
330
25
100
AcDbEntity
  8
2
 62
     2
100
AcDbLine
 10
56.667908
 20
45.233081
 30
0.0
 11
60.66790799999999
 21
45.233081
 31
0.0
  0
POINT
  5
324
330
25
100
AcDbEntity
  8
2
100
AcDbPoint
 10
107.416645
 20
27.458736
 30
0.0
  0
LINE
  5
325
330
25
100
AcDbEntity
  8
2
  6
CENTER
 62
     2
100
AcDbLine
 10
107.416645
 20
-0.5998600000000001
 30
0.0
 11
107.416645
 21
36.550449
 31
0.0
  0
LINE
  5
326
330
25
100
AcDbEntity
  8
2
100
AcDbLine
 10
107.416645
 20
27.458736
 30
0.0
 11
100.916645
 21
27.458736
 31
0.0
  0
LINE
  5
327
330
25
100
AcDbEntity
  8
2
100
AcDbLine
 10
100.916645
 20
27.458736
 30
0.0
 11
100.916645
 21
32.237048
 31
0.0
  0
LINE
  5
328
330
25
100
AcDbEntity
  8
2
100
AcDbLine
 10
104.166645
 20
32.958736
 30
0.0
 11
107.416645
 21
32.958736
 31
0.0
  0
LINE
  5
329
330
25
100
AcDbEntity
  8
2
100
AcDbLine
 10
107.416645
 20
27.458736
 30
0.0
 11
107.416645
 21
32.237048
 31
0.0
  0
ARC
  5
32A
330
25
100
AcDbEntity
  8
2
100
AcDbCircle
 10
104.166645
 20
25.279977
 30
0.0
 40
7.678758999999997
100
AcDbArc
 50
64.96034
 51
115.03966
  0
LINE
  5
32B
330
25
100
AcDbEntity
  8
2
100
AcDbLine
 10
107.416645
 20
2.458736
 30
0.0
 11
104.093145
 21
2.458736
 31
0.0
  0
LINE
  5
32C
330
25
100
AcDbEntity
  8
2
100
AcDbLine
 10
104.093145
 20
2.458736
 30
0.0
 11
103.416645
 21
3.135235999999999
 31
0.0
  0
LINE
  5
32D
330
25
100
AcDbEntity
  8
2
100
AcDbLine
 10
103.416645
 20
3.135235999999999
 30
0.0
 11
103.416645
 21
4.995449999999999
 31
0.0
  0
LINE
  5
32E
330
25
100
AcDbEntity
  8
2
100
AcDbLine
 10
103.416645
 20
3.135235999999999
 30
0.0
 11
107.416645
 21
3.135235999999999
 31
0.0
  0
LINE
  5
32F
330
25
100
AcDbEntity
  8
2
 62
     2
100
AcDbLine
 10
104.093145
 20
2.458736
 30
0.0
 11
104.093145
 21
4.959087
 31
0.0
  0
LINE
  5
330
330
25
100
AcDbEntity
  8
2
100
AcDbLine
 10
107.416645
 20
27.458736
 30
0.0
 11
113.916645
 21
27.458736
 31
0.0
  0
LINE
  5
331
330
25
100
AcDbEntity
  8
2
100
AcDbLine
 10
113.916645
 20
27.458736
 30
0.0
 11
113.916645
 21
32.237048
 31
0.0
  0
LINE
  5
332
330
25
100
AcDbEntity
  8
2
100
AcDbLine
 10
110.666645
 20
32.958736
 30
0.0
 11
107.416645
 21
32.958736
 31
0.0
  0
LINE
  5
333
330
25
100
AcDbEntity
  8
2
100
AcDbLine
 10
107.416645
 20
27.458736
 30
0.0
 11
107.416645
 21
32.237048
 31
0.0
  0
ARC
  5
334
330
25
100
AcDbEntity
  8
2
100
AcDbCircle
 10
110.666645
 20
25.279977
 30
0.0
 40
7.678758999999997
100
AcDbArc
 50
64.96034
 51
115.03966
  0
LINE
  5
335
330
25
100
AcDbEntity
  8
2
100
AcDbLine
 10
107.416645
 20
2.458736
 30
0.0
 11
110.740145
 21
2.458736
 31
0.0
  0
LINE
  5
336
330
25
100
AcDbEntity
  8
2
100
AcDbLine
 10
110.740145
 20
2.458736
 30
0.0
 11
111.416645
 21
3.135235999999999
 31
0.0
  0
LINE
  5
337
330
25
100
AcDbEntity
  8
2
100
AcDbLine
 10
111.416645
 20
3.135235999999999
 30
0.0
 11
111.416645
 21
4.995449999999999
 31
0.0
  0
LINE
  5
338
330
25
100
AcDbEntity
  8
2
100
AcDbLine
 10
111.416645
 20
3.135235999999999
 30
0.0
 11
107.416645
 21
3.135235999999999
 31
0.0
  0
LINE
  5
339
330
25
100
AcDbEntity
  8
2
 62
     2
100
AcDbLine
 10
110.740145
 20
2.458736
 30
0.0
 11
110.740145
 21
4.959087
 31
0.0
  0
POINT
  5
33A
330
25
100
AcDbEntity
  8
2
100
AcDbPoint
 10
107.416645
 20
13.458736
 30
0.0
  0
POINT
  5
33B
330
25
100
AcDbEntity
  8
2
100
AcDbPoint
 10
107.416645
 20
13.458736
 30
0.0
  0
LINE
  5
33C
330
25
100
AcDbEntity
  8
2
100
AcDbLine
 10
107.582503
 20
11.458736
 30
0.0
 11
113.916645
 21
11.458736
 31
0.0
  0
LINE
  5
33D
330
25
100
AcDbEntity
  8
2
100
AcDbLine
 10
113.916645
 20
11.458736
 30
0.0
 11
113.916645
 21
5.680423999999997
 31
0.0
  0
LINE
  5
33E
330
25
100
AcDbEntity
  8
2
100
AcDbLine
 10
110.666645
 20
4.958736
 30
0.0
 11
107.416645
 21
4.958736
 31
0.0
  0
LINE
  5
33F
330
25
100
AcDbEntity
  8
2
100
AcDbLine
 10
107.416645
 20
11.360076
 30
0.0
 11
107.416645
 21
5.680423999999997
 31
0.0
  0
ARC
  5
340
330
25
100
AcDbEntity
  8
2
100
AcDbCircle
 10
110.666645
 20
12.637494
 30
0.0
 40
7.678758999999997
100
AcDbArc
 50
244.96034
 51
295.03966
  0
LINE
  5
341
330
25
100
AcDbEntity
  8
2
100
AcDbLine
 10
104.166645
 20
4.958736
 30
0.0
 11
107.416645
 21
4.958736
 31
0.0
  0
LINE
  5
342
330
25
100
AcDbEntity
  8
2
100
AcDbLine
 10
107.416645
 20
11.458736
 30
0.0
 11
107.416645
 21
5.680423999999997
 31
0.0
  0
ARC
  5
343
330
25
100
AcDbEntity
  8
2
100
AcDbCircle
 10
104.166645
 20
12.637494
 30
0.0
 40
7.678758999999997
100
AcDbArc
 50
252.083667
 51
295.03966
  0
LINE
  5
344
330
25
100
AcDbEntity
  8
2
100
AcDbLine
 10
115.116645
 20
13.458736
 30
0.0
 11
115.116645
 21
11.458736
 31
0.0
  0
LINE
  5
345
330
25
100
AcDbEntity
  8
2
100
AcDbLine
 10
115.116645
 20
11.458736
 30
0.0
 11
107.582503
 21
11.458736
 31
0.0
  0
LINE
  5
346
330
25
100
AcDbEntity
  8
2
100
AcDbLine
 10
99.71664500000001
 20
13.458736
 30
0.0
 11
115.116645
 21
13.458736
 31
0.0
  0
POINT
  5
347
330
25
100
AcDbEntity
  8
2
100
AcDbPoint
 10
57.919171
 20
27.458736
 30
0.0
  0
LINE
  5
348
330
25
100
AcDbEntity
  8
2
  6
CENTER
 62
     2
100
AcDbLine
 10
57.919171
 20
-0.5998600000000001
 30
0.0
 11
57.919171
 21
36.550449
 31
0.0
  0
LINE
  5
349
330
25
100
AcDbEntity
  8
2
100
AcDbLine
 10
57.919171
 20
27.458736
 30
0.0
 11
64.41917099999999
 21
27.458736
 31
0.0
  0
LINE
  5
34A
330
25
100
AcDbEntity
  8
2
100
AcDbLine
 10
64.41917099999999
 20
27.458736
 30
0.0
 11
64.41917099999999
 21
32.237048
 31
0.0
  0
LINE
  5
34B
330
25
100
AcDbEntity
  8
2
100
AcDbLine
 10
61.169171
 20
32.958736
 30
0.0
 11
57.919171
 21
32.958736
 31
0.0
  0
LINE
  5
34C
330
25
100
AcDbEntity
  8
2
100
AcDbLine
 10
57.919171
 20
27.458736
 30
0.0
 11
57.919171
 21
32.237048
 31
0.0
  0
ARC
  5
34D
330
25
100
AcDbEntity
  8
2
100
AcDbCircle
 10
61.169171
 20
25.279977
 30
0.0
 40
7.678758999999997
100
AcDbArc
 50
64.96034
 51
115.03966
  0
LINE
  5
34E
330
25
100
AcDbEntity
  8
2
100
AcDbLine
 10
57.919171
 20
2.458736
 30
0.0
 11
61.24267099999999
 21
2.458736
 31
0.0
  0
LINE
  5
34F
330
25
100
AcDbEntity
  8
2
100
AcDbLine
 10
61.24267099999999
 20
2.458736
 30
0.0
 11
61.919171
 21
3.135235999999999
 31
0.0
  0
LINE
  5
350
330
25
100
AcDbEntity
  8
2
100
AcDbLine
 10
61.919171
 20
3.135235999999999
 30
0.0
 11
61.919171
 21
4.995449999999999
 31
0.0
  0
LINE
  5
351
330
25
100
AcDbEntity
  8
2
100
AcDbLine
 10
61.919171
 20
3.135235999999999
 30
0.0
 11
57.919171
 21
3.135235999999999
 31
0.0
  0
LINE
  5
352
330
25
100
AcDbEntity
  8
2
 62
     2
100
AcDbLine
 10
61.24267099999999
 20
2.458736
 30
0.0
 11
61.24267099999999
 21
4.959087
 31
0.0
  0
LINE
  5
353
330
25
100
AcDbEntity
  8
2
100
AcDbLine
 10
57.919171
 20
27.458736
 30
0.0
 11
51.419171
 21
27.458736
 31
0.0
  0
LINE
  5
354
330
25
100
AcDbEntity
  8
2
100
AcDbLine
 10
51.419171
 20
27.458736
 30
0.0
 11
51.419171
 21
32.237048
 31
0.0
  0
LINE
  5
355
330
25
100
AcDbEntity
  8
2
100
AcDbLine
 10
54.66917099999999
 20
32.958736
 30
0.0
 11
57.919171
 21
32.958736
 31
0.0
  0
LINE
  5
356
330
25
100
AcDbEntity
  8
2
100
AcDbLine
 10
57.919171
 20
27.458736
 30
0.0
 11
57.919171
 21
32.237048
 31
0.0
  0
ARC
  5
357
330
25
100
AcDbEntity
  8
2
100
AcDbCircle
 10
54.66917099999999
 20
25.279977
 30
0.0
 40
7.678758999999997
100
AcDbArc
 50
64.96034
 51
115.03966
  0
LINE
  5
358
330
25
100
AcDbEntity
  8
2
100
AcDbLine
 10
57.919171
 20
2.458736
 30
0.0
 11
54.595671
 21
2.458736
 31
0.0
  0
LINE
  5
359
330
25
100
AcDbEntity
  8
2
100
AcDbLine
 10
54.595671
 20
2.458736
 30
0.0
 11
53.919171
 21
3.135235999999999
 31
0.0
  0
LINE
  5
35A
330
25
100
AcDbEntity
  8
2
100
AcDbLine
 10
53.919171
 20
3.135235999999999
 30
0.0
 11
53.919171
 21
4.995449999999999
 31
0.0
  0
LINE
  5
35B
330
25
100
AcDbEntity
  8
2
100
AcDbLine
 10
53.919171
 20
3.135235999999999
 30
0.0
 11
57.919171
 21
3.135235999999999
 31
0.0
  0
LINE
  5
35C
330
25
100
AcDbEntity
  8
2
 62
     2
100
AcDbLine
 10
54.595671
 20
2.458736
 30
0.0
 11
54.595671
 21
4.959087
 31
0.0
  0
POINT
  5
35D
330
25
100
AcDbEntity
  8
2
100
AcDbPoint
 10
57.919171
 20
13.458736
 30
0.0
  0
POINT
  5
35E
330
25
100
AcDbEntity
  8
2
100
AcDbPoint
 10
57.919171
 20
13.458736
 30
0.0
  0
LINE
  5
35F
330
25
100
AcDbEntity
  8
2
100
AcDbLine
 10
57.919171
 20
11.458736
 30
0.0
 11
51.419171
 21
11.458736
 31
0.0
  0
LINE
  5
360
330
25
100
AcDbEntity
  8
2
100
AcDbLine
 10
51.419171
 20
11.458736
 30
0.0
 11
51.419171
 21
5.680423999999997
 31
0.0
  0
LINE
  5
361
330
25
100
AcDbEntity
  8
2
100
AcDbLine
 10
54.66917099999999
 20
4.958736
 30
0.0
 11
57.919171
 21
4.958736
 31
0.0
  0
LINE
  5
362
330
25
100
AcDbEntity
  8
2
100
AcDbLine
 10
57.919171
 20
11.458736
 30
0.0
 11
57.919171
 21
5.680423999999997
 31
0.0
  0
ARC
  5
363
330
25
100
AcDbEntity
  8
2
100
AcDbCircle
 10
54.66917099999999
 20
12.637494
 30
0.0
 40
7.678758999999997
100
AcDbArc
 50
244.96034
 51
295.03966
  0
LINE
  5
364
330
25
100
AcDbEntity
  8
2
100
AcDbLine
 10
57.919171
 20
11.458736
 30
0.0
 11
64.41917099999999
 21
11.458736
 31
0.0
  0
LINE
  5
365
330
25
100
AcDbEntity
  8
2
100
AcDbLine
 10
64.41917099999999
 20
11.458736
 30
0.0
 11
64.41917099999999
 21
5.680423999999997
 31
0.0
  0
LINE
  5
366
330
25
100
AcDbEntity
  8
2
100
AcDbLine
 10
61.169171
 20
4.958736
 30
0.0
 11
57.919171
 21
4.958736
 31
0.0
  0
LINE
  5
367
330
25
100
AcDbEntity
  8
2
100
AcDbLine
 10
57.919171
 20
11.458736
 30
0.0
 11
57.919171
 21
5.680423999999997
 31
0.0
  0
ARC
  5
368
330
25
100
AcDbEntity
  8
2
100
AcDbCircle
 10
61.169171
 20
12.637494
 30
0.0
 40
7.678758999999997
100
AcDbArc
 50
244.96034
 51
295.03966
  0
LINE
  5
369
330
25
100
AcDbEntity
  8
2
100
AcDbLine
 10
50.219171
 20
13.458736
 30
0.0
 11
50.219171
 21
11.458736
 31
0.0
  0
LINE
  5
36A
330
25
100
AcDbEntity
  8
2
100
AcDbLine
 10
50.219171
 20
11.458736
 30
0.0
 11
65.61917099999999
 21
11.458736
 31
0.0
  0
LINE
  5
36B
330
25
100
AcDbEntity
  8
2
100
AcDbLine
 10
65.61917099999999
 20
11.458736
 30
0.0
 11
65.61917099999999
 21
13.458736
 31
0.0
  0
LINE
  5
36C
330
25
100
AcDbEntity
  8
2
100
AcDbLine
 10
65.61917099999999
 20
13.458736
 30
0.0
 11
50.219171
 21
13.458736
 31
0.0
  0
LINE
  5
36D
330
25
100
AcDbEntity
  8
2
  6
CENTER
 62
     2
100
AcDbLine
 10
-230.841921
 20
116.274834
 30
0.0
 11
-230.841921
 21
239.339766
 31
0.0
  0
LINE
  5
36E
330
25
100
AcDbEntity
  8
2
  6
CENTER
 62
     2
100
AcDbLine
 10
-317.122162
 20
172.24296
 30
0.0
 11
-27.978498
 21
172.24296
 31
0.0
  0
ARC
  5
36F
330
25
100
AcDbEntity
  8
2
100
AcDbCircle
 10
-265.841921
 20
172.24296
 30
0.0
 40
2.0
100
AcDbArc
 50
111.803748
 51
248.196252
  0
LINE
  5
370
330
25
100
AcDbEntity
  8
2
100
AcDbLine
 10
-266.584778
 20
174.099883
 30
0.0
 11
-236.413349
 21
186.169883
 31
0.0
  0
LINE
  5
371
330
25
100
AcDbEntity
  8
2
100
AcDbLine
 10
-266.584778
 20
170.386037
 30
0.0
 11
-238.099064
 21
158.990403
 31
0.0
  0
LINE
  5
372
330
25
100
AcDbEntity
  8
2
100
AcDbLine
 10
-235.841921
 20
155.24296
 30
0.0
 11
-225.841921
 21
155.24296
 31
0.0
  0
ARC
  5
373
330
25
100
AcDbEntity
  8
2
100
AcDbCircle
 10
-230.841921
 20
172.24296
 30
0.0
 40
15.0
100
AcDbArc
 50
298.072487
 51
241.927513
  0
LINE
  5
374
330
25
100
AcDbEntity
  8
2
100
AcDbLine
 10
-236.841921
 20
156.24296
 30
0.0
 11
-236.841921
 21
159.593849
 31
0.0
  0
LINE
  5
375
330
25
100
AcDbEntity
  8
2
100
AcDbLine
 10
-224.841921
 20
156.24296
 30
0.0
 11
-224.841921
 21
159.593849
 31
0.0
  0
ARC
  5
376
330
25
100
AcDbEntity
  8
2
100
AcDbCircle
 10
-235.841921
 20
156.24296
 30
0.0
 40
1.0
100
AcDbArc
 50
180.0
 51
270.0
  0
ARC
  5
377
330
25
100
AcDbEntity
  8
2
100
AcDbCircle
 10
-238.841921
 20
157.133479
 30
0.0
 40
2.0
100
AcDbArc
 50
0.0
 51
68.196252
  0
ARC
  5
378
330
25
100
AcDbEntity
  8
2
100
AcDbCircle
 10
-222.841921
 20
157.24296
 30
0.0
 40
2.0
100
AcDbArc
 50
118.072487
 51
180.0
  0
ARC
  5
379
330
25
100
AcDbEntity
  8
2
100
AcDbCircle
 10
-238.841921
 20
157.24296
 30
0.0
 40
2.0
100
AcDbArc
 50
0.0
 51
61.92751300000002
  0
LINE
  5
37A
330
25
100
AcDbEntity
  8
2
100
AcDbLine
 10
-230.447184
 20
187.237765
 30
0.0
 11
-40.578763
 21
182.239497
 31
0.0
  0
ARC
  5
37B
330
25
100
AcDbEntity
  8
2
100
AcDbCircle
 10
-136.3419209999999
 20
158.74296
 30
0.0
 40
0.5
100
AcDbArc
 50
270.0
 51
360.0
  0
ARC
  5
37C
330
25
100
AcDbEntity
  8
2
100
AcDbCircle
 10
-145.341921
 20
158.74296
 30
0.0
 40
0.5
100
AcDbArc
 50
167.306936
 51
270.0
  0
LINE
  5
37D
330
25
100
AcDbEntity
  8
2
100
AcDbLine
 10
-145.341921
 20
158.24296
 30
0.0
 11
-136.3419209999999
 21
158.24296
 31
0.0
  0
LINE
  5
37E
330
25
100
AcDbEntity
  8
2
100
AcDbLine
 10
-135.841921
 20
158.74296
 30
0.0
 11
-135.841921
 21
159.251619
 31
0.0
  0
ARC
  5
37F
330
25
100
AcDbEntity
  8
2
100
AcDbCircle
 10
-40.841921
 20
172.24296
 30
0.0
 40
10.0
100
AcDbArc
 50
271.507958
 51
88.492042
  0
ARC
  5
380
330
25
100
AcDbEntity
  8
2
100
AcDbCircle
 10
-146.317482
 20
158.962688
 30
0.0
 40
0.5
100
AcDbArc
 50
347.306936
 51
91.507958
  0
ARC
  5
381
330
25
100
AcDbEntity
  8
2
100
AcDbCircle
 10
-135.341921
 20
159.251619
 30
0.0
 40
0.5
100
AcDbArc
 50
91.507958
 51
180.0
  0
LINE
  5
382
330
25
100
AcDbEntity
  8
2
100
AcDbLine
 10
-223.002671
 20
157.444131
 30
0.0
 11
-40.578763
 21
162.246423
 31
0.0
  0
ARC
  5
383
330
25
100
AcDbEntity
  8
2
100
AcDbCircle
 10
-135.341921
 20
185.234301
 30
0.0
 40
0.5
100
AcDbArc
 50
180.0
 51
268.492042
  0
ARC
  5
384
330
25
100
AcDbEntity
  8
2
100
AcDbCircle
 10
-146.317482
 20
185.523232
 30
0.0
 40
0.5
100
AcDbArc
 50
268.492042
 51
12.693064
  0
LINE
  5
385
330
25
100
AcDbEntity
  8
2
100
AcDbLine
 10
-135.841921
 20
185.74296
 30
0.0
 11
-135.841921
 21
185.234301
 31
0.0
  0
LINE
  5
386
330
25
100
AcDbEntity
  8
2
100
AcDbLine
 10
-145.341921
 20
186.24296
 30
0.0
 11
-136.3419209999999
 21
186.24296
 31
0.0
  0
ARC
  5
387
330
25
100
AcDbEntity
  8
2
100
AcDbCircle
 10
-145.341921
 20
185.74296
 30
0.0
 40
0.5
100
AcDbArc
 50
90.0
 51
192.693064
  0
ARC
  5
388
330
25
100
AcDbEntity
  8
2
100
AcDbCircle
 10
-136.3419209999999
 20
185.74296
 30
0.0
 40
0.5
100
AcDbArc
 50
0.0
 51
90.0
  0
ARC
  5
389
330
25
100
AcDbEntity
  8
2
100
AcDbCircle
 10
-222.950039
 20
155.444824
 30
0.0
 40
2.0
100
AcDbArc
 50
91.507958
 51
164.570915
  0
ARC
  5
38A
330
25
100
AcDbEntity
  8
2
100
AcDbCircle
 10
-225.841921
 20
156.24296
 30
0.0
 40
1.0
100
AcDbArc
 50
270.0
 51
360.0
  0
LINE
  5
38B
330
25
100
AcDbEntity
  8
2
  6
CENTER
 62
     2
100
AcDbLine
 10
-140.841921
 20
189.834987
 30
0.0
 11
-140.841921
 21
154.511774
 31
0.0
  0
LINE
  5
38C
330
25
100
AcDbEntity
  8
2
100
AcDbLine
 10
-228.344864
 20
177.876671
 30
0.0
 11
-224.655577
 21
177.876671
 31
0.0
  0
LINE
  5
38D
330
25
100
AcDbEntity
  8
2
100
AcDbLine
 10
-224.60879
 20
177.678477
 30
0.0
 11
-228.227896
 21
175.868924
 31
0.0
  0
CIRCLE
  5
38E
330
25
100
AcDbEntity
  8
2
100
AcDbCircle
 10
-230.841921
 20
172.24296
 30
0.0
 40
14.0
  0
LINE
  5
38F
330
25
100
AcDbEntity
  8
2
100
AcDbLine
 10
-228.95049
 20
175.481472
 30
0.0
 11
-232.569597
 21
173.671919
 31
0.0
  0
LINE
  5
390
330
25
100
AcDbEntity
  8
2
100
AcDbLine
 10
-232.948113
 20
173.905855
 30
0.0
 11
-232.948113
 21
175.418118
 31
0.0
  0
LINE
  5
391
330
25
100
AcDbEntity
  8
2
100
AcDbLine
 10
-233.29219
 20
175.481472
 30
0.0
 11
-236.992523
 21
173.631306
 31
0.0
  0
LINE
  5
392
330
25
100
AcDbEntity
  8
2
100
AcDbLine
 10
-237.289813
 20
171.70885
 30
0.0
 11
-237.289813
 21
177.615123
 31
0.0
  0
LINE
  5
393
330
25
100
AcDbEntity
  8
2
100
AcDbLine
 10
-233.29219
 20
173.284467
 30
0.0
 11
-236.911297
 21
171.474914
 31
0.0
  0
LINE
  5
394
330
25
100
AcDbEntity
  8
2
100
AcDbLine
 10
-236.957432
 20
173.482661
 30
0.0
 11
-233.338977
 21
173.482661
 31
0.0
  0
ARC
  5
395
330
25
100
AcDbEntity
  8
2
100
AcDbCircle
 10
-237.028265
 20
171.70885
 30
0.0
 40
0.261548
100
AcDbArc
 50
180.0
 51
296.565051
  0
ARC
  5
396
330
25
100
AcDbEntity
  8
2
100
AcDbCircle
 10
-236.957432
 20
173.561125
 30
0.0
 40
0.078464
100
AcDbArc
 50
116.565051
 51
270.0
  0
LINE
  5
397
330
25
100
AcDbEntity
  8
2
100
AcDbLine
 10
-232.791184
 20
165.139273
 30
0.0
 11
-229.057774
 21
165.139273
 31
0.0
  0
LINE
  5
398
330
25
100
AcDbEntity
  8
2
100
AcDbLine
 10
-232.791184
 20
173.482661
 30
0.0
 11
-229.057774
 21
173.482661
 31
0.0
  0
LINE
  5
399
330
25
100
AcDbEntity
  8
2
100
AcDbLine
 10
-232.948113
 20
173.325732
 30
0.0
 11
-232.948113
 21
165.296202
 31
0.0
  0
ARC
  5
39A
330
25
100
AcDbEntity
  8
2
100
AcDbCircle
 10
-232.791184
 20
165.296202
 30
0.0
 40
0.156929
100
AcDbArc
 50
180.0
 51
270.0
  0
ARC
  5
39B
330
25
100
AcDbEntity
  8
2
100
AcDbCircle
 10
-232.686564
 20
173.905855
 30
0.0
 40
0.261548
100
AcDbArc
 50
180.0
 51
296.565051
  0
ARC
  5
39C
330
25
100
AcDbEntity
  8
2
100
AcDbCircle
 10
-232.791184
 20
173.325732
 30
0.0
 40
0.156929
100
AcDbArc
 50
90.0
 51
180.0
  0
ARC
  5
39D
330
25
100
AcDbEntity
  8
2
100
AcDbCircle
 10
-233.338977
 20
173.378042
 30
0.0
 40
0.104619
100
AcDbArc
 50
296.565051
 51
90.0
  0
LINE
  5
39E
330
25
100
AcDbEntity
  8
2
100
AcDbLine
 10
-228.900845
 20
165.296202
 30
0.0
 11
-228.900845
 21
173.325732
 31
0.0
  0
ARC
  5
39F
330
25
100
AcDbEntity
  8
2
100
AcDbCircle
 10
-229.057774
 20
165.296202
 30
0.0
 40
0.156929
100
AcDbArc
 50
270.0
 51
360.0
  0
ARC
  5
3A0
330
25
100
AcDbEntity
  8
2
100
AcDbCircle
 10
-229.057774
 20
173.325732
 30
0.0
 40
0.156929
100
AcDbArc
 50
0.0
 51
90.0
  0
LINE
  5
3A1
330
25
100
AcDbEntity
  8
2
100
AcDbLine
 10
-237.028265
 20
177.876671
 30
0.0
 11
-233.338977
 21
177.876671
 31
0.0
  0
LINE
  5
3A2
330
25
100
AcDbEntity
  8
2
100
AcDbLine
 10
-236.957432
 20
175.679666
 30
0.0
 11
-233.338977
 21
175.679666
 31
0.0
  0
LINE
  5
3A3
330
25
100
AcDbEntity
  8
2
100
AcDbLine
 10
-233.29219
 20
177.678477
 30
0.0
 11
-236.992523
 21
175.828311
 31
0.0
  0
ARC
  5
3A4
330
25
100
AcDbEntity
  8
2
100
AcDbCircle
 10
-237.028265
 20
177.615123
 30
0.0
 40
0.261548
100
AcDbArc
 50
90.0
 51
180.0
  0
ARC
  5
3A5
330
25
100
AcDbEntity
  8
2
100
AcDbCircle
 10
-236.957432
 20
175.75813
 30
0.0
 40
0.078464
100
AcDbArc
 50
116.565051
 51
270.0
  0
LINE
  5
3A6
330
25
100
AcDbEntity
  8
2
100
AcDbLine
 10
-232.686564
 20
177.876671
 30
0.0
 11
-228.997277
 21
177.876671
 31
0.0
  0
LINE
  5
3A7
330
25
100
AcDbEntity
  8
2
100
AcDbLine
 10
-232.686564
 20
175.679666
 30
0.0
 11
-228.997277
 21
175.679666
 31
0.0
  0
LINE
  5
3A8
330
25
100
AcDbEntity
  8
2
100
AcDbLine
 10
-228.95049
 20
177.678477
 30
0.0
 11
-232.569597
 21
175.868924
 31
0.0
  0
ARC
  5
3A9
330
25
100
AcDbEntity
  8
2
100
AcDbCircle
 10
-232.686564
 20
177.615123
 30
0.0
 40
0.261548
100
AcDbArc
 50
90.0
 51
180.0
  0
ARC
  5
3AA
330
25
100
AcDbEntity
  8
2
100
AcDbCircle
 10
-233.338977
 20
177.772052
 30
0.0
 40
0.104619
100
AcDbArc
 50
296.565051
 51
90.0
  0
ARC
  5
3AB
330
25
100
AcDbEntity
  8
2
100
AcDbCircle
 10
-232.686564
 20
176.10286
 30
0.0
 40
0.261548
100
AcDbArc
 50
180.0
 51
296.565051
  0
ARC
  5
3AC
330
25
100
AcDbEntity
  8
2
100
AcDbCircle
 10
-232.686564
 20
175.418118
 30
0.0
 40
0.261548
100
AcDbArc
 50
90.0
 51
180.0
  0
ARC
  5
3AD
330
25
100
AcDbEntity
  8
2
100
AcDbCircle
 10
-233.338977
 20
175.575047
 30
0.0
 40
0.104619
100
AcDbArc
 50
296.565051
 51
90.0
  0
LINE
  5
3AE
330
25
100
AcDbEntity
  8
2
100
AcDbLine
 10
-232.948113
 20
176.10286
 30
0.0
 11
-232.948113
 21
177.615123
 31
0.0
  0
ARC
  5
3AF
330
25
100
AcDbEntity
  8
2
100
AcDbCircle
 10
-228.344864
 20
177.615123
 30
0.0
 40
0.261548
100
AcDbArc
 50
90.0
 51
180.0
  0
ARC
  5
3B0
330
25
100
AcDbEntity
  8
2
100
AcDbCircle
 10
-228.997277
 20
177.772052
 30
0.0
 40
0.104619
100
AcDbArc
 50
296.565051
 51
90.0
  0
ARC
  5
3B1
330
25
100
AcDbEntity
  8
2
100
AcDbCircle
 10
-228.344864
 20
176.10286
 30
0.0
 40
0.261548
100
AcDbArc
 50
180.0
 51
296.565051
  0
ARC
  5
3B2
330
25
100
AcDbEntity
  8
2
100
AcDbCircle
 10
-228.997277
 20
175.575047
 30
0.0
 40
0.104619
100
AcDbArc
 50
296.565051
 51
90.0
  0
LINE
  5
3B3
330
25
100
AcDbEntity
  8
2
100
AcDbLine
 10
-228.606412
 20
176.10286
 30
0.0
 11
-228.606412
 21
177.615123
 31
0.0
  0
ARC
  5
3B4
330
25
100
AcDbEntity
  8
2
100
AcDbCircle
 10
-224.655577
 20
177.772052
 30
0.0
 40
0.104619
100
AcDbArc
 50
296.565051
 51
90.0
  0
LINE
  5
3B5
330
25
100
AcDbEntity
  8
2
100
AcDbLine
 10
-231.303861
 20
224.358181
 30
0.0
 11
-234.386067
 21
231.799285
 31
0.0
  0
LINE
  5
3B6
330
25
100
AcDbEntity
  8
2
100
AcDbLine
 10
-230.379981
 20
224.358181
 30
0.0
 11
-227.297775
 21
231.799285
 31
0.0
  0
ARC
  5
3B7
330
25
100
AcDbEntity
  8
2
100
AcDbCircle
 10
-230.841921
 20
224.549523
 30
0.0
 40
0.5
100
AcDbArc
 50
202.5
 51
337.5
  0
ARC
  5
3B8
330
25
100
AcDbEntity
  8
2
100
AcDbCircle
 10
-234.848007
 20
231.607944
 30
0.0
 40
0.5
100
AcDbArc
 50
22.5
 51
93.86059799999999
  0
ARC
  5
3B9
330
25
100
AcDbEntity
  8
2
100
AcDbCircle
 10
-226.835835
 20
231.607944
 30
0.0
 40
0.5
100
AcDbArc
 50
86.139402
 51
157.5
  0
ARC
  5
3BA
330
25
100
AcDbEntity
  8
2
100
AcDbCircle
 10
-216.588075
 20
230.010407
 30
0.0
 40
0.5
100
AcDbArc
 50
76.139402
 51
147.5
  0
ARC
  5
3BB
330
25
100
AcDbEntity
  8
2
100
AcDbCircle
 10
-224.478524
 20
231.401706
 30
0.0
 40
0.5
100
AcDbArc
 50
12.5
 51
83.86059799999998
  0
ARC
  5
3BC
330
25
100
AcDbEntity
  8
2
100
AcDbCircle
 10
-221.758981
 20
223.754869
 30
0.0
 40
0.5
100
AcDbArc
 50
192.5
 51
327.5
  0
LINE
  5
3BD
330
25
100
AcDbEntity
  8
2
100
AcDbLine
 10
-221.337286
 20
223.486219
 30
0.0
 11
-217.009771
 21
230.279056
 31
0.0
  0
LINE
  5
3BE
330
25
100
AcDbEntity
  8
2
100
AcDbLine
 10
-222.247129
 20
223.646649
 30
0.0
 11
-223.990376
 21
231.509925
 31
0.0
  0
ARC
  5
3BF
330
25
100
AcDbEntity
  8
2
100
AcDbCircle
 10
-206.773411
 20
226.657635
 30
0.0
 40
0.5
100
AcDbArc
 50
66.139402
 51
137.5
  0
ARC
  5
3C0
330
25
100
AcDbEntity
  8
2
100
AcDbCircle
 10
-214.30239
 20
229.397959
 30
0.0
 40
0.5
100
AcDbArc
 50
2.5
 51
73.86059799999998
  0
ARC
  5
3C1
330
25
100
AcDbEntity
  8
2
100
AcDbCircle
 10
-212.952023
 20
221.395051
 30
0.0
 40
0.5
100
AcDbArc
 50
182.5
 51
317.5
  0
LINE
  5
3C2
330
25
100
AcDbEntity
  8
2
100
AcDbLine
 10
-212.583384
 20
221.057256
 30
0.0
 11
-207.14205
 21
226.99543
 31
0.0
  0
LINE
  5
3C3
330
25
100
AcDbEntity
  8
2
100
AcDbLine
 10
-213.451547
 20
221.373242
 30
0.0
 11
-213.802866
 21
229.419769
 31
0.0
  0
ARC
  5
3C4
330
25
100
AcDbEntity
  8
2
100
AcDbCircle
 10
-197.690057
 20
221.651501
 30
0.0
 40
0.5
100
AcDbArc
 50
56.139402
 51
127.5
  0
ARC
  5
3C5
330
25
100
AcDbEntity
  8
2
100
AcDbCircle
 10
-204.628801
 20
225.657587
 30
0.0
 40
0.5
100
AcDbArc
 50
352.5
 51
63.86059799999998
  0
ARC
  5
3C6
330
25
100
AcDbEntity
  8
2
100
AcDbCircle
 10
-204.688639
 20
217.541772
 30
0.0
 40
0.5
100
AcDbArc
 50
172.5
 51
307.5
  0
LINE
  5
3C7
330
25
100
AcDbEntity
  8
2
100
AcDbLine
 10
-204.384259
 20
217.145096
 30
0.0
 11
-197.994438
 21
222.048178
 31
0.0
  0
LINE
  5
3C8
330
25
100
AcDbEntity
  8
2
100
AcDbLine
 10
-205.184362
 20
217.607035
 30
0.0
 11
-204.133079
 21
225.592324
 31
0.0
  0
ARC
  5
3C9
330
25
100
AcDbEntity
  8
2
100
AcDbCircle
 10
-189.6140049999999
 20
215.144114
 30
0.0
 40
0.5
100
AcDbArc
 50
46.139402
 51
117.5
  0
ARC
  5
3CA
330
25
100
AcDbEntity
  8
2
100
AcDbCircle
 10
-195.751685
 20
220.294238
 30
0.0
 40
0.5
100
AcDbArc
 50
342.5
 51
53.86059799999999
  0
ARC
  5
3CB
330
25
100
AcDbEntity
  8
2
100
AcDbCircle
 10
-197.21991
 20
212.312112
 30
0.0
 40
0.5
100
AcDbArc
 50
162.5
 51
297.5
  0
LINE
  5
3CC
330
25
100
AcDbEntity
  8
2
100
AcDbLine
 10
-196.989036
 20
211.868606
 30
0.0
 11
-189.844879
 21
215.587619
 31
0.0
  0
LINE
  5
3CD
330
25
100
AcDbEntity
  8
2
100
AcDbLine
 10
-197.696769
 20
212.462465
 30
0.0
 11
-195.274826
 21
220.143885
 31
0.0
  0
ARC
  5
3CE
330
25
100
AcDbEntity
  8
2
100
AcDbCircle
 10
-182.790643
 20
207.333196
 30
0.0
 40
0.5
100
AcDbArc
 50
36.139402
 51
107.5
  0
ARC
  5
3CF
330
25
100
AcDbEntity
  8
2
100
AcDbCircle
 10
-187.940767
 20
213.470876
 30
0.0
 40
0.5
100
AcDbArc
 50
332.5
 51
43.86059799999999
  0
ARC
  5
3D0
330
25
100
AcDbEntity
  8
2
100
AcDbCircle
 10
-190.7727689999999
 20
205.864971
 30
0.0
 40
0.5
100
AcDbArc
 50
152.5
 51
287.5
  0
LINE
  5
3D1
330
25
100
AcDbEntity
  8
2
100
AcDbLine
 10
-190.622416
 20
205.388112
 30
0.0
 11
-182.9409959999999
 21
207.810055
 31
0.0
  0
LINE
  5
3D2
330
25
100
AcDbEntity
  8
2
100
AcDbLine
 10
-191.216274
 20
206.095845
 30
0.0
 11
-187.497262
 21
213.240001
 31
0.0
  0
ARC
  5
3D3
330
25
100
AcDbEntity
  8
2
100
AcDbCircle
 10
-177.427294
 20
198.45608
 30
0.0
 40
0.5
100
AcDbArc
 50
26.139402
 51
97.5
  0
ARC
  5
3D4
330
25
100
AcDbEntity
  8
2
100
AcDbCircle
 10
-181.43338
 20
205.394824
 30
0.0
 40
0.5
100
AcDbArc
 50
322.5
 51
33.860598
  0
ARC
  5
3D5
330
25
100
AcDbEntity
  8
2
100
AcDbCircle
 10
-185.543108
 20
198.396241
 30
0.0
 40
0.5
100
AcDbArc
 50
142.5
 51
277.5
  0
LINE
  5
3D6
330
25
100
AcDbEntity
  8
2
100
AcDbLine
 10
-185.477845
 20
197.900519
 30
0.0
 11
-177.492557
 21
198.951802
 31
0.0
  0
LINE
  5
3D7
330
25
100
AcDbEntity
  8
2
100
AcDbLine
 10
-185.939785
 20
198.700622
 30
0.0
 11
-181.036703
 21
205.090443
 31
0.0
  0
ARC
  5
3D8
330
25
100
AcDbEntity
  8
2
100
AcDbCircle
 10
-173.686922
 20
188.782491
 30
0.0
 40
0.5
100
AcDbArc
 50
16.139402
 51
87.5
  0
ARC
  5
3D9
330
25
100
AcDbEntity
  8
2
100
AcDbCircle
 10
-176.427246
 20
196.311469
 30
0.0
 40
0.5
100
AcDbArc
 50
312.5
 51
23.860598
  0
ARC
  5
3DA
330
25
100
AcDbEntity
  8
2
100
AcDbCircle
 10
-181.68983
 20
190.132858
 30
0.0
 40
0.5
100
AcDbArc
 50
132.5
 51
267.5
  0
LINE
  5
3DB
330
25
100
AcDbEntity
  8
2
100
AcDbLine
 10
-181.711639
 20
189.633334
 30
0.0
 11
-173.665112
 21
189.282015
 31
0.0
  0
LINE
  5
3DC
330
25
100
AcDbEntity
  8
2
100
AcDbLine
 10
-182.027625
 20
190.501497
 30
0.0
 11
-176.089451
 21
195.942831
 31
0.0
  0
ARC
  5
3DD
330
25
100
AcDbEntity
  8
2
100
AcDbCircle
 10
-173.074474
 20
186.496806
 30
0.0
 40
0.5
100
AcDbArc
 50
302.5
 51
13.860598
  0
LINE
  5
3DE
330
25
100
AcDbEntity
  8
2
100
AcDbLine
 10
-173.34057
 20
185.7344389999999
 30
0.0
 11
-172.805824
 21
186.07511
 31
0.0
  0
ARC
  5
3DF
330
25
100
AcDbEntity
  8
2
100
AcDbCircle
 10
-230.841921
 20
172.24296
 30
0.0
 40
50.0
100
AcDbArc
 50
127.979872
 51
322.020128
  0
LINE
  5
3E0
330
25
100
AcDbEntity
  8
2
100
AcDbLine
 10
-179.607167
 20
147.24296
 30
0.0
 11
-165.841921
 21
147.24296
 31
0.0
  0
LINE
  5
3E1
330
25
100
AcDbEntity
  8
2
100
AcDbLine
 10
-155.841921
 20
157.24296
 30
0.0
 11
-155.841921
 21
159.212131
 31
0.0
  0
ARC
  5
3E2
330
25
100
AcDbEntity
  8
2
100
AcDbCircle
 10
-165.841921
 20
157.24296
 30
0.0
 40
10.0
100
AcDbArc
 50
270.0
 51
360.0
  0
ARC
  5
3E3
330
25
100
AcDbEntity
  8
2
100
AcDbCircle
 10
-245.841921
 20
237.24296
 30
0.0
 40
10.0
100
AcDbArc
 50
90.0
 51
180.0
  0
ARC
  5
3E4
330
25
100
AcDbEntity
  8
2
100
AcDbCircle
 10
-236.841921
 20
232.947161
 30
0.0
 40
1.0
100
AcDbArc
 50
180.0
 51
275.644778
  0
ARC
  5
3E5
330
25
100
AcDbEntity
  8
2
100
AcDbCircle
 10
-238.841921
 20
246.24296
 30
0.0
 40
1.0
100
AcDbArc
 50
0.0
 51
90.0
  0
LINE
  5
3E6
330
25
100
AcDbEntity
  8
2
100
AcDbLine
 10
-237.841921
 20
246.24296
 30
0.0
 11
-237.841921
 21
232.947161
 31
0.0
  0
LINE
  5
3E7
330
25
100
AcDbEntity
  8
2
100
AcDbLine
 10
-245.841921
 20
247.24296
 30
0.0
 11
-238.841921
 21
247.24296
 31
0.0
  0
LINE
  5
3E8
330
25
100
AcDbEntity
  8
2
100
AcDbLine
 10
-255.841921
 20
223.477714
 30
0.0
 11
-255.841921
 21
237.24296
 31
0.0
  0
ARC
  5
3E9
330
25
100
AcDbEntity
  8
2
100
AcDbCircle
 10
-179.607167
 20
132.24296
 30
0.0
 40
15.0
100
AcDbArc
 50
90.0
 51
142.020128
  0
ARC
  5
3EA
330
25
100
AcDbEntity
  8
2
100
AcDbCircle
 10
-270.841921
 20
223.477714
 30
0.0
 40
15.0
100
AcDbArc
 50
307.979872
 51
360.0
  0
ARC
  5
3EB
330
25
100
AcDbEntity
  8
2
100
AcDbCircle
 10
-230.841921
 20
172.24296
 30
0.0
 40
60.0
100
AcDbArc
 50
13.860598
 51
16.139402
  0
ARC
  5
3EC
330
25
100
AcDbEntity
  8
2
100
AcDbCircle
 10
-230.841921
 20
172.24296
 30
0.0
 40
60.0
100
AcDbArc
 50
23.860598
 51
26.139402
  0
ARC
  5
3ED
330
25
100
AcDbEntity
  8
2
100
AcDbCircle
 10
-230.841921
 20
172.24296
 30
0.0
 40
60.0
100
AcDbArc
 50
93.86059799999999
 51
95.644778
  0
ARC
  5
3EE
330
25
100
AcDbEntity
  8
2
100
AcDbCircle
 10
-230.841921
 20
172.24296
 30
0.0
 40
60.0
100
AcDbArc
 50
83.86059799999998
 51
86.139402
  0
ARC
  5
3EF
330
25
100
AcDbEntity
  8
2
100
AcDbCircle
 10
-230.841921
 20
172.24296
 30
0.0
 40
60.0
100
AcDbArc
 50
73.86059799999998
 51
76.139402
  0
ARC
  5
3F0
330
25
100
AcDbEntity
  8
2
100
AcDbCircle
 10
-230.841921
 20
172.24296
 30
0.0
 40
60.0
100
AcDbArc
 50
63.86059799999998
 51
66.139402
  0
ARC
  5
3F1
330
25
100
AcDbEntity
  8
2
100
AcDbCircle
 10
-230.841921
 20
172.24296
 30
0.0
 40
60.0
100
AcDbArc
 50
53.86059799999999
 51
56.139402
  0
ARC
  5
3F2
330
25
100
AcDbEntity
  8
2
100
AcDbCircle
 10
-230.841921
 20
172.24296
 30
0.0
 40
60.0
100
AcDbArc
 50
43.86059799999999
 51
46.139402
  0
ARC
  5
3F3
330
25
100
AcDbEntity
  8
2
100
AcDbCircle
 10
-230.841921
 20
172.24296
 30
0.0
 40
60.0
100
AcDbArc
 50
33.860598
 51
36.139402
  0
LINE
  5
3F4
330
25
100
AcDbEntity
  8
2
100
AcDbLine
 10
-228.7206
 20
192.749057
 30
0.0
 11
-232.256134
 21
196.284591
 31
0.0
  0
LINE
  5
3F5
330
25
100
AcDbEntity
  8
2
100
AcDbLine
 10
-228.7206
 20
199.820124
 30
0.0
 11
-232.256134
 21
196.284591
 31
0.0
  0
LINE
  5
3F6
330
25
100
AcDbEntity
  8
2
100
AcDbLine
 10
-228.367047
 20
199.4665709999999
 30
0.0
 11
-231.549028
 21
196.284591
 31
0.0
  0
LINE
  5
3F7
330
25
100
AcDbEntity
  8
2
100
AcDbLine
 10
-228.367047
 20
193.10261
 30
0.0
 11
-231.549028
 21
196.284591
 31
0.0
  0
LINE
  5
3F8
330
25
100
AcDbEntity
  8
2
100
AcDbLine
 10
-228.367047
 20
193.10261
 30
0.0
 11
-228.7206
 21
192.749057
 31
0.0
  0
LINE
  5
3F9
330
25
100
AcDbEntity
  8
2
100
AcDbLine
 10
-228.367047
 20
199.4665709999999
 30
0.0
 11
-228.7206
 21
199.820124
 31
0.0
  0
LINE
  5
3FA
330
25
100
AcDbEntity
  8
2
100
AcDbLine
 10
-256.247018
 20
162.292718
 30
0.0
 11
-259.497977
 21
165.543677
 31
0.0
  0
LINE
  5
3FB
330
25
100
AcDbEntity
  8
2
100
AcDbLine
 10
-260.412309
 20
158.127427
 30
0.0
 11
-263.663268
 21
161.378386
 31
0.0
  0
LINE
  5
3FC
330
25
100
AcDbEntity
  8
2
100
AcDbLine
 10
-253.320294
 20
153.044705
 30
0.0
 11
-249.014131
 21
155.059831
 31
0.0
  0
LINE
  5
3FD
330
25
100
AcDbEntity
  8
2
100
AcDbLine
 10
-253.673211
 20
151.388328
 30
0.0
 11
-250.051171
 21
153.006866
 31
0.0
  0
LINE
  5
3FE
330
25
100
AcDbEntity
  8
2
100
AcDbLine
 10
-253.320294
 20
153.044705
 30
0.0
 11
-250.297646
 21
156.343346
 31
0.0
  0
LINE
  5
3FF
330
25
100
AcDbEntity
  8
2
100
AcDbLine
 10
-255.216808
 20
152.947464
 30
0.0
 11
-251.313571
 21
157.359271
 31
0.0
  0
ARC
  5
400
330
25
100
AcDbEntity
  8
2
100
AcDbCircle
 10
-250.609604
 20
152.164917
 30
0.0
 40
10.402317
100
AcDbArc
 50
128.830069
 51
141.169931
  0
ARC
  5
401
330
25
100
AcDbEntity
  8
2
100
AcDbCircle
 10
-261.29764
 20
162.852953
 30
0.0
 40
10.402317
100
AcDbArc
 50
308.830069
 51
321.169931
  0
LINE
  5
402
330
25
100
AcDbEntity
  8
2
100
AcDbLine
 10
-260.412309
 20
158.127427
 30
0.0
 11
-256.247018
 21
162.292718
 31
0.0
  0
ARC
  5
403
330
25
100
AcDbEntity
  8
2
100
AcDbCircle
 10
-256.050968
 20
158.925341
 30
0.0
 40
1.724081
100
AcDbArc
 50
51.27054199999999
 51
128.830069
  0
ARC
  5
404
330
25
100
AcDbEntity
  8
2
100
AcDbCircle
 10
-254.537216
 20
157.411589
 30
0.0
 40
1.724081
100
AcDbArc
 50
321.169931
 51
38.729458
  0
ARC
  5
405
330
25
100
AcDbEntity
  8
2
100
AcDbCircle
 10
-262.182256
 20
151.280301
 30
0.0
 40
11.524047
100
AcDbArc
 50
38.729458
 51
51.27054199999999
  0
LINE
  5
406
330
25
100
AcDbEntity
  8
2
100
AcDbLine
 10
-251.313571
 20
157.359271
 30
0.0
 11
-250.297646
 21
156.343346
 31
0.0
  0
ARC
  5
407
330
25
100
AcDbEntity
  8
2
100
AcDbCircle
 10
-257.370028
 20
157.606281
 30
0.0
 40
1.724081
100
AcDbArc
 50
141.169931
 51
218.729458
  0
ARC
  5
408
330
25
100
AcDbEntity
  8
2
100
AcDbCircle
 10
-255.856276
 20
156.092529
 30
0.0
 40
1.724081
100
AcDbArc
 50
231.270542
 51
308.830069
  0
ARC
  5
409
330
25
100
AcDbEntity
  8
2
100
AcDbCircle
 10
-249.724988
 20
163.737569
 30
0.0
 40
11.524047
100
AcDbArc
 50
218.729458
 51
231.270542
  0
LINE
  5
40A
330
25
100
AcDbEntity
  8
2
100
AcDbLine
 10
-255.224577
 20
152.939695
 30
0.0
 11
-253.673211
 21
151.388328
 31
0.0
  0
LINE
  5
40B
330
25
100
AcDbEntity
  8
2
100
AcDbLine
 10
-260.209124
 20
160.768831
 30
0.0
 11
-260.920272
 21
160.057684
 31
0.0
  0
LINE
  5
40C
330
25
100
AcDbEntity
  8
2
100
AcDbLine
 10
-258.177275
 20
162.800681
 30
0.0
 11
-259.497977
 21
161.479979
 31
0.0
  0
LINE
  5
40D
330
25
100
AcDbEntity
  8
2
100
AcDbLine
 10
-258.177275
 20
162.800681
 30
0.0
 11
-260.209124
 21
164.83253
 31
0.0
  0
LINE
  5
40E
330
25
100
AcDbEntity
  8
2
100
AcDbLine
 10
-259.497977
 20
161.479979
 30
0.0
 11
-261.529827
 21
163.511828
 31
0.0
  0
LINE
  5
40F
330
25
100
AcDbEntity
  8
2
100
AcDbLine
 10
-260.209124
 20
160.768831
 30
0.0
 11
-262.240974
 21
162.800681
 31
0.0
  0
LINE
  5
410
330
25
100
AcDbEntity
  8
2
100
AcDbLine
 10
-260.920272
 20
160.057684
 30
0.0
 11
-262.952121
 21
162.089533
 31
0.0
  0
LINE
  5
411
330
25
100
AcDbEntity
  8
2
100
AcDbLine
 10
-238.786801
 20
144.832501
 30
0.0
 11
-240.236959
 21
146.282659
 31
0.0
  0
LINE
  5
412
330
25
100
AcDbEntity
  8
2
100
AcDbLine
 10
-241.872775
 20
141.746527
 30
0.0
 11
-243.322933
 21
143.196685
 31
0.0
  0
ARC
  5
413
330
25
100
AcDbEntity
  8
2
100
AcDbCircle
 10
-241.986963
 20
138.340742
 30
0.0
 40
0.143673
100
AcDbArc
 50
225.0
 51
315.0
  0
LINE
  5
414
330
25
100
AcDbEntity
  8
2
100
AcDbLine
 10
-241.750864
 20
141.746527
 30
0.0
 11
-238.786801
 21
144.71059
 31
0.0
  0
LINE
  5
415
330
25
100
AcDbEntity
  8
2
100
AcDbLine
 10
-246.544608
 20
143.070279
 30
0.0
 11
-239.647372
 21
140.7712
 31
0.0
  0
ARC
  5
416
330
25
100
AcDbEntity
  8
2
100
AcDbCircle
 10
-238.847756
 20
144.771545
 30
0.0
 40
0.086204
100
AcDbArc
 50
315.0
 51
45.0
  0
ARC
  5
417
330
25
100
AcDbEntity
  8
2
100
AcDbCircle
 10
-239.692806
 20
140.6349
 30
0.0
 40
0.143673
100
AcDbArc
 50
315.0
 51
71.565051
  0
ARC
  5
418
330
25
100
AcDbEntity
  8
2
100
AcDbCircle
 10
-241.811819
 20
141.807482
 30
0.0
 40
0.086204
100
AcDbArc
 50
225.0
 51
315.0
  0
LINE
  5
419
330
25
100
AcDbEntity
  8
2
100
AcDbLine
 10
-239.591213
 20
140.533307
 30
0.0
 11
-241.885371
 21
138.23915
 31
0.0
  0
ARC
  5
41A
330
25
100
AcDbEntity
  8
2
100
AcDbCircle
 10
-240.205084
 20
141.760398
 30
0.0
 40
10.402317
100
AcDbArc
 50
128.830069
 51
141.169931
  0
ARC
  5
41B
330
25
100
AcDbEntity
  8
2
100
AcDbCircle
 10
-240.976102
 20
142.531416
 30
0.0
 40
7.674066
100
AcDbArc
 50
124.473609
 51
145.526391
  0
LINE
  5
41C
330
25
100
AcDbEntity
  8
2
100
AcDbLine
 10
-250.110573
 20
147.841229
 30
0.0
 11
-245.698766
 21
151.744466
 31
0.0
  0
ARC
  5
41D
330
25
100
AcDbEntity
  8
2
100
AcDbCircle
 10
-245.646448
 20
148.520821
 30
0.0
 40
1.724081
100
AcDbArc
 50
51.27054199999999
 51
128.830069
  0
LINE
  5
41E
330
25
100
AcDbEntity
  8
2
100
AcDbLine
 10
-246.714691
 20
152.760391
 30
0.0
 11
-245.698766
 21
151.744466
 31
0.0
  0
ARC
  5
41F
330
25
100
AcDbEntity
  8
2
100
AcDbCircle
 10
-246.965508
 20
147.201761
 30
0.0
 40
1.724081
100
AcDbArc
 50
141.169931
 51
218.729458
  0
LINE
  5
420
330
25
100
AcDbEntity
  8
2
100
AcDbLine
 10
-251.669709
 20
149.384827
 30
0.0
 11
-250.118342
 21
147.83346
 31
0.0
  0
ARC
  5
421
330
25
100
AcDbEntity
  8
2
100
AcDbCircle
 10
-250.89312
 20
152.448433
 30
0.0
 40
10.402317
100
AcDbArc
 50
308.830069
 51
321.169931
  0
ARC
  5
422
330
25
100
AcDbEntity
  8
2
100
AcDbCircle
 10
-250.7407
 20
152.421446
 30
0.0
 40
8.638035
100
AcDbArc
 50
305.062783
 51
323.774302
  0
LINE
  5
423
330
25
100
AcDbEntity
  8
2
100
AcDbLine
 10
-240.35887
 20
146.282659
 30
0.0
 11
-243.322933
 21
143.318596
 31
0.0
  0
ARC
  5
424
330
25
100
AcDbEntity
  8
2
100
AcDbCircle
 10
-244.132696
 20
147.007069
 30
0.0
 40
1.724081
100
AcDbArc
 50
321.169931
 51
38.729458
  0
ARC
  5
425
330
25
100
AcDbEntity
  8
2
100
AcDbCircle
 10
-246.399852
 20
146.253665
 30
0.0
 40
3.169315999999998
100
AcDbArc
 50
34.668048
 51
55.331952
  0
ARC
  5
426
330
25
100
AcDbEntity
  8
2
100
AcDbCircle
 10
-244.402457
 20
147.669143
 30
0.0
 40
0.7219260000000001
100
AcDbArc
 50
330.772957
 51
32.444044
  0
ARC
  5
427
330
25
100
AcDbEntity
  8
2
100
AcDbCircle
 10
-240.297914
 20
146.221704
 30
0.0
 40
0.086204
100
AcDbArc
 50
45.0
 51
135.0
  0
ARC
  5
428
330
25
100
AcDbEntity
  8
2
100
AcDbCircle
 10
-245.451756
 20
145.68801
 30
0.0
 40
1.724081
100
AcDbArc
 50
231.270542
 51
308.830069
  0
ARC
  5
429
330
25
100
AcDbEntity
  8
2
100
AcDbCircle
 10
-246.141538
 20
145.868455
 30
0.0
 40
0.6321630000000003
100
AcDbArc
 50
235.331952
 51
305.062783
  0
ARC
  5
42A
330
25
100
AcDbEntity
  8
2
100
AcDbCircle
 10
-244.698352
 20
147.955165
 30
0.0
 40
3.169315999999998
100
AcDbArc
 50
214.668048
 51
235.331952
  0
ARC
  5
42B
330
25
100
AcDbEntity
  8
2
100
AcDbCircle
 10
-243.261977
 20
143.257641
 30
0.0
 40
0.086204
100
AcDbArc
 50
135.0
 51
225.0
  0
ARC
  5
42C
330
25
100
AcDbEntity
  8
2
100
AcDbCircle
 10
-251.777736
 20
140.875781
 30
0.0
 40
11.524047
100
AcDbArc
 50
38.729458
 51
51.27054199999999
  0
ARC
  5
42D
330
25
100
AcDbEntity
  8
2
100
AcDbCircle
 10
-244.956667
 20
148.340376
 30
0.0
 40
0.6321630000000003
100
AcDbArc
 50
55.331952
 51
125.062783
  0
ARC
  5
42E
330
25
100
AcDbEntity
  8
2
100
AcDbCircle
 10
-239.320468
 20
153.33305
 30
0.0
 40
11.524047
100
AcDbArc
 50
218.729458
 51
231.270542
  0
ARC
  5
42F
330
25
100
AcDbEntity
  8
2
100
AcDbCircle
 10
-246.785062
 20
146.51198
 30
0.0
 40
0.6321630000000003
100
AcDbArc
 50
144.937217
 51
214.668048
  0
LINE
  5
430
330
25
100
AcDbEntity
  8
2
100
AcDbLine
 10
-251.669709
 20
149.384827
 30
0.0
 11
-250.051171
 21
153.006866
 31
0.0
  0
LINE
  5
431
330
25
100
AcDbEntity
  8
2
100
AcDbLine
 10
-249.014131
 20
155.059831
 30
0.0
 11
-247.998206
 21
154.043906
 31
0.0
  0
ARC
  5
432
330
25
100
AcDbEntity
  8
2
100
AcDbCircle
 10
-246.58888
 20
142.937463
 30
0.0
 40
0.14
100
AcDbArc
 50
71.565051
 51
225.0
  0
ARC
  5
433
330
25
100
AcDbEntity
  8
2
100
AcDbCircle
 10
-256.572901
 20
156.299818
 30
0.0
 40
0.6321630000000003
100
AcDbArc
 50
235.331952
 51
305.062783
  0
ARC
  5
434
330
25
100
AcDbEntity
  8
2
100
AcDbCircle
 10
-254.744505
 20
158.128214
 30
0.0
 40
0.6321630000000003
100
AcDbArc
 50
324.937217
 51
34.668048
  0
ARC
  5
435
330
25
100
AcDbEntity
  8
2
100
AcDbCircle
 10
-255.129715
 20
158.386529
 30
0.0
 40
3.169315999999998
100
AcDbArc
 50
214.668048
 51
235.331952
  0
ARC
  5
436
330
25
100
AcDbEntity
  8
2
100
AcDbCircle
 10
-257.216426
 20
156.943343
 30
0.0
 40
0.6321630000000003
100
AcDbArc
 50
144.937217
 51
214.668048
  0
ARC
  5
437
330
25
100
AcDbEntity
  8
2
100
AcDbCircle
 10
-255.415738
 20
158.682424
 30
0.0
 40
0.7219260000000001
100
AcDbArc
 50
57.55595600000001
 51
119.227043
  0
ARC
  5
438
330
25
100
AcDbEntity
  8
2
100
AcDbCircle
 10
-256.831215
 20
156.685029
 30
0.0
 40
3.169315999999998
100
AcDbArc
 50
34.668048
 51
55.331952
  0
ARC
  5
439
330
25
100
AcDbEntity
  8
2
100
AcDbCircle
 10
-250.663435
 20
152.34418
 30
0.0
 40
8.638035
100
AcDbArc
 50
126.225698
 51
144.937217
  0
ARC
  5
43A
330
25
100
AcDbEntity
  8
2
100
AcDbCircle
 10
-260.553465
 20
162.108778
 30
0.0
 40
7.674066
100
AcDbArc
 50
304.473609
 51
325.526391
  0
LINE
  5
43B
330
25
100
AcDbEntity
  8
2
100
AcDbLine
 10
-242.088556
 20
138.23915
 30
0.0
 11
-246.687874
 21
142.838468
 31
0.0
  0
LINE
  5
43C
330
25
100
AcDbEntity
  8
2
100
AcDbLine
 10
-250.040176
 20
149.764587
 30
0.0
 11
-248.02505
 21
154.07075
 31
0.0
  0
LINE
  5
43D
330
25
100
AcDbEntity
  8
2
100
AcDbLine
 10
-250.040176
 20
149.764587
 30
0.0
 11
-246.741535
 21
152.787235
 31
0.0
  0
ARC
  5
43E
330
25
100
AcDbEntity
  8
2
100
AcDbCircle
 10
-277.331167
 20
173.24296
 30
0.0
 40
0.5
100
AcDbArc
 50
90.0
 51
178.767738
  0
LINE
  5
43F
330
25
100
AcDbEntity
  8
2
100
AcDbLine
 10
-277.331167
 20
173.74296
 30
0.0
 11
-267.164796
 21
173.74296
 31
0.0
  0
LINE
  5
440
330
25
100
AcDbEntity
  8
2
100
AcDbLine
 10
-277.331167
 20
170.74296
 30
0.0
 11
-267.164796
 21
170.74296
 31
0.0
  0
ARC
  5
441
330
25
100
AcDbEntity
  8
2
100
AcDbCircle
 10
-277.331167
 20
171.24296
 30
0.0
 40
0.5
100
AcDbArc
 50
181.232262
 51
270.0
  0
LINE
  5
442
330
25
100
AcDbEntity
  8
2
100
AcDbLine
 10
-276.548657
 20
163.675916
 30
0.0
 11
-266.70058
 21
165.412398
 31
0.0
  0
ARC
  5
443
330
25
100
AcDbEntity
  8
2
100
AcDbCircle
 10
-276.635481
 20
164.16832
 30
0.0
 40
0.5
100
AcDbArc
 50
100.0
 51
280.0
  0
LINE
  5
444
330
25
100
AcDbEntity
  8
2
100
AcDbLine
 10
-276.722305
 20
164.6607239999999
 30
0.0
 11
-266.874228
 21
166.397205
 31
0.0
  0
LINE
  5
445
330
25
100
AcDbEntity
  8
2
100
AcDbLine
 10
-266.784381
 20
142.736358
 30
0.0
 11
-259.123937
 21
149.164234
 31
0.0
  0
ARC
  5
446
330
25
100
AcDbEntity
  8
2
100
AcDbCircle
 10
-266.462987
 20
142.353336
 30
0.0
 40
0.5
100
AcDbArc
 50
130.0
 51
310.0
  0
LINE
  5
447
330
25
100
AcDbEntity
  8
2
100
AcDbLine
 10
-266.141594
 20
141.970314
 30
0.0
 11
-258.481149
 21
148.39819
 31
0.0
  0
LINE
  5
448
330
25
100
AcDbEntity
  8
2
100
AcDbLine
 10
-271.362102
 20
149.425973
 30
0.0
 11
-262.701848
 21
154.425973
 31
0.0
  0
ARC
  5
449
330
25
100
AcDbEntity
  8
2
100
AcDbCircle
 10
-271.112102
 20
148.99296
 30
0.0
 40
0.5
100
AcDbArc
 50
120.0
 51
300.0
  0
LINE
  5
44A
330
25
100
AcDbEntity
  8
2
100
AcDbLine
 10
-270.862102
 20
148.559947
 30
0.0
 11
-262.201848
 21
153.559947
 31
0.0
  0
LINE
  5
44B
330
25
100
AcDbEntity
  8
2
100
AcDbLine
 10
-274.708638
 20
156.80887
 30
0.0
 11
-265.311711
 21
160.229071
 31
0.0
  0
ARC
  5
44C
330
25
100
AcDbEntity
  8
2
100
AcDbCircle
 10
-274.537628
 20
156.339023
 30
0.0
 40
0.5
100
AcDbArc
 50
110.0
 51
290.0
  0
LINE
  5
44D
330
25
100
AcDbEntity
  8
2
100
AcDbLine
 10
-274.366618
 20
155.869177
 30
0.0
 11
-264.969691
 21
159.289378
 31
0.0
  0
ARC
  5
44E
330
25
100
AcDbEntity
  8
2
100
AcDbCircle
 10
-230.841921
 20
172.24296
 30
0.0
 40
47.0
100
AcDbArc
 50
178.767738
 51
181.232262
  0
LINE
  5
44F
330
25
100
AcDbEntity
  8
2
100
AcDbLine
 10
-247.215704
 20
128.718263
 30
0.0
 11
-243.795502
 21
138.115189
 31
0.0
  0
LINE
  5
450
330
25
100
AcDbEntity
  8
2
100
AcDbLine
 10
-246.276011
 20
128.376243
 30
0.0
 11
-242.85581
 21
137.773169
 31
0.0
  0
LINE
  5
451
330
25
100
AcDbEntity
  8
2
100
AcDbLine
 10
-254.524933
 20
132.222779
 30
0.0
 11
-249.524933
 21
140.883033
 31
0.0
  0
ARC
  5
452
330
25
100
AcDbEntity
  8
2
100
AcDbCircle
 10
-254.091921
 20
131.972779
 30
0.0
 40
0.5
100
AcDbArc
 50
150.0
 51
330.0
  0
LINE
  5
453
330
25
100
AcDbEntity
  8
2
100
AcDbLine
 10
-253.658908
 20
131.722779
 30
0.0
 11
-248.658908
 21
140.383033
 31
0.0
  0
LINE
  5
454
330
25
100
AcDbEntity
  8
2
100
AcDbLine
 10
-261.1145669999999
 20
136.943287
 30
0.0
 11
-254.686691
 21
144.603732
 31
0.0
  0
ARC
  5
455
330
25
100
AcDbEntity
  8
2
100
AcDbCircle
 10
-260.7315450000001
 20
136.621893
 30
0.0
 40
0.5
100
AcDbArc
 50
140.0
 51
320.0
  0
LINE
  5
456
330
25
100
AcDbEntity
  8
2
100
AcDbLine
 10
-260.348522
 20
136.3005
 30
0.0
 11
-253.920646
 21
143.960944
 31
0.0
  0
LINE
  5
457
330
25
100
AcDbEntity
  8
2
100
AcDbLine
 10
-238.424157
 20
126.362575
 30
0.0
 11
-236.687675
 21
136.210653
 31
0.0
  0
LINE
  5
458
330
25
100
AcDbEntity
  8
2
100
AcDbLine
 10
-239.408965
 20
126.536224
 30
0.0
 11
-237.672483
 21
136.384301
 31
0.0
  0
LINE
  5
459
330
25
100
AcDbEntity
  8
2
100
AcDbLine
 10
-232.341921
 20
125.753714
 30
0.0
 11
-232.341921
 21
144.761148
 31
0.0
  0
LINE
  5
45A
330
25
100
AcDbEntity
  8
2
100
AcDbLine
 10
-229.341921
 20
125.753714
 30
0.0
 11
-229.341921
 21
144.761148
 31
0.0
  0
LINE
  5
45B
330
25
100
AcDbEntity
  8
2
100
AcDbLine
 10
-263.663268
 20
161.378386
 30
0.0
 11
-262.952121
 21
162.089533
 31
0.0
  0
LINE
  5
45C
330
25
100
AcDbEntity
  8
2
100
AcDbLine
 10
-262.240974
 20
162.800681
 30
0.0
 11
-261.529827
 21
163.511828
 31
0.0
  0
LINE
  5
45D
330
25
100
AcDbEntity
  8
2
100
AcDbLine
 10
-260.209124
 20
164.83253
 30
0.0
 11
-259.497977
 21
165.543677
 31
0.0
  0
ARC
  5
45E
330
25
100
AcDbEntity
  8
2
100
AcDbCircle
 10
-237.180079
 20
136.297477
 30
0.0
 40
0.5
100
AcDbArc
 50
350.0
 51
170.0
  0
ARC
  5
45F
330
25
100
AcDbEntity
  8
2
100
AcDbCircle
 10
-243.325656
 20
137.944179
 30
0.0
 40
0.5
100
AcDbArc
 50
340.0
 51
160.0
  0
ARC
  5
460
330
25
100
AcDbEntity
  8
2
100
AcDbCircle
 10
-249.091921
 20
140.633033
 30
0.0
 40
0.5
100
AcDbArc
 50
330.0
 51
150.0
  0
ARC
  5
461
330
25
100
AcDbEntity
  8
2
100
AcDbCircle
 10
-254.303669
 20
144.282338
 30
0.0
 40
0.5
100
AcDbArc
 50
320.0
 51
140.0
  0
ARC
  5
462
330
25
100
AcDbEntity
  8
2
100
AcDbCircle
 10
-258.802543
 20
148.781212
 30
0.0
 40
0.5
100
AcDbArc
 50
310.0
 51
130.0
  0
ARC
  5
463
330
25
100
AcDbEntity
  8
2
100
AcDbCircle
 10
-262.451848
 20
153.99296
 30
0.0
 40
0.5
100
AcDbArc
 50
300.0
 51
120.0
  0
ARC
  5
464
330
25
100
AcDbEntity
  8
2
100
AcDbCircle
 10
-265.140701
 20
159.759225
 30
0.0
 40
0.5
100
AcDbArc
 50
290.0
 51
110.0
  0
ARC
  5
465
330
25
100
AcDbEntity
  8
2
100
AcDbCircle
 10
-266.787404
 20
165.904802
 30
0.0
 40
0.5
100
AcDbArc
 50
280.0
 51
100.0
  0
ARC
  5
466
330
25
100
AcDbEntity
  8
2
100
AcDbCircle
 10
-230.841921
 20
172.24296
 30
0.0
 40
47.0
100
AcDbArc
 50
189.999966
 51
190.000034
  0
ARC
  5
467
330
25
100
AcDbEntity
  8
2
100
AcDbCircle
 10
-231.841921
 20
125.753714
 30
0.0
 40
0.5
100
AcDbArc
 50
180.0
 51
268.767738
  0
ARC
  5
468
330
25
100
AcDbEntity
  8
2
100
AcDbCircle
 10
-229.841921
 20
125.753714
 30
0.0
 40
0.5
100
AcDbArc
 50
271.232262
 51
360.0
  0
ARC
  5
469
330
25
100
AcDbEntity
  8
2
100
AcDbCircle
 10
-230.841921
 20
172.24296
 30
0.0
 40
47.0
100
AcDbArc
 50
199.999929
 51
200.000071
  0
ARC
  5
46A
330
25
100
AcDbEntity
  8
2
100
AcDbCircle
 10
-230.841921
 20
172.24296
 30
0.0
 40
47.0
100
AcDbArc
 50
268.767738
 51
271.232262
  0
ARC
  5
46B
330
25
100
AcDbEntity
  8
2
100
AcDbCircle
 10
-230.841921
 20
172.24296
 30
0.0
 40
27.0
100
AcDbArc
 50
267.916058
 51
272.083942
  0
ARC
  5
46C
330
25
100
AcDbEntity
  8
2
100
AcDbCircle
 10
-229.841921
 20
144.761148
 30
0.0
 40
0.5
100
AcDbArc
 50
0.0
 51
92.083942
  0
ARC
  5
46D
330
25
100
AcDbEntity
  8
2
100
AcDbCircle
 10
-231.841921
 20
144.761148
 30
0.0
 40
0.5
100
AcDbArc
 50
87.91605799999997
 51
180.0
  0
ARC
  5
46E
330
25
100
AcDbEntity
  8
2
100
AcDbCircle
 10
-246.745857
 20
128.547253
 30
0.0
 40
0.5
100
AcDbArc
 50
160.0
 51
340.0
  0
ARC
  5
46F
330
25
100
AcDbEntity
  8
2
100
AcDbCircle
 10
-238.916561
 20
126.449399
 30
0.0
 40
0.5
100
AcDbArc
 50
170.0
 51
350.0
  0
LINE
  5
470
330
25
100
AcDbEntity
  8
2
100
AcDbLine
 10
-208.76651
 20
157.818897
 30
0.0
 11
-207.218094
 21
157.293332
 31
0.0
  0
LINE
  5
471
330
25
100
AcDbEntity
  8
2
100
AcDbLine
 10
-207.218094
 20
157.293332
 30
0.0
 11
-207.708749
 21
157.846742
 31
0.0
  0
ARC
  5
472
330
25
100
AcDbEntity
  8
2
  6
CENTER
 62
     2
100
AcDbCircle
 10
-230.841921
 20
172.24296
 30
0.0
 40
35.0
100
AcDbArc
 50
298.585378
 51
330.968199
  0
LINE
  5
473
330
25
100
AcDbEntity
  8
2
  6
CENTER
 62
     2
100
AcDbLine
 10
-198.817232
 20
140.218271
 30
0.0
 11
-213.49308
 21
154.8941199999999
 31
0.0
  0
ARC
  5
474
330
25
100
AcDbEntity
  8
2
  6
CENTER
 62
     2
100
AcDbCircle
 10
-230.841921
 20
172.24296
 30
0.0
 40
35.0
100
AcDbArc
 50
118.005522
 51
150.923658
  0
LINE
  5
475
330
25
100
AcDbEntity
  8
2
  6
CENTER
 62
     2
100
AcDbLine
 10
-247.264304
 20
188.665343
 30
0.0
 11
-263.983904
 21
205.384944
 31
0.0
  0
TEXT
  5
476
330
25
100
AcDbEntity
  8
2
100
AcDbText
 10
-212.292943
 20
140.898579
 30
0.0
 40
10.0
  1
Ｏ
 50
202.4999976762606
 41
0.923076875086908
 72
     5
 11
-219.683979
 21
137.837112
 31
0.0
100
AcDbText
  0
TEXT
  5
477
330
25
100
AcDbEntity
  8
2
100
AcDbText
 10
-265.802071
 20
181.988462
 30
0.0
 40
10.0
  1
Ｓ
 50
67.49999570693886
 41
0.9999999958462566
 72
     5
 11
-262.7406029999999
 21
189.379498
 31
0.0
100
AcDbText
  0
TEXT
  5
478
330
25
100
AcDbEntity
  8
2
100
AcDbText
 10
-251.892215
 20
185.792744
 30
0.0
 40
3.0
  1
Ｊ
 50
54.99999047351323
 41
1.200000196904253
 72
     5
 11
-250.515631
 21
187.758709
 31
0.0
100
AcDbText
  0
TEXT
  5
479
330
25
100
AcDbEntity
  8
2
100
AcDbText
 10
-250.631171
 20
187.575837
 30
0.0
 40
3.0
  1
Ａ
 50
50.00000997822089
 41
0.9230769571433448
 72
     5
 11
-249.088481
 21
189.414344
 31
0.0
100
AcDbText
  0
TEXT
  5
47A
330
25
100
AcDbEntity
  8
2
100
AcDbText
 10
-247.668001
 20
190.779264
 30
0.0
 40
3.0
  1
Ａ
 50
39.99999002177963
 41
0.9230769571433519
 72
     5
 11
-245.829494
 21
192.321954
 31
0.0
100
AcDbText
  0
TEXT
  5
47B
330
25
100
AcDbEntity
  8
2
100
AcDbText
 10
-245.988428
 20
192.175217
 30
0.0
 40
3.0
  1
Ｎ
 50
34.99998997067347
 41
0.9230768539354048
 72
     5
 11
-244.022463
 21
193.5518
 31
0.0
100
AcDbText
  0
TEXT
  5
47C
330
25
100
AcDbEntity
  8
2
100
AcDbText
 10
-249.219518
 20
189.242238
 30
0.0
 40
3.0
  1
Ｐ
 50
45.0
 41
0.9999998380444335
 72
     5
 11
-247.522462
 21
190.939294
 31
0.0
100
AcDbText
  0
TEXT
  5
47D
330
25
100
AcDbEntity
  8
2
100
AcDbText
 10
-218.318374
 20
150.566422
 30
0.0
 40
3.0
  1
Ｄ
 50
207.7858663593596
 41
0.9999998162600354
 72
     5
 11
-220.441644
 21
149.447618
 31
0.0
100
AcDbText
  0
TEXT
  5
47E
330
25
100
AcDbEntity
  8
2
100
AcDbText
 10
-216.476795
 20
151.740406
 30
0.0
 40
3.0
  1
Ｅ
 50
212.7858592989686
 41
1.090909278045903
 72
     5
 11
-218.494476
 21
150.440804
 31
0.0
100
AcDbText
  0
TEXT
  5
47F
330
25
100
AcDbEntity
  8
2
100
AcDbText
 10
-214.744544
 20
153.070428
 30
0.0
 40
3.0
  1
Ｔ
 50
217.7858621875415
 41
0.9230769534700316
 72
     5
 11
-216.641279
 21
151.599919
 31
0.0
100
AcDbText
  0
TEXT
  5
480
330
25
100
AcDbEntity
  8
2
100
AcDbText
 10
-213.134803
 20
154.546364
 30
0.0
 40
3.0
  1
Ｎ
 50
222.7858521323252
 41
0.9230767791259532
 72
     5
 11
-214.896157
 21
152.91614
 31
0.0
100
AcDbText
  0
TEXT
  5
481
330
25
100
AcDbEntity
  8
2
100
AcDbText
 10
-211.659824
 20
156.156982
 30
0.0
 40
3.0
  1
Ｅ
 50
227.7858605481269
 41
1.090909007643269
 72
     5
 11
-213.272392
 21
154.379449
 31
0.0
100
AcDbText
  0
TEXT
  5
482
330
25
100
AcDbEntity
  8
2
100
AcDbText
 10
-210.330832
 20
157.890024
 30
0.0
 40
3.0
  1
Ｔ
 50
232.7858577647382
 41
0.9230771223313931
 72
     5
 11
-211.782342
 21
155.97871
 31
0.0
100
AcDbText
  0
LINE
  5
483
330
25
100
AcDbEntity
  8
2
100
AcDbLine
 10
-230.841921
 20
146.24296
 30
0.0
 11
-233.300921
 21
146.24296
 31
0.0
  0
LINE
  5
484
330
25
100
AcDbEntity
  8
2
100
AcDbLine
 10
-233.300921
 20
146.24296
 30
0.0
 11
-233.841921
 21
146.78396
 31
0.0
  0
LINE
  5
485
330
25
100
AcDbEntity
  8
2
100
AcDbLine
 10
-233.841921
 20
146.78396
 30
0.0
 11
-233.841921
 21
150.261889
 31
0.0
  0
LINE
  5
486
330
25
100
AcDbEntity
  8
2
100
AcDbLine
 10
-233.841921
 20
146.78396
 30
0.0
 11
-230.841921
 21
146.78396
 31
0.0
  0
LINE
  5
487
330
25
100
AcDbEntity
  8
2
100
AcDbLine
 10
-230.841921
 20
146.24296
 30
0.0
 11
-228.382921
 21
146.24296
 31
0.0
  0
LINE
  5
488
330
25
100
AcDbEntity
  8
2
100
AcDbLine
 10
-228.382921
 20
146.24296
 30
0.0
 11
-227.841921
 21
146.78396
 31
0.0
  0
LINE
  5
489
330
25
100
AcDbEntity
  8
2
100
AcDbLine
 10
-227.841921
 20
146.78396
 30
0.0
 11
-227.841921
 21
150.261889
 31
0.0
  0
LINE
  5
48A
330
25
100
AcDbEntity
  8
2
100
AcDbLine
 10
-227.841921
 20
146.78396
 30
0.0
 11
-230.841921
 21
146.78396
 31
0.0
  0
POINT
  5
48B
330
25
100
AcDbEntity
  8
2
100
AcDbPoint
 10
-230.841921
 20
155.24296
 30
0.0
  0
LINE
  5
48C
330
25
100
AcDbEntity
  8
2
100
AcDbLine
 10
-230.841921
 20
155.24296
 30
0.0
 11
-225.091921
 21
155.24296
 31
0.0
  0
LINE
  5
48D
330
25
100
AcDbEntity
  8
2
100
AcDbLine
 10
-225.091921
 20
155.24296
 30
0.0
 11
-225.091921
 21
150.733708
 31
0.0
  0
LINE
  5
48E
330
25
100
AcDbEntity
  8
2
100
AcDbLine
 10
-225.091921
 20
150.733708
 30
0.0
 11
-225.941921
 21
150.24296
 31
0.0
  0
LINE
  5
48F
330
25
100
AcDbEntity
  8
2
100
AcDbLine
 10
-225.941921
 20
150.24296
 30
0.0
 11
-230.841921
 21
150.24296
 31
0.0
  0
LINE
  5
490
330
25
100
AcDbEntity
  8
2
100
AcDbLine
 10
-227.966921
 20
155.24296
 30
0.0
 11
-227.966921
 21
150.733708
 31
0.0
  0
ARC
  5
491
330
25
100
AcDbEntity
  8
2
100
AcDbCircle
 10
-226.529421
 20
152.581663
 30
0.0
 40
2.341226999999999
100
AcDbArc
 50
232.121121
 51
307.878879
  0
ARC
  5
492
330
25
100
AcDbEntity
  8
2
100
AcDbCircle
 10
-230.841921
 20
158.865436
 30
0.0
 40
8.625
100
AcDbArc
 50
270.0
 51
289.471221
  0
LINE
  5
493
330
25
100
AcDbEntity
  8
2
100
AcDbLine
 10
-230.841921
 20
155.24296
 30
0.0
 11
-236.591921
 21
155.24296
 31
0.0
  0
LINE
  5
494
330
25
100
AcDbEntity
  8
2
100
AcDbLine
 10
-236.591921
 20
155.24296
 30
0.0
 11
-236.591921
 21
150.733708
 31
0.0
  0
LINE
  5
495
330
25
100
AcDbEntity
  8
2
100
AcDbLine
 10
-236.591921
 20
150.733708
 30
0.0
 11
-235.741921
 21
150.24296
 31
0.0
  0
LINE
  5
496
330
25
100
AcDbEntity
  8
2
100
AcDbLine
 10
-235.741921
 20
150.24296
 30
0.0
 11
-230.841921
 21
150.24296
 31
0.0
  0
LINE
  5
497
330
25
100
AcDbEntity
  8
2
100
AcDbLine
 10
-233.716921
 20
155.24296
 30
0.0
 11
-233.716921
 21
150.733708
 31
0.0
  0
ARC
  5
498
330
25
100
AcDbEntity
  8
2
100
AcDbCircle
 10
-235.154421
 20
152.581663
 30
0.0
 40
2.341226999999999
100
AcDbArc
 50
232.121121
 51
307.878879
  0
ARC
  5
499
330
25
100
AcDbEntity
  8
2
100
AcDbCircle
 10
-230.841921
 20
158.865436
 30
0.0
 40
8.625
100
AcDbArc
 50
250.528779
 51
270.0
  0
LINE
  5
49A
330
25
100
AcDbEntity
  8
2
 62
     2
100
AcDbLine
 10
-233.300921
 20
146.24296
 30
0.0
 11
-233.300921
 21
150.24296
 31
0.0
  0
LINE
  5
49B
330
25
100
AcDbEntity
  8
2
 62
     2
100
AcDbLine
 10
-228.382921
 20
146.24296
 30
0.0
 11
-228.382921
 21
150.24296
 31
0.0
  0
CIRCLE
  5
49C
330
25
100
AcDbEntity
  8
2
100
AcDbCircle
 10
-206.093183
 20
147.494223
 30
0.0
 40
6.5
  0
LINE
  5
49D
330
25
100
AcDbEntity
  8
2
100
AcDbLine
 10
-202.340407
 20
153.994223
 30
0.0
 11
-209.84596
 21
153.994223
 31
0.0
  0
LINE
  5
49E
330
25
100
AcDbEntity
  8
2
100
AcDbLine
 10
-209.84596
 20
153.994223
 30
0.0
 11
-213.598737
 21
147.494223
 31
0.0
  0
LINE
  5
49F
330
25
100
AcDbEntity
  8
2
100
AcDbLine
 10
-213.598737
 20
147.494223
 30
0.0
 11
-209.84596
 21
140.994223
 31
0.0
  0
LINE
  5
4A0
330
25
100
AcDbEntity
  8
2
100
AcDbLine
 10
-209.84596
 20
140.994223
 30
0.0
 11
-202.340407
 21
140.994223
 31
0.0
  0
LINE
  5
4A1
330
25
100
AcDbEntity
  8
2
100
AcDbLine
 10
-202.340407
 20
140.994223
 30
0.0
 11
-198.58763
 21
147.494223
 31
0.0
  0
LINE
  5
4A2
330
25
100
AcDbEntity
  8
2
100
AcDbLine
 10
-198.58763
 20
147.494223
 30
0.0
 11
-202.340407
 21
153.994223
 31
0.0
  0
LINE
  5
4A3
330
25
100
AcDbEntity
  8
2
100
AcDbLine
 10
-263.096212
 20
196.991697
 30
0.0
 11
-259.343435
 21
190.491697
 31
0.0
  0
LINE
  5
4A4
330
25
100
AcDbEntity
  8
2
100
AcDbLine
 10
-259.343435
 20
203.491697
 30
0.0
 11
-263.096212
 21
196.991697
 31
0.0
  0
LINE
  5
4A5
330
25
100
AcDbEntity
  8
2
100
AcDbLine
 10
-251.837881
 20
203.491697
 30
0.0
 11
-259.343435
 21
203.491697
 31
0.0
  0
LINE
  5
4A6
330
25
100
AcDbEntity
  8
2
100
AcDbLine
 10
-248.085105
 20
196.991697
 30
0.0
 11
-251.837881
 21
203.491697
 31
0.0
  0
LINE
  5
4A7
330
25
100
AcDbEntity
  8
2
100
AcDbLine
 10
-251.837881
 20
190.491697
 30
0.0
 11
-248.085105
 21
196.991697
 31
0.0
  0
LINE
  5
4A8
330
25
100
AcDbEntity
  8
2
100
AcDbLine
 10
-259.343435
 20
190.491697
 30
0.0
 11
-251.837881
 21
190.491697
 31
0.0
  0
CIRCLE
  5
4A9
330
25
100
AcDbEntity
  8
2
100
AcDbCircle
 10
-255.590658
 20
196.991697
 30
0.0
 40
6.5
  0
LINE
  5
4AA
330
25
100
AcDbEntity
  8
2
100
AcDbLine
 10
-223.841921
 20
35.458736
 30
0.0
 11
-223.841921
 21
27.458736
 31
0.0
  0
LINE
  5
4AB
330
25
100
AcDbEntity
  8
2
100
AcDbLine
 10
-236.841921
 20
36.458736
 30
0.0
 11
-237.841921
 21
35.458736
 31
0.0
  0
LINE
  5
4AC
330
25
100
AcDbEntity
  8
2
100
AcDbLine
 10
-224.841921
 20
36.458736
 30
0.0
 11
-223.841921
 21
35.458736
 31
0.0
  0
LINE
  5
4AD
330
25
100
AcDbEntity
  8
2
100
AcDbLine
 10
-237.841921
 20
35.458736
 30
0.0
 11
-237.841921
 21
27.458736
 31
0.0
  0
ARC
  5
4AE
330
25
100
AcDbEntity
  8
2
100
AcDbCircle
 10
-230.841921
 20
42.458736
 30
0.0
 40
7.0
100
AcDbArc
 50
238.997281
 51
301.002719
  0
ARC
  5
4AF
330
25
100
AcDbEntity
  8
2
100
AcDbCircle
 10
-250.841921
 20
52.967119
 30
0.0
 40
5.0
100
AcDbArc
 50
290.0
 51
360.0
  0
LINE
  5
4B0
330
25
100
AcDbEntity
  8
2
100
AcDbLine
 10
-265.867981
 20
42.177191
 30
0.0
 11
-249.13182
 21
48.268656
 31
0.0
  0
LINE
  5
4B1
330
25
100
AcDbEntity
  8
2
100
AcDbLine
 10
-219.841921
 20
37.458736
 30
0.0
 11
-267.841921
 21
37.458736
 31
0.0
  0
LINE
  5
4B2
330
25
100
AcDbEntity
  8
2
100
AcDbLine
 10
-241.841921
 20
36.458736
 30
0.0
 11
-241.841921
 21
37.458736
 31
0.0
  0
LINE
  5
4B3
330
25
100
AcDbEntity
  8
2
100
AcDbLine
 10
-267.841921
 20
39.35811300000001
 30
0.0
 11
-267.841921
 21
37.458736
 31
0.0
  0
LINE
  5
4B4
330
25
100
AcDbEntity
  8
2
100
AcDbLine
 10
-215.841921
 20
57.458736
 30
0.0
 11
-216.841921
 21
58.458736
 31
0.0
  0
LINE
  5
4B5
330
25
100
AcDbEntity
  8
2
100
AcDbLine
 10
-244.841921
 20
58.458736
 30
0.0
 11
-245.841921
 21
57.458736
 31
0.0
  0
LINE
  5
4B6
330
25
100
AcDbEntity
  8
2
100
AcDbLine
 10
-245.841921
 20
52.967119
 30
0.0
 11
-245.841921
 21
57.458736
 31
0.0
  0
LINE
  5
4B7
330
25
100
AcDbEntity
  8
2
100
AcDbLine
 10
-215.841921
 20
57.351776
 30
0.0
 11
-215.841921
 21
57.458736
 31
0.0
  0
LINE
  5
4B8
330
25
100
AcDbEntity
  8
2
100
AcDbLine
 10
-219.841921
 20
36.458736
 30
0.0
 11
-241.841921
 21
36.458736
 31
0.0
  0
LINE
  5
4B9
330
25
100
AcDbEntity
  8
2
100
AcDbLine
 10
-219.841921
 20
36.458736
 30
0.0
 11
-219.841921
 21
37.458736
 31
0.0
  0
LINE
  5
4BA
330
25
100
AcDbEntity
  8
2
100
AcDbLine
 10
-237.611152
 20
57.458736
 30
0.0
 11
-237.611152
 21
37.458736
 31
0.0
  0
LINE
  5
4BB
330
25
100
AcDbEntity
  8
2
100
AcDbLine
 10
-224.07269
 20
57.458736
 30
0.0
 11
-224.07269
 21
37.458736
 31
0.0
  0
ARC
  5
4BC
330
25
100
AcDbEntity
  8
2
100
AcDbCircle
 10
-264.841921
 20
39.35811300000001
 30
0.0
 40
3.0
100
AcDbArc
 50
110.0
 51
180.0
  0
ARC
  5
4BD
330
25
100
AcDbEntity
  8
2
100
AcDbCircle
 10
-236.611152
 20
57.458736
 30
0.0
 40
1.0
100
AcDbArc
 50
90.0
 51
180.0
  0
ARC
  5
4BE
330
25
100
AcDbEntity
  8
2
100
AcDbCircle
 10
-225.07269
 20
57.458736
 30
0.0
 40
1.0
100
AcDbArc
 50
0.0
 51
90.0
  0
LINE
  5
4BF
330
25
100
AcDbEntity
  8
2
100
AcDbLine
 10
-216.841921
 20
58.458736
 30
0.0
 11
-244.841921
 21
58.458736
 31
0.0
  0
ARC
  5
4C0
330
25
100
AcDbEntity
  8
2
100
AcDbCircle
 10
-254.180284
 20
68.14093800000001
 30
0.0
 40
22.811628
100
AcDbArc
 50
283.335578
 51
313.128065
  0
LINE
  5
4C1
330
25
100
AcDbEntity
  8
2
100
AcDbLine
 10
-215.245159
 20
53.77393000000001
 30
0.0
 11
-37.631646
 21
91.52684800000001
 31
0.0
  0
CIRCLE
  5
4C2
330
25
100
AcDbEntity
  8
2
100
AcDbCircle
 10
-140.841921
 20
56.458736
 30
0.0
 40
2.0
  0
ARC
  5
4C3
330
25
100
AcDbEntity
  8
2
100
AcDbCircle
 10
-140.841921
 20
56.458736
 30
0.0
 40
5.0
100
AcDbArc
 50
0.0
 51
180.0
  0
LINE
  5
4C4
330
25
100
AcDbEntity
  8
2
100
AcDbLine
 10
-135.841921
 20
56.458736
 30
0.0
 11
-135.841921
 21
47.458736
 31
0.0
  0
LINE
  5
4C5
330
25
100
AcDbEntity
  8
2
100
AcDbLine
 10
-145.841921
 20
56.458736
 30
0.0
 11
-145.841921
 21
47.458736
 31
0.0
  0
ARC
  5
4C6
330
25
100
AcDbEntity
  8
2
100
AcDbCircle
 10
-36.592087
 20
86.63611000000001
 30
0.0
 40
5.0
100
AcDbArc
 50
12.0
 51
102.0
  0
LINE
  5
4C7
330
25
100
AcDbEntity
  8
2
100
AcDbLine
 10
-31.002314
 20
84.386963
 30
0.0
 11
-31.701349
 21
87.675668
 31
0.0
  0
ARC
  5
4C8
330
25
100
AcDbEntity
  8
2
100
AcDbCircle
 10
-31.980461
 20
84.17905199999998
 30
0.0
 40
1.0
100
AcDbArc
 50
285.0
 51
12.0
  0
LINE
  5
4C9
330
25
100
AcDbEntity
  8
2
100
AcDbLine
 10
-31.721642
 20
83.213126
 30
0.0
 11
-109.294319
 21
62.42759
 31
0.0
  0
LINE
  5
4CA
330
25
100
AcDbEntity
  8
2
100
AcDbLine
 10
-219.841921
 20
37.458736
 30
0.0
 11
-178.528324
 21
46.240212
 31
0.0
  0
ARC
  5
4CB
330
25
100
AcDbEntity
  8
2
100
AcDbCircle
 10
-212.841921
 20
57.351776
 30
0.0
 40
3.0
100
AcDbArc
 50
180.0
 51
282.0
  0
LINE
  5
4CC
330
25
100
AcDbEntity
  8
2
100
AcDbLine
 10
-129.912989
 20
49.38766799999999
 30
0.0
 11
-127.225829
 21
52.07482800000001
 31
0.0
  0
ARC
  5
4CD
330
25
100
AcDbEntity
  8
2
100
AcDbCircle
 10
-98.941558
 20
23.790557
 30
0.0
 40
40.0
100
AcDbArc
 50
105.0
 51
135.0
  0
ARC
  5
4CE
330
25
100
AcDbEntity
  8
2
100
AcDbCircle
 10
-144.841921
 20
47.458736
 30
0.0
 40
1.0
100
AcDbArc
 50
180.0
 51
270.0
  0
ARC
  5
4CF
330
25
100
AcDbEntity
  8
2
100
AcDbCircle
 10
-136.841921
 20
47.458736
 30
0.0
 40
1.0
100
AcDbArc
 50
270.0
 51
360.0
  0
LINE
  5
4D0
330
25
100
AcDbEntity
  8
2
100
AcDbLine
 10
-176.449207
 20
46.458736
 30
0.0
 11
-136.984056
 21
46.458736
 31
0.0
  0
ARC
  5
4D1
330
25
100
AcDbEntity
  8
2
100
AcDbCircle
 10
-136.984056
 20
56.458736
 30
0.0
 40
10.0
100
AcDbArc
 50
270.0
 51
315.0
  0
ARC
  5
4D2
330
25
100
AcDbEntity
  8
2
100
AcDbCircle
 10
-176.449207
 20
36.458736
 30
0.0
 40
10.0
100
AcDbArc
 50
90.0
 51
102.0
  0
LINE
  5
4D3
330
25
100
AcDbEntity
  8
2
100
AcDbLine
 10
-94.28429300000001
 20
61.76588999999999
 30
0.0
 11
-88.449038
 21
60.994071
 31
0.0
  0
LINE
  5
4D4
330
25
100
AcDbEntity
  8
2
100
AcDbLine
 10
-94.40456899999999
 20
66.417286
 30
0.0
 11
-88.902839
 21
65.96637
 31
0.0
  0
LINE
  5
4D5
330
25
100
AcDbEntity
  8
2
100
AcDbLine
 10
-85.008177
 20
67.54635999999999
 30
0.0
 11
-94.52909099999999
 21
63.68390600000001
 31
0.0
  0
LINE
  5
4D6
330
25
100
AcDbEntity
  8
2
100
AcDbLine
 10
-84.256328
 20
65.69306
 30
0.0
 11
-93.77724200000001
 21
61.830605
 31
0.0
  0
LINE
  5
4D7
330
25
100
AcDbEntity
  8
2
100
AcDbLine
 10
-84.32717099999996
 20
62.36475999999999
 30
0.0
 11
-94.282526
 21
59.054199
 31
0.0
  0
LINE
  5
4D8
330
25
100
AcDbEntity
  8
2
100
AcDbLine
 10
-83.69607
 20
60.46694300000001
 30
0.0
 11
-93.65142400000001
 21
57.15638199999999
 31
0.0
  0
LINE
  5
4D9
330
25
100
AcDbEntity
  8
2
100
AcDbLine
 10
-84.256658
 20
56.720439
 30
0.0
 11
-94.47647600000001
 21
52.774277
 31
0.0
  0
LINE
  5
4DA
330
25
100
AcDbEntity
  8
2
100
AcDbLine
 10
-83.53624100000002
 20
54.85469499999999
 30
0.0
 11
-93.963838
 21
50.82830399999998
 31
0.0
  0
LINE
  5
4DB
330
25
100
AcDbEntity
  8
2
100
AcDbLine
 10
-94.18890799999999
 20
57.130228
 30
0.0
 11
-92.03434599999999
 21
56.639829
 31
0.0
  0
ARC
  5
4DC
330
25
100
AcDbEntity
  8
2
100
AcDbCircle
 10
-93.966975
 20
58.10529
 30
0.0
 40
1.0
100
AcDbArc
 50
108.394069
 51
288.394069
  0
ARC
  5
4DD
330
25
100
AcDbEntity
  8
2
100
AcDbCircle
 10
-94.153166
 20
62.75725600000001
 30
0.0
 40
1.0
100
AcDbArc
 50
112.081463
 51
292.081463
  0
ARC
  5
4DE
330
25
100
AcDbEntity
  8
2
100
AcDbCircle
 10
-84.01161999999997
 20
61.415851
 30
0.0
 40
1.0
100
AcDbArc
 50
288.394069
 51
108.394069
  0
CIRCLE
  5
4DF
330
25
100
AcDbEntity
  8
2
100
AcDbCircle
 10
-84.12940400000001
 20
51.505778
 30
0.0
 40
1.0
  0
LINE
  5
4E0
330
25
100
AcDbEntity
  8
2
100
AcDbLine
 10
-85.04568
 20
52.53657099999998
 30
0.0
 11
-84.12940400000001
 21
52.505778
 31
0.0
  0
LINE
  5
4E1
330
25
100
AcDbEntity
  8
2
100
AcDbLine
 10
-90.270472
 20
58.28068599999999
 30
0.0
 11
-83.672164
 21
56.76209100000001
 31
0.0
  0
LINE
  5
4E2
330
25
100
AcDbEntity
  8
2
100
AcDbLine
 10
-87.316374
 20
55.565974
 30
0.0
 11
-87.27241600000002
 21
55.555969
 31
0.0
  0
ARC
  5
4E3
330
25
100
AcDbEntity
  8
2
100
AcDbCircle
 10
-83.89644999999999
 20
55.787567
 30
0.0
 40
1.0
100
AcDbArc
 50
291.112991
 51
111.112991
  0
LINE
  5
4E4
330
25
100
AcDbEntity
  8
2
100
AcDbLine
 10
-88.66961899999997
 20
67.953962
 30
0.0
 11
-84.55056799999999
 21
67.61636800000001
 31
0.0
  0
LINE
  5
4E5
330
25
100
AcDbEntity
  8
2
100
AcDbLine
 10
-90.27200999999999
 20
63.25261199999999
 30
0.0
 11
-83.88049399999998
 21
62.407217
 31
0.0
  0
ARC
  5
4E6
330
25
100
AcDbEntity
  8
2
100
AcDbCircle
 10
-84.63225300000003
 20
66.61971
 30
0.0
 40
1.0
100
AcDbArc
 50
292.081463
 51
112.081463
  0
ARC
  5
4E7
330
25
100
AcDbEntity
  8
2
100
AcDbCircle
 10
-94.116268
 20
51.841405
 30
0.0
 40
1.0
100
AcDbArc
 50
111.105845
 51
266.001991
  0
LINE
  5
4E8
330
25
100
AcDbEntity
  8
2
100
AcDbLine
 10
-84.93245300000003
 20
50.533092
 30
0.0
 11
-84.12940400000001
 21
50.505778
 31
0.0
  0
CIRCLE
  5
4E9
330
25
100
AcDbEntity
  8
2
100
AcDbCircle
 10
-230.841921
 20
42.958736
 30
0.0
 40
5.0
  0
CIRCLE
  5
4EA
330
25
100
AcDbEntity
  8
2
100
AcDbCircle
 10
-230.841921
 20
42.958736
 30
0.0
 40
3.0
  0
CIRCLE
  5
4EB
330
25
100
AcDbEntity
  8
2
100
AcDbCircle
 10
-230.841921
 20
42.958736
 30
0.0
 40
2.5
  0
LINE
  5
4EC
330
25
100
AcDbEntity
  8
2
100
AcDbLine
 10
-236.615423
 20
42.958736
 30
0.0
 11
-233.728672
 21
37.958736
 31
0.0
  0
LINE
  5
4ED
330
25
100
AcDbEntity
  8
2
100
AcDbLine
 10
-233.728672
 20
37.958736
 30
0.0
 11
-227.955169
 21
37.958736
 31
0.0
  0
LINE
  5
4EE
330
25
100
AcDbEntity
  8
2
100
AcDbLine
 10
-227.955169
 20
37.958736
 30
0.0
 11
-225.068418
 21
42.958736
 31
0.0
  0
LINE
  5
4EF
330
25
100
AcDbEntity
  8
2
100
AcDbLine
 10
-225.068418
 20
42.958736
 30
0.0
 11
-227.955169
 21
47.958736
 31
0.0
  0
LINE
  5
4F0
330
25
100
AcDbEntity
  8
2
100
AcDbLine
 10
-227.955169
 20
47.958736
 30
0.0
 11
-233.728672
 21
47.958736
 31
0.0
  0
LINE
  5
4F1
330
25
100
AcDbEntity
  8
2
100
AcDbLine
 10
-233.728672
 20
47.958736
 30
0.0
 11
-236.615423
 21
42.958736
 31
0.0
  0
ARC
  5
4F2
330
25
100
AcDbEntity
  8
2
  6
CENTER
 62
     2
100
AcDbCircle
 10
-140.841921
 20
56.458736
 30
0.0
 40
52.075925
100
AcDbArc
 50
348.756732
 51
23.167626
  0
LINE
  5
4F3
330
25
100
AcDbEntity
  8
2
  6
CENTER
 62
     2
100
AcDbLine
 10
-130.9193
 20
56.458736
 30
0.0
 11
-151.126574
 21
56.458736
 31
0.0
  0
LINE
  5
4F4
330
25
100
AcDbEntity
  8
2
  6
CENTER
 62
     2
100
AcDbLine
 10
-140.841921
 20
66.850226
 30
0.0
 11
-140.841921
 21
45.466341
 31
0.0
  0
LINE
  5
4F5
330
25
100
AcDbEntity
  8
2
100
AcDbLine
 10
-222.07269
 20
47.65161599999998
 30
0.0
 11
-222.07269
 21
37.458736
 31
0.0
  0
ARC
  5
4F6
330
25
100
AcDbEntity
  8
2
100
AcDbCircle
 10
-217.07269
 20
47.65161599999998
 30
0.0
 40
5.0
100
AcDbArc
 50
124.714037
 51
180.0
  0
ARC
  5
4F7
330
25
100
AcDbEntity
  8
2
100
AcDbCircle
 10
-212.542307
 20
41.05801099999999
 30
0.0
 40
13.0
100
AcDbArc
 50
102.0
 51
124.492462
  0
LINE
  5
4F8
330
25
100
AcDbEntity
  8
2
100
AcDbLine
 10
-248.918691
 20
45.944406
 30
0.0
 11
-265.216502
 21
42.08108
 31
0.0
  0
LINE
  5
4F9
330
25
100
AcDbEntity
  8
2
  6
CENTER
 62
     2
100
AcDbLine
 10
-239.585011
 20
42.958736
 30
0.0
 11
-221.793258
 21
42.958736
 31
0.0
  0
CIRCLE
  5
4FA
330
25
100
AcDbEntity
  8
2
100
AcDbCircle
 10
-140.841921
 20
56.458736
 30
0.0
 40
1.5
  0
ARC
  5
4FB
330
25
100
AcDbEntity
  8
2
100
AcDbCircle
 10
-38.843926
 20
43.233296
 30
0.0
 40
8.0
100
AcDbArc
 50
359.985133
 51
88.0
  0
LINE
  5
4FC
330
25
100
AcDbEntity
  8
2
100
AcDbLine
 10
-123.793344
 20
46.34462599999999
 30
0.0
 11
-100.024699
 21
42.15357199999997
 31
0.0
  0
LINE
  5
4FD
330
25
100
AcDbEntity
  8
2
100
AcDbLine
 10
-97.10895999999999
 20
52.050674
 30
0.0
 11
-97.05618499999999
 21
52.80539799999999
 31
0.0
  0
LINE
  5
4FE
330
25
100
AcDbEntity
  8
2
100
AcDbLine
 10
-81.14793500000002
 20
50.93457100000001
 30
0.0
 11
-81.093463
 21
51.713559
 31
0.0
  0
LINE
  5
4FF
330
25
100
AcDbEntity
  8
2
100
AcDbLine
 10
-91.759116
 20
56.879083
 30
0.0
 11
-85.773731
 21
56.46054399999999
 31
0.0
  0
LINE
  5
500
330
25
100
AcDbEntity
  8
2
100
AcDbLine
 10
-93.00896999999999
 20
53.340923
 30
0.0
 11
-92.826436
 21
55.951276
 31
0.0
  0
LINE
  5
501
330
25
100
AcDbEntity
  8
2
100
AcDbLine
 10
-85.138192
 20
51.213597
 30
0.0
 11
-84.92096999999999
 21
54.320012
 31
0.0
  0
LINE
  5
502
330
25
100
AcDbEntity
  8
2
100
AcDbLine
 10
-92.826436
 20
55.951276
 30
0.0
 11
-91.759116
 21
56.879083
 31
0.0
  0
LINE
  5
503
330
25
100
AcDbEntity
  8
2
100
AcDbLine
 10
-85.773731
 20
56.46054399999999
 30
0.0
 11
-85.56163199999998
 21
56.216552
 31
0.0
  0
LINE
  5
504
330
25
100
AcDbEntity
  8
2
100
AcDbLine
 10
-30.843926
 20
43.23122
 30
0.0
 11
-30.844497
 21
41.029259
 31
0.0
  0
LINE
  5
505
330
25
100
AcDbEntity
  8
2
100
AcDbLine
 10
-38.56473
 20
51.228422
 30
0.0
 11
-80.02431599999999
 21
52.676223
 31
0.0
  0
ARC
  5
506
330
25
100
AcDbEntity
  8
2
100
AcDbCircle
 10
-175.615669
 20
21.458736
 30
0.0
 40
1.0
100
AcDbArc
 50
180.0
 51
270.0
  0
LINE
  5
507
330
25
100
AcDbEntity
  8
2
100
AcDbLine
 10
-175.615669
 20
20.458736
 30
0.0
 11
-169.841921
 21
20.458736
 31
0.0
  0
LINE
  5
508
330
25
100
AcDbEntity
  8
2
100
AcDbLine
 10
-166.306387
 20
21.923202
 30
0.0
 11
-162.770853
 21
25.458736
 31
0.0
  0
LINE
  5
509
330
25
100
AcDbEntity
  8
2
100
AcDbLine
 10
-176.615669
 20
32.458736
 30
0.0
 11
-164.306387
 21
44.76801799999999
 31
0.0
  0
ARC
  5
50A
330
25
100
AcDbEntity
  8
2
100
AcDbCircle
 10
-129.0027889999999
 20
16.800393
 30
0.0
 40
30.0
100
AcDbArc
 50
80.0
 51
135.0
  0
LINE
  5
50B
330
25
100
AcDbEntity
  8
2
100
AcDbLine
 10
-176.615669
 20
32.458736
 30
0.0
 11
-176.615669
 21
27.458736
 31
0.0
  0
ARC
  5
50C
330
25
100
AcDbEntity
  8
2
100
AcDbCircle
 10
-84.14062800000001
 20
51.14384000000001
 30
0.0
 40
1.0
100
AcDbArc
 50
176.0
 51
266.0
  0
LINE
  5
50D
330
25
100
AcDbEntity
  8
2
100
AcDbLine
 10
-96.18115299999999
 20
50.98335399999999
 30
0.0
 11
-82.21525600000003
 21
50.006763
 31
0.0
  0
LINE
  5
50E
330
25
100
AcDbEntity
  8
2
100
AcDbLine
 10
-167.770853
 20
41.303552
 30
0.0
 11
-167.770853
 21
27.458736
 31
0.0
  0
LINE
  5
50F
330
25
100
AcDbEntity
  8
2
100
AcDbLine
 10
-92.826436
 20
55.951276
 30
0.0
 11
-87.25721699999999
 21
55.561838
 31
0.0
  0
ARC
  5
510
330
25
100
AcDbEntity
  8
2
100
AcDbCircle
 10
-86.13284399999995
 20
120.938192
 30
0.0
 40
80.0
100
AcDbArc
 50
260.0
 51
269.845396
  0
ARC
  5
511
330
25
100
AcDbEntity
  8
2
100
AcDbCircle
 10
-32.844497
 20
41.029778
 30
0.0
 40
2.0
100
AcDbArc
 50
222.427004
 51
359.985133
  0
ARC
  5
512
330
25
100
AcDbEntity
  8
2
100
AcDbCircle
 10
-40.22587199999999
 20
34.283274
 30
0.0
 40
8.0
100
AcDbArc
 50
42.42700399999999
 51
123.6590879999999
  0
ARC
  5
513
330
25
100
AcDbEntity
  8
2
100
AcDbCircle
 10
-49.093875
 20
47.600876
 30
0.0
 40
8.0
100
AcDbArc
 50
232.340912
 51
303.659088
  0
ARC
  5
514
330
25
100
AcDbEntity
  8
2
100
AcDbCircle
 10
-58.869266
 20
34.934316
 30
0.0
 40
8.0
100
AcDbArc
 50
52.340912
 51
123.6590879999999
  0
ARC
  5
515
330
25
100
AcDbEntity
  8
2
100
AcDbCircle
 10
-67.73727
 20
48.25191799999998
 30
0.0
 40
8.0
100
AcDbArc
 50
232.340912
 51
303.659088
  0
ARC
  5
516
330
25
100
AcDbEntity
  8
2
100
AcDbCircle
 10
-77.51266
 20
35.585358
 30
0.0
 40
8.0
100
AcDbArc
 50
52.340912
 51
123.42906
  0
ARC
  5
517
330
25
100
AcDbEntity
  8
2
100
AcDbCircle
 10
-86.32712600000003
 20
48.938455
 30
0.0
 40
8.0
100
AcDbArc
 50
269.845396
 51
303.42906
  0
ARC
  5
518
330
25
100
AcDbEntity
  8
2
100
AcDbCircle
 10
-169.841921
 20
25.458736
 30
0.0
 40
5.0
100
AcDbArc
 50
270.0
 51
315.0
  0
LINE
  5
519
330
25
100
AcDbEntity
  8
2
100
AcDbLine
 10
-97.05618499999999
 20
52.80539799999999
 30
0.0
 11
-97.971236
 21
53.976611
 31
0.0
  0
LINE
  5
51A
330
25
100
AcDbEntity
  8
2
100
AcDbLine
 10
-80.02431599999999
 20
52.676223
 30
0.0
 11
-81.093463
 21
51.713559
 31
0.0
  0
ARC
  5
51B
330
25
100
AcDbEntity
  8
2
100
AcDbCircle
 10
-96.11139600000001
 20
51.980918
 30
0.0
 40
1.0
100
AcDbArc
 50
176.0
 51
266.0
  0
ARC
  5
51C
330
25
100
AcDbEntity
  8
2
100
AcDbCircle
 10
-82.1455
 20
51.004327
 30
0.0
 40
1.0
100
AcDbArc
 50
266.0
 51
356.0
  0
LINE
  5
51D
330
25
100
AcDbEntity
  8
2
100
AcDbLine
 10
-121.841921
 20
46.000537
 30
0.0
 11
-121.841921
 21
56.58649200000001
 31
0.0
  0
LINE
  5
51E
330
25
100
AcDbEntity
  8
2
100
AcDbLine
 10
-119.8325
 20
57.831341
 30
0.0
 11
-97.971236
 21
53.976611
 31
0.0
  0
ARC
  5
51F
330
25
100
AcDbEntity
  8
2
100
AcDbCircle
 10
-119.311556
 20
60.785765
 30
0.0
 40
3.0
100
AcDbArc
 50
258.30264
 51
260.0
  0
LINE
  5
520
330
25
100
AcDbEntity
  8
2
100
AcDbLine
 10
-162.841921
 20
46.458736
 30
0.0
 11
-162.841921
 21
27.458736
 31
0.0
  0
ARC
  5
521
330
25
100
AcDbEntity
  8
2
100
AcDbCircle
 10
-167.841921
 20
48.303552
 30
0.0
 40
5.0
100
AcDbArc
 50
315.0
 51
338.348311
  0
LINE
  5
522
330
25
100
AcDbEntity
  8
2
100
AcDbLine
 10
-163.741921
 20
24.487668
 30
0.0
 11
-163.741921
 21
25.458736
 31
0.0
  0
LINE
  5
523
330
25
100
AcDbEntity
  8
2
100
AcDbLine
 10
-176.615669
 20
25.458736
 30
0.0
 11
-176.615669
 21
21.458736
 31
0.0
  0
LINE
  5
524
330
25
100
AcDbEntity
  8
2
100
AcDbLine
 10
-167.770853
 20
25.458736
 30
0.0
 11
-167.770853
 21
20.907837
 31
0.0
  0
LINE
  5
525
330
25
100
AcDbEntity
  8
2
100
AcDbLine
 10
-162.841921
 20
25.458736
 30
0.0
 11
-162.841921
 21
25.387668
 31
0.0
  0
LINE
  5
526
330
25
100
AcDbEntity
  8
2
100
AcDbLine
 10
-160.770853
 20
27.458736
 30
0.0
 11
-150.215992
 21
38.013596
 31
0.0
  0
LINE
  5
527
330
25
100
AcDbEntity
  8
2
100
AcDbLine
 10
-155.841921
 20
27.458736
 30
0.0
 11
-155.841921
 21
25.458736
 31
0.0
  0
LINE
  5
528
330
25
100
AcDbEntity
  8
2
100
AcDbLine
 10
-155.841921
 20
27.458736
 30
0.0
 11
-280.841921
 21
27.458736
 31
0.0
  0
LINE
  5
529
330
25
100
AcDbEntity
  8
2
100
AcDbLine
 10
-280.841921
 20
25.458736
 30
0.0
 11
-155.841921
 21
25.458736
 31
0.0
  0
LINE
  5
52A
330
25
100
AcDbEntity
  8
2
100
AcDbLine
 10
-191.4305719999999
 20
27.458736
 30
0.0
 11
-191.4305719999999
 21
25.458736
 31
0.0
  0
POINT
  5
52B
330
25
100
AcDbEntity
  8
2
100
AcDbPoint
 10
-206.093183
 20
27.458736
 30
0.0
  0
LINE
  5
52C
330
25
100
AcDbEntity
  8
2
100
AcDbLine
 10
-206.093183
 20
27.458736
 30
0.0
 11
-213.593183
 21
27.458736
 31
0.0
  0
LINE
  5
52D
330
25
100
AcDbEntity
  8
2
100
AcDbLine
 10
-213.593183
 20
27.458736
 30
0.0
 11
-213.593183
 21
32.237048
 31
0.0
  0
LINE
  5
52E
330
25
100
AcDbEntity
  8
2
100
AcDbLine
 10
-213.593183
 20
32.237048
 30
0.0
 11
-212.343183
 21
32.958736
 31
0.0
  0
LINE
  5
52F
330
25
100
AcDbEntity
  8
2
100
AcDbLine
 10
-212.343183
 20
32.958736
 30
0.0
 11
-206.093183
 21
32.958736
 31
0.0
  0
LINE
  5
530
330
25
100
AcDbEntity
  8
2
100
AcDbLine
 10
-209.843183
 20
27.458736
 30
0.0
 11
-209.843183
 21
32.237048
 31
0.0
  0
ARC
  5
531
330
25
100
AcDbEntity
  8
2
100
AcDbCircle
 10
-211.718183
 20
29.826672
 30
0.0
 40
3.053774
100
AcDbArc
 50
52.121121
 51
127.878879
  0
ARC
  5
532
330
25
100
AcDbEntity
  8
2
100
AcDbCircle
 10
-206.093183
 20
21.630446
 30
0.0
 40
11.25
100
AcDbArc
 50
90.0
 51
109.471221
  0
LINE
  5
533
330
25
100
AcDbEntity
  8
2
100
AcDbLine
 10
-206.093183
 20
2.458736
 30
0.0
 11
-209.416683
 21
2.458736
 31
0.0
  0
LINE
  5
534
330
25
100
AcDbEntity
  8
2
100
AcDbLine
 10
-209.416683
 20
2.458736
 30
0.0
 11
-210.093183
 21
3.135235999999999
 31
0.0
  0
LINE
  5
535
330
25
100
AcDbEntity
  8
2
100
AcDbLine
 10
-210.093183
 20
3.135235999999999
 30
0.0
 11
-210.093183
 21
4.958736
 31
0.0
  0
LINE
  5
536
330
25
100
AcDbEntity
  8
2
100
AcDbLine
 10
-210.093183
 20
3.135235999999999
 30
0.0
 11
-206.093183
 21
3.135235999999999
 31
0.0
  0
LINE
  5
537
330
25
100
AcDbEntity
  8
2
 62
     2
100
AcDbLine
 10
-209.416683
 20
2.458736
 30
0.0
 11
-209.416683
 21
4.958736
 31
0.0
  0
LINE
  5
538
330
25
100
AcDbEntity
  8
2
100
AcDbLine
 10
-206.093183
 20
27.458736
 30
0.0
 11
-198.593183
 21
27.458736
 31
0.0
  0
LINE
  5
539
330
25
100
AcDbEntity
  8
2
100
AcDbLine
 10
-198.593183
 20
27.458736
 30
0.0
 11
-198.593183
 21
32.237048
 31
0.0
  0
LINE
  5
53A
330
25
100
AcDbEntity
  8
2
100
AcDbLine
 10
-198.593183
 20
32.237048
 30
0.0
 11
-199.843183
 21
32.958736
 31
0.0
  0
LINE
  5
53B
330
25
100
AcDbEntity
  8
2
100
AcDbLine
 10
-199.843183
 20
32.958736
 30
0.0
 11
-206.093183
 21
32.958736
 31
0.0
  0
LINE
  5
53C
330
25
100
AcDbEntity
  8
2
100
AcDbLine
 10
-202.343183
 20
27.458736
 30
0.0
 11
-202.343183
 21
32.237048
 31
0.0
  0
ARC
  5
53D
330
25
100
AcDbEntity
  8
2
100
AcDbCircle
 10
-200.468183
 20
29.826672
 30
0.0
 40
3.053774
100
AcDbArc
 50
52.121121
 51
127.878879
  0
ARC
  5
53E
330
25
100
AcDbEntity
  8
2
100
AcDbCircle
 10
-206.093183
 20
21.630446
 30
0.0
 40
11.25
100
AcDbArc
 50
70.528779
 51
90.0
  0
LINE
  5
53F
330
25
100
AcDbEntity
  8
2
100
AcDbLine
 10
-206.093183
 20
2.458736
 30
0.0
 11
-202.769683
 21
2.458736
 31
0.0
  0
LINE
  5
540
330
25
100
AcDbEntity
  8
2
100
AcDbLine
 10
-202.769683
 20
2.458736
 30
0.0
 11
-202.093183
 21
3.135235999999999
 31
0.0
  0
LINE
  5
541
330
25
100
AcDbEntity
  8
2
100
AcDbLine
 10
-202.093183
 20
3.135235999999999
 30
0.0
 11
-202.093183
 21
4.958736
 31
0.0
  0
LINE
  5
542
330
25
100
AcDbEntity
  8
2
100
AcDbLine
 10
-202.093183
 20
3.135235999999999
 30
0.0
 11
-206.093183
 21
3.135235999999999
 31
0.0
  0
LINE
  5
543
330
25
100
AcDbEntity
  8
2
 62
     2
100
AcDbLine
 10
-202.769683
 20
2.458736
 30
0.0
 11
-202.769683
 21
4.958736
 31
0.0
  0
POINT
  5
544
330
25
100
AcDbEntity
  8
2
100
AcDbPoint
 10
-206.093183
 20
13.458736
 30
0.0
  0
LINE
  5
545
330
25
100
AcDbEntity
  8
2
100
AcDbLine
 10
-206.093183
 20
11.458736
 30
0.0
 11
-198.593183
 21
11.458736
 31
0.0
  0
LINE
  5
546
330
25
100
AcDbEntity
  8
2
100
AcDbLine
 10
-198.593183
 20
11.458736
 30
0.0
 11
-198.593183
 21
5.680423999999997
 31
0.0
  0
LINE
  5
547
330
25
100
AcDbEntity
  8
2
100
AcDbLine
 10
-198.593183
 20
5.680423999999997
 30
0.0
 11
-199.843183
 21
4.958736
 31
0.0
  0
LINE
  5
548
330
25
100
AcDbEntity
  8
2
100
AcDbLine
 10
-199.843183
 20
4.958736
 30
0.0
 11
-206.093183
 21
4.958736
 31
0.0
  0
LINE
  5
549
330
25
100
AcDbEntity
  8
2
100
AcDbLine
 10
-202.343183
 20
11.458736
 30
0.0
 11
-202.343183
 21
5.680423999999997
 31
0.0
  0
ARC
  5
54A
330
25
100
AcDbEntity
  8
2
100
AcDbCircle
 10
-200.468183
 20
8.090799999999997
 30
0.0
 40
3.053774
100
AcDbArc
 50
232.121121
 51
307.878879
  0
ARC
  5
54B
330
25
100
AcDbEntity
  8
2
100
AcDbCircle
 10
-206.093183
 20
16.287025
 30
0.0
 40
11.25
100
AcDbArc
 50
270.0
 51
289.471221
  0
LINE
  5
54C
330
25
100
AcDbEntity
  8
2
100
AcDbLine
 10
-206.093183
 20
11.458736
 30
0.0
 11
-213.593183
 21
11.458736
 31
0.0
  0
LINE
  5
54D
330
25
100
AcDbEntity
  8
2
100
AcDbLine
 10
-213.593183
 20
11.458736
 30
0.0
 11
-213.593183
 21
5.680423999999997
 31
0.0
  0
LINE
  5
54E
330
25
100
AcDbEntity
  8
2
100
AcDbLine
 10
-213.593183
 20
5.680423999999997
 30
0.0
 11
-212.343183
 21
4.958736
 31
0.0
  0
LINE
  5
54F
330
25
100
AcDbEntity
  8
2
100
AcDbLine
 10
-212.343183
 20
4.958736
 30
0.0
 11
-206.093183
 21
4.958736
 31
0.0
  0
LINE
  5
550
330
25
100
AcDbEntity
  8
2
100
AcDbLine
 10
-209.843183
 20
11.458736
 30
0.0
 11
-209.843183
 21
5.680423999999997
 31
0.0
  0
ARC
  5
551
330
25
100
AcDbEntity
  8
2
100
AcDbCircle
 10
-211.718183
 20
8.090799999999997
 30
0.0
 40
3.053774
100
AcDbArc
 50
232.121121
 51
307.878879
  0
ARC
  5
552
330
25
100
AcDbEntity
  8
2
100
AcDbCircle
 10
-206.093183
 20
16.287025
 30
0.0
 40
11.25
100
AcDbArc
 50
250.528779
 51
270.0
  0
LINE
  5
553
330
25
100
AcDbEntity
  8
2
100
AcDbLine
 10
-198.393183
 20
13.458736
 30
0.0
 11
-198.393183
 21
11.458736
 31
0.0
  0
LINE
  5
554
330
25
100
AcDbEntity
  8
2
100
AcDbLine
 10
-198.393183
 20
11.458736
 30
0.0
 11
-213.793183
 21
11.458736
 31
0.0
  0
LINE
  5
555
330
25
100
AcDbEntity
  8
2
100
AcDbLine
 10
-213.793183
 20
11.458736
 30
0.0
 11
-213.793183
 21
13.458736
 31
0.0
  0
LINE
  5
556
330
25
100
AcDbEntity
  8
2
100
AcDbLine
 10
-213.793183
 20
13.458736
 30
0.0
 11
-198.393183
 21
13.458736
 31
0.0
  0
LINE
  5
557
330
25
100
AcDbEntity
  8
2
100
AcDbLine
 10
-206.093183
 20
11.458736
 30
0.0
 11
-206.593183
 21
13.458736
 31
0.0
  0
LINE
  5
558
330
25
100
AcDbEntity
  8
2
100
AcDbLine
 10
-206.093183
 20
13.458736
 30
0.0
 11
-205.593183
 21
11.458736
 31
0.0
  0
POINT
  5
559
330
25
100
AcDbEntity
  8
2
100
AcDbPoint
 10
-255.590658
 20
27.458736
 30
0.0
  0
LINE
  5
55A
330
25
100
AcDbEntity
  8
2
100
AcDbLine
 10
-255.590658
 20
27.458736
 30
0.0
 11
-263.090658
 21
27.458736
 31
0.0
  0
LINE
  5
55B
330
25
100
AcDbEntity
  8
2
100
AcDbLine
 10
-263.090658
 20
27.458736
 30
0.0
 11
-263.090658
 21
32.237048
 31
0.0
  0
LINE
  5
55C
330
25
100
AcDbEntity
  8
2
100
AcDbLine
 10
-263.090658
 20
32.237048
 30
0.0
 11
-261.840658
 21
32.958736
 31
0.0
  0
LINE
  5
55D
330
25
100
AcDbEntity
  8
2
100
AcDbLine
 10
-261.840658
 20
32.958736
 30
0.0
 11
-255.590658
 21
32.958736
 31
0.0
  0
LINE
  5
55E
330
25
100
AcDbEntity
  8
2
100
AcDbLine
 10
-259.340658
 20
27.458736
 30
0.0
 11
-259.340658
 21
32.237048
 31
0.0
  0
ARC
  5
55F
330
25
100
AcDbEntity
  8
2
100
AcDbCircle
 10
-261.215658
 20
29.826672
 30
0.0
 40
3.053774
100
AcDbArc
 50
52.121121
 51
127.878879
  0
ARC
  5
560
330
25
100
AcDbEntity
  8
2
100
AcDbCircle
 10
-255.590658
 20
21.630446
 30
0.0
 40
11.25
100
AcDbArc
 50
90.0
 51
109.471221
  0
LINE
  5
561
330
25
100
AcDbEntity
  8
2
100
AcDbLine
 10
-255.590658
 20
2.458736
 30
0.0
 11
-258.914158
 21
2.458736
 31
0.0
  0
LINE
  5
562
330
25
100
AcDbEntity
  8
2
100
AcDbLine
 10
-258.914158
 20
2.458736
 30
0.0
 11
-259.590658
 21
3.135235999999999
 31
0.0
  0
LINE
  5
563
330
25
100
AcDbEntity
  8
2
100
AcDbLine
 10
-259.590658
 20
3.135235999999999
 30
0.0
 11
-259.590658
 21
4.958736
 31
0.0
  0
LINE
  5
564
330
25
100
AcDbEntity
  8
2
100
AcDbLine
 10
-259.590658
 20
3.135235999999999
 30
0.0
 11
-255.590658
 21
3.135235999999999
 31
0.0
  0
LINE
  5
565
330
25
100
AcDbEntity
  8
2
 62
     2
100
AcDbLine
 10
-258.914158
 20
2.458736
 30
0.0
 11
-258.914158
 21
4.958736
 31
0.0
  0
LINE
  5
566
330
25
100
AcDbEntity
  8
2
100
AcDbLine
 10
-255.590658
 20
27.458736
 30
0.0
 11
-248.090658
 21
27.458736
 31
0.0
  0
LINE
  5
567
330
25
100
AcDbEntity
  8
2
100
AcDbLine
 10
-248.090658
 20
27.458736
 30
0.0
 11
-248.090658
 21
32.237048
 31
0.0
  0
LINE
  5
568
330
25
100
AcDbEntity
  8
2
100
AcDbLine
 10
-248.090658
 20
32.237048
 30
0.0
 11
-249.340658
 21
32.958736
 31
0.0
  0
LINE
  5
569
330
25
100
AcDbEntity
  8
2
100
AcDbLine
 10
-249.340658
 20
32.958736
 30
0.0
 11
-255.590658
 21
32.958736
 31
0.0
  0
LINE
  5
56A
330
25
100
AcDbEntity
  8
2
100
AcDbLine
 10
-251.840658
 20
27.458736
 30
0.0
 11
-251.840658
 21
32.237048
 31
0.0
  0
ARC
  5
56B
330
25
100
AcDbEntity
  8
2
100
AcDbCircle
 10
-249.965658
 20
29.826672
 30
0.0
 40
3.053774
100
AcDbArc
 50
52.121121
 51
127.878879
  0
ARC
  5
56C
330
25
100
AcDbEntity
  8
2
100
AcDbCircle
 10
-255.590658
 20
21.630446
 30
0.0
 40
11.25
100
AcDbArc
 50
70.528779
 51
90.0
  0
LINE
  5
56D
330
25
100
AcDbEntity
  8
2
100
AcDbLine
 10
-255.590658
 20
2.458736
 30
0.0
 11
-252.267158
 21
2.458736
 31
0.0
  0
LINE
  5
56E
330
25
100
AcDbEntity
  8
2
100
AcDbLine
 10
-252.267158
 20
2.458736
 30
0.0
 11
-251.590658
 21
3.135235999999999
 31
0.0
  0
LINE
  5
56F
330
25
100
AcDbEntity
  8
2
100
AcDbLine
 10
-251.590658
 20
3.135235999999999
 30
0.0
 11
-251.590658
 21
4.958736
 31
0.0
  0
LINE
  5
570
330
25
100
AcDbEntity
  8
2
100
AcDbLine
 10
-251.590658
 20
3.135235999999999
 30
0.0
 11
-255.590658
 21
3.135235999999999
 31
0.0
  0
LINE
  5
571
330
25
100
AcDbEntity
  8
2
 62
     2
100
AcDbLine
 10
-252.267158
 20
2.458736
 30
0.0
 11
-252.267158
 21
4.958736
 31
0.0
  0
POINT
  5
572
330
25
100
AcDbEntity
  8
2
100
AcDbPoint
 10
-255.590658
 20
13.458736
 30
0.0
  0
LINE
  5
573
330
25
100
AcDbEntity
  8
2
100
AcDbLine
 10
-249.795088
 20
4.958736
 30
0.0
 11
-255.590658
 21
4.958736
 31
0.0
  0
LINE
  5
574
330
25
100
AcDbEntity
  8
2
100
AcDbLine
 10
-251.840658
 20
8.147152
 30
0.0
 11
-251.840658
 21
5.680423999999997
 31
0.0
  0
ARC
  5
575
330
25
100
AcDbEntity
  8
2
100
AcDbCircle
 10
-249.965658
 20
8.090799999999997
 30
0.0
 40
3.053774
100
AcDbArc
 50
232.121121
 51
272.471717
  0
ARC
  5
576
330
25
100
AcDbEntity
  8
2
100
AcDbCircle
 10
-255.590658
 20
16.287025
 30
0.0
 40
11.25
100
AcDbArc
 50
270.0
 51
289.471221
  0
LINE
  5
577
330
25
100
AcDbEntity
  8
2
100
AcDbLine
 10
-255.756616
 20
11.458736
 30
0.0
 11
-263.090658
 21
11.458736
 31
0.0
  0
LINE
  5
578
330
25
100
AcDbEntity
  8
2
100
AcDbLine
 10
-263.090658
 20
11.458736
 30
0.0
 11
-263.090658
 21
5.680423999999997
 31
0.0
  0
LINE
  5
579
330
25
100
AcDbEntity
  8
2
100
AcDbLine
 10
-263.090658
 20
5.680423999999997
 30
0.0
 11
-261.840658
 21
4.958736
 31
0.0
  0
LINE
  5
57A
330
25
100
AcDbEntity
  8
2
100
AcDbLine
 10
-261.840658
 20
4.958736
 30
0.0
 11
-255.590658
 21
4.958736
 31
0.0
  0
LINE
  5
57B
330
25
100
AcDbEntity
  8
2
100
AcDbLine
 10
-259.340658
 20
11.458736
 30
0.0
 11
-259.340658
 21
5.680423999999997
 31
0.0
  0
ARC
  5
57C
330
25
100
AcDbEntity
  8
2
100
AcDbCircle
 10
-261.215658
 20
8.090799999999997
 30
0.0
 40
3.053774
100
AcDbArc
 50
232.121121
 51
307.878879
  0
ARC
  5
57D
330
25
100
AcDbEntity
  8
2
100
AcDbCircle
 10
-255.590658
 20
16.287025
 30
0.0
 40
11.25
100
AcDbArc
 50
250.528779
 51
270.0
  0
LINE
  5
57E
330
25
100
AcDbEntity
  8
2
100
AcDbLine
 10
-255.756516
 20
11.458736
 30
0.0
 11
-263.290658
 21
11.458736
 31
0.0
  0
LINE
  5
57F
330
25
100
AcDbEntity
  8
2
100
AcDbLine
 10
-263.290658
 20
11.458736
 30
0.0
 11
-263.290658
 21
13.458736
 31
0.0
  0
LINE
  5
580
330
25
100
AcDbEntity
  8
2
100
AcDbLine
 10
-263.290658
 20
13.458736
 30
0.0
 11
-247.890658
 21
13.458736
 31
0.0
  0
LINE
  5
581
330
25
100
AcDbEntity
  8
2
100
AcDbLine
 10
-280.841921
 20
27.458736
 30
0.0
 11
-280.841921
 21
25.458736
 31
0.0
  0
DIMENSION
  5
582
330
25
100
AcDbEntity
  8
5
100
AcDbDimension
  2
*D0
 10
13.480547
 20
25.458736
 30
0.0
 11
5.550546999999999
 21
-58.371264
 31
0.0
  1
167
 71
     5
 42
-1.0
100
AcDbAlignedDimension
 13
35.067908
 23
-141.5412639999999
 33
0.0
 14
32.66790800000001
 24
25.458736
 34
0.0
 50
90.0
100
AcDbRotatedDimension
  0
DIMENSION
  5
583
330
25
100
AcDbEntity
  8
5
100
AcDbDimension
  2
*D1
 10
13.480547
 20
-141.5412639999999
 30
0.0
 11
5.550546999999999
 21
-192.821264
 31
0.0
  1
102
 71
     5
 42
-1.0
100
AcDbAlignedDimension
 13
77.66790799999998
 23
-243.441264
 33
0.0
 14
35.067908
 24
-141.5412639999999
 34
0.0
 50
90.0
100
AcDbRotatedDimension
  0
DIMENSION
  5
584
330
25
100
AcDbEntity
  8
5
100
AcDbDimension
  2
*D2
 10
108.667908
 20
-265.2789
 30
0.0
 11
82.667908
 21
-260.9789
 31
0.0
  1
52
 71
     5
 42
-1.0
100
AcDbAlignedDimension
 13
56.667908
 23
-213.541264
 33
0.0
 14
108.667908
 24
-213.541264
 34
0.0
100
AcDbRotatedDimension
  0
DIMENSION
  5
585
330
25
100
AcDbEntity
  8
5
100
AcDbDimension
  2
*D3
 10
-331.49295
 20
247.24296
 30
0.0
 11
-337.11295
 21
211.72296
 31
0.0
  1
75
 71
     5
 42
-1.0
100
AcDbAlignedDimension
 13
-318.130847
 23
172.24296
 33
0.0
 14
-245.842159
 24
247.24296
 34
0.0
 50
90.0
100
AcDbRotatedDimension
  0
DIMENSION
  5
586
330
25
100
AcDbEntity
  8
5
100
AcDbDimension
  2
*D4
 10
-331.49295
 20
172.24296
 30
0.0
 11
-337.11295
 21
149.22296
 31
0.0
  1
50
 71
     5
 42
-1.0
100
AcDbAlignedDimension
 13
-230.842159
 23
122.24296
 33
0.0
 14
-318.130847
 24
172.24296
 34
0.0
 50
90.0
100
AcDbRotatedDimension
  0
TEXT
  5
587
330
25
100
AcDbEntity
  8
5
100
AcDbText
 10
-137.841191
 20
102.317978
 30
0.0
 40
6.599999999999997
  1
200
 41
0.7077777777777771
 72
     5
 11
-125.829191
 21
102.317978
 31
0.0
100
AcDbText
  0
DIMENSION
  5
588
330
25
100
AcDbEntity
  8
5
100
AcDbDimension
  2
*D5
 10
-30.980461
 20
101.317978
 30
0.0
 11
-130.911191
 21
103.317978
 31
0.0
 71
     5
 42
-1.0
100
AcDbAlignedDimension
 13
-230.841921
 23
71.35784499999998
 33
0.0
 14
-30.980461
 24
84.17905199999998
 34
0.0
100
AcDbRotatedDimension
  0
TEXT
  5
589
330
25
100
AcDbEntity
  8
5
100
AcDbText
 10
12.480547
 20
40.06742299999999
 30
0.0
 40
6.599999999999997
  1
66（概略）
 50
90.0
 41
0.9009677162756604
 72
     5
 11
12.480547
 21
75.179422
 31
0.0
100
AcDbText
  0
DIMENSION
  5
58A
330
25
100
AcDbEntity
  8
5
100
AcDbDimension
  2
*D6
 10
13.480547
 20
91.63611000000001
 30
0.0
 11
10.980547
 21
58.54742299999998
 31
0.0
 71
     5
 42
-1.0
100
AcDbAlignedDimension
 13
32.66790800000001
 23
25.458736
 33
0.0
 14
82.667908
 24
91.63611000000001
 34
0.0
 50
90.0
100
AcDbRotatedDimension
  0
TEXT
  5
58B
330
25
100
AcDbEntity
  8
Defpoints
100
AcDbText
 10
244.289261
 20
-266.527985
 30
0.0
 40
6.0
  1
1
100
AcDbText
  0
TEXT
  5
58C
330
25
100
AcDbEntity
  8
Defpoints
100
AcDbText
 10
253.082458
 20
-274.202026
 30
0.0
 40
6.0
  1
2
100
AcDbText
  0
TEXT
  5
58D
330
25
100
AcDbEntity
  8
18
100
AcDbText
 10
245.708481
 20
-254.070526
 30
0.0
 40
6.0
  1
標準仕様　JIS 5K,10K
100
AcDbText
  0
TEXT
  5
58E
330
25
100
AcDbEntity
  8
18
100
AcDbText
 10
245.708481
 20
-246.070526
 30
0.0
 40
6.0
  1
700G,701G-1TLS  100A
100
AcDbText
  0
TEXT
  5
58F
330
25
100
AcDbEntity
  8
18
100
AcDbText
 10
307.2
 20
-272.0
 30
0.0
 40
10.0
  1
D3－03634
100
AcDbText
  0
TEXT
  5
590
330
25
100
AcDbEntity
  8
18
100
AcDbText
 10
364.082184
 20
-255.023148
 30
0.0
 40
4.5
  1
2012. 9. 7
100
AcDbText
  0
LINE
  5
591
330
25
100
AcDbEntity
  8
20
 62
     3
100
AcDbLine
 10
-360.0
 20
-277.0
 30
0.0
 11
400.0
 21
-277.0
 31
0.0
  0
LINE
  5
592
330
25
100
AcDbEntity
  8
20
 62
     3
100
AcDbLine
 10
-360.0
 20
264.0
 30
0.0
 11
400.0
 21
264.0
 31
0.0
  0
LINE
  5
593
330
25
100
AcDbEntity
  8
20
 62
     3
100
AcDbLine
 10
-360.0
 20
264.0
 30
0.0
 11
-360.0
 21
-277.0
 31
0.0
  0
LINE
  5
594
330
25
100
AcDbEntity
  8
20
 62
     3
100
AcDbLine
 10
400.0
 20
264.0
 30
0.0
 11
400.0
 21
-277.0
 31
0.0
  0
LINE
  5
595
330
25
100
AcDbEntity
  8
20
 62
     3
100
AcDbLine
 10
120.0
 20
-277.0
 30
0.0
 11
120.0
 21
-237.0
 31
0.0
  0
LINE
  5
596
330
25
100
AcDbEntity
  8
20
 62
     3
100
AcDbLine
 10
214.0
 20
-277.0
 30
0.0
 11
214.0
 21
-237.0
 31
0.0
  0
LINE
  5
597
330
25
100
AcDbEntity
  8
20
100
AcDbLine
 10
214.0
 20
-257.0
 30
0.0
 11
400.0
 21
-257.0
 31
0.0
  0
LINE
  5
598
330
25
100
AcDbEntity
  8
20
 62
     3
100
AcDbLine
 10
120.0
 20
-237.0
 30
0.0
 11
400.0
 21
-237.0
 31
0.0
  0
LINE
  5
599
330
25
100
AcDbEntity
  8
20
100
AcDbLine
 10
360.0
 20
-257.0
 30
0.0
 11
360.0
 21
-237.0
 31
0.0
  0
LINE
  5
59A
330
25
100
AcDbEntity
  8
20
100
AcDbLine
 10
360.0
 20
-247.0
 30
0.0
 11
400.0
 21
-247.0
 31
0.0
  0
LINE
  5
59B
330
25
100
AcDbEntity
  8
20
100
AcDbLine
 10
242.0
 20
-277.0
 30
0.0
 11
242.0
 21
-237.0
 31
0.0
  0
LINE
  5
59C
330
25
100
AcDbEntity
  8
20
100
AcDbLine
 10
262.0
 20
-277.0
 30
0.0
 11
262.0
 21
-257.0
 31
0.0
  0
LINE
  5
59D
330
25
100
AcDbEntity
  8
20
100
AcDbLine
 10
302.0
 20
-277.0
 30
0.0
 11
302.0
 21
-257.0
 31
0.0
  0
LINE
  5
59E
330
25
100
AcDbEntity
  8
20
100
AcDbLine
 10
247.456829
 20
-271.543171
 30
0.0
 11
255.796581
 21
-263.203419
 31
0.0
  0
TEXT
  5
59F
330
25
100
AcDbEntity
  8
20
100
AcDbText
 10
265.0678972926087
 20
-264.993835
 30
0.0
 40
3.6
  1
DRAWING No.
100
AcDbText
  0
TEXT
  5
5A0
330
25
100
AcDbEntity
  8
20
100
AcDbText
 10
267.0
 20
-273.0
 30
0.0
 40
6.0
  1
図　　番
100
AcDbText
  0
TEXT
  5
5A1
330
25
100
AcDbEntity
  8
20
100
AcDbText
 10
372.0
 20
-244.0
 30
0.0
 40
4.0
  1
DATE
100
AcDbText
  0
TEXT
  5
5A2
330
25
100
AcDbEntity
  8
20
100
AcDbText
 10
218.002142
 20
-265.922058
 30
0.0
 40
4.0
  1
SCALE
100
AcDbText
  0
TEXT
  5
5A3
330
25
100
AcDbEntity
  8
20
100
AcDbText
 10
217.3341586958709
 20
-273.0
 30
0.0
 40
6.0
  1
尺　度
100
AcDbText
  0
TEXT
  5
5A4
330
25
100
AcDbEntity
  8
20
100
AcDbText
 10
216.6698434918459
 20
-244.991769
 30
0.0
 40
4.0
  1
FIG. No.
100
AcDbText
  0
TEXT
  5
5A5
330
25
100
AcDbEntity
  8
20
100
AcDbText
 10
217.3341586958709
 20
-253.0
 30
0.0
 40
6.0
  1
名　称
100
AcDbText
  0
TEXT
  5
5A6
330
25
100
AcDbEntity
  8
20
100
AcDbText
 10
125.888864588288
 20
-252.940506
 30
0.0
 40
4.599999999999997
  1
TOMOE VALVE Co., LTD.
100
AcDbText
  0
TEXT
  5
5A7
330
25
100
AcDbEntity
  8
20
100
AcDbText
 10
129.94482043894
 20
-266.57962
 30
0.0
 40
8.0
  1
巴バルブ株式会社
100
AcDbText
  0
CIRCLE
  5
9BD
330
25
100
AcDbEntity
  8
1
100
AcDbCircle
 10
-230.841921
 20
-141.541323
 30
0.0
 40
52.0
  0
CIRCLE
  5
9BE
330
25
100
AcDbEntity
  8
1
100
AcDbCircle
 10
-230.841921
 20
-141.541323
 30
0.0
 40
56.0
  0
LINE
  5
9BF
330
25
100
AcDbEntity
  8
13
100
AcDbLine
 10
-190.658508
 20
-118.568318
 30
0.0
 11
-212.956987
 21
-116.684154
 31
0.0
  0
ARC
  5
9C0
330
25
100
AcDbEntity
  8
13
100
AcDbCircle
 10
-190.742706
 20
-119.564767
 30
0.0
 40
1.0
100
AcDbArc
 50
28.72514199999346
 51
85.17012699999821
  0
ARC
  5
9C1
330
25
100
AcDbEntity
  8
13
100
AcDbCircle
 10
-230.841921
 20
-141.541323
 30
0.0
 40
46.72653599999999
100
AcDbArc
 50
24.36665299999584
 51
28.72514199999346
  0
ARC
  5
9C2
330
25
100
AcDbEntity
  8
13
100
AcDbCircle
 10
-189.1885249999999
 20
-122.675728
 30
0.0
 40
1.0
100
AcDbArc
 50
264.8298729999983
 51
24.36665299999584
  0
LINE
  5
9C3
330
25
100
AcDbEntity
  8
13
100
AcDbLine
 10
-189.2786389999999
 20
-123.671659
 30
0.0
 11
-235.7339539999999
 21
-119.468315
 31
0.0
  0
LINE
  5
9C4
330
25
100
AcDbEntity
  8
13
100
AcDbLine
 10
-242.7085749999999
 20
-144.488403
 30
0.0
 11
-237.409637
 21
-143.445562
 31
0.0
  0
ARC
  5
9C5
330
25
100
AcDbEntity
  8
13
100
AcDbCircle
 10
-230.841921
 20
-143.341323
 30
0.0
 40
51.74
100
AcDbArc
 50
105.5341069999992
 51
126.2676820000066
  0
ARC
  5
9C6
330
25
100
AcDbEntity
  8
13
100
AcDbCircle
 10
-230.841921
 20
-141.541323
 30
0.0
 40
50.3
100
AcDbArc
 50
127.4806720000023
 51
232.5193279999977
  0
LINE
  5
9C7
330
25
100
AcDbEntity
  8
13
100
AcDbLine
 10
-244.698512
 20
-93.49132300000006
 30
0.0
 11
-216.9853309999999
 21
-93.49132300000006
 31
0.0
  0
ARC
  5
9C8
330
25
100
AcDbEntity
  8
13
100
AcDbCircle
 10
-230.841921
 20
-141.541323
 30
0.0
 40
50.3
100
AcDbArc
 50
307.4806720000023
 51
52.51932799999771
  0
ARC
  5
9C9
330
25
100
AcDbEntity
  8
13
100
AcDbCircle
 10
-230.841921
 20
-143.341323
 30
0.0
 40
51.74
100
AcDbArc
 50
53.73231799999338
 51
74.46589300000077
  0
ARC
  5
9CA
330
25
100
AcDbEntity
  8
13
100
AcDbCircle
 10
-242.8348100000001
 20
-139.489799
 30
0.0
 40
1.0
100
AcDbArc
 50
83.66303399999832
 51
180.0
  0
ARC
  5
9CB
330
25
100
AcDbEntity
  8
13
100
AcDbCircle
 10
-242.8348100000001
 20
-143.592848
 30
0.0
 40
1.0
100
AcDbArc
 50
180.0
 51
276.3369790000022
  0
LINE
  5
9CC
330
25
100
AcDbEntity
  8
13
100
AcDbLine
 10
-242.7085749999999
 20
-138.594243
 30
0.0
 11
-237.409637
 21
-139.637085
 31
0.0
  0
LINE
  5
9CD
330
25
100
AcDbEntity
  8
13
100
AcDbLine
 10
-219.5260319999999
 20
-98.45339700000003
 30
0.0
 11
-215.4894219999999
 21
-97.44385600000001
 31
0.0
  0
LINE
  5
9CE
330
25
100
AcDbEntity
  8
13
100
AcDbLine
 10
-214.5570999999999
 20
-97.21068600000002
 30
0.0
 11
-215.4894219999999
 21
-97.44385600000001
 31
0.0
  0
LINE
  5
9CF
330
25
100
AcDbEntity
  8
13
100
AcDbLine
 10
-223.341921
 20
-143.450804
 30
0.0
 11
-227.3804889999999
 21
-143.450804
 31
0.0
  0
ARC
  5
9D0
330
25
100
AcDbEntity
  8
13
100
AcDbCircle
 10
-236.427708
 20
-142.449117
 30
0.0
 40
1.0
100
AcDbArc
 50
180.0
 51
270.0
  0
LINE
  5
9D1
330
25
100
AcDbEntity
  8
13
100
AcDbLine
 10
-230.841921
 20
-143.901323
 30
0.0
 11
-236.7094309999999
 21
-143.918745
 31
0.0
  0
ARC
  5
9D2
330
25
100
AcDbEntity
  8
13
100
AcDbCircle
 10
-228.39673
 20
-142.949117
 30
0.0
 40
0.5
100
AcDbArc
 50
270.0
 51
0.0
  0
ARC
  5
9D3
330
25
100
AcDbEntity
  8
13
100
AcDbCircle
 10
-227.1098699999999
 20
-144.912409
 30
0.0
 40
1.0
100
AcDbArc
 50
89.82987300000202
 51
180.0
  0
ARC
  5
9D4
330
25
100
AcDbEntity
  8
13
100
AcDbCircle
 10
-224.4758959999999
 20
-144.92023
 30
0.0
 40
1.0
100
AcDbArc
 50
89.82987300000202
 51
180.0
  0
ARC
  5
9D5
330
25
100
AcDbEntity
  8
13
100
AcDbCircle
 10
-234.573972
 20
-144.90879
 30
0.0
 40
1.0
100
AcDbArc
 50
0.0
 51
85.29432199999524
  0
ARC
  5
9D6
330
25
100
AcDbEntity
  8
13
100
AcDbCircle
 10
-237.2079469999999
 20
-144.980255
 30
0.0
 40
1.0
100
AcDbArc
 50
0.0
 51
96.33697900000221
  0
LINE
  5
9D7
330
25
100
AcDbEntity
  8
13
100
AcDbLine
 10
-236.7094309999999
 20
-143.918745
 30
0.0
 11
-242.724434
 21
-144.586737
 31
0.0
  0
LINE
  5
9D8
330
25
100
AcDbEntity
  8
13
100
AcDbLine
 10
-236.7094309999999
 20
-139.1639
 30
0.0
 11
-242.724434
 21
-138.495909
 31
0.0
  0
ARC
  5
9D9
330
25
100
AcDbEntity
  8
13
100
AcDbCircle
 10
-237.2079469999999
 20
-138.10239
 30
0.0
 40
1.0
100
AcDbArc
 50
263.663025000004
 51
0.0
  0
ARC
  5
9DA
330
25
100
AcDbEntity
  8
13
100
AcDbCircle
 10
-234.573972
 20
-138.173855
 30
0.0
 40
1.0
100
AcDbArc
 50
274.7054230000062
 51
0.0
  0
LINE
  5
9DB
330
25
100
AcDbEntity
  8
13
100
AcDbLine
 10
-185.1428229999999
 20
-139.045629
 30
0.0
 11
-230.841921
 21
-139.181323
 31
0.0
  0
ARC
  5
9DC
330
25
100
AcDbEntity
  8
13
100
AcDbCircle
 10
-227.1098699999999
 20
-138.170237
 30
0.0
 40
1.0
100
AcDbArc
 50
180.0
 51
270.170126999998
  0
ARC
  5
9DD
330
25
100
AcDbEntity
  8
13
100
AcDbCircle
 10
-221.1235149999999
 20
-96.791323
 30
0.0
 40
2.0
100
AcDbArc
 50
270.0
 51
0.0
  0
ARC
  5
9DE
330
25
100
AcDbEntity
  8
13
100
AcDbCircle
 10
-219.2834079999999
 20
-99.423518
 30
0.0
 40
1.0
100
AcDbArc
 50
104.041435999997
 51
180.0
  0
LINE
  5
9DF
330
25
100
AcDbEntity
  8
13
100
AcDbLine
 10
-240.5603269999999
 20
-98.79132300000001
 30
0.0
 11
-221.1235149999999
 21
-98.79132300000001
 31
0.0
  0
ARC
  5
9E0
330
25
100
AcDbEntity
  8
13
100
AcDbCircle
 10
-238.427708
 20
-99.79132300000001
 30
0.0
 40
1.0
100
AcDbArc
 50
0.0
 51
90.0
  0
ARC
  5
9E1
330
25
100
AcDbEntity
  8
13
100
AcDbCircle
 10
-224.4758959999999
 20
-121.491045
 30
0.0
 40
1.0
100
AcDbArc
 50
84.82987299999829
 51
180.0
  0
ARC
  5
9E2
330
25
100
AcDbEntity
  8
13
100
AcDbCircle
 10
-227.1098699999999
 20
-121.252719
 30
0.0
 40
1.0
100
AcDbArc
 50
84.82987299999829
 51
180.0
  0
ARC
  5
9E3
330
25
100
AcDbEntity
  8
13
100
AcDbCircle
 10
-235.0130469999999
 20
-111.500863
 30
0.0
 40
8.0
100
AcDbArc
 50
180.0
 51
264.8298729999983
  0
ARC
  5
9E4
330
25
100
AcDbEntity
  8
13
100
AcDbCircle
 10
-237.2079469999999
 20
-120.229117
 30
0.0
 40
1.0
100
AcDbArc
 50
0.0
 51
75.88448199999877
  0
ARC
  5
9E5
330
25
100
AcDbEntity
  8
13
100
AcDbCircle
 10
-234.573972
 20
-120.577357
 30
0.0
 40
1.0
100
AcDbArc
 50
0.0
 51
84.82987299999829
  0
ARC
  5
9E6
330
25
100
AcDbEntity
  8
13
100
AcDbCircle
 10
-229.427708
 20
-111.549573
 30
0.0
 40
8.0
100
AcDbArc
 50
180.0
 51
265.0000000000003
  0
LINE
  5
9E7
330
25
100
AcDbEntity
  8
13
100
AcDbLine
 10
-220.2834079999999
 20
-99.423518
 30
0.0
 11
-220.2834079999999
 21
-108.712561
 31
0.0
  0
LINE
  5
9E8
330
25
100
AcDbEntity
  8
13
100
AcDbLine
 10
-237.427708
 20
-99.79132300000001
 30
0.0
 11
-237.427708
 21
-111.549573
 31
0.0
  0
LINE
  5
9E9
330
25
100
AcDbEntity
  8
13
100
AcDbLine
 10
-243.0130469999999
 20
-99.45496400000003
 30
0.0
 11
-243.0130469999999
 21
-111.500863
 31
0.0
  0
ARC
  5
9EA
330
25
100
AcDbEntity
  8
13
100
AcDbCircle
 10
-230.841921
 20
-141.541323
 30
0.0
 40
46.72653599999999
100
AcDbArc
 50
358.1255420000005
 51
1.87445799999954
  0
ARC
  5
9EB
330
25
100
AcDbEntity
  8
13
100
AcDbCircle
 10
-191.2702870000001
 20
-121.914654
 30
0.0
 40
1.0
100
AcDbArc
 50
265.0000000000003
 51
26.38040999998889
  0
ARC
  5
9EC
330
25
100
AcDbEntity
  8
13
100
AcDbCircle
 10
-230.841921
 20
-141.541323
 30
0.0
 40
45.171488
100
AcDbArc
 50
26.38040999998889
 51
29.18182200000859
  0
ARC
  5
9ED
330
25
100
AcDbEntity
  8
13
100
AcDbCircle
 10
-192.2768189999999
 20
-120.00407
 30
0.0
 40
1.0
100
AcDbArc
 50
29.18182200000859
 51
85.00000000000026
  0
LINE
  5
9EE
330
25
100
AcDbEntity
  8
13
100
AcDbLine
 10
-192.1896629999999
 20
-119.007875
 30
0.0
 11
-220.5939749999999
 21
-116.52282
 31
0.0
  0
LINE
  5
9EF
330
25
100
AcDbEntity
  8
13
100
AcDbLine
 10
-191.3574429999999
 20
-122.910849
 30
0.0
 11
-230.1249539999999
 21
-119.519131
 31
0.0
  0
LINE
  5
9F0
330
25
100
AcDbEntity
  8
13
100
AcDbLine
 10
-243.8348099999998
 20
-143.592848
 30
0.0
 11
-243.8348099999998
 21
-139.489799
 31
0.0
  0
ARC
  5
9F1
330
25
100
AcDbEntity
  8
13
100
AcDbCircle
 10
-236.427708
 20
-142.449117
 30
0.0
 40
1.0
100
AcDbArc
 50
180.0
 51
270.0
  0
ARC
  5
9F2
330
25
100
AcDbEntity
  8
13
100
AcDbCircle
 10
-186.679762
 20
-142.449117
 30
0.0
 40
1.0
100
AcDbArc
 50
270.0
 51
358.8223979999997
  0
ARC
  5
9F3
330
25
100
AcDbEntity
  8
13
100
AcDbCircle
 10
-185.139854
 20
-143.037021
 30
0.0
 40
1.0
100
AcDbArc
 50
269.829873000002
 51
358.1255420000005
  0
LINE
  5
9F4
330
25
100
AcDbEntity
  8
13
100
AcDbLine
 10
-185.1428229999999
 20
-144.037016
 30
0.0
 11
-230.841921
 21
-143.901323
 31
0.0
  0
LINE
  5
9F5
330
25
100
AcDbEntity
  8
13
100
AcDbLine
 10
-186.679762
 20
-143.449117
 30
0.0
 11
-236.427708
 21
-143.449117
 31
0.0
  0
LINE
  5
9F6
330
25
100
AcDbEntity
  8
13
100
AcDbLine
 10
-186.679762
 20
-139.633528
 30
0.0
 11
-236.427708
 21
-139.633528
 31
0.0
  0
ARC
  5
9F7
330
25
100
AcDbEntity
  8
13
100
AcDbCircle
 10
-228.39673
 20
-140.133528
 30
0.0
 40
0.5
100
AcDbArc
 50
0.0
 51
90.0
  0
LINE
  5
9F8
330
25
100
AcDbEntity
  8
13
100
AcDbLine
 10
-230.841921
 20
-139.181323
 30
0.0
 11
-236.7094309999999
 21
-139.1639
 31
0.0
  0
ARC
  5
9F9
330
25
100
AcDbEntity
  8
13
100
AcDbCircle
 10
-236.427708
 20
-140.633528
 30
0.0
 40
1.0
100
AcDbArc
 50
90.0
 51
180.0
  0
ARC
  5
9FA
330
25
100
AcDbEntity
  8
13
100
AcDbCircle
 10
-185.139854
 20
-140.045625
 30
0.0
 40
1.0
100
AcDbArc
 50
1.87445799999954
 51
90.17012699999797
  0
ARC
  5
9FB
330
25
100
AcDbEntity
  8
13
100
AcDbCircle
 10
-186.679762
 20
-140.633528
 30
0.0
 40
1.0
100
AcDbArc
 50
1.177602000000258
 51
90.0
  0
ARC
  5
9FC
330
25
100
AcDbEntity
  8
13
100
AcDbCircle
 10
-230.841921
 20
-141.541323
 30
0.0
 40
45.171488
100
AcDbArc
 50
358.8223979999997
 51
1.177602000000258
  0
LINE
  5
9FD
330
25
100
AcDbEntity
  8
13
100
AcDbLine
 10
-227.89673
 20
-142.949117
 30
0.0
 11
-227.89673
 21
-140.133528
 31
0.0
  0
LINE
  5
9FE
330
25
100
AcDbEntity
  8
13
100
AcDbLine
 10
-237.427708
 20
-142.400194
 30
0.0
 11
-237.427708
 21
-140.633528
 31
0.0
  0
LINE
  5
9FF
330
25
100
AcDbEntity
  8
13
100
AcDbLine
 10
-236.2079469999999
 20
-144.980255
 30
0.0
 11
-236.2079469999999
 21
-162.853529
 31
0.0
  0
LINE
  5
A00
330
25
100
AcDbEntity
  8
13
100
AcDbLine
 10
-233.5739719999999
 20
-144.90879
 30
0.0
 11
-233.5739719999999
 21
-162.505288
 31
0.0
  0
LINE
  5
A01
330
25
100
AcDbEntity
  8
13
100
AcDbLine
 10
-228.1098699999999
 20
-144.912409
 30
0.0
 11
-228.1098699999999
 21
-161.829975
 31
0.0
  0
LINE
  5
A02
330
25
100
AcDbEntity
  8
13
100
AcDbLine
 10
-225.475896
 20
-144.92023
 30
0.0
 11
-225.475896
 21
-161.591649
 31
0.0
  0
LINE
  5
A03
330
25
100
AcDbEntity
  8
13
100
AcDbLine
 10
-233.5739719999999
 20
-138.173855
 30
0.0
 11
-233.5739719999999
 21
-120.577357
 31
0.0
  0
LINE
  5
A04
330
25
100
AcDbEntity
  8
13
100
AcDbLine
 10
-236.2079469999999
 20
-138.10239
 30
0.0
 11
-236.2079469999999
 21
-120.229117
 31
0.0
  0
LINE
  5
A05
330
25
100
AcDbEntity
  8
13
100
AcDbLine
 10
-225.475896
 20
-138.162416
 30
0.0
 11
-225.475896
 21
-121.491045
 31
0.0
  0
LINE
  5
A06
330
25
100
AcDbEntity
  8
13
100
AcDbLine
 10
-228.1098699999999
 20
-138.170237
 30
0.0
 11
-228.1098699999999
 21
-121.252719
 31
0.0
  0
LINE
  5
A07
330
25
100
AcDbEntity
  8
13
100
AcDbLine
 10
-223.341921
 20
-139.631841
 30
0.0
 11
-227.3804889999999
 21
-139.631841
 31
0.0
  0
ARC
  5
A08
330
25
100
AcDbEntity
  8
13
100
AcDbCircle
 10
-212.0095529999999
 20
-107.396951
 30
0.0
 40
10.5
100
AcDbArc
 50
61.12101499999598
 51
104.041435999997
  0
LINE
  5
A09
330
25
100
AcDbEntity
  8
13
100
AcDbLine
 10
-219.1235149999999
 20
-93.830711
 30
0.0
 11
-219.1235149999999
 21
-96.791323
 31
0.0
  0
ARC
  5
A0A
330
25
100
AcDbEntity
  8
13
100
AcDbCircle
 10
-227.67465
 20
-53.67042600000001
 30
0.0
 40
46.18619299999997
100
AcDbArc
 50
258.1142189999961
 51
277.382098000001
  0
LINE
  5
A0B
330
25
100
AcDbEntity
  8
13
100
AcDbLine
 10
-247.126743
 20
-97.21068600000002
 30
0.0
 11
-241.0455739999999
 21
-98.73156399999999
 31
0.0
  0
LINE
  5
A0C
330
25
100
AcDbEntity
  8
13
100
AcDbLine
 10
-242.5603269999999
 20
-93.830711
 30
0.0
 11
-242.5603269999999
 21
-96.791323
 31
0.0
  0
ARC
  5
A0D
330
25
100
AcDbEntity
  8
13
100
AcDbCircle
 10
-249.67429
 20
-107.396951
 30
0.0
 40
10.5
100
AcDbArc
 50
75.95856400000293
 51
118.878985000004
  0
ARC
  5
A0E
330
25
100
AcDbEntity
  8
13
100
AcDbCircle
 10
-240.5603269999999
 20
-96.791323
 30
0.0
 40
2.0
100
AcDbArc
 50
180.0
 51
270.0
  0
LINE
  5
A0F
330
25
100
AcDbEntity
  8
13
100
AcDbLine
 10
-221.1235149999999
 20
-96.93662200000003
 30
0.0
 11
-240.5603269999999
 21
-96.93662200000003
 31
0.0
  0
LINE
  5
A10
330
25
100
AcDbEntity
  8
13
100
AcDbLine
 10
-191.5496229999999
 20
-119.020449
 30
0.0
 11
-190.677299
 21
-118.770653
 31
0.0
  0
LINE
  5
A11
330
25
100
AcDbEntity
  8
13
100
AcDbLine
 10
-190.2637560000001
 20
-122.82112
 30
0.0
 11
-188.814085
 21
-123.367435
 31
0.0
  0
LINE
  5
A12
330
25
100
AcDbEntity
  8
13
100
AcDbLine
 10
-185.8234869999999
 20
-143.405541
 30
0.0
 11
-184.8161210000001
 21
-143.794877
 31
0.0
  0
LINE
  5
A13
330
25
100
AcDbEntity
  8
13
100
AcDbLine
 10
-185.8234869999999
 20
-139.677106
 30
0.0
 11
-184.8161210000001
 21
-139.287769
 31
0.0
  0
ARC
  5
A14
330
25
100
AcDbEntity
  8
13
100
AcDbCircle
 10
-224.4758959999999
 20
-138.162416
 30
0.0
 40
1.0
100
AcDbArc
 50
180.0
 51
270.170126999998
  0
ARC
  5
A15
330
25
100
AcDbEntity
  8
13
100
AcDbCircle
 10
-219.89673
 20
-108.553262
 30
0.0
 40
8.0
100
AcDbArc
 50
180.0
 51
265.0000000000003
  0
ARC
  5
A16
330
25
100
AcDbEntity
  8
13
100
AcDbCircle
 10
-212.2834079999999
 20
-108.712561
 30
0.0
 40
8.0
100
AcDbArc
 50
180.0
 51
265.1701269999982
  0
POINT
  5
A17
330
25
100
AcDbEntity
  8
13
 62
     2
370
    13
100
AcDbPoint
 10
-230.841921
 20
-141.541323
 30
0.0
  0
ARC
  5
A18
330
25
100
AcDbEntity
  8
13
100
AcDbCircle
 10
-230.841921
 20
-139.741323
 30
0.0
 40
51.74
100
AcDbArc
 50
285.5341069999992
 51
306.2676820000066
  0
LINE
  5
A19
330
25
100
AcDbEntity
  8
13
100
AcDbLine
 10
-244.698512
 20
-189.591323
 30
0.0
 11
-216.9853309999999
 21
-189.591323
 31
0.0
  0
ARC
  5
A1A
330
25
100
AcDbEntity
  8
13
100
AcDbCircle
 10
-230.841921
 20
-139.741323
 30
0.0
 40
51.74
100
AcDbArc
 50
233.7323179999934
 51
254.4658930000008
  0
LINE
  5
A1B
330
25
100
AcDbEntity
  8
13
100
AcDbLine
 10
-214.5570999999999
 20
-185.871959
 30
0.0
 11
-215.4894219999999
 21
-185.638789
 31
0.0
  0
LINE
  5
A1C
330
25
100
AcDbEntity
  8
13
100
AcDbLine
 10
-219.5260319999999
 20
-184.629248
 30
0.0
 11
-215.4894219999999
 21
-185.638789
 31
0.0
  0
LINE
  5
A1D
330
25
100
AcDbEntity
  8
13
100
AcDbLine
 10
-221.1235149999999
 20
-186.146023
 30
0.0
 11
-240.5603269999999
 21
-186.146023
 31
0.0
  0
ARC
  5
A1E
330
25
100
AcDbEntity
  8
13
100
AcDbCircle
 10
-240.5603269999999
 20
-186.291323
 30
0.0
 40
2.0
100
AcDbArc
 50
90.0
 51
180.0
  0
ARC
  5
A1F
330
25
100
AcDbEntity
  8
13
100
AcDbCircle
 10
-249.67429
 20
-175.685694
 30
0.0
 40
10.5
100
AcDbArc
 50
241.121014999996
 51
284.0414359999971
  0
LINE
  5
A20
330
25
100
AcDbEntity
  8
13
100
AcDbLine
 10
-242.5603269999999
 20
-189.251935
 30
0.0
 11
-242.5603269999999
 21
-186.291323
 31
0.0
  0
LINE
  5
A21
330
25
100
AcDbEntity
  8
13
100
AcDbLine
 10
-247.126743
 20
-185.871959
 30
0.0
 11
-241.0455739999999
 21
-184.351082
 31
0.0
  0
ARC
  5
A22
330
25
100
AcDbEntity
  8
13
100
AcDbCircle
 10
-227.710697
 20
-228.495519
 30
0.0
 40
45.28198399999999
100
AcDbArc
 50
82.42363799999642
 51
102.0800460000012
  0
LINE
  5
A23
330
25
100
AcDbEntity
  8
13
100
AcDbLine
 10
-219.1235149999999
 20
-189.251935
 30
0.0
 11
-219.1235149999999
 21
-186.291323
 31
0.0
  0
ARC
  5
A24
330
25
100
AcDbEntity
  8
13
100
AcDbCircle
 10
-212.0095529999999
 20
-175.685694
 30
0.0
 40
10.5
100
AcDbArc
 50
255.9585640000029
 51
298.878985000004
  0
ARC
  5
A25
330
25
100
AcDbEntity
  8
13
100
AcDbCircle
 10
-230.841921
 20
-141.541323
 30
0.0
 40
46.72653599999999
100
AcDbArc
 50
331.2748580000065
 51
335.6333470000042
  0
LINE
  5
A26
330
25
100
AcDbEntity
  8
13
100
AcDbLine
 10
-191.3574429999999
 20
-160.171797
 30
0.0
 11
-230.1249539999999
 21
-163.563514
 31
0.0
  0
LINE
  5
A27
330
25
100
AcDbEntity
  8
13
100
AcDbLine
 10
-192.1896629999999
 20
-164.07477
 30
0.0
 11
-220.5939749999999
 21
-166.559826
 31
0.0
  0
LINE
  5
A28
330
25
100
AcDbEntity
  8
13
100
AcDbLine
 10
-190.658508
 20
-164.514327
 30
0.0
 11
-212.956987
 21
-166.398491
 31
0.0
  0
ARC
  5
A29
330
25
100
AcDbEntity
  8
13
100
AcDbCircle
 10
-192.2768189999999
 20
-163.078575
 30
0.0
 40
1.0
100
AcDbArc
 50
274.9999999999997
 51
330.8181779999914
  0
ARC
  5
A2A
330
25
100
AcDbEntity
  8
13
100
AcDbCircle
 10
-230.841921
 20
-141.541323
 30
0.0
 40
45.171488
100
AcDbArc
 50
330.8181779999914
 51
333.6195900000111
  0
ARC
  5
A2B
330
25
100
AcDbEntity
  8
13
100
AcDbCircle
 10
-191.2702870000001
 20
-161.167991
 30
0.0
 40
1.0
100
AcDbArc
 50
333.6195900000111
 51
94.99999999999975
  0
ARC
  5
A2C
330
25
100
AcDbEntity
  8
13
100
AcDbCircle
 10
-190.742706
 20
-163.517878
 30
0.0
 40
1.0
100
AcDbArc
 50
274.8298730000018
 51
331.2748580000065
  0
ARC
  5
A2D
330
25
100
AcDbEntity
  8
13
100
AcDbCircle
 10
-189.1885249999999
 20
-160.406918
 30
0.0
 40
1.0
100
AcDbArc
 50
335.6333470000042
 51
95.1701270000017
  0
LINE
  5
A2E
330
25
100
AcDbEntity
  8
13
100
AcDbLine
 10
-243.0130469999999
 20
-183.627681
 30
0.0
 11
-243.0130469999999
 21
-171.581783
 31
0.0
  0
LINE
  5
A2F
330
25
100
AcDbEntity
  8
13
100
AcDbLine
 10
-237.427708
 20
-183.291323
 30
0.0
 11
-237.427708
 21
-171.533072
 31
0.0
  0
LINE
  5
A30
330
25
100
AcDbEntity
  8
13
100
AcDbLine
 10
-220.2834079999999
 20
-183.6591269999999
 30
0.0
 11
-220.2834079999999
 21
-174.370084
 31
0.0
  0
ARC
  5
A31
330
25
100
AcDbEntity
  8
13
100
AcDbCircle
 10
-229.427708
 20
-171.533072
 30
0.0
 40
8.0
100
AcDbArc
 50
94.99999999999975
 51
180.0
  0
ARC
  5
A32
330
25
100
AcDbEntity
  8
13
100
AcDbCircle
 10
-234.573972
 20
-162.505288
 30
0.0
 40
1.0
100
AcDbArc
 50
275.1701270000017
 51
0.0
  0
ARC
  5
A33
330
25
100
AcDbEntity
  8
13
100
AcDbCircle
 10
-237.2079469999999
 20
-162.853529
 30
0.0
 40
1.0
100
AcDbArc
 50
284.1155180000013
 51
0.0
  0
ARC
  5
A34
330
25
100
AcDbEntity
  8
13
100
AcDbCircle
 10
-235.0130469999999
 20
-171.581783
 30
0.0
 40
8.0
100
AcDbArc
 50
95.1701270000017
 51
180.0
  0
ARC
  5
A35
330
25
100
AcDbEntity
  8
13
100
AcDbCircle
 10
-227.1098699999999
 20
-161.829926
 30
0.0
 40
1.0
100
AcDbArc
 50
180.0
 51
275.1701270000017
  0
ARC
  5
A36
330
25
100
AcDbEntity
  8
13
100
AcDbCircle
 10
-224.4758959999999
 20
-161.5916
 30
0.0
 40
1.0
100
AcDbArc
 50
180.0
 51
275.1701270000017
  0
LINE
  5
A37
330
25
100
AcDbEntity
  8
13
100
AcDbLine
 10
-189.2786389999999
 20
-159.410986
 30
0.0
 11
-235.7339539999999
 21
-163.61433
 31
0.0
  0
ARC
  5
A38
330
25
100
AcDbEntity
  8
13
100
AcDbCircle
 10
-238.427708
 20
-183.291323
 30
0.0
 40
1.0
100
AcDbArc
 50
270.0
 51
0.0
  0
LINE
  5
A39
330
25
100
AcDbEntity
  8
13
100
AcDbLine
 10
-240.5603269999999
 20
-184.291323
 30
0.0
 11
-221.1235149999999
 21
-184.291323
 31
0.0
  0
ARC
  5
A3A
330
25
100
AcDbEntity
  8
13
100
AcDbCircle
 10
-219.2834079999999
 20
-183.6591269999999
 30
0.0
 40
1.0
100
AcDbArc
 50
180.0
 51
255.9585640000029
  0
ARC
  5
A3B
330
25
100
AcDbEntity
  8
13
100
AcDbCircle
 10
-221.1235149999999
 20
-186.291323
 30
0.0
 40
2.0
100
AcDbArc
 50
0.0
 51
90.0
  0
LINE
  5
A3C
330
25
100
AcDbEntity
  8
13
100
AcDbLine
 10
-190.2637560000001
 20
-160.261527
 30
0.0
 11
-188.814085
 21
-159.715211
 31
0.0
  0
LINE
  5
A3D
330
25
100
AcDbEntity
  8
13
100
AcDbLine
 10
-191.5496229999999
 20
-164.062197
 30
0.0
 11
-190.677299
 21
-164.311993
 31
0.0
  0
ARC
  5
A3E
330
25
100
AcDbEntity
  8
13
100
AcDbCircle
 10
-219.89673
 20
-174.529383
 30
0.0
 40
8.0
100
AcDbArc
 50
94.99999999999975
 51
180.0
  0
ARC
  5
A3F
330
25
100
AcDbEntity
  8
13
100
AcDbCircle
 10
-212.2834079999999
 20
-174.370084
 30
0.0
 40
8.0
100
AcDbArc
 50
94.8298730000018
 51
180.0
  0
ENDSEC
  0
SECTION
  2
OBJECTS
  0
DICTIONARY
  5
5FA
330
0
100
AcDbDictionary
281
     1
  3
ACAD_2007HEADERVARS_RT
350
A54
  3
ACAD_COLOR
350
631
  3
ACAD_GROUP
350
5FB
  3
ACAD_LAYOUT
350
659
  3
ACAD_MATERIAL
350
607
  3
ACAD_MLEADERSTYLE
350
656
  3
ACAD_MLINESTYLE
350
5FC
  3
ACAD_PLOTSETTINGS
350
65A
  3
ACAD_PLOTSTYLENAME
350
605
  3
ACAD_SCALELIST
350
634
  3
ACAD_TABLESTYLE
350
632
  3
ACAD_VISUALSTYLE
350
620
  3
ACDB_RECOMPOSE_DATA
350
674
  3
AcDbVariableDictionary
350
66B
  3
DWGPROPS
350
A53
  0
DICTIONARY
  5
692
330
1
100
AcDbDictionary
280
     1
281
     1
  3
ACAD_LAYERSTATES
360
693
  0
DICTIONARY
  5
65F
330
15
100
AcDbDictionary
280
     1
281
     1
  3
ADSK_XREC_LAYER_RECONCILED
360
660
  0
DICTIONARY
  5
661
330
16
100
AcDbDictionary
280
     1
281
     1
  3
ADSK_XREC_LAYER_RECONCILED
360
662
  0
DICTIONARY
  5
663
330
17
100
AcDbDictionary
280
     1
281
     1
  3
ADSK_XREC_LAYER_RECONCILED
360
664
  0
DICTIONARY
  5
665
330
18
100
AcDbDictionary
280
     1
281
     1
  3
ADSK_XREC_LAYER_RECONCILED
360
666
  0
DICTIONARY
  5
667
330
19
100
AcDbDictionary
280
     1
281
     1
  3
ADSK_XREC_LAYER_RECONCILED
360
668
  0
DICTIONARY
  5
669
330
1A
100
AcDbDictionary
280
     1
281
     1
  3
ADSK_XREC_LAYER_RECONCILED
360
66A
  0
DICTIONARY
  5
792
330
791
100
AcDbDictionary
280
     1
281
     1
  0
DICTIONARY
  5
A54
102
{ACAD_REACTORS
330
5FA
102
}
330
5FA
100
AcDbDictionary
281
     1
  3
DIMJOGANG
350
A55
  0
DICTIONARY
  5
631
102
{ACAD_REACTORS
330
5FA
102
}
330
5FA
100
AcDbDictionary
281
     1
  0
DICTIONARY
  5
5FB
102
{ACAD_REACTORS
330
5FA
102
}
330
5FA
100
AcDbDictionary
281
     1
  0
DICTIONARY
  5
659
102
{ACAD_REACTORS
330
5FA
102
}
330
5FA
100
AcDbDictionary
281
     1
  3
Model
350
65B
  3
レイアウト1
350
65C
  0
DICTIONARY
  5
607
102
{ACAD_REACTORS
330
5FA
102
}
330
5FA
100
AcDbDictionary
281
     1
  3
ByBlock
350
610
  3
ByLayer
350
608
  3
Global
350
618
  0
DICTIONARY
  5
656
102
{ACAD_REACTORS
330
5FA
102
}
330
5FA
100
AcDbDictionary
281
     1
  3
Standard
350
657
  0
DICTIONARY
  5
5FC
102
{ACAD_REACTORS
330
5FA
102
}
330
5FA
100
AcDbDictionary
281
     1
  3
STANDARD
350
5FD
  0
DICTIONARY
  5
65A
102
{ACAD_REACTORS
330
5FA
102
}
330
5FA
100
AcDbDictionary
281
     1
  0
ACDBDICTIONARYWDFLT
  5
605
102
{ACAD_REACTORS
330
5FA
102
}
330
5FA
100
AcDbDictionary
281
     1
  3
Normal
350
606
  3
Solid
350
690
  3
Style_1
350
691
100
AcDbDictionaryWithDefault
340
606
  0
DICTIONARY
  5
634
102
{ACAD_REACTORS
330
5FA
102
}
330
5FA
100
AcDbDictionary
281
     1
  3
A0
350
635
  3
A1
350
636
  3
A2
350
637
  3
A3
350
638
  3
A4
350
639
  3
A5
350
63A
  3
A6
350
63B
  3
A7
350
63C
  3
A8
350
63D
  3
A9
350
63E
  3
B0
350
63F
  3
B1
350
640
  3
B2
350
641
  3
B3
350
642
  3
B4
350
643
  3
B5
350
644
  3
B6
350
645
  3
B7
350
646
  3
B8
350
647
  3
B9
350
648
  3
C0
350
649
  3
C1
350
64A
  3
C2
350
64B
  3
C3
350
64C
  3
C4
350
64D
  3
C5
350
64E
  3
C6
350
64F
  3
C7
350
650
  3
C8
350
651
  3
C9
350
652
  3
D0
350
653
  3
D1
350
654
  3
D2
350
655
  0
DICTIONARY
  5
632
102
{ACAD_REACTORS
330
5FA
102
}
330
5FA
100
AcDbDictionary
281
     1
  3
Standard
350
633
  0
DICTIONARY
  5
620
102
{ACAD_REACTORS
330
5FA
102
}
330
5FA
100
AcDbDictionary
281
     1
  3
2dWireframe
350
626
  3
3D Hidden
350
628
  3
3dWireframe
350
627
  3
Basic
350
625
  3
Brighten
350
62C
  3
ColorChange
350
630
  3
Conceptual
350
629
  3
Dim
350
62B
  3
Facepattern
350
62F
  3
Flat
350
621
  3
FlatWithEdges
350
622
  3
Gouraud
350
623
  3
GouraudWithEdges
350
624
  3
Linepattern
350
62E
  3
Realistic
350
62A
  3
Thicken
350
62D
  0
XRECORD
  5
674
102
{ACAD_REACTORS
330
5FA
102
}
330
5FA
100
AcDbXrecord
280
     1
 90
        1
330
633
  0
DICTIONARY
  5
66B
102
{ACAD_REACTORS
330
5FA
102
}
330
5FA
100
AcDbDictionary
281
     1
  3
CANNOSCALE
350
66E
  3
CMLEADERSTYLE
350
66D
  3
CTABLESTYLE
350
66C
  3
DIMASSOC
350
671
  3
INDEXCTL
350
670
  3
SORTENTS
350
66F
  0
XRECORD
  5
A53
102
{ACAD_REACTORS
330
5FA
102
}
330
5FA
100
AcDbXrecord
280
     1
  1
DWGPROPS COOKIE
  2

  3

  4

  6

  7

  8
miyazaki-tomoko
  9

300
=
301
=
302
=
303
=
304
=
305
=
306
=
307
=
308
=
309
=
 40
0.0163936226851852
 41
2450695.0
 42
2456181.403161817
  1

 90
        0
  0
DICTIONARY
  5
693
102
{ACAD_REACTORS
330
692
102
}
330
692
100
AcDbDictionary
281
     1
  0
XRECORD
  5
660
102
{ACAD_REACTORS
330
65F
102
}
330
65F
100
AcDbXrecord
280
     1
290
     1
  0
XRECORD
  5
662
102
{ACAD_REACTORS
330
661
102
}
330
661
100
AcDbXrecord
280
     1
290
     1
  0
XRECORD
  5
664
102
{ACAD_REACTORS
330
663
102
}
330
663
100
AcDbXrecord
280
     1
290
     1
  0
XRECORD
  5
666
102
{ACAD_REACTORS
330
665
102
}
330
665
100
AcDbXrecord
280
     1
290
     1
  0
XRECORD
  5
668
102
{ACAD_REACTORS
330
667
102
}
330
667
100
AcDbXrecord
280
     1
290
     1
  0
XRECORD
  5
66A
102
{ACAD_REACTORS
330
669
102
}
330
669
100
AcDbXrecord
280
     1
290
     1
  0
XRECORD
  5
A55
102
{ACAD_REACTORS
330
A54
102
}
330
A54
100
AcDbXrecord
280
     1
 40
0.7853981633974481
  0
LAYOUT
  5
65B
102
{ACAD_XDICTIONARY
360
A57
102
}
102
{ACAD_REACTORS
330
659
102
}
330
659
100
AcDbPlotSettings
  1

  2
none_device
  4
Letter_(8.50_x_11.00_Inches)
  6

 40
6.349999904632567
 41
6.349999904632567
 42
6.350006103515625
 43
6.350006103515625
 44
215.8999938964844
 45
279.3999938964844
 46
0.0
 47
0.0
 48
0.0
 49
0.0
140
0.0
141
0.0
142
1.0
143
183.9544473974715
 70
 11952
 72
     0
 73
     1
 74
     0
  7

 75
     0
147
0.0054361284228116
148
13540.97221503431
149
10530.94803183114
100
AcDbLayout
  1
Model
 70
     1
 71
     0
 10
0.0
 20
0.0
 11
12.0
 21
9.0
 12
0.0
 22
0.0
 32
0.0
 14
0.0
 24
0.0
 34
0.0
 15
0.0
 25
0.0
 35
0.0
146
0.0
 13
0.0
 23
0.0
 33
0.0
 16
1.0
 26
0.0
 36
0.0
 17
0.0
 27
1.0
 37
0.0
 76
     0
330
25
331
1B
1001
ACAD_PSEXT
1000
なし
1000
なし
1000
適切ではありません
1000
新しいプロッタ環境設定名を選択しない限り、レイアウトは印刷されません。
1070
     0
  0
LAYOUT
  5
65C
102
{ACAD_XDICTIONARY
360
A59
102
}
102
{ACAD_REACTORS
330
659
102
}
330
659
100
AcDbPlotSettings
  1

  2
EMP01
  4

  6

 40
0.0
 41
0.0
 42
0.0
 43
0.0
 44
0.0
 45
0.0
 46
0.0
 47
0.0
 48
0.0
 49
0.0
140
0.0
141
0.0
142
1.0
143
1.0
 70
   688
 72
     0
 73
     0
 74
     5
  7

 75
    16
147
1.0
148
0.0
149
0.0
100
AcDbLayout
  1
レイアウト1
 70
     0
 71
     1
 10
0.0
 20
0.0
 11
12.0
 21
9.0
 12
0.0
 22
0.0
 32
0.0
 14
1.000000000000000E+20
 24
1.000000000000000E+20
 34
1.000000000000000E+20
 15
-1.000000000000000E+20
 25
-1.000000000000000E+20
 35
-1.000000000000000E+20
146
0.0
 13
0.0
 23
0.0
 33
0.0
 16
1.0
 26
0.0
 36
0.0
 17
0.0
 27
1.0
 37
0.0
 76
     0
330
26
  0
MATERIAL
  5
610
102
{ACAD_XDICTIONARY
360
611
102
}
102
{ACAD_REACTORS
330
607
102
}
330
607
100
AcDbMaterial
  1
ByBlock
 72
     0
 43
0.0208333333333333
 43
0.0
 43
0.0
 43
0.0
 43
0.0
 43
0.0208333333333333
 43
0.0
 43
0.0
 43
0.0
 43
0.0
 43
1.0
 43
0.0
 43
0.0
 43
0.0
 43
0.0
 43
1.0
 77
     0
 47
0.0208333333333333
 47
0.0
 47
0.0
 47
0.0
 47
0.0
 47
0.0208333333333333
 47
0.0
 47
0.0
 47
0.0
 47
0.0
 47
1.0
 47
0.0
 47
0.0
 47
0.0
 47
0.0
 47
1.0
171
     0
 49
0.0208333333333333
 49
0.0
 49
0.0
 49
0.0
 49
0.0
 49
0.0208333333333333
 49
0.0
 49
0.0
 49
0.0
 49
0.0
 49
1.0
 49
0.0
 49
0.0
 49
0.0
 49
0.0
 49
1.0
175
     0
142
0.0208333333333333
142
0.0
142
0.0
142
0.0
142
0.0
142
0.0208333333333333
142
0.0
142
0.0
142
0.0
142
0.0
142
1.0
142
0.0
142
0.0
142
0.0
142
0.0
142
1.0
179
     0
144
0.0208333333333333
144
0.0
144
0.0
144
0.0
144
0.0
144
0.0208333333333333
144
0.0
144
0.0
144
0.0
144
0.0
144
1.0
144
0.0
144
0.0
144
0.0
144
0.0
144
1.0
147
0.0208333333333333
147
0.0
147
0.0
147
0.0
147
0.0
147
0.0208333333333333
147
0.0
147
0.0
147
0.0
147
0.0
147
1.0
147
0.0
147
0.0
147
0.0
147
0.0
147
1.0
  0
MATERIAL
  5
608
102
{ACAD_XDICTIONARY
360
609
102
}
102
{ACAD_REACTORS
330
607
102
}
330
607
100
AcDbMaterial
  1
ByLayer
 72
     0
 43
0.0208333333333333
 43
0.0
 43
0.0
 43
0.0
 43
0.0
 43
0.0208333333333333
 43
0.0
 43
0.0
 43
0.0
 43
0.0
 43
1.0
 43
0.0
 43
0.0
 43
0.0
 43
0.0
 43
1.0
 77
     0
 47
0.0208333333333333
 47
0.0
 47
0.0
 47
0.0
 47
0.0
 47
0.0208333333333333
 47
0.0
 47
0.0
 47
0.0
 47
0.0
 47
1.0
 47
0.0
 47
0.0
 47
0.0
 47
0.0
 47
1.0
171
     0
 49
0.0208333333333333
 49
0.0
 49
0.0
 49
0.0
 49
0.0
 49
0.0208333333333333
 49
0.0
 49
0.0
 49
0.0
 49
0.0
 49
1.0
 49
0.0
 49
0.0
 49
0.0
 49
0.0
 49
1.0
175
     0
142
0.0208333333333333
142
0.0
142
0.0
142
0.0
142
0.0
142
0.0208333333333333
142
0.0
142
0.0
142
0.0
142
0.0
142
1.0
142
0.0
142
0.0
142
0.0
142
0.0
142
1.0
179
     0
144
0.0208333333333333
144
0.0
144
0.0
144
0.0
144
0.0
144
0.0208333333333333
144
0.0
144
0.0
144
0.0
144
0.0
144
1.0
144
0.0
144
0.0
144
0.0
144
0.0
144
1.0
147
0.0208333333333333
147
0.0
147
0.0
147
0.0
147
0.0
147
0.0208333333333333
147
0.0
147
0.0
147
0.0
147
0.0
147
1.0
147
0.0
147
0.0
147
0.0
147
0.0
147
1.0
  0
MATERIAL
  5
618
102
{ACAD_XDICTIONARY
360
619
102
}
102
{ACAD_REACTORS
330
607
102
}
330
607
100
AcDbMaterial
  1
Global
 72
     0
 43
0.0208333333333333
 43
0.0
 43
0.0
 43
0.0
 43
0.0
 43
0.0208333333333333
 43
0.0
 43
0.0
 43
0.0
 43
0.0
 43
1.0
 43
0.0
 43
0.0
 43
0.0
 43
0.0
 43
1.0
 77
     0
 47
0.0208333333333333
 47
0.0
 47
0.0
 47
0.0
 47
0.0
 47
0.0208333333333333
 47
0.0
 47
0.0
 47
0.0
 47
0.0
 47
1.0
 47
0.0
 47
0.0
 47
0.0
 47
0.0
 47
1.0
171
     0
 49
0.0208333333333333
 49
0.0
 49
0.0
 49
0.0
 49
0.0
 49
0.0208333333333333
 49
0.0
 49
0.0
 49
0.0
 49
0.0
 49
1.0
 49
0.0
 49
0.0
 49
0.0
 49
0.0
 49
1.0
175
     0
142
0.0208333333333333
142
0.0
142
0.0
142
0.0
142
0.0
142
0.0208333333333333
142
0.0
142
0.0
142
0.0
142
0.0
142
1.0
142
0.0
142
0.0
142
0.0
142
0.0
142
1.0
179
     0
144
0.0208333333333333
144
0.0
144
0.0
144
0.0
144
0.0
144
0.0208333333333333
144
0.0
144
0.0
144
0.0
144
0.0
144
1.0
144
0.0
144
0.0
144
0.0
144
0.0
144
1.0
147
0.0208333333333333
147
0.0
147
0.0
147
0.0
147
0.0
147
0.0208333333333333
147
0.0
147
0.0
147
0.0
147
0.0
147
1.0
147
0.0
147
0.0
147
0.0
147
0.0
147
1.0
  0
MLEADERSTYLE
  5
657
102
{ACAD_REACTORS
330
656
102
}
330
656
100
AcDbMLeaderStyle
170
     2
171
     1
172
     0
 90
        2
 40
0.0
 41
0.0
173
     1
 91
-1056964608
340
C
 92
       -2
290
     1
 42
0.09
291
     1
 43
0.36
  3
Standard
 44
0.18
300

342
1D
174
     1
178
     6
175
     1
176
     0
 93
-1056964608
 45
0.18
292
     0
297
     0
 46
0.18
 94
-1056964608
 47
1.0
 49
1.0
140
1.0
293
     1
141
0.0
294
     1
177
     0
142
1.0
295
     0
296
     0
143
0.125
1001
ACAD_MLEADERVER
1070
     2
  0
MLINESTYLE
  5
5FD
102
{ACAD_REACTORS
330
5FC
102
}
330
5FC
100
AcDbMlineStyle
  2
STANDARD
 70
     0
  3

 62
     0
 51
90.0
 52
90.0
 71
     2
 49
0.5
 62
   256
  6
BYLAYER
 49
-0.5
 62
   256
  6
BYLAYER
  0
ACDBPLACEHOLDER
  5
606
102
{ACAD_REACTORS
330
605
102
}
330
605
  0
ACDBPLACEHOLDER
  5
690
102
{ACAD_REACTORS
330
605
102
}
330
605
  0
ACDBPLACEHOLDER
  5
691
102
{ACAD_REACTORS
330
605
102
}
330
605
  0
SCALE
  5
635
102
{ACAD_REACTORS
330
634
102
}
330
634
100
AcDbScale
 70
     0
300
1:1
140
1.0
141
1.0
290
     1
  0
SCALE
  5
636
102
{ACAD_REACTORS
330
634
102
}
330
634
100
AcDbScale
 70
     0
300
1:2
140
1.0
141
2.0
290
     0
  0
SCALE
  5
637
102
{ACAD_REACTORS
330
634
102
}
330
634
100
AcDbScale
 70
     0
300
1:4
140
1.0
141
4.0
290
     0
  0
SCALE
  5
638
102
{ACAD_REACTORS
330
634
102
}
330
634
100
AcDbScale
 70
     0
300
1:5
140
1.0
141
5.0
290
     0
  0
SCALE
  5
639
102
{ACAD_REACTORS
330
634
102
}
330
634
100
AcDbScale
 70
     0
300
1:8
140
1.0
141
8.0
290
     0
  0
SCALE
  5
63A
102
{ACAD_REACTORS
330
634
102
}
330
634
100
AcDbScale
 70
     0
300
1:10
140
1.0
141
10.0
290
     0
  0
SCALE
  5
63B
102
{ACAD_REACTORS
330
634
102
}
330
634
100
AcDbScale
 70
     0
300
1:16
140
1.0
141
16.0
290
     0
  0
SCALE
  5
63C
102
{ACAD_REACTORS
330
634
102
}
330
634
100
AcDbScale
 70
     0
300
1:20
140
1.0
141
20.0
290
     0
  0
SCALE
  5
63D
102
{ACAD_REACTORS
330
634
102
}
330
634
100
AcDbScale
 70
     0
300
1:30
140
1.0
141
30.0
290
     0
  0
SCALE
  5
63E
102
{ACAD_REACTORS
330
634
102
}
330
634
100
AcDbScale
 70
     0
300
1:40
140
1.0
141
40.0
290
     0
  0
SCALE
  5
63F
102
{ACAD_REACTORS
330
634
102
}
330
634
100
AcDbScale
 70
     0
300
1:50
140
1.0
141
50.0
290
     0
  0
SCALE
  5
640
102
{ACAD_REACTORS
330
634
102
}
330
634
100
AcDbScale
 70
     0
300
1:100
140
1.0
141
100.0
290
     0
  0
SCALE
  5
641
102
{ACAD_REACTORS
330
634
102
}
330
634
100
AcDbScale
 70
     0
300
2:1
140
2.0
141
1.0
290
     0
  0
SCALE
  5
642
102
{ACAD_REACTORS
330
634
102
}
330
634
100
AcDbScale
 70
     0
300
4:1
140
4.0
141
1.0
290
     0
  0
SCALE
  5
643
102
{ACAD_REACTORS
330
634
102
}
330
634
100
AcDbScale
 70
     0
300
8:1
140
8.0
141
1.0
290
     0
  0
SCALE
  5
644
102
{ACAD_REACTORS
330
634
102
}
330
634
100
AcDbScale
 70
     0
300
10:1
140
10.0
141
1.0
290
     0
  0
SCALE
  5
645
102
{ACAD_REACTORS
330
634
102
}
330
634
100
AcDbScale
 70
     0
300
100:1
140
100.0
141
1.0
290
     0
  0
SCALE
  5
646
102
{ACAD_REACTORS
330
634
102
}
330
634
100
AcDbScale
 70
     0
300
1/128" = 1'-0"
140
0.0078125
141
12.0
290
     0
  0
SCALE
  5
647
102
{ACAD_REACTORS
330
634
102
}
330
634
100
AcDbScale
 70
     0
300
1/64" = 1'-0"
140
0.015625
141
12.0
290
     0
  0
SCALE
  5
648
102
{ACAD_REACTORS
330
634
102
}
330
634
100
AcDbScale
 70
     0
300
1/32" = 1'-0"
140
0.03125
141
12.0
290
     0
  0
SCALE
  5
649
102
{ACAD_REACTORS
330
634
102
}
330
634
100
AcDbScale
 70
     0
300
1/16" = 1'-0"
140
0.0625
141
12.0
290
     0
  0
SCALE
  5
64A
102
{ACAD_REACTORS
330
634
102
}
330
634
100
AcDbScale
 70
     0
300
3/32" = 1'-0"
140
0.09375
141
12.0
290
     0
  0
SCALE
  5
64B
102
{ACAD_REACTORS
330
634
102
}
330
634
100
AcDbScale
 70
     0
300
1/8" = 1'-0"
140
0.125
141
12.0
290
     0
  0
SCALE
  5
64C
102
{ACAD_REACTORS
330
634
102
}
330
634
100
AcDbScale
 70
     0
300
3/16" = 1'-0"
140
0.1875
141
12.0
290
     0
  0
SCALE
  5
64D
102
{ACAD_REACTORS
330
634
102
}
330
634
100
AcDbScale
 70
     0
300
1/4" = 1'-0"
140
0.25
141
12.0
290
     0
  0
SCALE
  5
64E
102
{ACAD_REACTORS
330
634
102
}
330
634
100
AcDbScale
 70
     0
300
3/8" = 1'-0"
140
0.375
141
12.0
290
     0
  0
SCALE
  5
64F
102
{ACAD_REACTORS
330
634
102
}
330
634
100
AcDbScale
 70
     0
300
1/2" = 1'-0"
140
0.5
141
12.0
290
     0
  0
SCALE
  5
650
102
{ACAD_REACTORS
330
634
102
}
330
634
100
AcDbScale
 70
     0
300
3/4" = 1'-0"
140
0.75
141
12.0
290
     0
  0
SCALE
  5
651
102
{ACAD_REACTORS
330
634
102
}
330
634
100
AcDbScale
 70
     0
300
1" = 1'-0"
140
1.0
141
12.0
290
     0
  0
SCALE
  5
652
102
{ACAD_REACTORS
330
634
102
}
330
634
100
AcDbScale
 70
     0
300
1-1/2" = 1'-0"
140
1.5
141
12.0
290
     0
  0
SCALE
  5
653
102
{ACAD_REACTORS
330
634
102
}
330
634
100
AcDbScale
 70
     0
300
3" = 1'-0"
140
3.0
141
12.0
290
     0
  0
SCALE
  5
654
102
{ACAD_REACTORS
330
634
102
}
330
634
100
AcDbScale
 70
     0
300
6" = 1'-0"
140
6.0
141
12.0
290
     0
  0
SCALE
  5
655
102
{ACAD_REACTORS
330
634
102
}
330
634
100
AcDbScale
 70
     0
300
1'-0" = 1'-0"
140
12.0
141
12.0
290
     0
  0
TABLESTYLE
  5
633
102
{ACAD_XDICTIONARY
360
672
102
}
102
{ACAD_REACTORS
330
632
102
}
330
632
100
AcDbTableStyle
  3
Standard
 70
     0
 71
     0
 40
0.06
 41
0.06
280
     0
281
     0
  7
STANDARD
140
0.18
170
     2
 62
     0
 63
     7
283
     0
274
    -2
284
     1
 64
     0
275
    -2
285
     1
 65
     0
276
    -2
286
     1
 66
     0
277
    -2
287
     1
 67
     0
278
    -2
288
     1
 68
     0
279
    -2
289
     1
 69
     0
  7
STANDARD
140
0.25
170
     5
 62
     0
 63
     7
283
     0
274
    -2
284
     1
 64
     0
275
    -2
285
     1
 65
     0
276
    -2
286
     1
 66
     0
277
    -2
287
     1
 67
     0
278
    -2
288
     1
 68
     0
279
    -2
289
     1
 69
     0
  7
STANDARD
140
0.18
170
     5
 62
     0
 63
     7
283
     0
274
    -2
284
     1
 64
     0
275
    -2
285
     1
 65
     0
276
    -2
286
     1
 66
     0
277
    -2
287
     1
 67
     0
278
    -2
288
     1
 68
     0
279
    -2
289
     1
 69
     0
  0
VISUALSTYLE
  5
626
102
{ACAD_REACTORS
330
620
102
}
330
620
100
AcDbVisualStyle
  2
2dWireframe
 70
     4
 71
     0
 72
     2
 73
     0
 90
        0
 40
-0.6
 41
-30.0
 62
     5
 63
     7
 74
     1
 91
        4
 64
     7
 65
   257
 75
     1
175
     1
 42
1.0
 92
        0
 66
   257
 43
1.0
 76
     1
 77
     6
 78
     2
 67
     7
 79
     5
170
     0
171
     0
290
     0
174
     0
 93
        1
 44
0.0
173
     0
291
     0
 45
0.0
1001
ACAD
1000
AcDbSavedByObjectVersion
1070
     0
1000
AcDbSavedByObjectVersion
1070
     0
1000
AcDbSavedByObjectVersion
1070
     0
  0
VISUALSTYLE
  5
628
102
{ACAD_REACTORS
330
620
102
}
330
620
100
AcDbVisualStyle
  2
3D Hidden
 70
     6
 71
     1
 72
     2
 73
     2
 90
        0
 40
-0.6
 41
-30.0
 62
     5
 63
     7
 74
     2
 91
        2
 64
     7
 65
   257
 75
     2
175
     1
 42
40.0
 92
        0
 66
   257
 43
1.0
 76
     1
 77
     6
 78
     2
 67
     7
 79
     3
170
     0
171
     0
290
     0
174
     0
 93
        1
 44
0.0
173
     0
291
     0
 45
0.0
1001
ACAD
1000
AcDbSavedByObjectVersion
1070
     0
1000
AcDbSavedByObjectVersion
1070
     0
1000
AcDbSavedByObjectVersion
1070
     0
  0
VISUALSTYLE
  5
627
102
{ACAD_REACTORS
330
620
102
}
330
620
100
AcDbVisualStyle
  2
3dWireframe
 70
     5
 71
     0
 72
     2
 73
     0
 90
        0
 40
-0.6
 41
-30.0
 62
     5
 63
     7
 74
     1
 91
        4
 64
     7
 65
   257
 75
     1
175
     1
 42
1.0
 92
        0
 66
   257
 43
1.0
 76
     1
 77
     6
 78
     2
 67
     7
 79
     5
170
     0
171
     0
290
     0
174
     0
 93
        1
 44
0.0
173
     0
291
     0
 45
0.0
1001
ACAD
1000
AcDbSavedByObjectVersion
1070
     0
1000
AcDbSavedByObjectVersion
1070
     0
1000
AcDbSavedByObjectVersion
1070
     0
  0
VISUALSTYLE
  5
625
102
{ACAD_REACTORS
330
620
102
}
330
620
100
AcDbVisualStyle
  2
Basic
 70
     7
 71
     1
 72
     0
 73
     1
 90
        0
 40
-0.6
 41
-30.0
 62
     5
 63
     7
 74
     0
 91
        4
 64
     7
 65
   257
 75
     1
175
     1
 42
1.0
 92
        8
 66
     7
 43
1.0
 76
     1
 77
     6
 78
     2
 67
     7
 79
     5
170
     0
171
     0
290
     0
174
     0
 93
        1
 44
0.0
173
     0
291
     1
 45
0.0
1001
ACAD
1000
AcDbSavedByObjectVersion
1070
     0
1000
AcDbSavedByObjectVersion
1070
     0
1000
AcDbSavedByObjectVersion
1070
     0
  0
VISUALSTYLE
  5
62C
102
{ACAD_REACTORS
330
620
102
}
330
620
100
AcDbVisualStyle
  2
Brighten
 70
    12
 71
     2
 72
     2
 73
     0
 90
        0
 40
-0.6
 41
-30.0
 62
     5
 63
     7
 74
     1
 91
        4
 64
     7
 65
   257
 75
     1
175
     1
 42
1.0
 92
        8
 66
     7
 43
1.0
 76
     1
 77
     6
 78
     2
 67
     7
 79
     5
170
     0
171
     0
290
     0
174
     0
 93
        1
 44
50.0
173
     0
291
     1
 45
0.0
1001
ACAD
1000
AcDbSavedByObjectVersion
1070
     0
1000
AcDbSavedByObjectVersion
1070
     0
1000
AcDbSavedByObjectVersion
1070
     0
  0
VISUALSTYLE
  5
630
102
{ACAD_REACTORS
330
620
102
}
330
620
100
AcDbVisualStyle
  2
ColorChange
 70
    16
 71
     2
 72
     2
 73
     3
 90
        0
 40
-0.6
 41
-30.0
 62
     5
 63
     8
 74
     1
 91
        4
 64
     7
 65
   257
 75
     1
175
     1
 42
1.0
 92
        8
 66
     8
 43
1.0
 76
     1
 77
     6
 78
     2
 67
     7
 79
     5
170
     0
171
     0
290
     0
174
     0
 93
        1
 44
0.0
173
     0
291
     1
 45
0.0
1001
ACAD
1000
AcDbSavedByObjectVersion
1070
     0
1000
AcDbSavedByObjectVersion
1070
     0
1000
AcDbSavedByObjectVersion
1070
     0
  0
VISUALSTYLE
  5
629
102
{ACAD_REACTORS
330
620
102
}
330
620
100
AcDbVisualStyle
  2
Conceptual
 70
     9
 71
     3
 72
     2
 73
     0
 90
        0
 40
-0.6
 41
-30.0
 62
     5
 63
     7
 74
     2
 91
        2
 64
     7
 65
   257
 75
     1
175
     1
 42
40.0
 92
        8
 66
     7
 43
1.0
 76
     1
 77
     6
 78
     2
 67
     7
 79
     3
170
     0
171
     0
290
     0
174
     0
 93
        1
 44
0.0
173
     0
291
     0
 45
0.0
1001
ACAD
1000
AcDbSavedByObjectVersion
1070
     0
1000
AcDbSavedByObjectVersion
1070
     0
1000
AcDbSavedByObjectVersion
1070
     0
  0
VISUALSTYLE
  5
62B
102
{ACAD_REACTORS
330
620
102
}
330
620
100
AcDbVisualStyle
  2
Dim
 70
    11
 71
     2
 72
     2
 73
     0
 90
        0
 40
-0.6
 41
-30.0
 62
     5
 63
     7
 74
     1
 91
        4
 64
     7
 65
   257
 75
     1
175
     1
 42
1.0
 92
        8
 66
     7
 43
1.0
 76
     1
 77
     6
 78
     2
 67
     7
 79
     5
170
     0
171
     0
290
     0
174
     0
 93
        1
 44
-50.0
173
     0
291
     1
 45
0.0
1001
ACAD
1000
AcDbSavedByObjectVersion
1070
     0
1000
AcDbSavedByObjectVersion
1070
     0
1000
AcDbSavedByObjectVersion
1070
     0
  0
VISUALSTYLE
  5
62F
102
{ACAD_REACTORS
330
620
102
}
330
620
100
AcDbVisualStyle
  2
Facepattern
 70
    15
 71
     2
 72
     2
 73
     0
 90
        0
 40
-0.6
 41
-30.0
 62
     5
 63
     7
 74
     1
 91
        4
 64
     7
 65
   257
 75
     1
175
     1
 42
1.0
 92
        8
 66
     7
 43
1.0
 76
     1
 77
     6
 78
     2
 67
     7
 79
     5
170
     0
171
     0
290
     0
174
     0
 93
        1
 44
0.0
173
     0
291
     1
 45
0.0
1001
ACAD
1000
AcDbSavedByObjectVersion
1070
     0
1000
AcDbSavedByObjectVersion
1070
     0
1000
AcDbSavedByObjectVersion
1070
     0
  0
VISUALSTYLE
  5
621
102
{ACAD_REACTORS
330
620
102
}
330
620
100
AcDbVisualStyle
  2
Flat
 70
     0
 71
     2
 72
     1
 73
     1
 90
        2
 40
-0.6
 41
30.0
 62
     5
 63
     7
 74
     0
 91
        4
 64
     7
 65
   257
 75
     1
175
     1
 42
1.0
 92
        8
 66
     7
 43
1.0
 76
     1
 77
     6
 78
     2
 67
     7
 79
     5
170
     0
171
     0
290
     0
174
     0
 93
       13
 44
0.0
173
     0
291
     1
 45
0.0
1001
ACAD
1000
AcDbSavedByObjectVersion
1070
     0
1000
AcDbSavedByObjectVersion
1070
     0
1000
AcDbSavedByObjectVersion
1070
     0
  0
VISUALSTYLE
  5
622
102
{ACAD_REACTORS
330
620
102
}
330
620
100
AcDbVisualStyle
  2
FlatWithEdges
 70
     1
 71
     2
 72
     1
 73
     1
 90
        2
 40
-0.6
 41
30.0
 62
     5
 63
     7
 74
     1
 91
        4
 64
     7
 65
   257
 75
     1
175
     1
 42
1.0
 92
        0
 66
   257
 43
1.0
 76
     1
 77
     6
 78
     2
 67
     7
 79
     5
170
     0
171
     0
290
     0
174
     0
 93
       13
 44
0.0
173
     0
291
     1
 45
0.0
1001
ACAD
1000
AcDbSavedByObjectVersion
1070
     0
1000
AcDbSavedByObjectVersion
1070
     0
1000
AcDbSavedByObjectVersion
1070
     0
  0
VISUALSTYLE
  5
623
102
{ACAD_REACTORS
330
620
102
}
330
620
100
AcDbVisualStyle
  2
Gouraud
 70
     2
 71
     2
 72
     2
 73
     1
 90
        2
 40
-0.6
 41
30.0
 62
     5
 63
     7
 74
     0
 91
        4
 64
     7
 65
   257
 75
     1
175
     1
 42
1.0
 92
        0
 66
     7
 43
1.0
 76
     1
 77
     6
 78
     2
 67
     7
 79
     5
170
     0
171
     0
290
     0
174
     0
 93
       13
 44
0.0
173
     0
291
     1
 45
0.0
1001
ACAD
1000
AcDbSavedByObjectVersion
1070
     0
1000
AcDbSavedByObjectVersion
1070
     0
1000
AcDbSavedByObjectVersion
1070
     0
  0
VISUALSTYLE
  5
624
102
{ACAD_REACTORS
330
620
102
}
330
620
100
AcDbVisualStyle
  2
GouraudWithEdges
 70
     3
 71
     2
 72
     2
 73
     1
 90
        2
 40
-0.6
 41
30.0
 62
     5
 63
     7
 74
     1
 91
        4
 64
     7
 65
   257
 75
     1
175
     1
 42
1.0
 92
        0
 66
   257
 43
1.0
 76
     1
 77
     6
 78
     2
 67
     7
 79
     5
170
     0
171
     0
290
     0
174
     0
 93
       13
 44
0.0
173
     0
291
     1
 45
0.0
1001
ACAD
1000
AcDbSavedByObjectVersion
1070
     0
1000
AcDbSavedByObjectVersion
1070
     0
1000
AcDbSavedByObjectVersion
1070
     0
  0
VISUALSTYLE
  5
62E
102
{ACAD_REACTORS
330
620
102
}
330
620
100
AcDbVisualStyle
  2
Linepattern
 70
    14
 71
     2
 72
     2
 73
     0
 90
        0
 40
-0.6
 41
-30.0
 62
     5
 63
     7
 74
     1
 91
        4
 64
     7
 65
   257
 75
     7
175
     7
 42
1.0
 92
        8
 66
     7
 43
1.0
 76
     1
 77
     6
 78
     2
 67
     7
 79
     5
170
     0
171
     0
290
     0
174
     0
 93
        1
 44
0.0
173
     0
291
     1
 45
0.0
1001
ACAD
1000
AcDbSavedByObjectVersion
1070
     0
1000
AcDbSavedByObjectVersion
1070
     0
1000
AcDbSavedByObjectVersion
1070
     0
  0
VISUALSTYLE
  5
62A
102
{ACAD_REACTORS
330
620
102
}
330
620
100
AcDbVisualStyle
  2
Realistic
 70
     8
 71
     2
 72
     2
 73
     0
 90
        0
 40
-0.6
 41
-30.0
 62
     5
 63
     7
 74
     1
 91
        0
 64
     7
 65
   257
 75
     1
175
     1
 42
1.0
 92
        8
 66
     8
 43
1.0
 76
     1
 77
     6
 78
     2
 67
     7
 79
     5
170
     0
171
     0
290
     0
174
     0
 93
       13
 44
0.0
173
     0
291
     0
 45
0.0
1001
ACAD
1000
AcDbSavedByObjectVersion
1070
     0
1000
AcDbSavedByObjectVersion
1070
     0
1000
AcDbSavedByObjectVersion
1070
     0
  0
VISUALSTYLE
  5
62D
102
{ACAD_REACTORS
330
620
102
}
330
620
100
AcDbVisualStyle
  2
Thicken
 70
    13
 71
     2
 72
     2
 73
     0
 90
        0
 40
-0.6
 41
-30.0
 62
     5
 63
     7
 74
     1
 91
        4
 64
     7
 65
   257
 75
     1
175
     1
 42
1.0
 92
       12
 66
     7
 43
1.0
 76
     1
 77
     6
 78
     2
 67
     7
 79
     5
170
     0
171
     0
290
     0
174
     0
 93
        1
 44
0.0
173
     0
291
     1
 45
0.0
1001
ACAD
1000
AcDbSavedByObjectVersion
1070
     0
1000
AcDbSavedByObjectVersion
1070
     0
1000
AcDbSavedByObjectVersion
1070
     0
  0
DICTIONARYVAR
  5
66E
102
{ACAD_REACTORS
330
66B
102
}
330
66B
100
DictionaryVariables
280
     0
  1
1:1
  0
DICTIONARYVAR
  5
66D
102
{ACAD_REACTORS
330
66B
102
}
330
66B
100
DictionaryVariables
280
     0
  1
STANDARD
  0
DICTIONARYVAR
  5
66C
102
{ACAD_REACTORS
330
66B
102
}
330
66B
100
DictionaryVariables
280
     0
  1
STANDARD
  0
DICTIONARYVAR
  5
671
102
{ACAD_REACTORS
330
66B
102
}
330
66B
100
DictionaryVariables
280
     0
  1
1
  0
DICTIONARYVAR
  5
670
102
{ACAD_REACTORS
330
66B
102
}
330
66B
100
DictionaryVariables
280
     0
  1
0
  0
DICTIONARYVAR
  5
66F
102
{ACAD_REACTORS
330
66B
102
}
330
66B
100
DictionaryVariables
280
     0
  1
127
  0
DICTIONARY
  5
A57
330
65B
100
AcDbDictionary
280
     1
281
     1
  3
ACAD_XREC_ROUNDTRIP
360
A58
  0
DICTIONARY
  5
A59
330
65C
100
AcDbDictionary
280
     1
281
     1
  3
ACAD_XREC_ROUNDTRIP
360
A5A
  0
DICTIONARY
  5
611
330
610
100
AcDbDictionary
280
     1
281
     1
  3
ACAD_XREC_ROUNDTRIP
360
677
  3
BUMPTILE
360
613
  3
DIFFUSETILE
360
612
  3
OPACITYTILE
360
616
  3
REFLECTIONTILE
360
615
  3
REFRACTIONTILE
360
617
  3
SPECULARTILE
360
614
  0
DICTIONARY
  5
609
330
608
100
AcDbDictionary
280
     1
281
     1
  3
ACAD_XREC_ROUNDTRIP
360
676
  3
BUMPTILE
360
60B
  3
DIFFUSETILE
360
60A
  3
OPACITYTILE
360
60E
  3
REFLECTIONTILE
360
60D
  3
REFRACTIONTILE
360
60F
  3
SPECULARTILE
360
60C
  0
DICTIONARY
  5
619
330
618
100
AcDbDictionary
280
     1
281
     1
  3
ACAD_XREC_ROUNDTRIP
360
678
  3
BUMPTILE
360
61B
  3
DIFFUSETILE
360
61A
  3
OPACITYTILE
360
61E
  3
REFLECTIONTILE
360
61D
  3
REFRACTIONTILE
360
61F
  3
SPECULARTILE
360
61C
  0
DICTIONARY
  5
672
330
633
100
AcDbDictionary
280
     1
281
     1
  3
ACAD_ROUNDTRIP_2008_TABLESTYLE_CELLSTYLEMAP
360
A52
  3
ACAD_XREC_ROUNDTRIP
360
A56
  0
XRECORD
  5
A58
102
{ACAD_REACTORS
330
A57
102
}
330
A57
100
AcDbXrecord
280
     1
102
SHADEPLOT
 70
     0
102
SHADEPLOTRESLEVEL
 70
     2
102
SHADEPLOTCUSTOMDPI
 70
   300
  0
XRECORD
  5
A5A
102
{ACAD_REACTORS
330
A59
102
}
330
A59
100
AcDbXrecord
280
     1
102
SHADEPLOT
 70
     0
102
SHADEPLOTRESLEVEL
 70
     2
102
SHADEPLOTCUSTOMDPI
 70
   300
  0
XRECORD
  5
677
102
{ACAD_REACTORS
330
611
102
}
330
611
100
AcDbXrecord
280
     1
102
MATERIAL
148
0.0
149
0.0
149
0.0
 93
        0
 94
      127
282
     0
 72
     0
 77
     0
171
     0
175
     0
179
     0
273
     0
  0
XRECORD
  5
613
102
{ACAD_REACTORS
330
611
102
}
330
611
100
AcDbXrecord
280
     1
270
     1
271
     1
  0
XRECORD
  5
612
102
{ACAD_REACTORS
330
611
102
}
330
611
100
AcDbXrecord
280
     1
270
     1
271
     1
  0
XRECORD
  5
616
102
{ACAD_REACTORS
330
611
102
}
330
611
100
AcDbXrecord
280
     1
270
     1
271
     1
  0
XRECORD
  5
615
102
{ACAD_REACTORS
330
611
102
}
330
611
100
AcDbXrecord
280
     1
270
     1
271
     1
  0
XRECORD
  5
617
102
{ACAD_REACTORS
330
611
102
}
330
611
100
AcDbXrecord
280
     1
270
     1
271
     1
  0
XRECORD
  5
614
102
{ACAD_REACTORS
330
611
102
}
330
611
100
AcDbXrecord
280
     1
270
     1
271
     1
  0
XRECORD
  5
676
102
{ACAD_REACTORS
330
609
102
}
330
609
100
AcDbXrecord
280
     1
102
MATERIAL
148
0.0
149
0.0
149
0.0
 93
        0
 94
      127
282
     0
 72
     0
 77
     0
171
     0
175
     0
179
     0
273
     0
  0
XRECORD
  5
60B
102
{ACAD_REACTORS
330
609
102
}
330
609
100
AcDbXrecord
280
     1
270
     1
271
     1
  0
XRECORD
  5
60A
102
{ACAD_REACTORS
330
609
102
}
330
609
100
AcDbXrecord
280
     1
270
     1
271
     1
  0
XRECORD
  5
60E
102
{ACAD_REACTORS
330
609
102
}
330
609
100
AcDbXrecord
280
     1
270
     1
271
     1
  0
XRECORD
  5
60D
102
{ACAD_REACTORS
330
609
102
}
330
609
100
AcDbXrecord
280
     1
270
     1
271
     1
  0
XRECORD
  5
60F
102
{ACAD_REACTORS
330
609
102
}
330
609
100
AcDbXrecord
280
     1
270
     1
271
     1
  0
XRECORD
  5
60C
102
{ACAD_REACTORS
330
609
102
}
330
609
100
AcDbXrecord
280
     1
270
     1
271
     1
  0
XRECORD
  5
678
102
{ACAD_REACTORS
330
619
102
}
330
619
100
AcDbXrecord
280
     1
102
MATERIAL
148
0.0
149
0.0
149
0.0
 93
        0
 94
      127
282
     0
 72
     0
 77
     0
171
     0
175
     0
179
     0
273
     0
  0
XRECORD
  5
61B
102
{ACAD_REACTORS
330
619
102
}
330
619
100
AcDbXrecord
280
     1
270
     1
271
     1
  0
XRECORD
  5
61A
102
{ACAD_REACTORS
330
619
102
}
330
619
100
AcDbXrecord
280
     1
270
     1
271
     1
  0
XRECORD
  5
61E
102
{ACAD_REACTORS
330
619
102
}
330
619
100
AcDbXrecord
280
     1
270
     1
271
     1
  0
XRECORD
  5
61D
102
{ACAD_REACTORS
330
619
102
}
330
619
100
AcDbXrecord
280
     1
270
     1
271
     1
  0
XRECORD
  5
61F
102
{ACAD_REACTORS
330
619
102
}
330
619
100
AcDbXrecord
280
     1
270
     1
271
     1
  0
XRECORD
  5
61C
102
{ACAD_REACTORS
330
619
102
}
330
619
100
AcDbXrecord
280
     1
270
     1
271
     1
  0
CELLSTYLEMAP
  5
A52
102
{ACAD_REACTORS
330
672
102
}
330
672
100
AcDbCellStyleMap
 90
        3
300
CELLSTYLE
  1
TABLEFORMAT_BEGIN
 90
        5
170
     1
 91
        0
 92
    32768
 62
   257
 93
        1
300
CONTENTFORMAT
  1
CONTENTFORMAT_BEGIN
 90
        0
 91
        0
 92
      512
 93
        0
300

 40
0.0
140
1.0
 94
        5
 62
     0
340
1D
144
0.25
309
CONTENTFORMAT_END
171
     1
301
MARGIN
  1
CELLMARGIN_BEGIN
 40
0.06
 40
0.06
 40
0.06
 40
0.06
 40
0.18
 40
0.18
309
CELLMARGIN_END
 94
        6
 95
        1
302
GRIDFORMAT
  1
GRIDFORMAT_BEGIN
 90
        0
 91
        1
 62
     0
 92
       -2
340
0
 93
        0
 40
0.045
309
GRIDFORMAT_END
 95
        2
302
GRIDFORMAT
  1
GRIDFORMAT_BEGIN
 90
        0
 91
        1
 62
     0
 92
       -2
340
0
 93
        0
 40
0.045
309
GRIDFORMAT_END
 95
        4
302
GRIDFORMAT
  1
GRIDFORMAT_BEGIN
 90
        0
 91
        1
 62
     0
 92
       -2
340
0
 93
        0
 40
0.045
309
GRIDFORMAT_END
 95
        8
302
GRIDFORMAT
  1
GRIDFORMAT_BEGIN
 90
        0
 91
        1
 62
     0
 92
       -2
340
0
 93
        0
 40
0.045
309
GRIDFORMAT_END
 95
       16
302
GRIDFORMAT
  1
GRIDFORMAT_BEGIN
 90
        0
 91
        1
 62
     0
 92
       -2
340
0
 93
        0
 40
0.045
309
GRIDFORMAT_END
 95
       32
302
GRIDFORMAT
  1
GRIDFORMAT_BEGIN
 90
        0
 91
        1
 62
     0
 92
       -2
340
0
 93
        0
 40
0.045
309
GRIDFORMAT_END
309
TABLEFORMAT_END
  1
CELLSTYLE_BEGIN
 90
        1
 91
        1
300
_TITLE
309
CELLSTYLE_END
300
CELLSTYLE
  1
TABLEFORMAT_BEGIN
 90
        5
170
     1
 91
        0
 92
        0
 62
   257
 93
        1
300
CONTENTFORMAT
  1
CONTENTFORMAT_BEGIN
 90
        0
 91
        0
 92
      512
 93
        0
300

 40
0.0
140
1.0
 94
        5
 62
     0
340
1D
144
0.18
309
CONTENTFORMAT_END
171
     1
301
MARGIN
  1
CELLMARGIN_BEGIN
 40
0.06
 40
0.06
 40
0.06
 40
0.06
 40
0.18
 40
0.18
309
CELLMARGIN_END
 94
        6
 95
        1
302
GRIDFORMAT
  1
GRIDFORMAT_BEGIN
 90
        0
 91
        1
 62
     0
 92
       -2
340
0
 93
        0
 40
0.045
309
GRIDFORMAT_END
 95
        2
302
GRIDFORMAT
  1
GRIDFORMAT_BEGIN
 90
        0
 91
        1
 62
     0
 92
       -2
340
0
 93
        0
 40
0.045
309
GRIDFORMAT_END
 95
        4
302
GRIDFORMAT
  1
GRIDFORMAT_BEGIN
 90
        0
 91
        1
 62
     0
 92
       -2
340
0
 93
        0
 40
0.045
309
GRIDFORMAT_END
 95
        8
302
GRIDFORMAT
  1
GRIDFORMAT_BEGIN
 90
        0
 91
        1
 62
     0
 92
       -2
340
0
 93
        0
 40
0.045
309
GRIDFORMAT_END
 95
       16
302
GRIDFORMAT
  1
GRIDFORMAT_BEGIN
 90
        0
 91
        1
 62
     0
 92
       -2
340
0
 93
        0
 40
0.045
309
GRIDFORMAT_END
 95
       32
302
GRIDFORMAT
  1
GRIDFORMAT_BEGIN
 90
        0
 91
        1
 62
     0
 92
       -2
340
0
 93
        0
 40
0.045
309
GRIDFORMAT_END
309
TABLEFORMAT_END
  1
CELLSTYLE_BEGIN
 90
        2
 91
        1
300
_HEADER
309
CELLSTYLE_END
300
CELLSTYLE
  1
TABLEFORMAT_BEGIN
 90
        5
170
     1
 91
        0
 92
        0
 62
   257
 93
        1
300
CONTENTFORMAT
  1
CONTENTFORMAT_BEGIN
 90
        0
 91
        0
 92
      512
 93
        0
300

 40
0.0
140
1.0
 94
        2
 62
     0
340
1D
144
0.18
309
CONTENTFORMAT_END
171
     1
301
MARGIN
  1
CELLMARGIN_BEGIN
 40
0.06
 40
0.06
 40
0.06
 40
0.06
 40
0.18
 40
0.18
309
CELLMARGIN_END
 94
        6
 95
        1
302
GRIDFORMAT
  1
GRIDFORMAT_BEGIN
 90
        0
 91
        1
 62
     0
 92
       -2
340
0
 93
        0
 40
0.045
309
GRIDFORMAT_END
 95
        2
302
GRIDFORMAT
  1
GRIDFORMAT_BEGIN
 90
        0
 91
        1
 62
     0
 92
       -2
340
0
 93
        0
 40
0.045
309
GRIDFORMAT_END
 95
        4
302
GRIDFORMAT
  1
GRIDFORMAT_BEGIN
 90
        0
 91
        1
 62
     0
 92
       -2
340
0
 93
        0
 40
0.045
309
GRIDFORMAT_END
 95
        8
302
GRIDFORMAT
  1
GRIDFORMAT_BEGIN
 90
        0
 91
        1
 62
     0
 92
       -2
340
0
 93
        0
 40
0.045
309
GRIDFORMAT_END
 95
       16
302
GRIDFORMAT
  1
GRIDFORMAT_BEGIN
 90
        0
 91
        1
 62
     0
 92
       -2
340
0
 93
        0
 40
0.045
309
GRIDFORMAT_END
 95
       32
302
GRIDFORMAT
  1
GRIDFORMAT_BEGIN
 90
        0
 91
        1
 62
     0
 92
       -2
340
0
 93
        0
 40
0.045
309
GRIDFORMAT_END
309
TABLEFORMAT_END
  1
CELLSTYLE_BEGIN
 90
        3
 91
        2
300
_DATA
309
CELLSTYLE_END
  0
XRECORD
  5
A56
102
{ACAD_REACTORS
330
672
102
}
330
672
100
AcDbXrecord
280
     1
102
ACAD_ROUNDTRIP_PRE2007_TABLESTYLE
 90
      512
 91
        0
  1

 92
      512
 93
        0
  2

 94
      512
 95
        0
  3

  0
ENDSEC
  0
EOF
