  0
SECTION
  2
HEADER
  9
$ACADVER
  1
AC1015
  9
$ACADMAINTVER
 70
    20
  9
$DWGCODEPAGE
  3
ANSI_932
  9
$INSBASE
 10
0.0
 20
0.0
 30
0.0
  9
$EXTMIN
 10
-540.0
 20
-415.5
 30
0.0
  9
$EXTMAX
 10
607.3635040000002
 20
396.0
 30
0.0
  9
$LIMMIN
 10
-630.0
 20
-445.5
  9
$LIMMAX
 10
630.0
 20
445.5
  9
$ORTHOMODE
 70
     1
  9
$REGENMODE
 70
     1
  9
$FILLMODE
 70
     1
  9
$QTEXTMODE
 70
     0
  9
$MIRRTEXT
 70
     1
  9
$LTSCALE
 40
1.0
  9
$ATTMODE
 70
     1
  9
$TEXTSIZE
 40
1.0
  9
$TRACEWID
 40
0.05
  9
$TEXTSTYLE
  7
STANDARD
  9
$CLAYER
  8
0
  9
$CELTYPE
  6
CONTINUOUS
  9
$CECOLOR
 62
   256
  9
$CELTSCALE
 40
1.0
  9
$DISPSILH
 70
     0
  9
$DIMSCALE
 40
3.0
  9
$DIMASZ
 40
0.18
  9
$DIMEXO
 40
0.0625
  9
$DIMDLI
 40
0.38
  9
$DIMRND
 40
0.0
  9
$DIMDLE
 40
0.0
  9
$DIMEXE
 40
0.18
  9
$DIMTP
 40
0.0
  9
$DIMTM
 40
0.0
  9
$DIMTXT
 40
0.18
  9
$DIMCEN
 40
0.09
  9
$DIMTSZ
 40
0.0
  9
$DIMTOL
 70
     0
  9
$DIMLIM
 70
     0
  9
$DIMTIH
 70
     1
  9
$DIMTOH
 70
     1
  9
$DIMSE1
 70
     0
  9
$DIMSE2
 70
     0
  9
$DIMTAD
 70
     1
  9
$DIMZIN
 70
     0
  9
$DIMBLK
  1

  9
$DIMASO
 70
     1
  9
$DIMSHO
 70
     1
  9
$DIMPOST
  1

  9
$DIMAPOST
  1

  9
$DIMALT
 70
     0
  9
$DIMALTD
 70
     2
  9
$DIMALTF
 40
25.4
  9
$DIMLFAC
 40
1.0
  9
$DIMTOFL
 70
     0
  9
$DIMTVP
 40
0.0
  9
$DIMTIX
 70
     0
  9
$DIMSOXD
 70
     0
  9
$DIMSAH
 70
     0
  9
$DIMBLK1
  1

  9
$DIMBLK2
  1

  9
$DIMSTYLE
  2
STANDARD
  9
$DIMCLRD
 70
     0
  9
$DIMCLRE
 70
     0
  9
$DIMCLRT
 70
     0
  9
$DIMTFAC
 40
1.0
  9
$DIMGAP
 40
0.09
  9
$DIMJUST
 70
     0
  9
$DIMSD1
 70
     0
  9
$DIMSD2
 70
     0
  9
$DIMTOLJ
 70
     1
  9
$DIMTZIN
 70
     0
  9
$DIMALTZ
 70
     0
  9
$DIMALTTZ
 70
     0
  9
$DIMUPT
 70
     0
  9
$DIMDEC
 70
     4
  9
$DIMTDEC
 70
     4
  9
$DIMALTU
 70
     2
  9
$DIMALTTD
 70
     2
  9
$DIMTXSTY
  7
STANDARD
  9
$DIMAUNIT
 70
     0
  9
$DIMADEC
 70
     0
  9
$DIMALTRND
 40
0.0
  9
$DIMAZIN
 70
     0
  9
$DIMDSEP
 70
    46
  9
$DIMATFIT
 70
     3
  9
$DIMFRAC
 70
     0
  9
$DIMLDRBLK
  1

  9
$DIMLUNIT
 70
     2
  9
$DIMLWD
 70
    -2
  9
$DIMLWE
 70
    -2
  9
$DIMTMOVE
 70
     0
  9
$LUNITS
 70
     2
  9
$LUPREC
 70
     4
  9
$SKETCHINC
 40
0.1
  9
$FILLETRAD
 40
0.0
  9
$AUNITS
 70
     0
  9
$AUPREC
 70
     0
  9
$MENU
  1
acad
  9
$ELEVATION
 40
0.0
  9
$PELEVATION
 40
0.0
  9
$THICKNESS
 40
0.0
  9
$LIMCHECK
 70
     0
  9
$CHAMFERA
 40
0.0
  9
$CHAMFERB
 40
0.0
  9
$CHAMFERC
 40
0.0
  9
$CHAMFERD
 40
0.0
  9
$SKPOLY
 70
     0
  9
$TDCREATE
 40
2450695.000000000
  9
$TDUCREATE
 40
2450694.625000000
  9
$TDUPDATE
 40
2454943.644069202
  9
$TDUUPDATE
 40
2454943.269069202
  9
$TDINDWG
 40
0.0013891204
  9
$TDUSRTIMER
 40
0.0013891204
  9
$USRTIMER
 70
     1
  9
$ANGBASE
 50
0.0
  9
$ANGDIR
 70
     0
  9
$PDMODE
 70
     0
  9
$PDSIZE
 40
0.0
  9
$PLINEWID
 40
0.0
  9
$SPLFRAME
 70
     0
  9
$SPLINETYPE
 70
     6
  9
$SPLINESEGS
 70
     8
  9
$HANDSEED
  5
694
  9
$SURFTAB1
 70
     6
  9
$SURFTAB2
 70
     6
  9
$SURFTYPE
 70
     6
  9
$SURFU
 70
     6
  9
$SURFV
 70
     6
  9
$UCSBASE
  2

  9
$UCSNAME
  2

  9
$UCSORG
 10
0.0
 20
0.0
 30
0.0
  9
$UCSXDIR
 10
1.0
 20
0.0
 30
0.0
  9
$UCSYDIR
 10
0.0
 20
1.0
 30
0.0
  9
$UCSORTHOREF
  2

  9
$UCSORTHOVIEW
 70
     0
  9
$UCSORGTOP
 10
0.0
 20
0.0
 30
0.0
  9
$UCSORGBOTTOM
 10
0.0
 20
0.0
 30
0.0
  9
$UCSORGLEFT
 10
0.0
 20
0.0
 30
0.0
  9
$UCSORGRIGHT
 10
0.0
 20
0.0
 30
0.0
  9
$UCSORGFRONT
 10
0.0
 20
0.0
 30
0.0
  9
$UCSORGBACK
 10
0.0
 20
0.0
 30
0.0
  9
$PUCSBASE
  2

  9
$PUCSNAME
  2

  9
$PUCSORG
 10
0.0
 20
0.0
 30
0.0
  9
$PUCSXDIR
 10
1.0
 20
0.0
 30
0.0
  9
$PUCSYDIR
 10
0.0
 20
1.0
 30
0.0
  9
$PUCSORTHOREF
  2

  9
$PUCSORTHOVIEW
 70
     0
  9
$PUCSORGTOP
 10
0.0
 20
0.0
 30
0.0
  9
$PUCSORGBOTTOM
 10
0.0
 20
0.0
 30
0.0
  9
$PUCSORGLEFT
 10
0.0
 20
0.0
 30
0.0
  9
$PUCSORGRIGHT
 10
0.0
 20
0.0
 30
0.0
  9
$PUCSORGFRONT
 10
0.0
 20
0.0
 30
0.0
  9
$PUCSORGBACK
 10
0.0
 20
0.0
 30
0.0
  9
$USERI1
 70
     0
  9
$USERI2
 70
     0
  9
$USERI3
 70
     0
  9
$USERI4
 70
     0
  9
$USERI5
 70
     0
  9
$USERR1
 40
0.0
  9
$USERR2
 40
0.0
  9
$USERR3
 40
0.0
  9
$USERR4
 40
0.0
  9
$USERR5
 40
0.0
  9
$WORLDVIEW
 70
     1
  9
$SHADEDGE
 70
     3
  9
$SHADEDIF
 70
    70
  9
$TILEMODE
 70
     1
  9
$MAXACTVP
 70
    16
  9
$PINSBASE
 10
0.0
 20
0.0
 30
0.0
  9
$PLIMCHECK
 70
     0
  9
$PEXTMIN
 10
1.000000000000000E+20
 20
1.000000000000000E+20
 30
1.000000000000000E+20
  9
$PEXTMAX
 10
-1.000000000000000E+20
 20
-1.000000000000000E+20
 30
-1.000000000000000E+20
  9
$PLIMMIN
 10
0.0
 20
0.0
  9
$PLIMMAX
 10
12.0
 20
9.0
  9
$UNITMODE
 70
     0
  9
$VISRETAIN
 70
     0
  9
$PLINEGEN
 70
     1
  9
$PSLTSCALE
 70
     0
  9
$TREEDEPTH
 70
  3020
  9
$CMLSTYLE
  2
STANDARD
  9
$CMLJUST
 70
     0
  9
$CMLSCALE
 40
1.0
  9
$PROXYGRAPHICS
 70
     1
  9
$MEASUREMENT
 70
     0
  9
$CELWEIGHT
370
    -1
  9
$ENDCAPS
280
     0
  9
$JOINSTYLE
280
     0
  9
$LWDISPLAY
290
     0
  9
$INSUNITS
 70
     0
  9
$HYPERLINKBASE
  1

  9
$STYLESHEET
  1

  9
$XEDIT
290
     1
  9
$CEPSNTYPE
380
     0
  9
$PSTYLEMODE
290
     1
  9
$FINGERPRINTGUID
  2
{8B847034-4A5E-41FF-83B1-556F8A3AF75E}
  9
$VERSIONGUID
  2
{AE803866-219F-4CA8-A406-5C6D345A4661}
  9
$EXTNAMES
290
     1
  9
$PSVPSCALE
 40
0.0
  9
$OLESTARTUP
290
     0
  0
ENDSEC
  0
SECTION
  2
CLASSES
  0
CLASS
  1
IMAGE
  2
AcDbRasterImage
  3
ISM
 90
    34943
280
     0
281
     1
  0
CLASS
  1
DICTIONARYVAR
  2
AcDbDictionaryVar
  3
ObjectDBX Classes
 90
        0
280
     0
281
     0
  0
CLASS
  1
RASTERVARIABLES
  2
AcDbRasterVariables
  3
ISM
 90
    32768
280
     0
281
     0
  0
CLASS
  1
IMAGEDEF
  2
AcDbRasterImageDef
  3
ISM
 90
    32768
280
     0
281
     0
  0
CLASS
  1
IMAGEDEF_REACTOR
  2
AcDbRasterImageDefReactor
  3
ISM
 90
    32769
280
     0
281
     0
  0
CLASS
  1
IDBUFFER
  2
AcDbIdBuffer
  3
ObjectDBX Classes
 90
    32768
280
     0
281
     0
  0
CLASS
  1
SPATIAL_FILTER
  2
AcDbSpatialFilter
  3
ObjectDBX Classes
 90
    32768
280
     0
281
     0
  0
CLASS
  1
SORTENTSTABLE
  2
AcDbSortentsTable
  3
ObjectDBX Classes
 90
    32768
280
     0
281
     0
  0
CLASS
  1
LAYER_INDEX
  2
AcDbLayerIndex
  3
ObjectDBX Classes
 90
    32768
280
     0
281
     0
  0
CLASS
  1
SPATIAL_INDEX
  2
AcDbSpatialIndex
  3
ObjectDBX Classes
 90
    32768
280
     0
281
     0
  0
CLASS
  1
OBJECT_PTR
  2
CAseDLPNTableRecord
  3
"ASE-LPNTableRecord"
 90
    32769
280
     0
281
     0
  0
CLASS
  1
LAYOUT
  2
AcDbLayout
  3
ObjectDBX Classes
 90
        0
280
     0
281
     0
  0
CLASS
  1
PLOTSETTINGS
  2
AcDbPlotSettings
  3
ObjectDBX Classes
 90
    32768
280
     0
281
     0
  0
CLASS
  1
ACDBDICTIONARYWDFLT
  2
AcDbDictionaryWithDefault
  3
ObjectDBX Classes
 90
        0
280
     0
281
     0
  0
CLASS
  1
ACDBPLACEHOLDER
  2
AcDbPlaceHolder
  3
ObjectDBX Classes
 90
        0
280
     0
281
     0
  0
CLASS
  1
VBA_PROJECT
  2
AcDbVbaProject
  3
acad
 90
    32768
280
     0
281
     0
  0
CLASS
  1
WIPEOUT
  2
AcDbWipeout
  3
"WipeOut|Product Desc: Object Enabler for WipeOut entity                        |Company: Autodesk, Inc.                        |WEB Address: www.autodesk.com"
 90
    34943
280
     0
281
     1
  0
CLASS
  1
WIPEOUTVARIABLES
  2
AcDbWipeoutVariables
  3
"WipeOut|Product Desc:     WipeOut Dbx Application|Company:          Autodesk, Inc.|WEB Address:      www.autodesk.com"
 90
    32768
280
     0
281
     0
  0
CLASS
  1
RTEXT
  2
RText
  3
RText|AutoCAD Express Tool|expresstools@autodesk.com
 90
    32768
280
     0
281
     1
  0
CLASS
  1
ARCALIGNEDTEXT
  2
AcDbArcAlignedText
  3
ATEXT|AutoCAD Express Tool|expresstools@autodesk.com
 90
    32768
280
     0
281
     1
  0
CLASS
  1
MATERIAL
  2
AcDbMaterial
  3
ObjectDBX Classes
 90
     1153
280
     0
281
     0
  0
CLASS
  1
VISUALSTYLE
  2
AcDbVisualStyle
  3
ObjectDBX Classes
 90
     4095
280
     0
281
     0
  0
CLASS
  1
TABLESTYLE
  2
AcDbTableStyle
  3
ObjectDBX Classes
 90
     4095
280
     0
281
     0
  0
CLASS
  1
SCALE
  2
AcDbScale
  3
ObjectDBX Classes
 90
     1153
280
     0
281
     0
  0
CLASS
  1
MLEADERSTYLE
  2
AcDbMLeaderStyle
  3
ACDB_MLEADERSTYLE_CLASS
 90
     4095
280
     0
281
     0
  0
CLASS
  1
CELLSTYLEMAP
  2
AcDbCellStyleMap
  3
ObjectDBX Classes
 90
     1152
280
     0
281
     0
  0
ENDSEC
  0
SECTION
  2
TABLES
  0
TABLE
  2
VPORT
  5
6
330
0
100
AcDbSymbolTable
 70
     1
  0
VPORT
  5
1B
330
6
100
AcDbSymbolTableRecord
100
AcDbViewportTableRecord
  2
*ACTIVE
 70
     0
 10
0.0
 20
0.0
 11
1.0
 21
1.0
 12
523.4156720727342
 22
-131.274339157152
 13
0.0
 23
0.0
 14
1.0
 24
1.0
 15
0.0
 25
0.0
 16
0.0
 26
0.0
 36
1.0
 17
0.0
 27
0.0
 37
0.0
 40
989.0395002160282
 41
1.805914972273567
 42
50.0
 43
0.0
 44
0.0
 50
0.0
 51
0.0
 71
     0
 72
   500
 73
     1
 74
     1
 75
     0
 76
     0
 77
     0
 78
     0
281
     0
 65
     1
110
0.0
120
0.0
130
0.0
111
1.0
121
0.0
131
0.0
112
0.0
122
1.0
132
0.0
 79
     0
146
0.0
  0
ENDTAB
  0
TABLE
  2
LTYPE
  5
3
330
0
100
AcDbSymbolTable
 70
     7
  0
LTYPE
  5
C
330
3
100
AcDbSymbolTableRecord
100
AcDbLinetypeTableRecord
  2
BYBLOCK
 70
     0
  3

 72
    65
 73
     0
 40
0.0
  0
LTYPE
  5
D
330
3
100
AcDbSymbolTableRecord
100
AcDbLinetypeTableRecord
  2
BYLAYER
 70
     0
  3

 72
    65
 73
     0
 40
0.0
  0
LTYPE
  5
E
330
3
100
AcDbSymbolTableRecord
100
AcDbLinetypeTableRecord
  2
CONTINUOUS
 70
     0
  3
Solid line
 72
    65
 73
     0
 40
0.0
  0
LTYPE
  5
F
330
3
100
AcDbSymbolTableRecord
100
AcDbLinetypeTableRecord
  2
DASHED
 70
     0
  3
__ __ __ __ __ __ __ __ __ __ __ __ __ __ __
 72
    65
 73
     2
 40
2.0
 49
1.199999999999999
 74
     0
 49
-0.8
 74
     0
  0
LTYPE
  5
10
330
3
100
AcDbSymbolTableRecord
100
AcDbLinetypeTableRecord
  2
CENTER
 70
     0
  3
____ _ ____ _ ____ _ ____ _ ____ _ ____ _ ____
 72
    65
 73
     4
 40
12.0
 49
9.0
 74
     0
 49
-1.0
 74
     0
 49
1.0
 74
     0
 49
-1.0
 74
     0
  0
LTYPE
  5
11
330
3
100
AcDbSymbolTableRecord
100
AcDbLinetypeTableRecord
  2
HIDDEN
 70
     0
  3
_ _ _ _ _ _ _ _ _ _ _ _ _ _ _ _ _ _ _ _ _ _ _
 72
    65
 73
     2
 40
3.2
 49
2.399999999999999
 74
     0
 49
-0.8
 74
     0
  0
LTYPE
  5
12
330
3
100
AcDbSymbolTableRecord
100
AcDbLinetypeTableRecord
  2
PHANTOM
 70
     0
  3
_____ _ _ _____ _ _ _____ _ _ _____ _ _ _____
 72
    65
 73
     6
 40
13.5
 49
9.0
 74
     0
 49
-1.0
 74
     0
 49
1.0
 74
     0
 49
-0.5
 74
     0
 49
1.0
 74
     0
 49
-1.0
 74
     0
  0
LTYPE
  5
13
330
3
100
AcDbSymbolTableRecord
100
AcDbLinetypeTableRecord
  2
DOT
 70
     0
  3
...............................................
 72
    65
 73
     2
 40
1.0
 49
0.5
 74
     0
 49
-0.5
 74
     0
  0
LTYPE
  5
14
330
3
100
AcDbSymbolTableRecord
100
AcDbLinetypeTableRecord
  2
DASHDOT
 70
     0
  3
__ . __ . __ . __ . __ . __ . __ . __ . __ . __
 72
    65
 73
     4
 40
8.0
 49
5.0
 74
     0
 49
-1.0
 74
     0
 49
1.0
 74
     0
 49
-1.0
 74
     0
  0
ENDTAB
  0
TABLE
  2
LAYER
  5
1
330
0
100
AcDbSymbolTable
 70
     6
  0
LAYER
  5
15
102
{ACAD_XDICTIONARY
360
675
102
}
330
1
100
AcDbSymbolTableRecord
100
AcDbLayerTableRecord
  2
0
 70
     0
 62
     7
  6
CONTINUOUS
370
    -3
390
61C
  0
LAYER
  5
16
102
{ACAD_XDICTIONARY
360
677
102
}
330
1
100
AcDbSymbolTableRecord
100
AcDbLayerTableRecord
  2
1
 70
     0
 62
     7
  6
CONTINUOUS
370
    -3
390
61C
  0
LAYER
  5
17
102
{ACAD_XDICTIONARY
360
679
102
}
330
1
100
AcDbSymbolTableRecord
100
AcDbLayerTableRecord
  2
2
 70
     0
 62
     7
  6
CONTINUOUS
370
    -3
390
61C
  0
LAYER
  5
18
102
{ACAD_XDICTIONARY
360
67B
102
}
330
1
100
AcDbSymbolTableRecord
100
AcDbLayerTableRecord
  2
5
 70
     0
 62
     7
  6
CONTINUOUS
370
    -3
390
61C
  0
LAYER
  5
19
102
{ACAD_XDICTIONARY
360
67D
102
}
330
1
100
AcDbSymbolTableRecord
100
AcDbLayerTableRecord
  2
18
 70
     0
 62
     7
  6
CONTINUOUS
370
    -3
390
61C
  0
LAYER
  5
1A
102
{ACAD_XDICTIONARY
360
67F
102
}
330
1
100
AcDbSymbolTableRecord
100
AcDbLayerTableRecord
  2
20
 70
     0
 62
     7
  6
CONTINUOUS
370
    -3
390
61C
  0
ENDTAB
  0
TABLE
  2
STYLE
  5
2
330
0
100
AcDbSymbolTable
 70
     1
  0
STYLE
  5
1D
330
2
100
AcDbSymbolTableRecord
100
AcDbTextStyleTableRecord
  2
STANDARD
 70
     0
 40
0.0
 41
1.0
 50
0.0
 71
     0
 42
1.0
  3
simplex.shx
  4
BIGFONT.shx
  0
ENDTAB
  0
TABLE
  2
VIEW
  5
4
330
0
100
AcDbSymbolTable
 70
     0
  0
ENDTAB
  0
TABLE
  2
UCS
  5
5
330
0
100
AcDbSymbolTable
 70
     0
  0
ENDTAB
  0
TABLE
  2
APPID
  5
7
330
0
100
AcDbSymbolTable
 70
     3
  0
APPID
  5
1C
330
7
100
AcDbSymbolTableRecord
100
AcDbRegAppTableRecord
  2
ACAD
 70
     0
  0
APPID
  5
66E
330
7
100
AcDbSymbolTableRecord
100
AcDbRegAppTableRecord
  2
ACAD_MLEADERVER
 70
     0
  0
APPID
  5
674
330
7
100
AcDbSymbolTableRecord
100
AcDbRegAppTableRecord
  2
AcadAnnoPO
 70
     0
  0
ENDTAB
  0
TABLE
  2
DIMSTYLE
  5
8
330
0
100
AcDbSymbolTable
 70
     1
100
AcDbDimStyleTable
 71
     0
  0
DIMSTYLE
105
2B
330
8
100
AcDbSymbolTableRecord
100
AcDbDimStyleTableRecord
  2
STANDARD
 70
     0
 40
3.0
 77
     1
340
1D
  0
ENDTAB
  0
TABLE
  2
BLOCK_RECORD
  5
26
330
0
100
AcDbSymbolTable
 70
     6
  0
BLOCK_RECORD
  5
24
330
26
100
AcDbSymbolTableRecord
100
AcDbBlockTableRecord
  2
*MODEL_SPACE
340
671
  0
BLOCK_RECORD
  5
25
330
26
100
AcDbSymbolTableRecord
100
AcDbBlockTableRecord
  2
*PAPER_SPACE
340
672
  0
BLOCK_RECORD
  5
1E
330
26
100
AcDbSymbolTableRecord
100
AcDbBlockTableRecord
  2
*D0
340
0
  0
BLOCK_RECORD
  5
1F
330
26
100
AcDbSymbolTableRecord
100
AcDbBlockTableRecord
  2
*D1
340
0
  0
BLOCK_RECORD
  5
20
330
26
100
AcDbSymbolTableRecord
100
AcDbBlockTableRecord
  2
*D2
340
0
  0
BLOCK_RECORD
  5
21
330
26
100
AcDbSymbolTableRecord
100
AcDbBlockTableRecord
  2
*D3
340
0
  0
BLOCK_RECORD
  5
22
330
26
100
AcDbSymbolTableRecord
100
AcDbBlockTableRecord
  2
*D4
340
0
  0
BLOCK_RECORD
  5
23
330
26
100
AcDbSymbolTableRecord
100
AcDbBlockTableRecord
  2
*D5
340
0
  0
ENDTAB
  0
ENDSEC
  0
SECTION
  2
BLOCKS
  0
BLOCK
  5
27
330
24
100
AcDbEntity
  8
0
100
AcDbBlockBegin
  2
*MODEL_SPACE
 70
     0
 10
0.0
 20
0.0
 30
0.0
  3
*MODEL_SPACE
  1

  0
ENDBLK
  5
28
330
24
100
AcDbEntity
  8
0
100
AcDbBlockEnd
  0
BLOCK
  5
29
330
25
100
AcDbEntity
 67
     1
  8
0
100
AcDbBlockBegin
  2
*PAPER_SPACE
 70
     0
 10
0.0
 20
0.0
 30
0.0
  3
*PAPER_SPACE
  1

  0
ENDBLK
  5
2A
330
25
100
AcDbEntity
 67
     1
  8
0
100
AcDbBlockEnd
  0
BLOCK
  5
5CA
330
1E
100
AcDbEntity
  8
5
100
AcDbBlockBegin
  2
*D0
 70
     1
 10
0.0
 20
0.0
 30
0.0
  3
*D0
  1

  0
TEXT
  5
5CB
330
1E
100
AcDbEntity
  8
5
 62
     2
100
AcDbText
 10
27.323462
 20
-127.060269
 30
0.0
 40
9.9
  1
191
 50
90.0
 41
0.9321951219512197
 72
     5
 11
27.323462
 21
-109.042269
 31
0.0
100
AcDbText
  0
LINE
  5
5CC
330
1E
100
AcDbEntity
  8
5
 62
     2
100
AcDbLine
 10
72.34397099999999
 20
-212.165269
 30
0.0
 11
25.823462
 21
-212.165269
 31
0.0
  0
LINE
  5
5CD
330
1E
100
AcDbEntity
  8
5
 62
     2
100
AcDbLine
 10
28.823462
 20
-212.165269
 30
0.0
 11
30.376376
 21
-206.369714
 31
0.0
  0
LINE
  5
5CE
330
1E
100
AcDbEntity
  8
5
 62
     2
100
AcDbLine
 10
28.823462
 20
-212.165269
 30
0.0
 11
27.270547
 21
-206.369714
 31
0.0
  0
LINE
  5
5CF
330
1E
100
AcDbEntity
  8
5
 62
     2
100
AcDbLine
 10
30.376376
 20
-206.369714
 30
0.0
 11
27.270547
 21
-206.369714
 31
0.0
  0
LINE
  5
5D0
330
1E
100
AcDbEntity
  8
5
 62
     2
100
AcDbLine
 10
28.823462
 20
-212.165269
 30
0.0
 11
28.823462
 21
-21.165269
 31
0.0
  0
LINE
  5
5D1
330
1E
100
AcDbEntity
  8
5
 62
     2
100
AcDbLine
 10
28.823462
 20
-21.165269
 30
0.0
 11
27.270547
 21
-26.960824
 31
0.0
  0
LINE
  5
5D2
330
1E
100
AcDbEntity
  8
5
 62
     2
100
AcDbLine
 10
28.823462
 20
-21.165269
 30
0.0
 11
30.376376
 21
-26.960824
 31
0.0
  0
LINE
  5
5D3
330
1E
100
AcDbEntity
  8
5
 62
     2
100
AcDbLine
 10
27.270547
 20
-26.960824
 30
0.0
 11
30.376376
 21
-26.960824
 31
0.0
  0
LINE
  5
5D4
330
1E
100
AcDbEntity
  8
5
 62
     2
100
AcDbLine
 10
50.604304
 20
-21.165269
 30
0.0
 11
25.823462
 21
-21.165269
 31
0.0
  0
ENDBLK
  5
5D5
330
1E
100
AcDbEntity
  8
5
100
AcDbBlockEnd
  0
BLOCK
  5
5D6
330
1F
100
AcDbEntity
  8
5
100
AcDbBlockBegin
  2
*D1
 70
     1
 10
0.0
 20
0.0
 30
0.0
  3
*D1
  1

  0
TEXT
  5
5D7
330
1F
100
AcDbEntity
  8
5
 62
     2
100
AcDbText
 10
27.323462
 20
-280.9102689999999
 30
0.0
 40
9.9
  1
117
 50
90.0
 41
0.8308695652173899
 72
     5
 11
27.323462
 21
-262.892269
 31
0.0
100
AcDbText
  0
LINE
  5
5D8
330
1F
100
AcDbEntity
  8
5
 62
     2
100
AcDbLine
 10
108.104304
 20
-328.865269
 30
0.0
 11
25.823462
 21
-328.865269
 31
0.0
  0
LINE
  5
5D9
330
1F
100
AcDbEntity
  8
5
 62
     2
100
AcDbLine
 10
28.823462
 20
-328.865269
 30
0.0
 11
30.376376
 21
-323.069714
 31
0.0
  0
LINE
  5
5DA
330
1F
100
AcDbEntity
  8
5
 62
     2
100
AcDbLine
 10
28.823462
 20
-328.865269
 30
0.0
 11
27.270547
 21
-323.069714
 31
0.0
  0
LINE
  5
5DB
330
1F
100
AcDbEntity
  8
5
 62
     2
100
AcDbLine
 10
30.376376
 20
-323.069714
 30
0.0
 11
27.270547
 21
-323.069714
 31
0.0
  0
LINE
  5
5DC
330
1F
100
AcDbEntity
  8
5
 62
     2
100
AcDbLine
 10
28.823462
 20
-328.865269
 30
0.0
 11
28.823462
 21
-212.165269
 31
0.0
  0
LINE
  5
5DD
330
1F
100
AcDbEntity
  8
5
 62
     2
100
AcDbLine
 10
28.823462
 20
-212.165269
 30
0.0
 11
27.270547
 21
-217.960824
 31
0.0
  0
LINE
  5
5DE
330
1F
100
AcDbEntity
  8
5
 62
     2
100
AcDbLine
 10
28.823462
 20
-212.165269
 30
0.0
 11
30.376376
 21
-217.960824
 31
0.0
  0
LINE
  5
5DF
330
1F
100
AcDbEntity
  8
5
 62
     2
100
AcDbLine
 10
27.270547
 20
-217.960824
 30
0.0
 11
30.376376
 21
-217.960824
 31
0.0
  0
LINE
  5
5E0
330
1F
100
AcDbEntity
  8
5
 62
     2
100
AcDbLine
 10
72.34397099999999
 20
-212.165269
 30
0.0
 11
25.823462
 21
-212.165269
 31
0.0
  0
ENDBLK
  5
5E1
330
1F
100
AcDbEntity
  8
5
100
AcDbBlockEnd
  0
BLOCK
  5
5E2
330
20
100
AcDbEntity
  8
5
100
AcDbBlockBegin
  2
*D2
 70
     1
 10
0.0
 20
0.0
 30
0.0
  3
*D2
  1

  0
TEXT
  5
5E3
330
20
100
AcDbEntity
  8
5
 62
     2
100
AcDbText
 10
109.174304
 20
-357.454079
 30
0.0
 40
9.9
  1
56
 41
0.7127272727272722
 72
     5
 11
120.262304
 21
-357.454079
 31
0.0
100
AcDbText
  0
LINE
  5
5E4
330
20
100
AcDbEntity
  8
5
 62
     2
100
AcDbLine
 10
88.10430399999999
 20
-304.665269
 30
0.0
 11
88.10430399999999
 21
-361.954079
 31
0.0
  0
LINE
  5
5E5
330
20
100
AcDbEntity
  8
5
 62
     2
100
AcDbLine
 10
88.10430399999999
 20
-358.954079
 30
0.0
 11
93.89985899999999
 21
-360.506993
 31
0.0
  0
LINE
  5
5E6
330
20
100
AcDbEntity
  8
5
 62
     2
100
AcDbLine
 10
88.10430399999999
 20
-358.954079
 30
0.0
 11
93.89985899999999
 21
-357.401164
 31
0.0
  0
LINE
  5
5E7
330
20
100
AcDbEntity
  8
5
 62
     2
100
AcDbLine
 10
93.89985899999999
 20
-360.506993
 30
0.0
 11
93.89985899999999
 21
-357.401164
 31
0.0
  0
LINE
  5
5E8
330
20
100
AcDbEntity
  8
5
 62
     2
100
AcDbLine
 10
88.10430399999999
 20
-358.954079
 30
0.0
 11
144.104304
 21
-358.954079
 31
0.0
  0
LINE
  5
5E9
330
20
100
AcDbEntity
  8
5
 62
     2
100
AcDbLine
 10
144.104304
 20
-358.954079
 30
0.0
 11
138.308749
 21
-357.401164
 31
0.0
  0
LINE
  5
5EA
330
20
100
AcDbEntity
  8
5
 62
     2
100
AcDbLine
 10
144.104304
 20
-358.954079
 30
0.0
 11
138.308749
 21
-360.506993
 31
0.0
  0
LINE
  5
5EB
330
20
100
AcDbEntity
  8
5
 62
     2
100
AcDbLine
 10
138.308749
 20
-357.401164
 30
0.0
 11
138.308749
 21
-360.506993
 31
0.0
  0
LINE
  5
5EC
330
20
100
AcDbEntity
  8
5
 62
     2
100
AcDbLine
 10
144.104304
 20
-304.665269
 30
0.0
 11
144.104304
 21
-361.954079
 31
0.0
  0
ENDBLK
  5
5ED
330
20
100
AcDbEntity
  8
5
100
AcDbBlockEnd
  0
BLOCK
  5
5EE
330
21
100
AcDbEntity
  8
5
100
AcDbBlockBegin
  2
*D3
 70
     1
 10
0.0
 20
0.0
 30
0.0
  3
*D3
  1

  0
TEXT
  5
5EF
330
21
100
AcDbEntity
  8
5
 62
     2
100
AcDbText
 10
-471.891861
 20
266.399731
 30
0.0
 40
9.9
  1
87.5
 50
90.0
 41
0.8268749999999991
 72
     5
 11
-471.891861
 21
291.347731
 31
0.0
100
AcDbText
  0
LINE
  5
5F0
330
21
100
AcDbEntity
  8
5
 62
     2
100
AcDbLine
 10
-452.4316019999999
 20
236.509731
 30
0.0
 11
-473.3918609999999
 21
236.509731
 31
0.0
  0
LINE
  5
5F1
330
21
100
AcDbEntity
  8
5
 62
     2
100
AcDbLine
 10
-470.391861
 20
236.509731
 30
0.0
 11
-468.8389469999999
 21
242.305286
 31
0.0
  0
LINE
  5
5F2
330
21
100
AcDbEntity
  8
5
 62
     2
100
AcDbLine
 10
-470.391861
 20
236.509731
 30
0.0
 11
-471.9447749999999
 21
242.305286
 31
0.0
  0
LINE
  5
5F3
330
21
100
AcDbEntity
  8
5
 62
     2
100
AcDbLine
 10
-468.8389469999999
 20
242.305286
 30
0.0
 11
-471.9447749999999
 21
242.305286
 31
0.0
  0
LINE
  5
5F4
330
21
100
AcDbEntity
  8
5
 62
     2
100
AcDbLine
 10
-470.391861
 20
236.509731
 30
0.0
 11
-470.391861
 21
324.009731
 31
0.0
  0
LINE
  5
5F5
330
21
100
AcDbEntity
  8
5
 62
     2
100
AcDbLine
 10
-470.391861
 20
324.009731
 30
0.0
 11
-471.9447749999999
 21
318.2141759999999
 31
0.0
  0
LINE
  5
5F6
330
21
100
AcDbEntity
  8
5
 62
     2
100
AcDbLine
 10
-470.391861
 20
324.009731
 30
0.0
 11
-468.8389469999999
 21
318.2141759999999
 31
0.0
  0
LINE
  5
5F7
330
21
100
AcDbEntity
  8
5
 62
     2
100
AcDbLine
 10
-471.9447749999999
 20
318.2141759999999
 30
0.0
 11
-468.8389469999999
 21
318.2141759999999
 31
0.0
  0
LINE
  5
5F8
330
21
100
AcDbEntity
  8
5
 62
     2
100
AcDbLine
 10
-362.570696
 20
324.009731
 30
0.0
 11
-473.3918609999999
 21
324.009731
 31
0.0
  0
ENDBLK
  5
5F9
330
21
100
AcDbEntity
  8
5
100
AcDbBlockEnd
  0
BLOCK
  5
5FA
330
22
100
AcDbEntity
  8
5
100
AcDbBlockBegin
  2
*D4
 70
     1
 10
0.0
 20
0.0
 30
0.0
  3
*D4
  1

  0
LINE
  5
5FB
330
22
100
AcDbEntity
  8
5
 62
     2
100
AcDbLine
 10
50.604304
 20
-21.165269
 30
0.0
 11
25.823462
 21
-21.165269
 31
0.0
  0
LINE
  5
5FC
330
22
100
AcDbEntity
  8
5
 62
     2
100
AcDbLine
 10
28.823462
 20
-21.165269
 30
0.0
 11
30.376376
 21
-15.369714
 31
0.0
  0
LINE
  5
5FD
330
22
100
AcDbEntity
  8
5
 62
     2
100
AcDbLine
 10
28.823462
 20
-21.165269
 30
0.0
 11
27.270547
 21
-15.369714
 31
0.0
  0
LINE
  5
5FE
330
22
100
AcDbEntity
  8
5
 62
     2
100
AcDbLine
 10
30.376376
 20
-15.369714
 30
0.0
 11
27.270547
 21
-15.369714
 31
0.0
  0
LINE
  5
5FF
330
22
100
AcDbEntity
  8
5
 62
     2
100
AcDbLine
 10
28.823462
 20
-21.165269
 30
0.0
 11
28.823462
 21
70.938356
 31
0.0
  0
LINE
  5
600
330
22
100
AcDbEntity
  8
5
 62
     2
100
AcDbLine
 10
28.823462
 20
70.938356
 30
0.0
 11
27.270547
 21
65.142801
 31
0.0
  0
LINE
  5
601
330
22
100
AcDbEntity
  8
5
 62
     2
100
AcDbLine
 10
28.823462
 20
70.938356
 30
0.0
 11
30.376376
 21
65.142801
 31
0.0
  0
LINE
  5
602
330
22
100
AcDbEntity
  8
5
 62
     2
100
AcDbLine
 10
27.270547
 20
65.142801
 30
0.0
 11
30.376376
 21
65.142801
 31
0.0
  0
LINE
  5
603
330
22
100
AcDbEntity
  8
5
 62
     2
100
AcDbLine
 10
105.81539
 20
70.938356
 30
0.0
 11
25.823462
 21
70.938356
 31
0.0
  0
ENDBLK
  5
604
330
22
100
AcDbEntity
  8
5
100
AcDbBlockEnd
  0
BLOCK
  5
605
330
23
100
AcDbEntity
  8
5
100
AcDbBlockBegin
  2
*D5
 70
     1
 10
0.0
 20
0.0
 30
0.0
  3
*D5
  1

  0
LINE
  5
606
330
23
100
AcDbEntity
  8
5
 62
     2
100
AcDbLine
 10
-342.570696
 20
31.805564
 30
0.0
 11
-342.570696
 21
104.956718
 31
0.0
  0
LINE
  5
607
330
23
100
AcDbEntity
  8
5
 62
     2
100
AcDbLine
 10
-342.570696
 20
101.956718
 30
0.0
 11
-336.775141
 21
100.403804
 31
0.0
  0
LINE
  5
608
330
23
100
AcDbEntity
  8
5
 62
     2
100
AcDbLine
 10
-342.570696
 20
101.956718
 30
0.0
 11
-336.775141
 21
103.509633
 31
0.0
  0
LINE
  5
609
330
23
100
AcDbEntity
  8
5
 62
     2
100
AcDbLine
 10
-336.775141
 20
100.403804
 30
0.0
 11
-336.775141
 21
103.509633
 31
0.0
  0
LINE
  5
60A
330
23
100
AcDbEntity
  8
5
 62
     2
100
AcDbLine
 10
-342.570696
 20
101.956718
 30
0.0
 11
-42.747875
 21
101.956718
 31
0.0
  0
LINE
  5
60B
330
23
100
AcDbEntity
  8
5
 62
     2
100
AcDbLine
 10
-42.747875
 20
101.956718
 30
0.0
 11
-48.54343
 21
103.509633
 31
0.0
  0
LINE
  5
60C
330
23
100
AcDbEntity
  8
5
 62
     2
100
AcDbLine
 10
-42.747875
 20
101.956718
 30
0.0
 11
-48.54343
 21
100.403804
 31
0.0
  0
LINE
  5
60D
330
23
100
AcDbEntity
  8
5
 62
     2
100
AcDbLine
 10
-48.54343
 20
103.509633
 30
0.0
 11
-48.54343
 21
100.403804
 31
0.0
  0
LINE
  5
60E
330
23
100
AcDbEntity
  8
5
 62
     2
100
AcDbLine
 10
-42.747875
 20
63.563192
 30
0.0
 11
-42.747875
 21
104.956718
 31
0.0
  0
ENDBLK
  5
60F
330
23
100
AcDbEntity
  8
5
100
AcDbBlockEnd
  0
ENDSEC
  0
SECTION
  2
ENTITIES
  0
LINE
  5
2C
330
24
100
AcDbEntity
  8
1
  6
CENTER
 62
     2
100
AcDbLine
 10
-449.4316019999999
 20
-212.165269
 30
0.0
 11
-234.779007
 21
-212.165269
 31
0.0
  0
LINE
  5
2D
330
24
100
AcDbEntity
  8
1
100
AcDbLine
 10
-295.570696
 20
-35.16526900000001
 30
0.0
 11
-389.570696
 21
-35.16526900000001
 31
0.0
  0
LINE
  5
2E
330
24
100
AcDbEntity
  8
1
100
AcDbLine
 10
-291.570696
 20
-31.165269
 30
0.0
 11
-291.570696
 21
-21.165269
 31
0.0
  0
LINE
  5
2F
330
24
100
AcDbEntity
  8
1
100
AcDbLine
 10
-393.570696
 20
-31.165269
 30
0.0
 11
-393.570696
 21
-21.165269
 31
0.0
  0
LINE
  5
30
330
24
100
AcDbEntity
  8
1
100
AcDbLine
 10
-361.070696
 20
-43.165269
 30
0.0
 11
-361.070696
 21
-115.790999
 31
0.0
  0
LINE
  5
31
330
24
100
AcDbEntity
  8
1
100
AcDbLine
 10
-324.070696
 20
-43.165269
 30
0.0
 11
-324.070696
 21
-115.790999
 31
0.0
  0
LINE
  5
32
330
24
100
AcDbEntity
  8
1
100
AcDbLine
 10
-369.570696
 20
-320.1652689999999
 30
0.0
 11
-315.570696
 21
-320.1652689999999
 31
0.0
  0
LINE
  5
33
330
24
100
AcDbEntity
  8
1
100
AcDbLine
 10
-369.570696
 20
-323.365269
 30
0.0
 11
-369.570696
 21
-305.606427
 31
0.0
  0
LINE
  5
34
330
24
100
AcDbEntity
  8
1
100
AcDbLine
 10
-315.570696
 20
-323.365269
 30
0.0
 11
-315.570696
 21
-305.606427
 31
0.0
  0
LINE
  5
35
330
24
100
AcDbEntity
  8
1
100
AcDbLine
 10
-345.570696
 20
-38.165269
 30
0.0
 11
-345.570696
 21
-62.132165
 31
0.0
  0
LINE
  5
36
330
24
100
AcDbEntity
  8
1
100
AcDbLine
 10
-339.570696
 20
-38.165269
 30
0.0
 11
-339.570696
 21
-62.132165
 31
0.0
  0
LINE
  5
37
330
24
100
AcDbEntity
  8
1
  6
CENTER
 62
     2
100
AcDbLine
 10
-360.570696
 20
-312.86727
 30
0.0
 11
-360.570696
 21
-333.160177
 31
0.0
  0
LINE
  5
38
330
24
100
AcDbEntity
  8
1
  6
CENTER
 62
     2
100
AcDbLine
 10
-324.570696
 20
-312.86727
 30
0.0
 11
-324.570696
 21
-333.160177
 31
0.0
  0
LINE
  5
39
330
24
100
AcDbEntity
  8
1
  6
CENTER
 62
     2
100
AcDbLine
 10
-342.570696
 20
-338.181295
 30
0.0
 11
-342.570696
 21
28.805564
 31
0.0
  0
ARC
  5
3A
330
24
100
AcDbEntity
  8
1
100
AcDbCircle
 10
-389.570696
 20
-31.165269
 30
0.0
 40
4.0
100
AcDbArc
 50
180.0
 51
270.0
  0
ARC
  5
3B
330
24
100
AcDbEntity
  8
1
100
AcDbCircle
 10
-295.570696
 20
-31.165269
 30
0.0
 40
4.0
100
AcDbArc
 50
270.0
 51
360.0
  0
ARC
  5
3C
330
24
100
AcDbEntity
  8
1
100
AcDbCircle
 10
-316.070696
 20
-43.165269
 30
0.0
 40
8.0
100
AcDbArc
 50
90.0
 51
180.0
  0
ARC
  5
3D
330
24
100
AcDbEntity
  8
1
100
AcDbCircle
 10
-369.070696
 20
-43.165269
 30
0.0
 40
8.0
100
AcDbArc
 50
0.0
 51
90.0
  0
ARC
  5
3E
330
24
100
AcDbEntity
  8
1
100
AcDbCircle
 10
-336.570696
 20
-38.165269
 30
0.0
 40
3.0
100
AcDbArc
 50
90.0
 51
180.0
  0
ARC
  5
3F
330
24
100
AcDbEntity
  8
1
100
AcDbCircle
 10
-348.570696
 20
-38.165269
 30
0.0
 40
3.0
100
AcDbArc
 50
0.0
 51
90.0
  0
ARC
  5
40
330
24
100
AcDbEntity
  8
1
100
AcDbCircle
 10
-348.570696
 20
-62.132165
 30
0.0
 40
3.0
100
AcDbArc
 50
270.0
 51
0.0
  0
ARC
  5
41
330
24
100
AcDbEntity
  8
1
100
AcDbCircle
 10
-336.570696
 20
-62.132165
 30
0.0
 40
3.0
100
AcDbArc
 50
180.0
 51
270.0
  0
CIRCLE
  5
42
330
24
100
AcDbEntity
  8
1
100
AcDbCircle
 10
-342.570696
 20
-212.165269
 30
0.0
 40
90.5
  0
CIRCLE
  5
43
330
24
100
AcDbEntity
  8
1
100
AcDbCircle
 10
-342.570696
 20
-212.165269
 30
0.0
 40
89.50000000000001
  0
ARC
  5
44
330
24
100
AcDbEntity
  8
1
100
AcDbCircle
 10
-314.070696
 20
-115.790999
 30
0.0
 40
10.0
100
AcDbArc
 50
180.0
 51
253.525888
  0
ARC
  5
45
330
24
100
AcDbEntity
  8
1
100
AcDbCircle
 10
-371.070696
 20
-115.790999
 30
0.0
 40
10.0
100
AcDbArc
 50
286.474112
 51
360.0
  0
ARC
  5
46
330
24
100
AcDbEntity
  8
1
100
AcDbCircle
 10
-342.570696
 20
-212.165269
 30
0.0
 40
127.0
100
AcDbArc
 50
102.006883
 51
110.636394
  0
ARC
  5
47
330
24
100
AcDbEntity
  8
1
100
AcDbCircle
 10
-342.570696
 20
-212.165269
 30
0.0
 40
127.0
100
AcDbArc
 50
69.363606
 51
77.993117
  0
ARC
  5
48
330
24
100
AcDbEntity
  8
1
100
AcDbCircle
 10
-371.070696
 20
-78.162471
 30
0.0
 40
10.0
100
AcDbArc
 50
282.006883
 51
360.0
  0
ARC
  5
49
330
24
100
AcDbEntity
  8
1
100
AcDbCircle
 10
-314.070696
 20
-78.162471
 30
0.0
 40
10.0
100
AcDbArc
 50
180.0
 51
257.993117
  0
LINE
  5
4A
330
24
100
AcDbEntity
  8
1
100
AcDbLine
 10
-388.483133
 20
-101.322842
 30
0.0
 11
-389.615862
 21
-98.58819200000001
 31
0.0
  0
LINE
  5
4B
330
24
100
AcDbEntity
  8
1
100
AcDbLine
 10
-296.658259
 20
-101.322842
 30
0.0
 11
-295.525531
 21
-98.58819200000001
 31
0.0
  0
ARC
  5
4C
330
24
100
AcDbEntity
  8
1
100
AcDbCircle
 10
-299.2210490000001
 20
-97.057459
 30
0.0
 40
4.0
100
AcDbArc
 50
337.5
 51
69.363606
  0
ARC
  5
4D
330
24
100
AcDbEntity
  8
1
100
AcDbCircle
 10
-385.920344
 20
-97.057459
 30
0.0
 40
4.0
100
AcDbArc
 50
110.636394
 51
202.5
  0
LINE
  5
4E
330
24
100
AcDbEntity
  8
1
100
AcDbLine
 10
-313.888936
 20
-115.157918
 30
0.0
 11
-313.888936
 21
-121.429047
 31
0.0
  0
LINE
  5
4F
330
24
100
AcDbEntity
  8
1
100
AcDbLine
 10
-371.252457
 20
-115.157918
 30
0.0
 11
-371.252457
 21
-121.429047
 31
0.0
  0
ARC
  5
50
330
24
100
AcDbEntity
  8
1
100
AcDbCircle
 10
-302.388936
 20
-115.157918
 30
0.0
 40
11.5
100
AcDbArc
 50
82.455248
 51
180.0
  0
ARC
  5
51
330
24
100
AcDbEntity
  8
1
100
AcDbCircle
 10
-382.752457
 20
-115.157918
 30
0.0
 40
11.5
100
AcDbArc
 50
0.0
 51
97.54475200000001
  0
ARC
  5
52
330
24
100
AcDbEntity
  8
1
100
AcDbCircle
 10
-300.353778
 20
-99.792108
 30
0.0
 40
4.0
100
AcDbArc
 50
262.455248
 51
337.5
  0
ARC
  5
53
330
24
100
AcDbEntity
  8
1
100
AcDbCircle
 10
-384.787615
 20
-99.792108
 30
0.0
 40
4.0
100
AcDbArc
 50
202.5
 51
277.544752
  0
ARC
  5
54
330
24
100
AcDbEntity
  8
1
100
AcDbCircle
 10
-306.888936
 20
-121.429047
 30
0.0
 40
7.0
100
AcDbArc
 50
180.0
 51
248.532908
  0
ARC
  5
55
330
24
100
AcDbEntity
  8
1
100
AcDbCircle
 10
-378.252457
 20
-121.429047
 30
0.0
 40
7.0
100
AcDbArc
 50
291.467092
 51
360.0
  0
ARC
  5
56
330
24
100
AcDbEntity
  8
1
100
AcDbCircle
 10
-305.570696
 20
-305.606427
 30
0.0
 40
10.0
100
AcDbArc
 50
111.602135
 51
180.0
  0
ARC
  5
57
330
24
100
AcDbEntity
  8
1
100
AcDbCircle
 10
-379.570696
 20
-305.606427
 30
0.0
 40
10.0
100
AcDbArc
 50
0.0
 51
68.39786499999999
  0
LINE
  5
58
330
24
100
AcDbEntity
  8
1
100
AcDbLine
 10
-313.888936
 20
-309.17262
 30
0.0
 11
-313.888936
 21
-302.911572
 31
0.0
  0
LINE
  5
59
330
24
100
AcDbEntity
  8
1
100
AcDbLine
 10
-371.252457
 20
-309.17262
 30
0.0
 11
-371.252457
 21
-302.911572
 31
0.0
  0
ARC
  5
5A
330
24
100
AcDbEntity
  8
1
100
AcDbCircle
 10
-302.388936
 20
-309.17262
 30
0.0
 40
11.5
100
AcDbArc
 50
180.0
 51
200.712095
  0
ARC
  5
5B
330
24
100
AcDbEntity
  8
1
100
AcDbCircle
 10
-382.752457
 20
-309.17262
 30
0.0
 40
11.5
100
AcDbArc
 50
339.287905
 51
360.0
  0
ARC
  5
5C
330
24
100
AcDbEntity
  8
1
100
AcDbCircle
 10
-306.888936
 20
-302.911572
 30
0.0
 40
7.0
100
AcDbArc
 50
116.066447
 51
180.0
  0
ARC
  5
5D
330
24
100
AcDbEntity
  8
1
100
AcDbCircle
 10
-378.252457
 20
-302.911572
 30
0.0
 40
7.0
100
AcDbArc
 50
0.0
 51
63.93355300000001
  0
ARC
  5
5E
330
24
100
AcDbEntity
  8
1
100
AcDbCircle
 10
-312.570696
 20
-320.1652689999999
 30
0.0
 40
3.0
100
AcDbArc
 50
128.071029
 51
180.0
  0
ARC
  5
5F
330
24
100
AcDbEntity
  8
1
100
AcDbCircle
 10
-372.570696
 20
-320.1652689999999
 30
0.0
 40
3.0
100
AcDbArc
 50
0.0
 51
51.928971
  0
ARC
  5
60
330
24
100
AcDbEntity
  8
1
100
AcDbCircle
 10
-316.887161
 20
-314.654541
 30
0.0
 40
4.0
100
AcDbArc
 50
308.071029
 51
20.712095
  0
ARC
  5
61
330
24
100
AcDbEntity
  8
1
100
AcDbCircle
 10
-368.254231
 20
-314.654541
 30
0.0
 40
4.0
100
AcDbArc
 50
159.287905
 51
231.928971
  0
LINE
  5
62
330
24
100
AcDbEntity
  8
1
100
AcDbLine
 10
-366.570696
 20
-317.165269
 30
0.0
 11
-318.570696
 21
-317.165269
 31
0.0
  0
ARC
  5
63
330
24
100
AcDbEntity
  8
1
100
AcDbCircle
 10
-318.570696
 20
-314.165269
 30
0.0
 40
3.0
100
AcDbArc
 50
270.0
 51
360.0
  0
ARC
  5
64
330
24
100
AcDbEntity
  8
1
100
AcDbCircle
 10
-366.570696
 20
-314.165269
 30
0.0
 40
3.0
100
AcDbArc
 50
180.0
 51
270.0
  0
LINE
  5
65
330
24
100
AcDbEntity
  8
1
100
AcDbLine
 10
-369.570696
 20
-320.965269
 30
0.0
 11
-315.570696
 21
-320.965269
 31
0.0
  0
LINE
  5
66
330
24
100
AcDbEntity
  8
1
100
AcDbLine
 10
-369.570696
 20
-323.365269
 30
0.0
 11
-315.570696
 21
-323.365269
 31
0.0
  0
LINE
  5
67
330
24
100
AcDbEntity
  8
1
100
AcDbLine
 10
-318.820696
 20
-324.865269
 30
0.0
 11
-318.820696
 21
-328.374521
 31
0.0
  0
LINE
  5
68
330
24
100
AcDbEntity
  8
1
100
AcDbLine
 10
-318.820696
 20
-328.374521
 30
0.0
 11
-319.670696
 21
-328.865269
 31
0.0
  0
LINE
  5
69
330
24
100
AcDbEntity
  8
1
100
AcDbLine
 10
-321.695696
 20
-324.865269
 30
0.0
 11
-321.695696
 21
-328.374521
 31
0.0
  0
ARC
  5
6A
330
24
100
AcDbEntity
  8
1
100
AcDbCircle
 10
-320.258196
 20
-326.526567
 30
0.0
 40
2.341226999999999
100
AcDbArc
 50
232.121121
 51
307.878879
  0
ARC
  5
6B
330
24
100
AcDbEntity
  8
1
100
AcDbCircle
 10
-324.570696
 20
-320.242794
 30
0.0
 40
8.625
100
AcDbArc
 50
250.528777
 51
289.471219
  0
LINE
  5
6C
330
24
100
AcDbEntity
  8
1
100
AcDbLine
 10
-330.320696
 20
-324.865269
 30
0.0
 11
-330.320696
 21
-328.374521
 31
0.0
  0
LINE
  5
6D
330
24
100
AcDbEntity
  8
1
100
AcDbLine
 10
-330.320696
 20
-328.374521
 30
0.0
 11
-329.470696
 21
-328.865269
 31
0.0
  0
LINE
  5
6E
330
24
100
AcDbEntity
  8
1
100
AcDbLine
 10
-329.470696
 20
-328.865269
 30
0.0
 11
-319.670696
 21
-328.865269
 31
0.0
  0
LINE
  5
6F
330
24
100
AcDbEntity
  8
1
100
AcDbLine
 10
-327.445696
 20
-324.865269
 30
0.0
 11
-327.445696
 21
-328.374521
 31
0.0
  0
ARC
  5
70
330
24
100
AcDbEntity
  8
1
100
AcDbCircle
 10
-328.883196
 20
-326.526567
 30
0.0
 40
2.341226999999999
100
AcDbArc
 50
232.121121
 51
307.878879
  0
LINE
  5
71
330
24
100
AcDbEntity
  8
1
100
AcDbLine
 10
-318.470696
 20
-323.365269
 30
0.0
 11
-318.470696
 21
-324.865269
 31
0.0
  0
LINE
  5
72
330
24
100
AcDbEntity
  8
1
100
AcDbLine
 10
-318.470696
 20
-324.865269
 30
0.0
 11
-330.670696
 21
-324.865269
 31
0.0
  0
LINE
  5
73
330
24
100
AcDbEntity
  8
1
100
AcDbLine
 10
-330.670696
 20
-324.865269
 30
0.0
 11
-330.670696
 21
-323.365269
 31
0.0
  0
LINE
  5
74
330
24
100
AcDbEntity
  8
1
100
AcDbLine
 10
-324.570696
 20
-324.865269
 30
0.0
 11
-325.070696
 21
-323.365269
 31
0.0
  0
LINE
  5
75
330
24
100
AcDbEntity
  8
1
100
AcDbLine
 10
-324.570696
 20
-323.365269
 30
0.0
 11
-324.070696
 21
-324.865269
 31
0.0
  0
LINE
  5
76
330
24
100
AcDbEntity
  8
1
100
AcDbLine
 10
-354.820696
 20
-324.865269
 30
0.0
 11
-354.820696
 21
-328.374521
 31
0.0
  0
LINE
  5
77
330
24
100
AcDbEntity
  8
1
100
AcDbLine
 10
-354.820696
 20
-328.374521
 30
0.0
 11
-355.670696
 21
-328.865269
 31
0.0
  0
LINE
  5
78
330
24
100
AcDbEntity
  8
1
100
AcDbLine
 10
-357.695696
 20
-324.865269
 30
0.0
 11
-357.695696
 21
-328.374521
 31
0.0
  0
ARC
  5
79
330
24
100
AcDbEntity
  8
1
100
AcDbCircle
 10
-356.258196
 20
-326.526567
 30
0.0
 40
2.341226999999999
100
AcDbArc
 50
232.121121
 51
307.878879
  0
ARC
  5
7A
330
24
100
AcDbEntity
  8
1
100
AcDbCircle
 10
-360.570696
 20
-320.242794
 30
0.0
 40
8.625
100
AcDbArc
 50
250.528777
 51
289.471219
  0
LINE
  5
7B
330
24
100
AcDbEntity
  8
1
100
AcDbLine
 10
-366.320696
 20
-324.865269
 30
0.0
 11
-366.320696
 21
-328.374521
 31
0.0
  0
LINE
  5
7C
330
24
100
AcDbEntity
  8
1
100
AcDbLine
 10
-366.320696
 20
-328.374521
 30
0.0
 11
-365.470696
 21
-328.865269
 31
0.0
  0
LINE
  5
7D
330
24
100
AcDbEntity
  8
1
100
AcDbLine
 10
-365.470696
 20
-328.865269
 30
0.0
 11
-355.670696
 21
-328.865269
 31
0.0
  0
LINE
  5
7E
330
24
100
AcDbEntity
  8
1
100
AcDbLine
 10
-363.445696
 20
-324.865269
 30
0.0
 11
-363.445696
 21
-328.374521
 31
0.0
  0
ARC
  5
7F
330
24
100
AcDbEntity
  8
1
100
AcDbCircle
 10
-364.883196
 20
-326.526567
 30
0.0
 40
2.341226999999999
100
AcDbArc
 50
232.121121
 51
307.878879
  0
LINE
  5
80
330
24
100
AcDbEntity
  8
1
100
AcDbLine
 10
-354.470696
 20
-323.365269
 30
0.0
 11
-354.470696
 21
-324.865269
 31
0.0
  0
LINE
  5
81
330
24
100
AcDbEntity
  8
1
100
AcDbLine
 10
-354.470696
 20
-324.865269
 30
0.0
 11
-366.670696
 21
-324.865269
 31
0.0
  0
LINE
  5
82
330
24
100
AcDbEntity
  8
1
100
AcDbLine
 10
-366.670696
 20
-324.865269
 30
0.0
 11
-366.670696
 21
-323.365269
 31
0.0
  0
LINE
  5
83
330
24
100
AcDbEntity
  8
1
100
AcDbLine
 10
-360.570696
 20
-324.865269
 30
0.0
 11
-361.070696
 21
-323.365269
 31
0.0
  0
LINE
  5
84
330
24
100
AcDbEntity
  8
1
100
AcDbLine
 10
-360.570696
 20
-323.365269
 30
0.0
 11
-360.070696
 21
-324.865269
 31
0.0
  0
CIRCLE
  5
85
330
24
100
AcDbEntity
  8
1
100
AcDbCircle
 10
-342.570696
 20
-212.165269
 30
0.0
 40
81.09999999999999
  0
CIRCLE
  5
86
330
24
100
AcDbEntity
  8
1
100
AcDbCircle
 10
-342.570696
 20
-212.165269
 30
0.0
 40
83.49999999999999
  0
CIRCLE
  5
87
330
24
100
AcDbEntity
  8
1
100
AcDbCircle
 10
-342.570696
 20
-212.165269
 30
0.0
 40
69.95
  0
LINE
  5
88
330
24
100
AcDbEntity
  8
1
100
AcDbLine
 10
-368.833142
 20
-41.36526899999999
 30
0.0
 11
-362.935324
 21
-41.36526899999999
 31
0.0
  0
LINE
  5
89
330
24
100
AcDbEntity
  8
1
100
AcDbLine
 10
-323.865566
 20
-41.36526899999999
 30
0.0
 11
-316.30825
 21
-41.36526899999999
 31
0.0
  0
CIRCLE
  5
8A
330
24
100
AcDbEntity
  8
1
100
AcDbCircle
 10
-342.570696
 20
-212.165269
 30
0.0
 40
64.95
  0
LINE
  5
8B
330
24
100
AcDbEntity
  8
1
100
AcDbLine
 10
-339.570696
 20
-65.132165
 30
0.0
 11
-345.570696
 21
-65.132165
 31
0.0
  0
CIRCLE
  5
8C
330
24
100
AcDbEntity
  8
1
  6
DASHED
100
AcDbCircle
 10
-378.570696
 20
272.509731
 30
0.0
 40
5.5
  0
CIRCLE
  5
8D
330
24
100
AcDbEntity
  8
1
  6
DASHED
100
AcDbCircle
 10
-306.570696
 20
272.509731
 30
0.0
 40
5.5
  0
CIRCLE
  5
8E
330
24
100
AcDbEntity
  8
1
  6
DASHED
100
AcDbCircle
 10
-306.570696
 20
200.509731
 30
0.0
 40
5.5
  0
CIRCLE
  5
8F
330
24
100
AcDbEntity
  8
1
  6
DASHED
100
AcDbCircle
 10
-378.570696
 20
200.509731
 30
0.0
 40
5.5
  0
LINE
  5
90
330
24
100
AcDbEntity
  8
1
  6
CENTER
 62
     2
100
AcDbLine
 10
-317.808006
 20
272.509731
 30
0.0
 11
-295.650124
 21
272.509731
 31
0.0
  0
LINE
  5
91
330
24
100
AcDbEntity
  8
1
  6
CENTER
 62
     2
100
AcDbLine
 10
-389.108406
 20
200.509731
 30
0.0
 11
-366.950508
 21
200.509731
 31
0.0
  0
LINE
  5
92
330
24
100
AcDbEntity
  8
1
  6
CENTER
 62
     2
100
AcDbLine
 10
-378.570696
 20
191.994707
 30
0.0
 11
-378.570696
 21
212.985743
 31
0.0
  0
LINE
  5
93
330
24
100
AcDbEntity
  8
1
  6
CENTER
 62
     2
100
AcDbLine
 10
-306.570696
 20
263.58687
 30
0.0
 11
-306.570696
 21
281.514681
 31
0.0
  0
LINE
  5
94
330
24
100
AcDbEntity
  8
1
  6
DASHED
100
AcDbLine
 10
-275.940773
 20
248.026391
 30
0.0
 11
-291.570696
 21
248.026391
 31
0.0
  0
LINE
  5
95
330
24
100
AcDbEntity
  8
1
  6
DASHED
100
AcDbLine
 10
-275.940773
 20
224.99307
 30
0.0
 11
-291.570696
 21
224.99307
 31
0.0
  0
ARC
  5
96
330
24
100
AcDbEntity
  8
1
  6
DASHED
100
AcDbCircle
 10
-275.940773
 20
227.509731
 30
0.0
 40
2.516659999999999
100
AcDbArc
 50
270.0
 51
0.0
  0
ARC
  5
97
330
24
100
AcDbEntity
  8
1
  6
DASHED
100
AcDbCircle
 10
-275.940773
 20
245.509731
 30
0.0
 40
2.516659999999999
100
AcDbArc
 50
0.0
 51
90.0
  0
LINE
  5
98
330
24
100
AcDbEntity
  8
1
  6
DASHED
100
AcDbLine
 10
-262.203658
 20
250.75739
 30
0.0
 11
-273.424113
 21
248.026391
 31
0.0
  0
LINE
  5
99
330
24
100
AcDbEntity
  8
1
  6
DASHED
100
AcDbLine
 10
-262.203658
 20
222.262072
 30
0.0
 11
-273.424113
 21
224.99307
 31
0.0
  0
ARC
  5
9A
330
24
100
AcDbEntity
  8
1
100
AcDbCircle
 10
-409.200619
 20
227.509731
 30
0.0
 40
2.516659999999999
100
AcDbArc
 50
180.0
 51
270.0
  0
ARC
  5
9B
330
24
100
AcDbEntity
  8
1
100
AcDbCircle
 10
-409.200619
 20
245.509731
 30
0.0
 40
2.516659999999999
100
AcDbArc
 50
90.0
 51
180.0
  0
LINE
  5
9C
330
24
100
AcDbEntity
  8
1
100
AcDbLine
 10
-422.937735
 20
250.75739
 30
0.0
 11
-411.7172799999999
 21
248.026391
 31
0.0
  0
LINE
  5
9D
330
24
100
AcDbEntity
  8
1
100
AcDbLine
 10
-422.937735
 20
222.262072
 30
0.0
 11
-411.7172799999999
 21
224.99307
 31
0.0
  0
LINE
  5
9E
330
24
100
AcDbEntity
  8
1
  6
DASHED
100
AcDbLine
 10
-393.570696
 20
209.009731
 30
0.0
 11
-393.570696
 21
264.009731
 31
0.0
  0
LINE
  5
9F
330
24
100
AcDbEntity
  8
1
  6
DASHED
100
AcDbLine
 10
-291.570696
 20
209.009731
 30
0.0
 11
-291.570696
 21
264.009731
 31
0.0
  0
LINE
  5
A0
330
24
100
AcDbEntity
  8
1
  6
DASHED
100
AcDbLine
 10
-370.070696
 20
287.509731
 30
0.0
 11
-315.070696
 21
287.509731
 31
0.0
  0
LINE
  5
A1
330
24
100
AcDbEntity
  8
1
  6
DASHED
100
AcDbLine
 10
-370.070696
 20
185.509731
 30
0.0
 11
-315.070696
 21
185.509731
 31
0.0
  0
ARC
  5
A2
330
24
100
AcDbEntity
  8
1
  6
DASHED
100
AcDbCircle
 10
-315.070696
 20
264.009731
 30
0.0
 40
23.5
100
AcDbArc
 50
0.0
 51
90.0
  0
ARC
  5
A3
330
24
100
AcDbEntity
  8
1
  6
DASHED
100
AcDbCircle
 10
-370.070696
 20
264.009731
 30
0.0
 40
23.5
100
AcDbArc
 50
90.0
 51
180.0
  0
ARC
  5
A4
330
24
100
AcDbEntity
  8
1
  6
DASHED
100
AcDbCircle
 10
-370.070696
 20
209.009731
 30
0.0
 40
23.5
100
AcDbArc
 50
180.0
 51
270.0
  0
ARC
  5
A5
330
24
100
AcDbEntity
  8
1
  6
DASHED
100
AcDbCircle
 10
-315.070696
 20
209.009731
 30
0.0
 40
23.5
100
AcDbArc
 50
270.0
 51
0.0
  0
LINE
  5
A6
330
24
100
AcDbEntity
  8
1
100
AcDbLine
 10
-252.070696
 20
263.509731
 30
0.0
 11
-253.070696
 21
264.509731
 31
0.0
  0
LINE
  5
A7
330
24
100
AcDbEntity
  8
1
100
AcDbLine
 10
-253.070696
 20
208.509731
 30
0.0
 11
-252.070696
 21
209.509731
 31
0.0
  0
LINE
  5
A8
330
24
100
AcDbEntity
  8
1
  6
DASHED
100
AcDbLine
 10
-257.5457
 20
227.1849
 30
0.0
 11
-257.5457
 21
245.834562
 31
0.0
  0
LINE
  5
A9
330
24
100
AcDbEntity
  8
1
  6
DASHED
100
AcDbLine
 10
-259.112623
 20
227.509731
 30
0.0
 11
-259.112623
 21
245.509731
 31
0.0
  0
LINE
  5
AA
330
24
100
AcDbEntity
  8
1
  6
DASHED
100
AcDbLine
 10
-291.570696
 20
251.509731
 30
0.0
 11
-265.112623
 21
251.509731
 31
0.0
  0
LINE
  5
AB
330
24
100
AcDbEntity
  8
1
  6
DASHED
100
AcDbLine
 10
-291.570696
 20
221.509731
 30
0.0
 11
-265.112623
 21
221.509731
 31
0.0
  0
ARC
  5
AC
330
24
100
AcDbEntity
  8
1
  6
DASHED
100
AcDbCircle
 10
-265.112623
 20
245.509731
 30
0.0
 40
6.0
100
AcDbArc
 50
0.0
 51
90.0
  0
ARC
  5
AD
330
24
100
AcDbEntity
  8
1
  6
DASHED
100
AcDbCircle
 10
-265.112623
 20
227.509731
 30
0.0
 40
6.0
100
AcDbArc
 50
270.0
 51
360.0
  0
LINE
  5
AE
330
24
100
AcDbEntity
  8
1
  6
DASHED
100
AcDbLine
 10
-273.424113
 20
227.509731
 30
0.0
 11
-273.424113
 21
245.509731
 31
0.0
  0
LINE
  5
AF
330
24
100
AcDbEntity
  8
1
100
AcDbLine
 10
-252.070696
 20
209.509731
 30
0.0
 11
-252.070696
 21
217.673096
 31
0.0
  0
LINE
  5
B0
330
24
100
AcDbEntity
  8
1
100
AcDbLine
 10
-252.070696
 20
255.346366
 30
0.0
 11
-252.070696
 21
263.509731
 31
0.0
  0
ARC
  5
B1
330
24
100
AcDbEntity
  8
1
  6
DASHED
100
AcDbCircle
 10
-251.5457
 20
245.834562
 30
0.0
 40
6.0
100
AcDbArc
 50
120.150455
 51
180.0
  0
ARC
  5
B2
330
24
100
AcDbEntity
  8
1
  6
DASHED
100
AcDbCircle
 10
-251.5457
 20
227.1849
 30
0.0
 40
6.0
100
AcDbArc
 50
180.0
 51
239.849545
  0
LINE
  5
B3
330
24
100
AcDbEntity
  8
1
100
AcDbLine
 10
-433.0706959999999
 20
263.509731
 30
0.0
 11
-432.0706959999999
 21
264.509731
 31
0.0
  0
LINE
  5
B4
330
24
100
AcDbEntity
  8
1
100
AcDbLine
 10
-432.0706959999999
 20
208.509731
 30
0.0
 11
-433.0706959999999
 21
209.509731
 31
0.0
  0
LINE
  5
B5
330
24
100
AcDbEntity
  8
1
100
AcDbLine
 10
-427.5956929999999
 20
227.1849
 30
0.0
 11
-427.5956929999999
 21
245.834562
 31
0.0
  0
LINE
  5
B6
330
24
100
AcDbEntity
  8
1
100
AcDbLine
 10
-426.02877
 20
227.509731
 30
0.0
 11
-426.02877
 21
245.509731
 31
0.0
  0
ARC
  5
B7
330
24
100
AcDbEntity
  8
1
100
AcDbCircle
 10
-420.02877
 20
245.509731
 30
0.0
 40
6.0
100
AcDbArc
 50
90.0
 51
180.0
  0
ARC
  5
B8
330
24
100
AcDbEntity
  8
1
100
AcDbCircle
 10
-420.02877
 20
227.509731
 30
0.0
 40
6.0
100
AcDbArc
 50
180.0
 51
270.0
  0
LINE
  5
B9
330
24
100
AcDbEntity
  8
1
100
AcDbLine
 10
-411.7172799999999
 20
227.509731
 30
0.0
 11
-411.7172799999999
 21
245.509731
 31
0.0
  0
LINE
  5
BA
330
24
100
AcDbEntity
  8
1
100
AcDbLine
 10
-433.0706959999999
 20
209.509731
 30
0.0
 11
-433.0706959999999
 21
217.673096
 31
0.0
  0
LINE
  5
BB
330
24
100
AcDbEntity
  8
1
100
AcDbLine
 10
-433.0706959999999
 20
255.346366
 30
0.0
 11
-433.0706959999999
 21
263.509731
 31
0.0
  0
ARC
  5
BC
330
24
100
AcDbEntity
  8
1
100
AcDbCircle
 10
-428.0706959999999
 20
255.346366
 30
0.0
 40
5.0
100
AcDbArc
 50
180.0
 51
239.849545
  0
ARC
  5
BD
330
24
100
AcDbEntity
  8
1
100
AcDbCircle
 10
-428.0706959999999
 20
217.673096
 30
0.0
 40
5.0
100
AcDbArc
 50
120.150455
 51
180.0
  0
ARC
  5
BE
330
24
100
AcDbEntity
  8
1
100
AcDbCircle
 10
-433.595693
 20
245.834562
 30
0.0
 40
6.0
100
AcDbArc
 50
0.0
 51
59.84954499999998
  0
ARC
  5
BF
330
24
100
AcDbEntity
  8
1
100
AcDbCircle
 10
-433.595693
 20
227.1849
 30
0.0
 40
6.0
100
AcDbArc
 50
300.150455
 51
360.0
  0
LINE
  5
C0
330
24
100
AcDbEntity
  8
1
100
AcDbLine
 10
-423.670696
 20
265.884731
 30
0.0
 11
-425.567808
 21
264.797844
 31
0.0
  0
LINE
  5
C1
330
24
100
AcDbEntity
  8
1
100
AcDbLine
 10
-423.670696
 20
207.134731
 30
0.0
 11
-425.567808
 21
208.221618
 31
0.0
  0
ARC
  5
C2
330
24
100
AcDbEntity
  8
1
100
AcDbCircle
 10
-425.070696
 20
263.930157
 30
0.0
 40
1.0
100
AcDbArc
 50
119.809114
 51
144.579452
  0
ARC
  5
C3
330
24
100
AcDbEntity
  8
1
100
AcDbCircle
 10
-425.070696
 20
209.089304
 30
0.0
 40
1.0
100
AcDbArc
 50
215.420548
 51
240.1908859999999
  0
LINE
  5
C4
330
24
100
AcDbEntity
  8
1
100
AcDbLine
 10
-261.470696
 20
265.884731
 30
0.0
 11
-259.573584
 21
264.797844
 31
0.0
  0
LINE
  5
C5
330
24
100
AcDbEntity
  8
1
100
AcDbLine
 10
-261.470696
 20
207.134731
 30
0.0
 11
-259.573584
 21
208.221618
 31
0.0
  0
ARC
  5
C6
330
24
100
AcDbEntity
  8
1
100
AcDbCircle
 10
-260.070696
 20
209.089304
 30
0.0
 40
1.0
100
AcDbArc
 50
299.809114
 51
324.579452
  0
ARC
  5
C7
330
24
100
AcDbEntity
  8
1
100
AcDbCircle
 10
-260.070696
 20
263.930157
 30
0.0
 40
1.0
100
AcDbArc
 50
35.420548
 51
60.19088599999999
  0
LINE
  5
C8
330
24
100
AcDbEntity
  8
1
  6
CENTER
 62
     2
100
AcDbLine
 10
-378.633142
 20
-51.274796
 30
0.0
 11
-378.633142
 21
-10.304712
 31
0.0
  0
LINE
  5
C9
330
24
100
AcDbEntity
  8
1
  6
CENTER
 62
     2
100
AcDbLine
 10
-306.50825
 20
-51.262968
 30
0.0
 11
-306.50825
 21
-9.639979999999999
 31
0.0
  0
ARC
  5
CA
330
24
100
AcDbEntity
  8
1
100
AcDbCircle
 10
-294.070696
 20
-65.132165
 30
0.0
 40
30.0
100
AcDbArc
 50
92.528576
 51
96.19533800000001
  0
ARC
  5
CB
330
24
100
AcDbEntity
  8
1
100
AcDbCircle
 10
-294.070696
 20
-65.132165
 30
0.0
 40
30.0
100
AcDbArc
 50
137.457232
 51
180.0
  0
LINE
  5
CC
330
24
100
AcDbEntity
  8
1
100
AcDbLine
 10
-423.670696
 20
265.884731
 30
0.0
 11
-397.737347
 21
265.884731
 31
0.0
  0
LINE
  5
CD
330
24
100
AcDbEntity
  8
1
  6
DASHED
100
AcDbLine
 10
-397.737347
 20
265.884731
 30
0.0
 11
-393.495776
 21
265.884731
 31
0.0
  0
LINE
  5
CE
330
24
100
AcDbEntity
  8
1
  6
DASHED
100
AcDbLine
 10
-393.565376
 20
264.509731
 30
0.0
 11
-398.447793
 21
264.509731
 31
0.0
  0
LINE
  5
CF
330
24
100
AcDbEntity
  8
1
100
AcDbLine
 10
-398.447793
 20
264.509731
 30
0.0
 11
-432.0706959999999
 21
264.509731
 31
0.0
  0
LINE
  5
D0
330
24
100
AcDbEntity
  8
1
  6
DASHED
100
AcDbLine
 10
-393.570696
 20
263.509731
 30
0.0
 11
-398.9377970000001
 21
263.509731
 31
0.0
  0
LINE
  5
D1
330
24
100
AcDbEntity
  8
1
100
AcDbLine
 10
-398.9377970000001
 20
263.509731
 30
0.0
 11
-433.0706959999999
 21
263.509731
 31
0.0
  0
LINE
  5
D2
330
24
100
AcDbEntity
  8
1
  6
DASHED
100
AcDbLine
 10
-393.570696
 20
251.509731
 30
0.0
 11
-403.244002
 21
251.509731
 31
0.0
  0
LINE
  5
D3
330
24
100
AcDbEntity
  8
1
100
AcDbLine
 10
-403.244002
 20
251.509731
 30
0.0
 11
-420.02877
 21
251.509731
 31
0.0
  0
LINE
  5
D4
330
24
100
AcDbEntity
  8
1
100
AcDbLine
 10
-409.200619
 20
248.026391
 30
0.0
 11
-404.0004649999999
 21
248.026391
 31
0.0
  0
LINE
  5
D5
330
24
100
AcDbEntity
  8
1
  6
DASHED
100
AcDbLine
 10
-404.0004649999999
 20
248.026391
 30
0.0
 11
-393.570696
 21
248.026391
 31
0.0
  0
LINE
  5
D6
330
24
100
AcDbEntity
  8
1
100
AcDbLine
 10
-409.200619
 20
224.99307
 30
0.0
 11
-404.0004649999999
 21
224.99307
 31
0.0
  0
LINE
  5
D7
330
24
100
AcDbEntity
  8
1
  6
DASHED
100
AcDbLine
 10
-404.0004649999999
 20
224.99307
 30
0.0
 11
-393.570696
 21
224.99307
 31
0.0
  0
LINE
  5
D8
330
24
100
AcDbEntity
  8
1
  6
DASHED
100
AcDbLine
 10
-393.570696
 20
221.509731
 30
0.0
 11
-403.244002
 21
221.509731
 31
0.0
  0
LINE
  5
D9
330
24
100
AcDbEntity
  8
1
100
AcDbLine
 10
-403.244002
 20
221.509731
 30
0.0
 11
-420.02877
 21
221.509731
 31
0.0
  0
LINE
  5
DA
330
24
100
AcDbEntity
  8
1
  6
DASHED
100
AcDbLine
 10
-393.570696
 20
209.509731
 30
0.0
 11
-398.9377970000001
 21
209.509731
 31
0.0
  0
LINE
  5
DB
330
24
100
AcDbEntity
  8
1
100
AcDbLine
 10
-398.9377970000001
 20
209.509731
 30
0.0
 11
-433.0706959999999
 21
209.509731
 31
0.0
  0
LINE
  5
DC
330
24
100
AcDbEntity
  8
1
  6
DASHED
100
AcDbLine
 10
-393.565376
 20
208.509731
 30
0.0
 11
-398.447793
 21
208.509731
 31
0.0
  0
LINE
  5
DD
330
24
100
AcDbEntity
  8
1
100
AcDbLine
 10
-398.447793
 20
208.509731
 30
0.0
 11
-432.0706959999999
 21
208.509731
 31
0.0
  0
LINE
  5
DE
330
24
100
AcDbEntity
  8
1
100
AcDbLine
 10
-423.670696
 20
207.134731
 30
0.0
 11
-397.737347
 21
207.134731
 31
0.0
  0
LINE
  5
DF
330
24
100
AcDbEntity
  8
1
  6
DASHED
100
AcDbLine
 10
-397.737347
 20
207.134731
 30
0.0
 11
-393.495776
 21
207.134731
 31
0.0
  0
LINE
  5
E0
330
24
100
AcDbEntity
  8
1
  6
DASHED
100
AcDbLine
 10
-291.645616
 20
265.884731
 30
0.0
 11
-276.288275
 21
265.884731
 31
0.0
  0
LINE
  5
E1
330
24
100
AcDbEntity
  8
1
100
AcDbLine
 10
-276.288275
 20
265.884731
 30
0.0
 11
-261.470696
 21
265.884731
 31
0.0
  0
LINE
  5
E2
330
24
100
AcDbEntity
  8
1
  6
DASHED
100
AcDbLine
 10
-291.5760160000001
 20
264.509731
 30
0.0
 11
-276.044919
 21
264.509731
 31
0.0
  0
LINE
  5
E3
330
24
100
AcDbEntity
  8
1
100
AcDbLine
 10
-276.044919
 20
264.509731
 30
0.0
 11
-253.070696
 21
264.509731
 31
0.0
  0
LINE
  5
E4
330
24
100
AcDbEntity
  8
1
  6
DASHED
100
AcDbLine
 10
-291.570696
 20
263.509731
 30
0.0
 11
-277.1362279999999
 21
263.509731
 31
0.0
  0
LINE
  5
E5
330
24
100
AcDbEntity
  8
1
100
AcDbLine
 10
-277.1362279999999
 20
263.509731
 30
0.0
 11
-252.070696
 21
263.509731
 31
0.0
  0
ARC
  5
E6
330
24
100
AcDbEntity
  8
1
100
AcDbCircle
 10
-257.070696
 20
255.346366
 30
0.0
 40
5.0
100
AcDbArc
 50
322.521141
 51
0.0
  0
ARC
  5
E7
330
24
100
AcDbEntity
  8
1
100
AcDbCircle
 10
-257.070696
 20
217.673096
 30
0.0
 40
5.0
100
AcDbArc
 50
0.0
 51
37.478849
  0
ARC
  5
E8
330
24
100
AcDbEntity
  8
1
  6
DASHED
100
AcDbCircle
 10
-257.070696
 20
217.673096
 30
0.0
 40
5.0
100
AcDbArc
 50
37.478849
 51
59.84954499999998
  0
LINE
  5
E9
330
24
100
AcDbEntity
  8
1
  6
DASHED
100
AcDbLine
 10
-291.570696
 20
209.509731
 30
0.0
 11
-265.070696
 21
209.509731
 31
0.0
  0
LINE
  5
EA
330
24
100
AcDbEntity
  8
1
100
AcDbLine
 10
-265.070696
 20
209.509731
 30
0.0
 11
-252.070696
 21
209.509731
 31
0.0
  0
LINE
  5
EB
330
24
100
AcDbEntity
  8
1
  6
DASHED
100
AcDbLine
 10
-291.5760160000001
 20
208.509731
 30
0.0
 11
-282.823304
 21
208.509731
 31
0.0
  0
LINE
  5
EC
330
24
100
AcDbEntity
  8
1
100
AcDbLine
 10
-282.823304
 20
208.509731
 30
0.0
 11
-253.070696
 21
208.509731
 31
0.0
  0
LINE
  5
ED
330
24
100
AcDbEntity
  8
1
  6
DASHED
100
AcDbLine
 10
-291.645616
 20
207.134731
 30
0.0
 11
-285.538101
 21
207.134731
 31
0.0
  0
LINE
  5
EE
330
24
100
AcDbEntity
  8
1
100
AcDbLine
 10
-285.538101
 20
207.134731
 30
0.0
 11
-261.470696
 21
207.134731
 31
0.0
  0
LINE
  5
EF
330
24
100
AcDbEntity
  8
1
100
AcDbLine
 10
-327.655011
 20
-272.915269
 30
0.0
 11
-327.125261
 21
-272.832979
 31
0.0
  0
LINE
  5
F0
330
24
100
AcDbEntity
  8
1
100
AcDbLine
 10
-320.014421
 20
-265.666699
 30
0.0
 11
-319.991451
 21
-265.660569
 31
0.0
  0
LINE
  5
F1
330
24
100
AcDbEntity
  8
1
100
AcDbLine
 10
-319.991451
 20
-265.660569
 30
0.0
 11
-320.010046
 21
-265.672159
 31
0.0
  0
LINE
  5
F2
330
24
100
AcDbEntity
  8
1
100
AcDbLine
 10
-357.780086
 20
-272.8771089999999
 30
0.0
 11
-357.518911
 21
-272.915269
 31
0.0
  0
LINE
  5
F3
330
24
100
AcDbEntity
  8
1
100
AcDbLine
 10
-326.224619
 20
-151.415269
 30
0.0
 11
-358.992419
 21
-151.415269
 31
0.0
  0
LINE
  5
F4
330
24
100
AcDbEntity
  8
1
100
AcDbLine
 10
-326.198636
 20
-272.915269
 30
0.0
 11
-358.942756
 21
-272.915269
 31
0.0
  0
ARC
  5
F5
330
24
100
AcDbEntity
  8
1
100
AcDbCircle
 10
-342.570696
 20
-209.205269
 30
0.0
 40
65.78
100
AcDbArc
 50
284.411905
 51
298.714138
  0
ARC
  5
F6
330
24
100
AcDbEntity
  8
1
100
AcDbCircle
 10
-342.570696
 20
-212.165269
 30
0.0
 40
63.2
100
AcDbArc
 50
300.003494
 51
59.99650600000001
  0
ARC
  5
F7
330
24
100
AcDbEntity
  8
1
100
AcDbCircle
 10
-342.570696
 20
-215.125269
 30
0.0
 40
65.78
100
AcDbArc
 50
61.285862
 51
75.744619
  0
LINE
  5
F8
330
24
100
AcDbEntity
  8
1
100
AcDbLine
 10
-358.942756
 20
-272.915269
 30
0.0
 11
-326.198636
 21
-272.915269
 31
0.0
  0
ARC
  5
F9
330
24
100
AcDbEntity
  8
1
100
AcDbCircle
 10
-342.570696
 20
-209.205269
 30
0.0
 40
65.78
100
AcDbArc
 50
241.2858620000001
 51
255.588095
  0
ARC
  5
FA
330
24
100
AcDbEntity
  8
1
100
AcDbCircle
 10
-342.570696
 20
-215.125269
 30
0.0
 40
65.78
100
AcDbArc
 50
104.411905
 51
118.714138
  0
LINE
  5
FB
330
24
100
AcDbEntity
  8
1
100
AcDbLine
 10
-359.02981
 20
-151.415269
 30
0.0
 11
-326.198638
 21
-151.415269
 31
0.0
  0
ARC
  5
FC
330
24
100
AcDbEntity
  8
1
100
AcDbCircle
 10
-342.570696
 20
-212.165269
 30
0.0
 40
63.2
100
AcDbArc
 50
120.003494
 51
239.996506
  0
LINE
  5
FD
330
24
100
AcDbEntity
  8
1
100
AcDbLine
 10
-290.283085
 20
-187.474916
 30
0.0
 11
-291.74184
 21
-184.644865
 31
0.0
  0
LINE
  5
FE
330
24
100
AcDbEntity
  8
1
100
AcDbLine
 10
-293.609627
 20
-184.585936
 30
0.0
 11
-292.141043
 21
-187.100116
 31
0.0
  0
LINE
  5
FF
330
24
100
AcDbEntity
  8
1
100
AcDbLine
 10
-293.092331
 20
-188.600631
 30
0.0
 11
-344.271118
 21
-184.089438
 31
0.0
  0
LINE
  5
100
330
24
100
AcDbEntity
  8
1
100
AcDbLine
 10
-351.157816
 20
-184.362884
 30
0.0
 11
-291.247966
 21
-188.9301899999999
 31
0.0
  0
LINE
  5
101
330
24
100
AcDbEntity
  8
1
100
AcDbLine
 10
-324.022171
 20
-181.481814
 30
0.0
 11
-294.3853049999999
 21
-184.094176
 31
0.0
  0
LINE
  5
102
330
24
100
AcDbEntity
  8
1
100
AcDbLine
 10
-292.53303
 20
-184.107814
 30
0.0
 11
-322.888005
 21
-181.128611
 31
0.0
  0
ARC
  5
103
330
24
100
AcDbEntity
  8
1
100
AcDbCircle
 10
-294.47311
 20
-185.0903139999999
 30
0.0
 40
1.0
100
AcDbArc
 50
30.290086
 51
84.96264299999999
  0
ARC
  5
104
330
24
100
AcDbEntity
  8
1
100
AcDbCircle
 10
-292.630706
 20
-185.103032
 30
0.0
 40
1.0
100
AcDbArc
 50
27.268929
 51
84.394632
  0
ARC
  5
105
330
24
100
AcDbEntity
  8
1
100
AcDbCircle
 10
-291.171951
 20
-187.933084
 30
0.0
 40
1.0
100
AcDbArc
 50
265.640413
 51
27.268929
  0
ARC
  5
106
330
24
100
AcDbEntity
  8
1
100
AcDbCircle
 10
-293.004526
 20
-187.604494
 30
0.0
 40
1.0
100
AcDbArc
 50
264.962639
 51
30.290086
  0
LINE
  5
107
330
24
100
AcDbEntity
  8
1
100
AcDbLine
 10
-330.106596
 20
-173.619645
 30
0.0
 11
-330.106596
 21
-160.141743
 31
0.0
  0
ARC
  5
108
330
24
100
AcDbEntity
  8
1
100
AcDbCircle
 10
-319.130946
 20
-154.96713
 30
0.0
 40
26.962058
100
AcDbArc
 50
222.414985
 51
259.548018
  0
ARC
  5
109
330
24
100
AcDbEntity
  8
1
100
AcDbCircle
 10
-322.106596
 20
-173.166865
 30
0.0
 40
8.0
100
AcDbArc
 50
180.0
 51
264.394632
  0
ARC
  5
10A
330
24
100
AcDbEntity
  8
1
100
AcDbCircle
 10
-343.656481
 20
-177.116475
 30
0.0
 40
7.0
100
AcDbArc
 50
180.0
 51
264.962639
  0
ARC
  5
10B
330
24
100
AcDbEntity
  8
1
100
AcDbCircle
 10
-350.625706
 20
-177.383137
 30
0.0
 40
7.0
100
AcDbArc
 50
180.0
 51
265.640413
  0
ARC
  5
10C
330
24
100
AcDbEntity
  8
1
100
AcDbCircle
 10
-331.606596
 20
-186.856299
 30
0.0
 40
1.0
100
AcDbArc
 50
85.64041299999999
 51
180.0
  0
ARC
  5
10D
330
24
100
AcDbEntity
  8
1
100
AcDbCircle
 10
-338.606596
 20
-186.322644
 30
0.0
 40
1.0
100
AcDbArc
 50
85.64041299999999
 51
180.0
  0
ARC
  5
10E
330
24
100
AcDbEntity
  8
1
100
AcDbCircle
 10
-346.534796
 20
-185.718228
 30
0.0
 40
1.0
100
AcDbArc
 50
0.0
 51
85.64041299999999
  0
ARC
  5
10F
330
24
100
AcDbEntity
  8
1
100
AcDbCircle
 10
-353.534796
 20
-184.835466
 30
0.0
 40
1.0
100
AcDbArc
 50
0.0
 51
68.676321
  0
LINE
  5
110
330
24
100
AcDbEntity
  8
1
100
AcDbLine
 10
-332.606596
 20
-186.856299
 30
0.0
 11
-332.606596
 21
-208.385754
 31
0.0
  0
LINE
  5
111
330
24
100
AcDbEntity
  8
1
100
AcDbLine
 10
-352.534796
 20
-184.835466
 30
0.0
 11
-352.534796
 21
-207.660518
 31
0.0
  0
LINE
  5
112
330
24
100
AcDbEntity
  8
1
100
AcDbLine
 10
-339.606596
 20
-186.322644
 30
0.0
 11
-339.606596
 21
-208.568979
 31
0.0
  0
LINE
  5
113
330
24
100
AcDbEntity
  8
1
100
AcDbLine
 10
-345.534796
 20
-185.718228
 30
0.0
 11
-345.534796
 21
-208.458447
 31
0.0
  0
LINE
  5
114
330
24
100
AcDbEntity
  8
1
100
AcDbLine
 10
-285.633814
 20
-209.88751
 30
0.0
 11
-331.567171
 21
-209.386244
 31
0.0
  0
LINE
  5
115
330
24
100
AcDbEntity
  8
1
100
AcDbLine
 10
-284.644726
 20
-213.443087
 30
0.0
 11
-284.644726
 21
-210.887451
 31
0.0
  0
LINE
  5
116
330
24
100
AcDbEntity
  8
1
100
AcDbLine
 10
-331.567171
 20
-214.944299
 30
0.0
 11
-285.633814
 21
-214.443028
 31
0.0
  0
LINE
  5
117
330
24
100
AcDbEntity
  8
1
100
AcDbLine
 10
-286.844056
 20
-214.353154
 30
0.0
 11
-349.363586
 21
-214.353154
 31
0.0
  0
LINE
  5
118
330
24
100
AcDbEntity
  8
1
100
AcDbLine
 10
-349.363586
 20
-209.977384
 30
0.0
 11
-286.844056
 21
-209.977384
 31
0.0
  0
LINE
  5
119
330
24
100
AcDbEntity
  8
1
100
AcDbLine
 10
-285.844056
 20
-213.353154
 30
0.0
 11
-285.844056
 21
-210.977384
 31
0.0
  0
ARC
  5
11A
330
24
100
AcDbEntity
  8
1
100
AcDbCircle
 10
-285.644726
 20
-213.443087
 30
0.0
 40
1.0
100
AcDbArc
 50
270.625245
 51
360.0
  0
ARC
  5
11B
330
24
100
AcDbEntity
  8
1
100
AcDbCircle
 10
-286.844056
 20
-213.353154
 30
0.0
 40
1.0
100
AcDbArc
 50
270.0
 51
360.0
  0
ARC
  5
11C
330
24
100
AcDbEntity
  8
1
100
AcDbCircle
 10
-286.844056
 20
-210.977384
 30
0.0
 40
1.0
100
AcDbArc
 50
360.0
 51
90.0
  0
ARC
  5
11D
330
24
100
AcDbEntity
  8
1
100
AcDbCircle
 10
-285.644726
 20
-210.887451
 30
0.0
 40
1.0
100
AcDbArc
 50
360.0
 51
89.374762
  0
LINE
  5
11E
330
24
100
AcDbEntity
  8
1
100
AcDbLine
 10
-350.363586
 20
-213.353154
 30
0.0
 11
-350.363586
 21
-210.977384
 31
0.0
  0
LINE
  5
11F
330
24
100
AcDbEntity
  8
1
100
AcDbLine
 10
-357.625706
 20
-209.660518
 30
0.0
 11
-357.625706
 21
-214.818389
 31
0.0
  0
ARC
  5
120
330
24
100
AcDbEntity
  8
1
100
AcDbCircle
 10
-349.363586
 20
-210.977384
 30
0.0
 40
1.0
100
AcDbArc
 50
90.0
 51
180.0
  0
ARC
  5
121
330
24
100
AcDbEntity
  8
1
100
AcDbCircle
 10
-349.363586
 20
-213.353154
 30
0.0
 40
1.0
100
AcDbArc
 50
180.0
 51
270.0
  0
LINE
  5
122
330
24
100
AcDbEntity
  8
1
100
AcDbLine
 10
-356.625706
 20
-208.660518
 30
0.0
 11
-353.534796
 21
-208.660518
 31
0.0
  0
ARC
  5
123
330
24
100
AcDbEntity
  8
1
100
AcDbCircle
 10
-356.625706
 20
-209.660518
 30
0.0
 40
1.0
100
AcDbArc
 50
90.0
 51
180.0
  0
ARC
  5
124
330
24
100
AcDbEntity
  8
1
100
AcDbCircle
 10
-353.534796
 20
-207.660518
 30
0.0
 40
1.0
100
AcDbArc
 50
270.0
 51
360.0
  0
LINE
  5
125
330
24
100
AcDbEntity
  8
1
100
AcDbLine
 10
-344.8893490000001
 20
-209.601939
 30
0.0
 11
-338.910192
 21
-209.601939
 31
0.0
  0
LINE
  5
126
330
24
100
AcDbEntity
  8
1
100
AcDbLine
 10
-345.534796
 20
-209.601939
 30
0.0
 11
-352.534796
 21
-208.660518
 31
0.0
  0
LINE
  5
127
330
24
100
AcDbEntity
  8
1
100
AcDbLine
 10
-339.606596
 20
-209.601939
 30
0.0
 11
-332.606596
 21
-209.374901
 31
0.0
  0
ARC
  5
128
330
24
100
AcDbEntity
  8
1
100
AcDbCircle
 10
-331.606596
 20
-208.385754
 30
0.0
 40
1.0
100
AcDbArc
 50
180.0
 51
269.374762
  0
LINE
  5
129
330
24
100
AcDbEntity
  8
1
100
AcDbLine
 10
-339.036466
 20
-213.360609
 30
0.0
 11
-339.036466
 21
-210.969934
 31
0.0
  0
LINE
  5
12A
330
24
100
AcDbEntity
  8
1
100
AcDbLine
 10
-357.625706
 20
-159.948612
 30
0.0
 11
-357.625706
 21
-177.383137
 31
0.0
  0
LINE
  5
12B
330
24
100
AcDbEntity
  8
1
100
AcDbLine
 10
-350.656481
 20
-177.116475
 30
0.0
 11
-350.656481
 21
-160.092619
 31
0.0
  0
LINE
  5
12C
330
24
100
AcDbEntity
  8
1
100
AcDbLine
 10
-356.543249
 20
-208.856804
 30
0.0
 11
-350.363586
 21
-209.977384
 31
0.0
  0
LINE
  5
12D
330
24
100
AcDbEntity
  8
1
100
AcDbLine
 10
-286.20551
 20
-214.329321
 30
0.0
 11
-285.572755
 21
-214.371043
 31
0.0
  0
LINE
  5
12E
330
24
100
AcDbEntity
  8
1
100
AcDbLine
 10
-286.20551
 20
-210.001217
 30
0.0
 11
-285.572755
 21
-209.959495
 31
0.0
  0
LINE
  5
12F
330
24
100
AcDbEntity
  8
1
100
AcDbLine
 10
-290.283085
 20
-236.855622
 30
0.0
 11
-291.74184
 21
-239.685674
 31
0.0
  0
LINE
  5
130
330
24
100
AcDbEntity
  8
1
100
AcDbLine
 10
-293.609627
 20
-239.744603
 30
0.0
 11
-292.141043
 21
-237.230423
 31
0.0
  0
LINE
  5
131
330
24
100
AcDbEntity
  8
1
100
AcDbLine
 10
-293.092331
 20
-235.729907
 30
0.0
 11
-344.271118
 21
-240.2411
 31
0.0
  0
LINE
  5
132
330
24
100
AcDbEntity
  8
1
100
AcDbLine
 10
-351.157816
 20
-239.967655
 30
0.0
 11
-291.247966
 21
-235.400348
 31
0.0
  0
LINE
  5
133
330
24
100
AcDbEntity
  8
1
100
AcDbLine
 10
-324.022171
 20
-242.848724
 30
0.0
 11
-294.3853049999999
 21
-240.236362
 31
0.0
  0
LINE
  5
134
330
24
100
AcDbEntity
  8
1
100
AcDbLine
 10
-292.53303
 20
-240.222724
 30
0.0
 11
-322.888005
 21
-243.201927
 31
0.0
  0
ARC
  5
135
330
24
100
AcDbEntity
  8
1
100
AcDbCircle
 10
-294.47311
 20
-239.240224
 30
0.0
 40
1.0
100
AcDbArc
 50
275.037357
 51
329.709914
  0
ARC
  5
136
330
24
100
AcDbEntity
  8
1
100
AcDbCircle
 10
-292.630706
 20
-239.227506
 30
0.0
 40
1.0
100
AcDbArc
 50
275.605368
 51
332.731071
  0
ARC
  5
137
330
24
100
AcDbEntity
  8
1
100
AcDbCircle
 10
-291.171951
 20
-236.397455
 30
0.0
 40
1.0
100
AcDbArc
 50
332.731071
 51
94.359587
  0
ARC
  5
138
330
24
100
AcDbEntity
  8
1
100
AcDbCircle
 10
-293.004526
 20
-236.726045
 30
0.0
 40
1.0
100
AcDbArc
 50
329.709914
 51
95.03736100000001
  0
LINE
  5
139
330
24
100
AcDbEntity
  8
1
100
AcDbLine
 10
-330.106596
 20
-250.710893
 30
0.0
 11
-330.106596
 21
-264.188795
 31
0.0
  0
ARC
  5
13A
330
24
100
AcDbEntity
  8
1
100
AcDbCircle
 10
-319.130946
 20
-269.363409
 30
0.0
 40
26.962058
100
AcDbArc
 50
100.451982
 51
137.585015
  0
ARC
  5
13B
330
24
100
AcDbEntity
  8
1
100
AcDbCircle
 10
-322.106596
 20
-251.163673
 30
0.0
 40
8.0
100
AcDbArc
 50
95.60536799999999
 51
180.0
  0
ARC
  5
13C
330
24
100
AcDbEntity
  8
1
100
AcDbCircle
 10
-343.656481
 20
-247.214064
 30
0.0
 40
7.0
100
AcDbArc
 50
95.03736100000001
 51
180.0
  0
ARC
  5
13D
330
24
100
AcDbEntity
  8
1
100
AcDbCircle
 10
-350.625706
 20
-246.947401
 30
0.0
 40
7.0
100
AcDbArc
 50
94.359587
 51
180.0
  0
ARC
  5
13E
330
24
100
AcDbEntity
  8
1
100
AcDbCircle
 10
-331.606596
 20
-237.47424
 30
0.0
 40
1.0
100
AcDbArc
 50
180.0
 51
274.359587
  0
ARC
  5
13F
330
24
100
AcDbEntity
  8
1
100
AcDbCircle
 10
-338.606596
 20
-238.007894
 30
0.0
 40
1.0
100
AcDbArc
 50
180.0
 51
274.359587
  0
ARC
  5
140
330
24
100
AcDbEntity
  8
1
100
AcDbCircle
 10
-346.534796
 20
-238.612311
 30
0.0
 40
1.0
100
AcDbArc
 50
274.359587
 51
360.0
  0
ARC
  5
141
330
24
100
AcDbEntity
  8
1
100
AcDbCircle
 10
-353.534796
 20
-239.495073
 30
0.0
 40
1.0
100
AcDbArc
 50
291.323679
 51
360.0
  0
LINE
  5
142
330
24
100
AcDbEntity
  8
1
100
AcDbLine
 10
-332.606596
 20
-237.47424
 30
0.0
 11
-332.606596
 21
-215.944784
 31
0.0
  0
LINE
  5
143
330
24
100
AcDbEntity
  8
1
100
AcDbLine
 10
-352.534796
 20
-239.495073
 30
0.0
 11
-352.534796
 21
-216.67002
 31
0.0
  0
LINE
  5
144
330
24
100
AcDbEntity
  8
1
100
AcDbLine
 10
-339.606596
 20
-238.007894
 30
0.0
 11
-339.606596
 21
-215.761559
 31
0.0
  0
LINE
  5
145
330
24
100
AcDbEntity
  8
1
100
AcDbLine
 10
-345.534796
 20
-238.612311
 30
0.0
 11
-345.534796
 21
-215.872091
 31
0.0
  0
LINE
  5
146
330
24
100
AcDbEntity
  8
1
100
AcDbLine
 10
-357.625706
 20
-264.381926
 30
0.0
 11
-357.625706
 21
-246.947401
 31
0.0
  0
LINE
  5
147
330
24
100
AcDbEntity
  8
1
100
AcDbLine
 10
-350.656481
 20
-247.214064
 30
0.0
 11
-350.656481
 21
-264.237919
 31
0.0
  0
LINE
  5
148
330
24
100
AcDbEntity
  8
1
100
AcDbLine
 10
-356.543249
 20
-215.473734
 30
0.0
 11
-350.363586
 21
-214.353154
 31
0.0
  0
LINE
  5
149
330
24
100
AcDbEntity
  8
1
100
AcDbLine
 10
-345.534796
 20
-214.728599
 30
0.0
 11
-352.534796
 21
-215.67002
 31
0.0
  0
LINE
  5
14A
330
24
100
AcDbEntity
  8
1
100
AcDbLine
 10
-356.625706
 20
-215.67002
 30
0.0
 11
-353.534796
 21
-215.67002
 31
0.0
  0
ARC
  5
14B
330
24
100
AcDbEntity
  8
1
100
AcDbCircle
 10
-356.625706
 20
-214.67002
 30
0.0
 40
1.0
100
AcDbArc
 50
180.0
 51
270.0
  0
LINE
  5
14C
330
24
100
AcDbEntity
  8
1
100
AcDbLine
 10
-293.870361
 20
-184.139567
 30
0.0
 11
-292.665161
 21
-184.153305
 31
0.0
  0
LINE
  5
14D
330
24
100
AcDbEntity
  8
1
100
AcDbLine
 10
-291.165344
 20
-188.770487
 30
0.0
 11
-292.166372
 21
-188.596569
 31
0.0
  0
LINE
  5
14E
330
24
100
AcDbEntity
  8
1
100
AcDbLine
 10
-292.233445
 20
-235.745622
 30
0.0
 11
-290.958413
 21
-235.524099
 31
0.0
  0
LINE
  5
14F
330
24
100
AcDbEntity
  8
1
100
AcDbLine
 10
-331.302237
 20
-267.5350390000001
 30
0.0
 11
-353.423819
 21
-267.5350390000001
 31
0.0
  0
LINE
  5
150
330
24
100
AcDbEntity
  8
1
100
AcDbLine
 10
-329.619526
 20
-272.915269
 30
0.0
 11
-329.619526
 21
-268.237919
 31
0.0
  0
LINE
  5
151
330
24
100
AcDbEntity
  8
1
100
AcDbLine
 10
-355.521866
 20
-272.915269
 30
0.0
 11
-355.521866
 21
-268.237919
 31
0.0
  0
LINE
  5
152
330
24
100
AcDbEntity
  8
1
100
AcDbLine
 10
-353.521866
 20
-266.237919
 30
0.0
 11
-331.619526
 21
-266.237919
 31
0.0
  0
LINE
  5
153
330
24
100
AcDbEntity
  8
1
100
AcDbLine
 10
-319.991451
 20
-270.579509
 30
0.0
 11
-319.991451
 21
-266.6799029999999
 31
0.0
  0
ARC
  5
154
330
24
100
AcDbEntity
  8
1
100
AcDbCircle
 10
-328.106596
 20
-264.188795
 30
0.0
 40
2.0
100
AcDbArc
 50
180.0
 51
261.774456
  0
ARC
  5
155
330
24
100
AcDbEntity
  8
1
100
AcDbCircle
 10
-325.417078
 20
-245.58359
 30
0.0
 40
20.798594
100
AcDbArc
 50
261.774456
 51
285.121397
  0
ARC
  5
156
330
24
100
AcDbEntity
  8
1
100
AcDbCircle
 10
-359.724315
 20
-245.58359
 30
0.0
 40
20.798594
100
AcDbArc
 50
254.878603
 51
270.300548
  0
LINE
  5
157
330
24
100
AcDbEntity
  8
1
100
AcDbLine
 10
-365.149941
 20
-270.579509
 30
0.0
 11
-365.149941
 21
-266.6799029999999
 31
0.0
  0
ARC
  5
158
330
24
100
AcDbEntity
  8
1
100
AcDbCircle
 10
-359.625706
 20
-264.381926
 30
0.0
 40
2.0
100
AcDbArc
 50
270.300548
 51
360.0
  0
ARC
  5
159
330
24
100
AcDbEntity
  8
1
100
AcDbCircle
 10
-352.656481
 20
-264.237919
 30
0.0
 40
2.0
100
AcDbArc
 50
270.0
 51
360.0
  0
ARC
  5
15A
330
24
100
AcDbEntity
  8
1
100
AcDbCircle
 10
-353.521866
 20
-395.24816
 30
0.0
 40
129.010241
100
AcDbArc
 50
90.0
 51
92.63371500000001
  0
ARC
  5
15B
330
24
100
AcDbEntity
  8
1
100
AcDbCircle
 10
-331.619526
 20
-395.24816
 30
0.0
 40
129.010241
100
AcDbArc
 50
87.366285
 51
90.0
  0
LINE
  5
15C
330
24
100
AcDbEntity
  8
1
100
AcDbLine
 10
-331.302237
 20
-156.795499
 30
0.0
 11
-353.423819
 21
-156.795499
 31
0.0
  0
LINE
  5
15D
330
24
100
AcDbEntity
  8
1
100
AcDbLine
 10
-329.619526
 20
-151.415269
 30
0.0
 11
-329.619526
 21
-156.092619
 31
0.0
  0
LINE
  5
15E
330
24
100
AcDbEntity
  8
1
100
AcDbLine
 10
-355.521866
 20
-151.415269
 30
0.0
 11
-355.521866
 21
-156.092619
 31
0.0
  0
LINE
  5
15F
330
24
100
AcDbEntity
  8
1
100
AcDbLine
 10
-353.521866
 20
-158.092619
 30
0.0
 11
-331.619526
 21
-158.092619
 31
0.0
  0
LINE
  5
160
330
24
100
AcDbEntity
  8
1
100
AcDbLine
 10
-319.991451
 20
-153.751029
 30
0.0
 11
-319.991451
 21
-157.650636
 31
0.0
  0
ARC
  5
161
330
24
100
AcDbEntity
  8
1
100
AcDbCircle
 10
-328.106596
 20
-160.141743
 30
0.0
 40
2.0
100
AcDbArc
 50
98.22554400000001
 51
180.0
  0
ARC
  5
162
330
24
100
AcDbEntity
  8
1
100
AcDbCircle
 10
-325.417078
 20
-178.746948
 30
0.0
 40
20.798594
100
AcDbArc
 50
74.878603
 51
98.22554400000001
  0
ARC
  5
163
330
24
100
AcDbEntity
  8
1
100
AcDbCircle
 10
-359.724315
 20
-178.746948
 30
0.0
 40
20.798594
100
AcDbArc
 50
89.69945200000001
 51
105.121397
  0
LINE
  5
164
330
24
100
AcDbEntity
  8
1
100
AcDbLine
 10
-365.149941
 20
-153.751029
 30
0.0
 11
-365.149941
 21
-157.650636
 31
0.0
  0
ARC
  5
165
330
24
100
AcDbEntity
  8
1
100
AcDbCircle
 10
-359.625706
 20
-159.948612
 30
0.0
 40
2.0
100
AcDbArc
 50
0.0
 51
89.69945200000001
  0
ARC
  5
166
330
24
100
AcDbEntity
  8
1
100
AcDbCircle
 10
-352.656481
 20
-160.092619
 30
0.0
 40
2.0
100
AcDbArc
 50
0.0
 51
90.0
  0
ARC
  5
167
330
24
100
AcDbEntity
  8
1
100
AcDbCircle
 10
-353.521866
 20
-29.082379
 30
0.0
 40
129.010241
100
AcDbArc
 50
267.366285
 51
270.0
  0
ARC
  5
168
330
24
100
AcDbEntity
  8
1
100
AcDbCircle
 10
-331.619526
 20
-29.082379
 30
0.0
 40
129.010241
100
AcDbArc
 50
270.0
 51
272.633715
  0
ARC
  5
169
330
24
100
AcDbEntity
  8
1
100
AcDbCircle
 10
-353.534796
 20
-216.67002
 30
0.0
 40
1.0
100
AcDbArc
 50
0.0
 51
90.0
  0
POINT
  5
16A
330
24
100
AcDbEntity
  8
1
100
AcDbPoint
 10
-342.570696
 20
-212.165269
 30
0.0
  0
LINE
  5
16B
330
24
100
AcDbEntity
  8
1
100
AcDbLine
 10
-333.4299640000001
 20
-149.175036
 30
0.0
 11
-351.7114279999999
 21
-149.175036
 31
0.0
  0
ARC
  5
16C
330
24
100
AcDbEntity
  8
1
100
AcDbCircle
 10
-342.570696
 20
-212.165269
 30
0.0
 40
63.65
100
AcDbArc
 50
98.256755
 51
261.87937
  0
ARC
  5
16D
330
24
100
AcDbEntity
  8
1
100
AcDbCircle
 10
-342.570696
 20
-212.165269
 30
0.0
 40
63.65
100
AcDbArc
 50
278.12063
 51
81.743245
  0
LINE
  5
16E
330
24
100
AcDbEntity
  8
1
100
AcDbLine
 10
-351.561748
 20
-275.177042
 30
0.0
 11
-333.579644
 21
-275.177042
 31
0.0
  0
ARC
  5
16F
330
24
100
AcDbEntity
  8
1
  6
DASHED
100
AcDbCircle
 10
-257.070696
 20
255.346366
 30
0.0
 40
5.0
100
AcDbArc
 50
300.150455
 51
322.521141
  0
LINE
  5
170
330
24
100
AcDbEntity
  8
1
  6
CENTER
 62
     2
100
AcDbLine
 10
75.34397099999999
 20
-212.165269
 30
0.0
 11
159.519493
 21
-212.165269
 31
0.0
  0
LINE
  5
171
330
24
100
AcDbEntity
  8
1
  6
CENTER
 62
     2
100
AcDbLine
 10
116.104304
 20
74.73554399999999
 30
0.0
 11
116.104304
 21
-338.181295
 31
0.0
  0
LINE
  5
172
330
24
100
AcDbEntity
  8
1
100
AcDbLine
 10
167.104304
 20
-31.165269
 30
0.0
 11
167.104304
 21
-21.165269
 31
0.0
  0
LINE
  5
173
330
24
100
AcDbEntity
  8
1
100
AcDbLine
 10
65.104304
 20
-31.165269
 30
0.0
 11
65.104304
 21
-21.165269
 31
0.0
  0
LINE
  5
174
330
24
100
AcDbEntity
  8
1
100
AcDbLine
 10
97.604304
 20
-43.165269
 30
0.0
 11
97.604304
 21
-120.380478
 31
0.0
  0
LINE
  5
175
330
24
100
AcDbEntity
  8
1
100
AcDbLine
 10
134.604304
 20
-43.165269
 30
0.0
 11
134.604304
 21
-120.380478
 31
0.0
  0
LINE
  5
176
330
24
100
AcDbEntity
  8
1
100
AcDbLine
 10
98.10430400000001
 20
-301.3088
 30
0.0
 11
98.10430400000001
 21
-323.365269
 31
0.0
  0
LINE
  5
177
330
24
100
AcDbEntity
  8
1
100
AcDbLine
 10
134.104304
 20
-301.3088
 30
0.0
 11
134.104304
 21
-323.365269
 31
0.0
  0
LINE
  5
178
330
24
100
AcDbEntity
  8
1
100
AcDbLine
 10
98.10430400000001
 20
-320.1652689999999
 30
0.0
 11
134.104304
 21
-320.1652689999999
 31
0.0
  0
LINE
  5
179
330
24
100
AcDbEntity
  8
1
100
AcDbLine
 10
113.104304
 20
-42.09732
 30
0.0
 11
113.104304
 21
-62.132165
 31
0.0
  0
LINE
  5
17A
330
24
100
AcDbEntity
  8
1
100
AcDbLine
 10
119.104304
 20
-42.09732
 30
0.0
 11
119.104304
 21
-62.132165
 31
0.0
  0
LINE
  5
17B
330
24
100
AcDbEntity
  8
1
100
AcDbLine
 10
69.104304
 20
-35.16526900000001
 30
0.0
 11
163.104304
 21
-35.16526900000001
 31
0.0
  0
LINE
  5
17C
330
24
100
AcDbEntity
  8
1
100
AcDbLine
 10
112.604304
 20
-300.623577
 30
0.0
 11
112.604304
 21
-316.165269
 31
0.0
  0
LINE
  5
17D
330
24
100
AcDbEntity
  8
1
100
AcDbLine
 10
119.604304
 20
-300.623577
 30
0.0
 11
119.604304
 21
-316.165269
 31
0.0
  0
LINE
  5
17E
330
24
100
AcDbEntity
  8
1
100
AcDbLine
 10
107.104304
 20
-181.165269
 30
0.0
 11
125.104304
 21
-181.165269
 31
0.0
  0
LINE
  5
17F
330
24
100
AcDbEntity
  8
1
100
AcDbLine
 10
107.104304
 20
-243.165269
 30
0.0
 11
125.104304
 21
-243.165269
 31
0.0
  0
LINE
  5
180
330
24
100
AcDbEntity
  8
1
100
AcDbLine
 10
107.104304
 20
-177.165269
 30
0.0
 11
125.104304
 21
-177.165269
 31
0.0
  0
LINE
  5
181
330
24
100
AcDbEntity
  8
1
100
AcDbLine
 10
107.104304
 20
-247.165269
 30
0.0
 11
125.104304
 21
-247.165269
 31
0.0
  0
LINE
  5
182
330
24
100
AcDbEntity
  8
1
100
AcDbLine
 10
131.104304
 20
-171.165269
 30
0.0
 11
131.104304
 21
-133.943443
 31
0.0
  0
LINE
  5
183
330
24
100
AcDbEntity
  8
1
100
AcDbLine
 10
101.104304
 20
-171.165269
 30
0.0
 11
101.104304
 21
-133.943443
 31
0.0
  0
LINE
  5
184
330
24
100
AcDbEntity
  8
1
100
AcDbLine
 10
101.104304
 20
-290.623577
 30
0.0
 11
101.104304
 21
-253.165269
 31
0.0
  0
LINE
  5
185
330
24
100
AcDbEntity
  8
1
100
AcDbLine
 10
101.104304
 20
-237.165269
 30
0.0
 11
101.104304
 21
-187.165269
 31
0.0
  0
LINE
  5
186
330
24
100
AcDbEntity
  8
1
100
AcDbLine
 10
131.104304
 20
-290.623577
 30
0.0
 11
131.104304
 21
-253.165269
 31
0.0
  0
LINE
  5
187
330
24
100
AcDbEntity
  8
1
100
AcDbLine
 10
131.104304
 20
-237.165269
 30
0.0
 11
131.104304
 21
-187.165269
 31
0.0
  0
ARC
  5
188
330
24
100
AcDbEntity
  8
1
100
AcDbCircle
 10
69.104304
 20
-31.165269
 30
0.0
 40
4.0
100
AcDbArc
 50
180.0
 51
270.0
  0
ARC
  5
189
330
24
100
AcDbEntity
  8
1
100
AcDbCircle
 10
163.104304
 20
-31.165269
 30
0.0
 40
4.0
100
AcDbArc
 50
270.0
 51
360.0
  0
ARC
  5
18A
330
24
100
AcDbEntity
  8
1
100
AcDbCircle
 10
142.604304
 20
-43.165269
 30
0.0
 40
8.0
100
AcDbArc
 50
90.0
 51
180.0
  0
ARC
  5
18B
330
24
100
AcDbEntity
  8
1
100
AcDbCircle
 10
89.60430399999999
 20
-43.165269
 30
0.0
 40
8.0
100
AcDbArc
 50
0.0
 51
90.0
  0
LINE
  5
18C
330
24
100
AcDbEntity
  8
1
100
AcDbLine
 10
112.104304
 20
-38.165269
 30
0.0
 11
112.104304
 21
-40.365269
 31
0.0
  0
LINE
  5
18D
330
24
100
AcDbEntity
  8
1
100
AcDbLine
 10
120.104304
 20
-38.165269
 30
0.0
 11
120.104304
 21
-40.365269
 31
0.0
  0
ARC
  5
18E
330
24
100
AcDbEntity
  8
1
100
AcDbCircle
 10
123.104304
 20
-38.165269
 30
0.0
 40
3.0
100
AcDbArc
 50
90.0
 51
180.0
  0
ARC
  5
18F
330
24
100
AcDbEntity
  8
1
100
AcDbCircle
 10
109.104304
 20
-38.165269
 30
0.0
 40
3.0
100
AcDbArc
 50
0.0
 51
90.0
  0
ARC
  5
190
330
24
100
AcDbEntity
  8
1
100
AcDbCircle
 10
113.104304
 20
-40.365269
 30
0.0
 40
1.0
100
AcDbArc
 50
180.0
 51
240.0
  0
ARC
  5
191
330
24
100
AcDbEntity
  8
1
100
AcDbCircle
 10
119.104304
 20
-40.365269
 30
0.0
 40
1.0
100
AcDbArc
 50
300.0
 51
0.0
  0
ARC
  5
192
330
24
100
AcDbEntity
  8
1
100
AcDbCircle
 10
120.104304
 20
-42.09732
 30
0.0
 40
1.0
100
AcDbArc
 50
120.0
 51
180.0
  0
ARC
  5
193
330
24
100
AcDbEntity
  8
1
100
AcDbCircle
 10
112.104304
 20
-42.09732
 30
0.0
 40
1.0
100
AcDbArc
 50
0.0
 51
60.0
  0
ARC
  5
194
330
24
100
AcDbEntity
  8
1
100
AcDbCircle
 10
122.104304
 20
-62.132165
 30
0.0
 40
3.0
100
AcDbArc
 50
180.0
 51
270.0
  0
ARC
  5
195
330
24
100
AcDbEntity
  8
1
100
AcDbCircle
 10
110.104304
 20
-62.132165
 30
0.0
 40
3.0
100
AcDbArc
 50
270.0
 51
360.0
  0
LINE
  5
196
330
24
100
AcDbEntity
  8
1
100
AcDbLine
 10
144.104304
 20
-122.665269
 30
0.0
 11
144.104304
 21
-301.665269
 31
0.0
  0
LINE
  5
197
330
24
100
AcDbEntity
  8
1
100
AcDbLine
 10
88.10430399999999
 20
-122.665269
 30
0.0
 11
88.10430399999999
 21
-301.665269
 31
0.0
  0
LINE
  5
198
330
24
100
AcDbEntity
  8
1
100
AcDbLine
 10
144.104304
 20
-122.665269
 30
0.0
 11
143.104304
 21
-121.665269
 31
0.0
  0
LINE
  5
199
330
24
100
AcDbEntity
  8
1
100
AcDbLine
 10
88.10430399999999
 20
-122.665269
 30
0.0
 11
89.104304
 21
-121.665269
 31
0.0
  0
LINE
  5
19A
330
24
100
AcDbEntity
  8
1
100
AcDbLine
 10
88.10430399999999
 20
-301.665269
 30
0.0
 11
89.104304
 21
-302.665269
 31
0.0
  0
LINE
  5
19B
330
24
100
AcDbEntity
  8
1
100
AcDbLine
 10
143.104304
 20
-302.665269
 30
0.0
 11
144.104304
 21
-301.665269
 31
0.0
  0
LINE
  5
19C
330
24
100
AcDbEntity
  8
1
100
AcDbLine
 10
143.104304
 20
-121.665269
 30
0.0
 11
143.104304
 21
-302.665269
 31
0.0
  0
LINE
  5
19D
330
24
100
AcDbEntity
  8
1
100
AcDbLine
 10
89.104304
 20
-121.665269
 30
0.0
 11
89.104304
 21
-302.665269
 31
0.0
  0
ARC
  5
19E
330
24
100
AcDbEntity
  8
1
100
AcDbCircle
 10
139.604304
 20
-116.665269
 30
0.0
 40
5.0
100
AcDbArc
 50
180.0
 51
270.0
  0
ARC
  5
19F
330
24
100
AcDbEntity
  8
1
100
AcDbCircle
 10
92.604304
 20
-116.665269
 30
0.0
 40
5.0
100
AcDbArc
 50
270.0
 51
360.0
  0
LINE
  5
1A0
330
24
100
AcDbEntity
  8
1
100
AcDbLine
 10
89.104304
 20
-121.665269
 30
0.0
 11
92.604304
 21
-121.665269
 31
0.0
  0
LINE
  5
1A1
330
24
100
AcDbEntity
  8
1
100
AcDbLine
 10
139.604304
 20
-121.665269
 30
0.0
 11
143.104304
 21
-121.665269
 31
0.0
  0
ARC
  5
1A2
330
24
100
AcDbEntity
  8
1
100
AcDbCircle
 10
139.604304
 20
-120.380478
 30
0.0
 40
5.0
100
AcDbArc
 50
180.0
 51
270.0
  0
ARC
  5
1A3
330
24
100
AcDbEntity
  8
1
100
AcDbCircle
 10
92.604304
 20
-120.380478
 30
0.0
 40
5.0
100
AcDbArc
 50
270.0
 51
360.0
  0
LINE
  5
1A4
330
24
100
AcDbEntity
  8
1
100
AcDbLine
 10
112.604304
 20
-83.162471
 30
0.0
 11
112.604304
 21
-122.943443
 31
0.0
  0
LINE
  5
1A5
330
24
100
AcDbEntity
  8
1
100
AcDbLine
 10
119.604304
 20
-83.162471
 30
0.0
 11
119.604304
 21
-122.943443
 31
0.0
  0
ARC
  5
1A6
330
24
100
AcDbEntity
  8
1
100
AcDbCircle
 10
124.604304
 20
-83.162471
 30
0.0
 40
5.0
100
AcDbArc
 50
90.0
 51
180.0
  0
ARC
  5
1A7
330
24
100
AcDbEntity
  8
1
100
AcDbCircle
 10
107.604304
 20
-83.162471
 30
0.0
 40
5.0
100
AcDbArc
 50
0.0
 51
90.0
  0
ARC
  5
1A8
330
24
100
AcDbEntity
  8
1
100
AcDbCircle
 10
124.604304
 20
-122.943443
 30
0.0
 40
5.0
100
AcDbArc
 50
180.0
 51
270.0
  0
ARC
  5
1A9
330
24
100
AcDbEntity
  8
1
100
AcDbCircle
 10
107.604304
 20
-122.943443
 30
0.0
 40
5.0
100
AcDbArc
 50
270.0
 51
0.0
  0
LINE
  5
1AA
330
24
100
AcDbEntity
  8
1
100
AcDbLine
 10
114.604304
 20
-103.792108
 30
0.0
 11
117.604304
 21
-103.792108
 31
0.0
  0
LINE
  5
1AB
330
24
100
AcDbEntity
  8
1
100
AcDbLine
 10
114.604304
 20
-94.83256899999998
 30
0.0
 11
117.604304
 21
-94.83256899999998
 31
0.0
  0
ARC
  5
1AC
330
24
100
AcDbEntity
  8
1
100
AcDbCircle
 10
117.604304
 20
-101.792108
 30
0.0
 40
2.0
100
AcDbArc
 50
270.0
 51
360.0
  0
ARC
  5
1AD
330
24
100
AcDbEntity
  8
1
100
AcDbCircle
 10
114.604304
 20
-101.792108
 30
0.0
 40
2.0
100
AcDbArc
 50
180.0
 51
270.0
  0
ARC
  5
1AE
330
24
100
AcDbEntity
  8
1
100
AcDbCircle
 10
114.604304
 20
-96.83256899999999
 30
0.0
 40
2.0
100
AcDbArc
 50
90.0
 51
180.0
  0
ARC
  5
1AF
330
24
100
AcDbEntity
  8
1
100
AcDbCircle
 10
117.604304
 20
-96.83256899999999
 30
0.0
 40
2.0
100
AcDbArc
 50
0.0
 51
90.0
  0
LINE
  5
1B0
330
24
100
AcDbEntity
  8
1
100
AcDbLine
 10
119.604304
 20
-78.162471
 30
0.0
 11
112.604304
 21
-78.162471
 31
0.0
  0
LINE
  5
1B1
330
24
100
AcDbEntity
  8
1
100
AcDbLine
 10
125.104304
 20
-127.943443
 30
0.0
 11
107.104304
 21
-127.943443
 31
0.0
  0
LINE
  5
1B2
330
24
100
AcDbEntity
  8
1
100
AcDbLine
 10
119.104304
 20
-65.132165
 30
0.0
 11
113.104304
 21
-65.132165
 31
0.0
  0
ARC
  5
1B3
330
24
100
AcDbEntity
  8
1
100
AcDbCircle
 10
93.10430399999999
 20
-307.6652689999999
 30
0.0
 40
5.0
100
AcDbArc
 50
360.0
 51
90.0
  0
ARC
  5
1B4
330
24
100
AcDbEntity
  8
1
100
AcDbCircle
 10
139.104304
 20
-307.6652689999999
 30
0.0
 40
5.0
100
AcDbArc
 50
90.0
 51
180.0
  0
LINE
  5
1B5
330
24
100
AcDbEntity
  8
1
100
AcDbLine
 10
89.104304
 20
-302.665269
 30
0.0
 11
93.10430399999999
 21
-302.665269
 31
0.0
  0
LINE
  5
1B6
330
24
100
AcDbEntity
  8
1
100
AcDbLine
 10
139.104304
 20
-302.665269
 30
0.0
 11
143.104304
 21
-302.665269
 31
0.0
  0
ARC
  5
1B7
330
24
100
AcDbEntity
  8
1
100
AcDbCircle
 10
139.104304
 20
-301.3088
 30
0.0
 40
5.0
100
AcDbArc
 50
90.0
 51
180.0
  0
ARC
  5
1B8
330
24
100
AcDbEntity
  8
1
100
AcDbCircle
 10
93.10430399999999
 20
-301.3088
 30
0.0
 40
5.0
100
AcDbArc
 50
360.0
 51
90.0
  0
ARC
  5
1B9
330
24
100
AcDbEntity
  8
1
100
AcDbCircle
 10
131.104304
 20
-314.165269
 30
0.0
 40
3.0
100
AcDbArc
 50
270.0
 51
360.0
  0
ARC
  5
1BA
330
24
100
AcDbEntity
  8
1
100
AcDbCircle
 10
101.104304
 20
-314.165269
 30
0.0
 40
3.0
100
AcDbArc
 50
180.0
 51
270.0
  0
ARC
  5
1BB
330
24
100
AcDbEntity
  8
1
100
AcDbCircle
 10
123.604304
 20
-316.165269
 30
0.0
 40
4.0
100
AcDbArc
 50
180.0
 51
270.0
  0
ARC
  5
1BC
330
24
100
AcDbEntity
  8
1
100
AcDbCircle
 10
108.604304
 20
-316.165269
 30
0.0
 40
4.0
100
AcDbArc
 50
270.0
 51
360.0
  0
LINE
  5
1BD
330
24
100
AcDbEntity
  8
1
100
AcDbLine
 10
101.104304
 20
-317.165269
 30
0.0
 11
107.604304
 21
-317.165269
 31
0.0
  0
LINE
  5
1BE
330
24
100
AcDbEntity
  8
1
100
AcDbLine
 10
124.604304
 20
-317.165269
 30
0.0
 11
131.104304
 21
-317.165269
 31
0.0
  0
LINE
  5
1BF
330
24
100
AcDbEntity
  8
1
100
AcDbLine
 10
98.10430400000001
 20
-296.623577
 30
0.0
 11
134.104304
 21
-296.623577
 31
0.0
  0
ARC
  5
1C0
330
24
100
AcDbEntity
  8
1
100
AcDbCircle
 10
123.604304
 20
-300.623577
 30
0.0
 40
4.0
100
AcDbArc
 50
90.0
 51
180.0
  0
ARC
  5
1C1
330
24
100
AcDbEntity
  8
1
100
AcDbCircle
 10
108.604304
 20
-300.623577
 30
0.0
 40
4.0
100
AcDbArc
 50
360.0
 51
90.0
  0
LINE
  5
1C2
330
24
100
AcDbEntity
  8
1
100
AcDbLine
 10
98.10430400000001
 20
-320.965269
 30
0.0
 11
134.104304
 21
-320.965269
 31
0.0
  0
LINE
  5
1C3
330
24
100
AcDbEntity
  8
1
100
AcDbLine
 10
98.10430400000001
 20
-323.365269
 30
0.0
 11
134.104304
 21
-323.365269
 31
0.0
  0
LINE
  5
1C4
330
24
100
AcDbEntity
  8
1
100
AcDbLine
 10
121.104304
 20
-324.865269
 30
0.0
 11
121.104304
 21
-328.865269
 31
0.0
  0
LINE
  5
1C5
330
24
100
AcDbEntity
  8
1
100
AcDbLine
 10
116.104304
 20
-324.865269
 30
0.0
 11
116.104304
 21
-328.374521
 31
0.0
  0
ARC
  5
1C6
330
24
100
AcDbEntity
  8
1
100
AcDbCircle
 10
118.604304
 20
-322.252062
 30
0.0
 40
6.613208
100
AcDbArc
 50
247.7882049999999
 51
292.211795
  0
LINE
  5
1C7
330
24
100
AcDbEntity
  8
1
100
AcDbLine
 10
111.104304
 20
-324.865269
 30
0.0
 11
111.104304
 21
-328.865269
 31
0.0
  0
LINE
  5
1C8
330
24
100
AcDbEntity
  8
1
100
AcDbLine
 10
111.104304
 20
-328.865269
 30
0.0
 11
121.104304
 21
-328.865269
 31
0.0
  0
ARC
  5
1C9
330
24
100
AcDbEntity
  8
1
100
AcDbCircle
 10
113.604304
 20
-322.252062
 30
0.0
 40
6.613208
100
AcDbArc
 50
247.7882049999999
 51
292.211795
  0
LINE
  5
1CA
330
24
100
AcDbEntity
  8
1
100
AcDbLine
 10
122.204304
 20
-323.365269
 30
0.0
 11
122.204304
 21
-324.865269
 31
0.0
  0
LINE
  5
1CB
330
24
100
AcDbEntity
  8
1
100
AcDbLine
 10
122.204304
 20
-324.865269
 30
0.0
 11
110.004304
 21
-324.865269
 31
0.0
  0
LINE
  5
1CC
330
24
100
AcDbEntity
  8
1
100
AcDbLine
 10
110.004304
 20
-324.865269
 30
0.0
 11
110.004304
 21
-323.365269
 31
0.0
  0
ARC
  5
1CD
330
24
100
AcDbEntity
  8
1
100
AcDbCircle
 10
125.104304
 20
-171.165269
 30
0.0
 40
6.0
100
AcDbArc
 50
270.0
 51
360.0
  0
ARC
  5
1CE
330
24
100
AcDbEntity
  8
1
100
AcDbCircle
 10
107.104304
 20
-187.165269
 30
0.0
 40
6.0
100
AcDbArc
 50
90.0
 51
180.0
  0
ARC
  5
1CF
330
24
100
AcDbEntity
  8
1
100
AcDbCircle
 10
125.104304
 20
-187.165269
 30
0.0
 40
6.0
100
AcDbArc
 50
0.0
 51
90.0
  0
ARC
  5
1D0
330
24
100
AcDbEntity
  8
1
100
AcDbCircle
 10
107.104304
 20
-237.165269
 30
0.0
 40
6.0
100
AcDbArc
 50
180.0
 51
270.0
  0
ARC
  5
1D1
330
24
100
AcDbEntity
  8
1
100
AcDbCircle
 10
125.104304
 20
-237.165269
 30
0.0
 40
6.0
100
AcDbArc
 50
270.0
 51
0.0
  0
ARC
  5
1D2
330
24
100
AcDbEntity
  8
1
100
AcDbCircle
 10
107.104304
 20
-253.165269
 30
0.0
 40
6.0
100
AcDbArc
 50
90.0
 51
180.0
  0
ARC
  5
1D3
330
24
100
AcDbEntity
  8
1
100
AcDbCircle
 10
125.104304
 20
-253.165269
 30
0.0
 40
6.0
100
AcDbArc
 50
0.0
 51
90.0
  0
ARC
  5
1D4
330
24
100
AcDbEntity
  8
1
100
AcDbCircle
 10
125.104304
 20
-133.943443
 30
0.0
 40
6.0
100
AcDbArc
 50
0.0
 51
90.0
  0
ARC
  5
1D5
330
24
100
AcDbEntity
  8
1
100
AcDbCircle
 10
107.104304
 20
-133.943443
 30
0.0
 40
6.0
100
AcDbArc
 50
90.0
 51
180.0
  0
ARC
  5
1D6
330
24
100
AcDbEntity
  8
1
100
AcDbCircle
 10
125.104304
 20
-290.623577
 30
0.0
 40
6.0
100
AcDbArc
 50
270.0
 51
360.0
  0
ARC
  5
1D7
330
24
100
AcDbEntity
  8
1
100
AcDbCircle
 10
107.104304
 20
-290.623577
 30
0.0
 40
6.0
100
AcDbArc
 50
180.0
 51
270.0
  0
LINE
  5
1D8
330
24
100
AcDbEntity
  8
1
100
AcDbLine
 10
127.620804
 20
-169.791626
 30
0.0
 11
127.620804
 21
-148.216303
 31
0.0
  0
ARC
  5
1D9
330
24
100
AcDbEntity
  8
1
100
AcDbCircle
 10
107.104304
 20
-171.165269
 30
0.0
 40
6.0
100
AcDbArc
 50
180.0000029999999
 51
269.999998
  0
LINE
  5
1DA
330
24
100
AcDbEntity
  8
1
100
AcDbLine
 10
104.587804
 20
-169.791626
 30
0.0
 11
104.587804
 21
-148.216303
 31
0.0
  0
LINE
  5
1DB
330
24
100
AcDbEntity
  8
1
100
AcDbLine
 10
104.587804
 20
-276.114235
 30
0.0
 11
104.587804
 21
-254.538912
 31
0.0
  0
LINE
  5
1DC
330
24
100
AcDbEntity
  8
1
100
AcDbLine
 10
104.587804
 20
-234.073012
 30
0.0
 11
104.587804
 21
-190.257527
 31
0.0
  0
LINE
  5
1DD
330
24
100
AcDbEntity
  8
1
100
AcDbLine
 10
127.620804
 20
-276.114235
 30
0.0
 11
127.620804
 21
-254.538912
 31
0.0
  0
LINE
  5
1DE
330
24
100
AcDbEntity
  8
1
100
AcDbLine
 10
127.620804
 20
-234.073012
 30
0.0
 11
127.620804
 21
-190.257527
 31
0.0
  0
ARC
  5
1DF
330
24
100
AcDbEntity
  8
1
100
AcDbCircle
 10
125.104304
 20
-190.257527
 30
0.0
 40
2.5165
100
AcDbArc
 50
0.0
 51
90.0
  0
ARC
  5
1E0
330
24
100
AcDbEntity
  8
1
100
AcDbCircle
 10
107.104304
 20
-190.257527
 30
0.0
 40
2.5165
100
AcDbArc
 50
90.0
 51
180.0
  0
ARC
  5
1E1
330
24
100
AcDbEntity
  8
1
100
AcDbCircle
 10
107.104304
 20
-234.073012
 30
0.0
 40
2.5165
100
AcDbArc
 50
180.0
 51
270.0
  0
ARC
  5
1E2
330
24
100
AcDbEntity
  8
1
100
AcDbCircle
 10
125.104304
 20
-234.073012
 30
0.0
 40
2.5165
100
AcDbArc
 50
270.0
 51
360.0
  0
ARC
  5
1E3
330
24
100
AcDbEntity
  8
1
100
AcDbCircle
 10
125.104304
 20
-254.538912
 30
0.0
 40
2.5165
100
AcDbArc
 50
0.0
 51
90.0
  0
ARC
  5
1E4
330
24
100
AcDbEntity
  8
1
100
AcDbCircle
 10
107.104304
 20
-254.538912
 30
0.0
 40
2.5165
100
AcDbArc
 50
90.0
 51
180.0
  0
ARC
  5
1E5
330
24
100
AcDbEntity
  8
1
100
AcDbCircle
 10
125.104304
 20
-169.791626
 30
0.0
 40
2.5165
100
AcDbArc
 50
270.0
 51
360.0
  0
ARC
  5
1E6
330
24
100
AcDbEntity
  8
1
100
AcDbCircle
 10
107.104304
 20
-169.791626
 30
0.0
 40
2.5165
100
AcDbArc
 50
180.0
 51
270.0
  0
ARC
  5
1E7
330
24
100
AcDbEntity
  8
1
100
AcDbCircle
 10
107.104304
 20
-148.216303
 30
0.0
 40
2.5165
100
AcDbArc
 50
90.0
 51
180.0
  0
ARC
  5
1E8
330
24
100
AcDbEntity
  8
1
100
AcDbCircle
 10
125.104304
 20
-148.216303
 30
0.0
 40
2.5165
100
AcDbArc
 50
0.0
 51
90.0
  0
ARC
  5
1E9
330
24
100
AcDbEntity
  8
1
100
AcDbCircle
 10
107.104304
 20
-276.114235
 30
0.0
 40
2.5165
100
AcDbArc
 50
180.0
 51
270.0
  0
ARC
  5
1EA
330
24
100
AcDbEntity
  8
1
100
AcDbCircle
 10
125.104304
 20
-276.114235
 30
0.0
 40
2.5165
100
AcDbArc
 50
270.0
 51
360.0
  0
LINE
  5
1EB
330
24
100
AcDbEntity
  8
1
100
AcDbLine
 10
86.729304
 20
-131.065269
 30
0.0
 11
86.729304
 21
-293.265269
 31
0.0
  0
LINE
  5
1EC
330
24
100
AcDbEntity
  8
1
100
AcDbLine
 10
145.479304
 20
-131.065269
 30
0.0
 11
145.479304
 21
-293.265269
 31
0.0
  0
LINE
  5
1ED
330
24
100
AcDbEntity
  8
1
100
AcDbLine
 10
145.479304
 20
-131.065269
 30
0.0
 11
144.392417
 21
-129.168157
 31
0.0
  0
LINE
  5
1EE
330
24
100
AcDbEntity
  8
1
100
AcDbLine
 10
86.729304
 20
-131.065269
 30
0.0
 11
87.816191
 21
-129.168157
 31
0.0
  0
ARC
  5
1EF
330
24
100
AcDbEntity
  8
1
100
AcDbCircle
 10
143.52473
 20
-129.665269
 30
0.0
 40
1.0
100
AcDbArc
 50
29.809114
 51
54.57945200000001
  0
ARC
  5
1F0
330
24
100
AcDbEntity
  8
1
100
AcDbCircle
 10
88.68387699999999
 20
-129.665269
 30
0.0
 40
1.0
100
AcDbArc
 50
125.4205479999999
 51
150.190886
  0
LINE
  5
1F1
330
24
100
AcDbEntity
  8
1
100
AcDbLine
 10
145.479304
 20
-293.265269
 30
0.0
 11
144.392417
 21
-295.162381
 31
0.0
  0
LINE
  5
1F2
330
24
100
AcDbEntity
  8
1
100
AcDbLine
 10
86.729304
 20
-293.265269
 30
0.0
 11
87.816191
 21
-295.162381
 31
0.0
  0
ARC
  5
1F3
330
24
100
AcDbEntity
  8
1
100
AcDbCircle
 10
88.68387699999999
 20
-294.665269
 30
0.0
 40
1.0
100
AcDbArc
 50
209.809114
 51
234.579452
  0
ARC
  5
1F4
330
24
100
AcDbEntity
  8
1
100
AcDbCircle
 10
143.52473
 20
-294.665269
 30
0.0
 40
1.0
100
AcDbArc
 50
305.420548
 51
330.190886
  0
LINE
  5
1F5
330
24
100
AcDbEntity
  8
1
100
AcDbLine
 10
97.604304
 20
-125.380478
 30
0.0
 11
107.604304
 21
-125.380478
 31
0.0
  0
LINE
  5
1F6
330
24
100
AcDbEntity
  8
1
100
AcDbLine
 10
124.604304
 20
-125.380478
 30
0.0
 11
134.604304
 21
-125.380478
 31
0.0
  0
LINE
  5
1F7
330
24
100
AcDbEntity
  8
1
100
AcDbLine
 10
107.104304
 20
-172.308126
 30
0.0
 11
125.104304
 21
-172.308126
 31
0.0
  0
LINE
  5
1F8
330
24
100
AcDbEntity
  8
1
100
AcDbLine
 10
107.104304
 20
-187.741027
 30
0.0
 11
125.104304
 21
-187.741027
 31
0.0
  0
LINE
  5
1F9
330
24
100
AcDbEntity
  8
1
100
AcDbLine
 10
107.104304
 20
-236.589512
 30
0.0
 11
125.104304
 21
-236.589512
 31
0.0
  0
LINE
  5
1FA
330
24
100
AcDbEntity
  8
1
100
AcDbLine
 10
107.104304
 20
-252.022412
 30
0.0
 11
125.104304
 21
-252.022412
 31
0.0
  0
LINE
  5
1FB
330
24
100
AcDbEntity
  8
1
100
AcDbLine
 10
129.628019
 20
-175.106843
 30
0.0
 11
127.620804
 21
-172.308126
 31
0.0
  0
LINE
  5
1FC
330
24
100
AcDbEntity
  8
1
100
AcDbLine
 10
102.580589
 20
-175.106843
 30
0.0
 11
104.587804
 21
-172.308126
 31
0.0
  0
LINE
  5
1FD
330
24
100
AcDbEntity
  8
1
100
AcDbLine
 10
102.346355
 20
-183.509873
 30
0.0
 11
104.587804
 21
-187.741027
 31
0.0
  0
LINE
  5
1FE
330
24
100
AcDbEntity
  8
1
100
AcDbLine
 10
129.862253
 20
-183.509873
 30
0.0
 11
127.620804
 21
-187.741027
 31
0.0
  0
LINE
  5
1FF
330
24
100
AcDbEntity
  8
1
100
AcDbLine
 10
129.862253
 20
-240.820666
 30
0.0
 11
127.620804
 21
-236.589512
 31
0.0
  0
LINE
  5
200
330
24
100
AcDbEntity
  8
1
100
AcDbLine
 10
104.587804
 20
-236.589512
 30
0.0
 11
102.346355
 21
-240.820666
 31
0.0
  0
LINE
  5
201
330
24
100
AcDbEntity
  8
1
100
AcDbLine
 10
102.580589
 20
-249.223695
 30
0.0
 11
104.587804
 21
-252.022412
 31
0.0
  0
LINE
  5
202
330
24
100
AcDbEntity
  8
1
100
AcDbLine
 10
127.620804
 20
-252.022412
 30
0.0
 11
129.628019
 21
-249.223695
 31
0.0
  0
LINE
  5
203
330
24
100
AcDbEntity
  8
1
100
AcDbLine
 10
107.104304
 20
-145.699803
 30
0.0
 11
125.104304
 21
-145.699803
 31
0.0
  0
LINE
  5
204
330
24
100
AcDbEntity
  8
1
100
AcDbLine
 10
107.104304
 20
-278.630735
 30
0.0
 11
125.104304
 21
-278.630735
 31
0.0
  0
LINE
  5
205
330
24
100
AcDbEntity
  8
1
100
AcDbLine
 10
130.45846
 20
-131.235489
 30
0.0
 11
127.620804
 21
-145.699803
 31
0.0
  0
LINE
  5
206
330
24
100
AcDbEntity
  8
1
100
AcDbLine
 10
101.750148
 20
-131.235489
 30
0.0
 11
104.587804
 21
-145.699803
 31
0.0
  0
LINE
  5
207
330
24
100
AcDbEntity
  8
1
100
AcDbLine
 10
127.620804
 20
-278.630735
 30
0.0
 11
130.4645929999999
 21
-293.319369
 31
0.0
  0
LINE
  5
208
330
24
100
AcDbEntity
  8
1
100
AcDbLine
 10
101.744014
 20
-293.319369
 30
0.0
 11
104.587804
 21
-278.630735
 31
0.0
  0
ARC
  5
209
330
24
100
AcDbEntity
  8
1
100
AcDbCircle
 10
107.604304
 20
-120.380478
 30
0.0
 40
5.0
100
AcDbArc
 50
270.0
 51
360.0
  0
ARC
  5
20A
330
24
100
AcDbEntity
  8
1
100
AcDbCircle
 10
124.604304
 20
-120.380478
 30
0.0
 40
5.0
100
AcDbArc
 50
180.0
 51
270.0
  0
ARC
  5
20B
330
24
100
AcDbEntity
  8
1
100
AcDbCircle
 10
124.604304
 20
-312.165269
 30
0.0
 40
5.0
100
AcDbArc
 50
180.0
 51
270.0
  0
ARC
  5
20C
330
24
100
AcDbEntity
  8
1
100
AcDbCircle
 10
107.604304
 20
-312.165269
 30
0.0
 40
5.0
100
AcDbArc
 50
270.0
 51
360.0
  0
ARC
  5
20D
330
24
100
AcDbEntity
  8
1
100
AcDbCircle
 10
67.604304
 20
-65.132165
 30
0.0
 40
30.0
100
AcDbArc
 50
0.0
 51
45.572996
  0
ARC
  5
20E
330
24
100
AcDbEntity
  8
1
100
AcDbCircle
 10
67.604304
 20
-65.132165
 30
0.0
 40
30.0
100
AcDbArc
 50
83.68468399999999
 51
87.47142399999999
  0
ARC
  5
20F
330
24
100
AcDbEntity
  8
1
100
AcDbCircle
 10
-391.070696
 20
-65.132165
 30
0.0
 40
30.0
100
AcDbArc
 50
0.0
 51
87.47142399999999
  0
ARC
  5
210
330
24
100
AcDbEntity
  8
1
100
AcDbCircle
 10
164.604304
 20
-65.132165
 30
0.0
 40
30.0
100
AcDbArc
 50
92.528576
 51
180.0
  0
LINE
  5
211
330
24
100
AcDbEntity
  8
1
100
AcDbLine
 10
65.104304
 20
-21.165269
 30
0.0
 11
110.104304
 21
-21.165269
 31
0.0
  0
LINE
  5
212
330
24
100
AcDbEntity
  8
1
100
AcDbLine
 10
122.104304
 20
-21.165269
 30
0.0
 11
167.104304
 21
-21.165269
 31
0.0
  0
LINE
  5
213
330
24
100
AcDbEntity
  8
2
  6
CENTER
 62
     2
100
AcDbLine
 10
-222.570696
 20
260.11245
 30
0.0
 11
-222.570696
 21
212.880077
 31
0.0
  0
ARC
  5
214
330
24
100
AcDbEntity
  8
2
  6
CENTER
 62
     2
100
AcDbCircle
 10
-342.570696
 20
236.509731
 30
0.0
 40
51.0
100
AcDbArc
 50
120.634972
 51
149.476834
  0
LINE
  5
215
330
24
100
AcDbEntity
  8
2
  6
CENTER
 62
     2
100
AcDbLine
 10
-389.491733
 20
283.430768
 30
0.0
 11
-367.698219
 21
261.637254
 31
0.0
  0
LINE
  5
216
330
24
100
AcDbEntity
  8
2
  6
CENTER
 62
     2
100
AcDbLine
 10
-316.210852
 20
210.149887
 30
0.0
 11
-296.428388
 21
190.367423
 31
0.0
  0
ARC
  5
217
330
24
100
AcDbEntity
  8
2
  6
CENTER
 62
     2
100
AcDbCircle
 10
-342.570696
 20
236.509731
 30
0.0
 40
51.0
100
AcDbArc
 50
300.411746
 51
329.444298
  0
LINE
  5
218
330
24
100
AcDbEntity
  8
2
  6
CENTER
 62
     2
100
AcDbLine
 10
-447.708801
 20
236.509731
 30
0.0
 11
-32.522758
 21
236.509731
 31
0.0
  0
LINE
  5
219
330
24
100
AcDbEntity
  8
2
  6
CENTER
 62
     2
100
AcDbLine
 10
-342.570696
 20
160.451502
 30
0.0
 11
-342.570696
 21
325.715118
 31
0.0
  0
LINE
  5
21A
330
24
100
AcDbEntity
  8
2
100
AcDbLine
 10
-229.070696
 20
220.509731
 30
0.0
 11
-216.070696
 21
220.509731
 31
0.0
  0
ARC
  5
21B
330
24
100
AcDbEntity
  8
2
100
AcDbCircle
 10
-229.070696
 20
221.009731
 30
0.0
 40
0.5
100
AcDbArc
 50
200.684551
 51
270.0
  0
ARC
  5
21C
330
24
100
AcDbEntity
  8
2
100
AcDbCircle
 10
-216.070696
 20
221.009731
 30
0.0
 40
0.5
100
AcDbArc
 50
270.0
 51
356.101598
  0
ARC
  5
21D
330
24
100
AcDbEntity
  8
2
100
AcDbCircle
 10
-215.07301
 20
220.941743
 30
0.0
 40
0.5
100
AcDbArc
 50
91.094257
 51
176.101598
  0
ARC
  5
21E
330
24
100
AcDbEntity
  8
2
100
AcDbCircle
 10
-230.006235
 20
220.656508
 30
0.0
 40
0.5
100
AcDbArc
 50
20.684551
 51
91.094257
  0
LINE
  5
21F
330
24
100
AcDbEntity
  8
2
100
AcDbLine
 10
-54.341529
 20
248.507542
 30
0.0
 11
-342.236494
 21
254.006539
 31
0.0
  0
ARC
  5
220
330
24
100
AcDbEntity
  8
2
100
AcDbCircle
 10
-230.006235
 20
252.362953
 30
0.0
 40
0.5
100
AcDbArc
 50
268.905743
 51
339.315449
  0
ARC
  5
221
330
24
100
AcDbEntity
  8
2
100
AcDbCircle
 10
-215.07301
 20
252.077718
 30
0.0
 40
0.5
100
AcDbArc
 50
183.898402
 51
268.905743
  0
ARC
  5
222
330
24
100
AcDbEntity
  8
2
100
AcDbCircle
 10
-216.070696
 20
252.009731
 30
0.0
 40
0.5
100
AcDbArc
 50
3.898401999999999
 51
90.0
  0
ARC
  5
223
330
24
100
AcDbEntity
  8
2
100
AcDbCircle
 10
-229.070696
 20
252.009731
 30
0.0
 40
0.5
100
AcDbArc
 50
90.0
 51
159.315449
  0
LINE
  5
224
330
24
100
AcDbEntity
  8
2
100
AcDbLine
 10
-229.070696
 20
252.509731
 30
0.0
 11
-216.070696
 21
252.509731
 31
0.0
  0
ARC
  5
225
330
24
100
AcDbEntity
  8
2
100
AcDbCircle
 10
-342.570696
 20
236.509731
 30
0.0
 40
17.5
100
AcDbArc
 50
300.851886
 51
239.148114
  0
ARC
  5
226
330
24
100
AcDbEntity
  8
2
100
AcDbCircle
 10
-332.570696
 20
219.769062
 30
0.0
 40
2.0
100
AcDbArc
 50
120.851886
 51
180.0
  0
LINE
  5
227
330
24
100
AcDbEntity
  8
2
100
AcDbLine
 10
-334.570696
 20
217.509731
 30
0.0
 11
-334.570696
 21
222.078861
 31
0.0
  0
ARC
  5
228
330
24
100
AcDbEntity
  8
2
100
AcDbCircle
 10
-352.570696
 20
219.769062
 30
0.0
 40
2.0
100
AcDbArc
 50
0.0
 51
59.14811399999999
  0
ARC
  5
229
330
24
100
AcDbEntity
  8
2
100
AcDbCircle
 10
-332.587054
 20
217.196869
 30
0.0
 40
2.0
100
AcDbArc
 50
91.094257
 51
174.013887
  0
ARC
  5
22A
330
24
100
AcDbEntity
  8
2
100
AcDbCircle
 10
-335.570696
 20
217.509731
 30
0.0
 40
1.0
100
AcDbArc
 50
270.0
 51
354.013887
  0
ARC
  5
22B
330
24
100
AcDbEntity
  8
2
100
AcDbCircle
 10
-349.570696
 20
217.509731
 30
0.0
 40
1.0
100
AcDbArc
 50
180.0
 51
270.0
  0
LINE
  5
22C
330
24
100
AcDbEntity
  8
2
100
AcDbLine
 10
-350.570696
 20
217.509731
 30
0.0
 11
-350.570696
 21
222.078861
 31
0.0
  0
LINE
  5
22D
330
24
100
AcDbEntity
  8
2
100
AcDbLine
 10
-335.570696
 20
216.509731
 30
0.0
 11
-349.570696
 21
216.509731
 31
0.0
  0
LINE
  5
22E
330
24
100
AcDbEntity
  8
2
100
AcDbLine
 10
-54.341529
 20
224.511919
 30
0.0
 11
-332.625249
 21
219.196504
 31
0.0
  0
ARC
  5
22F
330
24
100
AcDbEntity
  8
2
100
AcDbCircle
 10
-54.570696
 20
236.509731
 30
0.0
 40
12.0
100
AcDbArc
 50
271.094257
 51
88.905743
  0
LINE
  5
230
330
24
100
AcDbEntity
  8
2
100
AcDbLine
 10
-391.843892
 20
234.132302
 30
0.0
 11
-350.858649
 21
220.802936
 31
0.0
  0
LINE
  5
231
330
24
100
AcDbEntity
  8
2
100
AcDbLine
 10
-391.843892
 20
238.88716
 30
0.0
 11
-347.983067
 21
253.151733
 31
0.0
  0
ARC
  5
232
330
24
100
AcDbEntity
  8
2
100
AcDbCircle
 10
-391.070696
 20
236.509731
 30
0.0
 40
2.5
100
AcDbArc
 50
108.015746
 51
251.9842539999999
  0
LINE
  5
233
330
24
100
AcDbEntity
  8
2
100
AcDbLine
 10
-335.146075
 20
262.319128
 30
0.0
 11
-335.499628
 21
261.965575
 31
0.0
  0
LINE
  5
234
330
24
100
AcDbEntity
  8
2
100
AcDbLine
 10
-338.328055
 20
265.501109
 30
0.0
 11
-335.146075
 21
262.319128
 31
0.0
  0
LINE
  5
235
330
24
100
AcDbEntity
  8
2
100
AcDbLine
 10
-335.146075
 20
268.683089
 30
0.0
 11
-338.328055
 21
265.501109
 31
0.0
  0
LINE
  5
236
330
24
100
AcDbEntity
  8
2
100
AcDbLine
 10
-335.499628
 20
269.036643
 30
0.0
 11
-335.146075
 21
268.683089
 31
0.0
  0
LINE
  5
237
330
24
100
AcDbEntity
  8
2
100
AcDbLine
 10
-339.035162
 20
265.501109
 30
0.0
 11
-335.499628
 21
269.036643
 31
0.0
  0
LINE
  5
238
330
24
100
AcDbEntity
  8
2
100
AcDbLine
 10
-335.499628
 20
261.965575
 30
0.0
 11
-339.035162
 21
265.501109
 31
0.0
  0
LINE
  5
239
330
24
100
AcDbEntity
  8
2
100
AcDbLine
 10
-376.18054
 20
224.85666
 30
0.0
 11
-375.469393
 21
225.567808
 31
0.0
  0
LINE
  5
23A
330
24
100
AcDbEntity
  8
2
100
AcDbLine
 10
-374.148691
 20
222.824811
 30
0.0
 11
-376.18054
 21
224.85666
 31
0.0
  0
LINE
  5
23B
330
24
100
AcDbEntity
  8
2
100
AcDbLine
 10
-372.218434
 20
222.316849
 30
0.0
 11
-375.469393
 21
225.567808
 31
0.0
  0
ARC
  5
23C
330
24
100
AcDbEntity
  8
2
100
AcDbCircle
 10
-354.810398
 20
204.795676
 30
0.0
 40
0.08
100
AcDbArc
 50
315.0
 51
45.0
  0
ARC
  5
23D
330
24
100
AcDbEntity
  8
2
100
AcDbCircle
 10
-342.570696
 20
236.509731
 30
0.0
 40
60.0
100
AcDbArc
 50
269.274718
 51
270.725282
  0
ARC
  5
23E
330
24
100
AcDbEntity
  8
2
100
AcDbCircle
 10
-342.570696
 20
236.509731
 30
0.0
 40
40.0
100
AcDbArc
 50
268.945417
 51
271.059499
  0
LINE
  5
23F
330
24
100
AcDbEntity
  8
2
100
AcDbLine
 10
-341.070696
 20
177.264478
 30
0.0
 11
-341.070696
 21
195.766633
 31
0.0
  0
ARC
  5
240
330
24
100
AcDbEntity
  8
2
100
AcDbCircle
 10
-341.820696
 20
177.264478
 30
0.0
 40
0.75
100
AcDbArc
 50
270.725282
 51
360.0
  0
ARC
  5
241
330
24
100
AcDbEntity
  8
2
100
AcDbCircle
 10
-341.820696
 20
195.766633
 30
0.0
 40
0.75
100
AcDbArc
 50
0.0
 51
91.054583
  0
ARC
  5
242
330
24
100
AcDbEntity
  8
2
100
AcDbCircle
 10
-343.320696
 20
195.766633
 30
0.0
 40
0.75
100
AcDbArc
 50
88.94541700000001
 51
180.0
  0
ARC
  5
243
330
24
100
AcDbEntity
  8
2
100
AcDbCircle
 10
-343.320696
 20
177.264478
 30
0.0
 40
0.75
100
AcDbArc
 50
180.0
 51
269.274718
  0
LINE
  5
244
330
24
100
AcDbEntity
  8
2
100
AcDbLine
 10
-344.070696
 20
177.264478
 30
0.0
 11
-344.070696
 21
195.766633
 31
0.0
  0
LINE
  5
245
330
24
100
AcDbEntity
  8
2
100
AcDbLine
 10
-401.050791
 20
226.959682
 30
0.0
 11
-392.679925
 21
228.435692
 31
0.0
  0
ARC
  5
246
330
24
100
AcDbEntity
  8
2
100
AcDbCircle
 10
-392.549689
 20
227.697086
 30
0.0
 40
0.75
100
AcDbArc
 50
280.0
 51
100.0
  0
ARC
  5
247
330
24
100
AcDbEntity
  8
2
100
AcDbCircle
 10
-400.9205549999999
 20
226.221076
 30
0.0
 40
0.75
100
AcDbArc
 50
100.0
 51
280.0
  0
LINE
  5
248
330
24
100
AcDbEntity
  8
2
100
AcDbLine
 10
-400.790319
 20
225.482471
 30
0.0
 11
-392.419453
 21
226.95848
 31
0.0
  0
LINE
  5
249
330
24
100
AcDbEntity
  8
2
100
AcDbLine
 10
-387.476738
 20
197.850032
 30
0.0
 11
-380.965361
 21
203.313726
 31
0.0
  0
ARC
  5
24A
330
24
100
AcDbEntity
  8
2
100
AcDbCircle
 10
-387.958829
 20
198.424565
 30
0.0
 40
0.75
100
AcDbArc
 50
130.0
 51
310.0
  0
ARC
  5
24B
330
24
100
AcDbEntity
  8
2
100
AcDbCircle
 10
-381.447451
 20
203.88826
 30
0.0
 40
0.75
100
AcDbArc
 50
310.0
 51
130.0
  0
LINE
  5
24C
330
24
100
AcDbEntity
  8
2
100
AcDbLine
 10
-388.44092
 20
198.999098
 30
0.0
 11
-381.9295419999999
 21
204.462793
 31
0.0
  0
LINE
  5
24D
330
24
100
AcDbEntity
  8
2
100
AcDbLine
 10
-393.507701
 20
206.235212
 30
0.0
 11
-386.146485
 21
210.485212
 31
0.0
  0
ARC
  5
24E
330
24
100
AcDbEntity
  8
2
100
AcDbCircle
 10
-393.882701
 20
206.884731
 30
0.0
 40
0.75
100
AcDbArc
 50
120.0
 51
300.0
  0
ARC
  5
24F
330
24
100
AcDbEntity
  8
2
100
AcDbCircle
 10
-386.521485
 20
211.134731
 30
0.0
 40
0.75
100
AcDbArc
 50
300.0
 51
120.0
  0
LINE
  5
250
330
24
100
AcDbEntity
  8
2
100
AcDbLine
 10
-394.257701
 20
207.53425
 30
0.0
 11
-386.896485
 21
211.78425
 31
0.0
  0
LINE
  5
251
330
24
100
AcDbEntity
  8
2
100
AcDbLine
 10
-397.990968
 20
215.540268
 30
0.0
 11
-390.003581
 21
218.447439
 31
0.0
  0
ARC
  5
252
330
24
100
AcDbEntity
  8
2
100
AcDbCircle
 10
-398.247484
 20
216.245037
 30
0.0
 40
0.75
100
AcDbArc
 50
110.0
 51
290.0
  0
ARC
  5
253
330
24
100
AcDbEntity
  8
2
100
AcDbCircle
 10
-390.260096
 20
219.152209
 30
0.0
 40
0.75
100
AcDbArc
 50
290.0
 51
110.0
  0
LINE
  5
254
330
24
100
AcDbEntity
  8
2
100
AcDbLine
 10
-398.503999
 20
216.949807
 30
0.0
 11
-390.516611
 21
219.856978
 31
0.0
  0
LINE
  5
255
330
24
100
AcDbEntity
  8
2
100
AcDbLine
 10
-362.13062
 20
180.576428
 30
0.0
 11
-359.223449
 21
188.563815
 31
0.0
  0
ARC
  5
256
330
24
100
AcDbEntity
  8
2
100
AcDbCircle
 10
-359.928218
 20
188.82033
 30
0.0
 40
0.75
100
AcDbArc
 50
340.0
 51
160.0
  0
ARC
  5
257
330
24
100
AcDbEntity
  8
2
100
AcDbCircle
 10
-362.835389
 20
180.832943
 30
0.0
 40
0.75
100
AcDbArc
 50
160.0
 51
340.0
  0
LINE
  5
258
330
24
100
AcDbEntity
  8
2
100
AcDbLine
 10
-363.540159
 20
181.089458
 30
0.0
 11
-360.632987
 21
189.076845
 31
0.0
  0
LINE
  5
259
330
24
100
AcDbEntity
  8
2
100
AcDbLine
 10
-371.546177
 20
184.8227259999999
 30
0.0
 11
-367.296177
 21
192.183942
 31
0.0
  0
ARC
  5
25A
330
24
100
AcDbEntity
  8
2
100
AcDbCircle
 10
-367.945696
 20
192.558942
 30
0.0
 40
0.75
100
AcDbArc
 50
330.0
 51
150.0
  0
ARC
  5
25B
330
24
100
AcDbEntity
  8
2
100
AcDbCircle
 10
-372.195696
 20
185.197726
 30
0.0
 40
0.75
100
AcDbArc
 50
150.0
 51
330.0
  0
LINE
  5
25C
330
24
100
AcDbEntity
  8
2
100
AcDbLine
 10
-372.845215
 20
185.572726
 30
0.0
 11
-368.595215
 21
192.933942
 31
0.0
  0
LINE
  5
25D
330
24
100
AcDbEntity
  8
2
100
AcDbLine
 10
-380.081328
 20
190.639507
 30
0.0
 11
-374.617634
 21
197.150885
 31
0.0
  0
ARC
  5
25E
330
24
100
AcDbEntity
  8
2
100
AcDbCircle
 10
-375.192167
 20
197.632975
 30
0.0
 40
0.75
100
AcDbArc
 50
320.0
 51
140.0
  0
ARC
  5
25F
330
24
100
AcDbEntity
  8
2
100
AcDbCircle
 10
-380.655862
 20
191.121598
 30
0.0
 40
0.75
100
AcDbArc
 50
140.0
 51
320.0
  0
LINE
  5
260
330
24
100
AcDbEntity
  8
2
100
AcDbLine
 10
-381.230395
 20
191.603688
 30
0.0
 11
-375.7667
 21
198.115066
 31
0.0
  0
LINE
  5
261
330
24
100
AcDbEntity
  8
2
100
AcDbLine
 10
-353.597956
 20
178.290108
 30
0.0
 11
-352.1219470000001
 21
186.660974
 31
0.0
  0
ARC
  5
262
330
24
100
AcDbEntity
  8
2
100
AcDbCircle
 10
-352.85935
 20
178.159872
 30
0.0
 40
0.75
100
AcDbArc
 50
170.0
 51
350.0
  0
ARC
  5
263
330
24
100
AcDbEntity
  8
2
100
AcDbCircle
 10
-351.383341
 20
186.530737
 30
0.0
 40
0.75
100
AcDbArc
 50
350.0
 51
170.0
  0
LINE
  5
264
330
24
100
AcDbEntity
  8
2
100
AcDbLine
 10
-352.120744
 20
178.029635
 30
0.0
 11
-350.644735
 21
186.4005009999999
 31
0.0
  0
LINE
  5
265
330
24
100
AcDbEntity
  8
2
100
AcDbLine
 10
-401.815949
 20
235.009731
 30
0.0
 11
-393.070696
 21
235.009731
 31
0.0
  0
ARC
  5
266
330
24
100
AcDbEntity
  8
2
100
AcDbCircle
 10
-401.815949
 20
235.759731
 30
0.0
 40
0.75
100
AcDbArc
 50
180.725282
 51
270.0
  0
ARC
  5
267
330
24
100
AcDbEntity
  8
2
100
AcDbCircle
 10
-401.815949
 20
237.259731
 30
0.0
 40
0.75
100
AcDbArc
 50
90.0
 51
179.274718
  0
LINE
  5
268
330
24
100
AcDbEntity
  8
2
100
AcDbLine
 10
-401.815949
 20
238.009731
 30
0.0
 11
-393.070696
 21
238.009731
 31
0.0
  0
ARC
  5
269
330
24
100
AcDbEntity
  8
2
100
AcDbCircle
 10
-342.570696
 20
236.509731
 30
0.0
 40
60.0
100
AcDbArc
 50
179.274718
 51
180.725282
  0
LINE
  5
26A
330
24
100
AcDbEntity
  8
2
100
AcDbLine
 10
-376.383725
 20
218.151557
 30
0.0
 11
-379.634684
 21
221.402516
 31
0.0
  0
LINE
  5
26B
330
24
100
AcDbEntity
  8
2
100
AcDbLine
 10
-369.29171
 20
213.068835
 30
0.0
 11
-364.985547
 21
215.083961
 31
0.0
  0
LINE
  5
26C
330
24
100
AcDbEntity
  8
2
100
AcDbLine
 10
-369.644626
 20
211.412459
 30
0.0
 11
-366.022587
 21
213.030996
 31
0.0
  0
LINE
  5
26D
330
24
100
AcDbEntity
  8
2
100
AcDbLine
 10
-369.29171
 20
213.068835
 30
0.0
 11
-366.269062
 21
216.367476
 31
0.0
  0
LINE
  5
26E
330
24
100
AcDbEntity
  8
2
100
AcDbLine
 10
-371.188224
 20
212.971594
 30
0.0
 11
-367.284986
 21
217.383401
 31
0.0
  0
ARC
  5
26F
330
24
100
AcDbEntity
  8
2
100
AcDbCircle
 10
-366.58102
 20
212.189047
 30
0.0
 40
10.402317
100
AcDbArc
 50
128.830069
 51
141.169931
  0
ARC
  5
270
330
24
100
AcDbEntity
  8
2
100
AcDbCircle
 10
-377.269055
 20
222.877083
 30
0.0
 40
10.402317
100
AcDbArc
 50
308.830069
 51
321.169931
  0
LINE
  5
271
330
24
100
AcDbEntity
  8
2
100
AcDbLine
 10
-376.383725
 20
218.151557
 30
0.0
 11
-372.218434
 21
222.316849
 31
0.0
  0
ARC
  5
272
330
24
100
AcDbEntity
  8
2
100
AcDbCircle
 10
-372.022384
 20
218.949471
 30
0.0
 40
1.724081
100
AcDbArc
 50
51.27054199999999
 51
128.830069
  0
ARC
  5
273
330
24
100
AcDbEntity
  8
2
100
AcDbCircle
 10
-370.508632
 20
217.435719
 30
0.0
 40
1.724081
100
AcDbArc
 50
321.169931
 51
38.729458
  0
ARC
  5
274
330
24
100
AcDbEntity
  8
2
100
AcDbCircle
 10
-378.153672
 20
211.304431
 30
0.0
 40
11.524047
100
AcDbArc
 50
38.729458
 51
51.27054199999999
  0
LINE
  5
275
330
24
100
AcDbEntity
  8
2
100
AcDbLine
 10
-367.284986
 20
217.383401
 30
0.0
 11
-366.269062
 21
216.367476
 31
0.0
  0
ARC
  5
276
330
24
100
AcDbEntity
  8
2
100
AcDbCircle
 10
-373.341443
 20
217.630411
 30
0.0
 40
1.724081
100
AcDbArc
 50
141.169931
 51
218.729458
  0
ARC
  5
277
330
24
100
AcDbEntity
  8
2
100
AcDbCircle
 10
-371.827691
 20
216.116659
 30
0.0
 40
1.724081
100
AcDbArc
 50
231.270542
 51
308.830069
  0
ARC
  5
278
330
24
100
AcDbEntity
  8
2
100
AcDbCircle
 10
-365.696403
 20
223.761699
 30
0.0
 40
11.524047
100
AcDbArc
 50
218.729458
 51
231.270542
  0
LINE
  5
279
330
24
100
AcDbEntity
  8
2
100
AcDbLine
 10
-371.195993
 20
212.963825
 30
0.0
 11
-369.644626
 21
211.412459
 31
0.0
  0
LINE
  5
27A
330
24
100
AcDbEntity
  8
2
100
AcDbLine
 10
-376.18054
 20
220.792962
 30
0.0
 11
-376.891687
 21
220.081814
 31
0.0
  0
LINE
  5
27B
330
24
100
AcDbEntity
  8
2
100
AcDbLine
 10
-374.148691
 20
222.824811
 30
0.0
 11
-375.469393
 21
221.504109
 31
0.0
  0
LINE
  5
27C
330
24
100
AcDbEntity
  8
2
100
AcDbLine
 10
-375.469393
 20
221.504109
 30
0.0
 11
-377.501242
 21
223.535958
 31
0.0
  0
LINE
  5
27D
330
24
100
AcDbEntity
  8
2
100
AcDbLine
 10
-376.18054
 20
220.792962
 30
0.0
 11
-378.21239
 21
222.824811
 31
0.0
  0
LINE
  5
27E
330
24
100
AcDbEntity
  8
2
100
AcDbLine
 10
-376.891687
 20
220.081814
 30
0.0
 11
-378.923537
 21
222.113664
 31
0.0
  0
LINE
  5
27F
330
24
100
AcDbEntity
  8
2
100
AcDbLine
 10
-354.753829
 20
204.852244
 30
0.0
 11
-356.208375
 21
206.306789
 31
0.0
  0
LINE
  5
280
330
24
100
AcDbEntity
  8
2
100
AcDbLine
 10
-357.84419
 20
201.770657
 30
0.0
 11
-359.294348
 21
203.220815
 31
0.0
  0
ARC
  5
281
330
24
100
AcDbEntity
  8
2
100
AcDbCircle
 10
-357.958379
 20
198.364872
 30
0.0
 40
0.143673
100
AcDbArc
 50
225.0
 51
315.0
  0
LINE
  5
282
330
24
100
AcDbEntity
  8
2
100
AcDbLine
 10
-357.722279
 20
201.770657
 30
0.0
 11
-354.753829
 21
204.739107
 31
0.0
  0
LINE
  5
283
330
24
100
AcDbEntity
  8
2
100
AcDbLine
 10
-362.516023
 20
203.094409
 30
0.0
 11
-355.618788
 21
200.795331
 31
0.0
  0
ARC
  5
284
330
24
100
AcDbEntity
  8
2
100
AcDbCircle
 10
-357.783235
 20
201.831613
 30
0.0
 40
0.086204
100
AcDbArc
 50
225.0
 51
315.0
  0
LINE
  5
285
330
24
100
AcDbEntity
  8
2
100
AcDbLine
 10
-355.562629
 20
200.557438
 30
0.0
 11
-357.856787
 21
198.26328
 31
0.0
  0
ARC
  5
286
330
24
100
AcDbEntity
  8
2
100
AcDbCircle
 10
-356.1765
 20
201.784528
 30
0.0
 40
10.402317
100
AcDbArc
 50
128.830069
 51
141.169931
  0
ARC
  5
287
330
24
100
AcDbEntity
  8
2
100
AcDbCircle
 10
-356.947518
 20
202.555546
 30
0.0
 40
7.674066
100
AcDbArc
 50
124.473609
 51
145.526391
  0
LINE
  5
288
330
24
100
AcDbEntity
  8
2
100
AcDbLine
 10
-366.081989
 20
207.86536
 30
0.0
 11
-361.670182
 21
211.768597
 31
0.0
  0
ARC
  5
289
330
24
100
AcDbEntity
  8
2
100
AcDbCircle
 10
-361.617864
 20
208.544951
 30
0.0
 40
1.724081
100
AcDbArc
 50
51.27054199999999
 51
128.830069
  0
LINE
  5
28A
330
24
100
AcDbEntity
  8
2
100
AcDbLine
 10
-362.686107
 20
212.784521
 30
0.0
 11
-361.670182
 21
211.768597
 31
0.0
  0
ARC
  5
28B
330
24
100
AcDbEntity
  8
2
100
AcDbCircle
 10
-362.936924
 20
207.225892
 30
0.0
 40
1.724081
100
AcDbArc
 50
141.169931
 51
218.729458
  0
LINE
  5
28C
330
24
100
AcDbEntity
  8
2
100
AcDbLine
 10
-367.6411240000001
 20
209.408957
 30
0.0
 11
-366.089758
 21
207.85759
 31
0.0
  0
ARC
  5
28D
330
24
100
AcDbEntity
  8
2
100
AcDbCircle
 10
-366.864536
 20
212.472563
 30
0.0
 40
10.402317
100
AcDbArc
 50
308.830069
 51
321.169931
  0
ARC
  5
28E
330
24
100
AcDbEntity
  8
2
100
AcDbCircle
 10
-366.7121160000001
 20
212.445576
 30
0.0
 40
8.638035
100
AcDbArc
 50
305.062783
 51
323.774302
  0
LINE
  5
28F
330
24
100
AcDbEntity
  8
2
100
AcDbLine
 10
-356.330285
 20
206.306789
 30
0.0
 11
-359.294348
 21
203.342726
 31
0.0
  0
ARC
  5
290
330
24
100
AcDbEntity
  8
2
100
AcDbCircle
 10
-360.104112
 20
207.031199
 30
0.0
 40
1.724081
100
AcDbArc
 50
321.169931
 51
38.729458
  0
ARC
  5
291
330
24
100
AcDbEntity
  8
2
100
AcDbCircle
 10
-362.3712680000001
 20
206.277795
 30
0.0
 40
3.169315999999999
100
AcDbArc
 50
34.668048
 51
55.331952
  0
ARC
  5
292
330
24
100
AcDbEntity
  8
2
100
AcDbCircle
 10
-360.373872
 20
207.693273
 30
0.0
 40
0.7219260000000001
100
AcDbArc
 50
330.772957
 51
32.444044
  0
ARC
  5
293
330
24
100
AcDbEntity
  8
2
100
AcDbCircle
 10
-356.26933
 20
206.245834
 30
0.0
 40
0.086204
100
AcDbArc
 50
45.0
 51
135.0
  0
ARC
  5
294
330
24
100
AcDbEntity
  8
2
100
AcDbCircle
 10
-361.423172
 20
205.71214
 30
0.0
 40
1.724081
100
AcDbArc
 50
231.270542
 51
308.830069
  0
ARC
  5
295
330
24
100
AcDbEntity
  8
2
100
AcDbCircle
 10
-362.112954
 20
205.892585
 30
0.0
 40
0.6321630000000001
100
AcDbArc
 50
235.331952
 51
305.062783
  0
ARC
  5
296
330
24
100
AcDbEntity
  8
2
100
AcDbCircle
 10
-360.669768
 20
207.979296
 30
0.0
 40
3.169315999999999
100
AcDbArc
 50
214.668048
 51
235.331952
  0
ARC
  5
297
330
24
100
AcDbEntity
  8
2
100
AcDbCircle
 10
-359.2333930000001
 20
203.281771
 30
0.0
 40
0.086204
100
AcDbArc
 50
135.0
 51
225.0
  0
ARC
  5
298
330
24
100
AcDbEntity
  8
2
100
AcDbCircle
 10
-367.749152
 20
200.899911
 30
0.0
 40
11.524047
100
AcDbArc
 50
38.729458
 51
51.27054199999999
  0
ARC
  5
299
330
24
100
AcDbEntity
  8
2
100
AcDbCircle
 10
-360.9280819999999
 20
208.364506
 30
0.0
 40
0.6321630000000001
100
AcDbArc
 50
55.331952
 51
125.062783
  0
ARC
  5
29A
330
24
100
AcDbEntity
  8
2
100
AcDbCircle
 10
-355.291884
 20
213.35718
 30
0.0
 40
11.524047
100
AcDbArc
 50
218.729458
 51
231.270542
  0
ARC
  5
29B
330
24
100
AcDbEntity
  8
2
100
AcDbCircle
 10
-362.756478
 20
206.53611
 30
0.0
 40
0.6321630000000001
100
AcDbArc
 50
144.937217
 51
214.668048
  0
LINE
  5
29C
330
24
100
AcDbEntity
  8
2
100
AcDbLine
 10
-367.6411240000001
 20
209.408957
 30
0.0
 11
-366.022587
 21
213.030996
 31
0.0
  0
LINE
  5
29D
330
24
100
AcDbEntity
  8
2
100
AcDbLine
 10
-364.985547
 20
215.083961
 30
0.0
 11
-363.969622
 21
214.068037
 31
0.0
  0
ARC
  5
29E
330
24
100
AcDbEntity
  8
2
100
AcDbCircle
 10
-362.560295
 20
202.961593
 30
0.0
 40
0.14
100
AcDbArc
 50
71.565051
 51
225.0
  0
ARC
  5
29F
330
24
100
AcDbEntity
  8
2
100
AcDbCircle
 10
-372.544317
 20
216.323949
 30
0.0
 40
0.6321630000000001
100
AcDbArc
 50
235.331952
 51
305.062783
  0
ARC
  5
2A0
330
24
100
AcDbEntity
  8
2
100
AcDbCircle
 10
-370.715921
 20
218.152344
 30
0.0
 40
0.6321630000000001
100
AcDbArc
 50
324.937217
 51
34.668048
  0
ARC
  5
2A1
330
24
100
AcDbEntity
  8
2
100
AcDbCircle
 10
-371.101131
 20
218.410659
 30
0.0
 40
3.169315999999999
100
AcDbArc
 50
214.668048
 51
235.331952
  0
ARC
  5
2A2
330
24
100
AcDbEntity
  8
2
100
AcDbCircle
 10
-373.187841
 20
216.967473
 30
0.0
 40
0.6321630000000001
100
AcDbArc
 50
144.937217
 51
214.668048
  0
ARC
  5
2A3
330
24
100
AcDbEntity
  8
2
100
AcDbCircle
 10
-371.387153
 20
218.706554
 30
0.0
 40
0.7219260000000001
100
AcDbArc
 50
57.55595600000001
 51
119.227043
  0
ARC
  5
2A4
330
24
100
AcDbEntity
  8
2
100
AcDbCircle
 10
-372.802631
 20
216.709159
 30
0.0
 40
3.169315999999999
100
AcDbArc
 50
34.668048
 51
55.331952
  0
ARC
  5
2A5
330
24
100
AcDbEntity
  8
2
100
AcDbCircle
 10
-366.634851
 20
212.36831
 30
0.0
 40
8.638035
100
AcDbArc
 50
126.225698
 51
144.937217
  0
ARC
  5
2A6
330
24
100
AcDbEntity
  8
2
100
AcDbCircle
 10
-376.524881
 20
222.132909
 30
0.0
 40
7.674066
100
AcDbArc
 50
304.473609
 51
325.526391
  0
LINE
  5
2A7
330
24
100
AcDbEntity
  8
2
100
AcDbLine
 10
-358.059972
 20
198.26328
 30
0.0
 11
-362.65929
 21
202.862598
 31
0.0
  0
LINE
  5
2A8
330
24
100
AcDbEntity
  8
2
100
AcDbLine
 10
-366.011592
 20
209.788717
 30
0.0
 11
-363.996465
 21
214.09488
 31
0.0
  0
LINE
  5
2A9
330
24
100
AcDbEntity
  8
2
100
AcDbLine
 10
-366.011592
 20
209.788717
 30
0.0
 11
-362.71295
 21
212.811365
 31
0.0
  0
LINE
  5
2AA
330
24
100
AcDbEntity
  8
2
100
AcDbLine
 10
-379.634684
 20
221.402516
 30
0.0
 11
-378.923537
 21
222.113664
 31
0.0
  0
LINE
  5
2AB
330
24
100
AcDbEntity
  8
2
100
AcDbLine
 10
-378.21239
 20
222.824811
 30
0.0
 11
-377.501242
 21
223.535958
 31
0.0
  0
ARC
  5
2AC
330
24
100
AcDbEntity
  8
2
100
AcDbCircle
 10
-355.664221
 20
200.65903
 30
0.0
 40
0.143673
100
AcDbArc
 50
315.0
 51
71.565051
  0
LINE
  5
2AD
330
24
100
AcDbEntity
  8
2
100
AcDbLine
 10
-317.380073
 20
219.487698
 30
0.0
 11
-314.715677
 21
218.741596
 31
0.0
  0
LINE
  5
2AE
330
24
100
AcDbEntity
  8
2
100
AcDbLine
 10
-314.715677
 20
218.741596
 30
0.0
 11
-315.473721
 21
219.52411
 31
0.0
  0
LINE
  5
2AF
330
24
100
AcDbEntity
  8
2
100
AcDbLine
 10
-335.570696
 20
216.509731
 30
0.0
 11
-349.570696
 21
216.509731
 31
0.0
  0
LINE
  5
2B0
330
24
100
AcDbEntity
  8
2
100
AcDbLine
 10
-301.889448
 20
208.447285
 30
0.0
 11
-311.127052
 21
208.447285
 31
0.0
  0
LINE
  5
2B1
330
24
100
AcDbEntity
  8
2
100
AcDbLine
 10
-311.127052
 20
192.447285
 30
0.0
 11
-301.889448
 21
192.447285
 31
0.0
  0
CIRCLE
  5
2B2
330
24
100
AcDbEntity
  8
2
100
AcDbCircle
 10
-306.50825
 20
200.447285
 30
0.0
 40
8.0
  0
LINE
  5
2B3
330
24
100
AcDbEntity
  8
2
100
AcDbLine
 10
-315.745854
 20
200.447285
 30
0.0
 11
-311.127052
 21
192.447285
 31
0.0
  0
LINE
  5
2B4
330
24
100
AcDbEntity
  8
2
100
AcDbLine
 10
-301.889448
 20
192.447285
 30
0.0
 11
-297.270646
 21
200.447285
 31
0.0
  0
LINE
  5
2B5
330
24
100
AcDbEntity
  8
2
100
AcDbLine
 10
-297.270646
 20
200.447285
 30
0.0
 11
-301.889448
 21
208.447285
 31
0.0
  0
LINE
  5
2B6
330
24
100
AcDbEntity
  8
2
100
AcDbLine
 10
-311.127052
 20
208.447285
 30
0.0
 11
-315.745854
 21
200.447285
 31
0.0
  0
LINE
  5
2B7
330
24
100
AcDbEntity
  8
2
100
AcDbLine
 10
-383.251944
 20
280.572177
 30
0.0
 11
-387.870746
 21
272.572177
 31
0.0
  0
LINE
  5
2B8
330
24
100
AcDbEntity
  8
2
100
AcDbLine
 10
-387.870746
 20
272.572177
 30
0.0
 11
-383.251944
 21
264.572177
 31
0.0
  0
LINE
  5
2B9
330
24
100
AcDbEntity
  8
2
100
AcDbLine
 10
-374.014339
 20
280.572177
 30
0.0
 11
-383.251944
 21
280.572177
 31
0.0
  0
LINE
  5
2BA
330
24
100
AcDbEntity
  8
2
100
AcDbLine
 10
-369.395537
 20
272.572177
 30
0.0
 11
-374.014339
 21
280.572177
 31
0.0
  0
LINE
  5
2BB
330
24
100
AcDbEntity
  8
2
100
AcDbLine
 10
-374.014339
 20
264.572177
 30
0.0
 11
-369.395537
 21
272.572177
 31
0.0
  0
LINE
  5
2BC
330
24
100
AcDbEntity
  8
2
100
AcDbLine
 10
-383.251944
 20
264.572177
 30
0.0
 11
-374.014339
 21
264.572177
 31
0.0
  0
CIRCLE
  5
2BD
330
24
100
AcDbEntity
  8
2
100
AcDbCircle
 10
-378.633142
 20
272.572177
 30
0.0
 40
8.0
  0
LINE
  5
2BE
330
24
100
AcDbEntity
  8
2
100
AcDbLine
 10
-340.073639
 20
242.143442
 30
0.0
 11
-336.384352
 21
242.143442
 31
0.0
  0
LINE
  5
2BF
330
24
100
AcDbEntity
  8
2
100
AcDbLine
 10
-336.337564
 20
241.945248
 30
0.0
 11
-339.956671
 21
240.135695
 31
0.0
  0
CIRCLE
  5
2C0
330
24
100
AcDbEntity
  8
2
100
AcDbCircle
 10
-342.570696
 20
236.509731
 30
0.0
 40
14.0
  0
LINE
  5
2C1
330
24
100
AcDbEntity
  8
2
100
AcDbLine
 10
-340.679265
 20
239.748243
 30
0.0
 11
-344.298372
 21
237.93869
 31
0.0
  0
LINE
  5
2C2
330
24
100
AcDbEntity
  8
2
100
AcDbLine
 10
-344.676888
 20
238.172626
 30
0.0
 11
-344.676888
 21
239.684889
 31
0.0
  0
LINE
  5
2C3
330
24
100
AcDbEntity
  8
2
100
AcDbLine
 10
-345.020965
 20
239.748243
 30
0.0
 11
-348.721298
 21
237.898077
 31
0.0
  0
LINE
  5
2C4
330
24
100
AcDbEntity
  8
2
100
AcDbLine
 10
-349.018588
 20
235.975621
 30
0.0
 11
-349.018588
 21
241.881894
 31
0.0
  0
LINE
  5
2C5
330
24
100
AcDbEntity
  8
2
100
AcDbLine
 10
-345.020965
 20
237.551238
 30
0.0
 11
-348.640072
 21
235.741685
 31
0.0
  0
LINE
  5
2C6
330
24
100
AcDbEntity
  8
2
100
AcDbLine
 10
-348.686207
 20
237.749432
 30
0.0
 11
-345.067752
 21
237.749432
 31
0.0
  0
ARC
  5
2C7
330
24
100
AcDbEntity
  8
2
100
AcDbCircle
 10
-348.75704
 20
235.975621
 30
0.0
 40
0.261548
100
AcDbArc
 50
180.0
 51
296.565051
  0
ARC
  5
2C8
330
24
100
AcDbEntity
  8
2
100
AcDbCircle
 10
-348.686207
 20
237.827896
 30
0.0
 40
0.078464
100
AcDbArc
 50
116.565051
 51
270.0
  0
LINE
  5
2C9
330
24
100
AcDbEntity
  8
2
100
AcDbLine
 10
-344.519959
 20
229.406044
 30
0.0
 11
-340.786549
 21
229.406044
 31
0.0
  0
LINE
  5
2CA
330
24
100
AcDbEntity
  8
2
100
AcDbLine
 10
-344.519959
 20
237.749432
 30
0.0
 11
-340.786549
 21
237.749432
 31
0.0
  0
LINE
  5
2CB
330
24
100
AcDbEntity
  8
2
100
AcDbLine
 10
-344.676888
 20
237.592503
 30
0.0
 11
-344.676888
 21
229.562973
 31
0.0
  0
ARC
  5
2CC
330
24
100
AcDbEntity
  8
2
100
AcDbCircle
 10
-344.519959
 20
229.562973
 30
0.0
 40
0.156929
100
AcDbArc
 50
180.0
 51
270.0
  0
ARC
  5
2CD
330
24
100
AcDbEntity
  8
2
100
AcDbCircle
 10
-344.415339
 20
238.172626
 30
0.0
 40
0.261548
100
AcDbArc
 50
180.0
 51
296.565051
  0
ARC
  5
2CE
330
24
100
AcDbEntity
  8
2
100
AcDbCircle
 10
-344.519959
 20
237.592503
 30
0.0
 40
0.156929
100
AcDbArc
 50
90.0
 51
180.0
  0
ARC
  5
2CF
330
24
100
AcDbEntity
  8
2
100
AcDbCircle
 10
-345.067752
 20
237.644812
 30
0.0
 40
0.104619
100
AcDbArc
 50
296.565051
 51
90.0
  0
LINE
  5
2D0
330
24
100
AcDbEntity
  8
2
100
AcDbLine
 10
-340.62962
 20
229.562973
 30
0.0
 11
-340.62962
 21
237.592503
 31
0.0
  0
ARC
  5
2D1
330
24
100
AcDbEntity
  8
2
100
AcDbCircle
 10
-340.786549
 20
229.562973
 30
0.0
 40
0.156929
100
AcDbArc
 50
270.0
 51
360.0
  0
ARC
  5
2D2
330
24
100
AcDbEntity
  8
2
100
AcDbCircle
 10
-340.786549
 20
237.592503
 30
0.0
 40
0.156929
100
AcDbArc
 50
0.0
 51
90.0
  0
LINE
  5
2D3
330
24
100
AcDbEntity
  8
2
100
AcDbLine
 10
-348.75704
 20
242.143442
 30
0.0
 11
-345.067752
 21
242.143442
 31
0.0
  0
LINE
  5
2D4
330
24
100
AcDbEntity
  8
2
100
AcDbLine
 10
-348.686207
 20
239.946437
 30
0.0
 11
-345.067752
 21
239.946437
 31
0.0
  0
LINE
  5
2D5
330
24
100
AcDbEntity
  8
2
100
AcDbLine
 10
-345.020965
 20
241.945248
 30
0.0
 11
-348.721298
 21
240.095082
 31
0.0
  0
ARC
  5
2D6
330
24
100
AcDbEntity
  8
2
100
AcDbCircle
 10
-348.75704
 20
241.881894
 30
0.0
 40
0.261548
100
AcDbArc
 50
90.0
 51
180.0
  0
ARC
  5
2D7
330
24
100
AcDbEntity
  8
2
100
AcDbCircle
 10
-348.686207
 20
240.024901
 30
0.0
 40
0.078464
100
AcDbArc
 50
116.565051
 51
270.0
  0
LINE
  5
2D8
330
24
100
AcDbEntity
  8
2
100
AcDbLine
 10
-344.415339
 20
242.143442
 30
0.0
 11
-340.726052
 21
242.143442
 31
0.0
  0
LINE
  5
2D9
330
24
100
AcDbEntity
  8
2
100
AcDbLine
 10
-344.415339
 20
239.946437
 30
0.0
 11
-340.726052
 21
239.946437
 31
0.0
  0
LINE
  5
2DA
330
24
100
AcDbEntity
  8
2
100
AcDbLine
 10
-340.679265
 20
241.945248
 30
0.0
 11
-344.298372
 21
240.135695
 31
0.0
  0
ARC
  5
2DB
330
24
100
AcDbEntity
  8
2
100
AcDbCircle
 10
-344.415339
 20
241.881894
 30
0.0
 40
0.261548
100
AcDbArc
 50
90.0
 51
180.0
  0
ARC
  5
2DC
330
24
100
AcDbEntity
  8
2
100
AcDbCircle
 10
-345.067752
 20
242.038822
 30
0.0
 40
0.104619
100
AcDbArc
 50
296.565051
 51
90.0
  0
ARC
  5
2DD
330
24
100
AcDbEntity
  8
2
100
AcDbCircle
 10
-344.415339
 20
240.369631
 30
0.0
 40
0.261548
100
AcDbArc
 50
180.0
 51
296.565051
  0
ARC
  5
2DE
330
24
100
AcDbEntity
  8
2
100
AcDbCircle
 10
-344.415339
 20
239.684889
 30
0.0
 40
0.261548
100
AcDbArc
 50
90.0
 51
180.0
  0
ARC
  5
2DF
330
24
100
AcDbEntity
  8
2
100
AcDbCircle
 10
-345.067752
 20
239.841817
 30
0.0
 40
0.104619
100
AcDbArc
 50
296.565051
 51
90.0
  0
LINE
  5
2E0
330
24
100
AcDbEntity
  8
2
100
AcDbLine
 10
-344.676888
 20
240.369631
 30
0.0
 11
-344.676888
 21
241.881894
 31
0.0
  0
ARC
  5
2E1
330
24
100
AcDbEntity
  8
2
100
AcDbCircle
 10
-340.073639
 20
241.881894
 30
0.0
 40
0.261548
100
AcDbArc
 50
90.0
 51
180.0
  0
ARC
  5
2E2
330
24
100
AcDbEntity
  8
2
100
AcDbCircle
 10
-340.726052
 20
242.038822
 30
0.0
 40
0.104619
100
AcDbArc
 50
296.565051
 51
90.0
  0
ARC
  5
2E3
330
24
100
AcDbEntity
  8
2
100
AcDbCircle
 10
-340.073639
 20
240.369631
 30
0.0
 40
0.261548
100
AcDbArc
 50
180.0
 51
296.565051
  0
ARC
  5
2E4
330
24
100
AcDbEntity
  8
2
100
AcDbCircle
 10
-340.726052
 20
239.841817
 30
0.0
 40
0.104619
100
AcDbArc
 50
296.565051
 51
90.0
  0
LINE
  5
2E5
330
24
100
AcDbEntity
  8
2
100
AcDbLine
 10
-340.335187
 20
240.369631
 30
0.0
 11
-340.335187
 21
241.881894
 31
0.0
  0
ARC
  5
2E6
330
24
100
AcDbEntity
  8
2
100
AcDbCircle
 10
-336.384352
 20
242.038822
 30
0.0
 40
0.104619
100
AcDbArc
 50
296.565051
 51
90.0
  0
TEXT
  5
2E7
330
24
100
AcDbEntity
  8
2
100
AcDbText
 10
-318.140262
 20
219.044975
 30
0.0
 40
3.0
  1
Ｔ
 50
232.5801069851688
 41
0.9230769897769942
 72
     5
 11
-319.598626
 21
217.138886
 31
0.0
100
AcDbText
  0
TEXT
  5
2E8
330
24
100
AcDbEntity
  8
2
100
AcDbText
 10
-319.755381
 20
216.982181
 30
0.0
 40
3.0
  1
Ｅ
 50
227.580109194358
 41
1.090909156992609
 72
     5
 11
-321.374322
 21
215.21045
 31
0.0
100
AcDbText
  0
TEXT
  5
2E9
330
24
100
AcDbEntity
  8
2
100
AcDbText
 10
-321.544138
 20
215.068003
 30
0.0
 40
3.0
  1
Ｎ
 50
222.5801083316807
 41
0.9230769808597669
 72
     5
 11
-323.311335
 21
213.444114
 31
0.0
100
AcDbText
  0
TEXT
  5
2EA
330
24
100
AcDbEntity
  8
2
100
AcDbText
 10
-323.49292
 20
213.31701
 30
0.0
 40
3.0
  1
Ｔ
 50
217.5800969094901
 41
0.9230770654935692
 72
     5
 11
-325.394924
 21
211.853322
 31
0.0
100
AcDbText
  0
TEXT
  5
2EB
330
24
100
AcDbEntity
  8
2
100
AcDbText
 10
-325.586896
 20
211.742528
 30
0.0
 40
3.0
  1
Ｅ
 50
212.5801053539106
 41
1.090909299747044
 72
     5
 11
-327.609231
 21
210.45018
 31
0.0
100
AcDbText
  0
TEXT
  5
2EC
330
24
100
AcDbEntity
  8
2
100
AcDbText
 10
-327.810128
 20
210.356539
 30
0.0
 40
3.0
  1
Ｄ
 50
207.5801023830439
 41
1.000000185695214
 72
     5
 11
-329.937403
 21
209.245367
 31
0.0
100
AcDbText
  0
TEXT
  5
2ED
330
24
100
AcDbEntity
  8
2
100
AcDbText
 10
-367.613419
 20
253.084586
 30
0.0
 40
3.0
  1
Ｊ
 50
54.64109587965431
 41
1.199999759213553
 72
     5
 11
-366.224548
 21
255.041889
 31
0.0
100
AcDbText
  0
TEXT
  5
2EE
330
24
100
AcDbEntity
  8
2
100
AcDbText
 10
-366.07353
 20
255.204131
 30
0.0
 40
3.0
  1
Ａ
 50
49.64110140635951
 41
0.9230767694090328
 72
     5
 11
-364.519354
 21
257.032938
 31
0.0
100
AcDbText
  0
TEXT
  5
2EF
330
24
100
AcDbEntity
  8
2
100
AcDbText
 10
-364.354771
 20
257.1814
 30
0.0
 40
3.0
  1
Ｐ
 50
44.64110906530019
 41
1.000000010317518
 72
     5
 11
-362.647118
 21
258.867793
 31
0.0
100
AcDbText
  0
TEXT
  5
2F0
330
24
100
AcDbEntity
  8
2
100
AcDbText
 10
-362.470221
 20
259.001345
 30
0.0
 40
3.0
  1
Ａ
 50
39.64110448616614
 41
0.9230770216900426
 72
     5
 11
-360.622087
 21
260.532489
 31
0.0
100
AcDbText
  0
TEXT
  5
2F1
330
24
100
AcDbEntity
  8
2
100
AcDbText
 10
-360.434224
 20
260.650116
 30
0.0
 40
3.0
  1
Ｎ
 50
34.64110749874374
 41
0.9230769221125855
 72
     5
 11
-358.459675
 21
262.014358
 31
0.0
100
AcDbText
  0
ARC
  5
2F2
330
24
100
AcDbEntity
  8
2
100
AcDbCircle
 10
-384.570696
 20
301.642288
 30
0.0
 40
15.0
100
AcDbArc
 50
302.815493
 51
360.0
  0
LINE
  5
2F3
330
24
100
AcDbEntity
  8
2
100
AcDbLine
 10
-350.570696
 20
324.009731
 30
0.0
 11
-359.570696
 21
324.009731
 31
0.0
  0
LINE
  5
2F4
330
24
100
AcDbEntity
  8
2
100
AcDbLine
 10
-369.570696
 20
314.009731
 30
0.0
 11
-369.570696
 21
301.642288
 31
0.0
  0
LINE
  5
2F5
330
24
100
AcDbEntity
  8
2
100
AcDbLine
 10
-349.570696
 20
323.009731
 30
0.0
 11
-349.570696
 21
309.764424
 31
0.0
  0
ARC
  5
2F6
330
24
100
AcDbEntity
  8
2
100
AcDbCircle
 10
-359.570696
 20
314.009731
 30
0.0
 40
10.0
100
AcDbArc
 50
90.0
 51
180.0
  0
ARC
  5
2F7
330
24
100
AcDbEntity
  8
2
100
AcDbCircle
 10
-350.570696
 20
323.009731
 30
0.0
 40
1.0
100
AcDbArc
 50
0.0
 51
90.0
  0
ARC
  5
2F8
330
24
100
AcDbEntity
  8
2
100
AcDbCircle
 10
-348.570696
 20
309.764424
 30
0.0
 40
1.0
100
AcDbArc
 50
180.0
 51
274.682417
  0
ARC
  5
2F9
330
24
100
AcDbEntity
  8
2
100
AcDbCircle
 10
-342.570696
 20
236.509731
 30
0.0
 40
72.5
100
AcDbArc
 50
63.197079
 51
66.802931
  0
ARC
  5
2FA
330
24
100
AcDbEntity
  8
2
100
AcDbCircle
 10
-342.570696
 20
236.509731
 30
0.0
 40
72.5
100
AcDbArc
 50
73.19707099999999
 51
76.80292900000001
  0
ARC
  5
2FB
330
24
100
AcDbEntity
  8
2
100
AcDbCircle
 10
-342.570696
 20
236.509731
 30
0.0
 40
72.5
100
AcDbArc
 50
83.19707499999999
 51
86.802934
  0
ARC
  5
2FC
330
24
100
AcDbEntity
  8
2
100
AcDbCircle
 10
-342.570696
 20
236.509731
 30
0.0
 40
72.5
100
AcDbArc
 50
93.19707199999999
 51
94.682417
  0
LINE
  5
2FD
330
24
100
AcDbEntity
  8
2
100
AcDbLine
 10
-320.90507
 20
297.38617
 30
0.0
 11
-321.257472
 21
305.457515
 31
0.0
  0
ARC
  5
2FE
330
24
100
AcDbEntity
  8
2
100
AcDbCircle
 10
-321.756996
 20
305.435705
 30
0.0
 40
0.5
100
AcDbArc
 50
2.5
 51
73.19716600000001
  0
ARC
  5
2FF
330
24
100
AcDbEntity
  8
2
100
AcDbCircle
 10
-314.210152
 20
302.688878
 30
0.0
 40
0.5
100
AcDbArc
 50
66.80283399999999
 51
137.5
  0
LINE
  5
300
330
24
100
AcDbEntity
  8
2
100
AcDbLine
 10
-320.036907
 20
297.0701850000001
 30
0.0
 11
-314.578791
 21
303.026674
 31
0.0
  0
LINE
  5
301
330
24
100
AcDbEntity
  8
2
100
AcDbLine
 10
-342.108756
 20
301.124952
 30
0.0
 11
-339.017043
 21
308.589006
 31
0.0
  0
ARC
  5
302
330
24
100
AcDbEntity
  8
2
100
AcDbCircle
 10
-338.555104
 20
308.397665
 30
0.0
 40
0.5
100
AcDbArc
 50
86.80283399999998
 51
157.5
  0
ARC
  5
303
330
24
100
AcDbEntity
  8
2
100
AcDbCircle
 10
-346.5862879999999
 20
308.397665
 30
0.0
 40
0.5
100
AcDbArc
 50
22.5
 51
93.19716600000001
  0
LINE
  5
304
330
24
100
AcDbEntity
  8
2
100
AcDbLine
 10
-343.032635
 20
301.124952
 30
0.0
 11
-346.124348
 21
308.589006
 31
0.0
  0
LINE
  5
305
330
24
100
AcDbEntity
  8
2
100
AcDbLine
 10
-331.805302
 20
300.223517
 30
0.0
 11
-333.553925
 21
308.1110450000001
 31
0.0
  0
ARC
  5
306
330
24
100
AcDbEntity
  8
2
100
AcDbCircle
 10
-334.042073
 20
308.002826
 30
0.0
 40
0.5
100
AcDbArc
 50
12.5
 51
83.19716600000001
  0
ARC
  5
307
330
24
100
AcDbEntity
  8
2
100
AcDbCircle
 10
-326.132901
 20
306.608225
 30
0.0
 40
0.5
100
AcDbArc
 50
76.80283399999999
 51
147.5
  0
LINE
  5
308
330
24
100
AcDbEntity
  8
2
100
AcDbLine
 10
-330.895458
 20
300.063087
 30
0.0
 11
-326.554597
 21
306.876875
 31
0.0
  0
ARC
  5
309
330
24
100
AcDbEntity
  8
2
100
AcDbCircle
 10
-326.132901
 20
306.608225
 30
0.0
 40
0.5
100
AcDbArc
 50
76.80283399999999
 51
147.5
  0
ARC
  5
30A
330
24
100
AcDbEntity
  8
2
100
AcDbCircle
 10
-321.756996
 20
305.435705
 30
0.0
 40
0.5
100
AcDbArc
 50
2.5
 51
73.19716600000001
  0
LINE
  5
30B
330
24
100
AcDbEntity
  8
2
100
AcDbLine
 10
-255.070696
 20
220.677851
 30
0.0
 11
-255.070696
 21
219.509731
 31
0.0
  0
ARC
  5
30C
330
24
100
AcDbEntity
  8
2
100
AcDbCircle
 10
-273.644721
 20
257.32343
 30
0.0
 40
0.5
100
AcDbArc
 50
16.802834
 51
87.5
  0
ARC
  5
30D
330
24
100
AcDbEntity
  8
2
100
AcDbCircle
 10
-272.472201
 20
252.947526
 30
0.0
 40
0.5
100
AcDbArc
 50
325.7465390000001
 51
13.197166
  0
LINE
  5
30E
330
24
100
AcDbEntity
  8
2
100
AcDbLine
 10
-282.010242
 20
259.04352
 30
0.0
 11
-276.053753
 21
264.501636
 31
0.0
  0
ARC
  5
30F
330
24
100
AcDbEntity
  8
2
100
AcDbCircle
 10
-273.644721
 20
257.32343
 30
0.0
 40
0.5
100
AcDbArc
 50
16.802834
 51
87.5
  0
ARC
  5
310
330
24
100
AcDbEntity
  8
2
100
AcDbCircle
 10
-281.672447
 20
258.674881
 30
0.0
 40
0.5
100
AcDbArc
 50
132.5
 51
267.5
  0
LINE
  5
311
330
24
100
AcDbEntity
  8
2
100
AcDbLine
 10
-281.694256
 20
258.175357
 30
0.0
 11
-273.622912
 21
257.822954
 31
0.0
  0
LINE
  5
312
330
24
100
AcDbEntity
  8
2
100
AcDbLine
 10
-265.070696
 20
209.509731
 30
0.0
 11
-277.438139
 21
209.509731
 31
0.0
  0
ARC
  5
313
330
24
100
AcDbEntity
  8
2
100
AcDbCircle
 10
-265.070696
 20
219.509731
 30
0.0
 40
10.0
100
AcDbArc
 50
270.0
 51
360.0
  0
LINE
  5
314
330
24
100
AcDbEntity
  8
2
100
AcDbLine
 10
-255.070696
 20
220.677851
 30
0.0
 11
-255.070696
 21
219.509731
 31
0.0
  0
ARC
  5
315
330
24
100
AcDbEntity
  8
2
100
AcDbCircle
 10
-272.472201
 20
252.947526
 30
0.0
 40
0.5
100
AcDbArc
 50
325.7465390000001
 51
13.197166
  0
LINE
  5
316
330
24
100
AcDbEntity
  8
2
100
AcDbLine
 10
-281.694256
 20
258.175357
 30
0.0
 11
-273.622912
 21
257.822954
 31
0.0
  0
ARC
  5
317
330
24
100
AcDbEntity
  8
2
100
AcDbCircle
 10
-273.644721
 20
257.32343
 30
0.0
 40
0.5
100
AcDbArc
 50
16.802834
 51
87.5
  0
ARC
  5
318
330
24
100
AcDbEntity
  8
2
100
AcDbCircle
 10
-276.391548
 20
264.870274
 30
0.0
 40
0.5
100
AcDbArc
 50
312.5
 51
23.197166
  0
ARC
  5
319
330
24
100
AcDbEntity
  8
2
100
AcDbCircle
 10
-281.672447
 20
258.674881
 30
0.0
 40
0.5
100
AcDbArc
 50
132.5
 51
267.5
  0
LINE
  5
31A
330
24
100
AcDbEntity
  8
2
100
AcDbLine
 10
-282.010242
 20
259.04352
 30
0.0
 11
-276.053753
 21
264.501636
 31
0.0
  0
LINE
  5
31B
330
24
100
AcDbEntity
  8
2
100
AcDbLine
 10
-286.381303
 20
268.41729
 30
0.0
 11
-278.371386
 21
269.471815
 31
0.0
  0
ARC
  5
31C
330
24
100
AcDbEntity
  8
2
100
AcDbCircle
 10
-278.306123
 20
268.976093
 30
0.0
 40
0.5
100
AcDbArc
 50
26.802834
 51
97.5
  0
ARC
  5
31D
330
24
100
AcDbEntity
  8
2
100
AcDbCircle
 10
-286.446566
 20
268.9130120000001
 30
0.0
 40
0.5
100
AcDbArc
 50
142.5
 51
277.5
  0
LINE
  5
31E
330
24
100
AcDbEntity
  8
2
100
AcDbLine
 10
-286.843243
 20
269.217393
 30
0.0
 11
-281.925038
 21
275.626922
 31
0.0
  0
LINE
  5
31F
330
24
100
AcDbEntity
  8
2
100
AcDbLine
 10
-282.010242
 20
259.04352
 30
0.0
 11
-276.053753
 21
264.501636
 31
0.0
  0
ARC
  5
320
330
24
100
AcDbEntity
  8
2
100
AcDbCircle
 10
-281.672447
 20
258.674881
 30
0.0
 40
0.5
100
AcDbArc
 50
132.5
 51
267.5
  0
ARC
  5
321
330
24
100
AcDbEntity
  8
2
100
AcDbCircle
 10
-276.391548
 20
264.870274
 30
0.0
 40
0.5
100
AcDbArc
 50
312.5
 51
23.197166
  0
ARC
  5
322
330
24
100
AcDbEntity
  8
2
100
AcDbCircle
 10
-273.644721
 20
257.32343
 30
0.0
 40
0.5
100
AcDbArc
 50
16.802834
 51
87.5
  0
ARC
  5
323
330
24
100
AcDbEntity
  8
2
100
AcDbCircle
 10
-342.570696
 20
236.509731
 30
0.0
 40
72.5
100
AcDbArc
 50
23.197079
 51
26.80293300000001
  0
ARC
  5
324
330
24
100
AcDbEntity
  8
2
100
AcDbCircle
 10
-342.570696
 20
236.509731
 30
0.0
 40
72.5
100
AcDbArc
 50
13.197089
 51
16.802918
  0
ARC
  5
325
330
24
100
AcDbEntity
  8
2
100
AcDbCircle
 10
-293.2859009999999
 20
288.99791
 30
0.0
 40
0.5
100
AcDbArc
 50
46.802834
 51
117.5
  0
ARC
  5
326
330
24
100
AcDbEntity
  8
2
100
AcDbCircle
 10
-290.082516
 20
285.794526
 30
0.0
 40
0.5
100
AcDbArc
 50
332.5
 51
43.19716599999999
  0
LINE
  5
327
330
24
100
AcDbEntity
  8
2
100
AcDbLine
 10
-292.775635
 20
277.689728
 30
0.0
 11
-285.070524
 21
280.119141
 31
0.0
  0
ARC
  5
328
330
24
100
AcDbEntity
  8
2
100
AcDbCircle
 10
-284.920171
 20
279.642282
 30
0.0
 40
0.5
100
AcDbArc
 50
36.802834
 51
107.5
  0
ARC
  5
329
330
24
100
AcDbEntity
  8
2
100
AcDbCircle
 10
-290.082516
 20
285.794526
 30
0.0
 40
0.5
100
AcDbArc
 50
332.5
 51
43.19716599999999
  0
ARC
  5
32A
330
24
100
AcDbEntity
  8
2
100
AcDbCircle
 10
-292.925988
 20
278.166587
 30
0.0
 40
0.5
100
AcDbArc
 50
152.5
 51
287.5
  0
LINE
  5
32B
330
24
100
AcDbEntity
  8
2
100
AcDbLine
 10
-293.369494
 20
278.397461
 30
0.0
 11
-289.639011
 21
285.563652
 31
0.0
  0
LINE
  5
32C
330
24
100
AcDbEntity
  8
2
100
AcDbLine
 10
-301.390698
 20
286.304791
 30
0.0
 11
-298.961286
 21
294.0099029999999
 31
0.0
  0
ARC
  5
32D
330
24
100
AcDbEntity
  8
2
100
AcDbCircle
 10
-300.91384
 20
286.154438
 30
0.0
 40
0.5
100
AcDbArc
 50
162.5
 51
297.5
  0
ARC
  5
32E
330
24
100
AcDbEntity
  8
2
100
AcDbCircle
 10
-299.438145
 20
294.160256
 30
0.0
 40
0.5
100
AcDbArc
 50
342.5
 51
53.197166
  0
ARC
  5
32F
330
24
100
AcDbEntity
  8
2
100
AcDbCircle
 10
-293.2859009999999
 20
288.99791
 30
0.0
 40
0.5
100
AcDbArc
 50
46.802834
 51
117.5
  0
LINE
  5
330
330
24
100
AcDbEntity
  8
2
100
AcDbLine
 10
-300.682966
 20
285.710933
 30
0.0
 11
-293.516775
 21
289.441416
 31
0.0
  0
ARC
  5
331
330
24
100
AcDbEntity
  8
2
100
AcDbCircle
 10
-331.317154
 20
300.331737
 30
0.0
 40
0.5
100
AcDbArc
 50
192.5
 51
327.5
  0
ARC
  5
332
330
24
100
AcDbEntity
  8
2
100
AcDbCircle
 10
-342.570696
 20
301.316294
 30
0.0
 40
0.5
100
AcDbArc
 50
202.5
 51
337.5
  0
ARC
  5
333
330
24
100
AcDbEntity
  8
2
100
AcDbCircle
 10
-320.405546
 20
297.40798
 30
0.0
 40
0.5
100
AcDbArc
 50
182.5
 51
317.5
  0
LINE
  5
334
330
24
100
AcDbEntity
  8
2
100
AcDbLine
 10
-310.663137
 20
292.699124
 30
0.0
 11
-309.608611
 21
300.709041
 31
0.0
  0
ARC
  5
335
330
24
100
AcDbEntity
  8
2
100
AcDbCircle
 10
-310.167414
 20
292.633861
 30
0.0
 40
0.5
100
AcDbArc
 50
172.5
 51
307.5
  0
ARC
  5
336
330
24
100
AcDbEntity
  8
2
100
AcDbCircle
 10
-310.104334
 20
300.774304
 30
0.0
 40
0.5
100
AcDbArc
 50
352.5
 51
63.197166
  0
ARC
  5
337
330
24
100
AcDbEntity
  8
2
100
AcDbCircle
 10
-303.149124
 20
296.758712
 30
0.0
 40
0.5
100
AcDbArc
 50
56.802834
 51
127.5
  0
LINE
  5
338
330
24
100
AcDbEntity
  8
2
100
AcDbLine
 10
-309.863034
 20
292.237184
 30
0.0
 11
-303.453505
 21
297.155388
 31
0.0
  0
ARC
  5
339
330
24
100
AcDbEntity
  8
2
100
AcDbCircle
 10
-282.321715
 20
275.931302
 30
0.0
 40
0.5
100
AcDbArc
 50
322.5
 51
33.197166
  0
ARC
  5
33A
330
24
100
AcDbEntity
  8
2
100
AcDbCircle
 10
-282.321715
 20
275.931302
 30
0.0
 40
0.5
100
AcDbArc
 50
322.5
 51
33.197166
  0
ARC
  5
33B
330
24
100
AcDbEntity
  8
2
100
AcDbCircle
 10
-342.570696
 20
236.509731
 30
0.0
 40
72.5
100
AcDbArc
 50
53.197091
 51
56.80292099999999
  0
ARC
  5
33C
330
24
100
AcDbEntity
  8
2
100
AcDbCircle
 10
-342.570696
 20
236.509731
 30
0.0
 40
72.5
100
AcDbArc
 50
43.19710399999999
 51
46.802926
  0
ARC
  5
33D
330
24
100
AcDbEntity
  8
2
100
AcDbCircle
 10
-342.570696
 20
236.509731
 30
0.0
 40
72.5
100
AcDbArc
 50
33.197067
 51
36.802896
  0
ARC
  5
33E
330
24
100
AcDbEntity
  8
2
100
AcDbCircle
 10
-277.438139
 20
194.509731
 30
0.0
 40
15.0
100
AcDbArc
 50
90.0
 51
147.184507
  0
ARC
  5
33F
330
24
100
AcDbEntity
  8
2
100
AcDbCircle
 10
-342.570696
 20
236.509731
 30
0.0
 40
62.5
100
AcDbArc
 50
121.541246
 51
327.184507
  0
LINE
  5
340
330
24
100
AcDbEntity
  8
2
100
AcDbLine
 10
-281.694256
 20
258.175357
 30
0.0
 11
-273.622912
 21
257.822954
 31
0.0
  0
POINT
  5
341
330
24
100
AcDbEntity
  8
2
100
AcDbPoint
 10
-342.570696
 20
216.509731
 30
0.0
  0
LINE
  5
342
330
24
100
AcDbEntity
  8
2
  6
CENTER
 62
     2
100
AcDbLine
 10
-342.570696
 20
226.509731
 30
0.0
 11
-342.570696
 21
200.009731
 31
0.0
  0
LINE
  5
343
330
24
100
AcDbEntity
  8
2
100
AcDbLine
 10
-342.570696
 20
216.509731
 30
0.0
 11
-335.070696
 21
216.509731
 31
0.0
  0
LINE
  5
344
330
24
100
AcDbEntity
  8
2
100
AcDbLine
 10
-335.070696
 20
216.509731
 30
0.0
 11
-335.070696
 21
210.731419
 31
0.0
  0
LINE
  5
345
330
24
100
AcDbEntity
  8
2
100
AcDbLine
 10
-335.070696
 20
210.731419
 30
0.0
 11
-336.320696
 21
210.009731
 31
0.0
  0
LINE
  5
346
330
24
100
AcDbEntity
  8
2
100
AcDbLine
 10
-336.320696
 20
210.009731
 30
0.0
 11
-342.570696
 21
210.009731
 31
0.0
  0
LINE
  5
347
330
24
100
AcDbEntity
  8
2
100
AcDbLine
 10
-338.820696
 20
216.509731
 30
0.0
 11
-338.820696
 21
210.731419
 31
0.0
  0
ARC
  5
348
330
24
100
AcDbEntity
  8
2
100
AcDbCircle
 10
-336.945696
 20
213.141795
 30
0.0
 40
3.053774
100
AcDbArc
 50
232.121121
 51
307.878879
  0
ARC
  5
349
330
24
100
AcDbEntity
  8
2
100
AcDbCircle
 10
-342.570696
 20
221.33802
 30
0.0
 40
11.25
100
AcDbArc
 50
270.0
 51
289.471221
  0
LINE
  5
34A
330
24
100
AcDbEntity
  8
2
100
AcDbLine
 10
-342.570696
 20
216.509731
 30
0.0
 11
-350.070696
 21
216.509731
 31
0.0
  0
LINE
  5
34B
330
24
100
AcDbEntity
  8
2
100
AcDbLine
 10
-350.070696
 20
216.509731
 30
0.0
 11
-350.070696
 21
210.731419
 31
0.0
  0
LINE
  5
34C
330
24
100
AcDbEntity
  8
2
100
AcDbLine
 10
-350.070696
 20
210.731419
 30
0.0
 11
-348.820696
 21
210.009731
 31
0.0
  0
LINE
  5
34D
330
24
100
AcDbEntity
  8
2
100
AcDbLine
 10
-348.820696
 20
210.009731
 30
0.0
 11
-342.570696
 21
210.009731
 31
0.0
  0
LINE
  5
34E
330
24
100
AcDbEntity
  8
2
100
AcDbLine
 10
-346.320696
 20
216.509731
 30
0.0
 11
-346.320696
 21
210.731419
 31
0.0
  0
ARC
  5
34F
330
24
100
AcDbEntity
  8
2
100
AcDbCircle
 10
-348.195696
 20
213.141795
 30
0.0
 40
3.053774
100
AcDbArc
 50
232.121121
 51
307.878879
  0
ARC
  5
350
330
24
100
AcDbEntity
  8
2
100
AcDbCircle
 10
-342.570696
 20
221.33802
 30
0.0
 40
11.25
100
AcDbArc
 50
250.528779
 51
270.0
  0
LINE
  5
351
330
24
100
AcDbEntity
  8
2
100
AcDbLine
 10
-342.570696
 20
204.509731
 30
0.0
 11
-345.894196
 21
204.509731
 31
0.0
  0
LINE
  5
352
330
24
100
AcDbEntity
  8
2
100
AcDbLine
 10
-345.894196
 20
204.509731
 30
0.0
 11
-346.570696
 21
205.186231
 31
0.0
  0
LINE
  5
353
330
24
100
AcDbEntity
  8
2
100
AcDbLine
 10
-346.570696
 20
205.186231
 30
0.0
 11
-346.570696
 21
210.046446
 31
0.0
  0
LINE
  5
354
330
24
100
AcDbEntity
  8
2
100
AcDbLine
 10
-346.570696
 20
205.186231
 30
0.0
 11
-342.570696
 21
205.186231
 31
0.0
  0
LINE
  5
355
330
24
100
AcDbEntity
  8
2
 62
     2
100
AcDbLine
 10
-345.894196
 20
204.509731
 30
0.0
 11
-345.894196
 21
210.010083
 31
0.0
  0
LINE
  5
356
330
24
100
AcDbEntity
  8
2
100
AcDbLine
 10
-342.570696
 20
204.509731
 30
0.0
 11
-339.247196
 21
204.509731
 31
0.0
  0
LINE
  5
357
330
24
100
AcDbEntity
  8
2
100
AcDbLine
 10
-339.247196
 20
204.509731
 30
0.0
 11
-338.570696
 21
205.186231
 31
0.0
  0
LINE
  5
358
330
24
100
AcDbEntity
  8
2
100
AcDbLine
 10
-338.570696
 20
205.186231
 30
0.0
 11
-338.570696
 21
210.046446
 31
0.0
  0
LINE
  5
359
330
24
100
AcDbEntity
  8
2
100
AcDbLine
 10
-338.570696
 20
205.186231
 30
0.0
 11
-342.570696
 21
205.186231
 31
0.0
  0
LINE
  5
35A
330
24
100
AcDbEntity
  8
2
 62
     2
100
AcDbLine
 10
-339.247196
 20
204.509731
 30
0.0
 11
-339.247196
 21
210.010083
 31
0.0
  0
TEXT
  5
35B
330
24
100
AcDbEntity
  8
2
100
AcDbText
 10
-391.1036870000001
 20
249.414424
 30
0.0
 40
10.0
  1
Ｓ
 50
70.11203730315179
 41
1.000000008727068
 72
     5
 11
-388.382231
 21
256.937301
 31
0.0
100
AcDbText
  0
TEXT
  5
35C
330
24
100
AcDbEntity
  8
2
100
AcDbText
 10
-320.675434
 20
191.202742
 30
0.0
 40
10.0
  1
Ｏ
 50
199.9277458960193
 41
0.9230769864031554
 72
     5
 11
-328.19642
 21
188.476063
 31
0.0
100
AcDbText
  0
LINE
  5
35D
330
24
100
AcDbEntity
  8
2
  6
CENTER
 62
     2
100
AcDbLine
 10
-332.0488529999999
 20
-2.165268999999999
 30
0.0
 11
-353.239552
 21
-2.165268999999999
 31
0.0
  0
LINE
  5
35E
330
24
100
AcDbEntity
  8
2
  6
CENTER
 62
     2
100
AcDbLine
 10
-222.570696
 20
31.206091
 30
0.0
 11
-222.570696
 21
2.499479
 31
0.0
  0
LINE
  5
35F
330
24
100
AcDbEntity
  8
2
  6
CENTER
 62
     2
100
AcDbLine
 10
-213.039518
 20
20.834731
 30
0.0
 11
-231.893554
 21
20.834731
 31
0.0
  0
ARC
  5
360
330
24
100
AcDbEntity
  8
2
  6
CENTER
 62
     2
100
AcDbCircle
 10
-222.570696
 20
20.834731
 30
0.0
 40
92.276149
100
AcDbArc
 50
347.219321
 51
15.742888
  0
LINE
  5
361
330
24
100
AcDbEntity
  8
2
100
AcDbLine
 10
-359.070696
 20
16.834731
 30
0.0
 11
-326.070696
 21
16.834731
 31
0.0
  0
LINE
  5
362
330
24
100
AcDbEntity
  8
2
100
AcDbLine
 10
-350.570696
 20
-9.165269
 30
0.0
 11
-350.570696
 21
16.83440199999999
 31
0.0
  0
ARC
  5
363
330
24
100
AcDbEntity
  8
2
100
AcDbCircle
 10
-379.04441
 20
51.128095
 30
0.0
 40
50.564281
100
AcDbArc
 50
285.102514
 51
302.946073
  0
LINE
  5
364
330
24
100
AcDbEntity
  8
2
100
AcDbLine
 10
-364.018575
 20
5.590823
 30
0.0
 11
-391.596756
 21
-4.446813999999999
 31
0.0
  0
LINE
  5
365
330
24
100
AcDbEntity
  8
2
100
AcDbLine
 10
-328.570696
 20
-10.165269
 30
0.0
 11
-357.570696
 21
-10.165269
 31
0.0
  0
LINE
  5
366
330
24
100
AcDbEntity
  8
2
100
AcDbLine
 10
-359.070696
 20
16.834731
 30
0.0
 11
-360.070696
 21
15.834731
 31
0.0
  0
LINE
  5
367
330
24
100
AcDbEntity
  8
2
100
AcDbLine
 10
-360.070696
 20
11.228979
 30
0.0
 11
-360.070696
 21
15.834731
 31
0.0
  0
LINE
  5
368
330
24
100
AcDbEntity
  8
2
100
AcDbLine
 10
-328.570696
 20
-9.165269
 30
0.0
 11
-393.570696
 21
-9.165269
 31
0.0
  0
LINE
  5
369
330
24
100
AcDbEntity
  8
2
100
AcDbLine
 10
-393.570696
 20
-9.165269
 30
0.0
 11
-393.570696
 21
-7.265892
 31
0.0
  0
LINE
  5
36A
330
24
100
AcDbEntity
  8
2
100
AcDbLine
 10
-357.570696
 20
-9.165269
 30
0.0
 11
-357.570696
 21
-10.165269
 31
0.0
  0
ARC
  5
36B
330
24
100
AcDbEntity
  8
2
100
AcDbCircle
 10
-366.070696
 20
11.228979
 30
0.0
 40
6.0
100
AcDbArc
 50
290.0
 51
360.0
  0
ARC
  5
36C
330
24
100
AcDbEntity
  8
2
100
AcDbCircle
 10
-390.570696
 20
-7.265892
 30
0.0
 40
3.0
100
AcDbArc
 50
110.0
 51
180.0
  0
ARC
  5
36D
330
24
100
AcDbEntity
  8
2
100
AcDbCircle
 10
-323.070696
 20
15.024265
 30
0.0
 40
2.0
100
AcDbArc
 50
180.0
 51
282.0
  0
LINE
  5
36E
330
24
100
AcDbEntity
  8
2
100
AcDbLine
 10
-328.570696
 20
-10.165269
 30
0.0
 11
-328.570696
 21
-9.165269
 31
0.0
  0
LINE
  5
36F
330
24
100
AcDbEntity
  8
2
100
AcDbLine
 10
-328.570696
 20
-9.165269
 30
0.0
 11
-259.234934
 21
5.572502
 31
0.0
  0
LINE
  5
370
330
24
100
AcDbEntity
  8
2
100
AcDbLine
 10
-326.635896
 20
12.221777
 30
0.0
 11
-49.404548
 21
71.149119
 31
0.0
  0
CIRCLE
  5
371
330
24
100
AcDbEntity
  8
2
100
AcDbCircle
 10
-342.570696
 20
-2.165268999999999
 30
0.0
 40
4.0
  0
LINE
  5
372
330
24
100
AcDbEntity
  8
2
100
AcDbLine
 10
-334.570696
 20
-9.165269
 30
0.0
 11
-334.570696
 21
16.83440199999999
 31
0.0
  0
LINE
  5
373
330
24
100
AcDbEntity
  8
2
100
AcDbLine
 10
-325.070696
 20
15.024265
 30
0.0
 11
-325.070696
 21
15.834731
 31
0.0
  0
LINE
  5
374
330
24
100
AcDbEntity
  8
2
100
AcDbLine
 10
-326.070696
 20
16.834731
 30
0.0
 11
-325.070696
 21
15.834731
 31
0.0
  0
ARC
  5
375
330
24
100
AcDbEntity
  8
2
100
AcDbCircle
 10
-213.541258
 20
17.834731
 30
0.0
 40
12.0
100
AcDbArc
 50
270.0
 51
315.0
  0
LINE
  5
376
330
24
100
AcDbEntity
  8
2
100
AcDbLine
 10
-256.739993
 20
5.834730999999999
 30
0.0
 11
-213.541258
 21
5.834730999999999
 31
0.0
  0
ARC
  5
377
330
24
100
AcDbEntity
  8
2
100
AcDbCircle
 10
-216.570696
 20
6.834730999999999
 30
0.0
 40
1.0
100
AcDbArc
 50
270.0
 51
360.0
  0
ARC
  5
378
330
24
100
AcDbEntity
  8
2
100
AcDbCircle
 10
-228.570696
 20
6.834730999999999
 30
0.0
 40
1.0
100
AcDbArc
 50
180.0
 51
270.0
  0
LINE
  5
379
330
24
100
AcDbEntity
  8
2
100
AcDbLine
 10
-202.314905
 20
12.090522
 30
0.0
 11
-205.055977
 21
9.349448999999999
 31
0.0
  0
LINE
  5
37A
330
24
100
AcDbEntity
  8
2
100
AcDbLine
 10
-215.570696
 20
20.834731
 30
0.0
 11
-215.570696
 21
6.834730999999999
 31
0.0
  0
LINE
  5
37B
330
24
100
AcDbEntity
  8
2
100
AcDbLine
 10
-229.570696
 20
20.834731
 30
0.0
 11
-229.570696
 21
6.834730999999999
 31
0.0
  0
ARC
  5
37C
330
24
100
AcDbEntity
  8
2
100
AcDbCircle
 10
-222.570696
 20
20.834731
 30
0.0
 40
7.0
100
AcDbArc
 50
0.0
 51
180.0
  0
CIRCLE
  5
37D
330
24
100
AcDbEntity
  8
2
100
AcDbCircle
 10
-222.570696
 20
20.834731
 30
0.0
 40
2.5
  0
ARC
  5
37E
330
24
100
AcDbEntity
  8
2
100
AcDbCircle
 10
-170.4951
 20
-19.729284
 30
0.0
 40
45.0
100
AcDbArc
 50
104.5
 51
135.0
  0
LINE
  5
37F
330
24
100
AcDbEntity
  8
2
100
AcDbLine
 10
-181.7622
 20
23.83736
 30
0.0
 11
-43.497495
 21
59.595044
 31
0.0
  0
ARC
  5
380
330
24
100
AcDbEntity
  8
2
100
AcDbCircle
 10
-43.747875
 20
60.563192
 30
0.0
 40
1.0
100
AcDbArc
 50
284.5
 51
12.0
  0
LINE
  5
381
330
24
100
AcDbEntity
  8
2
100
AcDbLine
 10
-42.769728
 20
60.77110300000001
 30
0.0
 11
-44.127534
 21
67.15908
 31
0.0
  0
ARC
  5
382
330
24
100
AcDbEntity
  8
2
100
AcDbCircle
 10
-49.01827199999999
 20
66.11952200000001
 30
0.0
 40
5.0
100
AcDbArc
 50
12.0
 51
102.0
  0
ARC
  5
383
330
24
100
AcDbEntity
  8
2
100
AcDbCircle
 10
-256.739993
 20
-6.165269
 30
0.0
 40
12.0
100
AcDbArc
 50
90.0
 51
102.0
  0
LINE
  5
384
330
24
100
AcDbEntity
  8
2
100
AcDbLine
 10
-198.570696
 20
15.438328
 30
0.0
 11
-198.570696
 21
3.442486
 31
0.0
  0
LINE
  5
385
330
24
100
AcDbEntity
  8
2
100
AcDbLine
 10
-191.126813
 20
20.262371
 30
0.0
 11
-144.604895
 21
10.373832
 31
0.0
  0
LINE
  5
386
330
24
100
AcDbEntity
  8
2
100
AcDbLine
 10
-275.5515509999999
 20
-12.872376
 30
0.0
 11
-256.844902
 21
5.834272
 31
0.0
  0
LINE
  5
387
330
24
100
AcDbEntity
  8
2
100
AcDbLine
 10
-252.570696
 20
5.834730999999999
 30
0.0
 11
-252.570696
 21
-17.891521
 31
0.0
  0
LINE
  5
388
330
24
100
AcDbEntity
  8
2
100
AcDbLine
 10
-116.639821
 20
9.320256
 30
0.0
 11
-52.225241
 21
7.07085
 31
0.0
  0
ARC
  5
389
330
24
100
AcDbEntity
  8
2
100
AcDbCircle
 10
-127.336154
 20
1.688904
 30
0.0
 40
10.0
100
AcDbArc
 50
268.0
 51
299.788331
  0
ARC
  5
38A
330
24
100
AcDbEntity
  8
2
100
AcDbCircle
 10
-117.400209
 20
-15.668429
 30
0.0
 40
10.0
100
AcDbArc
 50
56.21166899999999
 51
119.788331
  0
ARC
  5
38B
330
24
100
AcDbEntity
  8
2
100
AcDbCircle
 10
-106.277682
 20
0.9535259999999999
 30
0.0
 40
10.0
100
AcDbArc
 50
236.211669
 51
299.788331
  0
ARC
  5
38C
330
24
100
AcDbEntity
  8
2
100
AcDbCircle
 10
-96.34173800000001
 20
-16.403807
 30
0.0
 40
10.0
100
AcDbArc
 50
56.21166899999999
 51
119.788331
  0
ARC
  5
38D
330
24
100
AcDbEntity
  8
2
100
AcDbCircle
 10
-85.219211
 20
0.218148
 30
0.0
 40
10.0
100
AcDbArc
 50
236.211669
 51
299.788331
  0
ARC
  5
38E
330
24
100
AcDbEntity
  8
2
100
AcDbCircle
 10
-75.28326599999999
 20
-17.139185
 30
0.0
 40
10.0
100
AcDbArc
 50
56.21166899999999
 51
119.788331
  0
ARC
  5
38F
330
24
100
AcDbEntity
  8
2
100
AcDbCircle
 10
-64.160739
 20
-0.51723
 30
0.0
 40
10.0
100
AcDbArc
 50
236.211669
 51
299.788331
  0
ARC
  5
390
330
24
100
AcDbEntity
  8
2
100
AcDbCircle
 10
-54.22479499999999
 20
-17.874563
 30
0.0
 40
10.0
100
AcDbArc
 50
48.284863
 51
119.788331
  0
LINE
  5
391
330
24
100
AcDbEntity
  8
2
100
AcDbLine
 10
-117.674111
 20
8.355764999999999
 30
0.0
 11
-116.639821
 21
9.320256
 31
0.0
  0
ARC
  5
392
330
24
100
AcDbEntity
  8
2
100
AcDbCircle
 10
-136.586586
 20
72.054605
 30
0.0
 40
80.0
100
AcDbArc
 50
258.0
 51
268.0
  0
LINE
  5
393
330
24
100
AcDbEntity
  8
2
100
AcDbLine
 10
-144.604895
 20
10.373832
 30
0.0
 11
-143.661647
 21
9.166528999999998
 31
0.0
  0
ARC
  5
394
330
24
100
AcDbEntity
  8
2
100
AcDbCircle
 10
-215.81509
 20
-23.562322
 30
0.0
 40
30.0
100
AcDbArc
 50
78.0
 51
81.068297
  0
LINE
  5
395
330
24
100
AcDbEntity
  8
2
100
AcDbLine
 10
-139.378546
 20
-7.896661999999999
 30
0.0
 11
-127.685149
 21
-8.305003999999998
 31
0.0
  0
ARC
  5
396
330
24
100
AcDbEntity
  8
2
100
AcDbCircle
 10
-45.57423599999999
 20
-8.170552
 30
0.0
 40
3.0
100
AcDbArc
 50
228.284863
 51
360.0
  0
LINE
  5
397
330
24
100
AcDbEntity
  8
2
100
AcDbLine
 10
-42.574236
 20
-8.170552
 30
0.0
 11
-42.574236
 21
-2.923058999999999
 31
0.0
  0
ARC
  5
398
330
24
100
AcDbEntity
  8
2
100
AcDbCircle
 10
-52.574236
 20
-2.923058999999999
 30
0.0
 40
10.0
100
AcDbArc
 50
0.0
 51
88.0
  0
LINE
  5
399
330
24
100
AcDbEntity
  8
2
100
AcDbLine
 10
-209.57774
 20
5.782105999999999
 30
0.0
 11
-153.219521
 21
-6.197204
 31
0.0
  0
LINE
  5
39A
330
24
100
AcDbEntity
  8
2
100
AcDbLine
 10
-136.847364
 20
18.052967
 30
0.0
 11
-133.067887
 21
17.920985
 31
0.0
  0
LINE
  5
39B
330
24
100
AcDbEntity
  8
2
100
AcDbLine
 10
-124.819774
 20
18.633564
 30
0.0
 11
-123.855283
 21
17.599273
 31
0.0
  0
LINE
  5
39C
330
24
100
AcDbEntity
  8
2
100
AcDbLine
 10
-135.813073
 20
19.017458
 30
0.0
 11
-130.279828
 21
18.824233
 31
0.0
  0
LINE
  5
39D
330
24
100
AcDbEntity
  8
2
100
AcDbLine
 10
-135.813073
 20
19.017458
 30
0.0
 11
-136.847364
 21
18.052967
 31
0.0
  0
LINE
  5
39E
330
24
100
AcDbEntity
  8
2
100
AcDbLine
 10
-137.164189
 20
8.980285999999999
 30
0.0
 11
-137.111933
 21
10.476703
 31
0.0
  0
LINE
  5
39F
330
24
100
AcDbEntity
  8
2
100
AcDbLine
 10
-143.692399
 20
8.285904999999999
 30
0.0
 11
-143.661647
 21
9.166528999999998
 31
0.0
  0
ARC
  5
3A0
330
24
100
AcDbEntity
  8
2
100
AcDbCircle
 10
-142.693008
 20
8.251006
 30
0.0
 40
1.0
100
AcDbArc
 50
178.0
 51
268.0
  0
ARC
  5
3A1
330
24
100
AcDbEntity
  8
2
100
AcDbCircle
 10
-138.19575
 20
8.093958
 30
0.0
 40
1.0
100
AcDbArc
 50
268.0
 51
298.333059
  0
LINE
  5
3A2
330
24
100
AcDbEntity
  8
2
100
AcDbLine
 10
-124.204278
 20
7.605364999999999
 30
0.0
 11
-124.110376
 21
10.294359
 31
0.0
  0
LINE
  5
3A3
330
24
100
AcDbEntity
  8
2
100
AcDbLine
 10
-117.708238
 20
7.378517999999999
 30
0.0
 11
-117.674111
 21
8.355764999999999
 31
0.0
  0
ARC
  5
3A4
330
24
100
AcDbEntity
  8
2
100
AcDbCircle
 10
-118.707628
 20
7.413417999999999
 30
0.0
 40
1.0
100
AcDbArc
 50
268.0
 51
358.0
  0
ARC
  5
3A5
330
24
100
AcDbEntity
  8
2
100
AcDbCircle
 10
-123.204887
 20
7.570466
 30
0.0
 40
1.0
100
AcDbArc
 50
178.0
 51
268.0
  0
LINE
  5
3A6
330
24
100
AcDbEntity
  8
2
100
AcDbLine
 10
-142.727908
 20
7.251614999999999
 30
0.0
 11
-118.742528
 21
6.414026999999999
 31
0.0
  0
LINE
  5
3A7
330
24
100
AcDbEntity
  8
2
100
AcDbLine
 10
-264.544444
 20
-3.279483
 30
0.0
 11
-264.928667
 21
-2.249492
 31
0.0
  0
ARC
  5
3A8
330
24
100
AcDbEntity
  8
2
100
AcDbCircle
 10
-262.915512
 20
-21.165269
 30
0.0
 40
5.0
100
AcDbArc
 50
270.0
 51
315.0
  0
ARC
  5
3A9
330
24
100
AcDbEntity
  8
2
100
AcDbCircle
 10
-274.844444
 20
-25.165269
 30
0.0
 40
1.0
100
AcDbArc
 50
180.0
 51
270.0
  0
ARC
  5
3AA
330
24
100
AcDbEntity
  8
2
100
AcDbCircle
 10
-274.844444
 20
-13.579483
 30
0.0
 40
1.0
100
AcDbArc
 50
135.0
 51
180.0
  0
LINE
  5
3AB
330
24
100
AcDbEntity
  8
2
100
AcDbLine
 10
-259.379978
 20
-24.700803
 30
0.0
 11
-255.844444
 21
-21.165269
 31
0.0
  0
LINE
  5
3AC
330
24
100
AcDbEntity
  8
2
100
AcDbLine
 10
-264.544444
 20
-3.279483
 30
0.0
 11
-264.544444
 21
-19.165269
 31
0.0
  0
LINE
  5
3AD
330
24
100
AcDbEntity
  8
2
100
AcDbLine
 10
-274.844444
 20
-26.165269
 30
0.0
 11
-262.915512
 21
-26.165269
 31
0.0
  0
LINE
  5
3AE
330
24
100
AcDbEntity
  8
2
100
AcDbLine
 10
-275.844444
 20
-13.579483
 30
0.0
 11
-275.844444
 21
-19.165269
 31
0.0
  0
ARC
  5
3AF
330
24
100
AcDbEntity
  8
2
100
AcDbCircle
 10
-215.81509
 20
-23.562322
 30
0.0
 40
30.0
100
AcDbArc
 50
101.506587
 51
135.0
  0
LINE
  5
3B0
330
24
100
AcDbEntity
  8
2
100
AcDbLine
 10
-275.844444
 20
-21.165269
 30
0.0
 11
-275.844444
 21
-25.165269
 31
0.0
  0
LINE
  5
3B1
330
24
100
AcDbEntity
  8
2
100
AcDbLine
 10
-264.544444
 20
-21.165269
 30
0.0
 11
-264.544444
 21
-26.165269
 31
0.0
  0
LINE
  5
3B2
330
24
100
AcDbEntity
  8
2
100
AcDbLine
 10
-255.070696
 20
-20.391521
 30
0.0
 11
-237.028294
 21
-2.349118999999999
 31
0.0
  0
LINE
  5
3B3
330
24
100
AcDbEntity
  8
2
100
AcDbLine
 10
-124.052633
 20
11.947899
 30
0.0
 11
-123.957289
 21
14.678201
 31
0.0
  0
LINE
  5
3B4
330
24
100
AcDbEntity
  8
2
100
AcDbLine
 10
-123.897974
 20
16.376774
 30
0.0
 11
-123.855283
 21
17.599273
 31
0.0
  0
LINE
  5
3B5
330
24
100
AcDbEntity
  8
2
100
AcDbLine
 10
-136.895273
 20
16.681025
 30
0.0
 11
-136.847364
 21
18.052967
 31
0.0
  0
LINE
  5
3B6
330
24
100
AcDbEntity
  8
2
100
AcDbLine
 10
-137.052617
 20
12.175276
 30
0.0
 11
-136.954677
 21
14.979909
 31
0.0
  0
LINE
  5
3B7
330
24
100
AcDbEntity
  8
2
100
AcDbLine
 10
-128.381588
 20
17.757335
 30
0.0
 11
-123.855283
 21
17.599273
 31
0.0
  0
LINE
  5
3B8
330
24
100
AcDbEntity
  8
2
100
AcDbLine
 10
-125.593528
 20
18.660584
 30
0.0
 11
-124.819774
 21
18.633564
 31
0.0
  0
LINE
  5
3B9
330
24
100
AcDbEntity
  8
2
100
AcDbLine
 10
-333.704247
 20
-19.165269
 30
0.0
 11
-333.704247
 21
-10.165269
 31
0.0
  0
LINE
  5
3BA
330
24
100
AcDbEntity
  8
2
100
AcDbLine
 10
-351.704247
 20
-19.165269
 30
0.0
 11
-351.704247
 21
-10.165269
 31
0.0
  0
LINE
  5
3BB
330
24
100
AcDbEntity
  8
2
100
AcDbLine
 10
-346.323472
 20
4.334730999999999
 30
0.0
 11
-350.076249
 21
-2.165268999999999
 31
0.0
  0
LINE
  5
3BC
330
24
100
AcDbEntity
  8
2
100
AcDbLine
 10
-338.817919
 20
4.334730999999999
 30
0.0
 11
-346.323472
 21
4.334730999999999
 31
0.0
  0
LINE
  5
3BD
330
24
100
AcDbEntity
  8
2
100
AcDbLine
 10
-335.065142
 20
-2.165268999999999
 30
0.0
 11
-338.817919
 21
4.334730999999999
 31
0.0
  0
LINE
  5
3BE
330
24
100
AcDbEntity
  8
2
100
AcDbLine
 10
-338.817919
 20
-8.665269
 30
0.0
 11
-335.065142
 21
-2.165268999999999
 31
0.0
  0
LINE
  5
3BF
330
24
100
AcDbEntity
  8
2
100
AcDbLine
 10
-346.323472
 20
-8.665269
 30
0.0
 11
-338.817919
 21
-8.665269
 31
0.0
  0
LINE
  5
3C0
330
24
100
AcDbEntity
  8
2
100
AcDbLine
 10
-350.076249
 20
-2.165268999999999
 30
0.0
 11
-346.323472
 21
-8.665269
 31
0.0
  0
CIRCLE
  5
3C1
330
24
100
AcDbEntity
  8
2
100
AcDbCircle
 10
-342.570696
 20
-2.165268999999999
 30
0.0
 40
3.375
  0
CIRCLE
  5
3C2
330
24
100
AcDbEntity
  8
2
100
AcDbCircle
 10
-342.570696
 20
-2.165268999999999
 30
0.0
 40
4.0
  0
CIRCLE
  5
3C3
330
24
100
AcDbEntity
  8
2
100
AcDbCircle
 10
-342.570696
 20
-2.165268999999999
 30
0.0
 40
6.5
  0
CIRCLE
  5
3C4
330
24
100
AcDbEntity
  8
2
100
AcDbCircle
 10
-122.946973
 20
7.362658
 30
0.0
 40
0.8
  0
ARC
  5
3C5
330
24
100
AcDbEntity
  8
2
100
AcDbCircle
 10
-138.304817
 20
7.901886
 30
0.0
 40
0.8
100
AcDbArc
 50
102.753204
 51
282.753204
  0
ARC
  5
3C6
330
24
100
AcDbEntity
  8
2
100
AcDbCircle
 10
-122.767681
 20
11.418494
 30
0.0
 40
0.8
100
AcDbArc
 50
282.753204
 51
102.753204
  0
ARC
  5
3C7
330
24
100
AcDbEntity
  8
2
100
AcDbCircle
 10
-122.697534
 20
15.920371
 30
0.0
 40
0.8
100
AcDbArc
 50
287.713107
 51
107.713107
  0
ARC
  5
3C8
330
24
100
AcDbEntity
  8
2
100
AcDbCircle
 10
-122.762686
 20
20.418628
 30
0.0
 40
0.8
100
AcDbArc
 50
287.950783
 51
107.950783
  0
ARC
  5
3C9
330
24
100
AcDbEntity
  8
2
100
AcDbCircle
 10
-122.979551
 20
25.186824
 30
0.0
 40
0.8
100
AcDbArc
 50
289.113908
 51
109.113908
  0
ARC
  5
3CA
330
24
100
AcDbEntity
  8
2
100
AcDbCircle
 10
-123.401466
 20
30.502704
 30
0.0
 40
0.8
100
AcDbArc
 50
292.202303
 51
112.202303
  0
ARC
  5
3CB
330
24
100
AcDbEntity
  8
2
100
AcDbCircle
 10
-123.96277
 20
35.42433
 30
0.0
 40
0.8
100
AcDbArc
 50
292.351981
 51
112.351981
  0
ARC
  5
3CC
330
24
100
AcDbEntity
  8
2
100
AcDbCircle
 10
-139.040739
 20
33.936198
 30
0.0
 40
0.8
100
AcDbArc
 50
95.63659799999999
 51
293.997777
  0
ARC
  5
3CD
330
24
100
AcDbEntity
  8
2
100
AcDbCircle
 10
-138.489841
 20
29.450942
 30
0.0
 40
0.8
100
AcDbArc
 50
93.98745299999999
 51
292.351981
  0
ARC
  5
3CE
330
24
100
AcDbEntity
  8
2
100
AcDbCircle
 10
-138.088209
 20
24.508467
 30
0.0
 40
0.8
100
AcDbArc
 50
92.570774
 51
292.202303
  0
ARC
  5
3CF
330
24
100
AcDbEntity
  8
2
100
AcDbCircle
 10
-137.908116
 20
20.013286
 30
0.0
 40
0.8
100
AcDbArc
 50
109.113908
 51
289.113908
  0
ARC
  5
3D0
330
24
100
AcDbEntity
  8
2
100
AcDbCircle
 10
-137.903649
 20
15.513406
 30
0.0
 40
0.8
100
AcDbArc
 50
91.533057
 51
287.950783
  0
ARC
  5
3D1
330
24
100
AcDbEntity
  8
2
100
AcDbCircle
 10
-138.075341
 20
11.008811
 30
0.0
 40
0.8
100
AcDbArc
 50
107.713107
 51
287.713107
  0
LINE
  5
3D2
330
24
100
AcDbEntity
  8
2
100
AcDbLine
 10
-138.481419
 20
8.68215
 30
0.0
 11
-122.944282
 21
12.198758
 31
0.0
  0
LINE
  5
3D3
330
24
100
AcDbEntity
  8
2
100
AcDbLine
 10
-122.591079
 20
10.63823
 30
0.0
 11
-138.128215
 21
7.121622
 31
0.0
  0
LINE
  5
3D4
330
24
100
AcDbEntity
  8
2
100
AcDbLine
 10
-122.789084
 20
12.218208
 30
0.0
 11
-124.044367
 21
12.184612
 31
0.0
  0
LINE
  5
3D5
330
24
100
AcDbEntity
  8
2
100
AcDbLine
 10
-138.318742
 20
11.770884
 30
0.0
 11
-122.940935
 21
16.682445
 31
0.0
  0
LINE
  5
3D6
330
24
100
AcDbEntity
  8
2
100
AcDbLine
 10
-122.454134
 20
15.158298
 30
0.0
 11
-137.83194
 21
10.246737
 31
0.0
  0
LINE
  5
3D7
330
24
100
AcDbEntity
  8
2
100
AcDbLine
 10
-138.150209
 20
16.274463
 30
0.0
 11
-123.009246
 21
21.179685
 31
0.0
  0
LINE
  5
3D8
330
24
100
AcDbEntity
  8
2
100
AcDbLine
 10
-122.516126
 20
19.657571
 30
0.0
 11
-137.6570889999999
 21
14.752349
 31
0.0
  0
LINE
  5
3D9
330
24
100
AcDbEntity
  8
2
100
AcDbLine
 10
-138.170073
 20
20.769182
 30
0.0
 11
-123.241509
 21
25.94272
 31
0.0
  0
LINE
  5
3DA
330
24
100
AcDbEntity
  8
2
100
AcDbLine
 10
-122.717593
 20
24.430928
 30
0.0
 11
-137.646158
 21
19.257391
 31
0.0
  0
LINE
  5
3DB
330
24
100
AcDbEntity
  8
2
100
AcDbLine
 10
-138.390511
 20
25.249151
 30
0.0
 11
-123.703768
 21
31.243388
 31
0.0
  0
LINE
  5
3DC
330
24
100
AcDbEntity
  8
2
100
AcDbLine
 10
-123.099163
 20
29.76202
 30
0.0
 11
-137.785906
 21
23.767782
 31
0.0
  0
LINE
  5
3DD
330
24
100
AcDbEntity
  8
2
100
AcDbLine
 10
-138.794078
 20
30.190834
 30
0.0
 11
-124.267007
 21
36.164222
 31
0.0
  0
LINE
  5
3DE
330
24
100
AcDbEntity
  8
2
100
AcDbLine
 10
-138.185605
 20
28.71105
 30
0.0
 11
-123.658534
 21
34.684438
 31
0.0
  0
LINE
  5
3DF
330
24
100
AcDbEntity
  8
2
100
AcDbLine
 10
-139.3661
 20
34.667047
 30
0.0
 11
-138.644153
 21
34.988445
 31
0.0
  0
LINE
  5
3E0
330
24
100
AcDbEntity
  8
2
100
AcDbLine
 10
-138.715378
 20
33.205349
 30
0.0
 11
-129.256586
 21
37.416235
 31
0.0
  0
LINE
  5
3E1
330
24
100
AcDbEntity
  8
2
100
AcDbLine
 10
-122.718937
 20
16.720085
 30
0.0
 11
-123.887077
 21
16.688822
 31
0.0
  0
LINE
  5
3E2
330
24
100
AcDbEntity
  8
2
100
AcDbLine
 10
-136.963115
 20
14.738291
 30
0.0
 11
-137.882246
 21
14.713692
 31
0.0
  0
LINE
  5
3E3
330
24
100
AcDbEntity
  8
2
100
AcDbLine
 10
-128.284837
 20
19.47055
 30
0.0
 11
-137.886713
 21
19.213573
 31
0.0
  0
LINE
  5
3E4
330
24
100
AcDbEntity
  8
2
100
AcDbLine
 10
-132.7579669999999
 20
20.951408
 30
0.0
 11
-122.784089
 21
21.218341
 31
0.0
  0
LINE
  5
3E5
330
24
100
AcDbEntity
  8
2
100
AcDbLine
 10
-128.441047
 20
24.140805
 30
0.0
 11
-138.052326
 21
23.709272
 31
0.0
  0
LINE
  5
3E6
330
24
100
AcDbEntity
  8
2
100
AcDbLine
 10
-133.504825
 20
25.51506
 30
0.0
 11
-123.015434
 21
25.986019
 31
0.0
  0
LINE
  5
3E7
330
24
100
AcDbEntity
  8
2
100
AcDbLine
 10
-128.32418
 20
29.357616
 30
0.0
 11
-138.434211
 21
28.652879
 31
0.0
  0
LINE
  5
3E8
330
24
100
AcDbEntity
  8
2
100
AcDbLine
 10
-133.608396
 20
30.59315300000001
 30
0.0
 11
-123.457096
 21
31.300767
 31
0.0
  0
LINE
  5
3E9
330
24
100
AcDbEntity
  8
2
100
AcDbLine
 10
-129.303277
 20
34.093358
 30
0.0
 11
-138.962164
 21
33.140067
 31
0.0
  0
LINE
  5
3EA
330
24
100
AcDbEntity
  8
2
100
AcDbLine
 10
-134.193274
 20
35.21851
 30
0.0
 11
-124.041345
 21
36.220462
 31
0.0
  0
LINE
  5
3EB
330
24
100
AcDbEntity
  8
2
100
AcDbLine
 10
-124.183284
 20
8.206559
 30
0.0
 11
-122.918902
 21
8.162164999999999
 31
0.0
  0
LINE
  5
3EC
330
24
100
AcDbEntity
  8
2
100
AcDbLine
 10
-137.120405
 20
10.234082
 30
0.0
 11
-138.053938
 21
10.209097
 31
0.0
  0
LINE
  5
3ED
330
24
100
AcDbEntity
  8
2
100
AcDbLine
 10
-365.870045
 20
2.310242999999999
 30
0.0
 11
-386.996775
 21
-3.39118
 31
0.0
  0
LINE
  5
3EE
330
24
100
AcDbEntity
  8
2
100
AcDbLine
 10
-330.596337
 20
-9.165269
 30
0.0
 11
-330.596337
 21
7.331038
 31
0.0
  0
ARC
  5
3EF
330
24
100
AcDbEntity
  8
2
100
AcDbCircle
 10
-325.596337
 20
7.331038
 30
0.0
 40
5.0
100
AcDbArc
 50
102.0
 51
180.0
  0
LINE
  5
3F0
330
24
100
AcDbEntity
  8
2
100
AcDbLine
 10
-290.04444
 20
-19.165269
 30
0.0
 11
-290.04444
 21
-21.165269
 31
0.0
  0
LINE
  5
3F1
330
24
100
AcDbEntity
  8
2
100
AcDbLine
 10
-255.070696
 20
-21.165269
 30
0.0
 11
-255.070696
 21
-19.165269
 31
0.0
  0
LINE
  5
3F2
330
24
100
AcDbEntity
  8
2
100
AcDbLine
 10
-255.070696
 20
-21.165269
 30
0.0
 11
-405.2042469999999
 21
-21.165269
 31
0.0
  0
LINE
  5
3F3
330
24
100
AcDbEntity
  8
2
100
AcDbLine
 10
-405.2042469999999
 20
-19.165269
 30
0.0
 11
-405.2042469999999
 21
-21.165269
 31
0.0
  0
LINE
  5
3F4
330
24
100
AcDbEntity
  8
2
100
AcDbLine
 10
-405.2042469999999
 20
-19.165269
 30
0.0
 11
-255.070696
 21
-19.165269
 31
0.0
  0
POINT
  5
3F5
330
24
100
AcDbEntity
  8
2
100
AcDbPoint
 10
-306.50825
 20
-19.165269
 30
0.0
  0
LINE
  5
3F6
330
24
100
AcDbEntity
  8
2
100
AcDbLine
 10
-306.50825
 20
-19.165269
 30
0.0
 11
-316.30825
 21
-19.165269
 31
0.0
  0
LINE
  5
3F7
330
24
100
AcDbEntity
  8
2
100
AcDbLine
 10
-316.30825
 20
-19.165269
 30
0.0
 11
-316.30825
 21
-13.060162
 31
0.0
  0
LINE
  5
3F8
330
24
100
AcDbEntity
  8
2
100
AcDbLine
 10
-316.30825
 20
-13.060162
 30
0.0
 11
-314.75825
 21
-12.165269
 31
0.0
  0
LINE
  5
3F9
330
24
100
AcDbEntity
  8
2
100
AcDbLine
 10
-314.75825
 20
-12.165269
 30
0.0
 11
-306.50825
 21
-12.165269
 31
0.0
  0
LINE
  5
3FA
330
24
100
AcDbEntity
  8
2
100
AcDbLine
 10
-311.40825
 20
-19.165269
 30
0.0
 11
-311.40825
 21
-13.060162
 31
0.0
  0
ARC
  5
3FB
330
24
100
AcDbEntity
  8
2
100
AcDbCircle
 10
-313.85825
 20
-16.20972
 30
0.0
 40
3.990264999999999
100
AcDbArc
 50
52.121121
 51
127.878879
  0
ARC
  5
3FC
330
24
100
AcDbEntity
  8
2
100
AcDbCircle
 10
-306.50825
 20
-26.919455
 30
0.0
 40
14.7
100
AcDbArc
 50
90.0
 51
109.471221
  0
LINE
  5
3FD
330
24
100
AcDbEntity
  8
2
100
AcDbLine
 10
-306.50825
 20
-49.165269
 30
0.0
 11
-310.69625
 21
-49.165269
 31
0.0
  0
LINE
  5
3FE
330
24
100
AcDbEntity
  8
2
100
AcDbLine
 10
-310.69625
 20
-49.165269
 30
0.0
 11
-311.50825
 21
-48.353269
 31
0.0
  0
LINE
  5
3FF
330
24
100
AcDbEntity
  8
2
100
AcDbLine
 10
-311.50825
 20
-48.353269
 30
0.0
 11
-311.50825
 21
-45.665269
 31
0.0
  0
LINE
  5
400
330
24
100
AcDbEntity
  8
2
100
AcDbLine
 10
-311.50825
 20
-48.353269
 30
0.0
 11
-306.50825
 21
-48.353269
 31
0.0
  0
LINE
  5
401
330
24
100
AcDbEntity
  8
2
 62
     2
100
AcDbLine
 10
-310.69625
 20
-49.165269
 30
0.0
 11
-310.69625
 21
-45.665269
 31
0.0
  0
LINE
  5
402
330
24
100
AcDbEntity
  8
2
100
AcDbLine
 10
-306.50825
 20
-19.165269
 30
0.0
 11
-296.70825
 21
-19.165269
 31
0.0
  0
LINE
  5
403
330
24
100
AcDbEntity
  8
2
100
AcDbLine
 10
-296.70825
 20
-19.165269
 30
0.0
 11
-296.70825
 21
-13.060162
 31
0.0
  0
LINE
  5
404
330
24
100
AcDbEntity
  8
2
100
AcDbLine
 10
-296.70825
 20
-13.060162
 30
0.0
 11
-298.25825
 21
-12.165269
 31
0.0
  0
LINE
  5
405
330
24
100
AcDbEntity
  8
2
100
AcDbLine
 10
-298.25825
 20
-12.165269
 30
0.0
 11
-306.50825
 21
-12.165269
 31
0.0
  0
LINE
  5
406
330
24
100
AcDbEntity
  8
2
100
AcDbLine
 10
-301.60825
 20
-19.165269
 30
0.0
 11
-301.60825
 21
-13.060162
 31
0.0
  0
ARC
  5
407
330
24
100
AcDbEntity
  8
2
100
AcDbCircle
 10
-299.15825
 20
-16.20972
 30
0.0
 40
3.990264999999999
100
AcDbArc
 50
52.121121
 51
127.878879
  0
ARC
  5
408
330
24
100
AcDbEntity
  8
2
100
AcDbCircle
 10
-306.50825
 20
-26.919455
 30
0.0
 40
14.7
100
AcDbArc
 50
70.528779
 51
90.0
  0
LINE
  5
409
330
24
100
AcDbEntity
  8
2
100
AcDbLine
 10
-306.50825
 20
-49.165269
 30
0.0
 11
-302.32025
 21
-49.165269
 31
0.0
  0
LINE
  5
40A
330
24
100
AcDbEntity
  8
2
100
AcDbLine
 10
-302.32025
 20
-49.165269
 30
0.0
 11
-301.50825
 21
-48.353269
 31
0.0
  0
LINE
  5
40B
330
24
100
AcDbEntity
  8
2
100
AcDbLine
 10
-301.50825
 20
-48.353269
 30
0.0
 11
-301.50825
 21
-45.665269
 31
0.0
  0
LINE
  5
40C
330
24
100
AcDbEntity
  8
2
100
AcDbLine
 10
-301.50825
 20
-48.353269
 30
0.0
 11
-306.50825
 21
-48.353269
 31
0.0
  0
LINE
  5
40D
330
24
100
AcDbEntity
  8
2
 62
     2
100
AcDbLine
 10
-302.32025
 20
-49.165269
 30
0.0
 11
-302.32025
 21
-45.665269
 31
0.0
  0
POINT
  5
40E
330
24
100
AcDbEntity
  8
2
100
AcDbPoint
 10
-306.50825
 20
-35.16526900000001
 30
0.0
  0
LINE
  5
40F
330
24
100
AcDbEntity
  8
2
100
AcDbLine
 10
-306.50825
 20
-37.66526900000001
 30
0.0
 11
-296.70825
 21
-37.66526900000001
 31
0.0
  0
LINE
  5
410
330
24
100
AcDbEntity
  8
2
100
AcDbLine
 10
-296.70825
 20
-37.66526900000001
 30
0.0
 11
-296.70825
 21
-44.770376
 31
0.0
  0
LINE
  5
411
330
24
100
AcDbEntity
  8
2
100
AcDbLine
 10
-296.70825
 20
-44.770376
 30
0.0
 11
-298.25825
 21
-45.665269
 31
0.0
  0
LINE
  5
412
330
24
100
AcDbEntity
  8
2
100
AcDbLine
 10
-298.25825
 20
-45.665269
 30
0.0
 11
-306.50825
 21
-45.665269
 31
0.0
  0
LINE
  5
413
330
24
100
AcDbEntity
  8
2
100
AcDbLine
 10
-301.60825
 20
-37.66526900000001
 30
0.0
 11
-301.60825
 21
-44.770376
 31
0.0
  0
ARC
  5
414
330
24
100
AcDbEntity
  8
2
100
AcDbCircle
 10
-299.15825
 20
-41.620818
 30
0.0
 40
3.990264999999999
100
AcDbArc
 50
232.121121
 51
307.878879
  0
ARC
  5
415
330
24
100
AcDbEntity
  8
2
100
AcDbCircle
 10
-306.50825
 20
-30.911083
 30
0.0
 40
14.7
100
AcDbArc
 50
270.0
 51
289.471221
  0
LINE
  5
416
330
24
100
AcDbEntity
  8
2
100
AcDbLine
 10
-306.50825
 20
-37.66526900000001
 30
0.0
 11
-316.30825
 21
-37.66526900000001
 31
0.0
  0
LINE
  5
417
330
24
100
AcDbEntity
  8
2
100
AcDbLine
 10
-316.30825
 20
-37.66526900000001
 30
0.0
 11
-316.30825
 21
-44.770376
 31
0.0
  0
LINE
  5
418
330
24
100
AcDbEntity
  8
2
100
AcDbLine
 10
-316.30825
 20
-44.770376
 30
0.0
 11
-314.75825
 21
-45.665269
 31
0.0
  0
LINE
  5
419
330
24
100
AcDbEntity
  8
2
100
AcDbLine
 10
-314.75825
 20
-45.665269
 30
0.0
 11
-306.50825
 21
-45.665269
 31
0.0
  0
LINE
  5
41A
330
24
100
AcDbEntity
  8
2
100
AcDbLine
 10
-311.40825
 20
-37.66526900000001
 30
0.0
 11
-311.40825
 21
-44.770376
 31
0.0
  0
ARC
  5
41B
330
24
100
AcDbEntity
  8
2
100
AcDbCircle
 10
-313.85825
 20
-41.620818
 30
0.0
 40
3.990264999999999
100
AcDbArc
 50
232.121121
 51
307.878879
  0
ARC
  5
41C
330
24
100
AcDbEntity
  8
2
100
AcDbCircle
 10
-306.50825
 20
-30.911083
 30
0.0
 40
14.7
100
AcDbArc
 50
250.528779
 51
270.0
  0
LINE
  5
41D
330
24
100
AcDbEntity
  8
2
100
AcDbLine
 10
-297.30825
 20
-35.16526900000001
 30
0.0
 11
-297.30825
 21
-37.66526900000001
 31
0.0
  0
LINE
  5
41E
330
24
100
AcDbEntity
  8
2
100
AcDbLine
 10
-297.30825
 20
-37.66526900000001
 30
0.0
 11
-315.70825
 21
-37.66526900000001
 31
0.0
  0
LINE
  5
41F
330
24
100
AcDbEntity
  8
2
100
AcDbLine
 10
-315.70825
 20
-37.66526900000001
 30
0.0
 11
-315.70825
 21
-35.16526900000001
 31
0.0
  0
LINE
  5
420
330
24
100
AcDbEntity
  8
2
100
AcDbLine
 10
-315.70825
 20
-35.16526900000001
 30
0.0
 11
-297.30825
 21
-35.16526900000001
 31
0.0
  0
LINE
  5
421
330
24
100
AcDbEntity
  8
2
100
AcDbLine
 10
-306.50825
 20
-37.66526900000001
 30
0.0
 11
-307.00825
 21
-35.16526900000001
 31
0.0
  0
LINE
  5
422
330
24
100
AcDbEntity
  8
2
100
AcDbLine
 10
-306.50825
 20
-35.16526900000001
 30
0.0
 11
-306.00825
 21
-37.66526900000001
 31
0.0
  0
POINT
  5
423
330
24
100
AcDbEntity
  8
2
100
AcDbPoint
 10
-378.633142
 20
-19.165269
 30
0.0
  0
LINE
  5
424
330
24
100
AcDbEntity
  8
2
100
AcDbLine
 10
-378.633142
 20
-19.165269
 30
0.0
 11
-388.433142
 21
-19.165269
 31
0.0
  0
LINE
  5
425
330
24
100
AcDbEntity
  8
2
100
AcDbLine
 10
-388.433142
 20
-19.165269
 30
0.0
 11
-388.433142
 21
-13.060162
 31
0.0
  0
LINE
  5
426
330
24
100
AcDbEntity
  8
2
100
AcDbLine
 10
-388.433142
 20
-13.060162
 30
0.0
 11
-386.883142
 21
-12.165269
 31
0.0
  0
LINE
  5
427
330
24
100
AcDbEntity
  8
2
100
AcDbLine
 10
-386.883142
 20
-12.165269
 30
0.0
 11
-378.633142
 21
-12.165269
 31
0.0
  0
LINE
  5
428
330
24
100
AcDbEntity
  8
2
100
AcDbLine
 10
-383.533142
 20
-19.165269
 30
0.0
 11
-383.533142
 21
-13.060162
 31
0.0
  0
ARC
  5
429
330
24
100
AcDbEntity
  8
2
100
AcDbCircle
 10
-385.983142
 20
-16.20972
 30
0.0
 40
3.990264999999999
100
AcDbArc
 50
52.121121
 51
127.878879
  0
ARC
  5
42A
330
24
100
AcDbEntity
  8
2
100
AcDbCircle
 10
-378.633142
 20
-26.919455
 30
0.0
 40
14.7
100
AcDbArc
 50
90.0
 51
109.471221
  0
LINE
  5
42B
330
24
100
AcDbEntity
  8
2
100
AcDbLine
 10
-378.633142
 20
-49.165269
 30
0.0
 11
-382.821142
 21
-49.165269
 31
0.0
  0
LINE
  5
42C
330
24
100
AcDbEntity
  8
2
100
AcDbLine
 10
-382.821142
 20
-49.165269
 30
0.0
 11
-383.633142
 21
-48.353269
 31
0.0
  0
LINE
  5
42D
330
24
100
AcDbEntity
  8
2
100
AcDbLine
 10
-383.633142
 20
-48.353269
 30
0.0
 11
-383.633142
 21
-45.665269
 31
0.0
  0
LINE
  5
42E
330
24
100
AcDbEntity
  8
2
100
AcDbLine
 10
-383.633142
 20
-48.353269
 30
0.0
 11
-378.633142
 21
-48.353269
 31
0.0
  0
LINE
  5
42F
330
24
100
AcDbEntity
  8
2
 62
     2
100
AcDbLine
 10
-382.821142
 20
-49.165269
 30
0.0
 11
-382.821142
 21
-45.665269
 31
0.0
  0
LINE
  5
430
330
24
100
AcDbEntity
  8
2
100
AcDbLine
 10
-378.633142
 20
-19.165269
 30
0.0
 11
-368.833142
 21
-19.165269
 31
0.0
  0
LINE
  5
431
330
24
100
AcDbEntity
  8
2
100
AcDbLine
 10
-368.833142
 20
-19.165269
 30
0.0
 11
-368.833142
 21
-13.060162
 31
0.0
  0
LINE
  5
432
330
24
100
AcDbEntity
  8
2
100
AcDbLine
 10
-368.833142
 20
-13.060162
 30
0.0
 11
-370.383142
 21
-12.165269
 31
0.0
  0
LINE
  5
433
330
24
100
AcDbEntity
  8
2
100
AcDbLine
 10
-370.383142
 20
-12.165269
 30
0.0
 11
-378.633142
 21
-12.165269
 31
0.0
  0
LINE
  5
434
330
24
100
AcDbEntity
  8
2
100
AcDbLine
 10
-373.733142
 20
-19.165269
 30
0.0
 11
-373.733142
 21
-13.060162
 31
0.0
  0
ARC
  5
435
330
24
100
AcDbEntity
  8
2
100
AcDbCircle
 10
-371.283142
 20
-16.20972
 30
0.0
 40
3.990264999999999
100
AcDbArc
 50
52.121121
 51
127.878879
  0
ARC
  5
436
330
24
100
AcDbEntity
  8
2
100
AcDbCircle
 10
-378.633142
 20
-26.919455
 30
0.0
 40
14.7
100
AcDbArc
 50
70.528779
 51
90.0
  0
LINE
  5
437
330
24
100
AcDbEntity
  8
2
100
AcDbLine
 10
-378.633142
 20
-49.165269
 30
0.0
 11
-374.445142
 21
-49.165269
 31
0.0
  0
LINE
  5
438
330
24
100
AcDbEntity
  8
2
100
AcDbLine
 10
-374.445142
 20
-49.165269
 30
0.0
 11
-373.633142
 21
-48.353269
 31
0.0
  0
LINE
  5
439
330
24
100
AcDbEntity
  8
2
100
AcDbLine
 10
-373.633142
 20
-48.353269
 30
0.0
 11
-373.633142
 21
-45.665269
 31
0.0
  0
LINE
  5
43A
330
24
100
AcDbEntity
  8
2
100
AcDbLine
 10
-373.633142
 20
-48.353269
 30
0.0
 11
-378.633142
 21
-48.353269
 31
0.0
  0
LINE
  5
43B
330
24
100
AcDbEntity
  8
2
 62
     2
100
AcDbLine
 10
-374.445142
 20
-49.165269
 30
0.0
 11
-374.445142
 21
-45.665269
 31
0.0
  0
POINT
  5
43C
330
24
100
AcDbEntity
  8
2
100
AcDbPoint
 10
-378.633142
 20
-35.16526900000001
 30
0.0
  0
LINE
  5
43D
330
24
100
AcDbEntity
  8
2
100
AcDbLine
 10
-368.967511
 20
-44.847954
 30
0.0
 11
-370.383142
 21
-45.665269
 31
0.0
  0
LINE
  5
43E
330
24
100
AcDbEntity
  8
2
100
AcDbLine
 10
-370.383142
 20
-45.665269
 30
0.0
 11
-378.633142
 21
-45.665269
 31
0.0
  0
LINE
  5
43F
330
24
100
AcDbEntity
  8
2
100
AcDbLine
 10
-373.733142
 20
-40.64932999999999
 30
0.0
 11
-373.733142
 21
-44.770376
 31
0.0
  0
ARC
  5
440
330
24
100
AcDbEntity
  8
2
100
AcDbCircle
 10
-371.283142
 20
-41.620818
 30
0.0
 40
3.990264999999999
100
AcDbArc
 50
232.121121
 51
305.692947
  0
ARC
  5
441
330
24
100
AcDbEntity
  8
2
100
AcDbCircle
 10
-378.633142
 20
-30.911083
 30
0.0
 40
14.7
100
AcDbArc
 50
270.0
 51
289.471221
  0
LINE
  5
442
330
24
100
AcDbEntity
  8
2
100
AcDbLine
 10
-379.005472
 20
-37.66526900000001
 30
0.0
 11
-388.433142
 21
-37.66526900000001
 31
0.0
  0
LINE
  5
443
330
24
100
AcDbEntity
  8
2
100
AcDbLine
 10
-388.433142
 20
-37.66526900000001
 30
0.0
 11
-388.433142
 21
-44.770376
 31
0.0
  0
LINE
  5
444
330
24
100
AcDbEntity
  8
2
100
AcDbLine
 10
-388.433142
 20
-44.770376
 30
0.0
 11
-386.883142
 21
-45.665269
 31
0.0
  0
LINE
  5
445
330
24
100
AcDbEntity
  8
2
100
AcDbLine
 10
-386.883142
 20
-45.665269
 30
0.0
 11
-378.633142
 21
-45.665269
 31
0.0
  0
LINE
  5
446
330
24
100
AcDbEntity
  8
2
100
AcDbLine
 10
-383.533142
 20
-37.66526900000001
 30
0.0
 11
-383.533142
 21
-44.770376
 31
0.0
  0
ARC
  5
447
330
24
100
AcDbEntity
  8
2
100
AcDbCircle
 10
-385.983142
 20
-41.620818
 30
0.0
 40
3.990264999999999
100
AcDbArc
 50
232.121121
 51
307.878879
  0
ARC
  5
448
330
24
100
AcDbEntity
  8
2
100
AcDbCircle
 10
-378.633142
 20
-30.911083
 30
0.0
 40
14.7
100
AcDbArc
 50
250.528779
 51
270.0
  0
LINE
  5
449
330
24
100
AcDbEntity
  8
2
100
AcDbLine
 10
-379.005472
 20
-37.66526900000001
 30
0.0
 11
-387.833142
 21
-37.66526900000001
 31
0.0
  0
LINE
  5
44A
330
24
100
AcDbEntity
  8
2
100
AcDbLine
 10
-387.833142
 20
-37.66526900000001
 30
0.0
 11
-387.833142
 21
-35.16526900000001
 31
0.0
  0
LINE
  5
44B
330
24
100
AcDbEntity
  8
2
100
AcDbLine
 10
-387.833142
 20
-35.16526900000001
 30
0.0
 11
-369.433142
 21
-35.16526900000001
 31
0.0
  0
LINE
  5
44C
330
24
100
AcDbEntity
  8
2
  6
CENTER
 62
     2
100
AcDbLine
 10
137.774474
 20
20.834731
 30
0.0
 11
94.34856899999999
 21
20.834731
 31
0.0
  0
LINE
  5
44D
330
24
100
AcDbEntity
  8
2
  6
CENTER
 62
     2
100
AcDbLine
 10
106.234268
 20
-2.165268999999999
 30
0.0
 11
78.65362799999999
 21
-2.165268999999999
 31
0.0
  0
LINE
  5
44E
330
24
100
AcDbEntity
  8
2
  6
CENTER
 62
     2
100
AcDbLine
 10
137.774474
 20
20.834731
 30
0.0
 11
94.34856899999999
 21
20.834731
 31
0.0
  0
LINE
  5
44F
330
24
100
AcDbEntity
  8
2
100
AcDbLine
 10
132.604304
 20
16.834731
 30
0.0
 11
132.104304
 21
16.834731
 31
0.0
  0
LINE
  5
450
330
24
100
AcDbEntity
  8
2
100
AcDbLine
 10
131.104304
 20
-10.165269
 30
0.0
 11
131.104304
 21
-9.165269
 31
0.0
  0
LINE
  5
451
330
24
100
AcDbEntity
  8
2
100
AcDbLine
 10
132.104304
 20
6.834730999999999
 30
0.0
 11
132.104304
 21
22.83687
 31
0.0
  0
ARC
  5
452
330
24
100
AcDbEntity
  8
2
100
AcDbCircle
 10
131.604304
 20
22.83687
 30
0.0
 40
0.5
100
AcDbArc
 50
0.0
 51
90.0
  0
ARC
  5
453
330
24
100
AcDbEntity
  8
2
100
AcDbCircle
 10
131.712247
 20
24.097466
 30
0.0
 40
0.7682170000000001
100
AcDbArc
 50
199.829456
 51
261.922631
  0
LINE
  5
454
330
24
100
AcDbEntity
  8
2
100
AcDbLine
 10
130.98958
 20
23.83687
 30
0.0
 11
130.98958
 21
13.834731
 31
0.0
  0
LINE
  5
455
330
24
100
AcDbEntity
  8
2
100
AcDbLine
 10
128.759065
 20
-1.849941999999999
 30
0.0
 11
128.18166
 21
5.834730999999999
 31
0.0
  0
ARC
  5
456
330
24
100
AcDbEntity
  8
2
100
AcDbCircle
 10
132.584036
 20
-7.256363999999999
 30
0.0
 40
1.0
100
AcDbArc
 50
270.0
 51
4.281503999999999
  0
ARC
  5
457
330
24
100
AcDbEntity
  8
2
100
AcDbCircle
 10
131.98958
 20
13.834731
 30
0.0
 40
1.0
100
AcDbArc
 50
180.0
 51
270.0
  0
ARC
  5
458
330
24
100
AcDbEntity
  8
2
100
AcDbCircle
 10
127.761876
 20
-1.924868
 30
0.0
 40
1.0
100
AcDbArc
 50
301.28895
 51
4.296974999999999
  0
LINE
  5
459
330
24
100
AcDbEntity
  8
2
100
AcDbLine
 10
131.104304
 20
5.834730999999999
 30
0.0
 11
124.304304
 21
5.834730999999999
 31
0.0
  0
ARC
  5
45A
330
24
100
AcDbEntity
  8
2
100
AcDbCircle
 10
131.104304
 20
6.834730999999999
 30
0.0
 40
1.0
100
AcDbArc
 50
270.0
 51
360.0
  0
ARC
  5
45B
330
24
100
AcDbEntity
  8
2
100
AcDbCircle
 10
124.304304
 20
6.834730999999999
 30
0.0
 40
1.0
100
AcDbArc
 50
180.0
 51
270.0
  0
LINE
  5
45C
330
24
100
AcDbEntity
  8
2
100
AcDbLine
 10
126.370349
 20
18.959075
 30
0.0
 11
124.053924
 21
18.360007
 31
0.0
  0
ARC
  5
45D
330
24
100
AcDbEntity
  8
2
100
AcDbCircle
 10
124.304304
 20
17.39186
 30
0.0
 40
1.0
100
AcDbArc
 50
104.5
 51
118.215328
  0
LINE
  5
45E
330
24
100
AcDbEntity
  8
2
100
AcDbLine
 10
123.304304
 20
6.834730999999999
 30
0.0
 11
123.304304
 21
8.007202000000001
 31
0.0
  0
ARC
  5
45F
330
24
100
AcDbEntity
  8
2
100
AcDbCircle
 10
126.119969
 20
19.927223
 30
0.0
 40
1.0
100
AcDbArc
 50
284.5
 51
4.296974999999999
  0
ARC
  5
460
330
24
100
AcDbEntity
  8
2
100
AcDbCircle
 10
116.104304
 20
6.346896
 30
0.0
 40
53.95582099999999
100
AcDbArc
 50
78.45363899999999
 51
101.653235
  0
ARC
  5
461
330
24
100
AcDbEntity
  8
2
100
AcDbCircle
 10
123.197255
 20
58.825549
 30
0.0
 40
1.0
100
AcDbArc
 50
4.296974999999999
 51
82.302618
  0
ARC
  5
462
330
24
100
AcDbEntity
  8
2
100
AcDbCircle
 10
109.011353
 20
58.825549
 30
0.0
 40
1.0
100
AcDbArc
 50
97.69738199999999
 51
175.703025
  0
LINE
  5
463
330
24
100
AcDbEntity
  8
2
100
AcDbLine
 10
105.09145
 20
20.002149
 30
0.0
 11
108.014164
 21
58.900475
 31
0.0
  0
ARC
  5
464
330
24
100
AcDbEntity
  8
2
100
AcDbCircle
 10
106.088639
 20
19.927223
 30
0.0
 40
1.0
100
AcDbArc
 50
175.703025
 51
255.5
  0
LINE
  5
465
330
24
100
AcDbEntity
  8
2
100
AcDbLine
 10
108.904304
 20
6.834730999999999
 30
0.0
 11
108.904304
 21
9.007749
 31
0.0
  0
ARC
  5
466
330
24
100
AcDbEntity
  8
2
100
AcDbCircle
 10
107.904304
 20
17.39186
 30
0.0
 40
1.0
100
AcDbArc
 50
0.0
 51
17.265212
  0
LINE
  5
467
330
24
100
AcDbEntity
  8
2
100
AcDbLine
 10
105.838259
 20
18.959075
 30
0.0
 11
107.705223
 21
18.476246
 31
0.0
  0
ARC
  5
468
330
24
100
AcDbEntity
  8
2
100
AcDbCircle
 10
107.904304
 20
6.834730999999999
 30
0.0
 40
1.0
100
AcDbArc
 50
270.0
 51
360.0
  0
ARC
  5
469
330
24
100
AcDbEntity
  8
2
100
AcDbCircle
 10
101.104304
 20
6.834730999999999
 30
0.0
 40
1.0
100
AcDbArc
 50
180.0
 51
270.0
  0
LINE
  5
46A
330
24
100
AcDbEntity
  8
2
100
AcDbLine
 10
101.104304
 20
5.834730999999999
 30
0.0
 11
107.904304
 21
5.834730999999999
 31
0.0
  0
ARC
  5
46B
330
24
100
AcDbEntity
  8
2
100
AcDbCircle
 10
132.604304
 20
-7.256363999999999
 30
0.0
 40
1.0
100
AcDbArc
 50
270.0
 51
360.0
  0
ARC
  5
46C
330
24
100
AcDbEntity
  8
2
100
AcDbCircle
 10
104.446733
 20
-1.924868
 30
0.0
 40
1.0
100
AcDbArc
 50
175.703025
 51
238.71105
  0
ARC
  5
46D
330
24
100
AcDbEntity
  8
2
100
AcDbCircle
 10
116.104304
 20
17.256802
 30
0.0
 40
23.446279
100
AcDbArc
 50
238.71105
 51
252.885046
  0
LINE
  5
46E
330
24
100
AcDbEntity
  8
2
100
AcDbLine
 10
123.304304
 20
29.101801
 30
0.0
 11
123.304304
 21
27.067132
 31
0.0
  0
ARC
  5
46F
330
24
100
AcDbEntity
  8
2
100
AcDbCircle
 10
120.304304
 20
30.307925
 30
0.0
 40
3.0
100
AcDbArc
 50
9.787427
 51
58.91564399999999
  0
ARC
  5
470
330
24
100
AcDbEntity
  8
2
100
AcDbCircle
 10
100.219029
 20
13.834731
 30
0.0
 40
1.0
100
AcDbArc
 50
270.0
 51
360.0
  0
LINE
  5
471
330
24
100
AcDbEntity
  8
2
100
AcDbLine
 10
131.287426
 20
23.4574
 30
0.0
 11
128.052888
 21
66.661918
 31
0.0
  0
LINE
  5
472
330
24
100
AcDbEntity
  8
2
100
AcDbLine
 10
98.10430400000001
 20
-8.256363999999999
 30
0.0
 11
109.204304
 21
-8.256363999999999
 31
0.0
  0
ARC
  5
473
330
24
100
AcDbEntity
  8
2
100
AcDbCircle
 10
99.624573
 20
-7.256363999999999
 30
0.0
 40
1.0
100
AcDbArc
 50
175.718496
 51
270.0
  0
ARC
  5
474
330
24
100
AcDbEntity
  8
2
100
AcDbCircle
 10
105.534304
 20
9.034730999999998
 30
0.0
 40
8.429999999999999
100
AcDbArc
 50
130.100336
 51
180.0
  0
LINE
  5
475
330
24
100
AcDbEntity
  8
2
100
AcDbLine
 10
100.921183
 20
23.4574
 30
0.0
 11
104.155721
 21
66.661918
 31
0.0
  0
ARC
  5
476
330
24
100
AcDbEntity
  8
2
100
AcDbCircle
 10
98.10430400000001
 20
-7.256363999999999
 30
0.0
 40
1.0
100
AcDbArc
 50
180.0
 51
270.0
  0
LINE
  5
477
330
24
100
AcDbEntity
  8
2
100
AcDbLine
 10
103.449543
 20
-1.849941999999999
 30
0.0
 11
104.026949
 21
5.834730999999999
 31
0.0
  0
LINE
  5
478
330
24
100
AcDbEntity
  8
2
100
AcDbLine
 10
127.117159
 20
20.002149
 30
0.0
 11
124.194444
 21
58.900475
 31
0.0
  0
LINE
  5
479
330
24
100
AcDbEntity
  8
2
100
AcDbLine
 10
97.10430399999999
 20
-9.165269
 30
0.0
 11
97.10430399999999
 21
9.034730999999998
 31
0.0
  0
LINE
  5
47A
330
24
100
AcDbEntity
  8
2
100
AcDbLine
 10
108.904304
 20
29.796546
 30
0.0
 11
108.904304
 21
28.153674
 31
0.0
  0
ARC
  5
47B
330
24
100
AcDbEntity
  8
2
100
AcDbCircle
 10
107.904304
 20
29.796546
 30
0.0
 40
1.0
100
AcDbArc
 50
0.0
 51
23.414798
  0
LINE
  5
47C
330
24
100
AcDbEntity
  8
2
100
AcDbLine
 10
96.104304
 20
-9.165269
 30
0.0
 11
109.204304
 21
-9.165269
 31
0.0
  0
LINE
  5
47D
330
24
100
AcDbEntity
  8
2
100
AcDbLine
 10
100.104304
 20
16.834731
 30
0.0
 11
97.10430399999999
 21
16.834731
 31
0.0
  0
LINE
  5
47E
330
24
100
AcDbEntity
  8
2
100
AcDbLine
 10
133.487768
 20
-5.933113999999999
 30
0.0
 11
132.104304
 21
12.546153
 31
0.0
  0
ARC
  5
47F
330
24
100
AcDbEntity
  8
2
100
AcDbCircle
 10
116.104304
 20
75.37048399999999
 30
0.0
 40
37.22508300000001
100
AcDbArc
 50
260.989975
 51
279.010025
  0
ARC
  5
480
330
24
100
AcDbEntity
  8
2
100
AcDbCircle
 10
116.104304
 20
14.878179
 30
0.0
 40
24.432244
100
AcDbArc
 50
76.195627
 51
103.804373
  0
LINE
  5
481
330
24
100
AcDbEntity
  8
2
100
AcDbLine
 10
122.604304
 20
39.27500399999999
 30
0.0
 11
121.934023
 21
38.604723
 31
0.0
  0
LINE
  5
482
330
24
100
AcDbEntity
  8
2
100
AcDbLine
 10
110.203663
 20
38.675646
 30
0.0
 11
110.274586
 21
38.604723
 31
0.0
  0
ARC
  5
483
330
24
100
AcDbEntity
  8
2
100
AcDbCircle
 10
116.104304
 20
-4.561389
 30
0.0
 40
52.194665
100
AcDbArc
 50
83.04962299999999
 51
96.84988100000001
  0
LINE
  5
484
330
24
100
AcDbEntity
  8
2
100
AcDbLine
 10
122.604304
 20
45.022514
 30
0.0
 11
122.604304
 21
42.57645499999999
 31
0.0
  0
ARC
  5
485
330
24
100
AcDbEntity
  8
2
100
AcDbCircle
 10
124.104304
 20
45.516543
 30
0.0
 40
1.5
100
AcDbArc
 50
90.0
 51
121.105665
  0
ARC
  5
486
330
24
100
AcDbEntity
  8
2
100
AcDbCircle
 10
108.104304
 20
45.516543
 30
0.0
 40
1.5
100
AcDbArc
 50
0.0
 51
90.0
  0
LINE
  5
487
330
24
100
AcDbEntity
  8
2
100
AcDbLine
 10
109.604304
 20
45.516543
 30
0.0
 11
109.604304
 21
44.034044
 31
0.0
  0
LINE
  5
488
330
24
100
AcDbEntity
  8
2
100
AcDbLine
 10
101.219029
 20
23.83687
 30
0.0
 11
101.219029
 21
13.834731
 31
0.0
  0
ARC
  5
489
330
24
100
AcDbEntity
  8
2
100
AcDbCircle
 10
100.496362
 20
24.097466
 30
0.0
 40
0.7682170000000001
100
AcDbArc
 50
278.077369
 51
340.170544
  0
ARC
  5
48A
330
24
100
AcDbEntity
  8
2
100
AcDbCircle
 10
100.604304
 20
22.83687
 30
0.0
 40
0.5
100
AcDbArc
 50
90.0
 51
180.0
  0
LINE
  5
48B
330
24
100
AcDbEntity
  8
2
100
AcDbLine
 10
128.104304
 20
65.94670999999999
 30
0.0
 11
128.104304
 21
60.19058000000001
 31
0.0
  0
ARC
  5
48C
330
24
100
AcDbEntity
  8
2
100
AcDbCircle
 10
123.104304
 20
65.94670999999999
 30
0.0
 40
5.0
100
AcDbArc
 50
0.0
 51
86.687439
  0
ARC
  5
48D
330
24
100
AcDbEntity
  8
2
100
AcDbCircle
 10
127.104304
 20
60.19058000000001
 30
0.0
 40
1.0
100
AcDbArc
 50
258.453639
 51
360.0
  0
ARC
  5
48E
330
24
100
AcDbEntity
  8
2
100
AcDbCircle
 10
105.104304
 20
60.19058000000001
 30
0.0
 40
1.0
100
AcDbArc
 50
180.0
 51
281.546361
  0
LINE
  5
48F
330
24
100
AcDbEntity
  8
2
100
AcDbLine
 10
98.62736300000001
 20
-7.181707
 30
0.0
 11
100.104304
 21
12.546153
 31
0.0
  0
ARC
  5
490
330
24
100
AcDbEntity
  8
2
100
AcDbCircle
 10
109.104304
 20
65.94670999999999
 30
0.0
 40
5.0
100
AcDbArc
 50
93.312561
 51
180.0
  0
ARC
  5
491
330
24
100
AcDbEntity
  8
2
100
AcDbCircle
 10
116.104304
 20
-54.99399799999999
 30
0.0
 40
126.143118
100
AcDbArc
 50
86.687439
 51
93.312561
  0
LINE
  5
492
330
24
100
AcDbEntity
  8
2
100
AcDbLine
 10
100.104304
 20
6.834730999999999
 30
0.0
 11
100.104304
 21
22.83687
 31
0.0
  0
LINE
  5
493
330
24
100
AcDbEntity
  8
2
100
AcDbLine
 10
104.104304
 20
65.94670999999999
 30
0.0
 11
104.104304
 21
60.19058000000001
 31
0.0
  0
LINE
  5
494
330
24
100
AcDbEntity
  8
2
100
AcDbLine
 10
101.104304
 20
-10.165269
 30
0.0
 11
101.104304
 21
-9.165269
 31
0.0
  0
LINE
  5
495
330
24
100
AcDbEntity
  8
2
100
AcDbLine
 10
133.604304
 20
-9.165269
 30
0.0
 11
133.604304
 21
15.834731
 31
0.0
  0
LINE
  5
496
330
24
100
AcDbEntity
  8
2
100
AcDbLine
 10
132.604304
 20
16.834731
 30
0.0
 11
133.604304
 21
15.834731
 31
0.0
  0
LINE
  5
497
330
24
100
AcDbEntity
  8
2
100
AcDbLine
 10
101.104304
 20
-10.165269
 30
0.0
 11
109.204304
 21
-10.165269
 31
0.0
  0
LINE
  5
498
330
24
100
AcDbEntity
  8
2
100
AcDbLine
 10
96.104304
 20
15.834731
 30
0.0
 11
96.104304
 21
-9.165269
 31
0.0
  0
ARC
  5
499
330
24
100
AcDbEntity
  8
2
100
AcDbCircle
 10
97.10430399999999
 20
15.834731
 30
0.0
 40
1.0
100
AcDbArc
 50
90.0
 51
180.0
  0
LINE
  5
49A
330
24
100
AcDbEntity
  8
2
100
AcDbLine
 10
123.004304
 20
-8.256363999999999
 30
0.0
 11
132.604304
 21
-8.256363999999999
 31
0.0
  0
LINE
  5
49B
330
24
100
AcDbEntity
  8
2
100
AcDbLine
 10
123.004304
 20
-9.165269
 30
0.0
 11
133.604304
 21
-9.165269
 31
0.0
  0
LINE
  5
49C
330
24
100
AcDbEntity
  8
2
100
AcDbLine
 10
123.004304
 20
-10.165269
 30
0.0
 11
131.104304
 21
-10.165269
 31
0.0
  0
ARC
  5
49D
330
24
100
AcDbEntity
  8
2
100
AcDbCircle
 10
116.104304
 20
17.256802
 30
0.0
 40
23.446279
100
AcDbArc
 50
287.114954
 51
301.28895
  0
LINE
  5
49E
330
24
100
AcDbEntity
  8
2
100
AcDbLine
 10
108.904304
 20
10.73629
 30
0.0
 11
108.904304
 21
13.180125
 31
0.0
  0
LINE
  5
49F
330
24
100
AcDbEntity
  8
2
100
AcDbLine
 10
108.904304
 20
14.921159
 30
0.0
 11
108.904304
 21
17.39186
 31
0.0
  0
LINE
  5
4A0
330
24
100
AcDbEntity
  8
2
100
AcDbLine
 10
108.904304
 20
21.908236
 30
0.0
 11
108.904304
 21
19.416001
 31
0.0
  0
LINE
  5
4A1
330
24
100
AcDbEntity
  8
2
100
AcDbLine
 10
108.904304
 20
26.440533
 30
0.0
 11
108.904304
 21
23.650292
 31
0.0
  0
LINE
  5
4A2
330
24
100
AcDbEntity
  8
2
100
AcDbLine
 10
123.304304
 20
9.603532000000001
 30
0.0
 11
123.304304
 21
12.078182
 31
0.0
  0
LINE
  5
4A3
330
24
100
AcDbEntity
  8
2
100
AcDbLine
 10
123.304304
 20
13.806724
 30
0.0
 11
123.304304
 21
16.571162
 31
0.0
  0
LINE
  5
4A4
330
24
100
AcDbEntity
  8
2
100
AcDbLine
 10
123.304304
 20
25.325076
 30
0.0
 11
123.304304
 21
22.534835
 31
0.0
  0
LINE
  5
4A5
330
24
100
AcDbEntity
  8
2
100
AcDbLine
 10
122.604304
 20
40.949773
 30
0.0
 11
122.604304
 21
39.27500399999999
 31
0.0
  0
LINE
  5
4A6
330
24
100
AcDbEntity
  8
2
100
AcDbLine
 10
109.604304
 20
42.401857
 30
0.0
 11
109.604304
 21
40.192414
 31
0.0
  0
LINE
  5
4A7
330
24
100
AcDbEntity
  8
2
100
AcDbLine
 10
122.104304
 20
-10.168724
 30
0.0
 11
122.104304
 21
8.320256
 31
0.0
  0
LINE
  5
4A8
330
24
100
AcDbEntity
  8
2
100
AcDbLine
 10
110.104304
 20
-10.168724
 30
0.0
 11
110.104304
 21
8.320256
 31
0.0
  0
LINE
  5
4A9
330
24
100
AcDbEntity
  8
2
100
AcDbLine
 10
123.004304
 20
-17.891521
 30
0.0
 11
122.104304
 21
-18.791521
 31
0.0
  0
ARC
  5
4AA
330
24
100
AcDbEntity
  8
2
100
AcDbCircle
 10
111.104304
 20
20.343003
 30
0.0
 40
1.0
100
AcDbArc
 50
90.0
 51
180.0
  0
ARC
  5
4AB
330
24
100
AcDbEntity
  8
2
100
AcDbCircle
 10
121.104304
 20
20.343003
 30
0.0
 40
1.0
100
AcDbArc
 50
0.0
 51
11.831031
  0
LINE
  5
4AC
330
24
100
AcDbEntity
  8
2
100
AcDbLine
 10
111.104304
 20
21.343003
 30
0.0
 11
118.082583
 21
21.343003
 31
0.0
  0
LINE
  5
4AD
330
24
100
AcDbEntity
  8
2
100
AcDbLine
 10
109.204304
 20
-17.891521
 30
0.0
 11
110.104304
 21
-18.791521
 31
0.0
  0
LINE
  5
4AE
330
24
100
AcDbEntity
  8
2
100
AcDbLine
 10
122.104304
 20
-25.165269
 30
0.0
 11
122.104304
 21
-18.791521
 31
0.0
  0
ARC
  5
4AF
330
24
100
AcDbEntity
  8
2
100
AcDbCircle
 10
121.104304
 20
6.07085
 30
0.0
 40
1.0
100
AcDbArc
 50
0.0
 51
90.0
  0
LINE
  5
4B0
330
24
100
AcDbEntity
  8
2
100
AcDbLine
 10
110.104304
 20
-25.165269
 30
0.0
 11
110.104304
 21
-18.791521
 31
0.0
  0
ARC
  5
4B1
330
24
100
AcDbEntity
  8
2
100
AcDbCircle
 10
111.104304
 20
6.07085
 30
0.0
 40
1.0
100
AcDbArc
 50
90.0
 51
180.0
  0
LINE
  5
4B2
330
24
100
AcDbEntity
  8
2
100
AcDbLine
 10
111.104304
 20
-11.168724
 30
0.0
 11
121.104304
 21
-11.168724
 31
0.0
  0
ARC
  5
4B3
330
24
100
AcDbEntity
  8
2
100
AcDbCircle
 10
121.104304
 20
-10.168724
 30
0.0
 40
1.0
100
AcDbArc
 50
270.0
 51
360.0
  0
ARC
  5
4B4
330
24
100
AcDbEntity
  8
2
100
AcDbCircle
 10
111.104304
 20
-10.168724
 30
0.0
 40
1.0
100
AcDbArc
 50
180.0
 51
270.0
  0
LINE
  5
4B5
330
24
100
AcDbEntity
  8
2
100
AcDbLine
 10
111.104304
 20
7.07085
 30
0.0
 11
121.104304
 21
7.07085
 31
0.0
  0
LINE
  5
4B6
330
24
100
AcDbEntity
  8
2
100
AcDbLine
 10
122.104304
 20
18.825511
 30
0.0
 11
122.104304
 21
20.343003
 31
0.0
  0
LINE
  5
4B7
330
24
100
AcDbEntity
  8
2
100
AcDbLine
 10
110.104304
 20
19.667944
 30
0.0
 11
110.104304
 21
20.343003
 31
0.0
  0
ARC
  5
4B8
330
24
100
AcDbEntity
  8
2
100
AcDbCircle
 10
116.104304
 20
87.409893
 30
0.0
 40
80.838818
100
AcDbArc
 50
274.256508
 51
274.611956
  0
ARC
  5
4B9
330
24
100
AcDbEntity
  8
2
100
AcDbCircle
 10
116.104304
 20
87.409893
 30
0.0
 40
80.838818
100
AcDbArc
 50
265.388044
 51
265.743492
  0
ARC
  5
4BA
330
24
100
AcDbEntity
  8
2
100
AcDbCircle
 10
121.104304
 20
8.320256
 30
0.0
 40
1.0
100
AcDbArc
 50
0.0
 51
90.0
  0
ARC
  5
4BB
330
24
100
AcDbEntity
  8
2
100
AcDbCircle
 10
111.104304
 20
8.320256
 30
0.0
 40
1.0
100
AcDbArc
 50
90.0
 51
180.0
  0
LINE
  5
4BC
330
24
100
AcDbEntity
  8
2
100
AcDbLine
 10
111.104304
 20
9.320256
 30
0.0
 11
121.104304
 21
9.320256
 31
0.0
  0
LINE
  5
4BD
330
24
100
AcDbEntity
  8
2
100
AcDbLine
 10
122.604304
 20
16.41117
 30
0.0
 11
122.604304
 21
13.567335
 31
0.0
  0
LINE
  5
4BE
330
24
100
AcDbEntity
  8
2
100
AcDbLine
 10
122.104304
 20
18.825511
 30
0.0
 11
122.502698
 21
18.029207
 31
0.0
  0
LINE
  5
4BF
330
24
100
AcDbEntity
  8
2
100
AcDbLine
 10
109.604304
 20
17.928084
 30
0.0
 11
109.604304
 21
15.081151
 31
0.0
  0
LINE
  5
4C0
330
24
100
AcDbEntity
  8
2
100
AcDbLine
 10
109.204304
 20
25.834731
 30
0.0
 11
109.204304
 21
23.719389
 31
0.0
  0
ARC
  5
4C1
330
24
100
AcDbEntity
  8
2
100
AcDbCircle
 10
111.104304
 20
-25.165269
 30
0.0
 40
1.0
100
AcDbArc
 50
180.0
 51
270.0
  0
LINE
  5
4C2
330
24
100
AcDbEntity
  8
2
100
AcDbLine
 10
111.104304
 20
-26.165269
 30
0.0
 11
121.104304
 21
-26.165269
 31
0.0
  0
ARC
  5
4C3
330
24
100
AcDbEntity
  8
2
100
AcDbCircle
 10
121.104304
 20
-25.165269
 30
0.0
 40
1.0
100
AcDbArc
 50
270.0
 51
360.0
  0
LINE
  5
4C4
330
24
100
AcDbEntity
  8
2
100
AcDbLine
 10
123.004304
 20
25.255979
 30
0.0
 11
123.004304
 21
22.555191
 31
0.0
  0
LINE
  5
4C5
330
24
100
AcDbEntity
  8
2
100
AcDbLine
 10
109.204304
 20
8.987392999999999
 30
0.0
 11
109.204304
 21
-17.891521
 31
0.0
  0
LINE
  5
4C6
330
24
100
AcDbEntity
  8
2
100
AcDbLine
 10
109.604304
 20
9.247137
 30
0.0
 11
109.604304
 21
6.832821
 31
0.0
  0
LINE
  5
4C7
330
24
100
AcDbEntity
  8
2
100
AcDbLine
 10
109.204304
 20
13.159769
 30
0.0
 11
109.204304
 21
10.798284
 31
0.0
  0
LINE
  5
4C8
330
24
100
AcDbEntity
  8
2
100
AcDbLine
 10
109.604304
 20
13.43989
 30
0.0
 11
109.604304
 21
10.880942
 31
0.0
  0
LINE
  5
4C9
330
24
100
AcDbEntity
  8
2
100
AcDbLine
 10
109.204304
 20
17.665241
 30
0.0
 11
109.204304
 21
14.989727
 31
0.0
  0
LINE
  5
4CA
330
24
100
AcDbEntity
  8
2
100
AcDbLine
 10
109.204304
 20
21.88788
 30
0.0
 11
109.204304
 21
19.478986
 31
0.0
  0
ARC
  5
4CB
330
24
100
AcDbEntity
  8
2
100
AcDbCircle
 10
110.204304
 20
25.834731
 30
0.0
 40
1.0
100
AcDbArc
 50
145.02678
 51
180.0
  0
LINE
  5
4CC
330
24
100
AcDbEntity
  8
2
100
AcDbLine
 10
122.604304
 20
8.007202000000001
 30
0.0
 11
122.604304
 21
6.832821
 31
0.0
  0
LINE
  5
4CD
330
24
100
AcDbEntity
  8
2
100
AcDbLine
 10
123.004304
 20
8.007202000000001
 30
0.0
 11
123.004304
 21
-17.891521
 31
0.0
  0
LINE
  5
4CE
330
24
100
AcDbEntity
  8
2
100
AcDbLine
 10
122.604304
 20
11.93353
 30
0.0
 11
122.604304
 21
9.603532000000001
 31
0.0
  0
LINE
  5
4CF
330
24
100
AcDbEntity
  8
2
100
AcDbLine
 10
123.004304
 20
12.016189
 30
0.0
 11
123.004304
 21
9.603532000000001
 31
0.0
  0
LINE
  5
4D0
330
24
100
AcDbEntity
  8
2
100
AcDbLine
 10
123.004304
 20
16.502594
 30
0.0
 11
123.004304
 21
13.827079
 31
0.0
  0
LINE
  5
4D1
330
24
100
AcDbEntity
  8
2
100
AcDbLine
 10
123.004304
 20
20.741446
 30
0.0
 11
123.004304
 21
18.332552
 31
0.0
  0
LINE
  5
4D2
330
24
100
AcDbEntity
  8
2
100
AcDbLine
 10
107.070753
 20
-19.165269
 30
0.0
 11
107.070753
 21
-10.165269
 31
0.0
  0
LINE
  5
4D3
330
24
100
AcDbEntity
  8
2
100
AcDbLine
 10
125.070753
 20
-19.165269
 30
0.0
 11
125.070753
 21
-10.165269
 31
0.0
  0
ARC
  5
4D4
330
24
100
AcDbEntity
  8
2
100
AcDbCircle
 10
123.704304
 20
46.06035499999999
 30
0.0
 40
0.8
100
AcDbArc
 50
281.397445
 51
101.397445
  0
LINE
  5
4D5
330
24
100
AcDbEntity
  8
2
100
AcDbLine
 10
96.104304
 20
-9.165269
 30
0.0
 11
96.104304
 21
4.334730999999999
 31
0.0
  0
LINE
  5
4D6
330
24
100
AcDbEntity
  8
2
100
AcDbLine
 10
96.104304
 20
-9.165269
 30
0.0
 11
96.104304
 21
4.334730999999999
 31
0.0
  0
ARC
  5
4D7
330
24
100
AcDbEntity
  8
2
100
AcDbCircle
 10
123.704304
 20
41.964841
 30
0.0
 40
0.8
100
AcDbArc
 50
280.391878
 51
100.391878
  0
ARC
  5
4D8
330
24
100
AcDbEntity
  8
2
100
AcDbCircle
 10
123.704304
 20
38.14598400000001
 30
0.0
 40
0.8
100
AcDbArc
 50
280.610631
 51
100.610631
  0
ARC
  5
4D9
330
24
100
AcDbEntity
  8
2
100
AcDbCircle
 10
123.704304
 20
34.2671
 30
0.0
 40
0.8
100
AcDbArc
 50
282.068205
 51
102.068205
  0
ARC
  5
4DA
330
24
100
AcDbEntity
  8
2
100
AcDbCircle
 10
123.704304
 20
29.985962
 30
0.0
 40
0.8
100
AcDbArc
 50
280.132571
 51
100.132571
  0
ARC
  5
4DB
330
24
100
AcDbEntity
  8
2
100
AcDbCircle
 10
123.704304
 20
26.23815200000001
 30
0.0
 40
0.8
100
AcDbArc
 50
282.970431
 51
102.970431
  0
ARC
  5
4DC
330
24
100
AcDbEntity
  8
2
100
AcDbCircle
 10
123.704304
 20
21.705855
 30
0.0
 40
0.8
100
AcDbArc
 50
281.857168
 51
101.857168
  0
ARC
  5
4DD
330
24
100
AcDbEntity
  8
2
100
AcDbCircle
 10
123.704304
 20
12.977743
 30
0.0
 40
0.8
100
AcDbArc
 50
281.675583
 51
101.675583
  0
ARC
  5
4DE
330
24
100
AcDbEntity
  8
2
100
AcDbCircle
 10
123.704304
 20
8.805367
 30
0.0
 40
0.8
100
AcDbArc
 50
266.118273
 51
93.881727
  0
ARC
  5
4DF
330
24
100
AcDbEntity
  8
2
100
AcDbCircle
 10
123.704304
 20
17.483216
 30
0.0
 40
0.8
100
AcDbArc
 50
282.874375
 51
102.874375
  0
ARC
  5
4E0
330
24
100
AcDbEntity
  8
2
100
AcDbCircle
 10
108.504304
 20
18.514578
 30
0.0
 40
0.8
100
AcDbArc
 50
101.857168
 51
281.857168
  0
ARC
  5
4E1
330
24
100
AcDbEntity
  8
2
100
AcDbCircle
 10
108.504304
 20
9.836729
 30
0.0
 40
0.8
100
AcDbArc
 50
101.675583
 51
281.675583
  0
ARC
  5
4E2
330
24
100
AcDbEntity
  8
2
100
AcDbCircle
 10
108.504304
 20
14.009105
 30
0.0
 40
0.8
100
AcDbArc
 50
102.874375
 51
282.874375
  0
ARC
  5
4E3
330
24
100
AcDbEntity
  8
2
100
AcDbCircle
 10
108.504304
 20
22.737217
 30
0.0
 40
0.8
100
AcDbArc
 50
102.970431
 51
282.970431
  0
ARC
  5
4E4
330
24
100
AcDbEntity
  8
2
100
AcDbCircle
 10
108.504304
 20
27.269514
 30
0.0
 40
0.8
100
AcDbArc
 50
100.132571
 51
280.132571
  0
ARC
  5
4E5
330
24
100
AcDbEntity
  8
2
100
AcDbCircle
 10
108.504304
 20
31.017324
 30
0.0
 40
0.8
100
AcDbArc
 50
102.068205
 51
282.068205
  0
ARC
  5
4E6
330
24
100
AcDbEntity
  8
2
100
AcDbCircle
 10
108.504304
 20
35.298462
 30
0.0
 40
0.8
100
AcDbArc
 50
100.610631
 51
280.610631
  0
ARC
  5
4E7
330
24
100
AcDbEntity
  8
2
100
AcDbCircle
 10
108.504304
 20
39.177346
 30
0.0
 40
0.8
100
AcDbArc
 50
100.391878
 51
280.391878
  0
ARC
  5
4E8
330
24
100
AcDbEntity
  8
2
100
AcDbCircle
 10
108.504304
 20
42.99620299999999
 30
0.0
 40
0.8
100
AcDbArc
 50
101.397445
 51
281.397445
  0
LINE
  5
4E9
330
24
100
AcDbEntity
  8
2
100
AcDbLine
 10
122.604304
 20
9.681844999999999
 30
0.0
 11
123.758462
 21
9.603532000000001
 31
0.0
  0
LINE
  5
4EA
330
24
100
AcDbEntity
  8
2
100
AcDbLine
 10
108.342408
 20
10.620176
 30
0.0
 11
123.542408
 21
13.76119
 31
0.0
  0
LINE
  5
4EB
330
24
100
AcDbEntity
  8
2
100
AcDbLine
 10
123.8662
 20
12.194296
 30
0.0
 11
108.6662
 21
9.053282000000001
 31
0.0
  0
LINE
  5
4EC
330
24
100
AcDbEntity
  8
2
100
AcDbLine
 10
108.326053
 20
14.788994
 30
0.0
 11
123.526053
 21
18.263105
 31
0.0
  0
LINE
  5
4ED
330
24
100
AcDbEntity
  8
2
100
AcDbLine
 10
123.882556
 20
16.703327
 30
0.0
 11
108.682556
 21
13.229216
 31
0.0
  0
LINE
  5
4EE
330
24
100
AcDbEntity
  8
2
100
AcDbLine
 10
108.339926
 20
19.297508
 30
0.0
 11
123.539926
 21
22.488785
 31
0.0
  0
LINE
  5
4EF
330
24
100
AcDbEntity
  8
2
100
AcDbLine
 10
123.868682
 20
20.922924
 30
0.0
 11
108.668682
 21
17.731648
 31
0.0
  0
LINE
  5
4F0
330
24
100
AcDbEntity
  8
2
100
AcDbLine
 10
108.324746
 20
23.516805
 30
0.0
 11
123.524746
 21
27.01774
 31
0.0
  0
LINE
  5
4F1
330
24
100
AcDbEntity
  8
2
100
AcDbLine
 10
123.883863
 20
25.458563
 30
0.0
 11
108.683863
 21
21.957628
 31
0.0
  0
LINE
  5
4F2
330
24
100
AcDbEntity
  8
2
100
AcDbLine
 10
108.645045
 20
26.481991
 30
0.0
 11
123.845045
 21
29.198439
 31
0.0
  0
LINE
  5
4F3
330
24
100
AcDbEntity
  8
2
100
AcDbLine
 10
123.563563
 20
30.773484
 30
0.0
 11
108.363563
 21
28.057036
 31
0.0
  0
LINE
  5
4F4
330
24
100
AcDbEntity
  8
2
100
AcDbLine
 10
108.671565
 20
30.235004
 30
0.0
 11
123.871565
 21
33.48478
 31
0.0
  0
LINE
  5
4F5
330
24
100
AcDbEntity
  8
2
100
AcDbLine
 10
123.537044
 20
35.049419
 30
0.0
 11
108.337044
 21
31.799643
 31
0.0
  0
LINE
  5
4F6
330
24
100
AcDbEntity
  8
2
100
AcDbLine
 10
108.651611
 20
34.512141
 30
0.0
 11
123.851611
 21
37.359663
 31
0.0
  0
LINE
  5
4F7
330
24
100
AcDbEntity
  8
2
100
AcDbLine
 10
123.556997
 20
38.932305
 30
0.0
 11
108.356997
 21
36.084783
 31
0.0
  0
LINE
  5
4F8
330
24
100
AcDbEntity
  8
2
100
AcDbLine
 10
108.648608
 20
38.390468
 30
0.0
 11
123.848608
 21
41.177963
 31
0.0
  0
LINE
  5
4F9
330
24
100
AcDbEntity
  8
2
100
AcDbLine
 10
123.560001
 20
42.75171799999999
 30
0.0
 11
108.360001
 21
39.964223
 31
0.0
  0
LINE
  5
4FA
330
24
100
AcDbEntity
  8
2
100
AcDbLine
 10
108.662395
 20
42.21197899999999
 30
0.0
 11
123.862395
 21
45.27613099999999
 31
0.0
  0
LINE
  5
4FB
330
24
100
AcDbEntity
  8
2
100
AcDbLine
 10
123.546213
 20
46.84457899999999
 30
0.0
 11
108.346213
 21
43.780427
 31
0.0
  0
LINE
  5
4FC
330
24
100
AcDbEntity
  8
2
100
AcDbLine
 10
122.604304
 20
13.854221
 30
0.0
 11
123.758462
 21
13.775908
 31
0.0
  0
LINE
  5
4FD
330
24
100
AcDbEntity
  8
2
100
AcDbLine
 10
109.604304
 20
13.132627
 30
0.0
 11
108.450147
 21
13.21094
 31
0.0
  0
LINE
  5
4FE
330
24
100
AcDbEntity
  8
2
100
AcDbLine
 10
122.327974
 20
18.378443
 30
0.0
 11
123.758462
 21
18.281381
 31
0.0
  0
LINE
  5
4FF
330
24
100
AcDbEntity
  8
2
100
AcDbLine
 10
109.604304
 20
17.6381
 30
0.0
 11
108.450147
 21
17.716413
 31
0.0
  0
LINE
  5
500
330
24
100
AcDbEntity
  8
2
100
AcDbLine
 10
113.946651
 20
23.169778
 30
0.0
 11
123.758462
 21
22.504019
 31
0.0
  0
LINE
  5
501
330
24
100
AcDbEntity
  8
2
100
AcDbLine
 10
117.875467
 20
21.299518
 30
0.0
 11
108.450147
 21
21.939052
 31
0.0
  0
LINE
  5
502
330
24
100
AcDbEntity
  8
2
100
AcDbLine
 10
115.052293
 20
27.627054
 30
0.0
 11
123.758462
 21
27.036316
 31
0.0
  0
LINE
  5
503
330
24
100
AcDbEntity
  8
2
100
AcDbLine
 10
118.261957
 20
25.80559
 30
0.0
 11
108.450147
 21
26.471349
 31
0.0
  0
LINE
  5
504
330
24
100
AcDbEntity
  8
2
100
AcDbLine
 10
114.25576
 20
31.428911
 30
0.0
 11
123.758462
 21
30.784126
 31
0.0
  0
LINE
  5
505
330
24
100
AcDbEntity
  8
2
100
AcDbLine
 10
117.156315
 20
29.62842100000001
 30
0.0
 11
108.450147
 21
30.219159
 31
0.0
  0
LINE
  5
506
330
24
100
AcDbEntity
  8
2
100
AcDbLine
 10
114.835893
 20
35.670686
 30
0.0
 11
123.758462
 21
35.065265
 31
0.0
  0
LINE
  5
507
330
24
100
AcDbEntity
  8
2
100
AcDbLine
 10
117.952849
 20
33.855513
 30
0.0
 11
108.450147
 21
34.500297
 31
0.0
  0
LINE
  5
508
330
24
100
AcDbEntity
  8
2
100
AcDbLine
 10
122.367808
 20
39.038508
 30
0.0
 11
123.758462
 21
38.944149
 31
0.0
  0
LINE
  5
509
330
24
100
AcDbEntity
  8
2
100
AcDbLine
 10
117.372715
 20
37.77376
 30
0.0
 11
108.450147
 21
38.379181
 31
0.0
  0
LINE
  5
50A
330
24
100
AcDbEntity
  8
2
100
AcDbLine
 10
108.450147
 20
42.198038
 30
0.0
 11
109.604304
 21
42.119725
 31
0.0
  0
LINE
  5
50B
330
24
100
AcDbEntity
  8
2
100
AcDbLine
 10
123.758462
 20
42.763005
 30
0.0
 11
122.604304
 21
42.84131799999999
 31
0.0
  0
LINE
  5
50C
330
24
100
AcDbEntity
  8
2
100
AcDbLine
 10
123.758462
 20
9.603532000000001
 30
0.0
 11
116.104304
 21
9.603532000000001
 31
0.0
  0
LINE
  5
50D
330
24
100
AcDbEntity
  8
2
100
AcDbLine
 10
123.650147
 20
8.007202000000001
 30
0.0
 11
122.104304
 21
8.007202000000001
 31
0.0
  0
ARC
  5
50E
330
24
100
AcDbEntity
  8
2
100
AcDbCircle
 10
116.104304
 20
8.805367
 30
0.0
 40
0.7981650000000001
100
AcDbArc
 50
90.0
 51
139.827467
  0
LINE
  5
50F
330
24
100
AcDbEntity
  8
2
100
AcDbLine
 10
108.450147
 20
9.038563999999999
 30
0.0
 11
109.604304
 21
8.960250999999999
 31
0.0
  0
LINE
  5
510
330
24
100
AcDbEntity
  8
2
100
AcDbLine
 10
122.104304
 20
18.825511
 30
0.0
 11
113.878735
 21
18.825511
 31
0.0
  0
ARC
  5
511
330
24
100
AcDbEntity
  8
2
100
AcDbCircle
 10
142.604304
 20
-20.665269
 30
0.0
 40
0.5
100
AcDbArc
 50
270.0
 51
360.0
  0
ARC
  5
512
330
24
100
AcDbEntity
  8
2
100
AcDbCircle
 10
142.604304
 20
-19.665269
 30
0.0
 40
0.5
100
AcDbArc
 50
0.0
 51
90.0
  0
LINE
  5
513
330
24
100
AcDbEntity
  8
2
100
AcDbLine
 10
143.104304
 20
-20.665269
 30
0.0
 11
143.104304
 21
-19.665269
 31
0.0
  0
LINE
  5
514
330
24
100
AcDbEntity
  8
2
100
AcDbLine
 10
176.353285
 20
-19.665269
 30
0.0
 11
176.353285
 21
-20.665269
 31
0.0
  0
LINE
  5
515
330
24
100
AcDbEntity
  8
2
100
AcDbLine
 10
173.604476
 20
-19.665269
 30
0.0
 11
173.604476
 21
-20.665269
 31
0.0
  0
LINE
  5
516
330
24
100
AcDbEntity
  8
2
100
AcDbLine
 10
144.464848
 20
-19.665269
 30
0.0
 11
144.464848
 21
-20.665269
 31
0.0
  0
LINE
  5
517
330
24
100
AcDbEntity
  8
2
100
AcDbLine
 10
136.918004
 20
-19.665269
 30
0.0
 11
136.918004
 21
-20.665269
 31
0.0
  0
LINE
  5
518
330
24
100
AcDbEntity
  8
2
100
AcDbLine
 10
132.542099
 20
-19.665269
 30
0.0
 11
132.542099
 21
-20.665269
 31
0.0
  0
LINE
  5
519
330
24
100
AcDbEntity
  8
2
100
AcDbLine
 10
124.632927
 20
-19.665269
 30
0.0
 11
124.632927
 21
-20.665269
 31
0.0
  0
LINE
  5
51A
330
24
100
AcDbEntity
  8
2
100
AcDbLine
 10
109.104304
 20
-19.665269
 30
0.0
 11
109.104304
 21
-20.665269
 31
0.0
  0
LINE
  5
51B
330
24
100
AcDbEntity
  8
2
100
AcDbLine
 10
168.592484
 20
-19.665269
 30
0.0
 11
168.592484
 21
-20.665269
 31
0.0
  0
LINE
  5
51C
330
24
100
AcDbEntity
  8
2
100
AcDbLine
 10
165.389099
 20
-19.665269
 30
0.0
 11
165.389099
 21
-20.665269
 31
0.0
  0
LINE
  5
51D
330
24
100
AcDbEntity
  8
2
100
AcDbLine
 10
159.236855
 20
-19.665269
 30
0.0
 11
159.236855
 21
-20.665269
 31
0.0
  0
LINE
  5
51E
330
24
100
AcDbEntity
  8
2
100
AcDbLine
 10
155.525876
 20
-19.665269
 30
0.0
 11
155.525876
 21
-20.665269
 31
0.0
  0
LINE
  5
51F
330
24
100
AcDbEntity
  8
2
100
AcDbLine
 10
148.570667
 20
-19.165269
 30
0.0
 11
148.570667
 21
-21.165269
 31
0.0
  0
LINE
  5
520
330
24
100
AcDbEntity
  8
2
100
AcDbLine
 10
148.507586
 20
-19.665269
 30
0.0
 11
148.507586
 21
-20.665269
 31
0.0
  0
ARC
  5
521
330
24
100
AcDbEntity
  8
2
100
AcDbCircle
 10
175.853285
 20
-19.665269
 30
0.0
 40
0.5
100
AcDbArc
 50
0.0
 51
90.0
  0
ARC
  5
522
330
24
100
AcDbEntity
  8
2
100
AcDbCircle
 10
175.853285
 20
-20.665269
 30
0.0
 40
0.5
100
AcDbArc
 50
270.0
 51
360.0
  0
ARC
  5
523
330
24
100
AcDbEntity
  8
2
100
AcDbCircle
 10
173.104476
 20
-19.665269
 30
0.0
 40
0.5
100
AcDbArc
 50
0.0
 51
90.0
  0
ARC
  5
524
330
24
100
AcDbEntity
  8
2
100
AcDbCircle
 10
173.104476
 20
-20.665269
 30
0.0
 40
0.5
100
AcDbArc
 50
270.0
 51
360.0
  0
ARC
  5
525
330
24
100
AcDbEntity
  8
2
100
AcDbCircle
 10
168.092484
 20
-19.665269
 30
0.0
 40
0.5
100
AcDbArc
 50
0.0
 51
90.0
  0
ARC
  5
526
330
24
100
AcDbEntity
  8
2
100
AcDbCircle
 10
168.092484
 20
-20.665269
 30
0.0
 40
0.5
100
AcDbArc
 50
270.0
 51
360.0
  0
ARC
  5
527
330
24
100
AcDbEntity
  8
2
100
AcDbCircle
 10
164.889099
 20
-19.665269
 30
0.0
 40
0.5
100
AcDbArc
 50
0.0
 51
90.0
  0
ARC
  5
528
330
24
100
AcDbEntity
  8
2
100
AcDbCircle
 10
164.889099
 20
-20.665269
 30
0.0
 40
0.5
100
AcDbArc
 50
270.0
 51
360.0
  0
ARC
  5
529
330
24
100
AcDbEntity
  8
2
100
AcDbCircle
 10
158.736855
 20
-19.665269
 30
0.0
 40
0.5
100
AcDbArc
 50
0.0
 51
90.0
  0
ARC
  5
52A
330
24
100
AcDbEntity
  8
2
100
AcDbCircle
 10
158.736855
 20
-20.665269
 30
0.0
 40
0.5
100
AcDbArc
 50
270.0
 51
360.0
  0
ARC
  5
52B
330
24
100
AcDbEntity
  8
2
100
AcDbCircle
 10
155.025876
 20
-19.665269
 30
0.0
 40
0.5
100
AcDbArc
 50
0.0
 51
90.0
  0
ARC
  5
52C
330
24
100
AcDbEntity
  8
2
100
AcDbCircle
 10
155.025876
 20
-20.665269
 30
0.0
 40
0.5
100
AcDbArc
 50
270.0
 51
360.0
  0
ARC
  5
52D
330
24
100
AcDbEntity
  8
2
100
AcDbCircle
 10
148.007586
 20
-19.665269
 30
0.0
 40
0.5
100
AcDbArc
 50
0.0
 51
90.0
  0
ARC
  5
52E
330
24
100
AcDbEntity
  8
2
100
AcDbCircle
 10
148.007586
 20
-20.665269
 30
0.0
 40
0.5
100
AcDbArc
 50
270.0
 51
360.0
  0
ARC
  5
52F
330
24
100
AcDbEntity
  8
2
100
AcDbCircle
 10
144.964848
 20
-19.665269
 30
0.0
 40
0.5
100
AcDbArc
 50
90.0
 51
180.0
  0
ARC
  5
530
330
24
100
AcDbEntity
  8
2
100
AcDbCircle
 10
144.964848
 20
-20.665269
 30
0.0
 40
0.5
100
AcDbArc
 50
180.0
 51
270.0
  0
ARC
  5
531
330
24
100
AcDbEntity
  8
2
100
AcDbCircle
 10
136.418004
 20
-19.665269
 30
0.0
 40
0.5
100
AcDbArc
 50
0.0
 51
90.0
  0
ARC
  5
532
330
24
100
AcDbEntity
  8
2
100
AcDbCircle
 10
136.418004
 20
-20.665269
 30
0.0
 40
0.5
100
AcDbArc
 50
270.0
 51
360.0
  0
ARC
  5
533
330
24
100
AcDbEntity
  8
2
100
AcDbCircle
 10
133.042099
 20
-19.665269
 30
0.0
 40
0.5
100
AcDbArc
 50
90.0
 51
180.0
  0
ARC
  5
534
330
24
100
AcDbEntity
  8
2
100
AcDbCircle
 10
133.042099
 20
-20.665269
 30
0.0
 40
0.5
100
AcDbArc
 50
180.0
 51
270.0
  0
ARC
  5
535
330
24
100
AcDbEntity
  8
2
100
AcDbCircle
 10
124.132927
 20
-19.665269
 30
0.0
 40
0.5
100
AcDbArc
 50
0.0
 51
90.0
  0
ARC
  5
536
330
24
100
AcDbEntity
  8
2
100
AcDbCircle
 10
124.132927
 20
-20.665269
 30
0.0
 40
0.5
100
AcDbArc
 50
270.0
 51
360.0
  0
ARC
  5
537
330
24
100
AcDbEntity
  8
2
100
AcDbCircle
 10
108.604304
 20
-19.665269
 30
0.0
 40
0.5
100
AcDbArc
 50
0.0
 51
90.0
  0
ARC
  5
538
330
24
100
AcDbEntity
  8
2
100
AcDbCircle
 10
108.604304
 20
-20.665269
 30
0.0
 40
0.5
100
AcDbArc
 50
270.0
 51
360.0
  0
LINE
  5
539
330
24
100
AcDbEntity
  8
2
100
AcDbLine
 10
89.104304
 20
-20.665269
 30
0.0
 11
89.104304
 21
-19.665269
 31
0.0
  0
ARC
  5
53A
330
24
100
AcDbEntity
  8
2
100
AcDbCircle
 10
89.60430399999999
 20
-19.665269
 30
0.0
 40
0.5
100
AcDbArc
 50
90.0
 51
180.0
  0
LINE
  5
53B
330
24
100
AcDbEntity
  8
2
100
AcDbLine
 10
203.604304
 20
-19.165269
 30
0.0
 11
122.104304
 21
-19.165269
 31
0.0
  0
ARC
  5
53C
330
24
100
AcDbEntity
  8
2
100
AcDbCircle
 10
89.60430399999999
 20
-20.665269
 30
0.0
 40
0.5
100
AcDbArc
 50
180.0
 51
270.0
  0
LINE
  5
53D
330
24
100
AcDbEntity
  8
2
100
AcDbLine
 10
203.604304
 20
-21.165269
 30
0.0
 11
122.104304
 21
-21.165269
 31
0.0
  0
LINE
  5
53E
330
24
100
AcDbEntity
  8
2
100
AcDbLine
 10
110.104304
 20
-21.165269
 30
0.0
 11
53.60430400000001
 21
-21.165269
 31
0.0
  0
LINE
  5
53F
330
24
100
AcDbEntity
  8
2
100
AcDbLine
 10
110.104304
 20
-19.165269
 30
0.0
 11
53.60430400000001
 21
-19.165269
 31
0.0
  0
LINE
  5
540
330
24
100
AcDbEntity
  8
2
100
AcDbLine
 10
53.60430400000001
 20
-19.165269
 30
0.0
 11
53.60430400000001
 21
-21.165269
 31
0.0
  0
LINE
  5
541
330
24
100
AcDbEntity
  8
2
100
AcDbLine
 10
203.604304
 20
-19.165269
 30
0.0
 11
203.604304
 21
-21.165269
 31
0.0
  0
LINE
  5
542
330
24
100
AcDbEntity
  8
2
100
AcDbLine
 10
188.492994
 20
-19.165269
 30
0.0
 11
188.492994
 21
-21.165269
 31
0.0
  0
LINE
  5
543
330
24
100
AcDbEntity
  8
2
100
AcDbLine
 10
186.627471
 20
-19.165269
 30
0.0
 11
186.627471
 21
-21.165269
 31
0.0
  0
LINE
  5
544
330
24
100
AcDbEntity
  8
2
100
AcDbLine
 10
182.654051
 20
-19.165269
 30
0.0
 11
182.654051
 21
-21.165269
 31
0.0
  0
LINE
  5
545
330
24
100
AcDbEntity
  8
2
100
AcDbLine
 10
188.090602
 20
-19.165269
 30
0.0
 11
188.090602
 21
-21.165269
 31
0.0
  0
LINE
  5
546
330
24
100
AcDbEntity
  8
2
100
AcDbLine
 10
185.500943
 20
-19.165269
 30
0.0
 11
185.500943
 21
-21.165269
 31
0.0
  0
LINE
  5
547
330
24
100
AcDbEntity
  8
2
100
AcDbLine
 10
180.802701
 20
-19.165269
 30
0.0
 11
180.802701
 21
-21.165269
 31
0.0
  0
POINT
  5
548
330
24
100
AcDbEntity
  8
2
100
AcDbPoint
 10
96.104304
 20
-2.165268999999999
 30
0.0
  0
LINE
  5
549
330
24
100
AcDbEntity
  8
2
100
AcDbLine
 10
96.104304
 20
-2.165268999999999
 30
0.0
 11
96.104304
 21
-8.665269
 31
0.0
  0
LINE
  5
54A
330
24
100
AcDbEntity
  8
2
100
AcDbLine
 10
96.104304
 20
-8.665269
 30
0.0
 11
90.32599199999999
 21
-8.665269
 31
0.0
  0
LINE
  5
54B
330
24
100
AcDbEntity
  8
2
100
AcDbLine
 10
89.60430399999999
 20
-5.415269
 30
0.0
 11
89.60430399999999
 21
-2.165268999999999
 31
0.0
  0
LINE
  5
54C
330
24
100
AcDbEntity
  8
2
100
AcDbLine
 10
96.104304
 20
-2.165268999999999
 30
0.0
 11
90.32599199999999
 21
-2.165268999999999
 31
0.0
  0
ARC
  5
54D
330
24
100
AcDbEntity
  8
2
100
AcDbCircle
 10
97.283062
 20
-5.415269
 30
0.0
 40
7.678758999999999
100
AcDbArc
 50
154.96034
 51
205.03966
  0
LINE
  5
54E
330
24
100
AcDbEntity
  8
2
100
AcDbLine
 10
96.104304
 20
-2.165268999999999
 30
0.0
 11
96.104304
 21
4.334730999999999
 31
0.0
  0
LINE
  5
54F
330
24
100
AcDbEntity
  8
2
100
AcDbLine
 10
96.104304
 20
4.334730999999999
 30
0.0
 11
90.32599199999999
 21
4.334730999999999
 31
0.0
  0
LINE
  5
550
330
24
100
AcDbEntity
  8
2
100
AcDbLine
 10
89.60430399999999
 20
1.084730999999999
 30
0.0
 11
89.60430399999999
 21
-2.165268999999999
 31
0.0
  0
LINE
  5
551
330
24
100
AcDbEntity
  8
2
100
AcDbLine
 10
96.104304
 20
-2.165268999999999
 30
0.0
 11
90.32599199999999
 21
-2.165268999999999
 31
0.0
  0
ARC
  5
552
330
24
100
AcDbEntity
  8
2
100
AcDbCircle
 10
97.283062
 20
1.084730999999999
 30
0.0
 40
7.678758999999999
100
AcDbArc
 50
154.96034
 51
205.03966
  0
LINE
  5
553
330
24
100
AcDbEntity
  8
2
100
AcDbLine
 10
84.104304
 20
-2.165268999999999
 30
0.0
 11
84.104304
 21
1.158231
 31
0.0
  0
LINE
  5
554
330
24
100
AcDbEntity
  8
2
100
AcDbLine
 10
84.104304
 20
1.158231
 30
0.0
 11
84.78080400000001
 21
1.834731
 31
0.0
  0
LINE
  5
555
330
24
100
AcDbEntity
  8
2
100
AcDbLine
 10
84.78080400000001
 20
1.834731
 30
0.0
 11
89.64101900000001
 21
1.834731
 31
0.0
  0
LINE
  5
556
330
24
100
AcDbEntity
  8
2
100
AcDbLine
 10
84.78080400000001
 20
1.834731
 30
0.0
 11
84.78080400000001
 21
-2.165268999999999
 31
0.0
  0
LINE
  5
557
330
24
100
AcDbEntity
  8
2
 62
     2
100
AcDbLine
 10
84.104304
 20
1.158231
 30
0.0
 11
89.604656
 21
1.158231
 31
0.0
  0
LINE
  5
558
330
24
100
AcDbEntity
  8
2
100
AcDbLine
 10
84.104304
 20
-2.165268999999999
 30
0.0
 11
84.104304
 21
-5.488769
 31
0.0
  0
LINE
  5
559
330
24
100
AcDbEntity
  8
2
100
AcDbLine
 10
84.104304
 20
-5.488769
 30
0.0
 11
84.78080400000001
 21
-6.165269
 31
0.0
  0
LINE
  5
55A
330
24
100
AcDbEntity
  8
2
100
AcDbLine
 10
84.78080400000001
 20
-6.165269
 30
0.0
 11
89.64101900000001
 21
-6.165269
 31
0.0
  0
LINE
  5
55B
330
24
100
AcDbEntity
  8
2
100
AcDbLine
 10
84.78080400000001
 20
-6.165269
 30
0.0
 11
84.78080400000001
 21
-2.165268999999999
 31
0.0
  0
LINE
  5
55C
330
24
100
AcDbEntity
  8
2
 62
     2
100
AcDbLine
 10
84.104304
 20
-5.488769
 30
0.0
 11
89.604656
 21
-5.488769
 31
0.0
  0
POINT
  5
55D
330
24
100
AcDbEntity
  8
2
100
AcDbPoint
 10
152.16675
 20
-19.165269
 30
0.0
  0
LINE
  5
55E
330
24
100
AcDbEntity
  8
2
100
AcDbLine
 10
152.16675
 20
-19.165269
 30
0.0
 11
143.66675
 21
-19.165269
 31
0.0
  0
LINE
  5
55F
330
24
100
AcDbEntity
  8
2
100
AcDbLine
 10
143.604304
 20
-19.165269
 30
0.0
 11
143.604304
 21
-13.060162
 31
0.0
  0
LINE
  5
560
330
24
100
AcDbEntity
  8
2
100
AcDbLine
 10
147.854304
 20
-12.165269
 30
0.0
 11
152.104304
 21
-12.165269
 31
0.0
  0
LINE
  5
561
330
24
100
AcDbEntity
  8
2
100
AcDbLine
 10
152.104304
 20
-19.165269
 30
0.0
 11
152.104304
 21
-13.060162
 31
0.0
  0
ARC
  5
562
330
24
100
AcDbEntity
  8
2
100
AcDbCircle
 10
147.854304
 20
-22.704705
 30
0.0
 40
10.539436
100
AcDbArc
 50
66.218654
 51
113.781346
  0
LINE
  5
563
330
24
100
AcDbEntity
  8
2
100
AcDbLine
 10
152.104304
 20
-49.165269
 30
0.0
 11
147.916304
 21
-49.165269
 31
0.0
  0
LINE
  5
564
330
24
100
AcDbEntity
  8
2
100
AcDbLine
 10
147.916304
 20
-49.165269
 30
0.0
 11
147.104304
 21
-48.353269
 31
0.0
  0
LINE
  5
565
330
24
100
AcDbEntity
  8
2
100
AcDbLine
 10
147.104304
 20
-48.353269
 30
0.0
 11
147.104304
 21
-45.63855
 31
0.0
  0
LINE
  5
566
330
24
100
AcDbEntity
  8
2
100
AcDbLine
 10
147.104304
 20
-48.353269
 30
0.0
 11
152.104304
 21
-48.353269
 31
0.0
  0
LINE
  5
567
330
24
100
AcDbEntity
  8
2
 62
     2
100
AcDbLine
 10
147.916304
 20
-49.165269
 30
0.0
 11
147.916304
 21
-45.66508699999999
 31
0.0
  0
LINE
  5
568
330
24
100
AcDbEntity
  8
2
100
AcDbLine
 10
152.16675
 20
-19.165269
 30
0.0
 11
160.66675
 21
-19.165269
 31
0.0
  0
LINE
  5
569
330
24
100
AcDbEntity
  8
2
100
AcDbLine
 10
160.604304
 20
-19.165269
 30
0.0
 11
160.604304
 21
-13.060162
 31
0.0
  0
LINE
  5
56A
330
24
100
AcDbEntity
  8
2
100
AcDbLine
 10
156.354304
 20
-12.165269
 30
0.0
 11
152.104304
 21
-12.165269
 31
0.0
  0
LINE
  5
56B
330
24
100
AcDbEntity
  8
2
100
AcDbLine
 10
152.104304
 20
-19.165269
 30
0.0
 11
152.104304
 21
-13.060162
 31
0.0
  0
ARC
  5
56C
330
24
100
AcDbEntity
  8
2
100
AcDbCircle
 10
156.354304
 20
-22.704705
 30
0.0
 40
10.539436
100
AcDbArc
 50
66.218654
 51
113.781346
  0
LINE
  5
56D
330
24
100
AcDbEntity
  8
2
100
AcDbLine
 10
152.104304
 20
-49.165269
 30
0.0
 11
156.292304
 21
-49.165269
 31
0.0
  0
LINE
  5
56E
330
24
100
AcDbEntity
  8
2
100
AcDbLine
 10
156.292304
 20
-49.165269
 30
0.0
 11
157.104304
 21
-48.353269
 31
0.0
  0
LINE
  5
56F
330
24
100
AcDbEntity
  8
2
100
AcDbLine
 10
157.104304
 20
-48.353269
 30
0.0
 11
157.104304
 21
-45.63855
 31
0.0
  0
LINE
  5
570
330
24
100
AcDbEntity
  8
2
100
AcDbLine
 10
157.104304
 20
-48.353269
 30
0.0
 11
152.104304
 21
-48.353269
 31
0.0
  0
LINE
  5
571
330
24
100
AcDbEntity
  8
2
 62
     2
100
AcDbLine
 10
156.292304
 20
-49.165269
 30
0.0
 11
156.292304
 21
-45.66508699999999
 31
0.0
  0
POINT
  5
572
330
24
100
AcDbEntity
  8
2
100
AcDbPoint
 10
152.104304
 20
-35.16526900000001
 30
0.0
  0
LINE
  5
573
330
24
100
AcDbEntity
  8
2
  6
CENTER
 62
     2
100
AcDbLine
 10
152.104304
 20
-7.140577
 30
0.0
 11
152.104304
 21
-55.66526899999999
 31
0.0
  0
LINE
  5
574
330
24
100
AcDbEntity
  8
2
100
AcDbLine
 10
152.539079
 20
-37.66526900000001
 30
0.0
 11
160.604304
 21
-37.66526900000001
 31
0.0
  0
LINE
  5
575
330
24
100
AcDbEntity
  8
2
100
AcDbLine
 10
160.604304
 20
-37.66526900000001
 30
0.0
 11
160.604304
 21
-44.770376
 31
0.0
  0
LINE
  5
576
330
24
100
AcDbEntity
  8
2
100
AcDbLine
 10
156.354304
 20
-45.665269
 30
0.0
 11
152.104304
 21
-45.665269
 31
0.0
  0
LINE
  5
577
330
24
100
AcDbEntity
  8
2
100
AcDbLine
 10
152.104304
 20
-37.66526900000001
 30
0.0
 11
152.104304
 21
-44.770376
 31
0.0
  0
ARC
  5
578
330
24
100
AcDbEntity
  8
2
100
AcDbCircle
 10
156.354304
 20
-35.125833
 30
0.0
 40
10.539436
100
AcDbArc
 50
246.218654
 51
293.781346
  0
LINE
  5
579
330
24
100
AcDbEntity
  8
2
100
AcDbLine
 10
143.604304
 20
-43.70788
 30
0.0
 11
143.604304
 21
-44.770376
 31
0.0
  0
LINE
  5
57A
330
24
100
AcDbEntity
  8
2
100
AcDbLine
 10
147.854304
 20
-45.665269
 30
0.0
 11
152.104304
 21
-45.665269
 31
0.0
  0
LINE
  5
57B
330
24
100
AcDbEntity
  8
2
100
AcDbLine
 10
152.104304
 20
-37.66526900000001
 30
0.0
 11
152.104304
 21
-44.770376
 31
0.0
  0
ARC
  5
57C
330
24
100
AcDbEntity
  8
2
100
AcDbCircle
 10
147.854304
 20
-35.125833
 30
0.0
 40
10.539436
100
AcDbArc
 50
246.218654
 51
293.781346
  0
LINE
  5
57D
330
24
100
AcDbEntity
  8
2
100
AcDbLine
 10
161.304304
 20
-35.16526900000001
 30
0.0
 11
161.304304
 21
-37.66526900000001
 31
0.0
  0
LINE
  5
57E
330
24
100
AcDbEntity
  8
2
100
AcDbLine
 10
161.304304
 20
-37.66526900000001
 30
0.0
 11
152.539079
 21
-37.66526900000001
 31
0.0
  0
LINE
  5
57F
330
24
100
AcDbEntity
  8
2
100
AcDbLine
 10
142.904304
 20
-35.16526900000001
 30
0.0
 11
161.304304
 21
-35.16526900000001
 31
0.0
  0
POINT
  5
580
330
24
100
AcDbEntity
  8
2
100
AcDbPoint
 10
80.041858
 20
-19.165269
 30
0.0
  0
LINE
  5
581
330
24
100
AcDbEntity
  8
2
100
AcDbLine
 10
80.041858
 20
-19.165269
 30
0.0
 11
88.54185799999999
 21
-19.165269
 31
0.0
  0
LINE
  5
582
330
24
100
AcDbEntity
  8
2
100
AcDbLine
 10
88.604304
 20
-19.165269
 30
0.0
 11
88.604304
 21
-13.060162
 31
0.0
  0
LINE
  5
583
330
24
100
AcDbEntity
  8
2
100
AcDbLine
 10
84.35430399999999
 20
-12.165269
 30
0.0
 11
80.104304
 21
-12.165269
 31
0.0
  0
LINE
  5
584
330
24
100
AcDbEntity
  8
2
100
AcDbLine
 10
80.104304
 20
-19.165269
 30
0.0
 11
80.104304
 21
-13.060162
 31
0.0
  0
ARC
  5
585
330
24
100
AcDbEntity
  8
2
100
AcDbCircle
 10
84.35430399999999
 20
-22.704705
 30
0.0
 40
10.539436
100
AcDbArc
 50
66.218654
 51
113.781346
  0
LINE
  5
586
330
24
100
AcDbEntity
  8
2
100
AcDbLine
 10
80.104304
 20
-49.165269
 30
0.0
 11
84.29230399999999
 21
-49.165269
 31
0.0
  0
LINE
  5
587
330
24
100
AcDbEntity
  8
2
100
AcDbLine
 10
84.29230399999999
 20
-49.165269
 30
0.0
 11
85.104304
 21
-48.353269
 31
0.0
  0
LINE
  5
588
330
24
100
AcDbEntity
  8
2
100
AcDbLine
 10
85.104304
 20
-48.353269
 30
0.0
 11
85.104304
 21
-45.63855
 31
0.0
  0
LINE
  5
589
330
24
100
AcDbEntity
  8
2
100
AcDbLine
 10
85.104304
 20
-48.353269
 30
0.0
 11
80.104304
 21
-48.353269
 31
0.0
  0
LINE
  5
58A
330
24
100
AcDbEntity
  8
2
 62
     2
100
AcDbLine
 10
84.29230399999999
 20
-49.165269
 30
0.0
 11
84.29230399999999
 21
-45.66508699999999
 31
0.0
  0
LINE
  5
58B
330
24
100
AcDbEntity
  8
2
100
AcDbLine
 10
80.041858
 20
-19.165269
 30
0.0
 11
71.54185799999999
 21
-19.165269
 31
0.0
  0
LINE
  5
58C
330
24
100
AcDbEntity
  8
2
100
AcDbLine
 10
71.604304
 20
-19.165269
 30
0.0
 11
71.604304
 21
-13.060162
 31
0.0
  0
LINE
  5
58D
330
24
100
AcDbEntity
  8
2
100
AcDbLine
 10
75.85430399999999
 20
-12.165269
 30
0.0
 11
80.104304
 21
-12.165269
 31
0.0
  0
LINE
  5
58E
330
24
100
AcDbEntity
  8
2
100
AcDbLine
 10
80.104304
 20
-19.165269
 30
0.0
 11
80.104304
 21
-13.060162
 31
0.0
  0
ARC
  5
58F
330
24
100
AcDbEntity
  8
2
100
AcDbCircle
 10
75.85430399999999
 20
-22.704705
 30
0.0
 40
10.539436
100
AcDbArc
 50
66.218654
 51
113.781346
  0
LINE
  5
590
330
24
100
AcDbEntity
  8
2
100
AcDbLine
 10
80.104304
 20
-49.165269
 30
0.0
 11
75.91630399999999
 21
-49.165269
 31
0.0
  0
LINE
  5
591
330
24
100
AcDbEntity
  8
2
100
AcDbLine
 10
75.91630399999999
 20
-49.165269
 30
0.0
 11
75.104304
 21
-48.353269
 31
0.0
  0
LINE
  5
592
330
24
100
AcDbEntity
  8
2
100
AcDbLine
 10
75.104304
 20
-48.353269
 30
0.0
 11
75.104304
 21
-45.63855
 31
0.0
  0
LINE
  5
593
330
24
100
AcDbEntity
  8
2
100
AcDbLine
 10
75.104304
 20
-48.353269
 30
0.0
 11
80.104304
 21
-48.353269
 31
0.0
  0
LINE
  5
594
330
24
100
AcDbEntity
  8
2
 62
     2
100
AcDbLine
 10
75.91630399999999
 20
-49.165269
 30
0.0
 11
75.91630399999999
 21
-45.66508699999999
 31
0.0
  0
POINT
  5
595
330
24
100
AcDbEntity
  8
2
100
AcDbPoint
 10
80.104304
 20
-35.16526900000001
 30
0.0
  0
LINE
  5
596
330
24
100
AcDbEntity
  8
2
  6
CENTER
 62
     2
100
AcDbLine
 10
80.104304
 20
-7.140577
 30
0.0
 11
80.104304
 21
-55.66526899999999
 31
0.0
  0
LINE
  5
597
330
24
100
AcDbEntity
  8
2
100
AcDbLine
 10
80.104304
 20
-37.66526900000001
 30
0.0
 11
71.604304
 21
-37.66526900000001
 31
0.0
  0
LINE
  5
598
330
24
100
AcDbEntity
  8
2
100
AcDbLine
 10
71.604304
 20
-37.66526900000001
 30
0.0
 11
71.604304
 21
-44.770376
 31
0.0
  0
LINE
  5
599
330
24
100
AcDbEntity
  8
2
100
AcDbLine
 10
75.85430399999999
 20
-45.665269
 30
0.0
 11
80.104304
 21
-45.665269
 31
0.0
  0
LINE
  5
59A
330
24
100
AcDbEntity
  8
2
100
AcDbLine
 10
80.104304
 20
-37.66526900000001
 30
0.0
 11
80.104304
 21
-44.770376
 31
0.0
  0
ARC
  5
59B
330
24
100
AcDbEntity
  8
2
100
AcDbCircle
 10
75.85430399999999
 20
-35.125833
 30
0.0
 40
10.539436
100
AcDbArc
 50
246.218654
 51
293.781346
  0
LINE
  5
59C
330
24
100
AcDbEntity
  8
2
100
AcDbLine
 10
80.104304
 20
-37.66526900000001
 30
0.0
 11
88.604304
 21
-37.66526900000001
 31
0.0
  0
LINE
  5
59D
330
24
100
AcDbEntity
  8
2
100
AcDbLine
 10
88.604304
 20
-37.66526900000001
 30
0.0
 11
88.604304
 21
-44.770376
 31
0.0
  0
LINE
  5
59E
330
24
100
AcDbEntity
  8
2
100
AcDbLine
 10
84.35430399999999
 20
-45.665269
 30
0.0
 11
80.104304
 21
-45.665269
 31
0.0
  0
LINE
  5
59F
330
24
100
AcDbEntity
  8
2
100
AcDbLine
 10
80.104304
 20
-37.66526900000001
 30
0.0
 11
80.104304
 21
-44.770376
 31
0.0
  0
ARC
  5
5A0
330
24
100
AcDbEntity
  8
2
100
AcDbCircle
 10
84.35430399999999
 20
-35.125833
 30
0.0
 40
10.539436
100
AcDbArc
 50
246.218654
 51
293.781346
  0
LINE
  5
5A1
330
24
100
AcDbEntity
  8
2
100
AcDbLine
 10
70.90430400000001
 20
-35.16526900000001
 30
0.0
 11
70.90430400000001
 21
-37.66526900000001
 31
0.0
  0
LINE
  5
5A2
330
24
100
AcDbEntity
  8
2
100
AcDbLine
 10
70.90430400000001
 20
-37.66526900000001
 30
0.0
 11
89.304304
 21
-37.66526900000001
 31
0.0
  0
LINE
  5
5A3
330
24
100
AcDbEntity
  8
2
100
AcDbLine
 10
89.304304
 20
-37.66526900000001
 30
0.0
 11
89.304304
 21
-35.16526900000001
 31
0.0
  0
LINE
  5
5A4
330
24
100
AcDbEntity
  8
2
100
AcDbLine
 10
89.304304
 20
-35.16526900000001
 30
0.0
 11
70.90430400000001
 21
-35.16526900000001
 31
0.0
  0
DIMENSION
  5
5A5
330
24
100
AcDbEntity
  8
5
100
AcDbDimension
  2
*D0
 10
28.823462
 20
-21.165269
 30
0.0
 11
16.928462
 21
-117.160269
 31
0.0
  1
191
 71
     5
 42
-1.0
100
AcDbAlignedDimension
 13
75.34397099999999
 23
-212.165269
 33
0.0
 14
53.60430400000001
 24
-21.165269
 34
0.0
 50
90.0
100
AcDbRotatedDimension
  0
DIMENSION
  5
5A6
330
24
100
AcDbEntity
  8
5
100
AcDbDimension
  2
*D1
 10
28.823462
 20
-212.165269
 30
0.0
 11
16.928462
 21
-271.010269
 31
0.0
  1
117
 71
     5
 42
-1.0
100
AcDbAlignedDimension
 13
111.104304
 23
-328.865269
 33
0.0
 14
75.34397099999999
 24
-212.165269
 34
0.0
 50
90.0
100
AcDbRotatedDimension
  0
DIMENSION
  5
5A7
330
24
100
AcDbEntity
  8
5
100
AcDbDimension
  2
*D2
 10
144.104304
 20
-358.954079
 30
0.0
 11
116.104304
 21
-352.504079
 31
0.0
  1
56
 71
     5
 42
-1.0
100
AcDbAlignedDimension
 13
88.10430399999999
 23
-301.665269
 33
0.0
 14
144.104304
 24
-301.665269
 34
0.0
100
AcDbRotatedDimension
  0
DIMENSION
  5
5A8
330
24
100
AcDbEntity
  8
5
100
AcDbDimension
  2
*D3
 10
-470.391861
 20
324.009731
 30
0.0
 11
-485.751861
 21
276.299731
 31
0.0
  1
87.5
 71
     5
 42
-1.0
100
AcDbAlignedDimension
 13
-449.4316019999999
 23
236.509731
 33
0.0
 14
-359.570696
 24
324.009731
 34
0.0
 50
90.0
100
AcDbRotatedDimension
  0
TEXT
  5
5A9
330
24
100
AcDbEntity
  8
5
100
AcDbText
 10
27.323461
 20
-2.833455999999999
 30
0.0
 40
9.9
  1
92(概略)
 50
90.0
 41
1.002872512376911
 72
     5
 11
27.323461
 21
49.834543
 31
0.0
100
AcDbText
  0
DIMENSION
  5
5AA
330
24
100
AcDbEntity
  8
5
100
AcDbDimension
  2
*D4
 10
28.823462
 20
70.938356
 30
0.0
 11
26.323462
 21
24.886544
 31
0.0
 71
     5
 42
-1.0
100
AcDbAlignedDimension
 13
53.60430400000001
 23
-21.165269
 33
0.0
 14
108.81539
 24
70.938356
 34
0.0
 50
90.0
100
AcDbRotatedDimension
  0
TEXT
  5
5AB
330
24
100
AcDbEntity
  8
5
100
AcDbText
 10
-203.054286
 20
103.456718
 30
0.0
 40
9.9
  1
300
 41
0.7077777777777776
 72
     5
 11
-185.036286
 21
103.456718
 31
0.0
100
AcDbText
  0
DIMENSION
  5
5AC
330
24
100
AcDbEntity
  8
5
100
AcDbDimension
  2
*D5
 10
-42.747875
 20
101.956718
 30
0.0
 11
-192.659286
 21
103.956718
 31
0.0
 71
     5
 42
-1.0
100
AcDbAlignedDimension
 13
-342.570696
 23
28.805564
 33
0.0
 14
-42.747875
 24
60.563192
 34
0.0
100
AcDbRotatedDimension
  0
TEXT
  5
5AD
330
24
100
AcDbEntity
  8
18
100
AcDbText
 10
366.433891
 20
-399.791977
 30
0.0
 40
9.0
  1
1
100
AcDbText
  0
TEXT
  5
5AE
330
24
100
AcDbEntity
  8
18
100
AcDbText
 10
368.562721
 20
-381.105789
 30
0.0
 40
9.0
  1
標準仕様　JIS 5K,10K
100
AcDbText
  0
TEXT
  5
5AF
330
24
100
AcDbEntity
  8
18
100
AcDbText
 10
379.623688
 20
-411.30304
 30
0.0
 40
9.0
  1
3
100
AcDbText
  0
TEXT
  5
5B0
330
24
100
AcDbEntity
  8
18
100
AcDbText
 10
460.8
 20
-408.0
 30
0.0
 40
15.0
  1
D3－03635
100
AcDbText
  0
TEXT
  5
5B1
330
24
100
AcDbEntity
  8
18
100
AcDbText
 10
368.562721
 20
-369.105789
 30
0.0
 40
9.0
  1
700G-1TLS   125A
100
AcDbText
  0
TEXT
  5
5B2
330
24
100
AcDbEntity
  8
18
100
AcDbText
 10
545.263504
 20
-381.824707
 30
0.0
 40
6.75
  1
'05. 1.26
100
AcDbText
  0
LINE
  5
5B3
330
24
100
AcDbEntity
  8
20
 62
     3
100
AcDbLine
 10
-540.0
 20
-415.5
 30
0.0
 11
600.0
 21
-415.5
 31
0.0
  0
LINE
  5
5B4
330
24
100
AcDbEntity
  8
20
 62
     3
100
AcDbLine
 10
-540.0
 20
396.0
 30
0.0
 11
600.0
 21
396.0
 31
0.0
  0
LINE
  5
5B5
330
24
100
AcDbEntity
  8
20
 62
     3
100
AcDbLine
 10
-540.0
 20
396.0
 30
0.0
 11
-540.0
 21
-415.5
 31
0.0
  0
LINE
  5
5B6
330
24
100
AcDbEntity
  8
20
 62
     3
100
AcDbLine
 10
600.0
 20
396.0
 30
0.0
 11
600.0
 21
-415.5
 31
0.0
  0
LINE
  5
5B7
330
24
100
AcDbEntity
  8
20
 62
     3
100
AcDbLine
 10
180.0
 20
-415.5
 30
0.0
 11
180.0
 21
-355.5
 31
0.0
  0
LINE
  5
5B8
330
24
100
AcDbEntity
  8
20
 62
     3
100
AcDbLine
 10
321.0
 20
-415.5
 30
0.0
 11
321.0
 21
-355.5
 31
0.0
  0
LINE
  5
5B9
330
24
100
AcDbEntity
  8
20
100
AcDbLine
 10
321.0
 20
-385.5
 30
0.0
 11
600.0
 21
-385.5
 31
0.0
  0
LINE
  5
5BA
330
24
100
AcDbEntity
  8
20
 62
     3
100
AcDbLine
 10
180.0
 20
-355.5
 30
0.0
 11
600.0
 21
-355.5
 31
0.0
  0
LINE
  5
5BB
330
24
100
AcDbEntity
  8
20
100
AcDbLine
 10
540.0
 20
-385.5
 30
0.0
 11
540.0
 21
-355.5
 31
0.0
  0
LINE
  5
5BC
330
24
100
AcDbEntity
  8
20
100
AcDbLine
 10
540.0
 20
-370.5
 30
0.0
 11
600.0
 21
-370.5
 31
0.0
  0
LINE
  5
5BD
330
24
100
AcDbEntity
  8
20
100
AcDbLine
 10
363.0
 20
-415.5
 30
0.0
 11
363.0
 21
-355.5
 31
0.0
  0
LINE
  5
5BE
330
24
100
AcDbEntity
  8
20
100
AcDbLine
 10
393.0
 20
-415.5
 30
0.0
 11
393.0
 21
-385.5
 31
0.0
  0
LINE
  5
5BF
330
24
100
AcDbEntity
  8
20
100
AcDbLine
 10
453.0
 20
-415.5
 30
0.0
 11
453.0
 21
-385.5
 31
0.0
  0
LINE
  5
5C0
330
24
100
AcDbEntity
  8
20
100
AcDbLine
 10
371.185244
 20
-407.3147559999999
 30
0.0
 11
383.694872
 21
-394.8051279999999
 31
0.0
  0
TEXT
  5
5C1
330
24
100
AcDbEntity
  8
20
100
AcDbText
 10
399.0604391131223
 20
-397.490753
 30
0.0
 40
5.4
  1
DRAWING No.
100
AcDbText
  0
TEXT
  5
5C2
330
24
100
AcDbEntity
  8
20
100
AcDbText
 10
400.4999999999999
 20
-409.4999999999999
 30
0.0
 40
9.0
  1
図　　番
100
AcDbText
  0
TEXT
  5
5C3
330
24
100
AcDbEntity
  8
20
100
AcDbText
 10
558.0
 20
-366.0
 30
0.0
 40
6.0
  1
DATE
100
AcDbText
  0
TEXT
  5
5C4
330
24
100
AcDbEntity
  8
20
100
AcDbText
 10
327.003213
 20
-398.883087
 30
0.0
 40
6.0
  1
SCALE
100
AcDbText
  0
TEXT
  5
5C5
330
24
100
AcDbEntity
  8
20
100
AcDbText
 10
325.7841823438121
 20
-409.4999999999999
 30
0.0
 40
9.0
  1
尺　度
100
AcDbText
  0
TEXT
  5
5C6
330
24
100
AcDbEntity
  8
20
100
AcDbText
 10
325.6255302284672
 20
-367.487654
 30
0.0
 40
6.0
  1
FIG. No.
100
AcDbText
  0
TEXT
  5
5C7
330
24
100
AcDbEntity
  8
20
100
AcDbText
 10
325.7841823438121
 20
-379.5
 30
0.0
 40
9.0
  1
名　称
100
AcDbText
  0
TEXT
  5
5C8
330
24
100
AcDbEntity
  8
20
100
AcDbText
 10
189.7253880543385
 20
-379.410759
 30
0.0
 40
6.9
  1
TOMOE VALVE Co., LTD.
100
AcDbText
  0
TEXT
  5
5C9
330
24
100
AcDbEntity
  8
20
100
AcDbText
 10
195.3632781175674
 20
-399.869431
 30
0.0
 40
12.0
  1
巴バルブ株式会社
100
AcDbText
  0
ENDSEC
  0
SECTION
  2
OBJECTS
  0
DICTIONARY
  5
610
330
0
100
AcDbDictionary
281
     1
  3
ACAD_COLOR
350
647
  3
ACAD_GROUP
350
611
  3
ACAD_LAYOUT
350
66F
  3
ACAD_MATERIAL
350
61D
  3
ACAD_MLEADERSTYLE
350
66C
  3
ACAD_MLINESTYLE
350
612
  3
ACAD_PLOTSETTINGS
350
670
  3
ACAD_PLOTSTYLENAME
350
61B
  3
ACAD_SCALELIST
350
64A
  3
ACAD_TABLESTYLE
350
648
  3
ACAD_VISUALSTYLE
350
636
  3
ACDB_RECOMPOSE_DATA
350
68A
  3
AcDbVariableDictionary
350
681
  3
DWGPROPS
350
68B
  0
DICTIONARY
  5
675
330
15
100
AcDbDictionary
280
     1
281
     1
  3
ADSK_XREC_LAYER_RECONCILED
360
676
  0
DICTIONARY
  5
677
330
16
100
AcDbDictionary
280
     1
281
     1
  3
ADSK_XREC_LAYER_RECONCILED
360
678
  0
DICTIONARY
  5
679
330
17
100
AcDbDictionary
280
     1
281
     1
  3
ADSK_XREC_LAYER_RECONCILED
360
67A
  0
DICTIONARY
  5
67B
330
18
100
AcDbDictionary
280
     1
281
     1
  3
ADSK_XREC_LAYER_RECONCILED
360
67C
  0
DICTIONARY
  5
67D
330
19
100
AcDbDictionary
280
     1
281
     1
  3
ADSK_XREC_LAYER_RECONCILED
360
67E
  0
DICTIONARY
  5
67F
330
1A
100
AcDbDictionary
280
     1
281
     1
  3
ADSK_XREC_LAYER_RECONCILED
360
680
  0
DICTIONARY
  5
647
102
{ACAD_REACTORS
330
610
102
}
330
610
100
AcDbDictionary
281
     1
  0
DICTIONARY
  5
611
102
{ACAD_REACTORS
330
610
102
}
330
610
100
AcDbDictionary
281
     1
  0
DICTIONARY
  5
66F
102
{ACAD_REACTORS
330
610
102
}
330
610
100
AcDbDictionary
281
     1
  3
Model
350
671
  3
レイアウト1
350
672
  0
DICTIONARY
  5
61D
102
{ACAD_REACTORS
330
610
102
}
330
610
100
AcDbDictionary
281
     1
  3
ByBlock
350
626
  3
ByLayer
350
61E
  3
Global
350
62E
  0
DICTIONARY
  5
66C
102
{ACAD_REACTORS
330
610
102
}
330
610
100
AcDbDictionary
281
     1
  3
Standard
350
66D
  0
DICTIONARY
  5
612
102
{ACAD_REACTORS
330
610
102
}
330
610
100
AcDbDictionary
281
     1
  3
STANDARD
350
613
  0
DICTIONARY
  5
670
102
{ACAD_REACTORS
330
610
102
}
330
610
100
AcDbDictionary
281
     1
  0
ACDBDICTIONARYWDFLT
  5
61B
102
{ACAD_REACTORS
330
610
102
}
330
610
100
AcDbDictionary
281
     1
  3
Normal
350
61C
100
AcDbDictionaryWithDefault
340
61C
  0
DICTIONARY
  5
64A
102
{ACAD_REACTORS
330
610
102
}
330
610
100
AcDbDictionary
281
     1
  3
A0
350
64B
  3
A1
350
64C
  3
A2
350
64D
  3
A3
350
64E
  3
A4
350
64F
  3
A5
350
650
  3
A6
350
651
  3
A7
350
652
  3
A8
350
653
  3
A9
350
654
  3
B0
350
655
  3
B1
350
656
  3
B2
350
657
  3
B3
350
658
  3
B4
350
659
  3
B5
350
65A
  3
B6
350
65B
  3
B7
350
65C
  3
B8
350
65D
  3
B9
350
65E
  3
C0
350
65F
  3
C1
350
660
  3
C2
350
661
  3
C3
350
662
  3
C4
350
663
  3
C5
350
664
  3
C6
350
665
  3
C7
350
666
  3
C8
350
667
  3
C9
350
668
  3
D0
350
669
  3
D1
350
66A
  3
D2
350
66B
  0
DICTIONARY
  5
648
102
{ACAD_REACTORS
330
610
102
}
330
610
100
AcDbDictionary
281
     1
  3
Standard
350
649
  0
DICTIONARY
  5
636
102
{ACAD_REACTORS
330
610
102
}
330
610
100
AcDbDictionary
281
     1
  3
2dWireframe
350
63C
  3
3D Hidden
350
63E
  3
3dWireframe
350
63D
  3
Basic
350
63B
  3
Brighten
350
642
  3
ColorChange
350
646
  3
Conceptual
350
63F
  3
Dim
350
641
  3
Facepattern
350
645
  3
Flat
350
637
  3
FlatWithEdges
350
638
  3
Gouraud
350
639
  3
GouraudWithEdges
350
63A
  3
Linepattern
350
644
  3
Realistic
350
640
  3
Thicken
350
643
  0
XRECORD
  5
68A
102
{ACAD_REACTORS
330
610
102
}
330
610
100
AcDbXrecord
280
     1
 90
        1
330
649
  0
DICTIONARY
  5
681
102
{ACAD_REACTORS
330
610
102
}
330
610
100
AcDbDictionary
281
     1
  3
CANNOSCALE
350
684
  3
CMLEADERSTYLE
350
683
  3
CTABLESTYLE
350
682
  3
DIMASSOC
350
687
  3
INDEXCTL
350
686
  3
SORTENTS
350
685
  0
XRECORD
  5
68B
102
{ACAD_REACTORS
330
610
102
}
330
610
100
AcDbXrecord
280
     1
  1
DWGPROPS COOKIE
  2

  3

  4

  6

  7

  8
jaterika-arisa
  9

300
=
301
=
302
=
303
=
304
=
305
=
306
=
307
=
308
=
309
=
 40
0.0013891203703704
 41
2450695.0
 42
2454943.644069202
  1

 90
        0
  0
XRECORD
  5
676
102
{ACAD_REACTORS
330
675
102
}
330
675
100
AcDbXrecord
280
     1
290
     1
  0
XRECORD
  5
678
102
{ACAD_REACTORS
330
677
102
}
330
677
100
AcDbXrecord
280
     1
290
     1
  0
XRECORD
  5
67A
102
{ACAD_REACTORS
330
679
102
}
330
679
100
AcDbXrecord
280
     1
290
     1
  0
XRECORD
  5
67C
102
{ACAD_REACTORS
330
67B
102
}
330
67B
100
AcDbXrecord
280
     1
290
     1
  0
XRECORD
  5
67E
102
{ACAD_REACTORS
330
67D
102
}
330
67D
100
AcDbXrecord
280
     1
290
     1
  0
XRECORD
  5
680
102
{ACAD_REACTORS
330
67F
102
}
330
67F
100
AcDbXrecord
280
     1
290
     1
  0
LAYOUT
  5
671
102
{ACAD_XDICTIONARY
360
690
102
}
102
{ACAD_REACTORS
330
66F
102
}
330
66F
100
AcDbPlotSettings
  1

  2
EMP01
  4

  6

 40
0.0
 41
0.0
 42
0.0
 43
0.0
 44
0.0
 45
0.0
 46
0.0
 47
0.0
 48
0.0
 49
0.0
140
0.0
141
0.0
142
1.0
143
1.0
 70
  1712
 72
     0
 73
     0
 74
     0
  7

 75
     0
147
1.0
148
0.0
149
0.0
100
AcDbLayout
  1
Model
 70
     1
 71
     0
 10
0.0
 20
0.0
 11
12.0
 21
9.0
 12
0.0
 22
0.0
 32
0.0
 14
0.0
 24
0.0
 34
0.0
 15
0.0
 25
0.0
 35
0.0
146
0.0
 13
0.0
 23
0.0
 33
0.0
 16
1.0
 26
0.0
 36
0.0
 17
0.0
 27
1.0
 37
0.0
 76
     0
330
24
331
1B
  0
LAYOUT
  5
672
102
{ACAD_XDICTIONARY
360
692
102
}
102
{ACAD_REACTORS
330
66F
102
}
330
66F
100
AcDbPlotSettings
  1

  2
EMP01
  4

  6

 40
0.0
 41
0.0
 42
0.0
 43
0.0
 44
0.0
 45
0.0
 46
0.0
 47
0.0
 48
0.0
 49
0.0
140
0.0
141
0.0
142
1.0
143
1.0
 70
   688
 72
     0
 73
     0
 74
     5
  7

 75
    16
147
1.0
148
0.0
149
0.0
100
AcDbLayout
  1
レイアウト1
 70
     0
 71
     1
 10
0.0
 20
0.0
 11
12.0
 21
9.0
 12
0.0
 22
0.0
 32
0.0
 14
1.000000000000000E+20
 24
1.000000000000000E+20
 34
1.000000000000000E+20
 15
-1.000000000000000E+20
 25
-1.000000000000000E+20
 35
-1.000000000000000E+20
146
0.0
 13
0.0
 23
0.0
 33
0.0
 16
1.0
 26
0.0
 36
0.0
 17
0.0
 27
1.0
 37
0.0
 76
     0
330
25
  0
MATERIAL
  5
626
102
{ACAD_XDICTIONARY
360
627
102
}
102
{ACAD_REACTORS
330
61D
102
}
330
61D
100
AcDbMaterial
  1
ByBlock
 72
     0
 43
0.0208333333333333
 43
0.0
 43
0.0
 43
0.0
 43
0.0
 43
0.0208333333333333
 43
0.0
 43
0.0
 43
0.0
 43
0.0
 43
1.0
 43
0.0
 43
0.0
 43
0.0
 43
0.0
 43
1.0
 77
     0
 47
0.0208333333333333
 47
0.0
 47
0.0
 47
0.0
 47
0.0
 47
0.0208333333333333
 47
0.0
 47
0.0
 47
0.0
 47
0.0
 47
1.0
 47
0.0
 47
0.0
 47
0.0
 47
0.0
 47
1.0
171
     0
 49
0.0208333333333333
 49
0.0
 49
0.0
 49
0.0
 49
0.0
 49
0.0208333333333333
 49
0.0
 49
0.0
 49
0.0
 49
0.0
 49
1.0
 49
0.0
 49
0.0
 49
0.0
 49
0.0
 49
1.0
175
     0
142
0.0208333333333333
142
0.0
142
0.0
142
0.0
142
0.0
142
0.0208333333333333
142
0.0
142
0.0
142
0.0
142
0.0
142
1.0
142
0.0
142
0.0
142
0.0
142
0.0
142
1.0
179
     0
144
0.0208333333333333
144
0.0
144
0.0
144
0.0
144
0.0
144
0.0208333333333333
144
0.0
144
0.0
144
0.0
144
0.0
144
1.0
144
0.0
144
0.0
144
0.0
144
0.0
144
1.0
147
0.0208333333333333
147
0.0
147
0.0
147
0.0
147
0.0
147
0.0208333333333333
147
0.0
147
0.0
147
0.0
147
0.0
147
1.0
147
0.0
147
0.0
147
0.0
147
0.0
147
1.0
  0
MATERIAL
  5
61E
102
{ACAD_XDICTIONARY
360
61F
102
}
102
{ACAD_REACTORS
330
61D
102
}
330
61D
100
AcDbMaterial
  1
ByLayer
 72
     0
 43
0.0208333333333333
 43
0.0
 43
0.0
 43
0.0
 43
0.0
 43
0.0208333333333333
 43
0.0
 43
0.0
 43
0.0
 43
0.0
 43
1.0
 43
0.0
 43
0.0
 43
0.0
 43
0.0
 43
1.0
 77
     0
 47
0.0208333333333333
 47
0.0
 47
0.0
 47
0.0
 47
0.0
 47
0.0208333333333333
 47
0.0
 47
0.0
 47
0.0
 47
0.0
 47
1.0
 47
0.0
 47
0.0
 47
0.0
 47
0.0
 47
1.0
171
     0
 49
0.0208333333333333
 49
0.0
 49
0.0
 49
0.0
 49
0.0
 49
0.0208333333333333
 49
0.0
 49
0.0
 49
0.0
 49
0.0
 49
1.0
 49
0.0
 49
0.0
 49
0.0
 49
0.0
 49
1.0
175
     0
142
0.0208333333333333
142
0.0
142
0.0
142
0.0
142
0.0
142
0.0208333333333333
142
0.0
142
0.0
142
0.0
142
0.0
142
1.0
142
0.0
142
0.0
142
0.0
142
0.0
142
1.0
179
     0
144
0.0208333333333333
144
0.0
144
0.0
144
0.0
144
0.0
144
0.0208333333333333
144
0.0
144
0.0
144
0.0
144
0.0
144
1.0
144
0.0
144
0.0
144
0.0
144
0.0
144
1.0
147
0.0208333333333333
147
0.0
147
0.0
147
0.0
147
0.0
147
0.0208333333333333
147
0.0
147
0.0
147
0.0
147
0.0
147
1.0
147
0.0
147
0.0
147
0.0
147
0.0
147
1.0
  0
MATERIAL
  5
62E
102
{ACAD_XDICTIONARY
360
62F
102
}
102
{ACAD_REACTORS
330
61D
102
}
330
61D
100
AcDbMaterial
  1
Global
 72
     0
 43
0.0208333333333333
 43
0.0
 43
0.0
 43
0.0
 43
0.0
 43
0.0208333333333333
 43
0.0
 43
0.0
 43
0.0
 43
0.0
 43
1.0
 43
0.0
 43
0.0
 43
0.0
 43
0.0
 43
1.0
 77
     0
 47
0.0208333333333333
 47
0.0
 47
0.0
 47
0.0
 47
0.0
 47
0.0208333333333333
 47
0.0
 47
0.0
 47
0.0
 47
0.0
 47
1.0
 47
0.0
 47
0.0
 47
0.0
 47
0.0
 47
1.0
171
     0
 49
0.0208333333333333
 49
0.0
 49
0.0
 49
0.0
 49
0.0
 49
0.0208333333333333
 49
0.0
 49
0.0
 49
0.0
 49
0.0
 49
1.0
 49
0.0
 49
0.0
 49
0.0
 49
0.0
 49
1.0
175
     0
142
0.0208333333333333
142
0.0
142
0.0
142
0.0
142
0.0
142
0.0208333333333333
142
0.0
142
0.0
142
0.0
142
0.0
142
1.0
142
0.0
142
0.0
142
0.0
142
0.0
142
1.0
179
     0
144
0.0208333333333333
144
0.0
144
0.0
144
0.0
144
0.0
144
0.0208333333333333
144
0.0
144
0.0
144
0.0
144
0.0
144
1.0
144
0.0
144
0.0
144
0.0
144
0.0
144
1.0
147
0.0208333333333333
147
0.0
147
0.0
147
0.0
147
0.0
147
0.0208333333333333
147
0.0
147
0.0
147
0.0
147
0.0
147
1.0
147
0.0
147
0.0
147
0.0
147
0.0
147
1.0
  0
MLEADERSTYLE
  5
66D
102
{ACAD_REACTORS
330
66C
102
}
330
66C
100
AcDbMLeaderStyle
170
     2
171
     1
172
     0
 90
        2
 40
0.0
 41
0.0
173
     1
 91
-1056964608
340
C
 92
       -2
290
     1
 42
0.09
291
     1
 43
0.36
  3
Standard
 44
0.18
300

342
1D
174
     1
178
     6
175
     1
176
     0
 93
-1056964608
 45
0.18
292
     0
297
     0
 46
0.18
 94
-1056964608
 47
1.0
 49
1.0
140
1.0
293
     1
141
0.0
294
     1
177
     0
142
1.0
295
     0
296
     0
143
0.125
1001
ACAD_MLEADERVER
1070
     2
  0
MLINESTYLE
  5
613
102
{ACAD_REACTORS
330
612
102
}
330
612
100
AcDbMlineStyle
  2
STANDARD
 70
     0
  3

 62
     0
 51
90.0
 52
90.0
 71
     2
 49
0.5
 62
   256
  6
BYLAYER
 49
-0.5
 62
   256
  6
BYLAYER
  0
ACDBPLACEHOLDER
  5
61C
102
{ACAD_REACTORS
330
61B
102
}
330
61B
  0
SCALE
  5
64B
102
{ACAD_REACTORS
330
64A
102
}
330
64A
100
AcDbScale
 70
     0
300
1:1
140
1.0
141
1.0
290
     1
  0
SCALE
  5
64C
102
{ACAD_REACTORS
330
64A
102
}
330
64A
100
AcDbScale
 70
     0
300
1:2
140
1.0
141
2.0
290
     0
  0
SCALE
  5
64D
102
{ACAD_REACTORS
330
64A
102
}
330
64A
100
AcDbScale
 70
     0
300
1:4
140
1.0
141
4.0
290
     0
  0
SCALE
  5
64E
102
{ACAD_REACTORS
330
64A
102
}
330
64A
100
AcDbScale
 70
     0
300
1:5
140
1.0
141
5.0
290
     0
  0
SCALE
  5
64F
102
{ACAD_REACTORS
330
64A
102
}
330
64A
100
AcDbScale
 70
     0
300
1:8
140
1.0
141
8.0
290
     0
  0
SCALE
  5
650
102
{ACAD_REACTORS
330
64A
102
}
330
64A
100
AcDbScale
 70
     0
300
1:10
140
1.0
141
10.0
290
     0
  0
SCALE
  5
651
102
{ACAD_REACTORS
330
64A
102
}
330
64A
100
AcDbScale
 70
     0
300
1:16
140
1.0
141
16.0
290
     0
  0
SCALE
  5
652
102
{ACAD_REACTORS
330
64A
102
}
330
64A
100
AcDbScale
 70
     0
300
1:20
140
1.0
141
20.0
290
     0
  0
SCALE
  5
653
102
{ACAD_REACTORS
330
64A
102
}
330
64A
100
AcDbScale
 70
     0
300
1:30
140
1.0
141
30.0
290
     0
  0
SCALE
  5
654
102
{ACAD_REACTORS
330
64A
102
}
330
64A
100
AcDbScale
 70
     0
300
1:40
140
1.0
141
40.0
290
     0
  0
SCALE
  5
655
102
{ACAD_REACTORS
330
64A
102
}
330
64A
100
AcDbScale
 70
     0
300
1:50
140
1.0
141
50.0
290
     0
  0
SCALE
  5
656
102
{ACAD_REACTORS
330
64A
102
}
330
64A
100
AcDbScale
 70
     0
300
1:100
140
1.0
141
100.0
290
     0
  0
SCALE
  5
657
102
{ACAD_REACTORS
330
64A
102
}
330
64A
100
AcDbScale
 70
     0
300
2:1
140
2.0
141
1.0
290
     0
  0
SCALE
  5
658
102
{ACAD_REACTORS
330
64A
102
}
330
64A
100
AcDbScale
 70
     0
300
4:1
140
4.0
141
1.0
290
     0
  0
SCALE
  5
659
102
{ACAD_REACTORS
330
64A
102
}
330
64A
100
AcDbScale
 70
     0
300
8:1
140
8.0
141
1.0
290
     0
  0
SCALE
  5
65A
102
{ACAD_REACTORS
330
64A
102
}
330
64A
100
AcDbScale
 70
     0
300
10:1
140
10.0
141
1.0
290
     0
  0
SCALE
  5
65B
102
{ACAD_REACTORS
330
64A
102
}
330
64A
100
AcDbScale
 70
     0
300
100:1
140
100.0
141
1.0
290
     0
  0
SCALE
  5
65C
102
{ACAD_REACTORS
330
64A
102
}
330
64A
100
AcDbScale
 70
     0
300
1/128" = 1'-0"
140
0.0078125
141
12.0
290
     0
  0
SCALE
  5
65D
102
{ACAD_REACTORS
330
64A
102
}
330
64A
100
AcDbScale
 70
     0
300
1/64" = 1'-0"
140
0.015625
141
12.0
290
     0
  0
SCALE
  5
65E
102
{ACAD_REACTORS
330
64A
102
}
330
64A
100
AcDbScale
 70
     0
300
1/32" = 1'-0"
140
0.03125
141
12.0
290
     0
  0
SCALE
  5
65F
102
{ACAD_REACTORS
330
64A
102
}
330
64A
100
AcDbScale
 70
     0
300
1/16" = 1'-0"
140
0.0625
141
12.0
290
     0
  0
SCALE
  5
660
102
{ACAD_REACTORS
330
64A
102
}
330
64A
100
AcDbScale
 70
     0
300
3/32" = 1'-0"
140
0.09375
141
12.0
290
     0
  0
SCALE
  5
661
102
{ACAD_REACTORS
330
64A
102
}
330
64A
100
AcDbScale
 70
     0
300
1/8" = 1'-0"
140
0.125
141
12.0
290
     0
  0
SCALE
  5
662
102
{ACAD_REACTORS
330
64A
102
}
330
64A
100
AcDbScale
 70
     0
300
3/16" = 1'-0"
140
0.1875
141
12.0
290
     0
  0
SCALE
  5
663
102
{ACAD_REACTORS
330
64A
102
}
330
64A
100
AcDbScale
 70
     0
300
1/4" = 1'-0"
140
0.25
141
12.0
290
     0
  0
SCALE
  5
664
102
{ACAD_REACTORS
330
64A
102
}
330
64A
100
AcDbScale
 70
     0
300
3/8" = 1'-0"
140
0.375
141
12.0
290
     0
  0
SCALE
  5
665
102
{ACAD_REACTORS
330
64A
102
}
330
64A
100
AcDbScale
 70
     0
300
1/2" = 1'-0"
140
0.5
141
12.0
290
     0
  0
SCALE
  5
666
102
{ACAD_REACTORS
330
64A
102
}
330
64A
100
AcDbScale
 70
     0
300
3/4" = 1'-0"
140
0.75
141
12.0
290
     0
  0
SCALE
  5
667
102
{ACAD_REACTORS
330
64A
102
}
330
64A
100
AcDbScale
 70
     0
300
1" = 1'-0"
140
1.0
141
12.0
290
     0
  0
SCALE
  5
668
102
{ACAD_REACTORS
330
64A
102
}
330
64A
100
AcDbScale
 70
     0
300
1-1/2" = 1'-0"
140
1.5
141
12.0
290
     0
  0
SCALE
  5
669
102
{ACAD_REACTORS
330
64A
102
}
330
64A
100
AcDbScale
 70
     0
300
3" = 1'-0"
140
3.0
141
12.0
290
     0
  0
SCALE
  5
66A
102
{ACAD_REACTORS
330
64A
102
}
330
64A
100
AcDbScale
 70
     0
300
6" = 1'-0"
140
6.0
141
12.0
290
     0
  0
SCALE
  5
66B
102
{ACAD_REACTORS
330
64A
102
}
330
64A
100
AcDbScale
 70
     0
300
1'-0" = 1'-0"
140
12.0
141
12.0
290
     0
  0
TABLESTYLE
  5
649
102
{ACAD_XDICTIONARY
360
688
102
}
102
{ACAD_REACTORS
330
648
102
}
330
648
100
AcDbTableStyle
  3
Standard
 70
     0
 71
     0
 40
0.06
 41
0.06
280
     0
281
     0
  7
STANDARD
140
0.18
170
     2
 62
     0
 63
     7
283
     0
274
    -2
284
     1
 64
     0
275
    -2
285
     1
 65
     0
276
    -2
286
     1
 66
     0
277
    -2
287
     1
 67
     0
278
    -2
288
     1
 68
     0
279
    -2
289
     1
 69
     0
  7
STANDARD
140
0.25
170
     5
 62
     0
 63
     7
283
     0
274
    -2
284
     1
 64
     0
275
    -2
285
     1
 65
     0
276
    -2
286
     1
 66
     0
277
    -2
287
     1
 67
     0
278
    -2
288
     1
 68
     0
279
    -2
289
     1
 69
     0
  7
STANDARD
140
0.18
170
     5
 62
     0
 63
     7
283
     0
274
    -2
284
     1
 64
     0
275
    -2
285
     1
 65
     0
276
    -2
286
     1
 66
     0
277
    -2
287
     1
 67
     0
278
    -2
288
     1
 68
     0
279
    -2
289
     1
 69
     0
  0
VISUALSTYLE
  5
63C
102
{ACAD_REACTORS
330
636
102
}
330
636
100
AcDbVisualStyle
  2
2dWireframe
 70
     4
 71
     0
 72
     2
 73
     0
 90
        0
 40
-0.6
 41
-30.0
 62
     5
 63
     7
 74
     1
 91
        4
 64
     7
 65
   257
 75
     1
175
     1
 42
1.0
 92
        0
 66
   257
 43
1.0
 76
     1
 77
     6
 78
     2
 67
     7
 79
     5
170
     0
171
     0
290
     0
174
     0
 93
        1
 44
0.0
173
     0
291
     0
 45
0.0
1001
ACAD
1000
AcDbSavedByObjectVersion
1070
     0
  0
VISUALSTYLE
  5
63E
102
{ACAD_REACTORS
330
636
102
}
330
636
100
AcDbVisualStyle
  2
3D Hidden
 70
     6
 71
     1
 72
     2
 73
     2
 90
        0
 40
-0.6
 41
-30.0
 62
     5
 63
     7
 74
     2
 91
        2
 64
     7
 65
   257
 75
     2
175
     1
 42
40.0
 92
        0
 66
   257
 43
1.0
 76
     1
 77
     6
 78
     2
 67
     7
 79
     3
170
     0
171
     0
290
     0
174
     0
 93
        1
 44
0.0
173
     0
291
     0
 45
0.0
1001
ACAD
1000
AcDbSavedByObjectVersion
1070
     0
  0
VISUALSTYLE
  5
63D
102
{ACAD_REACTORS
330
636
102
}
330
636
100
AcDbVisualStyle
  2
3dWireframe
 70
     5
 71
     0
 72
     2
 73
     0
 90
        0
 40
-0.6
 41
-30.0
 62
     5
 63
     7
 74
     1
 91
        4
 64
     7
 65
   257
 75
     1
175
     1
 42
1.0
 92
        0
 66
   257
 43
1.0
 76
     1
 77
     6
 78
     2
 67
     7
 79
     5
170
     0
171
     0
290
     0
174
     0
 93
        1
 44
0.0
173
     0
291
     0
 45
0.0
1001
ACAD
1000
AcDbSavedByObjectVersion
1070
     0
  0
VISUALSTYLE
  5
63B
102
{ACAD_REACTORS
330
636
102
}
330
636
100
AcDbVisualStyle
  2
Basic
 70
     7
 71
     1
 72
     0
 73
     1
 90
        0
 40
-0.6
 41
-30.0
 62
     5
 63
     7
 74
     0
 91
        4
 64
     7
 65
   257
 75
     1
175
     1
 42
1.0
 92
        8
 66
     7
 43
1.0
 76
     1
 77
     6
 78
     2
 67
     7
 79
     5
170
     0
171
     0
290
     0
174
     0
 93
        1
 44
0.0
173
     0
291
     1
 45
0.0
1001
ACAD
1000
AcDbSavedByObjectVersion
1070
     0
  0
VISUALSTYLE
  5
642
102
{ACAD_REACTORS
330
636
102
}
330
636
100
AcDbVisualStyle
  2
Brighten
 70
    12
 71
     2
 72
     2
 73
     0
 90
        0
 40
-0.6
 41
-30.0
 62
     5
 63
     7
 74
     1
 91
        4
 64
     7
 65
   257
 75
     1
175
     1
 42
1.0
 92
        8
 66
     7
 43
1.0
 76
     1
 77
     6
 78
     2
 67
     7
 79
     5
170
     0
171
     0
290
     0
174
     0
 93
        1
 44
50.0
173
     0
291
     1
 45
0.0
1001
ACAD
1000
AcDbSavedByObjectVersion
1070
     0
  0
VISUALSTYLE
  5
646
102
{ACAD_REACTORS
330
636
102
}
330
636
100
AcDbVisualStyle
  2
ColorChange
 70
    16
 71
     2
 72
     2
 73
     3
 90
        0
 40
-0.6
 41
-30.0
 62
     5
 63
     8
 74
     1
 91
        4
 64
     7
 65
   257
 75
     1
175
     1
 42
1.0
 92
        8
 66
     8
 43
1.0
 76
     1
 77
     6
 78
     2
 67
     7
 79
     5
170
     0
171
     0
290
     0
174
     0
 93
        1
 44
0.0
173
     0
291
     1
 45
0.0
1001
ACAD
1000
AcDbSavedByObjectVersion
1070
     0
  0
VISUALSTYLE
  5
63F
102
{ACAD_REACTORS
330
636
102
}
330
636
100
AcDbVisualStyle
  2
Conceptual
 70
     9
 71
     3
 72
     2
 73
     0
 90
        0
 40
-0.6
 41
-30.0
 62
     5
 63
     7
 74
     2
 91
        2
 64
     7
 65
   257
 75
     1
175
     1
 42
40.0
 92
        8
 66
     7
 43
1.0
 76
     1
 77
     6
 78
     2
 67
     7
 79
     3
170
     0
171
     0
290
     0
174
     0
 93
        1
 44
0.0
173
     0
291
     0
 45
0.0
1001
ACAD
1000
AcDbSavedByObjectVersion
1070
     0
  0
VISUALSTYLE
  5
641
102
{ACAD_REACTORS
330
636
102
}
330
636
100
AcDbVisualStyle
  2
Dim
 70
    11
 71
     2
 72
     2
 73
     0
 90
        0
 40
-0.6
 41
-30.0
 62
     5
 63
     7
 74
     1
 91
        4
 64
     7
 65
   257
 75
     1
175
     1
 42
1.0
 92
        8
 66
     7
 43
1.0
 76
     1
 77
     6
 78
     2
 67
     7
 79
     5
170
     0
171
     0
290
     0
174
     0
 93
        1
 44
-50.0
173
     0
291
     1
 45
0.0
1001
ACAD
1000
AcDbSavedByObjectVersion
1070
     0
  0
VISUALSTYLE
  5
645
102
{ACAD_REACTORS
330
636
102
}
330
636
100
AcDbVisualStyle
  2
Facepattern
 70
    15
 71
     2
 72
     2
 73
     0
 90
        0
 40
-0.6
 41
-30.0
 62
     5
 63
     7
 74
     1
 91
        4
 64
     7
 65
   257
 75
     1
175
     1
 42
1.0
 92
        8
 66
     7
 43
1.0
 76
     1
 77
     6
 78
     2
 67
     7
 79
     5
170
     0
171
     0
290
     0
174
     0
 93
        1
 44
0.0
173
     0
291
     1
 45
0.0
1001
ACAD
1000
AcDbSavedByObjectVersion
1070
     0
  0
VISUALSTYLE
  5
637
102
{ACAD_REACTORS
330
636
102
}
330
636
100
AcDbVisualStyle
  2
Flat
 70
     0
 71
     2
 72
     1
 73
     1
 90
        2
 40
-0.6
 41
30.0
 62
     5
 63
     7
 74
     0
 91
        4
 64
     7
 65
   257
 75
     1
175
     1
 42
1.0
 92
        8
 66
     7
 43
1.0
 76
     1
 77
     6
 78
     2
 67
     7
 79
     5
170
     0
171
     0
290
     0
174
     0
 93
       13
 44
0.0
173
     0
291
     1
 45
0.0
1001
ACAD
1000
AcDbSavedByObjectVersion
1070
     0
  0
VISUALSTYLE
  5
638
102
{ACAD_REACTORS
330
636
102
}
330
636
100
AcDbVisualStyle
  2
FlatWithEdges
 70
     1
 71
     2
 72
     1
 73
     1
 90
        2
 40
-0.6
 41
30.0
 62
     5
 63
     7
 74
     1
 91
        4
 64
     7
 65
   257
 75
     1
175
     1
 42
1.0
 92
        0
 66
   257
 43
1.0
 76
     1
 77
     6
 78
     2
 67
     7
 79
     5
170
     0
171
     0
290
     0
174
     0
 93
       13
 44
0.0
173
     0
291
     1
 45
0.0
1001
ACAD
1000
AcDbSavedByObjectVersion
1070
     0
  0
VISUALSTYLE
  5
639
102
{ACAD_REACTORS
330
636
102
}
330
636
100
AcDbVisualStyle
  2
Gouraud
 70
     2
 71
     2
 72
     2
 73
     1
 90
        2
 40
-0.6
 41
30.0
 62
     5
 63
     7
 74
     0
 91
        4
 64
     7
 65
   257
 75
     1
175
     1
 42
1.0
 92
        0
 66
     7
 43
1.0
 76
     1
 77
     6
 78
     2
 67
     7
 79
     5
170
     0
171
     0
290
     0
174
     0
 93
       13
 44
0.0
173
     0
291
     1
 45
0.0
1001
ACAD
1000
AcDbSavedByObjectVersion
1070
     0
  0
VISUALSTYLE
  5
63A
102
{ACAD_REACTORS
330
636
102
}
330
636
100
AcDbVisualStyle
  2
GouraudWithEdges
 70
     3
 71
     2
 72
     2
 73
     1
 90
        2
 40
-0.6
 41
30.0
 62
     5
 63
     7
 74
     1
 91
        4
 64
     7
 65
   257
 75
     1
175
     1
 42
1.0
 92
        0
 66
   257
 43
1.0
 76
     1
 77
     6
 78
     2
 67
     7
 79
     5
170
     0
171
     0
290
     0
174
     0
 93
       13
 44
0.0
173
     0
291
     1
 45
0.0
1001
ACAD
1000
AcDbSavedByObjectVersion
1070
     0
  0
VISUALSTYLE
  5
644
102
{ACAD_REACTORS
330
636
102
}
330
636
100
AcDbVisualStyle
  2
Linepattern
 70
    14
 71
     2
 72
     2
 73
     0
 90
        0
 40
-0.6
 41
-30.0
 62
     5
 63
     7
 74
     1
 91
        4
 64
     7
 65
   257
 75
     7
175
     7
 42
1.0
 92
        8
 66
     7
 43
1.0
 76
     1
 77
     6
 78
     2
 67
     7
 79
     5
170
     0
171
     0
290
     0
174
     0
 93
        1
 44
0.0
173
     0
291
     1
 45
0.0
1001
ACAD
1000
AcDbSavedByObjectVersion
1070
     0
  0
VISUALSTYLE
  5
640
102
{ACAD_REACTORS
330
636
102
}
330
636
100
AcDbVisualStyle
  2
Realistic
 70
     8
 71
     2
 72
     2
 73
     0
 90
        0
 40
-0.6
 41
-30.0
 62
     5
 63
     7
 74
     1
 91
        0
 64
     7
 65
   257
 75
     1
175
     1
 42
1.0
 92
        8
 66
     8
 43
1.0
 76
     1
 77
     6
 78
     2
 67
     7
 79
     5
170
     0
171
     0
290
     0
174
     0
 93
       13
 44
0.0
173
     0
291
     0
 45
0.0
1001
ACAD
1000
AcDbSavedByObjectVersion
1070
     0
  0
VISUALSTYLE
  5
643
102
{ACAD_REACTORS
330
636
102
}
330
636
100
AcDbVisualStyle
  2
Thicken
 70
    13
 71
     2
 72
     2
 73
     0
 90
        0
 40
-0.6
 41
-30.0
 62
     5
 63
     7
 74
     1
 91
        4
 64
     7
 65
   257
 75
     1
175
     1
 42
1.0
 92
       12
 66
     7
 43
1.0
 76
     1
 77
     6
 78
     2
 67
     7
 79
     5
170
     0
171
     0
290
     0
174
     0
 93
        1
 44
0.0
173
     0
291
     1
 45
0.0
1001
ACAD
1000
AcDbSavedByObjectVersion
1070
     0
  0
DICTIONARYVAR
  5
684
102
{ACAD_REACTORS
330
681
102
}
330
681
100
DictionaryVariables
280
     0
  1
1:1
  0
DICTIONARYVAR
  5
683
102
{ACAD_REACTORS
330
681
102
}
330
681
100
DictionaryVariables
280
     0
  1
STANDARD
  0
DICTIONARYVAR
  5
682
102
{ACAD_REACTORS
330
681
102
}
330
681
100
DictionaryVariables
280
     0
  1
STANDARD
  0
DICTIONARYVAR
  5
687
102
{ACAD_REACTORS
330
681
102
}
330
681
100
DictionaryVariables
280
     0
  1
1
  0
DICTIONARYVAR
  5
686
102
{ACAD_REACTORS
330
681
102
}
330
681
100
DictionaryVariables
280
     0
  1
0
  0
DICTIONARYVAR
  5
685
102
{ACAD_REACTORS
330
681
102
}
330
681
100
DictionaryVariables
280
     0
  1
127
  0
DICTIONARY
  5
690
330
671
100
AcDbDictionary
280
     1
281
     1
  3
ACAD_XREC_ROUNDTRIP
360
691
  0
DICTIONARY
  5
692
330
672
100
AcDbDictionary
280
     1
281
     1
  3
ACAD_XREC_ROUNDTRIP
360
693
  0
DICTIONARY
  5
627
330
626
100
AcDbDictionary
280
     1
281
     1
  3
ACAD_XREC_ROUNDTRIP
360
68D
  3
BUMPTILE
360
629
  3
DIFFUSETILE
360
628
  3
OPACITYTILE
360
62C
  3
REFLECTIONTILE
360
62B
  3
REFRACTIONTILE
360
62D
  3
SPECULARTILE
360
62A
  0
DICTIONARY
  5
61F
330
61E
100
AcDbDictionary
280
     1
281
     1
  3
ACAD_XREC_ROUNDTRIP
360
68C
  3
BUMPTILE
360
621
  3
DIFFUSETILE
360
620
  3
OPACITYTILE
360
624
  3
REFLECTIONTILE
360
623
  3
REFRACTIONTILE
360
625
  3
SPECULARTILE
360
622
  0
DICTIONARY
  5
62F
330
62E
100
AcDbDictionary
280
     1
281
     1
  3
ACAD_XREC_ROUNDTRIP
360
68E
  3
BUMPTILE
360
631
  3
DIFFUSETILE
360
630
  3
OPACITYTILE
360
634
  3
REFLECTIONTILE
360
633
  3
REFRACTIONTILE
360
635
  3
SPECULARTILE
360
632
  0
DICTIONARY
  5
688
330
649
100
AcDbDictionary
280
     1
281
     1
  3
ACAD_ROUNDTRIP_2008_TABLESTYLE_CELLSTYLEMAP
360
689
  3
ACAD_XREC_ROUNDTRIP
360
68F
  0
XRECORD
  5
691
102
{ACAD_REACTORS
330
690
102
}
330
690
100
AcDbXrecord
280
     1
102
SHADEPLOT
 70
     0
102
SHADEPLOTRESLEVEL
 70
     2
102
SHADEPLOTCUSTOMDPI
 70
   300
  0
XRECORD
  5
693
102
{ACAD_REACTORS
330
692
102
}
330
692
100
AcDbXrecord
280
     1
102
SHADEPLOT
 70
     0
102
SHADEPLOTRESLEVEL
 70
     2
102
SHADEPLOTCUSTOMDPI
 70
   300
  0
XRECORD
  5
68D
102
{ACAD_REACTORS
330
627
102
}
330
627
100
AcDbXrecord
280
     1
102
MATERIAL
148
0.0
149
0.0
149
0.0
 93
        0
 94
      127
282
     0
 72
     0
 77
     0
171
     0
175
     0
179
     0
273
     0
  0
XRECORD
  5
629
102
{ACAD_REACTORS
330
627
102
}
330
627
100
AcDbXrecord
280
     1
270
     1
271
     1
  0
XRECORD
  5
628
102
{ACAD_REACTORS
330
627
102
}
330
627
100
AcDbXrecord
280
     1
270
     1
271
     1
  0
XRECORD
  5
62C
102
{ACAD_REACTORS
330
627
102
}
330
627
100
AcDbXrecord
280
     1
270
     1
271
     1
  0
XRECORD
  5
62B
102
{ACAD_REACTORS
330
627
102
}
330
627
100
AcDbXrecord
280
     1
270
     1
271
     1
  0
XRECORD
  5
62D
102
{ACAD_REACTORS
330
627
102
}
330
627
100
AcDbXrecord
280
     1
270
     1
271
     1
  0
XRECORD
  5
62A
102
{ACAD_REACTORS
330
627
102
}
330
627
100
AcDbXrecord
280
     1
270
     1
271
     1
  0
XRECORD
  5
68C
102
{ACAD_REACTORS
330
61F
102
}
330
61F
100
AcDbXrecord
280
     1
102
MATERIAL
148
0.0
149
0.0
149
0.0
 93
        0
 94
      127
282
     0
 72
     0
 77
     0
171
     0
175
     0
179
     0
273
     0
  0
XRECORD
  5
621
102
{ACAD_REACTORS
330
61F
102
}
330
61F
100
AcDbXrecord
280
     1
270
     1
271
     1
  0
XRECORD
  5
620
102
{ACAD_REACTORS
330
61F
102
}
330
61F
100
AcDbXrecord
280
     1
270
     1
271
     1
  0
XRECORD
  5
624
102
{ACAD_REACTORS
330
61F
102
}
330
61F
100
AcDbXrecord
280
     1
270
     1
271
     1
  0
XRECORD
  5
623
102
{ACAD_REACTORS
330
61F
102
}
330
61F
100
AcDbXrecord
280
     1
270
     1
271
     1
  0
XRECORD
  5
625
102
{ACAD_REACTORS
330
61F
102
}
330
61F
100
AcDbXrecord
280
     1
270
     1
271
     1
  0
XRECORD
  5
622
102
{ACAD_REACTORS
330
61F
102
}
330
61F
100
AcDbXrecord
280
     1
270
     1
271
     1
  0
XRECORD
  5
68E
102
{ACAD_REACTORS
330
62F
102
}
330
62F
100
AcDbXrecord
280
     1
102
MATERIAL
148
0.0
149
0.0
149
0.0
 93
        0
 94
      127
282
     0
 72
     0
 77
     0
171
     0
175
     0
179
     0
273
     0
  0
XRECORD
  5
631
102
{ACAD_REACTORS
330
62F
102
}
330
62F
100
AcDbXrecord
280
     1
270
     1
271
     1
  0
XRECORD
  5
630
102
{ACAD_REACTORS
330
62F
102
}
330
62F
100
AcDbXrecord
280
     1
270
     1
271
     1
  0
XRECORD
  5
634
102
{ACAD_REACTORS
330
62F
102
}
330
62F
100
AcDbXrecord
280
     1
270
     1
271
     1
  0
XRECORD
  5
633
102
{ACAD_REACTORS
330
62F
102
}
330
62F
100
AcDbXrecord
280
     1
270
     1
271
     1
  0
XRECORD
  5
635
102
{ACAD_REACTORS
330
62F
102
}
330
62F
100
AcDbXrecord
280
     1
270
     1
271
     1
  0
XRECORD
  5
632
102
{ACAD_REACTORS
330
62F
102
}
330
62F
100
AcDbXrecord
280
     1
270
     1
271
     1
  0
CELLSTYLEMAP
  5
689
102
{ACAD_REACTORS
330
688
102
}
330
688
100
AcDbCellStyleMap
 90
        3
300
CELLSTYLE
  1
TABLEFORMAT_BEGIN
 90
        5
170
     1
 91
        0
 92
    32768
 62
   257
 93
        1
300
CONTENTFORMAT
  1
CONTENTFORMAT_BEGIN
 90
        0
 91
        0
 92
      512
 93
        0
300

 40
0.0
140
1.0
 94
        5
 62
     0
340
1D
144
0.25
309
CONTENTFORMAT_END
171
     0
 94
        0
309
TABLEFORMAT_END
  1
CELLSTYLE_BEGIN
 90
        1
 91
        1
300
_TITLE
309
CELLSTYLE_END
300
CELLSTYLE
  1
TABLEFORMAT_BEGIN
 90
        5
170
     1
 91
        0
 92
        0
 62
   257
 93
        1
300
CONTENTFORMAT
  1
CONTENTFORMAT_BEGIN
 90
        0
 91
        0
 92
      512
 93
        0
300

 40
0.0
140
1.0
 94
        5
 62
     0
340
1D
144
0.18
309
CONTENTFORMAT_END
171
     0
 94
        0
309
TABLEFORMAT_END
  1
CELLSTYLE_BEGIN
 90
        2
 91
        1
300
_HEADER
309
CELLSTYLE_END
300
CELLSTYLE
  1
TABLEFORMAT_BEGIN
 90
        5
170
     1
 91
        0
 92
        0
 62
   257
 93
        1
300
CONTENTFORMAT
  1
CONTENTFORMAT_BEGIN
 90
        0
 91
        0
 92
      512
 93
        0
300

 40
0.0
140
1.0
 94
        2
 62
     0
340
1D
144
0.18
309
CONTENTFORMAT_END
171
     0
 94
        0
309
TABLEFORMAT_END
  1
CELLSTYLE_BEGIN
 90
        3
 91
        2
300
_DATA
309
CELLSTYLE_END
  0
XRECORD
  5
68F
102
{ACAD_REACTORS
330
688
102
}
330
688
100
AcDbXrecord
280
     1
102
ACAD_ROUNDTRIP_PRE2007_TABLESTYLE
 90
      512
 91
        0
  1

 92
      512
 93
        0
  2

 94
      512
 95
        0
  3

  0
ENDSEC
  0
EOF
