  0
SECTION
  2
HEADER
  9
$ACADVER
  1
AC1015
  9
$ACADMAINTVER
 70
    20
  9
$DWGCODEPAGE
  3
ANSI_932
  9
$INSBASE
 10
0.0
 20
0.0
 30
0.0
  9
$EXTMIN
 10
-540.0
 20
-415.5
 30
0.0
  9
$EXTMAX
 10
610.21734
 20
396.0
 30
0.0
  9
$LIMMIN
 10
-630.0
 20
-445.5
  9
$LIMMAX
 10
630.0
 20
445.5
  9
$ORTHOMODE
 70
     1
  9
$REGENMODE
 70
     1
  9
$FILLMODE
 70
     1
  9
$QTEXTMODE
 70
     0
  9
$MIRRTEXT
 70
     1
  9
$LTSCALE
 40
1.0
  9
$ATTMODE
 70
     1
  9
$TEXTSIZE
 40
1.0
  9
$TRACEWID
 40
0.05
  9
$TEXTSTYLE
  7
STANDARD
  9
$CLAYER
  8
0
  9
$CELTYPE
  6
CONTINUOUS
  9
$CECOLOR
 62
   256
  9
$CELTSCALE
 40
1.0
  9
$DISPSILH
 70
     0
  9
$DIMSCALE
 40
3.0
  9
$DIMASZ
 40
0.18
  9
$DIMEXO
 40
0.0625
  9
$DIMDLI
 40
0.38
  9
$DIMRND
 40
0.0
  9
$DIMDLE
 40
0.0
  9
$DIMEXE
 40
0.18
  9
$DIMTP
 40
0.0
  9
$DIMTM
 40
0.0
  9
$DIMTXT
 40
0.18
  9
$DIMCEN
 40
0.09
  9
$DIMTSZ
 40
0.0
  9
$DIMTOL
 70
     0
  9
$DIMLIM
 70
     0
  9
$DIMTIH
 70
     1
  9
$DIMTOH
 70
     1
  9
$DIMSE1
 70
     0
  9
$DIMSE2
 70
     0
  9
$DIMTAD
 70
     1
  9
$DIMZIN
 70
     0
  9
$DIMBLK
  1

  9
$DIMASO
 70
     1
  9
$DIMSHO
 70
     1
  9
$DIMPOST
  1

  9
$DIMAPOST
  1

  9
$DIMALT
 70
     0
  9
$DIMALTD
 70
     2
  9
$DIMALTF
 40
25.4
  9
$DIMLFAC
 40
1.0
  9
$DIMTOFL
 70
     0
  9
$DIMTVP
 40
0.0
  9
$DIMTIX
 70
     0
  9
$DIMSOXD
 70
     0
  9
$DIMSAH
 70
     0
  9
$DIMBLK1
  1

  9
$DIMBLK2
  1

  9
$DIMSTYLE
  2
STANDARD
  9
$DIMCLRD
 70
     0
  9
$DIMCLRE
 70
     0
  9
$DIMCLRT
 70
     0
  9
$DIMTFAC
 40
1.0
  9
$DIMGAP
 40
0.09
  9
$DIMJUST
 70
     0
  9
$DIMSD1
 70
     0
  9
$DIMSD2
 70
     0
  9
$DIMTOLJ
 70
     1
  9
$DIMTZIN
 70
     0
  9
$DIMALTZ
 70
     0
  9
$DIMALTTZ
 70
     0
  9
$DIMUPT
 70
     0
  9
$DIMDEC
 70
     4
  9
$DIMTDEC
 70
     4
  9
$DIMALTU
 70
     2
  9
$DIMALTTD
 70
     2
  9
$DIMTXSTY
  7
STANDARD
  9
$DIMAUNIT
 70
     0
  9
$DIMADEC
 70
     0
  9
$DIMALTRND
 40
0.0
  9
$DIMAZIN
 70
     0
  9
$DIMDSEP
 70
    46
  9
$DIMATFIT
 70
     3
  9
$DIMFRAC
 70
     0
  9
$DIMLDRBLK
  1

  9
$DIMLUNIT
 70
     2
  9
$DIMLWD
 70
    -2
  9
$DIMLWE
 70
    -2
  9
$DIMTMOVE
 70
     0
  9
$LUNITS
 70
     2
  9
$LUPREC
 70
     4
  9
$SKETCHINC
 40
0.1
  9
$FILLETRAD
 40
0.0
  9
$AUNITS
 70
     0
  9
$AUPREC
 70
     0
  9
$MENU
  1
acad
  9
$ELEVATION
 40
0.0
  9
$PELEVATION
 40
0.0
  9
$THICKNESS
 40
0.0
  9
$LIMCHECK
 70
     0
  9
$CHAMFERA
 40
0.0
  9
$CHAMFERB
 40
0.0
  9
$CHAMFERC
 40
0.0
  9
$CHAMFERD
 40
0.0
  9
$SKPOLY
 70
     0
  9
$TDCREATE
 40
2450695.000000000
  9
$TDUCREATE
 40
2450694.625000000
  9
$TDUPDATE
 40
2454943.646210510
  9
$TDUUPDATE
 40
2454943.271210510
  9
$TDINDWG
 40
0.0020720370
  9
$TDUSRTIMER
 40
0.0020720370
  9
$USRTIMER
 70
     1
  9
$ANGBASE
 50
0.0
  9
$ANGDIR
 70
     0
  9
$PDMODE
 70
     0
  9
$PDSIZE
 40
0.0
  9
$PLINEWID
 40
0.0
  9
$SPLFRAME
 70
     0
  9
$SPLINETYPE
 70
     6
  9
$SPLINESEGS
 70
     8
  9
$HANDSEED
  5
6B6
  9
$SURFTAB1
 70
     6
  9
$SURFTAB2
 70
     6
  9
$SURFTYPE
 70
     6
  9
$SURFU
 70
     6
  9
$SURFV
 70
     6
  9
$UCSBASE
  2

  9
$UCSNAME
  2

  9
$UCSORG
 10
0.0
 20
0.0
 30
0.0
  9
$UCSXDIR
 10
1.0
 20
0.0
 30
0.0
  9
$UCSYDIR
 10
0.0
 20
1.0
 30
0.0
  9
$UCSORTHOREF
  2

  9
$UCSORTHOVIEW
 70
     0
  9
$UCSORGTOP
 10
0.0
 20
0.0
 30
0.0
  9
$UCSORGBOTTOM
 10
0.0
 20
0.0
 30
0.0
  9
$UCSORGLEFT
 10
0.0
 20
0.0
 30
0.0
  9
$UCSORGRIGHT
 10
0.0
 20
0.0
 30
0.0
  9
$UCSORGFRONT
 10
0.0
 20
0.0
 30
0.0
  9
$UCSORGBACK
 10
0.0
 20
0.0
 30
0.0
  9
$PUCSBASE
  2

  9
$PUCSNAME
  2

  9
$PUCSORG
 10
0.0
 20
0.0
 30
0.0
  9
$PUCSXDIR
 10
1.0
 20
0.0
 30
0.0
  9
$PUCSYDIR
 10
0.0
 20
1.0
 30
0.0
  9
$PUCSORTHOREF
  2

  9
$PUCSORTHOVIEW
 70
     0
  9
$PUCSORGTOP
 10
0.0
 20
0.0
 30
0.0
  9
$PUCSORGBOTTOM
 10
0.0
 20
0.0
 30
0.0
  9
$PUCSORGLEFT
 10
0.0
 20
0.0
 30
0.0
  9
$PUCSORGRIGHT
 10
0.0
 20
0.0
 30
0.0
  9
$PUCSORGFRONT
 10
0.0
 20
0.0
 30
0.0
  9
$PUCSORGBACK
 10
0.0
 20
0.0
 30
0.0
  9
$USERI1
 70
     0
  9
$USERI2
 70
     0
  9
$USERI3
 70
     0
  9
$USERI4
 70
     0
  9
$USERI5
 70
     0
  9
$USERR1
 40
0.0
  9
$USERR2
 40
0.0
  9
$USERR3
 40
0.0
  9
$USERR4
 40
0.0
  9
$USERR5
 40
0.0
  9
$WORLDVIEW
 70
     1
  9
$SHADEDGE
 70
     3
  9
$SHADEDIF
 70
    70
  9
$TILEMODE
 70
     1
  9
$MAXACTVP
 70
    16
  9
$PINSBASE
 10
0.0
 20
0.0
 30
0.0
  9
$PLIMCHECK
 70
     0
  9
$PEXTMIN
 10
1.000000000000000E+20
 20
1.000000000000000E+20
 30
1.000000000000000E+20
  9
$PEXTMAX
 10
-1.000000000000000E+20
 20
-1.000000000000000E+20
 30
-1.000000000000000E+20
  9
$PLIMMIN
 10
0.0
 20
0.0
  9
$PLIMMAX
 10
12.0
 20
9.0
  9
$UNITMODE
 70
     0
  9
$VISRETAIN
 70
     0
  9
$PLINEGEN
 70
     1
  9
$PSLTSCALE
 70
     0
  9
$TREEDEPTH
 70
  3020
  9
$CMLSTYLE
  2
STANDARD
  9
$CMLJUST
 70
     0
  9
$CMLSCALE
 40
1.0
  9
$PROXYGRAPHICS
 70
     1
  9
$MEASUREMENT
 70
     0
  9
$CELWEIGHT
370
    -1
  9
$ENDCAPS
280
     0
  9
$JOINSTYLE
280
     0
  9
$LWDISPLAY
290
     0
  9
$INSUNITS
 70
     0
  9
$HYPERLINKBASE
  1

  9
$STYLESHEET
  1

  9
$XEDIT
290
     1
  9
$CEPSNTYPE
380
     0
  9
$PSTYLEMODE
290
     1
  9
$FINGERPRINTGUID
  2
{30A0E25E-7EF8-41AF-840F-9C55A11CF476}
  9
$VERSIONGUID
  2
{05D1408E-6C9C-414F-A0A9-FA8A6FE87A2F}
  9
$EXTNAMES
290
     1
  9
$PSVPSCALE
 40
0.0
  9
$OLESTARTUP
290
     0
  0
ENDSEC
  0
SECTION
  2
CLASSES
  0
CLASS
  1
IMAGE
  2
AcDbRasterImage
  3
ISM
 90
    34943
280
     0
281
     1
  0
CLASS
  1
DICTIONARYVAR
  2
AcDbDictionaryVar
  3
ObjectDBX Classes
 90
        0
280
     0
281
     0
  0
CLASS
  1
RASTERVARIABLES
  2
AcDbRasterVariables
  3
ISM
 90
    32768
280
     0
281
     0
  0
CLASS
  1
IMAGEDEF
  2
AcDbRasterImageDef
  3
ISM
 90
    32768
280
     0
281
     0
  0
CLASS
  1
IMAGEDEF_REACTOR
  2
AcDbRasterImageDefReactor
  3
ISM
 90
    32769
280
     0
281
     0
  0
CLASS
  1
IDBUFFER
  2
AcDbIdBuffer
  3
ObjectDBX Classes
 90
    32768
280
     0
281
     0
  0
CLASS
  1
SPATIAL_FILTER
  2
AcDbSpatialFilter
  3
ObjectDBX Classes
 90
    32768
280
     0
281
     0
  0
CLASS
  1
SORTENTSTABLE
  2
AcDbSortentsTable
  3
ObjectDBX Classes
 90
    32768
280
     0
281
     0
  0
CLASS
  1
LAYER_INDEX
  2
AcDbLayerIndex
  3
ObjectDBX Classes
 90
    32768
280
     0
281
     0
  0
CLASS
  1
SPATIAL_INDEX
  2
AcDbSpatialIndex
  3
ObjectDBX Classes
 90
    32768
280
     0
281
     0
  0
CLASS
  1
OBJECT_PTR
  2
CAseDLPNTableRecord
  3
"ASE-LPNTableRecord"
 90
    32769
280
     0
281
     0
  0
CLASS
  1
LAYOUT
  2
AcDbLayout
  3
ObjectDBX Classes
 90
        0
280
     0
281
     0
  0
CLASS
  1
PLOTSETTINGS
  2
AcDbPlotSettings
  3
ObjectDBX Classes
 90
    32768
280
     0
281
     0
  0
CLASS
  1
ACDBDICTIONARYWDFLT
  2
AcDbDictionaryWithDefault
  3
ObjectDBX Classes
 90
        0
280
     0
281
     0
  0
CLASS
  1
ACDBPLACEHOLDER
  2
AcDbPlaceHolder
  3
ObjectDBX Classes
 90
        0
280
     0
281
     0
  0
CLASS
  1
VBA_PROJECT
  2
AcDbVbaProject
  3
acad
 90
    32768
280
     0
281
     0
  0
CLASS
  1
WIPEOUT
  2
AcDbWipeout
  3
"WipeOut|Product Desc: Object Enabler for WipeOut entity                        |Company: Autodesk, Inc.                        |WEB Address: www.autodesk.com"
 90
    34943
280
     0
281
     1
  0
CLASS
  1
WIPEOUTVARIABLES
  2
AcDbWipeoutVariables
  3
"WipeOut|Product Desc:     WipeOut Dbx Application|Company:          Autodesk, Inc.|WEB Address:      www.autodesk.com"
 90
    32768
280
     0
281
     0
  0
CLASS
  1
RTEXT
  2
RText
  3
RText|AutoCAD Express Tool|expresstools@autodesk.com
 90
    32768
280
     0
281
     1
  0
CLASS
  1
ARCALIGNEDTEXT
  2
AcDbArcAlignedText
  3
ATEXT|AutoCAD Express Tool|expresstools@autodesk.com
 90
    32768
280
     0
281
     1
  0
CLASS
  1
MATERIAL
  2
AcDbMaterial
  3
ObjectDBX Classes
 90
     1153
280
     0
281
     0
  0
CLASS
  1
VISUALSTYLE
  2
AcDbVisualStyle
  3
ObjectDBX Classes
 90
     4095
280
     0
281
     0
  0
CLASS
  1
TABLESTYLE
  2
AcDbTableStyle
  3
ObjectDBX Classes
 90
     4095
280
     0
281
     0
  0
CLASS
  1
SCALE
  2
AcDbScale
  3
ObjectDBX Classes
 90
     1153
280
     0
281
     0
  0
CLASS
  1
MLEADERSTYLE
  2
AcDbMLeaderStyle
  3
ACDB_MLEADERSTYLE_CLASS
 90
     4095
280
     0
281
     0
  0
CLASS
  1
CELLSTYLEMAP
  2
AcDbCellStyleMap
  3
ObjectDBX Classes
 90
     1152
280
     0
281
     0
  0
ENDSEC
  0
SECTION
  2
TABLES
  0
TABLE
  2
VPORT
  5
6
330
0
100
AcDbSymbolTable
 70
     1
  0
VPORT
  5
1B
330
6
100
AcDbSymbolTableRecord
100
AcDbViewportTableRecord
  2
*ACTIVE
 70
     0
 10
0.0
 20
0.0
 11
1.0
 21
1.0
 12
304.3897692879127
 22
-213.5584787735062
 13
0.0
 23
0.0
 14
1.0
 24
1.0
 15
0.0
 25
0.0
 16
0.0
 26
0.0
 36
1.0
 17
0.0
 27
0.0
 37
0.0
 40
693.4412002712171
 41
1.805914972273567
 42
50.0
 43
0.0
 44
0.0
 50
0.0
 51
0.0
 71
     0
 72
   500
 73
     1
 74
     1
 75
     0
 76
     0
 77
     0
 78
     0
281
     0
 65
     1
110
0.0
120
0.0
130
0.0
111
1.0
121
0.0
131
0.0
112
0.0
122
1.0
132
0.0
 79
     0
146
0.0
  0
ENDTAB
  0
TABLE
  2
LTYPE
  5
3
330
0
100
AcDbSymbolTable
 70
     7
  0
LTYPE
  5
C
330
3
100
AcDbSymbolTableRecord
100
AcDbLinetypeTableRecord
  2
BYBLOCK
 70
     0
  3

 72
    65
 73
     0
 40
0.0
  0
LTYPE
  5
D
330
3
100
AcDbSymbolTableRecord
100
AcDbLinetypeTableRecord
  2
BYLAYER
 70
     0
  3

 72
    65
 73
     0
 40
0.0
  0
LTYPE
  5
E
330
3
100
AcDbSymbolTableRecord
100
AcDbLinetypeTableRecord
  2
CONTINUOUS
 70
     0
  3
Solid line
 72
    65
 73
     0
 40
0.0
  0
LTYPE
  5
F
330
3
100
AcDbSymbolTableRecord
100
AcDbLinetypeTableRecord
  2
DASHED
 70
     0
  3
__ __ __ __ __ __ __ __ __ __ __ __ __ __ __
 72
    65
 73
     2
 40
2.0
 49
1.199999999999999
 74
     0
 49
-0.8
 74
     0
  0
LTYPE
  5
10
330
3
100
AcDbSymbolTableRecord
100
AcDbLinetypeTableRecord
  2
CENTER
 70
     0
  3
____ _ ____ _ ____ _ ____ _ ____ _ ____ _ ____
 72
    65
 73
     4
 40
12.0
 49
9.0
 74
     0
 49
-1.0
 74
     0
 49
1.0
 74
     0
 49
-1.0
 74
     0
  0
LTYPE
  5
11
330
3
100
AcDbSymbolTableRecord
100
AcDbLinetypeTableRecord
  2
HIDDEN
 70
     0
  3
_ _ _ _ _ _ _ _ _ _ _ _ _ _ _ _ _ _ _ _ _ _ _
 72
    65
 73
     2
 40
3.2
 49
2.399999999999999
 74
     0
 49
-0.8
 74
     0
  0
LTYPE
  5
12
330
3
100
AcDbSymbolTableRecord
100
AcDbLinetypeTableRecord
  2
PHANTOM
 70
     0
  3
_____ _ _ _____ _ _ _____ _ _ _____ _ _ _____
 72
    65
 73
     6
 40
13.5
 49
9.0
 74
     0
 49
-1.0
 74
     0
 49
1.0
 74
     0
 49
-0.5
 74
     0
 49
1.0
 74
     0
 49
-1.0
 74
     0
  0
LTYPE
  5
13
330
3
100
AcDbSymbolTableRecord
100
AcDbLinetypeTableRecord
  2
DOT
 70
     0
  3
...............................................
 72
    65
 73
     2
 40
1.0
 49
0.5
 74
     0
 49
-0.5
 74
     0
  0
LTYPE
  5
14
330
3
100
AcDbSymbolTableRecord
100
AcDbLinetypeTableRecord
  2
DASHDOT
 70
     0
  3
__ . __ . __ . __ . __ . __ . __ . __ . __ . __
 72
    65
 73
     4
 40
8.0
 49
5.0
 74
     0
 49
-1.0
 74
     0
 49
1.0
 74
     0
 49
-1.0
 74
     0
  0
ENDTAB
  0
TABLE
  2
LAYER
  5
1
330
0
100
AcDbSymbolTable
 70
     6
  0
LAYER
  5
15
102
{ACAD_XDICTIONARY
360
697
102
}
330
1
100
AcDbSymbolTableRecord
100
AcDbLayerTableRecord
  2
0
 70
     0
 62
     7
  6
CONTINUOUS
370
    -3
390
63D
  0
LAYER
  5
16
102
{ACAD_XDICTIONARY
360
699
102
}
330
1
100
AcDbSymbolTableRecord
100
AcDbLayerTableRecord
  2
1
 70
     0
 62
     7
  6
CONTINUOUS
370
    -3
390
63D
  0
LAYER
  5
17
102
{ACAD_XDICTIONARY
360
69B
102
}
330
1
100
AcDbSymbolTableRecord
100
AcDbLayerTableRecord
  2
2
 70
     0
 62
     7
  6
CONTINUOUS
370
    -3
390
63D
  0
LAYER
  5
18
102
{ACAD_XDICTIONARY
360
69D
102
}
330
1
100
AcDbSymbolTableRecord
100
AcDbLayerTableRecord
  2
5
 70
     0
 62
     7
  6
CONTINUOUS
370
    -3
390
63D
  0
LAYER
  5
19
102
{ACAD_XDICTIONARY
360
69F
102
}
330
1
100
AcDbSymbolTableRecord
100
AcDbLayerTableRecord
  2
18
 70
     0
 62
     7
  6
CONTINUOUS
370
    -3
390
63D
  0
LAYER
  5
1A
102
{ACAD_XDICTIONARY
360
6A1
102
}
330
1
100
AcDbSymbolTableRecord
100
AcDbLayerTableRecord
  2
20
 70
     0
 62
     7
  6
CONTINUOUS
370
    -3
390
63D
  0
ENDTAB
  0
TABLE
  2
STYLE
  5
2
330
0
100
AcDbSymbolTable
 70
     1
  0
STYLE
  5
1D
330
2
100
AcDbSymbolTableRecord
100
AcDbTextStyleTableRecord
  2
STANDARD
 70
     0
 40
0.0
 41
1.0
 50
0.0
 71
     0
 42
1.0
  3
simplex.shx
  4
BIGFONT.shx
  0
ENDTAB
  0
TABLE
  2
VIEW
  5
4
330
0
100
AcDbSymbolTable
 70
     0
  0
ENDTAB
  0
TABLE
  2
UCS
  5
5
330
0
100
AcDbSymbolTable
 70
     0
  0
ENDTAB
  0
TABLE
  2
APPID
  5
7
330
0
100
AcDbSymbolTable
 70
     3
  0
APPID
  5
1C
330
7
100
AcDbSymbolTableRecord
100
AcDbRegAppTableRecord
  2
ACAD
 70
     0
  0
APPID
  5
68F
330
7
100
AcDbSymbolTableRecord
100
AcDbRegAppTableRecord
  2
ACAD_MLEADERVER
 70
     0
  0
APPID
  5
696
330
7
100
AcDbSymbolTableRecord
100
AcDbRegAppTableRecord
  2
AcadAnnoPO
 70
     0
  0
ENDTAB
  0
TABLE
  2
DIMSTYLE
  5
8
330
0
100
AcDbSymbolTable
 70
     1
100
AcDbDimStyleTable
 71
     0
  0
DIMSTYLE
105
2C
330
8
100
AcDbSymbolTableRecord
100
AcDbDimStyleTableRecord
  2
STANDARD
 70
     0
 40
3.0
 77
     1
340
1D
  0
ENDTAB
  0
TABLE
  2
BLOCK_RECORD
  5
27
330
0
100
AcDbSymbolTable
 70
     7
  0
BLOCK_RECORD
  5
25
330
27
100
AcDbSymbolTableRecord
100
AcDbBlockTableRecord
  2
*MODEL_SPACE
340
692
  0
BLOCK_RECORD
  5
26
330
27
100
AcDbSymbolTableRecord
100
AcDbBlockTableRecord
  2
*PAPER_SPACE
340
693
  0
BLOCK_RECORD
  5
1E
330
27
100
AcDbSymbolTableRecord
100
AcDbBlockTableRecord
  2
*D0
340
0
  0
BLOCK_RECORD
  5
1F
330
27
100
AcDbSymbolTableRecord
100
AcDbBlockTableRecord
  2
*D1
340
0
  0
BLOCK_RECORD
  5
20
330
27
100
AcDbSymbolTableRecord
100
AcDbBlockTableRecord
  2
*D2
340
0
  0
BLOCK_RECORD
  5
21
330
27
100
AcDbSymbolTableRecord
100
AcDbBlockTableRecord
  2
*D3
340
0
  0
BLOCK_RECORD
  5
22
330
27
100
AcDbSymbolTableRecord
100
AcDbBlockTableRecord
  2
*D4
340
0
  0
BLOCK_RECORD
  5
23
330
27
100
AcDbSymbolTableRecord
100
AcDbBlockTableRecord
  2
*D5
340
0
  0
BLOCK_RECORD
  5
24
330
27
100
AcDbSymbolTableRecord
100
AcDbBlockTableRecord
  2
*D6
340
0
  0
ENDTAB
  0
ENDSEC
  0
SECTION
  2
BLOCKS
  0
BLOCK
  5
28
330
25
100
AcDbEntity
  8
0
100
AcDbBlockBegin
  2
*MODEL_SPACE
 70
     0
 10
0.0
 20
0.0
 30
0.0
  3
*MODEL_SPACE
  1

  0
ENDBLK
  5
29
330
25
100
AcDbEntity
  8
0
100
AcDbBlockEnd
  0
BLOCK
  5
2A
330
26
100
AcDbEntity
 67
     1
  8
0
100
AcDbBlockBegin
  2
*PAPER_SPACE
 70
     0
 10
0.0
 20
0.0
 30
0.0
  3
*PAPER_SPACE
  1

  0
ENDBLK
  5
2B
330
26
100
AcDbEntity
 67
     1
  8
0
100
AcDbBlockEnd
  0
BLOCK
  5
5DF
330
1E
100
AcDbEntity
  8
5
100
AcDbBlockBegin
  2
*D0
 70
     1
 10
0.0
 20
0.0
 30
0.0
  3
*D0
  1

  0
TEXT
  5
5E0
330
1E
100
AcDbEntity
  8
5
 62
     2
100
AcDbText
 10
39.323462
 20
-102.560269
 30
0.0
 40
9.9
  1
202
 50
90.0
 41
0.7077777777777781
 72
     5
 11
39.323462
 21
-84.542269
 31
0.0
100
AcDbText
  0
LINE
  5
5E1
330
1E
100
AcDbEntity
  8
5
 62
     2
100
AcDbLine
 10
68.890754
 20
-193.165269
 30
0.0
 11
37.823462
 21
-193.165269
 31
0.0
  0
LINE
  5
5E2
330
1E
100
AcDbEntity
  8
5
 62
     2
100
AcDbLine
 10
40.82346199999999
 20
-193.165269
 30
0.0
 11
42.376376
 21
-187.369714
 31
0.0
  0
LINE
  5
5E3
330
1E
100
AcDbEntity
  8
5
 62
     2
100
AcDbLine
 10
40.82346199999999
 20
-193.165269
 30
0.0
 11
39.270547
 21
-187.369714
 31
0.0
  0
LINE
  5
5E4
330
1E
100
AcDbEntity
  8
5
 62
     2
100
AcDbLine
 10
42.376376
 20
-187.369714
 30
0.0
 11
39.270547
 21
-187.369714
 31
0.0
  0
LINE
  5
5E5
330
1E
100
AcDbEntity
  8
5
 62
     2
100
AcDbLine
 10
40.82346199999999
 20
-193.165269
 30
0.0
 11
40.82346199999999
 21
8.834730999999999
 31
0.0
  0
LINE
  5
5E6
330
1E
100
AcDbEntity
  8
5
 62
     2
100
AcDbLine
 10
40.82346199999999
 20
8.834730999999999
 30
0.0
 11
39.270547
 21
3.039175999999999
 31
0.0
  0
LINE
  5
5E7
330
1E
100
AcDbEntity
  8
5
 62
     2
100
AcDbLine
 10
40.82346199999999
 20
8.834730999999999
 30
0.0
 11
42.376376
 21
3.039175999999999
 31
0.0
  0
LINE
  5
5E8
330
1E
100
AcDbEntity
  8
5
 62
     2
100
AcDbLine
 10
39.270547
 20
3.039175999999999
 30
0.0
 11
42.376376
 21
3.039175999999999
 31
0.0
  0
LINE
  5
5E9
330
1E
100
AcDbEntity
  8
5
 62
     2
100
AcDbLine
 10
62.604304
 20
8.834730999999999
 30
0.0
 11
37.823462
 21
8.834730999999999
 31
0.0
  0
ENDBLK
  5
5EA
330
1E
100
AcDbEntity
  8
5
100
AcDbBlockEnd
  0
BLOCK
  5
5EB
330
1F
100
AcDbEntity
  8
5
100
AcDbBlockBegin
  2
*D1
 70
     1
 10
0.0
 20
0.0
 30
0.0
  3
*D1
  1

  0
TEXT
  5
5EC
330
1F
100
AcDbEntity
  8
5
 62
     2
100
AcDbText
 10
39.323462
 20
-270.410269
 30
0.0
 40
9.9
  1
134
 50
90.0
 41
0.7494117647058815
 72
     5
 11
39.323462
 21
-252.392269
 31
0.0
100
AcDbText
  0
LINE
  5
5ED
330
1F
100
AcDbEntity
  8
5
 62
     2
100
AcDbLine
 10
120.104304
 20
-326.865269
 30
0.0
 11
37.823462
 21
-326.865269
 31
0.0
  0
LINE
  5
5EE
330
1F
100
AcDbEntity
  8
5
 62
     2
100
AcDbLine
 10
40.82346199999999
 20
-326.865269
 30
0.0
 11
42.376376
 21
-321.0697140000001
 31
0.0
  0
LINE
  5
5EF
330
1F
100
AcDbEntity
  8
5
 62
     2
100
AcDbLine
 10
40.82346199999999
 20
-326.865269
 30
0.0
 11
39.270547
 21
-321.0697140000001
 31
0.0
  0
LINE
  5
5F0
330
1F
100
AcDbEntity
  8
5
 62
     2
100
AcDbLine
 10
42.376376
 20
-321.0697140000001
 30
0.0
 11
39.270547
 21
-321.0697140000001
 31
0.0
  0
LINE
  5
5F1
330
1F
100
AcDbEntity
  8
5
 62
     2
100
AcDbLine
 10
40.82346199999999
 20
-326.865269
 30
0.0
 11
40.82346199999999
 21
-193.165269
 31
0.0
  0
LINE
  5
5F2
330
1F
100
AcDbEntity
  8
5
 62
     2
100
AcDbLine
 10
40.82346199999999
 20
-193.165269
 30
0.0
 11
39.270547
 21
-198.960824
 31
0.0
  0
LINE
  5
5F3
330
1F
100
AcDbEntity
  8
5
 62
     2
100
AcDbLine
 10
40.82346199999999
 20
-193.165269
 30
0.0
 11
42.376376
 21
-198.960824
 31
0.0
  0
LINE
  5
5F4
330
1F
100
AcDbEntity
  8
5
 62
     2
100
AcDbLine
 10
39.270547
 20
-198.960824
 30
0.0
 11
42.376376
 21
-198.960824
 31
0.0
  0
LINE
  5
5F5
330
1F
100
AcDbEntity
  8
5
 62
     2
100
AcDbLine
 10
68.890754
 20
-193.165269
 30
0.0
 11
37.823462
 21
-193.165269
 31
0.0
  0
ENDBLK
  5
5F6
330
1F
100
AcDbEntity
  8
5
100
AcDbBlockEnd
  0
BLOCK
  5
5F7
330
20
100
AcDbEntity
  8
5
100
AcDbBlockBegin
  2
*D2
 70
     1
 10
0.0
 20
0.0
 30
0.0
  3
*D2
  1

  0
TEXT
  5
5F8
330
20
100
AcDbEntity
  8
5
 62
     2
100
AcDbText
 10
121.174304
 20
-359.934769
 30
0.0
 40
9.9
  1
56
 41
0.7127272727272722
 72
     5
 11
132.262304
 21
-359.934769
 31
0.0
100
AcDbText
  0
LINE
  5
5F9
330
20
100
AcDbEntity
  8
5
 62
     2
100
AcDbLine
 10
100.104304
 20
-300.665269
 30
0.0
 11
100.104304
 21
-364.434769
 31
0.0
  0
LINE
  5
5FA
330
20
100
AcDbEntity
  8
5
 62
     2
100
AcDbLine
 10
100.104304
 20
-361.434769
 30
0.0
 11
105.899859
 21
-362.987683
 31
0.0
  0
LINE
  5
5FB
330
20
100
AcDbEntity
  8
5
 62
     2
100
AcDbLine
 10
100.104304
 20
-361.434769
 30
0.0
 11
105.899859
 21
-359.881854
 31
0.0
  0
LINE
  5
5FC
330
20
100
AcDbEntity
  8
5
 62
     2
100
AcDbLine
 10
105.899859
 20
-362.987683
 30
0.0
 11
105.899859
 21
-359.881854
 31
0.0
  0
LINE
  5
5FD
330
20
100
AcDbEntity
  8
5
 62
     2
100
AcDbLine
 10
100.104304
 20
-361.434769
 30
0.0
 11
156.104304
 21
-361.434769
 31
0.0
  0
LINE
  5
5FE
330
20
100
AcDbEntity
  8
5
 62
     2
100
AcDbLine
 10
156.104304
 20
-361.434769
 30
0.0
 11
150.308749
 21
-359.881854
 31
0.0
  0
LINE
  5
5FF
330
20
100
AcDbEntity
  8
5
 62
     2
100
AcDbLine
 10
156.104304
 20
-361.434769
 30
0.0
 11
150.308749
 21
-362.987683
 31
0.0
  0
LINE
  5
600
330
20
100
AcDbEntity
  8
5
 62
     2
100
AcDbLine
 10
150.308749
 20
-359.881854
 30
0.0
 11
150.308749
 21
-362.987683
 31
0.0
  0
LINE
  5
601
330
20
100
AcDbEntity
  8
5
 62
     2
100
AcDbLine
 10
156.104304
 20
-300.665269
 30
0.0
 11
156.104304
 21
-364.434769
 31
0.0
  0
ENDBLK
  5
602
330
20
100
AcDbEntity
  8
5
100
AcDbBlockEnd
  0
BLOCK
  5
603
330
21
100
AcDbEntity
  8
5
100
AcDbBlockBegin
  2
*D3
 70
     1
 10
0.0
 20
0.0
 30
0.0
  3
*D3
  1

  0
TEXT
  5
604
330
21
100
AcDbEntity
  8
5
 62
     2
100
AcDbText
 10
-475.7097469999999
 20
266.399731
 30
0.0
 40
9.9
  1
87.5
 50
90.0
 41
0.8268749999999991
 72
     5
 11
-475.7097469999999
 21
291.347731
 31
0.0
100
AcDbText
  0
LINE
  5
605
330
21
100
AcDbEntity
  8
5
 62
     2
100
AcDbLine
 10
-454.8031759999999
 20
236.509731
 30
0.0
 11
-477.209747
 21
236.509731
 31
0.0
  0
LINE
  5
606
330
21
100
AcDbEntity
  8
5
 62
     2
100
AcDbLine
 10
-474.209747
 20
236.509731
 30
0.0
 11
-472.656833
 21
242.305286
 31
0.0
  0
LINE
  5
607
330
21
100
AcDbEntity
  8
5
 62
     2
100
AcDbLine
 10
-474.209747
 20
236.509731
 30
0.0
 11
-475.762662
 21
242.305286
 31
0.0
  0
LINE
  5
608
330
21
100
AcDbEntity
  8
5
 62
     2
100
AcDbLine
 10
-472.656833
 20
242.305286
 30
0.0
 11
-475.762662
 21
242.305286
 31
0.0
  0
LINE
  5
609
330
21
100
AcDbEntity
  8
5
 62
     2
100
AcDbLine
 10
-474.209747
 20
236.509731
 30
0.0
 11
-474.209747
 21
324.009731
 31
0.0
  0
LINE
  5
60A
330
21
100
AcDbEntity
  8
5
 62
     2
100
AcDbLine
 10
-474.209747
 20
324.009731
 30
0.0
 11
-475.762662
 21
318.2141759999999
 31
0.0
  0
LINE
  5
60B
330
21
100
AcDbEntity
  8
5
 62
     2
100
AcDbLine
 10
-474.209747
 20
324.009731
 30
0.0
 11
-472.656833
 21
318.2141759999999
 31
0.0
  0
LINE
  5
60C
330
21
100
AcDbEntity
  8
5
 62
     2
100
AcDbLine
 10
-475.762662
 20
318.2141759999999
 30
0.0
 11
-472.656833
 21
318.2141759999999
 31
0.0
  0
LINE
  5
60D
330
21
100
AcDbEntity
  8
5
 62
     2
100
AcDbLine
 10
-350.570696
 20
324.009731
 30
0.0
 11
-477.209747
 21
324.009731
 31
0.0
  0
ENDBLK
  5
60E
330
21
100
AcDbEntity
  8
5
100
AcDbBlockEnd
  0
BLOCK
  5
60F
330
22
100
AcDbEntity
  8
5
100
AcDbBlockBegin
  2
*D4
 70
     1
 10
0.0
 20
0.0
 30
0.0
  3
*D4
  1

  0
TEXT
  5
610
330
22
100
AcDbEntity
  8
5
 62
     2
100
AcDbText
 10
-475.7097469999999
 20
191.399731
 30
0.0
 40
9.9
  1
62.5
 50
90.0
 41
0.8268750000000004
 72
     5
 11
-475.7097469999999
 21
216.347731
 31
0.0
100
AcDbText
  0
LINE
  5
611
330
22
100
AcDbEntity
  8
5
 62
     2
100
AcDbLine
 10
-333.570696
 20
174.009731
 30
0.0
 11
-477.209747
 21
174.009731
 31
0.0
  0
LINE
  5
612
330
22
100
AcDbEntity
  8
5
 62
     2
100
AcDbLine
 10
-474.209747
 20
174.009731
 30
0.0
 11
-472.656833
 21
179.805286
 31
0.0
  0
LINE
  5
613
330
22
100
AcDbEntity
  8
5
 62
     2
100
AcDbLine
 10
-474.209747
 20
174.009731
 30
0.0
 11
-475.762662
 21
179.805286
 31
0.0
  0
LINE
  5
614
330
22
100
AcDbEntity
  8
5
 62
     2
100
AcDbLine
 10
-472.656833
 20
179.805286
 30
0.0
 11
-475.762662
 21
179.805286
 31
0.0
  0
LINE
  5
615
330
22
100
AcDbEntity
  8
5
 62
     2
100
AcDbLine
 10
-474.209747
 20
174.009731
 30
0.0
 11
-474.209747
 21
236.509731
 31
0.0
  0
LINE
  5
616
330
22
100
AcDbEntity
  8
5
 62
     2
100
AcDbLine
 10
-474.209747
 20
236.509731
 30
0.0
 11
-475.762662
 21
230.714176
 31
0.0
  0
LINE
  5
617
330
22
100
AcDbEntity
  8
5
 62
     2
100
AcDbLine
 10
-474.209747
 20
236.509731
 30
0.0
 11
-472.656833
 21
230.714176
 31
0.0
  0
LINE
  5
618
330
22
100
AcDbEntity
  8
5
 62
     2
100
AcDbLine
 10
-475.762662
 20
230.714176
 30
0.0
 11
-472.656833
 21
230.714176
 31
0.0
  0
LINE
  5
619
330
22
100
AcDbEntity
  8
5
 62
     2
100
AcDbLine
 10
-454.8031759999999
 20
236.509731
 30
0.0
 11
-477.209747
 21
236.509731
 31
0.0
  0
ENDBLK
  5
61A
330
22
100
AcDbEntity
  8
5
100
AcDbBlockEnd
  0
BLOCK
  5
61B
330
23
100
AcDbEntity
  8
5
100
AcDbBlockBegin
  2
*D5
 70
     1
 10
0.0
 20
0.0
 30
0.0
  3
*D5
  1

  0
LINE
  5
61C
330
23
100
AcDbEntity
  8
5
 62
     2
100
AcDbLine
 10
62.604304
 20
8.834730999999999
 30
0.0
 11
37.823462
 21
8.834730999999999
 31
0.0
  0
LINE
  5
61D
330
23
100
AcDbEntity
  8
5
 62
     2
100
AcDbLine
 10
40.82346199999999
 20
8.834730999999999
 30
0.0
 11
42.376376
 21
14.630286
 31
0.0
  0
LINE
  5
61E
330
23
100
AcDbEntity
  8
5
 62
     2
100
AcDbLine
 10
40.82346199999999
 20
8.834730999999999
 30
0.0
 11
39.270547
 21
14.630286
 31
0.0
  0
LINE
  5
61F
330
23
100
AcDbEntity
  8
5
 62
     2
100
AcDbLine
 10
42.376376
 20
14.630286
 30
0.0
 11
39.270547
 21
14.630286
 31
0.0
  0
LINE
  5
620
330
23
100
AcDbEntity
  8
5
 62
     2
100
AcDbLine
 10
40.82346199999999
 20
8.834730999999999
 30
0.0
 11
40.82346199999999
 21
100.938356
 31
0.0
  0
LINE
  5
621
330
23
100
AcDbEntity
  8
5
 62
     2
100
AcDbLine
 10
40.82346199999999
 20
100.938356
 30
0.0
 11
39.270547
 21
95.142801
 31
0.0
  0
LINE
  5
622
330
23
100
AcDbEntity
  8
5
 62
     2
100
AcDbLine
 10
40.82346199999999
 20
100.938356
 30
0.0
 11
42.376376
 21
95.142801
 31
0.0
  0
LINE
  5
623
330
23
100
AcDbEntity
  8
5
 62
     2
100
AcDbLine
 10
39.270547
 20
95.142801
 30
0.0
 11
42.376376
 21
95.142801
 31
0.0
  0
LINE
  5
624
330
23
100
AcDbEntity
  8
5
 62
     2
100
AcDbLine
 10
117.81539
 20
100.938356
 30
0.0
 11
37.823462
 21
100.938356
 31
0.0
  0
ENDBLK
  5
625
330
23
100
AcDbEntity
  8
5
100
AcDbBlockEnd
  0
BLOCK
  5
626
330
24
100
AcDbEntity
  8
5
100
AcDbBlockBegin
  2
*D6
 70
     1
 10
0.0
 20
0.0
 30
0.0
  3
*D6
  1

  0
LINE
  5
627
330
24
100
AcDbEntity
  8
5
 62
     2
100
AcDbLine
 10
-330.570696
 20
63.519144
 30
0.0
 11
-330.570696
 21
116.8621899999999
 31
0.0
  0
LINE
  5
628
330
24
100
AcDbEntity
  8
5
 62
     2
100
AcDbLine
 10
-330.570696
 20
113.86219
 30
0.0
 11
-324.775141
 21
112.309276
 31
0.0
  0
LINE
  5
629
330
24
100
AcDbEntity
  8
5
 62
     2
100
AcDbLine
 10
-330.570696
 20
113.86219
 30
0.0
 11
-324.775141
 21
115.415105
 31
0.0
  0
LINE
  5
62A
330
24
100
AcDbEntity
  8
5
 62
     2
100
AcDbLine
 10
-324.775141
 20
112.309276
 30
0.0
 11
-324.775141
 21
115.415105
 31
0.0
  0
LINE
  5
62B
330
24
100
AcDbEntity
  8
5
 62
     2
100
AcDbLine
 10
-330.570696
 20
113.86219
 30
0.0
 11
-30.747875
 21
113.86219
 31
0.0
  0
LINE
  5
62C
330
24
100
AcDbEntity
  8
5
 62
     2
100
AcDbLine
 10
-30.747875
 20
113.86219
 30
0.0
 11
-36.54343
 21
115.415105
 31
0.0
  0
LINE
  5
62D
330
24
100
AcDbEntity
  8
5
 62
     2
100
AcDbLine
 10
-30.747875
 20
113.86219
 30
0.0
 11
-36.54343
 21
112.309276
 31
0.0
  0
LINE
  5
62E
330
24
100
AcDbEntity
  8
5
 62
     2
100
AcDbLine
 10
-36.54343
 20
115.415105
 30
0.0
 11
-36.54343
 21
112.309276
 31
0.0
  0
LINE
  5
62F
330
24
100
AcDbEntity
  8
5
 62
     2
100
AcDbLine
 10
-30.747875
 20
93.56319199999999
 30
0.0
 11
-30.747875
 21
116.8621899999999
 31
0.0
  0
ENDBLK
  5
630
330
24
100
AcDbEntity
  8
5
100
AcDbBlockEnd
  0
ENDSEC
  0
SECTION
  2
ENTITIES
  0
LINE
  5
2D
330
25
100
AcDbEntity
  8
1
  6
CENTER
 62
     2
100
AcDbLine
 10
-330.570696
 20
58.805564
 30
0.0
 11
-330.570696
 21
-337.860663
 31
0.0
  0
CIRCLE
  5
2E
330
25
100
AcDbEntity
  8
1
  6
DASHED
100
AcDbCircle
 10
-366.570696
 20
272.509731
 30
0.0
 40
5.5
  0
CIRCLE
  5
2F
330
25
100
AcDbEntity
  8
1
  6
DASHED
100
AcDbCircle
 10
-294.570696
 20
272.509731
 30
0.0
 40
5.5
  0
CIRCLE
  5
30
330
25
100
AcDbEntity
  8
1
  6
DASHED
100
AcDbCircle
 10
-294.570696
 20
200.509731
 30
0.0
 40
5.5
  0
CIRCLE
  5
31
330
25
100
AcDbEntity
  8
1
  6
DASHED
100
AcDbCircle
 10
-366.570696
 20
200.509731
 30
0.0
 40
5.5
  0
LINE
  5
32
330
25
100
AcDbEntity
  8
1
  6
CENTER
 62
     2
100
AcDbLine
 10
-305.808006
 20
272.509731
 30
0.0
 11
-283.650124
 21
272.509731
 31
0.0
  0
LINE
  5
33
330
25
100
AcDbEntity
  8
1
  6
CENTER
 62
     2
100
AcDbLine
 10
-377.108406
 20
200.509731
 30
0.0
 11
-354.950508
 21
200.509731
 31
0.0
  0
LINE
  5
34
330
25
100
AcDbEntity
  8
1
  6
CENTER
 62
     2
100
AcDbLine
 10
-366.570696
 20
191.994707
 30
0.0
 11
-366.570696
 21
212.985743
 31
0.0
  0
LINE
  5
35
330
25
100
AcDbEntity
  8
1
  6
CENTER
 62
     2
100
AcDbLine
 10
-294.570696
 20
263.58687
 30
0.0
 11
-294.570696
 21
281.514681
 31
0.0
  0
LINE
  5
36
330
25
100
AcDbEntity
  8
1
  6
DASHED
100
AcDbLine
 10
-381.570696
 20
209.009731
 30
0.0
 11
-381.570696
 21
264.009731
 31
0.0
  0
LINE
  5
37
330
25
100
AcDbEntity
  8
1
  6
DASHED
100
AcDbLine
 10
-279.570696
 20
209.009731
 30
0.0
 11
-279.570696
 21
264.009731
 31
0.0
  0
LINE
  5
38
330
25
100
AcDbEntity
  8
1
  6
DASHED
100
AcDbLine
 10
-358.070696
 20
287.509731
 30
0.0
 11
-303.070696
 21
287.509731
 31
0.0
  0
LINE
  5
39
330
25
100
AcDbEntity
  8
1
  6
DASHED
100
AcDbLine
 10
-358.070696
 20
185.509731
 30
0.0
 11
-303.070696
 21
185.509731
 31
0.0
  0
ARC
  5
3A
330
25
100
AcDbEntity
  8
1
  6
DASHED
100
AcDbCircle
 10
-303.070696
 20
264.009731
 30
0.0
 40
23.5
100
AcDbArc
 50
0.0
 51
90.0
  0
ARC
  5
3B
330
25
100
AcDbEntity
  8
1
  6
DASHED
100
AcDbCircle
 10
-358.070696
 20
264.009731
 30
0.0
 40
23.5
100
AcDbArc
 50
90.0
 51
180.0
  0
ARC
  5
3C
330
25
100
AcDbEntity
  8
1
  6
DASHED
100
AcDbCircle
 10
-358.070696
 20
209.009731
 30
0.0
 40
23.5
100
AcDbArc
 50
180.0
 51
270.0
  0
ARC
  5
3D
330
25
100
AcDbEntity
  8
1
  6
DASHED
100
AcDbCircle
 10
-303.070696
 20
209.009731
 30
0.0
 40
23.5
100
AcDbArc
 50
270.0
 51
0.0
  0
LINE
  5
3E
330
25
100
AcDbEntity
  8
1
  6
CENTER
 62
     2
100
AcDbLine
 10
-451.8031759999999
 20
-193.165269
 30
0.0
 11
-202.90403
 21
-193.165269
 31
0.0
  0
LINE
  5
3F
330
25
100
AcDbEntity
  8
1
100
AcDbLine
 10
-377.570696
 20
-5.165269
 30
0.0
 11
-283.570696
 21
-5.165269
 31
0.0
  0
LINE
  5
40
330
25
100
AcDbEntity
  8
1
100
AcDbLine
 10
-381.570696
 20
8.834730999999999
 30
0.0
 11
-381.570696
 21
-1.165269
 31
0.0
  0
LINE
  5
41
330
25
100
AcDbEntity
  8
1
100
AcDbLine
 10
-279.570696
 20
8.834730999999999
 30
0.0
 11
-279.570696
 21
-1.165269
 31
0.0
  0
LINE
  5
42
330
25
100
AcDbEntity
  8
1
100
AcDbLine
 10
-349.570696
 20
-13.165269
 30
0.0
 11
-349.570696
 21
-81.365224
 31
0.0
  0
LINE
  5
43
330
25
100
AcDbEntity
  8
1
100
AcDbLine
 10
-311.570696
 20
-13.165269
 30
0.0
 11
-311.570696
 21
-81.365224
 31
0.0
  0
LINE
  5
44
330
25
100
AcDbEntity
  8
1
100
AcDbLine
 10
-428.0722269999999
 20
264.798699
 30
0.0
 11
-425.120696
 21
266.509731
 31
0.0
  0
LINE
  5
45
330
25
100
AcDbEntity
  8
1
100
AcDbLine
 10
-425.120696
 20
206.509731
 30
0.0
 11
-428.0722269999999
 21
208.220763
 31
0.0
  0
ARC
  5
46
330
25
100
AcDbEntity
  8
1
100
AcDbCircle
 10
-427.5706959999999
 20
263.933559
 30
0.0
 40
1.0
100
AcDbArc
 50
120.101305
 51
144.818241
  0
ARC
  5
47
330
25
100
AcDbEntity
  8
1
100
AcDbCircle
 10
-427.5706959999999
 20
209.085903
 30
0.0
 40
1.0
100
AcDbArc
 50
215.181759
 51
239.898695
  0
LINE
  5
48
330
25
100
AcDbEntity
  8
1
100
AcDbLine
 10
-236.020696
 20
266.509731
 30
0.0
 11
-233.069166
 21
264.798699
 31
0.0
  0
LINE
  5
49
330
25
100
AcDbEntity
  8
1
100
AcDbLine
 10
-236.020696
 20
206.509731
 30
0.0
 11
-233.069166
 21
208.220763
 31
0.0
  0
ARC
  5
4A
330
25
100
AcDbEntity
  8
1
100
AcDbCircle
 10
-233.570696
 20
263.933559
 30
0.0
 40
1.0
100
AcDbArc
 50
35.181759
 51
59.898695
  0
ARC
  5
4B
330
25
100
AcDbEntity
  8
1
100
AcDbCircle
 10
-233.570696
 20
209.085903
 30
0.0
 40
1.0
100
AcDbArc
 50
300.101305
 51
324.818241
  0
ARC
  5
4C
330
25
100
AcDbEntity
  8
1
100
AcDbCircle
 10
-283.570696
 20
-1.165269
 30
0.0
 40
4.0
100
AcDbArc
 50
270.0
 51
360.0
  0
ARC
  5
4D
330
25
100
AcDbEntity
  8
1
100
AcDbCircle
 10
-377.570696
 20
-1.165269
 30
0.0
 40
4.0
100
AcDbArc
 50
180.0
 51
270.0
  0
ARC
  5
4E
330
25
100
AcDbEntity
  8
1
100
AcDbCircle
 10
-303.570696
 20
-13.165269
 30
0.0
 40
8.0
100
AcDbArc
 50
90.0
 51
180.0
  0
ARC
  5
4F
330
25
100
AcDbEntity
  8
1
100
AcDbCircle
 10
-357.570696
 20
-13.165269
 30
0.0
 40
8.0
100
AcDbArc
 50
0.0
 51
90.0
  0
LINE
  5
50
330
25
100
AcDbEntity
  8
1
100
AcDbLine
 10
-327.570696
 20
-33.165269
 30
0.0
 11
-333.570696
 21
-33.165269
 31
0.0
  0
LINE
  5
51
330
25
100
AcDbEntity
  8
1
100
AcDbLine
 10
-333.570696
 20
-8.165269
 30
0.0
 11
-333.570696
 21
-30.165269
 31
0.0
  0
LINE
  5
52
330
25
100
AcDbEntity
  8
1
100
AcDbLine
 10
-327.570696
 20
-8.165269
 30
0.0
 11
-327.570696
 21
-30.165269
 31
0.0
  0
ARC
  5
53
330
25
100
AcDbEntity
  8
1
100
AcDbCircle
 10
-324.570696
 20
-8.165269
 30
0.0
 40
3.0
100
AcDbArc
 50
90.0
 51
180.0
  0
ARC
  5
54
330
25
100
AcDbEntity
  8
1
100
AcDbCircle
 10
-336.570696
 20
-8.165269
 30
0.0
 40
3.0
100
AcDbArc
 50
360.0
 51
90.0
  0
ARC
  5
55
330
25
100
AcDbEntity
  8
1
100
AcDbCircle
 10
-324.570696
 20
-30.165269
 30
0.0
 40
3.0
100
AcDbArc
 50
180.0
 51
270.0
  0
ARC
  5
56
330
25
100
AcDbEntity
  8
1
100
AcDbCircle
 10
-336.570696
 20
-30.165269
 30
0.0
 40
3.0
100
AcDbArc
 50
270.0
 51
360.0
  0
ARC
  5
57
330
25
100
AcDbEntity
  8
1
100
AcDbCircle
 10
-371.570696
 20
-27.165269
 30
0.0
 40
22.0
100
AcDbArc
 50
360.0
 51
90.0
  0
ARC
  5
58
330
25
100
AcDbEntity
  8
1
100
AcDbCircle
 10
-289.570696
 20
-27.165269
 30
0.0
 40
22.0
100
AcDbArc
 50
132.058485
 51
180.0
  0
LINE
  5
59
330
25
100
AcDbEntity
  8
1
100
AcDbLine
 10
-355.8621
 20
-11.365269
 30
0.0
 11
-349.775826
 21
-11.365269
 31
0.0
  0
LINE
  5
5A
330
25
100
AcDbEntity
  8
1
100
AcDbLine
 10
-311.365566
 20
-11.365269
 30
0.0
 11
-305.279293
 21
-11.365269
 31
0.0
  0
ARC
  5
5B
330
25
100
AcDbEntity
  8
1
100
AcDbCircle
 10
-305.279293
 20
-10.365269
 30
0.0
 40
1.0
100
AcDbArc
 50
270.0
 51
313.077144
  0
ARC
  5
5C
330
25
100
AcDbEntity
  8
1
100
AcDbCircle
 10
-355.8621
 20
-10.365269
 30
0.0
 40
1.0
100
AcDbArc
 50
226.922856
 51
270.0
  0
ARC
  5
5D
330
25
100
AcDbEntity
  8
1
100
AcDbCircle
 10
-301.570696
 20
-81.365224
 30
0.0
 40
10.0
100
AcDbArc
 50
180.0
 51
255.458437
  0
ARC
  5
5E
330
25
100
AcDbEntity
  8
1
100
AcDbCircle
 10
-359.570696
 20
-81.365224
 30
0.0
 40
10.0
100
AcDbArc
 50
284.541563
 51
360.0
  0
ARC
  5
5F
330
25
100
AcDbEntity
  8
1
100
AcDbCircle
 10
-330.570696
 20
-193.165269
 30
0.0
 40
142.0
100
AcDbArc
 50
68.73669599999999
 51
79.001139
  0
ARC
  5
60
330
25
100
AcDbEntity
  8
1
100
AcDbCircle
 10
-330.570696
 20
-193.165269
 30
0.0
 40
142.0
100
AcDbArc
 50
100.998861
 51
111.263304
  0
LINE
  5
61
330
25
100
AcDbEntity
  8
1
100
AcDbLine
 10
-382.208568
 20
-68.50041999999999
 30
0.0
 11
-383.751303
 21
-64.77592699999999
 31
0.0
  0
LINE
  5
62
330
25
100
AcDbEntity
  8
1
100
AcDbLine
 10
-278.932825
 20
-68.50041999999999
 30
0.0
 11
-277.39009
 21
-64.77592699999999
 31
0.0
  0
ARC
  5
63
330
25
100
AcDbEntity
  8
1
100
AcDbCircle
 10
-284.361672
 20
-81.60681600000001
 30
0.0
 40
11.5
100
AcDbArc
 50
79.44054399999998
 51
148.650117
  0
ARC
  5
64
330
25
100
AcDbEntity
  8
1
100
AcDbCircle
 10
-285.605393
 20
-84.609424
 30
0.0
 40
12.0
100
AcDbArc
 50
148.650117
 51
247.5
  0
ARC
  5
65
330
25
100
AcDbEntity
  8
1
100
AcDbCircle
 10
-375.536
 20
-84.609424
 30
0.0
 40
12.0
100
AcDbArc
 50
292.5
 51
31.34988300000001
  0
ARC
  5
66
330
25
100
AcDbEntity
  8
1
100
AcDbCircle
 10
-376.779721
 20
-81.60681600000001
 30
0.0
 40
11.5
100
AcDbArc
 50
31.34988300000001
 51
100.559456
  0
LINE
  5
67
330
25
100
AcDbEntity
  8
1
100
AcDbLine
 10
-294.182743
 20
-75.623793
 30
0.0
 11
-295.853467
 21
-78.36627
 31
0.0
  0
LINE
  5
68
330
25
100
AcDbEntity
  8
1
100
AcDbLine
 10
-366.958649
 20
-75.623793
 30
0.0
 11
-365.287925
 21
-78.36627
 31
0.0
  0
ARC
  5
69
330
25
100
AcDbEntity
  8
1
100
AcDbCircle
 10
-301.570696
 20
-43.95736099999999
 30
0.0
 40
10.0
100
AcDbArc
 50
180.0
 51
259.001139
  0
ARC
  5
6A
330
25
100
AcDbEntity
  8
1
100
AcDbCircle
 10
-359.570696
 20
-43.95736099999999
 30
0.0
 40
10.0
100
AcDbArc
 50
280.998861
 51
360.0
  0
ARC
  5
6B
330
25
100
AcDbEntity
  8
1
100
AcDbCircle
 10
-281.704463
 20
-67.352369
 30
0.0
 40
3.0
100
AcDbArc
 50
259.440544
 51
337.5
  0
ARC
  5
6C
330
25
100
AcDbEntity
  8
1
100
AcDbCircle
 10
-280.161728
 20
-63.62787700000001
 30
0.0
 40
3.0
100
AcDbArc
 50
337.5
 51
68.73669599999999
  0
ARC
  5
6D
330
25
100
AcDbEntity
  8
1
100
AcDbCircle
 10
-380.979664
 20
-63.62787700000001
 30
0.0
 40
3.0
100
AcDbArc
 50
111.263304
 51
202.5
  0
ARC
  5
6E
330
25
100
AcDbEntity
  8
1
100
AcDbCircle
 10
-379.436929
 20
-67.352369
 30
0.0
 40
3.0
100
AcDbArc
 50
202.5
 51
280.559456
  0
LINE
  5
6F
330
25
100
AcDbEntity
  8
1
100
AcDbLine
 10
-357.570696
 20
-318.165269
 30
0.0
 11
-303.570696
 21
-318.165269
 31
0.0
  0
LINE
  5
70
330
25
100
AcDbEntity
  8
1
100
AcDbLine
 10
-357.570696
 20
-302.578477
 30
0.0
 11
-357.570696
 21
-321.365269
 31
0.0
  0
LINE
  5
71
330
25
100
AcDbEntity
  8
1
100
AcDbLine
 10
-303.570696
 20
-302.578477
 30
0.0
 11
-303.570696
 21
-321.365269
 31
0.0
  0
ARC
  5
72
330
25
100
AcDbEntity
  8
1
100
AcDbCircle
 10
-293.570696
 20
-302.578477
 30
0.0
 40
10.0
100
AcDbArc
 50
108.68387
 51
180.0
  0
ARC
  5
73
330
25
100
AcDbEntity
  8
1
100
AcDbCircle
 10
-367.570696
 20
-302.578477
 30
0.0
 40
10.0
100
AcDbArc
 50
0.0
 51
71.31613
  0
LINE
  5
74
330
25
100
AcDbEntity
  8
1
100
AcDbLine
 10
-354.570696
 20
-315.165269
 30
0.0
 11
-306.570696
 21
-315.165269
 31
0.0
  0
LINE
  5
75
330
25
100
AcDbEntity
  8
1
100
AcDbLine
 10
-301.347153
 20
-314.569473
 30
0.0
 11
-298.324205
 21
-313.7594759999999
 31
0.0
  0
LINE
  5
76
330
25
100
AcDbEntity
  8
1
100
AcDbLine
 10
-359.794239
 20
-314.569473
 30
0.0
 11
-362.817187
 21
-313.7594759999999
 31
0.0
  0
ARC
  5
77
330
25
100
AcDbEntity
  8
1
100
AcDbCircle
 10
-300.570696
 20
-317.46725
 30
0.0
 40
3.0
100
AcDbArc
 50
105.0
 51
180.0
  0
ARC
  5
78
330
25
100
AcDbEntity
  8
1
100
AcDbCircle
 10
-360.570696
 20
-317.46725
 30
0.0
 40
3.0
100
AcDbArc
 50
360.0
 51
75.0
  0
ARC
  5
79
330
25
100
AcDbEntity
  8
1
100
AcDbCircle
 10
-306.570696
 20
-312.165269
 30
0.0
 40
3.0
100
AcDbArc
 50
270.0
 51
360.0
  0
ARC
  5
7A
330
25
100
AcDbEntity
  8
1
100
AcDbCircle
 10
-354.570696
 20
-312.165269
 30
0.0
 40
3.0
100
AcDbArc
 50
180.0
 51
270.0
  0
ARC
  5
7B
330
25
100
AcDbEntity
  8
1
100
AcDbCircle
 10
-285.605393
 20
-301.721114
 30
0.0
 40
12.0
100
AcDbArc
 50
112.5
 51
210.724874
  0
ARC
  5
7C
330
25
100
AcDbEntity
  8
1
100
AcDbCircle
 10
-375.536
 20
-301.721114
 30
0.0
 40
12.0
100
AcDbArc
 50
329.275126
 51
67.5
  0
ARC
  5
7D
330
25
100
AcDbEntity
  8
1
100
AcDbCircle
 10
-299.359482
 20
-309.895773
 30
0.0
 40
4.0
100
AcDbArc
 50
285.0
 51
30.724874
  0
ARC
  5
7E
330
25
100
AcDbEntity
  8
1
100
AcDbCircle
 10
-361.781911
 20
-309.895773
 30
0.0
 40
4.0
100
AcDbArc
 50
149.275126
 51
255.0
  0
LINE
  5
7F
330
25
100
AcDbEntity
  8
1
  6
CENTER
 62
     2
100
AcDbLine
 10
-348.570696
 20
-309.785025
 30
0.0
 11
-348.570696
 21
-332.548254
 31
0.0
  0
LINE
  5
80
330
25
100
AcDbEntity
  8
1
  6
CENTER
 62
     2
100
AcDbLine
 10
-312.570696
 20
-309.785025
 30
0.0
 11
-312.570696
 21
-332.548254
 31
0.0
  0
LINE
  5
81
330
25
100
AcDbEntity
  8
1
100
AcDbLine
 10
-357.570696
 20
-318.965269
 30
0.0
 11
-303.570696
 21
-318.965269
 31
0.0
  0
LINE
  5
82
330
25
100
AcDbEntity
  8
1
100
AcDbLine
 10
-357.570696
 20
-321.365269
 30
0.0
 11
-303.570696
 21
-321.365269
 31
0.0
  0
LINE
  5
83
330
25
100
AcDbEntity
  8
1
100
AcDbLine
 10
-306.820696
 20
-322.865269
 30
0.0
 11
-306.820696
 21
-326.374521
 31
0.0
  0
LINE
  5
84
330
25
100
AcDbEntity
  8
1
100
AcDbLine
 10
-306.820696
 20
-326.374521
 30
0.0
 11
-307.670696
 21
-326.865269
 31
0.0
  0
LINE
  5
85
330
25
100
AcDbEntity
  8
1
100
AcDbLine
 10
-309.695696
 20
-322.865269
 30
0.0
 11
-309.695696
 21
-326.374521
 31
0.0
  0
ARC
  5
86
330
25
100
AcDbEntity
  8
1
100
AcDbCircle
 10
-308.258196
 20
-324.526567
 30
0.0
 40
2.341226999999999
100
AcDbArc
 50
232.121121
 51
307.878879
  0
ARC
  5
87
330
25
100
AcDbEntity
  8
1
100
AcDbCircle
 10
-312.570696
 20
-318.242794
 30
0.0
 40
8.625
100
AcDbArc
 50
250.528777
 51
289.471219
  0
LINE
  5
88
330
25
100
AcDbEntity
  8
1
100
AcDbLine
 10
-318.320696
 20
-322.865269
 30
0.0
 11
-318.320696
 21
-326.374521
 31
0.0
  0
LINE
  5
89
330
25
100
AcDbEntity
  8
1
100
AcDbLine
 10
-318.320696
 20
-326.374521
 30
0.0
 11
-317.470696
 21
-326.865269
 31
0.0
  0
LINE
  5
8A
330
25
100
AcDbEntity
  8
1
100
AcDbLine
 10
-317.470696
 20
-326.865269
 30
0.0
 11
-307.670696
 21
-326.865269
 31
0.0
  0
LINE
  5
8B
330
25
100
AcDbEntity
  8
1
100
AcDbLine
 10
-315.445696
 20
-322.865269
 30
0.0
 11
-315.445696
 21
-326.374521
 31
0.0
  0
ARC
  5
8C
330
25
100
AcDbEntity
  8
1
100
AcDbCircle
 10
-316.883196
 20
-324.526567
 30
0.0
 40
2.341226999999999
100
AcDbArc
 50
232.121121
 51
307.878879
  0
LINE
  5
8D
330
25
100
AcDbEntity
  8
1
100
AcDbLine
 10
-306.470696
 20
-321.365269
 30
0.0
 11
-306.470696
 21
-322.865269
 31
0.0
  0
LINE
  5
8E
330
25
100
AcDbEntity
  8
1
100
AcDbLine
 10
-306.470696
 20
-322.865269
 30
0.0
 11
-318.670696
 21
-322.865269
 31
0.0
  0
LINE
  5
8F
330
25
100
AcDbEntity
  8
1
100
AcDbLine
 10
-318.670696
 20
-322.865269
 30
0.0
 11
-318.670696
 21
-321.365269
 31
0.0
  0
LINE
  5
90
330
25
100
AcDbEntity
  8
1
100
AcDbLine
 10
-312.570696
 20
-322.865269
 30
0.0
 11
-313.070696
 21
-321.365269
 31
0.0
  0
LINE
  5
91
330
25
100
AcDbEntity
  8
1
100
AcDbLine
 10
-312.570696
 20
-321.365269
 30
0.0
 11
-312.070696
 21
-322.865269
 31
0.0
  0
LINE
  5
92
330
25
100
AcDbEntity
  8
1
100
AcDbLine
 10
-354.670696
 20
-322.865269
 30
0.0
 11
-342.470696
 21
-322.865269
 31
0.0
  0
LINE
  5
93
330
25
100
AcDbEntity
  8
1
100
AcDbLine
 10
-342.820696
 20
-322.865269
 30
0.0
 11
-342.820696
 21
-326.374521
 31
0.0
  0
LINE
  5
94
330
25
100
AcDbEntity
  8
1
100
AcDbLine
 10
-342.820696
 20
-326.374521
 30
0.0
 11
-343.670696
 21
-326.865269
 31
0.0
  0
LINE
  5
95
330
25
100
AcDbEntity
  8
1
100
AcDbLine
 10
-345.695696
 20
-322.865269
 30
0.0
 11
-345.695696
 21
-326.374521
 31
0.0
  0
ARC
  5
96
330
25
100
AcDbEntity
  8
1
100
AcDbCircle
 10
-344.258196
 20
-324.526567
 30
0.0
 40
2.341226999999999
100
AcDbArc
 50
232.121121
 51
307.878879
  0
ARC
  5
97
330
25
100
AcDbEntity
  8
1
100
AcDbCircle
 10
-348.570696
 20
-318.242794
 30
0.0
 40
8.625
100
AcDbArc
 50
250.528777
 51
289.471219
  0
LINE
  5
98
330
25
100
AcDbEntity
  8
1
100
AcDbLine
 10
-354.320696
 20
-322.865269
 30
0.0
 11
-354.320696
 21
-326.374521
 31
0.0
  0
LINE
  5
99
330
25
100
AcDbEntity
  8
1
100
AcDbLine
 10
-354.320696
 20
-326.374521
 30
0.0
 11
-353.470696
 21
-326.865269
 31
0.0
  0
LINE
  5
9A
330
25
100
AcDbEntity
  8
1
100
AcDbLine
 10
-353.470696
 20
-326.865269
 30
0.0
 11
-343.670696
 21
-326.865269
 31
0.0
  0
LINE
  5
9B
330
25
100
AcDbEntity
  8
1
100
AcDbLine
 10
-351.445696
 20
-322.865269
 30
0.0
 11
-351.445696
 21
-326.374521
 31
0.0
  0
ARC
  5
9C
330
25
100
AcDbEntity
  8
1
100
AcDbCircle
 10
-352.883196
 20
-324.526567
 30
0.0
 40
2.341226999999999
100
AcDbArc
 50
232.121121
 51
307.878879
  0
LINE
  5
9D
330
25
100
AcDbEntity
  8
1
100
AcDbLine
 10
-342.470696
 20
-321.365269
 30
0.0
 11
-342.470696
 21
-322.865269
 31
0.0
  0
LINE
  5
9E
330
25
100
AcDbEntity
  8
1
100
AcDbLine
 10
-354.670696
 20
-322.865269
 30
0.0
 11
-354.670696
 21
-321.365269
 31
0.0
  0
LINE
  5
9F
330
25
100
AcDbEntity
  8
1
100
AcDbLine
 10
-348.570696
 20
-322.865269
 30
0.0
 11
-349.070696
 21
-321.365269
 31
0.0
  0
LINE
  5
A0
330
25
100
AcDbEntity
  8
1
100
AcDbLine
 10
-348.570696
 20
-321.365269
 30
0.0
 11
-348.070696
 21
-322.865269
 31
0.0
  0
CIRCLE
  5
A1
330
25
100
AcDbEntity
  8
1
100
AcDbCircle
 10
-330.570696
 20
-193.165269
 30
0.0
 40
105.5
  0
LINE
  5
A2
330
25
100
AcDbEntity
  8
1
100
AcDbLine
 10
-225.070696
 20
263.509731
 30
0.0
 11
-226.070696
 21
264.509731
 31
0.0
  0
LINE
  5
A3
330
25
100
AcDbEntity
  8
1
100
AcDbLine
 10
-226.070696
 20
208.509731
 30
0.0
 11
-225.070696
 21
209.509731
 31
0.0
  0
LINE
  5
A4
330
25
100
AcDbEntity
  8
1
  6
DASHED
100
AcDbLine
 10
-232.947697
 20
227.509731
 30
0.0
 11
-232.947697
 21
245.509731
 31
0.0
  0
LINE
  5
A5
330
25
100
AcDbEntity
  8
1
  6
DASHED
100
AcDbLine
 10
-231.402909
 20
226.27575
 30
0.0
 11
-231.402909
 21
246.743712
 31
0.0
  0
LINE
  5
A6
330
25
100
AcDbEntity
  8
1
  6
DASHED
100
AcDbLine
 10
-279.570696
 20
251.509731
 30
0.0
 11
-238.947697
 21
251.509731
 31
0.0
  0
LINE
  5
A7
330
25
100
AcDbEntity
  8
1
  6
DASHED
100
AcDbLine
 10
-279.570696
 20
221.509731
 30
0.0
 11
-238.947697
 21
221.509731
 31
0.0
  0
ARC
  5
A8
330
25
100
AcDbEntity
  8
1
  6
DASHED
100
AcDbCircle
 10
-238.947697
 20
245.509731
 30
0.0
 40
6.0
100
AcDbArc
 50
0.0
 51
90.0
  0
ARC
  5
A9
330
25
100
AcDbEntity
  8
1
  6
DASHED
100
AcDbCircle
 10
-238.947697
 20
227.509731
 30
0.0
 40
6.0
100
AcDbArc
 50
270.0
 51
360.0
  0
LINE
  5
AA
330
25
100
AcDbEntity
  8
1
  6
DASHED
100
AcDbLine
 10
-252.339233
 20
248.026391
 30
0.0
 11
-279.570696
 21
248.026391
 31
0.0
  0
LINE
  5
AB
330
25
100
AcDbEntity
  8
1
  6
DASHED
100
AcDbLine
 10
-252.339233
 20
224.99307
 30
0.0
 11
-279.570696
 21
224.99307
 31
0.0
  0
LINE
  5
AC
330
25
100
AcDbEntity
  8
1
  6
DASHED
100
AcDbLine
 10
-249.822572
 20
227.509731
 30
0.0
 11
-249.822572
 21
245.509731
 31
0.0
  0
ARC
  5
AD
330
25
100
AcDbEntity
  8
1
  6
DASHED
100
AcDbCircle
 10
-252.339233
 20
245.509731
 30
0.0
 40
2.516659999999999
100
AcDbArc
 50
0.0
 51
90.0
  0
ARC
  5
AE
330
25
100
AcDbEntity
  8
1
  6
DASHED
100
AcDbCircle
 10
-252.339233
 20
227.509731
 30
0.0
 40
2.516659999999999
100
AcDbArc
 50
270.0
 51
0.0
  0
LINE
  5
AF
330
25
100
AcDbEntity
  8
1
100
AcDbLine
 10
-225.070696
 20
209.509731
 30
0.0
 11
-225.070696
 21
218.440423
 31
0.0
  0
LINE
  5
B0
330
25
100
AcDbEntity
  8
1
100
AcDbLine
 10
-225.070696
 20
254.579039
 30
0.0
 11
-225.070696
 21
263.509731
 31
0.0
  0
LINE
  5
B1
330
25
100
AcDbEntity
  8
1
  6
DASHED
100
AcDbLine
 10
-236.192781
 20
250.839875
 30
0.0
 11
-249.822572
 21
248.026391
 31
0.0
  0
LINE
  5
B2
330
25
100
AcDbEntity
  8
1
  6
DASHED
100
AcDbLine
 10
-236.192781
 20
222.179586
 30
0.0
 11
-249.822572
 21
224.99307
 31
0.0
  0
LINE
  5
B3
330
25
100
AcDbEntity
  8
1
  6
DASHED
100
AcDbLine
 10
-228.03542
 20
250.715335
 30
0.0
 11
-228.438185
 21
250.607415
 31
0.0
  0
LINE
  5
B4
330
25
100
AcDbEntity
  8
1
  6
DASHED
100
AcDbLine
 10
-228.03542
 20
222.304126
 30
0.0
 11
-228.438185
 21
222.412047
 31
0.0
  0
ARC
  5
B5
330
25
100
AcDbEntity
  8
1
  6
DASHED
100
AcDbCircle
 10
-227.402909
 20
226.27575
 30
0.0
 40
4.0
100
AcDbArc
 50
180.0
 51
255.0
  0
ARC
  5
B6
330
25
100
AcDbEntity
  8
1
  6
DASHED
100
AcDbCircle
 10
-227.402909
 20
246.743712
 30
0.0
 40
4.0
100
AcDbArc
 50
105.0
 51
180.0
  0
LINE
  5
B7
330
25
100
AcDbEntity
  8
1
  6
DASHED
100
AcDbLine
 10
-277.161728
 20
234.509731
 30
0.0
 11
-277.161728
 21
238.509731
 31
0.0
  0
LINE
  5
B8
330
25
100
AcDbEntity
  8
1
  6
DASHED
100
AcDbLine
 10
-279.570696
 20
240.509731
 30
0.0
 11
-279.161728
 21
240.509731
 31
0.0
  0
LINE
  5
B9
330
25
100
AcDbEntity
  8
1
  6
DASHED
100
AcDbLine
 10
-279.570696
 20
232.509731
 30
0.0
 11
-279.161728
 21
232.509731
 31
0.0
  0
ARC
  5
BA
330
25
100
AcDbEntity
  8
1
  6
DASHED
100
AcDbCircle
 10
-279.161728
 20
238.509731
 30
0.0
 40
2.0
100
AcDbArc
 50
0.0
 51
90.0
  0
ARC
  5
BB
330
25
100
AcDbEntity
  8
1
  6
DASHED
100
AcDbCircle
 10
-279.161728
 20
234.509731
 30
0.0
 40
2.0
100
AcDbArc
 50
270.0
 51
360.0
  0
CIRCLE
  5
BC
330
25
100
AcDbEntity
  8
1
100
AcDbCircle
 10
-330.570696
 20
-193.165269
 30
0.0
 40
104.5
  0
LINE
  5
BD
330
25
100
AcDbEntity
  8
1
100
AcDbLine
 10
-436.0706959999999
 20
263.509731
 30
0.0
 11
-435.070696
 21
264.509731
 31
0.0
  0
LINE
  5
BE
330
25
100
AcDbEntity
  8
1
100
AcDbLine
 10
-435.070696
 20
208.509731
 30
0.0
 11
-436.0706959999999
 21
209.509731
 31
0.0
  0
LINE
  5
BF
330
25
100
AcDbEntity
  8
1
100
AcDbLine
 10
-428.193696
 20
227.509731
 30
0.0
 11
-428.193696
 21
245.509731
 31
0.0
  0
LINE
  5
C0
330
25
100
AcDbEntity
  8
1
100
AcDbLine
 10
-429.738483
 20
226.27575
 30
0.0
 11
-429.738483
 21
246.743712
 31
0.0
  0
ARC
  5
C1
330
25
100
AcDbEntity
  8
1
100
AcDbCircle
 10
-422.1936959999999
 20
245.509731
 30
0.0
 40
6.0
100
AcDbArc
 50
90.0
 51
180.0
  0
ARC
  5
C2
330
25
100
AcDbEntity
  8
1
100
AcDbCircle
 10
-422.1936959999999
 20
227.509731
 30
0.0
 40
6.0
100
AcDbArc
 50
180.0
 51
270.0
  0
LINE
  5
C3
330
25
100
AcDbEntity
  8
1
100
AcDbLine
 10
-411.31882
 20
227.509731
 30
0.0
 11
-411.31882
 21
245.509731
 31
0.0
  0
ARC
  5
C4
330
25
100
AcDbEntity
  8
1
100
AcDbCircle
 10
-408.80216
 20
245.509731
 30
0.0
 40
2.516659999999999
100
AcDbArc
 50
90.0
 51
180.0
  0
ARC
  5
C5
330
25
100
AcDbEntity
  8
1
100
AcDbCircle
 10
-408.80216
 20
227.509731
 30
0.0
 40
2.516659999999999
100
AcDbArc
 50
180.0
 51
270.0
  0
LINE
  5
C6
330
25
100
AcDbEntity
  8
1
100
AcDbLine
 10
-436.0706959999999
 20
209.509731
 30
0.0
 11
-436.0706959999999
 21
218.440423
 31
0.0
  0
LINE
  5
C7
330
25
100
AcDbEntity
  8
1
100
AcDbLine
 10
-436.0706959999999
 20
254.579039
 30
0.0
 11
-436.0706959999999
 21
263.509731
 31
0.0
  0
LINE
  5
C8
330
25
100
AcDbEntity
  8
1
100
AcDbLine
 10
-424.948611
 20
250.839875
 30
0.0
 11
-411.31882
 21
248.026391
 31
0.0
  0
LINE
  5
C9
330
25
100
AcDbEntity
  8
1
100
AcDbLine
 10
-424.948611
 20
222.179586
 30
0.0
 11
-411.31882
 21
224.99307
 31
0.0
  0
LINE
  5
CA
330
25
100
AcDbEntity
  8
1
100
AcDbLine
 10
-433.1059719999999
 20
250.715335
 30
0.0
 11
-432.703207
 21
250.607415
 31
0.0
  0
LINE
  5
CB
330
25
100
AcDbEntity
  8
1
100
AcDbLine
 10
-433.1059719999999
 20
222.304126
 30
0.0
 11
-432.703207
 21
222.412047
 31
0.0
  0
ARC
  5
CC
330
25
100
AcDbEntity
  8
1
100
AcDbCircle
 10
-432.0706959999999
 20
254.579039
 30
0.0
 40
4.0
100
AcDbArc
 50
180.0
 51
255.0
  0
ARC
  5
CD
330
25
100
AcDbEntity
  8
1
100
AcDbCircle
 10
-432.0706959999999
 20
218.440423
 30
0.0
 40
4.0
100
AcDbArc
 50
105.0
 51
180.0
  0
ARC
  5
CE
330
25
100
AcDbEntity
  8
1
100
AcDbCircle
 10
-433.738483
 20
226.27575
 30
0.0
 40
4.0
100
AcDbArc
 50
285.0
 51
360.0
  0
ARC
  5
CF
330
25
100
AcDbEntity
  8
1
100
AcDbCircle
 10
-433.738483
 20
246.743712
 30
0.0
 40
4.0
100
AcDbArc
 50
360.0
 51
75.0
  0
LINE
  5
D0
330
25
100
AcDbEntity
  8
1
  6
DASHED
100
AcDbLine
 10
-383.979664
 20
234.509731
 30
0.0
 11
-383.979664
 21
238.509731
 31
0.0
  0
LINE
  5
D1
330
25
100
AcDbEntity
  8
1
  6
DASHED
100
AcDbLine
 10
-381.570696
 20
240.509731
 30
0.0
 11
-381.979664
 21
240.509731
 31
0.0
  0
LINE
  5
D2
330
25
100
AcDbEntity
  8
1
  6
DASHED
100
AcDbLine
 10
-381.570696
 20
232.509731
 30
0.0
 11
-381.979664
 21
232.509731
 31
0.0
  0
ARC
  5
D3
330
25
100
AcDbEntity
  8
1
  6
DASHED
100
AcDbCircle
 10
-381.979664
 20
238.509731
 30
0.0
 40
2.0
100
AcDbArc
 50
90.0
 51
180.0
  0
ARC
  5
D4
330
25
100
AcDbEntity
  8
1
  6
DASHED
100
AcDbCircle
 10
-381.979664
 20
234.509731
 30
0.0
 40
2.0
100
AcDbArc
 50
180.0
 51
270.0
  0
CIRCLE
  5
D5
330
25
100
AcDbEntity
  8
1
100
AcDbCircle
 10
-330.570696
 20
-193.165269
 30
0.0
 40
98.0
  0
CIRCLE
  5
D6
330
25
100
AcDbEntity
  8
1
100
AcDbCircle
 10
-330.570696
 20
-193.165269
 30
0.0
 40
94.55
  0
CIRCLE
  5
D7
330
25
100
AcDbEntity
  8
1
100
AcDbCircle
 10
-330.570696
 20
-193.165269
 30
0.0
 40
82.24999999999999
  0
CIRCLE
  5
D8
330
25
100
AcDbEntity
  8
1
100
AcDbCircle
 10
-330.570696
 20
-193.165269
 30
0.0
 40
76.75
  0
LINE
  5
D9
330
25
100
AcDbEntity
  8
1
100
AcDbLine
 10
-425.120696
 20
266.509731
 30
0.0
 11
-385.399977
 21
266.509731
 31
0.0
  0
LINE
  5
DA
330
25
100
AcDbEntity
  8
1
  6
DASHED
100
AcDbLine
 10
-385.399977
 20
266.509731
 30
0.0
 11
-381.437339
 21
266.509731
 31
0.0
  0
LINE
  5
DB
330
25
100
AcDbEntity
  8
1
  6
DASHED
100
AcDbLine
 10
-381.565376
 20
264.509731
 30
0.0
 11
-386.447793
 21
264.509731
 31
0.0
  0
LINE
  5
DC
330
25
100
AcDbEntity
  8
1
100
AcDbLine
 10
-386.447793
 20
264.509731
 30
0.0
 11
-435.070696
 21
264.509731
 31
0.0
  0
LINE
  5
DD
330
25
100
AcDbEntity
  8
1
100
AcDbLine
 10
-436.0706959999999
 20
263.509731
 30
0.0
 11
-386.937797
 21
263.509731
 31
0.0
  0
LINE
  5
DE
330
25
100
AcDbEntity
  8
1
  6
DASHED
100
AcDbLine
 10
-386.937797
 20
263.509731
 30
0.0
 11
-381.570696
 21
263.509731
 31
0.0
  0
LINE
  5
DF
330
25
100
AcDbEntity
  8
1
  6
DASHED
100
AcDbLine
 10
-381.570696
 20
251.509731
 30
0.0
 11
-391.244002
 21
251.509731
 31
0.0
  0
LINE
  5
E0
330
25
100
AcDbEntity
  8
1
100
AcDbLine
 10
-391.244002
 20
251.509731
 30
0.0
 11
-422.1936959999999
 21
251.509731
 31
0.0
  0
LINE
  5
E1
330
25
100
AcDbEntity
  8
1
100
AcDbLine
 10
-408.80216
 20
248.026391
 30
0.0
 11
-392.000465
 21
248.026391
 31
0.0
  0
LINE
  5
E2
330
25
100
AcDbEntity
  8
1
  6
DASHED
100
AcDbLine
 10
-392.000465
 20
248.026391
 30
0.0
 11
-381.570696
 21
248.026391
 31
0.0
  0
LINE
  5
E3
330
25
100
AcDbEntity
  8
1
100
AcDbLine
 10
-408.80216
 20
224.99307
 30
0.0
 11
-392.000465
 21
224.99307
 31
0.0
  0
LINE
  5
E4
330
25
100
AcDbEntity
  8
1
  6
DASHED
100
AcDbLine
 10
-392.000465
 20
224.99307
 30
0.0
 11
-381.570696
 21
224.99307
 31
0.0
  0
LINE
  5
E5
330
25
100
AcDbEntity
  8
1
  6
DASHED
100
AcDbLine
 10
-381.570696
 20
221.509731
 30
0.0
 11
-391.244002
 21
221.509731
 31
0.0
  0
LINE
  5
E6
330
25
100
AcDbEntity
  8
1
100
AcDbLine
 10
-391.244002
 20
221.509731
 30
0.0
 11
-422.1936959999999
 21
221.509731
 31
0.0
  0
LINE
  5
E7
330
25
100
AcDbEntity
  8
1
100
AcDbLine
 10
-436.0706959999999
 20
209.509731
 30
0.0
 11
-386.937797
 21
209.509731
 31
0.0
  0
LINE
  5
E8
330
25
100
AcDbEntity
  8
1
  6
DASHED
100
AcDbLine
 10
-386.937797
 20
209.509731
 30
0.0
 11
-381.570696
 21
209.509731
 31
0.0
  0
LINE
  5
E9
330
25
100
AcDbEntity
  8
1
  6
DASHED
100
AcDbLine
 10
-381.565376
 20
208.509731
 30
0.0
 11
-386.447793
 21
208.509731
 31
0.0
  0
LINE
  5
EA
330
25
100
AcDbEntity
  8
1
100
AcDbLine
 10
-386.447793
 20
208.509731
 30
0.0
 11
-435.070696
 21
208.509731
 31
0.0
  0
LINE
  5
EB
330
25
100
AcDbEntity
  8
1
100
AcDbLine
 10
-425.120696
 20
206.509731
 30
0.0
 11
-385.399977
 21
206.509731
 31
0.0
  0
LINE
  5
EC
330
25
100
AcDbEntity
  8
1
  6
DASHED
100
AcDbLine
 10
-385.399977
 20
206.509731
 30
0.0
 11
-381.437339
 21
206.509731
 31
0.0
  0
LINE
  5
ED
330
25
100
AcDbEntity
  8
1
  6
DASHED
100
AcDbLine
 10
-279.704053
 20
266.509731
 30
0.0
 11
-264.568802
 21
266.509731
 31
0.0
  0
LINE
  5
EE
330
25
100
AcDbEntity
  8
1
100
AcDbLine
 10
-264.568802
 20
266.509731
 30
0.0
 11
-236.020696
 21
266.509731
 31
0.0
  0
LINE
  5
EF
330
25
100
AcDbEntity
  8
1
  6
DASHED
100
AcDbLine
 10
-279.576016
 20
264.509731
 30
0.0
 11
-264.045125
 21
264.509731
 31
0.0
  0
LINE
  5
F0
330
25
100
AcDbEntity
  8
1
100
AcDbLine
 10
-264.044919
 20
264.509731
 30
0.0
 11
-226.070696
 21
264.509731
 31
0.0
  0
LINE
  5
F1
330
25
100
AcDbEntity
  8
1
100
AcDbLine
 10
-225.070696
 20
263.509731
 30
0.0
 11
-265.136228
 21
263.509731
 31
0.0
  0
LINE
  5
F2
330
25
100
AcDbEntity
  8
1
  6
DASHED
100
AcDbLine
 10
-265.136228
 20
263.509731
 30
0.0
 11
-279.570696
 21
263.509731
 31
0.0
  0
ARC
  5
F3
330
25
100
AcDbEntity
  8
1
  6
DASHED
100
AcDbCircle
 10
-229.070696
 20
254.579039
 30
0.0
 40
4.0
100
AcDbArc
 50
285.0
 51
339.151471
  0
ARC
  5
F4
330
25
100
AcDbEntity
  8
1
100
AcDbCircle
 10
-229.070696
 20
254.579039
 30
0.0
 40
4.0
100
AcDbArc
 50
339.151471
 51
360.0
  0
ARC
  5
F5
330
25
100
AcDbEntity
  8
1
100
AcDbCircle
 10
-229.070696
 20
218.440423
 30
0.0
 40
4.0
100
AcDbArc
 50
0.0
 51
39.85687
  0
ARC
  5
F6
330
25
100
AcDbEntity
  8
1
  6
DASHED
100
AcDbCircle
 10
-229.070696
 20
218.440423
 30
0.0
 40
4.0
100
AcDbArc
 50
39.85687
 51
75.0
  0
LINE
  5
F7
330
25
100
AcDbEntity
  8
1
100
AcDbLine
 10
-225.070696
 20
209.509731
 30
0.0
 11
-253.070696
 21
209.509731
 31
0.0
  0
LINE
  5
F8
330
25
100
AcDbEntity
  8
1
  6
DASHED
100
AcDbLine
 10
-253.070696
 20
209.509731
 30
0.0
 11
-279.570696
 21
209.509731
 31
0.0
  0
LINE
  5
F9
330
25
100
AcDbEntity
  8
1
  6
DASHED
100
AcDbLine
 10
-279.576016
 20
208.509731
 30
0.0
 11
-270.823304
 21
208.509731
 31
0.0
  0
LINE
  5
FA
330
25
100
AcDbEntity
  8
1
100
AcDbLine
 10
-270.823304
 20
208.509731
 30
0.0
 11
-226.070696
 21
208.509731
 31
0.0
  0
LINE
  5
FB
330
25
100
AcDbEntity
  8
1
  6
DASHED
100
AcDbLine
 10
-279.704053
 20
206.509731
 30
0.0
 11
-274.438139
 21
206.509731
 31
0.0
  0
LINE
  5
FC
330
25
100
AcDbEntity
  8
1
100
AcDbLine
 10
-274.438139
 20
206.509731
 30
0.0
 11
-236.020696
 21
206.509731
 31
0.0
  0
LINE
  5
FD
330
25
100
AcDbEntity
  8
1
100
AcDbLine
 10
-348.016367
 20
-120.065269
 30
0.0
 11
-313.796013
 21
-120.065269
 31
0.0
  0
ARC
  5
FE
330
25
100
AcDbEntity
  8
1
100
AcDbCircle
 10
-330.570696
 20
-193.165269
 30
0.0
 40
75.0
100
AcDbArc
 50
102.924238
 51
257.075762
  0
ARC
  5
FF
330
25
100
AcDbEntity
  8
1
100
AcDbCircle
 10
-330.570696
 20
-193.165269
 30
0.0
 40
75.0
100
AcDbArc
 50
282.924238
 51
77.075762
  0
LINE
  5
100
330
25
100
AcDbEntity
  8
1
100
AcDbLine
 10
-327.070696
 20
-164.418421
 30
0.0
 11
-327.070696
 21
-189.101943
 31
0.0
  0
LINE
  5
101
330
25
100
AcDbEntity
  8
1
100
AcDbLine
 10
-321.874544
 20
-164.873026
 30
0.0
 11
-321.874544
 21
-188.415269
 31
0.0
  0
LINE
  5
102
330
25
100
AcDbEntity
  8
1
100
AcDbLine
 10
-270.1237680000001
 20
-159.689366
 30
0.0
 11
-313.245008
 21
-155.916746
 31
0.0
  0
LINE
  5
103
330
25
100
AcDbEntity
  8
1
100
AcDbLine
 10
-275.225759
 20
-165.367481
 30
0.0
 11
-331.267942
 21
-160.464426
 31
0.0
  0
LINE
  5
104
330
25
100
AcDbEntity
  8
1
100
AcDbLine
 10
-339.2668490000001
 20
-162.238711
 30
0.0
 11
-339.2668490000001
 21
-189.101943
 31
0.0
  0
LINE
  5
105
330
25
100
AcDbEntity
  8
1
100
AcDbLine
 10
-334.070696
 20
-163.456046
 30
0.0
 11
-334.070696
 21
-189.101943
 31
0.0
  0
LINE
  5
106
330
25
100
AcDbEntity
  8
1
100
AcDbLine
 10
-315.070696
 20
-129.513961
 30
0.0
 11
-315.070696
 21
-153.924357
 31
0.0
  0
LINE
  5
107
330
25
100
AcDbEntity
  8
1
100
AcDbLine
 10
-317.422325
 20
-128.97467
 30
0.0
 11
-340.543186
 21
-128.97467
 31
0.0
  0
ARC
  5
108
330
25
100
AcDbEntity
  8
1
100
AcDbCircle
 10
-317.266324
 20
-136.576831
 30
0.0
 40
20.315222
100
AcDbArc
 50
226.422272
 51
265.4244339999999
  0
LINE
  5
109
330
25
100
AcDbEntity
  8
1
100
AcDbLine
 10
-276.62789
 20
-160.524496
 30
0.0
 11
-318.886947
 21
-156.827308
 31
0.0
  0
LINE
  5
10A
330
25
100
AcDbEntity
  8
1
100
AcDbLine
 10
-268.693808
 20
-167.34312
 30
0.0
 11
-338.767942
 21
-161.212428
 31
0.0
  0
LINE
  5
10B
330
25
100
AcDbEntity
  8
1
100
AcDbLine
 10
-271.038405
 20
-160.005478
 30
0.0
 11
-275.341987
 21
-160.483217
 31
0.0
  0
LINE
  5
10C
330
25
100
AcDbEntity
  8
1
100
AcDbLine
 10
-268.941026
 20
-166.702605
 30
0.0
 11
-273.442126
 21
-165.523528
 31
0.0
  0
ARC
  5
10D
330
25
100
AcDbEntity
  8
1
100
AcDbCircle
 10
-330.570696
 20
-193.165269
 30
0.0
 40
70.0
100
AcDbArc
 50
24.144376
 51
27.5804
  0
ARC
  5
10E
330
25
100
AcDbEntity
  8
1
100
AcDbCircle
 10
-330.570696
 20
-193.165269
 30
0.0
 40
63.464473
100
AcDbArc
 50
27.449444
 51
30.437703
  0
ARC
  5
10F
330
25
100
AcDbEntity
  8
1
100
AcDbCircle
 10
-268.519496
 20
-165.35073
 30
0.0
 40
2.0
100
AcDbArc
 50
265.0
 51
24.144376
  0
ARC
  5
110
330
25
100
AcDbEntity
  8
1
100
AcDbCircle
 10
-270.29808
 20
-161.681755
 30
0.0
 40
2.0
100
AcDbArc
 50
27.5804
 51
85.0
  0
ARC
  5
111
330
25
100
AcDbEntity
  8
1
100
AcDbCircle
 10
-275.138603
 20
-164.371286
 30
0.0
 40
1.0
100
AcDbArc
 50
265.0
 51
27.449444
  0
ARC
  5
112
330
25
100
AcDbEntity
  8
1
100
AcDbCircle
 10
-276.715046
 20
-161.520691
 30
0.0
 40
1.0
100
AcDbArc
 50
30.437703
 51
85.0
  0
LINE
  5
113
330
25
100
AcDbEntity
  8
1
100
AcDbLine
 10
-338.570696
 20
-134.080207
 30
0.0
 11
-338.570696
 21
-152.494868
 31
0.0
  0
ARC
  5
114
330
25
100
AcDbEntity
  8
1
100
AcDbCircle
 10
-330.570696
 20
-152.494868
 30
0.0
 40
8.0
100
AcDbArc
 50
180.0
 51
265.0
  0
LINE
  5
115
330
25
100
AcDbEntity
  8
1
100
AcDbLine
 10
-355.068384
 20
-127.665269
 30
0.0
 11
-350.126389
 21
-127.665269
 31
0.0
  0
ARC
  5
116
330
25
100
AcDbEntity
  8
1
100
AcDbCircle
 10
-344.152556
 20
-126.504826
 30
0.0
 40
2.0
100
AcDbArc
 50
180.0
 51
231.317813
  0
LINE
  5
117
330
25
100
AcDbEntity
  8
1
100
AcDbLine
 10
-316.985251
 20
-128.97467
 30
0.0
 11
-342.683713
 21
-128.97467
 31
0.0
  0
LINE
  5
118
330
25
100
AcDbEntity
  8
1
100
AcDbLine
 10
-315.570696
 20
-127.665269
 30
0.0
 11
-344.152556
 21
-127.665269
 31
0.0
  0
LINE
  5
119
330
25
100
AcDbEntity
  8
1
100
AcDbLine
 10
-306.073008
 20
-127.665269
 30
0.0
 11
-311.015004
 21
-127.665269
 31
0.0
  0
ARC
  5
11A
330
25
100
AcDbEntity
  8
1
100
AcDbCircle
 10
-315.570696
 20
-126.504826
 30
0.0
 40
2.0
100
AcDbArc
 50
308.682187
 51
360.0
  0
LINE
  5
11B
330
25
100
AcDbEntity
  8
1
100
AcDbLine
 10
-320.570696
 20
-132.053664
 30
0.0
 11
-320.570696
 21
-149.34935
 31
0.0
  0
ARC
  5
11C
330
25
100
AcDbEntity
  8
1
100
AcDbCircle
 10
-312.570696
 20
-149.34935
 30
0.0
 40
8.0
100
AcDbArc
 50
180.0
 51
265.000001
  0
ARC
  5
11D
330
25
100
AcDbEntity
  8
1
100
AcDbCircle
 10
-313.070696
 20
-153.924357
 30
0.0
 40
2.0
100
AcDbArc
 50
180.0
 51
264.999999
  0
ARC
  5
11E
330
25
100
AcDbEntity
  8
1
100
AcDbCircle
 10
-319.874544
 20
-164.873026
 30
0.0
 40
2.0
100
AcDbArc
 50
85.0
 51
180.0
  0
ARC
  5
11F
330
25
100
AcDbEntity
  8
1
100
AcDbCircle
 10
-325.070696
 20
-164.418421
 30
0.0
 40
2.0
100
AcDbArc
 50
85.0
 51
180.0
  0
ARC
  5
120
330
25
100
AcDbEntity
  8
1
100
AcDbCircle
 10
-336.070696
 20
-163.456046
 30
0.0
 40
2.0
100
AcDbArc
 50
0.0
 51
85.0
  0
LINE
  5
121
330
25
100
AcDbEntity
  8
1
100
AcDbLine
 10
-344.652556
 20
-153.366942
 30
0.0
 11
-344.652556
 21
-130.074111
 31
0.0
  0
ARC
  5
122
330
25
100
AcDbEntity
  8
1
100
AcDbCircle
 10
-336.652556
 20
-153.366942
 30
0.0
 40
8.0
100
AcDbArc
 50
180.0
 51
265.0
  0
ARC
  5
123
330
25
100
AcDbEntity
  8
1
100
AcDbCircle
 10
-341.2668490000001
 20
-162.238711
 30
0.0
 40
2.0
100
AcDbArc
 50
0.0
 51
62.520621
  0
LINE
  5
124
330
25
100
AcDbEntity
  8
1
100
AcDbLine
 10
-327.070696
 20
-221.912117
 30
0.0
 11
-327.070696
 21
-197.228595
 31
0.0
  0
LINE
  5
125
330
25
100
AcDbEntity
  8
1
100
AcDbLine
 10
-321.874544
 20
-221.457513
 30
0.0
 11
-321.874544
 21
-197.915269
 31
0.0
  0
LINE
  5
126
330
25
100
AcDbEntity
  8
1
100
AcDbLine
 10
-262.513121
 20
-196.517573
 30
0.0
 11
-267.14979
 21
-195.516445
 31
0.0
  0
LINE
  5
127
330
25
100
AcDbEntity
  8
1
100
AcDbLine
 10
-322.472066
 20
-196.754414
 30
0.0
 11
-326.464804
 21
-195.679553
 31
0.0
  0
LINE
  5
128
330
25
100
AcDbEntity
  8
1
100
AcDbLine
 10
-262.593219
 20
-196.915269
 30
0.0
 11
-321.438598
 21
-196.915269
 31
0.0
  0
LINE
  5
129
330
25
100
AcDbEntity
  8
1
100
AcDbLine
 10
-268.120839
 20
-195.516445
 30
0.0
 11
-338.070708
 21
-195.516445
 31
0.0
  0
ARC
  5
12A
330
25
100
AcDbEntity
  8
1
100
AcDbCircle
 10
-330.570696
 20
-193.165269
 30
0.0
 40
70.0
100
AcDbArc
 50
358.525313
 51
1.474687
  0
ARC
  5
12B
330
25
100
AcDbEntity
  8
1
100
AcDbCircle
 10
-330.570696
 20
-193.165269
 30
0.0
 40
63.464473
100
AcDbArc
 50
358.760532
 51
1.239468
  0
ARC
  5
12C
330
25
100
AcDbEntity
  8
1
100
AcDbCircle
 10
-262.593219
 20
-194.915269
 30
0.0
 40
2.0
100
AcDbArc
 50
270.0
 51
358.525313
  0
ARC
  5
12D
330
25
100
AcDbEntity
  8
1
100
AcDbCircle
 10
-268.120839
 20
-194.516445
 30
0.0
 40
1.0
100
AcDbArc
 50
270.0
 51
358.760532
  0
LINE
  5
12E
330
25
100
AcDbEntity
  8
1
100
AcDbLine
 10
-339.2668490000001
 20
-224.091827
 30
0.0
 11
-339.2668490000001
 21
-197.228595
 31
0.0
  0
LINE
  5
12F
330
25
100
AcDbEntity
  8
1
100
AcDbLine
 10
-334.070696
 20
-222.874492
 30
0.0
 11
-334.070696
 21
-197.228595
 31
0.0
  0
LINE
  5
130
330
25
100
AcDbEntity
  8
1
100
AcDbLine
 10
-324.524802
 20
-194.849793
 30
0.0
 11
-324.524802
 21
-191.635089
 31
0.0
  0
LINE
  5
131
330
25
100
AcDbEntity
  8
1
100
AcDbLine
 10
-324.425302
 20
-196.228595
 30
0.0
 11
-340.266849
 21
-196.228595
 31
0.0
  0
LINE
  5
132
330
25
100
AcDbEntity
  8
1
100
AcDbLine
 10
-322.472066
 20
-189.576124
 30
0.0
 11
-326.464804
 21
-190.650985
 31
0.0
  0
LINE
  5
133
330
25
100
AcDbEntity
  8
1
100
AcDbLine
 10
-262.593219
 20
-189.415269
 30
0.0
 11
-321.438598
 21
-189.415269
 31
0.0
  0
LINE
  5
134
330
25
100
AcDbEntity
  8
1
100
AcDbLine
 10
-268.120839
 20
-190.814093
 30
0.0
 11
-338.070708
 21
-190.814093
 31
0.0
  0
LINE
  5
135
330
25
100
AcDbEntity
  8
1
100
AcDbLine
 10
-324.524802
 20
-191.4807449999999
 30
0.0
 11
-324.524802
 21
-194.695449
 31
0.0
  0
LINE
  5
136
330
25
100
AcDbEntity
  8
1
100
AcDbLine
 10
-324.963524
 20
-190.101943
 30
0.0
 11
-340.075171
 21
-190.101943
 31
0.0
  0
LINE
  5
137
330
25
100
AcDbEntity
  8
1
100
AcDbLine
 10
-262.513121
 20
-189.812965
 30
0.0
 11
-267.14979
 21
-190.814093
 31
0.0
  0
LINE
  5
138
330
25
100
AcDbEntity
  8
1
100
AcDbLine
 10
-262.593219
 20
-189.415269
 30
0.0
 11
-321.438598
 21
-189.415269
 31
0.0
  0
LINE
  5
139
330
25
100
AcDbEntity
  8
1
100
AcDbLine
 10
-268.120839
 20
-190.814093
 30
0.0
 11
-339.070696
 21
-190.814093
 31
0.0
  0
ARC
  5
13A
330
25
100
AcDbEntity
  8
1
100
AcDbCircle
 10
-330.570696
 20
-193.165269
 30
0.0
 40
70.0
100
AcDbArc
 50
358.525313
 51
1.474687
  0
ARC
  5
13B
330
25
100
AcDbEntity
  8
1
100
AcDbCircle
 10
-330.570696
 20
-193.165269
 30
0.0
 40
63.464473
100
AcDbArc
 50
358.760532
 51
1.239468
  0
ARC
  5
13C
330
25
100
AcDbEntity
  8
1
100
AcDbCircle
 10
-262.593219
 20
-191.415269
 30
0.0
 40
2.0
100
AcDbArc
 50
1.474687
 51
90.0
  0
ARC
  5
13D
330
25
100
AcDbEntity
  8
1
100
AcDbCircle
 10
-268.120839
 20
-191.814093
 30
0.0
 40
1.0
100
AcDbArc
 50
1.239468
 51
90.0
  0
LINE
  5
13E
330
25
100
AcDbEntity
  8
1
100
AcDbLine
 10
-262.593219
 20
-196.915269
 30
0.0
 11
-321.438598
 21
-196.915269
 31
0.0
  0
LINE
  5
13F
330
25
100
AcDbEntity
  8
1
100
AcDbLine
 10
-268.120839
 20
-195.516445
 30
0.0
 11
-339.070696
 21
-195.516445
 31
0.0
  0
LINE
  5
140
330
25
100
AcDbEntity
  8
1
100
AcDbLine
 10
-268.693808
 20
-218.987418
 30
0.0
 11
-337.349802
 21
-224.994039
 31
0.0
  0
LINE
  5
141
330
25
100
AcDbEntity
  8
1
100
AcDbLine
 10
-268.941026
 20
-219.627933
 30
0.0
 11
-273.442126
 21
-220.80701
 31
0.0
  0
ARC
  5
142
330
25
100
AcDbEntity
  8
1
100
AcDbCircle
 10
-268.519496
 20
-220.979808
 30
0.0
 40
2.0
100
AcDbArc
 50
335.855624
 51
95.0
  0
LINE
  5
143
330
25
100
AcDbEntity
  8
1
100
AcDbLine
 10
-344.652556
 20
-191.101943
 30
0.0
 11
-344.652556
 21
-195.228595
 31
0.0
  0
LINE
  5
144
330
25
100
AcDbEntity
  8
1
100
AcDbLine
 10
-340.266849
 20
-190.101943
 30
0.0
 11
-343.652556
 21
-190.101943
 31
0.0
  0
LINE
  5
145
330
25
100
AcDbEntity
  8
1
100
AcDbLine
 10
-343.558819
 20
-190.241486
 30
0.0
 11
-339.070708
 21
-190.814093
 31
0.0
  0
ARC
  5
146
330
25
100
AcDbEntity
  8
1
100
AcDbCircle
 10
-343.652556
 20
-191.101943
 30
0.0
 40
1.0
100
AcDbArc
 50
90.0
 51
180.0
  0
LINE
  5
147
330
25
100
AcDbEntity
  8
1
100
AcDbLine
 10
-339.070708
 20
-191.814093
 30
0.0
 11
-339.070708
 21
-194.516445
 31
0.0
  0
ARC
  5
148
330
25
100
AcDbEntity
  8
1
100
AcDbCircle
 10
-343.652556
 20
-195.228595
 30
0.0
 40
1.0
100
AcDbArc
 50
180.0
 51
270.0
  0
LINE
  5
149
330
25
100
AcDbEntity
  8
1
100
AcDbLine
 10
-343.558819
 20
-196.089053
 30
0.0
 11
-339.070708
 21
-195.516445
 31
0.0
  0
LINE
  5
14A
330
25
100
AcDbEntity
  8
1
100
AcDbLine
 10
-340.570698
 20
-196.228595
 30
0.0
 11
-343.652556
 21
-196.228595
 31
0.0
  0
ARC
  5
14B
330
25
100
AcDbEntity
  8
1
100
AcDbCircle
 10
-340.266849
 20
-189.101943
 30
0.0
 40
1.0
100
AcDbArc
 50
270.0
 51
360.0
  0
ARC
  5
14C
330
25
100
AcDbEntity
  8
1
100
AcDbCircle
 10
-335.070696
 20
-189.101943
 30
0.0
 40
1.0
100
AcDbArc
 50
270.0
 51
360.0
  0
ARC
  5
14D
330
25
100
AcDbEntity
  8
1
100
AcDbCircle
 10
-326.070696
 20
-189.101943
 30
0.0
 40
1.0
100
AcDbArc
 50
180.0
 51
270.0
  0
ARC
  5
14E
330
25
100
AcDbEntity
  8
1
100
AcDbCircle
 10
-320.874544
 20
-188.415269
 30
0.0
 40
1.0
100
AcDbArc
 50
180.0
 51
270.0
  0
ARC
  5
14F
330
25
100
AcDbEntity
  8
1
100
AcDbCircle
 10
-320.874544
 20
-197.915269
 30
0.0
 40
1.0
100
AcDbArc
 50
90.0
 51
180.0
  0
ARC
  5
150
330
25
100
AcDbEntity
  8
1
100
AcDbCircle
 10
-335.070696
 20
-197.228595
 30
0.0
 40
1.0
100
AcDbArc
 50
0.0
 51
90.0
  0
ARC
  5
151
330
25
100
AcDbEntity
  8
1
100
AcDbCircle
 10
-340.266849
 20
-197.228595
 30
0.0
 40
1.0
100
AcDbArc
 50
0.0
 51
90.0
  0
ARC
  5
152
330
25
100
AcDbEntity
  8
1
100
AcDbCircle
 10
-326.070696
 20
-197.228595
 30
0.0
 40
1.0
100
AcDbArc
 50
90.0
 51
180.0
  0
ARC
  5
153
330
25
100
AcDbEntity
  8
1
100
AcDbCircle
 10
-338.070708
 20
-191.814093
 30
0.0
 40
1.0
100
AcDbArc
 50
90.0
 51
180.0
  0
ARC
  5
154
330
25
100
AcDbEntity
  8
1
100
AcDbCircle
 10
-338.070708
 20
-194.516445
 30
0.0
 40
1.0
100
AcDbArc
 50
180.0
 51
270.0
  0
POINT
  5
155
330
25
100
AcDbEntity
  8
1
100
AcDbPoint
 10
-330.570696
 20
-193.165269
 30
0.0
  0
LINE
  5
156
330
25
100
AcDbEntity
  8
1
100
AcDbLine
 10
-348.016367
 20
-266.265269
 30
0.0
 11
-313.796013
 21
-266.265269
 31
0.0
  0
LINE
  5
157
330
25
100
AcDbEntity
  8
1
100
AcDbLine
 10
-355.068384
 20
-258.665269
 30
0.0
 11
-350.126389
 21
-258.665269
 31
0.0
  0
LINE
  5
158
330
25
100
AcDbEntity
  8
1
100
AcDbLine
 10
-306.073008
 20
-258.665269
 30
0.0
 11
-311.015004
 21
-258.665269
 31
0.0
  0
ARC
  5
159
330
25
100
AcDbEntity
  8
1
100
AcDbCircle
 10
-313.070696
 20
-256.703213
 30
0.0
 40
2.0
100
AcDbArc
 50
180.0
 51
231.317813
  0
ARC
  5
15A
330
25
100
AcDbEntity
  8
1
100
AcDbCircle
 10
-315.570696
 20
-259.825712
 30
0.0
 40
2.0
100
AcDbArc
 50
0.0
 51
51.317813
  0
LINE
  5
15B
330
25
100
AcDbEntity
  8
1
100
AcDbLine
 10
-316.985251
 20
-257.355868
 30
0.0
 11
-342.350212
 21
-257.355868
 31
0.0
  0
LINE
  5
15C
330
25
100
AcDbEntity
  8
1
100
AcDbLine
 10
-315.570696
 20
-258.665269
 30
0.0
 11
-343.884422
 21
-258.665269
 31
0.0
  0
ARC
  5
15D
330
25
100
AcDbEntity
  8
1
100
AcDbCircle
 10
-330.570696
 20
-374.319898
 30
0.0
 40
109.20152
100
AcDbArc
 50
83.24238299999999
 51
96.75761700000002
  0
ARC
  5
15E
330
25
100
AcDbEntity
  8
1
100
AcDbCircle
 10
-345.008913
 20
-252.470808
 30
0.0
 40
13.5
100
AcDbArc
 50
256.317251
 51
276.757617
  0
ARC
  5
15F
330
25
100
AcDbEntity
  8
1
100
AcDbCircle
 10
-316.13248
 20
-252.470808
 30
0.0
 40
13.5
100
AcDbArc
 50
263.242383
 51
283.682749
  0
LINE
  5
160
330
25
100
AcDbEntity
  8
1
100
AcDbLine
 10
-270.1237680000001
 20
-226.641172
 30
0.0
 11
-313.245008
 21
-230.413792
 31
0.0
  0
LINE
  5
161
330
25
100
AcDbEntity
  8
1
100
AcDbLine
 10
-275.225759
 20
-220.963057
 30
0.0
 11
-331.267942
 21
-225.866113
 31
0.0
  0
LINE
  5
162
330
25
100
AcDbEntity
  8
1
100
AcDbLine
 10
-315.070696
 20
-256.703213
 30
0.0
 11
-315.070696
 21
-232.406182
 31
0.0
  0
ARC
  5
163
330
25
100
AcDbEntity
  8
1
100
AcDbCircle
 10
-317.266324
 20
-249.753707
 30
0.0
 40
20.315222
100
AcDbArc
 50
94.57556600000001
 51
133.577728
  0
LINE
  5
164
330
25
100
AcDbEntity
  8
1
100
AcDbLine
 10
-276.62789
 20
-225.806042
 30
0.0
 11
-318.886947
 21
-229.50323
 31
0.0
  0
LINE
  5
165
330
25
100
AcDbEntity
  8
1
100
AcDbLine
 10
-271.038405
 20
-226.32506
 30
0.0
 11
-275.341987
 21
-225.847321
 31
0.0
  0
ARC
  5
166
330
25
100
AcDbEntity
  8
1
100
AcDbCircle
 10
-330.570696
 20
-193.165269
 30
0.0
 40
70.0
100
AcDbArc
 50
332.4196
 51
335.855624
  0
ARC
  5
167
330
25
100
AcDbEntity
  8
1
100
AcDbCircle
 10
-330.570696
 20
-193.165269
 30
0.0
 40
63.464473
100
AcDbArc
 50
329.562297
 51
332.550556
  0
ARC
  5
168
330
25
100
AcDbEntity
  8
1
100
AcDbCircle
 10
-270.29808
 20
-224.648783
 30
0.0
 40
2.0
100
AcDbArc
 50
275.0
 51
332.4196
  0
ARC
  5
169
330
25
100
AcDbEntity
  8
1
100
AcDbCircle
 10
-275.138603
 20
-221.959252
 30
0.0
 40
1.0
100
AcDbArc
 50
332.550556
 51
95.0
  0
ARC
  5
16A
330
25
100
AcDbEntity
  8
1
100
AcDbCircle
 10
-276.715046
 20
-224.809847
 30
0.0
 40
1.0
100
AcDbArc
 50
275.0
 51
329.562297
  0
LINE
  5
16B
330
25
100
AcDbEntity
  8
1
100
AcDbLine
 10
-338.570696
 20
-252.250331
 30
0.0
 11
-338.570696
 21
-233.835671
 31
0.0
  0
ARC
  5
16C
330
25
100
AcDbEntity
  8
1
100
AcDbCircle
 10
-330.570696
 20
-233.835671
 30
0.0
 40
8.0
100
AcDbArc
 50
95.0
 51
180.0
  0
ARC
  5
16D
330
25
100
AcDbEntity
  8
1
100
AcDbCircle
 10
-344.152556
 20
-259.825712
 30
0.0
 40
2.0
100
AcDbArc
 50
128.682187
 51
180.0
  0
LINE
  5
16E
330
25
100
AcDbEntity
  8
1
100
AcDbLine
 10
-320.570696
 20
-254.276874
 30
0.0
 11
-320.570696
 21
-236.981189
 31
0.0
  0
ARC
  5
16F
330
25
100
AcDbEntity
  8
1
100
AcDbCircle
 10
-312.570696
 20
-236.981189
 30
0.0
 40
8.0
100
AcDbArc
 50
94.999999
 51
180.0
  0
ARC
  5
170
330
25
100
AcDbEntity
  8
1
100
AcDbCircle
 10
-313.070696
 20
-232.406182
 30
0.0
 40
2.0
100
AcDbArc
 50
95.00000099999999
 51
180.0
  0
ARC
  5
171
330
25
100
AcDbEntity
  8
1
100
AcDbCircle
 10
-319.874544
 20
-221.457513
 30
0.0
 40
2.0
100
AcDbArc
 50
180.0
 51
275.0
  0
ARC
  5
172
330
25
100
AcDbEntity
  8
1
100
AcDbCircle
 10
-325.070696
 20
-221.912117
 30
0.0
 40
2.0
100
AcDbArc
 50
180.0
 51
275.0
  0
ARC
  5
173
330
25
100
AcDbEntity
  8
1
100
AcDbCircle
 10
-336.070696
 20
-222.874492
 30
0.0
 40
2.0
100
AcDbArc
 50
275.0
 51
360.0
  0
LINE
  5
174
330
25
100
AcDbEntity
  8
1
100
AcDbLine
 10
-344.652556
 20
-232.963597
 30
0.0
 11
-344.652556
 21
-255.19556
 31
0.0
  0
ARC
  5
175
330
25
100
AcDbEntity
  8
1
100
AcDbCircle
 10
-336.652556
 20
-232.963597
 30
0.0
 40
8.0
100
AcDbArc
 50
95.0
 51
180.0
  0
ARC
  5
176
330
25
100
AcDbEntity
  8
1
100
AcDbCircle
 10
-341.2668490000001
 20
-224.091827
 30
0.0
 40
2.0
100
AcDbArc
 50
297.479379
 51
360.0
  0
LINE
  5
177
330
25
100
AcDbEntity
  8
1
  6
CENTER
 62
     2
100
AcDbLine
 10
71.890754
 20
-193.165269
 30
0.0
 11
166.406261
 21
-193.165269
 31
0.0
  0
LINE
  5
178
330
25
100
AcDbEntity
  8
1
  6
CENTER
 62
     2
100
AcDbLine
 10
128.104304
 20
103.610939
 30
0.0
 11
128.104304
 21
-331.417557
 31
0.0
  0
LINE
  5
179
330
25
100
AcDbEntity
  8
1
100
AcDbLine
 10
81.104304
 20
-5.165269
 30
0.0
 11
175.104304
 21
-5.165269
 31
0.0
  0
LINE
  5
17A
330
25
100
AcDbEntity
  8
1
100
AcDbLine
 10
77.10430399999999
 20
8.834730999999999
 30
0.0
 11
77.10430399999999
 21
-1.165269
 31
0.0
  0
LINE
  5
17B
330
25
100
AcDbEntity
  8
1
100
AcDbLine
 10
179.104304
 20
8.834730999999999
 30
0.0
 11
179.104304
 21
-1.165269
 31
0.0
  0
LINE
  5
17C
330
25
100
AcDbEntity
  8
1
100
AcDbLine
 10
109.104304
 20
-13.165269
 30
0.0
 11
109.104304
 21
-86.044882
 31
0.0
  0
LINE
  5
17D
330
25
100
AcDbEntity
  8
1
100
AcDbLine
 10
147.104304
 20
-13.165269
 30
0.0
 11
147.104304
 21
-86.044882
 31
0.0
  0
LINE
  5
17E
330
25
100
AcDbEntity
  8
1
100
AcDbLine
 10
119.104304
 20
-163.755013
 30
0.0
 11
137.104304
 21
-163.755013
 31
0.0
  0
LINE
  5
17F
330
25
100
AcDbEntity
  8
1
100
AcDbLine
 10
139.620804
 20
-220.059026
 30
0.0
 11
139.620804
 21
-166.271513
 31
0.0
  0
LINE
  5
180
330
25
100
AcDbEntity
  8
1
100
AcDbLine
 10
119.104304
 20
-222.575526
 30
0.0
 11
137.104304
 21
-222.575526
 31
0.0
  0
LINE
  5
181
330
25
100
AcDbEntity
  8
1
100
AcDbLine
 10
116.587804
 20
-220.059026
 30
0.0
 11
116.587804
 21
-166.271513
 31
0.0
  0
ARC
  5
182
330
25
100
AcDbEntity
  8
1
100
AcDbCircle
 10
119.104304
 20
-166.271513
 30
0.0
 40
2.5165
100
AcDbArc
 50
90.0
 51
180.0
  0
ARC
  5
183
330
25
100
AcDbEntity
  8
1
100
AcDbCircle
 10
137.104304
 20
-166.271513
 30
0.0
 40
2.5165
100
AcDbArc
 50
0.0
 51
90.0
  0
ARC
  5
184
330
25
100
AcDbEntity
  8
1
100
AcDbCircle
 10
137.104304
 20
-220.059026
 30
0.0
 40
2.5165
100
AcDbArc
 50
270.0
 51
360.0
  0
ARC
  5
185
330
25
100
AcDbEntity
  8
1
100
AcDbCircle
 10
119.104304
 20
-220.059026
 30
0.0
 40
2.5165
100
AcDbArc
 50
180.0
 51
270.0
  0
LINE
  5
186
330
25
100
AcDbEntity
  8
1
100
AcDbLine
 10
139.620804
 20
-163.755013
 30
0.0
 11
141.863814
 21
-159.511906
 31
0.0
  0
LINE
  5
187
330
25
100
AcDbEntity
  8
1
100
AcDbLine
 10
114.344794
 20
-159.511906
 30
0.0
 11
116.587804
 21
-163.755013
 31
0.0
  0
LINE
  5
188
330
25
100
AcDbEntity
  8
1
100
AcDbLine
 10
116.587804
 20
-222.575526
 30
0.0
 11
114.344794
 21
-226.818632
 31
0.0
  0
LINE
  5
189
330
25
100
AcDbEntity
  8
1
100
AcDbLine
 10
141.863814
 20
-226.818632
 30
0.0
 11
139.620804
 21
-222.575526
 31
0.0
  0
LINE
  5
18A
330
25
100
AcDbEntity
  8
1
100
AcDbLine
 10
119.104304
 20
-112.417145
 30
0.0
 11
137.104304
 21
-112.417145
 31
0.0
  0
LINE
  5
18B
330
25
100
AcDbEntity
  8
1
100
AcDbLine
 10
116.587804
 20
-145.526818
 30
0.0
 11
116.587804
 21
-114.933645
 31
0.0
  0
LINE
  5
18C
330
25
100
AcDbEntity
  8
1
100
AcDbLine
 10
119.104304
 20
-148.043318
 30
0.0
 11
137.104304
 21
-148.043318
 31
0.0
  0
LINE
  5
18D
330
25
100
AcDbEntity
  8
1
100
AcDbLine
 10
139.620804
 20
-145.526818
 30
0.0
 11
139.620804
 21
-114.933645
 31
0.0
  0
ARC
  5
18E
330
25
100
AcDbEntity
  8
1
100
AcDbCircle
 10
137.104304
 20
-114.933645
 30
0.0
 40
2.5165
100
AcDbArc
 50
0.0
 51
90.0
  0
ARC
  5
18F
330
25
100
AcDbEntity
  8
1
100
AcDbCircle
 10
119.104304
 20
-114.933645
 30
0.0
 40
2.5165
100
AcDbArc
 50
90.0
 51
180.0
  0
ARC
  5
190
330
25
100
AcDbEntity
  8
1
100
AcDbCircle
 10
119.104304
 20
-145.526818
 30
0.0
 40
2.5165
100
AcDbArc
 50
180.0
 51
270.0
  0
ARC
  5
191
330
25
100
AcDbEntity
  8
1
100
AcDbCircle
 10
137.104304
 20
-145.526818
 30
0.0
 40
2.5165
100
AcDbArc
 50
270.0
 51
360.0
  0
LINE
  5
192
330
25
100
AcDbEntity
  8
1
100
AcDbLine
 10
139.620804
 20
-112.417145
 30
0.0
 11
142.434426
 21
-98.78731100000001
 31
0.0
  0
LINE
  5
193
330
25
100
AcDbEntity
  8
1
100
AcDbLine
 10
113.774181
 20
-98.78731100000001
 30
0.0
 11
116.587804
 21
-112.417145
 31
0.0
  0
LINE
  5
194
330
25
100
AcDbEntity
  8
1
100
AcDbLine
 10
114.53793
 20
-151.057342
 30
0.0
 11
116.587804
 21
-148.043318
 31
0.0
  0
LINE
  5
195
330
25
100
AcDbEntity
  8
1
100
AcDbLine
 10
141.670677
 20
-151.057342
 30
0.0
 11
139.620804
 21
-148.043318
 31
0.0
  0
LINE
  5
196
330
25
100
AcDbEntity
  8
1
100
AcDbLine
 10
119.104304
 20
-238.28722
 30
0.0
 11
137.104304
 21
-238.28722
 31
0.0
  0
LINE
  5
197
330
25
100
AcDbEntity
  8
1
100
AcDbLine
 10
116.587804
 20
-271.396893
 30
0.0
 11
116.587804
 21
-240.80372
 31
0.0
  0
LINE
  5
198
330
25
100
AcDbEntity
  8
1
100
AcDbLine
 10
119.104304
 20
-273.913393
 30
0.0
 11
137.104304
 21
-273.913393
 31
0.0
  0
LINE
  5
199
330
25
100
AcDbEntity
  8
1
100
AcDbLine
 10
139.620804
 20
-271.396893
 30
0.0
 11
139.620804
 21
-240.80372
 31
0.0
  0
ARC
  5
19A
330
25
100
AcDbEntity
  8
1
100
AcDbCircle
 10
137.104304
 20
-240.80372
 30
0.0
 40
2.5165
100
AcDbArc
 50
0.0
 51
90.0
  0
ARC
  5
19B
330
25
100
AcDbEntity
  8
1
100
AcDbCircle
 10
119.104304
 20
-240.80372
 30
0.0
 40
2.5165
100
AcDbArc
 50
90.0
 51
180.0
  0
ARC
  5
19C
330
25
100
AcDbEntity
  8
1
100
AcDbCircle
 10
119.104304
 20
-271.396893
 30
0.0
 40
2.5165
100
AcDbArc
 50
180.0
 51
270.0
  0
ARC
  5
19D
330
25
100
AcDbEntity
  8
1
100
AcDbCircle
 10
137.104304
 20
-271.396893
 30
0.0
 40
2.5165
100
AcDbArc
 50
270.0
 51
360.0
  0
LINE
  5
19E
330
25
100
AcDbEntity
  8
1
100
AcDbLine
 10
141.670677
 20
-235.273196
 30
0.0
 11
139.620804
 21
-238.28722
 31
0.0
  0
LINE
  5
19F
330
25
100
AcDbEntity
  8
1
100
AcDbLine
 10
114.53793
 20
-235.273196
 30
0.0
 11
116.587804
 21
-238.28722
 31
0.0
  0
LINE
  5
1A0
330
25
100
AcDbEntity
  8
1
100
AcDbLine
 10
113.774181
 20
-287.543227
 30
0.0
 11
116.587804
 21
-273.913393
 31
0.0
  0
LINE
  5
1A1
330
25
100
AcDbEntity
  8
1
100
AcDbLine
 10
139.620804
 20
-273.913393
 30
0.0
 11
142.434426
 21
-287.543227
 31
0.0
  0
LINE
  5
1A2
330
25
100
AcDbEntity
  8
1
100
AcDbLine
 10
98.10430400000001
 20
-98.61526900000001
 30
0.0
 11
98.10430400000001
 21
-287.715269
 31
0.0
  0
LINE
  5
1A3
330
25
100
AcDbEntity
  8
1
100
AcDbLine
 10
156.393272
 20
-95.663739
 30
0.0
 11
158.104304
 21
-98.61526900000001
 31
0.0
  0
LINE
  5
1A4
330
25
100
AcDbEntity
  8
1
100
AcDbLine
 10
98.10430400000001
 20
-98.61526900000001
 30
0.0
 11
99.815336
 21
-95.663739
 31
0.0
  0
ARC
  5
1A5
330
25
100
AcDbEntity
  8
1
100
AcDbCircle
 10
155.528132
 20
-96.165269
 30
0.0
 40
1.0
100
AcDbArc
 50
30.101305
 51
54.818241
  0
ARC
  5
1A6
330
25
100
AcDbEntity
  8
1
100
AcDbCircle
 10
100.680476
 20
-96.165269
 30
0.0
 40
1.0
100
AcDbArc
 50
125.181759
 51
149.898695
  0
LINE
  5
1A7
330
25
100
AcDbEntity
  8
1
100
AcDbLine
 10
158.104304
 20
-287.715269
 30
0.0
 11
156.393272
 21
-290.6668
 31
0.0
  0
LINE
  5
1A8
330
25
100
AcDbEntity
  8
1
100
AcDbLine
 10
98.10430400000001
 20
-287.715269
 30
0.0
 11
99.815336
 21
-290.6668
 31
0.0
  0
ARC
  5
1A9
330
25
100
AcDbEntity
  8
1
100
AcDbCircle
 10
155.528132
 20
-290.165269
 30
0.0
 40
1.0
100
AcDbArc
 50
305.181759
 51
329.898695
  0
ARC
  5
1AA
330
25
100
AcDbEntity
  8
1
100
AcDbCircle
 10
100.680476
 20
-290.165269
 30
0.0
 40
1.0
100
AcDbArc
 50
210.101305
 51
234.818241
  0
ARC
  5
1AB
330
25
100
AcDbEntity
  8
1
100
AcDbCircle
 10
175.104304
 20
-1.165269
 30
0.0
 40
4.0
100
AcDbArc
 50
270.0
 51
360.0
  0
ARC
  5
1AC
330
25
100
AcDbEntity
  8
1
100
AcDbCircle
 10
81.104304
 20
-1.165269
 30
0.0
 40
4.0
100
AcDbArc
 50
180.0
 51
270.0
  0
ARC
  5
1AD
330
25
100
AcDbEntity
  8
1
100
AcDbCircle
 10
155.104304
 20
-13.165269
 30
0.0
 40
8.0
100
AcDbArc
 50
90.0
 51
180.0
  0
ARC
  5
1AE
330
25
100
AcDbEntity
  8
1
100
AcDbCircle
 10
101.104304
 20
-13.165269
 30
0.0
 40
8.0
100
AcDbArc
 50
0.0
 51
90.0
  0
LINE
  5
1AF
330
25
100
AcDbEntity
  8
1
100
AcDbLine
 10
125.104304
 20
-12.09732
 30
0.0
 11
125.104304
 21
-24.165269
 31
0.0
  0
LINE
  5
1B0
330
25
100
AcDbEntity
  8
1
100
AcDbLine
 10
131.104304
 20
-12.09732
 30
0.0
 11
131.104304
 21
-24.165269
 31
0.0
  0
LINE
  5
1B1
330
25
100
AcDbEntity
  8
1
100
AcDbLine
 10
100.104304
 20
-88.665269
 30
0.0
 11
100.104304
 21
-297.665269
 31
0.0
  0
LINE
  5
1B2
330
25
100
AcDbEntity
  8
1
100
AcDbLine
 10
156.104304
 20
-88.665269
 30
0.0
 11
156.104304
 21
-297.665269
 31
0.0
  0
LINE
  5
1B3
330
25
100
AcDbEntity
  8
1
100
AcDbLine
 10
156.104304
 20
-88.665269
 30
0.0
 11
155.104304
 21
-87.665269
 31
0.0
  0
LINE
  5
1B4
330
25
100
AcDbEntity
  8
1
100
AcDbLine
 10
100.104304
 20
-88.665269
 30
0.0
 11
101.104304
 21
-87.665269
 31
0.0
  0
LINE
  5
1B5
330
25
100
AcDbEntity
  8
1
100
AcDbLine
 10
101.104304
 20
-298.665269
 30
0.0
 11
100.104304
 21
-297.665269
 31
0.0
  0
LINE
  5
1B6
330
25
100
AcDbEntity
  8
1
100
AcDbLine
 10
155.104304
 20
-298.665269
 30
0.0
 11
156.104304
 21
-297.665269
 31
0.0
  0
LINE
  5
1B7
330
25
100
AcDbEntity
  8
1
100
AcDbLine
 10
155.104304
 20
-87.665269
 30
0.0
 11
155.104304
 21
-298.665269
 31
0.0
  0
LINE
  5
1B8
330
25
100
AcDbEntity
  8
1
100
AcDbLine
 10
101.104304
 20
-87.665269
 30
0.0
 11
101.104304
 21
-298.665269
 31
0.0
  0
ARC
  5
1B9
330
25
100
AcDbEntity
  8
1
100
AcDbCircle
 10
152.104304
 20
-82.665269
 30
0.0
 40
5.0
100
AcDbArc
 50
180.0
 51
270.0
  0
ARC
  5
1BA
330
25
100
AcDbEntity
  8
1
100
AcDbCircle
 10
104.104304
 20
-82.665269
 30
0.0
 40
5.0
100
AcDbArc
 50
270.0
 51
0.0
  0
LINE
  5
1BB
330
25
100
AcDbEntity
  8
1
100
AcDbLine
 10
101.104304
 20
-87.665269
 30
0.0
 11
104.104304
 21
-87.665269
 31
0.0
  0
LINE
  5
1BC
330
25
100
AcDbEntity
  8
1
100
AcDbLine
 10
152.104304
 20
-87.665269
 30
0.0
 11
155.104304
 21
-87.665269
 31
0.0
  0
ARC
  5
1BD
330
25
100
AcDbEntity
  8
1
100
AcDbCircle
 10
152.104304
 20
-86.044882
 30
0.0
 40
5.0
100
AcDbArc
 50
180.0
 51
270.0
  0
ARC
  5
1BE
330
25
100
AcDbEntity
  8
1
100
AcDbCircle
 10
104.104304
 20
-86.044882
 30
0.0
 40
5.0
100
AcDbArc
 50
270.0
 51
0.0
  0
LINE
  5
1BF
330
25
100
AcDbEntity
  8
1
100
AcDbLine
 10
125.104304
 20
-27.165269
 30
0.0
 11
131.104304
 21
-27.165269
 31
0.0
  0
ARC
  5
1C0
330
25
100
AcDbEntity
  8
1
100
AcDbCircle
 10
134.104304
 20
-24.165269
 30
0.0
 40
3.0
100
AcDbArc
 50
180.0
 51
270.0
  0
ARC
  5
1C1
330
25
100
AcDbEntity
  8
1
100
AcDbCircle
 10
122.104304
 20
-24.165269
 30
0.0
 40
3.0
100
AcDbArc
 50
270.0
 51
0.0
  0
LINE
  5
1C2
330
25
100
AcDbEntity
  8
1
100
AcDbLine
 10
124.104304
 20
-8.165269
 30
0.0
 11
124.104304
 21
-10.365269
 31
0.0
  0
LINE
  5
1C3
330
25
100
AcDbEntity
  8
1
100
AcDbLine
 10
132.104304
 20
-8.165269
 30
0.0
 11
132.104304
 21
-10.365269
 31
0.0
  0
ARC
  5
1C4
330
25
100
AcDbEntity
  8
1
100
AcDbCircle
 10
135.104304
 20
-8.165269
 30
0.0
 40
3.0
100
AcDbArc
 50
90.0
 51
180.0
  0
ARC
  5
1C5
330
25
100
AcDbEntity
  8
1
100
AcDbCircle
 10
121.104304
 20
-8.165269
 30
0.0
 40
3.0
100
AcDbArc
 50
0.0
 51
90.0
  0
ARC
  5
1C6
330
25
100
AcDbEntity
  8
1
100
AcDbCircle
 10
131.104304
 20
-10.365269
 30
0.0
 40
1.0
100
AcDbArc
 50
300.0
 51
360.0
  0
ARC
  5
1C7
330
25
100
AcDbEntity
  8
1
100
AcDbCircle
 10
125.104304
 20
-10.365269
 30
0.0
 40
1.0
100
AcDbArc
 50
180.0
 51
240.0
  0
ARC
  5
1C8
330
25
100
AcDbEntity
  8
1
100
AcDbCircle
 10
132.104304
 20
-12.09732
 30
0.0
 40
1.0
100
AcDbArc
 50
120.0
 51
180.0
  0
ARC
  5
1C9
330
25
100
AcDbEntity
  8
1
100
AcDbCircle
 10
124.104304
 20
-12.09732
 30
0.0
 40
1.0
100
AcDbArc
 50
0.0
 51
60.0
  0
LINE
  5
1CA
330
25
100
AcDbEntity
  8
1
100
AcDbLine
 10
110.104304
 20
-318.165269
 30
0.0
 11
146.104304
 21
-318.165269
 31
0.0
  0
LINE
  5
1CB
330
25
100
AcDbEntity
  8
1
100
AcDbLine
 10
110.104304
 20
-298.105472
 30
0.0
 11
110.104304
 21
-321.365269
 31
0.0
  0
LINE
  5
1CC
330
25
100
AcDbEntity
  8
1
100
AcDbLine
 10
146.104304
 20
-298.105472
 30
0.0
 11
146.104304
 21
-321.365269
 31
0.0
  0
ARC
  5
1CD
330
25
100
AcDbEntity
  8
1
100
AcDbCircle
 10
151.104304
 20
-303.665269
 30
0.0
 40
5.0
100
AcDbArc
 50
90.0
 51
180.0
  0
ARC
  5
1CE
330
25
100
AcDbEntity
  8
1
100
AcDbCircle
 10
105.104304
 20
-303.665269
 30
0.0
 40
5.0
100
AcDbArc
 50
0.0
 51
90.0
  0
LINE
  5
1CF
330
25
100
AcDbEntity
  8
1
100
AcDbLine
 10
101.104304
 20
-298.665269
 30
0.0
 11
105.104304
 21
-298.665269
 31
0.0
  0
LINE
  5
1D0
330
25
100
AcDbEntity
  8
1
100
AcDbLine
 10
151.104304
 20
-298.665269
 30
0.0
 11
155.104304
 21
-298.665269
 31
0.0
  0
ARC
  5
1D1
330
25
100
AcDbEntity
  8
1
100
AcDbCircle
 10
151.104304
 20
-298.105472
 30
0.0
 40
5.0
100
AcDbArc
 50
90.0
 51
180.0
  0
ARC
  5
1D2
330
25
100
AcDbEntity
  8
1
100
AcDbCircle
 10
105.104304
 20
-298.105472
 30
0.0
 40
5.0
100
AcDbArc
 50
0.0
 51
90.0
  0
LINE
  5
1D3
330
25
100
AcDbEntity
  8
1
100
AcDbLine
 10
110.104304
 20
-318.965269
 30
0.0
 11
146.104304
 21
-318.965269
 31
0.0
  0
LINE
  5
1D4
330
25
100
AcDbEntity
  8
1
100
AcDbLine
 10
110.104304
 20
-321.365269
 30
0.0
 11
146.104304
 21
-321.365269
 31
0.0
  0
LINE
  5
1D5
330
25
100
AcDbEntity
  8
1
100
AcDbLine
 10
122.004304
 20
-322.865269
 30
0.0
 11
134.204304
 21
-322.865269
 31
0.0
  0
LINE
  5
1D6
330
25
100
AcDbEntity
  8
1
100
AcDbLine
 10
133.104304
 20
-322.865269
 30
0.0
 11
133.104304
 21
-326.865269
 31
0.0
  0
LINE
  5
1D7
330
25
100
AcDbEntity
  8
1
100
AcDbLine
 10
128.104304
 20
-322.865269
 30
0.0
 11
128.104304
 21
-326.374521
 31
0.0
  0
ARC
  5
1D8
330
25
100
AcDbEntity
  8
1
100
AcDbCircle
 10
130.604304
 20
-320.252062
 30
0.0
 40
6.613208
100
AcDbArc
 50
247.7882049999999
 51
292.211795
  0
LINE
  5
1D9
330
25
100
AcDbEntity
  8
1
100
AcDbLine
 10
123.104304
 20
-322.865269
 30
0.0
 11
123.104304
 21
-326.865269
 31
0.0
  0
LINE
  5
1DA
330
25
100
AcDbEntity
  8
1
100
AcDbLine
 10
123.104304
 20
-326.865269
 30
0.0
 11
133.104304
 21
-326.865269
 31
0.0
  0
ARC
  5
1DB
330
25
100
AcDbEntity
  8
1
100
AcDbCircle
 10
125.604304
 20
-320.252062
 30
0.0
 40
6.613208
100
AcDbArc
 50
247.7882049999999
 51
292.211795
  0
LINE
  5
1DC
330
25
100
AcDbEntity
  8
1
100
AcDbLine
 10
134.204304
 20
-321.365269
 30
0.0
 11
134.204304
 21
-322.865269
 31
0.0
  0
LINE
  5
1DD
330
25
100
AcDbEntity
  8
1
100
AcDbLine
 10
122.004304
 20
-322.865269
 30
0.0
 11
122.004304
 21
-321.365269
 31
0.0
  0
LINE
  5
1DE
330
25
100
AcDbEntity
  8
1
100
AcDbLine
 10
119.104304
 20
-153.165269
 30
0.0
 11
137.104304
 21
-153.165269
 31
0.0
  0
LINE
  5
1DF
330
25
100
AcDbEntity
  8
1
100
AcDbLine
 10
119.104304
 20
-157.165269
 30
0.0
 11
137.104304
 21
-157.165269
 31
0.0
  0
LINE
  5
1E0
330
25
100
AcDbEntity
  8
1
100
AcDbLine
 10
119.104304
 20
-229.165269
 30
0.0
 11
137.104304
 21
-229.165269
 31
0.0
  0
LINE
  5
1E1
330
25
100
AcDbEntity
  8
1
100
AcDbLine
 10
119.104304
 20
-233.165269
 30
0.0
 11
137.104304
 21
-233.165269
 31
0.0
  0
LINE
  5
1E2
330
25
100
AcDbEntity
  8
1
100
AcDbLine
 10
143.104304
 20
-147.165269
 30
0.0
 11
143.104304
 21
-101.54227
 31
0.0
  0
LINE
  5
1E3
330
25
100
AcDbEntity
  8
1
100
AcDbLine
 10
113.104304
 20
-147.165269
 30
0.0
 11
113.104304
 21
-101.54227
 31
0.0
  0
LINE
  5
1E4
330
25
100
AcDbEntity
  8
1
100
AcDbLine
 10
143.104304
 20
-284.788269
 30
0.0
 11
143.104304
 21
-239.165269
 31
0.0
  0
LINE
  5
1E5
330
25
100
AcDbEntity
  8
1
100
AcDbLine
 10
143.104304
 20
-223.165269
 30
0.0
 11
143.104304
 21
-163.165269
 31
0.0
  0
LINE
  5
1E6
330
25
100
AcDbEntity
  8
1
100
AcDbLine
 10
113.104304
 20
-284.788269
 30
0.0
 11
113.104304
 21
-239.165269
 31
0.0
  0
LINE
  5
1E7
330
25
100
AcDbEntity
  8
1
100
AcDbLine
 10
113.104304
 20
-223.165269
 30
0.0
 11
113.104304
 21
-163.165269
 31
0.0
  0
ARC
  5
1E8
330
25
100
AcDbEntity
  8
1
100
AcDbCircle
 10
137.104304
 20
-101.54227
 30
0.0
 40
6.0
100
AcDbArc
 50
0.0
 51
90.0
  0
ARC
  5
1E9
330
25
100
AcDbEntity
  8
1
100
AcDbCircle
 10
119.104304
 20
-101.54227
 30
0.0
 40
6.0
100
AcDbArc
 50
90.0
 51
180.0
  0
ARC
  5
1EA
330
25
100
AcDbEntity
  8
1
100
AcDbCircle
 10
119.104304
 20
-147.165269
 30
0.0
 40
6.0
100
AcDbArc
 50
180.0
 51
270.0
  0
ARC
  5
1EB
330
25
100
AcDbEntity
  8
1
100
AcDbCircle
 10
137.104304
 20
-147.165269
 30
0.0
 40
6.0
100
AcDbArc
 50
270.0
 51
0.0
  0
ARC
  5
1EC
330
25
100
AcDbEntity
  8
1
100
AcDbCircle
 10
137.104304
 20
-163.165269
 30
0.0
 40
6.0
100
AcDbArc
 50
0.0
 51
90.0
  0
ARC
  5
1ED
330
25
100
AcDbEntity
  8
1
100
AcDbCircle
 10
119.104304
 20
-163.165269
 30
0.0
 40
6.0
100
AcDbArc
 50
90.0
 51
180.0
  0
ARC
  5
1EE
330
25
100
AcDbEntity
  8
1
100
AcDbCircle
 10
119.104304
 20
-223.165269
 30
0.0
 40
6.0
100
AcDbArc
 50
180.0
 51
270.0
  0
ARC
  5
1EF
330
25
100
AcDbEntity
  8
1
100
AcDbCircle
 10
137.104304
 20
-223.165269
 30
0.0
 40
6.0
100
AcDbArc
 50
270.0
 51
360.0
  0
ARC
  5
1F0
330
25
100
AcDbEntity
  8
1
100
AcDbCircle
 10
137.104304
 20
-239.165269
 30
0.0
 40
6.0
100
AcDbArc
 50
0.0
 51
90.0
  0
ARC
  5
1F1
330
25
100
AcDbEntity
  8
1
100
AcDbCircle
 10
119.104304
 20
-239.165269
 30
0.0
 40
6.0
100
AcDbArc
 50
90.0
 51
180.0
  0
ARC
  5
1F2
330
25
100
AcDbEntity
  8
1
100
AcDbCircle
 10
119.104304
 20
-284.788269
 30
0.0
 40
6.0
100
AcDbArc
 50
180.0
 51
270.0
  0
ARC
  5
1F3
330
25
100
AcDbEntity
  8
1
100
AcDbCircle
 10
137.104304
 20
-284.788269
 30
0.0
 40
6.0
100
AcDbArc
 50
270.0
 51
360.0
  0
LINE
  5
1F4
330
25
100
AcDbEntity
  8
1
100
AcDbLine
 10
124.104304
 20
-43.95736099999999
 30
0.0
 11
132.104304
 21
-43.95736099999999
 31
0.0
  0
LINE
  5
1F5
330
25
100
AcDbEntity
  8
1
100
AcDbLine
 10
132.104304
 20
-313.46725
 30
0.0
 11
132.104304
 21
-294.788269
 31
0.0
  0
LINE
  5
1F6
330
25
100
AcDbEntity
  8
1
100
AcDbLine
 10
132.104304
 20
-91.54227
 30
0.0
 11
132.104304
 21
-47.957361
 31
0.0
  0
LINE
  5
1F7
330
25
100
AcDbEntity
  8
1
100
AcDbLine
 10
124.104304
 20
-313.46725
 30
0.0
 11
124.104304
 21
-294.788269
 31
0.0
  0
LINE
  5
1F8
330
25
100
AcDbEntity
  8
1
100
AcDbLine
 10
124.104304
 20
-91.54227
 30
0.0
 11
124.104304
 21
-47.957361
 31
0.0
  0
ARC
  5
1F9
330
25
100
AcDbEntity
  8
1
100
AcDbCircle
 10
120.104304
 20
-47.957361
 30
0.0
 40
4.0
100
AcDbArc
 50
0.0
 51
90.0
  0
ARC
  5
1FA
330
25
100
AcDbEntity
  8
1
100
AcDbCircle
 10
136.104304
 20
-47.957361
 30
0.0
 40
4.0
100
AcDbArc
 50
90.0
 51
180.0
  0
ARC
  5
1FB
330
25
100
AcDbEntity
  8
1
100
AcDbCircle
 10
136.104304
 20
-91.54227
 30
0.0
 40
4.0
100
AcDbArc
 50
180.0
 51
270.0
  0
ARC
  5
1FC
330
25
100
AcDbEntity
  8
1
100
AcDbCircle
 10
120.104304
 20
-91.54227
 30
0.0
 40
4.0
100
AcDbArc
 50
270.0
 51
360.0
  0
LINE
  5
1FD
330
25
100
AcDbEntity
  8
1
100
AcDbLine
 10
109.104304
 20
-91.044882
 30
0.0
 11
120.104304
 21
-91.044882
 31
0.0
  0
LINE
  5
1FE
330
25
100
AcDbEntity
  8
1
100
AcDbLine
 10
136.104304
 20
-91.044882
 30
0.0
 11
147.104304
 21
-91.044882
 31
0.0
  0
LINE
  5
1FF
330
25
100
AcDbEntity
  8
1
100
AcDbLine
 10
136.104304
 20
-95.54227
 30
0.0
 11
137.104304
 21
-95.54227
 31
0.0
  0
LINE
  5
200
330
25
100
AcDbEntity
  8
1
100
AcDbLine
 10
119.104304
 20
-95.54227
 30
0.0
 11
120.104304
 21
-95.54227
 31
0.0
  0
LINE
  5
201
330
25
100
AcDbEntity
  8
1
100
AcDbLine
 10
124.104304
 20
-95.54227
 30
0.0
 11
132.104304
 21
-95.54227
 31
0.0
  0
ARC
  5
202
330
25
100
AcDbEntity
  8
1
100
AcDbCircle
 10
136.104304
 20
-87.044882
 30
0.0
 40
4.0
100
AcDbArc
 50
180.0
 51
270.0
  0
ARC
  5
203
330
25
100
AcDbEntity
  8
1
100
AcDbCircle
 10
120.104304
 20
-87.044882
 30
0.0
 40
4.0
100
AcDbArc
 50
270.0
 51
360.0
  0
LINE
  5
204
330
25
100
AcDbEntity
  8
1
100
AcDbLine
 10
126.104304
 20
-60.83210600000001
 30
0.0
 11
130.104304
 21
-60.83210600000001
 31
0.0
  0
LINE
  5
205
330
25
100
AcDbEntity
  8
1
100
AcDbLine
 10
126.104304
 20
-70.352369
 30
0.0
 11
130.104304
 21
-70.352369
 31
0.0
  0
ARC
  5
206
330
25
100
AcDbEntity
  8
1
100
AcDbCircle
 10
130.104304
 20
-62.832106
 30
0.0
 40
2.0
100
AcDbArc
 50
0.0
 51
90.0
  0
ARC
  5
207
330
25
100
AcDbEntity
  8
1
100
AcDbCircle
 10
126.104304
 20
-62.832106
 30
0.0
 40
2.0
100
AcDbArc
 50
90.0
 51
180.0
  0
ARC
  5
208
330
25
100
AcDbEntity
  8
1
100
AcDbCircle
 10
126.104304
 20
-68.35236899999999
 30
0.0
 40
2.0
100
AcDbArc
 50
180.0
 51
270.0
  0
ARC
  5
209
330
25
100
AcDbEntity
  8
1
100
AcDbCircle
 10
130.104304
 20
-68.35236899999999
 30
0.0
 40
2.0
100
AcDbArc
 50
270.0
 51
360.0
  0
ARC
  5
20A
330
25
100
AcDbEntity
  8
1
100
AcDbCircle
 10
136.104304
 20
-313.46725
 30
0.0
 40
4.0
100
AcDbArc
 50
180.0
 51
270.0
  0
ARC
  5
20B
330
25
100
AcDbEntity
  8
1
100
AcDbCircle
 10
120.104304
 20
-313.46725
 30
0.0
 40
4.0
100
AcDbArc
 50
270.0
 51
0.0
  0
ARC
  5
20C
330
25
100
AcDbEntity
  8
1
100
AcDbCircle
 10
136.104304
 20
-294.788269
 30
0.0
 40
4.0
100
AcDbArc
 50
90.0
 51
180.0
  0
ARC
  5
20D
330
25
100
AcDbEntity
  8
1
100
AcDbCircle
 10
120.104304
 20
-294.788269
 30
0.0
 40
4.0
100
AcDbArc
 50
0.0
 51
90.0
  0
LINE
  5
20E
330
25
100
AcDbEntity
  8
1
100
AcDbLine
 10
124.104304
 20
-317.46725
 30
0.0
 11
132.104304
 21
-317.46725
 31
0.0
  0
LINE
  5
20F
330
25
100
AcDbEntity
  8
1
100
AcDbLine
 10
110.104304
 20
-293.105472
 30
0.0
 11
120.104304
 21
-293.105472
 31
0.0
  0
LINE
  5
210
330
25
100
AcDbEntity
  8
1
100
AcDbLine
 10
136.104304
 20
-293.105472
 30
0.0
 11
146.104304
 21
-293.105472
 31
0.0
  0
LINE
  5
211
330
25
100
AcDbEntity
  8
1
100
AcDbLine
 10
136.104304
 20
-290.788269
 30
0.0
 11
137.104304
 21
-290.788269
 31
0.0
  0
LINE
  5
212
330
25
100
AcDbEntity
  8
1
100
AcDbLine
 10
119.104304
 20
-290.788269
 30
0.0
 11
120.104304
 21
-290.788269
 31
0.0
  0
LINE
  5
213
330
25
100
AcDbEntity
  8
1
100
AcDbLine
 10
124.104304
 20
-290.788269
 30
0.0
 11
132.104304
 21
-290.788269
 31
0.0
  0
ARC
  5
214
330
25
100
AcDbEntity
  8
1
100
AcDbCircle
 10
136.104304
 20
-297.105472
 30
0.0
 40
4.0
100
AcDbArc
 50
90.0
 51
180.0
  0
ARC
  5
215
330
25
100
AcDbEntity
  8
1
100
AcDbCircle
 10
120.104304
 20
-297.105472
 30
0.0
 40
4.0
100
AcDbArc
 50
0.0
 51
90.0
  0
ARC
  5
216
330
25
100
AcDbEntity
  8
1
100
AcDbCircle
 10
143.104304
 20
-312.165269
 30
0.0
 40
3.0
100
AcDbArc
 50
270.0
 51
360.0
  0
ARC
  5
217
330
25
100
AcDbEntity
  8
1
100
AcDbCircle
 10
113.104304
 20
-312.165269
 30
0.0
 40
3.0
100
AcDbArc
 50
180.0
 51
270.0
  0
LINE
  5
218
330
25
100
AcDbEntity
  8
1
100
AcDbLine
 10
113.104304
 20
-315.165269
 30
0.0
 11
120.104304
 21
-315.165269
 31
0.0
  0
LINE
  5
219
330
25
100
AcDbEntity
  8
1
100
AcDbLine
 10
136.104304
 20
-315.165269
 30
0.0
 11
143.104304
 21
-315.165269
 31
0.0
  0
ARC
  5
21A
330
25
100
AcDbEntity
  8
1
100
AcDbCircle
 10
136.104304
 20
-311.165269
 30
0.0
 40
4.0
100
AcDbArc
 50
180.0
 51
270.0
  0
ARC
  5
21B
330
25
100
AcDbEntity
  8
1
100
AcDbCircle
 10
120.104304
 20
-311.165269
 30
0.0
 40
4.0
100
AcDbArc
 50
270.0
 51
360.0
  0
LINE
  5
21C
330
25
100
AcDbEntity
  8
1
100
AcDbLine
 10
77.10430399999999
 20
8.834730999999999
 30
0.0
 11
122.104304
 21
8.834730999999999
 31
0.0
  0
LINE
  5
21D
330
25
100
AcDbEntity
  8
1
100
AcDbLine
 10
134.104304
 20
8.834730999999999
 30
0.0
 11
179.104304
 21
8.834730999999999
 31
0.0
  0
ARC
  5
21E
330
25
100
AcDbEntity
  8
1
100
AcDbCircle
 10
81.104304
 20
-33.165269
 30
0.0
 40
28.0
100
AcDbArc
 50
0.0
 51
45.858835
  0
ARC
  5
21F
330
25
100
AcDbEntity
  8
1
100
AcDbCircle
 10
81.104304
 20
-33.165269
 30
0.0
 40
28.0
100
AcDbArc
 50
86.31415799999999
 51
90.0
  0
ARC
  5
220
330
25
100
AcDbEntity
  8
1
100
AcDbCircle
 10
175.104304
 20
-33.165269
 30
0.0
 40
28.0
100
AcDbArc
 50
90.000002
 51
180.0000029999999
  0
LINE
  5
221
330
25
100
AcDbEntity
  8
2
  6
CENTER
 62
     2
100
AcDbLine
 10
-210.570696
 20
260.11245
 30
0.0
 11
-210.570696
 21
212.880077
 31
0.0
  0
ARC
  5
222
330
25
100
AcDbEntity
  8
2
  6
CENTER
 62
     2
100
AcDbCircle
 10
-330.570696
 20
236.509731
 30
0.0
 40
51.0
100
AcDbArc
 50
120.634972
 51
149.476834
  0
LINE
  5
223
330
25
100
AcDbEntity
  8
2
  6
CENTER
 62
     2
100
AcDbLine
 10
-377.491733
 20
283.430768
 30
0.0
 11
-355.698219
 21
261.637254
 31
0.0
  0
LINE
  5
224
330
25
100
AcDbEntity
  8
2
  6
CENTER
 62
     2
100
AcDbLine
 10
-304.210852
 20
210.149887
 30
0.0
 11
-284.428388
 21
190.367423
 31
0.0
  0
ARC
  5
225
330
25
100
AcDbEntity
  8
2
  6
CENTER
 62
     2
100
AcDbCircle
 10
-330.570696
 20
236.509731
 30
0.0
 40
51.0
100
AcDbArc
 50
300.411746
 51
329.444298
  0
LINE
  5
226
330
25
100
AcDbEntity
  8
2
  6
CENTER
 62
     2
100
AcDbLine
 10
-447.99202
 20
236.509731
 30
0.0
 11
-20.522758
 21
236.509731
 31
0.0
  0
LINE
  5
227
330
25
100
AcDbEntity
  8
2
  6
CENTER
 62
     2
100
AcDbLine
 10
-330.570696
 20
160.451502
 30
0.0
 11
-330.570696
 21
325.715118
 31
0.0
  0
LINE
  5
228
330
25
100
AcDbEntity
  8
2
100
AcDbLine
 10
-217.070696
 20
220.509731
 30
0.0
 11
-204.070696
 21
220.509731
 31
0.0
  0
ARC
  5
229
330
25
100
AcDbEntity
  8
2
100
AcDbCircle
 10
-217.070696
 20
221.009731
 30
0.0
 40
0.5
100
AcDbArc
 50
200.684551
 51
270.0
  0
ARC
  5
22A
330
25
100
AcDbEntity
  8
2
100
AcDbCircle
 10
-204.070696
 20
221.009731
 30
0.0
 40
0.5
100
AcDbArc
 50
270.0
 51
356.101598
  0
ARC
  5
22B
330
25
100
AcDbEntity
  8
2
100
AcDbCircle
 10
-203.07301
 20
220.941743
 30
0.0
 40
0.5
100
AcDbArc
 50
91.094257
 51
176.101598
  0
ARC
  5
22C
330
25
100
AcDbEntity
  8
2
100
AcDbCircle
 10
-218.006235
 20
220.656508
 30
0.0
 40
0.5
100
AcDbArc
 50
20.684551
 51
91.094257
  0
LINE
  5
22D
330
25
100
AcDbEntity
  8
2
100
AcDbLine
 10
-42.341529
 20
248.507542
 30
0.0
 11
-330.236494
 21
254.006539
 31
0.0
  0
ARC
  5
22E
330
25
100
AcDbEntity
  8
2
100
AcDbCircle
 10
-218.006235
 20
252.362953
 30
0.0
 40
0.5
100
AcDbArc
 50
268.905743
 51
339.315449
  0
ARC
  5
22F
330
25
100
AcDbEntity
  8
2
100
AcDbCircle
 10
-203.07301
 20
252.077718
 30
0.0
 40
0.5
100
AcDbArc
 50
183.898402
 51
268.905743
  0
ARC
  5
230
330
25
100
AcDbEntity
  8
2
100
AcDbCircle
 10
-204.070696
 20
252.009731
 30
0.0
 40
0.5
100
AcDbArc
 50
3.898401999999999
 51
90.0
  0
ARC
  5
231
330
25
100
AcDbEntity
  8
2
100
AcDbCircle
 10
-217.070696
 20
252.009731
 30
0.0
 40
0.5
100
AcDbArc
 50
90.0
 51
159.315449
  0
LINE
  5
232
330
25
100
AcDbEntity
  8
2
100
AcDbLine
 10
-217.070696
 20
252.509731
 30
0.0
 11
-204.070696
 21
252.509731
 31
0.0
  0
ARC
  5
233
330
25
100
AcDbEntity
  8
2
100
AcDbCircle
 10
-330.570696
 20
236.509731
 30
0.0
 40
17.5
100
AcDbArc
 50
300.851886
 51
239.148114
  0
ARC
  5
234
330
25
100
AcDbEntity
  8
2
100
AcDbCircle
 10
-320.570696
 20
219.769062
 30
0.0
 40
2.0
100
AcDbArc
 50
120.851886
 51
180.0
  0
LINE
  5
235
330
25
100
AcDbEntity
  8
2
100
AcDbLine
 10
-322.570696
 20
217.509731
 30
0.0
 11
-322.570696
 21
222.078861
 31
0.0
  0
ARC
  5
236
330
25
100
AcDbEntity
  8
2
100
AcDbCircle
 10
-340.570696
 20
219.769062
 30
0.0
 40
2.0
100
AcDbArc
 50
0.0
 51
59.14811399999999
  0
ARC
  5
237
330
25
100
AcDbEntity
  8
2
100
AcDbCircle
 10
-320.587054
 20
217.196869
 30
0.0
 40
2.0
100
AcDbArc
 50
91.094257
 51
174.013887
  0
ARC
  5
238
330
25
100
AcDbEntity
  8
2
100
AcDbCircle
 10
-323.570696
 20
217.509731
 30
0.0
 40
1.0
100
AcDbArc
 50
270.0
 51
354.013887
  0
ARC
  5
239
330
25
100
AcDbEntity
  8
2
100
AcDbCircle
 10
-337.570696
 20
217.509731
 30
0.0
 40
1.0
100
AcDbArc
 50
180.0
 51
270.0
  0
LINE
  5
23A
330
25
100
AcDbEntity
  8
2
100
AcDbLine
 10
-338.570696
 20
217.509731
 30
0.0
 11
-338.570696
 21
222.078861
 31
0.0
  0
LINE
  5
23B
330
25
100
AcDbEntity
  8
2
100
AcDbLine
 10
-323.570696
 20
216.509731
 30
0.0
 11
-337.570696
 21
216.509731
 31
0.0
  0
LINE
  5
23C
330
25
100
AcDbEntity
  8
2
100
AcDbLine
 10
-42.341529
 20
224.511919
 30
0.0
 11
-320.625249
 21
219.196504
 31
0.0
  0
ARC
  5
23D
330
25
100
AcDbEntity
  8
2
100
AcDbCircle
 10
-42.570696
 20
236.509731
 30
0.0
 40
12.0
100
AcDbArc
 50
271.094257
 51
88.905743
  0
LINE
  5
23E
330
25
100
AcDbEntity
  8
2
100
AcDbLine
 10
-379.843892
 20
234.132302
 30
0.0
 11
-338.858649
 21
220.802936
 31
0.0
  0
LINE
  5
23F
330
25
100
AcDbEntity
  8
2
100
AcDbLine
 10
-379.843892
 20
238.88716
 30
0.0
 11
-335.983067
 21
253.151733
 31
0.0
  0
ARC
  5
240
330
25
100
AcDbEntity
  8
2
100
AcDbCircle
 10
-379.070696
 20
236.509731
 30
0.0
 40
2.5
100
AcDbArc
 50
108.015746
 51
251.9842539999999
  0
LINE
  5
241
330
25
100
AcDbEntity
  8
2
100
AcDbLine
 10
-323.146075
 20
262.319128
 30
0.0
 11
-323.499628
 21
261.965575
 31
0.0
  0
LINE
  5
242
330
25
100
AcDbEntity
  8
2
100
AcDbLine
 10
-326.328055
 20
265.501109
 30
0.0
 11
-323.146075
 21
262.319128
 31
0.0
  0
LINE
  5
243
330
25
100
AcDbEntity
  8
2
100
AcDbLine
 10
-323.146075
 20
268.683089
 30
0.0
 11
-326.328055
 21
265.501109
 31
0.0
  0
LINE
  5
244
330
25
100
AcDbEntity
  8
2
100
AcDbLine
 10
-323.499628
 20
269.036643
 30
0.0
 11
-323.146075
 21
268.683089
 31
0.0
  0
LINE
  5
245
330
25
100
AcDbEntity
  8
2
100
AcDbLine
 10
-327.035162
 20
265.501109
 30
0.0
 11
-323.499628
 21
269.036643
 31
0.0
  0
LINE
  5
246
330
25
100
AcDbEntity
  8
2
100
AcDbLine
 10
-323.499628
 20
261.965575
 30
0.0
 11
-327.035162
 21
265.501109
 31
0.0
  0
LINE
  5
247
330
25
100
AcDbEntity
  8
2
100
AcDbLine
 10
-364.18054
 20
224.85666
 30
0.0
 11
-363.469393
 21
225.567808
 31
0.0
  0
LINE
  5
248
330
25
100
AcDbEntity
  8
2
100
AcDbLine
 10
-362.1486910000001
 20
222.824811
 30
0.0
 11
-364.18054
 21
224.85666
 31
0.0
  0
LINE
  5
249
330
25
100
AcDbEntity
  8
2
100
AcDbLine
 10
-360.218434
 20
222.316849
 30
0.0
 11
-363.469393
 21
225.567808
 31
0.0
  0
ARC
  5
24A
330
25
100
AcDbEntity
  8
2
100
AcDbCircle
 10
-342.810398
 20
204.795676
 30
0.0
 40
0.08
100
AcDbArc
 50
315.0
 51
45.0
  0
ARC
  5
24B
330
25
100
AcDbEntity
  8
2
100
AcDbCircle
 10
-330.570696
 20
236.509731
 30
0.0
 40
60.0
100
AcDbArc
 50
269.274718
 51
270.725282
  0
ARC
  5
24C
330
25
100
AcDbEntity
  8
2
100
AcDbCircle
 10
-330.570696
 20
236.509731
 30
0.0
 40
40.0
100
AcDbArc
 50
268.945417
 51
271.059499
  0
LINE
  5
24D
330
25
100
AcDbEntity
  8
2
100
AcDbLine
 10
-329.070696
 20
177.264478
 30
0.0
 11
-329.070696
 21
195.766633
 31
0.0
  0
ARC
  5
24E
330
25
100
AcDbEntity
  8
2
100
AcDbCircle
 10
-329.820696
 20
177.264478
 30
0.0
 40
0.75
100
AcDbArc
 50
270.725282
 51
360.0
  0
ARC
  5
24F
330
25
100
AcDbEntity
  8
2
100
AcDbCircle
 10
-329.820696
 20
195.766633
 30
0.0
 40
0.75
100
AcDbArc
 50
0.0
 51
91.054583
  0
ARC
  5
250
330
25
100
AcDbEntity
  8
2
100
AcDbCircle
 10
-331.320696
 20
195.766633
 30
0.0
 40
0.75
100
AcDbArc
 50
88.94541700000001
 51
180.0
  0
ARC
  5
251
330
25
100
AcDbEntity
  8
2
100
AcDbCircle
 10
-331.320696
 20
177.264478
 30
0.0
 40
0.75
100
AcDbArc
 50
180.0
 51
269.274718
  0
LINE
  5
252
330
25
100
AcDbEntity
  8
2
100
AcDbLine
 10
-332.070696
 20
177.264478
 30
0.0
 11
-332.070696
 21
195.766633
 31
0.0
  0
LINE
  5
253
330
25
100
AcDbEntity
  8
2
100
AcDbLine
 10
-389.050791
 20
226.959682
 30
0.0
 11
-380.679925
 21
228.435692
 31
0.0
  0
ARC
  5
254
330
25
100
AcDbEntity
  8
2
100
AcDbCircle
 10
-380.549689
 20
227.697086
 30
0.0
 40
0.75
100
AcDbArc
 50
280.0
 51
100.0
  0
ARC
  5
255
330
25
100
AcDbEntity
  8
2
100
AcDbCircle
 10
-388.920555
 20
226.221076
 30
0.0
 40
0.75
100
AcDbArc
 50
100.0
 51
280.0
  0
LINE
  5
256
330
25
100
AcDbEntity
  8
2
100
AcDbLine
 10
-388.790319
 20
225.482471
 30
0.0
 11
-380.419453
 21
226.95848
 31
0.0
  0
LINE
  5
257
330
25
100
AcDbEntity
  8
2
100
AcDbLine
 10
-375.476738
 20
197.850032
 30
0.0
 11
-368.965361
 21
203.313726
 31
0.0
  0
ARC
  5
258
330
25
100
AcDbEntity
  8
2
100
AcDbCircle
 10
-375.958829
 20
198.424565
 30
0.0
 40
0.75
100
AcDbArc
 50
130.0
 51
310.0
  0
ARC
  5
259
330
25
100
AcDbEntity
  8
2
100
AcDbCircle
 10
-369.447451
 20
203.88826
 30
0.0
 40
0.75
100
AcDbArc
 50
310.0
 51
130.0
  0
LINE
  5
25A
330
25
100
AcDbEntity
  8
2
100
AcDbLine
 10
-376.44092
 20
198.999098
 30
0.0
 11
-369.929542
 21
204.462793
 31
0.0
  0
LINE
  5
25B
330
25
100
AcDbEntity
  8
2
100
AcDbLine
 10
-381.507701
 20
206.235212
 30
0.0
 11
-374.146485
 21
210.485212
 31
0.0
  0
ARC
  5
25C
330
25
100
AcDbEntity
  8
2
100
AcDbCircle
 10
-381.882701
 20
206.884731
 30
0.0
 40
0.75
100
AcDbArc
 50
120.0
 51
300.0
  0
ARC
  5
25D
330
25
100
AcDbEntity
  8
2
100
AcDbCircle
 10
-374.521485
 20
211.134731
 30
0.0
 40
0.75
100
AcDbArc
 50
300.0
 51
120.0
  0
LINE
  5
25E
330
25
100
AcDbEntity
  8
2
100
AcDbLine
 10
-382.257701
 20
207.53425
 30
0.0
 11
-374.896485
 21
211.78425
 31
0.0
  0
LINE
  5
25F
330
25
100
AcDbEntity
  8
2
100
AcDbLine
 10
-385.990968
 20
215.540268
 30
0.0
 11
-378.003581
 21
218.447439
 31
0.0
  0
ARC
  5
260
330
25
100
AcDbEntity
  8
2
100
AcDbCircle
 10
-386.247484
 20
216.245037
 30
0.0
 40
0.75
100
AcDbArc
 50
110.0
 51
290.0
  0
ARC
  5
261
330
25
100
AcDbEntity
  8
2
100
AcDbCircle
 10
-378.260096
 20
219.152209
 30
0.0
 40
0.75
100
AcDbArc
 50
290.0
 51
110.0
  0
LINE
  5
262
330
25
100
AcDbEntity
  8
2
100
AcDbLine
 10
-386.503999
 20
216.949807
 30
0.0
 11
-378.516611
 21
219.856978
 31
0.0
  0
LINE
  5
263
330
25
100
AcDbEntity
  8
2
100
AcDbLine
 10
-350.13062
 20
180.576428
 30
0.0
 11
-347.223449
 21
188.563815
 31
0.0
  0
ARC
  5
264
330
25
100
AcDbEntity
  8
2
100
AcDbCircle
 10
-347.928218
 20
188.82033
 30
0.0
 40
0.75
100
AcDbArc
 50
340.0
 51
160.0
  0
ARC
  5
265
330
25
100
AcDbEntity
  8
2
100
AcDbCircle
 10
-350.835389
 20
180.832943
 30
0.0
 40
0.75
100
AcDbArc
 50
160.0
 51
340.0
  0
LINE
  5
266
330
25
100
AcDbEntity
  8
2
100
AcDbLine
 10
-351.540159
 20
181.089458
 30
0.0
 11
-348.632987
 21
189.076845
 31
0.0
  0
LINE
  5
267
330
25
100
AcDbEntity
  8
2
100
AcDbLine
 10
-359.546177
 20
184.8227259999999
 30
0.0
 11
-355.296177
 21
192.183942
 31
0.0
  0
ARC
  5
268
330
25
100
AcDbEntity
  8
2
100
AcDbCircle
 10
-355.945696
 20
192.558942
 30
0.0
 40
0.75
100
AcDbArc
 50
330.0
 51
150.0
  0
ARC
  5
269
330
25
100
AcDbEntity
  8
2
100
AcDbCircle
 10
-360.195696
 20
185.197726
 30
0.0
 40
0.75
100
AcDbArc
 50
150.0
 51
330.0
  0
LINE
  5
26A
330
25
100
AcDbEntity
  8
2
100
AcDbLine
 10
-360.845215
 20
185.572726
 30
0.0
 11
-356.595215
 21
192.933942
 31
0.0
  0
LINE
  5
26B
330
25
100
AcDbEntity
  8
2
100
AcDbLine
 10
-368.081328
 20
190.639507
 30
0.0
 11
-362.617634
 21
197.150885
 31
0.0
  0
ARC
  5
26C
330
25
100
AcDbEntity
  8
2
100
AcDbCircle
 10
-363.192167
 20
197.632975
 30
0.0
 40
0.75
100
AcDbArc
 50
320.0
 51
140.0
  0
ARC
  5
26D
330
25
100
AcDbEntity
  8
2
100
AcDbCircle
 10
-368.655862
 20
191.121598
 30
0.0
 40
0.75
100
AcDbArc
 50
140.0
 51
320.0
  0
LINE
  5
26E
330
25
100
AcDbEntity
  8
2
100
AcDbLine
 10
-369.230395
 20
191.603688
 30
0.0
 11
-363.7667
 21
198.115066
 31
0.0
  0
LINE
  5
26F
330
25
100
AcDbEntity
  8
2
100
AcDbLine
 10
-341.597956
 20
178.290108
 30
0.0
 11
-340.121947
 21
186.660974
 31
0.0
  0
ARC
  5
270
330
25
100
AcDbEntity
  8
2
100
AcDbCircle
 10
-340.85935
 20
178.159872
 30
0.0
 40
0.75
100
AcDbArc
 50
170.0
 51
350.0
  0
ARC
  5
271
330
25
100
AcDbEntity
  8
2
100
AcDbCircle
 10
-339.383341
 20
186.530737
 30
0.0
 40
0.75
100
AcDbArc
 50
350.0
 51
170.0
  0
LINE
  5
272
330
25
100
AcDbEntity
  8
2
100
AcDbLine
 10
-340.120744
 20
178.029635
 30
0.0
 11
-338.644735
 21
186.4005009999999
 31
0.0
  0
LINE
  5
273
330
25
100
AcDbEntity
  8
2
100
AcDbLine
 10
-389.8159490000001
 20
235.009731
 30
0.0
 11
-381.070696
 21
235.009731
 31
0.0
  0
ARC
  5
274
330
25
100
AcDbEntity
  8
2
100
AcDbCircle
 10
-389.8159490000001
 20
235.759731
 30
0.0
 40
0.75
100
AcDbArc
 50
180.725282
 51
270.0
  0
ARC
  5
275
330
25
100
AcDbEntity
  8
2
100
AcDbCircle
 10
-389.8159490000001
 20
237.259731
 30
0.0
 40
0.75
100
AcDbArc
 50
90.0
 51
179.274718
  0
LINE
  5
276
330
25
100
AcDbEntity
  8
2
100
AcDbLine
 10
-389.8159490000001
 20
238.009731
 30
0.0
 11
-381.070696
 21
238.009731
 31
0.0
  0
ARC
  5
277
330
25
100
AcDbEntity
  8
2
100
AcDbCircle
 10
-330.570696
 20
236.509731
 30
0.0
 40
60.0
100
AcDbArc
 50
179.274718
 51
180.725282
  0
LINE
  5
278
330
25
100
AcDbEntity
  8
2
100
AcDbLine
 10
-364.383725
 20
218.151557
 30
0.0
 11
-367.634684
 21
221.402516
 31
0.0
  0
LINE
  5
279
330
25
100
AcDbEntity
  8
2
100
AcDbLine
 10
-357.29171
 20
213.068835
 30
0.0
 11
-352.985547
 21
215.083961
 31
0.0
  0
LINE
  5
27A
330
25
100
AcDbEntity
  8
2
100
AcDbLine
 10
-357.6446259999999
 20
211.412459
 30
0.0
 11
-354.022587
 21
213.030996
 31
0.0
  0
LINE
  5
27B
330
25
100
AcDbEntity
  8
2
100
AcDbLine
 10
-357.29171
 20
213.068835
 30
0.0
 11
-354.269062
 21
216.367476
 31
0.0
  0
LINE
  5
27C
330
25
100
AcDbEntity
  8
2
100
AcDbLine
 10
-359.188224
 20
212.971594
 30
0.0
 11
-355.284986
 21
217.383401
 31
0.0
  0
ARC
  5
27D
330
25
100
AcDbEntity
  8
2
100
AcDbCircle
 10
-354.58102
 20
212.189047
 30
0.0
 40
10.402317
100
AcDbArc
 50
128.830069
 51
141.169931
  0
ARC
  5
27E
330
25
100
AcDbEntity
  8
2
100
AcDbCircle
 10
-365.269055
 20
222.877083
 30
0.0
 40
10.402317
100
AcDbArc
 50
308.830069
 51
321.169931
  0
LINE
  5
27F
330
25
100
AcDbEntity
  8
2
100
AcDbLine
 10
-364.383725
 20
218.151557
 30
0.0
 11
-360.218434
 21
222.316849
 31
0.0
  0
ARC
  5
280
330
25
100
AcDbEntity
  8
2
100
AcDbCircle
 10
-360.022384
 20
218.949471
 30
0.0
 40
1.724081
100
AcDbArc
 50
51.27054199999999
 51
128.830069
  0
ARC
  5
281
330
25
100
AcDbEntity
  8
2
100
AcDbCircle
 10
-358.508632
 20
217.435719
 30
0.0
 40
1.724081
100
AcDbArc
 50
321.169931
 51
38.729458
  0
ARC
  5
282
330
25
100
AcDbEntity
  8
2
100
AcDbCircle
 10
-366.153672
 20
211.304431
 30
0.0
 40
11.524047
100
AcDbArc
 50
38.729458
 51
51.27054199999999
  0
LINE
  5
283
330
25
100
AcDbEntity
  8
2
100
AcDbLine
 10
-355.284986
 20
217.383401
 30
0.0
 11
-354.269062
 21
216.367476
 31
0.0
  0
ARC
  5
284
330
25
100
AcDbEntity
  8
2
100
AcDbCircle
 10
-361.341443
 20
217.630411
 30
0.0
 40
1.724081
100
AcDbArc
 50
141.169931
 51
218.729458
  0
ARC
  5
285
330
25
100
AcDbEntity
  8
2
100
AcDbCircle
 10
-359.827691
 20
216.116659
 30
0.0
 40
1.724081
100
AcDbArc
 50
231.270542
 51
308.830069
  0
ARC
  5
286
330
25
100
AcDbEntity
  8
2
100
AcDbCircle
 10
-353.696403
 20
223.761699
 30
0.0
 40
11.524047
100
AcDbArc
 50
218.729458
 51
231.270542
  0
LINE
  5
287
330
25
100
AcDbEntity
  8
2
100
AcDbLine
 10
-359.1959930000001
 20
212.963825
 30
0.0
 11
-357.6446259999999
 21
211.412459
 31
0.0
  0
LINE
  5
288
330
25
100
AcDbEntity
  8
2
100
AcDbLine
 10
-364.18054
 20
220.792962
 30
0.0
 11
-364.891687
 21
220.081814
 31
0.0
  0
LINE
  5
289
330
25
100
AcDbEntity
  8
2
100
AcDbLine
 10
-362.1486910000001
 20
222.824811
 30
0.0
 11
-363.469393
 21
221.504109
 31
0.0
  0
LINE
  5
28A
330
25
100
AcDbEntity
  8
2
100
AcDbLine
 10
-363.469393
 20
221.504109
 30
0.0
 11
-365.501242
 21
223.535958
 31
0.0
  0
LINE
  5
28B
330
25
100
AcDbEntity
  8
2
100
AcDbLine
 10
-364.18054
 20
220.792962
 30
0.0
 11
-366.21239
 21
222.824811
 31
0.0
  0
LINE
  5
28C
330
25
100
AcDbEntity
  8
2
100
AcDbLine
 10
-364.891687
 20
220.081814
 30
0.0
 11
-366.923537
 21
222.113664
 31
0.0
  0
LINE
  5
28D
330
25
100
AcDbEntity
  8
2
100
AcDbLine
 10
-342.753829
 20
204.852244
 30
0.0
 11
-344.208375
 21
206.306789
 31
0.0
  0
LINE
  5
28E
330
25
100
AcDbEntity
  8
2
100
AcDbLine
 10
-345.84419
 20
201.770657
 30
0.0
 11
-347.294348
 21
203.220815
 31
0.0
  0
ARC
  5
28F
330
25
100
AcDbEntity
  8
2
100
AcDbCircle
 10
-345.958379
 20
198.364872
 30
0.0
 40
0.143673
100
AcDbArc
 50
225.0
 51
315.0
  0
LINE
  5
290
330
25
100
AcDbEntity
  8
2
100
AcDbLine
 10
-345.722279
 20
201.770657
 30
0.0
 11
-342.753829
 21
204.739107
 31
0.0
  0
LINE
  5
291
330
25
100
AcDbEntity
  8
2
100
AcDbLine
 10
-350.516023
 20
203.094409
 30
0.0
 11
-343.618788
 21
200.795331
 31
0.0
  0
ARC
  5
292
330
25
100
AcDbEntity
  8
2
100
AcDbCircle
 10
-345.783235
 20
201.831613
 30
0.0
 40
0.086204
100
AcDbArc
 50
225.0
 51
315.0
  0
LINE
  5
293
330
25
100
AcDbEntity
  8
2
100
AcDbLine
 10
-343.562629
 20
200.557438
 30
0.0
 11
-345.856787
 21
198.26328
 31
0.0
  0
ARC
  5
294
330
25
100
AcDbEntity
  8
2
100
AcDbCircle
 10
-344.1765
 20
201.784528
 30
0.0
 40
10.402317
100
AcDbArc
 50
128.830069
 51
141.169931
  0
ARC
  5
295
330
25
100
AcDbEntity
  8
2
100
AcDbCircle
 10
-344.947518
 20
202.555546
 30
0.0
 40
7.674066
100
AcDbArc
 50
124.473609
 51
145.526391
  0
LINE
  5
296
330
25
100
AcDbEntity
  8
2
100
AcDbLine
 10
-354.081989
 20
207.86536
 30
0.0
 11
-349.670182
 21
211.768597
 31
0.0
  0
ARC
  5
297
330
25
100
AcDbEntity
  8
2
100
AcDbCircle
 10
-349.617864
 20
208.544951
 30
0.0
 40
1.724081
100
AcDbArc
 50
51.27054199999999
 51
128.830069
  0
LINE
  5
298
330
25
100
AcDbEntity
  8
2
100
AcDbLine
 10
-350.686107
 20
212.784521
 30
0.0
 11
-349.670182
 21
211.768597
 31
0.0
  0
ARC
  5
299
330
25
100
AcDbEntity
  8
2
100
AcDbCircle
 10
-350.936924
 20
207.225892
 30
0.0
 40
1.724081
100
AcDbArc
 50
141.169931
 51
218.729458
  0
LINE
  5
29A
330
25
100
AcDbEntity
  8
2
100
AcDbLine
 10
-355.641124
 20
209.408957
 30
0.0
 11
-354.089758
 21
207.85759
 31
0.0
  0
ARC
  5
29B
330
25
100
AcDbEntity
  8
2
100
AcDbCircle
 10
-354.864536
 20
212.472563
 30
0.0
 40
10.402317
100
AcDbArc
 50
308.830069
 51
321.169931
  0
ARC
  5
29C
330
25
100
AcDbEntity
  8
2
100
AcDbCircle
 10
-354.712116
 20
212.445576
 30
0.0
 40
8.638035
100
AcDbArc
 50
305.062783
 51
323.774302
  0
LINE
  5
29D
330
25
100
AcDbEntity
  8
2
100
AcDbLine
 10
-344.330285
 20
206.306789
 30
0.0
 11
-347.294348
 21
203.342726
 31
0.0
  0
ARC
  5
29E
330
25
100
AcDbEntity
  8
2
100
AcDbCircle
 10
-348.104112
 20
207.031199
 30
0.0
 40
1.724081
100
AcDbArc
 50
321.169931
 51
38.729458
  0
ARC
  5
29F
330
25
100
AcDbEntity
  8
2
100
AcDbCircle
 10
-350.371268
 20
206.277795
 30
0.0
 40
3.169315999999999
100
AcDbArc
 50
34.668048
 51
55.331952
  0
ARC
  5
2A0
330
25
100
AcDbEntity
  8
2
100
AcDbCircle
 10
-348.373872
 20
207.693273
 30
0.0
 40
0.7219260000000001
100
AcDbArc
 50
330.772957
 51
32.444044
  0
ARC
  5
2A1
330
25
100
AcDbEntity
  8
2
100
AcDbCircle
 10
-344.26933
 20
206.245834
 30
0.0
 40
0.086204
100
AcDbArc
 50
45.0
 51
135.0
  0
ARC
  5
2A2
330
25
100
AcDbEntity
  8
2
100
AcDbCircle
 10
-349.423172
 20
205.71214
 30
0.0
 40
1.724081
100
AcDbArc
 50
231.270542
 51
308.830069
  0
ARC
  5
2A3
330
25
100
AcDbEntity
  8
2
100
AcDbCircle
 10
-350.112954
 20
205.892585
 30
0.0
 40
0.6321630000000001
100
AcDbArc
 50
235.331952
 51
305.062783
  0
ARC
  5
2A4
330
25
100
AcDbEntity
  8
2
100
AcDbCircle
 10
-348.669768
 20
207.979296
 30
0.0
 40
3.169315999999999
100
AcDbArc
 50
214.668048
 51
235.331952
  0
ARC
  5
2A5
330
25
100
AcDbEntity
  8
2
100
AcDbCircle
 10
-347.233393
 20
203.281771
 30
0.0
 40
0.086204
100
AcDbArc
 50
135.0
 51
225.0
  0
ARC
  5
2A6
330
25
100
AcDbEntity
  8
2
100
AcDbCircle
 10
-355.749152
 20
200.899911
 30
0.0
 40
11.524047
100
AcDbArc
 50
38.729458
 51
51.27054199999999
  0
ARC
  5
2A7
330
25
100
AcDbEntity
  8
2
100
AcDbCircle
 10
-348.928082
 20
208.364506
 30
0.0
 40
0.6321630000000001
100
AcDbArc
 50
55.331952
 51
125.062783
  0
ARC
  5
2A8
330
25
100
AcDbEntity
  8
2
100
AcDbCircle
 10
-343.291884
 20
213.35718
 30
0.0
 40
11.524047
100
AcDbArc
 50
218.729458
 51
231.270542
  0
ARC
  5
2A9
330
25
100
AcDbEntity
  8
2
100
AcDbCircle
 10
-350.756478
 20
206.53611
 30
0.0
 40
0.6321630000000001
100
AcDbArc
 50
144.937217
 51
214.668048
  0
LINE
  5
2AA
330
25
100
AcDbEntity
  8
2
100
AcDbLine
 10
-355.641124
 20
209.408957
 30
0.0
 11
-354.022587
 21
213.030996
 31
0.0
  0
LINE
  5
2AB
330
25
100
AcDbEntity
  8
2
100
AcDbLine
 10
-352.985547
 20
215.083961
 30
0.0
 11
-351.969622
 21
214.068037
 31
0.0
  0
ARC
  5
2AC
330
25
100
AcDbEntity
  8
2
100
AcDbCircle
 10
-350.560295
 20
202.961593
 30
0.0
 40
0.14
100
AcDbArc
 50
71.565051
 51
225.0
  0
ARC
  5
2AD
330
25
100
AcDbEntity
  8
2
100
AcDbCircle
 10
-360.544317
 20
216.323949
 30
0.0
 40
0.6321630000000001
100
AcDbArc
 50
235.331952
 51
305.062783
  0
ARC
  5
2AE
330
25
100
AcDbEntity
  8
2
100
AcDbCircle
 10
-358.715921
 20
218.152344
 30
0.0
 40
0.6321630000000001
100
AcDbArc
 50
324.937217
 51
34.668048
  0
ARC
  5
2AF
330
25
100
AcDbEntity
  8
2
100
AcDbCircle
 10
-359.101131
 20
218.410659
 30
0.0
 40
3.169315999999999
100
AcDbArc
 50
214.668048
 51
235.331952
  0
ARC
  5
2B0
330
25
100
AcDbEntity
  8
2
100
AcDbCircle
 10
-361.187841
 20
216.967473
 30
0.0
 40
0.6321630000000001
100
AcDbArc
 50
144.937217
 51
214.668048
  0
ARC
  5
2B1
330
25
100
AcDbEntity
  8
2
100
AcDbCircle
 10
-359.3871529999999
 20
218.706554
 30
0.0
 40
0.7219260000000001
100
AcDbArc
 50
57.55595600000001
 51
119.227043
  0
ARC
  5
2B2
330
25
100
AcDbEntity
  8
2
100
AcDbCircle
 10
-360.802631
 20
216.709159
 30
0.0
 40
3.169315999999999
100
AcDbArc
 50
34.668048
 51
55.331952
  0
ARC
  5
2B3
330
25
100
AcDbEntity
  8
2
100
AcDbCircle
 10
-354.634851
 20
212.36831
 30
0.0
 40
8.638035
100
AcDbArc
 50
126.225698
 51
144.937217
  0
ARC
  5
2B4
330
25
100
AcDbEntity
  8
2
100
AcDbCircle
 10
-364.524881
 20
222.132909
 30
0.0
 40
7.674066
100
AcDbArc
 50
304.473609
 51
325.526391
  0
LINE
  5
2B5
330
25
100
AcDbEntity
  8
2
100
AcDbLine
 10
-346.059972
 20
198.26328
 30
0.0
 11
-350.65929
 21
202.862598
 31
0.0
  0
LINE
  5
2B6
330
25
100
AcDbEntity
  8
2
100
AcDbLine
 10
-354.011592
 20
209.788717
 30
0.0
 11
-351.996465
 21
214.09488
 31
0.0
  0
LINE
  5
2B7
330
25
100
AcDbEntity
  8
2
100
AcDbLine
 10
-354.011592
 20
209.788717
 30
0.0
 11
-350.71295
 21
212.811365
 31
0.0
  0
LINE
  5
2B8
330
25
100
AcDbEntity
  8
2
100
AcDbLine
 10
-367.634684
 20
221.402516
 30
0.0
 11
-366.923537
 21
222.113664
 31
0.0
  0
LINE
  5
2B9
330
25
100
AcDbEntity
  8
2
100
AcDbLine
 10
-366.21239
 20
222.824811
 30
0.0
 11
-365.501242
 21
223.535958
 31
0.0
  0
ARC
  5
2BA
330
25
100
AcDbEntity
  8
2
100
AcDbCircle
 10
-343.664221
 20
200.65903
 30
0.0
 40
0.143673
100
AcDbArc
 50
315.0
 51
71.565051
  0
LINE
  5
2BB
330
25
100
AcDbEntity
  8
2
100
AcDbLine
 10
-305.380073
 20
219.487698
 30
0.0
 11
-302.715677
 21
218.741596
 31
0.0
  0
LINE
  5
2BC
330
25
100
AcDbEntity
  8
2
100
AcDbLine
 10
-302.715677
 20
218.741596
 30
0.0
 11
-303.473721
 21
219.52411
 31
0.0
  0
LINE
  5
2BD
330
25
100
AcDbEntity
  8
2
100
AcDbLine
 10
-323.570696
 20
216.509731
 30
0.0
 11
-337.570696
 21
216.509731
 31
0.0
  0
LINE
  5
2BE
330
25
100
AcDbEntity
  8
2
100
AcDbLine
 10
-289.889448
 20
208.447285
 30
0.0
 11
-299.127052
 21
208.447285
 31
0.0
  0
LINE
  5
2BF
330
25
100
AcDbEntity
  8
2
100
AcDbLine
 10
-299.127052
 20
192.447285
 30
0.0
 11
-289.889448
 21
192.447285
 31
0.0
  0
CIRCLE
  5
2C0
330
25
100
AcDbEntity
  8
2
100
AcDbCircle
 10
-294.50825
 20
200.447285
 30
0.0
 40
8.0
  0
LINE
  5
2C1
330
25
100
AcDbEntity
  8
2
100
AcDbLine
 10
-303.745854
 20
200.447285
 30
0.0
 11
-299.127052
 21
192.447285
 31
0.0
  0
LINE
  5
2C2
330
25
100
AcDbEntity
  8
2
100
AcDbLine
 10
-289.889448
 20
192.447285
 30
0.0
 11
-285.270646
 21
200.447285
 31
0.0
  0
LINE
  5
2C3
330
25
100
AcDbEntity
  8
2
100
AcDbLine
 10
-285.270646
 20
200.447285
 30
0.0
 11
-289.889448
 21
208.447285
 31
0.0
  0
LINE
  5
2C4
330
25
100
AcDbEntity
  8
2
100
AcDbLine
 10
-299.127052
 20
208.447285
 30
0.0
 11
-303.745854
 21
200.447285
 31
0.0
  0
LINE
  5
2C5
330
25
100
AcDbEntity
  8
2
100
AcDbLine
 10
-371.251944
 20
280.572177
 30
0.0
 11
-375.870746
 21
272.572177
 31
0.0
  0
LINE
  5
2C6
330
25
100
AcDbEntity
  8
2
100
AcDbLine
 10
-375.870746
 20
272.572177
 30
0.0
 11
-371.251944
 21
264.572177
 31
0.0
  0
LINE
  5
2C7
330
25
100
AcDbEntity
  8
2
100
AcDbLine
 10
-362.014339
 20
280.572177
 30
0.0
 11
-371.251944
 21
280.572177
 31
0.0
  0
LINE
  5
2C8
330
25
100
AcDbEntity
  8
2
100
AcDbLine
 10
-357.395537
 20
272.572177
 30
0.0
 11
-362.014339
 21
280.572177
 31
0.0
  0
LINE
  5
2C9
330
25
100
AcDbEntity
  8
2
100
AcDbLine
 10
-362.014339
 20
264.572177
 30
0.0
 11
-357.395537
 21
272.572177
 31
0.0
  0
LINE
  5
2CA
330
25
100
AcDbEntity
  8
2
100
AcDbLine
 10
-371.251944
 20
264.572177
 30
0.0
 11
-362.014339
 21
264.572177
 31
0.0
  0
CIRCLE
  5
2CB
330
25
100
AcDbEntity
  8
2
100
AcDbCircle
 10
-366.633142
 20
272.572177
 30
0.0
 40
8.0
  0
LINE
  5
2CC
330
25
100
AcDbEntity
  8
2
100
AcDbLine
 10
-328.073639
 20
242.143442
 30
0.0
 11
-324.384352
 21
242.143442
 31
0.0
  0
LINE
  5
2CD
330
25
100
AcDbEntity
  8
2
100
AcDbLine
 10
-324.337564
 20
241.945248
 30
0.0
 11
-327.956671
 21
240.135695
 31
0.0
  0
CIRCLE
  5
2CE
330
25
100
AcDbEntity
  8
2
100
AcDbCircle
 10
-330.570696
 20
236.509731
 30
0.0
 40
14.0
  0
LINE
  5
2CF
330
25
100
AcDbEntity
  8
2
100
AcDbLine
 10
-328.679265
 20
239.748243
 30
0.0
 11
-332.298372
 21
237.93869
 31
0.0
  0
LINE
  5
2D0
330
25
100
AcDbEntity
  8
2
100
AcDbLine
 10
-332.6768879999999
 20
238.172626
 30
0.0
 11
-332.6768879999999
 21
239.684889
 31
0.0
  0
LINE
  5
2D1
330
25
100
AcDbEntity
  8
2
100
AcDbLine
 10
-333.020965
 20
239.748243
 30
0.0
 11
-336.721298
 21
237.898077
 31
0.0
  0
LINE
  5
2D2
330
25
100
AcDbEntity
  8
2
100
AcDbLine
 10
-337.018588
 20
235.975621
 30
0.0
 11
-337.018588
 21
241.881894
 31
0.0
  0
LINE
  5
2D3
330
25
100
AcDbEntity
  8
2
100
AcDbLine
 10
-333.020965
 20
237.551238
 30
0.0
 11
-336.6400720000001
 21
235.741685
 31
0.0
  0
LINE
  5
2D4
330
25
100
AcDbEntity
  8
2
100
AcDbLine
 10
-336.686207
 20
237.749432
 30
0.0
 11
-333.067752
 21
237.749432
 31
0.0
  0
ARC
  5
2D5
330
25
100
AcDbEntity
  8
2
100
AcDbCircle
 10
-336.75704
 20
235.975621
 30
0.0
 40
0.261548
100
AcDbArc
 50
180.0
 51
296.565051
  0
ARC
  5
2D6
330
25
100
AcDbEntity
  8
2
100
AcDbCircle
 10
-336.686207
 20
237.827896
 30
0.0
 40
0.078464
100
AcDbArc
 50
116.565051
 51
270.0
  0
LINE
  5
2D7
330
25
100
AcDbEntity
  8
2
100
AcDbLine
 10
-332.519959
 20
229.406044
 30
0.0
 11
-328.7865490000001
 21
229.406044
 31
0.0
  0
LINE
  5
2D8
330
25
100
AcDbEntity
  8
2
100
AcDbLine
 10
-332.519959
 20
237.749432
 30
0.0
 11
-328.7865490000001
 21
237.749432
 31
0.0
  0
LINE
  5
2D9
330
25
100
AcDbEntity
  8
2
100
AcDbLine
 10
-332.6768879999999
 20
237.592503
 30
0.0
 11
-332.6768879999999
 21
229.562973
 31
0.0
  0
ARC
  5
2DA
330
25
100
AcDbEntity
  8
2
100
AcDbCircle
 10
-332.519959
 20
229.562973
 30
0.0
 40
0.156929
100
AcDbArc
 50
180.0
 51
270.0
  0
ARC
  5
2DB
330
25
100
AcDbEntity
  8
2
100
AcDbCircle
 10
-332.415339
 20
238.172626
 30
0.0
 40
0.261548
100
AcDbArc
 50
180.0
 51
296.565051
  0
ARC
  5
2DC
330
25
100
AcDbEntity
  8
2
100
AcDbCircle
 10
-332.519959
 20
237.592503
 30
0.0
 40
0.156929
100
AcDbArc
 50
90.0
 51
180.0
  0
ARC
  5
2DD
330
25
100
AcDbEntity
  8
2
100
AcDbCircle
 10
-333.067752
 20
237.644812
 30
0.0
 40
0.104619
100
AcDbArc
 50
296.565051
 51
90.0
  0
LINE
  5
2DE
330
25
100
AcDbEntity
  8
2
100
AcDbLine
 10
-328.6296200000001
 20
229.562973
 30
0.0
 11
-328.6296200000001
 21
237.592503
 31
0.0
  0
ARC
  5
2DF
330
25
100
AcDbEntity
  8
2
100
AcDbCircle
 10
-328.7865490000001
 20
229.562973
 30
0.0
 40
0.156929
100
AcDbArc
 50
270.0
 51
360.0
  0
ARC
  5
2E0
330
25
100
AcDbEntity
  8
2
100
AcDbCircle
 10
-328.7865490000001
 20
237.592503
 30
0.0
 40
0.156929
100
AcDbArc
 50
0.0
 51
90.0
  0
LINE
  5
2E1
330
25
100
AcDbEntity
  8
2
100
AcDbLine
 10
-336.75704
 20
242.143442
 30
0.0
 11
-333.067752
 21
242.143442
 31
0.0
  0
LINE
  5
2E2
330
25
100
AcDbEntity
  8
2
100
AcDbLine
 10
-336.686207
 20
239.946437
 30
0.0
 11
-333.067752
 21
239.946437
 31
0.0
  0
LINE
  5
2E3
330
25
100
AcDbEntity
  8
2
100
AcDbLine
 10
-333.020965
 20
241.945248
 30
0.0
 11
-336.721298
 21
240.095082
 31
0.0
  0
ARC
  5
2E4
330
25
100
AcDbEntity
  8
2
100
AcDbCircle
 10
-336.75704
 20
241.881894
 30
0.0
 40
0.261548
100
AcDbArc
 50
90.0
 51
180.0
  0
ARC
  5
2E5
330
25
100
AcDbEntity
  8
2
100
AcDbCircle
 10
-336.686207
 20
240.024901
 30
0.0
 40
0.078464
100
AcDbArc
 50
116.565051
 51
270.0
  0
LINE
  5
2E6
330
25
100
AcDbEntity
  8
2
100
AcDbLine
 10
-332.415339
 20
242.143442
 30
0.0
 11
-328.726052
 21
242.143442
 31
0.0
  0
LINE
  5
2E7
330
25
100
AcDbEntity
  8
2
100
AcDbLine
 10
-332.415339
 20
239.946437
 30
0.0
 11
-328.726052
 21
239.946437
 31
0.0
  0
LINE
  5
2E8
330
25
100
AcDbEntity
  8
2
100
AcDbLine
 10
-328.679265
 20
241.945248
 30
0.0
 11
-332.298372
 21
240.135695
 31
0.0
  0
ARC
  5
2E9
330
25
100
AcDbEntity
  8
2
100
AcDbCircle
 10
-332.415339
 20
241.881894
 30
0.0
 40
0.261548
100
AcDbArc
 50
90.0
 51
180.0
  0
ARC
  5
2EA
330
25
100
AcDbEntity
  8
2
100
AcDbCircle
 10
-333.067752
 20
242.038822
 30
0.0
 40
0.104619
100
AcDbArc
 50
296.565051
 51
90.0
  0
ARC
  5
2EB
330
25
100
AcDbEntity
  8
2
100
AcDbCircle
 10
-332.415339
 20
240.369631
 30
0.0
 40
0.261548
100
AcDbArc
 50
180.0
 51
296.565051
  0
ARC
  5
2EC
330
25
100
AcDbEntity
  8
2
100
AcDbCircle
 10
-332.415339
 20
239.684889
 30
0.0
 40
0.261548
100
AcDbArc
 50
90.0
 51
180.0
  0
ARC
  5
2ED
330
25
100
AcDbEntity
  8
2
100
AcDbCircle
 10
-333.067752
 20
239.841817
 30
0.0
 40
0.104619
100
AcDbArc
 50
296.565051
 51
90.0
  0
LINE
  5
2EE
330
25
100
AcDbEntity
  8
2
100
AcDbLine
 10
-332.6768879999999
 20
240.369631
 30
0.0
 11
-332.6768879999999
 21
241.881894
 31
0.0
  0
ARC
  5
2EF
330
25
100
AcDbEntity
  8
2
100
AcDbCircle
 10
-328.073639
 20
241.881894
 30
0.0
 40
0.261548
100
AcDbArc
 50
90.0
 51
180.0
  0
ARC
  5
2F0
330
25
100
AcDbEntity
  8
2
100
AcDbCircle
 10
-328.726052
 20
242.038822
 30
0.0
 40
0.104619
100
AcDbArc
 50
296.565051
 51
90.0
  0
ARC
  5
2F1
330
25
100
AcDbEntity
  8
2
100
AcDbCircle
 10
-328.073639
 20
240.369631
 30
0.0
 40
0.261548
100
AcDbArc
 50
180.0
 51
296.565051
  0
ARC
  5
2F2
330
25
100
AcDbEntity
  8
2
100
AcDbCircle
 10
-328.726052
 20
239.841817
 30
0.0
 40
0.104619
100
AcDbArc
 50
296.565051
 51
90.0
  0
LINE
  5
2F3
330
25
100
AcDbEntity
  8
2
100
AcDbLine
 10
-328.335187
 20
240.369631
 30
0.0
 11
-328.335187
 21
241.881894
 31
0.0
  0
ARC
  5
2F4
330
25
100
AcDbEntity
  8
2
100
AcDbCircle
 10
-324.384352
 20
242.038822
 30
0.0
 40
0.104619
100
AcDbArc
 50
296.565051
 51
90.0
  0
TEXT
  5
2F5
330
25
100
AcDbEntity
  8
2
100
AcDbText
 10
-306.140262
 20
219.044975
 30
0.0
 40
3.0
  1
Ｔ
 50
232.5801069851688
 41
0.9230769897769942
 72
     5
 11
-307.598626
 21
217.138886
 31
0.0
100
AcDbText
  0
TEXT
  5
2F6
330
25
100
AcDbEntity
  8
2
100
AcDbText
 10
-307.755381
 20
216.982181
 30
0.0
 40
3.0
  1
Ｅ
 50
227.580109194358
 41
1.090909156992609
 72
     5
 11
-309.374322
 21
215.21045
 31
0.0
100
AcDbText
  0
TEXT
  5
2F7
330
25
100
AcDbEntity
  8
2
100
AcDbText
 10
-309.544138
 20
215.068003
 30
0.0
 40
3.0
  1
Ｎ
 50
222.5801083316807
 41
0.9230769808597669
 72
     5
 11
-311.311335
 21
213.444114
 31
0.0
100
AcDbText
  0
TEXT
  5
2F8
330
25
100
AcDbEntity
  8
2
100
AcDbText
 10
-311.49292
 20
213.31701
 30
0.0
 40
3.0
  1
Ｔ
 50
217.5800969094901
 41
0.9230770654935692
 72
     5
 11
-313.394924
 21
211.853322
 31
0.0
100
AcDbText
  0
TEXT
  5
2F9
330
25
100
AcDbEntity
  8
2
100
AcDbText
 10
-313.586896
 20
211.742528
 30
0.0
 40
3.0
  1
Ｅ
 50
212.5801053539106
 41
1.090909299747044
 72
     5
 11
-315.609231
 21
210.45018
 31
0.0
100
AcDbText
  0
TEXT
  5
2FA
330
25
100
AcDbEntity
  8
2
100
AcDbText
 10
-315.810128
 20
210.356539
 30
0.0
 40
3.0
  1
Ｄ
 50
207.5801023830439
 41
1.000000185695214
 72
     5
 11
-317.9374029999999
 21
209.245367
 31
0.0
100
AcDbText
  0
TEXT
  5
2FB
330
25
100
AcDbEntity
  8
2
100
AcDbText
 10
-355.613419
 20
253.084586
 30
0.0
 40
3.0
  1
Ｊ
 50
54.64109587965431
 41
1.199999759213553
 72
     5
 11
-354.224548
 21
255.041889
 31
0.0
100
AcDbText
  0
TEXT
  5
2FC
330
25
100
AcDbEntity
  8
2
100
AcDbText
 10
-354.07353
 20
255.204131
 30
0.0
 40
3.0
  1
Ａ
 50
49.64110140635951
 41
0.9230767694090328
 72
     5
 11
-352.519354
 21
257.032938
 31
0.0
100
AcDbText
  0
TEXT
  5
2FD
330
25
100
AcDbEntity
  8
2
100
AcDbText
 10
-352.354771
 20
257.1814
 30
0.0
 40
3.0
  1
Ｐ
 50
44.64110906530019
 41
1.000000010317518
 72
     5
 11
-350.6471180000001
 21
258.867793
 31
0.0
100
AcDbText
  0
TEXT
  5
2FE
330
25
100
AcDbEntity
  8
2
100
AcDbText
 10
-350.470221
 20
259.001345
 30
0.0
 40
3.0
  1
Ａ
 50
39.64110448616614
 41
0.9230770216900426
 72
     5
 11
-348.622087
 21
260.532489
 31
0.0
100
AcDbText
  0
TEXT
  5
2FF
330
25
100
AcDbEntity
  8
2
100
AcDbText
 10
-348.434224
 20
260.650116
 30
0.0
 40
3.0
  1
Ｎ
 50
34.64110749874374
 41
0.9230769221125855
 72
     5
 11
-346.459675
 21
262.014358
 31
0.0
100
AcDbText
  0
ARC
  5
300
330
25
100
AcDbEntity
  8
2
100
AcDbCircle
 10
-372.570696
 20
301.642288
 30
0.0
 40
15.0
100
AcDbArc
 50
302.815493
 51
360.0
  0
LINE
  5
301
330
25
100
AcDbEntity
  8
2
100
AcDbLine
 10
-338.570696
 20
324.009731
 30
0.0
 11
-347.570696
 21
324.009731
 31
0.0
  0
LINE
  5
302
330
25
100
AcDbEntity
  8
2
100
AcDbLine
 10
-357.570696
 20
314.009731
 30
0.0
 11
-357.570696
 21
301.642288
 31
0.0
  0
LINE
  5
303
330
25
100
AcDbEntity
  8
2
100
AcDbLine
 10
-337.570696
 20
323.009731
 30
0.0
 11
-337.570696
 21
309.764424
 31
0.0
  0
ARC
  5
304
330
25
100
AcDbEntity
  8
2
100
AcDbCircle
 10
-347.570696
 20
314.009731
 30
0.0
 40
10.0
100
AcDbArc
 50
90.0
 51
180.0
  0
ARC
  5
305
330
25
100
AcDbEntity
  8
2
100
AcDbCircle
 10
-338.570696
 20
323.009731
 30
0.0
 40
1.0
100
AcDbArc
 50
0.0
 51
90.0
  0
ARC
  5
306
330
25
100
AcDbEntity
  8
2
100
AcDbCircle
 10
-336.570696
 20
309.764424
 30
0.0
 40
1.0
100
AcDbArc
 50
180.0
 51
274.682417
  0
ARC
  5
307
330
25
100
AcDbEntity
  8
2
100
AcDbCircle
 10
-330.570696
 20
236.509731
 30
0.0
 40
72.5
100
AcDbArc
 50
63.197079
 51
66.802931
  0
ARC
  5
308
330
25
100
AcDbEntity
  8
2
100
AcDbCircle
 10
-330.570696
 20
236.509731
 30
0.0
 40
72.5
100
AcDbArc
 50
73.19707099999999
 51
76.80292900000001
  0
ARC
  5
309
330
25
100
AcDbEntity
  8
2
100
AcDbCircle
 10
-330.570696
 20
236.509731
 30
0.0
 40
72.5
100
AcDbArc
 50
83.19707499999999
 51
86.802934
  0
ARC
  5
30A
330
25
100
AcDbEntity
  8
2
100
AcDbCircle
 10
-330.570696
 20
236.509731
 30
0.0
 40
72.5
100
AcDbArc
 50
93.19707199999999
 51
94.682417
  0
LINE
  5
30B
330
25
100
AcDbEntity
  8
2
100
AcDbLine
 10
-308.90507
 20
297.38617
 30
0.0
 11
-309.257472
 21
305.457515
 31
0.0
  0
ARC
  5
30C
330
25
100
AcDbEntity
  8
2
100
AcDbCircle
 10
-309.756996
 20
305.435705
 30
0.0
 40
0.5
100
AcDbArc
 50
2.5
 51
73.19716600000001
  0
ARC
  5
30D
330
25
100
AcDbEntity
  8
2
100
AcDbCircle
 10
-302.210152
 20
302.688878
 30
0.0
 40
0.5
100
AcDbArc
 50
66.80283399999999
 51
137.5
  0
LINE
  5
30E
330
25
100
AcDbEntity
  8
2
100
AcDbLine
 10
-308.036907
 20
297.0701850000001
 30
0.0
 11
-302.578791
 21
303.026674
 31
0.0
  0
LINE
  5
30F
330
25
100
AcDbEntity
  8
2
100
AcDbLine
 10
-330.108756
 20
301.124952
 30
0.0
 11
-327.017043
 21
308.589006
 31
0.0
  0
ARC
  5
310
330
25
100
AcDbEntity
  8
2
100
AcDbCircle
 10
-326.555104
 20
308.397665
 30
0.0
 40
0.5
100
AcDbArc
 50
86.80283399999998
 51
157.5
  0
ARC
  5
311
330
25
100
AcDbEntity
  8
2
100
AcDbCircle
 10
-334.586288
 20
308.397665
 30
0.0
 40
0.5
100
AcDbArc
 50
22.5
 51
93.19716600000001
  0
LINE
  5
312
330
25
100
AcDbEntity
  8
2
100
AcDbLine
 10
-331.032635
 20
301.124952
 30
0.0
 11
-334.124348
 21
308.589006
 31
0.0
  0
LINE
  5
313
330
25
100
AcDbEntity
  8
2
100
AcDbLine
 10
-319.805302
 20
300.223517
 30
0.0
 11
-321.553925
 21
308.1110450000001
 31
0.0
  0
ARC
  5
314
330
25
100
AcDbEntity
  8
2
100
AcDbCircle
 10
-322.042073
 20
308.002826
 30
0.0
 40
0.5
100
AcDbArc
 50
12.5
 51
83.19716600000001
  0
ARC
  5
315
330
25
100
AcDbEntity
  8
2
100
AcDbCircle
 10
-314.132901
 20
306.608225
 30
0.0
 40
0.5
100
AcDbArc
 50
76.80283399999999
 51
147.5
  0
LINE
  5
316
330
25
100
AcDbEntity
  8
2
100
AcDbLine
 10
-318.895458
 20
300.063087
 30
0.0
 11
-314.554597
 21
306.876875
 31
0.0
  0
ARC
  5
317
330
25
100
AcDbEntity
  8
2
100
AcDbCircle
 10
-314.132901
 20
306.608225
 30
0.0
 40
0.5
100
AcDbArc
 50
76.80283399999999
 51
147.5
  0
ARC
  5
318
330
25
100
AcDbEntity
  8
2
100
AcDbCircle
 10
-309.756996
 20
305.435705
 30
0.0
 40
0.5
100
AcDbArc
 50
2.5
 51
73.19716600000001
  0
LINE
  5
319
330
25
100
AcDbEntity
  8
2
100
AcDbLine
 10
-243.070696
 20
220.677851
 30
0.0
 11
-243.070696
 21
219.509731
 31
0.0
  0
ARC
  5
31A
330
25
100
AcDbEntity
  8
2
100
AcDbCircle
 10
-261.644721
 20
257.32343
 30
0.0
 40
0.5
100
AcDbArc
 50
16.802834
 51
87.5
  0
ARC
  5
31B
330
25
100
AcDbEntity
  8
2
100
AcDbCircle
 10
-260.472201
 20
252.947526
 30
0.0
 40
0.5
100
AcDbArc
 50
325.7465390000001
 51
13.197166
  0
LINE
  5
31C
330
25
100
AcDbEntity
  8
2
100
AcDbLine
 10
-270.010242
 20
259.04352
 30
0.0
 11
-265.136228
 21
263.509731
 31
0.0
  0
ARC
  5
31D
330
25
100
AcDbEntity
  8
2
100
AcDbCircle
 10
-261.644721
 20
257.32343
 30
0.0
 40
0.5
100
AcDbArc
 50
16.802834
 51
87.5
  0
ARC
  5
31E
330
25
100
AcDbEntity
  8
2
100
AcDbCircle
 10
-269.672447
 20
258.674881
 30
0.0
 40
0.5
100
AcDbArc
 50
132.5
 51
267.5
  0
LINE
  5
31F
330
25
100
AcDbEntity
  8
2
100
AcDbLine
 10
-269.694256
 20
258.175357
 30
0.0
 11
-261.622912
 21
257.822954
 31
0.0
  0
LINE
  5
320
330
25
100
AcDbEntity
  8
2
100
AcDbLine
 10
-253.070696
 20
209.509731
 30
0.0
 11
-265.4381390000001
 21
209.509731
 31
0.0
  0
ARC
  5
321
330
25
100
AcDbEntity
  8
2
100
AcDbCircle
 10
-253.070696
 20
219.509731
 30
0.0
 40
10.0
100
AcDbArc
 50
270.0
 51
360.0
  0
LINE
  5
322
330
25
100
AcDbEntity
  8
2
100
AcDbLine
 10
-243.070696
 20
220.677851
 30
0.0
 11
-243.070696
 21
219.509731
 31
0.0
  0
ARC
  5
323
330
25
100
AcDbEntity
  8
2
100
AcDbCircle
 10
-260.472201
 20
252.947526
 30
0.0
 40
0.5
100
AcDbArc
 50
325.7465390000001
 51
13.197166
  0
LINE
  5
324
330
25
100
AcDbEntity
  8
2
100
AcDbLine
 10
-269.694256
 20
258.175357
 30
0.0
 11
-261.622912
 21
257.822954
 31
0.0
  0
ARC
  5
325
330
25
100
AcDbEntity
  8
2
100
AcDbCircle
 10
-261.644721
 20
257.32343
 30
0.0
 40
0.5
100
AcDbArc
 50
16.802834
 51
87.5
  0
ARC
  5
326
330
25
100
AcDbEntity
  8
2
100
AcDbCircle
 10
-264.391548
 20
264.870274
 30
0.0
 40
0.5
100
AcDbArc
 50
312.5
 51
23.197166
  0
ARC
  5
327
330
25
100
AcDbEntity
  8
2
100
AcDbCircle
 10
-269.672447
 20
258.674881
 30
0.0
 40
0.5
100
AcDbArc
 50
132.5
 51
267.5
  0
LINE
  5
328
330
25
100
AcDbEntity
  8
2
100
AcDbLine
 10
-270.010242
 20
259.04352
 30
0.0
 11
-264.053753
 21
264.501636
 31
0.0
  0
LINE
  5
329
330
25
100
AcDbEntity
  8
2
100
AcDbLine
 10
-274.381303
 20
268.41729
 30
0.0
 11
-266.371386
 21
269.471815
 31
0.0
  0
ARC
  5
32A
330
25
100
AcDbEntity
  8
2
100
AcDbCircle
 10
-266.306123
 20
268.976093
 30
0.0
 40
0.5
100
AcDbArc
 50
26.802834
 51
97.5
  0
ARC
  5
32B
330
25
100
AcDbEntity
  8
2
100
AcDbCircle
 10
-274.446566
 20
268.9130120000001
 30
0.0
 40
0.5
100
AcDbArc
 50
142.5
 51
277.5
  0
LINE
  5
32C
330
25
100
AcDbEntity
  8
2
100
AcDbLine
 10
-274.843243
 20
269.217393
 30
0.0
 11
-269.925038
 21
275.626922
 31
0.0
  0
LINE
  5
32D
330
25
100
AcDbEntity
  8
2
100
AcDbLine
 10
-270.010242
 20
259.04352
 30
0.0
 11
-264.053753
 21
264.501636
 31
0.0
  0
ARC
  5
32E
330
25
100
AcDbEntity
  8
2
100
AcDbCircle
 10
-269.672447
 20
258.674881
 30
0.0
 40
0.5
100
AcDbArc
 50
132.5
 51
267.5
  0
ARC
  5
32F
330
25
100
AcDbEntity
  8
2
100
AcDbCircle
 10
-264.391548
 20
264.870274
 30
0.0
 40
0.5
100
AcDbArc
 50
312.5
 51
23.197166
  0
ARC
  5
330
330
25
100
AcDbEntity
  8
2
100
AcDbCircle
 10
-261.644721
 20
257.32343
 30
0.0
 40
0.5
100
AcDbArc
 50
16.802834
 51
87.5
  0
ARC
  5
331
330
25
100
AcDbEntity
  8
2
100
AcDbCircle
 10
-330.570696
 20
236.509731
 30
0.0
 40
72.5
100
AcDbArc
 50
23.197079
 51
26.80293300000001
  0
ARC
  5
332
330
25
100
AcDbEntity
  8
2
100
AcDbCircle
 10
-330.570696
 20
236.509731
 30
0.0
 40
72.5
100
AcDbArc
 50
13.197089
 51
16.802918
  0
ARC
  5
333
330
25
100
AcDbEntity
  8
2
100
AcDbCircle
 10
-281.285901
 20
288.99791
 30
0.0
 40
0.5
100
AcDbArc
 50
46.802834
 51
117.5
  0
ARC
  5
334
330
25
100
AcDbEntity
  8
2
100
AcDbCircle
 10
-278.082516
 20
285.794526
 30
0.0
 40
0.5
100
AcDbArc
 50
332.5
 51
43.19716599999999
  0
LINE
  5
335
330
25
100
AcDbEntity
  8
2
100
AcDbLine
 10
-280.775635
 20
277.689728
 30
0.0
 11
-273.070524
 21
280.119141
 31
0.0
  0
ARC
  5
336
330
25
100
AcDbEntity
  8
2
100
AcDbCircle
 10
-272.920171
 20
279.642282
 30
0.0
 40
0.5
100
AcDbArc
 50
36.802834
 51
107.5
  0
ARC
  5
337
330
25
100
AcDbEntity
  8
2
100
AcDbCircle
 10
-278.082516
 20
285.794526
 30
0.0
 40
0.5
100
AcDbArc
 50
332.5
 51
43.19716599999999
  0
ARC
  5
338
330
25
100
AcDbEntity
  8
2
100
AcDbCircle
 10
-280.9259879999999
 20
278.166587
 30
0.0
 40
0.5
100
AcDbArc
 50
152.5
 51
287.5
  0
LINE
  5
339
330
25
100
AcDbEntity
  8
2
100
AcDbLine
 10
-281.369494
 20
278.397461
 30
0.0
 11
-277.639011
 21
285.563652
 31
0.0
  0
LINE
  5
33A
330
25
100
AcDbEntity
  8
2
100
AcDbLine
 10
-289.390698
 20
286.304791
 30
0.0
 11
-286.961286
 21
294.0099029999999
 31
0.0
  0
ARC
  5
33B
330
25
100
AcDbEntity
  8
2
100
AcDbCircle
 10
-288.91384
 20
286.154438
 30
0.0
 40
0.5
100
AcDbArc
 50
162.5
 51
297.5
  0
ARC
  5
33C
330
25
100
AcDbEntity
  8
2
100
AcDbCircle
 10
-287.438145
 20
294.160256
 30
0.0
 40
0.5
100
AcDbArc
 50
342.5
 51
53.197166
  0
ARC
  5
33D
330
25
100
AcDbEntity
  8
2
100
AcDbCircle
 10
-281.285901
 20
288.99791
 30
0.0
 40
0.5
100
AcDbArc
 50
46.802834
 51
117.5
  0
LINE
  5
33E
330
25
100
AcDbEntity
  8
2
100
AcDbLine
 10
-288.682966
 20
285.710933
 30
0.0
 11
-281.516775
 21
289.441416
 31
0.0
  0
ARC
  5
33F
330
25
100
AcDbEntity
  8
2
100
AcDbCircle
 10
-319.317154
 20
300.331737
 30
0.0
 40
0.5
100
AcDbArc
 50
192.5
 51
327.5
  0
ARC
  5
340
330
25
100
AcDbEntity
  8
2
100
AcDbCircle
 10
-330.570696
 20
301.316294
 30
0.0
 40
0.5
100
AcDbArc
 50
202.5
 51
337.5
  0
ARC
  5
341
330
25
100
AcDbEntity
  8
2
100
AcDbCircle
 10
-308.405546
 20
297.40798
 30
0.0
 40
0.5
100
AcDbArc
 50
182.5
 51
317.5
  0
LINE
  5
342
330
25
100
AcDbEntity
  8
2
100
AcDbLine
 10
-298.663137
 20
292.699124
 30
0.0
 11
-297.608611
 21
300.709041
 31
0.0
  0
ARC
  5
343
330
25
100
AcDbEntity
  8
2
100
AcDbCircle
 10
-298.167414
 20
292.633861
 30
0.0
 40
0.5
100
AcDbArc
 50
172.5
 51
307.5
  0
ARC
  5
344
330
25
100
AcDbEntity
  8
2
100
AcDbCircle
 10
-298.104334
 20
300.774304
 30
0.0
 40
0.5
100
AcDbArc
 50
352.5
 51
63.197166
  0
ARC
  5
345
330
25
100
AcDbEntity
  8
2
100
AcDbCircle
 10
-291.149124
 20
296.758712
 30
0.0
 40
0.5
100
AcDbArc
 50
56.802834
 51
127.5
  0
LINE
  5
346
330
25
100
AcDbEntity
  8
2
100
AcDbLine
 10
-297.863034
 20
292.237184
 30
0.0
 11
-291.453505
 21
297.155388
 31
0.0
  0
ARC
  5
347
330
25
100
AcDbEntity
  8
2
100
AcDbCircle
 10
-270.321715
 20
275.931302
 30
0.0
 40
0.5
100
AcDbArc
 50
322.5
 51
33.197166
  0
ARC
  5
348
330
25
100
AcDbEntity
  8
2
100
AcDbCircle
 10
-270.321715
 20
275.931302
 30
0.0
 40
0.5
100
AcDbArc
 50
322.5
 51
33.197166
  0
ARC
  5
349
330
25
100
AcDbEntity
  8
2
100
AcDbCircle
 10
-330.570696
 20
236.509731
 30
0.0
 40
72.5
100
AcDbArc
 50
53.197091
 51
56.80292099999999
  0
ARC
  5
34A
330
25
100
AcDbEntity
  8
2
100
AcDbCircle
 10
-330.570696
 20
236.509731
 30
0.0
 40
72.5
100
AcDbArc
 50
43.19710399999999
 51
46.802926
  0
ARC
  5
34B
330
25
100
AcDbEntity
  8
2
100
AcDbCircle
 10
-330.570696
 20
236.509731
 30
0.0
 40
72.5
100
AcDbArc
 50
33.197067
 51
36.802896
  0
ARC
  5
34C
330
25
100
AcDbEntity
  8
2
100
AcDbCircle
 10
-265.4381390000001
 20
194.509731
 30
0.0
 40
15.0
100
AcDbArc
 50
90.0
 51
147.184507
  0
LINE
  5
34D
330
25
100
AcDbEntity
  8
2
100
AcDbLine
 10
-269.694256
 20
258.175357
 30
0.0
 11
-261.622912
 21
257.822954
 31
0.0
  0
POINT
  5
34E
330
25
100
AcDbEntity
  8
2
100
AcDbPoint
 10
-330.570696
 20
216.509731
 30
0.0
  0
LINE
  5
34F
330
25
100
AcDbEntity
  8
2
  6
CENTER
 62
     2
100
AcDbLine
 10
-330.570696
 20
226.509731
 30
0.0
 11
-330.570696
 21
200.009731
 31
0.0
  0
LINE
  5
350
330
25
100
AcDbEntity
  8
2
100
AcDbLine
 10
-330.570696
 20
216.509731
 30
0.0
 11
-323.070696
 21
216.509731
 31
0.0
  0
LINE
  5
351
330
25
100
AcDbEntity
  8
2
100
AcDbLine
 10
-323.070696
 20
216.509731
 30
0.0
 11
-323.070696
 21
210.731419
 31
0.0
  0
LINE
  5
352
330
25
100
AcDbEntity
  8
2
100
AcDbLine
 10
-323.070696
 20
210.731419
 30
0.0
 11
-324.320696
 21
210.009731
 31
0.0
  0
LINE
  5
353
330
25
100
AcDbEntity
  8
2
100
AcDbLine
 10
-324.320696
 20
210.009731
 30
0.0
 11
-330.570696
 21
210.009731
 31
0.0
  0
LINE
  5
354
330
25
100
AcDbEntity
  8
2
100
AcDbLine
 10
-326.820696
 20
216.509731
 30
0.0
 11
-326.820696
 21
210.731419
 31
0.0
  0
ARC
  5
355
330
25
100
AcDbEntity
  8
2
100
AcDbCircle
 10
-324.945696
 20
213.141795
 30
0.0
 40
3.053774
100
AcDbArc
 50
232.121121
 51
307.878879
  0
ARC
  5
356
330
25
100
AcDbEntity
  8
2
100
AcDbCircle
 10
-330.570696
 20
221.33802
 30
0.0
 40
11.25
100
AcDbArc
 50
270.0
 51
289.471221
  0
LINE
  5
357
330
25
100
AcDbEntity
  8
2
100
AcDbLine
 10
-330.570696
 20
216.509731
 30
0.0
 11
-338.070696
 21
216.509731
 31
0.0
  0
LINE
  5
358
330
25
100
AcDbEntity
  8
2
100
AcDbLine
 10
-338.070696
 20
216.509731
 30
0.0
 11
-338.070696
 21
210.731419
 31
0.0
  0
LINE
  5
359
330
25
100
AcDbEntity
  8
2
100
AcDbLine
 10
-338.070696
 20
210.731419
 30
0.0
 11
-336.820696
 21
210.009731
 31
0.0
  0
LINE
  5
35A
330
25
100
AcDbEntity
  8
2
100
AcDbLine
 10
-336.820696
 20
210.009731
 30
0.0
 11
-330.570696
 21
210.009731
 31
0.0
  0
LINE
  5
35B
330
25
100
AcDbEntity
  8
2
100
AcDbLine
 10
-334.320696
 20
216.509731
 30
0.0
 11
-334.320696
 21
210.731419
 31
0.0
  0
ARC
  5
35C
330
25
100
AcDbEntity
  8
2
100
AcDbCircle
 10
-336.195696
 20
213.141795
 30
0.0
 40
3.053774
100
AcDbArc
 50
232.121121
 51
307.878879
  0
ARC
  5
35D
330
25
100
AcDbEntity
  8
2
100
AcDbCircle
 10
-330.570696
 20
221.33802
 30
0.0
 40
11.25
100
AcDbArc
 50
250.528779
 51
270.0
  0
LINE
  5
35E
330
25
100
AcDbEntity
  8
2
100
AcDbLine
 10
-330.570696
 20
204.509731
 30
0.0
 11
-333.894196
 21
204.509731
 31
0.0
  0
LINE
  5
35F
330
25
100
AcDbEntity
  8
2
100
AcDbLine
 10
-333.894196
 20
204.509731
 30
0.0
 11
-334.570696
 21
205.186231
 31
0.0
  0
LINE
  5
360
330
25
100
AcDbEntity
  8
2
100
AcDbLine
 10
-334.570696
 20
205.186231
 30
0.0
 11
-334.570696
 21
210.046446
 31
0.0
  0
LINE
  5
361
330
25
100
AcDbEntity
  8
2
100
AcDbLine
 10
-334.570696
 20
205.186231
 30
0.0
 11
-330.570696
 21
205.186231
 31
0.0
  0
LINE
  5
362
330
25
100
AcDbEntity
  8
2
 62
     2
100
AcDbLine
 10
-333.894196
 20
204.509731
 30
0.0
 11
-333.894196
 21
210.010083
 31
0.0
  0
LINE
  5
363
330
25
100
AcDbEntity
  8
2
100
AcDbLine
 10
-330.570696
 20
204.509731
 30
0.0
 11
-327.247196
 21
204.509731
 31
0.0
  0
LINE
  5
364
330
25
100
AcDbEntity
  8
2
100
AcDbLine
 10
-327.247196
 20
204.509731
 30
0.0
 11
-326.570696
 21
205.186231
 31
0.0
  0
LINE
  5
365
330
25
100
AcDbEntity
  8
2
100
AcDbLine
 10
-326.570696
 20
205.186231
 30
0.0
 11
-326.570696
 21
210.046446
 31
0.0
  0
LINE
  5
366
330
25
100
AcDbEntity
  8
2
100
AcDbLine
 10
-326.570696
 20
205.186231
 30
0.0
 11
-330.570696
 21
205.186231
 31
0.0
  0
LINE
  5
367
330
25
100
AcDbEntity
  8
2
 62
     2
100
AcDbLine
 10
-327.247196
 20
204.509731
 30
0.0
 11
-327.247196
 21
210.010083
 31
0.0
  0
TEXT
  5
368
330
25
100
AcDbEntity
  8
2
100
AcDbText
 10
-379.1036870000001
 20
249.414424
 30
0.0
 40
10.0
  1
Ｓ
 50
70.11203730315179
 41
1.000000008727068
 72
     5
 11
-376.382231
 21
256.937301
 31
0.0
100
AcDbText
  0
TEXT
  5
369
330
25
100
AcDbEntity
  8
2
100
AcDbText
 10
-308.675434
 20
191.202742
 30
0.0
 40
10.0
  1
Ｏ
 50
199.9277458960193
 41
0.9230769864031554
 72
     5
 11
-316.19642
 21
188.476063
 31
0.0
100
AcDbText
  0
LINE
  5
36A
330
25
100
AcDbEntity
  8
2
  6
CENTER
 62
     2
100
AcDbLine
 10
-320.0488529999999
 20
27.834731
 30
0.0
 11
-341.239552
 21
27.834731
 31
0.0
  0
LINE
  5
36B
330
25
100
AcDbEntity
  8
2
  6
CENTER
 62
     2
100
AcDbLine
 10
-210.570696
 20
61.206091
 30
0.0
 11
-210.570696
 21
32.499479
 31
0.0
  0
LINE
  5
36C
330
25
100
AcDbEntity
  8
2
  6
CENTER
 62
     2
100
AcDbLine
 10
-201.039518
 20
50.83473099999999
 30
0.0
 11
-219.893554
 21
50.83473099999999
 31
0.0
  0
ARC
  5
36D
330
25
100
AcDbEntity
  8
2
  6
CENTER
 62
     2
100
AcDbCircle
 10
-210.570696
 20
50.83473099999999
 30
0.0
 40
92.276149
100
AcDbArc
 50
347.219321
 51
15.742888
  0
LINE
  5
36E
330
25
100
AcDbEntity
  8
2
100
AcDbLine
 10
-347.070696
 20
46.83473099999999
 30
0.0
 11
-314.070696
 21
46.83473099999999
 31
0.0
  0
LINE
  5
36F
330
25
100
AcDbEntity
  8
2
100
AcDbLine
 10
-338.570696
 20
20.834731
 30
0.0
 11
-338.570696
 21
46.834402
 31
0.0
  0
ARC
  5
370
330
25
100
AcDbEntity
  8
2
100
AcDbCircle
 10
-367.04441
 20
81.128095
 30
0.0
 40
50.564281
100
AcDbArc
 50
285.102514
 51
302.946073
  0
LINE
  5
371
330
25
100
AcDbEntity
  8
2
100
AcDbLine
 10
-352.018575
 20
35.590823
 30
0.0
 11
-379.596756
 21
25.553186
 31
0.0
  0
LINE
  5
372
330
25
100
AcDbEntity
  8
2
100
AcDbLine
 10
-316.570696
 20
19.834731
 30
0.0
 11
-345.570696
 21
19.834731
 31
0.0
  0
LINE
  5
373
330
25
100
AcDbEntity
  8
2
100
AcDbLine
 10
-347.070696
 20
46.83473099999999
 30
0.0
 11
-348.070696
 21
45.83473099999999
 31
0.0
  0
LINE
  5
374
330
25
100
AcDbEntity
  8
2
100
AcDbLine
 10
-348.070696
 20
41.22897899999999
 30
0.0
 11
-348.070696
 21
45.83473099999999
 31
0.0
  0
LINE
  5
375
330
25
100
AcDbEntity
  8
2
100
AcDbLine
 10
-316.570696
 20
20.834731
 30
0.0
 11
-381.570696
 21
20.834731
 31
0.0
  0
LINE
  5
376
330
25
100
AcDbEntity
  8
2
100
AcDbLine
 10
-381.570696
 20
20.834731
 30
0.0
 11
-381.570696
 21
22.734108
 31
0.0
  0
LINE
  5
377
330
25
100
AcDbEntity
  8
2
100
AcDbLine
 10
-345.570696
 20
20.834731
 30
0.0
 11
-345.570696
 21
19.834731
 31
0.0
  0
ARC
  5
378
330
25
100
AcDbEntity
  8
2
100
AcDbCircle
 10
-354.070696
 20
41.22897899999999
 30
0.0
 40
6.0
100
AcDbArc
 50
290.0
 51
360.0
  0
ARC
  5
379
330
25
100
AcDbEntity
  8
2
100
AcDbCircle
 10
-378.570696
 20
22.734108
 30
0.0
 40
3.0
100
AcDbArc
 50
110.0
 51
180.0
  0
ARC
  5
37A
330
25
100
AcDbEntity
  8
2
100
AcDbCircle
 10
-311.070696
 20
45.024265
 30
0.0
 40
2.0
100
AcDbArc
 50
180.0
 51
282.0
  0
LINE
  5
37B
330
25
100
AcDbEntity
  8
2
100
AcDbLine
 10
-316.570696
 20
19.834731
 30
0.0
 11
-316.570696
 21
20.834731
 31
0.0
  0
LINE
  5
37C
330
25
100
AcDbEntity
  8
2
100
AcDbLine
 10
-316.570696
 20
20.834731
 30
0.0
 11
-247.234934
 21
35.572502
 31
0.0
  0
LINE
  5
37D
330
25
100
AcDbEntity
  8
2
100
AcDbLine
 10
-314.635896
 20
42.221777
 30
0.0
 11
-37.404548
 21
101.149119
 31
0.0
  0
CIRCLE
  5
37E
330
25
100
AcDbEntity
  8
2
100
AcDbCircle
 10
-330.570696
 20
27.834731
 30
0.0
 40
4.0
  0
LINE
  5
37F
330
25
100
AcDbEntity
  8
2
100
AcDbLine
 10
-322.570696
 20
20.834731
 30
0.0
 11
-322.570696
 21
46.834402
 31
0.0
  0
LINE
  5
380
330
25
100
AcDbEntity
  8
2
100
AcDbLine
 10
-313.070696
 20
45.024265
 30
0.0
 11
-313.070696
 21
45.83473099999999
 31
0.0
  0
LINE
  5
381
330
25
100
AcDbEntity
  8
2
100
AcDbLine
 10
-314.070696
 20
46.83473099999999
 30
0.0
 11
-313.070696
 21
45.83473099999999
 31
0.0
  0
ARC
  5
382
330
25
100
AcDbEntity
  8
2
100
AcDbCircle
 10
-201.541258
 20
47.834731
 30
0.0
 40
12.0
100
AcDbArc
 50
270.0
 51
315.0
  0
LINE
  5
383
330
25
100
AcDbEntity
  8
2
100
AcDbLine
 10
-244.739993
 20
35.834731
 30
0.0
 11
-201.541258
 21
35.834731
 31
0.0
  0
ARC
  5
384
330
25
100
AcDbEntity
  8
2
100
AcDbCircle
 10
-204.570696
 20
36.834731
 30
0.0
 40
1.0
100
AcDbArc
 50
270.0
 51
360.0
  0
ARC
  5
385
330
25
100
AcDbEntity
  8
2
100
AcDbCircle
 10
-216.570696
 20
36.834731
 30
0.0
 40
1.0
100
AcDbArc
 50
180.0
 51
270.0
  0
LINE
  5
386
330
25
100
AcDbEntity
  8
2
100
AcDbLine
 10
-190.314905
 20
42.090522
 30
0.0
 11
-193.055977
 21
39.349449
 31
0.0
  0
LINE
  5
387
330
25
100
AcDbEntity
  8
2
100
AcDbLine
 10
-203.570696
 20
50.83473099999999
 30
0.0
 11
-203.570696
 21
36.834731
 31
0.0
  0
LINE
  5
388
330
25
100
AcDbEntity
  8
2
100
AcDbLine
 10
-217.570696
 20
50.83473099999999
 30
0.0
 11
-217.570696
 21
36.834731
 31
0.0
  0
ARC
  5
389
330
25
100
AcDbEntity
  8
2
100
AcDbCircle
 10
-210.570696
 20
50.83473099999999
 30
0.0
 40
7.0
100
AcDbArc
 50
0.0
 51
180.0
  0
CIRCLE
  5
38A
330
25
100
AcDbEntity
  8
2
100
AcDbCircle
 10
-210.570696
 20
50.83473099999999
 30
0.0
 40
2.5
  0
ARC
  5
38B
330
25
100
AcDbEntity
  8
2
100
AcDbCircle
 10
-158.4951
 20
10.270716
 30
0.0
 40
45.0
100
AcDbArc
 50
104.5
 51
135.0
  0
LINE
  5
38C
330
25
100
AcDbEntity
  8
2
100
AcDbLine
 10
-169.7622
 20
53.83735999999999
 30
0.0
 11
-31.497495
 21
89.595044
 31
0.0
  0
ARC
  5
38D
330
25
100
AcDbEntity
  8
2
100
AcDbCircle
 10
-31.747875
 20
90.563192
 30
0.0
 40
1.0
100
AcDbArc
 50
284.5
 51
12.0
  0
LINE
  5
38E
330
25
100
AcDbEntity
  8
2
100
AcDbLine
 10
-30.769728
 20
90.77110299999999
 30
0.0
 11
-32.127534
 21
97.15908
 31
0.0
  0
ARC
  5
38F
330
25
100
AcDbEntity
  8
2
100
AcDbCircle
 10
-37.018272
 20
96.11952200000001
 30
0.0
 40
5.0
100
AcDbArc
 50
12.0
 51
102.0
  0
ARC
  5
390
330
25
100
AcDbEntity
  8
2
100
AcDbCircle
 10
-244.739993
 20
23.834731
 30
0.0
 40
12.0
100
AcDbArc
 50
90.0
 51
102.0
  0
LINE
  5
391
330
25
100
AcDbEntity
  8
2
100
AcDbLine
 10
-186.570696
 20
45.438328
 30
0.0
 11
-186.570696
 21
33.442486
 31
0.0
  0
LINE
  5
392
330
25
100
AcDbEntity
  8
2
100
AcDbLine
 10
-179.126813
 20
50.262371
 30
0.0
 11
-132.604895
 21
40.37383199999999
 31
0.0
  0
LINE
  5
393
330
25
100
AcDbEntity
  8
2
100
AcDbLine
 10
-263.551551
 20
17.127624
 30
0.0
 11
-244.844902
 21
35.834272
 31
0.0
  0
LINE
  5
394
330
25
100
AcDbEntity
  8
2
100
AcDbLine
 10
-240.570696
 20
35.834731
 30
0.0
 11
-240.570696
 21
12.108479
 31
0.0
  0
LINE
  5
395
330
25
100
AcDbEntity
  8
2
100
AcDbLine
 10
-104.639821
 20
39.320256
 30
0.0
 11
-40.225241
 21
37.07085
 31
0.0
  0
ARC
  5
396
330
25
100
AcDbEntity
  8
2
100
AcDbCircle
 10
-115.336154
 20
31.688904
 30
0.0
 40
10.0
100
AcDbArc
 50
268.0
 51
299.788331
  0
ARC
  5
397
330
25
100
AcDbEntity
  8
2
100
AcDbCircle
 10
-105.400209
 20
14.331571
 30
0.0
 40
10.0
100
AcDbArc
 50
56.21166899999999
 51
119.788331
  0
ARC
  5
398
330
25
100
AcDbEntity
  8
2
100
AcDbCircle
 10
-94.277682
 20
30.953526
 30
0.0
 40
10.0
100
AcDbArc
 50
236.211669
 51
299.788331
  0
ARC
  5
399
330
25
100
AcDbEntity
  8
2
100
AcDbCircle
 10
-84.34173800000001
 20
13.596193
 30
0.0
 40
10.0
100
AcDbArc
 50
56.21166899999999
 51
119.788331
  0
ARC
  5
39A
330
25
100
AcDbEntity
  8
2
100
AcDbCircle
 10
-73.219211
 20
30.218148
 30
0.0
 40
10.0
100
AcDbArc
 50
236.211669
 51
299.788331
  0
ARC
  5
39B
330
25
100
AcDbEntity
  8
2
100
AcDbCircle
 10
-63.283266
 20
12.860815
 30
0.0
 40
10.0
100
AcDbArc
 50
56.21166899999999
 51
119.788331
  0
ARC
  5
39C
330
25
100
AcDbEntity
  8
2
100
AcDbCircle
 10
-52.160739
 20
29.48277
 30
0.0
 40
10.0
100
AcDbArc
 50
236.211669
 51
299.788331
  0
ARC
  5
39D
330
25
100
AcDbEntity
  8
2
100
AcDbCircle
 10
-42.224795
 20
12.125437
 30
0.0
 40
10.0
100
AcDbArc
 50
48.284863
 51
119.788331
  0
LINE
  5
39E
330
25
100
AcDbEntity
  8
2
100
AcDbLine
 10
-105.674111
 20
38.35576500000001
 30
0.0
 11
-104.639821
 21
39.320256
 31
0.0
  0
ARC
  5
39F
330
25
100
AcDbEntity
  8
2
100
AcDbCircle
 10
-124.586586
 20
102.054605
 30
0.0
 40
80.0
100
AcDbArc
 50
258.0
 51
268.0
  0
LINE
  5
3A0
330
25
100
AcDbEntity
  8
2
100
AcDbLine
 10
-132.604895
 20
40.37383199999999
 30
0.0
 11
-131.661647
 21
39.166529
 31
0.0
  0
ARC
  5
3A1
330
25
100
AcDbEntity
  8
2
100
AcDbCircle
 10
-203.81509
 20
6.437678
 30
0.0
 40
30.0
100
AcDbArc
 50
78.0
 51
81.068297
  0
LINE
  5
3A2
330
25
100
AcDbEntity
  8
2
100
AcDbLine
 10
-127.378546
 20
22.103338
 30
0.0
 11
-115.685149
 21
21.694996
 31
0.0
  0
ARC
  5
3A3
330
25
100
AcDbEntity
  8
2
100
AcDbCircle
 10
-33.574236
 20
21.829448
 30
0.0
 40
3.0
100
AcDbArc
 50
228.284863
 51
360.0
  0
LINE
  5
3A4
330
25
100
AcDbEntity
  8
2
100
AcDbLine
 10
-30.574236
 20
21.829448
 30
0.0
 11
-30.574236
 21
27.076941
 31
0.0
  0
ARC
  5
3A5
330
25
100
AcDbEntity
  8
2
100
AcDbCircle
 10
-40.57423599999999
 20
27.076941
 30
0.0
 40
10.0
100
AcDbArc
 50
0.0
 51
88.0
  0
LINE
  5
3A6
330
25
100
AcDbEntity
  8
2
100
AcDbLine
 10
-197.57774
 20
35.782106
 30
0.0
 11
-141.219521
 21
23.802796
 31
0.0
  0
LINE
  5
3A7
330
25
100
AcDbEntity
  8
2
100
AcDbLine
 10
-124.847364
 20
48.05296699999999
 30
0.0
 11
-121.067887
 21
47.92098499999999
 31
0.0
  0
LINE
  5
3A8
330
25
100
AcDbEntity
  8
2
100
AcDbLine
 10
-112.819774
 20
48.633564
 30
0.0
 11
-111.855283
 21
47.599273
 31
0.0
  0
LINE
  5
3A9
330
25
100
AcDbEntity
  8
2
100
AcDbLine
 10
-123.813073
 20
49.017458
 30
0.0
 11
-118.279828
 21
48.824233
 31
0.0
  0
LINE
  5
3AA
330
25
100
AcDbEntity
  8
2
100
AcDbLine
 10
-123.813073
 20
49.017458
 30
0.0
 11
-124.847364
 21
48.05296699999999
 31
0.0
  0
LINE
  5
3AB
330
25
100
AcDbEntity
  8
2
100
AcDbLine
 10
-125.164189
 20
38.980286
 30
0.0
 11
-125.111933
 21
40.476703
 31
0.0
  0
LINE
  5
3AC
330
25
100
AcDbEntity
  8
2
100
AcDbLine
 10
-131.692399
 20
38.285905
 30
0.0
 11
-131.661647
 21
39.166529
 31
0.0
  0
ARC
  5
3AD
330
25
100
AcDbEntity
  8
2
100
AcDbCircle
 10
-130.693008
 20
38.251006
 30
0.0
 40
1.0
100
AcDbArc
 50
178.0
 51
268.0
  0
ARC
  5
3AE
330
25
100
AcDbEntity
  8
2
100
AcDbCircle
 10
-126.19575
 20
38.093958
 30
0.0
 40
1.0
100
AcDbArc
 50
268.0
 51
298.333059
  0
LINE
  5
3AF
330
25
100
AcDbEntity
  8
2
100
AcDbLine
 10
-112.204278
 20
37.605365
 30
0.0
 11
-112.110376
 21
40.294359
 31
0.0
  0
LINE
  5
3B0
330
25
100
AcDbEntity
  8
2
100
AcDbLine
 10
-105.708238
 20
37.378518
 30
0.0
 11
-105.674111
 21
38.35576500000001
 31
0.0
  0
ARC
  5
3B1
330
25
100
AcDbEntity
  8
2
100
AcDbCircle
 10
-106.707628
 20
37.413418
 30
0.0
 40
1.0
100
AcDbArc
 50
268.0
 51
358.0
  0
ARC
  5
3B2
330
25
100
AcDbEntity
  8
2
100
AcDbCircle
 10
-111.204887
 20
37.570466
 30
0.0
 40
1.0
100
AcDbArc
 50
178.0
 51
268.0
  0
LINE
  5
3B3
330
25
100
AcDbEntity
  8
2
100
AcDbLine
 10
-130.727908
 20
37.251615
 30
0.0
 11
-106.742528
 21
36.414027
 31
0.0
  0
LINE
  5
3B4
330
25
100
AcDbEntity
  8
2
100
AcDbLine
 10
-252.544444
 20
26.720517
 30
0.0
 11
-252.928667
 21
27.750508
 31
0.0
  0
ARC
  5
3B5
330
25
100
AcDbEntity
  8
2
100
AcDbCircle
 10
-250.915512
 20
8.834730999999999
 30
0.0
 40
5.0
100
AcDbArc
 50
270.0
 51
315.0
  0
ARC
  5
3B6
330
25
100
AcDbEntity
  8
2
100
AcDbCircle
 10
-262.844444
 20
4.834730999999999
 30
0.0
 40
1.0
100
AcDbArc
 50
180.0
 51
270.0
  0
ARC
  5
3B7
330
25
100
AcDbEntity
  8
2
100
AcDbCircle
 10
-262.844444
 20
16.420517
 30
0.0
 40
1.0
100
AcDbArc
 50
135.0
 51
180.0
  0
LINE
  5
3B8
330
25
100
AcDbEntity
  8
2
100
AcDbLine
 10
-247.379978
 20
5.299197
 30
0.0
 11
-243.844444
 21
8.834730999999999
 31
0.0
  0
LINE
  5
3B9
330
25
100
AcDbEntity
  8
2
100
AcDbLine
 10
-252.544444
 20
26.720517
 30
0.0
 11
-252.544444
 21
10.834731
 31
0.0
  0
LINE
  5
3BA
330
25
100
AcDbEntity
  8
2
100
AcDbLine
 10
-262.844444
 20
3.834730999999999
 30
0.0
 11
-250.915512
 21
3.834730999999999
 31
0.0
  0
LINE
  5
3BB
330
25
100
AcDbEntity
  8
2
100
AcDbLine
 10
-263.844444
 20
16.420517
 30
0.0
 11
-263.844444
 21
10.834731
 31
0.0
  0
ARC
  5
3BC
330
25
100
AcDbEntity
  8
2
100
AcDbCircle
 10
-203.81509
 20
6.437678
 30
0.0
 40
30.0
100
AcDbArc
 50
101.506587
 51
135.0
  0
LINE
  5
3BD
330
25
100
AcDbEntity
  8
2
100
AcDbLine
 10
-263.844444
 20
8.834730999999999
 30
0.0
 11
-263.844444
 21
4.834730999999999
 31
0.0
  0
LINE
  5
3BE
330
25
100
AcDbEntity
  8
2
100
AcDbLine
 10
-252.544444
 20
8.834730999999999
 30
0.0
 11
-252.544444
 21
3.834730999999999
 31
0.0
  0
LINE
  5
3BF
330
25
100
AcDbEntity
  8
2
100
AcDbLine
 10
-243.070696
 20
9.608478999999999
 30
0.0
 11
-225.028294
 21
27.650881
 31
0.0
  0
LINE
  5
3C0
330
25
100
AcDbEntity
  8
2
100
AcDbLine
 10
-112.052633
 20
41.94789899999999
 30
0.0
 11
-111.957289
 21
44.67820099999999
 31
0.0
  0
LINE
  5
3C1
330
25
100
AcDbEntity
  8
2
100
AcDbLine
 10
-111.897974
 20
46.376774
 30
0.0
 11
-111.855283
 21
47.599273
 31
0.0
  0
LINE
  5
3C2
330
25
100
AcDbEntity
  8
2
100
AcDbLine
 10
-124.895273
 20
46.68102499999999
 30
0.0
 11
-124.847364
 21
48.05296699999999
 31
0.0
  0
LINE
  5
3C3
330
25
100
AcDbEntity
  8
2
100
AcDbLine
 10
-125.052617
 20
42.175276
 30
0.0
 11
-124.954677
 21
44.979909
 31
0.0
  0
LINE
  5
3C4
330
25
100
AcDbEntity
  8
2
100
AcDbLine
 10
-116.381588
 20
47.757335
 30
0.0
 11
-111.855283
 21
47.599273
 31
0.0
  0
LINE
  5
3C5
330
25
100
AcDbEntity
  8
2
100
AcDbLine
 10
-113.593528
 20
48.660584
 30
0.0
 11
-112.819774
 21
48.633564
 31
0.0
  0
LINE
  5
3C6
330
25
100
AcDbEntity
  8
2
100
AcDbLine
 10
-321.704247
 20
10.834731
 30
0.0
 11
-321.704247
 21
19.834731
 31
0.0
  0
LINE
  5
3C7
330
25
100
AcDbEntity
  8
2
100
AcDbLine
 10
-339.704247
 20
10.834731
 30
0.0
 11
-339.704247
 21
19.834731
 31
0.0
  0
LINE
  5
3C8
330
25
100
AcDbEntity
  8
2
100
AcDbLine
 10
-334.323472
 20
34.334731
 30
0.0
 11
-338.076249
 21
27.834731
 31
0.0
  0
LINE
  5
3C9
330
25
100
AcDbEntity
  8
2
100
AcDbLine
 10
-326.817919
 20
34.334731
 30
0.0
 11
-334.323472
 21
34.334731
 31
0.0
  0
LINE
  5
3CA
330
25
100
AcDbEntity
  8
2
100
AcDbLine
 10
-323.065142
 20
27.834731
 30
0.0
 11
-326.817919
 21
34.334731
 31
0.0
  0
LINE
  5
3CB
330
25
100
AcDbEntity
  8
2
100
AcDbLine
 10
-326.817919
 20
21.334731
 30
0.0
 11
-323.065142
 21
27.834731
 31
0.0
  0
LINE
  5
3CC
330
25
100
AcDbEntity
  8
2
100
AcDbLine
 10
-334.323472
 20
21.334731
 30
0.0
 11
-326.817919
 21
21.334731
 31
0.0
  0
LINE
  5
3CD
330
25
100
AcDbEntity
  8
2
100
AcDbLine
 10
-338.076249
 20
27.834731
 30
0.0
 11
-334.323472
 21
21.334731
 31
0.0
  0
CIRCLE
  5
3CE
330
25
100
AcDbEntity
  8
2
100
AcDbCircle
 10
-330.570696
 20
27.834731
 30
0.0
 40
3.375
  0
CIRCLE
  5
3CF
330
25
100
AcDbEntity
  8
2
100
AcDbCircle
 10
-330.570696
 20
27.834731
 30
0.0
 40
4.0
  0
CIRCLE
  5
3D0
330
25
100
AcDbEntity
  8
2
100
AcDbCircle
 10
-330.570696
 20
27.834731
 30
0.0
 40
6.5
  0
CIRCLE
  5
3D1
330
25
100
AcDbEntity
  8
2
100
AcDbCircle
 10
-110.946973
 20
37.362658
 30
0.0
 40
0.8
  0
ARC
  5
3D2
330
25
100
AcDbEntity
  8
2
100
AcDbCircle
 10
-126.304817
 20
37.901886
 30
0.0
 40
0.8
100
AcDbArc
 50
102.753204
 51
282.753204
  0
ARC
  5
3D3
330
25
100
AcDbEntity
  8
2
100
AcDbCircle
 10
-110.767681
 20
41.418494
 30
0.0
 40
0.8
100
AcDbArc
 50
282.753204
 51
102.753204
  0
ARC
  5
3D4
330
25
100
AcDbEntity
  8
2
100
AcDbCircle
 10
-110.697534
 20
45.920371
 30
0.0
 40
0.8
100
AcDbArc
 50
287.713107
 51
107.713107
  0
ARC
  5
3D5
330
25
100
AcDbEntity
  8
2
100
AcDbCircle
 10
-110.762686
 20
50.418628
 30
0.0
 40
0.8
100
AcDbArc
 50
287.950783
 51
107.950783
  0
ARC
  5
3D6
330
25
100
AcDbEntity
  8
2
100
AcDbCircle
 10
-110.979551
 20
55.186824
 30
0.0
 40
0.8
100
AcDbArc
 50
289.113908
 51
109.113908
  0
ARC
  5
3D7
330
25
100
AcDbEntity
  8
2
100
AcDbCircle
 10
-111.401466
 20
60.502704
 30
0.0
 40
0.8
100
AcDbArc
 50
292.202303
 51
112.202303
  0
ARC
  5
3D8
330
25
100
AcDbEntity
  8
2
100
AcDbCircle
 10
-111.96277
 20
65.42432999999999
 30
0.0
 40
0.8
100
AcDbArc
 50
292.351981
 51
112.351981
  0
ARC
  5
3D9
330
25
100
AcDbEntity
  8
2
100
AcDbCircle
 10
-127.040739
 20
63.93619799999999
 30
0.0
 40
0.8
100
AcDbArc
 50
95.63659799999999
 51
293.997777
  0
ARC
  5
3DA
330
25
100
AcDbEntity
  8
2
100
AcDbCircle
 10
-126.489841
 20
59.450942
 30
0.0
 40
0.8
100
AcDbArc
 50
93.98745299999999
 51
292.351981
  0
ARC
  5
3DB
330
25
100
AcDbEntity
  8
2
100
AcDbCircle
 10
-126.088209
 20
54.508467
 30
0.0
 40
0.8
100
AcDbArc
 50
92.570774
 51
292.202303
  0
ARC
  5
3DC
330
25
100
AcDbEntity
  8
2
100
AcDbCircle
 10
-125.908116
 20
50.013286
 30
0.0
 40
0.8
100
AcDbArc
 50
109.113908
 51
289.113908
  0
ARC
  5
3DD
330
25
100
AcDbEntity
  8
2
100
AcDbCircle
 10
-125.903649
 20
45.51340599999999
 30
0.0
 40
0.8
100
AcDbArc
 50
91.533057
 51
287.950783
  0
ARC
  5
3DE
330
25
100
AcDbEntity
  8
2
100
AcDbCircle
 10
-126.075341
 20
41.008811
 30
0.0
 40
0.8
100
AcDbArc
 50
107.713107
 51
287.713107
  0
LINE
  5
3DF
330
25
100
AcDbEntity
  8
2
100
AcDbLine
 10
-126.481419
 20
38.68215
 30
0.0
 11
-110.944282
 21
42.198758
 31
0.0
  0
LINE
  5
3E0
330
25
100
AcDbEntity
  8
2
100
AcDbLine
 10
-110.591079
 20
40.63823
 30
0.0
 11
-126.128215
 21
37.121622
 31
0.0
  0
LINE
  5
3E1
330
25
100
AcDbEntity
  8
2
100
AcDbLine
 10
-110.789084
 20
42.218208
 30
0.0
 11
-112.044367
 21
42.184612
 31
0.0
  0
LINE
  5
3E2
330
25
100
AcDbEntity
  8
2
100
AcDbLine
 10
-126.318742
 20
41.770884
 30
0.0
 11
-110.940935
 21
46.682445
 31
0.0
  0
LINE
  5
3E3
330
25
100
AcDbEntity
  8
2
100
AcDbLine
 10
-110.454134
 20
45.15829799999999
 30
0.0
 11
-125.83194
 21
40.246737
 31
0.0
  0
LINE
  5
3E4
330
25
100
AcDbEntity
  8
2
100
AcDbLine
 10
-126.150209
 20
46.27446299999999
 30
0.0
 11
-111.009246
 21
51.17968499999999
 31
0.0
  0
LINE
  5
3E5
330
25
100
AcDbEntity
  8
2
100
AcDbLine
 10
-110.516126
 20
49.65757100000001
 30
0.0
 11
-125.657089
 21
44.752349
 31
0.0
  0
LINE
  5
3E6
330
25
100
AcDbEntity
  8
2
100
AcDbLine
 10
-126.170073
 20
50.769182
 30
0.0
 11
-111.241509
 21
55.94272
 31
0.0
  0
LINE
  5
3E7
330
25
100
AcDbEntity
  8
2
100
AcDbLine
 10
-110.717593
 20
54.430928
 30
0.0
 11
-125.646158
 21
49.257391
 31
0.0
  0
LINE
  5
3E8
330
25
100
AcDbEntity
  8
2
100
AcDbLine
 10
-126.390511
 20
55.249151
 30
0.0
 11
-111.703768
 21
61.243388
 31
0.0
  0
LINE
  5
3E9
330
25
100
AcDbEntity
  8
2
100
AcDbLine
 10
-111.099163
 20
59.76201999999999
 30
0.0
 11
-125.785906
 21
53.767782
 31
0.0
  0
LINE
  5
3EA
330
25
100
AcDbEntity
  8
2
100
AcDbLine
 10
-126.794078
 20
60.19083399999999
 30
0.0
 11
-112.267007
 21
66.16422199999999
 31
0.0
  0
LINE
  5
3EB
330
25
100
AcDbEntity
  8
2
100
AcDbLine
 10
-126.185605
 20
58.71105
 30
0.0
 11
-111.658534
 21
64.684438
 31
0.0
  0
LINE
  5
3EC
330
25
100
AcDbEntity
  8
2
100
AcDbLine
 10
-127.3661
 20
64.667047
 30
0.0
 11
-126.644153
 21
64.988445
 31
0.0
  0
LINE
  5
3ED
330
25
100
AcDbEntity
  8
2
100
AcDbLine
 10
-126.715378
 20
63.205349
 30
0.0
 11
-117.256586
 21
67.416235
 31
0.0
  0
LINE
  5
3EE
330
25
100
AcDbEntity
  8
2
100
AcDbLine
 10
-110.718937
 20
46.72008499999999
 30
0.0
 11
-111.887077
 21
46.68882199999999
 31
0.0
  0
LINE
  5
3EF
330
25
100
AcDbEntity
  8
2
100
AcDbLine
 10
-124.963115
 20
44.73829099999999
 30
0.0
 11
-125.882246
 21
44.713692
 31
0.0
  0
LINE
  5
3F0
330
25
100
AcDbEntity
  8
2
100
AcDbLine
 10
-116.284837
 20
49.47055
 30
0.0
 11
-125.886713
 21
49.213573
 31
0.0
  0
LINE
  5
3F1
330
25
100
AcDbEntity
  8
2
100
AcDbLine
 10
-120.757967
 20
50.951408
 30
0.0
 11
-110.784089
 21
51.218341
 31
0.0
  0
LINE
  5
3F2
330
25
100
AcDbEntity
  8
2
100
AcDbLine
 10
-116.441047
 20
54.140805
 30
0.0
 11
-126.052326
 21
53.709272
 31
0.0
  0
LINE
  5
3F3
330
25
100
AcDbEntity
  8
2
100
AcDbLine
 10
-121.504825
 20
55.51505999999999
 30
0.0
 11
-111.015434
 21
55.98601899999999
 31
0.0
  0
LINE
  5
3F4
330
25
100
AcDbEntity
  8
2
100
AcDbLine
 10
-116.32418
 20
59.357616
 30
0.0
 11
-126.434211
 21
58.65287900000001
 31
0.0
  0
LINE
  5
3F5
330
25
100
AcDbEntity
  8
2
100
AcDbLine
 10
-121.608396
 20
60.593153
 30
0.0
 11
-111.457096
 21
61.300767
 31
0.0
  0
LINE
  5
3F6
330
25
100
AcDbEntity
  8
2
100
AcDbLine
 10
-117.303277
 20
64.093358
 30
0.0
 11
-126.962164
 21
63.140067
 31
0.0
  0
LINE
  5
3F7
330
25
100
AcDbEntity
  8
2
100
AcDbLine
 10
-122.193274
 20
65.21850999999999
 30
0.0
 11
-112.041345
 21
66.22046199999999
 31
0.0
  0
LINE
  5
3F8
330
25
100
AcDbEntity
  8
2
100
AcDbLine
 10
-112.183284
 20
38.20655900000001
 30
0.0
 11
-110.918902
 21
38.162165
 31
0.0
  0
LINE
  5
3F9
330
25
100
AcDbEntity
  8
2
100
AcDbLine
 10
-125.120405
 20
40.234082
 30
0.0
 11
-126.053938
 21
40.20909699999999
 31
0.0
  0
LINE
  5
3FA
330
25
100
AcDbEntity
  8
2
100
AcDbLine
 10
-353.870045
 20
32.310243
 30
0.0
 11
-374.996775
 21
26.60882
 31
0.0
  0
LINE
  5
3FB
330
25
100
AcDbEntity
  8
2
100
AcDbLine
 10
-318.596337
 20
20.834731
 30
0.0
 11
-318.596337
 21
37.331038
 31
0.0
  0
ARC
  5
3FC
330
25
100
AcDbEntity
  8
2
100
AcDbCircle
 10
-313.596337
 20
37.331038
 30
0.0
 40
5.0
100
AcDbArc
 50
102.0
 51
180.0
  0
LINE
  5
3FD
330
25
100
AcDbEntity
  8
2
100
AcDbLine
 10
-278.04444
 20
10.834731
 30
0.0
 11
-278.04444
 21
8.834730999999999
 31
0.0
  0
LINE
  5
3FE
330
25
100
AcDbEntity
  8
2
100
AcDbLine
 10
-243.070696
 20
8.834730999999999
 30
0.0
 11
-243.070696
 21
10.834731
 31
0.0
  0
LINE
  5
3FF
330
25
100
AcDbEntity
  8
2
100
AcDbLine
 10
-243.070696
 20
8.834730999999999
 30
0.0
 11
-393.204247
 21
8.834730999999999
 31
0.0
  0
LINE
  5
400
330
25
100
AcDbEntity
  8
2
100
AcDbLine
 10
-393.204247
 20
10.834731
 30
0.0
 11
-393.204247
 21
8.834730999999999
 31
0.0
  0
LINE
  5
401
330
25
100
AcDbEntity
  8
2
100
AcDbLine
 10
-393.204247
 20
10.834731
 30
0.0
 11
-243.070696
 21
10.834731
 31
0.0
  0
POINT
  5
402
330
25
100
AcDbEntity
  8
2
100
AcDbPoint
 10
-294.50825
 20
10.834731
 30
0.0
  0
LINE
  5
403
330
25
100
AcDbEntity
  8
2
  6
CENTER
 62
     2
100
AcDbLine
 10
-294.50825
 20
-21.581174
 30
0.0
 11
-294.50825
 21
21.103152
 31
0.0
  0
LINE
  5
404
330
25
100
AcDbEntity
  8
2
100
AcDbLine
 10
-294.50825
 20
10.834731
 30
0.0
 11
-304.30825
 21
10.834731
 31
0.0
  0
LINE
  5
405
330
25
100
AcDbEntity
  8
2
100
AcDbLine
 10
-304.30825
 20
10.834731
 30
0.0
 11
-304.30825
 21
16.939838
 31
0.0
  0
LINE
  5
406
330
25
100
AcDbEntity
  8
2
100
AcDbLine
 10
-304.30825
 20
16.939838
 30
0.0
 11
-302.75825
 21
17.834731
 31
0.0
  0
LINE
  5
407
330
25
100
AcDbEntity
  8
2
100
AcDbLine
 10
-302.75825
 20
17.834731
 30
0.0
 11
-294.50825
 21
17.834731
 31
0.0
  0
LINE
  5
408
330
25
100
AcDbEntity
  8
2
100
AcDbLine
 10
-299.40825
 20
10.834731
 30
0.0
 11
-299.40825
 21
16.939838
 31
0.0
  0
ARC
  5
409
330
25
100
AcDbEntity
  8
2
100
AcDbCircle
 10
-301.85825
 20
13.79028
 30
0.0
 40
3.990264999999999
100
AcDbArc
 50
52.121121
 51
127.878879
  0
ARC
  5
40A
330
25
100
AcDbEntity
  8
2
100
AcDbCircle
 10
-294.50825
 20
3.080544999999999
 30
0.0
 40
14.7
100
AcDbArc
 50
90.0
 51
109.471221
  0
LINE
  5
40B
330
25
100
AcDbEntity
  8
2
100
AcDbLine
 10
-294.50825
 20
-19.165269
 30
0.0
 11
-298.69625
 21
-19.165269
 31
0.0
  0
LINE
  5
40C
330
25
100
AcDbEntity
  8
2
100
AcDbLine
 10
-298.69625
 20
-19.165269
 30
0.0
 11
-299.50825
 21
-18.353269
 31
0.0
  0
LINE
  5
40D
330
25
100
AcDbEntity
  8
2
100
AcDbLine
 10
-299.50825
 20
-18.353269
 30
0.0
 11
-299.50825
 21
-15.665269
 31
0.0
  0
LINE
  5
40E
330
25
100
AcDbEntity
  8
2
100
AcDbLine
 10
-299.50825
 20
-18.353269
 30
0.0
 11
-294.50825
 21
-18.353269
 31
0.0
  0
LINE
  5
40F
330
25
100
AcDbEntity
  8
2
 62
     2
100
AcDbLine
 10
-298.69625
 20
-19.165269
 30
0.0
 11
-298.69625
 21
-15.665269
 31
0.0
  0
LINE
  5
410
330
25
100
AcDbEntity
  8
2
100
AcDbLine
 10
-294.50825
 20
10.834731
 30
0.0
 11
-284.70825
 21
10.834731
 31
0.0
  0
LINE
  5
411
330
25
100
AcDbEntity
  8
2
100
AcDbLine
 10
-284.70825
 20
10.834731
 30
0.0
 11
-284.70825
 21
16.939838
 31
0.0
  0
LINE
  5
412
330
25
100
AcDbEntity
  8
2
100
AcDbLine
 10
-284.70825
 20
16.939838
 30
0.0
 11
-286.25825
 21
17.834731
 31
0.0
  0
LINE
  5
413
330
25
100
AcDbEntity
  8
2
100
AcDbLine
 10
-286.25825
 20
17.834731
 30
0.0
 11
-294.50825
 21
17.834731
 31
0.0
  0
LINE
  5
414
330
25
100
AcDbEntity
  8
2
100
AcDbLine
 10
-289.60825
 20
10.834731
 30
0.0
 11
-289.60825
 21
16.939838
 31
0.0
  0
ARC
  5
415
330
25
100
AcDbEntity
  8
2
100
AcDbCircle
 10
-287.15825
 20
13.79028
 30
0.0
 40
3.990264999999999
100
AcDbArc
 50
52.121121
 51
127.878879
  0
ARC
  5
416
330
25
100
AcDbEntity
  8
2
100
AcDbCircle
 10
-294.50825
 20
3.080544999999999
 30
0.0
 40
14.7
100
AcDbArc
 50
70.528779
 51
90.0
  0
LINE
  5
417
330
25
100
AcDbEntity
  8
2
100
AcDbLine
 10
-294.50825
 20
-19.165269
 30
0.0
 11
-290.32025
 21
-19.165269
 31
0.0
  0
LINE
  5
418
330
25
100
AcDbEntity
  8
2
100
AcDbLine
 10
-290.32025
 20
-19.165269
 30
0.0
 11
-289.50825
 21
-18.353269
 31
0.0
  0
LINE
  5
419
330
25
100
AcDbEntity
  8
2
100
AcDbLine
 10
-289.50825
 20
-18.353269
 30
0.0
 11
-289.50825
 21
-15.665269
 31
0.0
  0
LINE
  5
41A
330
25
100
AcDbEntity
  8
2
100
AcDbLine
 10
-289.50825
 20
-18.353269
 30
0.0
 11
-294.50825
 21
-18.353269
 31
0.0
  0
LINE
  5
41B
330
25
100
AcDbEntity
  8
2
 62
     2
100
AcDbLine
 10
-290.32025
 20
-19.165269
 30
0.0
 11
-290.32025
 21
-15.665269
 31
0.0
  0
POINT
  5
41C
330
25
100
AcDbEntity
  8
2
100
AcDbPoint
 10
-294.50825
 20
-5.165269
 30
0.0
  0
LINE
  5
41D
330
25
100
AcDbEntity
  8
2
100
AcDbLine
 10
-294.50825
 20
-7.665269
 30
0.0
 11
-284.70825
 21
-7.665269
 31
0.0
  0
LINE
  5
41E
330
25
100
AcDbEntity
  8
2
100
AcDbLine
 10
-284.70825
 20
-7.665269
 30
0.0
 11
-284.70825
 21
-14.770376
 31
0.0
  0
LINE
  5
41F
330
25
100
AcDbEntity
  8
2
100
AcDbLine
 10
-284.70825
 20
-14.770376
 30
0.0
 11
-286.25825
 21
-15.665269
 31
0.0
  0
LINE
  5
420
330
25
100
AcDbEntity
  8
2
100
AcDbLine
 10
-286.25825
 20
-15.665269
 30
0.0
 11
-294.50825
 21
-15.665269
 31
0.0
  0
LINE
  5
421
330
25
100
AcDbEntity
  8
2
100
AcDbLine
 10
-289.60825
 20
-7.665269
 30
0.0
 11
-289.60825
 21
-14.770376
 31
0.0
  0
ARC
  5
422
330
25
100
AcDbEntity
  8
2
100
AcDbCircle
 10
-287.15825
 20
-11.620818
 30
0.0
 40
3.990264999999999
100
AcDbArc
 50
232.121121
 51
307.878879
  0
ARC
  5
423
330
25
100
AcDbEntity
  8
2
100
AcDbCircle
 10
-294.50825
 20
-0.9110829999999999
 30
0.0
 40
14.7
100
AcDbArc
 50
270.0
 51
289.471221
  0
LINE
  5
424
330
25
100
AcDbEntity
  8
2
100
AcDbLine
 10
-294.50825
 20
-7.665269
 30
0.0
 11
-304.30825
 21
-7.665269
 31
0.0
  0
LINE
  5
425
330
25
100
AcDbEntity
  8
2
100
AcDbLine
 10
-304.30825
 20
-7.665269
 30
0.0
 11
-304.30825
 21
-14.770376
 31
0.0
  0
LINE
  5
426
330
25
100
AcDbEntity
  8
2
100
AcDbLine
 10
-304.30825
 20
-14.770376
 30
0.0
 11
-302.75825
 21
-15.665269
 31
0.0
  0
LINE
  5
427
330
25
100
AcDbEntity
  8
2
100
AcDbLine
 10
-302.75825
 20
-15.665269
 30
0.0
 11
-294.50825
 21
-15.665269
 31
0.0
  0
LINE
  5
428
330
25
100
AcDbEntity
  8
2
100
AcDbLine
 10
-299.40825
 20
-7.665269
 30
0.0
 11
-299.40825
 21
-14.770376
 31
0.0
  0
ARC
  5
429
330
25
100
AcDbEntity
  8
2
100
AcDbCircle
 10
-301.85825
 20
-11.620818
 30
0.0
 40
3.990264999999999
100
AcDbArc
 50
232.121121
 51
307.878879
  0
ARC
  5
42A
330
25
100
AcDbEntity
  8
2
100
AcDbCircle
 10
-294.50825
 20
-0.9110829999999999
 30
0.0
 40
14.7
100
AcDbArc
 50
250.528779
 51
270.0
  0
LINE
  5
42B
330
25
100
AcDbEntity
  8
2
100
AcDbLine
 10
-285.30825
 20
-5.165269
 30
0.0
 11
-285.30825
 21
-7.665269
 31
0.0
  0
LINE
  5
42C
330
25
100
AcDbEntity
  8
2
100
AcDbLine
 10
-285.30825
 20
-7.665269
 30
0.0
 11
-303.70825
 21
-7.665269
 31
0.0
  0
LINE
  5
42D
330
25
100
AcDbEntity
  8
2
100
AcDbLine
 10
-303.70825
 20
-7.665269
 30
0.0
 11
-303.70825
 21
-5.165269
 31
0.0
  0
LINE
  5
42E
330
25
100
AcDbEntity
  8
2
100
AcDbLine
 10
-303.70825
 20
-5.165269
 30
0.0
 11
-285.30825
 21
-5.165269
 31
0.0
  0
LINE
  5
42F
330
25
100
AcDbEntity
  8
2
100
AcDbLine
 10
-294.50825
 20
-7.665269
 30
0.0
 11
-295.00825
 21
-5.165269
 31
0.0
  0
LINE
  5
430
330
25
100
AcDbEntity
  8
2
100
AcDbLine
 10
-294.50825
 20
-5.165269
 30
0.0
 11
-294.00825
 21
-7.665269
 31
0.0
  0
POINT
  5
431
330
25
100
AcDbEntity
  8
2
100
AcDbPoint
 10
-366.633142
 20
10.834731
 30
0.0
  0
LINE
  5
432
330
25
100
AcDbEntity
  8
2
  6
CENTER
 62
     2
100
AcDbLine
 10
-366.633142
 20
-21.581174
 30
0.0
 11
-366.633142
 21
21.103152
 31
0.0
  0
LINE
  5
433
330
25
100
AcDbEntity
  8
2
100
AcDbLine
 10
-366.633142
 20
10.834731
 30
0.0
 11
-376.433142
 21
10.834731
 31
0.0
  0
LINE
  5
434
330
25
100
AcDbEntity
  8
2
100
AcDbLine
 10
-376.433142
 20
10.834731
 30
0.0
 11
-376.433142
 21
16.939838
 31
0.0
  0
LINE
  5
435
330
25
100
AcDbEntity
  8
2
100
AcDbLine
 10
-376.433142
 20
16.939838
 30
0.0
 11
-374.883142
 21
17.834731
 31
0.0
  0
LINE
  5
436
330
25
100
AcDbEntity
  8
2
100
AcDbLine
 10
-374.883142
 20
17.834731
 30
0.0
 11
-366.633142
 21
17.834731
 31
0.0
  0
LINE
  5
437
330
25
100
AcDbEntity
  8
2
100
AcDbLine
 10
-371.533142
 20
10.834731
 30
0.0
 11
-371.533142
 21
16.939838
 31
0.0
  0
ARC
  5
438
330
25
100
AcDbEntity
  8
2
100
AcDbCircle
 10
-373.983142
 20
13.79028
 30
0.0
 40
3.990264999999999
100
AcDbArc
 50
52.121121
 51
127.878879
  0
ARC
  5
439
330
25
100
AcDbEntity
  8
2
100
AcDbCircle
 10
-366.633142
 20
3.080544999999999
 30
0.0
 40
14.7
100
AcDbArc
 50
90.0
 51
109.471221
  0
LINE
  5
43A
330
25
100
AcDbEntity
  8
2
100
AcDbLine
 10
-366.633142
 20
-19.165269
 30
0.0
 11
-370.821142
 21
-19.165269
 31
0.0
  0
LINE
  5
43B
330
25
100
AcDbEntity
  8
2
100
AcDbLine
 10
-370.821142
 20
-19.165269
 30
0.0
 11
-371.633142
 21
-18.353269
 31
0.0
  0
LINE
  5
43C
330
25
100
AcDbEntity
  8
2
100
AcDbLine
 10
-371.633142
 20
-18.353269
 30
0.0
 11
-371.633142
 21
-15.665269
 31
0.0
  0
LINE
  5
43D
330
25
100
AcDbEntity
  8
2
100
AcDbLine
 10
-371.633142
 20
-18.353269
 30
0.0
 11
-366.633142
 21
-18.353269
 31
0.0
  0
LINE
  5
43E
330
25
100
AcDbEntity
  8
2
 62
     2
100
AcDbLine
 10
-370.821142
 20
-19.165269
 30
0.0
 11
-370.821142
 21
-15.665269
 31
0.0
  0
LINE
  5
43F
330
25
100
AcDbEntity
  8
2
100
AcDbLine
 10
-366.633142
 20
10.834731
 30
0.0
 11
-356.833142
 21
10.834731
 31
0.0
  0
LINE
  5
440
330
25
100
AcDbEntity
  8
2
100
AcDbLine
 10
-356.833142
 20
10.834731
 30
0.0
 11
-356.833142
 21
16.939838
 31
0.0
  0
LINE
  5
441
330
25
100
AcDbEntity
  8
2
100
AcDbLine
 10
-356.833142
 20
16.939838
 30
0.0
 11
-358.383142
 21
17.834731
 31
0.0
  0
LINE
  5
442
330
25
100
AcDbEntity
  8
2
100
AcDbLine
 10
-358.383142
 20
17.834731
 30
0.0
 11
-366.633142
 21
17.834731
 31
0.0
  0
LINE
  5
443
330
25
100
AcDbEntity
  8
2
100
AcDbLine
 10
-361.733142
 20
10.834731
 30
0.0
 11
-361.733142
 21
16.939838
 31
0.0
  0
ARC
  5
444
330
25
100
AcDbEntity
  8
2
100
AcDbCircle
 10
-359.283142
 20
13.79028
 30
0.0
 40
3.990264999999999
100
AcDbArc
 50
52.121121
 51
127.878879
  0
ARC
  5
445
330
25
100
AcDbEntity
  8
2
100
AcDbCircle
 10
-366.633142
 20
3.080544999999999
 30
0.0
 40
14.7
100
AcDbArc
 50
70.528779
 51
90.0
  0
LINE
  5
446
330
25
100
AcDbEntity
  8
2
100
AcDbLine
 10
-366.633142
 20
-19.165269
 30
0.0
 11
-362.445142
 21
-19.165269
 31
0.0
  0
LINE
  5
447
330
25
100
AcDbEntity
  8
2
100
AcDbLine
 10
-362.445142
 20
-19.165269
 30
0.0
 11
-361.633142
 21
-18.353269
 31
0.0
  0
LINE
  5
448
330
25
100
AcDbEntity
  8
2
100
AcDbLine
 10
-361.633142
 20
-18.353269
 30
0.0
 11
-361.633142
 21
-15.665269
 31
0.0
  0
LINE
  5
449
330
25
100
AcDbEntity
  8
2
100
AcDbLine
 10
-361.633142
 20
-18.353269
 30
0.0
 11
-366.633142
 21
-18.353269
 31
0.0
  0
LINE
  5
44A
330
25
100
AcDbEntity
  8
2
 62
     2
100
AcDbLine
 10
-362.445142
 20
-19.165269
 30
0.0
 11
-362.445142
 21
-15.665269
 31
0.0
  0
POINT
  5
44B
330
25
100
AcDbEntity
  8
2
100
AcDbPoint
 10
-366.633142
 20
-5.165269
 30
0.0
  0
LINE
  5
44C
330
25
100
AcDbEntity
  8
2
100
AcDbLine
 10
-366.633142
 20
-7.665269
 30
0.0
 11
-361.384922
 21
-7.665269
 31
0.0
  0
LINE
  5
44D
330
25
100
AcDbEntity
  8
2
100
AcDbLine
 10
-356.833142
 20
-10.831118
 30
0.0
 11
-356.833142
 21
-14.770376
 31
0.0
  0
LINE
  5
44E
330
25
100
AcDbEntity
  8
2
100
AcDbLine
 10
-356.833142
 20
-14.770376
 30
0.0
 11
-358.383142
 21
-15.665269
 31
0.0
  0
LINE
  5
44F
330
25
100
AcDbEntity
  8
2
100
AcDbLine
 10
-358.383142
 20
-15.665269
 30
0.0
 11
-366.633142
 21
-15.665269
 31
0.0
  0
LINE
  5
450
330
25
100
AcDbEntity
  8
2
100
AcDbLine
 10
-361.733142
 20
-7.665269
 30
0.0
 11
-361.733142
 21
-14.770376
 31
0.0
  0
ARC
  5
451
330
25
100
AcDbEntity
  8
2
100
AcDbCircle
 10
-359.283142
 20
-11.620818
 30
0.0
 40
3.990264999999999
100
AcDbArc
 50
232.121121
 51
307.878879
  0
ARC
  5
452
330
25
100
AcDbEntity
  8
2
100
AcDbCircle
 10
-366.633142
 20
-0.9110829999999999
 30
0.0
 40
14.7
100
AcDbArc
 50
270.0
 51
289.471221
  0
LINE
  5
453
330
25
100
AcDbEntity
  8
2
100
AcDbLine
 10
-366.633142
 20
-7.665269
 30
0.0
 11
-376.433142
 21
-7.665269
 31
0.0
  0
LINE
  5
454
330
25
100
AcDbEntity
  8
2
100
AcDbLine
 10
-376.433142
 20
-7.665269
 30
0.0
 11
-376.433142
 21
-14.770376
 31
0.0
  0
LINE
  5
455
330
25
100
AcDbEntity
  8
2
100
AcDbLine
 10
-376.433142
 20
-14.770376
 30
0.0
 11
-374.883142
 21
-15.665269
 31
0.0
  0
LINE
  5
456
330
25
100
AcDbEntity
  8
2
100
AcDbLine
 10
-374.883142
 20
-15.665269
 30
0.0
 11
-366.633142
 21
-15.665269
 31
0.0
  0
LINE
  5
457
330
25
100
AcDbEntity
  8
2
100
AcDbLine
 10
-371.533142
 20
-7.665269
 30
0.0
 11
-371.533142
 21
-14.770376
 31
0.0
  0
ARC
  5
458
330
25
100
AcDbEntity
  8
2
100
AcDbCircle
 10
-373.983142
 20
-11.620818
 30
0.0
 40
3.990264999999999
100
AcDbArc
 50
232.121121
 51
307.878879
  0
ARC
  5
459
330
25
100
AcDbEntity
  8
2
100
AcDbCircle
 10
-366.633142
 20
-0.9110829999999999
 30
0.0
 40
14.7
100
AcDbArc
 50
250.528779
 51
270.0
  0
LINE
  5
45A
330
25
100
AcDbEntity
  8
2
100
AcDbLine
 10
-361.384922
 20
-7.665269
 30
0.0
 11
-375.833142
 21
-7.665269
 31
0.0
  0
LINE
  5
45B
330
25
100
AcDbEntity
  8
2
100
AcDbLine
 10
-375.833142
 20
-7.665269
 30
0.0
 11
-375.833142
 21
-5.165269
 31
0.0
  0
LINE
  5
45C
330
25
100
AcDbEntity
  8
2
100
AcDbLine
 10
-375.833142
 20
-5.165269
 30
0.0
 11
-357.433142
 21
-5.165269
 31
0.0
  0
LINE
  5
45D
330
25
100
AcDbEntity
  8
2
100
AcDbLine
 10
-366.633142
 20
-7.665269
 30
0.0
 11
-367.0387740000001
 21
-5.637108999999999
 31
0.0
  0
LINE
  5
45E
330
25
100
AcDbEntity
  8
2
100
AcDbLine
 10
-366.515403
 20
-5.753962999999999
 30
0.0
 11
-366.133142
 21
-7.665269
 31
0.0
  0
LINE
  5
45F
330
25
100
AcDbEntity
  8
2
  6
CENTER
 62
     2
100
AcDbLine
 10
149.774474
 20
50.83473099999999
 30
0.0
 11
106.348569
 21
50.83473099999999
 31
0.0
  0
LINE
  5
460
330
25
100
AcDbEntity
  8
2
  6
CENTER
 62
     2
100
AcDbLine
 10
118.234268
 20
27.834731
 30
0.0
 11
90.653628
 21
27.834731
 31
0.0
  0
LINE
  5
461
330
25
100
AcDbEntity
  8
2
  6
CENTER
 62
     2
100
AcDbLine
 10
149.774474
 20
50.83473099999999
 30
0.0
 11
106.348569
 21
50.83473099999999
 31
0.0
  0
LINE
  5
462
330
25
100
AcDbEntity
  8
2
100
AcDbLine
 10
144.604304
 20
46.83473099999999
 30
0.0
 11
144.104304
 21
46.83473099999999
 31
0.0
  0
LINE
  5
463
330
25
100
AcDbEntity
  8
2
100
AcDbLine
 10
143.104304
 20
19.834731
 30
0.0
 11
143.104304
 21
20.834731
 31
0.0
  0
LINE
  5
464
330
25
100
AcDbEntity
  8
2
100
AcDbLine
 10
144.104304
 20
36.834731
 30
0.0
 11
144.104304
 21
52.83687
 31
0.0
  0
ARC
  5
465
330
25
100
AcDbEntity
  8
2
100
AcDbCircle
 10
143.604304
 20
52.83687
 30
0.0
 40
0.5
100
AcDbArc
 50
0.0
 51
90.0
  0
ARC
  5
466
330
25
100
AcDbEntity
  8
2
100
AcDbCircle
 10
143.712247
 20
54.097466
 30
0.0
 40
0.7682170000000001
100
AcDbArc
 50
199.829456
 51
261.922631
  0
LINE
  5
467
330
25
100
AcDbEntity
  8
2
100
AcDbLine
 10
142.98958
 20
53.83687
 30
0.0
 11
142.98958
 21
43.83473099999999
 31
0.0
  0
LINE
  5
468
330
25
100
AcDbEntity
  8
2
100
AcDbLine
 10
140.759065
 20
28.150058
 30
0.0
 11
140.18166
 21
35.834731
 31
0.0
  0
ARC
  5
469
330
25
100
AcDbEntity
  8
2
100
AcDbCircle
 10
144.584036
 20
22.743636
 30
0.0
 40
1.0
100
AcDbArc
 50
270.0
 51
4.281503999999999
  0
ARC
  5
46A
330
25
100
AcDbEntity
  8
2
100
AcDbCircle
 10
143.98958
 20
43.83473099999999
 30
0.0
 40
1.0
100
AcDbArc
 50
180.0
 51
270.0
  0
ARC
  5
46B
330
25
100
AcDbEntity
  8
2
100
AcDbCircle
 10
139.761876
 20
28.075132
 30
0.0
 40
1.0
100
AcDbArc
 50
301.28895
 51
4.296974999999999
  0
LINE
  5
46C
330
25
100
AcDbEntity
  8
2
100
AcDbLine
 10
143.104304
 20
35.834731
 30
0.0
 11
136.304304
 21
35.834731
 31
0.0
  0
ARC
  5
46D
330
25
100
AcDbEntity
  8
2
100
AcDbCircle
 10
143.104304
 20
36.834731
 30
0.0
 40
1.0
100
AcDbArc
 50
270.0
 51
360.0
  0
ARC
  5
46E
330
25
100
AcDbEntity
  8
2
100
AcDbCircle
 10
136.304304
 20
36.834731
 30
0.0
 40
1.0
100
AcDbArc
 50
180.0
 51
270.0
  0
LINE
  5
46F
330
25
100
AcDbEntity
  8
2
100
AcDbLine
 10
138.370349
 20
48.95907499999999
 30
0.0
 11
136.053924
 21
48.360007
 31
0.0
  0
ARC
  5
470
330
25
100
AcDbEntity
  8
2
100
AcDbCircle
 10
136.304304
 20
47.39186
 30
0.0
 40
1.0
100
AcDbArc
 50
104.5
 51
118.215328
  0
LINE
  5
471
330
25
100
AcDbEntity
  8
2
100
AcDbLine
 10
135.304304
 20
36.834731
 30
0.0
 11
135.304304
 21
38.007202
 31
0.0
  0
ARC
  5
472
330
25
100
AcDbEntity
  8
2
100
AcDbCircle
 10
138.119969
 20
49.927223
 30
0.0
 40
1.0
100
AcDbArc
 50
284.5
 51
4.296974999999999
  0
ARC
  5
473
330
25
100
AcDbEntity
  8
2
100
AcDbCircle
 10
128.104304
 20
36.346896
 30
0.0
 40
53.95582099999999
100
AcDbArc
 50
78.45363899999999
 51
101.653235
  0
ARC
  5
474
330
25
100
AcDbEntity
  8
2
100
AcDbCircle
 10
135.197255
 20
88.825549
 30
0.0
 40
1.0
100
AcDbArc
 50
4.296974999999999
 51
82.302618
  0
ARC
  5
475
330
25
100
AcDbEntity
  8
2
100
AcDbCircle
 10
121.011353
 20
88.825549
 30
0.0
 40
1.0
100
AcDbArc
 50
97.69738199999999
 51
175.703025
  0
LINE
  5
476
330
25
100
AcDbEntity
  8
2
100
AcDbLine
 10
117.09145
 20
50.00214899999999
 30
0.0
 11
120.014164
 21
88.90047499999999
 31
0.0
  0
ARC
  5
477
330
25
100
AcDbEntity
  8
2
100
AcDbCircle
 10
118.088639
 20
49.927223
 30
0.0
 40
1.0
100
AcDbArc
 50
175.703025
 51
255.5
  0
LINE
  5
478
330
25
100
AcDbEntity
  8
2
100
AcDbLine
 10
120.904304
 20
36.834731
 30
0.0
 11
120.904304
 21
39.007749
 31
0.0
  0
ARC
  5
479
330
25
100
AcDbEntity
  8
2
100
AcDbCircle
 10
119.904304
 20
47.39186
 30
0.0
 40
1.0
100
AcDbArc
 50
0.0
 51
17.265212
  0
LINE
  5
47A
330
25
100
AcDbEntity
  8
2
100
AcDbLine
 10
117.838259
 20
48.95907499999999
 30
0.0
 11
119.705223
 21
48.476246
 31
0.0
  0
ARC
  5
47B
330
25
100
AcDbEntity
  8
2
100
AcDbCircle
 10
119.904304
 20
36.834731
 30
0.0
 40
1.0
100
AcDbArc
 50
270.0
 51
360.0
  0
ARC
  5
47C
330
25
100
AcDbEntity
  8
2
100
AcDbCircle
 10
113.104304
 20
36.834731
 30
0.0
 40
1.0
100
AcDbArc
 50
180.0
 51
270.0
  0
LINE
  5
47D
330
25
100
AcDbEntity
  8
2
100
AcDbLine
 10
113.104304
 20
35.834731
 30
0.0
 11
119.904304
 21
35.834731
 31
0.0
  0
ARC
  5
47E
330
25
100
AcDbEntity
  8
2
100
AcDbCircle
 10
144.604304
 20
22.743636
 30
0.0
 40
1.0
100
AcDbArc
 50
270.0
 51
360.0
  0
ARC
  5
47F
330
25
100
AcDbEntity
  8
2
100
AcDbCircle
 10
116.446733
 20
28.075132
 30
0.0
 40
1.0
100
AcDbArc
 50
175.703025
 51
238.71105
  0
ARC
  5
480
330
25
100
AcDbEntity
  8
2
100
AcDbCircle
 10
128.104304
 20
47.256802
 30
0.0
 40
23.446279
100
AcDbArc
 50
238.71105
 51
252.885046
  0
LINE
  5
481
330
25
100
AcDbEntity
  8
2
100
AcDbLine
 10
135.304304
 20
59.101801
 30
0.0
 11
135.304304
 21
57.06713199999999
 31
0.0
  0
ARC
  5
482
330
25
100
AcDbEntity
  8
2
100
AcDbCircle
 10
132.304304
 20
60.307925
 30
0.0
 40
3.0
100
AcDbArc
 50
9.787427
 51
58.91564399999999
  0
ARC
  5
483
330
25
100
AcDbEntity
  8
2
100
AcDbCircle
 10
112.219029
 20
43.83473099999999
 30
0.0
 40
1.0
100
AcDbArc
 50
270.0
 51
360.0
  0
LINE
  5
484
330
25
100
AcDbEntity
  8
2
100
AcDbLine
 10
143.287426
 20
53.4574
 30
0.0
 11
140.052888
 21
96.661918
 31
0.0
  0
LINE
  5
485
330
25
100
AcDbEntity
  8
2
100
AcDbLine
 10
110.104304
 20
21.743636
 30
0.0
 11
121.204304
 21
21.743636
 31
0.0
  0
ARC
  5
486
330
25
100
AcDbEntity
  8
2
100
AcDbCircle
 10
111.624573
 20
22.743636
 30
0.0
 40
1.0
100
AcDbArc
 50
175.718496
 51
270.0
  0
ARC
  5
487
330
25
100
AcDbEntity
  8
2
100
AcDbCircle
 10
117.534304
 20
39.034731
 30
0.0
 40
8.429999999999999
100
AcDbArc
 50
130.100336
 51
180.0
  0
LINE
  5
488
330
25
100
AcDbEntity
  8
2
100
AcDbLine
 10
112.921183
 20
53.4574
 30
0.0
 11
116.155721
 21
96.661918
 31
0.0
  0
ARC
  5
489
330
25
100
AcDbEntity
  8
2
100
AcDbCircle
 10
110.104304
 20
22.743636
 30
0.0
 40
1.0
100
AcDbArc
 50
180.0
 51
270.0
  0
LINE
  5
48A
330
25
100
AcDbEntity
  8
2
100
AcDbLine
 10
115.449543
 20
28.150058
 30
0.0
 11
116.026949
 21
35.834731
 31
0.0
  0
LINE
  5
48B
330
25
100
AcDbEntity
  8
2
100
AcDbLine
 10
139.117159
 20
50.00214899999999
 30
0.0
 11
136.194444
 21
88.90047499999999
 31
0.0
  0
LINE
  5
48C
330
25
100
AcDbEntity
  8
2
100
AcDbLine
 10
109.104304
 20
20.834731
 30
0.0
 11
109.104304
 21
39.034731
 31
0.0
  0
LINE
  5
48D
330
25
100
AcDbEntity
  8
2
100
AcDbLine
 10
120.904304
 20
59.79654599999999
 30
0.0
 11
120.904304
 21
58.153674
 31
0.0
  0
ARC
  5
48E
330
25
100
AcDbEntity
  8
2
100
AcDbCircle
 10
119.904304
 20
59.79654599999999
 30
0.0
 40
1.0
100
AcDbArc
 50
0.0
 51
23.414798
  0
LINE
  5
48F
330
25
100
AcDbEntity
  8
2
100
AcDbLine
 10
108.104304
 20
20.834731
 30
0.0
 11
121.204304
 21
20.834731
 31
0.0
  0
LINE
  5
490
330
25
100
AcDbEntity
  8
2
100
AcDbLine
 10
112.104304
 20
46.83473099999999
 30
0.0
 11
109.104304
 21
46.83473099999999
 31
0.0
  0
LINE
  5
491
330
25
100
AcDbEntity
  8
2
100
AcDbLine
 10
145.487768
 20
24.066886
 30
0.0
 11
144.104304
 21
42.546153
 31
0.0
  0
ARC
  5
492
330
25
100
AcDbEntity
  8
2
100
AcDbCircle
 10
128.104304
 20
105.370484
 30
0.0
 40
37.22508300000001
100
AcDbArc
 50
260.989975
 51
279.010025
  0
ARC
  5
493
330
25
100
AcDbEntity
  8
2
100
AcDbCircle
 10
128.104304
 20
44.87817899999999
 30
0.0
 40
24.432244
100
AcDbArc
 50
76.195627
 51
103.804373
  0
LINE
  5
494
330
25
100
AcDbEntity
  8
2
100
AcDbLine
 10
134.604304
 20
69.27500400000001
 30
0.0
 11
133.934023
 21
68.60472299999999
 31
0.0
  0
LINE
  5
495
330
25
100
AcDbEntity
  8
2
100
AcDbLine
 10
122.203663
 20
68.675646
 30
0.0
 11
122.274586
 21
68.60472299999999
 31
0.0
  0
ARC
  5
496
330
25
100
AcDbEntity
  8
2
100
AcDbCircle
 10
128.104304
 20
25.438611
 30
0.0
 40
52.194665
100
AcDbArc
 50
83.04962299999999
 51
96.84988100000001
  0
LINE
  5
497
330
25
100
AcDbEntity
  8
2
100
AcDbLine
 10
134.604304
 20
75.022514
 30
0.0
 11
134.604304
 21
72.57645500000001
 31
0.0
  0
ARC
  5
498
330
25
100
AcDbEntity
  8
2
100
AcDbCircle
 10
136.104304
 20
75.516543
 30
0.0
 40
1.5
100
AcDbArc
 50
90.0
 51
121.105665
  0
ARC
  5
499
330
25
100
AcDbEntity
  8
2
100
AcDbCircle
 10
120.104304
 20
75.516543
 30
0.0
 40
1.5
100
AcDbArc
 50
0.0
 51
90.0
  0
LINE
  5
49A
330
25
100
AcDbEntity
  8
2
100
AcDbLine
 10
121.604304
 20
75.516543
 30
0.0
 11
121.604304
 21
74.03404399999999
 31
0.0
  0
LINE
  5
49B
330
25
100
AcDbEntity
  8
2
100
AcDbLine
 10
113.219029
 20
53.83687
 30
0.0
 11
113.219029
 21
43.83473099999999
 31
0.0
  0
ARC
  5
49C
330
25
100
AcDbEntity
  8
2
100
AcDbCircle
 10
112.496362
 20
54.097466
 30
0.0
 40
0.7682170000000001
100
AcDbArc
 50
278.077369
 51
340.170544
  0
ARC
  5
49D
330
25
100
AcDbEntity
  8
2
100
AcDbCircle
 10
112.604304
 20
52.83687
 30
0.0
 40
0.5
100
AcDbArc
 50
90.0
 51
180.0
  0
LINE
  5
49E
330
25
100
AcDbEntity
  8
2
100
AcDbLine
 10
140.104304
 20
95.94670999999999
 30
0.0
 11
140.104304
 21
90.19058000000001
 31
0.0
  0
ARC
  5
49F
330
25
100
AcDbEntity
  8
2
100
AcDbCircle
 10
135.104304
 20
95.94670999999999
 30
0.0
 40
5.0
100
AcDbArc
 50
0.0
 51
86.687439
  0
ARC
  5
4A0
330
25
100
AcDbEntity
  8
2
100
AcDbCircle
 10
139.104304
 20
90.19058000000001
 30
0.0
 40
1.0
100
AcDbArc
 50
258.453639
 51
360.0
  0
ARC
  5
4A1
330
25
100
AcDbEntity
  8
2
100
AcDbCircle
 10
117.104304
 20
90.19058000000001
 30
0.0
 40
1.0
100
AcDbArc
 50
180.0
 51
281.546361
  0
LINE
  5
4A2
330
25
100
AcDbEntity
  8
2
100
AcDbLine
 10
110.627363
 20
22.818293
 30
0.0
 11
112.104304
 21
42.546153
 31
0.0
  0
ARC
  5
4A3
330
25
100
AcDbEntity
  8
2
100
AcDbCircle
 10
121.104304
 20
95.94670999999999
 30
0.0
 40
5.0
100
AcDbArc
 50
93.312561
 51
180.0
  0
ARC
  5
4A4
330
25
100
AcDbEntity
  8
2
100
AcDbCircle
 10
128.104304
 20
-24.993998
 30
0.0
 40
126.143118
100
AcDbArc
 50
86.687439
 51
93.312561
  0
LINE
  5
4A5
330
25
100
AcDbEntity
  8
2
100
AcDbLine
 10
112.104304
 20
36.834731
 30
0.0
 11
112.104304
 21
52.83687
 31
0.0
  0
LINE
  5
4A6
330
25
100
AcDbEntity
  8
2
100
AcDbLine
 10
116.104304
 20
95.94670999999999
 30
0.0
 11
116.104304
 21
90.19058000000001
 31
0.0
  0
LINE
  5
4A7
330
25
100
AcDbEntity
  8
2
100
AcDbLine
 10
113.104304
 20
19.834731
 30
0.0
 11
113.104304
 21
20.834731
 31
0.0
  0
LINE
  5
4A8
330
25
100
AcDbEntity
  8
2
100
AcDbLine
 10
145.604304
 20
20.834731
 30
0.0
 11
145.604304
 21
45.83473099999999
 31
0.0
  0
LINE
  5
4A9
330
25
100
AcDbEntity
  8
2
100
AcDbLine
 10
144.604304
 20
46.83473099999999
 30
0.0
 11
145.604304
 21
45.83473099999999
 31
0.0
  0
LINE
  5
4AA
330
25
100
AcDbEntity
  8
2
100
AcDbLine
 10
113.104304
 20
19.834731
 30
0.0
 11
121.204304
 21
19.834731
 31
0.0
  0
LINE
  5
4AB
330
25
100
AcDbEntity
  8
2
100
AcDbLine
 10
108.104304
 20
45.83473099999999
 30
0.0
 11
108.104304
 21
20.834731
 31
0.0
  0
ARC
  5
4AC
330
25
100
AcDbEntity
  8
2
100
AcDbCircle
 10
109.104304
 20
45.83473099999999
 30
0.0
 40
1.0
100
AcDbArc
 50
90.0
 51
180.0
  0
LINE
  5
4AD
330
25
100
AcDbEntity
  8
2
100
AcDbLine
 10
135.004304
 20
21.743636
 30
0.0
 11
144.604304
 21
21.743636
 31
0.0
  0
LINE
  5
4AE
330
25
100
AcDbEntity
  8
2
100
AcDbLine
 10
135.004304
 20
20.834731
 30
0.0
 11
145.604304
 21
20.834731
 31
0.0
  0
LINE
  5
4AF
330
25
100
AcDbEntity
  8
2
100
AcDbLine
 10
135.004304
 20
19.834731
 30
0.0
 11
143.104304
 21
19.834731
 31
0.0
  0
ARC
  5
4B0
330
25
100
AcDbEntity
  8
2
100
AcDbCircle
 10
128.104304
 20
47.256802
 30
0.0
 40
23.446279
100
AcDbArc
 50
287.114954
 51
301.28895
  0
LINE
  5
4B1
330
25
100
AcDbEntity
  8
2
100
AcDbLine
 10
120.904304
 20
40.73629
 30
0.0
 11
120.904304
 21
43.180125
 31
0.0
  0
LINE
  5
4B2
330
25
100
AcDbEntity
  8
2
100
AcDbLine
 10
120.904304
 20
44.921159
 30
0.0
 11
120.904304
 21
47.39186
 31
0.0
  0
LINE
  5
4B3
330
25
100
AcDbEntity
  8
2
100
AcDbLine
 10
120.904304
 20
51.90823599999999
 30
0.0
 11
120.904304
 21
49.416001
 31
0.0
  0
LINE
  5
4B4
330
25
100
AcDbEntity
  8
2
100
AcDbLine
 10
120.904304
 20
56.44053299999999
 30
0.0
 11
120.904304
 21
53.65029200000001
 31
0.0
  0
LINE
  5
4B5
330
25
100
AcDbEntity
  8
2
100
AcDbLine
 10
135.304304
 20
39.603532
 30
0.0
 11
135.304304
 21
42.078182
 31
0.0
  0
LINE
  5
4B6
330
25
100
AcDbEntity
  8
2
100
AcDbLine
 10
135.304304
 20
43.80672399999999
 30
0.0
 11
135.304304
 21
46.57116199999999
 31
0.0
  0
LINE
  5
4B7
330
25
100
AcDbEntity
  8
2
100
AcDbLine
 10
135.304304
 20
55.325076
 30
0.0
 11
135.304304
 21
52.534835
 31
0.0
  0
LINE
  5
4B8
330
25
100
AcDbEntity
  8
2
100
AcDbLine
 10
134.604304
 20
70.949773
 30
0.0
 11
134.604304
 21
69.27500400000001
 31
0.0
  0
LINE
  5
4B9
330
25
100
AcDbEntity
  8
2
100
AcDbLine
 10
121.604304
 20
72.40185699999999
 30
0.0
 11
121.604304
 21
70.192414
 31
0.0
  0
LINE
  5
4BA
330
25
100
AcDbEntity
  8
2
100
AcDbLine
 10
134.104304
 20
19.831276
 30
0.0
 11
134.104304
 21
38.320256
 31
0.0
  0
LINE
  5
4BB
330
25
100
AcDbEntity
  8
2
100
AcDbLine
 10
122.104304
 20
19.831276
 30
0.0
 11
122.104304
 21
38.320256
 31
0.0
  0
LINE
  5
4BC
330
25
100
AcDbEntity
  8
2
100
AcDbLine
 10
135.004304
 20
12.108479
 30
0.0
 11
134.104304
 21
11.208479
 31
0.0
  0
ARC
  5
4BD
330
25
100
AcDbEntity
  8
2
100
AcDbCircle
 10
123.104304
 20
50.343003
 30
0.0
 40
1.0
100
AcDbArc
 50
90.0
 51
180.0
  0
ARC
  5
4BE
330
25
100
AcDbEntity
  8
2
100
AcDbCircle
 10
133.104304
 20
50.343003
 30
0.0
 40
1.0
100
AcDbArc
 50
0.0
 51
11.831031
  0
LINE
  5
4BF
330
25
100
AcDbEntity
  8
2
100
AcDbLine
 10
123.104304
 20
51.343003
 30
0.0
 11
130.082583
 21
51.343003
 31
0.0
  0
LINE
  5
4C0
330
25
100
AcDbEntity
  8
2
100
AcDbLine
 10
121.204304
 20
12.108479
 30
0.0
 11
122.104304
 21
11.208479
 31
0.0
  0
LINE
  5
4C1
330
25
100
AcDbEntity
  8
2
100
AcDbLine
 10
134.104304
 20
4.834730999999999
 30
0.0
 11
134.104304
 21
11.208479
 31
0.0
  0
ARC
  5
4C2
330
25
100
AcDbEntity
  8
2
100
AcDbCircle
 10
133.104304
 20
36.07085
 30
0.0
 40
1.0
100
AcDbArc
 50
0.0
 51
90.0
  0
LINE
  5
4C3
330
25
100
AcDbEntity
  8
2
100
AcDbLine
 10
122.104304
 20
4.834730999999999
 30
0.0
 11
122.104304
 21
11.208479
 31
0.0
  0
ARC
  5
4C4
330
25
100
AcDbEntity
  8
2
100
AcDbCircle
 10
123.104304
 20
36.07085
 30
0.0
 40
1.0
100
AcDbArc
 50
90.0
 51
180.0
  0
LINE
  5
4C5
330
25
100
AcDbEntity
  8
2
100
AcDbLine
 10
123.104304
 20
18.831276
 30
0.0
 11
133.104304
 21
18.831276
 31
0.0
  0
ARC
  5
4C6
330
25
100
AcDbEntity
  8
2
100
AcDbCircle
 10
133.104304
 20
19.831276
 30
0.0
 40
1.0
100
AcDbArc
 50
270.0
 51
360.0
  0
ARC
  5
4C7
330
25
100
AcDbEntity
  8
2
100
AcDbCircle
 10
123.104304
 20
19.831276
 30
0.0
 40
1.0
100
AcDbArc
 50
180.0
 51
270.0
  0
LINE
  5
4C8
330
25
100
AcDbEntity
  8
2
100
AcDbLine
 10
123.104304
 20
37.07085
 30
0.0
 11
133.104304
 21
37.07085
 31
0.0
  0
LINE
  5
4C9
330
25
100
AcDbEntity
  8
2
100
AcDbLine
 10
134.104304
 20
48.825511
 30
0.0
 11
134.104304
 21
50.343003
 31
0.0
  0
LINE
  5
4CA
330
25
100
AcDbEntity
  8
2
100
AcDbLine
 10
122.104304
 20
49.667944
 30
0.0
 11
122.104304
 21
50.343003
 31
0.0
  0
ARC
  5
4CB
330
25
100
AcDbEntity
  8
2
100
AcDbCircle
 10
128.104304
 20
117.409893
 30
0.0
 40
80.838818
100
AcDbArc
 50
274.256508
 51
274.611956
  0
ARC
  5
4CC
330
25
100
AcDbEntity
  8
2
100
AcDbCircle
 10
128.104304
 20
117.409893
 30
0.0
 40
80.838818
100
AcDbArc
 50
265.388044
 51
265.743492
  0
ARC
  5
4CD
330
25
100
AcDbEntity
  8
2
100
AcDbCircle
 10
133.104304
 20
38.320256
 30
0.0
 40
1.0
100
AcDbArc
 50
0.0
 51
90.0
  0
ARC
  5
4CE
330
25
100
AcDbEntity
  8
2
100
AcDbCircle
 10
123.104304
 20
38.320256
 30
0.0
 40
1.0
100
AcDbArc
 50
90.0
 51
180.0
  0
LINE
  5
4CF
330
25
100
AcDbEntity
  8
2
100
AcDbLine
 10
123.104304
 20
39.320256
 30
0.0
 11
133.104304
 21
39.320256
 31
0.0
  0
LINE
  5
4D0
330
25
100
AcDbEntity
  8
2
100
AcDbLine
 10
134.604304
 20
46.41117
 30
0.0
 11
134.604304
 21
43.56733499999999
 31
0.0
  0
LINE
  5
4D1
330
25
100
AcDbEntity
  8
2
100
AcDbLine
 10
134.104304
 20
48.825511
 30
0.0
 11
134.502698
 21
48.029207
 31
0.0
  0
LINE
  5
4D2
330
25
100
AcDbEntity
  8
2
100
AcDbLine
 10
121.604304
 20
47.92808400000001
 30
0.0
 11
121.604304
 21
45.081151
 31
0.0
  0
LINE
  5
4D3
330
25
100
AcDbEntity
  8
2
100
AcDbLine
 10
121.204304
 20
55.834731
 30
0.0
 11
121.204304
 21
53.71938899999999
 31
0.0
  0
ARC
  5
4D4
330
25
100
AcDbEntity
  8
2
100
AcDbCircle
 10
123.104304
 20
4.834730999999999
 30
0.0
 40
1.0
100
AcDbArc
 50
180.0
 51
270.0
  0
LINE
  5
4D5
330
25
100
AcDbEntity
  8
2
100
AcDbLine
 10
123.104304
 20
3.834730999999999
 30
0.0
 11
133.104304
 21
3.834730999999999
 31
0.0
  0
ARC
  5
4D6
330
25
100
AcDbEntity
  8
2
100
AcDbCircle
 10
133.104304
 20
4.834730999999999
 30
0.0
 40
1.0
100
AcDbArc
 50
270.0
 51
360.0
  0
LINE
  5
4D7
330
25
100
AcDbEntity
  8
2
100
AcDbLine
 10
135.004304
 20
55.25597900000001
 30
0.0
 11
135.004304
 21
52.555191
 31
0.0
  0
LINE
  5
4D8
330
25
100
AcDbEntity
  8
2
100
AcDbLine
 10
121.204304
 20
38.987393
 30
0.0
 11
121.204304
 21
12.108479
 31
0.0
  0
LINE
  5
4D9
330
25
100
AcDbEntity
  8
2
100
AcDbLine
 10
121.604304
 20
39.247137
 30
0.0
 11
121.604304
 21
36.832821
 31
0.0
  0
LINE
  5
4DA
330
25
100
AcDbEntity
  8
2
100
AcDbLine
 10
121.204304
 20
43.15976899999999
 30
0.0
 11
121.204304
 21
40.798284
 31
0.0
  0
LINE
  5
4DB
330
25
100
AcDbEntity
  8
2
100
AcDbLine
 10
121.604304
 20
43.43989
 30
0.0
 11
121.604304
 21
40.88094199999999
 31
0.0
  0
LINE
  5
4DC
330
25
100
AcDbEntity
  8
2
100
AcDbLine
 10
121.204304
 20
47.66524099999999
 30
0.0
 11
121.204304
 21
44.989727
 31
0.0
  0
LINE
  5
4DD
330
25
100
AcDbEntity
  8
2
100
AcDbLine
 10
121.204304
 20
51.88787999999999
 30
0.0
 11
121.204304
 21
49.478986
 31
0.0
  0
ARC
  5
4DE
330
25
100
AcDbEntity
  8
2
100
AcDbCircle
 10
122.204304
 20
55.834731
 30
0.0
 40
1.0
100
AcDbArc
 50
145.02678
 51
180.0
  0
LINE
  5
4DF
330
25
100
AcDbEntity
  8
2
100
AcDbLine
 10
134.604304
 20
38.007202
 30
0.0
 11
134.604304
 21
36.832821
 31
0.0
  0
LINE
  5
4E0
330
25
100
AcDbEntity
  8
2
100
AcDbLine
 10
135.004304
 20
38.007202
 30
0.0
 11
135.004304
 21
12.108479
 31
0.0
  0
LINE
  5
4E1
330
25
100
AcDbEntity
  8
2
100
AcDbLine
 10
134.604304
 20
41.93353
 30
0.0
 11
134.604304
 21
39.603532
 31
0.0
  0
LINE
  5
4E2
330
25
100
AcDbEntity
  8
2
100
AcDbLine
 10
135.004304
 20
42.016189
 30
0.0
 11
135.004304
 21
39.603532
 31
0.0
  0
LINE
  5
4E3
330
25
100
AcDbEntity
  8
2
100
AcDbLine
 10
135.004304
 20
46.502594
 30
0.0
 11
135.004304
 21
43.82707899999999
 31
0.0
  0
LINE
  5
4E4
330
25
100
AcDbEntity
  8
2
100
AcDbLine
 10
135.004304
 20
50.741446
 30
0.0
 11
135.004304
 21
48.33255199999999
 31
0.0
  0
LINE
  5
4E5
330
25
100
AcDbEntity
  8
2
100
AcDbLine
 10
119.070753
 20
10.834731
 30
0.0
 11
119.070753
 21
19.834731
 31
0.0
  0
ARC
  5
4E6
330
25
100
AcDbEntity
  8
2
100
AcDbCircle
 10
135.704304
 20
76.060355
 30
0.0
 40
0.8
100
AcDbArc
 50
281.397445
 51
101.397445
  0
LINE
  5
4E7
330
25
100
AcDbEntity
  8
2
100
AcDbLine
 10
108.104304
 20
20.834731
 30
0.0
 11
108.104304
 21
34.334731
 31
0.0
  0
LINE
  5
4E8
330
25
100
AcDbEntity
  8
2
100
AcDbLine
 10
108.104304
 20
20.834731
 30
0.0
 11
108.104304
 21
34.334731
 31
0.0
  0
ARC
  5
4E9
330
25
100
AcDbEntity
  8
2
100
AcDbCircle
 10
135.704304
 20
71.96484100000001
 30
0.0
 40
0.8
100
AcDbArc
 50
280.391878
 51
100.391878
  0
ARC
  5
4EA
330
25
100
AcDbEntity
  8
2
100
AcDbCircle
 10
135.704304
 20
68.145984
 30
0.0
 40
0.8
100
AcDbArc
 50
280.610631
 51
100.610631
  0
ARC
  5
4EB
330
25
100
AcDbEntity
  8
2
100
AcDbCircle
 10
135.704304
 20
64.26709999999999
 30
0.0
 40
0.8
100
AcDbArc
 50
282.068205
 51
102.068205
  0
ARC
  5
4EC
330
25
100
AcDbEntity
  8
2
100
AcDbCircle
 10
135.704304
 20
59.985962
 30
0.0
 40
0.8
100
AcDbArc
 50
280.132571
 51
100.132571
  0
ARC
  5
4ED
330
25
100
AcDbEntity
  8
2
100
AcDbCircle
 10
135.704304
 20
56.238152
 30
0.0
 40
0.8
100
AcDbArc
 50
282.970431
 51
102.970431
  0
ARC
  5
4EE
330
25
100
AcDbEntity
  8
2
100
AcDbCircle
 10
135.704304
 20
51.705855
 30
0.0
 40
0.8
100
AcDbArc
 50
281.857168
 51
101.857168
  0
ARC
  5
4EF
330
25
100
AcDbEntity
  8
2
100
AcDbCircle
 10
135.704304
 20
42.97774299999999
 30
0.0
 40
0.8
100
AcDbArc
 50
281.675583
 51
101.675583
  0
ARC
  5
4F0
330
25
100
AcDbEntity
  8
2
100
AcDbCircle
 10
135.704304
 20
38.805367
 30
0.0
 40
0.8
100
AcDbArc
 50
266.118273
 51
93.881727
  0
ARC
  5
4F1
330
25
100
AcDbEntity
  8
2
100
AcDbCircle
 10
135.704304
 20
47.48321599999999
 30
0.0
 40
0.8
100
AcDbArc
 50
282.874375
 51
102.874375
  0
ARC
  5
4F2
330
25
100
AcDbEntity
  8
2
100
AcDbCircle
 10
120.504304
 20
48.514578
 30
0.0
 40
0.8
100
AcDbArc
 50
101.857168
 51
281.857168
  0
ARC
  5
4F3
330
25
100
AcDbEntity
  8
2
100
AcDbCircle
 10
120.504304
 20
39.836729
 30
0.0
 40
0.8
100
AcDbArc
 50
101.675583
 51
281.675583
  0
ARC
  5
4F4
330
25
100
AcDbEntity
  8
2
100
AcDbCircle
 10
120.504304
 20
44.009105
 30
0.0
 40
0.8
100
AcDbArc
 50
102.874375
 51
282.874375
  0
ARC
  5
4F5
330
25
100
AcDbEntity
  8
2
100
AcDbCircle
 10
120.504304
 20
52.737217
 30
0.0
 40
0.8
100
AcDbArc
 50
102.970431
 51
282.970431
  0
ARC
  5
4F6
330
25
100
AcDbEntity
  8
2
100
AcDbCircle
 10
120.504304
 20
57.269514
 30
0.0
 40
0.8
100
AcDbArc
 50
100.132571
 51
280.132571
  0
ARC
  5
4F7
330
25
100
AcDbEntity
  8
2
100
AcDbCircle
 10
120.504304
 20
61.017324
 30
0.0
 40
0.8
100
AcDbArc
 50
102.068205
 51
282.068205
  0
ARC
  5
4F8
330
25
100
AcDbEntity
  8
2
100
AcDbCircle
 10
120.504304
 20
65.298462
 30
0.0
 40
0.8
100
AcDbArc
 50
100.610631
 51
280.610631
  0
ARC
  5
4F9
330
25
100
AcDbEntity
  8
2
100
AcDbCircle
 10
120.504304
 20
69.177346
 30
0.0
 40
0.8
100
AcDbArc
 50
100.391878
 51
280.391878
  0
ARC
  5
4FA
330
25
100
AcDbEntity
  8
2
100
AcDbCircle
 10
120.504304
 20
72.996203
 30
0.0
 40
0.8
100
AcDbArc
 50
101.397445
 51
281.397445
  0
LINE
  5
4FB
330
25
100
AcDbEntity
  8
2
100
AcDbLine
 10
134.604304
 20
39.681845
 30
0.0
 11
135.758462
 21
39.603532
 31
0.0
  0
LINE
  5
4FC
330
25
100
AcDbEntity
  8
2
100
AcDbLine
 10
120.342408
 20
40.62017599999999
 30
0.0
 11
135.542408
 21
43.76119
 31
0.0
  0
LINE
  5
4FD
330
25
100
AcDbEntity
  8
2
100
AcDbLine
 10
135.8662
 20
42.194296
 30
0.0
 11
120.6662
 21
39.05328200000001
 31
0.0
  0
LINE
  5
4FE
330
25
100
AcDbEntity
  8
2
100
AcDbLine
 10
120.326053
 20
44.788994
 30
0.0
 11
135.526053
 21
48.26310499999999
 31
0.0
  0
LINE
  5
4FF
330
25
100
AcDbEntity
  8
2
100
AcDbLine
 10
135.882556
 20
46.703327
 30
0.0
 11
120.682556
 21
43.22921599999999
 31
0.0
  0
LINE
  5
500
330
25
100
AcDbEntity
  8
2
100
AcDbLine
 10
120.339926
 20
49.297508
 30
0.0
 11
135.539926
 21
52.488785
 31
0.0
  0
LINE
  5
501
330
25
100
AcDbEntity
  8
2
100
AcDbLine
 10
135.868682
 20
50.922924
 30
0.0
 11
120.668682
 21
47.73164799999999
 31
0.0
  0
LINE
  5
502
330
25
100
AcDbEntity
  8
2
100
AcDbLine
 10
120.324746
 20
53.516805
 30
0.0
 11
135.524746
 21
57.01774
 31
0.0
  0
LINE
  5
503
330
25
100
AcDbEntity
  8
2
100
AcDbLine
 10
135.883863
 20
55.458563
 30
0.0
 11
120.683863
 21
51.957628
 31
0.0
  0
LINE
  5
504
330
25
100
AcDbEntity
  8
2
100
AcDbLine
 10
120.645045
 20
56.481991
 30
0.0
 11
135.845045
 21
59.198439
 31
0.0
  0
LINE
  5
505
330
25
100
AcDbEntity
  8
2
100
AcDbLine
 10
135.563563
 20
60.77348399999999
 30
0.0
 11
120.363563
 21
58.057036
 31
0.0
  0
LINE
  5
506
330
25
100
AcDbEntity
  8
2
100
AcDbLine
 10
120.671565
 20
60.235004
 30
0.0
 11
135.871565
 21
63.48478
 31
0.0
  0
LINE
  5
507
330
25
100
AcDbEntity
  8
2
100
AcDbLine
 10
135.5370439999999
 20
65.049419
 30
0.0
 11
120.337044
 21
61.799643
 31
0.0
  0
LINE
  5
508
330
25
100
AcDbEntity
  8
2
100
AcDbLine
 10
120.651611
 20
64.512141
 30
0.0
 11
135.851611
 21
67.359663
 31
0.0
  0
LINE
  5
509
330
25
100
AcDbEntity
  8
2
100
AcDbLine
 10
135.556997
 20
68.932305
 30
0.0
 11
120.356997
 21
66.084783
 31
0.0
  0
LINE
  5
50A
330
25
100
AcDbEntity
  8
2
100
AcDbLine
 10
120.648608
 20
68.390468
 30
0.0
 11
135.848608
 21
71.17796300000001
 31
0.0
  0
LINE
  5
50B
330
25
100
AcDbEntity
  8
2
100
AcDbLine
 10
135.560001
 20
72.75171800000001
 30
0.0
 11
120.360001
 21
69.964223
 31
0.0
  0
LINE
  5
50C
330
25
100
AcDbEntity
  8
2
100
AcDbLine
 10
120.662395
 20
72.21197899999999
 30
0.0
 11
135.862395
 21
75.276131
 31
0.0
  0
LINE
  5
50D
330
25
100
AcDbEntity
  8
2
100
AcDbLine
 10
135.546213
 20
76.84457900000001
 30
0.0
 11
120.346213
 21
73.780427
 31
0.0
  0
LINE
  5
50E
330
25
100
AcDbEntity
  8
2
100
AcDbLine
 10
134.604304
 20
43.854221
 30
0.0
 11
135.758462
 21
43.775908
 31
0.0
  0
LINE
  5
50F
330
25
100
AcDbEntity
  8
2
100
AcDbLine
 10
121.604304
 20
43.132627
 30
0.0
 11
120.450147
 21
43.21094
 31
0.0
  0
LINE
  5
510
330
25
100
AcDbEntity
  8
2
100
AcDbLine
 10
134.327974
 20
48.378443
 30
0.0
 11
135.758462
 21
48.281381
 31
0.0
  0
LINE
  5
511
330
25
100
AcDbEntity
  8
2
100
AcDbLine
 10
121.604304
 20
47.6381
 30
0.0
 11
120.450147
 21
47.716413
 31
0.0
  0
LINE
  5
512
330
25
100
AcDbEntity
  8
2
100
AcDbLine
 10
125.946651
 20
53.169778
 30
0.0
 11
135.758462
 21
52.50401899999999
 31
0.0
  0
LINE
  5
513
330
25
100
AcDbEntity
  8
2
100
AcDbLine
 10
129.875467
 20
51.299518
 30
0.0
 11
120.450147
 21
51.939052
 31
0.0
  0
LINE
  5
514
330
25
100
AcDbEntity
  8
2
100
AcDbLine
 10
127.052293
 20
57.627054
 30
0.0
 11
135.758462
 21
57.03631600000001
 31
0.0
  0
LINE
  5
515
330
25
100
AcDbEntity
  8
2
100
AcDbLine
 10
130.261957
 20
55.80559
 30
0.0
 11
120.450147
 21
56.471349
 31
0.0
  0
LINE
  5
516
330
25
100
AcDbEntity
  8
2
100
AcDbLine
 10
126.25576
 20
61.42891099999999
 30
0.0
 11
135.758462
 21
60.784126
 31
0.0
  0
LINE
  5
517
330
25
100
AcDbEntity
  8
2
100
AcDbLine
 10
129.1563149999999
 20
59.62842099999999
 30
0.0
 11
120.450147
 21
60.21915899999999
 31
0.0
  0
LINE
  5
518
330
25
100
AcDbEntity
  8
2
100
AcDbLine
 10
126.835893
 20
65.670686
 30
0.0
 11
135.758462
 21
65.06526499999999
 31
0.0
  0
LINE
  5
519
330
25
100
AcDbEntity
  8
2
100
AcDbLine
 10
129.952849
 20
63.855513
 30
0.0
 11
120.450147
 21
64.500297
 31
0.0
  0
LINE
  5
51A
330
25
100
AcDbEntity
  8
2
100
AcDbLine
 10
134.367808
 20
69.03850799999999
 30
0.0
 11
135.758462
 21
68.944149
 31
0.0
  0
LINE
  5
51B
330
25
100
AcDbEntity
  8
2
100
AcDbLine
 10
129.372715
 20
67.77376
 30
0.0
 11
120.450147
 21
68.379181
 31
0.0
  0
LINE
  5
51C
330
25
100
AcDbEntity
  8
2
100
AcDbLine
 10
120.450147
 20
72.198038
 30
0.0
 11
121.604304
 21
72.119725
 31
0.0
  0
LINE
  5
51D
330
25
100
AcDbEntity
  8
2
100
AcDbLine
 10
135.758462
 20
72.76300500000001
 30
0.0
 11
134.604304
 21
72.841318
 31
0.0
  0
LINE
  5
51E
330
25
100
AcDbEntity
  8
2
100
AcDbLine
 10
135.758462
 20
39.603532
 30
0.0
 11
128.104304
 21
39.603532
 31
0.0
  0
LINE
  5
51F
330
25
100
AcDbEntity
  8
2
100
AcDbLine
 10
135.650147
 20
38.007202
 30
0.0
 11
134.104304
 21
38.007202
 31
0.0
  0
ARC
  5
520
330
25
100
AcDbEntity
  8
2
100
AcDbCircle
 10
128.104304
 20
38.805367
 30
0.0
 40
0.7981650000000001
100
AcDbArc
 50
90.0
 51
139.827467
  0
LINE
  5
521
330
25
100
AcDbEntity
  8
2
100
AcDbLine
 10
120.450147
 20
39.038564
 30
0.0
 11
121.604304
 21
38.960251
 31
0.0
  0
LINE
  5
522
330
25
100
AcDbEntity
  8
2
100
AcDbLine
 10
134.104304
 20
48.825511
 30
0.0
 11
125.878735
 21
48.825511
 31
0.0
  0
ARC
  5
523
330
25
100
AcDbEntity
  8
2
100
AcDbCircle
 10
154.604304
 20
9.334730999999999
 30
0.0
 40
0.5
100
AcDbArc
 50
270.0
 51
360.0
  0
ARC
  5
524
330
25
100
AcDbEntity
  8
2
100
AcDbCircle
 10
154.604304
 20
10.334731
 30
0.0
 40
0.5
100
AcDbArc
 50
0.0
 51
90.0
  0
LINE
  5
525
330
25
100
AcDbEntity
  8
2
100
AcDbLine
 10
155.104304
 20
9.334730999999999
 30
0.0
 11
155.104304
 21
10.334731
 31
0.0
  0
LINE
  5
526
330
25
100
AcDbEntity
  8
2
100
AcDbLine
 10
188.353285
 20
10.334731
 30
0.0
 11
188.353285
 21
9.334730999999999
 31
0.0
  0
LINE
  5
527
330
25
100
AcDbEntity
  8
2
100
AcDbLine
 10
185.604476
 20
10.334731
 30
0.0
 11
185.604476
 21
9.334730999999999
 31
0.0
  0
LINE
  5
528
330
25
100
AcDbEntity
  8
2
100
AcDbLine
 10
156.464848
 20
10.334731
 30
0.0
 11
156.464848
 21
9.334730999999999
 31
0.0
  0
LINE
  5
529
330
25
100
AcDbEntity
  8
2
100
AcDbLine
 10
148.918004
 20
10.334731
 30
0.0
 11
148.918004
 21
9.334730999999999
 31
0.0
  0
LINE
  5
52A
330
25
100
AcDbEntity
  8
2
100
AcDbLine
 10
144.542099
 20
10.334731
 30
0.0
 11
144.542099
 21
9.334730999999999
 31
0.0
  0
LINE
  5
52B
330
25
100
AcDbEntity
  8
2
100
AcDbLine
 10
136.632927
 20
10.334731
 30
0.0
 11
136.632927
 21
9.334730999999999
 31
0.0
  0
LINE
  5
52C
330
25
100
AcDbEntity
  8
2
100
AcDbLine
 10
121.104304
 20
10.334731
 30
0.0
 11
121.104304
 21
9.334730999999999
 31
0.0
  0
LINE
  5
52D
330
25
100
AcDbEntity
  8
2
100
AcDbLine
 10
180.592484
 20
10.334731
 30
0.0
 11
180.592484
 21
9.334730999999999
 31
0.0
  0
LINE
  5
52E
330
25
100
AcDbEntity
  8
2
100
AcDbLine
 10
177.389099
 20
10.334731
 30
0.0
 11
177.389099
 21
9.334730999999999
 31
0.0
  0
LINE
  5
52F
330
25
100
AcDbEntity
  8
2
100
AcDbLine
 10
171.236855
 20
10.334731
 30
0.0
 11
171.236855
 21
9.334730999999999
 31
0.0
  0
LINE
  5
530
330
25
100
AcDbEntity
  8
2
100
AcDbLine
 10
167.525876
 20
10.334731
 30
0.0
 11
167.525876
 21
9.334730999999999
 31
0.0
  0
LINE
  5
531
330
25
100
AcDbEntity
  8
2
100
AcDbLine
 10
160.570667
 20
10.834731
 30
0.0
 11
160.570667
 21
8.834730999999999
 31
0.0
  0
LINE
  5
532
330
25
100
AcDbEntity
  8
2
100
AcDbLine
 10
160.507586
 20
10.334731
 30
0.0
 11
160.507586
 21
9.334730999999999
 31
0.0
  0
ARC
  5
533
330
25
100
AcDbEntity
  8
2
100
AcDbCircle
 10
187.853285
 20
10.334731
 30
0.0
 40
0.5
100
AcDbArc
 50
0.0
 51
90.0
  0
ARC
  5
534
330
25
100
AcDbEntity
  8
2
100
AcDbCircle
 10
187.853285
 20
9.334730999999999
 30
0.0
 40
0.5
100
AcDbArc
 50
270.0
 51
360.0
  0
ARC
  5
535
330
25
100
AcDbEntity
  8
2
100
AcDbCircle
 10
185.104476
 20
10.334731
 30
0.0
 40
0.5
100
AcDbArc
 50
0.0
 51
90.0
  0
ARC
  5
536
330
25
100
AcDbEntity
  8
2
100
AcDbCircle
 10
185.104476
 20
9.334730999999999
 30
0.0
 40
0.5
100
AcDbArc
 50
270.0
 51
360.0
  0
ARC
  5
537
330
25
100
AcDbEntity
  8
2
100
AcDbCircle
 10
180.092484
 20
10.334731
 30
0.0
 40
0.5
100
AcDbArc
 50
0.0
 51
90.0
  0
ARC
  5
538
330
25
100
AcDbEntity
  8
2
100
AcDbCircle
 10
180.092484
 20
9.334730999999999
 30
0.0
 40
0.5
100
AcDbArc
 50
270.0
 51
360.0
  0
ARC
  5
539
330
25
100
AcDbEntity
  8
2
100
AcDbCircle
 10
176.889099
 20
10.334731
 30
0.0
 40
0.5
100
AcDbArc
 50
0.0
 51
90.0
  0
ARC
  5
53A
330
25
100
AcDbEntity
  8
2
100
AcDbCircle
 10
176.889099
 20
9.334730999999999
 30
0.0
 40
0.5
100
AcDbArc
 50
270.0
 51
360.0
  0
ARC
  5
53B
330
25
100
AcDbEntity
  8
2
100
AcDbCircle
 10
170.736855
 20
10.334731
 30
0.0
 40
0.5
100
AcDbArc
 50
0.0
 51
90.0
  0
ARC
  5
53C
330
25
100
AcDbEntity
  8
2
100
AcDbCircle
 10
170.736855
 20
9.334730999999999
 30
0.0
 40
0.5
100
AcDbArc
 50
270.0
 51
360.0
  0
ARC
  5
53D
330
25
100
AcDbEntity
  8
2
100
AcDbCircle
 10
167.025876
 20
10.334731
 30
0.0
 40
0.5
100
AcDbArc
 50
0.0
 51
90.0
  0
ARC
  5
53E
330
25
100
AcDbEntity
  8
2
100
AcDbCircle
 10
167.025876
 20
9.334730999999999
 30
0.0
 40
0.5
100
AcDbArc
 50
270.0
 51
360.0
  0
ARC
  5
53F
330
25
100
AcDbEntity
  8
2
100
AcDbCircle
 10
160.007586
 20
10.334731
 30
0.0
 40
0.5
100
AcDbArc
 50
0.0
 51
90.0
  0
ARC
  5
540
330
25
100
AcDbEntity
  8
2
100
AcDbCircle
 10
160.007586
 20
9.334730999999999
 30
0.0
 40
0.5
100
AcDbArc
 50
270.0
 51
360.0
  0
ARC
  5
541
330
25
100
AcDbEntity
  8
2
100
AcDbCircle
 10
156.964848
 20
10.334731
 30
0.0
 40
0.5
100
AcDbArc
 50
90.0
 51
180.0
  0
ARC
  5
542
330
25
100
AcDbEntity
  8
2
100
AcDbCircle
 10
156.964848
 20
9.334730999999999
 30
0.0
 40
0.5
100
AcDbArc
 50
180.0
 51
270.0
  0
ARC
  5
543
330
25
100
AcDbEntity
  8
2
100
AcDbCircle
 10
148.418004
 20
10.334731
 30
0.0
 40
0.5
100
AcDbArc
 50
0.0
 51
90.0
  0
ARC
  5
544
330
25
100
AcDbEntity
  8
2
100
AcDbCircle
 10
148.418004
 20
9.334730999999999
 30
0.0
 40
0.5
100
AcDbArc
 50
270.0
 51
360.0
  0
ARC
  5
545
330
25
100
AcDbEntity
  8
2
100
AcDbCircle
 10
145.042099
 20
10.334731
 30
0.0
 40
0.5
100
AcDbArc
 50
90.0
 51
180.0
  0
ARC
  5
546
330
25
100
AcDbEntity
  8
2
100
AcDbCircle
 10
145.042099
 20
9.334730999999999
 30
0.0
 40
0.5
100
AcDbArc
 50
180.0
 51
270.0
  0
ARC
  5
547
330
25
100
AcDbEntity
  8
2
100
AcDbCircle
 10
136.132927
 20
10.334731
 30
0.0
 40
0.5
100
AcDbArc
 50
0.0
 51
90.0
  0
ARC
  5
548
330
25
100
AcDbEntity
  8
2
100
AcDbCircle
 10
136.132927
 20
9.334730999999999
 30
0.0
 40
0.5
100
AcDbArc
 50
270.0
 51
360.0
  0
ARC
  5
549
330
25
100
AcDbEntity
  8
2
100
AcDbCircle
 10
120.604304
 20
10.334731
 30
0.0
 40
0.5
100
AcDbArc
 50
0.0
 51
90.0
  0
ARC
  5
54A
330
25
100
AcDbEntity
  8
2
100
AcDbCircle
 10
120.604304
 20
9.334730999999999
 30
0.0
 40
0.5
100
AcDbArc
 50
270.0
 51
360.0
  0
LINE
  5
54B
330
25
100
AcDbEntity
  8
2
100
AcDbLine
 10
101.104304
 20
9.334730999999999
 30
0.0
 11
101.104304
 21
10.334731
 31
0.0
  0
ARC
  5
54C
330
25
100
AcDbEntity
  8
2
100
AcDbCircle
 10
101.604304
 20
10.334731
 30
0.0
 40
0.5
100
AcDbArc
 50
90.0
 51
180.0
  0
LINE
  5
54D
330
25
100
AcDbEntity
  8
2
100
AcDbLine
 10
215.604304
 20
10.834731
 30
0.0
 11
134.104304
 21
10.834731
 31
0.0
  0
ARC
  5
54E
330
25
100
AcDbEntity
  8
2
100
AcDbCircle
 10
101.604304
 20
9.334730999999999
 30
0.0
 40
0.5
100
AcDbArc
 50
180.0
 51
270.0
  0
LINE
  5
54F
330
25
100
AcDbEntity
  8
2
100
AcDbLine
 10
215.604304
 20
8.834730999999999
 30
0.0
 11
134.104304
 21
8.834730999999999
 31
0.0
  0
LINE
  5
550
330
25
100
AcDbEntity
  8
2
100
AcDbLine
 10
122.104304
 20
8.834730999999999
 30
0.0
 11
65.604304
 21
8.834730999999999
 31
0.0
  0
LINE
  5
551
330
25
100
AcDbEntity
  8
2
100
AcDbLine
 10
122.104304
 20
10.834731
 30
0.0
 11
65.604304
 21
10.834731
 31
0.0
  0
LINE
  5
552
330
25
100
AcDbEntity
  8
2
100
AcDbLine
 10
65.604304
 20
10.834731
 30
0.0
 11
65.604304
 21
8.834730999999999
 31
0.0
  0
LINE
  5
553
330
25
100
AcDbEntity
  8
2
100
AcDbLine
 10
215.604304
 20
10.834731
 30
0.0
 11
215.604304
 21
8.834730999999999
 31
0.0
  0
LINE
  5
554
330
25
100
AcDbEntity
  8
2
100
AcDbLine
 10
200.492994
 20
10.834731
 30
0.0
 11
200.492994
 21
8.834730999999999
 31
0.0
  0
LINE
  5
555
330
25
100
AcDbEntity
  8
2
100
AcDbLine
 10
198.627471
 20
10.834731
 30
0.0
 11
198.627471
 21
8.834730999999999
 31
0.0
  0
LINE
  5
556
330
25
100
AcDbEntity
  8
2
100
AcDbLine
 10
194.654051
 20
10.834731
 30
0.0
 11
194.654051
 21
8.834730999999999
 31
0.0
  0
LINE
  5
557
330
25
100
AcDbEntity
  8
2
100
AcDbLine
 10
200.090602
 20
10.834731
 30
0.0
 11
200.090602
 21
8.834730999999999
 31
0.0
  0
LINE
  5
558
330
25
100
AcDbEntity
  8
2
100
AcDbLine
 10
197.500943
 20
10.834731
 30
0.0
 11
197.500943
 21
8.834730999999999
 31
0.0
  0
LINE
  5
559
330
25
100
AcDbEntity
  8
2
100
AcDbLine
 10
192.802701
 20
10.834731
 30
0.0
 11
192.802701
 21
8.834730999999999
 31
0.0
  0
POINT
  5
55A
330
25
100
AcDbEntity
  8
2
100
AcDbPoint
 10
108.104304
 20
27.834731
 30
0.0
  0
LINE
  5
55B
330
25
100
AcDbEntity
  8
2
100
AcDbLine
 10
108.104304
 20
27.834731
 30
0.0
 11
108.104304
 21
21.334731
 31
0.0
  0
LINE
  5
55C
330
25
100
AcDbEntity
  8
2
100
AcDbLine
 10
108.104304
 20
21.334731
 30
0.0
 11
102.325992
 21
21.334731
 31
0.0
  0
LINE
  5
55D
330
25
100
AcDbEntity
  8
2
100
AcDbLine
 10
101.604304
 20
24.584731
 30
0.0
 11
101.604304
 21
27.834731
 31
0.0
  0
LINE
  5
55E
330
25
100
AcDbEntity
  8
2
100
AcDbLine
 10
108.104304
 20
27.834731
 30
0.0
 11
102.325992
 21
27.834731
 31
0.0
  0
ARC
  5
55F
330
25
100
AcDbEntity
  8
2
100
AcDbCircle
 10
109.283062
 20
24.584731
 30
0.0
 40
7.678758999999999
100
AcDbArc
 50
154.96034
 51
205.03966
  0
LINE
  5
560
330
25
100
AcDbEntity
  8
2
100
AcDbLine
 10
108.104304
 20
27.834731
 30
0.0
 11
108.104304
 21
34.334731
 31
0.0
  0
LINE
  5
561
330
25
100
AcDbEntity
  8
2
100
AcDbLine
 10
108.104304
 20
34.334731
 30
0.0
 11
102.325992
 21
34.334731
 31
0.0
  0
LINE
  5
562
330
25
100
AcDbEntity
  8
2
100
AcDbLine
 10
101.604304
 20
31.084731
 30
0.0
 11
101.604304
 21
27.834731
 31
0.0
  0
LINE
  5
563
330
25
100
AcDbEntity
  8
2
100
AcDbLine
 10
108.104304
 20
27.834731
 30
0.0
 11
102.325992
 21
27.834731
 31
0.0
  0
ARC
  5
564
330
25
100
AcDbEntity
  8
2
100
AcDbCircle
 10
109.283062
 20
31.084731
 30
0.0
 40
7.678758999999999
100
AcDbArc
 50
154.96034
 51
205.03966
  0
LINE
  5
565
330
25
100
AcDbEntity
  8
2
100
AcDbLine
 10
96.104304
 20
27.834731
 30
0.0
 11
96.104304
 21
31.158231
 31
0.0
  0
LINE
  5
566
330
25
100
AcDbEntity
  8
2
100
AcDbLine
 10
96.104304
 20
31.158231
 30
0.0
 11
96.780804
 21
31.834731
 31
0.0
  0
LINE
  5
567
330
25
100
AcDbEntity
  8
2
100
AcDbLine
 10
96.780804
 20
31.834731
 30
0.0
 11
101.641019
 21
31.834731
 31
0.0
  0
LINE
  5
568
330
25
100
AcDbEntity
  8
2
100
AcDbLine
 10
96.780804
 20
31.834731
 30
0.0
 11
96.780804
 21
27.834731
 31
0.0
  0
LINE
  5
569
330
25
100
AcDbEntity
  8
2
 62
     2
100
AcDbLine
 10
96.104304
 20
31.158231
 30
0.0
 11
101.604656
 21
31.158231
 31
0.0
  0
LINE
  5
56A
330
25
100
AcDbEntity
  8
2
100
AcDbLine
 10
96.104304
 20
27.834731
 30
0.0
 11
96.104304
 21
24.511231
 31
0.0
  0
LINE
  5
56B
330
25
100
AcDbEntity
  8
2
100
AcDbLine
 10
96.104304
 20
24.511231
 30
0.0
 11
96.780804
 21
23.834731
 31
0.0
  0
LINE
  5
56C
330
25
100
AcDbEntity
  8
2
100
AcDbLine
 10
96.780804
 20
23.834731
 30
0.0
 11
101.641019
 21
23.834731
 31
0.0
  0
LINE
  5
56D
330
25
100
AcDbEntity
  8
2
100
AcDbLine
 10
96.780804
 20
23.834731
 30
0.0
 11
96.780804
 21
27.834731
 31
0.0
  0
LINE
  5
56E
330
25
100
AcDbEntity
  8
2
 62
     2
100
AcDbLine
 10
96.104304
 20
24.511231
 30
0.0
 11
101.604656
 21
24.511231
 31
0.0
  0
POINT
  5
56F
330
25
100
AcDbEntity
  8
2
100
AcDbPoint
 10
164.16675
 20
10.834731
 30
0.0
  0
LINE
  5
570
330
25
100
AcDbEntity
  8
2
100
AcDbLine
 10
164.16675
 20
10.834731
 30
0.0
 11
155.66675
 21
10.834731
 31
0.0
  0
LINE
  5
571
330
25
100
AcDbEntity
  8
2
100
AcDbLine
 10
155.604304
 20
10.834731
 30
0.0
 11
155.604304
 21
16.939838
 31
0.0
  0
LINE
  5
572
330
25
100
AcDbEntity
  8
2
100
AcDbLine
 10
159.854304
 20
17.834731
 30
0.0
 11
164.104304
 21
17.834731
 31
0.0
  0
LINE
  5
573
330
25
100
AcDbEntity
  8
2
100
AcDbLine
 10
164.104304
 20
10.834731
 30
0.0
 11
164.104304
 21
16.939838
 31
0.0
  0
ARC
  5
574
330
25
100
AcDbEntity
  8
2
100
AcDbCircle
 10
159.854304
 20
7.295294999999999
 30
0.0
 40
10.539436
100
AcDbArc
 50
66.218654
 51
113.781346
  0
LINE
  5
575
330
25
100
AcDbEntity
  8
2
100
AcDbLine
 10
164.104304
 20
-19.165269
 30
0.0
 11
159.916304
 21
-19.165269
 31
0.0
  0
LINE
  5
576
330
25
100
AcDbEntity
  8
2
100
AcDbLine
 10
159.916304
 20
-19.165269
 30
0.0
 11
159.104304
 21
-18.353269
 31
0.0
  0
LINE
  5
577
330
25
100
AcDbEntity
  8
2
100
AcDbLine
 10
159.104304
 20
-18.353269
 30
0.0
 11
159.104304
 21
-15.63855
 31
0.0
  0
LINE
  5
578
330
25
100
AcDbEntity
  8
2
100
AcDbLine
 10
159.104304
 20
-18.353269
 30
0.0
 11
164.104304
 21
-18.353269
 31
0.0
  0
LINE
  5
579
330
25
100
AcDbEntity
  8
2
 62
     2
100
AcDbLine
 10
159.916304
 20
-19.165269
 30
0.0
 11
159.916304
 21
-15.665087
 31
0.0
  0
LINE
  5
57A
330
25
100
AcDbEntity
  8
2
100
AcDbLine
 10
164.16675
 20
10.834731
 30
0.0
 11
172.66675
 21
10.834731
 31
0.0
  0
LINE
  5
57B
330
25
100
AcDbEntity
  8
2
100
AcDbLine
 10
172.604304
 20
10.834731
 30
0.0
 11
172.604304
 21
16.939838
 31
0.0
  0
LINE
  5
57C
330
25
100
AcDbEntity
  8
2
100
AcDbLine
 10
168.354304
 20
17.834731
 30
0.0
 11
164.104304
 21
17.834731
 31
0.0
  0
LINE
  5
57D
330
25
100
AcDbEntity
  8
2
100
AcDbLine
 10
164.104304
 20
10.834731
 30
0.0
 11
164.104304
 21
16.939838
 31
0.0
  0
ARC
  5
57E
330
25
100
AcDbEntity
  8
2
100
AcDbCircle
 10
168.354304
 20
7.295294999999999
 30
0.0
 40
10.539436
100
AcDbArc
 50
66.218654
 51
113.781346
  0
LINE
  5
57F
330
25
100
AcDbEntity
  8
2
100
AcDbLine
 10
164.104304
 20
-19.165269
 30
0.0
 11
168.292304
 21
-19.165269
 31
0.0
  0
LINE
  5
580
330
25
100
AcDbEntity
  8
2
100
AcDbLine
 10
168.292304
 20
-19.165269
 30
0.0
 11
169.104304
 21
-18.353269
 31
0.0
  0
LINE
  5
581
330
25
100
AcDbEntity
  8
2
100
AcDbLine
 10
169.104304
 20
-18.353269
 30
0.0
 11
169.104304
 21
-15.63855
 31
0.0
  0
LINE
  5
582
330
25
100
AcDbEntity
  8
2
100
AcDbLine
 10
169.104304
 20
-18.353269
 30
0.0
 11
164.104304
 21
-18.353269
 31
0.0
  0
LINE
  5
583
330
25
100
AcDbEntity
  8
2
 62
     2
100
AcDbLine
 10
168.292304
 20
-19.165269
 30
0.0
 11
168.292304
 21
-15.665087
 31
0.0
  0
POINT
  5
584
330
25
100
AcDbEntity
  8
2
100
AcDbPoint
 10
164.104304
 20
-5.165269
 30
0.0
  0
LINE
  5
585
330
25
100
AcDbEntity
  8
2
  6
CENTER
 62
     2
100
AcDbLine
 10
164.104304
 20
21.003064
 30
0.0
 11
164.104304
 21
-25.665269
 31
0.0
  0
LINE
  5
586
330
25
100
AcDbEntity
  8
2
100
AcDbLine
 10
172.604304
 20
-7.665269
 30
0.0
 11
172.604304
 21
-14.770376
 31
0.0
  0
LINE
  5
587
330
25
100
AcDbEntity
  8
2
100
AcDbLine
 10
168.354304
 20
-15.665269
 30
0.0
 11
164.104304
 21
-15.665269
 31
0.0
  0
LINE
  5
588
330
25
100
AcDbEntity
  8
2
100
AcDbLine
 10
164.104304
 20
-7.665269
 30
0.0
 11
164.104304
 21
-14.770376
 31
0.0
  0
ARC
  5
589
330
25
100
AcDbEntity
  8
2
100
AcDbCircle
 10
168.354304
 20
-5.125833
 30
0.0
 40
10.539436
100
AcDbArc
 50
246.218654
 51
293.781346
  0
LINE
  5
58A
330
25
100
AcDbEntity
  8
2
100
AcDbLine
 10
164.104304
 20
-7.665269
 30
0.0
 11
163.53927
 21
-7.665269
 31
0.0
  0
LINE
  5
58B
330
25
100
AcDbEntity
  8
2
100
AcDbLine
 10
155.604304
 20
-13.071738
 30
0.0
 11
155.604304
 21
-14.770376
 31
0.0
  0
LINE
  5
58C
330
25
100
AcDbEntity
  8
2
100
AcDbLine
 10
159.854304
 20
-15.665269
 30
0.0
 11
164.104304
 21
-15.665269
 31
0.0
  0
LINE
  5
58D
330
25
100
AcDbEntity
  8
2
100
AcDbLine
 10
164.104304
 20
-7.665269
 30
0.0
 11
164.104304
 21
-14.770376
 31
0.0
  0
ARC
  5
58E
330
25
100
AcDbEntity
  8
2
100
AcDbCircle
 10
159.854304
 20
-5.125833
 30
0.0
 40
10.539436
100
AcDbArc
 50
246.218654
 51
293.781346
  0
LINE
  5
58F
330
25
100
AcDbEntity
  8
2
100
AcDbLine
 10
173.304304
 20
-5.165269
 30
0.0
 11
173.304304
 21
-7.665269
 31
0.0
  0
LINE
  5
590
330
25
100
AcDbEntity
  8
2
100
AcDbLine
 10
173.304304
 20
-7.665269
 30
0.0
 11
163.53927
 21
-7.665269
 31
0.0
  0
LINE
  5
591
330
25
100
AcDbEntity
  8
2
100
AcDbLine
 10
154.904304
 20
-5.165269
 30
0.0
 11
173.304304
 21
-5.165269
 31
0.0
  0
POINT
  5
592
330
25
100
AcDbEntity
  8
2
100
AcDbPoint
 10
92.04185799999999
 20
10.834731
 30
0.0
  0
LINE
  5
593
330
25
100
AcDbEntity
  8
2
100
AcDbLine
 10
92.04185799999999
 20
10.834731
 30
0.0
 11
100.541858
 21
10.834731
 31
0.0
  0
LINE
  5
594
330
25
100
AcDbEntity
  8
2
100
AcDbLine
 10
100.604304
 20
10.834731
 30
0.0
 11
100.604304
 21
16.939838
 31
0.0
  0
LINE
  5
595
330
25
100
AcDbEntity
  8
2
100
AcDbLine
 10
96.354304
 20
17.834731
 30
0.0
 11
92.10430399999999
 21
17.834731
 31
0.0
  0
LINE
  5
596
330
25
100
AcDbEntity
  8
2
100
AcDbLine
 10
92.10430399999999
 20
10.834731
 30
0.0
 11
92.10430399999999
 21
16.939838
 31
0.0
  0
ARC
  5
597
330
25
100
AcDbEntity
  8
2
100
AcDbCircle
 10
96.354304
 20
7.295294999999999
 30
0.0
 40
10.539436
100
AcDbArc
 50
66.218654
 51
113.781346
  0
LINE
  5
598
330
25
100
AcDbEntity
  8
2
100
AcDbLine
 10
92.10430399999999
 20
-19.165269
 30
0.0
 11
96.292304
 21
-19.165269
 31
0.0
  0
LINE
  5
599
330
25
100
AcDbEntity
  8
2
100
AcDbLine
 10
96.292304
 20
-19.165269
 30
0.0
 11
97.10430399999999
 21
-18.353269
 31
0.0
  0
LINE
  5
59A
330
25
100
AcDbEntity
  8
2
100
AcDbLine
 10
97.10430399999999
 20
-18.353269
 30
0.0
 11
97.10430399999999
 21
-15.63855
 31
0.0
  0
LINE
  5
59B
330
25
100
AcDbEntity
  8
2
100
AcDbLine
 10
97.10430399999999
 20
-18.353269
 30
0.0
 11
92.10430399999999
 21
-18.353269
 31
0.0
  0
LINE
  5
59C
330
25
100
AcDbEntity
  8
2
 62
     2
100
AcDbLine
 10
96.292304
 20
-19.165269
 30
0.0
 11
96.292304
 21
-15.665087
 31
0.0
  0
LINE
  5
59D
330
25
100
AcDbEntity
  8
2
100
AcDbLine
 10
92.04185799999999
 20
10.834731
 30
0.0
 11
83.54185799999999
 21
10.834731
 31
0.0
  0
LINE
  5
59E
330
25
100
AcDbEntity
  8
2
100
AcDbLine
 10
83.604304
 20
10.834731
 30
0.0
 11
83.604304
 21
16.939838
 31
0.0
  0
LINE
  5
59F
330
25
100
AcDbEntity
  8
2
100
AcDbLine
 10
87.854304
 20
17.834731
 30
0.0
 11
92.10430399999999
 21
17.834731
 31
0.0
  0
LINE
  5
5A0
330
25
100
AcDbEntity
  8
2
100
AcDbLine
 10
92.10430399999999
 20
10.834731
 30
0.0
 11
92.10430399999999
 21
16.939838
 31
0.0
  0
ARC
  5
5A1
330
25
100
AcDbEntity
  8
2
100
AcDbCircle
 10
87.854304
 20
7.295294999999999
 30
0.0
 40
10.539436
100
AcDbArc
 50
66.218654
 51
113.781346
  0
LINE
  5
5A2
330
25
100
AcDbEntity
  8
2
100
AcDbLine
 10
92.10430399999999
 20
-19.165269
 30
0.0
 11
87.916304
 21
-19.165269
 31
0.0
  0
LINE
  5
5A3
330
25
100
AcDbEntity
  8
2
100
AcDbLine
 10
87.916304
 20
-19.165269
 30
0.0
 11
87.10430399999999
 21
-18.353269
 31
0.0
  0
LINE
  5
5A4
330
25
100
AcDbEntity
  8
2
100
AcDbLine
 10
87.10430399999999
 20
-18.353269
 30
0.0
 11
87.10430399999999
 21
-15.63855
 31
0.0
  0
LINE
  5
5A5
330
25
100
AcDbEntity
  8
2
100
AcDbLine
 10
87.10430399999999
 20
-18.353269
 30
0.0
 11
92.10430399999999
 21
-18.353269
 31
0.0
  0
LINE
  5
5A6
330
25
100
AcDbEntity
  8
2
 62
     2
100
AcDbLine
 10
87.916304
 20
-19.165269
 30
0.0
 11
87.916304
 21
-15.665087
 31
0.0
  0
POINT
  5
5A7
330
25
100
AcDbEntity
  8
2
100
AcDbPoint
 10
92.10430399999999
 20
-5.165269
 30
0.0
  0
LINE
  5
5A8
330
25
100
AcDbEntity
  8
2
  6
CENTER
 62
     2
100
AcDbLine
 10
92.10430399999999
 20
20.366255
 30
0.0
 11
92.10430399999999
 21
-25.665269
 31
0.0
  0
LINE
  5
5A9
330
25
100
AcDbEntity
  8
2
100
AcDbLine
 10
92.10430399999999
 20
-7.665269
 30
0.0
 11
83.604304
 21
-7.665269
 31
0.0
  0
LINE
  5
5AA
330
25
100
AcDbEntity
  8
2
100
AcDbLine
 10
83.604304
 20
-7.665269
 30
0.0
 11
83.604304
 21
-14.770376
 31
0.0
  0
LINE
  5
5AB
330
25
100
AcDbEntity
  8
2
100
AcDbLine
 10
87.854304
 20
-15.665269
 30
0.0
 11
92.10430399999999
 21
-15.665269
 31
0.0
  0
LINE
  5
5AC
330
25
100
AcDbEntity
  8
2
100
AcDbLine
 10
92.10430399999999
 20
-7.665269
 30
0.0
 11
92.10430399999999
 21
-14.770376
 31
0.0
  0
ARC
  5
5AD
330
25
100
AcDbEntity
  8
2
100
AcDbCircle
 10
87.854304
 20
-5.125833
 30
0.0
 40
10.539436
100
AcDbArc
 50
246.218654
 51
293.781346
  0
LINE
  5
5AE
330
25
100
AcDbEntity
  8
2
100
AcDbLine
 10
92.10430399999999
 20
-7.665269
 30
0.0
 11
100.604304
 21
-7.665269
 31
0.0
  0
LINE
  5
5AF
330
25
100
AcDbEntity
  8
2
100
AcDbLine
 10
100.604304
 20
-7.665269
 30
0.0
 11
100.604304
 21
-14.770376
 31
0.0
  0
LINE
  5
5B0
330
25
100
AcDbEntity
  8
2
100
AcDbLine
 10
96.354304
 20
-15.665269
 30
0.0
 11
92.10430399999999
 21
-15.665269
 31
0.0
  0
LINE
  5
5B1
330
25
100
AcDbEntity
  8
2
100
AcDbLine
 10
92.10430399999999
 20
-7.665269
 30
0.0
 11
92.10430399999999
 21
-14.770376
 31
0.0
  0
ARC
  5
5B2
330
25
100
AcDbEntity
  8
2
100
AcDbCircle
 10
96.354304
 20
-5.125833
 30
0.0
 40
10.539436
100
AcDbArc
 50
246.218654
 51
293.781346
  0
LINE
  5
5B3
330
25
100
AcDbEntity
  8
2
100
AcDbLine
 10
82.90430400000001
 20
-5.165269
 30
0.0
 11
82.90430400000001
 21
-7.665269
 31
0.0
  0
LINE
  5
5B4
330
25
100
AcDbEntity
  8
2
100
AcDbLine
 10
82.90430400000001
 20
-7.665269
 30
0.0
 11
101.304304
 21
-7.665269
 31
0.0
  0
LINE
  5
5B5
330
25
100
AcDbEntity
  8
2
100
AcDbLine
 10
101.304304
 20
-7.665269
 30
0.0
 11
101.304304
 21
-5.165269
 31
0.0
  0
LINE
  5
5B6
330
25
100
AcDbEntity
  8
2
100
AcDbLine
 10
101.304304
 20
-5.165269
 30
0.0
 11
82.90430400000001
 21
-5.165269
 31
0.0
  0
LINE
  5
5B7
330
25
100
AcDbEntity
  8
2
100
AcDbLine
 10
137.104304
 20
19.834731
 30
0.0
 11
137.104304
 21
10.834731
 31
0.0
  0
ARC
  5
5B8
330
25
100
AcDbEntity
  8
2
100
AcDbCircle
 10
-330.570696
 20
236.509731
 30
0.0
 40
62.5
100
AcDbArc
 50
121.541246
 51
327.184507
  0
DIMENSION
  5
5B9
330
25
100
AcDbEntity
  8
5
100
AcDbDimension
  2
*D0
 10
40.82346199999999
 20
8.834730999999999
 30
0.0
 11
28.928462
 21
-92.66026899999999
 31
0.0
  1
202
 71
     5
 42
-1.0
100
AcDbAlignedDimension
 13
71.890754
 23
-193.165269
 33
0.0
 14
65.604304
 24
8.834730999999999
 34
0.0
 50
90.0
100
AcDbRotatedDimension
  0
DIMENSION
  5
5BA
330
25
100
AcDbEntity
  8
5
100
AcDbDimension
  2
*D1
 10
40.82346199999999
 20
-193.165269
 30
0.0
 11
28.928462
 21
-260.510269
 31
0.0
  1
134
 71
     5
 42
-1.0
100
AcDbAlignedDimension
 13
123.104304
 23
-326.865269
 33
0.0
 14
71.890754
 24
-193.165269
 34
0.0
 50
90.0
100
AcDbRotatedDimension
  0
DIMENSION
  5
5BB
330
25
100
AcDbEntity
  8
5
100
AcDbDimension
  2
*D2
 10
156.104304
 20
-361.434769
 30
0.0
 11
128.104304
 21
-354.984769
 31
0.0
  1
56
 71
     5
 42
-1.0
100
AcDbAlignedDimension
 13
100.104304
 23
-297.665269
 33
0.0
 14
156.104304
 24
-297.665269
 34
0.0
100
AcDbRotatedDimension
  0
DIMENSION
  5
5BC
330
25
100
AcDbEntity
  8
5
100
AcDbDimension
  2
*D3
 10
-474.209747
 20
324.009731
 30
0.0
 11
-489.5697469999999
 21
276.299731
 31
0.0
  1
87.5
 71
     5
 42
-1.0
100
AcDbAlignedDimension
 13
-451.8031759999999
 23
236.509731
 33
0.0
 14
-347.570696
 24
324.009731
 34
0.0
 50
90.0
100
AcDbRotatedDimension
  0
DIMENSION
  5
5BD
330
25
100
AcDbEntity
  8
5
100
AcDbDimension
  2
*D4
 10
-474.209747
 20
236.509731
 30
0.0
 11
-489.5697469999999
 21
201.299731
 31
0.0
  1
62.5
 71
     5
 42
-1.0
100
AcDbAlignedDimension
 13
-330.570696
 23
174.009731
 33
0.0
 14
-451.8031759999999
 24
236.509731
 34
0.0
 50
90.0
100
AcDbRotatedDimension
  0
TEXT
  5
5BE
330
25
100
AcDbEntity
  8
5
100
AcDbText
 10
39.323461
 20
27.166544
 30
0.0
 40
9.9
  1
92(概略)
 50
90.0
 41
1.002872512376911
 72
     5
 11
39.323461
 21
79.83454300000001
 31
0.0
100
AcDbText
  0
DIMENSION
  5
5BF
330
25
100
AcDbEntity
  8
5
100
AcDbDimension
  2
*D5
 10
40.82346199999999
 20
100.938356
 30
0.0
 11
38.323462
 21
54.88654399999999
 31
0.0
 71
     5
 42
-1.0
100
AcDbAlignedDimension
 13
65.604304
 23
8.834730999999999
 33
0.0
 14
120.81539
 24
100.938356
 34
0.0
 50
90.0
100
AcDbRotatedDimension
  0
TEXT
  5
5C0
330
25
100
AcDbEntity
  8
5
100
AcDbText
 10
-191.054286
 20
115.36219
 30
0.0
 40
9.9
  1
300
 41
0.7077777777777776
 72
     5
 11
-173.036286
 21
115.36219
 31
0.0
100
AcDbText
  0
DIMENSION
  5
5C1
330
25
100
AcDbEntity
  8
5
100
AcDbDimension
  2
*D6
 10
-30.747875
 20
113.86219
 30
0.0
 11
-180.659286
 21
115.8621899999999
 31
0.0
 71
     5
 42
-1.0
100
AcDbAlignedDimension
 13
-330.570696
 23
60.519144
 33
0.0
 14
-30.747875
 24
90.563192
 34
0.0
100
AcDbRotatedDimension
  0
TEXT
  5
5C2
330
25
100
AcDbEntity
  8
18
100
AcDbText
 10
366.433891
 20
-399.791977
 30
0.0
 40
9.0
  1
1
100
AcDbText
  0
TEXT
  5
5C3
330
25
100
AcDbEntity
  8
18
100
AcDbText
 10
368.562721
 20
-381.105789
 30
0.0
 40
9.0
  1
標準仕様　JIS 5K,10K
100
AcDbText
  0
TEXT
  5
5C4
330
25
100
AcDbEntity
  8
18
100
AcDbText
 10
379.623688
 20
-411.30304
 30
0.0
 40
9.0
  1
3
100
AcDbText
  0
TEXT
  5
5C5
330
25
100
AcDbEntity
  8
18
100
AcDbText
 10
368.562721
 20
-369.105789
 30
0.0
 40
9.0
  1
700G－1TLS   150A
100
AcDbText
  0
TEXT
  5
5C6
330
25
100
AcDbEntity
  8
18
100
AcDbText
 10
548.11734
 20
-380.984734
 30
0.0
 40
6.75
  1
'05. 1.25
100
AcDbText
  0
TEXT
  5
5C7
330
25
100
AcDbEntity
  8
18
100
AcDbText
 10
460.8
 20
-408.0
 30
0.0
 40
15.0
  1
D3－03636
100
AcDbText
  0
LINE
  5
5C8
330
25
100
AcDbEntity
  8
20
 62
     3
100
AcDbLine
 10
-540.0
 20
-415.5
 30
0.0
 11
600.0
 21
-415.5
 31
0.0
  0
LINE
  5
5C9
330
25
100
AcDbEntity
  8
20
 62
     3
100
AcDbLine
 10
-540.0
 20
396.0
 30
0.0
 11
600.0
 21
396.0
 31
0.0
  0
LINE
  5
5CA
330
25
100
AcDbEntity
  8
20
 62
     3
100
AcDbLine
 10
-540.0
 20
396.0
 30
0.0
 11
-540.0
 21
-415.5
 31
0.0
  0
LINE
  5
5CB
330
25
100
AcDbEntity
  8
20
 62
     3
100
AcDbLine
 10
600.0
 20
396.0
 30
0.0
 11
600.0
 21
-415.5
 31
0.0
  0
LINE
  5
5CC
330
25
100
AcDbEntity
  8
20
 62
     3
100
AcDbLine
 10
180.0
 20
-415.5
 30
0.0
 11
180.0
 21
-355.5
 31
0.0
  0
LINE
  5
5CD
330
25
100
AcDbEntity
  8
20
 62
     3
100
AcDbLine
 10
321.0
 20
-415.5
 30
0.0
 11
321.0
 21
-355.5
 31
0.0
  0
LINE
  5
5CE
330
25
100
AcDbEntity
  8
20
100
AcDbLine
 10
321.0
 20
-385.5
 30
0.0
 11
600.0
 21
-385.5
 31
0.0
  0
LINE
  5
5CF
330
25
100
AcDbEntity
  8
20
 62
     3
100
AcDbLine
 10
180.0
 20
-355.5
 30
0.0
 11
600.0
 21
-355.5
 31
0.0
  0
LINE
  5
5D0
330
25
100
AcDbEntity
  8
20
100
AcDbLine
 10
540.0
 20
-385.5
 30
0.0
 11
540.0
 21
-355.5
 31
0.0
  0
LINE
  5
5D1
330
25
100
AcDbEntity
  8
20
100
AcDbLine
 10
540.0
 20
-370.5
 30
0.0
 11
600.0
 21
-370.5
 31
0.0
  0
LINE
  5
5D2
330
25
100
AcDbEntity
  8
20
100
AcDbLine
 10
363.0
 20
-415.5
 30
0.0
 11
363.0
 21
-355.5
 31
0.0
  0
LINE
  5
5D3
330
25
100
AcDbEntity
  8
20
100
AcDbLine
 10
393.0
 20
-415.5
 30
0.0
 11
393.0
 21
-385.5
 31
0.0
  0
LINE
  5
5D4
330
25
100
AcDbEntity
  8
20
100
AcDbLine
 10
453.0
 20
-415.5
 30
0.0
 11
453.0
 21
-385.5
 31
0.0
  0
LINE
  5
5D5
330
25
100
AcDbEntity
  8
20
100
AcDbLine
 10
371.185244
 20
-407.3147559999999
 30
0.0
 11
383.694872
 21
-394.8051279999999
 31
0.0
  0
TEXT
  5
5D6
330
25
100
AcDbEntity
  8
20
100
AcDbText
 10
397.1018576825367
 20
-397.490753
 30
0.0
 40
5.4
  1
DRAWING No.
100
AcDbText
  0
TEXT
  5
5D7
330
25
100
AcDbEntity
  8
20
100
AcDbText
 10
400.4999999999999
 20
-409.4999999999999
 30
0.0
 40
9.0
  1
図　　番
100
AcDbText
  0
TEXT
  5
5D8
330
25
100
AcDbEntity
  8
20
100
AcDbText
 10
558.0
 20
-366.0
 30
0.0
 40
6.0
  1
DATE
100
AcDbText
  0
TEXT
  5
5D9
330
25
100
AcDbEntity
  8
20
100
AcDbText
 10
327.003213
 20
-398.883087
 30
0.0
 40
6.0
  1
SCALE
100
AcDbText
  0
TEXT
  5
5DA
330
25
100
AcDbEntity
  8
20
100
AcDbText
 10
324.0
 20
-409.4999999999999
 30
0.0
 40
9.0
  1
尺　度
100
AcDbText
  0
TEXT
  5
5DB
330
25
100
AcDbEntity
  8
20
100
AcDbText
 10
324.692348442316
 20
-367.487654
 30
0.0
 40
6.0
  1
FIG. No.
100
AcDbText
  0
TEXT
  5
5DC
330
25
100
AcDbEntity
  8
20
100
AcDbText
 10
324.0
 20
-379.5
 30
0.0
 40
9.0
  1
名　称
100
AcDbText
  0
TEXT
  5
5DD
330
25
100
AcDbEntity
  8
20
100
AcDbText
 10
191.0785872497045
 20
-379.410759
 30
0.0
 40
6.9
  1
TOMOE VALVE Co., LTD.
100
AcDbText
  0
TEXT
  5
5DE
330
25
100
AcDbEntity
  8
20
100
AcDbText
 10
194.6816564585792
 20
-399.869431
 30
0.0
 40
12.0
  1
巴バルブ株式会社
100
AcDbText
  0
ENDSEC
  0
SECTION
  2
OBJECTS
  0
DICTIONARY
  5
631
330
0
100
AcDbDictionary
281
     1
  3
ACAD_COLOR
350
668
  3
ACAD_GROUP
350
632
  3
ACAD_LAYOUT
350
690
  3
ACAD_MATERIAL
350
63E
  3
ACAD_MLEADERSTYLE
350
68D
  3
ACAD_MLINESTYLE
350
633
  3
ACAD_PLOTSETTINGS
350
691
  3
ACAD_PLOTSTYLENAME
350
63C
  3
ACAD_SCALELIST
350
66B
  3
ACAD_TABLESTYLE
350
669
  3
ACAD_VISUALSTYLE
350
657
  3
ACDB_RECOMPOSE_DATA
350
6AC
  3
AcDbVariableDictionary
350
6A3
  3
DWGPROPS
350
6AD
  0
DICTIONARY
  5
697
330
15
100
AcDbDictionary
280
     1
281
     1
  3
ADSK_XREC_LAYER_RECONCILED
360
698
  0
DICTIONARY
  5
699
330
16
100
AcDbDictionary
280
     1
281
     1
  3
ADSK_XREC_LAYER_RECONCILED
360
69A
  0
DICTIONARY
  5
69B
330
17
100
AcDbDictionary
280
     1
281
     1
  3
ADSK_XREC_LAYER_RECONCILED
360
69C
  0
DICTIONARY
  5
69D
330
18
100
AcDbDictionary
280
     1
281
     1
  3
ADSK_XREC_LAYER_RECONCILED
360
69E
  0
DICTIONARY
  5
69F
330
19
100
AcDbDictionary
280
     1
281
     1
  3
ADSK_XREC_LAYER_RECONCILED
360
6A0
  0
DICTIONARY
  5
6A1
330
1A
100
AcDbDictionary
280
     1
281
     1
  3
ADSK_XREC_LAYER_RECONCILED
360
6A2
  0
DICTIONARY
  5
668
102
{ACAD_REACTORS
330
631
102
}
330
631
100
AcDbDictionary
281
     1
  0
DICTIONARY
  5
632
102
{ACAD_REACTORS
330
631
102
}
330
631
100
AcDbDictionary
281
     1
  0
DICTIONARY
  5
690
102
{ACAD_REACTORS
330
631
102
}
330
631
100
AcDbDictionary
281
     1
  3
Model
350
692
  3
レイアウト1
350
693
  0
DICTIONARY
  5
63E
102
{ACAD_REACTORS
330
631
102
}
330
631
100
AcDbDictionary
281
     1
  3
ByBlock
350
647
  3
ByLayer
350
63F
  3
Global
350
64F
  0
DICTIONARY
  5
68D
102
{ACAD_REACTORS
330
631
102
}
330
631
100
AcDbDictionary
281
     1
  3
Standard
350
68E
  0
DICTIONARY
  5
633
102
{ACAD_REACTORS
330
631
102
}
330
631
100
AcDbDictionary
281
     1
  3
STANDARD
350
634
  0
DICTIONARY
  5
691
102
{ACAD_REACTORS
330
631
102
}
330
631
100
AcDbDictionary
281
     1
  0
ACDBDICTIONARYWDFLT
  5
63C
102
{ACAD_REACTORS
330
631
102
}
330
631
100
AcDbDictionary
281
     1
  3
Normal
350
63D
100
AcDbDictionaryWithDefault
340
63D
  0
DICTIONARY
  5
66B
102
{ACAD_REACTORS
330
631
102
}
330
631
100
AcDbDictionary
281
     1
  3
A0
350
66C
  3
A1
350
66D
  3
A2
350
66E
  3
A3
350
66F
  3
A4
350
670
  3
A5
350
671
  3
A6
350
672
  3
A7
350
673
  3
A8
350
674
  3
A9
350
675
  3
B0
350
676
  3
B1
350
677
  3
B2
350
678
  3
B3
350
679
  3
B4
350
67A
  3
B5
350
67B
  3
B6
350
67C
  3
B7
350
67D
  3
B8
350
67E
  3
B9
350
67F
  3
C0
350
680
  3
C1
350
681
  3
C2
350
682
  3
C3
350
683
  3
C4
350
684
  3
C5
350
685
  3
C6
350
686
  3
C7
350
687
  3
C8
350
688
  3
C9
350
689
  3
D0
350
68A
  3
D1
350
68B
  3
D2
350
68C
  0
DICTIONARY
  5
669
102
{ACAD_REACTORS
330
631
102
}
330
631
100
AcDbDictionary
281
     1
  3
Standard
350
66A
  0
DICTIONARY
  5
657
102
{ACAD_REACTORS
330
631
102
}
330
631
100
AcDbDictionary
281
     1
  3
2dWireframe
350
65D
  3
3D Hidden
350
65F
  3
3dWireframe
350
65E
  3
Basic
350
65C
  3
Brighten
350
663
  3
ColorChange
350
667
  3
Conceptual
350
660
  3
Dim
350
662
  3
Facepattern
350
666
  3
Flat
350
658
  3
FlatWithEdges
350
659
  3
Gouraud
350
65A
  3
GouraudWithEdges
350
65B
  3
Linepattern
350
665
  3
Realistic
350
661
  3
Thicken
350
664
  0
XRECORD
  5
6AC
102
{ACAD_REACTORS
330
631
102
}
330
631
100
AcDbXrecord
280
     1
 90
        1
330
66A
  0
DICTIONARY
  5
6A3
102
{ACAD_REACTORS
330
631
102
}
330
631
100
AcDbDictionary
281
     1
  3
CANNOSCALE
350
6A6
  3
CMLEADERSTYLE
350
6A5
  3
CTABLESTYLE
350
6A4
  3
DIMASSOC
350
6A9
  3
INDEXCTL
350
6A8
  3
SORTENTS
350
6A7
  0
XRECORD
  5
6AD
102
{ACAD_REACTORS
330
631
102
}
330
631
100
AcDbXrecord
280
     1
  1
DWGPROPS COOKIE
  2

  3

  4

  6

  7

  8
jaterika-arisa
  9

300
=
301
=
302
=
303
=
304
=
305
=
306
=
307
=
308
=
309
=
 40
0.002072037037037
 41
2450695.0
 42
2454943.64621051
  1

 90
        0
  0
XRECORD
  5
698
102
{ACAD_REACTORS
330
697
102
}
330
697
100
AcDbXrecord
280
     1
290
     1
  0
XRECORD
  5
69A
102
{ACAD_REACTORS
330
699
102
}
330
699
100
AcDbXrecord
280
     1
290
     1
  0
XRECORD
  5
69C
102
{ACAD_REACTORS
330
69B
102
}
330
69B
100
AcDbXrecord
280
     1
290
     1
  0
XRECORD
  5
69E
102
{ACAD_REACTORS
330
69D
102
}
330
69D
100
AcDbXrecord
280
     1
290
     1
  0
XRECORD
  5
6A0
102
{ACAD_REACTORS
330
69F
102
}
330
69F
100
AcDbXrecord
280
     1
290
     1
  0
XRECORD
  5
6A2
102
{ACAD_REACTORS
330
6A1
102
}
330
6A1
100
AcDbXrecord
280
     1
290
     1
  0
LAYOUT
  5
692
102
{ACAD_XDICTIONARY
360
6B2
102
}
102
{ACAD_REACTORS
330
690
102
}
330
690
100
AcDbPlotSettings
  1

  2
EMP01
  4

  6

 40
0.0
 41
0.0
 42
0.0
 43
0.0
 44
0.0
 45
0.0
 46
0.0
 47
0.0
 48
0.0
 49
0.0
140
0.0
141
0.0
142
1.0
143
1.0
 70
  1712
 72
     0
 73
     0
 74
     0
  7

 75
     0
147
1.0
148
0.0
149
0.0
100
AcDbLayout
  1
Model
 70
     1
 71
     0
 10
0.0
 20
0.0
 11
12.0
 21
9.0
 12
0.0
 22
0.0
 32
0.0
 14
0.0
 24
0.0
 34
0.0
 15
0.0
 25
0.0
 35
0.0
146
0.0
 13
0.0
 23
0.0
 33
0.0
 16
1.0
 26
0.0
 36
0.0
 17
0.0
 27
1.0
 37
0.0
 76
     0
330
25
331
1B
  0
LAYOUT
  5
693
102
{ACAD_XDICTIONARY
360
6B4
102
}
102
{ACAD_REACTORS
330
690
102
}
330
690
100
AcDbPlotSettings
  1

  2
EMP01
  4

  6

 40
0.0
 41
0.0
 42
0.0
 43
0.0
 44
0.0
 45
0.0
 46
0.0
 47
0.0
 48
0.0
 49
0.0
140
0.0
141
0.0
142
1.0
143
1.0
 70
   688
 72
     0
 73
     0
 74
     5
  7

 75
    16
147
1.0
148
0.0
149
0.0
100
AcDbLayout
  1
レイアウト1
 70
     0
 71
     1
 10
0.0
 20
0.0
 11
12.0
 21
9.0
 12
0.0
 22
0.0
 32
0.0
 14
1.000000000000000E+20
 24
1.000000000000000E+20
 34
1.000000000000000E+20
 15
-1.000000000000000E+20
 25
-1.000000000000000E+20
 35
-1.000000000000000E+20
146
0.0
 13
0.0
 23
0.0
 33
0.0
 16
1.0
 26
0.0
 36
0.0
 17
0.0
 27
1.0
 37
0.0
 76
     0
330
26
  0
MATERIAL
  5
647
102
{ACAD_XDICTIONARY
360
648
102
}
102
{ACAD_REACTORS
330
63E
102
}
330
63E
100
AcDbMaterial
  1
ByBlock
 72
     0
 43
0.0208333333333333
 43
0.0
 43
0.0
 43
0.0
 43
0.0
 43
0.0208333333333333
 43
0.0
 43
0.0
 43
0.0
 43
0.0
 43
1.0
 43
0.0
 43
0.0
 43
0.0
 43
0.0
 43
1.0
 77
     0
 47
0.0208333333333333
 47
0.0
 47
0.0
 47
0.0
 47
0.0
 47
0.0208333333333333
 47
0.0
 47
0.0
 47
0.0
 47
0.0
 47
1.0
 47
0.0
 47
0.0
 47
0.0
 47
0.0
 47
1.0
171
     0
 49
0.0208333333333333
 49
0.0
 49
0.0
 49
0.0
 49
0.0
 49
0.0208333333333333
 49
0.0
 49
0.0
 49
0.0
 49
0.0
 49
1.0
 49
0.0
 49
0.0
 49
0.0
 49
0.0
 49
1.0
175
     0
142
0.0208333333333333
142
0.0
142
0.0
142
0.0
142
0.0
142
0.0208333333333333
142
0.0
142
0.0
142
0.0
142
0.0
142
1.0
142
0.0
142
0.0
142
0.0
142
0.0
142
1.0
179
     0
144
0.0208333333333333
144
0.0
144
0.0
144
0.0
144
0.0
144
0.0208333333333333
144
0.0
144
0.0
144
0.0
144
0.0
144
1.0
144
0.0
144
0.0
144
0.0
144
0.0
144
1.0
147
0.0208333333333333
147
0.0
147
0.0
147
0.0
147
0.0
147
0.0208333333333333
147
0.0
147
0.0
147
0.0
147
0.0
147
1.0
147
0.0
147
0.0
147
0.0
147
0.0
147
1.0
  0
MATERIAL
  5
63F
102
{ACAD_XDICTIONARY
360
640
102
}
102
{ACAD_REACTORS
330
63E
102
}
330
63E
100
AcDbMaterial
  1
ByLayer
 72
     0
 43
0.0208333333333333
 43
0.0
 43
0.0
 43
0.0
 43
0.0
 43
0.0208333333333333
 43
0.0
 43
0.0
 43
0.0
 43
0.0
 43
1.0
 43
0.0
 43
0.0
 43
0.0
 43
0.0
 43
1.0
 77
     0
 47
0.0208333333333333
 47
0.0
 47
0.0
 47
0.0
 47
0.0
 47
0.0208333333333333
 47
0.0
 47
0.0
 47
0.0
 47
0.0
 47
1.0
 47
0.0
 47
0.0
 47
0.0
 47
0.0
 47
1.0
171
     0
 49
0.0208333333333333
 49
0.0
 49
0.0
 49
0.0
 49
0.0
 49
0.0208333333333333
 49
0.0
 49
0.0
 49
0.0
 49
0.0
 49
1.0
 49
0.0
 49
0.0
 49
0.0
 49
0.0
 49
1.0
175
     0
142
0.0208333333333333
142
0.0
142
0.0
142
0.0
142
0.0
142
0.0208333333333333
142
0.0
142
0.0
142
0.0
142
0.0
142
1.0
142
0.0
142
0.0
142
0.0
142
0.0
142
1.0
179
     0
144
0.0208333333333333
144
0.0
144
0.0
144
0.0
144
0.0
144
0.0208333333333333
144
0.0
144
0.0
144
0.0
144
0.0
144
1.0
144
0.0
144
0.0
144
0.0
144
0.0
144
1.0
147
0.0208333333333333
147
0.0
147
0.0
147
0.0
147
0.0
147
0.0208333333333333
147
0.0
147
0.0
147
0.0
147
0.0
147
1.0
147
0.0
147
0.0
147
0.0
147
0.0
147
1.0
  0
MATERIAL
  5
64F
102
{ACAD_XDICTIONARY
360
650
102
}
102
{ACAD_REACTORS
330
63E
102
}
330
63E
100
AcDbMaterial
  1
Global
 72
     0
 43
0.0208333333333333
 43
0.0
 43
0.0
 43
0.0
 43
0.0
 43
0.0208333333333333
 43
0.0
 43
0.0
 43
0.0
 43
0.0
 43
1.0
 43
0.0
 43
0.0
 43
0.0
 43
0.0
 43
1.0
 77
     0
 47
0.0208333333333333
 47
0.0
 47
0.0
 47
0.0
 47
0.0
 47
0.0208333333333333
 47
0.0
 47
0.0
 47
0.0
 47
0.0
 47
1.0
 47
0.0
 47
0.0
 47
0.0
 47
0.0
 47
1.0
171
     0
 49
0.0208333333333333
 49
0.0
 49
0.0
 49
0.0
 49
0.0
 49
0.0208333333333333
 49
0.0
 49
0.0
 49
0.0
 49
0.0
 49
1.0
 49
0.0
 49
0.0
 49
0.0
 49
0.0
 49
1.0
175
     0
142
0.0208333333333333
142
0.0
142
0.0
142
0.0
142
0.0
142
0.0208333333333333
142
0.0
142
0.0
142
0.0
142
0.0
142
1.0
142
0.0
142
0.0
142
0.0
142
0.0
142
1.0
179
     0
144
0.0208333333333333
144
0.0
144
0.0
144
0.0
144
0.0
144
0.0208333333333333
144
0.0
144
0.0
144
0.0
144
0.0
144
1.0
144
0.0
144
0.0
144
0.0
144
0.0
144
1.0
147
0.0208333333333333
147
0.0
147
0.0
147
0.0
147
0.0
147
0.0208333333333333
147
0.0
147
0.0
147
0.0
147
0.0
147
1.0
147
0.0
147
0.0
147
0.0
147
0.0
147
1.0
  0
MLEADERSTYLE
  5
68E
102
{ACAD_REACTORS
330
68D
102
}
330
68D
100
AcDbMLeaderStyle
170
     2
171
     1
172
     0
 90
        2
 40
0.0
 41
0.0
173
     1
 91
-1056964608
340
C
 92
       -2
290
     1
 42
0.09
291
     1
 43
0.36
  3
Standard
 44
0.18
300

342
1D
174
     1
178
     6
175
     1
176
     0
 93
-1056964608
 45
0.18
292
     0
297
     0
 46
0.18
 94
-1056964608
 47
1.0
 49
1.0
140
1.0
293
     1
141
0.0
294
     1
177
     0
142
1.0
295
     0
296
     0
143
0.125
1001
ACAD_MLEADERVER
1070
     2
  0
MLINESTYLE
  5
634
102
{ACAD_REACTORS
330
633
102
}
330
633
100
AcDbMlineStyle
  2
STANDARD
 70
     0
  3

 62
     0
 51
90.0
 52
90.0
 71
     2
 49
0.5
 62
   256
  6
BYLAYER
 49
-0.5
 62
   256
  6
BYLAYER
  0
ACDBPLACEHOLDER
  5
63D
102
{ACAD_REACTORS
330
63C
102
}
330
63C
  0
SCALE
  5
66C
102
{ACAD_REACTORS
330
66B
102
}
330
66B
100
AcDbScale
 70
     0
300
1:1
140
1.0
141
1.0
290
     1
  0
SCALE
  5
66D
102
{ACAD_REACTORS
330
66B
102
}
330
66B
100
AcDbScale
 70
     0
300
1:2
140
1.0
141
2.0
290
     0
  0
SCALE
  5
66E
102
{ACAD_REACTORS
330
66B
102
}
330
66B
100
AcDbScale
 70
     0
300
1:4
140
1.0
141
4.0
290
     0
  0
SCALE
  5
66F
102
{ACAD_REACTORS
330
66B
102
}
330
66B
100
AcDbScale
 70
     0
300
1:5
140
1.0
141
5.0
290
     0
  0
SCALE
  5
670
102
{ACAD_REACTORS
330
66B
102
}
330
66B
100
AcDbScale
 70
     0
300
1:8
140
1.0
141
8.0
290
     0
  0
SCALE
  5
671
102
{ACAD_REACTORS
330
66B
102
}
330
66B
100
AcDbScale
 70
     0
300
1:10
140
1.0
141
10.0
290
     0
  0
SCALE
  5
672
102
{ACAD_REACTORS
330
66B
102
}
330
66B
100
AcDbScale
 70
     0
300
1:16
140
1.0
141
16.0
290
     0
  0
SCALE
  5
673
102
{ACAD_REACTORS
330
66B
102
}
330
66B
100
AcDbScale
 70
     0
300
1:20
140
1.0
141
20.0
290
     0
  0
SCALE
  5
674
102
{ACAD_REACTORS
330
66B
102
}
330
66B
100
AcDbScale
 70
     0
300
1:30
140
1.0
141
30.0
290
     0
  0
SCALE
  5
675
102
{ACAD_REACTORS
330
66B
102
}
330
66B
100
AcDbScale
 70
     0
300
1:40
140
1.0
141
40.0
290
     0
  0
SCALE
  5
676
102
{ACAD_REACTORS
330
66B
102
}
330
66B
100
AcDbScale
 70
     0
300
1:50
140
1.0
141
50.0
290
     0
  0
SCALE
  5
677
102
{ACAD_REACTORS
330
66B
102
}
330
66B
100
AcDbScale
 70
     0
300
1:100
140
1.0
141
100.0
290
     0
  0
SCALE
  5
678
102
{ACAD_REACTORS
330
66B
102
}
330
66B
100
AcDbScale
 70
     0
300
2:1
140
2.0
141
1.0
290
     0
  0
SCALE
  5
679
102
{ACAD_REACTORS
330
66B
102
}
330
66B
100
AcDbScale
 70
     0
300
4:1
140
4.0
141
1.0
290
     0
  0
SCALE
  5
67A
102
{ACAD_REACTORS
330
66B
102
}
330
66B
100
AcDbScale
 70
     0
300
8:1
140
8.0
141
1.0
290
     0
  0
SCALE
  5
67B
102
{ACAD_REACTORS
330
66B
102
}
330
66B
100
AcDbScale
 70
     0
300
10:1
140
10.0
141
1.0
290
     0
  0
SCALE
  5
67C
102
{ACAD_REACTORS
330
66B
102
}
330
66B
100
AcDbScale
 70
     0
300
100:1
140
100.0
141
1.0
290
     0
  0
SCALE
  5
67D
102
{ACAD_REACTORS
330
66B
102
}
330
66B
100
AcDbScale
 70
     0
300
1/128" = 1'-0"
140
0.0078125
141
12.0
290
     0
  0
SCALE
  5
67E
102
{ACAD_REACTORS
330
66B
102
}
330
66B
100
AcDbScale
 70
     0
300
1/64" = 1'-0"
140
0.015625
141
12.0
290
     0
  0
SCALE
  5
67F
102
{ACAD_REACTORS
330
66B
102
}
330
66B
100
AcDbScale
 70
     0
300
1/32" = 1'-0"
140
0.03125
141
12.0
290
     0
  0
SCALE
  5
680
102
{ACAD_REACTORS
330
66B
102
}
330
66B
100
AcDbScale
 70
     0
300
1/16" = 1'-0"
140
0.0625
141
12.0
290
     0
  0
SCALE
  5
681
102
{ACAD_REACTORS
330
66B
102
}
330
66B
100
AcDbScale
 70
     0
300
3/32" = 1'-0"
140
0.09375
141
12.0
290
     0
  0
SCALE
  5
682
102
{ACAD_REACTORS
330
66B
102
}
330
66B
100
AcDbScale
 70
     0
300
1/8" = 1'-0"
140
0.125
141
12.0
290
     0
  0
SCALE
  5
683
102
{ACAD_REACTORS
330
66B
102
}
330
66B
100
AcDbScale
 70
     0
300
3/16" = 1'-0"
140
0.1875
141
12.0
290
     0
  0
SCALE
  5
684
102
{ACAD_REACTORS
330
66B
102
}
330
66B
100
AcDbScale
 70
     0
300
1/4" = 1'-0"
140
0.25
141
12.0
290
     0
  0
SCALE
  5
685
102
{ACAD_REACTORS
330
66B
102
}
330
66B
100
AcDbScale
 70
     0
300
3/8" = 1'-0"
140
0.375
141
12.0
290
     0
  0
SCALE
  5
686
102
{ACAD_REACTORS
330
66B
102
}
330
66B
100
AcDbScale
 70
     0
300
1/2" = 1'-0"
140
0.5
141
12.0
290
     0
  0
SCALE
  5
687
102
{ACAD_REACTORS
330
66B
102
}
330
66B
100
AcDbScale
 70
     0
300
3/4" = 1'-0"
140
0.75
141
12.0
290
     0
  0
SCALE
  5
688
102
{ACAD_REACTORS
330
66B
102
}
330
66B
100
AcDbScale
 70
     0
300
1" = 1'-0"
140
1.0
141
12.0
290
     0
  0
SCALE
  5
689
102
{ACAD_REACTORS
330
66B
102
}
330
66B
100
AcDbScale
 70
     0
300
1-1/2" = 1'-0"
140
1.5
141
12.0
290
     0
  0
SCALE
  5
68A
102
{ACAD_REACTORS
330
66B
102
}
330
66B
100
AcDbScale
 70
     0
300
3" = 1'-0"
140
3.0
141
12.0
290
     0
  0
SCALE
  5
68B
102
{ACAD_REACTORS
330
66B
102
}
330
66B
100
AcDbScale
 70
     0
300
6" = 1'-0"
140
6.0
141
12.0
290
     0
  0
SCALE
  5
68C
102
{ACAD_REACTORS
330
66B
102
}
330
66B
100
AcDbScale
 70
     0
300
1'-0" = 1'-0"
140
12.0
141
12.0
290
     0
  0
TABLESTYLE
  5
66A
102
{ACAD_XDICTIONARY
360
6AA
102
}
102
{ACAD_REACTORS
330
669
102
}
330
669
100
AcDbTableStyle
  3
Standard
 70
     0
 71
     0
 40
0.06
 41
0.06
280
     0
281
     0
  7
STANDARD
140
0.18
170
     2
 62
     0
 63
     7
283
     0
274
    -2
284
     1
 64
     0
275
    -2
285
     1
 65
     0
276
    -2
286
     1
 66
     0
277
    -2
287
     1
 67
     0
278
    -2
288
     1
 68
     0
279
    -2
289
     1
 69
     0
  7
STANDARD
140
0.25
170
     5
 62
     0
 63
     7
283
     0
274
    -2
284
     1
 64
     0
275
    -2
285
     1
 65
     0
276
    -2
286
     1
 66
     0
277
    -2
287
     1
 67
     0
278
    -2
288
     1
 68
     0
279
    -2
289
     1
 69
     0
  7
STANDARD
140
0.18
170
     5
 62
     0
 63
     7
283
     0
274
    -2
284
     1
 64
     0
275
    -2
285
     1
 65
     0
276
    -2
286
     1
 66
     0
277
    -2
287
     1
 67
     0
278
    -2
288
     1
 68
     0
279
    -2
289
     1
 69
     0
  0
VISUALSTYLE
  5
65D
102
{ACAD_REACTORS
330
657
102
}
330
657
100
AcDbVisualStyle
  2
2dWireframe
 70
     4
 71
     0
 72
     2
 73
     0
 90
        0
 40
-0.6
 41
-30.0
 62
     5
 63
     7
 74
     1
 91
        4
 64
     7
 65
   257
 75
     1
175
     1
 42
1.0
 92
        0
 66
   257
 43
1.0
 76
     1
 77
     6
 78
     2
 67
     7
 79
     5
170
     0
171
     0
290
     0
174
     0
 93
        1
 44
0.0
173
     0
291
     0
 45
0.0
1001
ACAD
1000
AcDbSavedByObjectVersion
1070
     0
  0
VISUALSTYLE
  5
65F
102
{ACAD_REACTORS
330
657
102
}
330
657
100
AcDbVisualStyle
  2
3D Hidden
 70
     6
 71
     1
 72
     2
 73
     2
 90
        0
 40
-0.6
 41
-30.0
 62
     5
 63
     7
 74
     2
 91
        2
 64
     7
 65
   257
 75
     2
175
     1
 42
40.0
 92
        0
 66
   257
 43
1.0
 76
     1
 77
     6
 78
     2
 67
     7
 79
     3
170
     0
171
     0
290
     0
174
     0
 93
        1
 44
0.0
173
     0
291
     0
 45
0.0
1001
ACAD
1000
AcDbSavedByObjectVersion
1070
     0
  0
VISUALSTYLE
  5
65E
102
{ACAD_REACTORS
330
657
102
}
330
657
100
AcDbVisualStyle
  2
3dWireframe
 70
     5
 71
     0
 72
     2
 73
     0
 90
        0
 40
-0.6
 41
-30.0
 62
     5
 63
     7
 74
     1
 91
        4
 64
     7
 65
   257
 75
     1
175
     1
 42
1.0
 92
        0
 66
   257
 43
1.0
 76
     1
 77
     6
 78
     2
 67
     7
 79
     5
170
     0
171
     0
290
     0
174
     0
 93
        1
 44
0.0
173
     0
291
     0
 45
0.0
1001
ACAD
1000
AcDbSavedByObjectVersion
1070
     0
  0
VISUALSTYLE
  5
65C
102
{ACAD_REACTORS
330
657
102
}
330
657
100
AcDbVisualStyle
  2
Basic
 70
     7
 71
     1
 72
     0
 73
     1
 90
        0
 40
-0.6
 41
-30.0
 62
     5
 63
     7
 74
     0
 91
        4
 64
     7
 65
   257
 75
     1
175
     1
 42
1.0
 92
        8
 66
     7
 43
1.0
 76
     1
 77
     6
 78
     2
 67
     7
 79
     5
170
     0
171
     0
290
     0
174
     0
 93
        1
 44
0.0
173
     0
291
     1
 45
0.0
1001
ACAD
1000
AcDbSavedByObjectVersion
1070
     0
  0
VISUALSTYLE
  5
663
102
{ACAD_REACTORS
330
657
102
}
330
657
100
AcDbVisualStyle
  2
Brighten
 70
    12
 71
     2
 72
     2
 73
     0
 90
        0
 40
-0.6
 41
-30.0
 62
     5
 63
     7
 74
     1
 91
        4
 64
     7
 65
   257
 75
     1
175
     1
 42
1.0
 92
        8
 66
     7
 43
1.0
 76
     1
 77
     6
 78
     2
 67
     7
 79
     5
170
     0
171
     0
290
     0
174
     0
 93
        1
 44
50.0
173
     0
291
     1
 45
0.0
1001
ACAD
1000
AcDbSavedByObjectVersion
1070
     0
  0
VISUALSTYLE
  5
667
102
{ACAD_REACTORS
330
657
102
}
330
657
100
AcDbVisualStyle
  2
ColorChange
 70
    16
 71
     2
 72
     2
 73
     3
 90
        0
 40
-0.6
 41
-30.0
 62
     5
 63
     8
 74
     1
 91
        4
 64
     7
 65
   257
 75
     1
175
     1
 42
1.0
 92
        8
 66
     8
 43
1.0
 76
     1
 77
     6
 78
     2
 67
     7
 79
     5
170
     0
171
     0
290
     0
174
     0
 93
        1
 44
0.0
173
     0
291
     1
 45
0.0
1001
ACAD
1000
AcDbSavedByObjectVersion
1070
     0
  0
VISUALSTYLE
  5
660
102
{ACAD_REACTORS
330
657
102
}
330
657
100
AcDbVisualStyle
  2
Conceptual
 70
     9
 71
     3
 72
     2
 73
     0
 90
        0
 40
-0.6
 41
-30.0
 62
     5
 63
     7
 74
     2
 91
        2
 64
     7
 65
   257
 75
     1
175
     1
 42
40.0
 92
        8
 66
     7
 43
1.0
 76
     1
 77
     6
 78
     2
 67
     7
 79
     3
170
     0
171
     0
290
     0
174
     0
 93
        1
 44
0.0
173
     0
291
     0
 45
0.0
1001
ACAD
1000
AcDbSavedByObjectVersion
1070
     0
  0
VISUALSTYLE
  5
662
102
{ACAD_REACTORS
330
657
102
}
330
657
100
AcDbVisualStyle
  2
Dim
 70
    11
 71
     2
 72
     2
 73
     0
 90
        0
 40
-0.6
 41
-30.0
 62
     5
 63
     7
 74
     1
 91
        4
 64
     7
 65
   257
 75
     1
175
     1
 42
1.0
 92
        8
 66
     7
 43
1.0
 76
     1
 77
     6
 78
     2
 67
     7
 79
     5
170
     0
171
     0
290
     0
174
     0
 93
        1
 44
-50.0
173
     0
291
     1
 45
0.0
1001
ACAD
1000
AcDbSavedByObjectVersion
1070
     0
  0
VISUALSTYLE
  5
666
102
{ACAD_REACTORS
330
657
102
}
330
657
100
AcDbVisualStyle
  2
Facepattern
 70
    15
 71
     2
 72
     2
 73
     0
 90
        0
 40
-0.6
 41
-30.0
 62
     5
 63
     7
 74
     1
 91
        4
 64
     7
 65
   257
 75
     1
175
     1
 42
1.0
 92
        8
 66
     7
 43
1.0
 76
     1
 77
     6
 78
     2
 67
     7
 79
     5
170
     0
171
     0
290
     0
174
     0
 93
        1
 44
0.0
173
     0
291
     1
 45
0.0
1001
ACAD
1000
AcDbSavedByObjectVersion
1070
     0
  0
VISUALSTYLE
  5
658
102
{ACAD_REACTORS
330
657
102
}
330
657
100
AcDbVisualStyle
  2
Flat
 70
     0
 71
     2
 72
     1
 73
     1
 90
        2
 40
-0.6
 41
30.0
 62
     5
 63
     7
 74
     0
 91
        4
 64
     7
 65
   257
 75
     1
175
     1
 42
1.0
 92
        8
 66
     7
 43
1.0
 76
     1
 77
     6
 78
     2
 67
     7
 79
     5
170
     0
171
     0
290
     0
174
     0
 93
       13
 44
0.0
173
     0
291
     1
 45
0.0
1001
ACAD
1000
AcDbSavedByObjectVersion
1070
     0
  0
VISUALSTYLE
  5
659
102
{ACAD_REACTORS
330
657
102
}
330
657
100
AcDbVisualStyle
  2
FlatWithEdges
 70
     1
 71
     2
 72
     1
 73
     1
 90
        2
 40
-0.6
 41
30.0
 62
     5
 63
     7
 74
     1
 91
        4
 64
     7
 65
   257
 75
     1
175
     1
 42
1.0
 92
        0
 66
   257
 43
1.0
 76
     1
 77
     6
 78
     2
 67
     7
 79
     5
170
     0
171
     0
290
     0
174
     0
 93
       13
 44
0.0
173
     0
291
     1
 45
0.0
1001
ACAD
1000
AcDbSavedByObjectVersion
1070
     0
  0
VISUALSTYLE
  5
65A
102
{ACAD_REACTORS
330
657
102
}
330
657
100
AcDbVisualStyle
  2
Gouraud
 70
     2
 71
     2
 72
     2
 73
     1
 90
        2
 40
-0.6
 41
30.0
 62
     5
 63
     7
 74
     0
 91
        4
 64
     7
 65
   257
 75
     1
175
     1
 42
1.0
 92
        0
 66
     7
 43
1.0
 76
     1
 77
     6
 78
     2
 67
     7
 79
     5
170
     0
171
     0
290
     0
174
     0
 93
       13
 44
0.0
173
     0
291
     1
 45
0.0
1001
ACAD
1000
AcDbSavedByObjectVersion
1070
     0
  0
VISUALSTYLE
  5
65B
102
{ACAD_REACTORS
330
657
102
}
330
657
100
AcDbVisualStyle
  2
GouraudWithEdges
 70
     3
 71
     2
 72
     2
 73
     1
 90
        2
 40
-0.6
 41
30.0
 62
     5
 63
     7
 74
     1
 91
        4
 64
     7
 65
   257
 75
     1
175
     1
 42
1.0
 92
        0
 66
   257
 43
1.0
 76
     1
 77
     6
 78
     2
 67
     7
 79
     5
170
     0
171
     0
290
     0
174
     0
 93
       13
 44
0.0
173
     0
291
     1
 45
0.0
1001
ACAD
1000
AcDbSavedByObjectVersion
1070
     0
  0
VISUALSTYLE
  5
665
102
{ACAD_REACTORS
330
657
102
}
330
657
100
AcDbVisualStyle
  2
Linepattern
 70
    14
 71
     2
 72
     2
 73
     0
 90
        0
 40
-0.6
 41
-30.0
 62
     5
 63
     7
 74
     1
 91
        4
 64
     7
 65
   257
 75
     7
175
     7
 42
1.0
 92
        8
 66
     7
 43
1.0
 76
     1
 77
     6
 78
     2
 67
     7
 79
     5
170
     0
171
     0
290
     0
174
     0
 93
        1
 44
0.0
173
     0
291
     1
 45
0.0
1001
ACAD
1000
AcDbSavedByObjectVersion
1070
     0
  0
VISUALSTYLE
  5
661
102
{ACAD_REACTORS
330
657
102
}
330
657
100
AcDbVisualStyle
  2
Realistic
 70
     8
 71
     2
 72
     2
 73
     0
 90
        0
 40
-0.6
 41
-30.0
 62
     5
 63
     7
 74
     1
 91
        0
 64
     7
 65
   257
 75
     1
175
     1
 42
1.0
 92
        8
 66
     8
 43
1.0
 76
     1
 77
     6
 78
     2
 67
     7
 79
     5
170
     0
171
     0
290
     0
174
     0
 93
       13
 44
0.0
173
     0
291
     0
 45
0.0
1001
ACAD
1000
AcDbSavedByObjectVersion
1070
     0
  0
VISUALSTYLE
  5
664
102
{ACAD_REACTORS
330
657
102
}
330
657
100
AcDbVisualStyle
  2
Thicken
 70
    13
 71
     2
 72
     2
 73
     0
 90
        0
 40
-0.6
 41
-30.0
 62
     5
 63
     7
 74
     1
 91
        4
 64
     7
 65
   257
 75
     1
175
     1
 42
1.0
 92
       12
 66
     7
 43
1.0
 76
     1
 77
     6
 78
     2
 67
     7
 79
     5
170
     0
171
     0
290
     0
174
     0
 93
        1
 44
0.0
173
     0
291
     1
 45
0.0
1001
ACAD
1000
AcDbSavedByObjectVersion
1070
     0
  0
DICTIONARYVAR
  5
6A6
102
{ACAD_REACTORS
330
6A3
102
}
330
6A3
100
DictionaryVariables
280
     0
  1
1:1
  0
DICTIONARYVAR
  5
6A5
102
{ACAD_REACTORS
330
6A3
102
}
330
6A3
100
DictionaryVariables
280
     0
  1
STANDARD
  0
DICTIONARYVAR
  5
6A4
102
{ACAD_REACTORS
330
6A3
102
}
330
6A3
100
DictionaryVariables
280
     0
  1
STANDARD
  0
DICTIONARYVAR
  5
6A9
102
{ACAD_REACTORS
330
6A3
102
}
330
6A3
100
DictionaryVariables
280
     0
  1
1
  0
DICTIONARYVAR
  5
6A8
102
{ACAD_REACTORS
330
6A3
102
}
330
6A3
100
DictionaryVariables
280
     0
  1
0
  0
DICTIONARYVAR
  5
6A7
102
{ACAD_REACTORS
330
6A3
102
}
330
6A3
100
DictionaryVariables
280
     0
  1
127
  0
DICTIONARY
  5
6B2
330
692
100
AcDbDictionary
280
     1
281
     1
  3
ACAD_XREC_ROUNDTRIP
360
6B3
  0
DICTIONARY
  5
6B4
330
693
100
AcDbDictionary
280
     1
281
     1
  3
ACAD_XREC_ROUNDTRIP
360
6B5
  0
DICTIONARY
  5
648
330
647
100
AcDbDictionary
280
     1
281
     1
  3
ACAD_XREC_ROUNDTRIP
360
6AF
  3
BUMPTILE
360
64A
  3
DIFFUSETILE
360
649
  3
OPACITYTILE
360
64D
  3
REFLECTIONTILE
360
64C
  3
REFRACTIONTILE
360
64E
  3
SPECULARTILE
360
64B
  0
DICTIONARY
  5
640
330
63F
100
AcDbDictionary
280
     1
281
     1
  3
ACAD_XREC_ROUNDTRIP
360
6AE
  3
BUMPTILE
360
642
  3
DIFFUSETILE
360
641
  3
OPACITYTILE
360
645
  3
REFLECTIONTILE
360
644
  3
REFRACTIONTILE
360
646
  3
SPECULARTILE
360
643
  0
DICTIONARY
  5
650
330
64F
100
AcDbDictionary
280
     1
281
     1
  3
ACAD_XREC_ROUNDTRIP
360
6B0
  3
BUMPTILE
360
652
  3
DIFFUSETILE
360
651
  3
OPACITYTILE
360
655
  3
REFLECTIONTILE
360
654
  3
REFRACTIONTILE
360
656
  3
SPECULARTILE
360
653
  0
DICTIONARY
  5
6AA
330
66A
100
AcDbDictionary
280
     1
281
     1
  3
ACAD_ROUNDTRIP_2008_TABLESTYLE_CELLSTYLEMAP
360
6AB
  3
ACAD_XREC_ROUNDTRIP
360
6B1
  0
XRECORD
  5
6B3
102
{ACAD_REACTORS
330
6B2
102
}
330
6B2
100
AcDbXrecord
280
     1
102
SHADEPLOT
 70
     0
102
SHADEPLOTRESLEVEL
 70
     2
102
SHADEPLOTCUSTOMDPI
 70
   300
  0
XRECORD
  5
6B5
102
{ACAD_REACTORS
330
6B4
102
}
330
6B4
100
AcDbXrecord
280
     1
102
SHADEPLOT
 70
     0
102
SHADEPLOTRESLEVEL
 70
     2
102
SHADEPLOTCUSTOMDPI
 70
   300
  0
XRECORD
  5
6AF
102
{ACAD_REACTORS
330
648
102
}
330
648
100
AcDbXrecord
280
     1
102
MATERIAL
148
0.0
149
0.0
149
0.0
 93
        0
 94
      127
282
     0
 72
     0
 77
     0
171
     0
175
     0
179
     0
273
     0
  0
XRECORD
  5
64A
102
{ACAD_REACTORS
330
648
102
}
330
648
100
AcDbXrecord
280
     1
270
     1
271
     1
  0
XRECORD
  5
649
102
{ACAD_REACTORS
330
648
102
}
330
648
100
AcDbXrecord
280
     1
270
     1
271
     1
  0
XRECORD
  5
64D
102
{ACAD_REACTORS
330
648
102
}
330
648
100
AcDbXrecord
280
     1
270
     1
271
     1
  0
XRECORD
  5
64C
102
{ACAD_REACTORS
330
648
102
}
330
648
100
AcDbXrecord
280
     1
270
     1
271
     1
  0
XRECORD
  5
64E
102
{ACAD_REACTORS
330
648
102
}
330
648
100
AcDbXrecord
280
     1
270
     1
271
     1
  0
XRECORD
  5
64B
102
{ACAD_REACTORS
330
648
102
}
330
648
100
AcDbXrecord
280
     1
270
     1
271
     1
  0
XRECORD
  5
6AE
102
{ACAD_REACTORS
330
640
102
}
330
640
100
AcDbXrecord
280
     1
102
MATERIAL
148
0.0
149
0.0
149
0.0
 93
        0
 94
      127
282
     0
 72
     0
 77
     0
171
     0
175
     0
179
     0
273
     0
  0
XRECORD
  5
642
102
{ACAD_REACTORS
330
640
102
}
330
640
100
AcDbXrecord
280
     1
270
     1
271
     1
  0
XRECORD
  5
641
102
{ACAD_REACTORS
330
640
102
}
330
640
100
AcDbXrecord
280
     1
270
     1
271
     1
  0
XRECORD
  5
645
102
{ACAD_REACTORS
330
640
102
}
330
640
100
AcDbXrecord
280
     1
270
     1
271
     1
  0
XRECORD
  5
644
102
{ACAD_REACTORS
330
640
102
}
330
640
100
AcDbXrecord
280
     1
270
     1
271
     1
  0
XRECORD
  5
646
102
{ACAD_REACTORS
330
640
102
}
330
640
100
AcDbXrecord
280
     1
270
     1
271
     1
  0
XRECORD
  5
643
102
{ACAD_REACTORS
330
640
102
}
330
640
100
AcDbXrecord
280
     1
270
     1
271
     1
  0
XRECORD
  5
6B0
102
{ACAD_REACTORS
330
650
102
}
330
650
100
AcDbXrecord
280
     1
102
MATERIAL
148
0.0
149
0.0
149
0.0
 93
        0
 94
      127
282
     0
 72
     0
 77
     0
171
     0
175
     0
179
     0
273
     0
  0
XRECORD
  5
652
102
{ACAD_REACTORS
330
650
102
}
330
650
100
AcDbXrecord
280
     1
270
     1
271
     1
  0
XRECORD
  5
651
102
{ACAD_REACTORS
330
650
102
}
330
650
100
AcDbXrecord
280
     1
270
     1
271
     1
  0
XRECORD
  5
655
102
{ACAD_REACTORS
330
650
102
}
330
650
100
AcDbXrecord
280
     1
270
     1
271
     1
  0
XRECORD
  5
654
102
{ACAD_REACTORS
330
650
102
}
330
650
100
AcDbXrecord
280
     1
270
     1
271
     1
  0
XRECORD
  5
656
102
{ACAD_REACTORS
330
650
102
}
330
650
100
AcDbXrecord
280
     1
270
     1
271
     1
  0
XRECORD
  5
653
102
{ACAD_REACTORS
330
650
102
}
330
650
100
AcDbXrecord
280
     1
270
     1
271
     1
  0
CELLSTYLEMAP
  5
6AB
102
{ACAD_REACTORS
330
6AA
102
}
330
6AA
100
AcDbCellStyleMap
 90
        3
300
CELLSTYLE
  1
TABLEFORMAT_BEGIN
 90
        5
170
     1
 91
        0
 92
    32768
 62
   257
 93
        1
300
CONTENTFORMAT
  1
CONTENTFORMAT_BEGIN
 90
        0
 91
        0
 92
      512
 93
        0
300

 40
0.0
140
1.0
 94
        5
 62
     0
340
1D
144
0.25
309
CONTENTFORMAT_END
171
     0
 94
        0
309
TABLEFORMAT_END
  1
CELLSTYLE_BEGIN
 90
        1
 91
        1
300
_TITLE
309
CELLSTYLE_END
300
CELLSTYLE
  1
TABLEFORMAT_BEGIN
 90
        5
170
     1
 91
        0
 92
        0
 62
   257
 93
        1
300
CONTENTFORMAT
  1
CONTENTFORMAT_BEGIN
 90
        0
 91
        0
 92
      512
 93
        0
300

 40
0.0
140
1.0
 94
        5
 62
     0
340
1D
144
0.18
309
CONTENTFORMAT_END
171
     0
 94
        0
309
TABLEFORMAT_END
  1
CELLSTYLE_BEGIN
 90
        2
 91
        1
300
_HEADER
309
CELLSTYLE_END
300
CELLSTYLE
  1
TABLEFORMAT_BEGIN
 90
        5
170
     1
 91
        0
 92
        0
 62
   257
 93
        1
300
CONTENTFORMAT
  1
CONTENTFORMAT_BEGIN
 90
        0
 91
        0
 92
      512
 93
        0
300

 40
0.0
140
1.0
 94
        2
 62
     0
340
1D
144
0.18
309
CONTENTFORMAT_END
171
     0
 94
        0
309
TABLEFORMAT_END
  1
CELLSTYLE_BEGIN
 90
        3
 91
        2
300
_DATA
309
CELLSTYLE_END
  0
XRECORD
  5
6B1
102
{ACAD_REACTORS
330
6AA
102
}
330
6AA
100
AcDbXrecord
280
     1
102
ACAD_ROUNDTRIP_PRE2007_TABLESTYLE
 90
      512
 91
        0
  1

 92
      512
 93
        0
  2

 94
      512
 95
        0
  3

  0
ENDSEC
  0
EOF
