  0
SECTION
  2
HEADER
  9
$ACADVER
  1
AC1015
  9
$ACADMAINTVER
 70
    20
  9
$DWGCODEPAGE
  3
ANSI_932
  9
$INSBASE
 10
0.0
 20
0.0
 30
0.0
  9
$EXTMIN
 10
-540.0604217663181
 20
-415.5489328271346
 30
-0.0015258207003583
  9
$EXTMAX
 10
600.0457792659822
 20
396.0392781399883
 30
0.0000000349246037
  9
$LIMMIN
 10
-630.0
 20
-445.5
  9
$LIMMAX
 10
630.0
 20
445.5
  9
$ORTHOMODE
 70
     1
  9
$REGENMODE
 70
     1
  9
$FILLMODE
 70
     1
  9
$QTEXTMODE
 70
     0
  9
$MIRRTEXT
 70
     1
  9
$LTSCALE
 40
3.0
  9
$ATTMODE
 70
     1
  9
$TEXTSIZE
 40
1.0
  9
$TRACEWID
 40
0.05
  9
$TEXTSTYLE
  7
STANDARD
  9
$CLAYER
  8
0
  9
$CELTYPE
  6
CONTINUOUS
  9
$CECOLOR
 62
   256
  9
$CELTSCALE
 40
1.0
  9
$DISPSILH
 70
     0
  9
$DIMSCALE
 40
3.0
  9
$DIMASZ
 40
2.5
  9
$DIMEXO
 40
0.75
  9
$DIMDLI
 40
0.38
  9
$DIMRND
 40
0.0
  9
$DIMDLE
 40
0.0
  9
$DIMEXE
 40
0.75
  9
$DIMTP
 40
0.0
  9
$DIMTM
 40
0.0
  9
$DIMTXT
 40
3.0
  9
$DIMCEN
 40
0.09
  9
$DIMTSZ
 40
0.0
  9
$DIMTOL
 70
     0
  9
$DIMLIM
 70
     0
  9
$DIMTIH
 70
     0
  9
$DIMTOH
 70
     0
  9
$DIMSE1
 70
     0
  9
$DIMSE2
 70
     0
  9
$DIMTAD
 70
     1
  9
$DIMZIN
 70
     8
  9
$DIMBLK
  1
Open
  9
$DIMASO
 70
     1
  9
$DIMSHO
 70
     1
  9
$DIMPOST
  1

  9
$DIMAPOST
  1

  9
$DIMALT
 70
     0
  9
$DIMALTD
 70
     2
  9
$DIMALTF
 40
25.4
  9
$DIMLFAC
 40
1.0
  9
$DIMTOFL
 70
     1
  9
$DIMTVP
 40
0.0
  9
$DIMTIX
 70
     0
  9
$DIMSOXD
 70
     0
  9
$DIMSAH
 70
     0
  9
$DIMBLK1
  1

  9
$DIMBLK2
  1

  9
$DIMSTYLE
  2
STD1
  9
$DIMCLRD
 70
     6
  9
$DIMCLRE
 70
     6
  9
$DIMCLRT
 70
     2
  9
$DIMTFAC
 40
1.0
  9
$DIMGAP
 40
0.75
  9
$DIMJUST
 70
     0
  9
$DIMSD1
 70
     0
  9
$DIMSD2
 70
     0
  9
$DIMTOLJ
 70
     1
  9
$DIMTZIN
 70
     0
  9
$DIMALTZ
 70
     0
  9
$DIMALTTZ
 70
     0
  9
$DIMUPT
 70
     0
  9
$DIMDEC
 70
     4
  9
$DIMTDEC
 70
     4
  9
$DIMALTU
 70
     2
  9
$DIMALTTD
 70
     2
  9
$DIMTXSTY
  7
STANDARD
  9
$DIMAUNIT
 70
     0
  9
$DIMADEC
 70
     0
  9
$DIMALTRND
 40
0.0
  9
$DIMAZIN
 70
     2
  9
$DIMDSEP
 70
    46
  9
$DIMATFIT
 70
     3
  9
$DIMFRAC
 70
     0
  9
$DIMLDRBLK
  1
Open
  9
$DIMLUNIT
 70
     2
  9
$DIMLWD
 70
    13
  9
$DIMLWE
 70
    13
  9
$DIMTMOVE
 70
     0
  9
$LUNITS
 70
     2
  9
$LUPREC
 70
     4
  9
$SKETCHINC
 40
0.1
  9
$FILLETRAD
 40
0.0
  9
$AUNITS
 70
     0
  9
$AUPREC
 70
     0
  9
$MENU
  1
acad
  9
$ELEVATION
 40
0.0
  9
$PELEVATION
 40
0.0
  9
$THICKNESS
 40
0.0
  9
$LIMCHECK
 70
     0
  9
$CHAMFERA
 40
0.0
  9
$CHAMFERB
 40
0.0
  9
$CHAMFERC
 40
0.0
  9
$CHAMFERD
 40
0.0
  9
$SKPOLY
 70
     0
  9
$TDCREATE
 40
2450695.000000000
  9
$TDUCREATE
 40
2450694.625000000
  9
$TDUPDATE
 40
2455265.438652917
  9
$TDUUPDATE
 40
2455265.063652917
  9
$TDINDWG
 40
0.0039997569
  9
$TDUSRTIMER
 40
0.0039988542
  9
$USRTIMER
 70
     1
  9
$ANGBASE
 50
0.0
  9
$ANGDIR
 70
     0
  9
$PDMODE
 70
     0
  9
$PDSIZE
 40
0.0
  9
$PLINEWID
 40
0.0
  9
$SPLFRAME
 70
     0
  9
$SPLINETYPE
 70
     6
  9
$SPLINESEGS
 70
     8
  9
$HANDSEED
  5
80E
  9
$SURFTAB1
 70
     6
  9
$SURFTAB2
 70
     6
  9
$SURFTYPE
 70
     6
  9
$SURFU
 70
     6
  9
$SURFV
 70
     6
  9
$UCSBASE
  2

  9
$UCSNAME
  2

  9
$UCSORG
 10
0.0
 20
0.0
 30
0.0
  9
$UCSXDIR
 10
1.0
 20
0.0
 30
0.0
  9
$UCSYDIR
 10
0.0
 20
1.0
 30
0.0
  9
$UCSORTHOREF
  2

  9
$UCSORTHOVIEW
 70
     0
  9
$UCSORGTOP
 10
0.0
 20
0.0
 30
0.0
  9
$UCSORGBOTTOM
 10
0.0
 20
0.0
 30
0.0
  9
$UCSORGLEFT
 10
0.0
 20
0.0
 30
0.0
  9
$UCSORGRIGHT
 10
0.0
 20
0.0
 30
0.0
  9
$UCSORGFRONT
 10
0.0
 20
0.0
 30
0.0
  9
$UCSORGBACK
 10
0.0
 20
0.0
 30
0.0
  9
$PUCSBASE
  2

  9
$PUCSNAME
  2

  9
$PUCSORG
 10
0.0
 20
0.0
 30
0.0
  9
$PUCSXDIR
 10
1.0
 20
0.0
 30
0.0
  9
$PUCSYDIR
 10
0.0
 20
1.0
 30
0.0
  9
$PUCSORTHOREF
  2

  9
$PUCSORTHOVIEW
 70
     0
  9
$PUCSORGTOP
 10
0.0
 20
0.0
 30
0.0
  9
$PUCSORGBOTTOM
 10
0.0
 20
0.0
 30
0.0
  9
$PUCSORGLEFT
 10
0.0
 20
0.0
 30
0.0
  9
$PUCSORGRIGHT
 10
0.0
 20
0.0
 30
0.0
  9
$PUCSORGFRONT
 10
0.0
 20
0.0
 30
0.0
  9
$PUCSORGBACK
 10
0.0
 20
0.0
 30
0.0
  9
$USERI1
 70
     0
  9
$USERI2
 70
     0
  9
$USERI3
 70
     0
  9
$USERI4
 70
     0
  9
$USERI5
 70
     0
  9
$USERR1
 40
0.0
  9
$USERR2
 40
0.0
  9
$USERR3
 40
0.0
  9
$USERR4
 40
0.0
  9
$USERR5
 40
0.0
  9
$WORLDVIEW
 70
     1
  9
$SHADEDGE
 70
     3
  9
$SHADEDIF
 70
    70
  9
$TILEMODE
 70
     1
  9
$MAXACTVP
 70
    16
  9
$PINSBASE
 10
0.0
 20
0.0
 30
0.0
  9
$PLIMCHECK
 70
     0
  9
$PEXTMIN
 10
1.000000000000000E+20
 20
1.000000000000000E+20
 30
1.000000000000000E+20
  9
$PEXTMAX
 10
-1.000000000000000E+20
 20
-1.000000000000000E+20
 30
-1.000000000000000E+20
  9
$PLIMMIN
 10
0.0
 20
0.0
  9
$PLIMMAX
 10
12.0
 20
9.0
  9
$UNITMODE
 70
     0
  9
$VISRETAIN
 70
     0
  9
$PLINEGEN
 70
     1
  9
$PSLTSCALE
 70
     0
  9
$TREEDEPTH
 70
  3020
  9
$CMLSTYLE
  2
STANDARD
  9
$CMLJUST
 70
     0
  9
$CMLSCALE
 40
1.0
  9
$PROXYGRAPHICS
 70
     1
  9
$MEASUREMENT
 70
     0
  9
$CELWEIGHT
370
    -1
  9
$ENDCAPS
280
     0
  9
$JOINSTYLE
280
     0
  9
$LWDISPLAY
290
     0
  9
$INSUNITS
 70
     0
  9
$HYPERLINKBASE
  1

  9
$STYLESHEET
  1
monochrome.ctb
  9
$XEDIT
290
     1
  9
$CEPSNTYPE
380
     0
  9
$PSTYLEMODE
290
     1
  9
$FINGERPRINTGUID
  2
{451ABBDA-EA32-4F14-BB7D-7ECF07CBB56B}
  9
$VERSIONGUID
  2
{69D8A906-1509-43A5-9F9A-00BFEBA0EBAF}
  9
$EXTNAMES
290
     1
  9
$PSVPSCALE
 40
0.0
  9
$OLESTARTUP
290
     0
  0
ENDSEC
  0
SECTION
  2
CLASSES
  0
CLASS
  1
IMAGE
  2
AcDbRasterImage
  3
ISM
 90
    34943
280
     0
281
     1
  0
CLASS
  1
DICTIONARYVAR
  2
AcDbDictionaryVar
  3
ObjectDBX Classes
 90
        0
280
     0
281
     0
  0
CLASS
  1
RASTERVARIABLES
  2
AcDbRasterVariables
  3
ISM
 90
    32768
280
     0
281
     0
  0
CLASS
  1
IMAGEDEF
  2
AcDbRasterImageDef
  3
ISM
 90
    32768
280
     0
281
     0
  0
CLASS
  1
IMAGEDEF_REACTOR
  2
AcDbRasterImageDefReactor
  3
ISM
 90
    32769
280
     0
281
     0
  0
CLASS
  1
IDBUFFER
  2
AcDbIdBuffer
  3
ObjectDBX Classes
 90
    32768
280
     0
281
     0
  0
CLASS
  1
SPATIAL_FILTER
  2
AcDbSpatialFilter
  3
ObjectDBX Classes
 90
    32768
280
     0
281
     0
  0
CLASS
  1
SORTENTSTABLE
  2
AcDbSortentsTable
  3
ObjectDBX Classes
 90
    32768
280
     0
281
     0
  0
CLASS
  1
LAYER_INDEX
  2
AcDbLayerIndex
  3
ObjectDBX Classes
 90
    32768
280
     0
281
     0
  0
CLASS
  1
SPATIAL_INDEX
  2
AcDbSpatialIndex
  3
ObjectDBX Classes
 90
    32768
280
     0
281
     0
  0
CLASS
  1
OBJECT_PTR
  2
CAseDLPNTableRecord
  3
"ASE-LPNTableRecord"
 90
    32769
280
     0
281
     0
  0
CLASS
  1
LAYOUT
  2
AcDbLayout
  3
ObjectDBX Classes
 90
        0
280
     0
281
     0
  0
CLASS
  1
PLOTSETTINGS
  2
AcDbPlotSettings
  3
ObjectDBX Classes
 90
    32768
280
     0
281
     0
  0
CLASS
  1
ACDBDICTIONARYWDFLT
  2
AcDbDictionaryWithDefault
  3
ObjectDBX Classes
 90
        0
280
     0
281
     0
  0
CLASS
  1
ACDBPLACEHOLDER
  2
AcDbPlaceHolder
  3
ObjectDBX Classes
 90
        0
280
     0
281
     0
  0
CLASS
  1
VBA_PROJECT
  2
AcDbVbaProject
  3
acad
 90
    32768
280
     0
281
     0
  0
CLASS
  1
WIPEOUT
  2
AcDbWipeout
  3
"WipeOut|Product Desc: Object Enabler for WipeOut entity                        |Company: Autodesk, Inc.                        |WEB Address: www.autodesk.com"
 90
    34943
280
     0
281
     1
  0
CLASS
  1
WIPEOUTVARIABLES
  2
AcDbWipeoutVariables
  3
"WipeOut|Product Desc:     WipeOut Dbx Application|Company:          Autodesk, Inc.|WEB Address:      www.autodesk.com"
 90
    32768
280
     0
281
     0
  0
CLASS
  1
RTEXT
  2
RText
  3
RText|AutoCAD Express Tool|expresstools@autodesk.com
 90
    32768
280
     0
281
     1
  0
CLASS
  1
ARCALIGNEDTEXT
  2
AcDbArcAlignedText
  3
ATEXT|AutoCAD Express Tool|expresstools@autodesk.com
 90
    32768
280
     0
281
     1
  0
CLASS
  1
MATERIAL
  2
AcDbMaterial
  3
ObjectDBX Classes
 90
     1153
280
     0
281
     0
  0
CLASS
  1
VISUALSTYLE
  2
AcDbVisualStyle
  3
ObjectDBX Classes
 90
     4095
280
     0
281
     0
  0
CLASS
  1
TABLESTYLE
  2
AcDbTableStyle
  3
ObjectDBX Classes
 90
     4095
280
     0
281
     0
  0
CLASS
  1
SCALE
  2
AcDbScale
  3
ObjectDBX Classes
 90
     1153
280
     0
281
     0
  0
CLASS
  1
MLEADERSTYLE
  2
AcDbMLeaderStyle
  3
ACDB_MLEADERSTYLE_CLASS
 90
     4095
280
     0
281
     0
  0
CLASS
  1
CELLSTYLEMAP
  2
AcDbCellStyleMap
  3
ObjectDBX Classes
 90
     1152
280
     0
281
     0
  0
ENDSEC
  0
SECTION
  2
TABLES
  0
TABLE
  2
VPORT
  5
6
330
0
100
AcDbSymbolTable
 70
     1
  0
VPORT
  5
1B
330
6
100
AcDbSymbolTableRecord
100
AcDbViewportTableRecord
  2
*ACTIVE
 70
     0
 10
0.0
 20
0.0
 11
1.0
 21
1.0
 12
141.7348852255118
 22
-181.1855047911458
 13
0.0
 23
0.0
 14
1.0
 24
1.0
 15
0.0
 25
0.0
 16
0.0
 26
0.0
 36
1.0
 17
0.0
 27
0.0
 37
0.0
 40
1120.607850875185
 41
1.369685767097966
 42
50.0
 43
0.0
 44
0.0
 50
0.0
 51
0.0
 71
     0
 72
   500
 73
     1
 74
     1
 75
     0
 76
     0
 77
     0
 78
     0
281
     0
 65
     1
110
0.0
120
0.0
130
0.0
111
1.0
121
0.0
131
0.0
112
0.0
122
1.0
132
0.0
 79
     0
146
0.0
  0
ENDTAB
  0
TABLE
  2
LTYPE
  5
3
330
0
100
AcDbSymbolTable
 70
     7
  0
LTYPE
  5
C
330
3
100
AcDbSymbolTableRecord
100
AcDbLinetypeTableRecord
  2
BYBLOCK
 70
     0
  3

 72
    65
 73
     0
 40
0.0
  0
LTYPE
  5
D
330
3
100
AcDbSymbolTableRecord
100
AcDbLinetypeTableRecord
  2
BYLAYER
 70
     0
  3

 72
    65
 73
     0
 40
0.0
  0
LTYPE
  5
E
330
3
100
AcDbSymbolTableRecord
100
AcDbLinetypeTableRecord
  2
CONTINUOUS
 70
     0
  3
Solid line
 72
    65
 73
     0
 40
0.0
  0
LTYPE
  5
F
330
3
100
AcDbSymbolTableRecord
100
AcDbLinetypeTableRecord
  2
DASHED
 70
     0
  3
__ __ __ __ __ __ __ __ __ __ __ __ __ __ __
 72
    65
 73
     2
 40
2.0
 49
1.199999999999999
 74
     0
 49
-0.8
 74
     0
  0
LTYPE
  5
10
330
3
100
AcDbSymbolTableRecord
100
AcDbLinetypeTableRecord
  2
CENTER
 70
     0
  3
____ _ ____ _ ____ _ ____ _ ____ _ ____ _ ____
 72
    65
 73
     4
 40
12.0
 49
9.0
 74
     0
 49
-1.0
 74
     0
 49
1.0
 74
     0
 49
-1.0
 74
     0
  0
LTYPE
  5
11
330
3
100
AcDbSymbolTableRecord
100
AcDbLinetypeTableRecord
  2
HIDDEN
 70
     0
  3
_ _ _ _ _ _ _ _ _ _ _ _ _ _ _ _ _ _ _ _ _ _ _
 72
    65
 73
     2
 40
3.2
 49
2.399999999999999
 74
     0
 49
-0.8
 74
     0
  0
LTYPE
  5
12
330
3
100
AcDbSymbolTableRecord
100
AcDbLinetypeTableRecord
  2
PHANTOM
 70
     0
  3
_____ _ _ _____ _ _ _____ _ _ _____ _ _ _____
 72
    65
 73
     6
 40
13.5
 49
9.0
 74
     0
 49
-1.0
 74
     0
 49
1.0
 74
     0
 49
-0.5
 74
     0
 49
1.0
 74
     0
 49
-1.0
 74
     0
  0
LTYPE
  5
13
330
3
100
AcDbSymbolTableRecord
100
AcDbLinetypeTableRecord
  2
DOT
 70
     0
  3
...............................................
 72
    65
 73
     2
 40
1.0
 49
0.5
 74
     0
 49
-0.5
 74
     0
  0
LTYPE
  5
14
330
3
100
AcDbSymbolTableRecord
100
AcDbLinetypeTableRecord
  2
DASHDOT
 70
     0
  3
__ . __ . __ . __ . __ . __ . __ . __ . __ . __
 72
    65
 73
     4
 40
8.0
 49
5.0
 74
     0
 49
-1.0
 74
     0
 49
1.0
 74
     0
 49
-1.0
 74
     0
  0
ENDTAB
  0
TABLE
  2
LAYER
  5
1
102
{ACAD_XDICTIONARY
360
802
102
}
330
0
100
AcDbSymbolTable
 70
     7
  0
LAYER
  5
15
102
{ACAD_XDICTIONARY
360
708
102
}
330
1
100
AcDbSymbolTableRecord
100
AcDbLayerTableRecord
  2
0
 70
     0
 62
     7
  6
CONTINUOUS
370
    -3
390
6AF
  0
LAYER
  5
16
102
{ACAD_XDICTIONARY
360
70A
102
}
330
1
100
AcDbSymbolTableRecord
100
AcDbLayerTableRecord
  2
BODY
 70
     0
 62
     2
  6
CONTINUOUS
370
    -3
390
6AF
  0
LAYER
  5
17
102
{ACAD_XDICTIONARY
360
70C
102
}
330
1
100
AcDbSymbolTableRecord
100
AcDbLayerTableRecord
  2
2
 70
     0
 62
     7
  6
CONTINUOUS
370
    -3
390
6AF
  0
LAYER
  5
18
102
{ACAD_XDICTIONARY
360
70E
102
}
330
1
100
AcDbSymbolTableRecord
100
AcDbLayerTableRecord
  2
5
 70
     0
 62
     7
  6
CONTINUOUS
370
    -3
390
6AF
  0
LAYER
  5
19
102
{ACAD_XDICTIONARY
360
710
102
}
330
1
100
AcDbSymbolTableRecord
100
AcDbLayerTableRecord
  2
18
 70
     0
 62
     7
  6
CONTINUOUS
370
    -3
390
6AF
  0
LAYER
  5
1A
102
{ACAD_XDICTIONARY
360
712
102
}
330
1
100
AcDbSymbolTableRecord
100
AcDbLayerTableRecord
  2
20
 70
     0
 62
     7
  6
CONTINUOUS
370
    -3
390
6AF
  0
LAYER
  5
735
330
1
100
AcDbSymbolTableRecord
100
AcDbLayerTableRecord
  2
Defpoints
 70
     0
 62
     7
  6
CONTINUOUS
290
     0
370
    -3
390
6AF
  0
ENDTAB
  0
TABLE
  2
STYLE
  5
2
330
0
100
AcDbSymbolTable
 70
     1
  0
STYLE
  5
1D
330
2
100
AcDbSymbolTableRecord
100
AcDbTextStyleTableRecord
  2
STANDARD
 70
     0
 40
0.0
 41
1.0
 50
0.0
 71
     0
 42
1.0
  3
simplex.shx
  4
BIGFONT.shx
  0
ENDTAB
  0
TABLE
  2
VIEW
  5
4
330
0
100
AcDbSymbolTable
 70
     0
  0
ENDTAB
  0
TABLE
  2
UCS
  5
5
330
0
100
AcDbSymbolTable
 70
     0
  0
ENDTAB
  0
TABLE
  2
APPID
  5
7
330
0
100
AcDbSymbolTable
 70
     7
  0
APPID
  5
1C
330
7
100
AcDbSymbolTableRecord
100
AcDbRegAppTableRecord
  2
ACAD
 70
     0
  0
APPID
  5
701
330
7
100
AcDbSymbolTableRecord
100
AcDbRegAppTableRecord
  2
ACAD_MLEADERVER
 70
     0
  0
APPID
  5
707
330
7
100
AcDbSymbolTableRecord
100
AcDbRegAppTableRecord
  2
AcadAnnoPO
 70
     0
  0
APPID
  5
72B
330
7
100
AcDbSymbolTableRecord
100
AcDbRegAppTableRecord
  2
ACAD_DSTYLE_DIMJAG
 70
     0
  0
APPID
  5
72C
330
7
100
AcDbSymbolTableRecord
100
AcDbRegAppTableRecord
  2
ACAD_DSTYLE_DIMBREAK
 70
     0
  0
APPID
  5
733
330
7
100
AcDbSymbolTableRecord
100
AcDbRegAppTableRecord
  2
ACAD_DSTYLE_DIMTALN
 70
     0
  0
APPID
  5
7ED
330
7
100
AcDbSymbolTableRecord
100
AcDbRegAppTableRecord
  2
ACAD_PSEXT
 70
     0
  0
ENDTAB
  0
TABLE
  2
DIMSTYLE
  5
8
330
0
100
AcDbSymbolTable
 70
     2
100
AcDbDimStyleTable
 71
     2
340
734
340
2C
  0
DIMSTYLE
105
2C
330
8
100
AcDbSymbolTableRecord
100
AcDbDimStyleTableRecord
  2
STANDARD
 70
     0
 40
3.0
 77
     1
340
1D
  0
DIMSTYLE
105
734
102
{ACAD_REACTORS
330
633
330
631
330
62F
330
62E
330
62D
330
62C
330
62B
102
}
330
8
100
AcDbSymbolTableRecord
100
AcDbDimStyleTableRecord
  2
STD1
 70
     0
 40
3.0
 41
2.5
 42
0.75
 44
0.75
 73
     0
 74
     0
 77
     1
 78
     8
 79
     2
140
3.0
147
0.75
172
     1
176
     6
177
     6
178
     2
340
1D
341
72D
342
72D
371
    13
372
    13
1001
ACAD_DSTYLE_DIMBREAK
1070
   391
1040
0.125
1001
ACAD_DSTYLE_DIMJAG
1070
   388
1040
1.5
1001
ACAD_DSTYLE_DIMTALN
1070
   392
1070
     0
  0
ENDTAB
  0
TABLE
  2
BLOCK_RECORD
  5
27
330
0
100
AcDbSymbolTable
 70
    15
  0
BLOCK_RECORD
  5
25
330
27
100
AcDbSymbolTableRecord
100
AcDbBlockTableRecord
  2
*MODEL_SPACE
340
704
  0
BLOCK_RECORD
  5
26
330
27
100
AcDbSymbolTableRecord
100
AcDbBlockTableRecord
  2
*PAPER_SPACE
340
705
  0
BLOCK_RECORD
  5
1E
330
27
100
AcDbSymbolTableRecord
100
AcDbBlockTableRecord
  2
*D0
340
0
  0
BLOCK_RECORD
  5
1F
330
27
100
AcDbSymbolTableRecord
100
AcDbBlockTableRecord
  2
*D1
340
0
  0
BLOCK_RECORD
  5
20
330
27
100
AcDbSymbolTableRecord
100
AcDbBlockTableRecord
  2
*D2
340
0
  0
BLOCK_RECORD
  5
21
330
27
100
AcDbSymbolTableRecord
100
AcDbBlockTableRecord
  2
*D3
340
0
  0
BLOCK_RECORD
  5
22
330
27
100
AcDbSymbolTableRecord
100
AcDbBlockTableRecord
  2
*D4
340
0
  0
BLOCK_RECORD
  5
23
330
27
100
AcDbSymbolTableRecord
100
AcDbBlockTableRecord
  2
*D5
340
0
  0
BLOCK_RECORD
  5
24
330
27
100
AcDbSymbolTableRecord
100
AcDbBlockTableRecord
  2
*D6
340
0
  0
BLOCK_RECORD
  5
72D
330
27
100
AcDbSymbolTableRecord
100
AcDbBlockTableRecord
  2
_Open
340
0
102
{BLKREFS
331
79F
331
7A0
331
7A8
331
7A9
331
7B1
331
7B2
331
7BA
331
7BB
331
7C3
331
7C4
331
7CC
331
7CD
331
7E7
331
7E8
102
}
  0
BLOCK_RECORD
  5
736
330
27
100
AcDbSymbolTableRecord
100
AcDbBlockTableRecord
  2
*D8
340
0
  0
BLOCK_RECORD
  5
742
330
27
100
AcDbSymbolTableRecord
100
AcDbBlockTableRecord
  2
*D9
340
0
  0
BLOCK_RECORD
  5
74E
330
27
100
AcDbSymbolTableRecord
100
AcDbBlockTableRecord
  2
*D10
340
0
  0
BLOCK_RECORD
  5
75A
330
27
100
AcDbSymbolTableRecord
100
AcDbBlockTableRecord
  2
*D11
340
0
  0
BLOCK_RECORD
  5
766
330
27
100
AcDbSymbolTableRecord
100
AcDbBlockTableRecord
  2
*D12
340
0
  0
BLOCK_RECORD
  5
772
330
27
100
AcDbSymbolTableRecord
100
AcDbBlockTableRecord
  2
*D13
340
0
  0
BLOCK_RECORD
  5
77E
330
27
100
AcDbSymbolTableRecord
100
AcDbBlockTableRecord
  2
*D14
340
0
  0
ENDTAB
  0
ENDSEC
  0
SECTION
  2
BLOCKS
  0
BLOCK
  5
28
330
25
100
AcDbEntity
  8
0
100
AcDbBlockBegin
  2
*MODEL_SPACE
 70
     0
 10
0.0
 20
0.0
 30
0.0
  3
*MODEL_SPACE
  1

  0
ENDBLK
  5
29
330
25
100
AcDbEntity
  8
0
100
AcDbBlockEnd
  0
BLOCK
  5
2A
330
26
100
AcDbEntity
 67
     1
  8
0
100
AcDbBlockBegin
  2
*PAPER_SPACE
 70
     0
 10
0.0
 20
0.0
 30
0.0
  3
*PAPER_SPACE
  1

  0
ENDBLK
  5
2B
330
26
100
AcDbEntity
 67
     1
  8
0
100
AcDbBlockEnd
  0
BLOCK
  5
651
330
1E
100
AcDbEntity
  8
5
100
AcDbBlockBegin
  2
*D0
 70
     1
 10
0.0
 20
0.0
 30
0.0
  3
*D0
  1

  0
TEXT
  5
652
330
1E
100
AcDbEntity
  8
5
 62
     2
100
AcDbText
 10
122.859507
 20
-388.442322
 30
0.0
 40
9.9
  1
60
 41
0.6917647058823527
 72
     5
 11
133.947507
 21
-388.442322
 31
0.0
100
AcDbText
  0
LINE
  5
653
330
1E
100
AcDbEntity
  8
5
 62
     2
100
AcDbLine
 10
99.789507
 20
-305.513814
 30
0.0
 11
99.789507
 21
-392.9423220000002
 31
0.0
  0
LINE
  5
654
330
1E
100
AcDbEntity
  8
5
 62
     2
100
AcDbLine
 10
99.789507
 20
-389.942322
 30
0.0
 11
105.585062
 21
-391.495236
 31
0.0
  0
LINE
  5
655
330
1E
100
AcDbEntity
  8
5
 62
     2
100
AcDbLine
 10
99.789507
 20
-389.942322
 30
0.0
 11
105.585062
 21
-388.389408
 31
0.0
  0
LINE
  5
656
330
1E
100
AcDbEntity
  8
5
 62
     2
100
AcDbLine
 10
105.585062
 20
-391.495236
 30
0.0
 11
105.585062
 21
-388.389408
 31
0.0
  0
LINE
  5
657
330
1E
100
AcDbEntity
  8
5
 62
     2
100
AcDbLine
 10
99.789507
 20
-389.942322
 30
0.0
 11
159.789507
 21
-389.942322
 31
0.0
  0
LINE
  5
658
330
1E
100
AcDbEntity
  8
5
 62
     2
100
AcDbLine
 10
159.789507
 20
-389.942322
 30
0.0
 11
153.993952
 21
-388.389408
 31
0.0
  0
LINE
  5
659
330
1E
100
AcDbEntity
  8
5
 62
     2
100
AcDbLine
 10
159.789507
 20
-389.942322
 30
0.0
 11
153.993952
 21
-391.495236
 31
0.0
  0
LINE
  5
65A
330
1E
100
AcDbEntity
  8
5
 62
     2
100
AcDbLine
 10
153.993952
 20
-388.389408
 30
0.0
 11
153.993952
 21
-391.495236
 31
0.0
  0
LINE
  5
65B
330
1E
100
AcDbEntity
  8
5
 62
     2
100
AcDbLine
 10
159.789507
 20
-305.513814
 30
0.0
 11
159.789507
 21
-392.9423220000002
 31
0.0
  0
ENDBLK
  5
65C
330
1E
100
AcDbEntity
  8
5
100
AcDbBlockEnd
  0
BLOCK
  5
65D
330
1F
100
AcDbEntity
  8
5
100
AcDbBlockBegin
  2
*D1
 70
     1
 10
0.0
 20
0.0
 30
0.0
  3
*D1
  1

  0
TEXT
  5
65E
330
1F
100
AcDbEntity
  8
5
 62
     2
100
AcDbText
 10
34.467619
 20
-273.758814
 30
0.0
 40
9.9
  1
176
 50
90.0
 41
0.7800000000000014
 72
     5
 11
34.467619
 21
-255.740814
 31
0.0
100
AcDbText
  0
LINE
  5
65F
330
1F
100
AcDbEntity
  8
5
 62
     2
100
AcDbLine
 10
121.789507
 20
-351.213814
 30
0.0
 11
32.967619
 21
-351.213814
 31
0.0
  0
LINE
  5
660
330
1F
100
AcDbEntity
  8
5
 62
     2
100
AcDbLine
 10
35.967619
 20
-351.213814
 30
0.0
 11
37.520533
 21
-345.418259
 31
0.0
  0
LINE
  5
661
330
1F
100
AcDbEntity
  8
5
 62
     2
100
AcDbLine
 10
35.967619
 20
-351.213814
 30
0.0
 11
34.414705
 21
-345.418259
 31
0.0
  0
LINE
  5
662
330
1F
100
AcDbEntity
  8
5
 62
     2
100
AcDbLine
 10
37.520533
 20
-345.418259
 30
0.0
 11
34.414705
 21
-345.418259
 31
0.0
  0
LINE
  5
663
330
1F
100
AcDbEntity
  8
5
 62
     2
100
AcDbLine
 10
35.967619
 20
-351.213814
 30
0.0
 11
35.967619
 21
-175.513814
 31
0.0
  0
LINE
  5
664
330
1F
100
AcDbEntity
  8
5
 62
     2
100
AcDbLine
 10
35.967619
 20
-175.513814
 30
0.0
 11
34.414705
 21
-181.309369
 31
0.0
  0
LINE
  5
665
330
1F
100
AcDbEntity
  8
5
 62
     2
100
AcDbLine
 10
35.967619
 20
-175.513814
 30
0.0
 11
37.520533
 21
-181.309369
 31
0.0
  0
LINE
  5
666
330
1F
100
AcDbEntity
  8
5
 62
     2
100
AcDbLine
 10
34.414705
 20
-181.309369
 30
0.0
 11
37.520533
 21
-181.309369
 31
0.0
  0
LINE
  5
667
330
1F
100
AcDbEntity
  8
5
 62
     2
100
AcDbLine
 10
66.589507
 20
-175.513814
 30
0.0
 11
32.967619
 21
-175.513814
 31
0.0
  0
ENDBLK
  5
668
330
1F
100
AcDbEntity
  8
5
100
AcDbBlockEnd
  0
BLOCK
  5
669
330
20
100
AcDbEntity
  8
5
100
AcDbBlockBegin
  2
*D2
 70
     1
 10
0.0
 20
0.0
 30
0.0
  3
*D2
  1

  0
TEXT
  5
66A
330
20
100
AcDbEntity
  8
5
 62
     2
100
AcDbText
 10
34.467619
 20
-72.40881400000002
 30
0.0
 40
9.9
  1
227
 50
90.0
 41
0.7077777777777788
 72
     5
 11
34.467619
 21
-54.390814
 31
0.0
100
AcDbText
  0
LINE
  5
66B
330
20
100
AcDbEntity
  8
5
 62
     2
100
AcDbLine
 10
66.589507
 20
-175.513814
 30
0.0
 11
32.967619
 21
-175.513814
 31
0.0
  0
LINE
  5
66C
330
20
100
AcDbEntity
  8
5
 62
     2
100
AcDbLine
 10
35.967619
 20
-175.513814
 30
0.0
 11
37.520533
 21
-169.718259
 31
0.0
  0
LINE
  5
66D
330
20
100
AcDbEntity
  8
5
 62
     2
100
AcDbLine
 10
35.967619
 20
-175.513814
 30
0.0
 11
34.414705
 21
-169.718259
 31
0.0
  0
LINE
  5
66E
330
20
100
AcDbEntity
  8
5
 62
     2
100
AcDbLine
 10
37.520533
 20
-169.718259
 30
0.0
 11
34.414705
 21
-169.718259
 31
0.0
  0
LINE
  5
66F
330
20
100
AcDbEntity
  8
5
 62
     2
100
AcDbLine
 10
35.967619
 20
-175.513814
 30
0.0
 11
35.967619
 21
51.48618599999998
 31
0.0
  0
LINE
  5
670
330
20
100
AcDbEntity
  8
5
 62
     2
100
AcDbLine
 10
35.967619
 20
51.48618599999998
 30
0.0
 11
34.414705
 21
45.690631
 31
0.0
  0
LINE
  5
671
330
20
100
AcDbEntity
  8
5
 62
     2
100
AcDbLine
 10
35.967619
 20
51.48618599999998
 30
0.0
 11
37.520533
 21
45.690631
 31
0.0
  0
LINE
  5
672
330
20
100
AcDbEntity
  8
5
 62
     2
100
AcDbLine
 10
34.414705
 20
45.690631
 30
0.0
 11
37.520533
 21
45.690631
 31
0.0
  0
LINE
  5
673
330
20
100
AcDbEntity
  8
5
 62
     2
100
AcDbLine
 10
49.289507
 20
51.48618599999998
 30
0.0
 11
32.967619
 21
51.48618599999998
 31
0.0
  0
ENDBLK
  5
674
330
20
100
AcDbEntity
  8
5
100
AcDbBlockEnd
  0
BLOCK
  5
675
330
21
100
AcDbEntity
  8
5
100
AcDbBlockBegin
  2
*D3
 70
     1
 10
0.0
 20
0.0
 30
0.0
  3
*D3
  1

  0
TEXT
  5
676
330
21
100
AcDbEntity
  8
5
 62
     2
100
AcDbText
 10
-511.2844389999998
 20
300.111186
 30
0.0
 40
9.9
  1
102.5
 50
90.0
 41
0.8452499999999995
 72
     5
 11
-511.2844389999998
 21
331.989186
 31
0.0
100
AcDbText
  0
LINE
  5
677
330
21
100
AcDbEntity
  8
5
 62
     2
100
AcDbLine
 10
-501.1964719999999
 20
266.186186
 30
0.0
 11
-512.7844389999998
 21
266.186186
 31
0.0
  0
LINE
  5
678
330
21
100
AcDbEntity
  8
5
 62
     2
100
AcDbLine
 10
-509.7844389999998
 20
266.186186
 30
0.0
 11
-508.2315249999998
 21
271.981741
 31
0.0
  0
LINE
  5
679
330
21
100
AcDbEntity
  8
5
 62
     2
100
AcDbLine
 10
-509.7844389999998
 20
266.186186
 30
0.0
 11
-511.337353
 21
271.981741
 31
0.0
  0
LINE
  5
67A
330
21
100
AcDbEntity
  8
5
 62
     2
100
AcDbLine
 10
-508.2315249999998
 20
271.981741
 30
0.0
 11
-511.337353
 21
271.981741
 31
0.0
  0
LINE
  5
67B
330
21
100
AcDbEntity
  8
5
 62
     2
100
AcDbLine
 10
-509.7844389999998
 20
266.186186
 30
0.0
 11
-509.7844389999998
 21
368.686186
 31
0.0
  0
LINE
  5
67C
330
21
100
AcDbEntity
  8
5
 62
     2
100
AcDbLine
 10
-509.7844389999998
 20
368.686186
 30
0.0
 11
-511.337353
 21
362.890631
 31
0.0
  0
LINE
  5
67D
330
21
100
AcDbEntity
  8
5
 62
     2
100
AcDbLine
 10
-509.7844389999998
 20
368.686186
 30
0.0
 11
-508.2315249999998
 21
362.890631
 31
0.0
  0
LINE
  5
67E
330
21
100
AcDbEntity
  8
5
 62
     2
100
AcDbLine
 10
-511.337353
 20
362.890631
 30
0.0
 11
-508.2315249999998
 21
362.890631
 31
0.0
  0
LINE
  5
67F
330
21
100
AcDbEntity
  8
5
 62
     2
100
AcDbLine
 10
-368.910493
 20
368.686186
 30
0.0
 11
-512.7844389999998
 21
368.686186
 31
0.0
  0
ENDBLK
  5
680
330
21
100
AcDbEntity
  8
5
100
AcDbBlockEnd
  0
BLOCK
  5
681
330
22
100
AcDbEntity
  8
5
100
AcDbBlockBegin
  2
*D4
 70
     1
 10
0.0
 20
0.0
 30
0.0
  3
*D4
  1

  0
TEXT
  5
682
330
22
100
AcDbEntity
  8
5
 62
     2
100
AcDbText
 10
-511.2844389999998
 20
213.576186
 30
0.0
 40
9.9
  1
77.5
 50
90.0
 41
0.8268750000000004
 72
     5
 11
-511.2844389999998
 21
238.524186
 31
0.0
100
AcDbText
  0
LINE
  5
683
330
22
100
AcDbEntity
  8
5
 62
     2
100
AcDbLine
 10
-351.9104930000001
 20
188.686186
 30
0.0
 11
-512.7844389999998
 21
188.686186
 31
0.0
  0
LINE
  5
684
330
22
100
AcDbEntity
  8
5
 62
     2
100
AcDbLine
 10
-509.7844389999998
 20
188.686186
 30
0.0
 11
-508.2315249999998
 21
194.481741
 31
0.0
  0
LINE
  5
685
330
22
100
AcDbEntity
  8
5
 62
     2
100
AcDbLine
 10
-509.7844389999998
 20
188.686186
 30
0.0
 11
-511.337353
 21
194.481741
 31
0.0
  0
LINE
  5
686
330
22
100
AcDbEntity
  8
5
 62
     2
100
AcDbLine
 10
-508.2315249999998
 20
194.481741
 30
0.0
 11
-511.337353
 21
194.481741
 31
0.0
  0
LINE
  5
687
330
22
100
AcDbEntity
  8
5
 62
     2
100
AcDbLine
 10
-509.7844389999998
 20
188.686186
 30
0.0
 11
-509.7844389999998
 21
266.186186
 31
0.0
  0
LINE
  5
688
330
22
100
AcDbEntity
  8
5
 62
     2
100
AcDbLine
 10
-509.7844389999998
 20
266.186186
 30
0.0
 11
-511.337353
 21
260.390631
 31
0.0
  0
LINE
  5
689
330
22
100
AcDbEntity
  8
5
 62
     2
100
AcDbLine
 10
-509.7844389999998
 20
266.186186
 30
0.0
 11
-508.2315249999998
 21
260.390631
 31
0.0
  0
LINE
  5
68A
330
22
100
AcDbEntity
  8
5
 62
     2
100
AcDbLine
 10
-511.337353
 20
260.390631
 30
0.0
 11
-508.2315249999998
 21
260.390631
 31
0.0
  0
LINE
  5
68B
330
22
100
AcDbEntity
  8
5
 62
     2
100
AcDbLine
 10
-501.1964719999999
 20
266.186186
 30
0.0
 11
-512.7844389999998
 21
266.186186
 31
0.0
  0
ENDBLK
  5
68C
330
22
100
AcDbEntity
  8
5
100
AcDbBlockEnd
  0
BLOCK
  5
68D
330
23
100
AcDbEntity
  8
5
100
AcDbBlockBegin
  2
*D5
 70
     1
 10
0.0
 20
0.0
 30
0.0
  3
*D5
  1

  0
LINE
  5
68E
330
23
100
AcDbEntity
  8
5
 62
     2
100
AcDbLine
 10
52.77479599999999
 20
51.48618599999998
 30
0.0
 11
32.967619
 21
51.48618599999998
 31
0.0
  0
LINE
  5
68F
330
23
100
AcDbEntity
  8
5
 62
     2
100
AcDbLine
 10
35.967619
 20
51.48618599999998
 30
0.0
 11
37.520533
 21
57.281741
 31
0.0
  0
LINE
  5
690
330
23
100
AcDbEntity
  8
5
 62
     2
100
AcDbLine
 10
35.967619
 20
51.48618599999998
 30
0.0
 11
34.414705
 21
57.281741
 31
0.0
  0
LINE
  5
691
330
23
100
AcDbEntity
  8
5
 62
     2
100
AcDbLine
 10
37.520533
 20
57.281741
 30
0.0
 11
34.414705
 21
57.281741
 31
0.0
  0
LINE
  5
692
330
23
100
AcDbEntity
  8
5
 62
     2
100
AcDbLine
 10
35.967619
 20
51.48618599999998
 30
0.0
 11
35.967619
 21
148.882739
 31
0.0
  0
LINE
  5
693
330
23
100
AcDbEntity
  8
5
 62
     2
100
AcDbLine
 10
35.967619
 20
148.882739
 30
0.0
 11
34.414705
 21
143.087184
 31
0.0
  0
LINE
  5
694
330
23
100
AcDbEntity
  8
5
 62
     2
100
AcDbLine
 10
35.967619
 20
148.882739
 30
0.0
 11
37.520533
 21
143.087184
 31
0.0
  0
LINE
  5
695
330
23
100
AcDbEntity
  8
5
 62
     2
100
AcDbLine
 10
34.414705
 20
143.087184
 30
0.0
 11
37.520533
 21
143.087184
 31
0.0
  0
LINE
  5
696
330
23
100
AcDbEntity
  8
5
 62
     2
100
AcDbLine
 10
126.789507
 20
148.882739
 30
0.0
 11
32.967619
 21
148.882739
 31
0.0
  0
ENDBLK
  5
697
330
23
100
AcDbEntity
  8
5
100
AcDbBlockEnd
  0
BLOCK
  5
698
330
24
100
AcDbEntity
  8
5
100
AcDbBlockBegin
  2
*D6
 70
     1
 10
0.0
 20
0.0
 30
0.0
  3
*D6
  1

  0
LINE
  5
699
330
24
100
AcDbEntity
  8
5
 62
     2
100
AcDbLine
 10
-348.910493
 20
106.66141
 30
0.0
 11
-348.910493
 21
161.832527
 31
0.0
  0
LINE
  5
69A
330
24
100
AcDbEntity
  8
5
 62
     2
100
AcDbLine
 10
-348.910493
 20
158.832527
 30
0.0
 11
-343.114938
 21
157.279613
 31
0.0
  0
LINE
  5
69B
330
24
100
AcDbEntity
  8
5
 62
     2
100
AcDbLine
 10
-348.910493
 20
158.832527
 30
0.0
 11
-343.114938
 21
160.385441
 31
0.0
  0
LINE
  5
69C
330
24
100
AcDbEntity
  8
5
 62
     2
100
AcDbLine
 10
-343.114938
 20
157.279613
 30
0.0
 11
-343.114938
 21
160.385441
 31
0.0
  0
LINE
  5
69D
330
24
100
AcDbEntity
  8
5
 62
     2
100
AcDbLine
 10
-348.910493
 20
158.832527
 30
0.0
 11
0.9220019999999999
 21
158.832527
 31
0.0
  0
LINE
  5
69E
330
24
100
AcDbEntity
  8
5
 62
     2
100
AcDbLine
 10
0.9220019999999999
 20
158.832527
 30
0.0
 11
-4.873553
 21
160.385441
 31
0.0
  0
LINE
  5
69F
330
24
100
AcDbEntity
  8
5
 62
     2
100
AcDbLine
 10
0.9220019999999999
 20
158.832527
 30
0.0
 11
-4.873553
 21
157.279613
 31
0.0
  0
LINE
  5
6A0
330
24
100
AcDbEntity
  8
5
 62
     2
100
AcDbLine
 10
-4.873553
 20
160.385441
 30
0.0
 11
-4.873553
 21
157.279613
 31
0.0
  0
LINE
  5
6A1
330
24
100
AcDbEntity
  8
5
 62
     2
100
AcDbLine
 10
0.9220019999999999
 20
137.751636
 30
0.0
 11
0.9220019999999999
 21
161.832527
 31
0.0
  0
ENDBLK
  5
6A2
330
24
100
AcDbEntity
  8
5
100
AcDbBlockEnd
  0
BLOCK
  5
731
330
72D
100
AcDbEntity
  8
0
100
AcDbBlockBegin
  2
_Open
 70
     0
 10
0.0
 20
0.0
 30
0.0
  3
_Open
  1

  0
LINE
  5
72E
330
72D
100
AcDbEntity
  8
0
  6
ByBlock
 62
     0
370
    -2
100
AcDbLine
 10
-1.0
 20
0.1666666666666666
 30
0.0
 11
0.0
 21
0.0
 31
0.0
  0
LINE
  5
72F
330
72D
100
AcDbEntity
  8
0
  6
ByBlock
 62
     0
370
    -2
100
AcDbLine
 10
-1.0
 20
-0.1666666666666666
 30
0.0
 11
0.0
 21
0.0
 31
0.0
  0
LINE
  5
730
330
72D
100
AcDbEntity
  8
0
  6
ByBlock
 62
     0
370
    -2
100
AcDbLine
 10
0.0
 20
0.0
 30
0.0
 11
-1.0
 21
0.0
 31
0.0
  0
ENDBLK
  5
732
330
72D
100
AcDbEntity
  8
0
100
AcDbBlockEnd
  0
BLOCK
  5
737
330
736
100
AcDbEntity
  8
0
100
AcDbBlockBegin
  2
*D8
 70
     1
 10
0.0
 20
0.0
 30
0.0
  3
*D8
  1

  0
LINE
  5
7C9
330
736
100
AcDbEntity
  8
5
 62
     6
370
    13
100
AcDbLine
 10
-348.910493
 20
105.91141
 30
0.0
 11
-348.910493
 21
161.082527
 31
0.0
  0
LINE
  5
7CA
330
736
100
AcDbEntity
  8
5
 62
     6
370
    13
100
AcDbLine
 10
0.9220019999999999
 20
137.001636
 30
0.0
 11
0.9220020000000015
 21
161.082527
 31
0.0
  0
LINE
  5
7CB
330
736
100
AcDbEntity
  8
5
 62
     6
370
    13
100
AcDbLine
 10
-341.4104930000001
 20
158.832527
 30
0.0
 11
-6.577997999999997
 21
158.832527
 31
0.0
  0
INSERT
  5
7CC
330
736
100
AcDbEntity
  8
5
 62
     6
370
    13
100
AcDbBlockReference
  2
_Open
 10
-348.910493
 20
158.832527
 30
0.0
 41
7.5
 42
7.5
 43
7.5
 50
180.0
  0
INSERT
  5
7CD
330
736
100
AcDbEntity
  8
5
 62
     6
370
    13
100
AcDbBlockReference
  2
_Open
 10
0.9220020000000014
 20
158.832527
 30
0.0
 41
7.5
 42
7.5
 43
7.5
  0
MTEXT
  5
7CE
330
736
100
AcDbEntity
  8
5
 62
     2
100
AcDbMText
 10
-173.9942455
 20
165.582527
 30
0.0
 40
9.0
 41
0.0
 71
     5
 72
     1
  1
\A1;350
 73
     1
 44
1.0
1001
ACAD
1000
MTEXTBEGIN
1070
    73
1070
     1
1070
    44
1040
1.0
1070
    74
1070
     0
1000
MTEXTEND
  0
POINT
  5
7CF
330
736
100
AcDbEntity
  8
Defpoints
 62
     0
100
AcDbPoint
 10
-348.910493
 20
103.66141
 30
0.0
  0
POINT
  5
7D0
330
736
100
AcDbEntity
  8
Defpoints
 62
     0
100
AcDbPoint
 10
0.9220019999999999
 20
134.751636
 30
0.0
  0
POINT
  5
7D1
330
736
100
AcDbEntity
  8
Defpoints
 62
     0
100
AcDbPoint
 10
0.9220020000000014
 20
158.832527
 30
0.0
  0
ENDBLK
  5
738
330
736
100
AcDbEntity
  8
0
100
AcDbBlockEnd
  0
BLOCK
  5
743
330
742
100
AcDbEntity
  8
0
100
AcDbBlockBegin
  2
*D9
 70
     1
 10
0.0
 20
0.0
 30
0.0
  3
*D9
  1

  0
LINE
  5
7E4
330
742
100
AcDbEntity
  8
5
 62
     6
370
    13
100
AcDbLine
 10
50.039507
 20
51.48618599999998
 30
0.0
 11
33.71761899999998
 21
51.48618599999998
 31
0.0
  0
LINE
  5
7E5
330
742
100
AcDbEntity
  8
5
 62
     6
370
    13
100
AcDbLine
 10
127.539507
 20
148.882739
 30
0.0
 11
33.71761899999999
 21
148.882739
 31
0.0
  0
LINE
  5
7E6
330
742
100
AcDbEntity
  8
5
 62
     6
370
    13
100
AcDbLine
 10
35.96761899999998
 20
58.98618599999998
 30
0.0
 11
35.96761899999999
 21
141.3827389999999
 31
0.0
  0
INSERT
  5
7E7
330
742
100
AcDbEntity
  8
5
 62
     6
370
    13
100
AcDbBlockReference
  2
_Open
 10
35.96761899999998
 20
51.48618599999998
 30
0.0
 41
7.5
 42
7.5
 43
7.5
 50
270.0
  0
INSERT
  5
7E8
330
742
100
AcDbEntity
  8
5
 62
     6
370
    13
100
AcDbBlockReference
  2
_Open
 10
35.967619
 20
148.882739
 30
0.0
 41
7.5
 42
7.5
 43
7.5
 50
90.0
  0
MTEXT
  5
7E9
330
742
100
AcDbEntity
  8
5
 62
     2
100
AcDbMText
 10
29.21761899999997
 20
100.1844625
 30
0.0
 40
9.0
 41
0.0
 71
     5
 72
     1
  1
\A1;97（概略）
 11
0.0000000000000001
 21
1.0
 31
0.0
 73
     1
 44
1.0
1001
ACAD
1000
MTEXTBEGIN
1070
    73
1070
     1
1070
    44
1040
1.0
1070
    74
1070
     0
1000
MTEXTEND
  0
POINT
  5
7EA
330
742
100
AcDbEntity
  8
Defpoints
 62
     0
100
AcDbPoint
 10
52.289507
 20
51.48618599999998
 30
0.0
  0
POINT
  5
7EB
330
742
100
AcDbEntity
  8
Defpoints
 62
     0
100
AcDbPoint
 10
129.789507
 20
148.882739
 30
0.0
  0
POINT
  5
7EC
330
742
100
AcDbEntity
  8
Defpoints
 62
     0
100
AcDbPoint
 10
35.967619
 20
148.882739
 30
0.0
  0
ENDBLK
  5
744
330
742
100
AcDbEntity
  8
0
100
AcDbBlockEnd
  0
BLOCK
  5
74F
330
74E
100
AcDbEntity
  8
0
100
AcDbBlockBegin
  2
*D10
 70
     1
 10
0.0
 20
0.0
 30
0.0
  3
*D10
  1

  0
LINE
  5
79C
330
74E
100
AcDbEntity
  8
5
 62
     6
370
    13
100
AcDbLine
 10
-351.160493
 20
188.686186
 30
0.0
 11
-512.0344389999997
 21
188.686186
 31
0.0
  0
LINE
  5
79D
330
74E
100
AcDbEntity
  8
5
 62
     6
370
    13
100
AcDbLine
 10
-500.4464719999998
 20
266.186186
 30
0.0
 11
-512.0344389999996
 21
266.186186
 31
0.0
  0
LINE
  5
79E
330
74E
100
AcDbEntity
  8
5
 62
     6
370
    13
100
AcDbLine
 10
-509.7844389999998
 20
196.186186
 30
0.0
 11
-509.7844389999998
 21
258.6861859999999
 31
0.0
  0
INSERT
  5
79F
330
74E
100
AcDbEntity
  8
5
 62
     6
370
    13
100
AcDbBlockReference
  2
_Open
 10
-509.7844389999998
 20
188.686186
 30
0.0
 41
7.5
 42
7.5
 43
7.5
 50
270.0
  0
INSERT
  5
7A0
330
74E
100
AcDbEntity
  8
5
 62
     6
370
    13
100
AcDbBlockReference
  2
_Open
 10
-509.7844389999998
 20
266.186186
 30
0.0
 41
7.5
 42
7.5
 43
7.5
 50
90.0
  0
MTEXT
  5
7A1
330
74E
100
AcDbEntity
  8
5
 62
     2
100
AcDbMText
 10
-516.5344389999997
 20
227.4361859999999
 30
0.0
 40
9.0
 41
0.0
 71
     5
 72
     1
  1
\A1;77.5
 11
0.0000000000000001
 21
1.0
 31
0.0
 73
     1
 44
1.0
1001
ACAD
1000
MTEXTBEGIN
1070
    73
1070
     1
1070
    44
1040
1.0
1070
    74
1070
     0
1000
MTEXTEND
  0
POINT
  5
7A2
330
74E
100
AcDbEntity
  8
Defpoints
 62
     0
100
AcDbPoint
 10
-348.910493
 20
188.686186
 30
0.0
  0
POINT
  5
7A3
330
74E
100
AcDbEntity
  8
Defpoints
 62
     0
100
AcDbPoint
 10
-498.1964719999998
 20
266.186186
 30
0.0
  0
POINT
  5
7A4
330
74E
100
AcDbEntity
  8
Defpoints
 62
     0
100
AcDbPoint
 10
-509.7844389999998
 20
266.186186
 30
0.0
  0
ENDBLK
  5
750
330
74E
100
AcDbEntity
  8
0
100
AcDbBlockEnd
  0
BLOCK
  5
75B
330
75A
100
AcDbEntity
  8
0
100
AcDbBlockBegin
  2
*D11
 70
     1
 10
0.0
 20
0.0
 30
0.0
  3
*D11
  1

  0
LINE
  5
7A5
330
75A
100
AcDbEntity
  8
5
 62
     6
370
    13
100
AcDbLine
 10
-500.4464719999998
 20
266.186186
 30
0.0
 11
-512.0344389999996
 21
266.186186
 31
0.0
  0
LINE
  5
7A6
330
75A
100
AcDbEntity
  8
5
 62
     6
370
    13
100
AcDbLine
 10
-368.160493
 20
368.686186
 30
0.0
 11
-512.0344389999996
 21
368.686186
 31
0.0
  0
LINE
  5
7A7
330
75A
100
AcDbEntity
  8
5
 62
     6
370
    13
100
AcDbLine
 10
-509.7844389999998
 20
273.686186
 30
0.0
 11
-509.7844389999998
 21
361.186186
 31
0.0
  0
INSERT
  5
7A8
330
75A
100
AcDbEntity
  8
5
 62
     6
370
    13
100
AcDbBlockReference
  2
_Open
 10
-509.7844389999998
 20
266.186186
 30
0.0
 41
7.5
 42
7.5
 43
7.5
 50
270.0
  0
INSERT
  5
7A9
330
75A
100
AcDbEntity
  8
5
 62
     6
370
    13
100
AcDbBlockReference
  2
_Open
 10
-509.7844389999998
 20
368.686186
 30
0.0
 41
7.5
 42
7.5
 43
7.5
 50
90.0
  0
MTEXT
  5
7AA
330
75A
100
AcDbEntity
  8
5
 62
     2
100
AcDbMText
 10
-516.5344389999997
 20
317.436186
 30
0.0
 40
9.0
 41
0.0
 71
     5
 72
     1
  1
\A1;102.5
 11
0.0000000000000001
 21
1.0
 31
0.0
 73
     1
 44
1.0
1001
ACAD
1000
MTEXTBEGIN
1070
    73
1070
     1
1070
    44
1040
1.0
1070
    74
1070
     0
1000
MTEXTEND
  0
POINT
  5
7AB
330
75A
100
AcDbEntity
  8
Defpoints
 62
     0
100
AcDbPoint
 10
-498.1964719999998
 20
266.186186
 30
0.0
  0
POINT
  5
7AC
330
75A
100
AcDbEntity
  8
Defpoints
 62
     0
100
AcDbPoint
 10
-365.910493
 20
368.686186
 30
0.0
  0
POINT
  5
7AD
330
75A
100
AcDbEntity
  8
Defpoints
 62
     0
100
AcDbPoint
 10
-509.7844389999998
 20
368.686186
 30
0.0
  0
ENDBLK
  5
75C
330
75A
100
AcDbEntity
  8
0
100
AcDbBlockEnd
  0
BLOCK
  5
767
330
766
100
AcDbEntity
  8
0
100
AcDbBlockBegin
  2
*D12
 70
     1
 10
0.0
 20
0.0
 30
0.0
  3
*D12
  1

  0
LINE
  5
7AE
330
766
100
AcDbEntity
  8
5
 62
     6
370
    13
100
AcDbLine
 10
67.339507
 20
-175.513814
 30
0.0
 11
33.71761899999995
 21
-175.5138139999999
 31
0.0
  0
LINE
  5
7AF
330
766
100
AcDbEntity
  8
5
 62
     6
370
    13
100
AcDbLine
 10
50.039507
 20
51.48618599999998
 30
0.0
 11
33.717619
 21
51.48618599999998
 31
0.0
  0
LINE
  5
7B0
330
766
100
AcDbEntity
  8
5
 62
     6
370
    13
100
AcDbLine
 10
35.96761899999995
 20
-168.0138139999999
 30
0.0
 11
35.96761899999999
 21
43.98618599999998
 31
0.0
  0
INSERT
  5
7B1
330
766
100
AcDbEntity
  8
5
 62
     6
370
    13
100
AcDbBlockReference
  2
_Open
 10
35.96761899999995
 20
-175.5138139999999
 30
0.0
 41
7.5
 42
7.5
 43
7.5
 50
270.0
  0
INSERT
  5
7B2
330
766
100
AcDbEntity
  8
5
 62
     6
370
    13
100
AcDbBlockReference
  2
_Open
 10
35.967619
 20
51.48618599999998
 30
0.0
 41
7.5
 42
7.5
 43
7.5
 50
90.0
  0
MTEXT
  5
7B3
330
766
100
AcDbEntity
  8
5
 62
     2
100
AcDbMText
 10
29.21761899999998
 20
-62.01381399999998
 30
0.0
 40
9.0
 41
0.0
 71
     5
 72
     1
  1
\A1;227
 11
0.0000000000000001
 21
1.0
 31
0.0
 73
     1
 44
1.0
1001
ACAD
1000
MTEXTBEGIN
1070
    73
1070
     1
1070
    44
1040
1.0
1070
    74
1070
     0
1000
MTEXTEND
  0
POINT
  5
7B4
330
766
100
AcDbEntity
  8
Defpoints
 62
     0
100
AcDbPoint
 10
69.58950699999999
 20
-175.513814
 30
0.0
  0
POINT
  5
7B5
330
766
100
AcDbEntity
  8
Defpoints
 62
     0
100
AcDbPoint
 10
52.289507
 20
51.48618599999998
 30
0.0
  0
POINT
  5
7B6
330
766
100
AcDbEntity
  8
Defpoints
 62
     0
100
AcDbPoint
 10
35.967619
 20
51.48618599999998
 30
0.0
  0
ENDBLK
  5
768
330
766
100
AcDbEntity
  8
0
100
AcDbBlockEnd
  0
BLOCK
  5
773
330
772
100
AcDbEntity
  8
0
100
AcDbBlockBegin
  2
*D13
 70
     1
 10
0.0
 20
0.0
 30
0.0
  3
*D13
  1

  0
LINE
  5
7B7
330
772
100
AcDbEntity
  8
5
 62
     6
370
    13
100
AcDbLine
 10
122.539507
 20
-351.213814
 30
0.0
 11
33.71761899999996
 21
-351.213814
 31
0.0
  0
LINE
  5
7B8
330
772
100
AcDbEntity
  8
5
 62
     6
370
    13
100
AcDbLine
 10
67.339507
 20
-175.513814
 30
0.0
 11
33.717619
 21
-175.5138139999999
 31
0.0
  0
LINE
  5
7B9
330
772
100
AcDbEntity
  8
5
 62
     6
370
    13
100
AcDbLine
 10
35.96761899999997
 20
-343.713814
 30
0.0
 11
35.96761899999999
 21
-183.0138139999999
 31
0.0
  0
INSERT
  5
7BA
330
772
100
AcDbEntity
  8
5
 62
     6
370
    13
100
AcDbBlockReference
  2
_Open
 10
35.96761899999997
 20
-351.213814
 30
0.0
 41
7.5
 42
7.5
 43
7.5
 50
270.0
  0
INSERT
  5
7BB
330
772
100
AcDbEntity
  8
5
 62
     6
370
    13
100
AcDbBlockReference
  2
_Open
 10
35.967619
 20
-175.5138139999999
 30
0.0
 41
7.5
 42
7.5
 43
7.5
 50
90.0
  0
MTEXT
  5
7BC
330
772
100
AcDbEntity
  8
5
 62
     2
100
AcDbMText
 10
29.21761900000002
 20
-263.363814
 30
0.0
 40
9.0
 41
0.0
 71
     5
 72
     1
  1
\A1;176
 11
0.0000000000000001
 21
1.0
 31
0.0
 73
     1
 44
1.0
1001
ACAD
1000
MTEXTBEGIN
1070
    73
1070
     1
1070
    44
1040
1.0
1070
    74
1070
     0
1000
MTEXTEND
  0
POINT
  5
7BD
330
772
100
AcDbEntity
  8
Defpoints
 62
     0
100
AcDbPoint
 10
124.789507
 20
-351.213814
 30
0.0
  0
POINT
  5
7BE
330
772
100
AcDbEntity
  8
Defpoints
 62
     0
100
AcDbPoint
 10
69.58950699999999
 20
-175.513814
 30
0.0
  0
POINT
  5
7BF
330
772
100
AcDbEntity
  8
Defpoints
 62
     0
100
AcDbPoint
 10
35.967619
 20
-175.5138139999999
 30
0.0
  0
ENDBLK
  5
774
330
772
100
AcDbEntity
  8
0
100
AcDbBlockEnd
  0
BLOCK
  5
77F
330
77E
100
AcDbEntity
  8
0
100
AcDbBlockBegin
  2
*D14
 70
     1
 10
0.0
 20
0.0
 30
0.0
  3
*D14
  1

  0
LINE
  5
7C0
330
77E
100
AcDbEntity
  8
5
 62
     6
370
    13
100
AcDbLine
 10
99.789507
 20
-304.763814
 30
0.0
 11
99.789507
 21
-392.192322
 31
0.0
  0
LINE
  5
7C1
330
77E
100
AcDbEntity
  8
5
 62
     6
370
    13
100
AcDbLine
 10
159.789507
 20
-304.763814
 30
0.0
 11
159.789507
 21
-392.192322
 31
0.0
  0
LINE
  5
7C2
330
77E
100
AcDbEntity
  8
5
 62
     6
370
    13
100
AcDbLine
 10
107.289507
 20
-389.942322
 30
0.0
 11
152.289507
 21
-389.942322
 31
0.0
  0
INSERT
  5
7C3
330
77E
100
AcDbEntity
  8
5
 62
     6
370
    13
100
AcDbBlockReference
  2
_Open
 10
99.789507
 20
-389.942322
 30
0.0
 41
7.5
 42
7.5
 43
7.5
 50
180.0
  0
INSERT
  5
7C4
330
77E
100
AcDbEntity
  8
5
 62
     6
370
    13
100
AcDbBlockReference
  2
_Open
 10
159.789507
 20
-389.942322
 30
0.0
 41
7.5
 42
7.5
 43
7.5
  0
MTEXT
  5
7C5
330
77E
100
AcDbEntity
  8
5
 62
     2
100
AcDbMText
 10
129.789507
 20
-383.1923220000001
 30
0.0
 40
9.0
 41
0.0
 71
     5
 72
     1
  1
\A1;60
 73
     1
 44
1.0
1001
ACAD
1000
MTEXTBEGIN
1070
    73
1070
     1
1070
    44
1040
1.0
1070
    74
1070
     0
1000
MTEXTEND
  0
POINT
  5
7C6
330
77E
100
AcDbEntity
  8
Defpoints
 62
     0
100
AcDbPoint
 10
99.789507
 20
-302.513814
 30
0.0
  0
POINT
  5
7C7
330
77E
100
AcDbEntity
  8
Defpoints
 62
     0
100
AcDbPoint
 10
159.789507
 20
-302.513814
 30
0.0
  0
POINT
  5
7C8
330
77E
100
AcDbEntity
  8
Defpoints
 62
     0
100
AcDbPoint
 10
159.789507
 20
-389.942322
 30
0.0
  0
ENDBLK
  5
780
330
77E
100
AcDbEntity
  8
0
100
AcDbBlockEnd
  0
ENDSEC
  0
SECTION
  2
ENTITIES
  0
LINE
  5
2D
330
25
100
AcDbEntity
  8
BODY
  6
CENTER
 62
     4
370
    13
100
AcDbLine
 10
-498.1964719999998
 20
-175.513814
 30
0.0
 11
-191.910493
 21
-175.513814
 31
0.0
  0
LINE
  5
2E
330
25
100
AcDbEntity
  8
BODY
  6
CENTER
 62
     4
370
    13
100
AcDbLine
 10
-348.910493
 20
-368.085104
 30
0.0
 11
-348.910493
 21
103.66141
 31
0.0
  0
LINE
  5
2F
330
25
100
AcDbEntity
  8
BODY
100
AcDbLine
 10
-301.9104930000001
 20
37.486186
 30
0.0
 11
-395.910493
 21
37.486186
 31
0.0
  0
LINE
  5
30
330
25
100
AcDbEntity
  8
BODY
100
AcDbLine
 10
-399.9104930000001
 20
51.48618599999998
 30
0.0
 11
-399.9104930000001
 21
41.48618599999998
 31
0.0
  0
LINE
  5
31
330
25
100
AcDbEntity
  8
BODY
100
AcDbLine
 10
-297.910493
 20
51.48618599999998
 30
0.0
 11
-297.910493
 21
41.48618599999998
 31
0.0
  0
LINE
  5
32
330
25
100
AcDbEntity
  8
BODY
100
AcDbLine
 10
-369.910493
 20
27.486186
 30
0.0
 11
-369.910493
 21
-41.040768
 31
0.0
  0
LINE
  5
33
330
25
100
AcDbEntity
  8
BODY
100
AcDbLine
 10
-327.910493
 20
27.486186
 30
0.0
 11
-327.910493
 21
-41.040768
 31
0.0
  0
LINE
  5
34
330
25
100
AcDbEntity
  8
BODY
  6
DASHED
370
    13
100
AcDbLine
 10
-376.410493
 20
317.186186
 30
0.0
 11
-321.410493
 21
317.186186
 31
0.0
  0
LINE
  5
35
330
25
100
AcDbEntity
  8
BODY
  6
DASHED
370
    13
100
AcDbLine
 10
-297.910493
 20
293.686186
 30
0.0
 11
-297.910493
 21
238.686186
 31
0.0
  0
LINE
  5
36
330
25
100
AcDbEntity
  8
BODY
  6
DASHED
370
    13
100
AcDbLine
 10
-321.410493
 20
215.186186
 30
0.0
 11
-376.410493
 21
215.186186
 31
0.0
  0
CIRCLE
  5
37
330
25
100
AcDbEntity
  8
BODY
  6
DASHED
370
    13
100
AcDbCircle
 10
-384.910493
 20
230.186186
 30
0.0
 40
5.5
  0
CIRCLE
  5
38
330
25
100
AcDbEntity
  8
BODY
  6
DASHED
370
    13
100
AcDbCircle
 10
-312.910493
 20
230.186186
 30
0.0
 40
5.5
  0
CIRCLE
  5
39
330
25
100
AcDbEntity
  8
BODY
  6
DASHED
370
    13
100
AcDbCircle
 10
-312.910493
 20
302.186186
 30
0.0
 40
5.5
  0
CIRCLE
  5
3A
330
25
100
AcDbEntity
  8
BODY
  6
DASHED
370
    13
100
AcDbCircle
 10
-384.910493
 20
302.186186
 30
0.0
 40
5.5
  0
LINE
  5
3B
330
25
100
AcDbEntity
  8
BODY
  6
CENTER
 62
     4
370
    13
100
AcDbLine
 10
-323.010493
 20
302.186186
 30
0.0
 11
-302.160493
 21
302.186186
 31
0.0
  0
LINE
  5
3C
330
25
100
AcDbEntity
  8
BODY
  6
CENTER
 62
     4
370
    13
100
AcDbLine
 10
-394.785493
 20
230.186186
 30
0.0
 11
-373.185493
 21
230.186186
 31
0.0
  0
LINE
  5
3D
330
25
100
AcDbEntity
  8
BODY
  6
CENTER
 62
     4
370
    13
100
AcDbLine
 10
-312.910493
 20
312.236186
 30
0.0
 11
-312.910493
 21
292.161186
 31
0.0
  0
LINE
  5
3E
330
25
100
AcDbEntity
  8
BODY
  6
DASHED
370
    13
100
AcDbLine
 10
-399.9104930000001
 20
293.686186
 30
0.0
 11
-399.9104930000001
 21
238.686186
 31
0.0
  0
LINE
  5
3F
330
25
100
AcDbEntity
  8
BODY
  6
CENTER
 62
     4
370
    13
100
AcDbLine
 10
-384.910493
 20
220.663565
 30
0.0
 11
-384.910493
 21
240.436186
 31
0.0
  0
LINE
  5
40
330
25
100
AcDbEntity
  8
BODY
  6
CENTER
 62
     4
370
    13
100
AcDbLine
 10
-330.910493
 20
-330.149997
 30
0.0
 11
-330.910493
 21
-356.305942
 31
0.0
  0
LINE
  5
41
330
25
100
AcDbEntity
  8
BODY
  6
CENTER
 62
     4
370
    13
100
AcDbLine
 10
-366.910493
 20
-330.149997
 30
0.0
 11
-366.910493
 21
-356.305942
 31
0.0
  0
LINE
  5
42
330
25
100
AcDbEntity
  8
BODY
100
AcDbLine
 10
-337.010493
 20
-347.213814
 30
0.0
 11
-324.810493
 21
-347.213814
 31
0.0
  0
LINE
  5
43
330
25
100
AcDbEntity
  8
BODY
100
AcDbLine
 10
-325.160493
 20
-347.213814
 30
0.0
 11
-325.160493
 21
-350.723066
 31
0.0
  0
LINE
  5
44
330
25
100
AcDbEntity
  8
BODY
100
AcDbLine
 10
-325.160493
 20
-350.723066
 30
0.0
 11
-326.010493
 21
-351.213814
 31
0.0
  0
LINE
  5
45
330
25
100
AcDbEntity
  8
BODY
100
AcDbLine
 10
-328.0354930000001
 20
-347.213814
 30
0.0
 11
-328.0354930000001
 21
-350.723066
 31
0.0
  0
ARC
  5
46
330
25
100
AcDbEntity
  8
BODY
100
AcDbCircle
 10
-326.597993
 20
-348.875111
 30
0.0
 40
2.341226999999999
100
AcDbArc
 50
232.121121
 51
307.878879
  0
ARC
  5
47
330
25
100
AcDbEntity
  8
BODY
100
AcDbCircle
 10
-330.910493
 20
-342.591338
 30
0.0
 40
8.625
100
AcDbArc
 50
250.528777
 51
289.471219
  0
LINE
  5
48
330
25
100
AcDbEntity
  8
BODY
100
AcDbLine
 10
-336.660493
 20
-347.213814
 30
0.0
 11
-336.660493
 21
-350.723066
 31
0.0
  0
LINE
  5
49
330
25
100
AcDbEntity
  8
BODY
100
AcDbLine
 10
-336.660493
 20
-350.723066
 30
0.0
 11
-335.810493
 21
-351.213814
 31
0.0
  0
LINE
  5
4A
330
25
100
AcDbEntity
  8
BODY
100
AcDbLine
 10
-335.810493
 20
-351.213814
 30
0.0
 11
-326.010493
 21
-351.213814
 31
0.0
  0
LINE
  5
4B
330
25
100
AcDbEntity
  8
BODY
100
AcDbLine
 10
-333.785493
 20
-347.213814
 30
0.0
 11
-333.785493
 21
-350.723066
 31
0.0
  0
ARC
  5
4C
330
25
100
AcDbEntity
  8
BODY
100
AcDbCircle
 10
-335.222993
 20
-348.875111
 30
0.0
 40
2.341226999999999
100
AcDbArc
 50
232.121121
 51
307.878879
  0
LINE
  5
4D
330
25
100
AcDbEntity
  8
BODY
100
AcDbLine
 10
-324.810493
 20
-345.713814
 30
0.0
 11
-324.810493
 21
-347.213814
 31
0.0
  0
LINE
  5
4E
330
25
100
AcDbEntity
  8
BODY
100
AcDbLine
 10
-337.010493
 20
-347.213814
 30
0.0
 11
-337.010493
 21
-345.713814
 31
0.0
  0
LINE
  5
4F
330
25
100
AcDbEntity
  8
BODY
100
AcDbLine
 10
-330.910493
 20
-347.213814
 30
0.0
 11
-331.410493
 21
-345.713814
 31
0.0
  0
LINE
  5
50
330
25
100
AcDbEntity
  8
BODY
100
AcDbLine
 10
-330.910493
 20
-345.713814
 30
0.0
 11
-330.410493
 21
-347.213814
 31
0.0
  0
LINE
  5
51
330
25
100
AcDbEntity
  8
BODY
100
AcDbLine
 10
-373.010493
 20
-347.213814
 30
0.0
 11
-360.810493
 21
-347.213814
 31
0.0
  0
LINE
  5
52
330
25
100
AcDbEntity
  8
BODY
100
AcDbLine
 10
-361.160493
 20
-347.213814
 30
0.0
 11
-361.160493
 21
-350.723066
 31
0.0
  0
LINE
  5
53
330
25
100
AcDbEntity
  8
BODY
100
AcDbLine
 10
-361.160493
 20
-350.723066
 30
0.0
 11
-362.010493
 21
-351.213814
 31
0.0
  0
LINE
  5
54
330
25
100
AcDbEntity
  8
BODY
100
AcDbLine
 10
-364.035493
 20
-347.213814
 30
0.0
 11
-364.035493
 21
-350.723066
 31
0.0
  0
ARC
  5
55
330
25
100
AcDbEntity
  8
BODY
100
AcDbCircle
 10
-362.597993
 20
-348.875111
 30
0.0
 40
2.341226999999999
100
AcDbArc
 50
232.121121
 51
307.878879
  0
ARC
  5
56
330
25
100
AcDbEntity
  8
BODY
100
AcDbCircle
 10
-366.910493
 20
-342.591338
 30
0.0
 40
8.625
100
AcDbArc
 50
250.528777
 51
289.471219
  0
LINE
  5
57
330
25
100
AcDbEntity
  8
BODY
100
AcDbLine
 10
-372.6604930000001
 20
-347.213814
 30
0.0
 11
-372.6604930000001
 21
-350.723066
 31
0.0
  0
LINE
  5
58
330
25
100
AcDbEntity
  8
BODY
100
AcDbLine
 10
-372.6604930000001
 20
-350.723066
 30
0.0
 11
-371.810493
 21
-351.213814
 31
0.0
  0
LINE
  5
59
330
25
100
AcDbEntity
  8
BODY
100
AcDbLine
 10
-371.810493
 20
-351.213814
 30
0.0
 11
-362.010493
 21
-351.213814
 31
0.0
  0
LINE
  5
5A
330
25
100
AcDbEntity
  8
BODY
100
AcDbLine
 10
-369.785493
 20
-347.213814
 30
0.0
 11
-369.785493
 21
-350.723066
 31
0.0
  0
ARC
  5
5B
330
25
100
AcDbEntity
  8
BODY
100
AcDbCircle
 10
-371.222993
 20
-348.875111
 30
0.0
 40
2.341226999999999
100
AcDbArc
 50
232.121121
 51
307.878879
  0
LINE
  5
5C
330
25
100
AcDbEntity
  8
BODY
100
AcDbLine
 10
-360.810493
 20
-345.713814
 30
0.0
 11
-360.810493
 21
-347.213814
 31
0.0
  0
LINE
  5
5D
330
25
100
AcDbEntity
  8
BODY
100
AcDbLine
 10
-373.010493
 20
-347.213814
 30
0.0
 11
-373.010493
 21
-345.713814
 31
0.0
  0
LINE
  5
5E
330
25
100
AcDbEntity
  8
BODY
100
AcDbLine
 10
-366.910493
 20
-347.213814
 30
0.0
 11
-367.410493
 21
-345.713814
 31
0.0
  0
LINE
  5
5F
330
25
100
AcDbEntity
  8
BODY
100
AcDbLine
 10
-366.910493
 20
-345.713814
 30
0.0
 11
-366.4104930000001
 21
-347.213814
 31
0.0
  0
ARC
  5
60
330
25
100
AcDbEntity
  8
BODY
100
AcDbCircle
 10
-395.910493
 20
41.48618599999998
 30
0.0
 40
4.0
100
AcDbArc
 50
180.0
 51
270.0
  0
ARC
  5
61
330
25
100
AcDbEntity
  8
BODY
100
AcDbCircle
 10
-301.9104930000001
 20
41.48618599999998
 30
0.0
 40
4.0
100
AcDbArc
 50
270.0
 51
360.0
  0
ARC
  5
62
330
25
100
AcDbEntity
  8
BODY
100
AcDbCircle
 10
-307.910493
 20
17.486186
 30
0.0
 40
20.0
100
AcDbArc
 50
137.466119
 51
180.0
  0
ARC
  5
63
330
25
100
AcDbEntity
  8
BODY
100
AcDbCircle
 10
-389.910493
 20
17.486186
 30
0.0
 40
20.0
100
AcDbArc
 50
0.0
 51
90.0
  0
LINE
  5
64
330
25
100
AcDbEntity
  8
BODY
100
AcDbLine
 10
-345.910493
 20
9.548747
 30
0.0
 11
-351.9104930000001
 21
9.548747
 31
0.0
  0
LINE
  5
65
330
25
100
AcDbEntity
  8
BODY
100
AcDbLine
 10
-351.9104930000001
 20
34.486186
 30
0.0
 11
-351.9104930000001
 21
12.548747
 31
0.0
  0
LINE
  5
66
330
25
100
AcDbEntity
  8
BODY
100
AcDbLine
 10
-345.910493
 20
34.486186
 30
0.0
 11
-345.910493
 21
12.548747
 31
0.0
  0
ARC
  5
67
330
25
100
AcDbEntity
  8
BODY
100
AcDbCircle
 10
-342.910493
 20
34.486186
 30
0.0
 40
3.0
100
AcDbArc
 50
90.0
 51
180.0
  0
ARC
  5
68
330
25
100
AcDbEntity
  8
BODY
100
AcDbCircle
 10
-354.910493
 20
34.486186
 30
0.0
 40
3.0
100
AcDbArc
 50
0.0
 51
90.0
  0
ARC
  5
69
330
25
100
AcDbEntity
  8
BODY
100
AcDbCircle
 10
-354.910493
 20
12.548747
 30
0.0
 40
3.0
100
AcDbArc
 50
270.0
 51
360.0
  0
ARC
  5
6A
330
25
100
AcDbEntity
  8
BODY
100
AcDbCircle
 10
-342.910493
 20
12.548747
 30
0.0
 40
3.0
100
AcDbArc
 50
180.0
 51
270.0
  0
ARC
  5
6B
330
25
100
AcDbEntity
  8
BODY
100
AcDbCircle
 10
-317.910493
 20
27.486186
 30
0.0
 40
10.0
100
AcDbArc
 50
114.440964
 51
180.0
  0
ARC
  5
6C
330
25
100
AcDbEntity
  8
BODY
100
AcDbCircle
 10
-379.910493
 20
27.486186
 30
0.0
 40
10.0
100
AcDbArc
 50
360.0
 51
90.0
  0
LINE
  5
6D
330
25
100
AcDbEntity
  8
BODY
100
AcDbLine
 10
-375.012171
 20
31.286186
 30
0.0
 11
-370.660628
 21
31.286186
 31
0.0
  0
LINE
  5
6E
330
25
100
AcDbEntity
  8
BODY
100
AcDbLine
 10
-327.160358
 20
31.286186
 30
0.0
 11
-322.808815
 21
31.286186
 31
0.0
  0
ARC
  5
6F
330
25
100
AcDbEntity
  8
BODY
100
AcDbCircle
 10
-322.808815
 20
32.286186
 30
0.0
 40
1.0
100
AcDbArc
 50
270.0
 51
279.25147
  0
ARC
  5
70
330
25
100
AcDbEntity
  8
BODY
100
AcDbCircle
 10
-375.012171
 20
32.286186
 30
0.0
 40
1.0
100
AcDbArc
 50
224.810312
 51
270.0
  0
CIRCLE
  5
71
330
25
100
AcDbEntity
  8
BODY
100
AcDbCircle
 10
-348.910493
 20
-175.513814
 30
0.0
 40
128.0
  0
CIRCLE
  5
72
330
25
100
AcDbEntity
  8
BODY
100
AcDbCircle
 10
-348.910493
 20
-175.513814
 30
0.0
 40
127.0
  0
ARC
  5
73
330
25
100
AcDbEntity
  8
BODY
100
AcDbCircle
 10
-348.910493
 20
-125.513814
 30
0.0
 40
120.0
100
AcDbArc
 50
70.579419
 51
77.626375
  0
ARC
  5
74
330
25
100
AcDbEntity
  8
BODY
100
AcDbCircle
 10
-348.910493
 20
-125.513814
 30
0.0
 40
120.0
100
AcDbArc
 50
102.373625
 51
109.420581
  0
LINE
  5
75
330
25
100
AcDbEntity
  8
BODY
100
AcDbLine
 10
-390.315064
 20
-20.98985
 30
0.0
 11
-391.344188
 21
-17.149109
 31
0.0
  0
LINE
  5
76
330
25
100
AcDbEntity
  8
BODY
100
AcDbLine
 10
-307.505922
 20
-20.98985
 30
0.0
 11
-306.476798
 21
-17.149109
 31
0.0
  0
ARC
  5
77
330
25
100
AcDbEntity
  8
BODY
100
AcDbCircle
 10
-321.910493
 20
-2.440665
 30
0.0
 40
6.0
100
AcDbArc
 50
180.0
 51
257.626375
  0
ARC
  5
78
330
25
100
AcDbEntity
  8
BODY
100
AcDbCircle
 10
-375.910493
 20
-2.440665
 30
0.0
 40
6.0
100
AcDbArc
 50
282.373625
 51
360.0
  0
ARC
  5
79
330
25
100
AcDbEntity
  8
BODY
100
AcDbCircle
 10
-310.3405009999999
 20
-16.113833
 30
0.0
 40
4.0
100
AcDbArc
 50
345.0
 51
70.579419
  0
ARC
  5
7A
330
25
100
AcDbEntity
  8
BODY
100
AcDbCircle
 10
-387.480484
 20
-16.113833
 30
0.0
 40
4.0
100
AcDbArc
 50
109.420581
 51
195.0
  0
LINE
  5
7B
330
25
100
AcDbEntity
  8
BODY
100
AcDbLine
 10
-322.881731
 20
-35.454569
 30
0.0
 11
-322.881731
 21
-42.29997
 31
0.0
  0
LINE
  5
7C
330
25
100
AcDbEntity
  8
BODY
100
AcDbLine
 10
-374.939254
 20
-35.454569
 30
0.0
 11
-374.939254
 21
-42.29997
 31
0.0
  0
ARC
  5
7D
330
25
100
AcDbEntity
  8
BODY
100
AcDbCircle
 10
-311.381731
 20
-35.454569
 30
0.0
 40
11.5
100
AcDbArc
 50
89.955248
 51
180.0
  0
ARC
  5
7E
330
25
100
AcDbEntity
  8
BODY
100
AcDbCircle
 10
-386.439254
 20
-35.454569
 30
0.0
 40
11.5
100
AcDbArc
 50
0.0
 51
90.04475199999998
  0
ARC
  5
7F
330
25
100
AcDbEntity
  8
BODY
100
AcDbCircle
 10
-311.369625
 20
-19.954574
 30
0.0
 40
4.0
100
AcDbArc
 50
269.955248
 51
345.0
  0
ARC
  5
80
330
25
100
AcDbEntity
  8
BODY
100
AcDbCircle
 10
-386.451361
 20
-19.954574
 30
0.0
 40
4.0
100
AcDbArc
 50
195.0
 51
270.044752
  0
ARC
  5
81
330
25
100
AcDbEntity
  8
BODY
100
AcDbCircle
 10
-317.910493
 20
-41.040768
 30
0.0
 40
10.0
100
AcDbArc
 50
180.0
 51
257.018427
  0
ARC
  5
82
330
25
100
AcDbEntity
  8
BODY
100
AcDbCircle
 10
-312.881731
 20
-42.29997
 30
0.0
 40
10.0
100
AcDbArc
 50
180.0
 51
254.865965
  0
ARC
  5
83
330
25
100
AcDbEntity
  8
BODY
100
AcDbCircle
 10
-379.910493
 20
-41.040768
 30
0.0
 40
10.0
100
AcDbArc
 50
282.981573
 51
360.0
  0
ARC
  5
84
330
25
100
AcDbEntity
  8
BODY
100
AcDbCircle
 10
-384.939254
 20
-42.29997
 30
0.0
 40
10.0
100
AcDbArc
 50
285.134035
 51
360.0
  0
LINE
  5
85
330
25
100
AcDbEntity
  8
BODY
100
AcDbLine
 10
-375.910493
 20
-342.513814
 30
0.0
 11
-321.910493
 21
-342.513814
 31
0.0
  0
LINE
  5
86
330
25
100
AcDbEntity
  8
BODY
100
AcDbLine
 10
-369.910493
 20
-309.9868600000001
 30
0.0
 11
-369.910493
 21
-333.513814
 31
0.0
  0
LINE
  5
87
330
25
100
AcDbEntity
  8
BODY
100
AcDbLine
 10
-327.910493
 20
-309.9868600000001
 30
0.0
 11
-327.910493
 21
-333.513814
 31
0.0
  0
ARC
  5
88
330
25
100
AcDbEntity
  8
BODY
100
AcDbCircle
 10
-317.910493
 20
-309.9868600000001
 30
0.0
 40
10.0
100
AcDbArc
 50
102.981573
 51
180.0
  0
ARC
  5
89
330
25
100
AcDbEntity
  8
BODY
100
AcDbCircle
 10
-379.910493
 20
-309.9868600000001
 30
0.0
 40
10.0
100
AcDbArc
 50
0.0
 51
77.018427
  0
LINE
  5
8A
330
25
100
AcDbEntity
  8
BODY
100
AcDbLine
 10
-375.910493
 20
-339.513814
 30
0.0
 11
-321.910493
 21
-339.513814
 31
0.0
  0
ARC
  5
8B
330
25
100
AcDbEntity
  8
BODY
100
AcDbCircle
 10
-333.910493
 20
-333.513814
 30
0.0
 40
6.0
100
AcDbArc
 50
270.0
 51
360.0
  0
ARC
  5
8C
330
25
100
AcDbEntity
  8
BODY
100
AcDbCircle
 10
-363.910493
 20
-333.513814
 30
0.0
 40
6.0
100
AcDbArc
 50
180.0
 51
270.0
  0
LINE
  5
8D
330
25
100
AcDbEntity
  8
BODY
100
AcDbLine
 10
-390.315064
 20
-330.037778
 30
0.0
 11
-390.683874
 21
-331.414194
 31
0.0
  0
LINE
  5
8E
330
25
100
AcDbEntity
  8
BODY
100
AcDbLine
 10
-307.505922
 20
-330.037778
 30
0.0
 11
-307.137112
 21
-331.414194
 31
0.0
  0
LINE
  5
8F
330
25
100
AcDbEntity
  8
BODY
100
AcDbLine
 10
-321.910493
 20
-339.513814
 30
0.0
 11
-309.9655390000001
 21
-336.313173
 31
0.0
  0
LINE
  5
90
330
25
100
AcDbEntity
  8
BODY
100
AcDbLine
 10
-375.910493
 20
-339.513814
 30
0.0
 11
-387.855447
 21
-336.313173
 31
0.0
  0
ARC
  5
91
330
25
100
AcDbEntity
  8
BODY
100
AcDbCircle
 10
-311.000815
 20
-332.44947
 30
0.0
 40
4.0
100
AcDbArc
 50
285.0
 51
15.0
  0
ARC
  5
92
330
25
100
AcDbEntity
  8
BODY
100
AcDbCircle
 10
-386.82017
 20
-332.44947
 30
0.0
 40
4.0
100
AcDbArc
 50
165.0
 51
255.0
  0
ARC
  5
93
330
25
100
AcDbEntity
  8
BODY
100
AcDbCircle
 10
-318.910493
 20
-341.815795
 30
0.0
 40
3.0
100
AcDbArc
 50
105.0
 51
180.0
  0
ARC
  5
94
330
25
100
AcDbEntity
  8
BODY
100
AcDbCircle
 10
-378.9104930000001
 20
-341.815795
 30
0.0
 40
3.0
100
AcDbArc
 50
0.0
 51
75.0
  0
ARC
  5
95
330
25
100
AcDbEntity
  8
BODY
100
AcDbCircle
 10
-327.910493
 20
-333.513814
 30
0.0
 40
6.0
100
AcDbArc
 50
0.0
 51
70.528779
  0
ARC
  5
96
330
25
100
AcDbEntity
  8
BODY
100
AcDbCircle
 10
-369.910493
 20
-333.513814
 30
0.0
 40
6.0
100
AcDbArc
 50
109.471221
 51
180.0
  0
ARC
  5
97
330
25
100
AcDbEntity
  8
BODY
100
AcDbCircle
 10
-324.9104930000001
 20
-325.028533
 30
0.0
 40
3.0
100
AcDbArc
 50
180.0
 51
250.528779
  0
ARC
  5
98
330
25
100
AcDbEntity
  8
BODY
100
AcDbCircle
 10
-372.910493
 20
-325.028533
 30
0.0
 40
3.0
100
AcDbArc
 50
289.471221
 51
360.0
  0
LINE
  5
99
330
25
100
AcDbEntity
  8
BODY
100
AcDbLine
 10
-321.910493
 20
-345.713814
 30
0.0
 11
-321.910493
 21
-341.815795
 31
0.0
  0
LINE
  5
9A
330
25
100
AcDbEntity
  8
BODY
100
AcDbLine
 10
-321.910493
 20
-339.513814
 30
0.0
 11
-321.910493
 21
-333.513814
 31
0.0
  0
LINE
  5
9B
330
25
100
AcDbEntity
  8
BODY
100
AcDbLine
 10
-375.910493
 20
-345.713814
 30
0.0
 11
-375.910493
 21
-341.815795
 31
0.0
  0
LINE
  5
9C
330
25
100
AcDbEntity
  8
BODY
100
AcDbLine
 10
-375.910493
 20
-339.513814
 30
0.0
 11
-375.910493
 21
-333.513814
 31
0.0
  0
LINE
  5
9D
330
25
100
AcDbEntity
  8
BODY
100
AcDbLine
 10
-322.881731
 20
-315.573059
 30
0.0
 11
-322.881731
 21
-308.727658
 31
0.0
  0
LINE
  5
9E
330
25
100
AcDbEntity
  8
BODY
100
AcDbLine
 10
-374.939254
 20
-315.573059
 30
0.0
 11
-374.939254
 21
-308.727658
 31
0.0
  0
ARC
  5
9F
330
25
100
AcDbEntity
  8
BODY
100
AcDbCircle
 10
-311.381731
 20
-315.573059
 30
0.0
 40
11.5
100
AcDbArc
 50
180.0
 51
270.044752
  0
ARC
  5
A0
330
25
100
AcDbEntity
  8
BODY
100
AcDbCircle
 10
-386.439254
 20
-315.573059
 30
0.0
 40
11.5
100
AcDbArc
 50
269.955248
 51
360.0
  0
ARC
  5
A1
330
25
100
AcDbEntity
  8
BODY
100
AcDbCircle
 10
-311.369625
 20
-331.073054
 30
0.0
 40
4.0
100
AcDbArc
 50
15.0
 51
90.04475199999998
  0
ARC
  5
A2
330
25
100
AcDbEntity
  8
BODY
100
AcDbCircle
 10
-386.451361
 20
-331.073054
 30
0.0
 40
4.0
100
AcDbArc
 50
89.955248
 51
165.0
  0
ARC
  5
A3
330
25
100
AcDbEntity
  8
BODY
100
AcDbCircle
 10
-312.881731
 20
-308.727658
 30
0.0
 40
10.0
100
AcDbArc
 50
105.134035
 51
180.0
  0
ARC
  5
A4
330
25
100
AcDbEntity
  8
BODY
100
AcDbCircle
 10
-384.939254
 20
-308.727658
 30
0.0
 40
10.0
100
AcDbArc
 50
0.0
 51
74.865965
  0
LINE
  5
A5
330
25
100
AcDbEntity
  8
BODY
100
AcDbLine
 10
-375.910493
 20
-343.313814
 30
0.0
 11
-321.910493
 21
-343.313814
 31
0.0
  0
LINE
  5
A6
330
25
100
AcDbEntity
  8
BODY
100
AcDbLine
 10
-375.910493
 20
-345.713814
 30
0.0
 11
-321.910493
 21
-345.713814
 31
0.0
  0
CIRCLE
  5
A7
330
25
100
AcDbEntity
  8
BODY
100
AcDbCircle
 10
-348.910493
 20
-175.513814
 30
0.0
 40
121.0
  0
ARC
  5
A8
330
25
100
AcDbEntity
  8
BODY
  6
DASHED
370
    13
100
AcDbCircle
 10
-321.410493
 20
293.686186
 30
0.0
 40
23.5
100
AcDbArc
 50
0.0
 51
90.0
  0
ARC
  5
A9
330
25
100
AcDbEntity
  8
BODY
  6
DASHED
370
    13
100
AcDbCircle
 10
-376.410493
 20
293.686186
 30
0.0
 40
23.5
100
AcDbArc
 50
90.0
 51
180.0
  0
ARC
  5
AA
330
25
100
AcDbEntity
  8
BODY
  6
DASHED
370
    13
100
AcDbCircle
 10
-376.410493
 20
238.686186
 30
0.0
 40
23.5
100
AcDbArc
 50
180.0
 51
270.0
  0
ARC
  5
AB
330
25
100
AcDbEntity
  8
BODY
  6
DASHED
370
    13
100
AcDbCircle
 10
-321.410493
 20
238.686186
 30
0.0
 40
23.5
100
AcDbArc
 50
270.0
 51
0.0
  0
LINE
  5
AC
330
25
100
AcDbEntity
  8
BODY
100
AcDbLine
 10
-221.910493
 20
296.1861859999999
 30
0.0
 11
-220.910493
 21
295.186186
 31
0.0
  0
LINE
  5
AD
330
25
100
AcDbEntity
  8
BODY
100
AcDbLine
 10
-220.910493
 20
237.186186
 30
0.0
 11
-221.910493
 21
236.186186
 31
0.0
  0
LINE
  5
AE
330
25
100
AcDbEntity
  8
BODY
  6
DASHED
370
    13
100
AcDbLine
 10
-226.996589
 20
258.188239
 30
0.0
 11
-226.996589
 21
274.184133
 31
0.0
  0
LINE
  5
AF
330
25
100
AcDbEntity
  8
BODY
  6
DASHED
370
    13
100
AcDbLine
 10
-228.349305
 20
257.186186
 30
0.0
 11
-228.349305
 21
275.1861859999999
 31
0.0
  0
LINE
  5
B0
330
25
100
AcDbEntity
  8
BODY
  6
DASHED
370
    13
100
AcDbLine
 10
-255.958893
 20
257.186186
 30
0.0
 11
-255.958893
 21
275.1861859999999
 31
0.0
  0
LINE
  5
B1
330
25
100
AcDbEntity
  8
BODY
  6
DASHED
370
    13
100
AcDbLine
 10
-259.916111
 20
257.186186
 30
0.0
 11
-259.916111
 21
275.1861859999999
 31
0.0
  0
LINE
  5
B2
330
25
100
AcDbEntity
  8
BODY
  6
DASHED
370
    13
100
AcDbLine
 10
-297.910493
 20
281.186186
 30
0.0
 11
-265.916111
 21
281.186186
 31
0.0
  0
LINE
  5
B3
330
25
100
AcDbEntity
  8
BODY
  6
DASHED
370
    13
100
AcDbLine
 10
-249.958893
 20
281.186186
 30
0.0
 11
-234.349305
 21
281.186186
 31
0.0
  0
LINE
  5
B4
330
25
100
AcDbEntity
  8
BODY
  6
DASHED
370
    13
100
AcDbLine
 10
-297.910493
 20
251.186186
 30
0.0
 11
-265.916111
 21
251.186186
 31
0.0
  0
LINE
  5
B5
330
25
100
AcDbEntity
  8
BODY
  6
DASHED
370
    13
100
AcDbLine
 10
-249.958893
 20
251.186186
 30
0.0
 11
-234.349305
 21
251.186186
 31
0.0
  0
ARC
  5
B6
330
25
100
AcDbEntity
  8
BODY
  6
DASHED
370
    13
100
AcDbCircle
 10
-265.916111
 20
275.1861859999999
 30
0.0
 40
6.0
100
AcDbArc
 50
0.0
 51
90.0
  0
ARC
  5
B7
330
25
100
AcDbEntity
  8
BODY
  6
DASHED
370
    13
100
AcDbCircle
 10
-265.916111
 20
257.186186
 30
0.0
 40
6.0
100
AcDbArc
 50
270.0
 51
360.0
  0
ARC
  5
B8
330
25
100
AcDbEntity
  8
BODY
  6
DASHED
370
    13
100
AcDbCircle
 10
-249.958893
 20
275.1861859999999
 30
0.0
 40
6.0
100
AcDbArc
 50
90.0
 51
180.0
  0
ARC
  5
B9
330
25
100
AcDbEntity
  8
BODY
  6
DASHED
370
    13
100
AcDbCircle
 10
-249.958893
 20
257.186186
 30
0.0
 40
6.0
100
AcDbArc
 50
180.0
 51
270.0
  0
ARC
  5
BA
330
25
100
AcDbEntity
  8
BODY
  6
DASHED
370
    13
100
AcDbCircle
 10
-234.349305
 20
275.1861859999999
 30
0.0
 40
6.0
100
AcDbArc
 50
0.0
 51
90.0
  0
ARC
  5
BB
330
25
100
AcDbEntity
  8
BODY
  6
DASHED
370
    13
100
AcDbCircle
 10
-234.349305
 20
257.186186
 30
0.0
 40
6.0
100
AcDbArc
 50
270.0
 51
360.0
  0
LINE
  5
BC
330
25
100
AcDbEntity
  8
BODY
  6
DASHED
370
    13
100
AcDbLine
 10
-297.910493
 20
278.37272
 30
0.0
 11
-279.006329
 21
278.37272
 31
0.0
  0
LINE
  5
BD
330
25
100
AcDbEntity
  8
BODY
  6
DASHED
370
    13
100
AcDbLine
 10
-255.042789
 20
278.37272
 30
0.0
 11
-242.747815
 21
278.37272
 31
0.0
  0
LINE
  5
BE
330
25
100
AcDbEntity
  8
BODY
  6
DASHED
370
    13
100
AcDbLine
 10
-297.910493
 20
253.999653
 30
0.0
 11
-279.006329
 21
253.999653
 31
0.0
  0
LINE
  5
BF
330
25
100
AcDbEntity
  8
BODY
  6
DASHED
370
    13
100
AcDbLine
 10
-255.042789
 20
253.999653
 30
0.0
 11
-242.747815
 21
253.999653
 31
0.0
  0
LINE
  5
C0
330
25
100
AcDbEntity
  8
BODY
  6
DASHED
370
    13
100
AcDbLine
 10
-275.819796
 20
257.186186
 30
0.0
 11
-275.819796
 21
275.1861859999999
 31
0.0
  0
ARC
  5
C1
330
25
100
AcDbEntity
  8
BODY
  6
DASHED
370
    13
100
AcDbCircle
 10
-279.006329
 20
257.186186
 30
0.0
 40
3.186533
100
AcDbArc
 50
270.0
 51
360.0
  0
ARC
  5
C2
330
25
100
AcDbEntity
  8
BODY
  6
DASHED
370
    13
100
AcDbCircle
 10
-279.006329
 20
275.1861859999999
 30
0.0
 40
3.186533
100
AcDbArc
 50
0.0
 51
90.0
  0
LINE
  5
C3
330
25
100
AcDbEntity
  8
BODY
100
AcDbLine
 10
-220.910493
 20
237.186186
 30
0.0
 11
-220.910493
 21
247.782086
 31
0.0
  0
LINE
  5
C4
330
25
100
AcDbEntity
  8
BODY
100
AcDbLine
 10
-220.910493
 20
284.590286
 30
0.0
 11
-220.910493
 21
295.186186
 31
0.0
  0
ARC
  5
C5
330
25
100
AcDbEntity
  8
BODY
  6
DASHED
370
    13
100
AcDbCircle
 10
-219.996589
 20
274.184133
 30
0.0
 40
7.0
100
AcDbArc
 50
119.526453
 51
180.0
  0
ARC
  5
C6
330
25
100
AcDbEntity
  8
BODY
  6
DASHED
370
    13
100
AcDbCircle
 10
-219.996589
 20
258.188239
 30
0.0
 40
7.0
100
AcDbArc
 50
180.0
 51
240.473547
  0
LINE
  5
C7
330
25
100
AcDbEntity
  8
BODY
  6
DASHED
370
    13
100
AcDbLine
 10
-239.561282
 20
257.186186
 30
0.0
 11
-239.561282
 21
275.1861859999999
 31
0.0
  0
ARC
  5
C8
330
25
100
AcDbEntity
  8
BODY
  6
DASHED
370
    13
100
AcDbCircle
 10
-242.747815
 20
275.1861859999999
 30
0.0
 40
3.186533
100
AcDbArc
 50
0.0
 51
90.0
  0
ARC
  5
C9
330
25
100
AcDbEntity
  8
BODY
  6
DASHED
370
    13
100
AcDbCircle
 10
-242.747815
 20
257.186186
 30
0.0
 40
3.186533
100
AcDbArc
 50
270.0
 51
360.0
  0
LINE
  5
CA
330
25
100
AcDbEntity
  8
BODY
  6
DASHED
370
    13
100
AcDbLine
 10
-231.411529
 20
280.41777
 30
0.0
 11
-239.561282
 21
278.37272
 31
0.0
  0
LINE
  5
CB
330
25
100
AcDbEntity
  8
BODY
  6
DASHED
370
    13
100
AcDbLine
 10
-239.561282
 20
253.999653
 30
0.0
 11
-231.411529
 21
251.954602
 31
0.0
  0
LINE
  5
CC
330
25
100
AcDbEntity
  8
BODY
  6
DASHED
370
    13
100
AcDbLine
 10
-263.302634
 20
251.785284
 30
0.0
 11
-275.819796
 21
253.999653
 31
0.0
  0
LINE
  5
CD
330
25
100
AcDbEntity
  8
BODY
  6
DASHED
370
    13
100
AcDbLine
 10
-275.819796
 20
278.37272
 30
0.0
 11
-263.302634
 21
280.587088
 31
0.0
  0
LINE
  5
CE
330
25
100
AcDbEntity
  8
BODY
100
AcDbLine
 10
-475.9104929999998
 20
296.1861859999999
 30
0.0
 11
-476.910493
 21
295.186186
 31
0.0
  0
LINE
  5
CF
330
25
100
AcDbEntity
  8
BODY
100
AcDbLine
 10
-476.910493
 20
237.186186
 30
0.0
 11
-475.9104929999998
 21
236.186186
 31
0.0
  0
LINE
  5
D0
330
25
100
AcDbEntity
  8
BODY
100
AcDbLine
 10
-470.8243969999998
 20
258.188239
 30
0.0
 11
-470.8243969999998
 21
274.184133
 31
0.0
  0
LINE
  5
D1
330
25
100
AcDbEntity
  8
BODY
100
AcDbLine
 10
-469.4716809999998
 20
257.186186
 30
0.0
 11
-469.4716809999998
 21
275.1861859999999
 31
0.0
  0
LINE
  5
D2
330
25
100
AcDbEntity
  8
BODY
100
AcDbLine
 10
-441.8620929999998
 20
257.186186
 30
0.0
 11
-441.8620929999998
 21
275.1861859999999
 31
0.0
  0
LINE
  5
D3
330
25
100
AcDbEntity
  8
BODY
100
AcDbLine
 10
-437.9048749999998
 20
257.186186
 30
0.0
 11
-437.9048749999998
 21
275.1861859999999
 31
0.0
  0
LINE
  5
D4
330
25
100
AcDbEntity
  8
BODY
100
AcDbLine
 10
-447.8620929999998
 20
281.186186
 30
0.0
 11
-463.4716809999998
 21
281.186186
 31
0.0
  0
LINE
  5
D5
330
25
100
AcDbEntity
  8
BODY
100
AcDbLine
 10
-447.8620929999998
 20
251.186186
 30
0.0
 11
-463.4716809999998
 21
251.186186
 31
0.0
  0
ARC
  5
D6
330
25
100
AcDbEntity
  8
BODY
100
AcDbCircle
 10
-431.904875
 20
275.1861859999999
 30
0.0
 40
6.0
100
AcDbArc
 50
90.0
 51
180.0
  0
ARC
  5
D7
330
25
100
AcDbEntity
  8
BODY
100
AcDbCircle
 10
-431.904875
 20
257.186186
 30
0.0
 40
6.0
100
AcDbArc
 50
180.0
 51
270.0
  0
ARC
  5
D8
330
25
100
AcDbEntity
  8
BODY
100
AcDbCircle
 10
-447.8620929999998
 20
275.1861859999999
 30
0.0
 40
6.0
100
AcDbArc
 50
0.0
 51
90.0
  0
ARC
  5
D9
330
25
100
AcDbEntity
  8
BODY
100
AcDbCircle
 10
-447.8620929999998
 20
257.186186
 30
0.0
 40
6.0
100
AcDbArc
 50
270.0
 51
0.0
  0
ARC
  5
DA
330
25
100
AcDbEntity
  8
BODY
100
AcDbCircle
 10
-463.4716809999998
 20
275.1861859999999
 30
0.0
 40
6.0
100
AcDbArc
 50
90.0
 51
180.0
  0
ARC
  5
DB
330
25
100
AcDbEntity
  8
BODY
100
AcDbCircle
 10
-463.4716809999998
 20
257.186186
 30
0.0
 40
6.0
100
AcDbArc
 50
180.0
 51
270.0
  0
LINE
  5
DC
330
25
100
AcDbEntity
  8
BODY
  6
DASHED
370
    13
100
AcDbLine
 10
-399.9104930000001
 20
278.37272
 30
0.0
 11
-418.8146559999998
 21
278.37272
 31
0.0
  0
LINE
  5
DD
330
25
100
AcDbEntity
  8
BODY
100
AcDbLine
 10
-442.7781969999998
 20
278.37272
 30
0.0
 11
-455.0731709999998
 21
278.37272
 31
0.0
  0
LINE
  5
DE
330
25
100
AcDbEntity
  8
BODY
  6
DASHED
370
    13
100
AcDbLine
 10
-399.9104930000001
 20
253.999653
 30
0.0
 11
-418.8146559999998
 21
253.999653
 31
0.0
  0
LINE
  5
DF
330
25
100
AcDbEntity
  8
BODY
100
AcDbLine
 10
-442.7781969999998
 20
253.999653
 30
0.0
 11
-455.0731709999998
 21
253.999653
 31
0.0
  0
LINE
  5
E0
330
25
100
AcDbEntity
  8
BODY
  6
DASHED
370
    13
100
AcDbLine
 10
-422.0011900000002
 20
257.186186
 30
0.0
 11
-422.0011900000002
 21
275.1861859999999
 31
0.0
  0
ARC
  5
E1
330
25
100
AcDbEntity
  8
BODY
  6
DASHED
370
    13
100
AcDbCircle
 10
-418.8146559999998
 20
257.186186
 30
0.0
 40
3.186533
100
AcDbArc
 50
180.0
 51
270.0
  0
ARC
  5
E2
330
25
100
AcDbEntity
  8
BODY
  6
DASHED
370
    13
100
AcDbCircle
 10
-418.8146559999998
 20
275.1861859999999
 30
0.0
 40
3.186533
100
AcDbArc
 50
90.0
 51
180.0
  0
LINE
  5
E3
330
25
100
AcDbEntity
  8
BODY
100
AcDbLine
 10
-476.910493
 20
237.186186
 30
0.0
 11
-476.910493
 21
247.7467
 31
0.0
  0
LINE
  5
E4
330
25
100
AcDbEntity
  8
BODY
100
AcDbLine
 10
-476.910493
 20
284.625672
 30
0.0
 11
-476.910493
 21
295.186186
 31
0.0
  0
ARC
  5
E5
330
25
100
AcDbEntity
  8
BODY
100
AcDbCircle
 10
-477.824397
 20
274.184133
 30
0.0
 40
7.0
100
AcDbArc
 50
0.0
 51
60.47354699999998
  0
ARC
  5
E6
330
25
100
AcDbEntity
  8
BODY
100
AcDbCircle
 10
-477.824397
 20
258.188239
 30
0.0
 40
7.0
100
AcDbArc
 50
299.526453
 51
360.0
  0
ARC
  5
E7
330
25
100
AcDbEntity
  8
BODY
100
AcDbCircle
 10
-471.9104929999998
 20
284.625672
 30
0.0
 40
5.0
100
AcDbArc
 50
180.0
 51
240.473547
  0
ARC
  5
E8
330
25
100
AcDbEntity
  8
BODY
100
AcDbCircle
 10
-471.9104929999998
 20
247.7467
 30
0.0
 40
5.0
100
AcDbArc
 50
119.526453
 51
180.0
  0
LINE
  5
E9
330
25
100
AcDbEntity
  8
BODY
100
AcDbLine
 10
-458.259704
 20
257.186186
 30
0.0
 11
-458.259704
 21
275.1861859999999
 31
0.0
  0
ARC
  5
EA
330
25
100
AcDbEntity
  8
BODY
100
AcDbCircle
 10
-455.0731709999998
 20
275.1861859999999
 30
0.0
 40
3.186533
100
AcDbArc
 50
90.0
 51
180.0
  0
ARC
  5
EB
330
25
100
AcDbEntity
  8
BODY
100
AcDbCircle
 10
-455.0731709999998
 20
257.186186
 30
0.0
 40
3.186533
100
AcDbArc
 50
180.0
 51
270.0
  0
LINE
  5
EC
330
25
100
AcDbEntity
  8
BODY
100
AcDbLine
 10
-466.409457
 20
280.41777
 30
0.0
 11
-458.259704
 21
278.37272
 31
0.0
  0
LINE
  5
ED
330
25
100
AcDbEntity
  8
BODY
100
AcDbLine
 10
-458.259704
 20
253.999653
 30
0.0
 11
-466.409457
 21
251.954602
 31
0.0
  0
CIRCLE
  5
EE
330
25
100
AcDbEntity
  8
BODY
100
AcDbCircle
 10
-348.910493
 20
-175.513814
 30
0.0
 40
117.3
  0
LINE
  5
EF
330
25
100
AcDbEntity
  8
BODY
100
AcDbLine
 10
-466.2104929999999
 20
298.311186
 30
0.0
 11
-469.4085239999998
 21
296.4744790000001
 31
0.0
  0
LINE
  5
F0
330
25
100
AcDbEntity
  8
BODY
100
AcDbLine
 10
-466.2104929999999
 20
234.061186
 30
0.0
 11
-469.4085239999998
 21
235.897893
 31
0.0
  0
ARC
  5
F1
330
25
100
AcDbEntity
  8
BODY
100
AcDbCircle
 10
-468.910493
 20
295.60732
 30
0.0
 40
1.0
100
AcDbArc
 50
119.869799
 51
144.629162
  0
ARC
  5
F2
330
25
100
AcDbEntity
  8
BODY
100
AcDbCircle
 10
-468.910493
 20
236.765052
 30
0.0
 40
1.0
100
AcDbArc
 50
215.370838
 51
240.130201
  0
LINE
  5
F3
330
25
100
AcDbEntity
  8
BODY
100
AcDbLine
 10
-231.610493
 20
298.311186
 30
0.0
 11
-228.412462
 21
296.4744790000001
 31
0.0
  0
LINE
  5
F4
330
25
100
AcDbEntity
  8
BODY
100
AcDbLine
 10
-231.610493
 20
234.061186
 30
0.0
 11
-228.412462
 21
235.897893
 31
0.0
  0
ARC
  5
F5
330
25
100
AcDbEntity
  8
BODY
100
AcDbCircle
 10
-228.910493
 20
295.60732
 30
0.0
 40
1.0
100
AcDbArc
 50
35.370838
 51
60.13020099999999
  0
ARC
  5
F6
330
25
100
AcDbEntity
  8
BODY
100
AcDbCircle
 10
-228.910493
 20
236.765052
 30
0.0
 40
1.0
100
AcDbArc
 50
299.869799
 51
324.629162
  0
CIRCLE
  5
F7
330
25
100
AcDbEntity
  8
BODY
100
AcDbCircle
 10
-348.910493
 20
-175.513814
 30
0.0
 40
105.5
  0
CIRCLE
  5
F8
330
25
100
AcDbEntity
  8
BODY
100
AcDbCircle
 10
-348.910493
 20
-175.513814
 30
0.0
 40
99.50000000000001
  0
LINE
  5
F9
330
25
100
AcDbEntity
  8
BODY
100
AcDbLine
 10
-466.2104929999999
 20
298.311186
 30
0.0
 11
-419.438745
 21
298.311186
 31
0.0
  0
LINE
  5
FA
330
25
100
AcDbEntity
  8
BODY
  6
DASHED
370
    13
100
AcDbLine
 10
-419.438745
 20
298.311186
 30
0.0
 11
-399.450879
 21
298.311186
 31
0.0
  0
LINE
  5
FB
330
25
100
AcDbEntity
  8
BODY
  6
DASHED
370
    13
100
AcDbLine
 10
-399.777136
 20
296.1861859999999
 30
0.0
 11
-420.3685219999998
 21
296.1861859999999
 31
0.0
  0
LINE
  5
FC
330
25
100
AcDbEntity
  8
BODY
100
AcDbLine
 10
-420.3685219999998
 20
296.1861859999999
 30
0.0
 11
-475.9104929999998
 21
296.1861859999999
 31
0.0
  0
LINE
  5
FD
330
25
100
AcDbEntity
  8
BODY
100
AcDbLine
 10
-476.910493
 20
295.186186
 30
0.0
 11
-420.780167
 21
295.186186
 31
0.0
  0
LINE
  5
FE
330
25
100
AcDbEntity
  8
BODY
  6
DASHED
370
    13
100
AcDbLine
 10
-420.780167
 20
295.186186
 30
0.0
 11
-399.862572
 21
295.186186
 31
0.0
  0
LINE
  5
FF
330
25
100
AcDbEntity
  8
BODY
  6
DASHED
370
    13
100
AcDbLine
 10
-399.9104930000001
 20
281.186186
 30
0.0
 11
-424.945024
 21
281.186186
 31
0.0
  0
LINE
  5
100
330
25
100
AcDbEntity
  8
BODY
100
AcDbLine
 10
-424.945024
 20
281.186186
 30
0.0
 11
-431.904875
 21
281.186186
 31
0.0
  0
LINE
  5
101
330
25
100
AcDbEntity
  8
BODY
  6
DASHED
370
    13
100
AcDbLine
 10
-422.0011900000002
 20
278.37272
 30
0.0
 11
-425.349682
 21
278.96509
 31
0.0
  0
LINE
  5
102
330
25
100
AcDbEntity
  8
BODY
100
AcDbLine
 10
-425.349682
 20
278.96509
 30
0.0
 11
-434.518351
 21
280.587088
 31
0.0
  0
LINE
  5
103
330
25
100
AcDbEntity
  8
BODY
100
AcDbLine
 10
-434.518351
 20
251.785284
 30
0.0
 11
-425.349682
 21
253.407282
 31
0.0
  0
LINE
  5
104
330
25
100
AcDbEntity
  8
BODY
  6
DASHED
370
    13
100
AcDbLine
 10
-425.349682
 20
253.407282
 30
0.0
 11
-422.0011900000002
 21
253.999653
 31
0.0
  0
LINE
  5
105
330
25
100
AcDbEntity
  8
BODY
  6
DASHED
370
    13
100
AcDbLine
 10
-399.9104930000001
 20
251.186186
 30
0.0
 11
-424.945024
 21
251.186186
 31
0.0
  0
LINE
  5
106
330
25
100
AcDbEntity
  8
BODY
100
AcDbLine
 10
-424.945024
 20
251.186186
 30
0.0
 11
-431.904875
 21
251.186186
 31
0.0
  0
LINE
  5
107
330
25
100
AcDbEntity
  8
BODY
100
AcDbLine
 10
-476.910493
 20
237.186186
 30
0.0
 11
-420.780167
 21
237.186186
 31
0.0
  0
LINE
  5
108
330
25
100
AcDbEntity
  8
BODY
  6
DASHED
370
    13
100
AcDbLine
 10
-420.780167
 20
237.186186
 30
0.0
 11
-399.862572
 21
237.186186
 31
0.0
  0
LINE
  5
109
330
25
100
AcDbEntity
  8
BODY
  6
DASHED
370
    13
100
AcDbLine
 10
-399.777136
 20
236.186186
 30
0.0
 11
-420.3685219999998
 21
236.186186
 31
0.0
  0
LINE
  5
10A
330
25
100
AcDbEntity
  8
BODY
100
AcDbLine
 10
-420.3685219999998
 20
236.186186
 30
0.0
 11
-475.9104929999998
 21
236.186186
 31
0.0
  0
LINE
  5
10B
330
25
100
AcDbEntity
  8
BODY
100
AcDbLine
 10
-466.2104929999999
 20
234.061186
 30
0.0
 11
-419.438745
 21
234.061186
 31
0.0
  0
LINE
  5
10C
330
25
100
AcDbEntity
  8
BODY
  6
DASHED
370
    13
100
AcDbLine
 10
-419.438745
 20
234.061186
 30
0.0
 11
-399.450879
 21
234.061186
 31
0.0
  0
LINE
  5
10D
330
25
100
AcDbEntity
  8
BODY
  6
DASHED
370
    13
100
AcDbLine
 10
-298.370107
 20
298.311186
 30
0.0
 11
-269.556354
 21
298.311186
 31
0.0
  0
LINE
  5
10E
330
25
100
AcDbEntity
  8
BODY
100
AcDbLine
 10
-269.556354
 20
298.311186
 30
0.0
 11
-231.610493
 21
298.311186
 31
0.0
  0
LINE
  5
10F
330
25
100
AcDbEntity
  8
BODY
  6
DASHED
370
    13
100
AcDbLine
 10
-298.04385
 20
296.1861859999999
 30
0.0
 11
-271.875384
 21
296.1861859999999
 31
0.0
  0
LINE
  5
110
330
25
100
AcDbEntity
  8
BODY
100
AcDbLine
 10
-271.875384
 20
296.1861859999999
 30
0.0
 11
-221.910493
 21
296.1861859999999
 31
0.0
  0
LINE
  5
111
330
25
100
AcDbEntity
  8
BODY
100
AcDbLine
 10
-220.910493
 20
295.186186
 30
0.0
 11
-272.966692
 21
295.186186
 31
0.0
  0
LINE
  5
112
330
25
100
AcDbEntity
  8
BODY
  6
DASHED
370
    13
100
AcDbLine
 10
-272.966692
 20
295.186186
 30
0.0
 11
-297.958414
 21
295.186186
 31
0.0
  0
ARC
  5
113
330
25
100
AcDbEntity
  8
BODY
  6
DASHED
370
    13
100
AcDbCircle
 10
-225.910493
 20
284.625672
 30
0.0
 40
5.0
100
AcDbArc
 50
299.526453
 51
359.594629
  0
LINE
  5
114
330
25
100
AcDbEntity
  8
BODY
100
AcDbLine
 10
-220.910493
 20
237.186186
 30
0.0
 11
-273.9787
 21
237.186186
 31
0.0
  0
LINE
  5
115
330
25
100
AcDbEntity
  8
BODY
  6
DASHED
370
    13
100
AcDbLine
 10
-273.9787
 20
237.186186
 30
0.0
 11
-297.958414
 21
237.186186
 31
0.0
  0
LINE
  5
116
330
25
100
AcDbEntity
  8
BODY
  6
DASHED
370
    13
100
AcDbLine
 10
-298.04385
 20
236.186186
 30
0.0
 11
-275.495385
 21
236.186186
 31
0.0
  0
LINE
  5
117
330
25
100
AcDbEntity
  8
BODY
100
AcDbLine
 10
-275.495385
 20
236.186186
 30
0.0
 11
-221.910493
 21
236.186186
 31
0.0
  0
LINE
  5
118
330
25
100
AcDbEntity
  8
BODY
  6
DASHED
370
    13
100
AcDbLine
 10
-298.370107
 20
234.061186
 30
0.0
 11
-277.786283
 21
234.061186
 31
0.0
  0
LINE
  5
119
330
25
100
AcDbEntity
  8
BODY
100
AcDbLine
 10
-277.786283
 20
234.061186
 30
0.0
 11
-231.610493
 21
234.061186
 31
0.0
  0
ARC
  5
11A
330
25
100
AcDbEntity
  8
BODY
100
AcDbCircle
 10
-348.910493
 20
-175.513814
 30
0.0
 40
97.85
100
AcDbArc
 50
119.999927
 51
241.762092
  0
LINE
  5
11B
330
25
100
AcDbEntity
  8
BODY
100
AcDbLine
 10
-369.101422
 20
-80.163814
 30
0.0
 11
-328.719565
 21
-80.163814
 31
0.0
  0
ARC
  5
11C
330
25
100
AcDbEntity
  8
BODY
100
AcDbCircle
 10
-348.910493
 20
-179.0638139999999
 30
0.0
 40
100.94
100
AcDbArc
 50
101.538656
 51
118.992348
  0
ARC
  5
11D
330
25
100
AcDbEntity
  8
BODY
100
AcDbCircle
 10
-348.910493
 20
-175.513814
 30
0.0
 40
97.85
100
AcDbArc
 50
298.237908
 51
60.000073
  0
LINE
  5
11E
330
25
100
AcDbEntity
  8
BODY
100
AcDbLine
 10
-358.910493
 20
-123.857544
 30
0.0
 11
-358.910493
 21
-92.16381400000001
 31
0.0
  0
LINE
  5
11F
330
25
100
AcDbEntity
  8
BODY
100
AcDbLine
 10
-336.910493
 20
-119.018438
 30
0.0
 11
-336.910493
 21
-92.16381400000001
 31
0.0
  0
LINE
  5
120
330
25
100
AcDbEntity
  8
BODY
100
AcDbLine
 10
-330.7030660000001
 20
-117.673392
 30
0.0
 11
-330.7030660000001
 21
-92.16381400000001
 31
0.0
  0
ARC
  5
121
330
25
100
AcDbEntity
  8
BODY
100
AcDbCircle
 10
-320.703066
 20
-117.673392
 30
0.0
 40
10.0
100
AcDbArc
 50
180.0
 51
265.0
  0
ARC
  5
122
330
25
100
AcDbEntity
  8
BODY
100
AcDbCircle
 10
-348.910493
 20
-123.857544
 30
0.0
 40
10.0
100
AcDbArc
 50
180.0
 51
265.000001
  0
LINE
  5
123
330
25
100
AcDbEntity
  8
BODY
100
AcDbLine
 10
-369.778224
 20
-124.794866
 30
0.0
 11
-369.778224
 21
-92.16381400000001
 31
0.0
  0
ARC
  5
124
330
25
100
AcDbEntity
  8
BODY
100
AcDbCircle
 10
-359.778224
 20
-124.794866
 30
0.0
 40
10.0
100
AcDbArc
 50
180.0
 51
265.0
  0
ARC
  5
125
330
25
100
AcDbEntity
  8
BODY
100
AcDbCircle
 10
-326.9104930000001
 20
-119.018438
 30
0.0
 40
10.0
100
AcDbArc
 50
180.0
 51
264.999999
  0
ARC
  5
126
330
25
100
AcDbEntity
  8
BODY
100
AcDbCircle
 10
-335.570747
 20
-118.260764
 30
0.0
 40
10.0
100
AcDbArc
 50
180.0
 51
264.999999
  0
LINE
  5
127
330
25
100
AcDbEntity
  8
BODY
100
AcDbLine
 10
-367.69797
 20
-87.80842099999999
 30
0.0
 11
-367.69797
 21
-83.49736
 31
0.0
  0
LINE
  5
128
330
25
100
AcDbEntity
  8
BODY
100
AcDbLine
 10
-330.123016
 20
-87.416551
 30
0.0
 11
-330.123016
 21
-82.51752299999997
 31
0.0
  0
LINE
  5
129
330
25
100
AcDbEntity
  8
BODY
100
AcDbLine
 10
-372.892178
 20
-91.16381399999999
 30
0.0
 11
-323.685433
 21
-91.16381399999999
 31
0.0
  0
LINE
  5
12A
330
25
100
AcDbEntity
  8
BODY
100
AcDbLine
 10
-320.84211
 20
-89.18021000000001
 30
0.0
 11
-320.84211
 21
-85.26094
 31
0.0
  0
LINE
  5
12B
330
25
100
AcDbEntity
  8
BODY
100
AcDbLine
 10
-376.9788759999999
 20
-88.78826
 30
0.0
 11
-376.9788759999999
 21
-85.06500499999999
 31
0.0
  0
ARC
  5
12C
330
25
100
AcDbEntity
  8
BODY
100
AcDbCircle
 10
-348.910493
 20
-287.122342
 30
0.0
 40
197.958528
100
AcDbArc
 50
81.84860699999999
 51
98.151393
  0
ARC
  5
12D
330
25
100
AcDbEntity
  8
BODY
100
AcDbCircle
 10
-329.703066
 20
-92.16381400000001
 30
0.0
 40
1.0
100
AcDbArc
 50
90.0
 51
180.0
  0
ARC
  5
12E
330
25
100
AcDbEntity
  8
BODY
100
AcDbCircle
 10
-335.910493
 20
-92.16381400000001
 30
0.0
 40
1.0
100
AcDbArc
 50
90.0
 51
180.0
  0
ARC
  5
12F
330
25
100
AcDbEntity
  8
BODY
100
AcDbCircle
 10
-359.910493
 20
-92.16381400000001
 30
0.0
 40
1.0
100
AcDbArc
 50
0.0
 51
90.0
  0
ARC
  5
130
330
25
100
AcDbEntity
  8
BODY
100
AcDbCircle
 10
-370.778224
 20
-92.16381400000001
 30
0.0
 40
1.0
100
AcDbArc
 50
0.0
 51
90.0
  0
ARC
  5
131
330
25
100
AcDbEntity
  8
BODY
100
AcDbCircle
 10
-336.48229
 20
-137.875014
 30
0.0
 40
1.0
100
AcDbArc
 50
85.0
 51
180.0
  0
ARC
  5
132
330
25
100
AcDbEntity
  8
BODY
100
AcDbCircle
 10
-343.410493
 20
-137.268875
 30
0.0
 40
1.0
100
AcDbArc
 50
85.0
 51
180.0
  0
ARC
  5
133
330
25
100
AcDbEntity
  8
BODY
100
AcDbCircle
 10
-354.410493
 20
-136.3065
 30
0.0
 40
1.0
100
AcDbArc
 50
0.0
 51
85.0
  0
ARC
  5
134
330
25
100
AcDbEntity
  8
BODY
100
AcDbCircle
 10
-361.338697
 20
-135.683618
 30
0.0
 40
1.0
100
AcDbArc
 50
0.0
 51
81.84444
  0
LINE
  5
135
330
25
100
AcDbEntity
  8
BODY
100
AcDbLine
 10
-268.198345
 20
-142.845266
 30
0.0
 11
-360.649781
 21
-134.756813
 31
0.0
  0
LINE
  5
136
330
25
100
AcDbEntity
  8
BODY
100
AcDbLine
 10
-277.517467
 20
-140.141822
 30
0.0
 11
-349.78205
 21
-133.819491
 31
0.0
  0
LINE
  5
137
330
25
100
AcDbEntity
  8
BODY
100
AcDbLine
 10
-275.744709
 20
-140.296919
 30
0.0
 11
-268.915939
 21
-142.087507
 31
0.0
  0
LINE
  5
138
330
25
100
AcDbEntity
  8
BODY
100
AcDbLine
 10
-278.495792
 20
-133.072332
 30
0.0
 11
-272.7349779999999
 21
-132.438558
 31
0.0
  0
LINE
  5
139
330
25
100
AcDbEntity
  8
BODY
100
AcDbLine
 10
-280.114964
 20
-133.150715
 30
0.0
 11
-336.442304
 21
-128.22271
 31
0.0
  0
LINE
  5
13A
330
25
100
AcDbEntity
  8
BODY
100
AcDbLine
 10
-271.662845
 20
-132.002053
 30
0.0
 11
-321.574623
 21
-127.635339
 31
0.0
  0
ARC
  5
13B
330
25
100
AcDbEntity
  8
BODY
100
AcDbCircle
 10
-348.910493
 20
-175.513814
 30
0.0
 40
90.0
100
AcDbArc
 50
23.195785
 51
27.76095
  0
ARC
  5
13C
330
25
100
AcDbEntity
  8
BODY
100
AcDbCircle
 10
-348.910493
 20
-175.513814
 30
0.0
 40
81.20013399999997
100
AcDbArc
 50
26.966399
 51
31.050673
  0
ARC
  5
13D
330
25
100
AcDbEntity
  8
BODY
100
AcDbCircle
 10
-348.910493
 20
-175.513814
 30
0.0
 40
96.04081100000001
100
AcDbArc
 50
283.180734
 51
76.819266
  0
ARC
  5
13E
330
25
100
AcDbEntity
  8
BODY
100
AcDbCircle
 10
-271.924312
 20
-134.990637
 30
0.0
 40
3.0
100
AcDbArc
 50
27.76095
 51
85.0
  0
ARC
  5
13F
330
25
100
AcDbEntity
  8
BODY
100
AcDbCircle
 10
-268.024033
 20
-140.852877
 30
0.0
 40
2.0
100
AcDbArc
 50
265.0
 51
23.195785
  0
ARC
  5
140
330
25
100
AcDbEntity
  8
BODY
100
AcDbCircle
 10
-280.20212
 20
-134.146909
 30
0.0
 40
1.0
100
AcDbArc
 50
31.050673
 51
85.0
  0
ARC
  5
141
330
25
100
AcDbEntity
  8
BODY
100
AcDbCircle
 10
-277.4303109999999
 20
-139.145628
 30
0.0
 40
1.0
100
AcDbArc
 50
265.0
 51
26.966399
  0
LINE
  5
142
330
25
100
AcDbEntity
  8
BODY
100
AcDbLine
 10
-344.410493
 20
-170.567569
 30
0.0
 11
-344.410493
 21
-137.268875
 31
0.0
  0
LINE
  5
143
330
25
100
AcDbEntity
  8
BODY
100
AcDbLine
 10
-337.48229
 20
-169.263814
 30
0.0
 11
-337.48229
 21
-137.875014
 31
0.0
  0
ARC
  5
144
330
25
100
AcDbEntity
  8
BODY
100
AcDbCircle
 10
-348.910493
 20
-175.513814
 30
0.0
 40
96.04081100000001
100
AcDbArc
 50
103.180734
 51
256.819266
  0
LINE
  5
145
330
25
100
AcDbEntity
  8
BODY
100
AcDbLine
 10
-360.338697
 20
-169.263814
 30
0.0
 11
-360.338697
 21
-135.683618
 31
0.0
  0
LINE
  5
146
330
25
100
AcDbEntity
  8
BODY
100
AcDbLine
 10
-353.410493
 20
-170.567569
 30
0.0
 11
-353.410493
 21
-136.3065
 31
0.0
  0
ARC
  5
147
330
25
100
AcDbEntity
  8
BODY
100
AcDbCircle
 10
-330.77332
 20
-98.06845500000001
 30
0.0
 40
16.5
100
AcDbArc
 50
76.819266
 51
93.607119
  0
ARC
  5
148
330
25
100
AcDbEntity
  8
BODY
100
AcDbCircle
 10
-367.047666
 20
-98.06845500000001
 30
0.0
 40
16.5
100
AcDbArc
 50
86.39288099999998
 51
103.180734
  0
ARC
  5
149
330
25
100
AcDbEntity
  8
BODY
100
AcDbCircle
 10
-348.910493
 20
189.643172
 30
0.0
 40
271.782739
100
AcDbArc
 50
266.392881
 51
273.607119
  0
ARC
  5
14A
330
25
100
AcDbEntity
  8
BODY
100
AcDbCircle
 10
-348.910493
 20
-179.0638139999999
 30
0.0
 40
100.94
100
AcDbArc
 50
61.007652
 51
78.461344
  0
ARC
  5
14B
330
25
100
AcDbEntity
  8
BODY
100
AcDbCircle
 10
-348.910493
 20
-171.9638139999999
 30
0.0
 40
100.94
100
AcDbArc
 50
241.007652
 51
258.461344
  0
LINE
  5
14C
330
25
100
AcDbEntity
  8
BODY
100
AcDbLine
 10
-369.101422
 20
-270.863814
 30
0.0
 11
-328.719565
 21
-270.863814
 31
0.0
  0
LINE
  5
14D
330
25
100
AcDbEntity
  8
BODY
100
AcDbLine
 10
-369.778224
 20
-171.263814
 30
0.0
 11
-369.778224
 21
-179.763814
 31
0.0
  0
LINE
  5
14E
330
25
100
AcDbEntity
  8
BODY
100
AcDbLine
 10
-358.910493
 20
-173.144755
 30
0.0
 11
-358.910493
 21
-177.882873
 31
0.0
  0
LINE
  5
14F
330
25
100
AcDbEntity
  8
BODY
100
AcDbLine
 10
-367.665174
 20
-170.629532
 30
0.0
 11
-359.241885
 21
-172.087399
 31
0.0
  0
LINE
  5
150
330
25
100
AcDbEntity
  8
BODY
100
AcDbLine
 10
-359.16923
 20
-178.927654
 30
0.0
 11
-367.759914
 21
-180.414493
 31
0.0
  0
ARC
  5
151
330
25
100
AcDbEntity
  8
BODY
100
AcDbCircle
 10
-336.48229
 20
-169.263814
 30
0.0
 40
1.0
100
AcDbArc
 50
180.0
 51
270.0
  0
ARC
  5
152
330
25
100
AcDbEntity
  8
BODY
100
AcDbCircle
 10
-361.338697
 20
-169.263814
 30
0.0
 40
1.0
100
AcDbArc
 50
270.0
 51
360.0
  0
ARC
  5
153
330
25
100
AcDbEntity
  8
BODY
100
AcDbCircle
 10
-355.403151
 20
-170.567569
 30
0.0
 40
1.0
100
AcDbArc
 50
254.810856
 51
270.0
  0
ARC
  5
154
330
25
100
AcDbEntity
  8
BODY
100
AcDbCircle
 10
-342.417835
 20
-170.567569
 30
0.0
 40
1.0
100
AcDbArc
 50
270.0
 51
285.189144
  0
ARC
  5
155
330
25
100
AcDbEntity
  8
BODY
100
AcDbCircle
 10
-343.410493
 20
-170.567569
 30
0.0
 40
1.0
100
AcDbArc
 50
180.0
 51
270.0
  0
ARC
  5
156
330
25
100
AcDbEntity
  8
BODY
100
AcDbCircle
 10
-354.410493
 20
-170.567569
 30
0.0
 40
1.0
100
AcDbArc
 50
270.0
 51
0.0
  0
ARC
  5
157
330
25
100
AcDbEntity
  8
BODY
100
AcDbCircle
 10
-343.410493
 20
-180.460059
 30
0.0
 40
1.0
100
AcDbArc
 50
90.0
 51
180.0
  0
ARC
  5
158
330
25
100
AcDbEntity
  8
BODY
100
AcDbCircle
 10
-354.410493
 20
-180.460059
 30
0.0
 40
1.0
100
AcDbArc
 50
0.0
 51
90.0
  0
ARC
  5
159
330
25
100
AcDbEntity
  8
BODY
100
AcDbCircle
 10
-361.338697
 20
-181.763814
 30
0.0
 40
1.0
100
AcDbArc
 50
0.0
 51
90.0
  0
ARC
  5
15A
330
25
100
AcDbEntity
  8
BODY
100
AcDbCircle
 10
-336.48229
 20
-181.763814
 30
0.0
 40
1.0
100
AcDbArc
 50
90.0
 51
180.0
  0
ARC
  5
15B
330
25
100
AcDbEntity
  8
BODY
100
AcDbCircle
 10
-357.910493
 20
-173.144755
 30
0.0
 40
1.0
100
AcDbArc
 50
90.0
 51
180.0
  0
ARC
  5
15C
330
25
100
AcDbEntity
  8
BODY
100
AcDbCircle
 10
-357.910493
 20
-177.882873
 30
0.0
 40
1.0
100
AcDbArc
 50
180.0
 51
270.0
  0
ARC
  5
15D
330
25
100
AcDbEntity
  8
BODY
100
AcDbCircle
 10
-368.778224
 20
-171.263814
 30
0.0
 40
1.0
100
AcDbArc
 50
90.0
 51
180.0
  0
ARC
  5
15E
330
25
100
AcDbEntity
  8
BODY
100
AcDbCircle
 10
-368.778224
 20
-179.763814
 30
0.0
 40
1.0
100
AcDbArc
 50
180.0
 51
270.0
  0
ARC
  5
15F
330
25
100
AcDbEntity
  8
BODY
100
AcDbCircle
 10
-355.403151
 20
-180.460059
 30
0.0
 40
1.0
100
AcDbArc
 50
90.0
 51
105.189144
  0
LINE
  5
160
330
25
100
AcDbEntity
  8
BODY
100
AcDbLine
 10
-358.910493
 20
-227.170084
 30
0.0
 11
-358.910493
 21
-258.863814
 31
0.0
  0
LINE
  5
161
330
25
100
AcDbEntity
  8
BODY
100
AcDbLine
 10
-336.910493
 20
-232.00919
 30
0.0
 11
-336.910493
 21
-258.863814
 31
0.0
  0
LINE
  5
162
330
25
100
AcDbEntity
  8
BODY
100
AcDbLine
 10
-330.7030660000001
 20
-233.354236
 30
0.0
 11
-330.7030660000001
 21
-258.863814
 31
0.0
  0
ARC
  5
163
330
25
100
AcDbEntity
  8
BODY
100
AcDbCircle
 10
-320.703066
 20
-233.354236
 30
0.0
 40
10.0
100
AcDbArc
 50
95.0
 51
180.0
  0
ARC
  5
164
330
25
100
AcDbEntity
  8
BODY
100
AcDbCircle
 10
-348.910493
 20
-227.170084
 30
0.0
 40
10.0
100
AcDbArc
 50
94.999999
 51
180.0
  0
LINE
  5
165
330
25
100
AcDbEntity
  8
BODY
100
AcDbLine
 10
-369.778224
 20
-226.232762
 30
0.0
 11
-369.778224
 21
-258.863814
 31
0.0
  0
ARC
  5
166
330
25
100
AcDbEntity
  8
BODY
100
AcDbCircle
 10
-359.778224
 20
-226.232762
 30
0.0
 40
10.0
100
AcDbArc
 50
95.0
 51
180.0
  0
ARC
  5
167
330
25
100
AcDbEntity
  8
BODY
100
AcDbCircle
 10
-326.9104930000001
 20
-232.00919
 30
0.0
 40
10.0
100
AcDbArc
 50
95.00000099999999
 51
180.0
  0
ARC
  5
168
330
25
100
AcDbEntity
  8
BODY
100
AcDbCircle
 10
-335.570747
 20
-232.766864
 30
0.0
 40
10.0
100
AcDbArc
 50
95.00000099999999
 51
180.0
  0
LINE
  5
169
330
25
100
AcDbEntity
  8
BODY
100
AcDbLine
 10
-367.69797
 20
-263.219207
 30
0.0
 11
-367.69797
 21
-267.5302680000001
 31
0.0
  0
LINE
  5
16A
330
25
100
AcDbEntity
  8
BODY
100
AcDbLine
 10
-330.123016
 20
-263.611077
 30
0.0
 11
-330.123016
 21
-268.510105
 31
0.0
  0
LINE
  5
16B
330
25
100
AcDbEntity
  8
BODY
100
AcDbLine
 10
-372.892178
 20
-259.863814
 30
0.0
 11
-323.685433
 21
-259.863814
 31
0.0
  0
LINE
  5
16C
330
25
100
AcDbEntity
  8
BODY
100
AcDbLine
 10
-320.84211
 20
-261.847418
 30
0.0
 11
-320.84211
 21
-265.766688
 31
0.0
  0
LINE
  5
16D
330
25
100
AcDbEntity
  8
BODY
100
AcDbLine
 10
-376.9788759999999
 20
-262.239368
 30
0.0
 11
-376.9788759999999
 21
-265.962623
 31
0.0
  0
ARC
  5
16E
330
25
100
AcDbEntity
  8
BODY
100
AcDbCircle
 10
-348.910493
 20
-63.90528599999999
 30
0.0
 40
197.958528
100
AcDbArc
 50
261.8486069999999
 51
278.151393
  0
ARC
  5
16F
330
25
100
AcDbEntity
  8
BODY
100
AcDbCircle
 10
-329.703066
 20
-258.863814
 30
0.0
 40
1.0
100
AcDbArc
 50
180.0
 51
270.0
  0
ARC
  5
170
330
25
100
AcDbEntity
  8
BODY
100
AcDbCircle
 10
-335.910493
 20
-258.863814
 30
0.0
 40
1.0
100
AcDbArc
 50
180.0
 51
270.0
  0
ARC
  5
171
330
25
100
AcDbEntity
  8
BODY
100
AcDbCircle
 10
-359.910493
 20
-258.863814
 30
0.0
 40
1.0
100
AcDbArc
 50
270.0
 51
360.0
  0
ARC
  5
172
330
25
100
AcDbEntity
  8
BODY
100
AcDbCircle
 10
-370.778224
 20
-258.863814
 30
0.0
 40
1.0
100
AcDbArc
 50
270.0
 51
360.0
  0
ARC
  5
173
330
25
100
AcDbEntity
  8
BODY
100
AcDbCircle
 10
-343.410493
 20
-213.758753
 30
0.0
 40
1.0
100
AcDbArc
 50
180.0
 51
275.0
  0
ARC
  5
174
330
25
100
AcDbEntity
  8
BODY
100
AcDbCircle
 10
-354.410493
 20
-214.721128
 30
0.0
 40
1.0
100
AcDbArc
 50
275.0
 51
360.0
  0
ARC
  5
175
330
25
100
AcDbEntity
  8
BODY
100
AcDbCircle
 10
-361.338697
 20
-215.34401
 30
0.0
 40
1.0
100
AcDbArc
 50
278.15556
 51
360.0
  0
ARC
  5
176
330
25
100
AcDbEntity
  8
BODY
100
AcDbCircle
 10
-336.48229
 20
-213.152613
 30
0.0
 40
1.0
100
AcDbArc
 50
180.0
 51
275.0
  0
LINE
  5
177
330
25
100
AcDbEntity
  8
BODY
100
AcDbLine
 10
-344.410493
 20
-215.172228
 30
0.0
 11
-344.410493
 21
-180.460059
 31
0.0
  0
LINE
  5
178
330
25
100
AcDbEntity
  8
BODY
100
AcDbLine
 10
-353.410493
 20
-214.721128
 30
0.0
 11
-353.410493
 21
-180.460059
 31
0.0
  0
LINE
  5
179
330
25
100
AcDbEntity
  8
BODY
100
AcDbLine
 10
-360.338697
 20
-215.34401
 30
0.0
 11
-360.338697
 21
-181.763814
 31
0.0
  0
LINE
  5
17A
330
25
100
AcDbEntity
  8
BODY
100
AcDbLine
 10
-337.48229
 20
-213.097531
 30
0.0
 11
-337.48229
 21
-181.763814
 31
0.0
  0
LINE
  5
17B
330
25
100
AcDbEntity
  8
BODY
100
AcDbLine
 10
-261.939593
 20
-170.263814
 30
0.0
 11
-336.48229
 21
-170.263814
 31
0.0
  0
LINE
  5
17C
330
25
100
AcDbEntity
  8
BODY
100
AcDbLine
 10
-268.745358
 20
-172.144755
 30
0.0
 11
-357.910493
 21
-172.144755
 31
0.0
  0
LINE
  5
17D
330
25
100
AcDbEntity
  8
BODY
100
AcDbLine
 10
-267.780282
 20
-172.144755
 30
0.0
 11
-262.051643
 21
-170.908572
 31
0.0
  0
LINE
  5
17E
330
25
100
AcDbEntity
  8
BODY
100
AcDbLine
 10
-267.780282
 20
-178.882873
 30
0.0
 11
-262.0624049999999
 21
-180.116734
 31
0.0
  0
LINE
  5
17F
330
25
100
AcDbEntity
  8
BODY
100
AcDbLine
 10
-268.745358
 20
-178.882873
 30
0.0
 11
-357.910493
 21
-178.882873
 31
0.0
  0
LINE
  5
180
330
25
100
AcDbEntity
  8
BODY
100
AcDbLine
 10
-261.939593
 20
-180.763814
 30
0.0
 11
-337.482291
 21
-180.763814
 31
0.0
  0
ARC
  5
181
330
25
100
AcDbEntity
  8
BODY
100
AcDbCircle
 10
-348.910493
 20
-175.513814
 30
0.0
 40
90.0
100
AcDbArc
 50
358.518047
 51
1.481953
  0
ARC
  5
182
330
25
100
AcDbEntity
  8
BODY
100
AcDbCircle
 10
-348.910493
 20
-175.513814
 30
0.0
 40
81.20013399999997
100
AcDbArc
 50
358.307274
 51
1.692725999999999
  0
ARC
  5
183
330
25
100
AcDbEntity
  8
BODY
100
AcDbCircle
 10
-261.939593
 20
-173.263814
 30
0.0
 40
3.0
100
AcDbArc
 50
1.481953
 51
90.0
  0
ARC
  5
184
330
25
100
AcDbEntity
  8
BODY
100
AcDbCircle
 10
-261.939593
 20
-177.763814
 30
0.0
 40
3.0
100
AcDbArc
 50
270.0
 51
358.518047
  0
ARC
  5
185
330
25
100
AcDbEntity
  8
BODY
100
AcDbCircle
 10
-268.745358
 20
-173.144755
 30
0.0
 40
1.0
100
AcDbArc
 50
1.692725999999999
 51
90.0
  0
ARC
  5
186
330
25
100
AcDbEntity
  8
BODY
100
AcDbCircle
 10
-268.745358
 20
-177.882873
 30
0.0
 40
1.0
100
AcDbArc
 50
270.0
 51
358.307274
  0
LINE
  5
187
330
25
100
AcDbEntity
  8
BODY
100
AcDbLine
 10
-337.48229
 20
-170.263814
 30
0.0
 11
-342.155828
 21
-171.532635
 31
0.0
  0
ARC
  5
188
330
25
100
AcDbEntity
  8
BODY
100
AcDbCircle
 10
-348.910493
 20
-540.6708
 30
0.0
 40
271.782739
100
AcDbArc
 50
86.39288099999998
 51
93.607119
  0
ARC
  5
189
330
25
100
AcDbEntity
  8
BODY
100
AcDbCircle
 10
-367.047666
 20
-252.959172
 30
0.0
 40
16.5
100
AcDbArc
 50
256.819266
 51
273.607119
  0
ARC
  5
18A
330
25
100
AcDbEntity
  8
BODY
100
AcDbCircle
 10
-330.77332
 20
-252.959172
 30
0.0
 40
16.5
100
AcDbArc
 50
266.392881
 51
283.180734
  0
LINE
  5
18B
330
25
100
AcDbEntity
  8
BODY
100
AcDbLine
 10
-342.417835
 20
-171.567569
 30
0.0
 11
-355.403151
 21
-171.567569
 31
0.0
  0
LINE
  5
18C
330
25
100
AcDbEntity
  8
BODY
100
AcDbLine
 10
-339.900497
 20
-177.748594
 30
0.0
 11
-339.900497
 21
-173.312891
 31
0.0
  0
LINE
  5
18D
330
25
100
AcDbEntity
  8
BODY
100
AcDbLine
 10
-342.016383
 20
-179.460059
 30
0.0
 11
-355.403151
 21
-179.460059
 31
0.0
  0
LINE
  5
18E
330
25
100
AcDbEntity
  8
BODY
100
AcDbLine
 10
-337.482291
 20
-180.763814
 30
0.0
 11
-342.284502
 21
-179.460059
 31
0.0
  0
LINE
  5
18F
330
25
100
AcDbEntity
  8
BODY
100
AcDbLine
 10
-368.778224
 20
-170.263814
 30
0.0
 11
-361.338697
 21
-170.263814
 31
0.0
  0
LINE
  5
190
330
25
100
AcDbEntity
  8
BODY
100
AcDbLine
 10
-368.778224
 20
-180.763814
 30
0.0
 11
-361.338697
 21
-180.763814
 31
0.0
  0
LINE
  5
191
330
25
100
AcDbEntity
  8
BODY
100
AcDbLine
 10
-360.338695
 20
-180.763814
 30
0.0
 11
-355.665157
 21
-179.494993
 31
0.0
  0
LINE
  5
192
330
25
100
AcDbEntity
  8
BODY
100
AcDbLine
 10
-360.338697
 20
-170.263813
 30
0.0
 11
-355.665157
 21
-171.532635
 31
0.0
  0
LINE
  5
193
330
25
100
AcDbEntity
  8
BODY
100
AcDbLine
 10
-268.198345
 20
-208.182362
 30
0.0
 11
-360.649781
 21
-216.270815
 31
0.0
  0
LINE
  5
194
330
25
100
AcDbEntity
  8
BODY
100
AcDbLine
 10
-277.517467
 20
-210.885806
 30
0.0
 11
-349.78205
 21
-217.208137
 31
0.0
  0
LINE
  5
195
330
25
100
AcDbEntity
  8
BODY
100
AcDbLine
 10
-275.744709
 20
-210.730709
 30
0.0
 11
-268.915939
 21
-208.940121
 31
0.0
  0
LINE
  5
196
330
25
100
AcDbEntity
  8
BODY
100
AcDbLine
 10
-278.495792
 20
-217.955296
 30
0.0
 11
-272.7349779999999
 21
-218.58907
 31
0.0
  0
LINE
  5
197
330
25
100
AcDbEntity
  8
BODY
100
AcDbLine
 10
-280.114964
 20
-217.876913
 30
0.0
 11
-336.442304
 21
-222.804917
 31
0.0
  0
LINE
  5
198
330
25
100
AcDbEntity
  8
BODY
100
AcDbLine
 10
-271.662845
 20
-219.025575
 30
0.0
 11
-321.574623
 21
-223.392289
 31
0.0
  0
ARC
  5
199
330
25
100
AcDbEntity
  8
BODY
100
AcDbCircle
 10
-348.910493
 20
-175.513814
 30
0.0
 40
90.0
100
AcDbArc
 50
332.23905
 51
336.804215
  0
ARC
  5
19A
330
25
100
AcDbEntity
  8
BODY
100
AcDbCircle
 10
-348.910493
 20
-175.513814
 30
0.0
 40
81.20013399999997
100
AcDbArc
 50
328.949327
 51
333.033601
  0
ARC
  5
19B
330
25
100
AcDbEntity
  8
BODY
100
AcDbCircle
 10
-271.924312
 20
-216.036991
 30
0.0
 40
3.0
100
AcDbArc
 50
275.0
 51
332.23905
  0
ARC
  5
19C
330
25
100
AcDbEntity
  8
BODY
100
AcDbCircle
 10
-268.024033
 20
-210.174751
 30
0.0
 40
2.0
100
AcDbArc
 50
336.804215
 51
95.0
  0
ARC
  5
19D
330
25
100
AcDbEntity
  8
BODY
100
AcDbCircle
 10
-280.20212
 20
-216.880719
 30
0.0
 40
1.0
100
AcDbArc
 50
275.0
 51
328.949327
  0
ARC
  5
19E
330
25
100
AcDbEntity
  8
BODY
100
AcDbCircle
 10
-277.4303109999999
 20
-211.882
 30
0.0
 40
1.0
100
AcDbArc
 50
333.033601
 51
95.0
  0
ARC
  5
19F
330
25
100
AcDbEntity
  8
BODY
100
AcDbCircle
 10
-348.910493
 20
-171.9638139999999
 30
0.0
 40
100.94
100
AcDbArc
 50
281.538656
 51
298.992348
  0
POINT
  5
1A0
330
25
100
AcDbEntity
  8
BODY
100
AcDbPoint
 10
-348.910493
 20
-175.513814
 30
0.0
  0
LINE
  5
1A1
330
25
100
AcDbEntity
  8
BODY
  6
CENTER
 62
     4
370
    13
100
AcDbLine
 10
69.58950699999999
 20
-175.513814
 30
0.0
 11
188.989507
 21
-175.513814
 31
0.0
  0
LINE
  5
1A2
330
25
100
AcDbEntity
  8
BODY
  6
CENTER
 62
     4
370
    13
100
AcDbLine
 10
129.789507
 20
150.957138
 30
0.0
 11
129.789507
 21
-368.085104
 31
0.0
  0
LINE
  5
1A3
330
25
100
AcDbEntity
  8
BODY
100
AcDbLine
 10
176.789507
 20
37.486186
 30
0.0
 11
82.78950700000001
 21
37.486186
 31
0.0
  0
LINE
  5
1A4
330
25
100
AcDbEntity
  8
BODY
100
AcDbLine
 10
78.789507
 20
51.48618599999998
 30
0.0
 11
78.789507
 21
41.48618599999998
 31
0.0
  0
LINE
  5
1A5
330
25
100
AcDbEntity
  8
BODY
100
AcDbLine
 10
180.789507
 20
51.48618599999998
 30
0.0
 11
180.789507
 21
41.48618599999998
 31
0.0
  0
LINE
  5
1A6
330
25
100
AcDbEntity
  8
BODY
100
AcDbLine
 10
108.789507
 20
27.486186
 30
0.0
 11
108.789507
 21
-45.78519199999997
 31
0.0
  0
LINE
  5
1A7
330
25
100
AcDbEntity
  8
BODY
100
AcDbLine
 10
150.789507
 20
27.486186
 30
0.0
 11
150.789507
 21
-45.78519199999997
 31
0.0
  0
LINE
  5
1A8
330
25
100
AcDbEntity
  8
BODY
100
AcDbLine
 10
111.789507
 20
-342.513814
 30
0.0
 11
147.789507
 21
-342.513814
 31
0.0
  0
LINE
  5
1A9
330
25
100
AcDbEntity
  8
BODY
100
AcDbLine
 10
104.789507
 20
-303.242436
 30
0.0
 11
104.789507
 21
-333.513814
 31
0.0
  0
LINE
  5
1AA
330
25
100
AcDbEntity
  8
BODY
100
AcDbLine
 10
154.789507
 20
-303.242436
 30
0.0
 11
154.789507
 21
-333.513814
 31
0.0
  0
LINE
  5
1AB
330
25
100
AcDbEntity
  8
BODY
100
AcDbLine
 10
125.789507
 20
-336.513814
 30
0.0
 11
125.789507
 21
-288.100104
 31
0.0
  0
LINE
  5
1AC
330
25
100
AcDbEntity
  8
BODY
100
AcDbLine
 10
133.789507
 20
-288.100104
 30
0.0
 11
133.789507
 21
-336.513814
 31
0.0
  0
ARC
  5
1AD
330
25
100
AcDbEntity
  8
BODY
100
AcDbCircle
 10
176.789507
 20
41.48618599999998
 30
0.0
 40
4.0
100
AcDbArc
 50
270.0
 51
360.0
  0
ARC
  5
1AE
330
25
100
AcDbEntity
  8
BODY
100
AcDbCircle
 10
82.78950700000001
 20
41.48618599999998
 30
0.0
 40
4.0
100
AcDbArc
 50
180.0
 51
270.0
  0
ARC
  5
1AF
330
25
100
AcDbEntity
  8
BODY
100
AcDbCircle
 10
160.789507
 20
27.486186
 30
0.0
 40
10.0
100
AcDbArc
 50
90.0
 51
180.0
  0
ARC
  5
1B0
330
25
100
AcDbEntity
  8
BODY
100
AcDbCircle
 10
98.789507
 20
27.486186
 30
0.0
 40
10.0
100
AcDbArc
 50
0.0
 51
65.165413
  0
ARC
  5
1B1
330
25
100
AcDbEntity
  8
BODY
100
AcDbCircle
 10
178.789507
 20
9.548747
 30
0.0
 40
28.0
100
AcDbArc
 50
93.58332199999999
 51
180.0
  0
LINE
  5
1B2
330
25
100
AcDbEntity
  8
BODY
100
AcDbLine
 10
126.789507
 20
17.486186
 30
0.0
 11
132.789507
 21
17.486186
 31
0.0
  0
LINE
  5
1B3
330
25
100
AcDbEntity
  8
BODY
100
AcDbLine
 10
126.789507
 20
30.286186
 30
0.0
 11
126.789507
 21
20.486186
 31
0.0
  0
LINE
  5
1B4
330
25
100
AcDbEntity
  8
BODY
100
AcDbLine
 10
132.789507
 20
30.286186
 30
0.0
 11
132.789507
 21
20.486186
 31
0.0
  0
ARC
  5
1B5
330
25
100
AcDbEntity
  8
BODY
100
AcDbCircle
 10
135.789507
 20
20.486186
 30
0.0
 40
3.0
100
AcDbArc
 50
180.0
 51
270.0
  0
ARC
  5
1B6
330
25
100
AcDbEntity
  8
BODY
100
AcDbCircle
 10
123.789507
 20
20.486186
 30
0.0
 40
3.0
100
AcDbArc
 50
270.0
 51
360.0
  0
LINE
  5
1B7
330
25
100
AcDbEntity
  8
BODY
100
AcDbLine
 10
125.789507
 20
34.486186
 30
0.0
 11
125.789507
 21
32.018237
 31
0.0
  0
LINE
  5
1B8
330
25
100
AcDbEntity
  8
BODY
100
AcDbLine
 10
133.789507
 20
34.486186
 30
0.0
 11
133.789507
 21
32.018237
 31
0.0
  0
ARC
  5
1B9
330
25
100
AcDbEntity
  8
BODY
100
AcDbCircle
 10
133.789507
 20
30.286186
 30
0.0
 40
1.0
100
AcDbArc
 50
120.0
 51
180.0
  0
ARC
  5
1BA
330
25
100
AcDbEntity
  8
BODY
100
AcDbCircle
 10
125.789507
 20
30.286186
 30
0.0
 40
1.0
100
AcDbArc
 50
0.0
 51
60.0
  0
ARC
  5
1BB
330
25
100
AcDbEntity
  8
BODY
100
AcDbCircle
 10
132.789507
 20
32.018237
 30
0.0
 40
1.0
100
AcDbArc
 50
300.0
 51
360.0
  0
ARC
  5
1BC
330
25
100
AcDbEntity
  8
BODY
100
AcDbCircle
 10
126.789507
 20
32.018237
 30
0.0
 40
1.0
100
AcDbArc
 50
180.0
 51
240.0
  0
ARC
  5
1BD
330
25
100
AcDbEntity
  8
BODY
100
AcDbCircle
 10
136.789507
 20
34.486186
 30
0.0
 40
3.0
100
AcDbArc
 50
90.0
 51
180.0
  0
ARC
  5
1BE
330
25
100
AcDbEntity
  8
BODY
100
AcDbCircle
 10
122.789507
 20
34.486186
 30
0.0
 40
3.0
100
AcDbArc
 50
0.0
 51
90.0
  0
LINE
  5
1BF
330
25
100
AcDbEntity
  8
BODY
100
AcDbLine
 10
99.789507
 20
-48.51381400000001
 30
0.0
 11
99.789507
 21
-302.513814
 31
0.0
  0
LINE
  5
1C0
330
25
100
AcDbEntity
  8
BODY
100
AcDbLine
 10
159.789507
 20
-48.51381400000001
 30
0.0
 11
159.789507
 21
-302.513814
 31
0.0
  0
LINE
  5
1C1
330
25
100
AcDbEntity
  8
BODY
100
AcDbLine
 10
159.789507
 20
-48.51381400000001
 30
0.0
 11
158.789507
 21
-47.513814
 31
0.0
  0
LINE
  5
1C2
330
25
100
AcDbEntity
  8
BODY
100
AcDbLine
 10
99.789507
 20
-48.51381400000001
 30
0.0
 11
100.789507
 21
-47.513814
 31
0.0
  0
LINE
  5
1C3
330
25
100
AcDbEntity
  8
BODY
100
AcDbLine
 10
99.789507
 20
-302.513814
 30
0.0
 11
100.789507
 21
-303.513814
 31
0.0
  0
LINE
  5
1C4
330
25
100
AcDbEntity
  8
BODY
100
AcDbLine
 10
158.789507
 20
-303.513814
 30
0.0
 11
159.789507
 21
-302.513814
 31
0.0
  0
LINE
  5
1C5
330
25
100
AcDbEntity
  8
BODY
100
AcDbLine
 10
158.789507
 20
-47.513814
 30
0.0
 11
158.789507
 21
-303.513814
 31
0.0
  0
LINE
  5
1C6
330
25
100
AcDbEntity
  8
BODY
100
AcDbLine
 10
100.789507
 20
-47.513814
 30
0.0
 11
100.789507
 21
-303.513814
 31
0.0
  0
LINE
  5
1C7
330
25
100
AcDbEntity
  8
BODY
100
AcDbLine
 10
100.789507
 20
-47.513814
 30
0.0
 11
103.789507
 21
-47.513814
 31
0.0
  0
LINE
  5
1C8
330
25
100
AcDbEntity
  8
BODY
100
AcDbLine
 10
155.789507
 20
-47.513814
 30
0.0
 11
158.789507
 21
-47.513814
 31
0.0
  0
ARC
  5
1C9
330
25
100
AcDbEntity
  8
BODY
100
AcDbCircle
 10
155.789507
 20
-42.513814
 30
0.0
 40
5.0
100
AcDbArc
 50
180.0
 51
270.0
  0
ARC
  5
1CA
330
25
100
AcDbEntity
  8
BODY
100
AcDbCircle
 10
103.789507
 20
-42.513814
 30
0.0
 40
5.0
100
AcDbArc
 50
270.0
 51
0.0
  0
ARC
  5
1CB
330
25
100
AcDbEntity
  8
BODY
100
AcDbCircle
 10
155.789507
 20
-45.78519199999997
 30
0.0
 40
5.0
100
AcDbArc
 50
180.0
 51
270.0
  0
ARC
  5
1CC
330
25
100
AcDbEntity
  8
BODY
100
AcDbCircle
 10
103.789507
 20
-45.78519199999997
 30
0.0
 40
5.0
100
AcDbArc
 50
270.0
 51
360.0
  0
LINE
  5
1CD
330
25
100
AcDbEntity
  8
BODY
100
AcDbLine
 10
100.789507
 20
-303.513814
 30
0.0
 11
101.789507
 21
-303.513814
 31
0.0
  0
LINE
  5
1CE
330
25
100
AcDbEntity
  8
BODY
100
AcDbLine
 10
157.789507
 20
-303.513814
 30
0.0
 11
158.789507
 21
-303.513814
 31
0.0
  0
ARC
  5
1CF
330
25
100
AcDbEntity
  8
BODY
100
AcDbCircle
 10
157.789507
 20
-306.513814
 30
0.0
 40
3.0
100
AcDbArc
 50
90.0
 51
180.0
  0
ARC
  5
1D0
330
25
100
AcDbEntity
  8
BODY
100
AcDbCircle
 10
101.789507
 20
-306.513814
 30
0.0
 40
3.0
100
AcDbArc
 50
0.0
 51
90.0
  0
ARC
  5
1D1
330
25
100
AcDbEntity
  8
BODY
100
AcDbCircle
 10
157.789507
 20
-303.242436
 30
0.0
 40
3.0
100
AcDbArc
 50
90.0
 51
180.0
  0
ARC
  5
1D2
330
25
100
AcDbEntity
  8
BODY
100
AcDbCircle
 10
101.789507
 20
-303.242436
 30
0.0
 40
3.0
100
AcDbArc
 50
0.0
 51
90.0
  0
LINE
  5
1D3
330
25
100
AcDbEntity
  8
BODY
100
AcDbLine
 10
147.789507
 20
-342.288778
 30
0.0
 11
147.789507
 21
-345.713814
 31
0.0
  0
LINE
  5
1D4
330
25
100
AcDbEntity
  8
BODY
100
AcDbLine
 10
111.789507
 20
-342.288778
 30
0.0
 11
111.789507
 21
-345.713814
 31
0.0
  0
ARC
  5
1D5
330
25
100
AcDbEntity
  8
BODY
100
AcDbCircle
 10
148.789507
 20
-333.513814
 30
0.0
 40
6.0
100
AcDbArc
 50
270.0
 51
360.0
  0
ARC
  5
1D6
330
25
100
AcDbEntity
  8
BODY
100
AcDbCircle
 10
110.789507
 20
-333.513814
 30
0.0
 40
6.0
100
AcDbArc
 50
180.0
 51
270.0
  0
ARC
  5
1D7
330
25
100
AcDbEntity
  8
BODY
100
AcDbCircle
 10
150.789507
 20
-342.288778
 30
0.0
 40
3.0
100
AcDbArc
 50
102.839588
 51
180.0
  0
ARC
  5
1D8
330
25
100
AcDbEntity
  8
BODY
100
AcDbCircle
 10
108.789507
 20
-342.288778
 30
0.0
 40
3.0
100
AcDbArc
 50
0.0
 51
77.16041199999998
  0
LINE
  5
1D9
330
25
100
AcDbEntity
  8
BODY
100
AcDbLine
 10
117.789507
 20
-333.513814
 30
0.0
 11
117.789507
 21
-339.513814
 31
0.0
  0
LINE
  5
1DA
330
25
100
AcDbEntity
  8
BODY
100
AcDbLine
 10
141.789507
 20
-333.513814
 30
0.0
 11
141.789507
 21
-339.513814
 31
0.0
  0
ARC
  5
1DB
330
25
100
AcDbEntity
  8
BODY
100
AcDbCircle
 10
135.789507
 20
-333.513814
 30
0.0
 40
6.0
100
AcDbArc
 50
0.0
 51
83.62063
  0
ARC
  5
1DC
330
25
100
AcDbEntity
  8
BODY
100
AcDbCircle
 10
123.789507
 20
-333.513814
 30
0.0
 40
6.0
100
AcDbArc
 50
96.37937
 51
180.0
  0
LINE
  5
1DD
330
25
100
AcDbEntity
  8
BODY
100
AcDbLine
 10
148.789507
 20
-339.513814
 30
0.0
 11
110.789507
 21
-339.513814
 31
0.0
  0
ARC
  5
1DE
330
25
100
AcDbEntity
  8
BODY
100
AcDbCircle
 10
136.789507
 20
-336.513814
 30
0.0
 40
3.0
100
AcDbArc
 50
180.0
 51
270.0
  0
ARC
  5
1DF
330
25
100
AcDbEntity
  8
BODY
100
AcDbCircle
 10
122.789507
 20
-336.513814
 30
0.0
 40
3.0
100
AcDbArc
 50
270.0
 51
360.0
  0
ARC
  5
1E0
330
25
100
AcDbEntity
  8
BODY
100
AcDbCircle
 10
136.789507
 20
-324.569542
 30
0.0
 40
3.0
100
AcDbArc
 50
180.0
 51
263.62063
  0
ARC
  5
1E1
330
25
100
AcDbEntity
  8
BODY
100
AcDbCircle
 10
122.789507
 20
-324.569542
 30
0.0
 40
3.0
100
AcDbArc
 50
276.37937
 51
360.0
  0
LINE
  5
1E2
330
25
100
AcDbEntity
  8
BODY
100
AcDbLine
 10
111.789507
 20
-343.313814
 30
0.0
 11
147.789507
 21
-343.313814
 31
0.0
  0
LINE
  5
1E3
330
25
100
AcDbEntity
  8
BODY
100
AcDbLine
 10
111.789507
 20
-345.713814
 30
0.0
 11
147.789507
 21
-345.713814
 31
0.0
  0
LINE
  5
1E4
330
25
100
AcDbEntity
  8
BODY
100
AcDbLine
 10
134.789507
 20
-347.213814
 30
0.0
 11
134.789507
 21
-351.213814
 31
0.0
  0
ARC
  5
1E5
330
25
100
AcDbEntity
  8
BODY
100
AcDbCircle
 10
132.289507
 20
-344.600606
 30
0.0
 40
6.613208
100
AcDbArc
 50
247.7882049999999
 51
292.211795
  0
LINE
  5
1E6
330
25
100
AcDbEntity
  8
BODY
100
AcDbLine
 10
135.889507
 20
-347.213814
 30
0.0
 11
123.689507
 21
-347.213814
 31
0.0
  0
LINE
  5
1E7
330
25
100
AcDbEntity
  8
BODY
100
AcDbLine
 10
124.789507
 20
-347.213814
 30
0.0
 11
124.789507
 21
-351.213814
 31
0.0
  0
LINE
  5
1E8
330
25
100
AcDbEntity
  8
BODY
100
AcDbLine
 10
124.789507
 20
-351.213814
 30
0.0
 11
134.789507
 21
-351.213814
 31
0.0
  0
LINE
  5
1E9
330
25
100
AcDbEntity
  8
BODY
100
AcDbLine
 10
129.789507
 20
-347.213814
 30
0.0
 11
129.789507
 21
-350.723066
 31
0.0
  0
ARC
  5
1EA
330
25
100
AcDbEntity
  8
BODY
100
AcDbCircle
 10
127.289507
 20
-344.600606
 30
0.0
 40
6.613208
100
AcDbArc
 50
247.7882049999999
 51
292.211795
  0
LINE
  5
1EB
330
25
100
AcDbEntity
  8
BODY
100
AcDbLine
 10
135.889507
 20
-345.713814
 30
0.0
 11
135.889507
 21
-347.213814
 31
0.0
  0
LINE
  5
1EC
330
25
100
AcDbEntity
  8
BODY
100
AcDbLine
 10
123.689507
 20
-347.213814
 30
0.0
 11
123.689507
 21
-345.713814
 31
0.0
  0
LINE
  5
1ED
330
25
100
AcDbEntity
  8
BODY
100
AcDbLine
 10
125.789507
 20
-5.440665
 30
0.0
 11
125.789507
 21
-62.927524
 31
0.0
  0
LINE
  5
1EE
330
25
100
AcDbEntity
  8
BODY
100
AcDbLine
 10
133.789507
 20
-5.440665
 30
0.0
 11
133.789507
 21
-62.927524
 31
0.0
  0
LINE
  5
1EF
330
25
100
AcDbEntity
  8
BODY
100
AcDbLine
 10
125.789507
 20
-2.440665
 30
0.0
 11
133.789507
 21
-2.440665
 31
0.0
  0
ARC
  5
1F0
330
25
100
AcDbEntity
  8
BODY
100
AcDbCircle
 10
136.789507
 20
-5.440665
 30
0.0
 40
3.0
100
AcDbArc
 50
90.0
 51
180.0
  0
ARC
  5
1F1
330
25
100
AcDbEntity
  8
BODY
100
AcDbCircle
 10
122.789507
 20
-5.440665
 30
0.0
 40
3.0
100
AcDbArc
 50
360.0
 51
90.0
  0
LINE
  5
1F2
330
25
100
AcDbEntity
  8
BODY
100
AcDbLine
 10
127.789507
 20
-13.628059
 30
0.0
 11
131.789507
 21
-13.628059
 31
0.0
  0
LINE
  5
1F3
330
25
100
AcDbEntity
  8
BODY
100
AcDbLine
 10
127.789507
 20
-23.954573
 30
0.0
 11
131.789507
 21
-23.954573
 31
0.0
  0
ARC
  5
1F4
330
25
100
AcDbEntity
  8
BODY
100
AcDbCircle
 10
131.789507
 20
-15.628059
 30
0.0
 40
2.0
100
AcDbArc
 50
0.0
 51
90.0
  0
ARC
  5
1F5
330
25
100
AcDbEntity
  8
BODY
100
AcDbCircle
 10
127.789507
 20
-15.628059
 30
0.0
 40
2.0
100
AcDbArc
 50
90.0
 51
180.0
  0
ARC
  5
1F6
330
25
100
AcDbEntity
  8
BODY
100
AcDbCircle
 10
127.789507
 20
-21.954573
 30
0.0
 40
2.0
100
AcDbArc
 50
180.0
 51
270.0
  0
ARC
  5
1F7
330
25
100
AcDbEntity
  8
BODY
100
AcDbCircle
 10
131.789507
 20
-21.954573
 30
0.0
 40
2.0
100
AcDbArc
 50
270.0
 51
360.0
  0
LINE
  5
1F8
330
25
100
AcDbEntity
  8
BODY
100
AcDbLine
 10
120.789507
 20
-83.51381399999999
 30
0.0
 11
138.789507
 21
-83.51381399999999
 31
0.0
  0
LINE
  5
1F9
330
25
100
AcDbEntity
  8
BODY
100
AcDbLine
 10
120.789507
 20
-87.51381399999997
 30
0.0
 11
138.789507
 21
-87.51381399999997
 31
0.0
  0
LINE
  5
1FA
330
25
100
AcDbEntity
  8
BODY
100
AcDbLine
 10
120.789507
 20
-132.513814
 30
0.0
 11
138.789507
 21
-132.513814
 31
0.0
  0
LINE
  5
1FB
330
25
100
AcDbEntity
  8
BODY
100
AcDbLine
 10
120.789507
 20
-136.513814
 30
0.0
 11
138.789507
 21
-136.513814
 31
0.0
  0
LINE
  5
1FC
330
25
100
AcDbEntity
  8
BODY
100
AcDbLine
 10
120.789507
 20
-214.513814
 30
0.0
 11
138.789507
 21
-214.513814
 31
0.0
  0
LINE
  5
1FD
330
25
100
AcDbEntity
  8
BODY
100
AcDbLine
 10
120.789507
 20
-218.513814
 30
0.0
 11
138.789507
 21
-218.513814
 31
0.0
  0
LINE
  5
1FE
330
25
100
AcDbEntity
  8
BODY
100
AcDbLine
 10
120.789507
 20
-263.513814
 30
0.0
 11
138.789507
 21
-263.513814
 31
0.0
  0
LINE
  5
1FF
330
25
100
AcDbEntity
  8
BODY
100
AcDbLine
 10
120.789507
 20
-267.513814
 30
0.0
 11
138.789507
 21
-267.513814
 31
0.0
  0
LINE
  5
200
330
25
100
AcDbEntity
  8
BODY
100
AcDbLine
 10
144.789507
 20
-77.51381399999998
 30
0.0
 11
144.789507
 21
-56.785192
 31
0.0
  0
LINE
  5
201
330
25
100
AcDbEntity
  8
BODY
100
AcDbLine
 10
144.789507
 20
-126.513814
 30
0.0
 11
144.789507
 21
-93.51381399999999
 31
0.0
  0
LINE
  5
202
330
25
100
AcDbEntity
  8
BODY
100
AcDbLine
 10
144.789507
 20
-208.513814
 30
0.0
 11
144.789507
 21
-142.513814
 31
0.0
  0
LINE
  5
203
330
25
100
AcDbEntity
  8
BODY
100
AcDbLine
 10
144.789507
 20
-294.242436
 30
0.0
 11
144.789507
 21
-273.513814
 31
0.0
  0
LINE
  5
204
330
25
100
AcDbEntity
  8
BODY
100
AcDbLine
 10
144.789507
 20
-257.513814
 30
0.0
 11
144.789507
 21
-224.513814
 31
0.0
  0
LINE
  5
205
330
25
100
AcDbEntity
  8
BODY
100
AcDbLine
 10
114.789507
 20
-294.242436
 30
0.0
 11
114.789507
 21
-273.513814
 31
0.0
  0
LINE
  5
206
330
25
100
AcDbEntity
  8
BODY
100
AcDbLine
 10
114.789507
 20
-257.513814
 30
0.0
 11
114.789507
 21
-224.513814
 31
0.0
  0
LINE
  5
207
330
25
100
AcDbEntity
  8
BODY
100
AcDbLine
 10
114.789507
 20
-208.513814
 30
0.0
 11
114.789507
 21
-142.513814
 31
0.0
  0
LINE
  5
208
330
25
100
AcDbEntity
  8
BODY
100
AcDbLine
 10
114.789507
 20
-126.513814
 30
0.0
 11
114.789507
 21
-93.51381399999999
 31
0.0
  0
LINE
  5
209
330
25
100
AcDbEntity
  8
BODY
100
AcDbLine
 10
114.789507
 20
-77.51381399999998
 30
0.0
 11
114.789507
 21
-56.785192
 31
0.0
  0
ARC
  5
20A
330
25
100
AcDbEntity
  8
BODY
100
AcDbCircle
 10
138.789507
 20
-126.513814
 30
0.0
 40
6.0
100
AcDbArc
 50
270.0
 51
360.0
  0
ARC
  5
20B
330
25
100
AcDbEntity
  8
BODY
100
AcDbCircle
 10
120.789507
 20
-126.513814
 30
0.0
 40
6.0
100
AcDbArc
 50
180.0
 51
270.0
  0
ARC
  5
20C
330
25
100
AcDbEntity
  8
BODY
100
AcDbCircle
 10
120.789507
 20
-93.51381399999999
 30
0.0
 40
6.0
100
AcDbArc
 50
90.0
 51
180.0
  0
ARC
  5
20D
330
25
100
AcDbEntity
  8
BODY
100
AcDbCircle
 10
138.789507
 20
-93.51381399999999
 30
0.0
 40
6.0
100
AcDbArc
 50
0.0
 51
90.0
  0
ARC
  5
20E
330
25
100
AcDbEntity
  8
BODY
100
AcDbCircle
 10
138.789507
 20
-77.51381399999998
 30
0.0
 40
6.0
100
AcDbArc
 50
270.0
 51
0.0
  0
ARC
  5
20F
330
25
100
AcDbEntity
  8
BODY
100
AcDbCircle
 10
120.789507
 20
-77.51381399999998
 30
0.0
 40
6.0
100
AcDbArc
 50
180.0
 51
270.0
  0
ARC
  5
210
330
25
100
AcDbEntity
  8
BODY
100
AcDbCircle
 10
120.789507
 20
-142.513814
 30
0.0
 40
6.0
100
AcDbArc
 50
90.0
 51
180.0
  0
ARC
  5
211
330
25
100
AcDbEntity
  8
BODY
100
AcDbCircle
 10
138.789507
 20
-142.513814
 30
0.0
 40
6.0
100
AcDbArc
 50
0.0
 51
90.0
  0
ARC
  5
212
330
25
100
AcDbEntity
  8
BODY
100
AcDbCircle
 10
138.789507
 20
-208.513814
 30
0.0
 40
6.0
100
AcDbArc
 50
270.0
 51
360.0
  0
ARC
  5
213
330
25
100
AcDbEntity
  8
BODY
100
AcDbCircle
 10
120.789507
 20
-208.513814
 30
0.0
 40
6.0
100
AcDbArc
 50
180.0
 51
270.0
  0
ARC
  5
214
330
25
100
AcDbEntity
  8
BODY
100
AcDbCircle
 10
120.789507
 20
-224.513814
 30
0.0
 40
6.0
100
AcDbArc
 50
90.0
 51
180.0
  0
ARC
  5
215
330
25
100
AcDbEntity
  8
BODY
100
AcDbCircle
 10
138.789507
 20
-224.513814
 30
0.0
 40
6.0
100
AcDbArc
 50
0.0
 51
90.0
  0
ARC
  5
216
330
25
100
AcDbEntity
  8
BODY
100
AcDbCircle
 10
138.789507
 20
-257.513814
 30
0.0
 40
6.0
100
AcDbArc
 50
270.0
 51
0.0
  0
ARC
  5
217
330
25
100
AcDbEntity
  8
BODY
100
AcDbCircle
 10
120.789507
 20
-257.513814
 30
0.0
 40
6.0
100
AcDbArc
 50
180.0
 51
270.0
  0
ARC
  5
218
330
25
100
AcDbEntity
  8
BODY
100
AcDbCircle
 10
120.789507
 20
-273.513814
 30
0.0
 40
6.0
100
AcDbArc
 50
90.0
 51
180.0
  0
ARC
  5
219
330
25
100
AcDbEntity
  8
BODY
100
AcDbCircle
 10
138.789507
 20
-273.513814
 30
0.0
 40
6.0
100
AcDbArc
 50
0.0
 51
90.0
  0
ARC
  5
21A
330
25
100
AcDbEntity
  8
BODY
100
AcDbCircle
 10
138.789507
 20
-56.785192
 30
0.0
 40
6.0
100
AcDbArc
 50
0.0
 51
90.0
  0
ARC
  5
21B
330
25
100
AcDbEntity
  8
BODY
100
AcDbCircle
 10
120.789507
 20
-56.785192
 30
0.0
 40
6.0
100
AcDbArc
 50
90.0
 51
180.0
  0
ARC
  5
21C
330
25
100
AcDbEntity
  8
BODY
100
AcDbCircle
 10
138.789507
 20
-294.242436
 30
0.0
 40
6.0
100
AcDbArc
 50
270.0
 51
0.0
  0
ARC
  5
21D
330
25
100
AcDbEntity
  8
BODY
100
AcDbCircle
 10
120.789507
 20
-294.242436
 30
0.0
 40
6.0
100
AcDbArc
 50
180.0
 51
270.0
  0
LINE
  5
21E
330
25
100
AcDbEntity
  8
BODY
100
AcDbLine
 10
127.789507
 20
-51.95314699999999
 30
0.0
 11
131.789507
 21
-51.95314699999999
 31
0.0
  0
LINE
  5
21F
330
25
100
AcDbEntity
  8
BODY
100
AcDbLine
 10
108.789507
 20
-50.78519199999998
 30
0.0
 11
122.789507
 21
-50.78519199999998
 31
0.0
  0
LINE
  5
220
330
25
100
AcDbEntity
  8
BODY
100
AcDbLine
 10
136.789507
 20
-50.78519199999998
 30
0.0
 11
150.789507
 21
-50.78519199999998
 31
0.0
  0
LINE
  5
221
330
25
100
AcDbEntity
  8
BODY
100
AcDbLine
 10
127.789507
 20
-299.074481
 30
0.0
 11
131.789507
 21
-299.074481
 31
0.0
  0
LINE
  5
222
330
25
100
AcDbEntity
  8
BODY
100
AcDbLine
 10
104.789507
 20
-300.242436
 30
0.0
 11
122.789507
 21
-300.242436
 31
0.0
  0
LINE
  5
223
330
25
100
AcDbEntity
  8
BODY
100
AcDbLine
 10
136.789507
 20
-300.242436
 30
0.0
 11
154.789507
 21
-300.242436
 31
0.0
  0
LINE
  5
224
330
25
100
AcDbEntity
  8
BODY
100
AcDbLine
 10
127.789507
 20
-327.073055
 30
0.0
 11
131.789507
 21
-327.073055
 31
0.0
  0
LINE
  5
225
330
25
100
AcDbEntity
  8
BODY
100
AcDbLine
 10
127.789507
 20
-335.277897
 30
0.0
 11
131.789507
 21
-335.277897
 31
0.0
  0
ARC
  5
226
330
25
100
AcDbEntity
  8
BODY
100
AcDbCircle
 10
131.789507
 20
-329.073055
 30
0.0
 40
2.0
100
AcDbArc
 50
0.0
 51
90.0
  0
ARC
  5
227
330
25
100
AcDbEntity
  8
BODY
100
AcDbCircle
 10
127.789507
 20
-329.073055
 30
0.0
 40
2.0
100
AcDbArc
 50
90.0
 51
180.0
  0
ARC
  5
228
330
25
100
AcDbEntity
  8
BODY
100
AcDbCircle
 10
127.789507
 20
-333.277897
 30
0.0
 40
2.0
100
AcDbArc
 50
180.0
 51
270.0
  0
ARC
  5
229
330
25
100
AcDbEntity
  8
BODY
100
AcDbCircle
 10
131.789507
 20
-333.277897
 30
0.0
 40
2.0
100
AcDbArc
 50
270.0
 51
360.0
  0
LINE
  5
22A
330
25
100
AcDbEntity
  8
BODY
100
AcDbLine
 10
141.976007
 20
-78.327314
 30
0.0
 11
141.976007
 21
-67.132451
 31
0.0
  0
LINE
  5
22B
330
25
100
AcDbEntity
  8
BODY
100
AcDbLine
 10
117.603007
 20
-78.327314
 30
0.0
 11
117.603007
 21
-67.132451
 31
0.0
  0
ARC
  5
22C
330
25
100
AcDbEntity
  8
BODY
100
AcDbCircle
 10
138.789507
 20
-78.327314
 30
0.0
 40
3.1865
100
AcDbArc
 50
270.0
 51
360.0
  0
ARC
  5
22D
330
25
100
AcDbEntity
  8
BODY
100
AcDbCircle
 10
120.789507
 20
-78.327314
 30
0.0
 40
3.1865
100
AcDbArc
 50
180.0
 51
270.0
  0
LINE
  5
22E
330
25
100
AcDbEntity
  8
BODY
100
AcDbLine
 10
141.976007
 20
-123.484177
 30
0.0
 11
141.976007
 21
-98.883016
 31
0.0
  0
LINE
  5
22F
330
25
100
AcDbEntity
  8
BODY
100
AcDbLine
 10
117.603007
 20
-123.484177
 30
0.0
 11
117.603007
 21
-98.883016
 31
0.0
  0
ARC
  5
230
330
25
100
AcDbEntity
  8
BODY
100
AcDbCircle
 10
120.789507
 20
-98.883016
 30
0.0
 40
3.1865
100
AcDbArc
 50
90.0
 51
180.0
  0
ARC
  5
231
330
25
100
AcDbEntity
  8
BODY
100
AcDbCircle
 10
138.789507
 20
-98.883016
 30
0.0
 40
3.1865
100
AcDbArc
 50
0.0
 51
90.0
  0
ARC
  5
232
330
25
100
AcDbEntity
  8
BODY
100
AcDbCircle
 10
138.789507
 20
-123.484177
 30
0.0
 40
3.1865
100
AcDbArc
 50
270.0
 51
360.0
  0
ARC
  5
233
330
25
100
AcDbEntity
  8
BODY
100
AcDbCircle
 10
120.789507
 20
-123.484177
 30
0.0
 40
3.1865
100
AcDbArc
 50
180.0
 51
270.0
  0
LINE
  5
234
330
25
100
AcDbEntity
  8
BODY
100
AcDbLine
 10
141.976007
 20
-204.939559
 30
0.0
 11
141.976007
 21
-146.088069
 31
0.0
  0
LINE
  5
235
330
25
100
AcDbEntity
  8
BODY
100
AcDbLine
 10
117.603007
 20
-204.939559
 30
0.0
 11
117.603007
 21
-146.088069
 31
0.0
  0
ARC
  5
236
330
25
100
AcDbEntity
  8
BODY
100
AcDbCircle
 10
138.789507
 20
-146.088069
 30
0.0
 40
3.1865
100
AcDbArc
 50
0.0
 51
90.0
  0
ARC
  5
237
330
25
100
AcDbEntity
  8
BODY
100
AcDbCircle
 10
120.789507
 20
-146.088069
 30
0.0
 40
3.1865
100
AcDbArc
 50
90.0
 51
180.0
  0
ARC
  5
238
330
25
100
AcDbEntity
  8
BODY
100
AcDbCircle
 10
120.789507
 20
-204.939559
 30
0.0
 40
3.1865
100
AcDbArc
 50
180.0
 51
270.0
  0
ARC
  5
239
330
25
100
AcDbEntity
  8
BODY
100
AcDbCircle
 10
138.789507
 20
-204.939559
 30
0.0
 40
3.1865
100
AcDbArc
 50
270.0
 51
360.0
  0
LINE
  5
23A
330
25
100
AcDbEntity
  8
BODY
100
AcDbLine
 10
141.976007
 20
-252.144612
 30
0.0
 11
141.976007
 21
-227.543451
 31
0.0
  0
LINE
  5
23B
330
25
100
AcDbEntity
  8
BODY
100
AcDbLine
 10
117.603007
 20
-252.144612
 30
0.0
 11
117.603007
 21
-227.543451
 31
0.0
  0
ARC
  5
23C
330
25
100
AcDbEntity
  8
BODY
100
AcDbCircle
 10
138.789507
 20
-227.543451
 30
0.0
 40
3.1865
100
AcDbArc
 50
0.0
 51
90.0
  0
ARC
  5
23D
330
25
100
AcDbEntity
  8
BODY
100
AcDbCircle
 10
120.789507
 20
-227.543451
 30
0.0
 40
3.1865
100
AcDbArc
 50
90.0
 51
180.0
  0
ARC
  5
23E
330
25
100
AcDbEntity
  8
BODY
100
AcDbCircle
 10
120.789507
 20
-252.144612
 30
0.0
 40
3.1865
100
AcDbArc
 50
180.0
 51
270.0
  0
ARC
  5
23F
330
25
100
AcDbEntity
  8
BODY
100
AcDbCircle
 10
138.789507
 20
-252.144612
 30
0.0
 40
3.1865
100
AcDbArc
 50
270.0
 51
360.0
  0
LINE
  5
240
330
25
100
AcDbEntity
  8
BODY
100
AcDbLine
 10
141.976007
 20
-283.895177
 30
0.0
 11
141.976007
 21
-272.700314
 31
0.0
  0
LINE
  5
241
330
25
100
AcDbEntity
  8
BODY
100
AcDbLine
 10
117.603007
 20
-283.895177
 30
0.0
 11
117.603007
 21
-272.700314
 31
0.0
  0
ARC
  5
242
330
25
100
AcDbEntity
  8
BODY
100
AcDbCircle
 10
120.789507
 20
-272.700314
 30
0.0
 40
3.1865
100
AcDbArc
 50
90.0
 51
180.0
  0
ARC
  5
243
330
25
100
AcDbEntity
  8
BODY
100
AcDbCircle
 10
138.789507
 20
-272.700314
 30
0.0
 40
3.1865
100
AcDbArc
 50
0.0
 51
90.0
  0
LINE
  5
244
330
25
100
AcDbEntity
  8
BODY
100
AcDbLine
 10
161.914507
 20
-58.21381399999999
 30
0.0
 11
161.914507
 21
-292.8138140000001
 31
0.0
  0
LINE
  5
245
330
25
100
AcDbEntity
  8
BODY
100
AcDbLine
 10
97.664507
 20
-58.21381399999999
 30
0.0
 11
97.664507
 21
-292.8138140000001
 31
0.0
  0
LINE
  5
246
330
25
100
AcDbEntity
  8
BODY
100
AcDbLine
 10
161.914507
 20
-58.21381399999999
 30
0.0
 11
160.0778
 21
-55.015783
 31
0.0
  0
LINE
  5
247
330
25
100
AcDbEntity
  8
BODY
100
AcDbLine
 10
97.664507
 20
-58.21381399999999
 30
0.0
 11
99.501214
 21
-55.015783
 31
0.0
  0
ARC
  5
248
330
25
100
AcDbEntity
  8
BODY
100
AcDbCircle
 10
159.2106409999999
 20
-55.513814
 30
0.0
 40
1.0
100
AcDbArc
 50
29.869799
 51
54.629162
  0
ARC
  5
249
330
25
100
AcDbEntity
  8
BODY
100
AcDbCircle
 10
100.368373
 20
-55.513814
 30
0.0
 40
1.0
100
AcDbArc
 50
125.370838
 51
150.130201
  0
LINE
  5
24A
330
25
100
AcDbEntity
  8
BODY
100
AcDbLine
 10
161.914507
 20
-292.8138140000001
 30
0.0
 11
160.0778
 21
-296.011845
 31
0.0
  0
LINE
  5
24B
330
25
100
AcDbEntity
  8
BODY
100
AcDbLine
 10
97.664507
 20
-292.8138140000001
 30
0.0
 11
99.501214
 21
-296.011845
 31
0.0
  0
ARC
  5
24C
330
25
100
AcDbEntity
  8
BODY
100
AcDbCircle
 10
159.2106409999999
 20
-295.513814
 30
0.0
 40
1.0
100
AcDbArc
 50
305.370838
 51
330.130201
  0
ARC
  5
24D
330
25
100
AcDbEntity
  8
BODY
100
AcDbCircle
 10
100.368373
 20
-295.513814
 30
0.0
 40
1.0
100
AcDbArc
 50
209.869799
 51
234.629162
  0
ARC
  5
24E
330
25
100
AcDbEntity
  8
BODY
100
AcDbCircle
 10
138.789507
 20
-67.132451
 30
0.0
 40
3.1865
100
AcDbArc
 50
0.0
 51
90.0
  0
ARC
  5
24F
330
25
100
AcDbEntity
  8
BODY
100
AcDbCircle
 10
120.789507
 20
-67.132451
 30
0.0
 40
3.1865
100
AcDbArc
 50
90.0
 51
180.0
  0
LINE
  5
250
330
25
100
AcDbEntity
  8
BODY
100
AcDbLine
 10
120.789507
 20
-63.945951
 30
0.0
 11
122.789507
 21
-63.945951
 31
0.0
  0
LINE
  5
251
330
25
100
AcDbEntity
  8
BODY
100
AcDbLine
 10
136.789507
 20
-63.945951
 30
0.0
 11
138.789507
 21
-63.945951
 31
0.0
  0
ARC
  5
252
330
25
100
AcDbEntity
  8
BODY
100
AcDbCircle
 10
136.789507
 20
-60.945951
 30
0.0
 40
3.0
100
AcDbArc
 50
180.0
 51
270.0
  0
ARC
  5
253
330
25
100
AcDbEntity
  8
BODY
100
AcDbCircle
 10
122.789507
 20
-60.945951
 30
0.0
 40
3.0
100
AcDbArc
 50
270.0
 51
360.0
  0
ARC
  5
254
330
25
100
AcDbEntity
  8
BODY
100
AcDbCircle
 10
136.789507
 20
-47.78519199999998
 30
0.0
 40
3.0
100
AcDbArc
 50
180.0
 51
270.0
  0
ARC
  5
255
330
25
100
AcDbEntity
  8
BODY
100
AcDbCircle
 10
122.789507
 20
-47.78519199999998
 30
0.0
 40
3.0
100
AcDbArc
 50
270.0
 51
360.0
  0
ARC
  5
256
330
25
100
AcDbEntity
  8
BODY
100
AcDbCircle
 10
136.789507
 20
-303.242436
 30
0.0
 40
3.0
100
AcDbArc
 50
90.0
 51
180.0
  0
ARC
  5
257
330
25
100
AcDbEntity
  8
BODY
100
AcDbCircle
 10
122.789507
 20
-303.242436
 30
0.0
 40
3.0
100
AcDbArc
 50
0.0
 51
90.0
  0
ARC
  5
258
330
25
100
AcDbEntity
  8
BODY
100
AcDbCircle
 10
131.789507
 20
-53.953147
 30
0.0
 40
2.0
100
AcDbArc
 50
0.0
 51
90.0
  0
ARC
  5
259
330
25
100
AcDbEntity
  8
BODY
100
AcDbCircle
 10
127.789507
 20
-53.953147
 30
0.0
 40
2.0
100
AcDbArc
 50
90.0
 51
180.0
  0
ARC
  5
25A
330
25
100
AcDbEntity
  8
BODY
100
AcDbCircle
 10
131.789507
 20
-297.074481
 30
0.0
 40
2.0
100
AcDbArc
 50
270.0
 51
360.0
  0
ARC
  5
25B
330
25
100
AcDbEntity
  8
BODY
100
AcDbCircle
 10
127.789507
 20
-297.074481
 30
0.0
 40
2.0
100
AcDbArc
 50
180.0
 51
270.0
  0
LINE
  5
25C
330
25
100
AcDbEntity
  8
BODY
100
AcDbLine
 10
120.789507
 20
-142.901569
 30
0.0
 11
138.789507
 21
-142.901569
 31
0.0
  0
LINE
  5
25D
330
25
100
AcDbEntity
  8
BODY
100
AcDbLine
 10
120.789507
 20
-126.670677
 30
0.0
 11
138.789507
 21
-126.670677
 31
0.0
  0
LINE
  5
25E
330
25
100
AcDbEntity
  8
BODY
100
AcDbLine
 10
120.789507
 20
-95.696516
 30
0.0
 11
138.789507
 21
-95.696516
 31
0.0
  0
LINE
  5
25F
330
25
100
AcDbEntity
  8
BODY
100
AcDbLine
 10
125.789507
 20
-65.92752400000001
 30
0.0
 11
133.789507
 21
-65.92752400000001
 31
0.0
  0
LINE
  5
260
330
25
100
AcDbEntity
  8
BODY
100
AcDbLine
 10
120.789507
 20
-81.51381399999998
 30
0.0
 11
138.789507
 21
-81.51381399999998
 31
0.0
  0
LINE
  5
261
330
25
100
AcDbEntity
  8
BODY
100
AcDbLine
 10
120.789507
 20
-208.126059
 30
0.0
 11
138.789507
 21
-208.126059
 31
0.0
  0
LINE
  5
262
330
25
100
AcDbEntity
  8
BODY
100
AcDbLine
 10
120.789507
 20
-224.356951
 30
0.0
 11
138.789507
 21
-224.356951
 31
0.0
  0
LINE
  5
263
330
25
100
AcDbEntity
  8
BODY
100
AcDbLine
 10
120.789507
 20
-255.331112
 30
0.0
 11
138.789507
 21
-255.331112
 31
0.0
  0
LINE
  5
264
330
25
100
AcDbEntity
  8
BODY
100
AcDbLine
 10
120.789507
 20
-269.513814
 30
0.0
 11
138.789507
 21
-269.513814
 31
0.0
  0
LINE
  5
265
330
25
100
AcDbEntity
  8
BODY
100
AcDbLine
 10
141.976007
 20
-126.670677
 30
0.0
 11
143.616457
 21
-130.077598
 31
0.0
  0
LINE
  5
266
330
25
100
AcDbEntity
  8
BODY
100
AcDbLine
 10
117.603007
 20
-126.670677
 30
0.0
 11
115.962557
 21
-130.077598
 31
0.0
  0
LINE
  5
267
330
25
100
AcDbEntity
  8
BODY
100
AcDbLine
 10
115.900349
 20
-139.035864
 30
0.0
 11
117.603007
 21
-142.901569
 31
0.0
  0
LINE
  5
268
330
25
100
AcDbEntity
  8
BODY
100
AcDbLine
 10
143.678665
 20
-139.035864
 30
0.0
 11
141.976007
 21
-142.901569
 31
0.0
  0
LINE
  5
269
330
25
100
AcDbEntity
  8
BODY
100
AcDbLine
 10
142.722834
 20
-82.04470200000001
 30
0.0
 11
141.976007
 21
-81.51381399999998
 31
0.0
  0
LINE
  5
26A
330
25
100
AcDbEntity
  8
BODY
100
AcDbLine
 10
117.603007
 20
-81.51381399999998
 30
0.0
 11
116.856181
 21
-82.04470200000001
 31
0.0
  0
LINE
  5
26B
330
25
100
AcDbEntity
  8
BODY
100
AcDbLine
 10
115.73885
 20
-90.27485400000001
 30
0.0
 11
117.603007
 21
-95.696516
 31
0.0
  0
LINE
  5
26C
330
25
100
AcDbEntity
  8
BODY
100
AcDbLine
 10
143.840165
 20
-90.27485400000001
 30
0.0
 11
141.976007
 21
-95.696516
 31
0.0
  0
ARC
  5
26D
330
25
100
AcDbEntity
  8
BODY
100
AcDbCircle
 10
136.789507
 20
-62.927524
 30
0.0
 40
3.0
100
AcDbArc
 50
180.0
 51
270.0
  0
ARC
  5
26E
330
25
100
AcDbEntity
  8
BODY
100
AcDbCircle
 10
122.789507
 20
-62.927524
 30
0.0
 40
3.0
100
AcDbArc
 50
270.0
 51
360.0
  0
LINE
  5
26F
330
25
100
AcDbEntity
  8
BODY
100
AcDbLine
 10
141.976007
 20
-63.945951
 30
0.0
 11
144.102724
 21
-53.99776899999999
 31
0.0
  0
LINE
  5
270
330
25
100
AcDbEntity
  8
BODY
100
AcDbLine
 10
115.47629
 20
-53.99776899999999
 30
0.0
 11
117.603007
 21
-63.945951
 31
0.0
  0
LINE
  5
271
330
25
100
AcDbEntity
  8
BODY
100
AcDbLine
 10
141.976007
 20
-208.126059
 30
0.0
 11
143.678665
 21
-211.991764
 31
0.0
  0
LINE
  5
272
330
25
100
AcDbEntity
  8
BODY
100
AcDbLine
 10
115.900349
 20
-211.991764
 30
0.0
 11
117.603007
 21
-208.126059
 31
0.0
  0
LINE
  5
273
330
25
100
AcDbEntity
  8
BODY
100
AcDbLine
 10
115.962557
 20
-220.95003
 30
0.0
 11
117.603007
 21
-224.356951
 31
0.0
  0
LINE
  5
274
330
25
100
AcDbEntity
  8
BODY
100
AcDbLine
 10
141.976007
 20
-224.356951
 30
0.0
 11
143.616457
 21
-220.95003
 31
0.0
  0
LINE
  5
275
330
25
100
AcDbEntity
  8
BODY
100
AcDbLine
 10
143.840165
 20
-260.752774
 30
0.0
 11
141.976007
 21
-255.331112
 31
0.0
  0
LINE
  5
276
330
25
100
AcDbEntity
  8
BODY
100
AcDbLine
 10
141.976007
 20
-269.513814
 30
0.0
 11
142.722834
 21
-268.982926
 31
0.0
  0
LINE
  5
277
330
25
100
AcDbEntity
  8
BODY
100
AcDbLine
 10
115.73885
 20
-260.752774
 30
0.0
 11
117.603007
 21
-255.331112
 31
0.0
  0
LINE
  5
278
330
25
100
AcDbEntity
  8
BODY
100
AcDbLine
 10
117.603007
 20
-269.513814
 30
0.0
 11
116.856181
 21
-268.982926
 31
0.0
  0
ARC
  5
279
330
25
100
AcDbEntity
  8
BODY
100
AcDbCircle
 10
138.789507
 20
-283.895177
 30
0.0
 40
3.1865
100
AcDbArc
 50
270.0
 51
360.0
  0
ARC
  5
27A
330
25
100
AcDbEntity
  8
BODY
100
AcDbCircle
 10
120.789507
 20
-283.895177
 30
0.0
 40
3.1865
100
AcDbArc
 50
180.0
 51
270.0
  0
LINE
  5
27B
330
25
100
AcDbEntity
  8
BODY
100
AcDbLine
 10
120.789507
 20
-287.081677
 30
0.0
 11
122.789507
 21
-287.081677
 31
0.0
  0
LINE
  5
27C
330
25
100
AcDbEntity
  8
BODY
100
AcDbLine
 10
136.789507
 20
-287.081677
 30
0.0
 11
138.789507
 21
-287.081677
 31
0.0
  0
ARC
  5
27D
330
25
100
AcDbEntity
  8
BODY
100
AcDbCircle
 10
136.789507
 20
-290.081677
 30
0.0
 40
3.0
100
AcDbArc
 50
90.0
 51
180.0
  0
ARC
  5
27E
330
25
100
AcDbEntity
  8
BODY
100
AcDbCircle
 10
122.789507
 20
-290.081677
 30
0.0
 40
3.0
100
AcDbArc
 50
0.0
 51
90.0
  0
LINE
  5
27F
330
25
100
AcDbEntity
  8
BODY
100
AcDbLine
 10
125.789507
 20
-285.100104
 30
0.0
 11
133.789507
 21
-285.100104
 31
0.0
  0
ARC
  5
280
330
25
100
AcDbEntity
  8
BODY
100
AcDbCircle
 10
136.789507
 20
-288.100104
 30
0.0
 40
3.0
100
AcDbArc
 50
90.0
 51
180.0
  0
ARC
  5
281
330
25
100
AcDbEntity
  8
BODY
100
AcDbCircle
 10
122.789507
 20
-288.100104
 30
0.0
 40
3.0
100
AcDbArc
 50
0.0
 51
90.0
  0
LINE
  5
282
330
25
100
AcDbEntity
  8
BODY
100
AcDbLine
 10
141.976007
 20
-287.081677
 30
0.0
 11
144.102724
 21
-297.029859
 31
0.0
  0
LINE
  5
283
330
25
100
AcDbEntity
  8
BODY
100
AcDbLine
 10
115.47629
 20
-297.029859
 30
0.0
 11
117.603007
 21
-287.081677
 31
0.0
  0
LINE
  5
284
330
25
100
AcDbEntity
  8
BODY
100
AcDbLine
 10
140.789082
 20
61.48618599999998
 30
0.0
 11
140.789082
 21
53.486186
 31
0.0
  0
LINE
  5
285
330
25
100
AcDbEntity
  8
BODY
100
AcDbLine
 10
118.789082
 20
61.48618599999998
 30
0.0
 11
118.789082
 21
53.486186
 31
0.0
  0
LINE
  5
286
330
25
100
AcDbEntity
  8
BODY
100
AcDbLine
 10
78.789507
 20
51.48618599999998
 30
0.0
 11
123.789507
 21
51.48618599999998
 31
0.0
  0
LINE
  5
287
330
25
100
AcDbEntity
  8
BODY
100
AcDbLine
 10
135.789507
 20
51.48618599999998
 30
0.0
 11
180.789507
 21
51.48618599999998
 31
0.0
  0
ARC
  5
288
330
25
100
AcDbEntity
  8
BODY
100
AcDbCircle
 10
80.789507
 20
9.548747
 30
0.0
 40
28.0
100
AcDbArc
 50
0.0
 51
40.616455
  0
ARC
  5
289
330
25
100
AcDbEntity
  8
BODY
100
AcDbCircle
 10
80.789507
 20
9.548747
 30
0.0
 40
28.0
100
AcDbArc
 50
82.200074
 51
86.416678
  0
ARC
  5
28A
330
25
100
AcDbEntity
  8
BODY
100
AcDbCircle
 10
-225.910493
 20
247.7467
 30
0.0
 40
5.0
100
AcDbArc
 50
0.405371
 51
8.296051999999999
  0
ARC
  5
28B
330
25
100
AcDbEntity
  8
BODY
  6
DASHED
370
    13
100
AcDbCircle
 10
-225.910493
 20
247.7467
 30
0.0
 40
5.0
100
AcDbArc
 50
8.296051999999999
 51
60.47354699999998
  0
LINE
  5
28C
330
25
100
AcDbEntity
  8
2
  6
CENTER
 62
     4
370
    13
100
AcDbLine
 10
-348.910493
 20
-368.085104
 30
0.0
 11
-348.910493
 21
98.91444100000001
 31
0.0
  0
LINE
  5
28D
330
25
100
AcDbEntity
  8
2
100
AcDbLine
 10
-340.910493
 20
244.186186
 30
0.0
 11
-340.910493
 21
246.590268
 31
0.0
  0
ARC
  5
28E
330
25
100
AcDbEntity
  8
2
100
AcDbCircle
 10
-338.910493
 20
244.361277
 30
0.0
 40
2.0
100
AcDbArc
 50
91.02319300000001
 51
180.0
  0
LINE
  5
28F
330
25
100
AcDbEntity
  8
2
100
AcDbLine
 10
-12.660493
 20
252.188418
 30
0.0
 11
-338.9462069999999
 21
246.360958
 31
0.0
  0
LINE
  5
290
330
25
100
AcDbEntity
  8
2
100
AcDbLine
 10
-12.660493
 20
280.183953
 30
0.0
 11
-348.55335
 21
286.182997
 31
0.0
  0
ARC
  5
291
330
25
100
AcDbEntity
  8
2
100
AcDbCircle
 10
-338.910493
 20
246.590268
 30
0.0
 40
2.0
100
AcDbArc
 50
117.035692
 51
180.0
  0
LINE
  5
292
330
25
100
AcDbEntity
  8
2
100
AcDbLine
 10
-195.910493
 20
286.186186
 30
0.0
 11
-181.910493
 21
286.186186
 31
0.0
  0
LINE
  5
293
330
25
100
AcDbEntity
  8
2
100
AcDbLine
 10
-180.910493
 20
284.561463
 30
0.0
 11
-180.910493
 21
285.1861859999999
 31
0.0
  0
LINE
  5
294
330
25
100
AcDbEntity
  8
2
100
AcDbLine
 10
-196.910493
 20
284.841289
 30
0.0
 11
-196.910493
 21
285.1861859999999
 31
0.0
  0
ARC
  5
295
330
25
100
AcDbEntity
  8
2
100
AcDbCircle
 10
-195.910493
 20
285.1861859999999
 30
0.0
 40
1.0
100
AcDbArc
 50
90.0
 51
180.0
  0
ARC
  5
296
330
25
100
AcDbEntity
  8
2
100
AcDbCircle
 10
-181.910493
 20
285.1861859999999
 30
0.0
 40
1.0
100
AcDbArc
 50
0.0
 51
90.0
  0
ARC
  5
297
330
25
100
AcDbEntity
  8
2
100
AcDbCircle
 10
-197.910493
 20
284.841289
 30
0.0
 40
1.0
100
AcDbArc
 50
269.109356
 51
360.0
  0
ARC
  5
298
330
25
100
AcDbEntity
  8
2
100
AcDbCircle
 10
-179.910493
 20
284.561463
 30
0.0
 40
1.0
100
AcDbArc
 50
180.0
 51
269.109356
  0
ARC
  5
299
330
25
100
AcDbEntity
  8
2
100
AcDbCircle
 10
-179.910493
 20
247.810909
 30
0.0
 40
1.0
100
AcDbArc
 50
90.89064399999999
 51
180.0
  0
ARC
  5
29A
330
25
100
AcDbEntity
  8
2
100
AcDbCircle
 10
-197.910493
 20
247.531082
 30
0.0
 40
1.0
100
AcDbArc
 50
0.0
 51
90.89064399999999
  0
ARC
  5
29B
330
25
100
AcDbEntity
  8
2
100
AcDbCircle
 10
-181.910493
 20
247.186186
 30
0.0
 40
1.0
100
AcDbArc
 50
270.0
 51
360.0
  0
ARC
  5
29C
330
25
100
AcDbEntity
  8
2
100
AcDbCircle
 10
-195.910493
 20
247.186186
 30
0.0
 40
1.0
100
AcDbArc
 50
180.0
 51
270.0
  0
LINE
  5
29D
330
25
100
AcDbEntity
  8
2
100
AcDbLine
 10
-196.910493
 20
247.531082
 30
0.0
 11
-196.910493
 21
247.186186
 31
0.0
  0
LINE
  5
29E
330
25
100
AcDbEntity
  8
2
100
AcDbLine
 10
-180.910493
 20
247.810909
 30
0.0
 11
-180.910493
 21
247.186186
 31
0.0
  0
LINE
  5
29F
330
25
100
AcDbEntity
  8
2
100
AcDbLine
 10
-195.910493
 20
246.186186
 30
0.0
 11
-181.910493
 21
246.186186
 31
0.0
  0
ARC
  5
2A0
330
25
100
AcDbEntity
  8
2
100
AcDbCircle
 10
-348.910493
 20
266.186186
 30
0.0
 40
20.0
100
AcDbArc
 50
297.035692
 51
242.964308
  0
LINE
  5
2A1
330
25
100
AcDbEntity
  8
2
100
AcDbLine
 10
-355.910493
 20
243.186186
 30
0.0
 11
-341.910493
 21
243.186186
 31
0.0
  0
ARC
  5
2A2
330
25
100
AcDbEntity
  8
2
100
AcDbCircle
 10
-355.910493
 20
244.186186
 30
0.0
 40
1.0
100
AcDbArc
 50
180.0
 51
270.0
  0
ARC
  5
2A3
330
25
100
AcDbEntity
  8
2
100
AcDbCircle
 10
-341.910493
 20
244.186186
 30
0.0
 40
1.0
100
AcDbArc
 50
270.0
 51
360.0
  0
ARC
  5
2A4
330
25
100
AcDbEntity
  8
2
100
AcDbCircle
 10
-12.910493
 20
266.186186
 30
0.0
 40
14.0
100
AcDbArc
 50
270.890644
 51
90.0
  0
ARC
  5
2A5
330
25
100
AcDbEntity
  8
2
100
AcDbCircle
 10
-397.410493
 20
266.186186
 30
0.0
 40
2.5
100
AcDbArc
 50
111.150855
 51
248.8491450000001
  0
LINE
  5
2A6
330
25
100
AcDbEntity
  8
2
100
AcDbLine
 10
-398.312555
 20
268.51777
 30
0.0
 11
-356.126988
 21
284.8388589999999
 31
0.0
  0
LINE
  5
2A7
330
25
100
AcDbEntity
  8
2
100
AcDbLine
 10
-398.312555
 20
263.854602
 30
0.0
 11
-358.188843
 21
248.33122
 31
0.0
  0
ARC
  5
2A8
330
25
100
AcDbEntity
  8
2
100
AcDbCircle
 10
-358.910493
 20
246.465953
 30
0.0
 40
2.0
100
AcDbArc
 50
0.0
 51
68.84914499999999
  0
LINE
  5
2A9
330
25
100
AcDbEntity
  8
2
100
AcDbLine
 10
-356.910493
 20
244.186186
 30
0.0
 11
-356.910493
 21
246.590268
 31
0.0
  0
ARC
  5
2AA
330
25
100
AcDbEntity
  8
2
100
AcDbCircle
 10
-363.586816
 20
225.532342
 30
0.0
 40
0.164198
100
AcDbArc
 50
315.0
 51
71.565051
  0
LINE
  5
2AB
330
25
100
AcDbEntity
  8
2
100
AcDbLine
 10
-389.35615
 20
250.864662
 30
0.0
 11
-388.54341
 21
251.677402
 31
0.0
  0
LINE
  5
2AC
330
25
100
AcDbEntity
  8
2
100
AcDbLine
 10
-390.981629
 20
249.239182
 30
0.0
 11
-390.16889
 21
250.051922
 31
0.0
  0
LINE
  5
2AD
330
25
100
AcDbEntity
  8
2
100
AcDbLine
 10
-375.412381
 20
235.966269
 30
0.0
 11
-371.642506
 21
239.420724
 31
0.0
  0
LINE
  5
2AE
330
25
100
AcDbEntity
  8
2
100
AcDbLine
 10
-375.412381
 20
235.966269
 30
0.0
 11
-373.10938
 21
240.887598
 31
0.0
  0
LINE
  5
2AF
330
25
100
AcDbEntity
  8
2
100
AcDbLine
 10
-366.324816
 20
222.794342
 30
0.0
 11
-371.5811799999999
 21
228.050706
 31
0.0
  0
ARC
  5
2B0
330
25
100
AcDbEntity
  8
2
100
AcDbCircle
 10
-387.427569
 20
250.073916
 30
0.0
 40
8.770360999999999
100
AcDbArc
 50
304.473609
 51
325.526391
  0
ARC
  5
2B1
330
25
100
AcDbEntity
  8
2
100
AcDbCircle
 10
-376.124678
 20
238.914376
 30
0.0
 40
9.872038999999999
100
AcDbArc
 50
126.225698
 51
144.937217
  0
ARC
  5
2B2
330
25
100
AcDbEntity
  8
2
100
AcDbCircle
 10
-383.173569
 20
243.875345
 30
0.0
 40
3.622075
100
AcDbArc
 50
34.668048
 51
55.331952
  0
ARC
  5
2B3
330
25
100
AcDbEntity
  8
2
100
AcDbCircle
 10
-381.55588
 20
246.158083
 30
0.0
 40
0.8250579999999999
100
AcDbArc
 50
57.55595600000001
 51
119.227043
  0
ARC
  5
2B4
330
25
100
AcDbEntity
  8
2
100
AcDbCircle
 10
-383.613809
 20
244.170562
 30
0.0
 40
0.722472
100
AcDbArc
 50
144.937217
 51
214.668048
  0
ARC
  5
2B5
330
25
100
AcDbEntity
  8
2
100
AcDbCircle
 10
-381.228998
 20
245.819917
 30
0.0
 40
3.622075
100
AcDbArc
 50
214.668048
 51
235.331952
  0
ARC
  5
2B6
330
25
100
AcDbEntity
  8
2
100
AcDbCircle
 10
-380.788758
 20
245.5247
 30
0.0
 40
0.722472
100
AcDbArc
 50
324.937217
 51
34.668048
  0
ARC
  5
2B7
330
25
100
AcDbEntity
  8
2
100
AcDbCircle
 10
-382.878353
 20
243.435105
 30
0.0
 40
0.722472
100
AcDbArc
 50
235.331952
 51
305.062783
  0
ARC
  5
2B8
330
25
100
AcDbEntity
  8
2
100
AcDbCircle
 10
-371.468043
 20
228.163843
 30
0.0
 40
0.16
100
AcDbArc
 50
71.565051
 51
225.0
  0
LINE
  5
2B9
330
25
100
AcDbEntity
  8
2
100
AcDbLine
 10
-374.239759
 20
242.017977
 30
0.0
 11
-373.078702
 21
240.85692
 31
0.0
  0
LINE
  5
2BA
330
25
100
AcDbEntity
  8
2
100
AcDbLine
 10
-377.274705
 20
235.532258
 30
0.0
 11
-375.424947
 21
239.671731
 31
0.0
  0
ARC
  5
2BB
330
25
100
AcDbEntity
  8
2
100
AcDbCircle
 10
-371.692252
 20
232.249004
 30
0.0
 40
0.722472
100
AcDbArc
 50
144.937217
 51
214.668048
  0
ARC
  5
2BC
330
25
100
AcDbEntity
  8
2
100
AcDbCircle
 10
-363.161287
 20
240.044512
 30
0.0
 40
13.170339
100
AcDbArc
 50
218.729458
 51
231.270542
  0
ARC
  5
2BD
330
25
100
AcDbEntity
  8
2
100
AcDbCircle
 10
-369.602657
 20
234.338599
 30
0.0
 40
0.722472
100
AcDbArc
 50
55.331952
 51
125.062783
  0
ARC
  5
2BE
330
25
100
AcDbEntity
  8
2
100
AcDbCircle
 10
-377.398165
 20
225.807635
 30
0.0
 40
13.170339
100
AcDbArc
 50
38.729458
 51
51.27054199999999
  0
ARC
  5
2BF
330
25
100
AcDbEntity
  8
2
100
AcDbCircle
 10
-367.665869
 20
228.52976
 30
0.0
 40
0.098519
100
AcDbArc
 50
135.0
 51
225.0
  0
ARC
  5
2C0
330
25
100
AcDbEntity
  8
2
100
AcDbCircle
 10
-369.30744
 20
233.898359
 30
0.0
 40
3.622075
100
AcDbArc
 50
214.668048
 51
235.331952
  0
ARC
  5
2C1
330
25
100
AcDbEntity
  8
2
100
AcDbCircle
 10
-370.956795
 20
231.513548
 30
0.0
 40
0.722472
100
AcDbArc
 50
235.331952
 51
305.062783
  0
ARC
  5
2C2
330
25
100
AcDbEntity
  8
2
100
AcDbCircle
 10
-370.168473
 20
231.307324
 30
0.0
 40
1.970379
100
AcDbArc
 50
231.270542
 51
308.830069
  0
ARC
  5
2C3
330
25
100
AcDbEntity
  8
2
100
AcDbCircle
 10
-364.278369
 20
231.91726
 30
0.0
 40
0.098519
100
AcDbArc
 50
45.0
 51
135.0
  0
ARC
  5
2C4
330
25
100
AcDbEntity
  8
2
100
AcDbCircle
 10
-368.969274
 20
233.571477
 30
0.0
 40
0.8250579999999999
100
AcDbArc
 50
330.772957
 51
32.444044
  0
ARC
  5
2C5
330
25
100
AcDbEntity
  8
2
100
AcDbCircle
 10
-371.2520120000001
 20
231.953788
 30
0.0
 40
3.622075
100
AcDbArc
 50
34.668048
 51
55.331952
  0
ARC
  5
2C6
330
25
100
AcDbEntity
  8
2
100
AcDbCircle
 10
-368.660977
 20
232.814821
 30
0.0
 40
1.970379
100
AcDbArc
 50
321.169931
 51
38.729458
  0
LINE
  5
2C7
330
25
100
AcDbEntity
  8
2
100
AcDbLine
 10
-364.348032
 20
231.986923
 30
0.0
 11
-367.735532
 21
228.599423
 31
0.0
  0
ARC
  5
2C8
330
25
100
AcDbEntity
  8
2
100
AcDbCircle
 10
-376.212981
 20
239.002679
 30
0.0
 40
9.872038999999999
100
AcDbArc
 50
305.062783
 51
323.774302
  0
ARC
  5
2C9
330
25
100
AcDbEntity
  8
2
100
AcDbCircle
 10
-376.387175
 20
239.033522
 30
0.0
 40
11.888361
100
AcDbArc
 50
308.830069
 51
321.169931
  0
LINE
  5
2CA
330
25
100
AcDbEntity
  8
2
100
AcDbLine
 10
-377.274705
 20
235.532258
 30
0.0
 11
-375.501715
 21
233.759268
 31
0.0
  0
ARC
  5
2CB
330
25
100
AcDbEntity
  8
2
100
AcDbCircle
 10
-371.898475
 20
233.037326
 30
0.0
 40
1.970379
100
AcDbArc
 50
141.169931
 51
218.729458
  0
LINE
  5
2CC
330
25
100
AcDbEntity
  8
2
100
AcDbLine
 10
-371.611827
 20
239.390046
 30
0.0
 11
-370.450771
 21
238.228989
 31
0.0
  0
ARC
  5
2CD
330
25
100
AcDbEntity
  8
2
100
AcDbCircle
 10
-370.390979
 20
234.544823
 30
0.0
 40
1.970379
100
AcDbArc
 50
51.27054199999999
 51
128.830069
  0
LINE
  5
2CE
330
25
100
AcDbEntity
  8
2
100
AcDbLine
 10
-375.492836
 20
233.768147
 30
0.0
 11
-370.450771
 21
238.228989
 31
0.0
  0
ARC
  5
2CF
330
25
100
AcDbEntity
  8
2
100
AcDbCircle
 10
-365.053441
 20
227.699788
 30
0.0
 40
8.770360999999999
100
AcDbArc
 50
124.473609
 51
145.526391
  0
ARC
  5
2D0
330
25
100
AcDbEntity
  8
2
100
AcDbCircle
 10
-364.172277
 20
226.818625
 30
0.0
 40
11.888361
100
AcDbArc
 50
128.830069
 51
141.169931
  0
LINE
  5
2D1
330
25
100
AcDbEntity
  8
2
100
AcDbLine
 10
-363.47071
 20
225.416236
 30
0.0
 11
-366.092605
 21
222.794342
 31
0.0
  0
ARC
  5
2D2
330
25
100
AcDbEntity
  8
2
100
AcDbCircle
 10
-366.008545
 20
226.872436
 30
0.0
 40
0.098519
100
AcDbArc
 50
225.0
 51
315.0
  0
LINE
  5
2D3
330
25
100
AcDbEntity
  8
2
100
AcDbLine
 10
-371.417446
 20
228.315632
 30
0.0
 11
-363.534892
 21
225.688114
 31
0.0
  0
LINE
  5
2D4
330
25
100
AcDbEntity
  8
2
100
AcDbLine
 10
-365.938882
 20
226.802773
 30
0.0
 11
-362.546368
 21
230.195287
 31
0.0
  0
ARC
  5
2D5
330
25
100
AcDbEntity
  8
2
100
AcDbCircle
 10
-366.20871
 20
222.910447
 30
0.0
 40
0.164198
100
AcDbArc
 50
225.0
 51
315.0
  0
LINE
  5
2D6
330
25
100
AcDbEntity
  8
2
100
AcDbLine
 10
-366.078209
 20
226.802773
 30
0.0
 11
-367.735532
 21
228.460096
 31
0.0
  0
LINE
  5
2D7
330
25
100
AcDbEntity
  8
2
100
AcDbLine
 10
-362.546368
 20
230.324586
 30
0.0
 11
-364.208705
 21
231.986923
 31
0.0
  0
LINE
  5
2D8
330
25
100
AcDbEntity
  8
2
100
AcDbLine
 10
-387.846776
 20
247.729809
 30
0.0
 11
-390.16889
 21
250.051922
 31
0.0
  0
LINE
  5
2D9
330
25
100
AcDbEntity
  8
2
100
AcDbLine
 10
-387.034037
 20
248.542548
 30
0.0
 11
-389.35615
 21
250.864662
 31
0.0
  0
LINE
  5
2DA
330
25
100
AcDbEntity
  8
2
100
AcDbLine
 10
-386.221297
 20
249.355288
 30
0.0
 11
-388.54341
 21
251.677402
 31
0.0
  0
LINE
  5
2DB
330
25
100
AcDbEntity
  8
2
100
AcDbLine
 10
-384.711923
 20
250.864662
 30
0.0
 11
-386.221297
 21
249.355288
 31
0.0
  0
LINE
  5
2DC
330
25
100
AcDbEntity
  8
2
100
AcDbLine
 10
-387.034037
 20
248.542548
 30
0.0
 11
-387.846776
 21
247.729809
 31
0.0
  0
LINE
  5
2DD
330
25
100
AcDbEntity
  8
2
100
AcDbLine
 10
-381.337411
 20
239.594964
 30
0.0
 11
-379.564421
 21
237.821974
 31
0.0
  0
ARC
  5
2DE
330
25
100
AcDbEntity
  8
2
100
AcDbCircle
 10
-375.052166
 20
251.935391
 30
0.0
 40
13.170339
100
AcDbArc
 50
218.729458
 51
231.270542
  0
ARC
  5
2DF
330
25
100
AcDbEntity
  8
2
100
AcDbCircle
 10
-382.059352
 20
243.198203
 30
0.0
 40
1.970379
100
AcDbArc
 50
231.270542
 51
308.830069
  0
ARC
  5
2E0
330
25
100
AcDbEntity
  8
2
100
AcDbCircle
 10
-383.789355
 20
244.928205
 30
0.0
 40
1.970379
100
AcDbArc
 50
141.169931
 51
218.729458
  0
LINE
  5
2E1
330
25
100
AcDbEntity
  8
2
100
AcDbLine
 10
-376.86769
 20
244.645908
 30
0.0
 11
-375.706633
 21
243.484851
 31
0.0
  0
ARC
  5
2E2
330
25
100
AcDbEntity
  8
2
100
AcDbCircle
 10
-389.289044
 20
237.698514
 30
0.0
 40
13.170339
100
AcDbArc
 50
38.729458
 51
51.27054199999999
  0
ARC
  5
2E3
330
25
100
AcDbEntity
  8
2
100
AcDbCircle
 10
-380.551856
 20
244.7057
 30
0.0
 40
1.970379
100
AcDbArc
 50
321.169931
 51
38.729458
  0
ARC
  5
2E4
330
25
100
AcDbEntity
  8
2
100
AcDbCircle
 10
-382.281858
 20
246.435702
 30
0.0
 40
1.970379
100
AcDbArc
 50
51.27054199999999
 51
128.830069
  0
LINE
  5
2E5
330
25
100
AcDbEntity
  8
2
100
AcDbLine
 10
-387.266248
 20
245.523801
 30
0.0
 11
-382.505915
 21
250.284133
 31
0.0
  0
ARC
  5
2E6
330
25
100
AcDbEntity
  8
2
100
AcDbCircle
 10
-388.278054
 20
250.924401
 30
0.0
 40
11.888361
100
AcDbArc
 50
308.830069
 51
321.169931
  0
ARC
  5
2E7
330
25
100
AcDbEntity
  8
2
100
AcDbCircle
 10
-376.063157
 20
238.709504
 30
0.0
 40
11.888361
100
AcDbArc
 50
128.830069
 51
141.169931
  0
LINE
  5
2E8
330
25
100
AcDbEntity
  8
2
100
AcDbLine
 10
-381.328532
 20
239.603843
 30
0.0
 11
-376.86769
 21
244.645908
 31
0.0
  0
LINE
  5
2E9
330
25
100
AcDbEntity
  8
2
100
AcDbLine
 10
-379.161088
 20
239.714976
 30
0.0
 11
-375.706633
 21
243.484851
 31
0.0
  0
LINE
  5
2EA
330
25
100
AcDbEntity
  8
2
100
AcDbLine
 10
-379.564421
 20
237.821974
 30
0.0
 11
-375.424947
 21
239.671731
 31
0.0
  0
LINE
  5
2EB
330
25
100
AcDbEntity
  8
2
100
AcDbLine
 10
-379.161088
 20
239.714976
 30
0.0
 11
-374.239759
 21
242.017977
 31
0.0
  0
LINE
  5
2EC
330
25
100
AcDbEntity
  8
2
100
AcDbLine
 10
-387.266248
 20
245.523801
 30
0.0
 11
-390.981629
 21
249.239182
 31
0.0
  0
ARC
  5
2ED
330
25
100
AcDbEntity
  8
2
100
AcDbCircle
 10
-362.611018
 20
230.259936
 30
0.0
 40
0.091429
100
AcDbArc
 50
315.0
 51
45.0
  0
LINE
  5
2EE
330
25
100
AcDbEntity
  8
2
100
AcDbLine
 10
-382.505915
 20
250.284133
 30
0.0
 11
-386.221297
 21
253.999515
 31
0.0
  0
LINE
  5
2EF
330
25
100
AcDbEntity
  8
2
100
AcDbLine
 10
-384.711923
 20
250.864662
 30
0.0
 11
-387.034037
 21
253.186775
 31
0.0
  0
LINE
  5
2F0
330
25
100
AcDbEntity
  8
2
100
AcDbLine
 10
-387.034037
 20
253.186775
 30
0.0
 11
-386.221297
 21
253.999515
 31
0.0
  0
LINE
  5
2F1
330
25
100
AcDbEntity
  8
2
100
AcDbLine
 10
-420.903548
 20
264.186186
 30
0.0
 11
-398.910493
 21
264.186186
 31
0.0
  0
LINE
  5
2F2
330
25
100
AcDbEntity
  8
2
100
AcDbLine
 10
-420.903548
 20
268.186186
 30
0.0
 11
-398.910493
 21
268.186186
 31
0.0
  0
ARC
  5
2F3
330
25
100
AcDbEntity
  8
2
100
AcDbCircle
 10
-348.910493
 20
266.186186
 30
0.0
 40
73.0
100
AcDbArc
 50
179.2042
 51
180.7958
  0
ARC
  5
2F4
330
25
100
AcDbEntity
  8
2
100
AcDbCircle
 10
-420.903548
 20
267.1861859999999
 30
0.0
 40
1.0
100
AcDbArc
 50
90.0
 51
179.2042
  0
ARC
  5
2F5
330
25
100
AcDbEntity
  8
2
100
AcDbCircle
 10
-420.903548
 20
265.186186
 30
0.0
 40
1.0
100
AcDbArc
 50
180.7958
 51
270.0
  0
ARC
  5
2F6
330
25
100
AcDbEntity
  8
2
100
AcDbCircle
 10
-347.910493
 20
217.196391
 30
0.0
 40
1.0
100
AcDbArc
 50
0.0
 51
91.16938299999999
  0
ARC
  5
2F7
330
25
100
AcDbEntity
  8
2
100
AcDbCircle
 10
-349.9104930000001
 20
217.196391
 30
0.0
 40
1.0
100
AcDbArc
 50
88.830617
 51
180.0
  0
ARC
  5
2F8
330
25
100
AcDbEntity
  8
2
100
AcDbCircle
 10
-349.9104930000001
 20
194.193131
 30
0.0
 40
1.0
100
AcDbArc
 50
180.0
 51
269.2042
  0
ARC
  5
2F9
330
25
100
AcDbEntity
  8
2
100
AcDbCircle
 10
-347.910493
 20
194.193131
 30
0.0
 40
1.0
100
AcDbArc
 50
270.7958
 51
360.0
  0
LINE
  5
2FA
330
25
100
AcDbEntity
  8
2
100
AcDbLine
 10
-360.428354
 20
195.106379
 30
0.0
 11
-358.170928
 21
207.90888
 31
0.0
  0
ARC
  5
2FB
330
25
100
AcDbEntity
  8
2
100
AcDbCircle
 10
-359.155735
 20
208.082528
 30
0.0
 40
1.0
100
AcDbArc
 50
350.0
 51
170.0
  0
ARC
  5
2FC
330
25
100
AcDbEntity
  8
2
100
AcDbCircle
 10
-361.413162
 20
195.280028
 30
0.0
 40
1.0
100
AcDbArc
 50
169.999267
 51
350.0
  0
LINE
  5
2FD
330
25
100
AcDbEntity
  8
2
100
AcDbLine
 10
-362.397969
 20
195.453676
 30
0.0
 11
-360.140543
 21
208.256176
 31
0.0
  0
LINE
  5
2FE
330
25
100
AcDbEntity
  8
2
100
AcDbLine
 10
-372.596251
 20
198.186297
 30
0.0
 11
-368.149989
 21
210.402301
 31
0.0
  0
ARC
  5
2FF
330
25
100
AcDbEntity
  8
2
100
AcDbCircle
 10
-369.089681
 20
210.744321
 30
0.0
 40
1.0
100
AcDbArc
 50
340.0
 51
160.0
  0
ARC
  5
300
330
25
100
AcDbEntity
  8
2
100
AcDbCircle
 10
-373.535943
 20
198.528317
 30
0.0
 40
1.0
100
AcDbArc
 50
159.999267
 51
340.0
  0
LINE
  5
301
330
25
100
AcDbEntity
  8
2
100
AcDbLine
 10
-374.475636
 20
198.870337
 30
0.0
 11
-370.029374
 21
211.086341
 31
0.0
  0
LINE
  5
302
330
25
100
AcDbEntity
  8
2
100
AcDbLine
 10
-384.044467
 20
203.332357
 30
0.0
 11
-377.544467
 21
214.590687
 31
0.0
  0
ARC
  5
303
330
25
100
AcDbEntity
  8
2
100
AcDbCircle
 10
-378.410493
 20
215.090687
 30
0.0
 40
1.0
100
AcDbArc
 50
330.0
 51
150.0
  0
ARC
  5
304
330
25
100
AcDbEntity
  8
2
100
AcDbCircle
 10
-384.910493
 20
203.832357
 30
0.0
 40
1.0
100
AcDbArc
 50
149.999267
 51
330.0
  0
LINE
  5
305
330
25
100
AcDbEntity
  8
2
100
AcDbLine
 10
-385.776518
 20
204.332357
 30
0.0
 11
-379.276518
 21
215.590687
 31
0.0
  0
LINE
  5
306
330
25
100
AcDbEntity
  8
2
100
AcDbLine
 10
-394.425156
 20
210.388198
 30
0.0
 11
-386.068917
 21
220.346776
 31
0.0
  0
ARC
  5
307
330
25
100
AcDbEntity
  8
2
100
AcDbCircle
 10
-386.834962
 20
220.989564
 30
0.0
 40
1.0
100
AcDbArc
 50
320.0
 51
140.0
  0
ARC
  5
308
330
25
100
AcDbEntity
  8
2
100
AcDbCircle
 10
-395.191201
 20
211.030986
 30
0.0
 40
1.0
100
AcDbArc
 50
139.999267
 51
320.0
  0
LINE
  5
309
330
25
100
AcDbEntity
  8
2
100
AcDbLine
 10
-395.957245
 20
211.673773
 30
0.0
 11
-387.601006
 21
221.632351
 31
0.0
  0
LINE
  5
30A
330
25
100
AcDbEntity
  8
2
100
AcDbLine
 10
-403.4229049999998
 20
219.139433
 30
0.0
 11
-393.464327
 21
227.495672
 31
0.0
  0
ARC
  5
30B
330
25
100
AcDbEntity
  8
2
100
AcDbCircle
 10
-394.1071149999999
 20
228.261717
 30
0.0
 40
1.0
100
AcDbArc
 50
310.0
 51
130.0
  0
ARC
  5
30C
330
25
100
AcDbEntity
  8
2
100
AcDbCircle
 10
-404.0656929999998
 20
219.905478
 30
0.0
 40
1.0
100
AcDbArc
 50
129.999267
 51
310.0
  0
LINE
  5
30D
330
25
100
AcDbEntity
  8
2
100
AcDbLine
 10
-404.70848
 20
220.671522
 30
0.0
 11
-394.749903
 21
229.027761
 31
0.0
  0
LINE
  5
30E
330
25
100
AcDbEntity
  8
2
100
AcDbLine
 10
-410.7643219999998
 20
229.32016
 30
0.0
 11
-399.505992
 21
235.82016
 31
0.0
  0
ARC
  5
30F
330
25
100
AcDbEntity
  8
2
100
AcDbCircle
 10
-400.0059919999998
 20
236.686186
 30
0.0
 40
1.0
100
AcDbArc
 50
300.0
 51
120.0
  0
ARC
  5
310
330
25
100
AcDbEntity
  8
2
100
AcDbCircle
 10
-411.2643219999998
 20
230.186186
 30
0.0
 40
1.0
100
AcDbArc
 50
119.999267
 51
300.0
  0
LINE
  5
311
330
25
100
AcDbEntity
  8
2
100
AcDbLine
 10
-411.7643219999997
 20
231.052211
 30
0.0
 11
-400.5059919999998
 21
237.552211
 31
0.0
  0
LINE
  5
312
330
25
100
AcDbEntity
  8
2
100
AcDbLine
 10
-416.2263409999998
 20
240.621043
 30
0.0
 11
-404.0103369999997
 21
245.067305
 31
0.0
  0
ARC
  5
313
330
25
100
AcDbEntity
  8
2
100
AcDbCircle
 10
-404.3523579999998
 20
246.006997
 30
0.0
 40
1.0
100
AcDbArc
 50
290.0
 51
110.0
  0
ARC
  5
314
330
25
100
AcDbEntity
  8
2
100
AcDbCircle
 10
-416.568362
 20
241.560735
 30
0.0
 40
1.0
100
AcDbArc
 50
109.999267
 51
290.0
  0
LINE
  5
315
330
25
100
AcDbEntity
  8
2
100
AcDbLine
 10
-416.910382
 20
242.500428
 30
0.0
 11
-404.6943779999998
 21
246.94669
 31
0.0
  0
LINE
  5
316
330
25
100
AcDbEntity
  8
2
100
AcDbLine
 10
-419.990299
 20
254.668325
 30
0.0
 11
-407.187798
 21
256.925751
 31
0.0
  0
ARC
  5
317
330
25
100
AcDbEntity
  8
2
100
AcDbCircle
 10
-419.816651
 20
253.683517
 30
0.0
 40
1.0
100
AcDbArc
 50
99.99926700000001
 51
280.0
  0
ARC
  5
318
330
25
100
AcDbEntity
  8
2
100
AcDbCircle
 10
-407.01415
 20
255.940943
 30
0.0
 40
1.0
100
AcDbArc
 50
280.0
 51
100.0
  0
LINE
  5
319
330
25
100
AcDbEntity
  8
2
100
AcDbLine
 10
-419.643003
 20
252.698709
 30
0.0
 11
-406.840502
 21
254.956136
 31
0.0
  0
LINE
  5
31A
330
25
100
AcDbEntity
  8
2
100
AcDbLine
 10
-346.910493
 20
194.193131
 30
0.0
 11
-346.910493
 21
217.196391
 31
0.0
  0
LINE
  5
31B
330
25
100
AcDbEntity
  8
2
100
AcDbLine
 10
-350.910493
 20
194.193131
 30
0.0
 11
-350.910493
 21
217.196391
 31
0.0
  0
ARC
  5
31C
330
25
100
AcDbEntity
  8
2
100
AcDbCircle
 10
-348.910493
 20
266.186186
 30
0.0
 40
73.0
100
AcDbArc
 50
269.2042
 51
270.7958
  0
ARC
  5
31D
330
25
100
AcDbEntity
  8
2
100
AcDbCircle
 10
-348.910493
 20
266.186186
 30
0.0
 40
48.0
100
AcDbArc
 50
268.830617
 51
271.169383
  0
LINE
  5
31E
330
25
100
AcDbEntity
  8
2
100
AcDbLine
 10
-336.536124
 20
296.945331
 30
0.0
 11
-336.889678
 21
296.591777
 31
0.0
  0
LINE
  5
31F
330
25
100
AcDbEntity
  8
2
100
AcDbLine
 10
-339.718105
 20
300.127311
 30
0.0
 11
-336.536124
 21
296.945331
 31
0.0
  0
LINE
  5
320
330
25
100
AcDbEntity
  8
2
100
AcDbLine
 10
-336.536124
 20
303.309292
 30
0.0
 11
-339.718105
 21
300.127311
 31
0.0
  0
LINE
  5
321
330
25
100
AcDbEntity
  8
2
100
AcDbLine
 10
-336.889678
 20
303.662845
 30
0.0
 11
-336.536124
 21
303.309292
 31
0.0
  0
LINE
  5
322
330
25
100
AcDbEntity
  8
2
100
AcDbLine
 10
-340.425212
 20
300.127311
 30
0.0
 11
-336.889678
 21
303.662845
 31
0.0
  0
LINE
  5
323
330
25
100
AcDbEntity
  8
2
100
AcDbLine
 10
-336.889678
 20
296.591777
 30
0.0
 11
-340.425212
 21
300.127311
 31
0.0
  0
LINE
  5
324
330
25
100
AcDbEntity
  8
2
100
AcDbLine
 10
-308.229245
 20
222.12374
 30
0.0
 11
-303.610443
 21
230.12374
 31
0.0
  0
LINE
  5
325
330
25
100
AcDbEntity
  8
2
100
AcDbLine
 10
-303.610443
 20
230.12374
 30
0.0
 11
-308.229245
 21
238.12374
 31
0.0
  0
LINE
  5
326
330
25
100
AcDbEntity
  8
2
100
AcDbLine
 10
-317.466849
 20
222.12374
 30
0.0
 11
-308.229245
 21
222.12374
 31
0.0
  0
LINE
  5
327
330
25
100
AcDbEntity
  8
2
100
AcDbLine
 10
-322.085651
 20
230.12374
 30
0.0
 11
-317.466849
 21
222.12374
 31
0.0
  0
LINE
  5
328
330
25
100
AcDbEntity
  8
2
100
AcDbLine
 10
-317.466849
 20
238.12374
 30
0.0
 11
-322.085651
 21
230.12374
 31
0.0
  0
LINE
  5
329
330
25
100
AcDbEntity
  8
2
100
AcDbLine
 10
-308.229245
 20
238.12374
 30
0.0
 11
-317.466849
 21
238.12374
 31
0.0
  0
CIRCLE
  5
32A
330
25
100
AcDbEntity
  8
2
100
AcDbCircle
 10
-312.848047
 20
230.12374
 30
0.0
 40
8.0
  0
LINE
  5
32B
330
25
100
AcDbEntity
  8
2
100
AcDbLine
 10
-341.404939
 20
243.186186
 30
0.0
 11
-356.416046
 21
243.186186
 31
0.0
  0
LINE
  5
32C
330
25
100
AcDbEntity
  8
2
100
AcDbLine
 10
-341.910493
 20
243.186186
 30
0.0
 11
-355.910493
 21
243.186186
 31
0.0
  0
CIRCLE
  5
32D
330
25
100
AcDbEntity
  8
2
100
AcDbCircle
 10
-384.972939
 20
302.248632
 30
0.0
 40
8.0
  0
LINE
  5
32E
330
25
100
AcDbEntity
  8
2
100
AcDbLine
 10
-389.591741
 20
294.248632
 30
0.0
 11
-380.3541370000001
 21
294.248632
 31
0.0
  0
LINE
  5
32F
330
25
100
AcDbEntity
  8
2
100
AcDbLine
 10
-380.3541370000001
 20
294.248632
 30
0.0
 11
-375.735334
 21
302.248632
 31
0.0
  0
LINE
  5
330
330
25
100
AcDbEntity
  8
2
100
AcDbLine
 10
-375.735334
 20
302.248632
 30
0.0
 11
-380.3541370000001
 21
310.248632
 31
0.0
  0
LINE
  5
331
330
25
100
AcDbEntity
  8
2
100
AcDbLine
 10
-380.3541370000001
 20
310.248632
 30
0.0
 11
-389.591741
 21
310.248632
 31
0.0
  0
LINE
  5
332
330
25
100
AcDbEntity
  8
2
100
AcDbLine
 10
-394.210543
 20
302.248632
 30
0.0
 11
-389.591741
 21
294.248632
 31
0.0
  0
LINE
  5
333
330
25
100
AcDbEntity
  8
2
100
AcDbLine
 10
-389.591741
 20
310.248632
 30
0.0
 11
-394.210543
 21
302.248632
 31
0.0
  0
LINE
  5
334
330
25
100
AcDbEntity
  8
2
100
AcDbLine
 10
-346.413436
 20
271.819897
 30
0.0
 11
-342.724149
 21
271.819897
 31
0.0
  0
LINE
  5
335
330
25
100
AcDbEntity
  8
2
100
AcDbLine
 10
-342.677362
 20
271.621703
 30
0.0
 11
-346.296468
 21
269.81215
 31
0.0
  0
CIRCLE
  5
336
330
25
100
AcDbEntity
  8
2
100
AcDbCircle
 10
-348.910493
 20
266.186186
 30
0.0
 40
14.0
  0
LINE
  5
337
330
25
100
AcDbEntity
  8
2
100
AcDbLine
 10
-347.019062
 20
269.424698
 30
0.0
 11
-350.638169
 21
267.615145
 31
0.0
  0
LINE
  5
338
330
25
100
AcDbEntity
  8
2
100
AcDbLine
 10
-351.016685
 20
267.849081
 30
0.0
 11
-351.016685
 21
269.361343
 31
0.0
  0
LINE
  5
339
330
25
100
AcDbEntity
  8
2
100
AcDbLine
 10
-351.360762
 20
269.424698
 30
0.0
 11
-355.061095
 21
267.574532
 31
0.0
  0
LINE
  5
33A
330
25
100
AcDbEntity
  8
2
100
AcDbLine
 10
-355.358385
 20
265.652076
 30
0.0
 11
-355.358385
 21
271.558348
 31
0.0
  0
LINE
  5
33B
330
25
100
AcDbEntity
  8
2
100
AcDbLine
 10
-351.360762
 20
267.2276930000001
 30
0.0
 11
-354.979869
 21
265.41814
 31
0.0
  0
LINE
  5
33C
330
25
100
AcDbEntity
  8
2
100
AcDbLine
 10
-355.026004
 20
267.425887
 30
0.0
 11
-351.40755
 21
267.425887
 31
0.0
  0
ARC
  5
33D
330
25
100
AcDbEntity
  8
2
100
AcDbCircle
 10
-355.096837
 20
265.652076
 30
0.0
 40
0.261548
100
AcDbArc
 50
180.0
 51
296.565051
  0
ARC
  5
33E
330
25
100
AcDbEntity
  8
2
100
AcDbCircle
 10
-355.026004
 20
267.504351
 30
0.0
 40
0.078464
100
AcDbArc
 50
116.565051
 51
270.0
  0
LINE
  5
33F
330
25
100
AcDbEntity
  8
2
100
AcDbLine
 10
-350.859756
 20
259.0824990000001
 30
0.0
 11
-347.126346
 21
259.0824990000001
 31
0.0
  0
LINE
  5
340
330
25
100
AcDbEntity
  8
2
100
AcDbLine
 10
-350.859756
 20
267.425887
 30
0.0
 11
-347.126346
 21
267.425887
 31
0.0
  0
LINE
  5
341
330
25
100
AcDbEntity
  8
2
100
AcDbLine
 10
-351.016685
 20
267.268958
 30
0.0
 11
-351.016685
 21
259.239427
 31
0.0
  0
ARC
  5
342
330
25
100
AcDbEntity
  8
2
100
AcDbCircle
 10
-350.859756
 20
259.239427
 30
0.0
 40
0.156929
100
AcDbArc
 50
180.0
 51
270.0
  0
ARC
  5
343
330
25
100
AcDbEntity
  8
2
100
AcDbCircle
 10
-350.755137
 20
267.849081
 30
0.0
 40
0.261548
100
AcDbArc
 50
180.0
 51
296.565051
  0
ARC
  5
344
330
25
100
AcDbEntity
  8
2
100
AcDbCircle
 10
-350.859756
 20
267.268958
 30
0.0
 40
0.156929
100
AcDbArc
 50
90.0
 51
180.0
  0
ARC
  5
345
330
25
100
AcDbEntity
  8
2
100
AcDbCircle
 10
-351.40755
 20
267.321267
 30
0.0
 40
0.104619
100
AcDbArc
 50
296.565051
 51
90.0
  0
LINE
  5
346
330
25
100
AcDbEntity
  8
2
100
AcDbLine
 10
-346.969417
 20
259.239427
 30
0.0
 11
-346.969417
 21
267.268958
 31
0.0
  0
ARC
  5
347
330
25
100
AcDbEntity
  8
2
100
AcDbCircle
 10
-347.126346
 20
259.239427
 30
0.0
 40
0.156929
100
AcDbArc
 50
270.0
 51
360.0
  0
ARC
  5
348
330
25
100
AcDbEntity
  8
2
100
AcDbCircle
 10
-347.126346
 20
267.268958
 30
0.0
 40
0.156929
100
AcDbArc
 50
0.0
 51
90.0
  0
LINE
  5
349
330
25
100
AcDbEntity
  8
2
100
AcDbLine
 10
-355.096837
 20
271.819897
 30
0.0
 11
-351.40755
 21
271.819897
 31
0.0
  0
LINE
  5
34A
330
25
100
AcDbEntity
  8
2
100
AcDbLine
 10
-355.026004
 20
269.622892
 30
0.0
 11
-351.40755
 21
269.622892
 31
0.0
  0
LINE
  5
34B
330
25
100
AcDbEntity
  8
2
100
AcDbLine
 10
-351.360762
 20
271.621703
 30
0.0
 11
-355.061095
 21
269.771537
 31
0.0
  0
ARC
  5
34C
330
25
100
AcDbEntity
  8
2
100
AcDbCircle
 10
-355.096837
 20
271.558348
 30
0.0
 40
0.261548
100
AcDbArc
 50
90.0
 51
180.0
  0
ARC
  5
34D
330
25
100
AcDbEntity
  8
2
100
AcDbCircle
 10
-355.026004
 20
269.701356
 30
0.0
 40
0.078464
100
AcDbArc
 50
116.565051
 51
270.0
  0
LINE
  5
34E
330
25
100
AcDbEntity
  8
2
100
AcDbLine
 10
-350.755137
 20
271.819897
 30
0.0
 11
-347.065849
 21
271.819897
 31
0.0
  0
LINE
  5
34F
330
25
100
AcDbEntity
  8
2
100
AcDbLine
 10
-350.755137
 20
269.622892
 30
0.0
 11
-347.065849
 21
269.622892
 31
0.0
  0
LINE
  5
350
330
25
100
AcDbEntity
  8
2
100
AcDbLine
 10
-347.019062
 20
271.621703
 30
0.0
 11
-350.638169
 21
269.81215
 31
0.0
  0
ARC
  5
351
330
25
100
AcDbEntity
  8
2
100
AcDbCircle
 10
-350.755137
 20
271.558348
 30
0.0
 40
0.261548
100
AcDbArc
 50
90.0
 51
180.0
  0
ARC
  5
352
330
25
100
AcDbEntity
  8
2
100
AcDbCircle
 10
-351.40755
 20
271.715277
 30
0.0
 40
0.104619
100
AcDbArc
 50
296.565051
 51
90.0
  0
ARC
  5
353
330
25
100
AcDbEntity
  8
2
100
AcDbCircle
 10
-350.755137
 20
270.046086
 30
0.0
 40
0.261548
100
AcDbArc
 50
180.0
 51
296.565051
  0
ARC
  5
354
330
25
100
AcDbEntity
  8
2
100
AcDbCircle
 10
-350.755137
 20
269.361343
 30
0.0
 40
0.261548
100
AcDbArc
 50
90.0
 51
180.0
  0
ARC
  5
355
330
25
100
AcDbEntity
  8
2
100
AcDbCircle
 10
-351.40755
 20
269.518272
 30
0.0
 40
0.104619
100
AcDbArc
 50
296.565051
 51
90.0
  0
LINE
  5
356
330
25
100
AcDbEntity
  8
2
100
AcDbLine
 10
-351.016685
 20
270.046086
 30
0.0
 11
-351.016685
 21
271.558348
 31
0.0
  0
ARC
  5
357
330
25
100
AcDbEntity
  8
2
100
AcDbCircle
 10
-346.413436
 20
271.558348
 30
0.0
 40
0.261548
100
AcDbArc
 50
90.0
 51
180.0
  0
ARC
  5
358
330
25
100
AcDbEntity
  8
2
100
AcDbCircle
 10
-347.065849
 20
271.715277
 30
0.0
 40
0.104619
100
AcDbArc
 50
296.565051
 51
90.0
  0
ARC
  5
359
330
25
100
AcDbEntity
  8
2
100
AcDbCircle
 10
-346.413436
 20
270.046086
 30
0.0
 40
0.261548
100
AcDbArc
 50
180.0
 51
296.565051
  0
ARC
  5
35A
330
25
100
AcDbEntity
  8
2
100
AcDbCircle
 10
-347.065849
 20
269.518272
 30
0.0
 40
0.104619
100
AcDbArc
 50
296.565051
 51
90.0
  0
LINE
  5
35B
330
25
100
AcDbEntity
  8
2
100
AcDbLine
 10
-346.674984
 20
270.046086
 30
0.0
 11
-346.674984
 21
271.558348
 31
0.0
  0
ARC
  5
35C
330
25
100
AcDbEntity
  8
2
100
AcDbCircle
 10
-342.724149
 20
271.715277
 30
0.0
 40
0.104619
100
AcDbArc
 50
296.565051
 51
90.0
  0
ARC
  5
35D
330
25
100
AcDbEntity
  8
2
100
AcDbCircle
 10
-358.910493
 20
246.590268
 30
0.0
 40
2.0
100
AcDbArc
 50
0.0
 51
62.964308
  0
ARC
  5
35E
330
25
100
AcDbEntity
  8
2
100
AcDbCircle
 10
-348.910493
 20
266.186186
 30
0.0
 40
77.5
100
AcDbArc
 50
117.004087
 51
332.995913
  0
LINE
  5
35F
330
25
100
AcDbEntity
  8
2
100
AcDbLine
 10
-256.410493
 20
239.186186
 30
0.0
 11
-266.495385
 21
239.186186
 31
0.0
  0
ARC
  5
360
330
25
100
AcDbEntity
  8
2
100
AcDbCircle
 10
-264.049363
 20
285.358787
 30
0.0
 40
0.5
100
AcDbArc
 50
302.5
 51
12.731043
  0
LINE
  5
361
330
25
100
AcDbEntity
  8
2
100
AcDbLine
 10
-264.190119
 20
284.6762700000001
 30
0.0
 11
-263.780713
 21
284.937091
 31
0.0
  0
ARC
  5
362
330
25
100
AcDbEntity
  8
2
100
AcDbCircle
 10
-268.667881
 20
299.803492
 30
0.0
 40
0.5
100
AcDbArc
 50
312.5
 51
22.731043
  0
ARC
  5
363
330
25
100
AcDbEntity
  8
2
100
AcDbCircle
 10
-265.832298
 20
292.012791
 30
0.0
 40
0.5
100
AcDbArc
 50
17.268957
 51
87.5
  0
ARC
  5
364
330
25
100
AcDbEntity
  8
2
100
AcDbCircle
 10
-274.198762
 20
293.379032
 30
0.0
 40
0.5
100
AcDbArc
 50
132.5
 51
267.5
  0
LINE
  5
365
330
25
100
AcDbEntity
  8
2
100
AcDbLine
 10
-274.220572
 20
292.879508
 30
0.0
 11
-265.810488
 21
292.512316
 31
0.0
  0
LINE
  5
366
330
25
100
AcDbEntity
  8
2
100
AcDbLine
 10
-274.536557
 20
293.74767
 30
0.0
 11
-268.330086
 21
299.434854
 31
0.0
  0
ARC
  5
367
330
25
100
AcDbEntity
  8
2
100
AcDbCircle
 10
-275.724531
 20
313.226753
 30
0.0
 40
0.5
100
AcDbArc
 50
322.5
 51
32.731043
  0
ARC
  5
368
330
25
100
AcDbEntity
  8
2
100
AcDbCircle
 10
-271.579186
 20
306.046804
 30
0.0
 40
0.5
100
AcDbArc
 50
27.268957
 51
97.5
  0
ARC
  5
369
330
25
100
AcDbEntity
  8
2
100
AcDbCircle
 10
-280.05579
 20
305.939467
 30
0.0
 40
0.5
100
AcDbArc
 50
142.5
 51
277.5
  0
LINE
  5
36A
330
25
100
AcDbEntity
  8
2
100
AcDbLine
 10
-279.990526
 20
305.443745
 30
0.0
 11
-271.644449
 21
306.542527
 31
0.0
  0
LINE
  5
36B
330
25
100
AcDbEntity
  8
2
100
AcDbLine
 10
-280.452466
 20
306.243848
 30
0.0
 11
-275.327854
 21
312.922372
 31
0.0
  0
ARC
  5
36C
330
25
100
AcDbEntity
  8
2
100
AcDbCircle
 10
-285.004899
 20
325.22071
 30
0.0
 40
0.5
100
AcDbArc
 50
332.5
 51
42.73104299999999
  0
ARC
  5
36D
330
25
100
AcDbEntity
  8
2
100
AcDbCircle
 10
-279.675746
 20
318.869673
 30
0.0
 40
0.5
100
AcDbArc
 50
37.268957
 51
107.5
  0
ARC
  5
36E
330
25
100
AcDbEntity
  8
2
100
AcDbCircle
 10
-288.004932
 20
317.292019
 30
0.0
 40
0.5
100
AcDbArc
 50
152.5
 51
287.5
  0
LINE
  5
36F
330
25
100
AcDbEntity
  8
2
100
AcDbLine
 10
-287.854579
 20
316.815161
 30
0.0
 11
-279.826099
 21
319.3465310000001
 31
0.0
  0
LINE
  5
370
330
25
100
AcDbEntity
  8
2
100
AcDbLine
 10
-288.448438
 20
317.522894
 30
0.0
 11
-284.561394
 21
324.9898359999999
 31
0.0
  0
ARC
  5
371
330
25
100
AcDbEntity
  8
2
100
AcDbCircle
 10
-296.227006
 20
335.420933
 30
0.0
 40
0.5
100
AcDbArc
 50
342.5
 51
52.731043
  0
ARC
  5
372
330
25
100
AcDbEntity
  8
2
100
AcDbCircle
 10
-289.875969
 20
330.09178
 30
0.0
 40
0.5
100
AcDbArc
 50
47.268957
 51
117.5
  0
ARC
  5
373
330
25
100
AcDbEntity
  8
2
100
AcDbCircle
 10
-297.8046589999999
 20
327.091746
 30
0.0
 40
0.5
100
AcDbArc
 50
162.5
 51
297.5
  0
LINE
  5
374
330
25
100
AcDbEntity
  8
2
100
AcDbLine
 10
-297.573785
 20
326.648241
 30
0.0
 11
-290.106843
 21
330.535285
 31
0.0
  0
LINE
  5
375
330
25
100
AcDbEntity
  8
2
100
AcDbLine
 10
-298.281518
 20
327.242099
 30
0.0
 11
-295.750148
 21
335.27058
 31
0.0
  0
ARC
  5
376
330
25
100
AcDbEntity
  8
2
100
AcDbCircle
 10
-309.0498740000001
 20
343.517493
 30
0.0
 40
0.5
100
AcDbArc
 50
352.5
 51
62.731043
  0
ARC
  5
377
330
25
100
AcDbEntity
  8
2
100
AcDbCircle
 10
-301.8699259999999
 20
339.372148
 30
0.0
 40
0.5
100
AcDbArc
 50
57.268957
 51
127.5
  0
ARC
  5
378
330
25
100
AcDbEntity
  8
2
100
AcDbCircle
 10
-309.1572109999999
 20
335.040889
 30
0.0
 40
0.5
100
AcDbArc
 50
172.5
 51
307.5
  0
LINE
  5
379
330
25
100
AcDbEntity
  8
2
100
AcDbLine
 10
-308.852831
 20
334.644212
 30
0.0
 11
-302.174306
 21
339.768824
 31
0.0
  0
LINE
  5
37A
330
25
100
AcDbEntity
  8
2
100
AcDbLine
 10
-309.652934
 20
335.106152
 30
0.0
 11
-308.554152
 21
343.45223
 31
0.0
  0
ARC
  5
37B
330
25
100
AcDbEntity
  8
2
100
AcDbCircle
 10
-323.083887
 20
349.26438
 30
0.0
 40
0.5
100
AcDbArc
 50
2.5
 51
72.73104299999999
  0
ARC
  5
37C
330
25
100
AcDbEntity
  8
2
100
AcDbCircle
 10
-315.293186
 20
346.428797
 30
0.0
 40
0.5
100
AcDbArc
 50
67.268957
 51
137.5
  0
ARC
  5
37D
330
25
100
AcDbEntity
  8
2
100
AcDbCircle
 10
-321.717647
 20
340.897916
 30
0.0
 40
0.5
100
AcDbArc
 50
182.5
 51
317.5
  0
LINE
  5
37E
330
25
100
AcDbEntity
  8
2
100
AcDbLine
 10
-321.349008
 20
340.560121
 30
0.0
 11
-315.661825
 21
346.766592
 31
0.0
  0
LINE
  5
37F
330
25
100
AcDbEntity
  8
2
100
AcDbLine
 10
-322.217171
 20
340.876107
 30
0.0
 11
-322.584363
 21
349.28619
 31
0.0
  0
ARC
  5
380
330
25
100
AcDbEntity
  8
2
100
AcDbCircle
 10
-329.737892
 20
351.047316
 30
0.0
 40
0.5
100
AcDbArc
 50
77.268957
 51
147.5
  0
ARC
  5
381
330
25
100
AcDbEntity
  8
2
100
AcDbCircle
 10
-335.104323
 20
344.484865
 30
0.0
 40
0.5
100
AcDbArc
 50
192.5
 51
327.5
  0
LINE
  5
382
330
25
100
AcDbEntity
  8
2
100
AcDbLine
 10
-334.682627
 20
344.216216
 30
0.0
 11
-330.159588
 21
351.315966
 31
0.0
  0
LINE
  5
383
330
25
100
AcDbEntity
  8
2
100
AcDbLine
 10
-335.592471
 20
344.376646
 30
0.0
 11
-337.414481
 21
352.595199
 31
0.0
  0
ARC
  5
384
330
25
100
AcDbEntity
  8
2
100
AcDbCircle
 10
-264.049363
 20
285.358787
 30
0.0
 40
0.5
100
AcDbArc
 50
302.5
 51
12.731043
  0
LINE
  5
385
330
25
100
AcDbEntity
  8
2
100
AcDbLine
 10
-264.190119
 20
284.6762700000001
 30
0.0
 11
-263.780713
 21
284.937091
 31
0.0
  0
ARC
  5
386
330
25
100
AcDbEntity
  8
2
100
AcDbCircle
 10
-266.495385
 20
224.186186
 30
0.0
 40
15.0
100
AcDbArc
 50
90.0
 51
152.995913
  0
ARC
  5
387
330
25
100
AcDbEntity
  8
2
100
AcDbCircle
 10
-256.410493
 20
249.186186
 30
0.0
 40
10.0
100
AcDbArc
 50
270.0
 51
353.259225
  0
ARC
  5
388
330
25
100
AcDbEntity
  8
2
100
AcDbCircle
 10
-365.910493
 20
358.6861859999999
 30
0.0
 40
10.0
100
AcDbArc
 50
90.0
 51
180.0
  0
ARC
  5
389
330
25
100
AcDbEntity
  8
2
100
AcDbCircle
 10
-390.910493
 20
348.601294
 30
0.0
 40
15.0
100
AcDbArc
 50
297.004087
 51
360.0
  0
LINE
  5
38A
330
25
100
AcDbEntity
  8
2
100
AcDbLine
 10
-375.910493
 20
358.6861859999999
 30
0.0
 11
-375.910493
 21
348.601294
 31
0.0
  0
LINE
  5
38B
330
25
100
AcDbEntity
  8
2
100
AcDbLine
 10
-355.910493
 20
367.686186
 30
0.0
 11
-355.910493
 21
354.4825620000001
 31
0.0
  0
ARC
  5
38C
330
25
100
AcDbEntity
  8
2
100
AcDbCircle
 10
-348.910493
 20
266.186186
 30
0.0
 40
87.5
100
AcDbArc
 50
72.73104299999999
 51
77.268957
  0
ARC
  5
38D
330
25
100
AcDbEntity
  8
2
100
AcDbCircle
 10
-348.910493
 20
266.186186
 30
0.0
 40
87.5
100
AcDbArc
 50
62.731043
 51
67.268957
  0
ARC
  5
38E
330
25
100
AcDbEntity
  8
2
100
AcDbCircle
 10
-348.910493
 20
266.186186
 30
0.0
 40
87.5
100
AcDbArc
 50
52.731043
 51
57.268957
  0
ARC
  5
38F
330
25
100
AcDbEntity
  8
2
100
AcDbCircle
 10
-348.910493
 20
266.186186
 30
0.0
 40
87.5
100
AcDbArc
 50
42.73104299999999
 51
47.268957
  0
ARC
  5
390
330
25
100
AcDbEntity
  8
2
100
AcDbCircle
 10
-348.910493
 20
266.186186
 30
0.0
 40
87.5
100
AcDbArc
 50
32.731043
 51
37.268957
  0
ARC
  5
391
330
25
100
AcDbEntity
  8
2
100
AcDbCircle
 10
-348.910493
 20
266.186186
 30
0.0
 40
87.5
100
AcDbArc
 50
22.731043
 51
27.268957
  0
ARC
  5
392
330
25
100
AcDbEntity
  8
2
100
AcDbCircle
 10
-348.910493
 20
266.186186
 30
0.0
 40
87.5
100
AcDbArc
 50
12.731043
 51
17.268957
  0
ARC
  5
393
330
25
100
AcDbEntity
  8
2
100
AcDbCircle
 10
-348.910493
 20
266.186186
 30
0.0
 40
87.5
100
AcDbArc
 50
82.73104299999998
 51
87.268957
  0
ARC
  5
394
330
25
100
AcDbEntity
  8
2
100
AcDbCircle
 10
-348.910493
 20
266.186186
 30
0.0
 40
87.5
100
AcDbArc
 50
92.73104299999999
 51
93.88744199999999
  0
ARC
  5
395
330
25
100
AcDbEntity
  8
2
100
AcDbCircle
 10
-354.910493
 20
354.4825620000001
 30
0.0
 40
1.0
100
AcDbArc
 50
180.0
 51
273.887442
  0
LINE
  5
396
330
25
100
AcDbEntity
  8
2
100
AcDbLine
 10
-349.372433
 20
345.501407
 30
0.0
 11
-352.593898
 21
353.278713
 31
0.0
  0
LINE
  5
397
330
25
100
AcDbEntity
  8
2
100
AcDbLine
 10
-348.448553
 20
345.501407
 30
0.0
 11
-345.227087
 21
353.278713
 31
0.0
  0
ARC
  5
398
330
25
100
AcDbEntity
  8
2
100
AcDbCircle
 10
-348.910493
 20
345.692749
 30
0.0
 40
0.5
100
AcDbArc
 50
202.5
 51
337.5
  0
ARC
  5
399
330
25
100
AcDbEntity
  8
2
100
AcDbCircle
 10
-344.765148
 20
353.087372
 30
0.0
 40
0.5
100
AcDbArc
 50
87.268957
 51
157.5
  0
ARC
  5
39A
330
25
100
AcDbEntity
  8
2
100
AcDbCircle
 10
-353.055838
 20
353.087372
 30
0.0
 40
0.5
100
AcDbArc
 50
22.5
 51
92.73104299999999
  0
ARC
  5
39B
330
25
100
AcDbEntity
  8
2
100
AcDbCircle
 10
-337.902629
 20
352.486979
 30
0.0
 40
0.5
100
AcDbArc
 50
12.5
 51
82.73104299999998
  0
ARC
  5
39C
330
25
100
AcDbEntity
  8
2
100
AcDbCircle
 10
-356.910493
 20
367.686186
 30
0.0
 40
1.0
100
AcDbArc
 50
0.0
 51
90.0
  0
LINE
  5
39D
330
25
100
AcDbEntity
  8
2
100
AcDbLine
 10
-356.910493
 20
368.686186
 30
0.0
 11
-365.910493
 21
368.686186
 31
0.0
  0
TEXT
  5
39E
330
25
100
AcDbEntity
  8
2
100
AcDbText
 10
-322.248934
 20
210.975356
 30
0.0
 40
12.0
  1
Ｏ
 50
199.9999982173386
 41
0.9230768962983335
 72
     5
 11
-331.269983
 21
207.691963
 31
0.0
100
AcDbText
  0
TEXT
  5
39F
330
25
100
AcDbEntity
  8
2
100
AcDbText
 10
-408.027349
 20
282.116028
 30
0.0
 40
12.0
  1
Ｓ
 50
69.99999617428328
 41
1.00000000661696
 72
     5
 11
-404.7439549999998
 21
291.137077
 31
0.0
100
AcDbText
  0
ARC
  5
3A0
330
25
100
AcDbEntity
  8
2
  6
CENTER
 62
     4
370
    13
100
AcDbCircle
 10
-348.910493
 20
266.186186
 30
0.0
 40
51.0
100
AcDbArc
 50
300.634972
 51
329.476834
  0
LINE
  5
3A1
330
25
100
AcDbEntity
  8
2
  6
CENTER
 62
     4
370
    13
100
AcDbLine
 10
-301.989455
 20
219.265148
 30
0.0
 11
-323.78297
 21
241.058663
 31
0.0
  0
LINE
  5
3A2
330
25
100
AcDbEntity
  8
2
  6
CENTER
 62
     4
370
    13
100
AcDbLine
 10
-494.214478
 20
266.186186
 30
0.0
 11
8.831322999999997
 21
266.186186
 31
0.0
  0
LINE
  5
3A3
330
25
100
AcDbEntity
  8
2
  6
CENTER
 62
     4
370
    13
100
AcDbLine
 10
-348.910493
 20
182.053768
 30
0.0
 11
-348.910493
 21
371.832486
 31
0.0
  0
LINE
  5
3A4
330
25
100
AcDbEntity
  8
2
  6
CENTER
 62
     4
370
    13
100
AcDbLine
 10
-188.910493
 20
237.681397
 30
0.0
 11
-188.910493
 21
292.012121
 31
0.0
  0
LINE
  5
3A5
330
25
100
AcDbEntity
  8
2
  6
CENTER
 62
     4
370
    13
100
AcDbLine
 10
-395.83153
 20
313.107223
 30
0.0
 11
-374.038016
 21
291.313709
 31
0.0
  0
ARC
  5
3A6
330
25
100
AcDbEntity
  8
2
  6
CENTER
 62
     4
370
    13
100
AcDbCircle
 10
-348.910493
 20
266.186186
 30
0.0
 40
51.0
100
AcDbArc
 50
120.634972
 51
149.476834
  0
LINE
  5
3A7
330
25
100
AcDbEntity
  8
2
100
AcDbLine
 10
-341.4104930000001
 20
243.186186
 30
0.0
 11
-341.4104930000001
 21
237.407874
 31
0.0
  0
LINE
  5
3A8
330
25
100
AcDbEntity
  8
2
100
AcDbLine
 10
-341.4104930000001
 20
237.407874
 30
0.0
 11
-342.660493
 21
236.686186
 31
0.0
  0
LINE
  5
3A9
330
25
100
AcDbEntity
  8
2
100
AcDbLine
 10
-342.660493
 20
236.686186
 30
0.0
 11
-348.910493
 21
236.686186
 31
0.0
  0
LINE
  5
3AA
330
25
100
AcDbEntity
  8
2
100
AcDbLine
 10
-345.160493
 20
243.186186
 30
0.0
 11
-345.160493
 21
237.407874
 31
0.0
  0
ARC
  5
3AB
330
25
100
AcDbEntity
  8
2
100
AcDbCircle
 10
-343.285493
 20
239.81825
 30
0.0
 40
3.053774
100
AcDbArc
 50
232.121121
 51
307.878879
  0
ARC
  5
3AC
330
25
100
AcDbEntity
  8
2
100
AcDbCircle
 10
-348.910493
 20
248.014476
 30
0.0
 40
11.25
100
AcDbArc
 50
270.0
 51
289.471221
  0
LINE
  5
3AD
330
25
100
AcDbEntity
  8
2
100
AcDbLine
 10
-356.410493
 20
243.186186
 30
0.0
 11
-356.410493
 21
237.407874
 31
0.0
  0
LINE
  5
3AE
330
25
100
AcDbEntity
  8
2
100
AcDbLine
 10
-356.410493
 20
237.407874
 30
0.0
 11
-355.160493
 21
236.686186
 31
0.0
  0
LINE
  5
3AF
330
25
100
AcDbEntity
  8
2
100
AcDbLine
 10
-355.160493
 20
236.686186
 30
0.0
 11
-348.910493
 21
236.686186
 31
0.0
  0
LINE
  5
3B0
330
25
100
AcDbEntity
  8
2
100
AcDbLine
 10
-352.660493
 20
243.186186
 30
0.0
 11
-352.660493
 21
237.407874
 31
0.0
  0
ARC
  5
3B1
330
25
100
AcDbEntity
  8
2
100
AcDbCircle
 10
-354.535493
 20
239.81825
 30
0.0
 40
3.053774
100
AcDbArc
 50
232.121121
 51
307.878879
  0
ARC
  5
3B2
330
25
100
AcDbEntity
  8
2
100
AcDbCircle
 10
-348.910493
 20
248.014476
 30
0.0
 40
11.25
100
AcDbArc
 50
250.528779
 51
270.0
  0
LINE
  5
3B3
330
25
100
AcDbEntity
  8
2
100
AcDbLine
 10
-348.910493
 20
232.186186
 30
0.0
 11
-352.233993
 21
232.186186
 31
0.0
  0
LINE
  5
3B4
330
25
100
AcDbEntity
  8
2
100
AcDbLine
 10
-352.233993
 20
232.186186
 30
0.0
 11
-352.910493
 21
232.862686
 31
0.0
  0
LINE
  5
3B5
330
25
100
AcDbEntity
  8
2
100
AcDbLine
 10
-352.910493
 20
232.862686
 30
0.0
 11
-352.910493
 21
236.722901
 31
0.0
  0
LINE
  5
3B6
330
25
100
AcDbEntity
  8
2
100
AcDbLine
 10
-352.910493
 20
232.862686
 30
0.0
 11
-348.910493
 21
232.862686
 31
0.0
  0
LINE
  5
3B7
330
25
100
AcDbEntity
  8
2
 62
     2
100
AcDbLine
 10
-352.233993
 20
232.186186
 30
0.0
 11
-352.233993
 21
236.686538
 31
0.0
  0
LINE
  5
3B8
330
25
100
AcDbEntity
  8
2
100
AcDbLine
 10
-348.910493
 20
232.186186
 30
0.0
 11
-345.586993
 21
232.186186
 31
0.0
  0
LINE
  5
3B9
330
25
100
AcDbEntity
  8
2
100
AcDbLine
 10
-345.586993
 20
232.186186
 30
0.0
 11
-344.910493
 21
232.862686
 31
0.0
  0
LINE
  5
3BA
330
25
100
AcDbEntity
  8
2
100
AcDbLine
 10
-344.910493
 20
232.862686
 30
0.0
 11
-344.910493
 21
236.722901
 31
0.0
  0
LINE
  5
3BB
330
25
100
AcDbEntity
  8
2
100
AcDbLine
 10
-344.910493
 20
232.862686
 30
0.0
 11
-348.910493
 21
232.862686
 31
0.0
  0
LINE
  5
3BC
330
25
100
AcDbEntity
  8
2
 62
     2
100
AcDbLine
 10
-345.586993
 20
232.186186
 30
0.0
 11
-345.586993
 21
236.686538
 31
0.0
  0
LINE
  5
3BD
330
25
100
AcDbEntity
  8
2
100
AcDbLine
 10
-229.719631
 20
82.486186
 30
0.0
 11
-175.123696
 21
82.486186
 31
0.0
  0
ARC
  5
3BE
330
25
100
AcDbEntity
  8
2
100
AcDbCircle
 10
-181.910493
 20
83.486186
 30
0.0
 40
1.0
100
AcDbArc
 50
270.0
 51
360.0
  0
ARC
  5
3BF
330
25
100
AcDbEntity
  8
2
100
AcDbCircle
 10
-195.910493
 20
83.486186
 30
0.0
 40
1.0
100
AcDbArc
 50
180.0
 51
270.0
  0
ARC
  5
3C0
330
25
100
AcDbEntity
  8
2
100
AcDbCircle
 10
-229.719631
 20
67.486186
 30
0.0
 40
15.0
100
AcDbArc
 50
90.0
 51
101.0
  0
ARC
  5
3C1
330
25
100
AcDbEntity
  8
2
100
AcDbCircle
 10
-175.123696
 20
97.486186
 30
0.0
 40
15.0
100
AcDbArc
 50
270.0
 51
315.0
  0
LINE
  5
3C2
330
25
100
AcDbEntity
  8
2
100
AcDbLine
 10
-164.5170949999999
 20
86.87958399999997
 30
0.0
 11
-160.438991
 21
90.957688
 31
0.0
  0
ARC
  5
3C3
330
25
100
AcDbEntity
  8
2
100
AcDbCircle
 10
-128.619186
 20
59.137883
 30
0.0
 40
45.0
100
AcDbArc
 50
102.5
 51
135.0
  0
LINE
  5
3C4
330
25
100
AcDbEntity
  8
2
100
AcDbLine
 10
-138.358968
 20
103.071203
 30
0.0
 11
0.138442
 21
133.77534
 31
0.0
  0
ARC
  5
3C5
330
25
100
AcDbEntity
  8
2
100
AcDbCircle
 10
-0.077998
 20
134.751636
 30
0.0
 40
1.0
100
AcDbArc
 50
282.5
 51
11.0
  0
LINE
  5
3C6
330
25
100
AcDbEntity
  8
2
100
AcDbLine
 10
-0.862345
 20
144.027593
 30
0.0
 11
0.9036290000000001
 21
134.942445
 31
0.0
  0
ARC
  5
3C7
330
25
100
AcDbEntity
  8
2
100
AcDbCircle
 10
-6.752107999999998
 20
142.882739
 30
0.0
 40
6.0
100
AcDbArc
 50
11.0
 51
101.0
  0
ARC
  5
3C8
330
25
100
AcDbEntity
  8
2
100
AcDbCircle
 10
-326.9104930000001
 20
88.799986
 30
0.0
 40
2.0
100
AcDbArc
 50
180.0
 51
281.0
  0
LINE
  5
3C9
330
25
100
AcDbEntity
  8
2
100
AcDbLine
 10
-328.9104930000001
 20
63.486186
 30
0.0
 11
-232.581766
 21
82.21059399999999
 31
0.0
  0
LINE
  5
3CA
330
25
100
AcDbEntity
  8
2
100
AcDbLine
 10
-368.910493
 20
63.486186
 30
0.0
 11
-368.910493
 21
61.48618599999998
 31
0.0
  0
LINE
  5
3CB
330
25
100
AcDbEntity
  8
2
100
AcDbLine
 10
-328.9104930000001
 20
63.486186
 30
0.0
 11
-328.9104930000001
 21
61.48618599999998
 31
0.0
  0
LINE
  5
3CC
330
25
100
AcDbEntity
  8
2
100
AcDbLine
 10
-328.9104930000001
 20
89.48618600000001
 30
0.0
 11
-328.9104930000001
 21
88.799986
 31
0.0
  0
LINE
  5
3CD
330
25
100
AcDbEntity
  8
2
100
AcDbLine
 10
-180.910493
 20
98.48618600000001
 30
0.0
 11
-180.910493
 21
83.486186
 31
0.0
  0
LINE
  5
3CE
330
25
100
AcDbEntity
  8
2
100
AcDbLine
 10
-196.910493
 20
98.48618600000001
 30
0.0
 11
-196.910493
 21
83.486186
 31
0.0
  0
ARC
  5
3CF
330
25
100
AcDbEntity
  8
2
100
AcDbCircle
 10
-188.910493
 20
98.48618600000001
 30
0.0
 40
8.0
100
AcDbArc
 50
0.0
 51
180.0
  0
LINE
  5
3D0
330
25
100
AcDbEntity
  8
2
100
AcDbLine
 10
-329.910493
 20
90.48618600000001
 30
0.0
 11
-367.910493
 21
90.48618600000001
 31
0.0
  0
ARC
  5
3D1
330
25
100
AcDbEntity
  8
2
100
AcDbCircle
 10
-340.910493
 20
89.48618600000001
 30
0.0
 40
1.0
100
AcDbArc
 50
0.0
 51
90.0
  0
ARC
  5
3D2
330
25
100
AcDbEntity
  8
2
100
AcDbCircle
 10
-356.910493
 20
89.48618600000001
 30
0.0
 40
1.0
100
AcDbArc
 50
90.0
 51
180.0
  0
LINE
  5
3D3
330
25
100
AcDbEntity
  8
2
100
AcDbLine
 10
-328.91049
 20
86.373793
 30
0.0
 11
-7.896961999999997
 21
148.772502
 31
0.0
  0
ARC
  5
3D4
330
25
100
AcDbEntity
  8
2
100
AcDbCircle
 10
-388.555372
 20
125.31052
 30
0.0
 40
52.973971
100
AcDbArc
 50
284.869627
 51
304.976114
  0
LINE
  5
3D5
330
25
100
AcDbEntity
  8
2
100
AcDbLine
 10
-372.858372
 20
77.332353
 30
0.0
 11
-397.936553
 21
68.20464100000001
 31
0.0
  0
LINE
  5
3D6
330
25
100
AcDbEntity
  8
2
100
AcDbLine
 10
-329.910493
 20
90.48618600000001
 30
0.0
 11
-328.9104930000001
 21
89.48618600000001
 31
0.0
  0
LINE
  5
3D7
330
25
100
AcDbEntity
  8
2
100
AcDbLine
 10
-367.910493
 20
90.48618600000001
 30
0.0
 11
-368.910493
 21
89.48618600000001
 31
0.0
  0
LINE
  5
3D8
330
25
100
AcDbEntity
  8
2
100
AcDbLine
 10
-328.9104930000001
 20
89.48618600000001
 30
0.0
 11
-328.9104930000001
 21
89.373792
 31
0.0
  0
LINE
  5
3D9
330
25
100
AcDbEntity
  8
2
100
AcDbLine
 10
-368.910493
 20
89.48618600000001
 30
0.0
 11
-368.910493
 21
82.970509
 31
0.0
  0
LINE
  5
3DA
330
25
100
AcDbEntity
  8
2
100
AcDbLine
 10
-339.910493
 20
89.48618600000001
 30
0.0
 11
-339.910493
 21
63.486186
 31
0.0
  0
LINE
  5
3DB
330
25
100
AcDbEntity
  8
2
100
AcDbLine
 10
-357.910493
 20
89.48618600000001
 30
0.0
 11
-357.910493
 21
63.486186
 31
0.0
  0
ARC
  5
3DC
330
25
100
AcDbEntity
  8
2
100
AcDbCircle
 10
-396.910493
 20
65.385563
 30
0.0
 40
3.0
100
AcDbArc
 50
110.0
 51
180.0
  0
CIRCLE
  5
3DD
330
25
100
AcDbEntity
  8
2
100
AcDbCircle
 10
-188.910493
 20
98.48618600000001
 30
0.0
 40
2.5
  0
LINE
  5
3DE
330
25
100
AcDbEntity
  8
2
100
AcDbLine
 10
-399.9104930000001
 20
63.486186
 30
0.0
 11
-399.9104930000001
 21
65.385563
 31
0.0
  0
LINE
  5
3DF
330
25
100
AcDbEntity
  8
2
100
AcDbLine
 10
-328.9104930000001
 20
63.486186
 30
0.0
 11
-399.9104930000001
 21
63.486186
 31
0.0
  0
LINE
  5
3E0
330
25
100
AcDbEntity
  8
2
100
AcDbLine
 10
-328.9104930000001
 20
61.48618599999998
 30
0.0
 11
-368.910493
 21
61.48618599999998
 31
0.0
  0
ARC
  5
3E1
330
25
100
AcDbEntity
  8
2
100
AcDbCircle
 10
-374.9104930000001
 20
82.970509
 30
0.0
 40
6.0
100
AcDbArc
 50
290.0
 51
360.0
  0
ARC
  5
3E2
330
25
100
AcDbEntity
  8
2
100
AcDbCircle
 10
-182.614076
 20
24.656171
 30
0.0
 40
60.0
100
AcDbArc
 50
105.456387
 51
130.0
  0
LINE
  5
3E3
330
25
100
AcDbEntity
  8
2
100
AcDbLine
 10
-169.187695
 20
83.710705
 30
0.0
 11
-83.111653
 21
76.18002699999998
 31
0.0
  0
LINE
  5
3E4
330
25
100
AcDbEntity
  8
2
100
AcDbLine
 10
-264.605326
 20
58.76827399999999
 30
0.0
 11
-237.899799
 21
81.176873
 31
0.0
  0
LINE
  5
3E5
330
25
100
AcDbEntity
  8
2
100
AcDbLine
 10
-253.703509
 20
46.468538
 30
0.0
 11
-253.703509
 21
51.48618599999998
 31
0.0
  0
LINE
  5
3E6
330
25
100
AcDbEntity
  8
2
100
AcDbLine
 10
-264.962539
 20
58.00223
 30
0.0
 11
-264.962539
 21
53.486186
 31
0.0
  0
LINE
  5
3E7
330
25
100
AcDbEntity
  8
2
100
AcDbLine
 10
-252.14636
 20
46.468538
 30
0.0
 11
-263.962539
 21
46.468538
 31
0.0
  0
LINE
  5
3E8
330
25
100
AcDbEntity
  8
2
100
AcDbLine
 10
-248.289635
 20
47.872271
 30
0.0
 11
-221.181333
 21
70.618837
 31
0.0
  0
ARC
  5
3E9
330
25
100
AcDbEntity
  8
2
100
AcDbCircle
 10
-263.962539
 20
58.00223
 30
0.0
 40
1.0
100
AcDbArc
 50
130.0
 51
180.0
  0
ARC
  5
3EA
330
25
100
AcDbEntity
  8
2
100
AcDbCircle
 10
-263.962539
 20
47.468538
 30
0.0
 40
1.0
100
AcDbArc
 50
180.0
 51
270.0
  0
ARC
  5
3EB
330
25
100
AcDbEntity
  8
2
100
AcDbCircle
 10
-252.14636
 20
52.468538
 30
0.0
 40
6.0
100
AcDbArc
 50
270.0
 51
310.0
  0
LINE
  5
3EC
330
25
100
AcDbEntity
  8
2
100
AcDbLine
 10
-101.326223
 20
104.369821
 30
0.0
 11
-94.28554
 21
104.615688
 31
0.0
  0
LINE
  5
3ED
330
25
100
AcDbEntity
  8
2
100
AcDbLine
 10
-92.33715
 20
103.683117
 30
0.0
 11
-92.24111800000001
 21
100.933115
 31
0.0
  0
LINE
  5
3EE
330
25
100
AcDbEntity
  8
2
100
AcDbLine
 10
-105.305907
 20
102.561532
 30
0.0
 11
-105.206263
 21
99.70808100000001
 31
0.0
  0
LINE
  5
3EF
330
25
100
AcDbEntity
  8
2
100
AcDbLine
 10
-112.673157
 20
98.84272000000001
 30
0.0
 11
-111.642063
 21
97.756173
 31
0.0
  0
ARC
  5
3F0
330
25
100
AcDbEntity
  8
2
100
AcDbCircle
 10
-110.546684
 20
95.04234999999999
 30
0.0
 40
1.0
100
AcDbArc
 50
182.0
 51
272.0
  0
ARC
  5
3F1
330
25
100
AcDbEntity
  8
2
100
AcDbCircle
 10
-106.566571
 20
95.68164299999999
 30
0.0
 40
1.5
100
AcDbArc
 50
272.0
 51
314.00304
  0
ARC
  5
3F2
330
25
100
AcDbEntity
  8
2
100
AcDbCircle
 10
-90.57631699999999
 20
96.240035
 30
0.0
 40
1.5
100
AcDbArc
 50
182.0
 51
272.0
  0
LINE
  5
3F3
330
25
100
AcDbEntity
  8
2
100
AcDbLine
 10
-110.511785
 20
94.04295899999999
 30
0.0
 11
-102.516658
 21
94.32215499999999
 31
0.0
  0
LINE
  5
3F4
330
25
100
AcDbEntity
  8
2
100
AcDbLine
 10
-103.711698
 20
103.285909
 30
0.0
 11
-96.699765
 21
103.530771
 31
0.0
  0
LINE
  5
3F5
330
25
100
AcDbEntity
  8
2
100
AcDbLine
 10
0.740512
 20
87.92188000000001
 30
0.0
 11
0.984809
 21
80.926144
 31
0.0
  0
ARC
  5
3F6
330
25
100
AcDbEntity
  8
2
100
AcDbCircle
 10
-9.253396
 20
87.57288499999999
 30
0.0
 40
10.0
100
AcDbArc
 50
2.0
 51
92.0
  0
ARC
  5
3F7
330
25
100
AcDbEntity
  8
2
100
AcDbCircle
 10
-2.013364
 20
80.821445
 30
0.0
 40
3.0
100
AcDbArc
 50
232.284863
 51
2.0
  0
ARC
  5
3F8
330
25
100
AcDbEntity
  8
2
100
AcDbCircle
 10
-9.965932999999999
 20
70.53764
 30
0.0
 40
10.0
100
AcDbArc
 50
52.284863
 51
123.788331
  0
ARC
  5
3F9
330
25
100
AcDbEntity
  8
2
100
AcDbCircle
 10
-21.08846
 20
87.159595
 30
0.0
 40
10.0
100
AcDbArc
 50
240.211669
 51
303.788331
  0
ARC
  5
3FA
330
25
100
AcDbEntity
  8
2
100
AcDbCircle
 10
-31.024404
 20
69.802262
 30
0.0
 40
10.0
100
AcDbArc
 50
60.21166899999999
 51
123.788331
  0
ARC
  5
3FB
330
25
100
AcDbEntity
  8
2
100
AcDbCircle
 10
-42.146931
 20
86.42421699999998
 30
0.0
 40
10.0
100
AcDbArc
 50
240.211669
 51
303.788331
  0
ARC
  5
3FC
330
25
100
AcDbEntity
  8
2
100
AcDbCircle
 10
-52.082875
 20
69.066884
 30
0.0
 40
10.0
100
AcDbArc
 50
60.21166899999999
 51
123.788331
  0
ARC
  5
3FD
330
25
100
AcDbEntity
  8
2
100
AcDbCircle
 10
-63.20540300000001
 20
85.68883900000001
 30
0.0
 40
10.0
100
AcDbArc
 50
240.211669
 51
303.788331
  0
ARC
  5
3FE
330
25
100
AcDbEntity
  8
2
100
AcDbCircle
 10
-73.141347
 20
68.331506
 30
0.0
 40
10.0
100
AcDbArc
 50
60.21166899999999
 51
117.060909
  0
ARC
  5
3FF
330
25
100
AcDbEntity
  8
2
100
AcDbCircle
 10
-82.240096
 20
86.141974
 30
0.0
 40
10.0
100
AcDbArc
 50
265.0
 51
297.060909
  0
LINE
  5
400
330
25
100
AcDbEntity
  8
2
100
AcDbLine
 10
-111.642063
 20
97.756173
 30
0.0
 11
-111.546075
 21
95.00745
 31
0.0
  0
LINE
  5
401
330
25
100
AcDbEntity
  8
2
100
AcDbLine
 10
-143.651222
 20
101.55295
 30
0.0
 11
-112.673157
 21
98.84272000000001
 31
0.0
  0
LINE
  5
402
330
25
100
AcDbEntity
  8
2
100
AcDbLine
 10
-224.710493
 20
67.65751999999999
 30
0.0
 11
-224.710493
 21
82.486186
 31
0.0
  0
LINE
  5
403
330
25
100
AcDbEntity
  8
2
100
AcDbLine
 10
-162.110493
 20
83.09153
 30
0.0
 11
-162.110493
 21
89.286186
 31
0.0
  0
ARC
  5
404
330
25
100
AcDbEntity
  8
2
100
AcDbCircle
 10
-94.57388100000001
 20
96.100437
 30
0.0
 40
1.5
100
AcDbArc
 50
182.0
 51
272.0
  0
ARC
  5
405
330
25
100
AcDbEntity
  8
2
100
AcDbCircle
 10
-102.569007
 20
95.82124099999999
 30
0.0
 40
1.5
100
AcDbArc
 50
272.0
 51
2.0
  0
LINE
  5
406
330
25
100
AcDbEntity
  8
2
100
AcDbLine
 10
-94.52153199999999
 20
94.601351
 30
0.0
 11
-9.602391
 21
97.56679300000001
 31
0.0
  0
LINE
  5
407
330
25
100
AcDbEntity
  8
2
100
AcDbLine
 10
-264.962539
 20
51.48618599999998
 30
0.0
 11
-264.962539
 21
47.468538
 31
0.0
  0
LINE
  5
408
330
25
100
AcDbEntity
  8
2
100
AcDbLine
 10
-253.703509
 20
53.486186
 30
0.0
 11
-253.703509
 21
67.91598499999999
 31
0.0
  0
LINE
  5
409
330
25
100
AcDbEntity
  8
2
100
AcDbLine
 10
-105.145953
 20
97.98104999999999
 30
0.0
 11
-105.092423
 21
96.44812600000001
 31
0.0
  0
LINE
  5
40A
330
25
100
AcDbEntity
  8
2
100
AcDbLine
 10
-92.18265200000001
 20
99.25888200000001
 30
0.0
 11
-92.075404
 21
96.18768600000001
 31
0.0
  0
LINE
  5
40B
330
25
100
AcDbEntity
  8
2
100
AcDbLine
 10
-352.66327
 20
77.98618600000001
 30
0.0
 11
-356.416046
 21
71.486186
 31
0.0
  0
LINE
  5
40C
330
25
100
AcDbEntity
  8
2
100
AcDbLine
 10
-345.157716
 20
77.98618600000001
 30
0.0
 11
-352.66327
 21
77.98618600000001
 31
0.0
  0
LINE
  5
40D
330
25
100
AcDbEntity
  8
2
100
AcDbLine
 10
-341.404939
 20
71.486186
 30
0.0
 11
-345.157716
 21
77.98618600000001
 31
0.0
  0
LINE
  5
40E
330
25
100
AcDbEntity
  8
2
100
AcDbLine
 10
-345.157716
 20
64.986186
 30
0.0
 11
-341.404939
 21
71.486186
 31
0.0
  0
LINE
  5
40F
330
25
100
AcDbEntity
  8
2
100
AcDbLine
 10
-352.66327
 20
64.986186
 30
0.0
 11
-345.157716
 21
64.986186
 31
0.0
  0
LINE
  5
410
330
25
100
AcDbEntity
  8
2
100
AcDbLine
 10
-356.416046
 20
71.486186
 30
0.0
 11
-352.66327
 21
64.986186
 31
0.0
  0
CIRCLE
  5
411
330
25
100
AcDbEntity
  8
2
100
AcDbCircle
 10
-348.910493
 20
71.486186
 30
0.0
 40
3.375
  0
CIRCLE
  5
412
330
25
100
AcDbEntity
  8
2
100
AcDbCircle
 10
-348.910493
 20
71.486186
 30
0.0
 40
4.0
  0
CIRCLE
  5
413
330
25
100
AcDbEntity
  8
2
100
AcDbCircle
 10
-348.910493
 20
71.486186
 30
0.0
 40
6.5
  0
CIRCLE
  5
414
330
25
100
AcDbEntity
  8
2
100
AcDbCircle
 10
-90.89916999999999
 20
96.40628800000001
 30
0.0
 40
0.8
  0
ARC
  5
415
330
25
100
AcDbEntity
  8
2
100
AcDbCircle
 10
-106.219642
 20
95.20741800000001
 30
0.0
 40
0.8
100
AcDbArc
 50
109.238523
 51
289.238523
  0
ARC
  5
416
330
25
100
AcDbEntity
  8
2
100
AcDbCircle
 10
-91.179126
 20
100.456421
 30
0.0
 40
0.8
100
AcDbArc
 50
289.238523
 51
109.238523
  0
ARC
  5
417
330
25
100
AcDbEntity
  8
2
100
AcDbCircle
 10
-91.61790999999999
 20
104.937413
 30
0.0
 40
0.8
100
AcDbArc
 50
294.198425
 51
114.198425
  0
ARC
  5
418
330
25
100
AcDbEntity
  8
2
100
AcDbCircle
 10
-92.19071599999999
 20
109.399526
 30
0.0
 40
0.8
100
AcDbArc
 50
294.436101
 51
114.436101
  0
ARC
  5
419
330
25
100
AcDbEntity
  8
2
100
AcDbCircle
 10
-107.193445
 20
107.286123
 30
0.0
 40
0.8
100
AcDbArc
 50
115.599226
 51
295.599226
  0
ARC
  5
41A
330
25
100
AcDbEntity
  8
2
100
AcDbCircle
 10
-106.680752
 20
102.815543
 30
0.0
 40
0.8
100
AcDbArc
 50
114.436101
 51
294.436101
  0
ARC
  5
41B
330
25
100
AcDbEntity
  8
2
100
AcDbCircle
 10
-106.342557
 20
98.32038100000001
 30
0.0
 40
0.8
100
AcDbArc
 50
114.198425
 51
294.198425
  0
LINE
  5
41C
330
25
100
AcDbEntity
  8
2
100
AcDbLine
 10
-106.483243
 20
95.96274200000001
 30
0.0
 11
-91.442727
 21
101.211746
 31
0.0
  0
LINE
  5
41D
330
25
100
AcDbEntity
  8
2
100
AcDbLine
 10
-90.915525
 20
99.70109700000001
 30
0.0
 11
-105.95604
 21
94.45209400000001
 31
0.0
  0
LINE
  5
41E
330
25
100
AcDbEntity
  8
2
100
AcDbLine
 10
-91.29071899999999
 20
101.2486
 30
0.0
 11
-92.24742799999999
 21
101.11383
 31
0.0
  0
LINE
  5
41F
330
25
100
AcDbEntity
  8
2
100
AcDbLine
 10
-106.670476
 20
99.050086
 30
0.0
 11
-91.945828
 21
105.667119
 31
0.0
  0
LINE
  5
420
330
25
100
AcDbEntity
  8
2
100
AcDbLine
 10
-91.28999099999999
 20
104.207708
 30
0.0
 11
-106.014639
 21
97.59067600000001
 31
0.0
  0
LINE
  5
421
330
25
100
AcDbEntity
  8
2
100
AcDbLine
 10
-107.011694
 20
103.543881
 30
0.0
 11
-92.52165899999999
 21
110.127864
 31
0.0
  0
LINE
  5
422
330
25
100
AcDbEntity
  8
2
100
AcDbLine
 10
-91.859774
 20
108.671187
 30
0.0
 11
-106.349809
 21
102.087204
 31
0.0
  0
LINE
  5
423
330
25
100
AcDbEntity
  8
2
100
AcDbLine
 10
-107.539104
 20
108.007594
 30
0.0
 11
-100.172566
 21
111.536925
 31
0.0
  0
LINE
  5
424
330
25
100
AcDbEntity
  8
2
100
AcDbLine
 10
-93.280197
 20
113.064926
 30
0.0
 11
-106.847786
 21
106.564652
 31
0.0
  0
LINE
  5
425
330
25
100
AcDbEntity
  8
2
100
AcDbLine
 10
-91.729502
 20
105.729592
 30
0.0
 11
-101.301022
 21
104.381272
 31
0.0
  0
LINE
  5
426
330
25
100
AcDbEntity
  8
2
100
AcDbLine
 10
-105.29339
 20
102.203079
 30
0.0
 11
-106.569159
 21
102.023364
 31
0.0
  0
LINE
  5
427
330
25
100
AcDbEntity
  8
2
100
AcDbLine
 10
-97.570446
 20
107.833796
 30
0.0
 11
-107.081852
 21
106.493944
 31
0.0
  0
LINE
  5
428
330
25
100
AcDbEntity
  8
2
100
AcDbLine
 10
-102.182212
 20
108.799943
 30
0.0
 11
-92.302309
 21
110.191705
 31
0.0
  0
LINE
  5
429
330
25
100
AcDbEntity
  8
2
100
AcDbLine
 10
-92.10775700000001
 20
97.114159
 30
0.0
 11
-90.96158200000001
 21
97.20385
 31
0.0
  0
LINE
  5
42A
330
25
100
AcDbEntity
  8
2
100
AcDbLine
 10
-105.135528
 20
97.682514
 30
0.0
 11
-106.230965
 21
97.52820200000002
 31
0.0
  0
LINE
  5
42B
330
25
100
AcDbEntity
  8
2
100
AcDbLine
 10
-91.89599300000001
 20
95.52697399999999
 30
0.0
 11
-90.861548
 21
95.60792300000001
 31
0.0
  0
LINE
  5
42C
330
25
100
AcDbEntity
  8
2
100
AcDbLine
 10
-374.961166
 20
74.110528
 30
0.0
 11
-395.93365
 21
68.542085
 31
0.0
  0
LINE
  5
42D
330
25
100
AcDbEntity
  8
2
100
AcDbLine
 10
-426.4106469999998
 20
53.486186
 30
0.0
 11
-426.4106469999998
 21
51.48618599999998
 31
0.0
  0
LINE
  5
42E
330
25
100
AcDbEntity
  8
2
100
AcDbLine
 10
-246.410647
 20
53.486186
 30
0.0
 11
-426.4106469999998
 21
53.486186
 31
0.0
  0
LINE
  5
42F
330
25
100
AcDbEntity
  8
2
100
AcDbLine
 10
-246.410647
 20
51.48618599999998
 30
0.0
 11
-426.4106469999998
 21
51.48618599999998
 31
0.0
  0
LINE
  5
430
330
25
100
AcDbEntity
  8
2
100
AcDbLine
 10
-266.426413
 20
53.486186
 30
0.0
 11
-266.426413
 21
51.48618599999998
 31
0.0
  0
LINE
  5
431
330
25
100
AcDbEntity
  8
2
100
AcDbLine
 10
-246.410647
 20
53.486186
 30
0.0
 11
-246.410647
 21
51.48618599999998
 31
0.0
  0
ARC
  5
432
330
25
100
AcDbEntity
  8
2
  6
CENTER
 62
     4
370
    13
100
AcDbCircle
 10
-188.910493
 20
98.48618600000001
 30
0.0
 40
90.24006300000001
100
AcDbArc
 50
353.346477
 51
18.285602
  0
LINE
  5
433
330
25
100
AcDbEntity
  8
2
  6
CENTER
 62
     4
370
    13
100
AcDbLine
 10
-188.910493
 20
110.569326
 30
0.0
 11
-188.910493
 21
76.86329599999997
 31
0.0
  0
LINE
  5
434
330
25
100
AcDbEntity
  8
2
  6
CENTER
 62
     4
370
    13
100
AcDbLine
 10
-359.695078
 20
71.486186
 30
0.0
 11
-337.733632
 21
71.486186
 31
0.0
  0
LINE
  5
435
330
25
100
AcDbEntity
  8
2
  6
CENTER
 62
     4
370
    13
100
AcDbLine
 10
-177.833742
 20
98.48618600000001
 30
0.0
 11
-199.930152
 21
98.48618600000001
 31
0.0
  0
CIRCLE
  5
436
330
25
100
AcDbEntity
  8
2
100
AcDbCircle
 10
-188.910493
 20
98.48618600000001
 30
0.0
 40
2.0
  0
LINE
  5
437
330
25
100
AcDbEntity
  8
2
100
AcDbLine
 10
-337.910493
 20
77.63895600000002
 30
0.0
 11
-337.910493
 21
63.486186
 31
0.0
  0
ARC
  5
438
330
25
100
AcDbEntity
  8
2
100
AcDbCircle
 10
-331.910493
 20
77.63895600000002
 30
0.0
 40
6.0
100
AcDbArc
 50
135.03921
 51
180.0
  0
ARC
  5
439
330
25
100
AcDbEntity
  8
2
100
AcDbCircle
 10
-322.96877
 20
68.70946299999999
 30
0.0
 40
18.636861
100
AcDbArc
 50
108.5913129999999
 51
135.03921
  0
POINT
  5
43A
330
25
100
AcDbEntity
  8
2
100
AcDbPoint
 10
-312.848047
 20
37.486186
 30
0.0
  0
LINE
  5
43B
330
25
100
AcDbEntity
  8
2
100
AcDbLine
 10
-312.848047
 20
34.986186
 30
0.0
 11
-303.048047
 21
34.986186
 31
0.0
  0
LINE
  5
43C
330
25
100
AcDbEntity
  8
2
100
AcDbLine
 10
-303.048047
 20
34.986186
 30
0.0
 11
-303.048047
 21
27.881079
 31
0.0
  0
LINE
  5
43D
330
25
100
AcDbEntity
  8
2
100
AcDbLine
 10
-303.048047
 20
27.881079
 30
0.0
 11
-304.598047
 21
26.986186
 31
0.0
  0
LINE
  5
43E
330
25
100
AcDbEntity
  8
2
100
AcDbLine
 10
-304.598047
 20
26.986186
 30
0.0
 11
-312.848047
 21
26.986186
 31
0.0
  0
LINE
  5
43F
330
25
100
AcDbEntity
  8
2
100
AcDbLine
 10
-307.948047
 20
34.986186
 30
0.0
 11
-307.948047
 21
27.881079
 31
0.0
  0
ARC
  5
440
330
25
100
AcDbEntity
  8
2
100
AcDbCircle
 10
-305.498047
 20
31.030637
 30
0.0
 40
3.990264999999998
100
AcDbArc
 50
232.121121
 51
307.878879
  0
ARC
  5
441
330
25
100
AcDbEntity
  8
2
100
AcDbCircle
 10
-312.848047
 20
41.74037199999999
 30
0.0
 40
14.7
100
AcDbArc
 50
270.0
 51
289.471221
  0
LINE
  5
442
330
25
100
AcDbEntity
  8
2
100
AcDbLine
 10
-312.848047
 20
34.986186
 30
0.0
 11
-322.648047
 21
34.986186
 31
0.0
  0
LINE
  5
443
330
25
100
AcDbEntity
  8
2
100
AcDbLine
 10
-322.648047
 20
34.986186
 30
0.0
 11
-322.648047
 21
27.881079
 31
0.0
  0
LINE
  5
444
330
25
100
AcDbEntity
  8
2
100
AcDbLine
 10
-322.648047
 20
27.881079
 30
0.0
 11
-321.098047
 21
26.986186
 31
0.0
  0
LINE
  5
445
330
25
100
AcDbEntity
  8
2
100
AcDbLine
 10
-321.098047
 20
26.986186
 30
0.0
 11
-312.848047
 21
26.986186
 31
0.0
  0
LINE
  5
446
330
25
100
AcDbEntity
  8
2
100
AcDbLine
 10
-317.748047
 20
34.986186
 30
0.0
 11
-317.748047
 21
27.881079
 31
0.0
  0
ARC
  5
447
330
25
100
AcDbEntity
  8
2
100
AcDbCircle
 10
-320.198047
 20
31.030637
 30
0.0
 40
3.990264999999998
100
AcDbArc
 50
232.121121
 51
307.878879
  0
ARC
  5
448
330
25
100
AcDbEntity
  8
2
100
AcDbCircle
 10
-312.848047
 20
41.74037199999999
 30
0.0
 40
14.7
100
AcDbArc
 50
250.528779
 51
270.0
  0
LINE
  5
449
330
25
100
AcDbEntity
  8
2
100
AcDbLine
 10
-303.648047
 20
37.486186
 30
0.0
 11
-303.648047
 21
34.986186
 31
0.0
  0
LINE
  5
44A
330
25
100
AcDbEntity
  8
2
100
AcDbLine
 10
-303.648047
 20
34.986186
 30
0.0
 11
-322.048047
 21
34.986186
 31
0.0
  0
LINE
  5
44B
330
25
100
AcDbEntity
  8
2
100
AcDbLine
 10
-322.048047
 20
34.986186
 30
0.0
 11
-322.048047
 21
37.486186
 31
0.0
  0
LINE
  5
44C
330
25
100
AcDbEntity
  8
2
100
AcDbLine
 10
-322.048047
 20
37.486186
 30
0.0
 11
-303.648047
 21
37.486186
 31
0.0
  0
LINE
  5
44D
330
25
100
AcDbEntity
  8
2
100
AcDbLine
 10
-312.848047
 20
34.986186
 30
0.0
 11
-313.348047
 21
37.486186
 31
0.0
  0
LINE
  5
44E
330
25
100
AcDbEntity
  8
2
100
AcDbLine
 10
-312.848047
 20
37.486186
 30
0.0
 11
-312.348047
 21
34.986186
 31
0.0
  0
POINT
  5
44F
330
25
100
AcDbEntity
  8
2
100
AcDbPoint
 10
-312.848047
 20
53.486186
 30
0.0
  0
LINE
  5
450
330
25
100
AcDbEntity
  8
2
  6
CENTER
 62
     4
370
    13
100
AcDbLine
 10
-312.848047
 20
21.614241
 30
0.0
 11
-312.848047
 21
62.077735
 31
0.0
  0
LINE
  5
451
330
25
100
AcDbEntity
  8
2
100
AcDbLine
 10
-312.848047
 20
53.486186
 30
0.0
 11
-322.648047
 21
53.486186
 31
0.0
  0
LINE
  5
452
330
25
100
AcDbEntity
  8
2
100
AcDbLine
 10
-322.648047
 20
53.486186
 30
0.0
 11
-322.648047
 21
59.591293
 31
0.0
  0
LINE
  5
453
330
25
100
AcDbEntity
  8
2
100
AcDbLine
 10
-322.648047
 20
59.591293
 30
0.0
 11
-321.098047
 21
60.486186
 31
0.0
  0
LINE
  5
454
330
25
100
AcDbEntity
  8
2
100
AcDbLine
 10
-321.098047
 20
60.486186
 30
0.0
 11
-312.848047
 21
60.486186
 31
0.0
  0
LINE
  5
455
330
25
100
AcDbEntity
  8
2
100
AcDbLine
 10
-317.748047
 20
53.486186
 30
0.0
 11
-317.748047
 21
59.591293
 31
0.0
  0
ARC
  5
456
330
25
100
AcDbEntity
  8
2
100
AcDbCircle
 10
-320.198047
 20
56.44173499999999
 30
0.0
 40
3.990264999999998
100
AcDbArc
 50
52.121121
 51
127.878879
  0
ARC
  5
457
330
25
100
AcDbEntity
  8
2
100
AcDbCircle
 10
-312.848047
 20
45.73199999999999
 30
0.0
 40
14.7
100
AcDbArc
 50
90.0
 51
109.471221
  0
LINE
  5
458
330
25
100
AcDbEntity
  8
2
100
AcDbLine
 10
-312.848047
 20
53.486186
 30
0.0
 11
-303.048047
 21
53.486186
 31
0.0
  0
LINE
  5
459
330
25
100
AcDbEntity
  8
2
100
AcDbLine
 10
-303.048047
 20
53.486186
 30
0.0
 11
-303.048047
 21
59.591293
 31
0.0
  0
LINE
  5
45A
330
25
100
AcDbEntity
  8
2
100
AcDbLine
 10
-303.048047
 20
59.591293
 30
0.0
 11
-304.598047
 21
60.486186
 31
0.0
  0
LINE
  5
45B
330
25
100
AcDbEntity
  8
2
100
AcDbLine
 10
-304.598047
 20
60.486186
 30
0.0
 11
-312.848047
 21
60.486186
 31
0.0
  0
LINE
  5
45C
330
25
100
AcDbEntity
  8
2
100
AcDbLine
 10
-307.948047
 20
53.486186
 30
0.0
 11
-307.948047
 21
59.591293
 31
0.0
  0
ARC
  5
45D
330
25
100
AcDbEntity
  8
2
100
AcDbCircle
 10
-305.498047
 20
56.44173499999999
 30
0.0
 40
3.990264999999998
100
AcDbArc
 50
52.121121
 51
127.878879
  0
ARC
  5
45E
330
25
100
AcDbEntity
  8
2
100
AcDbCircle
 10
-312.848047
 20
45.73199999999999
 30
0.0
 40
14.7
100
AcDbArc
 50
70.528779
 51
90.0
  0
POINT
  5
45F
330
25
100
AcDbEntity
  8
2
100
AcDbPoint
 10
-384.972939
 20
37.486186
 30
0.0
  0
LINE
  5
460
330
25
100
AcDbEntity
  8
2
100
AcDbLine
 10
-376.722939
 20
26.986186
 30
0.0
 11
-384.972939
 21
26.986186
 31
0.0
  0
LINE
  5
461
330
25
100
AcDbEntity
  8
2
100
AcDbLine
 10
-380.072939
 20
34.899472
 30
0.0
 11
-380.072939
 21
27.881079
 31
0.0
  0
ARC
  5
462
330
25
100
AcDbEntity
  8
2
100
AcDbCircle
 10
-377.6229390000001
 20
31.030637
 30
0.0
 40
3.990264999999998
100
AcDbArc
 50
232.121121
 51
307.878879
  0
ARC
  5
463
330
25
100
AcDbEntity
  8
2
100
AcDbCircle
 10
-384.972939
 20
41.74037199999999
 30
0.0
 40
14.7
100
AcDbArc
 50
270.0
 51
289.471221
  0
LINE
  5
464
330
25
100
AcDbEntity
  8
2
100
AcDbLine
 10
-394.772939
 20
34.986186
 30
0.0
 11
-394.772939
 21
27.881079
 31
0.0
  0
LINE
  5
465
330
25
100
AcDbEntity
  8
2
100
AcDbLine
 10
-394.772939
 20
27.881079
 30
0.0
 11
-393.222939
 21
26.986186
 31
0.0
  0
LINE
  5
466
330
25
100
AcDbEntity
  8
2
100
AcDbLine
 10
-393.222939
 20
26.986186
 30
0.0
 11
-384.972939
 21
26.986186
 31
0.0
  0
LINE
  5
467
330
25
100
AcDbEntity
  8
2
100
AcDbLine
 10
-389.872939
 20
34.986186
 30
0.0
 11
-389.872939
 21
27.881079
 31
0.0
  0
ARC
  5
468
330
25
100
AcDbEntity
  8
2
100
AcDbCircle
 10
-392.322939
 20
31.030637
 30
0.0
 40
3.990264999999998
100
AcDbArc
 50
232.121121
 51
307.878879
  0
ARC
  5
469
330
25
100
AcDbEntity
  8
2
100
AcDbCircle
 10
-384.972939
 20
41.74037199999999
 30
0.0
 40
14.7
100
AcDbArc
 50
250.528779
 51
270.0
  0
LINE
  5
46A
330
25
100
AcDbEntity
  8
2
100
AcDbLine
 10
-380.228034
 20
34.986186
 30
0.0
 11
-394.772939
 21
34.986186
 31
0.0
  0
LINE
  5
46B
330
25
100
AcDbEntity
  8
2
100
AcDbLine
 10
-394.172939
 20
34.986186
 30
0.0
 11
-394.172939
 21
37.486186
 31
0.0
  0
LINE
  5
46C
330
25
100
AcDbEntity
  8
2
100
AcDbLine
 10
-394.172939
 20
37.486186
 30
0.0
 11
-375.772939
 21
37.486186
 31
0.0
  0
POINT
  5
46D
330
25
100
AcDbEntity
  8
2
100
AcDbPoint
 10
-384.972939
 20
53.486186
 30
0.0
  0
LINE
  5
46E
330
25
100
AcDbEntity
  8
2
  6
CENTER
 62
     4
370
    13
100
AcDbLine
 10
-384.972939
 20
21.614241
 30
0.0
 11
-384.972939
 21
62.077735
 31
0.0
  0
LINE
  5
46F
330
25
100
AcDbEntity
  8
2
100
AcDbLine
 10
-384.972939
 20
53.486186
 30
0.0
 11
-394.772939
 21
53.486186
 31
0.0
  0
LINE
  5
470
330
25
100
AcDbEntity
  8
2
100
AcDbLine
 10
-394.772939
 20
53.486186
 30
0.0
 11
-394.772939
 21
59.591293
 31
0.0
  0
LINE
  5
471
330
25
100
AcDbEntity
  8
2
100
AcDbLine
 10
-394.772939
 20
59.591293
 30
0.0
 11
-393.222939
 21
60.486186
 31
0.0
  0
LINE
  5
472
330
25
100
AcDbEntity
  8
2
100
AcDbLine
 10
-393.222939
 20
60.486186
 30
0.0
 11
-384.972939
 21
60.486186
 31
0.0
  0
LINE
  5
473
330
25
100
AcDbEntity
  8
2
100
AcDbLine
 10
-389.872939
 20
53.486186
 30
0.0
 11
-389.872939
 21
59.591293
 31
0.0
  0
ARC
  5
474
330
25
100
AcDbEntity
  8
2
100
AcDbCircle
 10
-392.322939
 20
56.44173499999999
 30
0.0
 40
3.990264999999998
100
AcDbArc
 50
52.121121
 51
127.878879
  0
ARC
  5
475
330
25
100
AcDbEntity
  8
2
100
AcDbCircle
 10
-384.972939
 20
45.73199999999999
 30
0.0
 40
14.7
100
AcDbArc
 50
90.0
 51
109.471221
  0
LINE
  5
476
330
25
100
AcDbEntity
  8
2
100
AcDbLine
 10
-384.972939
 20
53.486186
 30
0.0
 11
-375.172939
 21
53.486186
 31
0.0
  0
LINE
  5
477
330
25
100
AcDbEntity
  8
2
100
AcDbLine
 10
-375.172939
 20
53.486186
 30
0.0
 11
-375.172939
 21
59.591293
 31
0.0
  0
LINE
  5
478
330
25
100
AcDbEntity
  8
2
100
AcDbLine
 10
-375.172939
 20
59.591293
 30
0.0
 11
-376.722939
 21
60.486186
 31
0.0
  0
LINE
  5
479
330
25
100
AcDbEntity
  8
2
100
AcDbLine
 10
-376.722939
 20
60.486186
 30
0.0
 11
-384.972939
 21
60.486186
 31
0.0
  0
LINE
  5
47A
330
25
100
AcDbEntity
  8
2
100
AcDbLine
 10
-380.072939
 20
53.486186
 30
0.0
 11
-380.072939
 21
59.591293
 31
0.0
  0
ARC
  5
47B
330
25
100
AcDbEntity
  8
2
100
AcDbCircle
 10
-377.6229390000001
 20
56.44173499999999
 30
0.0
 40
3.990264999999998
100
AcDbArc
 50
52.121121
 51
127.878879
  0
ARC
  5
47C
330
25
100
AcDbEntity
  8
2
100
AcDbCircle
 10
-384.972939
 20
45.73199999999999
 30
0.0
 40
14.7
100
AcDbArc
 50
70.528779
 51
90.0
  0
LINE
  5
47D
330
25
100
AcDbEntity
  8
2
100
AcDbLine
 10
135.789507
 20
66.477908
 30
0.0
 11
137.465927
 21
66.64735
 31
0.0
  0
LINE
  5
47E
330
25
100
AcDbEntity
  8
2
100
AcDbLine
 10
137.465927
 20
66.64735
 30
0.0
 11
139.354978
 21
66.918091
 31
0.0
  0
LINE
  5
47F
330
25
100
AcDbEntity
  8
2
100
AcDbLine
 10
139.354978
 20
66.918091
 30
0.0
 11
141.025476
 21
67.24472699999999
 31
0.0
  0
LINE
  5
480
330
25
100
AcDbEntity
  8
2
100
AcDbLine
 10
141.025476
 20
67.24472699999999
 30
0.0
 11
142.439252
 21
67.619793
 31
0.0
  0
LINE
  5
481
330
25
100
AcDbEntity
  8
2
100
AcDbLine
 10
142.439252
 20
67.619793
 30
0.0
 11
143.564005
 21
68.03472099999999
 31
0.0
  0
LINE
  5
482
330
25
100
AcDbEntity
  8
2
100
AcDbLine
 10
143.564005
 20
68.03472099999999
 30
0.0
 11
144.374035
 21
68.480029
 31
0.0
  0
LINE
  5
483
330
25
100
AcDbEntity
  8
2
100
AcDbLine
 10
144.374035
 20
68.480029
 30
0.0
 11
144.850836
 21
68.945544
 31
0.0
  0
LINE
  5
484
330
25
100
AcDbEntity
  8
2
100
AcDbLine
 10
144.850836
 20
68.945544
 30
0.0
 11
144.985936
 21
69.36440999999999
 31
0.0
  0
LINE
  5
485
330
25
100
AcDbEntity
  8
2
100
AcDbLine
 10
130.5638
 20
123.680638
 30
0.0
 11
129.789507
 21
123.700088
 31
0.0
  0
LINE
  5
486
330
25
100
AcDbEntity
  8
2
100
AcDbLine
 10
135.289507
 20
122.650639
 30
0.0
 11
135.102099
 21
122.922256
 31
0.0
  0
LINE
  5
487
330
25
100
AcDbEntity
  8
2
100
AcDbLine
 10
135.102099
 20
122.379021
 30
0.0
 11
135.289507
 21
122.650639
 31
0.0
  0
LINE
  5
488
330
25
100
AcDbEntity
  8
2
100
AcDbLine
 10
134.552647
 20
122.125914
 30
0.0
 11
135.102099
 21
122.379021
 31
0.0
  0
LINE
  5
489
330
25
100
AcDbEntity
  8
2
100
AcDbLine
 10
133.678594
 20
121.908566
 30
0.0
 11
134.552647
 21
122.125914
 31
0.0
  0
LINE
  5
48A
330
25
100
AcDbEntity
  8
2
100
AcDbLine
 10
132.539507
 20
121.741789
 30
0.0
 11
133.678594
 21
121.908566
 31
0.0
  0
LINE
  5
48B
330
25
100
AcDbEntity
  8
2
100
AcDbLine
 10
131.213012
 20
121.636949
 30
0.0
 11
132.539507
 21
121.741789
 31
0.0
  0
LINE
  5
48C
330
25
100
AcDbEntity
  8
2
100
AcDbLine
 10
129.789507
 20
121.601189
 30
0.0
 11
131.213012
 21
121.636949
 31
0.0
  0
LINE
  5
48D
330
25
100
AcDbEntity
  8
2
100
AcDbLine
 10
128.366002
 20
121.636949
 30
0.0
 11
129.789507
 21
121.601189
 31
0.0
  0
LINE
  5
48E
330
25
100
AcDbEntity
  8
2
100
AcDbLine
 10
124.289507
 20
122.650639
 30
0.0
 11
124.378351
 21
122.521874
 31
0.0
  0
LINE
  5
48F
330
25
100
AcDbEntity
  8
2
100
AcDbLine
 10
124.476915
 20
122.922256
 30
0.0
 11
124.289507
 21
122.650639
 31
0.0
  0
LINE
  5
490
330
25
100
AcDbEntity
  8
2
100
AcDbLine
 10
125.026367
 20
123.175364
 30
0.0
 11
124.476915
 21
122.922256
 31
0.0
  0
LINE
  5
491
330
25
100
AcDbEntity
  8
2
100
AcDbLine
 10
125.90042
 20
123.392712
 30
0.0
 11
125.026367
 21
123.175364
 31
0.0
  0
LINE
  5
492
330
25
100
AcDbEntity
  8
2
100
AcDbLine
 10
127.039507
 20
123.559489
 30
0.0
 11
125.90042
 21
123.392712
 31
0.0
  0
LINE
  5
493
330
25
100
AcDbEntity
  8
2
100
AcDbLine
 10
128.366002
 20
123.664329
 30
0.0
 11
127.039507
 21
123.559489
 31
0.0
  0
LINE
  5
494
330
25
100
AcDbEntity
  8
2
100
AcDbLine
 10
129.789507
 20
123.700088
 30
0.0
 11
128.366002
 21
123.664329
 31
0.0
  0
LINE
  5
495
330
25
100
AcDbEntity
  8
2
100
AcDbLine
 10
122.952925
 20
131.808816
 30
0.0
 11
122.939986
 21
131.815437
 31
0.0
  0
LINE
  5
496
330
25
100
AcDbEntity
  8
2
100
AcDbLine
 10
122.939986
 20
131.815437
 30
0.0
 11
123.080854
 21
131.66372
 31
0.0
  0
LINE
  5
497
330
25
100
AcDbEntity
  8
2
100
AcDbLine
 10
123.080854
 20
131.66372
 30
0.0
 11
123.289507
 21
131.187199
 31
0.0
  0
LINE
  5
498
330
25
100
AcDbEntity
  8
2
100
AcDbLine
 10
147.947205
 20
106.499911
 30
0.0
 11
147.6867969999999
 21
106.517639
 31
0.0
  0
LINE
  5
499
330
25
100
AcDbEntity
  8
2
100
AcDbLine
 10
147.6867969999999
 20
106.517639
 30
0.0
 11
147.3939969999999
 21
106.645928
 31
0.0
  0
LINE
  5
49A
330
25
100
AcDbEntity
  8
2
100
AcDbLine
 10
147.3939969999999
 20
106.645928
 30
0.0
 11
147.197362
 21
106.813003
 31
0.0
  0
LINE
  5
49B
330
25
100
AcDbEntity
  8
2
100
AcDbLine
 10
147.197362
 20
106.813003
 30
0.0
 11
147.075679
 21
106.979333
 31
0.0
  0
LINE
  5
49C
330
25
100
AcDbEntity
  8
2
100
AcDbLine
 10
147.075679
 20
106.979333
 30
0.0
 11
147.014139
 21
107.105368
 31
0.0
  0
LINE
  5
49D
330
25
100
AcDbEntity
  8
2
100
AcDbLine
 10
147.014139
 20
107.105368
 30
0.0
 11
146.985909
 21
107.186541
 31
0.0
  0
LINE
  5
49E
330
25
100
AcDbEntity
  8
2
100
AcDbLine
 10
146.985909
 20
107.186541
 30
0.0
 11
146.971221
 21
107.243633
 31
0.0
  0
LINE
  5
49F
330
25
100
AcDbEntity
  8
2
100
AcDbLine
 10
146.971221
 20
107.243633
 30
0.0
 11
146.965313
 21
107.274805
 31
0.0
  0
LINE
  5
4A0
330
25
100
AcDbEntity
  8
2
100
AcDbLine
 10
146.965313
 20
107.274805
 30
0.0
 11
146.965704
 21
107.27106
 31
0.0
  0
ARC
  5
4A1
330
25
100
AcDbEntity
  8
2
100
AcDbCircle
 10
148.789507
 20
105.486186
 30
0.0
 40
1.0
100
AcDbArc
 50
0.0
 51
90.0
  0
LINE
  5
4A2
330
25
100
AcDbEntity
  8
2
100
AcDbLine
 10
148.789507
 20
106.486186
 30
0.0
 11
147.935257
 21
106.486186
 31
0.0
  0
LINE
  5
4A3
330
25
100
AcDbEntity
  8
2
100
AcDbLine
 10
142.202094
 20
100.908257
 30
0.0
 11
142.148042
 21
102.175394
 31
0.0
  0
LINE
  5
4A4
330
25
100
AcDbEntity
  8
2
100
AcDbLine
 10
142.148042
 20
102.175394
 30
0.0
 11
142.092515
 21
103.223585
 31
0.0
  0
LINE
  5
4A5
330
25
100
AcDbEntity
  8
2
100
AcDbLine
 10
142.092515
 20
103.223585
 30
0.0
 11
142.035795
 21
104.047499
 31
0.0
  0
LINE
  5
4A6
330
25
100
AcDbEntity
  8
2
100
AcDbLine
 10
142.054345
 20
103.856569
 30
0.0
 11
142.038865
 21
103.967198
 31
0.0
  0
LINE
  5
4A7
330
25
100
AcDbEntity
  8
2
100
AcDbLine
 10
146.908078
 20
108.033459
 30
0.0
 11
146.932289
 21
107.484482
 31
0.0
  0
LINE
  5
4A8
330
25
100
AcDbEntity
  8
2
100
AcDbLine
 10
141.22363
 20
114.086637
 30
0.0
 11
141.206701
 21
114.084137
 31
0.0
  0
LINE
  5
4A9
330
25
100
AcDbEntity
  8
2
100
AcDbLine
 10
137.904795
 20
112.923155
 30
0.0
 11
137.872909
 21
112.828759
 31
0.0
  0
LINE
  5
4AA
330
25
100
AcDbEntity
  8
2
100
AcDbLine
 10
146.968812
 20
107.252997
 30
0.0
 11
146.9664
 21
107.292725
 31
0.0
  0
LINE
  5
4AB
330
25
100
AcDbEntity
  8
2
100
AcDbLine
 10
146.9664
 20
107.292725
 30
0.0
 11
146.932289
 21
107.484482
 31
0.0
  0
LINE
  5
4AC
330
25
100
AcDbEntity
  8
2
100
AcDbLine
 10
149.735298
 20
77.263237
 30
0.0
 11
149.245305
 21
82.596103
 31
0.0
  0
LINE
  5
4AD
330
25
100
AcDbEntity
  8
2
100
AcDbLine
 10
148.789507
 20
82.486186
 30
0.0
 11
138.789507
 21
82.486186
 31
0.0
  0
ARC
  5
4AE
330
25
100
AcDbEntity
  8
2
100
AcDbCircle
 10
138.789507
 20
83.486186
 30
0.0
 40
1.0
100
AcDbArc
 50
180.0
 51
270.0
  0
LINE
  5
4AF
330
25
100
AcDbEntity
  8
2
100
AcDbLine
 10
137.789507
 20
83.486186
 30
0.0
 11
137.789507
 21
94.132051
 31
0.0
  0
ARC
  5
4B0
330
25
100
AcDbEntity
  8
2
100
AcDbCircle
 10
148.789507
 20
83.486186
 30
0.0
 40
1.0
100
AcDbArc
 50
270.0
 51
360.0
  0
LINE
  5
4B1
330
25
100
AcDbEntity
  8
2
100
AcDbLine
 10
149.789507
 20
98.48618600000001
 30
0.0
 11
149.789507
 21
83.486186
 31
0.0
  0
LINE
  5
4B2
330
25
100
AcDbEntity
  8
2
100
AcDbLine
 10
146.774677
 20
83.486186
 30
0.0
 11
146.774677
 21
98.48618600000001
 31
0.0
  0
LINE
  5
4B3
330
25
100
AcDbEntity
  8
2
100
AcDbLine
 10
139.546866
 20
97.594211
 30
0.0
 11
140.445691
 21
98.169356
 31
0.0
  0
LINE
  5
4B4
330
25
100
AcDbEntity
  8
2
100
AcDbLine
 10
137.902456
 20
95.368539
 30
0.0
 11
138.286723
 21
96.536223
 31
0.0
  0
LINE
  5
4B5
330
25
100
AcDbEntity
  8
2
100
AcDbLine
 10
138.286723
 20
96.536223
 30
0.0
 11
139.546866
 21
97.594211
 31
0.0
  0
LINE
  5
4B6
330
25
100
AcDbEntity
  8
2
100
AcDbLine
 10
146.774677
 20
83.486186
 30
0.0
 11
146.755465
 21
83.291096
 31
0.0
  0
LINE
  5
4B7
330
25
100
AcDbEntity
  8
2
100
AcDbLine
 10
146.755465
 20
83.291096
 30
0.0
 11
146.698569
 21
83.10350300000001
 31
0.0
  0
LINE
  5
4B8
330
25
100
AcDbEntity
  8
2
100
AcDbLine
 10
146.698569
 20
83.10350300000001
 30
0.0
 11
146.606173
 21
82.93061599999999
 31
0.0
  0
LINE
  5
4B9
330
25
100
AcDbEntity
  8
2
100
AcDbLine
 10
146.606173
 20
82.93061599999999
 30
0.0
 11
146.48183
 21
82.779079
 31
0.0
  0
LINE
  5
4BA
330
25
100
AcDbEntity
  8
2
100
AcDbLine
 10
146.48183
 20
82.779079
 30
0.0
 11
146.330318
 21
82.65471600000003
 31
0.0
  0
LINE
  5
4BB
330
25
100
AcDbEntity
  8
2
100
AcDbLine
 10
146.330318
 20
82.65471600000003
 30
0.0
 11
146.157459
 21
82.56230699999997
 31
0.0
  0
LINE
  5
4BC
330
25
100
AcDbEntity
  8
2
100
AcDbLine
 10
146.157459
 20
82.56230699999997
 30
0.0
 11
145.969896
 21
82.505401
 31
0.0
  0
LINE
  5
4BD
330
25
100
AcDbEntity
  8
2
100
AcDbLine
 10
145.969896
 20
82.505401
 30
0.0
 11
145.774836
 21
82.486186
 31
0.0
  0
LINE
  5
4BE
330
25
100
AcDbEntity
  8
2
100
AcDbLine
 10
149.786318
 20
76.422481
 30
0.0
 11
149.785839
 21
76.43832900000003
 31
0.0
  0
LINE
  5
4BF
330
25
100
AcDbEntity
  8
2
100
AcDbLine
 10
149.785839
 20
76.43832900000003
 30
0.0
 11
149.752328
 21
76.913647
 31
0.0
  0
LINE
  5
4C0
330
25
100
AcDbEntity
  8
2
100
AcDbLine
 10
149.660689
 20
78.07524599999998
 30
0.0
 11
149.702095
 21
77.867187
 31
0.0
  0
LINE
  5
4C1
330
25
100
AcDbEntity
  8
2
100
AcDbLine
 10
149.702095
 20
77.867187
 30
0.0
 11
149.785936
 21
76.44237
 31
0.0
  0
LINE
  5
4C2
330
25
100
AcDbEntity
  8
2
100
AcDbLine
 10
149.785936
 20
76.44237
 30
0.0
 11
149.786318
 21
76.422481
 31
0.0
  0
LINE
  5
4C3
330
25
100
AcDbEntity
  8
2
100
AcDbLine
 10
149.789507
 20
105.486186
 30
0.0
 11
149.789507
 21
98.48618600000001
 31
0.0
  0
LINE
  5
4C4
330
25
100
AcDbEntity
  8
2
100
AcDbLine
 10
146.774677
 20
98.48618600000001
 30
0.0
 11
146.77769
 21
100.22052
 31
0.0
  0
LINE
  5
4C5
330
25
100
AcDbEntity
  8
2
100
AcDbLine
 10
146.77769
 20
100.22052
 30
0.0
 11
146.786615
 21
101.889842
 31
0.0
  0
LINE
  5
4C6
330
25
100
AcDbEntity
  8
2
100
AcDbLine
 10
146.786615
 20
101.889842
 30
0.0
 11
146.801118
 21
103.431573
 31
0.0
  0
LINE
  5
4C7
330
25
100
AcDbEntity
  8
2
100
AcDbLine
 10
146.801118
 20
103.431573
 30
0.0
 11
146.820656
 21
104.787921
 31
0.0
  0
LINE
  5
4C8
330
25
100
AcDbEntity
  8
2
100
AcDbLine
 10
146.820656
 20
104.787921
 30
0.0
 11
146.844496
 21
105.908042
 31
0.0
  0
LINE
  5
4C9
330
25
100
AcDbEntity
  8
2
100
AcDbLine
 10
146.844496
 20
105.908042
 30
0.0
 11
146.871743
 21
106.749947
 31
0.0
  0
LINE
  5
4CA
330
25
100
AcDbEntity
  8
2
100
AcDbLine
 10
146.871743
 20
106.749947
 30
0.0
 11
146.901378
 21
107.282076
 31
0.0
  0
LINE
  5
4CB
330
25
100
AcDbEntity
  8
2
100
AcDbLine
 10
146.901378
 20
107.282076
 30
0.0
 11
146.932289
 21
107.484482
 31
0.0
  0
LINE
  5
4CC
330
25
100
AcDbEntity
  8
2
100
AcDbLine
 10
140.445691
 20
98.169356
 30
0.0
 11
140.671665
 21
98.34166500000002
 31
0.0
  0
LINE
  5
4CD
330
25
100
AcDbEntity
  8
2
100
AcDbLine
 10
140.671665
 20
98.34166500000002
 30
0.0
 11
141.825774
 21
99.62504
 31
0.0
  0
LINE
  5
4CE
330
25
100
AcDbEntity
  8
2
100
AcDbLine
 10
141.825774
 20
99.62504
 30
0.0
 11
142.202094
 21
100.908257
 31
0.0
  0
LINE
  5
4CF
330
25
100
AcDbEntity
  8
2
100
AcDbLine
 10
123.413486
 20
123.391184
 30
0.0
 11
124.3353
 21
122.513809
 31
0.0
  0
LINE
  5
4D0
330
25
100
AcDbEntity
  8
2
100
AcDbLine
 10
135.102099
 20
122.379021
 30
0.0
 11
135.78752
 21
123.0314
 31
0.0
  0
LINE
  5
4D1
330
25
100
AcDbEntity
  8
2
100
AcDbLine
 10
129.789507
 20
124.872525
 30
0.0
 11
131.28851
 21
124.839093
 31
0.0
  0
LINE
  5
4D2
330
25
100
AcDbEntity
  8
2
100
AcDbLine
 10
131.28851
 20
124.839093
 30
0.0
 11
132.706702
 21
124.740602
 31
0.0
  0
LINE
  5
4D3
330
25
100
AcDbEntity
  8
2
100
AcDbLine
 10
132.706702
 20
124.740602
 30
0.0
 11
133.967626
 21
124.582359
 31
0.0
  0
LINE
  5
4D4
330
25
100
AcDbEntity
  8
2
100
AcDbLine
 10
133.967626
 20
124.582359
 30
0.0
 11
134.645426
 21
124.445277
 31
0.0
  0
LINE
  5
4D5
330
25
100
AcDbEntity
  8
2
100
AcDbLine
 10
123.413486
 20
123.391184
 30
0.0
 11
123.300504
 21
123.560151
 31
0.0
  0
LINE
  5
4D6
330
25
100
AcDbEntity
  8
2
100
AcDbLine
 10
123.300504
 20
123.560151
 30
0.0
 11
123.388257
 21
123.847635
 31
0.0
  0
LINE
  5
4D7
330
25
100
AcDbEntity
  8
2
100
AcDbLine
 10
123.388257
 20
123.847635
 30
0.0
 11
123.821102
 21
124.123507
 31
0.0
  0
LINE
  5
4D8
330
25
100
AcDbEntity
  8
2
100
AcDbLine
 10
123.821102
 20
124.123507
 30
0.0
 11
124.575706
 21
124.372897
 31
0.0
  0
LINE
  5
4D9
330
25
100
AcDbEntity
  8
2
100
AcDbLine
 10
124.575706
 20
124.372897
 30
0.0
 11
125.611387
 21
124.582359
 31
0.0
  0
LINE
  5
4DA
330
25
100
AcDbEntity
  8
2
100
AcDbLine
 10
125.611387
 20
124.582359
 30
0.0
 11
126.872312
 21
124.740602
 31
0.0
  0
LINE
  5
4DB
330
25
100
AcDbEntity
  8
2
100
AcDbLine
 10
126.872312
 20
124.740602
 30
0.0
 11
128.290504
 21
124.839093
 31
0.0
  0
LINE
  5
4DC
330
25
100
AcDbEntity
  8
2
100
AcDbLine
 10
128.290504
 20
124.839093
 30
0.0
 11
129.789507
 21
124.872525
 31
0.0
  0
LINE
  5
4DD
330
25
100
AcDbEntity
  8
2
100
AcDbLine
 10
117.543219
 20
104.047499
 30
0.0
 11
117.486499
 21
103.223585
 31
0.0
  0
LINE
  5
4DE
330
25
100
AcDbEntity
  8
2
100
AcDbLine
 10
117.486499
 20
103.223585
 30
0.0
 11
117.430972
 21
102.175394
 31
0.0
  0
LINE
  5
4DF
330
25
100
AcDbEntity
  8
2
100
AcDbLine
 10
117.430972
 20
102.175394
 30
0.0
 11
117.37692
 21
100.908257
 31
0.0
  0
LINE
  5
4E0
330
25
100
AcDbEntity
  8
2
100
AcDbLine
 10
118.372313
 20
114.084137
 30
0.0
 11
118.355383
 21
114.086637
 31
0.0
  0
LINE
  5
4E1
330
25
100
AcDbEntity
  8
2
100
AcDbLine
 10
121.343748
 20
113.240796
 30
0.0
 11
121.332784
 21
113.251335
 31
0.0
  0
LINE
  5
4E2
330
25
100
AcDbEntity
  8
2
100
AcDbLine
 10
112.61066
 20
107.26053
 30
0.0
 11
112.600096
 21
107.211605
 31
0.0
  0
LINE
  5
4E3
330
25
100
AcDbEntity
  8
2
100
AcDbLine
 10
112.600096
 20
107.211605
 30
0.0
 11
112.570358
 21
107.119375
 31
0.0
  0
LINE
  5
4E4
330
25
100
AcDbEntity
  8
2
100
AcDbLine
 10
112.570358
 20
107.119375
 30
0.0
 11
112.507513
 21
106.986591
 31
0.0
  0
LINE
  5
4E5
330
25
100
AcDbEntity
  8
2
100
AcDbLine
 10
112.507513
 20
106.986591
 30
0.0
 11
112.358092
 21
106.787891
 31
0.0
  0
LINE
  5
4E6
330
25
100
AcDbEntity
  8
2
100
AcDbLine
 10
112.358092
 20
106.787891
 30
0.0
 11
112.10085
 21
106.597148
 31
0.0
  0
LINE
  5
4E7
330
25
100
AcDbEntity
  8
2
100
AcDbLine
 10
112.10085
 20
106.597148
 30
0.0
 11
111.759058
 21
106.492875
 31
0.0
  0
LINE
  5
4E8
330
25
100
AcDbEntity
  8
2
100
AcDbLine
 10
111.759058
 20
106.492875
 30
0.0
 11
111.655704
 21
106.499911
 31
0.0
  0
ARC
  5
4E9
330
25
100
AcDbEntity
  8
2
100
AcDbCircle
 10
110.789507
 20
105.486186
 30
0.0
 40
1.0
100
AcDbArc
 50
90.0
 51
180.0
  0
LINE
  5
4EA
330
25
100
AcDbEntity
  8
2
100
AcDbLine
 10
111.643756
 20
106.486186
 30
0.0
 11
110.789507
 21
106.486186
 31
0.0
  0
LINE
  5
4EB
330
25
100
AcDbEntity
  8
2
100
AcDbLine
 10
112.672043
 20
108.045175
 30
0.0
 11
112.671715
 21
108.041666
 31
0.0
  0
LINE
  5
4EC
330
25
100
AcDbEntity
  8
2
100
AcDbLine
 10
112.671715
 20
108.041666
 30
0.0
 11
112.651819
 21
107.799915
 31
0.0
  0
LINE
  5
4ED
330
25
100
AcDbEntity
  8
2
100
AcDbLine
 10
112.651819
 20
107.799915
 30
0.0
 11
112.639618
 21
107.590692
 31
0.0
  0
LINE
  5
4EE
330
25
100
AcDbEntity
  8
2
100
AcDbLine
 10
112.639618
 20
107.590692
 30
0.0
 11
112.633509
 21
107.42486
 31
0.0
  0
LINE
  5
4EF
330
25
100
AcDbEntity
  8
2
100
AcDbLine
 10
112.612614
 20
107.292725
 30
0.0
 11
112.61066
 21
107.26053
 31
0.0
  0
LINE
  5
4F0
330
25
100
AcDbEntity
  8
2
100
AcDbLine
 10
112.646725
 20
107.484482
 30
0.0
 11
112.612639
 21
107.292864
 31
0.0
  0
LINE
  5
4F1
330
25
100
AcDbEntity
  8
2
100
AcDbLine
 10
117.524669
 20
103.856569
 30
0.0
 11
117.540149
 21
103.967198
 31
0.0
  0
ARC
  5
4F2
330
25
100
AcDbEntity
  8
2
100
AcDbCircle
 10
120.789507
 20
83.486186
 30
0.0
 40
1.0
100
AcDbArc
 50
270.0
 51
360.0
  0
LINE
  5
4F3
330
25
100
AcDbEntity
  8
2
100
AcDbLine
 10
119.133323
 20
98.169356
 30
0.0
 11
120.032148
 21
97.594211
 31
0.0
  0
LINE
  5
4F4
330
25
100
AcDbEntity
  8
2
100
AcDbLine
 10
120.032148
 20
97.594211
 30
0.0
 11
121.257121
 21
96.58349100000002
 31
0.0
  0
LINE
  5
4F5
330
25
100
AcDbEntity
  8
2
100
AcDbLine
 10
121.257121
 20
96.58349100000002
 30
0.0
 11
121.4267
 21
96.18278100000001
 31
0.0
  0
LINE
  5
4F6
330
25
100
AcDbEntity
  8
2
100
AcDbLine
 10
110.333709
 20
82.596103
 30
0.0
 11
109.991042
 21
78.86666700000002
 31
0.0
  0
LINE
  5
4F7
330
25
100
AcDbEntity
  8
2
100
AcDbLine
 10
113.890307
 20
82.486186
 30
0.0
 11
113.804177
 21
82.486186
 31
0.0
  0
LINE
  5
4F8
330
25
100
AcDbEntity
  8
2
100
AcDbLine
 10
113.804177
 20
82.486186
 30
0.0
 11
111.804496
 21
82.486186
 31
0.0
  0
ARC
  5
4F9
330
25
100
AcDbEntity
  8
2
100
AcDbCircle
 10
110.789507
 20
83.486186
 30
0.0
 40
1.0
100
AcDbArc
 50
180.0
 51
270.0
  0
LINE
  5
4FA
330
25
100
AcDbEntity
  8
2
100
AcDbLine
 10
109.789507
 20
83.486186
 30
0.0
 11
109.789507
 21
98.48618600000001
 31
0.0
  0
LINE
  5
4FB
330
25
100
AcDbEntity
  8
2
100
AcDbLine
 10
111.804496
 20
82.486186
 30
0.0
 11
110.789507
 21
82.486186
 31
0.0
  0
LINE
  5
4FC
330
25
100
AcDbEntity
  8
2
100
AcDbLine
 10
109.991042
 20
78.86666700000002
 30
0.0
 11
109.964279
 21
78.28991999999998
 31
0.0
  0
LINE
  5
4FD
330
25
100
AcDbEntity
  8
2
100
AcDbLine
 10
109.789507
 20
90.48618600000001
 30
0.0
 11
107.789507
 21
90.48618600000001
 31
0.0
  0
LINE
  5
4FE
330
25
100
AcDbEntity
  8
2
100
AcDbLine
 10
106.789507
 20
90.48618600000001
 30
0.0
 11
107.789507
 21
90.48618600000001
 31
0.0
  0
LINE
  5
4FF
330
25
100
AcDbEntity
  8
2
100
AcDbLine
 10
112.804337
 20
98.48618600000001
 30
0.0
 11
112.804337
 21
83.486186
 31
0.0
  0
LINE
  5
500
330
25
100
AcDbEntity
  8
2
100
AcDbLine
 10
112.804337
 20
83.486186
 30
0.0
 11
112.823549
 21
83.291096
 31
0.0
  0
LINE
  5
501
330
25
100
AcDbEntity
  8
2
100
AcDbLine
 10
112.823549
 20
83.291096
 30
0.0
 11
112.880445
 21
83.10350300000001
 31
0.0
  0
LINE
  5
502
330
25
100
AcDbEntity
  8
2
100
AcDbLine
 10
112.880445
 20
83.10350300000001
 30
0.0
 11
112.97284
 21
82.93061599999999
 31
0.0
  0
LINE
  5
503
330
25
100
AcDbEntity
  8
2
100
AcDbLine
 10
112.97284
 20
82.93061599999999
 30
0.0
 11
113.097183
 21
82.779079
 31
0.0
  0
LINE
  5
504
330
25
100
AcDbEntity
  8
2
100
AcDbLine
 10
113.097183
 20
82.779079
 30
0.0
 11
113.248696
 21
82.65471600000003
 31
0.0
  0
LINE
  5
505
330
25
100
AcDbEntity
  8
2
100
AcDbLine
 10
113.248696
 20
82.65471600000003
 30
0.0
 11
113.421555
 21
82.56230699999997
 31
0.0
  0
LINE
  5
506
330
25
100
AcDbEntity
  8
2
100
AcDbLine
 10
113.421555
 20
82.56230699999997
 30
0.0
 11
113.609118
 21
82.505401
 31
0.0
  0
LINE
  5
507
330
25
100
AcDbEntity
  8
2
100
AcDbLine
 10
113.609118
 20
82.505401
 30
0.0
 11
113.804177
 21
82.486186
 31
0.0
  0
LINE
  5
508
330
25
100
AcDbEntity
  8
2
100
AcDbLine
 10
120.789507
 20
82.486186
 30
0.0
 11
113.890307
 21
82.486186
 31
0.0
  0
LINE
  5
509
330
25
100
AcDbEntity
  8
2
100
AcDbLine
 10
109.789507
 20
98.48618600000001
 30
0.0
 11
109.789507
 21
105.486186
 31
0.0
  0
LINE
  5
50A
330
25
100
AcDbEntity
  8
2
100
AcDbLine
 10
112.646725
 20
107.484482
 30
0.0
 11
112.677636
 21
107.282076
 31
0.0
  0
LINE
  5
50B
330
25
100
AcDbEntity
  8
2
100
AcDbLine
 10
112.677636
 20
107.282076
 30
0.0
 11
112.70727
 21
106.749947
 31
0.0
  0
LINE
  5
50C
330
25
100
AcDbEntity
  8
2
100
AcDbLine
 10
112.70727
 20
106.749947
 30
0.0
 11
112.734518
 21
105.908042
 31
0.0
  0
LINE
  5
50D
330
25
100
AcDbEntity
  8
2
100
AcDbLine
 10
112.734518
 20
105.908042
 30
0.0
 11
112.758358
 21
104.787921
 31
0.0
  0
LINE
  5
50E
330
25
100
AcDbEntity
  8
2
100
AcDbLine
 10
112.758358
 20
104.787921
 30
0.0
 11
112.777896
 21
103.431573
 31
0.0
  0
LINE
  5
50F
330
25
100
AcDbEntity
  8
2
100
AcDbLine
 10
112.777896
 20
103.431573
 30
0.0
 11
112.792399
 21
101.889842
 31
0.0
  0
LINE
  5
510
330
25
100
AcDbEntity
  8
2
100
AcDbLine
 10
112.792399
 20
101.889842
 30
0.0
 11
112.801324
 21
100.22052
 31
0.0
  0
LINE
  5
511
330
25
100
AcDbEntity
  8
2
100
AcDbLine
 10
112.801324
 20
100.22052
 30
0.0
 11
112.804337
 21
98.48618600000001
 31
0.0
  0
LINE
  5
512
330
25
100
AcDbEntity
  8
2
100
AcDbLine
 10
117.37692
 20
100.908257
 30
0.0
 11
117.38198
 21
100.703225
 31
0.0
  0
LINE
  5
513
330
25
100
AcDbEntity
  8
2
100
AcDbLine
 10
117.38198
 20
100.703225
 30
0.0
 11
117.882384
 21
99.42239100000001
 31
0.0
  0
LINE
  5
514
330
25
100
AcDbEntity
  8
2
100
AcDbLine
 10
117.882384
 20
99.42239100000001
 30
0.0
 11
119.133323
 21
98.169356
 31
0.0
  0
LINE
  5
515
330
25
100
AcDbEntity
  8
2
100
AcDbLine
 10
149.786318
 20
63.486186
 30
0.0
 11
149.528779
 21
63.486186
 31
0.0
  0
LINE
  5
516
330
25
100
AcDbEntity
  8
2
100
AcDbLine
 10
149.528779
 20
63.486186
 30
0.0
 11
148.438745
 21
63.486186
 31
0.0
  0
LINE
  5
517
330
25
100
AcDbEntity
  8
2
100
AcDbLine
 10
110.050235
 20
63.486186
 30
0.0
 11
109.964279
 21
63.486186
 31
0.0
  0
LINE
  5
518
330
25
100
AcDbEntity
  8
2
100
AcDbLine
 10
111.140269
 20
63.486186
 30
0.0
 11
110.050235
 21
63.486186
 31
0.0
  0
LINE
  5
519
330
25
100
AcDbEntity
  8
2
100
AcDbLine
 10
123.789507
 20
63.486186
 30
0.0
 11
111.140269
 21
63.486186
 31
0.0
  0
LINE
  5
51A
330
25
100
AcDbEntity
  8
2
100
AcDbLine
 10
148.438745
 20
63.486186
 30
0.0
 11
135.789507
 21
63.486186
 31
0.0
  0
LINE
  5
51B
330
25
100
AcDbEntity
  8
2
100
AcDbLine
 10
114.593078
 20
69.36440999999999
 30
0.0
 11
114.728178
 21
68.945544
 31
0.0
  0
LINE
  5
51C
330
25
100
AcDbEntity
  8
2
100
AcDbLine
 10
114.728178
 20
68.945544
 30
0.0
 11
115.204979
 21
68.480029
 31
0.0
  0
LINE
  5
51D
330
25
100
AcDbEntity
  8
2
100
AcDbLine
 10
115.204979
 20
68.480029
 30
0.0
 11
116.015009
 21
68.03472099999999
 31
0.0
  0
LINE
  5
51E
330
25
100
AcDbEntity
  8
2
100
AcDbLine
 10
116.015009
 20
68.03472099999999
 30
0.0
 11
117.139762
 21
67.619793
 31
0.0
  0
LINE
  5
51F
330
25
100
AcDbEntity
  8
2
100
AcDbLine
 10
117.139762
 20
67.619793
 30
0.0
 11
118.553538
 21
67.24472699999999
 31
0.0
  0
LINE
  5
520
330
25
100
AcDbEntity
  8
2
100
AcDbLine
 10
118.553538
 20
67.24472699999999
 30
0.0
 11
120.224036
 21
66.918091
 31
0.0
  0
LINE
  5
521
330
25
100
AcDbEntity
  8
2
100
AcDbLine
 10
120.224036
 20
66.918091
 30
0.0
 11
122.113087
 21
66.64735
 31
0.0
  0
LINE
  5
522
330
25
100
AcDbEntity
  8
2
100
AcDbLine
 10
122.113087
 20
66.64735
 30
0.0
 11
123.789507
 21
66.477908
 31
0.0
  0
LINE
  5
523
330
25
100
AcDbEntity
  8
2
100
AcDbLine
 10
106.789507
 20
61.48618599999998
 30
0.0
 11
123.789507
 21
61.48618599999998
 31
0.0
  0
LINE
  5
524
330
25
100
AcDbEntity
  8
2
100
AcDbLine
 10
143.779248
 20
82.47974000000002
 30
0.0
 11
144.987548
 21
69.329133
 31
0.0
  0
LINE
  5
525
330
25
100
AcDbEntity
  8
2
100
AcDbLine
 10
114.591466
 20
69.329133
 30
0.0
 11
115.799939
 21
82.481624
 31
0.0
  0
LINE
  5
526
330
25
100
AcDbEntity
  8
2
100
AcDbLine
 10
149.789507
 20
61.48618599999998
 30
0.0
 11
149.789507
 21
83.486186
 31
0.0
  0
LINE
  5
527
330
25
100
AcDbEntity
  8
2
100
AcDbLine
 10
106.789507
 20
90.48618600000001
 30
0.0
 11
106.789507
 21
61.48618599999998
 31
0.0
  0
LINE
  5
528
330
25
100
AcDbEntity
  8
2
100
AcDbLine
 10
149.786318
 20
76.422481
 30
0.0
 11
149.786318
 21
63.486186
 31
0.0
  0
LINE
  5
529
330
25
100
AcDbEntity
  8
2
100
AcDbLine
 10
109.964279
 20
78.28991999999998
 30
0.0
 11
109.964279
 21
61.48618599999998
 31
0.0
  0
LINE
  5
52A
330
25
100
AcDbEntity
  8
2
100
AcDbLine
 10
139.795795
 20
131.810249
 30
0.0
 11
142.038865
 21
103.967198
 31
0.0
  0
LINE
  5
52B
330
25
100
AcDbEntity
  8
2
100
AcDbLine
 10
117.540149
 20
103.967198
 30
0.0
 11
119.784693
 21
131.828533
 31
0.0
  0
LINE
  5
52C
330
25
100
AcDbEntity
  8
2
100
AcDbLine
 10
146.908078
 20
108.033459
 30
0.0
 11
143.7917
 21
141.950748
 31
0.0
  0
LINE
  5
52D
330
25
100
AcDbEntity
  8
2
100
AcDbLine
 10
115.787313
 20
141.950748
 30
0.0
 11
112.670936
 21
108.033459
 31
0.0
  0
LINE
  5
52E
330
25
100
AcDbEntity
  8
2
100
AcDbLine
 10
123.289507
 20
131.187199
 30
0.0
 11
123.289507
 21
130.034144
 31
0.0
  0
LINE
  5
52F
330
25
100
AcDbEntity
  8
2
100
AcDbLine
 10
136.289507
 20
124.753274
 30
0.0
 11
136.289507
 21
126.949035
 31
0.0
  0
LINE
  5
530
330
25
100
AcDbEntity
  8
2
100
AcDbLine
 10
135.789507
 20
61.48618599999998
 30
0.0
 11
149.789507
 21
61.48618599999998
 31
0.0
  0
LINE
  5
531
330
25
100
AcDbEntity
  8
2
100
AcDbLine
 10
123.289507
 20
124.564994
 30
0.0
 11
123.289507
 21
123.632266
 31
0.0
  0
LINE
  5
532
330
25
100
AcDbEntity
  8
2
100
AcDbLine
 10
136.289507
 20
128.575718
 30
0.0
 11
136.289507
 21
130.99447
 31
0.0
  0
LINE
  5
533
330
25
100
AcDbEntity
  8
2
100
AcDbLine
 10
123.289507
 20
128.401957
 30
0.0
 11
123.289507
 21
126.191676
 31
0.0
  0
LINE
  5
534
330
25
100
AcDbEntity
  8
2
100
AcDbLine
 10
134.789507
 20
97.57288500000001
 30
0.0
 11
124.789507
 21
97.57288500000001
 31
0.0
  0
ARC
  5
535
330
25
100
AcDbEntity
  8
2
100
AcDbCircle
 10
134.789507
 20
47.468538
 30
0.0
 40
1.0
100
AcDbArc
 50
270.0
 51
360.0
  0
LINE
  5
536
330
25
100
AcDbEntity
  8
2
100
AcDbLine
 10
137.689507
 20
104.486186
 30
0.0
 11
137.689507
 21
104.195351
 31
0.0
  0
LINE
  5
537
330
25
100
AcDbEntity
  8
2
100
AcDbLine
 10
135.789507
 20
77.56470300000002
 30
0.0
 11
137.689507
 21
77.56470300000002
 31
0.0
  0
ARC
  5
538
330
25
100
AcDbEntity
  8
2
100
AcDbCircle
 10
134.789507
 20
96.57288499999999
 30
0.0
 40
1.0
100
AcDbArc
 50
0.0
 51
90.0
  0
ARC
  5
539
330
25
100
AcDbEntity
  8
2
100
AcDbCircle
 10
124.789507
 20
96.57288499999999
 30
0.0
 40
1.0
100
AcDbArc
 50
90.0
 51
180.0
  0
LINE
  5
53A
330
25
100
AcDbEntity
  8
2
100
AcDbLine
 10
123.789507
 20
77.56470300000002
 30
0.0
 11
121.889507
 21
77.56470300000002
 31
0.0
  0
ARC
  5
53B
330
25
100
AcDbEntity
  8
2
100
AcDbCircle
 10
124.789507
 20
47.468538
 30
0.0
 40
1.0
100
AcDbArc
 50
180.0
 51
270.0
  0
LINE
  5
53C
330
25
100
AcDbEntity
  8
2
100
AcDbLine
 10
121.889507
 20
103.746799
 30
0.0
 11
121.889507
 21
100.758538
 31
0.0
  0
LINE
  5
53D
330
25
100
AcDbEntity
  8
2
100
AcDbLine
 10
136.689507
 20
105.486186
 30
0.0
 11
130.708417
 21
105.486186
 31
0.0
  0
LINE
  5
53E
330
25
100
AcDbEntity
  8
2
100
AcDbLine
 10
134.789507
 20
46.468538
 30
0.0
 11
124.789507
 21
46.468538
 31
0.0
  0
LINE
  5
53F
330
25
100
AcDbEntity
  8
2
100
AcDbLine
 10
123.289507
 20
103.455661
 30
0.0
 11
123.289507
 21
101.082491
 31
0.0
  0
LINE
  5
540
330
25
100
AcDbEntity
  8
2
100
AcDbLine
 10
136.289507
 20
102.41251
 30
0.0
 11
136.289507
 21
99.56766800000004
 31
0.0
  0
ARC
  5
541
330
25
100
AcDbEntity
  8
2
100
AcDbCircle
 10
129.789507
 20
25.753937
 30
0.0
 40
78.89367199999998
100
AcDbArc
 50
86.00243499999995
 51
92.49227199999999
  0
LINE
  5
542
330
25
100
AcDbEntity
  8
2
100
AcDbLine
 10
123.888087
 20
104.054241
 30
0.0
 11
123.289507
 21
103.455661
 31
0.0
  0
LINE
  5
543
330
25
100
AcDbEntity
  8
2
100
AcDbLine
 10
135.289507
 20
104.455661
 30
0.0
 11
135.80267
 21
103.942499
 31
0.0
  0
ARC
  5
544
330
25
100
AcDbEntity
  8
2
100
AcDbCircle
 10
129.789507
 20
10.694244
 30
0.0
 40
92.98887399999999
100
AcDbArc
 50
87.27634999999997
 51
94.008292
  0
LINE
  5
545
330
25
100
AcDbEntity
  8
2
100
AcDbLine
 10
124.789507
 20
77.821445
 30
0.0
 11
134.789507
 21
77.821445
 31
0.0
  0
ARC
  5
546
330
25
100
AcDbEntity
  8
2
100
AcDbCircle
 10
124.789507
 20
78.82144499999998
 30
0.0
 40
1.0
100
AcDbArc
 50
180.0
 51
270.0
  0
LINE
  5
547
330
25
100
AcDbEntity
  8
2
100
AcDbLine
 10
123.789507
 20
96.57288499999999
 30
0.0
 11
123.789507
 21
77.141974
 31
0.0
  0
ARC
  5
548
330
25
100
AcDbEntity
  8
2
100
AcDbCircle
 10
134.789507
 20
78.82144499999998
 30
0.0
 40
1.0
100
AcDbArc
 50
270.0
 51
360.0
  0
LINE
  5
549
330
25
100
AcDbEntity
  8
2
100
AcDbLine
 10
135.789507
 20
96.57288499999999
 30
0.0
 11
135.789507
 21
77.141974
 31
0.0
  0
ARC
  5
54A
330
25
100
AcDbEntity
  8
2
100
AcDbCircle
 10
134.789507
 20
77.141974
 30
0.0
 40
1.0
100
AcDbArc
 50
270.0
 51
360.0
  0
ARC
  5
54B
330
25
100
AcDbEntity
  8
2
100
AcDbCircle
 10
124.789507
 20
77.141974
 30
0.0
 40
1.0
100
AcDbArc
 50
180.0
 51
270.0
  0
LINE
  5
54C
330
25
100
AcDbEntity
  8
2
100
AcDbLine
 10
124.789507
 20
76.14197400000001
 30
0.0
 11
134.789507
 21
76.14197400000001
 31
0.0
  0
ARC
  5
54D
330
25
100
AcDbEntity
  8
2
100
AcDbCircle
 10
129.789507
 20
133.792456
 30
0.0
 40
40.13968199999999
100
AcDbArc
 50
260.6808
 51
261.403322
  0
LINE
  5
54E
330
25
100
AcDbEntity
  8
2
100
AcDbLine
 10
121.889507
 20
69.16789900000001
 30
0.0
 11
123.789507
 21
67.26789899999999
 31
0.0
  0
LINE
  5
54F
330
25
100
AcDbEntity
  8
2
100
AcDbLine
 10
137.689507
 20
69.16789900000001
 30
0.0
 11
135.789507
 21
67.26789899999999
 31
0.0
  0
ARC
  5
550
330
25
100
AcDbEntity
  8
2
100
AcDbCircle
 10
122.889507
 20
104.486186
 30
0.0
 40
1.0
100
AcDbArc
 50
90.0
 51
115.425482
  0
ARC
  5
551
330
25
100
AcDbEntity
  8
2
100
AcDbCircle
 10
136.689507
 20
104.486186
 30
0.0
 40
1.0
100
AcDbArc
 50
0.0
 51
90.0
  0
LINE
  5
552
330
25
100
AcDbEntity
  8
2
100
AcDbLine
 10
123.789507
 20
67.26789899999999
 30
0.0
 11
123.789507
 21
47.468538
 31
0.0
  0
LINE
  5
553
330
25
100
AcDbEntity
  8
2
100
AcDbLine
 10
135.789507
 20
67.26789899999999
 30
0.0
 11
135.789507
 21
47.468538
 31
0.0
  0
LINE
  5
554
330
25
100
AcDbEntity
  8
2
100
AcDbLine
 10
123.289507
 20
95.247469
 30
0.0
 11
123.289507
 21
94.18255700000001
 31
0.0
  0
LINE
  5
555
330
25
100
AcDbEntity
  8
2
100
AcDbLine
 10
136.289507
 20
97.93386300000001
 30
0.0
 11
136.289507
 21
95.594359
 31
0.0
  0
LINE
  5
556
330
25
100
AcDbEntity
  8
2
100
AcDbLine
 10
137.689507
 20
98.247262
 30
0.0
 11
137.689507
 21
95.517503
 31
0.0
  0
LINE
  5
557
330
25
100
AcDbEntity
  8
2
100
AcDbLine
 10
137.689507
 20
102.752735
 30
0.0
 11
137.689507
 21
99.68987900000001
 31
0.0
  0
LINE
  5
558
330
25
100
AcDbEntity
  8
2
100
AcDbLine
 10
123.289507
 20
99.441231
 30
0.0
 11
123.289507
 21
96.881274
 31
0.0
  0
LINE
  5
559
330
25
100
AcDbEntity
  8
2
100
AcDbLine
 10
122.921492
 20
105.486186
 30
0.0
 11
122.889507
 21
105.486186
 31
0.0
  0
LINE
  5
55A
330
25
100
AcDbEntity
  8
2
100
AcDbLine
 10
121.889507
 20
99.241326
 30
0.0
 11
121.889507
 21
96.586162
 31
0.0
  0
LINE
  5
55B
330
25
100
AcDbEntity
  8
2
100
AcDbLine
 10
121.889507
 20
95.06895099999999
 30
0.0
 11
121.889507
 21
69.16789900000001
 31
0.0
  0
LINE
  5
55C
330
25
100
AcDbEntity
  8
2
100
AcDbLine
 10
137.689507
 20
94.07488599999998
 30
0.0
 11
137.689507
 21
69.16789900000001
 31
0.0
  0
ARC
  5
55D
330
25
100
AcDbEntity
  8
2
100
AcDbCircle
 10
137.343509
 20
132.051182
 30
0.0
 40
0.8
100
AcDbArc
 50
281.397445
 51
16.78627
  0
ARC
  5
55E
330
25
100
AcDbEntity
  8
2
100
AcDbCircle
 10
137.343509
 20
127.955668
 30
0.0
 40
0.8
100
AcDbArc
 50
280.391878
 51
100.391878
  0
ARC
  5
55F
330
25
100
AcDbEntity
  8
2
100
AcDbCircle
 10
137.343509
 20
124.136811
 30
0.0
 40
0.8
100
AcDbArc
 50
280.610631
 51
100.610631
  0
ARC
  5
560
330
25
100
AcDbEntity
  8
2
100
AcDbCircle
 10
137.343509
 20
120.257927
 30
0.0
 40
0.8
100
AcDbArc
 50
282.068205
 51
102.068205
  0
ARC
  5
561
330
25
100
AcDbEntity
  8
2
100
AcDbCircle
 10
137.343509
 20
115.976789
 30
0.0
 40
0.8
100
AcDbArc
 50
280.132571
 51
100.132571
  0
ARC
  5
562
330
25
100
AcDbEntity
  8
2
100
AcDbCircle
 10
137.343509
 20
112.228979
 30
0.0
 40
0.8
100
AcDbArc
 50
282.970431
 51
102.970431
  0
ARC
  5
563
330
25
100
AcDbEntity
  8
2
100
AcDbCircle
 10
137.343509
 20
107.696682
 30
0.0
 40
0.8
100
AcDbArc
 50
281.857168
 51
101.857168
  0
ARC
  5
564
330
25
100
AcDbEntity
  8
2
100
AcDbCircle
 10
137.343509
 20
98.96857
 30
0.0
 40
0.8
100
AcDbArc
 50
281.675583
 51
101.675583
  0
ARC
  5
565
330
25
100
AcDbEntity
  8
2
100
AcDbCircle
 10
137.343509
 20
94.796194
 30
0.0
 40
0.8
100
AcDbArc
 50
266.118273
 51
93.881727
  0
ARC
  5
566
330
25
100
AcDbEntity
  8
2
100
AcDbCircle
 10
137.343509
 20
103.474043
 30
0.0
 40
0.8
100
AcDbArc
 50
282.874375
 51
102.874375
  0
ARC
  5
567
330
25
100
AcDbEntity
  8
2
100
AcDbCircle
 10
122.143509
 20
104.505405
 30
0.0
 40
0.8
100
AcDbArc
 50
101.857168
 51
281.857168
  0
ARC
  5
568
330
25
100
AcDbEntity
  8
2
100
AcDbCircle
 10
122.143509
 20
95.827556
 30
0.0
 40
0.8
100
AcDbArc
 50
101.675583
 51
281.675583
  0
ARC
  5
569
330
25
100
AcDbEntity
  8
2
100
AcDbCircle
 10
122.143509
 20
99.999932
 30
0.0
 40
0.8
100
AcDbArc
 50
102.874375
 51
282.874375
  0
ARC
  5
56A
330
25
100
AcDbEntity
  8
2
100
AcDbCircle
 10
122.143509
 20
108.728044
 30
0.0
 40
0.8
100
AcDbArc
 50
102.970431
 51
282.970431
  0
ARC
  5
56B
330
25
100
AcDbEntity
  8
2
100
AcDbCircle
 10
122.143509
 20
113.260341
 30
0.0
 40
0.8
100
AcDbArc
 50
100.132571
 51
280.132571
  0
ARC
  5
56C
330
25
100
AcDbEntity
  8
2
100
AcDbCircle
 10
122.143509
 20
117.008151
 30
0.0
 40
0.8
100
AcDbArc
 50
102.068205
 51
282.068205
  0
ARC
  5
56D
330
25
100
AcDbEntity
  8
2
100
AcDbCircle
 10
122.143509
 20
121.289289
 30
0.0
 40
0.8
100
AcDbArc
 50
100.610631
 51
280.610631
  0
ARC
  5
56E
330
25
100
AcDbEntity
  8
2
100
AcDbCircle
 10
122.143509
 20
125.168173
 30
0.0
 40
0.8
100
AcDbArc
 50
100.391878
 51
280.391878
  0
ARC
  5
56F
330
25
100
AcDbEntity
  8
2
100
AcDbCircle
 10
122.143509
 20
128.98703
 30
0.0
 40
0.8
100
AcDbArc
 50
101.397445
 51
281.397445
  0
LINE
  5
570
330
25
100
AcDbEntity
  8
2
100
AcDbLine
 10
136.289507
 20
95.66955099999999
 30
0.0
 11
137.397667
 21
95.594359
 31
0.0
  0
LINE
  5
571
330
25
100
AcDbEntity
  8
2
100
AcDbLine
 10
121.981614
 20
96.61100400000002
 30
0.0
 11
123.887628
 21
97.004873
 31
0.0
  0
LINE
  5
572
330
25
100
AcDbEntity
  8
2
100
AcDbLine
 10
137.505405
 20
98.18512300000001
 30
0.0
 11
134.542661
 21
97.57288500000001
 31
0.0
  0
LINE
  5
573
330
25
100
AcDbEntity
  8
2
100
AcDbLine
 10
121.965258
 20
100.779821
 30
0.0
 11
137.165258
 21
104.253932
 31
0.0
  0
LINE
  5
574
330
25
100
AcDbEntity
  8
2
100
AcDbLine
 10
137.521761
 20
102.694154
 30
0.0
 11
122.321761
 21
99.22004300000001
 31
0.0
  0
LINE
  5
575
330
25
100
AcDbEntity
  8
2
100
AcDbLine
 10
121.979131
 20
105.288335
 30
0.0
 11
137.179131
 21
108.479612
 31
0.0
  0
LINE
  5
576
330
25
100
AcDbEntity
  8
2
100
AcDbLine
 10
137.507888
 20
106.913751
 30
0.0
 11
122.307888
 21
103.722475
 31
0.0
  0
LINE
  5
577
330
25
100
AcDbEntity
  8
2
100
AcDbLine
 10
121.963951
 20
109.507633
 30
0.0
 11
137.163951
 21
113.008568
 31
0.0
  0
LINE
  5
578
330
25
100
AcDbEntity
  8
2
100
AcDbLine
 10
137.523068
 20
111.44939
 30
0.0
 11
122.323068
 21
107.948455
 31
0.0
  0
LINE
  5
579
330
25
100
AcDbEntity
  8
2
100
AcDbLine
 10
122.284251
 20
112.472818
 30
0.0
 11
137.484251
 21
115.189266
 31
0.0
  0
LINE
  5
57A
330
25
100
AcDbEntity
  8
2
100
AcDbLine
 10
137.202768
 20
116.764312
 30
0.0
 11
122.002768
 21
114.047863
 31
0.0
  0
LINE
  5
57B
330
25
100
AcDbEntity
  8
2
100
AcDbLine
 10
122.31077
 20
116.225831
 30
0.0
 11
137.51077
 21
119.475608
 31
0.0
  0
LINE
  5
57C
330
25
100
AcDbEntity
  8
2
100
AcDbLine
 10
137.176249
 20
121.040247
 30
0.0
 11
121.976249
 21
117.79047
 31
0.0
  0
LINE
  5
57D
330
25
100
AcDbEntity
  8
2
100
AcDbLine
 10
122.290816
 20
120.502968
 30
0.0
 11
137.490816
 21
123.35049
 31
0.0
  0
LINE
  5
57E
330
25
100
AcDbEntity
  8
2
100
AcDbLine
 10
137.196203
 20
124.923132
 30
0.0
 11
121.996203
 21
122.07561
 31
0.0
  0
LINE
  5
57F
330
25
100
AcDbEntity
  8
2
100
AcDbLine
 10
122.287813
 20
124.381295
 30
0.0
 11
137.487813
 21
127.16879
 31
0.0
  0
LINE
  5
580
330
25
100
AcDbEntity
  8
2
100
AcDbLine
 10
137.199206
 20
128.742545
 30
0.0
 11
121.999206
 21
125.955051
 31
0.0
  0
LINE
  5
581
330
25
100
AcDbEntity
  8
2
100
AcDbLine
 10
122.3016
 20
128.202806
 30
0.0
 11
137.5016
 21
131.266958
 31
0.0
  0
LINE
  5
582
330
25
100
AcDbEntity
  8
2
100
AcDbLine
 10
136.375426
 20
132.672121
 30
0.0
 11
121.985419
 21
129.771254
 31
0.0
  0
LINE
  5
583
330
25
100
AcDbEntity
  8
2
100
AcDbLine
 10
136.289507
 20
99.84192700000001
 30
0.0
 11
137.397667
 21
99.766735
 31
0.0
  0
LINE
  5
584
330
25
100
AcDbEntity
  8
2
100
AcDbLine
 10
123.289507
 20
99.120334
 30
0.0
 11
122.089352
 21
99.201768
 31
0.0
  0
LINE
  5
585
330
25
100
AcDbEntity
  8
2
100
AcDbLine
 10
127.972347
 20
104.911742
 30
0.0
 11
132.606534
 21
104.597299
 31
0.0
  0
LINE
  5
586
330
25
100
AcDbEntity
  8
2
100
AcDbLine
 10
123.448841
 20
103.614995
 30
0.0
 11
122.089352
 21
103.70724
 31
0.0
  0
LINE
  5
587
330
25
100
AcDbEntity
  8
2
100
AcDbLine
 10
127.585857
 20
109.160605
 30
0.0
 11
137.397667
 21
108.494846
 31
0.0
  0
LINE
  5
588
330
25
100
AcDbEntity
  8
2
100
AcDbLine
 10
131.514672
 20
107.290345
 30
0.0
 11
122.089352
 21
107.929879
 31
0.0
  0
LINE
  5
589
330
25
100
AcDbEntity
  8
2
100
AcDbLine
 10
128.691499
 20
113.617881
 30
0.0
 11
137.397667
 21
113.027143
 31
0.0
  0
LINE
  5
58A
330
25
100
AcDbEntity
  8
2
100
AcDbLine
 10
131.901162
 20
111.796418
 30
0.0
 11
122.089352
 21
112.462176
 31
0.0
  0
LINE
  5
58B
330
25
100
AcDbEntity
  8
2
100
AcDbLine
 10
127.894965
 20
117.419738
 30
0.0
 11
137.397667
 21
116.774954
 31
0.0
  0
LINE
  5
58C
330
25
100
AcDbEntity
  8
2
100
AcDbLine
 10
130.79552
 20
115.619249
 30
0.0
 11
122.089352
 21
116.209986
 31
0.0
  0
LINE
  5
58D
330
25
100
AcDbEntity
  8
2
100
AcDbLine
 10
129.114071
 20
121.618157
 30
0.0
 11
137.397667
 21
121.056092
 31
0.0
  0
LINE
  5
58E
330
25
100
AcDbEntity
  8
2
100
AcDbLine
 10
131.592054
 20
119.84634
 30
0.0
 11
122.089352
 21
120.491124
 31
0.0
  0
LINE
  5
58F
330
25
100
AcDbEntity
  8
2
100
AcDbLine
 10
136.289507
 20
125.010167
 30
0.0
 11
137.397667
 21
124.934976
 31
0.0
  0
LINE
  5
590
330
25
100
AcDbEntity
  8
2
100
AcDbLine
 10
123.289507
 20
124.288574
 30
0.0
 11
122.089352
 21
124.370008
 31
0.0
  0
LINE
  5
591
330
25
100
AcDbEntity
  8
2
100
AcDbLine
 10
122.089352
 20
128.188865
 30
0.0
 11
123.243509
 21
128.110552
 31
0.0
  0
LINE
  5
592
330
25
100
AcDbEntity
  8
2
100
AcDbLine
 10
137.397667
 20
128.753832
 30
0.0
 11
136.243509
 21
128.832145
 31
0.0
  0
LINE
  5
593
330
25
100
AcDbEntity
  8
2
100
AcDbLine
 10
137.397667
 20
95.594359
 30
0.0
 11
135.789507
 21
95.594359
 31
0.0
  0
LINE
  5
594
330
25
100
AcDbEntity
  8
2
100
AcDbLine
 10
137.289352
 20
93.99803
 30
0.0
 11
135.789507
 21
93.99803
 31
0.0
  0
LINE
  5
595
330
25
100
AcDbEntity
  8
2
100
AcDbLine
 10
122.089352
 20
95.029392
 30
0.0
 11
123.289507
 21
94.947958
 31
0.0
  0
LINE
  5
596
330
25
100
AcDbEntity
  8
2
100
AcDbLine
 10
106.789507
 20
64.486186
 30
0.0
 11
106.789507
 21
77.98618600000001
 31
0.0
  0
LINE
  5
597
330
25
100
AcDbEntity
  8
2
100
AcDbLine
 10
106.789507
 20
64.486186
 30
0.0
 11
106.789507
 21
77.98618600000001
 31
0.0
  0
LINE
  5
598
330
25
100
AcDbEntity
  8
2
100
AcDbLine
 10
123.789507
 20
95.350792
 30
0.0
 11
122.305405
 21
95.04410900000001
 31
0.0
  0
LINE
  5
599
330
25
100
AcDbEntity
  8
2
100
AcDbLine
 10
126.63635
 20
97.57288500000001
 30
0.0
 11
137.181614
 21
99.752018
 31
0.0
  0
LINE
  5
59A
330
25
100
AcDbEntity
  8
2
100
AcDbLine
 10
135.332858
 20
104.412311
 30
0.0
 11
137.397667
 21
104.272208
 31
0.0
  0
LINE
  5
59B
330
25
100
AcDbEntity
  8
2
100
AcDbLine
 10
123.789507
 20
51.48618599999998
 30
0.0
 11
52.289507
 21
51.48618599999998
 31
0.0
  0
LINE
  5
59C
330
25
100
AcDbEntity
  8
2
100
AcDbLine
 10
135.789507
 20
53.486186
 30
0.0
 11
232.289507
 21
53.486186
 31
0.0
  0
LINE
  5
59D
330
25
100
AcDbEntity
  8
2
100
AcDbLine
 10
198.840003
 20
53.486186
 30
0.0
 11
198.840003
 21
51.48618599999998
 31
0.0
  0
LINE
  5
59E
330
25
100
AcDbEntity
  8
2
100
AcDbLine
 10
52.289507
 20
53.486186
 30
0.0
 11
123.789507
 21
53.486186
 31
0.0
  0
LINE
  5
59F
330
25
100
AcDbEntity
  8
2
100
AcDbLine
 10
52.289507
 20
53.486186
 30
0.0
 11
52.289507
 21
51.48618599999998
 31
0.0
  0
LINE
  5
5A0
330
25
100
AcDbEntity
  8
2
100
AcDbLine
 10
232.289507
 20
51.48618599999998
 30
0.0
 11
135.789507
 21
51.48618599999998
 31
0.0
  0
LINE
  5
5A1
330
25
100
AcDbEntity
  8
2
100
AcDbLine
 10
198.873901
 20
53.486186
 30
0.0
 11
198.873901
 21
51.48618599999998
 31
0.0
  0
LINE
  5
5A2
330
25
100
AcDbEntity
  8
2
100
AcDbLine
 10
194.062374
 20
53.486186
 30
0.0
 11
194.062374
 21
51.48618599999998
 31
0.0
  0
LINE
  5
5A3
330
25
100
AcDbEntity
  8
2
100
AcDbLine
 10
189.16331
 20
53.486186
 30
0.0
 11
189.16331
 21
51.48618599999998
 31
0.0
  0
LINE
  5
5A4
330
25
100
AcDbEntity
  8
2
100
AcDbLine
 10
182.775772
 20
53.486186
 30
0.0
 11
182.775772
 21
51.48618599999998
 31
0.0
  0
LINE
  5
5A5
330
25
100
AcDbEntity
  8
2
100
AcDbLine
 10
176.830074
 20
53.486186
 30
0.0
 11
176.830074
 21
51.48618599999998
 31
0.0
  0
LINE
  5
5A6
330
25
100
AcDbEntity
  8
2
100
AcDbLine
 10
170.145848
 20
53.486186
 30
0.0
 11
170.145848
 21
51.48618599999998
 31
0.0
  0
LINE
  5
5A7
330
25
100
AcDbEntity
  8
2
100
AcDbLine
 10
163.406813
 20
53.486186
 30
0.0
 11
163.406813
 21
51.48618599999998
 31
0.0
  0
LINE
  5
5A8
330
25
100
AcDbEntity
  8
2
100
AcDbLine
 10
156.115637
 20
53.486186
 30
0.0
 11
156.115637
 21
51.48618599999998
 31
0.0
  0
LINE
  5
5A9
330
25
100
AcDbEntity
  8
2
100
AcDbLine
 10
148.540412
 20
53.486186
 30
0.0
 11
148.540412
 21
51.48618599999998
 31
0.0
  0
LINE
  5
5AA
330
25
100
AcDbEntity
  8
2
100
AcDbLine
 10
140.860635
 20
53.486186
 30
0.0
 11
140.860635
 21
51.48618599999998
 31
0.0
  0
LINE
  5
5AB
330
25
100
AcDbEntity
  8
2
100
AcDbLine
 10
102.789507
 20
53.486186
 30
0.0
 11
102.789507
 21
51.48618599999998
 31
0.0
  0
LINE
  5
5AC
330
25
100
AcDbEntity
  8
2
100
AcDbLine
 10
122.789507
 20
53.486186
 30
0.0
 11
122.789507
 21
51.48618599999998
 31
0.0
  0
ARC
  5
5AD
330
25
100
AcDbEntity
  8
2
100
AcDbCircle
 10
129.760442
 20
99.20246699999999
 30
0.0
 40
34.117089
100
AcDbArc
 50
72.89375699999998
 51
107.001541
  0
ARC
  5
5AE
330
25
100
AcDbEntity
  8
2
100
AcDbCircle
 10
129.760442
 20
99.86910999999999
 30
0.0
 40
34.117089
100
AcDbArc
 50
63.756415
 51
116.1296469999999
  0
LINE
  5
5AF
330
25
100
AcDbEntity
  8
2
100
AcDbLine
 10
121.789507
 20
83.486186
 30
0.0
 11
121.789507
 21
95.11014199999999
 31
0.0
  0
LINE
  5
5B0
330
25
100
AcDbEntity
  8
2
  6
CENTER
 62
     4
370
    13
100
AcDbLine
 10
102.989077
 20
98.48618600000001
 30
0.0
 11
155.591905
 21
98.48618600000001
 31
0.0
  0
LINE
  5
5B1
330
25
100
AcDbEntity
  8
2
  6
CENTER
 62
     4
370
    13
100
AcDbLine
 10
94.52240999999999
 20
71.486186
 30
0.0
 11
117.509403
 21
71.486186
 31
0.0
  0
LINE
  5
5B2
330
25
100
AcDbEntity
  8
2
100
AcDbLine
 10
106.789507
 20
64.986186
 30
0.0
 11
101.011195
 21
64.986186
 31
0.0
  0
LINE
  5
5B3
330
25
100
AcDbEntity
  8
2
100
AcDbLine
 10
100.289507
 20
68.236186
 30
0.0
 11
100.289507
 21
71.486186
 31
0.0
  0
LINE
  5
5B4
330
25
100
AcDbEntity
  8
2
100
AcDbLine
 10
106.789507
 20
71.486186
 30
0.0
 11
101.011195
 21
71.486186
 31
0.0
  0
ARC
  5
5B5
330
25
100
AcDbEntity
  8
2
100
AcDbCircle
 10
107.968266
 20
68.236186
 30
0.0
 40
7.678758999999997
100
AcDbArc
 50
154.96034
 51
205.03966
  0
LINE
  5
5B6
330
25
100
AcDbEntity
  8
2
100
AcDbLine
 10
106.789507
 20
77.98618600000001
 30
0.0
 11
101.011195
 21
77.98618600000001
 31
0.0
  0
LINE
  5
5B7
330
25
100
AcDbEntity
  8
2
100
AcDbLine
 10
100.289507
 20
74.736186
 30
0.0
 11
100.289507
 21
71.486186
 31
0.0
  0
LINE
  5
5B8
330
25
100
AcDbEntity
  8
2
100
AcDbLine
 10
106.789507
 20
71.486186
 30
0.0
 11
101.011195
 21
71.486186
 31
0.0
  0
ARC
  5
5B9
330
25
100
AcDbEntity
  8
2
100
AcDbCircle
 10
107.968266
 20
74.736186
 30
0.0
 40
7.678758999999997
100
AcDbArc
 50
154.96034
 51
205.03966
  0
LINE
  5
5BA
330
25
100
AcDbEntity
  8
2
100
AcDbLine
 10
95.789507
 20
71.486186
 30
0.0
 11
95.789507
 21
74.809686
 31
0.0
  0
LINE
  5
5BB
330
25
100
AcDbEntity
  8
2
100
AcDbLine
 10
95.789507
 20
74.809686
 30
0.0
 11
96.466007
 21
75.48618600000001
 31
0.0
  0
LINE
  5
5BC
330
25
100
AcDbEntity
  8
2
100
AcDbLine
 10
96.466007
 20
75.48618600000001
 30
0.0
 11
100.326222
 21
75.48618600000001
 31
0.0
  0
LINE
  5
5BD
330
25
100
AcDbEntity
  8
2
100
AcDbLine
 10
96.466007
 20
75.48618600000001
 30
0.0
 11
96.466007
 21
71.486186
 31
0.0
  0
LINE
  5
5BE
330
25
100
AcDbEntity
  8
2
 62
     2
100
AcDbLine
 10
95.789507
 20
74.809686
 30
0.0
 11
100.289859
 21
74.809686
 31
0.0
  0
LINE
  5
5BF
330
25
100
AcDbEntity
  8
2
100
AcDbLine
 10
95.789507
 20
71.486186
 30
0.0
 11
95.789507
 21
68.16268599999999
 31
0.0
  0
LINE
  5
5C0
330
25
100
AcDbEntity
  8
2
100
AcDbLine
 10
95.789507
 20
68.16268599999999
 30
0.0
 11
96.466007
 21
67.486186
 31
0.0
  0
LINE
  5
5C1
330
25
100
AcDbEntity
  8
2
100
AcDbLine
 10
96.466007
 20
67.486186
 30
0.0
 11
100.326222
 21
67.486186
 31
0.0
  0
LINE
  5
5C2
330
25
100
AcDbEntity
  8
2
100
AcDbLine
 10
96.466007
 20
67.486186
 30
0.0
 11
96.466007
 21
71.486186
 31
0.0
  0
LINE
  5
5C3
330
25
100
AcDbEntity
  8
2
 62
     2
100
AcDbLine
 10
95.789507
 20
68.16268599999999
 30
0.0
 11
100.289859
 21
68.16268599999999
 31
0.0
  0
ARC
  5
5C4
330
25
100
AcDbEntity
  8
2
100
AcDbCircle
 10
137.361682
 20
141.359947
 30
0.0
 40
6.457103
100
AcDbArc
 50
5.249692999999997
 51
73.97789899999998
  0
ARC
  5
5C5
330
25
100
AcDbEntity
  8
2
100
AcDbCircle
 10
129.789507
 20
114.991028
 30
0.0
 40
33.891711
100
AcDbArc
 50
73.97789899999998
 51
106.022101
  0
ARC
  5
5C6
330
25
100
AcDbEntity
  8
2
100
AcDbCircle
 10
122.217332
 20
141.359947
 30
0.0
 40
6.457103
100
AcDbArc
 50
106.022101
 51
174.750307
  0
POINT
  5
5C7
330
25
100
AcDbEntity
  8
2
100
AcDbPoint
 10
165.851953
 20
53.486186
 30
0.0
  0
LINE
  5
5C8
330
25
100
AcDbEntity
  8
2
100
AcDbLine
 10
165.851953
 20
53.486186
 30
0.0
 11
157.351953
 21
53.486186
 31
0.0
  0
LINE
  5
5C9
330
25
100
AcDbEntity
  8
2
100
AcDbLine
 10
157.289507
 20
53.486186
 30
0.0
 11
157.289507
 21
59.591293
 31
0.0
  0
LINE
  5
5CA
330
25
100
AcDbEntity
  8
2
100
AcDbLine
 10
161.539507
 20
60.486186
 30
0.0
 11
165.789507
 21
60.486186
 31
0.0
  0
LINE
  5
5CB
330
25
100
AcDbEntity
  8
2
100
AcDbLine
 10
165.789507
 20
53.486186
 30
0.0
 11
165.789507
 21
59.591293
 31
0.0
  0
ARC
  5
5CC
330
25
100
AcDbEntity
  8
2
100
AcDbCircle
 10
161.539507
 20
49.94675
 30
0.0
 40
10.539436
100
AcDbArc
 50
66.218654
 51
113.781346
  0
LINE
  5
5CD
330
25
100
AcDbEntity
  8
2
100
AcDbLine
 10
165.789507
 20
23.486186
 30
0.0
 11
161.601507
 21
23.486186
 31
0.0
  0
LINE
  5
5CE
330
25
100
AcDbEntity
  8
2
100
AcDbLine
 10
161.601507
 20
23.486186
 30
0.0
 11
160.789507
 21
24.298186
 31
0.0
  0
LINE
  5
5CF
330
25
100
AcDbEntity
  8
2
100
AcDbLine
 10
160.789507
 20
24.298186
 30
0.0
 11
160.789507
 21
27.012905
 31
0.0
  0
LINE
  5
5D0
330
25
100
AcDbEntity
  8
2
100
AcDbLine
 10
160.789507
 20
24.298186
 30
0.0
 11
165.789507
 21
24.298186
 31
0.0
  0
LINE
  5
5D1
330
25
100
AcDbEntity
  8
2
 62
     2
100
AcDbLine
 10
161.601507
 20
23.486186
 30
0.0
 11
161.601507
 21
26.986368
 31
0.0
  0
LINE
  5
5D2
330
25
100
AcDbEntity
  8
2
100
AcDbLine
 10
165.851953
 20
53.486186
 30
0.0
 11
174.351953
 21
53.486186
 31
0.0
  0
LINE
  5
5D3
330
25
100
AcDbEntity
  8
2
100
AcDbLine
 10
174.289507
 20
53.486186
 30
0.0
 11
174.289507
 21
59.591293
 31
0.0
  0
LINE
  5
5D4
330
25
100
AcDbEntity
  8
2
100
AcDbLine
 10
170.039507
 20
60.486186
 30
0.0
 11
165.789507
 21
60.486186
 31
0.0
  0
LINE
  5
5D5
330
25
100
AcDbEntity
  8
2
100
AcDbLine
 10
165.789507
 20
53.486186
 30
0.0
 11
165.789507
 21
59.591293
 31
0.0
  0
ARC
  5
5D6
330
25
100
AcDbEntity
  8
2
100
AcDbCircle
 10
170.039507
 20
49.94675
 30
0.0
 40
10.539436
100
AcDbArc
 50
66.218654
 51
113.781346
  0
LINE
  5
5D7
330
25
100
AcDbEntity
  8
2
100
AcDbLine
 10
165.789507
 20
23.486186
 30
0.0
 11
169.977507
 21
23.486186
 31
0.0
  0
LINE
  5
5D8
330
25
100
AcDbEntity
  8
2
100
AcDbLine
 10
169.977507
 20
23.486186
 30
0.0
 11
170.789507
 21
24.298186
 31
0.0
  0
LINE
  5
5D9
330
25
100
AcDbEntity
  8
2
100
AcDbLine
 10
170.789507
 20
24.298186
 30
0.0
 11
170.789507
 21
27.012905
 31
0.0
  0
LINE
  5
5DA
330
25
100
AcDbEntity
  8
2
100
AcDbLine
 10
170.789507
 20
24.298186
 30
0.0
 11
165.789507
 21
24.298186
 31
0.0
  0
LINE
  5
5DB
330
25
100
AcDbEntity
  8
2
 62
     2
100
AcDbLine
 10
169.977507
 20
23.486186
 30
0.0
 11
169.977507
 21
26.986368
 31
0.0
  0
POINT
  5
5DC
330
25
100
AcDbEntity
  8
2
100
AcDbPoint
 10
165.789507
 20
37.486186
 30
0.0
  0
LINE
  5
5DD
330
25
100
AcDbEntity
  8
2
  6
CENTER
 62
     4
370
    13
100
AcDbLine
 10
165.789507
 20
64.940657
 30
0.0
 11
165.789507
 21
21.864089
 31
0.0
  0
LINE
  5
5DE
330
25
100
AcDbEntity
  8
2
100
AcDbLine
 10
167.087511
 20
34.986186
 30
0.0
 11
174.989507
 21
34.986186
 31
0.0
  0
LINE
  5
5DF
330
25
100
AcDbEntity
  8
2
100
AcDbLine
 10
174.289507
 20
34.986186
 30
0.0
 11
174.289507
 21
27.881079
 31
0.0
  0
LINE
  5
5E0
330
25
100
AcDbEntity
  8
2
100
AcDbLine
 10
170.039507
 20
26.986186
 30
0.0
 11
165.789507
 21
26.986186
 31
0.0
  0
LINE
  5
5E1
330
25
100
AcDbEntity
  8
2
100
AcDbLine
 10
165.789507
 20
34.986186
 30
0.0
 11
165.789507
 21
27.881079
 31
0.0
  0
ARC
  5
5E2
330
25
100
AcDbEntity
  8
2
100
AcDbCircle
 10
170.039507
 20
37.525622
 30
0.0
 40
10.539436
100
AcDbArc
 50
246.218654
 51
293.781346
  0
LINE
  5
5E3
330
25
100
AcDbEntity
  8
2
100
AcDbLine
 10
161.539507
 20
26.986186
 30
0.0
 11
165.789507
 21
26.986186
 31
0.0
  0
LINE
  5
5E4
330
25
100
AcDbEntity
  8
2
100
AcDbLine
 10
165.789507
 20
34.986186
 30
0.0
 11
165.789507
 21
27.881079
 31
0.0
  0
ARC
  5
5E5
330
25
100
AcDbEntity
  8
2
100
AcDbCircle
 10
161.539507
 20
37.525622
 30
0.0
 40
10.539436
100
AcDbArc
 50
247.66998
 51
293.781346
  0
LINE
  5
5E6
330
25
100
AcDbEntity
  8
2
100
AcDbLine
 10
174.989507
 20
37.486186
 30
0.0
 11
174.989507
 21
34.986186
 31
0.0
  0
POINT
  5
5E7
330
25
100
AcDbEntity
  8
2
100
AcDbPoint
 10
93.727061
 20
53.486186
 30
0.0
  0
LINE
  5
5E8
330
25
100
AcDbEntity
  8
2
100
AcDbLine
 10
93.727061
 20
53.486186
 30
0.0
 11
102.227061
 21
53.486186
 31
0.0
  0
LINE
  5
5E9
330
25
100
AcDbEntity
  8
2
100
AcDbLine
 10
102.289507
 20
53.486186
 30
0.0
 11
102.289507
 21
59.591293
 31
0.0
  0
LINE
  5
5EA
330
25
100
AcDbEntity
  8
2
100
AcDbLine
 10
98.03950700000001
 20
60.486186
 30
0.0
 11
93.789507
 21
60.486186
 31
0.0
  0
LINE
  5
5EB
330
25
100
AcDbEntity
  8
2
100
AcDbLine
 10
93.789507
 20
53.486186
 30
0.0
 11
93.789507
 21
59.591293
 31
0.0
  0
ARC
  5
5EC
330
25
100
AcDbEntity
  8
2
100
AcDbCircle
 10
98.03950700000001
 20
49.94675
 30
0.0
 40
10.539436
100
AcDbArc
 50
66.218654
 51
113.781346
  0
LINE
  5
5ED
330
25
100
AcDbEntity
  8
2
100
AcDbLine
 10
93.789507
 20
23.486186
 30
0.0
 11
97.97750700000001
 21
23.486186
 31
0.0
  0
LINE
  5
5EE
330
25
100
AcDbEntity
  8
2
100
AcDbLine
 10
97.97750700000001
 20
23.486186
 30
0.0
 11
98.789507
 21
24.298186
 31
0.0
  0
LINE
  5
5EF
330
25
100
AcDbEntity
  8
2
100
AcDbLine
 10
98.789507
 20
24.298186
 30
0.0
 11
98.789507
 21
27.012905
 31
0.0
  0
LINE
  5
5F0
330
25
100
AcDbEntity
  8
2
100
AcDbLine
 10
98.789507
 20
24.298186
 30
0.0
 11
93.789507
 21
24.298186
 31
0.0
  0
LINE
  5
5F1
330
25
100
AcDbEntity
  8
2
 62
     2
100
AcDbLine
 10
97.97750700000001
 20
23.486186
 30
0.0
 11
97.97750700000001
 21
26.986368
 31
0.0
  0
LINE
  5
5F2
330
25
100
AcDbEntity
  8
2
100
AcDbLine
 10
93.727061
 20
53.486186
 30
0.0
 11
85.22706099999998
 21
53.486186
 31
0.0
  0
LINE
  5
5F3
330
25
100
AcDbEntity
  8
2
100
AcDbLine
 10
85.28950700000001
 20
53.486186
 30
0.0
 11
85.28950700000001
 21
59.591293
 31
0.0
  0
LINE
  5
5F4
330
25
100
AcDbEntity
  8
2
100
AcDbLine
 10
89.539507
 20
60.486186
 30
0.0
 11
93.789507
 21
60.486186
 31
0.0
  0
LINE
  5
5F5
330
25
100
AcDbEntity
  8
2
100
AcDbLine
 10
93.789507
 20
53.486186
 30
0.0
 11
93.789507
 21
59.591293
 31
0.0
  0
ARC
  5
5F6
330
25
100
AcDbEntity
  8
2
100
AcDbCircle
 10
89.539507
 20
49.94675
 30
0.0
 40
10.539436
100
AcDbArc
 50
66.218654
 51
113.781346
  0
LINE
  5
5F7
330
25
100
AcDbEntity
  8
2
100
AcDbLine
 10
93.789507
 20
23.486186
 30
0.0
 11
89.60150699999998
 21
23.486186
 31
0.0
  0
LINE
  5
5F8
330
25
100
AcDbEntity
  8
2
100
AcDbLine
 10
89.60150699999998
 20
23.486186
 30
0.0
 11
88.789507
 21
24.298186
 31
0.0
  0
LINE
  5
5F9
330
25
100
AcDbEntity
  8
2
100
AcDbLine
 10
88.789507
 20
24.298186
 30
0.0
 11
88.789507
 21
27.012905
 31
0.0
  0
LINE
  5
5FA
330
25
100
AcDbEntity
  8
2
100
AcDbLine
 10
88.789507
 20
24.298186
 30
0.0
 11
93.789507
 21
24.298186
 31
0.0
  0
LINE
  5
5FB
330
25
100
AcDbEntity
  8
2
 62
     2
100
AcDbLine
 10
89.60150699999998
 20
23.486186
 30
0.0
 11
89.60150699999998
 21
26.986368
 31
0.0
  0
POINT
  5
5FC
330
25
100
AcDbEntity
  8
2
100
AcDbPoint
 10
93.789507
 20
37.486186
 30
0.0
  0
LINE
  5
5FD
330
25
100
AcDbEntity
  8
2
  6
CENTER
 62
     4
370
    13
100
AcDbLine
 10
93.789507
 20
64.940657
 30
0.0
 11
93.789507
 21
21.864089
 31
0.0
  0
LINE
  5
5FE
330
25
100
AcDbEntity
  8
2
100
AcDbLine
 10
93.789507
 20
34.986186
 30
0.0
 11
85.28950700000001
 21
34.986186
 31
0.0
  0
LINE
  5
5FF
330
25
100
AcDbEntity
  8
2
100
AcDbLine
 10
85.28950700000001
 20
34.986186
 30
0.0
 11
85.28950700000001
 21
27.881079
 31
0.0
  0
LINE
  5
600
330
25
100
AcDbEntity
  8
2
100
AcDbLine
 10
89.539507
 20
26.986186
 30
0.0
 11
93.789507
 21
26.986186
 31
0.0
  0
LINE
  5
601
330
25
100
AcDbEntity
  8
2
100
AcDbLine
 10
93.789507
 20
34.986186
 30
0.0
 11
93.789507
 21
27.881079
 31
0.0
  0
ARC
  5
602
330
25
100
AcDbEntity
  8
2
100
AcDbCircle
 10
89.539507
 20
37.525622
 30
0.0
 40
10.539436
100
AcDbArc
 50
246.218654
 51
293.781346
  0
LINE
  5
603
330
25
100
AcDbEntity
  8
2
100
AcDbLine
 10
93.789507
 20
34.986186
 30
0.0
 11
102.289507
 21
34.986186
 31
0.0
  0
LINE
  5
604
330
25
100
AcDbEntity
  8
2
100
AcDbLine
 10
102.289507
 20
34.986186
 30
0.0
 11
102.289507
 21
27.881079
 31
0.0
  0
LINE
  5
605
330
25
100
AcDbEntity
  8
2
100
AcDbLine
 10
98.03950700000001
 20
26.986186
 30
0.0
 11
93.789507
 21
26.986186
 31
0.0
  0
LINE
  5
606
330
25
100
AcDbEntity
  8
2
100
AcDbLine
 10
93.789507
 20
34.986186
 30
0.0
 11
93.789507
 21
27.881079
 31
0.0
  0
ARC
  5
607
330
25
100
AcDbEntity
  8
2
100
AcDbCircle
 10
98.03950700000001
 20
37.525622
 30
0.0
 40
10.539436
100
AcDbArc
 50
246.218654
 51
293.781346
  0
LINE
  5
608
330
25
100
AcDbEntity
  8
2
100
AcDbLine
 10
84.589507
 20
37.486186
 30
0.0
 11
84.589507
 21
34.986186
 31
0.0
  0
LINE
  5
609
330
25
100
AcDbEntity
  8
2
100
AcDbLine
 10
84.589507
 20
34.986186
 30
0.0
 11
102.989507
 21
34.986186
 31
0.0
  0
LINE
  5
60A
330
25
100
AcDbEntity
  8
2
100
AcDbLine
 10
102.989507
 20
34.986186
 30
0.0
 11
102.989507
 21
37.486186
 31
0.0
  0
LINE
  5
60B
330
25
100
AcDbEntity
  8
2
100
AcDbLine
 10
102.989507
 20
37.486186
 30
0.0
 11
84.589507
 21
37.486186
 31
0.0
  0
LINE
  5
60C
330
25
100
AcDbEntity
  8
2
100
AcDbLine
 10
232.289507
 20
51.48618599999998
 30
0.0
 11
232.289507
 21
53.486186
 31
0.0
  0
LINE
  5
60D
330
25
100
AcDbEntity
  8
2
100
AcDbLine
 10
217.190125
 20
53.486186
 30
0.0
 11
217.190125
 21
51.48618599999998
 31
0.0
  0
LINE
  5
60E
330
25
100
AcDbEntity
  8
2
100
AcDbLine
 10
214.919287
 20
53.486186
 30
0.0
 11
214.919287
 21
51.48618599999998
 31
0.0
  0
LINE
  5
60F
330
25
100
AcDbEntity
  8
2
100
AcDbLine
 10
213.345163
 20
53.486186
 30
0.0
 11
213.345163
 21
51.48618599999998
 31
0.0
  0
LINE
  5
610
330
25
100
AcDbEntity
  8
2
100
AcDbLine
 10
210.493283
 20
53.486186
 30
0.0
 11
210.493283
 21
51.48618599999998
 31
0.0
  0
LINE
  5
611
330
25
100
AcDbEntity
  8
2
100
AcDbLine
 10
207.565247
 20
53.486186
 30
0.0
 11
207.565247
 21
51.48618599999998
 31
0.0
  0
LINE
  5
612
330
25
100
AcDbEntity
  8
2
100
AcDbLine
 10
203.396078
 20
53.486186
 30
0.0
 11
203.396078
 21
51.48618599999998
 31
0.0
  0
LINE
  5
613
330
25
100
AcDbEntity
  8
2
100
AcDbLine
 10
-312.848047
 20
23.486186
 30
0.0
 11
-317.036047
 21
23.486186
 31
0.0
  0
LINE
  5
614
330
25
100
AcDbEntity
  8
2
100
AcDbLine
 10
-317.036047
 20
23.486186
 30
0.0
 11
-317.848047
 21
24.298186
 31
0.0
  0
LINE
  5
615
330
25
100
AcDbEntity
  8
2
100
AcDbLine
 10
-317.848047
 20
24.298186
 30
0.0
 11
-317.848047
 21
26.986186
 31
0.0
  0
LINE
  5
616
330
25
100
AcDbEntity
  8
2
100
AcDbLine
 10
-317.848047
 20
24.298186
 30
0.0
 11
-312.848047
 21
24.298186
 31
0.0
  0
LINE
  5
617
330
25
100
AcDbEntity
  8
2
 62
     2
100
AcDbLine
 10
-317.036047
 20
23.486186
 30
0.0
 11
-317.036047
 21
26.986186
 31
0.0
  0
LINE
  5
618
330
25
100
AcDbEntity
  8
2
100
AcDbLine
 10
-312.848047
 20
23.486186
 30
0.0
 11
-308.660047
 21
23.486186
 31
0.0
  0
LINE
  5
619
330
25
100
AcDbEntity
  8
2
100
AcDbLine
 10
-308.660047
 20
23.486186
 30
0.0
 11
-307.848047
 21
24.298186
 31
0.0
  0
LINE
  5
61A
330
25
100
AcDbEntity
  8
2
100
AcDbLine
 10
-307.848047
 20
24.298186
 30
0.0
 11
-307.848047
 21
26.986186
 31
0.0
  0
LINE
  5
61B
330
25
100
AcDbEntity
  8
2
100
AcDbLine
 10
-307.848047
 20
24.298186
 30
0.0
 11
-312.848047
 21
24.298186
 31
0.0
  0
LINE
  5
61C
330
25
100
AcDbEntity
  8
2
 62
     2
100
AcDbLine
 10
-308.660047
 20
23.486186
 30
0.0
 11
-308.660047
 21
26.986186
 31
0.0
  0
LINE
  5
61D
330
25
100
AcDbEntity
  8
2
100
AcDbLine
 10
-384.972939
 20
23.486186
 30
0.0
 11
-380.784939
 21
23.486186
 31
0.0
  0
LINE
  5
61E
330
25
100
AcDbEntity
  8
2
100
AcDbLine
 10
-380.784939
 20
23.486186
 30
0.0
 11
-379.972939
 21
24.298186
 31
0.0
  0
LINE
  5
61F
330
25
100
AcDbEntity
  8
2
100
AcDbLine
 10
-379.972939
 20
24.298186
 30
0.0
 11
-379.972939
 21
26.986186
 31
0.0
  0
LINE
  5
620
330
25
100
AcDbEntity
  8
2
100
AcDbLine
 10
-379.972939
 20
24.298186
 30
0.0
 11
-384.972939
 21
24.298186
 31
0.0
  0
LINE
  5
621
330
25
100
AcDbEntity
  8
2
 62
     2
100
AcDbLine
 10
-380.784939
 20
23.486186
 30
0.0
 11
-380.784939
 21
26.986186
 31
0.0
  0
LINE
  5
622
330
25
100
AcDbEntity
  8
2
100
AcDbLine
 10
-384.972939
 20
23.486186
 30
0.0
 11
-389.160939
 21
23.486186
 31
0.0
  0
LINE
  5
623
330
25
100
AcDbEntity
  8
2
100
AcDbLine
 10
-389.160939
 20
23.486186
 30
0.0
 11
-389.972939
 21
24.298186
 31
0.0
  0
LINE
  5
624
330
25
100
AcDbEntity
  8
2
100
AcDbLine
 10
-389.972939
 20
24.298186
 30
0.0
 11
-389.972939
 21
26.986186
 31
0.0
  0
LINE
  5
625
330
25
100
AcDbEntity
  8
2
100
AcDbLine
 10
-389.972939
 20
24.298186
 30
0.0
 11
-384.972939
 21
24.298186
 31
0.0
  0
LINE
  5
626
330
25
100
AcDbEntity
  8
2
 62
     2
100
AcDbLine
 10
-389.160939
 20
23.486186
 30
0.0
 11
-389.160939
 21
26.986186
 31
0.0
  0
LINE
  5
627
330
25
100
AcDbEntity
  8
2
100
AcDbLine
 10
-337.910918
 20
61.48618599999998
 30
0.0
 11
-337.910918
 21
53.486186
 31
0.0
  0
LINE
  5
628
330
25
100
AcDbEntity
  8
2
100
AcDbLine
 10
-359.9109180000001
 20
61.48618599999998
 30
0.0
 11
-359.9109180000001
 21
53.486186
 31
0.0
  0
LINE
  5
629
330
25
100
AcDbEntity
  8
2
100
AcDbLine
 10
-375.172939
 20
31.006708
 30
0.0
 11
-375.172939
 21
27.881079
 31
0.0
  0
LINE
  5
62A
330
25
100
AcDbEntity
  8
2
100
AcDbLine
 10
-375.172939
 20
27.881079
 30
0.0
 11
-376.722939
 21
26.986186
 31
0.0
  0
DIMENSION
  5
62B
330
25
100
AcDbEntity
  8
5
100
AcDbDimension
  2
*D14
 10
159.789507
 20
-389.942322
 30
0.0
 11
129.789507
 21
-383.1923220000001
 31
0.0
 70
    32
  1
60
 71
     5
 42
60.0
  3
STD1
100
AcDbAlignedDimension
 13
99.789507
 23
-302.513814
 33
0.0
 14
159.789507
 24
-302.513814
 34
0.0
100
AcDbRotatedDimension
  0
DIMENSION
  5
62C
330
25
100
AcDbEntity
  8
5
100
AcDbDimension
  2
*D13
 10
35.967619
 20
-175.5138139999999
 30
0.0
 11
29.21761900000002
 21
-263.363814
 31
0.0
 70
    32
  1
176
 71
     5
 42
175.7
  3
STD1
100
AcDbAlignedDimension
 13
124.789507
 23
-351.213814
 33
0.0
 14
69.58950699999999
 24
-175.513814
 34
0.0
 50
90.0
100
AcDbRotatedDimension
  0
DIMENSION
  5
62D
330
25
100
AcDbEntity
  8
5
100
AcDbDimension
  2
*D12
 10
35.967619
 20
51.48618599999998
 30
0.0
 11
29.21761899999998
 21
-62.01381399999998
 31
0.0
 70
    32
  1
227
 71
     5
 42
227.0
  3
STD1
100
AcDbAlignedDimension
 13
69.58950699999999
 23
-175.513814
 33
0.0
 14
52.289507
 24
51.48618599999998
 34
0.0
 50
90.0
100
AcDbRotatedDimension
  0
DIMENSION
  5
62E
330
25
100
AcDbEntity
  8
5
100
AcDbDimension
  2
*D11
 10
-509.7844389999998
 20
368.686186
 30
0.0
 11
-516.5344389999997
 21
317.436186
 31
0.0
 70
    32
  1
102.5
 71
     5
 42
102.5
  3
STD1
100
AcDbAlignedDimension
 13
-498.1964719999998
 23
266.186186
 33
0.0
 14
-365.910493
 24
368.686186
 34
0.0
 50
90.0
100
AcDbRotatedDimension
  0
DIMENSION
  5
62F
330
25
100
AcDbEntity
  8
5
100
AcDbDimension
  2
*D10
 10
-509.7844389999998
 20
266.186186
 30
0.0
 11
-516.5344389999997
 21
227.4361859999999
 31
0.0
 70
    32
  1
77.5
 71
     5
 42
77.49999999999992
  3
STD1
100
AcDbAlignedDimension
 13
-348.910493
 23
188.686186
 33
0.0
 14
-498.1964719999998
 24
266.186186
 34
0.0
 50
90.0
100
AcDbRotatedDimension
  0
DIMENSION
  5
631
330
25
100
AcDbEntity
  8
5
100
AcDbDimension
  2
*D9
 10
35.967619
 20
148.882739
 30
0.0
 11
29.21761899999997
 21
100.1844625
 31
0.0
 70
    32
  1
97（概略）
 71
     5
 42
97.39655300000002
  3
STD1
100
AcDbAlignedDimension
 13
52.289507
 23
51.48618599999998
 33
0.0
 14
129.789507
 24
148.882739
 34
0.0
 50
90.0
100
AcDbRotatedDimension
  0
DIMENSION
  5
633
330
25
100
AcDbEntity
  8
5
100
AcDbDimension
  2
*D8
 10
0.9220020000000014
 20
158.832527
 30
0.0
 11
-173.9942455
 21
165.582527
 31
0.0
 70
    32
  1
350
 71
     5
 42
349.8324950000001
  3
STD1
100
AcDbAlignedDimension
 13
-348.910493
 23
103.66141
 33
0.0
 14
0.9220019999999999
 24
134.751636
 34
0.0
100
AcDbRotatedDimension
  0
TEXT
  5
634
330
25
100
AcDbEntity
  8
18
100
AcDbText
 10
366.433891
 20
-399.791977
 30
0.0
 40
9.0
  1
1
100
AcDbText
  0
TEXT
  5
635
330
25
100
AcDbEntity
  8
18
100
AcDbText
 10
368.562721
 20
-381.105789
 30
0.0
 40
9.0
  1
標準仕様　JIS 5K,10K
100
AcDbText
  0
TEXT
  5
636
330
25
100
AcDbEntity
  8
18
100
AcDbText
 10
379.623688
 20
-411.30304
 30
0.0
 40
9.0
  1
3
100
AcDbText
  0
TEXT
  5
637
330
25
100
AcDbEntity
  8
18
100
AcDbText
 10
460.8
 20
-408.0
 30
0.0
 40
15.0
  1
D3－03637
100
AcDbText
  0
TEXT
  5
638
330
25
100
AcDbEntity
  8
18
100
AcDbText
 10
546.8585282512272
 20
-382.437836
 30
0.0
 40
6.75
  1
'05. 1.26
100
AcDbText
  0
TEXT
  5
639
330
25
100
AcDbEntity
  8
18
100
AcDbText
 10
368.562721
 20
-369.105789
 30
0.0
 40
9.0
  1
700G-1TLS   200A
100
AcDbText
  0
LINE
  5
63A
330
25
100
AcDbEntity
  8
20
 62
     3
100
AcDbLine
 10
-540.0
 20
-415.5
 30
0.0
 11
600.0
 21
-415.5
 31
0.0
  0
LINE
  5
63B
330
25
100
AcDbEntity
  8
20
 62
     3
100
AcDbLine
 10
-540.0
 20
396.0
 30
0.0
 11
600.0
 21
396.0
 31
0.0
  0
LINE
  5
63C
330
25
100
AcDbEntity
  8
20
 62
     3
100
AcDbLine
 10
-540.0
 20
396.0
 30
0.0
 11
-540.0
 21
-415.5
 31
0.0
  0
LINE
  5
63D
330
25
100
AcDbEntity
  8
20
 62
     3
100
AcDbLine
 10
600.0
 20
396.0
 30
0.0
 11
600.0
 21
-415.5
 31
0.0
  0
LINE
  5
63E
330
25
100
AcDbEntity
  8
20
 62
     3
100
AcDbLine
 10
180.0
 20
-415.5
 30
0.0
 11
180.0
 21
-355.5
 31
0.0
  0
LINE
  5
63F
330
25
100
AcDbEntity
  8
20
 62
     3
100
AcDbLine
 10
321.0
 20
-415.5
 30
0.0
 11
321.0
 21
-355.5
 31
0.0
  0
LINE
  5
640
330
25
100
AcDbEntity
  8
20
100
AcDbLine
 10
321.0
 20
-385.5
 30
0.0
 11
600.0
 21
-385.5
 31
0.0
  0
LINE
  5
641
330
25
100
AcDbEntity
  8
20
 62
     3
100
AcDbLine
 10
180.0
 20
-355.5
 30
0.0
 11
600.0
 21
-355.5
 31
0.0
  0
LINE
  5
642
330
25
100
AcDbEntity
  8
20
100
AcDbLine
 10
540.0
 20
-385.5
 30
0.0
 11
540.0
 21
-355.5
 31
0.0
  0
LINE
  5
643
330
25
100
AcDbEntity
  8
20
100
AcDbLine
 10
540.0
 20
-370.5
 30
0.0
 11
600.0
 21
-370.5
 31
0.0
  0
LINE
  5
644
330
25
100
AcDbEntity
  8
20
100
AcDbLine
 10
363.0
 20
-415.5
 30
0.0
 11
363.0
 21
-355.5
 31
0.0
  0
LINE
  5
645
330
25
100
AcDbEntity
  8
20
100
AcDbLine
 10
393.0
 20
-415.5
 30
0.0
 11
393.0
 21
-385.5
 31
0.0
  0
LINE
  5
646
330
25
100
AcDbEntity
  8
20
100
AcDbLine
 10
453.0
 20
-415.5
 30
0.0
 11
453.0
 21
-385.5
 31
0.0
  0
LINE
  5
647
330
25
100
AcDbEntity
  8
20
100
AcDbLine
 10
371.185244
 20
-407.3147559999998
 30
0.0
 11
383.694872
 21
-394.8051279999999
 31
0.0
  0
TEXT
  5
648
330
25
100
AcDbEntity
  8
20
100
AcDbText
 10
396.9859812512264
 20
-397.490753
 30
0.0
 40
5.4
  1
DRAWING No.
100
AcDbText
  0
TEXT
  5
649
330
25
100
AcDbEntity
  8
20
100
AcDbText
 10
400.4999999999998
 20
-409.4999999999997
 30
0.0
 40
9.0
  1
図　　番
100
AcDbText
  0
TEXT
  5
64A
330
25
100
AcDbEntity
  8
20
100
AcDbText
 10
558.0
 20
-366.0
 30
0.0
 40
6.0
  1
DATE
100
AcDbText
  0
TEXT
  5
64B
330
25
100
AcDbEntity
  8
20
100
AcDbText
 10
327.003213
 20
-398.883087
 30
0.0
 40
6.0
  1
SCALE
100
AcDbText
  0
TEXT
  5
64C
330
25
100
AcDbEntity
  8
20
100
AcDbText
 10
325.590665331757
 20
-409.4999999999997
 30
0.0
 40
9.0
  1
尺　度
100
AcDbText
  0
TEXT
  5
64D
330
25
100
AcDbEntity
  8
20
100
AcDbText
 10
324.8892109976351
 20
-367.487654
 30
0.0
 40
6.0
  1
FIG. No.
100
AcDbText
  0
TEXT
  5
64E
330
25
100
AcDbEntity
  8
20
100
AcDbText
 10
324.0
 20
-379.5
 30
0.0
 40
9.0
  1
名　称
100
AcDbText
  0
TEXT
  5
64F
330
25
100
AcDbEntity
  8
20
100
AcDbText
 10
190.2043027599193
 20
-379.410759
 30
0.0
 40
6.9
  1
TOMOE VALVE Co., LTD.
100
AcDbText
  0
TEXT
  5
650
330
25
100
AcDbEntity
  8
20
100
AcDbText
 10
196.260996395838
 20
-399.869431
 30
0.0
 40
12.0
  1
巴バルブ株式会社
100
AcDbText
  0
ENDSEC
  0
SECTION
  2
OBJECTS
  0
DICTIONARY
  5
6A3
330
0
100
AcDbDictionary
281
     1
  3
ACAD_COLOR
350
6DA
  3
ACAD_GROUP
350
6A4
  3
ACAD_LAYOUT
350
702
  3
ACAD_MATERIAL
350
6B0
  3
ACAD_MLEADERSTYLE
350
6FF
  3
ACAD_MLINESTYLE
350
6A5
  3
ACAD_PLOTSETTINGS
350
703
  3
ACAD_PLOTSTYLENAME
350
6AE
  3
ACAD_SCALELIST
350
6DD
  3
ACAD_TABLESTYLE
350
6DB
  3
ACAD_VISUALSTYLE
350
6C9
  3
ACDB_RECOMPOSE_DATA
350
71D
  3
AcDbVariableDictionary
350
714
  3
DWGPROPS
350
808
  0
DICTIONARY
  5
802
330
1
100
AcDbDictionary
280
     1
281
     1
  3
ACAD_LAYERFILTERS
360
806
  3
ACLYDICTIONARY
360
805
  0
DICTIONARY
  5
708
330
15
100
AcDbDictionary
280
     1
281
     1
  3
ADSK_XREC_LAYER_RECONCILED
360
709
  0
DICTIONARY
  5
70A
330
16
100
AcDbDictionary
280
     1
281
     1
  3
ADSK_XREC_LAYER_RECONCILED
360
70B
  0
DICTIONARY
  5
70C
330
17
100
AcDbDictionary
280
     1
281
     1
  3
ADSK_XREC_LAYER_RECONCILED
360
70D
  0
DICTIONARY
  5
70E
330
18
100
AcDbDictionary
280
     1
281
     1
  3
ADSK_XREC_LAYER_RECONCILED
360
70F
  0
DICTIONARY
  5
710
330
19
100
AcDbDictionary
280
     1
281
     1
  3
ADSK_XREC_LAYER_RECONCILED
360
711
  0
DICTIONARY
  5
712
330
1A
100
AcDbDictionary
280
     1
281
     1
  3
ADSK_XREC_LAYER_RECONCILED
360
713
  0
DICTIONARY
  5
6DA
102
{ACAD_REACTORS
330
6A3
102
}
330
6A3
100
AcDbDictionary
281
     1
  0
DICTIONARY
  5
6A4
102
{ACAD_REACTORS
330
6A3
102
}
330
6A3
100
AcDbDictionary
281
     1
  0
DICTIONARY
  5
702
102
{ACAD_REACTORS
330
6A3
102
}
330
6A3
100
AcDbDictionary
281
     1
  3
Model
350
704
  3
レイアウト1
350
705
  0
DICTIONARY
  5
6B0
102
{ACAD_REACTORS
330
6A3
102
}
330
6A3
100
AcDbDictionary
281
     1
  3
ByBlock
350
6B9
  3
ByLayer
350
6B1
  3
Global
350
6C1
  0
DICTIONARY
  5
6FF
102
{ACAD_REACTORS
330
6A3
102
}
330
6A3
100
AcDbDictionary
281
     1
  3
Standard
350
700
  0
DICTIONARY
  5
6A5
102
{ACAD_REACTORS
330
6A3
102
}
330
6A3
100
AcDbDictionary
281
     1
  3
STANDARD
350
6A6
  0
DICTIONARY
  5
703
102
{ACAD_REACTORS
330
6A3
102
}
330
6A3
100
AcDbDictionary
281
     1
  0
ACDBDICTIONARYWDFLT
  5
6AE
102
{ACAD_REACTORS
330
6A3
102
}
330
6A3
100
AcDbDictionary
281
     1
  3
Normal
350
6AF
100
AcDbDictionaryWithDefault
340
6AF
  0
DICTIONARY
  5
6DD
102
{ACAD_REACTORS
330
6A3
102
}
330
6A3
100
AcDbDictionary
281
     1
  3
A0
350
6DE
  3
A1
350
6DF
  3
A2
350
6E0
  3
A3
350
6E1
  3
A4
350
6E2
  3
A5
350
6E3
  3
A6
350
6E4
  3
A7
350
6E5
  3
A8
350
6E6
  3
A9
350
6E7
  3
B0
350
6E8
  3
B1
350
6E9
  3
B2
350
6EA
  3
B3
350
6EB
  3
B4
350
6EC
  3
B5
350
6ED
  3
B6
350
6EE
  3
B7
350
6EF
  3
B8
350
6F0
  3
B9
350
6F1
  3
C0
350
6F2
  3
C1
350
6F3
  3
C2
350
6F4
  3
C3
350
6F5
  3
C4
350
6F6
  3
C5
350
6F7
  3
C6
350
6F8
  3
C7
350
6F9
  3
C8
350
6FA
  3
C9
350
6FB
  3
D0
350
6FC
  3
D1
350
6FD
  3
D2
350
6FE
  0
DICTIONARY
  5
6DB
102
{ACAD_REACTORS
330
6A3
102
}
330
6A3
100
AcDbDictionary
281
     1
  3
Standard
350
6DC
  0
DICTIONARY
  5
6C9
102
{ACAD_REACTORS
330
6A3
102
}
330
6A3
100
AcDbDictionary
281
     1
  3
2dWireframe
350
6CF
  3
3D Hidden
350
6D1
  3
3dWireframe
350
6D0
  3
Basic
350
6CE
  3
Brighten
350
6D5
  3
ColorChange
350
6D9
  3
Conceptual
350
6D2
  3
Dim
350
6D4
  3
Facepattern
350
6D8
  3
Flat
350
6CA
  3
FlatWithEdges
350
6CB
  3
Gouraud
350
6CC
  3
GouraudWithEdges
350
6CD
  3
Linepattern
350
6D7
  3
Realistic
350
6D3
  3
Thicken
350
6D6
  0
XRECORD
  5
71D
102
{ACAD_REACTORS
330
6A3
102
}
330
6A3
100
AcDbXrecord
280
     1
 90
        1
330
6DC
  0
DICTIONARY
  5
714
102
{ACAD_REACTORS
330
6A3
102
}
330
6A3
100
AcDbDictionary
281
     1
  3
CANNOSCALE
350
717
  3
CMLEADERSTYLE
350
716
  3
CTABLESTYLE
350
715
  3
DIMASSOC
350
71A
  3
INDEXCTL
350
719
  3
SORTENTS
350
718
  0
XRECORD
  5
808
102
{ACAD_REACTORS
330
6A3
102
}
330
6A3
100
AcDbXrecord
280
     1
  1
DWGPROPS COOKIE
  2

  3

  4

  6

  7

  8
jaterika-arisa
  9

300
=
301
=
302
=
303
=
304
=
305
=
306
=
307
=
308
=
309
=
 40
0.0039995717592593
 41
2450695.0
 42
2455265.438652917
  1

 90
        0
  0
DICTIONARY
  5
806
102
{ACAD_REACTORS
330
802
102
}
330
802
100
AcDbDictionary
281
     1
  0
DICTIONARY
  5
805
102
{ACAD_REACTORS
330
802
102
}
330
802
100
AcDbDictionary
281
     1
1001
ACAD
1000
<All
  0
XRECORD
  5
709
102
{ACAD_REACTORS
330
708
102
}
330
708
100
AcDbXrecord
280
     1
290
     1
  0
XRECORD
  5
70B
102
{ACAD_REACTORS
330
70A
102
}
330
70A
100
AcDbXrecord
280
     1
290
     1
  0
XRECORD
  5
70D
102
{ACAD_REACTORS
330
70C
102
}
330
70C
100
AcDbXrecord
280
     1
290
     1
  0
XRECORD
  5
70F
102
{ACAD_REACTORS
330
70E
102
}
330
70E
100
AcDbXrecord
280
     1
290
     1
  0
XRECORD
  5
711
102
{ACAD_REACTORS
330
710
102
}
330
710
100
AcDbXrecord
280
     1
290
     1
  0
XRECORD
  5
713
102
{ACAD_REACTORS
330
712
102
}
330
712
100
AcDbXrecord
280
     1
290
     1
  0
LAYOUT
  5
704
102
{ACAD_XDICTIONARY
360
80A
102
}
102
{ACAD_REACTORS
330
702
102
}
330
702
100
AcDbPlotSettings
  1

  2
EMP01_dxf.pc3
  4
A3
  6

 40
5.873749732971191
 41
5.873747825622557
 42
5.873748779296875
 43
5.873748779296875
 44
419.9466552734373
 45
296.9259948730469
 46
14.08187820853467
 47
7.324547306209923
 48
0.0
 49
0.0
140
0.0
141
0.0
142
1.0
143
3.0
 70
 11940
 72
     1
 73
     0
 74
     1
  7
monochrome.ctb
 75
     0
147
0.0984114684230918
148
540.0604217663181
149
415.5489328271346
100
AcDbLayout
  1
Model
 70
     1
 71
     0
 10
0.0
 20
0.0
 11
12.0
 21
9.0
 12
0.0
 22
0.0
 32
0.0
 14
0.0
 24
0.0
 34
0.0
 15
0.0
 25
0.0
 35
0.0
146
0.0
 13
0.0
 23
0.0
 33
0.0
 16
1.0
 26
0.0
 36
0.0
 17
0.0
 27
1.0
 37
0.0
 76
     0
330
25
331
1B
1001
ACAD_PSEXT
1000
EMP01_dxf.pc3
1000
RICOH imagio MP C4500 RPCS
1000
192.168.12.230_@
1000
エンジニアリングセンター
1070
     0
  0
LAYOUT
  5
705
102
{ACAD_XDICTIONARY
360
80C
102
}
102
{ACAD_REACTORS
330
702
102
}
330
702
100
AcDbPlotSettings
  1

  2
EMP01
  4

  6

 40
0.0
 41
0.0
 42
0.0
 43
0.0
 44
0.0
 45
0.0
 46
0.0
 47
0.0
 48
0.0
 49
0.0
140
0.0
141
0.0
142
1.0
143
1.0
 70
   688
 72
     0
 73
     0
 74
     5
  7
monochrome.ctb
 75
    16
147
1.0
148
0.0
149
0.0
100
AcDbLayout
  1
レイアウト1
 70
     0
 71
     1
 10
0.0
 20
0.0
 11
12.0
 21
9.0
 12
0.0
 22
0.0
 32
0.0
 14
1.000000000000000E+20
 24
1.000000000000000E+20
 34
1.000000000000000E+20
 15
-1.000000000000000E+20
 25
-1.000000000000000E+20
 35
-1.000000000000000E+20
146
0.0
 13
0.0
 23
0.0
 33
0.0
 16
1.0
 26
0.0
 36
0.0
 17
0.0
 27
1.0
 37
0.0
 76
     0
330
26
  0
MATERIAL
  5
6B9
102
{ACAD_XDICTIONARY
360
6BA
102
}
102
{ACAD_REACTORS
330
6B0
102
}
330
6B0
100
AcDbMaterial
  1
ByBlock
 72
     0
 43
0.0208333333333333
 43
0.0
 43
0.0
 43
0.0
 43
0.0
 43
0.0208333333333333
 43
0.0
 43
0.0
 43
0.0
 43
0.0
 43
1.0
 43
0.0
 43
0.0
 43
0.0
 43
0.0
 43
1.0
 77
     0
 47
0.0208333333333333
 47
0.0
 47
0.0
 47
0.0
 47
0.0
 47
0.0208333333333333
 47
0.0
 47
0.0
 47
0.0
 47
0.0
 47
1.0
 47
0.0
 47
0.0
 47
0.0
 47
0.0
 47
1.0
171
     0
 49
0.0208333333333333
 49
0.0
 49
0.0
 49
0.0
 49
0.0
 49
0.0208333333333333
 49
0.0
 49
0.0
 49
0.0
 49
0.0
 49
1.0
 49
0.0
 49
0.0
 49
0.0
 49
0.0
 49
1.0
175
     0
142
0.0208333333333333
142
0.0
142
0.0
142
0.0
142
0.0
142
0.0208333333333333
142
0.0
142
0.0
142
0.0
142
0.0
142
1.0
142
0.0
142
0.0
142
0.0
142
0.0
142
1.0
179
     0
144
0.0208333333333333
144
0.0
144
0.0
144
0.0
144
0.0
144
0.0208333333333333
144
0.0
144
0.0
144
0.0
144
0.0
144
1.0
144
0.0
144
0.0
144
0.0
144
0.0
144
1.0
147
0.0208333333333333
147
0.0
147
0.0
147
0.0
147
0.0
147
0.0208333333333333
147
0.0
147
0.0
147
0.0
147
0.0
147
1.0
147
0.0
147
0.0
147
0.0
147
0.0
147
1.0
  0
MATERIAL
  5
6B1
102
{ACAD_XDICTIONARY
360
6B2
102
}
102
{ACAD_REACTORS
330
6B0
102
}
330
6B0
100
AcDbMaterial
  1
ByLayer
 72
     0
 43
0.0208333333333333
 43
0.0
 43
0.0
 43
0.0
 43
0.0
 43
0.0208333333333333
 43
0.0
 43
0.0
 43
0.0
 43
0.0
 43
1.0
 43
0.0
 43
0.0
 43
0.0
 43
0.0
 43
1.0
 77
     0
 47
0.0208333333333333
 47
0.0
 47
0.0
 47
0.0
 47
0.0
 47
0.0208333333333333
 47
0.0
 47
0.0
 47
0.0
 47
0.0
 47
1.0
 47
0.0
 47
0.0
 47
0.0
 47
0.0
 47
1.0
171
     0
 49
0.0208333333333333
 49
0.0
 49
0.0
 49
0.0
 49
0.0
 49
0.0208333333333333
 49
0.0
 49
0.0
 49
0.0
 49
0.0
 49
1.0
 49
0.0
 49
0.0
 49
0.0
 49
0.0
 49
1.0
175
     0
142
0.0208333333333333
142
0.0
142
0.0
142
0.0
142
0.0
142
0.0208333333333333
142
0.0
142
0.0
142
0.0
142
0.0
142
1.0
142
0.0
142
0.0
142
0.0
142
0.0
142
1.0
179
     0
144
0.0208333333333333
144
0.0
144
0.0
144
0.0
144
0.0
144
0.0208333333333333
144
0.0
144
0.0
144
0.0
144
0.0
144
1.0
144
0.0
144
0.0
144
0.0
144
0.0
144
1.0
147
0.0208333333333333
147
0.0
147
0.0
147
0.0
147
0.0
147
0.0208333333333333
147
0.0
147
0.0
147
0.0
147
0.0
147
1.0
147
0.0
147
0.0
147
0.0
147
0.0
147
1.0
  0
MATERIAL
  5
6C1
102
{ACAD_XDICTIONARY
360
6C2
102
}
102
{ACAD_REACTORS
330
6B0
102
}
330
6B0
100
AcDbMaterial
  1
Global
 72
     0
 43
0.0208333333333333
 43
0.0
 43
0.0
 43
0.0
 43
0.0
 43
0.0208333333333333
 43
0.0
 43
0.0
 43
0.0
 43
0.0
 43
1.0
 43
0.0
 43
0.0
 43
0.0
 43
0.0
 43
1.0
 77
     0
 47
0.0208333333333333
 47
0.0
 47
0.0
 47
0.0
 47
0.0
 47
0.0208333333333333
 47
0.0
 47
0.0
 47
0.0
 47
0.0
 47
1.0
 47
0.0
 47
0.0
 47
0.0
 47
0.0
 47
1.0
171
     0
 49
0.0208333333333333
 49
0.0
 49
0.0
 49
0.0
 49
0.0
 49
0.0208333333333333
 49
0.0
 49
0.0
 49
0.0
 49
0.0
 49
1.0
 49
0.0
 49
0.0
 49
0.0
 49
0.0
 49
1.0
175
     0
142
0.0208333333333333
142
0.0
142
0.0
142
0.0
142
0.0
142
0.0208333333333333
142
0.0
142
0.0
142
0.0
142
0.0
142
1.0
142
0.0
142
0.0
142
0.0
142
0.0
142
1.0
179
     0
144
0.0208333333333333
144
0.0
144
0.0
144
0.0
144
0.0
144
0.0208333333333333
144
0.0
144
0.0
144
0.0
144
0.0
144
1.0
144
0.0
144
0.0
144
0.0
144
0.0
144
1.0
147
0.0208333333333333
147
0.0
147
0.0
147
0.0
147
0.0
147
0.0208333333333333
147
0.0
147
0.0
147
0.0
147
0.0
147
1.0
147
0.0
147
0.0
147
0.0
147
0.0
147
1.0
  0
MLEADERSTYLE
  5
700
102
{ACAD_REACTORS
330
6FF
102
}
330
6FF
100
AcDbMLeaderStyle
170
     2
171
     1
172
     0
 90
        2
 40
0.0
 41
0.0
173
     1
 91
-1056964608
340
C
 92
       -2
290
     1
 42
0.09
291
     1
 43
0.36
  3
Standard
 44
0.18
300

342
1D
174
     1
178
     6
175
     1
176
     0
 93
-1056964608
 45
0.18
292
     0
297
     0
 46
0.18
 94
-1056964608
 47
1.0
 49
1.0
140
1.0
293
     1
141
0.0
294
     1
177
     0
142
1.0
295
     0
296
     0
143
0.125
1001
ACAD_MLEADERVER
1070
     2
  0
MLINESTYLE
  5
6A6
102
{ACAD_REACTORS
330
6A5
102
}
330
6A5
100
AcDbMlineStyle
  2
STANDARD
 70
     0
  3

 62
     0
 51
90.0
 52
90.0
 71
     2
 49
0.5
 62
   256
  6
BYLAYER
 49
-0.5
 62
   256
  6
BYLAYER
  0
ACDBPLACEHOLDER
  5
6AF
102
{ACAD_REACTORS
330
6AE
102
}
330
6AE
  0
SCALE
  5
6DE
102
{ACAD_REACTORS
330
6DD
102
}
330
6DD
100
AcDbScale
 70
     0
300
1:1
140
1.0
141
1.0
290
     1
  0
SCALE
  5
6DF
102
{ACAD_REACTORS
330
6DD
102
}
330
6DD
100
AcDbScale
 70
     0
300
1:2
140
1.0
141
2.0
290
     0
  0
SCALE
  5
6E0
102
{ACAD_REACTORS
330
6DD
102
}
330
6DD
100
AcDbScale
 70
     0
300
1:4
140
1.0
141
4.0
290
     0
  0
SCALE
  5
6E1
102
{ACAD_REACTORS
330
6DD
102
}
330
6DD
100
AcDbScale
 70
     0
300
1:5
140
1.0
141
5.0
290
     0
  0
SCALE
  5
6E2
102
{ACAD_REACTORS
330
6DD
102
}
330
6DD
100
AcDbScale
 70
     0
300
1:8
140
1.0
141
8.0
290
     0
  0
SCALE
  5
6E3
102
{ACAD_REACTORS
330
6DD
102
}
330
6DD
100
AcDbScale
 70
     0
300
1:10
140
1.0
141
10.0
290
     0
  0
SCALE
  5
6E4
102
{ACAD_REACTORS
330
6DD
102
}
330
6DD
100
AcDbScale
 70
     0
300
1:16
140
1.0
141
16.0
290
     0
  0
SCALE
  5
6E5
102
{ACAD_REACTORS
330
6DD
102
}
330
6DD
100
AcDbScale
 70
     0
300
1:20
140
1.0
141
20.0
290
     0
  0
SCALE
  5
6E6
102
{ACAD_REACTORS
330
6DD
102
}
330
6DD
100
AcDbScale
 70
     0
300
1:30
140
1.0
141
30.0
290
     0
  0
SCALE
  5
6E7
102
{ACAD_REACTORS
330
6DD
102
}
330
6DD
100
AcDbScale
 70
     0
300
1:40
140
1.0
141
40.0
290
     0
  0
SCALE
  5
6E8
102
{ACAD_REACTORS
330
6DD
102
}
330
6DD
100
AcDbScale
 70
     0
300
1:50
140
1.0
141
50.0
290
     0
  0
SCALE
  5
6E9
102
{ACAD_REACTORS
330
6DD
102
}
330
6DD
100
AcDbScale
 70
     0
300
1:100
140
1.0
141
100.0
290
     0
  0
SCALE
  5
6EA
102
{ACAD_REACTORS
330
6DD
102
}
330
6DD
100
AcDbScale
 70
     0
300
2:1
140
2.0
141
1.0
290
     0
  0
SCALE
  5
6EB
102
{ACAD_REACTORS
330
6DD
102
}
330
6DD
100
AcDbScale
 70
     0
300
4:1
140
4.0
141
1.0
290
     0
  0
SCALE
  5
6EC
102
{ACAD_REACTORS
330
6DD
102
}
330
6DD
100
AcDbScale
 70
     0
300
8:1
140
8.0
141
1.0
290
     0
  0
SCALE
  5
6ED
102
{ACAD_REACTORS
330
6DD
102
}
330
6DD
100
AcDbScale
 70
     0
300
10:1
140
10.0
141
1.0
290
     0
  0
SCALE
  5
6EE
102
{ACAD_REACTORS
330
6DD
102
}
330
6DD
100
AcDbScale
 70
     0
300
100:1
140
100.0
141
1.0
290
     0
  0
SCALE
  5
6EF
102
{ACAD_REACTORS
330
6DD
102
}
330
6DD
100
AcDbScale
 70
     0
300
1/128" = 1'-0"
140
0.0078125
141
12.0
290
     0
  0
SCALE
  5
6F0
102
{ACAD_REACTORS
330
6DD
102
}
330
6DD
100
AcDbScale
 70
     0
300
1/64" = 1'-0"
140
0.015625
141
12.0
290
     0
  0
SCALE
  5
6F1
102
{ACAD_REACTORS
330
6DD
102
}
330
6DD
100
AcDbScale
 70
     0
300
1/32" = 1'-0"
140
0.03125
141
12.0
290
     0
  0
SCALE
  5
6F2
102
{ACAD_REACTORS
330
6DD
102
}
330
6DD
100
AcDbScale
 70
     0
300
1/16" = 1'-0"
140
0.0625
141
12.0
290
     0
  0
SCALE
  5
6F3
102
{ACAD_REACTORS
330
6DD
102
}
330
6DD
100
AcDbScale
 70
     0
300
3/32" = 1'-0"
140
0.09375
141
12.0
290
     0
  0
SCALE
  5
6F4
102
{ACAD_REACTORS
330
6DD
102
}
330
6DD
100
AcDbScale
 70
     0
300
1/8" = 1'-0"
140
0.125
141
12.0
290
     0
  0
SCALE
  5
6F5
102
{ACAD_REACTORS
330
6DD
102
}
330
6DD
100
AcDbScale
 70
     0
300
3/16" = 1'-0"
140
0.1875
141
12.0
290
     0
  0
SCALE
  5
6F6
102
{ACAD_REACTORS
330
6DD
102
}
330
6DD
100
AcDbScale
 70
     0
300
1/4" = 1'-0"
140
0.25
141
12.0
290
     0
  0
SCALE
  5
6F7
102
{ACAD_REACTORS
330
6DD
102
}
330
6DD
100
AcDbScale
 70
     0
300
3/8" = 1'-0"
140
0.375
141
12.0
290
     0
  0
SCALE
  5
6F8
102
{ACAD_REACTORS
330
6DD
102
}
330
6DD
100
AcDbScale
 70
     0
300
1/2" = 1'-0"
140
0.5
141
12.0
290
     0
  0
SCALE
  5
6F9
102
{ACAD_REACTORS
330
6DD
102
}
330
6DD
100
AcDbScale
 70
     0
300
3/4" = 1'-0"
140
0.75
141
12.0
290
     0
  0
SCALE
  5
6FA
102
{ACAD_REACTORS
330
6DD
102
}
330
6DD
100
AcDbScale
 70
     0
300
1" = 1'-0"
140
1.0
141
12.0
290
     0
  0
SCALE
  5
6FB
102
{ACAD_REACTORS
330
6DD
102
}
330
6DD
100
AcDbScale
 70
     0
300
1-1/2" = 1'-0"
140
1.5
141
12.0
290
     0
  0
SCALE
  5
6FC
102
{ACAD_REACTORS
330
6DD
102
}
330
6DD
100
AcDbScale
 70
     0
300
3" = 1'-0"
140
3.0
141
12.0
290
     0
  0
SCALE
  5
6FD
102
{ACAD_REACTORS
330
6DD
102
}
330
6DD
100
AcDbScale
 70
     0
300
6" = 1'-0"
140
6.0
141
12.0
290
     0
  0
SCALE
  5
6FE
102
{ACAD_REACTORS
330
6DD
102
}
330
6DD
100
AcDbScale
 70
     0
300
1'-0" = 1'-0"
140
12.0
141
12.0
290
     0
  0
TABLESTYLE
  5
6DC
102
{ACAD_XDICTIONARY
360
71B
102
}
102
{ACAD_REACTORS
330
6DB
102
}
330
6DB
100
AcDbTableStyle
  3
Standard
 70
     0
 71
     0
 40
0.06
 41
0.06
280
     0
281
     0
  7
STANDARD
140
0.18
170
     2
 62
     0
 63
     7
283
     0
274
    -2
284
     1
 64
     0
275
    -2
285
     1
 65
     0
276
    -2
286
     1
 66
     0
277
    -2
287
     1
 67
     0
278
    -2
288
     1
 68
     0
279
    -2
289
     1
 69
     0
  7
STANDARD
140
0.25
170
     5
 62
     0
 63
     7
283
     0
274
    -2
284
     1
 64
     0
275
    -2
285
     1
 65
     0
276
    -2
286
     1
 66
     0
277
    -2
287
     1
 67
     0
278
    -2
288
     1
 68
     0
279
    -2
289
     1
 69
     0
  7
STANDARD
140
0.18
170
     5
 62
     0
 63
     7
283
     0
274
    -2
284
     1
 64
     0
275
    -2
285
     1
 65
     0
276
    -2
286
     1
 66
     0
277
    -2
287
     1
 67
     0
278
    -2
288
     1
 68
     0
279
    -2
289
     1
 69
     0
  0
VISUALSTYLE
  5
6CF
102
{ACAD_REACTORS
330
6C9
102
}
330
6C9
100
AcDbVisualStyle
  2
2dWireframe
 70
     4
 71
     0
 72
     2
 73
     0
 90
        0
 40
-0.6
 41
-30.0
 62
     5
 63
     7
 74
     1
 91
        4
 64
     7
 65
   257
 75
     1
175
     1
 42
1.0
 92
        0
 66
   257
 43
1.0
 76
     1
 77
     6
 78
     2
 67
     7
 79
     5
170
     0
171
     0
290
     0
174
     0
 93
        1
 44
0.0
173
     0
291
     0
 45
0.0
1001
ACAD
1000
AcDbSavedByObjectVersion
1070
     0
1000
AcDbSavedByObjectVersion
1070
     0
1000
AcDbSavedByObjectVersion
1070
     0
  0
VISUALSTYLE
  5
6D1
102
{ACAD_REACTORS
330
6C9
102
}
330
6C9
100
AcDbVisualStyle
  2
3D Hidden
 70
     6
 71
     1
 72
     2
 73
     2
 90
        0
 40
-0.6
 41
-30.0
 62
     5
 63
     7
 74
     2
 91
        2
 64
     7
 65
   257
 75
     2
175
     1
 42
40.0
 92
        0
 66
   257
 43
1.0
 76
     1
 77
     6
 78
     2
 67
     7
 79
     3
170
     0
171
     0
290
     0
174
     0
 93
        1
 44
0.0
173
     0
291
     0
 45
0.0
1001
ACAD
1000
AcDbSavedByObjectVersion
1070
     0
1000
AcDbSavedByObjectVersion
1070
     0
1000
AcDbSavedByObjectVersion
1070
     0
  0
VISUALSTYLE
  5
6D0
102
{ACAD_REACTORS
330
6C9
102
}
330
6C9
100
AcDbVisualStyle
  2
3dWireframe
 70
     5
 71
     0
 72
     2
 73
     0
 90
        0
 40
-0.6
 41
-30.0
 62
     5
 63
     7
 74
     1
 91
        4
 64
     7
 65
   257
 75
     1
175
     1
 42
1.0
 92
        0
 66
   257
 43
1.0
 76
     1
 77
     6
 78
     2
 67
     7
 79
     5
170
     0
171
     0
290
     0
174
     0
 93
        1
 44
0.0
173
     0
291
     0
 45
0.0
1001
ACAD
1000
AcDbSavedByObjectVersion
1070
     0
1000
AcDbSavedByObjectVersion
1070
     0
1000
AcDbSavedByObjectVersion
1070
     0
  0
VISUALSTYLE
  5
6CE
102
{ACAD_REACTORS
330
6C9
102
}
330
6C9
100
AcDbVisualStyle
  2
Basic
 70
     7
 71
     1
 72
     0
 73
     1
 90
        0
 40
-0.6
 41
-30.0
 62
     5
 63
     7
 74
     0
 91
        4
 64
     7
 65
   257
 75
     1
175
     1
 42
1.0
 92
        8
 66
     7
 43
1.0
 76
     1
 77
     6
 78
     2
 67
     7
 79
     5
170
     0
171
     0
290
     0
174
     0
 93
        1
 44
0.0
173
     0
291
     1
 45
0.0
1001
ACAD
1000
AcDbSavedByObjectVersion
1070
     0
1000
AcDbSavedByObjectVersion
1070
     0
1000
AcDbSavedByObjectVersion
1070
     0
  0
VISUALSTYLE
  5
6D5
102
{ACAD_REACTORS
330
6C9
102
}
330
6C9
100
AcDbVisualStyle
  2
Brighten
 70
    12
 71
     2
 72
     2
 73
     0
 90
        0
 40
-0.6
 41
-30.0
 62
     5
 63
     7
 74
     1
 91
        4
 64
     7
 65
   257
 75
     1
175
     1
 42
1.0
 92
        8
 66
     7
 43
1.0
 76
     1
 77
     6
 78
     2
 67
     7
 79
     5
170
     0
171
     0
290
     0
174
     0
 93
        1
 44
50.0
173
     0
291
     1
 45
0.0
1001
ACAD
1000
AcDbSavedByObjectVersion
1070
     0
1000
AcDbSavedByObjectVersion
1070
     0
1000
AcDbSavedByObjectVersion
1070
     0
  0
VISUALSTYLE
  5
6D9
102
{ACAD_REACTORS
330
6C9
102
}
330
6C9
100
AcDbVisualStyle
  2
ColorChange
 70
    16
 71
     2
 72
     2
 73
     3
 90
        0
 40
-0.6
 41
-30.0
 62
     5
 63
     8
 74
     1
 91
        4
 64
     7
 65
   257
 75
     1
175
     1
 42
1.0
 92
        8
 66
     8
 43
1.0
 76
     1
 77
     6
 78
     2
 67
     7
 79
     5
170
     0
171
     0
290
     0
174
     0
 93
        1
 44
0.0
173
     0
291
     1
 45
0.0
1001
ACAD
1000
AcDbSavedByObjectVersion
1070
     0
1000
AcDbSavedByObjectVersion
1070
     0
1000
AcDbSavedByObjectVersion
1070
     0
  0
VISUALSTYLE
  5
6D2
102
{ACAD_REACTORS
330
6C9
102
}
330
6C9
100
AcDbVisualStyle
  2
Conceptual
 70
     9
 71
     3
 72
     2
 73
     0
 90
        0
 40
-0.6
 41
-30.0
 62
     5
 63
     7
 74
     2
 91
        2
 64
     7
 65
   257
 75
     1
175
     1
 42
40.0
 92
        8
 66
     7
 43
1.0
 76
     1
 77
     6
 78
     2
 67
     7
 79
     3
170
     0
171
     0
290
     0
174
     0
 93
        1
 44
0.0
173
     0
291
     0
 45
0.0
1001
ACAD
1000
AcDbSavedByObjectVersion
1070
     0
1000
AcDbSavedByObjectVersion
1070
     0
1000
AcDbSavedByObjectVersion
1070
     0
  0
VISUALSTYLE
  5
6D4
102
{ACAD_REACTORS
330
6C9
102
}
330
6C9
100
AcDbVisualStyle
  2
Dim
 70
    11
 71
     2
 72
     2
 73
     0
 90
        0
 40
-0.6
 41
-30.0
 62
     5
 63
     7
 74
     1
 91
        4
 64
     7
 65
   257
 75
     1
175
     1
 42
1.0
 92
        8
 66
     7
 43
1.0
 76
     1
 77
     6
 78
     2
 67
     7
 79
     5
170
     0
171
     0
290
     0
174
     0
 93
        1
 44
-50.0
173
     0
291
     1
 45
0.0
1001
ACAD
1000
AcDbSavedByObjectVersion
1070
     0
1000
AcDbSavedByObjectVersion
1070
     0
1000
AcDbSavedByObjectVersion
1070
     0
  0
VISUALSTYLE
  5
6D8
102
{ACAD_REACTORS
330
6C9
102
}
330
6C9
100
AcDbVisualStyle
  2
Facepattern
 70
    15
 71
     2
 72
     2
 73
     0
 90
        0
 40
-0.6
 41
-30.0
 62
     5
 63
     7
 74
     1
 91
        4
 64
     7
 65
   257
 75
     1
175
     1
 42
1.0
 92
        8
 66
     7
 43
1.0
 76
     1
 77
     6
 78
     2
 67
     7
 79
     5
170
     0
171
     0
290
     0
174
     0
 93
        1
 44
0.0
173
     0
291
     1
 45
0.0
1001
ACAD
1000
AcDbSavedByObjectVersion
1070
     0
1000
AcDbSavedByObjectVersion
1070
     0
1000
AcDbSavedByObjectVersion
1070
     0
  0
VISUALSTYLE
  5
6CA
102
{ACAD_REACTORS
330
6C9
102
}
330
6C9
100
AcDbVisualStyle
  2
Flat
 70
     0
 71
     2
 72
     1
 73
     1
 90
        2
 40
-0.6
 41
30.0
 62
     5
 63
     7
 74
     0
 91
        4
 64
     7
 65
   257
 75
     1
175
     1
 42
1.0
 92
        8
 66
     7
 43
1.0
 76
     1
 77
     6
 78
     2
 67
     7
 79
     5
170
     0
171
     0
290
     0
174
     0
 93
       13
 44
0.0
173
     0
291
     1
 45
0.0
1001
ACAD
1000
AcDbSavedByObjectVersion
1070
     0
1000
AcDbSavedByObjectVersion
1070
     0
1000
AcDbSavedByObjectVersion
1070
     0
  0
VISUALSTYLE
  5
6CB
102
{ACAD_REACTORS
330
6C9
102
}
330
6C9
100
AcDbVisualStyle
  2
FlatWithEdges
 70
     1
 71
     2
 72
     1
 73
     1
 90
        2
 40
-0.6
 41
30.0
 62
     5
 63
     7
 74
     1
 91
        4
 64
     7
 65
   257
 75
     1
175
     1
 42
1.0
 92
        0
 66
   257
 43
1.0
 76
     1
 77
     6
 78
     2
 67
     7
 79
     5
170
     0
171
     0
290
     0
174
     0
 93
       13
 44
0.0
173
     0
291
     1
 45
0.0
1001
ACAD
1000
AcDbSavedByObjectVersion
1070
     0
1000
AcDbSavedByObjectVersion
1070
     0
1000
AcDbSavedByObjectVersion
1070
     0
  0
VISUALSTYLE
  5
6CC
102
{ACAD_REACTORS
330
6C9
102
}
330
6C9
100
AcDbVisualStyle
  2
Gouraud
 70
     2
 71
     2
 72
     2
 73
     1
 90
        2
 40
-0.6
 41
30.0
 62
     5
 63
     7
 74
     0
 91
        4
 64
     7
 65
   257
 75
     1
175
     1
 42
1.0
 92
        0
 66
     7
 43
1.0
 76
     1
 77
     6
 78
     2
 67
     7
 79
     5
170
     0
171
     0
290
     0
174
     0
 93
       13
 44
0.0
173
     0
291
     1
 45
0.0
1001
ACAD
1000
AcDbSavedByObjectVersion
1070
     0
1000
AcDbSavedByObjectVersion
1070
     0
1000
AcDbSavedByObjectVersion
1070
     0
  0
VISUALSTYLE
  5
6CD
102
{ACAD_REACTORS
330
6C9
102
}
330
6C9
100
AcDbVisualStyle
  2
GouraudWithEdges
 70
     3
 71
     2
 72
     2
 73
     1
 90
        2
 40
-0.6
 41
30.0
 62
     5
 63
     7
 74
     1
 91
        4
 64
     7
 65
   257
 75
     1
175
     1
 42
1.0
 92
        0
 66
   257
 43
1.0
 76
     1
 77
     6
 78
     2
 67
     7
 79
     5
170
     0
171
     0
290
     0
174
     0
 93
       13
 44
0.0
173
     0
291
     1
 45
0.0
1001
ACAD
1000
AcDbSavedByObjectVersion
1070
     0
1000
AcDbSavedByObjectVersion
1070
     0
1000
AcDbSavedByObjectVersion
1070
     0
  0
VISUALSTYLE
  5
6D7
102
{ACAD_REACTORS
330
6C9
102
}
330
6C9
100
AcDbVisualStyle
  2
Linepattern
 70
    14
 71
     2
 72
     2
 73
     0
 90
        0
 40
-0.6
 41
-30.0
 62
     5
 63
     7
 74
     1
 91
        4
 64
     7
 65
   257
 75
     7
175
     7
 42
1.0
 92
        8
 66
     7
 43
1.0
 76
     1
 77
     6
 78
     2
 67
     7
 79
     5
170
     0
171
     0
290
     0
174
     0
 93
        1
 44
0.0
173
     0
291
     1
 45
0.0
1001
ACAD
1000
AcDbSavedByObjectVersion
1070
     0
1000
AcDbSavedByObjectVersion
1070
     0
1000
AcDbSavedByObjectVersion
1070
     0
  0
VISUALSTYLE
  5
6D3
102
{ACAD_REACTORS
330
6C9
102
}
330
6C9
100
AcDbVisualStyle
  2
Realistic
 70
     8
 71
     2
 72
     2
 73
     0
 90
        0
 40
-0.6
 41
-30.0
 62
     5
 63
     7
 74
     1
 91
        0
 64
     7
 65
   257
 75
     1
175
     1
 42
1.0
 92
        8
 66
     8
 43
1.0
 76
     1
 77
     6
 78
     2
 67
     7
 79
     5
170
     0
171
     0
290
     0
174
     0
 93
       13
 44
0.0
173
     0
291
     0
 45
0.0
1001
ACAD
1000
AcDbSavedByObjectVersion
1070
     0
1000
AcDbSavedByObjectVersion
1070
     0
1000
AcDbSavedByObjectVersion
1070
     0
  0
VISUALSTYLE
  5
6D6
102
{ACAD_REACTORS
330
6C9
102
}
330
6C9
100
AcDbVisualStyle
  2
Thicken
 70
    13
 71
     2
 72
     2
 73
     0
 90
        0
 40
-0.6
 41
-30.0
 62
     5
 63
     7
 74
     1
 91
        4
 64
     7
 65
   257
 75
     1
175
     1
 42
1.0
 92
       12
 66
     7
 43
1.0
 76
     1
 77
     6
 78
     2
 67
     7
 79
     5
170
     0
171
     0
290
     0
174
     0
 93
        1
 44
0.0
173
     0
291
     1
 45
0.0
1001
ACAD
1000
AcDbSavedByObjectVersion
1070
     0
1000
AcDbSavedByObjectVersion
1070
     0
1000
AcDbSavedByObjectVersion
1070
     0
  0
DICTIONARYVAR
  5
717
102
{ACAD_REACTORS
330
714
102
}
330
714
100
DictionaryVariables
280
     0
  1
1:1
  0
DICTIONARYVAR
  5
716
102
{ACAD_REACTORS
330
714
102
}
330
714
100
DictionaryVariables
280
     0
  1
STANDARD
  0
DICTIONARYVAR
  5
715
102
{ACAD_REACTORS
330
714
102
}
330
714
100
DictionaryVariables
280
     0
  1
STANDARD
  0
DICTIONARYVAR
  5
71A
102
{ACAD_REACTORS
330
714
102
}
330
714
100
DictionaryVariables
280
     0
  1
1
  0
DICTIONARYVAR
  5
719
102
{ACAD_REACTORS
330
714
102
}
330
714
100
DictionaryVariables
280
     0
  1
0
  0
DICTIONARYVAR
  5
718
102
{ACAD_REACTORS
330
714
102
}
330
714
100
DictionaryVariables
280
     0
  1
127
  0
DICTIONARY
  5
80A
330
704
100
AcDbDictionary
280
     1
281
     1
  3
ACAD_XREC_ROUNDTRIP
360
80B
  0
DICTIONARY
  5
80C
330
705
100
AcDbDictionary
280
     1
281
     1
  3
ACAD_XREC_ROUNDTRIP
360
80D
  0
DICTIONARY
  5
6BA
330
6B9
100
AcDbDictionary
280
     1
281
     1
  3
ACAD_XREC_ROUNDTRIP
360
720
  3
BUMPTILE
360
6BC
  3
DIFFUSETILE
360
6BB
  3
OPACITYTILE
360
6BF
  3
REFLECTIONTILE
360
6BE
  3
REFRACTIONTILE
360
6C0
  3
SPECULARTILE
360
6BD
  0
DICTIONARY
  5
6B2
330
6B1
100
AcDbDictionary
280
     1
281
     1
  3
ACAD_XREC_ROUNDTRIP
360
71F
  3
BUMPTILE
360
6B4
  3
DIFFUSETILE
360
6B3
  3
OPACITYTILE
360
6B7
  3
REFLECTIONTILE
360
6B6
  3
REFRACTIONTILE
360
6B8
  3
SPECULARTILE
360
6B5
  0
DICTIONARY
  5
6C2
330
6C1
100
AcDbDictionary
280
     1
281
     1
  3
ACAD_XREC_ROUNDTRIP
360
721
  3
BUMPTILE
360
6C4
  3
DIFFUSETILE
360
6C3
  3
OPACITYTILE
360
6C7
  3
REFLECTIONTILE
360
6C6
  3
REFRACTIONTILE
360
6C8
  3
SPECULARTILE
360
6C5
  0
DICTIONARY
  5
71B
330
6DC
100
AcDbDictionary
280
     1
281
     1
  3
ACAD_ROUNDTRIP_2008_TABLESTYLE_CELLSTYLEMAP
360
807
  3
ACAD_XREC_ROUNDTRIP
360
809
  0
XRECORD
  5
80B
102
{ACAD_REACTORS
330
80A
102
}
330
80A
100
AcDbXrecord
280
     1
102
SHADEPLOT
 70
     0
102
SHADEPLOTRESLEVEL
 70
     2
102
SHADEPLOTCUSTOMDPI
 70
   300
  0
XRECORD
  5
80D
102
{ACAD_REACTORS
330
80C
102
}
330
80C
100
AcDbXrecord
280
     1
102
SHADEPLOT
 70
     0
102
SHADEPLOTRESLEVEL
 70
     2
102
SHADEPLOTCUSTOMDPI
 70
   300
  0
XRECORD
  5
720
102
{ACAD_REACTORS
330
6BA
102
}
330
6BA
100
AcDbXrecord
280
     1
102
MATERIAL
148
0.0
149
0.0
149
0.0
 93
        0
 94
      127
282
     0
 72
     0
 77
     0
171
     0
175
     0
179
     0
273
     0
  0
XRECORD
  5
6BC
102
{ACAD_REACTORS
330
6BA
102
}
330
6BA
100
AcDbXrecord
280
     1
270
     1
271
     1
  0
XRECORD
  5
6BB
102
{ACAD_REACTORS
330
6BA
102
}
330
6BA
100
AcDbXrecord
280
     1
270
     1
271
     1
  0
XRECORD
  5
6BF
102
{ACAD_REACTORS
330
6BA
102
}
330
6BA
100
AcDbXrecord
280
     1
270
     1
271
     1
  0
XRECORD
  5
6BE
102
{ACAD_REACTORS
330
6BA
102
}
330
6BA
100
AcDbXrecord
280
     1
270
     1
271
     1
  0
XRECORD
  5
6C0
102
{ACAD_REACTORS
330
6BA
102
}
330
6BA
100
AcDbXrecord
280
     1
270
     1
271
     1
  0
XRECORD
  5
6BD
102
{ACAD_REACTORS
330
6BA
102
}
330
6BA
100
AcDbXrecord
280
     1
270
     1
271
     1
  0
XRECORD
  5
71F
102
{ACAD_REACTORS
330
6B2
102
}
330
6B2
100
AcDbXrecord
280
     1
102
MATERIAL
148
0.0
149
0.0
149
0.0
 93
        0
 94
      127
282
     0
 72
     0
 77
     0
171
     0
175
     0
179
     0
273
     0
  0
XRECORD
  5
6B4
102
{ACAD_REACTORS
330
6B2
102
}
330
6B2
100
AcDbXrecord
280
     1
270
     1
271
     1
  0
XRECORD
  5
6B3
102
{ACAD_REACTORS
330
6B2
102
}
330
6B2
100
AcDbXrecord
280
     1
270
     1
271
     1
  0
XRECORD
  5
6B7
102
{ACAD_REACTORS
330
6B2
102
}
330
6B2
100
AcDbXrecord
280
     1
270
     1
271
     1
  0
XRECORD
  5
6B6
102
{ACAD_REACTORS
330
6B2
102
}
330
6B2
100
AcDbXrecord
280
     1
270
     1
271
     1
  0
XRECORD
  5
6B8
102
{ACAD_REACTORS
330
6B2
102
}
330
6B2
100
AcDbXrecord
280
     1
270
     1
271
     1
  0
XRECORD
  5
6B5
102
{ACAD_REACTORS
330
6B2
102
}
330
6B2
100
AcDbXrecord
280
     1
270
     1
271
     1
  0
XRECORD
  5
721
102
{ACAD_REACTORS
330
6C2
102
}
330
6C2
100
AcDbXrecord
280
     1
102
MATERIAL
148
0.0
149
0.0
149
0.0
 93
        0
 94
      127
282
     0
 72
     0
 77
     0
171
     0
175
     0
179
     0
273
     0
  0
XRECORD
  5
6C4
102
{ACAD_REACTORS
330
6C2
102
}
330
6C2
100
AcDbXrecord
280
     1
270
     1
271
     1
  0
XRECORD
  5
6C3
102
{ACAD_REACTORS
330
6C2
102
}
330
6C2
100
AcDbXrecord
280
     1
270
     1
271
     1
  0
XRECORD
  5
6C7
102
{ACAD_REACTORS
330
6C2
102
}
330
6C2
100
AcDbXrecord
280
     1
270
     1
271
     1
  0
XRECORD
  5
6C6
102
{ACAD_REACTORS
330
6C2
102
}
330
6C2
100
AcDbXrecord
280
     1
270
     1
271
     1
  0
XRECORD
  5
6C8
102
{ACAD_REACTORS
330
6C2
102
}
330
6C2
100
AcDbXrecord
280
     1
270
     1
271
     1
  0
XRECORD
  5
6C5
102
{ACAD_REACTORS
330
6C2
102
}
330
6C2
100
AcDbXrecord
280
     1
270
     1
271
     1
  0
CELLSTYLEMAP
  5
807
102
{ACAD_REACTORS
330
71B
102
}
330
71B
100
AcDbCellStyleMap
 90
        3
300
CELLSTYLE
  1
TABLEFORMAT_BEGIN
 90
        5
170
     1
 91
        0
 92
    32768
 62
   257
 93
        1
300
CONTENTFORMAT
  1
CONTENTFORMAT_BEGIN
 90
        0
 91
        0
 92
      512
 93
        0
300

 40
0.0
140
1.0
 94
        5
 62
     0
340
1D
144
0.25
309
CONTENTFORMAT_END
171
     1
301
MARGIN
  1
CELLMARGIN_BEGIN
 40
0.06
 40
0.06
 40
0.06
 40
0.06
 40
0.18
 40
0.18
309
CELLMARGIN_END
 94
        6
 95
        1
302
GRIDFORMAT
  1
GRIDFORMAT_BEGIN
 90
        0
 91
        1
 62
     0
 92
       -2
340
0
 93
        0
 40
0.045
309
GRIDFORMAT_END
 95
        2
302
GRIDFORMAT
  1
GRIDFORMAT_BEGIN
 90
        0
 91
        1
 62
     0
 92
       -2
340
0
 93
        0
 40
0.045
309
GRIDFORMAT_END
 95
        4
302
GRIDFORMAT
  1
GRIDFORMAT_BEGIN
 90
        0
 91
        1
 62
     0
 92
       -2
340
0
 93
        0
 40
0.045
309
GRIDFORMAT_END
 95
        8
302
GRIDFORMAT
  1
GRIDFORMAT_BEGIN
 90
        0
 91
        1
 62
     0
 92
       -2
340
0
 93
        0
 40
0.045
309
GRIDFORMAT_END
 95
       16
302
GRIDFORMAT
  1
GRIDFORMAT_BEGIN
 90
        0
 91
        1
 62
     0
 92
       -2
340
0
 93
        0
 40
0.045
309
GRIDFORMAT_END
 95
       32
302
GRIDFORMAT
  1
GRIDFORMAT_BEGIN
 90
        0
 91
        1
 62
     0
 92
       -2
340
0
 93
        0
 40
0.045
309
GRIDFORMAT_END
309
TABLEFORMAT_END
  1
CELLSTYLE_BEGIN
 90
        1
 91
        1
300
_TITLE
309
CELLSTYLE_END
300
CELLSTYLE
  1
TABLEFORMAT_BEGIN
 90
        5
170
     1
 91
        0
 92
        0
 62
   257
 93
        1
300
CONTENTFORMAT
  1
CONTENTFORMAT_BEGIN
 90
        0
 91
        0
 92
      512
 93
        0
300

 40
0.0
140
1.0
 94
        5
 62
     0
340
1D
144
0.18
309
CONTENTFORMAT_END
171
     1
301
MARGIN
  1
CELLMARGIN_BEGIN
 40
0.06
 40
0.06
 40
0.06
 40
0.06
 40
0.18
 40
0.18
309
CELLMARGIN_END
 94
        6
 95
        1
302
GRIDFORMAT
  1
GRIDFORMAT_BEGIN
 90
        0
 91
        1
 62
     0
 92
       -2
340
0
 93
        0
 40
0.045
309
GRIDFORMAT_END
 95
        2
302
GRIDFORMAT
  1
GRIDFORMAT_BEGIN
 90
        0
 91
        1
 62
     0
 92
       -2
340
0
 93
        0
 40
0.045
309
GRIDFORMAT_END
 95
        4
302
GRIDFORMAT
  1
GRIDFORMAT_BEGIN
 90
        0
 91
        1
 62
     0
 92
       -2
340
0
 93
        0
 40
0.045
309
GRIDFORMAT_END
 95
        8
302
GRIDFORMAT
  1
GRIDFORMAT_BEGIN
 90
        0
 91
        1
 62
     0
 92
       -2
340
0
 93
        0
 40
0.045
309
GRIDFORMAT_END
 95
       16
302
GRIDFORMAT
  1
GRIDFORMAT_BEGIN
 90
        0
 91
        1
 62
     0
 92
       -2
340
0
 93
        0
 40
0.045
309
GRIDFORMAT_END
 95
       32
302
GRIDFORMAT
  1
GRIDFORMAT_BEGIN
 90
        0
 91
        1
 62
     0
 92
       -2
340
0
 93
        0
 40
0.045
309
GRIDFORMAT_END
309
TABLEFORMAT_END
  1
CELLSTYLE_BEGIN
 90
        2
 91
        1
300
_HEADER
309
CELLSTYLE_END
300
CELLSTYLE
  1
TABLEFORMAT_BEGIN
 90
        5
170
     1
 91
        0
 92
        0
 62
   257
 93
        1
300
CONTENTFORMAT
  1
CONTENTFORMAT_BEGIN
 90
        0
 91
        0
 92
      512
 93
        0
300

 40
0.0
140
1.0
 94
        2
 62
     0
340
1D
144
0.18
309
CONTENTFORMAT_END
171
     1
301
MARGIN
  1
CELLMARGIN_BEGIN
 40
0.06
 40
0.06
 40
0.06
 40
0.06
 40
0.18
 40
0.18
309
CELLMARGIN_END
 94
        6
 95
        1
302
GRIDFORMAT
  1
GRIDFORMAT_BEGIN
 90
        0
 91
        1
 62
     0
 92
       -2
340
0
 93
        0
 40
0.045
309
GRIDFORMAT_END
 95
        2
302
GRIDFORMAT
  1
GRIDFORMAT_BEGIN
 90
        0
 91
        1
 62
     0
 92
       -2
340
0
 93
        0
 40
0.045
309
GRIDFORMAT_END
 95
        4
302
GRIDFORMAT
  1
GRIDFORMAT_BEGIN
 90
        0
 91
        1
 62
     0
 92
       -2
340
0
 93
        0
 40
0.045
309
GRIDFORMAT_END
 95
        8
302
GRIDFORMAT
  1
GRIDFORMAT_BEGIN
 90
        0
 91
        1
 62
     0
 92
       -2
340
0
 93
        0
 40
0.045
309
GRIDFORMAT_END
 95
       16
302
GRIDFORMAT
  1
GRIDFORMAT_BEGIN
 90
        0
 91
        1
 62
     0
 92
       -2
340
0
 93
        0
 40
0.045
309
GRIDFORMAT_END
 95
       32
302
GRIDFORMAT
  1
GRIDFORMAT_BEGIN
 90
        0
 91
        1
 62
     0
 92
       -2
340
0
 93
        0
 40
0.045
309
GRIDFORMAT_END
309
TABLEFORMAT_END
  1
CELLSTYLE_BEGIN
 90
        3
 91
        2
300
_DATA
309
CELLSTYLE_END
  0
XRECORD
  5
809
102
{ACAD_REACTORS
330
71B
102
}
330
71B
100
AcDbXrecord
280
     1
102
ACAD_ROUNDTRIP_PRE2007_TABLESTYLE
 90
      512
 91
        0
  1

 92
      512
 93
        0
  2

 94
      512
 95
        0
  3

  0
ENDSEC
  0
EOF
