  0
SECTION
  2
HEADER
  9
$ACADVER
  1
AC1015
  9
$ACADMAINTVER
 70
    20
  9
$DWGCODEPAGE
  3
ANSI_932
  9
$INSBASE
 10
0.0
 20
0.0
 30
0.0
  9
$EXTMIN
 10
-360.0
 20
-277.0
 30
0.0
  9
$EXTMAX
 10
404.3974240000002
 20
264.0
 30
0.0
  9
$LIMMIN
 10
-420.0
 20
-297.0
  9
$LIMMAX
 10
420.0
 20
297.0
  9
$ORTHOMODE
 70
     1
  9
$REGENMODE
 70
     1
  9
$FILLMODE
 70
     1
  9
$QTEXTMODE
 70
     0
  9
$MIRRTEXT
 70
     1
  9
$LTSCALE
 40
1.0
  9
$ATTMODE
 70
     1
  9
$TEXTSIZE
 40
1.0
  9
$TRACEWID
 40
0.05
  9
$TEXTSTYLE
  7
STANDARD
  9
$CLAYER
  8
0
  9
$CELTYPE
  6
CONTINUOUS
  9
$CECOLOR
 62
   256
  9
$CELTSCALE
 40
1.0
  9
$DISPSILH
 70
     0
  9
$DIMSCALE
 40
2.0
  9
$DIMASZ
 40
0.18
  9
$DIMEXO
 40
0.0625
  9
$DIMDLI
 40
0.38
  9
$DIMRND
 40
0.0
  9
$DIMDLE
 40
0.0
  9
$DIMEXE
 40
0.18
  9
$DIMTP
 40
0.0
  9
$DIMTM
 40
0.0
  9
$DIMTXT
 40
0.18
  9
$DIMCEN
 40
0.09
  9
$DIMTSZ
 40
0.0
  9
$DIMTOL
 70
     0
  9
$DIMLIM
 70
     0
  9
$DIMTIH
 70
     1
  9
$DIMTOH
 70
     1
  9
$DIMSE1
 70
     0
  9
$DIMSE2
 70
     0
  9
$DIMTAD
 70
     1
  9
$DIMZIN
 70
     0
  9
$DIMBLK
  1

  9
$DIMASO
 70
     1
  9
$DIMSHO
 70
     1
  9
$DIMPOST
  1

  9
$DIMAPOST
  1

  9
$DIMALT
 70
     0
  9
$DIMALTD
 70
     2
  9
$DIMALTF
 40
25.4
  9
$DIMLFAC
 40
1.0
  9
$DIMTOFL
 70
     0
  9
$DIMTVP
 40
0.0
  9
$DIMTIX
 70
     0
  9
$DIMSOXD
 70
     0
  9
$DIMSAH
 70
     0
  9
$DIMBLK1
  1

  9
$DIMBLK2
  1

  9
$DIMSTYLE
  2
STANDARD
  9
$DIMCLRD
 70
     0
  9
$DIMCLRE
 70
     0
  9
$DIMCLRT
 70
     0
  9
$DIMTFAC
 40
1.0
  9
$DIMGAP
 40
0.09
  9
$DIMJUST
 70
     0
  9
$DIMSD1
 70
     0
  9
$DIMSD2
 70
     0
  9
$DIMTOLJ
 70
     1
  9
$DIMTZIN
 70
     0
  9
$DIMALTZ
 70
     0
  9
$DIMALTTZ
 70
     0
  9
$DIMUPT
 70
     0
  9
$DIMDEC
 70
     4
  9
$DIMTDEC
 70
     4
  9
$DIMALTU
 70
     2
  9
$DIMALTTD
 70
     2
  9
$DIMTXSTY
  7
STANDARD
  9
$DIMAUNIT
 70
     0
  9
$DIMADEC
 70
     0
  9
$DIMALTRND
 40
0.0
  9
$DIMAZIN
 70
     0
  9
$DIMDSEP
 70
    46
  9
$DIMATFIT
 70
     3
  9
$DIMFRAC
 70
     0
  9
$DIMLDRBLK
  1

  9
$DIMLUNIT
 70
     2
  9
$DIMLWD
 70
    -2
  9
$DIMLWE
 70
    -2
  9
$DIMTMOVE
 70
     0
  9
$LUNITS
 70
     2
  9
$LUPREC
 70
     4
  9
$SKETCHINC
 40
0.1
  9
$FILLETRAD
 40
0.0
  9
$AUNITS
 70
     0
  9
$AUPREC
 70
     0
  9
$MENU
  1
acad
  9
$ELEVATION
 40
0.0
  9
$PELEVATION
 40
0.0
  9
$THICKNESS
 40
0.0
  9
$LIMCHECK
 70
     0
  9
$CHAMFERA
 40
0.0
  9
$CHAMFERB
 40
0.0
  9
$CHAMFERC
 40
0.0
  9
$CHAMFERD
 40
0.0
  9
$SKPOLY
 70
     0
  9
$TDCREATE
 40
2450695.000000000
  9
$TDUCREATE
 40
2450694.625000000
  9
$TDUPDATE
 40
2454943.650852581
  9
$TDUUPDATE
 40
2454943.275852581
  9
$TDINDWG
 40
0.0026955787
  9
$TDUSRTIMER
 40
0.0026955787
  9
$USRTIMER
 70
     1
  9
$ANGBASE
 50
0.0
  9
$ANGDIR
 70
     0
  9
$PDMODE
 70
     0
  9
$PDSIZE
 40
0.0
  9
$PLINEWID
 40
0.0
  9
$SPLFRAME
 70
     0
  9
$SPLINETYPE
 70
     6
  9
$SPLINESEGS
 70
     8
  9
$HANDSEED
  5
5D8
  9
$SURFTAB1
 70
     6
  9
$SURFTAB2
 70
     6
  9
$SURFTYPE
 70
     6
  9
$SURFU
 70
     6
  9
$SURFV
 70
     6
  9
$UCSBASE
  2

  9
$UCSNAME
  2

  9
$UCSORG
 10
0.0
 20
0.0
 30
0.0
  9
$UCSXDIR
 10
1.0
 20
0.0
 30
0.0
  9
$UCSYDIR
 10
0.0
 20
1.0
 30
0.0
  9
$UCSORTHOREF
  2

  9
$UCSORTHOVIEW
 70
     0
  9
$UCSORGTOP
 10
0.0
 20
0.0
 30
0.0
  9
$UCSORGBOTTOM
 10
0.0
 20
0.0
 30
0.0
  9
$UCSORGLEFT
 10
0.0
 20
0.0
 30
0.0
  9
$UCSORGRIGHT
 10
0.0
 20
0.0
 30
0.0
  9
$UCSORGFRONT
 10
0.0
 20
0.0
 30
0.0
  9
$UCSORGBACK
 10
0.0
 20
0.0
 30
0.0
  9
$PUCSBASE
  2

  9
$PUCSNAME
  2

  9
$PUCSORG
 10
0.0
 20
0.0
 30
0.0
  9
$PUCSXDIR
 10
1.0
 20
0.0
 30
0.0
  9
$PUCSYDIR
 10
0.0
 20
1.0
 30
0.0
  9
$PUCSORTHOREF
  2

  9
$PUCSORTHOVIEW
 70
     0
  9
$PUCSORGTOP
 10
0.0
 20
0.0
 30
0.0
  9
$PUCSORGBOTTOM
 10
0.0
 20
0.0
 30
0.0
  9
$PUCSORGLEFT
 10
0.0
 20
0.0
 30
0.0
  9
$PUCSORGRIGHT
 10
0.0
 20
0.0
 30
0.0
  9
$PUCSORGFRONT
 10
0.0
 20
0.0
 30
0.0
  9
$PUCSORGBACK
 10
0.0
 20
0.0
 30
0.0
  9
$USERI1
 70
     0
  9
$USERI2
 70
     0
  9
$USERI3
 70
     0
  9
$USERI4
 70
     0
  9
$USERI5
 70
     0
  9
$USERR1
 40
0.0
  9
$USERR2
 40
0.0
  9
$USERR3
 40
0.0
  9
$USERR4
 40
0.0
  9
$USERR5
 40
0.0
  9
$WORLDVIEW
 70
     1
  9
$SHADEDGE
 70
     3
  9
$SHADEDIF
 70
    70
  9
$TILEMODE
 70
     1
  9
$MAXACTVP
 70
    16
  9
$PINSBASE
 10
0.0
 20
0.0
 30
0.0
  9
$PLIMCHECK
 70
     0
  9
$PEXTMIN
 10
1.000000000000000E+20
 20
1.000000000000000E+20
 30
1.000000000000000E+20
  9
$PEXTMAX
 10
-1.000000000000000E+20
 20
-1.000000000000000E+20
 30
-1.000000000000000E+20
  9
$PLIMMIN
 10
0.0
 20
0.0
  9
$PLIMMAX
 10
12.0
 20
9.0
  9
$UNITMODE
 70
     0
  9
$VISRETAIN
 70
     0
  9
$PLINEGEN
 70
     1
  9
$PSLTSCALE
 70
     0
  9
$TREEDEPTH
 70
  3020
  9
$CMLSTYLE
  2
STANDARD
  9
$CMLJUST
 70
     0
  9
$CMLSCALE
 40
1.0
  9
$PROXYGRAPHICS
 70
     1
  9
$MEASUREMENT
 70
     0
  9
$CELWEIGHT
370
    -1
  9
$ENDCAPS
280
     0
  9
$JOINSTYLE
280
     0
  9
$LWDISPLAY
290
     0
  9
$INSUNITS
 70
     0
  9
$HYPERLINKBASE
  1

  9
$STYLESHEET
  1

  9
$XEDIT
290
     1
  9
$CEPSNTYPE
380
     0
  9
$PSTYLEMODE
290
     1
  9
$FINGERPRINTGUID
  2
{352A1AC4-918B-43D6-ABDB-88797F27DB62}
  9
$VERSIONGUID
  2
{B3967999-ED32-4404-831A-C7935562C092}
  9
$EXTNAMES
290
     1
  9
$PSVPSCALE
 40
0.0
  9
$OLESTARTUP
290
     0
  0
ENDSEC
  0
SECTION
  2
CLASSES
  0
CLASS
  1
IMAGE
  2
AcDbRasterImage
  3
ISM
 90
    34943
280
     0
281
     1
  0
CLASS
  1
DICTIONARYVAR
  2
AcDbDictionaryVar
  3
ObjectDBX Classes
 90
        0
280
     0
281
     0
  0
CLASS
  1
RASTERVARIABLES
  2
AcDbRasterVariables
  3
ISM
 90
    32768
280
     0
281
     0
  0
CLASS
  1
IMAGEDEF
  2
AcDbRasterImageDef
  3
ISM
 90
    32768
280
     0
281
     0
  0
CLASS
  1
IMAGEDEF_REACTOR
  2
AcDbRasterImageDefReactor
  3
ISM
 90
    32769
280
     0
281
     0
  0
CLASS
  1
IDBUFFER
  2
AcDbIdBuffer
  3
ObjectDBX Classes
 90
    32768
280
     0
281
     0
  0
CLASS
  1
SPATIAL_FILTER
  2
AcDbSpatialFilter
  3
ObjectDBX Classes
 90
    32768
280
     0
281
     0
  0
CLASS
  1
SORTENTSTABLE
  2
AcDbSortentsTable
  3
ObjectDBX Classes
 90
    32768
280
     0
281
     0
  0
CLASS
  1
LAYER_INDEX
  2
AcDbLayerIndex
  3
ObjectDBX Classes
 90
    32768
280
     0
281
     0
  0
CLASS
  1
SPATIAL_INDEX
  2
AcDbSpatialIndex
  3
ObjectDBX Classes
 90
    32768
280
     0
281
     0
  0
CLASS
  1
OBJECT_PTR
  2
CAseDLPNTableRecord
  3
"ASE-LPNTableRecord"
 90
    32769
280
     0
281
     0
  0
CLASS
  1
LAYOUT
  2
AcDbLayout
  3
ObjectDBX Classes
 90
        0
280
     0
281
     0
  0
CLASS
  1
PLOTSETTINGS
  2
AcDbPlotSettings
  3
ObjectDBX Classes
 90
    32768
280
     0
281
     0
  0
CLASS
  1
ACDBDICTIONARYWDFLT
  2
AcDbDictionaryWithDefault
  3
ObjectDBX Classes
 90
        0
280
     0
281
     0
  0
CLASS
  1
ACDBPLACEHOLDER
  2
AcDbPlaceHolder
  3
ObjectDBX Classes
 90
        0
280
     0
281
     0
  0
CLASS
  1
VBA_PROJECT
  2
AcDbVbaProject
  3
acad
 90
    32768
280
     0
281
     0
  0
CLASS
  1
WIPEOUT
  2
AcDbWipeout
  3
"WipeOut|Product Desc: Object Enabler for WipeOut entity                        |Company: Autodesk, Inc.                        |WEB Address: www.autodesk.com"
 90
    34943
280
     0
281
     1
  0
CLASS
  1
WIPEOUTVARIABLES
  2
AcDbWipeoutVariables
  3
"WipeOut|Product Desc:     WipeOut Dbx Application|Company:          Autodesk, Inc.|WEB Address:      www.autodesk.com"
 90
    32768
280
     0
281
     0
  0
CLASS
  1
RTEXT
  2
RText
  3
RText|AutoCAD Express Tool|expresstools@autodesk.com
 90
    32768
280
     0
281
     1
  0
CLASS
  1
ARCALIGNEDTEXT
  2
AcDbArcAlignedText
  3
ATEXT|AutoCAD Express Tool|expresstools@autodesk.com
 90
    32768
280
     0
281
     1
  0
CLASS
  1
MATERIAL
  2
AcDbMaterial
  3
ObjectDBX Classes
 90
     1153
280
     0
281
     0
  0
CLASS
  1
VISUALSTYLE
  2
AcDbVisualStyle
  3
ObjectDBX Classes
 90
     4095
280
     0
281
     0
  0
CLASS
  1
TABLESTYLE
  2
AcDbTableStyle
  3
ObjectDBX Classes
 90
     4095
280
     0
281
     0
  0
CLASS
  1
SCALE
  2
AcDbScale
  3
ObjectDBX Classes
 90
     1153
280
     0
281
     0
  0
CLASS
  1
MLEADERSTYLE
  2
AcDbMLeaderStyle
  3
ACDB_MLEADERSTYLE_CLASS
 90
     4095
280
     0
281
     0
  0
CLASS
  1
CELLSTYLEMAP
  2
AcDbCellStyleMap
  3
ObjectDBX Classes
 90
     1152
280
     0
281
     0
  0
ENDSEC
  0
SECTION
  2
TABLES
  0
TABLE
  2
VPORT
  5
6
330
0
100
AcDbSymbolTable
 70
     1
  0
VPORT
  5
1B
330
6
100
AcDbSymbolTableRecord
100
AcDbViewportTableRecord
  2
*ACTIVE
 70
     0
 10
0.0
 20
0.0
 11
1.0
 21
1.0
 12
135.7980648810664
 22
-197.898108526317
 13
0.0
 23
0.0
 14
1.0
 24
1.0
 15
0.0
 25
0.0
 16
0.0
 26
0.0
 36
1.0
 17
0.0
 27
0.0
 37
0.0
 40
412.1525324839232
 41
1.805914972273567
 42
50.0
 43
0.0
 44
0.0
 50
0.0
 51
0.0
 71
     0
 72
   500
 73
     1
 74
     1
 75
     0
 76
     0
 77
     0
 78
     0
281
     0
 65
     1
110
0.0
120
0.0
130
0.0
111
1.0
121
0.0
131
0.0
112
0.0
122
1.0
132
0.0
 79
     0
146
0.0
  0
ENDTAB
  0
TABLE
  2
LTYPE
  5
3
330
0
100
AcDbSymbolTable
 70
     7
  0
LTYPE
  5
C
330
3
100
AcDbSymbolTableRecord
100
AcDbLinetypeTableRecord
  2
BYBLOCK
 70
     0
  3

 72
    65
 73
     0
 40
0.0
  0
LTYPE
  5
D
330
3
100
AcDbSymbolTableRecord
100
AcDbLinetypeTableRecord
  2
BYLAYER
 70
     0
  3

 72
    65
 73
     0
 40
0.0
  0
LTYPE
  5
E
330
3
100
AcDbSymbolTableRecord
100
AcDbLinetypeTableRecord
  2
CONTINUOUS
 70
     0
  3
Solid line
 72
    65
 73
     0
 40
0.0
  0
LTYPE
  5
F
330
3
100
AcDbSymbolTableRecord
100
AcDbLinetypeTableRecord
  2
DASHED
 70
     0
  3
__ __ __ __ __ __ __ __ __ __ __ __ __ __ __
 72
    65
 73
     2
 40
2.0
 49
1.199999999999999
 74
     0
 49
-0.8
 74
     0
  0
LTYPE
  5
10
330
3
100
AcDbSymbolTableRecord
100
AcDbLinetypeTableRecord
  2
CENTER
 70
     0
  3
____ _ ____ _ ____ _ ____ _ ____ _ ____ _ ____
 72
    65
 73
     4
 40
12.0
 49
9.0
 74
     0
 49
-1.0
 74
     0
 49
1.0
 74
     0
 49
-1.0
 74
     0
  0
LTYPE
  5
11
330
3
100
AcDbSymbolTableRecord
100
AcDbLinetypeTableRecord
  2
HIDDEN
 70
     0
  3
_ _ _ _ _ _ _ _ _ _ _ _ _ _ _ _ _ _ _ _ _ _ _
 72
    65
 73
     2
 40
3.2
 49
2.399999999999999
 74
     0
 49
-0.8
 74
     0
  0
LTYPE
  5
12
330
3
100
AcDbSymbolTableRecord
100
AcDbLinetypeTableRecord
  2
PHANTOM
 70
     0
  3
_____ _ _ _____ _ _ _____ _ _ _____ _ _ _____
 72
    65
 73
     6
 40
13.5
 49
9.0
 74
     0
 49
-1.0
 74
     0
 49
1.0
 74
     0
 49
-0.5
 74
     0
 49
1.0
 74
     0
 49
-1.0
 74
     0
  0
LTYPE
  5
13
330
3
100
AcDbSymbolTableRecord
100
AcDbLinetypeTableRecord
  2
DOT
 70
     0
  3
...............................................
 72
    65
 73
     2
 40
1.0
 49
0.5
 74
     0
 49
-0.5
 74
     0
  0
LTYPE
  5
14
330
3
100
AcDbSymbolTableRecord
100
AcDbLinetypeTableRecord
  2
DASHDOT
 70
     0
  3
__ . __ . __ . __ . __ . __ . __ . __ . __ . __
 72
    65
 73
     4
 40
8.0
 49
5.0
 74
     0
 49
-1.0
 74
     0
 49
1.0
 74
     0
 49
-1.0
 74
     0
  0
ENDTAB
  0
TABLE
  2
LAYER
  5
1
330
0
100
AcDbSymbolTable
 70
     6
  0
LAYER
  5
15
102
{ACAD_XDICTIONARY
360
5B9
102
}
330
1
100
AcDbSymbolTableRecord
100
AcDbLayerTableRecord
  2
0
 70
     0
 62
     7
  6
CONTINUOUS
370
    -3
390
560
  0
LAYER
  5
16
102
{ACAD_XDICTIONARY
360
5BB
102
}
330
1
100
AcDbSymbolTableRecord
100
AcDbLayerTableRecord
  2
1
 70
     0
 62
     7
  6
CONTINUOUS
370
    -3
390
560
  0
LAYER
  5
17
102
{ACAD_XDICTIONARY
360
5BD
102
}
330
1
100
AcDbSymbolTableRecord
100
AcDbLayerTableRecord
  2
2
 70
     0
 62
     7
  6
CONTINUOUS
370
    -3
390
560
  0
LAYER
  5
18
102
{ACAD_XDICTIONARY
360
5BF
102
}
330
1
100
AcDbSymbolTableRecord
100
AcDbLayerTableRecord
  2
5
 70
     0
 62
     7
  6
CONTINUOUS
370
    -3
390
560
  0
LAYER
  5
19
102
{ACAD_XDICTIONARY
360
5C1
102
}
330
1
100
AcDbSymbolTableRecord
100
AcDbLayerTableRecord
  2
18
 70
     0
 62
     7
  6
CONTINUOUS
370
    -3
390
560
  0
LAYER
  5
1A
102
{ACAD_XDICTIONARY
360
5C3
102
}
330
1
100
AcDbSymbolTableRecord
100
AcDbLayerTableRecord
  2
20
 70
     0
 62
     7
  6
CONTINUOUS
370
    -3
390
560
  0
ENDTAB
  0
TABLE
  2
STYLE
  5
2
330
0
100
AcDbSymbolTable
 70
     1
  0
STYLE
  5
1D
330
2
100
AcDbSymbolTableRecord
100
AcDbTextStyleTableRecord
  2
STANDARD
 70
     0
 40
0.0
 41
1.0
 50
0.0
 71
     0
 42
1.0
  3
simplex.shx
  4
BIGFONT.shx
  0
ENDTAB
  0
TABLE
  2
VIEW
  5
4
330
0
100
AcDbSymbolTable
 70
     0
  0
ENDTAB
  0
TABLE
  2
UCS
  5
5
330
0
100
AcDbSymbolTable
 70
     0
  0
ENDTAB
  0
TABLE
  2
APPID
  5
7
330
0
100
AcDbSymbolTable
 70
     3
  0
APPID
  5
1C
330
7
100
AcDbSymbolTableRecord
100
AcDbRegAppTableRecord
  2
ACAD
 70
     0
  0
APPID
  5
5B2
330
7
100
AcDbSymbolTableRecord
100
AcDbRegAppTableRecord
  2
ACAD_MLEADERVER
 70
     0
  0
APPID
  5
5B8
330
7
100
AcDbSymbolTableRecord
100
AcDbRegAppTableRecord
  2
AcadAnnoPO
 70
     0
  0
ENDTAB
  0
TABLE
  2
DIMSTYLE
  5
8
330
0
100
AcDbSymbolTable
 70
     1
100
AcDbDimStyleTable
 71
     0
  0
DIMSTYLE
105
2C
330
8
100
AcDbSymbolTableRecord
100
AcDbDimStyleTableRecord
  2
STANDARD
 70
     0
 40
2.0
 77
     1
340
1D
  0
ENDTAB
  0
TABLE
  2
BLOCK_RECORD
  5
27
330
0
100
AcDbSymbolTable
 70
     7
  0
BLOCK_RECORD
  5
25
330
27
100
AcDbSymbolTableRecord
100
AcDbBlockTableRecord
  2
*MODEL_SPACE
340
5B5
  0
BLOCK_RECORD
  5
26
330
27
100
AcDbSymbolTableRecord
100
AcDbBlockTableRecord
  2
*PAPER_SPACE
340
5B6
  0
BLOCK_RECORD
  5
1E
330
27
100
AcDbSymbolTableRecord
100
AcDbBlockTableRecord
  2
*D0
340
0
  0
BLOCK_RECORD
  5
1F
330
27
100
AcDbSymbolTableRecord
100
AcDbBlockTableRecord
  2
*D1
340
0
  0
BLOCK_RECORD
  5
20
330
27
100
AcDbSymbolTableRecord
100
AcDbBlockTableRecord
  2
*D2
340
0
  0
BLOCK_RECORD
  5
21
330
27
100
AcDbSymbolTableRecord
100
AcDbBlockTableRecord
  2
*D3
340
0
  0
BLOCK_RECORD
  5
22
330
27
100
AcDbSymbolTableRecord
100
AcDbBlockTableRecord
  2
*D4
340
0
  0
BLOCK_RECORD
  5
23
330
27
100
AcDbSymbolTableRecord
100
AcDbBlockTableRecord
  2
*D5
340
0
  0
BLOCK_RECORD
  5
24
330
27
100
AcDbSymbolTableRecord
100
AcDbBlockTableRecord
  2
*D6
340
0
  0
ENDTAB
  0
ENDSEC
  0
SECTION
  2
BLOCKS
  0
BLOCK
  5
28
330
25
100
AcDbEntity
  8
0
100
AcDbBlockBegin
  2
*MODEL_SPACE
 70
     0
 10
0.0
 20
0.0
 30
0.0
  3
*MODEL_SPACE
  1

  0
ENDBLK
  5
29
330
25
100
AcDbEntity
  8
0
100
AcDbBlockEnd
  0
BLOCK
  5
2A
330
26
100
AcDbEntity
 67
     1
  8
0
100
AcDbBlockBegin
  2
*PAPER_SPACE
 70
     0
 10
0.0
 20
0.0
 30
0.0
  3
*PAPER_SPACE
  1

  0
ENDBLK
  5
2B
330
26
100
AcDbEntity
 67
     1
  8
0
100
AcDbBlockEnd
  0
BLOCK
  5
503
330
1E
100
AcDbEntity
  8
5
100
AcDbBlockBegin
  2
*D0
 70
     1
 10
0.0
 20
0.0
 30
0.0
  3
*D0
  1

  0
TEXT
  5
504
330
1E
100
AcDbEntity
  8
5
 62
     2
100
AcDbText
 10
-324.633148
 20
193.12296
 30
0.0
 40
6.599999999999999
  1
75
 50
90.0
 41
0.6917647058823527
 72
     5
 11
-324.633148
 21
200.51496
 31
0.0
100
AcDbText
  0
LINE
  5
505
330
1E
100
AcDbEntity
  8
5
 62
     2
100
AcDbLine
 10
-310.422
 20
160.24296
 30
0.0
 11
-325.633148
 21
160.24296
 31
0.0
  0
LINE
  5
506
330
1E
100
AcDbEntity
  8
5
 62
     2
100
AcDbLine
 10
-323.633148
 20
160.24296
 30
0.0
 11
-322.597872
 21
164.106663
 31
0.0
  0
LINE
  5
507
330
1E
100
AcDbEntity
  8
5
 62
     2
100
AcDbLine
 10
-323.633148
 20
160.24296
 30
0.0
 11
-324.668424
 21
164.106663
 31
0.0
  0
LINE
  5
508
330
1E
100
AcDbEntity
  8
5
 62
     2
100
AcDbLine
 10
-322.597872
 20
164.106663
 30
0.0
 11
-324.668424
 21
164.106663
 31
0.0
  0
LINE
  5
509
330
1E
100
AcDbEntity
  8
5
 62
     2
100
AcDbLine
 10
-323.633148
 20
160.24296
 30
0.0
 11
-323.633148
 21
235.24296
 31
0.0
  0
LINE
  5
50A
330
1E
100
AcDbEntity
  8
5
 62
     2
100
AcDbLine
 10
-323.633148
 20
235.24296
 30
0.0
 11
-324.668424
 21
231.379257
 31
0.0
  0
LINE
  5
50B
330
1E
100
AcDbEntity
  8
5
 62
     2
100
AcDbLine
 10
-323.633148
 20
235.24296
 30
0.0
 11
-322.597872
 21
231.379257
 31
0.0
  0
LINE
  5
50C
330
1E
100
AcDbEntity
  8
5
 62
     2
100
AcDbLine
 10
-324.668424
 20
231.379257
 30
0.0
 11
-322.597872
 21
231.379257
 31
0.0
  0
LINE
  5
50D
330
1E
100
AcDbEntity
  8
5
 62
     2
100
AcDbLine
 10
-259.842159
 20
235.24296
 30
0.0
 11
-325.633148
 21
235.24296
 31
0.0
  0
ENDBLK
  5
50E
330
1E
100
AcDbEntity
  8
5
100
AcDbBlockEnd
  0
BLOCK
  5
50F
330
1F
100
AcDbEntity
  8
5
100
AcDbBlockBegin
  2
*D1
 70
     1
 10
0.0
 20
0.0
 30
0.0
  3
*D1
  1

  0
TEXT
  5
510
330
1F
100
AcDbEntity
  8
5
 62
     2
100
AcDbText
 10
-324.633148
 20
130.62296
 30
0.0
 40
6.599999999999999
  1
50
 50
90.0
 41
0.6917647058823526
 72
     5
 11
-324.633148
 21
138.01496
 31
0.0
100
AcDbText
  0
LINE
  5
511
330
1F
100
AcDbEntity
  8
5
 62
     2
100
AcDbLine
 10
-244.842159
 20
110.24296
 30
0.0
 11
-325.633148
 21
110.24296
 31
0.0
  0
LINE
  5
512
330
1F
100
AcDbEntity
  8
5
 62
     2
100
AcDbLine
 10
-323.633148
 20
110.24296
 30
0.0
 11
-322.597872
 21
114.106663
 31
0.0
  0
LINE
  5
513
330
1F
100
AcDbEntity
  8
5
 62
     2
100
AcDbLine
 10
-323.633148
 20
110.24296
 30
0.0
 11
-324.668424
 21
114.106663
 31
0.0
  0
LINE
  5
514
330
1F
100
AcDbEntity
  8
5
 62
     2
100
AcDbLine
 10
-322.597872
 20
114.106663
 30
0.0
 11
-324.668424
 21
114.106663
 31
0.0
  0
LINE
  5
515
330
1F
100
AcDbEntity
  8
5
 62
     2
100
AcDbLine
 10
-323.633148
 20
110.24296
 30
0.0
 11
-323.633148
 21
160.24296
 31
0.0
  0
LINE
  5
516
330
1F
100
AcDbEntity
  8
5
 62
     2
100
AcDbLine
 10
-323.633148
 20
160.24296
 30
0.0
 11
-324.668424
 21
156.379257
 31
0.0
  0
LINE
  5
517
330
1F
100
AcDbEntity
  8
5
 62
     2
100
AcDbLine
 10
-323.633148
 20
160.24296
 30
0.0
 11
-322.597872
 21
156.379257
 31
0.0
  0
LINE
  5
518
330
1F
100
AcDbEntity
  8
5
 62
     2
100
AcDbLine
 10
-324.668424
 20
156.379257
 30
0.0
 11
-322.597872
 21
156.379257
 31
0.0
  0
LINE
  5
519
330
1F
100
AcDbEntity
  8
5
 62
     2
100
AcDbLine
 10
-310.422
 20
160.24296
 30
0.0
 11
-325.633148
 21
160.24296
 31
0.0
  0
ENDBLK
  5
51A
330
1F
100
AcDbEntity
  8
5
100
AcDbBlockEnd
  0
BLOCK
  5
51B
330
20
100
AcDbEntity
  8
5
100
AcDbBlockBegin
  2
*D2
 70
     1
 10
0.0
 20
0.0
 30
0.0
  3
*D2
  1

  0
LINE
  5
51C
330
20
100
AcDbEntity
  8
5
 62
     2
100
AcDbLine
 10
-242.841921
 20
6.832536
 30
0.0
 11
-242.841921
 21
54.47683000000001
 31
0.0
  0
LINE
  5
51D
330
20
100
AcDbEntity
  8
5
 62
     2
100
AcDbLine
 10
-242.841921
 20
52.47683000000001
 30
0.0
 11
-238.978218
 21
51.44155300000001
 31
0.0
  0
LINE
  5
51E
330
20
100
AcDbEntity
  8
5
 62
     2
100
AcDbLine
 10
-242.841921
 20
52.47683000000001
 30
0.0
 11
-238.978218
 21
53.512106
 31
0.0
  0
LINE
  5
51F
330
20
100
AcDbEntity
  8
5
 62
     2
100
AcDbLine
 10
-238.978218
 20
51.44155300000001
 30
0.0
 11
-238.978218
 21
53.512106
 31
0.0
  0
LINE
  5
520
330
20
100
AcDbEntity
  8
5
 62
     2
100
AcDbLine
 10
-242.841921
 20
52.47683000000001
 30
0.0
 11
-42.980699
 21
52.47683000000001
 31
0.0
  0
LINE
  5
521
330
20
100
AcDbEntity
  8
5
 62
     2
100
AcDbLine
 10
-42.980699
 20
52.47683000000001
 30
0.0
 11
-46.844402
 21
53.512106
 31
0.0
  0
LINE
  5
522
330
20
100
AcDbEntity
  8
5
 62
     2
100
AcDbLine
 10
-42.980699
 20
52.47683000000001
 30
0.0
 11
-46.844402
 21
51.44155300000001
 31
0.0
  0
LINE
  5
523
330
20
100
AcDbEntity
  8
5
 62
     2
100
AcDbLine
 10
-46.844402
 20
53.512106
 30
0.0
 11
-46.844402
 21
51.44155300000001
 31
0.0
  0
LINE
  5
524
330
20
100
AcDbEntity
  8
5
 62
     2
100
AcDbLine
 10
-42.980699
 20
31.178993
 30
0.0
 11
-42.980699
 21
54.47683000000001
 31
0.0
  0
ENDBLK
  5
525
330
20
100
AcDbEntity
  8
5
100
AcDbBlockEnd
  0
BLOCK
  5
526
330
21
100
AcDbEntity
  8
5
100
AcDbBlockBegin
  2
*D3
 70
     1
 10
0.0
 20
0.0
 30
0.0
  3
*D3
  1

  0
TEXT
  5
527
330
21
100
AcDbEntity
  8
5
 62
     2
100
AcDbText
 10
2.368317999999999
 20
-102.471293
 30
0.0
 40
6.599999999999999
  1
132
 50
90.0
 41
0.7643999363636367
 72
     5
 11
2.368317999999999
 21
-90.459294
 31
0.0
100
AcDbText
  0
LINE
  5
528
330
21
100
AcDbEntity
  8
5
 62
     2
100
AcDbLine
 10
51.194351
 20
-161.541323
 30
0.0
 11
1.368317999999999
 21
-161.541323
 31
0.0
  0
LINE
  5
529
330
21
100
AcDbEntity
  8
5
 62
     2
100
AcDbLine
 10
3.368317999999999
 20
-161.541323
 30
0.0
 11
4.403594
 21
-157.677619
 31
0.0
  0
LINE
  5
52A
330
21
100
AcDbEntity
  8
5
 62
     2
100
AcDbLine
 10
3.368317999999999
 20
-161.541323
 30
0.0
 11
2.333041999999999
 21
-157.677619
 31
0.0
  0
LINE
  5
52B
330
21
100
AcDbEntity
  8
5
 62
     2
100
AcDbLine
 10
4.403594
 20
-157.677619
 30
0.0
 11
2.333041999999999
 21
-157.677619
 31
0.0
  0
LINE
  5
52C
330
21
100
AcDbEntity
  8
5
 62
     2
100
AcDbLine
 10
3.368317999999999
 20
-161.541323
 30
0.0
 11
3.368317999999999
 21
-29.541264
 31
0.0
  0
LINE
  5
52D
330
21
100
AcDbEntity
  8
5
 62
     2
100
AcDbLine
 10
3.368317999999999
 20
-29.541264
 30
0.0
 11
2.333041999999999
 21
-33.404968
 31
0.0
  0
LINE
  5
52E
330
21
100
AcDbEntity
  8
5
 62
     2
100
AcDbLine
 10
3.368317999999999
 20
-29.541264
 30
0.0
 11
4.403594
 21
-33.404968
 31
0.0
  0
LINE
  5
52F
330
21
100
AcDbEntity
  8
5
 62
     2
100
AcDbLine
 10
2.333041999999999
 20
-33.404968
 30
0.0
 11
4.403594
 21
-33.404968
 31
0.0
  0
LINE
  5
530
330
21
100
AcDbEntity
  8
5
 62
     2
100
AcDbLine
 10
34.667908
 20
-29.541264
 30
0.0
 11
1.368317999999999
 21
-29.541264
 31
0.0
  0
ENDBLK
  5
531
330
21
100
AcDbEntity
  8
5
100
AcDbBlockEnd
  0
BLOCK
  5
532
330
22
100
AcDbEntity
  8
5
100
AcDbBlockBegin
  2
*D4
 70
     1
 10
0.0
 20
0.0
 30
0.0
  3
*D4
  1

  0
LINE
  5
533
330
22
100
AcDbEntity
  8
5
 62
     2
100
AcDbLine
 10
34.667908
 20
-29.541264
 30
0.0
 11
1.368317999999999
 21
-29.541264
 31
0.0
  0
LINE
  5
534
330
22
100
AcDbEntity
  8
5
 62
     2
100
AcDbLine
 10
3.368317999999999
 20
-29.541264
 30
0.0
 11
4.403594
 21
-25.677561
 31
0.0
  0
LINE
  5
535
330
22
100
AcDbEntity
  8
5
 62
     2
100
AcDbLine
 10
3.368317999999999
 20
-29.541264
 30
0.0
 11
2.333041999999999
 21
-25.677561
 31
0.0
  0
LINE
  5
536
330
22
100
AcDbEntity
  8
5
 62
     2
100
AcDbLine
 10
4.403594
 20
-25.677561
 30
0.0
 11
2.333041999999999
 21
-25.677561
 31
0.0
  0
LINE
  5
537
330
22
100
AcDbEntity
  8
5
 62
     2
100
AcDbLine
 10
3.368317999999999
 20
-29.541264
 30
0.0
 11
3.368317999999999
 21
36.63610999999999
 31
0.0
  0
LINE
  5
538
330
22
100
AcDbEntity
  8
5
 62
     2
100
AcDbLine
 10
3.368317999999999
 20
36.63610999999999
 30
0.0
 11
2.333041999999999
 21
32.772406
 31
0.0
  0
LINE
  5
539
330
22
100
AcDbEntity
  8
5
 62
     2
100
AcDbLine
 10
3.368317999999999
 20
36.63610999999999
 30
0.0
 11
4.403594
 21
32.772406
 31
0.0
  0
LINE
  5
53A
330
22
100
AcDbEntity
  8
5
 62
     2
100
AcDbLine
 10
2.333041999999999
 20
32.772406
 30
0.0
 11
4.403594
 21
32.772406
 31
0.0
  0
LINE
  5
53B
330
22
100
AcDbEntity
  8
5
 62
     2
100
AcDbLine
 10
84.667908
 20
36.63610999999999
 30
0.0
 11
1.368317999999999
 21
36.63610999999999
 31
0.0
  0
ENDBLK
  5
53C
330
22
100
AcDbEntity
  8
5
100
AcDbBlockEnd
  0
BLOCK
  5
53D
330
23
100
AcDbEntity
  8
5
100
AcDbBlockBegin
  2
*D5
 70
     1
 10
0.0
 20
0.0
 30
0.0
  3
*D5
  1

  0
LINE
  5
53E
330
23
100
AcDbEntity
  8
5
 62
     2
100
AcDbLine
 10
79.667908
 20
-221.441323
 30
0.0
 11
1.368317999999999
 21
-221.441323
 31
0.0
  0
LINE
  5
53F
330
23
100
AcDbEntity
  8
5
 62
     2
100
AcDbLine
 10
3.368317999999999
 20
-221.441323
 30
0.0
 11
4.403594
 21
-217.577619
 31
0.0
  0
LINE
  5
540
330
23
100
AcDbEntity
  8
5
 62
     2
100
AcDbLine
 10
3.368317999999999
 20
-221.441323
 30
0.0
 11
2.333041999999999
 21
-217.577619
 31
0.0
  0
LINE
  5
541
330
23
100
AcDbEntity
  8
5
 62
     2
100
AcDbLine
 10
4.403594
 20
-217.577619
 30
0.0
 11
2.333041999999999
 21
-217.577619
 31
0.0
  0
LINE
  5
542
330
23
100
AcDbEntity
  8
5
 62
     2
100
AcDbLine
 10
3.368317999999999
 20
-221.441323
 30
0.0
 11
3.368317999999999
 21
-161.541323
 31
0.0
  0
LINE
  5
543
330
23
100
AcDbEntity
  8
5
 62
     2
100
AcDbLine
 10
3.368317999999999
 20
-161.541323
 30
0.0
 11
2.333041999999999
 21
-165.405026
 31
0.0
  0
LINE
  5
544
330
23
100
AcDbEntity
  8
5
 62
     2
100
AcDbLine
 10
3.368317999999999
 20
-161.541323
 30
0.0
 11
4.403594
 21
-165.405026
 31
0.0
  0
LINE
  5
545
330
23
100
AcDbEntity
  8
5
 62
     2
100
AcDbLine
 10
2.333041999999999
 20
-165.405026
 30
0.0
 11
4.403594
 21
-165.405026
 31
0.0
  0
LINE
  5
546
330
23
100
AcDbEntity
  8
5
 62
     2
100
AcDbLine
 10
51.194351
 20
-161.541323
 30
0.0
 11
1.368317999999999
 21
-161.541323
 31
0.0
  0
ENDBLK
  5
547
330
23
100
AcDbEntity
  8
5
100
AcDbBlockEnd
  0
BLOCK
  5
548
330
24
100
AcDbEntity
  8
5
100
AcDbBlockBegin
  2
*D6
 70
     1
 10
0.0
 20
0.0
 30
0.0
  3
*D6
  1

  0
TEXT
  5
549
330
24
100
AcDbEntity
  8
5
 62
     2
100
AcDbText
 10
82.04790799999999
 20
-242.987503
 30
0.0
 40
6.599999999999999
  1
35
 41
0.6917647058823541
 72
     5
 11
89.43990799999999
 21
-242.987503
 31
0.0
100
AcDbText
  0
LINE
  5
54A
330
24
100
AcDbEntity
  8
5
 62
     2
100
AcDbLine
 10
69.167908
 20
-202.541323
 30
0.0
 11
69.167908
 21
-245.987503
 31
0.0
  0
LINE
  5
54B
330
24
100
AcDbEntity
  8
5
 62
     2
100
AcDbLine
 10
69.167908
 20
-243.987503
 30
0.0
 11
73.031611
 21
-245.022779
 31
0.0
  0
LINE
  5
54C
330
24
100
AcDbEntity
  8
5
 62
     2
100
AcDbLine
 10
69.167908
 20
-243.987503
 30
0.0
 11
73.031611
 21
-242.952227
 31
0.0
  0
LINE
  5
54D
330
24
100
AcDbEntity
  8
5
 62
     2
100
AcDbLine
 10
73.031611
 20
-245.022779
 30
0.0
 11
73.031611
 21
-242.952227
 31
0.0
  0
LINE
  5
54E
330
24
100
AcDbEntity
  8
5
 62
     2
100
AcDbLine
 10
69.167908
 20
-243.987503
 30
0.0
 11
104.167908
 21
-243.987503
 31
0.0
  0
LINE
  5
54F
330
24
100
AcDbEntity
  8
5
 62
     2
100
AcDbLine
 10
104.167908
 20
-243.987503
 30
0.0
 11
100.304204
 21
-242.952227
 31
0.0
  0
LINE
  5
550
330
24
100
AcDbEntity
  8
5
 62
     2
100
AcDbLine
 10
104.167908
 20
-243.987503
 30
0.0
 11
100.304204
 21
-245.022779
 31
0.0
  0
LINE
  5
551
330
24
100
AcDbEntity
  8
5
 62
     2
100
AcDbLine
 10
100.304204
 20
-242.952227
 30
0.0
 11
100.304204
 21
-245.022779
 31
0.0
  0
LINE
  5
552
330
24
100
AcDbEntity
  8
5
 62
     2
100
AcDbLine
 10
104.167908
 20
-202.541323
 30
0.0
 11
104.167908
 21
-245.987503
 31
0.0
  0
ENDBLK
  5
553
330
24
100
AcDbEntity
  8
5
100
AcDbBlockEnd
  0
ENDSEC
  0
SECTION
  2
ENTITIES
  0
LINE
  5
2D
330
25
100
AcDbEntity
  8
1
  6
CENTER
 62
     2
100
AcDbLine
 10
53.19435099999999
 20
-161.541323
 30
0.0
 11
117.947945
 21
-161.541323
 31
0.0
  0
LINE
  5
2E
330
25
100
AcDbEntity
  8
1
  6
CENTER
 62
     2
100
AcDbLine
 10
-295.032518
 20
-161.541323
 30
0.0
 11
-189.087042
 21
-161.541323
 31
0.0
  0
LINE
  5
2F
330
25
100
AcDbEntity
  8
1
  6
CENTER
 62
     2
100
AcDbLine
 10
-242.841921
 20
-229.392696
 30
0.0
 11
-242.841921
 21
5.128973999999999
 31
0.0
  0
LINE
  5
30
330
25
100
AcDbEntity
  8
1
100
AcDbLine
 10
-235.941921
 20
-217.441323
 30
0.0
 11
-223.741921
 21
-217.441323
 31
0.0
  0
LINE
  5
31
330
25
100
AcDbEntity
  8
1
100
AcDbLine
 10
-224.091921
 20
-217.441323
 30
0.0
 11
-224.091921
 21
-220.950575
 31
0.0
  0
LINE
  5
32
330
25
100
AcDbEntity
  8
1
100
AcDbLine
 10
-224.091921
 20
-220.950575
 30
0.0
 11
-224.941921
 21
-221.441323
 31
0.0
  0
LINE
  5
33
330
25
100
AcDbEntity
  8
1
100
AcDbLine
 10
-226.966921
 20
-217.441323
 30
0.0
 11
-226.966921
 21
-220.950575
 31
0.0
  0
ARC
  5
34
330
25
100
AcDbEntity
  8
1
100
AcDbCircle
 10
-225.529421
 20
-219.10262
 30
0.0
 40
2.341226999999999
100
AcDbArc
 50
232.121121
 51
307.878879
  0
ARC
  5
35
330
25
100
AcDbEntity
  8
1
100
AcDbCircle
 10
-229.841921
 20
-212.818847
 30
0.0
 40
8.625
100
AcDbArc
 50
250.528777
 51
289.471219
  0
LINE
  5
36
330
25
100
AcDbEntity
  8
1
100
AcDbLine
 10
-235.591921
 20
-217.441323
 30
0.0
 11
-235.591921
 21
-220.950575
 31
0.0
  0
LINE
  5
37
330
25
100
AcDbEntity
  8
1
100
AcDbLine
 10
-235.591921
 20
-220.950575
 30
0.0
 11
-234.741921
 21
-221.441323
 31
0.0
  0
LINE
  5
38
330
25
100
AcDbEntity
  8
1
100
AcDbLine
 10
-234.741921
 20
-221.441323
 30
0.0
 11
-224.941921
 21
-221.441323
 31
0.0
  0
LINE
  5
39
330
25
100
AcDbEntity
  8
1
100
AcDbLine
 10
-232.716921
 20
-217.441323
 30
0.0
 11
-232.716921
 21
-220.950575
 31
0.0
  0
ARC
  5
3A
330
25
100
AcDbEntity
  8
1
100
AcDbCircle
 10
-234.154421
 20
-219.10262
 30
0.0
 40
2.341226999999999
100
AcDbArc
 50
232.121121
 51
307.878879
  0
LINE
  5
3B
330
25
100
AcDbEntity
  8
1
100
AcDbLine
 10
-223.741921
 20
-215.941323
 30
0.0
 11
-223.741921
 21
-217.441323
 31
0.0
  0
LINE
  5
3C
330
25
100
AcDbEntity
  8
1
100
AcDbLine
 10
-235.941921
 20
-217.441323
 30
0.0
 11
-235.941921
 21
-215.941323
 31
0.0
  0
LINE
  5
3D
330
25
100
AcDbEntity
  8
1
100
AcDbLine
 10
-229.841921
 20
-217.441323
 30
0.0
 11
-230.341921
 21
-215.941323
 31
0.0
  0
LINE
  5
3E
330
25
100
AcDbEntity
  8
1
100
AcDbLine
 10
-229.841921
 20
-215.941323
 30
0.0
 11
-229.341921
 21
-217.441323
 31
0.0
  0
LINE
  5
3F
330
25
100
AcDbEntity
  8
1
100
AcDbLine
 10
-261.941921
 20
-217.441323
 30
0.0
 11
-249.741921
 21
-217.441323
 31
0.0
  0
LINE
  5
40
330
25
100
AcDbEntity
  8
1
100
AcDbLine
 10
-250.091921
 20
-217.441323
 30
0.0
 11
-250.091921
 21
-220.950575
 31
0.0
  0
LINE
  5
41
330
25
100
AcDbEntity
  8
1
100
AcDbLine
 10
-250.091921
 20
-220.950575
 30
0.0
 11
-250.941921
 21
-221.441323
 31
0.0
  0
LINE
  5
42
330
25
100
AcDbEntity
  8
1
100
AcDbLine
 10
-252.966921
 20
-217.441323
 30
0.0
 11
-252.966921
 21
-220.950575
 31
0.0
  0
ARC
  5
43
330
25
100
AcDbEntity
  8
1
100
AcDbCircle
 10
-251.529421
 20
-219.10262
 30
0.0
 40
2.341226999999999
100
AcDbArc
 50
232.121121
 51
307.878879
  0
ARC
  5
44
330
25
100
AcDbEntity
  8
1
100
AcDbCircle
 10
-255.841921
 20
-212.818847
 30
0.0
 40
8.625
100
AcDbArc
 50
250.528777
 51
289.471219
  0
LINE
  5
45
330
25
100
AcDbEntity
  8
1
100
AcDbLine
 10
-261.591921
 20
-217.441323
 30
0.0
 11
-261.591921
 21
-220.950575
 31
0.0
  0
LINE
  5
46
330
25
100
AcDbEntity
  8
1
100
AcDbLine
 10
-261.591921
 20
-220.950575
 30
0.0
 11
-260.741921
 21
-221.441323
 31
0.0
  0
LINE
  5
47
330
25
100
AcDbEntity
  8
1
100
AcDbLine
 10
-260.741921
 20
-221.441323
 30
0.0
 11
-250.941921
 21
-221.441323
 31
0.0
  0
LINE
  5
48
330
25
100
AcDbEntity
  8
1
100
AcDbLine
 10
-258.716921
 20
-217.441323
 30
0.0
 11
-258.716921
 21
-220.950575
 31
0.0
  0
ARC
  5
49
330
25
100
AcDbEntity
  8
1
100
AcDbCircle
 10
-260.154421
 20
-219.10262
 30
0.0
 40
2.341226999999999
100
AcDbArc
 50
232.121121
 51
307.878879
  0
LINE
  5
4A
330
25
100
AcDbEntity
  8
1
100
AcDbLine
 10
-249.741921
 20
-215.941323
 30
0.0
 11
-249.741921
 21
-217.441323
 31
0.0
  0
LINE
  5
4B
330
25
100
AcDbEntity
  8
1
100
AcDbLine
 10
-261.941921
 20
-217.441323
 30
0.0
 11
-261.941921
 21
-215.941323
 31
0.0
  0
LINE
  5
4C
330
25
100
AcDbEntity
  8
1
100
AcDbLine
 10
-255.841921
 20
-217.441323
 30
0.0
 11
-256.341921
 21
-215.941323
 31
0.0
  0
LINE
  5
4D
330
25
100
AcDbEntity
  8
1
100
AcDbLine
 10
-255.841921
 20
-215.941323
 30
0.0
 11
-255.341921
 21
-217.441323
 31
0.0
  0
LINE
  5
4E
330
25
100
AcDbEntity
  8
1
  6
CENTER
 62
     2
100
AcDbLine
 10
-229.841921
 20
-206.521168
 30
0.0
 11
-229.841921
 21
-225.523624
 31
0.0
  0
ARC
  5
4F
330
25
100
AcDbEntity
  8
1
100
AcDbCircle
 10
-221.645768
 20
-213.058694
 30
0.0
 40
3.0
100
AcDbArc
 50
105.0
 51
180.0
  0
ARC
  5
50
330
25
100
AcDbEntity
  8
1
100
AcDbCircle
 10
-264.038073
 20
-213.058694
 30
0.0
 40
3.0
100
AcDbArc
 50
360.0
 51
75.0
  0
LINE
  5
51
330
25
100
AcDbEntity
  8
1
100
AcDbLine
 10
-261.841921
 20
-214.341323
 30
0.0
 11
-223.841921
 21
-214.341323
 31
0.0
  0
LINE
  5
52
330
25
100
AcDbEntity
  8
1
100
AcDbLine
 10
-261.941921
 20
-215.941323
 30
0.0
 11
-223.741921
 21
-215.941323
 31
0.0
  0
LINE
  5
53
330
25
100
AcDbEntity
  8
1
  6
CENTER
 62
     2
100
AcDbLine
 10
-255.841921
 20
-206.521168
 30
0.0
 11
-255.841921
 21
-225.523624
 31
0.0
  0
LINE
  5
54
330
25
100
AcDbEntity
  8
1
100
AcDbLine
 10
91.66790799999999
 20
-217.441323
 30
0.0
 11
91.66790799999999
 21
-221.441323
 31
0.0
  0
LINE
  5
55
330
25
100
AcDbEntity
  8
1
100
AcDbLine
 10
86.66790799999999
 20
-217.441323
 30
0.0
 11
86.66790799999999
 21
-220.950575
 31
0.0
  0
ARC
  5
56
330
25
100
AcDbEntity
  8
1
100
AcDbCircle
 10
89.16790799999999
 20
-214.828115
 30
0.0
 40
6.613208
100
AcDbArc
 50
247.7882049999999
 51
292.211795
  0
LINE
  5
57
330
25
100
AcDbEntity
  8
1
100
AcDbLine
 10
81.66790799999999
 20
-217.441323
 30
0.0
 11
81.66790799999999
 21
-221.441323
 31
0.0
  0
LINE
  5
58
330
25
100
AcDbEntity
  8
1
100
AcDbLine
 10
81.66790799999999
 20
-221.441323
 30
0.0
 11
91.66790799999999
 21
-221.441323
 31
0.0
  0
ARC
  5
59
330
25
100
AcDbEntity
  8
1
100
AcDbCircle
 10
84.16790799999999
 20
-214.828115
 30
0.0
 40
6.613208
100
AcDbArc
 50
247.7882049999999
 51
292.211795
  0
LINE
  5
5A
330
25
100
AcDbEntity
  8
1
100
AcDbLine
 10
92.76790799999998
 20
-215.941323
 30
0.0
 11
92.76790799999998
 21
-217.441323
 31
0.0
  0
LINE
  5
5B
330
25
100
AcDbEntity
  8
1
100
AcDbLine
 10
92.76790799999998
 20
-217.441323
 30
0.0
 11
80.56790799999999
 21
-217.441323
 31
0.0
  0
LINE
  5
5C
330
25
100
AcDbEntity
  8
1
100
AcDbLine
 10
80.56790799999999
 20
-217.441323
 30
0.0
 11
80.56790799999999
 21
-215.941323
 31
0.0
  0
LINE
  5
5D
330
25
100
AcDbEntity
  8
1
100
AcDbLine
 10
73.667908
 20
-214.341323
 30
0.0
 11
99.667908
 21
-214.341323
 31
0.0
  0
LINE
  5
5E
330
25
100
AcDbEntity
  8
1
100
AcDbLine
 10
73.667908
 20
-215.941323
 30
0.0
 11
99.667908
 21
-215.941323
 31
0.0
  0
LINE
  5
5F
330
25
100
AcDbEntity
  8
1
  6
DASHED
100
AcDbLine
 10
-267.841921
 20
195.24296
 30
0.0
 11
-217.841921
 21
195.24296
 31
0.0
  0
LINE
  5
60
330
25
100
AcDbEntity
  8
1
  6
DASHED
100
AcDbLine
 10
-267.841921
 20
125.24296
 30
0.0
 11
-217.841921
 21
125.24296
 31
0.0
  0
LINE
  5
61
330
25
100
AcDbEntity
  8
1
  6
DASHED
100
AcDbLine
 10
-277.841921
 20
135.24296
 30
0.0
 11
-277.841921
 21
185.24296
 31
0.0
  0
LINE
  5
62
330
25
100
AcDbEntity
  8
1
  6
DASHED
100
AcDbLine
 10
-207.841921
 20
135.24296
 30
0.0
 11
-207.841921
 21
185.24296
 31
0.0
  0
ARC
  5
63
330
25
100
AcDbEntity
  8
1
  6
DASHED
100
AcDbCircle
 10
-267.841921
 20
135.24296
 30
0.0
 40
10.0
100
AcDbArc
 50
180.0
 51
270.0
  0
ARC
  5
64
330
25
100
AcDbEntity
  8
1
  6
DASHED
100
AcDbCircle
 10
-217.841921
 20
135.24296
 30
0.0
 40
10.0
100
AcDbArc
 50
270.0
 51
0.0
  0
ARC
  5
65
330
25
100
AcDbEntity
  8
1
  6
DASHED
100
AcDbCircle
 10
-217.841921
 20
185.24296
 30
0.0
 40
10.0
100
AcDbArc
 50
0.0
 51
90.0
  0
ARC
  5
66
330
25
100
AcDbEntity
  8
1
100
AcDbCircle
 10
-267.841921
 20
185.24296
 30
0.0
 40
10.0
100
AcDbArc
 50
90.0
 51
180.0
  0
CIRCLE
  5
67
330
25
100
AcDbEntity
  8
1
100
AcDbCircle
 10
-218.091921
 20
184.99296
 30
0.0
 40
4.5
  0
CIRCLE
  5
68
330
25
100
AcDbEntity
  8
1
  6
DASHED
100
AcDbCircle
 10
-218.091921
 20
135.49296
 30
0.0
 40
4.5
  0
CIRCLE
  5
69
330
25
100
AcDbEntity
  8
1
  6
DASHED
100
AcDbCircle
 10
-267.591921
 20
135.49296
 30
0.0
 40
4.5
  0
CIRCLE
  5
6A
330
25
100
AcDbEntity
  8
1
  6
DASHED
100
AcDbCircle
 10
-267.591921
 20
184.99296
 30
0.0
 40
4.5
  0
LINE
  5
6B
330
25
100
AcDbEntity
  8
1
  6
CENTER
 62
     2
100
AcDbLine
 10
-276.97258
 20
184.99296
 30
0.0
 11
-257.607927
 21
184.99296
 31
0.0
  0
LINE
  5
6C
330
25
100
AcDbEntity
  8
1
  6
CENTER
 62
     2
100
AcDbLine
 10
-227.341898
 20
184.99296
 30
0.0
 11
-209.192375
 21
184.99296
 31
0.0
  0
LINE
  5
6D
330
25
100
AcDbEntity
  8
1
  6
CENTER
 62
     2
100
AcDbLine
 10
-276.97258
 20
135.49296
 30
0.0
 11
-257.607927
 21
135.49296
 31
0.0
  0
LINE
  5
6E
330
25
100
AcDbEntity
  8
1
  6
CENTER
 62
     2
100
AcDbLine
 10
-227.341898
 20
135.49296
 30
0.0
 11
-209.192375
 21
135.49296
 31
0.0
  0
LINE
  5
6F
330
25
100
AcDbEntity
  8
1
  6
CENTER
 62
     2
100
AcDbLine
 10
-218.091921
 20
126.515915
 30
0.0
 11
-218.091921
 21
145.175869
 31
0.0
  0
LINE
  5
70
330
25
100
AcDbEntity
  8
1
  6
CENTER
 62
     2
100
AcDbLine
 10
-218.091921
 20
175.455288
 30
0.0
 11
-218.091921
 21
194.345108
 31
0.0
  0
LINE
  5
71
330
25
100
AcDbEntity
  8
1
  6
CENTER
 62
     2
100
AcDbLine
 10
-267.591921
 20
126.515915
 30
0.0
 11
-267.591921
 21
145.175869
 31
0.0
  0
LINE
  5
72
330
25
100
AcDbEntity
  8
1
  6
CENTER
 62
     2
100
AcDbLine
 10
-267.591921
 20
175.455288
 30
0.0
 11
-267.591921
 21
194.345108
 31
0.0
  0
LINE
  5
73
330
25
100
AcDbEntity
  8
1
100
AcDbLine
 10
92.02440799999999
 20
-133.184823
 30
0.0
 11
92.02440799999999
 21
-130.968891
 31
0.0
  0
LINE
  5
74
330
25
100
AcDbEntity
  8
1
100
AcDbLine
 10
92.02440799999999
 20
-194.184823
 30
0.0
 11
92.02440799999999
 21
-189.897823
 31
0.0
  0
LINE
  5
75
330
25
100
AcDbEntity
  8
1
100
AcDbLine
 10
81.311408
 20
-194.184823
 30
0.0
 11
81.311408
 21
-189.897823
 31
0.0
  0
ARC
  5
76
330
25
100
AcDbEntity
  8
1
100
AcDbCircle
 10
88.187908
 20
-147.537288
 30
0.0
 40
3.8365
100
AcDbArc
 50
0.0
 51
90.0
  0
ARC
  5
77
330
25
100
AcDbEntity
  8
1
100
AcDbCircle
 10
85.147908
 20
-147.537288
 30
0.0
 40
3.8365
100
AcDbArc
 50
90.0
 51
180.0
  0
ARC
  5
78
330
25
100
AcDbEntity
  8
1
100
AcDbCircle
 10
85.147908
 20
-175.545357
 30
0.0
 40
3.8365
100
AcDbArc
 50
180.0
 51
270.0
  0
ARC
  5
79
330
25
100
AcDbEntity
  8
1
100
AcDbCircle
 10
88.187908
 20
-175.545357
 30
0.0
 40
3.8365
100
AcDbArc
 50
270.0
 51
360.0
  0
LINE
  5
7A
330
25
100
AcDbEntity
  8
1
100
AcDbLine
 10
85.147908
 20
-179.381857
 30
0.0
 11
88.187908
 21
-179.381857
 31
0.0
  0
LINE
  5
7B
330
25
100
AcDbEntity
  8
1
100
AcDbLine
 10
85.147908
 20
-143.700788
 30
0.0
 11
88.187908
 21
-143.700788
 31
0.0
  0
LINE
  5
7C
330
25
100
AcDbEntity
  8
1
100
AcDbLine
 10
92.02440799999999
 20
-175.545357
 30
0.0
 11
92.02440799999999
 21
-147.537288
 31
0.0
  0
LINE
  5
7D
330
25
100
AcDbEntity
  8
1
100
AcDbLine
 10
81.311408
 20
-175.545357
 30
0.0
 11
81.311408
 21
-147.537288
 31
0.0
  0
LINE
  5
7E
330
25
100
AcDbEntity
  8
1
100
AcDbLine
 10
93.445853
 20
-138.953045
 30
0.0
 11
92.02440799999999
 21
-143.700788
 31
0.0
  0
LINE
  5
7F
330
25
100
AcDbEntity
  8
1
100
AcDbLine
 10
79.88996199999999
 20
-138.953045
 30
0.0
 11
81.311408
 21
-143.700788
 31
0.0
  0
LINE
  5
80
330
25
100
AcDbEntity
  8
1
100
AcDbLine
 10
92.02440799999999
 20
-179.381857
 30
0.0
 11
93.445853
 21
-184.129601
 31
0.0
  0
LINE
  5
81
330
25
100
AcDbEntity
  8
1
100
AcDbLine
 10
81.311408
 20
-179.381857
 30
0.0
 11
79.88996199999999
 21
-184.129601
 31
0.0
  0
ARC
  5
82
330
25
100
AcDbEntity
  8
1
100
AcDbCircle
 10
91.66790799999999
 20
-133.184823
 30
0.0
 40
0.3565
100
AcDbArc
 50
270.0
 51
360.0
  0
ARC
  5
83
330
25
100
AcDbEntity
  8
1
100
AcDbCircle
 10
91.66790799999999
 20
-128.612391
 30
0.0
 40
2.0
100
AcDbArc
 50
180.0
 51
270.0
  0
ARC
  5
84
330
25
100
AcDbEntity
  8
1
100
AcDbCircle
 10
81.66790799999999
 20
-128.612391
 30
0.0
 40
2.0
100
AcDbArc
 50
270.0
 51
0.0
  0
LINE
  5
85
330
25
100
AcDbEntity
  8
1
100
AcDbLine
 10
94.23149
 20
-120.063527
 30
0.0
 11
92.02440799999999
 21
-130.612391
 31
0.0
  0
LINE
  5
86
330
25
100
AcDbEntity
  8
1
100
AcDbLine
 10
79.104325
 20
-120.063527
 30
0.0
 11
81.311408
 21
-130.612391
 31
0.0
  0
ARC
  5
87
330
25
100
AcDbEntity
  8
1
100
AcDbCircle
 10
91.66790799999999
 20
-130.968891
 30
0.0
 40
0.3565
100
AcDbArc
 50
0.0
 51
90.0
  0
ARC
  5
88
330
25
100
AcDbEntity
  8
1
100
AcDbCircle
 10
81.66790799999999
 20
-130.968891
 30
0.0
 40
0.3565
100
AcDbArc
 50
90.0
 51
180.0
  0
ARC
  5
89
330
25
100
AcDbEntity
  8
1
100
AcDbCircle
 10
81.66790799999999
 20
-133.184823
 30
0.0
 40
0.3565
100
AcDbArc
 50
180.0
 51
270.0
  0
LINE
  5
8A
330
25
100
AcDbEntity
  8
1
100
AcDbLine
 10
81.311408
 20
-133.184823
 30
0.0
 11
81.311408
 21
-130.968891
 31
0.0
  0
ARC
  5
8B
330
25
100
AcDbEntity
  8
1
100
AcDbCircle
 10
91.66790799999999
 20
-196.541323
 30
0.0
 40
2.0
100
AcDbArc
 50
90.0
 51
180.0
  0
ARC
  5
8C
330
25
100
AcDbEntity
  8
1
100
AcDbCircle
 10
81.66790799999999
 20
-196.541323
 30
0.0
 40
2.0
100
AcDbArc
 50
0.0
 51
90.0
  0
LINE
  5
8D
330
25
100
AcDbEntity
  8
1
100
AcDbLine
 10
94.72102300000001
 20
-198.342784
 30
0.0
 11
92.02440799999999
 21
-194.541323
 31
0.0
  0
LINE
  5
8E
330
25
100
AcDbEntity
  8
1
100
AcDbLine
 10
78.61479200000001
 20
-198.342784
 30
0.0
 11
81.311408
 21
-194.541323
 31
0.0
  0
ARC
  5
8F
330
25
100
AcDbEntity
  8
1
100
AcDbCircle
 10
91.66790799999999
 20
-189.897823
 30
0.0
 40
0.3565
100
AcDbArc
 50
0.0
 51
90.0
  0
ARC
  5
90
330
25
100
AcDbEntity
  8
1
100
AcDbCircle
 10
91.66790799999999
 20
-194.184823
 30
0.0
 40
0.3565
100
AcDbArc
 50
270.0
 51
360.0
  0
ARC
  5
91
330
25
100
AcDbEntity
  8
1
100
AcDbCircle
 10
81.66790799999999
 20
-194.184823
 30
0.0
 40
0.3565
100
AcDbArc
 50
180.0
 51
270.0
  0
ARC
  5
92
330
25
100
AcDbEntity
  8
1
100
AcDbCircle
 10
81.66790799999999
 20
-189.897823
 30
0.0
 40
0.3565
100
AcDbArc
 50
90.0
 51
180.0
  0
LINE
  5
93
330
25
100
AcDbEntity
  8
1
100
AcDbLine
 10
104.967908
 20
-193.041323
 30
0.0
 11
104.967908
 21
-130.041323
 31
0.0
  0
LINE
  5
94
330
25
100
AcDbEntity
  8
1
100
AcDbLine
 10
68.367908
 20
-193.041323
 30
0.0
 11
68.367908
 21
-130.041323
 31
0.0
  0
LINE
  5
95
330
25
100
AcDbEntity
  8
1
100
AcDbLine
 10
104.967908
 20
-130.041323
 30
0.0
 11
104.365864
 21
-127.78366
 31
0.0
  0
LINE
  5
96
330
25
100
AcDbEntity
  8
1
100
AcDbLine
 10
68.367908
 20
-130.041323
 30
0.0
 11
68.96995099999999
 21
-127.78366
 31
0.0
  0
ARC
  5
97
330
25
100
AcDbEntity
  8
1
100
AcDbCircle
 10
103.399629
 20
-128.041323
 30
0.0
 40
1.0
100
AcDbArc
 50
14.931417
 51
39.800466
  0
ARC
  5
98
330
25
100
AcDbEntity
  8
1
100
AcDbCircle
 10
69.93618599999999
 20
-128.041323
 30
0.0
 40
1.0
100
AcDbArc
 50
140.199534
 51
165.068583
  0
LINE
  5
99
330
25
100
AcDbEntity
  8
1
100
AcDbLine
 10
104.967908
 20
-193.041323
 30
0.0
 11
104.365864
 21
-195.298985
 31
0.0
  0
LINE
  5
9A
330
25
100
AcDbEntity
  8
1
100
AcDbLine
 10
68.367908
 20
-193.041323
 30
0.0
 11
68.96995099999999
 21
-195.298985
 31
0.0
  0
ARC
  5
9B
330
25
100
AcDbEntity
  8
1
100
AcDbCircle
 10
103.399629
 20
-195.041323
 30
0.0
 40
1.0
100
AcDbArc
 50
320.199534
 51
345.068583
  0
ARC
  5
9C
330
25
100
AcDbEntity
  8
1
100
AcDbCircle
 10
69.93618599999999
 20
-195.041323
 30
0.0
 40
1.0
100
AcDbArc
 50
194.931417
 51
219.800466
  0
LINE
  5
9D
330
25
100
AcDbEntity
  8
1
100
AcDbLine
 10
-277.841921
 20
-29.541323
 30
0.0
 11
-207.841921
 21
-29.541323
 31
0.0
  0
LINE
  5
9E
330
25
100
AcDbEntity
  8
1
100
AcDbLine
 10
-273.841921
 20
-41.54132299999999
 30
0.0
 11
-211.841921
 21
-41.54132299999999
 31
0.0
  0
LINE
  5
9F
330
25
100
AcDbEntity
  8
1
100
AcDbLine
 10
-277.841921
 20
-37.541323
 30
0.0
 11
-277.841921
 21
-29.541323
 31
0.0
  0
LINE
  5
A0
330
25
100
AcDbEntity
  8
1
100
AcDbLine
 10
-207.841921
 20
-37.541323
 30
0.0
 11
-207.841921
 21
-29.541323
 31
0.0
  0
LINE
  5
A1
330
25
100
AcDbEntity
  8
1
100
AcDbLine
 10
-228.841921
 20
-117.677898
 30
0.0
 11
-228.841921
 21
-46.54132299999999
 31
0.0
  0
LINE
  5
A2
330
25
100
AcDbEntity
  8
1
100
AcDbLine
 10
-256.841921
 20
-117.677898
 30
0.0
 11
-256.841921
 21
-46.54132299999999
 31
0.0
  0
ARC
  5
A3
330
25
100
AcDbEntity
  8
1
100
AcDbCircle
 10
-273.841921
 20
-37.541323
 30
0.0
 40
4.0
100
AcDbArc
 50
180.0
 51
270.0
  0
ARC
  5
A4
330
25
100
AcDbEntity
  8
1
100
AcDbCircle
 10
-211.841921
 20
-37.541323
 30
0.0
 40
4.0
100
AcDbArc
 50
270.0
 51
360.0
  0
ARC
  5
A5
330
25
100
AcDbEntity
  8
1
100
AcDbCircle
 10
-223.841921
 20
-46.54132299999999
 30
0.0
 40
5.0
100
AcDbArc
 50
112.973167
 51
180.0
  0
ARC
  5
A6
330
25
100
AcDbEntity
  8
1
100
AcDbCircle
 10
-261.841921
 20
-46.54132299999999
 30
0.0
 40
5.0
100
AcDbArc
 50
0.0
 51
90.0
  0
CIRCLE
  5
A7
330
25
100
AcDbEntity
  8
1
100
AcDbCircle
 10
-242.841921
 20
-161.541323
 30
0.0
 40
40.0
  0
ARC
  5
A8
330
25
100
AcDbEntity
  8
1
100
AcDbCircle
 10
-266.841921
 20
-117.677898
 30
0.0
 40
10.0
100
AcDbArc
 50
298.685402
 51
360.0
  0
ARC
  5
A9
330
25
100
AcDbEntity
  8
1
100
AcDbCircle
 10
-218.841921
 20
-117.677898
 30
0.0
 40
10.0
100
AcDbArc
 50
180.0
 51
241.3145979999999
  0
ARC
  5
AA
330
25
100
AcDbEntity
  8
1
100
AcDbCircle
 10
-210.841921
 20
-59.51858399999999
 30
0.0
 40
18.0
100
AcDbArc
 50
145.03755
 51
180.0
  0
ARC
  5
AB
330
25
100
AcDbEntity
  8
1
100
AcDbCircle
 10
-274.841921
 20
-59.51858399999999
 30
0.0
 40
18.0
100
AcDbArc
 50
0.0
 51
87.39474900000001
  0
LINE
  5
AC
330
25
100
AcDbEntity
  8
1
100
AcDbLine
 10
-239.841921
 20
-59.51858399999999
 30
0.0
 11
-245.841921
 21
-59.51858399999999
 31
0.0
  0
LINE
  5
AD
330
25
100
AcDbEntity
  8
1
100
AcDbLine
 10
-245.841921
 20
-57.51858399999999
 30
0.0
 11
-245.841921
 21
-43.54132299999999
 31
0.0
  0
LINE
  5
AE
330
25
100
AcDbEntity
  8
1
100
AcDbLine
 10
-239.841921
 20
-57.51858399999999
 30
0.0
 11
-239.841921
 21
-43.54132299999999
 31
0.0
  0
ARC
  5
AF
330
25
100
AcDbEntity
  8
1
100
AcDbCircle
 10
-237.841921
 20
-43.54132299999999
 30
0.0
 40
2.0
100
AcDbArc
 50
90.0
 51
180.0
  0
ARC
  5
B0
330
25
100
AcDbEntity
  8
1
100
AcDbCircle
 10
-247.841921
 20
-43.54132299999999
 30
0.0
 40
2.0
100
AcDbArc
 50
0.0
 51
90.0
  0
ARC
  5
B1
330
25
100
AcDbEntity
  8
1
100
AcDbCircle
 10
-247.841921
 20
-57.51858399999999
 30
0.0
 40
2.0
100
AcDbArc
 50
270.0
 51
360.0
  0
ARC
  5
B2
330
25
100
AcDbEntity
  8
1
100
AcDbCircle
 10
-237.841921
 20
-57.51858399999999
 30
0.0
 40
2.0
100
AcDbArc
 50
180.0
 51
270.0
  0
ARC
  5
B3
330
25
100
AcDbEntity
  8
1
100
AcDbCircle
 10
-242.841921
 20
-171.541323
 30
0.0
 40
75.0
100
AcDbArc
 50
60.46482799999999
 51
73.599314
  0
ARC
  5
B4
330
25
100
AcDbEntity
  8
1
100
AcDbCircle
 10
-242.841921
 20
-171.541323
 30
0.0
 40
75.0
100
AcDbArc
 50
106.400686
 51
119.535172
  0
LINE
  5
B5
330
25
100
AcDbEntity
  8
1
100
AcDbLine
 10
-281.841921
 20
-110.246373
 30
0.0
 11
-281.841921
 21
-109.767542
 31
0.0
  0
LINE
  5
B6
330
25
100
AcDbEntity
  8
1
100
AcDbLine
 10
-203.841921
 20
-110.246373
 30
0.0
 11
-203.841921
 21
-109.767542
 31
0.0
  0
ARC
  5
B7
330
25
100
AcDbEntity
  8
1
100
AcDbCircle
 10
-266.841921
 20
-89.99992199999999
 30
0.0
 40
10.0
100
AcDbArc
 50
286.400686
 51
360.0
  0
ARC
  5
B8
330
25
100
AcDbEntity
  8
1
100
AcDbCircle
 10
-218.841921
 20
-89.99992199999999
 30
0.0
 40
10.0
100
AcDbArc
 50
180.0
 51
253.599314
  0
LINE
  5
B9
330
25
100
AcDbEntity
  8
1
100
AcDbLine
 10
-208.913639
 20
-115.142275
 30
0.0
 11
-210.957105
 21
-116.492921
 31
0.0
  0
LINE
  5
BA
330
25
100
AcDbEntity
  8
1
100
AcDbLine
 10
-214.562524
 20
-120.948519
 30
0.0
 11
-216.236225
 21
-125.214515
 31
0.0
  0
LINE
  5
BB
330
25
100
AcDbEntity
  8
1
100
AcDbLine
 10
-271.121317
 20
-120.948519
 30
0.0
 11
-269.447617
 21
-125.214515
 31
0.0
  0
LINE
  5
BC
330
25
100
AcDbEntity
  8
1
100
AcDbLine
 10
-276.770203
 20
-115.142275
 30
0.0
 11
-274.726737
 21
-116.492921
 31
0.0
  0
ARC
  5
BD
330
25
100
AcDbEntity
  8
1
100
AcDbCircle
 10
-209.254349
 20
-127.953751
 30
0.0
 40
7.5
100
AcDbArc
 50
158.578178
 51
225.0
  0
ARC
  5
BE
330
25
100
AcDbEntity
  8
1
100
AcDbCircle
 10
-276.4294930000001
 20
-127.953751
 30
0.0
 40
7.5
100
AcDbArc
 50
315.0
 51
21.421822
  0
ARC
  5
BF
330
25
100
AcDbEntity
  8
1
100
AcDbCircle
 10
-205.718815
 20
-124.418217
 30
0.0
 40
9.5
100
AcDbArc
 50
123.463041
 51
158.578178
  0
ARC
  5
C0
330
25
100
AcDbEntity
  8
1
100
AcDbCircle
 10
-203.951048
 20
-122.65045
 30
0.0
 40
9.0
100
AcDbArc
 50
107.415439
 51
123.463041
  0
ARC
  5
C1
330
25
100
AcDbEntity
  8
1
100
AcDbCircle
 10
-279.965027
 20
-124.418217
 30
0.0
 40
9.5
100
AcDbArc
 50
21.421822
 51
56.53695899999999
  0
ARC
  5
C2
330
25
100
AcDbEntity
  8
1
100
AcDbCircle
 10
-281.732794
 20
-122.65045
 30
0.0
 40
9.0
100
AcDbArc
 50
56.53695899999999
 51
72.584561
  0
ARC
  5
C3
330
25
100
AcDbEntity
  8
1
100
AcDbCircle
 10
-207.841921
 20
-110.246373
 30
0.0
 40
4.0
100
AcDbArc
 50
287.415439
 51
360.0
  0
ARC
  5
C4
330
25
100
AcDbEntity
  8
1
100
AcDbCircle
 10
-277.841921
 20
-110.246373
 30
0.0
 40
4.0
100
AcDbArc
 50
180.0
 51
252.584561
  0
ARC
  5
C5
330
25
100
AcDbEntity
  8
1
100
AcDbCircle
 10
-277.841921
 20
-109.767542
 30
0.0
 40
4.0
100
AcDbArc
 50
119.535172
 51
180.0
  0
ARC
  5
C6
330
25
100
AcDbEntity
  8
1
100
AcDbCircle
 10
-207.841921
 20
-109.767542
 30
0.0
 40
4.0
100
AcDbArc
 50
0.0
 51
60.46482799999999
  0
LINE
  5
C7
330
25
100
AcDbEntity
  8
1
100
AcDbLine
 10
-261.841921
 20
-213.541323
 30
0.0
 11
-223.841921
 21
-213.541323
 31
0.0
  0
ARC
  5
C8
330
25
100
AcDbEntity
  8
1
100
AcDbCircle
 10
-218.841921
 20
-199.607055
 30
0.0
 40
5.0
100
AcDbArc
 50
122.230953
 51
180.0
  0
ARC
  5
C9
330
25
100
AcDbEntity
  8
1
100
AcDbCircle
 10
-266.841921
 20
-199.607055
 30
0.0
 40
5.0
100
AcDbArc
 50
0.0
 51
57.76904700000001
  0
LINE
  5
CA
330
25
100
AcDbEntity
  8
1
100
AcDbLine
 10
-258.841921
 20
-210.541323
 30
0.0
 11
-226.841921
 21
-210.541323
 31
0.0
  0
ARC
  5
CB
330
25
100
AcDbEntity
  8
1
100
AcDbCircle
 10
-226.841921
 20
-207.541323
 30
0.0
 40
3.0
100
AcDbArc
 50
270.0
 51
360.0
  0
ARC
  5
CC
330
25
100
AcDbEntity
  8
1
100
AcDbCircle
 10
-258.841921
 20
-207.541323
 30
0.0
 40
3.0
100
AcDbArc
 50
180.0
 51
270.0
  0
LINE
  5
CD
330
25
100
AcDbEntity
  8
1
100
AcDbLine
 10
-222.422226
 20
-210.160917
 30
0.0
 11
-215.463667
 21
-208.296376
 31
0.0
  0
LINE
  5
CE
330
25
100
AcDbEntity
  8
1
100
AcDbLine
 10
-263.261616
 20
-210.160917
 30
0.0
 11
-270.220174
 21
-208.296376
 31
0.0
  0
ARC
  5
CF
330
25
100
AcDbEntity
  8
1
100
AcDbCircle
 10
-220.841921
 20
-212.843304
 30
0.0
 40
3.0
100
AcDbArc
 50
105.0
 51
180.0
  0
ARC
  5
D0
330
25
100
AcDbEntity
  8
1
100
AcDbCircle
 10
-264.841921
 20
-212.843304
 30
0.0
 40
3.0
100
AcDbArc
 50
360.0
 51
75.0
  0
LINE
  5
D1
330
25
100
AcDbEntity
  8
1
100
AcDbLine
 10
-216.236225
 20
-197.86813
 30
0.0
 11
-214.562524
 21
-202.134127
 31
0.0
  0
LINE
  5
D2
330
25
100
AcDbEntity
  8
1
100
AcDbLine
 10
-269.447617
 20
-197.86813
 30
0.0
 11
-271.121317
 21
-202.134127
 31
0.0
  0
ARC
  5
D3
330
25
100
AcDbEntity
  8
1
100
AcDbCircle
 10
-209.254349
 20
-195.128895
 30
0.0
 40
7.5
100
AcDbArc
 50
135.0
 51
201.421822
  0
ARC
  5
D4
330
25
100
AcDbEntity
  8
1
100
AcDbCircle
 10
-276.4294930000001
 20
-195.128895
 30
0.0
 40
7.5
100
AcDbArc
 50
338.578178
 51
45.0
  0
ARC
  5
D5
330
25
100
AcDbEntity
  8
1
100
AcDbCircle
 10
-205.718815
 20
-198.664429
 30
0.0
 40
9.5
100
AcDbArc
 50
201.421822
 51
210.574239
  0
ARC
  5
D6
330
25
100
AcDbEntity
  8
1
100
AcDbCircle
 10
-279.965027
 20
-198.664429
 30
0.0
 40
9.5
100
AcDbArc
 50
329.425761
 51
338.578178
  0
ARC
  5
D7
330
25
100
AcDbEntity
  8
1
100
AcDbCircle
 10
-217.341921
 20
-205.531263
 30
0.0
 40
4.0
100
AcDbArc
 50
0.0
 51
30.574239
  0
ARC
  5
D8
330
25
100
AcDbEntity
  8
1
100
AcDbCircle
 10
-268.341921
 20
-205.531263
 30
0.0
 40
4.0
100
AcDbArc
 50
149.425761
 51
180.0
  0
ARC
  5
D9
330
25
100
AcDbEntity
  8
1
100
AcDbCircle
 10
-216.204577
 20
-205.531263
 30
0.0
 40
2.862657
100
AcDbArc
 50
285.0
 51
360.0
  0
ARC
  5
DA
330
25
100
AcDbEntity
  8
1
100
AcDbCircle
 10
-269.479264
 20
-205.531263
 30
0.0
 40
2.862657
100
AcDbArc
 50
180.0
 51
255.0
  0
LINE
  5
DB
330
25
100
AcDbEntity
  8
1
100
AcDbLine
 10
-223.841921
 20
-215.941323
 30
0.0
 11
-223.841921
 21
-212.843304
 31
0.0
  0
LINE
  5
DC
330
25
100
AcDbEntity
  8
1
100
AcDbLine
 10
-223.841921
 20
-207.541323
 30
0.0
 11
-223.841921
 21
-199.607055
 31
0.0
  0
LINE
  5
DD
330
25
100
AcDbEntity
  8
1
100
AcDbLine
 10
-261.841921
 20
-215.941323
 30
0.0
 11
-261.841921
 21
-212.843304
 31
0.0
  0
LINE
  5
DE
330
25
100
AcDbEntity
  8
1
100
AcDbLine
 10
-261.841921
 20
-207.541323
 30
0.0
 11
-261.841921
 21
-199.607055
 31
0.0
  0
LINE
  5
DF
330
25
100
AcDbEntity
  8
1
100
AcDbLine
 10
55.66790799999999
 20
-41.54132299999999
 30
0.0
 11
117.667908
 21
-41.54132299999999
 31
0.0
  0
LINE
  5
E0
330
25
100
AcDbEntity
  8
1
100
AcDbLine
 10
51.66790800000001
 20
-37.541323
 30
0.0
 11
51.66790800000001
 21
-29.541323
 31
0.0
  0
LINE
  5
E1
330
25
100
AcDbEntity
  8
1
100
AcDbLine
 10
121.667908
 20
-37.541323
 30
0.0
 11
121.667908
 21
-29.541323
 31
0.0
  0
LINE
  5
E2
330
25
100
AcDbEntity
  8
1
100
AcDbLine
 10
100.667908
 20
-123.492543
 30
0.0
 11
100.667908
 21
-46.54132299999999
 31
0.0
  0
LINE
  5
E3
330
25
100
AcDbEntity
  8
1
100
AcDbLine
 10
72.66790799999999
 20
-123.492543
 30
0.0
 11
72.66790799999999
 21
-46.54132299999999
 31
0.0
  0
ARC
  5
E4
330
25
100
AcDbEntity
  8
1
100
AcDbCircle
 10
55.66790799999999
 20
-37.541323
 30
0.0
 40
4.0
100
AcDbArc
 50
180.0
 51
270.0
  0
ARC
  5
E5
330
25
100
AcDbEntity
  8
1
100
AcDbCircle
 10
117.667908
 20
-37.541323
 30
0.0
 40
4.0
100
AcDbArc
 50
270.0
 51
360.0
  0
ARC
  5
E6
330
25
100
AcDbEntity
  8
1
100
AcDbCircle
 10
105.667908
 20
-46.54132299999999
 30
0.0
 40
5.0
100
AcDbArc
 50
90.0
 51
180.0
  0
ARC
  5
E7
330
25
100
AcDbEntity
  8
1
100
AcDbCircle
 10
67.66790799999999
 20
-46.54132299999999
 30
0.0
 40
5.0
100
AcDbArc
 50
0.0
 51
67.029782
  0
ARC
  5
E8
330
25
100
AcDbEntity
  8
1
100
AcDbCircle
 10
118.667908
 20
-59.51858399999999
 30
0.0
 40
18.0
100
AcDbArc
 50
92.605251
 51
180.0
  0
ARC
  5
E9
330
25
100
AcDbEntity
  8
1
100
AcDbCircle
 10
54.667908
 20
-59.51858399999999
 30
0.0
 40
18.0
100
AcDbArc
 50
0.0
 51
40.185526
  0
LINE
  5
EA
330
25
100
AcDbEntity
  8
1
100
AcDbLine
 10
89.667908
 20
-59.51858399999999
 30
0.0
 11
83.667908
 21
-59.51858399999999
 31
0.0
  0
LINE
  5
EB
330
25
100
AcDbEntity
  8
1
100
AcDbLine
 10
83.667908
 20
-57.51858399999999
 30
0.0
 11
83.667908
 21
-43.54132299999999
 31
0.0
  0
LINE
  5
EC
330
25
100
AcDbEntity
  8
1
100
AcDbLine
 10
89.667908
 20
-57.51858399999999
 30
0.0
 11
89.667908
 21
-43.54132299999999
 31
0.0
  0
ARC
  5
ED
330
25
100
AcDbEntity
  8
1
100
AcDbCircle
 10
91.66790799999999
 20
-43.54132299999999
 30
0.0
 40
2.0
100
AcDbArc
 50
90.0
 51
180.0
  0
ARC
  5
EE
330
25
100
AcDbEntity
  8
1
100
AcDbCircle
 10
81.66790799999999
 20
-43.54132299999999
 30
0.0
 40
2.0
100
AcDbArc
 50
0.0
 51
90.0
  0
ARC
  5
EF
330
25
100
AcDbEntity
  8
1
100
AcDbCircle
 10
81.66790799999999
 20
-57.51858399999999
 30
0.0
 40
2.0
100
AcDbArc
 50
270.0
 51
360.0
  0
ARC
  5
F0
330
25
100
AcDbEntity
  8
1
100
AcDbCircle
 10
91.66790799999999
 20
-57.51858399999999
 30
0.0
 40
2.0
100
AcDbArc
 50
180.0
 51
270.0
  0
LINE
  5
F1
330
25
100
AcDbEntity
  8
1
100
AcDbLine
 10
69.167908
 20
-200.541323
 30
0.0
 11
69.167908
 21
-122.541323
 31
0.0
  0
LINE
  5
F2
330
25
100
AcDbEntity
  8
1
100
AcDbLine
 10
104.167908
 20
-200.541323
 30
0.0
 11
104.167908
 21
-122.541323
 31
0.0
  0
LINE
  5
F3
330
25
100
AcDbEntity
  8
1
100
AcDbLine
 10
69.167908
 20
-122.541323
 30
0.0
 11
70.16790799999999
 21
-121.541323
 31
0.0
  0
LINE
  5
F4
330
25
100
AcDbEntity
  8
1
100
AcDbLine
 10
104.167908
 20
-122.541323
 30
0.0
 11
103.167908
 21
-121.541323
 31
0.0
  0
LINE
  5
F5
330
25
100
AcDbEntity
  8
1
100
AcDbLine
 10
104.167908
 20
-200.541323
 30
0.0
 11
103.167908
 21
-201.541323
 31
0.0
  0
LINE
  5
F6
330
25
100
AcDbEntity
  8
1
100
AcDbLine
 10
70.16790799999999
 20
-201.541323
 30
0.0
 11
69.167908
 21
-200.541323
 31
0.0
  0
LINE
  5
F7
330
25
100
AcDbEntity
  8
1
100
AcDbLine
 10
103.167908
 20
-121.541323
 30
0.0
 11
103.167908
 21
-201.541323
 31
0.0
  0
LINE
  5
F8
330
25
100
AcDbEntity
  8
1
100
AcDbLine
 10
70.16790799999999
 20
-121.541323
 30
0.0
 11
70.16790799999999
 21
-201.541323
 31
0.0
  0
ARC
  5
F9
330
25
100
AcDbEntity
  8
1
100
AcDbCircle
 10
103.667908
 20
-118.583283
 30
0.0
 40
3.0
100
AcDbArc
 50
180.0
 51
260.405932
  0
ARC
  5
FA
330
25
100
AcDbEntity
  8
1
100
AcDbCircle
 10
69.667908
 20
-118.583283
 30
0.0
 40
3.0
100
AcDbArc
 50
279.594068
 51
360.0
  0
ARC
  5
FB
330
25
100
AcDbEntity
  8
1
100
AcDbCircle
 10
103.667908
 20
-123.492543
 30
0.0
 40
3.0
100
AcDbArc
 50
180.0
 51
260.405932
  0
ARC
  5
FC
330
25
100
AcDbEntity
  8
1
100
AcDbCircle
 10
69.667908
 20
-123.492543
 30
0.0
 40
3.0
100
AcDbArc
 50
279.594068
 51
360.0
  0
LINE
  5
FD
330
25
100
AcDbEntity
  8
1
100
AcDbLine
 10
73.667908
 20
-213.541323
 30
0.0
 11
99.667908
 21
-213.541323
 31
0.0
  0
LINE
  5
FE
330
25
100
AcDbEntity
  8
1
100
AcDbLine
 10
73.667908
 20
-215.941323
 30
0.0
 11
73.667908
 21
-198.377529
 31
0.0
  0
LINE
  5
FF
330
25
100
AcDbEntity
  8
1
100
AcDbLine
 10
99.667908
 20
-215.941323
 30
0.0
 11
99.667908
 21
-198.377529
 31
0.0
  0
ARC
  5
100
330
25
100
AcDbEntity
  8
1
100
AcDbCircle
 10
102.667908
 20
-204.541323
 30
0.0
 40
3.0
100
AcDbArc
 50
90.0
 51
180.0
  0
ARC
  5
101
330
25
100
AcDbEntity
  8
1
100
AcDbCircle
 10
70.66790799999999
 20
-204.541323
 30
0.0
 40
3.0
100
AcDbArc
 50
0.0
 51
90.0
  0
ARC
  5
102
330
25
100
AcDbEntity
  8
1
100
AcDbCircle
 10
102.667908
 20
-198.377529
 30
0.0
 40
3.0
100
AcDbArc
 50
90.0
 51
180.0
  0
ARC
  5
103
330
25
100
AcDbEntity
  8
1
100
AcDbCircle
 10
70.66790799999999
 20
-198.377529
 30
0.0
 40
3.0
100
AcDbArc
 50
0.0
 51
90.0
  0
LINE
  5
104
330
25
100
AcDbEntity
  8
1
100
AcDbLine
 10
70.16790799999999
 20
-201.541323
 30
0.0
 11
70.66790799999999
 21
-201.541323
 31
0.0
  0
LINE
  5
105
330
25
100
AcDbEntity
  8
1
100
AcDbLine
 10
102.667908
 20
-201.541323
 30
0.0
 11
103.167908
 21
-201.541323
 31
0.0
  0
LINE
  5
106
330
25
100
AcDbEntity
  8
1
100
AcDbLine
 10
83.667908
 20
-213.058694
 30
0.0
 11
89.667908
 21
-213.058694
 31
0.0
  0
LINE
  5
107
330
25
100
AcDbEntity
  8
1
100
AcDbLine
 10
83.667908
 20
-210.058694
 30
0.0
 11
83.667908
 21
-191.541323
 31
0.0
  0
LINE
  5
108
330
25
100
AcDbEntity
  8
1
100
AcDbLine
 10
89.667908
 20
-210.058694
 30
0.0
 11
89.667908
 21
-191.541323
 31
0.0
  0
ARC
  5
109
330
25
100
AcDbEntity
  8
1
100
AcDbCircle
 10
92.667908
 20
-210.058694
 30
0.0
 40
3.0
100
AcDbArc
 50
180.0
 51
270.0
  0
ARC
  5
10A
330
25
100
AcDbEntity
  8
1
100
AcDbCircle
 10
80.66790799999999
 20
-210.058694
 30
0.0
 40
3.0
100
AcDbArc
 50
270.0
 51
360.0
  0
LINE
  5
10B
330
25
100
AcDbEntity
  8
1
100
AcDbLine
 10
83.667908
 20
-89.99992199999999
 30
0.0
 11
89.667908
 21
-89.99992199999999
 31
0.0
  0
LINE
  5
10C
330
25
100
AcDbEntity
  8
1
100
AcDbLine
 10
83.667908
 20
-131.541323
 30
0.0
 11
83.667908
 21
-92.999922
 31
0.0
  0
LINE
  5
10D
330
25
100
AcDbEntity
  8
1
100
AcDbLine
 10
89.667908
 20
-131.541323
 30
0.0
 11
89.667908
 21
-92.999922
 31
0.0
  0
ARC
  5
10E
330
25
100
AcDbEntity
  8
1
100
AcDbCircle
 10
92.667908
 20
-92.999922
 30
0.0
 40
3.0
100
AcDbArc
 50
90.0
 51
180.0
  0
ARC
  5
10F
330
25
100
AcDbEntity
  8
1
100
AcDbCircle
 10
80.66790799999999
 20
-92.999922
 30
0.0
 40
3.0
100
AcDbArc
 50
0.0
 51
90.0
  0
LINE
  5
110
330
25
100
AcDbEntity
  8
1
100
AcDbLine
 10
85.66790799999999
 20
-106.287329
 30
0.0
 11
87.667908
 21
-106.287329
 31
0.0
  0
LINE
  5
111
330
25
100
AcDbEntity
  8
1
100
AcDbLine
 10
85.66790799999999
 20
-114.063012
 30
0.0
 11
87.667908
 21
-114.063012
 31
0.0
  0
ARC
  5
112
330
25
100
AcDbEntity
  8
1
100
AcDbCircle
 10
87.667908
 20
-108.287329
 30
0.0
 40
2.0
100
AcDbArc
 50
0.0
 51
90.0
  0
ARC
  5
113
330
25
100
AcDbEntity
  8
1
100
AcDbCircle
 10
87.667908
 20
-112.063012
 30
0.0
 40
2.0
100
AcDbArc
 50
270.0
 51
360.0
  0
ARC
  5
114
330
25
100
AcDbEntity
  8
1
100
AcDbCircle
 10
85.66790799999999
 20
-108.287329
 30
0.0
 40
2.0
100
AcDbArc
 50
90.0
 51
180.0
  0
ARC
  5
115
330
25
100
AcDbEntity
  8
1
100
AcDbCircle
 10
85.66790799999999
 20
-112.063012
 30
0.0
 40
2.0
100
AcDbArc
 50
180.0
 51
270.0
  0
LINE
  5
116
330
25
100
AcDbEntity
  8
1
100
AcDbLine
 10
85.66790799999999
 20
-208.296376
 30
0.0
 11
87.667908
 21
-208.296376
 31
0.0
  0
ARC
  5
117
330
25
100
AcDbEntity
  8
1
100
AcDbCircle
 10
87.667908
 20
-206.296376
 30
0.0
 40
2.0
100
AcDbArc
 50
270.0
 51
360.0
  0
ARC
  5
118
330
25
100
AcDbEntity
  8
1
100
AcDbCircle
 10
85.66790799999999
 20
-206.296376
 30
0.0
 40
2.0
100
AcDbArc
 50
180.0
 51
270.0
  0
LINE
  5
119
330
25
100
AcDbEntity
  8
1
100
AcDbLine
 10
84.16790799999999
 20
-136.541323
 30
0.0
 11
89.16790799999999
 21
-136.541323
 31
0.0
  0
LINE
  5
11A
330
25
100
AcDbEntity
  8
1
100
AcDbLine
 10
84.16790799999999
 20
-186.541323
 30
0.0
 11
89.16790799999999
 21
-186.541323
 31
0.0
  0
LINE
  5
11B
330
25
100
AcDbEntity
  8
1
100
AcDbLine
 10
83.667908
 20
-133.541323
 30
0.0
 11
89.667908
 21
-133.541323
 31
0.0
  0
LINE
  5
11C
330
25
100
AcDbEntity
  8
1
100
AcDbLine
 10
83.667908
 20
-189.541323
 30
0.0
 11
89.667908
 21
-189.541323
 31
0.0
  0
LINE
  5
11D
330
25
100
AcDbEntity
  8
1
100
AcDbLine
 10
79.167908
 20
-181.541323
 30
0.0
 11
79.167908
 21
-141.541323
 31
0.0
  0
LINE
  5
11E
330
25
100
AcDbEntity
  8
1
100
AcDbLine
 10
94.16790799999999
 20
-181.541323
 30
0.0
 11
94.16790799999999
 21
-141.541323
 31
0.0
  0
ARC
  5
11F
330
25
100
AcDbEntity
  8
1
100
AcDbCircle
 10
89.16790799999999
 20
-141.541323
 30
0.0
 40
5.0
100
AcDbArc
 50
0.0
 51
90.0
  0
ARC
  5
120
330
25
100
AcDbEntity
  8
1
100
AcDbCircle
 10
84.16790799999999
 20
-141.541323
 30
0.0
 40
5.0
100
AcDbArc
 50
90.0
 51
180.0
  0
ARC
  5
121
330
25
100
AcDbEntity
  8
1
100
AcDbCircle
 10
84.16790799999999
 20
-181.541323
 30
0.0
 40
5.0
100
AcDbArc
 50
180.0
 51
270.0
  0
ARC
  5
122
330
25
100
AcDbEntity
  8
1
100
AcDbCircle
 10
89.16790799999999
 20
-181.541323
 30
0.0
 40
5.0
100
AcDbArc
 50
270.0
 51
360.0
  0
LINE
  5
123
330
25
100
AcDbEntity
  8
1
100
AcDbLine
 10
94.16790799999999
 20
-196.607055
 30
0.0
 11
94.16790799999999
 21
-192.041323
 31
0.0
  0
LINE
  5
124
330
25
100
AcDbEntity
  8
1
100
AcDbLine
 10
94.16790799999999
 20
-131.041323
 30
0.0
 11
94.16790799999999
 21
-120.677898
 31
0.0
  0
LINE
  5
125
330
25
100
AcDbEntity
  8
1
100
AcDbLine
 10
79.167908
 20
-196.607055
 30
0.0
 11
79.167908
 21
-192.041323
 31
0.0
  0
LINE
  5
126
330
25
100
AcDbEntity
  8
1
100
AcDbLine
 10
79.167908
 20
-131.041323
 30
0.0
 11
79.167908
 21
-120.677898
 31
0.0
  0
ARC
  5
127
330
25
100
AcDbEntity
  8
1
100
AcDbCircle
 10
91.66790799999999
 20
-131.541323
 30
0.0
 40
2.0
100
AcDbArc
 50
180.0
 51
270.0
  0
ARC
  5
128
330
25
100
AcDbEntity
  8
1
100
AcDbCircle
 10
81.66790799999999
 20
-131.541323
 30
0.0
 40
2.0
100
AcDbArc
 50
270.0
 51
360.0
  0
ARC
  5
129
330
25
100
AcDbEntity
  8
1
100
AcDbCircle
 10
91.66790799999999
 20
-131.041323
 30
0.0
 40
2.5
100
AcDbArc
 50
270.0
 51
360.0
  0
ARC
  5
12A
330
25
100
AcDbEntity
  8
1
100
AcDbCircle
 10
81.66790799999999
 20
-131.041323
 30
0.0
 40
2.5
100
AcDbArc
 50
180.0
 51
270.0
  0
ARC
  5
12B
330
25
100
AcDbEntity
  8
1
100
AcDbCircle
 10
91.66790799999999
 20
-192.041323
 30
0.0
 40
2.5
100
AcDbArc
 50
0.0
 51
90.0
  0
ARC
  5
12C
330
25
100
AcDbEntity
  8
1
100
AcDbCircle
 10
81.66790799999999
 20
-192.041323
 30
0.0
 40
2.5
100
AcDbArc
 50
90.0
 51
180.0
  0
ARC
  5
12D
330
25
100
AcDbEntity
  8
1
100
AcDbCircle
 10
91.66790799999999
 20
-191.541323
 30
0.0
 40
2.0
100
AcDbArc
 50
90.0
 51
180.0
  0
ARC
  5
12E
330
25
100
AcDbEntity
  8
1
100
AcDbCircle
 10
81.66790799999999
 20
-191.541323
 30
0.0
 40
2.0
100
AcDbArc
 50
0.0
 51
90.0
  0
LINE
  5
12F
330
25
100
AcDbEntity
  8
1
100
AcDbLine
 10
72.66790799999999
 20
-126.450583
 30
0.0
 11
76.167908
 21
-126.450583
 31
0.0
  0
LINE
  5
130
330
25
100
AcDbEntity
  8
1
100
AcDbLine
 10
97.167908
 20
-126.450583
 30
0.0
 11
100.667908
 21
-126.450583
 31
0.0
  0
LINE
  5
131
330
25
100
AcDbEntity
  8
1
100
AcDbLine
 10
73.667908
 20
-195.377529
 30
0.0
 11
76.167908
 21
-195.377529
 31
0.0
  0
LINE
  5
132
330
25
100
AcDbEntity
  8
1
100
AcDbLine
 10
97.167908
 20
-195.377529
 30
0.0
 11
99.667908
 21
-195.377529
 31
0.0
  0
ARC
  5
133
330
25
100
AcDbEntity
  8
1
100
AcDbCircle
 10
97.167908
 20
-192.377529
 30
0.0
 40
3.0
100
AcDbArc
 50
180.0
 51
270.0
  0
ARC
  5
134
330
25
100
AcDbEntity
  8
1
100
AcDbCircle
 10
76.167908
 20
-192.377529
 30
0.0
 40
3.0
100
AcDbArc
 50
270.0
 51
360.0
  0
ARC
  5
135
330
25
100
AcDbEntity
  8
1
100
AcDbCircle
 10
97.167908
 20
-196.607055
 30
0.0
 40
3.0
100
AcDbArc
 50
180.0
 51
270.0
  0
ARC
  5
136
330
25
100
AcDbEntity
  8
1
100
AcDbCircle
 10
76.167908
 20
-196.607055
 30
0.0
 40
3.0
100
AcDbArc
 50
270.0
 51
360.0
  0
ARC
  5
137
330
25
100
AcDbEntity
  8
1
100
AcDbCircle
 10
97.167908
 20
-120.677898
 30
0.0
 40
3.0
100
AcDbArc
 50
90.0
 51
180.0
  0
ARC
  5
138
330
25
100
AcDbEntity
  8
1
100
AcDbCircle
 10
76.167908
 20
-120.677898
 30
0.0
 40
3.0
100
AcDbArc
 50
0.0
 51
90.0
  0
ARC
  5
139
330
25
100
AcDbEntity
  8
1
100
AcDbCircle
 10
76.167908
 20
-129.450583
 30
0.0
 40
3.0
100
AcDbArc
 50
0.0
 51
90.0
  0
ARC
  5
13A
330
25
100
AcDbEntity
  8
1
100
AcDbCircle
 10
97.167908
 20
-129.450583
 30
0.0
 40
3.0
100
AcDbArc
 50
90.0
 51
180.0
  0
LINE
  5
13B
330
25
100
AcDbEntity
  8
1
  6
DASHED
100
AcDbLine
 10
-203.841921
 20
177.74296
 30
0.0
 11
-207.841921
 21
177.74296
 31
0.0
  0
LINE
  5
13C
330
25
100
AcDbEntity
  8
1
  6
DASHED
100
AcDbLine
 10
-203.841921
 20
142.74296
 30
0.0
 11
-207.841921
 21
142.74296
 31
0.0
  0
LINE
  5
13D
330
25
100
AcDbEntity
  8
1
  6
DASHED
100
AcDbLine
 10
-202.841921
 20
176.74296
 30
0.0
 11
-203.841921
 21
177.74296
 31
0.0
  0
LINE
  5
13E
330
25
100
AcDbEntity
  8
1
  6
DASHED
100
AcDbLine
 10
-202.841921
 20
143.74296
 30
0.0
 11
-203.841921
 21
142.74296
 31
0.0
  0
LINE
  5
13F
330
25
100
AcDbEntity
  8
1
  6
DASHED
100
AcDbLine
 10
-202.841921
 20
176.74296
 30
0.0
 11
-207.841921
 21
176.74296
 31
0.0
  0
LINE
  5
140
330
25
100
AcDbEntity
  8
1
  6
DASHED
100
AcDbLine
 10
-202.841921
 20
143.74296
 30
0.0
 11
-207.841921
 21
143.74296
 31
0.0
  0
LINE
  5
141
330
25
100
AcDbEntity
  8
1
  6
DASHED
100
AcDbLine
 10
-204.635641
 20
167.74296
 30
0.0
 11
-207.841921
 21
167.74296
 31
0.0
  0
LINE
  5
142
330
25
100
AcDbEntity
  8
1
  6
DASHED
100
AcDbLine
 10
-204.635641
 20
152.74296
 30
0.0
 11
-207.841921
 21
152.74296
 31
0.0
  0
LINE
  5
143
330
25
100
AcDbEntity
  8
1
  6
DASHED
100
AcDbLine
 10
-202.841921
 20
143.74296
 30
0.0
 11
-202.841921
 21
148.906325
 31
0.0
  0
LINE
  5
144
330
25
100
AcDbEntity
  8
1
  6
DASHED
100
AcDbLine
 10
-202.841921
 20
171.579595
 30
0.0
 11
-202.841921
 21
176.74296
 31
0.0
  0
LINE
  5
145
330
25
100
AcDbEntity
  8
1
  6
DASHED
100
AcDbLine
 10
-206.547826
 20
166.749966
 30
0.0
 11
-207.136016
 21
166.592361
 31
0.0
  0
LINE
  5
146
330
25
100
AcDbEntity
  8
1
  6
DASHED
100
AcDbLine
 10
-206.547826
 20
153.735954
 30
0.0
 11
-207.136016
 21
153.893559
 31
0.0
  0
ARC
  5
147
330
25
100
AcDbEntity
  8
1
  6
DASHED
100
AcDbCircle
 10
-207.841921
 20
171.579595
 30
0.0
 40
5.0
100
AcDbArc
 50
285.0
 51
0.0
  0
ARC
  5
148
330
25
100
AcDbEntity
  8
1
  6
DASHED
100
AcDbCircle
 10
-207.841921
 20
148.906325
 30
0.0
 40
5.0
100
AcDbArc
 50
0.0
 51
75.0
  0
ARC
  5
149
330
25
100
AcDbEntity
  8
1
  6
DASHED
100
AcDbCircle
 10
-205.841921
 20
158.723188
 30
0.0
 40
5.0
100
AcDbArc
 50
246.421822
 51
255.0
  0
ARC
  5
14A
330
25
100
AcDbEntity
  8
1
  6
DASHED
100
AcDbCircle
 10
-205.841921
 20
161.762731
 30
0.0
 40
5.0
100
AcDbArc
 50
105.0
 51
113.578178
  0
CIRCLE
  5
14B
330
25
100
AcDbEntity
  8
1
100
AcDbCircle
 10
-242.841921
 20
-161.541323
 30
0.0
 40
39.0
  0
LINE
  5
14C
330
25
100
AcDbEntity
  8
1
  6
DASHED
100
AcDbLine
 10
-203.841921
 20
159.24296
 30
0.0
 11
-203.841921
 21
161.24296
 31
0.0
  0
LINE
  5
14D
330
25
100
AcDbEntity
  8
1
  6
DASHED
100
AcDbLine
 10
-205.841921
 20
163.24296
 30
0.0
 11
-207.841921
 21
163.24296
 31
0.0
  0
LINE
  5
14E
330
25
100
AcDbEntity
  8
1
  6
DASHED
100
AcDbLine
 10
-205.841921
 20
157.24296
 30
0.0
 11
-207.841921
 21
157.24296
 31
0.0
  0
ARC
  5
14F
330
25
100
AcDbEntity
  8
1
  6
DASHED
100
AcDbCircle
 10
-205.841921
 20
161.24296
 30
0.0
 40
2.0
100
AcDbArc
 50
0.0
 51
90.0
  0
ARC
  5
150
330
25
100
AcDbEntity
  8
1
  6
DASHED
100
AcDbCircle
 10
-205.841921
 20
159.24296
 30
0.0
 40
2.0
100
AcDbArc
 50
270.0
 51
360.0
  0
LINE
  5
151
330
25
100
AcDbEntity
  8
1
  6
DASHED
100
AcDbLine
 10
-281.841921
 20
177.74296
 30
0.0
 11
-277.841921
 21
177.74296
 31
0.0
  0
LINE
  5
152
330
25
100
AcDbEntity
  8
1
  6
DASHED
100
AcDbLine
 10
-281.841921
 20
142.74296
 30
0.0
 11
-277.841921
 21
142.74296
 31
0.0
  0
LINE
  5
153
330
25
100
AcDbEntity
  8
1
  6
DASHED
100
AcDbLine
 10
-282.841921
 20
176.74296
 30
0.0
 11
-281.841921
 21
177.74296
 31
0.0
  0
LINE
  5
154
330
25
100
AcDbEntity
  8
1
  6
DASHED
100
AcDbLine
 10
-282.841921
 20
143.74296
 30
0.0
 11
-281.841921
 21
142.74296
 31
0.0
  0
LINE
  5
155
330
25
100
AcDbEntity
  8
1
  6
DASHED
100
AcDbLine
 10
-282.841921
 20
176.74296
 30
0.0
 11
-277.841921
 21
176.74296
 31
0.0
  0
LINE
  5
156
330
25
100
AcDbEntity
  8
1
  6
DASHED
100
AcDbLine
 10
-282.841921
 20
143.74296
 30
0.0
 11
-277.841921
 21
143.74296
 31
0.0
  0
LINE
  5
157
330
25
100
AcDbEntity
  8
1
  6
DASHED
100
AcDbLine
 10
-281.048201
 20
167.74296
 30
0.0
 11
-277.841921
 21
167.74296
 31
0.0
  0
LINE
  5
158
330
25
100
AcDbEntity
  8
1
  6
DASHED
100
AcDbLine
 10
-281.048201
 20
152.74296
 30
0.0
 11
-277.841921
 21
152.74296
 31
0.0
  0
LINE
  5
159
330
25
100
AcDbEntity
  8
1
  6
DASHED
100
AcDbLine
 10
-282.841921
 20
143.74296
 30
0.0
 11
-282.841921
 21
148.906325
 31
0.0
  0
LINE
  5
15A
330
25
100
AcDbEntity
  8
1
  6
DASHED
100
AcDbLine
 10
-282.841921
 20
171.579595
 30
0.0
 11
-282.841921
 21
176.74296
 31
0.0
  0
LINE
  5
15B
330
25
100
AcDbEntity
  8
1
  6
DASHED
100
AcDbLine
 10
-279.136016
 20
166.749966
 30
0.0
 11
-278.547826
 21
166.592361
 31
0.0
  0
LINE
  5
15C
330
25
100
AcDbEntity
  8
1
  6
DASHED
100
AcDbLine
 10
-279.136016
 20
153.735954
 30
0.0
 11
-278.547826
 21
153.893559
 31
0.0
  0
ARC
  5
15D
330
25
100
AcDbEntity
  8
1
  6
DASHED
100
AcDbCircle
 10
-277.841921
 20
171.579595
 30
0.0
 40
5.0
100
AcDbArc
 50
180.0
 51
255.0
  0
ARC
  5
15E
330
25
100
AcDbEntity
  8
1
  6
DASHED
100
AcDbCircle
 10
-277.841921
 20
148.906325
 30
0.0
 40
5.0
100
AcDbArc
 50
105.0
 51
180.0
  0
ARC
  5
15F
330
25
100
AcDbEntity
  8
1
  6
DASHED
100
AcDbCircle
 10
-279.841921
 20
158.723188
 30
0.0
 40
5.0
100
AcDbArc
 50
285.0
 51
293.578178
  0
ARC
  5
160
330
25
100
AcDbEntity
  8
1
  6
DASHED
100
AcDbCircle
 10
-279.841921
 20
161.762731
 30
0.0
 40
5.0
100
AcDbArc
 50
66.42182199999999
 51
75.0
  0
LINE
  5
161
330
25
100
AcDbEntity
  8
1
  6
DASHED
100
AcDbLine
 10
-281.841921
 20
159.24296
 30
0.0
 11
-281.841921
 21
161.24296
 31
0.0
  0
LINE
  5
162
330
25
100
AcDbEntity
  8
1
  6
DASHED
100
AcDbLine
 10
-279.841921
 20
163.24296
 30
0.0
 11
-277.841921
 21
163.24296
 31
0.0
  0
LINE
  5
163
330
25
100
AcDbEntity
  8
1
  6
DASHED
100
AcDbLine
 10
-279.841921
 20
157.24296
 30
0.0
 11
-277.841921
 21
157.24296
 31
0.0
  0
ARC
  5
164
330
25
100
AcDbEntity
  8
1
  6
DASHED
100
AcDbCircle
 10
-279.841921
 20
161.24296
 30
0.0
 40
2.0
100
AcDbArc
 50
90.0
 51
180.0
  0
ARC
  5
165
330
25
100
AcDbEntity
  8
1
  6
DASHED
100
AcDbCircle
 10
-279.841921
 20
159.24296
 30
0.0
 40
2.0
100
AcDbArc
 50
180.0
 51
270.0
  0
ARC
  5
166
330
25
100
AcDbEntity
  8
1
100
AcDbCircle
 10
-242.841921
 20
-161.541323
 30
0.0
 40
18.847539
100
AcDbArc
 50
129.545285
 51
230.454715
  0
ARC
  5
167
330
25
100
AcDbEntity
  8
1
100
AcDbCircle
 10
-242.841921
 20
-161.541323
 30
0.0
 40
18.847539
100
AcDbArc
 50
309.545285
 51
50.454715
  0
ARC
  5
168
330
25
100
AcDbEntity
  8
1
100
AcDbCircle
 10
-240.157645
 20
-175.643465
 30
0.0
 40
8.0
100
AcDbArc
 50
336.328807
 51
341.536959
  0
ARC
  5
169
330
25
100
AcDbEntity
  8
1
100
AcDbCircle
 10
-245.526197
 20
-175.643465
 30
0.0
 40
8.0
100
AcDbArc
 50
198.463041
 51
203.671193
  0
LINE
  5
16A
330
25
100
AcDbEntity
  8
1
100
AcDbLine
 10
-233.915004
 20
-174.628853
 30
0.0
 11
-238.195442
 21
-172.1575409999999
 31
0.0
  0
LINE
  5
16B
330
25
100
AcDbEntity
  8
1
100
AcDbLine
 10
-251.768838
 20
-174.628853
 30
0.0
 11
-247.488399
 21
-172.1575409999999
 31
0.0
  0
ARC
  5
16C
330
25
100
AcDbEntity
  8
1
100
AcDbCircle
 10
-242.841921
 20
-180.205478
 30
0.0
 40
9.292957000000001
100
AcDbArc
 50
60.0
 51
120.0
  0
ARC
  5
16D
330
25
100
AcDbEntity
  8
1
100
AcDbCircle
 10
-235.415004
 20
-177.226929
 30
0.0
 40
3.0
100
AcDbArc
 50
341.536959
 51
60.0
  0
ARC
  5
16E
330
25
100
AcDbEntity
  8
1
100
AcDbCircle
 10
-250.268838
 20
-177.226929
 30
0.0
 40
3.0
100
AcDbArc
 50
120.0
 51
198.463041
  0
LINE
  5
16F
330
25
100
AcDbEntity
  8
1
100
AcDbLine
 10
-233.915004
 20
-175.530865
 30
0.0
 11
-251.768838
 21
-175.530865
 31
0.0
  0
LINE
  5
170
330
25
100
AcDbEntity
  8
1
100
AcDbLine
 10
-232.569419
 20
-178.0257719999999
 30
0.0
 11
-253.114422
 21
-178.0257719999999
 31
0.0
  0
LINE
  5
171
330
25
100
AcDbEntity
  8
1
100
AcDbLine
 10
-232.684965
 20
-147.439181
 30
0.0
 11
-252.998877
 21
-147.439181
 31
0.0
  0
ARC
  5
172
330
25
100
AcDbEntity
  8
1
100
AcDbCircle
 10
-240.157645
 20
-147.439181
 30
0.0
 40
8.0
100
AcDbArc
 50
21.457743
 51
23.671193
  0
ARC
  5
173
330
25
100
AcDbEntity
  8
1
100
AcDbCircle
 10
-245.526197
 20
-147.439181
 30
0.0
 40
8.0
100
AcDbArc
 50
156.328807
 51
158.542257
  0
LINE
  5
174
330
25
100
AcDbEntity
  8
1
100
AcDbLine
 10
-233.778914
 20
-151.72145
 30
0.0
 11
-251.904927
 21
-151.72145
 31
0.0
  0
LINE
  5
175
330
25
100
AcDbEntity
  8
1
100
AcDbLine
 10
-233.778914
 20
-152.81923
 30
0.0
 11
-233.778914
 21
-155.997199
 31
0.0
  0
LINE
  5
176
330
25
100
AcDbEntity
  8
1
100
AcDbLine
 10
-251.904927
 20
-152.81923
 30
0.0
 11
-251.904927
 21
-155.997199
 31
0.0
  0
LINE
  5
177
330
25
100
AcDbEntity
  8
1
100
AcDbLine
 10
-232.684965
 20
-148.831994
 30
0.0
 11
-233.390219
 21
-150.694787
 31
0.0
  0
LINE
  5
178
330
25
100
AcDbEntity
  8
1
100
AcDbLine
 10
-252.998877
 20
-148.831994
 30
0.0
 11
-252.293623
 21
-150.694787
 31
0.0
  0
ARC
  5
179
330
25
100
AcDbEntity
  8
1
100
AcDbCircle
 10
-227.778914
 20
-152.81923
 30
0.0
 40
6.0
100
AcDbArc
 50
159.263303
 51
180.0
  0
ARC
  5
17A
330
25
100
AcDbEntity
  8
1
100
AcDbCircle
 10
-247.387572
 20
-146.707551
 30
0.0
 40
6.0
100
AcDbArc
 50
158.542257
 51
200.736697
  0
ARC
  5
17B
330
25
100
AcDbEntity
  8
1
100
AcDbCircle
 10
-257.904927
 20
-152.81923
 30
0.0
 40
6.0
100
AcDbArc
 50
0.0
 51
20.736697
  0
LINE
  5
17C
330
25
100
AcDbEntity
  8
1
100
AcDbLine
 10
-234.831195
 20
-159.391323
 30
0.0
 11
-250.852647
 21
-159.391323
 31
0.0
  0
ARC
  5
17D
330
25
100
AcDbEntity
  8
1
100
AcDbCircle
 10
-242.841921
 20
-148.045641
 30
0.0
 40
14.52110799999999
100
AcDbArc
 50
248.932898
 51
291.067102
  0
ARC
  5
17E
330
25
100
AcDbEntity
  8
1
100
AcDbCircle
 10
-239.778914
 20
-155.997199
 30
0.0
 40
6.0
100
AcDbArc
 50
291.067102
 51
360.0
  0
ARC
  5
17F
330
25
100
AcDbEntity
  8
1
100
AcDbCircle
 10
-245.904927
 20
-155.997199
 30
0.0
 40
6.0
100
AcDbArc
 50
180.0
 51
248.932898
  0
LINE
  5
180
330
25
100
AcDbEntity
  8
1
100
AcDbLine
 10
-234.841921
 20
-143.21102
 30
0.0
 11
-250.841921
 21
-143.21102
 31
0.0
  0
ARC
  5
181
330
25
100
AcDbEntity
  8
1
100
AcDbCircle
 10
-238.296269
 20
-146.707551
 30
0.0
 40
6.0
100
AcDbArc
 50
339.263303
 51
21.457743
  0
ARC
  5
182
330
25
100
AcDbEntity
  8
1
100
AcDbCircle
 10
-242.841921
 20
-161.541323
 30
0.0
 40
20.0
100
AcDbArc
 50
113.578178
 51
246.421822
  0
ARC
  5
183
330
25
100
AcDbEntity
  8
1
100
AcDbCircle
 10
-242.841921
 20
-161.541323
 30
0.0
 40
20.0
100
AcDbArc
 50
293.578178
 51
66.42182199999999
  0
LINE
  5
184
330
25
100
AcDbEntity
  8
1
100
AcDbLine
 10
-250.841921
 20
-179.871625
 30
0.0
 11
-234.841921
 21
-179.871625
 31
0.0
  0
CIRCLE
  5
185
330
25
100
AcDbEntity
  8
1
100
AcDbCircle
 10
-242.841921
 20
-161.541323
 30
0.0
 40
34.5
  0
CIRCLE
  5
186
330
25
100
AcDbEntity
  8
1
100
AcDbCircle
 10
-242.841921
 20
-161.541323
 30
0.0
 40
31.5
  0
CIRCLE
  5
187
330
25
100
AcDbEntity
  8
1
100
AcDbCircle
 10
-242.841921
 20
-161.541323
 30
0.0
 40
25.0
  0
CIRCLE
  5
188
330
25
100
AcDbEntity
  8
1
100
AcDbCircle
 10
-242.841921
 20
-161.541323
 30
0.0
 40
22.55
  0
ARC
  5
189
330
25
100
AcDbEntity
  8
1
100
AcDbCircle
 10
96.66790800000001
 20
-207.541323
 30
0.0
 40
3.0
100
AcDbArc
 50
270.0
 51
360.0
  0
ARC
  5
18A
330
25
100
AcDbEntity
  8
1
100
AcDbCircle
 10
76.667908
 20
-207.541323
 30
0.0
 40
3.0
100
AcDbArc
 50
180.0
 51
270.0
  0
LINE
  5
18B
330
25
100
AcDbEntity
  8
1
100
AcDbLine
 10
76.667908
 20
-210.541323
 30
0.0
 11
80.66790799999999
 21
-210.541323
 31
0.0
  0
LINE
  5
18C
330
25
100
AcDbEntity
  8
1
100
AcDbLine
 10
92.667908
 20
-210.541323
 30
0.0
 11
96.66790800000001
 21
-210.541323
 31
0.0
  0
ARC
  5
18D
330
25
100
AcDbEntity
  8
1
100
AcDbCircle
 10
92.667908
 20
-207.541323
 30
0.0
 40
3.0
100
AcDbArc
 50
180.0
 51
270.0
  0
ARC
  5
18E
330
25
100
AcDbEntity
  8
1
100
AcDbCircle
 10
80.66790799999999
 20
-207.541323
 30
0.0
 40
3.0
100
AcDbArc
 50
270.0
 51
360.0
  0
LINE
  5
18F
330
25
100
AcDbEntity
  8
1
100
AcDbLine
 10
-237.841921
 20
-27.541323
 30
0.0
 11
-237.841921
 21
-18.541323
 31
0.0
  0
LINE
  5
190
330
25
100
AcDbEntity
  8
1
100
AcDbLine
 10
-247.841921
 20
-27.541323
 30
0.0
 11
-247.841921
 21
-18.541323
 31
0.0
  0
LINE
  5
191
330
25
100
AcDbEntity
  8
1
  6
CENTER
 62
     2
100
AcDbLine
 10
86.66790799999999
 20
-228.184036
 30
0.0
 11
86.66790799999999
 21
39.299782
 31
0.0
  0
LINE
  5
192
330
25
100
AcDbEntity
  8
1
100
AcDbLine
 10
51.66790800000001
 20
-29.541323
 30
0.0
 11
80.76790799999999
 21
-29.541323
 31
0.0
  0
LINE
  5
193
330
25
100
AcDbEntity
  8
1
100
AcDbLine
 10
92.567908
 20
-29.541323
 30
0.0
 11
121.667908
 21
-29.541323
 31
0.0
  0
POINT
  5
194
330
25
100
AcDbEntity
  8
2
100
AcDbPoint
 10
-242.842159
 20
160.24296
 30
0.0
  0
LINE
  5
195
330
25
100
AcDbEntity
  8
2
  6
CENTER
 62
     2
100
AcDbLine
 10
-242.842159
 20
106.404411
 30
0.0
 11
-242.842159
 21
224.232025
 31
0.0
  0
LINE
  5
196
330
25
100
AcDbEntity
  8
2
  6
CENTER
 62
     2
100
AcDbLine
 10
-34.522953
 20
160.24296
 30
0.0
 11
-306.865204
 21
160.24296
 31
0.0
  0
ARC
  5
197
330
25
100
AcDbEntity
  8
2
100
AcDbCircle
 10
-277.842159
 20
160.24296
 30
0.0
 40
2.0
100
AcDbArc
 50
111.803748
 51
248.196252
  0
LINE
  5
198
330
25
100
AcDbEntity
  8
2
100
AcDbLine
 10
-278.585016
 20
162.099883
 30
0.0
 11
-248.413587
 21
174.169883
 31
0.0
  0
LINE
  5
199
330
25
100
AcDbEntity
  8
2
100
AcDbLine
 10
-278.585016
 20
158.386037
 30
0.0
 11
-250.099302
 21
146.990403
 31
0.0
  0
LINE
  5
19A
330
25
100
AcDbEntity
  8
2
100
AcDbLine
 10
-247.842159
 20
143.24296
 30
0.0
 11
-237.842159
 21
143.24296
 31
0.0
  0
ARC
  5
19B
330
25
100
AcDbEntity
  8
2
100
AcDbCircle
 10
-242.842159
 20
160.24296
 30
0.0
 40
15.0
100
AcDbArc
 50
298.072487
 51
241.927513
  0
LINE
  5
19C
330
25
100
AcDbEntity
  8
2
100
AcDbLine
 10
-248.842159
 20
144.24296
 30
0.0
 11
-248.842159
 21
147.593849
 31
0.0
  0
LINE
  5
19D
330
25
100
AcDbEntity
  8
2
100
AcDbLine
 10
-236.842159
 20
144.24296
 30
0.0
 11
-236.842159
 21
147.593849
 31
0.0
  0
ARC
  5
19E
330
25
100
AcDbEntity
  8
2
100
AcDbCircle
 10
-247.842159
 20
144.24296
 30
0.0
 40
1.0
100
AcDbArc
 50
180.0
 51
270.0
  0
ARC
  5
19F
330
25
100
AcDbEntity
  8
2
100
AcDbCircle
 10
-250.842159
 20
145.133479
 30
0.0
 40
2.0
100
AcDbArc
 50
0.0
 51
68.196252
  0
ARC
  5
1A0
330
25
100
AcDbEntity
  8
2
100
AcDbCircle
 10
-234.842159
 20
145.24296
 30
0.0
 40
2.0
100
AcDbArc
 50
118.072487
 51
180.0
  0
ARC
  5
1A1
330
25
100
AcDbEntity
  8
2
100
AcDbCircle
 10
-250.842159
 20
145.24296
 30
0.0
 40
2.0
100
AcDbArc
 50
0.0
 51
61.92751300000001
  0
LINE
  5
1A2
330
25
100
AcDbEntity
  8
2
100
AcDbLine
 10
-242.447422
 20
175.237765
 30
0.0
 11
-52.579001
 21
170.239497
 31
0.0
  0
ARC
  5
1A3
330
25
100
AcDbEntity
  8
2
100
AcDbCircle
 10
-148.342159
 20
146.74296
 30
0.0
 40
0.5
100
AcDbArc
 50
270.0
 51
360.0
  0
ARC
  5
1A4
330
25
100
AcDbEntity
  8
2
100
AcDbCircle
 10
-157.342159
 20
146.74296
 30
0.0
 40
0.5
100
AcDbArc
 50
167.306936
 51
270.0
  0
LINE
  5
1A5
330
25
100
AcDbEntity
  8
2
100
AcDbLine
 10
-157.342159
 20
146.24296
 30
0.0
 11
-148.342159
 21
146.24296
 31
0.0
  0
LINE
  5
1A6
330
25
100
AcDbEntity
  8
2
100
AcDbLine
 10
-147.842159
 20
146.74296
 30
0.0
 11
-147.842159
 21
147.251619
 31
0.0
  0
ARC
  5
1A7
330
25
100
AcDbEntity
  8
2
100
AcDbCircle
 10
-52.84215899999999
 20
160.24296
 30
0.0
 40
10.0
100
AcDbArc
 50
271.507958
 51
88.492042
  0
ARC
  5
1A8
330
25
100
AcDbEntity
  8
2
100
AcDbCircle
 10
-158.31772
 20
146.962688
 30
0.0
 40
0.5
100
AcDbArc
 50
347.306936
 51
91.507958
  0
ARC
  5
1A9
330
25
100
AcDbEntity
  8
2
100
AcDbCircle
 10
-147.342159
 20
147.251619
 30
0.0
 40
0.5
100
AcDbArc
 50
91.507958
 51
180.0
  0
LINE
  5
1AA
330
25
100
AcDbEntity
  8
2
100
AcDbLine
 10
-235.002909
 20
145.444131
 30
0.0
 11
-52.579001
 21
150.246423
 31
0.0
  0
ARC
  5
1AB
330
25
100
AcDbEntity
  8
2
100
AcDbCircle
 10
-147.342159
 20
173.234301
 30
0.0
 40
0.5
100
AcDbArc
 50
180.0
 51
268.492042
  0
ARC
  5
1AC
330
25
100
AcDbEntity
  8
2
100
AcDbCircle
 10
-158.31772
 20
173.523232
 30
0.0
 40
0.5
100
AcDbArc
 50
268.492042
 51
12.693064
  0
LINE
  5
1AD
330
25
100
AcDbEntity
  8
2
100
AcDbLine
 10
-147.842159
 20
173.74296
 30
0.0
 11
-147.842159
 21
173.234301
 31
0.0
  0
LINE
  5
1AE
330
25
100
AcDbEntity
  8
2
100
AcDbLine
 10
-157.342159
 20
174.24296
 30
0.0
 11
-148.342159
 21
174.24296
 31
0.0
  0
ARC
  5
1AF
330
25
100
AcDbEntity
  8
2
100
AcDbCircle
 10
-157.342159
 20
173.74296
 30
0.0
 40
0.5
100
AcDbArc
 50
90.0
 51
192.693064
  0
ARC
  5
1B0
330
25
100
AcDbEntity
  8
2
100
AcDbCircle
 10
-148.342159
 20
173.74296
 30
0.0
 40
0.5
100
AcDbArc
 50
0.0
 51
90.0
  0
ARC
  5
1B1
330
25
100
AcDbEntity
  8
2
100
AcDbCircle
 10
-234.950277
 20
143.444824
 30
0.0
 40
2.0
100
AcDbArc
 50
91.507958
 51
164.570915
  0
ARC
  5
1B2
330
25
100
AcDbEntity
  8
2
100
AcDbCircle
 10
-237.842159
 20
144.24296
 30
0.0
 40
1.0
100
AcDbArc
 50
270.0
 51
360.0
  0
LINE
  5
1B3
330
25
100
AcDbEntity
  8
2
  6
CENTER
 62
     2
100
AcDbLine
 10
-152.842159
 20
177.834987
 30
0.0
 11
-152.842159
 21
142.511774
 31
0.0
  0
LINE
  5
1B4
330
25
100
AcDbEntity
  8
2
100
AcDbLine
 10
-240.345102
 20
165.876671
 30
0.0
 11
-236.655815
 21
165.876671
 31
0.0
  0
LINE
  5
1B5
330
25
100
AcDbEntity
  8
2
100
AcDbLine
 10
-236.609028
 20
165.678477
 30
0.0
 11
-240.228134
 21
163.868924
 31
0.0
  0
CIRCLE
  5
1B6
330
25
100
AcDbEntity
  8
2
100
AcDbCircle
 10
-242.842159
 20
160.24296
 30
0.0
 40
14.0
  0
LINE
  5
1B7
330
25
100
AcDbEntity
  8
2
100
AcDbLine
 10
-240.950728
 20
163.481472
 30
0.0
 11
-244.569835
 21
161.671919
 31
0.0
  0
LINE
  5
1B8
330
25
100
AcDbEntity
  8
2
100
AcDbLine
 10
-244.948351
 20
161.905855
 30
0.0
 11
-244.948351
 21
163.418118
 31
0.0
  0
LINE
  5
1B9
330
25
100
AcDbEntity
  8
2
100
AcDbLine
 10
-245.292428
 20
163.481472
 30
0.0
 11
-248.992761
 21
161.631306
 31
0.0
  0
LINE
  5
1BA
330
25
100
AcDbEntity
  8
2
100
AcDbLine
 10
-249.290051
 20
159.70885
 30
0.0
 11
-249.290051
 21
165.615123
 31
0.0
  0
LINE
  5
1BB
330
25
100
AcDbEntity
  8
2
100
AcDbLine
 10
-245.292428
 20
161.284467
 30
0.0
 11
-248.911535
 21
159.474914
 31
0.0
  0
LINE
  5
1BC
330
25
100
AcDbEntity
  8
2
100
AcDbLine
 10
-248.95767
 20
161.482661
 30
0.0
 11
-245.339215
 21
161.482661
 31
0.0
  0
ARC
  5
1BD
330
25
100
AcDbEntity
  8
2
100
AcDbCircle
 10
-249.028503
 20
159.70885
 30
0.0
 40
0.261548
100
AcDbArc
 50
180.0
 51
296.565051
  0
ARC
  5
1BE
330
25
100
AcDbEntity
  8
2
100
AcDbCircle
 10
-248.95767
 20
161.561125
 30
0.0
 40
0.078464
100
AcDbArc
 50
116.565051
 51
270.0
  0
LINE
  5
1BF
330
25
100
AcDbEntity
  8
2
100
AcDbLine
 10
-244.791422
 20
153.139273
 30
0.0
 11
-241.058012
 21
153.139273
 31
0.0
  0
LINE
  5
1C0
330
25
100
AcDbEntity
  8
2
100
AcDbLine
 10
-244.791422
 20
161.482661
 30
0.0
 11
-241.058012
 21
161.482661
 31
0.0
  0
LINE
  5
1C1
330
25
100
AcDbEntity
  8
2
100
AcDbLine
 10
-244.948351
 20
161.325732
 30
0.0
 11
-244.948351
 21
153.296202
 31
0.0
  0
ARC
  5
1C2
330
25
100
AcDbEntity
  8
2
100
AcDbCircle
 10
-244.791422
 20
153.296202
 30
0.0
 40
0.156929
100
AcDbArc
 50
180.0
 51
270.0
  0
ARC
  5
1C3
330
25
100
AcDbEntity
  8
2
100
AcDbCircle
 10
-244.686802
 20
161.905855
 30
0.0
 40
0.261548
100
AcDbArc
 50
180.0
 51
296.565051
  0
ARC
  5
1C4
330
25
100
AcDbEntity
  8
2
100
AcDbCircle
 10
-244.791422
 20
161.325732
 30
0.0
 40
0.156929
100
AcDbArc
 50
90.0
 51
180.0
  0
ARC
  5
1C5
330
25
100
AcDbEntity
  8
2
100
AcDbCircle
 10
-245.339215
 20
161.378042
 30
0.0
 40
0.104619
100
AcDbArc
 50
296.565051
 51
90.0
  0
LINE
  5
1C6
330
25
100
AcDbEntity
  8
2
100
AcDbLine
 10
-240.901083
 20
153.296202
 30
0.0
 11
-240.901083
 21
161.325732
 31
0.0
  0
ARC
  5
1C7
330
25
100
AcDbEntity
  8
2
100
AcDbCircle
 10
-241.058012
 20
153.296202
 30
0.0
 40
0.156929
100
AcDbArc
 50
270.0
 51
360.0
  0
ARC
  5
1C8
330
25
100
AcDbEntity
  8
2
100
AcDbCircle
 10
-241.058012
 20
161.325732
 30
0.0
 40
0.156929
100
AcDbArc
 50
0.0
 51
90.0
  0
LINE
  5
1C9
330
25
100
AcDbEntity
  8
2
100
AcDbLine
 10
-249.028503
 20
165.876671
 30
0.0
 11
-245.339215
 21
165.876671
 31
0.0
  0
LINE
  5
1CA
330
25
100
AcDbEntity
  8
2
100
AcDbLine
 10
-248.95767
 20
163.679666
 30
0.0
 11
-245.339215
 21
163.679666
 31
0.0
  0
LINE
  5
1CB
330
25
100
AcDbEntity
  8
2
100
AcDbLine
 10
-245.292428
 20
165.678477
 30
0.0
 11
-248.992761
 21
163.828311
 31
0.0
  0
ARC
  5
1CC
330
25
100
AcDbEntity
  8
2
100
AcDbCircle
 10
-249.028503
 20
165.615123
 30
0.0
 40
0.261548
100
AcDbArc
 50
90.0
 51
180.0
  0
ARC
  5
1CD
330
25
100
AcDbEntity
  8
2
100
AcDbCircle
 10
-248.95767
 20
163.75813
 30
0.0
 40
0.078464
100
AcDbArc
 50
116.565051
 51
270.0
  0
LINE
  5
1CE
330
25
100
AcDbEntity
  8
2
100
AcDbLine
 10
-244.686802
 20
165.876671
 30
0.0
 11
-240.997515
 21
165.876671
 31
0.0
  0
LINE
  5
1CF
330
25
100
AcDbEntity
  8
2
100
AcDbLine
 10
-244.686802
 20
163.679666
 30
0.0
 11
-240.997515
 21
163.679666
 31
0.0
  0
LINE
  5
1D0
330
25
100
AcDbEntity
  8
2
100
AcDbLine
 10
-240.950728
 20
165.678477
 30
0.0
 11
-244.569835
 21
163.868924
 31
0.0
  0
ARC
  5
1D1
330
25
100
AcDbEntity
  8
2
100
AcDbCircle
 10
-244.686802
 20
165.615123
 30
0.0
 40
0.261548
100
AcDbArc
 50
90.0
 51
180.0
  0
ARC
  5
1D2
330
25
100
AcDbEntity
  8
2
100
AcDbCircle
 10
-245.339215
 20
165.772052
 30
0.0
 40
0.104619
100
AcDbArc
 50
296.565051
 51
90.0
  0
ARC
  5
1D3
330
25
100
AcDbEntity
  8
2
100
AcDbCircle
 10
-244.686802
 20
164.10286
 30
0.0
 40
0.261548
100
AcDbArc
 50
180.0
 51
296.565051
  0
ARC
  5
1D4
330
25
100
AcDbEntity
  8
2
100
AcDbCircle
 10
-244.686802
 20
163.418118
 30
0.0
 40
0.261548
100
AcDbArc
 50
90.0
 51
180.0
  0
ARC
  5
1D5
330
25
100
AcDbEntity
  8
2
100
AcDbCircle
 10
-245.339215
 20
163.575047
 30
0.0
 40
0.104619
100
AcDbArc
 50
296.565051
 51
90.0
  0
LINE
  5
1D6
330
25
100
AcDbEntity
  8
2
100
AcDbLine
 10
-244.948351
 20
164.10286
 30
0.0
 11
-244.948351
 21
165.615123
 31
0.0
  0
ARC
  5
1D7
330
25
100
AcDbEntity
  8
2
100
AcDbCircle
 10
-240.345102
 20
165.615123
 30
0.0
 40
0.261548
100
AcDbArc
 50
90.0
 51
180.0
  0
ARC
  5
1D8
330
25
100
AcDbEntity
  8
2
100
AcDbCircle
 10
-240.997515
 20
165.772052
 30
0.0
 40
0.104619
100
AcDbArc
 50
296.565051
 51
90.0
  0
ARC
  5
1D9
330
25
100
AcDbEntity
  8
2
100
AcDbCircle
 10
-240.345102
 20
164.10286
 30
0.0
 40
0.261548
100
AcDbArc
 50
180.0
 51
296.565051
  0
ARC
  5
1DA
330
25
100
AcDbEntity
  8
2
100
AcDbCircle
 10
-240.997515
 20
163.575047
 30
0.0
 40
0.104619
100
AcDbArc
 50
296.565051
 51
90.0
  0
LINE
  5
1DB
330
25
100
AcDbEntity
  8
2
100
AcDbLine
 10
-240.60665
 20
164.10286
 30
0.0
 11
-240.60665
 21
165.615123
 31
0.0
  0
ARC
  5
1DC
330
25
100
AcDbEntity
  8
2
100
AcDbCircle
 10
-236.655815
 20
165.772052
 30
0.0
 40
0.104619
100
AcDbArc
 50
296.565051
 51
90.0
  0
LINE
  5
1DD
330
25
100
AcDbEntity
  8
2
100
AcDbLine
 10
-243.304099
 20
212.358181
 30
0.0
 11
-246.386305
 21
219.799285
 31
0.0
  0
LINE
  5
1DE
330
25
100
AcDbEntity
  8
2
100
AcDbLine
 10
-242.380219
 20
212.358181
 30
0.0
 11
-239.298013
 21
219.799285
 31
0.0
  0
ARC
  5
1DF
330
25
100
AcDbEntity
  8
2
100
AcDbCircle
 10
-242.842159
 20
212.549523
 30
0.0
 40
0.5
100
AcDbArc
 50
202.5
 51
337.5
  0
ARC
  5
1E0
330
25
100
AcDbEntity
  8
2
100
AcDbCircle
 10
-246.848245
 20
219.607944
 30
0.0
 40
0.5
100
AcDbArc
 50
22.5
 51
93.86059799999999
  0
ARC
  5
1E1
330
25
100
AcDbEntity
  8
2
100
AcDbCircle
 10
-238.836073
 20
219.607944
 30
0.0
 40
0.5
100
AcDbArc
 50
86.139402
 51
157.5
  0
ARC
  5
1E2
330
25
100
AcDbEntity
  8
2
100
AcDbCircle
 10
-228.588313
 20
218.010407
 30
0.0
 40
0.5
100
AcDbArc
 50
76.139402
 51
147.5
  0
ARC
  5
1E3
330
25
100
AcDbEntity
  8
2
100
AcDbCircle
 10
-236.478762
 20
219.401706
 30
0.0
 40
0.5
100
AcDbArc
 50
12.5
 51
83.86059799999999
  0
ARC
  5
1E4
330
25
100
AcDbEntity
  8
2
100
AcDbCircle
 10
-233.759219
 20
211.754869
 30
0.0
 40
0.5
100
AcDbArc
 50
192.5
 51
327.5
  0
LINE
  5
1E5
330
25
100
AcDbEntity
  8
2
100
AcDbLine
 10
-233.337524
 20
211.486219
 30
0.0
 11
-229.010009
 21
218.279056
 31
0.0
  0
LINE
  5
1E6
330
25
100
AcDbEntity
  8
2
100
AcDbLine
 10
-234.247367
 20
211.646649
 30
0.0
 11
-235.990614
 21
219.509925
 31
0.0
  0
ARC
  5
1E7
330
25
100
AcDbEntity
  8
2
100
AcDbCircle
 10
-218.773649
 20
214.657635
 30
0.0
 40
0.5
100
AcDbArc
 50
66.139402
 51
137.5
  0
ARC
  5
1E8
330
25
100
AcDbEntity
  8
2
100
AcDbCircle
 10
-226.302628
 20
217.397959
 30
0.0
 40
0.5
100
AcDbArc
 50
2.5
 51
73.86059799999999
  0
ARC
  5
1E9
330
25
100
AcDbEntity
  8
2
100
AcDbCircle
 10
-224.952261
 20
209.395051
 30
0.0
 40
0.5
100
AcDbArc
 50
182.5
 51
317.5
  0
LINE
  5
1EA
330
25
100
AcDbEntity
  8
2
100
AcDbLine
 10
-224.583622
 20
209.057256
 30
0.0
 11
-219.142288
 21
214.99543
 31
0.0
  0
LINE
  5
1EB
330
25
100
AcDbEntity
  8
2
100
AcDbLine
 10
-225.451785
 20
209.373242
 30
0.0
 11
-225.803104
 21
217.419769
 31
0.0
  0
ARC
  5
1EC
330
25
100
AcDbEntity
  8
2
100
AcDbCircle
 10
-209.690295
 20
209.651501
 30
0.0
 40
0.5
100
AcDbArc
 50
56.139402
 51
127.5
  0
ARC
  5
1ED
330
25
100
AcDbEntity
  8
2
100
AcDbCircle
 10
-216.629039
 20
213.657587
 30
0.0
 40
0.5
100
AcDbArc
 50
352.5
 51
63.86059799999999
  0
ARC
  5
1EE
330
25
100
AcDbEntity
  8
2
100
AcDbCircle
 10
-216.688877
 20
205.541772
 30
0.0
 40
0.5
100
AcDbArc
 50
172.5
 51
307.5
  0
LINE
  5
1EF
330
25
100
AcDbEntity
  8
2
100
AcDbLine
 10
-216.384497
 20
205.145096
 30
0.0
 11
-209.994676
 21
210.048178
 31
0.0
  0
LINE
  5
1F0
330
25
100
AcDbEntity
  8
2
100
AcDbLine
 10
-217.1846
 20
205.607035
 30
0.0
 11
-216.133317
 21
213.592324
 31
0.0
  0
ARC
  5
1F1
330
25
100
AcDbEntity
  8
2
100
AcDbCircle
 10
-201.614243
 20
203.144114
 30
0.0
 40
0.5
100
AcDbArc
 50
46.139402
 51
117.5
  0
ARC
  5
1F2
330
25
100
AcDbEntity
  8
2
100
AcDbCircle
 10
-207.751923
 20
208.294238
 30
0.0
 40
0.5
100
AcDbArc
 50
342.5
 51
53.86059799999999
  0
ARC
  5
1F3
330
25
100
AcDbEntity
  8
2
100
AcDbCircle
 10
-209.220148
 20
200.312112
 30
0.0
 40
0.5
100
AcDbArc
 50
162.5
 51
297.5
  0
LINE
  5
1F4
330
25
100
AcDbEntity
  8
2
100
AcDbLine
 10
-208.989274
 20
199.868606
 30
0.0
 11
-201.845117
 21
203.587619
 31
0.0
  0
LINE
  5
1F5
330
25
100
AcDbEntity
  8
2
100
AcDbLine
 10
-209.697007
 20
200.462465
 30
0.0
 11
-207.275064
 21
208.143885
 31
0.0
  0
ARC
  5
1F6
330
25
100
AcDbEntity
  8
2
100
AcDbCircle
 10
-194.790881
 20
195.333196
 30
0.0
 40
0.5
100
AcDbArc
 50
36.139402
 51
107.5
  0
ARC
  5
1F7
330
25
100
AcDbEntity
  8
2
100
AcDbCircle
 10
-199.941005
 20
201.470876
 30
0.0
 40
0.5
100
AcDbArc
 50
332.5
 51
43.86059799999999
  0
ARC
  5
1F8
330
25
100
AcDbEntity
  8
2
100
AcDbCircle
 10
-202.773007
 20
193.864971
 30
0.0
 40
0.5
100
AcDbArc
 50
152.5
 51
287.5
  0
LINE
  5
1F9
330
25
100
AcDbEntity
  8
2
100
AcDbLine
 10
-202.622654
 20
193.388112
 30
0.0
 11
-194.941234
 21
195.810055
 31
0.0
  0
LINE
  5
1FA
330
25
100
AcDbEntity
  8
2
100
AcDbLine
 10
-203.216512
 20
194.095845
 30
0.0
 11
-199.4975
 21
201.240001
 31
0.0
  0
ARC
  5
1FB
330
25
100
AcDbEntity
  8
2
100
AcDbCircle
 10
-189.427532
 20
186.45608
 30
0.0
 40
0.5
100
AcDbArc
 50
26.139402
 51
97.5
  0
ARC
  5
1FC
330
25
100
AcDbEntity
  8
2
100
AcDbCircle
 10
-193.433618
 20
193.394824
 30
0.0
 40
0.5
100
AcDbArc
 50
322.5
 51
33.860598
  0
ARC
  5
1FD
330
25
100
AcDbEntity
  8
2
100
AcDbCircle
 10
-197.5433459999999
 20
186.396241
 30
0.0
 40
0.5
100
AcDbArc
 50
142.5
 51
277.5
  0
LINE
  5
1FE
330
25
100
AcDbEntity
  8
2
100
AcDbLine
 10
-197.478083
 20
185.900519
 30
0.0
 11
-189.492795
 21
186.951802
 31
0.0
  0
LINE
  5
1FF
330
25
100
AcDbEntity
  8
2
100
AcDbLine
 10
-197.940023
 20
186.700622
 30
0.0
 11
-193.036941
 21
193.090443
 31
0.0
  0
ARC
  5
200
330
25
100
AcDbEntity
  8
2
100
AcDbCircle
 10
-185.68716
 20
176.782491
 30
0.0
 40
0.5
100
AcDbArc
 50
16.139402
 51
87.5
  0
ARC
  5
201
330
25
100
AcDbEntity
  8
2
100
AcDbCircle
 10
-188.427484
 20
184.311469
 30
0.0
 40
0.5
100
AcDbArc
 50
312.5
 51
23.860598
  0
ARC
  5
202
330
25
100
AcDbEntity
  8
2
100
AcDbCircle
 10
-193.690068
 20
178.132858
 30
0.0
 40
0.5
100
AcDbArc
 50
132.5
 51
267.5
  0
LINE
  5
203
330
25
100
AcDbEntity
  8
2
100
AcDbLine
 10
-193.711877
 20
177.633334
 30
0.0
 11
-185.66535
 21
177.282015
 31
0.0
  0
LINE
  5
204
330
25
100
AcDbEntity
  8
2
100
AcDbLine
 10
-194.027863
 20
178.501497
 30
0.0
 11
-188.089689
 21
183.942831
 31
0.0
  0
ARC
  5
205
330
25
100
AcDbEntity
  8
2
100
AcDbCircle
 10
-185.074712
 20
174.496806
 30
0.0
 40
0.5
100
AcDbArc
 50
302.5
 51
13.860598
  0
LINE
  5
206
330
25
100
AcDbEntity
  8
2
100
AcDbLine
 10
-185.340808
 20
173.734439
 30
0.0
 11
-184.806062
 21
174.07511
 31
0.0
  0
ARC
  5
207
330
25
100
AcDbEntity
  8
2
100
AcDbCircle
 10
-242.842159
 20
160.24296
 30
0.0
 40
50.0
100
AcDbArc
 50
127.979872
 51
322.020128
  0
LINE
  5
208
330
25
100
AcDbEntity
  8
2
100
AcDbLine
 10
-191.607405
 20
135.24296
 30
0.0
 11
-177.842159
 21
135.24296
 31
0.0
  0
LINE
  5
209
330
25
100
AcDbEntity
  8
2
100
AcDbLine
 10
-167.842159
 20
145.24296
 30
0.0
 11
-167.842159
 21
147.212131
 31
0.0
  0
ARC
  5
20A
330
25
100
AcDbEntity
  8
2
100
AcDbCircle
 10
-177.842159
 20
145.24296
 30
0.0
 40
10.0
100
AcDbArc
 50
270.0
 51
360.0
  0
ARC
  5
20B
330
25
100
AcDbEntity
  8
2
100
AcDbCircle
 10
-257.842159
 20
225.24296
 30
0.0
 40
10.0
100
AcDbArc
 50
90.0
 51
180.0
  0
ARC
  5
20C
330
25
100
AcDbEntity
  8
2
100
AcDbCircle
 10
-248.842159
 20
220.947161
 30
0.0
 40
1.0
100
AcDbArc
 50
180.0
 51
275.644778
  0
ARC
  5
20D
330
25
100
AcDbEntity
  8
2
100
AcDbCircle
 10
-250.842159
 20
234.24296
 30
0.0
 40
1.0
100
AcDbArc
 50
0.0
 51
90.0
  0
LINE
  5
20E
330
25
100
AcDbEntity
  8
2
100
AcDbLine
 10
-249.842159
 20
234.24296
 30
0.0
 11
-249.842159
 21
220.947161
 31
0.0
  0
LINE
  5
20F
330
25
100
AcDbEntity
  8
2
100
AcDbLine
 10
-257.842159
 20
235.24296
 30
0.0
 11
-250.842159
 21
235.24296
 31
0.0
  0
LINE
  5
210
330
25
100
AcDbEntity
  8
2
100
AcDbLine
 10
-267.842159
 20
211.477714
 30
0.0
 11
-267.842159
 21
225.24296
 31
0.0
  0
ARC
  5
211
330
25
100
AcDbEntity
  8
2
100
AcDbCircle
 10
-191.607405
 20
120.24296
 30
0.0
 40
15.0
100
AcDbArc
 50
90.0
 51
142.020128
  0
ARC
  5
212
330
25
100
AcDbEntity
  8
2
100
AcDbCircle
 10
-282.842159
 20
211.477714
 30
0.0
 40
15.0
100
AcDbArc
 50
307.979872
 51
360.0
  0
ARC
  5
213
330
25
100
AcDbEntity
  8
2
100
AcDbCircle
 10
-242.842159
 20
160.24296
 30
0.0
 40
60.0
100
AcDbArc
 50
13.860598
 51
16.139402
  0
ARC
  5
214
330
25
100
AcDbEntity
  8
2
100
AcDbCircle
 10
-242.842159
 20
160.24296
 30
0.0
 40
60.0
100
AcDbArc
 50
23.860598
 51
26.139402
  0
ARC
  5
215
330
25
100
AcDbEntity
  8
2
100
AcDbCircle
 10
-242.842159
 20
160.24296
 30
0.0
 40
60.0
100
AcDbArc
 50
93.86059799999999
 51
95.644778
  0
ARC
  5
216
330
25
100
AcDbEntity
  8
2
100
AcDbCircle
 10
-242.842159
 20
160.24296
 30
0.0
 40
60.0
100
AcDbArc
 50
83.86059799999999
 51
86.139402
  0
ARC
  5
217
330
25
100
AcDbEntity
  8
2
100
AcDbCircle
 10
-242.842159
 20
160.24296
 30
0.0
 40
60.0
100
AcDbArc
 50
73.86059799999999
 51
76.139402
  0
ARC
  5
218
330
25
100
AcDbEntity
  8
2
100
AcDbCircle
 10
-242.842159
 20
160.24296
 30
0.0
 40
60.0
100
AcDbArc
 50
63.86059799999999
 51
66.139402
  0
ARC
  5
219
330
25
100
AcDbEntity
  8
2
100
AcDbCircle
 10
-242.842159
 20
160.24296
 30
0.0
 40
60.0
100
AcDbArc
 50
53.86059799999999
 51
56.139402
  0
ARC
  5
21A
330
25
100
AcDbEntity
  8
2
100
AcDbCircle
 10
-242.842159
 20
160.24296
 30
0.0
 40
60.0
100
AcDbArc
 50
43.86059799999999
 51
46.139402
  0
ARC
  5
21B
330
25
100
AcDbEntity
  8
2
100
AcDbCircle
 10
-242.842159
 20
160.24296
 30
0.0
 40
60.0
100
AcDbArc
 50
33.860598
 51
36.139402
  0
LINE
  5
21C
330
25
100
AcDbEntity
  8
2
100
AcDbLine
 10
-240.720838
 20
180.749057
 30
0.0
 11
-244.256372
 21
184.284591
 31
0.0
  0
LINE
  5
21D
330
25
100
AcDbEntity
  8
2
100
AcDbLine
 10
-240.720838
 20
187.820124
 30
0.0
 11
-244.256372
 21
184.284591
 31
0.0
  0
LINE
  5
21E
330
25
100
AcDbEntity
  8
2
100
AcDbLine
 10
-240.367285
 20
187.466571
 30
0.0
 11
-243.549266
 21
184.284591
 31
0.0
  0
LINE
  5
21F
330
25
100
AcDbEntity
  8
2
100
AcDbLine
 10
-240.367285
 20
181.10261
 30
0.0
 11
-243.549266
 21
184.284591
 31
0.0
  0
LINE
  5
220
330
25
100
AcDbEntity
  8
2
100
AcDbLine
 10
-240.367285
 20
181.10261
 30
0.0
 11
-240.720838
 21
180.749057
 31
0.0
  0
LINE
  5
221
330
25
100
AcDbEntity
  8
2
100
AcDbLine
 10
-240.367285
 20
187.466571
 30
0.0
 11
-240.720838
 21
187.820124
 31
0.0
  0
LINE
  5
222
330
25
100
AcDbEntity
  8
2
100
AcDbLine
 10
-268.247256
 20
150.292718
 30
0.0
 11
-271.498215
 21
153.543677
 31
0.0
  0
LINE
  5
223
330
25
100
AcDbEntity
  8
2
100
AcDbLine
 10
-272.412547
 20
146.127427
 30
0.0
 11
-275.663506
 21
149.378386
 31
0.0
  0
LINE
  5
224
330
25
100
AcDbEntity
  8
2
100
AcDbLine
 10
-265.320532
 20
141.044705
 30
0.0
 11
-261.014369
 21
143.059831
 31
0.0
  0
LINE
  5
225
330
25
100
AcDbEntity
  8
2
100
AcDbLine
 10
-265.673449
 20
139.388328
 30
0.0
 11
-262.051409
 21
141.006866
 31
0.0
  0
LINE
  5
226
330
25
100
AcDbEntity
  8
2
100
AcDbLine
 10
-265.320532
 20
141.044705
 30
0.0
 11
-262.297884
 21
144.343346
 31
0.0
  0
LINE
  5
227
330
25
100
AcDbEntity
  8
2
100
AcDbLine
 10
-267.217046
 20
140.947464
 30
0.0
 11
-263.313809
 21
145.359271
 31
0.0
  0
ARC
  5
228
330
25
100
AcDbEntity
  8
2
100
AcDbCircle
 10
-262.609842
 20
140.164917
 30
0.0
 40
10.402317
100
AcDbArc
 50
128.830069
 51
141.169931
  0
ARC
  5
229
330
25
100
AcDbEntity
  8
2
100
AcDbCircle
 10
-273.297878
 20
150.852953
 30
0.0
 40
10.402317
100
AcDbArc
 50
308.830069
 51
321.169931
  0
LINE
  5
22A
330
25
100
AcDbEntity
  8
2
100
AcDbLine
 10
-272.412547
 20
146.127427
 30
0.0
 11
-268.247256
 21
150.292718
 31
0.0
  0
ARC
  5
22B
330
25
100
AcDbEntity
  8
2
100
AcDbCircle
 10
-268.051206
 20
146.925341
 30
0.0
 40
1.724081
100
AcDbArc
 50
51.27054199999999
 51
128.830069
  0
ARC
  5
22C
330
25
100
AcDbEntity
  8
2
100
AcDbCircle
 10
-266.537454
 20
145.411589
 30
0.0
 40
1.724081
100
AcDbArc
 50
321.169931
 51
38.729458
  0
ARC
  5
22D
330
25
100
AcDbEntity
  8
2
100
AcDbCircle
 10
-274.182494
 20
139.280301
 30
0.0
 40
11.524047
100
AcDbArc
 50
38.729458
 51
51.27054199999999
  0
LINE
  5
22E
330
25
100
AcDbEntity
  8
2
100
AcDbLine
 10
-263.313809
 20
145.359271
 30
0.0
 11
-262.297884
 21
144.343346
 31
0.0
  0
ARC
  5
22F
330
25
100
AcDbEntity
  8
2
100
AcDbCircle
 10
-269.370266
 20
145.606281
 30
0.0
 40
1.724081
100
AcDbArc
 50
141.169931
 51
218.729458
  0
ARC
  5
230
330
25
100
AcDbEntity
  8
2
100
AcDbCircle
 10
-267.856514
 20
144.092529
 30
0.0
 40
1.724081
100
AcDbArc
 50
231.270542
 51
308.830069
  0
ARC
  5
231
330
25
100
AcDbEntity
  8
2
100
AcDbCircle
 10
-261.725226
 20
151.737569
 30
0.0
 40
11.524047
100
AcDbArc
 50
218.729458
 51
231.270542
  0
LINE
  5
232
330
25
100
AcDbEntity
  8
2
100
AcDbLine
 10
-267.224815
 20
140.939695
 30
0.0
 11
-265.673449
 21
139.388328
 31
0.0
  0
LINE
  5
233
330
25
100
AcDbEntity
  8
2
100
AcDbLine
 10
-272.209362
 20
148.768831
 30
0.0
 11
-272.9205100000001
 21
148.057684
 31
0.0
  0
LINE
  5
234
330
25
100
AcDbEntity
  8
2
100
AcDbLine
 10
-270.177513
 20
150.800681
 30
0.0
 11
-271.498215
 21
149.479979
 31
0.0
  0
LINE
  5
235
330
25
100
AcDbEntity
  8
2
100
AcDbLine
 10
-270.177513
 20
150.800681
 30
0.0
 11
-272.209362
 21
152.83253
 31
0.0
  0
LINE
  5
236
330
25
100
AcDbEntity
  8
2
100
AcDbLine
 10
-271.498215
 20
149.479979
 30
0.0
 11
-273.530065
 21
151.511828
 31
0.0
  0
LINE
  5
237
330
25
100
AcDbEntity
  8
2
100
AcDbLine
 10
-272.209362
 20
148.768831
 30
0.0
 11
-274.241212
 21
150.800681
 31
0.0
  0
LINE
  5
238
330
25
100
AcDbEntity
  8
2
100
AcDbLine
 10
-272.9205100000001
 20
148.057684
 30
0.0
 11
-274.952359
 21
150.089533
 31
0.0
  0
LINE
  5
239
330
25
100
AcDbEntity
  8
2
100
AcDbLine
 10
-250.787039
 20
132.832501
 30
0.0
 11
-252.237197
 21
134.282659
 31
0.0
  0
LINE
  5
23A
330
25
100
AcDbEntity
  8
2
100
AcDbLine
 10
-253.873013
 20
129.746527
 30
0.0
 11
-255.323171
 21
131.196685
 31
0.0
  0
ARC
  5
23B
330
25
100
AcDbEntity
  8
2
100
AcDbCircle
 10
-253.987201
 20
126.340742
 30
0.0
 40
0.143673
100
AcDbArc
 50
225.0
 51
315.0
  0
LINE
  5
23C
330
25
100
AcDbEntity
  8
2
100
AcDbLine
 10
-253.751102
 20
129.746527
 30
0.0
 11
-250.787039
 21
132.71059
 31
0.0
  0
LINE
  5
23D
330
25
100
AcDbEntity
  8
2
100
AcDbLine
 10
-258.544846
 20
131.070279
 30
0.0
 11
-251.64761
 21
128.7712
 31
0.0
  0
ARC
  5
23E
330
25
100
AcDbEntity
  8
2
100
AcDbCircle
 10
-250.847994
 20
132.771545
 30
0.0
 40
0.086204
100
AcDbArc
 50
315.0
 51
45.0
  0
ARC
  5
23F
330
25
100
AcDbEntity
  8
2
100
AcDbCircle
 10
-251.693044
 20
128.6349
 30
0.0
 40
0.143673
100
AcDbArc
 50
315.0
 51
71.565051
  0
ARC
  5
240
330
25
100
AcDbEntity
  8
2
100
AcDbCircle
 10
-253.812057
 20
129.807482
 30
0.0
 40
0.086204
100
AcDbArc
 50
225.0
 51
315.0
  0
LINE
  5
241
330
25
100
AcDbEntity
  8
2
100
AcDbLine
 10
-251.591451
 20
128.533307
 30
0.0
 11
-253.885609
 21
126.23915
 31
0.0
  0
ARC
  5
242
330
25
100
AcDbEntity
  8
2
100
AcDbCircle
 10
-252.205322
 20
129.760398
 30
0.0
 40
10.402317
100
AcDbArc
 50
128.830069
 51
141.169931
  0
ARC
  5
243
330
25
100
AcDbEntity
  8
2
100
AcDbCircle
 10
-252.97634
 20
130.531416
 30
0.0
 40
7.674066
100
AcDbArc
 50
124.473609
 51
145.526391
  0
LINE
  5
244
330
25
100
AcDbEntity
  8
2
100
AcDbLine
 10
-262.110811
 20
135.841229
 30
0.0
 11
-257.699004
 21
139.744466
 31
0.0
  0
ARC
  5
245
330
25
100
AcDbEntity
  8
2
100
AcDbCircle
 10
-257.646686
 20
136.520821
 30
0.0
 40
1.724081
100
AcDbArc
 50
51.27054199999999
 51
128.830069
  0
LINE
  5
246
330
25
100
AcDbEntity
  8
2
100
AcDbLine
 10
-258.714929
 20
140.760391
 30
0.0
 11
-257.699004
 21
139.744466
 31
0.0
  0
ARC
  5
247
330
25
100
AcDbEntity
  8
2
100
AcDbCircle
 10
-258.965746
 20
135.201761
 30
0.0
 40
1.724081
100
AcDbArc
 50
141.169931
 51
218.729458
  0
LINE
  5
248
330
25
100
AcDbEntity
  8
2
100
AcDbLine
 10
-263.669947
 20
137.384827
 30
0.0
 11
-262.11858
 21
135.83346
 31
0.0
  0
ARC
  5
249
330
25
100
AcDbEntity
  8
2
100
AcDbCircle
 10
-262.893358
 20
140.448433
 30
0.0
 40
10.402317
100
AcDbArc
 50
308.830069
 51
321.169931
  0
ARC
  5
24A
330
25
100
AcDbEntity
  8
2
100
AcDbCircle
 10
-262.740938
 20
140.421446
 30
0.0
 40
8.638035
100
AcDbArc
 50
305.062783
 51
323.774302
  0
LINE
  5
24B
330
25
100
AcDbEntity
  8
2
100
AcDbLine
 10
-252.359108
 20
134.282659
 30
0.0
 11
-255.323171
 21
131.318596
 31
0.0
  0
ARC
  5
24C
330
25
100
AcDbEntity
  8
2
100
AcDbCircle
 10
-256.132934
 20
135.007069
 30
0.0
 40
1.724081
100
AcDbArc
 50
321.169931
 51
38.729458
  0
ARC
  5
24D
330
25
100
AcDbEntity
  8
2
100
AcDbCircle
 10
-258.40009
 20
134.2536649999999
 30
0.0
 40
3.169315999999999
100
AcDbArc
 50
34.668048
 51
55.331952
  0
ARC
  5
24E
330
25
100
AcDbEntity
  8
2
100
AcDbCircle
 10
-256.402695
 20
135.669143
 30
0.0
 40
0.7219260000000001
100
AcDbArc
 50
330.772957
 51
32.444044
  0
ARC
  5
24F
330
25
100
AcDbEntity
  8
2
100
AcDbCircle
 10
-252.298152
 20
134.221704
 30
0.0
 40
0.086204
100
AcDbArc
 50
45.0
 51
135.0
  0
ARC
  5
250
330
25
100
AcDbEntity
  8
2
100
AcDbCircle
 10
-257.451994
 20
133.68801
 30
0.0
 40
1.724081
100
AcDbArc
 50
231.270542
 51
308.830069
  0
ARC
  5
251
330
25
100
AcDbEntity
  8
2
100
AcDbCircle
 10
-258.141776
 20
133.868455
 30
0.0
 40
0.6321630000000001
100
AcDbArc
 50
235.331952
 51
305.062783
  0
ARC
  5
252
330
25
100
AcDbEntity
  8
2
100
AcDbCircle
 10
-256.69859
 20
135.955165
 30
0.0
 40
3.169315999999999
100
AcDbArc
 50
214.668048
 51
235.331952
  0
ARC
  5
253
330
25
100
AcDbEntity
  8
2
100
AcDbCircle
 10
-255.262215
 20
131.257641
 30
0.0
 40
0.086204
100
AcDbArc
 50
135.0
 51
225.0
  0
ARC
  5
254
330
25
100
AcDbEntity
  8
2
100
AcDbCircle
 10
-263.777974
 20
128.875781
 30
0.0
 40
11.524047
100
AcDbArc
 50
38.729458
 51
51.27054199999999
  0
ARC
  5
255
330
25
100
AcDbEntity
  8
2
100
AcDbCircle
 10
-256.956905
 20
136.340376
 30
0.0
 40
0.6321630000000001
100
AcDbArc
 50
55.331952
 51
125.062783
  0
ARC
  5
256
330
25
100
AcDbEntity
  8
2
100
AcDbCircle
 10
-251.320706
 20
141.33305
 30
0.0
 40
11.524047
100
AcDbArc
 50
218.729458
 51
231.270542
  0
ARC
  5
257
330
25
100
AcDbEntity
  8
2
100
AcDbCircle
 10
-258.7853
 20
134.51198
 30
0.0
 40
0.6321630000000001
100
AcDbArc
 50
144.937217
 51
214.668048
  0
LINE
  5
258
330
25
100
AcDbEntity
  8
2
100
AcDbLine
 10
-263.669947
 20
137.384827
 30
0.0
 11
-262.051409
 21
141.006866
 31
0.0
  0
LINE
  5
259
330
25
100
AcDbEntity
  8
2
100
AcDbLine
 10
-261.014369
 20
143.059831
 30
0.0
 11
-259.998444
 21
142.043906
 31
0.0
  0
ARC
  5
25A
330
25
100
AcDbEntity
  8
2
100
AcDbCircle
 10
-258.589118
 20
130.9374629999999
 30
0.0
 40
0.14
100
AcDbArc
 50
71.565051
 51
225.0
  0
ARC
  5
25B
330
25
100
AcDbEntity
  8
2
100
AcDbCircle
 10
-268.573139
 20
144.299818
 30
0.0
 40
0.6321630000000001
100
AcDbArc
 50
235.331952
 51
305.062783
  0
ARC
  5
25C
330
25
100
AcDbEntity
  8
2
100
AcDbCircle
 10
-266.744743
 20
146.1282139999999
 30
0.0
 40
0.6321630000000001
100
AcDbArc
 50
324.937217
 51
34.668048
  0
ARC
  5
25D
330
25
100
AcDbEntity
  8
2
100
AcDbCircle
 10
-267.129953
 20
146.386529
 30
0.0
 40
3.169315999999999
100
AcDbArc
 50
214.668048
 51
235.331952
  0
ARC
  5
25E
330
25
100
AcDbEntity
  8
2
100
AcDbCircle
 10
-269.216664
 20
144.943343
 30
0.0
 40
0.6321630000000001
100
AcDbArc
 50
144.937217
 51
214.668048
  0
ARC
  5
25F
330
25
100
AcDbEntity
  8
2
100
AcDbCircle
 10
-267.415976
 20
146.682424
 30
0.0
 40
0.7219260000000001
100
AcDbArc
 50
57.55595600000001
 51
119.227043
  0
ARC
  5
260
330
25
100
AcDbEntity
  8
2
100
AcDbCircle
 10
-268.8314529999999
 20
144.685029
 30
0.0
 40
3.169315999999999
100
AcDbArc
 50
34.668048
 51
55.331952
  0
ARC
  5
261
330
25
100
AcDbEntity
  8
2
100
AcDbCircle
 10
-262.663673
 20
140.34418
 30
0.0
 40
8.638035
100
AcDbArc
 50
126.225698
 51
144.937217
  0
ARC
  5
262
330
25
100
AcDbEntity
  8
2
100
AcDbCircle
 10
-272.553703
 20
150.108778
 30
0.0
 40
7.674066
100
AcDbArc
 50
304.473609
 51
325.526391
  0
LINE
  5
263
330
25
100
AcDbEntity
  8
2
100
AcDbLine
 10
-254.088794
 20
126.23915
 30
0.0
 11
-258.688112
 21
130.838468
 31
0.0
  0
LINE
  5
264
330
25
100
AcDbEntity
  8
2
100
AcDbLine
 10
-262.040414
 20
137.764587
 30
0.0
 11
-260.025288
 21
142.07075
 31
0.0
  0
LINE
  5
265
330
25
100
AcDbEntity
  8
2
100
AcDbLine
 10
-262.040414
 20
137.764587
 30
0.0
 11
-258.741773
 21
140.787235
 31
0.0
  0
ARC
  5
266
330
25
100
AcDbEntity
  8
2
100
AcDbCircle
 10
-289.331405
 20
161.24296
 30
0.0
 40
0.5
100
AcDbArc
 50
90.0
 51
178.767738
  0
LINE
  5
267
330
25
100
AcDbEntity
  8
2
100
AcDbLine
 10
-289.331405
 20
161.74296
 30
0.0
 11
-279.165034
 21
161.74296
 31
0.0
  0
LINE
  5
268
330
25
100
AcDbEntity
  8
2
100
AcDbLine
 10
-289.331405
 20
158.74296
 30
0.0
 11
-279.165034
 21
158.74296
 31
0.0
  0
ARC
  5
269
330
25
100
AcDbEntity
  8
2
100
AcDbCircle
 10
-289.331405
 20
159.24296
 30
0.0
 40
0.5
100
AcDbArc
 50
181.232262
 51
270.0
  0
LINE
  5
26A
330
25
100
AcDbEntity
  8
2
100
AcDbLine
 10
-288.548895
 20
151.675916
 30
0.0
 11
-278.700818
 21
153.412398
 31
0.0
  0
ARC
  5
26B
330
25
100
AcDbEntity
  8
2
100
AcDbCircle
 10
-288.635719
 20
152.16832
 30
0.0
 40
0.5
100
AcDbArc
 50
100.0
 51
280.0
  0
LINE
  5
26C
330
25
100
AcDbEntity
  8
2
100
AcDbLine
 10
-288.722543
 20
152.660724
 30
0.0
 11
-278.874466
 21
154.397205
 31
0.0
  0
LINE
  5
26D
330
25
100
AcDbEntity
  8
2
100
AcDbLine
 10
-278.784619
 20
130.736358
 30
0.0
 11
-271.124175
 21
137.164234
 31
0.0
  0
ARC
  5
26E
330
25
100
AcDbEntity
  8
2
100
AcDbCircle
 10
-278.463225
 20
130.353336
 30
0.0
 40
0.5
100
AcDbArc
 50
130.0
 51
310.0
  0
LINE
  5
26F
330
25
100
AcDbEntity
  8
2
100
AcDbLine
 10
-278.141832
 20
129.970314
 30
0.0
 11
-270.481387
 21
136.39819
 31
0.0
  0
LINE
  5
270
330
25
100
AcDbEntity
  8
2
100
AcDbLine
 10
-283.36234
 20
137.425973
 30
0.0
 11
-274.702086
 21
142.425973
 31
0.0
  0
ARC
  5
271
330
25
100
AcDbEntity
  8
2
100
AcDbCircle
 10
-283.11234
 20
136.99296
 30
0.0
 40
0.5
100
AcDbArc
 50
120.0
 51
300.0
  0
LINE
  5
272
330
25
100
AcDbEntity
  8
2
100
AcDbLine
 10
-282.86234
 20
136.559947
 30
0.0
 11
-274.202086
 21
141.559947
 31
0.0
  0
LINE
  5
273
330
25
100
AcDbEntity
  8
2
100
AcDbLine
 10
-286.708876
 20
144.80887
 30
0.0
 11
-277.311949
 21
148.229071
 31
0.0
  0
ARC
  5
274
330
25
100
AcDbEntity
  8
2
100
AcDbCircle
 10
-286.537866
 20
144.339023
 30
0.0
 40
0.5
100
AcDbArc
 50
110.0
 51
290.0
  0
LINE
  5
275
330
25
100
AcDbEntity
  8
2
100
AcDbLine
 10
-286.366856
 20
143.869177
 30
0.0
 11
-276.969929
 21
147.289378
 31
0.0
  0
ARC
  5
276
330
25
100
AcDbEntity
  8
2
100
AcDbCircle
 10
-242.842159
 20
160.24296
 30
0.0
 40
47.0
100
AcDbArc
 50
178.767738
 51
181.232262
  0
LINE
  5
277
330
25
100
AcDbEntity
  8
2
100
AcDbLine
 10
-259.215942
 20
116.718263
 30
0.0
 11
-255.79574
 21
126.115189
 31
0.0
  0
LINE
  5
278
330
25
100
AcDbEntity
  8
2
100
AcDbLine
 10
-258.276249
 20
116.376243
 30
0.0
 11
-254.856048
 21
125.773169
 31
0.0
  0
LINE
  5
279
330
25
100
AcDbEntity
  8
2
100
AcDbLine
 10
-266.525171
 20
120.222779
 30
0.0
 11
-261.525171
 21
128.883033
 31
0.0
  0
ARC
  5
27A
330
25
100
AcDbEntity
  8
2
100
AcDbCircle
 10
-266.092159
 20
119.972779
 30
0.0
 40
0.5
100
AcDbArc
 50
150.0
 51
330.0
  0
LINE
  5
27B
330
25
100
AcDbEntity
  8
2
100
AcDbLine
 10
-265.659146
 20
119.722779
 30
0.0
 11
-260.659146
 21
128.383033
 31
0.0
  0
LINE
  5
27C
330
25
100
AcDbEntity
  8
2
100
AcDbLine
 10
-273.114805
 20
124.943287
 30
0.0
 11
-266.686929
 21
132.603732
 31
0.0
  0
ARC
  5
27D
330
25
100
AcDbEntity
  8
2
100
AcDbCircle
 10
-272.731783
 20
124.621893
 30
0.0
 40
0.5
100
AcDbArc
 50
140.0
 51
320.0
  0
LINE
  5
27E
330
25
100
AcDbEntity
  8
2
100
AcDbLine
 10
-272.34876
 20
124.3005
 30
0.0
 11
-265.920884
 21
131.960944
 31
0.0
  0
LINE
  5
27F
330
25
100
AcDbEntity
  8
2
100
AcDbLine
 10
-250.424395
 20
114.362575
 30
0.0
 11
-248.687913
 21
124.210653
 31
0.0
  0
LINE
  5
280
330
25
100
AcDbEntity
  8
2
100
AcDbLine
 10
-251.409203
 20
114.536224
 30
0.0
 11
-249.672721
 21
124.384301
 31
0.0
  0
LINE
  5
281
330
25
100
AcDbEntity
  8
2
100
AcDbLine
 10
-244.342159
 20
113.753714
 30
0.0
 11
-244.342159
 21
132.761148
 31
0.0
  0
LINE
  5
282
330
25
100
AcDbEntity
  8
2
100
AcDbLine
 10
-241.342159
 20
113.753714
 30
0.0
 11
-241.342159
 21
132.761148
 31
0.0
  0
LINE
  5
283
330
25
100
AcDbEntity
  8
2
100
AcDbLine
 10
-275.663506
 20
149.378386
 30
0.0
 11
-274.952359
 21
150.089533
 31
0.0
  0
LINE
  5
284
330
25
100
AcDbEntity
  8
2
100
AcDbLine
 10
-274.241212
 20
150.800681
 30
0.0
 11
-273.530065
 21
151.511828
 31
0.0
  0
LINE
  5
285
330
25
100
AcDbEntity
  8
2
100
AcDbLine
 10
-272.209362
 20
152.83253
 30
0.0
 11
-271.498215
 21
153.543677
 31
0.0
  0
ARC
  5
286
330
25
100
AcDbEntity
  8
2
100
AcDbCircle
 10
-249.180317
 20
124.297477
 30
0.0
 40
0.5
100
AcDbArc
 50
350.0
 51
170.0
  0
ARC
  5
287
330
25
100
AcDbEntity
  8
2
100
AcDbCircle
 10
-255.325894
 20
125.944179
 30
0.0
 40
0.5
100
AcDbArc
 50
340.0
 51
160.0
  0
ARC
  5
288
330
25
100
AcDbEntity
  8
2
100
AcDbCircle
 10
-261.092159
 20
128.633033
 30
0.0
 40
0.5
100
AcDbArc
 50
330.0
 51
150.0
  0
ARC
  5
289
330
25
100
AcDbEntity
  8
2
100
AcDbCircle
 10
-266.303907
 20
132.2823379999999
 30
0.0
 40
0.5
100
AcDbArc
 50
320.0
 51
140.0
  0
ARC
  5
28A
330
25
100
AcDbEntity
  8
2
100
AcDbCircle
 10
-270.802781
 20
136.781212
 30
0.0
 40
0.5
100
AcDbArc
 50
310.0
 51
130.0
  0
ARC
  5
28B
330
25
100
AcDbEntity
  8
2
100
AcDbCircle
 10
-274.452086
 20
141.99296
 30
0.0
 40
0.5
100
AcDbArc
 50
300.0
 51
120.0
  0
ARC
  5
28C
330
25
100
AcDbEntity
  8
2
100
AcDbCircle
 10
-277.140939
 20
147.759225
 30
0.0
 40
0.5
100
AcDbArc
 50
290.0
 51
110.0
  0
ARC
  5
28D
330
25
100
AcDbEntity
  8
2
100
AcDbCircle
 10
-278.787642
 20
153.904802
 30
0.0
 40
0.5
100
AcDbArc
 50
280.0
 51
100.0
  0
ARC
  5
28E
330
25
100
AcDbEntity
  8
2
100
AcDbCircle
 10
-242.842159
 20
160.24296
 30
0.0
 40
47.0
100
AcDbArc
 50
189.999966
 51
190.000034
  0
ARC
  5
28F
330
25
100
AcDbEntity
  8
2
100
AcDbCircle
 10
-243.842159
 20
113.753714
 30
0.0
 40
0.5
100
AcDbArc
 50
180.0
 51
268.767738
  0
ARC
  5
290
330
25
100
AcDbEntity
  8
2
100
AcDbCircle
 10
-241.842159
 20
113.753714
 30
0.0
 40
0.5
100
AcDbArc
 50
271.232262
 51
360.0
  0
ARC
  5
291
330
25
100
AcDbEntity
  8
2
100
AcDbCircle
 10
-242.842159
 20
160.24296
 30
0.0
 40
47.0
100
AcDbArc
 50
199.999929
 51
200.000071
  0
ARC
  5
292
330
25
100
AcDbEntity
  8
2
100
AcDbCircle
 10
-242.842159
 20
160.24296
 30
0.0
 40
47.0
100
AcDbArc
 50
268.767738
 51
271.232262
  0
ARC
  5
293
330
25
100
AcDbEntity
  8
2
100
AcDbCircle
 10
-242.842159
 20
160.24296
 30
0.0
 40
27.0
100
AcDbArc
 50
267.916058
 51
272.083942
  0
ARC
  5
294
330
25
100
AcDbEntity
  8
2
100
AcDbCircle
 10
-241.842159
 20
132.761148
 30
0.0
 40
0.5
100
AcDbArc
 50
0.0
 51
92.083942
  0
ARC
  5
295
330
25
100
AcDbEntity
  8
2
100
AcDbCircle
 10
-243.842159
 20
132.761148
 30
0.0
 40
0.5
100
AcDbArc
 50
87.91605799999999
 51
180.0
  0
ARC
  5
296
330
25
100
AcDbEntity
  8
2
100
AcDbCircle
 10
-258.746095
 20
116.547253
 30
0.0
 40
0.5
100
AcDbArc
 50
160.0
 51
340.0
  0
ARC
  5
297
330
25
100
AcDbEntity
  8
2
100
AcDbCircle
 10
-250.916799
 20
114.449399
 30
0.0
 40
0.5
100
AcDbArc
 50
170.0
 51
350.0
  0
LINE
  5
298
330
25
100
AcDbEntity
  8
2
100
AcDbLine
 10
-220.766748
 20
145.818897
 30
0.0
 11
-219.218332
 21
145.293332
 31
0.0
  0
LINE
  5
299
330
25
100
AcDbEntity
  8
2
100
AcDbLine
 10
-219.218332
 20
145.293332
 30
0.0
 11
-219.708987
 21
145.846742
 31
0.0
  0
ARC
  5
29A
330
25
100
AcDbEntity
  8
2
  6
CENTER
 62
     2
100
AcDbCircle
 10
-242.842159
 20
160.24296
 30
0.0
 40
35.0
100
AcDbArc
 50
298.585378
 51
330.968199
  0
LINE
  5
29B
330
25
100
AcDbEntity
  8
2
  6
CENTER
 62
     2
100
AcDbLine
 10
-210.81747
 20
128.218271
 30
0.0
 11
-225.493318
 21
142.89412
 31
0.0
  0
ARC
  5
29C
330
25
100
AcDbEntity
  8
2
  6
CENTER
 62
     2
100
AcDbCircle
 10
-242.842159
 20
160.24296
 30
0.0
 40
35.0
100
AcDbArc
 50
118.005522
 51
150.923658
  0
LINE
  5
29D
330
25
100
AcDbEntity
  8
2
  6
CENTER
 62
     2
100
AcDbLine
 10
-259.264542
 20
176.665343
 30
0.0
 11
-275.984142
 21
193.384944
 31
0.0
  0
TEXT
  5
29E
330
25
100
AcDbEntity
  8
2
100
AcDbText
 10
-224.293181
 20
128.898579
 30
0.0
 40
10.0
  1
Ｏ
 50
202.4999976762607
 41
0.9230768750869083
 72
     5
 11
-231.684217
 21
125.837112
 31
0.0
100
AcDbText
  0
TEXT
  5
29F
330
25
100
AcDbEntity
  8
2
100
AcDbText
 10
-277.802309
 20
169.988462
 30
0.0
 40
10.0
  1
Ｓ
 50
67.49999570693962
 41
0.999999995846251
 72
     5
 11
-274.740841
 21
177.379498
 31
0.0
100
AcDbText
  0
TEXT
  5
2A0
330
25
100
AcDbEntity
  8
2
100
AcDbText
 10
-263.892453
 20
173.792744
 30
0.0
 40
3.0
  1
Ｊ
 50
54.99999047351323
 41
1.200000196904253
 72
     5
 11
-262.515869
 21
175.758709
 31
0.0
100
AcDbText
  0
TEXT
  5
2A1
330
25
100
AcDbEntity
  8
2
100
AcDbText
 10
-262.631409
 20
175.575837
 30
0.0
 40
3.0
  1
Ａ
 50
50.00000997822089
 41
0.9230769571433448
 72
     5
 11
-261.088719
 21
177.414344
 31
0.0
100
AcDbText
  0
TEXT
  5
2A2
330
25
100
AcDbEntity
  8
2
100
AcDbText
 10
-259.668239
 20
178.779264
 30
0.0
 40
3.0
  1
Ａ
 50
39.99999002177876
 41
0.9230769571433686
 72
     5
 11
-257.829732
 21
180.321954
 31
0.0
100
AcDbText
  0
TEXT
  5
2A3
330
25
100
AcDbEntity
  8
2
100
AcDbText
 10
-257.988666
 20
180.175217
 30
0.0
 40
3.0
  1
Ｎ
 50
34.99998997067269
 41
0.9230768539354228
 72
     5
 11
-256.022701
 21
181.5518
 31
0.0
100
AcDbText
  0
TEXT
  5
2A4
330
25
100
AcDbEntity
  8
2
100
AcDbText
 10
-261.219756
 20
177.242238
 30
0.0
 40
3.0
  1
Ｐ
 50
44.99999999999952
 41
0.9999998380444418
 72
     5
 11
-259.5227
 21
178.939294
 31
0.0
100
AcDbText
  0
TEXT
  5
2A5
330
25
100
AcDbEntity
  8
2
100
AcDbText
 10
-230.318612
 20
138.566422
 30
0.0
 40
3.0
  1
Ｄ
 50
207.7858663593593
 41
0.9999998162600455
 72
     5
 11
-232.441882
 21
137.447618
 31
0.0
100
AcDbText
  0
TEXT
  5
2A6
330
25
100
AcDbEntity
  8
2
100
AcDbText
 10
-228.477033
 20
139.740406
 30
0.0
 40
3.0
  1
Ｅ
 50
212.7858592989682
 41
1.090909278045914
 72
     5
 11
-230.494714
 21
138.440804
 31
0.0
100
AcDbText
  0
TEXT
  5
2A7
330
25
100
AcDbEntity
  8
2
100
AcDbText
 10
-226.744782
 20
141.070428
 30
0.0
 40
3.0
  1
Ｔ
 50
217.7858621875415
 41
0.9230769534700316
 72
     5
 11
-228.641517
 21
139.599919
 31
0.0
100
AcDbText
  0
TEXT
  5
2A8
330
25
100
AcDbEntity
  8
2
100
AcDbText
 10
-225.135041
 20
142.546364
 30
0.0
 40
3.0
  1
Ｎ
 50
222.7858521323252
 41
0.9230767791259532
 72
     5
 11
-226.896395
 21
140.91614
 31
0.0
100
AcDbText
  0
TEXT
  5
2A9
330
25
100
AcDbEntity
  8
2
100
AcDbText
 10
-223.660062
 20
144.156982
 30
0.0
 40
3.0
  1
Ｅ
 50
227.7858605481269
 41
1.090909007643269
 72
     5
 11
-225.27263
 21
142.379449
 31
0.0
100
AcDbText
  0
TEXT
  5
2AA
330
25
100
AcDbEntity
  8
2
100
AcDbText
 10
-222.33107
 20
145.890024
 30
0.0
 40
3.0
  1
Ｔ
 50
232.7858577647393
 41
0.92307712233138
 72
     5
 11
-223.7825799999999
 21
143.97871
 31
0.0
100
AcDbText
  0
LINE
  5
2AB
330
25
100
AcDbEntity
  8
2
100
AcDbLine
 10
-242.842159
 20
134.24296
 30
0.0
 11
-245.301159
 21
134.24296
 31
0.0
  0
LINE
  5
2AC
330
25
100
AcDbEntity
  8
2
100
AcDbLine
 10
-245.301159
 20
134.24296
 30
0.0
 11
-245.842159
 21
134.78396
 31
0.0
  0
LINE
  5
2AD
330
25
100
AcDbEntity
  8
2
100
AcDbLine
 10
-245.842159
 20
134.78396
 30
0.0
 11
-245.842159
 21
138.261889
 31
0.0
  0
LINE
  5
2AE
330
25
100
AcDbEntity
  8
2
100
AcDbLine
 10
-245.842159
 20
134.78396
 30
0.0
 11
-242.842159
 21
134.78396
 31
0.0
  0
LINE
  5
2AF
330
25
100
AcDbEntity
  8
2
100
AcDbLine
 10
-242.842159
 20
134.24296
 30
0.0
 11
-240.383159
 21
134.24296
 31
0.0
  0
LINE
  5
2B0
330
25
100
AcDbEntity
  8
2
100
AcDbLine
 10
-240.383159
 20
134.24296
 30
0.0
 11
-239.842159
 21
134.78396
 31
0.0
  0
LINE
  5
2B1
330
25
100
AcDbEntity
  8
2
100
AcDbLine
 10
-239.842159
 20
134.78396
 30
0.0
 11
-239.842159
 21
138.261889
 31
0.0
  0
LINE
  5
2B2
330
25
100
AcDbEntity
  8
2
100
AcDbLine
 10
-239.842159
 20
134.78396
 30
0.0
 11
-242.842159
 21
134.78396
 31
0.0
  0
POINT
  5
2B3
330
25
100
AcDbEntity
  8
2
100
AcDbPoint
 10
-242.842159
 20
143.24296
 30
0.0
  0
LINE
  5
2B4
330
25
100
AcDbEntity
  8
2
100
AcDbLine
 10
-242.842159
 20
143.24296
 30
0.0
 11
-237.092159
 21
143.24296
 31
0.0
  0
LINE
  5
2B5
330
25
100
AcDbEntity
  8
2
100
AcDbLine
 10
-237.092159
 20
143.24296
 30
0.0
 11
-237.092159
 21
138.733708
 31
0.0
  0
LINE
  5
2B6
330
25
100
AcDbEntity
  8
2
100
AcDbLine
 10
-237.092159
 20
138.733708
 30
0.0
 11
-237.942159
 21
138.24296
 31
0.0
  0
LINE
  5
2B7
330
25
100
AcDbEntity
  8
2
100
AcDbLine
 10
-237.942159
 20
138.24296
 30
0.0
 11
-242.842159
 21
138.24296
 31
0.0
  0
LINE
  5
2B8
330
25
100
AcDbEntity
  8
2
100
AcDbLine
 10
-239.967159
 20
143.24296
 30
0.0
 11
-239.967159
 21
138.733708
 31
0.0
  0
ARC
  5
2B9
330
25
100
AcDbEntity
  8
2
100
AcDbCircle
 10
-238.529659
 20
140.581663
 30
0.0
 40
2.341226999999999
100
AcDbArc
 50
232.121121
 51
307.878879
  0
ARC
  5
2BA
330
25
100
AcDbEntity
  8
2
100
AcDbCircle
 10
-242.842159
 20
146.865436
 30
0.0
 40
8.625
100
AcDbArc
 50
270.0
 51
289.471221
  0
LINE
  5
2BB
330
25
100
AcDbEntity
  8
2
100
AcDbLine
 10
-242.842159
 20
143.24296
 30
0.0
 11
-248.592159
 21
143.24296
 31
0.0
  0
LINE
  5
2BC
330
25
100
AcDbEntity
  8
2
100
AcDbLine
 10
-248.592159
 20
143.24296
 30
0.0
 11
-248.592159
 21
138.733708
 31
0.0
  0
LINE
  5
2BD
330
25
100
AcDbEntity
  8
2
100
AcDbLine
 10
-248.592159
 20
138.733708
 30
0.0
 11
-247.742159
 21
138.24296
 31
0.0
  0
LINE
  5
2BE
330
25
100
AcDbEntity
  8
2
100
AcDbLine
 10
-247.742159
 20
138.24296
 30
0.0
 11
-242.842159
 21
138.24296
 31
0.0
  0
LINE
  5
2BF
330
25
100
AcDbEntity
  8
2
100
AcDbLine
 10
-245.717159
 20
143.24296
 30
0.0
 11
-245.717159
 21
138.733708
 31
0.0
  0
ARC
  5
2C0
330
25
100
AcDbEntity
  8
2
100
AcDbCircle
 10
-247.154659
 20
140.581663
 30
0.0
 40
2.341226999999999
100
AcDbArc
 50
232.121121
 51
307.878879
  0
ARC
  5
2C1
330
25
100
AcDbEntity
  8
2
100
AcDbCircle
 10
-242.842159
 20
146.865436
 30
0.0
 40
8.625
100
AcDbArc
 50
250.528779
 51
270.0
  0
LINE
  5
2C2
330
25
100
AcDbEntity
  8
2
 62
     2
100
AcDbLine
 10
-245.301159
 20
134.24296
 30
0.0
 11
-245.301159
 21
138.24296
 31
0.0
  0
LINE
  5
2C3
330
25
100
AcDbEntity
  8
2
 62
     2
100
AcDbLine
 10
-240.383159
 20
134.24296
 30
0.0
 11
-240.383159
 21
138.24296
 31
0.0
  0
CIRCLE
  5
2C4
330
25
100
AcDbEntity
  8
2
100
AcDbCircle
 10
-218.093421
 20
135.494223
 30
0.0
 40
6.5
  0
LINE
  5
2C5
330
25
100
AcDbEntity
  8
2
100
AcDbLine
 10
-214.340645
 20
141.994223
 30
0.0
 11
-221.846198
 21
141.994223
 31
0.0
  0
LINE
  5
2C6
330
25
100
AcDbEntity
  8
2
100
AcDbLine
 10
-221.846198
 20
141.994223
 30
0.0
 11
-225.598975
 21
135.494223
 31
0.0
  0
LINE
  5
2C7
330
25
100
AcDbEntity
  8
2
100
AcDbLine
 10
-225.598975
 20
135.494223
 30
0.0
 11
-221.846198
 21
128.994223
 31
0.0
  0
LINE
  5
2C8
330
25
100
AcDbEntity
  8
2
100
AcDbLine
 10
-221.846198
 20
128.994223
 30
0.0
 11
-214.340645
 21
128.994223
 31
0.0
  0
LINE
  5
2C9
330
25
100
AcDbEntity
  8
2
100
AcDbLine
 10
-214.340645
 20
128.994223
 30
0.0
 11
-210.587868
 21
135.494223
 31
0.0
  0
LINE
  5
2CA
330
25
100
AcDbEntity
  8
2
100
AcDbLine
 10
-210.587868
 20
135.494223
 30
0.0
 11
-214.340645
 21
141.994223
 31
0.0
  0
LINE
  5
2CB
330
25
100
AcDbEntity
  8
2
100
AcDbLine
 10
-275.09645
 20
184.991697
 30
0.0
 11
-271.343673
 21
178.491697
 31
0.0
  0
LINE
  5
2CC
330
25
100
AcDbEntity
  8
2
100
AcDbLine
 10
-271.343673
 20
191.491697
 30
0.0
 11
-275.09645
 21
184.991697
 31
0.0
  0
LINE
  5
2CD
330
25
100
AcDbEntity
  8
2
100
AcDbLine
 10
-263.838119
 20
191.491697
 30
0.0
 11
-271.343673
 21
191.491697
 31
0.0
  0
LINE
  5
2CE
330
25
100
AcDbEntity
  8
2
100
AcDbLine
 10
-260.085343
 20
184.991697
 30
0.0
 11
-263.838119
 21
191.491697
 31
0.0
  0
LINE
  5
2CF
330
25
100
AcDbEntity
  8
2
100
AcDbLine
 10
-263.838119
 20
178.491697
 30
0.0
 11
-260.085343
 21
184.991697
 31
0.0
  0
LINE
  5
2D0
330
25
100
AcDbEntity
  8
2
100
AcDbLine
 10
-271.343673
 20
178.491697
 30
0.0
 11
-263.838119
 21
178.491697
 31
0.0
  0
CIRCLE
  5
2D1
330
25
100
AcDbEntity
  8
2
100
AcDbCircle
 10
-267.590896
 20
184.991697
 30
0.0
 40
6.5
  0
ARC
  5
2D2
330
25
100
AcDbEntity
  8
2
100
AcDbCircle
 10
-262.842159
 20
-2.032939999999999
 30
0.0
 40
5.0
100
AcDbArc
 50
290.0
 51
360.0
  0
LINE
  5
2D3
330
25
100
AcDbEntity
  8
2
100
AcDbLine
 10
-277.868219
 20
-12.822868
 30
0.0
 11
-261.1320580000001
 21
-6.731403
 31
0.0
  0
LINE
  5
2D4
330
25
100
AcDbEntity
  8
2
100
AcDbLine
 10
-231.842159
 20
-17.541323
 30
0.0
 11
-279.842159
 21
-17.541323
 31
0.0
  0
LINE
  5
2D5
330
25
100
AcDbEntity
  8
2
100
AcDbLine
 10
-253.842159
 20
-18.541323
 30
0.0
 11
-253.842159
 21
-17.541323
 31
0.0
  0
LINE
  5
2D6
330
25
100
AcDbEntity
  8
2
100
AcDbLine
 10
-279.842159
 20
-15.641946
 30
0.0
 11
-279.842159
 21
-17.541323
 31
0.0
  0
LINE
  5
2D7
330
25
100
AcDbEntity
  8
2
100
AcDbLine
 10
-227.842159
 20
2.458677
 30
0.0
 11
-228.842159
 21
3.458676999999999
 31
0.0
  0
LINE
  5
2D8
330
25
100
AcDbEntity
  8
2
100
AcDbLine
 10
-256.842159
 20
3.458676999999999
 30
0.0
 11
-257.842159
 21
2.458677
 31
0.0
  0
LINE
  5
2D9
330
25
100
AcDbEntity
  8
2
100
AcDbLine
 10
-257.842159
 20
-2.032939999999999
 30
0.0
 11
-257.842159
 21
2.458677
 31
0.0
  0
LINE
  5
2DA
330
25
100
AcDbEntity
  8
2
100
AcDbLine
 10
-227.842159
 20
2.351716999999999
 30
0.0
 11
-227.842159
 21
2.458677
 31
0.0
  0
LINE
  5
2DB
330
25
100
AcDbEntity
  8
2
100
AcDbLine
 10
-231.842159
 20
-18.541323
 30
0.0
 11
-253.842159
 21
-18.541323
 31
0.0
  0
LINE
  5
2DC
330
25
100
AcDbEntity
  8
2
100
AcDbLine
 10
-231.842159
 20
-18.541323
 30
0.0
 11
-231.842159
 21
-17.541323
 31
0.0
  0
LINE
  5
2DD
330
25
100
AcDbEntity
  8
2
100
AcDbLine
 10
-249.61139
 20
2.458677
 30
0.0
 11
-249.61139
 21
-17.541323
 31
0.0
  0
LINE
  5
2DE
330
25
100
AcDbEntity
  8
2
100
AcDbLine
 10
-236.072928
 20
2.458677
 30
0.0
 11
-236.072928
 21
-17.541323
 31
0.0
  0
ARC
  5
2DF
330
25
100
AcDbEntity
  8
2
100
AcDbCircle
 10
-276.842159
 20
-15.641946
 30
0.0
 40
3.0
100
AcDbArc
 50
110.0
 51
180.0
  0
ARC
  5
2E0
330
25
100
AcDbEntity
  8
2
100
AcDbCircle
 10
-248.61139
 20
2.458677
 30
0.0
 40
1.0
100
AcDbArc
 50
90.0
 51
180.0
  0
ARC
  5
2E1
330
25
100
AcDbEntity
  8
2
100
AcDbCircle
 10
-237.072928
 20
2.458677
 30
0.0
 40
1.0
100
AcDbArc
 50
0.0
 51
90.0
  0
LINE
  5
2E2
330
25
100
AcDbEntity
  8
2
100
AcDbLine
 10
-228.842159
 20
3.458676999999999
 30
0.0
 11
-256.842159
 21
3.458676999999999
 31
0.0
  0
ARC
  5
2E3
330
25
100
AcDbEntity
  8
2
100
AcDbCircle
 10
-266.180522
 20
13.140879
 30
0.0
 40
22.811628
100
AcDbArc
 50
283.335578
 51
313.128065
  0
LINE
  5
2E4
330
25
100
AcDbEntity
  8
2
100
AcDbLine
 10
-227.245397
 20
-1.226129
 30
0.0
 11
-49.63188399999999
 21
36.526789
 31
0.0
  0
CIRCLE
  5
2E5
330
25
100
AcDbEntity
  8
2
100
AcDbCircle
 10
-152.842159
 20
1.458676999999999
 30
0.0
 40
2.0
  0
ARC
  5
2E6
330
25
100
AcDbEntity
  8
2
100
AcDbCircle
 10
-152.842159
 20
1.458676999999999
 30
0.0
 40
5.0
100
AcDbArc
 50
0.0
 51
180.0
  0
LINE
  5
2E7
330
25
100
AcDbEntity
  8
2
100
AcDbLine
 10
-147.842159
 20
1.458676999999999
 30
0.0
 11
-147.842159
 21
-7.541322999999999
 31
0.0
  0
LINE
  5
2E8
330
25
100
AcDbEntity
  8
2
100
AcDbLine
 10
-157.842159
 20
1.458676999999999
 30
0.0
 11
-157.842159
 21
-7.541322999999999
 31
0.0
  0
ARC
  5
2E9
330
25
100
AcDbEntity
  8
2
100
AcDbCircle
 10
-48.592325
 20
31.636051
 30
0.0
 40
5.0
100
AcDbArc
 50
12.0
 51
102.0
  0
LINE
  5
2EA
330
25
100
AcDbEntity
  8
2
100
AcDbLine
 10
-43.002552
 20
29.386904
 30
0.0
 11
-43.701587
 21
32.675609
 31
0.0
  0
ARC
  5
2EB
330
25
100
AcDbEntity
  8
2
100
AcDbCircle
 10
-43.980699
 20
29.178993
 30
0.0
 40
1.0
100
AcDbArc
 50
285.0
 51
12.0
  0
LINE
  5
2EC
330
25
100
AcDbEntity
  8
2
100
AcDbLine
 10
-43.72188
 20
28.213067
 30
0.0
 11
-121.294557
 21
7.427531
 31
0.0
  0
LINE
  5
2ED
330
25
100
AcDbEntity
  8
2
100
AcDbLine
 10
-231.842159
 20
-17.541323
 30
0.0
 11
-190.528562
 21
-8.759847
 31
0.0
  0
ARC
  5
2EE
330
25
100
AcDbEntity
  8
2
100
AcDbCircle
 10
-224.842159
 20
2.351716999999999
 30
0.0
 40
3.0
100
AcDbArc
 50
180.0
 51
282.0
  0
LINE
  5
2EF
330
25
100
AcDbEntity
  8
2
100
AcDbLine
 10
-141.913227
 20
-5.612391
 30
0.0
 11
-139.226067
 21
-2.925231
 31
0.0
  0
ARC
  5
2F0
330
25
100
AcDbEntity
  8
2
100
AcDbCircle
 10
-110.941796
 20
-31.209502
 30
0.0
 40
40.0
100
AcDbArc
 50
105.0
 51
135.0
  0
ARC
  5
2F1
330
25
100
AcDbEntity
  8
2
100
AcDbCircle
 10
-156.842159
 20
-7.541322999999999
 30
0.0
 40
1.0
100
AcDbArc
 50
180.0
 51
270.0
  0
ARC
  5
2F2
330
25
100
AcDbEntity
  8
2
100
AcDbCircle
 10
-148.842159
 20
-7.541322999999999
 30
0.0
 40
1.0
100
AcDbArc
 50
270.0
 51
360.0
  0
LINE
  5
2F3
330
25
100
AcDbEntity
  8
2
100
AcDbLine
 10
-188.449445
 20
-8.541323
 30
0.0
 11
-148.984294
 21
-8.541323
 31
0.0
  0
ARC
  5
2F4
330
25
100
AcDbEntity
  8
2
100
AcDbCircle
 10
-148.984294
 20
1.458676999999999
 30
0.0
 40
10.0
100
AcDbArc
 50
270.0
 51
315.0
  0
ARC
  5
2F5
330
25
100
AcDbEntity
  8
2
100
AcDbCircle
 10
-188.449445
 20
-18.541323
 30
0.0
 40
10.0
100
AcDbArc
 50
90.0
 51
102.0
  0
LINE
  5
2F6
330
25
100
AcDbEntity
  8
2
100
AcDbLine
 10
-106.284531
 20
6.765830999999999
 30
0.0
 11
-100.449276
 21
5.994012
 31
0.0
  0
LINE
  5
2F7
330
25
100
AcDbEntity
  8
2
100
AcDbLine
 10
-106.404807
 20
11.417227
 30
0.0
 11
-100.903077
 21
10.966311
 31
0.0
  0
LINE
  5
2F8
330
25
100
AcDbEntity
  8
2
100
AcDbLine
 10
-97.00841500000001
 20
12.546301
 30
0.0
 11
-106.529329
 21
8.683847
 31
0.0
  0
LINE
  5
2F9
330
25
100
AcDbEntity
  8
2
100
AcDbLine
 10
-96.25656600000001
 20
10.693001
 30
0.0
 11
-105.77748
 21
6.830546
 31
0.0
  0
LINE
  5
2FA
330
25
100
AcDbEntity
  8
2
100
AcDbLine
 10
-96.32740900000001
 20
7.364700999999999
 30
0.0
 11
-106.282764
 21
4.05414
 31
0.0
  0
LINE
  5
2FB
330
25
100
AcDbEntity
  8
2
100
AcDbLine
 10
-95.696308
 20
5.466883999999999
 30
0.0
 11
-105.651662
 21
2.156322999999999
 31
0.0
  0
LINE
  5
2FC
330
25
100
AcDbEntity
  8
2
100
AcDbLine
 10
-96.25689600000001
 20
1.72038
 30
0.0
 11
-106.476714
 21
-2.225782
 31
0.0
  0
LINE
  5
2FD
330
25
100
AcDbEntity
  8
2
100
AcDbLine
 10
-95.53647899999999
 20
-0.145364
 30
0.0
 11
-105.964076
 21
-4.171755
 31
0.0
  0
LINE
  5
2FE
330
25
100
AcDbEntity
  8
2
100
AcDbLine
 10
-106.189146
 20
2.130168999999999
 30
0.0
 11
-104.034584
 21
1.639770999999999
 31
0.0
  0
ARC
  5
2FF
330
25
100
AcDbEntity
  8
2
100
AcDbCircle
 10
-105.967213
 20
3.105231
 30
0.0
 40
1.0
100
AcDbArc
 50
108.394069
 51
288.394069
  0
ARC
  5
300
330
25
100
AcDbEntity
  8
2
100
AcDbCircle
 10
-106.153404
 20
7.757196999999999
 30
0.0
 40
1.0
100
AcDbArc
 50
112.081463
 51
292.081463
  0
ARC
  5
301
330
25
100
AcDbEntity
  8
2
100
AcDbCircle
 10
-96.01185799999999
 20
6.415791999999999
 30
0.0
 40
1.0
100
AcDbArc
 50
288.394069
 51
108.394069
  0
CIRCLE
  5
302
330
25
100
AcDbEntity
  8
2
100
AcDbCircle
 10
-96.129642
 20
-3.494280999999999
 30
0.0
 40
1.0
  0
LINE
  5
303
330
25
100
AcDbEntity
  8
2
100
AcDbLine
 10
-97.04591800000001
 20
-2.463487999999999
 30
0.0
 11
-96.129642
 21
-2.494280999999999
 31
0.0
  0
LINE
  5
304
330
25
100
AcDbEntity
  8
2
100
AcDbLine
 10
-102.27071
 20
3.280626999999999
 30
0.0
 11
-95.672402
 21
1.762032
 31
0.0
  0
LINE
  5
305
330
25
100
AcDbEntity
  8
2
100
AcDbLine
 10
-99.316612
 20
0.565915
 30
0.0
 11
-99.27265400000001
 21
0.55591
 31
0.0
  0
ARC
  5
306
330
25
100
AcDbEntity
  8
2
100
AcDbCircle
 10
-95.896688
 20
0.787508
 30
0.0
 40
1.0
100
AcDbArc
 50
291.112991
 51
111.112991
  0
LINE
  5
307
330
25
100
AcDbEntity
  8
2
100
AcDbLine
 10
-100.669857
 20
12.953903
 30
0.0
 11
-96.55080600000001
 21
12.616309
 31
0.0
  0
LINE
  5
308
330
25
100
AcDbEntity
  8
2
100
AcDbLine
 10
-102.272248
 20
8.252553
 30
0.0
 11
-95.880732
 21
7.407157999999999
 31
0.0
  0
ARC
  5
309
330
25
100
AcDbEntity
  8
2
100
AcDbCircle
 10
-96.63249100000001
 20
11.619651
 30
0.0
 40
1.0
100
AcDbArc
 50
292.081463
 51
112.081463
  0
ARC
  5
30A
330
25
100
AcDbEntity
  8
2
100
AcDbCircle
 10
-106.116506
 20
-3.158654
 30
0.0
 40
1.0
100
AcDbArc
 50
111.105845
 51
266.001991
  0
LINE
  5
30B
330
25
100
AcDbEntity
  8
2
100
AcDbLine
 10
-96.93269100000001
 20
-4.466966999999999
 30
0.0
 11
-96.129642
 21
-4.494280999999999
 31
0.0
  0
CIRCLE
  5
30C
330
25
100
AcDbEntity
  8
2
100
AcDbCircle
 10
-242.842159
 20
-12.041323
 30
0.0
 40
5.0
  0
CIRCLE
  5
30D
330
25
100
AcDbEntity
  8
2
100
AcDbCircle
 10
-242.842159
 20
-12.041323
 30
0.0
 40
3.0
  0
CIRCLE
  5
30E
330
25
100
AcDbEntity
  8
2
100
AcDbCircle
 10
-242.842159
 20
-12.041323
 30
0.0
 40
2.5
  0
LINE
  5
30F
330
25
100
AcDbEntity
  8
2
100
AcDbLine
 10
-248.615661
 20
-12.041323
 30
0.0
 11
-245.72891
 21
-17.041323
 31
0.0
  0
LINE
  5
310
330
25
100
AcDbEntity
  8
2
100
AcDbLine
 10
-245.72891
 20
-17.041323
 30
0.0
 11
-239.955407
 21
-17.041323
 31
0.0
  0
LINE
  5
311
330
25
100
AcDbEntity
  8
2
100
AcDbLine
 10
-239.955407
 20
-17.041323
 30
0.0
 11
-237.068656
 21
-12.041323
 31
0.0
  0
LINE
  5
312
330
25
100
AcDbEntity
  8
2
100
AcDbLine
 10
-237.068656
 20
-12.041323
 30
0.0
 11
-239.955407
 21
-7.041322999999999
 31
0.0
  0
LINE
  5
313
330
25
100
AcDbEntity
  8
2
100
AcDbLine
 10
-239.955407
 20
-7.041322999999999
 30
0.0
 11
-245.72891
 21
-7.041322999999999
 31
0.0
  0
LINE
  5
314
330
25
100
AcDbEntity
  8
2
100
AcDbLine
 10
-245.72891
 20
-7.041322999999999
 30
0.0
 11
-248.615661
 21
-12.041323
 31
0.0
  0
ARC
  5
315
330
25
100
AcDbEntity
  8
2
  6
CENTER
 62
     2
100
AcDbCircle
 10
-152.842159
 20
1.458676999999999
 30
0.0
 40
52.075925
100
AcDbArc
 50
348.756732
 51
23.167626
  0
LINE
  5
316
330
25
100
AcDbEntity
  8
2
  6
CENTER
 62
     2
100
AcDbLine
 10
-142.919538
 20
1.458676999999999
 30
0.0
 11
-163.126812
 21
1.458676999999999
 31
0.0
  0
LINE
  5
317
330
25
100
AcDbEntity
  8
2
  6
CENTER
 62
     2
100
AcDbLine
 10
-152.842159
 20
11.850167
 30
0.0
 11
-152.842159
 21
-9.533717999999998
 31
0.0
  0
LINE
  5
318
330
25
100
AcDbEntity
  8
2
100
AcDbLine
 10
-234.072928
 20
-7.348441999999999
 30
0.0
 11
-234.072928
 21
-17.541323
 31
0.0
  0
ARC
  5
319
330
25
100
AcDbEntity
  8
2
100
AcDbCircle
 10
-229.072928
 20
-7.348441999999999
 30
0.0
 40
5.0
100
AcDbArc
 50
124.714037
 51
180.0
  0
ARC
  5
31A
330
25
100
AcDbEntity
  8
2
100
AcDbCircle
 10
-224.542545
 20
-13.942048
 30
0.0
 40
13.0
100
AcDbArc
 50
102.0
 51
124.492462
  0
LINE
  5
31B
330
25
100
AcDbEntity
  8
2
100
AcDbLine
 10
-260.918929
 20
-9.055652
 30
0.0
 11
-277.21674
 21
-12.918979
 31
0.0
  0
LINE
  5
31C
330
25
100
AcDbEntity
  8
2
  6
CENTER
 62
     2
100
AcDbLine
 10
-251.585249
 20
-12.041323
 30
0.0
 11
-233.793496
 21
-12.041323
 31
0.0
  0
CIRCLE
  5
31D
330
25
100
AcDbEntity
  8
2
100
AcDbCircle
 10
-152.842159
 20
1.458676999999999
 30
0.0
 40
1.5
  0
ARC
  5
31E
330
25
100
AcDbEntity
  8
2
100
AcDbCircle
 10
-50.844164
 20
-11.766763
 30
0.0
 40
8.0
100
AcDbArc
 50
359.985133
 51
88.0
  0
LINE
  5
31F
330
25
100
AcDbEntity
  8
2
100
AcDbLine
 10
-135.793582
 20
-8.655433
 30
0.0
 11
-112.024937
 21
-12.846487
 31
0.0
  0
LINE
  5
320
330
25
100
AcDbEntity
  8
2
100
AcDbLine
 10
-109.109198
 20
-2.949384999999999
 30
0.0
 11
-109.056423
 21
-2.194660999999999
 31
0.0
  0
LINE
  5
321
330
25
100
AcDbEntity
  8
2
100
AcDbLine
 10
-93.14817299999999
 20
-4.065487999999999
 30
0.0
 11
-93.093701
 21
-3.2865
 31
0.0
  0
LINE
  5
322
330
25
100
AcDbEntity
  8
2
100
AcDbLine
 10
-103.759354
 20
1.879024
 30
0.0
 11
-97.77396899999999
 21
1.460485
 31
0.0
  0
LINE
  5
323
330
25
100
AcDbEntity
  8
2
100
AcDbLine
 10
-105.009208
 20
-1.659136
 30
0.0
 11
-104.826674
 21
0.9512169999999999
 31
0.0
  0
LINE
  5
324
330
25
100
AcDbEntity
  8
2
100
AcDbLine
 10
-97.13843
 20
-3.786462
 30
0.0
 11
-96.92120799999999
 21
-0.6800470000000001
 31
0.0
  0
LINE
  5
325
330
25
100
AcDbEntity
  8
2
100
AcDbLine
 10
-104.826674
 20
0.9512169999999999
 30
0.0
 11
-103.759354
 21
1.879024
 31
0.0
  0
LINE
  5
326
330
25
100
AcDbEntity
  8
2
100
AcDbLine
 10
-97.77396899999999
 20
1.460485
 30
0.0
 11
-97.56187
 21
1.216493
 31
0.0
  0
LINE
  5
327
330
25
100
AcDbEntity
  8
2
100
AcDbLine
 10
-42.844164
 20
-11.768839
 30
0.0
 11
-42.84473499999999
 21
-13.9708
 31
0.0
  0
LINE
  5
328
330
25
100
AcDbEntity
  8
2
100
AcDbLine
 10
-50.564968
 20
-3.771637
 30
0.0
 11
-92.02455400000001
 21
-2.323836
 31
0.0
  0
ARC
  5
329
330
25
100
AcDbEntity
  8
2
100
AcDbCircle
 10
-187.615907
 20
-33.541323
 30
0.0
 40
1.0
100
AcDbArc
 50
180.0
 51
270.0
  0
LINE
  5
32A
330
25
100
AcDbEntity
  8
2
100
AcDbLine
 10
-187.615907
 20
-34.541323
 30
0.0
 11
-181.842159
 21
-34.541323
 31
0.0
  0
LINE
  5
32B
330
25
100
AcDbEntity
  8
2
100
AcDbLine
 10
-178.306625
 20
-33.076857
 30
0.0
 11
-174.771091
 21
-29.541323
 31
0.0
  0
LINE
  5
32C
330
25
100
AcDbEntity
  8
2
100
AcDbLine
 10
-188.615907
 20
-22.541323
 30
0.0
 11
-176.306625
 21
-10.232041
 31
0.0
  0
ARC
  5
32D
330
25
100
AcDbEntity
  8
2
100
AcDbCircle
 10
-141.003027
 20
-38.199666
 30
0.0
 40
30.0
100
AcDbArc
 50
80.0
 51
135.0
  0
LINE
  5
32E
330
25
100
AcDbEntity
  8
2
100
AcDbLine
 10
-188.615907
 20
-22.541323
 30
0.0
 11
-188.615907
 21
-27.541323
 31
0.0
  0
ARC
  5
32F
330
25
100
AcDbEntity
  8
2
100
AcDbCircle
 10
-96.140866
 20
-3.856219
 30
0.0
 40
1.0
100
AcDbArc
 50
176.0
 51
266.0
  0
LINE
  5
330
330
25
100
AcDbEntity
  8
2
100
AcDbLine
 10
-108.181391
 20
-4.016704999999999
 30
0.0
 11
-94.21549399999999
 21
-4.993295999999999
 31
0.0
  0
LINE
  5
331
330
25
100
AcDbEntity
  8
2
100
AcDbLine
 10
-179.771091
 20
-13.696507
 30
0.0
 11
-179.771091
 21
-27.541323
 31
0.0
  0
LINE
  5
332
330
25
100
AcDbEntity
  8
2
100
AcDbLine
 10
-104.826674
 20
0.9512169999999999
 30
0.0
 11
-99.25745500000001
 21
0.5617790000000001
 31
0.0
  0
ARC
  5
333
330
25
100
AcDbEntity
  8
2
100
AcDbCircle
 10
-98.13308200000001
 20
65.93813299999999
 30
0.0
 40
80.0
100
AcDbArc
 50
260.0
 51
269.845396
  0
ARC
  5
334
330
25
100
AcDbEntity
  8
2
100
AcDbCircle
 10
-44.844735
 20
-13.970281
 30
0.0
 40
2.0
100
AcDbArc
 50
222.427004
 51
359.985133
  0
ARC
  5
335
330
25
100
AcDbEntity
  8
2
100
AcDbCircle
 10
-52.22611
 20
-20.716785
 30
0.0
 40
8.0
100
AcDbArc
 50
42.42700399999999
 51
123.6590879999999
  0
ARC
  5
336
330
25
100
AcDbEntity
  8
2
100
AcDbCircle
 10
-61.094113
 20
-7.399182999999999
 30
0.0
 40
8.0
100
AcDbArc
 50
232.340912
 51
303.659088
  0
ARC
  5
337
330
25
100
AcDbEntity
  8
2
100
AcDbCircle
 10
-70.869504
 20
-20.065743
 30
0.0
 40
8.0
100
AcDbArc
 50
52.340912
 51
123.6590879999999
  0
ARC
  5
338
330
25
100
AcDbEntity
  8
2
100
AcDbCircle
 10
-79.73750799999999
 20
-6.748141
 30
0.0
 40
8.0
100
AcDbArc
 50
232.340912
 51
303.659088
  0
ARC
  5
339
330
25
100
AcDbEntity
  8
2
100
AcDbCircle
 10
-89.51289799999999
 20
-19.414701
 30
0.0
 40
8.0
100
AcDbArc
 50
52.340912
 51
123.42906
  0
ARC
  5
33A
330
25
100
AcDbEntity
  8
2
100
AcDbCircle
 10
-98.32736400000001
 20
-6.061603999999999
 30
0.0
 40
8.0
100
AcDbArc
 50
269.845396
 51
303.42906
  0
ARC
  5
33B
330
25
100
AcDbEntity
  8
2
100
AcDbCircle
 10
-181.842159
 20
-29.541323
 30
0.0
 40
5.0
100
AcDbArc
 50
270.0
 51
315.0
  0
LINE
  5
33C
330
25
100
AcDbEntity
  8
2
100
AcDbLine
 10
-109.056423
 20
-2.194660999999999
 30
0.0
 11
-109.971474
 21
-1.023447999999999
 31
0.0
  0
LINE
  5
33D
330
25
100
AcDbEntity
  8
2
100
AcDbLine
 10
-92.02455400000001
 20
-2.323836
 30
0.0
 11
-93.093701
 21
-3.2865
 31
0.0
  0
ARC
  5
33E
330
25
100
AcDbEntity
  8
2
100
AcDbCircle
 10
-108.111634
 20
-3.019140999999999
 30
0.0
 40
1.0
100
AcDbArc
 50
176.0
 51
266.0
  0
ARC
  5
33F
330
25
100
AcDbEntity
  8
2
100
AcDbCircle
 10
-94.14573799999999
 20
-3.995731999999999
 30
0.0
 40
1.0
100
AcDbArc
 50
266.0
 51
356.0
  0
LINE
  5
340
330
25
100
AcDbEntity
  8
2
100
AcDbLine
 10
-133.842159
 20
-8.999522
 30
0.0
 11
-133.842159
 21
1.586432999999999
 31
0.0
  0
LINE
  5
341
330
25
100
AcDbEntity
  8
2
100
AcDbLine
 10
-131.8327379999999
 20
2.831281999999999
 30
0.0
 11
-109.971474
 21
-1.023447999999999
 31
0.0
  0
ARC
  5
342
330
25
100
AcDbEntity
  8
2
100
AcDbCircle
 10
-131.311794
 20
5.785705999999999
 30
0.0
 40
3.0
100
AcDbArc
 50
258.30264
 51
260.0
  0
LINE
  5
343
330
25
100
AcDbEntity
  8
2
100
AcDbLine
 10
-174.842159
 20
-8.541323
 30
0.0
 11
-174.842159
 21
-27.541323
 31
0.0
  0
ARC
  5
344
330
25
100
AcDbEntity
  8
2
100
AcDbCircle
 10
-179.842159
 20
-6.696507
 30
0.0
 40
5.0
100
AcDbArc
 50
315.0
 51
338.348311
  0
LINE
  5
345
330
25
100
AcDbEntity
  8
2
100
AcDbLine
 10
-175.742159
 20
-30.512391
 30
0.0
 11
-175.742159
 21
-29.541323
 31
0.0
  0
LINE
  5
346
330
25
100
AcDbEntity
  8
2
100
AcDbLine
 10
-188.615907
 20
-29.541323
 30
0.0
 11
-188.615907
 21
-33.541323
 31
0.0
  0
LINE
  5
347
330
25
100
AcDbEntity
  8
2
100
AcDbLine
 10
-179.771091
 20
-29.541323
 30
0.0
 11
-179.771091
 21
-34.092222
 31
0.0
  0
LINE
  5
348
330
25
100
AcDbEntity
  8
2
100
AcDbLine
 10
-174.842159
 20
-29.541323
 30
0.0
 11
-174.842159
 21
-29.612391
 31
0.0
  0
LINE
  5
349
330
25
100
AcDbEntity
  8
2
100
AcDbLine
 10
-172.771091
 20
-27.541323
 30
0.0
 11
-162.21623
 21
-16.986463
 31
0.0
  0
LINE
  5
34A
330
25
100
AcDbEntity
  8
2
100
AcDbLine
 10
-167.842159
 20
-27.541323
 30
0.0
 11
-167.842159
 21
-29.541323
 31
0.0
  0
LINE
  5
34B
330
25
100
AcDbEntity
  8
2
100
AcDbLine
 10
-167.842159
 20
-27.541323
 30
0.0
 11
-292.841921
 21
-27.541323
 31
0.0
  0
LINE
  5
34C
330
25
100
AcDbEntity
  8
2
100
AcDbLine
 10
-292.841921
 20
-29.541323
 30
0.0
 11
-167.842159
 21
-29.541323
 31
0.0
  0
LINE
  5
34D
330
25
100
AcDbEntity
  8
2
100
AcDbLine
 10
-203.43081
 20
-27.541323
 30
0.0
 11
-203.43081
 21
-29.541323
 31
0.0
  0
POINT
  5
34E
330
25
100
AcDbEntity
  8
2
100
AcDbPoint
 10
-218.093421
 20
-27.541323
 30
0.0
  0
LINE
  5
34F
330
25
100
AcDbEntity
  8
2
  6
CENTER
 62
     2
100
AcDbLine
 10
-218.093421
 20
-55.65367099999999
 30
0.0
 11
-218.093421
 21
-18.337383
 31
0.0
  0
LINE
  5
350
330
25
100
AcDbEntity
  8
2
100
AcDbLine
 10
-218.093421
 20
-27.541323
 30
0.0
 11
-225.593421
 21
-27.541323
 31
0.0
  0
LINE
  5
351
330
25
100
AcDbEntity
  8
2
100
AcDbLine
 10
-225.593421
 20
-27.541323
 30
0.0
 11
-225.593421
 21
-22.763011
 31
0.0
  0
LINE
  5
352
330
25
100
AcDbEntity
  8
2
100
AcDbLine
 10
-225.593421
 20
-22.763011
 30
0.0
 11
-224.343421
 21
-22.041323
 31
0.0
  0
LINE
  5
353
330
25
100
AcDbEntity
  8
2
100
AcDbLine
 10
-224.343421
 20
-22.041323
 30
0.0
 11
-218.093421
 21
-22.041323
 31
0.0
  0
LINE
  5
354
330
25
100
AcDbEntity
  8
2
100
AcDbLine
 10
-221.843421
 20
-27.541323
 30
0.0
 11
-221.843421
 21
-22.763011
 31
0.0
  0
ARC
  5
355
330
25
100
AcDbEntity
  8
2
100
AcDbCircle
 10
-223.718421
 20
-25.173387
 30
0.0
 40
3.053774
100
AcDbArc
 50
52.121121
 51
127.878879
  0
ARC
  5
356
330
25
100
AcDbEntity
  8
2
100
AcDbCircle
 10
-218.093421
 20
-33.369612
 30
0.0
 40
11.25
100
AcDbArc
 50
90.0
 51
109.471221
  0
LINE
  5
357
330
25
100
AcDbEntity
  8
2
100
AcDbLine
 10
-218.093421
 20
-52.541323
 30
0.0
 11
-221.416921
 21
-52.541323
 31
0.0
  0
LINE
  5
358
330
25
100
AcDbEntity
  8
2
100
AcDbLine
 10
-221.416921
 20
-52.541323
 30
0.0
 11
-222.093421
 21
-51.864823
 31
0.0
  0
LINE
  5
359
330
25
100
AcDbEntity
  8
2
100
AcDbLine
 10
-222.093421
 20
-51.864823
 30
0.0
 11
-222.093421
 21
-50.041323
 31
0.0
  0
LINE
  5
35A
330
25
100
AcDbEntity
  8
2
100
AcDbLine
 10
-222.093421
 20
-51.864823
 30
0.0
 11
-218.093421
 21
-51.864823
 31
0.0
  0
LINE
  5
35B
330
25
100
AcDbEntity
  8
2
 62
     2
100
AcDbLine
 10
-221.416921
 20
-52.541323
 30
0.0
 11
-221.416921
 21
-50.041323
 31
0.0
  0
LINE
  5
35C
330
25
100
AcDbEntity
  8
2
100
AcDbLine
 10
-218.093421
 20
-27.541323
 30
0.0
 11
-210.593421
 21
-27.541323
 31
0.0
  0
LINE
  5
35D
330
25
100
AcDbEntity
  8
2
100
AcDbLine
 10
-210.593421
 20
-27.541323
 30
0.0
 11
-210.593421
 21
-22.763011
 31
0.0
  0
LINE
  5
35E
330
25
100
AcDbEntity
  8
2
100
AcDbLine
 10
-210.593421
 20
-22.763011
 30
0.0
 11
-211.843421
 21
-22.041323
 31
0.0
  0
LINE
  5
35F
330
25
100
AcDbEntity
  8
2
100
AcDbLine
 10
-211.843421
 20
-22.041323
 30
0.0
 11
-218.093421
 21
-22.041323
 31
0.0
  0
LINE
  5
360
330
25
100
AcDbEntity
  8
2
100
AcDbLine
 10
-214.343421
 20
-27.541323
 30
0.0
 11
-214.343421
 21
-22.763011
 31
0.0
  0
ARC
  5
361
330
25
100
AcDbEntity
  8
2
100
AcDbCircle
 10
-212.468421
 20
-25.173387
 30
0.0
 40
3.053774
100
AcDbArc
 50
52.121121
 51
127.878879
  0
ARC
  5
362
330
25
100
AcDbEntity
  8
2
100
AcDbCircle
 10
-218.093421
 20
-33.369612
 30
0.0
 40
11.25
100
AcDbArc
 50
70.528779
 51
90.0
  0
LINE
  5
363
330
25
100
AcDbEntity
  8
2
100
AcDbLine
 10
-218.093421
 20
-52.541323
 30
0.0
 11
-214.769921
 21
-52.541323
 31
0.0
  0
LINE
  5
364
330
25
100
AcDbEntity
  8
2
100
AcDbLine
 10
-214.769921
 20
-52.541323
 30
0.0
 11
-214.093421
 21
-51.864823
 31
0.0
  0
LINE
  5
365
330
25
100
AcDbEntity
  8
2
100
AcDbLine
 10
-214.093421
 20
-51.864823
 30
0.0
 11
-214.093421
 21
-50.041323
 31
0.0
  0
LINE
  5
366
330
25
100
AcDbEntity
  8
2
100
AcDbLine
 10
-214.093421
 20
-51.864823
 30
0.0
 11
-218.093421
 21
-51.864823
 31
0.0
  0
LINE
  5
367
330
25
100
AcDbEntity
  8
2
 62
     2
100
AcDbLine
 10
-214.769921
 20
-52.541323
 30
0.0
 11
-214.769921
 21
-50.041323
 31
0.0
  0
POINT
  5
368
330
25
100
AcDbEntity
  8
2
100
AcDbPoint
 10
-218.093421
 20
-41.54132299999999
 30
0.0
  0
LINE
  5
369
330
25
100
AcDbEntity
  8
2
100
AcDbLine
 10
-218.093421
 20
-43.54132299999999
 30
0.0
 11
-210.593421
 21
-43.54132299999999
 31
0.0
  0
LINE
  5
36A
330
25
100
AcDbEntity
  8
2
100
AcDbLine
 10
-210.593421
 20
-43.54132299999999
 30
0.0
 11
-210.593421
 21
-49.319635
 31
0.0
  0
LINE
  5
36B
330
25
100
AcDbEntity
  8
2
100
AcDbLine
 10
-210.593421
 20
-49.319635
 30
0.0
 11
-211.843421
 21
-50.041323
 31
0.0
  0
LINE
  5
36C
330
25
100
AcDbEntity
  8
2
100
AcDbLine
 10
-211.843421
 20
-50.041323
 30
0.0
 11
-218.093421
 21
-50.041323
 31
0.0
  0
LINE
  5
36D
330
25
100
AcDbEntity
  8
2
100
AcDbLine
 10
-214.343421
 20
-43.54132299999999
 30
0.0
 11
-214.343421
 21
-49.319635
 31
0.0
  0
ARC
  5
36E
330
25
100
AcDbEntity
  8
2
100
AcDbCircle
 10
-212.468421
 20
-46.909259
 30
0.0
 40
3.053774
100
AcDbArc
 50
232.121121
 51
307.878879
  0
ARC
  5
36F
330
25
100
AcDbEntity
  8
2
100
AcDbCircle
 10
-218.093421
 20
-38.71303300000001
 30
0.0
 40
11.25
100
AcDbArc
 50
270.0
 51
289.471221
  0
LINE
  5
370
330
25
100
AcDbEntity
  8
2
100
AcDbLine
 10
-218.093421
 20
-43.54132299999999
 30
0.0
 11
-225.593421
 21
-43.54132299999999
 31
0.0
  0
LINE
  5
371
330
25
100
AcDbEntity
  8
2
100
AcDbLine
 10
-225.593421
 20
-43.54132299999999
 30
0.0
 11
-225.593421
 21
-49.319635
 31
0.0
  0
LINE
  5
372
330
25
100
AcDbEntity
  8
2
100
AcDbLine
 10
-225.593421
 20
-49.319635
 30
0.0
 11
-224.343421
 21
-50.041323
 31
0.0
  0
LINE
  5
373
330
25
100
AcDbEntity
  8
2
100
AcDbLine
 10
-224.343421
 20
-50.041323
 30
0.0
 11
-218.093421
 21
-50.041323
 31
0.0
  0
LINE
  5
374
330
25
100
AcDbEntity
  8
2
100
AcDbLine
 10
-221.843421
 20
-43.54132299999999
 30
0.0
 11
-221.843421
 21
-49.319635
 31
0.0
  0
ARC
  5
375
330
25
100
AcDbEntity
  8
2
100
AcDbCircle
 10
-223.718421
 20
-46.909259
 30
0.0
 40
3.053774
100
AcDbArc
 50
232.121121
 51
307.878879
  0
ARC
  5
376
330
25
100
AcDbEntity
  8
2
100
AcDbCircle
 10
-218.093421
 20
-38.71303300000001
 30
0.0
 40
11.25
100
AcDbArc
 50
250.528779
 51
270.0
  0
LINE
  5
377
330
25
100
AcDbEntity
  8
2
100
AcDbLine
 10
-210.393421
 20
-41.54132299999999
 30
0.0
 11
-210.393421
 21
-43.54132299999999
 31
0.0
  0
LINE
  5
378
330
25
100
AcDbEntity
  8
2
100
AcDbLine
 10
-210.393421
 20
-43.54132299999999
 30
0.0
 11
-225.793421
 21
-43.54132299999999
 31
0.0
  0
LINE
  5
379
330
25
100
AcDbEntity
  8
2
100
AcDbLine
 10
-225.793421
 20
-43.54132299999999
 30
0.0
 11
-225.793421
 21
-41.54132299999999
 31
0.0
  0
LINE
  5
37A
330
25
100
AcDbEntity
  8
2
100
AcDbLine
 10
-225.793421
 20
-41.54132299999999
 30
0.0
 11
-210.393421
 21
-41.54132299999999
 31
0.0
  0
LINE
  5
37B
330
25
100
AcDbEntity
  8
2
100
AcDbLine
 10
-218.093421
 20
-43.54132299999999
 30
0.0
 11
-218.593421
 21
-41.54132299999999
 31
0.0
  0
LINE
  5
37C
330
25
100
AcDbEntity
  8
2
100
AcDbLine
 10
-218.093421
 20
-41.54132299999999
 30
0.0
 11
-217.593421
 21
-43.54132299999999
 31
0.0
  0
POINT
  5
37D
330
25
100
AcDbEntity
  8
2
100
AcDbPoint
 10
-267.590896
 20
-27.541323
 30
0.0
  0
LINE
  5
37E
330
25
100
AcDbEntity
  8
2
  6
CENTER
 62
     2
100
AcDbLine
 10
-267.590896
 20
-55.65367099999999
 30
0.0
 11
-267.590896
 21
-18.337383
 31
0.0
  0
LINE
  5
37F
330
25
100
AcDbEntity
  8
2
100
AcDbLine
 10
-267.590896
 20
-27.541323
 30
0.0
 11
-275.090896
 21
-27.541323
 31
0.0
  0
LINE
  5
380
330
25
100
AcDbEntity
  8
2
100
AcDbLine
 10
-275.090896
 20
-27.541323
 30
0.0
 11
-275.090896
 21
-22.763011
 31
0.0
  0
LINE
  5
381
330
25
100
AcDbEntity
  8
2
100
AcDbLine
 10
-275.090896
 20
-22.763011
 30
0.0
 11
-273.840896
 21
-22.041323
 31
0.0
  0
LINE
  5
382
330
25
100
AcDbEntity
  8
2
100
AcDbLine
 10
-273.840896
 20
-22.041323
 30
0.0
 11
-267.590896
 21
-22.041323
 31
0.0
  0
LINE
  5
383
330
25
100
AcDbEntity
  8
2
100
AcDbLine
 10
-271.340896
 20
-27.541323
 30
0.0
 11
-271.340896
 21
-22.763011
 31
0.0
  0
ARC
  5
384
330
25
100
AcDbEntity
  8
2
100
AcDbCircle
 10
-273.215896
 20
-25.173387
 30
0.0
 40
3.053774
100
AcDbArc
 50
52.121121
 51
127.878879
  0
ARC
  5
385
330
25
100
AcDbEntity
  8
2
100
AcDbCircle
 10
-267.590896
 20
-33.369612
 30
0.0
 40
11.25
100
AcDbArc
 50
90.0
 51
109.471221
  0
LINE
  5
386
330
25
100
AcDbEntity
  8
2
100
AcDbLine
 10
-267.590896
 20
-52.541323
 30
0.0
 11
-270.914396
 21
-52.541323
 31
0.0
  0
LINE
  5
387
330
25
100
AcDbEntity
  8
2
100
AcDbLine
 10
-270.914396
 20
-52.541323
 30
0.0
 11
-271.590896
 21
-51.864823
 31
0.0
  0
LINE
  5
388
330
25
100
AcDbEntity
  8
2
100
AcDbLine
 10
-271.590896
 20
-51.864823
 30
0.0
 11
-271.590896
 21
-50.041323
 31
0.0
  0
LINE
  5
389
330
25
100
AcDbEntity
  8
2
100
AcDbLine
 10
-271.590896
 20
-51.864823
 30
0.0
 11
-267.590896
 21
-51.864823
 31
0.0
  0
LINE
  5
38A
330
25
100
AcDbEntity
  8
2
 62
     2
100
AcDbLine
 10
-270.914396
 20
-52.541323
 30
0.0
 11
-270.914396
 21
-50.041323
 31
0.0
  0
LINE
  5
38B
330
25
100
AcDbEntity
  8
2
100
AcDbLine
 10
-267.590896
 20
-27.541323
 30
0.0
 11
-260.090896
 21
-27.541323
 31
0.0
  0
LINE
  5
38C
330
25
100
AcDbEntity
  8
2
100
AcDbLine
 10
-260.090896
 20
-27.541323
 30
0.0
 11
-260.090896
 21
-22.763011
 31
0.0
  0
LINE
  5
38D
330
25
100
AcDbEntity
  8
2
100
AcDbLine
 10
-260.090896
 20
-22.763011
 30
0.0
 11
-261.340896
 21
-22.041323
 31
0.0
  0
LINE
  5
38E
330
25
100
AcDbEntity
  8
2
100
AcDbLine
 10
-261.340896
 20
-22.041323
 30
0.0
 11
-267.590896
 21
-22.041323
 31
0.0
  0
LINE
  5
38F
330
25
100
AcDbEntity
  8
2
100
AcDbLine
 10
-263.840896
 20
-27.541323
 30
0.0
 11
-263.840896
 21
-22.763011
 31
0.0
  0
ARC
  5
390
330
25
100
AcDbEntity
  8
2
100
AcDbCircle
 10
-261.965896
 20
-25.173387
 30
0.0
 40
3.053774
100
AcDbArc
 50
52.121121
 51
127.878879
  0
ARC
  5
391
330
25
100
AcDbEntity
  8
2
100
AcDbCircle
 10
-267.590896
 20
-33.369612
 30
0.0
 40
11.25
100
AcDbArc
 50
70.528779
 51
90.0
  0
LINE
  5
392
330
25
100
AcDbEntity
  8
2
100
AcDbLine
 10
-267.590896
 20
-52.541323
 30
0.0
 11
-264.267396
 21
-52.541323
 31
0.0
  0
LINE
  5
393
330
25
100
AcDbEntity
  8
2
100
AcDbLine
 10
-264.267396
 20
-52.541323
 30
0.0
 11
-263.590896
 21
-51.864823
 31
0.0
  0
LINE
  5
394
330
25
100
AcDbEntity
  8
2
100
AcDbLine
 10
-263.590896
 20
-51.864823
 30
0.0
 11
-263.590896
 21
-50.041323
 31
0.0
  0
LINE
  5
395
330
25
100
AcDbEntity
  8
2
100
AcDbLine
 10
-263.590896
 20
-51.864823
 30
0.0
 11
-267.590896
 21
-51.864823
 31
0.0
  0
LINE
  5
396
330
25
100
AcDbEntity
  8
2
 62
     2
100
AcDbLine
 10
-264.267396
 20
-52.541323
 30
0.0
 11
-264.267396
 21
-50.041323
 31
0.0
  0
POINT
  5
397
330
25
100
AcDbEntity
  8
2
100
AcDbPoint
 10
-267.590896
 20
-41.54132299999999
 30
0.0
  0
LINE
  5
398
330
25
100
AcDbEntity
  8
2
100
AcDbLine
 10
-261.340896
 20
-50.041323
 30
0.0
 11
-267.590896
 21
-50.041323
 31
0.0
  0
LINE
  5
399
330
25
100
AcDbEntity
  8
2
100
AcDbLine
 10
-263.840896
 20
-45.271568
 30
0.0
 11
-263.840896
 21
-49.319635
 31
0.0
  0
ARC
  5
39A
330
25
100
AcDbEntity
  8
2
100
AcDbCircle
 10
-261.965896
 20
-46.909259
 30
0.0
 40
3.053774
100
AcDbArc
 50
232.121121
 51
307.878879
  0
ARC
  5
39B
330
25
100
AcDbEntity
  8
2
100
AcDbCircle
 10
-267.590896
 20
-38.71303300000001
 30
0.0
 40
11.25
100
AcDbArc
 50
270.0
 51
289.471221
  0
LINE
  5
39C
330
25
100
AcDbEntity
  8
2
100
AcDbLine
 10
-266.551738
 20
-43.54132299999999
 30
0.0
 11
-275.090896
 21
-43.54132299999999
 31
0.0
  0
LINE
  5
39D
330
25
100
AcDbEntity
  8
2
100
AcDbLine
 10
-275.090896
 20
-43.54132299999999
 30
0.0
 11
-275.090896
 21
-49.319635
 31
0.0
  0
LINE
  5
39E
330
25
100
AcDbEntity
  8
2
100
AcDbLine
 10
-275.090896
 20
-49.319635
 30
0.0
 11
-273.840896
 21
-50.041323
 31
0.0
  0
LINE
  5
39F
330
25
100
AcDbEntity
  8
2
100
AcDbLine
 10
-273.840896
 20
-50.041323
 30
0.0
 11
-267.590896
 21
-50.041323
 31
0.0
  0
LINE
  5
3A0
330
25
100
AcDbEntity
  8
2
100
AcDbLine
 10
-271.340896
 20
-43.54132299999999
 30
0.0
 11
-271.340896
 21
-49.319635
 31
0.0
  0
ARC
  5
3A1
330
25
100
AcDbEntity
  8
2
100
AcDbCircle
 10
-273.215896
 20
-46.909259
 30
0.0
 40
3.053774
100
AcDbArc
 50
232.121121
 51
307.878879
  0
ARC
  5
3A2
330
25
100
AcDbEntity
  8
2
100
AcDbCircle
 10
-267.590896
 20
-38.71303300000001
 30
0.0
 40
11.25
100
AcDbArc
 50
250.528779
 51
270.0
  0
LINE
  5
3A3
330
25
100
AcDbEntity
  8
2
100
AcDbLine
 10
-267.756754
 20
-43.54132299999999
 30
0.0
 11
-275.290896
 21
-43.54132299999999
 31
0.0
  0
LINE
  5
3A4
330
25
100
AcDbEntity
  8
2
100
AcDbLine
 10
-275.290896
 20
-43.54132299999999
 30
0.0
 11
-275.290896
 21
-41.54132299999999
 31
0.0
  0
LINE
  5
3A5
330
25
100
AcDbEntity
  8
2
100
AcDbLine
 10
-275.290896
 20
-41.54132299999999
 30
0.0
 11
-259.890896
 21
-41.54132299999999
 31
0.0
  0
LINE
  5
3A6
330
25
100
AcDbEntity
  8
2
100
AcDbLine
 10
-260.090896
 20
-49.319635
 30
0.0
 11
-261.340896
 21
-50.041323
 31
0.0
  0
LINE
  5
3A7
330
25
100
AcDbEntity
  8
2
100
AcDbLine
 10
73.667908
 20
-8.541263999999999
 30
0.0
 11
79.667908
 21
-8.541263999999999
 31
0.0
  0
ARC
  5
3A8
330
25
100
AcDbEntity
  8
2
100
AcDbCircle
 10
75.16790799999999
 20
-7.541263999999999
 30
0.0
 40
1.0
100
AcDbArc
 50
180.0
 51
270.0
  0
LINE
  5
3A9
330
25
100
AcDbEntity
  8
2
100
AcDbLine
 10
99.667908
 20
-8.541263999999999
 30
0.0
 11
93.667908
 21
-8.541263999999999
 31
0.0
  0
ARC
  5
3AA
330
25
100
AcDbEntity
  8
2
100
AcDbCircle
 10
98.16790799999999
 20
-7.541263999999999
 30
0.0
 40
1.0
100
AcDbArc
 50
270.0
 51
360.0
  0
LINE
  5
3AB
330
25
100
AcDbEntity
  8
2
100
AcDbLine
 10
100.667908
 20
3.458736
 30
0.0
 11
101.667908
 21
2.458736
 31
0.0
  0
LINE
  5
3AC
330
25
100
AcDbEntity
  8
2
100
AcDbLine
 10
101.667908
 20
-17.541264
 30
0.0
 11
101.667908
 21
2.458736
 31
0.0
  0
LINE
  5
3AD
330
25
100
AcDbEntity
  8
2
100
AcDbLine
 10
92.667908
 20
-7.541263999999999
 30
0.0
 11
92.667908
 21
3.203104999999999
 31
0.0
  0
LINE
  5
3AE
330
25
100
AcDbEntity
  8
2
100
AcDbLine
 10
100.667908
 20
-7.541263999999999
 30
0.0
 11
100.667908
 21
5.958736
 31
0.0
  0
ARC
  5
3AF
330
25
100
AcDbEntity
  8
2
100
AcDbCircle
 10
100.167908
 20
5.958736
 30
0.0
 40
0.5
100
AcDbArc
 50
0.0
 51
90.0
  0
ARC
  5
3B0
330
25
100
AcDbEntity
  8
2
100
AcDbCircle
 10
99.667908
 20
6.958736
 30
0.0
 40
0.5
100
AcDbArc
 50
180.0
 51
270.0
  0
LINE
  5
3B1
330
25
100
AcDbEntity
  8
2
100
AcDbLine
 10
100.167908
 20
6.458736
 30
0.0
 11
99.667908
 21
6.458736
 31
0.0
  0
LINE
  5
3B2
330
25
100
AcDbEntity
  8
2
100
AcDbLine
 10
99.16790800000001
 20
-7.541263999999999
 30
0.0
 11
99.16790800000001
 21
6.958736
 31
0.0
  0
LINE
  5
3B3
330
25
100
AcDbEntity
  8
2
100
AcDbLine
 10
94.75710799999999
 20
4.602326999999999
 30
0.0
 11
93.36268299999998
 21
4.155384999999999
 31
0.0
  0
ARC
  5
3B4
330
25
100
AcDbEntity
  8
2
100
AcDbCircle
 10
93.667908
 20
3.203104999999999
 30
0.0
 40
1.0
100
AcDbArc
 50
107.771715
 51
180.0
  0
LINE
  5
3B5
330
25
100
AcDbEntity
  8
2
100
AcDbLine
 10
92.667908
 20
9.705007
 30
0.0
 11
92.667908
 21
3.203104999999999
 31
0.0
  0
LINE
  5
3B6
330
25
100
AcDbEntity
  8
2
100
AcDbLine
 10
100.667908
 20
-1.068251999999999
 30
0.0
 11
101.467908
 21
-8.614027999999999
 31
0.0
  0
ARC
  5
3B7
330
25
100
AcDbEntity
  8
2
100
AcDbCircle
 10
99.667908
 20
-7.541263999999999
 30
0.0
 40
1.0
100
AcDbArc
 50
270.0
 51
360.0
  0
ARC
  5
3B8
330
25
100
AcDbEntity
  8
2
100
AcDbCircle
 10
93.667908
 20
-7.541263999999999
 30
0.0
 40
1.0
100
AcDbArc
 50
180.0
 51
270.0
  0
ARC
  5
3B9
330
25
100
AcDbEntity
  8
2
100
AcDbCircle
 10
94.45188299999999
 20
5.554607999999999
 30
0.0
 40
1.0
100
AcDbArc
 50
287.771715
 51
6.051866999999999
  0
ARC
  5
3BA
330
25
100
AcDbEntity
  8
2
100
AcDbCircle
 10
78.883933
 20
5.554607999999999
 30
0.0
 40
1.0
100
AcDbArc
 50
173.948133
 51
252.228285
  0
ARC
  5
3BB
330
25
100
AcDbEntity
  8
2
100
AcDbCircle
 10
79.667908
 20
-7.541263999999999
 30
0.0
 40
1.0
100
AcDbArc
 50
270.0
 51
360.0
  0
ARC
  5
3BC
330
25
100
AcDbEntity
  8
2
100
AcDbCircle
 10
73.667908
 20
-7.541263999999999
 30
0.0
 40
1.0
100
AcDbArc
 50
180.0
 51
270.0
  0
ARC
  5
3BD
330
25
100
AcDbEntity
  8
2
100
AcDbCircle
 10
96.498495
 20
-13.749481
 30
0.0
 40
1.0
100
AcDbArc
 50
279.951879
 51
6.051866999999999
  0
ARC
  5
3BE
330
25
100
AcDbEntity
  8
2
100
AcDbCircle
 10
76.837321
 20
-13.749481
 30
0.0
 40
1.0
100
AcDbArc
 50
173.948133
 51
260.048121
  0
ARC
  5
3BF
330
25
100
AcDbEntity
  8
2
100
AcDbCircle
 10
86.66790799999999
 20
42.277667
 30
0.0
 40
57.88305300000001
100
AcDbArc
 50
260.048121
 51
264.1497
  0
LINE
  5
3C0
330
25
100
AcDbEntity
  8
2
100
AcDbLine
 10
71.867908
 20
-17.541264
 30
0.0
 11
71.867908
 21
-8.614027999999999
 31
0.0
  0
LINE
  5
3C1
330
25
100
AcDbEntity
  8
2
100
AcDbLine
 10
72.66790799999999
 20
-1.068251999999999
 30
0.0
 11
71.867908
 21
-8.614027999999999
 31
0.0
  0
LINE
  5
3C2
330
25
100
AcDbEntity
  8
2
100
AcDbLine
 10
76.38389
 20
-8.541263999999999
 30
0.0
 11
75.842895
 21
-13.644053
 31
0.0
  0
LINE
  5
3C3
330
25
100
AcDbEntity
  8
2
100
AcDbLine
 10
97.667908
 20
-17.541264
 30
0.0
 11
97.667908
 21
-18.541264
 31
0.0
  0
ARC
  5
3C4
330
25
100
AcDbEntity
  8
2
100
AcDbCircle
 10
92.167908
 20
20.564621
 30
0.0
 40
1.5
100
AcDbArc
 50
69.33280100000001
 51
94.27095600000001
  0
LINE
  5
3C5
330
25
100
AcDbEntity
  8
2
100
AcDbLine
 10
100.667908
 20
-1.068251999999999
 30
0.0
 11
101.667908
 21
-10.500473
 31
0.0
  0
ARC
  5
3C6
330
25
100
AcDbEntity
  8
2
100
AcDbCircle
 10
92.24304399999999
 20
31.041935
 30
0.0
 40
5.0
100
AcDbArc
 50
9.174666
 51
77.83324
  0
LINE
  5
3C7
330
25
100
AcDbEntity
  8
2
100
AcDbLine
 10
97.179078
 20
31.83915900000001
 30
0.0
 11
97.179078
 21
27.256513
 31
0.0
  0
LINE
  5
3C8
330
25
100
AcDbEntity
  8
2
100
AcDbLine
 10
90.66790799999999
 20
20.228731
 30
0.0
 11
90.66790799999999
 21
17.543117
 31
0.0
  0
ARC
  5
3C9
330
25
100
AcDbEntity
  8
2
100
AcDbCircle
 10
96.17907800000001
 20
27.256513
 30
0.0
 40
1.0
100
AcDbArc
 50
259.300245
 51
360.0
  0
LINE
  5
3CA
330
25
100
AcDbEntity
  8
2
100
AcDbLine
 10
97.179078
 20
31.83915900000001
 30
0.0
 11
99.8699
 21
6.458736
 31
0.0
  0
ARC
  5
3CB
330
25
100
AcDbEntity
  8
2
100
AcDbCircle
 10
92.302972
 20
25.823609
 30
0.0
 40
1.0
100
AcDbArc
 50
6.051866999999999
 51
83.42705999999999
  0
LINE
  5
3CC
330
25
100
AcDbEntity
  8
2
100
AcDbLine
 10
96.951926
 20
-8.541263999999999
 30
0.0
 11
97.49292099999999
 21
-13.644053
 31
0.0
  0
ARC
  5
3CD
330
25
100
AcDbEntity
  8
2
100
AcDbCircle
 10
89.667908
 20
9.705007
 30
0.0
 40
3.0
100
AcDbArc
 50
0.0
 51
28.460849
  0
LINE
  5
3CE
330
25
100
AcDbEntity
  8
2
100
AcDbLine
 10
93.29739899999999
 20
25.929037
 30
0.0
 11
95.44631
 21
5.660035999999999
 31
0.0
  0
LINE
  5
3CF
330
25
100
AcDbEntity
  8
2
100
AcDbLine
 10
92.667908
 20
9.705007
 30
0.0
 11
92.667908
 21
4.542735999999999
 31
0.0
  0
LINE
  5
3D0
330
25
100
AcDbEntity
  8
2
100
AcDbLine
 10
80.66790799999999
 20
9.705007
 30
0.0
 11
80.66790799999999
 21
3.203104999999999
 31
0.0
  0
ARC
  5
3D1
330
25
100
AcDbEntity
  8
2
100
AcDbCircle
 10
79.667908
 20
3.203104999999999
 30
0.0
 40
1.0
100
AcDbArc
 50
0.0
 51
72.228285
  0
LINE
  5
3D2
330
25
100
AcDbEntity
  8
2
100
AcDbLine
 10
80.038417
 20
25.929037
 30
0.0
 11
77.88950600000001
 21
5.660035999999999
 31
0.0
  0
ARC
  5
3D3
330
25
100
AcDbEntity
  8
2
100
AcDbCircle
 10
83.667908
 20
9.705007
 30
0.0
 40
3.0
100
AcDbArc
 50
113.205282
 51
180.0
  0
LINE
  5
3D4
330
25
100
AcDbEntity
  8
2
100
AcDbLine
 10
78.57870699999999
 20
4.602326999999999
 30
0.0
 11
79.97313299999999
 21
4.155384999999999
 31
0.0
  0
LINE
  5
3D5
330
25
100
AcDbEntity
  8
2
100
AcDbLine
 10
75.66790799999999
 20
-17.541264
 30
0.0
 11
75.66790799999999
 21
-18.541264
 31
0.0
  0
ARC
  5
3D6
330
25
100
AcDbEntity
  8
2
100
AcDbCircle
 10
81.03284399999999
 20
25.823609
 30
0.0
 40
1.0
100
AcDbArc
 50
96.57294
 51
173.948133
  0
LINE
  5
3D7
330
25
100
AcDbEntity
  8
2
100
AcDbLine
 10
101.667908
 20
-17.541264
 30
0.0
 11
92.567908
 21
-17.541264
 31
0.0
  0
LINE
  5
3D8
330
25
100
AcDbEntity
  8
2
100
AcDbLine
 10
75.66790799999999
 20
-18.541264
 30
0.0
 11
80.76790799999999
 21
-18.541264
 31
0.0
  0
LINE
  5
3D9
330
25
100
AcDbEntity
  8
2
100
AcDbLine
 10
74.167908
 20
-7.541263999999999
 30
0.0
 11
74.167908
 21
6.958736
 31
0.0
  0
LINE
  5
3DA
330
25
100
AcDbEntity
  8
2
100
AcDbLine
 10
76.156738
 20
31.83915900000001
 30
0.0
 11
73.465916
 21
6.458736
 31
0.0
  0
LINE
  5
3DB
330
25
100
AcDbEntity
  8
2
100
AcDbLine
 10
73.16790799999999
 20
6.458736
 30
0.0
 11
73.667908
 21
6.458736
 31
0.0
  0
ARC
  5
3DC
330
25
100
AcDbEntity
  8
2
100
AcDbCircle
 10
73.667908
 20
6.958736
 30
0.0
 40
0.5
100
AcDbArc
 50
270.0
 51
360.0
  0
ARC
  5
3DD
330
25
100
AcDbEntity
  8
2
100
AcDbCircle
 10
73.16790799999999
 20
5.958736
 30
0.0
 40
0.5
100
AcDbArc
 50
90.0
 51
180.0
  0
LINE
  5
3DE
330
25
100
AcDbEntity
  8
2
100
AcDbLine
 10
72.66790799999999
 20
-7.541263999999999
 30
0.0
 11
72.66790799999999
 21
5.958736
 31
0.0
  0
ARC
  5
3DF
330
25
100
AcDbEntity
  8
2
100
AcDbCircle
 10
86.66790799999999
 20
-23.081115
 30
0.0
 40
50.228304
100
AcDbArc
 50
79.30024499999999
 51
100.699755
  0
ARC
  5
3E0
330
25
100
AcDbEntity
  8
2
100
AcDbCircle
 10
77.15673800000001
 20
27.256513
 30
0.0
 40
1.0
100
AcDbArc
 50
180.0
 51
280.699755
  0
ARC
  5
3E1
330
25
100
AcDbEntity
  8
2
100
AcDbCircle
 10
86.66790799999999
 20
12.370062
 30
0.0
 40
11.334722
100
AcDbArc
 50
68.40872399999999
 51
114.66929
  0
LINE
  5
3E2
330
25
100
AcDbEntity
  8
2
100
AcDbLine
 10
82.667908
 20
16.391854
 30
0.0
 11
83.667908
 21
15.391854
 31
0.0
  0
ARC
  5
3E3
330
25
100
AcDbEntity
  8
2
100
AcDbCircle
 10
86.66790799999999
 20
7.370338999999999
 30
0.0
 40
9.868522999999999
100
AcDbArc
 50
76.97849599999999
 51
113.911756
  0
ARC
  5
3E4
330
25
100
AcDbEntity
  8
2
100
AcDbCircle
 10
81.167908
 20
20.564621
 30
0.0
 40
1.5
100
AcDbArc
 50
0.0
 51
110.667199
  0
LINE
  5
3E5
330
25
100
AcDbEntity
  8
2
100
AcDbLine
 10
82.667908
 20
20.564621
 30
0.0
 11
82.667908
 21
20.392998
 31
0.0
  0
LINE
  5
3E6
330
25
100
AcDbEntity
  8
2
100
AcDbLine
 10
80.66790799999999
 20
-7.541263999999999
 30
0.0
 11
80.66790799999999
 21
3.203104999999999
 31
0.0
  0
LINE
  5
3E7
330
25
100
AcDbEntity
  8
2
100
AcDbLine
 10
76.156738
 20
31.83915900000001
 30
0.0
 11
76.156738
 21
27.256513
 31
0.0
  0
LINE
  5
3E8
330
25
100
AcDbEntity
  8
2
100
AcDbLine
 10
70.66790799999999
 20
3.458736
 30
0.0
 11
72.66790799999999
 21
3.458736
 31
0.0
  0
LINE
  5
3E9
330
25
100
AcDbEntity
  8
2
100
AcDbLine
 10
69.667908
 20
2.458736
 30
0.0
 11
69.667908
 21
-17.541264
 31
0.0
  0
ARC
  5
3EA
330
25
100
AcDbEntity
  8
2
100
AcDbCircle
 10
70.66790799999999
 20
2.458736
 30
0.0
 40
1.0
100
AcDbArc
 50
90.0
 51
180.0
  0
ARC
  5
3EB
330
25
100
AcDbEntity
  8
2
100
AcDbCircle
 10
81.09277199999999
 20
31.041935
 30
0.0
 40
5.0
100
AcDbArc
 50
102.16676
 51
170.825334
  0
ARC
  5
3EC
330
25
100
AcDbEntity
  8
2
100
AcDbCircle
 10
86.66790799999999
 20
5.183288
 30
0.0
 40
31.452822
100
AcDbArc
 50
77.83324
 51
102.16676
  0
LINE
  5
3ED
330
25
100
AcDbEntity
  8
2
100
AcDbLine
 10
92.567908
 20
-18.541264
 30
0.0
 11
97.667908
 21
-18.541264
 31
0.0
  0
LINE
  5
3EE
330
25
100
AcDbEntity
  8
2
100
AcDbLine
 10
80.76790799999999
 20
-17.541264
 30
0.0
 11
69.667908
 21
-17.541264
 31
0.0
  0
ARC
  5
3EF
330
25
100
AcDbEntity
  8
2
100
AcDbCircle
 10
86.66790799999999
 20
42.277667
 30
0.0
 40
57.88305300000001
100
AcDbArc
 50
275.8503
 51
279.951879
  0
LINE
  5
3F0
330
25
100
AcDbEntity
  8
2
100
AcDbLine
 10
82.667908
 20
18.405683
 30
0.0
 11
82.667908
 21
16.391854
 31
0.0
  0
ARC
  5
3F1
330
25
100
AcDbEntity
  8
2
100
AcDbCircle
 10
89.667908
 20
9.705007
 30
0.0
 40
3.0
100
AcDbArc
 50
55.144622
 51
90.0
  0
LINE
  5
3F2
330
25
100
AcDbEntity
  8
2
100
AcDbLine
 10
91.00626899999999
 20
12.123767
 30
0.0
 11
81.44508499999998
 21
9.120414
 31
0.0
  0
LINE
  5
3F3
330
25
100
AcDbEntity
  8
2
100
AcDbLine
 10
91.60563299999999
 20
10.215689
 30
0.0
 11
82.044449
 21
7.212335
 31
0.0
  0
LINE
  5
3F4
330
25
100
AcDbEntity
  8
2
100
AcDbLine
 10
81.48968899999999
 20
7.199453999999999
 30
0.0
 11
87.702732
 21
5.560425
 31
0.0
  0
LINE
  5
3F5
330
25
100
AcDbEntity
  8
2
100
AcDbLine
 10
91.00626899999999
 20
6.59813
 30
0.0
 11
81.44508499999998
 21
3.594776999999999
 31
0.0
  0
LINE
  5
3F6
330
25
100
AcDbEntity
  8
2
100
AcDbLine
 10
91.60563299999999
 20
4.690051999999999
 30
0.0
 11
82.044449
 21
1.686699
 31
0.0
  0
LINE
  5
3F7
330
25
100
AcDbEntity
  8
2
100
AcDbLine
 10
91.60563299999999
 20
-0.835584
 30
0.0
 11
82.044449
 21
-3.838937999999999
 31
0.0
  0
LINE
  5
3F8
330
25
100
AcDbEntity
  8
2
100
AcDbLine
 10
91.00626899999999
 20
1.072494
 30
0.0
 11
81.44508499999998
 21
-1.930859
 31
0.0
  0
LINE
  5
3F9
330
25
100
AcDbEntity
  8
2
100
AcDbLine
 10
81.48968899999999
 20
1.673816999999999
 30
0.0
 11
83.381985
 21
1.174620999999999
 31
0.0
  0
ARC
  5
3FA
330
25
100
AcDbEntity
  8
2
100
AcDbCircle
 10
81.74476700000001
 20
-2.884897999999999
 30
0.0
 40
1.0
100
AcDbArc
 50
100.738785
 51
286.6206009999999
  0
ARC
  5
3FB
330
25
100
AcDbEntity
  8
2
100
AcDbCircle
 10
81.74476700000001
 20
2.640738
 30
0.0
 40
1.0
100
AcDbArc
 50
107.438515
 51
286.6206009999999
  0
ARC
  5
3FC
330
25
100
AcDbEntity
  8
2
100
AcDbCircle
 10
81.74476700000001
 20
8.166374000000001
 30
0.0
 40
1.0
100
AcDbArc
 50
107.438515
 51
286.6206009999999
  0
LINE
  5
3FD
330
25
100
AcDbEntity
  8
2
100
AcDbLine
 10
85.347986
 20
2.724404
 30
0.0
 11
91.561029
 21
1.085374999999999
 31
0.0
  0
ARC
  5
3FE
330
25
100
AcDbEntity
  8
2
100
AcDbCircle
 10
91.305951
 20
0.118455
 30
0.0
 40
1.0
100
AcDbArc
 50
287.438515
 51
107.438515
  0
LINE
  5
3FF
330
25
100
AcDbEntity
  8
2
100
AcDbLine
 10
86.959905
 20
-2.294897999999999
 30
0.0
 11
91.561029
 21
-2.672266
 31
0.0
  0
ARC
  5
400
330
25
100
AcDbEntity
  8
2
100
AcDbCircle
 10
91.591049
 20
-3.692728999999999
 30
0.0
 40
1.0
100
AcDbArc
 50
273.731968
 51
85.59196300000001
  0
LINE
  5
401
330
25
100
AcDbEntity
  8
2
100
AcDbLine
 10
85.347986
 20
8.25004
 30
0.0
 11
91.561029
 21
6.611011999999999
 31
0.0
  0
ARC
  5
402
330
25
100
AcDbEntity
  8
2
100
AcDbCircle
 10
91.305951
 20
5.644091
 30
0.0
 40
1.0
100
AcDbArc
 50
281.107766
 51
107.438515
  0
LINE
  5
403
330
25
100
AcDbEntity
  8
2
100
AcDbLine
 10
91.49860600000002
 20
20.418031
 30
0.0
 11
82.044449
 21
18.26360799999999
 31
0.0
  0
LINE
  5
404
330
25
100
AcDbEntity
  8
2
100
AcDbLine
 10
91.00626899999999
 20
22.353337
 30
0.0
 11
81.44508499999998
 21
20.171686
 31
0.0
  0
LINE
  5
405
330
25
100
AcDbEntity
  8
2
100
AcDbLine
 10
81.48968899999999
 20
12.72509
 30
0.0
 11
87.702732
 21
11.086062
 31
0.0
  0
LINE
  5
406
330
25
100
AcDbEntity
  8
2
100
AcDbLine
 10
91.00626899999999
 20
17.649403
 30
0.0
 11
81.44508499999998
 21
14.64605
 31
0.0
  0
LINE
  5
407
330
25
100
AcDbEntity
  8
2
100
AcDbLine
 10
91.60563299999999
 20
15.741325
 30
0.0
 11
82.044449
 21
12.737972
 31
0.0
  0
ARC
  5
408
330
25
100
AcDbEntity
  8
2
100
AcDbCircle
 10
81.74476700000001
 20
19.217647
 30
0.0
 40
1.0
100
AcDbArc
 50
98.020858
 51
286.6206009999999
  0
LINE
  5
409
330
25
100
AcDbEntity
  8
2
100
AcDbLine
 10
81.48968899999999
 20
18.25072699999999
 30
0.0
 11
82.667908
 21
17.939907
 31
0.0
  0
ARC
  5
40A
330
25
100
AcDbEntity
  8
2
100
AcDbCircle
 10
81.74476700000001
 20
13.692011
 30
0.0
 40
1.0
100
AcDbArc
 50
107.438515
 51
286.6206009999999
  0
LINE
  5
40B
330
25
100
AcDbEntity
  8
2
100
AcDbLine
 10
90.66790799999999
 20
17.897894
 30
0.0
 11
91.561029
 21
17.662285
 31
0.0
  0
LINE
  5
40C
330
25
100
AcDbEntity
  8
2
100
AcDbLine
 10
85.347986
 20
13.775677
 30
0.0
 11
91.561029
 21
12.136648
 31
0.0
  0
ARC
  5
40D
330
25
100
AcDbEntity
  8
2
100
AcDbCircle
 10
91.305951
 20
16.695364
 30
0.0
 40
1.0
100
AcDbArc
 50
281.107766
 51
107.438515
  0
ARC
  5
40E
330
25
100
AcDbEntity
  8
2
100
AcDbCircle
 10
91.305951
 20
11.169728
 30
0.0
 40
1.0
100
AcDbArc
 50
281.107766
 51
107.438515
  0
ARC
  5
40F
330
25
100
AcDbEntity
  8
2
100
AcDbCircle
 10
91.305951
 20
21.399298
 30
0.0
 40
1.0
100
AcDbArc
 50
281.107766
 51
107.438515
  0
LINE
  5
410
330
25
100
AcDbEntity
  8
2
  6
CENTER
 62
     2
100
AcDbLine
 10
66.443483
 20
1.458736
 30
0.0
 11
106.766477
 21
1.458736
 31
0.0
  0
LINE
  5
411
330
25
100
AcDbEntity
  8
2
  6
CENTER
 62
     2
100
AcDbLine
 10
86.66790799999999
 20
-12.225919
 30
0.0
 11
57.30852900000001
 21
-12.225919
 31
0.0
  0
LINE
  5
412
330
25
100
AcDbEntity
  8
2
100
AcDbLine
 10
69.667908
 20
-17.225919
 30
0.0
 11
69.667908
 21
-7.225919
 31
0.0
  0
ARC
  5
413
330
25
100
AcDbEntity
  8
2
100
AcDbCircle
 10
90.66790799999999
 20
3.174165
 30
0.0
 40
1.0
100
AcDbArc
 50
0.0
 51
90.0
  0
ARC
  5
414
330
25
100
AcDbEntity
  8
2
100
AcDbCircle
 10
82.667908
 20
3.174165
 30
0.0
 40
1.0
100
AcDbArc
 50
90.0
 51
147.287273
  0
LINE
  5
415
330
25
100
AcDbEntity
  8
2
100
AcDbLine
 10
82.667908
 20
4.174165
 30
0.0
 11
83.28956899999999
 21
4.174165
 31
0.0
  0
LINE
  5
416
330
25
100
AcDbEntity
  8
2
100
AcDbLine
 10
91.66790799999999
 20
-14.934701
 30
0.0
 11
91.66790799999999
 21
-4.689771
 31
0.0
  0
LINE
  5
417
330
25
100
AcDbEntity
  8
2
100
AcDbLine
 10
81.66790799999999
 20
-30.512332
 30
0.0
 11
81.66790799999999
 21
-33.541264
 31
0.0
  0
ARC
  5
418
330
25
100
AcDbEntity
  8
2
100
AcDbCircle
 10
81.76790799999999
 20
5.458736
 30
0.0
 40
1.0
100
AcDbArc
 50
90.0
 51
180.0
  0
ARC
  5
419
330
25
100
AcDbEntity
  8
2
100
AcDbCircle
 10
91.56790800000001
 20
5.458736
 30
0.0
 40
1.0
100
AcDbArc
 50
0.0
 51
63.950626
  0
LINE
  5
41A
330
25
100
AcDbEntity
  8
2
100
AcDbLine
 10
92.567908
 20
5.458736
 30
0.0
 11
92.567908
 21
-29.612332
 31
0.0
  0
LINE
  5
41B
330
25
100
AcDbEntity
  8
2
100
AcDbLine
 10
80.76790799999999
 20
5.458736
 30
0.0
 11
80.76790799999999
 21
-29.612332
 31
0.0
  0
LINE
  5
41C
330
25
100
AcDbEntity
  8
2
100
AcDbLine
 10
92.567908
 20
-29.612332
 30
0.0
 11
91.66790799999999
 21
-30.512332
 31
0.0
  0
LINE
  5
41D
330
25
100
AcDbEntity
  8
2
100
AcDbLine
 10
81.66790799999999
 20
-30.512332
 30
0.0
 11
80.76790799999999
 21
-29.612332
 31
0.0
  0
LINE
  5
41E
330
25
100
AcDbEntity
  8
2
100
AcDbLine
 10
90.66790799999999
 20
-1.130141999999999
 30
0.0
 11
90.66790799999999
 21
-2.599015
 31
0.0
  0
ARC
  5
41F
330
25
100
AcDbEntity
  8
2
100
AcDbCircle
 10
86.66790799999999
 20
14.467693
 30
0.0
 40
14.567094
100
AcDbArc
 50
254.062329
 51
272.574998
  0
ARC
  5
420
330
25
100
AcDbEntity
  8
2
100
AcDbCircle
 10
86.67335200000001
 20
16.528304
 30
0.0
 40
15.364572
100
AcDbArc
 50
258.719715
 51
281.24576
  0
ARC
  5
421
330
25
100
AcDbEntity
  8
2
100
AcDbCircle
 10
86.66790799999999
 20
-9.081877
 30
0.0
 40
10.96096
100
AcDbArc
 50
74.115522
 51
105.884478
  0
LINE
  5
422
330
25
100
AcDbEntity
  8
2
100
AcDbLine
 10
90.283115
 20
0.8453370000000001
 30
0.0
 11
89.667908
 21
1.460544
 31
0.0
  0
LINE
  5
423
330
25
100
AcDbEntity
  8
2
100
AcDbLine
 10
83.667908
 20
1.460544
 30
0.0
 11
82.667908
 21
0.460544
 31
0.0
  0
LINE
  5
424
330
25
100
AcDbEntity
  8
2
100
AcDbLine
 10
82.667908
 20
0.460544
 30
0.0
 11
82.667908
 21
-1.546746999999999
 31
0.0
  0
ARC
  5
425
330
25
100
AcDbEntity
  8
2
100
AcDbCircle
 10
90.66790799999999
 20
-4.771577999999999
 30
0.0
 40
1.0
100
AcDbArc
 50
0.0
 51
90.0
  0
ARC
  5
426
330
25
100
AcDbEntity
  8
2
100
AcDbCircle
 10
82.667908
 20
-4.771577999999999
 30
0.0
 40
1.0
100
AcDbArc
 50
90.0
 51
180.0
  0
LINE
  5
427
330
25
100
AcDbEntity
  8
2
100
AcDbLine
 10
82.667908
 20
-3.771577999999999
 30
0.0
 11
90.66790799999999
 21
-3.771577999999999
 31
0.0
  0
LINE
  5
428
330
25
100
AcDbEntity
  8
2
100
AcDbLine
 10
90.66790799999999
 20
-3.771577999999999
 30
0.0
 11
82.667908
 21
-3.771577999999999
 31
0.0
  0
ARC
  5
429
330
25
100
AcDbEntity
  8
2
100
AcDbCircle
 10
82.667908
 20
-4.771577999999999
 30
0.0
 40
1.0
100
AcDbArc
 50
90.0
 51
180.0
  0
ARC
  5
42A
330
25
100
AcDbEntity
  8
2
100
AcDbCircle
 10
90.66790799999999
 20
-4.771577999999999
 30
0.0
 40
1.0
100
AcDbArc
 50
0.0
 51
90.0
  0
ARC
  5
42B
330
25
100
AcDbEntity
  8
2
100
AcDbCircle
 10
90.66790799999999
 20
-14.934701
 30
0.0
 40
1.0
100
AcDbArc
 50
270.0
 51
360.0
  0
ARC
  5
42C
330
25
100
AcDbEntity
  8
2
100
AcDbCircle
 10
82.667908
 20
-14.934701
 30
0.0
 40
1.0
100
AcDbArc
 50
180.0
 51
270.0
  0
LINE
  5
42D
330
25
100
AcDbEntity
  8
2
100
AcDbLine
 10
90.66790799999999
 20
-15.934701
 30
0.0
 11
82.667908
 21
-15.934701
 31
0.0
  0
LINE
  5
42E
330
25
100
AcDbEntity
  8
2
100
AcDbLine
 10
82.667908
 20
-15.934701
 30
0.0
 11
90.66790799999999
 21
-15.934701
 31
0.0
  0
ARC
  5
42F
330
25
100
AcDbEntity
  8
2
100
AcDbCircle
 10
82.667908
 20
-14.934701
 30
0.0
 40
1.0
100
AcDbArc
 50
180.0
 51
270.0
  0
ARC
  5
430
330
25
100
AcDbEntity
  8
2
100
AcDbCircle
 10
90.66790799999999
 20
-14.934701
 30
0.0
 40
1.0
100
AcDbArc
 50
270.0
 51
360.0
  0
ARC
  5
431
330
25
100
AcDbEntity
  8
2
100
AcDbCircle
 10
90.66790799999999
 20
-33.541264
 30
0.0
 40
1.0
100
AcDbArc
 50
270.0
 51
360.0
  0
ARC
  5
432
330
25
100
AcDbEntity
  8
2
100
AcDbCircle
 10
82.667908
 20
-33.541264
 30
0.0
 40
1.0
100
AcDbArc
 50
180.0
 51
270.0
  0
LINE
  5
433
330
25
100
AcDbEntity
  8
2
100
AcDbLine
 10
82.667908
 20
-34.541264
 30
0.0
 11
90.66790799999999
 21
-34.541264
 31
0.0
  0
LINE
  5
434
330
25
100
AcDbEntity
  8
2
100
AcDbLine
 10
90.66790799999999
 20
-34.541264
 30
0.0
 11
82.667908
 21
-34.541264
 31
0.0
  0
ARC
  5
435
330
25
100
AcDbEntity
  8
2
100
AcDbCircle
 10
82.667908
 20
-33.541264
 30
0.0
 40
1.0
100
AcDbArc
 50
180.0
 51
270.0
  0
ARC
  5
436
330
25
100
AcDbEntity
  8
2
100
AcDbCircle
 10
90.66790799999999
 20
-33.541264
 30
0.0
 40
1.0
100
AcDbArc
 50
270.0
 51
360.0
  0
LINE
  5
437
330
25
100
AcDbEntity
  8
2
100
AcDbLine
 10
91.66790799999999
 20
-33.541264
 30
0.0
 11
91.66790799999999
 21
-30.512332
 31
0.0
  0
LINE
  5
438
330
25
100
AcDbEntity
  8
2
100
AcDbLine
 10
81.66790799999999
 20
1.643695999999999
 30
0.0
 11
81.66790799999999
 21
-1.860865999999999
 31
0.0
  0
LINE
  5
439
330
25
100
AcDbEntity
  8
2
100
AcDbLine
 10
84.29751800000001
 20
6.458736
 30
0.0
 11
81.76790799999999
 21
6.458736
 31
0.0
  0
LINE
  5
43A
330
25
100
AcDbEntity
  8
2
100
AcDbLine
 10
89.963306
 20
4.174165
 30
0.0
 11
90.66790799999999
 21
4.174165
 31
0.0
  0
LINE
  5
43B
330
25
100
AcDbEntity
  8
2
100
AcDbLine
 10
82.667908
 20
-3.643097
 30
0.0
 11
82.667908
 21
-3.771577999999999
 31
0.0
  0
LINE
  5
43C
330
25
100
AcDbEntity
  8
2
100
AcDbLine
 10
81.66790799999999
 20
-3.88194
 30
0.0
 11
81.66790799999999
 21
-14.934701
 31
0.0
  0
LINE
  5
43D
330
25
100
AcDbEntity
  8
2
100
AcDbLine
 10
91.66790799999999
 20
-2.695686999999999
 30
0.0
 11
91.66790799999999
 21
-0.8137399999999999
 31
0.0
  0
LINE
  5
43E
330
25
100
AcDbEntity
  8
2
100
AcDbLine
 10
91.66790799999999
 20
1.05065
 30
0.0
 11
91.66790799999999
 21
3.174165
 31
0.0
  0
LINE
  5
43F
330
25
100
AcDbEntity
  8
2
100
AcDbLine
 10
161.667908
 20
-27.541264
 30
0.0
 11
161.667908
 21
-29.541264
 31
0.0
  0
LINE
  5
440
330
25
100
AcDbEntity
  8
2
100
AcDbLine
 10
146.531757
 20
-28.041264
 30
0.0
 11
146.531757
 21
-29.041264
 31
0.0
  0
LINE
  5
441
330
25
100
AcDbEntity
  8
2
100
AcDbLine
 10
144.935355
 20
-28.041264
 30
0.0
 11
144.935355
 21
-29.041264
 31
0.0
  0
LINE
  5
442
330
25
100
AcDbEntity
  8
2
100
AcDbLine
 10
141.582583
 20
-28.041264
 30
0.0
 11
141.582583
 21
-29.041264
 31
0.0
  0
LINE
  5
443
330
25
100
AcDbEntity
  8
2
100
AcDbLine
 10
136.576449
 20
-28.041264
 30
0.0
 11
136.576449
 21
-29.041264
 31
0.0
  0
LINE
  5
444
330
25
100
AcDbEntity
  8
2
100
AcDbLine
 10
130.069061
 20
-28.041264
 30
0.0
 11
130.069061
 21
-29.041264
 31
0.0
  0
LINE
  5
445
330
25
100
AcDbEntity
  8
2
100
AcDbLine
 10
122.258144
 20
-28.041264
 30
0.0
 11
122.258144
 21
-29.041264
 31
0.0
  0
LINE
  5
446
330
25
100
AcDbEntity
  8
2
100
AcDbLine
 10
113.381028
 20
-28.041264
 30
0.0
 11
113.381028
 21
-29.041264
 31
0.0
  0
LINE
  5
447
330
25
100
AcDbEntity
  8
2
100
AcDbLine
 10
61.667908
 20
-28.041264
 30
0.0
 11
61.667908
 21
-29.041264
 31
0.0
  0
LINE
  5
448
330
25
100
AcDbEntity
  8
2
100
AcDbLine
 10
36.66790800000001
 20
-27.541264
 30
0.0
 11
36.66790800000001
 21
-29.541264
 31
0.0
  0
LINE
  5
449
330
25
100
AcDbEntity
  8
2
100
AcDbLine
 10
143.859276
 20
-28.041264
 30
0.0
 11
143.859276
 21
-29.041264
 31
0.0
  0
LINE
  5
44A
330
25
100
AcDbEntity
  8
2
100
AcDbLine
 10
140.031831
 20
-28.041264
 30
0.0
 11
140.031831
 21
-29.041264
 31
0.0
  0
LINE
  5
44B
330
25
100
AcDbEntity
  8
2
100
AcDbLine
 10
134.583392
 20
-28.041264
 30
0.0
 11
134.583392
 21
-29.041264
 31
0.0
  0
LINE
  5
44C
330
25
100
AcDbEntity
  8
2
100
AcDbLine
 10
127.679509
 20
-28.041264
 30
0.0
 11
127.679509
 21
-29.041264
 31
0.0
  0
LINE
  5
44D
330
25
100
AcDbEntity
  8
2
100
AcDbLine
 10
119.52995
 20
-28.041264
 30
0.0
 11
119.52995
 21
-29.041264
 31
0.0
  0
LINE
  5
44E
330
25
100
AcDbEntity
  8
2
100
AcDbLine
 10
110.382338
 20
-28.041264
 30
0.0
 11
110.382338
 21
-29.041264
 31
0.0
  0
LINE
  5
44F
330
25
100
AcDbEntity
  8
2
100
AcDbLine
 10
103.721522
 20
-28.041264
 30
0.0
 11
103.721522
 21
-29.041264
 31
0.0
  0
LINE
  5
450
330
25
100
AcDbEntity
  8
2
100
AcDbLine
 10
100.514617
 20
-28.041264
 30
0.0
 11
100.514617
 21
-29.041264
 31
0.0
  0
ARC
  5
451
330
25
100
AcDbEntity
  8
2
100
AcDbCircle
 10
146.031757
 20
-28.041264
 30
0.0
 40
0.5
100
AcDbArc
 50
0.0
 51
90.0
  0
ARC
  5
452
330
25
100
AcDbEntity
  8
2
100
AcDbCircle
 10
146.031757
 20
-29.041264
 30
0.0
 40
0.5
100
AcDbArc
 50
270.0
 51
360.0
  0
ARC
  5
453
330
25
100
AcDbEntity
  8
2
100
AcDbCircle
 10
144.435355
 20
-28.041264
 30
0.0
 40
0.5
100
AcDbArc
 50
0.0
 51
90.0
  0
ARC
  5
454
330
25
100
AcDbEntity
  8
2
100
AcDbCircle
 10
144.435355
 20
-29.041264
 30
0.0
 40
0.5
100
AcDbArc
 50
270.0
 51
360.0
  0
ARC
  5
455
330
25
100
AcDbEntity
  8
2
100
AcDbCircle
 10
143.359276
 20
-28.041264
 30
0.0
 40
0.5
100
AcDbArc
 50
0.0
 51
90.0
  0
ARC
  5
456
330
25
100
AcDbEntity
  8
2
100
AcDbCircle
 10
143.359276
 20
-29.041264
 30
0.0
 40
0.5
100
AcDbArc
 50
270.0
 51
360.0
  0
ARC
  5
457
330
25
100
AcDbEntity
  8
2
100
AcDbCircle
 10
141.082583
 20
-29.041264
 30
0.0
 40
0.5
100
AcDbArc
 50
270.0
 51
360.0
  0
ARC
  5
458
330
25
100
AcDbEntity
  8
2
100
AcDbCircle
 10
141.082583
 20
-28.041264
 30
0.0
 40
0.5
100
AcDbArc
 50
0.0
 51
90.0
  0
ARC
  5
459
330
25
100
AcDbEntity
  8
2
100
AcDbCircle
 10
139.531831
 20
-28.041264
 30
0.0
 40
0.5
100
AcDbArc
 50
0.0
 51
90.0
  0
ARC
  5
45A
330
25
100
AcDbEntity
  8
2
100
AcDbCircle
 10
139.531831
 20
-29.041264
 30
0.0
 40
0.5
100
AcDbArc
 50
270.0
 51
360.0
  0
ARC
  5
45B
330
25
100
AcDbEntity
  8
2
100
AcDbCircle
 10
136.076449
 20
-28.041264
 30
0.0
 40
0.5
100
AcDbArc
 50
0.0
 51
90.0
  0
ARC
  5
45C
330
25
100
AcDbEntity
  8
2
100
AcDbCircle
 10
136.076449
 20
-29.041264
 30
0.0
 40
0.5
100
AcDbArc
 50
270.0
 51
360.0
  0
ARC
  5
45D
330
25
100
AcDbEntity
  8
2
100
AcDbCircle
 10
134.083392
 20
-28.041264
 30
0.0
 40
0.5
100
AcDbArc
 50
0.0
 51
90.0
  0
ARC
  5
45E
330
25
100
AcDbEntity
  8
2
100
AcDbCircle
 10
134.083392
 20
-29.041264
 30
0.0
 40
0.5
100
AcDbArc
 50
270.0
 51
360.0
  0
ARC
  5
45F
330
25
100
AcDbEntity
  8
2
100
AcDbCircle
 10
129.569061
 20
-28.041264
 30
0.0
 40
0.5
100
AcDbArc
 50
0.0
 51
90.0
  0
ARC
  5
460
330
25
100
AcDbEntity
  8
2
100
AcDbCircle
 10
129.569061
 20
-29.041264
 30
0.0
 40
0.5
100
AcDbArc
 50
270.0
 51
360.0
  0
ARC
  5
461
330
25
100
AcDbEntity
  8
2
100
AcDbCircle
 10
127.179509
 20
-28.041264
 30
0.0
 40
0.5
100
AcDbArc
 50
0.0
 51
90.0
  0
ARC
  5
462
330
25
100
AcDbEntity
  8
2
100
AcDbCircle
 10
127.179509
 20
-29.041264
 30
0.0
 40
0.5
100
AcDbArc
 50
270.0
 51
360.0
  0
ARC
  5
463
330
25
100
AcDbEntity
  8
2
100
AcDbCircle
 10
121.758144
 20
-28.041264
 30
0.0
 40
0.5
100
AcDbArc
 50
0.0
 51
90.0
  0
ARC
  5
464
330
25
100
AcDbEntity
  8
2
100
AcDbCircle
 10
121.758144
 20
-29.041264
 30
0.0
 40
0.5
100
AcDbArc
 50
270.0
 51
360.0
  0
ARC
  5
465
330
25
100
AcDbEntity
  8
2
100
AcDbCircle
 10
119.02995
 20
-28.041264
 30
0.0
 40
0.5
100
AcDbArc
 50
0.0
 51
90.0
  0
ARC
  5
466
330
25
100
AcDbEntity
  8
2
100
AcDbCircle
 10
119.02995
 20
-29.041264
 30
0.0
 40
0.5
100
AcDbArc
 50
270.0
 51
360.0
  0
ARC
  5
467
330
25
100
AcDbEntity
  8
2
100
AcDbCircle
 10
112.881028
 20
-28.041264
 30
0.0
 40
0.5
100
AcDbArc
 50
0.0
 51
90.0
  0
ARC
  5
468
330
25
100
AcDbEntity
  8
2
100
AcDbCircle
 10
112.881028
 20
-29.041264
 30
0.0
 40
0.5
100
AcDbArc
 50
270.0
 51
360.0
  0
ARC
  5
469
330
25
100
AcDbEntity
  8
2
100
AcDbCircle
 10
109.882338
 20
-28.041264
 30
0.0
 40
0.5
100
AcDbArc
 50
0.0
 51
90.0
  0
ARC
  5
46A
330
25
100
AcDbEntity
  8
2
100
AcDbCircle
 10
109.882338
 20
-29.041264
 30
0.0
 40
0.5
100
AcDbArc
 50
270.0
 51
360.0
  0
ARC
  5
46B
330
25
100
AcDbEntity
  8
2
100
AcDbCircle
 10
103.221522
 20
-29.041264
 30
0.0
 40
0.5
100
AcDbArc
 50
270.0
 51
360.0
  0
ARC
  5
46C
330
25
100
AcDbEntity
  8
2
100
AcDbCircle
 10
103.221522
 20
-28.041264
 30
0.0
 40
0.5
100
AcDbArc
 50
0.0
 51
90.0
  0
ARC
  5
46D
330
25
100
AcDbEntity
  8
2
100
AcDbCircle
 10
100.014617
 20
-28.041264
 30
0.0
 40
0.5
100
AcDbArc
 50
0.0
 51
90.0
  0
ARC
  5
46E
330
25
100
AcDbEntity
  8
2
100
AcDbCircle
 10
100.014617
 20
-29.041264
 30
0.0
 40
0.5
100
AcDbArc
 50
270.0
 51
360.0
  0
ARC
  5
46F
330
25
100
AcDbEntity
  8
2
100
AcDbCircle
 10
62.167908
 20
-28.041264
 30
0.0
 40
0.5
100
AcDbArc
 50
90.0
 51
180.0
  0
ARC
  5
470
330
25
100
AcDbEntity
  8
2
100
AcDbCircle
 10
62.167908
 20
-29.041264
 30
0.0
 40
0.5
100
AcDbArc
 50
180.0
 51
270.0
  0
LINE
  5
471
330
25
100
AcDbEntity
  8
2
100
AcDbLine
 10
79.667908
 20
-28.041264
 30
0.0
 11
79.667908
 21
-29.041264
 31
0.0
  0
ARC
  5
472
330
25
100
AcDbEntity
  8
2
100
AcDbCircle
 10
79.167908
 20
-28.041264
 30
0.0
 40
0.5
100
AcDbArc
 50
0.0
 51
90.0
  0
LINE
  5
473
330
25
100
AcDbEntity
  8
2
100
AcDbLine
 10
161.667908
 20
-27.541264
 30
0.0
 11
92.567908
 21
-27.541264
 31
0.0
  0
ARC
  5
474
330
25
100
AcDbEntity
  8
2
100
AcDbCircle
 10
79.167908
 20
-29.041264
 30
0.0
 40
0.5
100
AcDbArc
 50
270.0
 51
360.0
  0
LINE
  5
475
330
25
100
AcDbEntity
  8
2
100
AcDbLine
 10
161.667908
 20
-29.541264
 30
0.0
 11
92.567908
 21
-29.541264
 31
0.0
  0
LINE
  5
476
330
25
100
AcDbEntity
  8
2
100
AcDbLine
 10
80.76790799999999
 20
-27.541264
 30
0.0
 11
36.66790800000001
 21
-27.541264
 31
0.0
  0
ARC
  5
477
330
25
100
AcDbEntity
  8
2
100
AcDbCircle
 10
93.249487
 20
-29.041264
 30
0.0
 40
0.5
100
AcDbArc
 50
270.0
 51
360.0
  0
ARC
  5
478
330
25
100
AcDbEntity
  8
2
100
AcDbCircle
 10
93.249487
 20
-28.041264
 30
0.0
 40
0.5
100
AcDbArc
 50
0.0
 51
90.0
  0
LINE
  5
479
330
25
100
AcDbEntity
  8
2
100
AcDbLine
 10
93.749487
 20
-28.041264
 30
0.0
 11
93.749487
 21
-29.041264
 31
0.0
  0
LINE
  5
47A
330
25
100
AcDbEntity
  8
2
100
AcDbLine
 10
80.76790799999999
 20
-29.541264
 30
0.0
 11
36.66790800000001
 21
-29.541264
 31
0.0
  0
LINE
  5
47B
330
25
100
AcDbEntity
  8
2
100
AcDbLine
 10
60.66790799999999
 20
-12.225919
 30
0.0
 11
60.66790799999999
 21
-9.766918999999999
 31
0.0
  0
LINE
  5
47C
330
25
100
AcDbEntity
  8
2
100
AcDbLine
 10
60.66790799999999
 20
-9.766918999999999
 30
0.0
 11
61.20890799999999
 21
-9.225919000000001
 31
0.0
  0
LINE
  5
47D
330
25
100
AcDbEntity
  8
2
100
AcDbLine
 10
61.20890799999999
 20
-9.225919000000001
 30
0.0
 11
64.686836
 21
-9.225919000000001
 31
0.0
  0
LINE
  5
47E
330
25
100
AcDbEntity
  8
2
100
AcDbLine
 10
61.20890799999999
 20
-9.225919000000001
 30
0.0
 11
61.20890799999999
 21
-12.225919
 31
0.0
  0
LINE
  5
47F
330
25
100
AcDbEntity
  8
2
100
AcDbLine
 10
60.66790799999999
 20
-12.225919
 30
0.0
 11
60.66790799999999
 21
-14.684919
 31
0.0
  0
LINE
  5
480
330
25
100
AcDbEntity
  8
2
100
AcDbLine
 10
60.66790799999999
 20
-14.684919
 30
0.0
 11
61.20890799999999
 21
-15.225919
 31
0.0
  0
LINE
  5
481
330
25
100
AcDbEntity
  8
2
100
AcDbLine
 10
61.20890799999999
 20
-15.225919
 30
0.0
 11
64.686836
 21
-15.225919
 31
0.0
  0
LINE
  5
482
330
25
100
AcDbEntity
  8
2
100
AcDbLine
 10
61.20890799999999
 20
-15.225919
 30
0.0
 11
61.20890799999999
 21
-12.225919
 31
0.0
  0
POINT
  5
483
330
25
100
AcDbEntity
  8
2
100
AcDbPoint
 10
69.667908
 20
-12.225919
 30
0.0
  0
LINE
  5
484
330
25
100
AcDbEntity
  8
2
100
AcDbLine
 10
69.667908
 20
-12.225919
 30
0.0
 11
69.667908
 21
-17.225919
 31
0.0
  0
LINE
  5
485
330
25
100
AcDbEntity
  8
2
100
AcDbLine
 10
69.667908
 20
-17.225919
 30
0.0
 11
65.15865500000001
 21
-17.225919
 31
0.0
  0
LINE
  5
486
330
25
100
AcDbEntity
  8
2
100
AcDbLine
 10
64.667908
 20
-14.725919
 30
0.0
 11
64.667908
 21
-12.225919
 31
0.0
  0
LINE
  5
487
330
25
100
AcDbEntity
  8
2
100
AcDbLine
 10
69.667908
 20
-12.225919
 30
0.0
 11
65.15865500000001
 21
-12.225919
 31
0.0
  0
ARC
  5
488
330
25
100
AcDbEntity
  8
2
100
AcDbCircle
 10
71.281115
 20
-14.725919
 30
0.0
 40
6.613208
100
AcDbArc
 50
157.788205
 51
202.211795
  0
LINE
  5
489
330
25
100
AcDbEntity
  8
2
100
AcDbLine
 10
69.667908
 20
-12.225919
 30
0.0
 11
69.667908
 21
-7.225919
 31
0.0
  0
LINE
  5
48A
330
25
100
AcDbEntity
  8
2
100
AcDbLine
 10
69.667908
 20
-7.225919
 30
0.0
 11
65.15865500000001
 21
-7.225919
 31
0.0
  0
LINE
  5
48B
330
25
100
AcDbEntity
  8
2
100
AcDbLine
 10
64.667908
 20
-9.725919000000001
 30
0.0
 11
64.667908
 21
-12.225919
 31
0.0
  0
LINE
  5
48C
330
25
100
AcDbEntity
  8
2
100
AcDbLine
 10
69.667908
 20
-12.225919
 30
0.0
 11
65.15865500000001
 21
-12.225919
 31
0.0
  0
ARC
  5
48D
330
25
100
AcDbEntity
  8
2
100
AcDbCircle
 10
71.281115
 20
-9.725919000000001
 30
0.0
 40
6.613208
100
AcDbArc
 50
157.788205
 51
202.211795
  0
LINE
  5
48E
330
25
100
AcDbEntity
  8
2
 62
     2
100
AcDbLine
 10
60.66790799999999
 20
-14.684919
 30
0.0
 11
64.667908
 21
-14.684919
 31
0.0
  0
LINE
  5
48F
330
25
100
AcDbEntity
  8
2
 62
     2
100
AcDbLine
 10
60.66790799999999
 20
-9.766918999999999
 30
0.0
 11
64.667908
 21
-9.766918999999999
 31
0.0
  0
POINT
  5
490
330
25
100
AcDbEntity
  8
2
100
AcDbPoint
 10
111.416645
 20
-27.541264
 30
0.0
  0
LINE
  5
491
330
25
100
AcDbEntity
  8
2
  6
CENTER
 62
     2
100
AcDbLine
 10
111.416645
 20
-55.59986
 30
0.0
 11
111.416645
 21
-18.449551
 31
0.0
  0
LINE
  5
492
330
25
100
AcDbEntity
  8
2
100
AcDbLine
 10
111.416645
 20
-27.541264
 30
0.0
 11
104.916645
 21
-27.541264
 31
0.0
  0
LINE
  5
493
330
25
100
AcDbEntity
  8
2
100
AcDbLine
 10
104.916645
 20
-27.541264
 30
0.0
 11
104.916645
 21
-22.762952
 31
0.0
  0
LINE
  5
494
330
25
100
AcDbEntity
  8
2
100
AcDbLine
 10
108.166645
 20
-22.041264
 30
0.0
 11
111.416645
 21
-22.041264
 31
0.0
  0
LINE
  5
495
330
25
100
AcDbEntity
  8
2
100
AcDbLine
 10
111.416645
 20
-27.541264
 30
0.0
 11
111.416645
 21
-22.762952
 31
0.0
  0
ARC
  5
496
330
25
100
AcDbEntity
  8
2
100
AcDbCircle
 10
108.166645
 20
-29.720023
 30
0.0
 40
7.678758999999999
100
AcDbArc
 50
64.96034
 51
115.03966
  0
LINE
  5
497
330
25
100
AcDbEntity
  8
2
100
AcDbLine
 10
111.416645
 20
-52.541264
 30
0.0
 11
108.093145
 21
-52.541264
 31
0.0
  0
LINE
  5
498
330
25
100
AcDbEntity
  8
2
100
AcDbLine
 10
108.093145
 20
-52.541264
 30
0.0
 11
107.416645
 21
-51.864764
 31
0.0
  0
LINE
  5
499
330
25
100
AcDbEntity
  8
2
100
AcDbLine
 10
107.416645
 20
-51.864764
 30
0.0
 11
107.416645
 21
-50.00455
 31
0.0
  0
LINE
  5
49A
330
25
100
AcDbEntity
  8
2
100
AcDbLine
 10
107.416645
 20
-51.864764
 30
0.0
 11
111.416645
 21
-51.864764
 31
0.0
  0
LINE
  5
49B
330
25
100
AcDbEntity
  8
2
 62
     2
100
AcDbLine
 10
108.093145
 20
-52.541264
 30
0.0
 11
108.093145
 21
-50.040913
 31
0.0
  0
LINE
  5
49C
330
25
100
AcDbEntity
  8
2
100
AcDbLine
 10
111.416645
 20
-27.541264
 30
0.0
 11
117.916645
 21
-27.541264
 31
0.0
  0
LINE
  5
49D
330
25
100
AcDbEntity
  8
2
100
AcDbLine
 10
117.916645
 20
-27.541264
 30
0.0
 11
117.916645
 21
-22.762952
 31
0.0
  0
LINE
  5
49E
330
25
100
AcDbEntity
  8
2
100
AcDbLine
 10
114.666645
 20
-22.041264
 30
0.0
 11
111.416645
 21
-22.041264
 31
0.0
  0
LINE
  5
49F
330
25
100
AcDbEntity
  8
2
100
AcDbLine
 10
111.416645
 20
-27.541264
 30
0.0
 11
111.416645
 21
-22.762952
 31
0.0
  0
ARC
  5
4A0
330
25
100
AcDbEntity
  8
2
100
AcDbCircle
 10
114.666645
 20
-29.720023
 30
0.0
 40
7.678758999999999
100
AcDbArc
 50
64.96034
 51
115.03966
  0
LINE
  5
4A1
330
25
100
AcDbEntity
  8
2
100
AcDbLine
 10
111.416645
 20
-52.541264
 30
0.0
 11
114.740145
 21
-52.541264
 31
0.0
  0
LINE
  5
4A2
330
25
100
AcDbEntity
  8
2
100
AcDbLine
 10
114.740145
 20
-52.541264
 30
0.0
 11
115.416645
 21
-51.864764
 31
0.0
  0
LINE
  5
4A3
330
25
100
AcDbEntity
  8
2
100
AcDbLine
 10
115.416645
 20
-51.864764
 30
0.0
 11
115.416645
 21
-50.00455
 31
0.0
  0
LINE
  5
4A4
330
25
100
AcDbEntity
  8
2
100
AcDbLine
 10
115.416645
 20
-51.864764
 30
0.0
 11
111.416645
 21
-51.864764
 31
0.0
  0
LINE
  5
4A5
330
25
100
AcDbEntity
  8
2
 62
     2
100
AcDbLine
 10
114.740145
 20
-52.541264
 30
0.0
 11
114.740145
 21
-50.040913
 31
0.0
  0
POINT
  5
4A6
330
25
100
AcDbEntity
  8
2
100
AcDbPoint
 10
111.416645
 20
-41.54126399999999
 30
0.0
  0
POINT
  5
4A7
330
25
100
AcDbEntity
  8
2
100
AcDbPoint
 10
111.416645
 20
-41.54126399999999
 30
0.0
  0
LINE
  5
4A8
330
25
100
AcDbEntity
  8
2
100
AcDbLine
 10
111.247399
 20
-43.541264
 30
0.0
 11
117.916645
 21
-43.541264
 31
0.0
  0
LINE
  5
4A9
330
25
100
AcDbEntity
  8
2
100
AcDbLine
 10
117.916645
 20
-43.541264
 30
0.0
 11
117.916645
 21
-49.319576
 31
0.0
  0
LINE
  5
4AA
330
25
100
AcDbEntity
  8
2
100
AcDbLine
 10
114.666645
 20
-50.041264
 30
0.0
 11
111.416645
 21
-50.041264
 31
0.0
  0
LINE
  5
4AB
330
25
100
AcDbEntity
  8
2
100
AcDbLine
 10
111.416645
 20
-43.63992399999999
 30
0.0
 11
111.416645
 21
-49.319576
 31
0.0
  0
ARC
  5
4AC
330
25
100
AcDbEntity
  8
2
100
AcDbCircle
 10
114.666645
 20
-42.36250599999999
 30
0.0
 40
7.678758999999999
100
AcDbArc
 50
244.96034
 51
295.03966
  0
LINE
  5
4AD
330
25
100
AcDbEntity
  8
2
100
AcDbLine
 10
108.166645
 20
-50.041264
 30
0.0
 11
111.416645
 21
-50.041264
 31
0.0
  0
LINE
  5
4AE
330
25
100
AcDbEntity
  8
2
100
AcDbLine
 10
111.416645
 20
-43.541264
 30
0.0
 11
111.416645
 21
-49.319576
 31
0.0
  0
ARC
  5
4AF
330
25
100
AcDbEntity
  8
2
100
AcDbCircle
 10
108.166645
 20
-42.36250599999999
 30
0.0
 40
7.678758999999999
100
AcDbArc
 50
244.96034
 51
295.03966
  0
LINE
  5
4B0
330
25
100
AcDbEntity
  8
2
100
AcDbLine
 10
119.116645
 20
-41.54126399999999
 30
0.0
 11
119.116645
 21
-43.541264
 31
0.0
  0
LINE
  5
4B1
330
25
100
AcDbEntity
  8
2
100
AcDbLine
 10
119.116645
 20
-43.541264
 30
0.0
 11
110.377837
 21
-43.541264
 31
0.0
  0
LINE
  5
4B2
330
25
100
AcDbEntity
  8
2
100
AcDbLine
 10
103.716645
 20
-41.54126399999999
 30
0.0
 11
119.116645
 21
-41.54126399999999
 31
0.0
  0
POINT
  5
4B3
330
25
100
AcDbEntity
  8
2
100
AcDbPoint
 10
61.919171
 20
-27.541264
 30
0.0
  0
LINE
  5
4B4
330
25
100
AcDbEntity
  8
2
  6
CENTER
 62
     2
100
AcDbLine
 10
61.919171
 20
-55.59986
 30
0.0
 11
61.919171
 21
-18.449551
 31
0.0
  0
LINE
  5
4B5
330
25
100
AcDbEntity
  8
2
100
AcDbLine
 10
61.919171
 20
-27.541264
 30
0.0
 11
68.41917099999999
 21
-27.541264
 31
0.0
  0
LINE
  5
4B6
330
25
100
AcDbEntity
  8
2
100
AcDbLine
 10
68.41917099999999
 20
-27.541264
 30
0.0
 11
68.41917099999999
 21
-22.762952
 31
0.0
  0
LINE
  5
4B7
330
25
100
AcDbEntity
  8
2
100
AcDbLine
 10
65.16917099999999
 20
-22.041264
 30
0.0
 11
61.919171
 21
-22.041264
 31
0.0
  0
LINE
  5
4B8
330
25
100
AcDbEntity
  8
2
100
AcDbLine
 10
61.919171
 20
-27.541264
 30
0.0
 11
61.919171
 21
-22.762952
 31
0.0
  0
ARC
  5
4B9
330
25
100
AcDbEntity
  8
2
100
AcDbCircle
 10
65.16917099999999
 20
-29.720023
 30
0.0
 40
7.678758999999999
100
AcDbArc
 50
64.96034
 51
115.03966
  0
LINE
  5
4BA
330
25
100
AcDbEntity
  8
2
100
AcDbLine
 10
61.919171
 20
-52.541264
 30
0.0
 11
65.242671
 21
-52.541264
 31
0.0
  0
LINE
  5
4BB
330
25
100
AcDbEntity
  8
2
100
AcDbLine
 10
65.242671
 20
-52.541264
 30
0.0
 11
65.91917099999999
 21
-51.864764
 31
0.0
  0
LINE
  5
4BC
330
25
100
AcDbEntity
  8
2
100
AcDbLine
 10
65.91917099999999
 20
-51.864764
 30
0.0
 11
65.91917099999999
 21
-50.00455
 31
0.0
  0
LINE
  5
4BD
330
25
100
AcDbEntity
  8
2
100
AcDbLine
 10
65.91917099999999
 20
-51.864764
 30
0.0
 11
61.919171
 21
-51.864764
 31
0.0
  0
LINE
  5
4BE
330
25
100
AcDbEntity
  8
2
 62
     2
100
AcDbLine
 10
65.242671
 20
-52.541264
 30
0.0
 11
65.242671
 21
-50.040913
 31
0.0
  0
LINE
  5
4BF
330
25
100
AcDbEntity
  8
2
100
AcDbLine
 10
61.919171
 20
-27.541264
 30
0.0
 11
55.419171
 21
-27.541264
 31
0.0
  0
LINE
  5
4C0
330
25
100
AcDbEntity
  8
2
100
AcDbLine
 10
55.419171
 20
-27.541264
 30
0.0
 11
55.419171
 21
-22.762952
 31
0.0
  0
LINE
  5
4C1
330
25
100
AcDbEntity
  8
2
100
AcDbLine
 10
58.669171
 20
-22.041264
 30
0.0
 11
61.919171
 21
-22.041264
 31
0.0
  0
LINE
  5
4C2
330
25
100
AcDbEntity
  8
2
100
AcDbLine
 10
61.919171
 20
-27.541264
 30
0.0
 11
61.919171
 21
-22.762952
 31
0.0
  0
ARC
  5
4C3
330
25
100
AcDbEntity
  8
2
100
AcDbCircle
 10
58.669171
 20
-29.720023
 30
0.0
 40
7.678758999999999
100
AcDbArc
 50
64.96034
 51
115.03966
  0
LINE
  5
4C4
330
25
100
AcDbEntity
  8
2
100
AcDbLine
 10
61.919171
 20
-52.541264
 30
0.0
 11
58.59567099999999
 21
-52.541264
 31
0.0
  0
LINE
  5
4C5
330
25
100
AcDbEntity
  8
2
100
AcDbLine
 10
58.59567099999999
 20
-52.541264
 30
0.0
 11
57.919171
 21
-51.864764
 31
0.0
  0
LINE
  5
4C6
330
25
100
AcDbEntity
  8
2
100
AcDbLine
 10
57.919171
 20
-51.864764
 30
0.0
 11
57.919171
 21
-50.00455
 31
0.0
  0
LINE
  5
4C7
330
25
100
AcDbEntity
  8
2
100
AcDbLine
 10
57.919171
 20
-51.864764
 30
0.0
 11
61.919171
 21
-51.864764
 31
0.0
  0
LINE
  5
4C8
330
25
100
AcDbEntity
  8
2
 62
     2
100
AcDbLine
 10
58.59567099999999
 20
-52.541264
 30
0.0
 11
58.59567099999999
 21
-50.040913
 31
0.0
  0
POINT
  5
4C9
330
25
100
AcDbEntity
  8
2
100
AcDbPoint
 10
61.919171
 20
-41.54126399999999
 30
0.0
  0
POINT
  5
4CA
330
25
100
AcDbEntity
  8
2
100
AcDbPoint
 10
61.919171
 20
-41.54126399999999
 30
0.0
  0
LINE
  5
4CB
330
25
100
AcDbEntity
  8
2
100
AcDbLine
 10
61.919171
 20
-43.541264
 30
0.0
 11
55.419171
 21
-43.541264
 31
0.0
  0
LINE
  5
4CC
330
25
100
AcDbEntity
  8
2
100
AcDbLine
 10
55.419171
 20
-43.541264
 30
0.0
 11
55.419171
 21
-49.319576
 31
0.0
  0
LINE
  5
4CD
330
25
100
AcDbEntity
  8
2
100
AcDbLine
 10
58.669171
 20
-50.041264
 30
0.0
 11
61.919171
 21
-50.041264
 31
0.0
  0
LINE
  5
4CE
330
25
100
AcDbEntity
  8
2
100
AcDbLine
 10
61.919171
 20
-43.541264
 30
0.0
 11
61.919171
 21
-49.319576
 31
0.0
  0
ARC
  5
4CF
330
25
100
AcDbEntity
  8
2
100
AcDbCircle
 10
58.669171
 20
-42.36250599999999
 30
0.0
 40
7.678758999999999
100
AcDbArc
 50
244.96034
 51
295.03966
  0
LINE
  5
4D0
330
25
100
AcDbEntity
  8
2
100
AcDbLine
 10
61.919171
 20
-43.541264
 30
0.0
 11
68.41917099999999
 21
-43.541264
 31
0.0
  0
LINE
  5
4D1
330
25
100
AcDbEntity
  8
2
100
AcDbLine
 10
68.41917099999999
 20
-43.541264
 30
0.0
 11
68.41917099999999
 21
-49.319576
 31
0.0
  0
LINE
  5
4D2
330
25
100
AcDbEntity
  8
2
100
AcDbLine
 10
65.16917099999999
 20
-50.041264
 30
0.0
 11
61.919171
 21
-50.041264
 31
0.0
  0
LINE
  5
4D3
330
25
100
AcDbEntity
  8
2
100
AcDbLine
 10
61.919171
 20
-43.541264
 30
0.0
 11
61.919171
 21
-49.319576
 31
0.0
  0
ARC
  5
4D4
330
25
100
AcDbEntity
  8
2
100
AcDbCircle
 10
65.16917099999999
 20
-42.36250599999999
 30
0.0
 40
7.678758999999999
100
AcDbArc
 50
244.96034
 51
295.03966
  0
LINE
  5
4D5
330
25
100
AcDbEntity
  8
2
100
AcDbLine
 10
54.21917099999999
 20
-41.54126399999999
 30
0.0
 11
54.21917099999999
 21
-43.541264
 31
0.0
  0
LINE
  5
4D6
330
25
100
AcDbEntity
  8
2
100
AcDbLine
 10
54.21917099999999
 20
-43.541264
 30
0.0
 11
69.61917099999999
 21
-43.541264
 31
0.0
  0
LINE
  5
4D7
330
25
100
AcDbEntity
  8
2
100
AcDbLine
 10
69.61917099999999
 20
-43.541264
 30
0.0
 11
69.61917099999999
 21
-41.54126399999999
 31
0.0
  0
LINE
  5
4D8
330
25
100
AcDbEntity
  8
2
100
AcDbLine
 10
69.61917099999999
 20
-41.54126399999999
 30
0.0
 11
54.21917099999999
 21
-41.54126399999999
 31
0.0
  0
LINE
  5
4D9
330
25
100
AcDbEntity
  8
2
100
AcDbLine
 10
104.916645
 20
-47.90381899999999
 30
0.0
 11
104.916645
 21
-49.319576
 31
0.0
  0
LINE
  5
4DA
330
25
100
AcDbEntity
  8
2
100
AcDbLine
 10
-260.090896
 20
-49.203194
 30
0.0
 11
-260.090896
 21
-49.319635
 31
0.0
  0
LINE
  5
4DB
330
25
100
AcDbEntity
  8
2
100
AcDbLine
 10
-292.841921
 20
-29.541323
 30
0.0
 11
-292.841921
 21
-27.541323
 31
0.0
  0
DIMENSION
  5
4DC
330
25
100
AcDbEntity
  8
5
100
AcDbDimension
  2
*D0
 10
-323.633148
 20
235.24296
 30
0.0
 11
-329.253148
 21
199.72296
 31
0.0
  1
75
 71
     5
 42
-1.0
100
AcDbAlignedDimension
 13
-308.422
 23
160.24296
 33
0.0
 14
-257.842159
 24
235.24296
 34
0.0
 50
90.0
100
AcDbRotatedDimension
  0
DIMENSION
  5
4DD
330
25
100
AcDbEntity
  8
5
100
AcDbDimension
  2
*D1
 10
-323.633148
 20
160.24296
 30
0.0
 11
-329.253148
 21
137.22296
 31
0.0
  1
50
 71
     5
 42
-1.0
100
AcDbAlignedDimension
 13
-242.842159
 23
110.24296
 33
0.0
 14
-308.422
 24
160.24296
 34
0.0
 50
90.0
100
AcDbRotatedDimension
  0
TEXT
  5
4DE
330
25
100
AcDbEntity
  8
5
100
AcDbText
 10
-149.84131
 20
53.47683
 30
0.0
 40
6.599999999999999
  1
200
 41
0.7077777777777778
 72
     5
 11
-137.82931
 21
53.47683
 31
0.0
100
AcDbText
  0
DIMENSION
  5
4DF
330
25
100
AcDbEntity
  8
5
100
AcDbDimension
  2
*D2
 10
-42.980699
 20
52.47683000000001
 30
0.0
 11
-142.91131
 21
54.47683000000001
 31
0.0
 71
     5
 42
-1.0
100
AcDbAlignedDimension
 13
-242.841921
 23
4.832536
 33
0.0
 14
-42.980699
 24
29.178993
 34
0.0
100
AcDbRotatedDimension
  0
DIMENSION
  5
4E0
330
25
100
AcDbEntity
  8
5
100
AcDbDimension
  2
*D3
 10
3.368317999999999
 20
-29.541264
 30
0.0
 11
-4.561682
 21
-95.871294
 31
0.0
  1
132
 71
     5
 42
-1.0
100
AcDbAlignedDimension
 13
53.19435099999999
 23
-161.541323
 33
0.0
 14
36.66790800000001
 24
-29.541264
 34
0.0
 50
90.0
100
AcDbRotatedDimension
  0
TEXT
  5
4E1
330
25
100
AcDbEntity
  8
5
100
AcDbText
 10
2.368317999999999
 20
-8.002577
 30
0.0
 40
6.599999999999999
  1
66(概略)
 50
90.0
 41
1.00287250285621
 72
     5
 11
2.368317999999999
 21
27.109422
 31
0.0
100
AcDbText
  0
DIMENSION
  5
4E2
330
25
100
AcDbEntity
  8
5
100
AcDbDimension
  2
*D4
 10
3.368317999999999
 20
36.63610999999999
 30
0.0
 11
0.868318
 21
3.547423
 31
0.0
 71
     5
 42
-1.0
100
AcDbAlignedDimension
 13
36.66790800000001
 23
-29.541264
 33
0.0
 14
86.66790799999999
 24
36.63610999999999
 34
0.0
 50
90.0
100
AcDbRotatedDimension
  0
TEXT
  5
4E3
330
25
100
AcDbEntity
  8
5
100
AcDbText
 10
2.368317999999999
 20
-196.111323
 30
0.0
 40
6.599999999999999
  1
61
 50
90.0
 41
0.9407999999999995
 72
     5
 11
2.368317999999999
 21
-188.719323
 31
0.0
100
AcDbText
  0
DIMENSION
  5
4E4
330
25
100
AcDbEntity
  8
5
100
AcDbDimension
  2
*D5
 10
3.368317999999999
 20
-161.541323
 30
0.0
 11
0.868318
 21
-191.491323
 31
0.0
 71
     5
 42
-1.0
100
AcDbAlignedDimension
 13
81.66790799999999
 23
-221.441323
 33
0.0
 14
53.19435099999999
 24
-161.541323
 34
0.0
 50
90.0
100
AcDbRotatedDimension
  0
DIMENSION
  5
4E5
330
25
100
AcDbEntity
  8
5
100
AcDbDimension
  2
*D6
 10
104.167908
 20
-243.987503
 30
0.0
 11
86.66790799999999
 21
-239.687503
 31
0.0
  1
35
 71
     5
 42
-1.0
100
AcDbAlignedDimension
 13
69.167908
 23
-200.541323
 33
0.0
 14
104.167908
 24
-200.541323
 34
0.0
100
AcDbRotatedDimension
  0
TEXT
  5
4E6
330
25
100
AcDbEntity
  8
18
100
AcDbText
 10
244.289261
 20
-266.527985
 30
0.0
 40
6.0
  1
1
100
AcDbText
  0
TEXT
  5
4E7
330
25
100
AcDbEntity
  8
18
100
AcDbText
 10
253.082458
 20
-274.202026
 30
0.0
 40
6.0
  1
2
100
AcDbText
  0
TEXT
  5
4E8
330
25
100
AcDbEntity
  8
18
100
AcDbText
 10
245.708481
 20
-254.070526
 30
0.0
 40
6.0
  1
標準仕様　JIS 5K,10K
100
AcDbText
  0
TEXT
  5
4E9
330
25
100
AcDbEntity
  8
18
100
AcDbText
 10
307.2
 20
-272.0
 30
0.0
 40
10.0
  1
D3－03670
100
AcDbText
  0
TEXT
  5
4EA
330
25
100
AcDbEntity
  8
18
100
AcDbText
 10
245.708481
 20
-246.070526
 30
0.0
 40
6.0
  1
700G－1TLS   40A
100
AcDbText
  0
TEXT
  5
4EB
330
25
100
AcDbEntity
  8
18
100
AcDbText
 10
363.297424
 20
-254.40094
 30
0.0
 40
4.5
  1
'05. 3.30
100
AcDbText
  0
LINE
  5
4EC
330
25
100
AcDbEntity
  8
20
 62
     3
100
AcDbLine
 10
-360.0
 20
-277.0
 30
0.0
 11
400.0
 21
-277.0
 31
0.0
  0
LINE
  5
4ED
330
25
100
AcDbEntity
  8
20
 62
     3
100
AcDbLine
 10
-360.0
 20
264.0
 30
0.0
 11
400.0
 21
264.0
 31
0.0
  0
LINE
  5
4EE
330
25
100
AcDbEntity
  8
20
 62
     3
100
AcDbLine
 10
-360.0
 20
264.0
 30
0.0
 11
-360.0
 21
-277.0
 31
0.0
  0
LINE
  5
4EF
330
25
100
AcDbEntity
  8
20
 62
     3
100
AcDbLine
 10
400.0
 20
264.0
 30
0.0
 11
400.0
 21
-277.0
 31
0.0
  0
LINE
  5
4F0
330
25
100
AcDbEntity
  8
20
 62
     3
100
AcDbLine
 10
120.0
 20
-277.0
 30
0.0
 11
120.0
 21
-237.0
 31
0.0
  0
LINE
  5
4F1
330
25
100
AcDbEntity
  8
20
 62
     3
100
AcDbLine
 10
214.0
 20
-277.0
 30
0.0
 11
214.0
 21
-237.0
 31
0.0
  0
LINE
  5
4F2
330
25
100
AcDbEntity
  8
20
100
AcDbLine
 10
214.0
 20
-257.0
 30
0.0
 11
400.0
 21
-257.0
 31
0.0
  0
LINE
  5
4F3
330
25
100
AcDbEntity
  8
20
 62
     3
100
AcDbLine
 10
120.0
 20
-237.0
 30
0.0
 11
400.0
 21
-237.0
 31
0.0
  0
LINE
  5
4F4
330
25
100
AcDbEntity
  8
20
100
AcDbLine
 10
360.0
 20
-257.0
 30
0.0
 11
360.0
 21
-237.0
 31
0.0
  0
LINE
  5
4F5
330
25
100
AcDbEntity
  8
20
100
AcDbLine
 10
360.0
 20
-247.0
 30
0.0
 11
400.0
 21
-247.0
 31
0.0
  0
LINE
  5
4F6
330
25
100
AcDbEntity
  8
20
100
AcDbLine
 10
242.0
 20
-277.0
 30
0.0
 11
242.0
 21
-237.0
 31
0.0
  0
LINE
  5
4F7
330
25
100
AcDbEntity
  8
20
100
AcDbLine
 10
262.0
 20
-277.0
 30
0.0
 11
262.0
 21
-257.0
 31
0.0
  0
LINE
  5
4F8
330
25
100
AcDbEntity
  8
20
100
AcDbLine
 10
302.0
 20
-277.0
 30
0.0
 11
302.0
 21
-257.0
 31
0.0
  0
LINE
  5
4F9
330
25
100
AcDbEntity
  8
20
100
AcDbLine
 10
247.456829
 20
-271.543171
 30
0.0
 11
255.796581
 21
-263.203419
 31
0.0
  0
TEXT
  5
4FA
330
25
100
AcDbEntity
  8
20
100
AcDbText
 10
264.5534753710411
 20
-264.993835
 30
0.0
 40
3.6
  1
DRAWING No.
100
AcDbText
  0
TEXT
  5
4FB
330
25
100
AcDbEntity
  8
20
100
AcDbText
 10
267.0
 20
-273.0
 30
0.0
 40
6.0
  1
図　　番
100
AcDbText
  0
TEXT
  5
4FC
330
25
100
AcDbEntity
  8
20
100
AcDbText
 10
372.0
 20
-244.0
 30
0.0
 40
4.0
  1
DATE
100
AcDbText
  0
TEXT
  5
4FD
330
25
100
AcDbEntity
  8
20
100
AcDbText
 10
218.002142
 20
-265.922058
 30
0.0
 40
4.0
  1
SCALE
100
AcDbText
  0
TEXT
  5
4FE
330
25
100
AcDbEntity
  8
20
100
AcDbText
 10
216.5302217772524
 20
-273.0
 30
0.0
 40
6.0
  1
尺　度
100
AcDbText
  0
TEXT
  5
4FF
330
25
100
AcDbEntity
  8
20
100
AcDbText
 10
216.0625855545047
 20
-244.991769
 30
0.0
 40
4.0
  1
FIG. No.
100
AcDbText
  0
TEXT
  5
500
330
25
100
AcDbEntity
  8
20
100
AcDbText
 10
216.5302217772524
 20
-253.0
 30
0.0
 40
6.0
  1
名　称
100
AcDbText
  0
TEXT
  5
501
330
25
100
AcDbEntity
  8
20
100
AcDbText
 10
127.22859544319
 20
-252.940506
 30
0.0
 40
4.599999999999999
  1
TOMOE VALVE Co., LTD.
100
AcDbText
  0
TEXT
  5
502
330
25
100
AcDbEntity
  8
20
100
AcDbText
 10
130.7582282795874
 20
-266.57962
 30
0.0
 40
8.0
  1
巴バルブ株式会社
100
AcDbText
  0
ENDSEC
  0
SECTION
  2
OBJECTS
  0
DICTIONARY
  5
554
330
0
100
AcDbDictionary
281
     1
  3
ACAD_COLOR
350
58B
  3
ACAD_GROUP
350
555
  3
ACAD_LAYOUT
350
5B3
  3
ACAD_MATERIAL
350
561
  3
ACAD_MLEADERSTYLE
350
5B0
  3
ACAD_MLINESTYLE
350
556
  3
ACAD_PLOTSETTINGS
350
5B4
  3
ACAD_PLOTSTYLENAME
350
55F
  3
ACAD_SCALELIST
350
58E
  3
ACAD_TABLESTYLE
350
58C
  3
ACAD_VISUALSTYLE
350
57A
  3
ACDB_RECOMPOSE_DATA
350
5CE
  3
AcDbVariableDictionary
350
5C5
  3
DWGPROPS
350
5CF
  0
DICTIONARY
  5
5B9
330
15
100
AcDbDictionary
280
     1
281
     1
  3
ADSK_XREC_LAYER_RECONCILED
360
5BA
  0
DICTIONARY
  5
5BB
330
16
100
AcDbDictionary
280
     1
281
     1
  3
ADSK_XREC_LAYER_RECONCILED
360
5BC
  0
DICTIONARY
  5
5BD
330
17
100
AcDbDictionary
280
     1
281
     1
  3
ADSK_XREC_LAYER_RECONCILED
360
5BE
  0
DICTIONARY
  5
5BF
330
18
100
AcDbDictionary
280
     1
281
     1
  3
ADSK_XREC_LAYER_RECONCILED
360
5C0
  0
DICTIONARY
  5
5C1
330
19
100
AcDbDictionary
280
     1
281
     1
  3
ADSK_XREC_LAYER_RECONCILED
360
5C2
  0
DICTIONARY
  5
5C3
330
1A
100
AcDbDictionary
280
     1
281
     1
  3
ADSK_XREC_LAYER_RECONCILED
360
5C4
  0
DICTIONARY
  5
58B
102
{ACAD_REACTORS
330
554
102
}
330
554
100
AcDbDictionary
281
     1
  0
DICTIONARY
  5
555
102
{ACAD_REACTORS
330
554
102
}
330
554
100
AcDbDictionary
281
     1
  0
DICTIONARY
  5
5B3
102
{ACAD_REACTORS
330
554
102
}
330
554
100
AcDbDictionary
281
     1
  3
Model
350
5B5
  3
レイアウト1
350
5B6
  0
DICTIONARY
  5
561
102
{ACAD_REACTORS
330
554
102
}
330
554
100
AcDbDictionary
281
     1
  3
ByBlock
350
56A
  3
ByLayer
350
562
  3
Global
350
572
  0
DICTIONARY
  5
5B0
102
{ACAD_REACTORS
330
554
102
}
330
554
100
AcDbDictionary
281
     1
  3
Standard
350
5B1
  0
DICTIONARY
  5
556
102
{ACAD_REACTORS
330
554
102
}
330
554
100
AcDbDictionary
281
     1
  3
STANDARD
350
557
  0
DICTIONARY
  5
5B4
102
{ACAD_REACTORS
330
554
102
}
330
554
100
AcDbDictionary
281
     1
  0
ACDBDICTIONARYWDFLT
  5
55F
102
{ACAD_REACTORS
330
554
102
}
330
554
100
AcDbDictionary
281
     1
  3
Normal
350
560
100
AcDbDictionaryWithDefault
340
560
  0
DICTIONARY
  5
58E
102
{ACAD_REACTORS
330
554
102
}
330
554
100
AcDbDictionary
281
     1
  3
A0
350
58F
  3
A1
350
590
  3
A2
350
591
  3
A3
350
592
  3
A4
350
593
  3
A5
350
594
  3
A6
350
595
  3
A7
350
596
  3
A8
350
597
  3
A9
350
598
  3
B0
350
599
  3
B1
350
59A
  3
B2
350
59B
  3
B3
350
59C
  3
B4
350
59D
  3
B5
350
59E
  3
B6
350
59F
  3
B7
350
5A0
  3
B8
350
5A1
  3
B9
350
5A2
  3
C0
350
5A3
  3
C1
350
5A4
  3
C2
350
5A5
  3
C3
350
5A6
  3
C4
350
5A7
  3
C5
350
5A8
  3
C6
350
5A9
  3
C7
350
5AA
  3
C8
350
5AB
  3
C9
350
5AC
  3
D0
350
5AD
  3
D1
350
5AE
  3
D2
350
5AF
  0
DICTIONARY
  5
58C
102
{ACAD_REACTORS
330
554
102
}
330
554
100
AcDbDictionary
281
     1
  3
Standard
350
58D
  0
DICTIONARY
  5
57A
102
{ACAD_REACTORS
330
554
102
}
330
554
100
AcDbDictionary
281
     1
  3
2dWireframe
350
580
  3
3D Hidden
350
582
  3
3dWireframe
350
581
  3
Basic
350
57F
  3
Brighten
350
586
  3
ColorChange
350
58A
  3
Conceptual
350
583
  3
Dim
350
585
  3
Facepattern
350
589
  3
Flat
350
57B
  3
FlatWithEdges
350
57C
  3
Gouraud
350
57D
  3
GouraudWithEdges
350
57E
  3
Linepattern
350
588
  3
Realistic
350
584
  3
Thicken
350
587
  0
XRECORD
  5
5CE
102
{ACAD_REACTORS
330
554
102
}
330
554
100
AcDbXrecord
280
     1
 90
        1
330
58D
  0
DICTIONARY
  5
5C5
102
{ACAD_REACTORS
330
554
102
}
330
554
100
AcDbDictionary
281
     1
  3
CANNOSCALE
350
5C8
  3
CMLEADERSTYLE
350
5C7
  3
CTABLESTYLE
350
5C6
  3
DIMASSOC
350
5CB
  3
INDEXCTL
350
5CA
  3
SORTENTS
350
5C9
  0
XRECORD
  5
5CF
102
{ACAD_REACTORS
330
554
102
}
330
554
100
AcDbXrecord
280
     1
  1
DWGPROPS COOKIE
  2

  3

  4

  6

  7

  8
jaterika-arisa
  9

300
=
301
=
302
=
303
=
304
=
305
=
306
=
307
=
308
=
309
=
 40
0.0026953935185185
 41
2450695.0
 42
2454943.650852581
  1

 90
        0
  0
XRECORD
  5
5BA
102
{ACAD_REACTORS
330
5B9
102
}
330
5B9
100
AcDbXrecord
280
     1
290
     1
  0
XRECORD
  5
5BC
102
{ACAD_REACTORS
330
5BB
102
}
330
5BB
100
AcDbXrecord
280
     1
290
     1
  0
XRECORD
  5
5BE
102
{ACAD_REACTORS
330
5BD
102
}
330
5BD
100
AcDbXrecord
280
     1
290
     1
  0
XRECORD
  5
5C0
102
{ACAD_REACTORS
330
5BF
102
}
330
5BF
100
AcDbXrecord
280
     1
290
     1
  0
XRECORD
  5
5C2
102
{ACAD_REACTORS
330
5C1
102
}
330
5C1
100
AcDbXrecord
280
     1
290
     1
  0
XRECORD
  5
5C4
102
{ACAD_REACTORS
330
5C3
102
}
330
5C3
100
AcDbXrecord
280
     1
290
     1
  0
LAYOUT
  5
5B5
102
{ACAD_XDICTIONARY
360
5D4
102
}
102
{ACAD_REACTORS
330
5B3
102
}
330
5B3
100
AcDbPlotSettings
  1

  2
EMP01
  4

  6

 40
0.0
 41
0.0
 42
0.0
 43
0.0
 44
0.0
 45
0.0
 46
0.0
 47
0.0
 48
0.0
 49
0.0
140
0.0
141
0.0
142
1.0
143
1.0
 70
  1712
 72
     0
 73
     0
 74
     0
  7

 75
     0
147
1.0
148
0.0
149
0.0
100
AcDbLayout
  1
Model
 70
     1
 71
     0
 10
0.0
 20
0.0
 11
12.0
 21
9.0
 12
0.0
 22
0.0
 32
0.0
 14
0.0
 24
0.0
 34
0.0
 15
0.0
 25
0.0
 35
0.0
146
0.0
 13
0.0
 23
0.0
 33
0.0
 16
1.0
 26
0.0
 36
0.0
 17
0.0
 27
1.0
 37
0.0
 76
     0
330
25
331
1B
  0
LAYOUT
  5
5B6
102
{ACAD_XDICTIONARY
360
5D6
102
}
102
{ACAD_REACTORS
330
5B3
102
}
330
5B3
100
AcDbPlotSettings
  1

  2
EMP01
  4

  6

 40
0.0
 41
0.0
 42
0.0
 43
0.0
 44
0.0
 45
0.0
 46
0.0
 47
0.0
 48
0.0
 49
0.0
140
0.0
141
0.0
142
1.0
143
1.0
 70
   688
 72
     0
 73
     0
 74
     5
  7

 75
    16
147
1.0
148
0.0
149
0.0
100
AcDbLayout
  1
レイアウト1
 70
     0
 71
     1
 10
0.0
 20
0.0
 11
12.0
 21
9.0
 12
0.0
 22
0.0
 32
0.0
 14
1.000000000000000E+20
 24
1.000000000000000E+20
 34
1.000000000000000E+20
 15
-1.000000000000000E+20
 25
-1.000000000000000E+20
 35
-1.000000000000000E+20
146
0.0
 13
0.0
 23
0.0
 33
0.0
 16
1.0
 26
0.0
 36
0.0
 17
0.0
 27
1.0
 37
0.0
 76
     0
330
26
  0
MATERIAL
  5
56A
102
{ACAD_XDICTIONARY
360
56B
102
}
102
{ACAD_REACTORS
330
561
102
}
330
561
100
AcDbMaterial
  1
ByBlock
 72
     0
 43
0.0208333333333333
 43
0.0
 43
0.0
 43
0.0
 43
0.0
 43
0.0208333333333333
 43
0.0
 43
0.0
 43
0.0
 43
0.0
 43
1.0
 43
0.0
 43
0.0
 43
0.0
 43
0.0
 43
1.0
 77
     0
 47
0.0208333333333333
 47
0.0
 47
0.0
 47
0.0
 47
0.0
 47
0.0208333333333333
 47
0.0
 47
0.0
 47
0.0
 47
0.0
 47
1.0
 47
0.0
 47
0.0
 47
0.0
 47
0.0
 47
1.0
171
     0
 49
0.0208333333333333
 49
0.0
 49
0.0
 49
0.0
 49
0.0
 49
0.0208333333333333
 49
0.0
 49
0.0
 49
0.0
 49
0.0
 49
1.0
 49
0.0
 49
0.0
 49
0.0
 49
0.0
 49
1.0
175
     0
142
0.0208333333333333
142
0.0
142
0.0
142
0.0
142
0.0
142
0.0208333333333333
142
0.0
142
0.0
142
0.0
142
0.0
142
1.0
142
0.0
142
0.0
142
0.0
142
0.0
142
1.0
179
     0
144
0.0208333333333333
144
0.0
144
0.0
144
0.0
144
0.0
144
0.0208333333333333
144
0.0
144
0.0
144
0.0
144
0.0
144
1.0
144
0.0
144
0.0
144
0.0
144
0.0
144
1.0
147
0.0208333333333333
147
0.0
147
0.0
147
0.0
147
0.0
147
0.0208333333333333
147
0.0
147
0.0
147
0.0
147
0.0
147
1.0
147
0.0
147
0.0
147
0.0
147
0.0
147
1.0
  0
MATERIAL
  5
562
102
{ACAD_XDICTIONARY
360
563
102
}
102
{ACAD_REACTORS
330
561
102
}
330
561
100
AcDbMaterial
  1
ByLayer
 72
     0
 43
0.0208333333333333
 43
0.0
 43
0.0
 43
0.0
 43
0.0
 43
0.0208333333333333
 43
0.0
 43
0.0
 43
0.0
 43
0.0
 43
1.0
 43
0.0
 43
0.0
 43
0.0
 43
0.0
 43
1.0
 77
     0
 47
0.0208333333333333
 47
0.0
 47
0.0
 47
0.0
 47
0.0
 47
0.0208333333333333
 47
0.0
 47
0.0
 47
0.0
 47
0.0
 47
1.0
 47
0.0
 47
0.0
 47
0.0
 47
0.0
 47
1.0
171
     0
 49
0.0208333333333333
 49
0.0
 49
0.0
 49
0.0
 49
0.0
 49
0.0208333333333333
 49
0.0
 49
0.0
 49
0.0
 49
0.0
 49
1.0
 49
0.0
 49
0.0
 49
0.0
 49
0.0
 49
1.0
175
     0
142
0.0208333333333333
142
0.0
142
0.0
142
0.0
142
0.0
142
0.0208333333333333
142
0.0
142
0.0
142
0.0
142
0.0
142
1.0
142
0.0
142
0.0
142
0.0
142
0.0
142
1.0
179
     0
144
0.0208333333333333
144
0.0
144
0.0
144
0.0
144
0.0
144
0.0208333333333333
144
0.0
144
0.0
144
0.0
144
0.0
144
1.0
144
0.0
144
0.0
144
0.0
144
0.0
144
1.0
147
0.0208333333333333
147
0.0
147
0.0
147
0.0
147
0.0
147
0.0208333333333333
147
0.0
147
0.0
147
0.0
147
0.0
147
1.0
147
0.0
147
0.0
147
0.0
147
0.0
147
1.0
  0
MATERIAL
  5
572
102
{ACAD_XDICTIONARY
360
573
102
}
102
{ACAD_REACTORS
330
561
102
}
330
561
100
AcDbMaterial
  1
Global
 72
     0
 43
0.0208333333333333
 43
0.0
 43
0.0
 43
0.0
 43
0.0
 43
0.0208333333333333
 43
0.0
 43
0.0
 43
0.0
 43
0.0
 43
1.0
 43
0.0
 43
0.0
 43
0.0
 43
0.0
 43
1.0
 77
     0
 47
0.0208333333333333
 47
0.0
 47
0.0
 47
0.0
 47
0.0
 47
0.0208333333333333
 47
0.0
 47
0.0
 47
0.0
 47
0.0
 47
1.0
 47
0.0
 47
0.0
 47
0.0
 47
0.0
 47
1.0
171
     0
 49
0.0208333333333333
 49
0.0
 49
0.0
 49
0.0
 49
0.0
 49
0.0208333333333333
 49
0.0
 49
0.0
 49
0.0
 49
0.0
 49
1.0
 49
0.0
 49
0.0
 49
0.0
 49
0.0
 49
1.0
175
     0
142
0.0208333333333333
142
0.0
142
0.0
142
0.0
142
0.0
142
0.0208333333333333
142
0.0
142
0.0
142
0.0
142
0.0
142
1.0
142
0.0
142
0.0
142
0.0
142
0.0
142
1.0
179
     0
144
0.0208333333333333
144
0.0
144
0.0
144
0.0
144
0.0
144
0.0208333333333333
144
0.0
144
0.0
144
0.0
144
0.0
144
1.0
144
0.0
144
0.0
144
0.0
144
0.0
144
1.0
147
0.0208333333333333
147
0.0
147
0.0
147
0.0
147
0.0
147
0.0208333333333333
147
0.0
147
0.0
147
0.0
147
0.0
147
1.0
147
0.0
147
0.0
147
0.0
147
0.0
147
1.0
  0
MLEADERSTYLE
  5
5B1
102
{ACAD_REACTORS
330
5B0
102
}
330
5B0
100
AcDbMLeaderStyle
170
     2
171
     1
172
     0
 90
        2
 40
0.0
 41
0.0
173
     1
 91
-1056964608
340
C
 92
       -2
290
     1
 42
0.09
291
     1
 43
0.36
  3
Standard
 44
0.18
300

342
1D
174
     1
178
     6
175
     1
176
     0
 93
-1056964608
 45
0.18
292
     0
297
     0
 46
0.18
 94
-1056964608
 47
1.0
 49
1.0
140
1.0
293
     1
141
0.0
294
     1
177
     0
142
1.0
295
     0
296
     0
143
0.125
1001
ACAD_MLEADERVER
1070
     2
  0
MLINESTYLE
  5
557
102
{ACAD_REACTORS
330
556
102
}
330
556
100
AcDbMlineStyle
  2
STANDARD
 70
     0
  3

 62
     0
 51
90.0
 52
90.0
 71
     2
 49
0.5
 62
   256
  6
BYLAYER
 49
-0.5
 62
   256
  6
BYLAYER
  0
ACDBPLACEHOLDER
  5
560
102
{ACAD_REACTORS
330
55F
102
}
330
55F
  0
SCALE
  5
58F
102
{ACAD_REACTORS
330
58E
102
}
330
58E
100
AcDbScale
 70
     0
300
1:1
140
1.0
141
1.0
290
     1
  0
SCALE
  5
590
102
{ACAD_REACTORS
330
58E
102
}
330
58E
100
AcDbScale
 70
     0
300
1:2
140
1.0
141
2.0
290
     0
  0
SCALE
  5
591
102
{ACAD_REACTORS
330
58E
102
}
330
58E
100
AcDbScale
 70
     0
300
1:4
140
1.0
141
4.0
290
     0
  0
SCALE
  5
592
102
{ACAD_REACTORS
330
58E
102
}
330
58E
100
AcDbScale
 70
     0
300
1:5
140
1.0
141
5.0
290
     0
  0
SCALE
  5
593
102
{ACAD_REACTORS
330
58E
102
}
330
58E
100
AcDbScale
 70
     0
300
1:8
140
1.0
141
8.0
290
     0
  0
SCALE
  5
594
102
{ACAD_REACTORS
330
58E
102
}
330
58E
100
AcDbScale
 70
     0
300
1:10
140
1.0
141
10.0
290
     0
  0
SCALE
  5
595
102
{ACAD_REACTORS
330
58E
102
}
330
58E
100
AcDbScale
 70
     0
300
1:16
140
1.0
141
16.0
290
     0
  0
SCALE
  5
596
102
{ACAD_REACTORS
330
58E
102
}
330
58E
100
AcDbScale
 70
     0
300
1:20
140
1.0
141
20.0
290
     0
  0
SCALE
  5
597
102
{ACAD_REACTORS
330
58E
102
}
330
58E
100
AcDbScale
 70
     0
300
1:30
140
1.0
141
30.0
290
     0
  0
SCALE
  5
598
102
{ACAD_REACTORS
330
58E
102
}
330
58E
100
AcDbScale
 70
     0
300
1:40
140
1.0
141
40.0
290
     0
  0
SCALE
  5
599
102
{ACAD_REACTORS
330
58E
102
}
330
58E
100
AcDbScale
 70
     0
300
1:50
140
1.0
141
50.0
290
     0
  0
SCALE
  5
59A
102
{ACAD_REACTORS
330
58E
102
}
330
58E
100
AcDbScale
 70
     0
300
1:100
140
1.0
141
100.0
290
     0
  0
SCALE
  5
59B
102
{ACAD_REACTORS
330
58E
102
}
330
58E
100
AcDbScale
 70
     0
300
2:1
140
2.0
141
1.0
290
     0
  0
SCALE
  5
59C
102
{ACAD_REACTORS
330
58E
102
}
330
58E
100
AcDbScale
 70
     0
300
4:1
140
4.0
141
1.0
290
     0
  0
SCALE
  5
59D
102
{ACAD_REACTORS
330
58E
102
}
330
58E
100
AcDbScale
 70
     0
300
8:1
140
8.0
141
1.0
290
     0
  0
SCALE
  5
59E
102
{ACAD_REACTORS
330
58E
102
}
330
58E
100
AcDbScale
 70
     0
300
10:1
140
10.0
141
1.0
290
     0
  0
SCALE
  5
59F
102
{ACAD_REACTORS
330
58E
102
}
330
58E
100
AcDbScale
 70
     0
300
100:1
140
100.0
141
1.0
290
     0
  0
SCALE
  5
5A0
102
{ACAD_REACTORS
330
58E
102
}
330
58E
100
AcDbScale
 70
     0
300
1/128" = 1'-0"
140
0.0078125
141
12.0
290
     0
  0
SCALE
  5
5A1
102
{ACAD_REACTORS
330
58E
102
}
330
58E
100
AcDbScale
 70
     0
300
1/64" = 1'-0"
140
0.015625
141
12.0
290
     0
  0
SCALE
  5
5A2
102
{ACAD_REACTORS
330
58E
102
}
330
58E
100
AcDbScale
 70
     0
300
1/32" = 1'-0"
140
0.03125
141
12.0
290
     0
  0
SCALE
  5
5A3
102
{ACAD_REACTORS
330
58E
102
}
330
58E
100
AcDbScale
 70
     0
300
1/16" = 1'-0"
140
0.0625
141
12.0
290
     0
  0
SCALE
  5
5A4
102
{ACAD_REACTORS
330
58E
102
}
330
58E
100
AcDbScale
 70
     0
300
3/32" = 1'-0"
140
0.09375
141
12.0
290
     0
  0
SCALE
  5
5A5
102
{ACAD_REACTORS
330
58E
102
}
330
58E
100
AcDbScale
 70
     0
300
1/8" = 1'-0"
140
0.125
141
12.0
290
     0
  0
SCALE
  5
5A6
102
{ACAD_REACTORS
330
58E
102
}
330
58E
100
AcDbScale
 70
     0
300
3/16" = 1'-0"
140
0.1875
141
12.0
290
     0
  0
SCALE
  5
5A7
102
{ACAD_REACTORS
330
58E
102
}
330
58E
100
AcDbScale
 70
     0
300
1/4" = 1'-0"
140
0.25
141
12.0
290
     0
  0
SCALE
  5
5A8
102
{ACAD_REACTORS
330
58E
102
}
330
58E
100
AcDbScale
 70
     0
300
3/8" = 1'-0"
140
0.375
141
12.0
290
     0
  0
SCALE
  5
5A9
102
{ACAD_REACTORS
330
58E
102
}
330
58E
100
AcDbScale
 70
     0
300
1/2" = 1'-0"
140
0.5
141
12.0
290
     0
  0
SCALE
  5
5AA
102
{ACAD_REACTORS
330
58E
102
}
330
58E
100
AcDbScale
 70
     0
300
3/4" = 1'-0"
140
0.75
141
12.0
290
     0
  0
SCALE
  5
5AB
102
{ACAD_REACTORS
330
58E
102
}
330
58E
100
AcDbScale
 70
     0
300
1" = 1'-0"
140
1.0
141
12.0
290
     0
  0
SCALE
  5
5AC
102
{ACAD_REACTORS
330
58E
102
}
330
58E
100
AcDbScale
 70
     0
300
1-1/2" = 1'-0"
140
1.5
141
12.0
290
     0
  0
SCALE
  5
5AD
102
{ACAD_REACTORS
330
58E
102
}
330
58E
100
AcDbScale
 70
     0
300
3" = 1'-0"
140
3.0
141
12.0
290
     0
  0
SCALE
  5
5AE
102
{ACAD_REACTORS
330
58E
102
}
330
58E
100
AcDbScale
 70
     0
300
6" = 1'-0"
140
6.0
141
12.0
290
     0
  0
SCALE
  5
5AF
102
{ACAD_REACTORS
330
58E
102
}
330
58E
100
AcDbScale
 70
     0
300
1'-0" = 1'-0"
140
12.0
141
12.0
290
     0
  0
TABLESTYLE
  5
58D
102
{ACAD_XDICTIONARY
360
5CC
102
}
102
{ACAD_REACTORS
330
58C
102
}
330
58C
100
AcDbTableStyle
  3
Standard
 70
     0
 71
     0
 40
0.06
 41
0.06
280
     0
281
     0
  7
STANDARD
140
0.18
170
     2
 62
     0
 63
     7
283
     0
274
    -2
284
     1
 64
     0
275
    -2
285
     1
 65
     0
276
    -2
286
     1
 66
     0
277
    -2
287
     1
 67
     0
278
    -2
288
     1
 68
     0
279
    -2
289
     1
 69
     0
  7
STANDARD
140
0.25
170
     5
 62
     0
 63
     7
283
     0
274
    -2
284
     1
 64
     0
275
    -2
285
     1
 65
     0
276
    -2
286
     1
 66
     0
277
    -2
287
     1
 67
     0
278
    -2
288
     1
 68
     0
279
    -2
289
     1
 69
     0
  7
STANDARD
140
0.18
170
     5
 62
     0
 63
     7
283
     0
274
    -2
284
     1
 64
     0
275
    -2
285
     1
 65
     0
276
    -2
286
     1
 66
     0
277
    -2
287
     1
 67
     0
278
    -2
288
     1
 68
     0
279
    -2
289
     1
 69
     0
  0
VISUALSTYLE
  5
580
102
{ACAD_REACTORS
330
57A
102
}
330
57A
100
AcDbVisualStyle
  2
2dWireframe
 70
     4
 71
     0
 72
     2
 73
     0
 90
        0
 40
-0.6
 41
-30.0
 62
     5
 63
     7
 74
     1
 91
        4
 64
     7
 65
   257
 75
     1
175
     1
 42
1.0
 92
        0
 66
   257
 43
1.0
 76
     1
 77
     6
 78
     2
 67
     7
 79
     5
170
     0
171
     0
290
     0
174
     0
 93
        1
 44
0.0
173
     0
291
     0
 45
0.0
1001
ACAD
1000
AcDbSavedByObjectVersion
1070
     0
  0
VISUALSTYLE
  5
582
102
{ACAD_REACTORS
330
57A
102
}
330
57A
100
AcDbVisualStyle
  2
3D Hidden
 70
     6
 71
     1
 72
     2
 73
     2
 90
        0
 40
-0.6
 41
-30.0
 62
     5
 63
     7
 74
     2
 91
        2
 64
     7
 65
   257
 75
     2
175
     1
 42
40.0
 92
        0
 66
   257
 43
1.0
 76
     1
 77
     6
 78
     2
 67
     7
 79
     3
170
     0
171
     0
290
     0
174
     0
 93
        1
 44
0.0
173
     0
291
     0
 45
0.0
1001
ACAD
1000
AcDbSavedByObjectVersion
1070
     0
  0
VISUALSTYLE
  5
581
102
{ACAD_REACTORS
330
57A
102
}
330
57A
100
AcDbVisualStyle
  2
3dWireframe
 70
     5
 71
     0
 72
     2
 73
     0
 90
        0
 40
-0.6
 41
-30.0
 62
     5
 63
     7
 74
     1
 91
        4
 64
     7
 65
   257
 75
     1
175
     1
 42
1.0
 92
        0
 66
   257
 43
1.0
 76
     1
 77
     6
 78
     2
 67
     7
 79
     5
170
     0
171
     0
290
     0
174
     0
 93
        1
 44
0.0
173
     0
291
     0
 45
0.0
1001
ACAD
1000
AcDbSavedByObjectVersion
1070
     0
  0
VISUALSTYLE
  5
57F
102
{ACAD_REACTORS
330
57A
102
}
330
57A
100
AcDbVisualStyle
  2
Basic
 70
     7
 71
     1
 72
     0
 73
     1
 90
        0
 40
-0.6
 41
-30.0
 62
     5
 63
     7
 74
     0
 91
        4
 64
     7
 65
   257
 75
     1
175
     1
 42
1.0
 92
        8
 66
     7
 43
1.0
 76
     1
 77
     6
 78
     2
 67
     7
 79
     5
170
     0
171
     0
290
     0
174
     0
 93
        1
 44
0.0
173
     0
291
     1
 45
0.0
1001
ACAD
1000
AcDbSavedByObjectVersion
1070
     0
  0
VISUALSTYLE
  5
586
102
{ACAD_REACTORS
330
57A
102
}
330
57A
100
AcDbVisualStyle
  2
Brighten
 70
    12
 71
     2
 72
     2
 73
     0
 90
        0
 40
-0.6
 41
-30.0
 62
     5
 63
     7
 74
     1
 91
        4
 64
     7
 65
   257
 75
     1
175
     1
 42
1.0
 92
        8
 66
     7
 43
1.0
 76
     1
 77
     6
 78
     2
 67
     7
 79
     5
170
     0
171
     0
290
     0
174
     0
 93
        1
 44
50.0
173
     0
291
     1
 45
0.0
1001
ACAD
1000
AcDbSavedByObjectVersion
1070
     0
  0
VISUALSTYLE
  5
58A
102
{ACAD_REACTORS
330
57A
102
}
330
57A
100
AcDbVisualStyle
  2
ColorChange
 70
    16
 71
     2
 72
     2
 73
     3
 90
        0
 40
-0.6
 41
-30.0
 62
     5
 63
     8
 74
     1
 91
        4
 64
     7
 65
   257
 75
     1
175
     1
 42
1.0
 92
        8
 66
     8
 43
1.0
 76
     1
 77
     6
 78
     2
 67
     7
 79
     5
170
     0
171
     0
290
     0
174
     0
 93
        1
 44
0.0
173
     0
291
     1
 45
0.0
1001
ACAD
1000
AcDbSavedByObjectVersion
1070
     0
  0
VISUALSTYLE
  5
583
102
{ACAD_REACTORS
330
57A
102
}
330
57A
100
AcDbVisualStyle
  2
Conceptual
 70
     9
 71
     3
 72
     2
 73
     0
 90
        0
 40
-0.6
 41
-30.0
 62
     5
 63
     7
 74
     2
 91
        2
 64
     7
 65
   257
 75
     1
175
     1
 42
40.0
 92
        8
 66
     7
 43
1.0
 76
     1
 77
     6
 78
     2
 67
     7
 79
     3
170
     0
171
     0
290
     0
174
     0
 93
        1
 44
0.0
173
     0
291
     0
 45
0.0
1001
ACAD
1000
AcDbSavedByObjectVersion
1070
     0
  0
VISUALSTYLE
  5
585
102
{ACAD_REACTORS
330
57A
102
}
330
57A
100
AcDbVisualStyle
  2
Dim
 70
    11
 71
     2
 72
     2
 73
     0
 90
        0
 40
-0.6
 41
-30.0
 62
     5
 63
     7
 74
     1
 91
        4
 64
     7
 65
   257
 75
     1
175
     1
 42
1.0
 92
        8
 66
     7
 43
1.0
 76
     1
 77
     6
 78
     2
 67
     7
 79
     5
170
     0
171
     0
290
     0
174
     0
 93
        1
 44
-50.0
173
     0
291
     1
 45
0.0
1001
ACAD
1000
AcDbSavedByObjectVersion
1070
     0
  0
VISUALSTYLE
  5
589
102
{ACAD_REACTORS
330
57A
102
}
330
57A
100
AcDbVisualStyle
  2
Facepattern
 70
    15
 71
     2
 72
     2
 73
     0
 90
        0
 40
-0.6
 41
-30.0
 62
     5
 63
     7
 74
     1
 91
        4
 64
     7
 65
   257
 75
     1
175
     1
 42
1.0
 92
        8
 66
     7
 43
1.0
 76
     1
 77
     6
 78
     2
 67
     7
 79
     5
170
     0
171
     0
290
     0
174
     0
 93
        1
 44
0.0
173
     0
291
     1
 45
0.0
1001
ACAD
1000
AcDbSavedByObjectVersion
1070
     0
  0
VISUALSTYLE
  5
57B
102
{ACAD_REACTORS
330
57A
102
}
330
57A
100
AcDbVisualStyle
  2
Flat
 70
     0
 71
     2
 72
     1
 73
     1
 90
        2
 40
-0.6
 41
30.0
 62
     5
 63
     7
 74
     0
 91
        4
 64
     7
 65
   257
 75
     1
175
     1
 42
1.0
 92
        8
 66
     7
 43
1.0
 76
     1
 77
     6
 78
     2
 67
     7
 79
     5
170
     0
171
     0
290
     0
174
     0
 93
       13
 44
0.0
173
     0
291
     1
 45
0.0
1001
ACAD
1000
AcDbSavedByObjectVersion
1070
     0
  0
VISUALSTYLE
  5
57C
102
{ACAD_REACTORS
330
57A
102
}
330
57A
100
AcDbVisualStyle
  2
FlatWithEdges
 70
     1
 71
     2
 72
     1
 73
     1
 90
        2
 40
-0.6
 41
30.0
 62
     5
 63
     7
 74
     1
 91
        4
 64
     7
 65
   257
 75
     1
175
     1
 42
1.0
 92
        0
 66
   257
 43
1.0
 76
     1
 77
     6
 78
     2
 67
     7
 79
     5
170
     0
171
     0
290
     0
174
     0
 93
       13
 44
0.0
173
     0
291
     1
 45
0.0
1001
ACAD
1000
AcDbSavedByObjectVersion
1070
     0
  0
VISUALSTYLE
  5
57D
102
{ACAD_REACTORS
330
57A
102
}
330
57A
100
AcDbVisualStyle
  2
Gouraud
 70
     2
 71
     2
 72
     2
 73
     1
 90
        2
 40
-0.6
 41
30.0
 62
     5
 63
     7
 74
     0
 91
        4
 64
     7
 65
   257
 75
     1
175
     1
 42
1.0
 92
        0
 66
     7
 43
1.0
 76
     1
 77
     6
 78
     2
 67
     7
 79
     5
170
     0
171
     0
290
     0
174
     0
 93
       13
 44
0.0
173
     0
291
     1
 45
0.0
1001
ACAD
1000
AcDbSavedByObjectVersion
1070
     0
  0
VISUALSTYLE
  5
57E
102
{ACAD_REACTORS
330
57A
102
}
330
57A
100
AcDbVisualStyle
  2
GouraudWithEdges
 70
     3
 71
     2
 72
     2
 73
     1
 90
        2
 40
-0.6
 41
30.0
 62
     5
 63
     7
 74
     1
 91
        4
 64
     7
 65
   257
 75
     1
175
     1
 42
1.0
 92
        0
 66
   257
 43
1.0
 76
     1
 77
     6
 78
     2
 67
     7
 79
     5
170
     0
171
     0
290
     0
174
     0
 93
       13
 44
0.0
173
     0
291
     1
 45
0.0
1001
ACAD
1000
AcDbSavedByObjectVersion
1070
     0
  0
VISUALSTYLE
  5
588
102
{ACAD_REACTORS
330
57A
102
}
330
57A
100
AcDbVisualStyle
  2
Linepattern
 70
    14
 71
     2
 72
     2
 73
     0
 90
        0
 40
-0.6
 41
-30.0
 62
     5
 63
     7
 74
     1
 91
        4
 64
     7
 65
   257
 75
     7
175
     7
 42
1.0
 92
        8
 66
     7
 43
1.0
 76
     1
 77
     6
 78
     2
 67
     7
 79
     5
170
     0
171
     0
290
     0
174
     0
 93
        1
 44
0.0
173
     0
291
     1
 45
0.0
1001
ACAD
1000
AcDbSavedByObjectVersion
1070
     0
  0
VISUALSTYLE
  5
584
102
{ACAD_REACTORS
330
57A
102
}
330
57A
100
AcDbVisualStyle
  2
Realistic
 70
     8
 71
     2
 72
     2
 73
     0
 90
        0
 40
-0.6
 41
-30.0
 62
     5
 63
     7
 74
     1
 91
        0
 64
     7
 65
   257
 75
     1
175
     1
 42
1.0
 92
        8
 66
     8
 43
1.0
 76
     1
 77
     6
 78
     2
 67
     7
 79
     5
170
     0
171
     0
290
     0
174
     0
 93
       13
 44
0.0
173
     0
291
     0
 45
0.0
1001
ACAD
1000
AcDbSavedByObjectVersion
1070
     0
  0
VISUALSTYLE
  5
587
102
{ACAD_REACTORS
330
57A
102
}
330
57A
100
AcDbVisualStyle
  2
Thicken
 70
    13
 71
     2
 72
     2
 73
     0
 90
        0
 40
-0.6
 41
-30.0
 62
     5
 63
     7
 74
     1
 91
        4
 64
     7
 65
   257
 75
     1
175
     1
 42
1.0
 92
       12
 66
     7
 43
1.0
 76
     1
 77
     6
 78
     2
 67
     7
 79
     5
170
     0
171
     0
290
     0
174
     0
 93
        1
 44
0.0
173
     0
291
     1
 45
0.0
1001
ACAD
1000
AcDbSavedByObjectVersion
1070
     0
  0
DICTIONARYVAR
  5
5C8
102
{ACAD_REACTORS
330
5C5
102
}
330
5C5
100
DictionaryVariables
280
     0
  1
1:1
  0
DICTIONARYVAR
  5
5C7
102
{ACAD_REACTORS
330
5C5
102
}
330
5C5
100
DictionaryVariables
280
     0
  1
STANDARD
  0
DICTIONARYVAR
  5
5C6
102
{ACAD_REACTORS
330
5C5
102
}
330
5C5
100
DictionaryVariables
280
     0
  1
STANDARD
  0
DICTIONARYVAR
  5
5CB
102
{ACAD_REACTORS
330
5C5
102
}
330
5C5
100
DictionaryVariables
280
     0
  1
1
  0
DICTIONARYVAR
  5
5CA
102
{ACAD_REACTORS
330
5C5
102
}
330
5C5
100
DictionaryVariables
280
     0
  1
0
  0
DICTIONARYVAR
  5
5C9
102
{ACAD_REACTORS
330
5C5
102
}
330
5C5
100
DictionaryVariables
280
     0
  1
127
  0
DICTIONARY
  5
5D4
330
5B5
100
AcDbDictionary
280
     1
281
     1
  3
ACAD_XREC_ROUNDTRIP
360
5D5
  0
DICTIONARY
  5
5D6
330
5B6
100
AcDbDictionary
280
     1
281
     1
  3
ACAD_XREC_ROUNDTRIP
360
5D7
  0
DICTIONARY
  5
56B
330
56A
100
AcDbDictionary
280
     1
281
     1
  3
ACAD_XREC_ROUNDTRIP
360
5D1
  3
BUMPTILE
360
56D
  3
DIFFUSETILE
360
56C
  3
OPACITYTILE
360
570
  3
REFLECTIONTILE
360
56F
  3
REFRACTIONTILE
360
571
  3
SPECULARTILE
360
56E
  0
DICTIONARY
  5
563
330
562
100
AcDbDictionary
280
     1
281
     1
  3
ACAD_XREC_ROUNDTRIP
360
5D0
  3
BUMPTILE
360
565
  3
DIFFUSETILE
360
564
  3
OPACITYTILE
360
568
  3
REFLECTIONTILE
360
567
  3
REFRACTIONTILE
360
569
  3
SPECULARTILE
360
566
  0
DICTIONARY
  5
573
330
572
100
AcDbDictionary
280
     1
281
     1
  3
ACAD_XREC_ROUNDTRIP
360
5D2
  3
BUMPTILE
360
575
  3
DIFFUSETILE
360
574
  3
OPACITYTILE
360
578
  3
REFLECTIONTILE
360
577
  3
REFRACTIONTILE
360
579
  3
SPECULARTILE
360
576
  0
DICTIONARY
  5
5CC
330
58D
100
AcDbDictionary
280
     1
281
     1
  3
ACAD_ROUNDTRIP_2008_TABLESTYLE_CELLSTYLEMAP
360
5CD
  3
ACAD_XREC_ROUNDTRIP
360
5D3
  0
XRECORD
  5
5D5
102
{ACAD_REACTORS
330
5D4
102
}
330
5D4
100
AcDbXrecord
280
     1
102
SHADEPLOT
 70
     0
102
SHADEPLOTRESLEVEL
 70
     2
102
SHADEPLOTCUSTOMDPI
 70
   300
  0
XRECORD
  5
5D7
102
{ACAD_REACTORS
330
5D6
102
}
330
5D6
100
AcDbXrecord
280
     1
102
SHADEPLOT
 70
     0
102
SHADEPLOTRESLEVEL
 70
     2
102
SHADEPLOTCUSTOMDPI
 70
   300
  0
XRECORD
  5
5D1
102
{ACAD_REACTORS
330
56B
102
}
330
56B
100
AcDbXrecord
280
     1
102
MATERIAL
148
0.0
149
0.0
149
0.0
 93
        0
 94
      127
282
     0
 72
     0
 77
     0
171
     0
175
     0
179
     0
273
     0
  0
XRECORD
  5
56D
102
{ACAD_REACTORS
330
56B
102
}
330
56B
100
AcDbXrecord
280
     1
270
     1
271
     1
  0
XRECORD
  5
56C
102
{ACAD_REACTORS
330
56B
102
}
330
56B
100
AcDbXrecord
280
     1
270
     1
271
     1
  0
XRECORD
  5
570
102
{ACAD_REACTORS
330
56B
102
}
330
56B
100
AcDbXrecord
280
     1
270
     1
271
     1
  0
XRECORD
  5
56F
102
{ACAD_REACTORS
330
56B
102
}
330
56B
100
AcDbXrecord
280
     1
270
     1
271
     1
  0
XRECORD
  5
571
102
{ACAD_REACTORS
330
56B
102
}
330
56B
100
AcDbXrecord
280
     1
270
     1
271
     1
  0
XRECORD
  5
56E
102
{ACAD_REACTORS
330
56B
102
}
330
56B
100
AcDbXrecord
280
     1
270
     1
271
     1
  0
XRECORD
  5
5D0
102
{ACAD_REACTORS
330
563
102
}
330
563
100
AcDbXrecord
280
     1
102
MATERIAL
148
0.0
149
0.0
149
0.0
 93
        0
 94
      127
282
     0
 72
     0
 77
     0
171
     0
175
     0
179
     0
273
     0
  0
XRECORD
  5
565
102
{ACAD_REACTORS
330
563
102
}
330
563
100
AcDbXrecord
280
     1
270
     1
271
     1
  0
XRECORD
  5
564
102
{ACAD_REACTORS
330
563
102
}
330
563
100
AcDbXrecord
280
     1
270
     1
271
     1
  0
XRECORD
  5
568
102
{ACAD_REACTORS
330
563
102
}
330
563
100
AcDbXrecord
280
     1
270
     1
271
     1
  0
XRECORD
  5
567
102
{ACAD_REACTORS
330
563
102
}
330
563
100
AcDbXrecord
280
     1
270
     1
271
     1
  0
XRECORD
  5
569
102
{ACAD_REACTORS
330
563
102
}
330
563
100
AcDbXrecord
280
     1
270
     1
271
     1
  0
XRECORD
  5
566
102
{ACAD_REACTORS
330
563
102
}
330
563
100
AcDbXrecord
280
     1
270
     1
271
     1
  0
XRECORD
  5
5D2
102
{ACAD_REACTORS
330
573
102
}
330
573
100
AcDbXrecord
280
     1
102
MATERIAL
148
0.0
149
0.0
149
0.0
 93
        0
 94
      127
282
     0
 72
     0
 77
     0
171
     0
175
     0
179
     0
273
     0
  0
XRECORD
  5
575
102
{ACAD_REACTORS
330
573
102
}
330
573
100
AcDbXrecord
280
     1
270
     1
271
     1
  0
XRECORD
  5
574
102
{ACAD_REACTORS
330
573
102
}
330
573
100
AcDbXrecord
280
     1
270
     1
271
     1
  0
XRECORD
  5
578
102
{ACAD_REACTORS
330
573
102
}
330
573
100
AcDbXrecord
280
     1
270
     1
271
     1
  0
XRECORD
  5
577
102
{ACAD_REACTORS
330
573
102
}
330
573
100
AcDbXrecord
280
     1
270
     1
271
     1
  0
XRECORD
  5
579
102
{ACAD_REACTORS
330
573
102
}
330
573
100
AcDbXrecord
280
     1
270
     1
271
     1
  0
XRECORD
  5
576
102
{ACAD_REACTORS
330
573
102
}
330
573
100
AcDbXrecord
280
     1
270
     1
271
     1
  0
CELLSTYLEMAP
  5
5CD
102
{ACAD_REACTORS
330
5CC
102
}
330
5CC
100
AcDbCellStyleMap
 90
        3
300
CELLSTYLE
  1
TABLEFORMAT_BEGIN
 90
        5
170
     1
 91
        0
 92
    32768
 62
   257
 93
        1
300
CONTENTFORMAT
  1
CONTENTFORMAT_BEGIN
 90
        0
 91
        0
 92
      512
 93
        0
300

 40
0.0
140
1.0
 94
        5
 62
     0
340
1D
144
0.25
309
CONTENTFORMAT_END
171
     0
 94
        0
309
TABLEFORMAT_END
  1
CELLSTYLE_BEGIN
 90
        1
 91
        1
300
_TITLE
309
CELLSTYLE_END
300
CELLSTYLE
  1
TABLEFORMAT_BEGIN
 90
        5
170
     1
 91
        0
 92
        0
 62
   257
 93
        1
300
CONTENTFORMAT
  1
CONTENTFORMAT_BEGIN
 90
        0
 91
        0
 92
      512
 93
        0
300

 40
0.0
140
1.0
 94
        5
 62
     0
340
1D
144
0.18
309
CONTENTFORMAT_END
171
     0
 94
        0
309
TABLEFORMAT_END
  1
CELLSTYLE_BEGIN
 90
        2
 91
        1
300
_HEADER
309
CELLSTYLE_END
300
CELLSTYLE
  1
TABLEFORMAT_BEGIN
 90
        5
170
     1
 91
        0
 92
        0
 62
   257
 93
        1
300
CONTENTFORMAT
  1
CONTENTFORMAT_BEGIN
 90
        0
 91
        0
 92
      512
 93
        0
300

 40
0.0
140
1.0
 94
        2
 62
     0
340
1D
144
0.18
309
CONTENTFORMAT_END
171
     0
 94
        0
309
TABLEFORMAT_END
  1
CELLSTYLE_BEGIN
 90
        3
 91
        2
300
_DATA
309
CELLSTYLE_END
  0
XRECORD
  5
5D3
102
{ACAD_REACTORS
330
5CC
102
}
330
5CC
100
AcDbXrecord
280
     1
102
ACAD_ROUNDTRIP_PRE2007_TABLESTYLE
 90
      512
 91
        0
  1

 92
      512
 93
        0
  2

 94
      512
 95
        0
  3

  0
ENDSEC
  0
EOF
