  0
SECTION
  2
HEADER
  9
$ACADVER
  1
AC1012
  9
$DWGCODEPAGE
  3
ansi_932
  9
$INSBASE
 10
0.0
 20
0.0
 30
0.0
  9
$EXTMIN
 10
-630.0
 20
-445.5
 30
1.000000E+20
  9
$EXTMAX
 10
630.0
 20
445.5
 30
-1.000000E+20
  9
$LIMMIN
 10
-630.0
 20
-445.5
  9
$LIMMAX
 10
630.0
 20
445.5
  9
$ORTHOMODE
 70
     0
  9
$REGENMODE
 70
     1
  9
$FILLMODE
 70
     1
  9
$QTEXTMODE
 70
     0
  9
$MIRRTEXT
 70
     1
  9
$DRAGMODE
 70
     2
  9
$LTSCALE
 40
1.0
  9
$OSMODE
 70
     0
  9
$ATTMODE
 70
     1
  9
$TEXTSIZE
 40
0.2
  9
$TRACEWID
 40
0.05
  9
$TEXTSTYLE
  7
STANDARD
  9
$CLAYER
  8
0
  9
$CELTYPE
  6
CONTINUOUS
  9
$CECOLOR
 62
   256
  9
$CELTSCALE
 40
1.0
  9
$DELOBJ
 70
     1
  9
$DISPSILH
 70
     0
  9
$DIMSCALE
 40
3.0
  9
$DIMASZ
 40
0.18
  9
$DIMEXO
 40
0.0625
  9
$DIMDLI
 40
0.38
  9
$DIMRND
 40
0.0
  9
$DIMDLE
 40
0.0
  9
$DIMEXE
 40
0.18
  9
$DIMTP
 40
0.0
  9
$DIMTM
 40
0.0
  9
$DIMTXT
 40
0.18
  9
$DIMCEN
 40
0.09
  9
$DIMTSZ
 40
0.0
  9
$DIMTOL
 70
     0
  9
$DIMLIM
 70
     0
  9
$DIMTIH
 70
     1
  9
$DIMTOH
 70
     1
  9
$DIMSE1
 70
     0
  9
$DIMSE2
 70
     0
  9
$DIMTAD
 70
     1
  9
$DIMZIN
 70
     0
  9
$DIMBLK
  1

  9
$DIMASO
 70
     1
  9
$DIMSHO
 70
     1
  9
$DIMPOST
  1

  9
$DIMAPOST
  1

  9
$DIMALT
 70
     0
  9
$DIMALTD
 70
     2
  9
$DIMALTF
 40
25.4
  9
$DIMLFAC
 40
1.0
  9
$DIMTOFL
 70
     0
  9
$DIMTVP
 40
0.0
  9
$DIMTIX
 70
     0
  9
$DIMSOXD
 70
     0
  9
$DIMSAH
 70
     0
  9
$DIMBLK1
  1

  9
$DIMBLK2
  1

  9
$DIMSTYLE
  2
STANDARD
  9
$DIMCLRD
 70
     0
  9
$DIMCLRE
 70
     0
  9
$DIMCLRT
 70
     0
  9
$DIMTFAC
 40
1.0
  9
$DIMGAP
 40
0.09
  9
$DIMJUST
 70
     0
  9
$DIMSD1
 70
     0
  9
$DIMSD2
 70
     0
  9
$DIMTOLJ
 70
     1
  9
$DIMTZIN
 70
     0
  9
$DIMALTZ
 70
     0
  9
$DIMALTTZ
 70
     0
  9
$DIMFIT
 70
     3
  9
$DIMUPT
 70
     0
  9
$DIMUNIT
 70
     2
  9
$DIMDEC
 70
     4
  9
$DIMTDEC
 70
     4
  9
$DIMALTU
 70
     2
  9
$DIMALTTD
 70
     2
  9
$DIMTXSTY
  7
STANDARD
  9
$DIMAUNIT
 70
     0
  9
$LUNITS
 70
     2
  9
$LUPREC
 70
     4
  9
$SKETCHINC
 40
0.1
  9
$FILLETRAD
 40
0.0
  9
$AUNITS
 70
     0
  9
$AUPREC
 70
     0
  9
$MENU
  1
acad
  9
$ELEVATION
 40
0.0
  9
$PELEVATION
 40
0.0
  9
$THICKNESS
 40
0.0
  9
$LIMCHECK
 70
     0
  9
$BLIPMODE
 70
     1
  9
$CHAMFERA
 40
0.0
  9
$CHAMFERB
 40
0.0
  9
$CHAMFERC
 40
0.0
  9
$CHAMFERD
 40
0.0
  9
$SKPOLY
 70
     0
  9
$TDCREATE
 40
2451432.000000000
  9
$TDUPDATE
 40
0.000000000
  9
$TDINDWG
 40
0.0000000000
  9
$TDUSRTIMER
 40
0.0000000000
  9
$USRTIMER
 70
     1
  9
$ANGBASE
 50
0.0
  9
$ANGDIR
 70
     0
  9
$PDMODE
 70
     0
  9
$PDSIZE
 40
0.0
  9
$PLINEWID
 40
0.0
  9
$COORDS
 70
     0
  9
$SPLFRAME
 70
     0
  9
$SPLINETYPE
 70
     6
  9
$SPLINESEGS
 70
     8
  9
$ATTDIA
 70
     0
  9
$ATTREQ
 70
     1
  9
$HANDLING
 70
     1
  9
$HANDSEED
  5
921
  9
$SURFTAB1
 70
     6
  9
$SURFTAB2
 70
     6
  9
$SURFTYPE
 70
     6
  9
$SURFU
 70
     6
  9
$SURFV
 70
     6
  9
$UCSNAME
  2

  9
$UCSORG
 10
0.0
 20
0.0
 30
0.0
  9
$UCSXDIR
 10
1.0
 20
0.0
 30
0.0
  9
$UCSYDIR
 10
0.0
 20
1.0
 30
0.0
  9
$PUCSNAME
  2

  9
$PUCSORG
 10
0.0
 20
0.0
 30
0.0
  9
$PUCSXDIR
 10
1.0
 20
0.0
 30
0.0
  9
$PUCSYDIR
 10
0.0
 20
1.0
 30
0.0
  9
$USERI1
 70
     0
  9
$USERI2
 70
     0
  9
$USERI3
 70
     0
  9
$USERI4
 70
     0
  9
$USERI5
 70
     0
  9
$USERR1
 40
0.0
  9
$USERR2
 40
0.0
  9
$USERR3
 40
0.0
  9
$USERR4
 40
0.0
  9
$USERR5
 40
0.0
  9
$WORLDVIEW
 70
     1
  9
$SHADEDGE
 70
     3
  9
$SHADEDIF
 70
    70
  9
$TILEMODE
 70
     1
  9
$MAXACTVP
 70
    16
  9
$PINSBASE
 10
0.0
 20
0.0
 30
0.0
  9
$PLIMCHECK
 70
     0
  9
$PEXTMIN
 10
1.000000E+20
 20
1.000000E+20
 30
1.000000E+20
  9
$PEXTMAX
 10
-1.000000E+20
 20
-1.000000E+20
 30
-1.000000E+20
  9
$PLIMMIN
 10
0.0
 20
0.0
  9
$PLIMMAX
 10
12.0
 20
9.0
  9
$UNITMODE
 70
     0
  9
$VISRETAIN
 70
     0
  9
$PLINEGEN
 70
     1
  9
$PSLTSCALE
 70
     0
  9
$TREEDEPTH
 70
  3020
  9
$PICKSTYLE
 70
     1
  9
$CMLSTYLE
  2
STANDARD
  9
$CMLJUST
 70
     0
  9
$CMLSCALE
 40
1.0
  9
$SAVEIMAGES
 70
     0
  0
ENDSEC
  0
SECTION
  2
CLASSES
  0
CLASS
  1
LWPOLYLINE
  2
AcDbPolyline
  3
"AutoCAD"
 90
    32768
280
     0
281
     1
  0
CLASS
  1
IMAGE
  2
AcDbRasterImage
  3
ISM
 90
    32895
280
     0
281
     1
  0
CLASS
  1
OLE2FRAME
  2
AcDbOle2Frame
  3
""
 90
    32768
280
     0
281
     1
  0
CLASS
  1
HATCH
  2
AcDbHatch
  3
"ACAD_SEDONA"
 90
    32768
280
     0
281
     1
  0
CLASS
  1
DICTIONARYVAR
  2
AcDbDictionaryVar
  3
"AutoCAD"
 90
    32768
280
     0
281
     0
  0
CLASS
  1
RASTERVARIABLES
  2
AcDbRasterVariables
  3
ISM
 90
    32768
280
     0
281
     0
  0
CLASS
  1
IMAGEDEF
  2
AcDbRasterImageDef
  3
ISM
 90
    32768
280
     0
281
     0
  0
CLASS
  1
IMAGEDEF_REACTOR
  2
AcDbRasterImageDefReactor
  3
ISM
 90
    32769
280
     0
281
     0
  0
CLASS
  1
IDBUFFER
  2
AcDbIdBuffer
  3
"Acad"
 90
    32768
280
     0
281
     0
  0
CLASS
  1
SPATIAL_FILTER
  2
AcDbSpatialFilter
  3
"Acad"
 90
    32768
280
     0
281
     0
  0
CLASS
  1
XRECORD
  2
AcDbXrecord
  3
"<Built In>"
 90
    32768
280
     0
281
     0
  0
CLASS
  1
SORTENTSTABLE
  2
AcDbSortentsTable
  3
"AutoCAD"
 90
    32768
280
     0
281
     0
  0
CLASS
  1
LAYER_INDEX
  2
AcDbLayerIndex
  3
"Acad"
 90
    32768
280
     0
281
     0
  0
CLASS
  1
SPATIAL_INDEX
  2
AcDbSpatialIndex
  3
"Acad"
 90
    32768
280
     0
281
     0
  0
CLASS
  1
OBJECT_PTR
  2
CAseDLPNTableRecord
  3
"ASE-LPNTableRecord"
 90
    32769
280
     0
281
     0
  0
CLASS
  1
LAYOUT
  2
AcDbLayout
  3
"AutoCAD 2000"
 90
    32768
280
     0
281
     0
  0
CLASS
  1
PLOTSETTINGS
  2
AcDbPlotSettings
  3
"AutoCAD 2000"
 90
    32768
280
     0
281
     0
  0
CLASS
  1
ACDBDICTIONARYWDFLT
  2
AcDbDictionaryWithDefault
  3
"AutoCAD 2000"
 90
    32768
280
     0
281
     0
  0
CLASS
  1
ACDBPLACEHOLDER
  2
AcDbPlaceHolder
  3
"AutoCAD 2000"
 90
    32768
280
     0
281
     0
  0
CLASS
  1
VBA_PROJECT
  2
AcDbVbaProject
  3
"acadvba"
 90
    32768
280
     0
281
     0
  0
CLASS
  1
WIPEOUT
  2
AcDbWipeout
  3
WipeOut|AutoCAD Express Tool|expresstools@autodesk.com
 90
    32895
280
     0
281
     1
  0
CLASS
  1
WIPEOUTVARIABLES
  2
AcDbWipeoutVariables
  3
WipeOut|AutoCAD Express Tool|expresstools@autodesk.com
 90
    32768
280
     0
281
     0
  0
CLASS
  1
RTEXT
  2
RText
  3
RText|AutoCAD Express Tool|expresstools@autodesk.com
 90
    32768
280
     0
281
     1
  0
CLASS
  1
ARCALIGNEDTEXT
  2
AcDbArcAlignedText
  3
ATEXT|AutoCAD Express Tool|expresstools@autodesk.com
 90
    32768
280
     0
281
     1
  0
ENDSEC
  0
SECTION
  2
TABLES
  0
TABLE
  2
VPORT
  5
6
100
AcDbSymbolTable
 70
     1
  0
VPORT
  5
1C
100
AcDbSymbolTableRecord
100
AcDbViewportTableRecord
  2
*ACTIVE
 70
     0
 10
0.0
 20
0.0
 11
1.0
 21
1.0
 12
0.0
 22
0.0
 13
0.0
 23
0.0
 14
1.0
 24
1.0
 15
0.0
 25
0.0
 16
0.0
 26
0.0
 36
1.0
 17
0.0
 27
0.0
 37
0.0
 40
891.0
 41
1.414141
 42
50.0
 43
0.0
 44
0.0
 50
0.0
 51
0.0
 71
     0
 72
   500
 73
     1
 74
     1
 75
     0
 76
     0
 77
     0
 78
     0
  0
ENDTAB
  0
TABLE
  2
LTYPE
  5
3
100
AcDbSymbolTable
 70
     9
  0
LTYPE
  5
C
100
AcDbSymbolTableRecord
100
AcDbLinetypeTableRecord
  2
BYBLOCK
 70
    64
  3

 72
    65
 73
     0
 40
0.0
  0
LTYPE
  5
D
100
AcDbSymbolTableRecord
100
AcDbLinetypeTableRecord
  2
BYLAYER
 70
    64
  3

 72
    65
 73
     0
 40
0.0
  0
LTYPE
  5
E
100
AcDbSymbolTableRecord
100
AcDbLinetypeTableRecord
  2
CONTINUOUS
 70
     0
  3
Solid line
 72
    65
 73
     0
 40
0.0
  0
LTYPE
  5
F
100
AcDbSymbolTableRecord
100
AcDbLinetypeTableRecord
  2
DASHED
 70
     0
  3
__ __ __ __ __ __ __ __ __ __ __ __ __ __ __
 72
    65
 73
     2
 40
2.0
 49
1.2
 74
     0
 49
-0.8
 74
     0
  0
LTYPE
  5
10
100
AcDbSymbolTableRecord
100
AcDbLinetypeTableRecord
  2
CENTER
 70
     0
  3
____ _ ____ _ ____ _ ____ _ ____ _ ____ _ ____
 72
    65
 73
     4
 40
12.0
 49
9.0
 74
     0
 49
-1.0
 74
     0
 49
1.0
 74
     0
 49
-1.0
 74
     0
  0
LTYPE
  5
11
100
AcDbSymbolTableRecord
100
AcDbLinetypeTableRecord
  2
HIDDEN
 70
     0
  3
_ _ _ _ _ _ _ _ _ _ _ _ _ _ _ _ _ _ _ _ _ _ _
 72
    65
 73
     2
 40
3.2
 49
2.4
 74
     0
 49
-0.8
 74
     0
  0
LTYPE
  5
12
100
AcDbSymbolTableRecord
100
AcDbLinetypeTableRecord
  2
PHANTOM
 70
     0
  3
_____ _ _ _____ _ _ _____ _ _ _____ _ _ _____
 72
    65
 73
     6
 40
13.5
 49
9.0
 74
     0
 49
-1.0
 74
     0
 49
1.0
 74
     0
 49
-0.5
 74
     0
 49
1.0
 74
     0
 49
-1.0
 74
     0
  0
LTYPE
  5
13
100
AcDbSymbolTableRecord
100
AcDbLinetypeTableRecord
  2
DOT
 70
     0
  3
...............................................
 72
    65
 73
     2
 40
1.0
 49
0.5
 74
     0
 49
-0.5
 74
     0
  0
LTYPE
  5
14
100
AcDbSymbolTableRecord
100
AcDbLinetypeTableRecord
  2
DASHDOT
 70
     0
  3
__ . __ . __ . __ . __ . __ . __ . __ . __ . __
 72
    65
 73
     4
 40
8.0
 49
5.0
 74
     0
 49
-1.0
 74
     0
 49
1.0
 74
     0
 49
-1.0
 74
     0
  0
ENDTAB
  0
TABLE
  2
LAYER
  5
1
100
AcDbSymbolTable
 70
     7
  0
LAYER
  5
15
100
AcDbSymbolTableRecord
100
AcDbLayerTableRecord
  2
0
 70
     0
 62
     7
  6
CONTINUOUS
  0
LAYER
  5
16
100
AcDbSymbolTableRecord
100
AcDbLayerTableRecord
  2
1
 70
     0
 62
     7
  6
CONTINUOUS
  0
LAYER
  5
17
100
AcDbSymbolTableRecord
100
AcDbLayerTableRecord
  2
2
 70
     0
 62
     7
  6
CONTINUOUS
  0
LAYER
  5
18
100
AcDbSymbolTableRecord
100
AcDbLayerTableRecord
  2
3
 70
     0
 62
     7
  6
CONTINUOUS
  0
LAYER
  5
19
100
AcDbSymbolTableRecord
100
AcDbLayerTableRecord
  2
5
 70
     0
 62
     7
  6
CONTINUOUS
  0
LAYER
  5
1A
100
AcDbSymbolTableRecord
100
AcDbLayerTableRecord
  2
18
 70
     0
 62
     7
  6
CONTINUOUS
  0
LAYER
  5
1B
100
AcDbSymbolTableRecord
100
AcDbLayerTableRecord
  2
20
 70
     0
 62
     7
  6
CONTINUOUS
  0
ENDTAB
  0
TABLE
  2
STYLE
  5
2
100
AcDbSymbolTable
 70
     1
  0
STYLE
  5
1E
100
AcDbSymbolTableRecord
100
AcDbTextStyleTableRecord
  2
STANDARD
 70
    64
 40
0.0
 41
1.0
 50
0.0
 71
     0
 42
1.0
  3
txt
  4
BIGFONT
  0
ENDTAB
  0
TABLE
  2
VIEW
  5
4
100
AcDbSymbolTable
 70
     0
  0
ENDTAB
  0
TABLE
  2
UCS
  5
5
100
AcDbSymbolTable
 70
     0
  0
ENDTAB
  0
TABLE
  2
APPID
  5
7
100
AcDbSymbolTable
 70
     1
  0
APPID
  5
1D
100
AcDbSymbolTableRecord
100
AcDbRegAppTableRecord
  2
ACAD
 70
     0
  0
ENDTAB
  0
TABLE
  2
DIMSTYLE
  5
8
100
AcDbSymbolTable
 70
     1
  0
DIMSTYLE
105
30
100
AcDbSymbolTableRecord
100
AcDbDimStyleTableRecord
  2
STANDARD
 70
     0
  3

  4

  5

  6

  7

 40
3.0
 41
0.18
 42
0.0625
 43
0.38
 44
0.18
 45
0.0
 46
0.0
 47
0.0
 48
0.0
 71
     0
 72
     0
 73
     1
 74
     1
 75
     0
 76
     0
 77
     1
 78
     0
140
0.18
141
0.09
142
0.0
143
25.4
144
1.0
145
0.0
146
1.0
147
0.09
170
     0
171
     2
172
     0
173
     0
174
     0
175
     0
176
     0
177
     0
178
     0
270
     2
271
     4
272
     4
273
     2
274
     2
275
     0
280
     0
281
     0
282
     0
283
     1
284
     0
285
     0
286
     0
287
     3
288
     0
340
1E
  0
ENDTAB
  0
TABLE
  2
BLOCK_RECORD
  5
2B
100
AcDbSymbolTable
 70
    10
  0
BLOCK_RECORD
  5
29
100
AcDbSymbolTableRecord
100
AcDbBlockTableRecord
  2
*MODEL_SPACE
  0
BLOCK_RECORD
  5
2A
100
AcDbSymbolTableRecord
100
AcDbBlockTableRecord
  2
*PAPER_SPACE
  0
BLOCK_RECORD
  5
1F
100
AcDbSymbolTableRecord
100
AcDbBlockTableRecord
  2
*D0
  0
BLOCK_RECORD
  5
20
100
AcDbSymbolTableRecord
100
AcDbBlockTableRecord
  2
*D1
  0
BLOCK_RECORD
  5
21
100
AcDbSymbolTableRecord
100
AcDbBlockTableRecord
  2
*D2
  0
BLOCK_RECORD
  5
22
100
AcDbSymbolTableRecord
100
AcDbBlockTableRecord
  2
*D3
  0
BLOCK_RECORD
  5
23
100
AcDbSymbolTableRecord
100
AcDbBlockTableRecord
  2
*D4
  0
BLOCK_RECORD
  5
24
100
AcDbSymbolTableRecord
100
AcDbBlockTableRecord
  2
*D5
  0
BLOCK_RECORD
  5
25
100
AcDbSymbolTableRecord
100
AcDbBlockTableRecord
  2
*D6
  0
BLOCK_RECORD
  5
26
100
AcDbSymbolTableRecord
100
AcDbBlockTableRecord
  2
*D7
  0
BLOCK_RECORD
  5
27
100
AcDbSymbolTableRecord
100
AcDbBlockTableRecord
  2
*D8
  0
BLOCK_RECORD
  5
28
100
AcDbSymbolTableRecord
100
AcDbBlockTableRecord
  2
*D9
  0
ENDTAB
  0
ENDSEC
  0
SECTION
  2
BLOCKS
  0
BLOCK
  5
2C
100
AcDbEntity
  8
0
100
AcDbBlockBegin
  2
*MODEL_SPACE
 70
     0
 10
0.0
 20
0.0
 30
0.0
  3
*MODEL_SPACE
  1

  0
ENDBLK
  5
2D
100
AcDbEntity
  8
0
100
AcDbBlockEnd
  0
BLOCK
  5
2E
100
AcDbEntity
 67
     1
  8
0
100
AcDbBlockBegin
  2
*PAPER_SPACE
 70
     0
 10
0.0
 20
0.0
 30
0.0
  3
*PAPER_SPACE
  1

  0
ENDBLK
  5
2F
100
AcDbEntity
 67
     1
  8
0
100
AcDbBlockEnd
  0
BLOCK
  5
81D
100
AcDbEntity
  8
5
100
AcDbBlockBegin
  2
*D0
 70
     1
 10
0.0
 20
0.0
 30
0.0
  3
*D0
  1

  0
TEXT
  5
81E
100
AcDbEntity
  8
5
 62
     2
100
AcDbText
 10
-65.264288
 20
-133.220482
 30
0.0
 40
9.9
  1
100
 50
90.0
 41
1.4
 72
     5
 11
-65.264288
 21
-115.202482
 31
0.0
100
AcDbText
  0
LINE
  5
81F
100
AcDbEntity
  8
5
 62
     2
100
AcDbLine
 10
60.385777
 20
-172.825482
 30
0.0
 11
-66.764288
 21
-172.825482
 31
0.0
  0
LINE
  5
820
100
AcDbEntity
  8
5
 62
     2
100
AcDbLine
 10
-63.764288
 20
-172.825482
 30
0.0
 11
-62.211374
 21
-167.029927
 31
0.0
  0
LINE
  5
821
100
AcDbEntity
  8
5
 62
     2
100
AcDbLine
 10
-63.764288
 20
-172.825482
 30
0.0
 11
-65.317202
 21
-167.029927
 31
0.0
  0
LINE
  5
822
100
AcDbEntity
  8
5
 62
     2
100
AcDbLine
 10
-62.211374
 20
-167.029927
 30
0.0
 11
-65.317202
 21
-167.029927
 31
0.0
  0
LINE
  5
823
100
AcDbEntity
  8
5
 62
     2
100
AcDbLine
 10
-63.764288
 20
-172.825482
 30
0.0
 11
-63.764288
 21
-72.825482
 31
0.0
  0
LINE
  5
824
100
AcDbEntity
  8
5
 62
     2
100
AcDbLine
 10
-63.764288
 20
-72.825482
 30
0.0
 11
-65.317202
 21
-78.621037
 31
0.0
  0
LINE
  5
825
100
AcDbEntity
  8
5
 62
     2
100
AcDbLine
 10
-63.764288
 20
-72.825482
 30
0.0
 11
-62.211374
 21
-78.621037
 31
0.0
  0
LINE
  5
826
100
AcDbEntity
  8
5
 62
     2
100
AcDbLine
 10
-65.317202
 20
-78.621037
 30
0.0
 11
-62.211374
 21
-78.621037
 31
0.0
  0
LINE
  5
827
100
AcDbEntity
  8
5
 62
     2
100
AcDbLine
 10
60.385777
 20
-72.825482
 30
0.0
 11
-66.764288
 21
-72.825482
 31
0.0
  0
ENDBLK
  5
828
100
AcDbEntity
  8
5
100
AcDbBlockEnd
  0
BLOCK
  5
829
100
AcDbEntity
  8
5
100
AcDbBlockBegin
  2
*D1
 70
     1
 10
0.0
 20
0.0
 30
0.0
  3
*D1
  1

  0
TEXT
  5
82A
100
AcDbEntity
  8
5
 62
     2
100
AcDbText
 10
-65.264288
 20
-242.220482
 30
0.0
 40
9.9
  1
118
 50
90.0
 41
1.4
 72
     5
 11
-65.264288
 21
-224.202482
 31
0.0
100
AcDbText
  0
LINE
  5
82B
100
AcDbEntity
  8
5
 62
     2
100
AcDbLine
 10
84.090996
 20
-290.825482
 30
0.0
 11
-66.764288
 21
-290.825482
 31
0.0
  0
LINE
  5
82C
100
AcDbEntity
  8
5
 62
     2
100
AcDbLine
 10
-63.764288
 20
-290.825482
 30
0.0
 11
-62.211374
 21
-285.029927
 31
0.0
  0
LINE
  5
82D
100
AcDbEntity
  8
5
 62
     2
100
AcDbLine
 10
-63.764288
 20
-290.825482
 30
0.0
 11
-65.317202
 21
-285.029927
 31
0.0
  0
LINE
  5
82E
100
AcDbEntity
  8
5
 62
     2
100
AcDbLine
 10
-62.211374
 20
-285.029927
 30
0.0
 11
-65.317202
 21
-285.029927
 31
0.0
  0
LINE
  5
82F
100
AcDbEntity
  8
5
 62
     2
100
AcDbLine
 10
-63.764288
 20
-290.825482
 30
0.0
 11
-63.764288
 21
-172.825482
 31
0.0
  0
LINE
  5
830
100
AcDbEntity
  8
5
 62
     2
100
AcDbLine
 10
-63.764288
 20
-172.825482
 30
0.0
 11
-65.317202
 21
-178.621037
 31
0.0
  0
LINE
  5
831
100
AcDbEntity
  8
5
 62
     2
100
AcDbLine
 10
-63.764288
 20
-172.825482
 30
0.0
 11
-62.211374
 21
-178.621037
 31
0.0
  0
LINE
  5
832
100
AcDbEntity
  8
5
 62
     2
100
AcDbLine
 10
-65.317202
 20
-178.621037
 30
0.0
 11
-62.211374
 21
-178.621037
 31
0.0
  0
LINE
  5
833
100
AcDbEntity
  8
5
 62
     2
100
AcDbLine
 10
60.385777
 20
-172.825482
 30
0.0
 11
-66.764288
 21
-172.825482
 31
0.0
  0
ENDBLK
  5
834
100
AcDbEntity
  8
5
100
AcDbBlockEnd
  0
BLOCK
  5
835
100
AcDbEntity
  8
5
100
AcDbBlockBegin
  2
*D2
 70
     1
 10
0.0
 20
0.0
 30
0.0
  3
*D2
  1

  0
TEXT
  5
836
100
AcDbEntity
  8
5
 62
     2
100
AcDbText
 10
-65.264288
 20
-329.905482
 30
0.0
 40
9.9
  1
64
 50
90.0
 41
1.4
 72
     5
 11
-65.264288
 21
-318.817482
 31
0.0
100
AcDbText
  0
LINE
  5
837
100
AcDbEntity
  8
5
 62
     2
100
AcDbLine
 10
99.385777
 20
-355.125482
 30
0.0
 11
-66.764288
 21
-355.125482
 31
0.0
  0
LINE
  5
838
100
AcDbEntity
  8
5
 62
     2
100
AcDbLine
 10
-63.764288
 20
-355.125482
 30
0.0
 11
-62.211374
 21
-349.329927
 31
0.0
  0
LINE
  5
839
100
AcDbEntity
  8
5
 62
     2
100
AcDbLine
 10
-63.764288
 20
-355.125482
 30
0.0
 11
-65.317202
 21
-349.329927
 31
0.0
  0
LINE
  5
83A
100
AcDbEntity
  8
5
 62
     2
100
AcDbLine
 10
-62.211374
 20
-349.329927
 30
0.0
 11
-65.317202
 21
-349.329927
 31
0.0
  0
LINE
  5
83B
100
AcDbEntity
  8
5
 62
     2
100
AcDbLine
 10
-63.764288
 20
-355.125482
 30
0.0
 11
-63.764288
 21
-290.825482
 31
0.0
  0
LINE
  5
83C
100
AcDbEntity
  8
5
 62
     2
100
AcDbLine
 10
-63.764288
 20
-290.825482
 30
0.0
 11
-65.317202
 21
-296.621037
 31
0.0
  0
LINE
  5
83D
100
AcDbEntity
  8
5
 62
     2
100
AcDbLine
 10
-63.764288
 20
-290.825482
 30
0.0
 11
-62.211374
 21
-296.621037
 31
0.0
  0
LINE
  5
83E
100
AcDbEntity
  8
5
 62
     2
100
AcDbLine
 10
-65.317202
 20
-296.621037
 30
0.0
 11
-62.211374
 21
-296.621037
 31
0.0
  0
LINE
  5
83F
100
AcDbEntity
  8
5
 62
     2
100
AcDbLine
 10
84.090996
 20
-290.825482
 30
0.0
 11
-66.764288
 21
-290.825482
 31
0.0
  0
ENDBLK
  5
840
100
AcDbEntity
  8
5
100
AcDbBlockEnd
  0
BLOCK
  5
841
100
AcDbEntity
  8
5
100
AcDbBlockBegin
  2
*D3
 70
     1
 10
0.0
 20
0.0
 30
0.0
  3
*D3
  1

  0
TEXT
  5
842
100
AcDbEntity
  8
5
 62
     2
100
AcDbText
 10
78.025777
 20
-377.888649
 30
0.0
 40
9.9
  1
15
 41
1.4
 72
     5
 11
89.113777
 21
-377.888649
 31
0.0
100
AcDbText
  0
LINE
  5
843
100
AcDbEntity
  8
5
 62
     2
100
AcDbLine
 10
99.385777
 20
-334.325482
 30
0.0
 11
99.385777
 21
-382.388649
 31
0.0
  0
LINE
  5
844
100
AcDbEntity
  8
5
 62
     2
100
AcDbLine
 10
99.385777
 20
-379.388649
 30
0.0
 11
93.590222
 21
-377.835735
 31
0.0
  0
LINE
  5
845
100
AcDbEntity
  8
5
 62
     2
100
AcDbLine
 10
99.385777
 20
-379.388649
 30
0.0
 11
93.590222
 21
-380.941563
 31
0.0
  0
LINE
  5
846
100
AcDbEntity
  8
5
 62
     2
100
AcDbLine
 10
93.590222
 20
-377.835735
 30
0.0
 11
93.590222
 21
-380.941563
 31
0.0
  0
LINE
  5
847
100
AcDbEntity
  8
5
 62
     2
100
AcDbLine
 10
76.525777
 20
-379.388649
 30
0.0
 11
129.385777
 21
-379.388649
 31
0.0
  0
LINE
  5
848
100
AcDbEntity
  8
5
 62
     2
100
AcDbLine
 10
114.385777
 20
-379.388649
 30
0.0
 11
120.181332
 21
-380.941563
 31
0.0
  0
LINE
  5
849
100
AcDbEntity
  8
5
 62
     2
100
AcDbLine
 10
114.385777
 20
-379.388649
 30
0.0
 11
120.181332
 21
-377.835735
 31
0.0
  0
LINE
  5
84A
100
AcDbEntity
  8
5
 62
     2
100
AcDbLine
 10
120.181332
 20
-380.941563
 30
0.0
 11
120.181332
 21
-377.835735
 31
0.0
  0
LINE
  5
84B
100
AcDbEntity
  8
5
 62
     2
100
AcDbLine
 10
114.385777
 20
-367.163632
 30
0.0
 11
114.385777
 21
-382.388649
 31
0.0
  0
ENDBLK
  5
84C
100
AcDbEntity
  8
5
100
AcDbBlockEnd
  0
BLOCK
  5
84D
100
AcDbEntity
  8
5
100
AcDbBlockBegin
  2
*D4
 70
     1
 10
0.0
 20
0.0
 30
0.0
  3
*D4
  1

  0
TEXT
  5
84E
100
AcDbEntity
  8
5
 62
     2
100
AcDbText
 10
108.955777
 20
-401.773476
 30
0.0
 40
9.9
  1
33
 41
1.4
 72
     5
 11
120.043777
 21
-401.773476
 31
0.0
100
AcDbText
  0
LINE
  5
84F
100
AcDbEntity
  8
5
 62
     2
100
AcDbLine
 10
99.385777
 20
-334.325482
 30
0.0
 11
99.385777
 21
-406.273476
 31
0.0
  0
LINE
  5
850
100
AcDbEntity
  8
5
 62
     2
100
AcDbLine
 10
99.385777
 20
-403.273476
 30
0.0
 11
105.181332
 21
-404.82639
 31
0.0
  0
LINE
  5
851
100
AcDbEntity
  8
5
 62
     2
100
AcDbLine
 10
99.385777
 20
-403.273476
 30
0.0
 11
105.181332
 21
-401.720561
 31
0.0
  0
LINE
  5
852
100
AcDbEntity
  8
5
 62
     2
100
AcDbLine
 10
105.181332
 20
-404.82639
 30
0.0
 11
105.181332
 21
-401.720561
 31
0.0
  0
LINE
  5
853
100
AcDbEntity
  8
5
 62
     2
100
AcDbLine
 10
99.385777
 20
-403.273476
 30
0.0
 11
132.385777
 21
-403.273476
 31
0.0
  0
LINE
  5
854
100
AcDbEntity
  8
5
 62
     2
100
AcDbLine
 10
132.385777
 20
-403.273476
 30
0.0
 11
126.590222
 21
-401.720561
 31
0.0
  0
LINE
  5
855
100
AcDbEntity
  8
5
 62
     2
100
AcDbLine
 10
132.385777
 20
-403.273476
 30
0.0
 11
126.590222
 21
-404.82639
 31
0.0
  0
LINE
  5
856
100
AcDbEntity
  8
5
 62
     2
100
AcDbLine
 10
126.590222
 20
-401.720561
 30
0.0
 11
126.590222
 21
-404.82639
 31
0.0
  0
LINE
  5
857
100
AcDbEntity
  8
5
 62
     2
100
AcDbLine
 10
132.385777
 20
-334.325482
 30
0.0
 11
132.385777
 21
-406.273476
 31
0.0
  0
ENDBLK
  5
858
100
AcDbEntity
  8
5
100
AcDbBlockEnd
  0
BLOCK
  5
859
100
AcDbEntity
  8
5
100
AcDbBlockBegin
  2
*D5
 70
     1
 10
0.0
 20
0.0
 30
0.0
  3
*D5
  1

  0
TEXT
  5
85A
100
AcDbEntity
  8
5
 62
     2
100
AcDbText
 10
-65.264288
 20
4.779518
 30
0.0
 40
9.9
  1
176
 50
90.0
 41
1.4
 72
     5
 11
-65.264288
 21
22.797518
 31
0.0
100
AcDbText
  0
LINE
  5
85B
100
AcDbEntity
  8
5
 62
     2
100
AcDbLine
 10
60.385777
 20
-72.825482
 30
0.0
 11
-66.764288
 21
-72.825482
 31
0.0
  0
LINE
  5
85C
100
AcDbEntity
  8
5
 62
     2
100
AcDbLine
 10
-63.764288
 20
-72.825482
 30
0.0
 11
-62.211374
 21
-67.029927
 31
0.0
  0
LINE
  5
85D
100
AcDbEntity
  8
5
 62
     2
100
AcDbLine
 10
-63.764288
 20
-72.825482
 30
0.0
 11
-65.317202
 21
-67.029927
 31
0.0
  0
LINE
  5
85E
100
AcDbEntity
  8
5
 62
     2
100
AcDbLine
 10
-62.211374
 20
-67.029927
 30
0.0
 11
-65.317202
 21
-67.029927
 31
0.0
  0
LINE
  5
85F
100
AcDbEntity
  8
5
 62
     2
100
AcDbLine
 10
-63.764288
 20
-72.825482
 30
0.0
 11
-63.764288
 21
103.174518
 31
0.0
  0
LINE
  5
860
100
AcDbEntity
  8
5
 62
     2
100
AcDbLine
 10
-63.764288
 20
103.174518
 30
0.0
 11
-65.317202
 21
97.378963
 31
0.0
  0
LINE
  5
861
100
AcDbEntity
  8
5
 62
     2
100
AcDbLine
 10
-63.764288
 20
103.174518
 30
0.0
 11
-62.211374
 21
97.378963
 31
0.0
  0
LINE
  5
862
100
AcDbEntity
  8
5
 62
     2
100
AcDbLine
 10
-65.317202
 20
97.378963
 30
0.0
 11
-62.211374
 21
97.378963
 31
0.0
  0
LINE
  5
863
100
AcDbEntity
  8
5
 62
     2
100
AcDbLine
 10
111.385777
 20
103.174518
 30
0.0
 11
-66.764288
 21
103.174518
 31
0.0
  0
ENDBLK
  5
864
100
AcDbEntity
  8
5
100
AcDbBlockEnd
  0
BLOCK
  5
865
100
AcDbEntity
  8
5
100
AcDbBlockBegin
  2
*D6
 70
     1
 10
0.0
 20
0.0
 30
0.0
  3
*D6
  1

  0
TEXT
  5
866
100
AcDbEntity
  8
5
 62
     2
100
AcDbText
 10
-359.559223
 20
354.048859
 30
0.0
 40
9.9
  1
100
 41
1.4
 72
     5
 11
-341.541223
 21
354.048859
 31
0.0
100
AcDbText
  0
LINE
  5
867
100
AcDbEntity
  8
5
 62
     2
100
AcDbLine
 10
-399.164223
 20
234.324518
 30
0.0
 11
-399.164223
 21
355.548859
 31
0.0
  0
LINE
  5
868
100
AcDbEntity
  8
5
 62
     2
100
AcDbLine
 10
-399.164223
 20
352.548859
 30
0.0
 11
-393.368668
 21
350.995944
 31
0.0
  0
LINE
  5
869
100
AcDbEntity
  8
5
 62
     2
100
AcDbLine
 10
-399.164223
 20
352.548859
 30
0.0
 11
-393.368668
 21
354.101773
 31
0.0
  0
LINE
  5
86A
100
AcDbEntity
  8
5
 62
     2
100
AcDbLine
 10
-393.368668
 20
350.995944
 30
0.0
 11
-393.368668
 21
354.101773
 31
0.0
  0
LINE
  5
86B
100
AcDbEntity
  8
5
 62
     2
100
AcDbLine
 10
-399.164223
 20
352.548859
 30
0.0
 11
-299.164223
 21
352.548859
 31
0.0
  0
LINE
  5
86C
100
AcDbEntity
  8
5
 62
     2
100
AcDbLine
 10
-299.164223
 20
352.548859
 30
0.0
 11
-304.959778
 21
354.101773
 31
0.0
  0
LINE
  5
86D
100
AcDbEntity
  8
5
 62
     2
100
AcDbLine
 10
-299.164223
 20
352.548859
 30
0.0
 11
-304.959778
 21
350.995944
 31
0.0
  0
LINE
  5
86E
100
AcDbEntity
  8
5
 62
     2
100
AcDbLine
 10
-304.959778
 20
354.101773
 30
0.0
 11
-304.959778
 21
350.995944
 31
0.0
  0
LINE
  5
86F
100
AcDbEntity
  8
5
 62
     2
100
AcDbLine
 10
-299.164223
 20
328.993562
 30
0.0
 11
-299.164223
 21
355.548859
 31
0.0
  0
ENDBLK
  5
870
100
AcDbEntity
  8
5
100
AcDbBlockEnd
  0
BLOCK
  5
871
100
AcDbEntity
  8
5
100
AcDbBlockBegin
  2
*D7
 70
     1
 10
0.0
 20
0.0
 30
0.0
  3
*D7
  1

  0
TEXT
  5
872
100
AcDbEntity
  8
5
 62
     2
100
AcDbText
 10
-258.559223
 20
354.048859
 30
0.0
 40
9.9
  1
102
 41
1.4
 72
     5
 11
-240.541223
 21
354.048859
 31
0.0
100
AcDbText
  0
LINE
  5
873
100
AcDbEntity
  8
5
 62
     2
100
AcDbLine
 10
-299.164223
 20
352.548859
 30
0.0
 11
-293.368668
 21
350.995944
 31
0.0
  0
LINE
  5
874
100
AcDbEntity
  8
5
 62
     2
100
AcDbLine
 10
-299.164223
 20
352.548859
 30
0.0
 11
-293.368668
 21
354.101773
 31
0.0
  0
LINE
  5
875
100
AcDbEntity
  8
5
 62
     2
100
AcDbLine
 10
-293.368668
 20
350.995944
 30
0.0
 11
-293.368668
 21
354.101773
 31
0.0
  0
LINE
  5
876
100
AcDbEntity
  8
5
 62
     2
100
AcDbLine
 10
-299.164223
 20
352.548859
 30
0.0
 11
-197.164223
 21
352.548859
 31
0.0
  0
LINE
  5
877
100
AcDbEntity
  8
5
 62
     2
100
AcDbLine
 10
-197.164223
 20
352.548859
 30
0.0
 11
-202.959778
 21
354.101773
 31
0.0
  0
LINE
  5
878
100
AcDbEntity
  8
5
 62
     2
100
AcDbLine
 10
-197.164223
 20
352.548859
 30
0.0
 11
-202.959778
 21
350.995944
 31
0.0
  0
LINE
  5
879
100
AcDbEntity
  8
5
 62
     2
100
AcDbLine
 10
-202.959778
 20
354.101773
 30
0.0
 11
-202.959778
 21
350.995944
 31
0.0
  0
LINE
  5
87A
100
AcDbEntity
  8
5
 62
     2
100
AcDbLine
 10
-197.164223
 20
302.824518
 30
0.0
 11
-197.164223
 21
355.548859
 31
0.0
  0
ENDBLK
  5
87B
100
AcDbEntity
  8
5
100
AcDbBlockEnd
  0
BLOCK
  5
87C
100
AcDbEntity
  8
5
100
AcDbBlockBegin
  2
*D8
 70
     1
 10
0.0
 20
0.0
 30
0.0
  3
*D8
  1

  0
TEXT
  5
87D
100
AcDbEntity
  8
5
 62
     2
100
AcDbText
 10
-158.719551
 20
274.866018
 30
0.0
 40
9.9
  1
53.8
 50
90.0
 41
1.4
 72
     5
 11
-158.719551
 21
299.814017
 31
0.0
100
AcDbText
  0
LINE
  5
87E
100
AcDbEntity
  8
5
 62
     2
100
AcDbLine
 10
-190.65867
 20
261.824518
 30
0.0
 11
-154.219551
 21
261.824518
 31
0.0
  0
LINE
  5
87F
100
AcDbEntity
  8
5
 62
     2
100
AcDbLine
 10
-157.219551
 20
261.824518
 30
0.0
 11
-155.666637
 21
267.620073
 31
0.0
  0
LINE
  5
880
100
AcDbEntity
  8
5
 62
     2
100
AcDbLine
 10
-157.219551
 20
261.824518
 30
0.0
 11
-158.772465
 21
267.620073
 31
0.0
  0
LINE
  5
881
100
AcDbEntity
  8
5
 62
     2
100
AcDbLine
 10
-155.666637
 20
267.620073
 30
0.0
 11
-158.772465
 21
267.620073
 31
0.0
  0
LINE
  5
882
100
AcDbEntity
  8
5
 62
     2
100
AcDbLine
 10
-157.219551
 20
261.824518
 30
0.0
 11
-157.219551
 21
315.627518
 31
0.0
  0
LINE
  5
883
100
AcDbEntity
  8
5
 62
     2
100
AcDbLine
 10
-157.219551
 20
315.627518
 30
0.0
 11
-158.772465
 21
309.831963
 31
0.0
  0
LINE
  5
884
100
AcDbEntity
  8
5
 62
     2
100
AcDbLine
 10
-157.219551
 20
315.627518
 30
0.0
 11
-155.666637
 21
309.831963
 31
0.0
  0
LINE
  5
885
100
AcDbEntity
  8
5
 62
     2
100
AcDbLine
 10
-158.772465
 20
309.831963
 30
0.0
 11
-155.666637
 21
309.831963
 31
0.0
  0
LINE
  5
886
100
AcDbEntity
  8
5
 62
     2
100
AcDbLine
 10
-212.361223
 20
315.627518
 30
0.0
 11
-154.219551
 21
315.627518
 31
0.0
  0
ENDBLK
  5
887
100
AcDbEntity
  8
5
100
AcDbBlockEnd
  0
BLOCK
  5
888
100
AcDbEntity
  8
5
100
AcDbBlockBegin
  2
*D9
 70
     1
 10
0.0
 20
0.0
 30
0.0
  3
*D9
  1

  0
TEXT
  5
889
100
AcDbEntity
  8
5
 62
     2
100
AcDbText
 10
-158.719551
 20
212.394518
 30
0.0
 40
9.9
  1
85
 50
90.0
 41
1.4
 72
     5
 11
-158.719551
 21
223.482518
 31
0.0
100
AcDbText
  0
LINE
  5
88A
100
AcDbEntity
  8
5
 62
     2
100
AcDbLine
 10
-255.464223
 20
176.824518
 30
0.0
 11
-154.219551
 21
176.824518
 31
0.0
  0
LINE
  5
88B
100
AcDbEntity
  8
5
 62
     2
100
AcDbLine
 10
-157.219551
 20
176.824518
 30
0.0
 11
-155.666637
 21
182.620073
 31
0.0
  0
LINE
  5
88C
100
AcDbEntity
  8
5
 62
     2
100
AcDbLine
 10
-157.219551
 20
176.824518
 30
0.0
 11
-158.772465
 21
182.620073
 31
0.0
  0
LINE
  5
88D
100
AcDbEntity
  8
5
 62
     2
100
AcDbLine
 10
-155.666637
 20
182.620073
 30
0.0
 11
-158.772465
 21
182.620073
 31
0.0
  0
LINE
  5
88E
100
AcDbEntity
  8
5
 62
     2
100
AcDbLine
 10
-157.219551
 20
176.824518
 30
0.0
 11
-157.219551
 21
261.824518
 31
0.0
  0
LINE
  5
88F
100
AcDbEntity
  8
5
 62
     2
100
AcDbLine
 10
-157.219551
 20
261.824518
 30
0.0
 11
-158.772465
 21
256.028963
 31
0.0
  0
LINE
  5
890
100
AcDbEntity
  8
5
 62
     2
100
AcDbLine
 10
-157.219551
 20
261.824518
 30
0.0
 11
-155.666637
 21
256.028963
 31
0.0
  0
LINE
  5
891
100
AcDbEntity
  8
5
 62
     2
100
AcDbLine
 10
-158.772465
 20
256.028963
 30
0.0
 11
-155.666637
 21
256.028963
 31
0.0
  0
ENDBLK
  5
892
100
AcDbEntity
  8
5
100
AcDbBlockEnd
  0
ENDSEC
  0
SECTION
  2
ENTITIES
  0
LINE
  5
31
100
AcDbEntity
  8
1
  6
CENTER
 62
     2
100
AcDbLine
 10
114.385777
 20
113.795403
 30
0.0
 11
114.385777
 21
-364.163632
 31
0.0
  0
LINE
  5
32
100
AcDbEntity
  8
1
  6
CENTER
 62
     2
100
AcDbLine
 10
-323.914223
 20
-153.135075
 30
0.0
 11
-323.914223
 21
-195.134814
 31
0.0
  0
LINE
  5
33
100
AcDbEntity
  8
1
  6
CENTER
 62
     2
100
AcDbLine
 10
-274.414223
 20
-153.135075
 30
0.0
 11
-274.414223
 21
-195.134814
 31
0.0
  0
LINE
  5
34
100
AcDbEntity
  8
1
  6
DASHED
100
AcDbLine
 10
-334.164223
 20
236.824518
 30
0.0
 11
-334.164223
 21
286.824518
 31
0.0
  0
LINE
  5
35
100
AcDbEntity
  8
1
  6
DASHED
100
AcDbLine
 10
-264.164223
 20
236.824518
 30
0.0
 11
-264.164223
 21
286.824518
 31
0.0
  0
LINE
  5
36
100
AcDbEntity
  8
1
  6
DASHED
100
AcDbLine
 10
-324.164223
 20
296.824518
 30
0.0
 11
-274.164223
 21
296.824518
 31
0.0
  0
LINE
  5
37
100
AcDbEntity
  8
1
  6
DASHED
100
AcDbLine
 10
-324.164223
 20
226.824518
 30
0.0
 11
-274.164223
 21
226.824518
 31
0.0
  0
ARC
  5
38
100
AcDbEntity
  8
1
  6
DASHED
100
AcDbCircle
 10
-274.164223
 20
286.824518
 30
0.0
 40
10.0
100
AcDbArc
 50
0.0
 51
90.0
  0
ARC
  5
39
100
AcDbEntity
  8
1
  6
DASHED
100
AcDbCircle
 10
-324.164223
 20
286.824518
 30
0.0
 40
10.0
100
AcDbArc
 50
90.0
 51
180.0
  0
ARC
  5
3A
100
AcDbEntity
  8
1
  6
DASHED
100
AcDbCircle
 10
-324.164223
 20
236.824518
 30
0.0
 40
10.0
100
AcDbArc
 50
180.0
 51
270.0
  0
ARC
  5
3B
100
AcDbEntity
  8
1
  6
DASHED
100
AcDbCircle
 10
-274.164223
 20
236.824518
 30
0.0
 40
10.0
100
AcDbArc
 50
270.0
 51
0.0
  0
CIRCLE
  5
3C
100
AcDbEntity
  8
1
  6
DASHED
100
AcDbCircle
 10
-274.414223
 20
286.574518
 30
0.0
 40
4.5
  0
CIRCLE
  5
3D
100
AcDbEntity
  8
1
  6
DASHED
100
AcDbCircle
 10
-323.914223
 20
286.574518
 30
0.0
 40
4.5
  0
CIRCLE
  5
3E
100
AcDbEntity
  8
1
  6
DASHED
100
AcDbCircle
 10
-323.914223
 20
237.074518
 30
0.0
 40
4.5
  0
CIRCLE
  5
3F
100
AcDbEntity
  8
1
  6
DASHED
100
AcDbCircle
 10
-274.414223
 20
237.074518
 30
0.0
 40
4.5
  0
LINE
  5
40
100
AcDbEntity
  8
1
  6
CENTER
 62
     2
100
AcDbLine
 10
-281.914223
 20
286.574518
 30
0.0
 11
-266.914223
 21
286.574518
 31
0.0
  0
LINE
  5
41
100
AcDbEntity
  8
1
  6
CENTER
 62
     2
100
AcDbLine
 10
-274.414223
 20
279.074518
 30
0.0
 11
-274.414223
 21
294.074518
 31
0.0
  0
LINE
  5
42
100
AcDbEntity
  8
1
  6
CENTER
 62
     2
100
AcDbLine
 10
-331.414223
 20
286.574518
 30
0.0
 11
-316.414223
 21
286.574518
 31
0.0
  0
LINE
  5
43
100
AcDbEntity
  8
1
  6
CENTER
 62
     2
100
AcDbLine
 10
-323.914223
 20
279.074518
 30
0.0
 11
-323.914223
 21
294.074518
 31
0.0
  0
LINE
  5
44
100
AcDbEntity
  8
1
  6
CENTER
 62
     2
100
AcDbLine
 10
-331.414223
 20
237.074518
 30
0.0
 11
-316.414223
 21
237.074518
 31
0.0
  0
LINE
  5
45
100
AcDbEntity
  8
1
  6
CENTER
 62
     2
100
AcDbLine
 10
-323.914223
 20
229.574518
 30
0.0
 11
-323.914223
 21
244.574518
 31
0.0
  0
LINE
  5
46
100
AcDbEntity
  8
1
  6
CENTER
 62
     2
100
AcDbLine
 10
-281.914223
 20
237.074518
 30
0.0
 11
-266.914223
 21
237.074518
 31
0.0
  0
LINE
  5
47
100
AcDbEntity
  8
1
  6
CENTER
 62
     2
100
AcDbLine
 10
-274.414223
 20
229.574518
 30
0.0
 11
-274.414223
 21
244.574518
 31
0.0
  0
LINE
  5
48
100
AcDbEntity
  8
1
  6
CENTER
 62
     2
100
AcDbLine
 10
140.135777
 20
-162.555862
 30
0.0
 11
140.135777
 21
-195.134814
 31
0.0
  0
LINE
  5
49
100
AcDbEntity
  8
1
  6
CENTER
 62
     2
100
AcDbLine
 10
90.635777
 20
-162.555862
 30
0.0
 11
90.635777
 21
-195.134814
 31
0.0
  0
LINE
  5
4A
100
AcDbEntity
  8
1
  6
CENTER
 62
     2
100
AcDbLine
 10
-299.164223
 20
112.486702
 30
0.0
 11
-299.164223
 21
-364.163632
 31
0.0
  0
LINE
  5
4B
100
AcDbEntity
  8
1
  6
CENTER
 62
     2
100
AcDbLine
 10
-300.014223
 20
220.95408
 30
0.0
 11
-300.014223
 21
302.16958
 31
0.0
  0
LINE
  5
4C
100
AcDbEntity
  8
1
  6
CENTER
 62
     2
100
AcDbLine
 10
-353.084978
 20
-290.825482
 30
0.0
 11
-247.202639
 21
-290.825482
 31
0.0
  0
LINE
  5
4D
100
AcDbEntity
  8
1
  6
CENTER
 62
     2
100
AcDbLine
 10
-300.014223
 20
-178.076947
 30
0.0
 11
-300.014223
 21
-360.828092
 31
0.0
  0
LINE
  5
4E
100
AcDbEntity
  8
1
  6
CENTER
 62
     2
100
AcDbLine
 10
87.090996
 20
-290.825482
 30
0.0
 11
142.331412
 21
-290.825482
 31
0.0
  0
LINE
  5
4F
100
AcDbEntity
  8
1
100
AcDbLine
 10
-315.014223
 20
-345.825482
 30
0.0
 11
-285.014223
 21
-345.825482
 31
0.0
  0
CIRCLE
  5
50
100
AcDbEntity
  8
1
100
AcDbCircle
 10
-300.014223
 20
-290.825482
 30
0.0
 40
40.5
  0
CIRCLE
  5
51
100
AcDbEntity
  8
1
100
AcDbCircle
 10
-300.014223
 20
-290.825482
 30
0.0
 40
24.0
  0
LINE
  5
52
100
AcDbEntity
  8
1
100
AcDbLine
 10
-285.014223
 20
-350.325482
 30
0.0
 11
-285.014223
 21
-330.426619
 31
0.0
  0
LINE
  5
53
100
AcDbEntity
  8
1
100
AcDbLine
 10
-285.014223
 20
-251.224346
 30
0.0
 11
-285.014223
 21
-189.825482
 31
0.0
  0
LINE
  5
54
100
AcDbEntity
  8
1
100
AcDbLine
 10
-315.014223
 20
-350.325482
 30
0.0
 11
-315.014223
 21
-330.426619
 31
0.0
  0
LINE
  5
55
100
AcDbEntity
  8
1
100
AcDbLine
 10
-315.014223
 20
-251.224346
 30
0.0
 11
-315.014223
 21
-189.825482
 31
0.0
  0
ARC
  5
56
100
AcDbEntity
  8
1
100
AcDbCircle
 10
-282.014223
 20
-251.224346
 30
0.0
 40
3.0
100
AcDbArc
 50
180.0
 51
245.556665
  0
ARC
  5
57
100
AcDbEntity
  8
1
100
AcDbCircle
 10
-318.014223
 20
-251.224346
 30
0.0
 40
3.0
100
AcDbArc
 50
294.443335
 51
360.0
  0
ARC
  5
58
100
AcDbEntity
  8
1
100
AcDbCircle
 10
-282.014223
 20
-330.426619
 30
0.0
 40
3.0
100
AcDbArc
 50
114.443335
 51
180.0
  0
ARC
  5
59
100
AcDbEntity
  8
1
100
AcDbCircle
 10
-318.014223
 20
-330.426619
 30
0.0
 40
3.0
100
AcDbArc
 50
0.0
 51
65.556665
  0
LINE
  5
5A
100
AcDbEntity
  8
1
100
AcDbLine
 10
-330.164223
 20
-184.825482
 30
0.0
 11
-268.164223
 21
-184.825482
 31
0.0
  0
LINE
  5
5B
100
AcDbEntity
  8
1
100
AcDbLine
 10
-264.164223
 20
-172.825482
 30
0.0
 11
-264.164223
 21
-180.825482
 31
0.0
  0
LINE
  5
5C
100
AcDbEntity
  8
1
100
AcDbLine
 10
-334.164223
 20
-172.825482
 30
0.0
 11
-334.164223
 21
-180.825482
 31
0.0
  0
ARC
  5
5D
100
AcDbEntity
  8
1
100
AcDbCircle
 10
-330.164223
 20
-180.825482
 30
0.0
 40
4.0
100
AcDbArc
 50
180.0
 51
270.0
  0
ARC
  5
5E
100
AcDbEntity
  8
1
100
AcDbCircle
 10
-268.164223
 20
-180.825482
 30
0.0
 40
4.0
100
AcDbArc
 50
270.0
 51
0.0
  0
ARC
  5
5F
100
AcDbEntity
  8
1
100
AcDbCircle
 10
-280.014223
 20
-189.825482
 30
0.0
 40
5.0
100
AcDbArc
 50
90.0
 51
180.0
  0
ARC
  5
60
100
AcDbEntity
  8
1
100
AcDbCircle
 10
-320.014223
 20
-189.825482
 30
0.0
 40
5.0
100
AcDbArc
 50
0.0
 51
90.0
  0
ARC
  5
61
100
AcDbEntity
  8
1
100
AcDbCircle
 10
-270.014223
 20
-199.825482
 30
0.0
 40
15.0
100
AcDbArc
 50
90.0
 51
180.0
  0
ARC
  5
62
100
AcDbEntity
  8
1
100
AcDbCircle
 10
-330.014223
 20
-199.825482
 30
0.0
 40
15.0
100
AcDbArc
 50
0.0
 51
90.0
  0
LINE
  5
63
100
AcDbEntity
  8
1
100
AcDbLine
 10
-297.014223
 20
-199.825482
 30
0.0
 11
-303.014223
 21
-199.825482
 31
0.0
  0
LINE
  5
64
100
AcDbEntity
  8
1
100
AcDbLine
 10
-303.014223
 20
-186.825482
 30
0.0
 11
-303.014223
 21
-197.825482
 31
0.0
  0
LINE
  5
65
100
AcDbEntity
  8
1
100
AcDbLine
 10
-297.014223
 20
-186.825482
 30
0.0
 11
-297.014223
 21
-197.825482
 31
0.0
  0
ARC
  5
66
100
AcDbEntity
  8
1
100
AcDbCircle
 10
-305.014223
 20
-197.825482
 30
0.0
 40
2.0
100
AcDbArc
 50
270.0
 51
360.0
  0
ARC
  5
67
100
AcDbEntity
  8
1
100
AcDbCircle
 10
-295.014223
 20
-197.825482
 30
0.0
 40
2.0
100
AcDbArc
 50
180.0
 51
270.0
  0
ARC
  5
68
100
AcDbEntity
  8
1
100
AcDbCircle
 10
-295.014223
 20
-186.825482
 30
0.0
 40
2.0
100
AcDbArc
 50
90.0
 51
180.0
  0
ARC
  5
69
100
AcDbEntity
  8
1
100
AcDbCircle
 10
-305.014223
 20
-186.825482
 30
0.0
 40
2.0
100
AcDbArc
 50
0.0
 51
90.0
  0
LINE
  5
6A
100
AcDbEntity
  8
1
100
AcDbLine
 10
-340.514223
 20
-236.548863
 30
0.0
 11
-340.514223
 21
-238.088713
 31
0.0
  0
LINE
  5
6B
100
AcDbEntity
  8
1
100
AcDbLine
 10
-259.514223
 20
-236.548863
 30
0.0
 11
-259.514223
 21
-238.088713
 31
0.0
  0
ARC
  5
6C
100
AcDbEntity
  8
1
100
AcDbCircle
 10
-300.014223
 20
-305.825482
 30
0.0
 40
81.0
100
AcDbArc
 50
60.622208
 51
77.626375
  0
ARC
  5
6D
100
AcDbEntity
  8
1
100
AcDbCircle
 10
-300.014223
 20
-305.825482
 30
0.0
 40
81.0
100
AcDbArc
 50
102.373625
 51
119.377792
  0
ARC
  5
6E
100
AcDbEntity
  8
1
100
AcDbCircle
 10
-282.014223
 20
-223.776716
 30
0.0
 40
3.0
100
AcDbArc
 50
180.0
 51
257.626375
  0
ARC
  5
6F
100
AcDbEntity
  8
1
100
AcDbCircle
 10
-318.014223
 20
-223.776716
 30
0.0
 40
3.0
100
AcDbArc
 50
282.373625
 51
360.0
  0
LINE
  5
70
100
AcDbEntity
  8
1
100
AcDbLine
 10
-270.039244
 20
-246.740331
 30
0.0
 11
-273.000355
 21
-254.832414
 31
0.0
  0
LINE
  5
71
100
AcDbEntity
  8
1
100
AcDbLine
 10
-329.989203
 20
-246.740331
 30
0.0
 11
-327.028091
 21
-254.832414
 31
0.0
  0
ARC
  5
72
100
AcDbEntity
  8
1
100
AcDbCircle
 10
-259.709137
 20
-250.520396
 30
0.0
 40
11.0
100
AcDbArc
 50
95.992998
 51
159.901062
  0
ARC
  5
73
100
AcDbEntity
  8
1
100
AcDbCircle
 10
-340.31931
 20
-250.520396
 30
0.0
 40
11.0
100
AcDbArc
 50
20.098938
 51
84.007002
  0
ARC
  5
74
100
AcDbEntity
  8
1
100
AcDbCircle
 10
-261.014223
 20
-236.548863
 30
0.0
 40
1.5
100
AcDbArc
 50
0.0
 51
60.622208
  0
ARC
  5
75
100
AcDbEntity
  8
1
100
AcDbCircle
 10
-261.014223
 20
-238.088713
 30
0.0
 40
1.5
100
AcDbArc
 50
275.992998
 51
360.0
  0
ARC
  5
76
100
AcDbEntity
  8
1
100
AcDbCircle
 10
-339.014223
 20
-238.088713
 30
0.0
 40
1.5
100
AcDbArc
 50
180.0
 51
264.007002
  0
ARC
  5
77
100
AcDbEntity
  8
1
100
AcDbCircle
 10
-339.014223
 20
-236.548863
 30
0.0
 40
1.5
100
AcDbArc
 50
119.377792
 51
180.0
  0
LINE
  5
78
100
AcDbEntity
  8
1
100
AcDbLine
 10
-273.426651
 20
-257.23791
 30
0.0
 11
-273.426651
 21
-260.274688
 31
0.0
  0
LINE
  5
79
100
AcDbEntity
  8
1
100
AcDbLine
 10
-326.601795
 20
-257.23791
 30
0.0
 11
-326.601795
 21
-260.274688
 31
0.0
  0
ARC
  5
7A
100
AcDbEntity
  8
1
100
AcDbCircle
 10
-266.426651
 20
-257.23791
 30
0.0
 40
7.0
100
AcDbArc
 50
159.901062
 51
180.0
  0
ARC
  5
7B
100
AcDbEntity
  8
1
100
AcDbCircle
 10
-333.601795
 20
-257.23791
 30
0.0
 40
7.0
100
AcDbArc
 50
0.0
 51
20.098938
  0
LINE
  5
7C
100
AcDbEntity
  8
1
100
AcDbLine
 10
-269.680355
 20
-338.701663
 30
0.0
 11
-275.882439
 21
-323.350965
 31
0.0
  0
ARC
  5
7D
100
AcDbEntity
  8
1
100
AcDbCircle
 10
-272.461906
 20
-339.825482
 30
0.0
 40
3.0
100
AcDbArc
 50
270.0
 51
22.0
  0
ARC
  5
7E
100
AcDbEntity
  8
1
100
AcDbCircle
 10
-327.56654
 20
-339.825482
 30
0.0
 40
3.0
100
AcDbArc
 50
158.0
 51
270.0
  0
LINE
  5
7F
100
AcDbEntity
  8
1
100
AcDbLine
 10
-330.348092
 20
-338.701663
 30
0.0
 11
-324.146007
 21
-323.350965
 31
0.0
  0
LINE
  5
80
100
AcDbEntity
  8
1
100
AcDbLine
 10
-327.56654
 20
-342.825482
 30
0.0
 11
-318.014223
 21
-342.825482
 31
0.0
  0
LINE
  5
81
100
AcDbEntity
  8
1
100
AcDbLine
 10
-282.014223
 20
-342.825482
 30
0.0
 11
-272.461906
 21
-342.825482
 31
0.0
  0
ARC
  5
82
100
AcDbEntity
  8
1
100
AcDbCircle
 10
-282.014223
 20
-345.825482
 30
0.0
 40
3.0
100
AcDbArc
 50
90.0
 51
180.0
  0
ARC
  5
83
100
AcDbEntity
  8
1
100
AcDbCircle
 10
-318.014223
 20
-345.825482
 30
0.0
 40
3.0
100
AcDbArc
 50
0.0
 51
90.0
  0
LINE
  5
84
100
AcDbEntity
  8
1
  6
CENTER
 62
     2
100
AcDbLine
 10
-309.514223
 20
-341.023816
 30
0.0
 11
-309.514223
 21
-358.329618
 31
0.0
  0
LINE
  5
85
100
AcDbEntity
  8
1
  6
CENTER
 62
     2
100
AcDbLine
 10
-290.514223
 20
-341.023816
 30
0.0
 11
-290.514223
 21
-358.329618
 31
0.0
  0
LINE
  5
86
100
AcDbEntity
  8
1
100
AcDbLine
 10
-315.014223
 20
-347.325482
 30
0.0
 11
-285.014223
 21
-347.325482
 31
0.0
  0
LINE
  5
87
100
AcDbEntity
  8
1
100
AcDbLine
 10
-315.014223
 20
-350.325482
 30
0.0
 11
-285.014223
 21
-350.325482
 31
0.0
  0
LINE
  5
88
100
AcDbEntity
  8
1
100
AcDbLine
 10
-285.914223
 20
-351.625482
 30
0.0
 11
-285.914223
 21
-354.721337
 31
0.0
  0
LINE
  5
89
100
AcDbEntity
  8
1
100
AcDbLine
 10
-285.914223
 20
-354.721337
 30
0.0
 11
-286.614223
 21
-355.125482
 31
0.0
  0
LINE
  5
8A
100
AcDbEntity
  8
1
100
AcDbLine
 10
-288.214223
 20
-351.625482
 30
0.0
 11
-288.214223
 21
-354.721337
 31
0.0
  0
ARC
  5
8B
100
AcDbEntity
  8
1
100
AcDbCircle
 10
-287.064223
 20
-353.242973
 30
0.0
 40
1.872982
100
AcDbArc
 50
232.121121
 51
307.878879
  0
ARC
  5
8C
100
AcDbEntity
  8
1
100
AcDbCircle
 10
-290.514223
 20
-348.215955
 30
0.0
 40
6.9
100
AcDbArc
 50
250.528777
 51
289.471219
  0
LINE
  5
8D
100
AcDbEntity
  8
1
100
AcDbLine
 10
-295.114223
 20
-351.625482
 30
0.0
 11
-295.114223
 21
-354.721337
 31
0.0
  0
LINE
  5
8E
100
AcDbEntity
  8
1
100
AcDbLine
 10
-295.114223
 20
-354.721337
 30
0.0
 11
-294.414223
 21
-355.125482
 31
0.0
  0
LINE
  5
8F
100
AcDbEntity
  8
1
100
AcDbLine
 10
-294.414223
 20
-355.125482
 30
0.0
 11
-286.614223
 21
-355.125482
 31
0.0
  0
LINE
  5
90
100
AcDbEntity
  8
1
100
AcDbLine
 10
-292.814223
 20
-351.625482
 30
0.0
 11
-292.814223
 21
-354.721337
 31
0.0
  0
ARC
  5
91
100
AcDbEntity
  8
1
100
AcDbCircle
 10
-293.964223
 20
-353.242973
 30
0.0
 40
1.872982
100
AcDbArc
 50
232.121121
 51
307.878879
  0
LINE
  5
92
100
AcDbEntity
  8
1
100
AcDbLine
 10
-285.914223
 20
-350.325482
 30
0.0
 11
-285.914223
 21
-351.625482
 31
0.0
  0
LINE
  5
93
100
AcDbEntity
  8
1
100
AcDbLine
 10
-285.914223
 20
-351.625482
 30
0.0
 11
-295.114223
 21
-351.625482
 31
0.0
  0
LINE
  5
94
100
AcDbEntity
  8
1
100
AcDbLine
 10
-295.114223
 20
-351.625482
 30
0.0
 11
-295.114223
 21
-350.325482
 31
0.0
  0
LINE
  5
95
100
AcDbEntity
  8
1
100
AcDbLine
 10
-290.514223
 20
-351.625482
 30
0.0
 11
-291.014223
 21
-350.325482
 31
0.0
  0
LINE
  5
96
100
AcDbEntity
  8
1
100
AcDbLine
 10
-290.514223
 20
-350.325482
 30
0.0
 11
-290.014223
 21
-351.625482
 31
0.0
  0
LINE
  5
97
100
AcDbEntity
  8
1
100
AcDbLine
 10
-304.914223
 20
-351.625482
 30
0.0
 11
-304.914223
 21
-354.721337
 31
0.0
  0
LINE
  5
98
100
AcDbEntity
  8
1
100
AcDbLine
 10
-304.914223
 20
-354.721337
 30
0.0
 11
-305.614223
 21
-355.125482
 31
0.0
  0
LINE
  5
99
100
AcDbEntity
  8
1
100
AcDbLine
 10
-307.214223
 20
-351.625482
 30
0.0
 11
-307.214223
 21
-354.721337
 31
0.0
  0
ARC
  5
9A
100
AcDbEntity
  8
1
100
AcDbCircle
 10
-306.064223
 20
-353.242973
 30
0.0
 40
1.872982
100
AcDbArc
 50
232.121121
 51
307.878879
  0
ARC
  5
9B
100
AcDbEntity
  8
1
100
AcDbCircle
 10
-309.514223
 20
-348.215955
 30
0.0
 40
6.9
100
AcDbArc
 50
250.528777
 51
289.471219
  0
LINE
  5
9C
100
AcDbEntity
  8
1
100
AcDbLine
 10
-314.114223
 20
-351.625482
 30
0.0
 11
-314.114223
 21
-354.721337
 31
0.0
  0
LINE
  5
9D
100
AcDbEntity
  8
1
100
AcDbLine
 10
-314.114223
 20
-354.721337
 30
0.0
 11
-313.414223
 21
-355.125482
 31
0.0
  0
LINE
  5
9E
100
AcDbEntity
  8
1
100
AcDbLine
 10
-313.414223
 20
-355.125482
 30
0.0
 11
-305.614223
 21
-355.125482
 31
0.0
  0
LINE
  5
9F
100
AcDbEntity
  8
1
100
AcDbLine
 10
-311.814223
 20
-351.625482
 30
0.0
 11
-311.814223
 21
-354.721337
 31
0.0
  0
ARC
  5
A0
100
AcDbEntity
  8
1
100
AcDbCircle
 10
-312.964223
 20
-353.242973
 30
0.0
 40
1.872982
100
AcDbArc
 50
232.121121
 51
307.878879
  0
LINE
  5
A1
100
AcDbEntity
  8
1
100
AcDbLine
 10
-304.914223
 20
-350.325482
 30
0.0
 11
-304.914223
 21
-351.625482
 31
0.0
  0
LINE
  5
A2
100
AcDbEntity
  8
1
100
AcDbLine
 10
-304.914223
 20
-351.625482
 30
0.0
 11
-314.114223
 21
-351.625482
 31
0.0
  0
LINE
  5
A3
100
AcDbEntity
  8
1
100
AcDbLine
 10
-314.114223
 20
-351.625482
 30
0.0
 11
-314.114223
 21
-350.325482
 31
0.0
  0
LINE
  5
A4
100
AcDbEntity
  8
1
100
AcDbLine
 10
-309.514223
 20
-351.625482
 30
0.0
 11
-310.014223
 21
-350.325482
 31
0.0
  0
LINE
  5
A5
100
AcDbEntity
  8
1
100
AcDbLine
 10
-309.514223
 20
-350.325482
 30
0.0
 11
-309.014223
 21
-351.625482
 31
0.0
  0
LINE
  5
A6
100
AcDbEntity
  8
1
  6
DASHED
100
AcDbLine
 10
-340.514223
 20
279.824518
 30
0.0
 11
-334.164223
 21
279.824518
 31
0.0
  0
LINE
  5
A7
100
AcDbEntity
  8
1
  6
DASHED
100
AcDbLine
 10
-340.514223
 20
246.824518
 30
0.0
 11
-334.164223
 21
246.824518
 31
0.0
  0
LINE
  5
A8
100
AcDbEntity
  8
1
  6
DASHED
100
AcDbLine
 10
-340.514223
 20
246.824518
 30
0.0
 11
-340.514223
 21
279.824518
 31
0.0
  0
LINE
  5
A9
100
AcDbEntity
  8
1
  6
DASHED
100
AcDbLine
 10
-338.41212
 20
253.824518
 30
0.0
 11
-334.164223
 21
253.824518
 31
0.0
  0
LINE
  5
AA
100
AcDbEntity
  8
1
  6
DASHED
100
AcDbLine
 10
-338.41212
 20
266.824518
 30
0.0
 11
-334.164223
 21
266.824518
 31
0.0
  0
LINE
  5
AB
100
AcDbEntity
  8
1
  6
DASHED
100
AcDbLine
 10
-334.164223
 20
265.31883
 30
0.0
 11
-338.41212
 21
266.433025
 31
0.0
  0
LINE
  5
AC
100
AcDbEntity
  8
1
  6
DASHED
100
AcDbLine
 10
-334.164223
 20
255.330205
 30
0.0
 11
-338.41212
 21
254.216011
 31
0.0
  0
ARC
  5
AD
100
AcDbEntity
  8
1
  6
DASHED
100
AcDbCircle
 10
-337.904698
 20
268.367585
 30
0.0
 40
2.0
100
AcDbArc
 50
180.0
 51
255.30278
  0
ARC
  5
AE
100
AcDbEntity
  8
1
  6
DASHED
100
AcDbCircle
 10
-337.904698
 20
252.281451
 30
0.0
 40
2.0
100
AcDbArc
 50
104.69722
 51
180.0
  0
LINE
  5
AF
100
AcDbEntity
  8
1
100
AcDbLine
 10
132.385777
 20
-331.325482
 30
0.0
 11
132.385777
 21
-250.325482
 31
0.0
  0
LINE
  5
B0
100
AcDbEntity
  8
1
100
AcDbLine
 10
99.385777
 20
-331.325482
 30
0.0
 11
99.385777
 21
-250.325482
 31
0.0
  0
LINE
  5
B1
100
AcDbEntity
  8
1
  6
DASHED
100
AcDbLine
 10
-338.514223
 20
264.824518
 30
0.0
 11
-334.164223
 21
264.824518
 31
0.0
  0
LINE
  5
B2
100
AcDbEntity
  8
1
  6
DASHED
100
AcDbLine
 10
-338.514223
 20
258.824518
 30
0.0
 11
-334.164223
 21
258.824518
 31
0.0
  0
ARC
  5
B3
100
AcDbEntity
  8
1
  6
DASHED
100
AcDbCircle
 10
-338.514223
 20
262.824518
 30
0.0
 40
2.0
100
AcDbArc
 50
90.0
 51
180.0
  0
ARC
  5
B4
100
AcDbEntity
  8
1
  6
DASHED
100
AcDbCircle
 10
-338.514223
 20
260.824518
 30
0.0
 40
2.0
100
AcDbArc
 50
180.0
 51
270.0
  0
LINE
  5
B5
100
AcDbEntity
  8
1
  6
DASHED
100
AcDbLine
 10
-339.904698
 20
253.824518
 30
0.0
 11
-339.904698
 21
259.386957
 31
0.0
  0
LINE
  5
B6
100
AcDbEntity
  8
1
  6
DASHED
100
AcDbLine
 10
-339.904698
 20
264.262078
 30
0.0
 11
-339.904698
 21
266.824518
 31
0.0
  0
LINE
  5
B7
100
AcDbEntity
  8
1
  6
DASHED
100
AcDbLine
 10
-259.514223
 20
279.824518
 30
0.0
 11
-264.164223
 21
279.824518
 31
0.0
  0
LINE
  5
B8
100
AcDbEntity
  8
1
  6
DASHED
100
AcDbLine
 10
-259.514223
 20
246.824518
 30
0.0
 11
-264.164223
 21
246.824518
 31
0.0
  0
LINE
  5
B9
100
AcDbEntity
  8
1
  6
DASHED
100
AcDbLine
 10
-259.514223
 20
246.824518
 30
0.0
 11
-259.514223
 21
279.824518
 31
0.0
  0
LINE
  5
BA
100
AcDbEntity
  8
1
  6
DASHED
100
AcDbLine
 10
-261.616326
 20
253.824518
 30
0.0
 11
-264.164223
 21
253.824518
 31
0.0
  0
LINE
  5
BB
100
AcDbEntity
  8
1
  6
DASHED
100
AcDbLine
 10
-261.616326
 20
266.824518
 30
0.0
 11
-264.164223
 21
266.824518
 31
0.0
  0
LINE
  5
BC
100
AcDbEntity
  8
1
  6
DASHED
100
AcDbLine
 10
-264.164223
 20
265.764728
 30
0.0
 11
-261.616326
 21
266.433025
 31
0.0
  0
LINE
  5
BD
100
AcDbEntity
  8
1
  6
DASHED
100
AcDbLine
 10
-264.164223
 20
254.884307
 30
0.0
 11
-261.616326
 21
254.216011
 31
0.0
  0
ARC
  5
BE
100
AcDbEntity
  8
1
  6
DASHED
100
AcDbCircle
 10
-262.123748
 20
268.367585
 30
0.0
 40
2.0
100
AcDbArc
 50
284.69722
 51
360.0
  0
ARC
  5
BF
100
AcDbEntity
  8
1
  6
DASHED
100
AcDbCircle
 10
-262.123748
 20
252.281451
 30
0.0
 40
2.0
100
AcDbArc
 50
360.0
 51
75.30278
  0
LINE
  5
C0
100
AcDbEntity
  8
1
  6
DASHED
100
AcDbLine
 10
-261.514223
 20
264.824518
 30
0.0
 11
-264.164223
 21
264.824518
 31
0.0
  0
LINE
  5
C1
100
AcDbEntity
  8
1
  6
DASHED
100
AcDbLine
 10
-261.514223
 20
258.824518
 30
0.0
 11
-264.164223
 21
258.824518
 31
0.0
  0
ARC
  5
C2
100
AcDbEntity
  8
1
  6
DASHED
100
AcDbCircle
 10
-261.514223
 20
262.824518
 30
0.0
 40
2.0
100
AcDbArc
 50
0.0
 51
90.0
  0
ARC
  5
C3
100
AcDbEntity
  8
1
  6
DASHED
100
AcDbCircle
 10
-261.514223
 20
260.824518
 30
0.0
 40
2.0
100
AcDbArc
 50
270.0
 51
360.0
  0
LINE
  5
C4
100
AcDbEntity
  8
1
  6
DASHED
100
AcDbLine
 10
-260.123748
 20
253.824518
 30
0.0
 11
-260.123748
 21
259.386957
 31
0.0
  0
LINE
  5
C5
100
AcDbEntity
  8
1
  6
DASHED
100
AcDbLine
 10
-260.123748
 20
264.262078
 30
0.0
 11
-260.123748
 21
266.824518
 31
0.0
  0
LINE
  5
C6
100
AcDbEntity
  8
1
100
AcDbLine
 10
83.385777
 20
-184.825482
 30
0.0
 11
145.385777
 21
-184.825482
 31
0.0
  0
LINE
  5
C7
100
AcDbEntity
  8
1
100
AcDbLine
 10
101.385777
 20
-345.825482
 30
0.0
 11
127.385777
 21
-345.825482
 31
0.0
  0
LINE
  5
C8
100
AcDbEntity
  8
1
100
AcDbLine
 10
79.385777
 20
-180.825482
 30
0.0
 11
79.385777
 21
-172.825482
 31
0.0
  0
LINE
  5
C9
100
AcDbEntity
  8
1
100
AcDbLine
 10
149.385777
 20
-180.825482
 30
0.0
 11
149.385777
 21
-172.825482
 31
0.0
  0
ARC
  5
CA
100
AcDbEntity
  8
1
100
AcDbCircle
 10
145.385777
 20
-180.825482
 30
0.0
 40
4.0
100
AcDbArc
 50
270.0
 51
360.0
  0
ARC
  5
CB
100
AcDbEntity
  8
1
100
AcDbCircle
 10
83.385777
 20
-180.825482
 30
0.0
 40
4.0
100
AcDbArc
 50
180.0
 51
270.0
  0
LINE
  5
CC
100
AcDbEntity
  8
1
100
AcDbLine
 10
127.385777
 20
-350.325482
 30
0.0
 11
127.385777
 21
-330.695506
 31
0.0
  0
LINE
  5
CD
100
AcDbEntity
  8
1
100
AcDbLine
 10
127.385777
 20
-250.955459
 30
0.0
 11
127.385777
 21
-189.825482
 31
0.0
  0
LINE
  5
CE
100
AcDbEntity
  8
1
100
AcDbLine
 10
101.385777
 20
-350.325482
 30
0.0
 11
101.385777
 21
-338.325482
 31
0.0
  0
LINE
  5
CF
100
AcDbEntity
  8
1
100
AcDbLine
 10
101.385777
 20
-243.325482
 30
0.0
 11
101.385777
 21
-189.825482
 31
0.0
  0
ARC
  5
D0
100
AcDbEntity
  8
1
100
AcDbCircle
 10
132.385777
 20
-189.825482
 30
0.0
 40
5.0
100
AcDbArc
 50
90.0
 51
180.0
  0
ARC
  5
D1
100
AcDbEntity
  8
1
100
AcDbCircle
 10
96.385777
 20
-189.825482
 30
0.0
 40
5.0
100
AcDbArc
 50
0.0
 51
90.0
  0
ARC
  5
D2
100
AcDbEntity
  8
1
100
AcDbCircle
 10
130.385777
 20
-247.325482
 30
0.0
 40
3.0
100
AcDbArc
 50
180.0
 51
270.0
  0
ARC
  5
D3
100
AcDbEntity
  8
1
100
AcDbCircle
 10
130.385777
 20
-334.325482
 30
0.0
 40
3.0
100
AcDbArc
 50
90.0
 51
180.0
  0
ARC
  5
D4
100
AcDbEntity
  8
1
100
AcDbCircle
 10
142.385777
 20
-199.825482
 30
0.0
 40
15.0
100
AcDbArc
 50
90.0
 51
180.0
  0
ARC
  5
D5
100
AcDbEntity
  8
1
100
AcDbCircle
 10
86.385777
 20
-199.825482
 30
0.0
 40
15.0
100
AcDbArc
 50
0.0
 51
90.0
  0
LINE
  5
D6
100
AcDbEntity
  8
1
100
AcDbLine
 10
117.385777
 20
-199.825482
 30
0.0
 11
111.385777
 21
-199.825482
 31
0.0
  0
LINE
  5
D7
100
AcDbEntity
  8
1
100
AcDbLine
 10
111.385777
 20
-186.825482
 30
0.0
 11
111.385777
 21
-197.825482
 31
0.0
  0
LINE
  5
D8
100
AcDbEntity
  8
1
100
AcDbLine
 10
117.385777
 20
-186.825482
 30
0.0
 11
117.385777
 21
-197.825482
 31
0.0
  0
ARC
  5
D9
100
AcDbEntity
  8
1
100
AcDbCircle
 10
109.385777
 20
-197.825482
 30
0.0
 40
2.0
100
AcDbArc
 50
270.0
 51
360.0
  0
ARC
  5
DA
100
AcDbEntity
  8
1
100
AcDbCircle
 10
119.385777
 20
-197.825482
 30
0.0
 40
2.0
100
AcDbArc
 50
180.0
 51
270.0
  0
ARC
  5
DB
100
AcDbEntity
  8
1
100
AcDbCircle
 10
119.385777
 20
-186.825482
 30
0.0
 40
2.0
100
AcDbArc
 50
90.0
 51
180.0
  0
ARC
  5
DC
100
AcDbEntity
  8
1
100
AcDbCircle
 10
109.385777
 20
-186.825482
 30
0.0
 40
2.0
100
AcDbArc
 50
0.0
 51
90.0
  0
LINE
  5
DD
100
AcDbEntity
  8
1
100
AcDbLine
 10
103.385777
 20
-252.955459
 30
0.0
 11
103.385777
 21
-246.789584
 31
0.0
  0
LINE
  5
DE
100
AcDbEntity
  8
1
100
AcDbLine
 10
101.385777
 20
-243.325482
 30
0.0
 11
103.385777
 21
-246.789584
 31
0.0
  0
ARC
  5
DF
100
AcDbEntity
  8
1
100
AcDbCircle
 10
102.385777
 20
-249.325482
 30
0.0
 40
1.0
100
AcDbArc
 50
270.0
 51
360.0
  0
LINE
  5
E0
100
AcDbEntity
  8
1
100
AcDbLine
 10
-285.014223
 20
-243.325482
 30
0.0
 11
-315.014223
 21
-243.325482
 31
0.0
  0
LINE
  5
E1
100
AcDbEntity
  8
1
100
AcDbLine
 10
-285.014223
 20
-246.789584
 30
0.0
 11
-315.014223
 21
-246.789584
 31
0.0
  0
LINE
  5
E2
100
AcDbEntity
  8
1
100
AcDbLine
 10
103.385777
 20
-334.861381
 30
0.0
 11
103.385777
 21
-328.695506
 31
0.0
  0
LINE
  5
E3
100
AcDbEntity
  8
1
100
AcDbLine
 10
101.385777
 20
-338.325482
 30
0.0
 11
103.385777
 21
-334.861381
 31
0.0
  0
ARC
  5
E4
100
AcDbEntity
  8
1
100
AcDbCircle
 10
102.385777
 20
-332.325482
 30
0.0
 40
1.0
100
AcDbArc
 50
0.0
 51
90.0
  0
LINE
  5
E5
100
AcDbEntity
  8
1
100
AcDbLine
 10
-285.014223
 20
-338.325482
 30
0.0
 11
-315.014223
 21
-338.325482
 31
0.0
  0
LINE
  5
E6
100
AcDbEntity
  8
1
100
AcDbLine
 10
-285.014223
 20
-334.861381
 30
0.0
 11
-315.014223
 21
-334.861381
 31
0.0
  0
ARC
  5
E7
100
AcDbEntity
  8
1
100
AcDbCircle
 10
130.385777
 20
-250.955459
 30
0.0
 40
3.0
100
AcDbArc
 50
180.0
 51
270.0
  0
ARC
  5
E8
100
AcDbEntity
  8
1
100
AcDbCircle
 10
102.385777
 20
-252.955459
 30
0.0
 40
1.0
100
AcDbArc
 50
270.0
 51
360.0
  0
LINE
  5
E9
100
AcDbEntity
  8
1
100
AcDbLine
 10
99.385777
 20
-250.325482
 30
0.0
 11
102.385777
 21
-250.325482
 31
0.0
  0
LINE
  5
EA
100
AcDbEntity
  8
1
100
AcDbLine
 10
130.385777
 20
-250.325482
 30
0.0
 11
132.385777
 21
-250.325482
 31
0.0
  0
ARC
  5
EB
100
AcDbEntity
  8
1
100
AcDbCircle
 10
130.385777
 20
-330.695506
 30
0.0
 40
3.0
100
AcDbArc
 50
90.0
 51
180.0
  0
ARC
  5
EC
100
AcDbEntity
  8
1
100
AcDbCircle
 10
102.385777
 20
-328.695506
 30
0.0
 40
1.0
100
AcDbArc
 50
0.0
 51
90.0
  0
LINE
  5
ED
100
AcDbEntity
  8
1
100
AcDbLine
 10
99.385777
 20
-331.325482
 30
0.0
 11
102.385777
 21
-331.325482
 31
0.0
  0
LINE
  5
EE
100
AcDbEntity
  8
1
100
AcDbLine
 10
130.385777
 20
-331.325482
 30
0.0
 11
132.385777
 21
-331.325482
 31
0.0
  0
LINE
  5
EF
100
AcDbEntity
  8
1
  6
CENTER
 62
     2
100
AcDbLine
 10
106.385777
 20
-358.329618
 30
0.0
 11
106.385777
 21
-341.023816
 31
0.0
  0
LINE
  5
F0
100
AcDbEntity
  8
1
  6
CENTER
 62
     2
100
AcDbLine
 10
122.385777
 20
-358.329618
 30
0.0
 11
122.385777
 21
-341.023816
 31
0.0
  0
LINE
  5
F1
100
AcDbEntity
  8
1
100
AcDbLine
 10
101.385777
 20
-347.325482
 30
0.0
 11
127.385777
 21
-347.325482
 31
0.0
  0
LINE
  5
F2
100
AcDbEntity
  8
1
100
AcDbLine
 10
101.385777
 20
-350.325482
 30
0.0
 11
127.385777
 21
-350.325482
 31
0.0
  0
LINE
  5
F3
100
AcDbEntity
  8
1
100
AcDbLine
 10
117.785777
 20
-351.625482
 30
0.0
 11
126.985777
 21
-351.625482
 31
0.0
  0
LINE
  5
F4
100
AcDbEntity
  8
1
100
AcDbLine
 10
126.385777
 20
-351.625482
 30
0.0
 11
126.385777
 21
-355.125482
 31
0.0
  0
ARC
  5
F5
100
AcDbEntity
  8
1
100
AcDbCircle
 10
124.385777
 20
-349.974693
 30
0.0
 40
5.150789
100
AcDbArc
 50
247.151859
 51
292.848141
  0
LINE
  5
F6
100
AcDbEntity
  8
1
100
AcDbLine
 10
118.385777
 20
-351.625482
 30
0.0
 11
118.385777
 21
-355.125482
 31
0.0
  0
LINE
  5
F7
100
AcDbEntity
  8
1
100
AcDbLine
 10
118.385777
 20
-355.125482
 30
0.0
 11
126.385777
 21
-355.125482
 31
0.0
  0
LINE
  5
F8
100
AcDbEntity
  8
1
100
AcDbLine
 10
122.385777
 20
-351.625482
 30
0.0
 11
122.385777
 21
-354.721337
 31
0.0
  0
ARC
  5
F9
100
AcDbEntity
  8
1
100
AcDbCircle
 10
120.385777
 20
-349.974693
 30
0.0
 40
5.150789
100
AcDbArc
 50
247.151859
 51
292.848141
  0
LINE
  5
FA
100
AcDbEntity
  8
1
100
AcDbLine
 10
126.985777
 20
-350.325482
 30
0.0
 11
126.985777
 21
-351.625482
 31
0.0
  0
LINE
  5
FB
100
AcDbEntity
  8
1
100
AcDbLine
 10
117.785777
 20
-351.625482
 30
0.0
 11
117.785777
 21
-350.325482
 31
0.0
  0
LINE
  5
FC
100
AcDbEntity
  8
1
100
AcDbLine
 10
101.785777
 20
-351.625482
 30
0.0
 11
110.985777
 21
-351.625482
 31
0.0
  0
LINE
  5
FD
100
AcDbEntity
  8
1
100
AcDbLine
 10
110.385777
 20
-351.625482
 30
0.0
 11
110.385777
 21
-355.125482
 31
0.0
  0
ARC
  5
FE
100
AcDbEntity
  8
1
100
AcDbCircle
 10
108.385777
 20
-349.974693
 30
0.0
 40
5.150789
100
AcDbArc
 50
247.151859
 51
292.848141
  0
LINE
  5
FF
100
AcDbEntity
  8
1
100
AcDbLine
 10
102.385777
 20
-351.625482
 30
0.0
 11
102.385777
 21
-355.125482
 31
0.0
  0
LINE
  5
100
100
AcDbEntity
  8
1
100
AcDbLine
 10
102.385777
 20
-355.125482
 30
0.0
 11
110.385777
 21
-355.125482
 31
0.0
  0
LINE
  5
101
100
AcDbEntity
  8
1
100
AcDbLine
 10
106.385777
 20
-351.625482
 30
0.0
 11
106.385777
 21
-354.721337
 31
0.0
  0
ARC
  5
102
100
AcDbEntity
  8
1
100
AcDbCircle
 10
104.385777
 20
-349.974693
 30
0.0
 40
5.150789
100
AcDbArc
 50
247.151859
 51
292.848141
  0
LINE
  5
103
100
AcDbEntity
  8
1
100
AcDbLine
 10
110.985777
 20
-350.325482
 30
0.0
 11
110.985777
 21
-351.625482
 31
0.0
  0
LINE
  5
104
100
AcDbEntity
  8
1
100
AcDbLine
 10
101.785777
 20
-351.625482
 30
0.0
 11
101.785777
 21
-350.325482
 31
0.0
  0
LINE
  5
105
100
AcDbEntity
  8
1
100
AcDbLine
 10
108.385777
 20
-283.825482
 30
0.0
 11
117.385777
 21
-283.825482
 31
0.0
  0
LINE
  5
106
100
AcDbEntity
  8
1
100
AcDbLine
 10
108.385777
 20
-297.825482
 30
0.0
 11
117.385777
 21
-297.825482
 31
0.0
  0
LINE
  5
107
100
AcDbEntity
  8
1
100
AcDbLine
 10
119.385777
 20
-325.695506
 30
0.0
 11
119.385777
 21
-299.825482
 31
0.0
  0
LINE
  5
108
100
AcDbEntity
  8
1
100
AcDbLine
 10
119.385777
 20
-281.825482
 30
0.0
 11
119.385777
 21
-255.955459
 31
0.0
  0
LINE
  5
109
100
AcDbEntity
  8
1
100
AcDbLine
 10
106.385777
 20
-325.695506
 30
0.0
 11
106.385777
 21
-299.825482
 31
0.0
  0
LINE
  5
10A
100
AcDbEntity
  8
1
100
AcDbLine
 10
106.385777
 20
-281.825482
 30
0.0
 11
106.385777
 21
-255.955459
 31
0.0
  0
LINE
  5
10B
100
AcDbEntity
  8
1
100
AcDbLine
 10
109.467193
 20
-311.563116
 30
0.0
 11
109.467193
 21
-303.060776
 31
0.0
  0
LINE
  5
10C
100
AcDbEntity
  8
1
100
AcDbLine
 10
109.467193
 20
-278.590188
 30
0.0
 11
109.467193
 21
-270.087848
 31
0.0
  0
LINE
  5
10D
100
AcDbEntity
  8
1
100
AcDbLine
 10
116.304361
 20
-310.845334
 30
0.0
 11
116.304361
 21
-303.060776
 31
0.0
  0
ARC
  5
10E
100
AcDbEntity
  8
1
100
AcDbCircle
 10
117.385777
 20
-281.825482
 30
0.0
 40
2.0
100
AcDbArc
 50
270.0
 51
360.0
  0
ARC
  5
10F
100
AcDbEntity
  8
1
100
AcDbCircle
 10
108.385777
 20
-281.825482
 30
0.0
 40
2.0
100
AcDbArc
 50
180.0
 51
270.0
  0
ARC
  5
110
100
AcDbEntity
  8
1
100
AcDbCircle
 10
108.385777
 20
-299.825482
 30
0.0
 40
2.0
100
AcDbArc
 50
90.0
 51
180.0
  0
ARC
  5
111
100
AcDbEntity
  8
1
100
AcDbCircle
 10
117.385777
 20
-299.825482
 30
0.0
 40
2.0
100
AcDbArc
 50
0.0
 51
90.0
  0
LINE
  5
112
100
AcDbEntity
  8
1
100
AcDbLine
 10
111.467193
 20
-280.590188
 30
0.0
 11
114.304361
 21
-280.590188
 31
0.0
  0
LINE
  5
113
100
AcDbEntity
  8
1
100
AcDbLine
 10
111.467193
 20
-301.060776
 30
0.0
 11
114.304361
 21
-301.060776
 31
0.0
  0
ARC
  5
114
100
AcDbEntity
  8
1
100
AcDbCircle
 10
111.467193
 20
-278.590188
 30
0.0
 40
2.0
100
AcDbArc
 50
180.0
 51
270.0
  0
ARC
  5
115
100
AcDbEntity
  8
1
100
AcDbCircle
 10
114.304361
 20
-278.590188
 30
0.0
 40
2.0
100
AcDbArc
 50
270.0
 51
360.0
  0
ARC
  5
116
100
AcDbEntity
  8
1
100
AcDbCircle
 10
114.304361
 20
-303.060776
 30
0.0
 40
2.0
100
AcDbArc
 50
0.0
 51
90.0
  0
ARC
  5
117
100
AcDbEntity
  8
1
100
AcDbCircle
 10
111.467193
 20
-303.060776
 30
0.0
 40
2.0
100
AcDbArc
 50
90.0
 51
180.0
  0
LINE
  5
118
100
AcDbEntity
  8
1
100
AcDbLine
 10
116.304361
 20
-280.590188
 30
0.0
 11
117.480902
 21
-281.825482
 31
0.0
  0
LINE
  5
119
100
AcDbEntity
  8
1
100
AcDbLine
 10
109.467193
 20
-280.590188
 30
0.0
 11
108.290652
 21
-281.825482
 31
0.0
  0
LINE
  5
11A
100
AcDbEntity
  8
1
100
AcDbLine
 10
108.290652
 20
-299.825482
 30
0.0
 11
109.467193
 21
-301.060776
 31
0.0
  0
LINE
  5
11B
100
AcDbEntity
  8
1
100
AcDbLine
 10
117.480902
 20
-299.825482
 30
0.0
 11
116.304361
 21
-301.060776
 31
0.0
  0
ARC
  5
11C
100
AcDbEntity
  8
1
100
AcDbCircle
 10
111.467193
 20
-270.087848
 30
0.0
 40
2.0
100
AcDbArc
 50
121.355995
 51
180.0
  0
ARC
  5
11D
100
AcDbEntity
  8
1
100
AcDbCircle
 10
111.467193
 20
-311.563116
 30
0.0
 40
2.0
100
AcDbArc
 50
180.0
 51
238.644005
  0
ARC
  5
11E
100
AcDbEntity
  8
1
100
AcDbCircle
 10
117.385777
 20
-255.955459
 30
0.0
 40
2.0
100
AcDbArc
 50
0.0
 51
90.0
  0
ARC
  5
11F
100
AcDbEntity
  8
1
100
AcDbCircle
 10
108.385777
 20
-255.955459
 30
0.0
 40
2.0
100
AcDbArc
 50
90.0
 51
180.0
  0
ARC
  5
120
100
AcDbEntity
  8
1
100
AcDbCircle
 10
117.385777
 20
-325.695506
 30
0.0
 40
2.0
100
AcDbArc
 50
270.0
 51
360.0
  0
ARC
  5
121
100
AcDbEntity
  8
1
100
AcDbCircle
 10
108.385777
 20
-325.695506
 30
0.0
 40
2.0
100
AcDbArc
 50
180.0
 51
270.0
  0
LINE
  5
122
100
AcDbEntity
  8
1
100
AcDbLine
 10
109.467193
 20
-268.087848
 30
0.0
 11
106.821855
 21
-255.955459
 31
0.0
  0
LINE
  5
123
100
AcDbEntity
  8
1
100
AcDbLine
 10
106.821855
 20
-325.695506
 30
0.0
 11
109.467193
 21
-313.563116
 31
0.0
  0
LINE
  5
124
100
AcDbEntity
  8
1
100
AcDbLine
 10
111.385777
 20
-223.776716
 30
0.0
 11
117.385777
 21
-223.776716
 31
0.0
  0
LINE
  5
125
100
AcDbEntity
  8
1
100
AcDbLine
 10
111.385777
 20
-272.332146
 30
0.0
 11
116.304361
 21
-272.332146
 31
0.0
  0
LINE
  5
126
100
AcDbEntity
  8
1
100
AcDbLine
 10
111.385777
 20
-270.332146
 30
0.0
 11
111.385777
 21
-225.776716
 31
0.0
  0
LINE
  5
127
100
AcDbEntity
  8
1
100
AcDbLine
 10
117.385777
 20
-267.465575
 30
0.0
 11
117.385777
 21
-225.776716
 31
0.0
  0
ARC
  5
128
100
AcDbEntity
  8
1
100
AcDbCircle
 10
109.385777
 20
-225.776716
 30
0.0
 40
2.0
100
AcDbArc
 50
0.0
 51
90.0
  0
ARC
  5
129
100
AcDbEntity
  8
1
100
AcDbCircle
 10
119.385777
 20
-225.776716
 30
0.0
 40
2.0
100
AcDbArc
 50
90.0
 51
180.0
  0
ARC
  5
12A
100
AcDbEntity
  8
1
100
AcDbCircle
 10
109.385777
 20
-270.332146
 30
0.0
 40
2.0
100
AcDbArc
 50
272.333033
 51
360.0
  0
LINE
  5
12B
100
AcDbEntity
  8
1
100
AcDbLine
 10
103.385777
 20
-253.955459
 30
0.0
 11
111.385777
 21
-253.955459
 31
0.0
  0
LINE
  5
12C
100
AcDbEntity
  8
1
100
AcDbLine
 10
117.385777
 20
-253.955459
 30
0.0
 11
127.385777
 21
-253.955459
 31
0.0
  0
LINE
  5
12D
100
AcDbEntity
  8
1
100
AcDbLine
 10
116.304361
 20
-278.590188
 30
0.0
 11
116.304361
 21
-272.332146
 31
0.0
  0
ARC
  5
12E
100
AcDbEntity
  8
1
100
AcDbCircle
 10
109.385777
 20
-266.672046
 30
0.0
 40
2.0
100
AcDbArc
 50
301.355995
 51
360.0
  0
LINE
  5
12F
100
AcDbEntity
  8
1
100
AcDbLine
 10
113.385777
 20
-235.241757
 30
0.0
 11
115.385777
 21
-235.241757
 31
0.0
  0
LINE
  5
130
100
AcDbEntity
  8
1
100
AcDbLine
 10
113.385777
 20
-239.580515
 30
0.0
 11
115.385777
 21
-239.580515
 31
0.0
  0
ARC
  5
131
100
AcDbEntity
  8
1
100
AcDbCircle
 10
115.385777
 20
-237.241757
 30
0.0
 40
2.0
100
AcDbArc
 50
0.0
 51
90.0
  0
ARC
  5
132
100
AcDbEntity
  8
1
100
AcDbCircle
 10
115.385777
 20
-237.580515
 30
0.0
 40
2.0
100
AcDbArc
 50
270.0
 51
360.0
  0
ARC
  5
133
100
AcDbEntity
  8
1
100
AcDbCircle
 10
113.385777
 20
-237.241757
 30
0.0
 40
2.0
100
AcDbArc
 50
90.0
 51
180.0
  0
ARC
  5
134
100
AcDbEntity
  8
1
100
AcDbCircle
 10
113.385777
 20
-237.580515
 30
0.0
 40
2.0
100
AcDbArc
 50
180.0
 51
270.0
  0
LINE
  5
135
100
AcDbEntity
  8
1
100
AcDbLine
 10
112.885777
 20
-255.997389
 30
0.0
 11
115.885777
 21
-255.997389
 31
0.0
  0
LINE
  5
136
100
AcDbEntity
  8
1
100
AcDbLine
 10
113.385777
 20
-264.23791
 30
0.0
 11
115.385777
 21
-264.23791
 31
0.0
  0
ARC
  5
137
100
AcDbEntity
  8
1
100
AcDbCircle
 10
115.385777
 20
-262.23791
 30
0.0
 40
2.0
100
AcDbArc
 50
270.0
 51
360.0
  0
ARC
  5
138
100
AcDbEntity
  8
1
100
AcDbCircle
 10
113.385777
 20
-262.23791
 30
0.0
 40
2.0
100
AcDbArc
 50
180.0
 51
270.0
  0
LINE
  5
139
100
AcDbEntity
  8
1
100
AcDbLine
 10
116.35664
 20
-271.877852
 30
0.0
 11
117.385777
 21
-267.465575
 31
0.0
  0
ARC
  5
13A
100
AcDbEntity
  8
1
100
AcDbCircle
 10
118.304361
 20
-272.332146
 30
0.0
 40
2.0
100
AcDbArc
 50
166.870838
 51
180.0
  0
LINE
  5
13B
100
AcDbEntity
  8
1
100
AcDbLine
 10
118.949504
 20
-255.955459
 30
0.0
 11
117.385777
 21
-263.124028
 31
0.0
  0
LINE
  5
13C
100
AcDbEntity
  8
1
100
AcDbLine
 10
111.385777
 20
-310.845334
 30
0.0
 11
116.304361
 21
-310.845334
 31
0.0
  0
LINE
  5
13D
100
AcDbEntity
  8
1
100
AcDbLine
 10
103.385777
 20
-327.695506
 30
0.0
 11
111.385777
 21
-327.695506
 31
0.0
  0
LINE
  5
13E
100
AcDbEntity
  8
1
100
AcDbLine
 10
117.385777
 20
-327.695506
 30
0.0
 11
127.385777
 21
-327.695506
 31
0.0
  0
LINE
  5
13F
100
AcDbEntity
  8
1
100
AcDbLine
 10
111.385777
 20
-343.825482
 30
0.0
 11
111.385777
 21
-312.845334
 31
0.0
  0
LINE
  5
140
100
AcDbEntity
  8
1
100
AcDbLine
 10
117.385777
 20
-343.825482
 30
0.0
 11
117.385777
 21
-316.144821
 31
0.0
  0
ARC
  5
141
100
AcDbEntity
  8
1
100
AcDbCircle
 10
109.385777
 20
-312.845334
 30
0.0
 40
2.0
100
AcDbArc
 50
0.0
 51
87.666967
  0
ARC
  5
142
100
AcDbEntity
  8
1
100
AcDbCircle
 10
119.385777
 20
-343.825482
 30
0.0
 40
2.0
100
AcDbArc
 50
180.0
 51
270.0
  0
ARC
  5
143
100
AcDbEntity
  8
1
100
AcDbCircle
 10
109.385777
 20
-343.825482
 30
0.0
 40
2.0
100
AcDbArc
 50
270.0
 51
360.0
  0
LINE
  5
144
100
AcDbEntity
  8
1
100
AcDbLine
 10
113.385777
 20
-342.825482
 30
0.0
 11
115.385777
 21
-342.825482
 31
0.0
  0
LINE
  5
145
100
AcDbEntity
  8
1
100
AcDbLine
 10
113.385777
 20
-338.701663
 30
0.0
 11
115.385777
 21
-338.701663
 31
0.0
  0
ARC
  5
146
100
AcDbEntity
  8
1
100
AcDbCircle
 10
115.385777
 20
-340.825482
 30
0.0
 40
2.0
100
AcDbArc
 50
270.0
 51
360.0
  0
ARC
  5
147
100
AcDbEntity
  8
1
100
AcDbCircle
 10
115.385777
 20
-340.701663
 30
0.0
 40
2.0
100
AcDbArc
 50
0.0
 51
90.0
  0
ARC
  5
148
100
AcDbEntity
  8
1
100
AcDbCircle
 10
113.385777
 20
-340.825482
 30
0.0
 40
2.0
100
AcDbArc
 50
180.0
 51
270.0
  0
ARC
  5
149
100
AcDbEntity
  8
1
100
AcDbCircle
 10
113.385777
 20
-340.701663
 30
0.0
 40
2.0
100
AcDbArc
 50
90.0
 51
180.0
  0
LINE
  5
14A
100
AcDbEntity
  8
1
100
AcDbLine
 10
117.385777
 20
-316.144821
 30
0.0
 11
116.348038
 21
-311.261026
 31
0.0
  0
ARC
  5
14B
100
AcDbEntity
  8
1
100
AcDbCircle
 10
118.304361
 20
-310.845334
 30
0.0
 40
2.0
100
AcDbArc
 50
180.0
 51
191.996141
  0
ARC
  5
14C
100
AcDbEntity
  8
1
100
AcDbCircle
 10
109.385777
 20
-314.978919
 30
0.0
 40
2.0
100
AcDbArc
 50
0.0
 51
58.644005
  0
LINE
  5
14D
100
AcDbEntity
  8
1
100
AcDbLine
 10
118.949504
 20
-325.695506
 30
0.0
 11
117.385777
 21
-318.526937
 31
0.0
  0
ARC
  5
14E
100
AcDbEntity
  8
1
100
AcDbCircle
 10
-303.615051
 20
-269.629161
 30
0.0
 40
2.5
100
AcDbArc
 50
102.68958
 51
143.203647
  0
ARC
  5
14F
100
AcDbEntity
  8
1
100
AcDbCircle
 10
-311.177825
 20
-271.776653
 30
0.0
 40
1.920962
100
AcDbArc
 50
30.0
 51
120.372515
  0
ARC
  5
150
100
AcDbEntity
  8
1
100
AcDbCircle
 10
-300.014223
 20
-290.825482
 30
0.0
 40
22.15
100
AcDbArc
 50
113.973906
 51
115.397385
  0
ARC
  5
151
100
AcDbEntity
  8
1
100
AcDbCircle
 10
-311.067037
 20
-270.816172
 30
0.0
 40
1.552814
100
AcDbArc
 50
298.915538
 51
360.0
  0
ARC
  5
152
100
AcDbEntity
  8
1
100
AcDbCircle
 10
-303.615051
 20
-312.021804
 30
0.0
 40
2.5
100
AcDbArc
 50
216.796353
 51
257.31042
  0
ARC
  5
153
100
AcDbEntity
  8
1
100
AcDbCircle
 10
-311.177825
 20
-309.874312
 30
0.0
 40
1.920962
100
AcDbArc
 50
239.627485
 51
330.0
  0
ARC
  5
154
100
AcDbEntity
  8
1
100
AcDbCircle
 10
-300.014223
 20
-290.825482
 30
0.0
 40
22.15
100
AcDbArc
 50
244.602615
 51
246.026094
  0
ARC
  5
155
100
AcDbEntity
  8
1
100
AcDbCircle
 10
-311.067037
 20
-310.834793
 30
0.0
 40
1.552814
100
AcDbArc
 50
0.0
 51
61.084462
  0
ARC
  5
156
100
AcDbEntity
  8
1
100
AcDbCircle
 10
-300.014223
 20
-290.825482
 30
0.0
 40
21.306259
100
AcDbArc
 50
118.915538
 51
241.084462
  0
ARC
  5
157
100
AcDbEntity
  8
1
100
AcDbCircle
 10
-300.014223
 20
-290.825482
 30
0.0
 40
21.306259
100
AcDbArc
 50
294.986904
 51
65.013096
  0
ARC
  5
158
100
AcDbEntity
  8
1
100
AcDbCircle
 10
-300.014223
 20
-290.825482
 30
0.0
 40
20.454156
100
AcDbArc
 50
116.104416
 51
243.895584
  0
ARC
  5
159
100
AcDbEntity
  8
1
100
AcDbCircle
 10
-300.014223
 20
-290.825482
 30
0.0
 40
20.454156
100
AcDbArc
 50
296.104416
 51
63.895584
  0
LINE
  5
15A
100
AcDbEntity
  8
1
100
AcDbLine
 10
-309.395055
 20
-280.825482
 30
0.0
 11
-290.633392
 21
-280.825482
 31
0.0
  0
LINE
  5
15B
100
AcDbEntity
  8
1
100
AcDbLine
 10
-309.395055
 20
-300.825482
 30
0.0
 11
-290.633392
 21
-300.825482
 31
0.0
  0
LINE
  5
15C
100
AcDbEntity
  8
1
100
AcDbLine
 10
-290.514223
 20
-307.425482
 30
0.0
 11
-290.514223
 21
-301.825482
 31
0.0
  0
LINE
  5
15D
100
AcDbEntity
  8
1
100
AcDbLine
 10
-290.514223
 20
-279.825482
 30
0.0
 11
-290.514223
 21
-274.225482
 31
0.0
  0
LINE
  5
15E
100
AcDbEntity
  8
1
100
AcDbLine
 10
-309.014223
 20
-312.319668
 30
0.0
 11
-309.014223
 21
-301.825482
 31
0.0
  0
LINE
  5
15F
100
AcDbEntity
  8
1
100
AcDbLine
 10
-309.014223
 20
-279.825482
 30
0.0
 11
-309.014223
 21
-269.331297
 31
0.0
  0
ARC
  5
160
100
AcDbEntity
  8
1
100
AcDbCircle
 10
-308.014223
 20
-279.825482
 30
0.0
 40
1.0
100
AcDbArc
 50
180.0
 51
270.0
  0
ARC
  5
161
100
AcDbEntity
  8
1
100
AcDbCircle
 10
-291.514223
 20
-279.825482
 30
0.0
 40
1.0
100
AcDbArc
 50
270.0
 51
360.0
  0
ARC
  5
162
100
AcDbEntity
  8
1
100
AcDbCircle
 10
-308.014223
 20
-301.825482
 30
0.0
 40
1.0
100
AcDbArc
 50
90.0
 51
180.0
  0
ARC
  5
163
100
AcDbEntity
  8
1
100
AcDbCircle
 10
-291.514223
 20
-301.825482
 30
0.0
 40
1.0
100
AcDbArc
 50
0.0
 51
90.0
  0
ARC
  5
164
100
AcDbEntity
  8
1
100
AcDbCircle
 10
-300.014223
 20
-290.825482
 30
0.0
 40
14.0
100
AcDbArc
 50
136.186939
 51
223.813061
  0
ARC
  5
165
100
AcDbEntity
  8
1
100
AcDbCircle
 10
-300.014223
 20
-290.825482
 30
0.0
 40
14.0
100
AcDbArc
 50
316.186939
 51
43.813061
  0
ARC
  5
166
100
AcDbEntity
  8
1
100
AcDbCircle
 10
-290.633392
 20
-281.825482
 30
0.0
 40
1.0
100
AcDbArc
 50
43.813061
 51
90.0
  0
ARC
  5
167
100
AcDbEntity
  8
1
100
AcDbCircle
 10
-309.395055
 20
-281.825482
 30
0.0
 40
1.0
100
AcDbArc
 50
90.0
 51
136.186939
  0
ARC
  5
168
100
AcDbEntity
  8
1
100
AcDbCircle
 10
-309.395055
 20
-299.825482
 30
0.0
 40
1.0
100
AcDbArc
 50
223.813061
 51
270.0
  0
ARC
  5
169
100
AcDbEntity
  8
1
100
AcDbCircle
 10
-290.633392
 20
-299.825482
 30
0.0
 40
1.0
100
AcDbArc
 50
270.0
 51
316.186939
  0
LINE
  5
16A
100
AcDbEntity
  8
1
100
AcDbLine
 10
-295.972842
 20
-273.225482
 30
0.0
 11
-291.514223
 21
-273.225482
 31
0.0
  0
LINE
  5
16B
100
AcDbEntity
  8
1
100
AcDbLine
 10
-299.014223
 20
-272.825482
 30
0.0
 11
-291.014223
 21
-272.825482
 31
0.0
  0
ARC
  5
16C
100
AcDbEntity
  8
1
100
AcDbCircle
 10
-291.514223
 20
-274.225482
 30
0.0
 40
1.0
100
AcDbArc
 50
0.0
 51
90.0
  0
LINE
  5
16D
100
AcDbEntity
  8
1
100
AcDbLine
 10
-291.014223
 20
-272.825482
 30
0.0
 11
-291.014223
 21
-271.125482
 31
0.0
  0
ARC
  5
16E
100
AcDbEntity
  8
1
100
AcDbCircle
 10
-289.804223
 20
-272.825482
 30
0.0
 40
1.21
100
AcDbArc
 50
180.0
 51
219.307648
  0
ARC
  5
16F
100
AcDbEntity
  8
1
100
AcDbCircle
 10
-299.014223
 20
-271.825482
 30
0.0
 40
1.0
100
AcDbArc
 50
180.0
 51
270.0
  0
LINE
  5
170
100
AcDbEntity
  8
1
100
AcDbLine
 10
-296.972842
 20
-274.225482
 30
0.0
 11
-296.972842
 21
-279.825482
 31
0.0
  0
ARC
  5
171
100
AcDbEntity
  8
1
100
AcDbCircle
 10
-295.972842
 20
-274.225482
 30
0.0
 40
1.0
100
AcDbArc
 50
90.0
 51
180.0
  0
ARC
  5
172
100
AcDbEntity
  8
1
100
AcDbCircle
 10
-295.972842
 20
-279.825482
 30
0.0
 40
1.0
100
AcDbArc
 50
180.0
 51
270.0
  0
ARC
  5
173
100
AcDbEntity
  8
1
100
AcDbCircle
 10
-300.014223
 20
-290.825482
 30
0.0
 40
18.0
100
AcDbArc
 50
120.0
 51
240.0
  0
ARC
  5
174
100
AcDbEntity
  8
1
100
AcDbCircle
 10
-300.014223
 20
-290.825482
 30
0.0
 40
18.0
100
AcDbArc
 50
301.855431
 51
58.144569
  0
LINE
  5
175
100
AcDbEntity
  8
1
100
AcDbLine
 10
-304.014223
 20
-272.825482
 30
0.0
 11
-301.014223
 21
-272.825482
 31
0.0
  0
ARC
  5
176
100
AcDbEntity
  8
1
100
AcDbCircle
 10
-301.014223
 20
-271.825482
 30
0.0
 40
1.0
100
AcDbArc
 50
270.0
 51
360.0
  0
ARC
  5
177
100
AcDbEntity
  8
1
100
AcDbCircle
 10
-304.014223
 20
-276.825482
 30
0.0
 40
4.0
100
AcDbArc
 50
90.0
 51
270.0
  0
LINE
  5
178
100
AcDbEntity
  8
1
100
AcDbLine
 10
-295.972842
 20
-308.425482
 30
0.0
 11
-291.514223
 21
-308.425482
 31
0.0
  0
LINE
  5
179
100
AcDbEntity
  8
1
100
AcDbLine
 10
-299.014223
 20
-308.825482
 30
0.0
 11
-291.014223
 21
-308.825482
 31
0.0
  0
ARC
  5
17A
100
AcDbEntity
  8
1
100
AcDbCircle
 10
-291.514223
 20
-307.425482
 30
0.0
 40
1.0
100
AcDbArc
 50
270.0
 51
360.0
  0
LINE
  5
17B
100
AcDbEntity
  8
1
100
AcDbLine
 10
-291.014223
 20
-308.825482
 30
0.0
 11
-291.014223
 21
-310.525482
 31
0.0
  0
ARC
  5
17C
100
AcDbEntity
  8
1
100
AcDbCircle
 10
-289.804223
 20
-308.825482
 30
0.0
 40
1.21
100
AcDbArc
 50
140.692352
 51
180.0
  0
ARC
  5
17D
100
AcDbEntity
  8
1
100
AcDbCircle
 10
-299.014223
 20
-309.825482
 30
0.0
 40
1.0
100
AcDbArc
 50
90.0
 51
180.0
  0
LINE
  5
17E
100
AcDbEntity
  8
1
100
AcDbLine
 10
-296.972842
 20
-307.425482
 30
0.0
 11
-296.972842
 21
-301.825482
 31
0.0
  0
ARC
  5
17F
100
AcDbEntity
  8
1
100
AcDbCircle
 10
-295.972842
 20
-307.425482
 30
0.0
 40
1.0
100
AcDbArc
 50
180.0
 51
270.0
  0
ARC
  5
180
100
AcDbEntity
  8
1
100
AcDbCircle
 10
-295.972842
 20
-301.825482
 30
0.0
 40
1.0
100
AcDbArc
 50
90.0
 51
180.0
  0
LINE
  5
181
100
AcDbEntity
  8
1
100
AcDbLine
 10
-304.014223
 20
-308.825482
 30
0.0
 11
-301.014223
 21
-308.825482
 31
0.0
  0
ARC
  5
182
100
AcDbEntity
  8
1
100
AcDbCircle
 10
-301.014223
 20
-309.825482
 30
0.0
 40
1.0
100
AcDbArc
 50
0.0
 51
90.0
  0
ARC
  5
183
100
AcDbEntity
  8
1
100
AcDbCircle
 10
-304.014223
 20
-304.825482
 30
0.0
 40
4.0
100
AcDbArc
 50
90.0
 51
270.0
  0
CIRCLE
  5
184
100
AcDbEntity
  8
1
100
AcDbCircle
 10
-304.164223
 20
-276.797482
 30
0.0
 40
2.008
  0
CIRCLE
  5
185
100
AcDbEntity
  8
1
100
AcDbCircle
 10
-299.164223
 20
-304.853482
 30
0.0
 40
2.008
  0
LINE
  5
186
100
AcDbEntity
  8
1
100
AcDbLine
 10
-309.014223
 20
-269.331297
 30
0.0
 11
-296.014223
 21
-269.331297
 31
0.0
  0
ARC
  5
187
100
AcDbEntity
  8
1
100
AcDbCircle
 10
-293.664223
 20
-133.454772
 30
0.0
 40
134.89122
100
AcDbArc
 50
265.322496
 51
269.001774
  0
ARC
  5
188
100
AcDbEntity
  8
1
100
AcDbCircle
 10
-299.514223
 20
-290.825482
 30
0.0
 40
23.5
100
AcDbArc
 50
102.659051
 51
113.84447
  0
LINE
  5
189
100
AcDbEntity
  8
1
100
AcDbLine
 10
-296.014223
 20
-268.32552
 30
0.0
 11
-296.014223
 21
-271.125482
 31
0.0
  0
LINE
  5
18A
100
AcDbEntity
  8
1
100
AcDbLine
 10
-296.014223
 20
-271.125482
 30
0.0
 11
-291.014223
 21
-271.125482
 31
0.0
  0
LINE
  5
18B
100
AcDbEntity
  8
1
100
AcDbLine
 10
-291.069951
 20
-270.56154
 30
0.0
 11
-291.069951
 21
-271.125482
 31
0.0
  0
LINE
  5
18C
100
AcDbEntity
  8
1
100
AcDbLine
 10
-293.755896
 20
-269.577896
 30
0.0
 11
-293.755896
 21
-271.125482
 31
0.0
  0
ARC
  5
18D
100
AcDbEntity
  8
1
100
AcDbCircle
 10
-293.755896
 20
-175.641502
 30
0.0
 40
93.936394
100
AcDbArc
 50
269.750943
 51
270.0
  0
ARC
  5
18E
100
AcDbEntity
  8
1
100
AcDbCircle
 10
-300.014062
 20
-290.825434
 30
0.0
 40
22.15
100
AcDbArc
 50
66.184218
 51
73.588399
  0
LINE
  5
18F
100
AcDbEntity
  8
1
100
AcDbLine
 10
-309.014223
 20
-312.319668
 30
0.0
 11
-296.014223
 21
-312.319668
 31
0.0
  0
ARC
  5
190
100
AcDbEntity
  8
1
100
AcDbCircle
 10
-293.664223
 20
-448.196193
 30
0.0
 40
134.89122
100
AcDbArc
 50
90.998226
 51
94.677504
  0
ARC
  5
191
100
AcDbEntity
  8
1
100
AcDbCircle
 10
-299.514223
 20
-290.825482
 30
0.0
 40
23.5
100
AcDbArc
 50
246.15553
 51
257.340949
  0
LINE
  5
192
100
AcDbEntity
  8
1
100
AcDbLine
 10
-296.014223
 20
-313.325445
 30
0.0
 11
-296.014223
 21
-310.525482
 31
0.0
  0
LINE
  5
193
100
AcDbEntity
  8
1
100
AcDbLine
 10
-296.014223
 20
-310.525482
 30
0.0
 11
-291.014223
 21
-310.525482
 31
0.0
  0
LINE
  5
194
100
AcDbEntity
  8
1
100
AcDbLine
 10
-291.069951
 20
-311.089425
 30
0.0
 11
-291.069951
 21
-310.525482
 31
0.0
  0
LINE
  5
195
100
AcDbEntity
  8
1
100
AcDbLine
 10
-293.755896
 20
-312.073069
 30
0.0
 11
-293.755896
 21
-310.525482
 31
0.0
  0
ARC
  5
196
100
AcDbEntity
  8
1
100
AcDbCircle
 10
-293.755896
 20
-406.009463
 30
0.0
 40
93.936394
100
AcDbArc
 50
90.0
 51
90.249057
  0
ARC
  5
197
100
AcDbEntity
  8
1
100
AcDbCircle
 10
-300.014062
 20
-290.825531
 30
0.0
 40
22.15
100
AcDbArc
 50
286.411601
 51
293.815782
  0
ARC
  5
198
100
AcDbEntity
  8
1
100
AcDbCircle
 10
-300.014223
 20
-290.825482
 30
0.0
 40
19.727854
100
AcDbArc
 50
117.142671
 51
242.857329
  0
ARC
  5
199
100
AcDbEntity
  8
1
100
AcDbCircle
 10
-300.014223
 20
-290.825482
 30
0.0
 40
19.727854
100
AcDbArc
 50
297.497277
 51
62.502723
  0
ARC
  5
19A
100
AcDbEntity
  8
1
100
AcDbCircle
 10
-300.014223
 20
-290.825482
 30
0.0
 40
19.461975
100
AcDbArc
 50
117.544683
 51
242.455317
  0
ARC
  5
19B
100
AcDbEntity
  8
1
100
AcDbCircle
 10
-300.014223
 20
-290.825482
 30
0.0
 40
19.461975
100
AcDbArc
 50
298.868707
 51
61.131293
  0
LINE
  5
19C
100
AcDbEntity
  8
1
100
AcDbLine
 10
-304.164223
 20
-267.936708
 30
0.0
 11
-304.164223
 21
-267.187007
 31
0.0
  0
LINE
  5
19D
100
AcDbEntity
  8
1
100
AcDbLine
 10
-304.164223
 20
-314.463957
 30
0.0
 11
-304.164223
 21
-313.714257
 31
0.0
  0
LINE
  5
19E
100
AcDbEntity
  8
1
100
AcDbLine
 10
-304.164223
 20
-300.825482
 30
0.0
 11
-304.164223
 21
-280.825482
 31
0.0
  0
LINE
  5
19F
100
AcDbEntity
  8
1
100
AcDbLine
 10
-294.164223
 20
-314.101597
 30
0.0
 11
-294.164223
 21
-310.525482
 31
0.0
  0
LINE
  5
1A0
100
AcDbEntity
  8
1
100
AcDbLine
 10
-294.164223
 20
-300.825482
 30
0.0
 11
-294.164223
 21
-280.825482
 31
0.0
  0
LINE
  5
1A1
100
AcDbEntity
  8
1
100
AcDbLine
 10
-294.164223
 20
-271.125482
 30
0.0
 11
-294.164223
 21
-267.549368
 31
0.0
  0
LINE
  5
1A2
100
AcDbEntity
  8
1
  6
CENTER
 62
     2
100
AcDbLine
 10
-307.847387
 20
-276.797482
 30
0.0
 11
-300.518654
 21
-276.797482
 31
0.0
  0
LINE
  5
1A3
100
AcDbEntity
  8
1
  6
CENTER
 62
     2
100
AcDbLine
 10
-304.164223
 20
-280.194573
 30
0.0
 11
-304.164223
 21
-273.252585
 31
0.0
  0
LINE
  5
1A4
100
AcDbEntity
  8
1
  6
CENTER
 62
     2
100
AcDbLine
 10
-302.847387
 20
-304.853482
 30
0.0
 11
-295.518654
 21
-304.853482
 31
0.0
  0
LINE
  5
1A5
100
AcDbEntity
  8
1
100
AcDbLine
 10
-314.164223
 20
-159.425482
 30
0.0
 11
-284.164223
 21
-159.425482
 31
0.0
  0
LINE
  5
1A6
100
AcDbEntity
  8
1
100
AcDbLine
 10
-314.164223
 20
-163.825482
 30
0.0
 11
-314.164223
 21
-159.425482
 31
0.0
  0
LINE
  5
1A7
100
AcDbEntity
  8
1
100
AcDbLine
 10
-284.164223
 20
-163.825482
 30
0.0
 11
-284.164223
 21
-159.425482
 31
0.0
  0
LINE
  5
1A8
100
AcDbEntity
  8
1
100
AcDbLine
 10
-304.914223
 20
-159.425482
 30
0.0
 11
-304.914223
 21
-154.91623
 31
0.0
  0
LINE
  5
1A9
100
AcDbEntity
  8
1
100
AcDbLine
 10
-304.914223
 20
-154.91623
 30
0.0
 11
-304.064223
 21
-154.425482
 31
0.0
  0
LINE
  5
1AA
100
AcDbEntity
  8
1
100
AcDbLine
 10
-302.039223
 20
-159.425482
 30
0.0
 11
-302.039223
 21
-154.91623
 31
0.0
  0
ARC
  5
1AB
100
AcDbEntity
  8
1
100
AcDbCircle
 10
-303.476723
 20
-156.764185
 30
0.0
 40
2.341227
100
AcDbArc
 50
52.121121
 51
127.878879
  0
LINE
  5
1AC
100
AcDbEntity
  8
1
100
AcDbLine
 10
-293.414223
 20
-159.425482
 30
0.0
 11
-293.414223
 21
-154.91623
 31
0.0
  0
LINE
  5
1AD
100
AcDbEntity
  8
1
100
AcDbLine
 10
-293.414223
 20
-154.91623
 30
0.0
 11
-294.264223
 21
-154.425482
 31
0.0
  0
LINE
  5
1AE
100
AcDbEntity
  8
1
100
AcDbLine
 10
-294.264223
 20
-154.425482
 30
0.0
 11
-304.064223
 21
-154.425482
 31
0.0
  0
LINE
  5
1AF
100
AcDbEntity
  8
1
100
AcDbLine
 10
-296.289223
 20
-159.425482
 30
0.0
 11
-296.289223
 21
-154.91623
 31
0.0
  0
ARC
  5
1B0
100
AcDbEntity
  8
1
100
AcDbCircle
 10
-294.851723
 20
-156.764185
 30
0.0
 40
2.341227
100
AcDbArc
 50
52.121121
 51
127.878879
  0
ARC
  5
1B1
100
AcDbEntity
  8
1
100
AcDbCircle
 10
-299.164223
 20
-163.047958
 30
0.0
 40
8.625
100
AcDbArc
 50
70.528781
 51
109.471223
  0
LINE
  5
1B2
100
AcDbEntity
  8
1
100
AcDbLine
 10
-296.164223
 20
-151.825482
 30
0.0
 11
-302.164223
 21
-151.825482
 31
0.0
  0
ARC
  5
1B3
100
AcDbEntity
  8
1
100
AcDbCircle
 10
-299.164223
 20
-155.825482
 30
0.0
 40
5.0
100
AcDbArc
 50
53.130103
 51
126.8699
  0
LINE
  5
1B4
100
AcDbEntity
  8
1
100
AcDbLine
 10
-296.164223
 20
-154.425482
 30
0.0
 11
-296.164223
 21
-151.825482
 31
0.0
  0
LINE
  5
1B5
100
AcDbEntity
  8
1
 62
     2
100
AcDbLine
 10
-296.705223
 20
-154.425482
 30
0.0
 11
-296.705223
 21
-151.825482
 31
0.0
  0
LINE
  5
1B6
100
AcDbEntity
  8
1
 62
     2
100
AcDbLine
 10
-301.623223
 20
-154.425482
 30
0.0
 11
-301.623223
 21
-151.825482
 31
0.0
  0
LINE
  5
1B7
100
AcDbEntity
  8
1
100
AcDbLine
 10
-302.164223
 20
-154.425482
 30
0.0
 11
-302.164223
 21
-151.825482
 31
0.0
  0
LINE
  5
1B8
100
AcDbEntity
  8
1
100
AcDbLine
 10
-294.164223
 20
-154.483217
 30
0.0
 11
-294.164223
 21
-136.825482
 31
0.0
  0
LINE
  5
1B9
100
AcDbEntity
  8
1
100
AcDbLine
 10
-304.164223
 20
-154.483217
 30
0.0
 11
-304.164223
 21
-136.825482
 31
0.0
  0
LINE
  5
1BA
100
AcDbEntity
  8
2
100
AcDbLine
 10
167.385777
 20
33.174518
 30
0.0
 11
67.385777
 21
33.174518
 31
0.0
  0
LINE
  5
1BB
100
AcDbEntity
  8
2
100
AcDbLine
 10
67.385777
 20
36.174518
 30
0.0
 11
67.385777
 21
33.174518
 31
0.0
  0
LINE
  5
1BC
100
AcDbEntity
  8
2
100
AcDbLine
 10
167.385777
 20
36.174518
 30
0.0
 11
167.385777
 21
33.174518
 31
0.0
  0
LINE
  5
1BD
100
AcDbEntity
  8
2
100
AcDbLine
 10
159.304574
 20
76.174518
 30
0.0
 11
75.466979
 21
76.174518
 31
0.0
  0
LINE
  5
1BE
100
AcDbEntity
  8
2
100
AcDbLine
 10
71.885777
 20
82.374518
 30
0.0
 11
71.885777
 21
75.722899
 31
0.0
  0
LINE
  5
1BF
100
AcDbEntity
  8
2
100
AcDbLine
 10
156.885777
 20
82.374518
 30
0.0
 11
156.885777
 21
79.153377
 31
0.0
  0
LINE
  5
1C0
100
AcDbEntity
  8
2
100
AcDbLine
 10
71.885777
 20
81.174518
 30
0.0
 11
156.885777
 21
81.174518
 31
0.0
  0
ARC
  5
1C1
100
AcDbEntity
  8
2
100
AcDbCircle
 10
114.385777
 20
69.174518
 30
0.0
 40
34.0
100
AcDbArc
 50
45.099128
 51
134.900872
  0
LINE
  5
1C2
100
AcDbEntity
  8
2
100
AcDbLine
 10
121.885772
 20
100.780003
 30
0.0
 11
121.885777
 21
82.374518
 31
0.0
  0
LINE
  5
1C3
100
AcDbEntity
  8
2
100
AcDbLine
 10
106.885777
 20
100.780003
 30
0.0
 11
106.885777
 21
82.374518
 31
0.0
  0
LINE
  5
1C4
100
AcDbEntity
  8
2
100
AcDbLine
 10
90.385777
 20
93.257707
 30
0.0
 11
90.385777
 21
91.531619
 31
0.0
  0
LINE
  5
1C5
100
AcDbEntity
  8
2
100
AcDbLine
 10
138.385777
 20
93.257707
 30
0.0
 11
138.385777
 21
91.531619
 31
0.0
  0
ARC
  5
1C6
100
AcDbEntity
  8
2
100
AcDbCircle
 10
114.385777
 20
71.174518
 30
0.0
 40
31.0
100
AcDbArc
 50
28.453097
 51
48.922243
  0
ARC
  5
1C7
100
AcDbEntity
  8
2
100
AcDbCircle
 10
114.385777
 20
71.174518
 30
0.0
 40
31.0
100
AcDbArc
 50
131.077757
 51
151.546903
  0
ARC
  5
1C8
100
AcDbEntity
  8
2
100
AcDbCircle
 10
114.385777
 20
67.674518
 30
0.0
 40
28.0
100
AcDbArc
 50
105.536794
 51
145.287318
  0
ARC
  5
1C9
100
AcDbEntity
  8
2
100
AcDbCircle
 10
114.385777
 20
67.674518
 30
0.0
 40
28.0
100
AcDbArc
 50
34.712682
 51
74.463206
  0
ARC
  5
1CA
100
AcDbEntity
  8
2
100
AcDbCircle
 10
78.985382
 20
71.940147
 30
0.0
 40
45.274917
100
AcDbArc
 50
13.324563
 51
18.638604
  0
ARC
  5
1CB
100
AcDbEntity
  8
2
100
AcDbCircle
 10
79.909261
 20
71.940147
 30
0.0
 40
45.274917
100
AcDbArc
 50
13.324563
 51
21.318921
  0
ARC
  5
1CC
100
AcDbEntity
  8
2
100
AcDbCircle
 10
121.684614
 20
88.243571
 30
0.0
 40
0.430947
100
AcDbArc
 50
21.318921
 51
62.173379
  0
ARC
  5
1CD
100
AcDbEntity
  8
2
100
AcDbCircle
 10
102.955848
 20
70.173265
 30
0.0
 40
30.472934
100
AcDbArc
 50
23.60296
 51
36.322403
  0
ARC
  5
1CE
100
AcDbEntity
  8
2
100
AcDbCircle
 10
103.662955
 20
70.173265
 30
0.0
 40
30.472934
100
AcDbArc
 50
23.60296
 51
37.117331
  0
ARC
  5
1CF
100
AcDbEntity
  8
2
100
AcDbCircle
 10
127.736129
 20
88.391114
 30
0.0
 40
0.283404
100
AcDbArc
 50
37.117331
 51
216.322403
  0
ARC
  5
1D0
100
AcDbEntity
  8
2
100
AcDbCircle
 10
111.711436
 20
68.406384
 30
0.0
 40
28.197761
100
AcDbArc
 50
29.693704
 51
45.288518
  0
ARC
  5
1D1
100
AcDbEntity
  8
2
100
AcDbCircle
 10
112.094119
 20
68.406384
 30
0.0
 40
28.197761
100
AcDbArc
 50
29.693704
 51
45.843762
  0
ARC
  5
1D2
100
AcDbEntity
  8
2
100
AcDbCircle
 10
131.643851
 20
88.54056
 30
0.0
 40
0.133957
100
AcDbArc
 50
45.843762
 51
225.288518
  0
LINE
  5
1D3
100
AcDbEntity
  8
2
 62
     2
100
AcDbLine
 10
123.611352
 20
83.770001
 30
0.0
 11
122.510435
 21
84.405616
 31
0.0
  0
LINE
  5
1D4
100
AcDbEntity
  8
2
 62
     2
100
AcDbLine
 10
123.379066
 20
84.596932
 30
0.0
 11
122.262234
 21
85.241735
 31
0.0
  0
LINE
  5
1D5
100
AcDbEntity
  8
2
 62
     2
100
AcDbLine
 10
123.125963
 20
85.435881
 30
0.0
 11
121.992206
 21
86.090456
 31
0.0
  0
LINE
  5
1D6
100
AcDbEntity
  8
2
 62
     2
100
AcDbLine
 10
122.850713
 20
86.287617
 30
0.0
 11
121.885779
 21
86.844722
 31
0.0
  0
LINE
  5
1D7
100
AcDbEntity
  8
2
 62
     2
100
AcDbLine
 10
122.55181
 20
87.153009
 30
0.0
 11
121.885779
 21
87.537543
 31
0.0
  0
LINE
  5
1D8
100
AcDbEntity
  8
2
 62
     2
100
AcDbLine
 10
122.22754
 20
88.033047
 30
0.0
 11
121.885779
 21
88.230363
 31
0.0
  0
LINE
  5
1D9
100
AcDbEntity
  8
2
 62
     2
100
AcDbLine
 10
123.823999
 20
82.954409
 30
0.0
 11
122.738102
 21
83.581352
 31
0.0
  0
LINE
  5
1DA
100
AcDbEntity
  8
2
 62
     2
100
AcDbLine
 10
123.6284
 20
82.374518
 30
0.0
 11
122.946384
 21
82.76828
 31
0.0
  0
LINE
  5
1DB
100
AcDbEntity
  8
2
 62
     2
100
AcDbLine
 10
130.75804
 20
82.648754
 30
0.0
 11
131.233032
 21
82.374518
 31
0.0
  0
LINE
  5
1DC
100
AcDbEntity
  8
2
 62
     2
100
AcDbLine
 10
131.288417
 20
83.035361
 30
0.0
 11
130.311687
 21
83.599277
 31
0.0
  0
LINE
  5
1DD
100
AcDbEntity
  8
2
 62
     2
100
AcDbLine
 10
130.818803
 20
83.999313
 30
0.0
 11
129.80595
 21
84.584084
 31
0.0
  0
LINE
  5
1DE
100
AcDbEntity
  8
2
 62
     2
100
AcDbLine
 10
130.285684
 20
84.99993
 30
0.0
 11
129.229812
 21
85.609538
 31
0.0
  0
LINE
  5
1DF
100
AcDbEntity
  8
2
 62
     2
100
AcDbLine
 10
129.676507
 20
86.044459
 30
0.0
 11
128.567936
 21
86.684492
 31
0.0
  0
LINE
  5
1E0
100
AcDbEntity
  8
2
 62
     2
100
AcDbLine
 10
128.973457
 20
87.143186
 30
0.0
 11
127.797834
 21
87.821932
 31
0.0
  0
LINE
  5
1E1
100
AcDbEntity
  8
2
 62
     2
100
AcDbLine
 10
128.149691
 20
88.311607
 30
0.0
 11
127.590685
 21
88.63435
 31
0.0
  0
LINE
  5
1E2
100
AcDbEntity
  8
2
100
AcDbLine
 10
71.885777
 20
82.374518
 30
0.0
 11
156.885777
 21
82.374518
 31
0.0
  0
LINE
  5
1E3
100
AcDbEntity
  8
2
 62
     2
100
AcDbLine
 10
134.762161
 20
85.177598
 30
0.0
 11
134.084886
 21
85.568623
 31
0.0
  0
LINE
  5
1E4
100
AcDbEntity
  8
2
 62
     2
100
AcDbLine
 10
133.767409
 20
86.444739
 30
0.0
 11
133.016367
 21
86.878353
 31
0.0
  0
LINE
  5
1E5
100
AcDbEntity
  8
2
 62
     2
100
AcDbLine
 10
132.495022
 20
87.872172
 30
0.0
 11
131.615383
 21
88.380031
 31
0.0
  0
LINE
  5
1E6
100
AcDbEntity
  8
2
 62
     2
100
AcDbLine
 10
135.579075
 20
84.013132
 30
0.0
 11
134.951559
 21
84.375428
 31
0.0
  0
LINE
  5
1E7
100
AcDbEntity
  8
2
 62
     2
100
AcDbLine
 10
136.268564
 20
82.922235
 30
0.0
 11
135.67776
 21
83.263336
 31
0.0
  0
LINE
  5
1E8
100
AcDbEntity
  8
2
100
AcDbLine
 10
155.385777
 20
73.174518
 30
0.0
 11
155.385777
 21
42.174518
 31
0.0
  0
LINE
  5
1E9
100
AcDbEntity
  8
2
100
AcDbLine
 10
79.385777
 20
73.174518
 30
0.0
 11
79.385777
 21
42.174518
 31
0.0
  0
LINE
  5
1EA
100
AcDbEntity
  8
2
100
AcDbLine
 10
68.739551
 20
41.174518
 30
0.0
 11
78.385777
 21
41.174518
 31
0.0
  0
LINE
  5
1EB
100
AcDbEntity
  8
2
100
AcDbLine
 10
156.385777
 20
41.174518
 30
0.0
 11
166.032002
 21
41.174518
 31
0.0
  0
ARC
  5
1EC
100
AcDbEntity
  8
2
100
AcDbCircle
 10
152.385777
 20
73.174518
 30
0.0
 40
3.0
100
AcDbArc
 50
0.0
 51
90.0
  0
ARC
  5
1ED
100
AcDbEntity
  8
2
100
AcDbCircle
 10
82.385777
 20
73.174518
 30
0.0
 40
3.0
100
AcDbArc
 50
90.0
 51
180.0
  0
ARC
  5
1EE
100
AcDbEntity
  8
2
100
AcDbCircle
 10
106.101989
 20
89.853549
 30
0.0
 40
11.430139
100
AcDbArc
 50
88.512215
 51
112.714662
  0
ARC
  5
1EF
100
AcDbEntity
  8
2
100
AcDbCircle
 10
106.385777
 20
100.780003
 30
0.0
 40
0.5
100
AcDbArc
 50
0.0
 51
88.512215
  0
ARC
  5
1F0
100
AcDbEntity
  8
2
100
AcDbCircle
 10
117.22215
 20
63.289044
 30
0.0
 40
40.228245
100
AcDbArc
 50
112.714662
 51
131.843847
  0
ARC
  5
1F1
100
AcDbEntity
  8
2
100
AcDbCircle
 10
107.591991
 20
82.957573
 30
0.0
 40
17.127052
100
AcDbArc
 50
93.791923
 51
118.737001
  0
ARC
  5
1F2
100
AcDbEntity
  8
2
100
AcDbCircle
 10
106.485777
 20
99.648006
 30
0.0
 40
0.4
100
AcDbArc
 50
0.0
 51
93.791923
  0
ARC
  5
1F3
100
AcDbEntity
  8
2
100
AcDbCircle
 10
121.30434
 20
57.949808
 30
0.0
 40
45.647515
100
AcDbArc
 50
118.737001
 51
132.635576
  0
ARC
  5
1F4
100
AcDbEntity
  8
2
100
AcDbCircle
 10
121.179563
 20
82.957573
 30
0.0
 40
17.127052
100
AcDbArc
 50
61.262999
 51
86.208077
  0
ARC
  5
1F5
100
AcDbEntity
  8
2
100
AcDbCircle
 10
107.467213
 20
57.949808
 30
0.0
 40
45.647515
100
AcDbArc
 50
47.364424
 51
61.262999
  0
ARC
  5
1F6
100
AcDbEntity
  8
2
100
AcDbCircle
 10
122.285777
 20
99.648006
 30
0.0
 40
0.4
100
AcDbArc
 50
86.208077
 51
180.0
  0
ARC
  5
1F7
100
AcDbEntity
  8
2
100
AcDbCircle
 10
122.385777
 20
100.780003
 30
0.0
 40
0.5
100
AcDbArc
 50
91.487785
 51
180.0
  0
ARC
  5
1F8
100
AcDbEntity
  8
2
100
AcDbCircle
 10
122.669565
 20
89.853549
 30
0.0
 40
11.430139
100
AcDbArc
 50
67.285338
 51
91.487785
  0
ARC
  5
1F9
100
AcDbEntity
  8
2
100
AcDbCircle
 10
111.549404
 20
63.289044
 30
0.0
 40
40.228245
100
AcDbArc
 50
48.156153
 51
67.285338
  0
LINE
  5
1FA
100
AcDbEntity
  8
2
  6
CENTER
 62
     2
100
AcDbLine
 10
161.385777
 20
50.301966
 30
0.0
 11
161.385777
 21
33.827124
 31
0.0
  0
LINE
  5
1FB
100
AcDbEntity
  8
2
  6
CENTER
 62
     2
100
AcDbLine
 10
73.385777
 20
50.301966
 30
0.0
 11
73.385777
 21
33.827124
 31
0.0
  0
LINE
  5
1FC
100
AcDbEntity
  8
2
  6
CENTER
 62
     2
100
AcDbLine
 10
140.902281
 20
73.519335
 30
0.0
 11
140.902281
 21
89.130793
 31
0.0
  0
LINE
  5
1FD
100
AcDbEntity
  8
2
  6
CENTER
 62
     2
100
AcDbLine
 10
87.869273
 20
73.519335
 30
0.0
 11
87.869273
 21
90.524683
 31
0.0
  0
LINE
  5
1FE
100
AcDbEntity
  8
2
100
AcDbLine
 10
68.785777
 20
42.474518
 30
0.0
 11
68.785777
 21
41.174518
 31
0.0
  0
LINE
  5
1FF
100
AcDbEntity
  8
2
100
AcDbLine
 10
77.985777
 20
42.474518
 30
0.0
 11
77.985777
 21
41.174518
 31
0.0
  0
LINE
  5
200
100
AcDbEntity
  8
2
100
AcDbLine
 10
68.785777
 20
42.474518
 30
0.0
 11
77.985777
 21
42.474518
 31
0.0
  0
LINE
  5
201
100
AcDbEntity
  8
2
100
AcDbLine
 10
68.885777
 20
43.76201
 30
0.0
 11
68.885777
 21
42.474518
 31
0.0
  0
LINE
  5
202
100
AcDbEntity
  8
2
100
AcDbLine
 10
77.885777
 20
43.76201
 30
0.0
 11
77.885777
 21
42.474518
 31
0.0
  0
ARC
  5
203
100
AcDbEntity
  8
2
100
AcDbCircle
 10
73.385777
 20
33.774518
 30
0.0
 40
12.0
100
AcDbArc
 50
73.808648
 51
106.191352
  0
ARC
  5
204
100
AcDbEntity
  8
2
100
AcDbCircle
 10
70.485777
 20
43.76201
 30
0.0
 40
1.6
100
AcDbArc
 50
106.191352
 51
180.0
  0
ARC
  5
205
100
AcDbEntity
  8
2
100
AcDbCircle
 10
76.285777
 20
43.76201
 30
0.0
 40
1.6
100
AcDbArc
 50
0.0
 51
73.808648
  0
LINE
  5
206
100
AcDbEntity
  8
2
100
AcDbLine
 10
156.785777
 20
42.474518
 30
0.0
 11
156.785777
 21
41.174518
 31
0.0
  0
LINE
  5
207
100
AcDbEntity
  8
2
100
AcDbLine
 10
165.985777
 20
42.474518
 30
0.0
 11
165.985777
 21
41.174518
 31
0.0
  0
LINE
  5
208
100
AcDbEntity
  8
2
100
AcDbLine
 10
156.785777
 20
42.474518
 30
0.0
 11
165.985777
 21
42.474518
 31
0.0
  0
LINE
  5
209
100
AcDbEntity
  8
2
100
AcDbLine
 10
156.885777
 20
43.76201
 30
0.0
 11
156.885777
 21
42.474518
 31
0.0
  0
LINE
  5
20A
100
AcDbEntity
  8
2
100
AcDbLine
 10
165.885777
 20
43.76201
 30
0.0
 11
165.885777
 21
42.474518
 31
0.0
  0
ARC
  5
20B
100
AcDbEntity
  8
2
100
AcDbCircle
 10
161.385777
 20
33.774518
 30
0.0
 40
12.0
100
AcDbArc
 50
73.808648
 51
106.191352
  0
ARC
  5
20C
100
AcDbEntity
  8
2
100
AcDbCircle
 10
158.485777
 20
43.76201
 30
0.0
 40
1.6
100
AcDbArc
 50
106.191352
 51
180.0
  0
ARC
  5
20D
100
AcDbEntity
  8
2
100
AcDbCircle
 10
164.285777
 20
43.76201
 30
0.0
 40
1.6
100
AcDbArc
 50
0.0
 51
73.808648
  0
LINE
  5
20E
100
AcDbEntity
  8
2
100
AcDbLine
 10
91.669273
 20
83.374518
 30
0.0
 11
84.069273
 21
83.374518
 31
0.0
  0
LINE
  5
20F
100
AcDbEntity
  8
2
100
AcDbLine
 10
91.669273
 20
83.374518
 30
0.0
 11
91.669273
 21
82.374518
 31
0.0
  0
LINE
  5
210
100
AcDbEntity
  8
2
100
AcDbLine
 10
84.069273
 20
83.374518
 30
0.0
 11
84.069273
 21
82.374518
 31
0.0
  0
LINE
  5
211
100
AcDbEntity
  8
2
100
AcDbLine
 10
91.369273
 20
84.353542
 30
0.0
 11
91.369273
 21
83.374518
 31
0.0
  0
LINE
  5
212
100
AcDbEntity
  8
2
100
AcDbLine
 10
84.369273
 20
84.353542
 30
0.0
 11
84.369273
 21
83.374518
 31
0.0
  0
ARC
  5
213
100
AcDbEntity
  8
2
100
AcDbCircle
 10
87.869273
 20
76.974518
 30
0.0
 40
9.0
100
AcDbArc
 50
73.39845
 51
106.60155
  0
ARC
  5
214
100
AcDbEntity
  8
2
100
AcDbCircle
 10
90.069273
 20
84.353542
 30
0.0
 40
1.3
100
AcDbArc
 50
0.0
 51
73.39845
  0
ARC
  5
215
100
AcDbEntity
  8
2
100
AcDbCircle
 10
85.669273
 20
84.353542
 30
0.0
 40
1.3
100
AcDbArc
 50
106.60155
 51
180.0
  0
LINE
  5
216
100
AcDbEntity
  8
2
100
AcDbLine
 10
144.702281
 20
83.374518
 30
0.0
 11
137.102281
 21
83.374518
 31
0.0
  0
LINE
  5
217
100
AcDbEntity
  8
2
100
AcDbLine
 10
144.702281
 20
83.374518
 30
0.0
 11
144.702281
 21
82.374518
 31
0.0
  0
LINE
  5
218
100
AcDbEntity
  8
2
100
AcDbLine
 10
137.102281
 20
83.374518
 30
0.0
 11
137.102281
 21
82.374518
 31
0.0
  0
LINE
  5
219
100
AcDbEntity
  8
2
100
AcDbLine
 10
144.402281
 20
84.353542
 30
0.0
 11
144.402281
 21
83.374518
 31
0.0
  0
LINE
  5
21A
100
AcDbEntity
  8
2
100
AcDbLine
 10
137.402281
 20
84.353542
 30
0.0
 11
137.402281
 21
83.374518
 31
0.0
  0
ARC
  5
21B
100
AcDbEntity
  8
2
100
AcDbCircle
 10
140.902281
 20
76.974518
 30
0.0
 40
9.0
100
AcDbArc
 50
73.39845
 51
106.60155
  0
ARC
  5
21C
100
AcDbEntity
  8
2
100
AcDbCircle
 10
143.102281
 20
84.353542
 30
0.0
 40
1.3
100
AcDbArc
 50
0.0
 51
73.39845
  0
ARC
  5
21D
100
AcDbEntity
  8
2
100
AcDbCircle
 10
138.702281
 20
84.353542
 30
0.0
 40
1.3
100
AcDbArc
 50
106.60155
 51
180.0
  0
ARC
  5
21E
100
AcDbEntity
  8
2
100
AcDbCircle
 10
156.385777
 20
42.174518
 30
0.0
 40
1.0
100
AcDbArc
 50
180.0
 51
270.0
  0
ARC
  5
21F
100
AcDbEntity
  8
2
100
AcDbCircle
 10
78.385777
 20
42.174518
 30
0.0
 40
1.0
100
AcDbArc
 50
270.0
 51
360.0
  0
LINE
  5
220
100
AcDbEntity
  8
2
100
AcDbLine
 10
167.385777
 20
36.174518
 30
0.0
 11
67.385777
 21
36.174518
 31
0.0
  0
LINE
  5
221
100
AcDbEntity
  8
2
100
AcDbLine
 10
167.385777
 20
36.174518
 30
0.0
 11
164.285548
 21
71.610296
 31
0.0
  0
LINE
  5
222
100
AcDbEntity
  8
2
100
AcDbLine
 10
67.385777
 20
36.174518
 30
0.0
 11
70.486006
 21
71.610296
 31
0.0
  0
ARC
  5
223
100
AcDbEntity
  8
2
100
AcDbCircle
 10
159.304574
 20
71.174518
 30
0.0
 40
5.0
100
AcDbArc
 50
5.0
 51
90.0
  0
ARC
  5
224
100
AcDbEntity
  8
2
100
AcDbCircle
 10
75.466979
 20
71.174518
 30
0.0
 40
5.0
100
AcDbArc
 50
90.0
 51
175.0
  0
ARC
  5
225
100
AcDbEntity
  8
2
100
AcDbCircle
 10
159.885777
 20
79.153377
 30
0.0
 40
3.0
100
AcDbArc
 50
180.0
 51
265.833774
  0
ARC
  5
226
100
AcDbEntity
  8
2
100
AcDbCircle
 10
68.885777
 20
75.722899
 30
0.0
 40
3.0
100
AcDbArc
 50
325.350986
 51
360.0
  0
ARC
  5
227
100
AcDbEntity
  8
2
100
AcDbCircle
 10
166.032002
 20
40.174518
 30
0.0
 40
1.0
100
AcDbArc
 50
5.0
 51
90.0
  0
ARC
  5
228
100
AcDbEntity
  8
2
100
AcDbCircle
 10
68.739551
 20
40.174518
 30
0.0
 40
1.0
100
AcDbArc
 50
90.0
 51
175.0
  0
ARC
  5
229
100
AcDbEntity
  8
2
100
AcDbCircle
 10
89.385777
 20
10.174518
 30
0.0
 40
18.0
100
AcDbArc
 50
90.0
 51
270.0
  0
LINE
  5
22A
100
AcDbEntity
  8
2
100
AcDbLine
 10
68.185768
 20
-49.675193
 30
0.0
 11
75.386781
 21
-49.675193
 31
0.0
  0
LINE
  5
22B
100
AcDbEntity
  8
2
100
AcDbLine
 10
149.385777
 20
-72.825482
 30
0.0
 11
79.385777
 21
-72.825482
 31
0.0
  0
LINE
  5
22C
100
AcDbEntity
  8
2
100
AcDbLine
 10
62.385777
 20
11.174518
 30
0.0
 11
62.385777
 21
-68.825482
 31
0.0
  0
LINE
  5
22D
100
AcDbEntity
  8
2
100
AcDbLine
 10
62.385777
 20
-68.825482
 30
0.0
 11
84.057333
 21
-68.825482
 31
0.0
  0
LINE
  5
22E
100
AcDbEntity
  8
2
100
AcDbLine
 10
62.385777
 20
11.174518
 30
0.0
 11
66.61752
 21
11.174518
 31
0.0
  0
LINE
  5
22F
100
AcDbEntity
  8
2
100
AcDbLine
 10
167.385777
 20
33.174518
 30
0.0
 11
67.385777
 21
33.174518
 31
0.0
  0
LINE
  5
230
100
AcDbEntity
  8
2
100
AcDbLine
 10
89.385777
 20
-7.825482
 30
0.0
 11
139.385777
 21
-7.825482
 31
0.0
  0
LINE
  5
231
100
AcDbEntity
  8
2
100
AcDbLine
 10
89.385777
 20
28.174518
 30
0.0
 11
139.385777
 21
28.174518
 31
0.0
  0
ARC
  5
232
100
AcDbEntity
  8
2
100
AcDbCircle
 10
139.385777
 20
10.174518
 30
0.0
 40
18.0
100
AcDbArc
 50
270.0
 51
90.0
  0
LINE
  5
233
100
AcDbEntity
  8
2
100
AcDbLine
 10
144.09188
 20
-17.825482
 30
0.0
 11
89.679674
 21
-17.825482
 31
0.0
  0
ARC
  5
234
100
AcDbEntity
  8
2
100
AcDbCircle
 10
105.385777
 20
-58.825482
 30
0.0
 40
1.0
100
AcDbArc
 50
0.0
 51
90.0
  0
LINE
  5
235
100
AcDbEntity
  8
2
100
AcDbLine
 10
106.385777
 20
-58.825482
 30
0.0
 11
106.385777
 21
-64.825482
 31
0.0
  0
ARC
  5
236
100
AcDbEntity
  8
2
100
AcDbCircle
 10
107.385777
 20
-64.825482
 30
0.0
 40
1.0
100
AcDbArc
 50
180.0
 51
270.0
  0
LINE
  5
237
100
AcDbEntity
  8
2
100
AcDbLine
 10
107.385777
 20
-65.825482
 30
0.0
 11
113.385777
 21
-65.825482
 31
0.0
  0
ARC
  5
238
100
AcDbEntity
  8
2
100
AcDbCircle
 10
113.385777
 20
-64.825482
 30
0.0
 40
1.0
100
AcDbArc
 50
270.0
 51
360.0
  0
LINE
  5
239
100
AcDbEntity
  8
2
100
AcDbLine
 10
114.385777
 20
-58.825482
 30
0.0
 11
114.385777
 21
-64.825482
 31
0.0
  0
ARC
  5
23A
100
AcDbEntity
  8
2
100
AcDbCircle
 10
115.385777
 20
-58.825482
 30
0.0
 40
1.0
100
AcDbArc
 50
90.0
 51
180.0
  0
LINE
  5
23B
100
AcDbEntity
  8
2
100
AcDbLine
 10
109.385777
 20
-66.825482
 30
0.0
 11
111.385777
 21
-66.825482
 31
0.0
  0
ARC
  5
23C
100
AcDbEntity
  8
2
100
AcDbCircle
 10
111.385777
 20
-65.825482
 30
0.0
 40
1.0
100
AcDbArc
 50
270.0
 51
360.0
  0
ARC
  5
23D
100
AcDbEntity
  8
2
100
AcDbCircle
 10
109.385777
 20
-65.825482
 30
0.0
 40
1.0
100
AcDbArc
 50
180.0
 51
270.0
  0
LINE
  5
23E
100
AcDbEntity
  8
2
100
AcDbLine
 10
67.385777
 20
33.174518
 30
0.0
 11
65.185768
 21
-29.825506
 31
0.0
  0
LINE
  5
23F
100
AcDbEntity
  8
2
100
AcDbLine
 10
167.385777
 20
33.174518
 30
0.0
 11
168.887284
 21
-9.82301
 31
0.0
  0
ARC
  5
240
100
AcDbEntity
  8
2
100
AcDbCircle
 10
85.214221
 20
-52.825482
 30
0.0
 40
5.0
100
AcDbArc
 50
182.0
 51
270.0
  0
ARC
  5
241
100
AcDbEntity
  8
2
100
AcDbCircle
 10
150.48871
 20
-54.825482
 30
0.0
 40
3.0
100
AcDbArc
 50
270.0
 51
358.0
  0
LINE
  5
242
100
AcDbEntity
  8
2
100
AcDbLine
 10
79.027781
 20
-18.937579
 30
0.0
 11
80.217267
 21
-52.99998
 31
0.0
  0
LINE
  5
243
100
AcDbEntity
  8
2
100
AcDbLine
 10
153.486883
 20
-54.930181
 30
0.0
 11
154.743772
 21
-18.937579
 31
0.0
  0
LINE
  5
244
100
AcDbEntity
  8
2
100
AcDbLine
 10
79.385777
 20
-72.825482
 30
0.0
 11
79.313498
 21
-70.755683
 31
0.0
  0
ARC
  5
245
100
AcDbEntity
  8
2
100
AcDbCircle
 10
77.314716
 20
-70.825482
 30
0.0
 40
2.0
100
AcDbArc
 50
2.0
 51
90.0
  0
LINE
  5
246
100
AcDbEntity
  8
2
100
AcDbLine
 10
149.385777
 20
-72.825482
 30
0.0
 11
149.909588
 21
-57.825482
 31
0.0
  0
LINE
  5
247
100
AcDbEntity
  8
2
100
AcDbLine
 10
104.244875
 20
-66.825482
 30
0.0
 11
99.777942
 21
-66.825482
 31
0.0
  0
LINE
  5
248
100
AcDbEntity
  8
2
100
AcDbLine
 10
124.526679
 20
-66.825482
 30
0.0
 11
128.993613
 21
-66.825482
 31
0.0
  0
LINE
  5
249
100
AcDbEntity
  8
2
 62
     2
100
AcDbLine
 10
122.385777
 20
-72.825482
 30
0.0
 11
122.842184
 21
-59.755683
 31
0.0
  0
LINE
  5
24A
100
AcDbEntity
  8
2
 62
     2
100
AcDbLine
 10
106.385777
 20
-72.825482
 30
0.0
 11
105.929369
 21
-59.755683
 31
0.0
  0
ARC
  5
24B
100
AcDbEntity
  8
2
 62
     2
100
AcDbCircle
 10
124.840966
 20
-59.825482
 30
0.0
 40
2.0
100
AcDbArc
 50
90.0
 51
178.0
  0
ARC
  5
24C
100
AcDbEntity
  8
2
 62
     2
100
AcDbCircle
 10
103.930588
 20
-59.825482
 30
0.0
 40
2.0
100
AcDbArc
 50
2.0
 51
90.0
  0
ARC
  5
24D
100
AcDbEntity
  8
2
100
AcDbCircle
 10
124.526679
 20
-68.825482
 30
0.0
 40
2.0
100
AcDbArc
 50
90.0
 51
178.0
  0
ARC
  5
24E
100
AcDbEntity
  8
2
100
AcDbCircle
 10
104.244875
 20
-68.825482
 30
0.0
 40
2.0
100
AcDbArc
 50
2.0
 51
90.0
  0
LINE
  5
24F
100
AcDbEntity
  8
2
100
AcDbLine
 10
122.527897
 20
-68.755683
 30
0.0
 11
122.385777
 21
-72.825482
 31
0.0
  0
LINE
  5
250
100
AcDbEntity
  8
2
100
AcDbLine
 10
106.243656
 20
-68.755683
 30
0.0
 11
106.385777
 21
-72.825482
 31
0.0
  0
ARC
  5
251
100
AcDbEntity
  8
2
100
AcDbCircle
 10
75.386781
 20
-54.675193
 30
0.0
 40
5.0
100
AcDbArc
 50
10.659447
 51
90.0
  0
ARC
  5
252
100
AcDbEntity
  8
2
 62
     2
100
AcDbCircle
 10
139.385777
 20
10.174518
 30
0.0
 40
17.0
100
AcDbArc
 50
270.0
 51
90.0
  0
LINE
  5
253
100
AcDbEntity
  8
2
 62
     2
100
AcDbLine
 10
89.385777
 20
27.174518
 30
0.0
 11
139.385777
 21
27.174518
 31
0.0
  0
ARC
  5
254
100
AcDbEntity
  8
2
 62
     2
100
AcDbCircle
 10
89.385777
 20
10.174518
 30
0.0
 40
17.0
100
AcDbArc
 50
90.0
 51
270.0
  0
LINE
  5
255
100
AcDbEntity
  8
2
 62
     2
100
AcDbLine
 10
89.385777
 20
-6.825482
 30
0.0
 11
139.385777
 21
-6.825482
 31
0.0
  0
LINE
  5
256
100
AcDbEntity
  8
2
 62
     2
100
AcDbLine
 10
162.847149
 20
-8.778425
 30
0.0
 11
68.922576
 21
-8.778425
 31
0.0
  0
LINE
  5
257
100
AcDbEntity
  8
2
100
AcDbLine
 10
149.746819
 20
-13.763081
 30
0.0
 11
84.024736
 21
-13.763081
 31
0.0
  0
ARC
  5
258
100
AcDbEntity
  8
2
100
AcDbCircle
 10
149.746819
 20
-18.763081
 30
0.0
 40
5.0
100
AcDbArc
 50
357.999999
 51
90.0
  0
ARC
  5
259
100
AcDbEntity
  8
2
100
AcDbCircle
 10
84.024736
 20
-18.763081
 30
0.0
 40
5.0
100
AcDbArc
 50
90.0
 51
182.0
  0
LINE
  5
25A
100
AcDbEntity
  8
2
100
AcDbLine
 10
86.681501
 20
-20.720784
 30
0.0
 11
85.42224
 21
-56.781317
 31
0.0
  0
ARC
  5
25B
100
AcDbEntity
  8
2
100
AcDbCircle
 10
89.679674
 20
-20.825482
 30
0.0
 40
3.0
100
AcDbArc
 50
90.0
 51
178.0
  0
LINE
  5
25C
100
AcDbEntity
  8
2
100
AcDbLine
 10
147.090052
 20
-20.720784
 30
0.0
 11
148.352075
 21
-56.860382
 31
0.0
  0
ARC
  5
25D
100
AcDbEntity
  8
2
100
AcDbCircle
 10
144.09188
 20
-20.825482
 30
0.0
 40
3.0
100
AcDbArc
 50
2.0
 51
90.0
  0
ARC
  5
25E
100
AcDbEntity
  8
2
100
AcDbCircle
 10
84.422849
 20
-56.746417
 30
0.0
 40
1.0
100
AcDbArc
 50
258.589152
 51
358.0
  0
ARC
  5
25F
100
AcDbEntity
  8
2
100
AcDbCircle
 10
149.351466
 20
-56.825482
 30
0.0
 40
1.0
100
AcDbArc
 50
182.0
 51
270.0
  0
LINE
  5
260
100
AcDbEntity
  8
2
100
AcDbLine
 10
65.185768
 20
-29.825482
 30
0.0
 11
65.185768
 21
-46.675193
 31
0.0
  0
ARC
  5
261
100
AcDbEntity
  8
2
100
AcDbCircle
 10
68.185768
 20
-46.675193
 30
0.0
 40
3.0
100
AcDbArc
 50
180.0
 51
270.0
  0
ARC
  5
262
100
AcDbEntity
  8
2
100
AcDbCircle
 10
163.89033
 20
-9.997508
 30
0.0
 40
5.0
100
AcDbArc
 50
299.999995
 51
2.000001
  0
LINE
  5
263
100
AcDbEntity
  8
2
100
AcDbLine
 10
157.068653
 20
-19.709506
 30
0.0
 11
166.39033
 21
-14.327635
 31
0.0
  0
ARC
  5
264
100
AcDbEntity
  8
2
100
AcDbCircle
 10
159.568653
 20
-24.039633
 30
0.0
 40
5.0
100
AcDbArc
 50
119.999995
 51
177.999999
  0
ARC
  5
265
100
AcDbEntity
  8
2
100
AcDbCircle
 10
91.201283
 20
-59.825482
 30
0.0
 40
2.0
100
AcDbArc
 50
90.0
 51
178.0
  0
LINE
  5
266
100
AcDbEntity
  8
2
100
AcDbLine
 10
89.202501
 20
-59.755683
 30
0.0
 11
89.054287
 21
-63.99998
 31
0.0
  0
ARC
  5
267
100
AcDbEntity
  8
2
100
AcDbCircle
 10
84.057333
 20
-63.825482
 30
0.0
 40
5.0
100
AcDbArc
 50
270.0
 51
358.0
  0
ARC
  5
268
100
AcDbEntity
  8
2
100
AcDbCircle
 10
99.777942
 20
-68.825482
 30
0.0
 40
2.0
100
AcDbArc
 50
90.0
 51
177.999998
  0
LINE
  5
269
100
AcDbEntity
  8
2
100
AcDbLine
 10
97.63704
 20
-72.825482
 30
0.0
 11
97.77916
 21
-68.755683
 31
0.0
  0
ARC
  5
26A
100
AcDbEntity
  8
2
100
AcDbCircle
 10
128.993613
 20
-68.825482
 30
0.0
 40
2.0
100
AcDbArc
 50
2.000002
 51
90.0
  0
LINE
  5
26B
100
AcDbEntity
  8
2
100
AcDbLine
 10
131.134515
 20
-72.825482
 30
0.0
 11
130.992394
 21
-68.755683
 31
0.0
  0
LINE
  5
26C
100
AcDbEntity
  8
2
100
AcDbLine
 10
85.214221
 20
-57.825482
 30
0.0
 11
150.385777
 21
-57.825482
 31
0.0
  0
CIRCLE
  5
26D
100
AcDbEntity
  8
2
100
AcDbCircle
 10
139.385777
 20
10.174518
 30
0.0
 40
13.0
  0
LINE
  5
26E
100
AcDbEntity
  8
2
100
AcDbLine
 10
131.880223
 20
23.174518
 30
0.0
 11
124.37467
 21
10.174518
 31
0.0
  0
LINE
  5
26F
100
AcDbEntity
  8
2
100
AcDbLine
 10
146.89133
 20
23.174518
 30
0.0
 11
131.880223
 21
23.174518
 31
0.0
  0
LINE
  5
270
100
AcDbEntity
  8
2
100
AcDbLine
 10
154.396884
 20
10.174518
 30
0.0
 11
146.89133
 21
23.174518
 31
0.0
  0
LINE
  5
271
100
AcDbEntity
  8
2
100
AcDbLine
 10
146.89133
 20
-2.825482
 30
0.0
 11
154.396884
 21
10.174518
 31
0.0
  0
LINE
  5
272
100
AcDbEntity
  8
2
100
AcDbLine
 10
131.880223
 20
-2.825482
 30
0.0
 11
146.89133
 21
-2.825482
 31
0.0
  0
LINE
  5
273
100
AcDbEntity
  8
2
100
AcDbLine
 10
124.37467
 20
10.174518
 30
0.0
 11
131.880223
 21
-2.825482
 31
0.0
  0
CIRCLE
  5
274
100
AcDbEntity
  8
2
100
AcDbCircle
 10
89.385777
 20
10.174518
 30
0.0
 40
13.0
  0
LINE
  5
275
100
AcDbEntity
  8
2
100
AcDbLine
 10
81.880223
 20
23.174518
 30
0.0
 11
74.37467
 21
10.174518
 31
0.0
  0
LINE
  5
276
100
AcDbEntity
  8
2
100
AcDbLine
 10
96.89133
 20
23.174518
 30
0.0
 11
81.880223
 21
23.174518
 31
0.0
  0
LINE
  5
277
100
AcDbEntity
  8
2
100
AcDbLine
 10
104.396884
 20
10.174518
 30
0.0
 11
96.89133
 21
23.174518
 31
0.0
  0
LINE
  5
278
100
AcDbEntity
  8
2
100
AcDbLine
 10
96.89133
 20
-2.825482
 30
0.0
 11
104.396884
 21
10.174518
 31
0.0
  0
LINE
  5
279
100
AcDbEntity
  8
2
100
AcDbLine
 10
81.880223
 20
-2.825482
 30
0.0
 11
96.89133
 21
-2.825482
 31
0.0
  0
LINE
  5
27A
100
AcDbEntity
  8
2
100
AcDbLine
 10
74.37467
 20
10.174518
 30
0.0
 11
81.880223
 21
-2.825482
 31
0.0
  0
LINE
  5
27B
100
AcDbEntity
  8
2
100
AcDbLine
 10
62.385777
 20
11.174518
 30
0.0
 11
62.385777
 21
-68.825482
 31
0.0
  0
LINE
  5
27C
100
AcDbEntity
  8
2
100
AcDbLine
 10
160.085777
 20
-65.825482
 30
0.0
 11
160.085777
 21
-63.366482
 31
0.0
  0
LINE
  5
27D
100
AcDbEntity
  8
2
100
AcDbLine
 10
160.085777
 20
-63.366482
 30
0.0
 11
159.544777
 21
-62.825482
 31
0.0
  0
LINE
  5
27E
100
AcDbEntity
  8
2
100
AcDbLine
 10
159.544777
 20
-62.825482
 30
0.0
 11
159.544777
 21
-65.825482
 31
0.0
  0
LINE
  5
27F
100
AcDbEntity
  8
2
100
AcDbLine
 10
160.085777
 20
-65.825482
 30
0.0
 11
160.085777
 21
-68.284482
 31
0.0
  0
LINE
  5
280
100
AcDbEntity
  8
2
100
AcDbLine
 10
160.085777
 20
-68.284482
 30
0.0
 11
159.544777
 21
-68.825482
 31
0.0
  0
LINE
  5
281
100
AcDbEntity
  8
2
100
AcDbLine
 10
159.544777
 20
-68.825482
 30
0.0
 11
159.544777
 21
-65.825482
 31
0.0
  0
LINE
  5
282
100
AcDbEntity
  8
2
100
AcDbLine
 10
150.885777
 20
-60.075482
 30
0.0
 11
153.307205
 21
-60.075482
 31
0.0
  0
LINE
  5
283
100
AcDbEntity
  8
2
100
AcDbLine
 10
150.885777
 20
-62.950482
 30
0.0
 11
153.206808
 21
-62.950482
 31
0.0
  0
LINE
  5
284
100
AcDbEntity
  8
2
100
AcDbLine
 10
150.885777
 20
-68.700482
 30
0.0
 11
153.006013
 21
-68.700482
 31
0.0
  0
LINE
  5
285
100
AcDbEntity
  8
2
100
AcDbLine
 10
150.885777
 20
-71.575482
 30
0.0
 11
152.905616
 21
-71.575482
 31
0.0
  0
LINE
  5
286
100
AcDbEntity
  8
2
100
AcDbLine
 10
150.885777
 20
-59.725482
 30
0.0
 11
149.843239
 21
-59.725482
 31
0.0
  0
LINE
  5
287
100
AcDbEntity
  8
2
100
AcDbLine
 10
149.417206
 20
-71.925482
 30
0.0
 11
150.885777
 21
-71.925482
 31
0.0
  0
LINE
  5
288
100
AcDbEntity
  8
2
100
AcDbLine
 10
150.885777
 20
-71.925482
 30
0.0
 11
150.885777
 21
-59.725482
 31
0.0
  0
LINE
  5
289
100
AcDbEntity
  8
2
 62
     2
100
AcDbLine
 10
160.085777
 20
-63.366482
 30
0.0
 11
158.815706
 21
-63.366482
 31
0.0
  0
LINE
  5
28A
100
AcDbEntity
  8
2
100
AcDbLine
 10
159.544777
 20
-62.825482
 30
0.0
 11
158.834599
 21
-62.825482
 31
0.0
  0
LINE
  5
28B
100
AcDbEntity
  8
2
100
AcDbLine
 10
159.544777
 20
-68.825482
 30
0.0
 11
158.625074
 21
-68.825482
 31
0.0
  0
LINE
  5
28C
100
AcDbEntity
  8
2
 62
     2
100
AcDbLine
 10
160.085777
 20
-68.284482
 30
0.0
 11
158.643966
 21
-68.284482
 31
0.0
  0
LINE
  5
28D
100
AcDbEntity
  8
2
100
AcDbLine
 10
62.385777
 20
-68.825482
 30
0.0
 11
62.385777
 21
10.507851
 31
0.0
  0
LINE
  5
28E
100
AcDbEntity
  8
2
100
AcDbLine
 10
49.474982
 20
-66.575482
 30
0.0
 11
51.085777
 21
-66.575482
 31
0.0
  0
ARC
  5
28F
100
AcDbEntity
  8
2
100
AcDbCircle
 10
49.474982
 20
-65.575482
 30
0.0
 40
1.0
100
AcDbArc
 50
212.392365
 51
270.0
  0
LINE
  5
290
100
AcDbEntity
  8
2
100
AcDbLine
 10
51.085777
 20
-57.075482
 30
0.0
 11
51.085777
 21
-66.575482
 31
0.0
  0
LINE
  5
291
100
AcDbEntity
  8
2
100
AcDbLine
 10
51.085777
 20
-66.425482
 30
0.0
 11
52.385777
 21
-66.425482
 31
0.0
  0
LINE
  5
292
100
AcDbEntity
  8
2
100
AcDbLine
 10
49.474982
 20
-57.075482
 30
0.0
 11
51.085777
 21
-57.075482
 31
0.0
  0
LINE
  5
293
100
AcDbEntity
  8
2
100
AcDbLine
 10
51.085777
 20
-57.225482
 30
0.0
 11
52.385777
 21
-57.225482
 31
0.0
  0
LINE
  5
294
100
AcDbEntity
  8
2
100
AcDbLine
 10
47.401417
 20
-62.325482
 30
0.0
 11
47.585777
 21
-62.325482
 31
0.0
  0
LINE
  5
295
100
AcDbEntity
  8
2
100
AcDbLine
 10
47.401417
 20
-61.325482
 30
0.0
 11
47.585777
 21
-61.325482
 31
0.0
  0
LINE
  5
296
100
AcDbEntity
  8
2
100
AcDbLine
 10
47.585777
 20
-62.325482
 30
0.0
 11
47.585777
 21
-61.325482
 31
0.0
  0
ARC
  5
297
100
AcDbEntity
  8
2
100
AcDbCircle
 10
55.385777
 20
-61.825482
 30
0.0
 40
8.0
100
AcDbArc
 50
183.583322
 51
212.392365
  0
ARC
  5
298
100
AcDbEntity
  8
2
100
AcDbCircle
 10
55.385777
 20
-61.825482
 30
0.0
 40
8.0
100
AcDbArc
 50
147.607635
 51
176.416678
  0
ARC
  5
299
100
AcDbEntity
  8
2
100
AcDbCircle
 10
49.474982
 20
-58.075482
 30
0.0
 40
1.0
100
AcDbArc
 50
90.0
 51
147.607635
  0
LINE
  5
29A
100
AcDbEntity
  8
2
100
AcDbLine
 10
49.474982
 20
-0.075482
 30
0.0
 11
51.085777
 21
-0.075482
 31
0.0
  0
ARC
  5
29B
100
AcDbEntity
  8
2
100
AcDbCircle
 10
49.474982
 20
0.924518
 30
0.0
 40
1.0
100
AcDbArc
 50
212.392365
 51
270.0
  0
LINE
  5
29C
100
AcDbEntity
  8
2
100
AcDbLine
 10
51.085777
 20
9.424518
 30
0.0
 11
51.085777
 21
-0.075482
 31
0.0
  0
LINE
  5
29D
100
AcDbEntity
  8
2
100
AcDbLine
 10
51.085777
 20
0.074518
 30
0.0
 11
52.385777
 21
0.074518
 31
0.0
  0
LINE
  5
29E
100
AcDbEntity
  8
2
100
AcDbLine
 10
49.474982
 20
9.424518
 30
0.0
 11
51.085777
 21
9.424518
 31
0.0
  0
LINE
  5
29F
100
AcDbEntity
  8
2
100
AcDbLine
 10
51.085777
 20
9.274518
 30
0.0
 11
52.385777
 21
9.274518
 31
0.0
  0
LINE
  5
2A0
100
AcDbEntity
  8
2
100
AcDbLine
 10
47.401417
 20
4.174518
 30
0.0
 11
47.585777
 21
4.174518
 31
0.0
  0
LINE
  5
2A1
100
AcDbEntity
  8
2
100
AcDbLine
 10
47.401417
 20
5.174518
 30
0.0
 11
47.585777
 21
5.174518
 31
0.0
  0
LINE
  5
2A2
100
AcDbEntity
  8
2
100
AcDbLine
 10
47.585777
 20
4.174518
 30
0.0
 11
47.585777
 21
5.174518
 31
0.0
  0
ARC
  5
2A3
100
AcDbEntity
  8
2
100
AcDbCircle
 10
55.385777
 20
4.674518
 30
0.0
 40
8.0
100
AcDbArc
 50
183.583322
 51
212.392365
  0
ARC
  5
2A4
100
AcDbEntity
  8
2
100
AcDbCircle
 10
55.385777
 20
4.674518
 30
0.0
 40
8.0
100
AcDbArc
 50
147.607635
 51
176.416678
  0
ARC
  5
2A5
100
AcDbEntity
  8
2
100
AcDbCircle
 10
49.474982
 20
8.424518
 30
0.0
 40
1.0
100
AcDbArc
 50
90.0
 51
147.607635
  0
LINE
  5
2A6
100
AcDbEntity
  8
2
100
AcDbLine
 10
33.385777
 20
-42.325482
 30
0.0
 11
33.385777
 21
-17.325482
 31
0.0
  0
LINE
  5
2A7
100
AcDbEntity
  8
2
100
AcDbLine
 10
29.685777
 20
-17.325482
 30
0.0
 11
33.385777
 21
-17.325482
 31
0.0
  0
LINE
  5
2A8
100
AcDbEntity
  8
2
100
AcDbLine
 10
29.385777
 20
-17.625482
 30
0.0
 11
29.685777
 21
-17.325482
 31
0.0
  0
LINE
  5
2A9
100
AcDbEntity
  8
2
100
AcDbLine
 10
29.385777
 20
-17.625482
 30
0.0
 11
29.385777
 21
-42.025482
 31
0.0
  0
LINE
  5
2AA
100
AcDbEntity
  8
2
100
AcDbLine
 10
29.385777
 20
-42.025482
 30
0.0
 11
29.685777
 21
-42.325482
 31
0.0
  0
LINE
  5
2AB
100
AcDbEntity
  8
2
100
AcDbLine
 10
29.685777
 20
-42.325482
 30
0.0
 11
33.385777
 21
-42.325482
 31
0.0
  0
LINE
  5
2AC
100
AcDbEntity
  8
2
100
AcDbLine
 10
33.385777
 20
-41.825482
 30
0.0
 11
33.385777
 21
-17.825482
 31
0.0
  0
LINE
  5
2AD
100
AcDbEntity
  8
2
100
AcDbLine
 10
33.885777
 20
-42.325482
 30
0.0
 11
34.385777
 21
-42.325482
 31
0.0
  0
LINE
  5
2AE
100
AcDbEntity
  8
2
100
AcDbLine
 10
33.885777
 20
-17.325482
 30
0.0
 11
34.385777
 21
-17.325482
 31
0.0
  0
ARC
  5
2AF
100
AcDbEntity
  8
2
100
AcDbCircle
 10
33.885777
 20
-41.825482
 30
0.0
 40
0.5
100
AcDbArc
 50
180.0
 51
270.0
  0
ARC
  5
2B0
100
AcDbEntity
  8
2
100
AcDbCircle
 10
33.885777
 20
-17.825482
 30
0.0
 40
0.5
100
AcDbArc
 50
90.0
 51
180.0
  0
ARC
  5
2B1
100
AcDbEntity
  8
2
100
AcDbCircle
 10
34.385777
 20
-43.325482
 30
0.0
 40
1.0
100
AcDbArc
 50
0.0
 51
90.0
  0
ARC
  5
2B2
100
AcDbEntity
  8
2
100
AcDbCircle
 10
34.385777
 20
-16.325482
 30
0.0
 40
1.0
100
AcDbArc
 50
270.0
 51
360.0
  0
LINE
  5
2B3
100
AcDbEntity
  8
2
100
AcDbLine
 10
35.385777
 20
-57.808974
 30
0.0
 11
35.385777
 21
-1.841991
 31
0.0
  0
LINE
  5
2B4
100
AcDbEntity
  8
2
100
AcDbLine
 10
52.385777
 20
-67.825482
 30
0.0
 11
52.385777
 21
10.174518
 31
0.0
  0
LINE
  5
2B5
100
AcDbEntity
  8
2
100
AcDbLine
 10
62.385777
 20
-68.825482
 30
0.0
 11
53.385777
 21
-68.825482
 31
0.0
  0
LINE
  5
2B6
100
AcDbEntity
  8
2
100
AcDbLine
 10
62.385777
 20
11.174518
 30
0.0
 11
53.385777
 21
11.174518
 31
0.0
  0
ARC
  5
2B7
100
AcDbEntity
  8
2
100
AcDbCircle
 10
53.385777
 20
-67.825482
 30
0.0
 40
1.0
100
AcDbArc
 50
180.0
 51
270.0
  0
ARC
  5
2B8
100
AcDbEntity
  8
2
100
AcDbCircle
 10
53.385777
 20
10.174518
 30
0.0
 40
1.0
100
AcDbArc
 50
90.0
 51
180.0
  0
LINE
  5
2B9
100
AcDbEntity
  8
2
100
AcDbLine
 10
39.608292
 20
-62.748156
 30
0.0
 11
47.692875
 21
-64.020764
 31
0.0
  0
ARC
  5
2BA
100
AcDbEntity
  8
2
100
AcDbCircle
 10
49.385777
 20
-67.324187
 30
0.0
 40
3.0
100
AcDbArc
 50
0.0
 51
17.431677
  0
ARC
  5
2BB
100
AcDbEntity
  8
2
100
AcDbCircle
 10
40.385777
 20
-57.808974
 30
0.0
 40
5.0
100
AcDbArc
 50
180.0
 51
261.054375
  0
LINE
  5
2BC
100
AcDbEntity
  8
2
100
AcDbLine
 10
39.608292
 20
3.097191
 30
0.0
 11
47.585777
 21
4.352941
 31
0.0
  0
ARC
  5
2BD
100
AcDbEntity
  8
2
100
AcDbCircle
 10
40.385777
 20
-1.841991
 30
0.0
 40
5.0
100
AcDbArc
 50
98.945625
 51
180.0
  0
LINE
  5
2BE
100
AcDbEntity
  8
2
100
AcDbLine
 10
154.892812
 20
-43.32335
 30
0.0
 11
160.665324
 21
-49.513612
 31
0.0
  0
LINE
  5
2BF
100
AcDbEntity
  8
2
100
AcDbLine
 10
158.907825
 20
-42.963253
 30
0.0
 11
159.117222
 21
-36.966908
 31
0.0
  0
LINE
  5
2C0
100
AcDbEntity
  8
2
100
AcDbLine
 10
154.892812
 20
-43.32335
 30
0.0
 11
158.907825
 21
-42.963253
 31
0.0
  0
LINE
  5
2C1
100
AcDbEntity
  8
2
100
AcDbLine
 10
159.117222
 20
-36.966908
 30
0.0
 11
155.137108
 21
-36.327614
 31
0.0
  0
LINE
  5
2C2
100
AcDbEntity
  8
2
100
AcDbLine
 10
155.137108
 20
-36.327614
 30
0.0
 11
161.32737
 21
-30.555102
 31
0.0
  0
LINE
  5
2C3
100
AcDbEntity
  8
2
100
AcDbLine
 10
159.117222
 20
-36.966908
 30
0.0
 11
164.035528
 21
-34.351798
 31
0.0
  0
ARC
  5
2C4
100
AcDbEntity
  8
2
100
AcDbCircle
 10
162.931371
 20
-32.275182
 30
0.0
 40
2.351913
100
AcDbArc
 50
298.0
 51
133.0
  0
LINE
  5
2C5
100
AcDbEntity
  8
2
100
AcDbLine
 10
158.907825
 20
-42.963253
 30
0.0
 11
163.631729
 21
-45.915076
 31
0.0
  0
ARC
  5
2C6
100
AcDbEntity
  8
2
100
AcDbCircle
 10
162.385405
 20
-47.909611
 30
0.0
 40
2.351913
100
AcDbArc
 50
223.0
 51
58.0
  0
LINE
  5
2C7
100
AcDbEntity
  8
2
100
AcDbLine
 10
154.910262
 20
-42.823655
 30
0.0
 11
155.119659
 21
-36.82731
 31
0.0
  0
LINE
  5
2C8
100
AcDbEntity
  8
2
100
AcDbLine
 10
157.686716
 20
-33.950067
 30
0.0
 11
154.223748
 21
-33.829137
 31
0.0
  0
LINE
  5
2C9
100
AcDbEntity
  8
2
100
AcDbLine
 10
158.06045
 20
-84.994205
 30
0.0
 11
152.443873
 21
-84.79807
 31
0.0
  0
LINE
  5
2CA
100
AcDbEntity
  8
2
100
AcDbLine
 10
158.06045
 20
-84.994205
 30
0.0
 11
159.14678
 21
-53.885791
 31
0.0
  0
LINE
  5
2CB
100
AcDbEntity
  8
2
100
AcDbLine
 10
156.618329
 20
-84.943845
 30
0.0
 11
157.763074
 21
-52.162637
 31
0.0
  0
LINE
  5
2CC
100
AcDbEntity
  8
2
100
AcDbLine
 10
157.800056
 20
-51.103598
 30
0.0
 11
157.957001
 21
-46.609291
 31
0.0
  0
LINE
  5
2CD
100
AcDbEntity
  8
2
100
AcDbLine
 10
153.885994
 20
-84.84843
 30
0.0
 11
155.037678
 21
-51.868532
 31
0.0
  0
LINE
  5
2CE
100
AcDbEntity
  8
2
100
AcDbLine
 10
152.443873
 20
-84.79807
 30
0.0
 11
153.595557
 21
-51.818172
 31
0.0
  0
LINE
  5
2CF
100
AcDbEntity
  8
2
100
AcDbLine
 10
154.188848
 20
-34.828528
 30
0.0
 11
154.223748
 21
-33.829137
 31
0.0
  0
LINE
  5
2D0
100
AcDbEntity
  8
2
100
AcDbLine
 10
155.072577
 20
-50.869141
 30
0.0
 11
155.320082
 21
-43.781541
 31
0.0
  0
LINE
  5
2D1
100
AcDbEntity
  8
2
100
AcDbLine
 10
155.595299
 20
-35.900345
 30
0.0
 11
155.665869
 21
-33.879497
 31
0.0
  0
LINE
  5
2D2
100
AcDbEntity
  8
2
100
AcDbLine
 10
159.21313
 20
-51.985768
 30
0.0
 11
159.348762
 21
-48.101772
 31
0.0
  0
LINE
  5
2D3
100
AcDbEntity
  8
2
100
AcDbLine
 10
159.514955
 20
-43.34263
 30
0.0
 11
159.749337
 21
-36.630806
 31
0.0
  0
LINE
  5
2D4
100
AcDbEntity
  8
2
100
AcDbLine
 10
155.188239
 20
-34.863428
 30
0.0
 11
154.188848
 21
-34.828528
 31
0.0
  0
LINE
  5
2D5
100
AcDbEntity
  8
2
100
AcDbLine
 10
156.828507
 20
-50.93046
 30
0.0
 11
154.629847
 21
-50.853681
 31
0.0
  0
LINE
  5
2D6
100
AcDbEntity
  8
2
100
AcDbLine
 10
155.188239
 20
-34.863428
 30
0.0
 11
154.629847
 21
-50.853681
 31
0.0
  0
LINE
  5
2D7
100
AcDbEntity
  8
2
100
AcDbLine
 10
156.793607
 20
-51.929851
 30
0.0
 11
153.595557
 21
-51.818172
 31
0.0
  0
LINE
  5
2D8
100
AcDbEntity
  8
2
100
AcDbLine
 10
153.595557
 20
-51.818172
 30
0.0
 11
154.188848
 21
-34.828528
 31
0.0
  0
ARC
  5
2D9
100
AcDbEntity
  8
2
100
AcDbCircle
 10
156.706359
 20
-54.428328
 30
0.0
 40
3.5
100
AcDbArc
 50
311.743299
 51
88.0
  0
ARC
  5
2DA
100
AcDbEntity
  8
2
100
AcDbCircle
 10
156.706359
 20
-54.428328
 30
0.0
 40
2.5
100
AcDbArc
 50
343.466253
 51
88.0
  0
LINE
  5
2DB
100
AcDbEntity
  8
2
  6
CENTER
 62
     2
100
AcDbLine
 10
18.512554
 20
-29.825482
 30
0.0
 11
172.802061
 21
-29.825482
 31
0.0
  0
LINE
  5
2DC
100
AcDbEntity
  8
2
  6
CENTER
 62
     2
100
AcDbLine
 10
69.908277
 20
10.174518
 30
0.0
 11
108.863277
 21
10.174518
 31
0.0
  0
LINE
  5
2DD
100
AcDbEntity
  8
2
  6
CENTER
 62
     2
100
AcDbLine
 10
89.385777
 20
-9.302982
 30
0.0
 11
89.385777
 21
29.652018
 31
0.0
  0
LINE
  5
2DE
100
AcDbEntity
  8
2
  6
CENTER
 62
     2
100
AcDbLine
 10
119.908277
 20
10.174518
 30
0.0
 11
158.863277
 21
10.174518
 31
0.0
  0
LINE
  5
2DF
100
AcDbEntity
  8
2
  6
CENTER
 62
     2
100
AcDbLine
 10
139.385777
 20
-9.302982
 30
0.0
 11
139.385777
 21
29.652018
 31
0.0
  0
LINE
  5
2E0
100
AcDbEntity
  8
2
  6
CENTER
 62
     2
100
AcDbLine
 10
162.379555
 20
-65.825482
 30
0.0
 11
140.014504
 21
-65.825482
 31
0.0
  0
LINE
  5
2E1
100
AcDbEntity
  8
2
  6
CENTER
 62
     2
100
AcDbLine
 10
40.957165
 20
4.674518
 30
0.0
 11
59.655758
 21
4.674518
 31
0.0
  0
LINE
  5
2E2
100
AcDbEntity
  8
2
  6
CENTER
 62
     2
100
AcDbLine
 10
40.957165
 20
-61.825482
 30
0.0
 11
59.655758
 21
-61.825482
 31
0.0
  0
LINE
  5
2E3
100
AcDbEntity
  8
2
  6
CENTER
 62
     2
100
AcDbLine
 10
141.703398
 20
-39.825482
 30
0.0
 11
167.759032
 21
-39.825482
 31
0.0
  0
POINT
  5
2E4
100
AcDbEntity
  8
2
100
AcDbPoint
 10
114.385777
 20
103.174518
 30
0.0
  0
LINE
  5
2E5
100
AcDbEntity
  8
2
100
AcDbLine
 10
-341.664223
 20
81.174518
 30
0.0
 11
-256.664223
 21
81.174518
 31
0.0
  0
LINE
  5
2E6
100
AcDbEntity
  8
2
100
AcDbLine
 10
-256.664223
 20
82.374518
 30
0.0
 11
-256.664223
 21
79.174518
 31
0.0
  0
LINE
  5
2E7
100
AcDbEntity
  8
2
100
AcDbLine
 10
-341.664223
 20
82.374518
 30
0.0
 11
-341.664223
 21
79.174518
 31
0.0
  0
LINE
  5
2E8
100
AcDbEntity
  8
2
100
AcDbLine
 10
-301.164223
 20
90.674518
 30
0.0
 11
-301.164223
 21
82.374518
 31
0.0
  0
LINE
  5
2E9
100
AcDbEntity
  8
2
100
AcDbLine
 10
-297.164223
 20
90.674518
 30
0.0
 11
-297.164223
 21
82.374518
 31
0.0
  0
LINE
  5
2EA
100
AcDbEntity
  8
2
100
AcDbLine
 10
-374.164223
 20
33.174518
 30
0.0
 11
-214.164223
 21
33.174518
 31
0.0
  0
LINE
  5
2EB
100
AcDbEntity
  8
2
100
AcDbLine
 10
-226.827081
 20
76.174518
 30
0.0
 11
-349.102301
 21
76.174518
 31
0.0
  0
LINE
  5
2EC
100
AcDbEntity
  8
2
100
AcDbLine
 10
-214.164223
 20
36.174518
 30
0.0
 11
-214.164223
 21
33.174518
 31
0.0
  0
LINE
  5
2ED
100
AcDbEntity
  8
2
100
AcDbLine
 10
-226.164223
 20
73.174518
 30
0.0
 11
-226.164223
 21
42.174518
 31
0.0
  0
LINE
  5
2EE
100
AcDbEntity
  8
2
100
AcDbLine
 10
-360.164223
 20
70.063016
 30
0.0
 11
-360.164223
 21
42.174518
 31
0.0
  0
LINE
  5
2EF
100
AcDbEntity
  8
2
100
AcDbLine
 10
-371.644164
 20
41.174518
 30
0.0
 11
-361.164223
 21
41.174518
 31
0.0
  0
LINE
  5
2F0
100
AcDbEntity
  8
2
100
AcDbLine
 10
-225.164223
 20
41.174518
 30
0.0
 11
-215.517998
 21
41.174518
 31
0.0
  0
ARC
  5
2F1
100
AcDbEntity
  8
2
100
AcDbCircle
 10
-229.164223
 20
73.174518
 30
0.0
 40
3.0
100
AcDbArc
 50
0.0
 51
90.0
  0
ARC
  5
2F2
100
AcDbEntity
  8
2
100
AcDbCircle
 10
-253.664223
 20
79.174518
 30
0.0
 40
3.0
100
AcDbArc
 50
180.0
 51
270.0
  0
ARC
  5
2F3
100
AcDbEntity
  8
2
100
AcDbCircle
 10
-344.664223
 20
79.174518
 30
0.0
 40
3.0
100
AcDbArc
 50
270.0
 51
360.0
  0
ARC
  5
2F4
100
AcDbEntity
  8
2
100
AcDbCircle
 10
-299.164223
 20
69.174518
 30
0.0
 40
34.0
100
AcDbArc
 50
22.844739
 51
157.155261
  0
ARC
  5
2F5
100
AcDbEntity
  8
2
100
AcDbCircle
 10
-299.164223
 20
67.674518
 30
0.0
 40
28.0
100
AcDbArc
 50
34.712682
 51
81.884254
  0
ARC
  5
2F6
100
AcDbEntity
  8
2
100
AcDbCircle
 10
-299.164223
 20
67.674518
 30
0.0
 40
28.0
100
AcDbArc
 50
98.115746
 51
145.287318
  0
ARC
  5
2F7
100
AcDbEntity
  8
2
100
AcDbCircle
 10
-300.164223
 20
90.674518
 30
0.0
 40
1.0
100
AcDbArc
 50
90.0
 51
180.0
  0
ARC
  5
2F8
100
AcDbEntity
  8
2
100
AcDbCircle
 10
-298.164223
 20
90.674518
 30
0.0
 40
1.0
100
AcDbArc
 50
0.0
 51
90.0
  0
LINE
  5
2F9
100
AcDbEntity
  8
2
100
AcDbLine
 10
-300.164223
 20
91.674518
 30
0.0
 11
-299.799457
 21
91.674523
 31
0.0
  0
LINE
  5
2FA
100
AcDbEntity
  8
2
100
AcDbLine
 10
-298.528756
 20
91.674632
 30
0.0
 11
-298.164223
 21
91.674518
 31
0.0
  0
ARC
  5
2FB
100
AcDbEntity
  8
2
100
AcDbCircle
 10
-263.763828
 20
71.940147
 30
0.0
 40
45.274917
100
AcDbArc
 50
159.10214
 51
166.675437
  0
ARC
  5
2FC
100
AcDbEntity
  8
2
100
AcDbCircle
 10
-264.687708
 20
71.940147
 30
0.0
 40
45.274917
100
AcDbArc
 50
158.681079
 51
166.675437
  0
ARC
  5
2FD
100
AcDbEntity
  8
2
100
AcDbCircle
 10
-306.46306
 20
88.243571
 30
0.0
 40
0.430947
100
AcDbArc
 50
339.10214
 51
158.681079
  0
ARC
  5
2FE
100
AcDbEntity
  8
2
100
AcDbCircle
 10
-287.734294
 20
70.173265
 30
0.0
 40
30.472934
100
AcDbArc
 50
143.677597
 51
156.39704
  0
ARC
  5
2FF
100
AcDbEntity
  8
2
100
AcDbCircle
 10
-288.441401
 20
70.173265
 30
0.0
 40
30.472934
100
AcDbArc
 50
142.882669
 51
156.39704
  0
ARC
  5
300
100
AcDbEntity
  8
2
100
AcDbCircle
 10
-312.514575
 20
88.391114
 30
0.0
 40
0.283404
100
AcDbArc
 50
323.677597
 51
142.882669
  0
ARC
  5
301
100
AcDbEntity
  8
2
100
AcDbCircle
 10
-296.489882
 20
68.406384
 30
0.0
 40
28.197761
100
AcDbArc
 50
134.711482
 51
150.306296
  0
ARC
  5
302
100
AcDbEntity
  8
2
100
AcDbCircle
 10
-296.872565
 20
68.406384
 30
0.0
 40
28.197761
100
AcDbArc
 50
134.156238
 51
150.306296
  0
ARC
  5
303
100
AcDbEntity
  8
2
100
AcDbCircle
 10
-316.422298
 20
88.54056
 30
0.0
 40
0.133957
100
AcDbArc
 50
314.711482
 51
134.156238
  0
LINE
  5
304
100
AcDbEntity
  8
2
 62
     2
100
AcDbLine
 10
-308.687684
 20
82.608802
 30
0.0
 11
-308.281892
 21
82.374518
 31
0.0
  0
LINE
  5
305
100
AcDbEntity
  8
2
 62
     2
100
AcDbLine
 10
-307.729691
 20
82.748525
 30
0.0
 11
-308.536443
 21
83.214303
 31
0.0
  0
LINE
  5
306
100
AcDbEntity
  8
2
 62
     2
100
AcDbLine
 10
-307.576669
 20
83.352997
 30
0.0
 11
-308.377496
 21
83.815355
 31
0.0
  0
LINE
  5
307
100
AcDbEntity
  8
2
 62
     2
100
AcDbLine
 10
-307.415961
 20
83.953033
 30
0.0
 11
-308.210929
 21
84.412008
 31
0.0
  0
LINE
  5
308
100
AcDbEntity
  8
2
 62
     2
100
AcDbLine
 10
-307.247653
 20
84.548681
 30
0.0
 11
-308.036823
 21
85.004309
 31
0.0
  0
LINE
  5
309
100
AcDbEntity
  8
2
 62
     2
100
AcDbLine
 10
-307.071823
 20
85.139986
 30
0.0
 11
-307.855252
 21
85.592299
 31
0.0
  0
LINE
  5
30A
100
AcDbEntity
  8
2
 62
     2
100
AcDbLine
 10
-306.888544
 20
85.72699
 30
0.0
 11
-307.666285
 21
86.176019
 31
0.0
  0
LINE
  5
30B
100
AcDbEntity
  8
2
 62
     2
100
AcDbLine
 10
-306.697884
 20
86.309733
 30
0.0
 11
-307.469986
 21
86.755506
 31
0.0
  0
LINE
  5
30C
100
AcDbEntity
  8
2
 62
     2
100
AcDbLine
 10
-306.499906
 20
86.88825
 30
0.0
 11
-307.266413
 21
87.330793
 31
0.0
  0
LINE
  5
30D
100
AcDbEntity
  8
2
 62
     2
100
AcDbLine
 10
-306.294668
 20
87.462576
 30
0.0
 11
-307.055622
 21
87.901913
 31
0.0
  0
LINE
  5
30E
100
AcDbEntity
  8
2
 62
     2
100
AcDbLine
 10
-306.082223
 20
88.032741
 30
0.0
 11
-306.832292
 21
88.465794
 31
0.0
  0
LINE
  5
30F
100
AcDbEntity
  8
2
 62
     2
100
AcDbLine
 10
-314.663301
 20
85.697816
 30
0.0
 11
-314.134547
 21
85.39254
 31
0.0
  0
LINE
  5
310
100
AcDbEntity
  8
2
 62
     2
100
AcDbLine
 10
-314.352492
 20
86.211191
 30
0.0
 11
-313.82977
 21
85.909397
 31
0.0
  0
LINE
  5
311
100
AcDbEntity
  8
2
 62
     2
100
AcDbLine
 10
-314.031437
 20
86.71865
 30
0.0
 11
-313.514755
 21
86.420344
 31
0.0
  0
LINE
  5
312
100
AcDbEntity
  8
2
 62
     2
100
AcDbLine
 10
-313.700111
 20
87.220179
 30
0.0
 11
-313.189485
 21
86.925369
 31
0.0
  0
LINE
  5
313
100
AcDbEntity
  8
2
 62
     2
100
AcDbLine
 10
-313.358477
 20
87.715757
 30
0.0
 11
-312.85393
 21
87.424457
 31
0.0
  0
LINE
  5
314
100
AcDbEntity
  8
2
 62
     2
100
AcDbLine
 10
-313.006486
 20
88.205356
 30
0.0
 11
-312.508049
 21
87.917583
 31
0.0
  0
LINE
  5
315
100
AcDbEntity
  8
2
 62
     2
100
AcDbLine
 10
-312.597575
 20
88.662091
 30
0.0
 11
-312.238402
 21
88.454722
 31
0.0
  0
LINE
  5
316
100
AcDbEntity
  8
2
 62
     2
100
AcDbLine
 10
-314.963875
 20
85.178533
 30
0.0
 11
-314.429093
 21
84.869776
 31
0.0
  0
LINE
  5
317
100
AcDbEntity
  8
2
 62
     2
100
AcDbLine
 10
-315.254217
 20
84.653341
 30
0.0
 11
-314.7134
 21
84.3411
 31
0.0
  0
LINE
  5
318
100
AcDbEntity
  8
2
 62
     2
100
AcDbLine
 10
-315.534314
 20
84.122235
 30
0.0
 11
-314.98745
 21
83.806503
 31
0.0
  0
LINE
  5
319
100
AcDbEntity
  8
2
 62
     2
100
AcDbLine
 10
-315.804144
 20
83.585201
 30
0.0
 11
-315.251214
 21
83.265967
 31
0.0
  0
LINE
  5
31A
100
AcDbEntity
  8
2
 62
     2
100
AcDbLine
 10
-316.06367
 20
83.042218
 30
0.0
 11
-315.504648
 21
82.719467
 31
0.0
  0
LINE
  5
31B
100
AcDbEntity
  8
2
 62
     2
100
AcDbLine
 10
-316.107179
 20
82.374518
 30
0.0
 11
-316.312846
 21
82.49326
 31
0.0
  0
LINE
  5
31C
100
AcDbEntity
  8
2
100
AcDbLine
 10
-256.664223
 20
82.374518
 30
0.0
 11
-341.664223
 21
82.374518
 31
0.0
  0
LINE
  5
31D
100
AcDbEntity
  8
2
 62
     2
100
AcDbLine
 10
-319.127978
 20
85.721416
 30
0.0
 11
-318.863333
 21
85.568623
 31
0.0
  0
LINE
  5
31E
100
AcDbEntity
  8
2
 62
     2
100
AcDbLine
 10
-318.750323
 20
86.196197
 30
0.0
 11
-318.489317
 21
86.045505
 31
0.0
  0
LINE
  5
31F
100
AcDbEntity
  8
2
 62
     2
100
AcDbLine
 10
-318.36118
 20
86.664345
 30
0.0
 11
-318.103851
 21
86.515776
 31
0.0
  0
LINE
  5
320
100
AcDbEntity
  8
2
 62
     2
100
AcDbLine
 10
-317.960421
 20
87.125787
 30
0.0
 11
-317.706811
 21
86.979366
 31
0.0
  0
LINE
  5
321
100
AcDbEntity
  8
2
 62
     2
100
AcDbLine
 10
-317.547898
 20
87.580438
 30
0.0
 11
-317.298057
 21
87.436192
 31
0.0
  0
LINE
  5
322
100
AcDbEntity
  8
2
 62
     2
100
AcDbLine
 10
-317.123444
 20
88.028199
 30
0.0
 11
-316.877427
 21
87.886161
 31
0.0
  0
LINE
  5
323
100
AcDbEntity
  8
2
 62
     2
100
AcDbLine
 10
-316.68687
 20
88.468963
 30
0.0
 11
-316.44474
 21
88.329169
 31
0.0
  0
LINE
  5
324
100
AcDbEntity
  8
2
 62
     2
100
AcDbLine
 10
-319.494256
 20
85.240066
 30
0.0
 11
-319.226002
 21
85.08519
 31
0.0
  0
LINE
  5
325
100
AcDbEntity
  8
2
 62
     2
100
AcDbLine
 10
-319.849249
 20
84.752201
 30
0.0
 11
-319.577414
 21
84.595257
 31
0.0
  0
LINE
  5
326
100
AcDbEntity
  8
2
 62
     2
100
AcDbLine
 10
-320.193034
 20
84.257865
 30
0.0
 11
-319.917638
 21
84.098865
 31
0.0
  0
LINE
  5
327
100
AcDbEntity
  8
2
 62
     2
100
AcDbLine
 10
-320.525672
 20
83.757093
 30
0.0
 11
-320.246731
 21
83.596047
 31
0.0
  0
LINE
  5
328
100
AcDbEntity
  8
2
 62
     2
100
AcDbLine
 10
-320.847207
 20
83.249911
 30
0.0
 11
-320.564732
 21
83.086824
 31
0.0
  0
LINE
  5
329
100
AcDbEntity
  8
2
 62
     2
100
AcDbLine
 10
-321.157668
 20
82.736336
 30
0.0
 11
-320.871666
 21
82.571212
 31
0.0
  0
ARC
  5
32A
100
AcDbEntity
  8
2
100
AcDbCircle
 10
-299.164223
 20
69.174518
 30
0.0
 40
33.162479
100
AcDbArc
 50
104.962752
 51
150.128593
  0
ARC
  5
32B
100
AcDbEntity
  8
2
100
AcDbCircle
 10
-293.609674
 20
101.164381
 30
0.0
 40
10.0
100
AcDbArc
 50
202.238154
 51
227.992896
  0
ARC
  5
32C
100
AcDbEntity
  8
2
100
AcDbCircle
 10
-306.951905
 20
98.314304
 30
0.0
 40
3.0
100
AcDbArc
 50
42.388379
 51
104.962752
  0
ARC
  5
32D
100
AcDbEntity
  8
2
100
AcDbCircle
 10
-312.12205
 20
93.595236
 30
0.0
 40
10.0
100
AcDbArc
 50
22.238154
 51
42.388379
  0
ARC
  5
32E
100
AcDbEntity
  8
2
100
AcDbCircle
 10
-304.718772
 20
101.164381
 30
0.0
 40
10.0
100
AcDbArc
 50
312.007104
 51
337.761846
  0
ARC
  5
32F
100
AcDbEntity
  8
2
100
AcDbCircle
 10
-286.206397
 20
93.595236
 30
0.0
 40
10.0
100
AcDbArc
 50
137.611621
 51
157.761846
  0
ARC
  5
330
100
AcDbEntity
  8
2
100
AcDbCircle
 10
-291.376541
 20
98.314304
 30
0.0
 40
3.0
100
AcDbArc
 50
75.037248
 51
137.611621
  0
ARC
  5
331
100
AcDbEntity
  8
2
100
AcDbCircle
 10
-299.164223
 20
69.174518
 30
0.0
 40
33.162479
100
AcDbArc
 50
29.871407
 51
75.037248
  0
ARC
  5
332
100
AcDbEntity
  8
2
100
AcDbCircle
 10
-299.164223
 20
94.996967
 30
0.0
 40
1.7
100
AcDbArc
 50
227.992896
 51
312.007104
  0
ARC
  5
333
100
AcDbEntity
  8
2
100
AcDbCircle
 10
-298.689332
 20
68.351982
 30
0.0
 40
32.849358
100
AcDbArc
 50
105.470231
 51
147.621493
  0
ARC
  5
334
100
AcDbEntity
  8
2
100
AcDbCircle
 10
-292.655723
 20
101.272878
 30
0.0
 40
12.0
100
AcDbArc
 50
200.135943
 51
231.694293
  0
ARC
  5
335
100
AcDbEntity
  8
2
100
AcDbCircle
 10
-309.555535
 20
95.076401
 30
0.0
 40
6.0
100
AcDbArc
 50
20.135943
 51
48.747449
  0
ARC
  5
336
100
AcDbEntity
  8
2
100
AcDbCircle
 10
-306.918018
 20
98.083643
 30
0.0
 40
2.0
100
AcDbArc
 50
48.747449
 51
105.470231
  0
ARC
  5
337
100
AcDbEntity
  8
2
100
AcDbCircle
 10
-305.672724
 20
101.272878
 30
0.0
 40
12.0
100
AcDbArc
 50
308.305707
 51
339.864057
  0
ARC
  5
338
100
AcDbEntity
  8
2
100
AcDbCircle
 10
-288.772911
 20
95.076401
 30
0.0
 40
6.0
100
AcDbArc
 50
131.252551
 51
159.864057
  0
ARC
  5
339
100
AcDbEntity
  8
2
100
AcDbCircle
 10
-291.410428
 20
98.083643
 30
0.0
 40
2.0
100
AcDbArc
 50
74.529769
 51
131.252551
  0
ARC
  5
33A
100
AcDbEntity
  8
2
100
AcDbCircle
 10
-299.639114
 20
68.351982
 30
0.0
 40
32.849358
100
AcDbArc
 50
32.378507
 51
74.529769
  0
ARC
  5
33B
100
AcDbEntity
  8
2
100
AcDbCircle
 10
-299.164223
 20
93.033374
 30
0.0
 40
1.5
100
AcDbArc
 50
231.694293
 51
308.305707
  0
LINE
  5
33C
100
AcDbEntity
  8
2
 62
     2
100
AcDbLine
 10
-301.164223
 20
88.833919
 30
0.0
 11
-297.164223
 21
86.524518
 31
0.0
  0
LINE
  5
33D
100
AcDbEntity
  8
2
 62
     2
100
AcDbLine
 10
-297.164223
 20
86.524518
 30
0.0
 11
-297.164223
 21
86.524518
 31
0.0
  0
LINE
  5
33E
100
AcDbEntity
  8
2
 62
     2
100
AcDbLine
 10
-301.164223
 20
89.526739
 30
0.0
 11
-297.164223
 21
87.217338
 31
0.0
  0
LINE
  5
33F
100
AcDbEntity
  8
2
 62
     2
100
AcDbLine
 10
-297.164223
 20
87.217338
 30
0.0
 11
-297.164223
 21
87.217338
 31
0.0
  0
LINE
  5
340
100
AcDbEntity
  8
2
 62
     2
100
AcDbLine
 10
-301.164223
 20
90.219559
 30
0.0
 11
-297.164223
 21
87.910158
 31
0.0
  0
LINE
  5
341
100
AcDbEntity
  8
2
 62
     2
100
AcDbLine
 10
-297.164223
 20
87.910158
 30
0.0
 11
-297.164223
 21
87.910158
 31
0.0
  0
LINE
  5
342
100
AcDbEntity
  8
2
 62
     2
100
AcDbLine
 10
-301.138976
 20
90.897803
 30
0.0
 11
-297.164223
 21
88.602979
 31
0.0
  0
LINE
  5
343
100
AcDbEntity
  8
2
 62
     2
100
AcDbLine
 10
-297.164223
 20
88.602979
 30
0.0
 11
-297.164223
 21
88.602979
 31
0.0
  0
LINE
  5
344
100
AcDbEntity
  8
2
 62
     2
100
AcDbLine
 10
-300.835711
 20
91.415533
 30
0.0
 11
-297.164223
 21
89.295799
 31
0.0
  0
LINE
  5
345
100
AcDbEntity
  8
2
 62
     2
100
AcDbLine
 10
-297.164223
 20
89.295799
 30
0.0
 11
-297.164223
 21
89.295799
 31
0.0
  0
LINE
  5
346
100
AcDbEntity
  8
2
 62
     2
100
AcDbLine
 10
-300.084285
 20
91.674518
 30
0.0
 11
-297.164223
 21
89.988619
 31
0.0
  0
LINE
  5
347
100
AcDbEntity
  8
2
 62
     2
100
AcDbLine
 10
-297.164223
 20
89.988619
 30
0.0
 11
-297.164223
 21
89.988619
 31
0.0
  0
LINE
  5
348
100
AcDbEntity
  8
2
 62
     2
100
AcDbLine
 10
-298.743903
 20
91.593468
 30
0.0
 11
-297.164247
 21
90.681453
 31
0.0
  0
LINE
  5
349
100
AcDbEntity
  8
2
 62
     2
100
AcDbLine
 10
-297.164223
 20
90.68144
 30
0.0
 11
-297.164223
 21
90.68144
 31
0.0
  0
LINE
  5
34A
100
AcDbEntity
  8
2
 62
     2
100
AcDbLine
 10
-301.164223
 20
88.141098
 30
0.0
 11
-297.164223
 21
85.831697
 31
0.0
  0
LINE
  5
34B
100
AcDbEntity
  8
2
 62
     2
100
AcDbLine
 10
-297.164223
 20
85.831697
 30
0.0
 11
-297.164223
 21
85.831697
 31
0.0
  0
LINE
  5
34C
100
AcDbEntity
  8
2
 62
     2
100
AcDbLine
 10
-301.164223
 20
87.448278
 30
0.0
 11
-297.164223
 21
85.138877
 31
0.0
  0
LINE
  5
34D
100
AcDbEntity
  8
2
 62
     2
100
AcDbLine
 10
-297.164223
 20
85.138877
 30
0.0
 11
-297.164223
 21
85.138877
 31
0.0
  0
LINE
  5
34E
100
AcDbEntity
  8
2
 62
     2
100
AcDbLine
 10
-301.164223
 20
86.755458
 30
0.0
 11
-297.164223
 21
84.446057
 31
0.0
  0
LINE
  5
34F
100
AcDbEntity
  8
2
 62
     2
100
AcDbLine
 10
-297.164223
 20
84.446057
 30
0.0
 11
-297.164223
 21
84.446057
 31
0.0
  0
LINE
  5
350
100
AcDbEntity
  8
2
 62
     2
100
AcDbLine
 10
-301.164223
 20
86.062637
 30
0.0
 11
-297.164223
 21
83.753236
 31
0.0
  0
LINE
  5
351
100
AcDbEntity
  8
2
 62
     2
100
AcDbLine
 10
-297.164223
 20
83.753236
 30
0.0
 11
-297.164223
 21
83.753236
 31
0.0
  0
LINE
  5
352
100
AcDbEntity
  8
2
 62
     2
100
AcDbLine
 10
-301.164223
 20
85.369817
 30
0.0
 11
-297.164223
 21
83.060416
 31
0.0
  0
LINE
  5
353
100
AcDbEntity
  8
2
 62
     2
100
AcDbLine
 10
-297.164223
 20
83.060416
 30
0.0
 11
-297.164223
 21
83.060416
 31
0.0
  0
LINE
  5
354
100
AcDbEntity
  8
2
 62
     2
100
AcDbLine
 10
-301.164223
 20
84.676997
 30
0.0
 11
-297.176212
 21
82.374518
 31
0.0
  0
LINE
  5
355
100
AcDbEntity
  8
2
 62
     2
100
AcDbLine
 10
-297.164223
 20
82.367596
 30
0.0
 11
-297.164223
 21
82.367596
 31
0.0
  0
LINE
  5
356
100
AcDbEntity
  8
2
 62
     2
100
AcDbLine
 10
-298.376212
 20
82.374518
 30
0.0
 11
-301.164223
 21
83.984176
 31
0.0
  0
LINE
  5
357
100
AcDbEntity
  8
2
 62
     2
100
AcDbLine
 10
-299.576212
 20
82.374518
 30
0.0
 11
-301.164223
 21
83.291356
 31
0.0
  0
LINE
  5
358
100
AcDbEntity
  8
2
 62
     2
100
AcDbLine
 10
-300.776212
 20
82.374518
 30
0.0
 11
-301.164223
 21
82.598536
 31
0.0
  0
LINE
  5
359
100
AcDbEntity
  8
2
  6
CENTER
 62
     2
100
AcDbLine
 10
-366.164223
 20
50.301966
 30
0.0
 11
-366.164223
 21
33.385954
 31
0.0
  0
LINE
  5
35A
100
AcDbEntity
  8
2
  6
CENTER
 62
     2
100
AcDbLine
 10
-220.164223
 20
50.301966
 30
0.0
 11
-220.164223
 21
33.385954
 31
0.0
  0
LINE
  5
35B
100
AcDbEntity
  8
2
  6
CENTER
 62
     2
100
AcDbLine
 10
-325.680727
 20
89.089964
 30
0.0
 11
-325.680727
 21
72.669539
 31
0.0
  0
LINE
  5
35C
100
AcDbEntity
  8
2
100
AcDbLine
 10
-370.764223
 20
42.474518
 30
0.0
 11
-370.764223
 21
41.174518
 31
0.0
  0
LINE
  5
35D
100
AcDbEntity
  8
2
100
AcDbLine
 10
-361.564223
 20
42.474518
 30
0.0
 11
-361.564223
 21
41.174518
 31
0.0
  0
LINE
  5
35E
100
AcDbEntity
  8
2
100
AcDbLine
 10
-370.764223
 20
42.474518
 30
0.0
 11
-361.564223
 21
42.474518
 31
0.0
  0
LINE
  5
35F
100
AcDbEntity
  8
2
100
AcDbLine
 10
-370.664223
 20
43.76201
 30
0.0
 11
-370.664223
 21
42.474518
 31
0.0
  0
LINE
  5
360
100
AcDbEntity
  8
2
100
AcDbLine
 10
-361.664223
 20
43.76201
 30
0.0
 11
-361.664223
 21
42.474518
 31
0.0
  0
ARC
  5
361
100
AcDbEntity
  8
2
100
AcDbCircle
 10
-366.164223
 20
33.774518
 30
0.0
 40
12.0
100
AcDbArc
 50
73.808648
 51
106.191352
  0
ARC
  5
362
100
AcDbEntity
  8
2
100
AcDbCircle
 10
-369.064223
 20
43.76201
 30
0.0
 40
1.6
100
AcDbArc
 50
106.191352
 51
180.0
  0
ARC
  5
363
100
AcDbEntity
  8
2
100
AcDbCircle
 10
-363.264223
 20
43.76201
 30
0.0
 40
1.6
100
AcDbArc
 50
0.0
 51
73.808648
  0
LINE
  5
364
100
AcDbEntity
  8
2
100
AcDbLine
 10
-224.764223
 20
42.474518
 30
0.0
 11
-224.764223
 21
41.174518
 31
0.0
  0
LINE
  5
365
100
AcDbEntity
  8
2
100
AcDbLine
 10
-215.564223
 20
42.474518
 30
0.0
 11
-215.564223
 21
41.174518
 31
0.0
  0
LINE
  5
366
100
AcDbEntity
  8
2
100
AcDbLine
 10
-224.764223
 20
42.474518
 30
0.0
 11
-215.564223
 21
42.474518
 31
0.0
  0
LINE
  5
367
100
AcDbEntity
  8
2
100
AcDbLine
 10
-224.664223
 20
43.76201
 30
0.0
 11
-224.664223
 21
42.474518
 31
0.0
  0
LINE
  5
368
100
AcDbEntity
  8
2
100
AcDbLine
 10
-215.664223
 20
43.76201
 30
0.0
 11
-215.664223
 21
42.474518
 31
0.0
  0
ARC
  5
369
100
AcDbEntity
  8
2
100
AcDbCircle
 10
-220.164223
 20
33.774518
 30
0.0
 40
12.0
100
AcDbArc
 50
73.808648
 51
106.191352
  0
ARC
  5
36A
100
AcDbEntity
  8
2
100
AcDbCircle
 10
-223.064223
 20
43.76201
 30
0.0
 40
1.6
100
AcDbArc
 50
106.191352
 51
180.0
  0
ARC
  5
36B
100
AcDbEntity
  8
2
100
AcDbCircle
 10
-217.264223
 20
43.76201
 30
0.0
 40
1.6
100
AcDbArc
 50
0.0
 51
73.808648
  0
LINE
  5
36C
100
AcDbEntity
  8
2
100
AcDbLine
 10
-268.847719
 20
83.374518
 30
0.0
 11
-276.447719
 21
83.374518
 31
0.0
  0
LINE
  5
36D
100
AcDbEntity
  8
2
100
AcDbLine
 10
-268.847719
 20
83.374518
 30
0.0
 11
-268.847719
 21
82.374518
 31
0.0
  0
LINE
  5
36E
100
AcDbEntity
  8
2
100
AcDbLine
 10
-276.447719
 20
83.374518
 30
0.0
 11
-276.447719
 21
82.374518
 31
0.0
  0
LINE
  5
36F
100
AcDbEntity
  8
2
100
AcDbLine
 10
-269.147719
 20
84.353542
 30
0.0
 11
-269.147719
 21
83.374518
 31
0.0
  0
LINE
  5
370
100
AcDbEntity
  8
2
100
AcDbLine
 10
-276.147719
 20
84.353542
 30
0.0
 11
-276.147719
 21
83.374518
 31
0.0
  0
ARC
  5
371
100
AcDbEntity
  8
2
100
AcDbCircle
 10
-272.647719
 20
76.974518
 30
0.0
 40
9.0
100
AcDbArc
 50
73.39845
 51
106.60155
  0
ARC
  5
372
100
AcDbEntity
  8
2
100
AcDbCircle
 10
-270.447719
 20
84.353542
 30
0.0
 40
1.3
100
AcDbArc
 50
0.0
 51
73.39845
  0
ARC
  5
373
100
AcDbEntity
  8
2
100
AcDbCircle
 10
-274.847719
 20
84.353542
 30
0.0
 40
1.3
100
AcDbArc
 50
106.60155
 51
180.0
  0
LINE
  5
374
100
AcDbEntity
  8
2
100
AcDbLine
 10
-321.880727
 20
83.374518
 30
0.0
 11
-329.480727
 21
83.374518
 31
0.0
  0
LINE
  5
375
100
AcDbEntity
  8
2
100
AcDbLine
 10
-321.880727
 20
83.374518
 30
0.0
 11
-321.880727
 21
82.374518
 31
0.0
  0
LINE
  5
376
100
AcDbEntity
  8
2
100
AcDbLine
 10
-329.480727
 20
83.374518
 30
0.0
 11
-329.480727
 21
82.374518
 31
0.0
  0
LINE
  5
377
100
AcDbEntity
  8
2
100
AcDbLine
 10
-322.180727
 20
84.353542
 30
0.0
 11
-322.180727
 21
83.374518
 31
0.0
  0
LINE
  5
378
100
AcDbEntity
  8
2
100
AcDbLine
 10
-329.180727
 20
84.353542
 30
0.0
 11
-329.180727
 21
83.374518
 31
0.0
  0
ARC
  5
379
100
AcDbEntity
  8
2
100
AcDbCircle
 10
-325.680727
 20
76.974518
 30
0.0
 40
9.0
100
AcDbArc
 50
73.39845
 51
106.60155
  0
ARC
  5
37A
100
AcDbEntity
  8
2
100
AcDbCircle
 10
-323.480727
 20
84.353542
 30
0.0
 40
1.3
100
AcDbArc
 50
0.0
 51
73.39845
  0
ARC
  5
37B
100
AcDbEntity
  8
2
100
AcDbCircle
 10
-327.880727
 20
84.353542
 30
0.0
 40
1.3
100
AcDbArc
 50
106.60155
 51
180.0
  0
LINE
  5
37C
100
AcDbEntity
  8
2
100
AcDbLine
 10
-374.164223
 20
33.174518
 30
0.0
 11
-374.164223
 21
36.174518
 31
0.0
  0
LINE
  5
37D
100
AcDbEntity
  8
2
100
AcDbLine
 10
-374.164223
 20
36.174518
 30
0.0
 11
-363.19769
 21
66.30482
 31
0.0
  0
ARC
  5
37E
100
AcDbEntity
  8
2
100
AcDbCircle
 10
-349.102301
 20
61.174518
 30
0.0
 40
15.0
100
AcDbArc
 50
90.0
 51
160.0
  0
ARC
  5
37F
100
AcDbEntity
  8
2
100
AcDbCircle
 10
-225.164223
 20
42.174518
 30
0.0
 40
1.0
100
AcDbArc
 50
180.0
 51
270.0
  0
ARC
  5
380
100
AcDbEntity
  8
2
100
AcDbCircle
 10
-371.644164
 20
40.174518
 30
0.0
 40
1.0
100
AcDbArc
 50
90.0
 51
160.0
  0
ARC
  5
381
100
AcDbEntity
  8
2
100
AcDbCircle
 10
-361.164223
 20
42.174518
 30
0.0
 40
1.0
100
AcDbArc
 50
270.0
 51
360.0
  0
ARC
  5
382
100
AcDbEntity
  8
2
100
AcDbCircle
 10
-357.164223
 20
70.063016
 30
0.0
 40
3.0
100
AcDbArc
 50
132.208221
 51
180.0
  0
LINE
  5
383
100
AcDbEntity
  8
2
100
AcDbLine
 10
-374.164223
 20
36.174518
 30
0.0
 11
-214.164223
 21
36.174518
 31
0.0
  0
LINE
  5
384
100
AcDbEntity
  8
2
100
AcDbLine
 10
-214.164223
 20
36.174518
 30
0.0
 11
-216.865134
 21
67.046075
 31
0.0
  0
ARC
  5
385
100
AcDbEntity
  8
2
100
AcDbCircle
 10
-226.827081
 20
66.174518
 30
0.0
 40
10.0
100
AcDbArc
 50
5.0
 51
90.0
  0
ARC
  5
386
100
AcDbEntity
  8
2
100
AcDbCircle
 10
-215.517998
 20
40.174518
 30
0.0
 40
1.0
100
AcDbArc
 50
5.0
 51
90.0
  0
TEXT
  5
387
100
AcDbEntity
  8
2
100
AcDbText
 10
-292.492519
 20
81.842447
 30
0.0
 40
7.6
  1
Ｓ
 50
31.641
 72
     5
 11
-287.316301
 21
85.031986
 31
0.0
100
AcDbText
  0
TEXT
  5
388
100
AcDbEntity
  8
2
100
AcDbText
 10
-292.91929
 20
81.581935
 30
0.0
 40
7.6
  1
Ｓ
 50
31.641
 72
     5
 11
-287.743071
 21
84.771474
 31
0.0
100
AcDbText
  0
TEXT
  5
389
100
AcDbEntity
  8
2
100
AcDbText
 10
-293.346061
 20
81.321423
 30
0.0
 40
7.6
  1
Ｓ
 50
31.641
 72
     5
 11
-288.169842
 21
84.510962
 31
0.0
100
AcDbText
  0
LINE
  5
38A
100
AcDbEntity
  8
2
100
AcDbLine
 10
-342.164223
 20
-72.825482
 30
0.0
 11
-256.164223
 21
-72.825482
 31
0.0
  0
ARC
  5
38B
100
AcDbEntity
  8
2
100
AcDbCircle
 10
-173.766725
 20
-56.325482
 30
0.0
 40
59.0
100
AcDbArc
 50
130.817217
 51
173.528051
  0
LINE
  5
38C
100
AcDbEntity
  8
2
100
AcDbLine
 10
-209.98962
 20
28.174518
 30
0.0
 11
-206.164223
 21
28.174518
 31
0.0
  0
LINE
  5
38D
100
AcDbEntity
  8
2
100
AcDbLine
 10
-206.164223
 20
28.174518
 30
0.0
 11
-206.164223
 21
-7.825482
 31
0.0
  0
LINE
  5
38E
100
AcDbEntity
  8
2
100
AcDbLine
 10
-206.164223
 20
28.174518
 30
0.0
 11
-205.164223
 21
27.174518
 31
0.0
  0
LINE
  5
38F
100
AcDbEntity
  8
2
100
AcDbLine
 10
-205.164223
 20
27.174518
 30
0.0
 11
-205.164223
 21
-6.825482
 31
0.0
  0
LINE
  5
390
100
AcDbEntity
  8
2
100
AcDbLine
 10
-205.164223
 20
-6.825482
 30
0.0
 11
-206.164223
 21
-7.825482
 31
0.0
  0
LINE
  5
391
100
AcDbEntity
  8
2
100
AcDbLine
 10
-206.164223
 20
-7.825482
 30
0.0
 11
-208.932143
 21
-7.825482
 31
0.0
  0
ARC
  5
392
100
AcDbEntity
  8
2
100
AcDbCircle
 10
-225.821111
 20
-47.825482
 30
0.0
 40
10.0
100
AcDbArc
 50
270.0
 51
358.0
  0
LINE
  5
393
100
AcDbEntity
  8
2
100
AcDbLine
 10
-225.821111
 20
-57.825482
 30
0.0
 11
-233.615127
 21
-57.825482
 31
0.0
  0
ARC
  5
394
100
AcDbEntity
  8
2
100
AcDbCircle
 10
-345.664223
 20
-36.825482
 30
0.0
 40
114.0
100
AcDbArc
 50
347.787475
 51
360.0
  0
ARC
  5
395
100
AcDbEntity
  8
2
100
AcDbCircle
 10
-244.017777
 20
-58.825482
 30
0.0
 40
10.0
100
AcDbArc
 50
270.0
 51
347.787475
  0
ARC
  5
396
100
AcDbEntity
  8
2
100
AcDbCircle
 10
-345.664223
 20
-22.825482
 30
0.0
 40
114.0
100
AcDbArc
 50
0.0
 51
13.342364
  0
LINE
  5
397
100
AcDbEntity
  8
2
100
AcDbLine
 10
-231.664223
 20
-22.825482
 30
0.0
 11
-231.664223
 21
-36.825482
 31
0.0
  0
ARC
  5
398
100
AcDbEntity
  8
2
100
AcDbCircle
 10
-285.164223
 20
-17.825482
 30
0.0
 40
114.0
100
AcDbArc
 50
169.473381
 51
180.0
  0
ARC
  5
399
100
AcDbEntity
  8
2
100
AcDbCircle
 10
-374.164223
 20
23.174518
 30
0.0
 40
10.0
100
AcDbArc
 50
90.0
 51
169.993627
  0
LINE
  5
39A
100
AcDbEntity
  8
2
100
AcDbLine
 10
-399.164223
 20
-17.825482
 30
0.0
 11
-399.164223
 21
-41.825482
 31
0.0
  0
ARC
  5
39B
100
AcDbEntity
  8
2
100
AcDbCircle
 10
-285.164223
 20
-41.825482
 30
0.0
 40
114.0
100
AcDbArc
 50
180.0
 51
189.407874
  0
ARC
  5
39C
100
AcDbEntity
  8
2
100
AcDbCircle
 10
-387.765393
 20
-58.825482
 30
0.0
 40
10.0
100
AcDbArc
 50
189.407874
 51
270.0
  0
LINE
  5
39D
100
AcDbEntity
  8
2
100
AcDbLine
 10
-387.765393
 20
-68.825482
 30
0.0
 11
-244.017777
 21
-68.825482
 31
0.0
  0
ARC
  5
39E
100
AcDbEntity
  8
2
100
AcDbCircle
 10
-244.471338
 20
1.174518
 30
0.0
 40
10.0
100
AcDbArc
 50
13.342364
 51
90.0
  0
LINE
  5
39F
100
AcDbEntity
  8
2
100
AcDbLine
 10
-387.413918
 20
11.174518
 30
0.0
 11
-244.471338
 21
11.174518
 31
0.0
  0
ARC
  5
3A0
100
AcDbEntity
  8
2
100
AcDbCircle
 10
-387.413918
 20
1.174518
 30
0.0
 40
10.0
100
AcDbArc
 50
90.0
 51
169.473381
  0
LINE
  5
3A1
100
AcDbEntity
  8
2
100
AcDbLine
 10
-215.827203
 20
-48.174477
 30
0.0
 11
-214.62553
 21
-13.763081
 31
0.0
  0
LINE
  5
3A2
100
AcDbEntity
  8
2
100
AcDbLine
 10
-386.435989
 20
11.174518
 30
0.0
 11
-384.012107
 21
24.912095
 31
0.0
  0
LINE
  5
3A3
100
AcDbEntity
  8
2
100
AcDbLine
 10
-374.164223
 20
33.174518
 30
0.0
 11
-214.026978
 21
33.174518
 31
0.0
  0
ARC
  5
3A4
100
AcDbEntity
  8
2
100
AcDbCircle
 10
-214.026978
 20
29.174518
 30
0.0
 40
4.0
100
AcDbArc
 50
2.0
 51
90.0
  0
LINE
  5
3A5
100
AcDbEntity
  8
2
100
AcDbLine
 10
-256.164223
 20
-72.825482
 30
0.0
 11
-256.02454
 21
-68.825482
 31
0.0
  0
LINE
  5
3A6
100
AcDbEntity
  8
2
100
AcDbLine
 10
-334.164223
 20
-72.825482
 30
0.0
 11
-334.303906
 21
-68.825482
 31
0.0
  0
LINE
  5
3A7
100
AcDbEntity
  8
2
100
AcDbLine
 10
-264.164223
 20
-72.825482
 30
0.0
 11
-264.02454
 21
-68.825482
 31
0.0
  0
LINE
  5
3A8
100
AcDbEntity
  8
2
100
AcDbLine
 10
-342.164223
 20
-72.825482
 30
0.0
 11
-342.303906
 21
-68.825482
 31
0.0
  0
LINE
  5
3A9
100
AcDbEntity
  8
2
100
AcDbLine
 10
-210.029415
 20
29.314116
 30
0.0
 11
-208.874532
 21
-3.757379
 31
0.0
  0
ARC
  5
3AA
100
AcDbEntity
  8
2
100
AcDbCircle
 10
-218.868441
 20
-4.106374
 30
0.0
 40
10.0
100
AcDbArc
 50
310.817217
 51
2.000002
  0
ARC
  5
3AB
100
AcDbEntity
  8
2
100
AcDbCircle
 10
-208.932143
 20
-8.825482
 30
0.0
 40
1.0
100
AcDbArc
 50
90.0
 51
154.595261
  0
LINE
  5
3AC
100
AcDbEntity
  8
2
100
AcDbLine
 10
-197.164223
 20
23.174518
 30
0.0
 11
-197.164223
 21
-2.825482
 31
0.0
  0
LINE
  5
3AD
100
AcDbEntity
  8
2
100
AcDbLine
 10
-202.164223
 20
23.174518
 30
0.0
 11
-202.164223
 21
-2.825482
 31
0.0
  0
LINE
  5
3AE
100
AcDbEntity
  8
2
100
AcDbLine
 10
-197.164223
 20
23.174518
 30
0.0
 11
-202.164223
 21
23.174518
 31
0.0
  0
LINE
  5
3AF
100
AcDbEntity
  8
2
100
AcDbLine
 10
-202.164223
 20
19.174518
 30
0.0
 11
-205.164223
 21
19.174518
 31
0.0
  0
ARC
  5
3B0
100
AcDbEntity
  8
2
100
AcDbCircle
 10
-215.36839
 20
16.674518
 30
0.0
 40
18.204167
100
AcDbArc
 50
339.080182
 51
20.919818
  0
LINE
  5
3B1
100
AcDbEntity
  8
2
100
AcDbLine
 10
-197.164223
 20
-2.825482
 30
0.0
 11
-202.164223
 21
-2.825482
 31
0.0
  0
LINE
  5
3B2
100
AcDbEntity
  8
2
100
AcDbLine
 10
-205.164223
 20
1.174518
 30
0.0
 11
-202.164223
 21
1.174518
 31
0.0
  0
ARC
  5
3B3
100
AcDbEntity
  8
2
100
AcDbCircle
 10
-215.36839
 20
3.674518
 30
0.0
 40
18.204167
100
AcDbArc
 50
339.080182
 51
20.919818
  0
LINE
  5
3B4
100
AcDbEntity
  8
2
100
AcDbLine
 10
-198.364223
 20
10.174518
 30
0.0
 11
-202.164223
 21
10.174518
 31
0.0
  0
POLYLINE
  5
3B5
100
AcDbEntity
  8
2
100
AcDb2dPolyline
 66
     1
 10
0.0
 20
0.0
 30
0.0
 70
     1
  0
VERTEX
  5
899
100
AcDbEntity
  8
2
100
AcDbVertex
100
AcDb2dVertex
 10
-202.264223
 20
20.174518
 30
0.0
  0
VERTEX
  5
89A
100
AcDbEntity
  8
2
100
AcDbVertex
100
AcDb2dVertex
 10
-202.292509
 20
20.374518
 30
0.0
  0
VERTEX
  5
89B
100
AcDbEntity
  8
2
100
AcDbVertex
100
AcDb2dVertex
 10
-202.381102
 20
20.574518
 30
0.0
  0
VERTEX
  5
89C
100
AcDbEntity
  8
2
100
AcDbVertex
100
AcDb2dVertex
 10
-202.544223
 20
20.774518
 30
0.0
  0
VERTEX
  5
89D
100
AcDbEntity
  8
2
100
AcDbVertex
100
AcDb2dVertex
 10
-202.824223
 20
20.974518
 30
0.0
  0
VERTEX
  5
89E
100
AcDbEntity
  8
2
100
AcDbVertex
100
AcDb2dVertex
 10
-203.664223
 20
21.174518
 30
0.0
  0
VERTEX
  5
89F
100
AcDbEntity
  8
2
100
AcDbVertex
100
AcDb2dVertex
 10
-204.504223
 20
20.974518
 30
0.0
  0
VERTEX
  5
8A0
100
AcDbEntity
  8
2
100
AcDbVertex
100
AcDb2dVertex
 10
-204.784223
 20
20.774518
 30
0.0
  0
VERTEX
  5
8A1
100
AcDbEntity
  8
2
100
AcDbVertex
100
AcDb2dVertex
 10
-204.947344
 20
20.574518
 30
0.0
  0
VERTEX
  5
8A2
100
AcDbEntity
  8
2
100
AcDbVertex
100
AcDb2dVertex
 10
-205.035937
 20
20.374518
 30
0.0
  0
VERTEX
  5
8A3
100
AcDbEntity
  8
2
100
AcDbVertex
100
AcDb2dVertex
 10
-205.064223
 20
20.174518
 30
0.0
  0
VERTEX
  5
8A4
100
AcDbEntity
  8
2
100
AcDbVertex
100
AcDb2dVertex
 10
-205.035937
 20
19.974518
 30
0.0
  0
VERTEX
  5
8A5
100
AcDbEntity
  8
2
100
AcDbVertex
100
AcDb2dVertex
 10
-204.947344
 20
19.774518
 30
0.0
  0
VERTEX
  5
8A6
100
AcDbEntity
  8
2
100
AcDbVertex
100
AcDb2dVertex
 10
-204.784223
 20
19.574518
 30
0.0
  0
VERTEX
  5
8A7
100
AcDbEntity
  8
2
100
AcDbVertex
100
AcDb2dVertex
 10
-204.504223
 20
19.374518
 30
0.0
  0
VERTEX
  5
8A8
100
AcDbEntity
  8
2
100
AcDbVertex
100
AcDb2dVertex
 10
-203.664223
 20
19.174518
 30
0.0
  0
VERTEX
  5
8A9
100
AcDbEntity
  8
2
100
AcDbVertex
100
AcDb2dVertex
 10
-202.824223
 20
19.374518
 30
0.0
  0
VERTEX
  5
8AA
100
AcDbEntity
  8
2
100
AcDbVertex
100
AcDb2dVertex
 10
-202.544223
 20
19.574518
 30
0.0
  0
VERTEX
  5
8AB
100
AcDbEntity
  8
2
100
AcDbVertex
100
AcDb2dVertex
 10
-202.381102
 20
19.774518
 30
0.0
  0
VERTEX
  5
8AC
100
AcDbEntity
  8
2
100
AcDbVertex
100
AcDb2dVertex
 10
-202.292509
 20
19.974518
 30
0.0
  0
VERTEX
  5
8AD
100
AcDbEntity
  8
2
100
AcDbVertex
100
AcDb2dVertex
 10
-202.264223
 20
20.174518
 30
0.0
  0
SEQEND
  5
8AE
100
AcDbEntity
  8
2
  0
POLYLINE
  5
3CC
100
AcDbEntity
  8
2
100
AcDb2dPolyline
 66
     1
 10
0.0
 20
0.0
 30
0.0
 70
     1
  0
VERTEX
  5
8AF
100
AcDbEntity
  8
2
100
AcDbVertex
100
AcDb2dVertex
 10
-202.264223
 20
0.174518
 30
0.0
  0
VERTEX
  5
8B0
100
AcDbEntity
  8
2
100
AcDbVertex
100
AcDb2dVertex
 10
-202.292509
 20
0.374518
 30
0.0
  0
VERTEX
  5
8B1
100
AcDbEntity
  8
2
100
AcDbVertex
100
AcDb2dVertex
 10
-202.381102
 20
0.574518
 30
0.0
  0
VERTEX
  5
8B2
100
AcDbEntity
  8
2
100
AcDbVertex
100
AcDb2dVertex
 10
-202.544223
 20
0.774518
 30
0.0
  0
VERTEX
  5
8B3
100
AcDbEntity
  8
2
100
AcDbVertex
100
AcDb2dVertex
 10
-202.824223
 20
0.974518
 30
0.0
  0
VERTEX
  5
8B4
100
AcDbEntity
  8
2
100
AcDbVertex
100
AcDb2dVertex
 10
-203.664223
 20
1.174518
 30
0.0
  0
VERTEX
  5
8B5
100
AcDbEntity
  8
2
100
AcDbVertex
100
AcDb2dVertex
 10
-204.504223
 20
0.974518
 30
0.0
  0
VERTEX
  5
8B6
100
AcDbEntity
  8
2
100
AcDbVertex
100
AcDb2dVertex
 10
-204.784223
 20
0.774518
 30
0.0
  0
VERTEX
  5
8B7
100
AcDbEntity
  8
2
100
AcDbVertex
100
AcDb2dVertex
 10
-204.947344
 20
0.574518
 30
0.0
  0
VERTEX
  5
8B8
100
AcDbEntity
  8
2
100
AcDbVertex
100
AcDb2dVertex
 10
-205.035937
 20
0.374518
 30
0.0
  0
VERTEX
  5
8B9
100
AcDbEntity
  8
2
100
AcDbVertex
100
AcDb2dVertex
 10
-205.064223
 20
0.174518
 30
0.0
  0
VERTEX
  5
8BA
100
AcDbEntity
  8
2
100
AcDbVertex
100
AcDb2dVertex
 10
-205.035937
 20
-0.025482
 30
0.0
  0
VERTEX
  5
8BB
100
AcDbEntity
  8
2
100
AcDbVertex
100
AcDb2dVertex
 10
-204.947344
 20
-0.225482
 30
0.0
  0
VERTEX
  5
8BC
100
AcDbEntity
  8
2
100
AcDbVertex
100
AcDb2dVertex
 10
-204.784223
 20
-0.425482
 30
0.0
  0
VERTEX
  5
8BD
100
AcDbEntity
  8
2
100
AcDbVertex
100
AcDb2dVertex
 10
-204.504223
 20
-0.625482
 30
0.0
  0
VERTEX
  5
8BE
100
AcDbEntity
  8
2
100
AcDbVertex
100
AcDb2dVertex
 10
-203.664223
 20
-0.825482
 30
0.0
  0
VERTEX
  5
8BF
100
AcDbEntity
  8
2
100
AcDbVertex
100
AcDb2dVertex
 10
-202.824223
 20
-0.625482
 30
0.0
  0
VERTEX
  5
8C0
100
AcDbEntity
  8
2
100
AcDbVertex
100
AcDb2dVertex
 10
-202.544223
 20
-0.425482
 30
0.0
  0
VERTEX
  5
8C1
100
AcDbEntity
  8
2
100
AcDbVertex
100
AcDb2dVertex
 10
-202.381102
 20
-0.225482
 30
0.0
  0
VERTEX
  5
8C2
100
AcDbEntity
  8
2
100
AcDbVertex
100
AcDb2dVertex
 10
-202.292509
 20
-0.025482
 30
0.0
  0
VERTEX
  5
8C3
100
AcDbEntity
  8
2
100
AcDbVertex
100
AcDb2dVertex
 10
-202.264223
 20
0.174518
 30
0.0
  0
SEQEND
  5
8C4
100
AcDbEntity
  8
2
  0
CIRCLE
  5
3E3
100
AcDbEntity
  8
2
100
AcDbCircle
 10
-385.164223
 20
4.674518
 30
0.0
 40
4.75
  0
LINE
  5
3E4
100
AcDbEntity
  8
2
100
AcDbLine
 10
-382.714223
 20
4.174518
 30
0.0
 11
-382.714223
 21
5.174518
 31
0.0
  0
LINE
  5
3E5
100
AcDbEntity
  8
2
100
AcDbLine
 10
-387.614223
 20
4.174518
 30
0.0
 11
-387.614223
 21
5.174518
 31
0.0
  0
LINE
  5
3E6
100
AcDbEntity
  8
2
100
AcDbLine
 10
-385.664223
 20
7.124518
 30
0.0
 11
-384.664223
 21
7.124518
 31
0.0
  0
LINE
  5
3E7
100
AcDbEntity
  8
2
100
AcDbLine
 10
-384.664223
 20
2.224518
 30
0.0
 11
-384.664223
 21
3.174518
 31
0.0
  0
LINE
  5
3E8
100
AcDbEntity
  8
2
100
AcDbLine
 10
-384.664223
 20
6.174518
 30
0.0
 11
-384.664223
 21
7.124518
 31
0.0
  0
LINE
  5
3E9
100
AcDbEntity
  8
2
100
AcDbLine
 10
-387.614223
 20
4.174518
 30
0.0
 11
-386.664223
 21
4.174518
 31
0.0
  0
LINE
  5
3EA
100
AcDbEntity
  8
2
100
AcDbLine
 10
-383.664223
 20
4.174518
 30
0.0
 11
-382.714223
 21
4.174518
 31
0.0
  0
LINE
  5
3EB
100
AcDbEntity
  8
2
100
AcDbLine
 10
-385.664223
 20
2.224518
 30
0.0
 11
-385.664223
 21
3.174518
 31
0.0
  0
LINE
  5
3EC
100
AcDbEntity
  8
2
100
AcDbLine
 10
-385.664223
 20
6.174518
 30
0.0
 11
-385.664223
 21
7.124518
 31
0.0
  0
LINE
  5
3ED
100
AcDbEntity
  8
2
100
AcDbLine
 10
-387.614223
 20
5.174518
 30
0.0
 11
-386.664223
 21
5.174518
 31
0.0
  0
LINE
  5
3EE
100
AcDbEntity
  8
2
100
AcDbLine
 10
-383.664223
 20
5.174518
 30
0.0
 11
-382.714223
 21
5.174518
 31
0.0
  0
ARC
  5
3EF
100
AcDbEntity
  8
2
100
AcDbCircle
 10
-383.664223
 20
6.174518
 30
0.0
 40
1.0
100
AcDbArc
 50
180.0
 51
270.0
  0
ARC
  5
3F0
100
AcDbEntity
  8
2
100
AcDbCircle
 10
-386.664223
 20
6.174518
 30
0.0
 40
1.0
100
AcDbArc
 50
270.0
 51
0.0
  0
ARC
  5
3F1
100
AcDbEntity
  8
2
100
AcDbCircle
 10
-386.664223
 20
3.174518
 30
0.0
 40
1.0
100
AcDbArc
 50
0.0
 51
90.0
  0
ARC
  5
3F2
100
AcDbEntity
  8
2
100
AcDbCircle
 10
-383.664223
 20
3.174518
 30
0.0
 40
1.0
100
AcDbArc
 50
90.0
 51
180.0
  0
LINE
  5
3F3
100
AcDbEntity
  8
2
100
AcDbLine
 10
-385.664223
 20
2.224518
 30
0.0
 11
-384.664223
 21
2.224518
 31
0.0
  0
CIRCLE
  5
3F4
100
AcDbEntity
  8
2
100
AcDbCircle
 10
-387.164223
 20
-61.825482
 30
0.0
 40
4.75
  0
LINE
  5
3F5
100
AcDbEntity
  8
2
100
AcDbLine
 10
-384.714223
 20
-62.325482
 30
0.0
 11
-384.714223
 21
-61.325482
 31
0.0
  0
LINE
  5
3F6
100
AcDbEntity
  8
2
100
AcDbLine
 10
-389.614223
 20
-62.325482
 30
0.0
 11
-389.614223
 21
-61.325482
 31
0.0
  0
LINE
  5
3F7
100
AcDbEntity
  8
2
100
AcDbLine
 10
-387.664223
 20
-59.375482
 30
0.0
 11
-386.664223
 21
-59.375482
 31
0.0
  0
LINE
  5
3F8
100
AcDbEntity
  8
2
100
AcDbLine
 10
-386.664223
 20
-64.275482
 30
0.0
 11
-386.664223
 21
-63.325482
 31
0.0
  0
LINE
  5
3F9
100
AcDbEntity
  8
2
100
AcDbLine
 10
-386.664223
 20
-60.325482
 30
0.0
 11
-386.664223
 21
-59.375482
 31
0.0
  0
LINE
  5
3FA
100
AcDbEntity
  8
2
100
AcDbLine
 10
-389.614223
 20
-62.325482
 30
0.0
 11
-388.664223
 21
-62.325482
 31
0.0
  0
LINE
  5
3FB
100
AcDbEntity
  8
2
100
AcDbLine
 10
-385.664223
 20
-62.325482
 30
0.0
 11
-384.714223
 21
-62.325482
 31
0.0
  0
LINE
  5
3FC
100
AcDbEntity
  8
2
100
AcDbLine
 10
-387.664223
 20
-64.275482
 30
0.0
 11
-387.664223
 21
-63.325482
 31
0.0
  0
LINE
  5
3FD
100
AcDbEntity
  8
2
100
AcDbLine
 10
-387.664223
 20
-60.325482
 30
0.0
 11
-387.664223
 21
-59.375482
 31
0.0
  0
LINE
  5
3FE
100
AcDbEntity
  8
2
100
AcDbLine
 10
-389.614223
 20
-61.325482
 30
0.0
 11
-388.664223
 21
-61.325482
 31
0.0
  0
LINE
  5
3FF
100
AcDbEntity
  8
2
100
AcDbLine
 10
-385.664223
 20
-61.325482
 30
0.0
 11
-384.714223
 21
-61.325482
 31
0.0
  0
ARC
  5
400
100
AcDbEntity
  8
2
100
AcDbCircle
 10
-385.664223
 20
-60.325482
 30
0.0
 40
1.0
100
AcDbArc
 50
180.0
 51
270.0
  0
ARC
  5
401
100
AcDbEntity
  8
2
100
AcDbCircle
 10
-388.664223
 20
-60.325482
 30
0.0
 40
1.0
100
AcDbArc
 50
270.0
 51
0.0
  0
ARC
  5
402
100
AcDbEntity
  8
2
100
AcDbCircle
 10
-388.664223
 20
-63.325482
 30
0.0
 40
1.0
100
AcDbArc
 50
0.0
 51
90.0
  0
ARC
  5
403
100
AcDbEntity
  8
2
100
AcDbCircle
 10
-385.664223
 20
-63.325482
 30
0.0
 40
1.0
100
AcDbArc
 50
90.0
 51
180.0
  0
LINE
  5
404
100
AcDbEntity
  8
2
100
AcDbLine
 10
-387.664223
 20
-64.275482
 30
0.0
 11
-386.664223
 21
-64.275482
 31
0.0
  0
CIRCLE
  5
405
100
AcDbEntity
  8
2
100
AcDbCircle
 10
-327.664223
 20
-63.825482
 30
0.0
 40
4.75
  0
LINE
  5
406
100
AcDbEntity
  8
2
100
AcDbLine
 10
-325.214223
 20
-64.325482
 30
0.0
 11
-325.214223
 21
-63.325482
 31
0.0
  0
LINE
  5
407
100
AcDbEntity
  8
2
100
AcDbLine
 10
-330.114223
 20
-64.325482
 30
0.0
 11
-330.114223
 21
-63.325482
 31
0.0
  0
LINE
  5
408
100
AcDbEntity
  8
2
100
AcDbLine
 10
-328.164223
 20
-61.375482
 30
0.0
 11
-327.164223
 21
-61.375482
 31
0.0
  0
LINE
  5
409
100
AcDbEntity
  8
2
100
AcDbLine
 10
-327.164223
 20
-66.275482
 30
0.0
 11
-327.164223
 21
-65.325482
 31
0.0
  0
LINE
  5
40A
100
AcDbEntity
  8
2
100
AcDbLine
 10
-327.164223
 20
-62.325482
 30
0.0
 11
-327.164223
 21
-61.375482
 31
0.0
  0
LINE
  5
40B
100
AcDbEntity
  8
2
100
AcDbLine
 10
-330.114223
 20
-64.325482
 30
0.0
 11
-329.164223
 21
-64.325482
 31
0.0
  0
LINE
  5
40C
100
AcDbEntity
  8
2
100
AcDbLine
 10
-326.164223
 20
-64.325482
 30
0.0
 11
-325.214223
 21
-64.325482
 31
0.0
  0
LINE
  5
40D
100
AcDbEntity
  8
2
100
AcDbLine
 10
-328.164223
 20
-66.275482
 30
0.0
 11
-328.164223
 21
-65.325482
 31
0.0
  0
LINE
  5
40E
100
AcDbEntity
  8
2
100
AcDbLine
 10
-328.164223
 20
-62.325482
 30
0.0
 11
-328.164223
 21
-61.375482
 31
0.0
  0
LINE
  5
40F
100
AcDbEntity
  8
2
100
AcDbLine
 10
-330.114223
 20
-63.325482
 30
0.0
 11
-329.164223
 21
-63.325482
 31
0.0
  0
LINE
  5
410
100
AcDbEntity
  8
2
100
AcDbLine
 10
-326.164223
 20
-63.325482
 30
0.0
 11
-325.214223
 21
-63.325482
 31
0.0
  0
ARC
  5
411
100
AcDbEntity
  8
2
100
AcDbCircle
 10
-326.164223
 20
-62.325482
 30
0.0
 40
1.0
100
AcDbArc
 50
180.0
 51
270.0
  0
ARC
  5
412
100
AcDbEntity
  8
2
100
AcDbCircle
 10
-329.164223
 20
-62.325482
 30
0.0
 40
1.0
100
AcDbArc
 50
270.0
 51
0.0
  0
ARC
  5
413
100
AcDbEntity
  8
2
100
AcDbCircle
 10
-329.164223
 20
-65.325482
 30
0.0
 40
1.0
100
AcDbArc
 50
0.0
 51
90.0
  0
ARC
  5
414
100
AcDbEntity
  8
2
100
AcDbCircle
 10
-326.164223
 20
-65.325482
 30
0.0
 40
1.0
100
AcDbArc
 50
90.0
 51
180.0
  0
LINE
  5
415
100
AcDbEntity
  8
2
100
AcDbLine
 10
-328.164223
 20
-66.275482
 30
0.0
 11
-327.164223
 21
-66.275482
 31
0.0
  0
CIRCLE
  5
416
100
AcDbEntity
  8
2
100
AcDbCircle
 10
-244.164223
 20
-61.825482
 30
0.0
 40
4.75
  0
LINE
  5
417
100
AcDbEntity
  8
2
100
AcDbLine
 10
-241.714223
 20
-62.325482
 30
0.0
 11
-241.714223
 21
-61.325482
 31
0.0
  0
LINE
  5
418
100
AcDbEntity
  8
2
100
AcDbLine
 10
-246.614223
 20
-62.325482
 30
0.0
 11
-246.614223
 21
-61.325482
 31
0.0
  0
LINE
  5
419
100
AcDbEntity
  8
2
100
AcDbLine
 10
-244.664223
 20
-59.375482
 30
0.0
 11
-243.664223
 21
-59.375482
 31
0.0
  0
LINE
  5
41A
100
AcDbEntity
  8
2
100
AcDbLine
 10
-243.664223
 20
-64.275482
 30
0.0
 11
-243.664223
 21
-63.325482
 31
0.0
  0
LINE
  5
41B
100
AcDbEntity
  8
2
100
AcDbLine
 10
-243.664223
 20
-60.325482
 30
0.0
 11
-243.664223
 21
-59.375482
 31
0.0
  0
LINE
  5
41C
100
AcDbEntity
  8
2
100
AcDbLine
 10
-246.614223
 20
-62.325482
 30
0.0
 11
-245.664223
 21
-62.325482
 31
0.0
  0
LINE
  5
41D
100
AcDbEntity
  8
2
100
AcDbLine
 10
-242.664223
 20
-62.325482
 30
0.0
 11
-241.714223
 21
-62.325482
 31
0.0
  0
LINE
  5
41E
100
AcDbEntity
  8
2
100
AcDbLine
 10
-244.664223
 20
-64.275482
 30
0.0
 11
-244.664223
 21
-63.325482
 31
0.0
  0
LINE
  5
41F
100
AcDbEntity
  8
2
100
AcDbLine
 10
-244.664223
 20
-60.325482
 30
0.0
 11
-244.664223
 21
-59.375482
 31
0.0
  0
LINE
  5
420
100
AcDbEntity
  8
2
100
AcDbLine
 10
-246.614223
 20
-61.325482
 30
0.0
 11
-245.664223
 21
-61.325482
 31
0.0
  0
LINE
  5
421
100
AcDbEntity
  8
2
100
AcDbLine
 10
-242.664223
 20
-61.325482
 30
0.0
 11
-241.714223
 21
-61.325482
 31
0.0
  0
ARC
  5
422
100
AcDbEntity
  8
2
100
AcDbCircle
 10
-242.664223
 20
-60.325482
 30
0.0
 40
1.0
100
AcDbArc
 50
180.0
 51
270.0
  0
ARC
  5
423
100
AcDbEntity
  8
2
100
AcDbCircle
 10
-245.664223
 20
-60.325482
 30
0.0
 40
1.0
100
AcDbArc
 50
270.0
 51
0.0
  0
ARC
  5
424
100
AcDbEntity
  8
2
100
AcDbCircle
 10
-245.664223
 20
-63.325482
 30
0.0
 40
1.0
100
AcDbArc
 50
0.0
 51
90.0
  0
ARC
  5
425
100
AcDbEntity
  8
2
100
AcDbCircle
 10
-242.664223
 20
-63.325482
 30
0.0
 40
1.0
100
AcDbArc
 50
90.0
 51
180.0
  0
LINE
  5
426
100
AcDbEntity
  8
2
100
AcDbLine
 10
-244.664223
 20
-64.275482
 30
0.0
 11
-243.664223
 21
-64.275482
 31
0.0
  0
CIRCLE
  5
427
100
AcDbEntity
  8
2
100
AcDbCircle
 10
-246.164223
 20
4.674518
 30
0.0
 40
4.75
  0
LINE
  5
428
100
AcDbEntity
  8
2
100
AcDbLine
 10
-243.714223
 20
4.174518
 30
0.0
 11
-243.714223
 21
5.174518
 31
0.0
  0
LINE
  5
429
100
AcDbEntity
  8
2
100
AcDbLine
 10
-248.614223
 20
4.174518
 30
0.0
 11
-248.614223
 21
5.174518
 31
0.0
  0
LINE
  5
42A
100
AcDbEntity
  8
2
100
AcDbLine
 10
-246.664223
 20
7.124518
 30
0.0
 11
-245.664223
 21
7.124518
 31
0.0
  0
LINE
  5
42B
100
AcDbEntity
  8
2
100
AcDbLine
 10
-245.664223
 20
2.224518
 30
0.0
 11
-245.664223
 21
3.174518
 31
0.0
  0
LINE
  5
42C
100
AcDbEntity
  8
2
100
AcDbLine
 10
-245.664223
 20
6.174518
 30
0.0
 11
-245.664223
 21
7.124518
 31
0.0
  0
LINE
  5
42D
100
AcDbEntity
  8
2
100
AcDbLine
 10
-248.614223
 20
4.174518
 30
0.0
 11
-247.664223
 21
4.174518
 31
0.0
  0
LINE
  5
42E
100
AcDbEntity
  8
2
100
AcDbLine
 10
-244.664223
 20
4.174518
 30
0.0
 11
-243.714223
 21
4.174518
 31
0.0
  0
LINE
  5
42F
100
AcDbEntity
  8
2
100
AcDbLine
 10
-246.664223
 20
2.224518
 30
0.0
 11
-246.664223
 21
3.174518
 31
0.0
  0
LINE
  5
430
100
AcDbEntity
  8
2
100
AcDbLine
 10
-246.664223
 20
6.174518
 30
0.0
 11
-246.664223
 21
7.124518
 31
0.0
  0
LINE
  5
431
100
AcDbEntity
  8
2
100
AcDbLine
 10
-248.614223
 20
5.174518
 30
0.0
 11
-247.664223
 21
5.174518
 31
0.0
  0
LINE
  5
432
100
AcDbEntity
  8
2
100
AcDbLine
 10
-244.664223
 20
5.174518
 30
0.0
 11
-243.714223
 21
5.174518
 31
0.0
  0
ARC
  5
433
100
AcDbEntity
  8
2
100
AcDbCircle
 10
-244.664223
 20
6.174518
 30
0.0
 40
1.0
100
AcDbArc
 50
180.0
 51
270.0
  0
ARC
  5
434
100
AcDbEntity
  8
2
100
AcDbCircle
 10
-247.664223
 20
6.174518
 30
0.0
 40
1.0
100
AcDbArc
 50
270.0
 51
0.0
  0
ARC
  5
435
100
AcDbEntity
  8
2
100
AcDbCircle
 10
-247.664223
 20
3.174518
 30
0.0
 40
1.0
100
AcDbArc
 50
0.0
 51
90.0
  0
ARC
  5
436
100
AcDbEntity
  8
2
100
AcDbCircle
 10
-244.664223
 20
3.174518
 30
0.0
 40
1.0
100
AcDbArc
 50
90.0
 51
180.0
  0
LINE
  5
437
100
AcDbEntity
  8
2
100
AcDbLine
 10
-246.664223
 20
2.224518
 30
0.0
 11
-245.664223
 21
2.224518
 31
0.0
  0
CIRCLE
  5
438
100
AcDbEntity
  8
2
100
AcDbCircle
 10
-327.664223
 20
4.174518
 30
0.0
 40
4.75
  0
LINE
  5
439
100
AcDbEntity
  8
2
100
AcDbLine
 10
-325.214223
 20
3.674518
 30
0.0
 11
-325.214223
 21
4.674518
 31
0.0
  0
LINE
  5
43A
100
AcDbEntity
  8
2
100
AcDbLine
 10
-330.114223
 20
3.674518
 30
0.0
 11
-330.114223
 21
4.674518
 31
0.0
  0
LINE
  5
43B
100
AcDbEntity
  8
2
100
AcDbLine
 10
-328.164223
 20
6.624518
 30
0.0
 11
-327.164223
 21
6.624518
 31
0.0
  0
LINE
  5
43C
100
AcDbEntity
  8
2
100
AcDbLine
 10
-327.164223
 20
1.724518
 30
0.0
 11
-327.164223
 21
2.674518
 31
0.0
  0
LINE
  5
43D
100
AcDbEntity
  8
2
100
AcDbLine
 10
-327.164223
 20
5.674518
 30
0.0
 11
-327.164223
 21
6.624518
 31
0.0
  0
LINE
  5
43E
100
AcDbEntity
  8
2
100
AcDbLine
 10
-330.114223
 20
3.674518
 30
0.0
 11
-329.164223
 21
3.674518
 31
0.0
  0
LINE
  5
43F
100
AcDbEntity
  8
2
100
AcDbLine
 10
-326.164223
 20
3.674518
 30
0.0
 11
-325.214223
 21
3.674518
 31
0.0
  0
LINE
  5
440
100
AcDbEntity
  8
2
100
AcDbLine
 10
-328.164223
 20
1.724518
 30
0.0
 11
-328.164223
 21
2.674518
 31
0.0
  0
LINE
  5
441
100
AcDbEntity
  8
2
100
AcDbLine
 10
-328.164223
 20
5.674518
 30
0.0
 11
-328.164223
 21
6.624518
 31
0.0
  0
LINE
  5
442
100
AcDbEntity
  8
2
100
AcDbLine
 10
-330.114223
 20
4.674518
 30
0.0
 11
-329.164223
 21
4.674518
 31
0.0
  0
LINE
  5
443
100
AcDbEntity
  8
2
100
AcDbLine
 10
-326.164223
 20
4.674518
 30
0.0
 11
-325.214223
 21
4.674518
 31
0.0
  0
ARC
  5
444
100
AcDbEntity
  8
2
100
AcDbCircle
 10
-326.164223
 20
5.674518
 30
0.0
 40
1.0
100
AcDbArc
 50
180.0
 51
270.0
  0
ARC
  5
445
100
AcDbEntity
  8
2
100
AcDbCircle
 10
-329.164223
 20
5.674518
 30
0.0
 40
1.0
100
AcDbArc
 50
270.0
 51
0.0
  0
ARC
  5
446
100
AcDbEntity
  8
2
100
AcDbCircle
 10
-329.164223
 20
2.674518
 30
0.0
 40
1.0
100
AcDbArc
 50
0.0
 51
90.0
  0
ARC
  5
447
100
AcDbEntity
  8
2
100
AcDbCircle
 10
-326.164223
 20
2.674518
 30
0.0
 40
1.0
100
AcDbArc
 50
90.0
 51
180.0
  0
LINE
  5
448
100
AcDbEntity
  8
2
100
AcDbLine
 10
-328.164223
 20
1.724518
 30
0.0
 11
-327.164223
 21
1.724518
 31
0.0
  0
LINE
  5
449
100
AcDbEntity
  8
2
100
AcDbLine
 10
-269.247599
 20
-27.325482
 30
0.0
 11
-272.080848
 21
-27.325482
 31
0.0
  0
LINE
  5
44A
100
AcDbEntity
  8
2
100
AcDbLine
 10
-269.247599
 20
-32.325482
 30
0.0
 11
-272.080848
 21
-32.325482
 31
0.0
  0
LINE
  5
44B
100
AcDbEntity
  8
2
100
AcDbLine
 10
-273.524223
 20
-29.825482
 30
0.0
 11
-272.080848
 21
-27.325482
 31
0.0
  0
LINE
  5
44C
100
AcDbEntity
  8
2
100
AcDbLine
 10
-273.524223
 20
-29.825482
 30
0.0
 11
-272.080848
 21
-32.325482
 31
0.0
  0
LINE
  5
44D
100
AcDbEntity
  8
2
100
AcDbLine
 10
-267.804223
 20
-29.825482
 30
0.0
 11
-269.247599
 21
-27.325482
 31
0.0
  0
LINE
  5
44E
100
AcDbEntity
  8
2
100
AcDbLine
 10
-267.804223
 20
-29.825482
 30
0.0
 11
-269.247599
 21
-32.325482
 31
0.0
  0
CIRCLE
  5
44F
100
AcDbEntity
  8
2
100
AcDbCircle
 10
-270.664223
 20
-29.825482
 30
0.0
 40
12.5
  0
CIRCLE
  5
450
100
AcDbEntity
  8
2
100
AcDbCircle
 10
-270.664223
 20
-29.825482
 30
0.0
 40
12.2
  0
LINE
  5
451
100
AcDbEntity
  8
2
100
AcDbLine
 10
-317.164223
 20
-20.825482
 30
0.0
 11
-317.164223
 21
-15.825482
 31
0.0
  0
LINE
  5
452
100
AcDbEntity
  8
2
100
AcDbLine
 10
-337.164223
 20
-15.825482
 30
0.0
 11
-337.164223
 21
-30.825482
 31
0.0
  0
LINE
  5
453
100
AcDbEntity
  8
2
100
AcDbLine
 10
-327.164223
 20
-15.825482
 30
0.0
 11
-327.164223
 21
-45.825482
 31
0.0
  0
LINE
  5
454
100
AcDbEntity
  8
2
100
AcDbLine
 10
-337.164223
 20
-20.825482
 30
0.0
 11
-317.164223
 21
-20.825482
 31
0.0
  0
LINE
  5
455
100
AcDbEntity
  8
2
100
AcDbLine
 10
-327.164223
 20
-15.825482
 30
0.0
 11
-337.164223
 21
-20.825482
 31
0.0
  0
LINE
  5
456
100
AcDbEntity
  8
2
100
AcDbLine
 10
-337.164223
 20
-15.825482
 30
0.0
 11
-307.164223
 21
-15.825482
 31
0.0
  0
LINE
  5
457
100
AcDbEntity
  8
2
100
AcDbLine
 10
-317.164223
 20
-45.825482
 30
0.0
 11
-317.164223
 21
-25.825482
 31
0.0
  0
LINE
  5
458
100
AcDbEntity
  8
2
100
AcDbLine
 10
-327.164223
 20
-45.825482
 30
0.0
 11
-317.164223
 21
-45.825482
 31
0.0
  0
LINE
  5
459
100
AcDbEntity
  8
2
100
AcDbLine
 10
-337.164223
 20
-30.825482
 30
0.0
 11
-307.164223
 21
-15.825482
 31
0.0
  0
LINE
  5
45A
100
AcDbEntity
  8
2
100
AcDbLine
 10
-337.164223
 20
-25.825482
 30
0.0
 11
-317.164223
 21
-25.825482
 31
0.0
  0
LINE
  5
45B
100
AcDbEntity
  8
2
100
AcDbLine
 10
-317.164223
 20
-15.825482
 30
0.0
 11
-337.164223
 21
-25.825482
 31
0.0
  0
ARC
  5
45C
100
AcDbEntity
  8
2
100
AcDbCircle
 10
-272.164223
 20
-29.825482
 30
0.0
 40
83.0
100
AcDbArc
 50
176.553145
 51
183.446855
  0
ARC
  5
45D
100
AcDbEntity
  8
2
 62
     2
100
AcDbCircle
 10
-329.164223
 20
-27.625482
 30
0.0
 40
32.187
100
AcDbArc
 50
101.806726
 51
173.839455
  0
ARC
  5
45E
100
AcDbEntity
  8
2
100
AcDbCircle
 10
-329.164223
 20
-27.625482
 30
0.0
 40
26.0
100
AcDbArc
 50
94.86353
 51
173.839455
  0
ARC
  5
45F
100
AcDbEntity
  8
2
100
AcDbCircle
 10
-329.164223
 20
-32.025482
 30
0.0
 40
26.0
100
AcDbArc
 50
186.160545
 51
265.13647
  0
ARC
  5
460
100
AcDbEntity
  8
2
 62
     2
100
AcDbCircle
 10
-396.664223
 20
-29.825482
 30
0.0
 40
162.47
100
AcDbArc
 50
359.375245
 51
0.624755
  0
ARC
  5
461
100
AcDbEntity
  8
2
 62
     2
100
AcDbCircle
 10
-329.164223
 20
-32.025482
 30
0.0
 40
32.187
100
AcDbArc
 50
186.160545
 51
258.193274
  0
ARC
  5
462
100
AcDbEntity
  8
2
 62
     2
100
AcDbCircle
 10
-272.164223
 20
-29.825482
 30
0.0
 40
89.187
100
AcDbArc
 50
176.553145
 51
183.446855
  0
ARC
  5
463
100
AcDbEntity
  8
2
 62
     2
100
AcDbCircle
 10
-266.664223
 20
-32.325482
 30
0.0
 40
32.47
100
AcDbArc
 50
269.465549
 51
299.701491
  0
ARC
  5
464
100
AcDbEntity
  8
2
 62
     2
100
AcDbCircle
 10
-266.664223
 20
-32.325482
 30
0.0
 40
32.47
100
AcDbArc
 50
314.964901
 51
1.442841
  0
ARC
  5
465
100
AcDbEntity
  8
2
 62
     2
100
AcDbCircle
 10
-244.164223
 20
-61.825482
 30
0.0
 40
6.0
100
AcDbArc
 50
96.94736
 51
157.719031
  0
ARC
  5
466
100
AcDbEntity
  8
2
 62
     2
100
AcDbCircle
 10
-246.164223
 20
4.674518
 30
0.0
 40
6.0
100
AcDbArc
 50
216.425439
 51
254.880724
  0
ARC
  5
467
100
AcDbEntity
  8
2
 62
     2
100
AcDbCircle
 10
-266.664223
 20
-27.325482
 30
0.0
 40
32.47
100
AcDbArc
 50
358.557159
 51
52.8207
  0
ARC
  5
468
100
AcDbEntity
  8
2
 62
     2
100
AcDbCircle
 10
-266.664223
 20
-27.325482
 30
0.0
 40
32.47
100
AcDbArc
 50
61.140224
 51
90.534451
  0
ARC
  5
469
100
AcDbEntity
  8
2
 62
     2
100
AcDbCircle
 10
-335.340814
 20
1.922863
 30
0.0
 40
2.0
100
AcDbArc
 50
16.347175
 51
101.806726
  0
ARC
  5
46A
100
AcDbEntity
  8
2
 62
     2
100
AcDbCircle
 10
-335.340814
 20
-61.573827
 30
0.0
 40
2.0
100
AcDbArc
 50
258.193274
 51
343.652825
  0
ARC
  5
46B
100
AcDbEntity
  8
2
 62
     2
100
AcDbCircle
 10
-251.566909
 20
-58.792292
 30
0.0
 40
2.0
100
AcDbArc
 50
299.701491
 51
337.719031
  0
ARC
  5
46C
100
AcDbEntity
  8
2
 62
     2
100
AcDbCircle
 10
-245.131882
 20
-53.884221
 30
0.0
 40
2.0
100
AcDbArc
 50
276.94736
 51
314.964901
  0
ARC
  5
46D
100
AcDbEntity
  8
2
 62
     2
100
AcDbCircle
 10
-248.250858
 20
-3.048562
 30
0.0
 40
2.0
100
AcDbArc
 50
52.8207
 51
74.880724
  0
LINE
  5
46E
100
AcDbEntity
  8
2
100
AcDbLine
 10
-387.413918
 20
11.174518
 30
0.0
 11
-244.471338
 21
11.174518
 31
0.0
  0
ARC
  5
46F
100
AcDbEntity
  8
2
100
AcDbCircle
 10
-387.413918
 20
1.174518
 30
0.0
 40
10.0
100
AcDbArc
 50
90.0
 51
169.473381
  0
ARC
  5
470
100
AcDbEntity
  8
2
100
AcDbCircle
 10
-244.471338
 20
1.174518
 30
0.0
 40
10.0
100
AcDbArc
 50
13.342364
 51
90.0
  0
ARC
  5
471
100
AcDbEntity
  8
2
100
AcDbCircle
 10
-345.664223
 20
-22.825482
 30
0.0
 40
114.0
100
AcDbArc
 50
0.0
 51
13.342364
  0
LINE
  5
472
100
AcDbEntity
  8
2
100
AcDbLine
 10
-387.765393
 20
-68.825482
 30
0.0
 11
-244.017777
 21
-68.825482
 31
0.0
  0
ARC
  5
473
100
AcDbEntity
  8
2
100
AcDbCircle
 10
-244.017777
 20
-58.825482
 30
0.0
 40
10.0
100
AcDbArc
 50
270.0
 51
347.787475
  0
ARC
  5
474
100
AcDbEntity
  8
2
100
AcDbCircle
 10
-345.664223
 20
-36.825482
 30
0.0
 40
114.0
100
AcDbArc
 50
347.787475
 51
360.0
  0
LINE
  5
475
100
AcDbEntity
  8
2
100
AcDbLine
 10
-231.664223
 20
-22.825482
 30
0.0
 11
-231.664223
 21
-36.825482
 31
0.0
  0
ARC
  5
476
100
AcDbEntity
  8
2
100
AcDbCircle
 10
-285.164223
 20
-17.825482
 30
0.0
 40
114.0
100
AcDbArc
 50
169.473381
 51
180.0
  0
LINE
  5
477
100
AcDbEntity
  8
2
100
AcDbLine
 10
-399.164223
 20
-17.825482
 30
0.0
 11
-399.164223
 21
-41.825482
 31
0.0
  0
ARC
  5
478
100
AcDbEntity
  8
2
100
AcDbCircle
 10
-285.164223
 20
-41.825482
 30
0.0
 40
114.0
100
AcDbArc
 50
180.0
 51
189.407874
  0
ARC
  5
479
100
AcDbEntity
  8
2
100
AcDbCircle
 10
-387.765393
 20
-58.825482
 30
0.0
 40
10.0
100
AcDbArc
 50
189.407874
 51
270.0
  0
LINE
  5
47A
100
AcDbEntity
  8
2
 62
     2
100
AcDbLine
 10
-266.967097
 20
5.143105
 30
0.0
 11
-319.829466
 21
4.649994
 31
0.0
  0
LINE
  5
47B
100
AcDbEntity
  8
2
 62
     2
100
AcDbLine
 10
-266.967097
 20
-64.79407
 30
0.0
 11
-319.829466
 21
-64.300959
 31
0.0
  0
ARC
  5
47C
100
AcDbEntity
  8
2
 62
     2
100
AcDbCircle
 10
-319.81081
 20
2.650081
 30
0.0
 40
2.0
100
AcDbArc
 50
90.534451
 51
169.014853
  0
ARC
  5
47D
100
AcDbEntity
  8
2
 62
     2
100
AcDbCircle
 10
-319.81081
 20
-62.301046
 30
0.0
 40
2.0
100
AcDbArc
 50
190.985147
 51
269.465549
  0
ARC
  5
47E
100
AcDbEntity
  8
2
 62
     2
100
AcDbCircle
 10
-327.664223
 20
4.174518
 30
0.0
 40
6.0
100
AcDbArc
 50
196.347175
 51
252.742145
  0
ARC
  5
47F
100
AcDbEntity
  8
2
 62
     2
100
AcDbCircle
 10
-327.664223
 20
4.174518
 30
0.0
 40
6.0
100
AcDbArc
 50
296.984916
 51
349.014853
  0
ARC
  5
480
100
AcDbEntity
  8
2
 62
     2
100
AcDbCircle
 10
-327.664223
 20
-63.825482
 30
0.0
 40
6.0
100
AcDbArc
 50
10.985147
 51
63.015084
  0
ARC
  5
481
100
AcDbEntity
  8
2
 62
     2
100
AcDbCircle
 10
-327.664223
 20
-63.825482
 30
0.0
 40
6.0
100
AcDbArc
 50
107.257855
 51
163.652825
  0
CIRCLE
  5
482
100
AcDbEntity
  8
2
100
AcDbCircle
 10
-270.664223
 20
-29.825482
 30
0.0
 40
12.5
  0
LINE
  5
483
100
AcDbEntity
  8
2
100
AcDbLine
 10
-269.292487
 20
-63.213866
 30
0.0
 11
-331.368574
 21
-57.931868
 31
0.0
  0
LINE
  5
484
100
AcDbEntity
  8
2
100
AcDbLine
 10
-269.292487
 20
3.562901
 30
0.0
 11
-331.368574
 21
-1.719096
 31
0.0
  0
ARC
  5
485
100
AcDbEntity
  8
2
100
AcDbCircle
 10
-266.664223
 20
-27.325482
 30
0.0
 40
31.0
100
AcDbArc
 50
3.61268
 51
94.86353
  0
ARC
  5
486
100
AcDbEntity
  8
2
100
AcDbCircle
 10
-396.664223
 20
-29.825482
 30
0.0
 40
161.0
100
AcDbArc
 50
358.414964
 51
1.585036
  0
ARC
  5
487
100
AcDbEntity
  8
2
100
AcDbCircle
 10
-266.664223
 20
-32.325482
 30
0.0
 40
31.0
100
AcDbArc
 50
265.13647
 51
356.38732
  0
ARC
  5
488
100
AcDbEntity
  8
2
100
AcDbCircle
 10
-270.164223
 20
-29.825482
 30
0.0
 40
15.0
100
AcDbArc
 50
23.267823
 51
154.780192
  0
LINE
  5
489
100
AcDbEntity
  8
2
100
AcDbLine
 10
-283.73442
 20
-23.434101
 30
0.0
 11
-288.25268
 21
-20.825482
 31
0.0
  0
LINE
  5
48A
100
AcDbEntity
  8
2
100
AcDbLine
 10
-257.946288
 20
-24.468592
 30
0.0
 11
-254.187517
 21
-23.100511
 31
0.0
  0
ARC
  5
48B
100
AcDbEntity
  8
2
100
AcDbCircle
 10
-272.664223
 20
-29.825482
 30
0.0
 40
18.0
100
AcDbArc
 50
20.0
 51
150.0
  0
LINE
  5
48C
100
AcDbEntity
  8
2
100
AcDbLine
 10
-254.187517
 20
-23.100511
 30
0.0
 11
-254.664223
 21
-29.825482
 31
0.0
  0
LINE
  5
48D
100
AcDbEntity
  8
2
100
AcDbLine
 10
-254.664223
 20
-29.825482
 30
0.0
 11
-257.946288
 21
-24.468592
 31
0.0
  0
TEXT
  5
48E
100
AcDbEntity
  8
2
100
AcDbText
 10
-259.179661
 20
-36.793727
 30
0.0
 40
6.0
  1
Ｓ
 41
1.4
 72
     5
 11
-252.459661
 21
-36.793727
 31
0.0
100
AcDbText
  0
LINE
  5
48F
100
AcDbEntity
  8
2
  6
CENTER
 62
     2
100
AcDbLine
 10
-270.664223
 20
-72.243087
 30
0.0
 11
-270.664223
 21
19.008759
 31
0.0
  0
LINE
  5
490
100
AcDbEntity
  8
2
  6
CENTER
 62
     2
100
AcDbLine
 10
-223.805697
 20
10.174518
 30
0.0
 11
-186.949164
 21
10.174518
 31
0.0
  0
LINE
  5
491
100
AcDbEntity
  8
2
  6
CENTER
 62
     2
100
AcDbLine
 10
-385.164223
 20
-4.075482
 30
0.0
 11
-385.164223
 21
13.424518
 31
0.0
  0
LINE
  5
492
100
AcDbEntity
  8
2
  6
CENTER
 62
     2
100
AcDbLine
 10
-387.164223
 20
-53.075482
 30
0.0
 11
-387.164223
 21
-70.575482
 31
0.0
  0
LINE
  5
493
100
AcDbEntity
  8
2
  6
CENTER
 62
     2
100
AcDbLine
 10
-395.914223
 20
-61.825482
 30
0.0
 11
-378.414223
 21
-61.825482
 31
0.0
  0
LINE
  5
494
100
AcDbEntity
  8
2
  6
CENTER
 62
     2
100
AcDbLine
 10
-336.414223
 20
-63.825482
 30
0.0
 11
-318.914223
 21
-63.825482
 31
0.0
  0
LINE
  5
495
100
AcDbEntity
  8
2
  6
CENTER
 62
     2
100
AcDbLine
 10
-327.664223
 20
12.924518
 30
0.0
 11
-327.664223
 21
-4.575482
 31
0.0
  0
LINE
  5
496
100
AcDbEntity
  8
2
  6
CENTER
 62
     2
100
AcDbLine
 10
-336.414223
 20
4.174518
 30
0.0
 11
-318.914223
 21
4.174518
 31
0.0
  0
LINE
  5
497
100
AcDbEntity
  8
2
  6
CENTER
 62
     2
100
AcDbLine
 10
-246.164223
 20
-4.075482
 30
0.0
 11
-246.164223
 21
13.424518
 31
0.0
  0
LINE
  5
498
100
AcDbEntity
  8
2
  6
CENTER
 62
     2
100
AcDbLine
 10
-376.414223
 20
4.674518
 30
0.0
 11
-393.914223
 21
4.674518
 31
0.0
  0
LINE
  5
499
100
AcDbEntity
  8
2
  6
CENTER
 62
     2
100
AcDbLine
 10
-408.119977
 20
-29.825482
 30
0.0
 11
-201.517483
 21
-29.825482
 31
0.0
  0
LINE
  5
49A
100
AcDbEntity
  8
2
  6
CENTER
 62
     2
100
AcDbLine
 10
-254.914223
 20
4.674518
 30
0.0
 11
-237.414223
 21
4.674518
 31
0.0
  0
LINE
  5
49B
100
AcDbEntity
  8
2
  6
CENTER
 62
     2
100
AcDbLine
 10
-252.914223
 20
-61.825482
 30
0.0
 11
-235.414223
 21
-61.825482
 31
0.0
  0
LINE
  5
49C
100
AcDbEntity
  8
2
  6
CENTER
 62
     2
100
AcDbLine
 10
-327.664223
 20
-72.575482
 30
0.0
 11
-327.664223
 21
-55.075482
 31
0.0
  0
LINE
  5
49D
100
AcDbEntity
  8
2
  6
CENTER
 62
     2
100
AcDbLine
 10
-244.164223
 20
-53.075482
 30
0.0
 11
-244.164223
 21
-70.575482
 31
0.0
  0
POINT
  5
49E
100
AcDbEntity
  8
2
100
AcDbPoint
 10
-299.164223
 20
261.824518
 30
0.0
  0
LINE
  5
49F
100
AcDbEntity
  8
2
100
AcDbLine
 10
-368.164223
 20
314.824518
 30
0.0
 11
-220.164223
 21
314.824518
 31
0.0
  0
ARC
  5
4A0
100
AcDbEntity
  8
2
100
AcDbCircle
 10
-220.164223
 20
308.824518
 30
0.0
 40
6.0
100
AcDbArc
 50
0.0
 51
90.0
  0
ARC
  5
4A1
100
AcDbEntity
  8
2
100
AcDbCircle
 10
-368.164223
 20
308.824518
 30
0.0
 40
6.0
100
AcDbArc
 50
90.0
 51
180.0
  0
LINE
  5
4A2
100
AcDbEntity
  8
2
100
AcDbLine
 10
-214.164223
 20
308.824518
 30
0.0
 11
-214.164223
 21
220.824518
 31
0.0
  0
LINE
  5
4A3
100
AcDbEntity
  8
2
100
AcDbLine
 10
-374.164223
 20
220.824518
 30
0.0
 11
-374.164223
 21
308.824518
 31
0.0
  0
ARC
  5
4A4
100
AcDbEntity
  8
2
100
AcDbCircle
 10
-220.164223
 20
220.824518
 30
0.0
 40
6.0
100
AcDbArc
 50
270.0
 51
360.0
  0
ARC
  5
4A5
100
AcDbEntity
  8
2
100
AcDbCircle
 10
-368.164223
 20
220.824518
 30
0.0
 40
6.0
100
AcDbArc
 50
180.0
 51
270.0
  0
CIRCLE
  5
4A6
100
AcDbEntity
  8
2
100
AcDbCircle
 10
-299.164223
 20
261.824518
 30
0.0
 40
42.5
  0
LINE
  5
4A7
100
AcDbEntity
  8
2
100
AcDbLine
 10
-329.586419
 20
269.324518
 30
0.0
 11
-308.649176
 21
269.324518
 31
0.0
  0
LINE
  5
4A8
100
AcDbEntity
  8
2
100
AcDbLine
 10
-329.586419
 20
254.324518
 30
0.0
 11
-308.649176
 21
254.324518
 31
0.0
  0
LINE
  5
4A9
100
AcDbEntity
  8
2
100
AcDbLine
 10
-289.67927
 20
254.324518
 30
0.0
 11
-268.742027
 21
254.324518
 31
0.0
  0
LINE
  5
4AA
100
AcDbEntity
  8
2
100
AcDbLine
 10
-297.164223
 20
239.802043
 30
0.0
 11
-297.164223
 21
237.658426
 31
0.0
  0
LINE
  5
4AB
100
AcDbEntity
  8
2
100
AcDbLine
 10
-301.164223
 20
239.802043
 30
0.0
 11
-301.164223
 21
237.658426
 31
0.0
  0
LINE
  5
4AC
100
AcDbEntity
  8
2
100
AcDbLine
 10
-297.164223
 20
283.846993
 30
0.0
 11
-297.164223
 21
285.99061
 31
0.0
  0
LINE
  5
4AD
100
AcDbEntity
  8
2
100
AcDbLine
 10
-301.164223
 20
283.846993
 30
0.0
 11
-301.164223
 21
285.99061
 31
0.0
  0
LINE
  5
4AE
100
AcDbEntity
  8
2
100
AcDbLine
 10
-289.67927
 20
269.324518
 30
0.0
 11
-268.742027
 21
269.324518
 31
0.0
  0
LINE
  5
4AF
100
AcDbEntity
  8
2
100
AcDbLine
 10
-368.164223
 20
214.824518
 30
0.0
 11
-220.164223
 21
214.824518
 31
0.0
  0
LINE
  5
4B0
100
AcDbEntity
  8
2
100
AcDbLine
 10
-372.164223
 20
302.824518
 30
0.0
 11
-366.164223
 21
302.824518
 31
0.0
  0
LINE
  5
4B1
100
AcDbEntity
  8
2
100
AcDbLine
 10
-220.164223
 20
302.824518
 30
0.0
 11
-216.164223
 21
302.824518
 31
0.0
  0
LINE
  5
4B2
100
AcDbEntity
  8
2
100
AcDbLine
 10
-360.164223
 20
216.824518
 30
0.0
 11
-360.164223
 21
220.824518
 31
0.0
  0
LINE
  5
4B3
100
AcDbEntity
  8
2
100
AcDbLine
 10
-360.164223
 20
308.824518
 30
0.0
 11
-360.164223
 21
312.824518
 31
0.0
  0
LINE
  5
4B4
100
AcDbEntity
  8
2
100
AcDbLine
 10
-372.164223
 20
226.824518
 30
0.0
 11
-366.164223
 21
226.824518
 31
0.0
  0
LINE
  5
4B5
100
AcDbEntity
  8
2
100
AcDbLine
 10
-220.164223
 20
226.824518
 30
0.0
 11
-216.164223
 21
226.824518
 31
0.0
  0
LINE
  5
4B6
100
AcDbEntity
  8
2
100
AcDbLine
 10
-226.164223
 20
216.824518
 30
0.0
 11
-226.164223
 21
220.824518
 31
0.0
  0
LINE
  5
4B7
100
AcDbEntity
  8
2
100
AcDbLine
 10
-226.164223
 20
308.824518
 30
0.0
 11
-226.164223
 21
312.824518
 31
0.0
  0
ARC
  5
4B8
100
AcDbEntity
  8
2
100
AcDbCircle
 10
-220.164223
 20
308.824518
 30
0.0
 40
6.0
100
AcDbArc
 50
180.0
 51
270.0
  0
ARC
  5
4B9
100
AcDbEntity
  8
2
100
AcDbCircle
 10
-366.164223
 20
308.824518
 30
0.0
 40
6.0
100
AcDbArc
 50
270.0
 51
360.0
  0
ARC
  5
4BA
100
AcDbEntity
  8
2
100
AcDbCircle
 10
-366.164223
 20
220.824518
 30
0.0
 40
6.0
100
AcDbArc
 50
0.0
 51
90.0
  0
ARC
  5
4BB
100
AcDbEntity
  8
2
100
AcDbCircle
 10
-220.164223
 20
220.824518
 30
0.0
 40
6.0
100
AcDbArc
 50
90.0
 51
180.0
  0
CIRCLE
  5
4BC
100
AcDbEntity
  8
2
100
AcDbCircle
 10
-299.164223
 20
261.824518
 30
0.0
 40
31.33305
  0
ARC
  5
4BD
100
AcDbEntity
  8
2
100
AcDbCircle
 10
-336.588832
 20
262.151367
 30
0.0
 40
45.0
100
AcDbArc
 50
12.236103
 51
30.645688
  0
ARC
  5
4BE
100
AcDbEntity
  8
2
100
AcDbCircle
 10
-261.739614
 20
262.151367
 30
0.0
 40
45.0
100
AcDbArc
 50
149.354312
 51
167.763897
  0
ARC
  5
4BF
100
AcDbEntity
  8
2
100
AcDbCircle
 10
-299.164223
 20
284.324518
 30
0.0
 40
1.5
100
AcDbArc
 50
30.645688
 51
149.354312
  0
ARC
  5
4C0
100
AcDbEntity
  8
2
100
AcDbCircle
 10
-289.67927
 20
272.324518
 30
0.0
 40
3.0
100
AcDbArc
 50
192.236103
 51
270.0
  0
ARC
  5
4C1
100
AcDbEntity
  8
2
100
AcDbCircle
 10
-308.649176
 20
272.324518
 30
0.0
 40
3.0
100
AcDbArc
 50
270.0
 51
347.763897
  0
ARC
  5
4C2
100
AcDbEntity
  8
2
100
AcDbCircle
 10
-336.588832
 20
261.497669
 30
0.0
 40
45.0
100
AcDbArc
 50
329.354312
 51
347.763897
  0
ARC
  5
4C3
100
AcDbEntity
  8
2
100
AcDbCircle
 10
-261.739614
 20
261.497669
 30
0.0
 40
45.0
100
AcDbArc
 50
192.236103
 51
210.645688
  0
ARC
  5
4C4
100
AcDbEntity
  8
2
100
AcDbCircle
 10
-299.164223
 20
239.324518
 30
0.0
 40
1.5
100
AcDbArc
 50
210.645688
 51
329.354312
  0
ARC
  5
4C5
100
AcDbEntity
  8
2
100
AcDbCircle
 10
-289.67927
 20
251.324518
 30
0.0
 40
3.0
100
AcDbArc
 50
90.0
 51
167.763897
  0
ARC
  5
4C6
100
AcDbEntity
  8
2
100
AcDbCircle
 10
-308.649176
 20
251.324518
 30
0.0
 40
3.0
100
AcDbArc
 50
12.236103
 51
90.0
  0
ARC
  5
4C7
100
AcDbEntity
  8
2
100
AcDbCircle
 10
-299.164223
 20
261.824518
 30
0.0
 40
24.248711
100
AcDbArc
 50
18.016736
 51
161.983264
  0
ARC
  5
4C8
100
AcDbEntity
  8
2
100
AcDbCircle
 10
-299.164223
 20
261.824518
 30
0.0
 40
24.248711
100
AcDbArc
 50
198.016736
 51
341.983264
  0
ARC
  5
4C9
100
AcDbEntity
  8
2
100
AcDbCircle
 10
-216.164223
 20
300.824518
 30
0.0
 40
2.0
100
AcDbArc
 50
0.0
 51
90.0
  0
ARC
  5
4CA
100
AcDbEntity
  8
2
100
AcDbCircle
 10
-228.164223
 20
312.824518
 30
0.0
 40
2.0
100
AcDbArc
 50
0.0
 51
90.0
  0
ARC
  5
4CB
100
AcDbEntity
  8
2
100
AcDbCircle
 10
-216.164223
 20
228.824518
 30
0.0
 40
2.0
100
AcDbArc
 50
270.0
 51
360.0
  0
ARC
  5
4CC
100
AcDbEntity
  8
2
100
AcDbCircle
 10
-228.164223
 20
216.824518
 30
0.0
 40
2.0
100
AcDbArc
 50
270.0
 51
360.0
  0
ARC
  5
4CD
100
AcDbEntity
  8
2
100
AcDbCircle
 10
-358.164223
 20
216.824518
 30
0.0
 40
2.0
100
AcDbArc
 50
180.0
 51
270.0
  0
ARC
  5
4CE
100
AcDbEntity
  8
2
100
AcDbCircle
 10
-372.164223
 20
228.824518
 30
0.0
 40
2.0
100
AcDbArc
 50
180.0
 51
270.0
  0
ARC
  5
4CF
100
AcDbEntity
  8
2
100
AcDbCircle
 10
-358.164223
 20
312.824518
 30
0.0
 40
2.0
100
AcDbArc
 50
90.0
 51
180.0
  0
ARC
  5
4D0
100
AcDbEntity
  8
2
100
AcDbCircle
 10
-372.164223
 20
300.824518
 30
0.0
 40
2.0
100
AcDbArc
 50
90.0
 51
180.0
  0
LINE
  5
4D1
100
AcDbEntity
  8
2
 62
     2
100
AcDbLine
 10
-300.025081
 20
286.057943
 30
0.0
 11
-301.164223
 21
284.918801
 31
0.0
  0
LINE
  5
4D2
100
AcDbEntity
  8
2
 62
     2
100
AcDbLine
 10
-301.164223
 20
284.918801
 30
0.0
 11
-301.164223
 21
284.918801
 31
0.0
  0
LINE
  5
4D3
100
AcDbEntity
  8
2
 62
     2
100
AcDbLine
 10
-299.161267
 20
286.073229
 30
0.0
 11
-299.434536
 21
285.79996
 31
0.0
  0
LINE
  5
4D4
100
AcDbEntity
  8
2
 62
     2
100
AcDbLine
 10
-300.881512
 20
284.352984
 30
0.0
 11
-301.164223
 21
284.070273
 31
0.0
  0
LINE
  5
4D5
100
AcDbEntity
  8
2
 62
     2
100
AcDbLine
 10
-301.164223
 20
284.070273
 30
0.0
 11
-301.164223
 21
284.070273
 31
0.0
  0
LINE
  5
4D6
100
AcDbEntity
  8
2
 62
     2
100
AcDbLine
 10
-298.32719
 20
286.058778
 30
0.0
 11
-298.65172
 21
285.734248
 31
0.0
  0
LINE
  5
4D7
100
AcDbEntity
  8
2
 62
     2
100
AcDbLine
 10
-297.520019
 20
286.017421
 30
0.0
 11
-298.128192
 21
285.409248
 31
0.0
  0
LINE
  5
4D8
100
AcDbEntity
  8
2
 62
     2
100
AcDbLine
 10
-297.164223
 20
285.524689
 30
0.0
 11
-297.772134
 21
284.916778
 31
0.0
  0
LINE
  5
4D9
100
AcDbEntity
  8
2
 62
     2
100
AcDbLine
 10
-297.164223
 20
284.67616
 30
0.0
 11
-297.461587
 21
284.378797
 31
0.0
  0
LINE
  5
4DA
100
AcDbEntity
  8
2
 62
     2
100
AcDbLine
 10
-300.922127
 20
286.009426
 30
0.0
 11
-301.164223
 21
285.767329
 31
0.0
  0
LINE
  5
4DB
100
AcDbEntity
  8
2
 62
     2
100
AcDbLine
 10
-301.164223
 20
285.767329
 30
0.0
 11
-301.164223
 21
285.767329
 31
0.0
  0
LINE
  5
4DC
100
AcDbEntity
  8
2
 62
     2
100
AcDbLine
 10
-300.778698
 20
239.115759
 30
0.0
 11
-301.164223
 21
238.730234
 31
0.0
  0
LINE
  5
4DD
100
AcDbEntity
  8
2
 62
     2
100
AcDbLine
 10
-301.164223
 20
238.730234
 30
0.0
 11
-301.164223
 21
238.730234
 31
0.0
  0
LINE
  5
4DE
100
AcDbEntity
  8
2
 62
     2
100
AcDbLine
 10
-300.466359
 20
238.57957
 30
0.0
 11
-301.164223
 21
237.881706
 31
0.0
  0
LINE
  5
4DF
100
AcDbEntity
  8
2
 62
     2
100
AcDbLine
 10
-301.164223
 20
237.881706
 30
0.0
 11
-301.164223
 21
237.881706
 31
0.0
  0
LINE
  5
4E0
100
AcDbEntity
  8
2
 62
     2
100
AcDbLine
 10
-300.580216
 20
237.617185
 30
0.0
 11
-300.069163
 21
238.128238
 31
0.0
  0
LINE
  5
4E1
100
AcDbEntity
  8
2
 62
     2
100
AcDbLine
 10
-299.765608
 20
237.583265
 30
0.0
 11
-299.488814
 21
237.860058
 31
0.0
  0
LINE
  5
4E2
100
AcDbEntity
  8
2
 62
     2
100
AcDbLine
 10
-297.164223
 20
239.336122
 30
0.0
 11
-297.777878
 21
238.722467
 31
0.0
  0
LINE
  5
4E3
100
AcDbEntity
  8
2
 62
     2
100
AcDbLine
 10
-298.539579
 20
237.960765
 30
0.0
 11
-298.923342
 21
237.577003
 31
0.0
  0
LINE
  5
4E4
100
AcDbEntity
  8
2
 62
     2
100
AcDbLine
 10
-298.050417
 20
237.6014
 30
0.0
 11
-297.164223
 21
238.487593
 31
0.0
  0
LINE
  5
4E5
100
AcDbEntity
  8
2
 62
     2
100
AcDbLine
 10
-301.084745
 20
239.65824
 30
0.0
 11
-301.164223
 21
239.578762
 31
0.0
  0
LINE
  5
4E6
100
AcDbEntity
  8
2
 62
     2
100
AcDbLine
 10
-301.164223
 20
239.578762
 30
0.0
 11
-301.164223
 21
239.578762
 31
0.0
  0
LINE
  5
4E7
100
AcDbEntity
  8
2
100
AcDbLine
 10
-307.979891
 20
239.235051
 30
0.0
 11
-305.981021
 21
244.060748
 31
0.0
  0
LINE
  5
4E8
100
AcDbEntity
  8
2
100
AcDbLine
 10
-291.423545
 20
279.205604
 30
0.0
 11
-289.424676
 21
284.031301
 31
0.0
  0
LINE
  5
4E9
100
AcDbEntity
  8
2
100
AcDbLine
 10
-308.90377
 20
239.617734
 30
0.0
 11
-306.904901
 21
244.443431
 31
0.0
  0
LINE
  5
4EA
100
AcDbEntity
  8
2
100
AcDbLine
 10
-292.347425
 20
279.588287
 30
0.0
 11
-290.348556
 21
284.413984
 31
0.0
  0
LINE
  5
4EB
100
AcDbEntity
  8
2
100
AcDbLine
 10
-315.953453
 20
244.328181
 30
0.0
 11
-312.260024
 21
248.02161
 31
0.0
  0
LINE
  5
4EC
100
AcDbEntity
  8
2
100
AcDbLine
 10
-285.361316
 20
274.920318
 30
0.0
 11
-281.667887
 21
278.613747
 31
0.0
  0
LINE
  5
4ED
100
AcDbEntity
  8
2
100
AcDbLine
 10
-316.660559
 20
245.035288
 30
0.0
 11
-312.967131
 21
248.728717
 31
0.0
  0
LINE
  5
4EE
100
AcDbEntity
  8
2
100
AcDbLine
 10
-286.068422
 20
275.627425
 30
0.0
 11
-282.374994
 21
279.320854
 31
0.0
  0
LINE
  5
4EF
100
AcDbEntity
  8
2
100
AcDbLine
 10
-321.371007
 20
252.084971
 30
0.0
 11
-316.54531
 21
254.08384
 31
0.0
  0
LINE
  5
4F0
100
AcDbEntity
  8
2
100
AcDbLine
 10
-279.751058
 20
269.324518
 30
0.0
 11
-276.574756
 21
270.640185
 31
0.0
  0
LINE
  5
4F1
100
AcDbEntity
  8
2
100
AcDbLine
 10
-321.75369
 20
253.00885
 30
0.0
 11
-318.577388
 21
254.324518
 31
0.0
  0
LINE
  5
4F2
100
AcDbEntity
  8
2
100
AcDbLine
 10
-281.783137
 20
269.565195
 30
0.0
 11
-276.95744
 21
271.564065
 31
0.0
  0
ARC
  5
4F3
100
AcDbEntity
  8
2
100
AcDbCircle
 10
-306.442961
 20
244.252089
 30
0.0
 40
0.5
100
AcDbArc
 50
337.5
 51
157.5
  0
ARC
  5
4F4
100
AcDbEntity
  8
2
100
AcDbCircle
 10
-312.613577
 20
248.375163
 30
0.0
 40
0.5
100
AcDbArc
 50
315.0
 51
135.0
  0
ARC
  5
4F5
100
AcDbEntity
  8
2
100
AcDbCircle
 10
-316.736651
 20
254.54578
 30
0.0
 40
0.5
100
AcDbArc
 50
292.5
 51
333.734975
  0
ARC
  5
4F6
100
AcDbEntity
  8
2
100
AcDbCircle
 10
-291.885485
 20
279.396946
 30
0.0
 40
0.5
100
AcDbArc
 50
157.5
 51
337.5
  0
ARC
  5
4F7
100
AcDbEntity
  8
2
100
AcDbCircle
 10
-285.714869
 20
275.273872
 30
0.0
 40
0.5
100
AcDbArc
 50
135.0
 51
315.0
  0
ARC
  5
4F8
100
AcDbEntity
  8
2
100
AcDbCircle
 10
-281.591795
 20
269.103256
 30
0.0
 40
0.5
100
AcDbArc
 50
112.5
 51
153.734975
  0
LINE
  5
4F9
100
AcDbEntity
  8
2
 62
     2
100
AcDbLine
 10
-291.297609
 20
282.122767
 30
0.0
 11
-290.424111
 21
281.618453
 31
0.0
  0
LINE
  5
4FA
100
AcDbEntity
  8
2
 62
     2
100
AcDbLine
 10
-290.424111
 20
281.618453
 30
0.0
 11
-290.424111
 21
281.618453
 31
0.0
  0
LINE
  5
4FB
100
AcDbEntity
  8
2
 62
     2
100
AcDbLine
 10
-291.066018
 20
282.681878
 30
0.0
 11
-290.192519
 21
282.177563
 31
0.0
  0
LINE
  5
4FC
100
AcDbEntity
  8
2
 62
     2
100
AcDbLine
 10
-290.192519
 20
282.177563
 30
0.0
 11
-290.192519
 21
282.177563
 31
0.0
  0
LINE
  5
4FD
100
AcDbEntity
  8
2
 62
     2
100
AcDbLine
 10
-290.834426
 20
283.240989
 30
0.0
 11
-289.960928
 21
282.736674
 31
0.0
  0
LINE
  5
4FE
100
AcDbEntity
  8
2
 62
     2
100
AcDbLine
 10
-289.960928
 20
282.736674
 30
0.0
 11
-289.960928
 21
282.736674
 31
0.0
  0
LINE
  5
4FF
100
AcDbEntity
  8
2
 62
     2
100
AcDbLine
 10
-290.602835
 20
283.8001
 30
0.0
 11
-289.729337
 21
283.295785
 31
0.0
  0
LINE
  5
500
100
AcDbEntity
  8
2
 62
     2
100
AcDbLine
 10
-289.729337
 20
283.295785
 30
0.0
 11
-289.729337
 21
283.295785
 31
0.0
  0
LINE
  5
501
100
AcDbEntity
  8
2
 62
     2
100
AcDbLine
 10
-290.371244
 20
284.359211
 30
0.0
 11
-289.497745
 21
283.854896
 31
0.0
  0
LINE
  5
502
100
AcDbEntity
  8
2
 62
     2
100
AcDbLine
 10
-289.497745
 20
283.854896
 30
0.0
 11
-289.497745
 21
283.854896
 31
0.0
  0
LINE
  5
503
100
AcDbEntity
  8
2
 62
     2
100
AcDbLine
 10
-291.5292
 20
281.563656
 30
0.0
 11
-290.655702
 21
281.059342
 31
0.0
  0
LINE
  5
504
100
AcDbEntity
  8
2
 62
     2
100
AcDbLine
 10
-290.655702
 20
281.059342
 30
0.0
 11
-290.655702
 21
281.059342
 31
0.0
  0
LINE
  5
505
100
AcDbEntity
  8
2
 62
     2
100
AcDbLine
 10
-291.760792
 20
281.004545
 30
0.0
 11
-290.887294
 21
280.500231
 31
0.0
  0
LINE
  5
506
100
AcDbEntity
  8
2
 62
     2
100
AcDbLine
 10
-290.887294
 20
280.500231
 30
0.0
 11
-290.887294
 21
280.500231
 31
0.0
  0
LINE
  5
507
100
AcDbEntity
  8
2
 62
     2
100
AcDbLine
 10
-291.992383
 20
280.445434
 30
0.0
 11
-291.118885
 21
279.94112
 31
0.0
  0
LINE
  5
508
100
AcDbEntity
  8
2
 62
     2
100
AcDbLine
 10
-291.118885
 20
279.94112
 30
0.0
 11
-291.118885
 21
279.94112
 31
0.0
  0
LINE
  5
509
100
AcDbEntity
  8
2
 62
     2
100
AcDbLine
 10
-292.223975
 20
279.886323
 30
0.0
 11
-291.350476
 21
279.382009
 31
0.0
  0
LINE
  5
50A
100
AcDbEntity
  8
2
 62
     2
100
AcDbLine
 10
-291.350476
 20
279.382009
 30
0.0
 11
-291.350476
 21
279.382009
 31
0.0
  0
LINE
  5
50B
100
AcDbEntity
  8
2
 62
     2
100
AcDbLine
 10
-292.371263
 20
279.27854
 30
0.0
 11
-291.745139
 21
278.917047
 31
0.0
  0
LINE
  5
50C
100
AcDbEntity
  8
2
 62
     2
100
AcDbLine
 10
-284.411177
 20
277.284671
 30
0.0
 11
-283.514601
 21
276.767033
 31
0.0
  0
LINE
  5
50D
100
AcDbEntity
  8
2
 62
     2
100
AcDbLine
 10
-283.514601
 20
276.767033
 30
0.0
 11
-283.514601
 21
276.767033
 31
0.0
  0
LINE
  5
50E
100
AcDbEntity
  8
2
 62
     2
100
AcDbLine
 10
-283.971946
 20
277.723901
 30
0.0
 11
-283.075371
 21
277.206263
 31
0.0
  0
LINE
  5
50F
100
AcDbEntity
  8
2
 62
     2
100
AcDbLine
 10
-283.075371
 20
277.206263
 30
0.0
 11
-283.075371
 21
277.206263
 31
0.0
  0
LINE
  5
510
100
AcDbEntity
  8
2
 62
     2
100
AcDbLine
 10
-283.532716
 20
278.163132
 30
0.0
 11
-282.63614
 21
277.645494
 31
0.0
  0
LINE
  5
511
100
AcDbEntity
  8
2
 62
     2
100
AcDbLine
 10
-282.63614
 20
277.645494
 30
0.0
 11
-282.63614
 21
277.645494
 31
0.0
  0
LINE
  5
512
100
AcDbEntity
  8
2
 62
     2
100
AcDbLine
 10
-283.093485
 20
278.602362
 30
0.0
 11
-282.19691
 21
278.084724
 31
0.0
  0
LINE
  5
513
100
AcDbEntity
  8
2
 62
     2
100
AcDbLine
 10
-282.19691
 20
278.084724
 30
0.0
 11
-282.19691
 21
278.084724
 31
0.0
  0
LINE
  5
514
100
AcDbEntity
  8
2
 62
     2
100
AcDbLine
 10
-282.654255
 20
279.041593
 30
0.0
 11
-281.757679
 21
278.523955
 31
0.0
  0
LINE
  5
515
100
AcDbEntity
  8
2
 62
     2
100
AcDbLine
 10
-281.757679
 20
278.523955
 30
0.0
 11
-281.757679
 21
278.523955
 31
0.0
  0
LINE
  5
516
100
AcDbEntity
  8
2
 62
     2
100
AcDbLine
 10
-284.850407
 20
276.84544
 30
0.0
 11
-283.953832
 21
276.327802
 31
0.0
  0
LINE
  5
517
100
AcDbEntity
  8
2
 62
     2
100
AcDbLine
 10
-283.953832
 20
276.327802
 30
0.0
 11
-283.953832
 21
276.327802
 31
0.0
  0
LINE
  5
518
100
AcDbEntity
  8
2
 62
     2
100
AcDbLine
 10
-285.289638
 20
276.40621
 30
0.0
 11
-284.393062
 21
275.888572
 31
0.0
  0
LINE
  5
519
100
AcDbEntity
  8
2
 62
     2
100
AcDbLine
 10
-284.393062
 20
275.888572
 30
0.0
 11
-284.393062
 21
275.888572
 31
0.0
  0
LINE
  5
51A
100
AcDbEntity
  8
2
 62
     2
100
AcDbLine
 10
-285.728868
 20
275.966979
 30
0.0
 11
-284.832293
 21
275.449341
 31
0.0
  0
LINE
  5
51B
100
AcDbEntity
  8
2
 62
     2
100
AcDbLine
 10
-284.832293
 20
275.449341
 30
0.0
 11
-284.832293
 21
275.449341
 31
0.0
  0
LINE
  5
51C
100
AcDbEntity
  8
2
 62
     2
100
AcDbLine
 10
-286.151218
 20
275.518003
 30
0.0
 11
-285.271523
 21
275.010111
 31
0.0
  0
LINE
  5
51D
100
AcDbEntity
  8
2
 62
     2
100
AcDbLine
 10
-285.271523
 20
275.010111
 30
0.0
 11
-285.271523
 21
275.010111
 31
0.0
  0
LINE
  5
51E
100
AcDbEntity
  8
2
 62
     2
100
AcDbLine
 10
-279.254509
 20
270.612588
 30
0.0
 11
-278.162907
 21
269.982351
 31
0.0
  0
LINE
  5
51F
100
AcDbEntity
  8
2
 62
     2
100
AcDbLine
 10
-278.162907
 20
269.982351
 30
0.0
 11
-278.162907
 21
269.982351
 31
0.0
  0
LINE
  5
520
100
AcDbEntity
  8
2
 62
     2
100
AcDbLine
 10
-278.555794
 20
270.902005
 30
0.0
 11
-277.464193
 21
270.271768
 31
0.0
  0
LINE
  5
521
100
AcDbEntity
  8
2
 62
     2
100
AcDbLine
 10
-277.464193
 20
270.271768
 30
0.0
 11
-277.464193
 21
270.271768
 31
0.0
  0
LINE
  5
522
100
AcDbEntity
  8
2
 62
     2
100
AcDbLine
 10
-277.857079
 20
271.191422
 30
0.0
 11
-276.765478
 21
270.561186
 31
0.0
  0
LINE
  5
523
100
AcDbEntity
  8
2
 62
     2
100
AcDbLine
 10
-276.765478
 20
270.561186
 30
0.0
 11
-276.765478
 21
270.561186
 31
0.0
  0
LINE
  5
524
100
AcDbEntity
  8
2
 62
     2
100
AcDbLine
 10
-276.842951
 20
271.298735
 30
0.0
 11
-277.158364
 21
271.480839
 31
0.0
  0
LINE
  5
525
100
AcDbEntity
  8
2
 62
     2
100
AcDbLine
 10
-279.953223
 20
270.32317
 30
0.0
 11
-278.861622
 21
269.692934
 31
0.0
  0
LINE
  5
526
100
AcDbEntity
  8
2
 62
     2
100
AcDbLine
 10
-278.861622
 20
269.692934
 30
0.0
 11
-278.861622
 21
269.692934
 31
0.0
  0
LINE
  5
527
100
AcDbEntity
  8
2
 62
     2
100
AcDbLine
 10
-280.651938
 20
270.033753
 30
0.0
 11
-279.560337
 21
269.403517
 31
0.0
  0
LINE
  5
528
100
AcDbEntity
  8
2
 62
     2
100
AcDbLine
 10
-279.560337
 20
269.403517
 30
0.0
 11
-279.560337
 21
269.403517
 31
0.0
  0
LINE
  5
529
100
AcDbEntity
  8
2
 62
     2
100
AcDbLine
 10
-281.350653
 20
269.744336
 30
0.0
 11
-280.623506
 21
269.324518
 31
0.0
  0
LINE
  5
52A
100
AcDbEntity
  8
2
 62
     2
100
AcDbLine
 10
-281.981926
 20
269.415982
 30
0.0
 11
-281.823506
 21
269.324518
 31
0.0
  0
LINE
  5
52B
100
AcDbEntity
  8
2
100
AcDbLine
 10
-282.362859
 20
252.970823
 30
0.0
 11
-280.340813
 21
252.133265
 31
0.0
  0
ARC
  5
52C
100
AcDbEntity
  8
2
100
AcDbCircle
 10
-281.693108
 20
254.587745
 30
0.0
 40
1.750143
100
AcDbArc
 50
188.650293
 51
247.5
  0
ARC
  5
52D
100
AcDbEntity
  8
2
100
AcDbCircle
 10
-279.671062
 20
253.750186
 30
0.0
 40
1.750143
100
AcDbArc
 50
247.5
 51
19.157293
  0
LINE
  5
52E
100
AcDbEntity
  8
2
100
AcDbLine
 10
-282.210899
 20
253.265396
 30
0.0
 11
-280.174544
 21
252.463255
 31
0.0
  0
ARC
  5
52F
100
AcDbEntity
  8
2
100
AcDbCircle
 10
-281.56947
 20
254.89376
 30
0.0
 40
1.750143
100
AcDbArc
 50
198.98101
 51
248.5
  0
ARC
  5
530
100
AcDbEntity
  8
2
100
AcDbCircle
 10
-279.533115
 20
254.091618
 30
0.0
 40
1.750143
100
AcDbArc
 50
248.5
 51
7.647286
  0
LINE
  5
531
100
AcDbEntity
  8
2
100
AcDbLine
 10
-282.519936
 20
252.678948
 30
0.0
 11
-280.512816
 21
251.806227
 31
0.0
  0
ARC
  5
532
100
AcDbEntity
  8
2
100
AcDbCircle
 10
-281.822068
 20
254.283934
 30
0.0
 40
1.750143
100
AcDbArc
 50
178.671261
 51
246.5
  0
ARC
  5
533
100
AcDbEntity
  8
2
100
AcDbCircle
 10
-279.814948
 20
253.411213
 30
0.0
 40
1.750143
100
AcDbArc
 50
246.5
 51
31.45613
  0
LINE
  5
534
100
AcDbEntity
  8
2
100
AcDbLine
 10
-315.965588
 20
270.678212
 30
0.0
 11
-317.987633
 21
271.51577
 31
0.0
  0
ARC
  5
535
100
AcDbEntity
  8
2
100
AcDbCircle
 10
-316.635338
 20
269.061291
 30
0.0
 40
1.750143
100
AcDbArc
 50
8.650293
 51
67.5
  0
ARC
  5
536
100
AcDbEntity
  8
2
100
AcDbCircle
 10
-318.657384
 20
269.898849
 30
0.0
 40
1.750143
100
AcDbArc
 50
67.5
 51
199.157293
  0
LINE
  5
537
100
AcDbEntity
  8
2
100
AcDbLine
 10
-316.117547
 20
270.383639
 30
0.0
 11
-318.153902
 21
271.185781
 31
0.0
  0
ARC
  5
538
100
AcDbEntity
  8
2
100
AcDbCircle
 10
-316.758977
 20
268.755275
 30
0.0
 40
1.750143
100
AcDbArc
 50
18.98101
 51
68.5
  0
ARC
  5
539
100
AcDbEntity
  8
2
100
AcDbCircle
 10
-318.795331
 20
269.557417
 30
0.0
 40
1.750143
100
AcDbArc
 50
68.5
 51
187.647286
  0
LINE
  5
53A
100
AcDbEntity
  8
2
100
AcDbLine
 10
-315.808511
 20
270.970088
 30
0.0
 11
-317.815631
 21
271.842808
 31
0.0
  0
ARC
  5
53B
100
AcDbEntity
  8
2
100
AcDbCircle
 10
-316.506378
 20
269.365101
 30
0.0
 40
1.750143
100
AcDbArc
 50
358.671261
 51
66.5
  0
ARC
  5
53C
100
AcDbEntity
  8
2
100
AcDbCircle
 10
-318.513498
 20
270.237822
 30
0.0
 40
1.750143
100
AcDbArc
 50
66.5
 51
211.45613
  0
LINE
  5
53D
100
AcDbEntity
  8
2
 62
     2
100
AcDbLine
 10
-307.853954
 20
242.152214
 30
0.0
 11
-306.980456
 21
241.647899
 31
0.0
  0
LINE
  5
53E
100
AcDbEntity
  8
2
 62
     2
100
AcDbLine
 10
-306.980456
 20
241.647899
 30
0.0
 11
-306.980456
 21
241.647899
 31
0.0
  0
LINE
  5
53F
100
AcDbEntity
  8
2
 62
     2
100
AcDbLine
 10
-307.622363
 20
242.711325
 30
0.0
 11
-306.748865
 21
242.20701
 31
0.0
  0
LINE
  5
540
100
AcDbEntity
  8
2
 62
     2
100
AcDbLine
 10
-306.748865
 20
242.20701
 30
0.0
 11
-306.748865
 21
242.20701
 31
0.0
  0
LINE
  5
541
100
AcDbEntity
  8
2
 62
     2
100
AcDbLine
 10
-307.390772
 20
243.270436
 30
0.0
 11
-306.517273
 21
242.766121
 31
0.0
  0
LINE
  5
542
100
AcDbEntity
  8
2
 62
     2
100
AcDbLine
 10
-306.517273
 20
242.766121
 30
0.0
 11
-306.517273
 21
242.766121
 31
0.0
  0
LINE
  5
543
100
AcDbEntity
  8
2
 62
     2
100
AcDbLine
 10
-307.15918
 20
243.829547
 30
0.0
 11
-306.285682
 21
243.325232
 31
0.0
  0
LINE
  5
544
100
AcDbEntity
  8
2
 62
     2
100
AcDbLine
 10
-306.285682
 20
243.325232
 30
0.0
 11
-306.285682
 21
243.325232
 31
0.0
  0
LINE
  5
545
100
AcDbEntity
  8
2
 62
     2
100
AcDbLine
 10
-306.927589
 20
244.388658
 30
0.0
 11
-306.054091
 21
243.884343
 31
0.0
  0
LINE
  5
546
100
AcDbEntity
  8
2
 62
     2
100
AcDbLine
 10
-306.054091
 20
243.884343
 30
0.0
 11
-306.054091
 21
243.884343
 31
0.0
  0
LINE
  5
547
100
AcDbEntity
  8
2
 62
     2
100
AcDbLine
 10
-306.33764
 20
244.740871
 30
0.0
 11
-306.072324
 21
244.587691
 31
0.0
  0
LINE
  5
548
100
AcDbEntity
  8
2
 62
     2
100
AcDbLine
 10
-308.085546
 20
241.593103
 30
0.0
 11
-307.212047
 21
241.088788
 31
0.0
  0
LINE
  5
549
100
AcDbEntity
  8
2
 62
     2
100
AcDbLine
 10
-307.212047
 20
241.088788
 30
0.0
 11
-307.212047
 21
241.088788
 31
0.0
  0
LINE
  5
54A
100
AcDbEntity
  8
2
 62
     2
100
AcDbLine
 10
-308.317137
 20
241.033992
 30
0.0
 11
-307.443639
 21
240.529677
 31
0.0
  0
LINE
  5
54B
100
AcDbEntity
  8
2
 62
     2
100
AcDbLine
 10
-307.443639
 20
240.529677
 30
0.0
 11
-307.443639
 21
240.529677
 31
0.0
  0
LINE
  5
54C
100
AcDbEntity
  8
2
 62
     2
100
AcDbLine
 10
-308.548728
 20
240.474881
 30
0.0
 11
-307.67523
 21
239.970566
 31
0.0
  0
LINE
  5
54D
100
AcDbEntity
  8
2
 62
     2
100
AcDbLine
 10
-307.67523
 20
239.970566
 30
0.0
 11
-307.67523
 21
239.970566
 31
0.0
  0
LINE
  5
54E
100
AcDbEntity
  8
2
 62
     2
100
AcDbLine
 10
-308.78032
 20
239.91577
 30
0.0
 11
-307.906821
 21
239.411455
 31
0.0
  0
LINE
  5
54F
100
AcDbEntity
  8
2
 62
     2
100
AcDbLine
 10
-307.906821
 20
239.411455
 30
0.0
 11
-307.906821
 21
239.411455
 31
0.0
  0
LINE
  5
550
100
AcDbEntity
  8
2
 62
     2
100
AcDbLine
 10
-315.003314
 20
246.692534
 30
0.0
 11
-314.106738
 21
246.174896
 31
0.0
  0
LINE
  5
551
100
AcDbEntity
  8
2
 62
     2
100
AcDbLine
 10
-314.106738
 20
246.174896
 30
0.0
 11
-314.106738
 21
246.174896
 31
0.0
  0
LINE
  5
552
100
AcDbEntity
  8
2
 62
     2
100
AcDbLine
 10
-314.564083
 20
247.131764
 30
0.0
 11
-313.667508
 21
246.614126
 31
0.0
  0
LINE
  5
553
100
AcDbEntity
  8
2
 62
     2
100
AcDbLine
 10
-313.667508
 20
246.614126
 30
0.0
 11
-313.667508
 21
246.614126
 31
0.0
  0
LINE
  5
554
100
AcDbEntity
  8
2
 62
     2
100
AcDbLine
 10
-314.124853
 20
247.570995
 30
0.0
 11
-313.228277
 21
247.053357
 31
0.0
  0
LINE
  5
555
100
AcDbEntity
  8
2
 62
     2
100
AcDbLine
 10
-313.228277
 20
247.053357
 30
0.0
 11
-313.228277
 21
247.053357
 31
0.0
  0
LINE
  5
556
100
AcDbEntity
  8
2
 62
     2
100
AcDbLine
 10
-313.685622
 20
248.010225
 30
0.0
 11
-312.789047
 21
247.492587
 31
0.0
  0
LINE
  5
557
100
AcDbEntity
  8
2
 62
     2
100
AcDbLine
 10
-312.789047
 20
247.492587
 30
0.0
 11
-312.789047
 21
247.492587
 31
0.0
  0
LINE
  5
558
100
AcDbEntity
  8
2
 62
     2
100
AcDbLine
 10
-313.246392
 20
248.449456
 30
0.0
 11
-312.349816
 21
247.931818
 31
0.0
  0
LINE
  5
559
100
AcDbEntity
  8
2
 62
     2
100
AcDbLine
 10
-312.349816
 20
247.931818
 30
0.0
 11
-312.349816
 21
247.931818
 31
0.0
  0
LINE
  5
55A
100
AcDbEntity
  8
2
 62
     2
100
AcDbLine
 10
-312.75059
 20
248.856025
 30
0.0
 11
-312.128633
 21
248.496938
 31
0.0
  0
LINE
  5
55B
100
AcDbEntity
  8
2
 62
     2
100
AcDbLine
 10
-315.442544
 20
246.253303
 30
0.0
 11
-314.545969
 21
245.735665
 31
0.0
  0
LINE
  5
55C
100
AcDbEntity
  8
2
 62
     2
100
AcDbLine
 10
-314.545969
 20
245.735665
 30
0.0
 11
-314.545969
 21
245.735665
 31
0.0
  0
LINE
  5
55D
100
AcDbEntity
  8
2
 62
     2
100
AcDbLine
 10
-315.881775
 20
245.814073
 30
0.0
 11
-314.985199
 21
245.296435
 31
0.0
  0
LINE
  5
55E
100
AcDbEntity
  8
2
 62
     2
100
AcDbLine
 10
-314.985199
 20
245.296435
 30
0.0
 11
-314.985199
 21
245.296435
 31
0.0
  0
LINE
  5
55F
100
AcDbEntity
  8
2
 62
     2
100
AcDbLine
 10
-316.321005
 20
245.374842
 30
0.0
 11
-315.42443
 21
244.857204
 31
0.0
  0
LINE
  5
560
100
AcDbEntity
  8
2
 62
     2
100
AcDbLine
 10
-315.42443
 20
244.857204
 30
0.0
 11
-315.42443
 21
244.857204
 31
0.0
  0
LINE
  5
561
100
AcDbEntity
  8
2
 62
     2
100
AcDbLine
 10
-316.305809
 20
244.673249
 30
0.0
 11
-315.86366
 21
244.417974
 31
0.0
  0
LINE
  5
562
100
AcDbEntity
  8
2
 62
     2
100
AcDbLine
 10
-315.86366
 20
244.417974
 30
0.0
 11
-315.86366
 21
244.417974
 31
0.0
  0
LINE
  5
563
100
AcDbEntity
  8
2
 62
     2
100
AcDbLine
 10
-320.049759
 20
253.714641
 30
0.0
 11
-318.958158
 21
253.084405
 31
0.0
  0
LINE
  5
564
100
AcDbEntity
  8
2
 62
     2
100
AcDbLine
 10
-318.958158
 20
253.084405
 30
0.0
 11
-318.958158
 21
253.084405
 31
0.0
  0
LINE
  5
565
100
AcDbEntity
  8
2
 62
     2
100
AcDbLine
 10
-319.351044
 20
254.004059
 30
0.0
 11
-318.259443
 21
253.373822
 31
0.0
  0
LINE
  5
566
100
AcDbEntity
  8
2
 62
     2
100
AcDbLine
 10
-318.259443
 20
253.373822
 30
0.0
 11
-318.259443
 21
253.373822
 31
0.0
  0
LINE
  5
567
100
AcDbEntity
  8
2
 62
     2
100
AcDbLine
 10
-318.65233
 20
254.293476
 30
0.0
 11
-317.560728
 21
253.66324
 31
0.0
  0
LINE
  5
568
100
AcDbEntity
  8
2
 62
     2
100
AcDbLine
 10
-317.560728
 20
253.66324
 30
0.0
 11
-317.560728
 21
253.66324
 31
0.0
  0
LINE
  5
569
100
AcDbEntity
  8
2
 62
     2
100
AcDbLine
 10
-317.506096
 20
254.324518
 30
0.0
 11
-316.862014
 21
253.952657
 31
0.0
  0
LINE
  5
56A
100
AcDbEntity
  8
2
 62
     2
100
AcDbLine
 10
-316.862014
 20
253.952657
 30
0.0
 11
-316.862014
 21
253.952657
 31
0.0
  0
LINE
  5
56B
100
AcDbEntity
  8
2
 62
     2
100
AcDbLine
 10
-316.306096
 20
254.324518
 30
0.0
 11
-316.292294
 21
254.316549
 31
0.0
  0
LINE
  5
56C
100
AcDbEntity
  8
2
 62
     2
100
AcDbLine
 10
-320.748474
 20
253.425224
 30
0.0
 11
-319.656873
 21
252.794988
 31
0.0
  0
LINE
  5
56D
100
AcDbEntity
  8
2
 62
     2
100
AcDbLine
 10
-319.656873
 20
252.794988
 30
0.0
 11
-319.656873
 21
252.794988
 31
0.0
  0
LINE
  5
56E
100
AcDbEntity
  8
2
 62
     2
100
AcDbLine
 10
-321.447189
 20
253.135807
 30
0.0
 11
-320.355588
 21
252.505571
 31
0.0
  0
LINE
  5
56F
100
AcDbEntity
  8
2
 62
     2
100
AcDbLine
 10
-320.355588
 20
252.505571
 30
0.0
 11
-320.355588
 21
252.505571
 31
0.0
  0
LINE
  5
570
100
AcDbEntity
  8
2
 62
     2
100
AcDbLine
 10
-321.549238
 20
252.501905
 30
0.0
 11
-321.054302
 21
252.216154
 31
0.0
  0
LINE
  5
571
100
AcDbEntity
  8
2
 62
     2
100
AcDbLine
 10
-321.054302
 20
252.216154
 30
0.0
 11
-321.054302
 21
252.216154
 31
0.0
  0
LINE
  5
572
100
AcDbEntity
  8
2
  6
CENTER
 62
     2
100
AcDbLine
 10
-373.637876
 20
308.824518
 30
0.0
 11
-356.988329
 21
308.824518
 31
0.0
  0
LINE
  5
573
100
AcDbEntity
  8
2
  6
CENTER
 62
     2
100
AcDbLine
 10
-229.270155
 20
308.824518
 30
0.0
 11
-210.834799
 21
308.824518
 31
0.0
  0
LINE
  5
574
100
AcDbEntity
  8
2
  6
CENTER
 62
     2
100
AcDbLine
 10
-366.164223
 20
213.730413
 30
0.0
 11
-366.164223
 21
228.747564
 31
0.0
  0
LINE
  5
575
100
AcDbEntity
  8
2
  6
CENTER
 62
     2
100
AcDbLine
 10
-366.164223
 20
301.384939
 30
0.0
 11
-366.164223
 21
316.728536
 31
0.0
  0
LINE
  5
576
100
AcDbEntity
  8
2
  6
CENTER
 62
     2
100
AcDbLine
 10
-372.821699
 20
220.824518
 30
0.0
 11
-358.947092
 21
220.824518
 31
0.0
  0
LINE
  5
577
100
AcDbEntity
  8
2
  6
CENTER
 62
     2
100
AcDbLine
 10
-229.512701
 20
220.824518
 30
0.0
 11
-211.319952
 21
220.824518
 31
0.0
  0
LINE
  5
578
100
AcDbEntity
  8
2
  6
CENTER
 62
     2
100
AcDbLine
 10
-220.164223
 20
212.056356
 30
0.0
 11
-220.164223
 21
229.521413
 31
0.0
  0
LINE
  5
579
100
AcDbEntity
  8
2
  6
CENTER
 62
     2
100
AcDbLine
 10
-220.164223
 20
299.62383
 30
0.0
 11
-220.164223
 21
316.846273
 31
0.0
  0
ARC
  5
57A
100
AcDbEntity
  8
2
  6
CENTER
 62
     2
100
AcDbCircle
 10
-299.164223
 20
261.824518
 30
0.0
 40
37.5
100
AcDbArc
 50
126.361503
 51
143.885033
  0
ARC
  5
57B
100
AcDbEntity
  8
2
  6
CENTER
 62
     2
100
AcDbCircle
 10
-299.164223
 20
261.824518
 30
0.0
 40
37.5
100
AcDbArc
 50
216.93331
 51
233.416879
  0
ARC
  5
57C
100
AcDbEntity
  8
2
  6
CENTER
 62
     2
100
AcDbCircle
 10
-299.164223
 20
261.824518
 30
0.0
 40
37.5
100
AcDbArc
 50
306.278748
 51
323.822644
  0
ARC
  5
57D
100
AcDbEntity
  8
2
  6
CENTER
 62
     2
100
AcDbCircle
 10
-299.164223
 20
261.824518
 30
0.0
 40
37.5
100
AcDbArc
 50
36.280641
 51
53.737219
  0
LINE
  5
57E
100
AcDbEntity
  8
2
  6
CENTER
 62
     2
100
AcDbLine
 10
-330.003509
 20
230.985231
 30
0.0
 11
-321.952909
 21
239.035831
 31
0.0
  0
LINE
  5
57F
100
AcDbEntity
  8
2
  6
CENTER
 62
     2
100
AcDbLine
 10
-276.77337
 20
284.215371
 30
0.0
 11
-268.226996
 21
292.761744
 31
0.0
  0
LINE
  5
580
100
AcDbEntity
  8
2
  6
CENTER
 62
     2
100
AcDbLine
 10
-330.057842
 20
292.718137
 30
0.0
 11
-321.70685
 21
284.367145
 31
0.0
  0
LINE
  5
581
100
AcDbEntity
  8
2
  6
CENTER
 62
     2
100
AcDbLine
 10
-276.592139
 20
239.252434
 30
0.0
 11
-268.461076
 21
231.12137
 31
0.0
  0
CIRCLE
  5
582
100
AcDbEntity
  8
2
100
AcDbCircle
 10
-220.164223
 20
220.824518
 30
0.0
 40
4.5
  0
LINE
  5
583
100
AcDbEntity
  8
2
100
AcDbLine
 10
-217.714223
 20
221.324518
 30
0.0
 11
-217.714223
 21
220.324518
 31
0.0
  0
LINE
  5
584
100
AcDbEntity
  8
2
100
AcDbLine
 10
-222.614223
 20
221.324518
 30
0.0
 11
-222.614223
 21
220.324518
 31
0.0
  0
LINE
  5
585
100
AcDbEntity
  8
2
100
AcDbLine
 10
-220.664223
 20
223.274518
 30
0.0
 11
-219.664223
 21
223.274518
 31
0.0
  0
LINE
  5
586
100
AcDbEntity
  8
2
100
AcDbLine
 10
-220.664223
 20
218.374518
 30
0.0
 11
-219.664223
 21
218.374518
 31
0.0
  0
LINE
  5
587
100
AcDbEntity
  8
2
100
AcDbLine
 10
-222.614223
 20
221.324518
 30
0.0
 11
-221.464223
 21
221.324518
 31
0.0
  0
LINE
  5
588
100
AcDbEntity
  8
2
100
AcDbLine
 10
-218.864223
 20
221.324518
 30
0.0
 11
-217.714223
 21
221.324518
 31
0.0
  0
LINE
  5
589
100
AcDbEntity
  8
2
100
AcDbLine
 10
-222.614223
 20
220.324518
 30
0.0
 11
-221.464223
 21
220.324518
 31
0.0
  0
LINE
  5
58A
100
AcDbEntity
  8
2
100
AcDbLine
 10
-218.864223
 20
220.324518
 30
0.0
 11
-217.714223
 21
220.324518
 31
0.0
  0
LINE
  5
58B
100
AcDbEntity
  8
2
100
AcDbLine
 10
-219.664223
 20
218.374518
 30
0.0
 11
-219.664223
 21
219.524518
 31
0.0
  0
LINE
  5
58C
100
AcDbEntity
  8
2
100
AcDbLine
 10
-219.664223
 20
222.124518
 30
0.0
 11
-219.664223
 21
223.274518
 31
0.0
  0
LINE
  5
58D
100
AcDbEntity
  8
2
100
AcDbLine
 10
-220.664223
 20
218.374518
 30
0.0
 11
-220.664223
 21
219.524518
 31
0.0
  0
LINE
  5
58E
100
AcDbEntity
  8
2
100
AcDbLine
 10
-220.664223
 20
222.124518
 30
0.0
 11
-220.664223
 21
223.274518
 31
0.0
  0
ARC
  5
58F
100
AcDbEntity
  8
2
100
AcDbCircle
 10
-221.464223
 20
222.124518
 30
0.0
 40
0.8
100
AcDbArc
 50
270.0
 51
360.0
  0
ARC
  5
590
100
AcDbEntity
  8
2
100
AcDbCircle
 10
-218.864223
 20
222.124518
 30
0.0
 40
0.8
100
AcDbArc
 50
180.0
 51
270.0
  0
ARC
  5
591
100
AcDbEntity
  8
2
100
AcDbCircle
 10
-218.864223
 20
219.524518
 30
0.0
 40
0.8
100
AcDbArc
 50
90.0
 51
180.0
  0
ARC
  5
592
100
AcDbEntity
  8
2
100
AcDbCircle
 10
-221.464223
 20
219.524518
 30
0.0
 40
0.8
100
AcDbArc
 50
0.0
 51
90.0
  0
CIRCLE
  5
593
100
AcDbEntity
  8
2
100
AcDbCircle
 10
-220.164223
 20
308.824518
 30
0.0
 40
4.5
  0
LINE
  5
594
100
AcDbEntity
  8
2
100
AcDbLine
 10
-217.714223
 20
309.324518
 30
0.0
 11
-217.714223
 21
308.324518
 31
0.0
  0
LINE
  5
595
100
AcDbEntity
  8
2
100
AcDbLine
 10
-222.614223
 20
309.324518
 30
0.0
 11
-222.614223
 21
308.324518
 31
0.0
  0
LINE
  5
596
100
AcDbEntity
  8
2
100
AcDbLine
 10
-220.664223
 20
311.274518
 30
0.0
 11
-219.664223
 21
311.274518
 31
0.0
  0
LINE
  5
597
100
AcDbEntity
  8
2
100
AcDbLine
 10
-220.664223
 20
306.374518
 30
0.0
 11
-219.664223
 21
306.374518
 31
0.0
  0
LINE
  5
598
100
AcDbEntity
  8
2
100
AcDbLine
 10
-222.614223
 20
309.324518
 30
0.0
 11
-221.464223
 21
309.324518
 31
0.0
  0
LINE
  5
599
100
AcDbEntity
  8
2
100
AcDbLine
 10
-218.864223
 20
309.324518
 30
0.0
 11
-217.714223
 21
309.324518
 31
0.0
  0
LINE
  5
59A
100
AcDbEntity
  8
2
100
AcDbLine
 10
-222.614223
 20
308.324518
 30
0.0
 11
-221.464223
 21
308.324518
 31
0.0
  0
LINE
  5
59B
100
AcDbEntity
  8
2
100
AcDbLine
 10
-218.864223
 20
308.324518
 30
0.0
 11
-217.714223
 21
308.324518
 31
0.0
  0
LINE
  5
59C
100
AcDbEntity
  8
2
100
AcDbLine
 10
-219.664223
 20
306.374518
 30
0.0
 11
-219.664223
 21
307.524518
 31
0.0
  0
LINE
  5
59D
100
AcDbEntity
  8
2
100
AcDbLine
 10
-219.664223
 20
310.124518
 30
0.0
 11
-219.664223
 21
311.274518
 31
0.0
  0
LINE
  5
59E
100
AcDbEntity
  8
2
100
AcDbLine
 10
-220.664223
 20
306.374518
 30
0.0
 11
-220.664223
 21
307.524518
 31
0.0
  0
LINE
  5
59F
100
AcDbEntity
  8
2
100
AcDbLine
 10
-220.664223
 20
310.124518
 30
0.0
 11
-220.664223
 21
311.274518
 31
0.0
  0
ARC
  5
5A0
100
AcDbEntity
  8
2
100
AcDbCircle
 10
-221.464223
 20
310.124518
 30
0.0
 40
0.8
100
AcDbArc
 50
270.0
 51
360.0
  0
ARC
  5
5A1
100
AcDbEntity
  8
2
100
AcDbCircle
 10
-218.864223
 20
310.124518
 30
0.0
 40
0.8
100
AcDbArc
 50
180.0
 51
270.0
  0
ARC
  5
5A2
100
AcDbEntity
  8
2
100
AcDbCircle
 10
-218.864223
 20
307.524518
 30
0.0
 40
0.8
100
AcDbArc
 50
90.0
 51
180.0
  0
ARC
  5
5A3
100
AcDbEntity
  8
2
100
AcDbCircle
 10
-221.464223
 20
307.524518
 30
0.0
 40
0.8
100
AcDbArc
 50
0.0
 51
90.0
  0
CIRCLE
  5
5A4
100
AcDbEntity
  8
2
100
AcDbCircle
 10
-366.164223
 20
220.824518
 30
0.0
 40
4.5
  0
LINE
  5
5A5
100
AcDbEntity
  8
2
100
AcDbLine
 10
-363.714223
 20
221.324518
 30
0.0
 11
-363.714223
 21
220.324518
 31
0.0
  0
LINE
  5
5A6
100
AcDbEntity
  8
2
100
AcDbLine
 10
-368.614223
 20
221.324518
 30
0.0
 11
-368.614223
 21
220.324518
 31
0.0
  0
LINE
  5
5A7
100
AcDbEntity
  8
2
100
AcDbLine
 10
-366.664223
 20
223.274518
 30
0.0
 11
-365.664223
 21
223.274518
 31
0.0
  0
LINE
  5
5A8
100
AcDbEntity
  8
2
100
AcDbLine
 10
-366.664223
 20
218.374518
 30
0.0
 11
-365.664223
 21
218.374518
 31
0.0
  0
LINE
  5
5A9
100
AcDbEntity
  8
2
100
AcDbLine
 10
-368.614223
 20
221.324518
 30
0.0
 11
-367.464223
 21
221.324518
 31
0.0
  0
LINE
  5
5AA
100
AcDbEntity
  8
2
100
AcDbLine
 10
-364.864223
 20
221.324518
 30
0.0
 11
-363.714223
 21
221.324518
 31
0.0
  0
LINE
  5
5AB
100
AcDbEntity
  8
2
100
AcDbLine
 10
-368.614223
 20
220.324518
 30
0.0
 11
-367.464223
 21
220.324518
 31
0.0
  0
LINE
  5
5AC
100
AcDbEntity
  8
2
100
AcDbLine
 10
-364.864223
 20
220.324518
 30
0.0
 11
-363.714223
 21
220.324518
 31
0.0
  0
LINE
  5
5AD
100
AcDbEntity
  8
2
100
AcDbLine
 10
-365.664223
 20
218.374518
 30
0.0
 11
-365.664223
 21
219.524518
 31
0.0
  0
LINE
  5
5AE
100
AcDbEntity
  8
2
100
AcDbLine
 10
-365.664223
 20
222.124518
 30
0.0
 11
-365.664223
 21
223.274518
 31
0.0
  0
LINE
  5
5AF
100
AcDbEntity
  8
2
100
AcDbLine
 10
-366.664223
 20
218.374518
 30
0.0
 11
-366.664223
 21
219.524518
 31
0.0
  0
LINE
  5
5B0
100
AcDbEntity
  8
2
100
AcDbLine
 10
-366.664223
 20
222.124518
 30
0.0
 11
-366.664223
 21
223.274518
 31
0.0
  0
ARC
  5
5B1
100
AcDbEntity
  8
2
100
AcDbCircle
 10
-367.464223
 20
222.124518
 30
0.0
 40
0.8
100
AcDbArc
 50
270.0
 51
360.0
  0
ARC
  5
5B2
100
AcDbEntity
  8
2
100
AcDbCircle
 10
-364.864223
 20
222.124518
 30
0.0
 40
0.8
100
AcDbArc
 50
180.0
 51
270.0
  0
ARC
  5
5B3
100
AcDbEntity
  8
2
100
AcDbCircle
 10
-364.864223
 20
219.524518
 30
0.0
 40
0.8
100
AcDbArc
 50
90.0
 51
180.0
  0
ARC
  5
5B4
100
AcDbEntity
  8
2
100
AcDbCircle
 10
-367.464223
 20
219.524518
 30
0.0
 40
0.8
100
AcDbArc
 50
0.0
 51
90.0
  0
CIRCLE
  5
5B5
100
AcDbEntity
  8
2
100
AcDbCircle
 10
-366.164223
 20
308.824518
 30
0.0
 40
4.5
  0
LINE
  5
5B6
100
AcDbEntity
  8
2
100
AcDbLine
 10
-363.714223
 20
309.324518
 30
0.0
 11
-363.714223
 21
308.324518
 31
0.0
  0
LINE
  5
5B7
100
AcDbEntity
  8
2
100
AcDbLine
 10
-368.614223
 20
309.324518
 30
0.0
 11
-368.614223
 21
308.324518
 31
0.0
  0
LINE
  5
5B8
100
AcDbEntity
  8
2
100
AcDbLine
 10
-366.664223
 20
311.274518
 30
0.0
 11
-365.664223
 21
311.274518
 31
0.0
  0
LINE
  5
5B9
100
AcDbEntity
  8
2
100
AcDbLine
 10
-366.664223
 20
306.374518
 30
0.0
 11
-365.664223
 21
306.374518
 31
0.0
  0
LINE
  5
5BA
100
AcDbEntity
  8
2
100
AcDbLine
 10
-368.614223
 20
309.324518
 30
0.0
 11
-367.464223
 21
309.324518
 31
0.0
  0
LINE
  5
5BB
100
AcDbEntity
  8
2
100
AcDbLine
 10
-364.864223
 20
309.324518
 30
0.0
 11
-363.714223
 21
309.324518
 31
0.0
  0
LINE
  5
5BC
100
AcDbEntity
  8
2
100
AcDbLine
 10
-368.614223
 20
308.324518
 30
0.0
 11
-367.464223
 21
308.324518
 31
0.0
  0
LINE
  5
5BD
100
AcDbEntity
  8
2
100
AcDbLine
 10
-364.864223
 20
308.324518
 30
0.0
 11
-363.714223
 21
308.324518
 31
0.0
  0
LINE
  5
5BE
100
AcDbEntity
  8
2
100
AcDbLine
 10
-365.664223
 20
306.374518
 30
0.0
 11
-365.664223
 21
307.524518
 31
0.0
  0
LINE
  5
5BF
100
AcDbEntity
  8
2
100
AcDbLine
 10
-365.664223
 20
310.124518
 30
0.0
 11
-365.664223
 21
311.274518
 31
0.0
  0
LINE
  5
5C0
100
AcDbEntity
  8
2
100
AcDbLine
 10
-366.664223
 20
306.374518
 30
0.0
 11
-366.664223
 21
307.524518
 31
0.0
  0
LINE
  5
5C1
100
AcDbEntity
  8
2
100
AcDbLine
 10
-366.664223
 20
310.124518
 30
0.0
 11
-366.664223
 21
311.274518
 31
0.0
  0
ARC
  5
5C2
100
AcDbEntity
  8
2
100
AcDbCircle
 10
-367.464223
 20
310.124518
 30
0.0
 40
0.8
100
AcDbArc
 50
270.0
 51
360.0
  0
ARC
  5
5C3
100
AcDbEntity
  8
2
100
AcDbCircle
 10
-364.864223
 20
310.124518
 30
0.0
 40
0.8
100
AcDbArc
 50
180.0
 51
270.0
  0
ARC
  5
5C4
100
AcDbEntity
  8
2
100
AcDbCircle
 10
-364.864223
 20
307.524518
 30
0.0
 40
0.8
100
AcDbArc
 50
90.0
 51
180.0
  0
ARC
  5
5C5
100
AcDbEntity
  8
2
100
AcDbCircle
 10
-367.464223
 20
307.524518
 30
0.0
 40
0.8
100
AcDbArc
 50
0.0
 51
90.0
  0
CIRCLE
  5
5C6
100
AcDbEntity
  8
2
100
AcDbCircle
 10
-272.647719
 20
235.308013
 30
0.0
 40
3.5
  0
LINE
  5
5C7
100
AcDbEntity
  8
2
100
AcDbLine
 10
-271.516348
 20
237.146491
 30
0.0
 11
-270.809241
 21
236.439384
 31
0.0
  0
LINE
  5
5C8
100
AcDbEntity
  8
2
100
AcDbLine
 10
-274.486197
 20
234.176642
 30
0.0
 11
-273.77909
 21
233.469536
 31
0.0
  0
LINE
  5
5C9
100
AcDbEntity
  8
2
100
AcDbLine
 10
-273.77909
 20
237.146491
 30
0.0
 11
-274.486197
 21
236.439384
 31
0.0
  0
LINE
  5
5CA
100
AcDbEntity
  8
2
100
AcDbLine
 10
-270.809241
 20
234.176642
 30
0.0
 11
-271.516348
 21
233.469536
 31
0.0
  0
LINE
  5
5CB
100
AcDbEntity
  8
2
100
AcDbLine
 10
-273.77909
 20
233.469536
 30
0.0
 11
-273.213404
 21
234.035221
 31
0.0
  0
LINE
  5
5CC
100
AcDbEntity
  8
2
100
AcDbLine
 10
-271.374927
 20
235.873699
 30
0.0
 11
-270.809241
 21
236.439384
 31
0.0
  0
LINE
  5
5CD
100
AcDbEntity
  8
2
100
AcDbLine
 10
-274.486197
 20
234.176642
 30
0.0
 11
-273.920511
 21
234.742328
 31
0.0
  0
LINE
  5
5CE
100
AcDbEntity
  8
2
100
AcDbLine
 10
-272.082033
 20
236.580806
 30
0.0
 11
-271.516348
 21
237.146491
 31
0.0
  0
LINE
  5
5CF
100
AcDbEntity
  8
2
100
AcDbLine
 10
-274.486197
 20
236.439384
 30
0.0
 11
-273.920511
 21
235.873699
 31
0.0
  0
LINE
  5
5D0
100
AcDbEntity
  8
2
100
AcDbLine
 10
-272.082033
 20
234.035221
 30
0.0
 11
-271.516348
 21
233.469536
 31
0.0
  0
LINE
  5
5D1
100
AcDbEntity
  8
2
100
AcDbLine
 10
-273.77909
 20
237.146491
 30
0.0
 11
-273.213404
 21
236.580806
 31
0.0
  0
LINE
  5
5D2
100
AcDbEntity
  8
2
100
AcDbLine
 10
-271.374927
 20
234.742328
 30
0.0
 11
-270.809241
 21
234.176642
 31
0.0
  0
ARC
  5
5D3
100
AcDbEntity
  8
2
100
AcDbCircle
 10
-272.647719
 20
237.146491
 30
0.0
 40
0.8
100
AcDbArc
 50
225.0
 51
315.0
  0
ARC
  5
5D4
100
AcDbEntity
  8
2
100
AcDbCircle
 10
-274.486197
 20
235.308013
 30
0.0
 40
0.8
100
AcDbArc
 50
315.0
 51
45.0
  0
ARC
  5
5D5
100
AcDbEntity
  8
2
100
AcDbCircle
 10
-272.647719
 20
233.469536
 30
0.0
 40
0.8
100
AcDbArc
 50
45.0
 51
135.0
  0
ARC
  5
5D6
100
AcDbEntity
  8
2
100
AcDbCircle
 10
-270.809241
 20
235.308013
 30
0.0
 40
0.8
100
AcDbArc
 50
135.0
 51
225.0
  0
CIRCLE
  5
5D7
100
AcDbEntity
  8
2
100
AcDbCircle
 10
-272.647719
 20
288.341022
 30
0.0
 40
3.5
  0
LINE
  5
5D8
100
AcDbEntity
  8
2
100
AcDbLine
 10
-271.516348
 20
290.1795
 30
0.0
 11
-270.809241
 21
289.472393
 31
0.0
  0
LINE
  5
5D9
100
AcDbEntity
  8
2
100
AcDbLine
 10
-274.486197
 20
287.209651
 30
0.0
 11
-273.77909
 21
286.502544
 31
0.0
  0
LINE
  5
5DA
100
AcDbEntity
  8
2
100
AcDbLine
 10
-273.77909
 20
290.1795
 30
0.0
 11
-274.486197
 21
289.472393
 31
0.0
  0
LINE
  5
5DB
100
AcDbEntity
  8
2
100
AcDbLine
 10
-270.809241
 20
287.209651
 30
0.0
 11
-271.516348
 21
286.502544
 31
0.0
  0
LINE
  5
5DC
100
AcDbEntity
  8
2
100
AcDbLine
 10
-273.77909
 20
286.502544
 30
0.0
 11
-273.213404
 21
287.06823
 31
0.0
  0
LINE
  5
5DD
100
AcDbEntity
  8
2
100
AcDbLine
 10
-271.374927
 20
288.906707
 30
0.0
 11
-270.809241
 21
289.472393
 31
0.0
  0
LINE
  5
5DE
100
AcDbEntity
  8
2
100
AcDbLine
 10
-274.486197
 20
287.209651
 30
0.0
 11
-273.920511
 21
287.775336
 31
0.0
  0
LINE
  5
5DF
100
AcDbEntity
  8
2
100
AcDbLine
 10
-272.082033
 20
289.613814
 30
0.0
 11
-271.516348
 21
290.1795
 31
0.0
  0
LINE
  5
5E0
100
AcDbEntity
  8
2
100
AcDbLine
 10
-274.486197
 20
289.472393
 30
0.0
 11
-273.920511
 21
288.906707
 31
0.0
  0
LINE
  5
5E1
100
AcDbEntity
  8
2
100
AcDbLine
 10
-272.082033
 20
287.06823
 30
0.0
 11
-271.516348
 21
286.502544
 31
0.0
  0
LINE
  5
5E2
100
AcDbEntity
  8
2
100
AcDbLine
 10
-273.77909
 20
290.1795
 30
0.0
 11
-273.213404
 21
289.613814
 31
0.0
  0
LINE
  5
5E3
100
AcDbEntity
  8
2
100
AcDbLine
 10
-271.374927
 20
287.775336
 30
0.0
 11
-270.809241
 21
287.209651
 31
0.0
  0
ARC
  5
5E4
100
AcDbEntity
  8
2
100
AcDbCircle
 10
-272.647719
 20
290.1795
 30
0.0
 40
0.8
100
AcDbArc
 50
225.0
 51
315.0
  0
ARC
  5
5E5
100
AcDbEntity
  8
2
100
AcDbCircle
 10
-274.486197
 20
288.341022
 30
0.0
 40
0.8
100
AcDbArc
 50
315.0
 51
45.0
  0
ARC
  5
5E6
100
AcDbEntity
  8
2
100
AcDbCircle
 10
-272.647719
 20
286.502544
 30
0.0
 40
0.8
100
AcDbArc
 50
45.0
 51
135.0
  0
ARC
  5
5E7
100
AcDbEntity
  8
2
100
AcDbCircle
 10
-270.809241
 20
288.341022
 30
0.0
 40
0.8
100
AcDbArc
 50
135.0
 51
225.0
  0
CIRCLE
  5
5E8
100
AcDbEntity
  8
2
100
AcDbCircle
 10
-325.680727
 20
235.308013
 30
0.0
 40
3.5
  0
LINE
  5
5E9
100
AcDbEntity
  8
2
100
AcDbLine
 10
-324.549357
 20
237.146491
 30
0.0
 11
-323.84225
 21
236.439384
 31
0.0
  0
LINE
  5
5EA
100
AcDbEntity
  8
2
100
AcDbLine
 10
-327.519205
 20
234.176642
 30
0.0
 11
-326.812098
 21
233.469536
 31
0.0
  0
LINE
  5
5EB
100
AcDbEntity
  8
2
100
AcDbLine
 10
-326.812098
 20
237.146491
 30
0.0
 11
-327.519205
 21
236.439384
 31
0.0
  0
LINE
  5
5EC
100
AcDbEntity
  8
2
100
AcDbLine
 10
-323.84225
 20
234.176642
 30
0.0
 11
-324.549357
 21
233.469536
 31
0.0
  0
LINE
  5
5ED
100
AcDbEntity
  8
2
100
AcDbLine
 10
-326.812098
 20
233.469536
 30
0.0
 11
-326.246413
 21
234.035221
 31
0.0
  0
LINE
  5
5EE
100
AcDbEntity
  8
2
100
AcDbLine
 10
-324.407935
 20
235.873699
 30
0.0
 11
-323.84225
 21
236.439384
 31
0.0
  0
LINE
  5
5EF
100
AcDbEntity
  8
2
100
AcDbLine
 10
-327.519205
 20
234.176642
 30
0.0
 11
-326.95352
 21
234.742328
 31
0.0
  0
LINE
  5
5F0
100
AcDbEntity
  8
2
100
AcDbLine
 10
-325.115042
 20
236.580806
 30
0.0
 11
-324.549357
 21
237.146491
 31
0.0
  0
LINE
  5
5F1
100
AcDbEntity
  8
2
100
AcDbLine
 10
-327.519205
 20
236.439384
 30
0.0
 11
-326.95352
 21
235.873699
 31
0.0
  0
LINE
  5
5F2
100
AcDbEntity
  8
2
100
AcDbLine
 10
-325.115042
 20
234.035221
 30
0.0
 11
-324.549357
 21
233.469536
 31
0.0
  0
LINE
  5
5F3
100
AcDbEntity
  8
2
100
AcDbLine
 10
-326.812098
 20
237.146491
 30
0.0
 11
-326.246413
 21
236.580806
 31
0.0
  0
LINE
  5
5F4
100
AcDbEntity
  8
2
100
AcDbLine
 10
-324.407935
 20
234.742328
 30
0.0
 11
-323.84225
 21
234.176642
 31
0.0
  0
ARC
  5
5F5
100
AcDbEntity
  8
2
100
AcDbCircle
 10
-325.680727
 20
237.146491
 30
0.0
 40
0.8
100
AcDbArc
 50
225.0
 51
315.0
  0
ARC
  5
5F6
100
AcDbEntity
  8
2
100
AcDbCircle
 10
-327.519205
 20
235.308013
 30
0.0
 40
0.8
100
AcDbArc
 50
315.0
 51
45.0
  0
ARC
  5
5F7
100
AcDbEntity
  8
2
100
AcDbCircle
 10
-325.680727
 20
233.469536
 30
0.0
 40
0.8
100
AcDbArc
 50
45.0
 51
135.0
  0
ARC
  5
5F8
100
AcDbEntity
  8
2
100
AcDbCircle
 10
-323.84225
 20
235.308013
 30
0.0
 40
0.8
100
AcDbArc
 50
135.0
 51
225.0
  0
CIRCLE
  5
5F9
100
AcDbEntity
  8
2
100
AcDbCircle
 10
-325.680727
 20
288.341022
 30
0.0
 40
3.5
  0
LINE
  5
5FA
100
AcDbEntity
  8
2
100
AcDbLine
 10
-324.549357
 20
290.1795
 30
0.0
 11
-323.84225
 21
289.472393
 31
0.0
  0
LINE
  5
5FB
100
AcDbEntity
  8
2
100
AcDbLine
 10
-327.519205
 20
287.209651
 30
0.0
 11
-326.812098
 21
286.502544
 31
0.0
  0
LINE
  5
5FC
100
AcDbEntity
  8
2
100
AcDbLine
 10
-326.812098
 20
290.1795
 30
0.0
 11
-327.519205
 21
289.472393
 31
0.0
  0
LINE
  5
5FD
100
AcDbEntity
  8
2
100
AcDbLine
 10
-323.84225
 20
287.209651
 30
0.0
 11
-324.549357
 21
286.502544
 31
0.0
  0
LINE
  5
5FE
100
AcDbEntity
  8
2
100
AcDbLine
 10
-326.812098
 20
286.502544
 30
0.0
 11
-326.246413
 21
287.06823
 31
0.0
  0
LINE
  5
5FF
100
AcDbEntity
  8
2
100
AcDbLine
 10
-324.407935
 20
288.906707
 30
0.0
 11
-323.84225
 21
289.472393
 31
0.0
  0
LINE
  5
600
100
AcDbEntity
  8
2
100
AcDbLine
 10
-327.519205
 20
287.209651
 30
0.0
 11
-326.95352
 21
287.775336
 31
0.0
  0
LINE
  5
601
100
AcDbEntity
  8
2
100
AcDbLine
 10
-325.115042
 20
289.613814
 30
0.0
 11
-324.549357
 21
290.1795
 31
0.0
  0
LINE
  5
602
100
AcDbEntity
  8
2
100
AcDbLine
 10
-327.519205
 20
289.472393
 30
0.0
 11
-326.95352
 21
288.906707
 31
0.0
  0
LINE
  5
603
100
AcDbEntity
  8
2
100
AcDbLine
 10
-325.115042
 20
287.06823
 30
0.0
 11
-324.549357
 21
286.502544
 31
0.0
  0
LINE
  5
604
100
AcDbEntity
  8
2
100
AcDbLine
 10
-326.812098
 20
290.1795
 30
0.0
 11
-326.246413
 21
289.613814
 31
0.0
  0
LINE
  5
605
100
AcDbEntity
  8
2
100
AcDbLine
 10
-324.407935
 20
287.775336
 30
0.0
 11
-323.84225
 21
287.209651
 31
0.0
  0
ARC
  5
606
100
AcDbEntity
  8
2
100
AcDbCircle
 10
-325.680727
 20
290.1795
 30
0.0
 40
0.8
100
AcDbArc
 50
225.0
 51
315.0
  0
ARC
  5
607
100
AcDbEntity
  8
2
100
AcDbCircle
 10
-327.519205
 20
288.341022
 30
0.0
 40
0.8
100
AcDbArc
 50
315.0
 51
45.0
  0
ARC
  5
608
100
AcDbEntity
  8
2
100
AcDbCircle
 10
-325.680727
 20
286.502544
 30
0.0
 40
0.8
100
AcDbArc
 50
45.0
 51
135.0
  0
ARC
  5
609
100
AcDbEntity
  8
2
100
AcDbCircle
 10
-323.84225
 20
288.341022
 30
0.0
 40
0.8
100
AcDbArc
 50
135.0
 51
225.0
  0
LINE
  5
60A
100
AcDbEntity
  8
2
100
AcDbLine
 10
-217.66377
 20
228.824518
 30
0.0
 11
-217.66377
 21
300.824518
 31
0.0
  0
LINE
  5
60B
100
AcDbEntity
  8
2
100
AcDbLine
 10
-358.164223
 20
218.324518
 30
0.0
 11
-228.164223
 21
218.324518
 31
0.0
  0
LINE
  5
60C
100
AcDbEntity
  8
2
100
AcDbLine
 10
-358.164223
 20
311.324518
 30
0.0
 11
-228.164223
 21
311.324518
 31
0.0
  0
TEXT
  5
60D
100
AcDbEntity
  8
2
100
AcDbText
 10
-293.744738
 20
238.810844
 30
0.0
 40
7.6
  1
Ｓ
 50
22.5
 72
     5
 11
-288.12755
 21
241.137559
 31
0.0
100
AcDbText
  0
TEXT
  5
60E
100
AcDbEntity
  8
2
100
AcDbText
 10
-293.343919
 20
238.908932
 30
0.0
 40
7.6
  1
Ｓ
 50
23.5
 72
     5
 11
-287.768194
 21
241.333326
 31
0.0
100
AcDbText
  0
TEXT
  5
60F
100
AcDbEntity
  8
2
100
AcDbText
 10
-294.147207
 20
238.719766
 30
0.0
 40
7.6
  1
Ｓ
 50
21.5
 72
     5
 11
-288.490268
 21
240.948093
 31
0.0
100
AcDbText
  0
TEXT
  5
610
100
AcDbEntity
  8
2
100
AcDbText
 10
-304.583709
 20
284.838191
 30
0.0
 40
7.6
  1
Ｓ
 50
202.5
 72
     5
 11
-310.200896
 21
282.511476
 31
0.0
100
AcDbText
  0
TEXT
  5
611
100
AcDbEntity
  8
2
100
AcDbText
 10
-304.984527
 20
284.740103
 30
0.0
 40
7.6
  1
Ｓ
 50
203.5
 72
     5
 11
-310.560252
 21
282.315709
 31
0.0
100
AcDbText
  0
TEXT
  5
612
100
AcDbEntity
  8
2
100
AcDbText
 10
-304.181239
 20
284.929269
 30
0.0
 40
7.6
  1
Ｓ
 50
201.5
 72
     5
 11
-309.838178
 21
282.700942
 31
0.0
100
AcDbText
  0
LINE
  5
613
100
AcDbEntity
  8
2
100
AcDbLine
 10
-206.164223
 20
304.824518
 30
0.0
 11
-205.164223
 21
303.824518
 31
0.0
  0
LINE
  5
614
100
AcDbEntity
  8
2
100
AcDbLine
 10
-210.164223
 20
220.824518
 30
0.0
 11
-210.164223
 21
308.824518
 31
0.0
  0
ARC
  5
615
100
AcDbEntity
  8
2
100
AcDbCircle
 10
-229.664223
 20
212.824518
 30
0.0
 40
2.0
100
AcDbArc
 50
143.237457
 51
180.0
  0
LINE
  5
616
100
AcDbEntity
  8
2
100
AcDbLine
 10
-216.164223
 20
214.824518
 30
0.0
 11
-368.164223
 21
214.824518
 31
0.0
  0
ARC
  5
617
100
AcDbEntity
  8
2
100
AcDbCircle
 10
-219.164223
 20
219.824518
 30
0.0
 40
5.0
100
AcDbArc
 50
270.0
 51
360.0
  0
LINE
  5
618
100
AcDbEntity
  8
2
100
AcDbLine
 10
-214.164223
 20
308.824518
 30
0.0
 11
-214.164223
 21
219.824518
 31
0.0
  0
LINE
  5
619
100
AcDbEntity
  8
2
100
AcDbLine
 10
-374.164223
 20
308.824518
 30
0.0
 11
-374.164223
 21
220.824518
 31
0.0
  0
ARC
  5
61A
100
AcDbEntity
  8
2
100
AcDbCircle
 10
-368.164223
 20
220.824518
 30
0.0
 40
6.0
100
AcDbArc
 50
180.0
 51
270.0
  0
LINE
  5
61B
100
AcDbEntity
  8
2
100
AcDbLine
 10
-374.164223
 20
220.824518
 30
0.0
 11
-374.164223
 21
223.824518
 31
0.0
  0
LINE
  5
61C
100
AcDbEntity
  8
2
100
AcDbLine
 10
-372.282223
 20
314.824518
 30
0.0
 11
-216.164223
 21
314.824518
 31
0.0
  0
ARC
  5
61D
100
AcDbEntity
  8
2
100
AcDbCircle
 10
-220.164223
 20
308.824518
 30
0.0
 40
6.0
100
AcDbArc
 50
0.0
 51
90.0
  0
ARC
  5
61E
100
AcDbEntity
  8
2
100
AcDbCircle
 10
-368.164223
 20
308.824518
 30
0.0
 40
6.0
100
AcDbArc
 50
90.0
 51
180.0
  0
LINE
  5
61F
100
AcDbEntity
  8
2
100
AcDbLine
 10
-231.664223
 20
212.824518
 30
0.0
 11
-231.664223
 21
209.824518
 31
0.0
  0
ARC
  5
620
100
AcDbEntity
  8
2
100
AcDbCircle
 10
-215.361223
 20
309.627518
 30
0.0
 40
6.0
100
AcDbArc
 50
0.0
 51
90.0
  0
ARC
  5
621
100
AcDbEntity
  8
2
100
AcDbCircle
 10
-380.964223
 20
271.824518
 30
0.0
 40
3.0
100
AcDbArc
 50
270.0
 51
333.38027
  0
ARC
  5
622
100
AcDbEntity
  8
2
100
AcDbCircle
 10
-380.964223
 20
287.824518
 30
0.0
 40
3.0
100
AcDbArc
 50
270.0
 51
333.38027
  0
ARC
  5
623
100
AcDbEntity
  8
2
100
AcDbCircle
 10
-380.964223
 20
275.824518
 30
0.0
 40
3.0
100
AcDbArc
 50
26.61973
 51
90.0
  0
ARC
  5
624
100
AcDbEntity
  8
2
100
AcDbCircle
 10
-380.964223
 20
291.824518
 30
0.0
 40
3.0
100
AcDbArc
 50
26.61973
 51
90.0
  0
LINE
  5
625
100
AcDbEntity
  8
2
 62
     2
100
AcDbLine
 10
-381.845223
 20
268.824518
 30
0.0
 11
-381.845223
 21
278.824518
 31
0.0
  0
LINE
  5
626
100
AcDbEntity
  8
2
 62
     2
100
AcDbLine
 10
-381.845223
 20
284.824518
 30
0.0
 11
-381.845223
 21
294.824518
 31
0.0
  0
LINE
  5
627
100
AcDbEntity
  8
2
 62
     2
100
AcDbLine
 10
-384.815223
 20
278.824518
 30
0.0
 11
-384.815223
 21
284.824518
 31
0.0
  0
LINE
  5
628
100
AcDbEntity
  8
2
 62
     2
100
AcDbLine
 10
-384.815223
 20
262.824518
 30
0.0
 11
-384.815223
 21
268.824518
 31
0.0
  0
LINE
  5
629
100
AcDbEntity
  8
2
100
AcDbLine
 10
-378.282223
 20
239.188908
 30
0.0
 11
-378.282223
 21
308.824518
 31
0.0
  0
ARC
  5
62A
100
AcDbEntity
  8
2
100
AcDbCircle
 10
-372.282223
 20
308.824518
 30
0.0
 40
6.0
100
AcDbArc
 50
90.0
 51
180.0
  0
LINE
  5
62B
100
AcDbEntity
  8
2
100
AcDbLine
 10
-393.164223
 20
294.824518
 30
0.0
 11
-380.964223
 21
294.824518
 31
0.0
  0
LINE
  5
62C
100
AcDbEntity
  8
2
100
AcDbLine
 10
-392.164223
 20
284.824518
 30
0.0
 11
-380.964223
 21
284.824518
 31
0.0
  0
LINE
  5
62D
100
AcDbEntity
  8
2
100
AcDbLine
 10
-392.164223
 20
278.824518
 30
0.0
 11
-380.964223
 21
278.824518
 31
0.0
  0
LINE
  5
62E
100
AcDbEntity
  8
2
100
AcDbLine
 10
-392.164223
 20
268.824518
 30
0.0
 11
-380.964223
 21
268.824518
 31
0.0
  0
LINE
  5
62F
100
AcDbEntity
  8
2
100
AcDbLine
 10
-390.414223
 20
293.824518
 30
0.0
 11
-390.414223
 21
285.824518
 31
0.0
  0
LINE
  5
630
100
AcDbEntity
  8
2
100
AcDbLine
 10
-390.414223
 20
277.824518
 30
0.0
 11
-390.414223
 21
269.824518
 31
0.0
  0
ARC
  5
631
100
AcDbEntity
  8
2
100
AcDbCircle
 10
-391.414223
 20
269.824518
 30
0.0
 40
1.0
100
AcDbArc
 50
270.0
 51
360.0
  0
ARC
  5
632
100
AcDbEntity
  8
2
100
AcDbCircle
 10
-391.414223
 20
277.824518
 30
0.0
 40
1.0
100
AcDbArc
 50
0.0
 51
90.0
  0
ARC
  5
633
100
AcDbEntity
  8
2
100
AcDbCircle
 10
-391.414223
 20
285.824518
 30
0.0
 40
1.0
100
AcDbArc
 50
270.0
 51
360.0
  0
ARC
  5
634
100
AcDbEntity
  8
2
100
AcDbCircle
 10
-391.414223
 20
293.824518
 30
0.0
 40
1.0
100
AcDbArc
 50
0.0
 51
90.0
  0
ARC
  5
635
100
AcDbEntity
  8
2
100
AcDbCircle
 10
-380.964223
 20
255.824518
 30
0.0
 40
3.0
100
AcDbArc
 50
270.0
 51
333.38027
  0
ARC
  5
636
100
AcDbEntity
  8
2
100
AcDbCircle
 10
-380.964223
 20
243.824518
 30
0.0
 40
3.0
100
AcDbArc
 50
26.61973
 51
90.0
  0
ARC
  5
637
100
AcDbEntity
  8
2
100
AcDbCircle
 10
-380.964223
 20
259.824518
 30
0.0
 40
3.0
100
AcDbArc
 50
26.61973
 51
90.0
  0
LINE
  5
638
100
AcDbEntity
  8
2
 62
     2
100
AcDbLine
 10
-381.845223
 20
236.324518
 30
0.0
 11
-381.845223
 21
246.824518
 31
0.0
  0
LINE
  5
639
100
AcDbEntity
  8
2
 62
     2
100
AcDbLine
 10
-381.845223
 20
252.824518
 30
0.0
 11
-381.845223
 21
262.824518
 31
0.0
  0
LINE
  5
63A
100
AcDbEntity
  8
2
 62
     2
100
AcDbLine
 10
-384.815223
 20
246.824518
 30
0.0
 11
-384.815223
 21
252.824518
 31
0.0
  0
LINE
  5
63B
100
AcDbEntity
  8
2
100
AcDbLine
 10
-380.390446
 20
236.324518
 30
0.0
 11
-394.164223
 21
236.324518
 31
0.0
  0
ARC
  5
63C
100
AcDbEntity
  8
2
100
AcDbCircle
 10
-391.414223
 20
237.324518
 30
0.0
 40
1.0
100
AcDbArc
 50
270.0
 51
0.0
  0
LINE
  5
63D
100
AcDbEntity
  8
2
100
AcDbLine
 10
-392.164223
 20
262.824518
 30
0.0
 11
-380.964223
 21
262.824518
 31
0.0
  0
LINE
  5
63E
100
AcDbEntity
  8
2
100
AcDbLine
 10
-392.164223
 20
252.824518
 30
0.0
 11
-380.964223
 21
252.824518
 31
0.0
  0
LINE
  5
63F
100
AcDbEntity
  8
2
100
AcDbLine
 10
-392.164223
 20
246.824518
 30
0.0
 11
-380.964223
 21
246.824518
 31
0.0
  0
LINE
  5
640
100
AcDbEntity
  8
2
100
AcDbLine
 10
-390.414223
 20
245.824518
 30
0.0
 11
-390.414223
 21
237.324518
 31
0.0
  0
LINE
  5
641
100
AcDbEntity
  8
2
100
AcDbLine
 10
-390.414223
 20
261.824518
 30
0.0
 11
-390.414223
 21
253.824518
 31
0.0
  0
ARC
  5
642
100
AcDbEntity
  8
2
100
AcDbCircle
 10
-391.414223
 20
245.824518
 30
0.0
 40
1.0
100
AcDbArc
 50
360.0
 51
90.0
  0
ARC
  5
643
100
AcDbEntity
  8
2
100
AcDbCircle
 10
-391.414223
 20
253.824518
 30
0.0
 40
1.0
100
AcDbArc
 50
270.0
 51
360.0
  0
ARC
  5
644
100
AcDbEntity
  8
2
100
AcDbCircle
 10
-391.414223
 20
261.824518
 30
0.0
 40
1.0
100
AcDbArc
 50
0.0
 51
90.0
  0
LINE
  5
645
100
AcDbEntity
  8
2
100
AcDbLine
 10
-215.361223
 20
214.021518
 30
0.0
 11
-399.164223
 21
214.021518
 31
0.0
  0
LINE
  5
646
100
AcDbEntity
  8
2
100
AcDbLine
 10
-206.164223
 20
304.824518
 30
0.0
 11
-206.164223
 21
218.824518
 31
0.0
  0
LINE
  5
647
100
AcDbEntity
  8
2
100
AcDbLine
 10
-205.164223
 20
219.824518
 30
0.0
 11
-206.164223
 21
218.824518
 31
0.0
  0
LINE
  5
648
100
AcDbEntity
  8
2
100
AcDbLine
 10
-205.164223
 20
219.824518
 30
0.0
 11
-205.164223
 21
303.824518
 31
0.0
  0
LINE
  5
649
100
AcDbEntity
  8
2
100
AcDbLine
 10
-210.164223
 20
304.824518
 30
0.0
 11
-206.164223
 21
304.824518
 31
0.0
  0
LINE
  5
64A
100
AcDbEntity
  8
2
100
AcDbLine
 10
-210.507369
 20
218.824518
 30
0.0
 11
-206.164223
 21
218.824518
 31
0.0
  0
ARC
  5
64B
100
AcDbEntity
  8
2
100
AcDbCircle
 10
-216.164223
 20
308.824518
 30
0.0
 40
6.0
100
AcDbArc
 50
0.0
 51
90.0
  0
ARC
  5
64C
100
AcDbEntity
  8
2
100
AcDbCircle
 10
-215.361223
 20
220.021518
 30
0.0
 40
6.0
100
AcDbArc
 50
270.0
 51
348.492278
  0
ARC
  5
64D
100
AcDbEntity
  8
2
100
AcDbCircle
 10
-216.164223
 20
220.824518
 30
0.0
 40
6.0
100
AcDbArc
 50
270.0
 51
360.0
  0
LINE
  5
64E
100
AcDbEntity
  8
2
100
AcDbLine
 10
-378.815471
 20
315.627518
 30
0.0
 11
-215.361223
 21
315.627518
 31
0.0
  0
LINE
  5
64F
100
AcDbEntity
  8
2
100
AcDbLine
 10
-209.361223
 20
309.627518
 30
0.0
 11
-209.361223
 21
304.824518
 31
0.0
  0
ARC
  5
650
100
AcDbEntity
  8
2
100
AcDbCircle
 10
-378.815471
 20
309.627518
 30
0.0
 40
6.0
100
AcDbArc
 50
90.0
 51
151.295513
  0
LINE
  5
651
100
AcDbEntity
  8
2
100
AcDbLine
 10
-389.139183
 20
303.266774
 30
0.0
 11
-384.078123
 21
312.509271
 31
0.0
  0
ARC
  5
652
100
AcDbEntity
  8
2
100
AcDbCircle
 10
-393.524725
 20
305.668235
 30
0.0
 40
5.0
100
AcDbArc
 50
283.105828
 51
331.295513
  0
LINE
  5
653
100
AcDbEntity
  8
2
 62
     2
100
AcDbLine
 10
-384.815471
 20
295.824518
 30
0.0
 11
-384.815471
 21
309.627518
 31
0.0
  0
ARC
  5
654
100
AcDbEntity
  8
2
100
AcDbCircle
 10
-378.815471
 20
220.021518
 30
0.0
 40
6.0
100
AcDbArc
 50
180.0
 51
270.0
  0
LINE
  5
655
100
AcDbEntity
  8
2
100
AcDbLine
 10
-384.815471
 20
220.021518
 30
0.0
 11
-384.815471
 21
231.324518
 31
0.0
  0
ARC
  5
656
100
AcDbEntity
  8
2
100
AcDbCircle
 10
-379.815471
 20
231.324518
 30
0.0
 40
5.0
100
AcDbArc
 50
100.564597
 51
180.0
  0
ARC
  5
657
100
AcDbEntity
  8
2
100
AcDbCircle
 10
-381.282223
 20
239.188908
 30
0.0
 40
3.0
100
AcDbArc
 50
280.564597
 51
360.0
  0
ARC
  5
658
100
AcDbEntity
  8
2
100
AcDbCircle
 10
-392.164223
 20
267.824518
 30
0.0
 40
1.0
100
AcDbArc
 50
90.0
 51
180.0
  0
ARC
  5
659
100
AcDbEntity
  8
2
100
AcDbCircle
 10
-392.164223
 20
279.824518
 30
0.0
 40
1.0
100
AcDbArc
 50
180.0
 51
270.0
  0
ARC
  5
65A
100
AcDbEntity
  8
2
100
AcDbCircle
 10
-392.164223
 20
283.824518
 30
0.0
 40
1.0
100
AcDbArc
 50
90.0
 51
180.0
  0
ARC
  5
65B
100
AcDbEntity
  8
2
100
AcDbCircle
 10
-392.164223
 20
295.824518
 30
0.0
 40
1.0
100
AcDbArc
 50
180.0
 51
270.0
  0
ARC
  5
65C
100
AcDbEntity
  8
2
100
AcDbCircle
 10
-394.164223
 20
231.324518
 30
0.0
 40
5.0
100
AcDbArc
 50
90.0
 51
180.0
  0
ARC
  5
65D
100
AcDbEntity
  8
2
100
AcDbCircle
 10
-392.164223
 20
247.824518
 30
0.0
 40
1.0
100
AcDbArc
 50
180.0
 51
270.0
  0
ARC
  5
65E
100
AcDbEntity
  8
2
100
AcDbCircle
 10
-392.164223
 20
251.824518
 30
0.0
 40
1.0
100
AcDbArc
 50
90.0
 51
180.0
  0
ARC
  5
65F
100
AcDbEntity
  8
2
100
AcDbCircle
 10
-392.164223
 20
263.824518
 30
0.0
 40
1.0
100
AcDbArc
 50
180.0
 51
270.0
  0
LINE
  5
660
100
AcDbEntity
  8
2
100
AcDbLine
 10
-399.164223
 20
231.324518
 30
0.0
 11
-399.164223
 21
209.824518
 31
0.0
  0
LINE
  5
661
100
AcDbEntity
  8
2
100
AcDbLine
 10
-399.164223
 20
209.824518
 30
0.0
 11
-231.664223
 21
209.824518
 31
0.0
  0
LINE
  5
662
100
AcDbEntity
  8
2
100
AcDbLine
 10
-231.664223
 20
209.824518
 30
0.0
 11
-399.164223
 21
209.824518
 31
0.0
  0
LINE
  5
663
100
AcDbEntity
  8
2
100
AcDbLine
 10
-393.164223
 20
236.324518
 30
0.0
 11
-393.164223
 21
299.824518
 31
0.0
  0
ARC
  5
664
100
AcDbEntity
  8
2
100
AcDbCircle
 10
-392.164223
 20
299.824518
 30
0.0
 40
1.0
100
AcDbArc
 50
103.105828
 51
180.0
  0
LINE
  5
665
100
AcDbEntity
  8
2
100
AcDbLine
 10
-368.164223
 20
314.824518
 30
0.0
 11
-220.164223
 21
314.824518
 31
0.0
  0
ARC
  5
666
100
AcDbEntity
  8
2
100
AcDbCircle
 10
-220.164223
 20
308.824518
 30
0.0
 40
6.0
100
AcDbArc
 50
0.0
 51
90.0
  0
ARC
  5
667
100
AcDbEntity
  8
2
100
AcDbCircle
 10
-368.164223
 20
308.824518
 30
0.0
 40
6.0
100
AcDbArc
 50
90.0
 51
180.0
  0
LINE
  5
668
100
AcDbEntity
  8
2
100
AcDbLine
 10
-214.164223
 20
308.824518
 30
0.0
 11
-214.164223
 21
220.824518
 31
0.0
  0
LINE
  5
669
100
AcDbEntity
  8
2
100
AcDbLine
 10
-374.164223
 20
220.824518
 30
0.0
 11
-374.164223
 21
308.824518
 31
0.0
  0
ARC
  5
66A
100
AcDbEntity
  8
2
100
AcDbCircle
 10
-368.164223
 20
220.824518
 30
0.0
 40
6.0
100
AcDbArc
 50
180.0
 51
270.0
  0
LINE
  5
66B
100
AcDbEntity
  8
2
100
AcDbLine
 10
-368.164223
 20
214.824518
 30
0.0
 11
-220.164223
 21
214.824518
 31
0.0
  0
LINE
  5
66C
100
AcDbEntity
  8
2
100
AcDbLine
 10
-197.164223
 20
273.824518
 30
0.0
 11
-197.164223
 21
299.824518
 31
0.0
  0
LINE
  5
66D
100
AcDbEntity
  8
2
100
AcDbLine
 10
-202.164223
 20
271.813411
 30
0.0
 11
-202.164223
 21
301.835625
 31
0.0
  0
LINE
  5
66E
100
AcDbEntity
  8
2
100
AcDbLine
 10
-198.325336
 20
301.835625
 30
0.0
 11
-202.164223
 21
301.835625
 31
0.0
  0
LINE
  5
66F
100
AcDbEntity
  8
2
100
AcDbLine
 10
-198.325336
 20
294.330071
 30
0.0
 11
-202.164223
 21
294.330071
 31
0.0
  0
LINE
  5
670
100
AcDbEntity
  8
2
100
AcDbLine
 10
-198.325336
 20
279.318964
 30
0.0
 11
-202.164223
 21
279.318964
 31
0.0
  0
LINE
  5
671
100
AcDbEntity
  8
2
100
AcDbLine
 10
-198.325336
 20
271.813411
 30
0.0
 11
-202.164223
 21
271.813411
 31
0.0
  0
LINE
  5
672
100
AcDbEntity
  8
2
100
AcDbLine
 10
-197.164223
 20
299.824518
 30
0.0
 11
-198.325336
 21
301.835625
 31
0.0
  0
LINE
  5
673
100
AcDbEntity
  8
2
100
AcDbLine
 10
-197.164223
 20
273.824518
 30
0.0
 11
-198.325336
 21
271.813411
 31
0.0
  0
ARC
  5
674
100
AcDbEntity
  8
2
100
AcDbCircle
 10
-203.809359
 20
298.082848
 30
0.0
 40
6.645136
100
AcDbArc
 50
325.615736
 51
34.384264
  0
ARC
  5
675
100
AcDbEntity
  8
2
100
AcDbCircle
 10
-203.809359
 20
275.566187
 30
0.0
 40
6.645136
100
AcDbArc
 50
325.615736
 51
34.384264
  0
LINE
  5
676
100
AcDbEntity
  8
2
100
AcDbLine
 10
-202.164223
 20
277.824518
 30
0.0
 11
-205.164223
 21
277.824518
 31
0.0
  0
LINE
  5
677
100
AcDbEntity
  8
2
100
AcDbLine
 10
-205.164223
 20
295.824518
 30
0.0
 11
-202.164223
 21
295.824518
 31
0.0
  0
ARC
  5
678
100
AcDbEntity
  8
2
100
AcDbCircle
 10
-222.00311
 20
286.824518
 30
0.0
 40
24.838887
100
AcDbArc
 50
342.412046
 51
17.587954
  0
LINE
  5
679
100
AcDbEntity
  8
2
100
AcDbLine
 10
-197.164223
 20
223.824518
 30
0.0
 11
-197.164223
 21
249.824518
 31
0.0
  0
LINE
  5
67A
100
AcDbEntity
  8
2
100
AcDbLine
 10
-202.164223
 20
221.813411
 30
0.0
 11
-202.164223
 21
251.835625
 31
0.0
  0
LINE
  5
67B
100
AcDbEntity
  8
2
100
AcDbLine
 10
-198.325336
 20
251.835625
 30
0.0
 11
-202.164223
 21
251.835625
 31
0.0
  0
LINE
  5
67C
100
AcDbEntity
  8
2
100
AcDbLine
 10
-198.325336
 20
244.330071
 30
0.0
 11
-202.164223
 21
244.330071
 31
0.0
  0
LINE
  5
67D
100
AcDbEntity
  8
2
100
AcDbLine
 10
-198.325336
 20
229.318964
 30
0.0
 11
-202.164223
 21
229.318964
 31
0.0
  0
LINE
  5
67E
100
AcDbEntity
  8
2
100
AcDbLine
 10
-198.325336
 20
221.813411
 30
0.0
 11
-202.164223
 21
221.813411
 31
0.0
  0
LINE
  5
67F
100
AcDbEntity
  8
2
100
AcDbLine
 10
-197.164223
 20
249.824518
 30
0.0
 11
-198.325336
 21
251.835625
 31
0.0
  0
LINE
  5
680
100
AcDbEntity
  8
2
100
AcDbLine
 10
-197.164223
 20
223.824518
 30
0.0
 11
-198.325336
 21
221.813411
 31
0.0
  0
ARC
  5
681
100
AcDbEntity
  8
2
100
AcDbCircle
 10
-203.809359
 20
248.082848
 30
0.0
 40
6.645136
100
AcDbArc
 50
325.615736
 51
34.384264
  0
ARC
  5
682
100
AcDbEntity
  8
2
100
AcDbCircle
 10
-203.809359
 20
225.566187
 30
0.0
 40
6.645136
100
AcDbArc
 50
325.615736
 51
34.384264
  0
LINE
  5
683
100
AcDbEntity
  8
2
100
AcDbLine
 10
-202.164223
 20
227.824518
 30
0.0
 11
-205.164223
 21
227.824518
 31
0.0
  0
LINE
  5
684
100
AcDbEntity
  8
2
100
AcDbLine
 10
-205.164223
 20
245.824518
 30
0.0
 11
-202.164223
 21
245.824518
 31
0.0
  0
ARC
  5
685
100
AcDbEntity
  8
2
100
AcDbCircle
 10
-222.00311
 20
236.824518
 30
0.0
 40
24.838887
100
AcDbArc
 50
342.412046
 51
17.587954
  0
POLYLINE
  5
686
100
AcDbEntity
  8
2
100
AcDb2dPolyline
 66
     1
 10
0.0
 20
0.0
 30
0.0
 70
     1
  0
VERTEX
  5
8C5
100
AcDbEntity
  8
2
100
AcDbVertex
100
AcDb2dVertex
 10
-202.264223
 20
296.824518
 30
0.0
  0
VERTEX
  5
8C6
100
AcDbEntity
  8
2
100
AcDbVertex
100
AcDb2dVertex
 10
-202.292509
 20
297.024518
 30
0.0
  0
VERTEX
  5
8C7
100
AcDbEntity
  8
2
100
AcDbVertex
100
AcDb2dVertex
 10
-202.381102
 20
297.224518
 30
0.0
  0
VERTEX
  5
8C8
100
AcDbEntity
  8
2
100
AcDbVertex
100
AcDb2dVertex
 10
-202.544223
 20
297.424518
 30
0.0
  0
VERTEX
  5
8C9
100
AcDbEntity
  8
2
100
AcDbVertex
100
AcDb2dVertex
 10
-202.824223
 20
297.624518
 30
0.0
  0
VERTEX
  5
8CA
100
AcDbEntity
  8
2
100
AcDbVertex
100
AcDb2dVertex
 10
-203.664223
 20
297.824518
 30
0.0
  0
VERTEX
  5
8CB
100
AcDbEntity
  8
2
100
AcDbVertex
100
AcDb2dVertex
 10
-204.504223
 20
297.624518
 30
0.0
  0
VERTEX
  5
8CC
100
AcDbEntity
  8
2
100
AcDbVertex
100
AcDb2dVertex
 10
-204.784223
 20
297.424518
 30
0.0
  0
VERTEX
  5
8CD
100
AcDbEntity
  8
2
100
AcDbVertex
100
AcDb2dVertex
 10
-204.947344
 20
297.224518
 30
0.0
  0
VERTEX
  5
8CE
100
AcDbEntity
  8
2
100
AcDbVertex
100
AcDb2dVertex
 10
-205.035937
 20
297.024518
 30
0.0
  0
VERTEX
  5
8CF
100
AcDbEntity
  8
2
100
AcDbVertex
100
AcDb2dVertex
 10
-205.064223
 20
296.824518
 30
0.0
  0
VERTEX
  5
8D0
100
AcDbEntity
  8
2
100
AcDbVertex
100
AcDb2dVertex
 10
-205.035937
 20
296.624518
 30
0.0
  0
VERTEX
  5
8D1
100
AcDbEntity
  8
2
100
AcDbVertex
100
AcDb2dVertex
 10
-204.947344
 20
296.424518
 30
0.0
  0
VERTEX
  5
8D2
100
AcDbEntity
  8
2
100
AcDbVertex
100
AcDb2dVertex
 10
-204.784223
 20
296.224518
 30
0.0
  0
VERTEX
  5
8D3
100
AcDbEntity
  8
2
100
AcDbVertex
100
AcDb2dVertex
 10
-204.504223
 20
296.024518
 30
0.0
  0
VERTEX
  5
8D4
100
AcDbEntity
  8
2
100
AcDbVertex
100
AcDb2dVertex
 10
-203.664223
 20
295.824518
 30
0.0
  0
VERTEX
  5
8D5
100
AcDbEntity
  8
2
100
AcDbVertex
100
AcDb2dVertex
 10
-202.824223
 20
296.024518
 30
0.0
  0
VERTEX
  5
8D6
100
AcDbEntity
  8
2
100
AcDbVertex
100
AcDb2dVertex
 10
-202.544223
 20
296.224518
 30
0.0
  0
VERTEX
  5
8D7
100
AcDbEntity
  8
2
100
AcDbVertex
100
AcDb2dVertex
 10
-202.381102
 20
296.424518
 30
0.0
  0
VERTEX
  5
8D8
100
AcDbEntity
  8
2
100
AcDbVertex
100
AcDb2dVertex
 10
-202.292509
 20
296.624518
 30
0.0
  0
VERTEX
  5
8D9
100
AcDbEntity
  8
2
100
AcDbVertex
100
AcDb2dVertex
 10
-202.264223
 20
296.824518
 30
0.0
  0
SEQEND
  5
8DA
100
AcDbEntity
  8
2
  0
POLYLINE
  5
69D
100
AcDbEntity
  8
2
100
AcDb2dPolyline
 66
     1
 10
0.0
 20
0.0
 30
0.0
 70
     1
  0
VERTEX
  5
8DB
100
AcDbEntity
  8
2
100
AcDbVertex
100
AcDb2dVertex
 10
-202.264223
 20
276.824518
 30
0.0
  0
VERTEX
  5
8DC
100
AcDbEntity
  8
2
100
AcDbVertex
100
AcDb2dVertex
 10
-202.292509
 20
277.024518
 30
0.0
  0
VERTEX
  5
8DD
100
AcDbEntity
  8
2
100
AcDbVertex
100
AcDb2dVertex
 10
-202.381102
 20
277.224518
 30
0.0
  0
VERTEX
  5
8DE
100
AcDbEntity
  8
2
100
AcDbVertex
100
AcDb2dVertex
 10
-202.544223
 20
277.424518
 30
0.0
  0
VERTEX
  5
8DF
100
AcDbEntity
  8
2
100
AcDbVertex
100
AcDb2dVertex
 10
-202.824223
 20
277.624518
 30
0.0
  0
VERTEX
  5
8E0
100
AcDbEntity
  8
2
100
AcDbVertex
100
AcDb2dVertex
 10
-203.664223
 20
277.824518
 30
0.0
  0
VERTEX
  5
8E1
100
AcDbEntity
  8
2
100
AcDbVertex
100
AcDb2dVertex
 10
-204.504223
 20
277.624518
 30
0.0
  0
VERTEX
  5
8E2
100
AcDbEntity
  8
2
100
AcDbVertex
100
AcDb2dVertex
 10
-204.784223
 20
277.424518
 30
0.0
  0
VERTEX
  5
8E3
100
AcDbEntity
  8
2
100
AcDbVertex
100
AcDb2dVertex
 10
-204.947344
 20
277.224518
 30
0.0
  0
VERTEX
  5
8E4
100
AcDbEntity
  8
2
100
AcDbVertex
100
AcDb2dVertex
 10
-205.035937
 20
277.024518
 30
0.0
  0
VERTEX
  5
8E5
100
AcDbEntity
  8
2
100
AcDbVertex
100
AcDb2dVertex
 10
-205.064223
 20
276.824518
 30
0.0
  0
VERTEX
  5
8E6
100
AcDbEntity
  8
2
100
AcDbVertex
100
AcDb2dVertex
 10
-205.035937
 20
276.624518
 30
0.0
  0
VERTEX
  5
8E7
100
AcDbEntity
  8
2
100
AcDbVertex
100
AcDb2dVertex
 10
-204.947344
 20
276.424518
 30
0.0
  0
VERTEX
  5
8E8
100
AcDbEntity
  8
2
100
AcDbVertex
100
AcDb2dVertex
 10
-204.784223
 20
276.224518
 30
0.0
  0
VERTEX
  5
8E9
100
AcDbEntity
  8
2
100
AcDbVertex
100
AcDb2dVertex
 10
-204.504223
 20
276.024518
 30
0.0
  0
VERTEX
  5
8EA
100
AcDbEntity
  8
2
100
AcDbVertex
100
AcDb2dVertex
 10
-203.664223
 20
275.824518
 30
0.0
  0
VERTEX
  5
8EB
100
AcDbEntity
  8
2
100
AcDbVertex
100
AcDb2dVertex
 10
-202.824223
 20
276.024518
 30
0.0
  0
VERTEX
  5
8EC
100
AcDbEntity
  8
2
100
AcDbVertex
100
AcDb2dVertex
 10
-202.544223
 20
276.224518
 30
0.0
  0
VERTEX
  5
8ED
100
AcDbEntity
  8
2
100
AcDbVertex
100
AcDb2dVertex
 10
-202.381102
 20
276.424518
 30
0.0
  0
VERTEX
  5
8EE
100
AcDbEntity
  8
2
100
AcDbVertex
100
AcDb2dVertex
 10
-202.292509
 20
276.624518
 30
0.0
  0
VERTEX
  5
8EF
100
AcDbEntity
  8
2
100
AcDbVertex
100
AcDb2dVertex
 10
-202.264223
 20
276.824518
 30
0.0
  0
SEQEND
  5
8F0
100
AcDbEntity
  8
2
  0
POLYLINE
  5
6B4
100
AcDbEntity
  8
2
100
AcDb2dPolyline
 66
     1
 10
0.0
 20
0.0
 30
0.0
 70
     1
  0
VERTEX
  5
8F1
100
AcDbEntity
  8
2
100
AcDbVertex
100
AcDb2dVertex
 10
-202.264223
 20
246.824518
 30
0.0
  0
VERTEX
  5
8F2
100
AcDbEntity
  8
2
100
AcDbVertex
100
AcDb2dVertex
 10
-202.292509
 20
247.024518
 30
0.0
  0
VERTEX
  5
8F3
100
AcDbEntity
  8
2
100
AcDbVertex
100
AcDb2dVertex
 10
-202.381102
 20
247.224518
 30
0.0
  0
VERTEX
  5
8F4
100
AcDbEntity
  8
2
100
AcDbVertex
100
AcDb2dVertex
 10
-202.544223
 20
247.424518
 30
0.0
  0
VERTEX
  5
8F5
100
AcDbEntity
  8
2
100
AcDbVertex
100
AcDb2dVertex
 10
-202.824223
 20
247.624518
 30
0.0
  0
VERTEX
  5
8F6
100
AcDbEntity
  8
2
100
AcDbVertex
100
AcDb2dVertex
 10
-203.664223
 20
247.824518
 30
0.0
  0
VERTEX
  5
8F7
100
AcDbEntity
  8
2
100
AcDbVertex
100
AcDb2dVertex
 10
-204.504223
 20
247.624518
 30
0.0
  0
VERTEX
  5
8F8
100
AcDbEntity
  8
2
100
AcDbVertex
100
AcDb2dVertex
 10
-204.784223
 20
247.424518
 30
0.0
  0
VERTEX
  5
8F9
100
AcDbEntity
  8
2
100
AcDbVertex
100
AcDb2dVertex
 10
-204.947344
 20
247.224518
 30
0.0
  0
VERTEX
  5
8FA
100
AcDbEntity
  8
2
100
AcDbVertex
100
AcDb2dVertex
 10
-205.035937
 20
247.024518
 30
0.0
  0
VERTEX
  5
8FB
100
AcDbEntity
  8
2
100
AcDbVertex
100
AcDb2dVertex
 10
-205.064223
 20
246.824518
 30
0.0
  0
VERTEX
  5
8FC
100
AcDbEntity
  8
2
100
AcDbVertex
100
AcDb2dVertex
 10
-205.035937
 20
246.624518
 30
0.0
  0
VERTEX
  5
8FD
100
AcDbEntity
  8
2
100
AcDbVertex
100
AcDb2dVertex
 10
-204.947344
 20
246.424518
 30
0.0
  0
VERTEX
  5
8FE
100
AcDbEntity
  8
2
100
AcDbVertex
100
AcDb2dVertex
 10
-204.784223
 20
246.224518
 30
0.0
  0
VERTEX
  5
8FF
100
AcDbEntity
  8
2
100
AcDbVertex
100
AcDb2dVertex
 10
-204.504223
 20
246.024518
 30
0.0
  0
VERTEX
  5
900
100
AcDbEntity
  8
2
100
AcDbVertex
100
AcDb2dVertex
 10
-203.664223
 20
245.824518
 30
0.0
  0
VERTEX
  5
901
100
AcDbEntity
  8
2
100
AcDbVertex
100
AcDb2dVertex
 10
-202.824223
 20
246.024518
 30
0.0
  0
VERTEX
  5
902
100
AcDbEntity
  8
2
100
AcDbVertex
100
AcDb2dVertex
 10
-202.544223
 20
246.224518
 30
0.0
  0
VERTEX
  5
903
100
AcDbEntity
  8
2
100
AcDbVertex
100
AcDb2dVertex
 10
-202.381102
 20
246.424518
 30
0.0
  0
VERTEX
  5
904
100
AcDbEntity
  8
2
100
AcDbVertex
100
AcDb2dVertex
 10
-202.292509
 20
246.624518
 30
0.0
  0
VERTEX
  5
905
100
AcDbEntity
  8
2
100
AcDbVertex
100
AcDb2dVertex
 10
-202.264223
 20
246.824518
 30
0.0
  0
SEQEND
  5
906
100
AcDbEntity
  8
2
  0
POLYLINE
  5
6CB
100
AcDbEntity
  8
2
100
AcDb2dPolyline
 66
     1
 10
0.0
 20
0.0
 30
0.0
 70
     1
  0
VERTEX
  5
907
100
AcDbEntity
  8
2
100
AcDbVertex
100
AcDb2dVertex
 10
-202.264223
 20
226.824518
 30
0.0
  0
VERTEX
  5
908
100
AcDbEntity
  8
2
100
AcDbVertex
100
AcDb2dVertex
 10
-202.292509
 20
227.024518
 30
0.0
  0
VERTEX
  5
909
100
AcDbEntity
  8
2
100
AcDbVertex
100
AcDb2dVertex
 10
-202.381102
 20
227.224518
 30
0.0
  0
VERTEX
  5
90A
100
AcDbEntity
  8
2
100
AcDbVertex
100
AcDb2dVertex
 10
-202.544223
 20
227.424518
 30
0.0
  0
VERTEX
  5
90B
100
AcDbEntity
  8
2
100
AcDbVertex
100
AcDb2dVertex
 10
-202.824223
 20
227.624518
 30
0.0
  0
VERTEX
  5
90C
100
AcDbEntity
  8
2
100
AcDbVertex
100
AcDb2dVertex
 10
-203.664223
 20
227.824518
 30
0.0
  0
VERTEX
  5
90D
100
AcDbEntity
  8
2
100
AcDbVertex
100
AcDb2dVertex
 10
-204.504223
 20
227.624518
 30
0.0
  0
VERTEX
  5
90E
100
AcDbEntity
  8
2
100
AcDbVertex
100
AcDb2dVertex
 10
-204.784223
 20
227.424518
 30
0.0
  0
VERTEX
  5
90F
100
AcDbEntity
  8
2
100
AcDbVertex
100
AcDb2dVertex
 10
-204.947344
 20
227.224518
 30
0.0
  0
VERTEX
  5
910
100
AcDbEntity
  8
2
100
AcDbVertex
100
AcDb2dVertex
 10
-205.035937
 20
227.024518
 30
0.0
  0
VERTEX
  5
911
100
AcDbEntity
  8
2
100
AcDbVertex
100
AcDb2dVertex
 10
-205.064223
 20
226.824518
 30
0.0
  0
VERTEX
  5
912
100
AcDbEntity
  8
2
100
AcDbVertex
100
AcDb2dVertex
 10
-205.035937
 20
226.624518
 30
0.0
  0
VERTEX
  5
913
100
AcDbEntity
  8
2
100
AcDbVertex
100
AcDb2dVertex
 10
-204.947344
 20
226.424518
 30
0.0
  0
VERTEX
  5
914
100
AcDbEntity
  8
2
100
AcDbVertex
100
AcDb2dVertex
 10
-204.784223
 20
226.224518
 30
0.0
  0
VERTEX
  5
915
100
AcDbEntity
  8
2
100
AcDbVertex
100
AcDb2dVertex
 10
-204.504223
 20
226.024518
 30
0.0
  0
VERTEX
  5
916
100
AcDbEntity
  8
2
100
AcDbVertex
100
AcDb2dVertex
 10
-203.664223
 20
225.824518
 30
0.0
  0
VERTEX
  5
917
100
AcDbEntity
  8
2
100
AcDbVertex
100
AcDb2dVertex
 10
-202.824223
 20
226.024518
 30
0.0
  0
VERTEX
  5
918
100
AcDbEntity
  8
2
100
AcDbVertex
100
AcDb2dVertex
 10
-202.544223
 20
226.224518
 30
0.0
  0
VERTEX
  5
919
100
AcDbEntity
  8
2
100
AcDbVertex
100
AcDb2dVertex
 10
-202.381102
 20
226.424518
 30
0.0
  0
VERTEX
  5
91A
100
AcDbEntity
  8
2
100
AcDbVertex
100
AcDb2dVertex
 10
-202.292509
 20
226.624518
 30
0.0
  0
VERTEX
  5
91B
100
AcDbEntity
  8
2
100
AcDbVertex
100
AcDb2dVertex
 10
-202.264223
 20
226.824518
 30
0.0
  0
SEQEND
  5
91C
100
AcDbEntity
  8
2
  0
LINE
  5
6E2
100
AcDbEntity
  8
2
100
AcDbLine
 10
-380.414223
 20
196.913722
 30
0.0
 11
-380.414223
 21
198.524518
 31
0.0
  0
ARC
  5
6E3
100
AcDbEntity
  8
2
100
AcDbCircle
 10
-381.414223
 20
196.913722
 30
0.0
 40
1.0
100
AcDbArc
 50
302.392365
 51
360.0
  0
LINE
  5
6E4
100
AcDbEntity
  8
2
100
AcDbLine
 10
-389.914223
 20
198.524518
 30
0.0
 11
-380.414223
 21
198.524518
 31
0.0
  0
LINE
  5
6E5
100
AcDbEntity
  8
2
100
AcDbLine
 10
-380.564223
 20
198.524518
 30
0.0
 11
-380.564223
 21
199.824518
 31
0.0
  0
LINE
  5
6E6
100
AcDbEntity
  8
2
100
AcDbLine
 10
-389.914223
 20
196.913722
 30
0.0
 11
-389.914223
 21
198.524518
 31
0.0
  0
LINE
  5
6E7
100
AcDbEntity
  8
2
100
AcDbLine
 10
-389.764223
 20
198.524518
 30
0.0
 11
-389.764223
 21
199.824518
 31
0.0
  0
LINE
  5
6E8
100
AcDbEntity
  8
2
100
AcDbLine
 10
-384.664223
 20
194.840158
 30
0.0
 11
-384.664223
 21
195.024518
 31
0.0
  0
LINE
  5
6E9
100
AcDbEntity
  8
2
100
AcDbLine
 10
-385.664223
 20
194.840158
 30
0.0
 11
-385.664223
 21
195.024518
 31
0.0
  0
LINE
  5
6EA
100
AcDbEntity
  8
2
100
AcDbLine
 10
-384.664223
 20
195.024518
 30
0.0
 11
-385.664223
 21
195.024518
 31
0.0
  0
ARC
  5
6EB
100
AcDbEntity
  8
2
100
AcDbCircle
 10
-385.164223
 20
202.824518
 30
0.0
 40
8.0
100
AcDbArc
 50
273.583322
 51
302.392365
  0
ARC
  5
6EC
100
AcDbEntity
  8
2
100
AcDbCircle
 10
-385.164223
 20
202.824518
 30
0.0
 40
8.0
100
AcDbArc
 50
237.607635
 51
266.416678
  0
ARC
  5
6ED
100
AcDbEntity
  8
2
100
AcDbCircle
 10
-388.914223
 20
196.913722
 30
0.0
 40
1.0
100
AcDbArc
 50
180.0
 51
237.607635
  0
LINE
  5
6EE
100
AcDbEntity
  8
2
100
AcDbLine
 10
-241.414223
 20
196.913722
 30
0.0
 11
-241.414223
 21
198.524518
 31
0.0
  0
ARC
  5
6EF
100
AcDbEntity
  8
2
100
AcDbCircle
 10
-242.414223
 20
196.913722
 30
0.0
 40
1.0
100
AcDbArc
 50
302.392365
 51
360.0
  0
LINE
  5
6F0
100
AcDbEntity
  8
2
100
AcDbLine
 10
-250.914223
 20
198.524518
 30
0.0
 11
-241.414223
 21
198.524518
 31
0.0
  0
LINE
  5
6F1
100
AcDbEntity
  8
2
100
AcDbLine
 10
-241.564223
 20
198.524518
 30
0.0
 11
-241.564223
 21
199.824518
 31
0.0
  0
LINE
  5
6F2
100
AcDbEntity
  8
2
100
AcDbLine
 10
-250.914223
 20
196.913722
 30
0.0
 11
-250.914223
 21
198.524518
 31
0.0
  0
LINE
  5
6F3
100
AcDbEntity
  8
2
100
AcDbLine
 10
-250.764223
 20
198.524518
 30
0.0
 11
-250.764223
 21
199.824518
 31
0.0
  0
LINE
  5
6F4
100
AcDbEntity
  8
2
100
AcDbLine
 10
-245.664223
 20
194.840158
 30
0.0
 11
-245.664223
 21
195.024518
 31
0.0
  0
LINE
  5
6F5
100
AcDbEntity
  8
2
100
AcDbLine
 10
-246.664223
 20
194.840158
 30
0.0
 11
-246.664223
 21
195.024518
 31
0.0
  0
LINE
  5
6F6
100
AcDbEntity
  8
2
100
AcDbLine
 10
-245.664223
 20
195.024518
 30
0.0
 11
-246.664223
 21
195.024518
 31
0.0
  0
ARC
  5
6F7
100
AcDbEntity
  8
2
100
AcDbCircle
 10
-246.164223
 20
202.824518
 30
0.0
 40
8.0
100
AcDbArc
 50
273.583322
 51
302.392365
  0
ARC
  5
6F8
100
AcDbEntity
  8
2
100
AcDbCircle
 10
-246.164223
 20
202.824518
 30
0.0
 40
8.0
100
AcDbArc
 50
237.607635
 51
266.416678
  0
ARC
  5
6F9
100
AcDbEntity
  8
2
100
AcDbCircle
 10
-249.914223
 20
196.913722
 30
0.0
 40
1.0
100
AcDbArc
 50
180.0
 51
237.607635
  0
LINE
  5
6FA
100
AcDbEntity
  8
2
100
AcDbLine
 10
-391.914223
 20
198.524518
 30
0.0
 11
-389.764223
 21
198.524518
 31
0.0
  0
LINE
  5
6FB
100
AcDbEntity
  8
2
100
AcDbLine
 10
-391.914223
 20
196.913722
 30
0.0
 11
-391.914223
 21
198.524518
 31
0.0
  0
LINE
  5
6FC
100
AcDbEntity
  8
2
100
AcDbLine
 10
-391.764223
 20
198.524518
 30
0.0
 11
-391.764223
 21
199.824518
 31
0.0
  0
LINE
  5
6FD
100
AcDbEntity
  8
2
100
AcDbLine
 10
-386.664223
 20
194.840158
 30
0.0
 11
-386.664223
 21
194.966401
 31
0.0
  0
LINE
  5
6FE
100
AcDbEntity
  8
2
100
AcDbLine
 10
-387.664223
 20
194.840158
 30
0.0
 11
-387.664223
 21
195.024518
 31
0.0
  0
LINE
  5
6FF
100
AcDbEntity
  8
2
100
AcDbLine
 10
-386.941862
 20
195.024518
 30
0.0
 11
-387.664223
 21
195.024518
 31
0.0
  0
ARC
  5
700
100
AcDbEntity
  8
2
100
AcDbCircle
 10
-387.164223
 20
202.824518
 30
0.0
 40
8.0
100
AcDbArc
 50
273.583322
 51
277.180756
  0
ARC
  5
701
100
AcDbEntity
  8
2
100
AcDbCircle
 10
-387.164223
 20
202.824518
 30
0.0
 40
8.0
100
AcDbArc
 50
237.607635
 51
266.416678
  0
ARC
  5
702
100
AcDbEntity
  8
2
100
AcDbCircle
 10
-390.914223
 20
196.913722
 30
0.0
 40
1.0
100
AcDbArc
 50
180.0
 51
237.607635
  0
LINE
  5
703
100
AcDbEntity
  8
2
100
AcDbLine
 10
-322.914223
 20
196.913722
 30
0.0
 11
-322.914223
 21
198.524518
 31
0.0
  0
ARC
  5
704
100
AcDbEntity
  8
2
100
AcDbCircle
 10
-323.914223
 20
196.913722
 30
0.0
 40
1.0
100
AcDbArc
 50
302.392365
 51
360.0
  0
LINE
  5
705
100
AcDbEntity
  8
2
100
AcDbLine
 10
-332.414223
 20
198.524518
 30
0.0
 11
-322.914223
 21
198.524518
 31
0.0
  0
LINE
  5
706
100
AcDbEntity
  8
2
100
AcDbLine
 10
-323.064223
 20
198.524518
 30
0.0
 11
-323.064223
 21
199.824518
 31
0.0
  0
LINE
  5
707
100
AcDbEntity
  8
2
100
AcDbLine
 10
-332.414223
 20
196.913722
 30
0.0
 11
-332.414223
 21
198.524518
 31
0.0
  0
LINE
  5
708
100
AcDbEntity
  8
2
100
AcDbLine
 10
-332.264223
 20
198.524518
 30
0.0
 11
-332.264223
 21
199.824518
 31
0.0
  0
LINE
  5
709
100
AcDbEntity
  8
2
100
AcDbLine
 10
-327.164223
 20
194.840158
 30
0.0
 11
-327.164223
 21
195.024518
 31
0.0
  0
LINE
  5
70A
100
AcDbEntity
  8
2
100
AcDbLine
 10
-328.164223
 20
194.840158
 30
0.0
 11
-328.164223
 21
195.024518
 31
0.0
  0
LINE
  5
70B
100
AcDbEntity
  8
2
100
AcDbLine
 10
-327.164223
 20
195.024518
 30
0.0
 11
-328.164223
 21
195.024518
 31
0.0
  0
ARC
  5
70C
100
AcDbEntity
  8
2
100
AcDbCircle
 10
-327.664223
 20
202.824518
 30
0.0
 40
8.0
100
AcDbArc
 50
273.583322
 51
302.392365
  0
ARC
  5
70D
100
AcDbEntity
  8
2
100
AcDbCircle
 10
-327.664223
 20
202.824518
 30
0.0
 40
8.0
100
AcDbArc
 50
237.607635
 51
266.416678
  0
ARC
  5
70E
100
AcDbEntity
  8
2
100
AcDbCircle
 10
-331.414223
 20
196.913722
 30
0.0
 40
1.0
100
AcDbArc
 50
180.0
 51
237.607635
  0
LINE
  5
70F
100
AcDbEntity
  8
2
100
AcDbLine
 10
-258.164223
 20
180.824518
 30
0.0
 11
-283.164223
 21
180.824518
 31
0.0
  0
LINE
  5
710
100
AcDbEntity
  8
2
100
AcDbLine
 10
-283.164223
 20
177.124518
 30
0.0
 11
-283.164223
 21
180.824518
 31
0.0
  0
LINE
  5
711
100
AcDbEntity
  8
2
100
AcDbLine
 10
-282.864223
 20
176.824518
 30
0.0
 11
-283.164223
 21
177.124518
 31
0.0
  0
LINE
  5
712
100
AcDbEntity
  8
2
100
AcDbLine
 10
-282.864223
 20
176.824518
 30
0.0
 11
-258.464223
 21
176.824518
 31
0.0
  0
LINE
  5
713
100
AcDbEntity
  8
2
100
AcDbLine
 10
-258.464223
 20
176.824518
 30
0.0
 11
-258.164223
 21
177.124518
 31
0.0
  0
LINE
  5
714
100
AcDbEntity
  8
2
100
AcDbLine
 10
-258.164223
 20
177.124518
 30
0.0
 11
-258.164223
 21
180.824518
 31
0.0
  0
LINE
  5
715
100
AcDbEntity
  8
2
100
AcDbLine
 10
-399.164223
 20
209.824518
 30
0.0
 11
-231.664223
 21
209.824518
 31
0.0
  0
LINE
  5
716
100
AcDbEntity
  8
2
100
AcDbLine
 10
-233.178525
 20
199.824518
 30
0.0
 11
-396.164223
 21
199.824518
 31
0.0
  0
LINE
  5
717
100
AcDbEntity
  8
2
100
AcDbLine
 10
-240.990253
 20
182.824518
 30
0.0
 11
-351.66309
 21
182.824518
 31
0.0
  0
LINE
  5
718
100
AcDbEntity
  8
2
100
AcDbLine
 10
-232.459246
 20
200.737362
 30
0.0
 11
-231.664223
 21
209.824518
 31
0.0
  0
LINE
  5
719
100
AcDbEntity
  8
2
100
AcDbLine
 10
-360.632799
 20
197.850506
 30
0.0
 11
-356.361597
 21
186.114537
 31
0.0
  0
ARC
  5
71A
100
AcDbEntity
  8
2
100
AcDbCircle
 10
-363.451903
 20
196.824518
 30
0.0
 40
3.0
100
AcDbArc
 50
19.99853
 51
90.0
  0
ARC
  5
71B
100
AcDbEntity
  8
2
100
AcDbCircle
 10
-351.66309
 20
187.824518
 30
0.0
 40
5.0
100
AcDbArc
 50
199.99853
 51
270.0
  0
LINE
  5
71C
100
AcDbEntity
  8
2
100
AcDbLine
 10
-236.042208
 20
187.105596
 30
0.0
 11
-234.495396
 21
197.751666
 31
0.0
  0
ARC
  5
71D
100
AcDbEntity
  8
2
100
AcDbCircle
 10
-240.990253
 20
187.824518
 30
0.0
 40
5.0
100
AcDbArc
 50
270.0
 51
351.733109
  0
LINE
  5
71E
100
AcDbEntity
  8
2
100
AcDbLine
 10
-399.164223
 20
209.824518
 30
0.0
 11
-399.164223
 21
202.824518
 31
0.0
  0
ARC
  5
71F
100
AcDbEntity
  8
2
100
AcDbCircle
 10
-396.164223
 20
202.824518
 30
0.0
 40
3.0
100
AcDbArc
 50
180.0
 51
270.0
  0
ARC
  5
720
100
AcDbEntity
  8
2
100
AcDbCircle
 10
-233.455441
 20
200.824518
 30
0.0
 40
1.0
100
AcDbArc
 50
298.830359
 51
355.0
  0
ARC
  5
721
100
AcDbEntity
  8
2
100
AcDbCircle
 10
-231.526569
 20
197.320312
 30
0.0
 40
3.0
100
AcDbArc
 50
118.830359
 51
171.733109
  0
LINE
  5
722
100
AcDbEntity
  8
2
 62
     2
100
AcDbLine
 10
-333.265707
 20
198.343779
 30
0.0
 11
-329.770659
 21
185.343779
 31
0.0
  0
LINE
  5
723
100
AcDbEntity
  8
2
 62
     2
100
AcDbLine
 10
-324.900739
 20
185.256021
 30
0.0
 11
-322.028313
 21
198.256021
 31
0.0
  0
ARC
  5
724
100
AcDbEntity
  8
2
 62
     2
100
AcDbCircle
 10
-320.075416
 20
197.824518
 30
0.0
 40
2.0
100
AcDbArc
 50
131.409622
 51
167.540354
  0
ARC
  5
725
100
AcDbEntity
  8
2
 62
     2
100
AcDbCircle
 10
-335.197123
 20
197.824518
 30
0.0
 40
2.0
100
AcDbArc
 50
15.048138
 51
48.590378
  0
LINE
  5
726
100
AcDbEntity
  8
2
100
AcDbLine
 10
-258.664223
 20
180.824518
 30
0.0
 11
-282.664223
 21
180.824518
 31
0.0
  0
LINE
  5
727
100
AcDbEntity
  8
2
100
AcDbLine
 10
-258.164223
 20
181.324518
 30
0.0
 11
-258.164223
 21
181.824518
 31
0.0
  0
LINE
  5
728
100
AcDbEntity
  8
2
100
AcDbLine
 10
-283.164223
 20
181.324518
 30
0.0
 11
-283.164223
 21
181.824518
 31
0.0
  0
ARC
  5
729
100
AcDbEntity
  8
2
100
AcDbCircle
 10
-258.664223
 20
181.324518
 30
0.0
 40
0.5
100
AcDbArc
 50
270.0
 51
360.0
  0
ARC
  5
72A
100
AcDbEntity
  8
2
100
AcDbCircle
 10
-282.664223
 20
181.324518
 30
0.0
 40
0.5
100
AcDbArc
 50
180.0
 51
270.0
  0
ARC
  5
72B
100
AcDbEntity
  8
2
100
AcDbCircle
 10
-257.164223
 20
181.824518
 30
0.0
 40
1.0
100
AcDbArc
 50
90.0
 51
180.0
  0
ARC
  5
72C
100
AcDbEntity
  8
2
100
AcDbCircle
 10
-284.164223
 20
181.824518
 30
0.0
 40
1.0
100
AcDbArc
 50
360.0
 51
90.0
  0
LINE
  5
72D
100
AcDbEntity
  8
2
  6
CENTER
 62
     2
100
AcDbLine
 10
-407.069739
 20
261.824518
 30
0.0
 11
-193.65867
 21
261.824518
 31
0.0
  0
LINE
  5
72E
100
AcDbEntity
  8
2
  6
CENTER
 62
     2
100
AcDbLine
 10
-225.596315
 20
236.824518
 30
0.0
 11
-191.739583
 21
236.824518
 31
0.0
  0
LINE
  5
72F
100
AcDbEntity
  8
2
  6
CENTER
 62
     2
100
AcDbLine
 10
-225.596315
 20
286.824518
 30
0.0
 11
-191.739583
 21
286.824518
 31
0.0
  0
LINE
  5
730
100
AcDbEntity
  8
2
  6
CENTER
 62
     2
100
AcDbLine
 10
-299.164223
 20
325.993562
 30
0.0
 11
-299.164223
 21
168.307752
 31
0.0
  0
LINE
  5
731
100
AcDbEntity
  8
2
  6
CENTER
 62
     2
100
AcDbLine
 10
-360.414223
 20
185.373895
 30
0.0
 11
-360.414223
 21
322.391969
 31
0.0
  0
LINE
  5
732
100
AcDbEntity
  8
2
  6
CENTER
 62
     2
100
AcDbLine
 10
-270.664223
 20
169.324518
 30
0.0
 11
-270.664223
 21
322.391969
 31
0.0
  0
LINE
  5
733
100
AcDbEntity
  8
2
  6
CENTER
 62
     2
100
AcDbLine
 10
-385.164223
 20
186.594842
 30
0.0
 11
-385.164223
 21
212.138467
 31
0.0
  0
LINE
  5
734
100
AcDbEntity
  8
2
  6
CENTER
 62
     2
100
AcDbLine
 10
-327.664223
 20
212.138467
 30
0.0
 11
-327.664223
 21
186.594842
 31
0.0
  0
LINE
  5
735
100
AcDbEntity
  8
2
  6
CENTER
 62
     2
100
AcDbLine
 10
-246.164223
 20
186.594842
 30
0.0
 11
-246.164223
 21
212.138467
 31
0.0
  0
LINE
  5
736
100
AcDbEntity
  8
3
100
AcDbLine
 10
-374.164223
 20
-160.825482
 30
0.0
 11
-374.164223
 21
-75.825482
 31
0.0
  0
LINE
  5
737
100
AcDbEntity
  8
3
100
AcDbLine
 10
-224.164223
 20
-160.825482
 30
0.0
 11
-224.164223
 21
-75.825482
 31
0.0
  0
LINE
  5
738
100
AcDbEntity
  8
3
100
AcDbLine
 10
-365.164223
 20
-72.825482
 30
0.0
 11
-233.164223
 21
-72.825482
 31
0.0
  0
LINE
  5
739
100
AcDbEntity
  8
3
100
AcDbLine
 10
-236.164223
 20
-172.825482
 30
0.0
 11
-362.164223
 21
-172.825482
 31
0.0
  0
LINE
  5
73A
100
AcDbEntity
  8
3
100
AcDbLine
 10
63.385777
 20
-172.825482
 30
0.0
 11
165.385777
 21
-172.825482
 31
0.0
  0
LINE
  5
73B
100
AcDbEntity
  8
3
100
AcDbLine
 10
165.385777
 20
-72.825482
 30
0.0
 11
165.385777
 21
-172.825482
 31
0.0
  0
LINE
  5
73C
100
AcDbEntity
  8
3
100
AcDbLine
 10
63.385777
 20
-72.825482
 30
0.0
 11
63.385777
 21
-172.825482
 31
0.0
  0
LINE
  5
73D
100
AcDbEntity
  8
3
100
AcDbLine
 10
-236.164223
 20
-163.825482
 30
0.0
 11
-362.164223
 21
-163.825482
 31
0.0
  0
LINE
  5
73E
100
AcDbEntity
  8
3
100
AcDbLine
 10
-365.164223
 20
-160.825482
 30
0.0
 11
-365.164223
 21
-72.825482
 31
0.0
  0
LINE
  5
73F
100
AcDbEntity
  8
3
100
AcDbLine
 10
-233.164223
 20
-160.825482
 30
0.0
 11
-233.164223
 21
-72.825482
 31
0.0
  0
LINE
  5
740
100
AcDbEntity
  8
3
100
AcDbLine
 10
-365.164223
 20
-78.825482
 30
0.0
 11
-233.164223
 21
-78.825482
 31
0.0
  0
LINE
  5
741
100
AcDbEntity
  8
3
100
AcDbLine
 10
-374.164223
 20
-75.825482
 30
0.0
 11
-365.164223
 21
-75.825482
 31
0.0
  0
LINE
  5
742
100
AcDbEntity
  8
3
100
AcDbLine
 10
-233.164223
 20
-75.825482
 30
0.0
 11
-224.164223
 21
-75.825482
 31
0.0
  0
ARC
  5
743
100
AcDbEntity
  8
3
100
AcDbCircle
 10
-236.164223
 20
-160.825482
 30
0.0
 40
3.0
100
AcDbArc
 50
270.0
 51
360.0
  0
ARC
  5
744
100
AcDbEntity
  8
3
100
AcDbCircle
 10
-362.164223
 20
-160.825482
 30
0.0
 40
3.0
100
AcDbArc
 50
180.0
 51
270.0
  0
ARC
  5
745
100
AcDbEntity
  8
3
100
AcDbCircle
 10
-362.164223
 20
-160.825482
 30
0.0
 40
12.0
100
AcDbArc
 50
180.0
 51
270.0
  0
ARC
  5
746
100
AcDbEntity
  8
3
100
AcDbCircle
 10
-236.164223
 20
-160.825482
 30
0.0
 40
12.0
100
AcDbArc
 50
270.0
 51
360.0
  0
LINE
  5
747
100
AcDbEntity
  8
3
100
AcDbLine
 10
-233.164223
 20
-72.825482
 30
0.0
 11
-230.164223
 21
-75.825482
 31
0.0
  0
LINE
  5
748
100
AcDbEntity
  8
3
100
AcDbLine
 10
-365.164223
 20
-72.825482
 30
0.0
 11
-368.164223
 21
-75.825482
 31
0.0
  0
LINE
  5
749
100
AcDbEntity
  8
3
100
AcDbLine
 10
-233.164223
 20
-83.825482
 30
0.0
 11
-238.164223
 21
-78.825482
 31
0.0
  0
LINE
  5
74A
100
AcDbEntity
  8
3
100
AcDbLine
 10
-365.164223
 20
-83.825482
 30
0.0
 11
-360.164223
 21
-78.825482
 31
0.0
  0
LINE
  5
74B
100
AcDbEntity
  8
3
100
AcDbLine
 10
-315.164223
 20
-133.825482
 30
0.0
 11
-315.164223
 21
-100.825482
 31
0.0
  0
LINE
  5
74C
100
AcDbEntity
  8
3
100
AcDbLine
 10
-283.164223
 20
-133.825482
 30
0.0
 11
-283.164223
 21
-100.825482
 31
0.0
  0
LINE
  5
74D
100
AcDbEntity
  8
3
100
AcDbLine
 10
-283.164223
 20
-100.825482
 30
0.0
 11
-315.164223
 21
-100.825482
 31
0.0
  0
LINE
  5
74E
100
AcDbEntity
  8
3
100
AcDbLine
 10
-314.164223
 20
-97.825482
 30
0.0
 11
-314.164223
 21
-78.825482
 31
0.0
  0
LINE
  5
74F
100
AcDbEntity
  8
3
100
AcDbLine
 10
-284.164223
 20
-97.825482
 30
0.0
 11
-284.164223
 21
-78.825482
 31
0.0
  0
LINE
  5
750
100
AcDbEntity
  8
3
100
AcDbLine
 10
-284.164223
 20
-97.825482
 30
0.0
 11
-314.164223
 21
-97.825482
 31
0.0
  0
LINE
  5
751
100
AcDbEntity
  8
3
100
AcDbLine
 10
-284.164223
 20
-97.825482
 30
0.0
 11
-283.164223
 21
-100.825482
 31
0.0
  0
LINE
  5
752
100
AcDbEntity
  8
3
100
AcDbLine
 10
-314.164223
 20
-97.825482
 30
0.0
 11
-315.164223
 21
-100.825482
 31
0.0
  0
LINE
  5
753
100
AcDbEntity
  8
3
100
AcDbLine
 10
-286.164223
 20
-136.825482
 30
0.0
 11
-312.164223
 21
-136.825482
 31
0.0
  0
LINE
  5
754
100
AcDbEntity
  8
3
100
AcDbLine
 10
-286.164223
 20
-136.825482
 30
0.0
 11
-283.164223
 21
-133.825482
 31
0.0
  0
LINE
  5
755
100
AcDbEntity
  8
3
100
AcDbLine
 10
-315.164223
 20
-133.825482
 30
0.0
 11
-312.164223
 21
-136.825482
 31
0.0
  0
LINE
  5
756
100
AcDbEntity
  8
3
100
AcDbLine
 10
-283.164223
 20
-133.825482
 30
0.0
 11
-315.164223
 21
-133.825482
 31
0.0
  0
LINE
  5
757
100
AcDbEntity
  8
3
100
AcDbLine
 10
63.385777
 20
-72.825482
 30
0.0
 11
152.861965
 21
-72.825482
 31
0.0
  0
LINE
  5
758
100
AcDbEntity
  8
3
100
AcDbLine
 10
158.485391
 20
-72.825482
 30
0.0
 11
165.385777
 21
-72.825482
 31
0.0
  0
LINE
  5
759
100
AcDbEntity
  8
3
100
AcDbLine
 10
63.385777
 20
-75.825482
 30
0.0
 11
152.757203
 21
-75.825482
 31
0.0
  0
LINE
  5
75A
100
AcDbEntity
  8
3
100
AcDbLine
 10
158.380629
 20
-75.825482
 30
0.0
 11
165.385777
 21
-75.825482
 31
0.0
  0
DIMENSION
  5
75B
100
AcDbEntity
  8
5
100
AcDbDimension
  2
*D0
 10
-63.764288
 20
-72.825482
 30
0.0
 11
-75.659288
 21
-123.320482
 31
0.0
  1
100
100
AcDbAlignedDimension
 13
63.385777
 23
-172.825482
 33
0.0
 14
63.385777
 24
-72.825482
 34
0.0
 50
90.0
100
AcDbRotatedDimension
  0
DIMENSION
  5
75C
100
AcDbEntity
  8
5
100
AcDbDimension
  2
*D1
 10
-63.764288
 20
-172.825482
 30
0.0
 11
-75.659288
 21
-232.320482
 31
0.0
  1
118
100
AcDbAlignedDimension
 13
87.090996
 23
-290.825482
 33
0.0
 14
63.385777
 24
-172.825482
 34
0.0
 50
90.0
100
AcDbRotatedDimension
  0
DIMENSION
  5
75D
100
AcDbEntity
  8
5
100
AcDbDimension
  2
*D2
 10
-63.764288
 20
-290.825482
 30
0.0
 11
-72.194288
 21
-320.005482
 31
0.0
  1
64
100
AcDbAlignedDimension
 13
102.385777
 23
-355.125482
 33
0.0
 14
87.090996
 24
-290.825482
 34
0.0
 50
90.0
100
AcDbRotatedDimension
  0
DIMENSION
  5
75E
100
AcDbEntity
  8
5
100
AcDbDimension
  2
*D3
 10
114.385777
 20
-379.388649
 30
0.0
 11
84.955777
 21
-372.938649
 31
0.0
  1
15
100
AcDbAlignedDimension
 13
99.385777
 23
-331.325482
 33
0.0
 14
114.385777
 24
-364.163632
 34
0.0
100
AcDbRotatedDimension
  0
DIMENSION
  5
75F
100
AcDbEntity
  8
5
100
AcDbDimension
  2
*D4
 10
132.385777
 20
-403.273476
 30
0.0
 11
115.885777
 21
-396.823476
 31
0.0
  1
33
100
AcDbAlignedDimension
 13
99.385777
 23
-331.325482
 33
0.0
 14
132.385777
 24
-331.325482
 34
0.0
100
AcDbRotatedDimension
  0
TEXT
  5
760
100
AcDbEntity
  8
5
100
AcDbText
 10
329.090172
 20
154.53352
 30
0.0
 40
15.0
  1
（コントロールユニット付）
 72
     5
 11
521.090172
 21
154.53352
 31
0.0
100
AcDbText
  0
TEXT
  5
761
100
AcDbEntity
  8
5
100
AcDbText
 10
239.090172
 20
175.53352
 30
0.0
 40
15.0
  1
駆動部・・・４Ｉ－０型 
 72
     5
 11
401.090172
 21
175.53352
 31
0.0
100
AcDbText
  0
DIMENSION
  5
762
100
AcDbEntity
  8
5
100
AcDbDimension
  2
*D5
 10
-63.764288
 20
103.174518
 30
0.0
 11
-75.659288
 21
14.679518
 31
0.0
  1
176
100
AcDbAlignedDimension
 13
63.385777
 23
-72.825482
 33
0.0
 14
114.385777
 24
103.174518
 34
0.0
 50
90.0
100
AcDbRotatedDimension
  0
DIMENSION
  5
763
100
AcDbEntity
  8
5
100
AcDbDimension
  2
*D6
 10
-299.164223
 20
352.548859
 30
0.0
 11
-349.164223
 21
358.998859
 31
0.0
  1
100
100
AcDbAlignedDimension
 13
-399.164223
 23
231.324518
 33
0.0
 14
-299.164223
 24
325.993562
 34
0.0
100
AcDbRotatedDimension
  0
DIMENSION
  5
764
100
AcDbEntity
  8
5
100
AcDbDimension
  2
*D7
 10
-197.164223
 20
352.548859
 30
0.0
 11
-248.164223
 21
358.998859
 31
0.0
  1
102
100
AcDbAlignedDimension
 13
-299.164223
 23
352.548859
 33
0.0
 14
-197.164223
 24
299.824518
 34
0.0
100
AcDbRotatedDimension
  0
DIMENSION
  5
765
100
AcDbEntity
  8
5
100
AcDbDimension
  2
*D8
 10
-157.219551
 20
315.627518
 30
0.0
 11
-172.579551
 21
284.766018
 31
0.0
  1
53.8
100
AcDbAlignedDimension
 13
-193.65867
 23
261.824518
 33
0.0
 14
-215.361223
 24
315.627518
 34
0.0
 50
90.0
100
AcDbRotatedDimension
  0
DIMENSION
  5
766
100
AcDbEntity
  8
5
100
AcDbDimension
  2
*D9
 10
-157.219551
 20
261.824518
 30
0.0
 11
-165.649551
 21
222.294518
 31
0.0
  1
85
100
AcDbAlignedDimension
 13
-258.464223
 23
176.824518
 33
0.0
 14
-157.219551
 24
261.824518
 34
0.0
 50
90.0
100
AcDbRotatedDimension
  0
LINE
  5
767
100
AcDbEntity
  8
18
100
AcDbLine
 10
171.385777
 20
-290.825482
 30
0.0
 11
261.385777
 21
-290.825482
 31
0.0
  0
LINE
  5
768
100
AcDbEntity
  8
18
100
AcDbLine
 10
171.385777
 20
-290.825482
 30
0.0
 11
201.385777
 21
-282.787007
 31
0.0
  0
LINE
  5
769
100
AcDbEntity
  8
18
100
AcDbLine
 10
201.385777
 20
-282.787007
 30
0.0
 11
201.385777
 21
-298.863958
 31
0.0
  0
LINE
  5
76A
100
AcDbEntity
  8
18
100
AcDbLine
 10
171.385777
 20
-290.825482
 30
0.0
 11
201.385777
 21
-298.863958
 31
0.0
  0
LINE
  5
76B
100
AcDbEntity
  8
18
100
AcDbLine
 10
206.021004
 20
345.277794
 30
0.0
 11
206.021004
 21
240.277794
 31
0.0
  0
LINE
  5
76C
100
AcDbEntity
  8
18
100
AcDbLine
 10
542.021004
 20
270.277794
 30
0.0
 11
206.021004
 21
270.277794
 31
0.0
  0
LINE
  5
76D
100
AcDbEntity
  8
18
100
AcDbLine
 10
542.021004
 20
255.277794
 30
0.0
 11
206.021004
 21
255.277794
 31
0.0
  0
LINE
  5
76E
100
AcDbEntity
  8
18
100
AcDbLine
 10
542.021004
 20
240.277794
 30
0.0
 11
206.021004
 21
240.277794
 31
0.0
  0
LINE
  5
76F
100
AcDbEntity
  8
18
100
AcDbLine
 10
290.021004
 20
345.277794
 30
0.0
 11
290.021004
 21
255.277794
 31
0.0
  0
LINE
  5
770
100
AcDbEntity
  8
18
100
AcDbLine
 10
374.021004
 20
345.277794
 30
0.0
 11
374.021004
 21
255.277794
 31
0.0
  0
LINE
  5
771
100
AcDbEntity
  8
18
100
AcDbLine
 10
458.021004
 20
345.277794
 30
0.0
 11
458.021004
 21
255.277794
 31
0.0
  0
LINE
  5
772
100
AcDbEntity
  8
18
100
AcDbLine
 10
542.021004
 20
345.277794
 30
0.0
 11
542.021004
 21
240.277794
 31
0.0
  0
LINE
  5
773
100
AcDbEntity
  8
18
100
AcDbLine
 10
206.021004
 20
345.277794
 30
0.0
 11
542.021004
 21
345.277794
 31
0.0
  0
POLYLINE
  5
774
100
AcDbEntity
  8
18
 62
     2
100
AcDb2dPolyline
 66
     1
 10
0.0
 20
0.0
 30
0.0
  0
VERTEX
  5
91D
100
AcDbEntity
  8
18
 62
     2
100
AcDbVertex
100
AcDb2dVertex
 10
244.930487
 20
314.521591
 30
0.0
  0
VERTEX
  5
91E
100
AcDbEntity
  8
18
 62
     2
100
AcDbVertex
100
AcDb2dVertex
 10
244.930487
 20
328.135669
 30
0.0
  0
SEQEND
  5
91F
100
AcDbEntity
  8
18
 62
     2
  0
LINE
  5
778
100
AcDbEntity
  8
18
 62
     2
100
AcDbLine
 10
244.930487
 20
320.317146
 30
0.0
 11
243.377572
 21
320.317146
 31
0.0
  0
LINE
  5
779
100
AcDbEntity
  8
18
 62
     2
100
AcDbLine
 10
243.377572
 20
320.317146
 30
0.0
 11
244.930487
 21
314.521591
 31
0.0
  0
LINE
  5
77A
100
AcDbEntity
  8
18
 62
     2
100
AcDbLine
 10
244.930487
 20
314.521591
 30
0.0
 11
246.483401
 21
320.317146
 31
0.0
  0
LINE
  5
77B
100
AcDbEntity
  8
18
 62
     2
100
AcDbLine
 10
246.483401
 20
320.317146
 30
0.0
 11
244.930487
 21
320.317146
 31
0.0
  0
LINE
  5
77C
100
AcDbEntity
  8
18
  6
CENTER
 62
     2
100
AcDbLine
 10
270.320083
 20
294.972863
 30
0.0
 11
217.514081
 21
294.972863
 31
0.0
  0
LINE
  5
77D
100
AcDbEntity
  8
18
  6
CENTER
 62
     2
100
AcDbLine
 10
244.522478
 20
281.334581
 30
0.0
 11
244.522478
 21
310.255917
 31
0.0
  0
LINE
  5
77E
100
AcDbEntity
  8
18
100
AcDbLine
 10
265.642478
 20
285.732863
 30
0.0
 11
226.042478
 21
285.732863
 31
0.0
  0
LINE
  5
77F
100
AcDbEntity
  8
18
100
AcDbLine
 10
265.642478
 20
304.212863
 30
0.0
 11
226.042478
 21
304.212863
 31
0.0
  0
LINE
  5
780
100
AcDbEntity
  8
18
100
AcDbLine
 10
265.642478
 20
285.732863
 30
0.0
 11
265.642478
 21
306.852863
 31
0.0
  0
LINE
  5
781
100
AcDbEntity
  8
18
100
AcDbLine
 10
228.682478
 20
285.732863
 30
0.0
 11
228.682478
 21
304.212863
 31
0.0
  0
LINE
  5
782
100
AcDbEntity
  8
18
100
AcDbLine
 10
265.642478
 20
306.852863
 30
0.0
 11
230.442478
 21
306.852863
 31
0.0
  0
LINE
  5
783
100
AcDbEntity
  8
18
100
AcDbLine
 10
226.042478
 20
285.732863
 30
0.0
 11
226.042478
 21
304.212863
 31
0.0
  0
LINE
  5
784
100
AcDbEntity
  8
18
100
AcDbLine
 10
230.442478
 20
304.212863
 30
0.0
 11
230.442478
 21
306.852863
 31
0.0
  0
LINE
  5
785
100
AcDbEntity
  8
18
100
AcDbLine
 10
253.762478
 20
287.052863
 30
0.0
 11
253.762478
 21
302.892863
 31
0.0
  0
LINE
  5
786
100
AcDbEntity
  8
18
100
AcDbLine
 10
231.322478
 20
287.052863
 30
0.0
 11
231.322478
 21
302.892863
 31
0.0
  0
LINE
  5
787
100
AcDbEntity
  8
18
100
AcDbLine
 10
253.762478
 20
287.052863
 30
0.0
 11
231.322478
 21
287.052863
 31
0.0
  0
LINE
  5
788
100
AcDbEntity
  8
18
100
AcDbLine
 10
253.762478
 20
302.892863
 30
0.0
 11
231.322478
 21
302.892863
 31
0.0
  0
CIRCLE
  5
789
100
AcDbEntity
  8
18
100
AcDbCircle
 10
244.522478
 20
294.972863
 30
0.0
 40
3.168
  0
LINE
  5
78A
100
AcDbEntity
  8
18
  6
DASHED
100
AcDbLine
 10
259.042478
 20
289.692863
 30
0.0
 11
230.002478
 21
289.692863
 31
0.0
  0
LINE
  5
78B
100
AcDbEntity
  8
18
  6
DASHED
100
AcDbLine
 10
259.042478
 20
300.252863
 30
0.0
 11
230.002478
 21
300.252863
 31
0.0
  0
LINE
  5
78C
100
AcDbEntity
  8
18
  6
DASHED
100
AcDbLine
 10
230.002478
 20
289.692863
 30
0.0
 11
230.002478
 21
300.252863
 31
0.0
  0
LINE
  5
78D
100
AcDbEntity
  8
18
  6
DASHED
100
AcDbLine
 10
259.042478
 20
289.692863
 30
0.0
 11
259.042478
 21
300.252863
 31
0.0
  0
LINE
  5
78E
100
AcDbEntity
  8
18
  6
CENTER
 62
     2
100
AcDbLine
 10
237.482478
 20
305.469321
 30
0.0
 11
237.482478
 21
316.851828
 31
0.0
  0
LINE
  5
78F
100
AcDbEntity
  8
18
100
AcDbLine
 10
237.482636
 20
310.812863
 30
0.0
 11
242.648958
 21
310.812863
 31
0.0
  0
LINE
  5
790
100
AcDbEntity
  8
18
100
AcDbLine
 10
242.648958
 20
310.812863
 30
0.0
 11
242.648958
 21
312.132863
 31
0.0
  0
LINE
  5
791
100
AcDbEntity
  8
18
100
AcDbLine
 10
237.482636
 20
312.132863
 30
0.0
 11
242.648958
 21
312.132863
 31
0.0
  0
LINE
  5
792
100
AcDbEntity
  8
18
100
AcDbLine
 10
232.316313
 20
310.812863
 30
0.0
 11
232.316313
 21
312.132863
 31
0.0
  0
LINE
  5
793
100
AcDbEntity
  8
18
100
AcDbLine
 10
241.704471
 20
306.852863
 30
0.0
 11
239.857892
 21
310.812863
 31
0.0
  0
LINE
  5
794
100
AcDbEntity
  8
18
100
AcDbLine
 10
233.2608
 20
306.852863
 30
0.0
 11
235.107379
 21
310.812863
 31
0.0
  0
LINE
  5
795
100
AcDbEntity
  8
18
100
AcDbLine
 10
237.482636
 20
310.812863
 30
0.0
 11
232.316313
 21
310.812863
 31
0.0
  0
LINE
  5
796
100
AcDbEntity
  8
18
100
AcDbLine
 10
237.482636
 20
312.132863
 30
0.0
 11
232.316313
 21
312.132863
 31
0.0
  0
LINE
  5
797
100
AcDbEntity
  8
18
  6
CENTER
 62
     2
100
AcDbLine
 10
314.569474
 20
304.970903
 30
0.0
 11
351.861302
 21
304.970903
 31
0.0
  0
LINE
  5
798
100
AcDbEntity
  8
18
100
AcDbLine
 10
347.861004
 20
312.011061
 30
0.0
 11
347.861004
 21
317.177383
 31
0.0
  0
LINE
  5
799
100
AcDbEntity
  8
18
100
AcDbLine
 10
347.861004
 20
317.177383
 30
0.0
 11
349.181004
 21
317.177383
 31
0.0
  0
LINE
  5
79A
100
AcDbEntity
  8
18
100
AcDbLine
 10
349.181004
 20
312.011061
 30
0.0
 11
349.181004
 21
317.177383
 31
0.0
  0
LINE
  5
79B
100
AcDbEntity
  8
18
100
AcDbLine
 10
347.861004
 20
306.844738
 30
0.0
 11
349.181004
 21
306.844738
 31
0.0
  0
LINE
  5
79C
100
AcDbEntity
  8
18
  6
CENTER
 62
     2
100
AcDbLine
 10
332.021004
 20
327.17527
 30
0.0
 11
332.021004
 21
280.707222
 31
0.0
  0
LINE
  5
79D
100
AcDbEntity
  8
18
100
AcDbLine
 10
322.781004
 20
283.850903
 30
0.0
 11
322.781004
 21
323.450903
 31
0.0
  0
LINE
  5
79E
100
AcDbEntity
  8
18
100
AcDbLine
 10
341.261004
 20
283.850903
 30
0.0
 11
341.261004
 21
323.450903
 31
0.0
  0
LINE
  5
79F
100
AcDbEntity
  8
18
100
AcDbLine
 10
322.781004
 20
283.850903
 30
0.0
 11
343.901004
 21
283.850903
 31
0.0
  0
LINE
  5
7A0
100
AcDbEntity
  8
18
100
AcDbLine
 10
322.781004
 20
320.810903
 30
0.0
 11
341.261004
 21
320.810903
 31
0.0
  0
LINE
  5
7A1
100
AcDbEntity
  8
18
100
AcDbLine
 10
343.901004
 20
283.850903
 30
0.0
 11
343.901004
 21
319.050903
 31
0.0
  0
LINE
  5
7A2
100
AcDbEntity
  8
18
100
AcDbLine
 10
322.781004
 20
323.450903
 30
0.0
 11
341.261004
 21
323.450903
 31
0.0
  0
LINE
  5
7A3
100
AcDbEntity
  8
18
100
AcDbLine
 10
341.261004
 20
319.050903
 30
0.0
 11
343.901004
 21
319.050903
 31
0.0
  0
LINE
  5
7A4
100
AcDbEntity
  8
18
100
AcDbLine
 10
324.101004
 20
295.730903
 30
0.0
 11
339.941004
 21
295.730903
 31
0.0
  0
LINE
  5
7A5
100
AcDbEntity
  8
18
100
AcDbLine
 10
324.101004
 20
318.170903
 30
0.0
 11
339.941004
 21
318.170903
 31
0.0
  0
LINE
  5
7A6
100
AcDbEntity
  8
18
100
AcDbLine
 10
324.101004
 20
295.730903
 30
0.0
 11
324.101004
 21
318.170903
 31
0.0
  0
LINE
  5
7A7
100
AcDbEntity
  8
18
100
AcDbLine
 10
339.941004
 20
295.730903
 30
0.0
 11
339.941004
 21
318.170903
 31
0.0
  0
CIRCLE
  5
7A8
100
AcDbEntity
  8
18
100
AcDbCircle
 10
332.021004
 20
304.970903
 30
0.0
 40
3.168
  0
LINE
  5
7A9
100
AcDbEntity
  8
18
100
AcDbLine
 10
317.501004
 20
310.250903
 30
0.0
 11
317.501004
 21
299.690903
 31
0.0
  0
LINE
  5
7AA
100
AcDbEntity
  8
18
  6
CENTER
 62
     2
100
AcDbLine
 10
342.517462
 20
312.010903
 30
0.0
 11
354.667631
 21
312.010903
 31
0.0
  0
LINE
  5
7AB
100
AcDbEntity
  8
18
100
AcDbLine
 10
317.501004
 20
310.250903
 30
0.0
 11
322.781004
 21
310.250903
 31
0.0
  0
LINE
  5
7AC
100
AcDbEntity
  8
18
100
AcDbLine
 10
343.901004
 20
299.690903
 30
0.0
 11
346.541004
 21
299.690903
 31
0.0
  0
LINE
  5
7AD
100
AcDbEntity
  8
18
100
AcDbLine
 10
317.501004
 20
299.690903
 30
0.0
 11
322.781004
 21
299.690903
 31
0.0
  0
LINE
  5
7AE
100
AcDbEntity
  8
18
  6
DASHED
100
AcDbLine
 10
322.781004
 20
299.690903
 30
0.0
 11
343.901004
 21
299.690903
 31
0.0
  0
LINE
  5
7AF
100
AcDbEntity
  8
18
100
AcDbLine
 10
346.541004
 20
305.524581
 30
0.0
 11
346.541004
 21
299.690903
 31
0.0
  0
LINE
  5
7B0
100
AcDbEntity
  8
18
  6
DASHED
100
AcDbLine
 10
322.781004
 20
310.250903
 30
0.0
 11
343.901004
 21
310.250903
 31
0.0
  0
LINE
  5
7B1
100
AcDbEntity
  8
18
  6
DASHED
100
AcDbLine
 10
343.901004
 20
310.250903
 30
0.0
 11
346.185008
 21
310.250903
 31
0.0
  0
LINE
  5
7B2
100
AcDbEntity
  8
18
  6
DASHED
100
AcDbLine
 10
346.185008
 20
310.250903
 30
0.0
 11
346.541004
 21
310.250903
 31
0.0
  0
LINE
  5
7B3
100
AcDbEntity
  8
18
100
AcDbLine
 10
343.901004
 20
316.232896
 30
0.0
 11
347.861004
 21
314.386318
 31
0.0
  0
LINE
  5
7B4
100
AcDbEntity
  8
18
100
AcDbLine
 10
343.901004
 20
307.789226
 30
0.0
 11
347.861004
 21
309.635804
 31
0.0
  0
LINE
  5
7B5
100
AcDbEntity
  8
18
100
AcDbLine
 10
347.861004
 20
312.011061
 30
0.0
 11
347.861004
 21
306.844738
 31
0.0
  0
LINE
  5
7B6
100
AcDbEntity
  8
18
100
AcDbLine
 10
349.181004
 20
312.011061
 30
0.0
 11
349.181004
 21
306.844738
 31
0.0
  0
LINE
  5
7B7
100
AcDbEntity
  8
18
  6
DASHED
100
AcDbLine
 10
346.541004
 20
310.250903
 30
0.0
 11
346.541004
 21
309.020278
 31
0.0
  0
LINE
  5
7B8
100
AcDbEntity
  8
18
100
AcDbLine
 10
346.541004
 20
309.460278
 30
0.0
 11
346.541004
 21
309.428391
 31
0.0
  0
LINE
  5
7B9
100
AcDbEntity
  8
18
100
AcDbLine
 10
346.541004
 20
309.020278
 30
0.0
 11
346.541004
 21
305.167203
 31
0.0
  0
LINE
  5
7BA
100
AcDbEntity
  8
18
  6
CENTER
 62
     2
100
AcDbLine
 10
390.223399
 20
304.970903
 30
0.0
 11
443.029401
 21
304.970903
 31
0.0
  0
LINE
  5
7BB
100
AcDbEntity
  8
18
  6
CENTER
 62
     2
100
AcDbLine
 10
416.021004
 20
318.609185
 30
0.0
 11
416.021004
 21
289.687849
 31
0.0
  0
LINE
  5
7BC
100
AcDbEntity
  8
18
100
AcDbLine
 10
394.901004
 20
314.210903
 30
0.0
 11
434.501004
 21
314.210903
 31
0.0
  0
LINE
  5
7BD
100
AcDbEntity
  8
18
100
AcDbLine
 10
394.901004
 20
295.730903
 30
0.0
 11
434.501004
 21
295.730903
 31
0.0
  0
LINE
  5
7BE
100
AcDbEntity
  8
18
100
AcDbLine
 10
394.901004
 20
314.210903
 30
0.0
 11
394.901004
 21
293.090903
 31
0.0
  0
LINE
  5
7BF
100
AcDbEntity
  8
18
100
AcDbLine
 10
431.861004
 20
314.210903
 30
0.0
 11
431.861004
 21
295.730903
 31
0.0
  0
LINE
  5
7C0
100
AcDbEntity
  8
18
100
AcDbLine
 10
394.901004
 20
293.090903
 30
0.0
 11
430.101004
 21
293.090903
 31
0.0
  0
LINE
  5
7C1
100
AcDbEntity
  8
18
100
AcDbLine
 10
434.501004
 20
314.210903
 30
0.0
 11
434.501004
 21
295.730903
 31
0.0
  0
LINE
  5
7C2
100
AcDbEntity
  8
18
100
AcDbLine
 10
430.101004
 20
295.730903
 30
0.0
 11
430.101004
 21
293.090903
 31
0.0
  0
LINE
  5
7C3
100
AcDbEntity
  8
18
100
AcDbLine
 10
406.781004
 20
312.890903
 30
0.0
 11
406.781004
 21
297.050903
 31
0.0
  0
LINE
  5
7C4
100
AcDbEntity
  8
18
100
AcDbLine
 10
429.221004
 20
312.890903
 30
0.0
 11
429.221004
 21
297.050903
 31
0.0
  0
LINE
  5
7C5
100
AcDbEntity
  8
18
100
AcDbLine
 10
406.781004
 20
312.890903
 30
0.0
 11
429.221004
 21
312.890903
 31
0.0
  0
LINE
  5
7C6
100
AcDbEntity
  8
18
100
AcDbLine
 10
406.781004
 20
297.050903
 30
0.0
 11
429.221004
 21
297.050903
 31
0.0
  0
CIRCLE
  5
7C7
100
AcDbEntity
  8
18
100
AcDbCircle
 10
416.021004
 20
304.970903
 30
0.0
 40
3.168
  0
LINE
  5
7C8
100
AcDbEntity
  8
18
  6
DASHED
100
AcDbLine
 10
401.501004
 20
310.250903
 30
0.0
 11
430.541004
 21
310.250903
 31
0.0
  0
LINE
  5
7C9
100
AcDbEntity
  8
18
  6
DASHED
100
AcDbLine
 10
401.501004
 20
299.690903
 30
0.0
 11
430.541004
 21
299.690903
 31
0.0
  0
LINE
  5
7CA
100
AcDbEntity
  8
18
  6
DASHED
100
AcDbLine
 10
430.541004
 20
310.250903
 30
0.0
 11
430.541004
 21
299.690903
 31
0.0
  0
LINE
  5
7CB
100
AcDbEntity
  8
18
  6
DASHED
100
AcDbLine
 10
401.501004
 20
310.250903
 30
0.0
 11
401.501004
 21
299.690903
 31
0.0
  0
LINE
  5
7CC
100
AcDbEntity
  8
18
  6
CENTER
 62
     2
100
AcDbLine
 10
423.061004
 20
294.474445
 30
0.0
 11
423.061004
 21
283.091938
 31
0.0
  0
LINE
  5
7CD
100
AcDbEntity
  8
18
100
AcDbLine
 10
423.060846
 20
289.130903
 30
0.0
 11
417.894524
 21
289.130903
 31
0.0
  0
LINE
  5
7CE
100
AcDbEntity
  8
18
100
AcDbLine
 10
417.894524
 20
289.130903
 30
0.0
 11
417.894524
 21
287.810903
 31
0.0
  0
LINE
  5
7CF
100
AcDbEntity
  8
18
100
AcDbLine
 10
423.060846
 20
287.810903
 30
0.0
 11
417.894524
 21
287.810903
 31
0.0
  0
LINE
  5
7D0
100
AcDbEntity
  8
18
100
AcDbLine
 10
428.227169
 20
289.130903
 30
0.0
 11
428.227169
 21
287.810903
 31
0.0
  0
LINE
  5
7D1
100
AcDbEntity
  8
18
100
AcDbLine
 10
418.839011
 20
293.090903
 30
0.0
 11
420.685589
 21
289.130903
 31
0.0
  0
LINE
  5
7D2
100
AcDbEntity
  8
18
100
AcDbLine
 10
427.282681
 20
293.090903
 30
0.0
 11
425.436103
 21
289.130903
 31
0.0
  0
LINE
  5
7D3
100
AcDbEntity
  8
18
100
AcDbLine
 10
423.060846
 20
289.130903
 30
0.0
 11
428.227169
 21
289.130903
 31
0.0
  0
LINE
  5
7D4
100
AcDbEntity
  8
18
100
AcDbLine
 10
423.060846
 20
287.810903
 30
0.0
 11
428.227169
 21
287.810903
 31
0.0
  0
LINE
  5
7D5
100
AcDbEntity
  8
18
  6
CENTER
 62
     2
100
AcDbLine
 10
517.472533
 20
304.970903
 30
0.0
 11
480.180705
 21
304.970903
 31
0.0
  0
LINE
  5
7D6
100
AcDbEntity
  8
18
100
AcDbLine
 10
484.181004
 20
297.930746
 30
0.0
 11
484.181004
 21
292.764423
 31
0.0
  0
LINE
  5
7D7
100
AcDbEntity
  8
18
100
AcDbLine
 10
484.181004
 20
292.764423
 30
0.0
 11
482.861004
 21
292.764423
 31
0.0
  0
LINE
  5
7D8
100
AcDbEntity
  8
18
100
AcDbLine
 10
482.861004
 20
297.930746
 30
0.0
 11
482.861004
 21
292.764423
 31
0.0
  0
LINE
  5
7D9
100
AcDbEntity
  8
18
100
AcDbLine
 10
484.181004
 20
303.097068
 30
0.0
 11
482.861004
 21
303.097068
 31
0.0
  0
LINE
  5
7DA
100
AcDbEntity
  8
18
  6
CENTER
 62
     2
100
AcDbLine
 10
500.021004
 20
282.766537
 30
0.0
 11
500.021004
 21
329.234584
 31
0.0
  0
LINE
  5
7DB
100
AcDbEntity
  8
18
100
AcDbLine
 10
509.261004
 20
326.090903
 30
0.0
 11
509.261004
 21
286.490903
 31
0.0
  0
LINE
  5
7DC
100
AcDbEntity
  8
18
100
AcDbLine
 10
490.781004
 20
326.090903
 30
0.0
 11
490.781004
 21
286.490903
 31
0.0
  0
LINE
  5
7DD
100
AcDbEntity
  8
18
100
AcDbLine
 10
509.261004
 20
326.090903
 30
0.0
 11
488.141004
 21
326.090903
 31
0.0
  0
LINE
  5
7DE
100
AcDbEntity
  8
18
100
AcDbLine
 10
509.261004
 20
289.130903
 30
0.0
 11
490.781004
 21
289.130903
 31
0.0
  0
LINE
  5
7DF
100
AcDbEntity
  8
18
100
AcDbLine
 10
488.141004
 20
326.090903
 30
0.0
 11
488.141004
 21
290.890903
 31
0.0
  0
LINE
  5
7E0
100
AcDbEntity
  8
18
100
AcDbLine
 10
509.261004
 20
286.490903
 30
0.0
 11
490.781004
 21
286.490903
 31
0.0
  0
LINE
  5
7E1
100
AcDbEntity
  8
18
100
AcDbLine
 10
490.781004
 20
290.890903
 30
0.0
 11
488.141004
 21
290.890903
 31
0.0
  0
LINE
  5
7E2
100
AcDbEntity
  8
18
100
AcDbLine
 10
507.941004
 20
314.210903
 30
0.0
 11
492.101004
 21
314.210903
 31
0.0
  0
LINE
  5
7E3
100
AcDbEntity
  8
18
100
AcDbLine
 10
507.941004
 20
291.770903
 30
0.0
 11
492.101004
 21
291.770903
 31
0.0
  0
LINE
  5
7E4
100
AcDbEntity
  8
18
100
AcDbLine
 10
507.941004
 20
314.210903
 30
0.0
 11
507.941004
 21
291.770903
 31
0.0
  0
LINE
  5
7E5
100
AcDbEntity
  8
18
100
AcDbLine
 10
492.101004
 20
314.210903
 30
0.0
 11
492.101004
 21
291.770903
 31
0.0
  0
CIRCLE
  5
7E6
100
AcDbEntity
  8
18
100
AcDbCircle
 10
500.021004
 20
304.970903
 30
0.0
 40
3.168
  0
LINE
  5
7E7
100
AcDbEntity
  8
18
100
AcDbLine
 10
514.541004
 20
299.690903
 30
0.0
 11
514.541004
 21
310.250903
 31
0.0
  0
LINE
  5
7E8
100
AcDbEntity
  8
18
  6
CENTER
 62
     2
100
AcDbLine
 10
489.524545
 20
297.930903
 30
0.0
 11
477.374376
 21
297.930903
 31
0.0
  0
LINE
  5
7E9
100
AcDbEntity
  8
18
100
AcDbLine
 10
514.541004
 20
299.690903
 30
0.0
 11
509.261004
 21
299.690903
 31
0.0
  0
LINE
  5
7EA
100
AcDbEntity
  8
18
100
AcDbLine
 10
488.141004
 20
310.250903
 30
0.0
 11
485.501004
 21
310.250903
 31
0.0
  0
LINE
  5
7EB
100
AcDbEntity
  8
18
100
AcDbLine
 10
514.541004
 20
310.250903
 30
0.0
 11
509.261004
 21
310.250903
 31
0.0
  0
LINE
  5
7EC
100
AcDbEntity
  8
18
  6
DASHED
100
AcDbLine
 10
509.261004
 20
310.250903
 30
0.0
 11
488.141004
 21
310.250903
 31
0.0
  0
LINE
  5
7ED
100
AcDbEntity
  8
18
100
AcDbLine
 10
485.501004
 20
304.417226
 30
0.0
 11
485.501004
 21
310.250903
 31
0.0
  0
LINE
  5
7EE
100
AcDbEntity
  8
18
  6
DASHED
100
AcDbLine
 10
509.261004
 20
299.690903
 30
0.0
 11
488.141004
 21
299.690903
 31
0.0
  0
LINE
  5
7EF
100
AcDbEntity
  8
18
  6
DASHED
100
AcDbLine
 10
488.141004
 20
299.690903
 30
0.0
 11
485.856999
 21
299.690903
 31
0.0
  0
LINE
  5
7F0
100
AcDbEntity
  8
18
  6
DASHED
100
AcDbLine
 10
485.856999
 20
299.690903
 30
0.0
 11
485.501004
 21
299.690903
 31
0.0
  0
LINE
  5
7F1
100
AcDbEntity
  8
18
100
AcDbLine
 10
488.141004
 20
293.708911
 30
0.0
 11
484.181004
 21
295.555489
 31
0.0
  0
LINE
  5
7F2
100
AcDbEntity
  8
18
100
AcDbLine
 10
488.141004
 20
302.152581
 30
0.0
 11
484.181004
 21
300.306003
 31
0.0
  0
LINE
  5
7F3
100
AcDbEntity
  8
18
100
AcDbLine
 10
484.181004
 20
297.930746
 30
0.0
 11
484.181004
 21
303.097068
 31
0.0
  0
LINE
  5
7F4
100
AcDbEntity
  8
18
100
AcDbLine
 10
482.861004
 20
297.930746
 30
0.0
 11
482.861004
 21
303.097068
 31
0.0
  0
LINE
  5
7F5
100
AcDbEntity
  8
18
  6
DASHED
100
AcDbLine
 10
485.501004
 20
299.690903
 30
0.0
 11
485.501004
 21
300.921529
 31
0.0
  0
LINE
  5
7F6
100
AcDbEntity
  8
18
100
AcDbLine
 10
485.501004
 20
300.481529
 30
0.0
 11
485.501004
 21
300.513416
 31
0.0
  0
LINE
  5
7F7
100
AcDbEntity
  8
18
100
AcDbLine
 10
485.501004
 20
300.921529
 30
0.0
 11
485.501004
 21
304.774603
 31
0.0
  0
TEXT
  5
7F8
100
AcDbEntity
  8
18
100
AcDbText
 10
366.897377
 20
-399.815735
 30
0.0
 40
9.0
  1
１
 72
     5
 11
374.097377
 21
-399.815735
 31
0.0
100
AcDbText
  0
TEXT
  5
7F9
100
AcDbEntity
  8
18
100
AcDbText
 10
209.41523
 20
-285.582542
 30
0.0
 40
15.0
  1
高圧側
 72
     5
 11
251.41523
 21
-285.582542
 31
0.0
100
AcDbText
  0
TEXT
  5
7FA
100
AcDbEntity
  8
18
100
AcDbText
 10
242.413216
 20
258.811432
 30
0.0
 40
9.0
  1
Ａ
 72
     5
 11
249.613216
 21
258.811432
 31
0.0
100
AcDbText
  0
TEXT
  5
7FB
100
AcDbEntity
  8
18
100
AcDbText
 10
326.377373
 20
258.570969
 30
0.0
 40
9.0
  1
Ｂ
 72
     5
 11
333.577373
 21
258.570969
 31
0.0
100
AcDbText
  0
TEXT
  5
7FC
100
AcDbEntity
  8
18
100
AcDbText
 10
410.413216
 20
258.811432
 30
0.0
 40
9.0
  1
Ｃ
 72
     5
 11
417.613216
 21
258.811432
 31
0.0
100
AcDbText
  0
TEXT
  5
7FD
100
AcDbEntity
  8
18
100
AcDbText
 10
325.896469
 20
243.490708
 30
0.0
 40
9.0
  1
アクチュエ－タ取付方向
 72
     5
 11
423.096469
 21
243.490708
 31
0.0
100
AcDbText
  0
TEXT
  5
7FE
100
AcDbEntity
  8
18
100
AcDbText
 10
221.548187
 20
273.414642
 30
0.0
 40
7.5
  1
弁棒側　低圧側
 72
     5
 11
272.548187
 21
273.414642
 31
0.0
100
AcDbText
  0
TEXT
  5
7FF
100
AcDbEntity
  8
18
100
AcDbText
 10
214.359169
 20
333.131721
 30
0.0
 40
7.5
  1
フラット側　高圧側
 72
     5
 11
280.359169
 21
333.131721
 31
0.0
100
AcDbText
  0
TEXT
  5
800
100
AcDbEntity
  8
18
100
AcDbText
 10
494.413216
 20
258.811432
 30
0.0
 40
9.0
  1
Ｄ
 72
     5
 11
501.613216
 21
258.811432
 31
0.0
100
AcDbText
  0
TEXT
  5
801
100
AcDbEntity
  8
18
100
AcDbText
 10
378.892731
 20
-411.050308
 30
0.0
 40
9.0
  1
３
 72
     5
 11
386.092731
 21
-411.050308
 31
0.0
100
AcDbText
  0
TEXT
  5
802
100
AcDbEntity
  8
18
100
AcDbText
 10
366.562721
 20
-381.105789
 30
0.0
 40
9.0
  1
標準仕様、重負荷仕様
 72
     5
 11
454.762721
 21
-381.105789
 31
0.0
100
AcDbText
  0
TEXT
  5
803
100
AcDbEntity
  8
18
100
AcDbText
 10
366.562721
 20
-369.105789
 30
0.0
 40
9.0
  1
３０４Ｙ－４ＩＣＳ　４０Ａ
 72
     5
 11
481.762721
 21
-369.105789
 31
0.0
100
AcDbText
  0
TEXT
  5
804
100
AcDbEntity
  8
18
100
AcDbText
 10
460.8
 20
-408.0
 30
0.0
 40
15.0
  1
Ｄ３－０３７８２
 72
     5
 11
577.8
 21
-408.0
 31
0.0
100
AcDbText
  0
TEXT
  5
805
100
AcDbEntity
  8
18
100
AcDbText
 10
544.645752
 20
-381.413612
 30
0.0
 40
6.75
  1
２００５．７．１５
 41
0.85
 72
     5
 11
595.135752
 21
-381.413612
 31
0.0
100
AcDbText
  0
LINE
  5
806
100
AcDbEntity
  8
20
 62
     3
100
AcDbLine
 10
-540.0
 20
-415.5
 30
0.0
 11
600.0
 21
-415.5
 31
0.0
  0
LINE
  5
807
100
AcDbEntity
  8
20
 62
     3
100
AcDbLine
 10
-540.0
 20
396.0
 30
0.0
 11
600.0
 21
396.0
 31
0.0
  0
LINE
  5
808
100
AcDbEntity
  8
20
 62
     3
100
AcDbLine
 10
-540.0
 20
396.0
 30
0.0
 11
-540.0
 21
-415.5
 31
0.0
  0
LINE
  5
809
100
AcDbEntity
  8
20
 62
     3
100
AcDbLine
 10
600.0
 20
396.0
 30
0.0
 11
600.0
 21
-415.5
 31
0.0
  0
LINE
  5
80A
100
AcDbEntity
  8
20
 62
     3
100
AcDbLine
 10
180.0
 20
-415.5
 30
0.0
 11
180.0
 21
-355.5
 31
0.0
  0
LINE
  5
80B
100
AcDbEntity
  8
20
 62
     3
100
AcDbLine
 10
321.0
 20
-415.5
 30
0.0
 11
321.0
 21
-355.5
 31
0.0
  0
LINE
  5
80C
100
AcDbEntity
  8
20
100
AcDbLine
 10
321.0
 20
-385.5
 30
0.0
 11
600.0
 21
-385.5
 31
0.0
  0
LINE
  5
80D
100
AcDbEntity
  8
20
 62
     3
100
AcDbLine
 10
180.0
 20
-355.5
 30
0.0
 11
600.0
 21
-355.5
 31
0.0
  0
LINE
  5
80E
100
AcDbEntity
  8
20
100
AcDbLine
 10
540.0
 20
-385.5
 30
0.0
 11
540.0
 21
-355.5
 31
0.0
  0
LINE
  5
80F
100
AcDbEntity
  8
20
100
AcDbLine
 10
540.0
 20
-370.5
 30
0.0
 11
600.0
 21
-370.5
 31
0.0
  0
LINE
  5
810
100
AcDbEntity
  8
20
100
AcDbLine
 10
363.0
 20
-415.5
 30
0.0
 11
363.0
 21
-355.5
 31
0.0
  0
LINE
  5
811
100
AcDbEntity
  8
20
100
AcDbLine
 10
393.0
 20
-415.5
 30
0.0
 11
393.0
 21
-385.5
 31
0.0
  0
LINE
  5
812
100
AcDbEntity
  8
20
100
AcDbLine
 10
453.0
 20
-415.5
 30
0.0
 11
453.0
 21
-385.5
 31
0.0
  0
LINE
  5
813
100
AcDbEntity
  8
20
100
AcDbLine
 10
371.185244
 20
-407.314756
 30
0.0
 11
383.694872
 21
-394.805128
 31
0.0
  0
TEXT
  5
814
100
AcDbEntity
  8
20
100
AcDbText
 10
394.599987
 20
-397.490753
 30
0.0
 40
5.4
  1
ＤＲＡＷＩＮＧ　ＮＯ．
 72
     5
 11
452.919987
 21
-397.490753
 31
0.0
100
AcDbText
  0
TEXT
  5
815
100
AcDbEntity
  8
20
100
AcDbText
 10
400.5
 20
-409.5
 30
0.0
 40
9.0
  1
図　　　番
 72
     5
 11
443.7
 21
-409.5
 31
0.0
100
AcDbText
  0
TEXT
  5
816
100
AcDbEntity
  8
20
100
AcDbText
 10
558.0
 20
-366.0
 30
0.0
 40
6.0
  1
ＤＡＴＥ
 72
     5
 11
580.8
 21
-366.0
 31
0.0
100
AcDbText
  0
TEXT
  5
817
100
AcDbEntity
  8
20
100
AcDbText
 10
327.003213
 20
-398.883087
 30
0.0
 40
6.0
  1
ＳＣＡＬＥ
 72
     5
 11
355.803213
 21
-398.883087
 31
0.0
100
AcDbText
  0
TEXT
  5
818
100
AcDbEntity
  8
20
100
AcDbText
 10
324.0
 20
-409.5
 30
0.0
 40
9.0
  1
尺　　度
 72
     5
 11
358.2
 21
-409.5
 31
0.0
100
AcDbText
  0
TEXT
  5
819
100
AcDbEntity
  8
20
100
AcDbText
 10
322.503213
 20
-367.487654
 30
0.0
 40
6.0
  1
ＦＩＧ．ＮＯ．
 72
     5
 11
363.303213
 21
-367.487654
 31
0.0
100
AcDbText
  0
TEXT
  5
81A
100
AcDbEntity
  8
20
100
AcDbText
 10
324.0
 20
-379.5
 30
0.0
 40
9.0
  1
名　　称
 72
     5
 11
358.2
 21
-379.5
 31
0.0
100
AcDbText
  0
TEXT
  5
81B
100
AcDbEntity
  8
20
100
AcDbText
 10
181.696575
 20
-379.410759
 30
0.0
 40
6.9
  1
ＴＯＭＯＥ　ＶＡＬＶＥ　ＣＯ．，ＬＴＤ．
 72
     5
 11
318.316575
 21
-379.410759
 31
0.0
100
AcDbText
  0
TEXT
  5
81C
100
AcDbEntity
  8
20
100
AcDbText
 10
202.5
 20
-399.869431
 30
0.0
 40
12.0
  1
巴バルブ株式会社
 72
     5
 11
296.1
 21
-399.869431
 31
0.0
100
AcDbText
  0
ENDSEC
  0
SECTION
  2
OBJECTS
  0
DICTIONARY
  5
893
100
AcDbDictionary
  3
ACAD_GROUP
350
894
  3
ACAD_MLINESTYLE
350
895
  0
DICTIONARY
  5
894
102
{ACAD_REACTORS
330
893
102
}
100
AcDbDictionary
  0
DICTIONARY
  5
895
102
{ACAD_REACTORS
330
893
102
}
100
AcDbDictionary
  3
STANDARD
350
896
  0
MLINESTYLE
  5
896
102
{ACAD_REACTORS
330
895
102
}
100
AcDbMlineStyle
  2
STANDARD
 70
     0
  3

 62
     0
 51
90.0
 52
90.0
 71
     2
 49
0.5
 62
   256
  6
BYLAYER
 49
-0.5
 62
   256
  6
BYLAYER
  0
ENDSEC
  0
EOF
