  0
SECTION
  2
HEADER
  9
$ACADVER
  1
AC1012
  9
$DWGCODEPAGE
  3
ansi_932
  9
$INSBASE
 10
0.0
 20
0.0
 30
0.0
  9
$EXTMIN
 10
-840.0
 20
-594.0
 30
1.000000E+20
  9
$EXTMAX
 10
840.0
 20
594.0
 30
-1.000000E+20
  9
$LIMMIN
 10
-840.0
 20
-594.0
  9
$LIMMAX
 10
840.0
 20
594.0
  9
$ORTHOMODE
 70
     0
  9
$REGENMODE
 70
     1
  9
$FILLMODE
 70
     1
  9
$QTEXTMODE
 70
     0
  9
$MIRRTEXT
 70
     1
  9
$DRAGMODE
 70
     2
  9
$LTSCALE
 40
1.0
  9
$OSMODE
 70
     0
  9
$ATTMODE
 70
     1
  9
$TEXTSIZE
 40
0.2
  9
$TRACEWID
 40
0.05
  9
$TEXTSTYLE
  7
STANDARD
  9
$CLAYER
  8
0
  9
$CELTYPE
  6
CONTINUOUS
  9
$CECOLOR
 62
   256
  9
$CELTSCALE
 40
1.0
  9
$DELOBJ
 70
     1
  9
$DISPSILH
 70
     0
  9
$DIMSCALE
 40
4.0
  9
$DIMASZ
 40
0.18
  9
$DIMEXO
 40
0.0625
  9
$DIMDLI
 40
0.38
  9
$DIMRND
 40
0.0
  9
$DIMDLE
 40
0.0
  9
$DIMEXE
 40
0.18
  9
$DIMTP
 40
0.0
  9
$DIMTM
 40
0.0
  9
$DIMTXT
 40
0.18
  9
$DIMCEN
 40
0.09
  9
$DIMTSZ
 40
0.0
  9
$DIMTOL
 70
     0
  9
$DIMLIM
 70
     0
  9
$DIMTIH
 70
     1
  9
$DIMTOH
 70
     1
  9
$DIMSE1
 70
     0
  9
$DIMSE2
 70
     0
  9
$DIMTAD
 70
     1
  9
$DIMZIN
 70
     0
  9
$DIMBLK
  1

  9
$DIMASO
 70
     1
  9
$DIMSHO
 70
     1
  9
$DIMPOST
  1

  9
$DIMAPOST
  1

  9
$DIMALT
 70
     0
  9
$DIMALTD
 70
     2
  9
$DIMALTF
 40
25.4
  9
$DIMLFAC
 40
1.0
  9
$DIMTOFL
 70
     0
  9
$DIMTVP
 40
0.0
  9
$DIMTIX
 70
     0
  9
$DIMSOXD
 70
     0
  9
$DIMSAH
 70
     0
  9
$DIMBLK1
  1

  9
$DIMBLK2
  1

  9
$DIMSTYLE
  2
STANDARD
  9
$DIMCLRD
 70
     0
  9
$DIMCLRE
 70
     0
  9
$DIMCLRT
 70
     0
  9
$DIMTFAC
 40
1.0
  9
$DIMGAP
 40
0.09
  9
$DIMJUST
 70
     0
  9
$DIMSD1
 70
     0
  9
$DIMSD2
 70
     0
  9
$DIMTOLJ
 70
     1
  9
$DIMTZIN
 70
     0
  9
$DIMALTZ
 70
     0
  9
$DIMALTTZ
 70
     0
  9
$DIMFIT
 70
     3
  9
$DIMUPT
 70
     0
  9
$DIMUNIT
 70
     2
  9
$DIMDEC
 70
     4
  9
$DIMTDEC
 70
     4
  9
$DIMALTU
 70
     2
  9
$DIMALTTD
 70
     2
  9
$DIMTXSTY
  7
STANDARD
  9
$DIMAUNIT
 70
     0
  9
$LUNITS
 70
     2
  9
$LUPREC
 70
     4
  9
$SKETCHINC
 40
0.1
  9
$FILLETRAD
 40
0.0
  9
$AUNITS
 70
     0
  9
$AUPREC
 70
     0
  9
$MENU
  1
acad
  9
$ELEVATION
 40
0.0
  9
$PELEVATION
 40
0.0
  9
$THICKNESS
 40
0.0
  9
$LIMCHECK
 70
     0
  9
$BLIPMODE
 70
     1
  9
$CHAMFERA
 40
0.0
  9
$CHAMFERB
 40
0.0
  9
$CHAMFERC
 40
0.0
  9
$CHAMFERD
 40
0.0
  9
$SKPOLY
 70
     0
  9
$TDCREATE
 40
2451432.000000000
  9
$TDUPDATE
 40
0.000000000
  9
$TDINDWG
 40
0.0000000000
  9
$TDUSRTIMER
 40
0.0000000000
  9
$USRTIMER
 70
     1
  9
$ANGBASE
 50
0.0
  9
$ANGDIR
 70
     0
  9
$PDMODE
 70
     0
  9
$PDSIZE
 40
0.0
  9
$PLINEWID
 40
0.0
  9
$COORDS
 70
     0
  9
$SPLFRAME
 70
     0
  9
$SPLINETYPE
 70
     6
  9
$SPLINESEGS
 70
     8
  9
$ATTDIA
 70
     0
  9
$ATTREQ
 70
     1
  9
$HANDLING
 70
     1
  9
$HANDSEED
  5
91E
  9
$SURFTAB1
 70
     6
  9
$SURFTAB2
 70
     6
  9
$SURFTYPE
 70
     6
  9
$SURFU
 70
     6
  9
$SURFV
 70
     6
  9
$UCSNAME
  2

  9
$UCSORG
 10
0.0
 20
0.0
 30
0.0
  9
$UCSXDIR
 10
1.0
 20
0.0
 30
0.0
  9
$UCSYDIR
 10
0.0
 20
1.0
 30
0.0
  9
$PUCSNAME
  2

  9
$PUCSORG
 10
0.0
 20
0.0
 30
0.0
  9
$PUCSXDIR
 10
1.0
 20
0.0
 30
0.0
  9
$PUCSYDIR
 10
0.0
 20
1.0
 30
0.0
  9
$USERI1
 70
     0
  9
$USERI2
 70
     0
  9
$USERI3
 70
     0
  9
$USERI4
 70
     0
  9
$USERI5
 70
     0
  9
$USERR1
 40
0.0
  9
$USERR2
 40
0.0
  9
$USERR3
 40
0.0
  9
$USERR4
 40
0.0
  9
$USERR5
 40
0.0
  9
$WORLDVIEW
 70
     1
  9
$SHADEDGE
 70
     3
  9
$SHADEDIF
 70
    70
  9
$TILEMODE
 70
     1
  9
$MAXACTVP
 70
    16
  9
$PINSBASE
 10
0.0
 20
0.0
 30
0.0
  9
$PLIMCHECK
 70
     0
  9
$PEXTMIN
 10
1.000000E+20
 20
1.000000E+20
 30
1.000000E+20
  9
$PEXTMAX
 10
-1.000000E+20
 20
-1.000000E+20
 30
-1.000000E+20
  9
$PLIMMIN
 10
0.0
 20
0.0
  9
$PLIMMAX
 10
12.0
 20
9.0
  9
$UNITMODE
 70
     0
  9
$VISRETAIN
 70
     0
  9
$PLINEGEN
 70
     1
  9
$PSLTSCALE
 70
     0
  9
$TREEDEPTH
 70
  3020
  9
$PICKSTYLE
 70
     1
  9
$CMLSTYLE
  2
STANDARD
  9
$CMLJUST
 70
     0
  9
$CMLSCALE
 40
1.0
  9
$SAVEIMAGES
 70
     0
  0
ENDSEC
  0
SECTION
  2
CLASSES
  0
CLASS
  1
LWPOLYLINE
  2
AcDbPolyline
  3
"AutoCAD"
 90
    32768
280
     0
281
     1
  0
CLASS
  1
IMAGE
  2
AcDbRasterImage
  3
ISM
 90
    32895
280
     0
281
     1
  0
CLASS
  1
OLE2FRAME
  2
AcDbOle2Frame
  3
""
 90
    32768
280
     0
281
     1
  0
CLASS
  1
HATCH
  2
AcDbHatch
  3
"ACAD_SEDONA"
 90
    32768
280
     0
281
     1
  0
CLASS
  1
DICTIONARYVAR
  2
AcDbDictionaryVar
  3
"AutoCAD"
 90
    32768
280
     0
281
     0
  0
CLASS
  1
RASTERVARIABLES
  2
AcDbRasterVariables
  3
ISM
 90
    32768
280
     0
281
     0
  0
CLASS
  1
IMAGEDEF
  2
AcDbRasterImageDef
  3
ISM
 90
    32768
280
     0
281
     0
  0
CLASS
  1
IMAGEDEF_REACTOR
  2
AcDbRasterImageDefReactor
  3
ISM
 90
    32769
280
     0
281
     0
  0
CLASS
  1
IDBUFFER
  2
AcDbIdBuffer
  3
"Acad"
 90
    32768
280
     0
281
     0
  0
CLASS
  1
SPATIAL_FILTER
  2
AcDbSpatialFilter
  3
"Acad"
 90
    32768
280
     0
281
     0
  0
CLASS
  1
XRECORD
  2
AcDbXrecord
  3
"<Built In>"
 90
    32768
280
     0
281
     0
  0
CLASS
  1
SORTENTSTABLE
  2
AcDbSortentsTable
  3
"AutoCAD"
 90
    32768
280
     0
281
     0
  0
CLASS
  1
LAYER_INDEX
  2
AcDbLayerIndex
  3
"Acad"
 90
    32768
280
     0
281
     0
  0
CLASS
  1
SPATIAL_INDEX
  2
AcDbSpatialIndex
  3
"Acad"
 90
    32768
280
     0
281
     0
  0
CLASS
  1
OBJECT_PTR
  2
CAseDLPNTableRecord
  3
"ASE-LPNTableRecord"
 90
    32769
280
     0
281
     0
  0
CLASS
  1
LAYOUT
  2
AcDbLayout
  3
"AutoCAD 2000"
 90
    32768
280
     0
281
     0
  0
CLASS
  1
PLOTSETTINGS
  2
AcDbPlotSettings
  3
"AutoCAD 2000"
 90
    32768
280
     0
281
     0
  0
CLASS
  1
ACDBDICTIONARYWDFLT
  2
AcDbDictionaryWithDefault
  3
"AutoCAD 2000"
 90
    32768
280
     0
281
     0
  0
CLASS
  1
ACDBPLACEHOLDER
  2
AcDbPlaceHolder
  3
"AutoCAD 2000"
 90
    32768
280
     0
281
     0
  0
CLASS
  1
VBA_PROJECT
  2
AcDbVbaProject
  3
"acadvba"
 90
    32768
280
     0
281
     0
  0
CLASS
  1
WIPEOUT
  2
AcDbWipeout
  3
WipeOut|AutoCAD Express Tool|expresstools@autodesk.com
 90
    32895
280
     0
281
     1
  0
CLASS
  1
WIPEOUTVARIABLES
  2
AcDbWipeoutVariables
  3
WipeOut|AutoCAD Express Tool|expresstools@autodesk.com
 90
    32768
280
     0
281
     0
  0
CLASS
  1
RTEXT
  2
RText
  3
RText|AutoCAD Express Tool|expresstools@autodesk.com
 90
    32768
280
     0
281
     1
  0
CLASS
  1
ARCALIGNEDTEXT
  2
AcDbArcAlignedText
  3
ATEXT|AutoCAD Express Tool|expresstools@autodesk.com
 90
    32768
280
     0
281
     1
  0
ENDSEC
  0
SECTION
  2
TABLES
  0
TABLE
  2
VPORT
  5
6
100
AcDbSymbolTable
 70
     1
  0
VPORT
  5
1C
100
AcDbSymbolTableRecord
100
AcDbViewportTableRecord
  2
*ACTIVE
 70
     0
 10
0.0
 20
0.0
 11
1.0
 21
1.0
 12
0.0
 22
0.0
 13
0.0
 23
0.0
 14
1.0
 24
1.0
 15
0.0
 25
0.0
 16
0.0
 26
0.0
 36
1.0
 17
0.0
 27
0.0
 37
0.0
 40
1188.0
 41
1.414141
 42
50.0
 43
0.0
 44
0.0
 50
0.0
 51
0.0
 71
     0
 72
   500
 73
     1
 74
     1
 75
     0
 76
     0
 77
     0
 78
     0
  0
ENDTAB
  0
TABLE
  2
LTYPE
  5
3
100
AcDbSymbolTable
 70
     9
  0
LTYPE
  5
C
100
AcDbSymbolTableRecord
100
AcDbLinetypeTableRecord
  2
BYBLOCK
 70
    64
  3

 72
    65
 73
     0
 40
0.0
  0
LTYPE
  5
D
100
AcDbSymbolTableRecord
100
AcDbLinetypeTableRecord
  2
BYLAYER
 70
    64
  3

 72
    65
 73
     0
 40
0.0
  0
LTYPE
  5
E
100
AcDbSymbolTableRecord
100
AcDbLinetypeTableRecord
  2
CONTINUOUS
 70
     0
  3
Solid line
 72
    65
 73
     0
 40
0.0
  0
LTYPE
  5
F
100
AcDbSymbolTableRecord
100
AcDbLinetypeTableRecord
  2
DASHED
 70
     0
  3
__ __ __ __ __ __ __ __ __ __ __ __ __ __ __
 72
    65
 73
     2
 40
2.0
 49
1.2
 74
     0
 49
-0.8
 74
     0
  0
LTYPE
  5
10
100
AcDbSymbolTableRecord
100
AcDbLinetypeTableRecord
  2
CENTER
 70
     0
  3
____ _ ____ _ ____ _ ____ _ ____ _ ____ _ ____
 72
    65
 73
     4
 40
12.0
 49
9.0
 74
     0
 49
-1.0
 74
     0
 49
1.0
 74
     0
 49
-1.0
 74
     0
  0
LTYPE
  5
11
100
AcDbSymbolTableRecord
100
AcDbLinetypeTableRecord
  2
HIDDEN
 70
     0
  3
_ _ _ _ _ _ _ _ _ _ _ _ _ _ _ _ _ _ _ _ _ _ _
 72
    65
 73
     2
 40
3.2
 49
2.4
 74
     0
 49
-0.8
 74
     0
  0
LTYPE
  5
12
100
AcDbSymbolTableRecord
100
AcDbLinetypeTableRecord
  2
PHANTOM
 70
     0
  3
_____ _ _ _____ _ _ _____ _ _ _____ _ _ _____
 72
    65
 73
     6
 40
13.5
 49
9.0
 74
     0
 49
-1.0
 74
     0
 49
1.0
 74
     0
 49
-0.5
 74
     0
 49
1.0
 74
     0
 49
-1.0
 74
     0
  0
LTYPE
  5
13
100
AcDbSymbolTableRecord
100
AcDbLinetypeTableRecord
  2
DOT
 70
     0
  3
...............................................
 72
    65
 73
     2
 40
1.0
 49
0.5
 74
     0
 49
-0.5
 74
     0
  0
LTYPE
  5
14
100
AcDbSymbolTableRecord
100
AcDbLinetypeTableRecord
  2
DASHDOT
 70
     0
  3
__ . __ . __ . __ . __ . __ . __ . __ . __ . __
 72
    65
 73
     4
 40
8.0
 49
5.0
 74
     0
 49
-1.0
 74
     0
 49
1.0
 74
     0
 49
-1.0
 74
     0
  0
ENDTAB
  0
TABLE
  2
LAYER
  5
1
100
AcDbSymbolTable
 70
     7
  0
LAYER
  5
15
100
AcDbSymbolTableRecord
100
AcDbLayerTableRecord
  2
0
 70
     0
 62
     7
  6
CONTINUOUS
  0
LAYER
  5
16
100
AcDbSymbolTableRecord
100
AcDbLayerTableRecord
  2
1
 70
     0
 62
     7
  6
CONTINUOUS
  0
LAYER
  5
17
100
AcDbSymbolTableRecord
100
AcDbLayerTableRecord
  2
2
 70
     0
 62
     7
  6
CONTINUOUS
  0
LAYER
  5
18
100
AcDbSymbolTableRecord
100
AcDbLayerTableRecord
  2
3
 70
     0
 62
     7
  6
CONTINUOUS
  0
LAYER
  5
19
100
AcDbSymbolTableRecord
100
AcDbLayerTableRecord
  2
5
 70
     0
 62
     7
  6
CONTINUOUS
  0
LAYER
  5
1A
100
AcDbSymbolTableRecord
100
AcDbLayerTableRecord
  2
18
 70
     0
 62
     7
  6
CONTINUOUS
  0
LAYER
  5
1B
100
AcDbSymbolTableRecord
100
AcDbLayerTableRecord
  2
20
 70
     0
 62
     7
  6
CONTINUOUS
  0
ENDTAB
  0
TABLE
  2
STYLE
  5
2
100
AcDbSymbolTable
 70
     1
  0
STYLE
  5
1E
100
AcDbSymbolTableRecord
100
AcDbTextStyleTableRecord
  2
STANDARD
 70
    64
 40
0.0
 41
1.0
 50
0.0
 71
     0
 42
1.0
  3
txt
  4
BIGFONT
  0
ENDTAB
  0
TABLE
  2
VIEW
  5
4
100
AcDbSymbolTable
 70
     0
  0
ENDTAB
  0
TABLE
  2
UCS
  5
5
100
AcDbSymbolTable
 70
     0
  0
ENDTAB
  0
TABLE
  2
APPID
  5
7
100
AcDbSymbolTable
 70
     1
  0
APPID
  5
1D
100
AcDbSymbolTableRecord
100
AcDbRegAppTableRecord
  2
ACAD
 70
     0
  0
ENDTAB
  0
TABLE
  2
DIMSTYLE
  5
8
100
AcDbSymbolTable
 70
     1
  0
DIMSTYLE
105
30
100
AcDbSymbolTableRecord
100
AcDbDimStyleTableRecord
  2
STANDARD
 70
     0
  3

  4

  5

  6

  7

 40
4.0
 41
0.18
 42
0.0625
 43
0.38
 44
0.18
 45
0.0
 46
0.0
 47
0.0
 48
0.0
 71
     0
 72
     0
 73
     1
 74
     1
 75
     0
 76
     0
 77
     1
 78
     0
140
0.18
141
0.09
142
0.0
143
25.4
144
1.0
145
0.0
146
1.0
147
0.09
170
     0
171
     2
172
     0
173
     0
174
     0
175
     0
176
     0
177
     0
178
     0
270
     2
271
     4
272
     4
273
     2
274
     2
275
     0
280
     0
281
     0
282
     0
283
     1
284
     0
285
     0
286
     0
287
     3
288
     0
340
1E
  0
ENDTAB
  0
TABLE
  2
BLOCK_RECORD
  5
2B
100
AcDbSymbolTable
 70
    10
  0
BLOCK_RECORD
  5
29
100
AcDbSymbolTableRecord
100
AcDbBlockTableRecord
  2
*MODEL_SPACE
  0
BLOCK_RECORD
  5
2A
100
AcDbSymbolTableRecord
100
AcDbBlockTableRecord
  2
*PAPER_SPACE
  0
BLOCK_RECORD
  5
1F
100
AcDbSymbolTableRecord
100
AcDbBlockTableRecord
  2
*D0
  0
BLOCK_RECORD
  5
20
100
AcDbSymbolTableRecord
100
AcDbBlockTableRecord
  2
*D1
  0
BLOCK_RECORD
  5
21
100
AcDbSymbolTableRecord
100
AcDbBlockTableRecord
  2
*D2
  0
BLOCK_RECORD
  5
22
100
AcDbSymbolTableRecord
100
AcDbBlockTableRecord
  2
*D3
  0
BLOCK_RECORD
  5
23
100
AcDbSymbolTableRecord
100
AcDbBlockTableRecord
  2
*D4
  0
BLOCK_RECORD
  5
24
100
AcDbSymbolTableRecord
100
AcDbBlockTableRecord
  2
*D5
  0
BLOCK_RECORD
  5
25
100
AcDbSymbolTableRecord
100
AcDbBlockTableRecord
  2
*D6
  0
BLOCK_RECORD
  5
26
100
AcDbSymbolTableRecord
100
AcDbBlockTableRecord
  2
*D7
  0
BLOCK_RECORD
  5
27
100
AcDbSymbolTableRecord
100
AcDbBlockTableRecord
  2
*D8
  0
BLOCK_RECORD
  5
28
100
AcDbSymbolTableRecord
100
AcDbBlockTableRecord
  2
*D9
  0
ENDTAB
  0
ENDSEC
  0
SECTION
  2
BLOCKS
  0
BLOCK
  5
2C
100
AcDbEntity
  8
0
100
AcDbBlockBegin
  2
*MODEL_SPACE
 70
     0
 10
0.0
 20
0.0
 30
0.0
  3
*MODEL_SPACE
  1

  0
ENDBLK
  5
2D
100
AcDbEntity
  8
0
100
AcDbBlockEnd
  0
BLOCK
  5
2E
100
AcDbEntity
 67
     1
  8
0
100
AcDbBlockBegin
  2
*PAPER_SPACE
 70
     0
 10
0.0
 20
0.0
 30
0.0
  3
*PAPER_SPACE
  1

  0
ENDBLK
  5
2F
100
AcDbEntity
 67
     1
  8
0
100
AcDbBlockEnd
  0
BLOCK
  5
818
100
AcDbEntity
  8
5
100
AcDbBlockBegin
  2
*D0
 70
     1
 10
0.0
 20
0.0
 30
0.0
  3
*D0
  1

  0
TEXT
  5
819
100
AcDbEntity
  8
5
 62
     2
100
AcDbText
 10
-54.941227
 20
-120.293976
 30
0.0
 40
13.2
  1
100
 50
90.0
 41
1.4
 72
     5
 11
-54.941227
 21
-96.269977
 31
0.0
100
AcDbText
  0
LINE
  5
81A
100
AcDbEntity
  8
5
 62
     2
100
AcDbLine
 10
97.514369
 20
-156.433977
 30
0.0
 11
-56.941227
 21
-156.433977
 31
0.0
  0
LINE
  5
81B
100
AcDbEntity
  8
5
 62
     2
100
AcDbLine
 10
-52.941227
 20
-156.433977
 30
0.0
 11
-50.870675
 21
-148.70657
 31
0.0
  0
LINE
  5
81C
100
AcDbEntity
  8
5
 62
     2
100
AcDbLine
 10
-52.941227
 20
-156.433977
 30
0.0
 11
-55.011779
 21
-148.70657
 31
0.0
  0
LINE
  5
81D
100
AcDbEntity
  8
5
 62
     2
100
AcDbLine
 10
-50.870675
 20
-148.70657
 30
0.0
 11
-55.011779
 21
-148.70657
 31
0.0
  0
LINE
  5
81E
100
AcDbEntity
  8
5
 62
     2
100
AcDbLine
 10
-52.941227
 20
-156.433977
 30
0.0
 11
-52.941227
 21
-56.433977
 31
0.0
  0
LINE
  5
81F
100
AcDbEntity
  8
5
 62
     2
100
AcDbLine
 10
-52.941227
 20
-56.433977
 30
0.0
 11
-55.011779
 21
-64.161383
 31
0.0
  0
LINE
  5
820
100
AcDbEntity
  8
5
 62
     2
100
AcDbLine
 10
-52.941227
 20
-56.433977
 30
0.0
 11
-50.870675
 21
-64.161383
 31
0.0
  0
LINE
  5
821
100
AcDbEntity
  8
5
 62
     2
100
AcDbLine
 10
-55.011779
 20
-64.161383
 30
0.0
 11
-50.870675
 21
-64.161383
 31
0.0
  0
LINE
  5
822
100
AcDbEntity
  8
5
 62
     2
100
AcDbLine
 10
97.514369
 20
-56.433977
 30
0.0
 11
-56.941227
 21
-56.433977
 31
0.0
  0
ENDBLK
  5
823
100
AcDbEntity
  8
5
100
AcDbBlockEnd
  0
BLOCK
  5
824
100
AcDbEntity
  8
5
100
AcDbBlockBegin
  2
*D1
 70
     1
 10
0.0
 20
0.0
 30
0.0
  3
*D1
  1

  0
TEXT
  5
825
100
AcDbEntity
  8
5
 62
     2
100
AcDbText
 10
-54.941227
 20
-243.793976
 30
0.0
 40
13.2
  1
147
 50
90.0
 41
1.4
 72
     5
 11
-54.941227
 21
-219.769977
 31
0.0
100
AcDbText
  0
LINE
  5
826
100
AcDbEntity
  8
5
 62
     2
100
AcDbLine
 10
109.039195
 20
-303.433977
 30
0.0
 11
-56.941227
 21
-303.433977
 31
0.0
  0
LINE
  5
827
100
AcDbEntity
  8
5
 62
     2
100
AcDbLine
 10
-52.941227
 20
-303.433977
 30
0.0
 11
-50.870675
 21
-295.70657
 31
0.0
  0
LINE
  5
828
100
AcDbEntity
  8
5
 62
     2
100
AcDbLine
 10
-52.941227
 20
-303.433977
 30
0.0
 11
-55.011779
 21
-295.70657
 31
0.0
  0
LINE
  5
829
100
AcDbEntity
  8
5
 62
     2
100
AcDbLine
 10
-50.870675
 20
-295.70657
 30
0.0
 11
-55.011779
 21
-295.70657
 31
0.0
  0
LINE
  5
82A
100
AcDbEntity
  8
5
 62
     2
100
AcDbLine
 10
-52.941227
 20
-303.433977
 30
0.0
 11
-52.941227
 21
-156.433977
 31
0.0
  0
LINE
  5
82B
100
AcDbEntity
  8
5
 62
     2
100
AcDbLine
 10
-52.941227
 20
-156.433977
 30
0.0
 11
-55.011779
 21
-164.161383
 31
0.0
  0
LINE
  5
82C
100
AcDbEntity
  8
5
 62
     2
100
AcDbLine
 10
-52.941227
 20
-156.433977
 30
0.0
 11
-50.870675
 21
-164.161383
 31
0.0
  0
LINE
  5
82D
100
AcDbEntity
  8
5
 62
     2
100
AcDbLine
 10
-55.011779
 20
-164.161383
 30
0.0
 11
-50.870675
 21
-164.161383
 31
0.0
  0
LINE
  5
82E
100
AcDbEntity
  8
5
 62
     2
100
AcDbLine
 10
97.514369
 20
-156.433977
 30
0.0
 11
-56.941227
 21
-156.433977
 31
0.0
  0
ENDBLK
  5
82F
100
AcDbEntity
  8
5
100
AcDbBlockEnd
  0
BLOCK
  5
830
100
AcDbEntity
  8
5
100
AcDbBlockBegin
  2
*D2
 70
     1
 10
0.0
 20
0.0
 30
0.0
  3
*D2
  1

  0
TEXT
  5
831
100
AcDbEntity
  8
5
 62
     2
100
AcDbText
 10
-54.941227
 20
-360.173976
 30
0.0
 40
13.2
  1
95
 50
90.0
 41
1.4
 72
     5
 11
-54.941227
 21
-345.389977
 31
0.0
100
AcDbText
  0
LINE
  5
832
100
AcDbEntity
  8
5
 62
     2
100
AcDbLine
 10
131.514369
 20
-398.433977
 30
0.0
 11
-56.941227
 21
-398.433977
 31
0.0
  0
LINE
  5
833
100
AcDbEntity
  8
5
 62
     2
100
AcDbLine
 10
-52.941227
 20
-398.433977
 30
0.0
 11
-50.870675
 21
-390.70657
 31
0.0
  0
LINE
  5
834
100
AcDbEntity
  8
5
 62
     2
100
AcDbLine
 10
-52.941227
 20
-398.433977
 30
0.0
 11
-55.011779
 21
-390.70657
 31
0.0
  0
LINE
  5
835
100
AcDbEntity
  8
5
 62
     2
100
AcDbLine
 10
-50.870675
 20
-390.70657
 30
0.0
 11
-55.011779
 21
-390.70657
 31
0.0
  0
LINE
  5
836
100
AcDbEntity
  8
5
 62
     2
100
AcDbLine
 10
-52.941227
 20
-398.433977
 30
0.0
 11
-52.941227
 21
-303.433977
 31
0.0
  0
LINE
  5
837
100
AcDbEntity
  8
5
 62
     2
100
AcDbLine
 10
-52.941227
 20
-303.433977
 30
0.0
 11
-55.011779
 21
-311.161383
 31
0.0
  0
LINE
  5
838
100
AcDbEntity
  8
5
 62
     2
100
AcDbLine
 10
-52.941227
 20
-303.433977
 30
0.0
 11
-50.870675
 21
-311.161383
 31
0.0
  0
LINE
  5
839
100
AcDbEntity
  8
5
 62
     2
100
AcDbLine
 10
-55.011779
 20
-311.161383
 30
0.0
 11
-50.870675
 21
-311.161383
 31
0.0
  0
LINE
  5
83A
100
AcDbEntity
  8
5
 62
     2
100
AcDbLine
 10
109.039195
 20
-303.433977
 30
0.0
 11
-56.941227
 21
-303.433977
 31
0.0
  0
ENDBLK
  5
83B
100
AcDbEntity
  8
5
100
AcDbBlockEnd
  0
BLOCK
  5
83C
100
AcDbEntity
  8
5
100
AcDbBlockBegin
  2
*D3
 70
     1
 10
0.0
 20
0.0
 30
0.0
  3
*D3
  1

  0
TEXT
  5
83D
100
AcDbEntity
  8
5
 62
     2
100
AcDbText
 10
103.034369
 20
-434.583069
 30
0.0
 40
13.2
  1
21
 41
1.4
 72
     5
 11
117.818369
 21
-434.583069
 31
0.0
100
AcDbText
  0
LINE
  5
83E
100
AcDbEntity
  8
5
 62
     2
100
AcDbLine
 10
131.514369
 20
-370.933977
 30
0.0
 11
131.514369
 21
-440.583069
 31
0.0
  0
LINE
  5
83F
100
AcDbEntity
  8
5
 62
     2
100
AcDbLine
 10
131.514369
 20
-436.583069
 30
0.0
 11
123.786962
 21
-434.512516
 31
0.0
  0
LINE
  5
840
100
AcDbEntity
  8
5
 62
     2
100
AcDbLine
 10
131.514369
 20
-436.583069
 30
0.0
 11
123.786962
 21
-438.653621
 31
0.0
  0
LINE
  5
841
100
AcDbEntity
  8
5
 62
     2
100
AcDbLine
 10
123.786962
 20
-434.512516
 30
0.0
 11
123.786962
 21
-438.653621
 31
0.0
  0
LINE
  5
842
100
AcDbEntity
  8
5
 62
     2
100
AcDbLine
 10
101.034369
 20
-436.583069
 30
0.0
 11
172.514369
 21
-436.583069
 31
0.0
  0
LINE
  5
843
100
AcDbEntity
  8
5
 62
     2
100
AcDbLine
 10
152.514369
 20
-436.583069
 30
0.0
 11
160.241776
 21
-438.653621
 31
0.0
  0
LINE
  5
844
100
AcDbEntity
  8
5
 62
     2
100
AcDbLine
 10
152.514369
 20
-436.583069
 30
0.0
 11
160.241776
 21
-434.512516
 31
0.0
  0
LINE
  5
845
100
AcDbEntity
  8
5
 62
     2
100
AcDbLine
 10
160.241776
 20
-438.653621
 30
0.0
 11
160.241776
 21
-434.512516
 31
0.0
  0
LINE
  5
846
100
AcDbEntity
  8
5
 62
     2
100
AcDbLine
 10
152.514369
 20
-416.619092
 30
0.0
 11
152.514369
 21
-440.583069
 31
0.0
  0
ENDBLK
  5
847
100
AcDbEntity
  8
5
100
AcDbBlockEnd
  0
BLOCK
  5
848
100
AcDbEntity
  8
5
100
AcDbBlockBegin
  2
*D4
 70
     1
 10
0.0
 20
0.0
 30
0.0
  3
*D4
  1

  0
TEXT
  5
849
100
AcDbEntity
  8
5
 62
     2
100
AcDbText
 10
145.274369
 20
-469.877075
 30
0.0
 40
13.2
  1
46
 41
1.4
 72
     5
 11
160.058369
 21
-469.877075
 31
0.0
100
AcDbText
  0
LINE
  5
84A
100
AcDbEntity
  8
5
 62
     2
100
AcDbLine
 10
131.514369
 20
-370.933977
 30
0.0
 11
131.514369
 21
-475.877075
 31
0.0
  0
LINE
  5
84B
100
AcDbEntity
  8
5
 62
     2
100
AcDbLine
 10
131.514369
 20
-471.877075
 30
0.0
 11
139.241776
 21
-473.947628
 31
0.0
  0
LINE
  5
84C
100
AcDbEntity
  8
5
 62
     2
100
AcDbLine
 10
131.514369
 20
-471.877075
 30
0.0
 11
139.241776
 21
-469.806523
 31
0.0
  0
LINE
  5
84D
100
AcDbEntity
  8
5
 62
     2
100
AcDbLine
 10
139.241776
 20
-473.947628
 30
0.0
 11
139.241776
 21
-469.806523
 31
0.0
  0
LINE
  5
84E
100
AcDbEntity
  8
5
 62
     2
100
AcDbLine
 10
131.514369
 20
-471.877075
 30
0.0
 11
177.514369
 21
-471.877075
 31
0.0
  0
LINE
  5
84F
100
AcDbEntity
  8
5
 62
     2
100
AcDbLine
 10
177.514369
 20
-471.877075
 30
0.0
 11
169.786962
 21
-469.806523
 31
0.0
  0
LINE
  5
850
100
AcDbEntity
  8
5
 62
     2
100
AcDbLine
 10
177.514369
 20
-471.877075
 30
0.0
 11
169.786962
 21
-473.947628
 31
0.0
  0
LINE
  5
851
100
AcDbEntity
  8
5
 62
     2
100
AcDbLine
 10
169.786962
 20
-469.806523
 30
0.0
 11
169.786962
 21
-473.947628
 31
0.0
  0
LINE
  5
852
100
AcDbEntity
  8
5
 62
     2
100
AcDbLine
 10
177.514369
 20
-370.933977
 30
0.0
 11
177.514369
 21
-475.877075
 31
0.0
  0
ENDBLK
  5
853
100
AcDbEntity
  8
5
100
AcDbBlockEnd
  0
BLOCK
  5
854
100
AcDbEntity
  8
5
100
AcDbBlockBegin
  2
*D5
 70
     1
 10
0.0
 20
0.0
 30
0.0
  3
*D5
  1

  0
TEXT
  5
855
100
AcDbEntity
  8
5
 62
     2
100
AcDbText
 10
-438.745631
 20
447.739044
 30
0.0
 40
13.2
  1
100
 41
1.4
 72
     5
 11
-414.721631
 21
447.739044
 31
0.0
100
AcDbText
  0
LINE
  5
856
100
AcDbEntity
  8
5
 62
     2
100
AcDbLine
 10
-474.885631
 20
325.266023
 30
0.0
 11
-474.885631
 21
449.739044
 31
0.0
  0
LINE
  5
857
100
AcDbEntity
  8
5
 62
     2
100
AcDbLine
 10
-474.885631
 20
445.739044
 30
0.0
 11
-467.158224
 21
443.668492
 31
0.0
  0
LINE
  5
858
100
AcDbEntity
  8
5
 62
     2
100
AcDbLine
 10
-474.885631
 20
445.739044
 30
0.0
 11
-467.158224
 21
447.809597
 31
0.0
  0
LINE
  5
859
100
AcDbEntity
  8
5
 62
     2
100
AcDbLine
 10
-467.158224
 20
443.668492
 30
0.0
 11
-467.158224
 21
447.809597
 31
0.0
  0
LINE
  5
85A
100
AcDbEntity
  8
5
 62
     2
100
AcDbLine
 10
-474.885631
 20
445.739044
 30
0.0
 11
-374.885631
 21
445.739044
 31
0.0
  0
LINE
  5
85B
100
AcDbEntity
  8
5
 62
     2
100
AcDbLine
 10
-374.885631
 20
445.739044
 30
0.0
 11
-382.613038
 21
447.809597
 31
0.0
  0
LINE
  5
85C
100
AcDbEntity
  8
5
 62
     2
100
AcDbLine
 10
-374.885631
 20
445.739044
 30
0.0
 11
-382.613038
 21
443.668492
 31
0.0
  0
LINE
  5
85D
100
AcDbEntity
  8
5
 62
     2
100
AcDbLine
 10
-382.613038
 20
447.809597
 30
0.0
 11
-382.613038
 21
443.668492
 31
0.0
  0
LINE
  5
85E
100
AcDbEntity
  8
5
 62
     2
100
AcDbLine
 10
-374.885631
 20
419.935068
 30
0.0
 11
-374.885631
 21
449.739044
 31
0.0
  0
ENDBLK
  5
85F
100
AcDbEntity
  8
5
100
AcDbBlockEnd
  0
BLOCK
  5
860
100
AcDbEntity
  8
5
100
AcDbBlockBegin
  2
*D6
 70
     1
 10
0.0
 20
0.0
 30
0.0
  3
*D6
  1

  0
TEXT
  5
861
100
AcDbEntity
  8
5
 62
     2
100
AcDbText
 10
-337.745631
 20
447.739044
 30
0.0
 40
13.2
  1
102
 41
1.4
 72
     5
 11
-313.721631
 21
447.739044
 31
0.0
100
AcDbText
  0
LINE
  5
862
100
AcDbEntity
  8
5
 62
     2
100
AcDbLine
 10
-374.885631
 20
419.935068
 30
0.0
 11
-374.885631
 21
449.739044
 31
0.0
  0
LINE
  5
863
100
AcDbEntity
  8
5
 62
     2
100
AcDbLine
 10
-374.885631
 20
445.739044
 30
0.0
 11
-367.158224
 21
443.668492
 31
0.0
  0
LINE
  5
864
100
AcDbEntity
  8
5
 62
     2
100
AcDbLine
 10
-374.885631
 20
445.739044
 30
0.0
 11
-367.158224
 21
447.809597
 31
0.0
  0
LINE
  5
865
100
AcDbEntity
  8
5
 62
     2
100
AcDbLine
 10
-367.158224
 20
443.668492
 30
0.0
 11
-367.158224
 21
447.809597
 31
0.0
  0
LINE
  5
866
100
AcDbEntity
  8
5
 62
     2
100
AcDbLine
 10
-374.885631
 20
445.739044
 30
0.0
 11
-272.885631
 21
445.739044
 31
0.0
  0
LINE
  5
867
100
AcDbEntity
  8
5
 62
     2
100
AcDbLine
 10
-272.885631
 20
445.739044
 30
0.0
 11
-280.613038
 21
447.809597
 31
0.0
  0
LINE
  5
868
100
AcDbEntity
  8
5
 62
     2
100
AcDbLine
 10
-272.885631
 20
445.739044
 30
0.0
 11
-280.613038
 21
443.668492
 31
0.0
  0
LINE
  5
869
100
AcDbEntity
  8
5
 62
     2
100
AcDbLine
 10
-280.613038
 20
447.809597
 30
0.0
 11
-280.613038
 21
443.668492
 31
0.0
  0
LINE
  5
86A
100
AcDbEntity
  8
5
 62
     2
100
AcDbLine
 10
-272.885631
 20
393.766023
 30
0.0
 11
-272.885631
 21
449.739044
 31
0.0
  0
ENDBLK
  5
86B
100
AcDbEntity
  8
5
100
AcDbBlockEnd
  0
BLOCK
  5
86C
100
AcDbEntity
  8
5
100
AcDbBlockBegin
  2
*D7
 70
     1
 10
0.0
 20
0.0
 30
0.0
  3
*D7
  1

  0
TEXT
  5
86D
100
AcDbEntity
  8
5
 62
     2
100
AcDbText
 10
-225.760117
 20
360.187524
 30
0.0
 40
13.2
  1
53.8
 50
90.0
 41
1.4
 72
     5
 11
-225.760117
 21
393.451523
 31
0.0
100
AcDbText
  0
LINE
  5
86E
100
AcDbEntity
  8
5
 62
     2
100
AcDbLine
 10
-265.380077
 20
351.766023
 30
0.0
 11
-219.760117
 21
351.766023
 31
0.0
  0
LINE
  5
86F
100
AcDbEntity
  8
5
 62
     2
100
AcDbLine
 10
-223.760117
 20
351.766023
 30
0.0
 11
-221.689564
 21
359.49343
 31
0.0
  0
LINE
  5
870
100
AcDbEntity
  8
5
 62
     2
100
AcDbLine
 10
-223.760117
 20
351.766023
 30
0.0
 11
-225.830669
 21
359.49343
 31
0.0
  0
LINE
  5
871
100
AcDbEntity
  8
5
 62
     2
100
AcDbLine
 10
-221.689564
 20
359.49343
 30
0.0
 11
-225.830669
 21
359.49343
 31
0.0
  0
LINE
  5
872
100
AcDbEntity
  8
5
 62
     2
100
AcDbLine
 10
-223.760117
 20
351.766023
 30
0.0
 11
-223.760117
 21
405.569023
 31
0.0
  0
LINE
  5
873
100
AcDbEntity
  8
5
 62
     2
100
AcDbLine
 10
-223.760117
 20
405.569023
 30
0.0
 11
-225.830669
 21
397.841617
 31
0.0
  0
LINE
  5
874
100
AcDbEntity
  8
5
 62
     2
100
AcDbLine
 10
-223.760117
 20
405.569023
 30
0.0
 11
-221.689564
 21
397.841617
 31
0.0
  0
LINE
  5
875
100
AcDbEntity
  8
5
 62
     2
100
AcDbLine
 10
-225.830669
 20
397.841617
 30
0.0
 11
-221.689564
 21
397.841617
 31
0.0
  0
LINE
  5
876
100
AcDbEntity
  8
5
 62
     2
100
AcDbLine
 10
-287.082631
 20
405.569023
 30
0.0
 11
-219.760117
 21
405.569023
 31
0.0
  0
ENDBLK
  5
877
100
AcDbEntity
  8
5
100
AcDbBlockEnd
  0
BLOCK
  5
878
100
AcDbEntity
  8
5
100
AcDbBlockBegin
  2
*D8
 70
     1
 10
0.0
 20
0.0
 30
0.0
  3
*D8
  1

  0
TEXT
  5
879
100
AcDbEntity
  8
5
 62
     2
100
AcDbText
 10
-225.760117
 20
300.026024
 30
0.0
 40
13.2
  1
85
 50
90.0
 41
1.4
 72
     5
 11
-225.760117
 21
314.810023
 31
0.0
100
AcDbText
  0
LINE
  5
87A
100
AcDbEntity
  8
5
 62
     2
100
AcDbLine
 10
-330.185631
 20
266.766023
 30
0.0
 11
-219.760117
 21
266.766023
 31
0.0
  0
LINE
  5
87B
100
AcDbEntity
  8
5
 62
     2
100
AcDbLine
 10
-223.760117
 20
266.766023
 30
0.0
 11
-221.689564
 21
274.49343
 31
0.0
  0
LINE
  5
87C
100
AcDbEntity
  8
5
 62
     2
100
AcDbLine
 10
-223.760117
 20
266.766023
 30
0.0
 11
-225.830669
 21
274.49343
 31
0.0
  0
LINE
  5
87D
100
AcDbEntity
  8
5
 62
     2
100
AcDbLine
 10
-221.689564
 20
274.49343
 30
0.0
 11
-225.830669
 21
274.49343
 31
0.0
  0
LINE
  5
87E
100
AcDbEntity
  8
5
 62
     2
100
AcDbLine
 10
-223.760117
 20
266.766023
 30
0.0
 11
-223.760117
 21
351.766023
 31
0.0
  0
LINE
  5
87F
100
AcDbEntity
  8
5
 62
     2
100
AcDbLine
 10
-223.760117
 20
351.766023
 30
0.0
 11
-225.830669
 21
344.038617
 31
0.0
  0
LINE
  5
880
100
AcDbEntity
  8
5
 62
     2
100
AcDbLine
 10
-223.760117
 20
351.766023
 30
0.0
 11
-221.689564
 21
344.038617
 31
0.0
  0
LINE
  5
881
100
AcDbEntity
  8
5
 62
     2
100
AcDbLine
 10
-225.830669
 20
344.038617
 30
0.0
 11
-221.689564
 21
344.038617
 31
0.0
  0
LINE
  5
882
100
AcDbEntity
  8
5
 62
     2
100
AcDbLine
 10
-265.380077
 20
351.766023
 30
0.0
 11
-219.760117
 21
351.766023
 31
0.0
  0
ENDBLK
  5
883
100
AcDbEntity
  8
5
100
AcDbBlockEnd
  0
BLOCK
  5
884
100
AcDbEntity
  8
5
100
AcDbBlockBegin
  2
*D9
 70
     1
 10
0.0
 20
0.0
 30
0.0
  3
*D9
  1

  0
TEXT
  5
885
100
AcDbEntity
  8
5
 62
     2
100
AcDbText
 10
-54.941227
 20
17.706024
 30
0.0
 40
13.2
  1
176
 50
90.0
 41
1.4
 72
     5
 11
-54.941227
 21
41.730023
 31
0.0
100
AcDbText
  0
LINE
  5
886
100
AcDbEntity
  8
5
 62
     2
100
AcDbLine
 10
97.514369
 20
-56.433977
 30
0.0
 11
-56.941227
 21
-56.433977
 31
0.0
  0
LINE
  5
887
100
AcDbEntity
  8
5
 62
     2
100
AcDbLine
 10
-52.941227
 20
-56.433977
 30
0.0
 11
-50.870675
 21
-48.70657
 31
0.0
  0
LINE
  5
888
100
AcDbEntity
  8
5
 62
     2
100
AcDbLine
 10
-52.941227
 20
-56.433977
 30
0.0
 11
-55.011779
 21
-48.70657
 31
0.0
  0
LINE
  5
889
100
AcDbEntity
  8
5
 62
     2
100
AcDbLine
 10
-50.870675
 20
-48.70657
 30
0.0
 11
-55.011779
 21
-48.70657
 31
0.0
  0
LINE
  5
88A
100
AcDbEntity
  8
5
 62
     2
100
AcDbLine
 10
-52.941227
 20
-56.433977
 30
0.0
 11
-52.941227
 21
119.566023
 31
0.0
  0
LINE
  5
88B
100
AcDbEntity
  8
5
 62
     2
100
AcDbLine
 10
-52.941227
 20
119.566023
 30
0.0
 11
-55.011779
 21
111.838617
 31
0.0
  0
LINE
  5
88C
100
AcDbEntity
  8
5
 62
     2
100
AcDbLine
 10
-52.941227
 20
119.566023
 30
0.0
 11
-50.870675
 21
111.838617
 31
0.0
  0
LINE
  5
88D
100
AcDbEntity
  8
5
 62
     2
100
AcDbLine
 10
-55.011779
 20
111.838617
 30
0.0
 11
-50.870675
 21
111.838617
 31
0.0
  0
LINE
  5
88E
100
AcDbEntity
  8
5
 62
     2
100
AcDbLine
 10
148.514369
 20
119.566023
 30
0.0
 11
-56.941227
 21
119.566023
 31
0.0
  0
ENDBLK
  5
88F
100
AcDbEntity
  8
5
100
AcDbBlockEnd
  0
ENDSEC
  0
SECTION
  2
ENTITIES
  0
LINE
  5
31
100
AcDbEntity
  8
1
  6
CENTER
 62
     2
100
AcDbLine
 10
-374.885631
 20
132.301788
 30
0.0
 11
-374.885631
 21
-412.619092
 31
0.0
  0
LINE
  5
32
100
AcDbEntity
  8
1
  6
CENTER
 62
     2
100
AcDbLine
 10
152.514369
 20
135.692093
 30
0.0
 11
152.514369
 21
-412.619092
 31
0.0
  0
LINE
  5
33
100
AcDbEntity
  8
1
  6
DASHED
100
AcDbLine
 10
-323.885631
 20
324.266023
 30
0.0
 11
-323.885631
 21
379.266023
 31
0.0
  0
LINE
  5
34
100
AcDbEntity
  8
1
  6
DASHED
100
AcDbLine
 10
-425.885631
 20
324.266023
 30
0.0
 11
-425.885631
 21
379.266023
 31
0.0
  0
LINE
  5
35
100
AcDbEntity
  8
1
  6
DASHED
100
AcDbLine
 10
-402.385631
 20
402.766023
 30
0.0
 11
-347.385631
 21
402.766023
 31
0.0
  0
LINE
  5
36
100
AcDbEntity
  8
1
  6
DASHED
100
AcDbLine
 10
-402.385631
 20
300.766023
 30
0.0
 11
-347.385631
 21
300.766023
 31
0.0
  0
ARC
  5
37
100
AcDbEntity
  8
1
  6
DASHED
100
AcDbCircle
 10
-402.385631
 20
324.266023
 30
0.0
 40
23.5
100
AcDbArc
 50
180.0
 51
270.0
  0
ARC
  5
38
100
AcDbEntity
  8
1
  6
DASHED
100
AcDbCircle
 10
-347.385631
 20
324.266023
 30
0.0
 40
23.5
100
AcDbArc
 50
270.0
 51
360.0
  0
ARC
  5
39
100
AcDbEntity
  8
1
  6
DASHED
100
AcDbCircle
 10
-347.385631
 20
379.266023
 30
0.0
 40
23.5
100
AcDbArc
 50
0.0
 51
90.0
  0
ARC
  5
3A
100
AcDbEntity
  8
1
  6
DASHED
100
AcDbCircle
 10
-402.385631
 20
379.266023
 30
0.0
 40
23.5
100
AcDbArc
 50
90.0
 51
180.0
  0
LINE
  5
3B
100
AcDbEntity
  8
1
  6
CENTER
 62
     2
100
AcDbLine
 10
-351.213636
 20
387.766023
 30
0.0
 11
-327.127577
 21
387.766023
 31
0.0
  0
LINE
  5
3C
100
AcDbEntity
  8
1
  6
CENTER
 62
     2
100
AcDbLine
 10
-338.885631
 20
376.475733
 30
0.0
 11
-338.885631
 21
399.568476
 31
0.0
  0
CIRCLE
  5
3D
100
AcDbEntity
  8
1
  6
DASHED
100
AcDbCircle
 10
-338.885631
 20
387.766023
 30
0.0
 40
5.5
  0
LINE
  5
3E
100
AcDbEntity
  8
1
  6
CENTER
 62
     2
100
AcDbLine
 10
-398.557626
 20
387.766023
 30
0.0
 11
-422.643685
 21
387.766023
 31
0.0
  0
CIRCLE
  5
3F
100
AcDbEntity
  8
1
  6
DASHED
100
AcDbCircle
 10
-410.885631
 20
387.766023
 30
0.0
 40
5.5
  0
LINE
  5
40
100
AcDbEntity
  8
1
  6
CENTER
 62
     2
100
AcDbLine
 10
-410.885631
 20
376.475733
 30
0.0
 11
-410.885631
 21
399.568476
 31
0.0
  0
LINE
  5
41
100
AcDbEntity
  8
1
  6
CENTER
 62
     2
100
AcDbLine
 10
-351.213636
 20
315.766023
 30
0.0
 11
-327.127577
 21
315.766023
 31
0.0
  0
CIRCLE
  5
42
100
AcDbEntity
  8
1
  6
DASHED
100
AcDbCircle
 10
-338.885631
 20
315.766023
 30
0.0
 40
5.5
  0
LINE
  5
43
100
AcDbEntity
  8
1
  6
CENTER
 62
     2
100
AcDbLine
 10
-338.885631
 20
327.056314
 30
0.0
 11
-338.885631
 21
303.963571
 31
0.0
  0
LINE
  5
44
100
AcDbEntity
  8
1
  6
CENTER
 62
     2
100
AcDbLine
 10
-398.557626
 20
315.766023
 30
0.0
 11
-422.643685
 21
315.766023
 31
0.0
  0
CIRCLE
  5
45
100
AcDbEntity
  8
1
  6
DASHED
100
AcDbCircle
 10
-410.885631
 20
315.766023
 30
0.0
 40
5.5
  0
LINE
  5
46
100
AcDbEntity
  8
1
  6
CENTER
 62
     2
100
AcDbLine
 10
-410.885631
 20
327.056314
 30
0.0
 11
-410.885631
 21
303.963571
 31
0.0
  0
LINE
  5
47
100
AcDbEntity
  8
1
  6
CENTER
 62
     2
100
AcDbLine
 10
116.514369
 20
-146.037774
 30
0.0
 11
116.514369
 21
-180.429916
 31
0.0
  0
LINE
  5
48
100
AcDbEntity
  8
1
  6
CENTER
 62
     2
100
AcDbLine
 10
188.514369
 20
-146.037774
 30
0.0
 11
188.514369
 21
-180.429916
 31
0.0
  0
LINE
  5
49
100
AcDbEntity
  8
1
  6
CENTER
 62
     2
100
AcDbLine
 10
-338.885631
 20
-136.625671
 30
0.0
 11
-338.885631
 21
-180.429916
 31
0.0
  0
LINE
  5
4A
100
AcDbEntity
  8
1
  6
CENTER
 62
     2
100
AcDbLine
 10
-410.885631
 20
-136.625671
 30
0.0
 11
-410.885631
 21
-180.429916
 31
0.0
  0
LINE
  5
4B
100
AcDbEntity
  8
1
  6
DASHED
100
AcDbLine
 10
-439.485631
 20
330.766023
 30
0.0
 11
-439.485631
 21
376.766023
 31
0.0
  0
LINE
  5
4C
100
AcDbEntity
  8
1
  6
DASHED
100
AcDbLine
 10
-439.485631
 20
376.766023
 30
0.0
 11
-425.885631
 21
376.766023
 31
0.0
  0
LINE
  5
4D
100
AcDbEntity
  8
1
  6
DASHED
100
AcDbLine
 10
-439.485631
 20
330.766023
 30
0.0
 11
-425.885631
 21
330.766023
 31
0.0
  0
LINE
  5
4E
100
AcDbEntity
  8
1
  6
DASHED
100
AcDbLine
 10
-437.651123
 20
360.373176
 30
0.0
 11
-429.145345
 21
358.130828
 31
0.0
  0
LINE
  5
4F
100
AcDbEntity
  8
1
  6
DASHED
100
AcDbLine
 10
-429.145345
 20
340.401219
 30
0.0
 11
-437.651123
 21
338.158871
 31
0.0
  0
ARC
  5
50
100
AcDbEntity
  8
1
  6
DASHED
100
AcDbCircle
 10
-430.419931
 20
353.296013
 30
0.0
 40
5.0
100
AcDbArc
 50
24.925034
 51
75.231328
  0
ARC
  5
51
100
AcDbEntity
  8
1
  6
DASHED
100
AcDbCircle
 10
-430.419931
 20
345.236034
 30
0.0
 40
5.0
100
AcDbArc
 50
284.768672
 51
335.074966
  0
ARC
  5
52
100
AcDbEntity
  8
1
  6
DASHED
100
AcDbCircle
 10
-437.141289
 20
362.307102
 30
0.0
 40
2.0
100
AcDbArc
 50
180.0
 51
255.231328
  0
ARC
  5
53
100
AcDbEntity
  8
1
  6
DASHED
100
AcDbCircle
 10
-437.141289
 20
336.224945
 30
0.0
 40
2.0
100
AcDbArc
 50
104.768672
 51
180.0
  0
LINE
  5
54
100
AcDbEntity
  8
1
  6
DASHED
100
AcDbLine
 10
-428.985631
 20
350.766023
 30
0.0
 11
-428.985631
 21
352.766023
 31
0.0
  0
LINE
  5
55
100
AcDbEntity
  8
1
  6
DASHED
100
AcDbLine
 10
-426.985631
 20
354.766023
 30
0.0
 11
-425.885631
 21
354.766023
 31
0.0
  0
LINE
  5
56
100
AcDbEntity
  8
1
  6
DASHED
100
AcDbLine
 10
-426.985631
 20
348.766023
 30
0.0
 11
-425.885631
 21
348.766023
 31
0.0
  0
ARC
  5
57
100
AcDbEntity
  8
1
  6
DASHED
100
AcDbCircle
 10
-426.985631
 20
352.766023
 30
0.0
 40
2.0
100
AcDbArc
 50
90.0
 51
180.0
  0
ARC
  5
58
100
AcDbEntity
  8
1
  6
DASHED
100
AcDbCircle
 10
-426.985631
 20
350.766023
 30
0.0
 40
2.0
100
AcDbArc
 50
180.0
 51
270.0
  0
LINE
  5
59
100
AcDbEntity
  8
1
  6
DASHED
100
AcDbLine
 10
-437.651123
 20
337.766023
 30
0.0
 11
-425.885631
 21
337.766023
 31
0.0
  0
LINE
  5
5A
100
AcDbEntity
  8
1
  6
DASHED
100
AcDbLine
 10
-437.651123
 20
360.766023
 30
0.0
 11
-425.885631
 21
360.766023
 31
0.0
  0
LINE
  5
5B
100
AcDbEntity
  8
1
  6
DASHED
100
AcDbLine
 10
-439.141289
 20
337.766023
 30
0.0
 11
-439.141289
 21
360.766023
 31
0.0
  0
LINE
  5
5C
100
AcDbEntity
  8
1
  6
DASHED
100
AcDbLine
 10
-312.485631
 20
330.766023
 30
0.0
 11
-312.485631
 21
376.766023
 31
0.0
  0
LINE
  5
5D
100
AcDbEntity
  8
1
  6
DASHED
100
AcDbLine
 10
-312.485631
 20
376.766023
 30
0.0
 11
-323.885631
 21
376.766023
 31
0.0
  0
LINE
  5
5E
100
AcDbEntity
  8
1
  6
DASHED
100
AcDbLine
 10
-312.485631
 20
330.766023
 30
0.0
 11
-323.885631
 21
330.766023
 31
0.0
  0
LINE
  5
5F
100
AcDbEntity
  8
1
  6
DASHED
100
AcDbLine
 10
-314.320138
 20
360.373176
 30
0.0
 11
-322.825916
 21
358.130828
 31
0.0
  0
LINE
  5
60
100
AcDbEntity
  8
1
  6
DASHED
100
AcDbLine
 10
-322.825916
 20
340.401219
 30
0.0
 11
-314.320138
 21
338.158871
 31
0.0
  0
ARC
  5
61
100
AcDbEntity
  8
1
  6
DASHED
100
AcDbCircle
 10
-321.551331
 20
353.296013
 30
0.0
 40
5.0
100
AcDbArc
 50
104.768672
 51
117.830662
  0
ARC
  5
62
100
AcDbEntity
  8
1
  6
DASHED
100
AcDbCircle
 10
-321.551331
 20
345.236034
 30
0.0
 40
5.0
100
AcDbArc
 50
242.169338
 51
255.231328
  0
ARC
  5
63
100
AcDbEntity
  8
1
  6
DASHED
100
AcDbCircle
 10
-314.829973
 20
362.307102
 30
0.0
 40
2.0
100
AcDbArc
 50
284.768672
 51
0.0
  0
ARC
  5
64
100
AcDbEntity
  8
1
  6
DASHED
100
AcDbCircle
 10
-314.829973
 20
336.224945
 30
0.0
 40
2.0
100
AcDbArc
 50
0.0
 51
75.231328
  0
LINE
  5
65
100
AcDbEntity
  8
1
  6
DASHED
100
AcDbLine
 10
-322.985631
 20
350.766023
 30
0.0
 11
-322.985631
 21
352.766023
 31
0.0
  0
ARC
  5
66
100
AcDbEntity
  8
1
  6
DASHED
100
AcDbCircle
 10
-324.985631
 20
352.766023
 30
0.0
 40
2.0
100
AcDbArc
 50
0.0
 51
56.632987
  0
ARC
  5
67
100
AcDbEntity
  8
1
  6
DASHED
100
AcDbCircle
 10
-324.985631
 20
350.766023
 30
0.0
 40
2.0
100
AcDbArc
 50
303.367013
 51
360.0
  0
LINE
  5
68
100
AcDbEntity
  8
1
  6
DASHED
100
AcDbLine
 10
-314.320138
 20
337.766023
 30
0.0
 11
-323.885631
 21
337.766023
 31
0.0
  0
LINE
  5
69
100
AcDbEntity
  8
1
  6
DASHED
100
AcDbLine
 10
-314.320138
 20
360.766023
 30
0.0
 11
-323.885631
 21
360.766023
 31
0.0
  0
LINE
  5
6A
100
AcDbEntity
  8
1
  6
DASHED
100
AcDbLine
 10
-312.829973
 20
337.766023
 30
0.0
 11
-312.829973
 21
360.766023
 31
0.0
  0
LINE
  5
6B
100
AcDbEntity
  8
1
  6
CENTER
 62
     2
100
AcDbLine
 10
-375.985631
 20
296.417044
 30
0.0
 11
-375.985631
 21
407.929815
 31
0.0
  0
LINE
  5
6C
100
AcDbEntity
  8
1
  6
CENTER
 62
     2
100
AcDbLine
 10
113.039195
 20
-303.433977
 30
0.0
 11
196.047108
 21
-303.433977
 31
0.0
  0
LINE
  5
6D
100
AcDbEntity
  8
1
  6
CENTER
 62
     2
100
AcDbLine
 10
-294.577985
 20
-303.433977
 30
0.0
 11
-462.502495
 21
-303.433977
 31
0.0
  0
CIRCLE
  5
6E
100
AcDbEntity
  8
1
100
AcDbCircle
 10
-375.985631
 20
-303.433977
 30
0.0
 40
63.5
  0
LINE
  5
6F
100
AcDbEntity
  8
1
100
AcDbLine
 10
-357.985631
 20
-388.433977
 30
0.0
 11
-393.985631
 21
-388.433977
 31
0.0
  0
LINE
  5
70
100
AcDbEntity
  8
1
100
AcDbLine
 10
-327.885631
 20
-171.433977
 30
0.0
 11
-421.885631
 21
-171.433977
 31
0.0
  0
LINE
  5
71
100
AcDbEntity
  8
1
100
AcDbLine
 10
-425.885631
 20
-156.433977
 30
0.0
 11
-425.885631
 21
-167.433977
 31
0.0
  0
LINE
  5
72
100
AcDbEntity
  8
1
100
AcDbLine
 10
-323.885631
 20
-156.433977
 30
0.0
 11
-323.885631
 21
-167.433977
 31
0.0
  0
ARC
  5
73
100
AcDbEntity
  8
1
100
AcDbCircle
 10
-421.885631
 20
-167.433977
 30
0.0
 40
4.0
100
AcDbArc
 50
180.0
 51
270.0
  0
ARC
  5
74
100
AcDbEntity
  8
1
100
AcDbCircle
 10
-327.885631
 20
-167.433977
 30
0.0
 40
4.0
100
AcDbArc
 50
270.0
 51
360.0
  0
LINE
  5
75
100
AcDbEntity
  8
1
100
AcDbLine
 10
-393.985631
 20
-176.433977
 30
0.0
 11
-393.985631
 21
-240.336829
 31
0.0
  0
LINE
  5
76
100
AcDbEntity
  8
1
100
AcDbLine
 10
-357.985631
 20
-176.433977
 30
0.0
 11
-357.985631
 21
-240.336829
 31
0.0
  0
ARC
  5
77
100
AcDbEntity
  8
1
100
AcDbCircle
 10
-398.985631
 20
-176.433977
 30
0.0
 40
5.0
100
AcDbArc
 50
0.0
 51
90.0
  0
ARC
  5
78
100
AcDbEntity
  8
1
100
AcDbCircle
 10
-352.985631
 20
-176.433977
 30
0.0
 40
5.0
100
AcDbArc
 50
90.0
 51
180.0
  0
ARC
  5
79
100
AcDbEntity
  8
1
100
AcDbCircle
 10
-396.985631
 20
-240.336829
 30
0.0
 40
3.0
100
AcDbArc
 50
288.40848
 51
360.0
  0
ARC
  5
7A
100
AcDbEntity
  8
1
100
AcDbCircle
 10
-354.985631
 20
-240.336829
 30
0.0
 40
3.0
100
AcDbArc
 50
180.0
 51
251.59152
  0
LINE
  5
7B
100
AcDbEntity
  8
1
100
AcDbLine
 10
-393.985631
 20
-366.531124
 30
0.0
 11
-393.985631
 21
-392.933977
 31
0.0
  0
LINE
  5
7C
100
AcDbEntity
  8
1
100
AcDbLine
 10
-357.985631
 20
-366.531124
 30
0.0
 11
-357.985631
 21
-392.933977
 31
0.0
  0
ARC
  5
7D
100
AcDbEntity
  8
1
100
AcDbCircle
 10
-396.985631
 20
-366.531124
 30
0.0
 40
3.0
100
AcDbArc
 50
0.0
 51
71.59152
  0
ARC
  5
7E
100
AcDbEntity
  8
1
100
AcDbCircle
 10
-354.985631
 20
-366.531124
 30
0.0
 40
3.0
100
AcDbArc
 50
108.40848
 51
180.0
  0
ARC
  5
7F
100
AcDbEntity
  8
1
100
AcDbCircle
 10
-337.985631
 20
-191.433977
 30
0.0
 40
20.0
100
AcDbArc
 50
90.0
 51
180.0
  0
ARC
  5
80
100
AcDbEntity
  8
1
100
AcDbCircle
 10
-413.985631
 20
-191.433977
 30
0.0
 40
20.0
100
AcDbArc
 50
0.0
 51
90.0
  0
LINE
  5
81
100
AcDbEntity
  8
1
100
AcDbLine
 10
-371.885631
 20
-191.433977
 30
0.0
 11
-377.885631
 21
-191.433977
 31
0.0
  0
LINE
  5
82
100
AcDbEntity
  8
1
100
AcDbLine
 10
-377.885631
 20
-174.433977
 30
0.0
 11
-377.885631
 21
-188.433977
 31
0.0
  0
LINE
  5
83
100
AcDbEntity
  8
1
100
AcDbLine
 10
-371.885631
 20
-174.433977
 30
0.0
 11
-371.885631
 21
-188.433977
 31
0.0
  0
ARC
  5
84
100
AcDbEntity
  8
1
100
AcDbCircle
 10
-380.885631
 20
-174.433977
 30
0.0
 40
3.0
100
AcDbArc
 50
0.0
 51
90.0
  0
ARC
  5
85
100
AcDbEntity
  8
1
100
AcDbCircle
 10
-368.885631
 20
-174.433977
 30
0.0
 40
3.0
100
AcDbArc
 50
90.0
 51
180.0
  0
ARC
  5
86
100
AcDbEntity
  8
1
100
AcDbCircle
 10
-368.885631
 20
-188.433977
 30
0.0
 40
3.0
100
AcDbArc
 50
180.0
 51
270.0
  0
ARC
  5
87
100
AcDbEntity
  8
1
100
AcDbCircle
 10
-380.885631
 20
-188.433977
 30
0.0
 40
3.0
100
AcDbArc
 50
270.0
 51
360.0
  0
LINE
  5
88
100
AcDbEntity
  8
1
100
AcDbLine
 10
-337.901589
 20
-252.622012
 30
0.0
 11
-328.550602
 21
-243.271026
 31
0.0
  0
LINE
  5
89
100
AcDbEntity
  8
1
100
AcDbLine
 10
-341.985631
 20
-210.835997
 30
0.0
 11
-352.985631
 21
-210.835997
 31
0.0
  0
LINE
  5
8A
100
AcDbEntity
  8
1
100
AcDbLine
 10
-409.985631
 20
-210.835997
 30
0.0
 11
-398.985631
 21
-210.835997
 31
0.0
  0
ARC
  5
8B
100
AcDbEntity
  8
1
100
AcDbCircle
 10
-341.985631
 20
-229.835997
 30
0.0
 40
19.0
100
AcDbArc
 50
315.0
 51
90.0
  0
ARC
  5
8C
100
AcDbEntity
  8
1
100
AcDbCircle
 10
-409.985631
 20
-229.835997
 30
0.0
 40
19.0
100
AcDbArc
 50
90.0
 51
225.0
  0
ARC
  5
8D
100
AcDbEntity
  8
1
100
AcDbCircle
 10
-352.985631
 20
-205.835997
 30
0.0
 40
5.0
100
AcDbArc
 50
180.0
 51
270.0
  0
ARC
  5
8E
100
AcDbEntity
  8
1
100
AcDbCircle
 10
-398.985631
 20
-205.835997
 30
0.0
 40
5.0
100
AcDbArc
 50
270.0
 51
360.0
  0
ARC
  5
8F
100
AcDbEntity
  8
1
100
AcDbCircle
 10
-345.370956
 20
-229.523614
 30
0.0
 40
11.0
100
AcDbArc
 50
139.803355
 51
193.721547
  0
ARC
  5
90
100
AcDbEntity
  8
1
100
AcDbCircle
 10
-345.370956
 20
-229.523614
 30
0.0
 40
11.0
100
AcDbArc
 50
301.278453
 51
355.196645
  0
ARC
  5
91
100
AcDbEntity
  8
1
100
AcDbCircle
 10
-347.284373
 20
-234.143012
 30
0.0
 40
9.0
100
AcDbArc
 50
167.094068
 51
327.905932
  0
ARC
  5
92
100
AcDbEntity
  8
1
100
AcDbCircle
 10
-343.840223
 20
-225.828096
 30
0.0
 40
10.5
100
AcDbArc
 50
333.916678
 51
161.083322
  0
ARC
  5
93
100
AcDbEntity
  8
1
100
AcDbCircle
 10
-406.600305
 20
-229.523614
 30
0.0
 40
11.0
100
AcDbArc
 50
184.803355
 51
238.721547
  0
ARC
  5
94
100
AcDbEntity
  8
1
100
AcDbCircle
 10
-406.600305
 20
-229.523614
 30
0.0
 40
11.0
100
AcDbArc
 50
346.278453
 51
40.196645
  0
ARC
  5
95
100
AcDbEntity
  8
1
100
AcDbCircle
 10
-404.686888
 20
-234.143012
 30
0.0
 40
9.0
100
AcDbArc
 50
212.094068
 51
12.905932
  0
ARC
  5
96
100
AcDbEntity
  8
1
100
AcDbCircle
 10
-408.131039
 20
-225.828096
 30
0.0
 40
10.5
100
AcDbArc
 50
18.916678
 51
206.083322
  0
LINE
  5
97
100
AcDbEntity
  8
1
100
AcDbLine
 10
-332.864311
 20
-358.312656
 30
0.0
 11
-337.349525
 21
-353.827442
 31
0.0
  0
ARC
  5
98
100
AcDbEntity
  8
1
100
AcDbCircle
 10
-334.985631
 20
-360.433977
 30
0.0
 40
3.0
100
AcDbArc
 50
270.0
 51
45.0
  0
ARC
  5
99
100
AcDbEntity
  8
1
100
AcDbCircle
 10
-416.985631
 20
-360.433977
 30
0.0
 40
3.0
100
AcDbArc
 50
135.0
 51
270.0
  0
LINE
  5
9A
100
AcDbEntity
  8
1
100
AcDbLine
 10
-416.985631
 20
-363.433977
 30
0.0
 11
-404.566367
 21
-363.433977
 31
0.0
  0
LINE
  5
9B
100
AcDbEntity
  8
1
100
AcDbLine
 10
-347.404895
 20
-363.433977
 30
0.0
 11
-334.985631
 21
-363.433977
 31
0.0
  0
ARC
  5
9C
100
AcDbEntity
  8
1
100
AcDbCircle
 10
-347.404895
 20
-372.433977
 30
0.0
 40
9.0
100
AcDbArc
 50
90.0
 51
195.444287
  0
ARC
  5
9D
100
AcDbEntity
  8
1
100
AcDbCircle
 10
-404.566367
 20
-372.433977
 30
0.0
 40
9.0
100
AcDbArc
 50
344.555713
 51
90.0
  0
LINE
  5
9E
100
AcDbEntity
  8
1
100
AcDbLine
 10
-356.485631
 20
-386.08704
 30
0.0
 11
-356.985631
 21
-386.08704
 31
0.0
  0
LINE
  5
9F
100
AcDbEntity
  8
1
100
AcDbLine
 10
-395.485631
 20
-386.08704
 30
0.0
 11
-394.985631
 21
-386.08704
 31
0.0
  0
ARC
  5
A0
100
AcDbEntity
  8
1
100
AcDbCircle
 10
-345.370956
 20
-377.344339
 30
0.0
 40
11.0
100
AcDbArc
 50
166.790413
 51
211.24303
  0
ARC
  5
A1
100
AcDbEntity
  8
1
100
AcDbCircle
 10
-356.485631
 20
-384.08704
 30
0.0
 40
2.0
100
AcDbArc
 50
270.0
 51
31.24303
  0
ARC
  5
A2
100
AcDbEntity
  8
1
100
AcDbCircle
 10
-406.600305
 20
-377.344339
 30
0.0
 40
11.0
100
AcDbArc
 50
328.75697
 51
13.209587
  0
ARC
  5
A3
100
AcDbEntity
  8
1
100
AcDbCircle
 10
-395.485631
 20
-384.08704
 30
0.0
 40
2.0
100
AcDbArc
 50
148.75697
 51
270.0
  0
ARC
  5
A4
100
AcDbEntity
  8
1
100
AcDbCircle
 10
-356.985631
 20
-387.08704
 30
0.0
 40
1.0
100
AcDbArc
 50
90.0
 51
180.0
  0
ARC
  5
A5
100
AcDbEntity
  8
1
100
AcDbCircle
 10
-394.985631
 20
-387.08704
 30
0.0
 40
1.0
100
AcDbArc
 50
360.0
 51
90.0
  0
CIRCLE
  5
A6
100
AcDbEntity
  8
1
100
AcDbCircle
 10
-375.985631
 20
-303.433977
 30
0.0
 40
44.5
  0
LINE
  5
A7
100
AcDbEntity
  8
1
100
AcDbLine
 10
-414.069673
 20
-252.622012
 30
0.0
 11
-423.42066
 21
-243.271026
 31
0.0
  0
LINE
  5
A8
100
AcDbEntity
  8
1
100
AcDbLine
 10
-419.106951
 20
-358.312656
 30
0.0
 11
-414.621737
 21
-353.827442
 31
0.0
  0
LINE
  5
A9
100
AcDbEntity
  8
1
100
AcDbLine
 10
173.514369
 20
-239.933977
 30
0.0
 11
177.514369
 21
-239.933977
 31
0.0
  0
LINE
  5
AA
100
AcDbEntity
  8
1
100
AcDbLine
 10
173.514369
 20
-366.933977
 30
0.0
 11
177.514369
 21
-366.933977
 31
0.0
  0
LINE
  5
AB
100
AcDbEntity
  8
1
100
AcDbLine
 10
177.514369
 20
-239.933977
 30
0.0
 11
177.514369
 21
-366.933977
 31
0.0
  0
LINE
  5
AC
100
AcDbEntity
  8
1
100
AcDbLine
 10
131.514369
 20
-239.933977
 30
0.0
 11
131.514369
 21
-366.933977
 31
0.0
  0
LINE
  5
AD
100
AcDbEntity
  8
1
100
AcDbLine
 10
105.514369
 20
-171.433977
 30
0.0
 11
199.514369
 21
-171.433977
 31
0.0
  0
LINE
  5
AE
100
AcDbEntity
  8
1
100
AcDbLine
 10
134.514369
 20
-388.433977
 30
0.0
 11
170.514369
 21
-388.433977
 31
0.0
  0
LINE
  5
AF
100
AcDbEntity
  8
1
100
AcDbLine
 10
101.514369
 20
-156.433977
 30
0.0
 11
101.514369
 21
-167.433977
 31
0.0
  0
LINE
  5
B0
100
AcDbEntity
  8
1
100
AcDbLine
 10
203.514369
 20
-156.433977
 30
0.0
 11
203.514369
 21
-167.433977
 31
0.0
  0
ARC
  5
B1
100
AcDbEntity
  8
1
100
AcDbCircle
 10
105.514369
 20
-167.433977
 30
0.0
 40
4.0
100
AcDbArc
 50
180.0
 51
270.0
  0
ARC
  5
B2
100
AcDbEntity
  8
1
100
AcDbCircle
 10
199.514369
 20
-167.433977
 30
0.0
 40
4.0
100
AcDbArc
 50
270.0
 51
360.0
  0
LINE
  5
B3
100
AcDbEntity
  8
1
100
AcDbLine
 10
170.514369
 20
-392.933977
 30
0.0
 11
170.514369
 21
-366.684636
 31
0.0
  0
LINE
  5
B4
100
AcDbEntity
  8
1
100
AcDbLine
 10
170.514369
 20
-240.183317
 30
0.0
 11
170.514369
 21
-176.433977
 31
0.0
  0
LINE
  5
B5
100
AcDbEntity
  8
1
100
AcDbLine
 10
134.514369
 20
-392.933977
 30
0.0
 11
134.514369
 21
-366.684636
 31
0.0
  0
LINE
  5
B6
100
AcDbEntity
  8
1
100
AcDbLine
 10
134.514369
 20
-240.183317
 30
0.0
 11
134.514369
 21
-176.433977
 31
0.0
  0
ARC
  5
B7
100
AcDbEntity
  8
1
100
AcDbCircle
 10
175.514369
 20
-176.433977
 30
0.0
 40
5.0
100
AcDbArc
 50
90.0
 51
180.0
  0
ARC
  5
B8
100
AcDbEntity
  8
1
100
AcDbCircle
 10
129.514369
 20
-176.433977
 30
0.0
 40
5.0
100
AcDbArc
 50
0.0
 51
90.0
  0
ARC
  5
B9
100
AcDbEntity
  8
1
100
AcDbCircle
 10
190.514369
 20
-191.433977
 30
0.0
 40
20.0
100
AcDbArc
 50
90.0
 51
180.0
  0
ARC
  5
BA
100
AcDbEntity
  8
1
100
AcDbCircle
 10
114.514369
 20
-191.433977
 30
0.0
 40
20.0
100
AcDbArc
 50
0.0
 51
90.0
  0
LINE
  5
BB
100
AcDbEntity
  8
1
100
AcDbLine
 10
155.514369
 20
-191.433977
 30
0.0
 11
149.514369
 21
-191.433977
 31
0.0
  0
LINE
  5
BC
100
AcDbEntity
  8
1
100
AcDbLine
 10
149.514369
 20
-174.433977
 30
0.0
 11
149.514369
 21
-188.433977
 31
0.0
  0
LINE
  5
BD
100
AcDbEntity
  8
1
100
AcDbLine
 10
155.514369
 20
-174.433977
 30
0.0
 11
155.514369
 21
-188.433977
 31
0.0
  0
ARC
  5
BE
100
AcDbEntity
  8
1
100
AcDbCircle
 10
146.514369
 20
-174.433977
 30
0.0
 40
3.0
100
AcDbArc
 50
0.0
 51
90.0
  0
ARC
  5
BF
100
AcDbEntity
  8
1
100
AcDbCircle
 10
158.514369
 20
-174.433977
 30
0.0
 40
3.0
100
AcDbArc
 50
90.0
 51
180.0
  0
ARC
  5
C0
100
AcDbEntity
  8
1
100
AcDbCircle
 10
158.514369
 20
-188.433977
 30
0.0
 40
3.0
100
AcDbArc
 50
180.0
 51
270.0
  0
ARC
  5
C1
100
AcDbEntity
  8
1
100
AcDbCircle
 10
146.514369
 20
-188.433977
 30
0.0
 40
3.0
100
AcDbArc
 50
270.0
 51
360.0
  0
ARC
  5
C2
100
AcDbEntity
  8
1
100
AcDbCircle
 10
173.514369
 20
-236.933977
 30
0.0
 40
3.0
100
AcDbArc
 50
180.0
 51
270.0
  0
ARC
  5
C3
100
AcDbEntity
  8
1
100
AcDbCircle
 10
173.514369
 20
-369.933977
 30
0.0
 40
3.0
100
AcDbArc
 50
90.0
 51
180.0
  0
ARC
  5
C4
100
AcDbEntity
  8
1
100
AcDbCircle
 10
131.514369
 20
-236.933977
 30
0.0
 40
3.0
100
AcDbArc
 50
270.0
 51
360.0
  0
ARC
  5
C5
100
AcDbEntity
  8
1
100
AcDbCircle
 10
131.514369
 20
-369.933977
 30
0.0
 40
3.0
100
AcDbArc
 50
0.0
 51
90.0
  0
ARC
  5
C6
100
AcDbEntity
  8
1
100
AcDbCircle
 10
173.514369
 20
-240.183317
 30
0.0
 40
3.0
100
AcDbArc
 50
180.0
 51
270.0
  0
ARC
  5
C7
100
AcDbEntity
  8
1
100
AcDbCircle
 10
173.514369
 20
-366.684636
 30
0.0
 40
3.0
100
AcDbArc
 50
90.0
 51
180.0
  0
ARC
  5
C8
100
AcDbEntity
  8
1
100
AcDbCircle
 10
131.514369
 20
-240.183317
 30
0.0
 40
3.0
100
AcDbArc
 50
270.0
 51
360.0
  0
ARC
  5
C9
100
AcDbEntity
  8
1
100
AcDbCircle
 10
131.514369
 20
-366.684636
 30
0.0
 40
3.0
100
AcDbArc
 50
0.0
 51
90.0
  0
LINE
  5
CA
100
AcDbEntity
  8
1
100
AcDbLine
 10
145.131683
 20
-262.292149
 30
0.0
 11
154.897055
 21
-262.292149
 31
0.0
  0
LINE
  5
CB
100
AcDbEntity
  8
1
100
AcDbLine
 10
145.131683
 20
-290.071908
 30
0.0
 11
154.897055
 21
-290.071908
 31
0.0
  0
ARC
  5
CC
100
AcDbEntity
  8
1
100
AcDbCircle
 10
154.897055
 20
-265.292149
 30
0.0
 40
3.0
100
AcDbArc
 50
0.0
 51
90.0
  0
ARC
  5
CD
100
AcDbEntity
  8
1
100
AcDbCircle
 10
145.131683
 20
-265.292149
 30
0.0
 40
3.0
100
AcDbArc
 50
90.0
 51
180.0
  0
ARC
  5
CE
100
AcDbEntity
  8
1
100
AcDbCircle
 10
145.131683
 20
-287.071908
 30
0.0
 40
3.0
100
AcDbArc
 50
180.0
 51
270.0
  0
ARC
  5
CF
100
AcDbEntity
  8
1
100
AcDbCircle
 10
154.897055
 20
-287.071908
 30
0.0
 40
3.0
100
AcDbArc
 50
270.0
 51
360.0
  0
ARC
  5
D0
100
AcDbEntity
  8
1
100
AcDbCircle
 10
158.514369
 20
-292.933977
 30
0.0
 40
3.0
100
AcDbArc
 50
270.0
 51
360.0
  0
ARC
  5
D1
100
AcDbEntity
  8
1
100
AcDbCircle
 10
141.514369
 20
-292.933977
 30
0.0
 40
3.0
100
AcDbArc
 50
180.0
 51
270.0
  0
ARC
  5
D2
100
AcDbEntity
  8
1
100
AcDbCircle
 10
141.514369
 20
-255.622012
 30
0.0
 40
3.0
100
AcDbArc
 50
90.0
 51
180.0
  0
ARC
  5
D3
100
AcDbEntity
  8
1
100
AcDbCircle
 10
158.514369
 20
-255.622012
 30
0.0
 40
3.0
100
AcDbArc
 50
360.0
 51
90.0
  0
LINE
  5
D4
100
AcDbEntity
  8
1
100
AcDbLine
 10
160.392157
 20
-255.622012
 30
0.0
 11
157.897055
 21
-262.292149
 31
0.0
  0
LINE
  5
D5
100
AcDbEntity
  8
1
100
AcDbLine
 10
142.131683
 20
-262.292149
 30
0.0
 11
139.636581
 21
-255.622012
 31
0.0
  0
LINE
  5
D6
100
AcDbEntity
  8
1
100
AcDbLine
 10
142.131683
 20
-290.071908
 30
0.0
 11
140.365583
 21
-292.933977
 31
0.0
  0
LINE
  5
D7
100
AcDbEntity
  8
1
100
AcDbLine
 10
157.897055
 20
-290.071908
 30
0.0
 11
159.663155
 21
-292.933977
 31
0.0
  0
LINE
  5
D8
100
AcDbEntity
  8
1
100
AcDbLine
 10
145.131683
 20
-344.575804
 30
0.0
 11
154.897055
 21
-344.575804
 31
0.0
  0
LINE
  5
D9
100
AcDbEntity
  8
1
100
AcDbLine
 10
145.131683
 20
-316.796045
 30
0.0
 11
154.897055
 21
-316.796045
 31
0.0
  0
ARC
  5
DA
100
AcDbEntity
  8
1
100
AcDbCircle
 10
154.897055
 20
-341.575804
 30
0.0
 40
3.0
100
AcDbArc
 50
270.0
 51
360.0
  0
ARC
  5
DB
100
AcDbEntity
  8
1
100
AcDbCircle
 10
145.131683
 20
-341.575804
 30
0.0
 40
3.0
100
AcDbArc
 50
180.0
 51
270.0
  0
ARC
  5
DC
100
AcDbEntity
  8
1
100
AcDbCircle
 10
145.131683
 20
-319.796045
 30
0.0
 40
3.0
100
AcDbArc
 50
90.0
 51
180.0
  0
ARC
  5
DD
100
AcDbEntity
  8
1
100
AcDbCircle
 10
154.897055
 20
-319.796045
 30
0.0
 40
3.0
100
AcDbArc
 50
0.0
 51
90.0
  0
ARC
  5
DE
100
AcDbEntity
  8
1
100
AcDbCircle
 10
158.514369
 20
-313.933977
 30
0.0
 40
3.0
100
AcDbArc
 50
0.0
 51
90.0
  0
ARC
  5
DF
100
AcDbEntity
  8
1
100
AcDbCircle
 10
141.514369
 20
-313.933977
 30
0.0
 40
3.0
100
AcDbArc
 50
90.0
 51
180.0
  0
ARC
  5
E0
100
AcDbEntity
  8
1
100
AcDbCircle
 10
141.514369
 20
-351.245941
 30
0.0
 40
3.0
100
AcDbArc
 50
180.0
 51
270.0
  0
ARC
  5
E1
100
AcDbEntity
  8
1
100
AcDbCircle
 10
158.514369
 20
-351.245941
 30
0.0
 40
3.0
100
AcDbArc
 50
270.0
 51
0.0
  0
LINE
  5
E2
100
AcDbEntity
  8
1
100
AcDbLine
 10
160.392157
 20
-351.245941
 30
0.0
 11
157.897055
 21
-344.575804
 31
0.0
  0
LINE
  5
E3
100
AcDbEntity
  8
1
100
AcDbLine
 10
142.131683
 20
-344.575804
 30
0.0
 11
139.636581
 21
-351.245941
 31
0.0
  0
LINE
  5
E4
100
AcDbEntity
  8
1
100
AcDbLine
 10
142.131683
 20
-316.796045
 30
0.0
 11
140.365583
 21
-313.933977
 31
0.0
  0
LINE
  5
E5
100
AcDbEntity
  8
1
100
AcDbLine
 10
157.897055
 20
-316.796045
 30
0.0
 11
159.663155
 21
-313.933977
 31
0.0
  0
LINE
  5
E6
100
AcDbEntity
  8
1
100
AcDbLine
 10
138.514369
 20
-255.622012
 30
0.0
 11
138.514369
 21
-292.933977
 31
0.0
  0
LINE
  5
E7
100
AcDbEntity
  8
1
100
AcDbLine
 10
161.514369
 20
-255.622012
 30
0.0
 11
161.514369
 21
-292.933977
 31
0.0
  0
LINE
  5
E8
100
AcDbEntity
  8
1
100
AcDbLine
 10
157.897055
 20
-265.292149
 30
0.0
 11
157.897055
 21
-287.071908
 31
0.0
  0
LINE
  5
E9
100
AcDbEntity
  8
1
100
AcDbLine
 10
142.131683
 20
-265.292149
 30
0.0
 11
142.131683
 21
-287.071908
 31
0.0
  0
LINE
  5
EA
100
AcDbEntity
  8
1
100
AcDbLine
 10
138.514369
 20
-351.245941
 30
0.0
 11
138.514369
 21
-313.933977
 31
0.0
  0
LINE
  5
EB
100
AcDbEntity
  8
1
100
AcDbLine
 10
161.514369
 20
-351.245941
 30
0.0
 11
161.514369
 21
-313.933977
 31
0.0
  0
LINE
  5
EC
100
AcDbEntity
  8
1
100
AcDbLine
 10
157.897055
 20
-341.575804
 30
0.0
 11
157.897055
 21
-319.796045
 31
0.0
  0
LINE
  5
ED
100
AcDbEntity
  8
1
100
AcDbLine
 10
142.131683
 20
-341.575804
 30
0.0
 11
142.131683
 21
-319.796045
 31
0.0
  0
LINE
  5
EE
100
AcDbEntity
  8
1
100
AcDbLine
 10
141.514369
 20
-295.933977
 30
0.0
 11
158.514369
 21
-295.933977
 31
0.0
  0
LINE
  5
EF
100
AcDbEntity
  8
1
100
AcDbLine
 10
141.514369
 20
-252.622012
 30
0.0
 11
146.514369
 21
-252.622012
 31
0.0
  0
LINE
  5
F0
100
AcDbEntity
  8
1
100
AcDbLine
 10
141.514369
 20
-310.933977
 30
0.0
 11
158.514369
 21
-310.933977
 31
0.0
  0
LINE
  5
F1
100
AcDbEntity
  8
1
100
AcDbLine
 10
141.514369
 20
-354.245941
 30
0.0
 11
146.514369
 21
-354.245941
 31
0.0
  0
LINE
  5
F2
100
AcDbEntity
  8
1
100
AcDbLine
 10
134.514369
 20
-243.183317
 30
0.0
 11
146.514369
 21
-243.183317
 31
0.0
  0
LINE
  5
F3
100
AcDbEntity
  8
1
100
AcDbLine
 10
158.514369
 20
-243.183317
 30
0.0
 11
170.514369
 21
-243.183317
 31
0.0
  0
LINE
  5
F4
100
AcDbEntity
  8
1
100
AcDbLine
 10
134.514369
 20
-363.684636
 30
0.0
 11
146.514369
 21
-363.684636
 31
0.0
  0
LINE
  5
F5
100
AcDbEntity
  8
1
100
AcDbLine
 10
158.514369
 20
-363.684636
 30
0.0
 11
170.514369
 21
-363.684636
 31
0.0
  0
LINE
  5
F6
100
AcDbEntity
  8
1
100
AcDbLine
 10
149.514369
 20
-205.835997
 30
0.0
 11
155.514369
 21
-205.835997
 31
0.0
  0
LINE
  5
F7
100
AcDbEntity
  8
1
100
AcDbLine
 10
149.514369
 20
-208.835997
 30
0.0
 11
149.514369
 21
-249.622012
 31
0.0
  0
LINE
  5
F8
100
AcDbEntity
  8
1
100
AcDbLine
 10
155.514369
 20
-208.835997
 30
0.0
 11
155.514369
 21
-249.622012
 31
0.0
  0
ARC
  5
F9
100
AcDbEntity
  8
1
100
AcDbCircle
 10
158.514369
 20
-208.835997
 30
0.0
 40
3.0
100
AcDbArc
 50
90.0
 51
180.0
  0
ARC
  5
FA
100
AcDbEntity
  8
1
100
AcDbCircle
 10
146.514369
 20
-208.835997
 30
0.0
 40
3.0
100
AcDbArc
 50
0.0
 51
90.0
  0
ARC
  5
FB
100
AcDbEntity
  8
1
100
AcDbCircle
 10
146.514369
 20
-249.622012
 30
0.0
 40
3.0
100
AcDbArc
 50
270.0
 51
360.0
  0
ARC
  5
FC
100
AcDbEntity
  8
1
100
AcDbCircle
 10
158.514369
 20
-249.622012
 30
0.0
 40
3.0
100
AcDbArc
 50
180.0
 51
270.0
  0
LINE
  5
FD
100
AcDbEntity
  8
1
100
AcDbLine
 10
151.514369
 20
-210.835997
 30
0.0
 11
153.514369
 21
-210.835997
 31
0.0
  0
LINE
  5
FE
100
AcDbEntity
  8
1
100
AcDbLine
 10
151.514369
 20
-243.271026
 30
0.0
 11
153.514369
 21
-243.271026
 31
0.0
  0
ARC
  5
FF
100
AcDbEntity
  8
1
100
AcDbCircle
 10
153.514369
 20
-212.835997
 30
0.0
 40
2.0
100
AcDbArc
 50
0.0
 51
90.0
  0
ARC
  5
100
100
AcDbEntity
  8
1
100
AcDbCircle
 10
151.514369
 20
-212.835997
 30
0.0
 40
2.0
100
AcDbArc
 50
90.0
 51
180.0
  0
ARC
  5
101
100
AcDbEntity
  8
1
100
AcDbCircle
 10
153.514369
 20
-241.271026
 30
0.0
 40
2.0
100
AcDbArc
 50
270.0
 51
360.0
  0
ARC
  5
102
100
AcDbEntity
  8
1
100
AcDbCircle
 10
151.514369
 20
-241.271026
 30
0.0
 40
2.0
100
AcDbArc
 50
180.0
 51
270.0
  0
ARC
  5
103
100
AcDbEntity
  8
1
100
AcDbCircle
 10
158.514369
 20
-240.183317
 30
0.0
 40
3.0
100
AcDbArc
 50
180.0
 51
270.0
  0
ARC
  5
104
100
AcDbEntity
  8
1
100
AcDbCircle
 10
146.514369
 20
-240.183317
 30
0.0
 40
3.0
100
AcDbArc
 50
270.0
 51
360.0
  0
LINE
  5
105
100
AcDbEntity
  8
1
100
AcDbLine
 10
149.514369
 20
-387.08704
 30
0.0
 11
155.514369
 21
-387.08704
 31
0.0
  0
LINE
  5
106
100
AcDbEntity
  8
1
100
AcDbLine
 10
149.514369
 20
-357.245941
 30
0.0
 11
149.514369
 21
-384.08704
 31
0.0
  0
LINE
  5
107
100
AcDbEntity
  8
1
100
AcDbLine
 10
155.514369
 20
-357.245941
 30
0.0
 11
155.514369
 21
-384.08704
 31
0.0
  0
ARC
  5
108
100
AcDbEntity
  8
1
100
AcDbCircle
 10
158.514369
 20
-357.245941
 30
0.0
 40
3.0
100
AcDbArc
 50
90.0
 51
180.0
  0
ARC
  5
109
100
AcDbEntity
  8
1
100
AcDbCircle
 10
146.514369
 20
-357.245941
 30
0.0
 40
3.0
100
AcDbArc
 50
0.0
 51
90.0
  0
ARC
  5
10A
100
AcDbEntity
  8
1
100
AcDbCircle
 10
158.514369
 20
-384.08704
 30
0.0
 40
3.0
100
AcDbArc
 50
180.0
 51
270.0
  0
ARC
  5
10B
100
AcDbEntity
  8
1
100
AcDbCircle
 10
146.514369
 20
-384.08704
 30
0.0
 40
3.0
100
AcDbArc
 50
270.0
 51
0.0
  0
ARC
  5
10C
100
AcDbEntity
  8
1
100
AcDbCircle
 10
158.514369
 20
-366.684636
 30
0.0
 40
3.0
100
AcDbArc
 50
90.0
 51
180.0
  0
ARC
  5
10D
100
AcDbEntity
  8
1
100
AcDbCircle
 10
146.514369
 20
-366.684636
 30
0.0
 40
3.0
100
AcDbArc
 50
0.0
 51
90.0
  0
LINE
  5
10E
100
AcDbEntity
  8
1
100
AcDbLine
 10
151.514369
 20
-363.433977
 30
0.0
 11
153.514369
 21
-363.433977
 31
0.0
  0
LINE
  5
10F
100
AcDbEntity
  8
1
100
AcDbLine
 10
151.514369
 20
-358.312656
 30
0.0
 11
153.514369
 21
-358.312656
 31
0.0
  0
ARC
  5
110
100
AcDbEntity
  8
1
100
AcDbCircle
 10
153.514369
 20
-361.433977
 30
0.0
 40
2.0
100
AcDbArc
 50
270.0
 51
360.0
  0
ARC
  5
111
100
AcDbEntity
  8
1
100
AcDbCircle
 10
151.514369
 20
-361.433977
 30
0.0
 40
2.0
100
AcDbArc
 50
180.0
 51
270.0
  0
ARC
  5
112
100
AcDbEntity
  8
1
100
AcDbCircle
 10
151.514369
 20
-360.312656
 30
0.0
 40
2.0
100
AcDbArc
 50
90.0
 51
180.0
  0
ARC
  5
113
100
AcDbEntity
  8
1
100
AcDbCircle
 10
153.514369
 20
-360.312656
 30
0.0
 40
2.0
100
AcDbArc
 50
0.0
 51
90.0
  0
LINE
  5
114
100
AcDbEntity
  8
1
100
AcDbLine
 10
150.514369
 20
-374.830688
 30
0.0
 11
154.514369
 21
-374.830688
 31
0.0
  0
LINE
  5
115
100
AcDbEntity
  8
1
100
AcDbLine
 10
151.514369
 20
-386.08704
 30
0.0
 11
153.514369
 21
-386.08704
 31
0.0
  0
LINE
  5
116
100
AcDbEntity
  8
1
100
AcDbLine
 10
150.514369
 20
-383.049701
 30
0.0
 11
154.514369
 21
-383.049701
 31
0.0
  0
ARC
  5
117
100
AcDbEntity
  8
1
100
AcDbCircle
 10
153.514369
 20
-384.08704
 30
0.0
 40
2.0
100
AcDbArc
 50
270.0
 51
360.0
  0
ARC
  5
118
100
AcDbEntity
  8
1
100
AcDbCircle
 10
151.514369
 20
-384.08704
 30
0.0
 40
2.0
100
AcDbArc
 50
180.0
 51
270.0
  0
LINE
  5
119
100
AcDbEntity
  8
1
  6
CENTER
 62
     2
100
AcDbLine
 10
-387.985631
 20
-381.488309
 30
0.0
 11
-387.985631
 21
-403.74603
 31
0.0
  0
LINE
  5
11A
100
AcDbEntity
  8
1
  6
CENTER
 62
     2
100
AcDbLine
 10
-363.985631
 20
-381.488309
 30
0.0
 11
-363.985631
 21
-403.74603
 31
0.0
  0
LINE
  5
11B
100
AcDbEntity
  8
1
  6
CENTER
 62
     2
100
AcDbLine
 10
140.514369
 20
-381.488309
 30
0.0
 11
140.514369
 21
-403.74603
 31
0.0
  0
LINE
  5
11C
100
AcDbEntity
  8
1
  6
CENTER
 62
     2
100
AcDbLine
 10
164.514369
 20
-381.488309
 30
0.0
 11
164.514369
 21
-403.74603
 31
0.0
  0
LINE
  5
11D
100
AcDbEntity
  8
1
100
AcDbLine
 10
134.514369
 20
-389.933977
 30
0.0
 11
170.514369
 21
-389.933977
 31
0.0
  0
LINE
  5
11E
100
AcDbEntity
  8
1
100
AcDbLine
 10
-357.985631
 20
-389.933977
 30
0.0
 11
-393.985631
 21
-389.933977
 31
0.0
  0
LINE
  5
11F
100
AcDbEntity
  8
1
100
AcDbLine
 10
134.414369
 20
-392.933977
 30
0.0
 11
170.614369
 21
-392.933977
 31
0.0
  0
LINE
  5
120
100
AcDbEntity
  8
1
100
AcDbLine
 10
-357.885631
 20
-392.933977
 30
0.0
 11
-394.085631
 21
-392.933977
 31
0.0
  0
LINE
  5
121
100
AcDbEntity
  8
1
100
AcDbLine
 10
-382.235631
 20
-394.433977
 30
0.0
 11
-382.235631
 21
-397.943229
 31
0.0
  0
LINE
  5
122
100
AcDbEntity
  8
1
100
AcDbLine
 10
-382.235631
 20
-397.943229
 30
0.0
 11
-383.085631
 21
-398.433977
 31
0.0
  0
LINE
  5
123
100
AcDbEntity
  8
1
100
AcDbLine
 10
-385.110631
 20
-394.433977
 30
0.0
 11
-385.110631
 21
-397.943229
 31
0.0
  0
ARC
  5
124
100
AcDbEntity
  8
1
100
AcDbCircle
 10
-383.673131
 20
-396.095274
 30
0.0
 40
2.341227
100
AcDbArc
 50
232.121121
 51
307.878879
  0
ARC
  5
125
100
AcDbEntity
  8
1
100
AcDbCircle
 10
-387.985631
 20
-389.811501
 30
0.0
 40
8.625
100
AcDbArc
 50
250.528777
 51
289.471219
  0
LINE
  5
126
100
AcDbEntity
  8
1
100
AcDbLine
 10
-393.735631
 20
-394.433977
 30
0.0
 11
-393.735631
 21
-397.943229
 31
0.0
  0
LINE
  5
127
100
AcDbEntity
  8
1
100
AcDbLine
 10
-393.735631
 20
-397.943229
 30
0.0
 11
-392.885631
 21
-398.433977
 31
0.0
  0
LINE
  5
128
100
AcDbEntity
  8
1
100
AcDbLine
 10
-392.885631
 20
-398.433977
 30
0.0
 11
-383.085631
 21
-398.433977
 31
0.0
  0
LINE
  5
129
100
AcDbEntity
  8
1
100
AcDbLine
 10
-390.860631
 20
-394.433977
 30
0.0
 11
-390.860631
 21
-397.943229
 31
0.0
  0
ARC
  5
12A
100
AcDbEntity
  8
1
100
AcDbCircle
 10
-392.298131
 20
-396.095274
 30
0.0
 40
2.341227
100
AcDbArc
 50
232.121121
 51
307.878879
  0
LINE
  5
12B
100
AcDbEntity
  8
1
100
AcDbLine
 10
-381.885631
 20
-392.933977
 30
0.0
 11
-381.885631
 21
-394.433977
 31
0.0
  0
LINE
  5
12C
100
AcDbEntity
  8
1
100
AcDbLine
 10
-381.885631
 20
-394.433977
 30
0.0
 11
-394.085631
 21
-394.433977
 31
0.0
  0
LINE
  5
12D
100
AcDbEntity
  8
1
100
AcDbLine
 10
-394.085631
 20
-394.433977
 30
0.0
 11
-394.085631
 21
-392.933977
 31
0.0
  0
LINE
  5
12E
100
AcDbEntity
  8
1
100
AcDbLine
 10
-387.985631
 20
-394.433977
 30
0.0
 11
-388.485631
 21
-392.933977
 31
0.0
  0
LINE
  5
12F
100
AcDbEntity
  8
1
100
AcDbLine
 10
-387.985631
 20
-392.933977
 30
0.0
 11
-387.485631
 21
-394.433977
 31
0.0
  0
LINE
  5
130
100
AcDbEntity
  8
1
100
AcDbLine
 10
-358.235631
 20
-394.433977
 30
0.0
 11
-358.235631
 21
-397.943229
 31
0.0
  0
LINE
  5
131
100
AcDbEntity
  8
1
100
AcDbLine
 10
-358.235631
 20
-397.943229
 30
0.0
 11
-359.085631
 21
-398.433977
 31
0.0
  0
LINE
  5
132
100
AcDbEntity
  8
1
100
AcDbLine
 10
-361.110631
 20
-394.433977
 30
0.0
 11
-361.110631
 21
-397.943229
 31
0.0
  0
ARC
  5
133
100
AcDbEntity
  8
1
100
AcDbCircle
 10
-359.673131
 20
-396.095274
 30
0.0
 40
2.341227
100
AcDbArc
 50
232.121121
 51
307.878879
  0
ARC
  5
134
100
AcDbEntity
  8
1
100
AcDbCircle
 10
-363.985631
 20
-389.811501
 30
0.0
 40
8.625
100
AcDbArc
 50
250.528777
 51
289.471219
  0
LINE
  5
135
100
AcDbEntity
  8
1
100
AcDbLine
 10
-369.735631
 20
-394.433977
 30
0.0
 11
-369.735631
 21
-397.943229
 31
0.0
  0
LINE
  5
136
100
AcDbEntity
  8
1
100
AcDbLine
 10
-369.735631
 20
-397.943229
 30
0.0
 11
-368.885631
 21
-398.433977
 31
0.0
  0
LINE
  5
137
100
AcDbEntity
  8
1
100
AcDbLine
 10
-368.885631
 20
-398.433977
 30
0.0
 11
-359.085631
 21
-398.433977
 31
0.0
  0
LINE
  5
138
100
AcDbEntity
  8
1
100
AcDbLine
 10
-366.860631
 20
-394.433977
 30
0.0
 11
-366.860631
 21
-397.943229
 31
0.0
  0
ARC
  5
139
100
AcDbEntity
  8
1
100
AcDbCircle
 10
-368.298131
 20
-396.095274
 30
0.0
 40
2.341227
100
AcDbArc
 50
232.121121
 51
307.878879
  0
LINE
  5
13A
100
AcDbEntity
  8
1
100
AcDbLine
 10
-357.885631
 20
-392.933977
 30
0.0
 11
-357.885631
 21
-394.433977
 31
0.0
  0
LINE
  5
13B
100
AcDbEntity
  8
1
100
AcDbLine
 10
-357.885631
 20
-394.433977
 30
0.0
 11
-370.085631
 21
-394.433977
 31
0.0
  0
LINE
  5
13C
100
AcDbEntity
  8
1
100
AcDbLine
 10
-370.085631
 20
-394.433977
 30
0.0
 11
-370.085631
 21
-392.933977
 31
0.0
  0
LINE
  5
13D
100
AcDbEntity
  8
1
100
AcDbLine
 10
-363.985631
 20
-394.433977
 30
0.0
 11
-364.485631
 21
-392.933977
 31
0.0
  0
LINE
  5
13E
100
AcDbEntity
  8
1
100
AcDbLine
 10
-363.985631
 20
-392.933977
 30
0.0
 11
-363.485631
 21
-394.433977
 31
0.0
  0
LINE
  5
13F
100
AcDbEntity
  8
1
100
AcDbLine
 10
169.514369
 20
-394.433977
 30
0.0
 11
169.514369
 21
-398.433977
 31
0.0
  0
ARC
  5
140
100
AcDbEntity
  8
1
100
AcDbCircle
 10
167.014369
 20
-391.820769
 30
0.0
 40
6.613208
100
AcDbArc
 50
247.788205
 51
292.211795
  0
LINE
  5
141
100
AcDbEntity
  8
1
100
AcDbLine
 10
159.514369
 20
-394.433977
 30
0.0
 11
159.514369
 21
-398.433977
 31
0.0
  0
LINE
  5
142
100
AcDbEntity
  8
1
100
AcDbLine
 10
159.514369
 20
-398.433977
 30
0.0
 11
169.514369
 21
-398.433977
 31
0.0
  0
LINE
  5
143
100
AcDbEntity
  8
1
100
AcDbLine
 10
164.514369
 20
-394.433977
 30
0.0
 11
164.514369
 21
-397.943229
 31
0.0
  0
ARC
  5
144
100
AcDbEntity
  8
1
100
AcDbCircle
 10
162.014369
 20
-391.820769
 30
0.0
 40
6.613208
100
AcDbArc
 50
247.788205
 51
292.211795
  0
LINE
  5
145
100
AcDbEntity
  8
1
100
AcDbLine
 10
170.614369
 20
-392.933977
 30
0.0
 11
170.614369
 21
-394.433977
 31
0.0
  0
LINE
  5
146
100
AcDbEntity
  8
1
100
AcDbLine
 10
170.614369
 20
-394.433977
 30
0.0
 11
158.414369
 21
-394.433977
 31
0.0
  0
LINE
  5
147
100
AcDbEntity
  8
1
100
AcDbLine
 10
158.414369
 20
-394.433977
 30
0.0
 11
158.414369
 21
-392.933977
 31
0.0
  0
LINE
  5
148
100
AcDbEntity
  8
1
100
AcDbLine
 10
145.514369
 20
-394.433977
 30
0.0
 11
145.514369
 21
-398.433977
 31
0.0
  0
ARC
  5
149
100
AcDbEntity
  8
1
100
AcDbCircle
 10
143.014369
 20
-391.820769
 30
0.0
 40
6.613208
100
AcDbArc
 50
247.788205
 51
292.211795
  0
LINE
  5
14A
100
AcDbEntity
  8
1
100
AcDbLine
 10
135.514369
 20
-394.433977
 30
0.0
 11
135.514369
 21
-398.433977
 31
0.0
  0
LINE
  5
14B
100
AcDbEntity
  8
1
100
AcDbLine
 10
135.514369
 20
-398.433977
 30
0.0
 11
145.514369
 21
-398.433977
 31
0.0
  0
LINE
  5
14C
100
AcDbEntity
  8
1
100
AcDbLine
 10
140.514369
 20
-394.433977
 30
0.0
 11
140.514369
 21
-397.943229
 31
0.0
  0
ARC
  5
14D
100
AcDbEntity
  8
1
100
AcDbCircle
 10
138.014369
 20
-391.820769
 30
0.0
 40
6.613208
100
AcDbArc
 50
247.788205
 51
292.211795
  0
LINE
  5
14E
100
AcDbEntity
  8
1
100
AcDbLine
 10
146.614369
 20
-392.933977
 30
0.0
 11
146.614369
 21
-394.433977
 31
0.0
  0
LINE
  5
14F
100
AcDbEntity
  8
1
100
AcDbLine
 10
146.614369
 20
-394.433977
 30
0.0
 11
134.414369
 21
-394.433977
 31
0.0
  0
LINE
  5
150
100
AcDbEntity
  8
1
100
AcDbLine
 10
134.414369
 20
-394.433977
 30
0.0
 11
134.414369
 21
-392.933977
 31
0.0
  0
LINE
  5
151
100
AcDbEntity
  8
1
100
AcDbLine
 10
-388.985631
 20
-264.022684
 30
0.0
 11
-389.240509
 21
-263.581221
 31
0.0
  0
ARC
  5
152
100
AcDbEntity
  8
1
100
AcDbCircle
 10
-391.838586
 20
-265.081221
 30
0.0
 40
3.0
100
AcDbArc
 50
30.0
 51
112.457555
  0
ARC
  5
153
100
AcDbEntity
  8
1
100
AcDbCircle
 10
-390.382056
 20
-264.022684
 30
0.0
 40
1.396425
100
AcDbArc
 50
290.066581
 51
360.0
  0
LINE
  5
154
100
AcDbEntity
  8
1
100
AcDbLine
 10
-388.985631
 20
-342.845269
 30
0.0
 11
-389.240509
 21
-343.286732
 31
0.0
  0
ARC
  5
155
100
AcDbEntity
  8
1
100
AcDbCircle
 10
-391.838586
 20
-341.786732
 30
0.0
 40
3.0
100
AcDbArc
 50
247.542445
 51
330.0
  0
ARC
  5
156
100
AcDbEntity
  8
1
100
AcDbCircle
 10
-390.382056
 20
-342.845269
 30
0.0
 40
1.396425
100
AcDbArc
 50
360.0
 51
69.933419
  0
ARC
  5
157
100
AcDbEntity
  8
1
100
AcDbCircle
 10
-375.985631
 20
-303.433977
 30
0.0
 40
40.561972
100
AcDbArc
 50
110.066581
 51
249.933419
  0
ARC
  5
158
100
AcDbEntity
  8
1
100
AcDbCircle
 10
-375.985631
 20
-303.433977
 30
0.0
 40
40.561972
100
AcDbArc
 50
288.692998
 51
71.307002
  0
LINE
  5
159
100
AcDbEntity
  8
1
  6
CENTER
 62
     2
100
AcDbLine
 10
-375.985631
 20
-163.940995
 30
0.0
 11
-375.985631
 21
-394.812909
 31
0.0
  0
ARC
  5
15A
100
AcDbEntity
  8
1
100
AcDbCircle
 10
-375.985631
 20
-303.433977
 30
0.0
 40
39.411293
100
AcDbArc
 50
109.259956
 51
250.740044
  0
ARC
  5
15B
100
AcDbEntity
  8
1
100
AcDbCircle
 10
-375.985631
 20
-303.433977
 30
0.0
 40
39.411293
100
AcDbArc
 50
289.259956
 51
70.740044
  0
LINE
  5
15C
100
AcDbEntity
  8
1
100
AcDbLine
 10
-388.985631
 20
-261.720669
 30
0.0
 11
-388.985631
 21
-280.111101
 31
0.0
  0
LINE
  5
15D
100
AcDbEntity
  8
1
100
AcDbLine
 10
-362.985631
 20
-264.933977
 30
0.0
 11
-362.985631
 21
-266.701926
 31
0.0
  0
LINE
  5
15E
100
AcDbEntity
  8
1
100
AcDbLine
 10
-361.985631
 20
-268.433977
 30
0.0
 11
-361.985631
 21
-280.433977
 31
0.0
  0
LINE
  5
15F
100
AcDbEntity
  8
1
100
AcDbLine
 10
-362.985631
 20
-281.433977
 30
0.0
 11
-387.985631
 21
-281.433977
 31
0.0
  0
ARC
  5
160
100
AcDbEntity
  8
1
100
AcDbCircle
 10
-387.985631
 20
-280.433977
 30
0.0
 40
1.0
100
AcDbArc
 50
180.0
 51
270.0
  0
ARC
  5
161
100
AcDbEntity
  8
1
100
AcDbCircle
 10
-362.985631
 20
-280.433977
 30
0.0
 40
1.0
100
AcDbArc
 50
270.0
 51
360.0
  0
LINE
  5
162
100
AcDbEntity
  8
1
100
AcDbLine
 10
-362.985631
 20
-267.433977
 30
0.0
 11
-374.985631
 21
-267.433977
 31
0.0
  0
ARC
  5
163
100
AcDbEntity
  8
1
100
AcDbCircle
 10
-362.985631
 20
-268.433977
 30
0.0
 40
1.0
100
AcDbArc
 50
0.0
 51
90.0
  0
ARC
  5
164
100
AcDbEntity
  8
1
100
AcDbCircle
 10
-361.985631
 20
-266.701926
 30
0.0
 40
1.0
100
AcDbArc
 50
180.0
 51
240.0
  0
ARC
  5
165
100
AcDbEntity
  8
1
100
AcDbCircle
 10
-374.985631
 20
-266.433977
 30
0.0
 40
1.0
100
AcDbArc
 50
180.0
 51
270.0
  0
LINE
  5
166
100
AcDbEntity
  8
1
100
AcDbLine
 10
-370.789478
 20
-268.433977
 30
0.0
 11
-370.789478
 21
-280.433977
 31
0.0
  0
ARC
  5
167
100
AcDbEntity
  8
1
100
AcDbCircle
 10
-371.789478
 20
-280.433977
 30
0.0
 40
1.0
100
AcDbArc
 50
270.0
 51
360.0
  0
ARC
  5
168
100
AcDbEntity
  8
1
100
AcDbCircle
 10
-371.789478
 20
-268.433977
 30
0.0
 40
1.0
100
AcDbArc
 50
0.0
 51
90.0
  0
LINE
  5
169
100
AcDbEntity
  8
1
100
AcDbLine
 10
-383.985631
 20
-271.433977
 30
0.0
 11
-376.985631
 21
-271.433977
 31
0.0
  0
ARC
  5
16A
100
AcDbEntity
  8
1
100
AcDbCircle
 10
-383.985631
 20
-276.433977
 30
0.0
 40
5.0
100
AcDbArc
 50
90.0
 51
270.0
  0
ARC
  5
16B
100
AcDbEntity
  8
1
100
AcDbCircle
 10
-376.985631
 20
-270.433977
 30
0.0
 40
1.0
100
AcDbArc
 50
270.0
 51
0.0
  0
LINE
  5
16C
100
AcDbEntity
  8
1
  6
CENTER
 62
     2
100
AcDbLine
 10
-377.79461
 20
-276.433977
 30
0.0
 11
-387.610146
 21
-276.433977
 31
0.0
  0
LINE
  5
16D
100
AcDbEntity
  8
1
100
AcDbLine
 10
-370.985631
 20
-261.720669
 30
0.0
 11
-388.985631
 21
-261.720669
 31
0.0
  0
ARC
  5
16E
100
AcDbEntity
  8
1
100
AcDbCircle
 10
-374.885631
 20
-102.293788
 30
0.0
 40
158.177995
100
AcDbArc
 50
266.919617
 51
271.412815
  0
ARC
  5
16F
100
AcDbEntity
  8
1
100
AcDbCircle
 10
-374.985631
 20
-303.433977
 30
0.0
 40
44.0
100
AcDbArc
 50
101.005842
 51
108.553005
  0
LINE
  5
170
100
AcDbEntity
  8
1
100
AcDbLine
 10
-370.985631
 20
-260.423698
 30
0.0
 11
-370.985631
 21
-264.933977
 31
0.0
  0
LINE
  5
171
100
AcDbEntity
  8
1
100
AcDbLine
 10
-362.985631
 20
-264.933977
 30
0.0
 11
-370.985631
 21
-264.933977
 31
0.0
  0
ARC
  5
172
100
AcDbEntity
  8
1
100
AcDbCircle
 10
-374.885631
 20
-409.894437
 30
0.0
 40
147.080653
100
AcDbArc
 50
86.709983
 51
86.882033
  0
LINE
  5
173
100
AcDbEntity
  8
1
100
AcDbLine
 10
-363.02415
 20
-264.009841
 30
0.0
 11
-363.02415
 21
-264.933977
 31
0.0
  0
LINE
  5
174
100
AcDbEntity
  8
1
100
AcDbLine
 10
-366.444659
 20
-263.056198
 30
0.0
 11
-366.444659
 21
-263.933977
 31
0.0
  0
ARC
  5
175
100
AcDbEntity
  8
1
100
AcDbCircle
 10
-375.869399
 20
-303.471842
 30
0.0
 40
41.5
100
AcDbArc
 50
71.969449
 51
76.873477
  0
LINE
  5
176
100
AcDbEntity
  8
1
100
AcDbLine
 10
-366.444659
 20
-263.933977
 30
0.0
 11
-366.885631
 21
-263.933977
 31
0.0
  0
LINE
  5
177
100
AcDbEntity
  8
1
100
AcDbLine
 10
-366.885631
 20
-264.933977
 30
0.0
 11
-366.885631
 21
-259.874362
 31
0.0
  0
LINE
  5
178
100
AcDbEntity
  8
1
100
AcDbLine
 10
-382.885631
 20
-260.269351
 30
0.0
 11
-382.885631
 21
-259.472175
 31
0.0
  0
LINE
  5
179
100
AcDbEntity
  8
1
100
AcDbLine
 10
-388.985631
 20
-345.147284
 30
0.0
 11
-388.985631
 21
-326.433977
 31
0.0
  0
LINE
  5
17A
100
AcDbEntity
  8
1
100
AcDbLine
 10
-362.985631
 20
-341.933977
 30
0.0
 11
-362.985631
 21
-340.166027
 31
0.0
  0
LINE
  5
17B
100
AcDbEntity
  8
1
100
AcDbLine
 10
-361.985631
 20
-338.433977
 30
0.0
 11
-361.985631
 21
-326.433977
 31
0.0
  0
LINE
  5
17C
100
AcDbEntity
  8
1
100
AcDbLine
 10
-362.985631
 20
-325.433977
 30
0.0
 11
-387.985631
 21
-325.433977
 31
0.0
  0
ARC
  5
17D
100
AcDbEntity
  8
1
100
AcDbCircle
 10
-387.985631
 20
-326.433977
 30
0.0
 40
1.0
100
AcDbArc
 50
90.0
 51
180.0
  0
ARC
  5
17E
100
AcDbEntity
  8
1
100
AcDbCircle
 10
-362.985631
 20
-326.433977
 30
0.0
 40
1.0
100
AcDbArc
 50
360.0
 51
90.0
  0
LINE
  5
17F
100
AcDbEntity
  8
1
100
AcDbLine
 10
-362.985631
 20
-339.433977
 30
0.0
 11
-374.985631
 21
-339.433977
 31
0.0
  0
ARC
  5
180
100
AcDbEntity
  8
1
100
AcDbCircle
 10
-362.985631
 20
-338.433977
 30
0.0
 40
1.0
100
AcDbArc
 50
270.0
 51
360.0
  0
ARC
  5
181
100
AcDbEntity
  8
1
100
AcDbCircle
 10
-361.985631
 20
-340.166027
 30
0.0
 40
1.0
100
AcDbArc
 50
120.0
 51
180.0
  0
ARC
  5
182
100
AcDbEntity
  8
1
100
AcDbCircle
 10
-374.985631
 20
-340.433977
 30
0.0
 40
1.0
100
AcDbArc
 50
90.0
 51
180.0
  0
LINE
  5
183
100
AcDbEntity
  8
1
100
AcDbLine
 10
-370.789478
 20
-338.433977
 30
0.0
 11
-370.789478
 21
-326.433977
 31
0.0
  0
ARC
  5
184
100
AcDbEntity
  8
1
100
AcDbCircle
 10
-371.789478
 20
-326.433977
 30
0.0
 40
1.0
100
AcDbArc
 50
360.0
 51
90.0
  0
ARC
  5
185
100
AcDbEntity
  8
1
100
AcDbCircle
 10
-371.789478
 20
-338.433977
 30
0.0
 40
1.0
100
AcDbArc
 50
270.0
 51
360.0
  0
LINE
  5
186
100
AcDbEntity
  8
1
100
AcDbLine
 10
-383.985631
 20
-335.433977
 30
0.0
 11
-376.985631
 21
-335.433977
 31
0.0
  0
ARC
  5
187
100
AcDbEntity
  8
1
100
AcDbCircle
 10
-383.985631
 20
-330.433977
 30
0.0
 40
5.0
100
AcDbArc
 50
90.0
 51
270.0
  0
ARC
  5
188
100
AcDbEntity
  8
1
100
AcDbCircle
 10
-376.985631
 20
-336.433977
 30
0.0
 40
1.0
100
AcDbArc
 50
360.0
 51
90.0
  0
LINE
  5
189
100
AcDbEntity
  8
1
  6
CENTER
 62
     2
100
AcDbLine
 10
-369.118996
 20
-330.433977
 30
0.0
 11
-380.113015
 21
-330.433977
 31
0.0
  0
LINE
  5
18A
100
AcDbEntity
  8
1
100
AcDbLine
 10
-370.985631
 20
-345.147284
 30
0.0
 11
-388.985631
 21
-345.147284
 31
0.0
  0
ARC
  5
18B
100
AcDbEntity
  8
1
100
AcDbCircle
 10
-374.885631
 20
-504.574165
 30
0.0
 40
158.177995
100
AcDbArc
 50
88.587185
 51
93.080383
  0
ARC
  5
18C
100
AcDbEntity
  8
1
100
AcDbCircle
 10
-374.985631
 20
-303.433977
 30
0.0
 40
44.0
100
AcDbArc
 50
251.446995
 51
258.994158
  0
LINE
  5
18D
100
AcDbEntity
  8
1
100
AcDbLine
 10
-370.985631
 20
-346.444255
 30
0.0
 11
-370.985631
 21
-341.933977
 31
0.0
  0
LINE
  5
18E
100
AcDbEntity
  8
1
100
AcDbLine
 10
-362.985631
 20
-341.933977
 30
0.0
 11
-370.985631
 21
-341.933977
 31
0.0
  0
ARC
  5
18F
100
AcDbEntity
  8
1
100
AcDbCircle
 10
-374.885631
 20
-196.973516
 30
0.0
 40
147.080653
100
AcDbArc
 50
273.117967
 51
273.290017
  0
LINE
  5
190
100
AcDbEntity
  8
1
100
AcDbLine
 10
-363.02415
 20
-342.858112
 30
0.0
 11
-363.02415
 21
-341.933977
 31
0.0
  0
LINE
  5
191
100
AcDbEntity
  8
1
100
AcDbLine
 10
-366.444659
 20
-343.811755
 30
0.0
 11
-366.444659
 21
-342.933977
 31
0.0
  0
ARC
  5
192
100
AcDbEntity
  8
1
100
AcDbCircle
 10
-375.869399
 20
-303.396111
 30
0.0
 40
41.5
100
AcDbArc
 50
283.126523
 51
288.030551
  0
LINE
  5
193
100
AcDbEntity
  8
1
100
AcDbLine
 10
-366.444659
 20
-342.933977
 30
0.0
 11
-366.885631
 21
-342.933977
 31
0.0
  0
LINE
  5
194
100
AcDbEntity
  8
1
100
AcDbLine
 10
-366.885631
 20
-341.933977
 30
0.0
 11
-366.885631
 21
-346.993591
 31
0.0
  0
LINE
  5
195
100
AcDbEntity
  8
1
100
AcDbLine
 10
-382.885631
 20
-346.598602
 30
0.0
 11
-382.885631
 21
-347.395778
 31
0.0
  0
LINE
  5
196
100
AcDbEntity
  8
1
100
AcDbLine
 10
-386.485631
 20
-282.433977
 30
0.0
 11
-386.485631
 21
-324.433977
 31
0.0
  0
LINE
  5
197
100
AcDbEntity
  8
1
100
AcDbLine
 10
-365.485631
 20
-282.433977
 30
0.0
 11
-365.485631
 21
-324.433977
 31
0.0
  0
LINE
  5
198
100
AcDbEntity
  8
1
100
AcDbLine
 10
-362.485631
 20
-281.756852
 30
0.0
 11
-362.485631
 21
-325.111101
 31
0.0
  0
LINE
  5
199
100
AcDbEntity
  8
1
100
AcDbLine
 10
-389.485631
 20
-281.433977
 30
0.0
 11
-389.485631
 21
-325.433977
 31
0.0
  0
ARC
  5
19A
100
AcDbEntity
  8
1
100
AcDbCircle
 10
-361.485631
 20
-281.756852
 30
0.0
 40
1.0
100
AcDbArc
 50
138.590378
 51
180.0
  0
ARC
  5
19B
100
AcDbEntity
  8
1
100
AcDbCircle
 10
-366.485631
 20
-282.433977
 30
0.0
 40
1.0
100
AcDbArc
 50
0.0
 51
90.0
  0
ARC
  5
19C
100
AcDbEntity
  8
1
100
AcDbCircle
 10
-385.485631
 20
-282.433977
 30
0.0
 40
1.0
100
AcDbArc
 50
90.0
 51
180.0
  0
ARC
  5
19D
100
AcDbEntity
  8
1
100
AcDbCircle
 10
-385.485631
 20
-324.433977
 30
0.0
 40
1.0
100
AcDbArc
 50
180.0
 51
270.0
  0
ARC
  5
19E
100
AcDbEntity
  8
1
100
AcDbCircle
 10
-366.485631
 20
-324.433977
 30
0.0
 40
1.0
100
AcDbArc
 50
270.0
 51
360.0
  0
ARC
  5
19F
100
AcDbEntity
  8
1
100
AcDbCircle
 10
-361.485631
 20
-325.111101
 30
0.0
 40
1.0
100
AcDbArc
 50
180.0
 51
221.409622
  0
ARC
  5
1A0
100
AcDbEntity
  8
1
100
AcDbCircle
 10
-388.485631
 20
-281.433977
 30
0.0
 40
1.0
100
AcDbArc
 50
138.590378
 51
180.0
  0
ARC
  5
1A1
100
AcDbEntity
  8
1
100
AcDbCircle
 10
-389.985631
 20
-280.111101
 30
0.0
 40
1.0
100
AcDbArc
 50
318.590378
 51
360.0
  0
ARC
  5
1A2
100
AcDbEntity
  8
1
100
AcDbCircle
 10
-388.485631
 20
-325.433977
 30
0.0
 40
1.0
100
AcDbArc
 50
180.0
 51
221.409622
  0
ARC
  5
1A3
100
AcDbEntity
  8
1
100
AcDbCircle
 10
-389.985631
 20
-326.756852
 30
0.0
 40
1.0
100
AcDbArc
 50
0.0
 51
41.409622
  0
LINE
  5
1A4
100
AcDbEntity
  8
1
100
AcDbLine
 10
-361.485631
 20
-281.433977
 30
0.0
 11
-350.529787
 21
-281.433977
 31
0.0
  0
LINE
  5
1A5
100
AcDbEntity
  8
1
100
AcDbLine
 10
-390.485631
 20
-281.433977
 30
0.0
 11
-401.441475
 21
-281.433977
 31
0.0
  0
LINE
  5
1A6
100
AcDbEntity
  8
1
100
AcDbLine
 10
-361.485631
 20
-325.433977
 30
0.0
 11
-350.529787
 21
-325.433977
 31
0.0
  0
LINE
  5
1A7
100
AcDbEntity
  8
1
100
AcDbLine
 10
-390.485631
 20
-325.433977
 30
0.0
 11
-401.441475
 21
-325.433977
 31
0.0
  0
ARC
  5
1A8
100
AcDbEntity
  8
1
100
AcDbCircle
 10
-375.985631
 20
-303.433977
 30
0.0
 40
34.0
100
AcDbArc
 50
320.478804
 51
355.655248
  0
ARC
  5
1A9
100
AcDbEntity
  8
1
100
AcDbCircle
 10
-375.985631
 20
-303.433977
 30
0.0
 40
34.0
100
AcDbArc
 50
4.344752
 51
39.521196
  0
ARC
  5
1AA
100
AcDbEntity
  8
1
100
AcDbCircle
 10
-375.985631
 20
-303.433977
 30
0.0
 40
34.0
100
AcDbArc
 50
140.478804
 51
175.655248
  0
ARC
  5
1AB
100
AcDbEntity
  8
1
100
AcDbCircle
 10
-375.985631
 20
-303.433977
 30
0.0
 40
34.0
100
AcDbArc
 50
184.344752
 51
219.521196
  0
LINE
  5
1AC
100
AcDbEntity
  8
1
100
AcDbLine
 10
-408.890798
 20
-301.933977
 30
0.0
 11
-390.485631
 21
-301.933977
 31
0.0
  0
LINE
  5
1AD
100
AcDbEntity
  8
1
100
AcDbLine
 10
-408.890798
 20
-304.933977
 30
0.0
 11
-390.485631
 21
-304.933977
 31
0.0
  0
LINE
  5
1AE
100
AcDbEntity
  8
1
100
AcDbLine
 10
-361.485631
 20
-304.933977
 30
0.0
 11
-343.080464
 21
-304.933977
 31
0.0
  0
LINE
  5
1AF
100
AcDbEntity
  8
1
100
AcDbLine
 10
-361.485631
 20
-301.933977
 30
0.0
 11
-343.080464
 21
-301.933977
 31
0.0
  0
ARC
  5
1B0
100
AcDbEntity
  8
1
100
AcDbCircle
 10
-350.529787
 20
-282.433977
 30
0.0
 40
1.0
100
AcDbArc
 50
39.521196
 51
90.0
  0
ARC
  5
1B1
100
AcDbEntity
  8
1
100
AcDbCircle
 10
-343.080464
 20
-300.933977
 30
0.0
 40
1.0
100
AcDbArc
 50
270.0
 51
4.344752
  0
ARC
  5
1B2
100
AcDbEntity
  8
1
100
AcDbCircle
 10
-343.080464
 20
-305.933977
 30
0.0
 40
1.0
100
AcDbArc
 50
355.655248
 51
90.0
  0
ARC
  5
1B3
100
AcDbEntity
  8
1
100
AcDbCircle
 10
-350.529787
 20
-324.433977
 30
0.0
 40
1.0
100
AcDbArc
 50
270.0
 51
320.478804
  0
ARC
  5
1B4
100
AcDbEntity
  8
1
100
AcDbCircle
 10
-401.441475
 20
-324.433977
 30
0.0
 40
1.0
100
AcDbArc
 50
219.521196
 51
270.0
  0
ARC
  5
1B5
100
AcDbEntity
  8
1
100
AcDbCircle
 10
-408.890798
 20
-305.933977
 30
0.0
 40
1.0
100
AcDbArc
 50
90.0
 51
184.344752
  0
ARC
  5
1B6
100
AcDbEntity
  8
1
100
AcDbCircle
 10
-408.890798
 20
-300.933977
 30
0.0
 40
1.0
100
AcDbArc
 50
175.655248
 51
270.0
  0
ARC
  5
1B7
100
AcDbEntity
  8
1
100
AcDbCircle
 10
-401.441475
 20
-282.433977
 30
0.0
 40
1.0
100
AcDbArc
 50
90.0
 51
140.478804
  0
ARC
  5
1B8
100
AcDbEntity
  8
1
100
AcDbCircle
 10
-390.485631
 20
-282.433977
 30
0.0
 40
1.0
100
AcDbArc
 50
0.0
 51
90.0
  0
ARC
  5
1B9
100
AcDbEntity
  8
1
100
AcDbCircle
 10
-361.485631
 20
-282.433977
 30
0.0
 40
1.0
100
AcDbArc
 50
90.0
 51
180.0
  0
ARC
  5
1BA
100
AcDbEntity
  8
1
100
AcDbCircle
 10
-361.485631
 20
-324.433977
 30
0.0
 40
1.0
100
AcDbArc
 50
180.0
 51
270.0
  0
ARC
  5
1BB
100
AcDbEntity
  8
1
100
AcDbCircle
 10
-390.485631
 20
-324.433977
 30
0.0
 40
1.0
100
AcDbArc
 50
270.0
 51
360.0
  0
ARC
  5
1BC
100
AcDbEntity
  8
1
100
AcDbCircle
 10
-390.485631
 20
-305.933977
 30
0.0
 40
1.0
100
AcDbArc
 50
0.0
 51
90.0
  0
ARC
  5
1BD
100
AcDbEntity
  8
1
100
AcDbCircle
 10
-390.485631
 20
-300.933977
 30
0.0
 40
1.0
100
AcDbArc
 50
270.0
 51
360.0
  0
ARC
  5
1BE
100
AcDbEntity
  8
1
100
AcDbCircle
 10
-385.485631
 20
-300.933977
 30
0.0
 40
1.0
100
AcDbArc
 50
180.0
 51
270.0
  0
ARC
  5
1BF
100
AcDbEntity
  8
1
100
AcDbCircle
 10
-385.485631
 20
-305.933977
 30
0.0
 40
1.0
100
AcDbArc
 50
90.0
 51
180.0
  0
ARC
  5
1C0
100
AcDbEntity
  8
1
100
AcDbCircle
 10
-366.485631
 20
-305.933977
 30
0.0
 40
1.0
100
AcDbArc
 50
360.0
 51
90.0
  0
ARC
  5
1C1
100
AcDbEntity
  8
1
100
AcDbCircle
 10
-366.485631
 20
-300.933977
 30
0.0
 40
1.0
100
AcDbArc
 50
270.0
 51
0.0
  0
ARC
  5
1C2
100
AcDbEntity
  8
1
100
AcDbCircle
 10
-361.485631
 20
-300.933977
 30
0.0
 40
1.0
100
AcDbArc
 50
180.0
 51
270.0
  0
ARC
  5
1C3
100
AcDbEntity
  8
1
100
AcDbCircle
 10
-361.485631
 20
-305.933977
 30
0.0
 40
1.0
100
AcDbArc
 50
90.0
 51
180.0
  0
ARC
  5
1C4
100
AcDbEntity
  8
1
100
AcDbCircle
 10
-375.985631
 20
-303.433977
 30
0.0
 40
36.5
100
AcDbArc
 50
110.864824
 51
249.135176
  0
ARC
  5
1C5
100
AcDbEntity
  8
1
100
AcDbCircle
 10
-375.985631
 20
-303.433977
 30
0.0
 40
36.5
100
AcDbArc
 50
292.554474
 51
67.445526
  0
ARC
  5
1C6
100
AcDbEntity
  8
1
100
AcDbCircle
 10
-375.985631
 20
-303.433977
 30
0.0
 40
37.58834
100
AcDbArc
 50
110.23381
 51
249.766191
  0
ARC
  5
1C7
100
AcDbEntity
  8
1
100
AcDbCircle
 10
-375.985631
 20
-303.433977
 30
0.0
 40
37.58834
100
AcDbArc
 50
291.867161
 51
68.132839
  0
ARC
  5
1C8
100
AcDbEntity
  8
1
100
AcDbCircle
 10
-375.985631
 20
-303.433977
 30
0.0
 40
38.567614
100
AcDbArc
 50
109.698485
 51
250.301515
  0
ARC
  5
1C9
100
AcDbEntity
  8
1
100
AcDbCircle
 10
-375.985631
 20
-303.433977
 30
0.0
 40
38.567614
100
AcDbArc
 50
289.877216
 51
70.122784
  0
LINE
  5
1CA
100
AcDbEntity
  8
1
100
AcDbLine
 10
-366.885631
 20
-325.433977
 30
0.0
 11
-366.885631
 21
-281.433977
 31
0.0
  0
LINE
  5
1CB
100
AcDbEntity
  8
1
100
AcDbLine
 10
-382.885631
 20
-325.433977
 30
0.0
 11
-382.885631
 21
-281.433977
 31
0.0
  0
LINE
  5
1CC
100
AcDbEntity
  8
1
100
AcDbLine
 10
-385.485631
 20
-301.933977
 30
0.0
 11
-382.885631
 21
-301.933977
 31
0.0
  0
LINE
  5
1CD
100
AcDbEntity
  8
1
100
AcDbLine
 10
-366.885631
 20
-301.933977
 30
0.0
 11
-366.485631
 21
-301.933977
 31
0.0
  0
LINE
  5
1CE
100
AcDbEntity
  8
1
100
AcDbLine
 10
-385.485631
 20
-304.933977
 30
0.0
 11
-382.885631
 21
-304.933977
 31
0.0
  0
LINE
  5
1CF
100
AcDbEntity
  8
1
100
AcDbLine
 10
-366.885631
 20
-304.933977
 30
0.0
 11
-366.485631
 21
-304.933977
 31
0.0
  0
LINE
  5
1D0
100
AcDbEntity
  8
1
  6
CENTER
 62
     2
100
AcDbLine
 10
-382.885631
 20
-281.433977
 30
0.0
 11
-382.885631
 21
-271.433977
 31
0.0
  0
CIRCLE
  5
1D1
100
AcDbEntity
  8
1
100
AcDbCircle
 10
-382.885631
 20
-276.433977
 30
0.0
 40
3.012
  0
CIRCLE
  5
1D2
100
AcDbEntity
  8
1
100
AcDbCircle
 10
-382.885631
 20
-276.433977
 30
0.0
 40
2.15
  0
CIRCLE
  5
1D3
100
AcDbEntity
  8
1
 62
     2
100
AcDbCircle
 10
-382.885631
 20
-276.433977
 30
0.0
 40
2.0
  0
CIRCLE
  5
1D4
100
AcDbEntity
  8
1
100
AcDbCircle
 10
-382.885631
 20
-276.433977
 30
0.0
 40
1.621
  0
CIRCLE
  5
1D5
100
AcDbEntity
  8
1
100
AcDbCircle
 10
-374.885631
 20
-330.433977
 30
0.0
 40
3.012
  0
CIRCLE
  5
1D6
100
AcDbEntity
  8
1
100
AcDbCircle
 10
-374.885631
 20
-330.433977
 30
0.0
 40
2.15
  0
CIRCLE
  5
1D7
100
AcDbEntity
  8
1
 62
     2
100
AcDbCircle
 10
-374.885631
 20
-330.433977
 30
0.0
 40
2.0
  0
CIRCLE
  5
1D8
100
AcDbEntity
  8
1
100
AcDbCircle
 10
-374.885631
 20
-330.433977
 30
0.0
 40
1.621
  0
LINE
  5
1D9
100
AcDbEntity
  8
1
100
AcDbLine
 10
-389.885631
 20
-143.033977
 30
0.0
 11
-359.885631
 21
-143.033977
 31
0.0
  0
LINE
  5
1DA
100
AcDbEntity
  8
1
100
AcDbLine
 10
-389.885631
 20
-147.433977
 30
0.0
 11
-389.885631
 21
-143.033977
 31
0.0
  0
LINE
  5
1DB
100
AcDbEntity
  8
1
100
AcDbLine
 10
-359.885631
 20
-147.433977
 30
0.0
 11
-359.885631
 21
-143.033977
 31
0.0
  0
LINE
  5
1DC
100
AcDbEntity
  8
1
100
AcDbLine
 10
-380.635631
 20
-143.033977
 30
0.0
 11
-380.635631
 21
-138.524724
 31
0.0
  0
LINE
  5
1DD
100
AcDbEntity
  8
1
100
AcDbLine
 10
-380.635631
 20
-138.524724
 30
0.0
 11
-379.785631
 21
-138.033977
 31
0.0
  0
LINE
  5
1DE
100
AcDbEntity
  8
1
100
AcDbLine
 10
-377.760631
 20
-143.033977
 30
0.0
 11
-377.760631
 21
-138.524724
 31
0.0
  0
ARC
  5
1DF
100
AcDbEntity
  8
1
100
AcDbCircle
 10
-379.198131
 20
-140.372679
 30
0.0
 40
2.341227
100
AcDbArc
 50
52.121121
 51
127.878879
  0
LINE
  5
1E0
100
AcDbEntity
  8
1
100
AcDbLine
 10
-369.135631
 20
-143.033977
 30
0.0
 11
-369.135631
 21
-138.524724
 31
0.0
  0
LINE
  5
1E1
100
AcDbEntity
  8
1
100
AcDbLine
 10
-369.135631
 20
-138.524724
 30
0.0
 11
-369.985631
 21
-138.033977
 31
0.0
  0
LINE
  5
1E2
100
AcDbEntity
  8
1
100
AcDbLine
 10
-369.985631
 20
-138.033977
 30
0.0
 11
-379.785631
 21
-138.033977
 31
0.0
  0
LINE
  5
1E3
100
AcDbEntity
  8
1
100
AcDbLine
 10
-372.010631
 20
-143.033977
 30
0.0
 11
-372.010631
 21
-138.524724
 31
0.0
  0
ARC
  5
1E4
100
AcDbEntity
  8
1
100
AcDbCircle
 10
-370.573131
 20
-140.372679
 30
0.0
 40
2.341227
100
AcDbArc
 50
52.121121
 51
127.878879
  0
ARC
  5
1E5
100
AcDbEntity
  8
1
100
AcDbCircle
 10
-374.885631
 20
-146.656452
 30
0.0
 40
8.625
100
AcDbArc
 50
70.528781
 51
109.471223
  0
LINE
  5
1E6
100
AcDbEntity
  8
1
100
AcDbLine
 10
-371.885631
 20
-135.433977
 30
0.0
 11
-377.885631
 21
-135.433977
 31
0.0
  0
ARC
  5
1E7
100
AcDbEntity
  8
1
100
AcDbCircle
 10
-374.885631
 20
-139.433977
 30
0.0
 40
5.0
100
AcDbArc
 50
53.130103
 51
126.8699
  0
LINE
  5
1E8
100
AcDbEntity
  8
1
100
AcDbLine
 10
-371.885631
 20
-138.033977
 30
0.0
 11
-371.885631
 21
-135.433977
 31
0.0
  0
LINE
  5
1E9
100
AcDbEntity
  8
1
 62
     2
100
AcDbLine
 10
-372.426631
 20
-138.033977
 30
0.0
 11
-372.426631
 21
-135.433977
 31
0.0
  0
LINE
  5
1EA
100
AcDbEntity
  8
1
 62
     2
100
AcDbLine
 10
-377.344631
 20
-138.033977
 30
0.0
 11
-377.344631
 21
-135.433977
 31
0.0
  0
LINE
  5
1EB
100
AcDbEntity
  8
1
100
AcDbLine
 10
-377.885631
 20
-138.033977
 30
0.0
 11
-377.885631
 21
-135.433977
 31
0.0
  0
LINE
  5
1EC
100
AcDbEntity
  8
1
100
AcDbLine
 10
-366.885631
 20
-143.033977
 30
0.0
 11
-366.885631
 21
-120.433977
 31
0.0
  0
LINE
  5
1ED
100
AcDbEntity
  8
1
100
AcDbLine
 10
-382.885631
 20
-143.033977
 30
0.0
 11
-382.885631
 21
-120.433977
 31
0.0
  0
POINT
  5
1EE
100
AcDbEntity
  8
2
100
AcDbPoint
 10
-374.885631
 20
351.766023
 30
0.0
  0
LINE
  5
1EF
100
AcDbEntity
  8
2
100
AcDbLine
 10
-443.885631
 20
404.766023
 30
0.0
 11
-295.885631
 21
404.766023
 31
0.0
  0
ARC
  5
1F0
100
AcDbEntity
  8
2
100
AcDbCircle
 10
-295.885631
 20
398.766023
 30
0.0
 40
6.0
100
AcDbArc
 50
0.0
 51
90.0
  0
ARC
  5
1F1
100
AcDbEntity
  8
2
100
AcDbCircle
 10
-443.885631
 20
398.766023
 30
0.0
 40
6.0
100
AcDbArc
 50
90.0
 51
180.0
  0
LINE
  5
1F2
100
AcDbEntity
  8
2
100
AcDbLine
 10
-289.885631
 20
398.766023
 30
0.0
 11
-289.885631
 21
310.766023
 31
0.0
  0
LINE
  5
1F3
100
AcDbEntity
  8
2
100
AcDbLine
 10
-449.885631
 20
310.766023
 30
0.0
 11
-449.885631
 21
398.766023
 31
0.0
  0
ARC
  5
1F4
100
AcDbEntity
  8
2
100
AcDbCircle
 10
-295.885631
 20
310.766023
 30
0.0
 40
6.0
100
AcDbArc
 50
270.0
 51
360.0
  0
ARC
  5
1F5
100
AcDbEntity
  8
2
100
AcDbCircle
 10
-443.885631
 20
310.766023
 30
0.0
 40
6.0
100
AcDbArc
 50
180.0
 51
270.0
  0
CIRCLE
  5
1F6
100
AcDbEntity
  8
2
100
AcDbCircle
 10
-374.885631
 20
351.766023
 30
0.0
 40
42.5
  0
LINE
  5
1F7
100
AcDbEntity
  8
2
100
AcDbLine
 10
-405.307827
 20
359.266023
 30
0.0
 11
-384.370584
 21
359.266023
 31
0.0
  0
LINE
  5
1F8
100
AcDbEntity
  8
2
100
AcDbLine
 10
-405.307827
 20
344.266023
 30
0.0
 11
-384.370584
 21
344.266023
 31
0.0
  0
LINE
  5
1F9
100
AcDbEntity
  8
2
100
AcDbLine
 10
-365.400678
 20
344.266023
 30
0.0
 11
-344.463435
 21
344.266023
 31
0.0
  0
LINE
  5
1FA
100
AcDbEntity
  8
2
100
AcDbLine
 10
-372.885631
 20
329.743548
 30
0.0
 11
-372.885631
 21
327.599932
 31
0.0
  0
LINE
  5
1FB
100
AcDbEntity
  8
2
100
AcDbLine
 10
-376.885631
 20
329.743548
 30
0.0
 11
-376.885631
 21
327.599932
 31
0.0
  0
LINE
  5
1FC
100
AcDbEntity
  8
2
100
AcDbLine
 10
-372.885631
 20
373.788499
 30
0.0
 11
-372.885631
 21
375.932115
 31
0.0
  0
LINE
  5
1FD
100
AcDbEntity
  8
2
100
AcDbLine
 10
-376.885631
 20
373.788499
 30
0.0
 11
-376.885631
 21
375.932115
 31
0.0
  0
LINE
  5
1FE
100
AcDbEntity
  8
2
100
AcDbLine
 10
-365.400678
 20
359.266023
 30
0.0
 11
-344.463435
 21
359.266023
 31
0.0
  0
LINE
  5
1FF
100
AcDbEntity
  8
2
100
AcDbLine
 10
-443.885631
 20
304.766023
 30
0.0
 11
-295.885631
 21
304.766023
 31
0.0
  0
LINE
  5
200
100
AcDbEntity
  8
2
100
AcDbLine
 10
-447.885631
 20
392.766023
 30
0.0
 11
-441.885631
 21
392.766023
 31
0.0
  0
LINE
  5
201
100
AcDbEntity
  8
2
100
AcDbLine
 10
-295.885631
 20
392.766023
 30
0.0
 11
-291.885631
 21
392.766023
 31
0.0
  0
LINE
  5
202
100
AcDbEntity
  8
2
100
AcDbLine
 10
-435.885631
 20
306.766023
 30
0.0
 11
-435.885631
 21
310.766023
 31
0.0
  0
LINE
  5
203
100
AcDbEntity
  8
2
100
AcDbLine
 10
-435.885631
 20
398.766023
 30
0.0
 11
-435.885631
 21
402.766023
 31
0.0
  0
LINE
  5
204
100
AcDbEntity
  8
2
100
AcDbLine
 10
-447.885631
 20
316.766023
 30
0.0
 11
-441.885631
 21
316.766023
 31
0.0
  0
LINE
  5
205
100
AcDbEntity
  8
2
100
AcDbLine
 10
-295.885631
 20
316.766023
 30
0.0
 11
-291.885631
 21
316.766023
 31
0.0
  0
LINE
  5
206
100
AcDbEntity
  8
2
100
AcDbLine
 10
-301.885631
 20
306.766023
 30
0.0
 11
-301.885631
 21
310.766023
 31
0.0
  0
LINE
  5
207
100
AcDbEntity
  8
2
100
AcDbLine
 10
-301.885631
 20
398.766023
 30
0.0
 11
-301.885631
 21
402.766023
 31
0.0
  0
ARC
  5
208
100
AcDbEntity
  8
2
100
AcDbCircle
 10
-295.885631
 20
398.766023
 30
0.0
 40
6.0
100
AcDbArc
 50
180.0
 51
270.0
  0
ARC
  5
209
100
AcDbEntity
  8
2
100
AcDbCircle
 10
-441.885631
 20
398.766023
 30
0.0
 40
6.0
100
AcDbArc
 50
270.0
 51
360.0
  0
ARC
  5
20A
100
AcDbEntity
  8
2
100
AcDbCircle
 10
-441.885631
 20
310.766023
 30
0.0
 40
6.0
100
AcDbArc
 50
0.0
 51
90.0
  0
ARC
  5
20B
100
AcDbEntity
  8
2
100
AcDbCircle
 10
-295.885631
 20
310.766023
 30
0.0
 40
6.0
100
AcDbArc
 50
90.0
 51
180.0
  0
CIRCLE
  5
20C
100
AcDbEntity
  8
2
100
AcDbCircle
 10
-374.885631
 20
351.766023
 30
0.0
 40
31.33305
  0
ARC
  5
20D
100
AcDbEntity
  8
2
100
AcDbCircle
 10
-412.31024
 20
352.092873
 30
0.0
 40
45.0
100
AcDbArc
 50
12.236103
 51
30.645688
  0
ARC
  5
20E
100
AcDbEntity
  8
2
100
AcDbCircle
 10
-337.461022
 20
352.092873
 30
0.0
 40
45.0
100
AcDbArc
 50
149.354312
 51
167.763897
  0
ARC
  5
20F
100
AcDbEntity
  8
2
100
AcDbCircle
 10
-374.885631
 20
374.266023
 30
0.0
 40
1.5
100
AcDbArc
 50
30.645688
 51
149.354312
  0
ARC
  5
210
100
AcDbEntity
  8
2
100
AcDbCircle
 10
-365.400678
 20
362.266023
 30
0.0
 40
3.0
100
AcDbArc
 50
192.236103
 51
270.0
  0
ARC
  5
211
100
AcDbEntity
  8
2
100
AcDbCircle
 10
-384.370584
 20
362.266023
 30
0.0
 40
3.0
100
AcDbArc
 50
270.0
 51
347.763897
  0
ARC
  5
212
100
AcDbEntity
  8
2
100
AcDbCircle
 10
-412.31024
 20
351.439174
 30
0.0
 40
45.0
100
AcDbArc
 50
329.354312
 51
347.763897
  0
ARC
  5
213
100
AcDbEntity
  8
2
100
AcDbCircle
 10
-337.461022
 20
351.439174
 30
0.0
 40
45.0
100
AcDbArc
 50
192.236103
 51
210.645688
  0
ARC
  5
214
100
AcDbEntity
  8
2
100
AcDbCircle
 10
-374.885631
 20
329.266023
 30
0.0
 40
1.5
100
AcDbArc
 50
210.645688
 51
329.354312
  0
ARC
  5
215
100
AcDbEntity
  8
2
100
AcDbCircle
 10
-365.400678
 20
341.266023
 30
0.0
 40
3.0
100
AcDbArc
 50
90.0
 51
167.763897
  0
ARC
  5
216
100
AcDbEntity
  8
2
100
AcDbCircle
 10
-384.370584
 20
341.266023
 30
0.0
 40
3.0
100
AcDbArc
 50
12.236103
 51
90.0
  0
ARC
  5
217
100
AcDbEntity
  8
2
100
AcDbCircle
 10
-374.885631
 20
351.766023
 30
0.0
 40
24.248711
100
AcDbArc
 50
18.016736
 51
161.983264
  0
ARC
  5
218
100
AcDbEntity
  8
2
100
AcDbCircle
 10
-374.885631
 20
351.766023
 30
0.0
 40
24.248711
100
AcDbArc
 50
198.016736
 51
341.983264
  0
ARC
  5
219
100
AcDbEntity
  8
2
100
AcDbCircle
 10
-291.885631
 20
390.766023
 30
0.0
 40
2.0
100
AcDbArc
 50
0.0
 51
90.0
  0
ARC
  5
21A
100
AcDbEntity
  8
2
100
AcDbCircle
 10
-303.885631
 20
402.766023
 30
0.0
 40
2.0
100
AcDbArc
 50
0.0
 51
90.0
  0
ARC
  5
21B
100
AcDbEntity
  8
2
100
AcDbCircle
 10
-291.885631
 20
318.766023
 30
0.0
 40
2.0
100
AcDbArc
 50
270.0
 51
360.0
  0
ARC
  5
21C
100
AcDbEntity
  8
2
100
AcDbCircle
 10
-303.885631
 20
306.766023
 30
0.0
 40
2.0
100
AcDbArc
 50
270.0
 51
360.0
  0
ARC
  5
21D
100
AcDbEntity
  8
2
100
AcDbCircle
 10
-433.885631
 20
306.766023
 30
0.0
 40
2.0
100
AcDbArc
 50
180.0
 51
270.0
  0
ARC
  5
21E
100
AcDbEntity
  8
2
100
AcDbCircle
 10
-447.885631
 20
318.766023
 30
0.0
 40
2.0
100
AcDbArc
 50
180.0
 51
270.0
  0
ARC
  5
21F
100
AcDbEntity
  8
2
100
AcDbCircle
 10
-433.885631
 20
402.766023
 30
0.0
 40
2.0
100
AcDbArc
 50
90.0
 51
180.0
  0
ARC
  5
220
100
AcDbEntity
  8
2
100
AcDbCircle
 10
-447.885631
 20
390.766023
 30
0.0
 40
2.0
100
AcDbArc
 50
90.0
 51
180.0
  0
LINE
  5
221
100
AcDbEntity
  8
2
 62
     2
100
AcDbLine
 10
-375.746489
 20
375.999449
 30
0.0
 11
-376.885631
 21
374.860307
 31
0.0
  0
LINE
  5
222
100
AcDbEntity
  8
2
 62
     2
100
AcDbLine
 10
-376.885631
 20
374.860307
 30
0.0
 11
-376.885631
 21
374.860307
 31
0.0
  0
LINE
  5
223
100
AcDbEntity
  8
2
 62
     2
100
AcDbLine
 10
-374.601497
 20
376.01307
 30
0.0
 11
-374.848991
 21
375.765576
 31
0.0
  0
LINE
  5
224
100
AcDbEntity
  8
2
 62
     2
100
AcDbLine
 10
-373.507646
 20
375.97555
 30
0.0
 11
-374.003776
 21
375.47942
 31
0.0
  0
LINE
  5
225
100
AcDbEntity
  8
2
 62
     2
100
AcDbLine
 10
-372.885631
 20
375.466194
 30
0.0
 11
-373.493542
 21
374.858283
 31
0.0
  0
LINE
  5
226
100
AcDbEntity
  8
2
 62
     2
100
AcDbLine
 10
-372.885631
 20
374.334824
 30
0.0
 11
-373.080878
 21
374.139576
 31
0.0
  0
LINE
  5
227
100
AcDbEntity
  8
2
 62
     2
100
AcDbLine
 10
-376.500106
 20
329.057265
 30
0.0
 11
-376.885631
 21
328.67174
 31
0.0
  0
LINE
  5
228
100
AcDbEntity
  8
2
 62
     2
100
AcDbLine
 10
-376.885631
 20
328.67174
 30
0.0
 11
-376.885631
 21
328.67174
 31
0.0
  0
LINE
  5
229
100
AcDbEntity
  8
2
 62
     2
100
AcDbLine
 10
-376.830563
 20
327.595437
 30
0.0
 11
-376.074556
 21
328.351444
 31
0.0
  0
LINE
  5
22A
100
AcDbEntity
  8
2
 62
     2
100
AcDbLine
 10
-375.761494
 20
327.533135
 30
0.0
 11
-375.427364
 21
327.867265
 31
0.0
  0
LINE
  5
22B
100
AcDbEntity
  8
2
 62
     2
100
AcDbLine
 10
-372.885631
 20
329.277627
 30
0.0
 11
-373.499286
 21
328.663973
 31
0.0
  0
LINE
  5
22C
100
AcDbEntity
  8
2
 62
     2
100
AcDbLine
 10
-374.260987
 20
327.902271
 30
0.0
 11
-374.64475
 21
327.518509
 31
0.0
  0
LINE
  5
22D
100
AcDbEntity
  8
2
 62
     2
100
AcDbLine
 10
-373.473418
 20
327.55847
 30
0.0
 11
-372.885631
 21
328.146257
 31
0.0
  0
LINE
  5
22E
100
AcDbEntity
  8
2
100
AcDbLine
 10
-383.701298
 20
329.176557
 30
0.0
 11
-381.702429
 21
334.002254
 31
0.0
  0
LINE
  5
22F
100
AcDbEntity
  8
2
100
AcDbLine
 10
-367.144953
 20
369.14711
 30
0.0
 11
-365.146084
 21
373.972807
 31
0.0
  0
LINE
  5
230
100
AcDbEntity
  8
2
100
AcDbLine
 10
-384.625178
 20
329.55924
 30
0.0
 11
-382.626309
 21
334.384937
 31
0.0
  0
LINE
  5
231
100
AcDbEntity
  8
2
100
AcDbLine
 10
-368.068833
 20
369.529793
 30
0.0
 11
-366.069964
 21
374.35549
 31
0.0
  0
LINE
  5
232
100
AcDbEntity
  8
2
100
AcDbLine
 10
-391.67486
 20
334.269687
 30
0.0
 11
-387.981432
 21
337.963116
 31
0.0
  0
LINE
  5
233
100
AcDbEntity
  8
2
100
AcDbLine
 10
-361.082723
 20
364.861824
 30
0.0
 11
-357.389295
 21
368.555253
 31
0.0
  0
LINE
  5
234
100
AcDbEntity
  8
2
100
AcDbLine
 10
-392.381967
 20
334.976794
 30
0.0
 11
-388.688539
 21
338.670223
 31
0.0
  0
LINE
  5
235
100
AcDbEntity
  8
2
100
AcDbLine
 10
-361.78983
 20
365.568931
 30
0.0
 11
-358.096402
 21
369.26236
 31
0.0
  0
LINE
  5
236
100
AcDbEntity
  8
2
100
AcDbLine
 10
-397.092414
 20
342.026477
 30
0.0
 11
-392.266717
 21
344.025346
 31
0.0
  0
LINE
  5
237
100
AcDbEntity
  8
2
100
AcDbLine
 10
-355.472466
 20
359.266023
 30
0.0
 11
-352.296164
 21
360.581691
 31
0.0
  0
LINE
  5
238
100
AcDbEntity
  8
2
100
AcDbLine
 10
-397.475098
 20
342.950356
 30
0.0
 11
-394.298796
 21
344.266023
 31
0.0
  0
LINE
  5
239
100
AcDbEntity
  8
2
100
AcDbLine
 10
-357.504544
 20
359.506701
 30
0.0
 11
-352.678848
 21
361.50557
 31
0.0
  0
ARC
  5
23A
100
AcDbEntity
  8
2
100
AcDbCircle
 10
-382.164369
 20
334.193595
 30
0.0
 40
0.5
100
AcDbArc
 50
337.5
 51
157.5
  0
ARC
  5
23B
100
AcDbEntity
  8
2
100
AcDbCircle
 10
-388.334985
 20
338.316669
 30
0.0
 40
0.5
100
AcDbArc
 50
315.0
 51
135.0
  0
ARC
  5
23C
100
AcDbEntity
  8
2
100
AcDbCircle
 10
-392.458059
 20
344.487285
 30
0.0
 40
0.5
100
AcDbArc
 50
292.5
 51
333.734975
  0
ARC
  5
23D
100
AcDbEntity
  8
2
100
AcDbCircle
 10
-367.606893
 20
369.338452
 30
0.0
 40
0.5
100
AcDbArc
 50
157.5
 51
337.5
  0
ARC
  5
23E
100
AcDbEntity
  8
2
100
AcDbCircle
 10
-361.436277
 20
365.215378
 30
0.0
 40
0.5
100
AcDbArc
 50
135.0
 51
315.0
  0
ARC
  5
23F
100
AcDbEntity
  8
2
100
AcDbCircle
 10
-357.313203
 20
359.044762
 30
0.0
 40
0.5
100
AcDbArc
 50
112.5
 51
153.734975
  0
LINE
  5
240
100
AcDbEntity
  8
2
 62
     2
100
AcDbLine
 10
-367.019017
 20
372.064273
 30
0.0
 11
-366.145519
 21
371.559958
 31
0.0
  0
LINE
  5
241
100
AcDbEntity
  8
2
 62
     2
100
AcDbLine
 10
-366.145519
 20
371.559958
 30
0.0
 11
-366.145519
 21
371.559958
 31
0.0
  0
LINE
  5
242
100
AcDbEntity
  8
2
 62
     2
100
AcDbLine
 10
-366.710228
 20
372.809754
 30
0.0
 11
-365.83673
 21
372.30544
 31
0.0
  0
LINE
  5
243
100
AcDbEntity
  8
2
 62
     2
100
AcDbLine
 10
-365.83673
 20
372.30544
 30
0.0
 11
-365.83673
 21
372.30544
 31
0.0
  0
LINE
  5
244
100
AcDbEntity
  8
2
 62
     2
100
AcDbLine
 10
-366.40144
 20
373.555236
 30
0.0
 11
-365.527942
 21
373.050921
 31
0.0
  0
LINE
  5
245
100
AcDbEntity
  8
2
 62
     2
100
AcDbLine
 10
-365.527942
 20
373.050921
 30
0.0
 11
-365.527942
 21
373.050921
 31
0.0
  0
LINE
  5
246
100
AcDbEntity
  8
2
 62
     2
100
AcDbLine
 10
-366.092651
 20
374.300717
 30
0.0
 11
-365.219153
 21
373.796402
 31
0.0
  0
LINE
  5
247
100
AcDbEntity
  8
2
 62
     2
100
AcDbLine
 10
-365.219153
 20
373.796402
 30
0.0
 11
-365.219153
 21
373.796402
 31
0.0
  0
LINE
  5
248
100
AcDbEntity
  8
2
 62
     2
100
AcDbLine
 10
-367.327805
 20
371.318792
 30
0.0
 11
-366.454307
 21
370.814477
 31
0.0
  0
LINE
  5
249
100
AcDbEntity
  8
2
 62
     2
100
AcDbLine
 10
-366.454307
 20
370.814477
 30
0.0
 11
-366.454307
 21
370.814477
 31
0.0
  0
LINE
  5
24A
100
AcDbEntity
  8
2
 62
     2
100
AcDbLine
 10
-367.636594
 20
370.57331
 30
0.0
 11
-366.763095
 21
370.068996
 31
0.0
  0
LINE
  5
24B
100
AcDbEntity
  8
2
 62
     2
100
AcDbLine
 10
-366.763095
 20
370.068996
 30
0.0
 11
-366.763095
 21
370.068996
 31
0.0
  0
LINE
  5
24C
100
AcDbEntity
  8
2
 62
     2
100
AcDbLine
 10
-367.945382
 20
369.827829
 30
0.0
 11
-367.071884
 21
369.323514
 31
0.0
  0
LINE
  5
24D
100
AcDbEntity
  8
2
 62
     2
100
AcDbLine
 10
-367.071884
 20
369.323514
 30
0.0
 11
-367.071884
 21
369.323514
 31
0.0
  0
LINE
  5
24E
100
AcDbEntity
  8
2
 62
     2
100
AcDbLine
 10
-360.132584
 20
367.226177
 30
0.0
 11
-359.236009
 21
366.708539
 31
0.0
  0
LINE
  5
24F
100
AcDbEntity
  8
2
 62
     2
100
AcDbLine
 10
-359.236009
 20
366.708539
 30
0.0
 11
-359.236009
 21
366.708539
 31
0.0
  0
LINE
  5
250
100
AcDbEntity
  8
2
 62
     2
100
AcDbLine
 10
-359.546944
 20
367.811817
 30
0.0
 11
-358.650368
 21
367.294179
 31
0.0
  0
LINE
  5
251
100
AcDbEntity
  8
2
 62
     2
100
AcDbLine
 10
-358.650368
 20
367.294179
 30
0.0
 11
-358.650368
 21
367.294179
 31
0.0
  0
LINE
  5
252
100
AcDbEntity
  8
2
 62
     2
100
AcDbLine
 10
-358.961303
 20
368.397458
 30
0.0
 11
-358.064728
 21
367.87982
 31
0.0
  0
LINE
  5
253
100
AcDbEntity
  8
2
 62
     2
100
AcDbLine
 10
-358.064728
 20
367.87982
 30
0.0
 11
-358.064728
 21
367.87982
 31
0.0
  0
LINE
  5
254
100
AcDbEntity
  8
2
 62
     2
100
AcDbLine
 10
-358.375663
 20
368.983099
 30
0.0
 11
-357.479087
 21
368.465461
 31
0.0
  0
LINE
  5
255
100
AcDbEntity
  8
2
 62
     2
100
AcDbLine
 10
-357.479087
 20
368.465461
 30
0.0
 11
-357.479087
 21
368.465461
 31
0.0
  0
LINE
  5
256
100
AcDbEntity
  8
2
 62
     2
100
AcDbLine
 10
-360.718225
 20
366.640536
 30
0.0
 11
-359.82165
 21
366.122898
 31
0.0
  0
LINE
  5
257
100
AcDbEntity
  8
2
 62
     2
100
AcDbLine
 10
-359.82165
 20
366.122898
 30
0.0
 11
-359.82165
 21
366.122898
 31
0.0
  0
LINE
  5
258
100
AcDbEntity
  8
2
 62
     2
100
AcDbLine
 10
-361.303866
 20
366.054895
 30
0.0
 11
-360.40729
 21
365.537257
 31
0.0
  0
LINE
  5
259
100
AcDbEntity
  8
2
 62
     2
100
AcDbLine
 10
-360.40729
 20
365.537257
 30
0.0
 11
-360.40729
 21
365.537257
 31
0.0
  0
LINE
  5
25A
100
AcDbEntity
  8
2
 62
     2
100
AcDbLine
 10
-361.872625
 20
365.459508
 30
0.0
 11
-360.992931
 21
364.951617
 31
0.0
  0
LINE
  5
25B
100
AcDbEntity
  8
2
 62
     2
100
AcDbLine
 10
-360.992931
 20
364.951617
 30
0.0
 11
-360.992931
 21
364.951617
 31
0.0
  0
LINE
  5
25C
100
AcDbEntity
  8
2
 62
     2
100
AcDbLine
 10
-354.975916
 20
360.554093
 30
0.0
 11
-353.884315
 21
359.923857
 31
0.0
  0
LINE
  5
25D
100
AcDbEntity
  8
2
 62
     2
100
AcDbLine
 10
-353.884315
 20
359.923857
 30
0.0
 11
-353.884315
 21
359.923857
 31
0.0
  0
LINE
  5
25E
100
AcDbEntity
  8
2
 62
     2
100
AcDbLine
 10
-354.044297
 20
360.939983
 30
0.0
 11
-352.952695
 21
360.309747
 31
0.0
  0
LINE
  5
25F
100
AcDbEntity
  8
2
 62
     2
100
AcDbLine
 10
-352.952695
 20
360.309747
 30
0.0
 11
-352.952695
 21
360.309747
 31
0.0
  0
LINE
  5
260
100
AcDbEntity
  8
2
 62
     2
100
AcDbLine
 10
-352.437737
 20
360.936196
 30
0.0
 11
-353.112677
 21
361.325872
 31
0.0
  0
LINE
  5
261
100
AcDbEntity
  8
2
 62
     2
100
AcDbLine
 10
-355.907536
 20
360.168204
 30
0.0
 11
-354.815935
 21
359.537968
 31
0.0
  0
LINE
  5
262
100
AcDbEntity
  8
2
 62
     2
100
AcDbLine
 10
-354.815935
 20
359.537968
 30
0.0
 11
-354.815935
 21
359.537968
 31
0.0
  0
LINE
  5
263
100
AcDbEntity
  8
2
 62
     2
100
AcDbLine
 10
-356.839156
 20
359.782314
 30
0.0
 11
-355.944914
 21
359.266023
 31
0.0
  0
LINE
  5
264
100
AcDbEntity
  8
2
 62
     2
100
AcDbLine
 10
-357.703334
 20
359.357488
 30
0.0
 11
-357.544914
 21
359.266023
 31
0.0
  0
LINE
  5
265
100
AcDbEntity
  8
2
100
AcDbLine
 10
-358.084266
 20
342.912329
 30
0.0
 11
-356.062221
 21
342.074771
 31
0.0
  0
ARC
  5
266
100
AcDbEntity
  8
2
100
AcDbCircle
 10
-357.414516
 20
344.529251
 30
0.0
 40
1.750143
100
AcDbArc
 50
188.650293
 51
247.5
  0
ARC
  5
267
100
AcDbEntity
  8
2
100
AcDbCircle
 10
-355.39247
 20
343.691692
 30
0.0
 40
1.750143
100
AcDbArc
 50
247.5
 51
19.157293
  0
LINE
  5
268
100
AcDbEntity
  8
2
100
AcDbLine
 10
-357.932307
 20
343.206902
 30
0.0
 11
-355.895952
 21
342.404761
 31
0.0
  0
ARC
  5
269
100
AcDbEntity
  8
2
100
AcDbCircle
 10
-357.290877
 20
344.835266
 30
0.0
 40
1.750143
100
AcDbArc
 50
198.98101
 51
248.5
  0
ARC
  5
26A
100
AcDbEntity
  8
2
100
AcDbCircle
 10
-355.254523
 20
344.033124
 30
0.0
 40
1.750143
100
AcDbArc
 50
248.5
 51
7.647286
  0
LINE
  5
26B
100
AcDbEntity
  8
2
100
AcDbLine
 10
-358.241344
 20
342.620454
 30
0.0
 11
-356.234224
 21
341.747733
 31
0.0
  0
ARC
  5
26C
100
AcDbEntity
  8
2
100
AcDbCircle
 10
-357.543476
 20
344.22544
 30
0.0
 40
1.750143
100
AcDbArc
 50
178.671261
 51
246.5
  0
ARC
  5
26D
100
AcDbEntity
  8
2
100
AcDbCircle
 10
-355.536356
 20
343.352719
 30
0.0
 40
1.750143
100
AcDbArc
 50
246.5
 51
31.45613
  0
LINE
  5
26E
100
AcDbEntity
  8
2
100
AcDbLine
 10
-391.686995
 20
360.619718
 30
0.0
 11
-393.709041
 21
361.457276
 31
0.0
  0
ARC
  5
26F
100
AcDbEntity
  8
2
100
AcDbCircle
 10
-392.356746
 20
359.002796
 30
0.0
 40
1.750143
100
AcDbArc
 50
8.650293
 51
67.5
  0
ARC
  5
270
100
AcDbEntity
  8
2
100
AcDbCircle
 10
-394.378792
 20
359.840355
 30
0.0
 40
1.750143
100
AcDbArc
 50
67.5
 51
199.157293
  0
LINE
  5
271
100
AcDbEntity
  8
2
100
AcDbLine
 10
-391.838955
 20
360.325145
 30
0.0
 11
-393.87531
 21
361.127286
 31
0.0
  0
ARC
  5
272
100
AcDbEntity
  8
2
100
AcDbCircle
 10
-392.480384
 20
358.696781
 30
0.0
 40
1.750143
100
AcDbArc
 50
18.98101
 51
68.5
  0
ARC
  5
273
100
AcDbEntity
  8
2
100
AcDbCircle
 10
-394.516739
 20
359.498923
 30
0.0
 40
1.750143
100
AcDbArc
 50
68.5
 51
187.647286
  0
LINE
  5
274
100
AcDbEntity
  8
2
100
AcDbLine
 10
-391.529918
 20
360.911593
 30
0.0
 11
-393.537038
 21
361.784314
 31
0.0
  0
ARC
  5
275
100
AcDbEntity
  8
2
100
AcDbCircle
 10
-392.227786
 20
359.306607
 30
0.0
 40
1.750143
100
AcDbArc
 50
358.671261
 51
66.5
  0
ARC
  5
276
100
AcDbEntity
  8
2
100
AcDbCircle
 10
-394.234906
 20
360.179328
 30
0.0
 40
1.750143
100
AcDbArc
 50
66.5
 51
211.45613
  0
LINE
  5
277
100
AcDbEntity
  8
2
 62
     2
100
AcDbLine
 10
-383.575362
 20
332.09372
 30
0.0
 11
-382.701864
 21
331.589405
 31
0.0
  0
LINE
  5
278
100
AcDbEntity
  8
2
 62
     2
100
AcDbLine
 10
-382.701864
 20
331.589405
 30
0.0
 11
-382.701864
 21
331.589405
 31
0.0
  0
LINE
  5
279
100
AcDbEntity
  8
2
 62
     2
100
AcDbLine
 10
-383.266574
 20
332.839201
 30
0.0
 11
-382.393075
 21
332.334887
 31
0.0
  0
LINE
  5
27A
100
AcDbEntity
  8
2
 62
     2
100
AcDbLine
 10
-382.393075
 20
332.334887
 30
0.0
 11
-382.393075
 21
332.334887
 31
0.0
  0
LINE
  5
27B
100
AcDbEntity
  8
2
 62
     2
100
AcDbLine
 10
-382.957785
 20
333.584682
 30
0.0
 11
-382.084287
 21
333.080368
 31
0.0
  0
LINE
  5
27C
100
AcDbEntity
  8
2
 62
     2
100
AcDbLine
 10
-382.084287
 20
333.080368
 30
0.0
 11
-382.084287
 21
333.080368
 31
0.0
  0
LINE
  5
27D
100
AcDbEntity
  8
2
 62
     2
100
AcDbLine
 10
-382.648997
 20
334.330164
 30
0.0
 11
-381.775498
 21
333.825849
 31
0.0
  0
LINE
  5
27E
100
AcDbEntity
  8
2
 62
     2
100
AcDbLine
 10
-381.775498
 20
333.825849
 30
0.0
 11
-381.775498
 21
333.825849
 31
0.0
  0
LINE
  5
27F
100
AcDbEntity
  8
2
 62
     2
100
AcDbLine
 10
-383.884151
 20
331.348238
 30
0.0
 11
-383.010652
 21
330.843924
 31
0.0
  0
LINE
  5
280
100
AcDbEntity
  8
2
 62
     2
100
AcDbLine
 10
-383.010652
 20
330.843924
 30
0.0
 11
-383.010652
 21
330.843924
 31
0.0
  0
LINE
  5
281
100
AcDbEntity
  8
2
 62
     2
100
AcDbLine
 10
-384.192939
 20
330.602757
 30
0.0
 11
-383.319441
 21
330.098443
 31
0.0
  0
LINE
  5
282
100
AcDbEntity
  8
2
 62
     2
100
AcDbLine
 10
-383.319441
 20
330.098443
 30
0.0
 11
-383.319441
 21
330.098443
 31
0.0
  0
LINE
  5
283
100
AcDbEntity
  8
2
 62
     2
100
AcDbLine
 10
-384.501727
 20
329.857276
 30
0.0
 11
-383.628229
 21
329.352961
 31
0.0
  0
LINE
  5
284
100
AcDbEntity
  8
2
 62
     2
100
AcDbLine
 10
-383.628229
 20
329.352961
 30
0.0
 11
-383.628229
 21
329.352961
 31
0.0
  0
LINE
  5
285
100
AcDbEntity
  8
2
 62
     2
100
AcDbLine
 10
-390.724721
 20
336.63404
 30
0.0
 11
-389.828146
 21
336.116402
 31
0.0
  0
LINE
  5
286
100
AcDbEntity
  8
2
 62
     2
100
AcDbLine
 10
-389.828146
 20
336.116402
 30
0.0
 11
-389.828146
 21
336.116402
 31
0.0
  0
LINE
  5
287
100
AcDbEntity
  8
2
 62
     2
100
AcDbLine
 10
-390.139081
 20
337.21968
 30
0.0
 11
-389.242505
 21
336.702042
 31
0.0
  0
LINE
  5
288
100
AcDbEntity
  8
2
 62
     2
100
AcDbLine
 10
-389.242505
 20
336.702042
 30
0.0
 11
-389.242505
 21
336.702042
 31
0.0
  0
LINE
  5
289
100
AcDbEntity
  8
2
 62
     2
100
AcDbLine
 10
-389.55344
 20
337.805321
 30
0.0
 11
-388.656865
 21
337.287683
 31
0.0
  0
LINE
  5
28A
100
AcDbEntity
  8
2
 62
     2
100
AcDbLine
 10
-388.656865
 20
337.287683
 30
0.0
 11
-388.656865
 21
337.287683
 31
0.0
  0
LINE
  5
28B
100
AcDbEntity
  8
2
 62
     2
100
AcDbLine
 10
-388.9678
 20
338.390962
 30
0.0
 11
-388.071224
 21
337.873324
 31
0.0
  0
LINE
  5
28C
100
AcDbEntity
  8
2
 62
     2
100
AcDbLine
 10
-388.071224
 20
337.873324
 30
0.0
 11
-388.071224
 21
337.873324
 31
0.0
  0
LINE
  5
28D
100
AcDbEntity
  8
2
 62
     2
100
AcDbLine
 10
-391.310362
 20
336.048399
 30
0.0
 11
-390.413787
 21
335.530761
 31
0.0
  0
LINE
  5
28E
100
AcDbEntity
  8
2
 62
     2
100
AcDbLine
 10
-390.413787
 20
335.530761
 30
0.0
 11
-390.413787
 21
335.530761
 31
0.0
  0
LINE
  5
28F
100
AcDbEntity
  8
2
 62
     2
100
AcDbLine
 10
-391.896003
 20
335.462758
 30
0.0
 11
-390.999427
 21
334.94512
 31
0.0
  0
LINE
  5
290
100
AcDbEntity
  8
2
 62
     2
100
AcDbLine
 10
-390.999427
 20
334.94512
 30
0.0
 11
-390.999427
 21
334.94512
 31
0.0
  0
LINE
  5
291
100
AcDbEntity
  8
2
 62
     2
100
AcDbLine
 10
-392.027217
 20
334.614755
 30
0.0
 11
-391.585068
 21
334.35948
 31
0.0
  0
LINE
  5
292
100
AcDbEntity
  8
2
 62
     2
100
AcDbLine
 10
-391.585068
 20
334.35948
 30
0.0
 11
-391.585068
 21
334.35948
 31
0.0
  0
LINE
  5
293
100
AcDbEntity
  8
2
 62
     2
100
AcDbLine
 10
-395.771167
 20
343.656147
 30
0.0
 11
-394.679566
 21
343.025911
 31
0.0
  0
LINE
  5
294
100
AcDbEntity
  8
2
 62
     2
100
AcDbLine
 10
-394.679566
 20
343.025911
 30
0.0
 11
-394.679566
 21
343.025911
 31
0.0
  0
LINE
  5
295
100
AcDbEntity
  8
2
 62
     2
100
AcDbLine
 10
-394.839547
 20
344.042037
 30
0.0
 11
-393.747946
 21
343.411801
 31
0.0
  0
LINE
  5
296
100
AcDbEntity
  8
2
 62
     2
100
AcDbLine
 10
-393.747946
 20
343.411801
 30
0.0
 11
-393.747946
 21
343.411801
 31
0.0
  0
LINE
  5
297
100
AcDbEntity
  8
2
 62
     2
100
AcDbLine
 10
-393.627503
 20
344.266023
 30
0.0
 11
-392.816326
 21
343.79769
 31
0.0
  0
LINE
  5
298
100
AcDbEntity
  8
2
 62
     2
100
AcDbLine
 10
-392.816326
 20
343.79769
 30
0.0
 11
-392.816326
 21
343.79769
 31
0.0
  0
LINE
  5
299
100
AcDbEntity
  8
2
 62
     2
100
AcDbLine
 10
-392.027503
 20
344.266023
 30
0.0
 11
-392.013702
 21
344.258055
 31
0.0
  0
LINE
  5
29A
100
AcDbEntity
  8
2
 62
     2
100
AcDbLine
 10
-396.702787
 20
343.270258
 30
0.0
 11
-395.611186
 21
342.640022
 31
0.0
  0
LINE
  5
29B
100
AcDbEntity
  8
2
 62
     2
100
AcDbLine
 10
-395.611186
 20
342.640022
 30
0.0
 11
-395.611186
 21
342.640022
 31
0.0
  0
LINE
  5
29C
100
AcDbEntity
  8
2
 62
     2
100
AcDbLine
 10
-397.394137
 20
342.745649
 30
0.0
 11
-396.542805
 21
342.254132
 31
0.0
  0
LINE
  5
29D
100
AcDbEntity
  8
2
 62
     2
100
AcDbLine
 10
-396.542805
 20
342.254132
 30
0.0
 11
-396.542805
 21
342.254132
 31
0.0
  0
LINE
  5
29E
100
AcDbEntity
  8
2
  6
CENTER
 62
     2
100
AcDbLine
 10
-449.359284
 20
398.766023
 30
0.0
 11
-432.709736
 21
398.766023
 31
0.0
  0
LINE
  5
29F
100
AcDbEntity
  8
2
  6
CENTER
 62
     2
100
AcDbLine
 10
-304.991562
 20
398.766023
 30
0.0
 11
-286.556206
 21
398.766023
 31
0.0
  0
LINE
  5
2A0
100
AcDbEntity
  8
2
  6
CENTER
 62
     2
100
AcDbLine
 10
-441.885631
 20
303.671919
 30
0.0
 11
-441.885631
 21
318.68907
 31
0.0
  0
LINE
  5
2A1
100
AcDbEntity
  8
2
  6
CENTER
 62
     2
100
AcDbLine
 10
-441.885631
 20
391.326445
 30
0.0
 11
-441.885631
 21
406.670042
 31
0.0
  0
LINE
  5
2A2
100
AcDbEntity
  8
2
  6
CENTER
 62
     2
100
AcDbLine
 10
-448.543107
 20
310.766023
 30
0.0
 11
-434.668499
 21
310.766023
 31
0.0
  0
LINE
  5
2A3
100
AcDbEntity
  8
2
  6
CENTER
 62
     2
100
AcDbLine
 10
-305.234108
 20
310.766023
 30
0.0
 11
-287.041359
 21
310.766023
 31
0.0
  0
LINE
  5
2A4
100
AcDbEntity
  8
2
  6
CENTER
 62
     2
100
AcDbLine
 10
-295.885631
 20
301.997862
 30
0.0
 11
-295.885631
 21
319.462919
 31
0.0
  0
LINE
  5
2A5
100
AcDbEntity
  8
2
  6
CENTER
 62
     2
100
AcDbLine
 10
-295.885631
 20
389.565336
 30
0.0
 11
-295.885631
 21
406.787779
 31
0.0
  0
ARC
  5
2A6
100
AcDbEntity
  8
2
  6
CENTER
 62
     2
100
AcDbCircle
 10
-374.885631
 20
351.766023
 30
0.0
 40
37.5
100
AcDbArc
 50
126.361503
 51
143.885033
  0
ARC
  5
2A7
100
AcDbEntity
  8
2
  6
CENTER
 62
     2
100
AcDbCircle
 10
-374.885631
 20
351.766023
 30
0.0
 40
37.5
100
AcDbArc
 50
216.93331
 51
233.416879
  0
ARC
  5
2A8
100
AcDbEntity
  8
2
  6
CENTER
 62
     2
100
AcDbCircle
 10
-374.885631
 20
351.766023
 30
0.0
 40
37.5
100
AcDbArc
 50
306.278748
 51
323.822644
  0
ARC
  5
2A9
100
AcDbEntity
  8
2
  6
CENTER
 62
     2
100
AcDbCircle
 10
-374.885631
 20
351.766023
 30
0.0
 40
37.5
100
AcDbArc
 50
36.280641
 51
53.737219
  0
LINE
  5
2AA
100
AcDbEntity
  8
2
  6
CENTER
 62
     2
100
AcDbLine
 10
-405.724917
 20
320.926737
 30
0.0
 11
-397.674317
 21
328.977337
 31
0.0
  0
LINE
  5
2AB
100
AcDbEntity
  8
2
  6
CENTER
 62
     2
100
AcDbLine
 10
-352.494777
 20
374.156877
 30
0.0
 11
-343.948404
 21
382.70325
 31
0.0
  0
LINE
  5
2AC
100
AcDbEntity
  8
2
  6
CENTER
 62
     2
100
AcDbLine
 10
-405.77925
 20
382.659643
 30
0.0
 11
-397.428258
 21
374.308651
 31
0.0
  0
LINE
  5
2AD
100
AcDbEntity
  8
2
  6
CENTER
 62
     2
100
AcDbLine
 10
-352.313547
 20
329.19394
 30
0.0
 11
-344.182484
 21
321.062876
 31
0.0
  0
CIRCLE
  5
2AE
100
AcDbEntity
  8
2
100
AcDbCircle
 10
-295.885631
 20
310.766023
 30
0.0
 40
4.5
  0
LINE
  5
2AF
100
AcDbEntity
  8
2
100
AcDbLine
 10
-293.435631
 20
311.266023
 30
0.0
 11
-293.435631
 21
310.266023
 31
0.0
  0
LINE
  5
2B0
100
AcDbEntity
  8
2
100
AcDbLine
 10
-298.335631
 20
311.266023
 30
0.0
 11
-298.335631
 21
310.266023
 31
0.0
  0
LINE
  5
2B1
100
AcDbEntity
  8
2
100
AcDbLine
 10
-296.385631
 20
313.216023
 30
0.0
 11
-295.385631
 21
313.216023
 31
0.0
  0
LINE
  5
2B2
100
AcDbEntity
  8
2
100
AcDbLine
 10
-296.385631
 20
308.316023
 30
0.0
 11
-295.385631
 21
308.316023
 31
0.0
  0
LINE
  5
2B3
100
AcDbEntity
  8
2
100
AcDbLine
 10
-298.335631
 20
311.266023
 30
0.0
 11
-297.185631
 21
311.266023
 31
0.0
  0
LINE
  5
2B4
100
AcDbEntity
  8
2
100
AcDbLine
 10
-294.585631
 20
311.266023
 30
0.0
 11
-293.435631
 21
311.266023
 31
0.0
  0
LINE
  5
2B5
100
AcDbEntity
  8
2
100
AcDbLine
 10
-298.335631
 20
310.266023
 30
0.0
 11
-297.185631
 21
310.266023
 31
0.0
  0
LINE
  5
2B6
100
AcDbEntity
  8
2
100
AcDbLine
 10
-294.585631
 20
310.266023
 30
0.0
 11
-293.435631
 21
310.266023
 31
0.0
  0
LINE
  5
2B7
100
AcDbEntity
  8
2
100
AcDbLine
 10
-295.385631
 20
308.316023
 30
0.0
 11
-295.385631
 21
309.466023
 31
0.0
  0
LINE
  5
2B8
100
AcDbEntity
  8
2
100
AcDbLine
 10
-295.385631
 20
312.066023
 30
0.0
 11
-295.385631
 21
313.216023
 31
0.0
  0
LINE
  5
2B9
100
AcDbEntity
  8
2
100
AcDbLine
 10
-296.385631
 20
308.316023
 30
0.0
 11
-296.385631
 21
309.466023
 31
0.0
  0
LINE
  5
2BA
100
AcDbEntity
  8
2
100
AcDbLine
 10
-296.385631
 20
312.066023
 30
0.0
 11
-296.385631
 21
313.216023
 31
0.0
  0
ARC
  5
2BB
100
AcDbEntity
  8
2
100
AcDbCircle
 10
-297.185631
 20
312.066023
 30
0.0
 40
0.8
100
AcDbArc
 50
270.0
 51
360.0
  0
ARC
  5
2BC
100
AcDbEntity
  8
2
100
AcDbCircle
 10
-294.585631
 20
312.066023
 30
0.0
 40
0.8
100
AcDbArc
 50
180.0
 51
270.0
  0
ARC
  5
2BD
100
AcDbEntity
  8
2
100
AcDbCircle
 10
-294.585631
 20
309.466023
 30
0.0
 40
0.8
100
AcDbArc
 50
90.0
 51
180.0
  0
ARC
  5
2BE
100
AcDbEntity
  8
2
100
AcDbCircle
 10
-297.185631
 20
309.466023
 30
0.0
 40
0.8
100
AcDbArc
 50
0.0
 51
90.0
  0
CIRCLE
  5
2BF
100
AcDbEntity
  8
2
100
AcDbCircle
 10
-295.885631
 20
398.766023
 30
0.0
 40
4.5
  0
LINE
  5
2C0
100
AcDbEntity
  8
2
100
AcDbLine
 10
-293.435631
 20
399.266023
 30
0.0
 11
-293.435631
 21
398.266023
 31
0.0
  0
LINE
  5
2C1
100
AcDbEntity
  8
2
100
AcDbLine
 10
-298.335631
 20
399.266023
 30
0.0
 11
-298.335631
 21
398.266023
 31
0.0
  0
LINE
  5
2C2
100
AcDbEntity
  8
2
100
AcDbLine
 10
-296.385631
 20
401.216023
 30
0.0
 11
-295.385631
 21
401.216023
 31
0.0
  0
LINE
  5
2C3
100
AcDbEntity
  8
2
100
AcDbLine
 10
-296.385631
 20
396.316023
 30
0.0
 11
-295.385631
 21
396.316023
 31
0.0
  0
LINE
  5
2C4
100
AcDbEntity
  8
2
100
AcDbLine
 10
-298.335631
 20
399.266023
 30
0.0
 11
-297.185631
 21
399.266023
 31
0.0
  0
LINE
  5
2C5
100
AcDbEntity
  8
2
100
AcDbLine
 10
-294.585631
 20
399.266023
 30
0.0
 11
-293.435631
 21
399.266023
 31
0.0
  0
LINE
  5
2C6
100
AcDbEntity
  8
2
100
AcDbLine
 10
-298.335631
 20
398.266023
 30
0.0
 11
-297.185631
 21
398.266023
 31
0.0
  0
LINE
  5
2C7
100
AcDbEntity
  8
2
100
AcDbLine
 10
-294.585631
 20
398.266023
 30
0.0
 11
-293.435631
 21
398.266023
 31
0.0
  0
LINE
  5
2C8
100
AcDbEntity
  8
2
100
AcDbLine
 10
-295.385631
 20
396.316023
 30
0.0
 11
-295.385631
 21
397.466023
 31
0.0
  0
LINE
  5
2C9
100
AcDbEntity
  8
2
100
AcDbLine
 10
-295.385631
 20
400.066023
 30
0.0
 11
-295.385631
 21
401.216023
 31
0.0
  0
LINE
  5
2CA
100
AcDbEntity
  8
2
100
AcDbLine
 10
-296.385631
 20
396.316023
 30
0.0
 11
-296.385631
 21
397.466023
 31
0.0
  0
LINE
  5
2CB
100
AcDbEntity
  8
2
100
AcDbLine
 10
-296.385631
 20
400.066023
 30
0.0
 11
-296.385631
 21
401.216023
 31
0.0
  0
ARC
  5
2CC
100
AcDbEntity
  8
2
100
AcDbCircle
 10
-297.185631
 20
400.066023
 30
0.0
 40
0.8
100
AcDbArc
 50
270.0
 51
360.0
  0
ARC
  5
2CD
100
AcDbEntity
  8
2
100
AcDbCircle
 10
-294.585631
 20
400.066023
 30
0.0
 40
0.8
100
AcDbArc
 50
180.0
 51
270.0
  0
ARC
  5
2CE
100
AcDbEntity
  8
2
100
AcDbCircle
 10
-294.585631
 20
397.466023
 30
0.0
 40
0.8
100
AcDbArc
 50
90.0
 51
180.0
  0
ARC
  5
2CF
100
AcDbEntity
  8
2
100
AcDbCircle
 10
-297.185631
 20
397.466023
 30
0.0
 40
0.8
100
AcDbArc
 50
0.0
 51
90.0
  0
CIRCLE
  5
2D0
100
AcDbEntity
  8
2
100
AcDbCircle
 10
-441.885631
 20
310.766023
 30
0.0
 40
4.5
  0
LINE
  5
2D1
100
AcDbEntity
  8
2
100
AcDbLine
 10
-439.435631
 20
311.266023
 30
0.0
 11
-439.435631
 21
310.266023
 31
0.0
  0
LINE
  5
2D2
100
AcDbEntity
  8
2
100
AcDbLine
 10
-444.335631
 20
311.266023
 30
0.0
 11
-444.335631
 21
310.266023
 31
0.0
  0
LINE
  5
2D3
100
AcDbEntity
  8
2
100
AcDbLine
 10
-442.385631
 20
313.216023
 30
0.0
 11
-441.385631
 21
313.216023
 31
0.0
  0
LINE
  5
2D4
100
AcDbEntity
  8
2
100
AcDbLine
 10
-442.385631
 20
308.316023
 30
0.0
 11
-441.385631
 21
308.316023
 31
0.0
  0
LINE
  5
2D5
100
AcDbEntity
  8
2
100
AcDbLine
 10
-444.335631
 20
311.266023
 30
0.0
 11
-443.185631
 21
311.266023
 31
0.0
  0
LINE
  5
2D6
100
AcDbEntity
  8
2
100
AcDbLine
 10
-440.585631
 20
311.266023
 30
0.0
 11
-439.435631
 21
311.266023
 31
0.0
  0
LINE
  5
2D7
100
AcDbEntity
  8
2
100
AcDbLine
 10
-444.335631
 20
310.266023
 30
0.0
 11
-443.185631
 21
310.266023
 31
0.0
  0
LINE
  5
2D8
100
AcDbEntity
  8
2
100
AcDbLine
 10
-440.585631
 20
310.266023
 30
0.0
 11
-439.435631
 21
310.266023
 31
0.0
  0
LINE
  5
2D9
100
AcDbEntity
  8
2
100
AcDbLine
 10
-441.385631
 20
308.316023
 30
0.0
 11
-441.385631
 21
309.466023
 31
0.0
  0
LINE
  5
2DA
100
AcDbEntity
  8
2
100
AcDbLine
 10
-441.385631
 20
312.066023
 30
0.0
 11
-441.385631
 21
313.216023
 31
0.0
  0
LINE
  5
2DB
100
AcDbEntity
  8
2
100
AcDbLine
 10
-442.385631
 20
308.316023
 30
0.0
 11
-442.385631
 21
309.466023
 31
0.0
  0
LINE
  5
2DC
100
AcDbEntity
  8
2
100
AcDbLine
 10
-442.385631
 20
312.066023
 30
0.0
 11
-442.385631
 21
313.216023
 31
0.0
  0
ARC
  5
2DD
100
AcDbEntity
  8
2
100
AcDbCircle
 10
-443.185631
 20
312.066023
 30
0.0
 40
0.8
100
AcDbArc
 50
270.0
 51
360.0
  0
ARC
  5
2DE
100
AcDbEntity
  8
2
100
AcDbCircle
 10
-440.585631
 20
312.066023
 30
0.0
 40
0.8
100
AcDbArc
 50
180.0
 51
270.0
  0
ARC
  5
2DF
100
AcDbEntity
  8
2
100
AcDbCircle
 10
-440.585631
 20
309.466023
 30
0.0
 40
0.8
100
AcDbArc
 50
90.0
 51
180.0
  0
ARC
  5
2E0
100
AcDbEntity
  8
2
100
AcDbCircle
 10
-443.185631
 20
309.466023
 30
0.0
 40
0.8
100
AcDbArc
 50
0.0
 51
90.0
  0
CIRCLE
  5
2E1
100
AcDbEntity
  8
2
100
AcDbCircle
 10
-441.885631
 20
398.766023
 30
0.0
 40
4.5
  0
LINE
  5
2E2
100
AcDbEntity
  8
2
100
AcDbLine
 10
-439.435631
 20
399.266023
 30
0.0
 11
-439.435631
 21
398.266023
 31
0.0
  0
LINE
  5
2E3
100
AcDbEntity
  8
2
100
AcDbLine
 10
-444.335631
 20
399.266023
 30
0.0
 11
-444.335631
 21
398.266023
 31
0.0
  0
LINE
  5
2E4
100
AcDbEntity
  8
2
100
AcDbLine
 10
-442.385631
 20
401.216023
 30
0.0
 11
-441.385631
 21
401.216023
 31
0.0
  0
LINE
  5
2E5
100
AcDbEntity
  8
2
100
AcDbLine
 10
-442.385631
 20
396.316023
 30
0.0
 11
-441.385631
 21
396.316023
 31
0.0
  0
LINE
  5
2E6
100
AcDbEntity
  8
2
100
AcDbLine
 10
-444.335631
 20
399.266023
 30
0.0
 11
-443.185631
 21
399.266023
 31
0.0
  0
LINE
  5
2E7
100
AcDbEntity
  8
2
100
AcDbLine
 10
-440.585631
 20
399.266023
 30
0.0
 11
-439.435631
 21
399.266023
 31
0.0
  0
LINE
  5
2E8
100
AcDbEntity
  8
2
100
AcDbLine
 10
-444.335631
 20
398.266023
 30
0.0
 11
-443.185631
 21
398.266023
 31
0.0
  0
LINE
  5
2E9
100
AcDbEntity
  8
2
100
AcDbLine
 10
-440.585631
 20
398.266023
 30
0.0
 11
-439.435631
 21
398.266023
 31
0.0
  0
LINE
  5
2EA
100
AcDbEntity
  8
2
100
AcDbLine
 10
-441.385631
 20
396.316023
 30
0.0
 11
-441.385631
 21
397.466023
 31
0.0
  0
LINE
  5
2EB
100
AcDbEntity
  8
2
100
AcDbLine
 10
-441.385631
 20
400.066023
 30
0.0
 11
-441.385631
 21
401.216023
 31
0.0
  0
LINE
  5
2EC
100
AcDbEntity
  8
2
100
AcDbLine
 10
-442.385631
 20
396.316023
 30
0.0
 11
-442.385631
 21
397.466023
 31
0.0
  0
LINE
  5
2ED
100
AcDbEntity
  8
2
100
AcDbLine
 10
-442.385631
 20
400.066023
 30
0.0
 11
-442.385631
 21
401.216023
 31
0.0
  0
ARC
  5
2EE
100
AcDbEntity
  8
2
100
AcDbCircle
 10
-443.185631
 20
400.066023
 30
0.0
 40
0.8
100
AcDbArc
 50
270.0
 51
360.0
  0
ARC
  5
2EF
100
AcDbEntity
  8
2
100
AcDbCircle
 10
-440.585631
 20
400.066023
 30
0.0
 40
0.8
100
AcDbArc
 50
180.0
 51
270.0
  0
ARC
  5
2F0
100
AcDbEntity
  8
2
100
AcDbCircle
 10
-440.585631
 20
397.466023
 30
0.0
 40
0.8
100
AcDbArc
 50
90.0
 51
180.0
  0
ARC
  5
2F1
100
AcDbEntity
  8
2
100
AcDbCircle
 10
-443.185631
 20
397.466023
 30
0.0
 40
0.8
100
AcDbArc
 50
0.0
 51
90.0
  0
CIRCLE
  5
2F2
100
AcDbEntity
  8
2
100
AcDbCircle
 10
-348.369127
 20
325.249519
 30
0.0
 40
3.5
  0
LINE
  5
2F3
100
AcDbEntity
  8
2
100
AcDbLine
 10
-347.237756
 20
327.087997
 30
0.0
 11
-346.530649
 21
326.38089
 31
0.0
  0
LINE
  5
2F4
100
AcDbEntity
  8
2
100
AcDbLine
 10
-350.207604
 20
324.118148
 30
0.0
 11
-349.500497
 21
323.411042
 31
0.0
  0
LINE
  5
2F5
100
AcDbEntity
  8
2
100
AcDbLine
 10
-349.500497
 20
327.087997
 30
0.0
 11
-350.207604
 21
326.38089
 31
0.0
  0
LINE
  5
2F6
100
AcDbEntity
  8
2
100
AcDbLine
 10
-346.530649
 20
324.118148
 30
0.0
 11
-347.237756
 21
323.411042
 31
0.0
  0
LINE
  5
2F7
100
AcDbEntity
  8
2
100
AcDbLine
 10
-349.500497
 20
323.411042
 30
0.0
 11
-348.934812
 21
323.976727
 31
0.0
  0
LINE
  5
2F8
100
AcDbEntity
  8
2
100
AcDbLine
 10
-347.096334
 20
325.815205
 30
0.0
 11
-346.530649
 21
326.38089
 31
0.0
  0
LINE
  5
2F9
100
AcDbEntity
  8
2
100
AcDbLine
 10
-350.207604
 20
324.118148
 30
0.0
 11
-349.641919
 21
324.683834
 31
0.0
  0
LINE
  5
2FA
100
AcDbEntity
  8
2
100
AcDbLine
 10
-347.803441
 20
326.522311
 30
0.0
 11
-347.237756
 21
327.087997
 31
0.0
  0
LINE
  5
2FB
100
AcDbEntity
  8
2
100
AcDbLine
 10
-350.207604
 20
326.38089
 30
0.0
 11
-349.641919
 21
325.815205
 31
0.0
  0
LINE
  5
2FC
100
AcDbEntity
  8
2
100
AcDbLine
 10
-347.803441
 20
323.976727
 30
0.0
 11
-347.237756
 21
323.411042
 31
0.0
  0
LINE
  5
2FD
100
AcDbEntity
  8
2
100
AcDbLine
 10
-349.500497
 20
327.087997
 30
0.0
 11
-348.934812
 21
326.522311
 31
0.0
  0
LINE
  5
2FE
100
AcDbEntity
  8
2
100
AcDbLine
 10
-347.096334
 20
324.683834
 30
0.0
 11
-346.530649
 21
324.118148
 31
0.0
  0
ARC
  5
2FF
100
AcDbEntity
  8
2
100
AcDbCircle
 10
-348.369127
 20
327.087997
 30
0.0
 40
0.8
100
AcDbArc
 50
225.0
 51
315.0
  0
ARC
  5
300
100
AcDbEntity
  8
2
100
AcDbCircle
 10
-350.207604
 20
325.249519
 30
0.0
 40
0.8
100
AcDbArc
 50
315.0
 51
45.0
  0
ARC
  5
301
100
AcDbEntity
  8
2
100
AcDbCircle
 10
-348.369127
 20
323.411042
 30
0.0
 40
0.8
100
AcDbArc
 50
45.0
 51
135.0
  0
ARC
  5
302
100
AcDbEntity
  8
2
100
AcDbCircle
 10
-346.530649
 20
325.249519
 30
0.0
 40
0.8
100
AcDbArc
 50
135.0
 51
225.0
  0
CIRCLE
  5
303
100
AcDbEntity
  8
2
100
AcDbCircle
 10
-348.369127
 20
378.282528
 30
0.0
 40
3.5
  0
LINE
  5
304
100
AcDbEntity
  8
2
100
AcDbLine
 10
-347.237756
 20
380.121005
 30
0.0
 11
-346.530649
 21
379.413899
 31
0.0
  0
LINE
  5
305
100
AcDbEntity
  8
2
100
AcDbLine
 10
-350.207604
 20
377.151157
 30
0.0
 11
-349.500497
 21
376.44405
 31
0.0
  0
LINE
  5
306
100
AcDbEntity
  8
2
100
AcDbLine
 10
-349.500497
 20
380.121005
 30
0.0
 11
-350.207604
 21
379.413899
 31
0.0
  0
LINE
  5
307
100
AcDbEntity
  8
2
100
AcDbLine
 10
-346.530649
 20
377.151157
 30
0.0
 11
-347.237756
 21
376.44405
 31
0.0
  0
LINE
  5
308
100
AcDbEntity
  8
2
100
AcDbLine
 10
-349.500497
 20
376.44405
 30
0.0
 11
-348.934812
 21
377.009736
 31
0.0
  0
LINE
  5
309
100
AcDbEntity
  8
2
100
AcDbLine
 10
-347.096334
 20
378.848213
 30
0.0
 11
-346.530649
 21
379.413899
 31
0.0
  0
LINE
  5
30A
100
AcDbEntity
  8
2
100
AcDbLine
 10
-350.207604
 20
377.151157
 30
0.0
 11
-349.641919
 21
377.716842
 31
0.0
  0
LINE
  5
30B
100
AcDbEntity
  8
2
100
AcDbLine
 10
-347.803441
 20
379.55532
 30
0.0
 11
-347.237756
 21
380.121005
 31
0.0
  0
LINE
  5
30C
100
AcDbEntity
  8
2
100
AcDbLine
 10
-350.207604
 20
379.413899
 30
0.0
 11
-349.641919
 21
378.848213
 31
0.0
  0
LINE
  5
30D
100
AcDbEntity
  8
2
100
AcDbLine
 10
-347.803441
 20
377.009736
 30
0.0
 11
-347.237756
 21
376.44405
 31
0.0
  0
LINE
  5
30E
100
AcDbEntity
  8
2
100
AcDbLine
 10
-349.500497
 20
380.121005
 30
0.0
 11
-348.934812
 21
379.55532
 31
0.0
  0
LINE
  5
30F
100
AcDbEntity
  8
2
100
AcDbLine
 10
-347.096334
 20
377.716842
 30
0.0
 11
-346.530649
 21
377.151157
 31
0.0
  0
ARC
  5
310
100
AcDbEntity
  8
2
100
AcDbCircle
 10
-348.369127
 20
380.121005
 30
0.0
 40
0.8
100
AcDbArc
 50
225.0
 51
315.0
  0
ARC
  5
311
100
AcDbEntity
  8
2
100
AcDbCircle
 10
-350.207604
 20
378.282528
 30
0.0
 40
0.8
100
AcDbArc
 50
315.0
 51
45.0
  0
ARC
  5
312
100
AcDbEntity
  8
2
100
AcDbCircle
 10
-348.369127
 20
376.44405
 30
0.0
 40
0.8
100
AcDbArc
 50
45.0
 51
135.0
  0
ARC
  5
313
100
AcDbEntity
  8
2
100
AcDbCircle
 10
-346.530649
 20
378.282528
 30
0.0
 40
0.8
100
AcDbArc
 50
135.0
 51
225.0
  0
CIRCLE
  5
314
100
AcDbEntity
  8
2
100
AcDbCircle
 10
-401.402135
 20
325.249519
 30
0.0
 40
3.5
  0
LINE
  5
315
100
AcDbEntity
  8
2
100
AcDbLine
 10
-400.270764
 20
327.087997
 30
0.0
 11
-399.563658
 21
326.38089
 31
0.0
  0
LINE
  5
316
100
AcDbEntity
  8
2
100
AcDbLine
 10
-403.240613
 20
324.118148
 30
0.0
 11
-402.533506
 21
323.411042
 31
0.0
  0
LINE
  5
317
100
AcDbEntity
  8
2
100
AcDbLine
 10
-402.533506
 20
327.087997
 30
0.0
 11
-403.240613
 21
326.38089
 31
0.0
  0
LINE
  5
318
100
AcDbEntity
  8
2
100
AcDbLine
 10
-399.563658
 20
324.118148
 30
0.0
 11
-400.270764
 21
323.411042
 31
0.0
  0
LINE
  5
319
100
AcDbEntity
  8
2
100
AcDbLine
 10
-402.533506
 20
323.411042
 30
0.0
 11
-401.967821
 21
323.976727
 31
0.0
  0
LINE
  5
31A
100
AcDbEntity
  8
2
100
AcDbLine
 10
-400.129343
 20
325.815205
 30
0.0
 11
-399.563658
 21
326.38089
 31
0.0
  0
LINE
  5
31B
100
AcDbEntity
  8
2
100
AcDbLine
 10
-403.240613
 20
324.118148
 30
0.0
 11
-402.674927
 21
324.683834
 31
0.0
  0
LINE
  5
31C
100
AcDbEntity
  8
2
100
AcDbLine
 10
-400.83645
 20
326.522311
 30
0.0
 11
-400.270764
 21
327.087997
 31
0.0
  0
LINE
  5
31D
100
AcDbEntity
  8
2
100
AcDbLine
 10
-403.240613
 20
326.38089
 30
0.0
 11
-402.674927
 21
325.815205
 31
0.0
  0
LINE
  5
31E
100
AcDbEntity
  8
2
100
AcDbLine
 10
-400.83645
 20
323.976727
 30
0.0
 11
-400.270764
 21
323.411042
 31
0.0
  0
LINE
  5
31F
100
AcDbEntity
  8
2
100
AcDbLine
 10
-402.533506
 20
327.087997
 30
0.0
 11
-401.967821
 21
326.522311
 31
0.0
  0
LINE
  5
320
100
AcDbEntity
  8
2
100
AcDbLine
 10
-400.129343
 20
324.683834
 30
0.0
 11
-399.563658
 21
324.118148
 31
0.0
  0
ARC
  5
321
100
AcDbEntity
  8
2
100
AcDbCircle
 10
-401.402135
 20
327.087997
 30
0.0
 40
0.8
100
AcDbArc
 50
225.0
 51
315.0
  0
ARC
  5
322
100
AcDbEntity
  8
2
100
AcDbCircle
 10
-403.240613
 20
325.249519
 30
0.0
 40
0.8
100
AcDbArc
 50
315.0
 51
45.0
  0
ARC
  5
323
100
AcDbEntity
  8
2
100
AcDbCircle
 10
-401.402135
 20
323.411042
 30
0.0
 40
0.8
100
AcDbArc
 50
45.0
 51
135.0
  0
ARC
  5
324
100
AcDbEntity
  8
2
100
AcDbCircle
 10
-399.563658
 20
325.249519
 30
0.0
 40
0.8
100
AcDbArc
 50
135.0
 51
225.0
  0
CIRCLE
  5
325
100
AcDbEntity
  8
2
100
AcDbCircle
 10
-401.402135
 20
378.282528
 30
0.0
 40
3.5
  0
LINE
  5
326
100
AcDbEntity
  8
2
100
AcDbLine
 10
-400.270764
 20
380.121005
 30
0.0
 11
-399.563658
 21
379.413899
 31
0.0
  0
LINE
  5
327
100
AcDbEntity
  8
2
100
AcDbLine
 10
-403.240613
 20
377.151157
 30
0.0
 11
-402.533506
 21
376.44405
 31
0.0
  0
LINE
  5
328
100
AcDbEntity
  8
2
100
AcDbLine
 10
-402.533506
 20
380.121005
 30
0.0
 11
-403.240613
 21
379.413899
 31
0.0
  0
LINE
  5
329
100
AcDbEntity
  8
2
100
AcDbLine
 10
-399.563658
 20
377.151157
 30
0.0
 11
-400.270764
 21
376.44405
 31
0.0
  0
LINE
  5
32A
100
AcDbEntity
  8
2
100
AcDbLine
 10
-402.533506
 20
376.44405
 30
0.0
 11
-401.967821
 21
377.009736
 31
0.0
  0
LINE
  5
32B
100
AcDbEntity
  8
2
100
AcDbLine
 10
-400.129343
 20
378.848213
 30
0.0
 11
-399.563658
 21
379.413899
 31
0.0
  0
LINE
  5
32C
100
AcDbEntity
  8
2
100
AcDbLine
 10
-403.240613
 20
377.151157
 30
0.0
 11
-402.674927
 21
377.716842
 31
0.0
  0
LINE
  5
32D
100
AcDbEntity
  8
2
100
AcDbLine
 10
-400.83645
 20
379.55532
 30
0.0
 11
-400.270764
 21
380.121005
 31
0.0
  0
LINE
  5
32E
100
AcDbEntity
  8
2
100
AcDbLine
 10
-403.240613
 20
379.413899
 30
0.0
 11
-402.674927
 21
378.848213
 31
0.0
  0
LINE
  5
32F
100
AcDbEntity
  8
2
100
AcDbLine
 10
-400.83645
 20
377.009736
 30
0.0
 11
-400.270764
 21
376.44405
 31
0.0
  0
LINE
  5
330
100
AcDbEntity
  8
2
100
AcDbLine
 10
-402.533506
 20
380.121005
 30
0.0
 11
-401.967821
 21
379.55532
 31
0.0
  0
LINE
  5
331
100
AcDbEntity
  8
2
100
AcDbLine
 10
-400.129343
 20
377.716842
 30
0.0
 11
-399.563658
 21
377.151157
 31
0.0
  0
ARC
  5
332
100
AcDbEntity
  8
2
100
AcDbCircle
 10
-401.402135
 20
380.121005
 30
0.0
 40
0.8
100
AcDbArc
 50
225.0
 51
315.0
  0
ARC
  5
333
100
AcDbEntity
  8
2
100
AcDbCircle
 10
-403.240613
 20
378.282528
 30
0.0
 40
0.8
100
AcDbArc
 50
315.0
 51
45.0
  0
ARC
  5
334
100
AcDbEntity
  8
2
100
AcDbCircle
 10
-401.402135
 20
376.44405
 30
0.0
 40
0.8
100
AcDbArc
 50
45.0
 51
135.0
  0
ARC
  5
335
100
AcDbEntity
  8
2
100
AcDbCircle
 10
-399.563658
 20
378.282528
 30
0.0
 40
0.8
100
AcDbArc
 50
135.0
 51
225.0
  0
LINE
  5
336
100
AcDbEntity
  8
2
100
AcDbLine
 10
-293.385177
 20
318.766023
 30
0.0
 11
-293.385177
 21
390.766023
 31
0.0
  0
LINE
  5
337
100
AcDbEntity
  8
2
100
AcDbLine
 10
-433.885631
 20
308.266023
 30
0.0
 11
-303.885631
 21
308.266023
 31
0.0
  0
LINE
  5
338
100
AcDbEntity
  8
2
100
AcDbLine
 10
-433.885631
 20
401.266023
 30
0.0
 11
-303.885631
 21
401.266023
 31
0.0
  0
TEXT
  5
339
100
AcDbEntity
  8
2
100
AcDbText
 10
-369.466145
 20
328.75235
 30
0.0
 40
7.6
  1
Ｓ
 50
22.5
 72
     5
 11
-363.848958
 21
331.079065
 31
0.0
100
AcDbText
  0
TEXT
  5
33A
100
AcDbEntity
  8
2
100
AcDbText
 10
-369.065327
 20
328.850438
 30
0.0
 40
7.6
  1
Ｓ
 50
23.5
 72
     5
 11
-363.489602
 21
331.274832
 31
0.0
100
AcDbText
  0
TEXT
  5
33B
100
AcDbEntity
  8
2
100
AcDbText
 10
-369.868615
 20
328.661272
 30
0.0
 40
7.6
  1
Ｓ
 50
21.5
 72
     5
 11
-364.211676
 21
330.889599
 31
0.0
100
AcDbText
  0
TEXT
  5
33C
100
AcDbEntity
  8
2
100
AcDbText
 10
-380.305116
 20
374.779697
 30
0.0
 40
7.6
  1
Ｓ
 50
202.5
 72
     5
 11
-385.922304
 21
372.452982
 31
0.0
100
AcDbText
  0
TEXT
  5
33D
100
AcDbEntity
  8
2
100
AcDbText
 10
-380.705935
 20
374.681609
 30
0.0
 40
7.6
  1
Ｓ
 50
203.5
 72
     5
 11
-386.28166
 21
372.257215
 31
0.0
100
AcDbText
  0
TEXT
  5
33E
100
AcDbEntity
  8
2
100
AcDbText
 10
-379.902647
 20
374.870775
 30
0.0
 40
7.6
  1
Ｓ
 50
201.5
 72
     5
 11
-385.559586
 21
372.642448
 31
0.0
100
AcDbText
  0
LINE
  5
33F
100
AcDbEntity
  8
2
100
AcDbLine
 10
-281.885631
 20
394.766023
 30
0.0
 11
-280.885631
 21
393.766023
 31
0.0
  0
LINE
  5
340
100
AcDbEntity
  8
2
100
AcDbLine
 10
-285.885631
 20
310.766023
 30
0.0
 11
-285.885631
 21
398.766023
 31
0.0
  0
ARC
  5
341
100
AcDbEntity
  8
2
100
AcDbCircle
 10
-305.385631
 20
302.766023
 30
0.0
 40
2.0
100
AcDbArc
 50
143.237457
 51
180.0
  0
LINE
  5
342
100
AcDbEntity
  8
2
100
AcDbLine
 10
-291.885631
 20
304.766023
 30
0.0
 11
-443.885631
 21
304.766023
 31
0.0
  0
ARC
  5
343
100
AcDbEntity
  8
2
100
AcDbCircle
 10
-294.885631
 20
309.766023
 30
0.0
 40
5.0
100
AcDbArc
 50
270.0
 51
360.0
  0
LINE
  5
344
100
AcDbEntity
  8
2
100
AcDbLine
 10
-289.885631
 20
398.766023
 30
0.0
 11
-289.885631
 21
309.766023
 31
0.0
  0
LINE
  5
345
100
AcDbEntity
  8
2
100
AcDbLine
 10
-449.885631
 20
398.766023
 30
0.0
 11
-449.885631
 21
310.766023
 31
0.0
  0
ARC
  5
346
100
AcDbEntity
  8
2
100
AcDbCircle
 10
-443.885631
 20
310.766023
 30
0.0
 40
6.0
100
AcDbArc
 50
180.0
 51
270.0
  0
LINE
  5
347
100
AcDbEntity
  8
2
100
AcDbLine
 10
-449.885631
 20
310.766023
 30
0.0
 11
-449.885631
 21
313.766023
 31
0.0
  0
LINE
  5
348
100
AcDbEntity
  8
2
100
AcDbLine
 10
-448.003631
 20
404.766023
 30
0.0
 11
-291.885631
 21
404.766023
 31
0.0
  0
ARC
  5
349
100
AcDbEntity
  8
2
100
AcDbCircle
 10
-295.885631
 20
398.766023
 30
0.0
 40
6.0
100
AcDbArc
 50
0.0
 51
90.0
  0
ARC
  5
34A
100
AcDbEntity
  8
2
100
AcDbCircle
 10
-443.885631
 20
398.766023
 30
0.0
 40
6.0
100
AcDbArc
 50
90.0
 51
180.0
  0
LINE
  5
34B
100
AcDbEntity
  8
2
100
AcDbLine
 10
-307.385631
 20
302.766023
 30
0.0
 11
-307.385631
 21
299.766023
 31
0.0
  0
ARC
  5
34C
100
AcDbEntity
  8
2
100
AcDbCircle
 10
-291.082631
 20
399.569023
 30
0.0
 40
6.0
100
AcDbArc
 50
0.0
 51
90.0
  0
ARC
  5
34D
100
AcDbEntity
  8
2
100
AcDbCircle
 10
-456.685631
 20
361.766023
 30
0.0
 40
3.0
100
AcDbArc
 50
270.0
 51
333.38027
  0
ARC
  5
34E
100
AcDbEntity
  8
2
100
AcDbCircle
 10
-456.685631
 20
377.766023
 30
0.0
 40
3.0
100
AcDbArc
 50
270.0
 51
333.38027
  0
ARC
  5
34F
100
AcDbEntity
  8
2
100
AcDbCircle
 10
-456.685631
 20
365.766023
 30
0.0
 40
3.0
100
AcDbArc
 50
26.61973
 51
90.0
  0
ARC
  5
350
100
AcDbEntity
  8
2
100
AcDbCircle
 10
-456.685631
 20
381.766023
 30
0.0
 40
3.0
100
AcDbArc
 50
26.61973
 51
90.0
  0
LINE
  5
351
100
AcDbEntity
  8
2
 62
     2
100
AcDbLine
 10
-457.566631
 20
358.766023
 30
0.0
 11
-457.566631
 21
368.766023
 31
0.0
  0
LINE
  5
352
100
AcDbEntity
  8
2
 62
     2
100
AcDbLine
 10
-457.566631
 20
374.766023
 30
0.0
 11
-457.566631
 21
384.766023
 31
0.0
  0
LINE
  5
353
100
AcDbEntity
  8
2
 62
     2
100
AcDbLine
 10
-460.536631
 20
368.766023
 30
0.0
 11
-460.536631
 21
374.766023
 31
0.0
  0
LINE
  5
354
100
AcDbEntity
  8
2
 62
     2
100
AcDbLine
 10
-460.536631
 20
352.766023
 30
0.0
 11
-460.536631
 21
358.766023
 31
0.0
  0
LINE
  5
355
100
AcDbEntity
  8
2
100
AcDbLine
 10
-454.003631
 20
329.130414
 30
0.0
 11
-454.003631
 21
398.766023
 31
0.0
  0
ARC
  5
356
100
AcDbEntity
  8
2
100
AcDbCircle
 10
-448.003631
 20
398.766023
 30
0.0
 40
6.0
100
AcDbArc
 50
90.0
 51
180.0
  0
LINE
  5
357
100
AcDbEntity
  8
2
100
AcDbLine
 10
-468.885631
 20
384.766023
 30
0.0
 11
-456.685631
 21
384.766023
 31
0.0
  0
LINE
  5
358
100
AcDbEntity
  8
2
100
AcDbLine
 10
-467.885631
 20
374.766023
 30
0.0
 11
-456.685631
 21
374.766023
 31
0.0
  0
LINE
  5
359
100
AcDbEntity
  8
2
100
AcDbLine
 10
-467.885631
 20
368.766023
 30
0.0
 11
-456.685631
 21
368.766023
 31
0.0
  0
LINE
  5
35A
100
AcDbEntity
  8
2
100
AcDbLine
 10
-467.885631
 20
358.766023
 30
0.0
 11
-456.685631
 21
358.766023
 31
0.0
  0
LINE
  5
35B
100
AcDbEntity
  8
2
100
AcDbLine
 10
-466.135631
 20
383.766023
 30
0.0
 11
-466.135631
 21
375.766023
 31
0.0
  0
LINE
  5
35C
100
AcDbEntity
  8
2
100
AcDbLine
 10
-466.135631
 20
367.766023
 30
0.0
 11
-466.135631
 21
359.766023
 31
0.0
  0
ARC
  5
35D
100
AcDbEntity
  8
2
100
AcDbCircle
 10
-467.135631
 20
359.766023
 30
0.0
 40
1.0
100
AcDbArc
 50
270.0
 51
360.0
  0
ARC
  5
35E
100
AcDbEntity
  8
2
100
AcDbCircle
 10
-467.135631
 20
367.766023
 30
0.0
 40
1.0
100
AcDbArc
 50
0.0
 51
90.0
  0
ARC
  5
35F
100
AcDbEntity
  8
2
100
AcDbCircle
 10
-467.135631
 20
375.766023
 30
0.0
 40
1.0
100
AcDbArc
 50
270.0
 51
360.0
  0
ARC
  5
360
100
AcDbEntity
  8
2
100
AcDbCircle
 10
-467.135631
 20
383.766023
 30
0.0
 40
1.0
100
AcDbArc
 50
0.0
 51
90.0
  0
ARC
  5
361
100
AcDbEntity
  8
2
100
AcDbCircle
 10
-456.685631
 20
345.766023
 30
0.0
 40
3.0
100
AcDbArc
 50
270.0
 51
333.38027
  0
ARC
  5
362
100
AcDbEntity
  8
2
100
AcDbCircle
 10
-456.685631
 20
333.766023
 30
0.0
 40
3.0
100
AcDbArc
 50
26.61973
 51
90.0
  0
ARC
  5
363
100
AcDbEntity
  8
2
100
AcDbCircle
 10
-456.685631
 20
349.766023
 30
0.0
 40
3.0
100
AcDbArc
 50
26.61973
 51
90.0
  0
LINE
  5
364
100
AcDbEntity
  8
2
 62
     2
100
AcDbLine
 10
-457.566631
 20
326.266023
 30
0.0
 11
-457.566631
 21
336.766023
 31
0.0
  0
LINE
  5
365
100
AcDbEntity
  8
2
 62
     2
100
AcDbLine
 10
-457.566631
 20
342.766023
 30
0.0
 11
-457.566631
 21
352.766023
 31
0.0
  0
LINE
  5
366
100
AcDbEntity
  8
2
 62
     2
100
AcDbLine
 10
-460.536631
 20
336.766023
 30
0.0
 11
-460.536631
 21
342.766023
 31
0.0
  0
LINE
  5
367
100
AcDbEntity
  8
2
100
AcDbLine
 10
-456.111854
 20
326.266023
 30
0.0
 11
-469.885631
 21
326.266023
 31
0.0
  0
ARC
  5
368
100
AcDbEntity
  8
2
100
AcDbCircle
 10
-467.135631
 20
327.266023
 30
0.0
 40
1.0
100
AcDbArc
 50
270.0
 51
0.0
  0
LINE
  5
369
100
AcDbEntity
  8
2
100
AcDbLine
 10
-467.885631
 20
352.766023
 30
0.0
 11
-456.685631
 21
352.766023
 31
0.0
  0
LINE
  5
36A
100
AcDbEntity
  8
2
100
AcDbLine
 10
-467.885631
 20
342.766023
 30
0.0
 11
-456.685631
 21
342.766023
 31
0.0
  0
LINE
  5
36B
100
AcDbEntity
  8
2
100
AcDbLine
 10
-467.885631
 20
336.766023
 30
0.0
 11
-456.685631
 21
336.766023
 31
0.0
  0
LINE
  5
36C
100
AcDbEntity
  8
2
100
AcDbLine
 10
-466.135631
 20
335.766023
 30
0.0
 11
-466.135631
 21
327.266023
 31
0.0
  0
LINE
  5
36D
100
AcDbEntity
  8
2
100
AcDbLine
 10
-466.135631
 20
351.766023
 30
0.0
 11
-466.135631
 21
343.766023
 31
0.0
  0
ARC
  5
36E
100
AcDbEntity
  8
2
100
AcDbCircle
 10
-467.135631
 20
335.766023
 30
0.0
 40
1.0
100
AcDbArc
 50
360.0
 51
90.0
  0
ARC
  5
36F
100
AcDbEntity
  8
2
100
AcDbCircle
 10
-467.135631
 20
343.766023
 30
0.0
 40
1.0
100
AcDbArc
 50
270.0
 51
360.0
  0
ARC
  5
370
100
AcDbEntity
  8
2
100
AcDbCircle
 10
-467.135631
 20
351.766023
 30
0.0
 40
1.0
100
AcDbArc
 50
0.0
 51
90.0
  0
LINE
  5
371
100
AcDbEntity
  8
2
100
AcDbLine
 10
-291.082631
 20
303.963023
 30
0.0
 11
-474.885631
 21
303.963023
 31
0.0
  0
LINE
  5
372
100
AcDbEntity
  8
2
100
AcDbLine
 10
-281.885631
 20
394.766023
 30
0.0
 11
-281.885631
 21
308.766023
 31
0.0
  0
LINE
  5
373
100
AcDbEntity
  8
2
100
AcDbLine
 10
-280.885631
 20
309.766023
 30
0.0
 11
-281.885631
 21
308.766023
 31
0.0
  0
LINE
  5
374
100
AcDbEntity
  8
2
100
AcDbLine
 10
-280.885631
 20
309.766023
 30
0.0
 11
-280.885631
 21
393.766023
 31
0.0
  0
LINE
  5
375
100
AcDbEntity
  8
2
100
AcDbLine
 10
-285.885631
 20
394.766023
 30
0.0
 11
-281.885631
 21
394.766023
 31
0.0
  0
LINE
  5
376
100
AcDbEntity
  8
2
100
AcDbLine
 10
-286.228777
 20
308.766023
 30
0.0
 11
-281.885631
 21
308.766023
 31
0.0
  0
ARC
  5
377
100
AcDbEntity
  8
2
100
AcDbCircle
 10
-291.885631
 20
398.766023
 30
0.0
 40
6.0
100
AcDbArc
 50
0.0
 51
90.0
  0
ARC
  5
378
100
AcDbEntity
  8
2
100
AcDbCircle
 10
-291.082631
 20
309.963023
 30
0.0
 40
6.0
100
AcDbArc
 50
270.0
 51
348.492278
  0
ARC
  5
379
100
AcDbEntity
  8
2
100
AcDbCircle
 10
-291.885631
 20
310.766023
 30
0.0
 40
6.0
100
AcDbArc
 50
270.0
 51
360.0
  0
LINE
  5
37A
100
AcDbEntity
  8
2
100
AcDbLine
 10
-454.536879
 20
405.569023
 30
0.0
 11
-291.082631
 21
405.569023
 31
0.0
  0
LINE
  5
37B
100
AcDbEntity
  8
2
100
AcDbLine
 10
-285.082631
 20
399.569023
 30
0.0
 11
-285.082631
 21
394.766023
 31
0.0
  0
ARC
  5
37C
100
AcDbEntity
  8
2
100
AcDbCircle
 10
-454.536879
 20
399.569023
 30
0.0
 40
6.0
100
AcDbArc
 50
90.0
 51
151.295513
  0
LINE
  5
37D
100
AcDbEntity
  8
2
100
AcDbLine
 10
-464.86059
 20
393.20828
 30
0.0
 11
-459.799531
 21
402.450777
 31
0.0
  0
ARC
  5
37E
100
AcDbEntity
  8
2
100
AcDbCircle
 10
-469.246133
 20
395.609741
 30
0.0
 40
5.0
100
AcDbArc
 50
283.105828
 51
331.295513
  0
LINE
  5
37F
100
AcDbEntity
  8
2
 62
     2
100
AcDbLine
 10
-460.536879
 20
385.766023
 30
0.0
 11
-460.536879
 21
399.569023
 31
0.0
  0
ARC
  5
380
100
AcDbEntity
  8
2
100
AcDbCircle
 10
-454.536879
 20
309.963023
 30
0.0
 40
6.0
100
AcDbArc
 50
180.0
 51
270.0
  0
LINE
  5
381
100
AcDbEntity
  8
2
100
AcDbLine
 10
-460.536879
 20
309.963023
 30
0.0
 11
-460.536879
 21
321.266023
 31
0.0
  0
ARC
  5
382
100
AcDbEntity
  8
2
100
AcDbCircle
 10
-455.536879
 20
321.266023
 30
0.0
 40
5.0
100
AcDbArc
 50
100.564597
 51
180.0
  0
ARC
  5
383
100
AcDbEntity
  8
2
100
AcDbCircle
 10
-457.003631
 20
329.130414
 30
0.0
 40
3.0
100
AcDbArc
 50
280.564597
 51
360.0
  0
ARC
  5
384
100
AcDbEntity
  8
2
100
AcDbCircle
 10
-467.885631
 20
357.766023
 30
0.0
 40
1.0
100
AcDbArc
 50
90.0
 51
180.0
  0
ARC
  5
385
100
AcDbEntity
  8
2
100
AcDbCircle
 10
-467.885631
 20
369.766023
 30
0.0
 40
1.0
100
AcDbArc
 50
180.0
 51
270.0
  0
ARC
  5
386
100
AcDbEntity
  8
2
100
AcDbCircle
 10
-467.885631
 20
373.766023
 30
0.0
 40
1.0
100
AcDbArc
 50
90.0
 51
180.0
  0
ARC
  5
387
100
AcDbEntity
  8
2
100
AcDbCircle
 10
-467.885631
 20
385.766023
 30
0.0
 40
1.0
100
AcDbArc
 50
180.0
 51
270.0
  0
ARC
  5
388
100
AcDbEntity
  8
2
100
AcDbCircle
 10
-469.885631
 20
321.266023
 30
0.0
 40
5.0
100
AcDbArc
 50
90.0
 51
180.0
  0
ARC
  5
389
100
AcDbEntity
  8
2
100
AcDbCircle
 10
-467.885631
 20
337.766023
 30
0.0
 40
1.0
100
AcDbArc
 50
180.0
 51
270.0
  0
ARC
  5
38A
100
AcDbEntity
  8
2
100
AcDbCircle
 10
-467.885631
 20
341.766023
 30
0.0
 40
1.0
100
AcDbArc
 50
90.0
 51
180.0
  0
ARC
  5
38B
100
AcDbEntity
  8
2
100
AcDbCircle
 10
-467.885631
 20
353.766023
 30
0.0
 40
1.0
100
AcDbArc
 50
180.0
 51
270.0
  0
LINE
  5
38C
100
AcDbEntity
  8
2
100
AcDbLine
 10
-474.885631
 20
321.266023
 30
0.0
 11
-474.885631
 21
299.766023
 31
0.0
  0
LINE
  5
38D
100
AcDbEntity
  8
2
100
AcDbLine
 10
-474.885631
 20
299.766023
 30
0.0
 11
-307.385631
 21
299.766023
 31
0.0
  0
LINE
  5
38E
100
AcDbEntity
  8
2
100
AcDbLine
 10
-307.385631
 20
299.766023
 30
0.0
 11
-474.885631
 21
299.766023
 31
0.0
  0
LINE
  5
38F
100
AcDbEntity
  8
2
100
AcDbLine
 10
-468.885631
 20
326.266023
 30
0.0
 11
-468.885631
 21
389.766023
 31
0.0
  0
ARC
  5
390
100
AcDbEntity
  8
2
100
AcDbCircle
 10
-467.885631
 20
389.766023
 30
0.0
 40
1.0
100
AcDbArc
 50
103.105828
 51
180.0
  0
LINE
  5
391
100
AcDbEntity
  8
2
100
AcDbLine
 10
-443.885631
 20
404.766023
 30
0.0
 11
-295.885631
 21
404.766023
 31
0.0
  0
ARC
  5
392
100
AcDbEntity
  8
2
100
AcDbCircle
 10
-295.885631
 20
398.766023
 30
0.0
 40
6.0
100
AcDbArc
 50
0.0
 51
90.0
  0
ARC
  5
393
100
AcDbEntity
  8
2
100
AcDbCircle
 10
-443.885631
 20
398.766023
 30
0.0
 40
6.0
100
AcDbArc
 50
90.0
 51
180.0
  0
LINE
  5
394
100
AcDbEntity
  8
2
100
AcDbLine
 10
-289.885631
 20
398.766023
 30
0.0
 11
-289.885631
 21
310.766023
 31
0.0
  0
LINE
  5
395
100
AcDbEntity
  8
2
100
AcDbLine
 10
-449.885631
 20
310.766023
 30
0.0
 11
-449.885631
 21
398.766023
 31
0.0
  0
ARC
  5
396
100
AcDbEntity
  8
2
100
AcDbCircle
 10
-443.885631
 20
310.766023
 30
0.0
 40
6.0
100
AcDbArc
 50
180.0
 51
270.0
  0
LINE
  5
397
100
AcDbEntity
  8
2
100
AcDbLine
 10
-443.885631
 20
304.766023
 30
0.0
 11
-295.885631
 21
304.766023
 31
0.0
  0
LINE
  5
398
100
AcDbEntity
  8
2
100
AcDbLine
 10
-272.885631
 20
363.766023
 30
0.0
 11
-272.885631
 21
389.766023
 31
0.0
  0
LINE
  5
399
100
AcDbEntity
  8
2
100
AcDbLine
 10
-277.885631
 20
361.754916
 30
0.0
 11
-277.885631
 21
391.77713
 31
0.0
  0
LINE
  5
39A
100
AcDbEntity
  8
2
100
AcDbLine
 10
-274.046744
 20
391.77713
 30
0.0
 11
-277.885631
 21
391.77713
 31
0.0
  0
LINE
  5
39B
100
AcDbEntity
  8
2
100
AcDbLine
 10
-274.046744
 20
384.271577
 30
0.0
 11
-277.885631
 21
384.271577
 31
0.0
  0
LINE
  5
39C
100
AcDbEntity
  8
2
100
AcDbLine
 10
-274.046744
 20
369.26047
 30
0.0
 11
-277.885631
 21
369.26047
 31
0.0
  0
LINE
  5
39D
100
AcDbEntity
  8
2
100
AcDbLine
 10
-274.046744
 20
361.754916
 30
0.0
 11
-277.885631
 21
361.754916
 31
0.0
  0
LINE
  5
39E
100
AcDbEntity
  8
2
100
AcDbLine
 10
-272.885631
 20
389.766023
 30
0.0
 11
-274.046744
 21
391.77713
 31
0.0
  0
LINE
  5
39F
100
AcDbEntity
  8
2
100
AcDbLine
 10
-272.885631
 20
363.766023
 30
0.0
 11
-274.046744
 21
361.754916
 31
0.0
  0
ARC
  5
3A0
100
AcDbEntity
  8
2
100
AcDbCircle
 10
-279.530767
 20
388.024354
 30
0.0
 40
6.645136
100
AcDbArc
 50
325.615736
 51
34.384264
  0
ARC
  5
3A1
100
AcDbEntity
  8
2
100
AcDbCircle
 10
-279.530767
 20
365.507693
 30
0.0
 40
6.645136
100
AcDbArc
 50
325.615736
 51
34.384264
  0
LINE
  5
3A2
100
AcDbEntity
  8
2
100
AcDbLine
 10
-277.885631
 20
367.766023
 30
0.0
 11
-280.885631
 21
367.766023
 31
0.0
  0
LINE
  5
3A3
100
AcDbEntity
  8
2
100
AcDbLine
 10
-280.885631
 20
385.766023
 30
0.0
 11
-277.885631
 21
385.766023
 31
0.0
  0
ARC
  5
3A4
100
AcDbEntity
  8
2
100
AcDbCircle
 10
-297.724518
 20
376.766023
 30
0.0
 40
24.838887
100
AcDbArc
 50
342.412046
 51
17.587954
  0
LINE
  5
3A5
100
AcDbEntity
  8
2
100
AcDbLine
 10
-272.885631
 20
313.766023
 30
0.0
 11
-272.885631
 21
339.766023
 31
0.0
  0
LINE
  5
3A6
100
AcDbEntity
  8
2
100
AcDbLine
 10
-277.885631
 20
311.754916
 30
0.0
 11
-277.885631
 21
341.77713
 31
0.0
  0
LINE
  5
3A7
100
AcDbEntity
  8
2
100
AcDbLine
 10
-274.046744
 20
341.77713
 30
0.0
 11
-277.885631
 21
341.77713
 31
0.0
  0
LINE
  5
3A8
100
AcDbEntity
  8
2
100
AcDbLine
 10
-274.046744
 20
334.271577
 30
0.0
 11
-277.885631
 21
334.271577
 31
0.0
  0
LINE
  5
3A9
100
AcDbEntity
  8
2
100
AcDbLine
 10
-274.046744
 20
319.26047
 30
0.0
 11
-277.885631
 21
319.26047
 31
0.0
  0
LINE
  5
3AA
100
AcDbEntity
  8
2
100
AcDbLine
 10
-274.046744
 20
311.754916
 30
0.0
 11
-277.885631
 21
311.754916
 31
0.0
  0
LINE
  5
3AB
100
AcDbEntity
  8
2
100
AcDbLine
 10
-272.885631
 20
339.766023
 30
0.0
 11
-274.046744
 21
341.77713
 31
0.0
  0
LINE
  5
3AC
100
AcDbEntity
  8
2
100
AcDbLine
 10
-272.885631
 20
313.766023
 30
0.0
 11
-274.046744
 21
311.754916
 31
0.0
  0
ARC
  5
3AD
100
AcDbEntity
  8
2
100
AcDbCircle
 10
-279.530767
 20
338.024354
 30
0.0
 40
6.645136
100
AcDbArc
 50
325.615736
 51
34.384264
  0
ARC
  5
3AE
100
AcDbEntity
  8
2
100
AcDbCircle
 10
-279.530767
 20
315.507693
 30
0.0
 40
6.645136
100
AcDbArc
 50
325.615736
 51
34.384264
  0
LINE
  5
3AF
100
AcDbEntity
  8
2
100
AcDbLine
 10
-277.885631
 20
317.766023
 30
0.0
 11
-280.885631
 21
317.766023
 31
0.0
  0
LINE
  5
3B0
100
AcDbEntity
  8
2
100
AcDbLine
 10
-280.885631
 20
335.766023
 30
0.0
 11
-277.885631
 21
335.766023
 31
0.0
  0
ARC
  5
3B1
100
AcDbEntity
  8
2
100
AcDbCircle
 10
-297.724518
 20
326.766023
 30
0.0
 40
24.838887
100
AcDbArc
 50
342.412046
 51
17.587954
  0
POLYLINE
  5
3B2
100
AcDbEntity
  8
2
100
AcDb2dPolyline
 66
     1
 10
0.0
 20
0.0
 30
0.0
 70
     1
  0
VERTEX
  5
896
100
AcDbEntity
  8
2
100
AcDbVertex
100
AcDb2dVertex
 10
-277.985631
 20
386.766023
 30
0.0
  0
VERTEX
  5
897
100
AcDbEntity
  8
2
100
AcDbVertex
100
AcDb2dVertex
 10
-278.013917
 20
386.966023
 30
0.0
  0
VERTEX
  5
898
100
AcDbEntity
  8
2
100
AcDbVertex
100
AcDb2dVertex
 10
-278.10251
 20
387.166023
 30
0.0
  0
VERTEX
  5
899
100
AcDbEntity
  8
2
100
AcDbVertex
100
AcDb2dVertex
 10
-278.265631
 20
387.366023
 30
0.0
  0
VERTEX
  5
89A
100
AcDbEntity
  8
2
100
AcDbVertex
100
AcDb2dVertex
 10
-278.545631
 20
387.566023
 30
0.0
  0
VERTEX
  5
89B
100
AcDbEntity
  8
2
100
AcDbVertex
100
AcDb2dVertex
 10
-279.385631
 20
387.766023
 30
0.0
  0
VERTEX
  5
89C
100
AcDbEntity
  8
2
100
AcDbVertex
100
AcDb2dVertex
 10
-280.225631
 20
387.566023
 30
0.0
  0
VERTEX
  5
89D
100
AcDbEntity
  8
2
100
AcDbVertex
100
AcDb2dVertex
 10
-280.505631
 20
387.366023
 30
0.0
  0
VERTEX
  5
89E
100
AcDbEntity
  8
2
100
AcDbVertex
100
AcDb2dVertex
 10
-280.668752
 20
387.166023
 30
0.0
  0
VERTEX
  5
89F
100
AcDbEntity
  8
2
100
AcDbVertex
100
AcDb2dVertex
 10
-280.757345
 20
386.966023
 30
0.0
  0
VERTEX
  5
8A0
100
AcDbEntity
  8
2
100
AcDbVertex
100
AcDb2dVertex
 10
-280.785631
 20
386.766023
 30
0.0
  0
VERTEX
  5
8A1
100
AcDbEntity
  8
2
100
AcDbVertex
100
AcDb2dVertex
 10
-280.757345
 20
386.566023
 30
0.0
  0
VERTEX
  5
8A2
100
AcDbEntity
  8
2
100
AcDbVertex
100
AcDb2dVertex
 10
-280.668752
 20
386.366023
 30
0.0
  0
VERTEX
  5
8A3
100
AcDbEntity
  8
2
100
AcDbVertex
100
AcDb2dVertex
 10
-280.505631
 20
386.166023
 30
0.0
  0
VERTEX
  5
8A4
100
AcDbEntity
  8
2
100
AcDbVertex
100
AcDb2dVertex
 10
-280.225631
 20
385.966023
 30
0.0
  0
VERTEX
  5
8A5
100
AcDbEntity
  8
2
100
AcDbVertex
100
AcDb2dVertex
 10
-279.385631
 20
385.766023
 30
0.0
  0
VERTEX
  5
8A6
100
AcDbEntity
  8
2
100
AcDbVertex
100
AcDb2dVertex
 10
-278.545631
 20
385.966023
 30
0.0
  0
VERTEX
  5
8A7
100
AcDbEntity
  8
2
100
AcDbVertex
100
AcDb2dVertex
 10
-278.265631
 20
386.166023
 30
0.0
  0
VERTEX
  5
8A8
100
AcDbEntity
  8
2
100
AcDbVertex
100
AcDb2dVertex
 10
-278.10251
 20
386.366023
 30
0.0
  0
VERTEX
  5
8A9
100
AcDbEntity
  8
2
100
AcDbVertex
100
AcDb2dVertex
 10
-278.013917
 20
386.566023
 30
0.0
  0
VERTEX
  5
8AA
100
AcDbEntity
  8
2
100
AcDbVertex
100
AcDb2dVertex
 10
-277.985631
 20
386.766023
 30
0.0
  0
SEQEND
  5
8AB
100
AcDbEntity
  8
2
  0
POLYLINE
  5
3C9
100
AcDbEntity
  8
2
100
AcDb2dPolyline
 66
     1
 10
0.0
 20
0.0
 30
0.0
 70
     1
  0
VERTEX
  5
8AC
100
AcDbEntity
  8
2
100
AcDbVertex
100
AcDb2dVertex
 10
-277.985631
 20
366.766023
 30
0.0
  0
VERTEX
  5
8AD
100
AcDbEntity
  8
2
100
AcDbVertex
100
AcDb2dVertex
 10
-278.013917
 20
366.966023
 30
0.0
  0
VERTEX
  5
8AE
100
AcDbEntity
  8
2
100
AcDbVertex
100
AcDb2dVertex
 10
-278.10251
 20
367.166023
 30
0.0
  0
VERTEX
  5
8AF
100
AcDbEntity
  8
2
100
AcDbVertex
100
AcDb2dVertex
 10
-278.265631
 20
367.366023
 30
0.0
  0
VERTEX
  5
8B0
100
AcDbEntity
  8
2
100
AcDbVertex
100
AcDb2dVertex
 10
-278.545631
 20
367.566023
 30
0.0
  0
VERTEX
  5
8B1
100
AcDbEntity
  8
2
100
AcDbVertex
100
AcDb2dVertex
 10
-279.385631
 20
367.766023
 30
0.0
  0
VERTEX
  5
8B2
100
AcDbEntity
  8
2
100
AcDbVertex
100
AcDb2dVertex
 10
-280.225631
 20
367.566023
 30
0.0
  0
VERTEX
  5
8B3
100
AcDbEntity
  8
2
100
AcDbVertex
100
AcDb2dVertex
 10
-280.505631
 20
367.366023
 30
0.0
  0
VERTEX
  5
8B4
100
AcDbEntity
  8
2
100
AcDbVertex
100
AcDb2dVertex
 10
-280.668752
 20
367.166023
 30
0.0
  0
VERTEX
  5
8B5
100
AcDbEntity
  8
2
100
AcDbVertex
100
AcDb2dVertex
 10
-280.757345
 20
366.966023
 30
0.0
  0
VERTEX
  5
8B6
100
AcDbEntity
  8
2
100
AcDbVertex
100
AcDb2dVertex
 10
-280.785631
 20
366.766023
 30
0.0
  0
VERTEX
  5
8B7
100
AcDbEntity
  8
2
100
AcDbVertex
100
AcDb2dVertex
 10
-280.757345
 20
366.566023
 30
0.0
  0
VERTEX
  5
8B8
100
AcDbEntity
  8
2
100
AcDbVertex
100
AcDb2dVertex
 10
-280.668752
 20
366.366023
 30
0.0
  0
VERTEX
  5
8B9
100
AcDbEntity
  8
2
100
AcDbVertex
100
AcDb2dVertex
 10
-280.505631
 20
366.166023
 30
0.0
  0
VERTEX
  5
8BA
100
AcDbEntity
  8
2
100
AcDbVertex
100
AcDb2dVertex
 10
-280.225631
 20
365.966023
 30
0.0
  0
VERTEX
  5
8BB
100
AcDbEntity
  8
2
100
AcDbVertex
100
AcDb2dVertex
 10
-279.385631
 20
365.766023
 30
0.0
  0
VERTEX
  5
8BC
100
AcDbEntity
  8
2
100
AcDbVertex
100
AcDb2dVertex
 10
-278.545631
 20
365.966023
 30
0.0
  0
VERTEX
  5
8BD
100
AcDbEntity
  8
2
100
AcDbVertex
100
AcDb2dVertex
 10
-278.265631
 20
366.166023
 30
0.0
  0
VERTEX
  5
8BE
100
AcDbEntity
  8
2
100
AcDbVertex
100
AcDb2dVertex
 10
-278.10251
 20
366.366023
 30
0.0
  0
VERTEX
  5
8BF
100
AcDbEntity
  8
2
100
AcDbVertex
100
AcDb2dVertex
 10
-278.013917
 20
366.566023
 30
0.0
  0
VERTEX
  5
8C0
100
AcDbEntity
  8
2
100
AcDbVertex
100
AcDb2dVertex
 10
-277.985631
 20
366.766023
 30
0.0
  0
SEQEND
  5
8C1
100
AcDbEntity
  8
2
  0
POLYLINE
  5
3E0
100
AcDbEntity
  8
2
100
AcDb2dPolyline
 66
     1
 10
0.0
 20
0.0
 30
0.0
 70
     1
  0
VERTEX
  5
8C2
100
AcDbEntity
  8
2
100
AcDbVertex
100
AcDb2dVertex
 10
-277.985631
 20
336.766023
 30
0.0
  0
VERTEX
  5
8C3
100
AcDbEntity
  8
2
100
AcDbVertex
100
AcDb2dVertex
 10
-278.013917
 20
336.966023
 30
0.0
  0
VERTEX
  5
8C4
100
AcDbEntity
  8
2
100
AcDbVertex
100
AcDb2dVertex
 10
-278.10251
 20
337.166023
 30
0.0
  0
VERTEX
  5
8C5
100
AcDbEntity
  8
2
100
AcDbVertex
100
AcDb2dVertex
 10
-278.265631
 20
337.366023
 30
0.0
  0
VERTEX
  5
8C6
100
AcDbEntity
  8
2
100
AcDbVertex
100
AcDb2dVertex
 10
-278.545631
 20
337.566023
 30
0.0
  0
VERTEX
  5
8C7
100
AcDbEntity
  8
2
100
AcDbVertex
100
AcDb2dVertex
 10
-279.385631
 20
337.766023
 30
0.0
  0
VERTEX
  5
8C8
100
AcDbEntity
  8
2
100
AcDbVertex
100
AcDb2dVertex
 10
-280.225631
 20
337.566023
 30
0.0
  0
VERTEX
  5
8C9
100
AcDbEntity
  8
2
100
AcDbVertex
100
AcDb2dVertex
 10
-280.505631
 20
337.366023
 30
0.0
  0
VERTEX
  5
8CA
100
AcDbEntity
  8
2
100
AcDbVertex
100
AcDb2dVertex
 10
-280.668752
 20
337.166023
 30
0.0
  0
VERTEX
  5
8CB
100
AcDbEntity
  8
2
100
AcDbVertex
100
AcDb2dVertex
 10
-280.757345
 20
336.966023
 30
0.0
  0
VERTEX
  5
8CC
100
AcDbEntity
  8
2
100
AcDbVertex
100
AcDb2dVertex
 10
-280.785631
 20
336.766023
 30
0.0
  0
VERTEX
  5
8CD
100
AcDbEntity
  8
2
100
AcDbVertex
100
AcDb2dVertex
 10
-280.757345
 20
336.566023
 30
0.0
  0
VERTEX
  5
8CE
100
AcDbEntity
  8
2
100
AcDbVertex
100
AcDb2dVertex
 10
-280.668752
 20
336.366023
 30
0.0
  0
VERTEX
  5
8CF
100
AcDbEntity
  8
2
100
AcDbVertex
100
AcDb2dVertex
 10
-280.505631
 20
336.166023
 30
0.0
  0
VERTEX
  5
8D0
100
AcDbEntity
  8
2
100
AcDbVertex
100
AcDb2dVertex
 10
-280.225631
 20
335.966023
 30
0.0
  0
VERTEX
  5
8D1
100
AcDbEntity
  8
2
100
AcDbVertex
100
AcDb2dVertex
 10
-279.385631
 20
335.766023
 30
0.0
  0
VERTEX
  5
8D2
100
AcDbEntity
  8
2
100
AcDbVertex
100
AcDb2dVertex
 10
-278.545631
 20
335.966023
 30
0.0
  0
VERTEX
  5
8D3
100
AcDbEntity
  8
2
100
AcDbVertex
100
AcDb2dVertex
 10
-278.265631
 20
336.166023
 30
0.0
  0
VERTEX
  5
8D4
100
AcDbEntity
  8
2
100
AcDbVertex
100
AcDb2dVertex
 10
-278.10251
 20
336.366023
 30
0.0
  0
VERTEX
  5
8D5
100
AcDbEntity
  8
2
100
AcDbVertex
100
AcDb2dVertex
 10
-278.013917
 20
336.566023
 30
0.0
  0
VERTEX
  5
8D6
100
AcDbEntity
  8
2
100
AcDbVertex
100
AcDb2dVertex
 10
-277.985631
 20
336.766023
 30
0.0
  0
SEQEND
  5
8D7
100
AcDbEntity
  8
2
  0
POLYLINE
  5
3F7
100
AcDbEntity
  8
2
100
AcDb2dPolyline
 66
     1
 10
0.0
 20
0.0
 30
0.0
 70
     1
  0
VERTEX
  5
8D8
100
AcDbEntity
  8
2
100
AcDbVertex
100
AcDb2dVertex
 10
-277.985631
 20
316.766023
 30
0.0
  0
VERTEX
  5
8D9
100
AcDbEntity
  8
2
100
AcDbVertex
100
AcDb2dVertex
 10
-278.013917
 20
316.966023
 30
0.0
  0
VERTEX
  5
8DA
100
AcDbEntity
  8
2
100
AcDbVertex
100
AcDb2dVertex
 10
-278.10251
 20
317.166023
 30
0.0
  0
VERTEX
  5
8DB
100
AcDbEntity
  8
2
100
AcDbVertex
100
AcDb2dVertex
 10
-278.265631
 20
317.366023
 30
0.0
  0
VERTEX
  5
8DC
100
AcDbEntity
  8
2
100
AcDbVertex
100
AcDb2dVertex
 10
-278.545631
 20
317.566023
 30
0.0
  0
VERTEX
  5
8DD
100
AcDbEntity
  8
2
100
AcDbVertex
100
AcDb2dVertex
 10
-279.385631
 20
317.766023
 30
0.0
  0
VERTEX
  5
8DE
100
AcDbEntity
  8
2
100
AcDbVertex
100
AcDb2dVertex
 10
-280.225631
 20
317.566023
 30
0.0
  0
VERTEX
  5
8DF
100
AcDbEntity
  8
2
100
AcDbVertex
100
AcDb2dVertex
 10
-280.505631
 20
317.366023
 30
0.0
  0
VERTEX
  5
8E0
100
AcDbEntity
  8
2
100
AcDbVertex
100
AcDb2dVertex
 10
-280.668752
 20
317.166023
 30
0.0
  0
VERTEX
  5
8E1
100
AcDbEntity
  8
2
100
AcDbVertex
100
AcDb2dVertex
 10
-280.757345
 20
316.966023
 30
0.0
  0
VERTEX
  5
8E2
100
AcDbEntity
  8
2
100
AcDbVertex
100
AcDb2dVertex
 10
-280.785631
 20
316.766023
 30
0.0
  0
VERTEX
  5
8E3
100
AcDbEntity
  8
2
100
AcDbVertex
100
AcDb2dVertex
 10
-280.757345
 20
316.566023
 30
0.0
  0
VERTEX
  5
8E4
100
AcDbEntity
  8
2
100
AcDbVertex
100
AcDb2dVertex
 10
-280.668752
 20
316.366023
 30
0.0
  0
VERTEX
  5
8E5
100
AcDbEntity
  8
2
100
AcDbVertex
100
AcDb2dVertex
 10
-280.505631
 20
316.166023
 30
0.0
  0
VERTEX
  5
8E6
100
AcDbEntity
  8
2
100
AcDbVertex
100
AcDb2dVertex
 10
-280.225631
 20
315.966023
 30
0.0
  0
VERTEX
  5
8E7
100
AcDbEntity
  8
2
100
AcDbVertex
100
AcDb2dVertex
 10
-279.385631
 20
315.766023
 30
0.0
  0
VERTEX
  5
8E8
100
AcDbEntity
  8
2
100
AcDbVertex
100
AcDb2dVertex
 10
-278.545631
 20
315.966023
 30
0.0
  0
VERTEX
  5
8E9
100
AcDbEntity
  8
2
100
AcDbVertex
100
AcDb2dVertex
 10
-278.265631
 20
316.166023
 30
0.0
  0
VERTEX
  5
8EA
100
AcDbEntity
  8
2
100
AcDbVertex
100
AcDb2dVertex
 10
-278.10251
 20
316.366023
 30
0.0
  0
VERTEX
  5
8EB
100
AcDbEntity
  8
2
100
AcDbVertex
100
AcDb2dVertex
 10
-278.013917
 20
316.566023
 30
0.0
  0
VERTEX
  5
8EC
100
AcDbEntity
  8
2
100
AcDbVertex
100
AcDb2dVertex
 10
-277.985631
 20
316.766023
 30
0.0
  0
SEQEND
  5
8ED
100
AcDbEntity
  8
2
  0
LINE
  5
40E
100
AcDbEntity
  8
2
100
AcDbLine
 10
-456.135631
 20
286.855228
 30
0.0
 11
-456.135631
 21
288.466023
 31
0.0
  0
ARC
  5
40F
100
AcDbEntity
  8
2
100
AcDbCircle
 10
-457.135631
 20
286.855228
 30
0.0
 40
1.0
100
AcDbArc
 50
302.392365
 51
360.0
  0
LINE
  5
410
100
AcDbEntity
  8
2
100
AcDbLine
 10
-465.635631
 20
288.466023
 30
0.0
 11
-456.135631
 21
288.466023
 31
0.0
  0
LINE
  5
411
100
AcDbEntity
  8
2
100
AcDbLine
 10
-456.285631
 20
288.466023
 30
0.0
 11
-456.285631
 21
289.766023
 31
0.0
  0
LINE
  5
412
100
AcDbEntity
  8
2
100
AcDbLine
 10
-465.635631
 20
286.855228
 30
0.0
 11
-465.635631
 21
288.466023
 31
0.0
  0
LINE
  5
413
100
AcDbEntity
  8
2
100
AcDbLine
 10
-465.485631
 20
288.466023
 30
0.0
 11
-465.485631
 21
289.766023
 31
0.0
  0
LINE
  5
414
100
AcDbEntity
  8
2
100
AcDbLine
 10
-460.385631
 20
284.781664
 30
0.0
 11
-460.385631
 21
284.966023
 31
0.0
  0
LINE
  5
415
100
AcDbEntity
  8
2
100
AcDbLine
 10
-461.385631
 20
284.781664
 30
0.0
 11
-461.385631
 21
284.966023
 31
0.0
  0
LINE
  5
416
100
AcDbEntity
  8
2
100
AcDbLine
 10
-460.385631
 20
284.966023
 30
0.0
 11
-461.385631
 21
284.966023
 31
0.0
  0
ARC
  5
417
100
AcDbEntity
  8
2
100
AcDbCircle
 10
-460.885631
 20
292.766023
 30
0.0
 40
8.0
100
AcDbArc
 50
273.583322
 51
302.392365
  0
ARC
  5
418
100
AcDbEntity
  8
2
100
AcDbCircle
 10
-460.885631
 20
292.766023
 30
0.0
 40
8.0
100
AcDbArc
 50
237.607635
 51
266.416678
  0
ARC
  5
419
100
AcDbEntity
  8
2
100
AcDbCircle
 10
-464.635631
 20
286.855228
 30
0.0
 40
1.0
100
AcDbArc
 50
180.0
 51
237.607635
  0
LINE
  5
41A
100
AcDbEntity
  8
2
100
AcDbLine
 10
-317.135631
 20
286.855228
 30
0.0
 11
-317.135631
 21
288.466023
 31
0.0
  0
ARC
  5
41B
100
AcDbEntity
  8
2
100
AcDbCircle
 10
-318.135631
 20
286.855228
 30
0.0
 40
1.0
100
AcDbArc
 50
302.392365
 51
360.0
  0
LINE
  5
41C
100
AcDbEntity
  8
2
100
AcDbLine
 10
-326.635631
 20
288.466023
 30
0.0
 11
-317.135631
 21
288.466023
 31
0.0
  0
LINE
  5
41D
100
AcDbEntity
  8
2
100
AcDbLine
 10
-317.285631
 20
288.466023
 30
0.0
 11
-317.285631
 21
289.766023
 31
0.0
  0
LINE
  5
41E
100
AcDbEntity
  8
2
100
AcDbLine
 10
-326.635631
 20
286.855228
 30
0.0
 11
-326.635631
 21
288.466023
 31
0.0
  0
LINE
  5
41F
100
AcDbEntity
  8
2
100
AcDbLine
 10
-326.485631
 20
288.466023
 30
0.0
 11
-326.485631
 21
289.766023
 31
0.0
  0
LINE
  5
420
100
AcDbEntity
  8
2
100
AcDbLine
 10
-321.385631
 20
284.781664
 30
0.0
 11
-321.385631
 21
284.966023
 31
0.0
  0
LINE
  5
421
100
AcDbEntity
  8
2
100
AcDbLine
 10
-322.385631
 20
284.781664
 30
0.0
 11
-322.385631
 21
284.966023
 31
0.0
  0
LINE
  5
422
100
AcDbEntity
  8
2
100
AcDbLine
 10
-321.385631
 20
284.966023
 30
0.0
 11
-322.385631
 21
284.966023
 31
0.0
  0
ARC
  5
423
100
AcDbEntity
  8
2
100
AcDbCircle
 10
-321.885631
 20
292.766023
 30
0.0
 40
8.0
100
AcDbArc
 50
273.583322
 51
302.392365
  0
ARC
  5
424
100
AcDbEntity
  8
2
100
AcDbCircle
 10
-321.885631
 20
292.766023
 30
0.0
 40
8.0
100
AcDbArc
 50
237.607635
 51
266.416678
  0
ARC
  5
425
100
AcDbEntity
  8
2
100
AcDbCircle
 10
-325.635631
 20
286.855228
 30
0.0
 40
1.0
100
AcDbArc
 50
180.0
 51
237.607635
  0
LINE
  5
426
100
AcDbEntity
  8
2
100
AcDbLine
 10
-467.635631
 20
288.466023
 30
0.0
 11
-465.485631
 21
288.466023
 31
0.0
  0
LINE
  5
427
100
AcDbEntity
  8
2
100
AcDbLine
 10
-467.635631
 20
286.855228
 30
0.0
 11
-467.635631
 21
288.466023
 31
0.0
  0
LINE
  5
428
100
AcDbEntity
  8
2
100
AcDbLine
 10
-467.485631
 20
288.466023
 30
0.0
 11
-467.485631
 21
289.766023
 31
0.0
  0
LINE
  5
429
100
AcDbEntity
  8
2
100
AcDbLine
 10
-462.385631
 20
284.781664
 30
0.0
 11
-462.385631
 21
284.907907
 31
0.0
  0
LINE
  5
42A
100
AcDbEntity
  8
2
100
AcDbLine
 10
-463.385631
 20
284.781664
 30
0.0
 11
-463.385631
 21
284.966023
 31
0.0
  0
LINE
  5
42B
100
AcDbEntity
  8
2
100
AcDbLine
 10
-462.66327
 20
284.966023
 30
0.0
 11
-463.385631
 21
284.966023
 31
0.0
  0
ARC
  5
42C
100
AcDbEntity
  8
2
100
AcDbCircle
 10
-462.885631
 20
292.766023
 30
0.0
 40
8.0
100
AcDbArc
 50
273.583322
 51
277.180756
  0
ARC
  5
42D
100
AcDbEntity
  8
2
100
AcDbCircle
 10
-462.885631
 20
292.766023
 30
0.0
 40
8.0
100
AcDbArc
 50
237.607635
 51
266.416678
  0
ARC
  5
42E
100
AcDbEntity
  8
2
100
AcDbCircle
 10
-466.635631
 20
286.855228
 30
0.0
 40
1.0
100
AcDbArc
 50
180.0
 51
237.607635
  0
LINE
  5
42F
100
AcDbEntity
  8
2
100
AcDbLine
 10
-398.635631
 20
286.855228
 30
0.0
 11
-398.635631
 21
288.466023
 31
0.0
  0
ARC
  5
430
100
AcDbEntity
  8
2
100
AcDbCircle
 10
-399.635631
 20
286.855228
 30
0.0
 40
1.0
100
AcDbArc
 50
302.392365
 51
360.0
  0
LINE
  5
431
100
AcDbEntity
  8
2
100
AcDbLine
 10
-408.135631
 20
288.466023
 30
0.0
 11
-398.635631
 21
288.466023
 31
0.0
  0
LINE
  5
432
100
AcDbEntity
  8
2
100
AcDbLine
 10
-398.785631
 20
288.466023
 30
0.0
 11
-398.785631
 21
289.766023
 31
0.0
  0
LINE
  5
433
100
AcDbEntity
  8
2
100
AcDbLine
 10
-408.135631
 20
286.855228
 30
0.0
 11
-408.135631
 21
288.466023
 31
0.0
  0
LINE
  5
434
100
AcDbEntity
  8
2
100
AcDbLine
 10
-407.985631
 20
288.466023
 30
0.0
 11
-407.985631
 21
289.766023
 31
0.0
  0
LINE
  5
435
100
AcDbEntity
  8
2
100
AcDbLine
 10
-402.885631
 20
284.781664
 30
0.0
 11
-402.885631
 21
284.966023
 31
0.0
  0
LINE
  5
436
100
AcDbEntity
  8
2
100
AcDbLine
 10
-403.885631
 20
284.781664
 30
0.0
 11
-403.885631
 21
284.966023
 31
0.0
  0
LINE
  5
437
100
AcDbEntity
  8
2
100
AcDbLine
 10
-402.885631
 20
284.966023
 30
0.0
 11
-403.885631
 21
284.966023
 31
0.0
  0
ARC
  5
438
100
AcDbEntity
  8
2
100
AcDbCircle
 10
-403.385631
 20
292.766023
 30
0.0
 40
8.0
100
AcDbArc
 50
273.583322
 51
302.392365
  0
ARC
  5
439
100
AcDbEntity
  8
2
100
AcDbCircle
 10
-403.385631
 20
292.766023
 30
0.0
 40
8.0
100
AcDbArc
 50
237.607635
 51
266.416678
  0
ARC
  5
43A
100
AcDbEntity
  8
2
100
AcDbCircle
 10
-407.135631
 20
286.855228
 30
0.0
 40
1.0
100
AcDbArc
 50
180.0
 51
237.607635
  0
LINE
  5
43B
100
AcDbEntity
  8
2
100
AcDbLine
 10
-333.885631
 20
270.766023
 30
0.0
 11
-358.885631
 21
270.766023
 31
0.0
  0
LINE
  5
43C
100
AcDbEntity
  8
2
100
AcDbLine
 10
-358.885631
 20
267.066023
 30
0.0
 11
-358.885631
 21
270.766023
 31
0.0
  0
LINE
  5
43D
100
AcDbEntity
  8
2
100
AcDbLine
 10
-358.585631
 20
266.766023
 30
0.0
 11
-358.885631
 21
267.066023
 31
0.0
  0
LINE
  5
43E
100
AcDbEntity
  8
2
100
AcDbLine
 10
-358.585631
 20
266.766023
 30
0.0
 11
-334.185631
 21
266.766023
 31
0.0
  0
LINE
  5
43F
100
AcDbEntity
  8
2
100
AcDbLine
 10
-334.185631
 20
266.766023
 30
0.0
 11
-333.885631
 21
267.066023
 31
0.0
  0
LINE
  5
440
100
AcDbEntity
  8
2
100
AcDbLine
 10
-333.885631
 20
267.066023
 30
0.0
 11
-333.885631
 21
270.766023
 31
0.0
  0
LINE
  5
441
100
AcDbEntity
  8
2
100
AcDbLine
 10
-474.885631
 20
299.766023
 30
0.0
 11
-307.385631
 21
299.766023
 31
0.0
  0
LINE
  5
442
100
AcDbEntity
  8
2
100
AcDbLine
 10
-308.899932
 20
289.766023
 30
0.0
 11
-471.885631
 21
289.766023
 31
0.0
  0
LINE
  5
443
100
AcDbEntity
  8
2
100
AcDbLine
 10
-316.711661
 20
272.766023
 30
0.0
 11
-427.384498
 21
272.766023
 31
0.0
  0
LINE
  5
444
100
AcDbEntity
  8
2
100
AcDbLine
 10
-308.180654
 20
290.678868
 30
0.0
 11
-307.385631
 21
299.766023
 31
0.0
  0
LINE
  5
445
100
AcDbEntity
  8
2
100
AcDbLine
 10
-436.354207
 20
287.792012
 30
0.0
 11
-432.083005
 21
276.056043
 31
0.0
  0
ARC
  5
446
100
AcDbEntity
  8
2
100
AcDbCircle
 10
-439.173311
 20
286.766023
 30
0.0
 40
3.0
100
AcDbArc
 50
19.99853
 51
90.0
  0
ARC
  5
447
100
AcDbEntity
  8
2
100
AcDbCircle
 10
-427.384498
 20
277.766023
 30
0.0
 40
5.0
100
AcDbArc
 50
199.99853
 51
270.0
  0
LINE
  5
448
100
AcDbEntity
  8
2
100
AcDbLine
 10
-311.763615
 20
277.047102
 30
0.0
 11
-310.216804
 21
287.693171
 31
0.0
  0
ARC
  5
449
100
AcDbEntity
  8
2
100
AcDbCircle
 10
-316.711661
 20
277.766023
 30
0.0
 40
5.0
100
AcDbArc
 50
270.0
 51
351.733109
  0
LINE
  5
44A
100
AcDbEntity
  8
2
100
AcDbLine
 10
-474.885631
 20
299.766023
 30
0.0
 11
-474.885631
 21
292.766023
 31
0.0
  0
ARC
  5
44B
100
AcDbEntity
  8
2
100
AcDbCircle
 10
-471.885631
 20
292.766023
 30
0.0
 40
3.0
100
AcDbArc
 50
180.0
 51
270.0
  0
ARC
  5
44C
100
AcDbEntity
  8
2
100
AcDbCircle
 10
-309.176849
 20
290.766023
 30
0.0
 40
1.0
100
AcDbArc
 50
298.830359
 51
355.0
  0
ARC
  5
44D
100
AcDbEntity
  8
2
100
AcDbCircle
 10
-307.247977
 20
287.261818
 30
0.0
 40
3.0
100
AcDbArc
 50
118.830359
 51
171.733109
  0
LINE
  5
44E
100
AcDbEntity
  8
2
 62
     2
100
AcDbLine
 10
-408.987115
 20
288.285284
 30
0.0
 11
-405.492066
 21
275.285284
 31
0.0
  0
LINE
  5
44F
100
AcDbEntity
  8
2
 62
     2
100
AcDbLine
 10
-400.622146
 20
275.197527
 30
0.0
 11
-397.74972
 21
288.197527
 31
0.0
  0
ARC
  5
450
100
AcDbEntity
  8
2
 62
     2
100
AcDbCircle
 10
-395.796824
 20
287.766023
 30
0.0
 40
2.0
100
AcDbArc
 50
131.409622
 51
167.540354
  0
ARC
  5
451
100
AcDbEntity
  8
2
 62
     2
100
AcDbCircle
 10
-410.918531
 20
287.766023
 30
0.0
 40
2.0
100
AcDbArc
 50
15.048138
 51
48.590378
  0
LINE
  5
452
100
AcDbEntity
  8
2
100
AcDbLine
 10
-334.385631
 20
270.766023
 30
0.0
 11
-358.385631
 21
270.766023
 31
0.0
  0
LINE
  5
453
100
AcDbEntity
  8
2
100
AcDbLine
 10
-333.885631
 20
271.266023
 30
0.0
 11
-333.885631
 21
271.766023
 31
0.0
  0
LINE
  5
454
100
AcDbEntity
  8
2
100
AcDbLine
 10
-358.885631
 20
271.266023
 30
0.0
 11
-358.885631
 21
271.766023
 31
0.0
  0
ARC
  5
455
100
AcDbEntity
  8
2
100
AcDbCircle
 10
-334.385631
 20
271.266023
 30
0.0
 40
0.5
100
AcDbArc
 50
270.0
 51
360.0
  0
ARC
  5
456
100
AcDbEntity
  8
2
100
AcDbCircle
 10
-358.385631
 20
271.266023
 30
0.0
 40
0.5
100
AcDbArc
 50
180.0
 51
270.0
  0
ARC
  5
457
100
AcDbEntity
  8
2
100
AcDbCircle
 10
-332.885631
 20
271.766023
 30
0.0
 40
1.0
100
AcDbArc
 50
90.0
 51
180.0
  0
ARC
  5
458
100
AcDbEntity
  8
2
100
AcDbCircle
 10
-359.885631
 20
271.766023
 30
0.0
 40
1.0
100
AcDbArc
 50
360.0
 51
90.0
  0
LINE
  5
459
100
AcDbEntity
  8
2
  6
CENTER
 62
     2
100
AcDbLine
 10
-482.791147
 20
351.766023
 30
0.0
 11
-269.380077
 21
351.766023
 31
0.0
  0
LINE
  5
45A
100
AcDbEntity
  8
2
  6
CENTER
 62
     2
100
AcDbLine
 10
-301.317723
 20
326.766023
 30
0.0
 11
-267.460991
 21
326.766023
 31
0.0
  0
LINE
  5
45B
100
AcDbEntity
  8
2
  6
CENTER
 62
     2
100
AcDbLine
 10
-301.317723
 20
376.766023
 30
0.0
 11
-267.460991
 21
376.766023
 31
0.0
  0
LINE
  5
45C
100
AcDbEntity
  8
2
  6
CENTER
 62
     2
100
AcDbLine
 10
-374.885631
 20
415.935068
 30
0.0
 11
-374.885631
 21
258.249258
 31
0.0
  0
LINE
  5
45D
100
AcDbEntity
  8
2
  6
CENTER
 62
     2
100
AcDbLine
 10
-436.135631
 20
275.315401
 30
0.0
 11
-436.135631
 21
412.333475
 31
0.0
  0
LINE
  5
45E
100
AcDbEntity
  8
2
  6
CENTER
 62
     2
100
AcDbLine
 10
-346.385631
 20
259.266023
 30
0.0
 11
-346.385631
 21
412.333475
 31
0.0
  0
LINE
  5
45F
100
AcDbEntity
  8
2
  6
CENTER
 62
     2
100
AcDbLine
 10
-460.885631
 20
276.536348
 30
0.0
 11
-460.885631
 21
302.079973
 31
0.0
  0
LINE
  5
460
100
AcDbEntity
  8
2
  6
CENTER
 62
     2
100
AcDbLine
 10
-403.385631
 20
302.079973
 30
0.0
 11
-403.385631
 21
276.536348
 31
0.0
  0
LINE
  5
461
100
AcDbEntity
  8
2
  6
CENTER
 62
     2
100
AcDbLine
 10
-321.885631
 20
276.536348
 30
0.0
 11
-321.885631
 21
302.079973
 31
0.0
  0
LINE
  5
462
100
AcDbEntity
  8
2
100
AcDbLine
 10
-417.385631
 20
97.566023
 30
0.0
 11
-332.385631
 21
97.566023
 31
0.0
  0
LINE
  5
463
100
AcDbEntity
  8
2
100
AcDbLine
 10
-332.385631
 20
98.766023
 30
0.0
 11
-332.385631
 21
95.566023
 31
0.0
  0
LINE
  5
464
100
AcDbEntity
  8
2
100
AcDbLine
 10
-417.385631
 20
98.766023
 30
0.0
 11
-417.385631
 21
95.566023
 31
0.0
  0
LINE
  5
465
100
AcDbEntity
  8
2
100
AcDbLine
 10
-376.885631
 20
107.066023
 30
0.0
 11
-376.885631
 21
98.766023
 31
0.0
  0
LINE
  5
466
100
AcDbEntity
  8
2
100
AcDbLine
 10
-372.885631
 20
107.066023
 30
0.0
 11
-372.885631
 21
98.766023
 31
0.0
  0
LINE
  5
467
100
AcDbEntity
  8
2
100
AcDbLine
 10
-449.885631
 20
49.566023
 30
0.0
 11
-289.885631
 21
49.566023
 31
0.0
  0
LINE
  5
468
100
AcDbEntity
  8
2
100
AcDbLine
 10
-302.548489
 20
92.566023
 30
0.0
 11
-424.823708
 21
92.566023
 31
0.0
  0
LINE
  5
469
100
AcDbEntity
  8
2
100
AcDbLine
 10
-289.885631
 20
52.566023
 30
0.0
 11
-289.885631
 21
49.566023
 31
0.0
  0
LINE
  5
46A
100
AcDbEntity
  8
2
100
AcDbLine
 10
-301.885631
 20
89.566023
 30
0.0
 11
-301.885631
 21
58.566023
 31
0.0
  0
LINE
  5
46B
100
AcDbEntity
  8
2
100
AcDbLine
 10
-435.885631
 20
86.454522
 30
0.0
 11
-435.885631
 21
58.566023
 31
0.0
  0
LINE
  5
46C
100
AcDbEntity
  8
2
100
AcDbLine
 10
-447.365572
 20
57.566023
 30
0.0
 11
-436.885631
 21
57.566023
 31
0.0
  0
LINE
  5
46D
100
AcDbEntity
  8
2
100
AcDbLine
 10
-300.885631
 20
57.566023
 30
0.0
 11
-291.239405
 21
57.566023
 31
0.0
  0
ARC
  5
46E
100
AcDbEntity
  8
2
100
AcDbCircle
 10
-304.885631
 20
89.566023
 30
0.0
 40
3.0
100
AcDbArc
 50
0.0
 51
90.0
  0
ARC
  5
46F
100
AcDbEntity
  8
2
100
AcDbCircle
 10
-329.385631
 20
95.566023
 30
0.0
 40
3.0
100
AcDbArc
 50
180.0
 51
270.0
  0
ARC
  5
470
100
AcDbEntity
  8
2
100
AcDbCircle
 10
-420.385631
 20
95.566023
 30
0.0
 40
3.0
100
AcDbArc
 50
270.0
 51
360.0
  0
ARC
  5
471
100
AcDbEntity
  8
2
100
AcDbCircle
 10
-374.885631
 20
85.566023
 30
0.0
 40
34.0
100
AcDbArc
 50
22.844739
 51
157.155261
  0
ARC
  5
472
100
AcDbEntity
  8
2
100
AcDbCircle
 10
-374.885631
 20
84.066023
 30
0.0
 40
28.0
100
AcDbArc
 50
34.712682
 51
81.884254
  0
ARC
  5
473
100
AcDbEntity
  8
2
100
AcDbCircle
 10
-374.885631
 20
84.066023
 30
0.0
 40
28.0
100
AcDbArc
 50
98.115746
 51
145.287318
  0
ARC
  5
474
100
AcDbEntity
  8
2
100
AcDbCircle
 10
-375.885631
 20
107.066023
 30
0.0
 40
1.0
100
AcDbArc
 50
90.0
 51
180.0
  0
ARC
  5
475
100
AcDbEntity
  8
2
100
AcDbCircle
 10
-373.885631
 20
107.066023
 30
0.0
 40
1.0
100
AcDbArc
 50
0.0
 51
90.0
  0
LINE
  5
476
100
AcDbEntity
  8
2
100
AcDbLine
 10
-375.885631
 20
108.066023
 30
0.0
 11
-375.520864
 21
108.066028
 31
0.0
  0
LINE
  5
477
100
AcDbEntity
  8
2
100
AcDbLine
 10
-374.250164
 20
108.066138
 30
0.0
 11
-373.885631
 21
108.066023
 31
0.0
  0
ARC
  5
478
100
AcDbEntity
  8
2
100
AcDbCircle
 10
-339.485236
 20
88.331653
 30
0.0
 40
45.274917
100
AcDbArc
 50
159.10214
 51
166.675437
  0
ARC
  5
479
100
AcDbEntity
  8
2
100
AcDbCircle
 10
-340.409115
 20
88.331653
 30
0.0
 40
45.274917
100
AcDbArc
 50
158.681079
 51
166.675437
  0
ARC
  5
47A
100
AcDbEntity
  8
2
100
AcDbCircle
 10
-382.184468
 20
104.635077
 30
0.0
 40
0.430947
100
AcDbArc
 50
339.10214
 51
158.681079
  0
ARC
  5
47B
100
AcDbEntity
  8
2
100
AcDbCircle
 10
-363.455702
 20
86.564771
 30
0.0
 40
30.472934
100
AcDbArc
 50
143.677597
 51
156.39704
  0
ARC
  5
47C
100
AcDbEntity
  8
2
100
AcDbCircle
 10
-364.162809
 20
86.564771
 30
0.0
 40
30.472934
100
AcDbArc
 50
142.882669
 51
156.39704
  0
ARC
  5
47D
100
AcDbEntity
  8
2
100
AcDbCircle
 10
-388.235983
 20
104.782619
 30
0.0
 40
0.283404
100
AcDbArc
 50
323.677597
 51
142.882669
  0
ARC
  5
47E
100
AcDbEntity
  8
2
100
AcDbCircle
 10
-372.21129
 20
84.79789
 30
0.0
 40
28.197761
100
AcDbArc
 50
134.711482
 51
150.306296
  0
ARC
  5
47F
100
AcDbEntity
  8
2
100
AcDbCircle
 10
-372.593973
 20
84.79789
 30
0.0
 40
28.197761
100
AcDbArc
 50
134.156238
 51
150.306296
  0
ARC
  5
480
100
AcDbEntity
  8
2
100
AcDbCircle
 10
-392.143705
 20
104.932066
 30
0.0
 40
0.133957
100
AcDbArc
 50
314.711482
 51
134.156238
  0
LINE
  5
481
100
AcDbEntity
  8
2
 62
     2
100
AcDbLine
 10
-384.409092
 20
99.000308
 30
0.0
 11
-384.0033
 21
98.766023
 31
0.0
  0
LINE
  5
482
100
AcDbEntity
  8
2
 62
     2
100
AcDbLine
 10
-383.400951
 20
99.342018
 30
0.0
 11
-384.20572
 21
99.806651
 31
0.0
  0
LINE
  5
483
100
AcDbEntity
  8
2
 62
     2
100
AcDbLine
 10
-383.191787
 20
100.145017
 30
0.0
 11
-383.988701
 21
100.605116
 31
0.0
  0
LINE
  5
484
100
AcDbEntity
  8
2
 62
     2
100
AcDbLine
 10
-382.969061
 20
100.940187
 30
0.0
 11
-383.758231
 21
101.395814
 31
0.0
  0
LINE
  5
485
100
AcDbEntity
  8
2
 62
     2
100
AcDbLine
 10
-382.732962
 20
101.727635
 30
0.0
 11
-383.514489
 21
102.178851
 31
0.0
  0
LINE
  5
486
100
AcDbEntity
  8
2
 62
     2
100
AcDbLine
 10
-382.483661
 20
102.507462
 30
0.0
 11
-383.257637
 21
102.954317
 31
0.0
  0
LINE
  5
487
100
AcDbEntity
  8
2
 62
     2
100
AcDbLine
 10
-382.221314
 20
103.279756
 30
0.0
 11
-382.987821
 21
103.722299
 31
0.0
  0
LINE
  5
488
100
AcDbEntity
  8
2
 62
     2
100
AcDbLine
 10
-381.946059
 20
104.044598
 30
0.0
 11
-382.705171
 21
104.482871
 31
0.0
  0
LINE
  5
489
100
AcDbEntity
  8
2
 62
     2
100
AcDbLine
 10
-382.10113
 20
105.057889
 30
0.0
 11
-381.859971
 21
104.918656
 31
0.0
  0
LINE
  5
48A
100
AcDbEntity
  8
2
 62
     2
100
AcDbLine
 10
-390.384708
 20
102.089322
 30
0.0
 11
-389.855955
 21
101.784046
 31
0.0
  0
LINE
  5
48B
100
AcDbEntity
  8
2
 62
     2
100
AcDbLine
 10
-389.968021
 20
102.772508
 30
0.0
 11
-389.447311
 21
102.471876
 31
0.0
  0
LINE
  5
48C
100
AcDbEntity
  8
2
 62
     2
100
AcDbLine
 10
-389.533104
 20
103.445169
 30
0.0
 11
-389.020457
 21
103.149192
 31
0.0
  0
LINE
  5
48D
100
AcDbEntity
  8
2
 62
     2
100
AcDbLine
 10
-389.079885
 20
104.107263
 30
0.0
 11
-388.575338
 21
103.815963
 31
0.0
  0
LINE
  5
48E
100
AcDbEntity
  8
2
 62
     2
100
AcDbLine
 10
-388.608252
 20
104.758726
 30
0.0
 11
-388.111859
 21
104.472134
 31
0.0
  0
LINE
  5
48F
100
AcDbEntity
  8
2
 62
     2
100
AcDbLine
 10
-390.783201
 20
101.395631
 30
0.0
 11
-390.246408
 21
101.085714
 31
0.0
  0
LINE
  5
490
100
AcDbEntity
  8
2
 62
     2
100
AcDbLine
 10
-391.163496
 20
100.691434
 30
0.0
 11
-390.618649
 21
100.376867
 31
0.0
  0
LINE
  5
491
100
AcDbEntity
  8
2
 62
     2
100
AcDbLine
 10
-391.525551
 20
99.976707
 30
0.0
 11
-390.972622
 21
99.657473
 31
0.0
  0
LINE
  5
492
100
AcDbEntity
  8
2
 62
     2
100
AcDbLine
 10
-391.869289
 20
99.251404
 30
0.0
 11
-391.308229
 21
98.927475
 31
0.0
  0
LINE
  5
493
100
AcDbEntity
  8
2
100
AcDbLine
 10
-332.385631
 20
98.766023
 30
0.0
 11
-417.385631
 21
98.766023
 31
0.0
  0
LINE
  5
494
100
AcDbEntity
  8
2
 62
     2
100
AcDbLine
 10
-394.849386
 20
102.112922
 30
0.0
 11
-394.58474
 21
101.960128
 31
0.0
  0
LINE
  5
495
100
AcDbEntity
  8
2
 62
     2
100
AcDbLine
 10
-394.343299
 20
102.744493
 30
0.0
 11
-394.083514
 21
102.594506
 31
0.0
  0
LINE
  5
496
100
AcDbEntity
  8
2
 62
     2
100
AcDbLine
 10
-393.816715
 20
103.364229
 30
0.0
 11
-393.56186
 21
103.217089
 31
0.0
  0
LINE
  5
497
100
AcDbEntity
  8
2
 62
     2
100
AcDbLine
 10
-393.269306
 20
103.971943
 30
0.0
 11
-393.019465
 21
103.827697
 31
0.0
  0
LINE
  5
498
100
AcDbEntity
  8
2
 62
     2
100
AcDbLine
 10
-392.700684
 20
104.56741
 30
0.0
 11
-392.455955
 21
104.426116
 31
0.0
  0
LINE
  5
499
100
AcDbEntity
  8
2
 62
     2
100
AcDbLine
 10
-395.335244
 20
101.469672
 30
0.0
 11
-395.065794
 21
101.314105
 31
0.0
  0
LINE
  5
49A
100
AcDbEntity
  8
2
 62
     2
100
AcDbLine
 10
-395.801088
 20
100.814866
 30
0.0
 11
-395.526877
 21
100.65655
 31
0.0
  0
LINE
  5
49B
100
AcDbEntity
  8
2
 62
     2
100
AcDbLine
 10
-396.24708
 20
100.148599
 30
0.0
 11
-395.968139
 21
99.987553
 31
0.0
  0
LINE
  5
49C
100
AcDbEntity
  8
2
 62
     2
100
AcDbLine
 10
-396.673331
 20
99.470935
 30
0.0
 11
-396.38968
 21
99.307169
 31
0.0
  0
LINE
  5
49D
100
AcDbEntity
  8
2
 62
     2
100
AcDbLine
 10
-397.052388
 20
98.766023
 30
0.0
 11
-397.079906
 21
98.781911
 31
0.0
  0
ARC
  5
49E
100
AcDbEntity
  8
2
100
AcDbCircle
 10
-374.885631
 20
85.566023
 30
0.0
 40
33.162479
100
AcDbArc
 50
104.962752
 51
150.128593
  0
ARC
  5
49F
100
AcDbEntity
  8
2
100
AcDbCircle
 10
-369.331082
 20
117.555887
 30
0.0
 40
10.0
100
AcDbArc
 50
202.238154
 51
227.992896
  0
ARC
  5
4A0
100
AcDbEntity
  8
2
100
AcDbCircle
 10
-382.673313
 20
114.70581
 30
0.0
 40
3.0
100
AcDbArc
 50
42.388379
 51
104.962752
  0
ARC
  5
4A1
100
AcDbEntity
  8
2
100
AcDbCircle
 10
-387.843457
 20
109.986742
 30
0.0
 40
10.0
100
AcDbArc
 50
22.238154
 51
42.388379
  0
ARC
  5
4A2
100
AcDbEntity
  8
2
100
AcDbCircle
 10
-380.44018
 20
117.555887
 30
0.0
 40
10.0
100
AcDbArc
 50
312.007104
 51
337.761846
  0
ARC
  5
4A3
100
AcDbEntity
  8
2
100
AcDbCircle
 10
-361.927804
 20
109.986742
 30
0.0
 40
10.0
100
AcDbArc
 50
137.611621
 51
157.761846
  0
ARC
  5
4A4
100
AcDbEntity
  8
2
100
AcDbCircle
 10
-367.097949
 20
114.70581
 30
0.0
 40
3.0
100
AcDbArc
 50
75.037248
 51
137.611621
  0
ARC
  5
4A5
100
AcDbEntity
  8
2
100
AcDbCircle
 10
-374.885631
 20
85.566023
 30
0.0
 40
33.162479
100
AcDbArc
 50
29.871407
 51
75.037248
  0
ARC
  5
4A6
100
AcDbEntity
  8
2
100
AcDbCircle
 10
-374.885631
 20
111.388473
 30
0.0
 40
1.7
100
AcDbArc
 50
227.992896
 51
312.007104
  0
ARC
  5
4A7
100
AcDbEntity
  8
2
100
AcDbCircle
 10
-374.41074
 20
84.743488
 30
0.0
 40
32.849358
100
AcDbArc
 50
105.470231
 51
147.621493
  0
ARC
  5
4A8
100
AcDbEntity
  8
2
100
AcDbCircle
 10
-368.37713
 20
117.664384
 30
0.0
 40
12.0
100
AcDbArc
 50
200.135943
 51
231.694293
  0
ARC
  5
4A9
100
AcDbEntity
  8
2
100
AcDbCircle
 10
-385.276943
 20
111.467907
 30
0.0
 40
6.0
100
AcDbArc
 50
20.135943
 51
48.747449
  0
ARC
  5
4AA
100
AcDbEntity
  8
2
100
AcDbCircle
 10
-382.639426
 20
114.475148
 30
0.0
 40
2.0
100
AcDbArc
 50
48.747449
 51
105.470231
  0
ARC
  5
4AB
100
AcDbEntity
  8
2
100
AcDbCircle
 10
-381.394131
 20
117.664384
 30
0.0
 40
12.0
100
AcDbArc
 50
308.305707
 51
339.864057
  0
ARC
  5
4AC
100
AcDbEntity
  8
2
100
AcDbCircle
 10
-364.494319
 20
111.467907
 30
0.0
 40
6.0
100
AcDbArc
 50
131.252551
 51
159.864057
  0
ARC
  5
4AD
100
AcDbEntity
  8
2
100
AcDbCircle
 10
-367.131836
 20
114.475148
 30
0.0
 40
2.0
100
AcDbArc
 50
74.529769
 51
131.252551
  0
ARC
  5
4AE
100
AcDbEntity
  8
2
100
AcDbCircle
 10
-375.360522
 20
84.743488
 30
0.0
 40
32.849358
100
AcDbArc
 50
32.378507
 51
74.529769
  0
ARC
  5
4AF
100
AcDbEntity
  8
2
100
AcDbCircle
 10
-374.885631
 20
109.42488
 30
0.0
 40
1.5
100
AcDbArc
 50
231.694293
 51
308.305707
  0
LINE
  5
4B0
100
AcDbEntity
  8
2
 62
     2
100
AcDbLine
 10
-376.885631
 20
105.225425
 30
0.0
 11
-372.885631
 21
102.916023
 31
0.0
  0
LINE
  5
4B1
100
AcDbEntity
  8
2
 62
     2
100
AcDbLine
 10
-372.885631
 20
102.916023
 30
0.0
 11
-372.885631
 21
102.916023
 31
0.0
  0
LINE
  5
4B2
100
AcDbEntity
  8
2
 62
     2
100
AcDbLine
 10
-376.885631
 20
106.149185
 30
0.0
 11
-372.885631
 21
103.839784
 31
0.0
  0
LINE
  5
4B3
100
AcDbEntity
  8
2
 62
     2
100
AcDbLine
 10
-372.885631
 20
103.839784
 30
0.0
 11
-372.885631
 21
103.839784
 31
0.0
  0
LINE
  5
4B4
100
AcDbEntity
  8
2
 62
     2
100
AcDbLine
 10
-376.885631
 20
107.072945
 30
0.0
 11
-372.885631
 21
104.763544
 31
0.0
  0
LINE
  5
4B5
100
AcDbEntity
  8
2
 62
     2
100
AcDbLine
 10
-372.885631
 20
104.763544
 30
0.0
 11
-372.885631
 21
104.763544
 31
0.0
  0
LINE
  5
4B6
100
AcDbEntity
  8
2
 62
     2
100
AcDbLine
 10
-376.557119
 20
107.807039
 30
0.0
 11
-372.885631
 21
105.687305
 31
0.0
  0
LINE
  5
4B7
100
AcDbEntity
  8
2
 62
     2
100
AcDbLine
 10
-372.885631
 20
105.687305
 30
0.0
 11
-372.885631
 21
105.687305
 31
0.0
  0
LINE
  5
4B8
100
AcDbEntity
  8
2
 62
     2
100
AcDbLine
 10
-375.23105
 20
107.965193
 30
0.0
 11
-372.885631
 21
106.611065
 31
0.0
  0
LINE
  5
4B9
100
AcDbEntity
  8
2
 62
     2
100
AcDbLine
 10
-372.885631
 20
106.611065
 30
0.0
 11
-372.885631
 21
106.611065
 31
0.0
  0
LINE
  5
4BA
100
AcDbEntity
  8
2
 62
     2
100
AcDbLine
 10
-373.799213
 20
108.062282
 30
0.0
 11
-373.066054
 21
107.638993
 31
0.0
  0
LINE
  5
4BB
100
AcDbEntity
  8
2
 62
     2
100
AcDbLine
 10
-376.885631
 20
104.301664
 30
0.0
 11
-372.885631
 21
101.992263
 31
0.0
  0
LINE
  5
4BC
100
AcDbEntity
  8
2
 62
     2
100
AcDbLine
 10
-372.885631
 20
101.992263
 30
0.0
 11
-372.885631
 21
101.992263
 31
0.0
  0
LINE
  5
4BD
100
AcDbEntity
  8
2
 62
     2
100
AcDbLine
 10
-376.885631
 20
103.377904
 30
0.0
 11
-372.885631
 21
101.068503
 31
0.0
  0
LINE
  5
4BE
100
AcDbEntity
  8
2
 62
     2
100
AcDbLine
 10
-372.885631
 20
101.068503
 30
0.0
 11
-372.885631
 21
101.068503
 31
0.0
  0
LINE
  5
4BF
100
AcDbEntity
  8
2
 62
     2
100
AcDbLine
 10
-376.885631
 20
102.454143
 30
0.0
 11
-372.885631
 21
100.144742
 31
0.0
  0
LINE
  5
4C0
100
AcDbEntity
  8
2
 62
     2
100
AcDbLine
 10
-372.885631
 20
100.144742
 30
0.0
 11
-372.885631
 21
100.144742
 31
0.0
  0
LINE
  5
4C1
100
AcDbEntity
  8
2
 62
     2
100
AcDbLine
 10
-376.885631
 20
101.530383
 30
0.0
 11
-372.885631
 21
99.220982
 31
0.0
  0
LINE
  5
4C2
100
AcDbEntity
  8
2
 62
     2
100
AcDbLine
 10
-372.885631
 20
99.220982
 30
0.0
 11
-372.885631
 21
99.220982
 31
0.0
  0
LINE
  5
4C3
100
AcDbEntity
  8
2
 62
     2
100
AcDbLine
 10
-373.69762
 20
98.766023
 30
0.0
 11
-376.885631
 21
100.606622
 31
0.0
  0
LINE
  5
4C4
100
AcDbEntity
  8
2
 62
     2
100
AcDbLine
 10
-375.29762
 20
98.766023
 30
0.0
 11
-376.885631
 21
99.682862
 31
0.0
  0
LINE
  5
4C5
100
AcDbEntity
  8
2
 62
     2
100
AcDbLine
 10
-376.89762
 20
98.766023
 30
0.0
 11
-376.885631
 21
98.759102
 31
0.0
  0
LINE
  5
4C6
100
AcDbEntity
  8
2
  6
CENTER
 62
     2
100
AcDbLine
 10
-441.885631
 20
66.693472
 30
0.0
 11
-441.885631
 21
49.77746
 31
0.0
  0
LINE
  5
4C7
100
AcDbEntity
  8
2
  6
CENTER
 62
     2
100
AcDbLine
 10
-295.885631
 20
66.693472
 30
0.0
 11
-295.885631
 21
49.77746
 31
0.0
  0
LINE
  5
4C8
100
AcDbEntity
  8
2
  6
CENTER
 62
     2
100
AcDbLine
 10
-401.402135
 20
105.48147
 30
0.0
 11
-401.402135
 21
89.061045
 31
0.0
  0
LINE
  5
4C9
100
AcDbEntity
  8
2
100
AcDbLine
 10
-446.485631
 20
58.866023
 30
0.0
 11
-446.485631
 21
57.566023
 31
0.0
  0
LINE
  5
4CA
100
AcDbEntity
  8
2
100
AcDbLine
 10
-437.285631
 20
58.866023
 30
0.0
 11
-437.285631
 21
57.566023
 31
0.0
  0
LINE
  5
4CB
100
AcDbEntity
  8
2
100
AcDbLine
 10
-446.485631
 20
58.866023
 30
0.0
 11
-437.285631
 21
58.866023
 31
0.0
  0
LINE
  5
4CC
100
AcDbEntity
  8
2
100
AcDbLine
 10
-446.385631
 20
60.153516
 30
0.0
 11
-446.385631
 21
58.866023
 31
0.0
  0
LINE
  5
4CD
100
AcDbEntity
  8
2
100
AcDbLine
 10
-437.385631
 20
60.153516
 30
0.0
 11
-437.385631
 21
58.866023
 31
0.0
  0
ARC
  5
4CE
100
AcDbEntity
  8
2
100
AcDbCircle
 10
-441.885631
 20
50.166023
 30
0.0
 40
12.0
100
AcDbArc
 50
73.808648
 51
106.191352
  0
ARC
  5
4CF
100
AcDbEntity
  8
2
100
AcDbCircle
 10
-444.785631
 20
60.153516
 30
0.0
 40
1.6
100
AcDbArc
 50
106.191352
 51
180.0
  0
ARC
  5
4D0
100
AcDbEntity
  8
2
100
AcDbCircle
 10
-438.985631
 20
60.153516
 30
0.0
 40
1.6
100
AcDbArc
 50
0.0
 51
73.808648
  0
LINE
  5
4D1
100
AcDbEntity
  8
2
100
AcDbLine
 10
-300.485631
 20
58.866023
 30
0.0
 11
-300.485631
 21
57.566023
 31
0.0
  0
LINE
  5
4D2
100
AcDbEntity
  8
2
100
AcDbLine
 10
-291.285631
 20
58.866023
 30
0.0
 11
-291.285631
 21
57.566023
 31
0.0
  0
LINE
  5
4D3
100
AcDbEntity
  8
2
100
AcDbLine
 10
-300.485631
 20
58.866023
 30
0.0
 11
-291.285631
 21
58.866023
 31
0.0
  0
LINE
  5
4D4
100
AcDbEntity
  8
2
100
AcDbLine
 10
-300.385631
 20
60.153516
 30
0.0
 11
-300.385631
 21
58.866023
 31
0.0
  0
LINE
  5
4D5
100
AcDbEntity
  8
2
100
AcDbLine
 10
-291.385631
 20
60.153516
 30
0.0
 11
-291.385631
 21
58.866023
 31
0.0
  0
ARC
  5
4D6
100
AcDbEntity
  8
2
100
AcDbCircle
 10
-295.885631
 20
50.166023
 30
0.0
 40
12.0
100
AcDbArc
 50
73.808648
 51
106.191352
  0
ARC
  5
4D7
100
AcDbEntity
  8
2
100
AcDbCircle
 10
-298.785631
 20
60.153516
 30
0.0
 40
1.6
100
AcDbArc
 50
106.191352
 51
180.0
  0
ARC
  5
4D8
100
AcDbEntity
  8
2
100
AcDbCircle
 10
-292.985631
 20
60.153516
 30
0.0
 40
1.6
100
AcDbArc
 50
0.0
 51
73.808648
  0
LINE
  5
4D9
100
AcDbEntity
  8
2
100
AcDbLine
 10
-344.569127
 20
99.766023
 30
0.0
 11
-352.169127
 21
99.766023
 31
0.0
  0
LINE
  5
4DA
100
AcDbEntity
  8
2
100
AcDbLine
 10
-344.569127
 20
99.766023
 30
0.0
 11
-344.569127
 21
98.766023
 31
0.0
  0
LINE
  5
4DB
100
AcDbEntity
  8
2
100
AcDbLine
 10
-352.169127
 20
99.766023
 30
0.0
 11
-352.169127
 21
98.766023
 31
0.0
  0
LINE
  5
4DC
100
AcDbEntity
  8
2
100
AcDbLine
 10
-344.869127
 20
100.745048
 30
0.0
 11
-344.869127
 21
99.766023
 31
0.0
  0
LINE
  5
4DD
100
AcDbEntity
  8
2
100
AcDbLine
 10
-351.869127
 20
100.745048
 30
0.0
 11
-351.869127
 21
99.766023
 31
0.0
  0
ARC
  5
4DE
100
AcDbEntity
  8
2
100
AcDbCircle
 10
-348.369127
 20
93.366023
 30
0.0
 40
9.0
100
AcDbArc
 50
73.39845
 51
106.60155
  0
ARC
  5
4DF
100
AcDbEntity
  8
2
100
AcDbCircle
 10
-346.169127
 20
100.745048
 30
0.0
 40
1.3
100
AcDbArc
 50
0.0
 51
73.39845
  0
ARC
  5
4E0
100
AcDbEntity
  8
2
100
AcDbCircle
 10
-350.569127
 20
100.745048
 30
0.0
 40
1.3
100
AcDbArc
 50
106.60155
 51
180.0
  0
LINE
  5
4E1
100
AcDbEntity
  8
2
100
AcDbLine
 10
-397.602135
 20
99.766023
 30
0.0
 11
-405.202135
 21
99.766023
 31
0.0
  0
LINE
  5
4E2
100
AcDbEntity
  8
2
100
AcDbLine
 10
-397.602135
 20
99.766023
 30
0.0
 11
-397.602135
 21
98.766023
 31
0.0
  0
LINE
  5
4E3
100
AcDbEntity
  8
2
100
AcDbLine
 10
-405.202135
 20
99.766023
 30
0.0
 11
-405.202135
 21
98.766023
 31
0.0
  0
LINE
  5
4E4
100
AcDbEntity
  8
2
100
AcDbLine
 10
-397.902135
 20
100.745048
 30
0.0
 11
-397.902135
 21
99.766023
 31
0.0
  0
LINE
  5
4E5
100
AcDbEntity
  8
2
100
AcDbLine
 10
-404.902135
 20
100.745048
 30
0.0
 11
-404.902135
 21
99.766023
 31
0.0
  0
ARC
  5
4E6
100
AcDbEntity
  8
2
100
AcDbCircle
 10
-401.402135
 20
93.366023
 30
0.0
 40
9.0
100
AcDbArc
 50
73.39845
 51
106.60155
  0
ARC
  5
4E7
100
AcDbEntity
  8
2
100
AcDbCircle
 10
-399.202135
 20
100.745048
 30
0.0
 40
1.3
100
AcDbArc
 50
0.0
 51
73.39845
  0
ARC
  5
4E8
100
AcDbEntity
  8
2
100
AcDbCircle
 10
-403.602135
 20
100.745048
 30
0.0
 40
1.3
100
AcDbArc
 50
106.60155
 51
180.0
  0
LINE
  5
4E9
100
AcDbEntity
  8
2
100
AcDbLine
 10
-449.885631
 20
49.566023
 30
0.0
 11
-449.885631
 21
52.566023
 31
0.0
  0
LINE
  5
4EA
100
AcDbEntity
  8
2
100
AcDbLine
 10
-449.885631
 20
52.566023
 30
0.0
 11
-438.919098
 21
82.696326
 31
0.0
  0
ARC
  5
4EB
100
AcDbEntity
  8
2
100
AcDbCircle
 10
-424.823708
 20
77.566023
 30
0.0
 40
15.0
100
AcDbArc
 50
90.0
 51
160.0
  0
ARC
  5
4EC
100
AcDbEntity
  8
2
100
AcDbCircle
 10
-300.885631
 20
58.566023
 30
0.0
 40
1.0
100
AcDbArc
 50
180.0
 51
270.0
  0
ARC
  5
4ED
100
AcDbEntity
  8
2
100
AcDbCircle
 10
-447.365572
 20
56.566023
 30
0.0
 40
1.0
100
AcDbArc
 50
90.0
 51
160.0
  0
ARC
  5
4EE
100
AcDbEntity
  8
2
100
AcDbCircle
 10
-436.885631
 20
58.566023
 30
0.0
 40
1.0
100
AcDbArc
 50
270.0
 51
360.0
  0
ARC
  5
4EF
100
AcDbEntity
  8
2
100
AcDbCircle
 10
-432.885631
 20
86.454522
 30
0.0
 40
3.0
100
AcDbArc
 50
132.208221
 51
180.0
  0
LINE
  5
4F0
100
AcDbEntity
  8
2
100
AcDbLine
 10
-449.885631
 20
52.566023
 30
0.0
 11
-289.885631
 21
52.566023
 31
0.0
  0
LINE
  5
4F1
100
AcDbEntity
  8
2
100
AcDbLine
 10
-289.885631
 20
52.566023
 30
0.0
 11
-292.586542
 21
83.437581
 31
0.0
  0
ARC
  5
4F2
100
AcDbEntity
  8
2
100
AcDbCircle
 10
-302.548489
 20
82.566023
 30
0.0
 40
10.0
100
AcDbArc
 50
5.0
 51
90.0
  0
ARC
  5
4F3
100
AcDbEntity
  8
2
100
AcDbCircle
 10
-291.239405
 20
56.566023
 30
0.0
 40
1.0
100
AcDbArc
 50
5.0
 51
90.0
  0
TEXT
  5
4F4
100
AcDbEntity
  8
2
100
AcDbText
 10
-368.213927
 20
98.233953
 30
0.0
 40
7.6
  1
Ｓ
 50
31.641
 72
     5
 11
-363.037708
 21
101.423492
 31
0.0
100
AcDbText
  0
TEXT
  5
4F5
100
AcDbEntity
  8
2
100
AcDbText
 10
-368.640698
 20
97.973441
 30
0.0
 40
7.6
  1
Ｓ
 50
31.641
 72
     5
 11
-363.464479
 21
101.16298
 31
0.0
100
AcDbText
  0
TEXT
  5
4F6
100
AcDbEntity
  8
2
100
AcDbText
 10
-369.067469
 20
97.712928
 30
0.0
 40
7.6
  1
Ｓ
 50
31.641
 72
     5
 11
-363.89125
 21
100.902468
 31
0.0
100
AcDbText
  0
LINE
  5
4F7
100
AcDbEntity
  8
2
100
AcDbLine
 10
-417.885631
 20
-56.433977
 30
0.0
 11
-331.885631
 21
-56.433977
 31
0.0
  0
ARC
  5
4F8
100
AcDbEntity
  8
2
100
AcDbCircle
 10
-249.488132
 20
-39.933977
 30
0.0
 40
59.0
100
AcDbArc
 50
130.817217
 51
173.528051
  0
LINE
  5
4F9
100
AcDbEntity
  8
2
100
AcDbLine
 10
-285.711027
 20
44.566023
 30
0.0
 11
-281.885631
 21
44.566023
 31
0.0
  0
LINE
  5
4FA
100
AcDbEntity
  8
2
100
AcDbLine
 10
-281.885631
 20
44.566023
 30
0.0
 11
-281.885631
 21
8.566023
 31
0.0
  0
LINE
  5
4FB
100
AcDbEntity
  8
2
100
AcDbLine
 10
-281.885631
 20
44.566023
 30
0.0
 11
-280.885631
 21
43.566023
 31
0.0
  0
LINE
  5
4FC
100
AcDbEntity
  8
2
100
AcDbLine
 10
-280.885631
 20
43.566023
 30
0.0
 11
-280.885631
 21
9.566023
 31
0.0
  0
LINE
  5
4FD
100
AcDbEntity
  8
2
100
AcDbLine
 10
-280.885631
 20
9.566023
 30
0.0
 11
-281.885631
 21
8.566023
 31
0.0
  0
LINE
  5
4FE
100
AcDbEntity
  8
2
100
AcDbLine
 10
-281.885631
 20
8.566023
 30
0.0
 11
-284.65355
 21
8.566023
 31
0.0
  0
ARC
  5
4FF
100
AcDbEntity
  8
2
100
AcDbCircle
 10
-301.542519
 20
-31.433977
 30
0.0
 40
10.0
100
AcDbArc
 50
270.0
 51
358.0
  0
LINE
  5
500
100
AcDbEntity
  8
2
100
AcDbLine
 10
-301.542519
 20
-41.433977
 30
0.0
 11
-309.336535
 21
-41.433977
 31
0.0
  0
ARC
  5
501
100
AcDbEntity
  8
2
100
AcDbCircle
 10
-421.385631
 20
-20.433977
 30
0.0
 40
114.0
100
AcDbArc
 50
347.787475
 51
360.0
  0
ARC
  5
502
100
AcDbEntity
  8
2
100
AcDbCircle
 10
-319.739185
 20
-42.433977
 30
0.0
 40
10.0
100
AcDbArc
 50
270.0
 51
347.787475
  0
ARC
  5
503
100
AcDbEntity
  8
2
100
AcDbCircle
 10
-421.385631
 20
-6.433977
 30
0.0
 40
114.0
100
AcDbArc
 50
0.0
 51
13.342364
  0
LINE
  5
504
100
AcDbEntity
  8
2
100
AcDbLine
 10
-307.385631
 20
-6.433977
 30
0.0
 11
-307.385631
 21
-20.433977
 31
0.0
  0
ARC
  5
505
100
AcDbEntity
  8
2
100
AcDbCircle
 10
-360.885631
 20
-1.433977
 30
0.0
 40
114.0
100
AcDbArc
 50
169.473381
 51
180.0
  0
ARC
  5
506
100
AcDbEntity
  8
2
100
AcDbCircle
 10
-449.885631
 20
39.566023
 30
0.0
 40
10.0
100
AcDbArc
 50
90.0
 51
169.993627
  0
LINE
  5
507
100
AcDbEntity
  8
2
100
AcDbLine
 10
-474.885631
 20
-1.433977
 30
0.0
 11
-474.885631
 21
-25.433977
 31
0.0
  0
ARC
  5
508
100
AcDbEntity
  8
2
100
AcDbCircle
 10
-360.885631
 20
-25.433977
 30
0.0
 40
114.0
100
AcDbArc
 50
180.0
 51
189.407874
  0
ARC
  5
509
100
AcDbEntity
  8
2
100
AcDbCircle
 10
-463.4868
 20
-42.433977
 30
0.0
 40
10.0
100
AcDbArc
 50
189.407874
 51
270.0
  0
LINE
  5
50A
100
AcDbEntity
  8
2
100
AcDbLine
 10
-463.4868
 20
-52.433977
 30
0.0
 11
-319.739185
 21
-52.433977
 31
0.0
  0
ARC
  5
50B
100
AcDbEntity
  8
2
100
AcDbCircle
 10
-320.192746
 20
17.566023
 30
0.0
 40
10.0
100
AcDbArc
 50
13.342364
 51
90.0
  0
LINE
  5
50C
100
AcDbEntity
  8
2
100
AcDbLine
 10
-463.135325
 20
27.566023
 30
0.0
 11
-320.192746
 21
27.566023
 31
0.0
  0
ARC
  5
50D
100
AcDbEntity
  8
2
100
AcDbCircle
 10
-463.135325
 20
17.566023
 30
0.0
 40
10.0
100
AcDbArc
 50
90.0
 51
169.473381
  0
LINE
  5
50E
100
AcDbEntity
  8
2
100
AcDbLine
 10
-291.54861
 20
-31.782971
 30
0.0
 11
-290.346938
 21
2.628425
 31
0.0
  0
LINE
  5
50F
100
AcDbEntity
  8
2
100
AcDbLine
 10
-462.157396
 20
27.566023
 30
0.0
 11
-459.733515
 21
41.303601
 31
0.0
  0
LINE
  5
510
100
AcDbEntity
  8
2
100
AcDbLine
 10
-449.885631
 20
49.566023
 30
0.0
 11
-289.748386
 21
49.566023
 31
0.0
  0
ARC
  5
511
100
AcDbEntity
  8
2
100
AcDbCircle
 10
-289.748386
 20
45.566023
 30
0.0
 40
4.0
100
AcDbArc
 50
2.0
 51
90.0
  0
LINE
  5
512
100
AcDbEntity
  8
2
100
AcDbLine
 10
-331.885631
 20
-56.433977
 30
0.0
 11
-331.745948
 21
-52.433977
 31
0.0
  0
LINE
  5
513
100
AcDbEntity
  8
2
100
AcDbLine
 10
-409.885631
 20
-56.433977
 30
0.0
 11
-410.025314
 21
-52.433977
 31
0.0
  0
LINE
  5
514
100
AcDbEntity
  8
2
100
AcDbLine
 10
-339.885631
 20
-56.433977
 30
0.0
 11
-339.745948
 21
-52.433977
 31
0.0
  0
LINE
  5
515
100
AcDbEntity
  8
2
100
AcDbLine
 10
-417.885631
 20
-56.433977
 30
0.0
 11
-418.025314
 21
-52.433977
 31
0.0
  0
LINE
  5
516
100
AcDbEntity
  8
2
100
AcDbLine
 10
-285.750823
 20
45.705621
 30
0.0
 11
-284.59594
 21
12.634127
 31
0.0
  0
ARC
  5
517
100
AcDbEntity
  8
2
100
AcDbCircle
 10
-294.589848
 20
12.285132
 30
0.0
 40
10.0
100
AcDbArc
 50
310.817217
 51
2.000002
  0
ARC
  5
518
100
AcDbEntity
  8
2
100
AcDbCircle
 10
-284.65355
 20
7.566023
 30
0.0
 40
1.0
100
AcDbArc
 50
90.0
 51
154.595261
  0
LINE
  5
519
100
AcDbEntity
  8
2
100
AcDbLine
 10
-272.885631
 20
39.566023
 30
0.0
 11
-272.885631
 21
13.566023
 31
0.0
  0
LINE
  5
51A
100
AcDbEntity
  8
2
100
AcDbLine
 10
-277.885631
 20
39.566023
 30
0.0
 11
-277.885631
 21
13.566023
 31
0.0
  0
LINE
  5
51B
100
AcDbEntity
  8
2
100
AcDbLine
 10
-272.885631
 20
39.566023
 30
0.0
 11
-277.885631
 21
39.566023
 31
0.0
  0
LINE
  5
51C
100
AcDbEntity
  8
2
100
AcDbLine
 10
-277.885631
 20
35.566023
 30
0.0
 11
-280.885631
 21
35.566023
 31
0.0
  0
ARC
  5
51D
100
AcDbEntity
  8
2
100
AcDbCircle
 10
-291.089798
 20
33.066023
 30
0.0
 40
18.204167
100
AcDbArc
 50
339.080182
 51
20.919818
  0
LINE
  5
51E
100
AcDbEntity
  8
2
100
AcDbLine
 10
-272.885631
 20
13.566023
 30
0.0
 11
-277.885631
 21
13.566023
 31
0.0
  0
LINE
  5
51F
100
AcDbEntity
  8
2
100
AcDbLine
 10
-280.885631
 20
17.566023
 30
0.0
 11
-277.885631
 21
17.566023
 31
0.0
  0
ARC
  5
520
100
AcDbEntity
  8
2
100
AcDbCircle
 10
-291.089798
 20
20.066023
 30
0.0
 40
18.204167
100
AcDbArc
 50
339.080182
 51
20.919818
  0
LINE
  5
521
100
AcDbEntity
  8
2
100
AcDbLine
 10
-274.085631
 20
26.566023
 30
0.0
 11
-277.885631
 21
26.566023
 31
0.0
  0
POLYLINE
  5
522
100
AcDbEntity
  8
2
100
AcDb2dPolyline
 66
     1
 10
0.0
 20
0.0
 30
0.0
 70
     1
  0
VERTEX
  5
8EE
100
AcDbEntity
  8
2
100
AcDbVertex
100
AcDb2dVertex
 10
-277.985631
 20
36.566023
 30
0.0
  0
VERTEX
  5
8EF
100
AcDbEntity
  8
2
100
AcDbVertex
100
AcDb2dVertex
 10
-278.013917
 20
36.766023
 30
0.0
  0
VERTEX
  5
8F0
100
AcDbEntity
  8
2
100
AcDbVertex
100
AcDb2dVertex
 10
-278.10251
 20
36.966023
 30
0.0
  0
VERTEX
  5
8F1
100
AcDbEntity
  8
2
100
AcDbVertex
100
AcDb2dVertex
 10
-278.265631
 20
37.166023
 30
0.0
  0
VERTEX
  5
8F2
100
AcDbEntity
  8
2
100
AcDbVertex
100
AcDb2dVertex
 10
-278.545631
 20
37.366023
 30
0.0
  0
VERTEX
  5
8F3
100
AcDbEntity
  8
2
100
AcDbVertex
100
AcDb2dVertex
 10
-279.385631
 20
37.566023
 30
0.0
  0
VERTEX
  5
8F4
100
AcDbEntity
  8
2
100
AcDbVertex
100
AcDb2dVertex
 10
-280.225631
 20
37.366023
 30
0.0
  0
VERTEX
  5
8F5
100
AcDbEntity
  8
2
100
AcDbVertex
100
AcDb2dVertex
 10
-280.505631
 20
37.166023
 30
0.0
  0
VERTEX
  5
8F6
100
AcDbEntity
  8
2
100
AcDbVertex
100
AcDb2dVertex
 10
-280.668752
 20
36.966023
 30
0.0
  0
VERTEX
  5
8F7
100
AcDbEntity
  8
2
100
AcDbVertex
100
AcDb2dVertex
 10
-280.757345
 20
36.766023
 30
0.0
  0
VERTEX
  5
8F8
100
AcDbEntity
  8
2
100
AcDbVertex
100
AcDb2dVertex
 10
-280.785631
 20
36.566023
 30
0.0
  0
VERTEX
  5
8F9
100
AcDbEntity
  8
2
100
AcDbVertex
100
AcDb2dVertex
 10
-280.757345
 20
36.366023
 30
0.0
  0
VERTEX
  5
8FA
100
AcDbEntity
  8
2
100
AcDbVertex
100
AcDb2dVertex
 10
-280.668752
 20
36.166023
 30
0.0
  0
VERTEX
  5
8FB
100
AcDbEntity
  8
2
100
AcDbVertex
100
AcDb2dVertex
 10
-280.505631
 20
35.966023
 30
0.0
  0
VERTEX
  5
8FC
100
AcDbEntity
  8
2
100
AcDbVertex
100
AcDb2dVertex
 10
-280.225631
 20
35.766023
 30
0.0
  0
VERTEX
  5
8FD
100
AcDbEntity
  8
2
100
AcDbVertex
100
AcDb2dVertex
 10
-279.385631
 20
35.566023
 30
0.0
  0
VERTEX
  5
8FE
100
AcDbEntity
  8
2
100
AcDbVertex
100
AcDb2dVertex
 10
-278.545631
 20
35.766023
 30
0.0
  0
VERTEX
  5
8FF
100
AcDbEntity
  8
2
100
AcDbVertex
100
AcDb2dVertex
 10
-278.265631
 20
35.966023
 30
0.0
  0
VERTEX
  5
900
100
AcDbEntity
  8
2
100
AcDbVertex
100
AcDb2dVertex
 10
-278.10251
 20
36.166023
 30
0.0
  0
VERTEX
  5
901
100
AcDbEntity
  8
2
100
AcDbVertex
100
AcDb2dVertex
 10
-278.013917
 20
36.366023
 30
0.0
  0
VERTEX
  5
902
100
AcDbEntity
  8
2
100
AcDbVertex
100
AcDb2dVertex
 10
-277.985631
 20
36.566023
 30
0.0
  0
SEQEND
  5
903
100
AcDbEntity
  8
2
  0
POLYLINE
  5
539
100
AcDbEntity
  8
2
100
AcDb2dPolyline
 66
     1
 10
0.0
 20
0.0
 30
0.0
 70
     1
  0
VERTEX
  5
904
100
AcDbEntity
  8
2
100
AcDbVertex
100
AcDb2dVertex
 10
-277.985631
 20
16.566023
 30
0.0
  0
VERTEX
  5
905
100
AcDbEntity
  8
2
100
AcDbVertex
100
AcDb2dVertex
 10
-278.013917
 20
16.766023
 30
0.0
  0
VERTEX
  5
906
100
AcDbEntity
  8
2
100
AcDbVertex
100
AcDb2dVertex
 10
-278.10251
 20
16.966023
 30
0.0
  0
VERTEX
  5
907
100
AcDbEntity
  8
2
100
AcDbVertex
100
AcDb2dVertex
 10
-278.265631
 20
17.166023
 30
0.0
  0
VERTEX
  5
908
100
AcDbEntity
  8
2
100
AcDbVertex
100
AcDb2dVertex
 10
-278.545631
 20
17.366023
 30
0.0
  0
VERTEX
  5
909
100
AcDbEntity
  8
2
100
AcDbVertex
100
AcDb2dVertex
 10
-279.385631
 20
17.566023
 30
0.0
  0
VERTEX
  5
90A
100
AcDbEntity
  8
2
100
AcDbVertex
100
AcDb2dVertex
 10
-280.225631
 20
17.366023
 30
0.0
  0
VERTEX
  5
90B
100
AcDbEntity
  8
2
100
AcDbVertex
100
AcDb2dVertex
 10
-280.505631
 20
17.166023
 30
0.0
  0
VERTEX
  5
90C
100
AcDbEntity
  8
2
100
AcDbVertex
100
AcDb2dVertex
 10
-280.668752
 20
16.966023
 30
0.0
  0
VERTEX
  5
90D
100
AcDbEntity
  8
2
100
AcDbVertex
100
AcDb2dVertex
 10
-280.757345
 20
16.766023
 30
0.0
  0
VERTEX
  5
90E
100
AcDbEntity
  8
2
100
AcDbVertex
100
AcDb2dVertex
 10
-280.785631
 20
16.566023
 30
0.0
  0
VERTEX
  5
90F
100
AcDbEntity
  8
2
100
AcDbVertex
100
AcDb2dVertex
 10
-280.757345
 20
16.366023
 30
0.0
  0
VERTEX
  5
910
100
AcDbEntity
  8
2
100
AcDbVertex
100
AcDb2dVertex
 10
-280.668752
 20
16.166023
 30
0.0
  0
VERTEX
  5
911
100
AcDbEntity
  8
2
100
AcDbVertex
100
AcDb2dVertex
 10
-280.505631
 20
15.966023
 30
0.0
  0
VERTEX
  5
912
100
AcDbEntity
  8
2
100
AcDbVertex
100
AcDb2dVertex
 10
-280.225631
 20
15.766023
 30
0.0
  0
VERTEX
  5
913
100
AcDbEntity
  8
2
100
AcDbVertex
100
AcDb2dVertex
 10
-279.385631
 20
15.566023
 30
0.0
  0
VERTEX
  5
914
100
AcDbEntity
  8
2
100
AcDbVertex
100
AcDb2dVertex
 10
-278.545631
 20
15.766023
 30
0.0
  0
VERTEX
  5
915
100
AcDbEntity
  8
2
100
AcDbVertex
100
AcDb2dVertex
 10
-278.265631
 20
15.966023
 30
0.0
  0
VERTEX
  5
916
100
AcDbEntity
  8
2
100
AcDbVertex
100
AcDb2dVertex
 10
-278.10251
 20
16.166023
 30
0.0
  0
VERTEX
  5
917
100
AcDbEntity
  8
2
100
AcDbVertex
100
AcDb2dVertex
 10
-278.013917
 20
16.366023
 30
0.0
  0
VERTEX
  5
918
100
AcDbEntity
  8
2
100
AcDbVertex
100
AcDb2dVertex
 10
-277.985631
 20
16.566023
 30
0.0
  0
SEQEND
  5
919
100
AcDbEntity
  8
2
  0
CIRCLE
  5
550
100
AcDbEntity
  8
2
100
AcDbCircle
 10
-460.885631
 20
21.066023
 30
0.0
 40
4.75
  0
LINE
  5
551
100
AcDbEntity
  8
2
100
AcDbLine
 10
-458.435631
 20
20.566023
 30
0.0
 11
-458.435631
 21
21.566023
 31
0.0
  0
LINE
  5
552
100
AcDbEntity
  8
2
100
AcDbLine
 10
-463.335631
 20
20.566023
 30
0.0
 11
-463.335631
 21
21.566023
 31
0.0
  0
LINE
  5
553
100
AcDbEntity
  8
2
100
AcDbLine
 10
-461.385631
 20
23.516023
 30
0.0
 11
-460.385631
 21
23.516023
 31
0.0
  0
LINE
  5
554
100
AcDbEntity
  8
2
100
AcDbLine
 10
-460.385631
 20
18.616023
 30
0.0
 11
-460.385631
 21
19.566023
 31
0.0
  0
LINE
  5
555
100
AcDbEntity
  8
2
100
AcDbLine
 10
-460.385631
 20
22.566023
 30
0.0
 11
-460.385631
 21
23.516023
 31
0.0
  0
LINE
  5
556
100
AcDbEntity
  8
2
100
AcDbLine
 10
-463.335631
 20
20.566023
 30
0.0
 11
-462.385631
 21
20.566023
 31
0.0
  0
LINE
  5
557
100
AcDbEntity
  8
2
100
AcDbLine
 10
-459.385631
 20
20.566023
 30
0.0
 11
-458.435631
 21
20.566023
 31
0.0
  0
LINE
  5
558
100
AcDbEntity
  8
2
100
AcDbLine
 10
-461.385631
 20
18.616023
 30
0.0
 11
-461.385631
 21
19.566023
 31
0.0
  0
LINE
  5
559
100
AcDbEntity
  8
2
100
AcDbLine
 10
-461.385631
 20
22.566023
 30
0.0
 11
-461.385631
 21
23.516023
 31
0.0
  0
LINE
  5
55A
100
AcDbEntity
  8
2
100
AcDbLine
 10
-463.335631
 20
21.566023
 30
0.0
 11
-462.385631
 21
21.566023
 31
0.0
  0
LINE
  5
55B
100
AcDbEntity
  8
2
100
AcDbLine
 10
-459.385631
 20
21.566023
 30
0.0
 11
-458.435631
 21
21.566023
 31
0.0
  0
ARC
  5
55C
100
AcDbEntity
  8
2
100
AcDbCircle
 10
-459.385631
 20
22.566023
 30
0.0
 40
1.0
100
AcDbArc
 50
180.0
 51
270.0
  0
ARC
  5
55D
100
AcDbEntity
  8
2
100
AcDbCircle
 10
-462.385631
 20
22.566023
 30
0.0
 40
1.0
100
AcDbArc
 50
270.0
 51
0.0
  0
ARC
  5
55E
100
AcDbEntity
  8
2
100
AcDbCircle
 10
-462.385631
 20
19.566023
 30
0.0
 40
1.0
100
AcDbArc
 50
0.0
 51
90.0
  0
ARC
  5
55F
100
AcDbEntity
  8
2
100
AcDbCircle
 10
-459.385631
 20
19.566023
 30
0.0
 40
1.0
100
AcDbArc
 50
90.0
 51
180.0
  0
LINE
  5
560
100
AcDbEntity
  8
2
100
AcDbLine
 10
-461.385631
 20
18.616023
 30
0.0
 11
-460.385631
 21
18.616023
 31
0.0
  0
CIRCLE
  5
561
100
AcDbEntity
  8
2
100
AcDbCircle
 10
-462.885631
 20
-45.433977
 30
0.0
 40
4.75
  0
LINE
  5
562
100
AcDbEntity
  8
2
100
AcDbLine
 10
-460.435631
 20
-45.933977
 30
0.0
 11
-460.435631
 21
-44.933977
 31
0.0
  0
LINE
  5
563
100
AcDbEntity
  8
2
100
AcDbLine
 10
-465.335631
 20
-45.933977
 30
0.0
 11
-465.335631
 21
-44.933977
 31
0.0
  0
LINE
  5
564
100
AcDbEntity
  8
2
100
AcDbLine
 10
-463.385631
 20
-42.983977
 30
0.0
 11
-462.385631
 21
-42.983977
 31
0.0
  0
LINE
  5
565
100
AcDbEntity
  8
2
100
AcDbLine
 10
-462.385631
 20
-47.883977
 30
0.0
 11
-462.385631
 21
-46.933977
 31
0.0
  0
LINE
  5
566
100
AcDbEntity
  8
2
100
AcDbLine
 10
-462.385631
 20
-43.933977
 30
0.0
 11
-462.385631
 21
-42.983977
 31
0.0
  0
LINE
  5
567
100
AcDbEntity
  8
2
100
AcDbLine
 10
-465.335631
 20
-45.933977
 30
0.0
 11
-464.385631
 21
-45.933977
 31
0.0
  0
LINE
  5
568
100
AcDbEntity
  8
2
100
AcDbLine
 10
-461.385631
 20
-45.933977
 30
0.0
 11
-460.435631
 21
-45.933977
 31
0.0
  0
LINE
  5
569
100
AcDbEntity
  8
2
100
AcDbLine
 10
-463.385631
 20
-47.883977
 30
0.0
 11
-463.385631
 21
-46.933977
 31
0.0
  0
LINE
  5
56A
100
AcDbEntity
  8
2
100
AcDbLine
 10
-463.385631
 20
-43.933977
 30
0.0
 11
-463.385631
 21
-42.983977
 31
0.0
  0
LINE
  5
56B
100
AcDbEntity
  8
2
100
AcDbLine
 10
-465.335631
 20
-44.933977
 30
0.0
 11
-464.385631
 21
-44.933977
 31
0.0
  0
LINE
  5
56C
100
AcDbEntity
  8
2
100
AcDbLine
 10
-461.385631
 20
-44.933977
 30
0.0
 11
-460.435631
 21
-44.933977
 31
0.0
  0
ARC
  5
56D
100
AcDbEntity
  8
2
100
AcDbCircle
 10
-461.385631
 20
-43.933977
 30
0.0
 40
1.0
100
AcDbArc
 50
180.0
 51
270.0
  0
ARC
  5
56E
100
AcDbEntity
  8
2
100
AcDbCircle
 10
-464.385631
 20
-43.933977
 30
0.0
 40
1.0
100
AcDbArc
 50
270.0
 51
0.0
  0
ARC
  5
56F
100
AcDbEntity
  8
2
100
AcDbCircle
 10
-464.385631
 20
-46.933977
 30
0.0
 40
1.0
100
AcDbArc
 50
0.0
 51
90.0
  0
ARC
  5
570
100
AcDbEntity
  8
2
100
AcDbCircle
 10
-461.385631
 20
-46.933977
 30
0.0
 40
1.0
100
AcDbArc
 50
90.0
 51
180.0
  0
LINE
  5
571
100
AcDbEntity
  8
2
100
AcDbLine
 10
-463.385631
 20
-47.883977
 30
0.0
 11
-462.385631
 21
-47.883977
 31
0.0
  0
CIRCLE
  5
572
100
AcDbEntity
  8
2
100
AcDbCircle
 10
-403.385631
 20
-47.433977
 30
0.0
 40
4.75
  0
LINE
  5
573
100
AcDbEntity
  8
2
100
AcDbLine
 10
-400.935631
 20
-47.933977
 30
0.0
 11
-400.935631
 21
-46.933977
 31
0.0
  0
LINE
  5
574
100
AcDbEntity
  8
2
100
AcDbLine
 10
-405.835631
 20
-47.933977
 30
0.0
 11
-405.835631
 21
-46.933977
 31
0.0
  0
LINE
  5
575
100
AcDbEntity
  8
2
100
AcDbLine
 10
-403.885631
 20
-44.983977
 30
0.0
 11
-402.885631
 21
-44.983977
 31
0.0
  0
LINE
  5
576
100
AcDbEntity
  8
2
100
AcDbLine
 10
-402.885631
 20
-49.883977
 30
0.0
 11
-402.885631
 21
-48.933977
 31
0.0
  0
LINE
  5
577
100
AcDbEntity
  8
2
100
AcDbLine
 10
-402.885631
 20
-45.933977
 30
0.0
 11
-402.885631
 21
-44.983977
 31
0.0
  0
LINE
  5
578
100
AcDbEntity
  8
2
100
AcDbLine
 10
-405.835631
 20
-47.933977
 30
0.0
 11
-404.885631
 21
-47.933977
 31
0.0
  0
LINE
  5
579
100
AcDbEntity
  8
2
100
AcDbLine
 10
-401.885631
 20
-47.933977
 30
0.0
 11
-400.935631
 21
-47.933977
 31
0.0
  0
LINE
  5
57A
100
AcDbEntity
  8
2
100
AcDbLine
 10
-403.885631
 20
-49.883977
 30
0.0
 11
-403.885631
 21
-48.933977
 31
0.0
  0
LINE
  5
57B
100
AcDbEntity
  8
2
100
AcDbLine
 10
-403.885631
 20
-45.933977
 30
0.0
 11
-403.885631
 21
-44.983977
 31
0.0
  0
LINE
  5
57C
100
AcDbEntity
  8
2
100
AcDbLine
 10
-405.835631
 20
-46.933977
 30
0.0
 11
-404.885631
 21
-46.933977
 31
0.0
  0
LINE
  5
57D
100
AcDbEntity
  8
2
100
AcDbLine
 10
-401.885631
 20
-46.933977
 30
0.0
 11
-400.935631
 21
-46.933977
 31
0.0
  0
ARC
  5
57E
100
AcDbEntity
  8
2
100
AcDbCircle
 10
-401.885631
 20
-45.933977
 30
0.0
 40
1.0
100
AcDbArc
 50
180.0
 51
270.0
  0
ARC
  5
57F
100
AcDbEntity
  8
2
100
AcDbCircle
 10
-404.885631
 20
-45.933977
 30
0.0
 40
1.0
100
AcDbArc
 50
270.0
 51
0.0
  0
ARC
  5
580
100
AcDbEntity
  8
2
100
AcDbCircle
 10
-404.885631
 20
-48.933977
 30
0.0
 40
1.0
100
AcDbArc
 50
0.0
 51
90.0
  0
ARC
  5
581
100
AcDbEntity
  8
2
100
AcDbCircle
 10
-401.885631
 20
-48.933977
 30
0.0
 40
1.0
100
AcDbArc
 50
90.0
 51
180.0
  0
LINE
  5
582
100
AcDbEntity
  8
2
100
AcDbLine
 10
-403.885631
 20
-49.883977
 30
0.0
 11
-402.885631
 21
-49.883977
 31
0.0
  0
CIRCLE
  5
583
100
AcDbEntity
  8
2
100
AcDbCircle
 10
-319.885631
 20
-45.433977
 30
0.0
 40
4.75
  0
LINE
  5
584
100
AcDbEntity
  8
2
100
AcDbLine
 10
-317.435631
 20
-45.933977
 30
0.0
 11
-317.435631
 21
-44.933977
 31
0.0
  0
LINE
  5
585
100
AcDbEntity
  8
2
100
AcDbLine
 10
-322.335631
 20
-45.933977
 30
0.0
 11
-322.335631
 21
-44.933977
 31
0.0
  0
LINE
  5
586
100
AcDbEntity
  8
2
100
AcDbLine
 10
-320.385631
 20
-42.983977
 30
0.0
 11
-319.385631
 21
-42.983977
 31
0.0
  0
LINE
  5
587
100
AcDbEntity
  8
2
100
AcDbLine
 10
-319.385631
 20
-47.883977
 30
0.0
 11
-319.385631
 21
-46.933977
 31
0.0
  0
LINE
  5
588
100
AcDbEntity
  8
2
100
AcDbLine
 10
-319.385631
 20
-43.933977
 30
0.0
 11
-319.385631
 21
-42.983977
 31
0.0
  0
LINE
  5
589
100
AcDbEntity
  8
2
100
AcDbLine
 10
-322.335631
 20
-45.933977
 30
0.0
 11
-321.385631
 21
-45.933977
 31
0.0
  0
LINE
  5
58A
100
AcDbEntity
  8
2
100
AcDbLine
 10
-318.385631
 20
-45.933977
 30
0.0
 11
-317.435631
 21
-45.933977
 31
0.0
  0
LINE
  5
58B
100
AcDbEntity
  8
2
100
AcDbLine
 10
-320.385631
 20
-47.883977
 30
0.0
 11
-320.385631
 21
-46.933977
 31
0.0
  0
LINE
  5
58C
100
AcDbEntity
  8
2
100
AcDbLine
 10
-320.385631
 20
-43.933977
 30
0.0
 11
-320.385631
 21
-42.983977
 31
0.0
  0
LINE
  5
58D
100
AcDbEntity
  8
2
100
AcDbLine
 10
-322.335631
 20
-44.933977
 30
0.0
 11
-321.385631
 21
-44.933977
 31
0.0
  0
LINE
  5
58E
100
AcDbEntity
  8
2
100
AcDbLine
 10
-318.385631
 20
-44.933977
 30
0.0
 11
-317.435631
 21
-44.933977
 31
0.0
  0
ARC
  5
58F
100
AcDbEntity
  8
2
100
AcDbCircle
 10
-318.385631
 20
-43.933977
 30
0.0
 40
1.0
100
AcDbArc
 50
180.0
 51
270.0
  0
ARC
  5
590
100
AcDbEntity
  8
2
100
AcDbCircle
 10
-321.385631
 20
-43.933977
 30
0.0
 40
1.0
100
AcDbArc
 50
270.0
 51
0.0
  0
ARC
  5
591
100
AcDbEntity
  8
2
100
AcDbCircle
 10
-321.385631
 20
-46.933977
 30
0.0
 40
1.0
100
AcDbArc
 50
0.0
 51
90.0
  0
ARC
  5
592
100
AcDbEntity
  8
2
100
AcDbCircle
 10
-318.385631
 20
-46.933977
 30
0.0
 40
1.0
100
AcDbArc
 50
90.0
 51
180.0
  0
LINE
  5
593
100
AcDbEntity
  8
2
100
AcDbLine
 10
-320.385631
 20
-47.883977
 30
0.0
 11
-319.385631
 21
-47.883977
 31
0.0
  0
CIRCLE
  5
594
100
AcDbEntity
  8
2
100
AcDbCircle
 10
-321.885631
 20
21.066023
 30
0.0
 40
4.75
  0
LINE
  5
595
100
AcDbEntity
  8
2
100
AcDbLine
 10
-319.435631
 20
20.566023
 30
0.0
 11
-319.435631
 21
21.566023
 31
0.0
  0
LINE
  5
596
100
AcDbEntity
  8
2
100
AcDbLine
 10
-324.335631
 20
20.566023
 30
0.0
 11
-324.335631
 21
21.566023
 31
0.0
  0
LINE
  5
597
100
AcDbEntity
  8
2
100
AcDbLine
 10
-322.385631
 20
23.516023
 30
0.0
 11
-321.385631
 21
23.516023
 31
0.0
  0
LINE
  5
598
100
AcDbEntity
  8
2
100
AcDbLine
 10
-321.385631
 20
18.616023
 30
0.0
 11
-321.385631
 21
19.566023
 31
0.0
  0
LINE
  5
599
100
AcDbEntity
  8
2
100
AcDbLine
 10
-321.385631
 20
22.566023
 30
0.0
 11
-321.385631
 21
23.516023
 31
0.0
  0
LINE
  5
59A
100
AcDbEntity
  8
2
100
AcDbLine
 10
-324.335631
 20
20.566023
 30
0.0
 11
-323.385631
 21
20.566023
 31
0.0
  0
LINE
  5
59B
100
AcDbEntity
  8
2
100
AcDbLine
 10
-320.385631
 20
20.566023
 30
0.0
 11
-319.435631
 21
20.566023
 31
0.0
  0
LINE
  5
59C
100
AcDbEntity
  8
2
100
AcDbLine
 10
-322.385631
 20
18.616023
 30
0.0
 11
-322.385631
 21
19.566023
 31
0.0
  0
LINE
  5
59D
100
AcDbEntity
  8
2
100
AcDbLine
 10
-322.385631
 20
22.566023
 30
0.0
 11
-322.385631
 21
23.516023
 31
0.0
  0
LINE
  5
59E
100
AcDbEntity
  8
2
100
AcDbLine
 10
-324.335631
 20
21.566023
 30
0.0
 11
-323.385631
 21
21.566023
 31
0.0
  0
LINE
  5
59F
100
AcDbEntity
  8
2
100
AcDbLine
 10
-320.385631
 20
21.566023
 30
0.0
 11
-319.435631
 21
21.566023
 31
0.0
  0
ARC
  5
5A0
100
AcDbEntity
  8
2
100
AcDbCircle
 10
-320.385631
 20
22.566023
 30
0.0
 40
1.0
100
AcDbArc
 50
180.0
 51
270.0
  0
ARC
  5
5A1
100
AcDbEntity
  8
2
100
AcDbCircle
 10
-323.385631
 20
22.566023
 30
0.0
 40
1.0
100
AcDbArc
 50
270.0
 51
0.0
  0
ARC
  5
5A2
100
AcDbEntity
  8
2
100
AcDbCircle
 10
-323.385631
 20
19.566023
 30
0.0
 40
1.0
100
AcDbArc
 50
0.0
 51
90.0
  0
ARC
  5
5A3
100
AcDbEntity
  8
2
100
AcDbCircle
 10
-320.385631
 20
19.566023
 30
0.0
 40
1.0
100
AcDbArc
 50
90.0
 51
180.0
  0
LINE
  5
5A4
100
AcDbEntity
  8
2
100
AcDbLine
 10
-322.385631
 20
18.616023
 30
0.0
 11
-321.385631
 21
18.616023
 31
0.0
  0
CIRCLE
  5
5A5
100
AcDbEntity
  8
2
100
AcDbCircle
 10
-403.385631
 20
20.566023
 30
0.0
 40
4.75
  0
LINE
  5
5A6
100
AcDbEntity
  8
2
100
AcDbLine
 10
-400.935631
 20
20.066023
 30
0.0
 11
-400.935631
 21
21.066023
 31
0.0
  0
LINE
  5
5A7
100
AcDbEntity
  8
2
100
AcDbLine
 10
-405.835631
 20
20.066023
 30
0.0
 11
-405.835631
 21
21.066023
 31
0.0
  0
LINE
  5
5A8
100
AcDbEntity
  8
2
100
AcDbLine
 10
-403.885631
 20
23.016023
 30
0.0
 11
-402.885631
 21
23.016023
 31
0.0
  0
LINE
  5
5A9
100
AcDbEntity
  8
2
100
AcDbLine
 10
-402.885631
 20
18.116023
 30
0.0
 11
-402.885631
 21
19.066023
 31
0.0
  0
LINE
  5
5AA
100
AcDbEntity
  8
2
100
AcDbLine
 10
-402.885631
 20
22.066023
 30
0.0
 11
-402.885631
 21
23.016023
 31
0.0
  0
LINE
  5
5AB
100
AcDbEntity
  8
2
100
AcDbLine
 10
-405.835631
 20
20.066023
 30
0.0
 11
-404.885631
 21
20.066023
 31
0.0
  0
LINE
  5
5AC
100
AcDbEntity
  8
2
100
AcDbLine
 10
-401.885631
 20
20.066023
 30
0.0
 11
-400.935631
 21
20.066023
 31
0.0
  0
LINE
  5
5AD
100
AcDbEntity
  8
2
100
AcDbLine
 10
-403.885631
 20
18.116023
 30
0.0
 11
-403.885631
 21
19.066023
 31
0.0
  0
LINE
  5
5AE
100
AcDbEntity
  8
2
100
AcDbLine
 10
-403.885631
 20
22.066023
 30
0.0
 11
-403.885631
 21
23.016023
 31
0.0
  0
LINE
  5
5AF
100
AcDbEntity
  8
2
100
AcDbLine
 10
-405.835631
 20
21.066023
 30
0.0
 11
-404.885631
 21
21.066023
 31
0.0
  0
LINE
  5
5B0
100
AcDbEntity
  8
2
100
AcDbLine
 10
-401.885631
 20
21.066023
 30
0.0
 11
-400.935631
 21
21.066023
 31
0.0
  0
ARC
  5
5B1
100
AcDbEntity
  8
2
100
AcDbCircle
 10
-401.885631
 20
22.066023
 30
0.0
 40
1.0
100
AcDbArc
 50
180.0
 51
270.0
  0
ARC
  5
5B2
100
AcDbEntity
  8
2
100
AcDbCircle
 10
-404.885631
 20
22.066023
 30
0.0
 40
1.0
100
AcDbArc
 50
270.0
 51
0.0
  0
ARC
  5
5B3
100
AcDbEntity
  8
2
100
AcDbCircle
 10
-404.885631
 20
19.066023
 30
0.0
 40
1.0
100
AcDbArc
 50
0.0
 51
90.0
  0
ARC
  5
5B4
100
AcDbEntity
  8
2
100
AcDbCircle
 10
-401.885631
 20
19.066023
 30
0.0
 40
1.0
100
AcDbArc
 50
90.0
 51
180.0
  0
LINE
  5
5B5
100
AcDbEntity
  8
2
100
AcDbLine
 10
-403.885631
 20
18.116023
 30
0.0
 11
-402.885631
 21
18.116023
 31
0.0
  0
LINE
  5
5B6
100
AcDbEntity
  8
2
100
AcDbLine
 10
-344.969007
 20
-10.933977
 30
0.0
 11
-347.802255
 21
-10.933977
 31
0.0
  0
LINE
  5
5B7
100
AcDbEntity
  8
2
100
AcDbLine
 10
-344.969007
 20
-15.933977
 30
0.0
 11
-347.802255
 21
-15.933977
 31
0.0
  0
LINE
  5
5B8
100
AcDbEntity
  8
2
100
AcDbLine
 10
-349.245631
 20
-13.433977
 30
0.0
 11
-347.802255
 21
-10.933977
 31
0.0
  0
LINE
  5
5B9
100
AcDbEntity
  8
2
100
AcDbLine
 10
-349.245631
 20
-13.433977
 30
0.0
 11
-347.802255
 21
-15.933977
 31
0.0
  0
LINE
  5
5BA
100
AcDbEntity
  8
2
100
AcDbLine
 10
-343.525631
 20
-13.433977
 30
0.0
 11
-344.969007
 21
-10.933977
 31
0.0
  0
LINE
  5
5BB
100
AcDbEntity
  8
2
100
AcDbLine
 10
-343.525631
 20
-13.433977
 30
0.0
 11
-344.969007
 21
-15.933977
 31
0.0
  0
CIRCLE
  5
5BC
100
AcDbEntity
  8
2
100
AcDbCircle
 10
-346.385631
 20
-13.433977
 30
0.0
 40
12.5
  0
CIRCLE
  5
5BD
100
AcDbEntity
  8
2
100
AcDbCircle
 10
-346.385631
 20
-13.433977
 30
0.0
 40
12.2
  0
LINE
  5
5BE
100
AcDbEntity
  8
2
100
AcDbLine
 10
-392.885631
 20
-4.433977
 30
0.0
 11
-392.885631
 21
0.566023
 31
0.0
  0
LINE
  5
5BF
100
AcDbEntity
  8
2
100
AcDbLine
 10
-412.885631
 20
0.566023
 30
0.0
 11
-412.885631
 21
-14.433977
 31
0.0
  0
LINE
  5
5C0
100
AcDbEntity
  8
2
100
AcDbLine
 10
-402.885631
 20
0.566023
 30
0.0
 11
-402.885631
 21
-29.433977
 31
0.0
  0
LINE
  5
5C1
100
AcDbEntity
  8
2
100
AcDbLine
 10
-412.885631
 20
-4.433977
 30
0.0
 11
-392.885631
 21
-4.433977
 31
0.0
  0
LINE
  5
5C2
100
AcDbEntity
  8
2
100
AcDbLine
 10
-402.885631
 20
0.566023
 30
0.0
 11
-412.885631
 21
-4.433977
 31
0.0
  0
LINE
  5
5C3
100
AcDbEntity
  8
2
100
AcDbLine
 10
-412.885631
 20
0.566023
 30
0.0
 11
-382.885631
 21
0.566023
 31
0.0
  0
LINE
  5
5C4
100
AcDbEntity
  8
2
100
AcDbLine
 10
-392.885631
 20
-29.433977
 30
0.0
 11
-392.885631
 21
-9.433977
 31
0.0
  0
LINE
  5
5C5
100
AcDbEntity
  8
2
100
AcDbLine
 10
-402.885631
 20
-29.433977
 30
0.0
 11
-392.885631
 21
-29.433977
 31
0.0
  0
LINE
  5
5C6
100
AcDbEntity
  8
2
100
AcDbLine
 10
-412.885631
 20
-14.433977
 30
0.0
 11
-382.885631
 21
0.566023
 31
0.0
  0
LINE
  5
5C7
100
AcDbEntity
  8
2
100
AcDbLine
 10
-412.885631
 20
-9.433977
 30
0.0
 11
-392.885631
 21
-9.433977
 31
0.0
  0
LINE
  5
5C8
100
AcDbEntity
  8
2
100
AcDbLine
 10
-392.885631
 20
0.566023
 30
0.0
 11
-412.885631
 21
-9.433977
 31
0.0
  0
ARC
  5
5C9
100
AcDbEntity
  8
2
100
AcDbCircle
 10
-347.885631
 20
-13.433977
 30
0.0
 40
83.0
100
AcDbArc
 50
176.553145
 51
183.446855
  0
ARC
  5
5CA
100
AcDbEntity
  8
2
 62
     2
100
AcDbCircle
 10
-404.885631
 20
-11.233977
 30
0.0
 40
32.187
100
AcDbArc
 50
101.806726
 51
173.839455
  0
ARC
  5
5CB
100
AcDbEntity
  8
2
100
AcDbCircle
 10
-404.885631
 20
-11.233977
 30
0.0
 40
26.0
100
AcDbArc
 50
94.86353
 51
173.839455
  0
ARC
  5
5CC
100
AcDbEntity
  8
2
100
AcDbCircle
 10
-404.885631
 20
-15.633977
 30
0.0
 40
26.0
100
AcDbArc
 50
186.160545
 51
265.13647
  0
ARC
  5
5CD
100
AcDbEntity
  8
2
 62
     2
100
AcDbCircle
 10
-472.385631
 20
-13.433977
 30
0.0
 40
162.47
100
AcDbArc
 50
359.375245
 51
0.624755
  0
ARC
  5
5CE
100
AcDbEntity
  8
2
 62
     2
100
AcDbCircle
 10
-404.885631
 20
-15.633977
 30
0.0
 40
32.187
100
AcDbArc
 50
186.160545
 51
258.193274
  0
ARC
  5
5CF
100
AcDbEntity
  8
2
 62
     2
100
AcDbCircle
 10
-347.885631
 20
-13.433977
 30
0.0
 40
89.187
100
AcDbArc
 50
176.553145
 51
183.446855
  0
ARC
  5
5D0
100
AcDbEntity
  8
2
 62
     2
100
AcDbCircle
 10
-342.385631
 20
-15.933977
 30
0.0
 40
32.47
100
AcDbArc
 50
269.465549
 51
299.701491
  0
ARC
  5
5D1
100
AcDbEntity
  8
2
 62
     2
100
AcDbCircle
 10
-342.385631
 20
-15.933977
 30
0.0
 40
32.47
100
AcDbArc
 50
314.964901
 51
1.442841
  0
ARC
  5
5D2
100
AcDbEntity
  8
2
 62
     2
100
AcDbCircle
 10
-319.885631
 20
-45.433977
 30
0.0
 40
6.0
100
AcDbArc
 50
96.94736
 51
157.719031
  0
ARC
  5
5D3
100
AcDbEntity
  8
2
 62
     2
100
AcDbCircle
 10
-321.885631
 20
21.066023
 30
0.0
 40
6.0
100
AcDbArc
 50
216.425439
 51
254.880724
  0
ARC
  5
5D4
100
AcDbEntity
  8
2
 62
     2
100
AcDbCircle
 10
-342.385631
 20
-10.933977
 30
0.0
 40
32.47
100
AcDbArc
 50
358.557159
 51
52.8207
  0
ARC
  5
5D5
100
AcDbEntity
  8
2
 62
     2
100
AcDbCircle
 10
-342.385631
 20
-10.933977
 30
0.0
 40
32.47
100
AcDbArc
 50
61.140224
 51
90.534451
  0
ARC
  5
5D6
100
AcDbEntity
  8
2
 62
     2
100
AcDbCircle
 10
-411.062222
 20
18.314368
 30
0.0
 40
2.0
100
AcDbArc
 50
16.347175
 51
101.806726
  0
ARC
  5
5D7
100
AcDbEntity
  8
2
 62
     2
100
AcDbCircle
 10
-411.062222
 20
-45.182322
 30
0.0
 40
2.0
100
AcDbArc
 50
258.193274
 51
343.652825
  0
ARC
  5
5D8
100
AcDbEntity
  8
2
 62
     2
100
AcDbCircle
 10
-327.288317
 20
-42.400786
 30
0.0
 40
2.0
100
AcDbArc
 50
299.701491
 51
337.719031
  0
ARC
  5
5D9
100
AcDbEntity
  8
2
 62
     2
100
AcDbCircle
 10
-320.85329
 20
-37.492715
 30
0.0
 40
2.0
100
AcDbArc
 50
276.94736
 51
314.964901
  0
ARC
  5
5DA
100
AcDbEntity
  8
2
 62
     2
100
AcDbCircle
 10
-323.972265
 20
13.342944
 30
0.0
 40
2.0
100
AcDbArc
 50
52.8207
 51
74.880724
  0
LINE
  5
5DB
100
AcDbEntity
  8
2
100
AcDbLine
 10
-463.135325
 20
27.566023
 30
0.0
 11
-320.192746
 21
27.566023
 31
0.0
  0
ARC
  5
5DC
100
AcDbEntity
  8
2
100
AcDbCircle
 10
-463.135325
 20
17.566023
 30
0.0
 40
10.0
100
AcDbArc
 50
90.0
 51
169.473381
  0
ARC
  5
5DD
100
AcDbEntity
  8
2
100
AcDbCircle
 10
-320.192746
 20
17.566023
 30
0.0
 40
10.0
100
AcDbArc
 50
13.342364
 51
90.0
  0
ARC
  5
5DE
100
AcDbEntity
  8
2
100
AcDbCircle
 10
-421.385631
 20
-6.433977
 30
0.0
 40
114.0
100
AcDbArc
 50
0.0
 51
13.342364
  0
LINE
  5
5DF
100
AcDbEntity
  8
2
100
AcDbLine
 10
-463.4868
 20
-52.433977
 30
0.0
 11
-319.739185
 21
-52.433977
 31
0.0
  0
ARC
  5
5E0
100
AcDbEntity
  8
2
100
AcDbCircle
 10
-319.739185
 20
-42.433977
 30
0.0
 40
10.0
100
AcDbArc
 50
270.0
 51
347.787475
  0
ARC
  5
5E1
100
AcDbEntity
  8
2
100
AcDbCircle
 10
-421.385631
 20
-20.433977
 30
0.0
 40
114.0
100
AcDbArc
 50
347.787475
 51
360.0
  0
LINE
  5
5E2
100
AcDbEntity
  8
2
100
AcDbLine
 10
-307.385631
 20
-6.433977
 30
0.0
 11
-307.385631
 21
-20.433977
 31
0.0
  0
ARC
  5
5E3
100
AcDbEntity
  8
2
100
AcDbCircle
 10
-360.885631
 20
-1.433977
 30
0.0
 40
114.0
100
AcDbArc
 50
169.473381
 51
180.0
  0
LINE
  5
5E4
100
AcDbEntity
  8
2
100
AcDbLine
 10
-474.885631
 20
-1.433977
 30
0.0
 11
-474.885631
 21
-25.433977
 31
0.0
  0
ARC
  5
5E5
100
AcDbEntity
  8
2
100
AcDbCircle
 10
-360.885631
 20
-25.433977
 30
0.0
 40
114.0
100
AcDbArc
 50
180.0
 51
189.407874
  0
ARC
  5
5E6
100
AcDbEntity
  8
2
100
AcDbCircle
 10
-463.4868
 20
-42.433977
 30
0.0
 40
10.0
100
AcDbArc
 50
189.407874
 51
270.0
  0
LINE
  5
5E7
100
AcDbEntity
  8
2
 62
     2
100
AcDbLine
 10
-342.688504
 20
21.534611
 30
0.0
 11
-395.550874
 21
21.0415
 31
0.0
  0
LINE
  5
5E8
100
AcDbEntity
  8
2
 62
     2
100
AcDbLine
 10
-342.688504
 20
-48.402564
 30
0.0
 11
-395.550874
 21
-47.909453
 31
0.0
  0
ARC
  5
5E9
100
AcDbEntity
  8
2
 62
     2
100
AcDbCircle
 10
-395.532218
 20
19.041587
 30
0.0
 40
2.0
100
AcDbArc
 50
90.534451
 51
169.014853
  0
ARC
  5
5EA
100
AcDbEntity
  8
2
 62
     2
100
AcDbCircle
 10
-395.532218
 20
-45.90954
 30
0.0
 40
2.0
100
AcDbArc
 50
190.985147
 51
269.465549
  0
ARC
  5
5EB
100
AcDbEntity
  8
2
 62
     2
100
AcDbCircle
 10
-403.385631
 20
20.566023
 30
0.0
 40
6.0
100
AcDbArc
 50
196.347175
 51
252.742145
  0
ARC
  5
5EC
100
AcDbEntity
  8
2
 62
     2
100
AcDbCircle
 10
-403.385631
 20
20.566023
 30
0.0
 40
6.0
100
AcDbArc
 50
296.984916
 51
349.014853
  0
ARC
  5
5ED
100
AcDbEntity
  8
2
 62
     2
100
AcDbCircle
 10
-403.385631
 20
-47.433977
 30
0.0
 40
6.0
100
AcDbArc
 50
10.985147
 51
63.015084
  0
ARC
  5
5EE
100
AcDbEntity
  8
2
 62
     2
100
AcDbCircle
 10
-403.385631
 20
-47.433977
 30
0.0
 40
6.0
100
AcDbArc
 50
107.257855
 51
163.652825
  0
CIRCLE
  5
5EF
100
AcDbEntity
  8
2
100
AcDbCircle
 10
-346.385631
 20
-13.433977
 30
0.0
 40
12.5
  0
LINE
  5
5F0
100
AcDbEntity
  8
2
100
AcDbLine
 10
-345.013895
 20
-46.82236
 30
0.0
 11
-407.089982
 21
-41.540363
 31
0.0
  0
LINE
  5
5F1
100
AcDbEntity
  8
2
100
AcDbLine
 10
-345.013895
 20
19.954407
 30
0.0
 11
-407.089982
 21
14.67241
 31
0.0
  0
ARC
  5
5F2
100
AcDbEntity
  8
2
100
AcDbCircle
 10
-342.385631
 20
-10.933977
 30
0.0
 40
31.0
100
AcDbArc
 50
3.61268
 51
94.86353
  0
ARC
  5
5F3
100
AcDbEntity
  8
2
100
AcDbCircle
 10
-472.385631
 20
-13.433977
 30
0.0
 40
161.0
100
AcDbArc
 50
358.414964
 51
1.585036
  0
ARC
  5
5F4
100
AcDbEntity
  8
2
100
AcDbCircle
 10
-342.385631
 20
-15.933977
 30
0.0
 40
31.0
100
AcDbArc
 50
265.13647
 51
356.38732
  0
ARC
  5
5F5
100
AcDbEntity
  8
2
100
AcDbCircle
 10
-345.885631
 20
-13.433977
 30
0.0
 40
15.0
100
AcDbArc
 50
23.267823
 51
154.780192
  0
LINE
  5
5F6
100
AcDbEntity
  8
2
100
AcDbLine
 10
-359.455828
 20
-7.042595
 30
0.0
 11
-363.974088
 21
-4.433977
 31
0.0
  0
LINE
  5
5F7
100
AcDbEntity
  8
2
100
AcDbLine
 10
-333.667695
 20
-8.077086
 30
0.0
 11
-329.908925
 21
-6.709005
 31
0.0
  0
ARC
  5
5F8
100
AcDbEntity
  8
2
100
AcDbCircle
 10
-348.385631
 20
-13.433977
 30
0.0
 40
18.0
100
AcDbArc
 50
20.0
 51
150.0
  0
LINE
  5
5F9
100
AcDbEntity
  8
2
100
AcDbLine
 10
-329.908925
 20
-6.709005
 30
0.0
 11
-330.385631
 21
-13.433977
 31
0.0
  0
LINE
  5
5FA
100
AcDbEntity
  8
2
100
AcDbLine
 10
-330.385631
 20
-13.433977
 30
0.0
 11
-333.667695
 21
-8.077086
 31
0.0
  0
TEXT
  5
5FB
100
AcDbEntity
  8
2
100
AcDbText
 10
-334.901068
 20
-20.402221
 30
0.0
 40
6.0
  1
Ｓ
 41
1.4
 72
     5
 11
-328.181068
 21
-20.402221
 31
0.0
100
AcDbText
  0
LINE
  5
5FC
100
AcDbEntity
  8
2
  6
CENTER
 62
     2
100
AcDbLine
 10
-346.385631
 20
-55.851581
 30
0.0
 11
-346.385631
 21
35.400265
 31
0.0
  0
LINE
  5
5FD
100
AcDbEntity
  8
2
  6
CENTER
 62
     2
100
AcDbLine
 10
-299.527105
 20
26.566023
 30
0.0
 11
-262.670571
 21
26.566023
 31
0.0
  0
LINE
  5
5FE
100
AcDbEntity
  8
2
  6
CENTER
 62
     2
100
AcDbLine
 10
-460.885631
 20
12.316023
 30
0.0
 11
-460.885631
 21
29.816023
 31
0.0
  0
LINE
  5
5FF
100
AcDbEntity
  8
2
  6
CENTER
 62
     2
100
AcDbLine
 10
-462.885631
 20
-36.683977
 30
0.0
 11
-462.885631
 21
-54.183977
 31
0.0
  0
LINE
  5
600
100
AcDbEntity
  8
2
  6
CENTER
 62
     2
100
AcDbLine
 10
-471.635631
 20
-45.433977
 30
0.0
 11
-454.135631
 21
-45.433977
 31
0.0
  0
LINE
  5
601
100
AcDbEntity
  8
2
  6
CENTER
 62
     2
100
AcDbLine
 10
-412.135631
 20
-47.433977
 30
0.0
 11
-394.635631
 21
-47.433977
 31
0.0
  0
LINE
  5
602
100
AcDbEntity
  8
2
  6
CENTER
 62
     2
100
AcDbLine
 10
-403.385631
 20
29.316023
 30
0.0
 11
-403.385631
 21
11.816023
 31
0.0
  0
LINE
  5
603
100
AcDbEntity
  8
2
  6
CENTER
 62
     2
100
AcDbLine
 10
-412.135631
 20
20.566023
 30
0.0
 11
-394.635631
 21
20.566023
 31
0.0
  0
LINE
  5
604
100
AcDbEntity
  8
2
  6
CENTER
 62
     2
100
AcDbLine
 10
-321.885631
 20
12.316023
 30
0.0
 11
-321.885631
 21
29.816023
 31
0.0
  0
LINE
  5
605
100
AcDbEntity
  8
2
  6
CENTER
 62
     2
100
AcDbLine
 10
-452.135631
 20
21.066023
 30
0.0
 11
-469.635631
 21
21.066023
 31
0.0
  0
LINE
  5
606
100
AcDbEntity
  8
2
  6
CENTER
 62
     2
100
AcDbLine
 10
-483.841384
 20
-13.433977
 30
0.0
 11
-277.238891
 21
-13.433977
 31
0.0
  0
LINE
  5
607
100
AcDbEntity
  8
2
  6
CENTER
 62
     2
100
AcDbLine
 10
-330.635631
 20
21.066023
 30
0.0
 11
-313.135631
 21
21.066023
 31
0.0
  0
LINE
  5
608
100
AcDbEntity
  8
2
  6
CENTER
 62
     2
100
AcDbLine
 10
-328.635631
 20
-45.433977
 30
0.0
 11
-311.135631
 21
-45.433977
 31
0.0
  0
LINE
  5
609
100
AcDbEntity
  8
2
  6
CENTER
 62
     2
100
AcDbLine
 10
-403.385631
 20
-56.183977
 30
0.0
 11
-403.385631
 21
-38.683977
 31
0.0
  0
LINE
  5
60A
100
AcDbEntity
  8
2
  6
CENTER
 62
     2
100
AcDbLine
 10
-319.885631
 20
-36.683977
 30
0.0
 11
-319.885631
 21
-54.183977
 31
0.0
  0
LINE
  5
60B
100
AcDbEntity
  8
2
100
AcDbLine
 10
205.514369
 20
49.566023
 30
0.0
 11
105.514369
 21
49.566023
 31
0.0
  0
LINE
  5
60C
100
AcDbEntity
  8
2
100
AcDbLine
 10
105.514369
 20
52.566023
 30
0.0
 11
105.514369
 21
49.566023
 31
0.0
  0
LINE
  5
60D
100
AcDbEntity
  8
2
100
AcDbLine
 10
205.514369
 20
52.566023
 30
0.0
 11
205.514369
 21
49.566023
 31
0.0
  0
LINE
  5
60E
100
AcDbEntity
  8
2
100
AcDbLine
 10
197.433167
 20
92.566023
 30
0.0
 11
113.595572
 21
92.566023
 31
0.0
  0
LINE
  5
60F
100
AcDbEntity
  8
2
100
AcDbLine
 10
110.014369
 20
98.766023
 30
0.0
 11
110.014369
 21
92.114405
 31
0.0
  0
LINE
  5
610
100
AcDbEntity
  8
2
100
AcDbLine
 10
195.014369
 20
98.766023
 30
0.0
 11
195.014369
 21
95.544883
 31
0.0
  0
LINE
  5
611
100
AcDbEntity
  8
2
100
AcDbLine
 10
110.014369
 20
97.566023
 30
0.0
 11
195.014369
 21
97.566023
 31
0.0
  0
ARC
  5
612
100
AcDbEntity
  8
2
100
AcDbCircle
 10
152.514369
 20
85.566023
 30
0.0
 40
34.0
100
AcDbArc
 50
45.099128
 51
134.900872
  0
LINE
  5
613
100
AcDbEntity
  8
2
100
AcDbLine
 10
160.014364
 20
117.171509
 30
0.0
 11
160.014369
 21
98.766023
 31
0.0
  0
LINE
  5
614
100
AcDbEntity
  8
2
100
AcDbLine
 10
145.014369
 20
117.171509
 30
0.0
 11
145.014369
 21
98.766023
 31
0.0
  0
LINE
  5
615
100
AcDbEntity
  8
2
100
AcDbLine
 10
128.514369
 20
109.649213
 30
0.0
 11
128.514369
 21
107.923125
 31
0.0
  0
LINE
  5
616
100
AcDbEntity
  8
2
100
AcDbLine
 10
176.514369
 20
109.649213
 30
0.0
 11
176.514369
 21
107.923125
 31
0.0
  0
ARC
  5
617
100
AcDbEntity
  8
2
100
AcDbCircle
 10
152.514369
 20
87.566023
 30
0.0
 40
31.0
100
AcDbArc
 50
28.453097
 51
48.922243
  0
ARC
  5
618
100
AcDbEntity
  8
2
100
AcDbCircle
 10
152.514369
 20
87.566023
 30
0.0
 40
31.0
100
AcDbArc
 50
131.077757
 51
151.546903
  0
ARC
  5
619
100
AcDbEntity
  8
2
100
AcDbCircle
 10
152.514369
 20
84.066023
 30
0.0
 40
28.0
100
AcDbArc
 50
105.536794
 51
145.287318
  0
ARC
  5
61A
100
AcDbEntity
  8
2
100
AcDbCircle
 10
152.514369
 20
84.066023
 30
0.0
 40
28.0
100
AcDbArc
 50
34.712682
 51
74.463206
  0
ARC
  5
61B
100
AcDbEntity
  8
2
100
AcDbCircle
 10
117.113974
 20
88.331653
 30
0.0
 40
45.274917
100
AcDbArc
 50
13.324563
 51
18.638604
  0
ARC
  5
61C
100
AcDbEntity
  8
2
100
AcDbCircle
 10
118.037854
 20
88.331653
 30
0.0
 40
45.274917
100
AcDbArc
 50
13.324563
 51
21.318921
  0
ARC
  5
61D
100
AcDbEntity
  8
2
100
AcDbCircle
 10
159.813206
 20
104.635077
 30
0.0
 40
0.430947
100
AcDbArc
 50
21.318921
 51
62.173379
  0
ARC
  5
61E
100
AcDbEntity
  8
2
100
AcDbCircle
 10
141.08444
 20
86.564771
 30
0.0
 40
30.472934
100
AcDbArc
 50
23.60296
 51
36.322403
  0
ARC
  5
61F
100
AcDbEntity
  8
2
100
AcDbCircle
 10
141.791547
 20
86.564771
 30
0.0
 40
30.472934
100
AcDbArc
 50
23.60296
 51
37.117331
  0
ARC
  5
620
100
AcDbEntity
  8
2
100
AcDbCircle
 10
165.864721
 20
104.782619
 30
0.0
 40
0.283404
100
AcDbArc
 50
37.117331
 51
216.322403
  0
ARC
  5
621
100
AcDbEntity
  8
2
100
AcDbCircle
 10
149.840028
 20
84.79789
 30
0.0
 40
28.197761
100
AcDbArc
 50
29.693704
 51
45.288518
  0
ARC
  5
622
100
AcDbEntity
  8
2
100
AcDbCircle
 10
150.222711
 20
84.79789
 30
0.0
 40
28.197761
100
AcDbArc
 50
29.693704
 51
45.843762
  0
ARC
  5
623
100
AcDbEntity
  8
2
100
AcDbCircle
 10
169.772443
 20
104.932066
 30
0.0
 40
0.133957
100
AcDbArc
 50
45.843762
 51
225.288518
  0
LINE
  5
624
100
AcDbEntity
  8
2
 62
     2
100
AcDbLine
 10
161.739944
 20
100.161507
 30
0.0
 11
160.639027
 21
100.797122
 31
0.0
  0
LINE
  5
625
100
AcDbEntity
  8
2
 62
     2
100
AcDbLine
 10
161.425666
 20
101.266716
 30
0.0
 11
160.30331
 21
101.914709
 31
0.0
  0
LINE
  5
626
100
AcDbEntity
  8
2
 62
     2
100
AcDbLine
 10
161.073605
 20
102.393739
 30
0.0
 11
160.014371
 21
103.005288
 31
0.0
  0
LINE
  5
627
100
AcDbEntity
  8
2
 62
     2
100
AcDbLine
 10
160.680402
 20
103.544515
 30
0.0
 11
160.014371
 21
103.929048
 31
0.0
  0
LINE
  5
628
100
AcDbEntity
  8
2
 62
     2
100
AcDbLine
 10
160.242073
 20
104.721345
 30
0.0
 11
160.014371
 21
104.852809
 31
0.0
  0
LINE
  5
629
100
AcDbEntity
  8
2
 62
     2
100
AcDbLine
 10
162.019295
 20
99.076463
 30
0.0
 11
160.938222
 21
99.700621
 31
0.0
  0
LINE
  5
62A
100
AcDbEntity
  8
2
 62
     2
100
AcDbLine
 10
168.886632
 20
99.04026
 30
0.0
 11
169.361624
 21
98.766023
 31
0.0
  0
LINE
  5
62B
100
AcDbEntity
  8
2
 62
     2
100
AcDbLine
 10
169.266903
 20
99.744471
 30
0.0
 11
168.278774
 21
100.314968
 31
0.0
  0
LINE
  5
62C
100
AcDbEntity
  8
2
 62
     2
100
AcDbLine
 10
168.599729
 20
101.053425
 30
0.0
 11
167.559107
 21
101.654228
 31
0.0
  0
LINE
  5
62D
100
AcDbEntity
  8
2
 62
     2
100
AcDbLine
 10
167.8051
 20
102.435965
 30
0.0
 11
166.696529
 21
103.075998
 31
0.0
  0
LINE
  5
62E
100
AcDbEntity
  8
2
 62
     2
100
AcDbLine
 10
166.842576
 20
103.915438
 30
0.0
 11
165.640109
 21
104.609683
 31
0.0
  0
LINE
  5
62F
100
AcDbEntity
  8
2
100
AcDbLine
 10
110.014369
 20
98.766023
 30
0.0
 11
195.014369
 21
98.766023
 31
0.0
  0
LINE
  5
630
100
AcDbEntity
  8
2
 62
     2
100
AcDbLine
 10
172.890753
 20
101.569104
 30
0.0
 11
172.213479
 21
101.960128
 31
0.0
  0
LINE
  5
631
100
AcDbEntity
  8
2
 62
     2
100
AcDbLine
 10
171.510253
 20
103.289896
 30
0.0
 11
170.725228
 21
103.743131
 31
0.0
  0
LINE
  5
632
100
AcDbEntity
  8
2
 62
     2
100
AcDbLine
 10
173.949898
 20
100.033846
 30
0.0
 11
173.33575
 21
100.388424
 31
0.0
  0
LINE
  5
633
100
AcDbEntity
  8
2
 62
     2
100
AcDbLine
 10
174.545831
 20
98.766023
 30
0.0
 11
174.230214
 21
98.948245
 31
0.0
  0
LINE
  5
634
100
AcDbEntity
  8
2
100
AcDbLine
 10
193.514369
 20
89.566023
 30
0.0
 11
193.514369
 21
58.566023
 31
0.0
  0
LINE
  5
635
100
AcDbEntity
  8
2
100
AcDbLine
 10
117.514369
 20
89.566023
 30
0.0
 11
117.514369
 21
58.566023
 31
0.0
  0
LINE
  5
636
100
AcDbEntity
  8
2
100
AcDbLine
 10
106.868144
 20
57.566023
 30
0.0
 11
116.514369
 21
57.566023
 31
0.0
  0
LINE
  5
637
100
AcDbEntity
  8
2
100
AcDbLine
 10
194.514369
 20
57.566023
 30
0.0
 11
204.160595
 21
57.566023
 31
0.0
  0
ARC
  5
638
100
AcDbEntity
  8
2
100
AcDbCircle
 10
190.514369
 20
89.566023
 30
0.0
 40
3.0
100
AcDbArc
 50
0.0
 51
90.0
  0
ARC
  5
639
100
AcDbEntity
  8
2
100
AcDbCircle
 10
120.514369
 20
89.566023
 30
0.0
 40
3.0
100
AcDbArc
 50
90.0
 51
180.0
  0
ARC
  5
63A
100
AcDbEntity
  8
2
100
AcDbCircle
 10
144.230581
 20
106.245055
 30
0.0
 40
11.430139
100
AcDbArc
 50
88.512215
 51
112.714662
  0
ARC
  5
63B
100
AcDbEntity
  8
2
100
AcDbCircle
 10
144.514369
 20
117.171509
 30
0.0
 40
0.5
100
AcDbArc
 50
0.0
 51
88.512215
  0
ARC
  5
63C
100
AcDbEntity
  8
2
100
AcDbCircle
 10
155.350742
 20
79.68055
 30
0.0
 40
40.228245
100
AcDbArc
 50
112.714662
 51
131.843847
  0
ARC
  5
63D
100
AcDbEntity
  8
2
100
AcDbCircle
 10
145.720583
 20
99.349079
 30
0.0
 40
17.127052
100
AcDbArc
 50
93.791923
 51
118.737001
  0
ARC
  5
63E
100
AcDbEntity
  8
2
100
AcDbCircle
 10
144.614369
 20
116.039511
 30
0.0
 40
0.4
100
AcDbArc
 50
0.0
 51
93.791923
  0
ARC
  5
63F
100
AcDbEntity
  8
2
100
AcDbCircle
 10
159.432933
 20
74.341313
 30
0.0
 40
45.647515
100
AcDbArc
 50
118.737001
 51
132.635576
  0
ARC
  5
640
100
AcDbEntity
  8
2
100
AcDbCircle
 10
159.308155
 20
99.349079
 30
0.0
 40
17.127052
100
AcDbArc
 50
61.262999
 51
86.208077
  0
ARC
  5
641
100
AcDbEntity
  8
2
100
AcDbCircle
 10
145.595806
 20
74.341313
 30
0.0
 40
45.647515
100
AcDbArc
 50
47.364424
 51
61.262999
  0
ARC
  5
642
100
AcDbEntity
  8
2
100
AcDbCircle
 10
160.414369
 20
116.039511
 30
0.0
 40
0.4
100
AcDbArc
 50
86.208077
 51
180.0
  0
ARC
  5
643
100
AcDbEntity
  8
2
100
AcDbCircle
 10
160.514369
 20
117.171509
 30
0.0
 40
0.5
100
AcDbArc
 50
91.487785
 51
180.0
  0
ARC
  5
644
100
AcDbEntity
  8
2
100
AcDbCircle
 10
160.798157
 20
106.245055
 30
0.0
 40
11.430139
100
AcDbArc
 50
67.285338
 51
91.487785
  0
ARC
  5
645
100
AcDbEntity
  8
2
100
AcDbCircle
 10
149.677996
 20
79.68055
 30
0.0
 40
40.228245
100
AcDbArc
 50
48.156153
 51
67.285338
  0
LINE
  5
646
100
AcDbEntity
  8
2
  6
CENTER
 62
     2
100
AcDbLine
 10
199.514369
 20
66.693472
 30
0.0
 11
199.514369
 21
50.21863
 31
0.0
  0
LINE
  5
647
100
AcDbEntity
  8
2
  6
CENTER
 62
     2
100
AcDbLine
 10
111.514369
 20
66.693472
 30
0.0
 11
111.514369
 21
50.21863
 31
0.0
  0
LINE
  5
648
100
AcDbEntity
  8
2
  6
CENTER
 62
     2
100
AcDbLine
 10
179.030873
 20
89.910841
 30
0.0
 11
179.030873
 21
105.522299
 31
0.0
  0
LINE
  5
649
100
AcDbEntity
  8
2
  6
CENTER
 62
     2
100
AcDbLine
 10
125.997865
 20
89.910841
 30
0.0
 11
125.997865
 21
106.916189
 31
0.0
  0
LINE
  5
64A
100
AcDbEntity
  8
2
100
AcDbLine
 10
106.914369
 20
58.866023
 30
0.0
 11
106.914369
 21
57.566023
 31
0.0
  0
LINE
  5
64B
100
AcDbEntity
  8
2
100
AcDbLine
 10
116.114369
 20
58.866023
 30
0.0
 11
116.114369
 21
57.566023
 31
0.0
  0
LINE
  5
64C
100
AcDbEntity
  8
2
100
AcDbLine
 10
106.914369
 20
58.866023
 30
0.0
 11
116.114369
 21
58.866023
 31
0.0
  0
LINE
  5
64D
100
AcDbEntity
  8
2
100
AcDbLine
 10
107.014369
 20
60.153516
 30
0.0
 11
107.014369
 21
58.866023
 31
0.0
  0
LINE
  5
64E
100
AcDbEntity
  8
2
100
AcDbLine
 10
116.014369
 20
60.153516
 30
0.0
 11
116.014369
 21
58.866023
 31
0.0
  0
ARC
  5
64F
100
AcDbEntity
  8
2
100
AcDbCircle
 10
111.514369
 20
50.166023
 30
0.0
 40
12.0
100
AcDbArc
 50
73.808648
 51
106.191352
  0
ARC
  5
650
100
AcDbEntity
  8
2
100
AcDbCircle
 10
108.614369
 20
60.153516
 30
0.0
 40
1.6
100
AcDbArc
 50
106.191352
 51
180.0
  0
ARC
  5
651
100
AcDbEntity
  8
2
100
AcDbCircle
 10
114.414369
 20
60.153516
 30
0.0
 40
1.6
100
AcDbArc
 50
0.0
 51
73.808648
  0
LINE
  5
652
100
AcDbEntity
  8
2
100
AcDbLine
 10
194.914369
 20
58.866023
 30
0.0
 11
194.914369
 21
57.566023
 31
0.0
  0
LINE
  5
653
100
AcDbEntity
  8
2
100
AcDbLine
 10
204.114369
 20
58.866023
 30
0.0
 11
204.114369
 21
57.566023
 31
0.0
  0
LINE
  5
654
100
AcDbEntity
  8
2
100
AcDbLine
 10
194.914369
 20
58.866023
 30
0.0
 11
204.114369
 21
58.866023
 31
0.0
  0
LINE
  5
655
100
AcDbEntity
  8
2
100
AcDbLine
 10
195.014369
 20
60.153516
 30
0.0
 11
195.014369
 21
58.866023
 31
0.0
  0
LINE
  5
656
100
AcDbEntity
  8
2
100
AcDbLine
 10
204.014369
 20
60.153516
 30
0.0
 11
204.014369
 21
58.866023
 31
0.0
  0
ARC
  5
657
100
AcDbEntity
  8
2
100
AcDbCircle
 10
199.514369
 20
50.166023
 30
0.0
 40
12.0
100
AcDbArc
 50
73.808648
 51
106.191352
  0
ARC
  5
658
100
AcDbEntity
  8
2
100
AcDbCircle
 10
196.614369
 20
60.153516
 30
0.0
 40
1.6
100
AcDbArc
 50
106.191352
 51
180.0
  0
ARC
  5
659
100
AcDbEntity
  8
2
100
AcDbCircle
 10
202.414369
 20
60.153516
 30
0.0
 40
1.6
100
AcDbArc
 50
0.0
 51
73.808648
  0
LINE
  5
65A
100
AcDbEntity
  8
2
100
AcDbLine
 10
129.797865
 20
99.766023
 30
0.0
 11
122.197865
 21
99.766023
 31
0.0
  0
LINE
  5
65B
100
AcDbEntity
  8
2
100
AcDbLine
 10
129.797865
 20
99.766023
 30
0.0
 11
129.797865
 21
98.766023
 31
0.0
  0
LINE
  5
65C
100
AcDbEntity
  8
2
100
AcDbLine
 10
122.197865
 20
99.766023
 30
0.0
 11
122.197865
 21
98.766023
 31
0.0
  0
LINE
  5
65D
100
AcDbEntity
  8
2
100
AcDbLine
 10
129.497865
 20
100.745048
 30
0.0
 11
129.497865
 21
99.766023
 31
0.0
  0
LINE
  5
65E
100
AcDbEntity
  8
2
100
AcDbLine
 10
122.497865
 20
100.745048
 30
0.0
 11
122.497865
 21
99.766023
 31
0.0
  0
ARC
  5
65F
100
AcDbEntity
  8
2
100
AcDbCircle
 10
125.997865
 20
93.366023
 30
0.0
 40
9.0
100
AcDbArc
 50
73.39845
 51
106.60155
  0
ARC
  5
660
100
AcDbEntity
  8
2
100
AcDbCircle
 10
128.197865
 20
100.745048
 30
0.0
 40
1.3
100
AcDbArc
 50
0.0
 51
73.39845
  0
ARC
  5
661
100
AcDbEntity
  8
2
100
AcDbCircle
 10
123.797865
 20
100.745048
 30
0.0
 40
1.3
100
AcDbArc
 50
106.60155
 51
180.0
  0
LINE
  5
662
100
AcDbEntity
  8
2
100
AcDbLine
 10
182.830873
 20
99.766023
 30
0.0
 11
175.230873
 21
99.766023
 31
0.0
  0
LINE
  5
663
100
AcDbEntity
  8
2
100
AcDbLine
 10
182.830873
 20
99.766023
 30
0.0
 11
182.830873
 21
98.766023
 31
0.0
  0
LINE
  5
664
100
AcDbEntity
  8
2
100
AcDbLine
 10
175.230873
 20
99.766023
 30
0.0
 11
175.230873
 21
98.766023
 31
0.0
  0
LINE
  5
665
100
AcDbEntity
  8
2
100
AcDbLine
 10
182.530873
 20
100.745048
 30
0.0
 11
182.530873
 21
99.766023
 31
0.0
  0
LINE
  5
666
100
AcDbEntity
  8
2
100
AcDbLine
 10
175.530873
 20
100.745048
 30
0.0
 11
175.530873
 21
99.766023
 31
0.0
  0
ARC
  5
667
100
AcDbEntity
  8
2
100
AcDbCircle
 10
179.030873
 20
93.366023
 30
0.0
 40
9.0
100
AcDbArc
 50
73.39845
 51
106.60155
  0
ARC
  5
668
100
AcDbEntity
  8
2
100
AcDbCircle
 10
181.230873
 20
100.745048
 30
0.0
 40
1.3
100
AcDbArc
 50
0.0
 51
73.39845
  0
ARC
  5
669
100
AcDbEntity
  8
2
100
AcDbCircle
 10
176.830873
 20
100.745048
 30
0.0
 40
1.3
100
AcDbArc
 50
106.60155
 51
180.0
  0
ARC
  5
66A
100
AcDbEntity
  8
2
100
AcDbCircle
 10
194.514369
 20
58.566023
 30
0.0
 40
1.0
100
AcDbArc
 50
180.0
 51
270.0
  0
ARC
  5
66B
100
AcDbEntity
  8
2
100
AcDbCircle
 10
116.514369
 20
58.566023
 30
0.0
 40
1.0
100
AcDbArc
 50
270.0
 51
360.0
  0
LINE
  5
66C
100
AcDbEntity
  8
2
100
AcDbLine
 10
205.514369
 20
52.566023
 30
0.0
 11
105.514369
 21
52.566023
 31
0.0
  0
LINE
  5
66D
100
AcDbEntity
  8
2
100
AcDbLine
 10
205.514369
 20
52.566023
 30
0.0
 11
202.41414
 21
88.001802
 31
0.0
  0
LINE
  5
66E
100
AcDbEntity
  8
2
100
AcDbLine
 10
105.514369
 20
52.566023
 30
0.0
 11
108.614598
 21
88.001802
 31
0.0
  0
ARC
  5
66F
100
AcDbEntity
  8
2
100
AcDbCircle
 10
197.433167
 20
87.566023
 30
0.0
 40
5.0
100
AcDbArc
 50
5.0
 51
90.0
  0
ARC
  5
670
100
AcDbEntity
  8
2
100
AcDbCircle
 10
113.595572
 20
87.566023
 30
0.0
 40
5.0
100
AcDbArc
 50
90.0
 51
175.0
  0
ARC
  5
671
100
AcDbEntity
  8
2
100
AcDbCircle
 10
198.014369
 20
95.544883
 30
0.0
 40
3.0
100
AcDbArc
 50
180.0
 51
265.833774
  0
ARC
  5
672
100
AcDbEntity
  8
2
100
AcDbCircle
 10
107.014369
 20
92.114405
 30
0.0
 40
3.0
100
AcDbArc
 50
325.350986
 51
360.0
  0
ARC
  5
673
100
AcDbEntity
  8
2
100
AcDbCircle
 10
204.160595
 20
56.566023
 30
0.0
 40
1.0
100
AcDbArc
 50
5.0
 51
90.0
  0
ARC
  5
674
100
AcDbEntity
  8
2
100
AcDbCircle
 10
106.868144
 20
56.566023
 30
0.0
 40
1.0
100
AcDbArc
 50
90.0
 51
175.0
  0
ARC
  5
675
100
AcDbEntity
  8
2
100
AcDbCircle
 10
127.514369
 20
26.566023
 30
0.0
 40
18.0
100
AcDbArc
 50
90.0
 51
270.0
  0
LINE
  5
676
100
AcDbEntity
  8
2
100
AcDbLine
 10
106.31436
 20
-33.283687
 30
0.0
 11
113.515373
 21
-33.283687
 31
0.0
  0
LINE
  5
677
100
AcDbEntity
  8
2
100
AcDbLine
 10
187.514369
 20
-56.433977
 30
0.0
 11
117.514369
 21
-56.433977
 31
0.0
  0
LINE
  5
678
100
AcDbEntity
  8
2
100
AcDbLine
 10
100.514369
 20
27.566023
 30
0.0
 11
100.514369
 21
-52.433977
 31
0.0
  0
LINE
  5
679
100
AcDbEntity
  8
2
100
AcDbLine
 10
100.514369
 20
-52.433977
 30
0.0
 11
122.185925
 21
-52.433977
 31
0.0
  0
LINE
  5
67A
100
AcDbEntity
  8
2
100
AcDbLine
 10
100.514369
 20
27.566023
 30
0.0
 11
104.746112
 21
27.566023
 31
0.0
  0
LINE
  5
67B
100
AcDbEntity
  8
2
100
AcDbLine
 10
205.514369
 20
49.566023
 30
0.0
 11
105.514369
 21
49.566023
 31
0.0
  0
LINE
  5
67C
100
AcDbEntity
  8
2
100
AcDbLine
 10
127.514369
 20
8.566023
 30
0.0
 11
177.514369
 21
8.566023
 31
0.0
  0
LINE
  5
67D
100
AcDbEntity
  8
2
100
AcDbLine
 10
127.514369
 20
44.566023
 30
0.0
 11
177.514369
 21
44.566023
 31
0.0
  0
ARC
  5
67E
100
AcDbEntity
  8
2
100
AcDbCircle
 10
177.514369
 20
26.566023
 30
0.0
 40
18.0
100
AcDbArc
 50
270.0
 51
90.0
  0
LINE
  5
67F
100
AcDbEntity
  8
2
100
AcDbLine
 10
182.220472
 20
-1.433977
 30
0.0
 11
127.808266
 21
-1.433977
 31
0.0
  0
ARC
  5
680
100
AcDbEntity
  8
2
100
AcDbCircle
 10
143.514369
 20
-42.433977
 30
0.0
 40
1.0
100
AcDbArc
 50
0.0
 51
90.0
  0
LINE
  5
681
100
AcDbEntity
  8
2
100
AcDbLine
 10
144.514369
 20
-42.433977
 30
0.0
 11
144.514369
 21
-48.433977
 31
0.0
  0
ARC
  5
682
100
AcDbEntity
  8
2
100
AcDbCircle
 10
145.514369
 20
-48.433977
 30
0.0
 40
1.0
100
AcDbArc
 50
180.0
 51
270.0
  0
LINE
  5
683
100
AcDbEntity
  8
2
100
AcDbLine
 10
145.514369
 20
-49.433977
 30
0.0
 11
151.514369
 21
-49.433977
 31
0.0
  0
ARC
  5
684
100
AcDbEntity
  8
2
100
AcDbCircle
 10
151.514369
 20
-48.433977
 30
0.0
 40
1.0
100
AcDbArc
 50
270.0
 51
360.0
  0
LINE
  5
685
100
AcDbEntity
  8
2
100
AcDbLine
 10
152.514369
 20
-42.433977
 30
0.0
 11
152.514369
 21
-48.433977
 31
0.0
  0
ARC
  5
686
100
AcDbEntity
  8
2
100
AcDbCircle
 10
153.514369
 20
-42.433977
 30
0.0
 40
1.0
100
AcDbArc
 50
90.0
 51
180.0
  0
LINE
  5
687
100
AcDbEntity
  8
2
100
AcDbLine
 10
147.514369
 20
-50.433977
 30
0.0
 11
149.514369
 21
-50.433977
 31
0.0
  0
ARC
  5
688
100
AcDbEntity
  8
2
100
AcDbCircle
 10
149.514369
 20
-49.433977
 30
0.0
 40
1.0
100
AcDbArc
 50
270.0
 51
360.0
  0
ARC
  5
689
100
AcDbEntity
  8
2
100
AcDbCircle
 10
147.514369
 20
-49.433977
 30
0.0
 40
1.0
100
AcDbArc
 50
180.0
 51
270.0
  0
LINE
  5
68A
100
AcDbEntity
  8
2
100
AcDbLine
 10
105.514369
 20
49.566023
 30
0.0
 11
103.31436
 21
-13.434
 31
0.0
  0
LINE
  5
68B
100
AcDbEntity
  8
2
100
AcDbLine
 10
205.514369
 20
49.566023
 30
0.0
 11
207.015876
 21
6.568496
 31
0.0
  0
ARC
  5
68C
100
AcDbEntity
  8
2
100
AcDbCircle
 10
123.342813
 20
-36.433977
 30
0.0
 40
5.0
100
AcDbArc
 50
182.0
 51
270.0
  0
ARC
  5
68D
100
AcDbEntity
  8
2
100
AcDbCircle
 10
188.617303
 20
-38.433977
 30
0.0
 40
3.0
100
AcDbArc
 50
270.0
 51
358.0
  0
LINE
  5
68E
100
AcDbEntity
  8
2
100
AcDbLine
 10
117.156374
 20
-2.546073
 30
0.0
 11
118.345859
 21
-36.608474
 31
0.0
  0
LINE
  5
68F
100
AcDbEntity
  8
2
100
AcDbLine
 10
191.615475
 20
-38.538675
 30
0.0
 11
192.872365
 21
-2.546073
 31
0.0
  0
LINE
  5
690
100
AcDbEntity
  8
2
100
AcDbLine
 10
117.514369
 20
-56.433977
 30
0.0
 11
117.44209
 21
-54.364178
 31
0.0
  0
ARC
  5
691
100
AcDbEntity
  8
2
100
AcDbCircle
 10
115.443308
 20
-54.433977
 30
0.0
 40
2.0
100
AcDbArc
 50
2.0
 51
90.0
  0
LINE
  5
692
100
AcDbEntity
  8
2
100
AcDbLine
 10
187.514369
 20
-56.433977
 30
0.0
 11
188.038181
 21
-41.433977
 31
0.0
  0
LINE
  5
693
100
AcDbEntity
  8
2
100
AcDbLine
 10
142.373467
 20
-50.433977
 30
0.0
 11
137.906534
 21
-50.433977
 31
0.0
  0
LINE
  5
694
100
AcDbEntity
  8
2
100
AcDbLine
 10
162.655271
 20
-50.433977
 30
0.0
 11
167.122205
 21
-50.433977
 31
0.0
  0
LINE
  5
695
100
AcDbEntity
  8
2
 62
     2
100
AcDbLine
 10
160.514369
 20
-56.433977
 30
0.0
 11
160.970777
 21
-43.364178
 31
0.0
  0
LINE
  5
696
100
AcDbEntity
  8
2
 62
     2
100
AcDbLine
 10
144.514369
 20
-56.433977
 30
0.0
 11
144.057962
 21
-43.364178
 31
0.0
  0
ARC
  5
697
100
AcDbEntity
  8
2
 62
     2
100
AcDbCircle
 10
162.969558
 20
-43.433977
 30
0.0
 40
2.0
100
AcDbArc
 50
90.0
 51
178.0
  0
ARC
  5
698
100
AcDbEntity
  8
2
 62
     2
100
AcDbCircle
 10
142.05918
 20
-43.433977
 30
0.0
 40
2.0
100
AcDbArc
 50
2.0
 51
90.0
  0
ARC
  5
699
100
AcDbEntity
  8
2
100
AcDbCircle
 10
162.655271
 20
-52.433977
 30
0.0
 40
2.0
100
AcDbArc
 50
90.0
 51
178.0
  0
ARC
  5
69A
100
AcDbEntity
  8
2
100
AcDbCircle
 10
142.373467
 20
-52.433977
 30
0.0
 40
2.0
100
AcDbArc
 50
2.0
 51
90.0
  0
LINE
  5
69B
100
AcDbEntity
  8
2
100
AcDbLine
 10
160.65649
 20
-52.364178
 30
0.0
 11
160.514369
 21
-56.433977
 31
0.0
  0
LINE
  5
69C
100
AcDbEntity
  8
2
100
AcDbLine
 10
144.372249
 20
-52.364178
 30
0.0
 11
144.514369
 21
-56.433977
 31
0.0
  0
ARC
  5
69D
100
AcDbEntity
  8
2
100
AcDbCircle
 10
113.515373
 20
-38.283687
 30
0.0
 40
5.0
100
AcDbArc
 50
10.659447
 51
90.0
  0
ARC
  5
69E
100
AcDbEntity
  8
2
 62
     2
100
AcDbCircle
 10
177.514369
 20
26.566023
 30
0.0
 40
17.0
100
AcDbArc
 50
270.0
 51
90.0
  0
LINE
  5
69F
100
AcDbEntity
  8
2
 62
     2
100
AcDbLine
 10
127.514369
 20
43.566023
 30
0.0
 11
177.514369
 21
43.566023
 31
0.0
  0
ARC
  5
6A0
100
AcDbEntity
  8
2
 62
     2
100
AcDbCircle
 10
127.514369
 20
26.566023
 30
0.0
 40
17.0
100
AcDbArc
 50
90.0
 51
270.0
  0
LINE
  5
6A1
100
AcDbEntity
  8
2
 62
     2
100
AcDbLine
 10
127.514369
 20
9.566023
 30
0.0
 11
177.514369
 21
9.566023
 31
0.0
  0
LINE
  5
6A2
100
AcDbEntity
  8
2
 62
     2
100
AcDbLine
 10
200.975741
 20
7.613081
 30
0.0
 11
107.051168
 21
7.613081
 31
0.0
  0
LINE
  5
6A3
100
AcDbEntity
  8
2
100
AcDbLine
 10
187.875411
 20
2.628424
 30
0.0
 11
122.153328
 21
2.628424
 31
0.0
  0
ARC
  5
6A4
100
AcDbEntity
  8
2
100
AcDbCircle
 10
187.875411
 20
-2.371576
 30
0.0
 40
5.0
100
AcDbArc
 50
357.999999
 51
90.0
  0
ARC
  5
6A5
100
AcDbEntity
  8
2
100
AcDbCircle
 10
122.153328
 20
-2.371576
 30
0.0
 40
5.0
100
AcDbArc
 50
90.0
 51
182.0
  0
LINE
  5
6A6
100
AcDbEntity
  8
2
100
AcDbLine
 10
124.810094
 20
-4.329278
 30
0.0
 11
123.550832
 21
-40.389811
 31
0.0
  0
ARC
  5
6A7
100
AcDbEntity
  8
2
100
AcDbCircle
 10
127.808266
 20
-4.433977
 30
0.0
 40
3.0
100
AcDbArc
 50
90.0
 51
178.0
  0
LINE
  5
6A8
100
AcDbEntity
  8
2
100
AcDbLine
 10
185.218644
 20
-4.329278
 30
0.0
 11
186.480667
 21
-40.468876
 31
0.0
  0
ARC
  5
6A9
100
AcDbEntity
  8
2
100
AcDbCircle
 10
182.220472
 20
-4.433977
 30
0.0
 40
3.0
100
AcDbArc
 50
2.0
 51
90.0
  0
ARC
  5
6AA
100
AcDbEntity
  8
2
100
AcDbCircle
 10
122.551441
 20
-40.354911
 30
0.0
 40
1.0
100
AcDbArc
 50
258.589152
 51
358.0
  0
ARC
  5
6AB
100
AcDbEntity
  8
2
100
AcDbCircle
 10
187.480058
 20
-40.433977
 30
0.0
 40
1.0
100
AcDbArc
 50
182.0
 51
270.0
  0
LINE
  5
6AC
100
AcDbEntity
  8
2
100
AcDbLine
 10
103.31436
 20
-13.433977
 30
0.0
 11
103.31436
 21
-30.283688
 31
0.0
  0
ARC
  5
6AD
100
AcDbEntity
  8
2
100
AcDbCircle
 10
106.31436
 20
-30.283688
 30
0.0
 40
3.0
100
AcDbArc
 50
180.0
 51
270.0
  0
ARC
  5
6AE
100
AcDbEntity
  8
2
100
AcDbCircle
 10
202.018922
 20
6.393998
 30
0.0
 40
5.0
100
AcDbArc
 50
299.999995
 51
2.000001
  0
LINE
  5
6AF
100
AcDbEntity
  8
2
100
AcDbLine
 10
195.197246
 20
-3.318
 30
0.0
 11
204.518922
 21
2.063871
 31
0.0
  0
ARC
  5
6B0
100
AcDbEntity
  8
2
100
AcDbCircle
 10
197.697245
 20
-7.648127
 30
0.0
 40
5.0
100
AcDbArc
 50
119.999995
 51
177.999999
  0
ARC
  5
6B1
100
AcDbEntity
  8
2
100
AcDbCircle
 10
129.329875
 20
-43.433977
 30
0.0
 40
2.0
100
AcDbArc
 50
90.0
 51
178.0
  0
LINE
  5
6B2
100
AcDbEntity
  8
2
100
AcDbLine
 10
127.331093
 20
-43.364178
 30
0.0
 11
127.182879
 21
-47.608474
 31
0.0
  0
ARC
  5
6B3
100
AcDbEntity
  8
2
100
AcDbCircle
 10
122.185925
 20
-47.433977
 30
0.0
 40
5.0
100
AcDbArc
 50
270.0
 51
358.0
  0
ARC
  5
6B4
100
AcDbEntity
  8
2
100
AcDbCircle
 10
137.906534
 20
-52.433977
 30
0.0
 40
2.0
100
AcDbArc
 50
90.0
 51
177.999998
  0
LINE
  5
6B5
100
AcDbEntity
  8
2
100
AcDbLine
 10
135.765632
 20
-56.433977
 30
0.0
 11
135.907753
 21
-52.364177
 31
0.0
  0
ARC
  5
6B6
100
AcDbEntity
  8
2
100
AcDbCircle
 10
167.122205
 20
-52.433977
 30
0.0
 40
2.0
100
AcDbArc
 50
2.000002
 51
90.0
  0
LINE
  5
6B7
100
AcDbEntity
  8
2
100
AcDbLine
 10
169.263107
 20
-56.433977
 30
0.0
 11
169.120986
 21
-52.364177
 31
0.0
  0
LINE
  5
6B8
100
AcDbEntity
  8
2
100
AcDbLine
 10
123.342813
 20
-41.433977
 30
0.0
 11
188.514369
 21
-41.433977
 31
0.0
  0
CIRCLE
  5
6B9
100
AcDbEntity
  8
2
100
AcDbCircle
 10
177.514369
 20
26.566023
 30
0.0
 40
13.0
  0
LINE
  5
6BA
100
AcDbEntity
  8
2
100
AcDbLine
 10
170.008816
 20
39.566023
 30
0.0
 11
162.503262
 21
26.566023
 31
0.0
  0
LINE
  5
6BB
100
AcDbEntity
  8
2
100
AcDbLine
 10
185.019923
 20
39.566023
 30
0.0
 11
170.008816
 21
39.566023
 31
0.0
  0
LINE
  5
6BC
100
AcDbEntity
  8
2
100
AcDbLine
 10
192.525476
 20
26.566023
 30
0.0
 11
185.019923
 21
39.566023
 31
0.0
  0
LINE
  5
6BD
100
AcDbEntity
  8
2
100
AcDbLine
 10
185.019923
 20
13.566023
 30
0.0
 11
192.525476
 21
26.566023
 31
0.0
  0
LINE
  5
6BE
100
AcDbEntity
  8
2
100
AcDbLine
 10
170.008816
 20
13.566023
 30
0.0
 11
185.019923
 21
13.566023
 31
0.0
  0
LINE
  5
6BF
100
AcDbEntity
  8
2
100
AcDbLine
 10
162.503262
 20
26.566023
 30
0.0
 11
170.008816
 21
13.566023
 31
0.0
  0
CIRCLE
  5
6C0
100
AcDbEntity
  8
2
100
AcDbCircle
 10
127.514369
 20
26.566023
 30
0.0
 40
13.0
  0
LINE
  5
6C1
100
AcDbEntity
  8
2
100
AcDbLine
 10
120.008816
 20
39.566023
 30
0.0
 11
112.503262
 21
26.566023
 31
0.0
  0
LINE
  5
6C2
100
AcDbEntity
  8
2
100
AcDbLine
 10
135.019923
 20
39.566023
 30
0.0
 11
120.008816
 21
39.566023
 31
0.0
  0
LINE
  5
6C3
100
AcDbEntity
  8
2
100
AcDbLine
 10
142.525476
 20
26.566023
 30
0.0
 11
135.019923
 21
39.566023
 31
0.0
  0
LINE
  5
6C4
100
AcDbEntity
  8
2
100
AcDbLine
 10
135.019923
 20
13.566023
 30
0.0
 11
142.525476
 21
26.566023
 31
0.0
  0
LINE
  5
6C5
100
AcDbEntity
  8
2
100
AcDbLine
 10
120.008816
 20
13.566023
 30
0.0
 11
135.019923
 21
13.566023
 31
0.0
  0
LINE
  5
6C6
100
AcDbEntity
  8
2
100
AcDbLine
 10
112.503262
 20
26.566023
 30
0.0
 11
120.008816
 21
13.566023
 31
0.0
  0
LINE
  5
6C7
100
AcDbEntity
  8
2
100
AcDbLine
 10
100.514369
 20
27.566023
 30
0.0
 11
100.514369
 21
-52.433977
 31
0.0
  0
LINE
  5
6C8
100
AcDbEntity
  8
2
100
AcDbLine
 10
198.214369
 20
-49.433977
 30
0.0
 11
198.214369
 21
-46.974977
 31
0.0
  0
LINE
  5
6C9
100
AcDbEntity
  8
2
100
AcDbLine
 10
198.214369
 20
-46.974977
 30
0.0
 11
197.673369
 21
-46.433977
 31
0.0
  0
LINE
  5
6CA
100
AcDbEntity
  8
2
100
AcDbLine
 10
197.673369
 20
-46.433977
 30
0.0
 11
197.673369
 21
-49.433977
 31
0.0
  0
LINE
  5
6CB
100
AcDbEntity
  8
2
100
AcDbLine
 10
198.214369
 20
-49.433977
 30
0.0
 11
198.214369
 21
-51.892977
 31
0.0
  0
LINE
  5
6CC
100
AcDbEntity
  8
2
100
AcDbLine
 10
198.214369
 20
-51.892977
 30
0.0
 11
197.673369
 21
-52.433977
 31
0.0
  0
LINE
  5
6CD
100
AcDbEntity
  8
2
100
AcDbLine
 10
197.673369
 20
-52.433977
 30
0.0
 11
197.673369
 21
-49.433977
 31
0.0
  0
LINE
  5
6CE
100
AcDbEntity
  8
2
100
AcDbLine
 10
189.014369
 20
-43.683977
 30
0.0
 11
191.435797
 21
-43.683977
 31
0.0
  0
LINE
  5
6CF
100
AcDbEntity
  8
2
100
AcDbLine
 10
189.014369
 20
-46.558977
 30
0.0
 11
191.3354
 21
-46.558977
 31
0.0
  0
LINE
  5
6D0
100
AcDbEntity
  8
2
100
AcDbLine
 10
189.014369
 20
-52.308977
 30
0.0
 11
191.134606
 21
-52.308977
 31
0.0
  0
LINE
  5
6D1
100
AcDbEntity
  8
2
100
AcDbLine
 10
189.014369
 20
-55.183977
 30
0.0
 11
191.034209
 21
-55.183977
 31
0.0
  0
LINE
  5
6D2
100
AcDbEntity
  8
2
100
AcDbLine
 10
189.014369
 20
-43.333977
 30
0.0
 11
187.971831
 21
-43.333977
 31
0.0
  0
LINE
  5
6D3
100
AcDbEntity
  8
2
100
AcDbLine
 10
187.545798
 20
-55.533977
 30
0.0
 11
189.014369
 21
-55.533977
 31
0.0
  0
LINE
  5
6D4
100
AcDbEntity
  8
2
100
AcDbLine
 10
189.014369
 20
-55.533977
 30
0.0
 11
189.014369
 21
-43.333977
 31
0.0
  0
LINE
  5
6D5
100
AcDbEntity
  8
2
 62
     2
100
AcDbLine
 10
198.214369
 20
-46.974977
 30
0.0
 11
196.944299
 21
-46.974977
 31
0.0
  0
LINE
  5
6D6
100
AcDbEntity
  8
2
100
AcDbLine
 10
197.673369
 20
-46.433977
 30
0.0
 11
196.963191
 21
-46.433977
 31
0.0
  0
LINE
  5
6D7
100
AcDbEntity
  8
2
100
AcDbLine
 10
197.673369
 20
-52.433977
 30
0.0
 11
196.753666
 21
-52.433977
 31
0.0
  0
LINE
  5
6D8
100
AcDbEntity
  8
2
 62
     2
100
AcDbLine
 10
198.214369
 20
-51.892977
 30
0.0
 11
196.772558
 21
-51.892977
 31
0.0
  0
LINE
  5
6D9
100
AcDbEntity
  8
2
100
AcDbLine
 10
100.514369
 20
-52.433977
 30
0.0
 11
100.514369
 21
26.899357
 31
0.0
  0
LINE
  5
6DA
100
AcDbEntity
  8
2
100
AcDbLine
 10
87.603574
 20
-50.183977
 30
0.0
 11
89.214369
 21
-50.183977
 31
0.0
  0
ARC
  5
6DB
100
AcDbEntity
  8
2
100
AcDbCircle
 10
87.603574
 20
-49.183977
 30
0.0
 40
1.0
100
AcDbArc
 50
212.392365
 51
270.0
  0
LINE
  5
6DC
100
AcDbEntity
  8
2
100
AcDbLine
 10
89.214369
 20
-40.683977
 30
0.0
 11
89.214369
 21
-50.183977
 31
0.0
  0
LINE
  5
6DD
100
AcDbEntity
  8
2
100
AcDbLine
 10
89.214369
 20
-50.033977
 30
0.0
 11
90.514369
 21
-50.033977
 31
0.0
  0
LINE
  5
6DE
100
AcDbEntity
  8
2
100
AcDbLine
 10
87.603574
 20
-40.683977
 30
0.0
 11
89.214369
 21
-40.683977
 31
0.0
  0
LINE
  5
6DF
100
AcDbEntity
  8
2
100
AcDbLine
 10
89.214369
 20
-40.833977
 30
0.0
 11
90.514369
 21
-40.833977
 31
0.0
  0
LINE
  5
6E0
100
AcDbEntity
  8
2
100
AcDbLine
 10
85.530009
 20
-45.933977
 30
0.0
 11
85.714369
 21
-45.933977
 31
0.0
  0
LINE
  5
6E1
100
AcDbEntity
  8
2
100
AcDbLine
 10
85.530009
 20
-44.933977
 30
0.0
 11
85.714369
 21
-44.933977
 31
0.0
  0
LINE
  5
6E2
100
AcDbEntity
  8
2
100
AcDbLine
 10
85.714369
 20
-45.933977
 30
0.0
 11
85.714369
 21
-44.933977
 31
0.0
  0
ARC
  5
6E3
100
AcDbEntity
  8
2
100
AcDbCircle
 10
93.514369
 20
-45.433977
 30
0.0
 40
8.0
100
AcDbArc
 50
183.583322
 51
212.392365
  0
ARC
  5
6E4
100
AcDbEntity
  8
2
100
AcDbCircle
 10
93.514369
 20
-45.433977
 30
0.0
 40
8.0
100
AcDbArc
 50
147.607635
 51
176.416678
  0
ARC
  5
6E5
100
AcDbEntity
  8
2
100
AcDbCircle
 10
87.603574
 20
-41.683977
 30
0.0
 40
1.0
100
AcDbArc
 50
90.0
 51
147.607635
  0
LINE
  5
6E6
100
AcDbEntity
  8
2
100
AcDbLine
 10
87.603574
 20
16.316023
 30
0.0
 11
89.214369
 21
16.316023
 31
0.0
  0
ARC
  5
6E7
100
AcDbEntity
  8
2
100
AcDbCircle
 10
87.603574
 20
17.316023
 30
0.0
 40
1.0
100
AcDbArc
 50
212.392365
 51
270.0
  0
LINE
  5
6E8
100
AcDbEntity
  8
2
100
AcDbLine
 10
89.214369
 20
25.816023
 30
0.0
 11
89.214369
 21
16.316023
 31
0.0
  0
LINE
  5
6E9
100
AcDbEntity
  8
2
100
AcDbLine
 10
89.214369
 20
16.466023
 30
0.0
 11
90.514369
 21
16.466023
 31
0.0
  0
LINE
  5
6EA
100
AcDbEntity
  8
2
100
AcDbLine
 10
87.603574
 20
25.816023
 30
0.0
 11
89.214369
 21
25.816023
 31
0.0
  0
LINE
  5
6EB
100
AcDbEntity
  8
2
100
AcDbLine
 10
89.214369
 20
25.666023
 30
0.0
 11
90.514369
 21
25.666023
 31
0.0
  0
LINE
  5
6EC
100
AcDbEntity
  8
2
100
AcDbLine
 10
85.530009
 20
20.566023
 30
0.0
 11
85.714369
 21
20.566023
 31
0.0
  0
LINE
  5
6ED
100
AcDbEntity
  8
2
100
AcDbLine
 10
85.530009
 20
21.566023
 30
0.0
 11
85.714369
 21
21.566023
 31
0.0
  0
LINE
  5
6EE
100
AcDbEntity
  8
2
100
AcDbLine
 10
85.714369
 20
20.566023
 30
0.0
 11
85.714369
 21
21.566023
 31
0.0
  0
ARC
  5
6EF
100
AcDbEntity
  8
2
100
AcDbCircle
 10
93.514369
 20
21.066023
 30
0.0
 40
8.0
100
AcDbArc
 50
183.583322
 51
212.392365
  0
ARC
  5
6F0
100
AcDbEntity
  8
2
100
AcDbCircle
 10
93.514369
 20
21.066023
 30
0.0
 40
8.0
100
AcDbArc
 50
147.607635
 51
176.416678
  0
ARC
  5
6F1
100
AcDbEntity
  8
2
100
AcDbCircle
 10
87.603574
 20
24.816023
 30
0.0
 40
1.0
100
AcDbArc
 50
90.0
 51
147.607635
  0
LINE
  5
6F2
100
AcDbEntity
  8
2
100
AcDbLine
 10
71.514369
 20
-25.933977
 30
0.0
 11
71.514369
 21
-0.933977
 31
0.0
  0
LINE
  5
6F3
100
AcDbEntity
  8
2
100
AcDbLine
 10
67.814369
 20
-0.933977
 30
0.0
 11
71.514369
 21
-0.933977
 31
0.0
  0
LINE
  5
6F4
100
AcDbEntity
  8
2
100
AcDbLine
 10
67.514369
 20
-1.233977
 30
0.0
 11
67.814369
 21
-0.933977
 31
0.0
  0
LINE
  5
6F5
100
AcDbEntity
  8
2
100
AcDbLine
 10
67.514369
 20
-1.233977
 30
0.0
 11
67.514369
 21
-25.633977
 31
0.0
  0
LINE
  5
6F6
100
AcDbEntity
  8
2
100
AcDbLine
 10
67.514369
 20
-25.633977
 30
0.0
 11
67.814369
 21
-25.933977
 31
0.0
  0
LINE
  5
6F7
100
AcDbEntity
  8
2
100
AcDbLine
 10
67.814369
 20
-25.933977
 30
0.0
 11
71.514369
 21
-25.933977
 31
0.0
  0
LINE
  5
6F8
100
AcDbEntity
  8
2
100
AcDbLine
 10
71.514369
 20
-25.433977
 30
0.0
 11
71.514369
 21
-1.433977
 31
0.0
  0
LINE
  5
6F9
100
AcDbEntity
  8
2
100
AcDbLine
 10
72.014369
 20
-25.933977
 30
0.0
 11
72.514369
 21
-25.933977
 31
0.0
  0
LINE
  5
6FA
100
AcDbEntity
  8
2
100
AcDbLine
 10
72.014369
 20
-0.933977
 30
0.0
 11
72.514369
 21
-0.933977
 31
0.0
  0
ARC
  5
6FB
100
AcDbEntity
  8
2
100
AcDbCircle
 10
72.014369
 20
-25.433977
 30
0.0
 40
0.5
100
AcDbArc
 50
180.0
 51
270.0
  0
ARC
  5
6FC
100
AcDbEntity
  8
2
100
AcDbCircle
 10
72.014369
 20
-1.433977
 30
0.0
 40
0.5
100
AcDbArc
 50
90.0
 51
180.0
  0
ARC
  5
6FD
100
AcDbEntity
  8
2
100
AcDbCircle
 10
72.514369
 20
-26.933977
 30
0.0
 40
1.0
100
AcDbArc
 50
0.0
 51
90.0
  0
ARC
  5
6FE
100
AcDbEntity
  8
2
100
AcDbCircle
 10
72.514369
 20
0.066023
 30
0.0
 40
1.0
100
AcDbArc
 50
270.0
 51
360.0
  0
LINE
  5
6FF
100
AcDbEntity
  8
2
100
AcDbLine
 10
73.514369
 20
-41.417468
 30
0.0
 11
73.514369
 21
14.549515
 31
0.0
  0
LINE
  5
700
100
AcDbEntity
  8
2
100
AcDbLine
 10
90.514369
 20
-51.433977
 30
0.0
 11
90.514369
 21
26.566023
 31
0.0
  0
LINE
  5
701
100
AcDbEntity
  8
2
100
AcDbLine
 10
100.514369
 20
-52.433977
 30
0.0
 11
91.514369
 21
-52.433977
 31
0.0
  0
LINE
  5
702
100
AcDbEntity
  8
2
100
AcDbLine
 10
100.514369
 20
27.566023
 30
0.0
 11
91.514369
 21
27.566023
 31
0.0
  0
ARC
  5
703
100
AcDbEntity
  8
2
100
AcDbCircle
 10
91.514369
 20
-51.433977
 30
0.0
 40
1.0
100
AcDbArc
 50
180.0
 51
270.0
  0
ARC
  5
704
100
AcDbEntity
  8
2
100
AcDbCircle
 10
91.514369
 20
26.566023
 30
0.0
 40
1.0
100
AcDbArc
 50
90.0
 51
180.0
  0
LINE
  5
705
100
AcDbEntity
  8
2
100
AcDbLine
 10
77.736884
 20
-46.35665
 30
0.0
 11
85.821467
 21
-47.629259
 31
0.0
  0
ARC
  5
706
100
AcDbEntity
  8
2
100
AcDbCircle
 10
87.514369
 20
-50.932681
 30
0.0
 40
3.0
100
AcDbArc
 50
0.0
 51
17.431677
  0
ARC
  5
707
100
AcDbEntity
  8
2
100
AcDbCircle
 10
78.514369
 20
-41.417468
 30
0.0
 40
5.0
100
AcDbArc
 50
180.0
 51
261.054375
  0
LINE
  5
708
100
AcDbEntity
  8
2
100
AcDbLine
 10
77.736884
 20
19.488697
 30
0.0
 11
85.714369
 21
20.744447
 31
0.0
  0
ARC
  5
709
100
AcDbEntity
  8
2
100
AcDbCircle
 10
78.514369
 20
14.549515
 30
0.0
 40
5.0
100
AcDbArc
 50
98.945625
 51
180.0
  0
LINE
  5
70A
100
AcDbEntity
  8
2
100
AcDbLine
 10
193.021404
 20
-26.931844
 30
0.0
 11
198.793917
 21
-33.122106
 31
0.0
  0
LINE
  5
70B
100
AcDbEntity
  8
2
100
AcDbLine
 10
197.036417
 20
-26.571747
 30
0.0
 11
197.245814
 21
-20.575402
 31
0.0
  0
LINE
  5
70C
100
AcDbEntity
  8
2
100
AcDbLine
 10
193.021404
 20
-26.931844
 30
0.0
 11
197.036417
 21
-26.571747
 31
0.0
  0
LINE
  5
70D
100
AcDbEntity
  8
2
100
AcDbLine
 10
197.245814
 20
-20.575402
 30
0.0
 11
193.265701
 21
-19.936109
 31
0.0
  0
LINE
  5
70E
100
AcDbEntity
  8
2
100
AcDbLine
 10
193.265701
 20
-19.936109
 30
0.0
 11
199.455963
 21
-14.163596
 31
0.0
  0
LINE
  5
70F
100
AcDbEntity
  8
2
100
AcDbLine
 10
197.245814
 20
-20.575402
 30
0.0
 11
202.16412
 21
-17.960293
 31
0.0
  0
ARC
  5
710
100
AcDbEntity
  8
2
100
AcDbCircle
 10
201.059963
 20
-15.883677
 30
0.0
 40
2.351913
100
AcDbArc
 50
298.0
 51
133.0
  0
LINE
  5
711
100
AcDbEntity
  8
2
100
AcDbLine
 10
197.036417
 20
-26.571747
 30
0.0
 11
201.760321
 21
-29.52357
 31
0.0
  0
ARC
  5
712
100
AcDbEntity
  8
2
100
AcDbCircle
 10
200.513997
 20
-31.518105
 30
0.0
 40
2.351913
100
AcDbArc
 50
223.0
 51
58.0
  0
LINE
  5
713
100
AcDbEntity
  8
2
100
AcDbLine
 10
193.038854
 20
-26.432149
 30
0.0
 11
193.248251
 21
-20.435804
 31
0.0
  0
LINE
  5
714
100
AcDbEntity
  8
2
100
AcDbLine
 10
195.815308
 20
-17.558561
 30
0.0
 11
192.35234
 21
-17.437632
 31
0.0
  0
LINE
  5
715
100
AcDbEntity
  8
2
100
AcDbLine
 10
196.189042
 20
-68.602699
 30
0.0
 11
190.572466
 21
-68.406564
 31
0.0
  0
LINE
  5
716
100
AcDbEntity
  8
2
100
AcDbLine
 10
196.189042
 20
-68.602699
 30
0.0
 11
197.275372
 21
-37.494285
 31
0.0
  0
LINE
  5
717
100
AcDbEntity
  8
2
100
AcDbLine
 10
194.746921
 20
-68.552339
 30
0.0
 11
195.891666
 21
-35.771131
 31
0.0
  0
LINE
  5
718
100
AcDbEntity
  8
2
100
AcDbLine
 10
195.928649
 20
-34.712093
 30
0.0
 11
196.085593
 21
-30.217785
 31
0.0
  0
LINE
  5
719
100
AcDbEntity
  8
2
100
AcDbLine
 10
192.014587
 20
-68.456924
 30
0.0
 11
193.16627
 21
-35.477026
 31
0.0
  0
LINE
  5
71A
100
AcDbEntity
  8
2
100
AcDbLine
 10
190.572466
 20
-68.406564
 30
0.0
 11
191.724149
 21
-35.426666
 31
0.0
  0
LINE
  5
71B
100
AcDbEntity
  8
2
100
AcDbLine
 10
192.31744
 20
-18.437022
 30
0.0
 11
192.35234
 21
-17.437632
 31
0.0
  0
LINE
  5
71C
100
AcDbEntity
  8
2
100
AcDbLine
 10
193.201169
 20
-34.477636
 30
0.0
 11
193.448674
 21
-27.390035
 31
0.0
  0
LINE
  5
71D
100
AcDbEntity
  8
2
100
AcDbLine
 10
193.723891
 20
-19.508839
 30
0.0
 11
193.794461
 21
-17.487992
 31
0.0
  0
LINE
  5
71E
100
AcDbEntity
  8
2
100
AcDbLine
 10
197.341722
 20
-35.594262
 30
0.0
 11
197.477354
 21
-31.710266
 31
0.0
  0
LINE
  5
71F
100
AcDbEntity
  8
2
100
AcDbLine
 10
197.643547
 20
-26.951124
 30
0.0
 11
197.877929
 21
-20.239301
 31
0.0
  0
LINE
  5
720
100
AcDbEntity
  8
2
100
AcDbLine
 10
193.316831
 20
-18.471922
 30
0.0
 11
192.31744
 21
-18.437022
 31
0.0
  0
LINE
  5
721
100
AcDbEntity
  8
2
100
AcDbLine
 10
194.957099
 20
-34.538954
 30
0.0
 11
192.758439
 21
-34.462175
 31
0.0
  0
LINE
  5
722
100
AcDbEntity
  8
2
100
AcDbLine
 10
193.316831
 20
-18.471922
 30
0.0
 11
192.758439
 21
-34.462175
 31
0.0
  0
LINE
  5
723
100
AcDbEntity
  8
2
100
AcDbLine
 10
194.9222
 20
-35.538345
 30
0.0
 11
191.724149
 21
-35.426666
 31
0.0
  0
LINE
  5
724
100
AcDbEntity
  8
2
100
AcDbLine
 10
191.724149
 20
-35.426666
 30
0.0
 11
192.31744
 21
-18.437022
 31
0.0
  0
ARC
  5
725
100
AcDbEntity
  8
2
100
AcDbCircle
 10
194.834951
 20
-38.036822
 30
0.0
 40
3.5
100
AcDbArc
 50
311.743299
 51
88.0
  0
ARC
  5
726
100
AcDbEntity
  8
2
100
AcDbCircle
 10
194.834951
 20
-38.036822
 30
0.0
 40
2.5
100
AcDbArc
 50
343.466253
 51
88.0
  0
LINE
  5
727
100
AcDbEntity
  8
2
  6
CENTER
 62
     2
100
AcDbLine
 10
56.641147
 20
-13.433977
 30
0.0
 11
210.930654
 21
-13.433977
 31
0.0
  0
LINE
  5
728
100
AcDbEntity
  8
2
  6
CENTER
 62
     2
100
AcDbLine
 10
108.036869
 20
26.566023
 30
0.0
 11
146.991869
 21
26.566023
 31
0.0
  0
LINE
  5
729
100
AcDbEntity
  8
2
  6
CENTER
 62
     2
100
AcDbLine
 10
127.514369
 20
7.088523
 30
0.0
 11
127.514369
 21
46.043523
 31
0.0
  0
LINE
  5
72A
100
AcDbEntity
  8
2
  6
CENTER
 62
     2
100
AcDbLine
 10
158.036869
 20
26.566023
 30
0.0
 11
196.991869
 21
26.566023
 31
0.0
  0
LINE
  5
72B
100
AcDbEntity
  8
2
  6
CENTER
 62
     2
100
AcDbLine
 10
177.514369
 20
7.088523
 30
0.0
 11
177.514369
 21
46.043523
 31
0.0
  0
LINE
  5
72C
100
AcDbEntity
  8
2
  6
CENTER
 62
     2
100
AcDbLine
 10
200.508147
 20
-49.433977
 30
0.0
 11
178.143096
 21
-49.433977
 31
0.0
  0
LINE
  5
72D
100
AcDbEntity
  8
2
  6
CENTER
 62
     2
100
AcDbLine
 10
79.085757
 20
21.066023
 30
0.0
 11
97.78435
 21
21.066023
 31
0.0
  0
LINE
  5
72E
100
AcDbEntity
  8
2
  6
CENTER
 62
     2
100
AcDbLine
 10
79.085757
 20
-45.433977
 30
0.0
 11
97.78435
 21
-45.433977
 31
0.0
  0
LINE
  5
72F
100
AcDbEntity
  8
2
  6
CENTER
 62
     2
100
AcDbLine
 10
179.83199
 20
-23.433977
 30
0.0
 11
205.887624
 21
-23.433977
 31
0.0
  0
POINT
  5
730
100
AcDbEntity
  8
2
100
AcDbPoint
 10
152.514369
 20
119.566023
 30
0.0
  0
LINE
  5
731
100
AcDbEntity
  8
3
100
AcDbLine
 10
-449.885631
 20
-144.433977
 30
0.0
 11
-449.885631
 21
-59.433977
 31
0.0
  0
LINE
  5
732
100
AcDbEntity
  8
3
100
AcDbLine
 10
-299.885631
 20
-144.433977
 30
0.0
 11
-299.885631
 21
-59.433977
 31
0.0
  0
LINE
  5
733
100
AcDbEntity
  8
3
100
AcDbLine
 10
-440.885631
 20
-56.433977
 30
0.0
 11
-308.885631
 21
-56.433977
 31
0.0
  0
LINE
  5
734
100
AcDbEntity
  8
3
100
AcDbLine
 10
-311.885631
 20
-156.433977
 30
0.0
 11
-437.885631
 21
-156.433977
 31
0.0
  0
LINE
  5
735
100
AcDbEntity
  8
3
100
AcDbLine
 10
101.514369
 20
-156.433977
 30
0.0
 11
203.514369
 21
-156.433977
 31
0.0
  0
LINE
  5
736
100
AcDbEntity
  8
3
100
AcDbLine
 10
203.514369
 20
-56.433977
 30
0.0
 11
203.514369
 21
-156.433977
 31
0.0
  0
LINE
  5
737
100
AcDbEntity
  8
3
100
AcDbLine
 10
101.514369
 20
-56.433977
 30
0.0
 11
101.514369
 21
-156.433977
 31
0.0
  0
LINE
  5
738
100
AcDbEntity
  8
3
100
AcDbLine
 10
-311.885631
 20
-147.433977
 30
0.0
 11
-437.885631
 21
-147.433977
 31
0.0
  0
LINE
  5
739
100
AcDbEntity
  8
3
100
AcDbLine
 10
-440.885631
 20
-144.433977
 30
0.0
 11
-440.885631
 21
-56.433977
 31
0.0
  0
LINE
  5
73A
100
AcDbEntity
  8
3
100
AcDbLine
 10
-308.885631
 20
-144.433977
 30
0.0
 11
-308.885631
 21
-56.433977
 31
0.0
  0
LINE
  5
73B
100
AcDbEntity
  8
3
100
AcDbLine
 10
-440.885631
 20
-62.433977
 30
0.0
 11
-308.885631
 21
-62.433977
 31
0.0
  0
LINE
  5
73C
100
AcDbEntity
  8
3
100
AcDbLine
 10
-449.885631
 20
-59.433977
 30
0.0
 11
-440.885631
 21
-59.433977
 31
0.0
  0
LINE
  5
73D
100
AcDbEntity
  8
3
100
AcDbLine
 10
-308.885631
 20
-59.433977
 30
0.0
 11
-299.885631
 21
-59.433977
 31
0.0
  0
ARC
  5
73E
100
AcDbEntity
  8
3
100
AcDbCircle
 10
-311.885631
 20
-144.433977
 30
0.0
 40
3.0
100
AcDbArc
 50
270.0
 51
360.0
  0
ARC
  5
73F
100
AcDbEntity
  8
3
100
AcDbCircle
 10
-437.885631
 20
-144.433977
 30
0.0
 40
3.0
100
AcDbArc
 50
180.0
 51
270.0
  0
ARC
  5
740
100
AcDbEntity
  8
3
100
AcDbCircle
 10
-437.885631
 20
-144.433977
 30
0.0
 40
12.0
100
AcDbArc
 50
180.0
 51
270.0
  0
ARC
  5
741
100
AcDbEntity
  8
3
100
AcDbCircle
 10
-311.885631
 20
-144.433977
 30
0.0
 40
12.0
100
AcDbArc
 50
270.0
 51
360.0
  0
LINE
  5
742
100
AcDbEntity
  8
3
100
AcDbLine
 10
-308.885631
 20
-56.433977
 30
0.0
 11
-305.885631
 21
-59.433977
 31
0.0
  0
LINE
  5
743
100
AcDbEntity
  8
3
100
AcDbLine
 10
-440.885631
 20
-56.433977
 30
0.0
 11
-443.885631
 21
-59.433977
 31
0.0
  0
LINE
  5
744
100
AcDbEntity
  8
3
100
AcDbLine
 10
-308.885631
 20
-67.433977
 30
0.0
 11
-313.885631
 21
-62.433977
 31
0.0
  0
LINE
  5
745
100
AcDbEntity
  8
3
100
AcDbLine
 10
-440.885631
 20
-67.433977
 30
0.0
 11
-435.885631
 21
-62.433977
 31
0.0
  0
LINE
  5
746
100
AcDbEntity
  8
3
100
AcDbLine
 10
-389.885631
 20
-81.433977
 30
0.0
 11
-359.885631
 21
-81.433977
 31
0.0
  0
LINE
  5
747
100
AcDbEntity
  8
3
100
AcDbLine
 10
-390.885631
 20
-117.433977
 30
0.0
 11
-390.885631
 21
-84.433977
 31
0.0
  0
LINE
  5
748
100
AcDbEntity
  8
3
100
AcDbLine
 10
-358.885631
 20
-117.433977
 30
0.0
 11
-358.885631
 21
-84.433977
 31
0.0
  0
LINE
  5
749
100
AcDbEntity
  8
3
100
AcDbLine
 10
-389.885631
 20
-81.433977
 30
0.0
 11
-389.885631
 21
-62.433977
 31
0.0
  0
LINE
  5
74A
100
AcDbEntity
  8
3
100
AcDbLine
 10
-359.885631
 20
-81.433977
 30
0.0
 11
-359.885631
 21
-62.433977
 31
0.0
  0
LINE
  5
74B
100
AcDbEntity
  8
3
100
AcDbLine
 10
-359.885631
 20
-81.433977
 30
0.0
 11
-358.885631
 21
-84.433977
 31
0.0
  0
LINE
  5
74C
100
AcDbEntity
  8
3
100
AcDbLine
 10
-389.885631
 20
-81.433977
 30
0.0
 11
-390.885631
 21
-84.433977
 31
0.0
  0
LINE
  5
74D
100
AcDbEntity
  8
3
100
AcDbLine
 10
-358.885631
 20
-84.433977
 30
0.0
 11
-390.885631
 21
-84.433977
 31
0.0
  0
LINE
  5
74E
100
AcDbEntity
  8
3
100
AcDbLine
 10
-361.885631
 20
-120.433977
 30
0.0
 11
-387.885631
 21
-120.433977
 31
0.0
  0
LINE
  5
74F
100
AcDbEntity
  8
3
100
AcDbLine
 10
-358.885631
 20
-117.433977
 30
0.0
 11
-361.885631
 21
-120.433977
 31
0.0
  0
LINE
  5
750
100
AcDbEntity
  8
3
100
AcDbLine
 10
-390.885631
 20
-117.433977
 30
0.0
 11
-387.885631
 21
-120.433977
 31
0.0
  0
LINE
  5
751
100
AcDbEntity
  8
3
100
AcDbLine
 10
-358.885631
 20
-117.433977
 30
0.0
 11
-390.885631
 21
-117.433977
 31
0.0
  0
LINE
  5
752
100
AcDbEntity
  8
3
100
AcDbLine
 10
101.514369
 20
-56.433977
 30
0.0
 11
190.990558
 21
-56.433977
 31
0.0
  0
LINE
  5
753
100
AcDbEntity
  8
3
100
AcDbLine
 10
196.613983
 20
-56.433977
 30
0.0
 11
203.514369
 21
-56.433977
 31
0.0
  0
LINE
  5
754
100
AcDbEntity
  8
3
100
AcDbLine
 10
101.514369
 20
-59.433977
 30
0.0
 11
190.885795
 21
-59.433977
 31
0.0
  0
LINE
  5
755
100
AcDbEntity
  8
3
100
AcDbLine
 10
196.509221
 20
-59.433977
 30
0.0
 11
203.514369
 21
-59.433977
 31
0.0
  0
DIMENSION
  5
756
100
AcDbEntity
  8
5
100
AcDbDimension
  2
*D0
 10
-52.941227
 20
-56.433977
 30
0.0
 11
-68.801227
 21
-107.093976
 31
0.0
  1
100
100
AcDbAlignedDimension
 13
101.514369
 23
-156.433977
 33
0.0
 14
101.514369
 24
-56.433977
 34
0.0
 50
90.0
100
AcDbRotatedDimension
  0
DIMENSION
  5
757
100
AcDbEntity
  8
5
100
AcDbDimension
  2
*D1
 10
-52.941227
 20
-156.433977
 30
0.0
 11
-68.801227
 21
-230.593976
 31
0.0
  1
147
100
AcDbAlignedDimension
 13
113.039195
 23
-303.433977
 33
0.0
 14
101.514369
 24
-156.433977
 34
0.0
 50
90.0
100
AcDbRotatedDimension
  0
DIMENSION
  5
758
100
AcDbEntity
  8
5
100
AcDbDimension
  2
*D2
 10
-52.941227
 20
-303.433977
 30
0.0
 11
-64.181227
 21
-346.973977
 31
0.0
  1
95
100
AcDbAlignedDimension
 13
135.514369
 23
-398.433977
 33
0.0
 14
113.039195
 24
-303.433977
 34
0.0
 50
90.0
100
AcDbRotatedDimension
  0
DIMENSION
  5
759
100
AcDbEntity
  8
5
100
AcDbDimension
  2
*D3
 10
152.514369
 20
-436.583069
 30
0.0
 11
112.274369
 21
-427.983069
 31
0.0
  1
21
100
AcDbAlignedDimension
 13
131.514369
 23
-366.933977
 33
0.0
 14
152.514369
 24
-412.619092
 34
0.0
100
AcDbRotatedDimension
  0
DIMENSION
  5
75A
100
AcDbEntity
  8
5
100
AcDbDimension
  2
*D4
 10
177.514369
 20
-471.877075
 30
0.0
 11
154.514369
 21
-463.277075
 31
0.0
  1
46
100
AcDbAlignedDimension
 13
131.514369
 23
-366.933977
 33
0.0
 14
177.514369
 24
-366.933977
 34
0.0
100
AcDbRotatedDimension
  0
TEXT
  5
75B
100
AcDbEntity
  8
5
100
AcDbText
 10
438.786896
 20
206.044693
 30
0.0
 40
20.0
  1
（コントロールユニット付）
 72
     5
 11
694.786896
 21
206.044693
 31
0.0
100
AcDbText
  0
TEXT
  5
75C
100
AcDbEntity
  8
5
100
AcDbText
 10
318.786896
 20
234.044693
 30
0.0
 40
20.0
  1
駆動部・・・４Ｉ－０型 
 72
     5
 11
534.786896
 21
234.044693
 31
0.0
100
AcDbText
  0
DIMENSION
  5
75D
100
AcDbEntity
  8
5
100
AcDbDimension
  2
*D5
 10
-374.885631
 20
445.739044
 30
0.0
 11
-424.885631
 21
454.339044
 31
0.0
  1
100
100
AcDbAlignedDimension
 13
-474.885631
 23
321.266023
 33
0.0
 14
-374.885631
 24
415.935068
 34
0.0
100
AcDbRotatedDimension
  0
DIMENSION
  5
75E
100
AcDbEntity
  8
5
100
AcDbDimension
  2
*D6
 10
-272.885631
 20
445.739044
 30
0.0
 11
-323.885631
 21
454.339044
 31
0.0
  1
102
100
AcDbAlignedDimension
 13
-374.885631
 23
415.935068
 33
0.0
 14
-272.885631
 24
389.766023
 34
0.0
100
AcDbRotatedDimension
  0
DIMENSION
  5
75F
100
AcDbEntity
  8
5
100
AcDbDimension
  2
*D7
 10
-223.760117
 20
405.569023
 30
0.0
 11
-244.240116
 21
373.387524
 31
0.0
  1
53.8
100
AcDbAlignedDimension
 13
-269.380077
 23
351.766023
 33
0.0
 14
-291.082631
 24
405.569023
 34
0.0
 50
90.0
100
AcDbRotatedDimension
  0
DIMENSION
  5
760
100
AcDbEntity
  8
5
100
AcDbDimension
  2
*D8
 10
-223.760117
 20
351.766023
 30
0.0
 11
-235.000116
 21
313.226023
 31
0.0
  1
85
100
AcDbAlignedDimension
 13
-334.185631
 23
266.766023
 33
0.0
 14
-269.380077
 24
351.766023
 34
0.0
 50
90.0
100
AcDbRotatedDimension
  0
DIMENSION
  5
761
100
AcDbEntity
  8
5
100
AcDbDimension
  2
*D9
 10
-52.941227
 20
119.566023
 30
0.0
 11
-68.801227
 21
30.906024
 31
0.0
  1
176
100
AcDbAlignedDimension
 13
101.514369
 23
-56.433977
 33
0.0
 14
152.514369
 24
119.566023
 34
0.0
 50
90.0
100
AcDbRotatedDimension
  0
LINE
  5
762
100
AcDbEntity
  8
18
100
AcDbLine
 10
228.514369
 20
-303.433977
 30
0.0
 11
348.514369
 21
-303.433977
 31
0.0
  0
LINE
  5
763
100
AcDbEntity
  8
18
100
AcDbLine
 10
228.514369
 20
-303.433977
 30
0.0
 11
268.514369
 21
-292.716009
 31
0.0
  0
LINE
  5
764
100
AcDbEntity
  8
18
100
AcDbLine
 10
268.514369
 20
-292.716009
 30
0.0
 11
268.514369
 21
-314.151944
 31
0.0
  0
LINE
  5
765
100
AcDbEntity
  8
18
100
AcDbLine
 10
228.514369
 20
-303.433977
 30
0.0
 11
268.514369
 21
-314.151944
 31
0.0
  0
LINE
  5
766
100
AcDbEntity
  8
18
100
AcDbLine
 10
274.694672
 20
460.370392
 30
0.0
 11
274.694672
 21
320.370392
 31
0.0
  0
LINE
  5
767
100
AcDbEntity
  8
18
100
AcDbLine
 10
722.694672
 20
360.370392
 30
0.0
 11
274.694672
 21
360.370392
 31
0.0
  0
LINE
  5
768
100
AcDbEntity
  8
18
100
AcDbLine
 10
722.694672
 20
340.370392
 30
0.0
 11
274.694672
 21
340.370392
 31
0.0
  0
LINE
  5
769
100
AcDbEntity
  8
18
100
AcDbLine
 10
722.694672
 20
320.370392
 30
0.0
 11
274.694672
 21
320.370392
 31
0.0
  0
LINE
  5
76A
100
AcDbEntity
  8
18
100
AcDbLine
 10
386.694672
 20
460.370392
 30
0.0
 11
386.694672
 21
340.370392
 31
0.0
  0
LINE
  5
76B
100
AcDbEntity
  8
18
100
AcDbLine
 10
498.694672
 20
460.370392
 30
0.0
 11
498.694672
 21
340.370392
 31
0.0
  0
LINE
  5
76C
100
AcDbEntity
  8
18
100
AcDbLine
 10
610.694672
 20
460.370392
 30
0.0
 11
610.694672
 21
340.370392
 31
0.0
  0
LINE
  5
76D
100
AcDbEntity
  8
18
100
AcDbLine
 10
722.694672
 20
460.370392
 30
0.0
 11
722.694672
 21
320.370392
 31
0.0
  0
LINE
  5
76E
100
AcDbEntity
  8
18
100
AcDbLine
 10
274.694672
 20
460.370392
 30
0.0
 11
722.694672
 21
460.370392
 31
0.0
  0
POLYLINE
  5
76F
100
AcDbEntity
  8
18
 62
     2
100
AcDb2dPolyline
 66
     1
 10
0.0
 20
0.0
 30
0.0
  0
VERTEX
  5
91A
100
AcDbEntity
  8
18
 62
     2
100
AcDbVertex
100
AcDb2dVertex
 10
326.573982
 20
419.362122
 30
0.0
  0
VERTEX
  5
91B
100
AcDbEntity
  8
18
 62
     2
100
AcDbVertex
100
AcDb2dVertex
 10
326.573982
 20
437.514225
 30
0.0
  0
SEQEND
  5
91C
100
AcDbEntity
  8
18
 62
     2
  0
LINE
  5
773
100
AcDbEntity
  8
18
 62
     2
100
AcDbLine
 10
326.573982
 20
427.089528
 30
0.0
 11
324.50343
 21
427.089528
 31
0.0
  0
LINE
  5
774
100
AcDbEntity
  8
18
 62
     2
100
AcDbLine
 10
324.50343
 20
427.089528
 30
0.0
 11
326.573982
 21
419.362122
 31
0.0
  0
LINE
  5
775
100
AcDbEntity
  8
18
 62
     2
100
AcDbLine
 10
326.573982
 20
419.362122
 30
0.0
 11
328.644535
 21
427.089528
 31
0.0
  0
LINE
  5
776
100
AcDbEntity
  8
18
 62
     2
100
AcDbLine
 10
328.644535
 20
427.089528
 30
0.0
 11
326.573982
 21
427.089528
 31
0.0
  0
LINE
  5
777
100
AcDbEntity
  8
18
  6
CENTER
 62
     2
100
AcDbLine
 10
360.426777
 20
393.29715
 30
0.0
 11
290.018774
 21
393.29715
 31
0.0
  0
LINE
  5
778
100
AcDbEntity
  8
18
  6
CENTER
 62
     2
100
AcDbLine
 10
326.029971
 20
375.112775
 30
0.0
 11
326.029971
 21
413.674556
 31
0.0
  0
LINE
  5
779
100
AcDbEntity
  8
18
100
AcDbLine
 10
354.189971
 20
380.97715
 30
0.0
 11
301.389971
 21
380.97715
 31
0.0
  0
LINE
  5
77A
100
AcDbEntity
  8
18
100
AcDbLine
 10
354.189971
 20
405.61715
 30
0.0
 11
301.389971
 21
405.61715
 31
0.0
  0
LINE
  5
77B
100
AcDbEntity
  8
18
100
AcDbLine
 10
354.189971
 20
380.97715
 30
0.0
 11
354.189971
 21
409.13715
 31
0.0
  0
LINE
  5
77C
100
AcDbEntity
  8
18
100
AcDbLine
 10
304.909971
 20
380.97715
 30
0.0
 11
304.909971
 21
405.61715
 31
0.0
  0
LINE
  5
77D
100
AcDbEntity
  8
18
100
AcDbLine
 10
354.189971
 20
409.13715
 30
0.0
 11
307.256637
 21
409.13715
 31
0.0
  0
LINE
  5
77E
100
AcDbEntity
  8
18
100
AcDbLine
 10
301.389971
 20
380.97715
 30
0.0
 11
301.389971
 21
405.61715
 31
0.0
  0
LINE
  5
77F
100
AcDbEntity
  8
18
100
AcDbLine
 10
307.256637
 20
405.61715
 30
0.0
 11
307.256637
 21
409.13715
 31
0.0
  0
LINE
  5
780
100
AcDbEntity
  8
18
100
AcDbLine
 10
338.349971
 20
382.73715
 30
0.0
 11
338.349971
 21
403.85715
 31
0.0
  0
LINE
  5
781
100
AcDbEntity
  8
18
100
AcDbLine
 10
308.429971
 20
382.73715
 30
0.0
 11
308.429971
 21
403.85715
 31
0.0
  0
LINE
  5
782
100
AcDbEntity
  8
18
100
AcDbLine
 10
338.349971
 20
382.73715
 30
0.0
 11
308.429971
 21
382.73715
 31
0.0
  0
LINE
  5
783
100
AcDbEntity
  8
18
100
AcDbLine
 10
338.349971
 20
403.85715
 30
0.0
 11
308.429971
 21
403.85715
 31
0.0
  0
CIRCLE
  5
784
100
AcDbEntity
  8
18
100
AcDbCircle
 10
326.029971
 20
393.29715
 30
0.0
 40
4.224
  0
LINE
  5
785
100
AcDbEntity
  8
18
  6
DASHED
100
AcDbLine
 10
345.389971
 20
386.25715
 30
0.0
 11
306.669971
 21
386.25715
 31
0.0
  0
LINE
  5
786
100
AcDbEntity
  8
18
  6
DASHED
100
AcDbLine
 10
345.389971
 20
400.33715
 30
0.0
 11
306.669971
 21
400.33715
 31
0.0
  0
LINE
  5
787
100
AcDbEntity
  8
18
  6
DASHED
100
AcDbLine
 10
306.669971
 20
386.25715
 30
0.0
 11
306.669971
 21
400.33715
 31
0.0
  0
LINE
  5
788
100
AcDbEntity
  8
18
  6
DASHED
100
AcDbLine
 10
345.389971
 20
386.25715
 30
0.0
 11
345.389971
 21
400.33715
 31
0.0
  0
LINE
  5
789
100
AcDbEntity
  8
18
  6
CENTER
 62
     2
100
AcDbLine
 10
316.643304
 20
407.292428
 30
0.0
 11
316.643304
 21
422.469105
 31
0.0
  0
LINE
  5
78A
100
AcDbEntity
  8
18
100
AcDbLine
 10
316.643514
 20
414.41715
 30
0.0
 11
323.531944
 21
414.41715
 31
0.0
  0
LINE
  5
78B
100
AcDbEntity
  8
18
100
AcDbLine
 10
323.531944
 20
414.41715
 30
0.0
 11
323.531944
 21
416.17715
 31
0.0
  0
LINE
  5
78C
100
AcDbEntity
  8
18
100
AcDbLine
 10
316.643514
 20
416.17715
 30
0.0
 11
323.531944
 21
416.17715
 31
0.0
  0
LINE
  5
78D
100
AcDbEntity
  8
18
100
AcDbLine
 10
309.755084
 20
414.41715
 30
0.0
 11
309.755084
 21
416.17715
 31
0.0
  0
LINE
  5
78E
100
AcDbEntity
  8
18
100
AcDbLine
 10
322.272628
 20
409.13715
 30
0.0
 11
319.810523
 21
414.41715
 31
0.0
  0
LINE
  5
78F
100
AcDbEntity
  8
18
100
AcDbLine
 10
311.014401
 20
409.13715
 30
0.0
 11
313.476505
 21
414.41715
 31
0.0
  0
LINE
  5
790
100
AcDbEntity
  8
18
100
AcDbLine
 10
316.643514
 20
414.41715
 30
0.0
 11
309.755084
 21
414.41715
 31
0.0
  0
LINE
  5
791
100
AcDbEntity
  8
18
100
AcDbLine
 10
316.643514
 20
416.17715
 30
0.0
 11
309.755084
 21
416.17715
 31
0.0
  0
LINE
  5
792
100
AcDbEntity
  8
18
  6
CENTER
 62
     2
100
AcDbLine
 10
419.425966
 20
406.627871
 30
0.0
 11
469.148403
 21
406.627871
 31
0.0
  0
LINE
  5
793
100
AcDbEntity
  8
18
100
AcDbLine
 10
463.814672
 20
416.014748
 30
0.0
 11
463.814672
 21
422.903178
 31
0.0
  0
LINE
  5
794
100
AcDbEntity
  8
18
100
AcDbLine
 10
463.814672
 20
422.903178
 30
0.0
 11
465.574672
 21
422.903178
 31
0.0
  0
LINE
  5
795
100
AcDbEntity
  8
18
100
AcDbLine
 10
465.574672
 20
416.014748
 30
0.0
 11
465.574672
 21
422.903178
 31
0.0
  0
LINE
  5
796
100
AcDbEntity
  8
18
100
AcDbLine
 10
463.814672
 20
409.126318
 30
0.0
 11
465.574672
 21
409.126318
 31
0.0
  0
LINE
  5
797
100
AcDbEntity
  8
18
  6
CENTER
 62
     2
100
AcDbLine
 10
442.694672
 20
436.233693
 30
0.0
 11
442.694672
 21
374.276296
 31
0.0
  0
LINE
  5
798
100
AcDbEntity
  8
18
100
AcDbLine
 10
430.374672
 20
378.467871
 30
0.0
 11
430.374672
 21
431.267871
 31
0.0
  0
LINE
  5
799
100
AcDbEntity
  8
18
100
AcDbLine
 10
455.014672
 20
378.467871
 30
0.0
 11
455.014672
 21
431.267871
 31
0.0
  0
LINE
  5
79A
100
AcDbEntity
  8
18
100
AcDbLine
 10
430.374672
 20
378.467871
 30
0.0
 11
458.534672
 21
378.467871
 31
0.0
  0
LINE
  5
79B
100
AcDbEntity
  8
18
100
AcDbLine
 10
430.374672
 20
427.747871
 30
0.0
 11
455.014672
 21
427.747871
 31
0.0
  0
LINE
  5
79C
100
AcDbEntity
  8
18
100
AcDbLine
 10
458.534672
 20
378.467871
 30
0.0
 11
458.534672
 21
425.401204
 31
0.0
  0
LINE
  5
79D
100
AcDbEntity
  8
18
100
AcDbLine
 10
430.374672
 20
431.267871
 30
0.0
 11
455.014672
 21
431.267871
 31
0.0
  0
LINE
  5
79E
100
AcDbEntity
  8
18
100
AcDbLine
 10
455.014672
 20
425.401204
 30
0.0
 11
458.534672
 21
425.401204
 31
0.0
  0
LINE
  5
79F
100
AcDbEntity
  8
18
100
AcDbLine
 10
432.134672
 20
394.307871
 30
0.0
 11
453.254672
 21
394.307871
 31
0.0
  0
LINE
  5
7A0
100
AcDbEntity
  8
18
100
AcDbLine
 10
432.134672
 20
424.227871
 30
0.0
 11
453.254672
 21
424.227871
 31
0.0
  0
LINE
  5
7A1
100
AcDbEntity
  8
18
100
AcDbLine
 10
432.134672
 20
394.307871
 30
0.0
 11
432.134672
 21
424.227871
 31
0.0
  0
LINE
  5
7A2
100
AcDbEntity
  8
18
100
AcDbLine
 10
453.254672
 20
394.307871
 30
0.0
 11
453.254672
 21
424.227871
 31
0.0
  0
CIRCLE
  5
7A3
100
AcDbEntity
  8
18
100
AcDbCircle
 10
442.694672
 20
406.627871
 30
0.0
 40
4.224
  0
LINE
  5
7A4
100
AcDbEntity
  8
18
100
AcDbLine
 10
423.334672
 20
413.667871
 30
0.0
 11
423.334672
 21
399.587871
 31
0.0
  0
LINE
  5
7A5
100
AcDbEntity
  8
18
  6
CENTER
 62
     2
100
AcDbLine
 10
456.689949
 20
416.014538
 30
0.0
 11
472.890175
 21
416.014538
 31
0.0
  0
LINE
  5
7A6
100
AcDbEntity
  8
18
100
AcDbLine
 10
423.334672
 20
413.667871
 30
0.0
 11
430.374672
 21
413.667871
 31
0.0
  0
LINE
  5
7A7
100
AcDbEntity
  8
18
100
AcDbLine
 10
458.534672
 20
399.587871
 30
0.0
 11
462.054672
 21
399.587871
 31
0.0
  0
LINE
  5
7A8
100
AcDbEntity
  8
18
100
AcDbLine
 10
423.334672
 20
399.587871
 30
0.0
 11
430.374672
 21
399.587871
 31
0.0
  0
LINE
  5
7A9
100
AcDbEntity
  8
18
  6
DASHED
100
AcDbLine
 10
430.374672
 20
399.587871
 30
0.0
 11
458.534672
 21
399.587871
 31
0.0
  0
LINE
  5
7AA
100
AcDbEntity
  8
18
100
AcDbLine
 10
462.054672
 20
407.366108
 30
0.0
 11
462.054672
 21
399.587871
 31
0.0
  0
LINE
  5
7AB
100
AcDbEntity
  8
18
  6
DASHED
100
AcDbLine
 10
430.374672
 20
413.667871
 30
0.0
 11
458.534672
 21
413.667871
 31
0.0
  0
LINE
  5
7AC
100
AcDbEntity
  8
18
  6
DASHED
100
AcDbLine
 10
458.534672
 20
413.667871
 30
0.0
 11
461.580011
 21
413.667871
 31
0.0
  0
LINE
  5
7AD
100
AcDbEntity
  8
18
  6
DASHED
100
AcDbLine
 10
461.580011
 20
413.667871
 30
0.0
 11
462.054672
 21
413.667871
 31
0.0
  0
LINE
  5
7AE
100
AcDbEntity
  8
18
100
AcDbLine
 10
458.534672
 20
421.643861
 30
0.0
 11
463.814672
 21
419.181757
 31
0.0
  0
LINE
  5
7AF
100
AcDbEntity
  8
18
100
AcDbLine
 10
458.534672
 20
410.385634
 30
0.0
 11
463.814672
 21
412.847739
 31
0.0
  0
LINE
  5
7B0
100
AcDbEntity
  8
18
100
AcDbLine
 10
463.814672
 20
416.014748
 30
0.0
 11
463.814672
 21
409.126318
 31
0.0
  0
LINE
  5
7B1
100
AcDbEntity
  8
18
100
AcDbLine
 10
465.574672
 20
416.014748
 30
0.0
 11
465.574672
 21
409.126318
 31
0.0
  0
LINE
  5
7B2
100
AcDbEntity
  8
18
  6
DASHED
100
AcDbLine
 10
462.054672
 20
413.667871
 30
0.0
 11
462.054672
 21
412.027037
 31
0.0
  0
LINE
  5
7B3
100
AcDbEntity
  8
18
100
AcDbLine
 10
462.054672
 20
412.613704
 30
0.0
 11
462.054672
 21
412.571188
 31
0.0
  0
LINE
  5
7B4
100
AcDbEntity
  8
18
100
AcDbLine
 10
462.054672
 20
412.027037
 30
0.0
 11
462.054672
 21
406.889604
 31
0.0
  0
LINE
  5
7B5
100
AcDbEntity
  8
18
  6
CENTER
 62
     2
100
AcDbLine
 10
520.297865
 20
406.627871
 30
0.0
 11
590.705868
 21
406.627871
 31
0.0
  0
LINE
  5
7B6
100
AcDbEntity
  8
18
  6
CENTER
 62
     2
100
AcDbLine
 10
554.694672
 20
424.812246
 30
0.0
 11
554.694672
 21
386.250465
 31
0.0
  0
LINE
  5
7B7
100
AcDbEntity
  8
18
100
AcDbLine
 10
526.534672
 20
418.947871
 30
0.0
 11
579.334672
 21
418.947871
 31
0.0
  0
LINE
  5
7B8
100
AcDbEntity
  8
18
100
AcDbLine
 10
526.534672
 20
394.307871
 30
0.0
 11
579.334672
 21
394.307871
 31
0.0
  0
LINE
  5
7B9
100
AcDbEntity
  8
18
100
AcDbLine
 10
526.534672
 20
418.947871
 30
0.0
 11
526.534672
 21
390.787871
 31
0.0
  0
LINE
  5
7BA
100
AcDbEntity
  8
18
100
AcDbLine
 10
575.814672
 20
418.947871
 30
0.0
 11
575.814672
 21
394.307871
 31
0.0
  0
LINE
  5
7BB
100
AcDbEntity
  8
18
100
AcDbLine
 10
526.534672
 20
390.787871
 30
0.0
 11
573.468005
 21
390.787871
 31
0.0
  0
LINE
  5
7BC
100
AcDbEntity
  8
18
100
AcDbLine
 10
579.334672
 20
418.947871
 30
0.0
 11
579.334672
 21
394.307871
 31
0.0
  0
LINE
  5
7BD
100
AcDbEntity
  8
18
100
AcDbLine
 10
573.468005
 20
394.307871
 30
0.0
 11
573.468005
 21
390.787871
 31
0.0
  0
LINE
  5
7BE
100
AcDbEntity
  8
18
100
AcDbLine
 10
542.374672
 20
417.187871
 30
0.0
 11
542.374672
 21
396.067871
 31
0.0
  0
LINE
  5
7BF
100
AcDbEntity
  8
18
100
AcDbLine
 10
572.294672
 20
417.187871
 30
0.0
 11
572.294672
 21
396.067871
 31
0.0
  0
LINE
  5
7C0
100
AcDbEntity
  8
18
100
AcDbLine
 10
542.374672
 20
417.187871
 30
0.0
 11
572.294672
 21
417.187871
 31
0.0
  0
LINE
  5
7C1
100
AcDbEntity
  8
18
100
AcDbLine
 10
542.374672
 20
396.067871
 30
0.0
 11
572.294672
 21
396.067871
 31
0.0
  0
CIRCLE
  5
7C2
100
AcDbEntity
  8
18
100
AcDbCircle
 10
554.694672
 20
406.627871
 30
0.0
 40
4.224
  0
LINE
  5
7C3
100
AcDbEntity
  8
18
  6
DASHED
100
AcDbLine
 10
535.334672
 20
413.667871
 30
0.0
 11
574.054672
 21
413.667871
 31
0.0
  0
LINE
  5
7C4
100
AcDbEntity
  8
18
  6
DASHED
100
AcDbLine
 10
535.334672
 20
399.587871
 30
0.0
 11
574.054672
 21
399.587871
 31
0.0
  0
LINE
  5
7C5
100
AcDbEntity
  8
18
  6
DASHED
100
AcDbLine
 10
574.054672
 20
413.667871
 30
0.0
 11
574.054672
 21
399.587871
 31
0.0
  0
LINE
  5
7C6
100
AcDbEntity
  8
18
  6
DASHED
100
AcDbLine
 10
535.334672
 20
413.667871
 30
0.0
 11
535.334672
 21
399.587871
 31
0.0
  0
LINE
  5
7C7
100
AcDbEntity
  8
18
  6
CENTER
 62
     2
100
AcDbLine
 10
564.081338
 20
392.632593
 30
0.0
 11
564.081338
 21
377.455917
 31
0.0
  0
LINE
  5
7C8
100
AcDbEntity
  8
18
100
AcDbLine
 10
564.081128
 20
385.507871
 30
0.0
 11
557.192698
 21
385.507871
 31
0.0
  0
LINE
  5
7C9
100
AcDbEntity
  8
18
100
AcDbLine
 10
557.192698
 20
385.507871
 30
0.0
 11
557.192698
 21
383.747871
 31
0.0
  0
LINE
  5
7CA
100
AcDbEntity
  8
18
100
AcDbLine
 10
564.081128
 20
383.747871
 30
0.0
 11
557.192698
 21
383.747871
 31
0.0
  0
LINE
  5
7CB
100
AcDbEntity
  8
18
100
AcDbLine
 10
570.969558
 20
385.507871
 30
0.0
 11
570.969558
 21
383.747871
 31
0.0
  0
LINE
  5
7CC
100
AcDbEntity
  8
18
100
AcDbLine
 10
558.452015
 20
390.787871
 30
0.0
 11
560.914119
 21
385.507871
 31
0.0
  0
LINE
  5
7CD
100
AcDbEntity
  8
18
100
AcDbLine
 10
569.710242
 20
390.787871
 30
0.0
 11
567.248137
 21
385.507871
 31
0.0
  0
LINE
  5
7CE
100
AcDbEntity
  8
18
100
AcDbLine
 10
564.081128
 20
385.507871
 30
0.0
 11
570.969558
 21
385.507871
 31
0.0
  0
LINE
  5
7CF
100
AcDbEntity
  8
18
100
AcDbLine
 10
564.081128
 20
383.747871
 30
0.0
 11
570.969558
 21
383.747871
 31
0.0
  0
LINE
  5
7D0
100
AcDbEntity
  8
18
  6
CENTER
 62
     2
100
AcDbLine
 10
689.963378
 20
406.627871
 30
0.0
 11
640.240941
 21
406.627871
 31
0.0
  0
LINE
  5
7D1
100
AcDbEntity
  8
18
100
AcDbLine
 10
645.574672
 20
397.240994
 30
0.0
 11
645.574672
 21
390.352564
 31
0.0
  0
LINE
  5
7D2
100
AcDbEntity
  8
18
100
AcDbLine
 10
645.574672
 20
390.352564
 30
0.0
 11
643.814672
 21
390.352564
 31
0.0
  0
LINE
  5
7D3
100
AcDbEntity
  8
18
100
AcDbLine
 10
643.814672
 20
397.240994
 30
0.0
 11
643.814672
 21
390.352564
 31
0.0
  0
LINE
  5
7D4
100
AcDbEntity
  8
18
100
AcDbLine
 10
645.574672
 20
404.129424
 30
0.0
 11
643.814672
 21
404.129424
 31
0.0
  0
LINE
  5
7D5
100
AcDbEntity
  8
18
  6
CENTER
 62
     2
100
AcDbLine
 10
666.694672
 20
377.022049
 30
0.0
 11
666.694672
 21
438.979446
 31
0.0
  0
LINE
  5
7D6
100
AcDbEntity
  8
18
100
AcDbLine
 10
679.014672
 20
434.787871
 30
0.0
 11
679.014672
 21
381.987871
 31
0.0
  0
LINE
  5
7D7
100
AcDbEntity
  8
18
100
AcDbLine
 10
654.374672
 20
434.787871
 30
0.0
 11
654.374672
 21
381.987871
 31
0.0
  0
LINE
  5
7D8
100
AcDbEntity
  8
18
100
AcDbLine
 10
679.014672
 20
434.787871
 30
0.0
 11
650.854672
 21
434.787871
 31
0.0
  0
LINE
  5
7D9
100
AcDbEntity
  8
18
100
AcDbLine
 10
679.014672
 20
385.507871
 30
0.0
 11
654.374672
 21
385.507871
 31
0.0
  0
LINE
  5
7DA
100
AcDbEntity
  8
18
100
AcDbLine
 10
650.854672
 20
434.787871
 30
0.0
 11
650.854672
 21
387.854538
 31
0.0
  0
LINE
  5
7DB
100
AcDbEntity
  8
18
100
AcDbLine
 10
679.014672
 20
381.987871
 30
0.0
 11
654.374672
 21
381.987871
 31
0.0
  0
LINE
  5
7DC
100
AcDbEntity
  8
18
100
AcDbLine
 10
654.374672
 20
387.854538
 30
0.0
 11
650.854672
 21
387.854538
 31
0.0
  0
LINE
  5
7DD
100
AcDbEntity
  8
18
100
AcDbLine
 10
677.254672
 20
418.947871
 30
0.0
 11
656.134672
 21
418.947871
 31
0.0
  0
LINE
  5
7DE
100
AcDbEntity
  8
18
100
AcDbLine
 10
677.254672
 20
389.027871
 30
0.0
 11
656.134672
 21
389.027871
 31
0.0
  0
LINE
  5
7DF
100
AcDbEntity
  8
18
100
AcDbLine
 10
677.254672
 20
418.947871
 30
0.0
 11
677.254672
 21
389.027871
 31
0.0
  0
LINE
  5
7E0
100
AcDbEntity
  8
18
100
AcDbLine
 10
656.134672
 20
418.947871
 30
0.0
 11
656.134672
 21
389.027871
 31
0.0
  0
CIRCLE
  5
7E1
100
AcDbEntity
  8
18
100
AcDbCircle
 10
666.694672
 20
406.627871
 30
0.0
 40
4.224
  0
LINE
  5
7E2
100
AcDbEntity
  8
18
100
AcDbLine
 10
686.054672
 20
399.587871
 30
0.0
 11
686.054672
 21
413.667871
 31
0.0
  0
LINE
  5
7E3
100
AcDbEntity
  8
18
  6
CENTER
 62
     2
100
AcDbLine
 10
652.699394
 20
397.241204
 30
0.0
 11
636.499168
 21
397.241204
 31
0.0
  0
LINE
  5
7E4
100
AcDbEntity
  8
18
100
AcDbLine
 10
686.054672
 20
399.587871
 30
0.0
 11
679.014672
 21
399.587871
 31
0.0
  0
LINE
  5
7E5
100
AcDbEntity
  8
18
100
AcDbLine
 10
650.854672
 20
413.667871
 30
0.0
 11
647.334672
 21
413.667871
 31
0.0
  0
LINE
  5
7E6
100
AcDbEntity
  8
18
100
AcDbLine
 10
686.054672
 20
413.667871
 30
0.0
 11
679.014672
 21
413.667871
 31
0.0
  0
LINE
  5
7E7
100
AcDbEntity
  8
18
  6
DASHED
100
AcDbLine
 10
679.014672
 20
413.667871
 30
0.0
 11
650.854672
 21
413.667871
 31
0.0
  0
LINE
  5
7E8
100
AcDbEntity
  8
18
100
AcDbLine
 10
647.334672
 20
405.889634
 30
0.0
 11
647.334672
 21
413.667871
 31
0.0
  0
LINE
  5
7E9
100
AcDbEntity
  8
18
  6
DASHED
100
AcDbLine
 10
679.014672
 20
399.587871
 30
0.0
 11
650.854672
 21
399.587871
 31
0.0
  0
LINE
  5
7EA
100
AcDbEntity
  8
18
  6
DASHED
100
AcDbLine
 10
650.854672
 20
399.587871
 30
0.0
 11
647.809332
 21
399.587871
 31
0.0
  0
LINE
  5
7EB
100
AcDbEntity
  8
18
  6
DASHED
100
AcDbLine
 10
647.809332
 20
399.587871
 30
0.0
 11
647.334672
 21
399.587871
 31
0.0
  0
LINE
  5
7EC
100
AcDbEntity
  8
18
100
AcDbLine
 10
650.854672
 20
391.611881
 30
0.0
 11
645.574672
 21
394.073985
 31
0.0
  0
LINE
  5
7ED
100
AcDbEntity
  8
18
100
AcDbLine
 10
650.854672
 20
402.870108
 30
0.0
 11
645.574672
 21
400.408003
 31
0.0
  0
LINE
  5
7EE
100
AcDbEntity
  8
18
100
AcDbLine
 10
645.574672
 20
397.240994
 30
0.0
 11
645.574672
 21
404.129424
 31
0.0
  0
LINE
  5
7EF
100
AcDbEntity
  8
18
100
AcDbLine
 10
643.814672
 20
397.240994
 30
0.0
 11
643.814672
 21
404.129424
 31
0.0
  0
LINE
  5
7F0
100
AcDbEntity
  8
18
  6
DASHED
100
AcDbLine
 10
647.334672
 20
399.587871
 30
0.0
 11
647.334672
 21
401.228705
 31
0.0
  0
LINE
  5
7F1
100
AcDbEntity
  8
18
100
AcDbLine
 10
647.334672
 20
400.642038
 30
0.0
 11
647.334672
 21
400.684554
 31
0.0
  0
LINE
  5
7F2
100
AcDbEntity
  8
18
100
AcDbLine
 10
647.334672
 20
401.228705
 30
0.0
 11
647.334672
 21
406.366138
 31
0.0
  0
TEXT
  5
7F3
100
AcDbEntity
  8
18
100
AcDbText
 10
489.196503
 20
-533.087646
 30
0.0
 40
12.0
  1
１
 72
     5
 11
498.796503
 21
-533.087646
 31
0.0
100
AcDbText
  0
TEXT
  5
7F4
100
AcDbEntity
  8
18
100
AcDbText
 10
279.220306
 20
-296.44339
 30
0.0
 40
20.0
  1
高圧側
 72
     5
 11
335.220306
 21
-296.44339
 31
0.0
100
AcDbText
  0
TEXT
  5
7F5
100
AcDbEntity
  8
18
100
AcDbText
 10
323.217621
 20
345.081909
 30
0.0
 40
12.0
  1
Ａ
 72
     5
 11
332.817621
 21
345.081909
 31
0.0
100
AcDbText
  0
TEXT
  5
7F6
100
AcDbEntity
  8
18
100
AcDbText
 10
435.16983
 20
344.761292
 30
0.0
 40
12.0
  1
Ｂ
 72
     5
 11
444.76983
 21
344.761292
 31
0.0
100
AcDbText
  0
TEXT
  5
7F7
100
AcDbEntity
  8
18
100
AcDbText
 10
547.217621
 20
345.081909
 30
0.0
 40
12.0
  1
Ｃ
 72
     5
 11
556.817621
 21
345.081909
 31
0.0
100
AcDbText
  0
TEXT
  5
7F8
100
AcDbEntity
  8
18
100
AcDbText
 10
434.528625
 20
324.654278
 30
0.0
 40
12.0
  1
アクチュエ－タ取付方向
 72
     5
 11
564.128625
 21
324.654278
 31
0.0
100
AcDbText
  0
TEXT
  5
7F9
100
AcDbEntity
  8
18
100
AcDbText
 10
295.397583
 20
364.552856
 30
0.0
 40
10.0
  1
弁棒側　低圧側
 72
     5
 11
363.397583
 21
364.552856
 31
0.0
100
AcDbText
  0
TEXT
  5
7FA
100
AcDbEntity
  8
18
100
AcDbText
 10
285.812225
 20
444.175629
 30
0.0
 40
10.0
  1
フラット側　高圧側
 72
     5
 11
373.812225
 21
444.175629
 31
0.0
100
AcDbText
  0
TEXT
  5
7FB
100
AcDbEntity
  8
18
100
AcDbText
 10
659.217621
 20
345.081909
 30
0.0
 40
12.0
  1
Ｄ
 72
     5
 11
668.817621
 21
345.081909
 31
0.0
100
AcDbText
  0
TEXT
  5
7FC
100
AcDbEntity
  8
18
100
AcDbText
 10
505.190308
 20
-548.067078
 30
0.0
 40
12.0
  1
４
 72
     5
 11
514.790308
 21
-548.067078
 31
0.0
100
AcDbText
  0
TEXT
  5
7FD
100
AcDbEntity
  8
18
100
AcDbText
 10
488.750295
 20
-492.141052
 30
0.0
 40
12.0
  1
３０４Ｙ－４ＩＣＳ　８０Ａ
 72
     5
 11
642.350295
 21
-492.141052
 31
0.0
100
AcDbText
  0
TEXT
  5
7FE
100
AcDbEntity
  8
18
100
AcDbText
 10
488.750295
 20
-508.141052
 30
0.0
 40
12.0
  1
標準仕様、重負荷仕様
 72
     5
 11
606.350295
 21
-508.141052
 31
0.0
100
AcDbText
  0
TEXT
  5
7FF
100
AcDbEntity
  8
18
100
AcDbText
 10
614.4
 20
-544.0
 30
0.0
 40
20.0
  1
Ｄ３－０３７８５
 72
     5
 11
770.4
 21
-544.0
 31
0.0
100
AcDbText
  0
TEXT
  5
800
100
AcDbEntity
  8
18
100
AcDbText
 10
725.57489
 20
-508.952789
 30
0.0
 40
9.0
  1
２００５．７．１５
 41
0.85
 72
     5
 11
792.89489
 21
-508.952789
 31
0.0
100
AcDbText
  0
LINE
  5
801
100
AcDbEntity
  8
20
 62
     3
100
AcDbLine
 10
-720.0
 20
-554.0
 30
0.0
 11
800.0
 21
-554.0
 31
0.0
  0
LINE
  5
802
100
AcDbEntity
  8
20
 62
     3
100
AcDbLine
 10
-720.0
 20
528.0
 30
0.0
 11
800.0
 21
528.0
 31
0.0
  0
LINE
  5
803
100
AcDbEntity
  8
20
 62
     3
100
AcDbLine
 10
-720.0
 20
528.0
 30
0.0
 11
-720.0
 21
-554.0
 31
0.0
  0
LINE
  5
804
100
AcDbEntity
  8
20
 62
     3
100
AcDbLine
 10
800.0
 20
528.0
 30
0.0
 11
800.0
 21
-554.0
 31
0.0
  0
LINE
  5
805
100
AcDbEntity
  8
20
 62
     3
100
AcDbLine
 10
240.0
 20
-554.0
 30
0.0
 11
240.0
 21
-474.0
 31
0.0
  0
LINE
  5
806
100
AcDbEntity
  8
20
 62
     3
100
AcDbLine
 10
428.0
 20
-554.0
 30
0.0
 11
428.0
 21
-474.0
 31
0.0
  0
LINE
  5
807
100
AcDbEntity
  8
20
100
AcDbLine
 10
428.0
 20
-514.0
 30
0.0
 11
800.0
 21
-514.0
 31
0.0
  0
LINE
  5
808
100
AcDbEntity
  8
20
 62
     3
100
AcDbLine
 10
240.0
 20
-474.0
 30
0.0
 11
800.0
 21
-474.0
 31
0.0
  0
LINE
  5
809
100
AcDbEntity
  8
20
100
AcDbLine
 10
720.0
 20
-514.0
 30
0.0
 11
720.0
 21
-474.0
 31
0.0
  0
LINE
  5
80A
100
AcDbEntity
  8
20
100
AcDbLine
 10
720.0
 20
-494.0
 30
0.0
 11
800.0
 21
-494.0
 31
0.0
  0
LINE
  5
80B
100
AcDbEntity
  8
20
100
AcDbLine
 10
484.0
 20
-554.0
 30
0.0
 11
484.0
 21
-474.0
 31
0.0
  0
LINE
  5
80C
100
AcDbEntity
  8
20
100
AcDbLine
 10
524.0
 20
-554.0
 30
0.0
 11
524.0
 21
-514.0
 31
0.0
  0
LINE
  5
80D
100
AcDbEntity
  8
20
100
AcDbLine
 10
604.0
 20
-554.0
 30
0.0
 11
604.0
 21
-514.0
 31
0.0
  0
LINE
  5
80E
100
AcDbEntity
  8
20
100
AcDbLine
 10
494.913658
 20
-543.086342
 30
0.0
 11
511.593163
 21
-526.406837
 31
0.0
  0
TEXT
  5
80F
100
AcDbEntity
  8
20
100
AcDbText
 10
526.133316
 20
-529.987671
 30
0.0
 40
7.2
  1
ＤＲＡＷＩＮＧ　ＮＯ．
 72
     5
 11
603.893316
 21
-529.987671
 31
0.0
100
AcDbText
  0
TEXT
  5
810
100
AcDbEntity
  8
20
100
AcDbText
 10
534.0
 20
-546.0
 30
0.0
 40
12.0
  1
図　　　番
 72
     5
 11
591.6
 21
-546.0
 31
0.0
100
AcDbText
  0
TEXT
  5
811
100
AcDbEntity
  8
20
100
AcDbText
 10
744.0
 20
-488.0
 30
0.0
 40
8.0
  1
ＤＡＴＥ
 72
     5
 11
774.4
 21
-488.0
 31
0.0
100
AcDbText
  0
TEXT
  5
812
100
AcDbEntity
  8
20
100
AcDbText
 10
436.004284
 20
-531.844116
 30
0.0
 40
8.0
  1
ＳＣＡＬＥ
 72
     5
 11
474.404284
 21
-531.844116
 31
0.0
100
AcDbText
  0
TEXT
  5
813
100
AcDbEntity
  8
20
100
AcDbText
 10
432.0
 20
-546.0
 30
0.0
 40
12.0
  1
尺　　度
 72
     5
 11
477.6
 21
-546.0
 31
0.0
100
AcDbText
  0
TEXT
  5
814
100
AcDbEntity
  8
20
100
AcDbText
 10
430.004284
 20
-489.983539
 30
0.0
 40
8.0
  1
ＦＩＧ．ＮＯ．
 72
     5
 11
484.404284
 21
-489.983539
 31
0.0
100
AcDbText
  0
TEXT
  5
815
100
AcDbEntity
  8
20
100
AcDbText
 10
432.0
 20
-506.0
 30
0.0
 40
12.0
  1
名　　称
 72
     5
 11
477.6
 21
-506.0
 31
0.0
100
AcDbText
  0
TEXT
  5
816
100
AcDbEntity
  8
20
100
AcDbText
 10
242.2621
 20
-505.881012
 30
0.0
 40
9.2
  1
ＴＯＭＯＥ　ＶＡＬＶＥ　ＣＯ．，ＬＴＤ．
 72
     5
 11
424.4221
 21
-505.881012
 31
0.0
100
AcDbText
  0
TEXT
  5
817
100
AcDbEntity
  8
20
100
AcDbText
 10
270.0
 20
-533.159241
 30
0.0
 40
16.0
  1
巴バルブ株式会社
 72
     5
 11
394.8
 21
-533.159241
 31
0.0
100
AcDbText
  0
ENDSEC
  0
SECTION
  2
OBJECTS
  0
DICTIONARY
  5
890
100
AcDbDictionary
  3
ACAD_GROUP
350
891
  3
ACAD_MLINESTYLE
350
892
  0
DICTIONARY
  5
891
102
{ACAD_REACTORS
330
890
102
}
100
AcDbDictionary
  0
DICTIONARY
  5
892
102
{ACAD_REACTORS
330
890
102
}
100
AcDbDictionary
  3
STANDARD
350
893
  0
MLINESTYLE
  5
893
102
{ACAD_REACTORS
330
892
102
}
100
AcDbMlineStyle
  2
STANDARD
 70
     0
  3

 62
     0
 51
90.0
 52
90.0
 71
     2
 49
0.5
 62
   256
  6
BYLAYER
 49
-0.5
 62
   256
  6
BYLAYER
  0
ENDSEC
  0
EOF
