  0
SECTION
  2
HEADER
  9
$ACADVER
  1
AC1012
  9
$DWGCODEPAGE
  3
ansi_932
  9
$INSBASE
 10
0.0
 20
0.0
 30
0.0
  9
$EXTMIN
 10
-630.0
 20
-445.5
 30
1.000000E+20
  9
$EXTMAX
 10
630.0
 20
445.5
 30
-1.000000E+20
  9
$LIMMIN
 10
-630.0
 20
-445.5
  9
$LIMMAX
 10
630.0
 20
445.5
  9
$ORTHOMODE
 70
     0
  9
$REGENMODE
 70
     1
  9
$FILLMODE
 70
     1
  9
$QTEXTMODE
 70
     0
  9
$MIRRTEXT
 70
     1
  9
$DRAGMODE
 70
     2
  9
$LTSCALE
 40
1.0
  9
$OSMODE
 70
     0
  9
$ATTMODE
 70
     1
  9
$TEXTSIZE
 40
0.2
  9
$TRACEWID
 40
0.05
  9
$TEXTSTYLE
  7
STANDARD
  9
$CLAYER
  8
0
  9
$CELTYPE
  6
CONTINUOUS
  9
$CECOLOR
 62
   256
  9
$CELTSCALE
 40
1.0
  9
$DELOBJ
 70
     1
  9
$DISPSILH
 70
     0
  9
$DIMSCALE
 40
3.0
  9
$DIMASZ
 40
0.18
  9
$DIMEXO
 40
0.0625
  9
$DIMDLI
 40
0.38
  9
$DIMRND
 40
0.0
  9
$DIMDLE
 40
0.0
  9
$DIMEXE
 40
0.18
  9
$DIMTP
 40
0.0
  9
$DIMTM
 40
0.0
  9
$DIMTXT
 40
0.18
  9
$DIMCEN
 40
0.09
  9
$DIMTSZ
 40
0.0
  9
$DIMTOL
 70
     0
  9
$DIMLIM
 70
     0
  9
$DIMTIH
 70
     1
  9
$DIMTOH
 70
     1
  9
$DIMSE1
 70
     0
  9
$DIMSE2
 70
     0
  9
$DIMTAD
 70
     1
  9
$DIMZIN
 70
     0
  9
$DIMBLK
  1

  9
$DIMASO
 70
     1
  9
$DIMSHO
 70
     1
  9
$DIMPOST
  1

  9
$DIMAPOST
  1

  9
$DIMALT
 70
     0
  9
$DIMALTD
 70
     2
  9
$DIMALTF
 40
25.4
  9
$DIMLFAC
 40
1.0
  9
$DIMTOFL
 70
     0
  9
$DIMTVP
 40
0.0
  9
$DIMTIX
 70
     0
  9
$DIMSOXD
 70
     0
  9
$DIMSAH
 70
     0
  9
$DIMBLK1
  1

  9
$DIMBLK2
  1

  9
$DIMSTYLE
  2
STANDARD
  9
$DIMCLRD
 70
     0
  9
$DIMCLRE
 70
     0
  9
$DIMCLRT
 70
     0
  9
$DIMTFAC
 40
1.0
  9
$DIMGAP
 40
0.09
  9
$DIMJUST
 70
     0
  9
$DIMSD1
 70
     0
  9
$DIMSD2
 70
     0
  9
$DIMTOLJ
 70
     1
  9
$DIMTZIN
 70
     0
  9
$DIMALTZ
 70
     0
  9
$DIMALTTZ
 70
     0
  9
$DIMFIT
 70
     3
  9
$DIMUPT
 70
     0
  9
$DIMUNIT
 70
     2
  9
$DIMDEC
 70
     4
  9
$DIMTDEC
 70
     4
  9
$DIMALTU
 70
     2
  9
$DIMALTTD
 70
     2
  9
$DIMTXSTY
  7
STANDARD
  9
$DIMAUNIT
 70
     0
  9
$LUNITS
 70
     2
  9
$LUPREC
 70
     4
  9
$SKETCHINC
 40
0.1
  9
$FILLETRAD
 40
0.0
  9
$AUNITS
 70
     0
  9
$AUPREC
 70
     0
  9
$MENU
  1
acad
  9
$ELEVATION
 40
0.0
  9
$PELEVATION
 40
0.0
  9
$THICKNESS
 40
0.0
  9
$LIMCHECK
 70
     0
  9
$BLIPMODE
 70
     1
  9
$CHAMFERA
 40
0.0
  9
$CHAMFERB
 40
0.0
  9
$CHAMFERC
 40
0.0
  9
$CHAMFERD
 40
0.0
  9
$SKPOLY
 70
     0
  9
$TDCREATE
 40
2451449.000000000
  9
$TDUPDATE
 40
0.000000000
  9
$TDINDWG
 40
0.0000000000
  9
$TDUSRTIMER
 40
0.0000000000
  9
$USRTIMER
 70
     1
  9
$ANGBASE
 50
0.0
  9
$ANGDIR
 70
     0
  9
$PDMODE
 70
     0
  9
$PDSIZE
 40
0.0
  9
$PLINEWID
 40
0.0
  9
$COORDS
 70
     0
  9
$SPLFRAME
 70
     0
  9
$SPLINETYPE
 70
     6
  9
$SPLINESEGS
 70
     8
  9
$ATTDIA
 70
     0
  9
$ATTREQ
 70
     1
  9
$HANDLING
 70
     1
  9
$HANDSEED
  5
672
  9
$SURFTAB1
 70
     6
  9
$SURFTAB2
 70
     6
  9
$SURFTYPE
 70
     6
  9
$SURFU
 70
     6
  9
$SURFV
 70
     6
  9
$UCSNAME
  2

  9
$UCSORG
 10
0.0
 20
0.0
 30
0.0
  9
$UCSXDIR
 10
1.0
 20
0.0
 30
0.0
  9
$UCSYDIR
 10
0.0
 20
1.0
 30
0.0
  9
$PUCSNAME
  2

  9
$PUCSORG
 10
0.0
 20
0.0
 30
0.0
  9
$PUCSXDIR
 10
1.0
 20
0.0
 30
0.0
  9
$PUCSYDIR
 10
0.0
 20
1.0
 30
0.0
  9
$USERI1
 70
     0
  9
$USERI2
 70
     0
  9
$USERI3
 70
     0
  9
$USERI4
 70
     0
  9
$USERI5
 70
     0
  9
$USERR1
 40
0.0
  9
$USERR2
 40
0.0
  9
$USERR3
 40
0.0
  9
$USERR4
 40
0.0
  9
$USERR5
 40
0.0
  9
$WORLDVIEW
 70
     1
  9
$SHADEDGE
 70
     3
  9
$SHADEDIF
 70
    70
  9
$TILEMODE
 70
     1
  9
$MAXACTVP
 70
    16
  9
$PINSBASE
 10
0.0
 20
0.0
 30
0.0
  9
$PLIMCHECK
 70
     0
  9
$PEXTMIN
 10
1.000000E+20
 20
1.000000E+20
 30
1.000000E+20
  9
$PEXTMAX
 10
-1.000000E+20
 20
-1.000000E+20
 30
-1.000000E+20
  9
$PLIMMIN
 10
0.0
 20
0.0
  9
$PLIMMAX
 10
12.0
 20
9.0
  9
$UNITMODE
 70
     0
  9
$VISRETAIN
 70
     0
  9
$PLINEGEN
 70
     1
  9
$PSLTSCALE
 70
     0
  9
$TREEDEPTH
 70
  3020
  9
$PICKSTYLE
 70
     1
  9
$CMLSTYLE
  2
STANDARD
  9
$CMLJUST
 70
     0
  9
$CMLSCALE
 40
1.0
  9
$SAVEIMAGES
 70
     0
  0
ENDSEC
  0
SECTION
  2
CLASSES
  0
CLASS
  1
LWPOLYLINE
  2
AcDbPolyline
  3
"AutoCAD"
 90
    32768
280
     0
281
     1
  0
CLASS
  1
IMAGE
  2
AcDbRasterImage
  3
ISM
 90
    32895
280
     0
281
     1
  0
CLASS
  1
OLE2FRAME
  2
AcDbOle2Frame
  3
""
 90
    32768
280
     0
281
     1
  0
CLASS
  1
HATCH
  2
AcDbHatch
  3
"ACAD_SEDONA"
 90
    32768
280
     0
281
     1
  0
CLASS
  1
DICTIONARYVAR
  2
AcDbDictionaryVar
  3
"AutoCAD"
 90
    32768
280
     0
281
     0
  0
CLASS
  1
RASTERVARIABLES
  2
AcDbRasterVariables
  3
ISM
 90
    32768
280
     0
281
     0
  0
CLASS
  1
IMAGEDEF
  2
AcDbRasterImageDef
  3
ISM
 90
    32768
280
     0
281
     0
  0
CLASS
  1
IMAGEDEF_REACTOR
  2
AcDbRasterImageDefReactor
  3
ISM
 90
    32769
280
     0
281
     0
  0
CLASS
  1
IDBUFFER
  2
AcDbIdBuffer
  3
"Acad"
 90
    32768
280
     0
281
     0
  0
CLASS
  1
SPATIAL_FILTER
  2
AcDbSpatialFilter
  3
"Acad"
 90
    32768
280
     0
281
     0
  0
CLASS
  1
XRECORD
  2
AcDbXrecord
  3
"<Built In>"
 90
    32768
280
     0
281
     0
  0
CLASS
  1
SORTENTSTABLE
  2
AcDbSortentsTable
  3
"AutoCAD"
 90
    32768
280
     0
281
     0
  0
CLASS
  1
LAYER_INDEX
  2
AcDbLayerIndex
  3
"Acad"
 90
    32768
280
     0
281
     0
  0
CLASS
  1
SPATIAL_INDEX
  2
AcDbSpatialIndex
  3
"Acad"
 90
    32768
280
     0
281
     0
  0
CLASS
  1
OBJECT_PTR
  2
CAseDLPNTableRecord
  3
"ASE-LPNTableRecord"
 90
    32769
280
     0
281
     0
  0
CLASS
  1
LAYOUT
  2
AcDbLayout
  3
"AutoCAD 2000"
 90
    32768
280
     0
281
     0
  0
CLASS
  1
PLOTSETTINGS
  2
AcDbPlotSettings
  3
"AutoCAD 2000"
 90
    32768
280
     0
281
     0
  0
CLASS
  1
ACDBDICTIONARYWDFLT
  2
AcDbDictionaryWithDefault
  3
"AutoCAD 2000"
 90
    32768
280
     0
281
     0
  0
CLASS
  1
ACDBPLACEHOLDER
  2
AcDbPlaceHolder
  3
"AutoCAD 2000"
 90
    32768
280
     0
281
     0
  0
CLASS
  1
VBA_PROJECT
  2
AcDbVbaProject
  3
"acadvba"
 90
    32768
280
     0
281
     0
  0
CLASS
  1
WIPEOUT
  2
AcDbWipeout
  3
WipeOut|AutoCAD Express Tool|expresstools@autodesk.com
 90
    32895
280
     0
281
     1
  0
CLASS
  1
WIPEOUTVARIABLES
  2
AcDbWipeoutVariables
  3
WipeOut|AutoCAD Express Tool|expresstools@autodesk.com
 90
    32768
280
     0
281
     0
  0
CLASS
  1
RTEXT
  2
RText
  3
RText|AutoCAD Express Tool|expresstools@autodesk.com
 90
    32768
280
     0
281
     1
  0
CLASS
  1
ARCALIGNEDTEXT
  2
AcDbArcAlignedText
  3
ATEXT|AutoCAD Express Tool|expresstools@autodesk.com
 90
    32768
280
     0
281
     1
  0
ENDSEC
  0
SECTION
  2
TABLES
  0
TABLE
  2
VPORT
  5
6
100
AcDbSymbolTable
 70
     1
  0
VPORT
  5
1C
100
AcDbSymbolTableRecord
100
AcDbViewportTableRecord
  2
*ACTIVE
 70
     0
 10
0.0
 20
0.0
 11
1.0
 21
1.0
 12
0.0
 22
0.0
 13
0.0
 23
0.0
 14
1.0
 24
1.0
 15
0.0
 25
0.0
 16
0.0
 26
0.0
 36
1.0
 17
0.0
 27
0.0
 37
0.0
 40
891.0
 41
1.414141
 42
50.0
 43
0.0
 44
0.0
 50
0.0
 51
0.0
 71
     0
 72
   500
 73
     1
 74
     1
 75
     0
 76
     0
 77
     0
 78
     0
  0
ENDTAB
  0
TABLE
  2
LTYPE
  5
3
100
AcDbSymbolTable
 70
     9
  0
LTYPE
  5
C
100
AcDbSymbolTableRecord
100
AcDbLinetypeTableRecord
  2
BYBLOCK
 70
    64
  3

 72
    65
 73
     0
 40
0.0
  0
LTYPE
  5
D
100
AcDbSymbolTableRecord
100
AcDbLinetypeTableRecord
  2
BYLAYER
 70
    64
  3

 72
    65
 73
     0
 40
0.0
  0
LTYPE
  5
E
100
AcDbSymbolTableRecord
100
AcDbLinetypeTableRecord
  2
CONTINUOUS
 70
     0
  3
Solid line
 72
    65
 73
     0
 40
0.0
  0
LTYPE
  5
F
100
AcDbSymbolTableRecord
100
AcDbLinetypeTableRecord
  2
DASHED
 70
     0
  3
__ __ __ __ __ __ __ __ __ __ __ __ __ __ __
 72
    65
 73
     2
 40
2.0
 49
1.2
 74
     0
 49
-0.8
 74
     0
  0
LTYPE
  5
10
100
AcDbSymbolTableRecord
100
AcDbLinetypeTableRecord
  2
CENTER
 70
     0
  3
____ _ ____ _ ____ _ ____ _ ____ _ ____ _ ____
 72
    65
 73
     4
 40
12.0
 49
9.0
 74
     0
 49
-1.0
 74
     0
 49
1.0
 74
     0
 49
-1.0
 74
     0
  0
LTYPE
  5
11
100
AcDbSymbolTableRecord
100
AcDbLinetypeTableRecord
  2
HIDDEN
 70
     0
  3
_ _ _ _ _ _ _ _ _ _ _ _ _ _ _ _ _ _ _ _ _ _ _
 72
    65
 73
     2
 40
3.2
 49
2.4
 74
     0
 49
-0.8
 74
     0
  0
LTYPE
  5
12
100
AcDbSymbolTableRecord
100
AcDbLinetypeTableRecord
  2
PHANTOM
 70
     0
  3
_____ _ _ _____ _ _ _____ _ _ _____ _ _ _____
 72
    65
 73
     6
 40
13.5
 49
9.0
 74
     0
 49
-1.0
 74
     0
 49
1.0
 74
     0
 49
-0.5
 74
     0
 49
1.0
 74
     0
 49
-1.0
 74
     0
  0
LTYPE
  5
13
100
AcDbSymbolTableRecord
100
AcDbLinetypeTableRecord
  2
DOT
 70
     0
  3
...............................................
 72
    65
 73
     2
 40
1.0
 49
0.5
 74
     0
 49
-0.5
 74
     0
  0
LTYPE
  5
14
100
AcDbSymbolTableRecord
100
AcDbLinetypeTableRecord
  2
DASHDOT
 70
     0
  3
__ . __ . __ . __ . __ . __ . __ . __ . __ . __
 72
    65
 73
     4
 40
8.0
 49
5.0
 74
     0
 49
-1.0
 74
     0
 49
1.0
 74
     0
 49
-1.0
 74
     0
  0
ENDTAB
  0
TABLE
  2
LAYER
  5
1
100
AcDbSymbolTable
 70
     7
  0
LAYER
  5
15
100
AcDbSymbolTableRecord
100
AcDbLayerTableRecord
  2
0
 70
     0
 62
     7
  6
CONTINUOUS
  0
LAYER
  5
16
100
AcDbSymbolTableRecord
100
AcDbLayerTableRecord
  2
1
 70
     0
 62
     7
  6
CONTINUOUS
  0
LAYER
  5
17
100
AcDbSymbolTableRecord
100
AcDbLayerTableRecord
  2
2
 70
     0
 62
     7
  6
CONTINUOUS
  0
LAYER
  5
18
100
AcDbSymbolTableRecord
100
AcDbLayerTableRecord
  2
3
 70
     0
 62
     7
  6
CONTINUOUS
  0
LAYER
  5
19
100
AcDbSymbolTableRecord
100
AcDbLayerTableRecord
  2
5
 70
     0
 62
     7
  6
CONTINUOUS
  0
LAYER
  5
1A
100
AcDbSymbolTableRecord
100
AcDbLayerTableRecord
  2
18
 70
     0
 62
     7
  6
CONTINUOUS
  0
LAYER
  5
1B
100
AcDbSymbolTableRecord
100
AcDbLayerTableRecord
  2
20
 70
     0
 62
     7
  6
CONTINUOUS
  0
ENDTAB
  0
TABLE
  2
STYLE
  5
2
100
AcDbSymbolTable
 70
     1
  0
STYLE
  5
1E
100
AcDbSymbolTableRecord
100
AcDbTextStyleTableRecord
  2
STANDARD
 70
    64
 40
0.0
 41
1.0
 50
0.0
 71
     0
 42
1.0
  3
txt
  4
BIGFONT
  0
ENDTAB
  0
TABLE
  2
VIEW
  5
4
100
AcDbSymbolTable
 70
     0
  0
ENDTAB
  0
TABLE
  2
UCS
  5
5
100
AcDbSymbolTable
 70
     0
  0
ENDTAB
  0
TABLE
  2
APPID
  5
7
100
AcDbSymbolTable
 70
     1
  0
APPID
  5
1D
100
AcDbSymbolTableRecord
100
AcDbRegAppTableRecord
  2
ACAD
 70
     0
  0
ENDTAB
  0
TABLE
  2
DIMSTYLE
  5
8
100
AcDbSymbolTable
 70
     1
  0
DIMSTYLE
105
32
100
AcDbSymbolTableRecord
100
AcDbDimStyleTableRecord
  2
STANDARD
 70
     0
  3

  4

  5

  6

  7

 40
3.0
 41
0.18
 42
0.0625
 43
0.38
 44
0.18
 45
0.0
 46
0.0
 47
0.0
 48
0.0
 71
     0
 72
     0
 73
     1
 74
     1
 75
     0
 76
     0
 77
     1
 78
     0
140
0.18
141
0.09
142
0.0
143
25.4
144
1.0
145
0.0
146
1.0
147
0.09
170
     0
171
     2
172
     0
173
     0
174
     0
175
     0
176
     0
177
     0
178
     0
270
     2
271
     4
272
     4
273
     2
274
     2
275
     0
280
     0
281
     0
282
     0
283
     1
284
     0
285
     0
286
     0
287
     3
288
     0
340
1E
  0
ENDTAB
  0
TABLE
  2
BLOCK_RECORD
  5
2D
100
AcDbSymbolTable
 70
    12
  0
BLOCK_RECORD
  5
2B
100
AcDbSymbolTableRecord
100
AcDbBlockTableRecord
  2
*MODEL_SPACE
  0
BLOCK_RECORD
  5
2C
100
AcDbSymbolTableRecord
100
AcDbBlockTableRecord
  2
*PAPER_SPACE
  0
BLOCK_RECORD
  5
1F
100
AcDbSymbolTableRecord
100
AcDbBlockTableRecord
  2
*D0
  0
BLOCK_RECORD
  5
20
100
AcDbSymbolTableRecord
100
AcDbBlockTableRecord
  2
*D1
  0
BLOCK_RECORD
  5
21
100
AcDbSymbolTableRecord
100
AcDbBlockTableRecord
  2
*D2
  0
BLOCK_RECORD
  5
22
100
AcDbSymbolTableRecord
100
AcDbBlockTableRecord
  2
*D3
  0
BLOCK_RECORD
  5
23
100
AcDbSymbolTableRecord
100
AcDbBlockTableRecord
  2
*D4
  0
BLOCK_RECORD
  5
24
100
AcDbSymbolTableRecord
100
AcDbBlockTableRecord
  2
*D5
  0
BLOCK_RECORD
  5
25
100
AcDbSymbolTableRecord
100
AcDbBlockTableRecord
  2
*D6
  0
BLOCK_RECORD
  5
26
100
AcDbSymbolTableRecord
100
AcDbBlockTableRecord
  2
*D7
  0
BLOCK_RECORD
  5
27
100
AcDbSymbolTableRecord
100
AcDbBlockTableRecord
  2
*D8
  0
BLOCK_RECORD
  5
28
100
AcDbSymbolTableRecord
100
AcDbBlockTableRecord
  2
*D9
  0
BLOCK_RECORD
  5
29
100
AcDbSymbolTableRecord
100
AcDbBlockTableRecord
  2
*D10
  0
BLOCK_RECORD
  5
2A
100
AcDbSymbolTableRecord
100
AcDbBlockTableRecord
  2
*D11
  0
ENDTAB
  0
ENDSEC
  0
SECTION
  2
BLOCKS
  0
BLOCK
  5
2E
100
AcDbEntity
  8
0
100
AcDbBlockBegin
  2
*MODEL_SPACE
 70
     0
 10
0.0
 20
0.0
 30
0.0
  3
*MODEL_SPACE
  1

  0
ENDBLK
  5
2F
100
AcDbEntity
  8
0
100
AcDbBlockEnd
  0
BLOCK
  5
30
100
AcDbEntity
 67
     1
  8
0
100
AcDbBlockBegin
  2
*PAPER_SPACE
 70
     0
 10
0.0
 20
0.0
 30
0.0
  3
*PAPER_SPACE
  1

  0
ENDBLK
  5
31
100
AcDbEntity
 67
     1
  8
0
100
AcDbBlockEnd
  0
BLOCK
  5
5E1
100
AcDbEntity
  8
5
100
AcDbBlockBegin
  2
*D0
 70
     1
 10
0.0
 20
0.0
 30
0.0
  3
*D0
  1

  0
TEXT
  5
5E2
100
AcDbEntity
  8
5
 62
     2
100
AcDbText
 10
-469.048782
 20
274.774896
 30
0.0
 40
9.9
  1
87.5
 50
90.0
 41
1.4
 72
     5
 11
-469.048782
 21
299.722896
 31
0.0
100
AcDbText
  0
LINE
  5
5E3
100
AcDbEntity
  8
5
 62
     2
100
AcDbLine
 10
-441.849273
 20
244.884894
 30
0.0
 11
-470.548782
 21
244.884894
 31
0.0
  0
LINE
  5
5E4
100
AcDbEntity
  8
5
 62
     2
100
AcDbLine
 10
-467.548782
 20
244.884894
 30
0.0
 11
-465.995868
 21
250.680449
 31
0.0
  0
LINE
  5
5E5
100
AcDbEntity
  8
5
 62
     2
100
AcDbLine
 10
-467.548782
 20
244.884894
 30
0.0
 11
-469.101696
 21
250.680449
 31
0.0
  0
LINE
  5
5E6
100
AcDbEntity
  8
5
 62
     2
100
AcDbLine
 10
-465.995868
 20
250.680449
 30
0.0
 11
-469.101696
 21
250.680449
 31
0.0
  0
LINE
  5
5E7
100
AcDbEntity
  8
5
 62
     2
100
AcDbLine
 10
-467.548782
 20
244.884894
 30
0.0
 11
-467.548782
 21
332.384895
 31
0.0
  0
LINE
  5
5E8
100
AcDbEntity
  8
5
 62
     2
100
AcDbLine
 10
-467.548782
 20
332.384895
 30
0.0
 11
-469.101696
 21
326.58934
 31
0.0
  0
LINE
  5
5E9
100
AcDbEntity
  8
5
 62
     2
100
AcDbLine
 10
-467.548782
 20
332.384895
 30
0.0
 11
-465.995868
 21
326.58934
 31
0.0
  0
LINE
  5
5EA
100
AcDbEntity
  8
5
 62
     2
100
AcDbLine
 10
-469.101696
 20
326.58934
 30
0.0
 11
-465.995868
 21
326.58934
 31
0.0
  0
LINE
  5
5EB
100
AcDbEntity
  8
5
 62
     2
100
AcDbLine
 10
-372.782076
 20
332.384895
 30
0.0
 11
-470.548782
 21
332.384895
 31
0.0
  0
ENDBLK
  5
5EC
100
AcDbEntity
  8
5
100
AcDbBlockEnd
  0
BLOCK
  5
5ED
100
AcDbEntity
  8
5
100
AcDbBlockBegin
  2
*D1
 70
     1
 10
0.0
 20
0.0
 30
0.0
  3
*D1
  1

  0
TEXT
  5
5EE
100
AcDbEntity
  8
5
 62
     2
100
AcDbText
 10
-469.048782
 20
199.774896
 30
0.0
 40
9.9
  1
62.5
 50
90.0
 41
1.4
 72
     5
 11
-469.048782
 21
224.722896
 31
0.0
100
AcDbText
  0
LINE
  5
5EF
100
AcDbEntity
  8
5
 62
     2
100
AcDbLine
 10
-355.782075
 20
182.384895
 30
0.0
 11
-470.548782
 21
182.384895
 31
0.0
  0
LINE
  5
5F0
100
AcDbEntity
  8
5
 62
     2
100
AcDbLine
 10
-467.548782
 20
182.384895
 30
0.0
 11
-465.995868
 21
188.18045
 31
0.0
  0
LINE
  5
5F1
100
AcDbEntity
  8
5
 62
     2
100
AcDbLine
 10
-467.548782
 20
182.384895
 30
0.0
 11
-469.101696
 21
188.18045
 31
0.0
  0
LINE
  5
5F2
100
AcDbEntity
  8
5
 62
     2
100
AcDbLine
 10
-465.995868
 20
188.18045
 30
0.0
 11
-469.101696
 21
188.18045
 31
0.0
  0
LINE
  5
5F3
100
AcDbEntity
  8
5
 62
     2
100
AcDbLine
 10
-467.548782
 20
182.384895
 30
0.0
 11
-467.548782
 21
244.884894
 31
0.0
  0
LINE
  5
5F4
100
AcDbEntity
  8
5
 62
     2
100
AcDbLine
 10
-467.548782
 20
244.884894
 30
0.0
 11
-469.101696
 21
239.089339
 31
0.0
  0
LINE
  5
5F5
100
AcDbEntity
  8
5
 62
     2
100
AcDbLine
 10
-467.548782
 20
244.884894
 30
0.0
 11
-465.995868
 21
239.089339
 31
0.0
  0
LINE
  5
5F6
100
AcDbEntity
  8
5
 62
     2
100
AcDbLine
 10
-469.101696
 20
239.089339
 30
0.0
 11
-465.995868
 21
239.089339
 31
0.0
  0
LINE
  5
5F7
100
AcDbEntity
  8
5
 62
     2
100
AcDbLine
 10
-441.849273
 20
244.884894
 30
0.0
 11
-470.548782
 21
244.884894
 31
0.0
  0
ENDBLK
  5
5F8
100
AcDbEntity
  8
5
100
AcDbBlockEnd
  0
BLOCK
  5
5F9
100
AcDbEntity
  8
5
100
AcDbBlockBegin
  2
*D2
 70
     1
 10
0.0
 20
0.0
 30
0.0
  3
*D2
  1

  0
LINE
  5
5FA
100
AcDbEntity
  8
5
 62
     2
100
AcDbLine
 10
-352.782075
 20
60.529416
 30
0.0
 11
-352.782075
 21
112.012703
 31
0.0
  0
LINE
  5
5FB
100
AcDbEntity
  8
5
 62
     2
100
AcDbLine
 10
-352.782075
 20
109.012703
 30
0.0
 11
-346.98652
 21
107.459789
 31
0.0
  0
LINE
  5
5FC
100
AcDbEntity
  8
5
 62
     2
100
AcDbLine
 10
-352.782075
 20
109.012703
 30
0.0
 11
-346.98652
 21
110.565617
 31
0.0
  0
LINE
  5
5FD
100
AcDbEntity
  8
5
 62
     2
100
AcDbLine
 10
-346.98652
 20
107.459789
 30
0.0
 11
-346.98652
 21
110.565617
 31
0.0
  0
LINE
  5
5FE
100
AcDbEntity
  8
5
 62
     2
100
AcDbLine
 10
-352.782075
 20
109.012703
 30
0.0
 11
-52.959254
 21
109.012703
 31
0.0
  0
LINE
  5
5FF
100
AcDbEntity
  8
5
 62
     2
100
AcDbLine
 10
-52.959254
 20
109.012703
 30
0.0
 11
-58.754809
 21
110.565617
 31
0.0
  0
LINE
  5
600
100
AcDbEntity
  8
5
 62
     2
100
AcDbLine
 10
-52.959254
 20
109.012703
 30
0.0
 11
-58.754809
 21
107.459789
 31
0.0
  0
LINE
  5
601
100
AcDbEntity
  8
5
 62
     2
100
AcDbLine
 10
-58.754809
 20
110.565617
 30
0.0
 11
-58.754809
 21
107.459789
 31
0.0
  0
LINE
  5
602
100
AcDbEntity
  8
5
 62
     2
100
AcDbLine
 10
-52.959254
 20
89.502485
 30
0.0
 11
-52.959254
 21
112.012703
 31
0.0
  0
ENDBLK
  5
603
100
AcDbEntity
  8
5
100
AcDbBlockEnd
  0
BLOCK
  5
604
100
AcDbEntity
  8
5
100
AcDbBlockBegin
  2
*D3
 70
     1
 10
0.0
 20
0.0
 30
0.0
  3
*D3
  1

  0
TEXT
  5
605
100
AcDbEntity
  8
5
 62
     2
100
AcDbText
 10
36.534387
 20
-16.155975
 30
0.0
 40
9.9
  1
25
 50
90.0
 41
1.4
 72
     5
 11
36.534387
 21
-5.067975
 31
0.0
100
AcDbText
  0
LINE
  5
606
100
AcDbEntity
  8
5
 62
     2
100
AcDbLine
 10
73.427484
 20
-21.725975
 30
0.0
 11
35.034387
 21
-21.725975
 31
0.0
  0
LINE
  5
607
100
AcDbEntity
  8
5
 62
     2
100
AcDbLine
 10
38.034387
 20
-21.725975
 30
0.0
 11
39.587301
 21
-15.93042
 31
0.0
  0
LINE
  5
608
100
AcDbEntity
  8
5
 62
     2
100
AcDbLine
 10
38.034387
 20
-21.725975
 30
0.0
 11
36.481473
 21
-15.93042
 31
0.0
  0
LINE
  5
609
100
AcDbEntity
  8
5
 62
     2
100
AcDbLine
 10
39.587301
 20
-15.93042
 30
0.0
 11
36.481473
 21
-15.93042
 31
0.0
  0
LINE
  5
60A
100
AcDbEntity
  8
5
 62
     2
100
AcDbLine
 10
38.034387
 20
-21.725975
 30
0.0
 11
38.034387
 21
3.274024
 31
0.0
  0
LINE
  5
60B
100
AcDbEntity
  8
5
 62
     2
100
AcDbLine
 10
38.034387
 20
3.274024
 30
0.0
 11
36.481473
 21
-2.521531
 31
0.0
  0
LINE
  5
60C
100
AcDbEntity
  8
5
 62
     2
100
AcDbLine
 10
38.034387
 20
3.274024
 30
0.0
 11
39.587301
 21
-2.521531
 31
0.0
  0
LINE
  5
60D
100
AcDbEntity
  8
5
 62
     2
100
AcDbLine
 10
36.481473
 20
-2.521531
 30
0.0
 11
39.587301
 21
-2.521531
 31
0.0
  0
LINE
  5
60E
100
AcDbEntity
  8
5
 62
     2
100
AcDbLine
 10
61.865038
 20
3.274024
 30
0.0
 11
35.034387
 21
3.274024
 31
0.0
  0
ENDBLK
  5
60F
100
AcDbEntity
  8
5
100
AcDbBlockEnd
  0
BLOCK
  5
610
100
AcDbEntity
  8
5
100
AcDbBlockBegin
  2
*D4
 70
     1
 10
0.0
 20
0.0
 30
0.0
  3
*D4
  1

  0
LINE
  5
611
100
AcDbEntity
  8
5
 62
     2
100
AcDbLine
 10
61.865038
 20
3.274024
 30
0.0
 11
35.034387
 21
3.274024
 31
0.0
  0
LINE
  5
612
100
AcDbEntity
  8
5
 62
     2
100
AcDbLine
 10
38.034387
 20
3.274024
 30
0.0
 11
39.587301
 21
9.069579
 31
0.0
  0
LINE
  5
613
100
AcDbEntity
  8
5
 62
     2
100
AcDbLine
 10
38.034387
 20
3.274024
 30
0.0
 11
36.481473
 21
9.069579
 31
0.0
  0
LINE
  5
614
100
AcDbEntity
  8
5
 62
     2
100
AcDbLine
 10
39.587301
 20
9.069579
 30
0.0
 11
36.481473
 21
9.069579
 31
0.0
  0
LINE
  5
615
100
AcDbEntity
  8
5
 62
     2
100
AcDbLine
 10
38.034387
 20
3.274024
 30
0.0
 11
38.034387
 21
95.588398
 31
0.0
  0
LINE
  5
616
100
AcDbEntity
  8
5
 62
     2
100
AcDbLine
 10
38.034387
 20
95.588398
 30
0.0
 11
36.481473
 21
89.792843
 31
0.0
  0
LINE
  5
617
100
AcDbEntity
  8
5
 62
     2
100
AcDbLine
 10
38.034387
 20
95.588398
 30
0.0
 11
39.587301
 21
89.792843
 31
0.0
  0
LINE
  5
618
100
AcDbEntity
  8
5
 62
     2
100
AcDbLine
 10
36.481473
 20
89.792843
 30
0.0
 11
39.587301
 21
89.792843
 31
0.0
  0
LINE
  5
619
100
AcDbEntity
  8
5
 62
     2
100
AcDbLine
 10
124.427484
 20
95.588398
 30
0.0
 11
35.034387
 21
95.588398
 31
0.0
  0
ENDBLK
  5
61A
100
AcDbEntity
  8
5
100
AcDbBlockEnd
  0
BLOCK
  5
61B
100
AcDbEntity
  8
5
100
AcDbBlockBegin
  2
*D5
 70
     1
 10
0.0
 20
0.0
 30
0.0
  3
*D5
  1

  0
TEXT
  5
61C
100
AcDbEntity
  8
5
 62
     2
100
AcDbText
 10
36.534387
 20
-117.120975
 30
0.0
 40
9.9
  1
170
 50
90.0
 41
1.4
 72
     5
 11
36.534387
 21
-99.102975
 31
0.0
100
AcDbText
  0
LINE
  5
61D
100
AcDbEntity
  8
5
 62
     2
100
AcDbLine
 10
75.593389
 20
-191.725975
 30
0.0
 11
35.034387
 21
-191.725975
 31
0.0
  0
LINE
  5
61E
100
AcDbEntity
  8
5
 62
     2
100
AcDbLine
 10
38.034387
 20
-191.725975
 30
0.0
 11
39.587301
 21
-185.93042
 31
0.0
  0
LINE
  5
61F
100
AcDbEntity
  8
5
 62
     2
100
AcDbLine
 10
38.034387
 20
-191.725975
 30
0.0
 11
36.481473
 21
-185.93042
 31
0.0
  0
LINE
  5
620
100
AcDbEntity
  8
5
 62
     2
100
AcDbLine
 10
39.587301
 20
-185.93042
 30
0.0
 11
36.481473
 21
-185.93042
 31
0.0
  0
LINE
  5
621
100
AcDbEntity
  8
5
 62
     2
100
AcDbLine
 10
38.034387
 20
-191.725975
 30
0.0
 11
38.034387
 21
-21.725975
 31
0.0
  0
LINE
  5
622
100
AcDbEntity
  8
5
 62
     2
100
AcDbLine
 10
38.034387
 20
-21.725975
 30
0.0
 11
36.481473
 21
-27.52153
 31
0.0
  0
LINE
  5
623
100
AcDbEntity
  8
5
 62
     2
100
AcDbLine
 10
38.034387
 20
-21.725975
 30
0.0
 11
39.587301
 21
-27.52153
 31
0.0
  0
LINE
  5
624
100
AcDbEntity
  8
5
 62
     2
100
AcDbLine
 10
36.481473
 20
-27.52153
 30
0.0
 11
39.587301
 21
-27.52153
 31
0.0
  0
LINE
  5
625
100
AcDbEntity
  8
5
 62
     2
100
AcDbLine
 10
73.427484
 20
-21.725975
 30
0.0
 11
35.034387
 21
-21.725975
 31
0.0
  0
ENDBLK
  5
626
100
AcDbEntity
  8
5
100
AcDbBlockEnd
  0
BLOCK
  5
627
100
AcDbEntity
  8
5
100
AcDbBlockBegin
  2
*D6
 70
     1
 10
0.0
 20
0.0
 30
0.0
  3
*D6
  1

  0
TEXT
  5
628
100
AcDbEntity
  8
5
 62
     2
100
AcDbText
 10
36.534387
 20
-257.120975
 30
0.0
 40
9.9
  1
110
 50
90.0
 41
1.4
 72
     5
 11
36.534387
 21
-239.102975
 31
0.0
100
AcDbText
  0
LINE
  5
629
100
AcDbEntity
  8
5
 62
     2
100
AcDbLine
 10
117.427484
 20
-301.725975
 30
0.0
 11
35.034387
 21
-301.725975
 31
0.0
  0
LINE
  5
62A
100
AcDbEntity
  8
5
 62
     2
100
AcDbLine
 10
38.034387
 20
-301.725975
 30
0.0
 11
39.587301
 21
-295.93042
 31
0.0
  0
LINE
  5
62B
100
AcDbEntity
  8
5
 62
     2
100
AcDbLine
 10
38.034387
 20
-301.725975
 30
0.0
 11
36.481473
 21
-295.93042
 31
0.0
  0
LINE
  5
62C
100
AcDbEntity
  8
5
 62
     2
100
AcDbLine
 10
39.587301
 20
-295.93042
 30
0.0
 11
36.481473
 21
-295.93042
 31
0.0
  0
LINE
  5
62D
100
AcDbEntity
  8
5
 62
     2
100
AcDbLine
 10
38.034387
 20
-301.725975
 30
0.0
 11
38.034387
 21
-191.725975
 31
0.0
  0
LINE
  5
62E
100
AcDbEntity
  8
5
 62
     2
100
AcDbLine
 10
38.034387
 20
-191.725975
 30
0.0
 11
36.481473
 21
-197.52153
 31
0.0
  0
LINE
  5
62F
100
AcDbEntity
  8
5
 62
     2
100
AcDbLine
 10
38.034387
 20
-191.725975
 30
0.0
 11
39.587301
 21
-197.52153
 31
0.0
  0
LINE
  5
630
100
AcDbEntity
  8
5
 62
     2
100
AcDbLine
 10
36.481473
 20
-197.52153
 30
0.0
 11
39.587301
 21
-197.52153
 31
0.0
  0
ENDBLK
  5
631
100
AcDbEntity
  8
5
100
AcDbBlockEnd
  0
BLOCK
  5
632
100
AcDbEntity
  8
5
100
AcDbBlockBegin
  2
*D7
 70
     1
 10
0.0
 20
0.0
 30
0.0
  3
*D7
  1

  0
TEXT
  5
633
100
AcDbEntity
  8
5
 62
     2
100
AcDbText
 10
108.497484
 20
-328.068764
 30
0.0
 40
9.9
  1
24
 41
1.4
 72
     5
 11
119.585484
 21
-328.068764
 31
0.0
100
AcDbText
  0
LINE
  5
634
100
AcDbEntity
  8
5
 62
     2
100
AcDbLine
 10
103.427484
 20
-272.725975
 30
0.0
 11
103.427484
 21
-332.568764
 31
0.0
  0
LINE
  5
635
100
AcDbEntity
  8
5
 62
     2
100
AcDbLine
 10
103.427484
 20
-329.568764
 30
0.0
 11
109.223039
 21
-331.121678
 31
0.0
  0
LINE
  5
636
100
AcDbEntity
  8
5
 62
     2
100
AcDbLine
 10
103.427484
 20
-329.568764
 30
0.0
 11
109.223039
 21
-328.01585
 31
0.0
  0
LINE
  5
637
100
AcDbEntity
  8
5
 62
     2
100
AcDbLine
 10
109.223039
 20
-331.121678
 30
0.0
 11
109.223039
 21
-328.01585
 31
0.0
  0
LINE
  5
638
100
AcDbEntity
  8
5
 62
     2
100
AcDbLine
 10
103.427484
 20
-329.568764
 30
0.0
 11
127.427484
 21
-329.568764
 31
0.0
  0
LINE
  5
639
100
AcDbEntity
  8
5
 62
     2
100
AcDbLine
 10
127.427484
 20
-329.568764
 30
0.0
 11
121.631929
 21
-328.01585
 31
0.0
  0
LINE
  5
63A
100
AcDbEntity
  8
5
 62
     2
100
AcDbLine
 10
127.427484
 20
-329.568764
 30
0.0
 11
121.631929
 21
-331.121678
 31
0.0
  0
LINE
  5
63B
100
AcDbEntity
  8
5
 62
     2
100
AcDbLine
 10
121.631929
 20
-328.01585
 30
0.0
 11
121.631929
 21
-331.121678
 31
0.0
  0
LINE
  5
63C
100
AcDbEntity
  8
5
 62
     2
100
AcDbLine
 10
127.427484
 20
-318.654816
 30
0.0
 11
127.427484
 21
-332.568764
 31
0.0
  0
ENDBLK
  5
63D
100
AcDbEntity
  8
5
100
AcDbBlockEnd
  0
BLOCK
  5
63E
100
AcDbEntity
  8
5
100
AcDbBlockBegin
  2
*D8
 70
     1
 10
0.0
 20
0.0
 30
0.0
  3
*D8
  1

  0
TEXT
  5
63F
100
AcDbEntity
  8
5
 62
     2
100
AcDbText
 10
123.497484
 20
-358.742683
 30
0.0
 40
9.9
  1
54
 41
1.4
 72
     5
 11
134.585484
 21
-358.742683
 31
0.0
100
AcDbText
  0
LINE
  5
640
100
AcDbEntity
  8
5
 62
     2
100
AcDbLine
 10
103.427484
 20
-272.725975
 30
0.0
 11
103.427484
 21
-363.242683
 31
0.0
  0
LINE
  5
641
100
AcDbEntity
  8
5
 62
     2
100
AcDbLine
 10
103.427484
 20
-360.242683
 30
0.0
 11
109.223039
 21
-361.795597
 31
0.0
  0
LINE
  5
642
100
AcDbEntity
  8
5
 62
     2
100
AcDbLine
 10
103.427484
 20
-360.242683
 30
0.0
 11
109.223039
 21
-358.689769
 31
0.0
  0
LINE
  5
643
100
AcDbEntity
  8
5
 62
     2
100
AcDbLine
 10
109.223039
 20
-361.795597
 30
0.0
 11
109.223039
 21
-358.689769
 31
0.0
  0
LINE
  5
644
100
AcDbEntity
  8
5
 62
     2
100
AcDbLine
 10
103.427484
 20
-360.242683
 30
0.0
 11
157.427484
 21
-360.242683
 31
0.0
  0
LINE
  5
645
100
AcDbEntity
  8
5
 62
     2
100
AcDbLine
 10
157.427484
 20
-360.242683
 30
0.0
 11
151.631929
 21
-358.689769
 31
0.0
  0
LINE
  5
646
100
AcDbEntity
  8
5
 62
     2
100
AcDbLine
 10
157.427484
 20
-360.242683
 30
0.0
 11
151.631929
 21
-361.795597
 31
0.0
  0
LINE
  5
647
100
AcDbEntity
  8
5
 62
     2
100
AcDbLine
 10
151.631929
 20
-358.689769
 30
0.0
 11
151.631929
 21
-361.795597
 31
0.0
  0
LINE
  5
648
100
AcDbEntity
  8
5
 62
     2
100
AcDbLine
 10
157.427484
 20
-272.725975
 30
0.0
 11
157.427484
 21
-363.242683
 31
0.0
  0
ENDBLK
  5
649
100
AcDbEntity
  8
5
100
AcDbBlockEnd
  0
BLOCK
  5
64A
100
AcDbEntity
  8
18
100
AcDbBlockBegin
  2
*D9
 70
     1
 10
0.0
 20
0.0
 30
0.0
  3
*D9
  1

  0
LINE
  5
64B
100
AcDbEntity
  8
18
 62
     2
100
AcDbLine
 10
503.604291
 20
301.543827
 30
0.0
 11
503.604291
 21
328.720239
 31
0.0
  0
LINE
  5
64C
100
AcDbEntity
  8
18
 62
     2
100
AcDbLine
 10
500.601573
 20
298.541109
 30
0.0
 11
473.425161
 21
298.541109
 31
0.0
  0
LINE
  5
64D
100
AcDbEntity
  8
18
 62
     2
100
AcDbLine
 10
503.604291
 20
325.720239
 30
0.0
 11
497.676202
 21
326.646393
 31
0.0
  0
LINE
  5
64E
100
AcDbEntity
  8
18
 62
     2
100
AcDbLine
 10
503.604291
 20
325.720239
 30
0.0
 11
498.007338
 21
323.558267
 31
0.0
  0
LINE
  5
64F
100
AcDbEntity
  8
18
 62
     2
100
AcDbLine
 10
497.676202
 20
326.646393
 30
0.0
 11
498.007338
 21
323.558267
 31
0.0
  0
LINE
  5
650
100
AcDbEntity
  8
18
 62
     2
100
AcDbLine
 10
476.425161
 20
298.541109
 30
0.0
 11
478.587133
 21
304.138062
 31
0.0
  0
LINE
  5
651
100
AcDbEntity
  8
18
 62
     2
100
AcDbLine
 10
476.425161
 20
298.541109
 30
0.0
 11
475.499007
 21
304.469198
 31
0.0
  0
LINE
  5
652
100
AcDbEntity
  8
18
 62
     2
100
AcDbLine
 10
478.587133
 20
304.138062
 30
0.0
 11
475.499007
 21
304.469198
 31
0.0
  0
ARC
  5
653
100
AcDbEntity
  8
18
 62
     2
100
AcDbCircle
 10
503.604291
 20
298.541109
 30
0.0
 40
27.17913
100
AcDbArc
 50
90.0
 51
180.0
  0
ENDBLK
  5
654
100
AcDbEntity
  8
18
100
AcDbBlockEnd
  0
BLOCK
  5
655
100
AcDbEntity
  8
18
100
AcDbBlockBegin
  2
*D10
 70
     1
 10
0.0
 20
0.0
 30
0.0
  3
*D10
  1

  0
LINE
  5
656
100
AcDbEntity
  8
18
 62
     2
100
AcDbLine
 10
416.775345
 20
315.602793
 30
0.0
 11
389.598933
 21
315.602793
 31
0.0
  0
LINE
  5
657
100
AcDbEntity
  8
18
 62
     2
100
AcDbLine
 10
419.778063
 20
312.600075
 30
0.0
 11
419.778063
 21
285.423663
 31
0.0
  0
LINE
  5
658
100
AcDbEntity
  8
18
 62
     2
100
AcDbLine
 10
392.598933
 20
315.602793
 30
0.0
 11
391.672779
 21
309.674704
 31
0.0
  0
LINE
  5
659
100
AcDbEntity
  8
18
 62
     2
100
AcDbLine
 10
392.598933
 20
315.602793
 30
0.0
 11
394.760905
 21
310.00584
 31
0.0
  0
LINE
  5
65A
100
AcDbEntity
  8
18
 62
     2
100
AcDbLine
 10
391.672779
 20
309.674704
 30
0.0
 11
394.760905
 21
310.00584
 31
0.0
  0
LINE
  5
65B
100
AcDbEntity
  8
18
 62
     2
100
AcDbLine
 10
419.778063
 20
288.423663
 30
0.0
 11
414.18111
 21
290.585635
 31
0.0
  0
LINE
  5
65C
100
AcDbEntity
  8
18
 62
     2
100
AcDbLine
 10
419.778063
 20
288.423663
 30
0.0
 11
413.849974
 21
287.497509
 31
0.0
  0
LINE
  5
65D
100
AcDbEntity
  8
18
 62
     2
100
AcDbLine
 10
414.18111
 20
290.585635
 30
0.0
 11
413.849974
 21
287.497509
 31
0.0
  0
ARC
  5
65E
100
AcDbEntity
  8
18
 62
     2
100
AcDbCircle
 10
419.778063
 20
315.602793
 30
0.0
 40
27.17913
100
AcDbArc
 50
180.0
 51
270.0
  0
ENDBLK
  5
65F
100
AcDbEntity
  8
18
100
AcDbBlockEnd
  0
BLOCK
  5
660
100
AcDbEntity
  8
18
100
AcDbBlockBegin
  2
*D11
 70
     1
 10
0.0
 20
0.0
 30
0.0
  3
*D11
  1

  0
LINE
  5
661
100
AcDbEntity
  8
18
 62
     2
100
AcDbLine
 10
329.298843
 20
310.427385
 30
0.0
 11
329.298843
 21
283.250973
 31
0.0
  0
LINE
  5
662
100
AcDbEntity
  8
18
 62
     2
100
AcDbLine
 10
332.301561
 20
313.430103
 30
0.0
 11
359.477973
 21
313.430103
 31
0.0
  0
LINE
  5
663
100
AcDbEntity
  8
18
 62
     2
100
AcDbLine
 10
329.298843
 20
286.250973
 30
0.0
 11
335.226932
 21
285.324819
 31
0.0
  0
LINE
  5
664
100
AcDbEntity
  8
18
 62
     2
100
AcDbLine
 10
329.298843
 20
286.250973
 30
0.0
 11
334.895796
 21
288.412945
 31
0.0
  0
LINE
  5
665
100
AcDbEntity
  8
18
 62
     2
100
AcDbLine
 10
335.226932
 20
285.324819
 30
0.0
 11
334.895796
 21
288.412945
 31
0.0
  0
LINE
  5
666
100
AcDbEntity
  8
18
 62
     2
100
AcDbLine
 10
356.477973
 20
313.430103
 30
0.0
 11
354.316001
 21
307.83315
 31
0.0
  0
LINE
  5
667
100
AcDbEntity
  8
18
 62
     2
100
AcDbLine
 10
356.477973
 20
313.430103
 30
0.0
 11
357.404127
 21
307.502014
 31
0.0
  0
LINE
  5
668
100
AcDbEntity
  8
18
 62
     2
100
AcDbLine
 10
354.316001
 20
307.83315
 30
0.0
 11
357.404127
 21
307.502014
 31
0.0
  0
ARC
  5
669
100
AcDbEntity
  8
18
 62
     2
100
AcDbCircle
 10
329.298843
 20
313.430103
 30
0.0
 40
27.17913
100
AcDbArc
 50
270.0
 51
360.0
  0
ENDBLK
  5
66A
100
AcDbEntity
  8
18
100
AcDbBlockEnd
  0
ENDSEC
  0
SECTION
  2
ENTITIES
  0
LINE
  5
33
100
AcDbEntity
  8
1
100
AcDbLine
 10
-276.182076
 20
274.884894
 30
0.0
 11
-286.780182
 21
274.884894
 31
0.0
  0
LINE
  5
34
100
AcDbEntity
  8
1
  6
CENTER
 62
     2
100
AcDbLine
 10
-354.182076
 20
188.810622
 30
0.0
 11
-354.182076
 21
302.271561
 31
0.0
  0
LINE
  5
35
100
AcDbEntity
  8
1
  6
DASHED
100
AcDbLine
 10
-301.782075
 20
217.384896
 30
0.0
 11
-301.782075
 21
272.384895
 31
0.0
  0
LINE
  5
36
100
AcDbEntity
  8
1
  6
DASHED
100
AcDbLine
 10
-403.782075
 20
217.384896
 30
0.0
 11
-403.782075
 21
272.384895
 31
0.0
  0
LINE
  5
37
100
AcDbEntity
  8
1
  6
DASHED
100
AcDbLine
 10
-380.282076
 20
193.884894
 30
0.0
 11
-325.282074
 21
193.884894
 31
0.0
  0
ARC
  5
38
100
AcDbEntity
  8
1
  6
DASHED
100
AcDbCircle
 10
-380.282076
 20
217.384896
 30
0.0
 40
23.499999
100
AcDbArc
 50
180.0
 51
270.0
  0
ARC
  5
39
100
AcDbEntity
  8
1
  6
DASHED
100
AcDbCircle
 10
-325.282074
 20
217.384896
 30
0.0
 40
23.499999
100
AcDbArc
 50
270.0
 51
360.0
  0
ARC
  5
3A
100
AcDbEntity
  8
1
  6
DASHED
100
AcDbCircle
 10
-325.282074
 20
272.384895
 30
0.0
 40
23.499999
100
AcDbArc
 50
0.0
 51
90.0
  0
ARC
  5
3B
100
AcDbEntity
  8
1
  6
DASHED
100
AcDbCircle
 10
-380.282076
 20
272.384895
 30
0.0
 40
23.499999
100
AcDbArc
 50
90.0
 51
180.0
  0
CIRCLE
  5
3C
100
AcDbEntity
  8
1
  6
DASHED
100
AcDbCircle
 10
-316.71963
 20
280.947342
 30
0.0
 40
5.499999
  0
LINE
  5
3D
100
AcDbEntity
  8
1
  6
CENTER
 62
     2
100
AcDbLine
 10
-324.851358
 20
272.815614
 30
0.0
 11
-308.587902
 21
289.07907
 31
0.0
  0
ARC
  5
3E
100
AcDbEntity
  8
1
  6
CENTER
 62
     2
100
AcDbCircle
 10
-352.782075
 20
244.884894
 30
0.0
 40
51.0
100
AcDbArc
 50
32.052834
 51
57.947166
  0
ARC
  5
3F
100
AcDbEntity
  8
1
  6
CENTER
 62
     2
100
AcDbCircle
 10
-352.782075
 20
244.884894
 30
0.0
 40
51.0
100
AcDbArc
 50
122.052834
 51
147.947166
  0
CIRCLE
  5
40
100
AcDbEntity
  8
1
  6
DASHED
100
AcDbCircle
 10
-388.84452
 20
280.947342
 30
0.0
 40
5.499999
  0
LINE
  5
41
100
AcDbEntity
  8
1
  6
CENTER
 62
     2
100
AcDbLine
 10
-380.712792
 20
272.815614
 30
0.0
 11
-396.976248
 21
289.07907
 31
0.0
  0
CIRCLE
  5
42
100
AcDbEntity
  8
1
  6
DASHED
100
AcDbCircle
 10
-316.71963
 20
208.822449
 30
0.0
 40
5.499999
  0
LINE
  5
43
100
AcDbEntity
  8
1
  6
CENTER
 62
     2
100
AcDbLine
 10
-324.851358
 20
216.954177
 30
0.0
 11
-308.587902
 21
200.690721
 31
0.0
  0
ARC
  5
44
100
AcDbEntity
  8
1
  6
CENTER
 62
     2
100
AcDbCircle
 10
-352.782075
 20
244.884894
 30
0.0
 40
51.0
100
AcDbArc
 50
302.052834
 51
327.947166
  0
ARC
  5
45
100
AcDbEntity
  8
1
  6
CENTER
 62
     2
100
AcDbCircle
 10
-352.782075
 20
244.884894
 30
0.0
 40
51.0
100
AcDbArc
 50
212.052834
 51
237.947166
  0
CIRCLE
  5
46
100
AcDbEntity
  8
1
  6
DASHED
100
AcDbCircle
 10
-388.84452
 20
208.822449
 30
0.0
 40
5.499999
  0
LINE
  5
47
100
AcDbEntity
  8
1
  6
CENTER
 62
     2
100
AcDbLine
 10
-380.712792
 20
216.954177
 30
0.0
 11
-396.976248
 21
200.690721
 31
0.0
  0
LINE
  5
48
100
AcDbEntity
  8
1
  6
DASHED
100
AcDbLine
 10
-407.611356
 20
274.884894
 30
0.0
 11
-403.648716
 21
274.884894
 31
0.0
  0
LINE
  5
49
100
AcDbEntity
  8
1
100
AcDbLine
 10
-432.182076
 20
220.884894
 30
0.0
 11
-432.182076
 21
274.884894
 31
0.0
  0
LINE
  5
4A
100
AcDbEntity
  8
1
100
AcDbLine
 10
-417.680106
 20
238.479213
 30
0.0
 11
-417.680106
 21
247.290579
 31
0.0
  0
LINE
  5
4B
100
AcDbEntity
  8
1
100
AcDbLine
 10
-431.770734
 20
230.884896
 30
0.0
 11
-431.770734
 21
254.884896
 31
0.0
  0
LINE
  5
4C
100
AcDbEntity
  8
1
100
AcDbLine
 10
-428.057058
 20
253.896219
 30
0.0
 11
-421.393782
 21
252.122283
 31
0.0
  0
LINE
  5
4D
100
AcDbEntity
  8
1
100
AcDbLine
 10
-421.393782
 20
233.647506
 30
0.0
 11
-428.057058
 21
231.87357
 31
0.0
  0
ARC
  5
4E
100
AcDbEntity
  8
1
100
AcDbCircle
 10
-422.680107
 20
247.290579
 30
0.0
 40
5.000001
100
AcDbArc
 50
0.0
 51
75.092168
  0
ARC
  5
4F
100
AcDbEntity
  8
1
100
AcDbCircle
 10
-422.680107
 20
238.479213
 30
0.0
 40
5.000001
100
AcDbArc
 50
284.907832
 51
360.0
  0
ARC
  5
50
100
AcDbEntity
  8
1
100
AcDbCircle
 10
-426.770733
 20
258.727923
 30
0.0
 40
5.000001
100
AcDbArc
 50
180.0
 51
255.092168
  0
ARC
  5
51
100
AcDbEntity
  8
1
100
AcDbCircle
 10
-426.770733
 20
227.041866
 30
0.0
 40
5.000001
100
AcDbArc
 50
104.907832
 51
180.0
  0
LINE
  5
52
100
AcDbEntity
  8
1
  6
DASHED
100
AcDbLine
 10
-407.527317
 20
250.884894
 30
0.0
 11
-403.782075
 21
250.884894
 31
0.0
  0
ARC
  5
53
100
AcDbEntity
  8
1
  6
DASHED
100
AcDbCircle
 10
-407.527317
 20
255.884895
 30
0.0
 40
5.000001
100
AcDbArc
 50
180.0
 51
270.0
  0
LINE
  5
54
100
AcDbEntity
  8
1
  6
DASHED
100
AcDbLine
 10
-412.527318
 20
255.884895
 30
0.0
 11
-412.527318
 21
257.884896
 31
0.0
  0
LINE
  5
55
100
AcDbEntity
  8
1
  6
DASHED
100
AcDbLine
 10
-407.527317
 20
262.884894
 30
0.0
 11
-403.782075
 21
262.884894
 31
0.0
  0
ARC
  5
56
100
AcDbEntity
  8
1
  6
DASHED
100
AcDbCircle
 10
-407.527317
 20
257.884896
 30
0.0
 40
5.000001
100
AcDbArc
 50
90.0
 51
180.0
  0
LINE
  5
57
100
AcDbEntity
  8
1
  6
DASHED
100
AcDbLine
 10
-276.182076
 20
220.884894
 30
0.0
 11
-301.782075
 21
220.884894
 31
0.0
  0
LINE
  5
58
100
AcDbEntity
  8
1
  6
DASHED
100
AcDbLine
 10
-280.307091
 20
254.884896
 30
0.0
 11
-295.937853
 21
254.884896
 31
0.0
  0
LINE
  5
59
100
AcDbEntity
  8
1
  6
DASHED
100
AcDbLine
 10
-280.307091
 20
230.884896
 30
0.0
 11
-301.782075
 21
230.884896
 31
0.0
  0
LINE
  5
5A
100
AcDbEntity
  8
1
  6
DASHED
100
AcDbLine
 10
-290.684043
 20
251.133606
 30
0.0
 11
-299.279508
 21
251.133606
 31
0.0
  0
LINE
  5
5B
100
AcDbEntity
  8
1
  6
DASHED
100
AcDbLine
 10
-290.684043
 20
234.636183
 30
0.0
 11
-301.782075
 21
234.636183
 31
0.0
  0
LINE
  5
5C
100
AcDbEntity
  8
1
  6
DASHED
100
AcDbLine
 10
-290.684043
 20
238.479213
 30
0.0
 11
-290.684043
 21
247.290579
 31
0.0
  0
LINE
  5
5D
100
AcDbEntity
  8
1
  6
DASHED
100
AcDbLine
 10
-276.593415
 20
230.884896
 30
0.0
 11
-276.593415
 21
254.884896
 31
0.0
  0
LINE
  5
5E
100
AcDbEntity
  8
1
  6
DASHED
100
AcDbLine
 10
-280.307091
 20
253.896219
 30
0.0
 11
-286.970367
 21
252.122283
 31
0.0
  0
LINE
  5
5F
100
AcDbEntity
  8
1
  6
DASHED
100
AcDbLine
 10
-286.970367
 20
233.647506
 30
0.0
 11
-280.307091
 21
231.87357
 31
0.0
  0
ARC
  5
60
100
AcDbEntity
  8
1
  6
DASHED
100
AcDbCircle
 10
-285.684042
 20
247.290579
 30
0.0
 40
5.000001
100
AcDbArc
 50
104.907832
 51
180.0
  0
ARC
  5
61
100
AcDbEntity
  8
1
  6
DASHED
100
AcDbCircle
 10
-285.684042
 20
238.479213
 30
0.0
 40
5.000001
100
AcDbArc
 50
180.0
 51
255.092168
  0
ARC
  5
62
100
AcDbEntity
  8
1
  6
DASHED
100
AcDbCircle
 10
-281.593416
 20
258.727923
 30
0.0
 40
5.000001
100
AcDbArc
 50
284.907832
 51
360.0
  0
ARC
  5
63
100
AcDbEntity
  8
1
  6
DASHED
100
AcDbCircle
 10
-281.593416
 20
227.041866
 30
0.0
 40
5.000001
100
AcDbArc
 50
0.0
 51
75.092168
  0
LINE
  5
64
100
AcDbEntity
  8
1
  6
DASHED
100
AcDbLine
 10
-300.836832
 20
250.884894
 30
0.0
 11
-301.782075
 21
250.884894
 31
0.0
  0
ARC
  5
65
100
AcDbEntity
  8
1
  6
DASHED
100
AcDbCircle
 10
-300.836832
 20
255.884895
 30
0.0
 40
5.000001
100
AcDbArc
 50
270.0
 51
360.0
  0
LINE
  5
66
100
AcDbEntity
  8
1
  6
DASHED
100
AcDbLine
 10
-295.836831
 20
255.884895
 30
0.0
 11
-295.836831
 21
257.884896
 31
0.0
  0
LINE
  5
67
100
AcDbEntity
  8
1
  6
DASHED
100
AcDbLine
 10
-300.836832
 20
262.884894
 30
0.0
 11
-301.782075
 21
262.884894
 31
0.0
  0
ARC
  5
68
100
AcDbEntity
  8
1
  6
DASHED
100
AcDbCircle
 10
-300.836832
 20
257.884896
 30
0.0
 40
5.000001
100
AcDbArc
 50
0.0
 51
90.0
  0
LINE
  5
69
100
AcDbEntity
  8
1
100
AcDbLine
 10
-432.182076
 20
274.884894
 30
0.0
 11
-407.611356
 21
274.884894
 31
0.0
  0
LINE
  5
6A
100
AcDbEntity
  8
1
  6
DASHED
100
AcDbLine
 10
-407.611356
 20
274.884894
 30
0.0
 11
-403.648716
 21
274.884894
 31
0.0
  0
LINE
  5
6B
100
AcDbEntity
  8
1
100
AcDbLine
 10
-428.057058
 20
254.884896
 30
0.0
 11
-414.476889
 21
254.884896
 31
0.0
  0
LINE
  5
6C
100
AcDbEntity
  8
1
  6
DASHED
100
AcDbLine
 10
-414.476889
 20
254.884896
 30
0.0
 11
-412.426296
 21
254.884896
 31
0.0
  0
LINE
  5
6D
100
AcDbEntity
  8
1
100
AcDbLine
 10
-417.680106
 20
251.133606
 30
0.0
 11
-414.968919
 21
251.133606
 31
0.0
  0
LINE
  5
6E
100
AcDbEntity
  8
1
  6
DASHED
100
AcDbLine
 10
-414.968919
 20
251.133606
 30
0.0
 11
-409.084641
 21
251.133606
 31
0.0
  0
LINE
  5
6F
100
AcDbEntity
  8
1
100
AcDbLine
 10
-417.680106
 20
234.636183
 30
0.0
 11
-414.436059
 21
234.636183
 31
0.0
  0
LINE
  5
70
100
AcDbEntity
  8
1
  6
DASHED
100
AcDbLine
 10
-414.436059
 20
234.636183
 30
0.0
 11
-403.782075
 21
234.636183
 31
0.0
  0
LINE
  5
71
100
AcDbEntity
  8
1
100
AcDbLine
 10
-428.057058
 20
230.884896
 30
0.0
 11
-413.693895
 21
230.884896
 31
0.0
  0
LINE
  5
72
100
AcDbEntity
  8
1
  6
DASHED
100
AcDbLine
 10
-413.693895
 20
230.884896
 30
0.0
 11
-403.782075
 21
230.884896
 31
0.0
  0
LINE
  5
73
100
AcDbEntity
  8
1
100
AcDbLine
 10
-432.182076
 20
220.884894
 30
0.0
 11
-410.490393
 21
220.884894
 31
0.0
  0
LINE
  5
74
100
AcDbEntity
  8
1
  6
DASHED
100
AcDbLine
 10
-410.490393
 20
220.884894
 30
0.0
 11
-403.782075
 21
220.884894
 31
0.0
  0
LINE
  5
75
100
AcDbEntity
  8
1
  6
DASHED
100
AcDbLine
 10
-286.780182
 20
274.884894
 30
0.0
 11
-301.915431
 21
274.884894
 31
0.0
  0
LINE
  5
76
100
AcDbEntity
  8
1
  6
DASHED
100
AcDbLine
 10
-276.182076
 20
220.884894
 30
0.0
 11
-276.182076
 21
261.050502
 31
0.0
  0
LINE
  5
77
100
AcDbEntity
  8
1
100
AcDbLine
 10
-276.182076
 20
261.050502
 30
0.0
 11
-276.182076
 21
274.884894
 31
0.0
  0
LINE
  5
78
100
AcDbEntity
  8
1
  6
DASHED
100
AcDbLine
 10
-380.282076
 20
295.884894
 30
0.0
 11
-325.282074
 21
295.884894
 31
0.0
  0
LINE
  5
79
100
AcDbEntity
  8
1
  6
CENTER
 62
     2
100
AcDbLine
 10
-354.182075
 20
-303.651955
 30
0.0
 11
-354.182075
 21
-29.36652
 31
0.0
  0
LINE
  5
7A
100
AcDbEntity
  8
1
  6
CENTER
 62
     2
100
AcDbLine
 10
-352.782075
 20
-315.654816
 30
0.0
 11
-352.782075
 21
61.636173
 31
0.0
  0
LINE
  5
7B
100
AcDbEntity
  8
1
100
AcDbLine
 10
-403.782075
 20
-21.725975
 30
0.0
 11
-301.782075
 21
-21.725975
 31
0.0
  0
LINE
  5
7C
100
AcDbEntity
  8
1
100
AcDbLine
 10
-397.782075
 20
-36.725975
 30
0.0
 11
-307.782075
 21
-36.725975
 31
0.0
  0
LINE
  5
7D
100
AcDbEntity
  8
1
100
AcDbLine
 10
-403.782075
 20
-30.725975
 30
0.0
 11
-403.782075
 21
-21.725975
 31
0.0
  0
LINE
  5
7E
100
AcDbEntity
  8
1
100
AcDbLine
 10
-301.782075
 20
-30.725975
 30
0.0
 11
-301.782075
 21
-21.725975
 31
0.0
  0
LINE
  5
7F
100
AcDbEntity
  8
1
100
AcDbLine
 10
-336.182075
 20
-108.299361
 30
0.0
 11
-336.182075
 21
-48.725975
 31
0.0
  0
LINE
  5
80
100
AcDbEntity
  8
1
100
AcDbLine
 10
-372.182075
 20
-108.299361
 30
0.0
 11
-372.182075
 21
-48.725975
 31
0.0
  0
ARC
  5
81
100
AcDbEntity
  8
1
100
AcDbCircle
 10
-397.782075
 20
-30.725975
 30
0.0
 40
6.0
100
AcDbArc
 50
180.0
 51
270.0
  0
ARC
  5
82
100
AcDbEntity
  8
1
100
AcDbCircle
 10
-307.782075
 20
-30.725975
 30
0.0
 40
6.0
100
AcDbArc
 50
270.0
 51
360.0
  0
ARC
  5
83
100
AcDbEntity
  8
1
100
AcDbCircle
 10
-384.182075
 20
-48.725975
 30
0.0
 40
12.0
100
AcDbArc
 50
0.0
 51
90.0
  0
ARC
  5
84
100
AcDbEntity
  8
1
100
AcDbCircle
 10
-324.182075
 20
-48.725975
 30
0.0
 40
12.0
100
AcDbArc
 50
90.0
 51
180.0
  0
ARC
  5
85
100
AcDbEntity
  8
1
100
AcDbCircle
 10
-382.182075
 20
-108.299361
 30
0.0
 40
10.0
100
AcDbArc
 50
288.553005
 51
360.0
  0
ARC
  5
86
100
AcDbEntity
  8
1
100
AcDbCircle
 10
-326.182075
 20
-108.299361
 30
0.0
 40
10.0
100
AcDbArc
 50
180.0
 51
251.446995
  0
ARC
  5
87
100
AcDbEntity
  8
1
100
AcDbCircle
 10
-374.182075
 20
-211.725975
 30
0.0
 40
140.0
100
AcDbArc
 50
58.282423
 51
71.337075
  0
ARC
  5
88
100
AcDbEntity
  8
1
100
AcDbCircle
 10
-334.182075
 20
-211.725975
 30
0.0
 40
140.0
100
AcDbArc
 50
108.662925
 51
121.717577
  0
ARC
  5
89
100
AcDbEntity
  8
1
100
AcDbCircle
 10
-326.182075
 20
-69.613344
 30
0.0
 40
10.0
100
AcDbArc
 50
180.0
 51
251.337075
  0
ARC
  5
8A
100
AcDbEntity
  8
1
100
AcDbCircle
 10
-382.182075
 20
-69.613344
 30
0.0
 40
10.0
100
AcDbArc
 50
288.662925
 51
360.0
  0
CIRCLE
  5
8B
100
AcDbEntity
  8
1
100
AcDbCircle
 10
-390.632672
 20
-103.72645
 30
0.0
 40
8.5
  0
ARC
  5
8C
100
AcDbEntity
  8
1
  6
CENTER
 62
     2
100
AcDbCircle
 10
-354.182075
 20
-191.725975
 30
0.0
 40
95.25
100
AcDbArc
 50
102.562295
 51
122.437705
  0
LINE
  5
8D
100
AcDbEntity
  8
1
  6
CENTER
 62
     2
100
AcDbLine
 10
-396.946949
 20
-88.482437
 30
0.0
 11
-384.318395
 21
-118.970462
 31
0.0
  0
CIRCLE
  5
8E
100
AcDbEntity
  8
1
100
AcDbCircle
 10
-317.731478
 20
-103.72645
 30
0.0
 40
8.5
  0
ARC
  5
8F
100
AcDbEntity
  8
1
  6
CENTER
 62
     2
100
AcDbCircle
 10
-354.182075
 20
-191.725975
 30
0.0
 40
95.25
100
AcDbArc
 50
57.562295
 51
77.437705
  0
LINE
  5
90
100
AcDbEntity
  8
1
  6
CENTER
 62
     2
100
AcDbLine
 10
-311.417201
 20
-88.482437
 30
0.0
 11
-324.045755
 21
-118.970462
 31
0.0
  0
LINE
  5
91
100
AcDbEntity
  8
1
100
AcDbLine
 10
-411.766113
 20
-104.968327
 30
0.0
 11
-405.632679
 21
-119.775747
 31
0.0
  0
LINE
  5
92
100
AcDbEntity
  8
1
100
AcDbLine
 10
-296.598037
 20
-104.968327
 30
0.0
 11
-302.731471
 21
-119.775747
 31
0.0
  0
ARC
  5
93
100
AcDbEntity
  8
1
100
AcDbCircle
 10
-288.873278
 20
-125.515998
 30
0.0
 40
15.0
100
AcDbArc
 50
157.5
 51
225.39259
  0
ARC
  5
94
100
AcDbEntity
  8
1
100
AcDbCircle
 10
-419.490872
 20
-125.515998
 30
0.0
 40
15.0
100
AcDbArc
 50
314.60741
 51
22.5
  0
ARC
  5
95
100
AcDbEntity
  8
1
100
AcDbCircle
 10
-305.836832
 20
-101.141493
 30
0.0
 40
10.0
100
AcDbArc
 50
337.5
 51
58.282423
  0
ARC
  5
96
100
AcDbEntity
  8
1
100
AcDbCircle
 10
-402.527318
 20
-101.141493
 30
0.0
 40
10.0
100
AcDbArc
 50
121.717577
 51
202.5
  0
LINE
  5
97
100
AcDbEntity
  8
1
100
AcDbLine
 10
-367.782075
 20
-6.325975
 30
0.0
 11
-337.782075
 21
-6.325975
 31
0.0
  0
LINE
  5
98
100
AcDbEntity
  8
1
100
AcDbLine
 10
-367.782075
 20
-12.325975
 30
0.0
 11
-337.782075
 21
-12.325975
 31
0.0
  0
LINE
  5
99
100
AcDbEntity
  8
1
100
AcDbLine
 10
-367.782075
 20
-12.325975
 30
0.0
 11
-367.782075
 21
-6.325975
 31
0.0
  0
LINE
  5
9A
100
AcDbEntity
  8
1
100
AcDbLine
 10
-337.782075
 20
-12.325975
 30
0.0
 11
-337.782075
 21
-6.325975
 31
0.0
  0
LINE
  5
9B
100
AcDbEntity
  8
1
100
AcDbLine
 10
-349.782075
 20
-13.725975
 30
0.0
 11
-355.782075
 21
-13.725975
 31
0.0
  0
LINE
  5
9C
100
AcDbEntity
  8
1
 62
     2
100
AcDbLine
 10
-350.323075
 20
-13.725975
 30
0.0
 11
-349.782075
 21
-15.725975
 31
0.0
  0
LINE
  5
9D
100
AcDbEntity
  8
1
 62
     2
100
AcDbLine
 10
-349.782075
 20
-19.725975
 30
0.0
 11
-350.323075
 21
-21.725975
 31
0.0
  0
LINE
  5
9E
100
AcDbEntity
  8
1
 62
     2
100
AcDbLine
 10
-355.241075
 20
-13.725975
 30
0.0
 11
-355.782075
 21
-15.725975
 31
0.0
  0
LINE
  5
9F
100
AcDbEntity
  8
1
 62
     2
100
AcDbLine
 10
-355.782075
 20
-19.725975
 30
0.0
 11
-355.241075
 21
-21.725975
 31
0.0
  0
LINE
  5
A0
100
AcDbEntity
  8
1
100
AcDbLine
 10
-349.782075
 20
-21.725975
 30
0.0
 11
-349.782075
 21
-12.325975
 31
0.0
  0
LINE
  5
A1
100
AcDbEntity
  8
1
 62
     2
100
AcDbLine
 10
-350.323075
 20
-13.725975
 30
0.0
 11
-350.323075
 21
-12.325975
 31
0.0
  0
LINE
  5
A2
100
AcDbEntity
  8
1
 62
     2
100
AcDbLine
 10
-355.241075
 20
-13.725975
 30
0.0
 11
-355.241075
 21
-12.325975
 31
0.0
  0
LINE
  5
A3
100
AcDbEntity
  8
1
100
AcDbLine
 10
-355.782075
 20
-21.725975
 30
0.0
 11
-355.782075
 21
-12.325975
 31
0.0
  0
LINE
  5
A4
100
AcDbEntity
  8
1
100
AcDbLine
 10
-340.782075
 20
-14.325975
 30
0.0
 11
-340.782075
 21
-12.325975
 31
0.0
  0
LINE
  5
A5
100
AcDbEntity
  8
1
100
AcDbLine
 10
-364.782075
 20
-14.325975
 30
0.0
 11
-364.782075
 21
-12.325975
 31
0.0
  0
LINE
  5
A6
100
AcDbEntity
  8
1
100
AcDbLine
 10
-364.782075
 20
-14.325975
 30
0.0
 11
-355.782075
 21
-14.325975
 31
0.0
  0
LINE
  5
A7
100
AcDbEntity
  8
1
100
AcDbLine
 10
-349.782075
 20
-14.325975
 30
0.0
 11
-340.782075
 21
-14.325975
 31
0.0
  0
LINE
  5
A8
100
AcDbEntity
  8
1
100
AcDbLine
 10
-364.782075
 20
-15.325975
 30
0.0
 11
-355.782075
 21
-15.325975
 31
0.0
  0
LINE
  5
A9
100
AcDbEntity
  8
1
100
AcDbLine
 10
-349.782075
 20
-15.325975
 30
0.0
 11
-340.782075
 21
-15.325975
 31
0.0
  0
LINE
  5
AA
100
AcDbEntity
  8
1
100
AcDbLine
 10
-362.332075
 20
-14.325975
 30
0.0
 11
-362.332075
 21
-15.325975
 31
0.0
  0
LINE
  5
AB
100
AcDbEntity
  8
1
100
AcDbLine
 10
-341.849102
 20
-14.325975
 30
0.0
 11
-341.849102
 21
-15.325975
 31
0.0
  0
LINE
  5
AC
100
AcDbEntity
  8
1
100
AcDbLine
 10
-345.269817
 20
-14.325975
 30
0.0
 11
-345.269817
 21
-15.325975
 31
0.0
  0
LINE
  5
AD
100
AcDbEntity
  8
1
100
AcDbLine
 10
-349.782075
 20
-17.325975
 30
0.0
 11
-340.782075
 21
-17.325975
 31
0.0
  0
LINE
  5
AE
100
AcDbEntity
  8
1
100
AcDbLine
 10
-349.782075
 20
-19.325975
 30
0.0
 11
-340.782075
 21
-19.325975
 31
0.0
  0
LINE
  5
AF
100
AcDbEntity
  8
1
100
AcDbLine
 10
-340.782075
 20
-21.725975
 30
0.0
 11
-340.782075
 21
-19.325975
 31
0.0
  0
LINE
  5
B0
100
AcDbEntity
  8
1
100
AcDbLine
 10
-340.782075
 20
-17.325975
 30
0.0
 11
-340.782075
 21
-15.325975
 31
0.0
  0
LINE
  5
B1
100
AcDbEntity
  8
1
100
AcDbLine
 10
-341.782075
 20
-19.325975
 30
0.0
 11
-341.782075
 21
-17.325975
 31
0.0
  0
LINE
  5
B2
100
AcDbEntity
  8
1
100
AcDbLine
 10
-355.782075
 20
-19.325975
 30
0.0
 11
-364.782075
 21
-19.325975
 31
0.0
  0
LINE
  5
B3
100
AcDbEntity
  8
1
100
AcDbLine
 10
-363.782075
 20
-19.325975
 30
0.0
 11
-363.782075
 21
-17.325975
 31
0.0
  0
LINE
  5
B4
100
AcDbEntity
  8
1
100
AcDbLine
 10
-355.782075
 20
-17.325975
 30
0.0
 11
-364.782075
 21
-17.325975
 31
0.0
  0
LINE
  5
B5
100
AcDbEntity
  8
1
100
AcDbLine
 10
-364.782075
 20
-21.725975
 30
0.0
 11
-364.782075
 21
-19.325975
 31
0.0
  0
LINE
  5
B6
100
AcDbEntity
  8
1
100
AcDbLine
 10
-364.782075
 20
-17.325975
 30
0.0
 11
-364.782075
 21
-15.325975
 31
0.0
  0
LINE
  5
B7
100
AcDbEntity
  8
1
100
AcDbLine
 10
-358.532075
 20
-5.835227
 30
0.0
 11
-358.532075
 21
-4.725974
 31
0.0
  0
LINE
  5
B8
100
AcDbEntity
  8
1
100
AcDbLine
 10
-355.657075
 20
-5.835227
 30
0.0
 11
-355.657075
 21
-4.725974
 31
0.0
  0
LINE
  5
B9
100
AcDbEntity
  8
1
100
AcDbLine
 10
-347.032075
 20
-5.835227
 30
0.0
 11
-347.032075
 21
-4.725974
 31
0.0
  0
LINE
  5
BA
100
AcDbEntity
  8
1
100
AcDbLine
 10
-349.907075
 20
-5.835227
 30
0.0
 11
-349.907075
 21
-4.725974
 31
0.0
  0
ARC
  5
BB
100
AcDbEntity
  8
1
100
AcDbCircle
 10
-348.469575
 20
-3.987272
 30
0.0
 40
2.341227
100
AcDbArc
 50
232.121121
 51
307.878879
  0
ARC
  5
BC
100
AcDbEntity
  8
1
100
AcDbCircle
 10
-352.782075
 20
2.296501
 30
0.0
 40
8.625
100
AcDbArc
 50
250.528777
 51
289.471219
  0
ARC
  5
BD
100
AcDbEntity
  8
1
100
AcDbCircle
 10
-357.094575
 20
-3.987272
 30
0.0
 40
2.341227
100
AcDbArc
 50
232.121121
 51
307.878879
  0
LINE
  5
BE
100
AcDbEntity
  8
1
100
AcDbLine
 10
-358.532075
 20
-5.835227
 30
0.0
 11
-357.682075
 21
-6.325975
 31
0.0
  0
LINE
  5
BF
100
AcDbEntity
  8
1
100
AcDbLine
 10
-347.032075
 20
-5.835227
 30
0.0
 11
-347.882075
 21
-6.325975
 31
0.0
  0
LINE
  5
C0
100
AcDbEntity
  8
1
  6
CENTER
 62
     2
100
AcDbLine
 10
-452.183567
 20
-191.725975
 30
0.0
 11
-257.479297
 21
-191.725975
 31
0.0
  0
LINE
  5
C1
100
AcDbEntity
  8
1
100
AcDbLine
 10
-372.182075
 20
-291.725975
 30
0.0
 11
-336.182075
 21
-291.725975
 31
0.0
  0
LINE
  5
C2
100
AcDbEntity
  8
1
100
AcDbLine
 10
-336.182075
 20
-296.225975
 30
0.0
 11
-336.182075
 21
-275.152589
 31
0.0
  0
LINE
  5
C3
100
AcDbEntity
  8
1
100
AcDbLine
 10
-372.182075
 20
-296.225975
 30
0.0
 11
-372.182075
 21
-275.152589
 31
0.0
  0
LINE
  5
C4
100
AcDbEntity
  8
1
  6
CENTER
 62
     2
100
AcDbLine
 10
-366.182075
 20
-306.335205
 30
0.0
 11
-366.182075
 21
-285.795532
 31
0.0
  0
LINE
  5
C5
100
AcDbEntity
  8
1
  6
CENTER
 62
     2
100
AcDbLine
 10
-342.182075
 20
-306.335205
 30
0.0
 11
-342.182075
 21
-285.795532
 31
0.0
  0
LINE
  5
C6
100
AcDbEntity
  8
1
100
AcDbLine
 10
-372.182075
 20
-293.225975
 30
0.0
 11
-336.182075
 21
-293.225975
 31
0.0
  0
LINE
  5
C7
100
AcDbEntity
  8
1
100
AcDbLine
 10
-372.282075
 20
-296.225975
 30
0.0
 11
-336.082075
 21
-296.225975
 31
0.0
  0
LINE
  5
C8
100
AcDbEntity
  8
1
100
AcDbLine
 10
-336.432075
 20
-297.725975
 30
0.0
 11
-336.432075
 21
-301.235227
 31
0.0
  0
LINE
  5
C9
100
AcDbEntity
  8
1
100
AcDbLine
 10
-336.432075
 20
-301.235227
 30
0.0
 11
-337.282075
 21
-301.725975
 31
0.0
  0
LINE
  5
CA
100
AcDbEntity
  8
1
100
AcDbLine
 10
-339.307075
 20
-297.725975
 30
0.0
 11
-339.307075
 21
-301.235227
 31
0.0
  0
ARC
  5
CB
100
AcDbEntity
  8
1
100
AcDbCircle
 10
-337.869575
 20
-299.387272
 30
0.0
 40
2.341227
100
AcDbArc
 50
232.121121
 51
307.878879
  0
ARC
  5
CC
100
AcDbEntity
  8
1
100
AcDbCircle
 10
-342.182075
 20
-293.103499
 30
0.0
 40
8.625
100
AcDbArc
 50
250.528777
 51
289.471219
  0
LINE
  5
CD
100
AcDbEntity
  8
1
100
AcDbLine
 10
-347.932075
 20
-297.725975
 30
0.0
 11
-347.932075
 21
-301.235227
 31
0.0
  0
LINE
  5
CE
100
AcDbEntity
  8
1
100
AcDbLine
 10
-347.932075
 20
-301.235227
 30
0.0
 11
-347.082075
 21
-301.725975
 31
0.0
  0
LINE
  5
CF
100
AcDbEntity
  8
1
100
AcDbLine
 10
-347.082075
 20
-301.725975
 30
0.0
 11
-337.282075
 21
-301.725975
 31
0.0
  0
LINE
  5
D0
100
AcDbEntity
  8
1
100
AcDbLine
 10
-345.057075
 20
-297.725975
 30
0.0
 11
-345.057075
 21
-301.235227
 31
0.0
  0
ARC
  5
D1
100
AcDbEntity
  8
1
100
AcDbCircle
 10
-346.494575
 20
-299.387272
 30
0.0
 40
2.341227
100
AcDbArc
 50
232.121121
 51
307.878879
  0
LINE
  5
D2
100
AcDbEntity
  8
1
100
AcDbLine
 10
-336.082075
 20
-296.225975
 30
0.0
 11
-336.082075
 21
-297.725975
 31
0.0
  0
LINE
  5
D3
100
AcDbEntity
  8
1
100
AcDbLine
 10
-336.082075
 20
-297.725975
 30
0.0
 11
-348.282075
 21
-297.725975
 31
0.0
  0
LINE
  5
D4
100
AcDbEntity
  8
1
100
AcDbLine
 10
-348.282075
 20
-297.725975
 30
0.0
 11
-348.282075
 21
-296.225975
 31
0.0
  0
LINE
  5
D5
100
AcDbEntity
  8
1
100
AcDbLine
 10
-342.182075
 20
-297.725975
 30
0.0
 11
-342.682075
 21
-296.225975
 31
0.0
  0
LINE
  5
D6
100
AcDbEntity
  8
1
100
AcDbLine
 10
-342.182075
 20
-296.225975
 30
0.0
 11
-341.682075
 21
-297.725975
 31
0.0
  0
LINE
  5
D7
100
AcDbEntity
  8
1
100
AcDbLine
 10
-360.432075
 20
-297.725975
 30
0.0
 11
-360.432075
 21
-301.235227
 31
0.0
  0
LINE
  5
D8
100
AcDbEntity
  8
1
100
AcDbLine
 10
-360.432075
 20
-301.235227
 30
0.0
 11
-361.282075
 21
-301.725975
 31
0.0
  0
LINE
  5
D9
100
AcDbEntity
  8
1
100
AcDbLine
 10
-363.307075
 20
-297.725975
 30
0.0
 11
-363.307075
 21
-301.235227
 31
0.0
  0
ARC
  5
DA
100
AcDbEntity
  8
1
100
AcDbCircle
 10
-361.869575
 20
-299.387272
 30
0.0
 40
2.341227
100
AcDbArc
 50
232.121121
 51
307.878879
  0
ARC
  5
DB
100
AcDbEntity
  8
1
100
AcDbCircle
 10
-366.182075
 20
-293.103499
 30
0.0
 40
8.625
100
AcDbArc
 50
250.528777
 51
289.471219
  0
LINE
  5
DC
100
AcDbEntity
  8
1
100
AcDbLine
 10
-371.932075
 20
-297.725975
 30
0.0
 11
-371.932075
 21
-301.235227
 31
0.0
  0
LINE
  5
DD
100
AcDbEntity
  8
1
100
AcDbLine
 10
-371.932075
 20
-301.235227
 30
0.0
 11
-371.082075
 21
-301.725975
 31
0.0
  0
LINE
  5
DE
100
AcDbEntity
  8
1
100
AcDbLine
 10
-371.082075
 20
-301.725975
 30
0.0
 11
-361.282075
 21
-301.725975
 31
0.0
  0
LINE
  5
DF
100
AcDbEntity
  8
1
100
AcDbLine
 10
-369.057075
 20
-297.725975
 30
0.0
 11
-369.057075
 21
-301.235227
 31
0.0
  0
ARC
  5
E0
100
AcDbEntity
  8
1
100
AcDbCircle
 10
-370.494575
 20
-299.387272
 30
0.0
 40
2.341227
100
AcDbArc
 50
232.121121
 51
307.878879
  0
LINE
  5
E1
100
AcDbEntity
  8
1
100
AcDbLine
 10
-360.082075
 20
-296.225975
 30
0.0
 11
-360.082075
 21
-297.725975
 31
0.0
  0
LINE
  5
E2
100
AcDbEntity
  8
1
100
AcDbLine
 10
-360.082075
 20
-297.725975
 30
0.0
 11
-372.282075
 21
-297.725975
 31
0.0
  0
LINE
  5
E3
100
AcDbEntity
  8
1
100
AcDbLine
 10
-372.282075
 20
-297.725975
 30
0.0
 11
-372.282075
 21
-296.225975
 31
0.0
  0
LINE
  5
E4
100
AcDbEntity
  8
1
100
AcDbLine
 10
-366.182075
 20
-297.725975
 30
0.0
 11
-366.682075
 21
-296.225975
 31
0.0
  0
LINE
  5
E5
100
AcDbEntity
  8
1
100
AcDbLine
 10
-366.182075
 20
-296.225975
 30
0.0
 11
-365.682075
 21
-297.725975
 31
0.0
  0
CIRCLE
  5
E6
100
AcDbEntity
  8
1
100
AcDbCircle
 10
-354.182075
 20
-191.725975
 30
0.0
 40
56.0
  0
LINE
  5
E7
100
AcDbEntity
  8
1
100
AcDbLine
 10
-344.782075
 20
-164.094256
 30
0.0
 11
-344.782075
 21
-219.357694
 31
0.0
  0
LINE
  5
E8
100
AcDbEntity
  8
1
100
AcDbLine
 10
-360.782075
 20
-219.302152
 30
0.0
 11
-360.782075
 21
-164.149798
 31
0.0
  0
CIRCLE
  5
E9
100
AcDbEntity
  8
1
100
AcDbCircle
 10
-354.182075
 20
-191.725975
 30
0.0
 40
78.0
  0
ARC
  5
EA
100
AcDbEntity
  8
1
100
AcDbCircle
 10
-326.182075
 20
-275.152589
 30
0.0
 40
10.0
100
AcDbArc
 50
108.553005
 51
180.0
  0
ARC
  5
EB
100
AcDbEntity
  8
1
100
AcDbCircle
 10
-382.182075
 20
-275.152589
 30
0.0
 40
10.0
100
AcDbArc
 50
0.0
 51
71.446995
  0
LINE
  5
EC
100
AcDbEntity
  8
1
100
AcDbLine
 10
-364.782075
 20
-142.725975
 30
0.0
 11
-340.782075
 21
-142.725975
 31
0.0
  0
LINE
  5
ED
100
AcDbEntity
  8
1
100
AcDbLine
 10
-364.782075
 20
-146.963938
 30
0.0
 11
-364.782075
 21
-142.725975
 31
0.0
  0
LINE
  5
EE
100
AcDbEntity
  8
1
100
AcDbLine
 10
-340.782075
 20
-147.720975
 30
0.0
 11
-340.782075
 21
-142.725975
 31
0.0
  0
LINE
  5
EF
100
AcDbEntity
  8
1
100
AcDbLine
 10
-340.782075
 20
-235.730975
 30
0.0
 11
-340.782075
 21
-240.725975
 31
0.0
  0
LINE
  5
F0
100
AcDbEntity
  8
1
100
AcDbLine
 10
-364.782075
 20
-236.488012
 30
0.0
 11
-364.782075
 21
-240.725975
 31
0.0
  0
LINE
  5
F1
100
AcDbEntity
  8
1
100
AcDbLine
 10
-364.782075
 20
-240.725975
 30
0.0
 11
-340.782075
 21
-240.725975
 31
0.0
  0
ARC
  5
F2
100
AcDbEntity
  8
1
100
AcDbCircle
 10
-354.182075
 20
-191.725975
 30
0.0
 40
48.428958
100
AcDbArc
 50
102.6431
 51
257.3569
  0
LINE
  5
F3
100
AcDbEntity
  8
1
100
AcDbLine
 10
-366.782075
 20
-160.063352
 30
0.0
 11
-366.782075
 21
-148.246785
 31
0.0
  0
LINE
  5
F4
100
AcDbEntity
  8
1
100
AcDbLine
 10
-338.782075
 20
-161.118014
 30
0.0
 11
-338.782075
 21
-149.092186
 31
0.0
  0
LINE
  5
F5
100
AcDbEntity
  8
1
100
AcDbLine
 10
-361.081459
 20
-163.225975
 30
0.0
 11
-344.482691
 21
-163.225975
 31
0.0
  0
ARC
  5
F6
100
AcDbEntity
  8
1
100
AcDbCircle
 10
-339.782075
 20
-149.092186
 30
0.0
 40
1.0
100
AcDbArc
 50
0.0
 51
71.337075
  0
ARC
  5
F7
100
AcDbEntity
  8
1
100
AcDbCircle
 10
-365.782075
 20
-148.246785
 30
0.0
 40
1.0
100
AcDbArc
 50
104.938244
 51
180.0
  0
ARC
  5
F8
100
AcDbEntity
  8
1
100
AcDbCircle
 10
-335.782075
 20
-156.773293
 30
0.0
 40
3.0
100
AcDbArc
 50
62.236516
 51
180.0
  0
LINE
  5
F9
100
AcDbEntity
  8
1
100
AcDbLine
 10
-342.782075
 20
-142.725975
 30
0.0
 11
-342.782075
 21
-139.725975
 31
0.0
  0
LINE
  5
FA
100
AcDbEntity
  8
1
100
AcDbLine
 10
-362.782075
 20
-142.725975
 30
0.0
 11
-362.782075
 21
-139.725975
 31
0.0
  0
LINE
  5
FB
100
AcDbEntity
  8
1
100
AcDbLine
 10
-372.621164
 20
-154.225975
 30
0.0
 11
-369.782075
 21
-154.225975
 31
0.0
  0
ARC
  5
FC
100
AcDbEntity
  8
1
100
AcDbCircle
 10
-372.621164
 20
-160.225975
 30
0.0
 40
6.0
100
AcDbArc
 50
90.0
 51
120.343336
  0
ARC
  5
FD
100
AcDbEntity
  8
1
100
AcDbCircle
 10
-369.782075
 20
-157.225975
 30
0.0
 40
3.0
100
AcDbArc
 50
0.0
 51
90.0
  0
LINE
  5
FE
100
AcDbEntity
  8
1
100
AcDbLine
 10
-322.064208
 20
-189.225975
 30
0.0
 11
-315.066861
 21
-189.225975
 31
0.0
  0
ARC
  5
FF
100
AcDbEntity
  8
1
100
AcDbCircle
 10
-393.297289
 20
-186.225975
 30
0.0
 40
3.0
100
AcDbArc
 50
171.9961
 51
270.0
  0
ARC
  5
100
100
AcDbEntity
  8
1
100
AcDbCircle
 10
-393.297289
 20
-197.225975
 30
0.0
 40
3.0
100
AcDbArc
 50
90.0
 51
188.0039
  0
ARC
  5
101
100
AcDbEntity
  8
1
100
AcDbCircle
 10
-315.066861
 20
-197.225975
 30
0.0
 40
3.0
100
AcDbArc
 50
351.9961
 51
90.0
  0
ARC
  5
102
100
AcDbEntity
  8
1
100
AcDbCircle
 10
-315.066861
 20
-186.225975
 30
0.0
 40
3.0
100
AcDbArc
 50
270.0
 51
8.0039
  0
ARC
  5
103
100
AcDbEntity
  8
1
100
AcDbCircle
 10
-354.182075
 20
-191.725975
 30
0.0
 40
42.5
100
AcDbArc
 50
297.763484
 51
351.9961
  0
ARC
  5
104
100
AcDbEntity
  8
1
100
AcDbCircle
 10
-354.182075
 20
-191.725975
 30
0.0
 40
42.5
100
AcDbArc
 50
356.627713
 51
3.372287
  0
ARC
  5
105
100
AcDbEntity
  8
1
100
AcDbCircle
 10
-354.182075
 20
-191.725975
 30
0.0
 40
42.5
100
AcDbArc
 50
8.0039
 51
62.236516
  0
ARC
  5
106
100
AcDbEntity
  8
1
100
AcDbCircle
 10
-354.182075
 20
-191.725975
 30
0.0
 40
42.5
100
AcDbArc
 50
188.0039
 51
239.656664
  0
ARC
  5
107
100
AcDbEntity
  8
1
100
AcDbCircle
 10
-354.182075
 20
-191.725975
 30
0.0
 40
42.5
100
AcDbArc
 50
120.343336
 51
171.9961
  0
ARC
  5
108
100
AcDbEntity
  8
1
100
AcDbCircle
 10
-354.182075
 20
-191.725975
 30
0.0
 40
42.5
100
AcDbArc
 50
176.627713
 51
183.372287
  0
LINE
  5
109
100
AcDbEntity
  8
1
100
AcDbLine
 10
-393.297289
 20
-189.225975
 30
0.0
 11
-386.672403
 21
-189.225975
 31
0.0
  0
LINE
  5
10A
100
AcDbEntity
  8
1
100
AcDbLine
 10
-393.297289
 20
-194.225975
 30
0.0
 11
-386.672403
 21
-194.225975
 31
0.0
  0
LINE
  5
10B
100
AcDbEntity
  8
1
100
AcDbLine
 10
-366.782075
 20
-223.388598
 30
0.0
 11
-366.782075
 21
-235.205165
 31
0.0
  0
LINE
  5
10C
100
AcDbEntity
  8
1
100
AcDbLine
 10
-338.782075
 20
-222.333936
 30
0.0
 11
-338.782075
 21
-234.359764
 31
0.0
  0
LINE
  5
10D
100
AcDbEntity
  8
1
100
AcDbLine
 10
-361.081459
 20
-220.225975
 30
0.0
 11
-344.482691
 21
-220.225975
 31
0.0
  0
ARC
  5
10E
100
AcDbEntity
  8
1
100
AcDbCircle
 10
-339.782075
 20
-234.359764
 30
0.0
 40
1.0
100
AcDbArc
 50
288.662925
 51
360.0
  0
ARC
  5
10F
100
AcDbEntity
  8
1
100
AcDbCircle
 10
-365.782075
 20
-235.205165
 30
0.0
 40
1.0
100
AcDbArc
 50
180.0
 51
255.061756
  0
ARC
  5
110
100
AcDbEntity
  8
1
100
AcDbCircle
 10
-335.782075
 20
-226.678657
 30
0.0
 40
3.0
100
AcDbArc
 50
180.0
 51
297.763484
  0
LINE
  5
111
100
AcDbEntity
  8
1
100
AcDbLine
 10
-342.782075
 20
-240.725975
 30
0.0
 11
-342.782075
 21
-243.725975
 31
0.0
  0
LINE
  5
112
100
AcDbEntity
  8
1
100
AcDbLine
 10
-362.782075
 20
-240.725975
 30
0.0
 11
-362.782075
 21
-243.725975
 31
0.0
  0
LINE
  5
113
100
AcDbEntity
  8
1
100
AcDbLine
 10
-372.621164
 20
-229.225975
 30
0.0
 11
-369.782075
 21
-229.225975
 31
0.0
  0
ARC
  5
114
100
AcDbEntity
  8
1
100
AcDbCircle
 10
-372.621164
 20
-223.225975
 30
0.0
 40
6.0
100
AcDbArc
 50
239.656664
 51
270.0
  0
ARC
  5
115
100
AcDbEntity
  8
1
100
AcDbCircle
 10
-369.782075
 20
-226.225975
 30
0.0
 40
3.0
100
AcDbArc
 50
270.0
 51
360.0
  0
LINE
  5
116
100
AcDbEntity
  8
1
100
AcDbLine
 10
-372.943738
 20
-139.725975
 30
0.0
 11
-335.420412
 21
-139.725975
 31
0.0
  0
LINE
  5
117
100
AcDbEntity
  8
1
100
AcDbLine
 10
-372.943738
 20
-243.725975
 30
0.0
 11
-335.420412
 21
-243.725975
 31
0.0
  0
ARC
  5
118
100
AcDbEntity
  8
1
100
AcDbCircle
 10
-335.420412
 20
-149.725975
 30
0.0
 40
10.0
100
AcDbArc
 50
65.929385
 51
90.0
  0
ARC
  5
119
100
AcDbEntity
  8
1
100
AcDbCircle
 10
-372.943738
 20
-149.725975
 30
0.0
 40
10.0
100
AcDbArc
 50
90.0
 51
114.070615
  0
ARC
  5
11A
100
AcDbEntity
  8
1
100
AcDbCircle
 10
-372.943738
 20
-233.725975
 30
0.0
 40
10.0
100
AcDbArc
 50
245.929385
 51
270.0
  0
ARC
  5
11B
100
AcDbEntity
  8
1
100
AcDbCircle
 10
-335.420412
 20
-233.725975
 30
0.0
 40
10.0
100
AcDbArc
 50
270.0
 51
294.070615
  0
LINE
  5
11C
100
AcDbEntity
  8
1
100
AcDbLine
 10
-301.189285
 20
-187.21679
 30
0.0
 11
-309.529371
 21
-188.687372
 31
0.0
  0
LINE
  5
11D
100
AcDbEntity
  8
1
100
AcDbLine
 10
-301.189285
 20
-196.23516
 30
0.0
 11
-309.529371
 21
-194.764578
 31
0.0
  0
LINE
  5
11E
100
AcDbEntity
  8
1
100
AcDbLine
 10
-311.182075
 20
-192.794962
 30
0.0
 11
-311.182075
 21
-190.656988
 31
0.0
  0
ARC
  5
11F
100
AcDbEntity
  8
1
100
AcDbCircle
 10
-309.182075
 20
-190.656988
 30
0.0
 40
2.0
100
AcDbArc
 50
100.0
 51
180.0
  0
ARC
  5
120
100
AcDbEntity
  8
1
100
AcDbCircle
 10
-309.182075
 20
-192.794962
 30
0.0
 40
2.0
100
AcDbArc
 50
180.0
 51
260.0
  0
ARC
  5
121
100
AcDbEntity
  8
1
100
AcDbCircle
 10
-301.71023
 20
-184.262367
 30
0.0
 40
3.0
100
AcDbArc
 50
280.0
 51
8.095461
  0
ARC
  5
122
100
AcDbEntity
  8
1
100
AcDbCircle
 10
-301.71023
 20
-199.189583
 30
0.0
 40
3.0
100
AcDbArc
 50
351.904539
 51
80.0
  0
ARC
  5
123
100
AcDbEntity
  8
1
100
AcDbCircle
 10
-354.182075
 20
-191.725975
 30
0.0
 40
49.5
100
AcDbArc
 50
4.480166
 51
74.293654
  0
ARC
  5
124
100
AcDbEntity
  8
1
100
AcDbCircle
 10
-354.182075
 20
-191.725975
 30
0.0
 40
49.5
100
AcDbArc
 50
102.365161
 51
257.634839
  0
ARC
  5
125
100
AcDbEntity
  8
1
100
AcDbCircle
 10
-354.182075
 20
-191.725975
 30
0.0
 40
49.5
100
AcDbArc
 50
285.706346
 51
355.519834
  0
ARC
  5
126
100
AcDbEntity
  8
1
100
AcDbCircle
 10
-354.182075
 20
-191.725975
 30
0.0
 40
48.428958
100
AcDbArc
 50
286.062988
 51
355.642301
  0
ARC
  5
127
100
AcDbEntity
  8
1
100
AcDbCircle
 10
-354.182075
 20
-191.725975
 30
0.0
 40
48.428958
100
AcDbArc
 50
4.357699
 51
73.937012
  0
ARC
  5
128
100
AcDbEntity
  8
1
100
AcDbCircle
 10
-354.182075
 20
-191.725975
 30
0.0
 40
46.0
100
AcDbArc
 50
4.058721
 51
355.941279
  0
ARC
  5
129
100
AcDbEntity
  8
1
100
AcDbCircle
 10
-354.182075
 20
-191.725975
 30
0.0
 40
50.299258
100
AcDbArc
 50
4.568142
 51
74.549514
  0
ARC
  5
12A
100
AcDbEntity
  8
1
100
AcDbCircle
 10
-354.182075
 20
-191.725975
 30
0.0
 40
50.299258
100
AcDbArc
 50
99.84461
 51
260.15539
  0
ARC
  5
12B
100
AcDbEntity
  8
1
100
AcDbCircle
 10
-354.182075
 20
-191.725975
 30
0.0
 40
50.299258
100
AcDbArc
 50
285.450486
 51
355.431858
  0
ARC
  5
12C
100
AcDbEntity
  8
1
100
AcDbCircle
 10
-354.182075
 20
-191.725975
 30
0.0
 40
47.690623
100
AcDbArc
 50
102.842156
 51
257.157844
  0
ARC
  5
12D
100
AcDbEntity
  8
1
100
AcDbCircle
 10
-354.182075
 20
-191.725975
 30
0.0
 40
47.690623
100
AcDbArc
 50
286.318563
 51
355.729944
  0
ARC
  5
12E
100
AcDbEntity
  8
1
100
AcDbCircle
 10
-354.182075
 20
-191.725975
 30
0.0
 40
47.690623
100
AcDbArc
 50
4.270056
 51
73.681437
  0
LINE
  5
12F
100
AcDbEntity
  8
1
100
AcDbLine
 10
-322.064208
 20
-194.225975
 30
0.0
 11
-315.066861
 21
-194.225975
 31
0.0
  0
ARC
  5
130
100
AcDbEntity
  8
1
100
AcDbCircle
 10
-361.45361
 20
-191.725975
 30
0.0
 40
32.271535
100
AcDbArc
 50
297.977581
 51
62.022419
  0
ARC
  5
131
100
AcDbEntity
  8
1
100
AcDbCircle
 10
-349.95746
 20
-191.725975
 30
0.0
 40
29.624615
100
AcDbArc
 50
105.837871
 51
254.162129
  0
ARC
  5
132
100
AcDbEntity
  8
1
100
AcDbCircle
 10
-335.282075
 20
-161.118014
 30
0.0
 40
3.5
100
AcDbArc
 50
180.0
 51
229.467689
  0
ARC
  5
133
100
AcDbEntity
  8
1
100
AcDbCircle
 10
-370.282075
 20
-160.063352
 30
0.0
 40
3.5
100
AcDbArc
 50
302.696889
 51
360.0
  0
ARC
  5
134
100
AcDbEntity
  8
1
100
AcDbCircle
 10
-335.282075
 20
-222.333936
 30
0.0
 40
3.5
100
AcDbArc
 50
130.532311
 51
180.0
  0
ARC
  5
135
100
AcDbEntity
  8
1
100
AcDbCircle
 10
-370.282075
 20
-223.388598
 30
0.0
 40
3.5
100
AcDbArc
 50
0.0
 51
57.303111
  0
LINE
  5
136
100
AcDbEntity
  8
1
100
AcDbLine
 10
-342.482691
 20
-160.225975
 30
0.0
 11
-342.482691
 21
-161.225975
 31
0.0
  0
LINE
  5
137
100
AcDbEntity
  8
1
100
AcDbLine
 10
-363.081459
 20
-160.225975
 30
0.0
 11
-363.081459
 21
-161.225975
 31
0.0
  0
ARC
  5
138
100
AcDbEntity
  8
1
100
AcDbCircle
 10
-344.482691
 20
-161.225975
 30
0.0
 40
2.0
100
AcDbArc
 50
270.0
 51
360.0
  0
ARC
  5
139
100
AcDbEntity
  8
1
100
AcDbCircle
 10
-361.081459
 20
-161.225975
 30
0.0
 40
2.0
100
AcDbArc
 50
180.0
 51
270.0
  0
LINE
  5
13A
100
AcDbEntity
  8
1
100
AcDbLine
 10
-342.482691
 20
-223.225975
 30
0.0
 11
-342.482691
 21
-222.225975
 31
0.0
  0
LINE
  5
13B
100
AcDbEntity
  8
1
100
AcDbLine
 10
-363.081459
 20
-223.225975
 30
0.0
 11
-363.081459
 21
-222.225975
 31
0.0
  0
ARC
  5
13C
100
AcDbEntity
  8
1
100
AcDbCircle
 10
-344.482691
 20
-222.225975
 30
0.0
 40
2.0
100
AcDbArc
 50
0.0
 51
90.0
  0
ARC
  5
13D
100
AcDbEntity
  8
1
100
AcDbCircle
 10
-361.081459
 20
-222.225975
 30
0.0
 40
2.0
100
AcDbArc
 50
90.0
 51
180.0
  0
ARC
  5
13E
100
AcDbEntity
  8
1
100
AcDbCircle
 10
-361.45361
 20
-191.725975
 30
0.0
 40
36.771535
100
AcDbArc
 50
7.9489
 51
58.941488
  0
ARC
  5
13F
100
AcDbEntity
  8
1
100
AcDbCircle
 10
-349.95746
 20
-191.725975
 30
0.0
 40
34.124615
100
AcDbArc
 50
188.519713
 51
247.381686
  0
ARC
  5
140
100
AcDbEntity
  8
1
100
AcDbCircle
 10
-349.95746
 20
-191.725975
 30
0.0
 40
34.124615
100
AcDbArc
 50
112.618314
 51
171.480287
  0
ARC
  5
141
100
AcDbEntity
  8
1
100
AcDbCircle
 10
-349.95746
 20
-191.725975
 30
0.0
 40
34.124615
100
AcDbArc
 50
175.798696
 51
184.201304
  0
ARC
  5
142
100
AcDbEntity
  8
1
100
AcDbCircle
 10
-361.45361
 20
-191.725975
 30
0.0
 40
36.771535
100
AcDbArc
 50
301.058512
 51
352.0511
  0
ARC
  5
143
100
AcDbEntity
  8
1
100
AcDbCircle
 10
-361.45361
 20
-191.725975
 30
0.0
 40
36.771535
100
AcDbArc
 50
356.101603
 51
3.898397
  0
ARC
  5
144
100
AcDbEntity
  8
1
100
AcDbCircle
 10
-322.064208
 20
-186.225975
 30
0.0
 40
3.0
100
AcDbArc
 50
187.9489
 51
270.0
  0
ARC
  5
145
100
AcDbEntity
  8
1
100
AcDbCircle
 10
-322.064208
 20
-197.225975
 30
0.0
 40
3.0
100
AcDbArc
 50
90.0
 51
172.0511
  0
ARC
  5
146
100
AcDbEntity
  8
1
100
AcDbCircle
 10
-386.672403
 20
-197.225975
 30
0.0
 40
3.0
100
AcDbArc
 50
8.519713
 51
90.0
  0
ARC
  5
147
100
AcDbEntity
  8
1
100
AcDbCircle
 10
-386.672403
 20
-186.225975
 30
0.0
 40
3.0
100
AcDbArc
 50
270.0
 51
351.480287
  0
LINE
  5
148
100
AcDbEntity
  8
1
  6
CENTER
 62
     2
100
AcDbLine
 10
127.427484
 20
100.95521
 30
0.0
 11
127.427484
 21
-315.654816
 31
0.0
  0
LINE
  5
149
100
AcDbEntity
  8
1
100
AcDbLine
 10
76.427484
 20
-21.725975
 30
0.0
 11
178.427484
 21
-21.725975
 31
0.0
  0
LINE
  5
14A
100
AcDbEntity
  8
1
100
AcDbLine
 10
76.427484
 20
-21.725975
 30
0.0
 11
76.427484
 21
-30.725975
 31
0.0
  0
LINE
  5
14B
100
AcDbEntity
  8
1
100
AcDbLine
 10
178.427484
 20
-21.725975
 30
0.0
 11
178.427484
 21
-30.725975
 31
0.0
  0
LINE
  5
14C
100
AcDbEntity
  8
1
100
AcDbLine
 10
82.427484
 20
-36.725975
 30
0.0
 11
172.427484
 21
-36.725975
 31
0.0
  0
LINE
  5
14D
100
AcDbEntity
  8
1
100
AcDbLine
 10
145.427484
 20
-132.195027
 30
0.0
 11
145.427484
 21
-48.725975
 31
0.0
  0
LINE
  5
14E
100
AcDbEntity
  8
1
100
AcDbLine
 10
109.427484
 20
-113.779658
 30
0.0
 11
109.427484
 21
-48.725975
 31
0.0
  0
LINE
  5
14F
100
AcDbEntity
  8
1
100
AcDbLine
 10
112.999197
 20
-12.325975
 30
0.0
 11
141.855771
 21
-12.325975
 31
0.0
  0
LINE
  5
150
100
AcDbEntity
  8
1
100
AcDbLine
 10
157.427484
 20
-113.725975
 30
0.0
 11
157.427484
 21
-269.725975
 31
0.0
  0
LINE
  5
151
100
AcDbEntity
  8
1
100
AcDbLine
 10
113.427484
 20
-121.779658
 30
0.0
 11
113.427484
 21
-178.725975
 31
0.0
  0
LINE
  5
152
100
AcDbEntity
  8
1
100
AcDbLine
 10
117.178773
 20
-133.309365
 30
0.0
 11
117.178773
 21
-173.158407
 31
0.0
  0
LINE
  5
153
100
AcDbEntity
  8
1
100
AcDbLine
 10
103.427484
 20
-269.725975
 30
0.0
 11
103.427484
 21
-113.725975
 31
0.0
  0
LINE
  5
154
100
AcDbEntity
  8
1
100
AcDbLine
 10
103.427484
 20
-113.725975
 30
0.0
 11
105.427484
 21
-113.725975
 31
0.0
  0
LINE
  5
155
100
AcDbEntity
  8
1
100
AcDbLine
 10
149.427484
 20
-113.725975
 30
0.0
 11
157.427484
 21
-113.725975
 31
0.0
  0
ARC
  5
156
100
AcDbEntity
  8
1
100
AcDbCircle
 10
82.427484
 20
-30.725975
 30
0.0
 40
6.0
100
AcDbArc
 50
180.0
 51
270.0
  0
ARC
  5
157
100
AcDbEntity
  8
1
100
AcDbCircle
 10
172.427484
 20
-30.725975
 30
0.0
 40
6.0
100
AcDbArc
 50
270.0
 51
360.0
  0
ARC
  5
158
100
AcDbEntity
  8
1
100
AcDbCircle
 10
157.427484
 20
-48.725975
 30
0.0
 40
12.0
100
AcDbArc
 50
90.0
 51
180.0
  0
ARC
  5
159
100
AcDbEntity
  8
1
100
AcDbCircle
 10
97.427484
 20
-48.725975
 30
0.0
 40
12.0
100
AcDbArc
 50
0.0
 51
74.843126
  0
ARC
  5
15A
100
AcDbEntity
  8
1
100
AcDbCircle
 10
149.427484
 20
-109.725975
 30
0.0
 40
4.0
100
AcDbArc
 50
180.0
 51
270.0
  0
ARC
  5
15B
100
AcDbEntity
  8
1
100
AcDbCircle
 10
105.427484
 20
-109.725975
 30
0.0
 40
4.0
100
AcDbArc
 50
270.0
 51
360.0
  0
ARC
  5
15C
100
AcDbEntity
  8
1
100
AcDbCircle
 10
149.427484
 20
-113.779658
 30
0.0
 40
4.0
100
AcDbArc
 50
180.0
 51
270.0
  0
ARC
  5
15D
100
AcDbEntity
  8
1
100
AcDbCircle
 10
105.427484
 20
-113.779658
 30
0.0
 40
4.0
100
AcDbArc
 50
270.0
 51
360.0
  0
LINE
  5
15E
100
AcDbEntity
  8
1
100
AcDbLine
 10
120.178773
 20
-130.309365
 30
0.0
 11
129.427484
 21
-130.309365
 31
0.0
  0
ARC
  5
15F
100
AcDbEntity
  8
1
100
AcDbCircle
 10
120.178773
 20
-133.309365
 30
0.0
 40
3.0
100
AcDbArc
 50
90.0
 51
180.0
  0
ARC
  5
160
100
AcDbEntity
  8
1
100
AcDbCircle
 10
109.427484
 20
-121.779658
 30
0.0
 40
4.0
100
AcDbArc
 50
0.0
 51
90.0
  0
LINE
  5
161
100
AcDbEntity
  8
1
100
AcDbLine
 10
114.924442
 20
-122.779658
 30
0.0
 11
117.178773
 21
-130.309365
 31
0.0
  0
LINE
  5
162
100
AcDbEntity
  8
1
100
AcDbLine
 10
133.427484
 20
-69.613344
 30
0.0
 11
145.427484
 21
-69.613344
 31
0.0
  0
ARC
  5
163
100
AcDbEntity
  8
1
100
AcDbCircle
 10
149.427484
 20
-132.195027
 30
0.0
 40
4.0
100
AcDbArc
 50
180.0
 51
270.0
  0
ARC
  5
164
100
AcDbEntity
  8
1
100
AcDbCircle
 10
129.427484
 20
-126.309365
 30
0.0
 40
4.0
100
AcDbArc
 50
270.0
 51
360.0
  0
LINE
  5
165
100
AcDbEntity
  8
1
100
AcDbLine
 10
138.427484
 20
-92.634994
 30
0.0
 11
140.427484
 21
-92.634994
 31
0.0
  0
LINE
  5
166
100
AcDbEntity
  8
1
100
AcDbLine
 10
138.427484
 20
-104.968327
 30
0.0
 11
140.427484
 21
-104.968327
 31
0.0
  0
ARC
  5
167
100
AcDbEntity
  8
1
100
AcDbCircle
 10
140.427484
 20
-97.634994
 30
0.0
 40
5.0
100
AcDbArc
 50
0.0
 51
90.0
  0
ARC
  5
168
100
AcDbEntity
  8
1
100
AcDbCircle
 10
140.427484
 20
-99.968327
 30
0.0
 40
5.0
100
AcDbArc
 50
270.0
 51
360.0
  0
ARC
  5
169
100
AcDbEntity
  8
1
100
AcDbCircle
 10
138.427484
 20
-97.634994
 30
0.0
 40
5.0
100
AcDbArc
 50
90.0
 51
180.0
  0
ARC
  5
16A
100
AcDbEntity
  8
1
100
AcDbCircle
 10
138.427484
 20
-99.968327
 30
0.0
 40
5.0
100
AcDbArc
 50
180.0
 51
270.0
  0
LINE
  5
16B
100
AcDbEntity
  8
1
100
AcDbLine
 10
133.427484
 20
-145.568065
 30
0.0
 11
133.427484
 21
-73.613344
 31
0.0
  0
ARC
  5
16C
100
AcDbEntity
  8
1
100
AcDbCircle
 10
129.427484
 20
-73.613344
 30
0.0
 40
4.0
100
AcDbArc
 50
0.0
 51
90.0
  0
LINE
  5
16D
100
AcDbEntity
  8
1
100
AcDbLine
 10
135.427484
 20
5.274024
 30
0.0
 11
135.427484
 21
14.274025
 31
0.0
  0
LINE
  5
16E
100
AcDbEntity
  8
1
100
AcDbLine
 10
119.427484
 20
5.274024
 30
0.0
 11
119.427484
 21
14.274025
 31
0.0
  0
LINE
  5
16F
100
AcDbEntity
  8
1
100
AcDbLine
 10
119.427484
 20
14.274025
 30
0.0
 11
120.427484
 21
14.274025
 31
0.0
  0
LINE
  5
170
100
AcDbEntity
  8
1
100
AcDbLine
 10
115.427484
 20
-15.325975
 30
0.0
 11
139.427484
 21
-15.325975
 31
0.0
  0
LINE
  5
171
100
AcDbEntity
  8
1
100
AcDbLine
 10
115.427484
 20
-14.325975
 30
0.0
 11
139.427484
 21
-14.325975
 31
0.0
  0
LINE
  5
172
100
AcDbEntity
  8
1
100
AcDbLine
 10
139.427484
 20
-14.325975
 30
0.0
 11
139.427484
 21
-12.325975
 31
0.0
  0
LINE
  5
173
100
AcDbEntity
  8
1
100
AcDbLine
 10
115.427484
 20
-14.325975
 30
0.0
 11
115.427484
 21
-12.325975
 31
0.0
  0
LINE
  5
174
100
AcDbEntity
  8
1
100
AcDbLine
 10
136.427484
 20
-14.325975
 30
0.0
 11
136.427484
 21
-15.325975
 31
0.0
  0
LINE
  5
175
100
AcDbEntity
  8
1
100
AcDbLine
 10
118.427484
 20
-14.325975
 30
0.0
 11
118.427484
 21
-15.325975
 31
0.0
  0
LINE
  5
176
100
AcDbEntity
  8
1
100
AcDbLine
 10
131.427484
 20
-14.325975
 30
0.0
 11
131.427484
 21
-15.325975
 31
0.0
  0
LINE
  5
177
100
AcDbEntity
  8
1
100
AcDbLine
 10
127.927484
 20
-14.325975
 30
0.0
 11
127.927484
 21
-15.325975
 31
0.0
  0
LINE
  5
178
100
AcDbEntity
  8
1
100
AcDbLine
 10
126.927484
 20
-14.325975
 30
0.0
 11
126.927484
 21
-15.325975
 31
0.0
  0
LINE
  5
179
100
AcDbEntity
  8
1
100
AcDbLine
 10
123.427484
 20
-14.325975
 30
0.0
 11
123.427484
 21
-15.325975
 31
0.0
  0
LINE
  5
17A
100
AcDbEntity
  8
1
100
AcDbLine
 10
115.427484
 20
-17.325975
 30
0.0
 11
139.427484
 21
-17.325975
 31
0.0
  0
LINE
  5
17B
100
AcDbEntity
  8
1
100
AcDbLine
 10
115.427484
 20
-19.325975
 30
0.0
 11
139.427484
 21
-19.325975
 31
0.0
  0
LINE
  5
17C
100
AcDbEntity
  8
1
100
AcDbLine
 10
138.427484
 20
-19.325975
 30
0.0
 11
138.427484
 21
-17.325975
 31
0.0
  0
LINE
  5
17D
100
AcDbEntity
  8
1
100
AcDbLine
 10
139.427484
 20
-21.725975
 30
0.0
 11
139.427484
 21
-19.325975
 31
0.0
  0
LINE
  5
17E
100
AcDbEntity
  8
1
100
AcDbLine
 10
139.427484
 20
-17.325975
 30
0.0
 11
139.427484
 21
-15.325975
 31
0.0
  0
LINE
  5
17F
100
AcDbEntity
  8
1
100
AcDbLine
 10
115.427484
 20
-21.725975
 30
0.0
 11
115.427484
 21
-19.325975
 31
0.0
  0
LINE
  5
180
100
AcDbEntity
  8
1
100
AcDbLine
 10
115.427484
 20
-17.325975
 30
0.0
 11
115.427484
 21
-15.325975
 31
0.0
  0
LINE
  5
181
100
AcDbEntity
  8
1
100
AcDbLine
 10
116.427484
 20
-19.325975
 30
0.0
 11
116.427484
 21
-17.325975
 31
0.0
  0
LINE
  5
182
100
AcDbEntity
  8
1
  6
CENTER
 62
     2
100
AcDbLine
 10
78.593389
 20
-191.725975
 30
0.0
 11
181.42835
 21
-191.725975
 31
0.0
  0
LINE
  5
183
100
AcDbEntity
  8
1
100
AcDbLine
 10
109.427484
 20
-291.725975
 30
0.0
 11
145.427484
 21
-291.725975
 31
0.0
  0
LINE
  5
184
100
AcDbEntity
  8
1
100
AcDbLine
 10
145.427484
 20
-296.225975
 30
0.0
 11
145.427484
 21
-269.672292
 31
0.0
  0
LINE
  5
185
100
AcDbEntity
  8
1
100
AcDbLine
 10
109.427484
 20
-296.225975
 30
0.0
 11
109.427484
 21
-269.672292
 31
0.0
  0
LINE
  5
186
100
AcDbEntity
  8
1
100
AcDbLine
 10
109.427484
 20
-293.225975
 30
0.0
 11
145.427484
 21
-293.225975
 31
0.0
  0
LINE
  5
187
100
AcDbEntity
  8
1
100
AcDbLine
 10
109.327484
 20
-296.225975
 30
0.0
 11
145.527484
 21
-296.225975
 31
0.0
  0
LINE
  5
188
100
AcDbEntity
  8
1
  6
CENTER
 62
     2
100
AcDbLine
 10
115.427484
 20
-285.795532
 30
0.0
 11
115.427484
 21
-306.335205
 31
0.0
  0
LINE
  5
189
100
AcDbEntity
  8
1
  6
CENTER
 62
     2
100
AcDbLine
 10
139.427484
 20
-285.795532
 30
0.0
 11
139.427484
 21
-306.335205
 31
0.0
  0
LINE
  5
18A
100
AcDbEntity
  8
1
100
AcDbLine
 10
133.327484
 20
-297.725975
 30
0.0
 11
145.527484
 21
-297.725975
 31
0.0
  0
LINE
  5
18B
100
AcDbEntity
  8
1
100
AcDbLine
 10
144.427484
 20
-297.725975
 30
0.0
 11
144.427484
 21
-301.725975
 31
0.0
  0
ARC
  5
18C
100
AcDbEntity
  8
1
100
AcDbCircle
 10
141.927484
 20
-295.112767
 30
0.0
 40
6.613208
100
AcDbArc
 50
247.788205
 51
292.211795
  0
LINE
  5
18D
100
AcDbEntity
  8
1
100
AcDbLine
 10
134.427484
 20
-297.725975
 30
0.0
 11
134.427484
 21
-301.725975
 31
0.0
  0
LINE
  5
18E
100
AcDbEntity
  8
1
100
AcDbLine
 10
134.427484
 20
-301.725975
 30
0.0
 11
144.427484
 21
-301.725975
 31
0.0
  0
LINE
  5
18F
100
AcDbEntity
  8
1
100
AcDbLine
 10
139.427484
 20
-297.725975
 30
0.0
 11
139.427484
 21
-301.235227
 31
0.0
  0
ARC
  5
190
100
AcDbEntity
  8
1
100
AcDbCircle
 10
136.927484
 20
-295.112767
 30
0.0
 40
6.613208
100
AcDbArc
 50
247.788205
 51
292.211795
  0
LINE
  5
191
100
AcDbEntity
  8
1
100
AcDbLine
 10
145.527484
 20
-296.225975
 30
0.0
 11
145.527484
 21
-297.725975
 31
0.0
  0
LINE
  5
192
100
AcDbEntity
  8
1
100
AcDbLine
 10
133.327484
 20
-297.725975
 30
0.0
 11
133.327484
 21
-296.225975
 31
0.0
  0
LINE
  5
193
100
AcDbEntity
  8
1
100
AcDbLine
 10
121.527484
 20
-297.725975
 30
0.0
 11
109.327484
 21
-297.725975
 31
0.0
  0
LINE
  5
194
100
AcDbEntity
  8
1
100
AcDbLine
 10
110.427484
 20
-297.725975
 30
0.0
 11
110.427484
 21
-301.725975
 31
0.0
  0
ARC
  5
195
100
AcDbEntity
  8
1
100
AcDbCircle
 10
112.927484
 20
-295.112767
 30
0.0
 40
6.613208
100
AcDbArc
 50
247.788205
 51
292.211795
  0
LINE
  5
196
100
AcDbEntity
  8
1
100
AcDbLine
 10
120.427484
 20
-297.725975
 30
0.0
 11
120.427484
 21
-301.725975
 31
0.0
  0
LINE
  5
197
100
AcDbEntity
  8
1
100
AcDbLine
 10
120.427484
 20
-301.725975
 30
0.0
 11
110.427484
 21
-301.725975
 31
0.0
  0
LINE
  5
198
100
AcDbEntity
  8
1
100
AcDbLine
 10
115.427484
 20
-297.725975
 30
0.0
 11
115.427484
 21
-301.235227
 31
0.0
  0
ARC
  5
199
100
AcDbEntity
  8
1
100
AcDbCircle
 10
117.927484
 20
-295.112767
 30
0.0
 40
6.613208
100
AcDbArc
 50
247.788205
 51
292.211795
  0
LINE
  5
19A
100
AcDbEntity
  8
1
100
AcDbLine
 10
109.327484
 20
-296.225975
 30
0.0
 11
109.327484
 21
-297.725975
 31
0.0
  0
LINE
  5
19B
100
AcDbEntity
  8
1
100
AcDbLine
 10
121.527484
 20
-297.725975
 30
0.0
 11
121.527484
 21
-296.225975
 31
0.0
  0
LINE
  5
19C
100
AcDbEntity
  8
1
100
AcDbLine
 10
137.427484
 20
-139.195027
 30
0.0
 11
137.427484
 21
-178.725975
 31
0.0
  0
LINE
  5
19D
100
AcDbEntity
  8
1
100
AcDbLine
 10
133.676195
 20
-149.568065
 30
0.0
 11
133.676195
 21
-173.158407
 31
0.0
  0
LINE
  5
19E
100
AcDbEntity
  8
1
100
AcDbLine
 10
137.427484
 20
-260.672292
 30
0.0
 11
137.427484
 21
-204.725975
 31
0.0
  0
LINE
  5
19F
100
AcDbEntity
  8
1
100
AcDbLine
 10
113.427484
 20
-261.672292
 30
0.0
 11
113.427484
 21
-204.725975
 31
0.0
  0
LINE
  5
1A0
100
AcDbEntity
  8
1
100
AcDbLine
 10
133.676195
 20
-250.142585
 30
0.0
 11
133.676195
 21
-210.293543
 31
0.0
  0
LINE
  5
1A1
100
AcDbEntity
  8
1
100
AcDbLine
 10
117.178773
 20
-250.142585
 30
0.0
 11
117.178773
 21
-210.293543
 31
0.0
  0
LINE
  5
1A2
100
AcDbEntity
  8
1
100
AcDbLine
 10
103.427484
 20
-269.725975
 30
0.0
 11
105.427484
 21
-269.725975
 31
0.0
  0
LINE
  5
1A3
100
AcDbEntity
  8
1
100
AcDbLine
 10
149.427484
 20
-269.725975
 30
0.0
 11
157.427484
 21
-269.725975
 31
0.0
  0
LINE
  5
1A4
100
AcDbEntity
  8
1
100
AcDbLine
 10
118.427484
 20
-183.725975
 30
0.0
 11
132.427484
 21
-183.725975
 31
0.0
  0
LINE
  5
1A5
100
AcDbEntity
  8
1
100
AcDbLine
 10
118.427484
 20
-199.725975
 30
0.0
 11
132.427484
 21
-199.725975
 31
0.0
  0
ARC
  5
1A6
100
AcDbEntity
  8
1
100
AcDbCircle
 10
132.427484
 20
-178.725975
 30
0.0
 40
5.0
100
AcDbArc
 50
270.0
 51
360.0
  0
ARC
  5
1A7
100
AcDbEntity
  8
1
100
AcDbCircle
 10
118.427484
 20
-178.725975
 30
0.0
 40
5.0
100
AcDbArc
 50
180.0
 51
270.0
  0
ARC
  5
1A8
100
AcDbEntity
  8
1
100
AcDbCircle
 10
118.427484
 20
-204.725975
 30
0.0
 40
5.0
100
AcDbArc
 50
90.0
 51
180.0
  0
ARC
  5
1A9
100
AcDbEntity
  8
1
100
AcDbCircle
 10
132.427484
 20
-204.725975
 30
0.0
 40
5.0
100
AcDbArc
 50
0.0
 51
90.0
  0
LINE
  5
1AA
100
AcDbEntity
  8
1
100
AcDbLine
 10
120.178773
 20
-176.158407
 30
0.0
 11
130.676195
 21
-176.158407
 31
0.0
  0
LINE
  5
1AB
100
AcDbEntity
  8
1
100
AcDbLine
 10
120.178773
 20
-207.293543
 30
0.0
 11
130.676195
 21
-207.293543
 31
0.0
  0
ARC
  5
1AC
100
AcDbEntity
  8
1
100
AcDbCircle
 10
130.676195
 20
-173.158407
 30
0.0
 40
3.0
100
AcDbArc
 50
270.0
 51
360.0
  0
ARC
  5
1AD
100
AcDbEntity
  8
1
100
AcDbCircle
 10
120.178773
 20
-173.158407
 30
0.0
 40
3.0
100
AcDbArc
 50
180.0
 51
270.0
  0
ARC
  5
1AE
100
AcDbEntity
  8
1
100
AcDbCircle
 10
130.676195
 20
-210.293543
 30
0.0
 40
3.0
100
AcDbArc
 50
0.0
 51
90.0
  0
ARC
  5
1AF
100
AcDbEntity
  8
1
100
AcDbCircle
 10
120.178773
 20
-210.293543
 30
0.0
 40
3.0
100
AcDbArc
 50
90.0
 51
180.0
  0
LINE
  5
1B0
100
AcDbEntity
  8
1
100
AcDbLine
 10
133.676195
 20
-176.158407
 30
0.0
 11
134.948954
 21
-178.725975
 31
0.0
  0
LINE
  5
1B1
100
AcDbEntity
  8
1
100
AcDbLine
 10
115.906014
 20
-178.725975
 30
0.0
 11
117.178773
 21
-176.158407
 31
0.0
  0
LINE
  5
1B2
100
AcDbEntity
  8
1
100
AcDbLine
 10
133.676195
 20
-207.293543
 30
0.0
 11
134.948954
 21
-204.725975
 31
0.0
  0
LINE
  5
1B3
100
AcDbEntity
  8
1
100
AcDbLine
 10
115.906014
 20
-204.725975
 30
0.0
 11
117.178773
 21
-207.293543
 31
0.0
  0
ARC
  5
1B4
100
AcDbEntity
  8
1
100
AcDbCircle
 10
149.427484
 20
-273.725975
 30
0.0
 40
4.0
100
AcDbArc
 50
90.0
 51
180.0
  0
ARC
  5
1B5
100
AcDbEntity
  8
1
100
AcDbCircle
 10
105.427484
 20
-273.725975
 30
0.0
 40
4.0
100
AcDbArc
 50
0.0
 51
90.0
  0
LINE
  5
1B6
100
AcDbEntity
  8
1
100
AcDbLine
 10
142.427484
 20
-265.672292
 30
0.0
 11
145.427484
 21
-265.672292
 31
0.0
  0
ARC
  5
1B7
100
AcDbEntity
  8
1
100
AcDbCircle
 10
149.427484
 20
-269.672292
 30
0.0
 40
4.0
100
AcDbArc
 50
90.0
 51
180.0
  0
ARC
  5
1B8
100
AcDbEntity
  8
1
100
AcDbCircle
 10
105.427484
 20
-269.672292
 30
0.0
 40
4.0
100
AcDbArc
 50
0.0
 51
90.0
  0
LINE
  5
1B9
100
AcDbEntity
  8
1
100
AcDbLine
 10
120.178773
 20
-253.142585
 30
0.0
 11
130.676195
 21
-253.142585
 31
0.0
  0
ARC
  5
1BA
100
AcDbEntity
  8
1
100
AcDbCircle
 10
130.676195
 20
-250.142585
 30
0.0
 40
3.0
100
AcDbArc
 50
270.0
 51
360.0
  0
ARC
  5
1BB
100
AcDbEntity
  8
1
100
AcDbCircle
 10
120.178773
 20
-250.142585
 30
0.0
 40
3.0
100
AcDbArc
 50
180.0
 51
270.0
  0
ARC
  5
1BC
100
AcDbEntity
  8
1
100
AcDbCircle
 10
142.427484
 20
-260.672292
 30
0.0
 40
5.0
100
AcDbArc
 50
180.0
 51
270.0
  0
ARC
  5
1BD
100
AcDbEntity
  8
1
100
AcDbCircle
 10
109.427484
 20
-261.672292
 30
0.0
 40
4.0
100
AcDbArc
 50
270.0
 51
360.0
  0
LINE
  5
1BE
100
AcDbEntity
  8
1
100
AcDbLine
 10
135.930526
 20
-260.672292
 30
0.0
 11
133.676195
 21
-253.142585
 31
0.0
  0
LINE
  5
1BF
100
AcDbEntity
  8
1
100
AcDbLine
 10
117.178773
 20
-253.142585
 30
0.0
 11
114.924442
 21
-260.672292
 31
0.0
  0
ARC
  5
1C0
100
AcDbEntity
  8
1
100
AcDbCircle
 10
140.427484
 20
-139.195027
 30
0.0
 40
3.0
100
AcDbArc
 50
90.0
 51
180.0
  0
LINE
  5
1C1
100
AcDbEntity
  8
1
100
AcDbLine
 10
133.676195
 20
-149.568065
 30
0.0
 11
136.58595
 21
-139.195027
 31
0.0
  0
ARC
  5
1C2
100
AcDbEntity
  8
1
100
AcDbCircle
 10
129.427484
 20
-145.568065
 30
0.0
 40
4.0
100
AcDbArc
 50
270.0
 51
360.0
  0
LINE
  5
1C3
100
AcDbEntity
  8
1
100
AcDbLine
 10
140.427484
 20
-136.195027
 30
0.0
 11
145.427484
 21
-136.195027
 31
0.0
  0
LINE
  5
1C4
100
AcDbEntity
  8
1
100
AcDbLine
 10
-344.782075
 20
-6.325975
 30
0.0
 11
-344.782075
 21
-4.725974
 31
0.0
  0
LINE
  5
1C5
100
AcDbEntity
  8
1
100
AcDbLine
 10
-344.782075
 20
5.274024
 30
0.0
 11
-344.782075
 21
14.274025
 31
0.0
  0
LINE
  5
1C6
100
AcDbEntity
  8
1
100
AcDbLine
 10
-360.782075
 20
-6.325975
 30
0.0
 11
-360.782075
 21
-4.725974
 31
0.0
  0
LINE
  5
1C7
100
AcDbEntity
  8
1
100
AcDbLine
 10
-360.782075
 20
5.274024
 30
0.0
 11
-360.782075
 21
14.274025
 31
0.0
  0
LINE
  5
1C8
100
AcDbEntity
  8
2
  6
CENTER
 62
     2
100
AcDbLine
 10
-316.71963
 20
14.644716
 30
0.0
 11
-316.71963
 21
-57.48061
 31
0.0
  0
LINE
  5
1C9
100
AcDbEntity
  8
2
  6
CENTER
 62
     2
100
AcDbLine
 10
-388.84452
 20
14.402393
 30
0.0
 11
-388.84452
 21
-56.753635
 31
0.0
  0
LINE
  5
1CA
100
AcDbEntity
  8
2
  6
CENTER
 62
     2
100
AcDbLine
 10
163.489929
 20
15.129365
 30
0.0
 11
163.489929
 21
-55.234773
 31
0.0
  0
LINE
  5
1CB
100
AcDbEntity
  8
2
  6
CENTER
 62
     2
100
AcDbLine
 10
91.365039
 20
14.887039
 30
0.0
 11
91.365039
 21
-55.234773
 31
0.0
  0
LINE
  5
1CC
100
AcDbEntity
  8
2
100
AcDbLine
 10
-306.919629
 20
-39.225974
 30
0.0
 11
-306.919629
 21
-46.331081
 31
0.0
  0
LINE
  5
1CD
100
AcDbEntity
  8
2
100
AcDbLine
 10
-306.919629
 20
-46.331081
 30
0.0
 11
-308.46963
 21
-47.225975
 31
0.0
  0
LINE
  5
1CE
100
AcDbEntity
  8
2
100
AcDbLine
 10
-308.46963
 20
-47.225975
 30
0.0
 11
-324.96963
 21
-47.225975
 31
0.0
  0
LINE
  5
1CF
100
AcDbEntity
  8
2
100
AcDbLine
 10
-311.819628
 20
-39.225974
 30
0.0
 11
-311.819628
 21
-46.331081
 31
0.0
  0
ARC
  5
1D0
100
AcDbEntity
  8
2
100
AcDbCircle
 10
-309.36963
 20
-43.181525
 30
0.0
 40
3.990264
100
AcDbArc
 50
232.121121
 51
307.878879
  0
LINE
  5
1D1
100
AcDbEntity
  8
2
100
AcDbLine
 10
-306.919629
 20
-39.225974
 30
0.0
 11
-326.519628
 21
-39.225974
 31
0.0
  0
LINE
  5
1D2
100
AcDbEntity
  8
2
100
AcDbLine
 10
-326.519628
 20
-39.225974
 30
0.0
 11
-326.519628
 21
-46.331081
 31
0.0
  0
LINE
  5
1D3
100
AcDbEntity
  8
2
100
AcDbLine
 10
-326.519628
 20
-46.331081
 30
0.0
 11
-324.96963
 21
-47.225975
 31
0.0
  0
LINE
  5
1D4
100
AcDbEntity
  8
2
100
AcDbLine
 10
-321.619629
 20
-39.225974
 30
0.0
 11
-321.619629
 21
-46.331081
 31
0.0
  0
ARC
  5
1D5
100
AcDbEntity
  8
2
100
AcDbCircle
 10
-324.06963
 20
-43.181525
 30
0.0
 40
3.990264
100
AcDbArc
 50
232.121121
 51
307.878879
  0
ARC
  5
1D6
100
AcDbEntity
  8
2
100
AcDbCircle
 10
-316.71963
 20
-32.471789
 30
0.0
 40
14.7
100
AcDbArc
 50
250.528777
 51
289.471219
  0
LINE
  5
1D7
100
AcDbEntity
  8
2
100
AcDbLine
 10
-307.519629
 20
-36.725975
 30
0.0
 11
-307.519629
 21
-39.225974
 31
0.0
  0
LINE
  5
1D8
100
AcDbEntity
  8
2
100
AcDbLine
 10
-325.919628
 20
-39.225974
 30
0.0
 11
-325.919628
 21
-36.725975
 31
0.0
  0
LINE
  5
1D9
100
AcDbEntity
  8
2
100
AcDbLine
 10
-316.71963
 20
-39.225974
 30
0.0
 11
-317.219628
 21
-36.725975
 31
0.0
  0
LINE
  5
1DA
100
AcDbEntity
  8
2
100
AcDbLine
 10
-316.71963
 20
-36.725975
 30
0.0
 11
-316.219629
 21
-39.225974
 31
0.0
  0
LINE
  5
1DB
100
AcDbEntity
  8
2
100
AcDbLine
 10
-379.044519
 20
-39.225974
 30
0.0
 11
-379.044519
 21
-46.331081
 31
0.0
  0
LINE
  5
1DC
100
AcDbEntity
  8
2
100
AcDbLine
 10
-379.044519
 20
-46.331081
 30
0.0
 11
-380.59452
 21
-47.225975
 31
0.0
  0
LINE
  5
1DD
100
AcDbEntity
  8
2
100
AcDbLine
 10
-380.59452
 20
-47.225975
 30
0.0
 11
-397.09452
 21
-47.225975
 31
0.0
  0
LINE
  5
1DE
100
AcDbEntity
  8
2
100
AcDbLine
 10
-383.944521
 20
-39.225974
 30
0.0
 11
-383.944521
 21
-46.331081
 31
0.0
  0
ARC
  5
1DF
100
AcDbEntity
  8
2
100
AcDbCircle
 10
-381.49452
 20
-43.181525
 30
0.0
 40
3.990264
100
AcDbArc
 50
232.121121
 51
307.878879
  0
LINE
  5
1E0
100
AcDbEntity
  8
2
100
AcDbLine
 10
-379.044519
 20
-39.225974
 30
0.0
 11
-398.644521
 21
-39.225974
 31
0.0
  0
LINE
  5
1E1
100
AcDbEntity
  8
2
100
AcDbLine
 10
-398.644521
 20
-39.225974
 30
0.0
 11
-398.644521
 21
-46.331081
 31
0.0
  0
LINE
  5
1E2
100
AcDbEntity
  8
2
100
AcDbLine
 10
-398.644521
 20
-46.331081
 30
0.0
 11
-397.09452
 21
-47.225975
 31
0.0
  0
LINE
  5
1E3
100
AcDbEntity
  8
2
100
AcDbLine
 10
-393.744519
 20
-39.225974
 30
0.0
 11
-393.744519
 21
-46.331081
 31
0.0
  0
ARC
  5
1E4
100
AcDbEntity
  8
2
100
AcDbCircle
 10
-396.19452
 20
-43.181525
 30
0.0
 40
3.990264
100
AcDbArc
 50
232.121121
 51
307.878879
  0
ARC
  5
1E5
100
AcDbEntity
  8
2
100
AcDbCircle
 10
-388.84452
 20
-32.471789
 30
0.0
 40
14.7
100
AcDbArc
 50
250.528777
 51
289.471219
  0
LINE
  5
1E6
100
AcDbEntity
  8
2
100
AcDbLine
 10
-398.044521
 20
-39.225974
 30
0.0
 11
-398.044521
 21
-36.725975
 31
0.0
  0
LINE
  5
1E7
100
AcDbEntity
  8
2
100
AcDbLine
 10
-388.84452
 20
-39.225974
 30
0.0
 11
-389.344521
 21
-36.725975
 31
0.0
  0
LINE
  5
1E8
100
AcDbEntity
  8
2
100
AcDbLine
 10
-388.84452
 20
-36.725975
 30
0.0
 11
-388.344519
 21
-39.225974
 31
0.0
  0
LINE
  5
1E9
100
AcDbEntity
  8
2
100
AcDbLine
 10
171.989928
 20
-39.225974
 30
0.0
 11
171.989928
 21
-47.225975
 31
0.0
  0
ARC
  5
1EA
100
AcDbEntity
  8
2
100
AcDbCircle
 10
167.73993
 20
-36.68654
 30
0.0
 40
10.539435
100
AcDbArc
 50
246.218654
 51
293.781346
  0
LINE
  5
1EB
100
AcDbEntity
  8
2
100
AcDbLine
 10
154.98993
 20
-39.225974
 30
0.0
 11
154.98993
 21
-47.225975
 31
0.0
  0
LINE
  5
1EC
100
AcDbEntity
  8
2
100
AcDbLine
 10
154.98993
 20
-47.225975
 30
0.0
 11
171.989928
 21
-47.225975
 31
0.0
  0
LINE
  5
1ED
100
AcDbEntity
  8
2
100
AcDbLine
 10
163.489929
 20
-39.225974
 30
0.0
 11
163.489929
 21
-46.331081
 31
0.0
  0
ARC
  5
1EE
100
AcDbEntity
  8
2
100
AcDbCircle
 10
159.239928
 20
-36.68654
 30
0.0
 40
10.539435
100
AcDbArc
 50
246.218654
 51
293.781346
  0
LINE
  5
1EF
100
AcDbEntity
  8
2
100
AcDbLine
 10
172.68993
 20
-36.725975
 30
0.0
 11
172.68993
 21
-39.225974
 31
0.0
  0
LINE
  5
1F0
100
AcDbEntity
  8
2
100
AcDbLine
 10
172.68993
 20
-39.225974
 30
0.0
 11
154.289928
 21
-39.225974
 31
0.0
  0
LINE
  5
1F1
100
AcDbEntity
  8
2
100
AcDbLine
 10
159.301929
 20
-54.725975
 30
0.0
 11
167.677929
 21
-54.725975
 31
0.0
  0
LINE
  5
1F2
100
AcDbEntity
  8
2
100
AcDbLine
 10
159.301929
 20
-54.725975
 30
0.0
 11
158.489928
 21
-53.913974
 31
0.0
  0
LINE
  5
1F3
100
AcDbEntity
  8
2
100
AcDbLine
 10
158.489928
 20
-53.913974
 30
0.0
 11
158.489928
 21
-47.225975
 31
0.0
  0
LINE
  5
1F4
100
AcDbEntity
  8
2
 62
     2
100
AcDbLine
 10
159.301929
 20
-54.725975
 30
0.0
 11
159.301929
 21
-47.225975
 31
0.0
  0
LINE
  5
1F5
100
AcDbEntity
  8
2
100
AcDbLine
 10
167.677929
 20
-54.725975
 30
0.0
 11
168.48993
 21
-53.913974
 31
0.0
  0
LINE
  5
1F6
100
AcDbEntity
  8
2
100
AcDbLine
 10
168.48993
 20
-53.913974
 30
0.0
 11
168.48993
 21
-47.225975
 31
0.0
  0
LINE
  5
1F7
100
AcDbEntity
  8
2
100
AcDbLine
 10
168.48993
 20
-53.913974
 30
0.0
 11
158.489928
 21
-53.913974
 31
0.0
  0
LINE
  5
1F8
100
AcDbEntity
  8
2
 62
     2
100
AcDbLine
 10
167.677929
 20
-54.725975
 30
0.0
 11
167.677929
 21
-47.225975
 31
0.0
  0
LINE
  5
1F9
100
AcDbEntity
  8
2
100
AcDbLine
 10
99.865038
 20
-39.225974
 30
0.0
 11
99.865038
 21
-47.225975
 31
0.0
  0
ARC
  5
1FA
100
AcDbEntity
  8
2
100
AcDbCircle
 10
95.615037
 20
-36.68654
 30
0.0
 40
10.539435
100
AcDbArc
 50
246.218654
 51
293.781346
  0
LINE
  5
1FB
100
AcDbEntity
  8
2
100
AcDbLine
 10
82.865037
 20
-39.225974
 30
0.0
 11
82.865037
 21
-47.225975
 31
0.0
  0
LINE
  5
1FC
100
AcDbEntity
  8
2
100
AcDbLine
 10
82.865037
 20
-47.225975
 30
0.0
 11
99.865038
 21
-47.225975
 31
0.0
  0
LINE
  5
1FD
100
AcDbEntity
  8
2
100
AcDbLine
 10
91.365039
 20
-39.225974
 30
0.0
 11
91.365039
 21
-46.331081
 31
0.0
  0
ARC
  5
1FE
100
AcDbEntity
  8
2
100
AcDbCircle
 10
87.115038
 20
-36.68654
 30
0.0
 40
10.539435
100
AcDbArc
 50
246.218654
 51
293.781346
  0
LINE
  5
1FF
100
AcDbEntity
  8
2
100
AcDbLine
 10
100.565037
 20
-36.725975
 30
0.0
 11
100.565037
 21
-39.225974
 31
0.0
  0
LINE
  5
200
100
AcDbEntity
  8
2
100
AcDbLine
 10
100.565037
 20
-39.225974
 30
0.0
 11
82.165038
 21
-39.225974
 31
0.0
  0
LINE
  5
201
100
AcDbEntity
  8
2
100
AcDbLine
 10
82.165038
 20
-39.225974
 30
0.0
 11
82.165038
 21
-36.725975
 31
0.0
  0
LINE
  5
202
100
AcDbEntity
  8
2
100
AcDbLine
 10
87.177039
 20
-54.725975
 30
0.0
 11
95.553039
 21
-54.725975
 31
0.0
  0
LINE
  5
203
100
AcDbEntity
  8
2
100
AcDbLine
 10
87.177039
 20
-54.725975
 30
0.0
 11
86.365038
 21
-53.913974
 31
0.0
  0
LINE
  5
204
100
AcDbEntity
  8
2
100
AcDbLine
 10
86.365038
 20
-53.913974
 30
0.0
 11
86.365038
 21
-47.225975
 31
0.0
  0
LINE
  5
205
100
AcDbEntity
  8
2
 62
     2
100
AcDbLine
 10
87.177039
 20
-54.725975
 30
0.0
 11
87.177039
 21
-47.225975
 31
0.0
  0
LINE
  5
206
100
AcDbEntity
  8
2
100
AcDbLine
 10
95.553039
 20
-54.725975
 30
0.0
 11
96.365037
 21
-53.913974
 31
0.0
  0
LINE
  5
207
100
AcDbEntity
  8
2
100
AcDbLine
 10
96.365037
 20
-53.913974
 30
0.0
 11
96.365037
 21
-47.225975
 31
0.0
  0
LINE
  5
208
100
AcDbEntity
  8
2
100
AcDbLine
 10
96.365037
 20
-53.913974
 30
0.0
 11
86.365038
 21
-53.913974
 31
0.0
  0
LINE
  5
209
100
AcDbEntity
  8
2
 62
     2
100
AcDbLine
 10
95.553039
 20
-54.725975
 30
0.0
 11
95.553039
 21
-47.225975
 31
0.0
  0
LINE
  5
20A
100
AcDbEntity
  8
2
100
AcDbLine
 10
-320.90763
 20
-54.725975
 30
0.0
 11
-312.53163
 21
-54.725975
 31
0.0
  0
LINE
  5
20B
100
AcDbEntity
  8
2
100
AcDbLine
 10
-320.90763
 20
-54.725975
 30
0.0
 11
-321.719628
 21
-53.913974
 31
0.0
  0
LINE
  5
20C
100
AcDbEntity
  8
2
100
AcDbLine
 10
-321.719628
 20
-53.913974
 30
0.0
 11
-321.719628
 21
-47.225975
 31
0.0
  0
LINE
  5
20D
100
AcDbEntity
  8
2
 62
     2
100
AcDbLine
 10
-320.90763
 20
-54.725975
 30
0.0
 11
-320.90763
 21
-47.225975
 31
0.0
  0
LINE
  5
20E
100
AcDbEntity
  8
2
100
AcDbLine
 10
-312.53163
 20
-54.725975
 30
0.0
 11
-311.719629
 21
-53.913974
 31
0.0
  0
LINE
  5
20F
100
AcDbEntity
  8
2
100
AcDbLine
 10
-311.719629
 20
-53.913974
 30
0.0
 11
-311.719629
 21
-47.225975
 31
0.0
  0
LINE
  5
210
100
AcDbEntity
  8
2
100
AcDbLine
 10
-311.719629
 20
-53.913974
 30
0.0
 11
-321.719628
 21
-53.913974
 31
0.0
  0
LINE
  5
211
100
AcDbEntity
  8
2
 62
     2
100
AcDbLine
 10
-312.53163
 20
-54.725975
 30
0.0
 11
-312.53163
 21
-47.225975
 31
0.0
  0
LINE
  5
212
100
AcDbEntity
  8
2
100
AcDbLine
 10
-393.03252
 20
-54.725975
 30
0.0
 11
-384.65652
 21
-54.725975
 31
0.0
  0
LINE
  5
213
100
AcDbEntity
  8
2
100
AcDbLine
 10
-393.03252
 20
-54.725975
 30
0.0
 11
-393.844521
 21
-53.913974
 31
0.0
  0
LINE
  5
214
100
AcDbEntity
  8
2
100
AcDbLine
 10
-393.844521
 20
-53.913974
 30
0.0
 11
-393.844521
 21
-47.225975
 31
0.0
  0
LINE
  5
215
100
AcDbEntity
  8
2
 62
     2
100
AcDbLine
 10
-393.03252
 20
-54.725975
 30
0.0
 11
-393.03252
 21
-47.225975
 31
0.0
  0
LINE
  5
216
100
AcDbEntity
  8
2
100
AcDbLine
 10
-384.65652
 20
-54.725975
 30
0.0
 11
-383.844519
 21
-53.913974
 31
0.0
  0
LINE
  5
217
100
AcDbEntity
  8
2
100
AcDbLine
 10
-383.844519
 20
-53.913974
 30
0.0
 11
-383.844519
 21
-47.225975
 31
0.0
  0
LINE
  5
218
100
AcDbEntity
  8
2
100
AcDbLine
 10
-383.844519
 20
-53.913974
 30
0.0
 11
-393.844521
 21
-53.913974
 31
0.0
  0
LINE
  5
219
100
AcDbEntity
  8
2
 62
     2
100
AcDbLine
 10
-384.65652
 20
-54.725975
 30
0.0
 11
-384.65652
 21
-47.225975
 31
0.0
  0
LINE
  5
21A
100
AcDbEntity
  8
2
100
AcDbLine
 10
-379.644519
 20
-39.225974
 30
0.0
 11
-379.644519
 21
-37.616943
 31
0.0
  0
LINE
  5
21B
100
AcDbEntity
  8
2
100
AcDbLine
 10
154.289928
 20
-37.143413
 30
0.0
 11
154.289928
 21
-39.225974
 31
0.0
  0
LINE
  5
21C
100
AcDbEntity
  8
2
  6
CENTER
 62
     2
100
AcDbLine
 10
-441.447052
 20
244.884894
 30
0.0
 11
-42.734137
 21
244.884894
 31
0.0
  0
LINE
  5
21D
100
AcDbEntity
  8
2
  6
CENTER
 62
     2
100
AcDbLine
 10
-232.782075
 20
268.487613
 30
0.0
 11
-232.782075
 21
221.25524
 31
0.0
  0
ARC
  5
21E
100
AcDbEntity
  8
2
  6
CENTER
 62
     2
100
AcDbCircle
 10
-352.782075
 20
244.884894
 30
0.0
 40
51.0
100
AcDbArc
 50
120.634972
 51
149.476834
  0
LINE
  5
21F
100
AcDbEntity
  8
2
  6
CENTER
 62
     2
100
AcDbLine
 10
-399.703112
 20
291.805931
 30
0.0
 11
-377.909598
 21
270.012417
 31
0.0
  0
LINE
  5
220
100
AcDbEntity
  8
2
  6
CENTER
 62
     2
100
AcDbLine
 10
-326.422231
 20
218.52505
 30
0.0
 11
-306.639767
 21
198.742586
 31
0.0
  0
ARC
  5
221
100
AcDbEntity
  8
2
  6
CENTER
 62
     2
100
AcDbCircle
 10
-352.782075
 20
244.884894
 30
0.0
 40
51.0
100
AcDbArc
 50
300.411746
 51
329.444298
  0
LINE
  5
222
100
AcDbEntity
  8
2
  6
CENTER
 62
     2
100
AcDbLine
 10
-352.782075
 20
175.362512
 30
0.0
 11
-352.782075
 21
322.041505
 31
0.0
  0
LINE
  5
223
100
AcDbEntity
  8
2
100
AcDbLine
 10
-239.282075
 20
228.884894
 30
0.0
 11
-226.282075
 21
228.884894
 31
0.0
  0
ARC
  5
224
100
AcDbEntity
  8
2
100
AcDbCircle
 10
-239.282075
 20
229.384894
 30
0.0
 40
0.5
100
AcDbArc
 50
200.684551
 51
270.0
  0
ARC
  5
225
100
AcDbEntity
  8
2
100
AcDbCircle
 10
-226.282075
 20
229.384894
 30
0.0
 40
0.5
100
AcDbArc
 50
270.0
 51
356.101598
  0
ARC
  5
226
100
AcDbEntity
  8
2
100
AcDbCircle
 10
-225.284389
 20
229.316906
 30
0.0
 40
0.5
100
AcDbArc
 50
91.094257
 51
176.101598
  0
ARC
  5
227
100
AcDbEntity
  8
2
100
AcDbCircle
 10
-240.217614
 20
229.031671
 30
0.0
 40
0.5
100
AcDbArc
 50
20.684551
 51
91.094257
  0
LINE
  5
228
100
AcDbEntity
  8
2
100
AcDbLine
 10
-64.552908
 20
256.882705
 30
0.0
 11
-352.447873
 21
262.381702
 31
0.0
  0
ARC
  5
229
100
AcDbEntity
  8
2
100
AcDbCircle
 10
-240.217614
 20
260.738116
 30
0.0
 40
0.5
100
AcDbArc
 50
268.905743
 51
339.315449
  0
ARC
  5
22A
100
AcDbEntity
  8
2
100
AcDbCircle
 10
-225.284389
 20
260.452881
 30
0.0
 40
0.5
100
AcDbArc
 50
183.898402
 51
268.905743
  0
ARC
  5
22B
100
AcDbEntity
  8
2
100
AcDbCircle
 10
-226.282075
 20
260.384894
 30
0.0
 40
0.5
100
AcDbArc
 50
3.898402
 51
90.0
  0
ARC
  5
22C
100
AcDbEntity
  8
2
100
AcDbCircle
 10
-239.282075
 20
260.384894
 30
0.0
 40
0.5
100
AcDbArc
 50
90.0
 51
159.315449
  0
LINE
  5
22D
100
AcDbEntity
  8
2
100
AcDbLine
 10
-239.282075
 20
260.884894
 30
0.0
 11
-226.282075
 21
260.884894
 31
0.0
  0
ARC
  5
22E
100
AcDbEntity
  8
2
100
AcDbCircle
 10
-352.782075
 20
244.884894
 30
0.0
 40
17.5
100
AcDbArc
 50
300.851886
 51
239.148114
  0
ARC
  5
22F
100
AcDbEntity
  8
2
100
AcDbCircle
 10
-342.782075
 20
228.144225
 30
0.0
 40
2.0
100
AcDbArc
 50
120.851886
 51
180.0
  0
LINE
  5
230
100
AcDbEntity
  8
2
100
AcDbLine
 10
-344.782075
 20
225.884894
 30
0.0
 11
-344.782075
 21
230.454024
 31
0.0
  0
ARC
  5
231
100
AcDbEntity
  8
2
100
AcDbCircle
 10
-362.782075
 20
228.144225
 30
0.0
 40
2.0
100
AcDbArc
 50
0.0
 51
59.148114
  0
ARC
  5
232
100
AcDbEntity
  8
2
100
AcDbCircle
 10
-342.798433
 20
225.572032
 30
0.0
 40
2.0
100
AcDbArc
 50
91.094257
 51
174.013887
  0
ARC
  5
233
100
AcDbEntity
  8
2
100
AcDbCircle
 10
-345.782075
 20
225.884894
 30
0.0
 40
1.0
100
AcDbArc
 50
270.0
 51
354.013887
  0
ARC
  5
234
100
AcDbEntity
  8
2
100
AcDbCircle
 10
-359.782075
 20
225.884894
 30
0.0
 40
1.0
100
AcDbArc
 50
180.0
 51
270.0
  0
LINE
  5
235
100
AcDbEntity
  8
2
100
AcDbLine
 10
-360.782075
 20
225.884894
 30
0.0
 11
-360.782075
 21
230.454024
 31
0.0
  0
LINE
  5
236
100
AcDbEntity
  8
2
100
AcDbLine
 10
-345.782075
 20
224.884894
 30
0.0
 11
-359.782075
 21
224.884894
 31
0.0
  0
LINE
  5
237
100
AcDbEntity
  8
2
100
AcDbLine
 10
-64.552908
 20
232.887082
 30
0.0
 11
-342.836628
 21
227.571667
 31
0.0
  0
ARC
  5
238
100
AcDbEntity
  8
2
100
AcDbCircle
 10
-64.782075
 20
244.884894
 30
0.0
 40
12.0
100
AcDbArc
 50
271.094257
 51
88.905743
  0
LINE
  5
239
100
AcDbEntity
  8
2
100
AcDbLine
 10
-402.055271
 20
242.507465
 30
0.0
 11
-361.070028
 21
229.178099
 31
0.0
  0
LINE
  5
23A
100
AcDbEntity
  8
2
100
AcDbLine
 10
-402.055271
 20
247.262323
 30
0.0
 11
-358.194446
 21
261.526896
 31
0.0
  0
ARC
  5
23B
100
AcDbEntity
  8
2
100
AcDbCircle
 10
-401.282075
 20
244.884894
 30
0.0
 40
2.5
100
AcDbArc
 50
108.015746
 51
251.984254
  0
LINE
  5
23C
100
AcDbEntity
  8
2
100
AcDbLine
 10
-345.357454
 20
270.694291
 30
0.0
 11
-345.711007
 21
270.340738
 31
0.0
  0
LINE
  5
23D
100
AcDbEntity
  8
2
100
AcDbLine
 10
-348.539434
 20
273.876272
 30
0.0
 11
-345.357454
 21
270.694291
 31
0.0
  0
LINE
  5
23E
100
AcDbEntity
  8
2
100
AcDbLine
 10
-345.357454
 20
277.058252
 30
0.0
 11
-348.539434
 21
273.876272
 31
0.0
  0
LINE
  5
23F
100
AcDbEntity
  8
2
100
AcDbLine
 10
-345.711007
 20
277.411806
 30
0.0
 11
-345.357454
 21
277.058252
 31
0.0
  0
LINE
  5
240
100
AcDbEntity
  8
2
100
AcDbLine
 10
-349.246541
 20
273.876272
 30
0.0
 11
-345.711007
 21
277.411806
 31
0.0
  0
LINE
  5
241
100
AcDbEntity
  8
2
100
AcDbLine
 10
-345.711007
 20
270.340738
 30
0.0
 11
-349.246541
 21
273.876272
 31
0.0
  0
LINE
  5
242
100
AcDbEntity
  8
2
100
AcDbLine
 10
-386.391919
 20
233.231823
 30
0.0
 11
-385.680772
 21
233.942971
 31
0.0
  0
LINE
  5
243
100
AcDbEntity
  8
2
100
AcDbLine
 10
-384.36007
 20
231.199974
 30
0.0
 11
-386.391919
 21
233.231823
 31
0.0
  0
LINE
  5
244
100
AcDbEntity
  8
2
100
AcDbLine
 10
-382.429813
 20
230.692012
 30
0.0
 11
-385.680772
 21
233.942971
 31
0.0
  0
ARC
  5
245
100
AcDbEntity
  8
2
100
AcDbCircle
 10
-365.021777
 20
213.170839
 30
0.0
 40
0.08
100
AcDbArc
 50
315.0
 51
45.0
  0
ARC
  5
246
100
AcDbEntity
  8
2
100
AcDbCircle
 10
-352.782075
 20
244.884894
 30
0.0
 40
40.0
100
AcDbArc
 50
268.945417
 51
271.059499
  0
LINE
  5
247
100
AcDbEntity
  8
2
100
AcDbLine
 10
-351.282075
 20
185.639641
 30
0.0
 11
-351.282075
 21
204.141796
 31
0.0
  0
ARC
  5
248
100
AcDbEntity
  8
2
100
AcDbCircle
 10
-352.032075
 20
185.639641
 30
0.0
 40
0.75
100
AcDbArc
 50
270.725282
 51
360.0
  0
ARC
  5
249
100
AcDbEntity
  8
2
100
AcDbCircle
 10
-352.032075
 20
204.141796
 30
0.0
 40
0.75
100
AcDbArc
 50
0.0
 51
91.054583
  0
ARC
  5
24A
100
AcDbEntity
  8
2
100
AcDbCircle
 10
-353.532075
 20
204.141796
 30
0.0
 40
0.75
100
AcDbArc
 50
88.945417
 51
180.0
  0
ARC
  5
24B
100
AcDbEntity
  8
2
100
AcDbCircle
 10
-353.532075
 20
185.639641
 30
0.0
 40
0.75
100
AcDbArc
 50
180.0
 51
269.274718
  0
LINE
  5
24C
100
AcDbEntity
  8
2
100
AcDbLine
 10
-354.282075
 20
185.639641
 30
0.0
 11
-354.282075
 21
204.141796
 31
0.0
  0
LINE
  5
24D
100
AcDbEntity
  8
2
100
AcDbLine
 10
-411.26217
 20
235.334845
 30
0.0
 11
-402.891304
 21
236.810855
 31
0.0
  0
ARC
  5
24E
100
AcDbEntity
  8
2
100
AcDbCircle
 10
-402.761068
 20
236.072249
 30
0.0
 40
0.75
100
AcDbArc
 50
280.0
 51
100.0
  0
ARC
  5
24F
100
AcDbEntity
  8
2
100
AcDbCircle
 10
-411.131934
 20
234.596239
 30
0.0
 40
0.75
100
AcDbArc
 50
100.0
 51
280.0
  0
LINE
  5
250
100
AcDbEntity
  8
2
100
AcDbLine
 10
-411.001698
 20
233.857634
 30
0.0
 11
-402.630832
 21
235.333643
 31
0.0
  0
LINE
  5
251
100
AcDbEntity
  8
2
100
AcDbLine
 10
-397.688117
 20
206.225195
 30
0.0
 11
-391.17674
 21
211.688889
 31
0.0
  0
ARC
  5
252
100
AcDbEntity
  8
2
100
AcDbCircle
 10
-398.170208
 20
206.799728
 30
0.0
 40
0.75
100
AcDbArc
 50
130.0
 51
310.0
  0
ARC
  5
253
100
AcDbEntity
  8
2
100
AcDbCircle
 10
-391.65883
 20
212.263423
 30
0.0
 40
0.75
100
AcDbArc
 50
310.0
 51
130.0
  0
LINE
  5
254
100
AcDbEntity
  8
2
100
AcDbLine
 10
-398.652299
 20
207.374261
 30
0.0
 11
-392.140921
 21
212.837956
 31
0.0
  0
LINE
  5
255
100
AcDbEntity
  8
2
100
AcDbLine
 10
-403.71908
 20
214.610375
 30
0.0
 11
-396.357864
 21
218.860375
 31
0.0
  0
ARC
  5
256
100
AcDbEntity
  8
2
100
AcDbCircle
 10
-404.09408
 20
215.259894
 30
0.0
 40
0.75
100
AcDbArc
 50
120.0
 51
300.0
  0
ARC
  5
257
100
AcDbEntity
  8
2
100
AcDbCircle
 10
-396.732864
 20
219.509894
 30
0.0
 40
0.75
100
AcDbArc
 50
300.0
 51
120.0
  0
LINE
  5
258
100
AcDbEntity
  8
2
100
AcDbLine
 10
-404.46908
 20
215.909413
 30
0.0
 11
-397.107864
 21
220.159413
 31
0.0
  0
LINE
  5
259
100
AcDbEntity
  8
2
100
AcDbLine
 10
-408.202347
 20
223.915431
 30
0.0
 11
-400.21496
 21
226.822602
 31
0.0
  0
ARC
  5
25A
100
AcDbEntity
  8
2
100
AcDbCircle
 10
-408.458863
 20
224.6202
 30
0.0
 40
0.75
100
AcDbArc
 50
110.0
 51
290.0
  0
ARC
  5
25B
100
AcDbEntity
  8
2
100
AcDbCircle
 10
-400.471475
 20
227.527372
 30
0.0
 40
0.75
100
AcDbArc
 50
290.0
 51
110.0
  0
LINE
  5
25C
100
AcDbEntity
  8
2
100
AcDbLine
 10
-408.715378
 20
225.32497
 30
0.0
 11
-400.72799
 21
228.232141
 31
0.0
  0
LINE
  5
25D
100
AcDbEntity
  8
2
100
AcDbLine
 10
-372.341999
 20
188.951591
 30
0.0
 11
-369.434828
 21
196.938978
 31
0.0
  0
ARC
  5
25E
100
AcDbEntity
  8
2
100
AcDbCircle
 10
-370.139597
 20
197.195493
 30
0.0
 40
0.75
100
AcDbArc
 50
340.0
 51
160.0
  0
ARC
  5
25F
100
AcDbEntity
  8
2
100
AcDbCircle
 10
-373.046768
 20
189.208106
 30
0.0
 40
0.75
100
AcDbArc
 50
160.0
 51
340.0
  0
LINE
  5
260
100
AcDbEntity
  8
2
100
AcDbLine
 10
-373.751538
 20
189.464621
 30
0.0
 11
-370.844366
 21
197.452008
 31
0.0
  0
LINE
  5
261
100
AcDbEntity
  8
2
100
AcDbLine
 10
-381.757556
 20
193.197889
 30
0.0
 11
-377.507556
 21
200.559105
 31
0.0
  0
ARC
  5
262
100
AcDbEntity
  8
2
100
AcDbCircle
 10
-378.157075
 20
200.934105
 30
0.0
 40
0.75
100
AcDbArc
 50
330.0
 51
150.0
  0
ARC
  5
263
100
AcDbEntity
  8
2
100
AcDbCircle
 10
-382.407075
 20
193.572889
 30
0.0
 40
0.75
100
AcDbArc
 50
150.0
 51
330.0
  0
LINE
  5
264
100
AcDbEntity
  8
2
100
AcDbLine
 10
-383.056594
 20
193.947889
 30
0.0
 11
-378.806594
 21
201.309105
 31
0.0
  0
LINE
  5
265
100
AcDbEntity
  8
2
100
AcDbLine
 10
-390.292707
 20
199.01467
 30
0.0
 11
-384.829013
 21
205.526048
 31
0.0
  0
ARC
  5
266
100
AcDbEntity
  8
2
100
AcDbCircle
 10
-385.403546
 20
206.008138
 30
0.0
 40
0.75
100
AcDbArc
 50
320.0
 51
140.0
  0
ARC
  5
267
100
AcDbEntity
  8
2
100
AcDbCircle
 10
-390.867241
 20
199.496761
 30
0.0
 40
0.75
100
AcDbArc
 50
140.0
 51
320.0
  0
LINE
  5
268
100
AcDbEntity
  8
2
100
AcDbLine
 10
-391.441774
 20
199.978851
 30
0.0
 11
-385.978079
 21
206.490229
 31
0.0
  0
LINE
  5
269
100
AcDbEntity
  8
2
100
AcDbLine
 10
-363.809335
 20
186.665271
 30
0.0
 11
-362.333326
 21
195.036137
 31
0.0
  0
ARC
  5
26A
100
AcDbEntity
  8
2
100
AcDbCircle
 10
-363.070729
 20
186.535035
 30
0.0
 40
0.75
100
AcDbArc
 50
170.0
 51
350.0
  0
ARC
  5
26B
100
AcDbEntity
  8
2
100
AcDbCircle
 10
-361.59472
 20
194.9059
 30
0.0
 40
0.75
100
AcDbArc
 50
350.0
 51
170.0
  0
LINE
  5
26C
100
AcDbEntity
  8
2
100
AcDbLine
 10
-362.332123
 20
186.404798
 30
0.0
 11
-360.856114
 21
194.775664
 31
0.0
  0
LINE
  5
26D
100
AcDbEntity
  8
2
100
AcDbLine
 10
-412.027328
 20
243.384894
 30
0.0
 11
-403.282075
 21
243.384894
 31
0.0
  0
ARC
  5
26E
100
AcDbEntity
  8
2
100
AcDbCircle
 10
-412.027328
 20
244.134894
 30
0.0
 40
0.75
100
AcDbArc
 50
180.725282
 51
270.0
  0
ARC
  5
26F
100
AcDbEntity
  8
2
100
AcDbCircle
 10
-412.027328
 20
245.634894
 30
0.0
 40
0.75
100
AcDbArc
 50
90.0
 51
179.274718
  0
LINE
  5
270
100
AcDbEntity
  8
2
100
AcDbLine
 10
-412.027328
 20
246.384894
 30
0.0
 11
-403.282075
 21
246.384894
 31
0.0
  0
ARC
  5
271
100
AcDbEntity
  8
2
100
AcDbCircle
 10
-352.782075
 20
244.884894
 30
0.0
 40
60.0
100
AcDbArc
 50
179.274718
 51
180.725282
  0
LINE
  5
272
100
AcDbEntity
  8
2
100
AcDbLine
 10
-386.595104
 20
226.52672
 30
0.0
 11
-389.846063
 21
229.777679
 31
0.0
  0
LINE
  5
273
100
AcDbEntity
  8
2
100
AcDbLine
 10
-379.503089
 20
221.443998
 30
0.0
 11
-375.196926
 21
223.459124
 31
0.0
  0
LINE
  5
274
100
AcDbEntity
  8
2
100
AcDbLine
 10
-379.856005
 20
219.787622
 30
0.0
 11
-376.233966
 21
221.406159
 31
0.0
  0
LINE
  5
275
100
AcDbEntity
  8
2
100
AcDbLine
 10
-379.503089
 20
221.443998
 30
0.0
 11
-376.480441
 21
224.742639
 31
0.0
  0
LINE
  5
276
100
AcDbEntity
  8
2
100
AcDbLine
 10
-381.399603
 20
221.346757
 30
0.0
 11
-377.496365
 21
225.758564
 31
0.0
  0
ARC
  5
277
100
AcDbEntity
  8
2
100
AcDbCircle
 10
-376.792399
 20
220.56421
 30
0.0
 40
10.402317
100
AcDbArc
 50
128.830069
 51
141.169931
  0
ARC
  5
278
100
AcDbEntity
  8
2
100
AcDbCircle
 10
-387.480434
 20
231.252246
 30
0.0
 40
10.402317
100
AcDbArc
 50
308.830069
 51
321.169931
  0
LINE
  5
279
100
AcDbEntity
  8
2
100
AcDbLine
 10
-386.595104
 20
226.52672
 30
0.0
 11
-382.429813
 21
230.692012
 31
0.0
  0
ARC
  5
27A
100
AcDbEntity
  8
2
100
AcDbCircle
 10
-382.233763
 20
227.324634
 30
0.0
 40
1.724081
100
AcDbArc
 50
51.270542
 51
128.830069
  0
ARC
  5
27B
100
AcDbEntity
  8
2
100
AcDbCircle
 10
-380.720011
 20
225.810882
 30
0.0
 40
1.724081
100
AcDbArc
 50
321.169931
 51
38.729458
  0
ARC
  5
27C
100
AcDbEntity
  8
2
100
AcDbCircle
 10
-388.365051
 20
219.679594
 30
0.0
 40
11.524047
100
AcDbArc
 50
38.729458
 51
51.270542
  0
LINE
  5
27D
100
AcDbEntity
  8
2
100
AcDbLine
 10
-377.496365
 20
225.758564
 30
0.0
 11
-376.480441
 21
224.742639
 31
0.0
  0
ARC
  5
27E
100
AcDbEntity
  8
2
100
AcDbCircle
 10
-383.552822
 20
226.005574
 30
0.0
 40
1.724081
100
AcDbArc
 50
141.169931
 51
218.729458
  0
ARC
  5
27F
100
AcDbEntity
  8
2
100
AcDbCircle
 10
-382.03907
 20
224.491822
 30
0.0
 40
1.724081
100
AcDbArc
 50
231.270542
 51
308.830069
  0
ARC
  5
280
100
AcDbEntity
  8
2
100
AcDbCircle
 10
-375.907782
 20
232.136862
 30
0.0
 40
11.524047
100
AcDbArc
 50
218.729458
 51
231.270542
  0
LINE
  5
281
100
AcDbEntity
  8
2
100
AcDbLine
 10
-381.407372
 20
221.338988
 30
0.0
 11
-379.856005
 21
219.787622
 31
0.0
  0
LINE
  5
282
100
AcDbEntity
  8
2
100
AcDbLine
 10
-386.391919
 20
229.168125
 30
0.0
 11
-387.103066
 21
228.456977
 31
0.0
  0
LINE
  5
283
100
AcDbEntity
  8
2
100
AcDbLine
 10
-384.36007
 20
231.199974
 30
0.0
 11
-385.680772
 21
229.879272
 31
0.0
  0
LINE
  5
284
100
AcDbEntity
  8
2
100
AcDbLine
 10
-385.680772
 20
229.879272
 30
0.0
 11
-387.712621
 21
231.911121
 31
0.0
  0
LINE
  5
285
100
AcDbEntity
  8
2
100
AcDbLine
 10
-386.391919
 20
229.168125
 30
0.0
 11
-388.423769
 21
231.199974
 31
0.0
  0
LINE
  5
286
100
AcDbEntity
  8
2
100
AcDbLine
 10
-387.103066
 20
228.456977
 30
0.0
 11
-389.134916
 21
230.488827
 31
0.0
  0
LINE
  5
287
100
AcDbEntity
  8
2
100
AcDbLine
 10
-364.965208
 20
213.227407
 30
0.0
 11
-366.419754
 21
214.681952
 31
0.0
  0
LINE
  5
288
100
AcDbEntity
  8
2
100
AcDbLine
 10
-368.055569
 20
210.14582
 30
0.0
 11
-369.505727
 21
211.595978
 31
0.0
  0
ARC
  5
289
100
AcDbEntity
  8
2
100
AcDbCircle
 10
-368.169758
 20
206.740035
 30
0.0
 40
0.143673
100
AcDbArc
 50
225.0
 51
315.0
  0
LINE
  5
28A
100
AcDbEntity
  8
2
100
AcDbLine
 10
-367.933658
 20
210.14582
 30
0.0
 11
-364.965208
 21
213.11427
 31
0.0
  0
LINE
  5
28B
100
AcDbEntity
  8
2
100
AcDbLine
 10
-372.727402
 20
211.469572
 30
0.0
 11
-365.830167
 21
209.170494
 31
0.0
  0
ARC
  5
28C
100
AcDbEntity
  8
2
100
AcDbCircle
 10
-367.994614
 20
210.206776
 30
0.0
 40
0.086204
100
AcDbArc
 50
225.0
 51
315.0
  0
LINE
  5
28D
100
AcDbEntity
  8
2
100
AcDbLine
 10
-365.774008
 20
208.932601
 30
0.0
 11
-368.068166
 21
206.638443
 31
0.0
  0
ARC
  5
28E
100
AcDbEntity
  8
2
100
AcDbCircle
 10
-366.387879
 20
210.159691
 30
0.0
 40
10.402317
100
AcDbArc
 50
128.830069
 51
141.169931
  0
ARC
  5
28F
100
AcDbEntity
  8
2
100
AcDbCircle
 10
-367.158897
 20
210.930709
 30
0.0
 40
7.674066
100
AcDbArc
 50
124.473609
 51
145.526391
  0
LINE
  5
290
100
AcDbEntity
  8
2
100
AcDbLine
 10
-376.293368
 20
216.240523
 30
0.0
 11
-371.881561
 21
220.14376
 31
0.0
  0
ARC
  5
291
100
AcDbEntity
  8
2
100
AcDbCircle
 10
-371.829243
 20
216.920114
 30
0.0
 40
1.724081
100
AcDbArc
 50
51.270542
 51
128.830069
  0
LINE
  5
292
100
AcDbEntity
  8
2
100
AcDbLine
 10
-372.897486
 20
221.159684
 30
0.0
 11
-371.881561
 21
220.14376
 31
0.0
  0
ARC
  5
293
100
AcDbEntity
  8
2
100
AcDbCircle
 10
-373.148303
 20
215.601055
 30
0.0
 40
1.724081
100
AcDbArc
 50
141.169931
 51
218.729458
  0
LINE
  5
294
100
AcDbEntity
  8
2
100
AcDbLine
 10
-377.852503
 20
217.78412
 30
0.0
 11
-376.301137
 21
216.232753
 31
0.0
  0
ARC
  5
295
100
AcDbEntity
  8
2
100
AcDbCircle
 10
-377.075915
 20
220.847726
 30
0.0
 40
10.402317
100
AcDbArc
 50
308.830069
 51
321.169931
  0
ARC
  5
296
100
AcDbEntity
  8
2
100
AcDbCircle
 10
-376.923495
 20
220.820739
 30
0.0
 40
8.638035
100
AcDbArc
 50
305.062783
 51
323.774302
  0
LINE
  5
297
100
AcDbEntity
  8
2
100
AcDbLine
 10
-366.541664
 20
214.681952
 30
0.0
 11
-369.505727
 21
211.717889
 31
0.0
  0
ARC
  5
298
100
AcDbEntity
  8
2
100
AcDbCircle
 10
-370.315491
 20
215.406362
 30
0.0
 40
1.724081
100
AcDbArc
 50
321.169931
 51
38.729458
  0
ARC
  5
299
100
AcDbEntity
  8
2
100
AcDbCircle
 10
-372.582647
 20
214.652958
 30
0.0
 40
3.169316
100
AcDbArc
 50
34.668048
 51
55.331952
  0
ARC
  5
29A
100
AcDbEntity
  8
2
100
AcDbCircle
 10
-370.585251
 20
216.068436
 30
0.0
 40
0.721926
100
AcDbArc
 50
330.772957
 51
32.444044
  0
ARC
  5
29B
100
AcDbEntity
  8
2
100
AcDbCircle
 10
-366.480709
 20
214.620997
 30
0.0
 40
0.086204
100
AcDbArc
 50
45.0
 51
135.0
  0
ARC
  5
29C
100
AcDbEntity
  8
2
100
AcDbCircle
 10
-371.634551
 20
214.087303
 30
0.0
 40
1.724081
100
AcDbArc
 50
231.270542
 51
308.830069
  0
ARC
  5
29D
100
AcDbEntity
  8
2
100
AcDbCircle
 10
-372.324333
 20
214.267748
 30
0.0
 40
0.632163
100
AcDbArc
 50
235.331952
 51
305.062783
  0
ARC
  5
29E
100
AcDbEntity
  8
2
100
AcDbCircle
 10
-370.881147
 20
216.354459
 30
0.0
 40
3.169316
100
AcDbArc
 50
214.668048
 51
235.331952
  0
ARC
  5
29F
100
AcDbEntity
  8
2
100
AcDbCircle
 10
-369.444772
 20
211.656934
 30
0.0
 40
0.086204
100
AcDbArc
 50
135.0
 51
225.0
  0
ARC
  5
2A0
100
AcDbEntity
  8
2
100
AcDbCircle
 10
-377.960531
 20
209.275074
 30
0.0
 40
11.524047
100
AcDbArc
 50
38.729458
 51
51.270542
  0
ARC
  5
2A1
100
AcDbEntity
  8
2
100
AcDbCircle
 10
-371.139461
 20
216.739669
 30
0.0
 40
0.632163
100
AcDbArc
 50
55.331952
 51
125.062783
  0
ARC
  5
2A2
100
AcDbEntity
  8
2
100
AcDbCircle
 10
-365.503263
 20
221.732343
 30
0.0
 40
11.524047
100
AcDbArc
 50
218.729458
 51
231.270542
  0
ARC
  5
2A3
100
AcDbEntity
  8
2
100
AcDbCircle
 10
-372.967857
 20
214.911273
 30
0.0
 40
0.632163
100
AcDbArc
 50
144.937217
 51
214.668048
  0
LINE
  5
2A4
100
AcDbEntity
  8
2
100
AcDbLine
 10
-377.852503
 20
217.78412
 30
0.0
 11
-376.233966
 21
221.406159
 31
0.0
  0
LINE
  5
2A5
100
AcDbEntity
  8
2
100
AcDbLine
 10
-375.196926
 20
223.459124
 30
0.0
 11
-374.181001
 21
222.4432
 31
0.0
  0
ARC
  5
2A6
100
AcDbEntity
  8
2
100
AcDbCircle
 10
-372.771674
 20
211.336756
 30
0.0
 40
0.14
100
AcDbArc
 50
71.565051
 51
225.0
  0
ARC
  5
2A7
100
AcDbEntity
  8
2
100
AcDbCircle
 10
-382.755696
 20
224.699112
 30
0.0
 40
0.632163
100
AcDbArc
 50
235.331952
 51
305.062783
  0
ARC
  5
2A8
100
AcDbEntity
  8
2
100
AcDbCircle
 10
-380.9273
 20
226.527507
 30
0.0
 40
0.632163
100
AcDbArc
 50
324.937217
 51
34.668048
  0
ARC
  5
2A9
100
AcDbEntity
  8
2
100
AcDbCircle
 10
-381.31251
 20
226.785822
 30
0.0
 40
3.169316
100
AcDbArc
 50
214.668048
 51
235.331952
  0
ARC
  5
2AA
100
AcDbEntity
  8
2
100
AcDbCircle
 10
-383.39922
 20
225.342636
 30
0.0
 40
0.632163
100
AcDbArc
 50
144.937217
 51
214.668048
  0
ARC
  5
2AB
100
AcDbEntity
  8
2
100
AcDbCircle
 10
-381.598532
 20
227.081717
 30
0.0
 40
0.721926
100
AcDbArc
 50
57.555956
 51
119.227043
  0
ARC
  5
2AC
100
AcDbEntity
  8
2
100
AcDbCircle
 10
-383.01401
 20
225.084322
 30
0.0
 40
3.169316
100
AcDbArc
 50
34.668048
 51
55.331952
  0
ARC
  5
2AD
100
AcDbEntity
  8
2
100
AcDbCircle
 10
-376.84623
 20
220.743473
 30
0.0
 40
8.638035
100
AcDbArc
 50
126.225698
 51
144.937217
  0
ARC
  5
2AE
100
AcDbEntity
  8
2
100
AcDbCircle
 10
-386.73626
 20
230.508072
 30
0.0
 40
7.674066
100
AcDbArc
 50
304.473609
 51
325.526391
  0
LINE
  5
2AF
100
AcDbEntity
  8
2
100
AcDbLine
 10
-368.271351
 20
206.638443
 30
0.0
 11
-372.870669
 21
211.237761
 31
0.0
  0
LINE
  5
2B0
100
AcDbEntity
  8
2
100
AcDbLine
 10
-376.222971
 20
218.16388
 30
0.0
 11
-374.207844
 21
222.470043
 31
0.0
  0
LINE
  5
2B1
100
AcDbEntity
  8
2
100
AcDbLine
 10
-376.222971
 20
218.16388
 30
0.0
 11
-372.924329
 21
221.186528
 31
0.0
  0
LINE
  5
2B2
100
AcDbEntity
  8
2
100
AcDbLine
 10
-389.846063
 20
229.777679
 30
0.0
 11
-389.134916
 21
230.488827
 31
0.0
  0
LINE
  5
2B3
100
AcDbEntity
  8
2
100
AcDbLine
 10
-388.423769
 20
231.199974
 30
0.0
 11
-387.712621
 21
231.911121
 31
0.0
  0
ARC
  5
2B4
100
AcDbEntity
  8
2
100
AcDbCircle
 10
-365.8756
 20
209.034193
 30
0.0
 40
0.143673
100
AcDbArc
 50
315.0
 51
71.565051
  0
LINE
  5
2B5
100
AcDbEntity
  8
2
100
AcDbLine
 10
-327.591452
 20
227.862861
 30
0.0
 11
-324.927056
 21
227.116759
 31
0.0
  0
LINE
  5
2B6
100
AcDbEntity
  8
2
100
AcDbLine
 10
-324.927056
 20
227.116759
 30
0.0
 11
-325.6851
 21
227.899273
 31
0.0
  0
LINE
  5
2B7
100
AcDbEntity
  8
2
100
AcDbLine
 10
-345.782075
 20
224.884894
 30
0.0
 11
-359.782075
 21
224.884894
 31
0.0
  0
LINE
  5
2B8
100
AcDbEntity
  8
2
100
AcDbLine
 10
-312.100827
 20
216.822448
 30
0.0
 11
-321.338431
 21
216.822448
 31
0.0
  0
LINE
  5
2B9
100
AcDbEntity
  8
2
100
AcDbLine
 10
-321.338431
 20
200.822448
 30
0.0
 11
-312.100827
 21
200.822448
 31
0.0
  0
CIRCLE
  5
2BA
100
AcDbEntity
  8
2
100
AcDbCircle
 10
-316.719629
 20
208.822448
 30
0.0
 40
8.0
  0
LINE
  5
2BB
100
AcDbEntity
  8
2
100
AcDbLine
 10
-325.957233
 20
208.822448
 30
0.0
 11
-321.338431
 21
200.822448
 31
0.0
  0
LINE
  5
2BC
100
AcDbEntity
  8
2
100
AcDbLine
 10
-312.100827
 20
200.822448
 30
0.0
 11
-307.482025
 21
208.822448
 31
0.0
  0
LINE
  5
2BD
100
AcDbEntity
  8
2
100
AcDbLine
 10
-307.482025
 20
208.822448
 30
0.0
 11
-312.100827
 21
216.822448
 31
0.0
  0
LINE
  5
2BE
100
AcDbEntity
  8
2
100
AcDbLine
 10
-321.338431
 20
216.822448
 30
0.0
 11
-325.957233
 21
208.822448
 31
0.0
  0
LINE
  5
2BF
100
AcDbEntity
  8
2
100
AcDbLine
 10
-393.463323
 20
288.94734
 30
0.0
 11
-398.082125
 21
280.94734
 31
0.0
  0
LINE
  5
2C0
100
AcDbEntity
  8
2
100
AcDbLine
 10
-398.082125
 20
280.94734
 30
0.0
 11
-393.463323
 21
272.94734
 31
0.0
  0
LINE
  5
2C1
100
AcDbEntity
  8
2
100
AcDbLine
 10
-384.225718
 20
288.94734
 30
0.0
 11
-393.463323
 21
288.94734
 31
0.0
  0
LINE
  5
2C2
100
AcDbEntity
  8
2
100
AcDbLine
 10
-379.606916
 20
280.94734
 30
0.0
 11
-384.225718
 21
288.94734
 31
0.0
  0
LINE
  5
2C3
100
AcDbEntity
  8
2
100
AcDbLine
 10
-384.225718
 20
272.94734
 30
0.0
 11
-379.606916
 21
280.94734
 31
0.0
  0
LINE
  5
2C4
100
AcDbEntity
  8
2
100
AcDbLine
 10
-393.463323
 20
272.94734
 30
0.0
 11
-384.225718
 21
272.94734
 31
0.0
  0
CIRCLE
  5
2C5
100
AcDbEntity
  8
2
100
AcDbCircle
 10
-388.844521
 20
280.94734
 30
0.0
 40
8.0
  0
LINE
  5
2C6
100
AcDbEntity
  8
2
100
AcDbLine
 10
-350.285018
 20
250.518605
 30
0.0
 11
-346.595731
 21
250.518605
 31
0.0
  0
LINE
  5
2C7
100
AcDbEntity
  8
2
100
AcDbLine
 10
-346.548943
 20
250.320411
 30
0.0
 11
-350.16805
 21
248.510858
 31
0.0
  0
CIRCLE
  5
2C8
100
AcDbEntity
  8
2
100
AcDbCircle
 10
-352.782075
 20
244.884894
 30
0.0
 40
14.0
  0
LINE
  5
2C9
100
AcDbEntity
  8
2
100
AcDbLine
 10
-350.890644
 20
248.123406
 30
0.0
 11
-354.509751
 21
246.313853
 31
0.0
  0
LINE
  5
2CA
100
AcDbEntity
  8
2
100
AcDbLine
 10
-354.888267
 20
246.547789
 30
0.0
 11
-354.888267
 21
248.060052
 31
0.0
  0
LINE
  5
2CB
100
AcDbEntity
  8
2
100
AcDbLine
 10
-355.232344
 20
248.123406
 30
0.0
 11
-358.932677
 21
246.27324
 31
0.0
  0
LINE
  5
2CC
100
AcDbEntity
  8
2
100
AcDbLine
 10
-359.229967
 20
244.350784
 30
0.0
 11
-359.229967
 21
250.257057
 31
0.0
  0
LINE
  5
2CD
100
AcDbEntity
  8
2
100
AcDbLine
 10
-355.232344
 20
245.926401
 30
0.0
 11
-358.851451
 21
244.116848
 31
0.0
  0
LINE
  5
2CE
100
AcDbEntity
  8
2
100
AcDbLine
 10
-358.897586
 20
246.124595
 30
0.0
 11
-355.279131
 21
246.124595
 31
0.0
  0
ARC
  5
2CF
100
AcDbEntity
  8
2
100
AcDbCircle
 10
-358.968419
 20
244.350784
 30
0.0
 40
0.261548
100
AcDbArc
 50
180.0
 51
296.565051
  0
ARC
  5
2D0
100
AcDbEntity
  8
2
100
AcDbCircle
 10
-358.897586
 20
246.203059
 30
0.0
 40
0.078464
100
AcDbArc
 50
116.565051
 51
270.0
  0
LINE
  5
2D1
100
AcDbEntity
  8
2
100
AcDbLine
 10
-354.731338
 20
237.781207
 30
0.0
 11
-350.997928
 21
237.781207
 31
0.0
  0
LINE
  5
2D2
100
AcDbEntity
  8
2
100
AcDbLine
 10
-354.731338
 20
246.124595
 30
0.0
 11
-350.997928
 21
246.124595
 31
0.0
  0
LINE
  5
2D3
100
AcDbEntity
  8
2
100
AcDbLine
 10
-354.888267
 20
245.967666
 30
0.0
 11
-354.888267
 21
237.938136
 31
0.0
  0
ARC
  5
2D4
100
AcDbEntity
  8
2
100
AcDbCircle
 10
-354.731338
 20
237.938136
 30
0.0
 40
0.156929
100
AcDbArc
 50
180.0
 51
270.0
  0
ARC
  5
2D5
100
AcDbEntity
  8
2
100
AcDbCircle
 10
-354.626718
 20
246.547789
 30
0.0
 40
0.261548
100
AcDbArc
 50
180.0
 51
296.565051
  0
ARC
  5
2D6
100
AcDbEntity
  8
2
100
AcDbCircle
 10
-354.731338
 20
245.967666
 30
0.0
 40
0.156929
100
AcDbArc
 50
90.0
 51
180.0
  0
ARC
  5
2D7
100
AcDbEntity
  8
2
100
AcDbCircle
 10
-355.279131
 20
246.019975
 30
0.0
 40
0.104619
100
AcDbArc
 50
296.565051
 51
90.0
  0
LINE
  5
2D8
100
AcDbEntity
  8
2
100
AcDbLine
 10
-350.840999
 20
237.938136
 30
0.0
 11
-350.840999
 21
245.967666
 31
0.0
  0
ARC
  5
2D9
100
AcDbEntity
  8
2
100
AcDbCircle
 10
-350.997928
 20
237.938136
 30
0.0
 40
0.156929
100
AcDbArc
 50
270.0
 51
360.0
  0
ARC
  5
2DA
100
AcDbEntity
  8
2
100
AcDbCircle
 10
-350.997928
 20
245.967666
 30
0.0
 40
0.156929
100
AcDbArc
 50
0.0
 51
90.0
  0
LINE
  5
2DB
100
AcDbEntity
  8
2
100
AcDbLine
 10
-358.968419
 20
250.518605
 30
0.0
 11
-355.279131
 21
250.518605
 31
0.0
  0
LINE
  5
2DC
100
AcDbEntity
  8
2
100
AcDbLine
 10
-358.897586
 20
248.3216
 30
0.0
 11
-355.279131
 21
248.3216
 31
0.0
  0
LINE
  5
2DD
100
AcDbEntity
  8
2
100
AcDbLine
 10
-355.232344
 20
250.320411
 30
0.0
 11
-358.932677
 21
248.470245
 31
0.0
  0
ARC
  5
2DE
100
AcDbEntity
  8
2
100
AcDbCircle
 10
-358.968419
 20
250.257057
 30
0.0
 40
0.261548
100
AcDbArc
 50
90.0
 51
180.0
  0
ARC
  5
2DF
100
AcDbEntity
  8
2
100
AcDbCircle
 10
-358.897586
 20
248.400064
 30
0.0
 40
0.078464
100
AcDbArc
 50
116.565051
 51
270.0
  0
LINE
  5
2E0
100
AcDbEntity
  8
2
100
AcDbLine
 10
-354.626718
 20
250.518605
 30
0.0
 11
-350.937431
 21
250.518605
 31
0.0
  0
LINE
  5
2E1
100
AcDbEntity
  8
2
100
AcDbLine
 10
-354.626718
 20
248.3216
 30
0.0
 11
-350.937431
 21
248.3216
 31
0.0
  0
LINE
  5
2E2
100
AcDbEntity
  8
2
100
AcDbLine
 10
-350.890644
 20
250.320411
 30
0.0
 11
-354.509751
 21
248.510858
 31
0.0
  0
ARC
  5
2E3
100
AcDbEntity
  8
2
100
AcDbCircle
 10
-354.626718
 20
250.257057
 30
0.0
 40
0.261548
100
AcDbArc
 50
90.0
 51
180.0
  0
ARC
  5
2E4
100
AcDbEntity
  8
2
100
AcDbCircle
 10
-355.279131
 20
250.413985
 30
0.0
 40
0.104619
100
AcDbArc
 50
296.565051
 51
90.0
  0
ARC
  5
2E5
100
AcDbEntity
  8
2
100
AcDbCircle
 10
-354.626718
 20
248.744794
 30
0.0
 40
0.261548
100
AcDbArc
 50
180.0
 51
296.565051
  0
ARC
  5
2E6
100
AcDbEntity
  8
2
100
AcDbCircle
 10
-354.626718
 20
248.060052
 30
0.0
 40
0.261548
100
AcDbArc
 50
90.0
 51
180.0
  0
ARC
  5
2E7
100
AcDbEntity
  8
2
100
AcDbCircle
 10
-355.279131
 20
248.21698
 30
0.0
 40
0.104619
100
AcDbArc
 50
296.565051
 51
90.0
  0
LINE
  5
2E8
100
AcDbEntity
  8
2
100
AcDbLine
 10
-354.888267
 20
248.744794
 30
0.0
 11
-354.888267
 21
250.257057
 31
0.0
  0
ARC
  5
2E9
100
AcDbEntity
  8
2
100
AcDbCircle
 10
-350.285018
 20
250.257057
 30
0.0
 40
0.261548
100
AcDbArc
 50
90.0
 51
180.0
  0
ARC
  5
2EA
100
AcDbEntity
  8
2
100
AcDbCircle
 10
-350.937431
 20
250.413985
 30
0.0
 40
0.104619
100
AcDbArc
 50
296.565051
 51
90.0
  0
ARC
  5
2EB
100
AcDbEntity
  8
2
100
AcDbCircle
 10
-350.285018
 20
248.744794
 30
0.0
 40
0.261548
100
AcDbArc
 50
180.0
 51
296.565051
  0
ARC
  5
2EC
100
AcDbEntity
  8
2
100
AcDbCircle
 10
-350.937431
 20
248.21698
 30
0.0
 40
0.104619
100
AcDbArc
 50
296.565051
 51
90.0
  0
LINE
  5
2ED
100
AcDbEntity
  8
2
100
AcDbLine
 10
-350.546566
 20
248.744794
 30
0.0
 11
-350.546566
 21
250.257057
 31
0.0
  0
ARC
  5
2EE
100
AcDbEntity
  8
2
100
AcDbCircle
 10
-346.595731
 20
250.413985
 30
0.0
 40
0.104619
100
AcDbArc
 50
296.565051
 51
90.0
  0
TEXT
  5
2EF
100
AcDbEntity
  8
2
100
AcDbText
 10
-328.351641
 20
227.420138
 30
0.0
 40
3.0
  1
Ｔ
 50
232.580106
 72
     5
 11
-329.810005
 21
225.514049
 31
0.0
100
AcDbText
  0
TEXT
  5
2F0
100
AcDbEntity
  8
2
100
AcDbText
 10
-329.96676
 20
225.357344
 30
0.0
 40
3.0
  1
Ｅ
 50
227.580106
 72
     5
 11
-331.585701
 21
223.585613
 31
0.0
100
AcDbText
  0
TEXT
  5
2F1
100
AcDbEntity
  8
2
100
AcDbText
 10
-331.755517
 20
223.443166
 30
0.0
 40
3.0
  1
Ｎ
 50
222.580106
 72
     5
 11
-333.522714
 21
221.819277
 31
0.0
100
AcDbText
  0
TEXT
  5
2F2
100
AcDbEntity
  8
2
100
AcDbText
 10
-333.704299
 20
221.692173
 30
0.0
 40
3.0
  1
Ｔ
 50
217.580106
 72
     5
 11
-335.606302
 21
220.228485
 31
0.0
100
AcDbText
  0
TEXT
  5
2F3
100
AcDbEntity
  8
2
100
AcDbText
 10
-335.798275
 20
220.117691
 30
0.0
 40
3.0
  1
Ｅ
 50
212.580106
 72
     5
 11
-337.82061
 21
218.825343
 31
0.0
100
AcDbText
  0
TEXT
  5
2F4
100
AcDbEntity
  8
2
100
AcDbText
 10
-338.021507
 20
218.731702
 30
0.0
 40
3.0
  1
Ｄ
 50
207.580106
 72
     5
 11
-340.148782
 21
217.62053
 31
0.0
100
AcDbText
  0
TEXT
  5
2F5
100
AcDbEntity
  8
2
100
AcDbText
 10
-377.824798
 20
261.459749
 30
0.0
 40
3.0
  1
Ｊ
 50
54.641106
 72
     5
 11
-376.435927
 21
263.417053
 31
0.0
100
AcDbText
  0
TEXT
  5
2F6
100
AcDbEntity
  8
2
100
AcDbText
 10
-376.284909
 20
263.579294
 30
0.0
 40
3.0
  1
Ａ
 50
49.641106
 72
     5
 11
-374.730733
 21
265.408101
 31
0.0
100
AcDbText
  0
TEXT
  5
2F7
100
AcDbEntity
  8
2
100
AcDbText
 10
-374.56615
 20
265.556563
 30
0.0
 40
3.0
  1
Ｐ
 50
44.641106
 72
     5
 11
-372.858497
 21
267.242956
 31
0.0
100
AcDbText
  0
TEXT
  5
2F8
100
AcDbEntity
  8
2
100
AcDbText
 10
-372.6816
 20
267.376508
 30
0.0
 40
3.0
  1
Ａ
 50
39.641106
 72
     5
 11
-370.833466
 21
268.907652
 31
0.0
100
AcDbText
  0
TEXT
  5
2F9
100
AcDbEntity
  8
2
100
AcDbText
 10
-370.645603
 20
269.025279
 30
0.0
 40
3.0
  1
Ｎ
 50
34.641106
 72
     5
 11
-368.671054
 21
270.389521
 31
0.0
100
AcDbText
  0
ARC
  5
2FA
100
AcDbEntity
  8
2
100
AcDbCircle
 10
-394.782075
 20
310.017451
 30
0.0
 40
15.0
100
AcDbArc
 50
302.815493
 51
360.0
  0
LINE
  5
2FB
100
AcDbEntity
  8
2
100
AcDbLine
 10
-360.782075
 20
332.384894
 30
0.0
 11
-369.782075
 21
332.384894
 31
0.0
  0
LINE
  5
2FC
100
AcDbEntity
  8
2
100
AcDbLine
 10
-379.782075
 20
322.384894
 30
0.0
 11
-379.782075
 21
310.017451
 31
0.0
  0
LINE
  5
2FD
100
AcDbEntity
  8
2
100
AcDbLine
 10
-359.782075
 20
331.384894
 30
0.0
 11
-359.782075
 21
318.139587
 31
0.0
  0
ARC
  5
2FE
100
AcDbEntity
  8
2
100
AcDbCircle
 10
-369.782075
 20
322.384894
 30
0.0
 40
10.0
100
AcDbArc
 50
90.0
 51
180.0
  0
ARC
  5
2FF
100
AcDbEntity
  8
2
100
AcDbCircle
 10
-360.782075
 20
331.384894
 30
0.0
 40
1.0
100
AcDbArc
 50
0.0
 51
90.0
  0
ARC
  5
300
100
AcDbEntity
  8
2
100
AcDbCircle
 10
-358.782075
 20
318.139587
 30
0.0
 40
1.0
100
AcDbArc
 50
180.0
 51
274.682417
  0
ARC
  5
301
100
AcDbEntity
  8
2
100
AcDbCircle
 10
-352.782075
 20
244.884894
 30
0.0
 40
72.5
100
AcDbArc
 50
63.197079
 51
66.802931
  0
ARC
  5
302
100
AcDbEntity
  8
2
100
AcDbCircle
 10
-352.782075
 20
244.884894
 30
0.0
 40
72.5
100
AcDbArc
 50
73.197071
 51
76.802929
  0
ARC
  5
303
100
AcDbEntity
  8
2
100
AcDbCircle
 10
-352.782075
 20
244.884894
 30
0.0
 40
72.5
100
AcDbArc
 50
83.197075
 51
86.802934
  0
ARC
  5
304
100
AcDbEntity
  8
2
100
AcDbCircle
 10
-352.782075
 20
244.884894
 30
0.0
 40
72.5
100
AcDbArc
 50
93.197072
 51
94.682417
  0
LINE
  5
305
100
AcDbEntity
  8
2
100
AcDbLine
 10
-331.116449
 20
305.761333
 30
0.0
 11
-331.468851
 21
313.832678
 31
0.0
  0
ARC
  5
306
100
AcDbEntity
  8
2
100
AcDbCircle
 10
-331.968375
 20
313.810868
 30
0.0
 40
0.5
100
AcDbArc
 50
2.5
 51
73.197166
  0
ARC
  5
307
100
AcDbEntity
  8
2
100
AcDbCircle
 10
-324.421531
 20
311.064041
 30
0.0
 40
0.5
100
AcDbArc
 50
66.802834
 51
137.5
  0
LINE
  5
308
100
AcDbEntity
  8
2
100
AcDbLine
 10
-330.248286
 20
305.445348
 30
0.0
 11
-324.79017
 21
311.401837
 31
0.0
  0
LINE
  5
309
100
AcDbEntity
  8
2
100
AcDbLine
 10
-352.320135
 20
309.500115
 30
0.0
 11
-349.228422
 21
316.964169
 31
0.0
  0
ARC
  5
30A
100
AcDbEntity
  8
2
100
AcDbCircle
 10
-348.766483
 20
316.772828
 30
0.0
 40
0.5
100
AcDbArc
 50
86.802834
 51
157.5
  0
ARC
  5
30B
100
AcDbEntity
  8
2
100
AcDbCircle
 10
-356.797667
 20
316.772828
 30
0.0
 40
0.5
100
AcDbArc
 50
22.5
 51
93.197166
  0
LINE
  5
30C
100
AcDbEntity
  8
2
100
AcDbLine
 10
-353.244014
 20
309.500115
 30
0.0
 11
-356.335727
 21
316.964169
 31
0.0
  0
LINE
  5
30D
100
AcDbEntity
  8
2
100
AcDbLine
 10
-342.016681
 20
308.59868
 30
0.0
 11
-343.765304
 21
316.486208
 31
0.0
  0
ARC
  5
30E
100
AcDbEntity
  8
2
100
AcDbCircle
 10
-344.253452
 20
316.377989
 30
0.0
 40
0.5
100
AcDbArc
 50
12.5
 51
83.197166
  0
ARC
  5
30F
100
AcDbEntity
  8
2
100
AcDbCircle
 10
-336.34428
 20
314.983388
 30
0.0
 40
0.5
100
AcDbArc
 50
76.802834
 51
147.5
  0
LINE
  5
310
100
AcDbEntity
  8
2
100
AcDbLine
 10
-341.106837
 20
308.43825
 30
0.0
 11
-336.765976
 21
315.252038
 31
0.0
  0
ARC
  5
311
100
AcDbEntity
  8
2
100
AcDbCircle
 10
-336.34428
 20
314.983388
 30
0.0
 40
0.5
100
AcDbArc
 50
76.802834
 51
147.5
  0
ARC
  5
312
100
AcDbEntity
  8
2
100
AcDbCircle
 10
-331.968375
 20
313.810868
 30
0.0
 40
0.5
100
AcDbArc
 50
2.5
 51
73.197166
  0
LINE
  5
313
100
AcDbEntity
  8
2
100
AcDbLine
 10
-265.282075
 20
229.053014
 30
0.0
 11
-265.282075
 21
227.884894
 31
0.0
  0
ARC
  5
314
100
AcDbEntity
  8
2
100
AcDbCircle
 10
-283.8561
 20
265.698593
 30
0.0
 40
0.5
100
AcDbArc
 50
16.802834
 51
87.5
  0
ARC
  5
315
100
AcDbEntity
  8
2
100
AcDbCircle
 10
-282.68358
 20
261.322689
 30
0.0
 40
0.5
100
AcDbArc
 50
325.746539
 51
13.197166
  0
LINE
  5
316
100
AcDbEntity
  8
2
100
AcDbLine
 10
-292.221621
 20
267.418683
 30
0.0
 11
-286.265132
 21
272.876799
 31
0.0
  0
ARC
  5
317
100
AcDbEntity
  8
2
100
AcDbCircle
 10
-283.8561
 20
265.698593
 30
0.0
 40
0.5
100
AcDbArc
 50
16.802834
 51
87.5
  0
ARC
  5
318
100
AcDbEntity
  8
2
100
AcDbCircle
 10
-291.883826
 20
267.050044
 30
0.0
 40
0.5
100
AcDbArc
 50
132.5
 51
267.5
  0
LINE
  5
319
100
AcDbEntity
  8
2
100
AcDbLine
 10
-291.905635
 20
266.55052
 30
0.0
 11
-283.834291
 21
266.198117
 31
0.0
  0
LINE
  5
31A
100
AcDbEntity
  8
2
100
AcDbLine
 10
-275.282075
 20
217.884894
 30
0.0
 11
-287.649518
 21
217.884894
 31
0.0
  0
ARC
  5
31B
100
AcDbEntity
  8
2
100
AcDbCircle
 10
-275.282075
 20
227.884894
 30
0.0
 40
10.0
100
AcDbArc
 50
270.0
 51
360.0
  0
LINE
  5
31C
100
AcDbEntity
  8
2
100
AcDbLine
 10
-265.282075
 20
229.053014
 30
0.0
 11
-265.282075
 21
227.884894
 31
0.0
  0
ARC
  5
31D
100
AcDbEntity
  8
2
100
AcDbCircle
 10
-282.68358
 20
261.322689
 30
0.0
 40
0.5
100
AcDbArc
 50
325.746539
 51
13.197166
  0
LINE
  5
31E
100
AcDbEntity
  8
2
100
AcDbLine
 10
-291.905635
 20
266.55052
 30
0.0
 11
-283.834291
 21
266.198117
 31
0.0
  0
ARC
  5
31F
100
AcDbEntity
  8
2
100
AcDbCircle
 10
-283.8561
 20
265.698593
 30
0.0
 40
0.5
100
AcDbArc
 50
16.802834
 51
87.5
  0
ARC
  5
320
100
AcDbEntity
  8
2
100
AcDbCircle
 10
-286.602927
 20
273.245437
 30
0.0
 40
0.5
100
AcDbArc
 50
312.5
 51
23.197166
  0
ARC
  5
321
100
AcDbEntity
  8
2
100
AcDbCircle
 10
-291.883826
 20
267.050044
 30
0.0
 40
0.5
100
AcDbArc
 50
132.5
 51
267.5
  0
LINE
  5
322
100
AcDbEntity
  8
2
100
AcDbLine
 10
-292.221621
 20
267.418683
 30
0.0
 11
-286.265132
 21
272.876799
 31
0.0
  0
LINE
  5
323
100
AcDbEntity
  8
2
100
AcDbLine
 10
-296.592682
 20
276.792453
 30
0.0
 11
-288.582765
 21
277.846978
 31
0.0
  0
ARC
  5
324
100
AcDbEntity
  8
2
100
AcDbCircle
 10
-288.517502
 20
277.351256
 30
0.0
 40
0.5
100
AcDbArc
 50
26.802834
 51
97.5
  0
ARC
  5
325
100
AcDbEntity
  8
2
100
AcDbCircle
 10
-296.657945
 20
277.288175
 30
0.0
 40
0.5
100
AcDbArc
 50
142.5
 51
277.5
  0
LINE
  5
326
100
AcDbEntity
  8
2
100
AcDbLine
 10
-297.054622
 20
277.592556
 30
0.0
 11
-292.136417
 21
284.002085
 31
0.0
  0
LINE
  5
327
100
AcDbEntity
  8
2
100
AcDbLine
 10
-292.221621
 20
267.418683
 30
0.0
 11
-286.265132
 21
272.876799
 31
0.0
  0
ARC
  5
328
100
AcDbEntity
  8
2
100
AcDbCircle
 10
-291.883826
 20
267.050044
 30
0.0
 40
0.5
100
AcDbArc
 50
132.5
 51
267.5
  0
ARC
  5
329
100
AcDbEntity
  8
2
100
AcDbCircle
 10
-286.602927
 20
273.245437
 30
0.0
 40
0.5
100
AcDbArc
 50
312.5
 51
23.197166
  0
ARC
  5
32A
100
AcDbEntity
  8
2
100
AcDbCircle
 10
-283.8561
 20
265.698593
 30
0.0
 40
0.5
100
AcDbArc
 50
16.802834
 51
87.5
  0
ARC
  5
32B
100
AcDbEntity
  8
2
100
AcDbCircle
 10
-352.782075
 20
244.884894
 30
0.0
 40
72.5
100
AcDbArc
 50
23.197079
 51
26.802933
  0
ARC
  5
32C
100
AcDbEntity
  8
2
100
AcDbCircle
 10
-352.782075
 20
244.884894
 30
0.0
 40
72.5
100
AcDbArc
 50
13.197089
 51
16.802918
  0
ARC
  5
32D
100
AcDbEntity
  8
2
100
AcDbCircle
 10
-303.49728
 20
297.373073
 30
0.0
 40
0.5
100
AcDbArc
 50
46.802834
 51
117.5
  0
ARC
  5
32E
100
AcDbEntity
  8
2
100
AcDbCircle
 10
-300.293895
 20
294.169689
 30
0.0
 40
0.5
100
AcDbArc
 50
332.5
 51
43.197166
  0
LINE
  5
32F
100
AcDbEntity
  8
2
100
AcDbLine
 10
-302.987014
 20
286.064891
 30
0.0
 11
-295.281903
 21
288.494304
 31
0.0
  0
ARC
  5
330
100
AcDbEntity
  8
2
100
AcDbCircle
 10
-295.13155
 20
288.017445
 30
0.0
 40
0.5
100
AcDbArc
 50
36.802834
 51
107.5
  0
ARC
  5
331
100
AcDbEntity
  8
2
100
AcDbCircle
 10
-300.293895
 20
294.169689
 30
0.0
 40
0.5
100
AcDbArc
 50
332.5
 51
43.197166
  0
ARC
  5
332
100
AcDbEntity
  8
2
100
AcDbCircle
 10
-303.137367
 20
286.54175
 30
0.0
 40
0.5
100
AcDbArc
 50
152.5
 51
287.5
  0
LINE
  5
333
100
AcDbEntity
  8
2
100
AcDbLine
 10
-303.580873
 20
286.772624
 30
0.0
 11
-299.85039
 21
293.938815
 31
0.0
  0
LINE
  5
334
100
AcDbEntity
  8
2
100
AcDbLine
 10
-311.602077
 20
294.679954
 30
0.0
 11
-309.172665
 21
302.385066
 31
0.0
  0
ARC
  5
335
100
AcDbEntity
  8
2
100
AcDbCircle
 10
-311.125219
 20
294.529601
 30
0.0
 40
0.5
100
AcDbArc
 50
162.5
 51
297.5
  0
ARC
  5
336
100
AcDbEntity
  8
2
100
AcDbCircle
 10
-309.649524
 20
302.535419
 30
0.0
 40
0.5
100
AcDbArc
 50
342.5
 51
53.197166
  0
ARC
  5
337
100
AcDbEntity
  8
2
100
AcDbCircle
 10
-303.49728
 20
297.373073
 30
0.0
 40
0.5
100
AcDbArc
 50
46.802834
 51
117.5
  0
LINE
  5
338
100
AcDbEntity
  8
2
100
AcDbLine
 10
-310.894345
 20
294.086096
 30
0.0
 11
-303.728154
 21
297.816579
 31
0.0
  0
ARC
  5
339
100
AcDbEntity
  8
2
100
AcDbCircle
 10
-341.528533
 20
308.7069
 30
0.0
 40
0.5
100
AcDbArc
 50
192.5
 51
327.5
  0
ARC
  5
33A
100
AcDbEntity
  8
2
100
AcDbCircle
 10
-352.782075
 20
309.691457
 30
0.0
 40
0.5
100
AcDbArc
 50
202.5
 51
337.5
  0
ARC
  5
33B
100
AcDbEntity
  8
2
100
AcDbCircle
 10
-330.616925
 20
305.783143
 30
0.0
 40
0.5
100
AcDbArc
 50
182.5
 51
317.5
  0
LINE
  5
33C
100
AcDbEntity
  8
2
100
AcDbLine
 10
-320.874516
 20
301.074287
 30
0.0
 11
-319.81999
 21
309.084204
 31
0.0
  0
ARC
  5
33D
100
AcDbEntity
  8
2
100
AcDbCircle
 10
-320.378793
 20
301.009024
 30
0.0
 40
0.5
100
AcDbArc
 50
172.5
 51
307.5
  0
ARC
  5
33E
100
AcDbEntity
  8
2
100
AcDbCircle
 10
-320.315713
 20
309.149467
 30
0.0
 40
0.5
100
AcDbArc
 50
352.5
 51
63.197166
  0
ARC
  5
33F
100
AcDbEntity
  8
2
100
AcDbCircle
 10
-313.360503
 20
305.133875
 30
0.0
 40
0.5
100
AcDbArc
 50
56.802834
 51
127.5
  0
LINE
  5
340
100
AcDbEntity
  8
2
100
AcDbLine
 10
-320.074413
 20
300.612347
 30
0.0
 11
-313.664884
 21
305.530551
 31
0.0
  0
ARC
  5
341
100
AcDbEntity
  8
2
100
AcDbCircle
 10
-292.533094
 20
284.306465
 30
0.0
 40
0.5
100
AcDbArc
 50
322.5
 51
33.197166
  0
ARC
  5
342
100
AcDbEntity
  8
2
100
AcDbCircle
 10
-292.533094
 20
284.306465
 30
0.0
 40
0.5
100
AcDbArc
 50
322.5
 51
33.197166
  0
ARC
  5
343
100
AcDbEntity
  8
2
100
AcDbCircle
 10
-352.782075
 20
244.884894
 30
0.0
 40
72.5
100
AcDbArc
 50
53.197091
 51
56.802921
  0
ARC
  5
344
100
AcDbEntity
  8
2
100
AcDbCircle
 10
-352.782075
 20
244.884894
 30
0.0
 40
72.5
100
AcDbArc
 50
43.197104
 51
46.802926
  0
ARC
  5
345
100
AcDbEntity
  8
2
100
AcDbCircle
 10
-352.782075
 20
244.884894
 30
0.0
 40
72.5
100
AcDbArc
 50
33.197067
 51
36.802896
  0
ARC
  5
346
100
AcDbEntity
  8
2
100
AcDbCircle
 10
-287.649518
 20
202.884894
 30
0.0
 40
15.0
100
AcDbArc
 50
90.0
 51
147.184507
  0
ARC
  5
347
100
AcDbEntity
  8
2
100
AcDbCircle
 10
-352.782075
 20
244.884894
 30
0.0
 40
62.5
100
AcDbArc
 50
121.541246
 51
327.184507
  0
LINE
  5
348
100
AcDbEntity
  8
2
100
AcDbLine
 10
-291.905635
 20
266.55052
 30
0.0
 11
-283.834291
 21
266.198117
 31
0.0
  0
LINE
  5
349
100
AcDbEntity
  8
2
  6
CENTER
 62
     2
100
AcDbLine
 10
-352.782075
 20
234.884894
 30
0.0
 11
-352.782075
 21
208.384894
 31
0.0
  0
LINE
  5
34A
100
AcDbEntity
  8
2
100
AcDbLine
 10
-352.782075
 20
224.884894
 30
0.0
 11
-345.282075
 21
224.884894
 31
0.0
  0
LINE
  5
34B
100
AcDbEntity
  8
2
100
AcDbLine
 10
-345.282075
 20
224.884894
 30
0.0
 11
-345.282075
 21
219.106582
 31
0.0
  0
LINE
  5
34C
100
AcDbEntity
  8
2
100
AcDbLine
 10
-345.282075
 20
219.106582
 30
0.0
 11
-346.532075
 21
218.384894
 31
0.0
  0
LINE
  5
34D
100
AcDbEntity
  8
2
100
AcDbLine
 10
-346.532075
 20
218.384894
 30
0.0
 11
-352.782075
 21
218.384894
 31
0.0
  0
LINE
  5
34E
100
AcDbEntity
  8
2
100
AcDbLine
 10
-349.032075
 20
224.884894
 30
0.0
 11
-349.032075
 21
219.106582
 31
0.0
  0
ARC
  5
34F
100
AcDbEntity
  8
2
100
AcDbCircle
 10
-347.157075
 20
221.516958
 30
0.0
 40
3.053774
100
AcDbArc
 50
232.121121
 51
307.878879
  0
ARC
  5
350
100
AcDbEntity
  8
2
100
AcDbCircle
 10
-352.782075
 20
229.713184
 30
0.0
 40
11.25
100
AcDbArc
 50
270.0
 51
289.471221
  0
LINE
  5
351
100
AcDbEntity
  8
2
100
AcDbLine
 10
-352.782075
 20
224.884894
 30
0.0
 11
-360.282075
 21
224.884894
 31
0.0
  0
LINE
  5
352
100
AcDbEntity
  8
2
100
AcDbLine
 10
-360.282075
 20
224.884894
 30
0.0
 11
-360.282075
 21
219.106582
 31
0.0
  0
LINE
  5
353
100
AcDbEntity
  8
2
100
AcDbLine
 10
-360.282075
 20
219.106582
 30
0.0
 11
-359.032075
 21
218.384894
 31
0.0
  0
LINE
  5
354
100
AcDbEntity
  8
2
100
AcDbLine
 10
-359.032075
 20
218.384894
 30
0.0
 11
-352.782075
 21
218.384894
 31
0.0
  0
LINE
  5
355
100
AcDbEntity
  8
2
100
AcDbLine
 10
-356.532075
 20
224.884894
 30
0.0
 11
-356.532075
 21
219.106582
 31
0.0
  0
ARC
  5
356
100
AcDbEntity
  8
2
100
AcDbCircle
 10
-358.407075
 20
221.516958
 30
0.0
 40
3.053774
100
AcDbArc
 50
232.121121
 51
307.878879
  0
ARC
  5
357
100
AcDbEntity
  8
2
100
AcDbCircle
 10
-352.782075
 20
229.713184
 30
0.0
 40
11.25
100
AcDbArc
 50
250.528779
 51
270.0
  0
LINE
  5
358
100
AcDbEntity
  8
2
100
AcDbLine
 10
-352.782075
 20
212.884894
 30
0.0
 11
-356.105575
 21
212.884894
 31
0.0
  0
LINE
  5
359
100
AcDbEntity
  8
2
100
AcDbLine
 10
-356.105575
 20
212.884894
 30
0.0
 11
-356.782075
 21
213.561394
 31
0.0
  0
LINE
  5
35A
100
AcDbEntity
  8
2
100
AcDbLine
 10
-356.782075
 20
213.561394
 30
0.0
 11
-356.782075
 21
218.421609
 31
0.0
  0
LINE
  5
35B
100
AcDbEntity
  8
2
100
AcDbLine
 10
-356.782075
 20
213.561394
 30
0.0
 11
-352.782075
 21
213.561394
 31
0.0
  0
LINE
  5
35C
100
AcDbEntity
  8
2
 62
     2
100
AcDbLine
 10
-356.105575
 20
212.884894
 30
0.0
 11
-356.105575
 21
218.385246
 31
0.0
  0
LINE
  5
35D
100
AcDbEntity
  8
2
100
AcDbLine
 10
-352.782075
 20
212.884894
 30
0.0
 11
-349.458575
 21
212.884894
 31
0.0
  0
LINE
  5
35E
100
AcDbEntity
  8
2
100
AcDbLine
 10
-349.458575
 20
212.884894
 30
0.0
 11
-348.782075
 21
213.561394
 31
0.0
  0
LINE
  5
35F
100
AcDbEntity
  8
2
100
AcDbLine
 10
-348.782075
 20
213.561394
 30
0.0
 11
-348.782075
 21
218.421609
 31
0.0
  0
LINE
  5
360
100
AcDbEntity
  8
2
100
AcDbLine
 10
-348.782075
 20
213.561394
 30
0.0
 11
-352.782075
 21
213.561394
 31
0.0
  0
LINE
  5
361
100
AcDbEntity
  8
2
 62
     2
100
AcDbLine
 10
-349.458575
 20
212.884894
 30
0.0
 11
-349.458575
 21
218.385246
 31
0.0
  0
TEXT
  5
362
100
AcDbEntity
  8
2
100
AcDbText
 10
-401.315066
 20
257.789587
 30
0.0
 40
10.0
  1
Ｓ
 50
70.112034
 72
     5
 11
-398.59361
 21
265.312464
 31
0.0
100
AcDbText
  0
TEXT
  5
363
100
AcDbEntity
  8
2
100
AcDbText
 10
-330.886813
 20
199.577905
 30
0.0
 40
10.0
  1
Ｏ
 50
199.927742
 72
     5
 11
-338.407799
 21
196.851227
 31
0.0
100
AcDbText
  0
LINE
  5
364
100
AcDbEntity
  8
2
100
AcDbLine
 10
-311.819628
 20
5.274024
 30
0.0
 11
-311.819628
 21
11.379132
 31
0.0
  0
LINE
  5
365
100
AcDbEntity
  8
2
100
AcDbLine
 10
-326.519628
 20
5.274024
 30
0.0
 11
-326.519628
 21
11.379132
 31
0.0
  0
LINE
  5
366
100
AcDbEntity
  8
2
100
AcDbLine
 10
-326.519628
 20
11.379132
 30
0.0
 11
-324.96963
 21
12.274023
 31
0.0
  0
LINE
  5
367
100
AcDbEntity
  8
2
100
AcDbLine
 10
-324.96963
 20
12.274023
 30
0.0
 11
-308.46963
 21
12.274023
 31
0.0
  0
LINE
  5
368
100
AcDbEntity
  8
2
100
AcDbLine
 10
-321.619629
 20
5.274024
 30
0.0
 11
-321.619629
 21
11.379132
 31
0.0
  0
ARC
  5
369
100
AcDbEntity
  8
2
100
AcDbCircle
 10
-324.06963
 20
8.229573
 30
0.0
 40
3.990264
100
AcDbArc
 50
52.121121
 51
127.878879
  0
LINE
  5
36A
100
AcDbEntity
  8
2
100
AcDbLine
 10
-306.919629
 20
5.274024
 30
0.0
 11
-306.919629
 21
11.379132
 31
0.0
  0
LINE
  5
36B
100
AcDbEntity
  8
2
100
AcDbLine
 10
-306.919629
 20
11.379132
 30
0.0
 11
-308.46963
 21
12.274023
 31
0.0
  0
ARC
  5
36C
100
AcDbEntity
  8
2
100
AcDbCircle
 10
-309.36963
 20
8.229573
 30
0.0
 40
3.990264
100
AcDbArc
 50
52.121121
 51
127.878879
  0
ARC
  5
36D
100
AcDbEntity
  8
2
100
AcDbCircle
 10
-316.71963
 20
-2.480163
 30
0.0
 40
14.7
100
AcDbArc
 50
70.528781
 51
109.471223
  0
LINE
  5
36E
100
AcDbEntity
  8
2
100
AcDbLine
 10
-379.044519
 20
5.274024
 30
0.0
 11
-379.044519
 21
11.379132
 31
0.0
  0
LINE
  5
36F
100
AcDbEntity
  8
2
100
AcDbLine
 10
-379.044519
 20
11.379132
 30
0.0
 11
-380.59452
 21
12.274023
 31
0.0
  0
LINE
  5
370
100
AcDbEntity
  8
2
100
AcDbLine
 10
-380.59452
 20
12.274023
 30
0.0
 11
-397.09452
 21
12.274023
 31
0.0
  0
LINE
  5
371
100
AcDbEntity
  8
2
100
AcDbLine
 10
-383.944521
 20
5.274024
 30
0.0
 11
-383.944521
 21
11.379132
 31
0.0
  0
ARC
  5
372
100
AcDbEntity
  8
2
100
AcDbCircle
 10
-381.49452
 20
8.229573
 30
0.0
 40
3.990264
100
AcDbArc
 50
52.121121
 51
127.878879
  0
LINE
  5
373
100
AcDbEntity
  8
2
100
AcDbLine
 10
-398.644521
 20
5.274024
 30
0.0
 11
-398.644521
 21
11.379132
 31
0.0
  0
LINE
  5
374
100
AcDbEntity
  8
2
100
AcDbLine
 10
-398.644521
 20
11.379132
 30
0.0
 11
-397.09452
 21
12.274023
 31
0.0
  0
LINE
  5
375
100
AcDbEntity
  8
2
100
AcDbLine
 10
-393.744519
 20
5.274024
 30
0.0
 11
-393.744519
 21
11.379132
 31
0.0
  0
ARC
  5
376
100
AcDbEntity
  8
2
100
AcDbCircle
 10
-396.19452
 20
8.229573
 30
0.0
 40
3.990264
100
AcDbArc
 50
52.121121
 51
127.878879
  0
ARC
  5
377
100
AcDbEntity
  8
2
100
AcDbCircle
 10
-388.84452
 20
-2.480163
 30
0.0
 40
14.7
100
AcDbArc
 50
70.528777
 51
109.471219
  0
LINE
  5
378
100
AcDbEntity
  8
2
100
AcDbLine
 10
-336.847275
 20
36.66107
 30
0.0
 11
-59.615927
 21
95.588412
 31
0.0
  0
LINE
  5
379
100
AcDbEntity
  8
2
  6
CENTER
 62
     2
100
AcDbLine
 10
-342.260232
 20
22.274024
 30
0.0
 11
-363.450931
 21
22.274024
 31
0.0
  0
LINE
  5
37A
100
AcDbEntity
  8
2
  6
CENTER
 62
     2
100
AcDbLine
 10
-232.782075
 20
55.645384
 30
0.0
 11
-232.782075
 21
26.938772
 31
0.0
  0
LINE
  5
37B
100
AcDbEntity
  8
2
  6
CENTER
 62
     2
100
AcDbLine
 10
-223.250897
 20
45.274024
 30
0.0
 11
-242.104933
 21
45.274024
 31
0.0
  0
ARC
  5
37C
100
AcDbEntity
  8
2
  6
CENTER
 62
     2
100
AcDbCircle
 10
-232.782075
 20
45.274024
 30
0.0
 40
92.276149
100
AcDbArc
 50
347.219321
 51
15.742888
  0
LINE
  5
37D
100
AcDbEntity
  8
2
100
AcDbLine
 10
-369.282075
 20
41.274024
 30
0.0
 11
-336.282075
 21
41.274024
 31
0.0
  0
LINE
  5
37E
100
AcDbEntity
  8
2
100
AcDbLine
 10
-360.782075
 20
15.274024
 30
0.0
 11
-360.782075
 21
41.273695
 31
0.0
  0
ARC
  5
37F
100
AcDbEntity
  8
2
100
AcDbCircle
 10
-389.255789
 20
75.567388
 30
0.0
 40
50.564281
100
AcDbArc
 50
285.102514
 51
302.946073
  0
LINE
  5
380
100
AcDbEntity
  8
2
100
AcDbLine
 10
-374.229954
 20
30.030116
 30
0.0
 11
-401.808135
 21
19.992479
 31
0.0
  0
LINE
  5
381
100
AcDbEntity
  8
2
100
AcDbLine
 10
-338.782075
 20
14.274024
 30
0.0
 11
-367.782075
 21
14.274024
 31
0.0
  0
LINE
  5
382
100
AcDbEntity
  8
2
100
AcDbLine
 10
-369.282075
 20
41.274024
 30
0.0
 11
-370.282075
 21
40.274024
 31
0.0
  0
LINE
  5
383
100
AcDbEntity
  8
2
100
AcDbLine
 10
-370.282075
 20
35.668272
 30
0.0
 11
-370.282075
 21
40.274024
 31
0.0
  0
LINE
  5
384
100
AcDbEntity
  8
2
100
AcDbLine
 10
-338.782075
 20
15.274024
 30
0.0
 11
-403.782075
 21
15.274024
 31
0.0
  0
LINE
  5
385
100
AcDbEntity
  8
2
100
AcDbLine
 10
-403.782075
 20
15.274024
 30
0.0
 11
-403.782075
 21
17.173401
 31
0.0
  0
LINE
  5
386
100
AcDbEntity
  8
2
100
AcDbLine
 10
-367.782075
 20
15.274024
 30
0.0
 11
-367.782075
 21
14.274024
 31
0.0
  0
ARC
  5
387
100
AcDbEntity
  8
2
100
AcDbCircle
 10
-376.282075
 20
35.668272
 30
0.0
 40
6.0
100
AcDbArc
 50
290.0
 51
360.0
  0
ARC
  5
388
100
AcDbEntity
  8
2
100
AcDbCircle
 10
-400.782075
 20
17.173401
 30
0.0
 40
3.0
100
AcDbArc
 50
110.0
 51
180.0
  0
ARC
  5
389
100
AcDbEntity
  8
2
100
AcDbCircle
 10
-333.282075
 20
39.463558
 30
0.0
 40
2.0
100
AcDbArc
 50
180.0
 51
282.0
  0
LINE
  5
38A
100
AcDbEntity
  8
2
100
AcDbLine
 10
-338.782075
 20
14.274024
 30
0.0
 11
-338.782075
 21
15.274024
 31
0.0
  0
LINE
  5
38B
100
AcDbEntity
  8
2
100
AcDbLine
 10
-338.782075
 20
15.274024
 30
0.0
 11
-269.446313
 21
30.011795
 31
0.0
  0
CIRCLE
  5
38C
100
AcDbEntity
  8
2
100
AcDbCircle
 10
-352.782075
 20
22.274024
 30
0.0
 40
4.0
  0
LINE
  5
38D
100
AcDbEntity
  8
2
100
AcDbLine
 10
-344.782075
 20
15.274024
 30
0.0
 11
-344.782075
 21
41.273695
 31
0.0
  0
LINE
  5
38E
100
AcDbEntity
  8
2
100
AcDbLine
 10
-335.282075
 20
39.463558
 30
0.0
 11
-335.282075
 21
40.274024
 31
0.0
  0
LINE
  5
38F
100
AcDbEntity
  8
2
100
AcDbLine
 10
-336.282075
 20
41.274024
 30
0.0
 11
-335.282075
 21
40.274024
 31
0.0
  0
ARC
  5
390
100
AcDbEntity
  8
2
100
AcDbCircle
 10
-223.752637
 20
42.274024
 30
0.0
 40
12.0
100
AcDbArc
 50
270.0
 51
315.0
  0
LINE
  5
391
100
AcDbEntity
  8
2
100
AcDbLine
 10
-266.951372
 20
30.274024
 30
0.0
 11
-223.752637
 21
30.274024
 31
0.0
  0
ARC
  5
392
100
AcDbEntity
  8
2
100
AcDbCircle
 10
-226.782075
 20
31.274024
 30
0.0
 40
1.0
100
AcDbArc
 50
270.0
 51
360.0
  0
ARC
  5
393
100
AcDbEntity
  8
2
100
AcDbCircle
 10
-238.782075
 20
31.274024
 30
0.0
 40
1.0
100
AcDbArc
 50
180.0
 51
270.0
  0
LINE
  5
394
100
AcDbEntity
  8
2
100
AcDbLine
 10
-212.526284
 20
36.529815
 30
0.0
 11
-215.267356
 21
33.788742
 31
0.0
  0
LINE
  5
395
100
AcDbEntity
  8
2
100
AcDbLine
 10
-225.782075
 20
45.274024
 30
0.0
 11
-225.782075
 21
31.274024
 31
0.0
  0
LINE
  5
396
100
AcDbEntity
  8
2
100
AcDbLine
 10
-239.782075
 20
45.274024
 30
0.0
 11
-239.782075
 21
31.274024
 31
0.0
  0
ARC
  5
397
100
AcDbEntity
  8
2
100
AcDbCircle
 10
-232.782075
 20
45.274024
 30
0.0
 40
7.0
100
AcDbArc
 50
0.0
 51
180.0
  0
CIRCLE
  5
398
100
AcDbEntity
  8
2
100
AcDbCircle
 10
-232.782075
 20
45.274024
 30
0.0
 40
2.5
  0
ARC
  5
399
100
AcDbEntity
  8
2
100
AcDbCircle
 10
-180.706479
 20
4.710009
 30
0.0
 40
45.0
100
AcDbArc
 50
104.5
 51
135.0
  0
LINE
  5
39A
100
AcDbEntity
  8
2
100
AcDbLine
 10
-191.973579
 20
48.276653
 30
0.0
 11
-53.708874
 21
84.034337
 31
0.0
  0
ARC
  5
39B
100
AcDbEntity
  8
2
100
AcDbCircle
 10
-53.959254
 20
85.002485
 30
0.0
 40
1.0
100
AcDbArc
 50
284.5
 51
12.0
  0
LINE
  5
39C
100
AcDbEntity
  8
2
100
AcDbLine
 10
-52.981107
 20
85.210396
 30
0.0
 11
-54.338913
 21
91.598373
 31
0.0
  0
ARC
  5
39D
100
AcDbEntity
  8
2
100
AcDbCircle
 10
-59.229651
 20
90.558815
 30
0.0
 40
5.0
100
AcDbArc
 50
12.0
 51
102.0
  0
ARC
  5
39E
100
AcDbEntity
  8
2
100
AcDbCircle
 10
-266.951372
 20
18.274024
 30
0.0
 40
12.0
100
AcDbArc
 50
90.0
 51
102.0
  0
LINE
  5
39F
100
AcDbEntity
  8
2
100
AcDbLine
 10
-208.782075
 20
39.877621
 30
0.0
 11
-208.782075
 21
27.881779
 31
0.0
  0
LINE
  5
3A0
100
AcDbEntity
  8
2
100
AcDbLine
 10
-201.338192
 20
44.701664
 30
0.0
 11
-154.816274
 21
34.813125
 31
0.0
  0
LINE
  5
3A1
100
AcDbEntity
  8
2
100
AcDbLine
 10
-285.76293
 20
11.566917
 30
0.0
 11
-267.056281
 21
30.273565
 31
0.0
  0
LINE
  5
3A2
100
AcDbEntity
  8
2
100
AcDbLine
 10
-262.782075
 20
30.274024
 30
0.0
 11
-262.782075
 21
6.547772
 31
0.0
  0
LINE
  5
3A3
100
AcDbEntity
  8
2
100
AcDbLine
 10
-126.8512
 20
33.759549
 30
0.0
 11
-62.43662
 21
31.510143
 31
0.0
  0
ARC
  5
3A4
100
AcDbEntity
  8
2
100
AcDbCircle
 10
-137.547533
 20
26.128197
 30
0.0
 40
10.0
100
AcDbArc
 50
268.0
 51
299.788331
  0
ARC
  5
3A5
100
AcDbEntity
  8
2
100
AcDbCircle
 10
-127.611588
 20
8.770864
 30
0.0
 40
10.0
100
AcDbArc
 50
56.211669
 51
119.788331
  0
ARC
  5
3A6
100
AcDbEntity
  8
2
100
AcDbCircle
 10
-116.489061
 20
25.392819
 30
0.0
 40
10.0
100
AcDbArc
 50
236.211669
 51
299.788331
  0
ARC
  5
3A7
100
AcDbEntity
  8
2
100
AcDbCircle
 10
-106.553117
 20
8.035486
 30
0.0
 40
10.0
100
AcDbArc
 50
56.211669
 51
119.788331
  0
ARC
  5
3A8
100
AcDbEntity
  8
2
100
AcDbCircle
 10
-95.43059
 20
24.657441
 30
0.0
 40
10.0
100
AcDbArc
 50
236.211669
 51
299.788331
  0
ARC
  5
3A9
100
AcDbEntity
  8
2
100
AcDbCircle
 10
-85.494645
 20
7.300108
 30
0.0
 40
10.0
100
AcDbArc
 50
56.211669
 51
119.788331
  0
ARC
  5
3AA
100
AcDbEntity
  8
2
100
AcDbCircle
 10
-74.372118
 20
23.922063
 30
0.0
 40
10.0
100
AcDbArc
 50
236.211669
 51
299.788331
  0
ARC
  5
3AB
100
AcDbEntity
  8
2
100
AcDbCircle
 10
-64.436174
 20
6.56473
 30
0.0
 40
10.0
100
AcDbArc
 50
48.284863
 51
119.788331
  0
LINE
  5
3AC
100
AcDbEntity
  8
2
100
AcDbLine
 10
-127.88549
 20
32.795058
 30
0.0
 11
-126.8512
 21
33.759549
 31
0.0
  0
ARC
  5
3AD
100
AcDbEntity
  8
2
100
AcDbCircle
 10
-146.797965
 20
96.493898
 30
0.0
 40
80.0
100
AcDbArc
 50
258.0
 51
268.0
  0
LINE
  5
3AE
100
AcDbEntity
  8
2
100
AcDbLine
 10
-154.816274
 20
34.813125
 30
0.0
 11
-153.873026
 21
33.605822
 31
0.0
  0
ARC
  5
3AF
100
AcDbEntity
  8
2
100
AcDbCircle
 10
-226.026469
 20
0.876971
 30
0.0
 40
30.0
100
AcDbArc
 50
78.0
 51
81.068297
  0
LINE
  5
3B0
100
AcDbEntity
  8
2
100
AcDbLine
 10
-149.589925
 20
16.542631
 30
0.0
 11
-137.896528
 21
16.134289
 31
0.0
  0
ARC
  5
3B1
100
AcDbEntity
  8
2
100
AcDbCircle
 10
-55.785615
 20
16.268741
 30
0.0
 40
3.0
100
AcDbArc
 50
228.284863
 51
360.0
  0
LINE
  5
3B2
100
AcDbEntity
  8
2
100
AcDbLine
 10
-52.785615
 20
16.268741
 30
0.0
 11
-52.785615
 21
21.516234
 31
0.0
  0
ARC
  5
3B3
100
AcDbEntity
  8
2
100
AcDbCircle
 10
-62.785615
 20
21.516234
 30
0.0
 40
10.0
100
AcDbArc
 50
0.0
 51
88.0
  0
LINE
  5
3B4
100
AcDbEntity
  8
2
100
AcDbLine
 10
-219.789119
 20
30.221399
 30
0.0
 11
-163.4309
 21
18.242089
 31
0.0
  0
LINE
  5
3B5
100
AcDbEntity
  8
2
100
AcDbLine
 10
-147.058743
 20
42.49226
 30
0.0
 11
-143.279266
 21
42.360278
 31
0.0
  0
LINE
  5
3B6
100
AcDbEntity
  8
2
100
AcDbLine
 10
-135.031153
 20
43.072857
 30
0.0
 11
-134.066662
 21
42.038566
 31
0.0
  0
LINE
  5
3B7
100
AcDbEntity
  8
2
100
AcDbLine
 10
-146.024452
 20
43.456751
 30
0.0
 11
-140.491207
 21
43.263526
 31
0.0
  0
LINE
  5
3B8
100
AcDbEntity
  8
2
100
AcDbLine
 10
-146.024452
 20
43.456751
 30
0.0
 11
-147.058743
 21
42.49226
 31
0.0
  0
LINE
  5
3B9
100
AcDbEntity
  8
2
100
AcDbLine
 10
-147.375568
 20
33.419579
 30
0.0
 11
-147.323312
 21
34.915996
 31
0.0
  0
LINE
  5
3BA
100
AcDbEntity
  8
2
100
AcDbLine
 10
-153.903778
 20
32.725198
 30
0.0
 11
-153.873026
 21
33.605822
 31
0.0
  0
ARC
  5
3BB
100
AcDbEntity
  8
2
100
AcDbCircle
 10
-152.904387
 20
32.690299
 30
0.0
 40
1.0
100
AcDbArc
 50
178.0
 51
268.0
  0
ARC
  5
3BC
100
AcDbEntity
  8
2
100
AcDbCircle
 10
-148.407129
 20
32.533251
 30
0.0
 40
1.0
100
AcDbArc
 50
268.0
 51
298.333059
  0
LINE
  5
3BD
100
AcDbEntity
  8
2
100
AcDbLine
 10
-134.415657
 20
32.044658
 30
0.0
 11
-134.321755
 21
34.733652
 31
0.0
  0
LINE
  5
3BE
100
AcDbEntity
  8
2
100
AcDbLine
 10
-127.919617
 20
31.817811
 30
0.0
 11
-127.88549
 21
32.795058
 31
0.0
  0
ARC
  5
3BF
100
AcDbEntity
  8
2
100
AcDbCircle
 10
-128.919007
 20
31.852711
 30
0.0
 40
1.0
100
AcDbArc
 50
268.0
 51
358.0
  0
ARC
  5
3C0
100
AcDbEntity
  8
2
100
AcDbCircle
 10
-133.416266
 20
32.009759
 30
0.0
 40
1.0
100
AcDbArc
 50
178.0
 51
268.0
  0
LINE
  5
3C1
100
AcDbEntity
  8
2
100
AcDbLine
 10
-152.939287
 20
31.690908
 30
0.0
 11
-128.953907
 21
30.85332
 31
0.0
  0
LINE
  5
3C2
100
AcDbEntity
  8
2
100
AcDbLine
 10
-274.755823
 20
21.15981
 30
0.0
 11
-275.140046
 21
22.189801
 31
0.0
  0
ARC
  5
3C3
100
AcDbEntity
  8
2
100
AcDbCircle
 10
-273.126891
 20
3.274024
 30
0.0
 40
5.0
100
AcDbArc
 50
270.0
 51
315.0
  0
ARC
  5
3C4
100
AcDbEntity
  8
2
100
AcDbCircle
 10
-285.055823
 20
-0.725976
 30
0.0
 40
1.0
100
AcDbArc
 50
180.0
 51
270.0
  0
ARC
  5
3C5
100
AcDbEntity
  8
2
100
AcDbCircle
 10
-285.055823
 20
10.85981
 30
0.0
 40
1.0
100
AcDbArc
 50
135.0
 51
180.0
  0
LINE
  5
3C6
100
AcDbEntity
  8
2
100
AcDbLine
 10
-269.591357
 20
-0.26151
 30
0.0
 11
-266.055823
 21
3.274024
 31
0.0
  0
LINE
  5
3C7
100
AcDbEntity
  8
2
100
AcDbLine
 10
-274.755823
 20
21.15981
 30
0.0
 11
-274.755823
 21
5.274024
 31
0.0
  0
LINE
  5
3C8
100
AcDbEntity
  8
2
100
AcDbLine
 10
-285.055823
 20
-1.725976
 30
0.0
 11
-273.126891
 21
-1.725976
 31
0.0
  0
LINE
  5
3C9
100
AcDbEntity
  8
2
100
AcDbLine
 10
-286.055823
 20
10.85981
 30
0.0
 11
-286.055823
 21
5.274024
 31
0.0
  0
ARC
  5
3CA
100
AcDbEntity
  8
2
100
AcDbCircle
 10
-226.026469
 20
0.876971
 30
0.0
 40
30.0
100
AcDbArc
 50
101.506587
 51
135.0
  0
LINE
  5
3CB
100
AcDbEntity
  8
2
100
AcDbLine
 10
-286.055823
 20
3.274024
 30
0.0
 11
-286.055823
 21
-0.725976
 31
0.0
  0
LINE
  5
3CC
100
AcDbEntity
  8
2
100
AcDbLine
 10
-274.755823
 20
3.274024
 30
0.0
 11
-274.755823
 21
-1.725976
 31
0.0
  0
LINE
  5
3CD
100
AcDbEntity
  8
2
100
AcDbLine
 10
-265.282075
 20
4.047772
 30
0.0
 11
-247.239673
 21
22.090174
 31
0.0
  0
LINE
  5
3CE
100
AcDbEntity
  8
2
100
AcDbLine
 10
-134.264012
 20
36.387192
 30
0.0
 11
-134.168668
 21
39.117494
 31
0.0
  0
LINE
  5
3CF
100
AcDbEntity
  8
2
100
AcDbLine
 10
-134.109353
 20
40.816067
 30
0.0
 11
-134.066662
 21
42.038566
 31
0.0
  0
LINE
  5
3D0
100
AcDbEntity
  8
2
100
AcDbLine
 10
-147.106652
 20
41.120318
 30
0.0
 11
-147.058743
 21
42.49226
 31
0.0
  0
LINE
  5
3D1
100
AcDbEntity
  8
2
100
AcDbLine
 10
-147.263996
 20
36.614569
 30
0.0
 11
-147.166056
 21
39.419202
 31
0.0
  0
LINE
  5
3D2
100
AcDbEntity
  8
2
100
AcDbLine
 10
-138.592967
 20
42.196628
 30
0.0
 11
-134.066662
 21
42.038566
 31
0.0
  0
LINE
  5
3D3
100
AcDbEntity
  8
2
100
AcDbLine
 10
-135.804907
 20
43.099877
 30
0.0
 11
-135.031153
 21
43.072857
 31
0.0
  0
LINE
  5
3D4
100
AcDbEntity
  8
2
100
AcDbLine
 10
-356.534851
 20
28.774024
 30
0.0
 11
-360.287628
 21
22.274024
 31
0.0
  0
LINE
  5
3D5
100
AcDbEntity
  8
2
100
AcDbLine
 10
-349.029298
 20
28.774024
 30
0.0
 11
-356.534851
 21
28.774024
 31
0.0
  0
LINE
  5
3D6
100
AcDbEntity
  8
2
100
AcDbLine
 10
-345.276521
 20
22.274024
 30
0.0
 11
-349.029298
 21
28.774024
 31
0.0
  0
LINE
  5
3D7
100
AcDbEntity
  8
2
100
AcDbLine
 10
-349.029298
 20
15.774024
 30
0.0
 11
-345.276521
 21
22.274024
 31
0.0
  0
LINE
  5
3D8
100
AcDbEntity
  8
2
100
AcDbLine
 10
-356.534851
 20
15.774024
 30
0.0
 11
-349.029298
 21
15.774024
 31
0.0
  0
LINE
  5
3D9
100
AcDbEntity
  8
2
100
AcDbLine
 10
-360.287628
 20
22.274024
 30
0.0
 11
-356.534851
 21
15.774024
 31
0.0
  0
CIRCLE
  5
3DA
100
AcDbEntity
  8
2
100
AcDbCircle
 10
-352.782075
 20
22.274024
 30
0.0
 40
3.375
  0
CIRCLE
  5
3DB
100
AcDbEntity
  8
2
100
AcDbCircle
 10
-352.782075
 20
22.274024
 30
0.0
 40
4.0
  0
CIRCLE
  5
3DC
100
AcDbEntity
  8
2
100
AcDbCircle
 10
-352.782075
 20
22.274024
 30
0.0
 40
6.5
  0
CIRCLE
  5
3DD
100
AcDbEntity
  8
2
100
AcDbCircle
 10
-133.158352
 20
31.801951
 30
0.0
 40
0.8
  0
ARC
  5
3DE
100
AcDbEntity
  8
2
100
AcDbCircle
 10
-148.516196
 20
32.341179
 30
0.0
 40
0.8
100
AcDbArc
 50
102.753204
 51
282.753204
  0
ARC
  5
3DF
100
AcDbEntity
  8
2
100
AcDbCircle
 10
-132.97906
 20
35.857787
 30
0.0
 40
0.8
100
AcDbArc
 50
282.753204
 51
102.753204
  0
ARC
  5
3E0
100
AcDbEntity
  8
2
100
AcDbCircle
 10
-132.908913
 20
40.359664
 30
0.0
 40
0.8
100
AcDbArc
 50
287.713107
 51
107.713107
  0
ARC
  5
3E1
100
AcDbEntity
  8
2
100
AcDbCircle
 10
-132.974065
 20
44.857921
 30
0.0
 40
0.8
100
AcDbArc
 50
287.950783
 51
107.950783
  0
ARC
  5
3E2
100
AcDbEntity
  8
2
100
AcDbCircle
 10
-133.19093
 20
49.626117
 30
0.0
 40
0.8
100
AcDbArc
 50
289.113908
 51
109.113908
  0
ARC
  5
3E3
100
AcDbEntity
  8
2
100
AcDbCircle
 10
-133.612845
 20
54.941997
 30
0.0
 40
0.8
100
AcDbArc
 50
292.202303
 51
112.202303
  0
ARC
  5
3E4
100
AcDbEntity
  8
2
100
AcDbCircle
 10
-134.174149
 20
59.863623
 30
0.0
 40
0.8
100
AcDbArc
 50
292.351981
 51
112.351981
  0
ARC
  5
3E5
100
AcDbEntity
  8
2
100
AcDbCircle
 10
-149.252118
 20
58.375491
 30
0.0
 40
0.8
100
AcDbArc
 50
95.636598
 51
293.997777
  0
ARC
  5
3E6
100
AcDbEntity
  8
2
100
AcDbCircle
 10
-148.70122
 20
53.890235
 30
0.0
 40
0.8
100
AcDbArc
 50
93.987453
 51
292.351981
  0
ARC
  5
3E7
100
AcDbEntity
  8
2
100
AcDbCircle
 10
-148.299588
 20
48.94776
 30
0.0
 40
0.8
100
AcDbArc
 50
92.570774
 51
292.202303
  0
ARC
  5
3E8
100
AcDbEntity
  8
2
100
AcDbCircle
 10
-148.119495
 20
44.452579
 30
0.0
 40
0.8
100
AcDbArc
 50
109.113908
 51
289.113908
  0
ARC
  5
3E9
100
AcDbEntity
  8
2
100
AcDbCircle
 10
-148.115028
 20
39.952699
 30
0.0
 40
0.8
100
AcDbArc
 50
91.533057
 51
287.950783
  0
ARC
  5
3EA
100
AcDbEntity
  8
2
100
AcDbCircle
 10
-148.28672
 20
35.448104
 30
0.0
 40
0.8
100
AcDbArc
 50
107.713107
 51
287.713107
  0
LINE
  5
3EB
100
AcDbEntity
  8
2
100
AcDbLine
 10
-148.692798
 20
33.121443
 30
0.0
 11
-133.155661
 21
36.638051
 31
0.0
  0
LINE
  5
3EC
100
AcDbEntity
  8
2
100
AcDbLine
 10
-132.802458
 20
35.077523
 30
0.0
 11
-148.339594
 21
31.560915
 31
0.0
  0
LINE
  5
3ED
100
AcDbEntity
  8
2
100
AcDbLine
 10
-133.000463
 20
36.657501
 30
0.0
 11
-134.255746
 21
36.623905
 31
0.0
  0
LINE
  5
3EE
100
AcDbEntity
  8
2
100
AcDbLine
 10
-148.530121
 20
36.210177
 30
0.0
 11
-133.152314
 21
41.121738
 31
0.0
  0
LINE
  5
3EF
100
AcDbEntity
  8
2
100
AcDbLine
 10
-132.665513
 20
39.597591
 30
0.0
 11
-148.043319
 21
34.68603
 31
0.0
  0
LINE
  5
3F0
100
AcDbEntity
  8
2
100
AcDbLine
 10
-148.361588
 20
40.713756
 30
0.0
 11
-133.220625
 21
45.618978
 31
0.0
  0
LINE
  5
3F1
100
AcDbEntity
  8
2
100
AcDbLine
 10
-132.727505
 20
44.096864
 30
0.0
 11
-147.868468
 21
39.191642
 31
0.0
  0
LINE
  5
3F2
100
AcDbEntity
  8
2
100
AcDbLine
 10
-148.381452
 20
45.208475
 30
0.0
 11
-133.452888
 21
50.382013
 31
0.0
  0
LINE
  5
3F3
100
AcDbEntity
  8
2
100
AcDbLine
 10
-132.928972
 20
48.870221
 30
0.0
 11
-147.857537
 21
43.696684
 31
0.0
  0
LINE
  5
3F4
100
AcDbEntity
  8
2
100
AcDbLine
 10
-148.60189
 20
49.688444
 30
0.0
 11
-133.915147
 21
55.682681
 31
0.0
  0
LINE
  5
3F5
100
AcDbEntity
  8
2
100
AcDbLine
 10
-133.310542
 20
54.201313
 30
0.0
 11
-147.997285
 21
48.207075
 31
0.0
  0
LINE
  5
3F6
100
AcDbEntity
  8
2
100
AcDbLine
 10
-149.005457
 20
54.630127
 30
0.0
 11
-134.478386
 21
60.603515
 31
0.0
  0
LINE
  5
3F7
100
AcDbEntity
  8
2
100
AcDbLine
 10
-148.396984
 20
53.150343
 30
0.0
 11
-133.869913
 21
59.123731
 31
0.0
  0
LINE
  5
3F8
100
AcDbEntity
  8
2
100
AcDbLine
 10
-149.577479
 20
59.10634
 30
0.0
 11
-148.855532
 21
59.427738
 31
0.0
  0
LINE
  5
3F9
100
AcDbEntity
  8
2
100
AcDbLine
 10
-148.926757
 20
57.644642
 30
0.0
 11
-139.467965
 21
61.855528
 31
0.0
  0
LINE
  5
3FA
100
AcDbEntity
  8
2
100
AcDbLine
 10
-132.930316
 20
41.159378
 30
0.0
 11
-134.098456
 21
41.128115
 31
0.0
  0
LINE
  5
3FB
100
AcDbEntity
  8
2
100
AcDbLine
 10
-147.174494
 20
39.177584
 30
0.0
 11
-148.093625
 21
39.152985
 31
0.0
  0
LINE
  5
3FC
100
AcDbEntity
  8
2
100
AcDbLine
 10
-138.496216
 20
43.909843
 30
0.0
 11
-148.098092
 21
43.652866
 31
0.0
  0
LINE
  5
3FD
100
AcDbEntity
  8
2
100
AcDbLine
 10
-142.969346
 20
45.390701
 30
0.0
 11
-132.995468
 21
45.657634
 31
0.0
  0
LINE
  5
3FE
100
AcDbEntity
  8
2
100
AcDbLine
 10
-138.652426
 20
48.580098
 30
0.0
 11
-148.263705
 21
48.148565
 31
0.0
  0
LINE
  5
3FF
100
AcDbEntity
  8
2
100
AcDbLine
 10
-143.716204
 20
49.954353
 30
0.0
 11
-133.226813
 21
50.425312
 31
0.0
  0
LINE
  5
400
100
AcDbEntity
  8
2
100
AcDbLine
 10
-138.535559
 20
53.796909
 30
0.0
 11
-148.64559
 21
53.092172
 31
0.0
  0
LINE
  5
401
100
AcDbEntity
  8
2
100
AcDbLine
 10
-143.819775
 20
55.032446
 30
0.0
 11
-133.668475
 21
55.74006
 31
0.0
  0
LINE
  5
402
100
AcDbEntity
  8
2
100
AcDbLine
 10
-139.514656
 20
58.532651
 30
0.0
 11
-149.173543
 21
57.57936
 31
0.0
  0
LINE
  5
403
100
AcDbEntity
  8
2
100
AcDbLine
 10
-144.404653
 20
59.657803
 30
0.0
 11
-134.252724
 21
60.659755
 31
0.0
  0
LINE
  5
404
100
AcDbEntity
  8
2
100
AcDbLine
 10
-134.394663
 20
32.645852
 30
0.0
 11
-133.130281
 21
32.601458
 31
0.0
  0
LINE
  5
405
100
AcDbEntity
  8
2
100
AcDbLine
 10
-147.331784
 20
34.673375
 30
0.0
 11
-148.265317
 21
34.64839
 31
0.0
  0
LINE
  5
406
100
AcDbEntity
  8
2
100
AcDbLine
 10
-376.081424
 20
26.749536
 30
0.0
 11
-397.208154
 21
21.048113
 31
0.0
  0
LINE
  5
407
100
AcDbEntity
  8
2
100
AcDbLine
 10
-340.807716
 20
15.274024
 30
0.0
 11
-340.807716
 21
31.770332
 31
0.0
  0
ARC
  5
408
100
AcDbEntity
  8
2
100
AcDbCircle
 10
-335.807716
 20
31.770332
 30
0.0
 40
5.0
100
AcDbArc
 50
102.0
 51
180.0
  0
LINE
  5
409
100
AcDbEntity
  8
2
100
AcDbLine
 10
-300.255819
 20
5.274024
 30
0.0
 11
-300.255819
 21
3.274024
 31
0.0
  0
LINE
  5
40A
100
AcDbEntity
  8
2
100
AcDbLine
 10
-265.282075
 20
3.274024
 30
0.0
 11
-265.282075
 21
5.274024
 31
0.0
  0
LINE
  5
40B
100
AcDbEntity
  8
2
100
AcDbLine
 10
-265.282075
 20
3.274024
 30
0.0
 11
-415.415626
 21
3.274024
 31
0.0
  0
LINE
  5
40C
100
AcDbEntity
  8
2
100
AcDbLine
 10
-415.415626
 20
5.274024
 30
0.0
 11
-265.282075
 21
5.274024
 31
0.0
  0
LINE
  5
40D
100
AcDbEntity
  8
2
100
AcDbLine
 10
-415.415626
 20
5.274024
 30
0.0
 11
-415.415626
 21
3.274024
 31
0.0
  0
LINE
  5
40E
100
AcDbEntity
  8
2
100
AcDbLine
 10
171.989928
 20
12.274023
 30
0.0
 11
154.98993
 21
12.274023
 31
0.0
  0
LINE
  5
40F
100
AcDbEntity
  8
2
100
AcDbLine
 10
171.989928
 20
5.274024
 30
0.0
 11
171.989928
 21
12.274023
 31
0.0
  0
ARC
  5
410
100
AcDbEntity
  8
2
100
AcDbCircle
 10
167.73993
 20
1.734588
 30
0.0
 40
10.539435
100
AcDbArc
 50
66.218654
 51
113.781346
  0
LINE
  5
411
100
AcDbEntity
  8
2
100
AcDbLine
 10
154.98993
 20
5.274024
 30
0.0
 11
154.98993
 21
12.274023
 31
0.0
  0
ARC
  5
412
100
AcDbEntity
  8
2
100
AcDbCircle
 10
159.239928
 20
1.734588
 30
0.0
 40
10.539435
100
AcDbArc
 50
66.218654
 51
113.781346
  0
LINE
  5
413
100
AcDbEntity
  8
2
100
AcDbLine
 10
163.489929
 20
11.379132
 30
0.0
 11
163.489929
 21
5.274024
 31
0.0
  0
LINE
  5
414
100
AcDbEntity
  8
2
100
AcDbLine
 10
82.865037
 20
5.274024
 30
0.0
 11
82.865037
 21
12.274023
 31
0.0
  0
LINE
  5
415
100
AcDbEntity
  8
2
100
AcDbLine
 10
82.865037
 20
12.274023
 30
0.0
 11
99.865038
 21
12.274023
 31
0.0
  0
ARC
  5
416
100
AcDbEntity
  8
2
100
AcDbCircle
 10
87.115038
 20
1.734588
 30
0.0
 40
10.539435
100
AcDbArc
 50
66.218654
 51
113.781346
  0
ARC
  5
417
100
AcDbEntity
  8
2
100
AcDbCircle
 10
95.615037
 20
1.734588
 30
0.0
 40
10.539435
100
AcDbArc
 50
66.218654
 51
113.781346
  0
LINE
  5
418
100
AcDbEntity
  8
2
100
AcDbLine
 10
91.365039
 20
11.379132
 30
0.0
 11
91.365039
 21
5.274024
 31
0.0
  0
LINE
  5
419
100
AcDbEntity
  8
2
100
AcDbLine
 10
99.865038
 20
5.274024
 30
0.0
 11
99.865038
 21
12.274023
 31
0.0
  0
LINE
  5
41A
100
AcDbEntity
  8
2
100
AcDbLine
 10
119.932299
 20
54.674297
 30
0.0
 11
135.132299
 21
57.924073
 31
0.0
  0
LINE
  5
41B
100
AcDbEntity
  8
2
  6
CENTER
 62
     2
100
AcDbLine
 10
149.035208
 20
45.274024
 30
0.0
 11
105.609303
 21
45.274024
 31
0.0
  0
LINE
  5
41C
100
AcDbEntity
  8
2
  6
CENTER
 62
     2
100
AcDbLine
 10
117.495002
 20
22.274024
 30
0.0
 11
89.914362
 21
22.274024
 31
0.0
  0
LINE
  5
41D
100
AcDbEntity
  8
2
  6
CENTER
 62
     2
100
AcDbLine
 10
149.035208
 20
45.274024
 30
0.0
 11
105.609303
 21
45.274024
 31
0.0
  0
LINE
  5
41E
100
AcDbEntity
  8
2
100
AcDbLine
 10
143.865038
 20
41.274024
 30
0.0
 11
143.365038
 21
41.274024
 31
0.0
  0
LINE
  5
41F
100
AcDbEntity
  8
2
100
AcDbLine
 10
142.365038
 20
14.274024
 30
0.0
 11
142.365038
 21
15.274024
 31
0.0
  0
LINE
  5
420
100
AcDbEntity
  8
2
100
AcDbLine
 10
143.365038
 20
31.274024
 30
0.0
 11
143.365038
 21
47.276163
 31
0.0
  0
ARC
  5
421
100
AcDbEntity
  8
2
100
AcDbCircle
 10
142.865038
 20
47.276163
 30
0.0
 40
0.5
100
AcDbArc
 50
0.0
 51
90.0
  0
ARC
  5
422
100
AcDbEntity
  8
2
100
AcDbCircle
 10
142.972981
 20
48.536759
 30
0.0
 40
0.768217
100
AcDbArc
 50
199.829456
 51
261.922631
  0
LINE
  5
423
100
AcDbEntity
  8
2
100
AcDbLine
 10
142.250314
 20
48.276163
 30
0.0
 11
142.250314
 21
38.274024
 31
0.0
  0
LINE
  5
424
100
AcDbEntity
  8
2
100
AcDbLine
 10
140.019799
 20
22.589351
 30
0.0
 11
139.442394
 21
30.274024
 31
0.0
  0
ARC
  5
425
100
AcDbEntity
  8
2
100
AcDbCircle
 10
143.84477
 20
17.182929
 30
0.0
 40
1.0
100
AcDbArc
 50
270.0
 51
4.281504
  0
ARC
  5
426
100
AcDbEntity
  8
2
100
AcDbCircle
 10
143.250314
 20
38.274024
 30
0.0
 40
1.0
100
AcDbArc
 50
180.0
 51
270.0
  0
ARC
  5
427
100
AcDbEntity
  8
2
100
AcDbCircle
 10
139.02261
 20
22.514425
 30
0.0
 40
1.0
100
AcDbArc
 50
301.28895
 51
4.296975
  0
LINE
  5
428
100
AcDbEntity
  8
2
100
AcDbLine
 10
142.365038
 20
30.274024
 30
0.0
 11
135.565038
 21
30.274024
 31
0.0
  0
ARC
  5
429
100
AcDbEntity
  8
2
100
AcDbCircle
 10
142.365038
 20
31.274024
 30
0.0
 40
1.0
100
AcDbArc
 50
270.0
 51
360.0
  0
ARC
  5
42A
100
AcDbEntity
  8
2
100
AcDbCircle
 10
135.565038
 20
31.274024
 30
0.0
 40
1.0
100
AcDbArc
 50
180.0
 51
270.0
  0
LINE
  5
42B
100
AcDbEntity
  8
2
100
AcDbLine
 10
137.631083
 20
43.398368
 30
0.0
 11
135.314658
 21
42.7993
 31
0.0
  0
ARC
  5
42C
100
AcDbEntity
  8
2
100
AcDbCircle
 10
135.565038
 20
41.831153
 30
0.0
 40
1.0
100
AcDbArc
 50
104.5
 51
118.215328
  0
LINE
  5
42D
100
AcDbEntity
  8
2
100
AcDbLine
 10
134.565038
 20
31.274024
 30
0.0
 11
134.565038
 21
32.446495
 31
0.0
  0
ARC
  5
42E
100
AcDbEntity
  8
2
100
AcDbCircle
 10
137.380703
 20
44.366516
 30
0.0
 40
1.0
100
AcDbArc
 50
284.5
 51
4.296975
  0
ARC
  5
42F
100
AcDbEntity
  8
2
100
AcDbCircle
 10
127.365038
 20
30.786189
 30
0.0
 40
53.955821
100
AcDbArc
 50
78.453639
 51
101.653235
  0
ARC
  5
430
100
AcDbEntity
  8
2
100
AcDbCircle
 10
134.457989
 20
83.264842
 30
0.0
 40
1.0
100
AcDbArc
 50
4.296975
 51
82.302618
  0
ARC
  5
431
100
AcDbEntity
  8
2
100
AcDbCircle
 10
120.272087
 20
83.264842
 30
0.0
 40
1.0
100
AcDbArc
 50
97.697382
 51
175.703025
  0
LINE
  5
432
100
AcDbEntity
  8
2
100
AcDbLine
 10
116.352184
 20
44.441442
 30
0.0
 11
119.274898
 21
83.339768
 31
0.0
  0
ARC
  5
433
100
AcDbEntity
  8
2
100
AcDbCircle
 10
117.349373
 20
44.366516
 30
0.0
 40
1.0
100
AcDbArc
 50
175.703025
 51
255.5
  0
LINE
  5
434
100
AcDbEntity
  8
2
100
AcDbLine
 10
120.165038
 20
31.274024
 30
0.0
 11
120.165038
 21
33.447042
 31
0.0
  0
ARC
  5
435
100
AcDbEntity
  8
2
100
AcDbCircle
 10
119.165038
 20
41.831153
 30
0.0
 40
1.0
100
AcDbArc
 50
0.0
 51
17.265212
  0
LINE
  5
436
100
AcDbEntity
  8
2
100
AcDbLine
 10
117.098993
 20
43.398368
 30
0.0
 11
118.965957
 21
42.915539
 31
0.0
  0
ARC
  5
437
100
AcDbEntity
  8
2
100
AcDbCircle
 10
119.165038
 20
31.274024
 30
0.0
 40
1.0
100
AcDbArc
 50
270.0
 51
360.0
  0
ARC
  5
438
100
AcDbEntity
  8
2
100
AcDbCircle
 10
112.365038
 20
31.274024
 30
0.0
 40
1.0
100
AcDbArc
 50
180.0
 51
270.0
  0
LINE
  5
439
100
AcDbEntity
  8
2
100
AcDbLine
 10
112.365038
 20
30.274024
 30
0.0
 11
119.165038
 21
30.274024
 31
0.0
  0
ARC
  5
43A
100
AcDbEntity
  8
2
100
AcDbCircle
 10
143.865038
 20
17.182929
 30
0.0
 40
1.0
100
AcDbArc
 50
270.0
 51
360.0
  0
ARC
  5
43B
100
AcDbEntity
  8
2
100
AcDbCircle
 10
115.707467
 20
22.514425
 30
0.0
 40
1.0
100
AcDbArc
 50
175.703025
 51
238.71105
  0
ARC
  5
43C
100
AcDbEntity
  8
2
100
AcDbCircle
 10
127.365038
 20
41.696095
 30
0.0
 40
23.446279
100
AcDbArc
 50
238.71105
 51
252.885046
  0
LINE
  5
43D
100
AcDbEntity
  8
2
100
AcDbLine
 10
134.565038
 20
53.541094
 30
0.0
 11
134.565038
 21
51.506425
 31
0.0
  0
ARC
  5
43E
100
AcDbEntity
  8
2
100
AcDbCircle
 10
131.565038
 20
54.747218
 30
0.0
 40
3.0
100
AcDbArc
 50
9.787427
 51
58.915644
  0
ARC
  5
43F
100
AcDbEntity
  8
2
100
AcDbCircle
 10
111.479763
 20
38.274024
 30
0.0
 40
1.0
100
AcDbArc
 50
270.0
 51
360.0
  0
LINE
  5
440
100
AcDbEntity
  8
2
100
AcDbLine
 10
142.54816
 20
47.896693
 30
0.0
 11
139.313622
 21
91.101211
 31
0.0
  0
LINE
  5
441
100
AcDbEntity
  8
2
100
AcDbLine
 10
109.365038
 20
16.182929
 30
0.0
 11
120.465038
 21
16.182929
 31
0.0
  0
ARC
  5
442
100
AcDbEntity
  8
2
100
AcDbCircle
 10
110.885307
 20
17.182929
 30
0.0
 40
1.0
100
AcDbArc
 50
175.718496
 51
270.0
  0
ARC
  5
443
100
AcDbEntity
  8
2
100
AcDbCircle
 10
116.795038
 20
33.474024
 30
0.0
 40
8.43
100
AcDbArc
 50
130.100336
 51
180.0
  0
LINE
  5
444
100
AcDbEntity
  8
2
100
AcDbLine
 10
112.181917
 20
47.896693
 30
0.0
 11
115.416455
 21
91.101211
 31
0.0
  0
ARC
  5
445
100
AcDbEntity
  8
2
100
AcDbCircle
 10
109.365038
 20
17.182929
 30
0.0
 40
1.0
100
AcDbArc
 50
180.0
 51
270.0
  0
LINE
  5
446
100
AcDbEntity
  8
2
100
AcDbLine
 10
114.710277
 20
22.589351
 30
0.0
 11
115.287683
 21
30.274024
 31
0.0
  0
LINE
  5
447
100
AcDbEntity
  8
2
100
AcDbLine
 10
138.377893
 20
44.441442
 30
0.0
 11
135.455178
 21
83.339768
 31
0.0
  0
LINE
  5
448
100
AcDbEntity
  8
2
100
AcDbLine
 10
108.365038
 20
15.274024
 30
0.0
 11
108.365038
 21
33.474024
 31
0.0
  0
LINE
  5
449
100
AcDbEntity
  8
2
100
AcDbLine
 10
120.165038
 20
54.235839
 30
0.0
 11
120.165038
 21
52.592967
 31
0.0
  0
ARC
  5
44A
100
AcDbEntity
  8
2
100
AcDbCircle
 10
119.165038
 20
54.235839
 30
0.0
 40
1.0
100
AcDbArc
 50
0.0
 51
23.414798
  0
LINE
  5
44B
100
AcDbEntity
  8
2
100
AcDbLine
 10
107.365038
 20
15.274024
 30
0.0
 11
120.465038
 21
15.274024
 31
0.0
  0
LINE
  5
44C
100
AcDbEntity
  8
2
100
AcDbLine
 10
111.365038
 20
41.274024
 30
0.0
 11
108.365038
 21
41.274024
 31
0.0
  0
LINE
  5
44D
100
AcDbEntity
  8
2
100
AcDbLine
 10
144.748502
 20
18.506179
 30
0.0
 11
143.365038
 21
36.985446
 31
0.0
  0
ARC
  5
44E
100
AcDbEntity
  8
2
100
AcDbCircle
 10
127.365038
 20
99.809777
 30
0.0
 40
37.225083
100
AcDbArc
 50
260.989975
 51
279.010025
  0
ARC
  5
44F
100
AcDbEntity
  8
2
100
AcDbCircle
 10
127.365038
 20
39.317472
 30
0.0
 40
24.432244
100
AcDbArc
 50
76.195627
 51
103.804373
  0
LINE
  5
450
100
AcDbEntity
  8
2
100
AcDbLine
 10
133.865038
 20
63.714297
 30
0.0
 11
133.194757
 21
63.044016
 31
0.0
  0
LINE
  5
451
100
AcDbEntity
  8
2
100
AcDbLine
 10
121.464397
 20
63.114939
 30
0.0
 11
121.53532
 21
63.044016
 31
0.0
  0
ARC
  5
452
100
AcDbEntity
  8
2
100
AcDbCircle
 10
127.365038
 20
19.877904
 30
0.0
 40
52.194665
100
AcDbArc
 50
83.049623
 51
96.849881
  0
LINE
  5
453
100
AcDbEntity
  8
2
100
AcDbLine
 10
133.865038
 20
69.461807
 30
0.0
 11
133.865038
 21
67.015748
 31
0.0
  0
ARC
  5
454
100
AcDbEntity
  8
2
100
AcDbCircle
 10
135.365038
 20
69.955836
 30
0.0
 40
1.5
100
AcDbArc
 50
90.0
 51
121.105665
  0
ARC
  5
455
100
AcDbEntity
  8
2
100
AcDbCircle
 10
119.365038
 20
69.955836
 30
0.0
 40
1.5
100
AcDbArc
 50
0.0
 51
90.0
  0
LINE
  5
456
100
AcDbEntity
  8
2
100
AcDbLine
 10
120.865038
 20
69.955836
 30
0.0
 11
120.865038
 21
68.473337
 31
0.0
  0
LINE
  5
457
100
AcDbEntity
  8
2
100
AcDbLine
 10
112.479763
 20
48.276163
 30
0.0
 11
112.479763
 21
38.274024
 31
0.0
  0
ARC
  5
458
100
AcDbEntity
  8
2
100
AcDbCircle
 10
111.757096
 20
48.536759
 30
0.0
 40
0.768217
100
AcDbArc
 50
278.077369
 51
340.170544
  0
ARC
  5
459
100
AcDbEntity
  8
2
100
AcDbCircle
 10
111.865038
 20
47.276163
 30
0.0
 40
0.5
100
AcDbArc
 50
90.0
 51
180.0
  0
LINE
  5
45A
100
AcDbEntity
  8
2
100
AcDbLine
 10
139.365038
 20
90.386003
 30
0.0
 11
139.365038
 21
84.629873
 31
0.0
  0
ARC
  5
45B
100
AcDbEntity
  8
2
100
AcDbCircle
 10
134.365038
 20
90.386003
 30
0.0
 40
5.0
100
AcDbArc
 50
0.0
 51
86.687439
  0
ARC
  5
45C
100
AcDbEntity
  8
2
100
AcDbCircle
 10
138.365038
 20
84.629873
 30
0.0
 40
1.0
100
AcDbArc
 50
258.453639
 51
360.0
  0
ARC
  5
45D
100
AcDbEntity
  8
2
100
AcDbCircle
 10
116.365038
 20
84.629873
 30
0.0
 40
1.0
100
AcDbArc
 50
180.0
 51
281.546361
  0
LINE
  5
45E
100
AcDbEntity
  8
2
100
AcDbLine
 10
109.888097
 20
17.257586
 30
0.0
 11
111.365038
 21
36.985446
 31
0.0
  0
ARC
  5
45F
100
AcDbEntity
  8
2
100
AcDbCircle
 10
120.365038
 20
90.386003
 30
0.0
 40
5.0
100
AcDbArc
 50
93.312561
 51
180.0
  0
ARC
  5
460
100
AcDbEntity
  8
2
100
AcDbCircle
 10
127.365038
 20
-30.554705
 30
0.0
 40
126.143118
100
AcDbArc
 50
86.687439
 51
93.312561
  0
LINE
  5
461
100
AcDbEntity
  8
2
100
AcDbLine
 10
111.365038
 20
31.274024
 30
0.0
 11
111.365038
 21
47.276163
 31
0.0
  0
LINE
  5
462
100
AcDbEntity
  8
2
100
AcDbLine
 10
115.365038
 20
90.386003
 30
0.0
 11
115.365038
 21
84.629873
 31
0.0
  0
LINE
  5
463
100
AcDbEntity
  8
2
100
AcDbLine
 10
112.365038
 20
14.274024
 30
0.0
 11
112.365038
 21
15.274024
 31
0.0
  0
LINE
  5
464
100
AcDbEntity
  8
2
100
AcDbLine
 10
144.865038
 20
15.274024
 30
0.0
 11
144.865038
 21
40.274024
 31
0.0
  0
LINE
  5
465
100
AcDbEntity
  8
2
100
AcDbLine
 10
143.865038
 20
41.274024
 30
0.0
 11
144.865038
 21
40.274024
 31
0.0
  0
LINE
  5
466
100
AcDbEntity
  8
2
100
AcDbLine
 10
112.365038
 20
14.274024
 30
0.0
 11
120.465038
 21
14.274024
 31
0.0
  0
LINE
  5
467
100
AcDbEntity
  8
2
100
AcDbLine
 10
107.365038
 20
40.274024
 30
0.0
 11
107.365038
 21
15.274024
 31
0.0
  0
ARC
  5
468
100
AcDbEntity
  8
2
100
AcDbCircle
 10
108.365038
 20
40.274024
 30
0.0
 40
1.0
100
AcDbArc
 50
90.0
 51
180.0
  0
LINE
  5
469
100
AcDbEntity
  8
2
100
AcDbLine
 10
134.265038
 20
16.182929
 30
0.0
 11
143.865038
 21
16.182929
 31
0.0
  0
LINE
  5
46A
100
AcDbEntity
  8
2
100
AcDbLine
 10
134.265038
 20
15.274024
 30
0.0
 11
144.865038
 21
15.274024
 31
0.0
  0
LINE
  5
46B
100
AcDbEntity
  8
2
100
AcDbLine
 10
134.265038
 20
14.274024
 30
0.0
 11
142.365038
 21
14.274024
 31
0.0
  0
ARC
  5
46C
100
AcDbEntity
  8
2
100
AcDbCircle
 10
127.365038
 20
41.696095
 30
0.0
 40
23.446279
100
AcDbArc
 50
287.114954
 51
301.28895
  0
LINE
  5
46D
100
AcDbEntity
  8
2
100
AcDbLine
 10
120.165038
 20
35.175583
 30
0.0
 11
120.165038
 21
37.619418
 31
0.0
  0
LINE
  5
46E
100
AcDbEntity
  8
2
100
AcDbLine
 10
120.165038
 20
39.360452
 30
0.0
 11
120.165038
 21
41.831153
 31
0.0
  0
LINE
  5
46F
100
AcDbEntity
  8
2
100
AcDbLine
 10
120.165038
 20
46.347529
 30
0.0
 11
120.165038
 21
43.855294
 31
0.0
  0
LINE
  5
470
100
AcDbEntity
  8
2
100
AcDbLine
 10
120.165038
 20
50.879826
 30
0.0
 11
120.165038
 21
48.089585
 31
0.0
  0
LINE
  5
471
100
AcDbEntity
  8
2
100
AcDbLine
 10
134.565038
 20
34.042825
 30
0.0
 11
134.565038
 21
36.517475
 31
0.0
  0
LINE
  5
472
100
AcDbEntity
  8
2
100
AcDbLine
 10
134.565038
 20
38.246017
 30
0.0
 11
134.565038
 21
41.010455
 31
0.0
  0
LINE
  5
473
100
AcDbEntity
  8
2
100
AcDbLine
 10
134.565038
 20
49.764369
 30
0.0
 11
134.565038
 21
46.974128
 31
0.0
  0
LINE
  5
474
100
AcDbEntity
  8
2
100
AcDbLine
 10
133.865038
 20
65.389066
 30
0.0
 11
133.865038
 21
63.714297
 31
0.0
  0
LINE
  5
475
100
AcDbEntity
  8
2
100
AcDbLine
 10
120.865038
 20
66.84115
 30
0.0
 11
120.865038
 21
64.631707
 31
0.0
  0
LINE
  5
476
100
AcDbEntity
  8
2
100
AcDbLine
 10
133.365038
 20
14.270569
 30
0.0
 11
133.365038
 21
32.759549
 31
0.0
  0
LINE
  5
477
100
AcDbEntity
  8
2
100
AcDbLine
 10
121.365038
 20
14.270569
 30
0.0
 11
121.365038
 21
32.759549
 31
0.0
  0
LINE
  5
478
100
AcDbEntity
  8
2
100
AcDbLine
 10
134.265038
 20
6.547772
 30
0.0
 11
133.365038
 21
5.647772
 31
0.0
  0
ARC
  5
479
100
AcDbEntity
  8
2
100
AcDbCircle
 10
122.365038
 20
44.782296
 30
0.0
 40
1.0
100
AcDbArc
 50
90.0
 51
180.0
  0
ARC
  5
47A
100
AcDbEntity
  8
2
100
AcDbCircle
 10
132.365038
 20
44.782296
 30
0.0
 40
1.0
100
AcDbArc
 50
0.0
 51
11.831031
  0
LINE
  5
47B
100
AcDbEntity
  8
2
100
AcDbLine
 10
122.365038
 20
45.782296
 30
0.0
 11
129.343317
 21
45.782296
 31
0.0
  0
LINE
  5
47C
100
AcDbEntity
  8
2
100
AcDbLine
 10
120.465038
 20
6.547772
 30
0.0
 11
121.365038
 21
5.647772
 31
0.0
  0
LINE
  5
47D
100
AcDbEntity
  8
2
100
AcDbLine
 10
133.365038
 20
-0.725976
 30
0.0
 11
133.365038
 21
5.647772
 31
0.0
  0
ARC
  5
47E
100
AcDbEntity
  8
2
100
AcDbCircle
 10
132.365038
 20
30.510143
 30
0.0
 40
1.0
100
AcDbArc
 50
0.0
 51
90.0
  0
LINE
  5
47F
100
AcDbEntity
  8
2
100
AcDbLine
 10
121.365038
 20
-0.725976
 30
0.0
 11
121.365038
 21
5.647772
 31
0.0
  0
ARC
  5
480
100
AcDbEntity
  8
2
100
AcDbCircle
 10
122.365038
 20
30.510143
 30
0.0
 40
1.0
100
AcDbArc
 50
90.0
 51
180.0
  0
LINE
  5
481
100
AcDbEntity
  8
2
100
AcDbLine
 10
122.365038
 20
13.270569
 30
0.0
 11
132.365038
 21
13.270569
 31
0.0
  0
ARC
  5
482
100
AcDbEntity
  8
2
100
AcDbCircle
 10
132.365038
 20
14.270569
 30
0.0
 40
1.0
100
AcDbArc
 50
270.0
 51
360.0
  0
ARC
  5
483
100
AcDbEntity
  8
2
100
AcDbCircle
 10
122.365038
 20
14.270569
 30
0.0
 40
1.0
100
AcDbArc
 50
180.0
 51
270.0
  0
LINE
  5
484
100
AcDbEntity
  8
2
100
AcDbLine
 10
122.365038
 20
31.510143
 30
0.0
 11
132.365038
 21
31.510143
 31
0.0
  0
LINE
  5
485
100
AcDbEntity
  8
2
100
AcDbLine
 10
133.365038
 20
43.264804
 30
0.0
 11
133.365038
 21
44.782296
 31
0.0
  0
LINE
  5
486
100
AcDbEntity
  8
2
100
AcDbLine
 10
121.365038
 20
44.107237
 30
0.0
 11
121.365038
 21
44.782296
 31
0.0
  0
ARC
  5
487
100
AcDbEntity
  8
2
100
AcDbCircle
 10
127.365038
 20
111.849186
 30
0.0
 40
80.838818
100
AcDbArc
 50
274.256508
 51
274.611956
  0
ARC
  5
488
100
AcDbEntity
  8
2
100
AcDbCircle
 10
127.365038
 20
111.849186
 30
0.0
 40
80.838818
100
AcDbArc
 50
265.388044
 51
265.743492
  0
ARC
  5
489
100
AcDbEntity
  8
2
100
AcDbCircle
 10
132.365038
 20
32.759549
 30
0.0
 40
1.0
100
AcDbArc
 50
0.0
 51
90.0
  0
ARC
  5
48A
100
AcDbEntity
  8
2
100
AcDbCircle
 10
122.365038
 20
32.759549
 30
0.0
 40
1.0
100
AcDbArc
 50
90.0
 51
180.0
  0
LINE
  5
48B
100
AcDbEntity
  8
2
100
AcDbLine
 10
122.365038
 20
33.759549
 30
0.0
 11
132.365038
 21
33.759549
 31
0.0
  0
LINE
  5
48C
100
AcDbEntity
  8
2
100
AcDbLine
 10
133.865038
 20
40.850463
 30
0.0
 11
133.865038
 21
38.006628
 31
0.0
  0
LINE
  5
48D
100
AcDbEntity
  8
2
100
AcDbLine
 10
133.365038
 20
43.264804
 30
0.0
 11
133.763432
 21
42.4685
 31
0.0
  0
LINE
  5
48E
100
AcDbEntity
  8
2
100
AcDbLine
 10
120.865038
 20
42.367377
 30
0.0
 11
120.865038
 21
39.520444
 31
0.0
  0
LINE
  5
48F
100
AcDbEntity
  8
2
100
AcDbLine
 10
120.465038
 20
50.274024
 30
0.0
 11
120.465038
 21
48.158682
 31
0.0
  0
ARC
  5
490
100
AcDbEntity
  8
2
100
AcDbCircle
 10
122.365038
 20
-0.725976
 30
0.0
 40
1.0
100
AcDbArc
 50
180.0
 51
270.0
  0
LINE
  5
491
100
AcDbEntity
  8
2
100
AcDbLine
 10
122.365038
 20
-1.725976
 30
0.0
 11
132.365038
 21
-1.725976
 31
0.0
  0
ARC
  5
492
100
AcDbEntity
  8
2
100
AcDbCircle
 10
132.365038
 20
-0.725976
 30
0.0
 40
1.0
100
AcDbArc
 50
270.0
 51
360.0
  0
LINE
  5
493
100
AcDbEntity
  8
2
100
AcDbLine
 10
134.265038
 20
49.695272
 30
0.0
 11
134.265038
 21
46.994484
 31
0.0
  0
LINE
  5
494
100
AcDbEntity
  8
2
100
AcDbLine
 10
120.465038
 20
33.426686
 30
0.0
 11
120.465038
 21
6.547772
 31
0.0
  0
LINE
  5
495
100
AcDbEntity
  8
2
100
AcDbLine
 10
120.865038
 20
33.68643
 30
0.0
 11
120.865038
 21
31.272114
 31
0.0
  0
LINE
  5
496
100
AcDbEntity
  8
2
100
AcDbLine
 10
120.465038
 20
37.599062
 30
0.0
 11
120.465038
 21
35.237577
 31
0.0
  0
LINE
  5
497
100
AcDbEntity
  8
2
100
AcDbLine
 10
120.865038
 20
37.879184
 30
0.0
 11
120.865038
 21
35.320235
 31
0.0
  0
LINE
  5
498
100
AcDbEntity
  8
2
100
AcDbLine
 10
120.465038
 20
42.104534
 30
0.0
 11
120.465038
 21
39.42902
 31
0.0
  0
LINE
  5
499
100
AcDbEntity
  8
2
100
AcDbLine
 10
120.465038
 20
46.327173
 30
0.0
 11
120.465038
 21
43.918279
 31
0.0
  0
ARC
  5
49A
100
AcDbEntity
  8
2
100
AcDbCircle
 10
121.465038
 20
50.274024
 30
0.0
 40
1.0
100
AcDbArc
 50
145.02678
 51
180.0
  0
LINE
  5
49B
100
AcDbEntity
  8
2
100
AcDbLine
 10
133.865038
 20
32.446495
 30
0.0
 11
133.865038
 21
31.272114
 31
0.0
  0
LINE
  5
49C
100
AcDbEntity
  8
2
100
AcDbLine
 10
134.265038
 20
32.446495
 30
0.0
 11
134.265038
 21
6.547772
 31
0.0
  0
LINE
  5
49D
100
AcDbEntity
  8
2
100
AcDbLine
 10
133.865038
 20
36.372823
 30
0.0
 11
133.865038
 21
34.042825
 31
0.0
  0
LINE
  5
49E
100
AcDbEntity
  8
2
100
AcDbLine
 10
134.265038
 20
36.455482
 30
0.0
 11
134.265038
 21
34.042825
 31
0.0
  0
LINE
  5
49F
100
AcDbEntity
  8
2
100
AcDbLine
 10
134.265038
 20
40.941887
 30
0.0
 11
134.265038
 21
38.266372
 31
0.0
  0
LINE
  5
4A0
100
AcDbEntity
  8
2
100
AcDbLine
 10
134.265038
 20
45.180739
 30
0.0
 11
134.265038
 21
42.771845
 31
0.0
  0
ARC
  5
4A1
100
AcDbEntity
  8
2
100
AcDbCircle
 10
134.965038
 20
70.499648
 30
0.0
 40
0.8
100
AcDbArc
 50
281.397445
 51
101.397445
  0
LINE
  5
4A2
100
AcDbEntity
  8
2
100
AcDbLine
 10
107.365038
 20
15.274024
 30
0.0
 11
107.365038
 21
28.774024
 31
0.0
  0
LINE
  5
4A3
100
AcDbEntity
  8
2
100
AcDbLine
 10
107.365038
 20
15.274024
 30
0.0
 11
107.365038
 21
28.774024
 31
0.0
  0
ARC
  5
4A4
100
AcDbEntity
  8
2
100
AcDbCircle
 10
134.965038
 20
66.404134
 30
0.0
 40
0.8
100
AcDbArc
 50
280.391878
 51
100.391878
  0
ARC
  5
4A5
100
AcDbEntity
  8
2
100
AcDbCircle
 10
134.965038
 20
62.585277
 30
0.0
 40
0.8
100
AcDbArc
 50
280.610631
 51
100.610631
  0
ARC
  5
4A6
100
AcDbEntity
  8
2
100
AcDbCircle
 10
134.965038
 20
58.706393
 30
0.0
 40
0.8
100
AcDbArc
 50
282.068205
 51
102.068205
  0
ARC
  5
4A7
100
AcDbEntity
  8
2
100
AcDbCircle
 10
134.965038
 20
54.425255
 30
0.0
 40
0.8
100
AcDbArc
 50
280.132571
 51
100.132571
  0
ARC
  5
4A8
100
AcDbEntity
  8
2
100
AcDbCircle
 10
134.965038
 20
50.677445
 30
0.0
 40
0.8
100
AcDbArc
 50
282.970431
 51
102.970431
  0
ARC
  5
4A9
100
AcDbEntity
  8
2
100
AcDbCircle
 10
134.965038
 20
46.145148
 30
0.0
 40
0.8
100
AcDbArc
 50
281.857168
 51
101.857168
  0
ARC
  5
4AA
100
AcDbEntity
  8
2
100
AcDbCircle
 10
134.965038
 20
37.417036
 30
0.0
 40
0.8
100
AcDbArc
 50
281.675583
 51
101.675583
  0
ARC
  5
4AB
100
AcDbEntity
  8
2
100
AcDbCircle
 10
134.965038
 20
33.24466
 30
0.0
 40
0.8
100
AcDbArc
 50
266.118273
 51
93.881727
  0
ARC
  5
4AC
100
AcDbEntity
  8
2
100
AcDbCircle
 10
134.965038
 20
41.922509
 30
0.0
 40
0.8
100
AcDbArc
 50
282.874375
 51
102.874375
  0
ARC
  5
4AD
100
AcDbEntity
  8
2
100
AcDbCircle
 10
119.765038
 20
42.953871
 30
0.0
 40
0.8
100
AcDbArc
 50
101.857168
 51
281.857168
  0
ARC
  5
4AE
100
AcDbEntity
  8
2
100
AcDbCircle
 10
119.765038
 20
34.276022
 30
0.0
 40
0.8
100
AcDbArc
 50
101.675583
 51
281.675583
  0
ARC
  5
4AF
100
AcDbEntity
  8
2
100
AcDbCircle
 10
119.765038
 20
38.448398
 30
0.0
 40
0.8
100
AcDbArc
 50
102.874375
 51
282.874375
  0
ARC
  5
4B0
100
AcDbEntity
  8
2
100
AcDbCircle
 10
119.765038
 20
47.17651
 30
0.0
 40
0.8
100
AcDbArc
 50
102.970431
 51
282.970431
  0
ARC
  5
4B1
100
AcDbEntity
  8
2
100
AcDbCircle
 10
119.765038
 20
51.708807
 30
0.0
 40
0.8
100
AcDbArc
 50
100.132571
 51
280.132571
  0
ARC
  5
4B2
100
AcDbEntity
  8
2
100
AcDbCircle
 10
119.765038
 20
55.456617
 30
0.0
 40
0.8
100
AcDbArc
 50
102.068205
 51
282.068205
  0
ARC
  5
4B3
100
AcDbEntity
  8
2
100
AcDbCircle
 10
119.765038
 20
59.737755
 30
0.0
 40
0.8
100
AcDbArc
 50
100.610631
 51
280.610631
  0
ARC
  5
4B4
100
AcDbEntity
  8
2
100
AcDbCircle
 10
119.765038
 20
63.616639
 30
0.0
 40
0.8
100
AcDbArc
 50
100.391878
 51
280.391878
  0
ARC
  5
4B5
100
AcDbEntity
  8
2
100
AcDbCircle
 10
119.765038
 20
67.435496
 30
0.0
 40
0.8
100
AcDbArc
 50
101.397445
 51
281.397445
  0
LINE
  5
4B6
100
AcDbEntity
  8
2
100
AcDbLine
 10
133.865038
 20
34.121138
 30
0.0
 11
135.019196
 21
34.042825
 31
0.0
  0
LINE
  5
4B7
100
AcDbEntity
  8
2
100
AcDbLine
 10
119.603142
 20
35.059469
 30
0.0
 11
134.803142
 21
38.200483
 31
0.0
  0
LINE
  5
4B8
100
AcDbEntity
  8
2
100
AcDbLine
 10
135.126934
 20
36.633589
 30
0.0
 11
119.926934
 21
33.492575
 31
0.0
  0
LINE
  5
4B9
100
AcDbEntity
  8
2
100
AcDbLine
 10
119.586787
 20
39.228287
 30
0.0
 11
134.786787
 21
42.702398
 31
0.0
  0
LINE
  5
4BA
100
AcDbEntity
  8
2
100
AcDbLine
 10
135.14329
 20
41.14262
 30
0.0
 11
119.94329
 21
37.668509
 31
0.0
  0
LINE
  5
4BB
100
AcDbEntity
  8
2
100
AcDbLine
 10
119.60066
 20
43.736801
 30
0.0
 11
134.80066
 21
46.928078
 31
0.0
  0
LINE
  5
4BC
100
AcDbEntity
  8
2
100
AcDbLine
 10
135.129416
 20
45.362217
 30
0.0
 11
119.929416
 21
42.170941
 31
0.0
  0
LINE
  5
4BD
100
AcDbEntity
  8
2
100
AcDbLine
 10
119.58548
 20
47.956098
 30
0.0
 11
134.78548
 21
51.457033
 31
0.0
  0
LINE
  5
4BE
100
AcDbEntity
  8
2
100
AcDbLine
 10
135.144597
 20
49.897856
 30
0.0
 11
119.944597
 21
46.396921
 31
0.0
  0
LINE
  5
4BF
100
AcDbEntity
  8
2
100
AcDbLine
 10
119.905779
 20
50.921284
 30
0.0
 11
135.105779
 21
53.637732
 31
0.0
  0
LINE
  5
4C0
100
AcDbEntity
  8
2
100
AcDbLine
 10
134.824297
 20
55.212777
 30
0.0
 11
119.624297
 21
52.496329
 31
0.0
  0
LINE
  5
4C1
100
AcDbEntity
  8
2
100
AcDbLine
 10
134.797778
 20
59.488712
 30
0.0
 11
119.597778
 21
56.238936
 31
0.0
  0
LINE
  5
4C2
100
AcDbEntity
  8
2
100
AcDbLine
 10
119.912345
 20
58.951434
 30
0.0
 11
135.112345
 21
61.798956
 31
0.0
  0
LINE
  5
4C3
100
AcDbEntity
  8
2
100
AcDbLine
 10
134.817731
 20
63.371598
 30
0.0
 11
119.617731
 21
60.524076
 31
0.0
  0
LINE
  5
4C4
100
AcDbEntity
  8
2
100
AcDbLine
 10
119.909342
 20
62.829761
 30
0.0
 11
135.109342
 21
65.617256
 31
0.0
  0
LINE
  5
4C5
100
AcDbEntity
  8
2
100
AcDbLine
 10
134.820735
 20
67.191011
 30
0.0
 11
119.620735
 21
64.403516
 31
0.0
  0
LINE
  5
4C6
100
AcDbEntity
  8
2
100
AcDbLine
 10
119.923129
 20
66.651272
 30
0.0
 11
135.123129
 21
69.715424
 31
0.0
  0
LINE
  5
4C7
100
AcDbEntity
  8
2
100
AcDbLine
 10
134.806947
 20
71.283872
 30
0.0
 11
119.606947
 21
68.21972
 31
0.0
  0
LINE
  5
4C8
100
AcDbEntity
  8
2
100
AcDbLine
 10
133.865038
 20
38.293514
 30
0.0
 11
135.019196
 21
38.215201
 31
0.0
  0
LINE
  5
4C9
100
AcDbEntity
  8
2
100
AcDbLine
 10
120.865038
 20
37.57192
 30
0.0
 11
119.710881
 21
37.650233
 31
0.0
  0
LINE
  5
4CA
100
AcDbEntity
  8
2
100
AcDbLine
 10
133.588708
 20
42.817737
 30
0.0
 11
135.019196
 21
42.720674
 31
0.0
  0
LINE
  5
4CB
100
AcDbEntity
  8
2
100
AcDbLine
 10
120.865038
 20
42.077393
 30
0.0
 11
119.710881
 21
42.155706
 31
0.0
  0
LINE
  5
4CC
100
AcDbEntity
  8
2
100
AcDbLine
 10
125.207385
 20
47.609071
 30
0.0
 11
135.019196
 21
46.943312
 31
0.0
  0
LINE
  5
4CD
100
AcDbEntity
  8
2
100
AcDbLine
 10
129.136201
 20
45.738811
 30
0.0
 11
119.710881
 21
46.378345
 31
0.0
  0
LINE
  5
4CE
100
AcDbEntity
  8
2
100
AcDbLine
 10
126.313027
 20
52.066347
 30
0.0
 11
135.019196
 21
51.475609
 31
0.0
  0
LINE
  5
4CF
100
AcDbEntity
  8
2
100
AcDbLine
 10
129.522691
 20
50.244883
 30
0.0
 11
119.710881
 21
50.910642
 31
0.0
  0
LINE
  5
4D0
100
AcDbEntity
  8
2
100
AcDbLine
 10
125.516494
 20
55.868204
 30
0.0
 11
135.019196
 21
55.223419
 31
0.0
  0
LINE
  5
4D1
100
AcDbEntity
  8
2
100
AcDbLine
 10
128.417049
 20
54.067714
 30
0.0
 11
119.710881
 21
54.658452
 31
0.0
  0
LINE
  5
4D2
100
AcDbEntity
  8
2
100
AcDbLine
 10
126.096627
 20
60.109979
 30
0.0
 11
135.019196
 21
59.504558
 31
0.0
  0
LINE
  5
4D3
100
AcDbEntity
  8
2
100
AcDbLine
 10
129.213583
 20
58.294806
 30
0.0
 11
119.710881
 21
58.93959
 31
0.0
  0
LINE
  5
4D4
100
AcDbEntity
  8
2
100
AcDbLine
 10
133.628542
 20
63.477801
 30
0.0
 11
135.019196
 21
63.383442
 31
0.0
  0
LINE
  5
4D5
100
AcDbEntity
  8
2
100
AcDbLine
 10
128.633449
 20
62.213053
 30
0.0
 11
119.710881
 21
62.818474
 31
0.0
  0
LINE
  5
4D6
100
AcDbEntity
  8
2
100
AcDbLine
 10
119.710881
 20
66.637331
 30
0.0
 11
120.865038
 21
66.559018
 31
0.0
  0
LINE
  5
4D7
100
AcDbEntity
  8
2
100
AcDbLine
 10
135.019196
 20
67.202298
 30
0.0
 11
133.865038
 21
67.280611
 31
0.0
  0
LINE
  5
4D8
100
AcDbEntity
  8
2
100
AcDbLine
 10
135.019196
 20
34.042825
 30
0.0
 11
127.365038
 21
34.042825
 31
0.0
  0
LINE
  5
4D9
100
AcDbEntity
  8
2
100
AcDbLine
 10
134.910881
 20
32.446495
 30
0.0
 11
133.365038
 21
32.446495
 31
0.0
  0
ARC
  5
4DA
100
AcDbEntity
  8
2
100
AcDbCircle
 10
127.365038
 20
33.24466
 30
0.0
 40
0.798165
100
AcDbArc
 50
90.0
 51
139.827467
  0
LINE
  5
4DB
100
AcDbEntity
  8
2
100
AcDbLine
 10
119.710881
 20
33.477857
 30
0.0
 11
120.865038
 21
33.399545
 31
0.0
  0
LINE
  5
4DC
100
AcDbEntity
  8
2
100
AcDbLine
 10
133.365038
 20
43.264804
 30
0.0
 11
125.139469
 21
43.264804
 31
0.0
  0
ARC
  5
4DD
100
AcDbEntity
  8
2
100
AcDbCircle
 10
153.865038
 20
3.774024
 30
0.0
 40
0.5
100
AcDbArc
 50
270.0
 51
360.0
  0
ARC
  5
4DE
100
AcDbEntity
  8
2
100
AcDbCircle
 10
153.865038
 20
4.774024
 30
0.0
 40
0.5
100
AcDbArc
 50
0.0
 51
90.0
  0
LINE
  5
4DF
100
AcDbEntity
  8
2
100
AcDbLine
 10
154.365038
 20
3.774024
 30
0.0
 11
154.365038
 21
4.774024
 31
0.0
  0
LINE
  5
4E0
100
AcDbEntity
  8
2
100
AcDbLine
 10
187.614019
 20
4.774024
 30
0.0
 11
187.614019
 21
3.774024
 31
0.0
  0
LINE
  5
4E1
100
AcDbEntity
  8
2
100
AcDbLine
 10
184.86521
 20
4.774024
 30
0.0
 11
184.86521
 21
3.774024
 31
0.0
  0
LINE
  5
4E2
100
AcDbEntity
  8
2
100
AcDbLine
 10
155.725582
 20
4.774024
 30
0.0
 11
155.725582
 21
3.774024
 31
0.0
  0
LINE
  5
4E3
100
AcDbEntity
  8
2
100
AcDbLine
 10
148.178738
 20
4.774024
 30
0.0
 11
148.178738
 21
3.774024
 31
0.0
  0
LINE
  5
4E4
100
AcDbEntity
  8
2
100
AcDbLine
 10
143.802833
 20
4.774024
 30
0.0
 11
143.802833
 21
3.774024
 31
0.0
  0
LINE
  5
4E5
100
AcDbEntity
  8
2
100
AcDbLine
 10
135.893661
 20
4.774024
 30
0.0
 11
135.893661
 21
3.774024
 31
0.0
  0
LINE
  5
4E6
100
AcDbEntity
  8
2
100
AcDbLine
 10
120.365038
 20
4.774024
 30
0.0
 11
120.365038
 21
3.774024
 31
0.0
  0
LINE
  5
4E7
100
AcDbEntity
  8
2
100
AcDbLine
 10
179.853218
 20
4.774024
 30
0.0
 11
179.853218
 21
3.774024
 31
0.0
  0
LINE
  5
4E8
100
AcDbEntity
  8
2
100
AcDbLine
 10
176.649833
 20
4.774024
 30
0.0
 11
176.649833
 21
3.774024
 31
0.0
  0
LINE
  5
4E9
100
AcDbEntity
  8
2
100
AcDbLine
 10
170.497589
 20
4.774024
 30
0.0
 11
170.497589
 21
3.774024
 31
0.0
  0
LINE
  5
4EA
100
AcDbEntity
  8
2
100
AcDbLine
 10
166.78661
 20
4.774024
 30
0.0
 11
166.78661
 21
3.774024
 31
0.0
  0
LINE
  5
4EB
100
AcDbEntity
  8
2
100
AcDbLine
 10
159.831401
 20
5.274024
 30
0.0
 11
159.831401
 21
3.274024
 31
0.0
  0
LINE
  5
4EC
100
AcDbEntity
  8
2
100
AcDbLine
 10
159.76832
 20
4.774024
 30
0.0
 11
159.76832
 21
3.774024
 31
0.0
  0
ARC
  5
4ED
100
AcDbEntity
  8
2
100
AcDbCircle
 10
187.114019
 20
4.774024
 30
0.0
 40
0.5
100
AcDbArc
 50
0.0
 51
90.0
  0
ARC
  5
4EE
100
AcDbEntity
  8
2
100
AcDbCircle
 10
187.114019
 20
3.774024
 30
0.0
 40
0.5
100
AcDbArc
 50
270.0
 51
360.0
  0
ARC
  5
4EF
100
AcDbEntity
  8
2
100
AcDbCircle
 10
184.36521
 20
4.774024
 30
0.0
 40
0.5
100
AcDbArc
 50
0.0
 51
90.0
  0
ARC
  5
4F0
100
AcDbEntity
  8
2
100
AcDbCircle
 10
184.36521
 20
3.774024
 30
0.0
 40
0.5
100
AcDbArc
 50
270.0
 51
360.0
  0
ARC
  5
4F1
100
AcDbEntity
  8
2
100
AcDbCircle
 10
179.353218
 20
4.774024
 30
0.0
 40
0.5
100
AcDbArc
 50
0.0
 51
90.0
  0
ARC
  5
4F2
100
AcDbEntity
  8
2
100
AcDbCircle
 10
179.353218
 20
3.774024
 30
0.0
 40
0.5
100
AcDbArc
 50
270.0
 51
360.0
  0
ARC
  5
4F3
100
AcDbEntity
  8
2
100
AcDbCircle
 10
176.149833
 20
4.774024
 30
0.0
 40
0.5
100
AcDbArc
 50
0.0
 51
90.0
  0
ARC
  5
4F4
100
AcDbEntity
  8
2
100
AcDbCircle
 10
176.149833
 20
3.774024
 30
0.0
 40
0.5
100
AcDbArc
 50
270.0
 51
360.0
  0
ARC
  5
4F5
100
AcDbEntity
  8
2
100
AcDbCircle
 10
169.997589
 20
4.774024
 30
0.0
 40
0.5
100
AcDbArc
 50
0.0
 51
90.0
  0
ARC
  5
4F6
100
AcDbEntity
  8
2
100
AcDbCircle
 10
169.997589
 20
3.774024
 30
0.0
 40
0.5
100
AcDbArc
 50
270.0
 51
360.0
  0
ARC
  5
4F7
100
AcDbEntity
  8
2
100
AcDbCircle
 10
166.28661
 20
4.774024
 30
0.0
 40
0.5
100
AcDbArc
 50
0.0
 51
90.0
  0
ARC
  5
4F8
100
AcDbEntity
  8
2
100
AcDbCircle
 10
166.28661
 20
3.774024
 30
0.0
 40
0.5
100
AcDbArc
 50
270.0
 51
360.0
  0
ARC
  5
4F9
100
AcDbEntity
  8
2
100
AcDbCircle
 10
159.26832
 20
4.774024
 30
0.0
 40
0.5
100
AcDbArc
 50
0.0
 51
90.0
  0
ARC
  5
4FA
100
AcDbEntity
  8
2
100
AcDbCircle
 10
159.26832
 20
3.774024
 30
0.0
 40
0.5
100
AcDbArc
 50
270.0
 51
360.0
  0
ARC
  5
4FB
100
AcDbEntity
  8
2
100
AcDbCircle
 10
156.225582
 20
4.774024
 30
0.0
 40
0.5
100
AcDbArc
 50
90.0
 51
180.0
  0
ARC
  5
4FC
100
AcDbEntity
  8
2
100
AcDbCircle
 10
156.225582
 20
3.774024
 30
0.0
 40
0.5
100
AcDbArc
 50
180.0
 51
270.0
  0
ARC
  5
4FD
100
AcDbEntity
  8
2
100
AcDbCircle
 10
147.678738
 20
4.774024
 30
0.0
 40
0.5
100
AcDbArc
 50
0.0
 51
90.0
  0
ARC
  5
4FE
100
AcDbEntity
  8
2
100
AcDbCircle
 10
147.678738
 20
3.774024
 30
0.0
 40
0.5
100
AcDbArc
 50
270.0
 51
360.0
  0
ARC
  5
4FF
100
AcDbEntity
  8
2
100
AcDbCircle
 10
144.302833
 20
4.774024
 30
0.0
 40
0.5
100
AcDbArc
 50
90.0
 51
180.0
  0
ARC
  5
500
100
AcDbEntity
  8
2
100
AcDbCircle
 10
144.302833
 20
3.774024
 30
0.0
 40
0.5
100
AcDbArc
 50
180.0
 51
270.0
  0
ARC
  5
501
100
AcDbEntity
  8
2
100
AcDbCircle
 10
135.393661
 20
4.774024
 30
0.0
 40
0.5
100
AcDbArc
 50
0.0
 51
90.0
  0
ARC
  5
502
100
AcDbEntity
  8
2
100
AcDbCircle
 10
135.393661
 20
3.774024
 30
0.0
 40
0.5
100
AcDbArc
 50
270.0
 51
360.0
  0
ARC
  5
503
100
AcDbEntity
  8
2
100
AcDbCircle
 10
119.865038
 20
4.774024
 30
0.0
 40
0.5
100
AcDbArc
 50
0.0
 51
90.0
  0
ARC
  5
504
100
AcDbEntity
  8
2
100
AcDbCircle
 10
119.865038
 20
3.774024
 30
0.0
 40
0.5
100
AcDbArc
 50
270.0
 51
360.0
  0
LINE
  5
505
100
AcDbEntity
  8
2
100
AcDbLine
 10
100.365038
 20
3.774024
 30
0.0
 11
100.365038
 21
4.774024
 31
0.0
  0
ARC
  5
506
100
AcDbEntity
  8
2
100
AcDbCircle
 10
100.865038
 20
4.774024
 30
0.0
 40
0.5
100
AcDbArc
 50
90.0
 51
180.0
  0
LINE
  5
507
100
AcDbEntity
  8
2
100
AcDbLine
 10
214.865038
 20
5.274024
 30
0.0
 11
133.365038
 21
5.274024
 31
0.0
  0
ARC
  5
508
100
AcDbEntity
  8
2
100
AcDbCircle
 10
100.865038
 20
3.774024
 30
0.0
 40
0.5
100
AcDbArc
 50
180.0
 51
270.0
  0
LINE
  5
509
100
AcDbEntity
  8
2
100
AcDbLine
 10
214.865038
 20
3.274024
 30
0.0
 11
133.365038
 21
3.274024
 31
0.0
  0
LINE
  5
50A
100
AcDbEntity
  8
2
100
AcDbLine
 10
121.365038
 20
3.274024
 30
0.0
 11
64.865038
 21
3.274024
 31
0.0
  0
LINE
  5
50B
100
AcDbEntity
  8
2
100
AcDbLine
 10
121.365038
 20
5.274024
 30
0.0
 11
64.865038
 21
5.274024
 31
0.0
  0
LINE
  5
50C
100
AcDbEntity
  8
2
100
AcDbLine
 10
64.865038
 20
5.274024
 30
0.0
 11
64.865038
 21
3.274024
 31
0.0
  0
LINE
  5
50D
100
AcDbEntity
  8
2
100
AcDbLine
 10
214.865038
 20
5.274024
 30
0.0
 11
214.865038
 21
3.274024
 31
0.0
  0
LINE
  5
50E
100
AcDbEntity
  8
2
100
AcDbLine
 10
199.753729
 20
5.274024
 30
0.0
 11
199.753729
 21
3.274024
 31
0.0
  0
LINE
  5
50F
100
AcDbEntity
  8
2
100
AcDbLine
 10
197.888205
 20
5.274024
 30
0.0
 11
197.888205
 21
3.274024
 31
0.0
  0
LINE
  5
510
100
AcDbEntity
  8
2
100
AcDbLine
 10
193.914785
 20
5.274024
 30
0.0
 11
193.914785
 21
3.274024
 31
0.0
  0
LINE
  5
511
100
AcDbEntity
  8
2
100
AcDbLine
 10
199.351336
 20
5.274024
 30
0.0
 11
199.351336
 21
3.274024
 31
0.0
  0
LINE
  5
512
100
AcDbEntity
  8
2
100
AcDbLine
 10
196.761677
 20
5.274024
 30
0.0
 11
196.761677
 21
3.274024
 31
0.0
  0
LINE
  5
513
100
AcDbEntity
  8
2
100
AcDbLine
 10
192.063436
 20
5.274024
 30
0.0
 11
192.063436
 21
3.274024
 31
0.0
  0
LINE
  5
514
100
AcDbEntity
  8
2
100
AcDbLine
 10
107.365038
 20
22.274024
 30
0.0
 11
107.365038
 21
15.774024
 31
0.0
  0
LINE
  5
515
100
AcDbEntity
  8
2
100
AcDbLine
 10
107.365038
 20
15.774024
 30
0.0
 11
101.586726
 21
15.774024
 31
0.0
  0
LINE
  5
516
100
AcDbEntity
  8
2
100
AcDbLine
 10
100.865038
 20
19.024024
 30
0.0
 11
100.865038
 21
22.274024
 31
0.0
  0
LINE
  5
517
100
AcDbEntity
  8
2
100
AcDbLine
 10
107.365038
 20
22.274024
 30
0.0
 11
101.586726
 21
22.274024
 31
0.0
  0
ARC
  5
518
100
AcDbEntity
  8
2
100
AcDbCircle
 10
108.543797
 20
19.024024
 30
0.0
 40
7.678759
100
AcDbArc
 50
154.96034
 51
205.03966
  0
LINE
  5
519
100
AcDbEntity
  8
2
100
AcDbLine
 10
107.365038
 20
22.274024
 30
0.0
 11
107.365038
 21
28.774024
 31
0.0
  0
LINE
  5
51A
100
AcDbEntity
  8
2
100
AcDbLine
 10
107.365038
 20
28.774024
 30
0.0
 11
101.586726
 21
28.774024
 31
0.0
  0
LINE
  5
51B
100
AcDbEntity
  8
2
100
AcDbLine
 10
100.865038
 20
25.524024
 30
0.0
 11
100.865038
 21
22.274024
 31
0.0
  0
LINE
  5
51C
100
AcDbEntity
  8
2
100
AcDbLine
 10
107.365038
 20
22.274024
 30
0.0
 11
101.586726
 21
22.274024
 31
0.0
  0
ARC
  5
51D
100
AcDbEntity
  8
2
100
AcDbCircle
 10
108.543797
 20
25.524024
 30
0.0
 40
7.678759
100
AcDbArc
 50
154.96034
 51
205.03966
  0
LINE
  5
51E
100
AcDbEntity
  8
2
100
AcDbLine
 10
95.365038
 20
22.274024
 30
0.0
 11
95.365038
 21
25.597524
 31
0.0
  0
LINE
  5
51F
100
AcDbEntity
  8
2
100
AcDbLine
 10
95.365038
 20
25.597524
 30
0.0
 11
96.041538
 21
26.274024
 31
0.0
  0
LINE
  5
520
100
AcDbEntity
  8
2
100
AcDbLine
 10
96.041538
 20
26.274024
 30
0.0
 11
100.901753
 21
26.274024
 31
0.0
  0
LINE
  5
521
100
AcDbEntity
  8
2
100
AcDbLine
 10
96.041538
 20
26.274024
 30
0.0
 11
96.041538
 21
22.274024
 31
0.0
  0
LINE
  5
522
100
AcDbEntity
  8
2
 62
     2
100
AcDbLine
 10
95.365038
 20
25.597524
 30
0.0
 11
100.86539
 21
25.597524
 31
0.0
  0
LINE
  5
523
100
AcDbEntity
  8
2
100
AcDbLine
 10
95.365038
 20
22.274024
 30
0.0
 11
95.365038
 21
18.950524
 31
0.0
  0
LINE
  5
524
100
AcDbEntity
  8
2
100
AcDbLine
 10
95.365038
 20
18.950524
 30
0.0
 11
96.041538
 21
18.274024
 31
0.0
  0
LINE
  5
525
100
AcDbEntity
  8
2
100
AcDbLine
 10
96.041538
 20
18.274024
 30
0.0
 11
100.901753
 21
18.274024
 31
0.0
  0
LINE
  5
526
100
AcDbEntity
  8
2
100
AcDbLine
 10
96.041538
 20
18.274024
 30
0.0
 11
96.041538
 21
22.274024
 31
0.0
  0
LINE
  5
527
100
AcDbEntity
  8
2
 62
     2
100
AcDbLine
 10
95.365038
 20
18.950524
 30
0.0
 11
100.86539
 21
18.950524
 31
0.0
  0
LINE
  5
528
100
AcDbEntity
  8
2
100
AcDbLine
 10
-352.022581
 20
184.889701
 30
0.0
 11
-353.532075
 21
184.889701
 31
0.0
  0
LINE
  5
529
100
AcDbEntity
  8
3
100
AcDbLine
 10
-301.782075
 20
3.274024
 30
0.0
 11
-403.782075
 21
3.274024
 31
0.0
  0
LINE
  5
52A
100
AcDbEntity
  8
3
100
AcDbLine
 10
-403.782075
 20
-21.725975
 30
0.0
 11
-403.782075
 21
3.274024
 31
0.0
  0
LINE
  5
52B
100
AcDbEntity
  8
3
100
AcDbLine
 10
-301.782075
 20
-21.725975
 30
0.0
 11
-301.782075
 21
3.274024
 31
0.0
  0
LINE
  5
52C
100
AcDbEntity
  8
3
100
AcDbLine
 10
-377.782074
 20
-21.725975
 30
0.0
 11
-377.782074
 21
-6.725975
 31
0.0
  0
LINE
  5
52D
100
AcDbEntity
  8
3
100
AcDbLine
 10
-327.782076
 20
-21.725975
 30
0.0
 11
-327.782076
 21
-6.725975
 31
0.0
  0
LINE
  5
52E
100
AcDbEntity
  8
3
100
AcDbLine
 10
-314.226519
 20
-4.725974
 30
0.0
 11
-391.337631
 21
-4.725974
 31
0.0
  0
ARC
  5
52F
100
AcDbEntity
  8
3
100
AcDbCircle
 10
-329.782074
 20
-6.725975
 30
0.0
 40
2.000001
100
AcDbArc
 50
0.0
 51
90.0
  0
ARC
  5
530
100
AcDbEntity
  8
3
100
AcDbCircle
 10
-375.782076
 20
-6.725975
 30
0.0
 40
2.000001
100
AcDbArc
 50
90.0
 51
180.0
  0
ARC
  5
531
100
AcDbEntity
  8
3
100
AcDbCircle
 10
-314.226519
 20
-6.725975
 30
0.0
 40
2.000001
100
AcDbArc
 50
0.0
 51
90.0
  0
ARC
  5
532
100
AcDbEntity
  8
3
100
AcDbCircle
 10
-391.337631
 20
-6.725975
 30
0.0
 40
2.000001
100
AcDbArc
 50
90.0
 51
180.0
  0
LINE
  5
533
100
AcDbEntity
  8
3
100
AcDbLine
 10
-337.782075
 20
3.274024
 30
0.0
 11
-337.782075
 21
-4.725974
 31
0.0
  0
LINE
  5
534
100
AcDbEntity
  8
3
100
AcDbLine
 10
-367.782075
 20
3.274024
 30
0.0
 11
-367.782075
 21
-4.725974
 31
0.0
  0
LINE
  5
535
100
AcDbEntity
  8
3
100
AcDbLine
 10
76.427484
 20
3.274024
 30
0.0
 11
76.427484
 21
-4.725974
 31
0.0
  0
LINE
  5
536
100
AcDbEntity
  8
3
100
AcDbLine
 10
178.427484
 20
3.274024
 30
0.0
 11
178.427484
 21
-4.725974
 31
0.0
  0
LINE
  5
537
100
AcDbEntity
  8
3
100
AcDbLine
 10
112.427484
 20
-13.725974
 30
0.0
 11
112.427484
 21
-21.725975
 31
0.0
  0
LINE
  5
538
100
AcDbEntity
  8
3
100
AcDbLine
 10
142.427484
 20
-13.725974
 30
0.0
 11
142.427484
 21
-21.725975
 31
0.0
  0
ARC
  5
539
100
AcDbEntity
  8
3
100
AcDbCircle
 10
140.427483
 20
-13.725974
 30
0.0
 40
2.000001
100
AcDbArc
 50
0.0
 51
90.0
  0
ARC
  5
53A
100
AcDbEntity
  8
3
100
AcDbCircle
 10
114.427485
 20
-13.725974
 30
0.0
 40
2.000001
100
AcDbArc
 50
90.0
 51
180.0
  0
ARC
  5
53B
100
AcDbEntity
  8
3
100
AcDbCircle
 10
150.427485
 20
-13.725974
 30
0.0
 40
2.000001
100
AcDbArc
 50
0.0
 51
90.0
  0
ARC
  5
53C
100
AcDbEntity
  8
3
100
AcDbCircle
 10
104.427483
 20
-13.725974
 30
0.0
 40
2.000001
100
AcDbArc
 50
90.0
 51
180.0
  0
LINE
  5
53D
100
AcDbEntity
  8
3
100
AcDbLine
 10
78.70251
 20
-6.725975
 30
0.0
 11
78.70251
 21
-21.725975
 31
0.0
  0
LINE
  5
53E
100
AcDbEntity
  8
3
100
AcDbLine
 10
176.152455
 20
-6.725975
 30
0.0
 11
176.152455
 21
-21.725975
 31
0.0
  0
LINE
  5
53F
100
AcDbEntity
  8
3
100
AcDbLine
 10
183.427485
 20
3.274024
 30
0.0
 11
183.427485
 21
-4.725974
 31
0.0
  0
LINE
  5
540
100
AcDbEntity
  8
3
100
AcDbLine
 10
71.427483
 20
3.274024
 30
0.0
 11
71.427483
 21
-4.725974
 31
0.0
  0
ARC
  5
541
100
AcDbEntity
  8
3
100
AcDbCircle
 10
178.152456
 20
-6.725975
 30
0.0
 40
2.000001
100
AcDbArc
 50
90.0
 51
180.0
  0
ARC
  5
542
100
AcDbEntity
  8
3
100
AcDbCircle
 10
76.702512
 20
-6.725975
 30
0.0
 40
2.000001
100
AcDbArc
 50
0.0
 51
90.0
  0
LINE
  5
543
100
AcDbEntity
  8
3
100
AcDbLine
 10
71.427483
 20
-4.725974
 30
0.0
 11
78.387717
 21
-4.725974
 31
0.0
  0
LINE
  5
544
100
AcDbEntity
  8
3
100
AcDbLine
 10
176.467251
 20
-4.725974
 30
0.0
 11
183.427485
 21
-4.725974
 31
0.0
  0
ARC
  5
545
100
AcDbEntity
  8
3
100
AcDbCircle
 10
78.387717
 20
-6.725975
 30
0.0
 40
2.000001
100
AcDbArc
 50
0.0
 51
90.0
  0
ARC
  5
546
100
AcDbEntity
  8
3
100
AcDbCircle
 10
176.467251
 20
-6.725975
 30
0.0
 40
2.000001
100
AcDbArc
 50
90.0
 51
180.0
  0
LINE
  5
547
100
AcDbEntity
  8
3
100
AcDbLine
 10
104.427483
 20
-11.725976
 30
0.0
 11
150.427485
 21
-11.725976
 31
0.0
  0
LINE
  5
548
100
AcDbEntity
  8
3
100
AcDbLine
 10
71.427483
 20
3.274024
 30
0.0
 11
121.365038
 21
3.274024
 31
0.0
  0
LINE
  5
549
100
AcDbEntity
  8
3
100
AcDbLine
 10
133.365038
 20
3.274024
 30
0.0
 11
183.427485
 21
3.274024
 31
0.0
  0
DIMENSION
  5
54A
100
AcDbEntity
  8
5
100
AcDbDimension
  2
*D0
 10
-467.548782
 20
332.384895
 30
0.0
 11
-482.908782
 21
284.674896
 31
0.0
  1
87.5
100
AcDbAlignedDimension
 13
-438.849273
 23
244.884894
 33
0.0
 14
-369.782076
 24
332.384895
 34
0.0
 50
90.0
100
AcDbRotatedDimension
  0
DIMENSION
  5
54B
100
AcDbEntity
  8
5
100
AcDbDimension
  2
*D1
 10
-467.548782
 20
244.884894
 30
0.0
 11
-482.908782
 21
209.674896
 31
0.0
  1
62.5
100
AcDbAlignedDimension
 13
-352.782075
 23
182.384895
 33
0.0
 14
-438.849273
 24
244.884894
 34
0.0
 50
90.0
100
AcDbRotatedDimension
  0
TEXT
  5
54C
100
AcDbEntity
  8
5
100
AcDbText
 10
-213.265664
 20
110.512703
 30
0.0
 40
9.9
  1
300
 41
1.4
 72
     5
 11
-195.247664
 21
110.512703
 31
0.0
100
AcDbText
  0
DIMENSION
  5
54D
100
AcDbEntity
  8
5
100
AcDbDimension
  2
*D2
 10
-52.959254
 20
109.012703
 30
0.0
 11
-202.870665
 21
111.012703
 31
0.0
100
AcDbAlignedDimension
 13
-352.782075
 23
57.529416
 33
0.0
 14
-52.959254
 24
86.502485
 34
0.0
100
AcDbRotatedDimension
  0
DIMENSION
  5
54E
100
AcDbEntity
  8
5
100
AcDbDimension
  2
*D3
 10
38.034387
 20
3.274024
 30
0.0
 11
29.604387
 21
-6.255975
 31
0.0
  1
25
100
AcDbAlignedDimension
 13
76.427484
 23
-21.725975
 33
0.0
 14
64.865038
 24
3.274024
 34
0.0
 50
90.0
100
AcDbRotatedDimension
  0
TEXT
  5
54F
100
AcDbEntity
  8
5
100
AcDbText
 10
36.534387
 20
42.501211
 30
0.0
 40
9.9
  1
92
 50
90.0
 41
1.4
 72
     5
 11
36.534387
 21
53.589211
 31
0.0
100
AcDbText
  0
DIMENSION
  5
550
100
AcDbEntity
  8
5
100
AcDbDimension
  2
*D4
 10
38.034387
 20
95.588398
 30
0.0
 11
35.534387
 21
49.431211
 31
0.0
100
AcDbAlignedDimension
 13
64.865038
 23
3.274024
 33
0.0
 14
127.427484
 24
95.588398
 34
0.0
 50
90.0
100
AcDbRotatedDimension
  0
DIMENSION
  5
551
100
AcDbEntity
  8
5
100
AcDbDimension
  2
*D5
 10
38.034387
 20
-21.725975
 30
0.0
 11
26.139387
 21
-107.220975
 31
0.0
  1
170
100
AcDbAlignedDimension
 13
78.593389
 23
-191.725975
 33
0.0
 14
76.427484
 24
-21.725975
 34
0.0
 50
90.0
100
AcDbRotatedDimension
  0
DIMENSION
  5
552
100
AcDbEntity
  8
5
100
AcDbDimension
  2
*D6
 10
38.034387
 20
-191.725975
 30
0.0
 11
26.139387
 21
-247.220975
 31
0.0
  1
110
100
AcDbAlignedDimension
 13
120.427484
 23
-301.725975
 33
0.0
 14
38.034387
 24
-191.725975
 34
0.0
 50
90.0
100
AcDbRotatedDimension
  0
DIMENSION
  5
553
100
AcDbEntity
  8
5
100
AcDbDimension
  2
*D7
 10
127.427484
 20
-329.568764
 30
0.0
 11
115.427484
 21
-323.118764
 31
0.0
 70
     1
  1
24
100
AcDbAlignedDimension
 13
103.427484
 23
-269.725975
 33
0.0
 14
127.427484
 24
-315.654816
 34
0.0
 50
180.0
  0
DIMENSION
  5
554
100
AcDbEntity
  8
5
100
AcDbDimension
  2
*D8
 10
157.427484
 20
-360.242683
 30
0.0
 11
130.427484
 21
-353.792683
 31
0.0
 70
     1
  1
54
100
AcDbAlignedDimension
 13
103.427484
 23
-269.725975
 33
0.0
 14
157.427484
 24
-269.725975
 34
0.0
 50
180.0
  0
LINE
  5
555
100
AcDbEntity
  8
18
100
AcDbLine
 10
201.550758
 20
-191.725975
 30
0.0
 11
291.550758
 21
-191.725975
 31
0.0
  0
LINE
  5
556
100
AcDbEntity
  8
18
100
AcDbLine
 10
201.550758
 20
-191.725975
 30
0.0
 11
231.550758
 21
-183.687499
 31
0.0
  0
LINE
  5
557
100
AcDbEntity
  8
18
100
AcDbLine
 10
231.550758
 20
-183.687499
 30
0.0
 11
231.550758
 21
-199.764451
 31
0.0
  0
LINE
  5
558
100
AcDbEntity
  8
18
100
AcDbLine
 10
201.550758
 20
-191.725975
 30
0.0
 11
231.550758
 21
-199.764451
 31
0.0
  0
LINE
  5
559
100
AcDbEntity
  8
18
100
AcDbLine
 10
206.021004
 20
345.277794
 30
0.0
 11
206.021004
 21
240.277794
 31
0.0
  0
LINE
  5
55A
100
AcDbEntity
  8
18
100
AcDbLine
 10
542.021004
 20
270.277794
 30
0.0
 11
206.021004
 21
270.277794
 31
0.0
  0
LINE
  5
55B
100
AcDbEntity
  8
18
100
AcDbLine
 10
542.021004
 20
255.277794
 30
0.0
 11
206.021004
 21
255.277794
 31
0.0
  0
LINE
  5
55C
100
AcDbEntity
  8
18
100
AcDbLine
 10
542.021004
 20
240.277794
 30
0.0
 11
206.021004
 21
240.277794
 31
0.0
  0
LINE
  5
55D
100
AcDbEntity
  8
18
100
AcDbLine
 10
290.021004
 20
345.277794
 30
0.0
 11
290.021004
 21
255.277794
 31
0.0
  0
LINE
  5
55E
100
AcDbEntity
  8
18
100
AcDbLine
 10
374.021004
 20
345.277794
 30
0.0
 11
374.021004
 21
255.277794
 31
0.0
  0
LINE
  5
55F
100
AcDbEntity
  8
18
100
AcDbLine
 10
458.021004
 20
345.277794
 30
0.0
 11
458.021004
 21
255.277794
 31
0.0
  0
LINE
  5
560
100
AcDbEntity
  8
18
100
AcDbLine
 10
542.021004
 20
345.277794
 30
0.0
 11
542.021004
 21
240.277794
 31
0.0
  0
LINE
  5
561
100
AcDbEntity
  8
18
100
AcDbLine
 10
206.021004
 20
345.277794
 30
0.0
 11
542.021004
 21
345.277794
 31
0.0
  0
LINE
  5
562
100
AcDbEntity
  8
18
100
AcDbLine
 10
231.559119
 20
302.543688
 30
0.0
 11
231.559119
 21
295.276188
 31
0.0
  0
LINE
  5
563
100
AcDbEntity
  8
18
100
AcDbLine
 10
231.559119
 20
302.543688
 30
0.0
 11
238.433502
 21
302.543688
 31
0.0
  0
LINE
  5
564
100
AcDbEntity
  8
18
100
AcDbLine
 10
253.754736
 20
302.543688
 30
0.0
 11
260.629119
 21
302.543688
 31
0.0
  0
LINE
  5
565
100
AcDbEntity
  8
18
100
AcDbLine
 10
231.559119
 20
295.276188
 30
0.0
 11
238.433502
 21
295.276188
 31
0.0
  0
LINE
  5
566
100
AcDbEntity
  8
18
100
AcDbLine
 10
253.754736
 20
295.276188
 30
0.0
 11
260.629119
 21
295.276188
 31
0.0
  0
LINE
  5
567
100
AcDbEntity
  8
18
100
AcDbLine
 10
243.553092
 20
300.121188
 30
0.0
 11
275.756841
 21
300.121188
 31
0.0
  0
LINE
  5
568
100
AcDbEntity
  8
18
100
AcDbLine
 10
243.553092
 20
297.698688
 30
0.0
 11
275.756841
 21
297.698688
 31
0.0
  0
LINE
  5
569
100
AcDbEntity
  8
18
100
AcDbLine
 10
239.942532
 20
299.384661
 30
0.0
 11
243.553092
 21
300.121188
 31
0.0
  0
LINE
  5
56A
100
AcDbEntity
  8
18
100
AcDbLine
 10
239.942532
 20
298.435215
 30
0.0
 11
243.553092
 21
297.698688
 31
0.0
  0
ARC
  5
56B
100
AcDbEntity
  8
18
100
AcDbCircle
 10
240.039372
 20
298.909938
 30
0.0
 40
0.4845
100
AcDbArc
 50
101.529708
 51
258.470292
  0
LINE
  5
56C
100
AcDbEntity
  8
18
100
AcDbLine
 10
260.629119
 20
295.276188
 30
0.0
 11
260.629119
 21
297.698688
 31
0.0
  0
LINE
  5
56D
100
AcDbEntity
  8
18
100
AcDbLine
 10
260.629119
 20
300.121188
 30
0.0
 11
260.629119
 21
302.543688
 31
0.0
  0
ARC
  5
56E
100
AcDbEntity
  8
18
100
AcDbCircle
 10
246.094119
 20
298.909938
 30
0.0
 40
8.47875
100
AcDbArc
 50
8.213211
 51
351.786789
  0
LINE
  5
56F
100
AcDbEntity
  8
18
100
AcDbLine
 10
275.756841
 20
300.121188
 30
0.0
 11
275.756841
 21
297.698688
 31
0.0
  0
LINE
  5
570
100
AcDbEntity
  8
18
  6
CENTER
 62
     2
100
AcDbLine
 10
474.288867
 20
298.541109
 30
0.0
 11
523.241319
 21
298.541109
 31
0.0
  0
LINE
  5
571
100
AcDbEntity
  8
18
100
AcDbLine
 10
519.350541
 20
294.907359
 30
0.0
 11
519.350541
 21
302.174859
 31
0.0
  0
LINE
  5
572
100
AcDbEntity
  8
18
100
AcDbLine
 10
519.350541
 20
294.907359
 30
0.0
 11
512.476158
 21
294.907359
 31
0.0
  0
LINE
  5
573
100
AcDbEntity
  8
18
100
AcDbLine
 10
497.154924
 20
294.907359
 30
0.0
 11
490.280541
 21
294.907359
 31
0.0
  0
LINE
  5
574
100
AcDbEntity
  8
18
100
AcDbLine
 10
519.350541
 20
302.174859
 30
0.0
 11
512.476158
 21
302.174859
 31
0.0
  0
LINE
  5
575
100
AcDbEntity
  8
18
100
AcDbLine
 10
497.154924
 20
302.174859
 30
0.0
 11
490.280541
 21
302.174859
 31
0.0
  0
LINE
  5
576
100
AcDbEntity
  8
18
100
AcDbLine
 10
503.604291
 20
296.000082
 30
0.0
 11
503.604291
 21
328.203831
 31
0.0
  0
LINE
  5
577
100
AcDbEntity
  8
18
100
AcDbLine
 10
506.026791
 20
296.000082
 30
0.0
 11
506.026791
 21
328.203831
 31
0.0
  0
LINE
  5
578
100
AcDbEntity
  8
18
100
AcDbLine
 10
504.340818
 20
292.389522
 30
0.0
 11
503.604291
 21
296.000082
 31
0.0
  0
LINE
  5
579
100
AcDbEntity
  8
18
100
AcDbLine
 10
505.290264
 20
292.389522
 30
0.0
 11
506.026791
 21
296.000082
 31
0.0
  0
ARC
  5
57A
100
AcDbEntity
  8
18
100
AcDbCircle
 10
504.815541
 20
292.486362
 30
0.0
 40
0.4845
100
AcDbArc
 50
191.529708
 51
348.470292
  0
LINE
  5
57B
100
AcDbEntity
  8
18
100
AcDbLine
 10
490.280541
 20
302.174859
 30
0.0
 11
490.280541
 21
299.752359
 31
0.0
  0
LINE
  5
57C
100
AcDbEntity
  8
18
100
AcDbLine
 10
490.280541
 20
299.752359
 30
0.0
 11
490.280541
 21
294.907359
 31
0.0
  0
LINE
  5
57D
100
AcDbEntity
  8
18
100
AcDbLine
 10
503.604291
 20
328.203831
 30
0.0
 11
506.026791
 21
328.203831
 31
0.0
  0
ARC
  5
57E
100
AcDbEntity
  8
18
100
AcDbCircle
 10
504.815541
 20
298.541109
 30
0.0
 40
8.47875
100
AcDbArc
 50
98.213211
 51
81.786789
  0
LINE
  5
57F
100
AcDbEntity
  8
18
100
AcDbLine
 10
434.313063
 20
313.180293
 30
0.0
 11
434.313063
 21
320.447793
 31
0.0
  0
LINE
  5
580
100
AcDbEntity
  8
18
100
AcDbLine
 10
434.313063
 20
313.180293
 30
0.0
 11
427.438683
 21
313.180293
 31
0.0
  0
LINE
  5
581
100
AcDbEntity
  8
18
100
AcDbLine
 10
412.117446
 20
313.180293
 30
0.0
 11
405.243063
 21
313.180293
 31
0.0
  0
LINE
  5
582
100
AcDbEntity
  8
18
100
AcDbLine
 10
434.313063
 20
320.447793
 30
0.0
 11
427.438683
 21
320.447793
 31
0.0
  0
LINE
  5
583
100
AcDbEntity
  8
18
100
AcDbLine
 10
412.117446
 20
320.447793
 30
0.0
 11
405.243063
 21
320.447793
 31
0.0
  0
LINE
  5
584
100
AcDbEntity
  8
18
100
AcDbLine
 10
422.31909
 20
315.602793
 30
0.0
 11
390.115341
 21
315.602793
 31
0.0
  0
LINE
  5
585
100
AcDbEntity
  8
18
100
AcDbLine
 10
422.31909
 20
318.025293
 30
0.0
 11
390.115341
 21
318.025293
 31
0.0
  0
LINE
  5
586
100
AcDbEntity
  8
18
100
AcDbLine
 10
425.92965
 20
316.33932
 30
0.0
 11
422.31909
 21
315.602793
 31
0.0
  0
LINE
  5
587
100
AcDbEntity
  8
18
100
AcDbLine
 10
425.92965
 20
317.288766
 30
0.0
 11
422.31909
 21
318.025293
 31
0.0
  0
ARC
  5
588
100
AcDbEntity
  8
18
100
AcDbCircle
 10
425.83281
 20
316.814043
 30
0.0
 40
0.4845
100
AcDbArc
 50
281.529708
 51
78.470292
  0
LINE
  5
589
100
AcDbEntity
  8
18
100
AcDbLine
 10
405.243063
 20
320.447793
 30
0.0
 11
405.243063
 21
318.025293
 31
0.0
  0
LINE
  5
58A
100
AcDbEntity
  8
18
100
AcDbLine
 10
405.243063
 20
315.602793
 30
0.0
 11
405.243063
 21
313.180293
 31
0.0
  0
ARC
  5
58B
100
AcDbEntity
  8
18
100
AcDbCircle
 10
419.778063
 20
316.814043
 30
0.0
 40
8.47875
100
AcDbArc
 50
188.213211
 51
171.786789
  0
LINE
  5
58C
100
AcDbEntity
  8
18
100
AcDbLine
 10
390.115341
 20
315.602793
 30
0.0
 11
390.115341
 21
318.025293
 31
0.0
  0
LINE
  5
58D
100
AcDbEntity
  8
18
  6
CENTER
 62
     2
100
AcDbLine
 10
358.614267
 20
313.430103
 30
0.0
 11
308.529738
 21
313.430103
 31
0.0
  0
LINE
  5
58E
100
AcDbEntity
  8
18
100
AcDbLine
 10
313.552593
 20
317.063853
 30
0.0
 11
313.552593
 21
309.796353
 31
0.0
  0
LINE
  5
58F
100
AcDbEntity
  8
18
100
AcDbLine
 10
313.552593
 20
317.063853
 30
0.0
 11
320.426973
 21
317.063853
 31
0.0
  0
LINE
  5
590
100
AcDbEntity
  8
18
100
AcDbLine
 10
335.74821
 20
317.063853
 30
0.0
 11
342.622593
 21
317.063853
 31
0.0
  0
LINE
  5
591
100
AcDbEntity
  8
18
100
AcDbLine
 10
313.552593
 20
309.796353
 30
0.0
 11
320.426973
 21
309.796353
 31
0.0
  0
LINE
  5
592
100
AcDbEntity
  8
18
100
AcDbLine
 10
335.74821
 20
309.796353
 30
0.0
 11
342.622593
 21
309.796353
 31
0.0
  0
LINE
  5
593
100
AcDbEntity
  8
18
100
AcDbLine
 10
329.298843
 20
315.97113
 30
0.0
 11
329.298843
 21
283.767381
 31
0.0
  0
LINE
  5
594
100
AcDbEntity
  8
18
100
AcDbLine
 10
326.876343
 20
315.97113
 30
0.0
 11
326.876343
 21
283.767381
 31
0.0
  0
LINE
  5
595
100
AcDbEntity
  8
18
100
AcDbLine
 10
328.562316
 20
319.58169
 30
0.0
 11
329.298843
 21
315.97113
 31
0.0
  0
LINE
  5
596
100
AcDbEntity
  8
18
100
AcDbLine
 10
327.612867
 20
319.58169
 30
0.0
 11
326.876343
 21
315.97113
 31
0.0
  0
ARC
  5
597
100
AcDbEntity
  8
18
100
AcDbCircle
 10
328.087593
 20
319.48485
 30
0.0
 40
0.4845
100
AcDbArc
 50
11.529708
 51
168.470292
  0
LINE
  5
598
100
AcDbEntity
  8
18
100
AcDbLine
 10
342.622593
 20
309.796353
 30
0.0
 11
342.622593
 21
312.218853
 31
0.0
  0
LINE
  5
599
100
AcDbEntity
  8
18
100
AcDbLine
 10
342.622593
 20
312.218853
 30
0.0
 11
342.622593
 21
317.063853
 31
0.0
  0
LINE
  5
59A
100
AcDbEntity
  8
18
100
AcDbLine
 10
329.298843
 20
283.767381
 30
0.0
 11
326.876343
 21
283.767381
 31
0.0
  0
ARC
  5
59B
100
AcDbEntity
  8
18
100
AcDbCircle
 10
328.087593
 20
313.430103
 30
0.0
 40
8.47875
100
AcDbArc
 50
278.213211
 51
261.786789
  0
ARC
  5
59C
100
AcDbEntity
  8
18
 62
     2
100
AcDbCircle
 10
246.094119
 20
298.909938
 30
0.0
 40
27.0
100
AcDbArc
 50
2.571215
 51
48.757144
  0
LINE
  5
59D
100
AcDbEntity
  8
18
 62
     2
100
AcDbLine
 10
273.048357
 20
300.08409
 30
0.0
 11
273.048357
 21
301.180116
 31
0.0
  0
LINE
  5
59E
100
AcDbEntity
  8
18
 62
     2
100
AcDbLine
 10
273.048357
 20
305.879646
 30
0.0
 11
271.495443
 21
305.879646
 31
0.0
  0
LINE
  5
59F
100
AcDbEntity
  8
18
 62
     2
100
AcDbLine
 10
271.495443
 20
305.879646
 30
0.0
 11
273.048357
 21
300.08409
 31
0.0
  0
LINE
  5
5A0
100
AcDbEntity
  8
18
 62
     2
100
AcDbLine
 10
273.048357
 20
300.08409
 30
0.0
 11
274.601271
 21
305.879646
 31
0.0
  0
LINE
  5
5A1
100
AcDbEntity
  8
18
 62
     2
100
AcDbLine
 10
274.601271
 20
305.879646
 30
0.0
 11
273.048357
 21
305.879646
 31
0.0
  0
LINE
  5
5A2
100
AcDbEntity
  8
18
 62
     2
100
AcDbLine
 10
263.896425
 20
319.314561
 30
0.0
 11
264.554094
 21
318.656913
 31
0.0
  0
LINE
  5
5A3
100
AcDbEntity
  8
18
 62
     2
100
AcDbLine
 10
267.994572
 20
315.216555
 30
0.0
 11
269.092629
 21
316.314651
 31
0.0
  0
LINE
  5
5A4
100
AcDbEntity
  8
18
 62
     2
100
AcDbLine
 10
269.092629
 20
316.314651
 30
0.0
 11
263.896425
 21
319.314561
 31
0.0
  0
LINE
  5
5A5
100
AcDbEntity
  8
18
 62
     2
100
AcDbLine
 10
263.896425
 20
319.314561
 30
0.0
 11
266.896515
 21
314.118459
 31
0.0
  0
LINE
  5
5A6
100
AcDbEntity
  8
18
 62
     2
100
AcDbLine
 10
266.896515
 20
314.118459
 30
0.0
 11
267.994572
 21
315.216555
 31
0.0
  0
LINE
  5
5A7
100
AcDbEntity
  8
18
  6
CENTER
 62
     2
100
AcDbLine
 10
246.094119
 20
311.971137
 30
0.0
 11
246.094119
 21
286.662552
 31
0.0
  0
LINE
  5
5A8
100
AcDbEntity
  8
18
 62
     2
100
AcDbLine
 10
246.191592
 20
314.144601
 30
0.0
 11
246.191592
 21
330.157746
 31
0.0
  0
LINE
  5
5A9
100
AcDbEntity
  8
18
 62
     2
100
AcDbLine
 10
246.191592
 20
319.940154
 30
0.0
 11
244.638678
 21
319.940154
 31
0.0
  0
LINE
  5
5AA
100
AcDbEntity
  8
18
 62
     2
100
AcDbLine
 10
244.638678
 20
319.940154
 30
0.0
 11
246.191592
 21
314.144601
 31
0.0
  0
LINE
  5
5AB
100
AcDbEntity
  8
18
 62
     2
100
AcDbLine
 10
246.191592
 20
314.144601
 30
0.0
 11
247.744506
 21
319.940154
 31
0.0
  0
LINE
  5
5AC
100
AcDbEntity
  8
18
 62
     2
100
AcDbLine
 10
247.744506
 20
319.940154
 30
0.0
 11
246.191592
 21
319.940154
 31
0.0
  0
LINE
  5
5AD
100
AcDbEntity
  8
18
  6
CENTER
 62
     2
100
AcDbLine
 10
419.778063
 20
329.875242
 30
0.0
 11
419.778063
 21
286.287366
 31
0.0
  0
TEXT
  5
5AE
100
AcDbEntity
  8
18
100
AcDbText
 10
366.897378
 20
-399.815736
 30
0.0
 40
9.0
  1
１
 72
     5
 11
374.097378
 21
-399.815736
 31
0.0
100
AcDbText
  0
TEXT
  5
5AF
100
AcDbEntity
  8
18
100
AcDbText
 10
366.562722
 20
-381.105789
 30
0.0
 40
9.0
  1
標準仕様
 72
     5
 11
400.762722
 21
-381.105789
 31
0.0
100
AcDbText
  0
TEXT
  5
5B0
100
AcDbEntity
  8
18
100
AcDbText
 10
239.58021
 20
-186.483034
 30
0.0
 40
15.0
  1
高圧側
 72
     5
 11
281.58021
 21
-186.483034
 31
0.0
100
AcDbText
  0
TEXT
  5
5B1
100
AcDbEntity
  8
18
100
AcDbText
 10
242.413215
 20
258.811431
 30
0.0
 40
9.0
  1
Ａ
 72
     5
 11
249.613215
 21
258.811431
 31
0.0
100
AcDbText
  0
TEXT
  5
5B2
100
AcDbEntity
  8
18
100
AcDbText
 10
326.377374
 20
258.570969
 30
0.0
 40
9.0
  1
Ｂ
 72
     5
 11
333.577374
 21
258.570969
 31
0.0
100
AcDbText
  0
TEXT
  5
5B3
100
AcDbEntity
  8
18
100
AcDbText
 10
410.413215
 20
258.811431
 30
0.0
 40
9.0
  1
Ｃ
 72
     5
 11
417.613215
 21
258.811431
 31
0.0
100
AcDbText
  0
TEXT
  5
5B4
100
AcDbEntity
  8
18
100
AcDbText
 10
325.896468
 20
243.490707
 30
0.0
 40
9.0
  1
アクチュエ－タ取付方向
 72
     5
 11
423.096468
 21
243.490707
 31
0.0
100
AcDbText
  0
TEXT
  5
5B5
100
AcDbEntity
  8
18
100
AcDbText
 10
221.548188
 20
273.414642
 30
0.0
 40
7.5
  1
弁棒側　低圧側
 72
     5
 11
272.548188
 21
273.414642
 31
0.0
100
AcDbText
  0
TEXT
  5
5B6
100
AcDbEntity
  8
18
100
AcDbText
 10
214.359168
 20
333.131721
 30
0.0
 40
7.5
  1
フラット側　高圧側
 72
     5
 11
280.359168
 21
333.131721
 31
0.0
100
AcDbText
  0
TEXT
  5
5B7
100
AcDbEntity
  8
18
100
AcDbText
 10
494.413215
 20
258.811431
 30
0.0
 40
9.0
  1
Ｄ
 72
     5
 11
501.613215
 21
258.811431
 31
0.0
100
AcDbText
  0
TEXT
  5
5B8
100
AcDbEntity
  8
18
100
AcDbText
 10
271.618452
 20
291.783015
 30
0.0
 40
4.845
  1
Ｓ
 72
     5
 11
275.494452
 21
291.783015
 31
0.0
100
AcDbText
  0
TEXT
  5
5B9
100
AcDbEntity
  8
18
100
AcDbText
 10
475.820913
 20
310.907793
 30
0.0
 40
7.2675
  1
　
 50
45.0
 72
     5
 11
474.793133
 21
309.880013
 31
0.0
100
AcDbText
  0
DIMENSION
  5
5BA
100
AcDbEntity
  8
18
100
AcDbDimension
  2
*D9
 10
503.601573
 20
298.541109
 30
0.0
 11
464.813643
 21
338.038863
 31
0.0
 70
     2
100
AcDb2LineAngularDimension
 13
503.604291
 23
298.543827
 33
0.0
 14
503.604291
 24
298.541109
 34
0.0
 15
503.604291
 25
298.541109
 35
0.0
 16
484.385744
 26
317.759656
 36
0.0
  0
TEXT
  5
5BB
100
AcDbEntity
  8
18
100
AcDbText
 10
474.464889
 20
292.366617
 30
0.0
 40
4.845
  1
Ｏ
 72
     5
 11
478.340889
 21
292.366617
 31
0.0
100
AcDbText
  0
TEXT
  5
5BC
100
AcDbEntity
  8
18
100
AcDbText
 10
506.964963
 20
323.852442
 30
0.0
 40
4.845
  1
Ｓ
 72
     5
 11
510.840963
 21
323.852442
 31
0.0
100
AcDbText
  0
TEXT
  5
5BD
100
AcDbEntity
  8
18
100
AcDbText
 10
407.411382
 20
287.819412
 30
0.0
 40
7.2675
  1
　
 50
135.0
 72
     5
 11
408.439162
 21
286.791632
 31
0.0
100
AcDbText
  0
DIMENSION
  5
5BE
100
AcDbEntity
  8
18
100
AcDbDimension
  2
*D10
 10
419.778063
 20
315.600075
 30
0.0
 11
380.987415
 21
277.519252
 31
0.0
 70
     2
100
AcDb2LineAngularDimension
 13
419.775345
 23
315.602793
 33
0.0
 14
419.778063
 24
315.602793
 34
0.0
 15
419.778063
 25
315.602793
 35
0.0
 16
400.559516
 26
296.384246
 36
0.0
  0
TEXT
  5
5BF
100
AcDbEntity
  8
18
100
AcDbText
 10
425.19273
 20
291.069048
 30
0.0
 40
4.845
  1
Ｏ
 50
180.0
 72
     5
 11
421.31673
 21
291.069048
 31
0.0
100
AcDbText
  0
TEXT
  5
5C0
100
AcDbEntity
  8
18
100
AcDbText
 10
394.25373
 20
323.940966
 30
0.0
 40
4.845
  1
Ｓ
 50
180.0
 72
     5
 11
390.37773
 21
323.940966
 31
0.0
100
AcDbText
  0
TEXT
  5
5C1
100
AcDbEntity
  8
18
100
AcDbText
 10
357.082221
 20
301.063419
 30
0.0
 40
7.2675
  1
　
 50
225.0
 72
     5
 11
358.110001
 21
302.091199
 31
0.0
100
AcDbText
  0
DIMENSION
  5
5C2
100
AcDbEntity
  8
18
100
AcDbDimension
  2
*D11
 10
329.301561
 20
313.430103
 30
0.0
 11
368.089491
 21
273.932349
 31
0.0
 70
     2
100
AcDb2LineAngularDimension
 13
329.298843
 23
313.427385
 33
0.0
 14
329.298843
 24
313.430103
 34
0.0
 15
329.298843
 25
313.430103
 35
0.0
 16
348.51739
 26
294.211556
 36
0.0
  0
TEXT
  5
5C3
100
AcDbEntity
  8
18
100
AcDbText
 10
358.548474
 20
319.135347
 30
0.0
 40
4.845
  1
Ｏ
 50
180.0
 72
     5
 11
354.672474
 21
319.135347
 31
0.0
100
AcDbText
  0
TEXT
  5
5C4
100
AcDbEntity
  8
18
100
AcDbText
 10
325.41795
 20
288.166056
 30
0.0
 40
4.845
  1
Ｓ
 50
180.0
 72
     5
 11
321.54195
 21
288.166056
 31
0.0
100
AcDbText
  0
TEXT
  5
5C5
100
AcDbEntity
  8
18
100
AcDbText
 10
262.628475
 20
317.50755
 30
0.0
 40
4.845
  1
Ｏ
 50
180.0
 72
     5
 11
258.752475
 21
317.50755
 31
0.0
100
AcDbText
  0
TEXT
  5
5C6
100
AcDbEntity
  8
18
100
AcDbText
 10
378.892731
 20
-411.050307
 30
0.0
 40
9.0
  1
３
 72
     5
 11
386.092731
 21
-411.050307
 31
0.0
100
AcDbText
  0
TEXT
  5
5C7
100
AcDbEntity
  8
18
100
AcDbText
 10
540.222563
 20
-380.755647
 30
0.0
 40
6.75
  1
′０５．　７．１９
 72
     5
 11
599.622563
 21
-380.755647
 31
0.0
100
AcDbText
  0
TEXT
  5
5C8
100
AcDbEntity
  8
18
100
AcDbText
 10
460.8
 20
-408.0
 30
0.0
 40
15.0
  1
Ｄ３－０３８０５
 72
     5
 11
577.8
 21
-408.0
 31
0.0
100
AcDbText
  0
TEXT
  5
5C9
100
AcDbEntity
  8
18
100
AcDbText
 10
366.562722
 20
-369.105789
 30
0.0
 40
9.0
  1
３０２Ａ－１ＴＡＳ　１００Ａ
 72
     5
 11
490.762722
 21
-369.105789
 31
0.0
100
AcDbText
  0
LINE
  5
5CA
100
AcDbEntity
  8
20
 62
     3
100
AcDbLine
 10
-540.0
 20
-415.5
 30
0.0
 11
600.0
 21
-415.5
 31
0.0
  0
LINE
  5
5CB
100
AcDbEntity
  8
20
 62
     3
100
AcDbLine
 10
-540.0
 20
396.0
 30
0.0
 11
600.0
 21
396.0
 31
0.0
  0
LINE
  5
5CC
100
AcDbEntity
  8
20
 62
     3
100
AcDbLine
 10
-540.0
 20
396.0
 30
0.0
 11
-540.0
 21
-415.5
 31
0.0
  0
LINE
  5
5CD
100
AcDbEntity
  8
20
 62
     3
100
AcDbLine
 10
600.0
 20
396.0
 30
0.0
 11
600.0
 21
-415.5
 31
0.0
  0
LINE
  5
5CE
100
AcDbEntity
  8
20
 62
     3
100
AcDbLine
 10
180.0
 20
-415.5
 30
0.0
 11
180.0
 21
-355.5
 31
0.0
  0
LINE
  5
5CF
100
AcDbEntity
  8
20
 62
     3
100
AcDbLine
 10
321.0
 20
-415.5
 30
0.0
 11
321.0
 21
-355.5
 31
0.0
  0
LINE
  5
5D0
100
AcDbEntity
  8
20
100
AcDbLine
 10
321.0
 20
-385.5
 30
0.0
 11
600.0
 21
-385.5
 31
0.0
  0
LINE
  5
5D1
100
AcDbEntity
  8
20
 62
     3
100
AcDbLine
 10
180.0
 20
-355.5
 30
0.0
 11
600.0
 21
-355.5
 31
0.0
  0
LINE
  5
5D2
100
AcDbEntity
  8
20
100
AcDbLine
 10
540.0
 20
-385.5
 30
0.0
 11
540.0
 21
-355.5
 31
0.0
  0
LINE
  5
5D3
100
AcDbEntity
  8
20
100
AcDbLine
 10
540.0
 20
-370.5
 30
0.0
 11
600.0
 21
-370.5
 31
0.0
  0
LINE
  5
5D4
100
AcDbEntity
  8
20
100
AcDbLine
 10
363.0
 20
-415.5
 30
0.0
 11
363.0
 21
-355.5
 31
0.0
  0
LINE
  5
5D5
100
AcDbEntity
  8
20
100
AcDbLine
 10
393.0
 20
-415.5
 30
0.0
 11
393.0
 21
-385.5
 31
0.0
  0
LINE
  5
5D6
100
AcDbEntity
  8
20
100
AcDbLine
 10
453.0
 20
-415.5
 30
0.0
 11
453.0
 21
-385.5
 31
0.0
  0
LINE
  5
5D7
100
AcDbEntity
  8
20
100
AcDbLine
 10
371.185245
 20
-407.314755
 30
0.0
 11
383.694873
 21
-394.805127
 31
0.0
  0
TEXT
  5
5D8
100
AcDbEntity
  8
20
100
AcDbText
 10
394.599987
 20
-397.490754
 30
0.0
 40
5.4
  1
ＤＲＡＷＩＮＧ　ＮＯ．
 72
     5
 11
452.919987
 21
-397.490754
 31
0.0
100
AcDbText
  0
TEXT
  5
5D9
100
AcDbEntity
  8
20
100
AcDbText
 10
400.5
 20
-409.5
 30
0.0
 40
9.0
  1
図　　　番
 72
     5
 11
443.7
 21
-409.5
 31
0.0
100
AcDbText
  0
TEXT
  5
5DA
100
AcDbEntity
  8
20
100
AcDbText
 10
558.0
 20
-366.0
 30
0.0
 40
6.0
  1
ＤＡＴＥ
 72
     5
 11
580.8
 21
-366.0
 31
0.0
100
AcDbText
  0
TEXT
  5
5DB
100
AcDbEntity
  8
20
100
AcDbText
 10
327.003213
 20
-398.883087
 30
0.0
 40
6.0
  1
ＳＣＡＬＥ
 72
     5
 11
355.803213
 21
-398.883087
 31
0.0
100
AcDbText
  0
TEXT
  5
5DC
100
AcDbEntity
  8
20
100
AcDbText
 10
324.0
 20
-409.5
 30
0.0
 40
9.0
  1
尺　　度
 72
     5
 11
358.2
 21
-409.5
 31
0.0
100
AcDbText
  0
TEXT
  5
5DD
100
AcDbEntity
  8
20
100
AcDbText
 10
322.503213
 20
-367.487655
 30
0.0
 40
6.0
  1
ＦＩＧ．ＮＯ．
 72
     5
 11
363.303213
 21
-367.487655
 31
0.0
100
AcDbText
  0
TEXT
  5
5DE
100
AcDbEntity
  8
20
100
AcDbText
 10
324.0
 20
-379.5
 30
0.0
 40
9.0
  1
名　　称
 72
     5
 11
358.2
 21
-379.5
 31
0.0
100
AcDbText
  0
TEXT
  5
5DF
100
AcDbEntity
  8
20
100
AcDbText
 10
181.696575
 20
-379.410759
 30
0.0
 40
6.9
  1
ＴＯＭＯＥ　ＶＡＬＶＥ　ＣＯ．，ＬＴＤ．
 72
     5
 11
318.316575
 21
-379.410759
 31
0.0
100
AcDbText
  0
TEXT
  5
5E0
100
AcDbEntity
  8
20
100
AcDbText
 10
202.5
 20
-399.86943
 30
0.0
 40
12.0
  1
巴バルブ株式会社
 72
     5
 11
296.1
 21
-399.86943
 31
0.0
100
AcDbText
  0
ENDSEC
  0
SECTION
  2
OBJECTS
  0
DICTIONARY
  5
66B
100
AcDbDictionary
  3
ACAD_GROUP
350
66C
  3
ACAD_MLINESTYLE
350
66D
  0
DICTIONARY
  5
66C
102
{ACAD_REACTORS
330
66B
102
}
100
AcDbDictionary
  0
DICTIONARY
  5
66D
102
{ACAD_REACTORS
330
66B
102
}
100
AcDbDictionary
  3
STANDARD
350
66E
  0
MLINESTYLE
  5
66E
102
{ACAD_REACTORS
330
66D
102
}
100
AcDbMlineStyle
  2
STANDARD
 70
     0
  3

 62
     0
 51
90.0
 52
90.0
 71
     2
 49
0.5
 62
   256
  6
BYLAYER
 49
-0.5
 62
   256
  6
BYLAYER
  0
ENDSEC
  0
EOF
