  0
SECTION
  2
HEADER
  9
$ACADVER
  1
AC1012
  9
$DWGCODEPAGE
  3
ansi_932
  9
$INSBASE
 10
0.0
 20
0.0
 30
0.0
  9
$EXTMIN
 10
-840.0
 20
-594.0
 30
1.000000E+20
  9
$EXTMAX
 10
840.0
 20
594.0
 30
-1.000000E+20
  9
$LIMMIN
 10
-840.0
 20
-594.0
  9
$LIMMAX
 10
840.0
 20
594.0
  9
$ORTHOMODE
 70
     0
  9
$REGENMODE
 70
     1
  9
$FILLMODE
 70
     1
  9
$QTEXTMODE
 70
     0
  9
$MIRRTEXT
 70
     1
  9
$DRAGMODE
 70
     2
  9
$LTSCALE
 40
1.0
  9
$OSMODE
 70
     0
  9
$ATTMODE
 70
     1
  9
$TEXTSIZE
 40
0.2
  9
$TRACEWID
 40
0.05
  9
$TEXTSTYLE
  7
STANDARD
  9
$CLAYER
  8
0
  9
$CELTYPE
  6
CONTINUOUS
  9
$CECOLOR
 62
   256
  9
$CELTSCALE
 40
1.0
  9
$DELOBJ
 70
     1
  9
$DISPSILH
 70
     0
  9
$DIMSCALE
 40
4.0
  9
$DIMASZ
 40
0.18
  9
$DIMEXO
 40
0.0625
  9
$DIMDLI
 40
0.38
  9
$DIMRND
 40
0.0
  9
$DIMDLE
 40
0.0
  9
$DIMEXE
 40
0.18
  9
$DIMTP
 40
0.0
  9
$DIMTM
 40
0.0
  9
$DIMTXT
 40
0.18
  9
$DIMCEN
 40
0.09
  9
$DIMTSZ
 40
0.0
  9
$DIMTOL
 70
     0
  9
$DIMLIM
 70
     0
  9
$DIMTIH
 70
     1
  9
$DIMTOH
 70
     1
  9
$DIMSE1
 70
     0
  9
$DIMSE2
 70
     0
  9
$DIMTAD
 70
     1
  9
$DIMZIN
 70
     0
  9
$DIMBLK
  1

  9
$DIMASO
 70
     1
  9
$DIMSHO
 70
     1
  9
$DIMPOST
  1

  9
$DIMAPOST
  1

  9
$DIMALT
 70
     0
  9
$DIMALTD
 70
     2
  9
$DIMALTF
 40
25.4
  9
$DIMLFAC
 40
1.0
  9
$DIMTOFL
 70
     0
  9
$DIMTVP
 40
0.0
  9
$DIMTIX
 70
     0
  9
$DIMSOXD
 70
     0
  9
$DIMSAH
 70
     0
  9
$DIMBLK1
  1

  9
$DIMBLK2
  1

  9
$DIMSTYLE
  2
STANDARD
  9
$DIMCLRD
 70
     0
  9
$DIMCLRE
 70
     0
  9
$DIMCLRT
 70
     0
  9
$DIMTFAC
 40
1.0
  9
$DIMGAP
 40
0.09
  9
$DIMJUST
 70
     0
  9
$DIMSD1
 70
     0
  9
$DIMSD2
 70
     0
  9
$DIMTOLJ
 70
     1
  9
$DIMTZIN
 70
     0
  9
$DIMALTZ
 70
     0
  9
$DIMALTTZ
 70
     0
  9
$DIMFIT
 70
     3
  9
$DIMUPT
 70
     0
  9
$DIMUNIT
 70
     2
  9
$DIMDEC
 70
     4
  9
$DIMTDEC
 70
     4
  9
$DIMALTU
 70
     2
  9
$DIMALTTD
 70
     2
  9
$DIMTXSTY
  7
STANDARD
  9
$DIMAUNIT
 70
     0
  9
$LUNITS
 70
     2
  9
$LUPREC
 70
     4
  9
$SKETCHINC
 40
0.1
  9
$FILLETRAD
 40
0.0
  9
$AUNITS
 70
     0
  9
$AUPREC
 70
     0
  9
$MENU
  1
acad
  9
$ELEVATION
 40
0.0
  9
$PELEVATION
 40
0.0
  9
$THICKNESS
 40
0.0
  9
$LIMCHECK
 70
     0
  9
$BLIPMODE
 70
     1
  9
$CHAMFERA
 40
0.0
  9
$CHAMFERB
 40
0.0
  9
$CHAMFERC
 40
0.0
  9
$CHAMFERD
 40
0.0
  9
$SKPOLY
 70
     0
  9
$TDCREATE
 40
2451449.000000000
  9
$TDUPDATE
 40
0.000000000
  9
$TDINDWG
 40
0.0000000000
  9
$TDUSRTIMER
 40
0.0000000000
  9
$USRTIMER
 70
     1
  9
$ANGBASE
 50
0.0
  9
$ANGDIR
 70
     0
  9
$PDMODE
 70
     0
  9
$PDSIZE
 40
0.0
  9
$PLINEWID
 40
0.0
  9
$COORDS
 70
     0
  9
$SPLFRAME
 70
     0
  9
$SPLINETYPE
 70
     6
  9
$SPLINESEGS
 70
     8
  9
$ATTDIA
 70
     0
  9
$ATTREQ
 70
     1
  9
$HANDLING
 70
     1
  9
$HANDSEED
  5
7C7
  9
$SURFTAB1
 70
     6
  9
$SURFTAB2
 70
     6
  9
$SURFTYPE
 70
     6
  9
$SURFU
 70
     6
  9
$SURFV
 70
     6
  9
$UCSNAME
  2

  9
$UCSORG
 10
0.0
 20
0.0
 30
0.0
  9
$UCSXDIR
 10
1.0
 20
0.0
 30
0.0
  9
$UCSYDIR
 10
0.0
 20
1.0
 30
0.0
  9
$PUCSNAME
  2

  9
$PUCSORG
 10
0.0
 20
0.0
 30
0.0
  9
$PUCSXDIR
 10
1.0
 20
0.0
 30
0.0
  9
$PUCSYDIR
 10
0.0
 20
1.0
 30
0.0
  9
$USERI1
 70
     0
  9
$USERI2
 70
     0
  9
$USERI3
 70
     0
  9
$USERI4
 70
     0
  9
$USERI5
 70
     0
  9
$USERR1
 40
0.0
  9
$USERR2
 40
0.0
  9
$USERR3
 40
0.0
  9
$USERR4
 40
0.0
  9
$USERR5
 40
0.0
  9
$WORLDVIEW
 70
     1
  9
$SHADEDGE
 70
     3
  9
$SHADEDIF
 70
    70
  9
$TILEMODE
 70
     1
  9
$MAXACTVP
 70
    16
  9
$PINSBASE
 10
0.0
 20
0.0
 30
0.0
  9
$PLIMCHECK
 70
     0
  9
$PEXTMIN
 10
1.000000E+20
 20
1.000000E+20
 30
1.000000E+20
  9
$PEXTMAX
 10
-1.000000E+20
 20
-1.000000E+20
 30
-1.000000E+20
  9
$PLIMMIN
 10
0.0
 20
0.0
  9
$PLIMMAX
 10
12.0
 20
9.0
  9
$UNITMODE
 70
     0
  9
$VISRETAIN
 70
     0
  9
$PLINEGEN
 70
     1
  9
$PSLTSCALE
 70
     0
  9
$TREEDEPTH
 70
  3020
  9
$PICKSTYLE
 70
     1
  9
$CMLSTYLE
  2
STANDARD
  9
$CMLJUST
 70
     0
  9
$CMLSCALE
 40
1.0
  9
$SAVEIMAGES
 70
     0
  0
ENDSEC
  0
SECTION
  2
CLASSES
  0
CLASS
  1
LWPOLYLINE
  2
AcDbPolyline
  3
"AutoCAD"
 90
    32768
280
     0
281
     1
  0
CLASS
  1
IMAGE
  2
AcDbRasterImage
  3
ISM
 90
    32895
280
     0
281
     1
  0
CLASS
  1
OLE2FRAME
  2
AcDbOle2Frame
  3
""
 90
    32768
280
     0
281
     1
  0
CLASS
  1
HATCH
  2
AcDbHatch
  3
"ACAD_SEDONA"
 90
    32768
280
     0
281
     1
  0
CLASS
  1
DICTIONARYVAR
  2
AcDbDictionaryVar
  3
"AutoCAD"
 90
    32768
280
     0
281
     0
  0
CLASS
  1
RASTERVARIABLES
  2
AcDbRasterVariables
  3
ISM
 90
    32768
280
     0
281
     0
  0
CLASS
  1
IMAGEDEF
  2
AcDbRasterImageDef
  3
ISM
 90
    32768
280
     0
281
     0
  0
CLASS
  1
IMAGEDEF_REACTOR
  2
AcDbRasterImageDefReactor
  3
ISM
 90
    32769
280
     0
281
     0
  0
CLASS
  1
IDBUFFER
  2
AcDbIdBuffer
  3
"Acad"
 90
    32768
280
     0
281
     0
  0
CLASS
  1
SPATIAL_FILTER
  2
AcDbSpatialFilter
  3
"Acad"
 90
    32768
280
     0
281
     0
  0
CLASS
  1
XRECORD
  2
AcDbXrecord
  3
"<Built In>"
 90
    32768
280
     0
281
     0
  0
CLASS
  1
SORTENTSTABLE
  2
AcDbSortentsTable
  3
"AutoCAD"
 90
    32768
280
     0
281
     0
  0
CLASS
  1
LAYER_INDEX
  2
AcDbLayerIndex
  3
"Acad"
 90
    32768
280
     0
281
     0
  0
CLASS
  1
SPATIAL_INDEX
  2
AcDbSpatialIndex
  3
"Acad"
 90
    32768
280
     0
281
     0
  0
CLASS
  1
OBJECT_PTR
  2
CAseDLPNTableRecord
  3
"ASE-LPNTableRecord"
 90
    32769
280
     0
281
     0
  0
CLASS
  1
LAYOUT
  2
AcDbLayout
  3
"AutoCAD 2000"
 90
    32768
280
     0
281
     0
  0
CLASS
  1
PLOTSETTINGS
  2
AcDbPlotSettings
  3
"AutoCAD 2000"
 90
    32768
280
     0
281
     0
  0
CLASS
  1
ACDBDICTIONARYWDFLT
  2
AcDbDictionaryWithDefault
  3
"AutoCAD 2000"
 90
    32768
280
     0
281
     0
  0
CLASS
  1
ACDBPLACEHOLDER
  2
AcDbPlaceHolder
  3
"AutoCAD 2000"
 90
    32768
280
     0
281
     0
  0
CLASS
  1
VBA_PROJECT
  2
AcDbVbaProject
  3
"acadvba"
 90
    32768
280
     0
281
     0
  0
CLASS
  1
WIPEOUT
  2
AcDbWipeout
  3
WipeOut|AutoCAD Express Tool|expresstools@autodesk.com
 90
    32895
280
     0
281
     1
  0
CLASS
  1
WIPEOUTVARIABLES
  2
AcDbWipeoutVariables
  3
WipeOut|AutoCAD Express Tool|expresstools@autodesk.com
 90
    32768
280
     0
281
     0
  0
CLASS
  1
RTEXT
  2
RText
  3
RText|AutoCAD Express Tool|expresstools@autodesk.com
 90
    32768
280
     0
281
     1
  0
CLASS
  1
ARCALIGNEDTEXT
  2
AcDbArcAlignedText
  3
ATEXT|AutoCAD Express Tool|expresstools@autodesk.com
 90
    32768
280
     0
281
     1
  0
ENDSEC
  0
SECTION
  2
TABLES
  0
TABLE
  2
VPORT
  5
6
100
AcDbSymbolTable
 70
     1
  0
VPORT
  5
1D
100
AcDbSymbolTableRecord
100
AcDbViewportTableRecord
  2
*ACTIVE
 70
     0
 10
0.0
 20
0.0
 11
1.0
 21
1.0
 12
0.0
 22
0.0
 13
0.0
 23
0.0
 14
1.0
 24
1.0
 15
0.0
 25
0.0
 16
0.0
 26
0.0
 36
1.0
 17
0.0
 27
0.0
 37
0.0
 40
1188.0
 41
1.414141
 42
50.0
 43
0.0
 44
0.0
 50
0.0
 51
0.0
 71
     0
 72
   500
 73
     1
 74
     1
 75
     0
 76
     0
 77
     0
 78
     0
  0
ENDTAB
  0
TABLE
  2
LTYPE
  5
3
100
AcDbSymbolTable
 70
     9
  0
LTYPE
  5
C
100
AcDbSymbolTableRecord
100
AcDbLinetypeTableRecord
  2
BYBLOCK
 70
    64
  3

 72
    65
 73
     0
 40
0.0
  0
LTYPE
  5
D
100
AcDbSymbolTableRecord
100
AcDbLinetypeTableRecord
  2
BYLAYER
 70
    64
  3

 72
    65
 73
     0
 40
0.0
  0
LTYPE
  5
E
100
AcDbSymbolTableRecord
100
AcDbLinetypeTableRecord
  2
CONTINUOUS
 70
     0
  3
Solid line
 72
    65
 73
     0
 40
0.0
  0
LTYPE
  5
F
100
AcDbSymbolTableRecord
100
AcDbLinetypeTableRecord
  2
DASHED
 70
     0
  3
__ __ __ __ __ __ __ __ __ __ __ __ __ __ __
 72
    65
 73
     2
 40
2.0
 49
1.2
 74
     0
 49
-0.8
 74
     0
  0
LTYPE
  5
10
100
AcDbSymbolTableRecord
100
AcDbLinetypeTableRecord
  2
CENTER
 70
     0
  3
____ _ ____ _ ____ _ ____ _ ____ _ ____ _ ____
 72
    65
 73
     4
 40
12.0
 49
9.0
 74
     0
 49
-1.0
 74
     0
 49
1.0
 74
     0
 49
-1.0
 74
     0
  0
LTYPE
  5
11
100
AcDbSymbolTableRecord
100
AcDbLinetypeTableRecord
  2
HIDDEN
 70
     0
  3
_ _ _ _ _ _ _ _ _ _ _ _ _ _ _ _ _ _ _ _ _ _ _
 72
    65
 73
     2
 40
3.2
 49
2.4
 74
     0
 49
-0.8
 74
     0
  0
LTYPE
  5
12
100
AcDbSymbolTableRecord
100
AcDbLinetypeTableRecord
  2
PHANTOM
 70
     0
  3
_____ _ _ _____ _ _ _____ _ _ _____ _ _ _____
 72
    65
 73
     6
 40
13.5
 49
9.0
 74
     0
 49
-1.0
 74
     0
 49
1.0
 74
     0
 49
-0.5
 74
     0
 49
1.0
 74
     0
 49
-1.0
 74
     0
  0
LTYPE
  5
13
100
AcDbSymbolTableRecord
100
AcDbLinetypeTableRecord
  2
DOT
 70
     0
  3
...............................................
 72
    65
 73
     2
 40
1.0
 49
0.5
 74
     0
 49
-0.5
 74
     0
  0
LTYPE
  5
14
100
AcDbSymbolTableRecord
100
AcDbLinetypeTableRecord
  2
DASHDOT
 70
     0
  3
__ . __ . __ . __ . __ . __ . __ . __ . __ . __
 72
    65
 73
     4
 40
8.0
 49
5.0
 74
     0
 49
-1.0
 74
     0
 49
1.0
 74
     0
 49
-1.0
 74
     0
  0
ENDTAB
  0
TABLE
  2
LAYER
  5
1
100
AcDbSymbolTable
 70
     8
  0
LAYER
  5
15
100
AcDbSymbolTableRecord
100
AcDbLayerTableRecord
  2
0
 70
     0
 62
     7
  6
CONTINUOUS
  0
LAYER
  5
16
100
AcDbSymbolTableRecord
100
AcDbLayerTableRecord
  2
1
 70
     0
 62
     7
  6
CONTINUOUS
  0
LAYER
  5
17
100
AcDbSymbolTableRecord
100
AcDbLayerTableRecord
  2
2
 70
     0
 62
     7
  6
CONTINUOUS
  0
LAYER
  5
18
100
AcDbSymbolTableRecord
100
AcDbLayerTableRecord
  2
3
 70
     0
 62
     7
  6
CONTINUOUS
  0
LAYER
  5
19
100
AcDbSymbolTableRecord
100
AcDbLayerTableRecord
  2
4
 70
     0
 62
     7
  6
CONTINUOUS
  0
LAYER
  5
1A
100
AcDbSymbolTableRecord
100
AcDbLayerTableRecord
  2
5
 70
     0
 62
     7
  6
CONTINUOUS
  0
LAYER
  5
1B
100
AcDbSymbolTableRecord
100
AcDbLayerTableRecord
  2
18
 70
     0
 62
     7
  6
CONTINUOUS
  0
LAYER
  5
1C
100
AcDbSymbolTableRecord
100
AcDbLayerTableRecord
  2
20
 70
     0
 62
     7
  6
CONTINUOUS
  0
ENDTAB
  0
TABLE
  2
STYLE
  5
2
100
AcDbSymbolTable
 70
     1
  0
STYLE
  5
1F
100
AcDbSymbolTableRecord
100
AcDbTextStyleTableRecord
  2
STANDARD
 70
    64
 40
0.0
 41
1.0
 50
0.0
 71
     0
 42
1.0
  3
txt
  4
BIGFONT
  0
ENDTAB
  0
TABLE
  2
VIEW
  5
4
100
AcDbSymbolTable
 70
     0
  0
ENDTAB
  0
TABLE
  2
UCS
  5
5
100
AcDbSymbolTable
 70
     0
  0
ENDTAB
  0
TABLE
  2
APPID
  5
7
100
AcDbSymbolTable
 70
     1
  0
APPID
  5
1E
100
AcDbSymbolTableRecord
100
AcDbRegAppTableRecord
  2
ACAD
 70
     0
  0
ENDTAB
  0
TABLE
  2
DIMSTYLE
  5
8
100
AcDbSymbolTable
 70
     1
  0
DIMSTYLE
105
33
100
AcDbSymbolTableRecord
100
AcDbDimStyleTableRecord
  2
STANDARD
 70
     0
  3

  4

  5

  6

  7

 40
4.0
 41
0.18
 42
0.0625
 43
0.38
 44
0.18
 45
0.0
 46
0.0
 47
0.0
 48
0.0
 71
     0
 72
     0
 73
     1
 74
     1
 75
     0
 76
     0
 77
     1
 78
     0
140
0.18
141
0.09
142
0.0
143
25.4
144
1.0
145
0.0
146
1.0
147
0.09
170
     0
171
     2
172
     0
173
     0
174
     0
175
     0
176
     0
177
     0
178
     0
270
     2
271
     4
272
     4
273
     2
274
     2
275
     0
280
     0
281
     0
282
     0
283
     1
284
     0
285
     0
286
     0
287
     3
288
     0
340
1F
  0
ENDTAB
  0
TABLE
  2
BLOCK_RECORD
  5
2E
100
AcDbSymbolTable
 70
    12
  0
BLOCK_RECORD
  5
2C
100
AcDbSymbolTableRecord
100
AcDbBlockTableRecord
  2
*MODEL_SPACE
  0
BLOCK_RECORD
  5
2D
100
AcDbSymbolTableRecord
100
AcDbBlockTableRecord
  2
*PAPER_SPACE
  0
BLOCK_RECORD
  5
20
100
AcDbSymbolTableRecord
100
AcDbBlockTableRecord
  2
*D0
  0
BLOCK_RECORD
  5
21
100
AcDbSymbolTableRecord
100
AcDbBlockTableRecord
  2
*D1
  0
BLOCK_RECORD
  5
22
100
AcDbSymbolTableRecord
100
AcDbBlockTableRecord
  2
*D2
  0
BLOCK_RECORD
  5
23
100
AcDbSymbolTableRecord
100
AcDbBlockTableRecord
  2
*D3
  0
BLOCK_RECORD
  5
24
100
AcDbSymbolTableRecord
100
AcDbBlockTableRecord
  2
*D4
  0
BLOCK_RECORD
  5
25
100
AcDbSymbolTableRecord
100
AcDbBlockTableRecord
  2
*D5
  0
BLOCK_RECORD
  5
26
100
AcDbSymbolTableRecord
100
AcDbBlockTableRecord
  2
*D6
  0
BLOCK_RECORD
  5
27
100
AcDbSymbolTableRecord
100
AcDbBlockTableRecord
  2
*D7
  0
BLOCK_RECORD
  5
28
100
AcDbSymbolTableRecord
100
AcDbBlockTableRecord
  2
*D8
  0
BLOCK_RECORD
  5
29
100
AcDbSymbolTableRecord
100
AcDbBlockTableRecord
  2
*D9
  0
BLOCK_RECORD
  5
2A
100
AcDbSymbolTableRecord
100
AcDbBlockTableRecord
  2
*D10
  0
BLOCK_RECORD
  5
2B
100
AcDbSymbolTableRecord
100
AcDbBlockTableRecord
  2
*D11
  0
ENDTAB
  0
ENDSEC
  0
SECTION
  2
BLOCKS
  0
BLOCK
  5
2F
100
AcDbEntity
  8
0
100
AcDbBlockBegin
  2
*MODEL_SPACE
 70
     0
 10
0.0
 20
0.0
 30
0.0
  3
*MODEL_SPACE
  1

  0
ENDBLK
  5
30
100
AcDbEntity
  8
0
100
AcDbBlockEnd
  0
BLOCK
  5
31
100
AcDbEntity
 67
     1
  8
0
100
AcDbBlockBegin
  2
*PAPER_SPACE
 70
     0
 10
0.0
 20
0.0
 30
0.0
  3
*PAPER_SPACE
  1

  0
ENDBLK
  5
32
100
AcDbEntity
 67
     1
  8
0
100
AcDbBlockEnd
  0
BLOCK
  5
736
100
AcDbEntity
  8
5
100
AcDbBlockBegin
  2
*D0
 70
     1
 10
0.0
 20
0.0
 30
0.0
  3
*D0
  1

  0
TEXT
  5
737
100
AcDbEntity
  8
5
 62
     2
100
AcDbText
 10
-612.639708
 20
374.878232
 30
0.0
 40
13.2
  1
102.5
 50
90.0
 41
1.4
 72
     5
 11
-612.639708
 21
417.382232
 31
0.0
100
AcDbText
  0
LINE
  5
738
100
AcDbEntity
  8
5
 62
     2
100
AcDbLine
 10
-579.6572
 20
346.728232
 30
0.0
 11
-614.639708
 21
346.728232
 31
0.0
  0
LINE
  5
739
100
AcDbEntity
  8
5
 62
     2
100
AcDbLine
 10
-610.639708
 20
346.728232
 30
0.0
 11
-608.569156
 21
354.455639
 31
0.0
  0
LINE
  5
73A
100
AcDbEntity
  8
5
 62
     2
100
AcDbLine
 10
-610.639708
 20
346.728232
 30
0.0
 11
-612.71026
 21
354.455639
 31
0.0
  0
LINE
  5
73B
100
AcDbEntity
  8
5
 62
     2
100
AcDbLine
 10
-608.569156
 20
354.455639
 30
0.0
 11
-612.71026
 21
354.455639
 31
0.0
  0
LINE
  5
73C
100
AcDbEntity
  8
5
 62
     2
100
AcDbLine
 10
-610.639708
 20
346.728232
 30
0.0
 11
-610.639708
 21
449.228232
 31
0.0
  0
LINE
  5
73D
100
AcDbEntity
  8
5
 62
     2
100
AcDbLine
 10
-610.639708
 20
449.228232
 30
0.0
 11
-612.71026
 21
441.500825
 31
0.0
  0
LINE
  5
73E
100
AcDbEntity
  8
5
 62
     2
100
AcDbLine
 10
-610.639708
 20
449.228232
 30
0.0
 11
-608.569156
 21
441.500825
 31
0.0
  0
LINE
  5
73F
100
AcDbEntity
  8
5
 62
     2
100
AcDbLine
 10
-612.71026
 20
441.500825
 30
0.0
 11
-608.569156
 21
441.500825
 31
0.0
  0
LINE
  5
740
100
AcDbEntity
  8
5
 62
     2
100
AcDbLine
 10
-455.3761
 20
449.228232
 30
0.0
 11
-614.639708
 21
449.228232
 31
0.0
  0
ENDBLK
  5
741
100
AcDbEntity
  8
5
100
AcDbBlockEnd
  0
BLOCK
  5
742
100
AcDbEntity
  8
5
100
AcDbBlockBegin
  2
*D1
 70
     1
 10
0.0
 20
0.0
 30
0.0
  3
*D1
  1

  0
TEXT
  5
743
100
AcDbEntity
  8
5
 62
     2
100
AcDbText
 10
-612.639708
 20
289.498232
 30
0.0
 40
13.2
  1
77.5
 50
90.0
 41
1.4
 72
     5
 11
-612.639708
 21
322.762232
 31
0.0
100
AcDbText
  0
LINE
  5
744
100
AcDbEntity
  8
5
 62
     2
100
AcDbLine
 10
-438.3761
 20
269.228232
 30
0.0
 11
-614.639708
 21
269.228232
 31
0.0
  0
LINE
  5
745
100
AcDbEntity
  8
5
 62
     2
100
AcDbLine
 10
-610.639708
 20
269.228232
 30
0.0
 11
-608.569156
 21
276.955639
 31
0.0
  0
LINE
  5
746
100
AcDbEntity
  8
5
 62
     2
100
AcDbLine
 10
-610.639708
 20
269.228232
 30
0.0
 11
-612.71026
 21
276.955639
 31
0.0
  0
LINE
  5
747
100
AcDbEntity
  8
5
 62
     2
100
AcDbLine
 10
-608.569156
 20
276.955639
 30
0.0
 11
-612.71026
 21
276.955639
 31
0.0
  0
LINE
  5
748
100
AcDbEntity
  8
5
 62
     2
100
AcDbLine
 10
-610.639708
 20
269.228232
 30
0.0
 11
-610.639708
 21
346.728232
 31
0.0
  0
LINE
  5
749
100
AcDbEntity
  8
5
 62
     2
100
AcDbLine
 10
-610.639708
 20
346.728232
 30
0.0
 11
-612.71026
 21
339.000825
 31
0.0
  0
LINE
  5
74A
100
AcDbEntity
  8
5
 62
     2
100
AcDbLine
 10
-610.639708
 20
346.728232
 30
0.0
 11
-608.569156
 21
339.000825
 31
0.0
  0
LINE
  5
74B
100
AcDbEntity
  8
5
 62
     2
100
AcDbLine
 10
-612.71026
 20
339.000825
 30
0.0
 11
-608.569156
 21
339.000825
 31
0.0
  0
LINE
  5
74C
100
AcDbEntity
  8
5
 62
     2
100
AcDbLine
 10
-579.6572
 20
346.728232
 30
0.0
 11
-614.639708
 21
346.728232
 31
0.0
  0
ENDBLK
  5
74D
100
AcDbEntity
  8
5
100
AcDbBlockEnd
  0
BLOCK
  5
74E
100
AcDbEntity
  8
5
100
AcDbBlockBegin
  2
*D2
 70
     1
 10
0.0
 20
0.0
 30
0.0
  3
*D2
  1

  0
LINE
  5
74F
100
AcDbEntity
  8
5
 62
     2
100
AcDbLine
 10
-434.3761
 20
37.707256
 30
0.0
 11
-434.3761
 21
106.236259
 31
0.0
  0
LINE
  5
750
100
AcDbEntity
  8
5
 62
     2
100
AcDbLine
 10
-434.3761
 20
102.236259
 30
0.0
 11
-426.648693
 21
100.165707
 31
0.0
  0
LINE
  5
751
100
AcDbEntity
  8
5
 62
     2
100
AcDbLine
 10
-434.3761
 20
102.236259
 30
0.0
 11
-426.648693
 21
104.306812
 31
0.0
  0
LINE
  5
752
100
AcDbEntity
  8
5
 62
     2
100
AcDbLine
 10
-426.648693
 20
100.165707
 30
0.0
 11
-426.648693
 21
104.306812
 31
0.0
  0
LINE
  5
753
100
AcDbEntity
  8
5
 62
     2
100
AcDbLine
 10
-434.3761
 20
102.236259
 30
0.0
 11
-84.561804
 21
102.236259
 31
0.0
  0
LINE
  5
754
100
AcDbEntity
  8
5
 62
     2
100
AcDbLine
 10
-84.561804
 20
102.236259
 30
0.0
 11
-92.289211
 21
104.306812
 31
0.0
  0
LINE
  5
755
100
AcDbEntity
  8
5
 62
     2
100
AcDbLine
 10
-84.561804
 20
102.236259
 30
0.0
 11
-92.289211
 21
100.165707
 31
0.0
  0
LINE
  5
756
100
AcDbEntity
  8
5
 62
     2
100
AcDbLine
 10
-92.289211
 20
104.306812
 30
0.0
 11
-92.289211
 21
100.165707
 31
0.0
  0
LINE
  5
757
100
AcDbEntity
  8
5
 62
     2
100
AcDbLine
 10
-84.561804
 20
64.988291
 30
0.0
 11
-84.561804
 21
106.236259
 31
0.0
  0
ENDBLK
  5
758
100
AcDbEntity
  8
5
100
AcDbBlockEnd
  0
BLOCK
  5
759
100
AcDbEntity
  8
5
100
AcDbBlockBegin
  2
*D3
 70
     1
 10
0.0
 20
0.0
 30
0.0
  3
*D3
  1

  0
TEXT
  5
75A
100
AcDbEntity
  8
5
 62
     2
100
AcDbText
 10
52.014969
 20
-43.207968
 30
0.0
 40
13.2
  1
28
 50
90.0
 41
1.4
 72
     5
 11
52.014969
 21
-28.423968
 31
0.0
100
AcDbText
  0
LINE
  5
75B
100
AcDbEntity
  8
5
 62
     2
100
AcDbLine
 10
111.793527
 20
-47.967968
 30
0.0
 11
50.014969
 21
-47.967968
 31
0.0
  0
LINE
  5
75C
100
AcDbEntity
  8
5
 62
     2
100
AcDbLine
 10
54.014969
 20
-47.967968
 30
0.0
 11
56.085521
 21
-40.240561
 31
0.0
  0
LINE
  5
75D
100
AcDbEntity
  8
5
 62
     2
100
AcDbLine
 10
54.014969
 20
-47.967968
 30
0.0
 11
51.944417
 21
-40.240561
 31
0.0
  0
LINE
  5
75E
100
AcDbEntity
  8
5
 62
     2
100
AcDbLine
 10
56.085521
 20
-40.240561
 30
0.0
 11
51.944417
 21
-40.240561
 31
0.0
  0
LINE
  5
75F
100
AcDbEntity
  8
5
 62
     2
100
AcDbLine
 10
54.014969
 20
-47.967968
 30
0.0
 11
54.014969
 21
-19.967968
 31
0.0
  0
LINE
  5
760
100
AcDbEntity
  8
5
 62
     2
100
AcDbLine
 10
54.014969
 20
-19.967968
 30
0.0
 11
51.944417
 21
-27.695375
 31
0.0
  0
LINE
  5
761
100
AcDbEntity
  8
5
 62
     2
100
AcDbLine
 10
54.014969
 20
-19.967968
 30
0.0
 11
56.085521
 21
-27.695375
 31
0.0
  0
LINE
  5
762
100
AcDbEntity
  8
5
 62
     2
100
AcDbLine
 10
51.944417
 20
-27.695375
 30
0.0
 11
56.085521
 21
-27.695375
 31
0.0
  0
LINE
  5
763
100
AcDbEntity
  8
5
 62
     2
100
AcDbLine
 10
93.1844
 20
-19.967968
 30
0.0
 11
50.014969
 21
-19.967968
 31
0.0
  0
ENDBLK
  5
764
100
AcDbEntity
  8
5
100
AcDbBlockEnd
  0
BLOCK
  5
765
100
AcDbEntity
  8
5
100
AcDbBlockBegin
  2
*D4
 70
     1
 10
0.0
 20
0.0
 30
0.0
  3
*D4
  1

  0
LINE
  5
766
100
AcDbEntity
  8
5
 62
     2
100
AcDbLine
 10
93.1844
 20
-19.967968
 30
0.0
 11
50.014969
 21
-19.967968
 31
0.0
  0
LINE
  5
767
100
AcDbEntity
  8
5
 62
     2
100
AcDbLine
 10
54.014969
 20
-19.967968
 30
0.0
 11
56.085521
 21
-12.240561
 31
0.0
  0
LINE
  5
768
100
AcDbEntity
  8
5
 62
     2
100
AcDbLine
 10
54.014969
 20
-19.967968
 30
0.0
 11
51.944417
 21
-12.240561
 31
0.0
  0
LINE
  5
769
100
AcDbEntity
  8
5
 62
     2
100
AcDbLine
 10
56.085521
 20
-12.240561
 30
0.0
 11
51.944417
 21
-12.240561
 31
0.0
  0
LINE
  5
76A
100
AcDbEntity
  8
5
 62
     2
100
AcDbLine
 10
54.014969
 20
-19.967968
 30
0.0
 11
54.014969
 21
74.928585
 31
0.0
  0
LINE
  5
76B
100
AcDbEntity
  8
5
 62
     2
100
AcDbLine
 10
54.014969
 20
74.928585
 30
0.0
 11
51.944417
 21
67.201178
 31
0.0
  0
LINE
  5
76C
100
AcDbEntity
  8
5
 62
     2
100
AcDbLine
 10
54.014969
 20
74.928585
 30
0.0
 11
56.085521
 21
67.201178
 31
0.0
  0
LINE
  5
76D
100
AcDbEntity
  8
5
 62
     2
100
AcDbLine
 10
51.944417
 20
67.201178
 30
0.0
 11
56.085521
 21
67.201178
 31
0.0
  0
LINE
  5
76E
100
AcDbEntity
  8
5
 62
     2
100
AcDbLine
 10
170.6844
 20
74.928585
 30
0.0
 11
50.014969
 21
74.928585
 31
0.0
  0
ENDBLK
  5
76F
100
AcDbEntity
  8
5
100
AcDbBlockEnd
  0
BLOCK
  5
770
100
AcDbEntity
  8
5
100
AcDbBlockBegin
  2
*D5
 70
     1
 10
0.0
 20
0.0
 30
0.0
  3
*D5
  1

  0
TEXT
  5
771
100
AcDbEntity
  8
5
 62
     2
100
AcDbText
 10
52.014969
 20
-164.327968
 30
0.0
 40
13.2
  1
205
 50
90.0
 41
1.4
 72
     5
 11
52.014969
 21
-140.303968
 31
0.0
100
AcDbText
  0
LINE
  5
772
100
AcDbEntity
  8
5
 62
     2
100
AcDbLine
 10
124.950064
 20
-252.967968
 30
0.0
 11
50.014969
 21
-252.967968
 31
0.0
  0
LINE
  5
773
100
AcDbEntity
  8
5
 62
     2
100
AcDbLine
 10
54.014969
 20
-252.967968
 30
0.0
 11
56.085521
 21
-245.240561
 31
0.0
  0
LINE
  5
774
100
AcDbEntity
  8
5
 62
     2
100
AcDbLine
 10
54.014969
 20
-252.967968
 30
0.0
 11
51.944417
 21
-245.240561
 31
0.0
  0
LINE
  5
775
100
AcDbEntity
  8
5
 62
     2
100
AcDbLine
 10
56.085521
 20
-245.240561
 30
0.0
 11
51.944417
 21
-245.240561
 31
0.0
  0
LINE
  5
776
100
AcDbEntity
  8
5
 62
     2
100
AcDbLine
 10
54.014969
 20
-252.967968
 30
0.0
 11
54.014969
 21
-47.967968
 31
0.0
  0
LINE
  5
777
100
AcDbEntity
  8
5
 62
     2
100
AcDbLine
 10
54.014969
 20
-47.967968
 30
0.0
 11
51.944417
 21
-55.695375
 31
0.0
  0
LINE
  5
778
100
AcDbEntity
  8
5
 62
     2
100
AcDbLine
 10
54.014969
 20
-47.967968
 30
0.0
 11
56.085521
 21
-55.695375
 31
0.0
  0
LINE
  5
779
100
AcDbEntity
  8
5
 62
     2
100
AcDbLine
 10
51.944417
 20
-55.695375
 30
0.0
 11
56.085521
 21
-55.695375
 31
0.0
  0
LINE
  5
77A
100
AcDbEntity
  8
5
 62
     2
100
AcDbLine
 10
108.1844
 20
-47.967968
 30
0.0
 11
50.014969
 21
-47.967968
 31
0.0
  0
ENDBLK
  5
77B
100
AcDbEntity
  8
5
100
AcDbBlockEnd
  0
BLOCK
  5
77C
100
AcDbEntity
  8
5
100
AcDbBlockBegin
  2
*D6
 70
     1
 10
0.0
 20
0.0
 30
0.0
  3
*D6
  1

  0
TEXT
  5
77D
100
AcDbEntity
  8
5
 62
     2
100
AcDbText
 10
153.9444
 20
-454.332397
 30
0.0
 40
13.2
  1
23
 41
1.4
 72
     5
 11
168.7284
 21
-454.332397
 31
0.0
100
AcDbText
  0
LINE
  5
77E
100
AcDbEntity
  8
5
 62
     2
100
AcDbLine
 10
151.6844
 20
-364.967968
 30
0.0
 11
151.6844
 21
-460.332397
 31
0.0
  0
LINE
  5
77F
100
AcDbEntity
  8
5
 62
     2
100
AcDbLine
 10
151.6844
 20
-456.332397
 30
0.0
 11
159.411807
 21
-458.40295
 31
0.0
  0
LINE
  5
780
100
AcDbEntity
  8
5
 62
     2
100
AcDbLine
 10
151.6844
 20
-456.332397
 30
0.0
 11
159.411807
 21
-454.261845
 31
0.0
  0
LINE
  5
781
100
AcDbEntity
  8
5
 62
     2
100
AcDbLine
 10
159.411807
 20
-458.40295
 30
0.0
 11
159.411807
 21
-454.261845
 31
0.0
  0
LINE
  5
782
100
AcDbEntity
  8
5
 62
     2
100
AcDbLine
 10
151.6844
 20
-456.332397
 30
0.0
 11
174.6844
 21
-456.332397
 31
0.0
  0
LINE
  5
783
100
AcDbEntity
  8
5
 62
     2
100
AcDbLine
 10
174.6844
 20
-456.332397
 30
0.0
 11
166.956993
 21
-454.261845
 31
0.0
  0
LINE
  5
784
100
AcDbEntity
  8
5
 62
     2
100
AcDbLine
 10
174.6844
 20
-456.332397
 30
0.0
 11
166.956993
 21
-458.40295
 31
0.0
  0
LINE
  5
785
100
AcDbEntity
  8
5
 62
     2
100
AcDbLine
 10
166.956993
 20
-454.261845
 30
0.0
 11
166.956993
 21
-458.40295
 31
0.0
  0
LINE
  5
786
100
AcDbEntity
  8
5
 62
     2
100
AcDbLine
 10
174.6844
 20
-435.94056
 30
0.0
 11
174.6844
 21
-460.332397
 31
0.0
  0
ENDBLK
  5
787
100
AcDbEntity
  8
5
100
AcDbBlockEnd
  0
BLOCK
  5
788
100
AcDbEntity
  8
5
100
AcDbBlockBegin
  2
*D7
 70
     1
 10
0.0
 20
0.0
 30
0.0
  3
*D7
  1

  0
TEXT
  5
789
100
AcDbEntity
  8
5
 62
     2
100
AcDbText
 10
170.9444
 20
-492.996765
 30
0.0
 40
13.2
  1
57
 41
1.4
 72
     5
 11
185.7284
 21
-492.996765
 31
0.0
100
AcDbText
  0
LINE
  5
78A
100
AcDbEntity
  8
5
 62
     2
100
AcDbLine
 10
151.6844
 20
-364.967968
 30
0.0
 11
151.6844
 21
-498.996765
 31
0.0
  0
LINE
  5
78B
100
AcDbEntity
  8
5
 62
     2
100
AcDbLine
 10
151.6844
 20
-494.996765
 30
0.0
 11
159.411807
 21
-497.067317
 31
0.0
  0
LINE
  5
78C
100
AcDbEntity
  8
5
 62
     2
100
AcDbLine
 10
151.6844
 20
-494.996765
 30
0.0
 11
159.411807
 21
-492.926213
 31
0.0
  0
LINE
  5
78D
100
AcDbEntity
  8
5
 62
     2
100
AcDbLine
 10
159.411807
 20
-497.067317
 30
0.0
 11
159.411807
 21
-492.926213
 31
0.0
  0
LINE
  5
78E
100
AcDbEntity
  8
5
 62
     2
100
AcDbLine
 10
151.6844
 20
-494.996765
 30
0.0
 11
208.6844
 21
-494.996765
 31
0.0
  0
LINE
  5
78F
100
AcDbEntity
  8
5
 62
     2
100
AcDbLine
 10
208.6844
 20
-494.996765
 30
0.0
 11
200.956993
 21
-492.926213
 31
0.0
  0
LINE
  5
790
100
AcDbEntity
  8
5
 62
     2
100
AcDbLine
 10
208.6844
 20
-494.996765
 30
0.0
 11
200.956993
 21
-497.067317
 31
0.0
  0
LINE
  5
791
100
AcDbEntity
  8
5
 62
     2
100
AcDbLine
 10
200.956993
 20
-492.926213
 30
0.0
 11
200.956993
 21
-497.067317
 31
0.0
  0
LINE
  5
792
100
AcDbEntity
  8
5
 62
     2
100
AcDbLine
 10
208.6844
 20
-364.967968
 30
0.0
 11
208.6844
 21
-498.996765
 31
0.0
  0
ENDBLK
  5
793
100
AcDbEntity
  8
5
100
AcDbBlockEnd
  0
BLOCK
  5
794
100
AcDbEntity
  8
5
100
AcDbBlockBegin
  2
*D8
 70
     1
 10
0.0
 20
0.0
 30
0.0
  3
*D8
  1

  0
LINE
  5
795
100
AcDbEntity
  8
5
 62
     2
100
AcDbLine
 10
160.6844
 20
-415.967968
 30
0.0
 11
50.014969
 21
-415.967968
 31
0.0
  0
LINE
  5
796
100
AcDbEntity
  8
5
 62
     2
100
AcDbLine
 10
54.014969
 20
-415.967968
 30
0.0
 11
56.085521
 21
-408.240561
 31
0.0
  0
LINE
  5
797
100
AcDbEntity
  8
5
 62
     2
100
AcDbLine
 10
54.014969
 20
-415.967968
 30
0.0
 11
51.944417
 21
-408.240561
 31
0.0
  0
LINE
  5
798
100
AcDbEntity
  8
5
 62
     2
100
AcDbLine
 10
56.085521
 20
-408.240561
 30
0.0
 11
51.944417
 21
-408.240561
 31
0.0
  0
LINE
  5
799
100
AcDbEntity
  8
5
 62
     2
100
AcDbLine
 10
54.014969
 20
-415.967968
 30
0.0
 11
54.014969
 21
-252.967968
 31
0.0
  0
LINE
  5
79A
100
AcDbEntity
  8
5
 62
     2
100
AcDbLine
 10
54.014969
 20
-252.967968
 30
0.0
 11
51.944417
 21
-260.695375
 31
0.0
  0
LINE
  5
79B
100
AcDbEntity
  8
5
 62
     2
100
AcDbLine
 10
54.014969
 20
-252.967968
 30
0.0
 11
56.085521
 21
-260.695375
 31
0.0
  0
LINE
  5
79C
100
AcDbEntity
  8
5
 62
     2
100
AcDbLine
 10
51.944417
 20
-260.695375
 30
0.0
 11
56.085521
 21
-260.695375
 31
0.0
  0
LINE
  5
79D
100
AcDbEntity
  8
5
 62
     2
100
AcDbLine
 10
124.950064
 20
-252.967968
 30
0.0
 11
50.014969
 21
-252.967968
 31
0.0
  0
ENDBLK
  5
79E
100
AcDbEntity
  8
5
100
AcDbBlockEnd
  0
BLOCK
  5
79F
100
AcDbEntity
  8
18
100
AcDbBlockBegin
  2
*D9
 70
     1
 10
0.0
 20
0.0
 30
0.0
  3
*D9
  1

  0
LINE
  5
7A0
100
AcDbEntity
  8
18
 62
     2
100
AcDbLine
 10
671.472388
 20
402.054812
 30
0.0
 11
671.472388
 21
438.293652
 31
0.0
  0
LINE
  5
7A1
100
AcDbEntity
  8
18
 62
     2
100
AcDbLine
 10
667.472388
 20
398.054812
 30
0.0
 11
631.233548
 21
398.054812
 31
0.0
  0
LINE
  5
7A2
100
AcDbEntity
  8
18
 62
     2
100
AcDbLine
 10
671.472388
 20
434.293652
 30
0.0
 11
663.568269
 21
435.528524
 31
0.0
  0
LINE
  5
7A3
100
AcDbEntity
  8
18
 62
     2
100
AcDbLine
 10
671.472388
 20
434.293652
 30
0.0
 11
664.009785
 21
431.411023
 31
0.0
  0
LINE
  5
7A4
100
AcDbEntity
  8
18
 62
     2
100
AcDbLine
 10
663.568269
 20
435.528524
 30
0.0
 11
664.009785
 21
431.411023
 31
0.0
  0
LINE
  5
7A5
100
AcDbEntity
  8
18
 62
     2
100
AcDbLine
 10
635.233548
 20
398.054812
 30
0.0
 11
638.116177
 21
405.517415
 31
0.0
  0
LINE
  5
7A6
100
AcDbEntity
  8
18
 62
     2
100
AcDbLine
 10
635.233548
 20
398.054812
 30
0.0
 11
633.998676
 21
405.958931
 31
0.0
  0
LINE
  5
7A7
100
AcDbEntity
  8
18
 62
     2
100
AcDbLine
 10
638.116177
 20
405.517415
 30
0.0
 11
633.998676
 21
405.958931
 31
0.0
  0
ARC
  5
7A8
100
AcDbEntity
  8
18
 62
     2
100
AcDbCircle
 10
671.472388
 20
398.054812
 30
0.0
 40
36.23884
100
AcDbArc
 50
90.0
 51
180.0
  0
ENDBLK
  5
7A9
100
AcDbEntity
  8
18
100
AcDbBlockEnd
  0
BLOCK
  5
7AA
100
AcDbEntity
  8
18
100
AcDbBlockBegin
  2
*D10
 70
     1
 10
0.0
 20
0.0
 30
0.0
  3
*D10
  1

  0
LINE
  5
7AB
100
AcDbEntity
  8
18
 62
     2
100
AcDbLine
 10
555.704084
 20
420.803724
 30
0.0
 11
519.465244
 21
420.803724
 31
0.0
  0
LINE
  5
7AC
100
AcDbEntity
  8
18
 62
     2
100
AcDbLine
 10
559.704084
 20
416.803724
 30
0.0
 11
559.704084
 21
380.564884
 31
0.0
  0
LINE
  5
7AD
100
AcDbEntity
  8
18
 62
     2
100
AcDbLine
 10
523.465244
 20
420.803724
 30
0.0
 11
522.230372
 21
412.899605
 31
0.0
  0
LINE
  5
7AE
100
AcDbEntity
  8
18
 62
     2
100
AcDbLine
 10
523.465244
 20
420.803724
 30
0.0
 11
526.347873
 21
413.341121
 31
0.0
  0
LINE
  5
7AF
100
AcDbEntity
  8
18
 62
     2
100
AcDbLine
 10
522.230372
 20
412.899605
 30
0.0
 11
526.347873
 21
413.341121
 31
0.0
  0
LINE
  5
7B0
100
AcDbEntity
  8
18
 62
     2
100
AcDbLine
 10
559.704084
 20
384.564884
 30
0.0
 11
552.241481
 21
387.447513
 31
0.0
  0
LINE
  5
7B1
100
AcDbEntity
  8
18
 62
     2
100
AcDbLine
 10
559.704084
 20
384.564884
 30
0.0
 11
551.799965
 21
383.330012
 31
0.0
  0
LINE
  5
7B2
100
AcDbEntity
  8
18
 62
     2
100
AcDbLine
 10
552.241481
 20
387.447513
 30
0.0
 11
551.799965
 21
383.330012
 31
0.0
  0
ARC
  5
7B3
100
AcDbEntity
  8
18
 62
     2
100
AcDbCircle
 10
559.704084
 20
420.803724
 30
0.0
 40
36.23884
100
AcDbArc
 50
180.0
 51
270.0
  0
ENDBLK
  5
7B4
100
AcDbEntity
  8
18
100
AcDbBlockEnd
  0
BLOCK
  5
7B5
100
AcDbEntity
  8
18
100
AcDbBlockBegin
  2
*D11
 70
     1
 10
0.0
 20
0.0
 30
0.0
  3
*D11
  1

  0
LINE
  5
7B6
100
AcDbEntity
  8
18
 62
     2
100
AcDbLine
 10
439.065124
 20
413.906804
 30
0.0
 11
439.065124
 21
377.667964
 31
0.0
  0
LINE
  5
7B7
100
AcDbEntity
  8
18
 62
     2
100
AcDbLine
 10
443.065124
 20
417.906804
 30
0.0
 11
479.303964
 21
417.906804
 31
0.0
  0
LINE
  5
7B8
100
AcDbEntity
  8
18
 62
     2
100
AcDbLine
 10
439.065124
 20
381.667964
 30
0.0
 11
446.969243
 21
380.433092
 31
0.0
  0
LINE
  5
7B9
100
AcDbEntity
  8
18
 62
     2
100
AcDbLine
 10
439.065124
 20
381.667964
 30
0.0
 11
446.527727
 21
384.550593
 31
0.0
  0
LINE
  5
7BA
100
AcDbEntity
  8
18
 62
     2
100
AcDbLine
 10
446.969243
 20
380.433092
 30
0.0
 11
446.527727
 21
384.550593
 31
0.0
  0
LINE
  5
7BB
100
AcDbEntity
  8
18
 62
     2
100
AcDbLine
 10
475.303964
 20
417.906804
 30
0.0
 11
472.421335
 21
410.444201
 31
0.0
  0
LINE
  5
7BC
100
AcDbEntity
  8
18
 62
     2
100
AcDbLine
 10
475.303964
 20
417.906804
 30
0.0
 11
476.538836
 21
410.002685
 31
0.0
  0
LINE
  5
7BD
100
AcDbEntity
  8
18
 62
     2
100
AcDbLine
 10
472.421335
 20
410.444201
 30
0.0
 11
476.538836
 21
410.002685
 31
0.0
  0
ARC
  5
7BE
100
AcDbEntity
  8
18
 62
     2
100
AcDbCircle
 10
439.065124
 20
417.906804
 30
0.0
 40
36.23884
100
AcDbArc
 50
270.0
 51
360.0
  0
ENDBLK
  5
7BF
100
AcDbEntity
  8
18
100
AcDbBlockEnd
  0
ENDSEC
  0
SECTION
  2
ENTITIES
  0
LINE
  5
34
100
AcDbEntity
  8
1
100
AcDbLine
 10
-504.019836
 20
380.728232
 30
0.0
 11
-544.4761
 21
380.728232
 31
0.0
  0
LINE
  5
35
100
AcDbEntity
  8
1
  6
DASHED
100
AcDbLine
 10
-464.4761
 20
409.228232
 30
0.0
 11
-404.2761
 21
409.228232
 31
0.0
  0
LINE
  5
36
100
AcDbEntity
  8
1
  6
DASHED
100
AcDbLine
 10
-464.4761
 20
284.228232
 30
0.0
 11
-404.2761
 21
284.228232
 31
0.0
  0
LINE
  5
37
100
AcDbEntity
  8
1
  6
DASHED
100
AcDbLine
 10
-496.8761
 20
316.628232
 30
0.0
 11
-496.8761
 21
376.828232
 31
0.0
  0
LINE
  5
38
100
AcDbEntity
  8
1
  6
DASHED
100
AcDbLine
 10
-371.8761
 20
316.628232
 30
0.0
 11
-371.8761
 21
376.828232
 31
0.0
  0
ARC
  5
39
100
AcDbEntity
  8
1
  6
DASHED
100
AcDbCircle
 10
-464.4761
 20
376.828232
 30
0.0
 40
32.4
100
AcDbArc
 50
90.0
 51
180.0
  0
ARC
  5
3A
100
AcDbEntity
  8
1
  6
DASHED
100
AcDbCircle
 10
-404.2761
 20
376.828232
 30
0.0
 40
32.4
100
AcDbArc
 50
0.0
 51
90.0
  0
ARC
  5
3B
100
AcDbEntity
  8
1
  6
DASHED
100
AcDbCircle
 10
-404.2761
 20
316.628232
 30
0.0
 40
32.4
100
AcDbArc
 50
270.0
 51
360.0
  0
ARC
  5
3C
100
AcDbEntity
  8
1
  6
DASHED
100
AcDbCircle
 10
-464.4761
 20
316.628232
 30
0.0
 40
32.4
100
AcDbArc
 50
180.0
 51
270.0
  0
LINE
  5
3D
100
AcDbEntity
  8
1
  6
CENTER
 62
     2
100
AcDbLine
 10
-390.1811
 20
377.653924
 30
0.0
 11
-390.1811
 21
404.612632
 31
0.0
  0
LINE
  5
3E
100
AcDbEntity
  8
1
  6
CENTER
 62
     2
100
AcDbLine
 10
-403.469316
 20
390.923232
 30
0.0
 11
-376.886628
 21
390.923232
 31
0.0
  0
CIRCLE
  5
3F
100
AcDbEntity
  8
1
  6
DASHED
100
AcDbCircle
 10
-390.1811
 20
390.923232
 30
0.0
 40
6.5
  0
LINE
  5
40
100
AcDbEntity
  8
1
  6
CENTER
 62
     2
100
AcDbLine
 10
-478.5711
 20
377.653924
 30
0.0
 11
-478.5711
 21
404.612632
 31
0.0
  0
LINE
  5
41
100
AcDbEntity
  8
1
  6
CENTER
 62
     2
100
AcDbLine
 10
-465.28288
 20
390.923232
 30
0.0
 11
-491.865568
 21
390.923232
 31
0.0
  0
CIRCLE
  5
42
100
AcDbEntity
  8
1
  6
DASHED
100
AcDbCircle
 10
-478.5711
 20
390.923232
 30
0.0
 40
6.5
  0
LINE
  5
43
100
AcDbEntity
  8
1
  6
CENTER
 62
     2
100
AcDbLine
 10
-390.1811
 20
315.802536
 30
0.0
 11
-390.1811
 21
288.843828
 31
0.0
  0
LINE
  5
44
100
AcDbEntity
  8
1
  6
CENTER
 62
     2
100
AcDbLine
 10
-403.469316
 20
302.533232
 30
0.0
 11
-376.886628
 21
302.533232
 31
0.0
  0
CIRCLE
  5
45
100
AcDbEntity
  8
1
  6
DASHED
100
AcDbCircle
 10
-390.1811
 20
302.533232
 30
0.0
 40
6.5
  0
LINE
  5
46
100
AcDbEntity
  8
1
  6
CENTER
 62
     2
100
AcDbLine
 10
-478.5711
 20
315.802536
 30
0.0
 11
-478.5711
 21
288.843828
 31
0.0
  0
LINE
  5
47
100
AcDbEntity
  8
1
  6
CENTER
 62
     2
100
AcDbLine
 10
-465.28288
 20
302.533232
 30
0.0
 11
-491.865568
 21
302.533232
 31
0.0
  0
CIRCLE
  5
48
100
AcDbEntity
  8
1
  6
DASHED
100
AcDbCircle
 10
-478.5711
 20
302.533232
 30
0.0
 40
6.5
  0
LINE
  5
49
100
AcDbEntity
  8
1
  6
CENTER
 62
     2
100
AcDbLine
 10
-436.4761
 20
278.524484
 30
0.0
 11
-436.4761
 21
415.002188
 31
0.0
  0
LINE
  5
4A
100
AcDbEntity
  8
1
  6
DASHED
100
AcDbLine
 10
-371.8761
 20
355.728232
 30
0.0
 11
-366.528748
 21
355.728232
 31
0.0
  0
LINE
  5
4B
100
AcDbEntity
  8
1
  6
DASHED
100
AcDbLine
 10
-371.8761
 20
367.728232
 30
0.0
 11
-366.528748
 21
367.728232
 31
0.0
  0
LINE
  5
4C
100
AcDbEntity
  8
1
  6
DASHED
100
AcDbLine
 10
-361.528748
 20
360.728232
 30
0.0
 11
-361.528748
 21
362.728232
 31
0.0
  0
ARC
  5
4D
100
AcDbEntity
  8
1
  6
DASHED
100
AcDbCircle
 10
-366.528748
 20
362.728232
 30
0.0
 40
5.0
100
AcDbArc
 50
0.0
 51
90.0
  0
ARC
  5
4E
100
AcDbEntity
  8
1
  6
DASHED
100
AcDbCircle
 10
-366.528748
 20
360.728232
 30
0.0
 40
5.0
100
AcDbArc
 50
270.0
 51
360.0
  0
LINE
  5
4F
100
AcDbEntity
  8
1
100
AcDbLine
 10
-544.4761
 20
323.728232
 30
0.0
 11
-544.4761
 21
380.728232
 31
0.0
  0
LINE
  5
50
100
AcDbEntity
  8
1
  6
DASHED
100
AcDbLine
 10
-496.8761
 20
355.728232
 30
0.0
 11
-506.423452
 21
355.728232
 31
0.0
  0
LINE
  5
51
100
AcDbEntity
  8
1
  6
DASHED
100
AcDbLine
 10
-496.8761
 20
367.728232
 30
0.0
 11
-506.423452
 21
367.728232
 31
0.0
  0
LINE
  5
52
100
AcDbEntity
  8
1
100
AcDbLine
 10
-511.423452
 20
360.728232
 30
0.0
 11
-511.423452
 21
362.728232
 31
0.0
  0
LINE
  5
53
100
AcDbEntity
  8
1
  6
DASHED
100
AcDbLine
 10
-361.528748
 20
360.728232
 30
0.0
 11
-332.237712
 21
360.728232
 31
0.0
  0
LINE
  5
54
100
AcDbEntity
  8
1
  6
DASHED
100
AcDbLine
 10
-371.8761
 20
335.728232
 30
0.0
 11
-332.237712
 21
335.728232
 31
0.0
  0
LINE
  5
55
100
AcDbEntity
  8
1
  6
DASHED
100
AcDbLine
 10
-346.530284
 20
354.358752
 30
0.0
 11
-371.8761
 21
354.358752
 31
0.0
  0
LINE
  5
56
100
AcDbEntity
  8
1
  6
DASHED
100
AcDbLine
 10
-346.530284
 20
342.097708
 30
0.0
 11
-371.8761
 21
342.097708
 31
0.0
  0
LINE
  5
57
100
AcDbEntity
  8
1
  6
DASHED
100
AcDbLine
 10
-328.94006
 20
335.728232
 30
0.0
 11
-328.94006
 21
360.728232
 31
0.0
  0
LINE
  5
58
100
AcDbEntity
  8
1
  6
DASHED
100
AcDbLine
 10
-346.530284
 20
345.604896
 30
0.0
 11
-346.530284
 21
350.851564
 31
0.0
  0
LINE
  5
59
100
AcDbEntity
  8
1
  6
DASHED
100
AcDbLine
 10
-343.232632
 20
355.55284
 30
0.0
 11
-332.237712
 21
359.53414
 31
0.0
  0
LINE
  5
5A
100
AcDbEntity
  8
1
  6
DASHED
100
AcDbLine
 10
-343.232632
 20
340.90362
 30
0.0
 11
-332.237712
 21
336.92232
 31
0.0
  0
ARC
  5
5B
100
AcDbEntity
  8
1
  6
DASHED
100
AcDbCircle
 10
-341.530284
 20
350.851564
 30
0.0
 40
5.0
100
AcDbArc
 50
109.905492
 51
180.0
  0
ARC
  5
5C
100
AcDbEntity
  8
1
  6
DASHED
100
AcDbCircle
 10
-341.530284
 20
345.604896
 30
0.0
 40
5.0
100
AcDbArc
 50
180.0
 51
250.094508
  0
ARC
  5
5D
100
AcDbEntity
  8
1
  6
DASHED
100
AcDbCircle
 10
-333.94006
 20
364.235416
 30
0.0
 40
5.0
100
AcDbArc
 50
289.905492
 51
360.0
  0
ARC
  5
5E
100
AcDbEntity
  8
1
  6
DASHED
100
AcDbCircle
 10
-333.94006
 20
332.221044
 30
0.0
 40
5.0
100
AcDbArc
 50
0.0
 51
70.094508
  0
LINE
  5
5F
100
AcDbEntity
  8
1
100
AcDbLine
 10
-511.423452
 20
360.728232
 30
0.0
 11
-540.714488
 21
360.728232
 31
0.0
  0
LINE
  5
60
100
AcDbEntity
  8
1
100
AcDbLine
 10
-544.01214
 20
335.728232
 30
0.0
 11
-544.01214
 21
360.728232
 31
0.0
  0
LINE
  5
61
100
AcDbEntity
  8
1
100
AcDbLine
 10
-526.421916
 20
345.604896
 30
0.0
 11
-526.421916
 21
350.851564
 31
0.0
  0
LINE
  5
62
100
AcDbEntity
  8
1
100
AcDbLine
 10
-529.719568
 20
355.55284
 30
0.0
 11
-540.714488
 21
359.53414
 31
0.0
  0
LINE
  5
63
100
AcDbEntity
  8
1
100
AcDbLine
 10
-529.719568
 20
340.90362
 30
0.0
 11
-540.714488
 21
336.92232
 31
0.0
  0
ARC
  5
64
100
AcDbEntity
  8
1
100
AcDbCircle
 10
-531.421916
 20
350.851564
 30
0.0
 40
5.0
100
AcDbArc
 50
0.0
 51
70.094508
  0
ARC
  5
65
100
AcDbEntity
  8
1
100
AcDbCircle
 10
-531.421916
 20
345.604896
 30
0.0
 40
5.0
100
AcDbArc
 50
289.905492
 51
360.0
  0
ARC
  5
66
100
AcDbEntity
  8
1
100
AcDbCircle
 10
-539.01214
 20
364.235416
 30
0.0
 40
5.0
100
AcDbArc
 50
180.0
 51
250.094508
  0
ARC
  5
67
100
AcDbEntity
  8
1
100
AcDbCircle
 10
-539.01214
 20
332.221044
 30
0.0
 40
5.0
100
AcDbArc
 50
109.905492
 51
180.0
  0
LINE
  5
68
100
AcDbEntity
  8
1
  6
DASHED
100
AcDbLine
 10
-496.64052
 20
380.728232
 30
0.0
 11
-504.019836
 21
380.728232
 31
0.0
  0
ARC
  5
69
100
AcDbEntity
  8
1
  6
DASHED
100
AcDbCircle
 10
-506.423452
 20
362.728232
 30
0.0
 40
5.0
100
AcDbArc
 50
90.0
 51
123.875983
  0
ARC
  5
6A
100
AcDbEntity
  8
1
100
AcDbCircle
 10
-506.423452
 20
362.728232
 30
0.0
 40
5.0
100
AcDbArc
 50
123.875983
 51
180.0
  0
ARC
  5
6B
100
AcDbEntity
  8
1
100
AcDbCircle
 10
-506.423452
 20
360.728232
 30
0.0
 40
5.0
100
AcDbArc
 50
180.0
 51
204.916898
  0
ARC
  5
6C
100
AcDbEntity
  8
1
  6
DASHED
100
AcDbCircle
 10
-506.423452
 20
360.728232
 30
0.0
 40
5.0
100
AcDbArc
 50
204.916898
 51
270.0
  0
LINE
  5
6D
100
AcDbEntity
  8
1
100
AcDbLine
 10
-526.421916
 20
354.358752
 30
0.0
 11
-511.49954
 21
354.358752
 31
0.0
  0
LINE
  5
6E
100
AcDbEntity
  8
1
  6
DASHED
100
AcDbLine
 10
-511.49954
 20
354.358752
 30
0.0
 11
-496.8761
 21
354.358752
 31
0.0
  0
LINE
  5
6F
100
AcDbEntity
  8
1
100
AcDbLine
 10
-526.421916
 20
342.097708
 30
0.0
 11
-511.737644
 21
342.097708
 31
0.0
  0
LINE
  5
70
100
AcDbEntity
  8
1
  6
DASHED
100
AcDbLine
 10
-511.737644
 20
342.097708
 30
0.0
 11
-496.8761
 21
342.097708
 31
0.0
  0
LINE
  5
71
100
AcDbEntity
  8
1
  6
DASHED
100
AcDbLine
 10
-496.8761
 20
335.728232
 30
0.0
 11
-511.091484
 21
335.728232
 31
0.0
  0
LINE
  5
72
100
AcDbEntity
  8
1
100
AcDbLine
 10
-511.091484
 20
335.728232
 30
0.0
 11
-540.714488
 21
335.728232
 31
0.0
  0
LINE
  5
73
100
AcDbEntity
  8
1
  6
DASHED
100
AcDbLine
 10
-496.8761
 20
323.728232
 30
0.0
 11
-508.384544
 21
323.728232
 31
0.0
  0
LINE
  5
74
100
AcDbEntity
  8
1
100
AcDbLine
 10
-508.384544
 20
323.728232
 30
0.0
 11
-544.4761
 21
323.728232
 31
0.0
  0
LINE
  5
75
100
AcDbEntity
  8
1
100
AcDbLine
 10
-328.4761
 20
364.882784
 30
0.0
 11
-328.4761
 21
380.728232
 31
0.0
  0
LINE
  5
76
100
AcDbEntity
  8
1
100
AcDbLine
 10
-328.4761
 20
323.728232
 30
0.0
 11
-328.4761
 21
328.573676
 31
0.0
  0
LINE
  5
77
100
AcDbEntity
  8
1
  6
DASHED
100
AcDbLine
 10
-328.4761
 20
328.573676
 30
0.0
 11
-328.4761
 21
364.882784
 31
0.0
  0
LINE
  5
78
100
AcDbEntity
  8
1
  6
DASHED
100
AcDbLine
 10
-371.8761
 20
323.728232
 30
0.0
 11
-333.8761
 21
323.728232
 31
0.0
  0
LINE
  5
79
100
AcDbEntity
  8
1
100
AcDbLine
 10
-333.8761
 20
323.728232
 30
0.0
 11
-328.4761
 21
323.728232
 31
0.0
  0
LINE
  5
7A
100
AcDbEntity
  8
1
  6
DASHED
100
AcDbLine
 10
-372.11168
 20
380.728232
 30
0.0
 11
-353.767252
 21
380.728232
 31
0.0
  0
LINE
  5
7B
100
AcDbEntity
  8
1
100
AcDbLine
 10
-353.767252
 20
380.728232
 30
0.0
 11
-328.4761
 21
380.728232
 31
0.0
  0
LINE
  5
7C
100
AcDbEntity
  8
1
  6
CENTER
 62
     2
100
AcDbLine
 10
-434.3761
 20
-431.94056
 30
0.0
 11
-434.3761
 21
33.707256
 31
0.0
  0
LINE
  5
7D
100
AcDbEntity
  8
1
100
AcDbLine
 10
-496.8761
 20
-47.967968
 30
0.0
 11
-371.8761
 21
-47.967968
 31
0.0
  0
LINE
  5
7E
100
AcDbEntity
  8
1
100
AcDbLine
 10
-463.9761
 20
-402.967968
 30
0.0
 11
-408.9761
 21
-402.967968
 31
0.0
  0
LINE
  5
7F
100
AcDbEntity
  8
1
100
AcDbLine
 10
-492.8761
 20
-62.967968
 30
0.0
 11
-375.8761
 21
-62.967968
 31
0.0
  0
LINE
  5
80
100
AcDbEntity
  8
1
100
AcDbLine
 10
-496.8761
 20
-47.967968
 30
0.0
 11
-496.8761
 21
-58.967968
 31
0.0
  0
LINE
  5
81
100
AcDbEntity
  8
1
100
AcDbLine
 10
-371.8761
 20
-47.967968
 30
0.0
 11
-371.8761
 21
-58.967968
 31
0.0
  0
ARC
  5
82
100
AcDbEntity
  8
1
100
AcDbCircle
 10
-375.8761
 20
-58.967968
 30
0.0
 40
4.0
100
AcDbArc
 50
270.0
 51
360.0
  0
ARC
  5
83
100
AcDbEntity
  8
1
100
AcDbCircle
 10
-492.8761
 20
-58.967968
 30
0.0
 40
4.0
100
AcDbArc
 50
180.0
 51
270.0
  0
LINE
  5
84
100
AcDbEntity
  8
1
100
AcDbLine
 10
-463.9761
 20
-410.467968
 30
0.0
 11
-463.9761
 21
-392.210608
 31
0.0
  0
LINE
  5
85
100
AcDbEntity
  8
1
100
AcDbLine
 10
-408.9761
 20
-410.467968
 30
0.0
 11
-408.9761
 21
-392.210608
 31
0.0
  0
LINE
  5
86
100
AcDbEntity
  8
1
  6
CENTER
 62
     2
100
AcDbLine
 10
-457.4761
 20
-421.043036
 30
0.0
 11
-457.4761
 21
-394.275428
 31
0.0
  0
LINE
  5
87
100
AcDbEntity
  8
1
  6
CENTER
 62
     2
100
AcDbLine
 10
-415.4761
 20
-421.043036
 30
0.0
 11
-415.4761
 21
-394.275428
 31
0.0
  0
LINE
  5
88
100
AcDbEntity
  8
1
100
AcDbLine
 10
-412.9761
 20
-118.13954
 30
0.0
 11
-412.9761
 21
-74.967968
 31
0.0
  0
LINE
  5
89
100
AcDbEntity
  8
1
100
AcDbLine
 10
-459.9761
 20
-118.13954
 30
0.0
 11
-459.9761
 21
-74.967968
 31
0.0
  0
CIRCLE
  5
8A
100
AcDbEntity
  8
1
100
AcDbCircle
 10
-436.4761
 20
-252.967968
 30
0.0
 40
81.5
  0
LINE
  5
8B
100
AcDbEntity
  8
1
100
AcDbLine
 10
-449.932449
 20
-33.967968
 30
0.0
 11
-418.819751
 21
-33.967968
 31
0.0
  0
LINE
  5
8C
100
AcDbEntity
  8
1
100
AcDbLine
 10
-420.0861
 20
-47.967968
 30
0.0
 11
-420.0861
 21
-45.167968
 31
0.0
  0
LINE
  5
8D
100
AcDbEntity
  8
1
100
AcDbLine
 10
-448.6661
 20
-47.967968
 30
0.0
 11
-448.6661
 21
-45.167968
 31
0.0
  0
LINE
  5
8E
100
AcDbEntity
  8
1
100
AcDbLine
 10
-441.8761
 20
-33.967968
 30
0.0
 11
-441.8761
 21
-28.189656
 31
0.0
  0
LINE
  5
8F
100
AcDbEntity
  8
1
100
AcDbLine
 10
-441.8761
 20
-28.189656
 30
0.0
 11
-440.6261
 21
-27.467968
 31
0.0
  0
LINE
  5
90
100
AcDbEntity
  8
1
100
AcDbLine
 10
-440.6261
 20
-27.467968
 30
0.0
 11
-428.1261
 21
-27.467968
 31
0.0
  0
LINE
  5
91
100
AcDbEntity
  8
1
100
AcDbLine
 10
-438.1261
 20
-33.967968
 30
0.0
 11
-438.1261
 21
-28.189656
 31
0.0
  0
ARC
  5
92
100
AcDbEntity
  8
1
100
AcDbCircle
 10
-440.0011
 20
-30.600032
 30
0.0
 40
3.053776
100
AcDbArc
 50
52.121121
 51
127.878879
  0
LINE
  5
93
100
AcDbEntity
  8
1
100
AcDbLine
 10
-426.8761
 20
-33.967968
 30
0.0
 11
-426.8761
 21
-28.189656
 31
0.0
  0
LINE
  5
94
100
AcDbEntity
  8
1
100
AcDbLine
 10
-426.8761
 20
-28.189656
 30
0.0
 11
-428.1261
 21
-27.467968
 31
0.0
  0
LINE
  5
95
100
AcDbEntity
  8
1
100
AcDbLine
 10
-430.6261
 20
-33.967968
 30
0.0
 11
-430.6261
 21
-28.189656
 31
0.0
  0
ARC
  5
96
100
AcDbEntity
  8
1
100
AcDbCircle
 10
-428.7511
 20
-30.600032
 30
0.0
 40
3.053776
100
AcDbArc
 50
52.121121
 51
127.878879
  0
ARC
  5
97
100
AcDbEntity
  8
1
100
AcDbCircle
 10
-434.3761
 20
-38.796256
 30
0.0
 40
11.25
100
AcDbArc
 50
70.528781
 51
109.471223
  0
LINE
  5
98
100
AcDbEntity
  8
1
100
AcDbLine
 10
-430.3761
 20
-26.667968
 30
0.0
 11
-438.3761
 21
-26.667968
 31
0.0
  0
ARC
  5
99
100
AcDbEntity
  8
1
100
AcDbCircle
 10
-434.3761
 20
-32.734632
 30
0.0
 40
7.266668
100
AcDbArc
 50
56.601512
 51
123.398491
  0
LINE
  5
9A
100
AcDbEntity
  8
1
 62
     2
100
AcDbLine
 10
-431.0526
 20
-26.272528
 30
0.0
 11
-431.0526
 21
-27.467968
 31
0.0
  0
LINE
  5
9B
100
AcDbEntity
  8
1
 62
     2
100
AcDbLine
 10
-430.3761
 20
-45.467968
 30
0.0
 11
-431.0526
 21
-47.967968
 31
0.0
  0
LINE
  5
9C
100
AcDbEntity
  8
1
 62
     2
100
AcDbLine
 10
-437.6996
 20
-26.272528
 30
0.0
 11
-437.6996
 21
-27.467968
 31
0.0
  0
LINE
  5
9D
100
AcDbEntity
  8
1
 62
     2
100
AcDbLine
 10
-438.3761
 20
-45.467968
 30
0.0
 11
-437.6996
 21
-47.967968
 31
0.0
  0
LINE
  5
9E
100
AcDbEntity
  8
1
100
AcDbLine
 10
-430.3761
 20
-47.967968
 30
0.0
 11
-430.3761
 21
-39.967968
 31
0.0
  0
LINE
  5
9F
100
AcDbEntity
  8
1
100
AcDbLine
 10
-430.3761
 20
-27.467968
 30
0.0
 11
-430.3761
 21
-26.667968
 31
0.0
  0
LINE
  5
A0
100
AcDbEntity
  8
1
100
AcDbLine
 10
-438.3761
 20
-47.967968
 30
0.0
 11
-438.3761
 21
-39.967968
 31
0.0
  0
LINE
  5
A1
100
AcDbEntity
  8
1
100
AcDbLine
 10
-438.3761
 20
-27.467968
 30
0.0
 11
-438.3761
 21
-26.667968
 31
0.0
  0
LINE
  5
A2
100
AcDbEntity
  8
1
100
AcDbLine
 10
-463.9761
 20
-404.467968
 30
0.0
 11
-408.9761
 21
-404.467968
 31
0.0
  0
LINE
  5
A3
100
AcDbEntity
  8
1
100
AcDbLine
 10
-463.9761
 20
-410.467968
 30
0.0
 11
-408.9761
 21
-410.467968
 31
0.0
  0
LINE
  5
A4
100
AcDbEntity
  8
1
100
AcDbLine
 10
-451.7261
 20
-411.967968
 30
0.0
 11
-451.7261
 21
-415.47722
 31
0.0
  0
LINE
  5
A5
100
AcDbEntity
  8
1
100
AcDbLine
 10
-451.7261
 20
-415.47722
 30
0.0
 11
-452.5761
 21
-415.967968
 31
0.0
  0
LINE
  5
A6
100
AcDbEntity
  8
1
100
AcDbLine
 10
-454.6011
 20
-411.967968
 30
0.0
 11
-454.6011
 21
-415.47722
 31
0.0
  0
ARC
  5
A7
100
AcDbEntity
  8
1
100
AcDbCircle
 10
-453.1636
 20
-413.629264
 30
0.0
 40
2.341228
100
AcDbArc
 50
232.121121
 51
307.878879
  0
ARC
  5
A8
100
AcDbEntity
  8
1
100
AcDbCircle
 10
-457.4761
 20
-407.345492
 30
0.0
 40
8.625
100
AcDbArc
 50
250.528777
 51
289.471219
  0
LINE
  5
A9
100
AcDbEntity
  8
1
100
AcDbLine
 10
-463.2261
 20
-411.967968
 30
0.0
 11
-463.2261
 21
-415.47722
 31
0.0
  0
LINE
  5
AA
100
AcDbEntity
  8
1
100
AcDbLine
 10
-463.2261
 20
-415.47722
 30
0.0
 11
-462.3761
 21
-415.967968
 31
0.0
  0
LINE
  5
AB
100
AcDbEntity
  8
1
100
AcDbLine
 10
-462.3761
 20
-415.967968
 30
0.0
 11
-452.5761
 21
-415.967968
 31
0.0
  0
LINE
  5
AC
100
AcDbEntity
  8
1
100
AcDbLine
 10
-460.3511
 20
-411.967968
 30
0.0
 11
-460.3511
 21
-415.47722
 31
0.0
  0
ARC
  5
AD
100
AcDbEntity
  8
1
100
AcDbCircle
 10
-461.7886
 20
-413.629264
 30
0.0
 40
2.341228
100
AcDbArc
 50
232.121121
 51
307.878879
  0
LINE
  5
AE
100
AcDbEntity
  8
1
100
AcDbLine
 10
-451.3761
 20
-410.467968
 30
0.0
 11
-451.3761
 21
-411.967968
 31
0.0
  0
LINE
  5
AF
100
AcDbEntity
  8
1
100
AcDbLine
 10
-451.3761
 20
-411.967968
 30
0.0
 11
-463.5761
 21
-411.967968
 31
0.0
  0
LINE
  5
B0
100
AcDbEntity
  8
1
100
AcDbLine
 10
-463.5761
 20
-411.967968
 30
0.0
 11
-463.5761
 21
-410.467968
 31
0.0
  0
LINE
  5
B1
100
AcDbEntity
  8
1
100
AcDbLine
 10
-457.4761
 20
-411.967968
 30
0.0
 11
-457.9761
 21
-410.467968
 31
0.0
  0
LINE
  5
B2
100
AcDbEntity
  8
1
100
AcDbLine
 10
-457.4761
 20
-410.467968
 30
0.0
 11
-456.9761
 21
-411.967968
 31
0.0
  0
LINE
  5
B3
100
AcDbEntity
  8
1
100
AcDbLine
 10
-409.7261
 20
-411.967968
 30
0.0
 11
-409.7261
 21
-415.47722
 31
0.0
  0
LINE
  5
B4
100
AcDbEntity
  8
1
100
AcDbLine
 10
-409.7261
 20
-415.47722
 30
0.0
 11
-410.5761
 21
-415.967968
 31
0.0
  0
LINE
  5
B5
100
AcDbEntity
  8
1
100
AcDbLine
 10
-412.6011
 20
-411.967968
 30
0.0
 11
-412.6011
 21
-415.47722
 31
0.0
  0
ARC
  5
B6
100
AcDbEntity
  8
1
100
AcDbCircle
 10
-411.1636
 20
-413.629264
 30
0.0
 40
2.341228
100
AcDbArc
 50
232.121121
 51
307.878879
  0
ARC
  5
B7
100
AcDbEntity
  8
1
100
AcDbCircle
 10
-415.4761
 20
-407.345492
 30
0.0
 40
8.625
100
AcDbArc
 50
250.528777
 51
289.471219
  0
LINE
  5
B8
100
AcDbEntity
  8
1
100
AcDbLine
 10
-421.2261
 20
-411.967968
 30
0.0
 11
-421.2261
 21
-415.47722
 31
0.0
  0
LINE
  5
B9
100
AcDbEntity
  8
1
100
AcDbLine
 10
-421.2261
 20
-415.47722
 30
0.0
 11
-420.3761
 21
-415.967968
 31
0.0
  0
LINE
  5
BA
100
AcDbEntity
  8
1
100
AcDbLine
 10
-420.3761
 20
-415.967968
 30
0.0
 11
-410.5761
 21
-415.967968
 31
0.0
  0
LINE
  5
BB
100
AcDbEntity
  8
1
100
AcDbLine
 10
-418.3511
 20
-411.967968
 30
0.0
 11
-418.3511
 21
-415.47722
 31
0.0
  0
ARC
  5
BC
100
AcDbEntity
  8
1
100
AcDbCircle
 10
-419.7886
 20
-413.629264
 30
0.0
 40
2.341228
100
AcDbArc
 50
232.121121
 51
307.878879
  0
LINE
  5
BD
100
AcDbEntity
  8
1
100
AcDbLine
 10
-409.3761
 20
-410.467968
 30
0.0
 11
-409.3761
 21
-411.967968
 31
0.0
  0
LINE
  5
BE
100
AcDbEntity
  8
1
100
AcDbLine
 10
-409.3761
 20
-411.967968
 30
0.0
 11
-421.5761
 21
-411.967968
 31
0.0
  0
LINE
  5
BF
100
AcDbEntity
  8
1
100
AcDbLine
 10
-421.5761
 20
-411.967968
 30
0.0
 11
-421.5761
 21
-410.467968
 31
0.0
  0
LINE
  5
C0
100
AcDbEntity
  8
1
100
AcDbLine
 10
-415.4761
 20
-411.967968
 30
0.0
 11
-415.9761
 21
-410.467968
 31
0.0
  0
LINE
  5
C1
100
AcDbEntity
  8
1
100
AcDbLine
 10
-415.4761
 20
-410.467968
 30
0.0
 11
-414.9761
 21
-411.967968
 31
0.0
  0
LINE
  5
C2
100
AcDbEntity
  8
1
100
AcDbLine
 10
-455.9761
 20
-178.788184
 30
0.0
 11
-456.467432
 21
-177.937172
 31
0.0
  0
ARC
  5
C3
100
AcDbEntity
  8
1
100
AcDbCircle
 10
-460.79756
 20
-180.437172
 30
0.0
 40
5.0
100
AcDbArc
 50
30.0
 51
108.537641
  0
ARC
  5
C4
100
AcDbEntity
  8
1
100
AcDbCircle
 10
-457.33286
 20
-178.788184
 30
0.0
 40
1.35676
100
AcDbArc
 50
285.704125
 51
360.0
  0
LINE
  5
C5
100
AcDbEntity
  8
1
100
AcDbLine
 10
-455.9761
 20
-327.147748
 30
0.0
 11
-456.467432
 21
-327.998764
 31
0.0
  0
ARC
  5
C6
100
AcDbEntity
  8
1
100
AcDbCircle
 10
-460.79756
 20
-325.498764
 30
0.0
 40
5.0
100
AcDbArc
 50
251.462359
 51
330.0
  0
ARC
  5
C7
100
AcDbEntity
  8
1
100
AcDbCircle
 10
-457.33286
 20
-327.147748
 30
0.0
 40
1.35676
100
AcDbArc
 50
0.0
 51
74.295875
  0
ARC
  5
C8
100
AcDbEntity
  8
1
100
AcDbCircle
 10
-436.4761
 20
-252.967968
 30
0.0
 40
75.699352
100
AcDbArc
 50
105.704125
 51
254.295875
  0
ARC
  5
C9
100
AcDbEntity
  8
1
100
AcDbCircle
 10
-436.4761
 20
-252.967968
 30
0.0
 40
75.699352
100
AcDbArc
 50
284.882328
 51
75.117672
  0
ARC
  5
CA
100
AcDbEntity
  8
1
100
AcDbCircle
 10
-436.4761
 20
-252.967968
 30
0.0
 40
74.17978
100
AcDbArc
 50
105.240715
 51
254.759285
  0
ARC
  5
CB
100
AcDbEntity
  8
1
100
AcDbCircle
 10
-436.4761
 20
-252.967968
 30
0.0
 40
74.17978
100
AcDbArc
 50
285.240715
 51
74.759285
  0
LINE
  5
CC
100
AcDbEntity
  8
1
100
AcDbLine
 10
-453.9761
 20
-207.967968
 30
0.0
 11
-417.9761
 21
-207.967968
 31
0.0
  0
LINE
  5
CD
100
AcDbEntity
  8
1
100
AcDbLine
 10
-455.9761
 20
-205.967968
 30
0.0
 11
-455.9761
 21
-175.255356
 31
0.0
  0
LINE
  5
CE
100
AcDbEntity
  8
1
100
AcDbLine
 10
-415.9761
 20
-185.967968
 30
0.0
 11
-415.9761
 21
-319.967968
 31
0.0
  0
ARC
  5
CF
100
AcDbEntity
  8
1
100
AcDbCircle
 10
-453.9761
 20
-205.967968
 30
0.0
 40
2.0
100
AcDbArc
 50
180.0
 51
270.0
  0
ARC
  5
D0
100
AcDbEntity
  8
1
100
AcDbCircle
 10
-417.9761
 20
-205.967968
 30
0.0
 40
2.0
100
AcDbArc
 50
270.0
 51
360.0
  0
LINE
  5
D1
100
AcDbEntity
  8
1
100
AcDbLine
 10
-416.9761
 20
-183.322216
 30
0.0
 11
-416.9761
 21
-179.967968
 31
0.0
  0
LINE
  5
D2
100
AcDbEntity
  8
1
100
AcDbLine
 10
-427.9761
 20
-175.255356
 30
0.0
 11
-455.9761
 21
-175.255356
 31
0.0
  0
ARC
  5
D3
100
AcDbEntity
  8
1
100
AcDbCircle
 10
-434.9761
 20
-252.967968
 30
0.0
 40
80.5
100
AcDbArc
 50
98.141305
 51
105.121665
  0
ARC
  5
D4
100
AcDbEntity
  8
1
100
AcDbCircle
 10
-434.3761
 20
45.556212
 30
0.0
 40
219.16424
100
AcDbArc
 50
266.861288
 51
271.67338
  0
LINE
  5
D5
100
AcDbEntity
  8
1
100
AcDbLine
 10
-427.9761
 20
-179.967968
 30
0.0
 11
-427.9761
 21
-173.51456
 31
0.0
  0
LINE
  5
D6
100
AcDbEntity
  8
1
100
AcDbLine
 10
-427.9761
 20
-179.967968
 30
0.0
 11
-416.9761
 21
-179.967968
 31
0.0
  0
ARC
  5
D7
100
AcDbEntity
  8
1
100
AcDbCircle
 10
-434.3761
 20
-274.073136
 30
0.0
 40
96.860632
100
AcDbArc
 50
82.939482
 51
83.479123
  0
LINE
  5
D8
100
AcDbEntity
  8
1
100
AcDbLine
 10
-422.47022
 20
-177.947012
 30
0.0
 11
-422.47022
 21
-178.667968
 31
0.0
  0
LINE
  5
D9
100
AcDbEntity
  8
1
100
AcDbLine
 10
-423.3761
 20
-178.667968
 30
0.0
 11
-422.47022
 21
-178.667968
 31
0.0
  0
LINE
  5
DA
100
AcDbEntity
  8
1
100
AcDbLine
 10
-423.3761
 20
-172.52768
 30
0.0
 11
-423.3761
 21
-179.967968
 31
0.0
  0
LINE
  5
DB
100
AcDbEntity
  8
1
100
AcDbLine
 10
-445.3761
 20
-173.331804
 30
0.0
 11
-445.3761
 21
-171.955376
 31
0.0
  0
LINE
  5
DC
100
AcDbEntity
  8
1
100
AcDbLine
 10
-417.033876
 20
-178.772964
 30
0.0
 11
-417.033876
 21
-179.967968
 31
0.0
  0
ARC
  5
DD
100
AcDbEntity
  8
1
100
AcDbCircle
 10
-431.265576
 20
-254.141052
 30
0.0
 40
76.7
100
AcDbArc
 50
79.306788
 51
83.415281
  0
LINE
  5
DE
100
AcDbEntity
  8
1
100
AcDbLine
 10
-434.4761
 20
-183.967968
 30
0.0
 11
-417.9761
 21
-183.967968
 31
0.0
  0
ARC
  5
DF
100
AcDbEntity
  8
1
100
AcDbCircle
 10
-417.9761
 20
-185.967968
 30
0.0
 40
2.0
100
AcDbArc
 50
0.0
 51
90.0
  0
ARC
  5
E0
100
AcDbEntity
  8
1
100
AcDbCircle
 10
-414.9761
 20
-183.322216
 30
0.0
 40
2.0
100
AcDbArc
 50
180.0
 51
221.409622
  0
ARC
  5
E1
100
AcDbEntity
  8
1
100
AcDbCircle
 10
-434.4761
 20
-181.967968
 30
0.0
 40
2.0
100
AcDbArc
 50
180.0
 51
270.0
  0
LINE
  5
E2
100
AcDbEntity
  8
1
  6
CENTER
 62
     2
100
AcDbLine
 10
-452.580676
 20
-199.967968
 30
0.0
 11
-437.963456
 21
-199.967968
 31
0.0
  0
LINE
  5
E3
100
AcDbEntity
  8
1
100
AcDbLine
 10
-447.4761
 20
-191.967968
 30
0.0
 11
-438.4761
 21
-191.967968
 31
0.0
  0
ARC
  5
E4
100
AcDbEntity
  8
1
100
AcDbCircle
 10
-447.4761
 20
-199.967968
 30
0.0
 40
8.0
100
AcDbArc
 50
90.0
 51
270.0
  0
ARC
  5
E5
100
AcDbEntity
  8
1
100
AcDbCircle
 10
-438.4761
 20
-189.967968
 30
0.0
 40
2.0
100
AcDbArc
 50
270.0
 51
360.0
  0
LINE
  5
E6
100
AcDbEntity
  8
1
100
AcDbLine
 10
-430.151544
 20
-185.967968
 30
0.0
 11
-430.151544
 21
-205.967968
 31
0.0
  0
ARC
  5
E7
100
AcDbEntity
  8
1
100
AcDbCircle
 10
-432.151544
 20
-205.967968
 30
0.0
 40
2.0
100
AcDbArc
 50
270.0
 51
360.0
  0
ARC
  5
E8
100
AcDbEntity
  8
1
100
AcDbCircle
 10
-432.151544
 20
-185.967968
 30
0.0
 40
2.0
100
AcDbArc
 50
0.0
 51
90.0
  0
LINE
  5
E9
100
AcDbEntity
  8
1
100
AcDbLine
 10
-453.9761
 20
-297.967968
 30
0.0
 11
-417.9761
 21
-297.967968
 31
0.0
  0
LINE
  5
EA
100
AcDbEntity
  8
1
100
AcDbLine
 10
-455.9761
 20
-299.967968
 30
0.0
 11
-455.9761
 21
-330.68058
 31
0.0
  0
ARC
  5
EB
100
AcDbEntity
  8
1
100
AcDbCircle
 10
-453.9761
 20
-299.967968
 30
0.0
 40
2.0
100
AcDbArc
 50
90.0
 51
180.0
  0
ARC
  5
EC
100
AcDbEntity
  8
1
100
AcDbCircle
 10
-417.9761
 20
-299.967968
 30
0.0
 40
2.0
100
AcDbArc
 50
0.0
 51
90.0
  0
LINE
  5
ED
100
AcDbEntity
  8
1
100
AcDbLine
 10
-416.9761
 20
-322.61372
 30
0.0
 11
-416.9761
 21
-325.967968
 31
0.0
  0
LINE
  5
EE
100
AcDbEntity
  8
1
100
AcDbLine
 10
-427.9761
 20
-330.68058
 30
0.0
 11
-455.9761
 21
-330.68058
 31
0.0
  0
ARC
  5
EF
100
AcDbEntity
  8
1
100
AcDbCircle
 10
-434.9761
 20
-252.967968
 30
0.0
 40
80.5
100
AcDbArc
 50
254.878335
 51
261.858695
  0
ARC
  5
F0
100
AcDbEntity
  8
1
100
AcDbCircle
 10
-434.3761
 20
-551.492148
 30
0.0
 40
219.16424
100
AcDbArc
 50
88.32662
 51
93.138712
  0
LINE
  5
F1
100
AcDbEntity
  8
1
100
AcDbLine
 10
-427.9761
 20
-325.967968
 30
0.0
 11
-427.9761
 21
-332.421372
 31
0.0
  0
LINE
  5
F2
100
AcDbEntity
  8
1
100
AcDbLine
 10
-427.9761
 20
-325.967968
 30
0.0
 11
-416.9761
 21
-325.967968
 31
0.0
  0
ARC
  5
F3
100
AcDbEntity
  8
1
100
AcDbCircle
 10
-434.3761
 20
-231.862796
 30
0.0
 40
96.860632
100
AcDbArc
 50
276.520877
 51
277.060518
  0
LINE
  5
F4
100
AcDbEntity
  8
1
100
AcDbLine
 10
-422.47022
 20
-327.988924
 30
0.0
 11
-422.47022
 21
-327.267968
 31
0.0
  0
LINE
  5
F5
100
AcDbEntity
  8
1
100
AcDbLine
 10
-423.3761
 20
-327.267968
 30
0.0
 11
-422.47022
 21
-327.267968
 31
0.0
  0
LINE
  5
F6
100
AcDbEntity
  8
1
100
AcDbLine
 10
-423.3761
 20
-333.408256
 30
0.0
 11
-423.3761
 21
-325.967968
 31
0.0
  0
LINE
  5
F7
100
AcDbEntity
  8
1
100
AcDbLine
 10
-445.3761
 20
-332.604128
 30
0.0
 11
-445.3761
 21
-333.98056
 31
0.0
  0
LINE
  5
F8
100
AcDbEntity
  8
1
100
AcDbLine
 10
-417.033876
 20
-327.162972
 30
0.0
 11
-417.033876
 21
-325.967968
 31
0.0
  0
ARC
  5
F9
100
AcDbEntity
  8
1
100
AcDbCircle
 10
-431.265576
 20
-251.794884
 30
0.0
 40
76.7
100
AcDbArc
 50
276.584719
 51
280.693212
  0
LINE
  5
FA
100
AcDbEntity
  8
1
100
AcDbLine
 10
-434.4761
 20
-321.967968
 30
0.0
 11
-417.9761
 21
-321.967968
 31
0.0
  0
ARC
  5
FB
100
AcDbEntity
  8
1
100
AcDbCircle
 10
-417.9761
 20
-319.967968
 30
0.0
 40
2.0
100
AcDbArc
 50
270.0
 51
360.0
  0
ARC
  5
FC
100
AcDbEntity
  8
1
100
AcDbCircle
 10
-414.9761
 20
-322.61372
 30
0.0
 40
2.0
100
AcDbArc
 50
138.590378
 51
180.0
  0
ARC
  5
FD
100
AcDbEntity
  8
1
100
AcDbCircle
 10
-434.4761
 20
-323.967968
 30
0.0
 40
2.0
100
AcDbArc
 50
90.0
 51
180.0
  0
LINE
  5
FE
100
AcDbEntity
  8
1
  6
CENTER
 62
     2
100
AcDbLine
 10
-441.499332
 20
-305.967968
 30
0.0
 11
-427.220536
 21
-305.967968
 31
0.0
  0
LINE
  5
FF
100
AcDbEntity
  8
1
100
AcDbLine
 10
-447.4761
 20
-313.967968
 30
0.0
 11
-438.4761
 21
-313.967968
 31
0.0
  0
ARC
  5
100
100
AcDbEntity
  8
1
100
AcDbCircle
 10
-447.4761
 20
-305.967968
 30
0.0
 40
8.0
100
AcDbArc
 50
90.0
 51
270.0
  0
ARC
  5
101
100
AcDbEntity
  8
1
100
AcDbCircle
 10
-438.4761
 20
-315.967968
 30
0.0
 40
2.0
100
AcDbArc
 50
0.0
 51
90.0
  0
LINE
  5
102
100
AcDbEntity
  8
1
100
AcDbLine
 10
-430.151544
 20
-319.967968
 30
0.0
 11
-430.151544
 21
-299.967968
 31
0.0
  0
ARC
  5
103
100
AcDbEntity
  8
1
100
AcDbCircle
 10
-432.151544
 20
-299.967968
 30
0.0
 40
2.0
100
AcDbArc
 50
0.0
 51
90.0
  0
ARC
  5
104
100
AcDbEntity
  8
1
100
AcDbCircle
 10
-432.151544
 20
-319.967968
 30
0.0
 40
2.0
100
AcDbArc
 50
270.0
 51
360.0
  0
LINE
  5
105
100
AcDbEntity
  8
1
100
AcDbLine
 10
-450.9761
 20
-295.967968
 30
0.0
 11
-450.9761
 21
-209.967968
 31
0.0
  0
LINE
  5
106
100
AcDbEntity
  8
1
100
AcDbLine
 10
-421.9761
 20
-295.967968
 30
0.0
 11
-421.9761
 21
-209.967968
 31
0.0
  0
LINE
  5
107
100
AcDbEntity
  8
1
100
AcDbLine
 10
-456.9761
 20
-297.967968
 30
0.0
 11
-456.9761
 21
-207.967968
 31
0.0
  0
ARC
  5
108
100
AcDbEntity
  8
1
100
AcDbCircle
 10
-423.9761
 20
-209.967968
 30
0.0
 40
2.0
100
AcDbArc
 50
0.0
 51
72.542397
  0
ARC
  5
109
100
AcDbEntity
  8
1
100
AcDbCircle
 10
-448.9761
 20
-209.967968
 30
0.0
 40
2.0
100
AcDbArc
 50
90.0
 51
180.0
  0
ARC
  5
10A
100
AcDbEntity
  8
1
100
AcDbCircle
 10
-413.9761
 20
-209.967968
 30
0.0
 40
2.0
100
AcDbArc
 50
90.0
 51
180.0
  0
ARC
  5
10B
100
AcDbEntity
  8
1
100
AcDbCircle
 10
-413.9761
 20
-295.967968
 30
0.0
 40
2.0
100
AcDbArc
 50
180.0
 51
270.0
  0
ARC
  5
10C
100
AcDbEntity
  8
1
100
AcDbCircle
 10
-423.9761
 20
-295.967968
 30
0.0
 40
2.0
100
AcDbArc
 50
287.457603
 51
360.0
  0
ARC
  5
10D
100
AcDbEntity
  8
1
100
AcDbCircle
 10
-448.9761
 20
-295.967968
 30
0.0
 40
2.0
100
AcDbArc
 50
180.0
 51
270.0
  0
ARC
  5
10E
100
AcDbEntity
  8
1
100
AcDbCircle
 10
-458.9761
 20
-209.967968
 30
0.0
 40
2.0
100
AcDbArc
 50
0.0
 51
90.0
  0
ARC
  5
10F
100
AcDbEntity
  8
1
100
AcDbCircle
 10
-458.9761
 20
-295.967968
 30
0.0
 40
2.0
100
AcDbArc
 50
270.0
 51
360.0
  0
ARC
  5
110
100
AcDbEntity
  8
1
100
AcDbCircle
 10
-413.9761
 20
-193.053444
 30
0.0
 40
2.0
100
AcDbArc
 50
69.417086
 51
180.0
  0
ARC
  5
111
100
AcDbEntity
  8
1
100
AcDbCircle
 10
-457.9761
 20
-192.687372
 30
0.0
 40
2.0
100
AcDbArc
 50
0.0
 51
109.629557
  0
ARC
  5
112
100
AcDbEntity
  8
1
100
AcDbCircle
 10
-457.9761
 20
-313.24856
 30
0.0
 40
2.0
100
AcDbArc
 50
250.370443
 51
360.0
  0
ARC
  5
113
100
AcDbEntity
  8
1
100
AcDbCircle
 10
-413.9761
 20
-312.882488
 30
0.0
 40
2.0
100
AcDbArc
 50
180.0
 51
290.582914
  0
LINE
  5
114
100
AcDbEntity
  8
1
100
AcDbLine
 10
-413.9761
 20
-201.967968
 30
0.0
 11
-400.601316
 21
-201.967968
 31
0.0
  0
LINE
  5
115
100
AcDbEntity
  8
1
100
AcDbLine
 10
-457.9761
 20
-201.967968
 30
0.0
 11
-472.35088
 21
-201.967968
 31
0.0
  0
LINE
  5
116
100
AcDbEntity
  8
1
100
AcDbLine
 10
-457.9761
 20
-303.967968
 30
0.0
 11
-472.35088
 21
-303.967968
 31
0.0
  0
LINE
  5
117
100
AcDbEntity
  8
1
100
AcDbLine
 10
-413.9761
 20
-303.967968
 30
0.0
 11
-400.601316
 21
-303.967968
 31
0.0
  0
ARC
  5
118
100
AcDbEntity
  8
1
100
AcDbCircle
 10
-436.4761
 20
-252.967968
 30
0.0
 40
66.0
100
AcDbArc
 50
55.906609
 51
69.417086
  0
ARC
  5
119
100
AcDbEntity
  8
1
100
AcDbCircle
 10
-436.4761
 20
-252.967968
 30
0.0
 40
66.0
100
AcDbArc
 50
290.582914
 51
304.093391
  0
ARC
  5
11A
100
AcDbEntity
  8
1
100
AcDbCircle
 10
-436.4761
 20
-252.967968
 30
0.0
 40
66.0
100
AcDbArc
 50
235.906609
 51
250.370443
  0
ARC
  5
11B
100
AcDbEntity
  8
1
100
AcDbCircle
 10
-436.4761
 20
-252.967968
 30
0.0
 40
66.0
100
AcDbArc
 50
109.629557
 51
124.093391
  0
ARC
  5
11C
100
AcDbEntity
  8
1
100
AcDbCircle
 10
-389.073568
 20
-209.967968
 30
0.0
 40
2.0
100
AcDbArc
 50
42.211944
 51
90.0
  0
ARC
  5
11D
100
AcDbEntity
  8
1
100
AcDbCircle
 10
-400.601316
 20
-199.967968
 30
0.0
 40
2.0
100
AcDbArc
 50
270.0
 51
55.906609
  0
ARC
  5
11E
100
AcDbEntity
  8
1
100
AcDbCircle
 10
-472.35088
 20
-199.967968
 30
0.0
 40
2.0
100
AcDbArc
 50
124.093391
 51
270.0
  0
ARC
  5
11F
100
AcDbEntity
  8
1
100
AcDbCircle
 10
-483.878632
 20
-209.967968
 30
0.0
 40
2.0
100
AcDbArc
 50
90.0
 51
137.788056
  0
ARC
  5
120
100
AcDbEntity
  8
1
100
AcDbCircle
 10
-472.35088
 20
-305.967968
 30
0.0
 40
2.0
100
AcDbArc
 50
90.0
 51
235.906609
  0
ARC
  5
121
100
AcDbEntity
  8
1
100
AcDbCircle
 10
-400.601316
 20
-305.967968
 30
0.0
 40
2.0
100
AcDbArc
 50
304.093391
 51
90.0
  0
ARC
  5
122
100
AcDbEntity
  8
1
100
AcDbCircle
 10
-413.9761
 20
-305.967968
 30
0.0
 40
2.0
100
AcDbArc
 50
90.0
 51
180.0
  0
ARC
  5
123
100
AcDbEntity
  8
1
100
AcDbCircle
 10
-457.9761
 20
-305.967968
 30
0.0
 40
2.0
100
AcDbArc
 50
0.0
 51
90.0
  0
ARC
  5
124
100
AcDbEntity
  8
1
100
AcDbCircle
 10
-457.9761
 20
-199.967968
 30
0.0
 40
2.0
100
AcDbArc
 50
270.0
 51
360.0
  0
ARC
  5
125
100
AcDbEntity
  8
1
100
AcDbCircle
 10
-413.9761
 20
-199.967968
 30
0.0
 40
2.0
100
AcDbArc
 50
180.0
 51
270.0
  0
LINE
  5
126
100
AcDbEntity
  8
1
100
AcDbLine
 10
-448.9761
 20
-249.967968
 30
0.0
 11
-445.3761
 21
-249.967968
 31
0.0
  0
LINE
  5
127
100
AcDbEntity
  8
1
100
AcDbLine
 10
-448.9761
 20
-232.967968
 30
0.0
 11
-445.3761
 21
-232.967968
 31
0.0
  0
LINE
  5
128
100
AcDbEntity
  8
1
100
AcDbLine
 10
-448.9761
 20
-226.967968
 30
0.0
 11
-445.3761
 21
-226.967968
 31
0.0
  0
LINE
  5
129
100
AcDbEntity
  8
1
100
AcDbLine
 10
-497.892708
 20
-232.967968
 30
0.0
 11
-482.9761
 21
-232.967968
 31
0.0
  0
LINE
  5
12A
100
AcDbEntity
  8
1
100
AcDbLine
 10
-472.9761
 20
-232.967968
 30
0.0
 11
-458.9761
 21
-232.967968
 31
0.0
  0
LINE
  5
12B
100
AcDbEntity
  8
1
100
AcDbLine
 10
-500.280488
 20
-249.967968
 30
0.0
 11
-482.9761
 21
-249.967968
 31
0.0
  0
LINE
  5
12C
100
AcDbEntity
  8
1
100
AcDbLine
 10
-472.9761
 20
-249.967968
 30
0.0
 11
-458.9761
 21
-249.967968
 31
0.0
  0
LINE
  5
12D
100
AcDbEntity
  8
1
100
AcDbLine
 10
-413.9761
 20
-249.967968
 30
0.0
 11
-399.9761
 21
-249.967968
 31
0.0
  0
LINE
  5
12E
100
AcDbEntity
  8
1
100
AcDbLine
 10
-389.9761
 20
-249.967968
 30
0.0
 11
-372.671712
 21
-249.967968
 31
0.0
  0
LINE
  5
12F
100
AcDbEntity
  8
1
100
AcDbLine
 10
-413.9761
 20
-232.967968
 30
0.0
 11
-399.9761
 21
-232.967968
 31
0.0
  0
LINE
  5
130
100
AcDbEntity
  8
1
100
AcDbLine
 10
-389.9761
 20
-232.967968
 30
0.0
 11
-375.059488
 21
-232.967968
 31
0.0
  0
LINE
  5
131
100
AcDbEntity
  8
1
100
AcDbLine
 10
-413.9761
 20
-226.967968
 30
0.0
 11
-399.9761
 21
-226.967968
 31
0.0
  0
LINE
  5
132
100
AcDbEntity
  8
1
100
AcDbLine
 10
-389.9761
 20
-226.967968
 30
0.0
 11
-378.92612
 21
-226.967968
 31
0.0
  0
LINE
  5
133
100
AcDbEntity
  8
1
100
AcDbLine
 10
-494.026076
 20
-226.967968
 30
0.0
 11
-482.9761
 21
-226.967968
 31
0.0
  0
LINE
  5
134
100
AcDbEntity
  8
1
100
AcDbLine
 10
-472.9761
 20
-226.967968
 30
0.0
 11
-458.9761
 21
-226.967968
 31
0.0
  0
LINE
  5
135
100
AcDbEntity
  8
1
100
AcDbLine
 10
-474.9761
 20
-247.967968
 30
0.0
 11
-474.9761
 21
-234.967968
 31
0.0
  0
LINE
  5
136
100
AcDbEntity
  8
1
100
AcDbLine
 10
-474.9761
 20
-224.967968
 30
0.0
 11
-474.9761
 21
-209.967968
 31
0.0
  0
LINE
  5
137
100
AcDbEntity
  8
1
100
AcDbLine
 10
-480.9761
 20
-247.967968
 30
0.0
 11
-480.9761
 21
-234.967968
 31
0.0
  0
LINE
  5
138
100
AcDbEntity
  8
1
100
AcDbLine
 10
-480.9761
 20
-224.967968
 30
0.0
 11
-480.9761
 21
-209.967968
 31
0.0
  0
LINE
  5
139
100
AcDbEntity
  8
1
100
AcDbLine
 10
-397.9761
 20
-247.967968
 30
0.0
 11
-397.9761
 21
-234.967968
 31
0.0
  0
LINE
  5
13A
100
AcDbEntity
  8
1
100
AcDbLine
 10
-397.9761
 20
-224.967968
 30
0.0
 11
-397.9761
 21
-209.967968
 31
0.0
  0
LINE
  5
13B
100
AcDbEntity
  8
1
100
AcDbLine
 10
-391.9761
 20
-247.967968
 30
0.0
 11
-391.9761
 21
-234.967968
 31
0.0
  0
LINE
  5
13C
100
AcDbEntity
  8
1
100
AcDbLine
 10
-391.9761
 20
-224.967968
 30
0.0
 11
-391.9761
 21
-209.967968
 31
0.0
  0
ARC
  5
13D
100
AcDbEntity
  8
1
100
AcDbCircle
 10
-436.4761
 20
-252.967968
 30
0.0
 40
66.0
100
AcDbArc
 50
25.94448
 51
42.211944
  0
ARC
  5
13E
100
AcDbEntity
  8
1
100
AcDbCircle
 10
-436.4761
 20
-252.967968
 30
0.0
 40
66.0
100
AcDbArc
 50
137.788056
 51
154.05552
  0
ARC
  5
13F
100
AcDbEntity
  8
1
100
AcDbCircle
 10
-436.4761
 20
-252.967968
 30
0.0
 40
66.0
100
AcDbArc
 50
4.480799
 51
16.334823
  0
ARC
  5
140
100
AcDbEntity
  8
1
100
AcDbCircle
 10
-436.4761
 20
-252.967968
 30
0.0
 40
66.0
100
AcDbArc
 50
163.665177
 51
175.519201
  0
LINE
  5
141
100
AcDbEntity
  8
1
100
AcDbLine
 10
-413.9761
 20
-207.967968
 30
0.0
 11
-399.9761
 21
-207.967968
 31
0.0
  0
LINE
  5
142
100
AcDbEntity
  8
1
100
AcDbLine
 10
-389.9761
 20
-207.967968
 30
0.0
 11
-389.073568
 21
-207.967968
 31
0.0
  0
LINE
  5
143
100
AcDbEntity
  8
1
100
AcDbLine
 10
-483.878632
 20
-207.967968
 30
0.0
 11
-482.9761
 21
-207.967968
 31
0.0
  0
LINE
  5
144
100
AcDbEntity
  8
1
100
AcDbLine
 10
-472.9761
 20
-207.967968
 30
0.0
 11
-458.9761
 21
-207.967968
 31
0.0
  0
ARC
  5
145
100
AcDbEntity
  8
1
100
AcDbCircle
 10
-399.9761
 20
-247.967968
 30
0.0
 40
2.0
100
AcDbArc
 50
270.0
 51
360.0
  0
ARC
  5
146
100
AcDbEntity
  8
1
100
AcDbCircle
 10
-399.9761
 20
-234.967968
 30
0.0
 40
2.0
100
AcDbArc
 50
0.0
 51
90.0
  0
ARC
  5
147
100
AcDbEntity
  8
1
100
AcDbCircle
 10
-399.9761
 20
-224.967968
 30
0.0
 40
2.0
100
AcDbArc
 50
270.0
 51
360.0
  0
ARC
  5
148
100
AcDbEntity
  8
1
100
AcDbCircle
 10
-389.9761
 20
-224.967968
 30
0.0
 40
2.0
100
AcDbArc
 50
180.0
 51
270.0
  0
ARC
  5
149
100
AcDbEntity
  8
1
100
AcDbCircle
 10
-389.9761
 20
-234.967968
 30
0.0
 40
2.0
100
AcDbArc
 50
90.0
 51
180.0
  0
ARC
  5
14A
100
AcDbEntity
  8
1
100
AcDbCircle
 10
-389.9761
 20
-247.967968
 30
0.0
 40
2.0
100
AcDbArc
 50
180.0
 51
270.0
  0
ARC
  5
14B
100
AcDbEntity
  8
1
100
AcDbCircle
 10
-482.9761
 20
-224.967968
 30
0.0
 40
2.0
100
AcDbArc
 50
270.0
 51
360.0
  0
ARC
  5
14C
100
AcDbEntity
  8
1
100
AcDbCircle
 10
-482.9761
 20
-234.967968
 30
0.0
 40
2.0
100
AcDbArc
 50
0.0
 51
90.0
  0
ARC
  5
14D
100
AcDbEntity
  8
1
100
AcDbCircle
 10
-472.9761
 20
-234.967968
 30
0.0
 40
2.0
100
AcDbArc
 50
90.0
 51
180.0
  0
ARC
  5
14E
100
AcDbEntity
  8
1
100
AcDbCircle
 10
-472.9761
 20
-224.967968
 30
0.0
 40
2.0
100
AcDbArc
 50
180.0
 51
270.0
  0
ARC
  5
14F
100
AcDbEntity
  8
1
100
AcDbCircle
 10
-472.9761
 20
-247.967968
 30
0.0
 40
2.0
100
AcDbArc
 50
180.0
 51
270.0
  0
ARC
  5
150
100
AcDbEntity
  8
1
100
AcDbCircle
 10
-482.9761
 20
-247.967968
 30
0.0
 40
2.0
100
AcDbArc
 50
270.0
 51
360.0
  0
ARC
  5
151
100
AcDbEntity
  8
1
100
AcDbCircle
 10
-399.9761
 20
-209.967968
 30
0.0
 40
2.0
100
AcDbArc
 50
0.0
 51
90.0
  0
ARC
  5
152
100
AcDbEntity
  8
1
100
AcDbCircle
 10
-389.9761
 20
-209.967968
 30
0.0
 40
2.0
100
AcDbArc
 50
90.0
 51
180.0
  0
ARC
  5
153
100
AcDbEntity
  8
1
100
AcDbCircle
 10
-472.9761
 20
-209.967968
 30
0.0
 40
2.0
100
AcDbArc
 50
90.0
 51
180.0
  0
ARC
  5
154
100
AcDbEntity
  8
1
100
AcDbCircle
 10
-482.9761
 20
-209.967968
 30
0.0
 40
2.0
100
AcDbArc
 50
0.0
 51
90.0
  0
ARC
  5
155
100
AcDbEntity
  8
1
100
AcDbCircle
 10
-378.92612
 20
-224.967968
 30
0.0
 40
2.0
100
AcDbArc
 50
270.0
 51
25.94448
  0
ARC
  5
156
100
AcDbEntity
  8
1
100
AcDbCircle
 10
-375.059488
 20
-234.967968
 30
0.0
 40
2.0
100
AcDbArc
 50
16.334823
 51
90.0
  0
ARC
  5
157
100
AcDbEntity
  8
1
100
AcDbCircle
 10
-372.671712
 20
-247.967968
 30
0.0
 40
2.0
100
AcDbArc
 50
270.0
 51
4.480799
  0
ARC
  5
158
100
AcDbEntity
  8
1
100
AcDbCircle
 10
-500.280488
 20
-247.967968
 30
0.0
 40
2.0
100
AcDbArc
 50
175.519201
 51
270.0
  0
ARC
  5
159
100
AcDbEntity
  8
1
100
AcDbCircle
 10
-497.892708
 20
-234.967968
 30
0.0
 40
2.0
100
AcDbArc
 50
90.0
 51
163.665177
  0
ARC
  5
15A
100
AcDbEntity
  8
1
100
AcDbCircle
 10
-494.026076
 20
-224.967968
 30
0.0
 40
2.0
100
AcDbArc
 50
154.05552
 51
270.0
  0
ARC
  5
15B
100
AcDbEntity
  8
1
100
AcDbCircle
 10
-413.9761
 20
-224.967968
 30
0.0
 40
2.0
100
AcDbArc
 50
180.0
 51
270.0
  0
ARC
  5
15C
100
AcDbEntity
  8
1
100
AcDbCircle
 10
-413.9761
 20
-234.967968
 30
0.0
 40
2.0
100
AcDbArc
 50
90.0
 51
180.0
  0
ARC
  5
15D
100
AcDbEntity
  8
1
100
AcDbCircle
 10
-413.9761
 20
-247.967968
 30
0.0
 40
2.0
100
AcDbArc
 50
180.0
 51
270.0
  0
ARC
  5
15E
100
AcDbEntity
  8
1
100
AcDbCircle
 10
-423.9761
 20
-247.967968
 30
0.0
 40
2.0
100
AcDbArc
 50
287.457603
 51
360.0
  0
ARC
  5
15F
100
AcDbEntity
  8
1
100
AcDbCircle
 10
-423.9761
 20
-234.967968
 30
0.0
 40
2.0
100
AcDbArc
 50
0.0
 51
72.542397
  0
ARC
  5
160
100
AcDbEntity
  8
1
100
AcDbCircle
 10
-423.9761
 20
-224.967968
 30
0.0
 40
2.0
100
AcDbArc
 50
287.457603
 51
360.0
  0
ARC
  5
161
100
AcDbEntity
  8
1
100
AcDbCircle
 10
-448.9761
 20
-224.967968
 30
0.0
 40
2.0
100
AcDbArc
 50
180.0
 51
270.0
  0
ARC
  5
162
100
AcDbEntity
  8
1
100
AcDbCircle
 10
-448.9761
 20
-234.967968
 30
0.0
 40
2.0
100
AcDbArc
 50
90.0
 51
180.0
  0
ARC
  5
163
100
AcDbEntity
  8
1
100
AcDbCircle
 10
-448.9761
 20
-247.967968
 30
0.0
 40
2.0
100
AcDbArc
 50
180.0
 51
270.0
  0
ARC
  5
164
100
AcDbEntity
  8
1
100
AcDbCircle
 10
-458.9761
 20
-247.967968
 30
0.0
 40
2.0
100
AcDbArc
 50
270.0
 51
360.0
  0
ARC
  5
165
100
AcDbEntity
  8
1
100
AcDbCircle
 10
-458.9761
 20
-234.967968
 30
0.0
 40
2.0
100
AcDbArc
 50
0.0
 51
90.0
  0
ARC
  5
166
100
AcDbEntity
  8
1
100
AcDbCircle
 10
-458.9761
 20
-224.967968
 30
0.0
 40
2.0
100
AcDbArc
 50
270.0
 51
360.0
  0
ARC
  5
167
100
AcDbEntity
  8
1
100
AcDbCircle
 10
-389.073568
 20
-295.967968
 30
0.0
 40
2.0
100
AcDbArc
 50
270.0
 51
317.788056
  0
ARC
  5
168
100
AcDbEntity
  8
1
100
AcDbCircle
 10
-483.878632
 20
-295.967968
 30
0.0
 40
2.0
100
AcDbArc
 50
222.211944
 51
270.0
  0
LINE
  5
169
100
AcDbEntity
  8
1
100
AcDbLine
 10
-448.9761
 20
-255.967968
 30
0.0
 11
-445.3761
 21
-255.967968
 31
0.0
  0
LINE
  5
16A
100
AcDbEntity
  8
1
100
AcDbLine
 10
-448.9761
 20
-272.967968
 30
0.0
 11
-445.3761
 21
-272.967968
 31
0.0
  0
LINE
  5
16B
100
AcDbEntity
  8
1
100
AcDbLine
 10
-448.9761
 20
-278.967968
 30
0.0
 11
-445.3761
 21
-278.967968
 31
0.0
  0
LINE
  5
16C
100
AcDbEntity
  8
1
100
AcDbLine
 10
-497.892708
 20
-272.967968
 30
0.0
 11
-482.9761
 21
-272.967968
 31
0.0
  0
LINE
  5
16D
100
AcDbEntity
  8
1
100
AcDbLine
 10
-472.9761
 20
-272.967968
 30
0.0
 11
-458.9761
 21
-272.967968
 31
0.0
  0
LINE
  5
16E
100
AcDbEntity
  8
1
100
AcDbLine
 10
-500.280488
 20
-255.967968
 30
0.0
 11
-482.9761
 21
-255.967968
 31
0.0
  0
LINE
  5
16F
100
AcDbEntity
  8
1
100
AcDbLine
 10
-472.9761
 20
-255.967968
 30
0.0
 11
-458.9761
 21
-255.967968
 31
0.0
  0
LINE
  5
170
100
AcDbEntity
  8
1
100
AcDbLine
 10
-413.9761
 20
-255.967968
 30
0.0
 11
-399.9761
 21
-255.967968
 31
0.0
  0
LINE
  5
171
100
AcDbEntity
  8
1
100
AcDbLine
 10
-389.9761
 20
-255.967968
 30
0.0
 11
-372.671712
 21
-255.967968
 31
0.0
  0
LINE
  5
172
100
AcDbEntity
  8
1
100
AcDbLine
 10
-413.9761
 20
-272.967968
 30
0.0
 11
-399.9761
 21
-272.967968
 31
0.0
  0
LINE
  5
173
100
AcDbEntity
  8
1
100
AcDbLine
 10
-389.9761
 20
-272.967968
 30
0.0
 11
-375.059488
 21
-272.967968
 31
0.0
  0
LINE
  5
174
100
AcDbEntity
  8
1
100
AcDbLine
 10
-413.9761
 20
-278.967968
 30
0.0
 11
-399.9761
 21
-278.967968
 31
0.0
  0
LINE
  5
175
100
AcDbEntity
  8
1
100
AcDbLine
 10
-389.9761
 20
-278.967968
 30
0.0
 11
-378.92612
 21
-278.967968
 31
0.0
  0
LINE
  5
176
100
AcDbEntity
  8
1
100
AcDbLine
 10
-494.026076
 20
-278.967968
 30
0.0
 11
-482.9761
 21
-278.967968
 31
0.0
  0
LINE
  5
177
100
AcDbEntity
  8
1
100
AcDbLine
 10
-472.9761
 20
-278.967968
 30
0.0
 11
-458.9761
 21
-278.967968
 31
0.0
  0
LINE
  5
178
100
AcDbEntity
  8
1
100
AcDbLine
 10
-474.9761
 20
-257.967968
 30
0.0
 11
-474.9761
 21
-270.967968
 31
0.0
  0
LINE
  5
179
100
AcDbEntity
  8
1
100
AcDbLine
 10
-474.9761
 20
-280.967968
 30
0.0
 11
-474.9761
 21
-295.967968
 31
0.0
  0
LINE
  5
17A
100
AcDbEntity
  8
1
100
AcDbLine
 10
-480.9761
 20
-257.967968
 30
0.0
 11
-480.9761
 21
-270.967968
 31
0.0
  0
LINE
  5
17B
100
AcDbEntity
  8
1
100
AcDbLine
 10
-480.9761
 20
-280.967968
 30
0.0
 11
-480.9761
 21
-295.967968
 31
0.0
  0
LINE
  5
17C
100
AcDbEntity
  8
1
100
AcDbLine
 10
-397.9761
 20
-257.967968
 30
0.0
 11
-397.9761
 21
-270.967968
 31
0.0
  0
LINE
  5
17D
100
AcDbEntity
  8
1
100
AcDbLine
 10
-397.9761
 20
-280.967968
 30
0.0
 11
-397.9761
 21
-295.967968
 31
0.0
  0
LINE
  5
17E
100
AcDbEntity
  8
1
100
AcDbLine
 10
-391.9761
 20
-257.967968
 30
0.0
 11
-391.9761
 21
-270.967968
 31
0.0
  0
LINE
  5
17F
100
AcDbEntity
  8
1
100
AcDbLine
 10
-391.9761
 20
-280.967968
 30
0.0
 11
-391.9761
 21
-295.967968
 31
0.0
  0
ARC
  5
180
100
AcDbEntity
  8
1
100
AcDbCircle
 10
-436.4761
 20
-252.967968
 30
0.0
 40
66.0
100
AcDbArc
 50
317.788056
 51
334.05552
  0
ARC
  5
181
100
AcDbEntity
  8
1
100
AcDbCircle
 10
-436.4761
 20
-252.967968
 30
0.0
 40
66.0
100
AcDbArc
 50
205.94448
 51
222.211944
  0
ARC
  5
182
100
AcDbEntity
  8
1
100
AcDbCircle
 10
-436.4761
 20
-252.967968
 30
0.0
 40
66.0
100
AcDbArc
 50
343.665177
 51
355.519201
  0
ARC
  5
183
100
AcDbEntity
  8
1
100
AcDbCircle
 10
-436.4761
 20
-252.967968
 30
0.0
 40
66.0
100
AcDbArc
 50
184.480799
 51
196.334823
  0
LINE
  5
184
100
AcDbEntity
  8
1
100
AcDbLine
 10
-413.9761
 20
-297.967968
 30
0.0
 11
-399.9761
 21
-297.967968
 31
0.0
  0
LINE
  5
185
100
AcDbEntity
  8
1
100
AcDbLine
 10
-389.9761
 20
-297.967968
 30
0.0
 11
-389.073568
 21
-297.967968
 31
0.0
  0
LINE
  5
186
100
AcDbEntity
  8
1
100
AcDbLine
 10
-483.878632
 20
-297.967968
 30
0.0
 11
-482.9761
 21
-297.967968
 31
0.0
  0
LINE
  5
187
100
AcDbEntity
  8
1
100
AcDbLine
 10
-472.9761
 20
-297.967968
 30
0.0
 11
-458.9761
 21
-297.967968
 31
0.0
  0
ARC
  5
188
100
AcDbEntity
  8
1
100
AcDbCircle
 10
-399.9761
 20
-257.967968
 30
0.0
 40
2.0
100
AcDbArc
 50
0.0
 51
90.0
  0
ARC
  5
189
100
AcDbEntity
  8
1
100
AcDbCircle
 10
-399.9761
 20
-270.967968
 30
0.0
 40
2.0
100
AcDbArc
 50
270.0
 51
360.0
  0
ARC
  5
18A
100
AcDbEntity
  8
1
100
AcDbCircle
 10
-399.9761
 20
-280.967968
 30
0.0
 40
2.0
100
AcDbArc
 50
0.0
 51
90.0
  0
ARC
  5
18B
100
AcDbEntity
  8
1
100
AcDbCircle
 10
-389.9761
 20
-280.967968
 30
0.0
 40
2.0
100
AcDbArc
 50
90.0
 51
180.0
  0
ARC
  5
18C
100
AcDbEntity
  8
1
100
AcDbCircle
 10
-389.9761
 20
-270.967968
 30
0.0
 40
2.0
100
AcDbArc
 50
180.0
 51
270.0
  0
ARC
  5
18D
100
AcDbEntity
  8
1
100
AcDbCircle
 10
-389.9761
 20
-257.967968
 30
0.0
 40
2.0
100
AcDbArc
 50
90.0
 51
180.0
  0
ARC
  5
18E
100
AcDbEntity
  8
1
100
AcDbCircle
 10
-482.9761
 20
-280.967968
 30
0.0
 40
2.0
100
AcDbArc
 50
0.0
 51
90.0
  0
ARC
  5
18F
100
AcDbEntity
  8
1
100
AcDbCircle
 10
-482.9761
 20
-270.967968
 30
0.0
 40
2.0
100
AcDbArc
 50
270.0
 51
360.0
  0
ARC
  5
190
100
AcDbEntity
  8
1
100
AcDbCircle
 10
-472.9761
 20
-270.967968
 30
0.0
 40
2.0
100
AcDbArc
 50
180.0
 51
270.0
  0
ARC
  5
191
100
AcDbEntity
  8
1
100
AcDbCircle
 10
-472.9761
 20
-280.967968
 30
0.0
 40
2.0
100
AcDbArc
 50
90.0
 51
180.0
  0
ARC
  5
192
100
AcDbEntity
  8
1
100
AcDbCircle
 10
-472.9761
 20
-257.967968
 30
0.0
 40
2.0
100
AcDbArc
 50
90.0
 51
180.0
  0
ARC
  5
193
100
AcDbEntity
  8
1
100
AcDbCircle
 10
-482.9761
 20
-257.967968
 30
0.0
 40
2.0
100
AcDbArc
 50
0.0
 51
90.0
  0
ARC
  5
194
100
AcDbEntity
  8
1
100
AcDbCircle
 10
-399.9761
 20
-295.967968
 30
0.0
 40
2.0
100
AcDbArc
 50
270.0
 51
360.0
  0
ARC
  5
195
100
AcDbEntity
  8
1
100
AcDbCircle
 10
-389.9761
 20
-295.967968
 30
0.0
 40
2.0
100
AcDbArc
 50
180.0
 51
270.0
  0
ARC
  5
196
100
AcDbEntity
  8
1
100
AcDbCircle
 10
-472.9761
 20
-295.967968
 30
0.0
 40
2.0
100
AcDbArc
 50
180.0
 51
270.0
  0
ARC
  5
197
100
AcDbEntity
  8
1
100
AcDbCircle
 10
-482.9761
 20
-295.967968
 30
0.0
 40
2.0
100
AcDbArc
 50
270.0
 51
360.0
  0
ARC
  5
198
100
AcDbEntity
  8
1
100
AcDbCircle
 10
-378.92612
 20
-280.967968
 30
0.0
 40
2.0
100
AcDbArc
 50
334.05552
 51
90.0
  0
ARC
  5
199
100
AcDbEntity
  8
1
100
AcDbCircle
 10
-375.059488
 20
-270.967968
 30
0.0
 40
2.0
100
AcDbArc
 50
270.0
 51
343.665177
  0
ARC
  5
19A
100
AcDbEntity
  8
1
100
AcDbCircle
 10
-372.671712
 20
-257.967968
 30
0.0
 40
2.0
100
AcDbArc
 50
355.519201
 51
90.0
  0
ARC
  5
19B
100
AcDbEntity
  8
1
100
AcDbCircle
 10
-500.280488
 20
-257.967968
 30
0.0
 40
2.0
100
AcDbArc
 50
90.0
 51
184.480799
  0
ARC
  5
19C
100
AcDbEntity
  8
1
100
AcDbCircle
 10
-497.892708
 20
-270.967968
 30
0.0
 40
2.0
100
AcDbArc
 50
196.334823
 51
270.0
  0
ARC
  5
19D
100
AcDbEntity
  8
1
100
AcDbCircle
 10
-494.026076
 20
-280.967968
 30
0.0
 40
2.0
100
AcDbArc
 50
90.0
 51
205.94448
  0
ARC
  5
19E
100
AcDbEntity
  8
1
100
AcDbCircle
 10
-413.9761
 20
-280.967968
 30
0.0
 40
2.0
100
AcDbArc
 50
90.0
 51
180.0
  0
ARC
  5
19F
100
AcDbEntity
  8
1
100
AcDbCircle
 10
-413.9761
 20
-270.967968
 30
0.0
 40
2.0
100
AcDbArc
 50
180.0
 51
270.0
  0
ARC
  5
1A0
100
AcDbEntity
  8
1
100
AcDbCircle
 10
-413.9761
 20
-257.967968
 30
0.0
 40
2.0
100
AcDbArc
 50
90.0
 51
180.0
  0
ARC
  5
1A1
100
AcDbEntity
  8
1
100
AcDbCircle
 10
-423.9761
 20
-257.967968
 30
0.0
 40
2.0
100
AcDbArc
 50
0.0
 51
72.542397
  0
ARC
  5
1A2
100
AcDbEntity
  8
1
100
AcDbCircle
 10
-423.9761
 20
-270.967968
 30
0.0
 40
2.0
100
AcDbArc
 50
287.457603
 51
360.0
  0
ARC
  5
1A3
100
AcDbEntity
  8
1
100
AcDbCircle
 10
-423.9761
 20
-280.967968
 30
0.0
 40
2.0
100
AcDbArc
 50
0.0
 51
72.542397
  0
ARC
  5
1A4
100
AcDbEntity
  8
1
100
AcDbCircle
 10
-448.9761
 20
-280.967968
 30
0.0
 40
2.0
100
AcDbArc
 50
90.0
 51
180.0
  0
ARC
  5
1A5
100
AcDbEntity
  8
1
100
AcDbCircle
 10
-448.9761
 20
-270.967968
 30
0.0
 40
2.0
100
AcDbArc
 50
180.0
 51
270.0
  0
ARC
  5
1A6
100
AcDbEntity
  8
1
100
AcDbCircle
 10
-448.9761
 20
-257.967968
 30
0.0
 40
2.0
100
AcDbArc
 50
90.0
 51
180.0
  0
ARC
  5
1A7
100
AcDbEntity
  8
1
100
AcDbCircle
 10
-458.9761
 20
-257.967968
 30
0.0
 40
2.0
100
AcDbArc
 50
0.0
 51
90.0
  0
ARC
  5
1A8
100
AcDbEntity
  8
1
100
AcDbCircle
 10
-458.9761
 20
-270.967968
 30
0.0
 40
2.0
100
AcDbArc
 50
270.0
 51
360.0
  0
ARC
  5
1A9
100
AcDbEntity
  8
1
100
AcDbCircle
 10
-458.9761
 20
-280.967968
 30
0.0
 40
2.0
100
AcDbArc
 50
0.0
 51
90.0
  0
ARC
  5
1AA
100
AcDbEntity
  8
1
100
AcDbCircle
 10
-436.4761
 20
-252.967968
 30
0.0
 40
70.0
100
AcDbArc
 50
106.174962
 51
253.825038
  0
ARC
  5
1AB
100
AcDbEntity
  8
1
100
AcDbCircle
 10
-436.4761
 20
-252.967968
 30
0.0
 40
70.0
100
AcDbArc
 50
287.029087
 51
72.970913
  0
ARC
  5
1AC
100
AcDbEntity
  8
1
100
AcDbCircle
 10
-436.4761
 20
-252.967968
 30
0.0
 40
71.58902
100
AcDbArc
 50
105.806425
 51
254.193575
  0
ARC
  5
1AD
100
AcDbEntity
  8
1
100
AcDbCircle
 10
-436.4761
 20
-252.967968
 30
0.0
 40
71.58902
100
AcDbArc
 50
285.950048
 51
74.049952
  0
ARC
  5
1AE
100
AcDbEntity
  8
1
100
AcDbCircle
 10
-436.4761
 20
-252.967968
 30
0.0
 40
73.27962
100
AcDbArc
 50
105.432563
 51
254.567437
  0
ARC
  5
1AF
100
AcDbEntity
  8
1
100
AcDbCircle
 10
-436.4761
 20
-252.967968
 30
0.0
 40
73.27962
100
AcDbArc
 50
285.432563
 51
74.567437
  0
LINE
  5
1B0
100
AcDbEntity
  8
1
100
AcDbLine
 10
-423.3761
 20
-297.967968
 30
0.0
 11
-423.3761
 21
-207.967968
 31
0.0
  0
LINE
  5
1B1
100
AcDbEntity
  8
1
100
AcDbLine
 10
-445.3761
 20
-297.967968
 30
0.0
 11
-445.3761
 21
-207.967968
 31
0.0
  0
LINE
  5
1B2
100
AcDbEntity
  8
1
  6
CENTER
 62
     2
100
AcDbLine
 10
-445.3761
 20
-206.883248
 30
0.0
 11
-445.3761
 21
-193.252512
 31
0.0
  0
CIRCLE
  5
1B3
100
AcDbEntity
  8
1
100
AcDbCircle
 10
-445.3761
 20
-199.967968
 30
0.0
 40
3.5175
  0
CIRCLE
  5
1B4
100
AcDbEntity
  8
1
 62
     2
100
AcDbCircle
 10
-445.3761
 20
-199.967968
 30
0.0
 40
2.5
  0
CIRCLE
  5
1B5
100
AcDbEntity
  8
1
100
AcDbCircle
 10
-445.3761
 20
-199.967968
 30
0.0
 40
2.067
  0
CIRCLE
  5
1B6
100
AcDbEntity
  8
1
100
AcDbCircle
 10
-445.3761
 20
-199.967968
 30
0.0
 40
2.65
  0
CIRCLE
  5
1B7
100
AcDbEntity
  8
1
100
AcDbCircle
 10
-434.3761
 20
-305.967968
 30
0.0
 40
3.5175
  0
CIRCLE
  5
1B8
100
AcDbEntity
  8
1
 62
     2
100
AcDbCircle
 10
-434.3761
 20
-305.967968
 30
0.0
 40
2.5
  0
CIRCLE
  5
1B9
100
AcDbEntity
  8
1
100
AcDbCircle
 10
-434.3761
 20
-305.967968
 30
0.0
 40
2.067
  0
CIRCLE
  5
1BA
100
AcDbEntity
  8
1
100
AcDbCircle
 10
-434.3761
 20
-305.967968
 30
0.0
 40
2.65
  0
LINE
  5
1BB
100
AcDbEntity
  8
1
  6
CENTER
 62
     2
100
AcDbLine
 10
-436.4761
 20
-416.197488
 30
0.0
 11
-436.4761
 21
-56.9204
 31
0.0
  0
ARC
  5
1BC
100
AcDbEntity
  8
1
100
AcDbCircle
 10
-454.9761
 20
-207.967968
 30
0.0
 40
2.0
100
AcDbArc
 50
138.590378
 51
180.0
  0
ARC
  5
1BD
100
AcDbEntity
  8
1
100
AcDbCircle
 10
-457.9761
 20
-205.322216
 30
0.0
 40
2.0
100
AcDbArc
 50
318.590378
 51
360.0
  0
ARC
  5
1BE
100
AcDbEntity
  8
1
100
AcDbCircle
 10
-454.9761
 20
-297.967968
 30
0.0
 40
2.0
100
AcDbArc
 50
180.0
 51
221.409622
  0
ARC
  5
1BF
100
AcDbEntity
  8
1
100
AcDbCircle
 10
-457.9761
 20
-300.61372
 30
0.0
 40
2.0
100
AcDbArc
 50
0.0
 51
41.409622
  0
LINE
  5
1C0
100
AcDbEntity
  8
1
100
AcDbLine
 10
-438.3761
 20
-40.967968
 30
0.0
 11
-430.3761
 21
-40.967968
 31
0.0
  0
LINE
  5
1C1
100
AcDbEntity
  8
1
 62
     2
100
AcDbLine
 10
-431.0526
 20
-40.967968
 30
0.0
 11
-430.3761
 21
-43.467968
 31
0.0
  0
LINE
  5
1C2
100
AcDbEntity
  8
1
 62
     2
100
AcDbLine
 10
-431.0526
 20
-40.967968
 30
0.0
 11
-431.0526
 21
-39.967968
 31
0.0
  0
LINE
  5
1C3
100
AcDbEntity
  8
1
 62
     2
100
AcDbLine
 10
-437.6996
 20
-40.967968
 30
0.0
 11
-437.6996
 21
-39.967968
 31
0.0
  0
LINE
  5
1C4
100
AcDbEntity
  8
1
 62
     2
100
AcDbLine
 10
-437.6996
 20
-40.967968
 30
0.0
 11
-438.3761
 21
-43.467968
 31
0.0
  0
CIRCLE
  5
1C5
100
AcDbEntity
  8
1
100
AcDbCircle
 10
-436.4761
 20
-252.967968
 30
0.0
 40
108.0
  0
LINE
  5
1C6
100
AcDbEntity
  8
1
100
AcDbLine
 10
-457.9761
 20
-139.250116
 30
0.0
 11
-457.9761
 21
-121.796396
 31
0.0
  0
LINE
  5
1C7
100
AcDbEntity
  8
1
100
AcDbLine
 10
-414.9761
 20
-139.250116
 30
0.0
 11
-414.9761
 21
-121.796396
 31
0.0
  0
LINE
  5
1C8
100
AcDbEntity
  8
1
100
AcDbLine
 10
-458.561884
 20
-120.38218
 30
0.0
 11
-459.390312
 21
-119.553752
 31
0.0
  0
LINE
  5
1C9
100
AcDbEntity
  8
1
100
AcDbLine
 10
-414.390312
 20
-120.38218
 30
0.0
 11
-413.561884
 21
-119.553752
 31
0.0
  0
ARC
  5
1CA
100
AcDbEntity
  8
1
100
AcDbCircle
 10
-467.9761
 20
-139.250116
 30
0.0
 40
10.0
100
AcDbArc
 50
285.482804
 51
360.0
  0
ARC
  5
1CB
100
AcDbEntity
  8
1
100
AcDbCircle
 10
-404.9761
 20
-139.250116
 30
0.0
 40
10.0
100
AcDbArc
 50
180.0
 51
254.517196
  0
ARC
  5
1CC
100
AcDbEntity
  8
1
100
AcDbCircle
 10
-416.4761
 20
-272.967968
 30
0.0
 40
175.0
100
AcDbArc
 50
106.80942
 51
119.978232
  0
LINE
  5
1CD
100
AcDbEntity
  8
1
100
AcDbLine
 10
-504.084616
 20
-155.074716
 30
0.0
 11
-510.281644
 21
-140.113772
 31
0.0
  0
ARC
  5
1CE
100
AcDbEntity
  8
1
100
AcDbCircle
 10
-496.423452
 20
-134.37352
 30
0.0
 40
15.0
100
AcDbArc
 50
119.978232
 51
202.5
  0
ARC
  5
1CF
100
AcDbEntity
  8
1
100
AcDbCircle
 10
-517.942808
 20
-160.814968
 30
0.0
 40
15.0
100
AcDbArc
 50
311.477889
 51
22.5
  0
ARC
  5
1D0
100
AcDbEntity
  8
1
100
AcDbCircle
 10
-469.9761
 20
-95.872652
 30
0.0
 40
10.0
100
AcDbArc
 50
286.80942
 51
360.0
  0
ARC
  5
1D1
100
AcDbEntity
  8
1
100
AcDbCircle
 10
-402.9761
 20
-95.872652
 30
0.0
 40
10.0
100
AcDbArc
 50
180.0
 51
253.19058
  0
ARC
  5
1D2
100
AcDbEntity
  8
1
100
AcDbCircle
 10
-456.4761
 20
-272.967968
 30
0.0
 40
175.0
100
AcDbArc
 50
60.021768
 51
73.19058
  0
ARC
  5
1D3
100
AcDbEntity
  8
1
100
AcDbCircle
 10
-376.528748
 20
-134.37352
 30
0.0
 40
15.0
100
AcDbArc
 50
337.5
 51
60.021768
  0
ARC
  5
1D4
100
AcDbEntity
  8
1
100
AcDbCircle
 10
-355.009388
 20
-160.814968
 30
0.0
 40
15.0
100
AcDbArc
 50
157.5
 51
228.522111
  0
LINE
  5
1D5
100
AcDbEntity
  8
1
100
AcDbLine
 10
-446.361264
 20
-136.467968
 30
0.0
 11
-426.590936
 21
-136.467968
 31
0.0
  0
LINE
  5
1D6
100
AcDbEntity
  8
1
100
AcDbLine
 10
-448.361264
 20
-138.467968
 30
0.0
 11
-448.361264
 21
-142.970548
 31
0.0
  0
LINE
  5
1D7
100
AcDbEntity
  8
1
100
AcDbLine
 10
-424.590936
 20
-138.467968
 30
0.0
 11
-424.590936
 21
-142.970548
 31
0.0
  0
ARC
  5
1D8
100
AcDbEntity
  8
1
100
AcDbCircle
 10
-446.361264
 20
-138.467968
 30
0.0
 40
2.0
100
AcDbArc
 50
90.0
 51
180.0
  0
ARC
  5
1D9
100
AcDbEntity
  8
1
100
AcDbCircle
 10
-426.590936
 20
-138.467968
 30
0.0
 40
2.0
100
AcDbArc
 50
0.0
 51
90.0
  0
ARC
  5
1DA
100
AcDbEntity
  8
1
100
AcDbCircle
 10
-451.361264
 20
-142.970548
 30
0.0
 40
3.0
100
AcDbArc
 50
277.706614
 51
360.0
  0
ARC
  5
1DB
100
AcDbEntity
  8
1
100
AcDbCircle
 10
-421.590936
 20
-142.970548
 30
0.0
 40
3.0
100
AcDbArc
 50
180.0
 51
262.293386
  0
LINE
  5
1DC
100
AcDbEntity
  8
1
100
AcDbLine
 10
-457.9761
 20
-383.725328
 30
0.0
 11
-457.9761
 21
-366.68582
 31
0.0
  0
LINE
  5
1DD
100
AcDbEntity
  8
1
100
AcDbLine
 10
-414.9761
 20
-383.725328
 30
0.0
 11
-414.9761
 21
-366.68582
 31
0.0
  0
ARC
  5
1DE
100
AcDbEntity
  8
1
100
AcDbCircle
 10
-467.9761
 20
-366.68582
 30
0.0
 40
10.0
100
AcDbArc
 50
0.0
 51
74.517196
  0
ARC
  5
1DF
100
AcDbEntity
  8
1
100
AcDbCircle
 10
-404.9761
 20
-366.68582
 30
0.0
 40
10.0
100
AcDbArc
 50
105.482804
 51
180.0
  0
LINE
  5
1E0
100
AcDbEntity
  8
1
100
AcDbLine
 10
-458.85478
 20
-385.846648
 30
0.0
 11
-463.09742
 21
-390.089288
 31
0.0
  0
LINE
  5
1E1
100
AcDbEntity
  8
1
100
AcDbLine
 10
-414.09742
 20
-385.846648
 30
0.0
 11
-409.85478
 21
-390.089288
 31
0.0
  0
ARC
  5
1E2
100
AcDbEntity
  8
1
100
AcDbCircle
 10
-460.9761
 20
-383.725328
 30
0.0
 40
3.0
100
AcDbArc
 50
315.0
 51
360.0
  0
ARC
  5
1E3
100
AcDbEntity
  8
1
100
AcDbCircle
 10
-460.9761
 20
-392.210608
 30
0.0
 40
3.0
100
AcDbArc
 50
135.0
 51
180.0
  0
ARC
  5
1E4
100
AcDbEntity
  8
1
100
AcDbCircle
 10
-411.9761
 20
-392.210608
 30
0.0
 40
3.0
100
AcDbArc
 50
0.0
 51
45.0
  0
ARC
  5
1E5
100
AcDbEntity
  8
1
100
AcDbCircle
 10
-411.9761
 20
-383.725328
 30
0.0
 40
3.0
100
AcDbArc
 50
180.0
 51
225.0
  0
ARC
  5
1E6
100
AcDbEntity
  8
1
100
AcDbCircle
 10
-412.9761
 20
-121.796396
 30
0.0
 40
2.0
100
AcDbArc
 50
135.0
 51
180.0
  0
ARC
  5
1E7
100
AcDbEntity
  8
1
100
AcDbCircle
 10
-414.9761
 20
-118.13954
 30
0.0
 40
2.0
100
AcDbArc
 50
315.0
 51
360.0
  0
ARC
  5
1E8
100
AcDbEntity
  8
1
100
AcDbCircle
 10
-459.9761
 20
-121.796396
 30
0.0
 40
2.0
100
AcDbArc
 50
0.0
 51
45.0
  0
ARC
  5
1E9
100
AcDbEntity
  8
1
100
AcDbCircle
 10
-457.9761
 20
-118.13954
 30
0.0
 40
2.0
100
AcDbArc
 50
180.0
 51
225.0
  0
LINE
  5
1EA
100
AcDbEntity
  8
1
100
AcDbLine
 10
-446.361264
 20
-369.467968
 30
0.0
 11
-426.590936
 21
-369.467968
 31
0.0
  0
LINE
  5
1EB
100
AcDbEntity
  8
1
100
AcDbLine
 10
-448.361264
 20
-367.467968
 30
0.0
 11
-448.361264
 21
-362.965384
 31
0.0
  0
LINE
  5
1EC
100
AcDbEntity
  8
1
100
AcDbLine
 10
-424.590936
 20
-367.467968
 30
0.0
 11
-424.590936
 21
-362.965384
 31
0.0
  0
ARC
  5
1ED
100
AcDbEntity
  8
1
100
AcDbCircle
 10
-446.361264
 20
-367.467968
 30
0.0
 40
2.0
100
AcDbArc
 50
180.0
 51
270.0
  0
ARC
  5
1EE
100
AcDbEntity
  8
1
100
AcDbCircle
 10
-426.590936
 20
-367.467968
 30
0.0
 40
2.0
100
AcDbArc
 50
270.0
 51
360.0
  0
ARC
  5
1EF
100
AcDbEntity
  8
1
100
AcDbCircle
 10
-451.361264
 20
-362.965384
 30
0.0
 40
3.0
100
AcDbArc
 50
0.0
 51
82.293386
  0
ARC
  5
1F0
100
AcDbEntity
  8
1
100
AcDbCircle
 10
-421.590936
 20
-362.965384
 30
0.0
 40
3.0
100
AcDbArc
 50
97.706614
 51
180.0
  0
CIRCLE
  5
1F1
100
AcDbEntity
  8
1
100
AcDbCircle
 10
-482.646856
 20
-141.5019
 30
0.0
 40
10.5
  0
ARC
  5
1F2
100
AcDbEntity
  8
1
  6
CENTER
 62
     2
100
AcDbCircle
 10
-436.4761
 20
-252.967968
 30
0.0
 40
120.65
100
AcDbArc
 50
103.705859
 51
121.294141
  0
LINE
  5
1F3
100
AcDbEntity
  8
1
  6
CENTER
 62
     2
100
AcDbLine
 10
-489.7265
 20
-124.410132
 30
0.0
 11
-475.567212
 21
-158.593672
 31
0.0
  0
CIRCLE
  5
1F4
100
AcDbEntity
  8
1
100
AcDbCircle
 10
-390.305344
 20
-141.5019
 30
0.0
 40
10.5
  0
ARC
  5
1F5
100
AcDbEntity
  8
1
  6
CENTER
 62
     2
100
AcDbCircle
 10
-436.4761
 20
-252.967968
 30
0.0
 40
120.65
100
AcDbArc
 50
58.705859
 51
76.294141
  0
LINE
  5
1F6
100
AcDbEntity
  8
1
  6
CENTER
 62
     2
100
AcDbLine
 10
-383.2257
 20
-124.410132
 30
0.0
 11
-397.384988
 21
-158.593672
 31
0.0
  0
ARC
  5
1F7
100
AcDbEntity
  8
1
100
AcDbCircle
 10
-400.9761
 20
-74.967968
 30
0.0
 40
12.0
100
AcDbArc
 50
90.0
 51
180.0
  0
ARC
  5
1F8
100
AcDbEntity
  8
1
100
AcDbCircle
 10
-471.9761
 20
-74.967968
 30
0.0
 40
12.0
100
AcDbArc
 50
0.0
 51
90.0
  0
LINE
  5
1F9
100
AcDbEntity
  8
1
100
AcDbLine
 10
-368.867584
 20
-155.074716
 30
0.0
 11
-362.670556
 21
-140.113772
 31
0.0
  0
LINE
  5
1FA
100
AcDbEntity
  8
1
100
AcDbLine
 10
-413.561884
 20
-118.967968
 30
0.0
 11
-427.147672
 21
-118.967968
 31
0.0
  0
LINE
  5
1FB
100
AcDbEntity
  8
1
100
AcDbLine
 10
-414.9761
 20
-120.967968
 30
0.0
 11
-429.9761
 21
-120.967968
 31
0.0
  0
LINE
  5
1FC
100
AcDbEntity
  8
1
100
AcDbLine
 10
-457.9761
 20
-120.967968
 30
0.0
 11
-442.9761
 21
-120.967968
 31
0.0
  0
LINE
  5
1FD
100
AcDbEntity
  8
1
100
AcDbLine
 10
-459.390312
 20
-118.967968
 30
0.0
 11
-445.804528
 21
-118.967968
 31
0.0
  0
LINE
  5
1FE
100
AcDbEntity
  8
1
100
AcDbLine
 10
-428.561884
 20
-119.553752
 30
0.0
 11
-429.390312
 21
-120.38218
 31
0.0
  0
ARC
  5
1FF
100
AcDbEntity
  8
1
100
AcDbCircle
 10
-427.147672
 20
-120.967968
 30
0.0
 40
2.0
100
AcDbArc
 50
90.0
 51
135.0
  0
ARC
  5
200
100
AcDbEntity
  8
1
100
AcDbCircle
 10
-430.804528
 20
-118.967968
 30
0.0
 40
2.0
100
AcDbArc
 50
270.0
 51
315.0
  0
ARC
  5
201
100
AcDbEntity
  8
1
100
AcDbCircle
 10
-442.147672
 20
-118.967968
 30
0.0
 40
2.0
100
AcDbArc
 50
225.0
 51
270.0
  0
LINE
  5
202
100
AcDbEntity
  8
1
100
AcDbLine
 10
-444.390312
 20
-119.553752
 30
0.0
 11
-443.561884
 21
-120.38218
 31
0.0
  0
ARC
  5
203
100
AcDbEntity
  8
1
100
AcDbCircle
 10
-445.804528
 20
-120.967968
 30
0.0
 40
2.0
100
AcDbArc
 50
45.0
 51
90.0
  0
LINE
  5
204
100
AcDbEntity
  8
1
100
AcDbLine
 10
-418.819751
 20
-39.967968
 30
0.0
 11
-449.932449
 21
-39.967968
 31
0.0
  0
LINE
  5
205
100
AcDbEntity
  8
1
100
AcDbLine
 10
-449.932449
 20
-41.967968
 30
0.0
 11
-438.3761
 21
-41.967968
 31
0.0
  0
LINE
  5
206
100
AcDbEntity
  8
1
100
AcDbLine
 10
-430.3761
 20
-41.967968
 30
0.0
 11
-418.819751
 21
-41.967968
 31
0.0
  0
LINE
  5
207
100
AcDbEntity
  8
1
100
AcDbLine
 10
-449.932449
 20
-43.167968
 30
0.0
 11
-438.3761
 21
-43.167968
 31
0.0
  0
LINE
  5
208
100
AcDbEntity
  8
1
100
AcDbLine
 10
-430.3761
 20
-43.167968
 30
0.0
 11
-418.819751
 21
-43.167968
 31
0.0
  0
LINE
  5
209
100
AcDbEntity
  8
1
100
AcDbLine
 10
-449.932449
 20
-45.167968
 30
0.0
 11
-438.3761
 21
-45.167968
 31
0.0
  0
LINE
  5
20A
100
AcDbEntity
  8
1
100
AcDbLine
 10
-430.3761
 20
-45.167968
 30
0.0
 11
-418.819751
 21
-45.167968
 31
0.0
  0
LINE
  5
20B
100
AcDbEntity
  8
1
100
AcDbLine
 10
-447.3261
 20
-41.967968
 30
0.0
 11
-447.3261
 21
-43.167968
 31
0.0
  0
LINE
  5
20C
100
AcDbEntity
  8
1
100
AcDbLine
 10
-420.0261
 20
-41.967968
 30
0.0
 11
-420.0261
 21
-43.167968
 31
0.0
  0
LINE
  5
20D
100
AcDbEntity
  8
1
100
AcDbLine
 10
-423.892964
 20
-41.967968
 30
0.0
 11
-423.892964
 21
-43.167968
 31
0.0
  0
LINE
  5
20E
100
AcDbEntity
  8
1
  6
CENTER
 62
     2
100
AcDbLine
 10
-575.6572
 20
-252.967968
 30
0.0
 11
-295.589548
 21
-252.967968
 31
0.0
  0
LINE
  5
20F
100
AcDbEntity
  8
1
100
AcDbLine
 10
-423.3761
 20
-33.967968
 30
0.0
 11
-423.3761
 21
-24.467968
 31
0.0
  0
LINE
  5
210
100
AcDbEntity
  8
1
100
AcDbLine
 10
-423.3761
 20
-17.967968
 30
0.0
 11
-423.3761
 21
-12.467968
 31
0.0
  0
LINE
  5
211
100
AcDbEntity
  8
1
100
AcDbLine
 10
-445.3761
 20
-33.967968
 30
0.0
 11
-445.3761
 21
-24.467968
 31
0.0
  0
LINE
  5
212
100
AcDbEntity
  8
1
100
AcDbLine
 10
-445.3761
 20
-17.967968
 30
0.0
 11
-445.3761
 21
-12.467968
 31
0.0
  0
LINE
  5
213
100
AcDbEntity
  8
1
  6
CENTER
 62
     2
100
AcDbLine
 10
128.950064
 20
-252.967968
 30
0.0
 11
235.032652
 21
-252.967968
 31
0.0
  0
LINE
  5
214
100
AcDbEntity
  8
1
  6
CENTER
 62
     2
100
AcDbLine
 10
174.6844
 20
-431.94056
 30
0.0
 11
174.6844
 21
85.491653
 31
0.0
  0
LINE
  5
215
100
AcDbEntity
  8
1
100
AcDbLine
 10
153.6844
 20
-402.967968
 30
0.0
 11
195.6844
 21
-402.967968
 31
0.0
  0
LINE
  5
216
100
AcDbEntity
  8
1
100
AcDbLine
 10
112.1844
 20
-47.967968
 30
0.0
 11
112.1844
 21
-58.967968
 31
0.0
  0
LINE
  5
217
100
AcDbEntity
  8
1
100
AcDbLine
 10
237.1844
 20
-47.967968
 30
0.0
 11
237.1844
 21
-58.967968
 31
0.0
  0
ARC
  5
218
100
AcDbEntity
  8
1
100
AcDbCircle
 10
116.1844
 20
-58.967968
 30
0.0
 40
4.0
100
AcDbArc
 50
180.0
 51
270.0
  0
ARC
  5
219
100
AcDbEntity
  8
1
100
AcDbCircle
 10
233.1844
 20
-58.967968
 30
0.0
 40
4.0
100
AcDbArc
 50
270.0
 51
360.0
  0
LINE
  5
21A
100
AcDbEntity
  8
1
100
AcDbLine
 10
195.6844
 20
-410.467968
 30
0.0
 11
195.6844
 21
-362.048712
 31
0.0
  0
LINE
  5
21B
100
AcDbEntity
  8
1
100
AcDbLine
 10
195.6844
 20
-167.05314
 30
0.0
 11
195.6844
 21
-74.967968
 31
0.0
  0
LINE
  5
21C
100
AcDbEntity
  8
1
100
AcDbLine
 10
153.6844
 20
-410.467968
 30
0.0
 11
153.6844
 21
-369.467968
 31
0.0
  0
LINE
  5
21D
100
AcDbEntity
  8
1
100
AcDbLine
 10
153.6844
 20
-136.467968
 30
0.0
 11
153.6844
 21
-74.967968
 31
0.0
  0
LINE
  5
21E
100
AcDbEntity
  8
1
100
AcDbLine
 10
154.6844
 20
-142.943452
 30
0.0
 11
154.6844
 21
-136.467968
 31
0.0
  0
LINE
  5
21F
100
AcDbEntity
  8
1
  6
CENTER
 62
     2
100
AcDbLine
 10
159.6844
 20
-394.275428
 30
0.0
 11
159.6844
 21
-421.043036
 31
0.0
  0
LINE
  5
220
100
AcDbEntity
  8
1
  6
CENTER
 62
     2
100
AcDbLine
 10
189.6844
 20
-394.275428
 30
0.0
 11
189.6844
 21
-421.043036
 31
0.0
  0
LINE
  5
221
100
AcDbEntity
  8
1
100
AcDbLine
 10
188.9744
 20
-47.967968
 30
0.0
 11
188.9744
 21
-45.167968
 31
0.0
  0
LINE
  5
222
100
AcDbEntity
  8
1
100
AcDbLine
 10
160.3944
 20
-47.967968
 30
0.0
 11
160.3944
 21
-45.167968
 31
0.0
  0
LINE
  5
223
100
AcDbEntity
  8
1
100
AcDbLine
 10
153.6844
 20
-404.467968
 30
0.0
 11
195.6844
 21
-404.467968
 31
0.0
  0
LINE
  5
224
100
AcDbEntity
  8
1
100
AcDbLine
 10
153.5844
 20
-410.467968
 30
0.0
 11
195.7844
 21
-410.467968
 31
0.0
  0
LINE
  5
225
100
AcDbEntity
  8
1
100
AcDbLine
 10
194.6844
 20
-411.967968
 30
0.0
 11
194.6844
 21
-415.967968
 31
0.0
  0
ARC
  5
226
100
AcDbEntity
  8
1
100
AcDbCircle
 10
192.1844
 20
-409.35476
 30
0.0
 40
6.613208
100
AcDbArc
 50
247.788205
 51
292.211795
  0
LINE
  5
227
100
AcDbEntity
  8
1
100
AcDbLine
 10
184.6844
 20
-411.967968
 30
0.0
 11
184.6844
 21
-415.967968
 31
0.0
  0
LINE
  5
228
100
AcDbEntity
  8
1
100
AcDbLine
 10
184.6844
 20
-415.967968
 30
0.0
 11
194.6844
 21
-415.967968
 31
0.0
  0
LINE
  5
229
100
AcDbEntity
  8
1
100
AcDbLine
 10
189.6844
 20
-411.967968
 30
0.0
 11
189.6844
 21
-415.47722
 31
0.0
  0
ARC
  5
22A
100
AcDbEntity
  8
1
100
AcDbCircle
 10
187.1844
 20
-409.35476
 30
0.0
 40
6.613208
100
AcDbArc
 50
247.788205
 51
292.211795
  0
LINE
  5
22B
100
AcDbEntity
  8
1
100
AcDbLine
 10
195.7844
 20
-410.467968
 30
0.0
 11
195.7844
 21
-411.967968
 31
0.0
  0
LINE
  5
22C
100
AcDbEntity
  8
1
100
AcDbLine
 10
195.7844
 20
-411.967968
 30
0.0
 11
183.5844
 21
-411.967968
 31
0.0
  0
LINE
  5
22D
100
AcDbEntity
  8
1
100
AcDbLine
 10
183.5844
 20
-411.967968
 30
0.0
 11
183.5844
 21
-410.467968
 31
0.0
  0
LINE
  5
22E
100
AcDbEntity
  8
1
100
AcDbLine
 10
154.6844
 20
-411.967968
 30
0.0
 11
154.6844
 21
-415.967968
 31
0.0
  0
ARC
  5
22F
100
AcDbEntity
  8
1
100
AcDbCircle
 10
157.1844
 20
-409.35476
 30
0.0
 40
6.613208
100
AcDbArc
 50
247.788205
 51
292.211795
  0
LINE
  5
230
100
AcDbEntity
  8
1
100
AcDbLine
 10
164.6844
 20
-411.967968
 30
0.0
 11
164.6844
 21
-415.967968
 31
0.0
  0
LINE
  5
231
100
AcDbEntity
  8
1
100
AcDbLine
 10
164.6844
 20
-415.967968
 30
0.0
 11
154.6844
 21
-415.967968
 31
0.0
  0
LINE
  5
232
100
AcDbEntity
  8
1
100
AcDbLine
 10
159.6844
 20
-411.967968
 30
0.0
 11
159.6844
 21
-415.47722
 31
0.0
  0
ARC
  5
233
100
AcDbEntity
  8
1
100
AcDbCircle
 10
162.1844
 20
-409.35476
 30
0.0
 40
6.613208
100
AcDbArc
 50
247.788205
 51
292.211795
  0
LINE
  5
234
100
AcDbEntity
  8
1
100
AcDbLine
 10
153.5844
 20
-410.467968
 30
0.0
 11
153.5844
 21
-411.967968
 31
0.0
  0
LINE
  5
235
100
AcDbEntity
  8
1
100
AcDbLine
 10
153.5844
 20
-411.967968
 30
0.0
 11
165.7844
 21
-411.967968
 31
0.0
  0
LINE
  5
236
100
AcDbEntity
  8
1
100
AcDbLine
 10
165.7844
 20
-411.967968
 30
0.0
 11
165.7844
 21
-410.467968
 31
0.0
  0
LINE
  5
237
100
AcDbEntity
  8
1
100
AcDbLine
 10
188.6844
 20
-121.380288
 30
0.0
 11
190.6844
 21
-121.380288
 31
0.0
  0
LINE
  5
238
100
AcDbEntity
  8
1
100
AcDbLine
 10
188.6844
 20
-140.113772
 30
0.0
 11
190.6844
 21
-140.113772
 31
0.0
  0
ARC
  5
239
100
AcDbEntity
  8
1
100
AcDbCircle
 10
190.6844
 20
-126.380288
 30
0.0
 40
5.0
100
AcDbArc
 50
0.0
 51
90.0
  0
ARC
  5
23A
100
AcDbEntity
  8
1
100
AcDbCircle
 10
190.6844
 20
-135.113772
 30
0.0
 40
5.0
100
AcDbArc
 50
270.0
 51
360.0
  0
ARC
  5
23B
100
AcDbEntity
  8
1
100
AcDbCircle
 10
188.6844
 20
-126.380288
 30
0.0
 40
5.0
100
AcDbArc
 50
90.0
 51
180.0
  0
ARC
  5
23C
100
AcDbEntity
  8
1
100
AcDbCircle
 10
188.6844
 20
-135.113772
 30
0.0
 40
5.0
100
AcDbArc
 50
180.0
 51
270.0
  0
LINE
  5
23D
100
AcDbEntity
  8
1
100
AcDbLine
 10
183.6844
 20
-186.652244
 30
0.0
 11
186.971968
 21
-177.05314
 31
0.0
  0
ARC
  5
23E
100
AcDbEntity
  8
1
100
AcDbCircle
 10
180.6844
 20
-98.872652
 30
0.0
 40
3.0
100
AcDbArc
 50
0.0
 51
90.0
  0
LINE
  5
23F
100
AcDbEntity
  8
1
100
AcDbLine
 10
154.6844
 20
-362.99248
 30
0.0
 11
154.6844
 21
-369.467968
 31
0.0
  0
ARC
  5
240
100
AcDbEntity
  8
1
100
AcDbCircle
 10
159.90824
 20
-150.250116
 30
0.0
 40
5.0
100
AcDbArc
 50
15.877479
 51
90.0
  0
ARC
  5
241
100
AcDbEntity
  8
1
100
AcDbCircle
 10
159.6844
 20
-152.88722
 30
0.0
 40
4.0
100
AcDbArc
 50
0.0
 51
90.0
  0
ARC
  5
242
100
AcDbEntity
  8
1
100
AcDbCircle
 10
180.6844
 20
-142.250116
 30
0.0
 40
3.0
100
AcDbArc
 50
270.0
 51
360.0
  0
LINE
  5
243
100
AcDbEntity
  8
1
100
AcDbLine
 10
200.6844
 20
-144.967968
 30
0.0
 11
208.6844
 21
-144.967968
 31
0.0
  0
LINE
  5
244
100
AcDbEntity
  8
1
100
AcDbLine
 10
208.6844
 20
-144.967968
 30
0.0
 11
208.6844
 21
-360.967968
 31
0.0
  0
LINE
  5
245
100
AcDbEntity
  8
1
100
AcDbLine
 10
151.6844
 20
-144.967968
 30
0.0
 11
151.6844
 21
-360.967968
 31
0.0
  0
ARC
  5
246
100
AcDbEntity
  8
1
100
AcDbCircle
 10
207.6844
 20
-74.967968
 30
0.0
 40
12.0
100
AcDbArc
 50
90.0
 51
180.0
  0
ARC
  5
247
100
AcDbEntity
  8
1
100
AcDbCircle
 10
141.6844
 20
-74.967968
 30
0.0
 40
12.0
100
AcDbArc
 50
0.0
 51
90.0
  0
LINE
  5
248
100
AcDbEntity
  8
1
100
AcDbLine
 10
153.6844
 20
-136.467968
 30
0.0
 11
154.6844
 21
-136.467968
 31
0.0
  0
ARC
  5
249
100
AcDbEntity
  8
1
100
AcDbCircle
 10
151.6844
 20
-141.967968
 30
0.0
 40
3.0
100
AcDbArc
 50
270.0
 51
360.0
  0
ARC
  5
24A
100
AcDbEntity
  8
1
100
AcDbCircle
 10
200.6844
 20
-139.967968
 30
0.0
 40
5.0
100
AcDbArc
 50
180.0
 51
270.0
  0
ARC
  5
24B
100
AcDbEntity
  8
1
100
AcDbCircle
 10
200.6844
 20
-143.88722
 30
0.0
 40
5.0
100
AcDbArc
 50
180.0
 51
270.0
  0
ARC
  5
24C
100
AcDbEntity
  8
1
100
AcDbCircle
 10
151.6844
 20
-142.943452
 30
0.0
 40
3.0
100
AcDbArc
 50
270.0
 51
360.0
  0
LINE
  5
24D
100
AcDbEntity
  8
1
100
AcDbLine
 10
168.6844
 20
-242.967968
 30
0.0
 11
183.6844
 21
-242.967968
 31
0.0
  0
ARC
  5
24E
100
AcDbEntity
  8
1
100
AcDbCircle
 10
168.6844
 20
-237.967968
 30
0.0
 40
5.0
100
AcDbArc
 50
180.0
 51
270.0
  0
ARC
  5
24F
100
AcDbEntity
  8
1
100
AcDbCircle
 10
183.6844
 20
-237.967968
 30
0.0
 40
5.0
100
AcDbArc
 50
270.0
 51
360.0
  0
LINE
  5
250
100
AcDbEntity
  8
1
100
AcDbLine
 10
174.05388
 20
-234.958016
 30
0.0
 11
178.31492
 21
-234.958016
 31
0.0
  0
ARC
  5
251
100
AcDbEntity
  8
1
100
AcDbCircle
 10
174.05388
 20
-230.958016
 30
0.0
 40
4.0
100
AcDbArc
 50
180.0
 51
270.0
  0
ARC
  5
252
100
AcDbEntity
  8
1
100
AcDbCircle
 10
178.31492
 20
-230.958016
 30
0.0
 40
4.0
100
AcDbArc
 50
270.0
 51
360.0
  0
LINE
  5
253
100
AcDbEntity
  8
1
100
AcDbLine
 10
174.05388
 20
-167.643748
 30
0.0
 11
180.6844
 21
-167.643748
 31
0.0
  0
ARC
  5
254
100
AcDbEntity
  8
1
100
AcDbCircle
 10
174.05388
 20
-171.643748
 30
0.0
 40
4.0
100
AcDbArc
 50
90.0
 51
180.0
  0
LINE
  5
255
100
AcDbEntity
  8
1
100
AcDbLine
 10
188.6844
 20
-237.967968
 30
0.0
 11
188.6844
 21
-177.05314
 31
0.0
  0
LINE
  5
256
100
AcDbEntity
  8
1
100
AcDbLine
 10
163.6844
 20
-237.967968
 30
0.0
 11
163.6844
 21
-152.88722
 31
0.0
  0
LINE
  5
257
100
AcDbEntity
  8
1
100
AcDbLine
 10
182.31492
 20
-186.652244
 30
0.0
 11
182.31492
 21
-230.958016
 31
0.0
  0
LINE
  5
258
100
AcDbEntity
  8
1
100
AcDbLine
 10
170.05388
 20
-171.643748
 30
0.0
 11
170.05388
 21
-230.958016
 31
0.0
  0
LINE
  5
259
100
AcDbEntity
  8
1
100
AcDbLine
 10
153.6844
 20
-118.967968
 30
0.0
 11
183.6844
 21
-118.967968
 31
0.0
  0
LINE
  5
25A
100
AcDbEntity
  8
1
100
AcDbLine
 10
153.6844
 20
-120.967968
 30
0.0
 11
183.6844
 21
-120.967968
 31
0.0
  0
LINE
  5
25B
100
AcDbEntity
  8
1
100
AcDbLine
 10
154.6844
 20
-148.88722
 30
0.0
 11
159.6844
 21
-148.88722
 31
0.0
  0
LINE
  5
25C
100
AcDbEntity
  8
1
100
AcDbLine
 10
182.31492
 20
-234.958016
 30
0.0
 11
184.70842
 21
-237.967968
 31
0.0
  0
LINE
  5
25D
100
AcDbEntity
  8
1
100
AcDbLine
 10
170.05388
 20
-234.958016
 30
0.0
 11
167.66038
 21
-237.967968
 31
0.0
  0
LINE
  5
25E
100
AcDbEntity
  8
1
100
AcDbLine
 10
183.6844
 20
-95.872652
 30
0.0
 11
192.6844
 21
-95.872652
 31
0.0
  0
LINE
  5
25F
100
AcDbEntity
  8
1
100
AcDbLine
 10
193.6844
 20
-172.05314
 30
0.0
 11
195.6844
 21
-172.05314
 31
0.0
  0
LINE
  5
260
100
AcDbEntity
  8
1
100
AcDbLine
 10
183.6844
 20
-179.652636
 30
0.0
 11
183.6844
 21
-98.872652
 31
0.0
  0
ARC
  5
261
100
AcDbEntity
  8
1
100
AcDbCircle
 10
200.6844
 20
-167.05314
 30
0.0
 40
5.0
100
AcDbArc
 50
180.0
 51
270.0
  0
ARC
  5
262
100
AcDbEntity
  8
1
100
AcDbCircle
 10
193.6844
 20
-177.05314
 30
0.0
 40
5.0
100
AcDbArc
 50
90.0
 51
180.0
  0
LINE
  5
263
100
AcDbEntity
  8
1
100
AcDbLine
 10
183.6844
 20
-179.652636
 30
0.0
 11
182.789172
 21
-184.228276
 31
0.0
  0
ARC
  5
264
100
AcDbEntity
  8
1
100
AcDbCircle
 10
179.844992
 20
-183.652244
 30
0.0
 40
3.0
100
AcDbArc
 50
270.0
 51
348.929876
  0
ARC
  5
265
100
AcDbEntity
  8
1
100
AcDbCircle
 10
180.6844
 20
-164.643748
 30
0.0
 40
3.0
100
AcDbArc
 50
270.0
 51
360.0
  0
LINE
  5
266
100
AcDbEntity
  8
1
100
AcDbLine
 10
164.717488
 20
-148.882208
 30
0.0
 11
170.05388
 21
-167.643748
 31
0.0
  0
LINE
  5
267
100
AcDbEntity
  8
1
100
AcDbLine
 10
153.6844
 20
-369.467968
 30
0.0
 11
154.6844
 21
-369.467968
 31
0.0
  0
ARC
  5
268
100
AcDbEntity
  8
1
100
AcDbCircle
 10
151.6844
 20
-363.967968
 30
0.0
 40
3.0
100
AcDbArc
 50
0.0
 51
90.0
  0
ARC
  5
269
100
AcDbEntity
  8
1
100
AcDbCircle
 10
200.6844
 20
-365.967968
 30
0.0
 40
5.0
100
AcDbArc
 50
90.0
 51
180.0
  0
ARC
  5
26A
100
AcDbEntity
  8
1
100
AcDbCircle
 10
200.6844
 20
-362.048712
 30
0.0
 40
5.0
100
AcDbArc
 50
90.0
 51
180.0
  0
ARC
  5
26B
100
AcDbEntity
  8
1
100
AcDbCircle
 10
151.6844
 20
-362.99248
 30
0.0
 40
3.0
100
AcDbArc
 50
0.0
 51
90.0
  0
LINE
  5
26C
100
AcDbEntity
  8
1
100
AcDbLine
 10
200.6844
 20
-360.967968
 30
0.0
 11
208.6844
 21
-360.967968
 31
0.0
  0
LINE
  5
26D
100
AcDbEntity
  8
1
100
AcDbLine
 10
153.6844
 20
-390.967968
 30
0.0
 11
195.6844
 21
-390.967968
 31
0.0
  0
LINE
  5
26E
100
AcDbEntity
  8
1
100
AcDbLine
 10
153.6844
 20
-384.967968
 30
0.0
 11
195.6844
 21
-384.967968
 31
0.0
  0
LINE
  5
26F
100
AcDbEntity
  8
1
100
AcDbLine
 10
168.6844
 20
-262.967968
 30
0.0
 11
183.6844
 21
-262.967968
 31
0.0
  0
ARC
  5
270
100
AcDbEntity
  8
1
100
AcDbCircle
 10
168.6844
 20
-267.967968
 30
0.0
 40
5.0
100
AcDbArc
 50
90.0
 51
180.0
  0
ARC
  5
271
100
AcDbEntity
  8
1
100
AcDbCircle
 10
183.6844
 20
-267.967968
 30
0.0
 40
5.0
100
AcDbArc
 50
0.0
 51
90.0
  0
LINE
  5
272
100
AcDbEntity
  8
1
100
AcDbLine
 10
174.05388
 20
-270.977916
 30
0.0
 11
178.31492
 21
-270.977916
 31
0.0
  0
ARC
  5
273
100
AcDbEntity
  8
1
100
AcDbCircle
 10
174.05388
 20
-274.977916
 30
0.0
 40
4.0
100
AcDbArc
 50
90.0
 51
180.0
  0
ARC
  5
274
100
AcDbEntity
  8
1
100
AcDbCircle
 10
178.31492
 20
-274.977916
 30
0.0
 40
4.0
100
AcDbArc
 50
0.0
 51
90.0
  0
LINE
  5
275
100
AcDbEntity
  8
1
100
AcDbLine
 10
188.6844
 20
-267.967968
 30
0.0
 11
188.6844
 21
-352.520668
 31
0.0
  0
LINE
  5
276
100
AcDbEntity
  8
1
100
AcDbLine
 10
163.6844
 20
-267.967968
 30
0.0
 11
163.6844
 21
-352.520668
 31
0.0
  0
LINE
  5
277
100
AcDbEntity
  8
1
100
AcDbLine
 10
182.31492
 20
-335.188616
 30
0.0
 11
182.31492
 21
-274.977916
 31
0.0
  0
LINE
  5
278
100
AcDbEntity
  8
1
100
AcDbLine
 10
170.05388
 20
-335.188616
 30
0.0
 11
170.05388
 21
-274.977916
 31
0.0
  0
LINE
  5
279
100
AcDbEntity
  8
1
100
AcDbLine
 10
182.31492
 20
-270.977916
 30
0.0
 11
184.70842
 21
-267.967968
 31
0.0
  0
LINE
  5
27A
100
AcDbEntity
  8
1
100
AcDbLine
 10
170.05388
 20
-270.977916
 30
0.0
 11
167.66038
 21
-267.967968
 31
0.0
  0
LINE
  5
27B
100
AcDbEntity
  8
1
100
AcDbLine
 10
174.05388
 20
-339.188616
 30
0.0
 11
178.31492
 21
-339.188616
 31
0.0
  0
ARC
  5
27C
100
AcDbEntity
  8
1
100
AcDbCircle
 10
174.05388
 20
-335.188616
 30
0.0
 40
4.0
100
AcDbArc
 50
180.0
 51
270.0
  0
ARC
  5
27D
100
AcDbEntity
  8
1
100
AcDbCircle
 10
178.31492
 20
-335.188616
 30
0.0
 40
4.0
100
AcDbArc
 50
270.0
 51
360.0
  0
LINE
  5
27E
100
AcDbEntity
  8
1
100
AcDbLine
 10
154.6844
 20
-357.048712
 30
0.0
 11
163.6844
 21
-357.048712
 31
0.0
  0
LINE
  5
27F
100
AcDbEntity
  8
1
100
AcDbLine
 10
188.6844
 20
-357.048712
 30
0.0
 11
195.6844
 21
-357.048712
 31
0.0
  0
LINE
  5
280
100
AcDbEntity
  8
1
100
AcDbLine
 10
183.6844
 20
-357.520668
 30
0.0
 11
168.6844
 21
-357.520668
 31
0.0
  0
LINE
  5
281
100
AcDbEntity
  8
1
100
AcDbLine
 10
164.717488
 20
-145.250116
 30
0.0
 11
180.6844
 21
-145.250116
 31
0.0
  0
ARC
  5
282
100
AcDbEntity
  8
1
100
AcDbCircle
 10
183.6844
 20
-352.520668
 30
0.0
 40
5.0
100
AcDbArc
 50
270.0
 51
360.0
  0
ARC
  5
283
100
AcDbEntity
  8
1
100
AcDbCircle
 10
168.6844
 20
-352.520668
 30
0.0
 40
5.0
100
AcDbArc
 50
180.0
 51
270.0
  0
LINE
  5
284
100
AcDbEntity
  8
1
100
AcDbLine
 10
182.31492
 20
-339.188616
 30
0.0
 11
186.947148
 21
-352.520668
 31
0.0
  0
LINE
  5
285
100
AcDbEntity
  8
1
100
AcDbLine
 10
170.05388
 20
-339.188616
 30
0.0
 11
165.421652
 21
-352.520668
 31
0.0
  0
LINE
  5
286
100
AcDbEntity
  8
1
100
AcDbLine
 10
186.9344
 20
-41.967968
 30
0.0
 11
186.9344
 21
-43.167968
 31
0.0
  0
LINE
  5
287
100
AcDbEntity
  8
1
100
AcDbLine
 10
162.4344
 20
-41.967968
 30
0.0
 11
162.4344
 21
-43.167968
 31
0.0
  0
LINE
  5
288
100
AcDbEntity
  8
1
100
AcDbLine
 10
179.6844
 20
-41.967968
 30
0.0
 11
179.6844
 21
-43.167968
 31
0.0
  0
LINE
  5
289
100
AcDbEntity
  8
1
100
AcDbLine
 10
169.6844
 20
-41.967968
 30
0.0
 11
169.6844
 21
-43.167968
 31
0.0
  0
LINE
  5
28A
100
AcDbEntity
  8
1
100
AcDbLine
 10
190.240749
 20
-33.967968
 30
0.0
 11
159.128051
 21
-33.967968
 31
0.0
  0
LINE
  5
28B
100
AcDbEntity
  8
1
100
AcDbLine
 10
159.128051
 20
-39.967968
 30
0.0
 11
190.240749
 21
-39.967968
 31
0.0
  0
LINE
  5
28C
100
AcDbEntity
  8
1
100
AcDbLine
 10
159.128051
 20
-41.967968
 30
0.0
 11
190.240749
 21
-41.967968
 31
0.0
  0
LINE
  5
28D
100
AcDbEntity
  8
1
100
AcDbLine
 10
190.240749
 20
-43.167968
 30
0.0
 11
159.128051
 21
-43.167968
 31
0.0
  0
LINE
  5
28E
100
AcDbEntity
  8
1
100
AcDbLine
 10
159.128051
 20
-45.167968
 30
0.0
 11
190.240749
 21
-45.167968
 31
0.0
  0
LINE
  5
28F
100
AcDbEntity
  8
1
100
AcDbLine
 10
237.1844
 20
-47.967968
 30
0.0
 11
112.1844
 21
-47.967968
 31
0.0
  0
LINE
  5
290
100
AcDbEntity
  8
1
100
AcDbLine
 10
116.1844
 20
-62.967968
 30
0.0
 11
233.1844
 21
-62.967968
 31
0.0
  0
LINE
  5
291
100
AcDbEntity
  8
1
100
AcDbLine
 10
163.6844
 20
-33.967968
 30
0.0
 11
163.6844
 21
-24.467968
 31
0.0
  0
LINE
  5
292
100
AcDbEntity
  8
1
100
AcDbLine
 10
163.6844
 20
-17.967968
 30
0.0
 11
163.6844
 21
-12.467968
 31
0.0
  0
LINE
  5
293
100
AcDbEntity
  8
1
100
AcDbLine
 10
185.6844
 20
-33.967968
 30
0.0
 11
185.6844
 21
-24.467968
 31
0.0
  0
LINE
  5
294
100
AcDbEntity
  8
1
100
AcDbLine
 10
185.6844
 20
-17.967968
 30
0.0
 11
185.6844
 21
-12.467968
 31
0.0
  0
LINE
  5
295
100
AcDbEntity
  8
2
100
AcDbLine
 10
-383.039392
 20
407.190287
 30
0.0
 11
-375.57245
 21
411.077331
 31
0.0
  0
LINE
  5
296
100
AcDbEntity
  8
2
100
AcDbLine
 10
-426.3761
 20
324.728232
 30
0.0
 11
-426.3761
 21
327.132314
 31
0.0
  0
ARC
  5
297
100
AcDbEntity
  8
2
100
AcDbCircle
 10
-424.3761
 20
324.903323
 30
0.0
 40
2.0
100
AcDbArc
 50
91.023193
 51
180.0
  0
LINE
  5
298
100
AcDbEntity
  8
2
100
AcDbLine
 10
-98.1261
 20
332.730464
 30
0.0
 11
-424.411814
 21
326.903004
 31
0.0
  0
LINE
  5
299
100
AcDbEntity
  8
2
100
AcDbLine
 10
-98.1261
 20
360.725999
 30
0.0
 11
-434.018957
 21
366.725043
 31
0.0
  0
ARC
  5
29A
100
AcDbEntity
  8
2
100
AcDbCircle
 10
-424.3761
 20
327.132314
 30
0.0
 40
2.0
100
AcDbArc
 50
117.035692
 51
180.0
  0
LINE
  5
29B
100
AcDbEntity
  8
2
100
AcDbLine
 10
-281.3761
 20
366.728232
 30
0.0
 11
-267.3761
 21
366.728232
 31
0.0
  0
LINE
  5
29C
100
AcDbEntity
  8
2
100
AcDbLine
 10
-266.3761
 20
365.103509
 30
0.0
 11
-266.3761
 21
365.728232
 31
0.0
  0
LINE
  5
29D
100
AcDbEntity
  8
2
100
AcDbLine
 10
-282.3761
 20
365.383335
 30
0.0
 11
-282.3761
 21
365.728232
 31
0.0
  0
ARC
  5
29E
100
AcDbEntity
  8
2
100
AcDbCircle
 10
-281.3761
 20
365.728232
 30
0.0
 40
1.0
100
AcDbArc
 50
90.0
 51
180.0
  0
ARC
  5
29F
100
AcDbEntity
  8
2
100
AcDbCircle
 10
-267.3761
 20
365.728232
 30
0.0
 40
1.0
100
AcDbArc
 50
0.0
 51
90.0
  0
ARC
  5
2A0
100
AcDbEntity
  8
2
100
AcDbCircle
 10
-283.3761
 20
365.383335
 30
0.0
 40
1.0
100
AcDbArc
 50
269.109356
 51
360.0
  0
ARC
  5
2A1
100
AcDbEntity
  8
2
100
AcDbCircle
 10
-265.3761
 20
365.103509
 30
0.0
 40
1.0
100
AcDbArc
 50
180.0
 51
269.109356
  0
ARC
  5
2A2
100
AcDbEntity
  8
2
100
AcDbCircle
 10
-265.3761
 20
328.352955
 30
0.0
 40
1.0
100
AcDbArc
 50
90.890644
 51
180.0
  0
ARC
  5
2A3
100
AcDbEntity
  8
2
100
AcDbCircle
 10
-283.3761
 20
328.073128
 30
0.0
 40
1.0
100
AcDbArc
 50
0.0
 51
90.890644
  0
ARC
  5
2A4
100
AcDbEntity
  8
2
100
AcDbCircle
 10
-267.3761
 20
327.728232
 30
0.0
 40
1.0
100
AcDbArc
 50
270.0
 51
360.0
  0
ARC
  5
2A5
100
AcDbEntity
  8
2
100
AcDbCircle
 10
-281.3761
 20
327.728232
 30
0.0
 40
1.0
100
AcDbArc
 50
180.0
 51
270.0
  0
LINE
  5
2A6
100
AcDbEntity
  8
2
100
AcDbLine
 10
-282.3761
 20
328.073128
 30
0.0
 11
-282.3761
 21
327.728232
 31
0.0
  0
LINE
  5
2A7
100
AcDbEntity
  8
2
100
AcDbLine
 10
-266.3761
 20
328.352955
 30
0.0
 11
-266.3761
 21
327.728232
 31
0.0
  0
LINE
  5
2A8
100
AcDbEntity
  8
2
100
AcDbLine
 10
-281.3761
 20
326.728232
 30
0.0
 11
-267.3761
 21
326.728232
 31
0.0
  0
ARC
  5
2A9
100
AcDbEntity
  8
2
100
AcDbCircle
 10
-434.3761
 20
346.728232
 30
0.0
 40
20.0
100
AcDbArc
 50
297.035692
 51
242.964308
  0
LINE
  5
2AA
100
AcDbEntity
  8
2
100
AcDbLine
 10
-441.3761
 20
323.728232
 30
0.0
 11
-427.3761
 21
323.728232
 31
0.0
  0
ARC
  5
2AB
100
AcDbEntity
  8
2
100
AcDbCircle
 10
-441.3761
 20
324.728232
 30
0.0
 40
1.0
100
AcDbArc
 50
180.0
 51
270.0
  0
ARC
  5
2AC
100
AcDbEntity
  8
2
100
AcDbCircle
 10
-427.3761
 20
324.728232
 30
0.0
 40
1.0
100
AcDbArc
 50
270.0
 51
360.0
  0
ARC
  5
2AD
100
AcDbEntity
  8
2
100
AcDbCircle
 10
-98.3761
 20
346.728232
 30
0.0
 40
14.0
100
AcDbArc
 50
270.890644
 51
90.0
  0
ARC
  5
2AE
100
AcDbEntity
  8
2
100
AcDbCircle
 10
-482.8761
 20
346.728232
 30
0.0
 40
2.5
100
AcDbArc
 50
111.150855
 51
248.849145
  0
LINE
  5
2AF
100
AcDbEntity
  8
2
100
AcDbLine
 10
-483.778162
 20
349.059816
 30
0.0
 11
-441.592595
 21
365.380905
 31
0.0
  0
LINE
  5
2B0
100
AcDbEntity
  8
2
100
AcDbLine
 10
-483.778162
 20
344.396648
 30
0.0
 11
-443.65445
 21
328.873266
 31
0.0
  0
ARC
  5
2B1
100
AcDbEntity
  8
2
100
AcDbCircle
 10
-444.3761
 20
327.007999
 30
0.0
 40
2.0
100
AcDbArc
 50
0.0
 51
68.849145
  0
LINE
  5
2B2
100
AcDbEntity
  8
2
100
AcDbLine
 10
-442.3761
 20
324.728232
 30
0.0
 11
-442.3761
 21
327.132314
 31
0.0
  0
ARC
  5
2B3
100
AcDbEntity
  8
2
100
AcDbCircle
 10
-449.052423
 20
306.074388
 30
0.0
 40
0.164198
100
AcDbArc
 50
315.0
 51
71.565051
  0
LINE
  5
2B4
100
AcDbEntity
  8
2
100
AcDbLine
 10
-474.821757
 20
331.406708
 30
0.0
 11
-474.009017
 21
332.219448
 31
0.0
  0
LINE
  5
2B5
100
AcDbEntity
  8
2
100
AcDbLine
 10
-476.447236
 20
329.781228
 30
0.0
 11
-475.634497
 21
330.593968
 31
0.0
  0
LINE
  5
2B6
100
AcDbEntity
  8
2
100
AcDbLine
 10
-460.877988
 20
316.508315
 30
0.0
 11
-457.108113
 21
319.96277
 31
0.0
  0
LINE
  5
2B7
100
AcDbEntity
  8
2
100
AcDbLine
 10
-460.877988
 20
316.508315
 30
0.0
 11
-458.574987
 21
321.429644
 31
0.0
  0
LINE
  5
2B8
100
AcDbEntity
  8
2
100
AcDbLine
 10
-451.790423
 20
303.336388
 30
0.0
 11
-457.046787
 21
308.592752
 31
0.0
  0
ARC
  5
2B9
100
AcDbEntity
  8
2
100
AcDbCircle
 10
-472.893176
 20
330.615962
 30
0.0
 40
8.770361
100
AcDbArc
 50
304.473609
 51
325.526391
  0
ARC
  5
2BA
100
AcDbEntity
  8
2
100
AcDbCircle
 10
-461.590285
 20
319.456422
 30
0.0
 40
9.872039
100
AcDbArc
 50
126.225698
 51
144.937217
  0
ARC
  5
2BB
100
AcDbEntity
  8
2
100
AcDbCircle
 10
-468.639176
 20
324.417391
 30
0.0
 40
3.622075
100
AcDbArc
 50
34.668048
 51
55.331952
  0
ARC
  5
2BC
100
AcDbEntity
  8
2
100
AcDbCircle
 10
-467.021487
 20
326.700129
 30
0.0
 40
0.825058
100
AcDbArc
 50
57.555956
 51
119.227043
  0
ARC
  5
2BD
100
AcDbEntity
  8
2
100
AcDbCircle
 10
-469.079416
 20
324.712608
 30
0.0
 40
0.722472
100
AcDbArc
 50
144.937217
 51
214.668048
  0
ARC
  5
2BE
100
AcDbEntity
  8
2
100
AcDbCircle
 10
-466.694605
 20
326.361963
 30
0.0
 40
3.622075
100
AcDbArc
 50
214.668048
 51
235.331952
  0
ARC
  5
2BF
100
AcDbEntity
  8
2
100
AcDbCircle
 10
-466.254365
 20
326.066746
 30
0.0
 40
0.722472
100
AcDbArc
 50
324.937217
 51
34.668048
  0
ARC
  5
2C0
100
AcDbEntity
  8
2
100
AcDbCircle
 10
-468.34396
 20
323.977151
 30
0.0
 40
0.722472
100
AcDbArc
 50
235.331952
 51
305.062783
  0
ARC
  5
2C1
100
AcDbEntity
  8
2
100
AcDbCircle
 10
-456.93365
 20
308.705889
 30
0.0
 40
0.16
100
AcDbArc
 50
71.565051
 51
225.0
  0
LINE
  5
2C2
100
AcDbEntity
  8
2
100
AcDbLine
 10
-459.705366
 20
322.560023
 30
0.0
 11
-458.544309
 21
321.398966
 31
0.0
  0
LINE
  5
2C3
100
AcDbEntity
  8
2
100
AcDbLine
 10
-462.740312
 20
316.074304
 30
0.0
 11
-460.890554
 21
320.213777
 31
0.0
  0
ARC
  5
2C4
100
AcDbEntity
  8
2
100
AcDbCircle
 10
-457.157859
 20
312.79105
 30
0.0
 40
0.722472
100
AcDbArc
 50
144.937217
 51
214.668048
  0
ARC
  5
2C5
100
AcDbEntity
  8
2
100
AcDbCircle
 10
-448.626894
 20
320.586558
 30
0.0
 40
13.170339
100
AcDbArc
 50
218.729458
 51
231.270542
  0
ARC
  5
2C6
100
AcDbEntity
  8
2
100
AcDbCircle
 10
-455.068264
 20
314.880645
 30
0.0
 40
0.722472
100
AcDbArc
 50
55.331952
 51
125.062783
  0
ARC
  5
2C7
100
AcDbEntity
  8
2
100
AcDbCircle
 10
-462.863772
 20
306.349681
 30
0.0
 40
13.170339
100
AcDbArc
 50
38.729458
 51
51.270542
  0
ARC
  5
2C8
100
AcDbEntity
  8
2
100
AcDbCircle
 10
-453.131476
 20
309.071806
 30
0.0
 40
0.098519
100
AcDbArc
 50
135.0
 51
225.0
  0
ARC
  5
2C9
100
AcDbEntity
  8
2
100
AcDbCircle
 10
-454.773047
 20
314.440405
 30
0.0
 40
3.622075
100
AcDbArc
 50
214.668048
 51
235.331952
  0
ARC
  5
2CA
100
AcDbEntity
  8
2
100
AcDbCircle
 10
-456.422402
 20
312.055594
 30
0.0
 40
0.722472
100
AcDbArc
 50
235.331952
 51
305.062783
  0
ARC
  5
2CB
100
AcDbEntity
  8
2
100
AcDbCircle
 10
-455.63408
 20
311.84937
 30
0.0
 40
1.970379
100
AcDbArc
 50
231.270542
 51
308.830069
  0
ARC
  5
2CC
100
AcDbEntity
  8
2
100
AcDbCircle
 10
-449.743976
 20
312.459306
 30
0.0
 40
0.098519
100
AcDbArc
 50
45.0
 51
135.0
  0
ARC
  5
2CD
100
AcDbEntity
  8
2
100
AcDbCircle
 10
-454.434881
 20
314.113523
 30
0.0
 40
0.825058
100
AcDbArc
 50
330.772957
 51
32.444044
  0
ARC
  5
2CE
100
AcDbEntity
  8
2
100
AcDbCircle
 10
-456.717619
 20
312.495834
 30
0.0
 40
3.622075
100
AcDbArc
 50
34.668048
 51
55.331952
  0
ARC
  5
2CF
100
AcDbEntity
  8
2
100
AcDbCircle
 10
-454.126584
 20
313.356867
 30
0.0
 40
1.970379
100
AcDbArc
 50
321.169931
 51
38.729458
  0
LINE
  5
2D0
100
AcDbEntity
  8
2
100
AcDbLine
 10
-449.813639
 20
312.528969
 30
0.0
 11
-453.201139
 21
309.141469
 31
0.0
  0
ARC
  5
2D1
100
AcDbEntity
  8
2
100
AcDbCircle
 10
-461.678588
 20
319.544725
 30
0.0
 40
9.872039
100
AcDbArc
 50
305.062783
 51
323.774302
  0
ARC
  5
2D2
100
AcDbEntity
  8
2
100
AcDbCircle
 10
-461.852782
 20
319.575568
 30
0.0
 40
11.888361
100
AcDbArc
 50
308.830069
 51
321.169931
  0
LINE
  5
2D3
100
AcDbEntity
  8
2
100
AcDbLine
 10
-462.740312
 20
316.074304
 30
0.0
 11
-460.967322
 21
314.301314
 31
0.0
  0
ARC
  5
2D4
100
AcDbEntity
  8
2
100
AcDbCircle
 10
-457.364082
 20
313.579372
 30
0.0
 40
1.970379
100
AcDbArc
 50
141.169931
 51
218.729458
  0
LINE
  5
2D5
100
AcDbEntity
  8
2
100
AcDbLine
 10
-457.077434
 20
319.932092
 30
0.0
 11
-455.916378
 21
318.771035
 31
0.0
  0
ARC
  5
2D6
100
AcDbEntity
  8
2
100
AcDbCircle
 10
-455.856586
 20
315.086869
 30
0.0
 40
1.970379
100
AcDbArc
 50
51.270542
 51
128.830069
  0
LINE
  5
2D7
100
AcDbEntity
  8
2
100
AcDbLine
 10
-460.958443
 20
314.310193
 30
0.0
 11
-455.916378
 21
318.771035
 31
0.0
  0
ARC
  5
2D8
100
AcDbEntity
  8
2
100
AcDbCircle
 10
-450.519048
 20
308.241834
 30
0.0
 40
8.770361
100
AcDbArc
 50
124.473609
 51
145.526391
  0
ARC
  5
2D9
100
AcDbEntity
  8
2
100
AcDbCircle
 10
-449.637884
 20
307.360671
 30
0.0
 40
11.888361
100
AcDbArc
 50
128.830069
 51
141.169931
  0
LINE
  5
2DA
100
AcDbEntity
  8
2
100
AcDbLine
 10
-448.936317
 20
305.958282
 30
0.0
 11
-451.558212
 21
303.336388
 31
0.0
  0
ARC
  5
2DB
100
AcDbEntity
  8
2
100
AcDbCircle
 10
-451.474152
 20
307.414482
 30
0.0
 40
0.098519
100
AcDbArc
 50
225.0
 51
315.0
  0
LINE
  5
2DC
100
AcDbEntity
  8
2
100
AcDbLine
 10
-456.883053
 20
308.857678
 30
0.0
 11
-449.000499
 21
306.23016
 31
0.0
  0
LINE
  5
2DD
100
AcDbEntity
  8
2
100
AcDbLine
 10
-451.404489
 20
307.344819
 30
0.0
 11
-448.011975
 21
310.737333
 31
0.0
  0
ARC
  5
2DE
100
AcDbEntity
  8
2
100
AcDbCircle
 10
-451.674317
 20
303.452493
 30
0.0
 40
0.164198
100
AcDbArc
 50
225.0
 51
315.0
  0
LINE
  5
2DF
100
AcDbEntity
  8
2
100
AcDbLine
 10
-451.543816
 20
307.344819
 30
0.0
 11
-453.201139
 21
309.002142
 31
0.0
  0
LINE
  5
2E0
100
AcDbEntity
  8
2
100
AcDbLine
 10
-448.011975
 20
310.866632
 30
0.0
 11
-449.674312
 21
312.528969
 31
0.0
  0
LINE
  5
2E1
100
AcDbEntity
  8
2
100
AcDbLine
 10
-473.312383
 20
328.271855
 30
0.0
 11
-475.634497
 21
330.593968
 31
0.0
  0
LINE
  5
2E2
100
AcDbEntity
  8
2
100
AcDbLine
 10
-472.499644
 20
329.084594
 30
0.0
 11
-474.821757
 21
331.406708
 31
0.0
  0
LINE
  5
2E3
100
AcDbEntity
  8
2
100
AcDbLine
 10
-471.686904
 20
329.897334
 30
0.0
 11
-474.009017
 21
332.219448
 31
0.0
  0
LINE
  5
2E4
100
AcDbEntity
  8
2
100
AcDbLine
 10
-470.17753
 20
331.406708
 30
0.0
 11
-471.686904
 21
329.897334
 31
0.0
  0
LINE
  5
2E5
100
AcDbEntity
  8
2
100
AcDbLine
 10
-472.499644
 20
329.084594
 30
0.0
 11
-473.312383
 21
328.271855
 31
0.0
  0
LINE
  5
2E6
100
AcDbEntity
  8
2
100
AcDbLine
 10
-466.803018
 20
320.13701
 30
0.0
 11
-465.030028
 21
318.36402
 31
0.0
  0
ARC
  5
2E7
100
AcDbEntity
  8
2
100
AcDbCircle
 10
-460.517773
 20
332.477437
 30
0.0
 40
13.170339
100
AcDbArc
 50
218.729458
 51
231.270542
  0
ARC
  5
2E8
100
AcDbEntity
  8
2
100
AcDbCircle
 10
-467.524959
 20
323.740249
 30
0.0
 40
1.970379
100
AcDbArc
 50
231.270542
 51
308.830069
  0
ARC
  5
2E9
100
AcDbEntity
  8
2
100
AcDbCircle
 10
-469.254962
 20
325.470251
 30
0.0
 40
1.970379
100
AcDbArc
 50
141.169931
 51
218.729458
  0
LINE
  5
2EA
100
AcDbEntity
  8
2
100
AcDbLine
 10
-462.333297
 20
325.187954
 30
0.0
 11
-461.17224
 21
324.026897
 31
0.0
  0
ARC
  5
2EB
100
AcDbEntity
  8
2
100
AcDbCircle
 10
-474.754651
 20
318.24056
 30
0.0
 40
13.170339
100
AcDbArc
 50
38.729458
 51
51.270542
  0
ARC
  5
2EC
100
AcDbEntity
  8
2
100
AcDbCircle
 10
-466.017463
 20
325.247746
 30
0.0
 40
1.970379
100
AcDbArc
 50
321.169931
 51
38.729458
  0
ARC
  5
2ED
100
AcDbEntity
  8
2
100
AcDbCircle
 10
-467.747465
 20
326.977748
 30
0.0
 40
1.970379
100
AcDbArc
 50
51.270542
 51
128.830069
  0
LINE
  5
2EE
100
AcDbEntity
  8
2
100
AcDbLine
 10
-472.731855
 20
326.065847
 30
0.0
 11
-467.971522
 21
330.826179
 31
0.0
  0
ARC
  5
2EF
100
AcDbEntity
  8
2
100
AcDbCircle
 10
-473.743661
 20
331.466447
 30
0.0
 40
11.888361
100
AcDbArc
 50
308.830069
 51
321.169931
  0
ARC
  5
2F0
100
AcDbEntity
  8
2
100
AcDbCircle
 10
-461.528764
 20
319.25155
 30
0.0
 40
11.888361
100
AcDbArc
 50
128.830069
 51
141.169931
  0
LINE
  5
2F1
100
AcDbEntity
  8
2
100
AcDbLine
 10
-466.794139
 20
320.145889
 30
0.0
 11
-462.333297
 21
325.187954
 31
0.0
  0
LINE
  5
2F2
100
AcDbEntity
  8
2
100
AcDbLine
 10
-464.626695
 20
320.257022
 30
0.0
 11
-461.17224
 21
324.026897
 31
0.0
  0
LINE
  5
2F3
100
AcDbEntity
  8
2
100
AcDbLine
 10
-465.030028
 20
318.36402
 30
0.0
 11
-460.890554
 21
320.213777
 31
0.0
  0
LINE
  5
2F4
100
AcDbEntity
  8
2
100
AcDbLine
 10
-464.626695
 20
320.257022
 30
0.0
 11
-459.705366
 21
322.560023
 31
0.0
  0
LINE
  5
2F5
100
AcDbEntity
  8
2
100
AcDbLine
 10
-472.731855
 20
326.065847
 30
0.0
 11
-476.447236
 21
329.781228
 31
0.0
  0
ARC
  5
2F6
100
AcDbEntity
  8
2
100
AcDbCircle
 10
-448.076625
 20
310.801982
 30
0.0
 40
0.091429
100
AcDbArc
 50
315.0
 51
45.0
  0
LINE
  5
2F7
100
AcDbEntity
  8
2
100
AcDbLine
 10
-467.971522
 20
330.826179
 30
0.0
 11
-471.686904
 21
334.541561
 31
0.0
  0
LINE
  5
2F8
100
AcDbEntity
  8
2
100
AcDbLine
 10
-470.17753
 20
331.406708
 30
0.0
 11
-472.499644
 21
333.728821
 31
0.0
  0
LINE
  5
2F9
100
AcDbEntity
  8
2
100
AcDbLine
 10
-472.499644
 20
333.728821
 30
0.0
 11
-471.686904
 21
334.541561
 31
0.0
  0
LINE
  5
2FA
100
AcDbEntity
  8
2
100
AcDbLine
 10
-506.369155
 20
344.728232
 30
0.0
 11
-484.3761
 21
344.728232
 31
0.0
  0
LINE
  5
2FB
100
AcDbEntity
  8
2
100
AcDbLine
 10
-506.369155
 20
348.728232
 30
0.0
 11
-484.3761
 21
348.728232
 31
0.0
  0
ARC
  5
2FC
100
AcDbEntity
  8
2
100
AcDbCircle
 10
-434.3761
 20
346.728232
 30
0.0
 40
73.0
100
AcDbArc
 50
179.2042
 51
180.7958
  0
ARC
  5
2FD
100
AcDbEntity
  8
2
100
AcDbCircle
 10
-506.369155
 20
347.728232
 30
0.0
 40
1.0
100
AcDbArc
 50
90.0
 51
179.2042
  0
ARC
  5
2FE
100
AcDbEntity
  8
2
100
AcDbCircle
 10
-506.369155
 20
345.728232
 30
0.0
 40
1.0
100
AcDbArc
 50
180.7958
 51
270.0
  0
ARC
  5
2FF
100
AcDbEntity
  8
2
100
AcDbCircle
 10
-433.3761
 20
297.738437
 30
0.0
 40
1.0
100
AcDbArc
 50
0.0
 51
91.169383
  0
ARC
  5
300
100
AcDbEntity
  8
2
100
AcDbCircle
 10
-435.3761
 20
297.738437
 30
0.0
 40
1.0
100
AcDbArc
 50
88.830617
 51
180.0
  0
ARC
  5
301
100
AcDbEntity
  8
2
100
AcDbCircle
 10
-435.3761
 20
274.735177
 30
0.0
 40
1.0
100
AcDbArc
 50
180.0
 51
269.2042
  0
ARC
  5
302
100
AcDbEntity
  8
2
100
AcDbCircle
 10
-433.3761
 20
274.735177
 30
0.0
 40
1.0
100
AcDbArc
 50
270.7958
 51
360.0
  0
LINE
  5
303
100
AcDbEntity
  8
2
100
AcDbLine
 10
-445.893961
 20
275.648425
 30
0.0
 11
-443.636535
 21
288.450926
 31
0.0
  0
ARC
  5
304
100
AcDbEntity
  8
2
100
AcDbCircle
 10
-444.621342
 20
288.624574
 30
0.0
 40
1.0
100
AcDbArc
 50
350.0
 51
170.0
  0
ARC
  5
305
100
AcDbEntity
  8
2
100
AcDbCircle
 10
-446.878769
 20
275.822074
 30
0.0
 40
1.0
100
AcDbArc
 50
169.999267
 51
350.0
  0
LINE
  5
306
100
AcDbEntity
  8
2
100
AcDbLine
 10
-447.863576
 20
275.995722
 30
0.0
 11
-445.60615
 21
288.798222
 31
0.0
  0
LINE
  5
307
100
AcDbEntity
  8
2
100
AcDbLine
 10
-458.061858
 20
278.728343
 30
0.0
 11
-453.615596
 21
290.944347
 31
0.0
  0
ARC
  5
308
100
AcDbEntity
  8
2
100
AcDbCircle
 10
-454.555288
 20
291.286367
 30
0.0
 40
1.0
100
AcDbArc
 50
340.0
 51
160.0
  0
ARC
  5
309
100
AcDbEntity
  8
2
100
AcDbCircle
 10
-459.00155
 20
279.070363
 30
0.0
 40
1.0
100
AcDbArc
 50
159.999267
 51
340.0
  0
LINE
  5
30A
100
AcDbEntity
  8
2
100
AcDbLine
 10
-459.941243
 20
279.412383
 30
0.0
 11
-455.494981
 21
291.628387
 31
0.0
  0
LINE
  5
30B
100
AcDbEntity
  8
2
100
AcDbLine
 10
-469.510074
 20
283.874403
 30
0.0
 11
-463.010074
 21
295.132733
 31
0.0
  0
ARC
  5
30C
100
AcDbEntity
  8
2
100
AcDbCircle
 10
-463.8761
 20
295.632733
 30
0.0
 40
1.0
100
AcDbArc
 50
330.0
 51
150.0
  0
ARC
  5
30D
100
AcDbEntity
  8
2
100
AcDbCircle
 10
-470.3761
 20
284.374403
 30
0.0
 40
1.0
100
AcDbArc
 50
149.999267
 51
330.0
  0
LINE
  5
30E
100
AcDbEntity
  8
2
100
AcDbLine
 10
-471.242125
 20
284.874403
 30
0.0
 11
-464.742125
 21
296.132733
 31
0.0
  0
LINE
  5
30F
100
AcDbEntity
  8
2
100
AcDbLine
 10
-479.890763
 20
290.930244
 30
0.0
 11
-471.534524
 21
300.888822
 31
0.0
  0
ARC
  5
310
100
AcDbEntity
  8
2
100
AcDbCircle
 10
-472.300569
 20
301.53161
 30
0.0
 40
1.0
100
AcDbArc
 50
320.0
 51
140.0
  0
ARC
  5
311
100
AcDbEntity
  8
2
100
AcDbCircle
 10
-480.656808
 20
291.573032
 30
0.0
 40
1.0
100
AcDbArc
 50
139.999267
 51
320.0
  0
LINE
  5
312
100
AcDbEntity
  8
2
100
AcDbLine
 10
-481.422852
 20
292.215819
 30
0.0
 11
-473.066613
 21
302.174397
 31
0.0
  0
LINE
  5
313
100
AcDbEntity
  8
2
100
AcDbLine
 10
-488.888512
 20
299.681479
 30
0.0
 11
-478.929934
 21
308.037718
 31
0.0
  0
ARC
  5
314
100
AcDbEntity
  8
2
100
AcDbCircle
 10
-479.572722
 20
308.803763
 30
0.0
 40
1.0
100
AcDbArc
 50
310.0
 51
130.0
  0
ARC
  5
315
100
AcDbEntity
  8
2
100
AcDbCircle
 10
-489.5313
 20
300.447524
 30
0.0
 40
1.0
100
AcDbArc
 50
129.999267
 51
310.0
  0
LINE
  5
316
100
AcDbEntity
  8
2
100
AcDbLine
 10
-490.174087
 20
301.213568
 30
0.0
 11
-480.21551
 21
309.569807
 31
0.0
  0
LINE
  5
317
100
AcDbEntity
  8
2
100
AcDbLine
 10
-496.229929
 20
309.862206
 30
0.0
 11
-484.971599
 21
316.362206
 31
0.0
  0
ARC
  5
318
100
AcDbEntity
  8
2
100
AcDbCircle
 10
-485.471599
 20
317.228232
 30
0.0
 40
1.0
100
AcDbArc
 50
300.0
 51
120.0
  0
ARC
  5
319
100
AcDbEntity
  8
2
100
AcDbCircle
 10
-496.729929
 20
310.728232
 30
0.0
 40
1.0
100
AcDbArc
 50
119.999267
 51
300.0
  0
LINE
  5
31A
100
AcDbEntity
  8
2
100
AcDbLine
 10
-497.229929
 20
311.594257
 30
0.0
 11
-485.971599
 21
318.094257
 31
0.0
  0
LINE
  5
31B
100
AcDbEntity
  8
2
100
AcDbLine
 10
-501.691948
 20
321.163089
 30
0.0
 11
-489.475944
 21
325.609351
 31
0.0
  0
ARC
  5
31C
100
AcDbEntity
  8
2
100
AcDbCircle
 10
-489.817965
 20
326.549043
 30
0.0
 40
1.0
100
AcDbArc
 50
290.0
 51
110.0
  0
ARC
  5
31D
100
AcDbEntity
  8
2
100
AcDbCircle
 10
-502.033969
 20
322.102781
 30
0.0
 40
1.0
100
AcDbArc
 50
109.999267
 51
290.0
  0
LINE
  5
31E
100
AcDbEntity
  8
2
100
AcDbLine
 10
-502.375989
 20
323.042474
 30
0.0
 11
-490.159985
 21
327.488736
 31
0.0
  0
LINE
  5
31F
100
AcDbEntity
  8
2
100
AcDbLine
 10
-505.455906
 20
335.210371
 30
0.0
 11
-492.653405
 21
337.467797
 31
0.0
  0
ARC
  5
320
100
AcDbEntity
  8
2
100
AcDbCircle
 10
-505.282258
 20
334.225563
 30
0.0
 40
1.0
100
AcDbArc
 50
99.999267
 51
280.0
  0
ARC
  5
321
100
AcDbEntity
  8
2
100
AcDbCircle
 10
-492.479757
 20
336.482989
 30
0.0
 40
1.0
100
AcDbArc
 50
280.0
 51
100.0
  0
LINE
  5
322
100
AcDbEntity
  8
2
100
AcDbLine
 10
-505.10861
 20
333.240755
 30
0.0
 11
-492.306109
 21
335.498182
 31
0.0
  0
LINE
  5
323
100
AcDbEntity
  8
2
100
AcDbLine
 10
-432.3761
 20
274.735177
 30
0.0
 11
-432.3761
 21
297.738437
 31
0.0
  0
LINE
  5
324
100
AcDbEntity
  8
2
100
AcDbLine
 10
-436.3761
 20
274.735177
 30
0.0
 11
-436.3761
 21
297.738437
 31
0.0
  0
ARC
  5
325
100
AcDbEntity
  8
2
100
AcDbCircle
 10
-434.3761
 20
346.728232
 30
0.0
 40
73.0
100
AcDbArc
 50
269.2042
 51
270.7958
  0
ARC
  5
326
100
AcDbEntity
  8
2
100
AcDbCircle
 10
-434.3761
 20
346.728232
 30
0.0
 40
48.0
100
AcDbArc
 50
268.830617
 51
271.169383
  0
LINE
  5
327
100
AcDbEntity
  8
2
100
AcDbLine
 10
-422.001731
 20
377.487377
 30
0.0
 11
-422.355285
 21
377.133823
 31
0.0
  0
LINE
  5
328
100
AcDbEntity
  8
2
100
AcDbLine
 10
-425.183712
 20
380.669357
 30
0.0
 11
-422.001731
 21
377.487377
 31
0.0
  0
LINE
  5
329
100
AcDbEntity
  8
2
100
AcDbLine
 10
-422.001731
 20
383.851338
 30
0.0
 11
-425.183712
 21
380.669357
 31
0.0
  0
LINE
  5
32A
100
AcDbEntity
  8
2
100
AcDbLine
 10
-422.355285
 20
384.204891
 30
0.0
 11
-422.001731
 21
383.851338
 31
0.0
  0
LINE
  5
32B
100
AcDbEntity
  8
2
100
AcDbLine
 10
-425.890819
 20
380.669357
 30
0.0
 11
-422.355285
 21
384.204891
 31
0.0
  0
LINE
  5
32C
100
AcDbEntity
  8
2
100
AcDbLine
 10
-422.355285
 20
377.133823
 30
0.0
 11
-425.890819
 21
380.669357
 31
0.0
  0
LINE
  5
32D
100
AcDbEntity
  8
2
100
AcDbLine
 10
-393.694852
 20
302.665786
 30
0.0
 11
-389.07605
 21
310.665786
 31
0.0
  0
LINE
  5
32E
100
AcDbEntity
  8
2
100
AcDbLine
 10
-389.07605
 20
310.665786
 30
0.0
 11
-393.694852
 21
318.665786
 31
0.0
  0
LINE
  5
32F
100
AcDbEntity
  8
2
100
AcDbLine
 10
-402.932456
 20
302.665786
 30
0.0
 11
-393.694852
 21
302.665786
 31
0.0
  0
LINE
  5
330
100
AcDbEntity
  8
2
100
AcDbLine
 10
-407.551258
 20
310.665786
 30
0.0
 11
-402.932456
 21
302.665786
 31
0.0
  0
LINE
  5
331
100
AcDbEntity
  8
2
100
AcDbLine
 10
-402.932456
 20
318.665786
 30
0.0
 11
-407.551258
 21
310.665786
 31
0.0
  0
LINE
  5
332
100
AcDbEntity
  8
2
100
AcDbLine
 10
-393.694852
 20
318.665786
 30
0.0
 11
-402.932456
 21
318.665786
 31
0.0
  0
CIRCLE
  5
333
100
AcDbEntity
  8
2
100
AcDbCircle
 10
-398.313654
 20
310.665786
 30
0.0
 40
8.0
  0
LINE
  5
334
100
AcDbEntity
  8
2
100
AcDbLine
 10
-426.870546
 20
323.728232
 30
0.0
 11
-441.881653
 21
323.728232
 31
0.0
  0
LINE
  5
335
100
AcDbEntity
  8
2
100
AcDbLine
 10
-427.3761
 20
323.728232
 30
0.0
 11
-441.3761
 21
323.728232
 31
0.0
  0
CIRCLE
  5
336
100
AcDbEntity
  8
2
100
AcDbCircle
 10
-470.438546
 20
382.790678
 30
0.0
 40
8.0
  0
LINE
  5
337
100
AcDbEntity
  8
2
100
AcDbLine
 10
-475.057348
 20
374.790678
 30
0.0
 11
-465.819744
 21
374.790678
 31
0.0
  0
LINE
  5
338
100
AcDbEntity
  8
2
100
AcDbLine
 10
-465.819744
 20
374.790678
 30
0.0
 11
-461.200941
 21
382.790678
 31
0.0
  0
LINE
  5
339
100
AcDbEntity
  8
2
100
AcDbLine
 10
-461.200941
 20
382.790678
 30
0.0
 11
-465.819744
 21
390.790678
 31
0.0
  0
LINE
  5
33A
100
AcDbEntity
  8
2
100
AcDbLine
 10
-465.819744
 20
390.790678
 30
0.0
 11
-475.057348
 21
390.790678
 31
0.0
  0
LINE
  5
33B
100
AcDbEntity
  8
2
100
AcDbLine
 10
-479.67615
 20
382.790678
 30
0.0
 11
-475.057348
 21
374.790678
 31
0.0
  0
LINE
  5
33C
100
AcDbEntity
  8
2
100
AcDbLine
 10
-475.057348
 20
390.790678
 30
0.0
 11
-479.67615
 21
382.790678
 31
0.0
  0
LINE
  5
33D
100
AcDbEntity
  8
2
100
AcDbLine
 10
-431.879043
 20
352.361943
 30
0.0
 11
-428.189756
 21
352.361943
 31
0.0
  0
LINE
  5
33E
100
AcDbEntity
  8
2
100
AcDbLine
 10
-428.142969
 20
352.163749
 30
0.0
 11
-431.762075
 21
350.354196
 31
0.0
  0
CIRCLE
  5
33F
100
AcDbEntity
  8
2
100
AcDbCircle
 10
-434.3761
 20
346.728232
 30
0.0
 40
14.0
  0
LINE
  5
340
100
AcDbEntity
  8
2
100
AcDbLine
 10
-432.484669
 20
349.966744
 30
0.0
 11
-436.103776
 21
348.157191
 31
0.0
  0
LINE
  5
341
100
AcDbEntity
  8
2
100
AcDbLine
 10
-436.482292
 20
348.391127
 30
0.0
 11
-436.482292
 21
349.903389
 31
0.0
  0
LINE
  5
342
100
AcDbEntity
  8
2
100
AcDbLine
 10
-436.826369
 20
349.966744
 30
0.0
 11
-440.526702
 21
348.116578
 31
0.0
  0
LINE
  5
343
100
AcDbEntity
  8
2
100
AcDbLine
 10
-440.823992
 20
346.194122
 30
0.0
 11
-440.823992
 21
352.100394
 31
0.0
  0
LINE
  5
344
100
AcDbEntity
  8
2
100
AcDbLine
 10
-436.826369
 20
347.769739
 30
0.0
 11
-440.445476
 21
345.960186
 31
0.0
  0
LINE
  5
345
100
AcDbEntity
  8
2
100
AcDbLine
 10
-440.491611
 20
347.967933
 30
0.0
 11
-436.873157
 21
347.967933
 31
0.0
  0
ARC
  5
346
100
AcDbEntity
  8
2
100
AcDbCircle
 10
-440.562444
 20
346.194122
 30
0.0
 40
0.261548
100
AcDbArc
 50
180.0
 51
296.565051
  0
ARC
  5
347
100
AcDbEntity
  8
2
100
AcDbCircle
 10
-440.491611
 20
348.046397
 30
0.0
 40
0.078464
100
AcDbArc
 50
116.565051
 51
270.0
  0
LINE
  5
348
100
AcDbEntity
  8
2
100
AcDbLine
 10
-436.325363
 20
339.624545
 30
0.0
 11
-432.591953
 21
339.624545
 31
0.0
  0
LINE
  5
349
100
AcDbEntity
  8
2
100
AcDbLine
 10
-436.325363
 20
347.967933
 30
0.0
 11
-432.591953
 21
347.967933
 31
0.0
  0
LINE
  5
34A
100
AcDbEntity
  8
2
100
AcDbLine
 10
-436.482292
 20
347.811004
 30
0.0
 11
-436.482292
 21
339.781473
 31
0.0
  0
ARC
  5
34B
100
AcDbEntity
  8
2
100
AcDbCircle
 10
-436.325363
 20
339.781473
 30
0.0
 40
0.156929
100
AcDbArc
 50
180.0
 51
270.0
  0
ARC
  5
34C
100
AcDbEntity
  8
2
100
AcDbCircle
 10
-436.220744
 20
348.391127
 30
0.0
 40
0.261548
100
AcDbArc
 50
180.0
 51
296.565051
  0
ARC
  5
34D
100
AcDbEntity
  8
2
100
AcDbCircle
 10
-436.325363
 20
347.811004
 30
0.0
 40
0.156929
100
AcDbArc
 50
90.0
 51
180.0
  0
ARC
  5
34E
100
AcDbEntity
  8
2
100
AcDbCircle
 10
-436.873157
 20
347.863313
 30
0.0
 40
0.104619
100
AcDbArc
 50
296.565051
 51
90.0
  0
LINE
  5
34F
100
AcDbEntity
  8
2
100
AcDbLine
 10
-432.435024
 20
339.781473
 30
0.0
 11
-432.435024
 21
347.811004
 31
0.0
  0
ARC
  5
350
100
AcDbEntity
  8
2
100
AcDbCircle
 10
-432.591953
 20
339.781473
 30
0.0
 40
0.156929
100
AcDbArc
 50
270.0
 51
360.0
  0
ARC
  5
351
100
AcDbEntity
  8
2
100
AcDbCircle
 10
-432.591953
 20
347.811004
 30
0.0
 40
0.156929
100
AcDbArc
 50
0.0
 51
90.0
  0
LINE
  5
352
100
AcDbEntity
  8
2
100
AcDbLine
 10
-440.562444
 20
352.361943
 30
0.0
 11
-436.873157
 21
352.361943
 31
0.0
  0
LINE
  5
353
100
AcDbEntity
  8
2
100
AcDbLine
 10
-440.491611
 20
350.164938
 30
0.0
 11
-436.873157
 21
350.164938
 31
0.0
  0
LINE
  5
354
100
AcDbEntity
  8
2
100
AcDbLine
 10
-436.826369
 20
352.163749
 30
0.0
 11
-440.526702
 21
350.313583
 31
0.0
  0
ARC
  5
355
100
AcDbEntity
  8
2
100
AcDbCircle
 10
-440.562444
 20
352.100394
 30
0.0
 40
0.261548
100
AcDbArc
 50
90.0
 51
180.0
  0
ARC
  5
356
100
AcDbEntity
  8
2
100
AcDbCircle
 10
-440.491611
 20
350.243402
 30
0.0
 40
0.078464
100
AcDbArc
 50
116.565051
 51
270.0
  0
LINE
  5
357
100
AcDbEntity
  8
2
100
AcDbLine
 10
-436.220744
 20
352.361943
 30
0.0
 11
-432.531456
 21
352.361943
 31
0.0
  0
LINE
  5
358
100
AcDbEntity
  8
2
100
AcDbLine
 10
-436.220744
 20
350.164938
 30
0.0
 11
-432.531456
 21
350.164938
 31
0.0
  0
LINE
  5
359
100
AcDbEntity
  8
2
100
AcDbLine
 10
-432.484669
 20
352.163749
 30
0.0
 11
-436.103776
 21
350.354196
 31
0.0
  0
ARC
  5
35A
100
AcDbEntity
  8
2
100
AcDbCircle
 10
-436.220744
 20
352.100394
 30
0.0
 40
0.261548
100
AcDbArc
 50
90.0
 51
180.0
  0
ARC
  5
35B
100
AcDbEntity
  8
2
100
AcDbCircle
 10
-436.873157
 20
352.257323
 30
0.0
 40
0.104619
100
AcDbArc
 50
296.565051
 51
90.0
  0
ARC
  5
35C
100
AcDbEntity
  8
2
100
AcDbCircle
 10
-436.220744
 20
350.588132
 30
0.0
 40
0.261548
100
AcDbArc
 50
180.0
 51
296.565051
  0
ARC
  5
35D
100
AcDbEntity
  8
2
100
AcDbCircle
 10
-436.220744
 20
349.903389
 30
0.0
 40
0.261548
100
AcDbArc
 50
90.0
 51
180.0
  0
ARC
  5
35E
100
AcDbEntity
  8
2
100
AcDbCircle
 10
-436.873157
 20
350.060318
 30
0.0
 40
0.104619
100
AcDbArc
 50
296.565051
 51
90.0
  0
LINE
  5
35F
100
AcDbEntity
  8
2
100
AcDbLine
 10
-436.482292
 20
350.588132
 30
0.0
 11
-436.482292
 21
352.100394
 31
0.0
  0
ARC
  5
360
100
AcDbEntity
  8
2
100
AcDbCircle
 10
-431.879043
 20
352.100394
 30
0.0
 40
0.261548
100
AcDbArc
 50
90.0
 51
180.0
  0
ARC
  5
361
100
AcDbEntity
  8
2
100
AcDbCircle
 10
-432.531456
 20
352.257323
 30
0.0
 40
0.104619
100
AcDbArc
 50
296.565051
 51
90.0
  0
ARC
  5
362
100
AcDbEntity
  8
2
100
AcDbCircle
 10
-431.879043
 20
350.588132
 30
0.0
 40
0.261548
100
AcDbArc
 50
180.0
 51
296.565051
  0
ARC
  5
363
100
AcDbEntity
  8
2
100
AcDbCircle
 10
-432.531456
 20
350.060318
 30
0.0
 40
0.104619
100
AcDbArc
 50
296.565051
 51
90.0
  0
LINE
  5
364
100
AcDbEntity
  8
2
100
AcDbLine
 10
-432.140591
 20
350.588132
 30
0.0
 11
-432.140591
 21
352.100394
 31
0.0
  0
ARC
  5
365
100
AcDbEntity
  8
2
100
AcDbCircle
 10
-428.189756
 20
352.257323
 30
0.0
 40
0.104619
100
AcDbArc
 50
296.565051
 51
90.0
  0
ARC
  5
366
100
AcDbEntity
  8
2
100
AcDbCircle
 10
-444.3761
 20
327.132314
 30
0.0
 40
2.0
100
AcDbArc
 50
0.0
 51
62.964308
  0
ARC
  5
367
100
AcDbEntity
  8
2
100
AcDbCircle
 10
-434.3761
 20
346.728232
 30
0.0
 40
77.5
100
AcDbArc
 50
117.004087
 51
332.995913
  0
LINE
  5
368
100
AcDbEntity
  8
2
100
AcDbLine
 10
-341.8761
 20
319.728232
 30
0.0
 11
-351.960992
 21
319.728232
 31
0.0
  0
ARC
  5
369
100
AcDbEntity
  8
2
100
AcDbCircle
 10
-349.51497
 20
365.900833
 30
0.0
 40
0.5
100
AcDbArc
 50
302.5
 51
12.731043
  0
LINE
  5
36A
100
AcDbEntity
  8
2
100
AcDbLine
 10
-349.655726
 20
365.218316
 30
0.0
 11
-349.24632
 21
365.479137
 31
0.0
  0
ARC
  5
36B
100
AcDbEntity
  8
2
100
AcDbCircle
 10
-354.133488
 20
380.345538
 30
0.0
 40
0.5
100
AcDbArc
 50
312.5
 51
22.731043
  0
ARC
  5
36C
100
AcDbEntity
  8
2
100
AcDbCircle
 10
-351.297905
 20
372.554837
 30
0.0
 40
0.5
100
AcDbArc
 50
17.268957
 51
87.5
  0
ARC
  5
36D
100
AcDbEntity
  8
2
100
AcDbCircle
 10
-359.664369
 20
373.921078
 30
0.0
 40
0.5
100
AcDbArc
 50
132.5
 51
267.5
  0
LINE
  5
36E
100
AcDbEntity
  8
2
100
AcDbLine
 10
-359.686179
 20
373.421554
 30
0.0
 11
-351.276095
 21
373.054362
 31
0.0
  0
LINE
  5
36F
100
AcDbEntity
  8
2
100
AcDbLine
 10
-360.002164
 20
374.289716
 30
0.0
 11
-353.795693
 21
379.9769
 31
0.0
  0
ARC
  5
370
100
AcDbEntity
  8
2
100
AcDbCircle
 10
-361.190138
 20
393.768799
 30
0.0
 40
0.5
100
AcDbArc
 50
322.5
 51
32.731043
  0
ARC
  5
371
100
AcDbEntity
  8
2
100
AcDbCircle
 10
-357.044793
 20
386.58885
 30
0.0
 40
0.5
100
AcDbArc
 50
27.268957
 51
97.5
  0
ARC
  5
372
100
AcDbEntity
  8
2
100
AcDbCircle
 10
-365.521397
 20
386.481513
 30
0.0
 40
0.5
100
AcDbArc
 50
142.5
 51
277.5
  0
LINE
  5
373
100
AcDbEntity
  8
2
100
AcDbLine
 10
-365.456133
 20
385.985791
 30
0.0
 11
-357.110056
 21
387.084573
 31
0.0
  0
LINE
  5
374
100
AcDbEntity
  8
2
100
AcDbLine
 10
-365.918073
 20
386.785894
 30
0.0
 11
-360.793461
 21
393.464418
 31
0.0
  0
ARC
  5
375
100
AcDbEntity
  8
2
100
AcDbCircle
 10
-370.470506
 20
405.762756
 30
0.0
 40
0.5
100
AcDbArc
 50
332.5
 51
42.731043
  0
ARC
  5
376
100
AcDbEntity
  8
2
100
AcDbCircle
 10
-365.141353
 20
399.411719
 30
0.0
 40
0.5
100
AcDbArc
 50
37.268957
 51
107.5
  0
ARC
  5
377
100
AcDbEntity
  8
2
100
AcDbCircle
 10
-373.470539
 20
397.834065
 30
0.0
 40
0.5
100
AcDbArc
 50
152.5
 51
287.5
  0
LINE
  5
378
100
AcDbEntity
  8
2
100
AcDbLine
 10
-373.320186
 20
397.357207
 30
0.0
 11
-365.291706
 21
399.888577
 31
0.0
  0
LINE
  5
379
100
AcDbEntity
  8
2
100
AcDbLine
 10
-373.914045
 20
398.06494
 30
0.0
 11
-370.027001
 21
405.531882
 31
0.0
  0
ARC
  5
37A
100
AcDbEntity
  8
2
100
AcDbCircle
 10
-381.692613
 20
415.962979
 30
0.0
 40
0.5
100
AcDbArc
 50
342.5
 51
52.731043
  0
ARC
  5
37B
100
AcDbEntity
  8
2
100
AcDbCircle
 10
-375.341576
 20
410.633826
 30
0.0
 40
0.5
100
AcDbArc
 50
47.268957
 51
117.5
  0
ARC
  5
37C
100
AcDbEntity
  8
2
100
AcDbCircle
 10
-383.270266
 20
407.633792
 30
0.0
 40
0.5
100
AcDbArc
 50
162.5
 51
297.5
  0
LINE
  5
37D
100
AcDbEntity
  8
2
100
AcDbLine
 10
-383.747125
 20
407.784145
 30
0.0
 11
-381.215755
 21
415.812626
 31
0.0
  0
ARC
  5
37E
100
AcDbEntity
  8
2
100
AcDbCircle
 10
-394.515481
 20
424.059539
 30
0.0
 40
0.5
100
AcDbArc
 50
352.5
 51
62.731043
  0
ARC
  5
37F
100
AcDbEntity
  8
2
100
AcDbCircle
 10
-387.335533
 20
419.914194
 30
0.0
 40
0.5
100
AcDbArc
 50
57.268957
 51
127.5
  0
ARC
  5
380
100
AcDbEntity
  8
2
100
AcDbCircle
 10
-394.622818
 20
415.582935
 30
0.0
 40
0.5
100
AcDbArc
 50
172.5
 51
307.5
  0
LINE
  5
381
100
AcDbEntity
  8
2
100
AcDbLine
 10
-394.318438
 20
415.186258
 30
0.0
 11
-387.639913
 21
420.31087
 31
0.0
  0
LINE
  5
382
100
AcDbEntity
  8
2
100
AcDbLine
 10
-395.118541
 20
415.648198
 30
0.0
 11
-394.019759
 21
423.994276
 31
0.0
  0
ARC
  5
383
100
AcDbEntity
  8
2
100
AcDbCircle
 10
-408.549494
 20
429.806426
 30
0.0
 40
0.5
100
AcDbArc
 50
2.5
 51
72.731043
  0
ARC
  5
384
100
AcDbEntity
  8
2
100
AcDbCircle
 10
-400.758793
 20
426.970843
 30
0.0
 40
0.5
100
AcDbArc
 50
67.268957
 51
137.5
  0
ARC
  5
385
100
AcDbEntity
  8
2
100
AcDbCircle
 10
-407.183254
 20
421.439962
 30
0.0
 40
0.5
100
AcDbArc
 50
182.5
 51
317.5
  0
LINE
  5
386
100
AcDbEntity
  8
2
100
AcDbLine
 10
-406.814615
 20
421.102167
 30
0.0
 11
-401.127432
 21
427.308638
 31
0.0
  0
LINE
  5
387
100
AcDbEntity
  8
2
100
AcDbLine
 10
-407.682778
 20
421.418153
 30
0.0
 11
-408.04997
 21
429.828236
 31
0.0
  0
ARC
  5
388
100
AcDbEntity
  8
2
100
AcDbCircle
 10
-415.203499
 20
431.589362
 30
0.0
 40
0.5
100
AcDbArc
 50
77.268957
 51
147.5
  0
ARC
  5
389
100
AcDbEntity
  8
2
100
AcDbCircle
 10
-420.56993
 20
425.026911
 30
0.0
 40
0.5
100
AcDbArc
 50
192.5
 51
327.5
  0
LINE
  5
38A
100
AcDbEntity
  8
2
100
AcDbLine
 10
-420.148234
 20
424.758262
 30
0.0
 11
-415.625195
 21
431.858012
 31
0.0
  0
LINE
  5
38B
100
AcDbEntity
  8
2
100
AcDbLine
 10
-421.058078
 20
424.918692
 30
0.0
 11
-422.880088
 21
433.137245
 31
0.0
  0
ARC
  5
38C
100
AcDbEntity
  8
2
100
AcDbCircle
 10
-349.51497
 20
365.900833
 30
0.0
 40
0.5
100
AcDbArc
 50
302.5
 51
12.731043
  0
LINE
  5
38D
100
AcDbEntity
  8
2
100
AcDbLine
 10
-349.655726
 20
365.218316
 30
0.0
 11
-349.24632
 21
365.479137
 31
0.0
  0
ARC
  5
38E
100
AcDbEntity
  8
2
100
AcDbCircle
 10
-351.960992
 20
304.728232
 30
0.0
 40
15.0
100
AcDbArc
 50
90.0
 51
152.995913
  0
ARC
  5
38F
100
AcDbEntity
  8
2
100
AcDbCircle
 10
-341.8761
 20
329.728232
 30
0.0
 40
10.0
100
AcDbArc
 50
270.0
 51
353.259225
  0
ARC
  5
390
100
AcDbEntity
  8
2
100
AcDbCircle
 10
-451.3761
 20
439.228232
 30
0.0
 40
10.0
100
AcDbArc
 50
90.0
 51
180.0
  0
ARC
  5
391
100
AcDbEntity
  8
2
100
AcDbCircle
 10
-476.3761
 20
429.14334
 30
0.0
 40
15.0
100
AcDbArc
 50
297.004087
 51
360.0
  0
LINE
  5
392
100
AcDbEntity
  8
2
100
AcDbLine
 10
-461.3761
 20
439.228232
 30
0.0
 11
-461.3761
 21
429.14334
 31
0.0
  0
LINE
  5
393
100
AcDbEntity
  8
2
100
AcDbLine
 10
-441.3761
 20
448.228232
 30
0.0
 11
-441.3761
 21
435.024608
 31
0.0
  0
ARC
  5
394
100
AcDbEntity
  8
2
100
AcDbCircle
 10
-434.3761
 20
346.728232
 30
0.0
 40
87.5
100
AcDbArc
 50
72.731043
 51
77.268957
  0
ARC
  5
395
100
AcDbEntity
  8
2
100
AcDbCircle
 10
-434.3761
 20
346.728232
 30
0.0
 40
87.5
100
AcDbArc
 50
62.731043
 51
67.268957
  0
ARC
  5
396
100
AcDbEntity
  8
2
100
AcDbCircle
 10
-434.3761
 20
346.728232
 30
0.0
 40
87.5
100
AcDbArc
 50
52.731043
 51
57.268957
  0
ARC
  5
397
100
AcDbEntity
  8
2
100
AcDbCircle
 10
-434.3761
 20
346.728232
 30
0.0
 40
87.5
100
AcDbArc
 50
42.731043
 51
47.268957
  0
ARC
  5
398
100
AcDbEntity
  8
2
100
AcDbCircle
 10
-434.3761
 20
346.728232
 30
0.0
 40
87.5
100
AcDbArc
 50
32.731043
 51
37.268957
  0
ARC
  5
399
100
AcDbEntity
  8
2
100
AcDbCircle
 10
-434.3761
 20
346.728232
 30
0.0
 40
87.5
100
AcDbArc
 50
22.731043
 51
27.268957
  0
ARC
  5
39A
100
AcDbEntity
  8
2
100
AcDbCircle
 10
-434.3761
 20
346.728232
 30
0.0
 40
87.5
100
AcDbArc
 50
12.731043
 51
17.268957
  0
ARC
  5
39B
100
AcDbEntity
  8
2
100
AcDbCircle
 10
-434.3761
 20
346.728232
 30
0.0
 40
87.5
100
AcDbArc
 50
82.731043
 51
87.268957
  0
ARC
  5
39C
100
AcDbEntity
  8
2
100
AcDbCircle
 10
-434.3761
 20
346.728232
 30
0.0
 40
87.5
100
AcDbArc
 50
92.731043
 51
93.887442
  0
ARC
  5
39D
100
AcDbEntity
  8
2
100
AcDbCircle
 10
-440.3761
 20
435.024608
 30
0.0
 40
1.0
100
AcDbArc
 50
180.0
 51
273.887442
  0
LINE
  5
39E
100
AcDbEntity
  8
2
100
AcDbLine
 10
-434.83804
 20
426.043453
 30
0.0
 11
-438.059505
 21
433.820759
 31
0.0
  0
LINE
  5
39F
100
AcDbEntity
  8
2
100
AcDbLine
 10
-433.91416
 20
426.043453
 30
0.0
 11
-430.692694
 21
433.820759
 31
0.0
  0
ARC
  5
3A0
100
AcDbEntity
  8
2
100
AcDbCircle
 10
-434.3761
 20
426.234795
 30
0.0
 40
0.5
100
AcDbArc
 50
202.5
 51
337.5
  0
ARC
  5
3A1
100
AcDbEntity
  8
2
100
AcDbCircle
 10
-430.230755
 20
433.629418
 30
0.0
 40
0.5
100
AcDbArc
 50
87.268957
 51
157.5
  0
ARC
  5
3A2
100
AcDbEntity
  8
2
100
AcDbCircle
 10
-438.521445
 20
433.629418
 30
0.0
 40
0.5
100
AcDbArc
 50
22.5
 51
92.731043
  0
ARC
  5
3A3
100
AcDbEntity
  8
2
100
AcDbCircle
 10
-423.368236
 20
433.029025
 30
0.0
 40
0.5
100
AcDbArc
 50
12.5
 51
82.731043
  0
ARC
  5
3A4
100
AcDbEntity
  8
2
100
AcDbCircle
 10
-442.3761
 20
448.228232
 30
0.0
 40
1.0
100
AcDbArc
 50
0.0
 51
90.0
  0
LINE
  5
3A5
100
AcDbEntity
  8
2
100
AcDbLine
 10
-442.3761
 20
449.228232
 30
0.0
 11
-451.3761
 21
449.228232
 31
0.0
  0
TEXT
  5
3A6
100
AcDbEntity
  8
2
100
AcDbText
 10
-407.714541
 20
291.517402
 30
0.0
 40
12.0
  1
Ｏ
 50
200.0
 72
     5
 11
-416.73559
 21
288.234009
 31
0.0
100
AcDbText
  0
TEXT
  5
3A7
100
AcDbEntity
  8
2
100
AcDbText
 10
-493.492956
 20
362.658074
 30
0.0
 40
12.0
  1
Ｓ
 50
70.0
 72
     5
 11
-490.209563
 21
371.679123
 31
0.0
100
AcDbText
  0
ARC
  5
3A8
100
AcDbEntity
  8
2
  6
CENTER
 62
     2
100
AcDbCircle
 10
-434.3761
 20
346.728232
 30
0.0
 40
51.0
100
AcDbArc
 50
300.634972
 51
329.476834
  0
LINE
  5
3A9
100
AcDbEntity
  8
2
  6
CENTER
 62
     2
100
AcDbLine
 10
-387.455062
 20
299.807194
 30
0.0
 11
-409.248577
 21
321.600709
 31
0.0
  0
LINE
  5
3AA
100
AcDbEntity
  8
2
  6
CENTER
 62
     2
100
AcDbLine
 10
-573.787842
 20
346.728232
 30
0.0
 11
-76.634284
 21
346.728232
 31
0.0
  0
LINE
  5
3AB
100
AcDbEntity
  8
2
  6
CENTER
 62
     2
100
AcDbLine
 10
-434.3761
 20
258.158183
 30
0.0
 11
-434.3761
 21
452.374532
 31
0.0
  0
LINE
  5
3AC
100
AcDbEntity
  8
2
  6
CENTER
 62
     2
100
AcDbLine
 10
-274.3761
 20
318.223443
 30
0.0
 11
-274.3761
 21
372.554167
 31
0.0
  0
LINE
  5
3AD
100
AcDbEntity
  8
2
  6
CENTER
 62
     2
100
AcDbLine
 10
-481.297137
 20
393.649269
 30
0.0
 11
-459.503623
 21
371.855755
 31
0.0
  0
ARC
  5
3AE
100
AcDbEntity
  8
2
  6
CENTER
 62
     2
100
AcDbCircle
 10
-434.3761
 20
346.728232
 30
0.0
 40
51.0
100
AcDbArc
 50
120.634972
 51
149.476834
  0
LINE
  5
3AF
100
AcDbEntity
  8
2
100
AcDbLine
 10
-426.8761
 20
323.728232
 30
0.0
 11
-426.8761
 21
317.94992
 31
0.0
  0
LINE
  5
3B0
100
AcDbEntity
  8
2
100
AcDbLine
 10
-426.8761
 20
317.94992
 30
0.0
 11
-428.1261
 21
317.228232
 31
0.0
  0
LINE
  5
3B1
100
AcDbEntity
  8
2
100
AcDbLine
 10
-428.1261
 20
317.228232
 30
0.0
 11
-434.3761
 21
317.228232
 31
0.0
  0
LINE
  5
3B2
100
AcDbEntity
  8
2
100
AcDbLine
 10
-430.6261
 20
323.728232
 30
0.0
 11
-430.6261
 21
317.94992
 31
0.0
  0
ARC
  5
3B3
100
AcDbEntity
  8
2
100
AcDbCircle
 10
-428.7511
 20
320.360296
 30
0.0
 40
3.053774
100
AcDbArc
 50
232.121121
 51
307.878879
  0
ARC
  5
3B4
100
AcDbEntity
  8
2
100
AcDbCircle
 10
-434.3761
 20
328.556522
 30
0.0
 40
11.25
100
AcDbArc
 50
270.0
 51
289.471221
  0
LINE
  5
3B5
100
AcDbEntity
  8
2
100
AcDbLine
 10
-441.8761
 20
323.728232
 30
0.0
 11
-441.8761
 21
317.94992
 31
0.0
  0
LINE
  5
3B6
100
AcDbEntity
  8
2
100
AcDbLine
 10
-441.8761
 20
317.94992
 30
0.0
 11
-440.6261
 21
317.228232
 31
0.0
  0
LINE
  5
3B7
100
AcDbEntity
  8
2
100
AcDbLine
 10
-440.6261
 20
317.228232
 30
0.0
 11
-434.3761
 21
317.228232
 31
0.0
  0
LINE
  5
3B8
100
AcDbEntity
  8
2
100
AcDbLine
 10
-438.1261
 20
323.728232
 30
0.0
 11
-438.1261
 21
317.94992
 31
0.0
  0
ARC
  5
3B9
100
AcDbEntity
  8
2
100
AcDbCircle
 10
-440.0011
 20
320.360296
 30
0.0
 40
3.053774
100
AcDbArc
 50
232.121121
 51
307.878879
  0
ARC
  5
3BA
100
AcDbEntity
  8
2
100
AcDbCircle
 10
-434.3761
 20
328.556522
 30
0.0
 40
11.25
100
AcDbArc
 50
250.528779
 51
270.0
  0
LINE
  5
3BB
100
AcDbEntity
  8
2
100
AcDbLine
 10
-434.3761
 20
312.728232
 30
0.0
 11
-437.6996
 21
312.728232
 31
0.0
  0
LINE
  5
3BC
100
AcDbEntity
  8
2
100
AcDbLine
 10
-437.6996
 20
312.728232
 30
0.0
 11
-438.3761
 21
313.404732
 31
0.0
  0
LINE
  5
3BD
100
AcDbEntity
  8
2
100
AcDbLine
 10
-438.3761
 20
313.404732
 30
0.0
 11
-438.3761
 21
317.264947
 31
0.0
  0
LINE
  5
3BE
100
AcDbEntity
  8
2
100
AcDbLine
 10
-438.3761
 20
313.404732
 30
0.0
 11
-434.3761
 21
313.404732
 31
0.0
  0
LINE
  5
3BF
100
AcDbEntity
  8
2
 62
     2
100
AcDbLine
 10
-437.6996
 20
312.728232
 30
0.0
 11
-437.6996
 21
317.228584
 31
0.0
  0
LINE
  5
3C0
100
AcDbEntity
  8
2
100
AcDbLine
 10
-434.3761
 20
312.728232
 30
0.0
 11
-431.0526
 21
312.728232
 31
0.0
  0
LINE
  5
3C1
100
AcDbEntity
  8
2
100
AcDbLine
 10
-431.0526
 20
312.728232
 30
0.0
 11
-430.3761
 21
313.404732
 31
0.0
  0
LINE
  5
3C2
100
AcDbEntity
  8
2
100
AcDbLine
 10
-430.3761
 20
313.404732
 30
0.0
 11
-430.3761
 21
317.264947
 31
0.0
  0
LINE
  5
3C3
100
AcDbEntity
  8
2
100
AcDbLine
 10
-430.3761
 20
313.404732
 30
0.0
 11
-434.3761
 21
313.404732
 31
0.0
  0
LINE
  5
3C4
100
AcDbEntity
  8
2
 62
     2
100
AcDbLine
 10
-431.0526
 20
312.728232
 30
0.0
 11
-431.0526
 21
317.228584
 31
0.0
  0
LINE
  5
3C5
100
AcDbEntity
  8
2
100
AcDbLine
 10
-315.185064
 20
8.532032
 30
0.0
 11
-260.589129
 21
8.532032
 31
0.0
  0
ARC
  5
3C6
100
AcDbEntity
  8
2
100
AcDbCircle
 10
-267.375926
 20
9.532032
 30
0.0
 40
1.0
100
AcDbArc
 50
270.0
 51
360.0
  0
ARC
  5
3C7
100
AcDbEntity
  8
2
100
AcDbCircle
 10
-281.375926
 20
9.532032
 30
0.0
 40
1.0
100
AcDbArc
 50
180.0
 51
270.0
  0
ARC
  5
3C8
100
AcDbEntity
  8
2
100
AcDbCircle
 10
-315.185064
 20
-6.467968
 30
0.0
 40
15.0
100
AcDbArc
 50
90.0
 51
101.0
  0
ARC
  5
3C9
100
AcDbEntity
  8
2
100
AcDbCircle
 10
-260.589129
 20
23.532032
 30
0.0
 40
15.0
100
AcDbArc
 50
270.0
 51
315.0
  0
LINE
  5
3CA
100
AcDbEntity
  8
2
100
AcDbLine
 10
-249.982528
 20
12.92543
 30
0.0
 11
-245.904424
 21
17.003534
 31
0.0
  0
ARC
  5
3CB
100
AcDbEntity
  8
2
100
AcDbCircle
 10
-214.084619
 20
-14.816271
 30
0.0
 40
45.0
100
AcDbArc
 50
102.5
 51
135.0
  0
LINE
  5
3CC
100
AcDbEntity
  8
2
100
AcDbLine
 10
-223.824401
 20
29.117049
 30
0.0
 11
-85.326991
 21
59.821186
 31
0.0
  0
ARC
  5
3CD
100
AcDbEntity
  8
2
100
AcDbCircle
 10
-85.543431
 20
60.797482
 30
0.0
 40
1.0
100
AcDbArc
 50
282.5
 51
11.0
  0
LINE
  5
3CE
100
AcDbEntity
  8
2
100
AcDbLine
 10
-86.327778
 20
70.073439
 30
0.0
 11
-84.561804
 21
60.988291
 31
0.0
  0
ARC
  5
3CF
100
AcDbEntity
  8
2
100
AcDbCircle
 10
-92.217541
 20
68.928585
 30
0.0
 40
6.0
100
AcDbArc
 50
11.0
 51
101.0
  0
ARC
  5
3D0
100
AcDbEntity
  8
2
100
AcDbCircle
 10
-412.375926
 20
14.845832
 30
0.0
 40
2.0
100
AcDbArc
 50
180.0
 51
281.0
  0
LINE
  5
3D1
100
AcDbEntity
  8
2
100
AcDbLine
 10
-414.375926
 20
-10.467968
 30
0.0
 11
-318.047199
 21
8.25644
 31
0.0
  0
LINE
  5
3D2
100
AcDbEntity
  8
2
100
AcDbLine
 10
-454.375926
 20
-10.467968
 30
0.0
 11
-454.375926
 21
-12.467968
 31
0.0
  0
LINE
  5
3D3
100
AcDbEntity
  8
2
100
AcDbLine
 10
-414.375926
 20
-10.467968
 30
0.0
 11
-414.375926
 21
-12.467968
 31
0.0
  0
LINE
  5
3D4
100
AcDbEntity
  8
2
100
AcDbLine
 10
-414.375926
 20
15.532032
 30
0.0
 11
-414.375926
 21
14.845832
 31
0.0
  0
LINE
  5
3D5
100
AcDbEntity
  8
2
100
AcDbLine
 10
-266.375926
 20
24.532032
 30
0.0
 11
-266.375926
 21
9.532032
 31
0.0
  0
LINE
  5
3D6
100
AcDbEntity
  8
2
100
AcDbLine
 10
-282.375926
 20
24.532032
 30
0.0
 11
-282.375926
 21
9.532032
 31
0.0
  0
ARC
  5
3D7
100
AcDbEntity
  8
2
100
AcDbCircle
 10
-274.375926
 20
24.532032
 30
0.0
 40
8.0
100
AcDbArc
 50
0.0
 51
180.0
  0
LINE
  5
3D8
100
AcDbEntity
  8
2
100
AcDbLine
 10
-415.375926
 20
16.532032
 30
0.0
 11
-453.375926
 21
16.532032
 31
0.0
  0
ARC
  5
3D9
100
AcDbEntity
  8
2
100
AcDbCircle
 10
-426.375926
 20
15.532032
 30
0.0
 40
1.0
100
AcDbArc
 50
0.0
 51
90.0
  0
ARC
  5
3DA
100
AcDbEntity
  8
2
100
AcDbCircle
 10
-442.375926
 20
15.532032
 30
0.0
 40
1.0
100
AcDbArc
 50
90.0
 51
180.0
  0
LINE
  5
3DB
100
AcDbEntity
  8
2
100
AcDbLine
 10
-414.375923
 20
12.419639
 30
0.0
 11
-93.362395
 21
74.818348
 31
0.0
  0
ARC
  5
3DC
100
AcDbEntity
  8
2
100
AcDbCircle
 10
-474.020805
 20
51.356366
 30
0.0
 40
52.973971
100
AcDbArc
 50
284.869627
 51
304.976114
  0
LINE
  5
3DD
100
AcDbEntity
  8
2
100
AcDbLine
 10
-458.323805
 20
3.378199
 30
0.0
 11
-483.401986
 21
-5.749513
 31
0.0
  0
LINE
  5
3DE
100
AcDbEntity
  8
2
100
AcDbLine
 10
-415.375926
 20
16.532032
 30
0.0
 11
-414.375926
 21
15.532032
 31
0.0
  0
LINE
  5
3DF
100
AcDbEntity
  8
2
100
AcDbLine
 10
-453.375926
 20
16.532032
 30
0.0
 11
-454.375926
 21
15.532032
 31
0.0
  0
LINE
  5
3E0
100
AcDbEntity
  8
2
100
AcDbLine
 10
-414.375926
 20
15.532032
 30
0.0
 11
-414.375926
 21
15.419638
 31
0.0
  0
LINE
  5
3E1
100
AcDbEntity
  8
2
100
AcDbLine
 10
-454.375926
 20
15.532032
 30
0.0
 11
-454.375926
 21
9.016355
 31
0.0
  0
LINE
  5
3E2
100
AcDbEntity
  8
2
100
AcDbLine
 10
-425.375926
 20
15.532032
 30
0.0
 11
-425.375926
 21
-10.467968
 31
0.0
  0
LINE
  5
3E3
100
AcDbEntity
  8
2
100
AcDbLine
 10
-443.375926
 20
15.532032
 30
0.0
 11
-443.375926
 21
-10.467968
 31
0.0
  0
ARC
  5
3E4
100
AcDbEntity
  8
2
100
AcDbCircle
 10
-482.375926
 20
-8.568591
 30
0.0
 40
3.0
100
AcDbArc
 50
110.0
 51
180.0
  0
CIRCLE
  5
3E5
100
AcDbEntity
  8
2
100
AcDbCircle
 10
-274.375926
 20
24.532032
 30
0.0
 40
2.5
  0
LINE
  5
3E6
100
AcDbEntity
  8
2
100
AcDbLine
 10
-485.375926
 20
-10.467968
 30
0.0
 11
-485.375926
 21
-8.568591
 31
0.0
  0
LINE
  5
3E7
100
AcDbEntity
  8
2
100
AcDbLine
 10
-414.375926
 20
-10.467968
 30
0.0
 11
-485.375926
 21
-10.467968
 31
0.0
  0
LINE
  5
3E8
100
AcDbEntity
  8
2
100
AcDbLine
 10
-414.375926
 20
-12.467968
 30
0.0
 11
-454.375926
 21
-12.467968
 31
0.0
  0
ARC
  5
3E9
100
AcDbEntity
  8
2
100
AcDbCircle
 10
-460.375926
 20
9.016355
 30
0.0
 40
6.0
100
AcDbArc
 50
290.0
 51
360.0
  0
ARC
  5
3EA
100
AcDbEntity
  8
2
100
AcDbCircle
 10
-268.079509
 20
-49.297983
 30
0.0
 40
60.0
100
AcDbArc
 50
105.456387
 51
130.0
  0
LINE
  5
3EB
100
AcDbEntity
  8
2
100
AcDbLine
 10
-254.653128
 20
9.756551
 30
0.0
 11
-168.577086
 21
2.225873
 31
0.0
  0
LINE
  5
3EC
100
AcDbEntity
  8
2
100
AcDbLine
 10
-350.070759
 20
-15.18588
 30
0.0
 11
-323.365232
 21
7.222719
 31
0.0
  0
LINE
  5
3ED
100
AcDbEntity
  8
2
100
AcDbLine
 10
-339.168942
 20
-27.485616
 30
0.0
 11
-339.168942
 21
-19.967968
 31
0.0
  0
LINE
  5
3EE
100
AcDbEntity
  8
2
100
AcDbLine
 10
-350.427972
 20
-15.951924
 30
0.0
 11
-350.427972
 21
-17.967968
 31
0.0
  0
LINE
  5
3EF
100
AcDbEntity
  8
2
100
AcDbLine
 10
-337.611793
 20
-27.485616
 30
0.0
 11
-349.427972
 21
-27.485616
 31
0.0
  0
LINE
  5
3F0
100
AcDbEntity
  8
2
100
AcDbLine
 10
-333.755068
 20
-26.081883
 30
0.0
 11
-306.646766
 21
-3.335317
 31
0.0
  0
ARC
  5
3F1
100
AcDbEntity
  8
2
100
AcDbCircle
 10
-349.427972
 20
-15.951924
 30
0.0
 40
1.0
100
AcDbArc
 50
130.0
 51
180.0
  0
ARC
  5
3F2
100
AcDbEntity
  8
2
100
AcDbCircle
 10
-349.427972
 20
-26.485616
 30
0.0
 40
1.0
100
AcDbArc
 50
180.0
 51
270.0
  0
ARC
  5
3F3
100
AcDbEntity
  8
2
100
AcDbCircle
 10
-337.611793
 20
-21.485616
 30
0.0
 40
6.0
100
AcDbArc
 50
270.0
 51
310.0
  0
LINE
  5
3F4
100
AcDbEntity
  8
2
100
AcDbLine
 10
-186.791656
 20
30.415667
 30
0.0
 11
-179.750973
 21
30.661534
 31
0.0
  0
LINE
  5
3F5
100
AcDbEntity
  8
2
100
AcDbLine
 10
-177.802583
 20
29.728963
 30
0.0
 11
-177.706551
 21
26.978961
 31
0.0
  0
LINE
  5
3F6
100
AcDbEntity
  8
2
100
AcDbLine
 10
-190.77134
 20
28.607378
 30
0.0
 11
-190.671696
 21
25.753927
 31
0.0
  0
LINE
  5
3F7
100
AcDbEntity
  8
2
100
AcDbLine
 10
-198.13859
 20
24.888566
 30
0.0
 11
-197.107496
 21
23.802019
 31
0.0
  0
ARC
  5
3F8
100
AcDbEntity
  8
2
100
AcDbCircle
 10
-196.012117
 20
21.088196
 30
0.0
 40
1.0
100
AcDbArc
 50
182.0
 51
272.0
  0
ARC
  5
3F9
100
AcDbEntity
  8
2
100
AcDbCircle
 10
-192.032004
 20
21.727489
 30
0.0
 40
1.5
100
AcDbArc
 50
272.0
 51
314.00304
  0
ARC
  5
3FA
100
AcDbEntity
  8
2
100
AcDbCircle
 10
-176.04175
 20
22.285881
 30
0.0
 40
1.5
100
AcDbArc
 50
182.0
 51
272.0
  0
LINE
  5
3FB
100
AcDbEntity
  8
2
100
AcDbLine
 10
-195.977218
 20
20.088805
 30
0.0
 11
-187.982091
 21
20.368001
 31
0.0
  0
LINE
  5
3FC
100
AcDbEntity
  8
2
100
AcDbLine
 10
-189.177131
 20
29.331755
 30
0.0
 11
-182.165198
 21
29.576617
 31
0.0
  0
LINE
  5
3FD
100
AcDbEntity
  8
2
100
AcDbLine
 10
-84.724921
 20
13.967726
 30
0.0
 11
-84.480624
 21
6.97199
 31
0.0
  0
ARC
  5
3FE
100
AcDbEntity
  8
2
100
AcDbCircle
 10
-94.718829
 20
13.618731
 30
0.0
 40
10.0
100
AcDbArc
 50
2.0
 51
92.0
  0
ARC
  5
3FF
100
AcDbEntity
  8
2
100
AcDbCircle
 10
-87.478797
 20
6.867291
 30
0.0
 40
3.0
100
AcDbArc
 50
232.284863
 51
2.0
  0
ARC
  5
400
100
AcDbEntity
  8
2
100
AcDbCircle
 10
-95.431366
 20
-3.416514
 30
0.0
 40
10.0
100
AcDbArc
 50
52.284863
 51
123.788331
  0
ARC
  5
401
100
AcDbEntity
  8
2
100
AcDbCircle
 10
-106.553893
 20
13.205441
 30
0.0
 40
10.0
100
AcDbArc
 50
240.211669
 51
303.788331
  0
ARC
  5
402
100
AcDbEntity
  8
2
100
AcDbCircle
 10
-116.489837
 20
-4.151892
 30
0.0
 40
10.0
100
AcDbArc
 50
60.211669
 51
123.788331
  0
ARC
  5
403
100
AcDbEntity
  8
2
100
AcDbCircle
 10
-127.612364
 20
12.470063
 30
0.0
 40
10.0
100
AcDbArc
 50
240.211669
 51
303.788331
  0
ARC
  5
404
100
AcDbEntity
  8
2
100
AcDbCircle
 10
-137.548308
 20
-4.88727
 30
0.0
 40
10.0
100
AcDbArc
 50
60.211669
 51
123.788331
  0
ARC
  5
405
100
AcDbEntity
  8
2
100
AcDbCircle
 10
-148.670836
 20
11.734685
 30
0.0
 40
10.0
100
AcDbArc
 50
240.211669
 51
303.788331
  0
ARC
  5
406
100
AcDbEntity
  8
2
100
AcDbCircle
 10
-158.60678
 20
-5.622648
 30
0.0
 40
10.0
100
AcDbArc
 50
60.211669
 51
117.060909
  0
ARC
  5
407
100
AcDbEntity
  8
2
100
AcDbCircle
 10
-167.705529
 20
12.18782
 30
0.0
 40
10.0
100
AcDbArc
 50
265.0
 51
297.060909
  0
LINE
  5
408
100
AcDbEntity
  8
2
100
AcDbLine
 10
-197.107496
 20
23.802019
 30
0.0
 11
-197.011508
 21
21.053296
 31
0.0
  0
LINE
  5
409
100
AcDbEntity
  8
2
100
AcDbLine
 10
-229.116655
 20
27.598796
 30
0.0
 11
-198.13859
 21
24.888566
 31
0.0
  0
LINE
  5
40A
100
AcDbEntity
  8
2
100
AcDbLine
 10
-310.175926
 20
-6.296634
 30
0.0
 11
-310.175926
 21
8.532032
 31
0.0
  0
LINE
  5
40B
100
AcDbEntity
  8
2
100
AcDbLine
 10
-247.575926
 20
9.137376
 30
0.0
 11
-247.575926
 21
15.332032
 31
0.0
  0
ARC
  5
40C
100
AcDbEntity
  8
2
100
AcDbCircle
 10
-180.039314
 20
22.146283
 30
0.0
 40
1.5
100
AcDbArc
 50
182.0
 51
272.0
  0
ARC
  5
40D
100
AcDbEntity
  8
2
100
AcDbCircle
 10
-188.03444
 20
21.867087
 30
0.0
 40
1.5
100
AcDbArc
 50
272.0
 51
2.0
  0
LINE
  5
40E
100
AcDbEntity
  8
2
100
AcDbLine
 10
-179.986965
 20
20.647197
 30
0.0
 11
-95.067824
 21
23.612639
 31
0.0
  0
LINE
  5
40F
100
AcDbEntity
  8
2
100
AcDbLine
 10
-350.427972
 20
-19.967968
 30
0.0
 11
-350.427972
 21
-26.485616
 31
0.0
  0
LINE
  5
410
100
AcDbEntity
  8
2
100
AcDbLine
 10
-339.168942
 20
-17.967968
 30
0.0
 11
-339.168942
 21
-6.038169
 31
0.0
  0
LINE
  5
411
100
AcDbEntity
  8
2
100
AcDbLine
 10
-190.611386
 20
24.026896
 30
0.0
 11
-190.557856
 21
22.493972
 31
0.0
  0
LINE
  5
412
100
AcDbEntity
  8
2
100
AcDbLine
 10
-177.648085
 20
25.304728
 30
0.0
 11
-177.540837
 21
22.233532
 31
0.0
  0
LINE
  5
413
100
AcDbEntity
  8
2
100
AcDbLine
 10
-438.128703
 20
4.032032
 30
0.0
 11
-441.881479
 21
-2.467968
 31
0.0
  0
LINE
  5
414
100
AcDbEntity
  8
2
100
AcDbLine
 10
-430.623149
 20
4.032032
 30
0.0
 11
-438.128703
 21
4.032032
 31
0.0
  0
LINE
  5
415
100
AcDbEntity
  8
2
100
AcDbLine
 10
-426.870372
 20
-2.467968
 30
0.0
 11
-430.623149
 21
4.032032
 31
0.0
  0
LINE
  5
416
100
AcDbEntity
  8
2
100
AcDbLine
 10
-430.623149
 20
-8.967968
 30
0.0
 11
-426.870372
 21
-2.467968
 31
0.0
  0
LINE
  5
417
100
AcDbEntity
  8
2
100
AcDbLine
 10
-438.128703
 20
-8.967968
 30
0.0
 11
-430.623149
 21
-8.967968
 31
0.0
  0
LINE
  5
418
100
AcDbEntity
  8
2
100
AcDbLine
 10
-441.881479
 20
-2.467968
 30
0.0
 11
-438.128703
 21
-8.967968
 31
0.0
  0
CIRCLE
  5
419
100
AcDbEntity
  8
2
100
AcDbCircle
 10
-434.375926
 20
-2.467968
 30
0.0
 40
3.375
  0
CIRCLE
  5
41A
100
AcDbEntity
  8
2
100
AcDbCircle
 10
-434.375926
 20
-2.467968
 30
0.0
 40
4.0
  0
CIRCLE
  5
41B
100
AcDbEntity
  8
2
100
AcDbCircle
 10
-434.375926
 20
-2.467968
 30
0.0
 40
6.5
  0
CIRCLE
  5
41C
100
AcDbEntity
  8
2
100
AcDbCircle
 10
-176.364603
 20
22.452134
 30
0.0
 40
0.8
  0
ARC
  5
41D
100
AcDbEntity
  8
2
100
AcDbCircle
 10
-191.685075
 20
21.253264
 30
0.0
 40
0.8
100
AcDbArc
 50
109.238523
 51
289.238523
  0
ARC
  5
41E
100
AcDbEntity
  8
2
100
AcDbCircle
 10
-176.644559
 20
26.502267
 30
0.0
 40
0.8
100
AcDbArc
 50
289.238523
 51
109.238523
  0
ARC
  5
41F
100
AcDbEntity
  8
2
100
AcDbCircle
 10
-177.083343
 20
30.983259
 30
0.0
 40
0.8
100
AcDbArc
 50
294.198425
 51
114.198425
  0
ARC
  5
420
100
AcDbEntity
  8
2
100
AcDbCircle
 10
-177.656149
 20
35.445372
 30
0.0
 40
0.8
100
AcDbArc
 50
294.436101
 51
114.436101
  0
ARC
  5
421
100
AcDbEntity
  8
2
100
AcDbCircle
 10
-192.658878
 20
33.331969
 30
0.0
 40
0.8
100
AcDbArc
 50
115.599226
 51
295.599226
  0
ARC
  5
422
100
AcDbEntity
  8
2
100
AcDbCircle
 10
-192.146185
 20
28.861389
 30
0.0
 40
0.8
100
AcDbArc
 50
114.436101
 51
294.436101
  0
ARC
  5
423
100
AcDbEntity
  8
2
100
AcDbCircle
 10
-191.80799
 20
24.366227
 30
0.0
 40
0.8
100
AcDbArc
 50
114.198425
 51
294.198425
  0
LINE
  5
424
100
AcDbEntity
  8
2
100
AcDbLine
 10
-191.948676
 20
22.008588
 30
0.0
 11
-176.90816
 21
27.257592
 31
0.0
  0
LINE
  5
425
100
AcDbEntity
  8
2
100
AcDbLine
 10
-176.380958
 20
25.746943
 30
0.0
 11
-191.421473
 21
20.49794
 31
0.0
  0
LINE
  5
426
100
AcDbEntity
  8
2
100
AcDbLine
 10
-176.756152
 20
27.294446
 30
0.0
 11
-177.712861
 21
27.159676
 31
0.0
  0
LINE
  5
427
100
AcDbEntity
  8
2
100
AcDbLine
 10
-192.135909
 20
25.095932
 30
0.0
 11
-177.411261
 21
31.712965
 31
0.0
  0
LINE
  5
428
100
AcDbEntity
  8
2
100
AcDbLine
 10
-176.755424
 20
30.253554
 30
0.0
 11
-191.480072
 21
23.636522
 31
0.0
  0
LINE
  5
429
100
AcDbEntity
  8
2
100
AcDbLine
 10
-192.477127
 20
29.589727
 30
0.0
 11
-177.987092
 21
36.17371
 31
0.0
  0
LINE
  5
42A
100
AcDbEntity
  8
2
100
AcDbLine
 10
-177.325207
 20
34.717033
 30
0.0
 11
-191.815242
 21
28.13305
 31
0.0
  0
LINE
  5
42B
100
AcDbEntity
  8
2
100
AcDbLine
 10
-193.004537
 20
34.05344
 30
0.0
 11
-185.637999
 21
37.582771
 31
0.0
  0
LINE
  5
42C
100
AcDbEntity
  8
2
100
AcDbLine
 10
-178.74563
 20
39.110772
 30
0.0
 11
-192.313219
 21
32.610498
 31
0.0
  0
LINE
  5
42D
100
AcDbEntity
  8
2
100
AcDbLine
 10
-177.194935
 20
31.775438
 30
0.0
 11
-186.766455
 21
30.427118
 31
0.0
  0
LINE
  5
42E
100
AcDbEntity
  8
2
100
AcDbLine
 10
-190.758823
 20
28.248925
 30
0.0
 11
-192.034592
 21
28.06921
 31
0.0
  0
LINE
  5
42F
100
AcDbEntity
  8
2
100
AcDbLine
 10
-183.035879
 20
33.879642
 30
0.0
 11
-192.547285
 21
32.53979
 31
0.0
  0
LINE
  5
430
100
AcDbEntity
  8
2
100
AcDbLine
 10
-187.647645
 20
34.845789
 30
0.0
 11
-177.767742
 21
36.237551
 31
0.0
  0
LINE
  5
431
100
AcDbEntity
  8
2
100
AcDbLine
 10
-177.57319
 20
23.160005
 30
0.0
 11
-176.427015
 21
23.249696
 31
0.0
  0
LINE
  5
432
100
AcDbEntity
  8
2
100
AcDbLine
 10
-190.600961
 20
23.72836
 30
0.0
 11
-191.696398
 21
23.574048
 31
0.0
  0
LINE
  5
433
100
AcDbEntity
  8
2
100
AcDbLine
 10
-177.361426
 20
21.57282
 30
0.0
 11
-176.326981
 21
21.653769
 31
0.0
  0
LINE
  5
434
100
AcDbEntity
  8
2
100
AcDbLine
 10
-460.426599
 20
0.156374
 30
0.0
 11
-481.399083
 21
-5.412069
 31
0.0
  0
LINE
  5
435
100
AcDbEntity
  8
2
100
AcDbLine
 10
-511.87608
 20
-17.967968
 30
0.0
 11
-511.87608
 21
-19.967968
 31
0.0
  0
LINE
  5
436
100
AcDbEntity
  8
2
100
AcDbLine
 10
-331.87608
 20
-17.967968
 30
0.0
 11
-511.87608
 21
-17.967968
 31
0.0
  0
LINE
  5
437
100
AcDbEntity
  8
2
100
AcDbLine
 10
-331.87608
 20
-19.967968
 30
0.0
 11
-511.87608
 21
-19.967968
 31
0.0
  0
LINE
  5
438
100
AcDbEntity
  8
2
100
AcDbLine
 10
-351.891846
 20
-19.967968
 30
0.0
 11
-351.891846
 21
-17.967968
 31
0.0
  0
LINE
  5
439
100
AcDbEntity
  8
2
100
AcDbLine
 10
-331.87608
 20
-17.967968
 30
0.0
 11
-331.87608
 21
-19.967968
 31
0.0
  0
ARC
  5
43A
100
AcDbEntity
  8
2
  6
CENTER
 62
     2
100
AcDbCircle
 10
-274.375926
 20
24.532032
 30
0.0
 40
90.240063
100
AcDbArc
 50
353.346477
 51
18.285602
  0
LINE
  5
43B
100
AcDbEntity
  8
2
  6
CENTER
 62
     2
100
AcDbLine
 10
-274.375926
 20
36.615172
 30
0.0
 11
-274.375926
 21
2.909142
 31
0.0
  0
LINE
  5
43C
100
AcDbEntity
  8
2
  6
CENTER
 62
     2
100
AcDbLine
 10
-445.160511
 20
-2.467968
 30
0.0
 11
-423.199065
 21
-2.467968
 31
0.0
  0
LINE
  5
43D
100
AcDbEntity
  8
2
  6
CENTER
 62
     2
100
AcDbLine
 10
-263.299175
 20
24.532032
 30
0.0
 11
-285.395585
 21
24.532032
 31
0.0
  0
CIRCLE
  5
43E
100
AcDbEntity
  8
2
100
AcDbCircle
 10
-274.375926
 20
24.532032
 30
0.0
 40
2.0
  0
LINE
  5
43F
100
AcDbEntity
  8
2
100
AcDbLine
 10
-423.375926
 20
3.684802
 30
0.0
 11
-423.375926
 21
-10.467968
 31
0.0
  0
ARC
  5
440
100
AcDbEntity
  8
2
100
AcDbCircle
 10
-417.375926
 20
3.684802
 30
0.0
 40
6.0
100
AcDbArc
 50
135.03921
 51
180.0
  0
ARC
  5
441
100
AcDbEntity
  8
2
100
AcDbCircle
 10
-408.434203
 20
-5.244691
 30
0.0
 40
18.636861
100
AcDbArc
 50
108.591313
 51
135.03921
  0
LINE
  5
442
100
AcDbEntity
  8
2
100
AcDbLine
 10
180.6844
 20
-7.476246
 30
0.0
 11
182.36082
 21
-7.306804
 31
0.0
  0
LINE
  5
443
100
AcDbEntity
  8
2
100
AcDbLine
 10
182.36082
 20
-7.306804
 30
0.0
 11
184.249871
 21
-7.036063
 31
0.0
  0
LINE
  5
444
100
AcDbEntity
  8
2
100
AcDbLine
 10
184.249871
 20
-7.036063
 30
0.0
 11
185.920369
 21
-6.709427
 31
0.0
  0
LINE
  5
445
100
AcDbEntity
  8
2
100
AcDbLine
 10
185.920369
 20
-6.709427
 30
0.0
 11
187.334145
 21
-6.334361
 31
0.0
  0
LINE
  5
446
100
AcDbEntity
  8
2
100
AcDbLine
 10
187.334145
 20
-6.334361
 30
0.0
 11
188.458898
 21
-5.919433
 31
0.0
  0
LINE
  5
447
100
AcDbEntity
  8
2
100
AcDbLine
 10
188.458898
 20
-5.919433
 30
0.0
 11
189.268928
 21
-5.474125
 31
0.0
  0
LINE
  5
448
100
AcDbEntity
  8
2
100
AcDbLine
 10
189.268928
 20
-5.474125
 30
0.0
 11
189.745729
 21
-5.00861
 31
0.0
  0
LINE
  5
449
100
AcDbEntity
  8
2
100
AcDbLine
 10
189.745729
 20
-5.00861
 30
0.0
 11
189.880829
 21
-4.589744
 31
0.0
  0
LINE
  5
44A
100
AcDbEntity
  8
2
100
AcDbLine
 10
175.458693
 20
49.726484
 30
0.0
 11
174.6844
 21
49.745934
 31
0.0
  0
LINE
  5
44B
100
AcDbEntity
  8
2
100
AcDbLine
 10
180.1844
 20
48.696485
 30
0.0
 11
179.996992
 21
48.968102
 31
0.0
  0
LINE
  5
44C
100
AcDbEntity
  8
2
100
AcDbLine
 10
179.996992
 20
48.424867
 30
0.0
 11
180.1844
 21
48.696485
 31
0.0
  0
LINE
  5
44D
100
AcDbEntity
  8
2
100
AcDbLine
 10
179.44754
 20
48.17176
 30
0.0
 11
179.996992
 21
48.424867
 31
0.0
  0
LINE
  5
44E
100
AcDbEntity
  8
2
100
AcDbLine
 10
178.573487
 20
47.954412
 30
0.0
 11
179.44754
 21
48.17176
 31
0.0
  0
LINE
  5
44F
100
AcDbEntity
  8
2
100
AcDbLine
 10
177.4344
 20
47.787635
 30
0.0
 11
178.573487
 21
47.954412
 31
0.0
  0
LINE
  5
450
100
AcDbEntity
  8
2
100
AcDbLine
 10
176.107905
 20
47.682795
 30
0.0
 11
177.4344
 21
47.787635
 31
0.0
  0
LINE
  5
451
100
AcDbEntity
  8
2
100
AcDbLine
 10
174.6844
 20
47.647035
 30
0.0
 11
176.107905
 21
47.682795
 31
0.0
  0
LINE
  5
452
100
AcDbEntity
  8
2
100
AcDbLine
 10
173.260895
 20
47.682795
 30
0.0
 11
174.6844
 21
47.647035
 31
0.0
  0
LINE
  5
453
100
AcDbEntity
  8
2
100
AcDbLine
 10
169.1844
 20
48.696485
 30
0.0
 11
169.273244
 21
48.56772
 31
0.0
  0
LINE
  5
454
100
AcDbEntity
  8
2
100
AcDbLine
 10
169.371808
 20
48.968102
 30
0.0
 11
169.1844
 21
48.696485
 31
0.0
  0
LINE
  5
455
100
AcDbEntity
  8
2
100
AcDbLine
 10
169.92126
 20
49.22121
 30
0.0
 11
169.371808
 21
48.968102
 31
0.0
  0
LINE
  5
456
100
AcDbEntity
  8
2
100
AcDbLine
 10
170.795313
 20
49.438558
 30
0.0
 11
169.92126
 21
49.22121
 31
0.0
  0
LINE
  5
457
100
AcDbEntity
  8
2
100
AcDbLine
 10
171.9344
 20
49.605335
 30
0.0
 11
170.795313
 21
49.438558
 31
0.0
  0
LINE
  5
458
100
AcDbEntity
  8
2
100
AcDbLine
 10
173.260895
 20
49.710175
 30
0.0
 11
171.9344
 21
49.605335
 31
0.0
  0
LINE
  5
459
100
AcDbEntity
  8
2
100
AcDbLine
 10
174.6844
 20
49.745934
 30
0.0
 11
173.260895
 21
49.710175
 31
0.0
  0
LINE
  5
45A
100
AcDbEntity
  8
2
100
AcDbLine
 10
167.847818
 20
57.854662
 30
0.0
 11
167.834879
 21
57.861283
 31
0.0
  0
LINE
  5
45B
100
AcDbEntity
  8
2
100
AcDbLine
 10
167.834879
 20
57.861283
 30
0.0
 11
167.975747
 21
57.709566
 31
0.0
  0
LINE
  5
45C
100
AcDbEntity
  8
2
100
AcDbLine
 10
167.975747
 20
57.709566
 30
0.0
 11
168.1844
 21
57.233045
 31
0.0
  0
LINE
  5
45D
100
AcDbEntity
  8
2
100
AcDbLine
 10
192.842098
 20
32.545757
 30
0.0
 11
192.58169
 21
32.563485
 31
0.0
  0
LINE
  5
45E
100
AcDbEntity
  8
2
100
AcDbLine
 10
192.58169
 20
32.563485
 30
0.0
 11
192.28889
 21
32.691774
 31
0.0
  0
LINE
  5
45F
100
AcDbEntity
  8
2
100
AcDbLine
 10
192.28889
 20
32.691774
 30
0.0
 11
192.092255
 21
32.858849
 31
0.0
  0
LINE
  5
460
100
AcDbEntity
  8
2
100
AcDbLine
 10
192.092255
 20
32.858849
 30
0.0
 11
191.970572
 21
33.025179
 31
0.0
  0
LINE
  5
461
100
AcDbEntity
  8
2
100
AcDbLine
 10
191.970572
 20
33.025179
 30
0.0
 11
191.909032
 21
33.151214
 31
0.0
  0
LINE
  5
462
100
AcDbEntity
  8
2
100
AcDbLine
 10
191.909032
 20
33.151214
 30
0.0
 11
191.880802
 21
33.232387
 31
0.0
  0
LINE
  5
463
100
AcDbEntity
  8
2
100
AcDbLine
 10
191.880802
 20
33.232387
 30
0.0
 11
191.866114
 21
33.289479
 31
0.0
  0
LINE
  5
464
100
AcDbEntity
  8
2
100
AcDbLine
 10
191.866114
 20
33.289479
 30
0.0
 11
191.860206
 21
33.320651
 31
0.0
  0
LINE
  5
465
100
AcDbEntity
  8
2
100
AcDbLine
 10
191.860206
 20
33.320651
 30
0.0
 11
191.860597
 21
33.316906
 31
0.0
  0
ARC
  5
466
100
AcDbEntity
  8
2
100
AcDbCircle
 10
193.6844
 20
31.532032
 30
0.0
 40
1.0
100
AcDbArc
 50
0.0
 51
90.0
  0
LINE
  5
467
100
AcDbEntity
  8
2
100
AcDbLine
 10
193.6844
 20
32.532032
 30
0.0
 11
192.83015
 21
32.532032
 31
0.0
  0
LINE
  5
468
100
AcDbEntity
  8
2
100
AcDbLine
 10
187.096987
 20
26.954103
 30
0.0
 11
187.042935
 21
28.22124
 31
0.0
  0
LINE
  5
469
100
AcDbEntity
  8
2
100
AcDbLine
 10
187.042935
 20
28.22124
 30
0.0
 11
186.987408
 21
29.269431
 31
0.0
  0
LINE
  5
46A
100
AcDbEntity
  8
2
100
AcDbLine
 10
186.987408
 20
29.269431
 30
0.0
 11
186.930688
 21
30.093345
 31
0.0
  0
LINE
  5
46B
100
AcDbEntity
  8
2
100
AcDbLine
 10
186.949238
 20
29.902415
 30
0.0
 11
186.933758
 21
30.013044
 31
0.0
  0
LINE
  5
46C
100
AcDbEntity
  8
2
100
AcDbLine
 10
191.802971
 20
34.079305
 30
0.0
 11
191.827182
 21
33.530328
 31
0.0
  0
LINE
  5
46D
100
AcDbEntity
  8
2
100
AcDbLine
 10
186.118523
 20
40.132483
 30
0.0
 11
186.101594
 21
40.129983
 31
0.0
  0
LINE
  5
46E
100
AcDbEntity
  8
2
100
AcDbLine
 10
182.799688
 20
38.969001
 30
0.0
 11
182.767802
 21
38.874605
 31
0.0
  0
LINE
  5
46F
100
AcDbEntity
  8
2
100
AcDbLine
 10
191.863705
 20
33.298843
 30
0.0
 11
191.861293
 21
33.338571
 31
0.0
  0
LINE
  5
470
100
AcDbEntity
  8
2
100
AcDbLine
 10
191.861293
 20
33.338571
 30
0.0
 11
191.827182
 21
33.530328
 31
0.0
  0
LINE
  5
471
100
AcDbEntity
  8
2
100
AcDbLine
 10
194.630191
 20
3.309083
 30
0.0
 11
194.140198
 21
8.641949
 31
0.0
  0
LINE
  5
472
100
AcDbEntity
  8
2
100
AcDbLine
 10
193.6844
 20
8.532032
 30
0.0
 11
183.6844
 21
8.532032
 31
0.0
  0
ARC
  5
473
100
AcDbEntity
  8
2
100
AcDbCircle
 10
183.6844
 20
9.532032
 30
0.0
 40
1.0
100
AcDbArc
 50
180.0
 51
270.0
  0
LINE
  5
474
100
AcDbEntity
  8
2
100
AcDbLine
 10
182.6844
 20
9.532032
 30
0.0
 11
182.6844
 21
20.177897
 31
0.0
  0
ARC
  5
475
100
AcDbEntity
  8
2
100
AcDbCircle
 10
193.6844
 20
9.532032
 30
0.0
 40
1.0
100
AcDbArc
 50
270.0
 51
360.0
  0
LINE
  5
476
100
AcDbEntity
  8
2
100
AcDbLine
 10
194.6844
 20
24.532032
 30
0.0
 11
194.6844
 21
9.532032
 31
0.0
  0
LINE
  5
477
100
AcDbEntity
  8
2
100
AcDbLine
 10
191.66957
 20
9.532032
 30
0.0
 11
191.66957
 21
24.532032
 31
0.0
  0
LINE
  5
478
100
AcDbEntity
  8
2
100
AcDbLine
 10
184.441759
 20
23.640057
 30
0.0
 11
185.340584
 21
24.215202
 31
0.0
  0
LINE
  5
479
100
AcDbEntity
  8
2
100
AcDbLine
 10
182.797349
 20
21.414385
 30
0.0
 11
183.181616
 21
22.582069
 31
0.0
  0
LINE
  5
47A
100
AcDbEntity
  8
2
100
AcDbLine
 10
183.181616
 20
22.582069
 30
0.0
 11
184.441759
 21
23.640057
 31
0.0
  0
LINE
  5
47B
100
AcDbEntity
  8
2
100
AcDbLine
 10
191.66957
 20
9.532032
 30
0.0
 11
191.650358
 21
9.336942
 31
0.0
  0
LINE
  5
47C
100
AcDbEntity
  8
2
100
AcDbLine
 10
191.650358
 20
9.336942
 30
0.0
 11
191.593462
 21
9.149349
 31
0.0
  0
LINE
  5
47D
100
AcDbEntity
  8
2
100
AcDbLine
 10
191.593462
 20
9.149349
 30
0.0
 11
191.501066
 21
8.976462
 31
0.0
  0
LINE
  5
47E
100
AcDbEntity
  8
2
100
AcDbLine
 10
191.501066
 20
8.976462
 30
0.0
 11
191.376723
 21
8.824925
 31
0.0
  0
LINE
  5
47F
100
AcDbEntity
  8
2
100
AcDbLine
 10
191.376723
 20
8.824925
 30
0.0
 11
191.225211
 21
8.700562
 31
0.0
  0
LINE
  5
480
100
AcDbEntity
  8
2
100
AcDbLine
 10
191.225211
 20
8.700562
 30
0.0
 11
191.052352
 21
8.608153
 31
0.0
  0
LINE
  5
481
100
AcDbEntity
  8
2
100
AcDbLine
 10
191.052352
 20
8.608153
 30
0.0
 11
190.864789
 21
8.551247
 31
0.0
  0
LINE
  5
482
100
AcDbEntity
  8
2
100
AcDbLine
 10
190.864789
 20
8.551247
 30
0.0
 11
190.669729
 21
8.532032
 31
0.0
  0
LINE
  5
483
100
AcDbEntity
  8
2
100
AcDbLine
 10
194.681211
 20
2.468327
 30
0.0
 11
194.680732
 21
2.484175
 31
0.0
  0
LINE
  5
484
100
AcDbEntity
  8
2
100
AcDbLine
 10
194.680732
 20
2.484175
 30
0.0
 11
194.647221
 21
2.959493
 31
0.0
  0
LINE
  5
485
100
AcDbEntity
  8
2
100
AcDbLine
 10
194.555582
 20
4.121092
 30
0.0
 11
194.596988
 21
3.913033
 31
0.0
  0
LINE
  5
486
100
AcDbEntity
  8
2
100
AcDbLine
 10
194.596988
 20
3.913033
 30
0.0
 11
194.680829
 21
2.488216
 31
0.0
  0
LINE
  5
487
100
AcDbEntity
  8
2
100
AcDbLine
 10
194.680829
 20
2.488216
 30
0.0
 11
194.681211
 21
2.468327
 31
0.0
  0
LINE
  5
488
100
AcDbEntity
  8
2
100
AcDbLine
 10
194.6844
 20
31.532032
 30
0.0
 11
194.6844
 21
24.532032
 31
0.0
  0
LINE
  5
489
100
AcDbEntity
  8
2
100
AcDbLine
 10
191.66957
 20
24.532032
 30
0.0
 11
191.672583
 21
26.266366
 31
0.0
  0
LINE
  5
48A
100
AcDbEntity
  8
2
100
AcDbLine
 10
191.672583
 20
26.266366
 30
0.0
 11
191.681508
 21
27.935688
 31
0.0
  0
LINE
  5
48B
100
AcDbEntity
  8
2
100
AcDbLine
 10
191.681508
 20
27.935688
 30
0.0
 11
191.696011
 21
29.477419
 31
0.0
  0
LINE
  5
48C
100
AcDbEntity
  8
2
100
AcDbLine
 10
191.696011
 20
29.477419
 30
0.0
 11
191.715549
 21
30.833767
 31
0.0
  0
LINE
  5
48D
100
AcDbEntity
  8
2
100
AcDbLine
 10
191.715549
 20
30.833767
 30
0.0
 11
191.739389
 21
31.953888
 31
0.0
  0
LINE
  5
48E
100
AcDbEntity
  8
2
100
AcDbLine
 10
191.739389
 20
31.953888
 30
0.0
 11
191.766636
 21
32.795793
 31
0.0
  0
LINE
  5
48F
100
AcDbEntity
  8
2
100
AcDbLine
 10
191.766636
 20
32.795793
 30
0.0
 11
191.796271
 21
33.327922
 31
0.0
  0
LINE
  5
490
100
AcDbEntity
  8
2
100
AcDbLine
 10
191.796271
 20
33.327922
 30
0.0
 11
191.827182
 21
33.530328
 31
0.0
  0
LINE
  5
491
100
AcDbEntity
  8
2
100
AcDbLine
 10
185.340584
 20
24.215202
 30
0.0
 11
185.566558
 21
24.387511
 31
0.0
  0
LINE
  5
492
100
AcDbEntity
  8
2
100
AcDbLine
 10
185.566558
 20
24.387511
 30
0.0
 11
186.720667
 21
25.670886
 31
0.0
  0
LINE
  5
493
100
AcDbEntity
  8
2
100
AcDbLine
 10
186.720667
 20
25.670886
 30
0.0
 11
187.096987
 21
26.954103
 31
0.0
  0
LINE
  5
494
100
AcDbEntity
  8
2
100
AcDbLine
 10
168.308379
 20
49.43703
 30
0.0
 11
169.230193
 21
48.559655
 31
0.0
  0
LINE
  5
495
100
AcDbEntity
  8
2
100
AcDbLine
 10
179.996992
 20
48.424867
 30
0.0
 11
180.682413
 21
49.077246
 31
0.0
  0
LINE
  5
496
100
AcDbEntity
  8
2
100
AcDbLine
 10
174.6844
 20
50.918371
 30
0.0
 11
176.183403
 21
50.884939
 31
0.0
  0
LINE
  5
497
100
AcDbEntity
  8
2
100
AcDbLine
 10
176.183403
 20
50.884939
 30
0.0
 11
177.601595
 21
50.786448
 31
0.0
  0
LINE
  5
498
100
AcDbEntity
  8
2
100
AcDbLine
 10
177.601595
 20
50.786448
 30
0.0
 11
178.862519
 21
50.628205
 31
0.0
  0
LINE
  5
499
100
AcDbEntity
  8
2
100
AcDbLine
 10
178.862519
 20
50.628205
 30
0.0
 11
179.540319
 21
50.491123
 31
0.0
  0
LINE
  5
49A
100
AcDbEntity
  8
2
100
AcDbLine
 10
168.308379
 20
49.43703
 30
0.0
 11
168.195397
 21
49.605997
 31
0.0
  0
LINE
  5
49B
100
AcDbEntity
  8
2
100
AcDbLine
 10
168.195397
 20
49.605997
 30
0.0
 11
168.28315
 21
49.893481
 31
0.0
  0
LINE
  5
49C
100
AcDbEntity
  8
2
100
AcDbLine
 10
168.28315
 20
49.893481
 30
0.0
 11
168.715995
 21
50.169353
 31
0.0
  0
LINE
  5
49D
100
AcDbEntity
  8
2
100
AcDbLine
 10
168.715995
 20
50.169353
 30
0.0
 11
169.470599
 21
50.418743
 31
0.0
  0
LINE
  5
49E
100
AcDbEntity
  8
2
100
AcDbLine
 10
169.470599
 20
50.418743
 30
0.0
 11
170.50628
 21
50.628205
 31
0.0
  0
LINE
  5
49F
100
AcDbEntity
  8
2
100
AcDbLine
 10
170.50628
 20
50.628205
 30
0.0
 11
171.767205
 21
50.786448
 31
0.0
  0
LINE
  5
4A0
100
AcDbEntity
  8
2
100
AcDbLine
 10
171.767205
 20
50.786448
 30
0.0
 11
173.185397
 21
50.884939
 31
0.0
  0
LINE
  5
4A1
100
AcDbEntity
  8
2
100
AcDbLine
 10
173.185397
 20
50.884939
 30
0.0
 11
174.6844
 21
50.918371
 31
0.0
  0
LINE
  5
4A2
100
AcDbEntity
  8
2
100
AcDbLine
 10
162.438112
 20
30.093345
 30
0.0
 11
162.381392
 21
29.269431
 31
0.0
  0
LINE
  5
4A3
100
AcDbEntity
  8
2
100
AcDbLine
 10
162.381392
 20
29.269431
 30
0.0
 11
162.325865
 21
28.22124
 31
0.0
  0
LINE
  5
4A4
100
AcDbEntity
  8
2
100
AcDbLine
 10
162.325865
 20
28.22124
 30
0.0
 11
162.271813
 21
26.954103
 31
0.0
  0
LINE
  5
4A5
100
AcDbEntity
  8
2
100
AcDbLine
 10
163.267206
 20
40.129983
 30
0.0
 11
163.250276
 21
40.132483
 31
0.0
  0
LINE
  5
4A6
100
AcDbEntity
  8
2
100
AcDbLine
 10
166.238641
 20
39.286642
 30
0.0
 11
166.227677
 21
39.297181
 31
0.0
  0
LINE
  5
4A7
100
AcDbEntity
  8
2
100
AcDbLine
 10
157.505553
 20
33.306376
 30
0.0
 11
157.494989
 21
33.257451
 31
0.0
  0
LINE
  5
4A8
100
AcDbEntity
  8
2
100
AcDbLine
 10
157.494989
 20
33.257451
 30
0.0
 11
157.465251
 21
33.165221
 31
0.0
  0
LINE
  5
4A9
100
AcDbEntity
  8
2
100
AcDbLine
 10
157.465251
 20
33.165221
 30
0.0
 11
157.402406
 21
33.032437
 31
0.0
  0
LINE
  5
4AA
100
AcDbEntity
  8
2
100
AcDbLine
 10
157.402406
 20
33.032437
 30
0.0
 11
157.252985
 21
32.833737
 31
0.0
  0
LINE
  5
4AB
100
AcDbEntity
  8
2
100
AcDbLine
 10
157.252985
 20
32.833737
 30
0.0
 11
156.995743
 21
32.642994
 31
0.0
  0
LINE
  5
4AC
100
AcDbEntity
  8
2
100
AcDbLine
 10
156.995743
 20
32.642994
 30
0.0
 11
156.653951
 21
32.538721
 31
0.0
  0
LINE
  5
4AD
100
AcDbEntity
  8
2
100
AcDbLine
 10
156.653951
 20
32.538721
 30
0.0
 11
156.550597
 21
32.545757
 31
0.0
  0
ARC
  5
4AE
100
AcDbEntity
  8
2
100
AcDbCircle
 10
155.6844
 20
31.532032
 30
0.0
 40
1.0
100
AcDbArc
 50
90.0
 51
180.0
  0
LINE
  5
4AF
100
AcDbEntity
  8
2
100
AcDbLine
 10
156.538649
 20
32.532032
 30
0.0
 11
155.6844
 21
32.532032
 31
0.0
  0
LINE
  5
4B0
100
AcDbEntity
  8
2
100
AcDbLine
 10
157.566936
 20
34.091021
 30
0.0
 11
157.566608
 21
34.087512
 31
0.0
  0
LINE
  5
4B1
100
AcDbEntity
  8
2
100
AcDbLine
 10
157.566608
 20
34.087512
 30
0.0
 11
157.546712
 21
33.845761
 31
0.0
  0
LINE
  5
4B2
100
AcDbEntity
  8
2
100
AcDbLine
 10
157.546712
 20
33.845761
 30
0.0
 11
157.534511
 21
33.636538
 31
0.0
  0
LINE
  5
4B3
100
AcDbEntity
  8
2
100
AcDbLine
 10
157.534511
 20
33.636538
 30
0.0
 11
157.528402
 21
33.470706
 31
0.0
  0
LINE
  5
4B4
100
AcDbEntity
  8
2
100
AcDbLine
 10
157.507507
 20
33.338571
 30
0.0
 11
157.505553
 21
33.306376
 31
0.0
  0
LINE
  5
4B5
100
AcDbEntity
  8
2
100
AcDbLine
 10
157.541618
 20
33.530328
 30
0.0
 11
157.507532
 21
33.33871
 31
0.0
  0
LINE
  5
4B6
100
AcDbEntity
  8
2
100
AcDbLine
 10
162.419562
 20
29.902415
 30
0.0
 11
162.435042
 21
30.013044
 31
0.0
  0
ARC
  5
4B7
100
AcDbEntity
  8
2
100
AcDbCircle
 10
165.6844
 20
9.532032
 30
0.0
 40
1.0
100
AcDbArc
 50
270.0
 51
360.0
  0
LINE
  5
4B8
100
AcDbEntity
  8
2
100
AcDbLine
 10
164.028216
 20
24.215202
 30
0.0
 11
164.927041
 21
23.640057
 31
0.0
  0
LINE
  5
4B9
100
AcDbEntity
  8
2
100
AcDbLine
 10
164.927041
 20
23.640057
 30
0.0
 11
166.152014
 21
22.629337
 31
0.0
  0
LINE
  5
4BA
100
AcDbEntity
  8
2
100
AcDbLine
 10
166.152014
 20
22.629337
 30
0.0
 11
166.321593
 21
22.228627
 31
0.0
  0
LINE
  5
4BB
100
AcDbEntity
  8
2
100
AcDbLine
 10
155.228602
 20
8.641949
 30
0.0
 11
154.885935
 21
4.912513
 31
0.0
  0
LINE
  5
4BC
100
AcDbEntity
  8
2
100
AcDbLine
 10
158.7852
 20
8.532032
 30
0.0
 11
158.69907
 21
8.532032
 31
0.0
  0
LINE
  5
4BD
100
AcDbEntity
  8
2
100
AcDbLine
 10
158.69907
 20
8.532032
 30
0.0
 11
156.699389
 21
8.532032
 31
0.0
  0
ARC
  5
4BE
100
AcDbEntity
  8
2
100
AcDbCircle
 10
155.6844
 20
9.532032
 30
0.0
 40
1.0
100
AcDbArc
 50
180.0
 51
270.0
  0
LINE
  5
4BF
100
AcDbEntity
  8
2
100
AcDbLine
 10
154.6844
 20
9.532032
 30
0.0
 11
154.6844
 21
24.532032
 31
0.0
  0
LINE
  5
4C0
100
AcDbEntity
  8
2
100
AcDbLine
 10
156.699389
 20
8.532032
 30
0.0
 11
155.6844
 21
8.532032
 31
0.0
  0
LINE
  5
4C1
100
AcDbEntity
  8
2
100
AcDbLine
 10
154.885935
 20
4.912513
 30
0.0
 11
154.859172
 21
4.335766
 31
0.0
  0
LINE
  5
4C2
100
AcDbEntity
  8
2
100
AcDbLine
 10
154.6844
 20
16.532032
 30
0.0
 11
152.6844
 21
16.532032
 31
0.0
  0
LINE
  5
4C3
100
AcDbEntity
  8
2
100
AcDbLine
 10
151.6844
 20
16.532032
 30
0.0
 11
152.6844
 21
16.532032
 31
0.0
  0
LINE
  5
4C4
100
AcDbEntity
  8
2
100
AcDbLine
 10
157.69923
 20
24.532032
 30
0.0
 11
157.69923
 21
9.532032
 31
0.0
  0
LINE
  5
4C5
100
AcDbEntity
  8
2
100
AcDbLine
 10
157.69923
 20
9.532032
 30
0.0
 11
157.718442
 21
9.336942
 31
0.0
  0
LINE
  5
4C6
100
AcDbEntity
  8
2
100
AcDbLine
 10
157.718442
 20
9.336942
 30
0.0
 11
157.775338
 21
9.149349
 31
0.0
  0
LINE
  5
4C7
100
AcDbEntity
  8
2
100
AcDbLine
 10
157.775338
 20
9.149349
 30
0.0
 11
157.867733
 21
8.976462
 31
0.0
  0
LINE
  5
4C8
100
AcDbEntity
  8
2
100
AcDbLine
 10
157.867733
 20
8.976462
 30
0.0
 11
157.992076
 21
8.824925
 31
0.0
  0
LINE
  5
4C9
100
AcDbEntity
  8
2
100
AcDbLine
 10
157.992076
 20
8.824925
 30
0.0
 11
158.143589
 21
8.700562
 31
0.0
  0
LINE
  5
4CA
100
AcDbEntity
  8
2
100
AcDbLine
 10
158.143589
 20
8.700562
 30
0.0
 11
158.316448
 21
8.608153
 31
0.0
  0
LINE
  5
4CB
100
AcDbEntity
  8
2
100
AcDbLine
 10
158.316448
 20
8.608153
 30
0.0
 11
158.504011
 21
8.551247
 31
0.0
  0
LINE
  5
4CC
100
AcDbEntity
  8
2
100
AcDbLine
 10
158.504011
 20
8.551247
 30
0.0
 11
158.69907
 21
8.532032
 31
0.0
  0
LINE
  5
4CD
100
AcDbEntity
  8
2
100
AcDbLine
 10
165.6844
 20
8.532032
 30
0.0
 11
158.7852
 21
8.532032
 31
0.0
  0
LINE
  5
4CE
100
AcDbEntity
  8
2
100
AcDbLine
 10
154.6844
 20
24.532032
 30
0.0
 11
154.6844
 21
31.532032
 31
0.0
  0
LINE
  5
4CF
100
AcDbEntity
  8
2
100
AcDbLine
 10
157.541618
 20
33.530328
 30
0.0
 11
157.572529
 21
33.327922
 31
0.0
  0
LINE
  5
4D0
100
AcDbEntity
  8
2
100
AcDbLine
 10
157.572529
 20
33.327922
 30
0.0
 11
157.602163
 21
32.795793
 31
0.0
  0
LINE
  5
4D1
100
AcDbEntity
  8
2
100
AcDbLine
 10
157.602163
 20
32.795793
 30
0.0
 11
157.629411
 21
31.953888
 31
0.0
  0
LINE
  5
4D2
100
AcDbEntity
  8
2
100
AcDbLine
 10
157.629411
 20
31.953888
 30
0.0
 11
157.653251
 21
30.833767
 31
0.0
  0
LINE
  5
4D3
100
AcDbEntity
  8
2
100
AcDbLine
 10
157.653251
 20
30.833767
 30
0.0
 11
157.672789
 21
29.477419
 31
0.0
  0
LINE
  5
4D4
100
AcDbEntity
  8
2
100
AcDbLine
 10
157.672789
 20
29.477419
 30
0.0
 11
157.687292
 21
27.935688
 31
0.0
  0
LINE
  5
4D5
100
AcDbEntity
  8
2
100
AcDbLine
 10
157.687292
 20
27.935688
 30
0.0
 11
157.696217
 21
26.266366
 31
0.0
  0
LINE
  5
4D6
100
AcDbEntity
  8
2
100
AcDbLine
 10
157.696217
 20
26.266366
 30
0.0
 11
157.69923
 21
24.532032
 31
0.0
  0
LINE
  5
4D7
100
AcDbEntity
  8
2
100
AcDbLine
 10
162.271813
 20
26.954103
 30
0.0
 11
162.276873
 21
26.749071
 31
0.0
  0
LINE
  5
4D8
100
AcDbEntity
  8
2
100
AcDbLine
 10
162.276873
 20
26.749071
 30
0.0
 11
162.777277
 21
25.468237
 31
0.0
  0
LINE
  5
4D9
100
AcDbEntity
  8
2
100
AcDbLine
 10
162.777277
 20
25.468237
 30
0.0
 11
164.028216
 21
24.215202
 31
0.0
  0
LINE
  5
4DA
100
AcDbEntity
  8
2
100
AcDbLine
 10
194.681211
 20
-10.467968
 30
0.0
 11
194.423672
 21
-10.467968
 31
0.0
  0
LINE
  5
4DB
100
AcDbEntity
  8
2
100
AcDbLine
 10
194.423672
 20
-10.467968
 30
0.0
 11
193.333638
 21
-10.467968
 31
0.0
  0
LINE
  5
4DC
100
AcDbEntity
  8
2
100
AcDbLine
 10
154.945128
 20
-10.467968
 30
0.0
 11
154.859172
 21
-10.467968
 31
0.0
  0
LINE
  5
4DD
100
AcDbEntity
  8
2
100
AcDbLine
 10
156.035162
 20
-10.467968
 30
0.0
 11
154.945128
 21
-10.467968
 31
0.0
  0
LINE
  5
4DE
100
AcDbEntity
  8
2
100
AcDbLine
 10
168.6844
 20
-10.467968
 30
0.0
 11
156.035162
 21
-10.467968
 31
0.0
  0
LINE
  5
4DF
100
AcDbEntity
  8
2
100
AcDbLine
 10
193.333638
 20
-10.467968
 30
0.0
 11
180.6844
 21
-10.467968
 31
0.0
  0
LINE
  5
4E0
100
AcDbEntity
  8
2
100
AcDbLine
 10
159.487971
 20
-4.589744
 30
0.0
 11
159.623071
 21
-5.00861
 31
0.0
  0
LINE
  5
4E1
100
AcDbEntity
  8
2
100
AcDbLine
 10
159.623071
 20
-5.00861
 30
0.0
 11
160.099872
 21
-5.474125
 31
0.0
  0
LINE
  5
4E2
100
AcDbEntity
  8
2
100
AcDbLine
 10
160.099872
 20
-5.474125
 30
0.0
 11
160.909902
 21
-5.919433
 31
0.0
  0
LINE
  5
4E3
100
AcDbEntity
  8
2
100
AcDbLine
 10
160.909902
 20
-5.919433
 30
0.0
 11
162.034655
 21
-6.334361
 31
0.0
  0
LINE
  5
4E4
100
AcDbEntity
  8
2
100
AcDbLine
 10
162.034655
 20
-6.334361
 30
0.0
 11
163.448431
 21
-6.709427
 31
0.0
  0
LINE
  5
4E5
100
AcDbEntity
  8
2
100
AcDbLine
 10
163.448431
 20
-6.709427
 30
0.0
 11
165.118929
 21
-7.036063
 31
0.0
  0
LINE
  5
4E6
100
AcDbEntity
  8
2
100
AcDbLine
 10
165.118929
 20
-7.036063
 30
0.0
 11
167.00798
 21
-7.306804
 31
0.0
  0
LINE
  5
4E7
100
AcDbEntity
  8
2
100
AcDbLine
 10
167.00798
 20
-7.306804
 30
0.0
 11
168.6844
 21
-7.476246
 31
0.0
  0
LINE
  5
4E8
100
AcDbEntity
  8
2
100
AcDbLine
 10
151.6844
 20
-12.467968
 30
0.0
 11
168.6844
 21
-12.467968
 31
0.0
  0
LINE
  5
4E9
100
AcDbEntity
  8
2
100
AcDbLine
 10
188.674141
 20
8.525586
 30
0.0
 11
189.882441
 21
-4.625021
 31
0.0
  0
LINE
  5
4EA
100
AcDbEntity
  8
2
100
AcDbLine
 10
159.486359
 20
-4.625021
 30
0.0
 11
160.694832
 21
8.52747
 31
0.0
  0
LINE
  5
4EB
100
AcDbEntity
  8
2
100
AcDbLine
 10
194.6844
 20
-12.467968
 30
0.0
 11
194.6844
 21
9.532032
 31
0.0
  0
LINE
  5
4EC
100
AcDbEntity
  8
2
100
AcDbLine
 10
151.6844
 20
16.532032
 30
0.0
 11
151.6844
 21
-12.467968
 31
0.0
  0
LINE
  5
4ED
100
AcDbEntity
  8
2
100
AcDbLine
 10
194.681211
 20
2.468327
 30
0.0
 11
194.681211
 21
-10.467968
 31
0.0
  0
LINE
  5
4EE
100
AcDbEntity
  8
2
100
AcDbLine
 10
154.859172
 20
4.335766
 30
0.0
 11
154.859172
 21
-12.467968
 31
0.0
  0
LINE
  5
4EF
100
AcDbEntity
  8
2
100
AcDbLine
 10
184.690688
 20
57.856095
 30
0.0
 11
186.933758
 21
30.013044
 31
0.0
  0
LINE
  5
4F0
100
AcDbEntity
  8
2
100
AcDbLine
 10
162.435042
 20
30.013044
 30
0.0
 11
164.679585
 21
57.874379
 31
0.0
  0
LINE
  5
4F1
100
AcDbEntity
  8
2
100
AcDbLine
 10
191.802971
 20
34.079305
 30
0.0
 11
188.686593
 21
67.996594
 31
0.0
  0
LINE
  5
4F2
100
AcDbEntity
  8
2
100
AcDbLine
 10
160.682206
 20
67.996594
 30
0.0
 11
157.565829
 21
34.079305
 31
0.0
  0
LINE
  5
4F3
100
AcDbEntity
  8
2
100
AcDbLine
 10
168.1844
 20
57.233045
 30
0.0
 11
168.1844
 21
56.07999
 31
0.0
  0
LINE
  5
4F4
100
AcDbEntity
  8
2
100
AcDbLine
 10
181.1844
 20
50.79912
 30
0.0
 11
181.1844
 21
52.994881
 31
0.0
  0
LINE
  5
4F5
100
AcDbEntity
  8
2
100
AcDbLine
 10
180.6844
 20
-12.467968
 30
0.0
 11
194.6844
 21
-12.467968
 31
0.0
  0
LINE
  5
4F6
100
AcDbEntity
  8
2
100
AcDbLine
 10
168.1844
 20
50.61084
 30
0.0
 11
168.1844
 21
49.678112
 31
0.0
  0
LINE
  5
4F7
100
AcDbEntity
  8
2
100
AcDbLine
 10
181.1844
 20
54.621564
 30
0.0
 11
181.1844
 21
57.040316
 31
0.0
  0
LINE
  5
4F8
100
AcDbEntity
  8
2
100
AcDbLine
 10
168.1844
 20
54.447803
 30
0.0
 11
168.1844
 21
52.237522
 31
0.0
  0
LINE
  5
4F9
100
AcDbEntity
  8
2
100
AcDbLine
 10
179.6844
 20
23.618731
 30
0.0
 11
169.6844
 21
23.618731
 31
0.0
  0
ARC
  5
4FA
100
AcDbEntity
  8
2
100
AcDbCircle
 10
179.6844
 20
-26.485616
 30
0.0
 40
1.0
100
AcDbArc
 50
270.0
 51
360.0
  0
LINE
  5
4FB
100
AcDbEntity
  8
2
100
AcDbLine
 10
182.5844
 20
30.532032
 30
0.0
 11
182.5844
 21
30.241197
 31
0.0
  0
LINE
  5
4FC
100
AcDbEntity
  8
2
100
AcDbLine
 10
180.6844
 20
3.610549
 30
0.0
 11
182.5844
 21
3.610549
 31
0.0
  0
ARC
  5
4FD
100
AcDbEntity
  8
2
100
AcDbCircle
 10
179.6844
 20
22.618731
 30
0.0
 40
1.0
100
AcDbArc
 50
0.0
 51
90.0
  0
ARC
  5
4FE
100
AcDbEntity
  8
2
100
AcDbCircle
 10
169.6844
 20
22.618731
 30
0.0
 40
1.0
100
AcDbArc
 50
90.0
 51
180.0
  0
LINE
  5
4FF
100
AcDbEntity
  8
2
100
AcDbLine
 10
168.6844
 20
3.610549
 30
0.0
 11
166.7844
 21
3.610549
 31
0.0
  0
ARC
  5
500
100
AcDbEntity
  8
2
100
AcDbCircle
 10
169.6844
 20
-26.485616
 30
0.0
 40
1.0
100
AcDbArc
 50
180.0
 51
270.0
  0
LINE
  5
501
100
AcDbEntity
  8
2
100
AcDbLine
 10
166.7844
 20
29.792645
 30
0.0
 11
166.7844
 21
26.804384
 31
0.0
  0
LINE
  5
502
100
AcDbEntity
  8
2
100
AcDbLine
 10
181.5844
 20
31.532032
 30
0.0
 11
175.60331
 21
31.532032
 31
0.0
  0
LINE
  5
503
100
AcDbEntity
  8
2
100
AcDbLine
 10
179.6844
 20
-27.485616
 30
0.0
 11
169.6844
 21
-27.485616
 31
0.0
  0
LINE
  5
504
100
AcDbEntity
  8
2
100
AcDbLine
 10
168.1844
 20
29.501507
 30
0.0
 11
168.1844
 21
27.128337
 31
0.0
  0
LINE
  5
505
100
AcDbEntity
  8
2
100
AcDbLine
 10
181.1844
 20
28.458356
 30
0.0
 11
181.1844
 21
25.613514
 31
0.0
  0
ARC
  5
506
100
AcDbEntity
  8
2
100
AcDbCircle
 10
174.6844
 20
-48.200217
 30
0.0
 40
78.893672
100
AcDbArc
 50
86.002435
 51
92.492272
  0
LINE
  5
507
100
AcDbEntity
  8
2
100
AcDbLine
 10
168.78298
 20
30.100087
 30
0.0
 11
168.1844
 21
29.501507
 31
0.0
  0
LINE
  5
508
100
AcDbEntity
  8
2
100
AcDbLine
 10
180.1844
 20
30.501507
 30
0.0
 11
180.697563
 21
29.988345
 31
0.0
  0
ARC
  5
509
100
AcDbEntity
  8
2
100
AcDbCircle
 10
174.6844
 20
-63.25991
 30
0.0
 40
92.988874
100
AcDbArc
 50
87.27635
 51
94.008292
  0
LINE
  5
50A
100
AcDbEntity
  8
2
100
AcDbLine
 10
169.6844
 20
3.867291
 30
0.0
 11
179.6844
 21
3.867291
 31
0.0
  0
ARC
  5
50B
100
AcDbEntity
  8
2
100
AcDbCircle
 10
169.6844
 20
4.867291
 30
0.0
 40
1.0
100
AcDbArc
 50
180.0
 51
270.0
  0
LINE
  5
50C
100
AcDbEntity
  8
2
100
AcDbLine
 10
168.6844
 20
22.618731
 30
0.0
 11
168.6844
 21
3.18782
 31
0.0
  0
ARC
  5
50D
100
AcDbEntity
  8
2
100
AcDbCircle
 10
179.6844
 20
4.867291
 30
0.0
 40
1.0
100
AcDbArc
 50
270.0
 51
360.0
  0
LINE
  5
50E
100
AcDbEntity
  8
2
100
AcDbLine
 10
180.6844
 20
22.618731
 30
0.0
 11
180.6844
 21
3.18782
 31
0.0
  0
ARC
  5
50F
100
AcDbEntity
  8
2
100
AcDbCircle
 10
179.6844
 20
3.18782
 30
0.0
 40
1.0
100
AcDbArc
 50
270.0
 51
360.0
  0
ARC
  5
510
100
AcDbEntity
  8
2
100
AcDbCircle
 10
169.6844
 20
3.18782
 30
0.0
 40
1.0
100
AcDbArc
 50
180.0
 51
270.0
  0
LINE
  5
511
100
AcDbEntity
  8
2
100
AcDbLine
 10
169.6844
 20
2.18782
 30
0.0
 11
179.6844
 21
2.18782
 31
0.0
  0
ARC
  5
512
100
AcDbEntity
  8
2
100
AcDbCircle
 10
174.6844
 20
59.838302
 30
0.0
 40
40.139682
100
AcDbArc
 50
260.6808
 51
261.403322
  0
LINE
  5
513
100
AcDbEntity
  8
2
100
AcDbLine
 10
166.7844
 20
-4.786255
 30
0.0
 11
168.6844
 21
-6.686255
 31
0.0
  0
LINE
  5
514
100
AcDbEntity
  8
2
100
AcDbLine
 10
182.5844
 20
-4.786255
 30
0.0
 11
180.6844
 21
-6.686255
 31
0.0
  0
ARC
  5
515
100
AcDbEntity
  8
2
100
AcDbCircle
 10
167.7844
 20
30.532032
 30
0.0
 40
1.0
100
AcDbArc
 50
90.0
 51
115.425482
  0
ARC
  5
516
100
AcDbEntity
  8
2
100
AcDbCircle
 10
181.5844
 20
30.532032
 30
0.0
 40
1.0
100
AcDbArc
 50
0.0
 51
90.0
  0
LINE
  5
517
100
AcDbEntity
  8
2
100
AcDbLine
 10
168.6844
 20
-6.686255
 30
0.0
 11
168.6844
 21
-26.485616
 31
0.0
  0
LINE
  5
518
100
AcDbEntity
  8
2
100
AcDbLine
 10
180.6844
 20
-6.686255
 30
0.0
 11
180.6844
 21
-26.485616
 31
0.0
  0
LINE
  5
519
100
AcDbEntity
  8
2
100
AcDbLine
 10
168.1844
 20
21.293315
 30
0.0
 11
168.1844
 21
20.228403
 31
0.0
  0
LINE
  5
51A
100
AcDbEntity
  8
2
100
AcDbLine
 10
181.1844
 20
23.979709
 30
0.0
 11
181.1844
 21
21.640205
 31
0.0
  0
LINE
  5
51B
100
AcDbEntity
  8
2
100
AcDbLine
 10
182.5844
 20
24.293108
 30
0.0
 11
182.5844
 21
21.563349
 31
0.0
  0
LINE
  5
51C
100
AcDbEntity
  8
2
100
AcDbLine
 10
182.5844
 20
28.798581
 30
0.0
 11
182.5844
 21
25.735725
 31
0.0
  0
LINE
  5
51D
100
AcDbEntity
  8
2
100
AcDbLine
 10
168.1844
 20
25.487077
 30
0.0
 11
168.1844
 21
22.92712
 31
0.0
  0
LINE
  5
51E
100
AcDbEntity
  8
2
100
AcDbLine
 10
167.816385
 20
31.532032
 30
0.0
 11
167.7844
 21
31.532032
 31
0.0
  0
LINE
  5
51F
100
AcDbEntity
  8
2
100
AcDbLine
 10
166.7844
 20
25.287172
 30
0.0
 11
166.7844
 21
22.632008
 31
0.0
  0
LINE
  5
520
100
AcDbEntity
  8
2
100
AcDbLine
 10
166.7844
 20
21.114797
 30
0.0
 11
166.7844
 21
-4.786255
 31
0.0
  0
LINE
  5
521
100
AcDbEntity
  8
2
100
AcDbLine
 10
182.5844
 20
20.120732
 30
0.0
 11
182.5844
 21
-4.786255
 31
0.0
  0
ARC
  5
522
100
AcDbEntity
  8
2
100
AcDbCircle
 10
182.238402
 20
58.097028
 30
0.0
 40
0.8
100
AcDbArc
 50
281.397445
 51
16.78627
  0
ARC
  5
523
100
AcDbEntity
  8
2
100
AcDbCircle
 10
182.238402
 20
54.001514
 30
0.0
 40
0.8
100
AcDbArc
 50
280.391878
 51
100.391878
  0
ARC
  5
524
100
AcDbEntity
  8
2
100
AcDbCircle
 10
182.238402
 20
50.182657
 30
0.0
 40
0.8
100
AcDbArc
 50
280.610631
 51
100.610631
  0
ARC
  5
525
100
AcDbEntity
  8
2
100
AcDbCircle
 10
182.238402
 20
46.303773
 30
0.0
 40
0.8
100
AcDbArc
 50
282.068205
 51
102.068205
  0
ARC
  5
526
100
AcDbEntity
  8
2
100
AcDbCircle
 10
182.238402
 20
42.022635
 30
0.0
 40
0.8
100
AcDbArc
 50
280.132571
 51
100.132571
  0
ARC
  5
527
100
AcDbEntity
  8
2
100
AcDbCircle
 10
182.238402
 20
38.274825
 30
0.0
 40
0.8
100
AcDbArc
 50
282.970431
 51
102.970431
  0
ARC
  5
528
100
AcDbEntity
  8
2
100
AcDbCircle
 10
182.238402
 20
33.742528
 30
0.0
 40
0.8
100
AcDbArc
 50
281.857168
 51
101.857168
  0
ARC
  5
529
100
AcDbEntity
  8
2
100
AcDbCircle
 10
182.238402
 20
25.014416
 30
0.0
 40
0.8
100
AcDbArc
 50
281.675583
 51
101.675583
  0
ARC
  5
52A
100
AcDbEntity
  8
2
100
AcDbCircle
 10
182.238402
 20
20.84204
 30
0.0
 40
0.8
100
AcDbArc
 50
266.118273
 51
93.881727
  0
ARC
  5
52B
100
AcDbEntity
  8
2
100
AcDbCircle
 10
182.238402
 20
29.519889
 30
0.0
 40
0.8
100
AcDbArc
 50
282.874375
 51
102.874375
  0
ARC
  5
52C
100
AcDbEntity
  8
2
100
AcDbCircle
 10
167.038402
 20
30.551251
 30
0.0
 40
0.8
100
AcDbArc
 50
101.857168
 51
281.857168
  0
ARC
  5
52D
100
AcDbEntity
  8
2
100
AcDbCircle
 10
167.038402
 20
21.873402
 30
0.0
 40
0.8
100
AcDbArc
 50
101.675583
 51
281.675583
  0
ARC
  5
52E
100
AcDbEntity
  8
2
100
AcDbCircle
 10
167.038402
 20
26.045778
 30
0.0
 40
0.8
100
AcDbArc
 50
102.874375
 51
282.874375
  0
ARC
  5
52F
100
AcDbEntity
  8
2
100
AcDbCircle
 10
167.038402
 20
34.77389
 30
0.0
 40
0.8
100
AcDbArc
 50
102.970431
 51
282.970431
  0
ARC
  5
530
100
AcDbEntity
  8
2
100
AcDbCircle
 10
167.038402
 20
39.306187
 30
0.0
 40
0.8
100
AcDbArc
 50
100.132571
 51
280.132571
  0
ARC
  5
531
100
AcDbEntity
  8
2
100
AcDbCircle
 10
167.038402
 20
43.053997
 30
0.0
 40
0.8
100
AcDbArc
 50
102.068205
 51
282.068205
  0
ARC
  5
532
100
AcDbEntity
  8
2
100
AcDbCircle
 10
167.038402
 20
47.335135
 30
0.0
 40
0.8
100
AcDbArc
 50
100.610631
 51
280.610631
  0
ARC
  5
533
100
AcDbEntity
  8
2
100
AcDbCircle
 10
167.038402
 20
51.214019
 30
0.0
 40
0.8
100
AcDbArc
 50
100.391878
 51
280.391878
  0
ARC
  5
534
100
AcDbEntity
  8
2
100
AcDbCircle
 10
167.038402
 20
55.032876
 30
0.0
 40
0.8
100
AcDbArc
 50
101.397445
 51
281.397445
  0
LINE
  5
535
100
AcDbEntity
  8
2
100
AcDbLine
 10
181.1844
 20
21.715397
 30
0.0
 11
182.29256
 21
21.640205
 31
0.0
  0
LINE
  5
536
100
AcDbEntity
  8
2
100
AcDbLine
 10
166.876507
 20
22.65685
 30
0.0
 11
168.782521
 21
23.050719
 31
0.0
  0
LINE
  5
537
100
AcDbEntity
  8
2
100
AcDbLine
 10
182.400298
 20
24.230969
 30
0.0
 11
179.437554
 21
23.618731
 31
0.0
  0
LINE
  5
538
100
AcDbEntity
  8
2
100
AcDbLine
 10
166.860151
 20
26.825667
 30
0.0
 11
182.060151
 21
30.299778
 31
0.0
  0
LINE
  5
539
100
AcDbEntity
  8
2
100
AcDbLine
 10
182.416654
 20
28.74
 30
0.0
 11
167.216654
 21
25.265889
 31
0.0
  0
LINE
  5
53A
100
AcDbEntity
  8
2
100
AcDbLine
 10
166.874024
 20
31.334181
 30
0.0
 11
182.074024
 21
34.525458
 31
0.0
  0
LINE
  5
53B
100
AcDbEntity
  8
2
100
AcDbLine
 10
182.402781
 20
32.959597
 30
0.0
 11
167.202781
 21
29.768321
 31
0.0
  0
LINE
  5
53C
100
AcDbEntity
  8
2
100
AcDbLine
 10
166.858844
 20
35.553479
 30
0.0
 11
182.058844
 21
39.054414
 31
0.0
  0
LINE
  5
53D
100
AcDbEntity
  8
2
100
AcDbLine
 10
182.417961
 20
37.495236
 30
0.0
 11
167.217961
 21
33.994301
 31
0.0
  0
LINE
  5
53E
100
AcDbEntity
  8
2
100
AcDbLine
 10
167.179144
 20
38.518664
 30
0.0
 11
182.379144
 21
41.235112
 31
0.0
  0
LINE
  5
53F
100
AcDbEntity
  8
2
100
AcDbLine
 10
182.097661
 20
42.810158
 30
0.0
 11
166.897661
 21
40.093709
 31
0.0
  0
LINE
  5
540
100
AcDbEntity
  8
2
100
AcDbLine
 10
167.205663
 20
42.271677
 30
0.0
 11
182.405663
 21
45.521454
 31
0.0
  0
LINE
  5
541
100
AcDbEntity
  8
2
100
AcDbLine
 10
182.071142
 20
47.086093
 30
0.0
 11
166.871142
 21
43.836316
 31
0.0
  0
LINE
  5
542
100
AcDbEntity
  8
2
100
AcDbLine
 10
167.185709
 20
46.548814
 30
0.0
 11
182.385709
 21
49.396336
 31
0.0
  0
LINE
  5
543
100
AcDbEntity
  8
2
100
AcDbLine
 10
182.091096
 20
50.968978
 30
0.0
 11
166.891096
 21
48.121456
 31
0.0
  0
LINE
  5
544
100
AcDbEntity
  8
2
100
AcDbLine
 10
167.182706
 20
50.427141
 30
0.0
 11
182.382706
 21
53.214636
 31
0.0
  0
LINE
  5
545
100
AcDbEntity
  8
2
100
AcDbLine
 10
182.094099
 20
54.788391
 30
0.0
 11
166.894099
 21
52.000897
 31
0.0
  0
LINE
  5
546
100
AcDbEntity
  8
2
100
AcDbLine
 10
167.196493
 20
54.248652
 30
0.0
 11
182.396493
 21
57.312804
 31
0.0
  0
LINE
  5
547
100
AcDbEntity
  8
2
100
AcDbLine
 10
181.270319
 20
58.717967
 30
0.0
 11
166.880312
 21
55.8171
 31
0.0
  0
LINE
  5
548
100
AcDbEntity
  8
2
100
AcDbLine
 10
181.1844
 20
25.887773
 30
0.0
 11
182.29256
 21
25.812581
 31
0.0
  0
LINE
  5
549
100
AcDbEntity
  8
2
100
AcDbLine
 10
168.1844
 20
25.16618
 30
0.0
 11
166.984245
 21
25.247614
 31
0.0
  0
LINE
  5
54A
100
AcDbEntity
  8
2
100
AcDbLine
 10
172.86724
 20
30.957588
 30
0.0
 11
177.501427
 21
30.643145
 31
0.0
  0
LINE
  5
54B
100
AcDbEntity
  8
2
100
AcDbLine
 10
168.343734
 20
29.660841
 30
0.0
 11
166.984245
 21
29.753086
 31
0.0
  0
LINE
  5
54C
100
AcDbEntity
  8
2
100
AcDbLine
 10
172.48075
 20
35.206451
 30
0.0
 11
182.29256
 21
34.540692
 31
0.0
  0
LINE
  5
54D
100
AcDbEntity
  8
2
100
AcDbLine
 10
176.409565
 20
33.336191
 30
0.0
 11
166.984245
 21
33.975725
 31
0.0
  0
LINE
  5
54E
100
AcDbEntity
  8
2
100
AcDbLine
 10
173.586392
 20
39.663727
 30
0.0
 11
182.29256
 21
39.072989
 31
0.0
  0
LINE
  5
54F
100
AcDbEntity
  8
2
100
AcDbLine
 10
176.796055
 20
37.842264
 30
0.0
 11
166.984245
 21
38.508022
 31
0.0
  0
LINE
  5
550
100
AcDbEntity
  8
2
100
AcDbLine
 10
172.789858
 20
43.465584
 30
0.0
 11
182.29256
 21
42.8208
 31
0.0
  0
LINE
  5
551
100
AcDbEntity
  8
2
100
AcDbLine
 10
175.690413
 20
41.665095
 30
0.0
 11
166.984245
 21
42.255832
 31
0.0
  0
LINE
  5
552
100
AcDbEntity
  8
2
100
AcDbLine
 10
174.008964
 20
47.664003
 30
0.0
 11
182.29256
 21
47.101938
 31
0.0
  0
LINE
  5
553
100
AcDbEntity
  8
2
100
AcDbLine
 10
176.486947
 20
45.892186
 30
0.0
 11
166.984245
 21
46.53697
 31
0.0
  0
LINE
  5
554
100
AcDbEntity
  8
2
100
AcDbLine
 10
181.1844
 20
51.056013
 30
0.0
 11
182.29256
 21
50.980822
 31
0.0
  0
LINE
  5
555
100
AcDbEntity
  8
2
100
AcDbLine
 10
168.1844
 20
50.33442
 30
0.0
 11
166.984245
 21
50.415854
 31
0.0
  0
LINE
  5
556
100
AcDbEntity
  8
2
100
AcDbLine
 10
166.984245
 20
54.234711
 30
0.0
 11
168.138402
 21
54.156398
 31
0.0
  0
LINE
  5
557
100
AcDbEntity
  8
2
100
AcDbLine
 10
182.29256
 20
54.799678
 30
0.0
 11
181.138402
 21
54.877991
 31
0.0
  0
LINE
  5
558
100
AcDbEntity
  8
2
100
AcDbLine
 10
182.29256
 20
21.640205
 30
0.0
 11
180.6844
 21
21.640205
 31
0.0
  0
LINE
  5
559
100
AcDbEntity
  8
2
100
AcDbLine
 10
182.184245
 20
20.043876
 30
0.0
 11
180.6844
 21
20.043876
 31
0.0
  0
LINE
  5
55A
100
AcDbEntity
  8
2
100
AcDbLine
 10
166.984245
 20
21.075238
 30
0.0
 11
168.1844
 21
20.993804
 31
0.0
  0
LINE
  5
55B
100
AcDbEntity
  8
2
100
AcDbLine
 10
151.6844
 20
-9.467968
 30
0.0
 11
151.6844
 21
4.032032
 31
0.0
  0
LINE
  5
55C
100
AcDbEntity
  8
2
100
AcDbLine
 10
151.6844
 20
-9.467968
 30
0.0
 11
151.6844
 21
4.032032
 31
0.0
  0
LINE
  5
55D
100
AcDbEntity
  8
2
100
AcDbLine
 10
168.6844
 20
21.396638
 30
0.0
 11
167.200298
 21
21.089955
 31
0.0
  0
LINE
  5
55E
100
AcDbEntity
  8
2
100
AcDbLine
 10
171.531243
 20
23.618731
 30
0.0
 11
182.076507
 21
25.797864
 31
0.0
  0
LINE
  5
55F
100
AcDbEntity
  8
2
100
AcDbLine
 10
180.227751
 20
30.458157
 30
0.0
 11
182.29256
 21
30.318054
 31
0.0
  0
LINE
  5
560
100
AcDbEntity
  8
2
100
AcDbLine
 10
168.6844
 20
-19.967968
 30
0.0
 11
97.1844
 21
-19.967968
 31
0.0
  0
LINE
  5
561
100
AcDbEntity
  8
2
100
AcDbLine
 10
180.6844
 20
-17.967968
 30
0.0
 11
277.1844
 21
-17.967968
 31
0.0
  0
LINE
  5
562
100
AcDbEntity
  8
2
100
AcDbLine
 10
243.734896
 20
-17.967968
 30
0.0
 11
243.734896
 21
-19.967968
 31
0.0
  0
LINE
  5
563
100
AcDbEntity
  8
2
100
AcDbLine
 10
97.1844
 20
-17.967968
 30
0.0
 11
168.6844
 21
-17.967968
 31
0.0
  0
LINE
  5
564
100
AcDbEntity
  8
2
100
AcDbLine
 10
97.1844
 20
-17.967968
 30
0.0
 11
97.1844
 21
-19.967968
 31
0.0
  0
LINE
  5
565
100
AcDbEntity
  8
2
100
AcDbLine
 10
277.1844
 20
-19.967968
 30
0.0
 11
180.6844
 21
-19.967968
 31
0.0
  0
LINE
  5
566
100
AcDbEntity
  8
2
100
AcDbLine
 10
277.1844
 20
-19.967968
 30
0.0
 11
277.1844
 21
-17.967968
 31
0.0
  0
LINE
  5
567
100
AcDbEntity
  8
2
100
AcDbLine
 10
262.085018
 20
-17.967968
 30
0.0
 11
262.085018
 21
-19.967968
 31
0.0
  0
LINE
  5
568
100
AcDbEntity
  8
2
100
AcDbLine
 10
259.81418
 20
-17.967968
 30
0.0
 11
259.81418
 21
-19.967968
 31
0.0
  0
LINE
  5
569
100
AcDbEntity
  8
2
100
AcDbLine
 10
258.240056
 20
-17.967968
 30
0.0
 11
258.240056
 21
-19.967968
 31
0.0
  0
LINE
  5
56A
100
AcDbEntity
  8
2
100
AcDbLine
 10
255.388176
 20
-17.967968
 30
0.0
 11
255.388176
 21
-19.967968
 31
0.0
  0
LINE
  5
56B
100
AcDbEntity
  8
2
100
AcDbLine
 10
252.46014
 20
-17.967968
 30
0.0
 11
252.46014
 21
-19.967968
 31
0.0
  0
LINE
  5
56C
100
AcDbEntity
  8
2
100
AcDbLine
 10
248.290971
 20
-17.967968
 30
0.0
 11
248.290971
 21
-19.967968
 31
0.0
  0
LINE
  5
56D
100
AcDbEntity
  8
2
100
AcDbLine
 10
243.768794
 20
-17.967968
 30
0.0
 11
243.768794
 21
-19.967968
 31
0.0
  0
LINE
  5
56E
100
AcDbEntity
  8
2
100
AcDbLine
 10
238.957267
 20
-17.967968
 30
0.0
 11
238.957267
 21
-19.967968
 31
0.0
  0
LINE
  5
56F
100
AcDbEntity
  8
2
100
AcDbLine
 10
234.058203
 20
-17.967968
 30
0.0
 11
234.058203
 21
-19.967968
 31
0.0
  0
LINE
  5
570
100
AcDbEntity
  8
2
100
AcDbLine
 10
227.670665
 20
-17.967968
 30
0.0
 11
227.670665
 21
-19.967968
 31
0.0
  0
LINE
  5
571
100
AcDbEntity
  8
2
100
AcDbLine
 10
221.724967
 20
-17.967968
 30
0.0
 11
221.724967
 21
-19.967968
 31
0.0
  0
LINE
  5
572
100
AcDbEntity
  8
2
100
AcDbLine
 10
215.040741
 20
-17.967968
 30
0.0
 11
215.040741
 21
-19.967968
 31
0.0
  0
LINE
  5
573
100
AcDbEntity
  8
2
100
AcDbLine
 10
208.301706
 20
-17.967968
 30
0.0
 11
208.301706
 21
-19.967968
 31
0.0
  0
LINE
  5
574
100
AcDbEntity
  8
2
100
AcDbLine
 10
201.01053
 20
-17.967968
 30
0.0
 11
201.01053
 21
-19.967968
 31
0.0
  0
LINE
  5
575
100
AcDbEntity
  8
2
100
AcDbLine
 10
193.435305
 20
-17.967968
 30
0.0
 11
193.435305
 21
-19.967968
 31
0.0
  0
LINE
  5
576
100
AcDbEntity
  8
2
100
AcDbLine
 10
185.755528
 20
-17.967968
 30
0.0
 11
185.755528
 21
-19.967968
 31
0.0
  0
LINE
  5
577
100
AcDbEntity
  8
2
100
AcDbLine
 10
147.6844
 20
-17.967968
 30
0.0
 11
147.6844
 21
-19.967968
 31
0.0
  0
LINE
  5
578
100
AcDbEntity
  8
2
100
AcDbLine
 10
167.6844
 20
-17.967968
 30
0.0
 11
167.6844
 21
-19.967968
 31
0.0
  0
ARC
  5
579
100
AcDbEntity
  8
2
100
AcDbCircle
 10
174.655334
 20
25.248313
 30
0.0
 40
34.117089
100
AcDbArc
 50
72.893757
 51
107.001541
  0
ARC
  5
57A
100
AcDbEntity
  8
2
100
AcDbCircle
 10
174.655334
 20
25.914956
 30
0.0
 40
34.117089
100
AcDbArc
 50
63.756415
 51
116.129647
  0
LINE
  5
57B
100
AcDbEntity
  8
2
100
AcDbLine
 10
166.6844
 20
9.532032
 30
0.0
 11
166.6844
 21
21.155988
 31
0.0
  0
LINE
  5
57C
100
AcDbEntity
  8
2
  6
CENTER
 62
     2
100
AcDbLine
 10
147.88397
 20
24.532032
 30
0.0
 11
200.486798
 21
24.532032
 31
0.0
  0
LINE
  5
57D
100
AcDbEntity
  8
2
  6
CENTER
 62
     2
100
AcDbLine
 10
139.417302
 20
-2.467968
 30
0.0
 11
162.404296
 21
-2.467968
 31
0.0
  0
LINE
  5
57E
100
AcDbEntity
  8
2
100
AcDbLine
 10
151.6844
 20
-8.967968
 30
0.0
 11
145.906088
 21
-8.967968
 31
0.0
  0
LINE
  5
57F
100
AcDbEntity
  8
2
100
AcDbLine
 10
145.1844
 20
-5.717968
 30
0.0
 11
145.1844
 21
-2.467968
 31
0.0
  0
LINE
  5
580
100
AcDbEntity
  8
2
100
AcDbLine
 10
151.6844
 20
-2.467968
 30
0.0
 11
145.906088
 21
-2.467968
 31
0.0
  0
ARC
  5
581
100
AcDbEntity
  8
2
100
AcDbCircle
 10
152.863159
 20
-5.717968
 30
0.0
 40
7.678759
100
AcDbArc
 50
154.96034
 51
205.03966
  0
LINE
  5
582
100
AcDbEntity
  8
2
100
AcDbLine
 10
151.6844
 20
4.032032
 30
0.0
 11
145.906088
 21
4.032032
 31
0.0
  0
LINE
  5
583
100
AcDbEntity
  8
2
100
AcDbLine
 10
145.1844
 20
0.782032
 30
0.0
 11
145.1844
 21
-2.467968
 31
0.0
  0
LINE
  5
584
100
AcDbEntity
  8
2
100
AcDbLine
 10
151.6844
 20
-2.467968
 30
0.0
 11
145.906088
 21
-2.467968
 31
0.0
  0
ARC
  5
585
100
AcDbEntity
  8
2
100
AcDbCircle
 10
152.863159
 20
0.782032
 30
0.0
 40
7.678759
100
AcDbArc
 50
154.96034
 51
205.03966
  0
LINE
  5
586
100
AcDbEntity
  8
2
100
AcDbLine
 10
140.6844
 20
-2.467968
 30
0.0
 11
140.6844
 21
0.855532
 31
0.0
  0
LINE
  5
587
100
AcDbEntity
  8
2
100
AcDbLine
 10
140.6844
 20
0.855532
 30
0.0
 11
141.3609
 21
1.532032
 31
0.0
  0
LINE
  5
588
100
AcDbEntity
  8
2
100
AcDbLine
 10
141.3609
 20
1.532032
 30
0.0
 11
145.221115
 21
1.532032
 31
0.0
  0
LINE
  5
589
100
AcDbEntity
  8
2
100
AcDbLine
 10
141.3609
 20
1.532032
 30
0.0
 11
141.3609
 21
-2.467968
 31
0.0
  0
LINE
  5
58A
100
AcDbEntity
  8
2
 62
     2
100
AcDbLine
 10
140.6844
 20
0.855532
 30
0.0
 11
145.184752
 21
0.855532
 31
0.0
  0
LINE
  5
58B
100
AcDbEntity
  8
2
100
AcDbLine
 10
140.6844
 20
-2.467968
 30
0.0
 11
140.6844
 21
-5.791468
 31
0.0
  0
LINE
  5
58C
100
AcDbEntity
  8
2
100
AcDbLine
 10
140.6844
 20
-5.791468
 30
0.0
 11
141.3609
 21
-6.467968
 31
0.0
  0
LINE
  5
58D
100
AcDbEntity
  8
2
100
AcDbLine
 10
141.3609
 20
-6.467968
 30
0.0
 11
145.221115
 21
-6.467968
 31
0.0
  0
LINE
  5
58E
100
AcDbEntity
  8
2
100
AcDbLine
 10
141.3609
 20
-6.467968
 30
0.0
 11
141.3609
 21
-2.467968
 31
0.0
  0
LINE
  5
58F
100
AcDbEntity
  8
2
 62
     2
100
AcDbLine
 10
140.6844
 20
-5.791468
 30
0.0
 11
145.184752
 21
-5.791468
 31
0.0
  0
ARC
  5
590
100
AcDbEntity
  8
2
100
AcDbCircle
 10
182.256575
 20
67.405793
 30
0.0
 40
6.457103
100
AcDbArc
 50
5.249693
 51
73.977899
  0
ARC
  5
591
100
AcDbEntity
  8
2
100
AcDbCircle
 10
174.6844
 20
41.036874
 30
0.0
 40
33.891711
100
AcDbArc
 50
73.977899
 51
106.022101
  0
ARC
  5
592
100
AcDbEntity
  8
2
100
AcDbCircle
 10
167.112225
 20
67.405793
 30
0.0
 40
6.457103
100
AcDbArc
 50
106.022101
 51
174.750307
  0
LINE
  5
593
100
AcDbEntity
  8
3
100
AcDbLine
 10
202.246846
 20
-17.967968
 30
0.0
 11
202.246846
 21
-11.862861
 31
0.0
  0
LINE
  5
594
100
AcDbEntity
  8
3
100
AcDbLine
 10
225.6844
 20
-19.967968
 30
0.0
 11
225.6844
 21
-24.467968
 31
0.0
  0
LINE
  5
595
100
AcDbEntity
  8
3
100
AcDbLine
 10
123.6844
 20
-19.967968
 30
0.0
 11
123.6844
 21
-24.467968
 31
0.0
  0
LINE
  5
596
100
AcDbEntity
  8
3
100
AcDbLine
 10
221.707001
 20
-24.467968
 30
0.0
 11
225.6844
 21
-24.467968
 31
0.0
  0
LINE
  5
597
100
AcDbEntity
  8
3
100
AcDbLine
 10
233.575273
 20
-43.467968
 30
0.0
 11
233.575273
 21
-47.967968
 31
0.0
  0
LINE
  5
598
100
AcDbEntity
  8
3
100
AcDbLine
 10
130.84378
 20
-34.35568
 30
0.0
 11
130.84378
 21
-47.967968
 31
0.0
  0
LINE
  5
599
100
AcDbEntity
  8
3
100
AcDbLine
 10
190.240749
 20
-24.467968
 30
0.0
 11
190.240749
 21
-47.967968
 31
0.0
  0
LINE
  5
59A
100
AcDbEntity
  8
3
100
AcDbLine
 10
159.128051
 20
-24.467968
 30
0.0
 11
159.128051
 21
-47.967968
 31
0.0
  0
LINE
  5
59B
100
AcDbEntity
  8
3
100
AcDbLine
 10
115.793527
 20
-43.467968
 30
0.0
 11
127.661799
 21
-43.467968
 31
0.0
  0
LINE
  5
59C
100
AcDbEntity
  8
3
100
AcDbLine
 10
193.42273
 20
-43.467968
 30
0.0
 11
233.575273
 21
-43.467968
 31
0.0
  0
LINE
  5
59D
100
AcDbEntity
  8
3
100
AcDbLine
 10
115.793527
 20
-47.967968
 30
0.0
 11
159.128051
 21
-47.967968
 31
0.0
  0
LINE
  5
59E
100
AcDbEntity
  8
3
100
AcDbLine
 10
190.240749
 20
-47.967968
 30
0.0
 11
233.575273
 21
-47.967968
 31
0.0
  0
LINE
  5
59F
100
AcDbEntity
  8
3
100
AcDbLine
 10
193.42273
 20
-19.967968
 30
0.0
 11
193.42273
 21
-43.467968
 31
0.0
  0
LINE
  5
5A0
100
AcDbEntity
  8
3
100
AcDbLine
 10
221.707001
 20
-19.967968
 30
0.0
 11
221.707001
 21
-35.64403
 31
0.0
  0
LINE
  5
5A1
100
AcDbEntity
  8
3
100
AcDbLine
 10
127.661799
 20
-24.467968
 30
0.0
 11
127.661799
 21
-43.467968
 31
0.0
  0
LINE
  5
5A2
100
AcDbEntity
  8
3
100
AcDbLine
 10
115.793527
 20
-43.467968
 30
0.0
 11
115.793527
 21
-47.967968
 31
0.0
  0
LINE
  5
5A3
100
AcDbEntity
  8
3
100
AcDbLine
 10
123.6844
 20
-19.967968
 30
0.0
 11
159.539637
 21
-19.967968
 31
0.0
  0
LINE
  5
5A4
100
AcDbEntity
  8
3
100
AcDbLine
 10
189.829163
 20
-19.967968
 30
0.0
 11
225.6844
 21
-19.967968
 31
0.0
  0
LINE
  5
5A5
100
AcDbEntity
  8
3
100
AcDbLine
 10
123.6844
 20
-24.467968
 30
0.0
 11
168.6844
 21
-24.467968
 31
0.0
  0
LINE
  5
5A6
100
AcDbEntity
  8
3
100
AcDbLine
 10
180.6844
 20
-24.467968
 30
0.0
 11
193.42273
 21
-24.467968
 31
0.0
  0
LINE
  5
5A7
100
AcDbEntity
  8
3
  6
CENTER
 62
     2
100
AcDbLine
 10
218.878574
 20
-81.415557
 30
0.0
 11
218.878574
 21
-32.189398
 31
0.0
  0
LINE
  5
5A8
100
AcDbEntity
  8
3
  6
CENTER
 62
     2
100
AcDbLine
 10
130.490226
 20
-81.002599
 30
0.0
 11
130.490226
 21
-33.246134
 31
0.0
  0
LINE
  5
5A9
100
AcDbEntity
  8
3
100
AcDbLine
 10
120.9894
 20
-43.467968
 30
0.0
 11
120.9894
 21
-36.593801
 31
0.0
  0
LINE
  5
5AA
100
AcDbEntity
  8
3
100
AcDbLine
 10
125.7394
 20
-35.467968
 30
0.0
 11
127.661799
 21
-35.467968
 31
0.0
  0
ARC
  5
5AB
100
AcDbEntity
  8
3
100
AcDbCircle
 10
125.7394
 20
-46.051243
 30
0.0
 40
10.583275
100
AcDbArc
 50
79.534408
 51
116.668091
  0
LINE
  5
5AC
100
AcDbEntity
  8
3
100
AcDbLine
 10
147.133758
 20
-17.967968
 30
0.0
 11
147.133758
 21
-11.862861
 31
0.0
  0
LINE
  5
5AD
100
AcDbEntity
  8
3
100
AcDbLine
 10
142.883758
 20
-10.967968
 30
0.0
 11
138.633758
 21
-10.967968
 31
0.0
  0
LINE
  5
5AE
100
AcDbEntity
  8
3
100
AcDbLine
 10
138.633758
 20
-17.967968
 30
0.0
 11
138.633758
 21
-11.862861
 31
0.0
  0
ARC
  5
5AF
100
AcDbEntity
  8
3
100
AcDbCircle
 10
142.883758
 20
-21.507404
 30
0.0
 40
10.539436
100
AcDbArc
 50
66.218654
 51
113.781346
  0
LINE
  5
5B0
100
AcDbEntity
  8
3
100
AcDbLine
 10
130.133758
 20
-17.967968
 30
0.0
 11
130.133758
 21
-11.862861
 31
0.0
  0
LINE
  5
5B1
100
AcDbEntity
  8
3
100
AcDbLine
 10
134.383758
 20
-10.967968
 30
0.0
 11
138.633758
 21
-10.967968
 31
0.0
  0
LINE
  5
5B2
100
AcDbEntity
  8
3
100
AcDbLine
 10
138.633758
 20
-17.967968
 30
0.0
 11
138.633758
 21
-11.862861
 31
0.0
  0
ARC
  5
5B3
100
AcDbEntity
  8
3
100
AcDbCircle
 10
134.383758
 20
-21.507404
 30
0.0
 40
10.539436
100
AcDbArc
 50
66.218654
 51
113.781346
  0
LINE
  5
5B4
100
AcDbEntity
  8
3
100
AcDbLine
 10
138.633758
 20
-17.967968
 30
0.0
 11
147.133758
 21
-17.967968
 31
0.0
  0
LINE
  5
5B5
100
AcDbEntity
  8
3
100
AcDbLine
 10
138.633758
 20
-17.967968
 30
0.0
 11
130.133758
 21
-17.967968
 31
0.0
  0
ARC
  5
5B6
100
AcDbEntity
  8
3
100
AcDbCircle
 10
206.496846
 20
-21.507404
 30
0.0
 40
10.539436
100
AcDbArc
 50
66.218654
 51
113.781346
  0
LINE
  5
5B7
100
AcDbEntity
  8
3
100
AcDbLine
 10
206.496846
 20
-10.967968
 30
0.0
 11
210.746846
 21
-10.967968
 31
0.0
  0
LINE
  5
5B8
100
AcDbEntity
  8
3
100
AcDbLine
 10
210.746846
 20
-17.967968
 30
0.0
 11
210.746846
 21
-11.862861
 31
0.0
  0
LINE
  5
5B9
100
AcDbEntity
  8
3
100
AcDbLine
 10
219.246846
 20
-17.967968
 30
0.0
 11
219.246846
 21
-11.862861
 31
0.0
  0
LINE
  5
5BA
100
AcDbEntity
  8
3
100
AcDbLine
 10
214.996846
 20
-10.967968
 30
0.0
 11
210.746846
 21
-10.967968
 31
0.0
  0
LINE
  5
5BB
100
AcDbEntity
  8
3
100
AcDbLine
 10
210.746846
 20
-17.967968
 30
0.0
 11
210.746846
 21
-11.862861
 31
0.0
  0
ARC
  5
5BC
100
AcDbEntity
  8
3
100
AcDbCircle
 10
214.996846
 20
-21.507404
 30
0.0
 40
10.539436
100
AcDbArc
 50
66.218654
 51
113.781346
  0
LINE
  5
5BD
100
AcDbEntity
  8
3
  6
CENTER
 62
     2
100
AcDbLine
 10
210.735042
 20
-43.867968
 30
0.0
 11
210.735042
 21
-8.699682
 31
0.0
  0
LINE
  5
5BE
100
AcDbEntity
  8
3
100
AcDbLine
 10
210.746846
 20
-17.967968
 30
0.0
 11
202.246846
 21
-17.967968
 31
0.0
  0
LINE
  5
5BF
100
AcDbEntity
  8
3
100
AcDbLine
 10
210.746846
 20
-17.967968
 30
0.0
 11
219.246846
 21
-17.967968
 31
0.0
  0
LINE
  5
5C0
100
AcDbEntity
  8
3
100
AcDbLine
 10
209.3794
 20
-43.467968
 30
0.0
 11
209.3794
 21
-36.593801
 31
0.0
  0
LINE
  5
5C1
100
AcDbEntity
  8
3
100
AcDbLine
 10
214.1294
 20
-35.467968
 30
0.0
 11
218.8794
 21
-35.467968
 31
0.0
  0
LINE
  5
5C2
100
AcDbEntity
  8
3
100
AcDbLine
 10
218.8794
 20
-43.467968
 30
0.0
 11
218.8794
 21
-36.593801
 31
0.0
  0
ARC
  5
5C3
100
AcDbEntity
  8
3
100
AcDbCircle
 10
214.1294
 20
-46.051243
 30
0.0
 40
10.583275
100
AcDbArc
 50
63.331909
 51
116.668091
  0
LINE
  5
5C4
100
AcDbEntity
  8
3
100
AcDbLine
 10
223.6294
 20
-35.467968
 30
0.0
 11
218.8794
 21
-35.467968
 31
0.0
  0
LINE
  5
5C5
100
AcDbEntity
  8
3
100
AcDbLine
 10
218.8794
 20
-43.467968
 30
0.0
 11
218.8794
 21
-36.593801
 31
0.0
  0
ARC
  5
5C6
100
AcDbEntity
  8
3
100
AcDbCircle
 10
223.6294
 20
-46.051243
 30
0.0
 40
10.583275
100
AcDbArc
 50
63.331909
 51
116.668091
  0
LINE
  5
5C7
100
AcDbEntity
  8
3
100
AcDbLine
 10
228.3794
 20
-43.467968
 30
0.0
 11
228.3794
 21
-36.593801
 31
0.0
  0
LINE
  5
5C8
100
AcDbEntity
  8
3
100
AcDbLine
 10
218.8794
 20
-43.467968
 30
0.0
 11
209.3794
 21
-43.467968
 31
0.0
  0
LINE
  5
5C9
100
AcDbEntity
  8
3
100
AcDbLine
 10
218.8794
 20
-43.467968
 30
0.0
 11
228.3794
 21
-43.467968
 31
0.0
  0
LINE
  5
5CA
100
AcDbEntity
  8
3
100
AcDbLine
 10
-403.21348
 20
-17.967968
 30
0.0
 11
-403.21348
 21
-11.862861
 31
0.0
  0
LINE
  5
5CB
100
AcDbEntity
  8
3
100
AcDbLine
 10
-383.3761
 20
-19.967968
 30
0.0
 11
-485.3761
 21
-19.967968
 31
0.0
  0
LINE
  5
5CC
100
AcDbEntity
  8
3
100
AcDbLine
 10
-485.3761
 20
-19.967968
 30
0.0
 11
-485.3761
 21
-24.467968
 31
0.0
  0
LINE
  5
5CD
100
AcDbEntity
  8
3
100
AcDbLine
 10
-383.3761
 20
-19.967968
 30
0.0
 11
-383.3761
 21
-24.467968
 31
0.0
  0
LINE
  5
5CE
100
AcDbEntity
  8
3
100
AcDbLine
 10
-442.77307
 20
-19.967968
 30
0.0
 11
-442.77307
 21
-24.467968
 31
0.0
  0
LINE
  5
5CF
100
AcDbEntity
  8
3
100
AcDbLine
 10
-383.3761
 20
-24.467968
 30
0.0
 11
-453.11443
 21
-24.467968
 31
0.0
  0
LINE
  5
5D0
100
AcDbEntity
  8
3
100
AcDbLine
 10
-481.398701
 20
-24.467968
 30
0.0
 11
-485.3761
 21
-24.467968
 31
0.0
  0
LINE
  5
5D1
100
AcDbEntity
  8
3
100
AcDbLine
 10
-493.266973
 20
-43.467968
 30
0.0
 11
-493.266973
 21
-47.967968
 31
0.0
  0
LINE
  5
5D2
100
AcDbEntity
  8
3
100
AcDbLine
 10
-449.932449
 20
-24.467968
 30
0.0
 11
-449.932449
 21
-47.967968
 31
0.0
  0
LINE
  5
5D3
100
AcDbEntity
  8
3
100
AcDbLine
 10
-375.485227
 20
-43.467968
 30
0.0
 11
-387.353499
 21
-43.467968
 31
0.0
  0
LINE
  5
5D4
100
AcDbEntity
  8
3
100
AcDbLine
 10
-453.11443
 20
-43.467968
 30
0.0
 11
-493.266973
 21
-43.467968
 31
0.0
  0
LINE
  5
5D5
100
AcDbEntity
  8
3
100
AcDbLine
 10
-375.485227
 20
-47.967968
 30
0.0
 11
-418.819751
 21
-47.967968
 31
0.0
  0
LINE
  5
5D6
100
AcDbEntity
  8
3
100
AcDbLine
 10
-449.932449
 20
-47.967968
 30
0.0
 11
-493.266973
 21
-47.967968
 31
0.0
  0
LINE
  5
5D7
100
AcDbEntity
  8
3
100
AcDbLine
 10
-453.11443
 20
-19.967968
 30
0.0
 11
-453.11443
 21
-43.467968
 31
0.0
  0
LINE
  5
5D8
100
AcDbEntity
  8
3
100
AcDbLine
 10
-481.398701
 20
-19.967968
 30
0.0
 11
-481.398701
 21
-35.467968
 31
0.0
  0
LINE
  5
5D9
100
AcDbEntity
  8
3
100
AcDbLine
 10
-387.353499
 20
-24.467968
 30
0.0
 11
-387.353499
 21
-43.467968
 31
0.0
  0
LINE
  5
5DA
100
AcDbEntity
  8
3
100
AcDbLine
 10
-375.485227
 20
-43.467968
 30
0.0
 11
-375.485227
 21
-47.967968
 31
0.0
  0
LINE
  5
5DB
100
AcDbEntity
  8
3
100
AcDbLine
 10
-418.819751
 20
-47.967968
 30
0.0
 11
-418.819751
 21
-41.467968
 31
0.0
  0
LINE
  5
5DC
100
AcDbEntity
  8
3
100
AcDbLine
 10
-418.819751
 20
-41.467968
 30
0.0
 11
-418.819751
 21
-24.467968
 31
0.0
  0
LINE
  5
5DD
100
AcDbEntity
  8
3
  6
CENTER
 62
     2
100
AcDbLine
 10
-390.181926
 20
-85.367968
 30
0.0
 11
-390.181926
 21
-30.815622
 31
0.0
  0
LINE
  5
5DE
100
AcDbEntity
  8
3
  6
CENTER
 62
     2
100
AcDbLine
 10
-478.570274
 20
-85.367968
 30
0.0
 11
-478.570274
 21
-31.947729
 31
0.0
  0
LINE
  5
5DF
100
AcDbEntity
  8
3
100
AcDbLine
 10
-470.438372
 20
-17.967968
 30
0.0
 11
-480.238372
 21
-17.967968
 31
0.0
  0
LINE
  5
5E0
100
AcDbEntity
  8
3
100
AcDbLine
 10
-480.238372
 20
-17.967968
 30
0.0
 11
-480.238372
 21
-11.862861
 31
0.0
  0
LINE
  5
5E1
100
AcDbEntity
  8
3
100
AcDbLine
 10
-480.238372
 20
-11.862861
 30
0.0
 11
-478.688372
 21
-10.967968
 31
0.0
  0
LINE
  5
5E2
100
AcDbEntity
  8
3
100
AcDbLine
 10
-478.688372
 20
-10.967968
 30
0.0
 11
-470.438372
 21
-10.967968
 31
0.0
  0
LINE
  5
5E3
100
AcDbEntity
  8
3
100
AcDbLine
 10
-475.338372
 20
-17.967968
 30
0.0
 11
-475.338372
 21
-11.862861
 31
0.0
  0
ARC
  5
5E4
100
AcDbEntity
  8
3
100
AcDbCircle
 10
-477.788372
 20
-15.012419
 30
0.0
 40
3.990265
100
AcDbArc
 50
52.121121
 51
127.878879
  0
ARC
  5
5E5
100
AcDbEntity
  8
3
100
AcDbCircle
 10
-470.438372
 20
-25.722154
 30
0.0
 40
14.7
100
AcDbArc
 50
90.0
 51
109.471221
  0
LINE
  5
5E6
100
AcDbEntity
  8
3
100
AcDbLine
 10
-470.438372
 20
-17.967968
 30
0.0
 11
-460.638372
 21
-17.967968
 31
0.0
  0
LINE
  5
5E7
100
AcDbEntity
  8
3
100
AcDbLine
 10
-460.638372
 20
-17.967968
 30
0.0
 11
-460.638372
 21
-11.862861
 31
0.0
  0
LINE
  5
5E8
100
AcDbEntity
  8
3
100
AcDbLine
 10
-460.638372
 20
-11.862861
 30
0.0
 11
-462.188372
 21
-10.967968
 31
0.0
  0
LINE
  5
5E9
100
AcDbEntity
  8
3
100
AcDbLine
 10
-462.188372
 20
-10.967968
 30
0.0
 11
-470.438372
 21
-10.967968
 31
0.0
  0
LINE
  5
5EA
100
AcDbEntity
  8
3
100
AcDbLine
 10
-465.538372
 20
-17.967968
 30
0.0
 11
-465.538372
 21
-11.862861
 31
0.0
  0
ARC
  5
5EB
100
AcDbEntity
  8
3
100
AcDbCircle
 10
-463.088372
 20
-15.012419
 30
0.0
 40
3.990265
100
AcDbArc
 50
52.121121
 51
127.878879
  0
ARC
  5
5EC
100
AcDbEntity
  8
3
100
AcDbCircle
 10
-470.438372
 20
-25.722154
 30
0.0
 40
14.7
100
AcDbArc
 50
70.528779
 51
90.0
  0
LINE
  5
5ED
100
AcDbEntity
  8
3
  6
CENTER
 62
     2
100
AcDbLine
 10
-470.426742
 20
-35.367968
 30
0.0
 11
-470.426742
 21
-9.44008
 31
0.0
  0
LINE
  5
5EE
100
AcDbEntity
  8
3
100
AcDbLine
 10
-478.5711
 20
-43.467968
 30
0.0
 11
-489.5211
 21
-43.467968
 31
0.0
  0
LINE
  5
5EF
100
AcDbEntity
  8
3
100
AcDbLine
 10
-489.5211
 20
-43.467968
 30
0.0
 11
-489.5211
 21
-36.593801
 31
0.0
  0
LINE
  5
5F0
100
AcDbEntity
  8
3
100
AcDbLine
 10
-489.5211
 20
-36.593801
 30
0.0
 11
-487.5711
 21
-35.467968
 31
0.0
  0
LINE
  5
5F1
100
AcDbEntity
  8
3
100
AcDbLine
 10
-487.5711
 20
-35.467968
 30
0.0
 11
-478.5711
 21
-35.467968
 31
0.0
  0
LINE
  5
5F2
100
AcDbEntity
  8
3
100
AcDbLine
 10
-484.0461
 20
-43.467968
 30
0.0
 11
-484.0461
 21
-36.593801
 31
0.0
  0
ARC
  5
5F3
100
AcDbEntity
  8
3
100
AcDbCircle
 10
-486.7836
 20
-40.11295
 30
0.0
 40
4.458511
100
AcDbArc
 50
52.121121
 51
127.878879
  0
ARC
  5
5F4
100
AcDbEntity
  8
3
100
AcDbCircle
 10
-478.5711
 20
-52.07944
 30
0.0
 40
16.425
100
AcDbArc
 50
90.0
 51
109.471221
  0
LINE
  5
5F5
100
AcDbEntity
  8
3
100
AcDbLine
 10
-478.5711
 20
-43.467968
 30
0.0
 11
-467.6211
 21
-43.467968
 31
0.0
  0
LINE
  5
5F6
100
AcDbEntity
  8
3
100
AcDbLine
 10
-467.6211
 20
-43.467968
 30
0.0
 11
-467.6211
 21
-36.593801
 31
0.0
  0
LINE
  5
5F7
100
AcDbEntity
  8
3
100
AcDbLine
 10
-467.6211
 20
-36.593801
 30
0.0
 11
-469.5711
 21
-35.467968
 31
0.0
  0
LINE
  5
5F8
100
AcDbEntity
  8
3
100
AcDbLine
 10
-469.5711
 20
-35.467968
 30
0.0
 11
-478.5711
 21
-35.467968
 31
0.0
  0
LINE
  5
5F9
100
AcDbEntity
  8
3
100
AcDbLine
 10
-473.0961
 20
-43.467968
 30
0.0
 11
-473.0961
 21
-36.593801
 31
0.0
  0
ARC
  5
5FA
100
AcDbEntity
  8
3
100
AcDbCircle
 10
-470.3586
 20
-40.11295
 30
0.0
 40
4.458511
100
AcDbArc
 50
52.121121
 51
127.878879
  0
ARC
  5
5FB
100
AcDbEntity
  8
3
100
AcDbCircle
 10
-478.5711
 20
-52.07944
 30
0.0
 40
16.425
100
AcDbArc
 50
70.528779
 51
90.0
  0
LINE
  5
5FC
100
AcDbEntity
  8
3
100
AcDbLine
 10
-398.31348
 20
-17.967968
 30
0.0
 11
-408.11348
 21
-17.967968
 31
0.0
  0
LINE
  5
5FD
100
AcDbEntity
  8
3
100
AcDbLine
 10
-408.11348
 20
-17.967968
 30
0.0
 11
-408.11348
 21
-11.862861
 31
0.0
  0
LINE
  5
5FE
100
AcDbEntity
  8
3
100
AcDbLine
 10
-408.11348
 20
-11.862861
 30
0.0
 11
-406.56348
 21
-10.967968
 31
0.0
  0
LINE
  5
5FF
100
AcDbEntity
  8
3
100
AcDbLine
 10
-406.56348
 20
-10.967968
 30
0.0
 11
-398.31348
 21
-10.967968
 31
0.0
  0
ARC
  5
600
100
AcDbEntity
  8
3
100
AcDbCircle
 10
-405.66348
 20
-15.012419
 30
0.0
 40
3.990265
100
AcDbArc
 50
52.121121
 51
127.878879
  0
ARC
  5
601
100
AcDbEntity
  8
3
100
AcDbCircle
 10
-398.31348
 20
-25.722154
 30
0.0
 40
14.7
100
AcDbArc
 50
90.0
 51
109.471221
  0
LINE
  5
602
100
AcDbEntity
  8
3
100
AcDbLine
 10
-398.31348
 20
-17.967968
 30
0.0
 11
-388.51348
 21
-17.967968
 31
0.0
  0
LINE
  5
603
100
AcDbEntity
  8
3
100
AcDbLine
 10
-388.51348
 20
-17.967968
 30
0.0
 11
-388.51348
 21
-11.862861
 31
0.0
  0
LINE
  5
604
100
AcDbEntity
  8
3
100
AcDbLine
 10
-388.51348
 20
-11.862861
 30
0.0
 11
-390.06348
 21
-10.967968
 31
0.0
  0
LINE
  5
605
100
AcDbEntity
  8
3
100
AcDbLine
 10
-390.06348
 20
-10.967968
 30
0.0
 11
-398.31348
 21
-10.967968
 31
0.0
  0
LINE
  5
606
100
AcDbEntity
  8
3
100
AcDbLine
 10
-393.41348
 20
-17.967968
 30
0.0
 11
-393.41348
 21
-11.862861
 31
0.0
  0
ARC
  5
607
100
AcDbEntity
  8
3
100
AcDbCircle
 10
-390.96348
 20
-15.012419
 30
0.0
 40
3.990265
100
AcDbArc
 50
52.121121
 51
127.878879
  0
ARC
  5
608
100
AcDbEntity
  8
3
100
AcDbCircle
 10
-398.31348
 20
-25.722154
 30
0.0
 40
14.7
100
AcDbArc
 50
70.528779
 51
90.0
  0
LINE
  5
609
100
AcDbEntity
  8
3
  6
CENTER
 62
     2
100
AcDbLine
 10
-398.301854
 20
-43.867968
 30
0.0
 11
-398.301854
 21
-8.272138
 31
0.0
  0
LINE
  5
60A
100
AcDbEntity
  8
3
100
AcDbLine
 10
-379.2311
 20
-43.467968
 30
0.0
 11
-379.2311
 21
-36.593801
 31
0.0
  0
LINE
  5
60B
100
AcDbEntity
  8
3
100
AcDbLine
 10
-379.2311
 20
-36.593801
 30
0.0
 11
-381.1811
 21
-35.467968
 31
0.0
  0
LINE
  5
60C
100
AcDbEntity
  8
3
100
AcDbLine
 10
-381.1811
 20
-35.467968
 30
0.0
 11
-387.353499
 21
-35.467968
 31
0.0
  0
LINE
  5
60D
100
AcDbEntity
  8
3
100
AcDbLine
 10
-384.7061
 20
-43.467968
 30
0.0
 11
-384.7061
 21
-36.593801
 31
0.0
  0
ARC
  5
60E
100
AcDbEntity
  8
3
100
AcDbCircle
 10
-381.9686
 20
-40.11295
 30
0.0
 40
4.458511
100
AcDbArc
 50
52.121121
 51
127.878879
  0
ARC
  5
60F
100
AcDbEntity
  8
3
100
AcDbCircle
 10
-390.1811
 20
-52.07944
 30
0.0
 40
16.425
100
AcDbArc
 50
70.528779
 51
80.08702
  0
LINE
  5
610
100
AcDbEntity
  8
3
100
AcDbLine
 10
-406.551854
 20
-32.967968
 30
0.0
 11
-390.051854
 21
-32.967968
 31
0.0
  0
LINE
  5
611
100
AcDbEntity
  8
3
100
AcDbLine
 10
-402.489854
 20
-37.967968
 30
0.0
 11
-394.113854
 21
-37.967968
 31
0.0
  0
LINE
  5
612
100
AcDbEntity
  8
3
100
AcDbLine
 10
-402.489854
 20
-37.967968
 30
0.0
 11
-403.301854
 21
-37.155968
 31
0.0
  0
LINE
  5
613
100
AcDbEntity
  8
3
100
AcDbLine
 10
-403.301854
 20
-37.155968
 30
0.0
 11
-403.301854
 21
-32.967968
 31
0.0
  0
LINE
  5
614
100
AcDbEntity
  8
3
 62
     2
100
AcDbLine
 10
-402.489854
 20
-37.967968
 30
0.0
 11
-402.489854
 21
-32.967968
 31
0.0
  0
LINE
  5
615
100
AcDbEntity
  8
3
100
AcDbLine
 10
-394.113854
 20
-37.967968
 30
0.0
 11
-393.301854
 21
-37.155968
 31
0.0
  0
LINE
  5
616
100
AcDbEntity
  8
3
100
AcDbLine
 10
-393.301854
 20
-37.155968
 30
0.0
 11
-393.301854
 21
-32.967968
 31
0.0
  0
LINE
  5
617
100
AcDbEntity
  8
3
100
AcDbLine
 10
-393.301854
 20
-37.155968
 30
0.0
 11
-403.301854
 21
-37.155968
 31
0.0
  0
LINE
  5
618
100
AcDbEntity
  8
3
 62
     2
100
AcDbLine
 10
-394.113854
 20
-37.967968
 30
0.0
 11
-394.113854
 21
-32.967968
 31
0.0
  0
LINE
  5
619
100
AcDbEntity
  8
3
100
AcDbLine
 10
-388.501854
 20
-27.86286
 30
0.0
 11
-388.501854
 21
-32.073076
 31
0.0
  0
LINE
  5
61A
100
AcDbEntity
  8
3
100
AcDbLine
 10
-388.501854
 20
-32.073076
 30
0.0
 11
-390.051854
 21
-32.967968
 31
0.0
  0
LINE
  5
61B
100
AcDbEntity
  8
3
100
AcDbLine
 10
-393.401854
 20
-27.86286
 30
0.0
 11
-393.401854
 21
-32.073076
 31
0.0
  0
ARC
  5
61C
100
AcDbEntity
  8
3
100
AcDbCircle
 10
-390.951854
 20
-28.923516
 30
0.0
 40
3.990264
100
AcDbArc
 50
232.121121
 51
307.878879
  0
LINE
  5
61D
100
AcDbEntity
  8
3
100
AcDbLine
 10
-389.101854
 20
-26.967968
 30
0.0
 11
-407.501854
 21
-26.967968
 31
0.0
  0
LINE
  5
61E
100
AcDbEntity
  8
3
100
AcDbLine
 10
-408.101854
 20
-27.86286
 30
0.0
 11
-408.101854
 21
-32.073076
 31
0.0
  0
LINE
  5
61F
100
AcDbEntity
  8
3
100
AcDbLine
 10
-408.101854
 20
-32.073076
 30
0.0
 11
-406.551854
 21
-32.967968
 31
0.0
  0
LINE
  5
620
100
AcDbEntity
  8
3
100
AcDbLine
 10
-403.201854
 20
-27.86286
 30
0.0
 11
-403.201854
 21
-32.073076
 31
0.0
  0
ARC
  5
621
100
AcDbEntity
  8
3
100
AcDbCircle
 10
-405.651854
 20
-28.923516
 30
0.0
 40
3.990264
100
AcDbArc
 50
232.121121
 51
307.878879
  0
ARC
  5
622
100
AcDbEntity
  8
3
100
AcDbCircle
 10
-398.301854
 20
-18.21378
 30
0.0
 40
14.7
100
AcDbArc
 50
250.528779
 51
289.471221
  0
LINE
  5
623
100
AcDbEntity
  8
3
100
AcDbLine
 10
-389.101854
 20
-24.467968
 30
0.0
 11
-389.101854
 21
-26.967968
 31
0.0
  0
LINE
  5
624
100
AcDbEntity
  8
3
100
AcDbLine
 10
-407.501854
 20
-26.967968
 30
0.0
 11
-407.501854
 21
-24.467968
 31
0.0
  0
LINE
  5
625
100
AcDbEntity
  8
3
100
AcDbLine
 10
-398.301854
 20
-26.967968
 30
0.0
 11
-398.801854
 21
-24.467968
 31
0.0
  0
LINE
  5
626
100
AcDbEntity
  8
3
100
AcDbLine
 10
-398.301854
 20
-24.467968
 30
0.0
 11
-397.801854
 21
-26.967968
 31
0.0
  0
ARC
  5
627
100
AcDbEntity
  8
3
100
AcDbCircle
 10
-398.301854
 20
-41.722152
 30
0.0
 40
14.7
100
AcDbArc
 50
70.528779
 51
109.471221
  0
ARC
  5
628
100
AcDbEntity
  8
3
100
AcDbCircle
 10
-405.651854
 20
-31.01242
 30
0.0
 40
3.990264
100
AcDbArc
 50
52.121121
 51
127.878879
  0
LINE
  5
629
100
AcDbEntity
  8
3
100
AcDbLine
 10
-408.101854
 20
-27.86286
 30
0.0
 11
-406.551854
 21
-26.967968
 31
0.0
  0
ARC
  5
62A
100
AcDbEntity
  8
3
100
AcDbCircle
 10
-390.951854
 20
-31.01242
 30
0.0
 40
3.990264
100
AcDbArc
 50
52.121121
 51
127.878879
  0
LINE
  5
62B
100
AcDbEntity
  8
3
100
AcDbLine
 10
-388.501854
 20
-27.86286
 30
0.0
 11
-390.051854
 21
-26.967968
 31
0.0
  0
LINE
  5
62C
100
AcDbEntity
  8
3
100
AcDbLine
 10
-379.231926
 20
-67.0938
 30
0.0
 11
-379.231926
 21
-71.842136
 31
0.0
  0
LINE
  5
62D
100
AcDbEntity
  8
3
100
AcDbLine
 10
-379.231926
 20
-71.842136
 30
0.0
 11
-381.181926
 21
-72.967968
 31
0.0
  0
LINE
  5
62E
100
AcDbEntity
  8
3
100
AcDbLine
 10
-381.181926
 20
-72.967968
 30
0.0
 11
-399.181926
 21
-72.967968
 31
0.0
  0
LINE
  5
62F
100
AcDbEntity
  8
3
100
AcDbLine
 10
-384.706926
 20
-67.0938
 30
0.0
 11
-384.706926
 21
-71.842136
 31
0.0
  0
ARC
  5
630
100
AcDbEntity
  8
3
100
AcDbCircle
 10
-381.969426
 20
-68.322984
 30
0.0
 40
4.458512
100
AcDbArc
 50
232.121121
 51
307.878879
  0
ARC
  5
631
100
AcDbEntity
  8
3
100
AcDbCircle
 10
-390.181926
 20
-56.356496
 30
0.0
 40
16.425
100
AcDbArc
 50
250.528777
 51
289.471219
  0
LINE
  5
632
100
AcDbEntity
  8
3
100
AcDbLine
 10
-379.431926
 20
-65.967968
 30
0.0
 11
-400.931926
 21
-65.967968
 31
0.0
  0
LINE
  5
633
100
AcDbEntity
  8
3
100
AcDbLine
 10
-401.131926
 20
-67.0938
 30
0.0
 11
-401.131926
 21
-71.842136
 31
0.0
  0
LINE
  5
634
100
AcDbEntity
  8
3
100
AcDbLine
 10
-401.131926
 20
-71.842136
 30
0.0
 11
-399.181926
 21
-72.967968
 31
0.0
  0
LINE
  5
635
100
AcDbEntity
  8
3
100
AcDbLine
 10
-395.656926
 20
-67.0938
 30
0.0
 11
-395.656926
 21
-71.842136
 31
0.0
  0
ARC
  5
636
100
AcDbEntity
  8
3
100
AcDbCircle
 10
-398.394426
 20
-68.322984
 30
0.0
 40
4.458512
100
AcDbArc
 50
232.121121
 51
307.878879
  0
LINE
  5
637
100
AcDbEntity
  8
3
100
AcDbLine
 10
-379.431926
 20
-62.967968
 30
0.0
 11
-379.431926
 21
-65.967968
 31
0.0
  0
LINE
  5
638
100
AcDbEntity
  8
3
100
AcDbLine
 10
-400.931926
 20
-65.967968
 30
0.0
 11
-400.931926
 21
-62.967968
 31
0.0
  0
LINE
  5
639
100
AcDbEntity
  8
3
100
AcDbLine
 10
-390.181926
 20
-65.967968
 30
0.0
 11
-390.681926
 21
-62.967968
 31
0.0
  0
LINE
  5
63A
100
AcDbEntity
  8
3
100
AcDbLine
 10
-390.181926
 20
-62.967968
 30
0.0
 11
-389.681926
 21
-65.967968
 31
0.0
  0
LINE
  5
63B
100
AcDbEntity
  8
3
100
AcDbLine
 10
-395.234926
 20
-78.467968
 30
0.0
 11
-385.128926
 21
-78.467968
 31
0.0
  0
LINE
  5
63C
100
AcDbEntity
  8
3
100
AcDbLine
 10
-395.234926
 20
-78.467968
 30
0.0
 11
-396.181926
 21
-77.520968
 31
0.0
  0
LINE
  5
63D
100
AcDbEntity
  8
3
100
AcDbLine
 10
-396.181926
 20
-77.520968
 30
0.0
 11
-396.181926
 21
-72.967968
 31
0.0
  0
LINE
  5
63E
100
AcDbEntity
  8
3
 62
     2
100
AcDbLine
 10
-395.234926
 20
-78.467968
 30
0.0
 11
-395.234926
 21
-72.967968
 31
0.0
  0
LINE
  5
63F
100
AcDbEntity
  8
3
100
AcDbLine
 10
-385.128926
 20
-78.467968
 30
0.0
 11
-384.181926
 21
-77.520968
 31
0.0
  0
LINE
  5
640
100
AcDbEntity
  8
3
100
AcDbLine
 10
-384.181926
 20
-77.520968
 30
0.0
 11
-384.181926
 21
-72.967968
 31
0.0
  0
LINE
  5
641
100
AcDbEntity
  8
3
100
AcDbLine
 10
-384.181926
 20
-77.520968
 30
0.0
 11
-396.181926
 21
-77.520968
 31
0.0
  0
LINE
  5
642
100
AcDbEntity
  8
3
 62
     2
100
AcDbLine
 10
-385.128926
 20
-78.467968
 30
0.0
 11
-385.128926
 21
-72.967968
 31
0.0
  0
ARC
  5
643
100
AcDbEntity
  8
3
100
AcDbCircle
 10
-381.969426
 20
-70.612948
 30
0.0
 40
4.458512
100
AcDbArc
 50
52.121121
 51
127.878879
  0
ARC
  5
644
100
AcDbEntity
  8
3
100
AcDbCircle
 10
-390.181926
 20
-82.57944
 30
0.0
 40
16.425
100
AcDbArc
 50
70.528781
 51
109.471223
  0
ARC
  5
645
100
AcDbEntity
  8
3
100
AcDbCircle
 10
-398.394426
 20
-70.612948
 30
0.0
 40
4.458512
100
AcDbArc
 50
52.121121
 51
127.878879
  0
LINE
  5
646
100
AcDbEntity
  8
3
100
AcDbLine
 10
-401.131926
 20
-67.0938
 30
0.0
 11
-399.181926
 21
-65.967968
 31
0.0
  0
LINE
  5
647
100
AcDbEntity
  8
3
100
AcDbLine
 10
-379.231926
 20
-67.0938
 30
0.0
 11
-381.181926
 21
-65.967968
 31
0.0
  0
LINE
  5
648
100
AcDbEntity
  8
3
100
AcDbLine
 10
-467.620274
 20
-67.0938
 30
0.0
 11
-467.620274
 21
-71.842136
 31
0.0
  0
LINE
  5
649
100
AcDbEntity
  8
3
100
AcDbLine
 10
-467.620274
 20
-71.842136
 30
0.0
 11
-469.570274
 21
-72.967968
 31
0.0
  0
LINE
  5
64A
100
AcDbEntity
  8
3
100
AcDbLine
 10
-469.570274
 20
-72.967968
 30
0.0
 11
-487.570274
 21
-72.967968
 31
0.0
  0
LINE
  5
64B
100
AcDbEntity
  8
3
100
AcDbLine
 10
-473.095274
 20
-67.0938
 30
0.0
 11
-473.095274
 21
-71.842136
 31
0.0
  0
ARC
  5
64C
100
AcDbEntity
  8
3
100
AcDbCircle
 10
-470.357774
 20
-68.322984
 30
0.0
 40
4.458512
100
AcDbArc
 50
232.121121
 51
307.878879
  0
ARC
  5
64D
100
AcDbEntity
  8
3
100
AcDbCircle
 10
-478.570274
 20
-56.356496
 30
0.0
 40
16.425
100
AcDbArc
 50
250.528777
 51
289.471219
  0
LINE
  5
64E
100
AcDbEntity
  8
3
100
AcDbLine
 10
-467.820274
 20
-65.967968
 30
0.0
 11
-489.320274
 21
-65.967968
 31
0.0
  0
LINE
  5
64F
100
AcDbEntity
  8
3
100
AcDbLine
 10
-489.520274
 20
-67.0938
 30
0.0
 11
-489.520274
 21
-71.842136
 31
0.0
  0
LINE
  5
650
100
AcDbEntity
  8
3
100
AcDbLine
 10
-489.520274
 20
-71.842136
 30
0.0
 11
-487.570274
 21
-72.967968
 31
0.0
  0
LINE
  5
651
100
AcDbEntity
  8
3
100
AcDbLine
 10
-484.045274
 20
-67.0938
 30
0.0
 11
-484.045274
 21
-71.842136
 31
0.0
  0
ARC
  5
652
100
AcDbEntity
  8
3
100
AcDbCircle
 10
-486.782774
 20
-68.322984
 30
0.0
 40
4.458512
100
AcDbArc
 50
232.121121
 51
307.878879
  0
LINE
  5
653
100
AcDbEntity
  8
3
100
AcDbLine
 10
-467.820274
 20
-63.710566
 30
0.0
 11
-467.820274
 21
-65.967968
 31
0.0
  0
LINE
  5
654
100
AcDbEntity
  8
3
100
AcDbLine
 10
-489.320274
 20
-65.967968
 30
0.0
 11
-489.320274
 21
-62.967968
 31
0.0
  0
LINE
  5
655
100
AcDbEntity
  8
3
100
AcDbLine
 10
-478.570274
 20
-65.967968
 30
0.0
 11
-479.070274
 21
-62.967968
 31
0.0
  0
LINE
  5
656
100
AcDbEntity
  8
3
100
AcDbLine
 10
-478.570274
 20
-62.967968
 30
0.0
 11
-478.070274
 21
-65.967968
 31
0.0
  0
LINE
  5
657
100
AcDbEntity
  8
3
100
AcDbLine
 10
-483.623274
 20
-78.467968
 30
0.0
 11
-473.517274
 21
-78.467968
 31
0.0
  0
LINE
  5
658
100
AcDbEntity
  8
3
100
AcDbLine
 10
-483.623274
 20
-78.467968
 30
0.0
 11
-484.570274
 21
-77.520968
 31
0.0
  0
LINE
  5
659
100
AcDbEntity
  8
3
100
AcDbLine
 10
-484.570274
 20
-77.520968
 30
0.0
 11
-484.570274
 21
-72.967968
 31
0.0
  0
LINE
  5
65A
100
AcDbEntity
  8
3
 62
     2
100
AcDbLine
 10
-483.623274
 20
-78.467968
 30
0.0
 11
-483.623274
 21
-72.967968
 31
0.0
  0
LINE
  5
65B
100
AcDbEntity
  8
3
100
AcDbLine
 10
-473.517274
 20
-78.467968
 30
0.0
 11
-472.570274
 21
-77.520968
 31
0.0
  0
LINE
  5
65C
100
AcDbEntity
  8
3
100
AcDbLine
 10
-472.570274
 20
-77.520968
 30
0.0
 11
-472.570274
 21
-72.967968
 31
0.0
  0
LINE
  5
65D
100
AcDbEntity
  8
3
100
AcDbLine
 10
-472.570274
 20
-77.520968
 30
0.0
 11
-484.570274
 21
-77.520968
 31
0.0
  0
LINE
  5
65E
100
AcDbEntity
  8
3
 62
     2
100
AcDbLine
 10
-473.517274
 20
-78.467968
 30
0.0
 11
-473.517274
 21
-72.967968
 31
0.0
  0
ARC
  5
65F
100
AcDbEntity
  8
3
100
AcDbCircle
 10
-470.357774
 20
-70.612948
 30
0.0
 40
4.458512
100
AcDbArc
 50
52.121121
 51
127.878879
  0
ARC
  5
660
100
AcDbEntity
  8
3
100
AcDbCircle
 10
-478.570274
 20
-82.57944
 30
0.0
 40
16.425
100
AcDbArc
 50
70.528781
 51
109.471223
  0
ARC
  5
661
100
AcDbEntity
  8
3
100
AcDbCircle
 10
-486.782774
 20
-70.612948
 30
0.0
 40
4.458512
100
AcDbArc
 50
52.121121
 51
127.878879
  0
LINE
  5
662
100
AcDbEntity
  8
3
100
AcDbLine
 10
-489.520274
 20
-67.0938
 30
0.0
 11
-487.570274
 21
-65.967968
 31
0.0
  0
LINE
  5
663
100
AcDbEntity
  8
3
100
AcDbLine
 10
-467.620274
 20
-67.0938
 30
0.0
 11
-469.570274
 21
-65.967968
 31
0.0
  0
LINE
  5
664
100
AcDbEntity
  8
3
100
AcDbLine
 10
147.833758
 20
-26.967968
 30
0.0
 11
129.433758
 21
-26.967968
 31
0.0
  0
LINE
  5
665
100
AcDbEntity
  8
3
  6
CENTER
 62
     2
100
AcDbLine
 10
138.633758
 20
-7.514477
 30
0.0
 11
138.633758
 21
-40.367676
 31
0.0
  0
LINE
  5
666
100
AcDbEntity
  8
3
100
AcDbLine
 10
134.445758
 20
-37.967968
 30
0.0
 11
133.633758
 21
-37.155968
 31
0.0
  0
LINE
  5
667
100
AcDbEntity
  8
3
100
AcDbLine
 10
133.633758
 20
-37.155968
 30
0.0
 11
133.633758
 21
-32.967968
 31
0.0
  0
LINE
  5
668
100
AcDbEntity
  8
3
 62
     2
100
AcDbLine
 10
134.445758
 20
-37.967968
 30
0.0
 11
134.445758
 21
-32.967968
 31
0.0
  0
LINE
  5
669
100
AcDbEntity
  8
3
100
AcDbLine
 10
142.821758
 20
-37.967968
 30
0.0
 11
134.445758
 21
-37.967968
 31
0.0
  0
LINE
  5
66A
100
AcDbEntity
  8
3
100
AcDbLine
 10
142.821758
 20
-37.967968
 30
0.0
 11
143.633758
 21
-37.155968
 31
0.0
  0
LINE
  5
66B
100
AcDbEntity
  8
3
100
AcDbLine
 10
143.633758
 20
-37.155968
 30
0.0
 11
143.633758
 21
-32.967968
 31
0.0
  0
LINE
  5
66C
100
AcDbEntity
  8
3
100
AcDbLine
 10
143.633758
 20
-37.155968
 30
0.0
 11
133.633758
 21
-37.155968
 31
0.0
  0
LINE
  5
66D
100
AcDbEntity
  8
3
 62
     2
100
AcDbLine
 10
142.821758
 20
-37.967968
 30
0.0
 11
142.821758
 21
-32.967968
 31
0.0
  0
LINE
  5
66E
100
AcDbEntity
  8
3
100
AcDbLine
 10
147.133758
 20
-26.967968
 30
0.0
 11
147.133758
 21
-32.967968
 31
0.0
  0
ARC
  5
66F
100
AcDbEntity
  8
3
100
AcDbCircle
 10
142.883758
 20
-22.428532
 30
0.0
 40
10.539436
100
AcDbArc
 50
246.218654
 51
293.781346
  0
LINE
  5
670
100
AcDbEntity
  8
3
100
AcDbLine
 10
130.133758
 20
-26.967968
 30
0.0
 11
130.133758
 21
-32.967968
 31
0.0
  0
LINE
  5
671
100
AcDbEntity
  8
3
100
AcDbLine
 10
130.133758
 20
-32.967968
 30
0.0
 11
147.133758
 21
-32.967968
 31
0.0
  0
LINE
  5
672
100
AcDbEntity
  8
3
100
AcDbLine
 10
138.633758
 20
-27.86286
 30
0.0
 11
138.633758
 21
-32.073076
 31
0.0
  0
ARC
  5
673
100
AcDbEntity
  8
3
100
AcDbCircle
 10
134.383758
 20
-22.428532
 30
0.0
 40
10.539436
100
AcDbArc
 50
246.218654
 51
293.781346
  0
LINE
  5
674
100
AcDbEntity
  8
3
100
AcDbLine
 10
147.833758
 20
-24.467968
 30
0.0
 11
147.833758
 21
-26.967968
 31
0.0
  0
LINE
  5
675
100
AcDbEntity
  8
3
100
AcDbLine
 10
129.433758
 20
-26.967968
 30
0.0
 11
129.433758
 21
-24.467968
 31
0.0
  0
ARC
  5
676
100
AcDbEntity
  8
3
100
AcDbCircle
 10
142.883758
 20
-37.507404
 30
0.0
 40
10.539436
100
AcDbArc
 50
66.218654
 51
113.781346
  0
ARC
  5
677
100
AcDbEntity
  8
3
100
AcDbCircle
 10
134.383758
 20
-37.507404
 30
0.0
 40
10.539436
100
AcDbArc
 50
66.218654
 51
113.781346
  0
ARC
  5
678
100
AcDbEntity
  8
3
100
AcDbCircle
 10
135.240226
 20
-76.55124
 30
0.0
 40
10.583276
100
AcDbArc
 50
63.331913
 51
116.668091
  0
LINE
  5
679
100
AcDbEntity
  8
3
100
AcDbLine
 10
139.990226
 20
-65.967968
 30
0.0
 11
139.990226
 21
-72.967968
 31
0.0
  0
ARC
  5
67A
100
AcDbEntity
  8
3
100
AcDbCircle
 10
135.240226
 20
-62.384692
 30
0.0
 40
10.583276
100
AcDbArc
 50
243.331909
 51
296.668091
  0
LINE
  5
67B
100
AcDbEntity
  8
3
100
AcDbLine
 10
120.990226
 20
-65.967968
 30
0.0
 11
120.990226
 21
-72.967968
 31
0.0
  0
LINE
  5
67C
100
AcDbEntity
  8
3
100
AcDbLine
 10
120.990226
 20
-72.967968
 30
0.0
 11
139.990226
 21
-72.967968
 31
0.0
  0
LINE
  5
67D
100
AcDbEntity
  8
3
100
AcDbLine
 10
130.490226
 20
-67.0938
 30
0.0
 11
130.490226
 21
-71.842136
 31
0.0
  0
ARC
  5
67E
100
AcDbEntity
  8
3
100
AcDbCircle
 10
125.740226
 20
-62.384692
 30
0.0
 40
10.583276
100
AcDbArc
 50
243.331909
 51
296.668091
  0
LINE
  5
67F
100
AcDbEntity
  8
3
100
AcDbLine
 10
141.240226
 20
-65.967968
 30
0.0
 11
119.740226
 21
-65.967968
 31
0.0
  0
LINE
  5
680
100
AcDbEntity
  8
3
100
AcDbLine
 10
119.740226
 20
-65.967968
 30
0.0
 11
119.740226
 21
-62.967968
 31
0.0
  0
LINE
  5
681
100
AcDbEntity
  8
3
100
AcDbLine
 10
125.437226
 20
-78.467968
 30
0.0
 11
135.543226
 21
-78.467968
 31
0.0
  0
LINE
  5
682
100
AcDbEntity
  8
3
100
AcDbLine
 10
125.437226
 20
-78.467968
 30
0.0
 11
124.490226
 21
-77.520968
 31
0.0
  0
LINE
  5
683
100
AcDbEntity
  8
3
100
AcDbLine
 10
124.490226
 20
-77.520968
 30
0.0
 11
124.490226
 21
-72.967968
 31
0.0
  0
LINE
  5
684
100
AcDbEntity
  8
3
 62
     2
100
AcDbLine
 10
125.437226
 20
-78.467968
 30
0.0
 11
125.437226
 21
-72.967968
 31
0.0
  0
LINE
  5
685
100
AcDbEntity
  8
3
100
AcDbLine
 10
135.543226
 20
-78.467968
 30
0.0
 11
136.490226
 21
-77.520968
 31
0.0
  0
LINE
  5
686
100
AcDbEntity
  8
3
100
AcDbLine
 10
136.490226
 20
-77.520968
 30
0.0
 11
136.490226
 21
-72.967968
 31
0.0
  0
LINE
  5
687
100
AcDbEntity
  8
3
100
AcDbLine
 10
136.490226
 20
-77.520968
 30
0.0
 11
124.490226
 21
-77.520968
 31
0.0
  0
LINE
  5
688
100
AcDbEntity
  8
3
 62
     2
100
AcDbLine
 10
135.543226
 20
-78.467968
 30
0.0
 11
135.543226
 21
-72.967968
 31
0.0
  0
ARC
  5
689
100
AcDbEntity
  8
3
100
AcDbCircle
 10
125.740226
 20
-76.55124
 30
0.0
 40
10.583276
100
AcDbArc
 50
63.331909
 51
116.668091
  0
LINE
  5
68A
100
AcDbEntity
  8
3
100
AcDbLine
 10
141.240226
 20
-65.967968
 30
0.0
 11
141.240226
 21
-62.967968
 31
0.0
  0
LINE
  5
68B
100
AcDbEntity
  8
3
100
AcDbLine
 10
229.628574
 20
-65.967968
 30
0.0
 11
208.128574
 21
-65.967968
 31
0.0
  0
LINE
  5
68C
100
AcDbEntity
  8
3
100
AcDbLine
 10
228.378574
 20
-65.967968
 30
0.0
 11
228.378574
 21
-72.967968
 31
0.0
  0
ARC
  5
68D
100
AcDbEntity
  8
3
100
AcDbCircle
 10
223.628574
 20
-62.384692
 30
0.0
 40
10.583276
100
AcDbArc
 50
243.331909
 51
296.668091
  0
LINE
  5
68E
100
AcDbEntity
  8
3
100
AcDbLine
 10
209.378574
 20
-65.967968
 30
0.0
 11
209.378574
 21
-72.967968
 31
0.0
  0
LINE
  5
68F
100
AcDbEntity
  8
3
100
AcDbLine
 10
209.378574
 20
-72.967968
 30
0.0
 11
228.378574
 21
-72.967968
 31
0.0
  0
LINE
  5
690
100
AcDbEntity
  8
3
100
AcDbLine
 10
218.878574
 20
-67.0938
 30
0.0
 11
218.878574
 21
-71.842136
 31
0.0
  0
ARC
  5
691
100
AcDbEntity
  8
3
100
AcDbCircle
 10
214.128574
 20
-62.384692
 30
0.0
 40
10.583276
100
AcDbArc
 50
243.331909
 51
296.668091
  0
LINE
  5
692
100
AcDbEntity
  8
3
100
AcDbLine
 10
229.628574
 20
-62.967968
 30
0.0
 11
229.628574
 21
-65.967968
 31
0.0
  0
LINE
  5
693
100
AcDbEntity
  8
3
100
AcDbLine
 10
208.128574
 20
-65.967968
 30
0.0
 11
208.128574
 21
-62.967968
 31
0.0
  0
LINE
  5
694
100
AcDbEntity
  8
3
100
AcDbLine
 10
213.825574
 20
-78.467968
 30
0.0
 11
223.931574
 21
-78.467968
 31
0.0
  0
LINE
  5
695
100
AcDbEntity
  8
3
100
AcDbLine
 10
213.825574
 20
-78.467968
 30
0.0
 11
212.878574
 21
-77.520968
 31
0.0
  0
LINE
  5
696
100
AcDbEntity
  8
3
100
AcDbLine
 10
212.878574
 20
-77.520968
 30
0.0
 11
212.878574
 21
-72.967968
 31
0.0
  0
LINE
  5
697
100
AcDbEntity
  8
3
 62
     2
100
AcDbLine
 10
213.825574
 20
-78.467968
 30
0.0
 11
213.825574
 21
-72.967968
 31
0.0
  0
LINE
  5
698
100
AcDbEntity
  8
3
100
AcDbLine
 10
223.931574
 20
-78.467968
 30
0.0
 11
224.878574
 21
-77.520968
 31
0.0
  0
LINE
  5
699
100
AcDbEntity
  8
3
100
AcDbLine
 10
224.878574
 20
-77.520968
 30
0.0
 11
224.878574
 21
-72.967968
 31
0.0
  0
LINE
  5
69A
100
AcDbEntity
  8
3
100
AcDbLine
 10
224.878574
 20
-77.520968
 30
0.0
 11
212.878574
 21
-77.520968
 31
0.0
  0
LINE
  5
69B
100
AcDbEntity
  8
3
 62
     2
100
AcDbLine
 10
223.931574
 20
-78.467968
 30
0.0
 11
223.931574
 21
-72.967968
 31
0.0
  0
ARC
  5
69C
100
AcDbEntity
  8
3
100
AcDbCircle
 10
223.628574
 20
-76.55124
 30
0.0
 40
10.583276
100
AcDbArc
 50
63.331909
 51
116.668091
  0
ARC
  5
69D
100
AcDbEntity
  8
3
100
AcDbCircle
 10
214.128574
 20
-76.55124
 30
0.0
 40
10.583276
100
AcDbArc
 50
63.331909
 51
116.668091
  0
DIMENSION
  5
69E
100
AcDbEntity
  8
5
100
AcDbDimension
  2
*D0
 10
-610.639708
 20
449.228232
 30
0.0
 11
-635.739708
 21
388.078232
 31
0.0
  1
102.5
100
AcDbAlignedDimension
 13
-575.6572
 23
346.728232
 33
0.0
 14
-451.3761
 24
449.228232
 34
0.0
 50
90.0
100
AcDbRotatedDimension
  0
DIMENSION
  5
69F
100
AcDbEntity
  8
5
100
AcDbDimension
  2
*D1
 10
-610.639708
 20
346.728232
 30
0.0
 11
-631.119708
 21
302.698232
 31
0.0
  1
77.5
100
AcDbAlignedDimension
 13
-434.3761
 23
269.228232
 33
0.0
 14
-575.6572
 24
346.728232
 34
0.0
 50
90.0
100
AcDbRotatedDimension
  0
TEXT
  5
6A0
100
AcDbEntity
  8
5
100
AcDbText
 10
-273.328952
 20
104.236259
 30
0.0
 40
13.2
  1
350
 41
1.4
 72
     5
 11
-249.304952
 21
104.236259
 31
0.0
100
AcDbText
  0
DIMENSION
  5
6A1
100
AcDbEntity
  8
5
100
AcDbDimension
  2
*D2
 10
-84.561804
 20
102.236259
 30
0.0
 11
-259.468952
 21
104.236259
 31
0.0
100
AcDbAlignedDimension
 13
-434.3761
 23
33.707256
 33
0.0
 14
-84.561804
 24
60.988291
 34
0.0
100
AcDbRotatedDimension
  0
DIMENSION
  5
6A2
100
AcDbEntity
  8
5
100
AcDbDimension
  2
*D3
 10
54.014969
 20
-19.967968
 30
0.0
 11
42.774969
 21
-30.007968
 31
0.0
  1
28
100
AcDbAlignedDimension
 13
115.793527
 23
-47.967968
 33
0.0
 14
97.1844
 24
-19.967968
 34
0.0
 50
90.0
100
AcDbRotatedDimension
  0
TEXT
  5
6A3
100
AcDbEntity
  8
5
100
AcDbText
 10
52.014969
 20
18.240309
 30
0.0
 40
13.2
  1
97
 50
90.0
 41
1.4
 72
     5
 11
52.014969
 21
33.024308
 31
0.0
100
AcDbText
  0
DIMENSION
  5
6A4
100
AcDbEntity
  8
5
100
AcDbDimension
  2
*D4
 10
54.014969
 20
74.928585
 30
0.0
 11
51.514969
 21
27.480309
 31
0.0
100
AcDbAlignedDimension
 13
97.1844
 23
-19.967968
 33
0.0
 14
174.6844
 24
74.928585
 34
0.0
 50
90.0
100
AcDbRotatedDimension
  0
DIMENSION
  5
6A5
100
AcDbEntity
  8
5
100
AcDbDimension
  2
*D5
 10
54.014969
 20
-47.967968
 30
0.0
 11
38.154969
 21
-151.127968
 31
0.0
  1
205
100
AcDbAlignedDimension
 13
128.950064
 23
-252.967968
 33
0.0
 14
112.1844
 24
-47.967968
 34
0.0
 50
90.0
100
AcDbRotatedDimension
  0
DIMENSION
  5
6A6
100
AcDbEntity
  8
5
100
AcDbDimension
  2
*D6
 10
174.6844
 20
-456.332397
 30
0.0
 11
163.1844
 21
-447.732398
 31
0.0
  1
23
100
AcDbAlignedDimension
 13
151.6844
 23
-360.967968
 33
0.0
 14
174.6844
 24
-431.94056
 34
0.0
100
AcDbRotatedDimension
  0
DIMENSION
  5
6A7
100
AcDbEntity
  8
5
100
AcDbDimension
  2
*D7
 10
208.6844
 20
-494.996765
 30
0.0
 11
180.1844
 21
-486.396765
 31
0.0
  1
57
100
AcDbAlignedDimension
 13
151.6844
 23
-360.967968
 33
0.0
 14
208.6844
 24
-360.967968
 34
0.0
100
AcDbRotatedDimension
  0
TEXT
  5
6A8
100
AcDbEntity
  8
5
100
AcDbText
 10
52.014969
 20
-348.327968
 30
0.0
 40
13.2
  1
164
 50
90.0
 41
1.4
 72
     5
 11
52.014969
 21
-324.303968
 31
0.0
100
AcDbText
  0
DIMENSION
  5
6A9
100
AcDbEntity
  8
5
100
AcDbDimension
  2
*D8
 10
54.014969
 20
-252.967968
 30
0.0
 11
51.514969
 21
-334.467968
 31
0.0
100
AcDbAlignedDimension
 13
164.6844
 23
-415.967968
 33
0.0
 14
128.950064
 24
-252.967968
 34
0.0
 50
90.0
100
AcDbRotatedDimension
  0
LINE
  5
6AA
100
AcDbEntity
  8
18
100
AcDbLine
 10
277.929056
 20
-252.967968
 30
0.0
 11
397.929056
 21
-252.967968
 31
0.0
  0
LINE
  5
6AB
100
AcDbEntity
  8
18
100
AcDbLine
 10
277.929056
 20
-252.967968
 30
0.0
 11
317.929056
 21
-242.25
 31
0.0
  0
LINE
  5
6AC
100
AcDbEntity
  8
18
100
AcDbLine
 10
317.929056
 20
-242.25
 30
0.0
 11
317.929056
 21
-263.685936
 31
0.0
  0
LINE
  5
6AD
100
AcDbEntity
  8
18
100
AcDbLine
 10
277.929056
 20
-252.967968
 30
0.0
 11
317.929056
 21
-263.685936
 31
0.0
  0
LINE
  5
6AE
100
AcDbEntity
  8
18
100
AcDbLine
 10
274.694672
 20
460.370392
 30
0.0
 11
274.694672
 21
320.370392
 31
0.0
  0
LINE
  5
6AF
100
AcDbEntity
  8
18
100
AcDbLine
 10
722.694672
 20
360.370392
 30
0.0
 11
274.694672
 21
360.370392
 31
0.0
  0
LINE
  5
6B0
100
AcDbEntity
  8
18
100
AcDbLine
 10
722.694672
 20
340.370392
 30
0.0
 11
274.694672
 21
340.370392
 31
0.0
  0
LINE
  5
6B1
100
AcDbEntity
  8
18
100
AcDbLine
 10
722.694672
 20
320.370392
 30
0.0
 11
274.694672
 21
320.370392
 31
0.0
  0
LINE
  5
6B2
100
AcDbEntity
  8
18
100
AcDbLine
 10
386.694672
 20
460.370392
 30
0.0
 11
386.694672
 21
340.370392
 31
0.0
  0
LINE
  5
6B3
100
AcDbEntity
  8
18
100
AcDbLine
 10
498.694672
 20
460.370392
 30
0.0
 11
498.694672
 21
340.370392
 31
0.0
  0
LINE
  5
6B4
100
AcDbEntity
  8
18
100
AcDbLine
 10
610.694672
 20
460.370392
 30
0.0
 11
610.694672
 21
340.370392
 31
0.0
  0
LINE
  5
6B5
100
AcDbEntity
  8
18
100
AcDbLine
 10
722.694672
 20
460.370392
 30
0.0
 11
722.694672
 21
320.370392
 31
0.0
  0
LINE
  5
6B6
100
AcDbEntity
  8
18
100
AcDbLine
 10
274.694672
 20
460.370392
 30
0.0
 11
722.694672
 21
460.370392
 31
0.0
  0
LINE
  5
6B7
100
AcDbEntity
  8
18
100
AcDbLine
 10
308.745492
 20
403.391584
 30
0.0
 11
308.745492
 21
393.701584
 31
0.0
  0
LINE
  5
6B8
100
AcDbEntity
  8
18
100
AcDbLine
 10
308.745492
 20
403.391584
 30
0.0
 11
317.911336
 21
403.391584
 31
0.0
  0
LINE
  5
6B9
100
AcDbEntity
  8
18
100
AcDbLine
 10
338.339648
 20
403.391584
 30
0.0
 11
347.505492
 21
403.391584
 31
0.0
  0
LINE
  5
6BA
100
AcDbEntity
  8
18
100
AcDbLine
 10
308.745492
 20
393.701584
 30
0.0
 11
317.911336
 21
393.701584
 31
0.0
  0
LINE
  5
6BB
100
AcDbEntity
  8
18
100
AcDbLine
 10
338.339648
 20
393.701584
 30
0.0
 11
347.505492
 21
393.701584
 31
0.0
  0
LINE
  5
6BC
100
AcDbEntity
  8
18
100
AcDbLine
 10
324.737456
 20
400.161584
 30
0.0
 11
367.675788
 21
400.161584
 31
0.0
  0
LINE
  5
6BD
100
AcDbEntity
  8
18
100
AcDbLine
 10
324.737456
 20
396.931584
 30
0.0
 11
367.675788
 21
396.931584
 31
0.0
  0
LINE
  5
6BE
100
AcDbEntity
  8
18
100
AcDbLine
 10
319.923376
 20
399.179548
 30
0.0
 11
324.737456
 21
400.161584
 31
0.0
  0
LINE
  5
6BF
100
AcDbEntity
  8
18
100
AcDbLine
 10
319.923376
 20
397.91362
 30
0.0
 11
324.737456
 21
396.931584
 31
0.0
  0
ARC
  5
6C0
100
AcDbEntity
  8
18
100
AcDbCircle
 10
320.052496
 20
398.546584
 30
0.0
 40
0.646
100
AcDbArc
 50
101.529708
 51
258.470292
  0
LINE
  5
6C1
100
AcDbEntity
  8
18
100
AcDbLine
 10
347.505492
 20
393.701584
 30
0.0
 11
347.505492
 21
396.931584
 31
0.0
  0
LINE
  5
6C2
100
AcDbEntity
  8
18
100
AcDbLine
 10
347.505492
 20
400.161584
 30
0.0
 11
347.505492
 21
403.391584
 31
0.0
  0
ARC
  5
6C3
100
AcDbEntity
  8
18
100
AcDbCircle
 10
328.125492
 20
398.546584
 30
0.0
 40
11.305
100
AcDbArc
 50
8.213211
 51
351.786789
  0
LINE
  5
6C4
100
AcDbEntity
  8
18
100
AcDbLine
 10
367.675788
 20
400.161584
 30
0.0
 11
367.675788
 21
396.931584
 31
0.0
  0
LINE
  5
6C5
100
AcDbEntity
  8
18
  6
CENTER
 62
     2
100
AcDbLine
 10
632.385156
 20
398.054812
 30
0.0
 11
697.655092
 21
398.054812
 31
0.0
  0
LINE
  5
6C6
100
AcDbEntity
  8
18
100
AcDbLine
 10
692.467388
 20
393.209812
 30
0.0
 11
692.467388
 21
402.899812
 31
0.0
  0
LINE
  5
6C7
100
AcDbEntity
  8
18
100
AcDbLine
 10
692.467388
 20
393.209812
 30
0.0
 11
683.301544
 21
393.209812
 31
0.0
  0
LINE
  5
6C8
100
AcDbEntity
  8
18
100
AcDbLine
 10
662.873232
 20
393.209812
 30
0.0
 11
653.707388
 21
393.209812
 31
0.0
  0
LINE
  5
6C9
100
AcDbEntity
  8
18
100
AcDbLine
 10
692.467388
 20
402.899812
 30
0.0
 11
683.301544
 21
402.899812
 31
0.0
  0
LINE
  5
6CA
100
AcDbEntity
  8
18
100
AcDbLine
 10
662.873232
 20
402.899812
 30
0.0
 11
653.707388
 21
402.899812
 31
0.0
  0
LINE
  5
6CB
100
AcDbEntity
  8
18
100
AcDbLine
 10
671.472388
 20
394.666776
 30
0.0
 11
671.472388
 21
437.605108
 31
0.0
  0
LINE
  5
6CC
100
AcDbEntity
  8
18
100
AcDbLine
 10
674.702388
 20
394.666776
 30
0.0
 11
674.702388
 21
437.605108
 31
0.0
  0
LINE
  5
6CD
100
AcDbEntity
  8
18
100
AcDbLine
 10
672.454424
 20
389.852696
 30
0.0
 11
671.472388
 21
394.666776
 31
0.0
  0
LINE
  5
6CE
100
AcDbEntity
  8
18
100
AcDbLine
 10
673.720352
 20
389.852696
 30
0.0
 11
674.702388
 21
394.666776
 31
0.0
  0
ARC
  5
6CF
100
AcDbEntity
  8
18
100
AcDbCircle
 10
673.087388
 20
389.981816
 30
0.0
 40
0.646
100
AcDbArc
 50
191.529708
 51
348.470292
  0
LINE
  5
6D0
100
AcDbEntity
  8
18
100
AcDbLine
 10
653.707388
 20
402.899812
 30
0.0
 11
653.707388
 21
399.669812
 31
0.0
  0
LINE
  5
6D1
100
AcDbEntity
  8
18
100
AcDbLine
 10
653.707388
 20
399.669812
 30
0.0
 11
653.707388
 21
393.209812
 31
0.0
  0
LINE
  5
6D2
100
AcDbEntity
  8
18
100
AcDbLine
 10
671.472388
 20
437.605108
 30
0.0
 11
674.702388
 21
437.605108
 31
0.0
  0
ARC
  5
6D3
100
AcDbEntity
  8
18
100
AcDbCircle
 10
673.087388
 20
398.054812
 30
0.0
 40
11.305
100
AcDbArc
 50
98.213211
 51
81.786789
  0
LINE
  5
6D4
100
AcDbEntity
  8
18
100
AcDbLine
 10
579.084084
 20
417.573724
 30
0.0
 11
579.084084
 21
427.263724
 31
0.0
  0
LINE
  5
6D5
100
AcDbEntity
  8
18
100
AcDbLine
 10
579.084084
 20
417.573724
 30
0.0
 11
569.918244
 21
417.573724
 31
0.0
  0
LINE
  5
6D6
100
AcDbEntity
  8
18
100
AcDbLine
 10
549.489928
 20
417.573724
 30
0.0
 11
540.324084
 21
417.573724
 31
0.0
  0
LINE
  5
6D7
100
AcDbEntity
  8
18
100
AcDbLine
 10
579.084084
 20
427.263724
 30
0.0
 11
569.918244
 21
427.263724
 31
0.0
  0
LINE
  5
6D8
100
AcDbEntity
  8
18
100
AcDbLine
 10
549.489928
 20
427.263724
 30
0.0
 11
540.324084
 21
427.263724
 31
0.0
  0
LINE
  5
6D9
100
AcDbEntity
  8
18
100
AcDbLine
 10
563.09212
 20
420.803724
 30
0.0
 11
520.153788
 21
420.803724
 31
0.0
  0
LINE
  5
6DA
100
AcDbEntity
  8
18
100
AcDbLine
 10
563.09212
 20
424.033724
 30
0.0
 11
520.153788
 21
424.033724
 31
0.0
  0
LINE
  5
6DB
100
AcDbEntity
  8
18
100
AcDbLine
 10
567.9062
 20
421.78576
 30
0.0
 11
563.09212
 21
420.803724
 31
0.0
  0
LINE
  5
6DC
100
AcDbEntity
  8
18
100
AcDbLine
 10
567.9062
 20
423.051688
 30
0.0
 11
563.09212
 21
424.033724
 31
0.0
  0
ARC
  5
6DD
100
AcDbEntity
  8
18
100
AcDbCircle
 10
567.77708
 20
422.418724
 30
0.0
 40
0.646
100
AcDbArc
 50
281.529708
 51
78.470292
  0
LINE
  5
6DE
100
AcDbEntity
  8
18
100
AcDbLine
 10
540.324084
 20
427.263724
 30
0.0
 11
540.324084
 21
424.033724
 31
0.0
  0
LINE
  5
6DF
100
AcDbEntity
  8
18
100
AcDbLine
 10
540.324084
 20
420.803724
 30
0.0
 11
540.324084
 21
417.573724
 31
0.0
  0
ARC
  5
6E0
100
AcDbEntity
  8
18
100
AcDbCircle
 10
559.704084
 20
422.418724
 30
0.0
 40
11.305
100
AcDbArc
 50
188.213211
 51
171.786789
  0
LINE
  5
6E1
100
AcDbEntity
  8
18
100
AcDbLine
 10
520.153788
 20
420.803724
 30
0.0
 11
520.153788
 21
424.033724
 31
0.0
  0
LINE
  5
6E2
100
AcDbEntity
  8
18
  6
CENTER
 62
     2
100
AcDbLine
 10
478.152356
 20
417.906804
 30
0.0
 11
411.372984
 21
417.906804
 31
0.0
  0
LINE
  5
6E3
100
AcDbEntity
  8
18
100
AcDbLine
 10
418.070124
 20
422.751804
 30
0.0
 11
418.070124
 21
413.061804
 31
0.0
  0
LINE
  5
6E4
100
AcDbEntity
  8
18
100
AcDbLine
 10
418.070124
 20
422.751804
 30
0.0
 11
427.235964
 21
422.751804
 31
0.0
  0
LINE
  5
6E5
100
AcDbEntity
  8
18
100
AcDbLine
 10
447.66428
 20
422.751804
 30
0.0
 11
456.830124
 21
422.751804
 31
0.0
  0
LINE
  5
6E6
100
AcDbEntity
  8
18
100
AcDbLine
 10
418.070124
 20
413.061804
 30
0.0
 11
427.235964
 21
413.061804
 31
0.0
  0
LINE
  5
6E7
100
AcDbEntity
  8
18
100
AcDbLine
 10
447.66428
 20
413.061804
 30
0.0
 11
456.830124
 21
413.061804
 31
0.0
  0
LINE
  5
6E8
100
AcDbEntity
  8
18
100
AcDbLine
 10
439.065124
 20
421.29484
 30
0.0
 11
439.065124
 21
378.356508
 31
0.0
  0
LINE
  5
6E9
100
AcDbEntity
  8
18
100
AcDbLine
 10
435.835124
 20
421.29484
 30
0.0
 11
435.835124
 21
378.356508
 31
0.0
  0
LINE
  5
6EA
100
AcDbEntity
  8
18
100
AcDbLine
 10
438.083088
 20
426.10892
 30
0.0
 11
439.065124
 21
421.29484
 31
0.0
  0
LINE
  5
6EB
100
AcDbEntity
  8
18
100
AcDbLine
 10
436.817156
 20
426.10892
 30
0.0
 11
435.835124
 21
421.29484
 31
0.0
  0
ARC
  5
6EC
100
AcDbEntity
  8
18
100
AcDbCircle
 10
437.450124
 20
425.9798
 30
0.0
 40
0.646
100
AcDbArc
 50
11.529708
 51
168.470292
  0
LINE
  5
6ED
100
AcDbEntity
  8
18
100
AcDbLine
 10
456.830124
 20
413.061804
 30
0.0
 11
456.830124
 21
416.291804
 31
0.0
  0
LINE
  5
6EE
100
AcDbEntity
  8
18
100
AcDbLine
 10
456.830124
 20
416.291804
 30
0.0
 11
456.830124
 21
422.751804
 31
0.0
  0
LINE
  5
6EF
100
AcDbEntity
  8
18
100
AcDbLine
 10
439.065124
 20
378.356508
 30
0.0
 11
435.835124
 21
378.356508
 31
0.0
  0
ARC
  5
6F0
100
AcDbEntity
  8
18
100
AcDbCircle
 10
437.450124
 20
417.906804
 30
0.0
 40
11.305
100
AcDbArc
 50
278.213211
 51
261.786789
  0
ARC
  5
6F1
100
AcDbEntity
  8
18
 62
     2
100
AcDbCircle
 10
328.125492
 20
398.546584
 30
0.0
 40
36.0
100
AcDbArc
 50
2.571215
 51
48.757144
  0
LINE
  5
6F2
100
AcDbEntity
  8
18
 62
     2
100
AcDbLine
 10
364.064476
 20
400.11212
 30
0.0
 11
364.064476
 21
401.573488
 31
0.0
  0
LINE
  5
6F3
100
AcDbEntity
  8
18
 62
     2
100
AcDbLine
 10
364.064476
 20
407.839528
 30
0.0
 11
361.993924
 21
407.839528
 31
0.0
  0
LINE
  5
6F4
100
AcDbEntity
  8
18
 62
     2
100
AcDbLine
 10
361.993924
 20
407.839528
 30
0.0
 11
364.064476
 21
400.11212
 31
0.0
  0
LINE
  5
6F5
100
AcDbEntity
  8
18
 62
     2
100
AcDbLine
 10
364.064476
 20
400.11212
 30
0.0
 11
366.135028
 21
407.839528
 31
0.0
  0
LINE
  5
6F6
100
AcDbEntity
  8
18
 62
     2
100
AcDbLine
 10
366.135028
 20
407.839528
 30
0.0
 11
364.064476
 21
407.839528
 31
0.0
  0
LINE
  5
6F7
100
AcDbEntity
  8
18
 62
     2
100
AcDbLine
 10
351.8619
 20
425.752748
 30
0.0
 11
352.738792
 21
424.875884
 31
0.0
  0
LINE
  5
6F8
100
AcDbEntity
  8
18
 62
     2
100
AcDbLine
 10
357.326096
 20
420.28874
 30
0.0
 11
358.790172
 21
421.752868
 31
0.0
  0
LINE
  5
6F9
100
AcDbEntity
  8
18
 62
     2
100
AcDbLine
 10
358.790172
 20
421.752868
 30
0.0
 11
351.8619
 21
425.752748
 31
0.0
  0
LINE
  5
6FA
100
AcDbEntity
  8
18
 62
     2
100
AcDbLine
 10
351.8619
 20
425.752748
 30
0.0
 11
355.86202
 21
418.824612
 31
0.0
  0
LINE
  5
6FB
100
AcDbEntity
  8
18
 62
     2
100
AcDbLine
 10
355.86202
 20
418.824612
 30
0.0
 11
357.326096
 21
420.28874
 31
0.0
  0
LINE
  5
6FC
100
AcDbEntity
  8
18
  6
CENTER
 62
     2
100
AcDbLine
 10
328.125492
 20
415.961516
 30
0.0
 11
328.125492
 21
382.216736
 31
0.0
  0
LINE
  5
6FD
100
AcDbEntity
  8
18
 62
     2
100
AcDbLine
 10
328.255456
 20
418.859468
 30
0.0
 11
328.255456
 21
440.210328
 31
0.0
  0
LINE
  5
6FE
100
AcDbEntity
  8
18
 62
     2
100
AcDbLine
 10
328.255456
 20
426.586872
 30
0.0
 11
326.184904
 21
426.586872
 31
0.0
  0
LINE
  5
6FF
100
AcDbEntity
  8
18
 62
     2
100
AcDbLine
 10
326.184904
 20
426.586872
 30
0.0
 11
328.255456
 21
418.859468
 31
0.0
  0
LINE
  5
700
100
AcDbEntity
  8
18
 62
     2
100
AcDbLine
 10
328.255456
 20
418.859468
 30
0.0
 11
330.326008
 21
426.586872
 31
0.0
  0
LINE
  5
701
100
AcDbEntity
  8
18
 62
     2
100
AcDbLine
 10
330.326008
 20
426.586872
 30
0.0
 11
328.255456
 21
426.586872
 31
0.0
  0
LINE
  5
702
100
AcDbEntity
  8
18
  6
CENTER
 62
     2
100
AcDbLine
 10
559.704084
 20
439.833656
 30
0.0
 11
559.704084
 21
381.716488
 31
0.0
  0
TEXT
  5
703
100
AcDbEntity
  8
18
100
AcDbText
 10
489.196504
 20
-533.087648
 30
0.0
 40
12.0
  1
１
 72
     5
 11
498.796504
 21
-533.087648
 31
0.0
100
AcDbText
  0
TEXT
  5
704
100
AcDbEntity
  8
18
100
AcDbText
 10
488.750296
 20
-508.141052
 30
0.0
 40
12.0
  1
標準仕様
 72
     5
 11
534.350296
 21
-508.141052
 31
0.0
100
AcDbText
  0
TEXT
  5
705
100
AcDbEntity
  8
18
100
AcDbText
 10
328.634996
 20
-245.97738
 30
0.0
 40
20.0
  1
高圧側
 72
     5
 11
384.634996
 21
-245.97738
 31
0.0
100
AcDbText
  0
TEXT
  5
706
100
AcDbEntity
  8
18
100
AcDbText
 10
323.21762
 20
345.081908
 30
0.0
 40
12.0
  1
Ａ
 72
     5
 11
332.81762
 21
345.081908
 31
0.0
100
AcDbText
  0
TEXT
  5
707
100
AcDbEntity
  8
18
100
AcDbText
 10
435.169832
 20
344.761292
 30
0.0
 40
12.0
  1
Ｂ
 72
     5
 11
444.769832
 21
344.761292
 31
0.0
100
AcDbText
  0
TEXT
  5
708
100
AcDbEntity
  8
18
100
AcDbText
 10
547.21762
 20
345.081908
 30
0.0
 40
12.0
  1
Ｃ
 72
     5
 11
556.81762
 21
345.081908
 31
0.0
100
AcDbText
  0
TEXT
  5
709
100
AcDbEntity
  8
18
100
AcDbText
 10
434.528624
 20
324.654276
 30
0.0
 40
12.0
  1
アクチュエ－タ取付方向
 72
     5
 11
564.128624
 21
324.654276
 31
0.0
100
AcDbText
  0
TEXT
  5
70A
100
AcDbEntity
  8
18
100
AcDbText
 10
295.397584
 20
364.552856
 30
0.0
 40
10.0
  1
弁棒側　低圧側
 72
     5
 11
363.397584
 21
364.552856
 31
0.0
100
AcDbText
  0
TEXT
  5
70B
100
AcDbEntity
  8
18
100
AcDbText
 10
285.812224
 20
444.175628
 30
0.0
 40
10.0
  1
フラット側　高圧側
 72
     5
 11
373.812224
 21
444.175628
 31
0.0
100
AcDbText
  0
TEXT
  5
70C
100
AcDbEntity
  8
18
100
AcDbText
 10
659.21762
 20
345.081908
 30
0.0
 40
12.0
  1
Ｄ
 72
     5
 11
668.81762
 21
345.081908
 31
0.0
100
AcDbText
  0
TEXT
  5
70D
100
AcDbEntity
  8
18
100
AcDbText
 10
362.157936
 20
389.04402
 30
0.0
 40
6.46
  1
Ｓ
 72
     5
 11
367.325936
 21
389.04402
 31
0.0
100
AcDbText
  0
TEXT
  5
70E
100
AcDbEntity
  8
18
100
AcDbText
 10
634.427884
 20
414.543724
 30
0.0
 40
9.69
  1
　
 50
45.0
 72
     5
 11
633.057511
 21
413.173351
 31
0.0
100
AcDbText
  0
DIMENSION
  5
70F
100
AcDbEntity
  8
18
100
AcDbDimension
  2
*D9
 10
671.468764
 20
398.054812
 30
0.0
 11
619.869376
 21
450.364931
 31
0.0
 70
     2
100
AcDb2LineAngularDimension
 13
671.472388
 23
398.058436
 33
0.0
 14
671.472388
 24
398.054812
 34
0.0
 15
671.472388
 25
398.054812
 35
0.0
 16
645.847658
 26
423.679542
 36
0.0
  0
TEXT
  5
710
100
AcDbEntity
  8
18
100
AcDbText
 10
632.619852
 20
389.822156
 30
0.0
 40
6.46
  1
Ｏ
 72
     5
 11
637.787852
 21
389.822156
 31
0.0
100
AcDbText
  0
TEXT
  5
711
100
AcDbEntity
  8
18
100
AcDbText
 10
675.953284
 20
431.803256
 30
0.0
 40
6.46
  1
Ｓ
 72
     5
 11
681.121284
 21
431.803256
 31
0.0
100
AcDbText
  0
TEXT
  5
712
100
AcDbEntity
  8
18
100
AcDbText
 10
543.215176
 20
383.759216
 30
0.0
 40
9.69
  1
　
 50
135.0
 72
     5
 11
544.585549
 21
382.388843
 31
0.0
100
AcDbText
  0
DIMENSION
  5
713
100
AcDbEntity
  8
18
100
AcDbDimension
  2
*D10
 10
559.704084
 20
420.8001
 30
0.0
 11
508.101072
 21
369.907818
 31
0.0
 70
     2
100
AcDb2LineAngularDimension
 13
559.70046
 23
420.803724
 33
0.0
 14
559.704084
 24
420.803724
 34
0.0
 15
559.704084
 25
420.803724
 35
0.0
 16
534.079354
 26
395.178994
 36
0.0
  0
TEXT
  5
714
100
AcDbEntity
  8
18
100
AcDbText
 10
566.92364
 20
388.092064
 30
0.0
 40
6.46
  1
Ｏ
 50
180.0
 72
     5
 11
561.75564
 21
388.092064
 31
0.0
100
AcDbText
  0
TEXT
  5
715
100
AcDbEntity
  8
18
100
AcDbText
 10
525.67164
 20
431.921288
 30
0.0
 40
6.46
  1
Ｓ
 50
180.0
 72
     5
 11
520.50364
 21
431.921288
 31
0.0
100
AcDbText
  0
TEXT
  5
716
100
AcDbEntity
  8
18
100
AcDbText
 10
476.109628
 20
401.417892
 30
0.0
 40
9.69
  1
　
 50
225.0
 72
     5
 11
477.480001
 21
402.788265
 31
0.0
100
AcDbText
  0
DIMENSION
  5
717
100
AcDbEntity
  8
18
100
AcDbDimension
  2
*D11
 10
439.068748
 20
417.906804
 30
0.0
 11
490.668136
 21
365.596685
 31
0.0
 70
     2
100
AcDb2LineAngularDimension
 13
439.065124
 23
417.90318
 33
0.0
 14
439.065124
 24
417.906804
 34
0.0
 15
439.065124
 25
417.906804
 35
0.0
 16
464.689854
 26
392.282074
 36
0.0
  0
TEXT
  5
718
100
AcDbEntity
  8
18
100
AcDbText
 10
478.064632
 20
425.513796
 30
0.0
 40
6.46
  1
Ｏ
 50
180.0
 72
     5
 11
472.896632
 21
425.513796
 31
0.0
100
AcDbText
  0
TEXT
  5
719
100
AcDbEntity
  8
18
100
AcDbText
 10
433.8906
 20
384.221408
 30
0.0
 40
6.46
  1
Ｓ
 50
180.0
 72
     5
 11
428.7226
 21
384.221408
 31
0.0
100
AcDbText
  0
TEXT
  5
71A
100
AcDbEntity
  8
18
100
AcDbText
 10
350.1713
 20
423.3434
 30
0.0
 40
6.46
  1
Ｏ
 50
180.0
 72
     5
 11
345.0033
 21
423.3434
 31
0.0
100
AcDbText
  0
TEXT
  5
71B
100
AcDbEntity
  8
18
100
AcDbText
 10
505.190308
 20
-548.067076
 30
0.0
 40
12.0
  1
４
 72
     5
 11
514.790308
 21
-548.067076
 31
0.0
100
AcDbText
  0
TEXT
  5
71C
100
AcDbEntity
  8
18
100
AcDbText
 10
719.922423
 20
-507.674196
 30
0.0
 40
9.0
  1
′０５．　７．１９
 72
     5
 11
799.122423
 21
-507.674196
 31
0.0
100
AcDbText
  0
TEXT
  5
71D
100
AcDbEntity
  8
18
100
AcDbText
 10
488.750296
 20
-492.141052
 30
0.0
 40
12.0
  1
３０４Ａ－１ＴＡＳ　１５０Ａ
 72
     5
 11
654.350296
 21
-492.141052
 31
0.0
100
AcDbText
  0
TEXT
  5
71E
100
AcDbEntity
  8
18
100
AcDbText
 10
614.4
 20
-544.0
 30
0.0
 40
20.0
  1
Ｄ３－０３８１１
 72
     5
 11
770.4
 21
-544.0
 31
0.0
100
AcDbText
  0
LINE
  5
71F
100
AcDbEntity
  8
20
 62
     3
100
AcDbLine
 10
-720.0
 20
-554.0
 30
0.0
 11
800.0
 21
-554.0
 31
0.0
  0
LINE
  5
720
100
AcDbEntity
  8
20
 62
     3
100
AcDbLine
 10
-720.0
 20
528.0
 30
0.0
 11
800.0
 21
528.0
 31
0.0
  0
LINE
  5
721
100
AcDbEntity
  8
20
 62
     3
100
AcDbLine
 10
-720.0
 20
528.0
 30
0.0
 11
-720.0
 21
-554.0
 31
0.0
  0
LINE
  5
722
100
AcDbEntity
  8
20
 62
     3
100
AcDbLine
 10
800.0
 20
528.0
 30
0.0
 11
800.0
 21
-554.0
 31
0.0
  0
LINE
  5
723
100
AcDbEntity
  8
20
 62
     3
100
AcDbLine
 10
240.0
 20
-554.0
 30
0.0
 11
240.0
 21
-474.0
 31
0.0
  0
LINE
  5
724
100
AcDbEntity
  8
20
 62
     3
100
AcDbLine
 10
428.0
 20
-554.0
 30
0.0
 11
428.0
 21
-474.0
 31
0.0
  0
LINE
  5
725
100
AcDbEntity
  8
20
100
AcDbLine
 10
428.0
 20
-514.0
 30
0.0
 11
800.0
 21
-514.0
 31
0.0
  0
LINE
  5
726
100
AcDbEntity
  8
20
 62
     3
100
AcDbLine
 10
240.0
 20
-474.0
 30
0.0
 11
800.0
 21
-474.0
 31
0.0
  0
LINE
  5
727
100
AcDbEntity
  8
20
100
AcDbLine
 10
720.0
 20
-514.0
 30
0.0
 11
720.0
 21
-474.0
 31
0.0
  0
LINE
  5
728
100
AcDbEntity
  8
20
100
AcDbLine
 10
720.0
 20
-494.0
 30
0.0
 11
800.0
 21
-494.0
 31
0.0
  0
LINE
  5
729
100
AcDbEntity
  8
20
100
AcDbLine
 10
484.0
 20
-554.0
 30
0.0
 11
484.0
 21
-474.0
 31
0.0
  0
LINE
  5
72A
100
AcDbEntity
  8
20
100
AcDbLine
 10
524.0
 20
-554.0
 30
0.0
 11
524.0
 21
-514.0
 31
0.0
  0
LINE
  5
72B
100
AcDbEntity
  8
20
100
AcDbLine
 10
604.0
 20
-554.0
 30
0.0
 11
604.0
 21
-514.0
 31
0.0
  0
LINE
  5
72C
100
AcDbEntity
  8
20
100
AcDbLine
 10
494.91366
 20
-543.08634
 30
0.0
 11
511.593164
 21
-526.406836
 31
0.0
  0
TEXT
  5
72D
100
AcDbEntity
  8
20
100
AcDbText
 10
526.133316
 20
-529.987672
 30
0.0
 40
7.2
  1
ＤＲＡＷＩＮＧ　ＮＯ．
 72
     5
 11
603.893316
 21
-529.987672
 31
0.0
100
AcDbText
  0
TEXT
  5
72E
100
AcDbEntity
  8
20
100
AcDbText
 10
534.0
 20
-546.0
 30
0.0
 40
12.0
  1
図　　　番
 72
     5
 11
591.6
 21
-546.0
 31
0.0
100
AcDbText
  0
TEXT
  5
72F
100
AcDbEntity
  8
20
100
AcDbText
 10
744.0
 20
-488.0
 30
0.0
 40
8.0
  1
ＤＡＴＥ
 72
     5
 11
774.4
 21
-488.0
 31
0.0
100
AcDbText
  0
TEXT
  5
730
100
AcDbEntity
  8
20
100
AcDbText
 10
436.004284
 20
-531.844116
 30
0.0
 40
8.0
  1
ＳＣＡＬＥ
 72
     5
 11
474.404284
 21
-531.844116
 31
0.0
100
AcDbText
  0
TEXT
  5
731
100
AcDbEntity
  8
20
100
AcDbText
 10
432.0
 20
-546.0
 30
0.0
 40
12.0
  1
尺　　度
 72
     5
 11
477.6
 21
-546.0
 31
0.0
100
AcDbText
  0
TEXT
  5
732
100
AcDbEntity
  8
20
100
AcDbText
 10
430.004284
 20
-489.98354
 30
0.0
 40
8.0
  1
ＦＩＧ．ＮＯ．
 72
     5
 11
484.404284
 21
-489.98354
 31
0.0
100
AcDbText
  0
TEXT
  5
733
100
AcDbEntity
  8
20
100
AcDbText
 10
432.0
 20
-506.0
 30
0.0
 40
12.0
  1
名　　称
 72
     5
 11
477.6
 21
-506.0
 31
0.0
100
AcDbText
  0
TEXT
  5
734
100
AcDbEntity
  8
20
100
AcDbText
 10
242.2621
 20
-505.881012
 30
0.0
 40
9.2
  1
ＴＯＭＯＥ　ＶＡＬＶＥ　ＣＯ．，ＬＴＤ．
 72
     5
 11
424.4221
 21
-505.881012
 31
0.0
100
AcDbText
  0
TEXT
  5
735
100
AcDbEntity
  8
20
100
AcDbText
 10
270.0
 20
-533.15924
 30
0.0
 40
16.0
  1
巴バルブ株式会社
 72
     5
 11
394.8
 21
-533.15924
 31
0.0
100
AcDbText
  0
ENDSEC
  0
SECTION
  2
OBJECTS
  0
DICTIONARY
  5
7C0
100
AcDbDictionary
  3
ACAD_GROUP
350
7C1
  3
ACAD_MLINESTYLE
350
7C2
  0
DICTIONARY
  5
7C1
102
{ACAD_REACTORS
330
7C0
102
}
100
AcDbDictionary
  0
DICTIONARY
  5
7C2
102
{ACAD_REACTORS
330
7C0
102
}
100
AcDbDictionary
  3
STANDARD
350
7C3
  0
MLINESTYLE
  5
7C3
102
{ACAD_REACTORS
330
7C2
102
}
100
AcDbMlineStyle
  2
STANDARD
 70
     0
  3

 62
     0
 51
90.0
 52
90.0
 71
     2
 49
0.5
 62
   256
  6
BYLAYER
 49
-0.5
 62
   256
  6
BYLAYER
  0
ENDSEC
  0
EOF
