  0
SECTION
  2
HEADER
  9
$ACADVER
  1
AC1015
  9
$ACADMAINTVER
 70
    20
  9
$DWGCODEPAGE
  3
ANSI_932
  9
$INSBASE
 10
0.0
 20
0.0
 30
0.0
  9
$EXTMIN
 10
-0.0168468813740219
 20
-0.0074801588132232
 30
-0.0000000349181948
  9
$EXTMAX
 10
760.0100857862705
 20
541.0330636520482
 30
0.0000000814935747
  9
$LIMMIN
 10
0.0
 20
0.0
  9
$LIMMAX
 10
760.0
 20
541.0
  9
$ORTHOMODE
 70
     0
  9
$REGENMODE
 70
     1
  9
$FILLMODE
 70
     1
  9
$QTEXTMODE
 70
     0
  9
$MIRRTEXT
 70
     1
  9
$LTSCALE
 40
2.0
  9
$ATTMODE
 70
     1
  9
$TEXTSIZE
 40
1.0
  9
$TRACEWID
 40
0.05
  9
$TEXTSTYLE
  7
STANDARD
  9
$CLAYER
  8
0
  9
$CELTYPE
  6
CONTINUOUS
  9
$CECOLOR
 62
   256
  9
$CELTSCALE
 40
1.0
  9
$DISPSILH
 70
     0
  9
$DIMSCALE
 40
2.0
  9
$DIMASZ
 40
2.0
  9
$DIMEXO
 40
1.0
  9
$DIMDLI
 40
0.38
  9
$DIMRND
 40
0.0
  9
$DIMDLE
 40
0.0
  9
$DIMEXE
 40
1.0
  9
$DIMTP
 40
0.0
  9
$DIMTM
 40
0.0
  9
$DIMTXT
 40
3.299999999999998
  9
$DIMCEN
 40
0.09
  9
$DIMTSZ
 40
0.0
  9
$DIMTOL
 70
     0
  9
$DIMLIM
 70
     0
  9
$DIMTIH
 70
     0
  9
$DIMTOH
 70
     0
  9
$DIMSE1
 70
     0
  9
$DIMSE2
 70
     0
  9
$DIMTAD
 70
     1
  9
$DIMZIN
 70
     8
  9
$DIMBLK
  1
Closed
  9
$DIMASO
 70
     1
  9
$DIMSHO
 70
     1
  9
$DIMPOST
  1

  9
$DIMAPOST
  1

  9
$DIMALT
 70
     0
  9
$DIMALTD
 70
     2
  9
$DIMALTF
 40
25.4
  9
$DIMLFAC
 40
1.0
  9
$DIMTOFL
 70
     1
  9
$DIMTVP
 40
0.0
  9
$DIMTIX
 70
     0
  9
$DIMSOXD
 70
     0
  9
$DIMSAH
 70
     0
  9
$DIMBLK1
  1

  9
$DIMBLK2
  1

  9
$DIMSTYLE
  2
STANDARD
  9
$DIMCLRD
 70
   256
  9
$DIMCLRE
 70
   256
  9
$DIMCLRT
 70
     2
  9
$DIMTFAC
 40
1.0
  9
$DIMGAP
 40
1.0
  9
$DIMJUST
 70
     0
  9
$DIMSD1
 70
     0
  9
$DIMSD2
 70
     0
  9
$DIMTOLJ
 70
     1
  9
$DIMTZIN
 70
     0
  9
$DIMALTZ
 70
     0
  9
$DIMALTTZ
 70
     0
  9
$DIMUPT
 70
     0
  9
$DIMDEC
 70
     2
  9
$DIMTDEC
 70
     2
  9
$DIMALTU
 70
     2
  9
$DIMALTTD
 70
     2
  9
$DIMTXSTY
  7
STANDARD
  9
$DIMAUNIT
 70
     0
  9
$DIMADEC
 70
     0
  9
$DIMALTRND
 40
0.0
  9
$DIMAZIN
 70
     2
  9
$DIMDSEP
 70
    46
  9
$DIMATFIT
 70
     3
  9
$DIMFRAC
 70
     0
  9
$DIMLDRBLK
  1
Closed
  9
$DIMLUNIT
 70
     2
  9
$DIMLWD
 70
    -1
  9
$DIMLWE
 70
    -1
  9
$DIMTMOVE
 70
     0
  9
$LUNITS
 70
     2
  9
$LUPREC
 70
     4
  9
$SKETCHINC
 40
0.1
  9
$FILLETRAD
 40
0.0
  9
$AUNITS
 70
     0
  9
$AUPREC
 70
     0
  9
$MENU
  1
acad
  9
$ELEVATION
 40
0.0
  9
$PELEVATION
 40
0.0
  9
$THICKNESS
 40
0.0
  9
$LIMCHECK
 70
     0
  9
$CHAMFERA
 40
0.0
  9
$CHAMFERB
 40
0.0
  9
$CHAMFERC
 40
0.0
  9
$CHAMFERD
 40
0.0
  9
$SKPOLY
 70
     0
  9
$TDCREATE
 40
2454113.000000000
  9
$TDUCREATE
 40
2454112.625000000
  9
$TDUPDATE
 40
2454460.418390752
  9
$TDUUPDATE
 40
2454460.043390752
  9
$TDINDWG
 40
0.1780551505
  9
$TDUSRTIMER
 40
0.1780547801
  9
$USRTIMER
 70
     1
  9
$ANGBASE
 50
0.0
  9
$ANGDIR
 70
     0
  9
$PDMODE
 70
     0
  9
$PDSIZE
 40
0.0
  9
$PLINEWID
 40
0.0
  9
$SPLFRAME
 70
     0
  9
$SPLINETYPE
 70
     6
  9
$SPLINESEGS
 70
     8
  9
$HANDSEED
  5
5009
  9
$SURFTAB1
 70
     6
  9
$SURFTAB2
 70
     6
  9
$SURFTYPE
 70
     6
  9
$SURFU
 70
     6
  9
$SURFV
 70
     6
  9
$UCSBASE
  2

  9
$UCSNAME
  2

  9
$UCSORG
 10
0.0
 20
0.0
 30
0.0
  9
$UCSXDIR
 10
1.0
 20
0.0
 30
0.0
  9
$UCSYDIR
 10
0.0
 20
1.0
 30
0.0
  9
$UCSORTHOREF
  2

  9
$UCSORTHOVIEW
 70
     0
  9
$UCSORGTOP
 10
0.0
 20
0.0
 30
0.0
  9
$UCSORGBOTTOM
 10
0.0
 20
0.0
 30
0.0
  9
$UCSORGLEFT
 10
0.0
 20
0.0
 30
0.0
  9
$UCSORGRIGHT
 10
0.0
 20
0.0
 30
0.0
  9
$UCSORGFRONT
 10
0.0
 20
0.0
 30
0.0
  9
$UCSORGBACK
 10
0.0
 20
0.0
 30
0.0
  9
$PUCSBASE
  2

  9
$PUCSNAME
  2

  9
$PUCSORG
 10
0.0
 20
0.0
 30
0.0
  9
$PUCSXDIR
 10
1.0
 20
0.0
 30
0.0
  9
$PUCSYDIR
 10
0.0
 20
1.0
 30
0.0
  9
$PUCSORTHOREF
  2

  9
$PUCSORTHOVIEW
 70
     0
  9
$PUCSORGTOP
 10
0.0
 20
0.0
 30
0.0
  9
$PUCSORGBOTTOM
 10
0.0
 20
0.0
 30
0.0
  9
$PUCSORGLEFT
 10
0.0
 20
0.0
 30
0.0
  9
$PUCSORGRIGHT
 10
0.0
 20
0.0
 30
0.0
  9
$PUCSORGFRONT
 10
0.0
 20
0.0
 30
0.0
  9
$PUCSORGBACK
 10
0.0
 20
0.0
 30
0.0
  9
$USERI1
 70
     0
  9
$USERI2
 70
     0
  9
$USERI3
 70
     0
  9
$USERI4
 70
     0
  9
$USERI5
 70
     0
  9
$USERR1
 40
0.0
  9
$USERR2
 40
0.0
  9
$USERR3
 40
0.0
  9
$USERR4
 40
0.0
  9
$USERR5
 40
0.0
  9
$WORLDVIEW
 70
     1
  9
$SHADEDGE
 70
     3
  9
$SHADEDIF
 70
    70
  9
$TILEMODE
 70
     1
  9
$MAXACTVP
 70
    16
  9
$PINSBASE
 10
0.0
 20
0.0
 30
0.0
  9
$PLIMCHECK
 70
     0
  9
$PEXTMIN
 10
1.000000000000000E+20
 20
1.000000000000000E+20
 30
1.000000000000000E+20
  9
$PEXTMAX
 10
-1.000000000000000E+20
 20
-1.000000000000000E+20
 30
-1.000000000000000E+20
  9
$PLIMMIN
 10
0.0
 20
0.0
  9
$PLIMMAX
 10
12.0
 20
9.0
  9
$UNITMODE
 70
     0
  9
$VISRETAIN
 70
     0
  9
$PLINEGEN
 70
     1
  9
$PSLTSCALE
 70
     0
  9
$TREEDEPTH
 70
  3020
  9
$CMLSTYLE
  2
STANDARD
  9
$CMLJUST
 70
     0
  9
$CMLSCALE
 40
1.0
  9
$PROXYGRAPHICS
 70
     1
  9
$MEASUREMENT
 70
     0
  9
$CELWEIGHT
370
    -1
  9
$ENDCAPS
280
     0
  9
$JOINSTYLE
280
     0
  9
$LWDISPLAY
290
     0
  9
$INSUNITS
 70
     0
  9
$HYPERLINKBASE
  1

  9
$STYLESHEET
  1
monochrome.ctb
  9
$XEDIT
290
     1
  9
$CEPSNTYPE
380
     0
  9
$PSTYLEMODE
290
     1
  9
$FINGERPRINTGUID
  2
{AC9DE233-7BCF-487F-974B-84F4F813A19A}
  9
$VERSIONGUID
  2
{6AFA0C7A-9107-4B75-9EDA-D84523A07F25}
  9
$EXTNAMES
290
     1
  9
$PSVPSCALE
 40
0.0
  9
$OLESTARTUP
290
     0
  0
ENDSEC
  0
SECTION
  2
CLASSES
  0
CLASS
  1
IMAGE
  2
AcDbRasterImage
  3
ISM
 90
    32895
280
     0
281
     1
  0
CLASS
  1
DICTIONARYVAR
  2
AcDbDictionaryVar
  3
ObjectDBX Classes
 90
        0
280
     0
281
     0
  0
CLASS
  1
RASTERVARIABLES
  2
AcDbRasterVariables
  3
ISM
 90
    32768
280
     0
281
     0
  0
CLASS
  1
IMAGEDEF
  2
AcDbRasterImageDef
  3
ISM
 90
    32768
280
     0
281
     0
  0
CLASS
  1
IMAGEDEF_REACTOR
  2
AcDbRasterImageDefReactor
  3
ISM
 90
    32769
280
     0
281
     0
  0
CLASS
  1
IDBUFFER
  2
AcDbIdBuffer
  3
ObjectDBX Classes
 90
    32768
280
     0
281
     0
  0
CLASS
  1
SPATIAL_FILTER
  2
AcDbSpatialFilter
  3
ObjectDBX Classes
 90
    32768
280
     0
281
     0
  0
CLASS
  1
SORTENTSTABLE
  2
AcDbSortentsTable
  3
ObjectDBX Classes
 90
    32768
280
     0
281
     0
  0
CLASS
  1
LAYER_INDEX
  2
AcDbLayerIndex
  3
ObjectDBX Classes
 90
    32768
280
     0
281
     0
  0
CLASS
  1
SPATIAL_INDEX
  2
AcDbSpatialIndex
  3
ObjectDBX Classes
 90
    32768
280
     0
281
     0
  0
CLASS
  1
OBJECT_PTR
  2
CAseDLPNTableRecord
  3
"ASE-LPNTableRecord"
 90
    32769
280
     0
281
     0
  0
CLASS
  1
LAYOUT
  2
AcDbLayout
  3
ObjectDBX Classes
 90
        0
280
     0
281
     0
  0
CLASS
  1
PLOTSETTINGS
  2
AcDbPlotSettings
  3
ObjectDBX Classes
 90
    32768
280
     0
281
     0
  0
CLASS
  1
ACDBDICTIONARYWDFLT
  2
AcDbDictionaryWithDefault
  3
ObjectDBX Classes
 90
        0
280
     0
281
     0
  0
CLASS
  1
ACDBPLACEHOLDER
  2
AcDbPlaceHolder
  3
ObjectDBX Classes
 90
        0
280
     0
281
     0
  0
CLASS
  1
VBA_PROJECT
  2
AcDbVbaProject
  3
acad
 90
    32768
280
     0
281
     0
  0
CLASS
  1
WIPEOUT
  2
AcDbWipeout
  3
"WipeOut|Product Desc: Object Enabler for WipeOut entity^I^I^I^I^I^I|Company: Autodesk, Inc.^I^I^I^I^I^I|WEB Address: www.autodesk.com"
 90
    32895
280
     0
281
     1
  0
CLASS
  1
WIPEOUTVARIABLES
  2
AcDbWipeoutVariables
  3
"WipeOut|Product Desc:     WipeOut Dbx Application|Company:          Autodesk, Inc.|WEB Address:      www.autodesk.com"
 90
    32768
280
     0
281
     0
  0
CLASS
  1
RTEXT
  2
RText
  3
RText|AutoCAD Express Tool|expresstools@autodesk.com
 90
    32768
280
     0
281
     1
  0
CLASS
  1
ARCALIGNEDTEXT
  2
AcDbArcAlignedText
  3
ATEXT|AutoCAD Express Tool|expresstools@autodesk.com
 90
    32768
280
     0
281
     1
  0
ENDSEC
  0
SECTION
  2
TABLES
  0
TABLE
  2
VPORT
  5
6
330
0
100
AcDbSymbolTable
 70
     2
  0
VPORT
  5
5000
330
6
100
AcDbSymbolTableRecord
100
AcDbViewportTableRecord
  2
*Active
 70
     0
 10
0.0
 20
0.0
 11
1.0
 21
1.0
 12
226.9677229935385
 22
298.2007120700131
 13
0.0
 23
0.0
 14
1.0
 24
1.0
 15
0.0
 25
0.0
 16
0.0
 26
0.0
 36
1.0
 17
0.0
 27
0.0
 37
0.0
 40
714.4284028300027
 41
1.841085271317829
 42
50.0
 43
0.0
 44
0.0
 50
0.0
 51
0.0
 71
     0
 72
   500
 73
     1
 74
     1
 75
     0
 76
     0
 77
     0
 78
     0
281
     0
 65
     1
110
0.0
120
0.0
130
0.0
111
1.0
121
0.0
131
0.0
112
0.0
122
1.0
132
0.0
 79
     0
146
0.0
  0
ENDTAB
  0
TABLE
  2
LTYPE
  5
3
330
0
100
AcDbSymbolTable
 70
     3
  0
LTYPE
  5
C
330
3
100
AcDbSymbolTableRecord
100
AcDbLinetypeTableRecord
  2
BYBLOCK
 70
     0
  3

 72
    65
 73
     0
 40
0.0
  0
LTYPE
  5
D
330
3
100
AcDbSymbolTableRecord
100
AcDbLinetypeTableRecord
  2
BYLAYER
 70
     0
  3

 72
    65
 73
     0
 40
0.0
  0
LTYPE
  5
E
330
3
100
AcDbSymbolTableRecord
100
AcDbLinetypeTableRecord
  2
CONTINUOUS
 70
     0
  3
Solid line
 72
    65
 73
     0
 40
0.0
  0
LTYPE
  5
10
330
3
100
AcDbSymbolTableRecord
100
AcDbLinetypeTableRecord
  2
CENTER
 70
     0
  3
____ _ ____ _ ____ _ ____ _ ____ _ ____ _ ____
 72
    65
 73
     4
 40
12.0
 49
9.0
 74
     0
 49
-1.0
 74
     0
 49
1.0
 74
     0
 49
-1.0
 74
     0
  0
LTYPE
  5
D63
330
3
100
AcDbSymbolTableRecord
100
AcDbLinetypeTableRecord
  2
HIDDEN
 70
     0
  3
_ _ _ _ _ _ _ _ _ _ _ _ _ _ _ _ _ _ _ _ _ _ _
 72
    65
 73
     2
 40
3.2
 49
2.399999999999999
 74
     0
 49
-0.8
 74
     0
  0
ENDTAB
  0
TABLE
  2
LAYER
  5
1
330
0
100
AcDbSymbolTable
 70
     8
  0
LAYER
  5
15
330
1
100
AcDbSymbolTableRecord
100
AcDbLayerTableRecord
  2
0
 70
     0
 62
     7
  6
CONTINUOUS
370
    -3
390
696
  0
LAYER
  5
69E
330
1
100
AcDbSymbolTableRecord
100
AcDbLayerTableRecord
  2
FLAME
 70
     0
 62
     3
  6
CONTINUOUS
370
    40
390
696
  0
LAYER
  5
14E4
330
1
100
AcDbSymbolTableRecord
100
AcDbLayerTableRecord
  2
scale
 70
     0
 62
     6
  6
CONTINUOUS
370
    13
390
696
  0
LAYER
  5
14E5
330
1
100
AcDbSymbolTableRecord
100
AcDbLayerTableRecord
  2
Defpoints
 70
     1
 62
     7
  6
CONTINUOUS
290
     0
370
    -3
390
696
  0
LAYER
  5
37DE
330
1
100
AcDbSymbolTableRecord
100
AcDbLayerTableRecord
  2
3
 70
     0
 62
     7
  6
CONTINUOUS
370
    -3
390
696
  0
LAYER
  5
426B
330
1
100
AcDbSymbolTableRecord
100
AcDbLayerTableRecord
  2
1
 70
     0
 62
     7
  6
CONTINUOUS
370
    -3
390
696
  0
LAYER
  5
426C
330
1
100
AcDbSymbolTableRecord
100
AcDbLayerTableRecord
  2
2
 70
     0
 62
     7
  6
CONTINUOUS
370
    -3
390
696
  0
LAYER
  5
4E12
330
1
100
AcDbSymbolTableRecord
100
AcDbLayerTableRecord
  2
NOTE
 70
     0
 62
     7
  6
CONTINUOUS
370
    -3
390
696
  0
ENDTAB
  0
TABLE
  2
STYLE
  5
2
330
0
100
AcDbSymbolTable
 70
     1
  0
STYLE
  5
1F
330
2
100
AcDbSymbolTableRecord
100
AcDbTextStyleTableRecord
  2
STANDARD
 70
     0
 40
0.0
 41
1.0
 50
0.0
 71
     0
 42
1.0
  3
simplex.shx
  4
BIGFONT.shx
  0
ENDTAB
  0
TABLE
  2
VIEW
  5
4
330
0
100
AcDbSymbolTable
 70
     0
  0
ENDTAB
  0
TABLE
  2
UCS
  5
5
330
0
100
AcDbSymbolTable
 70
     0
  0
ENDTAB
  0
TABLE
  2
APPID
  5
7
330
0
100
AcDbSymbolTable
 70
     1
  0
APPID
  5
1E
330
7
100
AcDbSymbolTableRecord
100
AcDbRegAppTableRecord
  2
ACAD
 70
     0
  0
ENDTAB
  0
TABLE
  2
DIMSTYLE
  5
8
330
0
100
AcDbSymbolTable
 70
     1
100
AcDbDimStyleTable
 71
     1
340
31
  0
DIMSTYLE
105
31
102
{ACAD_REACTORS
330
47DC
330
47DF
330
47E2
330
4848
330
484A
330
484C
330
484D
330
484E
330
4850
330
4851
330
4852
330
4853
102
}
330
8
100
AcDbSymbolTableRecord
100
AcDbDimStyleTableRecord
  2
STANDARD
 70
     0
 40
2.0
 41
2.0
 42
1.0
 44
1.0
 73
     0
 74
     0
 77
     1
 78
     8
 79
     2
140
3.299999999999998
147
1.0
172
     1
176
   256
177
   256
178
     2
271
     2
272
     2
340
1F
341
14CF
342
14CF
371
    -1
372
    -1
  0
ENDTAB
  0
TABLE
  2
BLOCK_RECORD
  5
2C
330
0
100
AcDbSymbolTable
 70
    13
  0
BLOCK_RECORD
  5
2A
330
2C
100
AcDbSymbolTableRecord
100
AcDbBlockTableRecord
  2
*MODEL_SPACE
340
69B
  0
BLOCK_RECORD
  5
2B
330
2C
100
AcDbSymbolTableRecord
100
AcDbBlockTableRecord
  2
*PAPER_SPACE
340
69C
  0
BLOCK_RECORD
  5
14CF
330
2C
100
AcDbSymbolTableRecord
100
AcDbBlockTableRecord
  2
_Closed
340
0
102
{BLKREFS
331
4F5D
331
4F5E
331
4F66
331
4F67
331
4F6F
331
4F70
331
4F78
331
4F79
331
4F81
331
4F82
331
4F8A
331
4F8B
331
4F93
331
4F94
331
4F9C
331
4F9D
331
4FA5
331
4FA6
331
4FE2
331
4FE3
331
4FED
331
4FEE
331
4FF8
331
4FF9
102
}
  0
BLOCK_RECORD
  5
4D0A
330
2C
100
AcDbSymbolTableRecord
100
AcDbBlockTableRecord
  2
*D1
340
0
  0
BLOCK_RECORD
  5
4D18
330
2C
100
AcDbSymbolTableRecord
100
AcDbBlockTableRecord
  2
*D2
340
0
  0
BLOCK_RECORD
  5
4D26
330
2C
100
AcDbSymbolTableRecord
100
AcDbBlockTableRecord
  2
*D3
340
0
  0
BLOCK_RECORD
  5
4D34
330
2C
100
AcDbSymbolTableRecord
100
AcDbBlockTableRecord
  2
*D4
340
0
  0
BLOCK_RECORD
  5
4D40
330
2C
100
AcDbSymbolTableRecord
100
AcDbBlockTableRecord
  2
*D5
340
0
  0
BLOCK_RECORD
  5
4D4C
330
2C
100
AcDbSymbolTableRecord
100
AcDbBlockTableRecord
  2
*D6
340
0
  0
BLOCK_RECORD
  5
4D58
330
2C
100
AcDbSymbolTableRecord
100
AcDbBlockTableRecord
  2
*D7
340
0
  0
BLOCK_RECORD
  5
4D64
330
2C
100
AcDbSymbolTableRecord
100
AcDbBlockTableRecord
  2
*D8
340
0
  0
BLOCK_RECORD
  5
4D70
330
2C
100
AcDbSymbolTableRecord
100
AcDbBlockTableRecord
  2
*D9
340
0
  0
BLOCK_RECORD
  5
4D7C
330
2C
100
AcDbSymbolTableRecord
100
AcDbBlockTableRecord
  2
*D10
340
0
  0
BLOCK_RECORD
  5
4D88
330
2C
100
AcDbSymbolTableRecord
100
AcDbBlockTableRecord
  2
*D11
340
0
  0
BLOCK_RECORD
  5
4D94
330
2C
100
AcDbSymbolTableRecord
100
AcDbBlockTableRecord
  2
*D12
340
0
  0
ENDTAB
  0
ENDSEC
  0
SECTION
  2
BLOCKS
  0
BLOCK
  5
2D
330
2A
100
AcDbEntity
  8
0
100
AcDbBlockBegin
  2
*MODEL_SPACE
 70
     0
 10
0.0
 20
0.0
 30
0.0
  3
*MODEL_SPACE
  1

  0
ENDBLK
  5
2E
330
2A
100
AcDbEntity
  8
0
100
AcDbBlockEnd
  0
BLOCK
  5
2F
330
2B
100
AcDbEntity
 67
     1
  8
0
100
AcDbBlockBegin
  2
*PAPER_SPACE
 70
     0
 10
0.0
 20
0.0
 30
0.0
  3
*PAPER_SPACE
  1

  0
ENDBLK
  5
30
330
2B
100
AcDbEntity
 67
     1
  8
0
100
AcDbBlockEnd
  0
BLOCK
  5
14D0
330
14CF
100
AcDbEntity
  8
0
100
AcDbBlockBegin
  2
_Closed
 70
     0
 10
0.0
 20
0.0
 30
0.0
  3
_Closed
  1

  0
LINE
  5
14D1
330
14CF
100
AcDbEntity
  8
0
  6
ByBlock
 62
     0
370
    -2
100
AcDbLine
 10
-1.0
 20
0.1666666666666666
 30
0.0
 11
0.0
 21
0.0
 31
0.0
  0
LINE
  5
14D2
330
14CF
100
AcDbEntity
  8
0
  6
ByBlock
 62
     0
370
    -2
100
AcDbLine
 10
0.0
 20
0.0
 30
0.0
 11
-1.0
 21
-0.1666666666666666
 31
0.0
  0
LINE
  5
14D3
330
14CF
100
AcDbEntity
  8
0
  6
ByBlock
 62
     0
370
    -2
100
AcDbLine
 10
-1.0
 20
0.1666666666666666
 30
0.0
 11
-1.0
 21
-0.1666666666666666
 31
0.0
  0
LINE
  5
14D4
330
14CF
100
AcDbEntity
  8
0
  6
ByBlock
 62
     0
370
    -2
100
AcDbLine
 10
0.0
 20
0.0
 30
0.0
 11
-1.0
 21
0.0
 31
0.0
  0
ENDBLK
  5
14D5
330
14CF
100
AcDbEntity
  8
0
100
AcDbBlockEnd
  0
BLOCK
  5
4D16
330
4D0A
100
AcDbEntity
  8
0
100
AcDbBlockBegin
  2
*D1
 70
     1
 10
0.0
 20
0.0
 30
0.0
  3
*D1
  1

  0
LINE
  5
4FEA
330
4D0A
100
AcDbEntity
  8
scale
100
AcDbLine
 10
579.5325620000219
 20
484.9515899999998
 30
0.0
 11
579.5325620004238
 21
466.8339816509254
 31
0.0
  0
LINE
  5
4FEB
330
4D0A
100
AcDbEntity
  8
scale
100
AcDbLine
 10
580.534374
 20
485.953402000022
 30
0.0
 11
598.651982349074
 21
485.953402000424
 31
0.0
  0
ARC
  5
4FEC
330
4D0A
100
AcDbEntity
  8
scale
100
AcDbCircle
 10
579.5325619999998
 20
485.9534019999997
 30
0.0
 40
18.11942034907431
100
AcDbArc
 50
276.3274546621727
 51
353.6725453403692
  0
INSERT
  5
4FED
330
4D0A
100
AcDbEntity
  8
scale
100
AcDbBlockReference
  2
_Closed
 10
579.5325620004016
 20
467.8339816509255
 30
0.0
 41
2.0
 42
2.0
 43
2.0
 50
183.1637273317218
  0
INSERT
  5
4FEE
330
4D0A
100
AcDbEntity
  8
scale
100
AcDbBlockReference
  2
_Closed
 10
597.651982349074
 20
485.9534020004018
 30
0.0
 41
2.0
 42
2.0
 43
2.0
 50
86.83627267082014
  0
MTEXT
  5
4FEF
330
4D0A
100
AcDbEntity
  8
scale
 62
     2
100
AcDbMText
 10
590.4710940301395
 20
475.0148699704282
 30
0.0
 40
3.299999999999998
 41
0.0
 71
     5
 72
     1
  1
\A1;90°
 11
0.7071067811865476
 21
0.7071067811865475
 31
0.0
 73
     1
 44
1.0
1001
ACAD
1000
MTEXTBEGIN
1070
    73
1070
     1
1070
    44
1040
1.0
1070
    74
1070
     0
1000
MTEXTEND
  0
POINT
  5
4FF0
330
4D0A
100
AcDbEntity
  8
Defpoints
 62
     0
100
AcDbPoint
 10
588.5922721748849
 20
470.2615236760537
 30
0.0
  0
POINT
  5
4FF1
330
4D0A
100
AcDbEntity
  8
Defpoints
 62
     0
100
AcDbPoint
 10
579.5325619999998
 20
485.9534019999997
 30
0.0
  0
POINT
  5
4FF2
330
4D0A
100
AcDbEntity
  8
Defpoints
 62
     0
100
AcDbPoint
 10
579.5325619999998
 20
485.9515899999999
 30
0.0
  0
POINT
  5
4FF3
330
4D0A
100
AcDbEntity
  8
Defpoints
 62
     0
100
AcDbPoint
 10
579.5325619999998
 20
485.9534019999997
 30
0.0
  0
POINT
  5
4FF4
330
4D0A
100
AcDbEntity
  8
Defpoints
 62
     0
100
AcDbPoint
 10
579.534374
 20
485.9534019999998
 30
0.0
  0
ENDBLK
  5
4D17
330
4D0A
100
AcDbEntity
  8
0
100
AcDbBlockEnd
  0
BLOCK
  5
4D24
330
4D18
100
AcDbEntity
  8
0
100
AcDbBlockBegin
  2
*D2
 70
     1
 10
0.0
 20
0.0
 30
0.0
  3
*D2
  1

  0
LINE
  5
4FDF
330
4D18
100
AcDbEntity
  8
scale
100
AcDbLine
 10
638.8502299999999
 20
487.4018620000221
 30
0.0
 11
620.7326216509255
 21
487.401862000424
 31
0.0
  0
LINE
  5
4FE0
330
4D18
100
AcDbEntity
  8
scale
100
AcDbLine
 10
639.8520420000443
 20
486.4000500000001
 30
0.0
 11
639.852042000848
 21
468.2824416509255
 31
0.0
  0
ARC
  5
4FE1
330
4D18
100
AcDbEntity
  8
scale
100
AcDbCircle
 10
639.8520419999998
 20
487.4018619999999
 30
0.0
 40
18.11942034907437
100
AcDbArc
 50
186.3274546596308
 51
263.6725453416401
  0
INSERT
  5
4FE2
330
4D18
100
AcDbEntity
  8
scale
100
AcDbBlockReference
  2
_Closed
 10
621.7326216509254
 20
487.4018620004018
 30
0.0
 41
2.0
 42
2.0
 43
2.0
 50
93.1637273291799
  0
INSERT
  5
4FE3
330
4D18
100
AcDbEntity
  8
scale
100
AcDbBlockReference
  2
_Closed
 10
639.8520420008037
 20
469.2824416509255
 30
0.0
 41
2.0
 42
2.0
 43
2.0
 50
356.8362726720911
  0
MTEXT
  5
4FE4
330
4D18
100
AcDbEntity
  8
scale
 62
     2
100
AcDbMText
 10
628.913509970286
 20
476.4633299700022
 30
0.0
 40
3.299999999999998
 41
0.0
 71
     5
 72
     1
  1
\A1;90°
 11
0.7071067811865476
 21
-0.7071067811865475
 31
0.0
 73
     1
 44
1.0
1001
ACAD
1000
MTEXTBEGIN
1070
    73
1070
     1
1070
    44
1040
1.0
1070
    74
1070
     0
1000
MTEXTEND
  0
POINT
  5
4FE5
330
4D18
100
AcDbEntity
  8
Defpoints
 62
     0
100
AcDbPoint
 10
624.1601636758526
 20
478.3421518254628
 30
0.0
  0
POINT
  5
4FE6
330
4D18
100
AcDbEntity
  8
Defpoints
 62
     0
100
AcDbPoint
 10
639.8520419999998
 20
487.4018619999999
 30
0.0
  0
POINT
  5
4FE7
330
4D18
100
AcDbEntity
  8
Defpoints
 62
     0
100
AcDbPoint
 10
639.85023
 20
487.401862
 30
0.0
  0
POINT
  5
4FE8
330
4D18
100
AcDbEntity
  8
Defpoints
 62
     0
100
AcDbPoint
 10
639.8520419999998
 20
487.4018619999999
 30
0.0
  0
POINT
  5
4FE9
330
4D18
100
AcDbEntity
  8
Defpoints
 62
     0
100
AcDbPoint
 10
639.8520419999998
 20
487.4000500000001
 30
0.0
  0
ENDBLK
  5
4D25
330
4D18
100
AcDbEntity
  8
0
100
AcDbBlockEnd
  0
BLOCK
  5
4D32
330
4D26
100
AcDbEntity
  8
0
100
AcDbBlockBegin
  2
*D3
 70
     1
 10
0.0
 20
0.0
 30
0.0
  3
*D3
  1

  0
LINE
  5
4FF5
330
4D26
100
AcDbEntity
  8
scale
100
AcDbLine
 10
695.7361940000224
 20
477.029218
 30
0.0
 11
695.7361940004243
 21
495.1468263490744
 31
0.0
  0
LINE
  5
4FF6
330
4D26
100
AcDbEntity
  8
scale
100
AcDbLine
 10
694.7343820000001
 20
476.0274059999999
 30
0.0
 11
676.6167736509258
 21
476.027406
 31
0.0
  0
ARC
  5
4FF7
330
4D26
100
AcDbEntity
  8
scale
100
AcDbCircle
 10
695.7361940000001
 20
476.0274059999999
 30
0.0
 40
18.11942034907444
100
AcDbArc
 50
96.3274546596307
 51
173.6725453390982
  0
INSERT
  5
4FF8
330
4D26
100
AcDbEntity
  8
scale
100
AcDbBlockReference
  2
_Closed
 10
695.7361940004021
 20
494.1468263490744
 30
0.0
 41
2.0
 42
2.0
 43
2.0
 50
3.163727329179863
  0
INSERT
  5
4FF9
330
4D26
100
AcDbEntity
  8
scale
100
AcDbBlockReference
  2
_Closed
 10
677.6167736509258
 20
476.027406
 30
0.0
 41
2.0
 42
2.0
 43
2.0
 50
266.8362726695491
  0
MTEXT
  5
4FFA
330
4D26
100
AcDbEntity
  8
scale
 62
     2
100
AcDbMText
 10
681.0499960299979
 20
490.7136039702863
 30
0.0
 40
3.299999999999998
 41
0.0
 71
     5
 72
     1
  1
\A1;90°
 11
0.7071067811865476
 21
0.7071067811865475
 31
0.0
 73
     1
 44
1.0
1001
ACAD
1000
MTEXTBEGIN
1070
    73
1070
     1
1070
    44
1040
1.0
1070
    74
1070
     0
1000
MTEXTEND
  0
POINT
  5
4FFB
330
4D26
100
AcDbEntity
  8
Defpoints
 62
     0
100
AcDbPoint
 10
686.6764838256949
 20
491.7192843242811
 30
0.0
  0
POINT
  5
4FFC
330
4D26
100
AcDbEntity
  8
Defpoints
 62
     0
100
AcDbPoint
 10
695.7361940000001
 20
476.0274059999999
 30
0.0
  0
POINT
  5
4FFD
330
4D26
100
AcDbEntity
  8
Defpoints
 62
     0
100
AcDbPoint
 10
695.7361940000002
 20
476.029218
 30
0.0
  0
POINT
  5
4FFE
330
4D26
100
AcDbEntity
  8
Defpoints
 62
     0
100
AcDbPoint
 10
695.7361940000001
 20
476.0274059999999
 30
0.0
  0
POINT
  5
4FFF
330
4D26
100
AcDbEntity
  8
Defpoints
 62
     0
100
AcDbPoint
 10
695.7343820000001
 20
476.0274059999999
 30
0.0
  0
ENDBLK
  5
4D33
330
4D26
100
AcDbEntity
  8
0
100
AcDbBlockEnd
  0
BLOCK
  5
4D3E
330
4D34
100
AcDbEntity
  8
0
100
AcDbBlockBegin
  2
*D4
 70
     1
 10
0.0
 20
0.0
 30
0.0
  3
*D4
  1

  0
LINE
  5
4FA2
330
4D34
100
AcDbEntity
  8
scale
100
AcDbLine
 10
396.264598
 20
257.848664
 30
0.0
 11
379.0132290000002
 21
257.848664
 31
0.0
  0
LINE
  5
4FA3
330
4D34
100
AcDbEntity
  8
scale
100
AcDbLine
 10
446.2645979999998
 20
324.026038
 30
0.0
 11
379.0132290000002
 21
324.026038
 31
0.0
  0
LINE
  5
4FA4
330
4D34
100
AcDbEntity
  8
scale
100
AcDbLine
 10
381.0132290000002
 20
261.848664
 30
0.0
 11
381.0132290000002
 21
320.026038
 31
0.0
  0
INSERT
  5
4FA5
330
4D34
100
AcDbEntity
  8
scale
100
AcDbBlockReference
  2
_Closed
 10
381.0132290000002
 20
257.848664
 30
0.0
 41
4.0
 42
4.0
 43
4.0
 50
270.0
  0
INSERT
  5
4FA6
330
4D34
100
AcDbEntity
  8
scale
100
AcDbBlockReference
  2
_Closed
 10
381.0132290000002
 20
324.026038
 30
0.0
 41
4.0
 42
4.0
 43
4.0
 50
90.0
  0
MTEXT
  5
4FA7
330
4D34
100
AcDbEntity
  8
scale
 62
     2
100
AcDbMText
 10
375.7132290000001
 20
290.9373510000001
 30
0.0
 40
6.599999999999998
 41
0.0
 71
     5
 72
     1
  1
\A1;66
 11
0.0000000000000001
 21
1.0
 31
0.0
 73
     1
 44
1.0
1001
ACAD
1000
MTEXTBEGIN
1070
    73
1070
     1
1070
    44
1040
1.0
1070
    74
1070
     0
1000
MTEXTEND
  0
POINT
  5
4FA8
330
4D34
100
AcDbEntity
  8
Defpoints
 62
     0
100
AcDbPoint
 10
398.264598
 20
257.848664
 30
0.0
  0
POINT
  5
4FA9
330
4D34
100
AcDbEntity
  8
Defpoints
 62
     0
100
AcDbPoint
 10
448.264598
 20
324.026038
 30
0.0
  0
POINT
  5
4FAA
330
4D34
100
AcDbEntity
  8
Defpoints
 62
     0
100
AcDbPoint
 10
381.0132290000002
 20
324.026038
 30
0.0
  0
ENDBLK
  5
4D3F
330
4D34
100
AcDbEntity
  8
0
100
AcDbBlockEnd
  0
BLOCK
  5
4D4A
330
4D40
100
AcDbEntity
  8
0
100
AcDbBlockBegin
  2
*D5
 70
     1
 10
0.0
 20
0.0
 30
0.0
  3
*D5
  1

  0
LINE
  5
4F99
330
4D40
100
AcDbEntity
  8
scale
100
AcDbLine
 10
442.2645979999998
 20
50.548664
 30
0.0
 11
379.0132290000002
 21
50.54866400000001
 31
0.0
  0
LINE
  5
4F9A
330
4D40
100
AcDbEntity
  8
scale
100
AcDbLine
 10
418.969816
 20
114.848664
 30
0.0
 11
379.0132290000002
 21
114.848664
 31
0.0
  0
LINE
  5
4F9B
330
4D40
100
AcDbEntity
  8
scale
100
AcDbLine
 10
381.0132290000002
 20
54.54866400000002
 30
0.0
 11
381.0132290000002
 21
110.848664
 31
0.0
  0
INSERT
  5
4F9C
330
4D40
100
AcDbEntity
  8
scale
100
AcDbBlockReference
  2
_Closed
 10
381.0132290000002
 20
50.54866400000001
 30
0.0
 41
4.0
 42
4.0
 43
4.0
 50
270.0
  0
INSERT
  5
4F9D
330
4D40
100
AcDbEntity
  8
scale
100
AcDbBlockReference
  2
_Closed
 10
381.0132290000002
 20
114.848664
 30
0.0
 41
4.0
 42
4.0
 43
4.0
 50
90.0
  0
MTEXT
  5
4F9E
330
4D40
100
AcDbEntity
  8
scale
 62
     2
100
AcDbMText
 10
375.7132290000001
 20
82.69866400000006
 30
0.0
 40
6.599999999999998
 41
0.0
 71
     5
 72
     1
  1
\A1;64
 11
0.0000000000000001
 21
1.0
 31
0.0
 73
     1
 44
1.0
1001
ACAD
1000
MTEXTBEGIN
1070
    73
1070
     1
1070
    44
1040
1.0
1070
    74
1070
     0
1000
MTEXTEND
  0
POINT
  5
4F9F
330
4D40
100
AcDbEntity
  8
Defpoints
 62
     0
100
AcDbPoint
 10
444.2645979999999
 20
50.548664
 30
0.0
  0
POINT
  5
4FA0
330
4D40
100
AcDbEntity
  8
Defpoints
 62
     0
100
AcDbPoint
 10
420.969816
 20
114.848664
 30
0.0
  0
POINT
  5
4FA1
330
4D40
100
AcDbEntity
  8
Defpoints
 62
     0
100
AcDbPoint
 10
381.0132290000002
 20
114.848664
 30
0.0
  0
ENDBLK
  5
4D4B
330
4D40
100
AcDbEntity
  8
0
100
AcDbBlockEnd
  0
BLOCK
  5
4D56
330
4D4C
100
AcDbEntity
  8
0
100
AcDbBlockBegin
  2
*D6
 70
     1
 10
0.0
 20
0.0
 30
0.0
  3
*D6
  1

  0
LINE
  5
4F90
330
4D4C
100
AcDbEntity
  8
scale
100
AcDbLine
 10
418.969816
 20
114.848664
 30
0.0
 11
379.0132290000002
 21
114.848664
 31
0.0
  0
LINE
  5
4F91
330
4D4C
100
AcDbEntity
  8
scale
100
AcDbLine
 10
411.2645979999999
 20
232.848664
 30
0.0
 11
379.0132290000002
 21
232.848664
 31
0.0
  0
LINE
  5
4F92
330
4D4C
100
AcDbEntity
  8
scale
100
AcDbLine
 10
381.0132290000002
 20
118.848664
 30
0.0
 11
381.0132290000002
 21
228.848664
 31
0.0
  0
INSERT
  5
4F93
330
4D4C
100
AcDbEntity
  8
scale
100
AcDbBlockReference
  2
_Closed
 10
381.0132290000002
 20
114.848664
 30
0.0
 41
4.0
 42
4.0
 43
4.0
 50
270.0
  0
INSERT
  5
4F94
330
4D4C
100
AcDbEntity
  8
scale
100
AcDbBlockReference
  2
_Closed
 10
381.0132290000002
 20
232.848664
 30
0.0
 41
4.0
 42
4.0
 43
4.0
 50
90.0
  0
MTEXT
  5
4F95
330
4D4C
100
AcDbEntity
  8
scale
 62
     2
100
AcDbMText
 10
375.7132290000001
 20
173.848664
 30
0.0
 40
6.599999999999998
 41
0.0
 71
     5
 72
     1
  1
\A1;118
 11
0.0000000000000001
 21
1.0
 31
0.0
 73
     1
 44
1.0
1001
ACAD
1000
MTEXTBEGIN
1070
    73
1070
     1
1070
    44
1040
1.0
1070
    74
1070
     0
1000
MTEXTEND
  0
POINT
  5
4F96
330
4D4C
100
AcDbEntity
  8
Defpoints
 62
     0
100
AcDbPoint
 10
420.969816
 20
114.848664
 30
0.0
  0
POINT
  5
4F97
330
4D4C
100
AcDbEntity
  8
Defpoints
 62
     0
100
AcDbPoint
 10
413.2645979999998
 20
232.848664
 30
0.0
  0
POINT
  5
4F98
330
4D4C
100
AcDbEntity
  8
Defpoints
 62
     0
100
AcDbPoint
 10
381.0132290000002
 20
232.848664
 30
0.0
  0
ENDBLK
  5
4D57
330
4D4C
100
AcDbEntity
  8
0
100
AcDbBlockEnd
  0
BLOCK
  5
4D62
330
4D58
100
AcDbEntity
  8
0
100
AcDbBlockBegin
  2
*D7
 70
     1
 10
0.0
 20
0.0
 30
0.0
  3
*D7
  1

  0
LINE
  5
4F87
330
4D58
100
AcDbEntity
  8
scale
100
AcDbLine
 10
411.2645979999999
 20
232.848664
 30
0.0
 11
379.0132290000002
 21
232.848664
 31
0.0
  0
LINE
  5
4F88
330
4D58
100
AcDbEntity
  8
scale
100
AcDbLine
 10
396.264598
 20
257.848664
 30
0.0
 11
379.0132290000002
 21
257.848664
 31
0.0
  0
LINE
  5
4F89
330
4D58
100
AcDbEntity
  8
scale
100
AcDbLine
 10
381.0132290000002
 20
236.848664
 30
0.0
 11
381.0132290000002
 21
253.848664
 31
0.0
  0
INSERT
  5
4F8A
330
4D58
100
AcDbEntity
  8
scale
100
AcDbBlockReference
  2
_Closed
 10
381.0132290000002
 20
232.848664
 30
0.0
 41
4.0
 42
4.0
 43
4.0
 50
270.0
  0
INSERT
  5
4F8B
330
4D58
100
AcDbEntity
  8
scale
100
AcDbBlockReference
  2
_Closed
 10
381.0132290000002
 20
257.848664
 30
0.0
 41
4.0
 42
4.0
 43
4.0
 50
90.0
  0
MTEXT
  5
4F8C
330
4D58
100
AcDbEntity
  8
scale
 62
     2
100
AcDbMText
 10
375.7132290000001
 20
245.3486640000001
 30
0.0
 40
6.599999999999998
 41
0.0
 71
     5
 72
     1
  1
\A1;25
 11
0.0000000000000001
 21
1.0
 31
0.0
 73
     1
 44
1.0
1001
ACAD
1000
MTEXTBEGIN
1070
    73
1070
     1
1070
    44
1040
1.0
1070
    74
1070
     0
1000
MTEXTEND
  0
POINT
  5
4F8D
330
4D58
100
AcDbEntity
  8
Defpoints
 62
     0
100
AcDbPoint
 10
413.2645979999998
 20
232.848664
 30
0.0
  0
POINT
  5
4F8E
330
4D58
100
AcDbEntity
  8
Defpoints
 62
     0
100
AcDbPoint
 10
398.264598
 20
257.848664
 30
0.0
  0
POINT
  5
4F8F
330
4D58
100
AcDbEntity
  8
Defpoints
 62
     0
100
AcDbPoint
 10
381.0132290000002
 20
257.848664
 30
0.0
  0
ENDBLK
  5
4D63
330
4D58
100
AcDbEntity
  8
0
100
AcDbBlockEnd
  0
BLOCK
  5
4D6E
330
4D64
100
AcDbEntity
  8
0
100
AcDbBlockBegin
  2
*D8
 70
     1
 10
0.0
 20
0.0
 30
0.0
  3
*D8
  1

  0
LINE
  5
4F7E
330
4D64
100
AcDbEntity
  8
scale
100
AcDbLine
 10
112.8275060000001
 20
308.421382
 30
0.0
 11
112.8275060000001
 21
338.43877
 31
0.0
  0
LINE
  5
4F7F
330
4D64
100
AcDbEntity
  8
scale
100
AcDbLine
 10
312.666876
 20
318.776892
 30
0.0
 11
312.666876
 21
338.43877
 31
0.0
  0
LINE
  5
4F80
330
4D64
100
AcDbEntity
  8
scale
100
AcDbLine
 10
116.8275060000001
 20
336.43877
 30
0.0
 11
308.666876
 21
336.43877
 31
0.0
  0
INSERT
  5
4F81
330
4D64
100
AcDbEntity
  8
scale
100
AcDbBlockReference
  2
_Closed
 10
112.8275060000001
 20
336.43877
 30
0.0
 41
4.0
 42
4.0
 43
4.0
 50
180.0
  0
INSERT
  5
4F82
330
4D64
100
AcDbEntity
  8
scale
100
AcDbBlockReference
  2
_Closed
 10
312.666876
 20
336.43877
 30
0.0
 41
4.0
 42
4.0
 43
4.0
  0
MTEXT
  5
4F83
330
4D64
100
AcDbEntity
  8
scale
 62
     2
100
AcDbMText
 10
212.7471910000001
 20
341.73877
 30
0.0
 40
6.599999999999998
 41
0.0
 71
     5
 72
     1
  1
\A1;200
 73
     1
 44
1.0
1001
ACAD
1000
MTEXTBEGIN
1070
    73
1070
     1
1070
    44
1040
1.0
1070
    74
1070
     0
1000
MTEXTEND
  0
POINT
  5
4F84
330
4D64
100
AcDbEntity
  8
Defpoints
 62
     0
100
AcDbPoint
 10
112.8275060000001
 20
306.421382
 30
0.0
  0
POINT
  5
4F85
330
4D64
100
AcDbEntity
  8
Defpoints
 62
     0
100
AcDbPoint
 10
312.666876
 20
316.776892
 30
0.0
  0
POINT
  5
4F86
330
4D64
100
AcDbEntity
  8
Defpoints
 62
     0
100
AcDbPoint
 10
312.666876
 20
336.43877
 30
0.0
  0
ENDBLK
  5
4D6F
330
4D64
100
AcDbEntity
  8
0
100
AcDbBlockEnd
  0
BLOCK
  5
4D7A
330
4D70
100
AcDbEntity
  8
0
100
AcDbBlockBegin
  2
*D9
 70
     1
 10
0.0
 20
0.0
 30
0.0
  3
*D9
  1

  0
LINE
  5
4F75
330
4D70
100
AcDbEntity
  8
scale
100
AcDbLine
 10
110.8275060000001
 20
386.39096
 30
0.0
 11
25.70175199999993
 21
386.39096
 31
0.0
  0
LINE
  5
4F76
330
4D70
100
AcDbEntity
  8
scale
100
AcDbLine
 10
45.24766599999998
 20
436.3909599999999
 30
0.0
 11
25.70175199999994
 21
436.3909599999999
 31
0.0
  0
LINE
  5
4F77
330
4D70
100
AcDbEntity
  8
scale
100
AcDbLine
 10
27.70175199999993
 20
390.39096
 30
0.0
 11
27.70175199999994
 21
432.3909599999999
 31
0.0
  0
INSERT
  5
4F78
330
4D70
100
AcDbEntity
  8
scale
100
AcDbBlockReference
  2
_Closed
 10
27.70175199999993
 20
386.39096
 30
0.0
 41
4.0
 42
4.0
 43
4.0
 50
270.0
  0
INSERT
  5
4F79
330
4D70
100
AcDbEntity
  8
scale
100
AcDbBlockReference
  2
_Closed
 10
27.70175199999994
 20
436.3909599999999
 30
0.0
 41
4.0
 42
4.0
 43
4.0
 50
90.0
  0
MTEXT
  5
4F7A
330
4D70
100
AcDbEntity
  8
scale
 62
     2
100
AcDbMText
 10
22.40175199999987
 20
411.39096
 30
0.0
 40
6.599999999999998
 41
0.0
 71
     5
 72
     1
  1
\A1;50
 11
0.0000000000000001
 21
1.0
 31
0.0
 73
     1
 44
1.0
1001
ACAD
1000
MTEXTBEGIN
1070
    73
1070
     1
1070
    44
1040
1.0
1070
    74
1070
     0
1000
MTEXTEND
  0
POINT
  5
4F7B
330
4D70
100
AcDbEntity
  8
Defpoints
 62
     0
100
AcDbPoint
 10
112.8275060000001
 20
386.39096
 30
0.0
  0
POINT
  5
4F7C
330
4D70
100
AcDbEntity
  8
Defpoints
 62
     0
100
AcDbPoint
 10
47.24766599999997
 20
436.3909599999999
 30
0.0
  0
POINT
  5
4F7D
330
4D70
100
AcDbEntity
  8
Defpoints
 62
     0
100
AcDbPoint
 10
27.70175199999994
 20
436.3909599999999
 30
0.0
  0
ENDBLK
  5
4D7B
330
4D70
100
AcDbEntity
  8
0
100
AcDbBlockEnd
  0
BLOCK
  5
4D86
330
4D7C
100
AcDbEntity
  8
0
100
AcDbBlockBegin
  2
*D10
 70
     1
 10
0.0
 20
0.0
 30
0.0
  3
*D10
  1

  0
LINE
  5
4F6C
330
4D7C
100
AcDbEntity
  8
scale
100
AcDbLine
 10
45.24766599999998
 20
436.3909599999999
 30
0.0
 11
25.70175199999992
 21
436.3909599999999
 31
0.0
  0
LINE
  5
4F6D
330
4D7C
100
AcDbEntity
  8
scale
100
AcDbLine
 10
95.82750600000007
 20
511.3909599999999
 30
0.0
 11
25.70175199999994
 21
511.3909599999999
 31
0.0
  0
LINE
  5
4F6E
330
4D7C
100
AcDbEntity
  8
scale
100
AcDbLine
 10
27.70175199999993
 20
440.3909599999999
 30
0.0
 11
27.70175199999994
 21
507.3909599999999
 31
0.0
  0
INSERT
  5
4F6F
330
4D7C
100
AcDbEntity
  8
scale
100
AcDbBlockReference
  2
_Closed
 10
27.70175199999993
 20
436.3909599999999
 30
0.0
 41
4.0
 42
4.0
 43
4.0
 50
270.0
  0
INSERT
  5
4F70
330
4D7C
100
AcDbEntity
  8
scale
100
AcDbBlockReference
  2
_Closed
 10
27.70175199999994
 20
511.3909599999999
 30
0.0
 41
4.0
 42
4.0
 43
4.0
 50
90.0
  0
MTEXT
  5
4F71
330
4D7C
100
AcDbEntity
  8
scale
 62
     2
100
AcDbMText
 10
22.40175199999987
 20
473.8909599999999
 30
0.0
 40
6.599999999999998
 41
0.0
 71
     5
 72
     1
  1
\A1;75
 11
0.0000000000000001
 21
1.0
 31
0.0
 73
     1
 44
1.0
1001
ACAD
1000
MTEXTBEGIN
1070
    73
1070
     1
1070
    44
1040
1.0
1070
    74
1070
     0
1000
MTEXTEND
  0
POINT
  5
4F72
330
4D7C
100
AcDbEntity
  8
Defpoints
 62
     0
100
AcDbPoint
 10
47.24766599999997
 20
436.3909599999999
 30
0.0
  0
POINT
  5
4F73
330
4D7C
100
AcDbEntity
  8
Defpoints
 62
     0
100
AcDbPoint
 10
97.82750600000007
 20
511.3909599999999
 30
0.0
  0
POINT
  5
4F74
330
4D7C
100
AcDbEntity
  8
Defpoints
 62
     0
100
AcDbPoint
 10
27.70175199999994
 20
511.3909599999999
 30
0.0
  0
ENDBLK
  5
4D87
330
4D7C
100
AcDbEntity
  8
0
100
AcDbBlockEnd
  0
BLOCK
  5
4D92
330
4D88
100
AcDbEntity
  8
0
100
AcDbBlockBegin
  2
*D11
 70
     1
 10
0.0
 20
0.0
 30
0.0
  3
*D11
  1

  0
LINE
  5
4F63
330
4D88
100
AcDbEntity
  8
scale
100
AcDbLine
 10
433.2645979999998
 20
72.34866399999998
 30
0.0
 11
433.2645979999998
 21
13.92404199999998
 31
0.0
  0
LINE
  5
4F64
330
4D88
100
AcDbEntity
  8
scale
100
AcDbLine
 10
466.2645979999998
 20
72.34866399999998
 30
0.0
 11
466.2645979999998
 21
13.92404199999998
 31
0.0
  0
LINE
  5
4F65
330
4D88
100
AcDbEntity
  8
scale
100
AcDbLine
 10
437.2645979999998
 20
15.92404199999998
 30
0.0
 11
462.2645979999998
 21
15.92404199999998
 31
0.0
  0
INSERT
  5
4F66
330
4D88
100
AcDbEntity
  8
scale
100
AcDbBlockReference
  2
_Closed
 10
433.2645979999998
 20
15.92404199999998
 30
0.0
 41
4.0
 42
4.0
 43
4.0
 50
180.0
  0
INSERT
  5
4F67
330
4D88
100
AcDbEntity
  8
scale
100
AcDbBlockReference
  2
_Closed
 10
466.2645979999998
 20
15.92404199999998
 30
0.0
 41
4.0
 42
4.0
 43
4.0
  0
MTEXT
  5
4F68
330
4D88
100
AcDbEntity
  8
scale
 62
     2
100
AcDbMText
 10
449.7645979999998
 20
21.22404199999999
 30
0.0
 40
6.599999999999998
 41
0.0
 71
     5
 72
     1
  1
\A1;33
 73
     1
 44
1.0
1001
ACAD
1000
MTEXTBEGIN
1070
    73
1070
     1
1070
    44
1040
1.0
1070
    74
1070
     0
1000
MTEXTEND
  0
POINT
  5
4F69
330
4D88
100
AcDbEntity
  8
Defpoints
 62
     0
100
AcDbPoint
 10
433.2645979999998
 20
74.34866399999998
 30
0.0
  0
POINT
  5
4F6A
330
4D88
100
AcDbEntity
  8
Defpoints
 62
     0
100
AcDbPoint
 10
466.2645979999998
 20
74.34866399999998
 30
0.0
  0
POINT
  5
4F6B
330
4D88
100
AcDbEntity
  8
Defpoints
 62
     0
100
AcDbPoint
 10
466.2645979999998
 20
15.92404199999998
 30
0.0
  0
ENDBLK
  5
4D93
330
4D88
100
AcDbEntity
  8
0
100
AcDbBlockEnd
  0
BLOCK
  5
4D9E
330
4D94
100
AcDbEntity
  8
0
100
AcDbBlockBegin
  2
*D12
 70
     1
 10
0.0
 20
0.0
 30
0.0
  3
*D12
  1

  0
LINE
  5
4F5A
330
4D94
100
AcDbEntity
  8
scale
100
AcDbLine
 10
433.2645979999998
 20
72.34866399999998
 30
0.0
 11
433.2645979999998
 21
30.27482599999999
 31
0.0
  0
LINE
  5
4F5B
330
4D94
100
AcDbEntity
  8
scale
100
AcDbLine
 10
448.264598
 20
39.510514
 30
0.0
 11
448.264598
 21
30.27482599999999
 31
0.0
  0
LINE
  5
4F5C
330
4D94
100
AcDbEntity
  8
scale
100
AcDbLine
 10
437.2645979999998
 20
32.27482599999999
 30
0.0
 11
444.2645979999999
 21
32.27482599999999
 31
0.0
  0
INSERT
  5
4F5D
330
4D94
100
AcDbEntity
  8
scale
100
AcDbBlockReference
  2
_Closed
 10
433.2645979999998
 20
32.27482599999999
 30
0.0
 41
4.0
 42
4.0
 43
4.0
 50
180.0
  0
INSERT
  5
4F5E
330
4D94
100
AcDbEntity
  8
scale
100
AcDbBlockReference
  2
_Closed
 10
448.264598
 20
32.27482599999999
 30
0.0
 41
4.0
 42
4.0
 43
4.0
  0
MTEXT
  5
4F5F
330
4D94
100
AcDbEntity
  8
scale
 62
     2
100
AcDbMText
 10
440.7645979999998
 20
37.57482599999999
 30
0.0
 40
6.599999999999998
 41
0.0
 71
     5
 72
     1
  1
\A1;15
 73
     1
 44
1.0
1001
ACAD
1000
MTEXTBEGIN
1070
    73
1070
     1
1070
    44
1040
1.0
1070
    74
1070
     0
1000
MTEXTEND
  0
POINT
  5
4F60
330
4D94
100
AcDbEntity
  8
Defpoints
 62
     0
100
AcDbPoint
 10
433.2645979999998
 20
74.34866399999998
 30
0.0
  0
POINT
  5
4F61
330
4D94
100
AcDbEntity
  8
Defpoints
 62
     0
100
AcDbPoint
 10
448.264598
 20
41.510514
 30
0.0
  0
POINT
  5
4F62
330
4D94
100
AcDbEntity
  8
Defpoints
 62
     0
100
AcDbPoint
 10
448.264598
 20
32.27482599999999
 30
0.0
  0
ENDBLK
  5
4D9F
330
4D94
100
AcDbEntity
  8
0
100
AcDbBlockEnd
  0
ENDSEC
  0
SECTION
  2
ENTITIES
  0
TEXT
  5
6C0
330
2A
100
AcDbEntity
  8
FLAME
 62
     7
370
    -3
100
AcDbText
 10
495.0
 20
10.42037933333336
 30
0.0
 40
8.0
  1
巴バルブ株式会社
 41
0.8357142857142839
 72
     5
 11
557.3999999999998
 21
10.42037933333336
 31
0.0
100
AcDbText
  0
TEXT
  5
6C1
330
2A
100
AcDbEntity
  8
FLAME
 62
     7
370
    -3
100
AcDbText
 10
481.1310499999998
 20
24.05949399999997
 30
0.0
 40
4.599999999999998
  1
TOMOE　VALVE　CO.,LTD.
 41
1.110576923076925
 72
     5
 11
572.21105
 21
24.05949399999997
 31
0.0
100
AcDbText
  0
TEXT
  5
6C2
330
2A
100
AcDbEntity
  8
FLAME
 62
     7
370
    -3
100
AcDbText
 10
576.0
 20
24.0
 30
0.0
 40
6.0
  1
名　　称
 41
0.8382352941176412
 72
     5
 11
598.7999999999998
 21
24.0
 31
0.0
100
AcDbText
  0
TEXT
  5
6C3
330
2A
100
AcDbEntity
  8
FLAME
 62
     7
370
    -3
100
AcDbText
 10
578.299061465006
 20
32.00823066666658
 30
0.0
 40
4.0
  1
FIG.NO.
100
AcDbText
  0
TEXT
  5
6C4
330
2A
100
AcDbEntity
  8
FLAME
 62
     7
370
    -3
100
AcDbText
 10
576.0
 20
4.000000000000113
 30
0.0
 40
6.0
  1
尺　　度
 41
0.838235294117641
 72
     5
 11
598.7999999999998
 21
4.000000000000113
 31
0.0
100
AcDbText
  0
TEXT
  5
6C5
330
2A
100
AcDbEntity
  8
FLAME
 62
     7
370
    -3
100
AcDbText
 10
578.0021419999997
 20
11.077942
 30
0.0
 40
4.0
  1
SCALE
100
AcDbText
  0
TEXT
  5
6C6
330
2A
100
AcDbEntity
  8
FLAME
 62
     7
370
    -3
100
AcDbText
 10
732.0
 20
33.0
 30
0.0
 40
4.0
  1
DATE
 41
1.078378378378357
 72
     5
 11
747.1999999999996
 21
33.0
 31
0.0
100
AcDbText
  0
TEXT
  5
6C7
330
2A
100
AcDbEntity
  8
FLAME
 62
     7
370
    -3
100
AcDbText
 10
626.9999999999997
 20
4.000000000000113
 30
0.0
 40
6.0
  1
図　　　番
 41
0.8372093023255832
 72
     5
 11
655.7999999999998
 21
4.000000000000113
 31
0.0
100
AcDbText
  0
TEXT
  5
6C8
330
2A
100
AcDbEntity
  8
FLAME
 62
     7
370
    -3
100
AcDbText
 10
625.3985729852029
 20
12.00616466666668
 30
0.0
 40
3.6
  1
DRAWING NO．
100
AcDbText
  0
LINE
  5
6C9
330
2A
100
AcDbEntity
  8
FLAME
 62
     7
370
    -3
100
AcDbLine
 10
607.4568293333332
 20
5.456829333333415
 30
0.0
 11
615.7965813333333
 21
13.79658133333339
 31
0.0
  0
LINE
  5
6CA
330
2A
100
AcDbEntity
  8
FLAME
 62
     7
370
    -3
100
AcDbLine
 10
662.0
 20
0.0
 30
0.0
 11
662.0
 21
20.0
 31
0.0
  0
LINE
  5
6CB
330
2A
100
AcDbEntity
  8
FLAME
 62
     7
370
    -3
100
AcDbLine
 10
622.0
 20
0.0
 30
0.0
 11
622.0
 21
20.0
 31
0.0
  0
LINE
  5
6CC
330
2A
100
AcDbEntity
  8
FLAME
 62
     7
370
    -3
100
AcDbLine
 10
602.0
 20
0.0
 30
0.0
 11
602.0
 21
40.0
 31
0.0
  0
LINE
  5
6CD
330
2A
100
AcDbEntity
  8
FLAME
 62
     7
370
    -3
100
AcDbLine
 10
720.0
 20
30.0
 30
0.0
 11
760.0
 21
30.0
 31
0.0
  0
LINE
  5
6CE
330
2A
100
AcDbEntity
  8
FLAME
 62
     7
370
    -3
100
AcDbLine
 10
720.0
 20
20.0
 30
0.0
 11
720.0
 21
40.0
 31
0.0
  0
LINE
  5
6CF
330
2A
100
AcDbEntity
  8
FLAME
 62
     3
100
AcDbLine
 10
480.0
 20
40.0
 30
0.0
 11
760.0
 21
40.0
 31
0.0
  0
LINE
  5
6D0
330
2A
100
AcDbEntity
  8
FLAME
 62
     7
370
    -3
100
AcDbLine
 10
574.0
 20
20.0
 30
0.0
 11
760.0
 21
20.0
 31
0.0
  0
LINE
  5
6D1
330
2A
100
AcDbEntity
  8
FLAME
 62
     3
100
AcDbLine
 10
574.0
 20
0.0
 30
0.0
 11
574.0
 21
40.0
 31
0.0
  0
LINE
  5
6D2
330
2A
100
AcDbEntity
  8
FLAME
 62
     3
100
AcDbLine
 10
480.0
 20
0.0
 30
0.0
 11
480.0
 21
40.0
 31
0.0
  0
LINE
  5
6D3
330
2A
100
AcDbEntity
  8
FLAME
 62
     3
100
AcDbLine
 10
760.0
 20
541.0
 30
0.0
 11
760.0
 21
0.0
 31
0.0
  0
LINE
  5
6D4
330
2A
100
AcDbEntity
  8
FLAME
 62
     3
100
AcDbLine
 10
0.0
 20
541.0
 30
0.0
 11
0.0
 21
0.0
 31
0.0
  0
LINE
  5
6D5
330
2A
100
AcDbEntity
  8
FLAME
 62
     3
100
AcDbLine
 10
0.0
 20
541.0
 30
0.0
 11
760.0
 21
541.0
 31
0.0
  0
LINE
  5
6D6
330
2A
100
AcDbEntity
  8
FLAME
 62
     3
100
AcDbLine
 10
0.0
 20
0.0
 30
0.0
 11
760.0
 21
0.0
 31
0.0
  0
TEXT
  5
6D7
330
2A
100
AcDbEntity
  8
FLAME
 62
     7
370
    -3
100
AcDbText
 10
671.4032072225168
 20
5.0
 30
0.0
 40
10.0
  1
D3-03812
100
AcDbText
  0
TEXT
  5
6D8
330
2A
100
AcDbEntity
  8
FLAME
 62
     7
370
    -3
100
AcDbText
 10
605.7084806666666
 20
30.92947400000003
 30
0.0
 40
6.0
  1
302Y／304Y-1TAS 40A
100
AcDbText
  0
TEXT
  5
6D9
330
2A
100
AcDbEntity
  8
FLAME
 62
     7
370
    -3
100
AcDbText
 10
605.7084806666666
 20
22.92947400000004
 30
0.0
 40
6.0
  1
標準仕様
100
AcDbText
  0
TEXT
  5
6DA
330
2A
100
AcDbEntity
  8
FLAME
 62
     7
370
    -3
100
AcDbText
 10
724.5820919999996
 20
22.60823066666671
 30
0.0
 40
4.5
  1
'05. 7. 19
100
AcDbText
  0
TEXT
  5
6DB
330
2A
100
AcDbEntity
  8
FLAME
 62
     7
370
    -3
100
AcDbText
 10
612.8920286666666
 20
3.108948000000053
 30
0.0
 40
6.0
  1
2
100
AcDbText
  0
TEXT
  5
6DC
330
2A
100
AcDbEntity
  8
FLAME
 62
     7
370
    -3
100
AcDbText
 10
606.4113320547943
 20
10.4191586666667
 30
0.0
 40
6.0
  1
1
100
AcDbText
  0
TEXT
  5
47D9
330
2A
100
AcDbEntity
  8
NOTE
100
AcDbText
 10
532.8966997206307
 20
488.6716999999999
 30
0.0
 40
3.229999999999998
  1
O
100
AcDbText
  0
TEXT
  5
47DA
330
2A
100
AcDbEntity
  8
NOTE
100
AcDbText
 10
574.6230516835021
 20
469.110704
 30
0.0
 40
3.229999999999998
  1
S
100
AcDbText
  0
TEXT
  5
47DB
330
2A
100
AcDbEntity
  8
NOTE
100
AcDbText
 10
599.032316
 20
489.7568979999999
 30
0.0
 40
3.229999999999998
  1
O
100
AcDbText
  0
DIMENSION
  5
47DC
330
2A
100
AcDbEntity
  8
scale
100
AcDbDimension
  2
*D1
 10
579.534374
 20
485.9534019999999
 30
0.0
 11
590.4710940301393
 21
475.0148699704283
 31
0.0
 70
    34
 71
     5
 42
1.570796326794896
  3
STANDARD
100
AcDb2LineAngularDimension
 13
579.5325619999998
 23
485.9515899999998
 33
0.0
 14
579.5325619999998
 24
485.9534019999999
 34
0.0
 15
579.5325619999998
 25
485.9534019999999
 35
0.0
 16
588.5922721748849
 26
470.2615236760537
 36
0.0
1001
ACAD
1000
DSTYLE
1002
{
1070
    40
1040
1.0
1002
}
  0
TEXT
  5
47DD
330
2A
100
AcDbEntity
  8
NOTE
100
AcDbText
 10
620.2261218605354
 20
490.4378956344567
 30
0.0
 40
3.229999999999998
  1
S
100
AcDbText
  0
TEXT
  5
47DE
330
2A
100
AcDbEntity
  8
NOTE
100
AcDbText
 10
641.6055582181942
 20
468.1189950500716
 30
0.0
 40
3.229999999999998
  1
O
100
AcDbText
  0
DIMENSION
  5
47DF
330
2A
100
AcDbEntity
  8
scale
100
AcDbDimension
  2
*D2
 10
639.8520419999998
 20
487.40005
 30
0.0
 11
628.913509970286
 21
476.4633299700021
 31
0.0
 70
    34
 71
     5
 42
1.570796326861443
  3
STANDARD
100
AcDb2LineAngularDimension
 13
639.85023
 23
487.401862
 33
0.0
 14
639.8520419999998
 24
487.401862
 34
0.0
 15
639.8520419999998
 25
487.401862
 35
0.0
 16
624.1601636758526
 26
478.3421518254628
 36
0.0
1001
ACAD
1000
DSTYLE
1002
{
1070
    40
1040
1.0
1002
}
  0
TEXT
  5
47E0
330
2A
100
AcDbEntity
  8
NOTE
100
AcDbText
 10
697.9766419999999
 20
492.9016279999998
 30
0.0
 40
3.229999999999998
  1
S
100
AcDbText
  0
TEXT
  5
47E1
330
2A
100
AcDbEntity
  8
NOTE
100
AcDbText
 10
676.3099259999997
 20
471.911078
 30
0.0
 40
3.229999999999998
  1
O
100
AcDbText
  0
DIMENSION
  5
47E2
330
2A
100
AcDbEntity
  8
scale
100
AcDbDimension
  2
*D3
 10
695.7343820000001
 20
476.0274059999999
 30
0.0
 11
681.0499960299978
 21
490.7136039702865
 31
0.0
 70
    34
 71
     5
 42
1.570796326817077
  3
STANDARD
100
AcDb2LineAngularDimension
 13
695.7361940000001
 23
476.0292179999999
 33
0.0
 14
695.7361940000001
 24
476.0274059999999
 34
0.0
 15
695.7361940000001
 25
476.0274059999999
 35
0.0
 16
686.6764838256949
 26
491.7192843242811
 36
0.0
1001
ACAD
1000
DSTYLE
1002
{
1070
    40
1040
1.0
1002
}
  0
TEXT
  5
47E3
330
2A
100
AcDbEntity
  8
NOTE
100
AcDbText
 10
541.0789679999999
 20
471.5220099999999
 30
0.0
 40
3.229999999999998
  1
S
100
AcDbText
  0
TEXT
  5
47E5
330
2A
100
AcDbEntity
  8
NOTE
100
AcDbText
 10
689.60881
 20
449.5409539999998
 30
0.0
 40
6.0
  1
D
100
AcDbText
  0
TEXT
  5
47E6
330
2A
100
AcDbEntity
  8
NOTE
100
AcDbText
 10
502.9061120000001
 20
499.0878139999998
 30
0.0
 40
5.0
  1
フラット側　高圧側
 41
0.8
100
AcDbText
  0
TEXT
  5
47E7
330
2A
100
AcDbEntity
  8
NOTE
100
AcDbText
 10
507.6987920000001
 20
459.2764279999998
 30
0.0
 40
5.0
  1
弁棒側　低圧側
 41
0.8
100
AcDbText
  0
TEXT
  5
47E8
330
2A
100
AcDbEntity
  8
NOTE
100
AcDbText
 10
577.264312
 20
439.3271379999998
 30
0.0
 40
6.0
  1
アクチュエ－タ取付方向
100
AcDbText
  0
TEXT
  5
47E9
330
2A
100
AcDbEntity
  8
NOTE
100
AcDbText
 10
633.6088099999998
 20
449.5409539999998
 30
0.0
 40
6.0
  1
C
100
AcDbText
  0
TEXT
  5
47EA
330
2A
100
AcDbEntity
  8
NOTE
100
AcDbText
 10
577.5849159999998
 20
449.380646
 30
0.0
 40
6.0
  1
B
100
AcDbText
  0
TEXT
  5
47EB
330
2A
100
AcDbEntity
  8
NOTE
100
AcDbText
 10
521.6088099999998
 20
449.5409539999998
 30
0.0
 40
6.0
  1
A
100
AcDbText
  0
TEXT
  5
47EC
330
2A
100
AcDbEntity
  8
NOTE
100
AcDbText
 10
517.7077779999998
 20
118.343956
 30
0.0
 40
10.0
  1
高圧側
 41
0.84
 72
     5
 11
545.7077779999998
 21
118.343956
 31
0.0
100
AcDbText
  0
LINE
  5
47EF
330
2A
100
AcDbEntity
  8
NOTE
  6
CENTER
 62
     2
370
    13
100
AcDbLine
 10
639.8520419999998
 20
496.9168279999998
 30
0.0
 11
639.8520419999998
 21
467.858244
 31
0.0
  0
LINE
  5
47F0
330
2A
100
AcDbEntity
  8
NOTE
 62
     4
370
    13
100
AcDbLine
 10
525.163004
 20
490.2934359999998
 30
0.0
 11
524.1277279999998
 21
490.2934359999998
 31
0.0
  0
LINE
  5
47F1
330
2A
100
AcDbEntity
  8
NOTE
 62
     4
370
    13
100
AcDbLine
 10
524.1277279999998
 20
486.429734
 30
0.0
 11
525.163004
 21
490.2934359999998
 31
0.0
  0
LINE
  5
47F2
330
2A
100
AcDbEntity
  8
NOTE
 62
     4
370
    13
100
AcDbLine
 10
523.0924519999998
 20
490.2934359999998
 30
0.0
 11
524.1277279999998
 21
486.429734
 31
0.0
  0
LINE
  5
47F3
330
2A
100
AcDbEntity
  8
NOTE
 62
     4
370
    13
100
AcDbLine
 10
524.1277279999998
 20
490.2934359999998
 30
0.0
 11
523.0924519999998
 21
490.2934359999998
 31
0.0
  0
LINE
  5
47F4
330
2A
100
AcDbEntity
  8
NOTE
 62
     4
370
    13
100
AcDbLine
 10
524.1277279999998
 20
486.429734
 30
0.0
 11
524.1277279999998
 21
497.1051639999997
 31
0.0
  0
LINE
  5
47F5
330
2A
100
AcDbEntity
  8
NOTE
  6
CENTER
 62
     2
370
    13
100
AcDbLine
 10
524.0627459999999
 20
484.980758
 30
0.0
 11
524.0627459999999
 21
468.1083679999998
 31
0.0
  0
LINE
  5
47F6
330
2A
100
AcDbEntity
  8
scale
100
AcDbLine
 10
537.93101
 20
486.4123059999998
 30
0.0
 11
538.6630479999999
 21
487.1443699999998
 31
0.0
  0
LINE
  5
47F7
330
2A
100
AcDbEntity
  8
scale
100
AcDbLine
 10
535.9309499999998
 20
489.8763739999999
 30
0.0
 11
537.93101
 21
486.4123059999998
 31
0.0
  0
LINE
  5
47F8
330
2A
100
AcDbEntity
  8
scale
100
AcDbLine
 10
539.395086
 20
487.876434
 30
0.0
 11
535.9309499999998
 21
489.8763739999999
 31
0.0
  0
LINE
  5
47F9
330
2A
100
AcDbEntity
  8
scale
100
AcDbLine
 10
538.6630479999999
 20
487.1443699999998
 30
0.0
 11
539.395086
 21
487.876434
 31
0.0
  0
LINE
  5
47FA
330
2A
100
AcDbEntity
  8
NOTE
 62
     4
370
    13
100
AcDbLine
 10
535.9309499999998
 20
489.8763739999999
 30
0.0
 11
536.369396
 21
489.4379419999999
 31
0.0
  0
LINE
  5
47FB
330
2A
100
AcDbEntity
  8
scale
100
AcDbLine
 10
543.0675139999998
 20
480.9197639999998
 30
0.0
 11
542.0322379999999
 21
480.9197639999998
 31
0.0
  0
LINE
  5
47FC
330
2A
100
AcDbEntity
  8
scale
100
AcDbLine
 10
542.0322379999999
 20
477.0560599999999
 30
0.0
 11
543.0675139999998
 21
480.9197639999998
 31
0.0
  0
LINE
  5
47FD
330
2A
100
AcDbEntity
  8
scale
100
AcDbLine
 10
540.9969620000001
 20
480.9197639999998
 30
0.0
 11
542.0322379999999
 21
477.0560599999999
 31
0.0
  0
LINE
  5
47FE
330
2A
100
AcDbEntity
  8
scale
100
AcDbLine
 10
542.0322379999999
 20
480.9197639999998
 30
0.0
 11
540.9969620000001
 21
480.9197639999998
 31
0.0
  0
LINE
  5
47FF
330
2A
100
AcDbEntity
  8
NOTE
 62
     4
370
    13
100
AcDbLine
 10
542.0322379999999
 20
477.0560599999999
 30
0.0
 11
542.0322379999999
 21
477.786744
 31
0.0
  0
ARC
  5
4800
330
2A
100
AcDbEntity
  8
scale
100
AcDbCircle
 10
524.0627459999999
 20
476.2732919999998
 30
0.0
 40
18.0
100
AcDbArc
 50
2.571214999998773
 51
48.75714400000024
  0
ARC
  5
4801
330
2A
100
AcDbEntity
  8
NOTE
100
AcDbCircle
 10
578.725062
 20
485.9534019999999
 30
0.0
 40
5.652499999999998
100
AcDbArc
 50
278.2132109999998
 51
261.7867890000002
  0
LINE
  5
4802
330
2A
100
AcDbEntity
  8
NOTE
100
AcDbLine
 10
579.5325619999998
 20
466.1782539999999
 30
0.0
 11
577.9175620000001
 21
466.1782539999999
 31
0.0
  0
LINE
  5
4803
330
2A
100
AcDbEntity
  8
NOTE
100
AcDbLine
 10
588.415062
 20
485.145902
 30
0.0
 11
588.415062
 21
488.3759019999999
 31
0.0
  0
LINE
  5
4804
330
2A
100
AcDbEntity
  8
NOTE
100
AcDbLine
 10
588.415062
 20
483.5309019999998
 30
0.0
 11
588.415062
 21
485.145902
 31
0.0
  0
ARC
  5
4805
330
2A
100
AcDbEntity
  8
NOTE
100
AcDbCircle
 10
578.725062
 20
489.9898999999999
 30
0.0
 40
0.3229999999999999
100
AcDbArc
 50
11.52970799999883
 51
168.470292000001
  0
LINE
  5
4806
330
2A
100
AcDbEntity
  8
NOTE
100
AcDbLine
 10
578.408578
 20
490.0544599999998
 30
0.0
 11
577.9175620000001
 21
487.64742
 31
0.0
  0
LINE
  5
4807
330
2A
100
AcDbEntity
  8
NOTE
100
AcDbLine
 10
579.0415439999998
 20
490.0544599999998
 30
0.0
 11
579.5325619999998
 21
487.64742
 31
0.0
  0
LINE
  5
4808
330
2A
100
AcDbEntity
  8
NOTE
100
AcDbLine
 10
577.9175620000001
 20
487.64742
 30
0.0
 11
577.9175620000001
 21
466.1782539999999
 31
0.0
  0
LINE
  5
4809
330
2A
100
AcDbEntity
  8
NOTE
100
AcDbLine
 10
579.5325619999998
 20
487.64742
 30
0.0
 11
579.5325619999998
 21
466.1782539999999
 31
0.0
  0
LINE
  5
480A
330
2A
100
AcDbEntity
  8
NOTE
100
AcDbLine
 10
583.8321399999998
 20
483.5309019999998
 30
0.0
 11
588.415062
 21
483.5309019999998
 31
0.0
  0
LINE
  5
480B
330
2A
100
AcDbEntity
  8
NOTE
100
AcDbLine
 10
569.0350619999998
 20
483.5309019999998
 30
0.0
 11
573.617982
 21
483.5309019999998
 31
0.0
  0
LINE
  5
480C
330
2A
100
AcDbEntity
  8
NOTE
100
AcDbLine
 10
583.8321399999998
 20
488.3759019999999
 30
0.0
 11
588.415062
 21
488.3759019999999
 31
0.0
  0
LINE
  5
480D
330
2A
100
AcDbEntity
  8
NOTE
100
AcDbLine
 10
569.0350619999998
 20
488.3759019999999
 30
0.0
 11
573.617982
 21
488.3759019999999
 31
0.0
  0
LINE
  5
480E
330
2A
100
AcDbEntity
  8
NOTE
100
AcDbLine
 10
569.0350619999998
 20
488.3759019999999
 30
0.0
 11
569.0350619999998
 21
483.5309019999998
 31
0.0
  0
LINE
  5
480F
330
2A
100
AcDbEntity
  8
NOTE
  6
CENTER
 62
     2
370
    13
100
AcDbLine
 10
599.076178
 20
485.9534019999999
 30
0.0
 11
565.686492
 21
485.9534019999999
 31
0.0
  0
LINE
  5
4810
330
2A
100
AcDbEntity
  8
NOTE
100
AcDbLine
 10
620.076894
 20
487.401862
 30
0.0
 11
620.076894
 21
489.0168619999998
 31
0.0
  0
ARC
  5
4811
330
2A
100
AcDbEntity
  8
NOTE
100
AcDbCircle
 10
639.8520419999998
 20
488.209362
 30
0.0
 40
5.652499999999998
100
AcDbArc
 50
188.2132109999998
 51
171.7867890000001
  0
LINE
  5
4812
330
2A
100
AcDbEntity
  8
NOTE
100
AcDbLine
 10
630.1620419999998
 20
487.401862
 30
0.0
 11
630.1620419999998
 21
485.7868619999999
 31
0.0
  0
LINE
  5
4813
330
2A
100
AcDbEntity
  8
NOTE
100
AcDbLine
 10
630.1620419999998
 20
490.631862
 30
0.0
 11
630.1620419999998
 21
489.0168619999998
 31
0.0
  0
ARC
  5
4814
330
2A
100
AcDbEntity
  8
NOTE
100
AcDbCircle
 10
643.8885399999998
 20
488.209362
 30
0.0
 40
0.3229999999999999
100
AcDbArc
 50
281.5297079999993
 51
78.47029200000067
  0
LINE
  5
4815
330
2A
100
AcDbEntity
  8
NOTE
100
AcDbLine
 10
643.9530999999998
 20
488.525844
 30
0.0
 11
641.5460600000001
 21
489.0168619999998
 31
0.0
  0
LINE
  5
4816
330
2A
100
AcDbEntity
  8
NOTE
100
AcDbLine
 10
643.9530999999998
 20
487.8928799999997
 30
0.0
 11
641.5460600000001
 21
487.401862
 31
0.0
  0
LINE
  5
4817
330
2A
100
AcDbEntity
  8
NOTE
100
AcDbLine
 10
641.5460600000001
 20
489.0168619999998
 30
0.0
 11
620.076894
 21
489.0168619999998
 31
0.0
  0
LINE
  5
4818
330
2A
100
AcDbEntity
  8
NOTE
100
AcDbLine
 10
641.5460600000001
 20
487.401862
 30
0.0
 11
620.076894
 21
487.401862
 31
0.0
  0
LINE
  5
4819
330
2A
100
AcDbEntity
  8
NOTE
100
AcDbLine
 10
634.7449639999998
 20
490.631862
 30
0.0
 11
630.1620419999998
 21
490.631862
 31
0.0
  0
LINE
  5
481A
330
2A
100
AcDbEntity
  8
NOTE
100
AcDbLine
 10
649.542042
 20
490.631862
 30
0.0
 11
644.959122
 21
490.631862
 31
0.0
  0
LINE
  5
481B
330
2A
100
AcDbEntity
  8
NOTE
100
AcDbLine
 10
634.7449639999998
 20
485.7868619999999
 30
0.0
 11
630.1620419999998
 21
485.7868619999999
 31
0.0
  0
LINE
  5
481C
330
2A
100
AcDbEntity
  8
NOTE
100
AcDbLine
 10
649.542042
 20
485.7868619999999
 30
0.0
 11
644.959122
 21
485.7868619999999
 31
0.0
  0
LINE
  5
481D
330
2A
100
AcDbEntity
  8
NOTE
100
AcDbLine
 10
649.542042
 20
485.7868619999999
 30
0.0
 11
649.542042
 21
490.631862
 31
0.0
  0
ARC
  5
481E
330
2A
100
AcDbEntity
  8
NOTE
100
AcDbCircle
 10
696.543694
 20
476.0274059999999
 30
0.0
 40
5.652499999999998
100
AcDbArc
 50
98.21321099999984
 51
81.78678900000017
  0
LINE
  5
481F
330
2A
100
AcDbEntity
  8
NOTE
100
AcDbLine
 10
695.7361940000001
 20
495.802554
 30
0.0
 11
697.351194
 21
495.802554
 31
0.0
  0
LINE
  5
4820
330
2A
100
AcDbEntity
  8
NOTE
100
AcDbLine
 10
686.8536939999998
 20
476.8349059999999
 30
0.0
 11
686.8536939999998
 21
473.604906
 31
0.0
  0
LINE
  5
4821
330
2A
100
AcDbEntity
  8
NOTE
100
AcDbLine
 10
686.8536939999998
 20
478.4499059999998
 30
0.0
 11
686.8536939999998
 21
476.8349059999999
 31
0.0
  0
ARC
  5
4822
330
2A
100
AcDbEntity
  8
NOTE
100
AcDbCircle
 10
696.543694
 20
471.9909079999998
 30
0.0
 40
0.3229999999999999
100
AcDbArc
 50
191.5297079999988
 51
348.4702920000012
  0
LINE
  5
4823
330
2A
100
AcDbEntity
  8
NOTE
100
AcDbLine
 10
696.8601759999998
 20
471.9263479999998
 30
0.0
 11
697.351194
 21
474.333388
 31
0.0
  0
LINE
  5
4824
330
2A
100
AcDbEntity
  8
NOTE
100
AcDbLine
 10
696.227212
 20
471.9263479999998
 30
0.0
 11
695.7361940000001
 21
474.333388
 31
0.0
  0
LINE
  5
4825
330
2A
100
AcDbEntity
  8
NOTE
100
AcDbLine
 10
697.351194
 20
474.333388
 30
0.0
 11
697.351194
 21
495.802554
 31
0.0
  0
LINE
  5
4826
330
2A
100
AcDbEntity
  8
NOTE
100
AcDbLine
 10
695.7361940000001
 20
474.333388
 30
0.0
 11
695.7361940000001
 21
495.802554
 31
0.0
  0
LINE
  5
4827
330
2A
100
AcDbEntity
  8
NOTE
100
AcDbLine
 10
691.436616
 20
478.4499059999998
 30
0.0
 11
686.8536939999998
 21
478.4499059999998
 31
0.0
  0
LINE
  5
4828
330
2A
100
AcDbEntity
  8
NOTE
100
AcDbLine
 10
706.233694
 20
478.4499059999998
 30
0.0
 11
701.6507719999999
 21
478.4499059999998
 31
0.0
  0
LINE
  5
4829
330
2A
100
AcDbEntity
  8
NOTE
100
AcDbLine
 10
691.436616
 20
473.604906
 30
0.0
 11
686.8536939999998
 21
473.604906
 31
0.0
  0
LINE
  5
482A
330
2A
100
AcDbEntity
  8
NOTE
100
AcDbLine
 10
706.233694
 20
473.604906
 30
0.0
 11
701.6507719999999
 21
473.604906
 31
0.0
  0
LINE
  5
482B
330
2A
100
AcDbEntity
  8
NOTE
100
AcDbLine
 10
706.233694
 20
473.604906
 30
0.0
 11
706.233694
 21
478.4499059999998
 31
0.0
  0
LINE
  5
482C
330
2A
100
AcDbEntity
  8
NOTE
  6
CENTER
 62
     2
370
    13
100
AcDbLine
 10
676.1925779999998
 20
476.0274059999999
 30
0.0
 11
708.827546
 21
476.0274059999999
 31
0.0
  0
LINE
  5
482D
330
2A
100
AcDbEntity
  8
NOTE
100
AcDbLine
 10
543.8378939999998
 20
477.080792
 30
0.0
 11
543.8378939999998
 21
475.4657919999998
 31
0.0
  0
ARC
  5
482E
330
2A
100
AcDbEntity
  8
NOTE
100
AcDbCircle
 10
524.0627459999999
 20
476.2732919999998
 30
0.0
 40
5.652499999999998
100
AcDbArc
 50
8.213210999999825
 51
351.7867890000001
  0
LINE
  5
482F
330
2A
100
AcDbEntity
  8
NOTE
100
AcDbLine
 10
533.7527460000001
 20
477.080792
 30
0.0
 11
533.7527460000001
 21
478.6957919999998
 31
0.0
  0
LINE
  5
4830
330
2A
100
AcDbEntity
  8
NOTE
100
AcDbLine
 10
533.7527460000001
 20
473.8507919999998
 30
0.0
 11
533.7527460000001
 21
475.4657919999998
 31
0.0
  0
ARC
  5
4831
330
2A
100
AcDbEntity
  8
NOTE
100
AcDbCircle
 10
520.0262480000001
 20
476.2732919999998
 30
0.0
 40
0.3229999999999999
100
AcDbArc
 50
101.5297079999993
 51
258.4702920000007
  0
LINE
  5
4832
330
2A
100
AcDbEntity
  8
NOTE
100
AcDbLine
 10
519.9616879999998
 20
475.95681
 30
0.0
 11
522.3687279999998
 21
475.4657919999998
 31
0.0
  0
LINE
  5
4833
330
2A
100
AcDbEntity
  8
NOTE
100
AcDbLine
 10
519.9616879999998
 20
476.589774
 30
0.0
 11
522.3687279999998
 21
477.080792
 31
0.0
  0
LINE
  5
4834
330
2A
100
AcDbEntity
  8
NOTE
100
AcDbLine
 10
522.3687279999998
 20
475.4657919999998
 30
0.0
 11
543.8378939999998
 21
475.4657919999998
 31
0.0
  0
LINE
  5
4835
330
2A
100
AcDbEntity
  8
NOTE
100
AcDbLine
 10
522.3687279999998
 20
477.080792
 30
0.0
 11
543.8378939999998
 21
477.080792
 31
0.0
  0
LINE
  5
4836
330
2A
100
AcDbEntity
  8
NOTE
100
AcDbLine
 10
529.169824
 20
473.8507919999998
 30
0.0
 11
533.7527460000001
 21
473.8507919999998
 31
0.0
  0
LINE
  5
4837
330
2A
100
AcDbEntity
  8
NOTE
100
AcDbLine
 10
514.372746
 20
473.8507919999998
 30
0.0
 11
518.9556679999999
 21
473.8507919999998
 31
0.0
  0
LINE
  5
4838
330
2A
100
AcDbEntity
  8
NOTE
100
AcDbLine
 10
529.169824
 20
478.6957919999998
 30
0.0
 11
533.7527460000001
 21
478.6957919999998
 31
0.0
  0
LINE
  5
4839
330
2A
100
AcDbEntity
  8
NOTE
100
AcDbLine
 10
514.372746
 20
478.6957919999998
 30
0.0
 11
518.9556679999999
 21
478.6957919999998
 31
0.0
  0
LINE
  5
483A
330
2A
100
AcDbEntity
  8
NOTE
100
AcDbLine
 10
514.372746
 20
478.6957919999998
 30
0.0
 11
514.372746
 21
473.8507919999998
 31
0.0
  0
LINE
  5
483B
330
2A
100
AcDbEntity
  8
NOTE
100
AcDbLine
 10
497.347336
 20
507.185196
 30
0.0
 11
721.347336
 21
507.185196
 31
0.0
  0
LINE
  5
483C
330
2A
100
AcDbEntity
  8
NOTE
100
AcDbLine
 10
721.347336
 20
507.185196
 30
0.0
 11
721.347336
 21
437.1851959999998
 31
0.0
  0
LINE
  5
483D
330
2A
100
AcDbEntity
  8
NOTE
100
AcDbLine
 10
665.347336
 20
507.185196
 30
0.0
 11
665.347336
 21
447.185196
 31
0.0
  0
LINE
  5
483E
330
2A
100
AcDbEntity
  8
NOTE
100
AcDbLine
 10
609.347336
 20
507.185196
 30
0.0
 11
609.347336
 21
447.185196
 31
0.0
  0
LINE
  5
483F
330
2A
100
AcDbEntity
  8
NOTE
100
AcDbLine
 10
553.347336
 20
507.185196
 30
0.0
 11
553.347336
 21
447.185196
 31
0.0
  0
LINE
  5
4840
330
2A
100
AcDbEntity
  8
NOTE
100
AcDbLine
 10
721.347336
 20
437.1851959999998
 30
0.0
 11
497.347336
 21
437.1851959999998
 31
0.0
  0
LINE
  5
4841
330
2A
100
AcDbEntity
  8
NOTE
100
AcDbLine
 10
721.347336
 20
447.185196
 30
0.0
 11
497.347336
 21
447.185196
 31
0.0
  0
LINE
  5
4842
330
2A
100
AcDbEntity
  8
NOTE
100
AcDbLine
 10
721.347336
 20
457.185196
 30
0.0
 11
497.347336
 21
457.185196
 31
0.0
  0
LINE
  5
4843
330
2A
100
AcDbEntity
  8
NOTE
100
AcDbLine
 10
497.347336
 20
507.185196
 30
0.0
 11
497.347336
 21
437.1851959999998
 31
0.0
  0
LINE
  5
4844
330
2A
100
AcDbEntity
  8
NOTE
100
AcDbLine
 10
492.3548099999999
 20
114.848664
 30
0.0
 11
512.3548099999999
 21
109.48968
 31
0.0
  0
LINE
  5
4845
330
2A
100
AcDbEntity
  8
NOTE
100
AcDbLine
 10
512.3548099999999
 20
120.2076459999999
 30
0.0
 11
512.3548099999999
 21
109.48968
 31
0.0
  0
LINE
  5
4846
330
2A
100
AcDbEntity
  8
NOTE
100
AcDbLine
 10
492.3548099999999
 20
114.848664
 30
0.0
 11
512.3548099999999
 21
120.2076459999999
 31
0.0
  0
LINE
  5
4847
330
2A
100
AcDbEntity
  8
NOTE
100
AcDbLine
 10
492.3548099999999
 20
114.848664
 30
0.0
 11
552.3548099999999
 21
114.848664
 31
0.0
  0
DIMENSION
  5
4848
330
2A
100
AcDbEntity
  8
scale
100
AcDbDimension
  2
*D4
 10
381.0132290000002
 20
324.026038
 30
0.0
 11
375.7132290000001
 21
290.9373510000001
 31
0.0
 70
    32
  1
66
 71
     5
 42
66.17737399999999
  3
STANDARD
100
AcDbAlignedDimension
 13
398.264598
 23
257.848664
 33
0.0
 14
448.264598
 24
324.026038
 34
0.0
 50
90.0
100
AcDbRotatedDimension
  0
DIMENSION
  5
484A
330
2A
100
AcDbEntity
  8
scale
100
AcDbDimension
  2
*D5
 10
381.0132290000002
 20
114.848664
 30
0.0
 11
375.7132290000001
 21
82.69866400000006
 31
0.0
 70
    32
  1
64
 71
     5
 42
64.29999999999998
  3
STANDARD
100
AcDbAlignedDimension
 13
444.2645979999999
 23
50.548664
 33
0.0
 14
420.969816
 24
114.848664
 34
0.0
 50
90.0
100
AcDbRotatedDimension
  0
DIMENSION
  5
484C
330
2A
100
AcDbEntity
  8
scale
100
AcDbDimension
  2
*D6
 10
381.0132290000002
 20
232.848664
 30
0.0
 11
375.7132290000001
 21
173.848664
 31
0.0
 70
    32
  1
118
 71
     5
 42
118.0
  3
STANDARD
100
AcDbAlignedDimension
 13
420.969816
 23
114.848664
 33
0.0
 14
413.2645979999998
 24
232.848664
 34
0.0
 50
90.0
100
AcDbRotatedDimension
  0
DIMENSION
  5
484D
330
2A
100
AcDbEntity
  8
scale
100
AcDbDimension
  2
*D7
 10
381.0132290000002
 20
257.848664
 30
0.0
 11
375.7132290000001
 21
245.3486640000001
 31
0.0
 70
    32
  1
25
 71
     5
 42
25.00000000000003
  3
STANDARD
100
AcDbAlignedDimension
 13
413.2645979999998
 23
232.848664
 33
0.0
 14
398.264598
 24
257.848664
 34
0.0
 50
90.0
100
AcDbRotatedDimension
  0
DIMENSION
  5
484E
330
2A
100
AcDbEntity
  8
scale
100
AcDbDimension
  2
*D8
 10
312.666876
 20
336.43877
 30
0.0
 11
212.7471910000001
 21
341.73877
 31
0.0
 70
    32
  1
200
 71
     5
 42
199.8393699999999
  3
STANDARD
100
AcDbAlignedDimension
 13
112.8275060000001
 23
306.421382
 33
0.0
 14
312.666876
 24
316.776892
 34
0.0
100
AcDbRotatedDimension
  0
DIMENSION
  5
4850
330
2A
100
AcDbEntity
  8
scale
100
AcDbDimension
  2
*D9
 10
27.70175199999994
 20
436.3909599999999
 30
0.0
 11
22.40175199999987
 21
411.39096
 31
0.0
 70
    32
  1
50
 71
     5
 42
50.0
  3
STANDARD
100
AcDbAlignedDimension
 13
112.8275060000001
 23
386.39096
 33
0.0
 14
47.24766599999997
 24
436.3909599999999
 34
0.0
 50
90.0
100
AcDbRotatedDimension
  0
DIMENSION
  5
4851
330
2A
100
AcDbEntity
  8
scale
100
AcDbDimension
  2
*D10
 10
27.70175199999994
 20
511.3909599999999
 30
0.0
 11
22.40175199999987
 21
473.8909599999999
 31
0.0
 70
    32
  1
75
 71
     5
 42
75.0
  3
STANDARD
100
AcDbAlignedDimension
 13
47.24766599999997
 23
436.3909599999999
 33
0.0
 14
97.82750600000007
 24
511.3909599999999
 34
0.0
 50
90.0
100
AcDbRotatedDimension
  0
DIMENSION
  5
4852
330
2A
100
AcDbEntity
  8
scale
100
AcDbDimension
  2
*D11
 10
466.2645979999998
 20
15.92404199999998
 30
0.0
 11
449.7645979999998
 21
21.22404199999999
 31
0.0
 70
    32
  1
33
 71
     5
 42
33.0
  3
STANDARD
100
AcDbAlignedDimension
 13
433.2645979999998
 23
74.34866399999998
 33
0.0
 14
466.2645979999998
 24
74.34866399999998
 34
0.0
100
AcDbRotatedDimension
  0
DIMENSION
  5
4853
330
2A
100
AcDbEntity
  8
scale
100
AcDbDimension
  2
*D12
 10
448.264598
 20
32.27482599999999
 30
0.0
 11
440.7645979999998
 21
37.57482599999999
 31
0.0
 70
    32
  1
15
 71
     5
 42
15.0
  3
STANDARD
100
AcDbAlignedDimension
 13
433.2645979999998
 23
74.34866399999998
 33
0.0
 14
448.264598
 24
41.510514
 34
0.0
100
AcDbRotatedDimension
  0
LINE
  5
4854
330
2A
100
AcDbEntity
  8
3
100
AcDbLine
 10
426.5145979999998
 20
244.848664
 30
0.0
 11
470.014598
 21
244.848664
 31
0.0
  0
LINE
  5
4855
330
2A
100
AcDbEntity
  8
3
100
AcDbLine
 10
454.1645980000001
 20
257.848664
 30
0.0
 11
488.2645979999998
 21
257.848664
 31
0.0
  0
LINE
  5
4856
330
2A
100
AcDbEntity
  8
3
100
AcDbLine
 10
408.2645979999998
 20
257.848664
 30
0.0
 11
442.2935299999998
 21
257.848664
 31
0.0
  0
LINE
  5
4857
330
2A
100
AcDbEntity
  8
3
100
AcDbLine
 10
483.2645979999998
 20
249.848664
 30
0.0
 11
488.2645979999998
 21
249.848664
 31
0.0
  0
LINE
  5
4858
330
2A
100
AcDbEntity
  8
3
100
AcDbLine
 10
408.2645979999998
 20
249.848664
 30
0.0
 11
413.2645979999998
 21
249.848664
 31
0.0
  0
LINE
  5
4859
330
2A
100
AcDbEntity
  8
3
100
AcDbLine
 10
408.2645979999998
 20
257.848664
 30
0.0
 11
408.2645979999998
 21
249.848664
 31
0.0
  0
LINE
  5
485A
330
2A
100
AcDbEntity
  8
3
100
AcDbLine
 10
488.2645979999998
 20
257.848664
 30
0.0
 11
488.2645979999998
 21
249.848664
 31
0.0
  0
ARC
  5
485B
330
2A
100
AcDbEntity
  8
3
100
AcDbCircle
 10
426.5145979999998
 20
242.848664
 30
0.0
 40
2.0
100
AcDbArc
 50
90.0
 51
180.0
  0
ARC
  5
485C
330
2A
100
AcDbEntity
  8
3
100
AcDbCircle
 10
470.014598
 20
242.848664
 30
0.0
 40
2.0
100
AcDbArc
 50
0.0
 51
90.0
  0
ARC
  5
485D
330
2A
100
AcDbEntity
  8
3
100
AcDbCircle
 10
434.5145979999998
 20
242.848664
 30
0.0
 40
2.0
100
AcDbArc
 50
90.0
 51
180.0
  0
ARC
  5
485E
330
2A
100
AcDbEntity
  8
3
100
AcDbCircle
 10
462.014598
 20
242.848664
 30
0.0
 40
2.0
100
AcDbArc
 50
0.0
 51
90.0
  0
LINE
  5
485F
330
2A
100
AcDbEntity
  8
3
100
AcDbLine
 10
464.0145979999998
 20
242.848664
 30
0.0
 11
464.0145979999998
 21
232.848664
 31
0.0
  0
LINE
  5
4860
330
2A
100
AcDbEntity
  8
3
100
AcDbLine
 10
432.514598
 20
242.848664
 30
0.0
 11
432.514598
 21
232.848664
 31
0.0
  0
LINE
  5
4861
330
2A
100
AcDbEntity
  8
3
100
AcDbLine
 10
483.2645979999998
 20
257.848664
 30
0.0
 11
483.2645979999998
 21
232.848664
 31
0.0
  0
LINE
  5
4862
330
2A
100
AcDbEntity
  8
3
100
AcDbLine
 10
413.2645979999998
 20
257.848664
 30
0.0
 11
413.2645979999998
 21
232.848664
 31
0.0
  0
LINE
  5
4863
330
2A
100
AcDbEntity
  8
3
100
AcDbLine
 10
100.580058
 20
257.848664
 30
0.0
 11
100.580058
 21
249.848664
 31
0.0
  0
LINE
  5
4864
330
2A
100
AcDbEntity
  8
3
100
AcDbLine
 10
125.0749559999999
 20
257.848664
 30
0.0
 11
125.0749559999999
 21
249.848664
 31
0.0
  0
ARC
  5
4865
330
2A
100
AcDbEntity
  8
3
100
AcDbCircle
 10
91.07750600000008
 20
247.848664
 30
0.0
 40
2.0
100
AcDbArc
 50
90.0
 51
180.0
  0
ARC
  5
4866
330
2A
100
AcDbEntity
  8
3
100
AcDbCircle
 10
134.5775060000001
 20
247.848664
 30
0.0
 40
2.0
100
AcDbArc
 50
0.0
 51
90.0
  0
ARC
  5
4867
330
2A
100
AcDbEntity
  8
3
100
AcDbCircle
 10
99.07750600000007
 20
247.848664
 30
0.0
 40
2.0
100
AcDbArc
 50
90.0
 51
180.0
  0
ARC
  5
4868
330
2A
100
AcDbEntity
  8
3
100
AcDbCircle
 10
126.5775060000001
 20
247.848664
 30
0.0
 40
2.0
100
AcDbArc
 50
0.0
 51
90.0
  0
LINE
  5
4869
330
2A
100
AcDbEntity
  8
3
100
AcDbLine
 10
134.5775060000001
 20
249.848664
 30
0.0
 11
91.07750600000008
 21
249.848664
 31
0.0
  0
LINE
  5
486A
330
2A
100
AcDbEntity
  8
3
100
AcDbLine
 10
128.5775060000001
 20
232.848664
 30
0.0
 11
128.5775060000001
 21
247.848664
 31
0.0
  0
LINE
  5
486B
330
2A
100
AcDbEntity
  8
3
100
AcDbLine
 10
97.07750600000007
 20
232.848664
 30
0.0
 11
97.07750600000007
 21
247.848664
 31
0.0
  0
LINE
  5
486C
330
2A
100
AcDbEntity
  8
3
100
AcDbLine
 10
147.8275060000001
 20
232.848664
 30
0.0
 11
147.8275060000001
 21
257.848664
 31
0.0
  0
LINE
  5
486D
330
2A
100
AcDbEntity
  8
3
100
AcDbLine
 10
77.82750600000007
 20
232.848664
 30
0.0
 11
77.82750600000007
 21
257.848664
 31
0.0
  0
LINE
  5
486E
330
2A
100
AcDbEntity
  8
3
100
AcDbLine
 10
147.8275060000001
 20
257.848664
 30
0.0
 11
77.82750600000007
 21
257.848664
 31
0.0
  0
ARC
  5
486F
330
2A
100
AcDbEntity
  8
2
100
AcDbCircle
 10
471.4790279999999
 20
259.348664
 30
0.0
 40
0.5
100
AcDbArc
 50
0.0
 51
90.0
  0
ARC
  5
4870
330
2A
100
AcDbEntity
  8
2
100
AcDbCircle
 10
480.6266399999998
 20
259.348664
 30
0.0
 40
0.5
100
AcDbArc
 50
0.0
 51
90.0
  0
LINE
  5
4871
330
2A
100
AcDbEntity
  8
2
100
AcDbLine
 10
62.827268
 20
259.848664
 30
0.0
 11
62.827268
 21
257.848664
 31
0.0
  0
LINE
  5
4872
330
2A
100
AcDbEntity
  8
2
100
AcDbLine
 10
152.238617
 20
259.848664
 30
0.0
 11
152.238617
 21
257.848664
 31
0.0
  0
LINE
  5
4873
330
2A
100
AcDbEntity
  8
2
100
AcDbLine
 10
62.827268
 20
257.848664
 30
0.0
 11
187.827268
 21
257.848664
 31
0.0
  0
LINE
  5
4874
330
2A
100
AcDbEntity
  8
2
100
AcDbLine
 10
187.827268
 20
259.848664
 30
0.0
 11
62.827268
 21
259.848664
 31
0.0
  0
LINE
  5
4875
330
2A
100
AcDbEntity
  8
2
100
AcDbLine
 10
187.827268
 20
259.848664
 30
0.0
 11
187.827268
 21
257.848664
 31
0.0
  0
LINE
  5
4876
330
2A
100
AcDbEntity
  8
2
100
AcDbLine
 10
182.898336
 20
259.848664
 30
0.0
 11
193.453197
 21
270.403524
 31
0.0
  0
LINE
  5
4877
330
2A
100
AcDbEntity
  8
2
100
AcDbLine
 10
180.827268
 20
257.848664
 30
0.0
 11
180.827268
 21
257.777596
 31
0.0
  0
LINE
  5
4878
330
2A
100
AcDbEntity
  8
2
100
AcDbLine
 10
175.898336
 20
257.848664
 30
0.0
 11
175.898336
 21
253.297765
 31
0.0
  0
LINE
  5
4879
330
2A
100
AcDbEntity
  8
2
100
AcDbLine
 10
167.0535199999999
 20
257.848664
 30
0.0
 11
167.0535199999999
 21
253.848664
 31
0.0
  0
LINE
  5
487A
330
2A
100
AcDbEntity
  8
2
100
AcDbLine
 10
179.9272679999999
 20
256.877596
 30
0.0
 11
179.9272679999999
 21
257.848664
 31
0.0
  0
ARC
  5
487B
330
2A
100
AcDbEntity
  8
2
100
AcDbCircle
 10
175.827268
 20
280.69348
 30
0.0
 40
5.0
100
AcDbArc
 50
315.0000000000002
 51
338.3483109999994
  0
LINE
  5
487C
330
2A
100
AcDbEntity
  8
2
100
AcDbLine
 10
180.827268
 20
278.848664
 30
0.0
 11
180.827268
 21
259.848664
 31
0.0
  0
ARC
  5
487D
330
2A
100
AcDbEntity
  8
2
100
AcDbCircle
 10
224.3576330000001
 20
293.175693
 30
0.0
 40
3.0
100
AcDbArc
 50
258.3026400000037
 51
260.0000000000014
  0
LINE
  5
487E
330
2A
100
AcDbEntity
  8
2
100
AcDbLine
 10
221.827268
 20
278.390465
 30
0.0
 11
221.827268
 21
288.97642
 31
0.0
  0
ARC
  5
487F
330
2A
100
AcDbEntity
  8
2
100
AcDbCircle
 10
261.5236890000001
 20
283.394255
 30
0.0
 40
1.0
100
AcDbArc
 50
266.0000000000035
 51
356.0000000000002
  0
ARC
  5
4880
330
2A
100
AcDbEntity
  8
2
100
AcDbCircle
 10
247.557793
 20
284.370846
 30
0.0
 40
1.0
100
AcDbArc
 50
176.0000000000002
 51
266.0000000000035
  0
LINE
  5
4881
330
2A
100
AcDbEntity
  8
2
100
AcDbLine
 10
263.644873
 20
285.066151
 30
0.0
 11
262.575726
 21
284.1034870000001
 31
0.0
  0
LINE
  5
4882
330
2A
100
AcDbEntity
  8
2
100
AcDbLine
 10
246.613004
 20
285.195326
 30
0.0
 11
245.6979529999999
 21
286.366539
 31
0.0
  0
ARC
  5
4883
330
2A
100
AcDbEntity
  8
2
100
AcDbCircle
 10
173.827268
 20
257.848664
 30
0.0
 40
5.0
100
AcDbArc
 50
270.0
 51
315.0000000000002
  0
ARC
  5
4884
330
2A
100
AcDbEntity
  8
2
100
AcDbCircle
 10
257.3420630000001
 20
281.3283829999999
 30
0.0
 40
8.0
100
AcDbArc
 50
269.8453959999986
 51
303.429059999999
  0
ARC
  5
4885
330
2A
100
AcDbEntity
  8
2
100
AcDbCircle
 10
266.1565289999999
 20
267.975286
 30
0.0
 40
8.0
100
AcDbArc
 50
52.34091199999903
 51
123.429059999999
  0
ARC
  5
4886
330
2A
100
AcDbEntity
  8
2
100
AcDbCircle
 10
275.9319190000001
 20
280.641846
 30
0.0
 40
8.0
100
AcDbArc
 50
232.340911999999
 51
303.6590880000006
  0
ARC
  5
4887
330
2A
100
AcDbEntity
  8
2
100
AcDbCircle
 10
284.799923
 20
267.324244
 30
0.0
 40
8.0
100
AcDbArc
 50
52.34091199999903
 51
123.6590880000006
  0
ARC
  5
4888
330
2A
100
AcDbEntity
  8
2
100
AcDbCircle
 10
294.5753139999999
 20
279.990804
 30
0.0
 40
8.0
100
AcDbArc
 50
232.340911999999
 51
303.6590880000006
  0
ARC
  5
4889
330
2A
100
AcDbEntity
  8
2
100
AcDbCircle
 10
303.443317
 20
266.673202
 30
0.0
 40
8.0
100
AcDbArc
 50
42.42700399999874
 51
123.6590880000006
  0
ARC
  5
488A
330
2A
100
AcDbEntity
  8
2
100
AcDbCircle
 10
310.8246920000001
 20
273.419706
 30
0.0
 40
2.0
100
AcDbArc
 50
222.4270039999987
 51
359.9851329999987
  0
ARC
  5
488B
330
2A
100
AcDbEntity
  8
2
100
AcDbCircle
 10
257.5363450000001
 20
353.32812
 30
0.0
 40
80.0
100
AcDbArc
 50
260.0000000000014
 51
269.8453959999986
  0
LINE
  5
488C
330
2A
100
AcDbEntity
  8
2
100
AcDbLine
 10
250.8427529999999
 20
288.341204
 30
0.0
 11
256.4119719999999
 21
287.951766
 31
0.0
  0
LINE
  5
488D
330
2A
100
AcDbEntity
  8
2
100
AcDbLine
 10
175.898336
 20
273.69348
 30
0.0
 11
175.898336
 21
259.848664
 31
0.0
  0
LINE
  5
488E
330
2A
100
AcDbEntity
  8
2
100
AcDbLine
 10
247.488036
 20
283.373282
 30
0.0
 11
261.453933
 21
282.396691
 31
0.0
  0
ARC
  5
488F
330
2A
100
AcDbEntity
  8
2
100
AcDbCircle
 10
259.5285610000001
 20
283.533768
 30
0.0
 40
1.0
100
AcDbArc
 50
176.0000000000002
 51
266.0000000000035
  0
LINE
  5
4890
330
2A
100
AcDbEntity
  8
2
100
AcDbLine
 10
167.0535199999999
 20
264.848664
 30
0.0
 11
167.0535199999999
 21
259.848664
 31
0.0
  0
ARC
  5
4891
330
2A
100
AcDbEntity
  8
2
100
AcDbCircle
 10
214.6664000000001
 20
249.190321
 30
0.0
 40
30.0
100
AcDbArc
 50
80.00000000000147
 51
135.0000000000002
  0
LINE
  5
4892
330
2A
100
AcDbEntity
  8
2
100
AcDbLine
 10
167.0535199999999
 20
264.848664
 30
0.0
 11
179.362802
 21
277.157946
 31
0.0
  0
LINE
  5
4893
330
2A
100
AcDbEntity
  8
2
100
AcDbLine
 10
177.3628020000001
 20
254.31313
 30
0.0
 11
180.898336
 21
257.848664
 31
0.0
  0
LINE
  5
4894
330
2A
100
AcDbEntity
  8
2
100
AcDbLine
 10
168.0535199999999
 20
252.848664
 30
0.0
 11
173.827268
 21
252.848664
 31
0.0
  0
ARC
  5
4895
330
2A
100
AcDbEntity
  8
2
100
AcDbCircle
 10
168.0535199999999
 20
253.848664
 30
0.0
 40
1.0
100
AcDbArc
 50
180.0
 51
270.0
  0
LINE
  5
4896
330
2A
100
AcDbEntity
  8
2
100
AcDbLine
 10
305.1044590000001
 20
283.61835
 30
0.0
 11
263.644873
 21
285.066151
 31
0.0
  0
LINE
  5
4897
330
2A
100
AcDbEntity
  8
2
100
AcDbLine
 10
312.8252629999999
 20
275.621148
 30
0.0
 11
312.8246920000001
 21
273.419187
 31
0.0
  0
LINE
  5
4898
330
2A
100
AcDbEntity
  8
2
100
AcDbLine
 10
257.8954579999999
 20
288.850472
 30
0.0
 11
258.107557
 21
288.60648
 31
0.0
  0
LINE
  5
4899
330
2A
100
AcDbEntity
  8
2
100
AcDbLine
 10
250.8427529999999
 20
288.341204
 30
0.0
 11
251.910073
 21
289.269011
 31
0.0
  0
LINE
  5
489A
330
2A
100
AcDbEntity
  8
2
100
AcDbLine
 10
258.5309970000001
 20
283.603525
 30
0.0
 11
258.7482190000001
 21
286.70994
 31
0.0
  0
LINE
  5
489B
330
2A
100
AcDbEntity
  8
2
100
AcDbLine
 10
250.6602189999999
 20
285.730851
 30
0.0
 11
250.8427529999999
 21
288.341204
 31
0.0
  0
LINE
  5
489C
330
2A
100
AcDbEntity
  8
2
100
AcDbLine
 10
251.910073
 20
289.269011
 30
0.0
 11
257.8954579999999
 21
288.850472
 31
0.0
  0
LINE
  5
489D
330
2A
100
AcDbEntity
  8
2
100
AcDbLine
 10
262.521254
 20
283.324499
 30
0.0
 11
262.575726
 21
284.1034870000001
 31
0.0
  0
LINE
  5
489E
330
2A
100
AcDbEntity
  8
2
100
AcDbLine
 10
246.5602289999999
 20
284.440602
 30
0.0
 11
246.613004
 21
285.195326
 31
0.0
  0
LINE
  5
489F
330
2A
100
AcDbEntity
  8
2
100
AcDbLine
 10
219.875845
 20
278.734554
 30
0.0
 11
243.6444899999999
 21
274.5435
 31
0.0
  0
ARC
  5
48A0
330
2A
100
AcDbEntity
  8
2
100
AcDbCircle
 10
304.8252629999999
 20
275.623224
 30
0.0
 40
8.0
100
AcDbArc
 50
359.9851329999987
 51
88.00000000000286
  0
CIRCLE
  5
48A1
330
2A
100
AcDbEntity
  8
2
100
AcDbCircle
 10
202.827268
 20
288.848664
 30
0.0
 40
1.5
  0
LINE
  5
48A2
330
2A
100
AcDbEntity
  8
2
  6
CENTER
 62
     2
370
    13
100
AcDbLine
 10
104.084178
 20
275.348664
 30
0.0
 11
121.875931
 21
275.348664
 31
0.0
  0
LINE
  5
48A3
330
2A
100
AcDbEntity
  8
2
100
AcDbLine
 10
94.75049799999986
 20
278.334335
 30
0.0
 11
78.45268699999997
 21
274.471008
 31
0.0
  0
ARC
  5
48A4
330
2A
100
AcDbEntity
  8
2
100
AcDbCircle
 10
131.126882
 20
273.447939
 30
0.0
 40
13.0
100
AcDbArc
 50
102.0000000000027
 51
124.4924620000004
  0
ARC
  5
48A5
330
2A
100
AcDbEntity
  8
2
100
AcDbCircle
 10
126.596499
 20
280.041545
 30
0.0
 40
5.0
100
AcDbArc
 50
124.7140370000026
 51
180.0
  0
LINE
  5
48A6
330
2A
100
AcDbEntity
  8
2
100
AcDbLine
 10
121.596499
 20
280.041545
 30
0.0
 11
121.596499
 21
269.848664
 31
0.0
  0
LINE
  5
48A7
330
2A
100
AcDbEntity
  8
2
  6
CENTER
 62
     2
370
    13
100
AcDbLine
 10
202.827268
 20
299.240154
 30
0.0
 11
202.827268
 21
277.856269
 31
0.0
  0
LINE
  5
48A8
330
2A
100
AcDbEntity
  8
2
  6
CENTER
 62
     2
370
    13
100
AcDbLine
 10
212.749889
 20
288.848664
 30
0.0
 11
192.542615
 21
288.848664
 31
0.0
  0
ARC
  5
48A9
330
2A
100
AcDbEntity
  8
2
  6
CENTER
 62
     2
370
    13
100
AcDbCircle
 10
202.827268
 20
288.848664
 30
0.0
 40
52.075925
100
AcDbArc
 50
348.7567320000007
 51
23.16762600000224
  0
LINE
  5
48AA
330
2A
100
AcDbEntity
  8
2
100
AcDbLine
 10
109.940517
 20
280.348664
 30
0.0
 11
107.053766
 21
275.348664
 31
0.0
  0
LINE
  5
48AB
330
2A
100
AcDbEntity
  8
2
100
AcDbLine
 10
115.7140199999999
 20
280.348664
 30
0.0
 11
109.940517
 21
280.348664
 31
0.0
  0
LINE
  5
48AC
330
2A
100
AcDbEntity
  8
2
100
AcDbLine
 10
118.6007709999999
 20
275.348664
 30
0.0
 11
115.7140199999999
 21
280.348664
 31
0.0
  0
LINE
  5
48AD
330
2A
100
AcDbEntity
  8
2
100
AcDbLine
 10
115.7140199999999
 20
270.348664
 30
0.0
 11
118.6007709999999
 21
275.348664
 31
0.0
  0
LINE
  5
48AE
330
2A
100
AcDbEntity
  8
2
100
AcDbLine
 10
109.940517
 20
270.348664
 30
0.0
 11
115.7140199999999
 21
270.348664
 31
0.0
  0
LINE
  5
48AF
330
2A
100
AcDbEntity
  8
2
100
AcDbLine
 10
107.053766
 20
275.348664
 30
0.0
 11
109.940517
 21
270.348664
 31
0.0
  0
CIRCLE
  5
48B0
330
2A
100
AcDbEntity
  8
2
100
AcDbCircle
 10
112.827268
 20
275.348664
 30
0.0
 40
2.5
  0
CIRCLE
  5
48B1
330
2A
100
AcDbEntity
  8
2
100
AcDbCircle
 10
112.827268
 20
275.348664
 30
0.0
 40
3.0
  0
CIRCLE
  5
48B2
330
2A
100
AcDbEntity
  8
2
100
AcDbCircle
 10
112.827268
 20
275.348664
 30
0.0
 40
5.0
  0
LINE
  5
48B3
330
2A
100
AcDbEntity
  8
2
100
AcDbLine
 10
258.7367360000001
 20
282.92302
 30
0.0
 11
259.5397849999999
 21
282.895706
 31
0.0
  0
ARC
  5
48B4
330
2A
100
AcDbEntity
  8
2
100
AcDbCircle
 10
249.552921
 20
284.231333
 30
0.0
 40
1.0
100
AcDbArc
 50
111.1058450000036
 51
266.0019910000014
  0
ARC
  5
48B5
330
2A
100
AcDbEntity
  8
2
100
AcDbCircle
 10
259.036936
 20
299.009638
 30
0.0
 40
1.0
100
AcDbArc
 50
292.0814630000016
 51
112.0814630000015
  0
LINE
  5
48B6
330
2A
100
AcDbEntity
  8
2
100
AcDbLine
 10
253.3971790000001
 20
295.64254
 30
0.0
 11
259.7886949999999
 21
294.797145
 31
0.0
  0
LINE
  5
48B7
330
2A
100
AcDbEntity
  8
2
100
AcDbLine
 10
254.99957
 20
300.34389
 30
0.0
 11
259.1186210000001
 21
300.006296
 31
0.0
  0
ARC
  5
48B8
330
2A
100
AcDbEntity
  8
2
100
AcDbCircle
 10
259.772739
 20
288.177495
 30
0.0
 40
1.0
100
AcDbArc
 50
291.1129909999998
 51
111.1129909999998
  0
LINE
  5
48B9
330
2A
100
AcDbEntity
  8
2
100
AcDbLine
 10
256.352815
 20
287.955902
 30
0.0
 11
256.3967729999999
 21
287.945897
 31
0.0
  0
LINE
  5
48BA
330
2A
100
AcDbEntity
  8
2
100
AcDbLine
 10
253.398717
 20
290.670614
 30
0.0
 11
259.9970250000001
 21
289.152019
 31
0.0
  0
LINE
  5
48BB
330
2A
100
AcDbEntity
  8
2
100
AcDbLine
 10
258.623509
 20
284.926499
 30
0.0
 11
259.5397849999999
 21
284.895706
 31
0.0
  0
CIRCLE
  5
48BC
330
2A
100
AcDbEntity
  8
2
100
AcDbCircle
 10
259.5397849999999
 20
283.895706
 30
0.0
 40
1.0
  0
ARC
  5
48BD
330
2A
100
AcDbEntity
  8
2
100
AcDbCircle
 10
259.657569
 20
293.805779
 30
0.0
 40
1.0
100
AcDbArc
 50
288.394068999996
 51
108.394068999996
  0
ARC
  5
48BE
330
2A
100
AcDbEntity
  8
2
100
AcDbCircle
 10
249.5160230000001
 20
295.147184
 30
0.0
 40
1.0
100
AcDbArc
 50
112.0814630000015
 51
292.0814630000016
  0
ARC
  5
48BF
330
2A
100
AcDbEntity
  8
2
100
AcDbCircle
 10
249.7022139999999
 20
290.495218
 30
0.0
 40
1.0
100
AcDbArc
 50
108.394068999996
 51
288.394068999996
  0
LINE
  5
48C0
330
2A
100
AcDbEntity
  8
2
100
AcDbLine
 10
249.4802810000001
 20
289.520156
 30
0.0
 11
251.634843
 21
289.029758
 31
0.0
  0
LINE
  5
48C1
330
2A
100
AcDbEntity
  8
2
100
AcDbLine
 10
260.1329479999999
 20
287.244623
 30
0.0
 11
249.7053510000001
 21
283.218232
 31
0.0
  0
LINE
  5
48C2
330
2A
100
AcDbEntity
  8
2
100
AcDbLine
 10
259.4125309999999
 20
289.110367
 30
0.0
 11
249.1927129999999
 21
285.164205
 31
0.0
  0
LINE
  5
48C3
330
2A
100
AcDbEntity
  8
2
100
AcDbLine
 10
259.973119
 20
292.856871
 30
0.0
 11
250.0177650000001
 21
289.54631
 31
0.0
  0
LINE
  5
48C4
330
2A
100
AcDbEntity
  8
2
100
AcDbLine
 10
259.3420180000001
 20
294.754688
 30
0.0
 11
249.386663
 21
291.444127
 31
0.0
  0
LINE
  5
48C5
330
2A
100
AcDbEntity
  8
2
100
AcDbLine
 10
259.412861
 20
298.082988
 30
0.0
 11
249.8919470000001
 21
294.220533
 31
0.0
  0
LINE
  5
48C6
330
2A
100
AcDbEntity
  8
2
100
AcDbLine
 10
258.661012
 20
299.936288
 30
0.0
 11
249.1400980000001
 21
296.073834
 31
0.0
  0
LINE
  5
48C7
330
2A
100
AcDbEntity
  8
2
100
AcDbLine
 10
249.2646199999999
 20
298.807214
 30
0.0
 11
254.7663499999999
 21
298.356298
 31
0.0
  0
LINE
  5
48C8
330
2A
100
AcDbEntity
  8
2
100
AcDbLine
 10
249.384896
 20
294.155818
 30
0.0
 11
255.220151
 21
293.383999
 31
0.0
  0
ARC
  5
48C9
330
2A
100
AcDbEntity
  8
2
100
AcDbCircle
 10
167.2199820000001
 20
268.848664
 30
0.0
 40
10.0
100
AcDbArc
 50
90.0
 51
102.0000000000027
  0
ARC
  5
48CA
330
2A
100
AcDbEntity
  8
2
100
AcDbCircle
 10
206.6851329999999
 20
288.848664
 30
0.0
 40
10.0
100
AcDbArc
 50
270.0
 51
315.0000000000002
  0
LINE
  5
48CB
330
2A
100
AcDbEntity
  8
2
100
AcDbLine
 10
167.2199820000001
 20
278.848664
 30
0.0
 11
206.6851329999999
 21
278.848664
 31
0.0
  0
ARC
  5
48CC
330
2A
100
AcDbEntity
  8
2
100
AcDbCircle
 10
206.827268
 20
279.848664
 30
0.0
 40
1.0
100
AcDbArc
 50
270.0
 51
0.0
  0
ARC
  5
48CD
330
2A
100
AcDbEntity
  8
2
100
AcDbCircle
 10
198.827268
 20
279.848664
 30
0.0
 40
1.0
100
AcDbArc
 50
180.0
 51
270.0
  0
ARC
  5
48CE
330
2A
100
AcDbEntity
  8
2
100
AcDbCircle
 10
244.727631
 20
256.1804850000001
 30
0.0
 40
40.0
100
AcDbArc
 50
105.0000000000012
 51
135.0000000000002
  0
LINE
  5
48CF
330
2A
100
AcDbEntity
  8
2
100
AcDbLine
 10
213.7562
 20
281.777596
 30
0.0
 11
216.44336
 21
284.464756
 31
0.0
  0
ARC
  5
48D0
330
2A
100
AcDbEntity
  8
2
100
AcDbCircle
 10
130.827268
 20
289.741704
 30
0.0
 40
3.0
100
AcDbArc
 50
180.0
 51
282.0000000000028
  0
LINE
  5
48D1
330
2A
100
AcDbEntity
  8
2
100
AcDbLine
 10
123.827268
 20
269.848664
 30
0.0
 11
165.140865
 21
278.63014
 31
0.0
  0
LINE
  5
48D2
330
2A
100
AcDbEntity
  8
2
100
AcDbLine
 10
311.9475470000001
 20
315.603054
 30
0.0
 11
234.3748700000001
 21
294.817518
 31
0.0
  0
ARC
  5
48D3
330
2A
100
AcDbEntity
  8
2
100
AcDbCircle
 10
311.6887280000002
 20
316.5689799999999
 30
0.0
 40
1.0
100
AcDbArc
 50
285.0000000000012
 51
11.99999999999996
  0
LINE
  5
48D4
330
2A
100
AcDbEntity
  8
2
100
AcDbLine
 10
312.6668749999999
 20
316.776891
 30
0.0
 11
311.96784
 21
320.065596
 31
0.0
  0
ARC
  5
48D5
330
2A
100
AcDbEntity
  8
2
100
AcDbCircle
 10
307.077102
 20
319.026038
 30
0.0
 40
5.0
100
AcDbArc
 50
11.99999999999996
 51
102.0000000000027
  0
LINE
  5
48D6
330
2A
100
AcDbEntity
  8
2
100
AcDbLine
 10
197.827268
 20
288.848664
 30
0.0
 11
197.827268
 21
279.848664
 31
0.0
  0
LINE
  5
48D7
330
2A
100
AcDbEntity
  8
2
100
AcDbLine
 10
207.827268
 20
288.848664
 30
0.0
 11
207.827268
 21
279.848664
 31
0.0
  0
ARC
  5
48D8
330
2A
100
AcDbEntity
  8
2
100
AcDbCircle
 10
202.827268
 20
288.848664
 30
0.0
 40
5.0
100
AcDbArc
 50
0.0
 51
180.0
  0
CIRCLE
  5
48D9
330
2A
100
AcDbEntity
  8
2
100
AcDbCircle
 10
202.827268
 20
288.848664
 30
0.0
 40
2.0
  0
LINE
  5
48DA
330
2A
100
AcDbEntity
  8
2
100
AcDbLine
 10
128.4240299999999
 20
286.163858
 30
0.0
 11
306.0375429999999
 21
323.916776
 31
0.0
  0
ARC
  5
48DB
330
2A
100
AcDbEntity
  8
2
100
AcDbCircle
 10
89.48890499999995
 20
300.530866
 30
0.0
 40
22.811628
100
AcDbArc
 50
283.3355780000013
 51
313.1280650000006
  0
LINE
  5
48DC
330
2A
100
AcDbEntity
  8
2
100
AcDbLine
 10
126.827268
 20
290.848664
 30
0.0
 11
98.827268
 21
290.848664
 31
0.0
  0
ARC
  5
48DD
330
2A
100
AcDbEntity
  8
2
100
AcDbCircle
 10
118.596499
 20
289.848664
 30
0.0
 40
1.0
100
AcDbArc
 50
0.0
 51
90.0
  0
ARC
  5
48DE
330
2A
100
AcDbEntity
  8
2
100
AcDbCircle
 10
107.058037
 20
289.848664
 30
0.0
 40
1.0
100
AcDbArc
 50
90.0
 51
180.0
  0
ARC
  5
48DF
330
2A
100
AcDbEntity
  8
2
100
AcDbCircle
 10
78.827268
 20
271.748041
 30
0.0
 40
3.0
100
AcDbArc
 50
109.9999999999969
 51
180.0
  0
LINE
  5
48E0
330
2A
100
AcDbEntity
  8
2
100
AcDbLine
 10
119.596499
 20
289.848664
 30
0.0
 11
119.596499
 21
269.848664
 31
0.0
  0
LINE
  5
48E1
330
2A
100
AcDbEntity
  8
2
100
AcDbLine
 10
106.058037
 20
289.848664
 30
0.0
 11
106.058037
 21
269.848664
 31
0.0
  0
LINE
  5
48E2
330
2A
100
AcDbEntity
  8
2
100
AcDbLine
 10
123.827268
 20
268.848664
 30
0.0
 11
123.827268
 21
269.848664
 31
0.0
  0
LINE
  5
48E3
330
2A
100
AcDbEntity
  8
2
100
AcDbLine
 10
123.827268
 20
268.848664
 30
0.0
 11
101.827268
 21
268.848664
 31
0.0
  0
LINE
  5
48E4
330
2A
100
AcDbEntity
  8
2
100
AcDbLine
 10
127.827268
 20
289.741704
 30
0.0
 11
127.827268
 21
289.848664
 31
0.0
  0
LINE
  5
48E5
330
2A
100
AcDbEntity
  8
2
100
AcDbLine
 10
97.827268
 20
285.357047
 30
0.0
 11
97.827268
 21
289.848664
 31
0.0
  0
LINE
  5
48E6
330
2A
100
AcDbEntity
  8
2
100
AcDbLine
 10
98.827268
 20
290.848664
 30
0.0
 11
97.827268
 21
289.848664
 31
0.0
  0
LINE
  5
48E7
330
2A
100
AcDbEntity
  8
2
100
AcDbLine
 10
127.827268
 20
289.848664
 30
0.0
 11
126.827268
 21
290.848664
 31
0.0
  0
LINE
  5
48E8
330
2A
100
AcDbEntity
  8
2
100
AcDbLine
 10
75.827268
 20
271.748041
 30
0.0
 11
75.827268
 21
269.848664
 31
0.0
  0
LINE
  5
48E9
330
2A
100
AcDbEntity
  8
2
100
AcDbLine
 10
101.827268
 20
268.848664
 30
0.0
 11
101.827268
 21
269.848664
 31
0.0
  0
LINE
  5
48EA
330
2A
100
AcDbEntity
  8
2
100
AcDbLine
 10
123.827268
 20
269.848664
 30
0.0
 11
75.827268
 21
269.848664
 31
0.0
  0
LINE
  5
48EB
330
2A
100
AcDbEntity
  8
2
100
AcDbLine
 10
77.8012080000001
 20
274.567119
 30
0.0
 11
94.53736900000015
 21
280.658584
 31
0.0
  0
ARC
  5
48EC
330
2A
100
AcDbEntity
  8
2
100
AcDbCircle
 10
92.827268
 20
285.357047
 30
0.0
 40
5.0
100
AcDbArc
 50
289.9999999999969
 51
0.0
  0
LINE
  5
48ED
330
2A
100
AcDbEntity
  8
2
100
AcDbLine
 10
223.836689
 20
290.221269
 30
0.0
 11
245.6979529999999
 21
286.366539
 31
0.0
  0
ARC
  5
48EE
330
2A
100
AcDbEntity
  8
2
100
AcDbCircle
 10
469.763334
 20
257.669904
 30
0.0
 40
7.678758
100
AcDbArc
 50
64.96034000000206
 51
115.0396599999979
  0
LINE
  5
48EF
330
2A
100
AcDbEntity
  8
2
100
AcDbLine
 10
473.013334
 20
259.848664
 30
0.0
 11
473.013334
 21
264.626976
 31
0.0
  0
LINE
  5
48F0
330
2A
100
AcDbEntity
  8
2
100
AcDbLine
 10
466.5133339999998
 20
259.848664
 30
0.0
 11
466.5133339999998
 21
265.348664
 31
0.0
  0
ARC
  5
48F1
330
2A
100
AcDbEntity
  8
2
100
AcDbCircle
 10
476.2633339999998
 20
257.669904
 30
0.0
 40
7.678758
100
AcDbArc
 50
64.96034000000206
 51
115.0396599999979
  0
LINE
  5
48F2
330
2A
100
AcDbEntity
  8
2
100
AcDbLine
 10
479.5133339999998
 20
265.348664
 30
0.0
 11
466.5133339999998
 21
265.348664
 31
0.0
  0
LINE
  5
48F3
330
2A
100
AcDbEntity
  8
2
100
AcDbLine
 10
479.5133339999998
 20
259.848664
 30
0.0
 11
479.5133339999998
 21
265.348664
 31
0.0
  0
LINE
  5
48F4
330
2A
100
AcDbEntity
  8
2
100
AcDbLine
 10
430.0158599999998
 20
259.848664
 30
0.0
 11
430.0158599999998
 21
265.348664
 31
0.0
  0
ARC
  5
48F5
330
2A
100
AcDbEntity
  8
2
100
AcDbCircle
 10
426.7658599999998
 20
257.669904
 30
0.0
 40
7.678758
100
AcDbArc
 50
64.96034000000206
 51
115.0396599999979
  0
LINE
  5
48F6
330
2A
100
AcDbEntity
  8
2
100
AcDbLine
 10
423.51586
 20
259.848664
 30
0.0
 11
423.51586
 21
264.626976
 31
0.0
  0
ARC
  5
48F7
330
2A
100
AcDbEntity
  8
2
100
AcDbCircle
 10
420.2658599999998
 20
257.669904
 30
0.0
 40
7.678758
100
AcDbArc
 50
64.96034000000206
 51
115.0396599999979
  0
LINE
  5
48F8
330
2A
100
AcDbEntity
  8
2
100
AcDbLine
 10
417.0158599999998
 20
265.348664
 30
0.0
 11
430.0158599999998
 21
265.348664
 31
0.0
  0
LINE
  5
48F9
330
2A
100
AcDbEntity
  8
2
100
AcDbLine
 10
417.0158599999998
 20
259.848664
 30
0.0
 11
417.0158599999998
 21
265.348664
 31
0.0
  0
LINE
  5
48FA
330
2A
100
AcDbEntity
  8
2
100
AcDbLine
 10
473.013335
 20
259.248664
 30
0.0
 11
473.013335
 21
264.026976
 31
0.0
  0
LINE
  5
48FB
330
2A
100
AcDbEntity
  8
2
100
AcDbLine
 10
473.013335
 20
259.848664
 30
0.0
 11
479.5133350000001
 21
259.848664
 31
0.0
  0
LINE
  5
48FC
330
2A
100
AcDbEntity
  8
2
100
AcDbLine
 10
473.013335
 20
259.248664
 30
0.0
 11
473.013335
 21
264.026976
 31
0.0
  0
LINE
  5
48FD
330
2A
100
AcDbEntity
  8
2
100
AcDbLine
 10
473.013335
 20
259.848664
 30
0.0
 11
466.5133350000001
 21
259.848664
 31
0.0
  0
LINE
  5
48FE
330
2A
100
AcDbEntity
  8
2
 62
     4
370
    13
100
AcDbLine
 10
422.264598
 20
277.623009
 30
0.0
 11
426.264598
 21
277.623009
 31
0.0
  0
LINE
  5
48FF
330
2A
100
AcDbEntity
  8
2
 62
     4
370
    13
100
AcDbLine
 10
422.264598
 20
272.705009
 30
0.0
 11
426.264598
 21
272.705009
 31
0.0
  0
ARC
  5
4900
330
2A
100
AcDbEntity
  8
2
100
AcDbCircle
 10
432.8778050000001
 20
277.664009
 30
0.0
 40
6.613208
100
AcDbArc
 50
157.7882050000004
 51
202.2117949999994
  0
LINE
  5
4901
330
2A
100
AcDbEntity
  8
2
100
AcDbLine
 10
431.264598
 20
275.1640089999999
 30
0.0
 11
426.755345
 21
275.1640089999999
 31
0.0
  0
LINE
  5
4902
330
2A
100
AcDbEntity
  8
2
100
AcDbLine
 10
426.264598
 20
277.664009
 30
0.0
 11
426.264598
 21
275.1640089999999
 31
0.0
  0
LINE
  5
4903
330
2A
100
AcDbEntity
  8
2
100
AcDbLine
 10
431.264598
 20
280.164009
 30
0.0
 11
426.755345
 21
280.164009
 31
0.0
  0
LINE
  5
4904
330
2A
100
AcDbEntity
  8
2
100
AcDbLine
 10
431.264598
 20
275.1640089999999
 30
0.0
 11
431.264598
 21
280.164009
 31
0.0
  0
ARC
  5
4905
330
2A
100
AcDbEntity
  8
2
100
AcDbCircle
 10
432.8778050000001
 20
272.664009
 30
0.0
 40
6.613208
100
AcDbArc
 50
157.7882050000004
 51
202.2117949999994
  0
LINE
  5
4906
330
2A
100
AcDbEntity
  8
2
100
AcDbLine
 10
431.264598
 20
275.1640089999999
 30
0.0
 11
426.755345
 21
275.1640089999999
 31
0.0
  0
LINE
  5
4907
330
2A
100
AcDbEntity
  8
2
100
AcDbLine
 10
426.264598
 20
272.664009
 30
0.0
 11
426.264598
 21
275.1640089999999
 31
0.0
  0
LINE
  5
4908
330
2A
100
AcDbEntity
  8
2
100
AcDbLine
 10
431.264598
 20
270.164009
 30
0.0
 11
426.755345
 21
270.164009
 31
0.0
  0
LINE
  5
4909
330
2A
100
AcDbEntity
  8
2
100
AcDbLine
 10
431.264598
 20
275.1640089999999
 30
0.0
 11
431.264598
 21
270.164009
 31
0.0
  0
LINE
  5
490A
330
2A
100
AcDbEntity
  8
2
100
AcDbLine
 10
422.8055979999998
 20
272.164009
 30
0.0
 11
422.8055979999998
 21
275.1640089999999
 31
0.0
  0
LINE
  5
490B
330
2A
100
AcDbEntity
  8
2
100
AcDbLine
 10
422.8055979999998
 20
272.164009
 30
0.0
 11
426.2835259999998
 21
272.164009
 31
0.0
  0
LINE
  5
490C
330
2A
100
AcDbEntity
  8
2
100
AcDbLine
 10
422.264598
 20
272.705009
 30
0.0
 11
422.8055979999998
 21
272.164009
 31
0.0
  0
LINE
  5
490D
330
2A
100
AcDbEntity
  8
2
100
AcDbLine
 10
422.264598
 20
275.1640089999999
 30
0.0
 11
422.264598
 21
272.705009
 31
0.0
  0
LINE
  5
490E
330
2A
100
AcDbEntity
  8
2
100
AcDbLine
 10
422.8055979999998
 20
278.164009
 30
0.0
 11
422.8055979999998
 21
275.1640089999999
 31
0.0
  0
LINE
  5
490F
330
2A
100
AcDbEntity
  8
2
100
AcDbLine
 10
422.8055979999998
 20
278.164009
 30
0.0
 11
426.2835259999998
 21
278.164009
 31
0.0
  0
LINE
  5
4910
330
2A
100
AcDbEntity
  8
2
100
AcDbLine
 10
422.264598
 20
277.623009
 30
0.0
 11
422.8055979999998
 21
278.164009
 31
0.0
  0
LINE
  5
4911
330
2A
100
AcDbEntity
  8
2
100
AcDbLine
 10
422.264598
 20
275.1640089999999
 30
0.0
 11
422.264598
 21
277.623009
 31
0.0
  0
LINE
  5
4912
330
2A
100
AcDbEntity
  8
2
100
AcDbLine
 10
442.3645980000001
 20
257.848664
 30
0.0
 11
398.264598
 21
257.848664
 31
0.0
  0
LINE
  5
4913
330
2A
100
AcDbEntity
  8
2
100
AcDbLine
 10
455.3461769999998
 20
259.348664
 30
0.0
 11
455.3461769999998
 21
258.348664
 31
0.0
  0
ARC
  5
4914
330
2A
100
AcDbEntity
  8
2
100
AcDbCircle
 10
454.8461769999998
 20
259.348664
 30
0.0
 40
0.5
100
AcDbArc
 50
0.0
 51
90.0
  0
ARC
  5
4915
330
2A
100
AcDbEntity
  8
2
100
AcDbCircle
 10
454.8461769999998
 20
258.348664
 30
0.0
 40
0.5
100
AcDbArc
 50
270.0
 51
0.0
  0
LINE
  5
4916
330
2A
100
AcDbEntity
  8
2
100
AcDbLine
 10
442.3645980000001
 20
259.848664
 30
0.0
 11
398.264598
 21
259.848664
 31
0.0
  0
LINE
  5
4917
330
2A
100
AcDbEntity
  8
2
100
AcDbLine
 10
523.264598
 20
257.848664
 30
0.0
 11
454.1645980000001
 21
257.848664
 31
0.0
  0
ARC
  5
4918
330
2A
100
AcDbEntity
  8
2
100
AcDbCircle
 10
440.7645979999998
 20
258.348664
 30
0.0
 40
0.5
100
AcDbArc
 50
270.0
 51
0.0
  0
LINE
  5
4919
330
2A
100
AcDbEntity
  8
2
100
AcDbLine
 10
523.264598
 20
259.848664
 30
0.0
 11
454.1645980000001
 21
259.848664
 31
0.0
  0
ARC
  5
491A
330
2A
100
AcDbEntity
  8
2
100
AcDbCircle
 10
440.7645979999998
 20
259.348664
 30
0.0
 40
0.5
100
AcDbArc
 50
0.0
 51
90.0
  0
LINE
  5
491B
330
2A
100
AcDbEntity
  8
2
100
AcDbLine
 10
441.2645979999998
 20
259.348664
 30
0.0
 11
441.2645979999998
 21
258.348664
 31
0.0
  0
ARC
  5
491C
330
2A
100
AcDbEntity
  8
2
100
AcDbCircle
 10
461.6113070000001
 20
258.348664
 30
0.0
 40
0.5
100
AcDbArc
 50
270.0
 51
0.0
  0
ARC
  5
491D
330
2A
100
AcDbEntity
  8
2
100
AcDbCircle
 10
461.6113070000001
 20
259.348664
 30
0.0
 40
0.5
100
AcDbArc
 50
0.0
 51
90.0
  0
ARC
  5
491E
330
2A
100
AcDbEntity
  8
2
100
AcDbCircle
 10
464.8182120000001
 20
259.348664
 30
0.0
 40
0.5
100
AcDbArc
 50
0.0
 51
90.0
  0
ARC
  5
491F
330
2A
100
AcDbEntity
  8
2
100
AcDbCircle
 10
464.8182120000001
 20
258.348664
 30
0.0
 40
0.5
100
AcDbArc
 50
270.0
 51
0.0
  0
ARC
  5
4920
330
2A
100
AcDbEntity
  8
2
100
AcDbCircle
 10
471.4790279999999
 20
258.348664
 30
0.0
 40
0.5
100
AcDbArc
 50
270.0
 51
0.0
  0
ARC
  5
4921
330
2A
100
AcDbEntity
  8
2
100
AcDbCircle
 10
474.4777179999999
 20
258.348664
 30
0.0
 40
0.5
100
AcDbArc
 50
270.0
 51
0.0
  0
ARC
  5
4922
330
2A
100
AcDbEntity
  8
2
100
AcDbCircle
 10
474.4777179999999
 20
259.348664
 30
0.0
 40
0.5
100
AcDbArc
 50
0.0
 51
90.0
  0
ARC
  5
4923
330
2A
100
AcDbEntity
  8
2
100
AcDbCircle
 10
480.6266399999998
 20
258.348664
 30
0.0
 40
0.5
100
AcDbArc
 50
270.0
 51
0.0
  0
ARC
  5
4924
330
2A
100
AcDbEntity
  8
2
100
AcDbCircle
 10
483.354834
 20
258.348664
 30
0.0
 40
0.5
100
AcDbArc
 50
270.0
 51
0.0
  0
ARC
  5
4925
330
2A
100
AcDbEntity
  8
2
100
AcDbCircle
 10
483.354834
 20
259.348664
 30
0.0
 40
0.5
100
AcDbArc
 50
0.0
 51
90.0
  0
ARC
  5
4926
330
2A
100
AcDbEntity
  8
2
100
AcDbCircle
 10
488.7761989999998
 20
258.348664
 30
0.0
 40
0.5
100
AcDbArc
 50
270.0
 51
0.0
  0
ARC
  5
4927
330
2A
100
AcDbEntity
  8
2
100
AcDbCircle
 10
488.7761989999998
 20
259.348664
 30
0.0
 40
0.5
100
AcDbArc
 50
0.0
 51
90.0
  0
ARC
  5
4928
330
2A
100
AcDbEntity
  8
2
100
AcDbCircle
 10
491.165751
 20
258.348664
 30
0.0
 40
0.5
100
AcDbArc
 50
270.0
 51
0.0
  0
ARC
  5
4929
330
2A
100
AcDbEntity
  8
2
100
AcDbCircle
 10
491.165751
 20
259.348664
 30
0.0
 40
0.5
100
AcDbArc
 50
0.0
 51
90.0
  0
ARC
  5
492A
330
2A
100
AcDbEntity
  8
2
100
AcDbCircle
 10
495.6800819999998
 20
258.348664
 30
0.0
 40
0.5
100
AcDbArc
 50
270.0
 51
0.0
  0
ARC
  5
492B
330
2A
100
AcDbEntity
  8
2
100
AcDbCircle
 10
495.6800819999998
 20
259.348664
 30
0.0
 40
0.5
100
AcDbArc
 50
0.0
 51
90.0
  0
ARC
  5
492C
330
2A
100
AcDbEntity
  8
2
100
AcDbCircle
 10
497.673139
 20
258.348664
 30
0.0
 40
0.5
100
AcDbArc
 50
270.0
 51
0.0
  0
ARC
  5
492D
330
2A
100
AcDbEntity
  8
2
100
AcDbCircle
 10
497.673139
 20
259.348664
 30
0.0
 40
0.5
100
AcDbArc
 50
0.0
 51
90.0
  0
ARC
  5
492E
330
2A
100
AcDbEntity
  8
2
100
AcDbCircle
 10
501.1285210000001
 20
258.348664
 30
0.0
 40
0.5
100
AcDbArc
 50
270.0
 51
0.0
  0
ARC
  5
492F
330
2A
100
AcDbEntity
  8
2
100
AcDbCircle
 10
501.1285210000001
 20
259.348664
 30
0.0
 40
0.5
100
AcDbArc
 50
0.0
 51
90.0
  0
ARC
  5
4930
330
2A
100
AcDbEntity
  8
2
100
AcDbCircle
 10
502.6792729999998
 20
259.348664
 30
0.0
 40
0.5
100
AcDbArc
 50
0.0
 51
90.0
  0
ARC
  5
4931
330
2A
100
AcDbEntity
  8
2
100
AcDbCircle
 10
502.6792729999998
 20
258.348664
 30
0.0
 40
0.5
100
AcDbArc
 50
270.0
 51
0.0
  0
ARC
  5
4932
330
2A
100
AcDbEntity
  8
2
100
AcDbCircle
 10
504.9559659999999
 20
258.348664
 30
0.0
 40
0.5
100
AcDbArc
 50
270.0
 51
0.0
  0
ARC
  5
4933
330
2A
100
AcDbEntity
  8
2
100
AcDbCircle
 10
504.9559659999999
 20
259.348664
 30
0.0
 40
0.5
100
AcDbArc
 50
0.0
 51
90.0
  0
ARC
  5
4934
330
2A
100
AcDbEntity
  8
2
100
AcDbCircle
 10
506.0320449999998
 20
258.348664
 30
0.0
 40
0.5
100
AcDbArc
 50
270.0
 51
0.0
  0
ARC
  5
4935
330
2A
100
AcDbEntity
  8
2
100
AcDbCircle
 10
506.0320449999998
 20
259.348664
 30
0.0
 40
0.5
100
AcDbArc
 50
0.0
 51
90.0
  0
ARC
  5
4936
330
2A
100
AcDbEntity
  8
2
100
AcDbCircle
 10
507.628447
 20
258.348664
 30
0.0
 40
0.5
100
AcDbArc
 50
270.0
 51
0.0
  0
ARC
  5
4937
330
2A
100
AcDbEntity
  8
2
100
AcDbCircle
 10
507.628447
 20
259.348664
 30
0.0
 40
0.5
100
AcDbArc
 50
0.0
 51
90.0
  0
LINE
  5
4938
330
2A
100
AcDbEntity
  8
2
100
AcDbLine
 10
462.1113070000001
 20
259.348664
 30
0.0
 11
462.1113070000001
 21
258.348664
 31
0.0
  0
LINE
  5
4939
330
2A
100
AcDbEntity
  8
2
100
AcDbLine
 10
465.3182120000001
 20
259.348664
 30
0.0
 11
465.3182120000001
 21
258.348664
 31
0.0
  0
LINE
  5
493A
330
2A
100
AcDbEntity
  8
2
100
AcDbLine
 10
471.9790279999998
 20
259.348664
 30
0.0
 11
471.9790279999998
 21
258.348664
 31
0.0
  0
LINE
  5
493B
330
2A
100
AcDbEntity
  8
2
100
AcDbLine
 10
481.12664
 20
259.348664
 30
0.0
 11
481.12664
 21
258.348664
 31
0.0
  0
LINE
  5
493C
330
2A
100
AcDbEntity
  8
2
100
AcDbLine
 10
489.2761989999998
 20
259.348664
 30
0.0
 11
489.2761989999998
 21
258.348664
 31
0.0
  0
LINE
  5
493D
330
2A
100
AcDbEntity
  8
2
100
AcDbLine
 10
496.1800819999998
 20
259.348664
 30
0.0
 11
496.1800819999998
 21
258.348664
 31
0.0
  0
LINE
  5
493E
330
2A
100
AcDbEntity
  8
2
100
AcDbLine
 10
501.6285210000001
 20
259.348664
 30
0.0
 11
501.6285210000001
 21
258.348664
 31
0.0
  0
LINE
  5
493F
330
2A
100
AcDbEntity
  8
2
100
AcDbLine
 10
505.4559659999998
 20
259.348664
 30
0.0
 11
505.4559659999998
 21
258.348664
 31
0.0
  0
LINE
  5
4940
330
2A
100
AcDbEntity
  8
2
100
AcDbLine
 10
398.264598
 20
259.848664
 30
0.0
 11
398.264598
 21
257.848664
 31
0.0
  0
LINE
  5
4941
330
2A
100
AcDbEntity
  8
2
100
AcDbLine
 10
474.9777180000001
 20
259.348664
 30
0.0
 11
474.9777180000001
 21
258.348664
 31
0.0
  0
LINE
  5
4942
330
2A
100
AcDbEntity
  8
2
100
AcDbLine
 10
483.854834
 20
259.348664
 30
0.0
 11
483.854834
 21
258.348664
 31
0.0
  0
LINE
  5
4943
330
2A
100
AcDbEntity
  8
2
100
AcDbLine
 10
491.665751
 20
259.348664
 30
0.0
 11
491.665751
 21
258.348664
 31
0.0
  0
LINE
  5
4944
330
2A
100
AcDbEntity
  8
2
100
AcDbLine
 10
498.173139
 20
259.348664
 30
0.0
 11
498.173139
 21
258.348664
 31
0.0
  0
LINE
  5
4945
330
2A
100
AcDbEntity
  8
2
100
AcDbLine
 10
503.1792729999998
 20
259.348664
 30
0.0
 11
503.1792729999998
 21
258.348664
 31
0.0
  0
LINE
  5
4946
330
2A
100
AcDbEntity
  8
2
100
AcDbLine
 10
506.5320449999998
 20
259.348664
 30
0.0
 11
506.5320449999998
 21
258.348664
 31
0.0
  0
LINE
  5
4947
330
2A
100
AcDbEntity
  8
2
100
AcDbLine
 10
508.1284469999999
 20
259.348664
 30
0.0
 11
508.1284469999999
 21
258.348664
 31
0.0
  0
LINE
  5
4948
330
2A
100
AcDbEntity
  8
2
100
AcDbLine
 10
523.264598
 20
259.848664
 30
0.0
 11
523.264598
 21
257.848664
 31
0.0
  0
LINE
  5
4949
330
2A
100
AcDbEntity
  8
2
100
AcDbLine
 10
453.2645979999998
 20
288.440578
 30
0.0
 11
453.2645979999998
 21
290.564093
 31
0.0
  0
LINE
  5
494A
330
2A
100
AcDbEntity
  8
2
100
AcDbLine
 10
453.2645979999998
 20
284.694241
 30
0.0
 11
453.2645979999998
 21
286.576188
 31
0.0
  0
LINE
  5
494B
330
2A
100
AcDbEntity
  8
2
100
AcDbLine
 10
443.264598
 20
283.507988
 30
0.0
 11
443.264598
 21
272.455227
 31
0.0
  0
LINE
  5
494C
330
2A
100
AcDbEntity
  8
2
100
AcDbLine
 10
444.2645979999999
 20
283.746831
 30
0.0
 11
444.2645979999999
 21
283.61835
 31
0.0
  0
LINE
  5
494D
330
2A
100
AcDbEntity
  8
2
100
AcDbLine
 10
451.5599959999998
 20
291.564093
 30
0.0
 11
452.264598
 21
291.564093
 31
0.0
  0
LINE
  5
494E
330
2A
100
AcDbEntity
  8
2
100
AcDbLine
 10
445.8942079999998
 20
293.848664
 30
0.0
 11
443.3645980000001
 21
293.848664
 31
0.0
  0
LINE
  5
494F
330
2A
100
AcDbEntity
  8
2
100
AcDbLine
 10
443.264598
 20
289.033624
 30
0.0
 11
443.264598
 21
285.529062
 31
0.0
  0
LINE
  5
4950
330
2A
100
AcDbEntity
  8
2
100
AcDbLine
 10
453.2645979999998
 20
253.848664
 30
0.0
 11
453.2645979999998
 21
256.877596
 31
0.0
  0
ARC
  5
4951
330
2A
100
AcDbEntity
  8
2
100
AcDbCircle
 10
452.264598
 20
253.848664
 30
0.0
 40
1.0
100
AcDbArc
 50
270.0
 51
0.0
  0
ARC
  5
4952
330
2A
100
AcDbEntity
  8
2
100
AcDbCircle
 10
444.2645979999999
 20
253.848664
 30
0.0
 40
1.0
100
AcDbArc
 50
180.0
 51
270.0
  0
LINE
  5
4953
330
2A
100
AcDbEntity
  8
2
100
AcDbLine
 10
452.264598
 20
252.848664
 30
0.0
 11
444.2645979999999
 21
252.848664
 31
0.0
  0
LINE
  5
4954
330
2A
100
AcDbEntity
  8
2
100
AcDbLine
 10
444.2645979999999
 20
252.848664
 30
0.0
 11
452.264598
 21
252.848664
 31
0.0
  0
ARC
  5
4955
330
2A
100
AcDbEntity
  8
2
100
AcDbCircle
 10
444.2645979999999
 20
253.848664
 30
0.0
 40
1.0
100
AcDbArc
 50
180.0
 51
270.0
  0
ARC
  5
4956
330
2A
100
AcDbEntity
  8
2
100
AcDbCircle
 10
452.264598
 20
253.848664
 30
0.0
 40
1.0
100
AcDbArc
 50
270.0
 51
0.0
  0
ARC
  5
4957
330
2A
100
AcDbEntity
  8
2
100
AcDbCircle
 10
452.264598
 20
272.455227
 30
0.0
 40
1.0
100
AcDbArc
 50
270.0
 51
0.0
  0
ARC
  5
4958
330
2A
100
AcDbEntity
  8
2
100
AcDbCircle
 10
444.2645979999999
 20
272.455227
 30
0.0
 40
1.0
100
AcDbArc
 50
180.0
 51
270.0
  0
LINE
  5
4959
330
2A
100
AcDbEntity
  8
2
100
AcDbLine
 10
444.2645979999999
 20
271.455227
 30
0.0
 11
452.264598
 21
271.455227
 31
0.0
  0
LINE
  5
495A
330
2A
100
AcDbEntity
  8
2
100
AcDbLine
 10
452.264598
 20
271.455227
 30
0.0
 11
444.2645979999999
 21
271.455227
 31
0.0
  0
ARC
  5
495B
330
2A
100
AcDbEntity
  8
2
100
AcDbCircle
 10
444.2645979999999
 20
272.455227
 30
0.0
 40
1.0
100
AcDbArc
 50
180.0
 51
270.0
  0
ARC
  5
495C
330
2A
100
AcDbEntity
  8
2
100
AcDbCircle
 10
452.264598
 20
272.455227
 30
0.0
 40
1.0
100
AcDbArc
 50
270.0
 51
0.0
  0
ARC
  5
495D
330
2A
100
AcDbEntity
  8
2
100
AcDbCircle
 10
452.264598
 20
282.61835
 30
0.0
 40
1.0
100
AcDbArc
 50
0.0
 51
90.0
  0
ARC
  5
495E
330
2A
100
AcDbEntity
  8
2
100
AcDbCircle
 10
444.2645979999999
 20
282.61835
 30
0.0
 40
1.0
100
AcDbArc
 50
90.0
 51
180.0
  0
LINE
  5
495F
330
2A
100
AcDbEntity
  8
2
100
AcDbLine
 10
452.264598
 20
283.61835
 30
0.0
 11
444.2645979999999
 21
283.61835
 31
0.0
  0
LINE
  5
4960
330
2A
100
AcDbEntity
  8
2
100
AcDbLine
 10
444.2645979999999
 20
283.61835
 30
0.0
 11
452.264598
 21
283.61835
 31
0.0
  0
ARC
  5
4961
330
2A
100
AcDbEntity
  8
2
100
AcDbCircle
 10
444.2645979999999
 20
282.61835
 30
0.0
 40
1.0
100
AcDbArc
 50
90.0
 51
180.0
  0
ARC
  5
4962
330
2A
100
AcDbEntity
  8
2
100
AcDbCircle
 10
452.264598
 20
282.61835
 30
0.0
 40
1.0
100
AcDbArc
 50
0.0
 51
90.0
  0
LINE
  5
4963
330
2A
100
AcDbEntity
  8
2
100
AcDbLine
 10
444.2645979999999
 20
287.850472
 30
0.0
 11
444.2645979999999
 21
285.843181
 31
0.0
  0
LINE
  5
4964
330
2A
100
AcDbEntity
  8
2
100
AcDbLine
 10
445.2645979999998
 20
288.850472
 30
0.0
 11
444.2645979999999
 21
287.850472
 31
0.0
  0
LINE
  5
4965
330
2A
100
AcDbEntity
  8
2
100
AcDbLine
 10
451.879805
 20
288.2352650000001
 30
0.0
 11
451.264598
 21
288.850472
 31
0.0
  0
ARC
  5
4966
330
2A
100
AcDbEntity
  8
2
100
AcDbCircle
 10
448.264598
 20
278.308051
 30
0.0
 40
10.96096
100
AcDbArc
 50
74.1155219999992
 51
105.8844780000008
  0
ARC
  5
4967
330
2A
100
AcDbEntity
  8
2
100
AcDbCircle
 10
448.2700420000001
 20
303.918232
 30
0.0
 40
15.364572
100
AcDbArc
 50
258.7197149999993
 51
281.245759999999
  0
ARC
  5
4968
330
2A
100
AcDbEntity
  8
2
100
AcDbCircle
 10
448.264598
 20
301.857621
 30
0.0
 40
14.567094
100
AcDbArc
 50
254.062328999999
 51
272.5749979999977
  0
LINE
  5
4969
330
2A
100
AcDbEntity
  8
2
100
AcDbLine
 10
452.264598
 20
286.259786
 30
0.0
 11
452.264598
 21
284.790913
 31
0.0
  0
LINE
  5
496A
330
2A
100
AcDbEntity
  8
2
100
AcDbLine
 10
443.264598
 20
256.877596
 30
0.0
 11
442.3645980000001
 21
257.777596
 31
0.0
  0
LINE
  5
496B
330
2A
100
AcDbEntity
  8
2
100
AcDbLine
 10
454.1645980000001
 20
257.777596
 30
0.0
 11
453.2645979999998
 21
256.877596
 31
0.0
  0
LINE
  5
496C
330
2A
100
AcDbEntity
  8
2
100
AcDbLine
 10
442.3645980000001
 20
292.848664
 30
0.0
 11
442.3645980000001
 21
257.777596
 31
0.0
  0
LINE
  5
496D
330
2A
100
AcDbEntity
  8
2
100
AcDbLine
 10
454.1645980000001
 20
292.848664
 30
0.0
 11
454.1645980000001
 21
257.777596
 31
0.0
  0
ARC
  5
496E
330
2A
100
AcDbEntity
  8
2
100
AcDbCircle
 10
453.164598
 20
292.848664
 30
0.0
 40
1.0
100
AcDbArc
 50
0.0
 51
63.9506259999985
  0
ARC
  5
496F
330
2A
100
AcDbEntity
  8
2
100
AcDbCircle
 10
443.3645980000001
 20
292.848664
 30
0.0
 40
1.0
100
AcDbArc
 50
90.0
 51
180.0
  0
LINE
  5
4970
330
2A
100
AcDbEntity
  8
2
100
AcDbLine
 10
443.264598
 20
256.877596
 30
0.0
 11
443.264598
 21
253.848664
 31
0.0
  0
LINE
  5
4971
330
2A
100
AcDbEntity
  8
2
100
AcDbLine
 10
453.2645979999998
 20
272.455227
 30
0.0
 11
453.2645979999998
 21
282.700157
 31
0.0
  0
LINE
  5
4972
330
2A
100
AcDbEntity
  8
2
100
AcDbLine
 10
444.2645979999999
 20
291.564093
 30
0.0
 11
444.8862589999998
 21
291.564093
 31
0.0
  0
ARC
  5
4973
330
2A
100
AcDbEntity
  8
2
100
AcDbCircle
 10
444.2645979999999
 20
290.564093
 30
0.0
 40
1.0
100
AcDbArc
 50
90.0
 51
147.2872729999989
  0
ARC
  5
4974
330
2A
100
AcDbEntity
  8
2
100
AcDbCircle
 10
452.264598
 20
290.564093
 30
0.0
 40
1.0
100
AcDbArc
 50
0.0
 51
90.0
  0
LINE
  5
4975
330
2A
100
AcDbEntity
  8
2
100
AcDbLine
 10
431.264598
 20
270.164009
 30
0.0
 11
431.264598
 21
280.164009
 31
0.0
  0
LINE
  5
4976
330
2A
100
AcDbEntity
  8
2
  6
CENTER
 62
     2
370
    13
100
AcDbLine
 10
448.264598
 20
275.1640089999999
 30
0.0
 11
418.9052189999999
 21
275.1640089999999
 31
0.0
  0
LINE
  5
4977
330
2A
100
AcDbEntity
  8
2
  6
CENTER
 62
     2
370
    13
100
AcDbLine
 10
428.0401729999998
 20
288.848664
 30
0.0
 11
468.3631669999998
 21
288.848664
 31
0.0
  0
ARC
  5
4978
330
2A
100
AcDbEntity
  8
2
100
AcDbCircle
 10
452.9026410000001
 20
308.789226
 30
0.0
 40
1.0
100
AcDbArc
 50
281.1077659999975
 51
107.4385149999999
  0
ARC
  5
4979
330
2A
100
AcDbEntity
  8
2
100
AcDbCircle
 10
452.9026410000001
 20
298.559656
 30
0.0
 40
1.0
100
AcDbArc
 50
281.1077659999975
 51
107.4385149999999
  0
ARC
  5
497A
330
2A
100
AcDbEntity
  8
2
100
AcDbCircle
 10
452.9026410000001
 20
304.085292
 30
0.0
 40
1.0
100
AcDbArc
 50
281.1077659999975
 51
107.4385149999999
  0
LINE
  5
497B
330
2A
100
AcDbEntity
  8
2
100
AcDbLine
 10
446.9446760000001
 20
301.165605
 30
0.0
 11
453.157719
 21
299.526576
 31
0.0
  0
LINE
  5
497C
330
2A
100
AcDbEntity
  8
2
100
AcDbLine
 10
452.264598
 20
305.287822
 30
0.0
 11
453.157719
 21
305.052213
 31
0.0
  0
ARC
  5
497D
330
2A
100
AcDbEntity
  8
2
100
AcDbCircle
 10
443.341457
 20
301.081939
 30
0.0
 40
1.0
100
AcDbArc
 50
107.4385149999999
 51
286.6206009999985
  0
LINE
  5
497E
330
2A
100
AcDbEntity
  8
2
100
AcDbLine
 10
443.086379
 20
305.640655
 30
0.0
 11
444.2645979999999
 21
305.329835
 31
0.0
  0
ARC
  5
497F
330
2A
100
AcDbEntity
  8
2
100
AcDbCircle
 10
443.341457
 20
306.607575
 30
0.0
 40
1.0
100
AcDbArc
 50
98.02085800000117
 51
286.6206009999985
  0
LINE
  5
4980
330
2A
100
AcDbEntity
  8
2
100
AcDbLine
 10
453.202323
 20
303.131253
 30
0.0
 11
443.6411389999999
 21
300.1279
 31
0.0
  0
LINE
  5
4981
330
2A
100
AcDbEntity
  8
2
100
AcDbLine
 10
452.602959
 20
305.039331
 30
0.0
 11
443.0417750000001
 21
302.035978
 31
0.0
  0
LINE
  5
4982
330
2A
100
AcDbEntity
  8
2
100
AcDbLine
 10
443.086379
 20
300.115018
 30
0.0
 11
449.2994219999999
 21
298.47599
 31
0.0
  0
LINE
  5
4983
330
2A
100
AcDbEntity
  8
2
100
AcDbLine
 10
452.602959
 20
309.743265
 30
0.0
 11
443.0417750000001
 21
307.561614
 31
0.0
  0
LINE
  5
4984
330
2A
100
AcDbEntity
  8
2
100
AcDbLine
 10
453.0952959999998
 20
307.807959
 30
0.0
 11
443.6411389999999
 21
305.653536
 31
0.0
  0
ARC
  5
4985
330
2A
100
AcDbEntity
  8
2
100
AcDbCircle
 10
452.9026410000001
 20
293.034019
 30
0.0
 40
1.0
100
AcDbArc
 50
281.1077659999975
 51
107.4385149999999
  0
LINE
  5
4986
330
2A
100
AcDbEntity
  8
2
100
AcDbLine
 10
446.9446760000001
 20
295.639968
 30
0.0
 11
453.157719
 21
294.00094
 31
0.0
  0
ARC
  5
4987
330
2A
100
AcDbEntity
  8
2
100
AcDbCircle
 10
453.187739
 20
283.697199
 30
0.0
 40
1.0
100
AcDbArc
 50
273.7319680000039
 51
85.59196300000486
  0
LINE
  5
4988
330
2A
100
AcDbEntity
  8
2
100
AcDbLine
 10
448.556595
 20
285.09503
 30
0.0
 11
453.157719
 21
284.717662
 31
0.0
  0
ARC
  5
4989
330
2A
100
AcDbEntity
  8
2
100
AcDbCircle
 10
452.9026410000001
 20
287.508383
 30
0.0
 40
1.0
100
AcDbArc
 50
287.4385149999999
 51
107.4385149999999
  0
LINE
  5
498A
330
2A
100
AcDbEntity
  8
2
100
AcDbLine
 10
446.9446760000001
 20
290.114332
 30
0.0
 11
453.157719
 21
288.475303
 31
0.0
  0
ARC
  5
498B
330
2A
100
AcDbEntity
  8
2
100
AcDbCircle
 10
443.341457
 20
295.556302
 30
0.0
 40
1.0
100
AcDbArc
 50
107.4385149999999
 51
286.6206009999985
  0
ARC
  5
498C
330
2A
100
AcDbEntity
  8
2
100
AcDbCircle
 10
443.341457
 20
290.030666
 30
0.0
 40
1.0
100
AcDbArc
 50
107.4385149999999
 51
286.6206009999985
  0
ARC
  5
498D
330
2A
100
AcDbEntity
  8
2
100
AcDbCircle
 10
443.341457
 20
284.50503
 30
0.0
 40
1.0
100
AcDbArc
 50
100.7387850000044
 51
286.6206009999985
  0
LINE
  5
498E
330
2A
100
AcDbEntity
  8
2
100
AcDbLine
 10
443.086379
 20
289.063745
 30
0.0
 11
444.978675
 21
288.564549
 31
0.0
  0
LINE
  5
498F
330
2A
100
AcDbEntity
  8
2
100
AcDbLine
 10
452.602959
 20
288.462422
 30
0.0
 11
443.0417750000001
 21
285.459069
 31
0.0
  0
LINE
  5
4990
330
2A
100
AcDbEntity
  8
2
100
AcDbLine
 10
453.202323
 20
286.554344
 30
0.0
 11
443.6411389999999
 21
283.55099
 31
0.0
  0
LINE
  5
4991
330
2A
100
AcDbEntity
  8
2
100
AcDbLine
 10
453.202323
 20
292.07998
 30
0.0
 11
443.6411389999999
 21
289.076627
 31
0.0
  0
LINE
  5
4992
330
2A
100
AcDbEntity
  8
2
100
AcDbLine
 10
452.602959
 20
293.988058
 30
0.0
 11
443.0417750000001
 21
290.984705
 31
0.0
  0
LINE
  5
4993
330
2A
100
AcDbEntity
  8
2
100
AcDbLine
 10
443.086379
 20
294.589382
 30
0.0
 11
449.2994219999999
 21
292.950353
 31
0.0
  0
LINE
  5
4994
330
2A
100
AcDbEntity
  8
2
100
AcDbLine
 10
453.202323
 20
297.605617
 30
0.0
 11
443.6411389999999
 21
294.602263
 31
0.0
  0
LINE
  5
4995
330
2A
100
AcDbEntity
  8
2
100
AcDbLine
 10
452.602959
 20
299.513695
 30
0.0
 11
443.0417750000001
 21
296.510342
 31
0.0
  0
ARC
  5
4996
330
2A
100
AcDbEntity
  8
2
100
AcDbCircle
 10
451.264598
 20
297.094935
 30
0.0
 40
3.0
100
AcDbArc
 50
55.14462199999863
 51
90.0
  0
LINE
  5
4997
330
2A
100
AcDbEntity
  8
2
100
AcDbLine
 10
444.2645979999999
 20
305.795611
 30
0.0
 11
444.2645979999999
 21
303.781782
 31
0.0
  0
ARC
  5
4998
330
2A
100
AcDbEntity
  8
2
100
AcDbCircle
 10
448.264598
 20
329.667595
 30
0.0
 40
57.88305300000001
100
AcDbArc
 50
275.8503000000006
 51
279.951879000004
  0
LINE
  5
4999
330
2A
100
AcDbEntity
  8
2
100
AcDbLine
 10
442.3645980000001
 20
269.848664
 30
0.0
 11
431.264598
 21
269.848664
 31
0.0
  0
LINE
  5
499A
330
2A
100
AcDbEntity
  8
2
100
AcDbLine
 10
454.1645980000001
 20
268.848664
 30
0.0
 11
459.2645979999998
 21
268.848664
 31
0.0
  0
ARC
  5
499B
330
2A
100
AcDbEntity
  8
2
100
AcDbCircle
 10
448.264598
 20
292.573216
 30
0.0
 40
31.452822
100
AcDbArc
 50
77.8332400000022
 51
102.1667599999978
  0
ARC
  5
499C
330
2A
100
AcDbEntity
  8
2
100
AcDbCircle
 10
442.6894619999999
 20
318.431863
 30
0.0
 40
5.0
100
AcDbArc
 50
102.1667599999978
 51
170.8253340000019
  0
ARC
  5
499D
330
2A
100
AcDbEntity
  8
2
100
AcDbCircle
 10
432.2645979999998
 20
289.848664
 30
0.0
 40
1.0
100
AcDbArc
 50
90.0
 51
180.0
  0
LINE
  5
499E
330
2A
100
AcDbEntity
  8
2
100
AcDbLine
 10
431.264598
 20
289.848664
 30
0.0
 11
431.264598
 21
269.848664
 31
0.0
  0
LINE
  5
499F
330
2A
100
AcDbEntity
  8
2
100
AcDbLine
 10
432.2645979999998
 20
290.848664
 30
0.0
 11
434.2645979999998
 21
290.848664
 31
0.0
  0
LINE
  5
49A0
330
2A
100
AcDbEntity
  8
2
100
AcDbLine
 10
437.7534279999999
 20
319.229087
 30
0.0
 11
437.7534279999999
 21
314.646441
 31
0.0
  0
LINE
  5
49A1
330
2A
100
AcDbEntity
  8
2
100
AcDbLine
 10
442.2645979999998
 20
279.848664
 30
0.0
 11
442.2645979999998
 21
290.593033
 31
0.0
  0
LINE
  5
49A2
330
2A
100
AcDbEntity
  8
2
100
AcDbLine
 10
444.2645979999999
 20
307.954549
 30
0.0
 11
444.2645979999999
 21
307.782926
 31
0.0
  0
ARC
  5
49A3
330
2A
100
AcDbEntity
  8
2
100
AcDbCircle
 10
442.764598
 20
307.954549
 30
0.0
 40
1.5
100
AcDbArc
 50
0.0
 51
110.6671990000014
  0
ARC
  5
49A4
330
2A
100
AcDbEntity
  8
2
100
AcDbCircle
 10
448.264598
 20
294.760267
 30
0.0
 40
9.868522999999999
100
AcDbArc
 50
76.97849600000059
 51
113.9117560000002
  0
LINE
  5
49A5
330
2A
100
AcDbEntity
  8
2
100
AcDbLine
 10
444.2645979999999
 20
303.781782
 30
0.0
 11
445.2645979999998
 21
302.781782
 31
0.0
  0
ARC
  5
49A6
330
2A
100
AcDbEntity
  8
2
100
AcDbCircle
 10
448.264598
 20
299.75999
 30
0.0
 40
11.334722
100
AcDbArc
 50
68.40872399999835
 51
114.6692899999979
  0
ARC
  5
49A7
330
2A
100
AcDbEntity
  8
2
100
AcDbCircle
 10
438.7534279999998
 20
314.646441
 30
0.0
 40
1.0
100
AcDbArc
 50
180.0
 51
280.6997549999954
  0
ARC
  5
49A8
330
2A
100
AcDbEntity
  8
2
100
AcDbCircle
 10
448.264598
 20
264.308813
 30
0.0
 40
50.228304
100
AcDbArc
 50
79.30024500000453
 51
100.6997549999954
  0
LINE
  5
49A9
330
2A
100
AcDbEntity
  8
2
100
AcDbLine
 10
434.2645979999998
 20
279.848664
 30
0.0
 11
434.2645979999998
 21
293.348664
 31
0.0
  0
ARC
  5
49AA
330
2A
100
AcDbEntity
  8
2
100
AcDbCircle
 10
434.764598
 20
293.348664
 30
0.0
 40
0.5
100
AcDbArc
 50
90.0
 51
180.0
  0
ARC
  5
49AB
330
2A
100
AcDbEntity
  8
2
100
AcDbCircle
 10
435.264598
 20
294.348664
 30
0.0
 40
0.5
100
AcDbArc
 50
270.0
 51
0.0
  0
LINE
  5
49AC
330
2A
100
AcDbEntity
  8
2
100
AcDbLine
 10
434.764598
 20
293.848664
 30
0.0
 11
435.264598
 21
293.848664
 31
0.0
  0
LINE
  5
49AD
330
2A
100
AcDbEntity
  8
2
100
AcDbLine
 10
437.7534279999999
 20
319.229087
 30
0.0
 11
435.0626059999998
 21
293.848664
 31
0.0
  0
LINE
  5
49AE
330
2A
100
AcDbEntity
  8
2
100
AcDbLine
 10
435.764598
 20
279.848664
 30
0.0
 11
435.764598
 21
294.348664
 31
0.0
  0
LINE
  5
49AF
330
2A
100
AcDbEntity
  8
2
100
AcDbLine
 10
437.2645979999998
 20
268.848664
 30
0.0
 11
442.3645980000001
 21
268.848664
 31
0.0
  0
LINE
  5
49B0
330
2A
100
AcDbEntity
  8
2
100
AcDbLine
 10
463.2645979999998
 20
269.848664
 30
0.0
 11
454.1645980000001
 21
269.848664
 31
0.0
  0
ARC
  5
49B1
330
2A
100
AcDbEntity
  8
2
100
AcDbCircle
 10
442.6295339999998
 20
313.213537
 30
0.0
 40
1.0
100
AcDbArc
 50
96.57294000000128
 51
173.9481329999993
  0
LINE
  5
49B2
330
2A
100
AcDbEntity
  8
2
100
AcDbLine
 10
437.2645979999998
 20
269.848664
 30
0.0
 11
437.2645979999998
 21
268.848664
 31
0.0
  0
LINE
  5
49B3
330
2A
100
AcDbEntity
  8
2
100
AcDbLine
 10
440.1753969999998
 20
291.992255
 30
0.0
 11
441.569823
 21
291.5453129999999
 31
0.0
  0
ARC
  5
49B4
330
2A
100
AcDbEntity
  8
2
100
AcDbCircle
 10
445.2645979999998
 20
297.094935
 30
0.0
 40
3.0
100
AcDbArc
 50
113.2052819999987
 51
180.0
  0
LINE
  5
49B5
330
2A
100
AcDbEntity
  8
2
100
AcDbLine
 10
441.6351070000001
 20
313.318965
 30
0.0
 11
439.486196
 21
293.049964
 31
0.0
  0
ARC
  5
49B6
330
2A
100
AcDbEntity
  8
2
100
AcDbCircle
 10
441.2645979999998
 20
290.593033
 30
0.0
 40
1.0
100
AcDbArc
 50
0.0
 51
72.22828499999758
  0
LINE
  5
49B7
330
2A
100
AcDbEntity
  8
2
100
AcDbLine
 10
442.2645979999998
 20
297.094935
 30
0.0
 11
442.2645979999998
 21
290.593033
 31
0.0
  0
LINE
  5
49B8
330
2A
100
AcDbEntity
  8
2
100
AcDbLine
 10
454.2645979999998
 20
297.094935
 30
0.0
 11
454.2645979999998
 21
291.932664
 31
0.0
  0
ARC
  5
49B9
330
2A
100
AcDbEntity
  8
2
100
AcDbCircle
 10
451.264598
 20
297.094935
 30
0.0
 40
3.0
100
AcDbArc
 50
0.0
 51
28.46084899999841
  0
LINE
  5
49BA
330
2A
100
AcDbEntity
  8
2
100
AcDbLine
 10
458.548616
 20
278.848664
 30
0.0
 11
459.0896109999998
 21
273.745875
 31
0.0
  0
ARC
  5
49BB
330
2A
100
AcDbEntity
  8
2
100
AcDbCircle
 10
453.899662
 20
313.213537
 30
0.0
 40
1.0
100
AcDbArc
 50
6.05186700000066
 51
83.4270599999987
  0
LINE
  5
49BC
330
2A
100
AcDbEntity
  8
2
100
AcDbLine
 10
458.775768
 20
319.229087
 30
0.0
 11
461.46659
 21
293.848664
 31
0.0
  0
ARC
  5
49BD
330
2A
100
AcDbEntity
  8
2
100
AcDbCircle
 10
457.7757679999998
 20
314.646441
 30
0.0
 40
1.0
100
AcDbArc
 50
259.3002450000046
 51
0.0
  0
LINE
  5
49BE
330
2A
100
AcDbEntity
  8
2
100
AcDbLine
 10
452.264598
 20
307.618659
 30
0.0
 11
452.264598
 21
304.933045
 31
0.0
  0
LINE
  5
49BF
330
2A
100
AcDbEntity
  8
2
100
AcDbLine
 10
458.775768
 20
319.229087
 30
0.0
 11
458.775768
 21
314.646441
 31
0.0
  0
ARC
  5
49C0
330
2A
100
AcDbEntity
  8
2
100
AcDbCircle
 10
453.8397340000001
 20
318.431863
 30
0.0
 40
5.0
100
AcDbArc
 50
9.174665999998039
 51
77.8332400000022
  0
LINE
  5
49C1
330
2A
100
AcDbEntity
  8
2
100
AcDbLine
 10
462.2645979999998
 20
286.321676
 30
0.0
 11
463.2645979999998
 21
276.889455
 31
0.0
  0
ARC
  5
49C2
330
2A
100
AcDbEntity
  8
2
100
AcDbCircle
 10
453.7645979999998
 20
307.954549
 30
0.0
 40
1.5
100
AcDbArc
 50
69.33280099999858
 51
94.2709560000031
  0
LINE
  5
49C3
330
2A
100
AcDbEntity
  8
2
100
AcDbLine
 10
459.2645979999998
 20
269.848664
 30
0.0
 11
459.2645979999998
 21
268.848664
 31
0.0
  0
LINE
  5
49C4
330
2A
100
AcDbEntity
  8
2
100
AcDbLine
 10
437.9805799999998
 20
278.848664
 30
0.0
 11
437.4395849999999
 21
273.745875
 31
0.0
  0
LINE
  5
49C5
330
2A
100
AcDbEntity
  8
2
100
AcDbLine
 10
434.2645979999998
 20
286.321676
 30
0.0
 11
433.464598
 21
278.7759
 31
0.0
  0
LINE
  5
49C6
330
2A
100
AcDbEntity
  8
2
100
AcDbLine
 10
433.464598
 20
269.848664
 30
0.0
 11
433.464598
 21
278.7759
 31
0.0
  0
ARC
  5
49C7
330
2A
100
AcDbEntity
  8
2
100
AcDbCircle
 10
448.264598
 20
329.667595
 30
0.0
 40
57.88305300000001
100
AcDbArc
 50
260.0481209999959
 51
264.1496999999993
  0
ARC
  5
49C8
330
2A
100
AcDbEntity
  8
2
100
AcDbCircle
 10
438.4340110000001
 20
273.640447
 30
0.0
 40
1.0
100
AcDbArc
 50
173.9481329999993
 51
260.0481209999959
  0
ARC
  5
49C9
330
2A
100
AcDbEntity
  8
2
100
AcDbCircle
 10
458.0951850000001
 20
273.640447
 30
0.0
 40
1.0
100
AcDbArc
 50
279.951879000004
 51
6.05186700000066
  0
ARC
  5
49CA
330
2A
100
AcDbEntity
  8
2
100
AcDbCircle
 10
435.264598
 20
279.848664
 30
0.0
 40
1.0
100
AcDbArc
 50
180.0
 51
270.0
  0
ARC
  5
49CB
330
2A
100
AcDbEntity
  8
2
100
AcDbCircle
 10
441.2645979999998
 20
279.848664
 30
0.0
 40
1.0
100
AcDbArc
 50
270.0
 51
0.0
  0
ARC
  5
49CC
330
2A
100
AcDbEntity
  8
2
100
AcDbCircle
 10
440.4806229999998
 20
292.944536
 30
0.0
 40
1.0
100
AcDbArc
 50
173.9481329999993
 51
252.2282849999974
  0
ARC
  5
49CD
330
2A
100
AcDbEntity
  8
2
100
AcDbCircle
 10
456.048573
 20
292.944536
 30
0.0
 40
1.0
100
AcDbArc
 50
287.7717150000023
 51
6.05186700000066
  0
ARC
  5
49CE
330
2A
100
AcDbEntity
  8
2
100
AcDbCircle
 10
455.264598
 20
279.848664
 30
0.0
 40
1.0
100
AcDbArc
 50
180.0
 51
270.0
  0
ARC
  5
49CF
330
2A
100
AcDbEntity
  8
2
100
AcDbCircle
 10
461.2645979999999
 20
279.848664
 30
0.0
 40
1.0
100
AcDbArc
 50
270.0
 51
0.0
  0
LINE
  5
49D0
330
2A
100
AcDbEntity
  8
2
100
AcDbLine
 10
462.2645979999998
 20
286.321676
 30
0.0
 11
463.0645979999998
 21
278.7759
 31
0.0
  0
LINE
  5
49D1
330
2A
100
AcDbEntity
  8
2
100
AcDbLine
 10
454.2645979999998
 20
297.094935
 30
0.0
 11
454.2645979999998
 21
290.593033
 31
0.0
  0
ARC
  5
49D2
330
2A
100
AcDbEntity
  8
2
100
AcDbCircle
 10
455.264598
 20
290.593033
 30
0.0
 40
1.0
100
AcDbArc
 50
107.7717150000024
 51
180.0
  0
LINE
  5
49D3
330
2A
100
AcDbEntity
  8
2
100
AcDbLine
 10
456.3537980000001
 20
291.992255
 30
0.0
 11
454.9593730000001
 21
291.5453129999999
 31
0.0
  0
LINE
  5
49D4
330
2A
100
AcDbEntity
  8
2
100
AcDbLine
 10
460.764598
 20
279.848664
 30
0.0
 11
460.764598
 21
294.348664
 31
0.0
  0
LINE
  5
49D5
330
2A
100
AcDbEntity
  8
2
100
AcDbLine
 10
461.7645979999998
 20
293.848664
 30
0.0
 11
461.2645979999999
 21
293.848664
 31
0.0
  0
ARC
  5
49D6
330
2A
100
AcDbEntity
  8
2
100
AcDbCircle
 10
461.2645979999999
 20
294.348664
 30
0.0
 40
0.5
100
AcDbArc
 50
180.0
 51
270.0
  0
ARC
  5
49D7
330
2A
100
AcDbEntity
  8
2
100
AcDbCircle
 10
461.7645979999998
 20
293.348664
 30
0.0
 40
0.5
100
AcDbArc
 50
0.0
 51
90.0
  0
LINE
  5
49D8
330
2A
100
AcDbEntity
  8
2
100
AcDbLine
 10
462.2645979999998
 20
279.848664
 30
0.0
 11
462.2645979999998
 21
293.348664
 31
0.0
  0
LINE
  5
49D9
330
2A
100
AcDbEntity
  8
2
100
AcDbLine
 10
454.2645979999998
 20
279.848664
 30
0.0
 11
454.2645979999998
 21
290.593033
 31
0.0
  0
LINE
  5
49DA
330
2A
100
AcDbEntity
  8
2
100
AcDbLine
 10
463.2645979999998
 20
269.848664
 30
0.0
 11
463.2645979999998
 21
289.848664
 31
0.0
  0
LINE
  5
49DB
330
2A
100
AcDbEntity
  8
2
100
AcDbLine
 10
462.2645979999998
 20
290.848664
 30
0.0
 11
463.2645979999998
 21
289.848664
 31
0.0
  0
ARC
  5
49DC
330
2A
100
AcDbEntity
  8
2
100
AcDbCircle
 10
459.764598
 20
279.848664
 30
0.0
 40
1.0
100
AcDbArc
 50
270.0
 51
0.0
  0
LINE
  5
49DD
330
2A
100
AcDbEntity
  8
2
100
AcDbLine
 10
461.2645979999999
 20
278.848664
 30
0.0
 11
455.264598
 21
278.848664
 31
0.0
  0
ARC
  5
49DE
330
2A
100
AcDbEntity
  8
2
100
AcDbCircle
 10
436.7645979999998
 20
279.848664
 30
0.0
 40
1.0
100
AcDbArc
 50
180.0
 51
270.0
  0
LINE
  5
49DF
330
2A
100
AcDbEntity
  8
2
100
AcDbLine
 10
435.264598
 20
278.848664
 30
0.0
 11
441.2645979999998
 21
278.848664
 31
0.0
  0
LINE
  5
49E0
330
2A
100
AcDbEntity
  8
2
100
AcDbLine
 10
455.264598
 20
268.848664
 30
0.0
 11
455.264598
 21
259.848664
 31
0.0
  0
LINE
  5
49E1
330
2A
100
AcDbEntity
  8
2
100
AcDbLine
 10
441.2645979999998
 20
259.848664
 30
0.0
 11
441.2645979999998
 21
268.848664
 31
0.0
  0
LINE
  5
49E2
330
2A
100
AcDbEntity
  8
2
100
AcDbLine
 10
454.8940889999998
 20
313.318965
 30
0.0
 11
457.0429999999999
 21
293.049964
 31
0.0
  0
ARC
  5
49E3
330
2A
100
AcDbEntity
  8
2
100
AcDbCircle
 10
302.8275060000002
 20
436.3909599999999
 30
0.0
 40
10.0
100
AcDbArc
 50
271.5079580000017
 51
88.49204199999837
  0
CIRCLE
  5
49E4
330
2A
100
AcDbEntity
  8
2
100
AcDbCircle
 10
88.07876899999996
 20
461.1396969999998
 30
0.0
 40
6.5
  0
LINE
  5
49E5
330
2A
100
AcDbEntity
  8
2
100
AcDbLine
 10
84.32599200000003
 20
454.6396969999998
 30
0.0
 11
91.83154599999985
 21
454.6396969999998
 31
0.0
  0
LINE
  5
49E6
330
2A
100
AcDbEntity
  8
2
100
AcDbLine
 10
91.83154599999985
 20
454.6396969999998
 30
0.0
 11
95.58432200000016
 21
461.1396969999998
 31
0.0
  0
LINE
  5
49E7
330
2A
100
AcDbEntity
  8
2
100
AcDbLine
 10
95.58432200000016
 20
461.1396969999998
 30
0.0
 11
91.83154599999985
 21
467.6396969999998
 31
0.0
  0
LINE
  5
49E8
330
2A
100
AcDbEntity
  8
2
100
AcDbLine
 10
91.83154599999985
 20
467.6396969999998
 30
0.0
 11
84.32599200000003
 21
467.6396969999998
 31
0.0
  0
LINE
  5
49E9
330
2A
100
AcDbEntity
  8
2
100
AcDbLine
 10
84.32599200000003
 20
467.6396969999998
 30
0.0
 11
80.573215
 21
461.1396969999998
 31
0.0
  0
LINE
  5
49EA
330
2A
100
AcDbEntity
  8
2
100
AcDbLine
 10
80.573215
 20
461.1396969999998
 30
0.0
 11
84.32599200000003
 21
454.6396969999998
 31
0.0
  0
LINE
  5
49EB
330
2A
100
AcDbEntity
  8
2
100
AcDbLine
 10
145.081797
 20
411.642223
 30
0.0
 11
141.3290200000001
 21
418.1422229999998
 31
0.0
  0
LINE
  5
49EC
330
2A
100
AcDbEntity
  8
2
100
AcDbLine
 10
141.3290200000001
 20
405.142223
 30
0.0
 11
145.081797
 21
411.642223
 31
0.0
  0
LINE
  5
49ED
330
2A
100
AcDbEntity
  8
2
100
AcDbLine
 10
133.8234669999999
 20
405.142223
 30
0.0
 11
141.3290200000001
 21
405.142223
 31
0.0
  0
LINE
  5
49EE
330
2A
100
AcDbEntity
  8
2
100
AcDbLine
 10
130.0706899999999
 20
411.642223
 30
0.0
 11
133.8234669999999
 21
405.142223
 31
0.0
  0
LINE
  5
49EF
330
2A
100
AcDbEntity
  8
2
100
AcDbLine
 10
133.8234669999999
 20
418.1422229999998
 30
0.0
 11
130.0706899999999
 21
411.642223
 31
0.0
  0
LINE
  5
49F0
330
2A
100
AcDbEntity
  8
2
100
AcDbLine
 10
141.3290200000001
 20
418.1422229999998
 30
0.0
 11
133.8234669999999
 21
418.1422229999998
 31
0.0
  0
CIRCLE
  5
49F1
330
2A
100
AcDbEntity
  8
2
100
AcDbCircle
 10
137.5762440000001
 20
411.642223
 30
0.0
 40
6.5
  0
LINE
  5
49F2
330
2A
100
AcDbEntity
  8
2
 62
     4
370
    13
100
AcDbLine
 10
115.2865059999999
 20
410.3909599999998
 30
0.0
 11
115.2865059999999
 21
414.3909599999998
 31
0.0
  0
LINE
  5
49F3
330
2A
100
AcDbEntity
  8
2
 62
     4
370
    13
100
AcDbLine
 10
110.368506
 20
410.3909599999998
 30
0.0
 11
110.368506
 21
414.3909599999998
 31
0.0
  0
ARC
  5
49F4
330
2A
100
AcDbEntity
  8
2
100
AcDbCircle
 10
112.8275060000001
 20
423.013436
 30
0.0
 40
8.625
100
AcDbArc
 50
250.5287789999984
 51
270.0
  0
ARC
  5
49F5
330
2A
100
AcDbEntity
  8
2
100
AcDbCircle
 10
108.5150060000001
 20
416.729663
 30
0.0
 40
2.341226999999999
100
AcDbArc
 50
232.1211210000013
 51
307.8788789999987
  0
LINE
  5
49F6
330
2A
100
AcDbEntity
  8
2
100
AcDbLine
 10
109.9525060000001
 20
419.39096
 30
0.0
 11
109.9525060000001
 21
414.8817079999998
 31
0.0
  0
LINE
  5
49F7
330
2A
100
AcDbEntity
  8
2
100
AcDbLine
 10
107.927506
 20
414.3909599999998
 30
0.0
 11
112.8275060000001
 21
414.3909599999998
 31
0.0
  0
LINE
  5
49F8
330
2A
100
AcDbEntity
  8
2
100
AcDbLine
 10
107.077506
 20
414.8817079999998
 30
0.0
 11
107.927506
 21
414.3909599999998
 31
0.0
  0
LINE
  5
49F9
330
2A
100
AcDbEntity
  8
2
100
AcDbLine
 10
107.077506
 20
419.39096
 30
0.0
 11
107.077506
 21
414.8817079999998
 31
0.0
  0
LINE
  5
49FA
330
2A
100
AcDbEntity
  8
2
100
AcDbLine
 10
112.8275060000001
 20
419.39096
 30
0.0
 11
107.077506
 21
419.39096
 31
0.0
  0
ARC
  5
49FB
330
2A
100
AcDbEntity
  8
2
100
AcDbCircle
 10
112.8275060000001
 20
423.013436
 30
0.0
 40
8.625
100
AcDbArc
 50
270.0
 51
289.4712210000017
  0
ARC
  5
49FC
330
2A
100
AcDbEntity
  8
2
100
AcDbCircle
 10
117.1400060000001
 20
416.729663
 30
0.0
 40
2.341226999999999
100
AcDbArc
 50
232.1211210000013
 51
307.8788789999987
  0
LINE
  5
49FD
330
2A
100
AcDbEntity
  8
2
100
AcDbLine
 10
115.7025060000001
 20
419.39096
 30
0.0
 11
115.7025060000001
 21
414.8817079999998
 31
0.0
  0
LINE
  5
49FE
330
2A
100
AcDbEntity
  8
2
100
AcDbLine
 10
117.7275059999999
 20
414.3909599999998
 30
0.0
 11
112.8275060000001
 21
414.3909599999998
 31
0.0
  0
LINE
  5
49FF
330
2A
100
AcDbEntity
  8
2
100
AcDbLine
 10
118.577506
 20
414.8817079999998
 30
0.0
 11
117.7275059999999
 21
414.3909599999998
 31
0.0
  0
LINE
  5
4A00
330
2A
100
AcDbEntity
  8
2
100
AcDbLine
 10
118.577506
 20
419.39096
 30
0.0
 11
118.577506
 21
414.8817079999998
 31
0.0
  0
LINE
  5
4A01
330
2A
100
AcDbEntity
  8
2
100
AcDbLine
 10
112.8275060000001
 20
419.39096
 30
0.0
 11
118.577506
 21
419.39096
 31
0.0
  0
LINE
  5
4A02
330
2A
100
AcDbEntity
  8
2
100
AcDbLine
 10
115.8275060000001
 20
410.93196
 30
0.0
 11
112.8275060000001
 21
410.93196
 31
0.0
  0
LINE
  5
4A03
330
2A
100
AcDbEntity
  8
2
100
AcDbLine
 10
115.8275060000001
 20
410.93196
 30
0.0
 11
115.8275060000001
 21
414.409889
 31
0.0
  0
LINE
  5
4A04
330
2A
100
AcDbEntity
  8
2
100
AcDbLine
 10
115.2865059999999
 20
410.3909599999998
 30
0.0
 11
115.8275060000001
 21
410.93196
 31
0.0
  0
LINE
  5
4A05
330
2A
100
AcDbEntity
  8
2
100
AcDbLine
 10
112.8275060000001
 20
410.3909599999998
 30
0.0
 11
115.2865059999999
 21
410.3909599999998
 31
0.0
  0
LINE
  5
4A06
330
2A
100
AcDbEntity
  8
2
100
AcDbLine
 10
109.8275060000001
 20
410.93196
 30
0.0
 11
112.8275060000001
 21
410.93196
 31
0.0
  0
LINE
  5
4A07
330
2A
100
AcDbEntity
  8
2
100
AcDbLine
 10
109.8275060000001
 20
410.93196
 30
0.0
 11
109.8275060000001
 21
414.409889
 31
0.0
  0
LINE
  5
4A08
330
2A
100
AcDbEntity
  8
2
100
AcDbLine
 10
110.368506
 20
410.3909599999998
 30
0.0
 11
109.8275060000001
 21
410.93196
 31
0.0
  0
LINE
  5
4A09
330
2A
100
AcDbEntity
  8
2
100
AcDbLine
 10
112.8275060000001
 20
410.3909599999998
 30
0.0
 11
110.368506
 21
410.3909599999998
 31
0.0
  0
TEXT
  5
4A0A
330
2A
100
AcDbEntity
  8
2
100
AcDbText
 10
133.3385949999999
 20
422.0380239999998
 30
0.0
 40
3.0
  1
Ｔ
 50
232.7858433263064
 41
0.9230768160311226
 72
     5
 11
131.8870850000001
 21
420.1267109999998
 31
0.0
100
AcDbText
  0
TEXT
  5
4A0B
330
2A
100
AcDbEntity
  8
2
100
AcDbText
 10
132.0096029999999
 20
420.304982
 30
0.0
 40
3.0
  1
Ｅ
 50
227.7858605481264
 41
1.090909007643278
 72
     5
 11
130.3970349999999
 21
418.527449
 31
0.0
100
AcDbText
  0
TEXT
  5
4A0C
330
2A
100
AcDbEntity
  8
2
100
AcDbText
 10
130.5346240000001
 20
418.6943639999998
 30
0.0
 40
3.0
  1
Ｎ
 50
222.7858521323251
 41
0.9230767791259529
 72
     5
 11
128.7732700000001
 21
417.0641399999998
 31
0.0
100
AcDbText
  0
TEXT
  5
4A0D
330
2A
100
AcDbEntity
  8
2
100
AcDbText
 10
128.9248829999999
 20
417.2184279999999
 30
0.0
 40
3.0
  1
Ｔ
 50
217.7858621875415
 41
0.9230769534700318
 72
     5
 11
127.0281479999999
 21
415.747919
 31
0.0
100
AcDbText
  0
TEXT
  5
4A0E
330
2A
100
AcDbEntity
  8
2
100
AcDbText
 10
127.192632
 20
415.888406
 30
0.0
 40
3.0
  1
Ｅ
 50
212.7858592989706
 41
1.090909278045989
 72
     5
 11
125.1749509999999
 21
414.5888039999999
 31
0.0
100
AcDbText
  0
TEXT
  5
4A0F
330
2A
100
AcDbEntity
  8
2
100
AcDbText
 10
125.3510529999998
 20
414.714422
 30
0.0
 40
3.0
  1
Ｄ
 50
207.7858552304154
 41
1.000000184883397
 72
     5
 11
123.2277819999999
 21
413.5956179999998
 31
0.0
100
AcDbText
  0
TEXT
  5
4A10
330
2A
100
AcDbEntity
  8
2
100
AcDbText
 10
94.44990899999991
 20
453.3902379999998
 30
0.0
 40
3.0
  1
Ｐ
 50
45.00000000000047
 41
0.9999998380444418
 72
     5
 11
96.14696499999993
 21
455.0872939999998
 31
0.0
100
AcDbText
  0
TEXT
  5
4A11
330
2A
100
AcDbEntity
  8
2
100
AcDbText
 10
97.68099900000017
 20
456.323217
 30
0.0
 40
3.0
  1
Ｎ
 50
34.9999899706728
 41
0.9230768539353441
 72
     5
 11
99.64696400000002
 21
457.6997999999998
 31
0.0
100
AcDbText
  0
TEXT
  5
4A12
330
2A
100
AcDbEntity
  8
2
100
AcDbText
 10
96.00142600000005
 20
454.9272639999998
 30
0.0
 40
3.0
  1
Ａ
 50
39.99999002178288
 41
0.9230769571433745
 72
     5
 11
97.83993299999998
 21
456.469954
 31
0.0
100
AcDbText
  0
TEXT
  5
4A13
330
2A
100
AcDbEntity
  8
2
100
AcDbText
 10
93.03825600000003
 20
451.723837
 30
0.0
 40
3.0
  1
Ａ
 50
50.00000997822151
 41
0.9230769571433651
 72
     5
 11
94.58094600000004
 21
453.5623440000001
 31
0.0
100
AcDbText
  0
TEXT
  5
4A14
330
2A
100
AcDbEntity
  8
2
100
AcDbText
 10
91.77721199999997
 20
449.9407439999997
 30
0.0
 40
3.0
  1
Ｊ
 50
55.00001002932858
 41
1.1999999101161
 72
     5
 11
93.15379499999997
 21
451.906709
 31
0.0
100
AcDbText
  0
TEXT
  5
4A15
330
2A
100
AcDbEntity
  8
2
100
AcDbText
 10
77.86735599999997
 20
446.136462
 30
0.0
 40
10.0
  1
Ｓ
 50
67.50000232373956
 41
0.9999999480108234
 72
     5
 11
80.92882299999997
 21
453.527498
 31
0.0
100
AcDbText
  0
TEXT
  5
4A16
330
2A
100
AcDbEntity
  8
2
100
AcDbText
 10
131.3764839999999
 20
405.046579
 30
0.0
 40
10.0
  1
Ｏ
 50
202.4999976762606
 41
0.9230768750869078
 72
     5
 11
123.9854479999999
 21
401.985112
 31
0.0
100
AcDbText
  0
LINE
  5
4A17
330
2A
100
AcDbEntity
  8
2
  6
CENTER
 62
     2
370
    13
100
AcDbLine
 10
96.40512300000001
 20
452.8133429999999
 30
0.0
 11
79.68552299999998
 21
469.532944
 31
0.0
  0
ARC
  5
4A18
330
2A
100
AcDbEntity
  8
2
  6
CENTER
 62
     2
370
    13
100
AcDbCircle
 10
112.8275060000001
 20
436.3909599999999
 30
0.0
 40
35.0
100
AcDbArc
 50
118.0055220000028
 51
150.9236579999989
  0
LINE
  5
4A19
330
2A
100
AcDbEntity
  8
2
  6
CENTER
 62
     2
370
    13
100
AcDbLine
 10
144.8521949999999
 20
404.3662709999998
 30
0.0
 11
130.176347
 21
419.0421199999998
 31
0.0
  0
ARC
  5
4A1A
330
2A
100
AcDbEntity
  8
2
  6
CENTER
 62
     2
370
    13
100
AcDbCircle
 10
112.8275060000001
 20
436.3909599999999
 30
0.0
 40
35.0
100
AcDbArc
 50
298.5853780000013
 51
330.9681989999996
  0
LINE
  5
4A1B
330
2A
100
AcDbEntity
  8
2
100
AcDbLine
 10
136.451333
 20
421.441332
 30
0.0
 11
135.9606779999999
 21
421.9947419999998
 31
0.0
  0
LINE
  5
4A1C
330
2A
100
AcDbEntity
  8
2
100
AcDbLine
 10
134.9029169999999
 20
421.9668969999998
 30
0.0
 11
136.451333
 21
421.441332
 31
0.0
  0
ARC
  5
4A1D
330
2A
100
AcDbEntity
  8
2
100
AcDbCircle
 10
104.752866
 20
390.597399
 30
0.0
 40
0.5
100
AcDbArc
 50
170.0000000000013
 51
350.0000000000013
  0
ARC
  5
4A1E
330
2A
100
AcDbEntity
  8
2
100
AcDbCircle
 10
96.92356999999994
 20
392.695253
 30
0.0
 40
0.5
100
AcDbArc
 50
159.9999999999998
 51
339.9999999999999
  0
ARC
  5
4A1F
330
2A
100
AcDbEntity
  8
2
100
AcDbCircle
 10
111.8275060000001
 20
408.9091479999998
 30
0.0
 40
0.5
100
AcDbArc
 50
87.91605799999963
 51
180.0
  0
ARC
  5
4A20
330
2A
100
AcDbEntity
  8
2
100
AcDbCircle
 10
113.8275060000001
 20
408.9091479999998
 30
0.0
 40
0.5
100
AcDbArc
 50
0.0
 51
92.08394200000041
  0
ARC
  5
4A21
330
2A
100
AcDbEntity
  8
2
100
AcDbCircle
 10
112.8275060000001
 20
436.3909599999999
 30
0.0
 40
27.0
100
AcDbArc
 50
267.9160579999996
 51
272.0839420000004
  0
ARC
  5
4A22
330
2A
100
AcDbEntity
  8
2
100
AcDbCircle
 10
112.8275060000001
 20
436.3909599999999
 30
0.0
 40
47.0
100
AcDbArc
 50
268.7677379999984
 51
271.2322620000016
  0
ARC
  5
4A23
330
2A
100
AcDbEntity
  8
2
100
AcDbCircle
 10
112.8275060000001
 20
436.3909599999999
 30
0.0
 40
47.0
100
AcDbArc
 50
199.999929000001
 51
200.0000710000001
  0
ARC
  5
4A24
330
2A
100
AcDbEntity
  8
2
100
AcDbCircle
 10
113.8275060000001
 20
389.901714
 30
0.0
 40
0.5
100
AcDbArc
 50
271.2322620000016
 51
0.0
  0
ARC
  5
4A25
330
2A
100
AcDbEntity
  8
2
100
AcDbCircle
 10
111.8275060000001
 20
389.901714
 30
0.0
 40
0.5
100
AcDbArc
 50
180.0
 51
268.7677379999984
  0
ARC
  5
4A26
330
2A
100
AcDbEntity
  8
2
100
AcDbCircle
 10
112.8275060000001
 20
436.3909599999999
 30
0.0
 40
47.0
100
AcDbArc
 50
189.9999660000011
 51
190.0000339999995
  0
ARC
  5
4A27
330
2A
100
AcDbEntity
  8
2
100
AcDbCircle
 10
76.882023
 20
430.0528019999999
 30
0.0
 40
0.5
100
AcDbArc
 50
279.9999999999986
 51
99.99999999999857
  0
ARC
  5
4A28
330
2A
100
AcDbEntity
  8
2
100
AcDbCircle
 10
78.52872600000002
 20
423.9072249999999
 30
0.0
 40
0.5
100
AcDbArc
 50
289.9999999999969
 51
109.9999999999969
  0
ARC
  5
4A29
330
2A
100
AcDbEntity
  8
2
100
AcDbCircle
 10
81.217579
 20
418.14096
 30
0.0
 40
0.5
100
AcDbArc
 50
300.0000000000001
 51
120.0000000000001
  0
ARC
  5
4A2A
330
2A
100
AcDbEntity
  8
2
100
AcDbCircle
 10
84.86688400000003
 20
412.929212
 30
0.0
 40
0.5
100
AcDbArc
 50
310.0000000000024
 51
130.0000000000024
  0
ARC
  5
4A2B
330
2A
100
AcDbEntity
  8
2
100
AcDbCircle
 10
89.36575800000005
 20
408.4303379999998
 30
0.0
 40
0.5
100
AcDbArc
 50
319.9999999999997
 51
139.9999999999997
  0
ARC
  5
4A2C
330
2A
100
AcDbEntity
  8
2
100
AcDbCircle
 10
94.57750600000007
 20
404.7810329999999
 30
0.0
 40
0.5
100
AcDbArc
 50
329.9999999999991
 51
149.999999999999
  0
ARC
  5
4A2D
330
2A
100
AcDbEntity
  8
2
100
AcDbCircle
 10
100.343771
 20
402.092179
 30
0.0
 40
0.5
100
AcDbArc
 50
339.9999999999999
 51
159.9999999999998
  0
ARC
  5
4A2E
330
2A
100
AcDbEntity
  8
2
100
AcDbCircle
 10
106.489348
 20
400.4454769999998
 30
0.0
 40
0.5
100
AcDbArc
 50
350.0000000000013
 51
170.0000000000013
  0
LINE
  5
4A2F
330
2A
100
AcDbEntity
  8
2
100
AcDbLine
 10
83.46030299999995
 20
428.98053
 30
0.0
 11
84.17145000000004
 21
429.691677
 31
0.0
  0
LINE
  5
4A30
330
2A
100
AcDbEntity
  8
2
100
AcDbLine
 10
81.42845299999997
 20
426.948681
 30
0.0
 11
82.13959999999998
 21
427.6598279999998
 31
0.0
  0
LINE
  5
4A31
330
2A
100
AcDbEntity
  8
2
100
AcDbLine
 10
80.00615900000003
 20
425.526386
 30
0.0
 11
80.717306
 21
426.237533
 31
0.0
  0
LINE
  5
4A32
330
2A
100
AcDbEntity
  8
2
100
AcDbLine
 10
114.3275060000001
 20
389.901714
 30
0.0
 11
114.3275060000001
 21
408.9091479999998
 31
0.0
  0
LINE
  5
4A33
330
2A
100
AcDbEntity
  8
2
100
AcDbLine
 10
111.3275060000001
 20
389.901714
 30
0.0
 11
111.3275060000001
 21
408.9091479999998
 31
0.0
  0
LINE
  5
4A34
330
2A
100
AcDbEntity
  8
2
100
AcDbLine
 10
104.2604619999999
 20
390.684224
 30
0.0
 11
105.996944
 21
400.5323009999999
 31
0.0
  0
LINE
  5
4A35
330
2A
100
AcDbEntity
  8
2
100
AcDbLine
 10
105.2452699999999
 20
390.510575
 30
0.0
 11
106.9817519999999
 21
400.3586529999997
 31
0.0
  0
LINE
  5
4A36
330
2A
100
AcDbEntity
  8
2
100
AcDbLine
 10
83.32090500000004
 20
400.4484999999998
 30
0.0
 11
89.74878100000003
 21
408.108944
 31
0.0
  0
ARC
  5
4A37
330
2A
100
AcDbEntity
  8
2
100
AcDbCircle
 10
82.93788199999992
 20
400.769893
 30
0.0
 40
0.5
100
AcDbArc
 50
139.9999999999997
 51
319.9999999999997
  0
LINE
  5
4A38
330
2A
100
AcDbEntity
  8
2
100
AcDbLine
 10
82.55485999999995
 20
401.091287
 30
0.0
 11
88.98273599999994
 21
408.7517319999998
 31
0.0
  0
LINE
  5
4A39
330
2A
100
AcDbEntity
  8
2
100
AcDbLine
 10
90.01051899999994
 20
395.870779
 30
0.0
 11
95.01051899999991
 21
404.5310329999998
 31
0.0
  0
ARC
  5
4A3A
330
2A
100
AcDbEntity
  8
2
100
AcDbCircle
 10
89.57750600000009
 20
396.120779
 30
0.0
 40
0.5
100
AcDbArc
 50
149.999999999999
 51
329.9999999999991
  0
LINE
  5
4A3B
330
2A
100
AcDbEntity
  8
2
100
AcDbLine
 10
89.144494
 20
396.370779
 30
0.0
 11
94.14449400000014
 21
405.031033
 31
0.0
  0
LINE
  5
4A3C
330
2A
100
AcDbEntity
  8
2
100
AcDbLine
 10
97.39341599999987
 20
392.524243
 30
0.0
 11
100.813617
 21
401.9211689999998
 31
0.0
  0
LINE
  5
4A3D
330
2A
100
AcDbEntity
  8
2
100
AcDbLine
 10
96.45372300000008
 20
392.866263
 30
0.0
 11
99.87392499999987
 21
402.263189
 31
0.0
  0
ARC
  5
4A3E
330
2A
100
AcDbEntity
  8
2
100
AcDbCircle
 10
112.8275060000001
 20
436.3909599999999
 30
0.0
 40
47.0
100
AcDbArc
 50
178.7677379999984
 51
181.2322620000015
  0
LINE
  5
4A3F
330
2A
100
AcDbEntity
  8
2
100
AcDbLine
 10
69.30280900000003
 20
420.0171769999998
 30
0.0
 11
78.69973600000003
 21
423.4373779999998
 31
0.0
  0
ARC
  5
4A40
330
2A
100
AcDbEntity
  8
2
100
AcDbCircle
 10
69.131799
 20
420.487023
 30
0.0
 40
0.5
100
AcDbArc
 50
109.9999999999969
 51
289.9999999999969
  0
LINE
  5
4A41
330
2A
100
AcDbEntity
  8
2
100
AcDbLine
 10
68.96078899999998
 20
420.95687
 30
0.0
 11
78.35771599999998
 21
424.3770709999997
 31
0.0
  0
LINE
  5
4A42
330
2A
100
AcDbEntity
  8
2
100
AcDbLine
 10
72.80732499999998
 20
412.7079469999998
 30
0.0
 11
81.467579
 21
417.7079469999998
 31
0.0
  0
ARC
  5
4A43
330
2A
100
AcDbEntity
  8
2
100
AcDbCircle
 10
72.55732499999997
 20
413.14096
 30
0.0
 40
0.5
100
AcDbArc
 50
120.0000000000001
 51
300.0000000000001
  0
LINE
  5
4A44
330
2A
100
AcDbEntity
  8
2
100
AcDbLine
 10
72.30732499999998
 20
413.573973
 30
0.0
 11
80.967579
 21
418.5739729999998
 31
0.0
  0
LINE
  5
4A45
330
2A
100
AcDbEntity
  8
2
100
AcDbLine
 10
77.52783299999999
 20
406.1183139999998
 30
0.0
 11
85.18827799999995
 21
412.5461899999999
 31
0.0
  0
ARC
  5
4A46
330
2A
100
AcDbEntity
  8
2
100
AcDbCircle
 10
77.20643999999992
 20
406.501336
 30
0.0
 40
0.5
100
AcDbArc
 50
130.0000000000024
 51
310.0000000000024
  0
LINE
  5
4A47
330
2A
100
AcDbEntity
  8
2
100
AcDbLine
 10
76.88504599999998
 20
406.884358
 30
0.0
 11
84.54548999999998
 21
413.3122339999999
 31
0.0
  0
LINE
  5
4A48
330
2A
100
AcDbEntity
  8
2
100
AcDbLine
 10
66.94712200000004
 20
428.808724
 30
0.0
 11
76.79519900000002
 21
430.5452049999999
 31
0.0
  0
ARC
  5
4A49
330
2A
100
AcDbEntity
  8
2
100
AcDbCircle
 10
67.03394600000001
 20
428.31632
 30
0.0
 40
0.5
100
AcDbArc
 50
99.99999999999857
 51
279.9999999999986
  0
LINE
  5
4A4A
330
2A
100
AcDbEntity
  8
2
100
AcDbLine
 10
67.12076999999999
 20
427.823916
 30
0.0
 11
76.96884700000009
 21
429.560398
 31
0.0
  0
ARC
  5
4A4B
330
2A
100
AcDbEntity
  8
2
100
AcDbCircle
 10
66.33825999999999
 20
435.3909599999999
 30
0.0
 40
0.5
100
AcDbArc
 50
181.2322620000015
 51
270.0
  0
LINE
  5
4A4C
330
2A
100
AcDbEntity
  8
2
100
AcDbLine
 10
66.33825999999999
 20
434.8909599999998
 30
0.0
 11
76.50463100000002
 21
434.8909599999998
 31
0.0
  0
LINE
  5
4A4D
330
2A
100
AcDbEntity
  8
2
100
AcDbLine
 10
66.33825999999999
 20
437.8909599999999
 30
0.0
 11
76.50463100000002
 21
437.8909599999999
 31
0.0
  0
ARC
  5
4A4E
330
2A
100
AcDbEntity
  8
2
100
AcDbCircle
 10
66.33825999999999
 20
437.3909599999999
 30
0.0
 40
0.5
100
AcDbArc
 50
90.0
 51
178.7677379999984
  0
LINE
  5
4A4F
330
2A
100
AcDbEntity
  8
2
100
AcDbLine
 10
93.62925099999985
 20
413.9125869999999
 30
0.0
 11
96.92789199999992
 21
416.935235
 31
0.0
  0
LINE
  5
4A50
330
2A
100
AcDbEntity
  8
2
100
AcDbLine
 10
93.62925099999985
 20
413.9125869999999
 30
0.0
 11
95.64437700000008
 21
418.21875
 31
0.0
  0
LINE
  5
4A51
330
2A
100
AcDbEntity
  8
2
100
AcDbLine
 10
101.5808710000001
 20
402.38715
 30
0.0
 11
96.98155300000008
 21
406.986468
 31
0.0
  0
ARC
  5
4A52
330
2A
100
AcDbEntity
  8
2
100
AcDbCircle
 10
83.11596200000009
 20
426.256778
 30
0.0
 40
7.674066
100
AcDbArc
 50
304.4736089999992
 51
325.5263910000025
  0
ARC
  5
4A53
330
2A
100
AcDbEntity
  8
2
100
AcDbCircle
 10
93.00599199999986
 20
416.49218
 30
0.0
 40
8.638035
100
AcDbArc
 50
126.2256979999984
 51
144.9372169999997
  0
ARC
  5
4A54
330
2A
100
AcDbEntity
  8
2
100
AcDbCircle
 10
86.838212
 20
420.833029
 30
0.0
 40
3.169315999999998
100
AcDbArc
 50
34.66804800000313
 51
55.33195200000101
  0
ARC
  5
4A55
330
2A
100
AcDbEntity
  8
2
100
AcDbCircle
 10
88.253689
 20
422.8304239999998
 30
0.0
 40
0.7219260000000001
100
AcDbArc
 50
57.55595599999954
 51
119.2270429999973
  0
ARC
  5
4A56
330
2A
100
AcDbEntity
  8
2
100
AcDbCircle
 10
86.45300099999998
 20
421.0913429999997
 30
0.0
 40
0.6321630000000002
100
AcDbArc
 50
144.9372169999997
 51
214.6680480000031
  0
ARC
  5
4A57
330
2A
100
AcDbEntity
  8
2
100
AcDbCircle
 10
88.53971200000001
 20
422.5345289999998
 30
0.0
 40
3.169315999999998
100
AcDbArc
 50
214.6680480000031
 51
235.331952000001
  0
ARC
  5
4A58
330
2A
100
AcDbEntity
  8
2
100
AcDbCircle
 10
88.92492200000004
 20
422.2762139999998
 30
0.0
 40
0.6321630000000002
100
AcDbArc
 50
324.9372169999997
 51
34.66804800000313
  0
ARC
  5
4A59
330
2A
100
AcDbEntity
  8
2
100
AcDbCircle
 10
87.09652600000003
 20
420.4478179999998
 30
0.0
 40
0.6321630000000002
100
AcDbArc
 50
235.331952000001
 51
305.0627830000018
  0
ARC
  5
4A5A
330
2A
100
AcDbEntity
  8
2
100
AcDbCircle
 10
97.08054700000005
 20
407.085463
 30
0.0
 40
0.14
100
AcDbArc
 50
71.56505100000154
 51
224.9999999999998
  0
LINE
  5
4A5B
330
2A
100
AcDbEntity
  8
2
100
AcDbLine
 10
94.65529599999992
 20
419.207831
 30
0.0
 11
95.67122100000004
 21
418.191906
 31
0.0
  0
LINE
  5
4A5C
330
2A
100
AcDbEntity
  8
2
100
AcDbLine
 10
91.99971800000005
 20
413.532827
 30
0.0
 11
93.61825599999995
 21
417.154866
 31
0.0
  0
ARC
  5
4A5D
330
2A
100
AcDbEntity
  8
2
100
AcDbCircle
 10
96.88436499999987
 20
410.6599799999999
 30
0.0
 40
0.6321630000000002
100
AcDbArc
 50
144.9372169999997
 51
214.6680480000031
  0
ARC
  5
4A5E
330
2A
100
AcDbEntity
  8
2
100
AcDbCircle
 10
104.3489589999999
 20
417.4810499999998
 30
0.0
 40
11.524047
100
AcDbArc
 50
218.7294579999995
 51
231.2705420000025
  0
ARC
  5
4A5F
330
2A
100
AcDbEntity
  8
2
100
AcDbCircle
 10
98.71275999999987
 20
412.4883759999999
 30
0.0
 40
0.6321630000000002
100
AcDbArc
 50
55.33195200000101
 51
125.0627830000018
  0
ARC
  5
4A60
330
2A
100
AcDbEntity
  8
2
100
AcDbCircle
 10
91.89169100000004
 20
405.0237809999998
 30
0.0
 40
11.524047
100
AcDbArc
 50
38.72945799999945
 51
51.27054200000253
  0
ARC
  5
4A61
330
2A
100
AcDbEntity
  8
2
100
AcDbCircle
 10
100.4074499999999
 20
407.4056409999998
 30
0.0
 40
0.086204
100
AcDbArc
 50
135.0000000000002
 51
224.9999999999998
  0
ARC
  5
4A62
330
2A
100
AcDbEntity
  8
2
100
AcDbCircle
 10
98.97107499999993
 20
412.1031649999998
 30
0.0
 40
3.169315999999998
100
AcDbArc
 50
214.6680480000031
 51
235.331952000001
  0
ARC
  5
4A63
330
2A
100
AcDbEntity
  8
2
100
AcDbCircle
 10
97.52788899999996
 20
410.016455
 30
0.0
 40
0.6321630000000002
100
AcDbArc
 50
235.331952000001
 51
305.0627830000018
  0
ARC
  5
4A64
330
2A
100
AcDbEntity
  8
2
100
AcDbCircle
 10
98.21767099999988
 20
409.8360099999998
 30
0.0
 40
1.724081
100
AcDbArc
 50
231.2705420000025
 51
308.8300689999996
  0
ARC
  5
4A65
330
2A
100
AcDbEntity
  8
2
100
AcDbCircle
 10
103.371513
 20
410.369704
 30
0.0
 40
0.086204
100
AcDbArc
 50
44.99999999999976
 51
135.0000000000002
  0
ARC
  5
4A66
330
2A
100
AcDbEntity
  8
2
100
AcDbCircle
 10
99.26697000000013
 20
411.817143
 30
0.0
 40
0.7219260000000001
100
AcDbArc
 50
330.7729570000006
 51
32.44404400000167
  0
ARC
  5
4A67
330
2A
100
AcDbEntity
  8
2
100
AcDbCircle
 10
97.26957500000004
 20
410.401665
 30
0.0
 40
3.169315999999998
100
AcDbArc
 50
34.66804800000313
 51
55.33195200000101
  0
ARC
  5
4A68
330
2A
100
AcDbEntity
  8
2
100
AcDbCircle
 10
99.53673100000017
 20
411.1550689999999
 30
0.0
 40
1.724081
100
AcDbArc
 50
321.1699310000006
 51
38.72945799999945
  0
LINE
  5
4A69
330
2A
100
AcDbEntity
  8
2
100
AcDbLine
 10
103.310557
 20
410.430659
 30
0.0
 11
100.3464939999999
 21
407.4665959999999
 31
0.0
  0
ARC
  5
4A6A
330
2A
100
AcDbEntity
  8
2
100
AcDbCircle
 10
92.92872699999998
 20
416.569446
 30
0.0
 40
8.638035
100
AcDbArc
 50
305.0627830000018
 51
323.7743020000033
  0
ARC
  5
4A6B
330
2A
100
AcDbEntity
  8
2
100
AcDbCircle
 10
92.77630700000008
 20
416.5964329999999
 30
0.0
 40
10.402317
100
AcDbArc
 50
308.8300689999996
 51
321.1699310000006
  0
LINE
  5
4A6C
330
2A
100
AcDbEntity
  8
2
100
AcDbLine
 10
91.99971800000005
 20
413.532827
 30
0.0
 11
93.55108500000005
 21
411.9814599999998
 31
0.0
  0
ARC
  5
4A6D
330
2A
100
AcDbEntity
  8
2
100
AcDbCircle
 10
96.70391900000005
 20
411.349761
 30
0.0
 40
1.724081
100
AcDbArc
 50
141.1699310000006
 51
218.7294579999995
  0
LINE
  5
4A6E
330
2A
100
AcDbEntity
  8
2
100
AcDbLine
 10
96.95473599999992
 20
416.908391
 30
0.0
 11
97.97066100000009
 21
415.892466
 31
0.0
  0
ARC
  5
4A6F
330
2A
100
AcDbEntity
  8
2
100
AcDbCircle
 10
98.02297900000008
 20
412.668821
 30
0.0
 40
1.724081
100
AcDbArc
 50
51.27054200000253
 51
128.8300689999996
  0
LINE
  5
4A70
330
2A
100
AcDbEntity
  8
2
100
AcDbLine
 10
93.55885399999987
 20
411.989229
 30
0.0
 11
97.97066100000009
 21
415.892466
 31
0.0
  0
ARC
  5
4A71
330
2A
100
AcDbEntity
  8
2
100
AcDbCircle
 10
102.6933249999999
 20
406.6794159999998
 30
0.0
 40
7.674066
100
AcDbArc
 50
124.4736089999992
 51
145.5263910000025
  0
ARC
  5
4A72
330
2A
100
AcDbEntity
  8
2
100
AcDbCircle
 10
103.4643430000001
 20
405.9083979999999
 30
0.0
 40
10.402317
100
AcDbArc
 50
128.8300689999996
 51
141.1699310000006
  0
LINE
  5
4A73
330
2A
100
AcDbEntity
  8
2
100
AcDbLine
 10
104.0782140000001
 20
404.6813069999998
 30
0.0
 11
101.7840559999999
 21
402.38715
 31
0.0
  0
ARC
  5
4A74
330
2A
100
AcDbEntity
  8
2
100
AcDbCircle
 10
101.857608
 20
405.9554819999999
 30
0.0
 40
0.086204
100
AcDbArc
 50
224.9999999999998
 51
315.0000000000002
  0
ARC
  5
4A75
330
2A
100
AcDbEntity
  8
2
100
AcDbCircle
 10
103.976621
 20
404.7829
 30
0.0
 40
0.143673
100
AcDbArc
 50
315.0000000000002
 51
71.56505100000154
  0
ARC
  5
4A76
330
2A
100
AcDbEntity
  8
2
100
AcDbCircle
 10
104.8216709999999
 20
408.919545
 30
0.0
 40
0.086204
100
AcDbArc
 50
315.0000000000002
 51
44.99999999999976
  0
LINE
  5
4A77
330
2A
100
AcDbEntity
  8
2
100
AcDbLine
 10
97.12481900000014
 20
407.218279
 30
0.0
 11
104.0220549999999
 21
404.9191999999998
 31
0.0
  0
LINE
  5
4A78
330
2A
100
AcDbEntity
  8
2
100
AcDbLine
 10
101.9185629999999
 20
405.8945269999999
 30
0.0
 11
104.882626
 21
408.8585899999998
 31
0.0
  0
ARC
  5
4A79
330
2A
100
AcDbEntity
  8
2
100
AcDbCircle
 10
101.682464
 20
402.4887419999997
 30
0.0
 40
0.143673
100
AcDbArc
 50
224.9999999999998
 51
315.0000000000002
  0
LINE
  5
4A7A
330
2A
100
AcDbEntity
  8
2
100
AcDbLine
 10
101.796652
 20
405.8945269999999
 30
0.0
 11
100.3464939999999
 21
407.344685
 31
0.0
  0
LINE
  5
4A7B
330
2A
100
AcDbEntity
  8
2
100
AcDbLine
 10
104.882626
 20
408.980501
 30
0.0
 11
103.4324679999999
 21
410.430659
 31
0.0
  0
LINE
  5
4A7C
330
2A
100
AcDbEntity
  8
2
100
AcDbLine
 10
82.74915499999996
 20
424.205684
 30
0.0
 11
80.717306
 21
426.237533
 31
0.0
  0
LINE
  5
4A7D
330
2A
100
AcDbEntity
  8
2
100
AcDbLine
 10
83.46030299999995
 20
424.9168309999998
 30
0.0
 11
81.42845299999997
 21
426.948681
 31
0.0
  0
LINE
  5
4A7E
330
2A
100
AcDbEntity
  8
2
100
AcDbLine
 10
84.17145000000004
 20
425.6279789999998
 30
0.0
 11
82.13959999999998
 21
427.6598279999998
 31
0.0
  0
LINE
  5
4A7F
330
2A
100
AcDbEntity
  8
2
100
AcDbLine
 10
85.49215200000004
 20
426.948681
 30
0.0
 11
83.46030299999995
 21
428.98053
 31
0.0
  0
LINE
  5
4A80
330
2A
100
AcDbEntity
  8
2
100
AcDbLine
 10
85.49215200000004
 20
426.948681
 30
0.0
 11
84.17145000000004
 21
425.6279789999998
 31
0.0
  0
LINE
  5
4A81
330
2A
100
AcDbEntity
  8
2
100
AcDbLine
 10
83.46030299999995
 20
424.9168309999998
 30
0.0
 11
82.74915499999996
 21
424.205684
 31
0.0
  0
LINE
  5
4A82
330
2A
100
AcDbEntity
  8
2
100
AcDbLine
 10
88.44484999999997
 20
417.087695
 30
0.0
 11
89.99621600000002
 21
415.5363279999999
 31
0.0
  0
ARC
  5
4A83
330
2A
100
AcDbEntity
  8
2
100
AcDbCircle
 10
93.94443899999986
 20
427.885569
 30
0.0
 40
11.524047
100
AcDbArc
 50
218.7294579999995
 51
231.2705420000025
  0
ARC
  5
4A84
330
2A
100
AcDbEntity
  8
2
100
AcDbCircle
 10
87.81315100000004
 20
420.2405289999999
 30
0.0
 40
1.724081
100
AcDbArc
 50
231.2705420000025
 51
308.8300689999996
  0
ARC
  5
4A85
330
2A
100
AcDbEntity
  8
2
100
AcDbCircle
 10
86.299399
 20
421.7542809999999
 30
0.0
 40
1.724081
100
AcDbArc
 50
141.1699310000006
 51
218.7294579999995
  0
LINE
  5
4A86
330
2A
100
AcDbEntity
  8
2
100
AcDbLine
 10
92.35585600000012
 20
421.507271
 30
0.0
 11
93.37178100000006
 21
420.491346
 31
0.0
  0
ARC
  5
4A87
330
2A
100
AcDbEntity
  8
2
100
AcDbCircle
 10
81.48717099999997
 20
415.4283009999999
 30
0.0
 40
11.524047
100
AcDbArc
 50
38.72945799999945
 51
51.27054200000253
  0
ARC
  5
4A88
330
2A
100
AcDbEntity
  8
2
100
AcDbCircle
 10
89.13221099999999
 20
421.5595889999998
 30
0.0
 40
1.724081
100
AcDbArc
 50
321.1699310000006
 51
38.72945799999945
  0
ARC
  5
4A89
330
2A
100
AcDbEntity
  8
2
100
AcDbCircle
 10
87.61845900000002
 20
423.073341
 30
0.0
 40
1.724081
100
AcDbArc
 50
51.27054200000253
 51
128.8300689999996
  0
LINE
  5
4A8A
330
2A
100
AcDbEntity
  8
2
100
AcDbLine
 10
83.25711799999998
 20
422.275427
 30
0.0
 11
87.42240900000002
 21
426.4407179999999
 31
0.0
  0
ARC
  5
4A8B
330
2A
100
AcDbEntity
  8
2
100
AcDbCircle
 10
82.37178700000006
 20
427.000953
 30
0.0
 40
10.402317
100
AcDbArc
 50
308.8300689999996
 51
321.1699310000006
  0
ARC
  5
4A8C
330
2A
100
AcDbEntity
  8
2
100
AcDbCircle
 10
93.05982300000003
 20
416.3129169999998
 30
0.0
 40
10.402317
100
AcDbArc
 50
128.8300689999996
 51
141.1699310000006
  0
LINE
  5
4A8D
330
2A
100
AcDbEntity
  8
2
100
AcDbLine
 10
88.45261899999989
 20
417.0954639999997
 30
0.0
 11
92.35585600000012
 21
421.507271
 31
0.0
  0
LINE
  5
4A8E
330
2A
100
AcDbEntity
  8
2
100
AcDbLine
 10
90.34913299999994
 20
417.1927049999999
 30
0.0
 11
93.37178100000006
 21
420.491346
 31
0.0
  0
LINE
  5
4A8F
330
2A
100
AcDbEntity
  8
2
100
AcDbLine
 10
89.99621600000002
 20
415.5363279999999
 30
0.0
 11
93.61825599999995
 21
417.154866
 31
0.0
  0
LINE
  5
4A90
330
2A
100
AcDbEntity
  8
2
100
AcDbLine
 10
90.34913299999994
 20
417.1927049999999
 30
0.0
 11
94.65529599999992
 21
419.207831
 31
0.0
  0
LINE
  5
4A91
330
2A
100
AcDbEntity
  8
2
100
AcDbLine
 10
83.25711799999998
 20
422.275427
 30
0.0
 11
80.00615900000003
 21
425.526386
 31
0.0
  0
LINE
  5
4A92
330
2A
100
AcDbEntity
  8
2
100
AcDbLine
 10
87.42240900000002
 20
426.4407179999999
 30
0.0
 11
84.17145000000004
 21
429.691677
 31
0.0
  0
LINE
  5
4A93
330
2A
100
AcDbEntity
  8
2
100
AcDbLine
 10
115.3023800000001
 20
463.614571
 30
0.0
 11
114.9488269999999
 21
463.9681239999998
 31
0.0
  0
LINE
  5
4A94
330
2A
100
AcDbEntity
  8
2
100
AcDbLine
 10
115.3023800000001
 20
457.2506099999999
 30
0.0
 11
114.9488269999999
 21
456.897057
 31
0.0
  0
LINE
  5
4A95
330
2A
100
AcDbEntity
  8
2
100
AcDbLine
 10
115.3023800000001
 20
457.2506099999999
 30
0.0
 11
112.1203989999999
 21
460.432591
 31
0.0
  0
LINE
  5
4A96
330
2A
100
AcDbEntity
  8
2
100
AcDbLine
 10
115.3023800000001
 20
463.614571
 30
0.0
 11
112.1203989999999
 21
460.432591
 31
0.0
  0
LINE
  5
4A97
330
2A
100
AcDbEntity
  8
2
100
AcDbLine
 10
114.9488269999999
 20
463.9681239999998
 30
0.0
 11
111.413293
 21
460.432591
 31
0.0
  0
LINE
  5
4A98
330
2A
100
AcDbEntity
  8
2
100
AcDbLine
 10
114.9488269999999
 20
456.897057
 30
0.0
 11
111.413293
 21
460.432591
 31
0.0
  0
ARC
  5
4A99
330
2A
100
AcDbEntity
  8
2
100
AcDbCircle
 10
112.8275060000001
 20
436.3909599999999
 30
0.0
 40
60.0
100
AcDbArc
 50
33.8605979999994
 51
36.1394019999993
  0
ARC
  5
4A9A
330
2A
100
AcDbEntity
  8
2
100
AcDbCircle
 10
112.8275060000001
 20
436.3909599999999
 30
0.0
 40
60.0
100
AcDbArc
 50
43.86059799999903
 51
46.13940199999951
  0
ARC
  5
4A9B
330
2A
100
AcDbEntity
  8
2
100
AcDbCircle
 10
112.8275060000001
 20
436.3909599999999
 30
0.0
 40
60.0
100
AcDbArc
 50
53.86059799999621
 51
56.13940199999933
  0
ARC
  5
4A9C
330
2A
100
AcDbEntity
  8
2
100
AcDbCircle
 10
112.8275060000001
 20
436.3909599999999
 30
0.0
 40
60.0
100
AcDbArc
 50
63.86059799999946
 51
66.13940200000111
  0
ARC
  5
4A9D
330
2A
100
AcDbEntity
  8
2
100
AcDbCircle
 10
112.8275060000001
 20
436.3909599999999
 30
0.0
 40
60.0
100
AcDbArc
 50
73.86059800000144
 51
76.13940199999799
  0
ARC
  5
4A9E
330
2A
100
AcDbEntity
  8
2
100
AcDbCircle
 10
112.8275060000001
 20
436.3909599999999
 30
0.0
 40
60.0
100
AcDbArc
 50
83.86059799999911
 51
86.13940200000342
  0
ARC
  5
4A9F
330
2A
100
AcDbEntity
  8
2
100
AcDbCircle
 10
112.8275060000001
 20
436.3909599999999
 30
0.0
 40
60.0
100
AcDbArc
 50
93.86059799999657
 51
95.64477799999821
  0
ARC
  5
4AA0
330
2A
100
AcDbEntity
  8
2
100
AcDbCircle
 10
112.8275060000001
 20
436.3909599999999
 30
0.0
 40
60.0
100
AcDbArc
 50
23.86059799999779
 51
26.13940200000112
  0
ARC
  5
4AA1
330
2A
100
AcDbEntity
  8
2
100
AcDbCircle
 10
112.8275060000001
 20
436.3909599999999
 30
0.0
 40
60.0
100
AcDbArc
 50
13.86059799999888
 51
16.13940199999825
  0
ARC
  5
4AA2
330
2A
100
AcDbEntity
  8
2
100
AcDbCircle
 10
72.82750600000007
 20
487.6257139999998
 30
0.0
 40
15.0
100
AcDbArc
 50
307.9798720000022
 51
0.0
  0
ARC
  5
4AA3
330
2A
100
AcDbEntity
  8
2
100
AcDbCircle
 10
164.0622599999999
 20
396.39096
 30
0.0
 40
15.0
100
AcDbArc
 50
90.0
 51
142.020128
  0
LINE
  5
4AA4
330
2A
100
AcDbEntity
  8
2
100
AcDbLine
 10
87.82750600000007
 20
487.6257139999998
 30
0.0
 11
87.82750600000007
 21
501.3909599999998
 31
0.0
  0
LINE
  5
4AA5
330
2A
100
AcDbEntity
  8
2
100
AcDbLine
 10
97.82750600000007
 20
511.3909599999999
 30
0.0
 11
104.8275060000001
 21
511.3909599999999
 31
0.0
  0
LINE
  5
4AA6
330
2A
100
AcDbEntity
  8
2
100
AcDbLine
 10
105.8275060000001
 20
510.3909599999999
 30
0.0
 11
105.8275060000001
 21
497.0951609999998
 31
0.0
  0
ARC
  5
4AA7
330
2A
100
AcDbEntity
  8
2
100
AcDbCircle
 10
104.8275060000001
 20
510.3909599999999
 30
0.0
 40
1.0
100
AcDbArc
 50
0.0
 51
90.0
  0
ARC
  5
4AA8
330
2A
100
AcDbEntity
  8
2
100
AcDbCircle
 10
106.8275060000001
 20
497.0951609999998
 30
0.0
 40
1.0
100
AcDbArc
 50
180.0
 51
275.6447779999982
  0
ARC
  5
4AA9
330
2A
100
AcDbEntity
  8
2
100
AcDbCircle
 10
97.82750600000007
 20
501.3909599999998
 30
0.0
 40
10.0
100
AcDbArc
 50
90.0
 51
180.0
  0
ARC
  5
4AAA
330
2A
100
AcDbEntity
  8
2
100
AcDbCircle
 10
177.8275060000001
 20
421.3909599999999
 30
0.0
 40
10.0
100
AcDbArc
 50
270.0
 51
0.0
  0
LINE
  5
4AAB
330
2A
100
AcDbEntity
  8
2
100
AcDbLine
 10
187.8275060000001
 20
421.3909599999999
 30
0.0
 11
187.8275060000001
 21
423.360131
 31
0.0
  0
LINE
  5
4AAC
330
2A
100
AcDbEntity
  8
2
100
AcDbLine
 10
164.0622599999999
 20
411.39096
 30
0.0
 11
177.8275060000001
 21
411.39096
 31
0.0
  0
ARC
  5
4AAD
330
2A
100
AcDbEntity
  8
2
100
AcDbCircle
 10
112.8275060000001
 20
436.3909599999999
 30
0.0
 40
50.0
100
AcDbArc
 50
127.979872000002
 51
322.0201280000001
  0
LINE
  5
4AAE
330
2A
100
AcDbEntity
  8
2
100
AcDbLine
 10
170.3288569999999
 20
449.882439
 30
0.0
 11
170.863603
 21
450.2231099999999
 31
0.0
  0
ARC
  5
4AAF
330
2A
100
AcDbEntity
  8
2
100
AcDbCircle
 10
170.594953
 20
450.6448059999999
 30
0.0
 40
0.5
100
AcDbArc
 50
302.5000000000023
 51
13.86059799999888
  0
LINE
  5
4AB0
330
2A
100
AcDbEntity
  8
2
100
AcDbLine
 10
161.6418020000001
 20
454.649497
 30
0.0
 11
167.579976
 21
460.090831
 31
0.0
  0
LINE
  5
4AB1
330
2A
100
AcDbEntity
  8
2
100
AcDbLine
 10
161.9577879999999
 20
453.7813339999999
 30
0.0
 11
170.0043149999999
 21
453.4300149999999
 31
0.0
  0
ARC
  5
4AB2
330
2A
100
AcDbEntity
  8
2
100
AcDbCircle
 10
161.979597
 20
454.2808579999998
 30
0.0
 40
0.5
100
AcDbArc
 50
132.4999999999991
 51
267.5000000000015
  0
ARC
  5
4AB3
330
2A
100
AcDbEntity
  8
2
100
AcDbCircle
 10
167.2421810000001
 20
460.4594689999998
 30
0.0
 40
0.5
100
AcDbArc
 50
312.4999999999992
 51
23.86059799999779
  0
ARC
  5
4AB4
330
2A
100
AcDbEntity
  8
2
100
AcDbCircle
 10
169.9825049999999
 20
452.9304909999998
 30
0.0
 40
0.5
100
AcDbArc
 50
16.13940199999825
 51
87.50000000000143
  0
LINE
  5
4AB5
330
2A
100
AcDbEntity
  8
2
100
AcDbLine
 10
157.729642
 20
462.848622
 30
0.0
 11
162.632724
 21
469.2384429999998
 31
0.0
  0
LINE
  5
4AB6
330
2A
100
AcDbEntity
  8
2
100
AcDbLine
 10
158.1915819999999
 20
462.0485190000001
 30
0.0
 11
166.17687
 21
463.0998019999998
 31
0.0
  0
ARC
  5
4AB7
330
2A
100
AcDbEntity
  8
2
100
AcDbCircle
 10
158.1263189999999
 20
462.5442409999998
 30
0.0
 40
0.5
100
AcDbArc
 50
142.499999999999
 51
277.4999999999988
  0
ARC
  5
4AB8
330
2A
100
AcDbEntity
  8
2
100
AcDbCircle
 10
162.2360469999998
 20
469.542824
 30
0.0
 40
0.5
100
AcDbArc
 50
322.499999999999
 51
33.8605979999994
  0
ARC
  5
4AB9
330
2A
100
AcDbEntity
  8
2
100
AcDbCircle
 10
166.2421329999999
 20
462.6040799999999
 30
0.0
 40
0.5
100
AcDbArc
 50
26.13940200000112
 51
97.49999999999886
  0
LINE
  5
4ABA
330
2A
100
AcDbEntity
  8
2
100
AcDbLine
 10
152.4531529999999
 20
470.2438449999998
 30
0.0
 11
156.1721649999999
 21
477.388001
 31
0.0
  0
LINE
  5
4ABB
330
2A
100
AcDbEntity
  8
2
100
AcDbLine
 10
153.0470110000001
 20
469.536112
 30
0.0
 11
160.728431
 21
471.9580549999998
 31
0.0
  0
ARC
  5
4ABC
330
2A
100
AcDbEntity
  8
2
100
AcDbCircle
 10
152.8966580000001
 20
470.0129709999997
 30
0.0
 40
0.5
100
AcDbArc
 50
152.5000000000003
 51
287.4999999999999
  0
ARC
  5
4ABD
330
2A
100
AcDbEntity
  8
2
100
AcDbCircle
 10
155.72866
 20
477.618876
 30
0.0
 40
0.5
100
AcDbArc
 50
332.5000000000003
 51
43.86059799999903
  0
ARC
  5
4ABE
330
2A
100
AcDbEntity
  8
2
100
AcDbCircle
 10
160.878784
 20
471.4811959999998
 30
0.0
 40
0.5
100
AcDbArc
 50
36.1394019999993
 51
107.4999999999999
  0
LINE
  5
4ABF
330
2A
100
AcDbEntity
  8
2
100
AcDbLine
 10
146.6803910000001
 20
476.0166059999999
 30
0.0
 11
153.824548
 21
479.735619
 31
0.0
  0
ARC
  5
4AC0
330
2A
100
AcDbEntity
  8
2
100
AcDbCircle
 10
146.449517
 20
476.460112
 30
0.0
 40
0.5
100
AcDbArc
 50
162.5000000000002
 51
297.5000000000006
  0
ARC
  5
4AC1
330
2A
100
AcDbEntity
  8
2
100
AcDbCircle
 10
147.9177420000001
 20
484.442238
 30
0.0
 40
0.5
100
AcDbArc
 50
342.5000000000002
 51
53.86059799999621
  0
ARC
  5
4AC2
330
2A
100
AcDbEntity
  8
2
100
AcDbCircle
 10
154.0554219999999
 20
479.2921139999998
 30
0.0
 40
0.5
100
AcDbArc
 50
46.13940199999951
 51
117.5000000000006
  0
LINE
  5
4AC3
330
2A
100
AcDbEntity
  8
2
100
AcDbLine
 10
138.4850650000001
 20
481.7550349999999
 30
0.0
 11
139.5363480000001
 21
489.740324
 31
0.0
  0
LINE
  5
4AC4
330
2A
100
AcDbEntity
  8
2
100
AcDbLine
 10
139.2851680000001
 20
481.293096
 30
0.0
 11
145.6749890000001
 21
486.196178
 31
0.0
  0
ARC
  5
4AC5
330
2A
100
AcDbEntity
  8
2
100
AcDbCircle
 10
138.9807880000001
 20
481.6897719999999
 30
0.0
 40
0.5
100
AcDbArc
 50
172.5000000000008
 51
307.5000000000003
  0
ARC
  5
4AC6
330
2A
100
AcDbEntity
  8
2
100
AcDbCircle
 10
139.0406259999999
 20
489.805587
 30
0.0
 40
0.5
100
AcDbArc
 50
352.5000000000009
 51
63.86059799999946
  0
ARC
  5
4AC7
330
2A
100
AcDbEntity
  8
2
100
AcDbCircle
 10
145.97937
 20
485.7995009999998
 30
0.0
 40
0.5
100
AcDbArc
 50
56.13940199999933
 51
127.5000000000003
  0
LINE
  5
4AC8
330
2A
100
AcDbEntity
  8
2
100
AcDbLine
 10
130.2178799999999
 20
485.5212419999999
 30
0.0
 11
129.866561
 21
493.567769
 31
0.0
  0
LINE
  5
4AC9
330
2A
100
AcDbEntity
  8
2
100
AcDbLine
 10
131.086043
 20
485.2052559999998
 30
0.0
 11
136.5273769999999
 21
491.1434299999998
 31
0.0
  0
ARC
  5
4ACA
330
2A
100
AcDbEntity
  8
2
100
AcDbCircle
 10
130.717404
 20
485.5430509999997
 30
0.0
 40
0.5
100
AcDbArc
 50
182.4999999999984
 51
317.5000000000017
  0
ARC
  5
4ACB
330
2A
100
AcDbEntity
  8
2
100
AcDbCircle
 10
129.367037
 20
493.5459589999998
 30
0.0
 40
0.5
100
AcDbArc
 50
2.499999999998424
 51
73.86059800000144
  0
ARC
  5
4ACC
330
2A
100
AcDbEntity
  8
2
100
AcDbCircle
 10
136.8960159999999
 20
490.8056349999998
 30
0.0
 40
0.5
100
AcDbArc
 50
66.13940200000111
 51
137.5000000000017
  0
LINE
  5
4ACD
330
2A
100
AcDbEntity
  8
2
100
AcDbLine
 10
121.4222979999999
 20
487.794649
 30
0.0
 11
119.679051
 21
495.6579249999998
 31
0.0
  0
LINE
  5
4ACE
330
2A
100
AcDbEntity
  8
2
100
AcDbLine
 10
122.3321410000001
 20
487.634219
 30
0.0
 11
126.659656
 21
494.4270559999998
 31
0.0
  0
ARC
  5
4ACF
330
2A
100
AcDbEntity
  8
2
100
AcDbCircle
 10
121.9104460000001
 20
487.9028690000001
 30
0.0
 40
0.5
100
AcDbArc
 50
192.5000000000014
 51
327.5000000000013
  0
ARC
  5
4AD0
330
2A
100
AcDbEntity
  8
2
100
AcDbCircle
 10
119.1909029999999
 20
495.5497059999998
 30
0.0
 40
0.5
100
AcDbArc
 50
12.50000000000145
 51
83.86059799999911
  0
ARC
  5
4AD1
330
2A
100
AcDbEntity
  8
2
100
AcDbCircle
 10
127.0813519999999
 20
494.158407
 30
0.0
 40
0.5
100
AcDbArc
 50
76.13940199999799
 51
147.5000000000012
  0
ARC
  5
4AD2
330
2A
100
AcDbEntity
  8
2
100
AcDbCircle
 10
116.8335919999999
 20
495.7559439999998
 30
0.0
 40
0.5
100
AcDbArc
 50
86.13940200000342
 51
157.5000000000005
  0
ARC
  5
4AD3
330
2A
100
AcDbEntity
  8
2
100
AcDbCircle
 10
108.82142
 20
495.7559439999998
 30
0.0
 40
0.5
100
AcDbArc
 50
22.49999999999952
 51
93.86059799999657
  0
ARC
  5
4AD4
330
2A
100
AcDbEntity
  8
2
100
AcDbCircle
 10
112.8275060000001
 20
488.697523
 30
0.0
 40
0.5
100
AcDbArc
 50
202.4999999999995
 51
337.5000000000004
  0
LINE
  5
4AD5
330
2A
100
AcDbEntity
  8
2
100
AcDbLine
 10
113.289446
 20
488.5061809999998
 30
0.0
 11
116.371652
 21
495.947285
 31
0.0
  0
LINE
  5
4AD6
330
2A
100
AcDbEntity
  8
2
100
AcDbLine
 10
112.3655659999999
 20
488.5061809999998
 30
0.0
 11
109.2833599999999
 21
495.947285
 31
0.0
  0
ARC
  5
4AD7
330
2A
100
AcDbEntity
  8
2
100
AcDbCircle
 10
119.01385
 20
441.9200519999999
 30
0.0
 40
0.104619
100
AcDbArc
 50
296.5650510000023
 51
90.0
  0
LINE
  5
4AD8
330
2A
100
AcDbEntity
  8
2
100
AcDbLine
 10
115.0630149999999
 20
440.2508599999999
 30
0.0
 11
115.0630149999999
 21
441.763123
 31
0.0
  0
ARC
  5
4AD9
330
2A
100
AcDbEntity
  8
2
100
AcDbCircle
 10
114.6721499999999
 20
439.7230469999999
 30
0.0
 40
0.104619
100
AcDbArc
 50
296.5650510000023
 51
90.0
  0
ARC
  5
4ADA
330
2A
100
AcDbEntity
  8
2
100
AcDbCircle
 10
115.3245629999999
 20
440.2508599999999
 30
0.0
 40
0.261548
100
AcDbArc
 50
180.0
 51
296.5650510000023
  0
ARC
  5
4ADB
330
2A
100
AcDbEntity
  8
2
100
AcDbCircle
 10
114.6721499999999
 20
441.9200519999999
 30
0.0
 40
0.104619
100
AcDbArc
 50
296.5650510000023
 51
90.0
  0
ARC
  5
4ADC
330
2A
100
AcDbEntity
  8
2
100
AcDbCircle
 10
115.3245629999999
 20
441.763123
 30
0.0
 40
0.261548
100
AcDbArc
 50
90.0
 51
180.0
  0
LINE
  5
4ADD
330
2A
100
AcDbEntity
  8
2
100
AcDbLine
 10
110.7213139999999
 20
440.2508599999999
 30
0.0
 11
110.7213139999999
 21
441.763123
 31
0.0
  0
ARC
  5
4ADE
330
2A
100
AcDbEntity
  8
2
100
AcDbCircle
 10
110.3304499999999
 20
439.7230469999999
 30
0.0
 40
0.104619
100
AcDbArc
 50
296.5650510000023
 51
90.0
  0
ARC
  5
4ADF
330
2A
100
AcDbEntity
  8
2
100
AcDbCircle
 10
110.9828629999999
 20
439.5661179999998
 30
0.0
 40
0.261548
100
AcDbArc
 50
90.0
 51
180.0
  0
ARC
  5
4AE0
330
2A
100
AcDbEntity
  8
2
100
AcDbCircle
 10
110.9828629999999
 20
440.2508599999999
 30
0.0
 40
0.261548
100
AcDbArc
 50
180.0
 51
296.5650510000023
  0
ARC
  5
4AE1
330
2A
100
AcDbEntity
  8
2
100
AcDbCircle
 10
110.3304499999999
 20
441.9200519999999
 30
0.0
 40
0.104619
100
AcDbArc
 50
296.5650510000023
 51
90.0
  0
ARC
  5
4AE2
330
2A
100
AcDbEntity
  8
2
100
AcDbCircle
 10
110.9828629999999
 20
441.763123
 30
0.0
 40
0.261548
100
AcDbArc
 50
90.0
 51
180.0
  0
LINE
  5
4AE3
330
2A
100
AcDbEntity
  8
2
100
AcDbLine
 10
114.7189370000001
 20
441.8264769999999
 30
0.0
 11
111.0998299999998
 21
440.016924
 31
0.0
  0
LINE
  5
4AE4
330
2A
100
AcDbEntity
  8
2
100
AcDbLine
 10
110.9828629999999
 20
439.827666
 30
0.0
 11
114.6721499999999
 21
439.827666
 31
0.0
  0
LINE
  5
4AE5
330
2A
100
AcDbEntity
  8
2
100
AcDbLine
 10
110.9828629999999
 20
442.0246709999998
 30
0.0
 11
114.6721499999999
 21
442.0246709999998
 31
0.0
  0
ARC
  5
4AE6
330
2A
100
AcDbEntity
  8
2
100
AcDbCircle
 10
106.7119950000001
 20
439.9061299999999
 30
0.0
 40
0.078464
100
AcDbArc
 50
116.5650510000023
 51
270.0
  0
ARC
  5
4AE7
330
2A
100
AcDbEntity
  8
2
100
AcDbCircle
 10
106.6411619999999
 20
441.763123
 30
0.0
 40
0.261548
100
AcDbArc
 50
90.0
 51
180.0
  0
LINE
  5
4AE8
330
2A
100
AcDbEntity
  8
2
100
AcDbLine
 10
110.3772369999999
 20
441.8264769999999
 30
0.0
 11
106.6769039999999
 21
439.976311
 31
0.0
  0
LINE
  5
4AE9
330
2A
100
AcDbEntity
  8
2
100
AcDbLine
 10
106.7119950000001
 20
439.827666
 30
0.0
 11
110.3304499999999
 21
439.827666
 31
0.0
  0
LINE
  5
4AEA
330
2A
100
AcDbEntity
  8
2
100
AcDbLine
 10
106.6411619999999
 20
442.0246709999998
 30
0.0
 11
110.3304499999999
 21
442.0246709999998
 31
0.0
  0
ARC
  5
4AEB
330
2A
100
AcDbEntity
  8
2
100
AcDbCircle
 10
114.6116529999999
 20
437.473732
 30
0.0
 40
0.156929
100
AcDbArc
 50
0.0
 51
90.0
  0
ARC
  5
4AEC
330
2A
100
AcDbEntity
  8
2
100
AcDbCircle
 10
114.6116529999999
 20
429.4442019999998
 30
0.0
 40
0.156929
100
AcDbArc
 50
270.0
 51
0.0
  0
LINE
  5
4AED
330
2A
100
AcDbEntity
  8
2
100
AcDbLine
 10
114.7685819999999
 20
429.4442019999998
 30
0.0
 11
114.7685819999999
 21
437.473732
 31
0.0
  0
ARC
  5
4AEE
330
2A
100
AcDbEntity
  8
2
100
AcDbCircle
 10
110.3304499999999
 20
437.526042
 30
0.0
 40
0.104619
100
AcDbArc
 50
296.5650510000023
 51
90.0
  0
ARC
  5
4AEF
330
2A
100
AcDbEntity
  8
2
100
AcDbCircle
 10
110.8782430000001
 20
437.473732
 30
0.0
 40
0.156929
100
AcDbArc
 50
90.0
 51
180.0
  0
ARC
  5
4AF0
330
2A
100
AcDbEntity
  8
2
100
AcDbCircle
 10
110.9828629999999
 20
438.0538549999998
 30
0.0
 40
0.261548
100
AcDbArc
 50
180.0
 51
296.5650510000023
  0
ARC
  5
4AF1
330
2A
100
AcDbEntity
  8
2
100
AcDbCircle
 10
110.8782430000001
 20
429.4442019999998
 30
0.0
 40
0.156929
100
AcDbArc
 50
180.0
 51
270.0
  0
LINE
  5
4AF2
330
2A
100
AcDbEntity
  8
2
100
AcDbLine
 10
110.7213139999999
 20
437.473732
 30
0.0
 11
110.7213139999999
 21
429.4442019999998
 31
0.0
  0
LINE
  5
4AF3
330
2A
100
AcDbEntity
  8
2
100
AcDbLine
 10
110.8782430000001
 20
437.630661
 30
0.0
 11
114.6116529999999
 21
437.630661
 31
0.0
  0
LINE
  5
4AF4
330
2A
100
AcDbEntity
  8
2
100
AcDbLine
 10
110.8782430000001
 20
429.287273
 30
0.0
 11
114.6116529999999
 21
429.287273
 31
0.0
  0
ARC
  5
4AF5
330
2A
100
AcDbEntity
  8
2
100
AcDbCircle
 10
106.7119950000001
 20
437.7091249999998
 30
0.0
 40
0.078464
100
AcDbArc
 50
116.5650510000023
 51
270.0
  0
ARC
  5
4AF6
330
2A
100
AcDbEntity
  8
2
100
AcDbCircle
 10
106.6411619999999
 20
435.85685
 30
0.0
 40
0.261548
100
AcDbArc
 50
180.0
 51
296.5650510000023
  0
LINE
  5
4AF7
330
2A
100
AcDbEntity
  8
2
100
AcDbLine
 10
106.7119950000001
 20
437.630661
 30
0.0
 11
110.3304499999999
 21
437.630661
 31
0.0
  0
LINE
  5
4AF8
330
2A
100
AcDbEntity
  8
2
100
AcDbLine
 10
110.3772369999999
 20
437.432467
 30
0.0
 11
106.7581299999999
 21
435.6229139999999
 31
0.0
  0
LINE
  5
4AF9
330
2A
100
AcDbEntity
  8
2
100
AcDbLine
 10
106.3796139999999
 20
435.85685
 30
0.0
 11
106.3796139999999
 21
441.763123
 31
0.0
  0
LINE
  5
4AFA
330
2A
100
AcDbEntity
  8
2
100
AcDbLine
 10
110.3772369999999
 20
439.6294719999998
 30
0.0
 11
106.6769039999999
 21
437.779306
 31
0.0
  0
LINE
  5
4AFB
330
2A
100
AcDbEntity
  8
2
100
AcDbLine
 10
110.7213139999999
 20
438.0538549999998
 30
0.0
 11
110.7213139999999
 21
439.5661179999998
 31
0.0
  0
LINE
  5
4AFC
330
2A
100
AcDbEntity
  8
2
100
AcDbLine
 10
114.7189370000001
 20
439.6294719999998
 30
0.0
 11
111.0998299999998
 21
437.819919
 31
0.0
  0
CIRCLE
  5
4AFD
330
2A
100
AcDbEntity
  8
2
100
AcDbCircle
 10
112.8275060000001
 20
436.3909599999999
 30
0.0
 40
14.0
  0
LINE
  5
4AFE
330
2A
100
AcDbEntity
  8
2
100
AcDbLine
 10
119.060637
 20
441.8264769999999
 30
0.0
 11
115.4415309999999
 21
440.016924
 31
0.0
  0
LINE
  5
4AFF
330
2A
100
AcDbEntity
  8
2
100
AcDbLine
 10
115.3245629999999
 20
442.0246709999998
 30
0.0
 11
119.01385
 21
442.0246709999998
 31
0.0
  0
LINE
  5
4B00
330
2A
100
AcDbEntity
  8
2
  6
CENTER
 62
     2
370
    13
100
AcDbLine
 10
202.8275060000001
 20
453.982987
 30
0.0
 11
202.8275060000001
 21
418.6597739999998
 31
0.0
  0
ARC
  5
4B01
330
2A
100
AcDbEntity
  8
2
100
AcDbCircle
 10
117.8275060000001
 20
420.3909599999999
 30
0.0
 40
1.0
100
AcDbArc
 50
270.0
 51
0.0
  0
ARC
  5
4B02
330
2A
100
AcDbEntity
  8
2
100
AcDbCircle
 10
120.719388
 20
419.5928239999998
 30
0.0
 40
2.0
100
AcDbArc
 50
91.5079580000016
 51
164.5709150000005
  0
ARC
  5
4B03
330
2A
100
AcDbEntity
  8
2
100
AcDbCircle
 10
207.3275060000001
 20
449.8909599999999
 30
0.0
 40
0.5
100
AcDbArc
 50
0.0
 51
90.0
  0
ARC
  5
4B04
330
2A
100
AcDbEntity
  8
2
100
AcDbCircle
 10
198.3275060000001
 20
449.8909599999999
 30
0.0
 40
0.5
100
AcDbArc
 50
90.0
 51
192.6930640000011
  0
LINE
  5
4B05
330
2A
100
AcDbEntity
  8
2
100
AcDbLine
 10
198.3275060000001
 20
450.3909599999999
 30
0.0
 11
207.3275060000001
 21
450.3909599999999
 31
0.0
  0
LINE
  5
4B06
330
2A
100
AcDbEntity
  8
2
100
AcDbLine
 10
207.8275060000001
 20
449.8909599999999
 30
0.0
 11
207.8275060000001
 21
449.3823009999998
 31
0.0
  0
ARC
  5
4B07
330
2A
100
AcDbEntity
  8
2
100
AcDbCircle
 10
197.3519449999999
 20
449.671232
 30
0.0
 40
0.5
100
AcDbArc
 50
268.4920419999984
 51
12.69306400000114
  0
ARC
  5
4B08
330
2A
100
AcDbEntity
  8
2
100
AcDbCircle
 10
208.3275060000001
 20
449.3823009999998
 30
0.0
 40
0.5
100
AcDbArc
 50
180.0
 51
268.4920419999984
  0
LINE
  5
4B09
330
2A
100
AcDbEntity
  8
2
100
AcDbLine
 10
120.666756
 20
421.5921309999997
 30
0.0
 11
303.0906640000001
 21
426.3944229999998
 31
0.0
  0
ARC
  5
4B0A
330
2A
100
AcDbEntity
  8
2
100
AcDbCircle
 10
208.3275060000001
 20
423.399619
 30
0.0
 40
0.5
100
AcDbArc
 50
91.5079580000016
 51
180.0
  0
ARC
  5
4B0B
330
2A
100
AcDbEntity
  8
2
100
AcDbCircle
 10
197.3519449999999
 20
423.1106879999998
 30
0.0
 40
0.5
100
AcDbArc
 50
347.306935999999
 51
91.5079580000016
  0
LINE
  5
4B0C
330
2A
100
AcDbEntity
  8
2
100
AcDbLine
 10
207.8275060000001
 20
422.8909599999998
 30
0.0
 11
207.8275060000001
 21
423.399619
 31
0.0
  0
LINE
  5
4B0D
330
2A
100
AcDbEntity
  8
2
100
AcDbLine
 10
198.3275060000001
 20
422.3909599999998
 30
0.0
 11
207.3275060000001
 21
422.3909599999998
 31
0.0
  0
ARC
  5
4B0E
330
2A
100
AcDbEntity
  8
2
100
AcDbCircle
 10
198.3275060000001
 20
422.8909599999998
 30
0.0
 40
0.5
100
AcDbArc
 50
167.3069359999988
 51
270.0
  0
ARC
  5
4B0F
330
2A
100
AcDbEntity
  8
2
100
AcDbCircle
 10
207.3275060000001
 20
422.8909599999998
 30
0.0
 40
0.5
100
AcDbArc
 50
270.0
 51
0.0
  0
LINE
  5
4B10
330
2A
100
AcDbEntity
  8
2
100
AcDbLine
 10
113.2222429999999
 20
451.385765
 30
0.0
 11
303.0906640000001
 21
446.3874969999998
 31
0.0
  0
ARC
  5
4B11
330
2A
100
AcDbEntity
  8
2
100
AcDbCircle
 10
104.8275060000001
 20
421.3909599999999
 30
0.0
 40
2.0
100
AcDbArc
 50
0.0
 51
61.92751300000082
  0
ARC
  5
4B12
330
2A
100
AcDbEntity
  8
2
100
AcDbCircle
 10
120.8275060000001
 20
421.3909599999999
 30
0.0
 40
2.0
100
AcDbArc
 50
118.0724869999992
 51
180.0
  0
ARC
  5
4B13
330
2A
100
AcDbEntity
  8
2
100
AcDbCircle
 10
104.8275060000001
 20
421.281479
 30
0.0
 40
2.0
100
AcDbArc
 50
0.0
 51
68.19625199999956
  0
ARC
  5
4B14
330
2A
100
AcDbEntity
  8
2
100
AcDbCircle
 10
107.8275060000001
 20
420.3909599999999
 30
0.0
 40
1.0
100
AcDbArc
 50
180.0
 51
270.0
  0
LINE
  5
4B15
330
2A
100
AcDbEntity
  8
2
100
AcDbLine
 10
118.8275060000001
 20
420.3909599999999
 30
0.0
 11
118.8275060000001
 21
423.741849
 31
0.0
  0
LINE
  5
4B16
330
2A
100
AcDbEntity
  8
2
100
AcDbLine
 10
106.8275060000001
 20
420.3909599999999
 30
0.0
 11
106.8275060000001
 21
423.741849
 31
0.0
  0
ARC
  5
4B17
330
2A
100
AcDbEntity
  8
2
100
AcDbCircle
 10
112.8275060000001
 20
436.3909599999999
 30
0.0
 40
15.0
100
AcDbArc
 50
298.0724869999992
 51
241.9275130000005
  0
LINE
  5
4B18
330
2A
100
AcDbEntity
  8
2
100
AcDbLine
 10
107.8275060000001
 20
419.39096
 30
0.0
 11
117.8275060000001
 21
419.39096
 31
0.0
  0
LINE
  5
4B19
330
2A
100
AcDbEntity
  8
2
100
AcDbLine
 10
77.08464900000001
 20
434.534037
 30
0.0
 11
105.570363
 21
423.138403
 31
0.0
  0
LINE
  5
4B1A
330
2A
100
AcDbEntity
  8
2
100
AcDbLine
 10
77.08464900000001
 20
438.247883
 30
0.0
 11
107.2560779999999
 21
450.317883
 31
0.0
  0
ARC
  5
4B1B
330
2A
100
AcDbEntity
  8
2
100
AcDbCircle
 10
77.82750600000007
 20
436.3909599999999
 30
0.0
 40
2.0
100
AcDbArc
 50
111.8037480000004
 51
248.1962519999996
  0
LINE
  5
4B1C
330
2A
100
AcDbEntity
  8
2
  6
CENTER
 62
     2
370
    13
100
AcDbLine
 10
321.146712
 20
436.3909599999999
 30
0.0
 11
48.80446099999995
 21
436.3909599999999
 31
0.0
  0
LINE
  5
4B1D
330
2A
100
AcDbEntity
  8
2
  6
CENTER
 62
     2
370
    13
100
AcDbLine
 10
112.8275060000001
 20
382.552411
 30
0.0
 11
112.8275060000001
 21
500.380025
 31
0.0
  0
LINE
  5
4B1E
330
2A
100
AcDbEntity
  8
2
100
AcDbLine
 10
145.9726579999999
 20
476.6104649999999
 30
0.0
 11
148.3946009999999
 21
484.291885
 31
0.0
  0
ARC
  5
4B1F
330
2A
100
AcDbEntity
  8
2
100
AcDbCircle
 10
82.45377000000008
 20
262.2165999999999
 30
0.0
 40
3.053774
100
AcDbArc
 50
52.1211210000013
 51
127.8788789999987
  0
LINE
  5
4B20
330
2A
100
AcDbEntity
  8
2
100
AcDbLine
 10
84.32877000000008
 20
259.848664
 30
0.0
 11
84.32877000000008
 21
264.626976
 31
0.0
  0
LINE
  5
4B21
330
2A
100
AcDbEntity
  8
2
100
AcDbLine
 10
81.82877000000008
 20
265.348664
 30
0.0
 11
94.32877000000008
 21
265.348664
 31
0.0
  0
LINE
  5
4B22
330
2A
100
AcDbEntity
  8
2
100
AcDbLine
 10
80.57877000000008
 20
264.626976
 30
0.0
 11
81.82877000000008
 21
265.348664
 31
0.0
  0
LINE
  5
4B23
330
2A
100
AcDbEntity
  8
2
100
AcDbLine
 10
80.57877000000008
 20
259.848664
 30
0.0
 11
80.57877000000008
 21
264.626976
 31
0.0
  0
ARC
  5
4B24
330
2A
100
AcDbEntity
  8
2
100
AcDbCircle
 10
88.07877000000008
 20
254.020374
 30
0.0
 40
11.25
100
AcDbArc
 50
70.52877700000195
 51
109.4712189999985
  0
ARC
  5
4B25
330
2A
100
AcDbEntity
  8
2
100
AcDbCircle
 10
93.70377000000008
 20
262.2165999999999
 30
0.0
 40
3.053774
100
AcDbArc
 50
52.1211210000013
 51
127.8788789999987
  0
LINE
  5
4B26
330
2A
100
AcDbEntity
  8
2
100
AcDbLine
 10
91.82877000000008
 20
259.848664
 30
0.0
 11
91.82877000000008
 21
264.626976
 31
0.0
  0
LINE
  5
4B27
330
2A
100
AcDbEntity
  8
2
100
AcDbLine
 10
95.57877000000008
 20
264.626976
 30
0.0
 11
94.32877000000008
 21
265.348664
 31
0.0
  0
LINE
  5
4B28
330
2A
100
AcDbEntity
  8
2
100
AcDbLine
 10
95.57877000000008
 20
259.848664
 30
0.0
 11
95.57877000000008
 21
264.626976
 31
0.0
  0
ARC
  5
4B29
330
2A
100
AcDbEntity
  8
2
100
AcDbCircle
 10
143.2012440000001
 20
262.2165999999999
 30
0.0
 40
3.053774
100
AcDbArc
 50
52.1211210000013
 51
127.8788789999987
  0
LINE
  5
4B2A
330
2A
100
AcDbEntity
  8
2
100
AcDbLine
 10
141.3262440000001
 20
259.848664
 30
0.0
 11
141.3262440000001
 21
264.626976
 31
0.0
  0
LINE
  5
4B2B
330
2A
100
AcDbEntity
  8
2
100
AcDbLine
 10
143.826244
 20
265.348664
 30
0.0
 11
131.3262440000001
 21
265.348664
 31
0.0
  0
LINE
  5
4B2C
330
2A
100
AcDbEntity
  8
2
100
AcDbLine
 10
145.0762440000001
 20
264.626976
 30
0.0
 11
143.826244
 21
265.348664
 31
0.0
  0
LINE
  5
4B2D
330
2A
100
AcDbEntity
  8
2
100
AcDbLine
 10
145.0762440000001
 20
259.848664
 30
0.0
 11
145.0762440000001
 21
264.626976
 31
0.0
  0
ARC
  5
4B2E
330
2A
100
AcDbEntity
  8
2
100
AcDbCircle
 10
137.5762440000001
 20
254.020374
 30
0.0
 40
11.25
100
AcDbArc
 50
70.52878100000142
 51
109.471222999998
  0
ARC
  5
4B2F
330
2A
100
AcDbEntity
  8
2
100
AcDbCircle
 10
131.9512440000001
 20
262.2165999999999
 30
0.0
 40
3.053774
100
AcDbArc
 50
52.1211210000013
 51
127.8788789999987
  0
LINE
  5
4B30
330
2A
100
AcDbEntity
  8
2
100
AcDbLine
 10
133.8262440000001
 20
259.848664
 30
0.0
 11
133.8262440000001
 21
264.626976
 31
0.0
  0
LINE
  5
4B31
330
2A
100
AcDbEntity
  8
2
100
AcDbLine
 10
130.0762440000001
 20
264.626976
 30
0.0
 11
131.3262440000001
 21
265.348664
 31
0.0
  0
LINE
  5
4B32
330
2A
100
AcDbEntity
  8
2
100
AcDbLine
 10
130.0762440000001
 20
259.848664
 30
0.0
 11
130.0762440000001
 21
264.626976
 31
0.0
  0
LINE
  5
4B33
330
2A
100
AcDbEntity
  8
2
100
AcDbLine
 10
415.8158599999998
 20
218.848664
 30
0.0
 11
415.8158599999998
 21
220.848664
 31
0.0
  0
LINE
  5
4B34
330
2A
100
AcDbEntity
  8
2
100
AcDbLine
 10
431.21586
 20
218.848664
 30
0.0
 11
415.8158599999998
 21
218.848664
 31
0.0
  0
LINE
  5
4B35
330
2A
100
AcDbEntity
  8
2
100
AcDbLine
 10
431.21586
 20
220.848664
 30
0.0
 11
431.21586
 21
218.848664
 31
0.0
  0
ARC
  5
4B36
330
2A
100
AcDbEntity
  8
2
100
AcDbCircle
 10
420.2658599999998
 20
220.027422
 30
0.0
 40
7.678758
100
AcDbArc
 50
244.9603400000021
 51
295.0396599999979
  0
LINE
  5
4B37
330
2A
100
AcDbEntity
  8
2
100
AcDbLine
 10
423.51586
 20
218.848664
 30
0.0
 11
423.51586
 21
213.07035
 31
0.0
  0
LINE
  5
4B38
330
2A
100
AcDbEntity
  8
2
100
AcDbLine
 10
417.0158599999998
 20
212.348664
 30
0.0
 11
430.0158599999998
 21
212.348664
 31
0.0
  0
LINE
  5
4B39
330
2A
100
AcDbEntity
  8
2
100
AcDbLine
 10
417.0158599999998
 20
218.848664
 30
0.0
 11
417.0158599999998
 21
212.348664
 31
0.0
  0
ARC
  5
4B3A
330
2A
100
AcDbEntity
  8
2
100
AcDbCircle
 10
426.7658599999998
 20
220.027422
 30
0.0
 40
7.678758
100
AcDbArc
 50
244.9603400000021
 51
295.0396599999979
  0
LINE
  5
4B3B
330
2A
100
AcDbEntity
  8
2
100
AcDbLine
 10
430.0158599999998
 20
218.848664
 30
0.0
 11
430.0158599999998
 21
212.348664
 31
0.0
  0
LINE
  5
4B3C
330
2A
100
AcDbEntity
  8
2
 62
     4
370
    13
100
AcDbLine
 10
426.8393599999998
 20
204.848664
 30
0.0
 11
426.8393599999998
 21
212.348664
 31
0.0
  0
LINE
  5
4B3D
330
2A
100
AcDbEntity
  8
2
100
AcDbLine
 10
427.51586
 20
205.525164
 30
0.0
 11
419.51586
 21
205.525164
 31
0.0
  0
LINE
  5
4B3E
330
2A
100
AcDbEntity
  8
2
100
AcDbLine
 10
427.51586
 20
205.525164
 30
0.0
 11
427.51586
 21
212.348664
 31
0.0
  0
LINE
  5
4B3F
330
2A
100
AcDbEntity
  8
2
100
AcDbLine
 10
426.8393599999998
 20
204.848664
 30
0.0
 11
427.51586
 21
205.525164
 31
0.0
  0
LINE
  5
4B40
330
2A
100
AcDbEntity
  8
2
 62
     4
370
    13
100
AcDbLine
 10
420.1923599999998
 20
204.848664
 30
0.0
 11
420.1923599999998
 21
212.348664
 31
0.0
  0
LINE
  5
4B41
330
2A
100
AcDbEntity
  8
2
100
AcDbLine
 10
419.51586
 20
205.525164
 30
0.0
 11
419.51586
 21
212.348664
 31
0.0
  0
LINE
  5
4B42
330
2A
100
AcDbEntity
  8
2
100
AcDbLine
 10
420.1923599999998
 20
204.848664
 30
0.0
 11
419.51586
 21
205.525164
 31
0.0
  0
LINE
  5
4B43
330
2A
100
AcDbEntity
  8
2
100
AcDbLine
 10
420.1923599999998
 20
204.848664
 30
0.0
 11
426.8393599999998
 21
204.848664
 31
0.0
  0
LINE
  5
4B44
330
2A
100
AcDbEntity
  8
2
100
AcDbLine
 10
480.713334
 20
218.848664
 30
0.0
 11
468.7812819999998
 21
218.848664
 31
0.0
  0
LINE
  5
4B45
330
2A
100
AcDbEntity
  8
2
100
AcDbLine
 10
480.713334
 20
220.848664
 30
0.0
 11
480.713334
 21
218.848664
 31
0.0
  0
ARC
  5
4B46
330
2A
100
AcDbEntity
  8
2
100
AcDbCircle
 10
469.763334
 20
220.027422
 30
0.0
 40
7.678758
100
AcDbArc
 50
244.9603400000021
 51
295.0396599999979
  0
LINE
  5
4B47
330
2A
100
AcDbEntity
  8
2
100
AcDbLine
 10
473.013334
 20
218.848664
 30
0.0
 11
473.013334
 21
213.07035
 31
0.0
  0
LINE
  5
4B48
330
2A
100
AcDbEntity
  8
2
100
AcDbLine
 10
466.5133339999998
 20
212.348664
 30
0.0
 11
479.5133339999998
 21
212.348664
 31
0.0
  0
LINE
  5
4B49
330
2A
100
AcDbEntity
  8
2
100
AcDbLine
 10
466.5133339999998
 20
217.246596
 30
0.0
 11
466.5133339999998
 21
212.348664
 31
0.0
  0
ARC
  5
4B4A
330
2A
100
AcDbEntity
  8
2
100
AcDbCircle
 10
476.2633339999998
 20
220.027422
 30
0.0
 40
7.678758
100
AcDbArc
 50
244.9603400000021
 51
295.0396599999979
  0
LINE
  5
4B4B
330
2A
100
AcDbEntity
  8
2
100
AcDbLine
 10
479.5133339999998
 20
218.848664
 30
0.0
 11
479.5133339999998
 21
212.348664
 31
0.0
  0
LINE
  5
4B4C
330
2A
100
AcDbEntity
  8
2
 62
     4
370
    13
100
AcDbLine
 10
476.3368339999998
 20
204.848664
 30
0.0
 11
476.3368339999998
 21
212.348664
 31
0.0
  0
LINE
  5
4B4D
330
2A
100
AcDbEntity
  8
2
100
AcDbLine
 10
477.013334
 20
205.525164
 30
0.0
 11
469.013334
 21
205.525164
 31
0.0
  0
LINE
  5
4B4E
330
2A
100
AcDbEntity
  8
2
100
AcDbLine
 10
477.013334
 20
205.525164
 30
0.0
 11
477.013334
 21
212.348664
 31
0.0
  0
LINE
  5
4B4F
330
2A
100
AcDbEntity
  8
2
100
AcDbLine
 10
476.3368339999998
 20
204.848664
 30
0.0
 11
477.013334
 21
205.525164
 31
0.0
  0
LINE
  5
4B50
330
2A
100
AcDbEntity
  8
2
 62
     4
370
    13
100
AcDbLine
 10
469.6898339999999
 20
204.848664
 30
0.0
 11
469.6898339999999
 21
212.348664
 31
0.0
  0
LINE
  5
4B51
330
2A
100
AcDbEntity
  8
2
100
AcDbLine
 10
469.013334
 20
205.525164
 30
0.0
 11
469.013334
 21
212.348664
 31
0.0
  0
LINE
  5
4B52
330
2A
100
AcDbEntity
  8
2
100
AcDbLine
 10
469.6898339999999
 20
204.848664
 30
0.0
 11
469.013334
 21
205.525164
 31
0.0
  0
LINE
  5
4B53
330
2A
100
AcDbEntity
  8
2
100
AcDbLine
 10
469.6898339999999
 20
204.848664
 30
0.0
 11
476.3368339999998
 21
204.848664
 31
0.0
  0
LINE
  5
4B54
330
2A
100
AcDbEntity
  8
2
  6
CENTER
 62
     2
370
    13
100
AcDbLine
 10
423.51586
 20
268.453302
 30
0.0
 11
423.51586
 21
203.233264
 31
0.0
  0
LINE
  5
4B55
330
2A
100
AcDbEntity
  8
2
  6
CENTER
 62
     2
370
    13
100
AcDbLine
 10
473.013334
 20
268.256348
 30
0.0
 11
473.013334
 21
203.233264
 31
0.0
  0
LINE
  5
4B56
330
2A
100
AcDbEntity
  8
2
 62
     4
370
    13
100
AcDbLine
 10
91.40227000000004
 20
204.848664
 30
0.0
 11
91.40227000000004
 21
212.348664
 31
0.0
  0
LINE
  5
4B57
330
2A
100
AcDbEntity
  8
2
100
AcDbLine
 10
92.07877000000008
 20
205.525164
 30
0.0
 11
84.07877000000008
 21
205.525164
 31
0.0
  0
LINE
  5
4B58
330
2A
100
AcDbEntity
  8
2
100
AcDbLine
 10
92.07877000000008
 20
205.525164
 30
0.0
 11
92.07877000000008
 21
212.348664
 31
0.0
  0
LINE
  5
4B59
330
2A
100
AcDbEntity
  8
2
100
AcDbLine
 10
91.40227000000004
 20
204.848664
 30
0.0
 11
92.07877000000008
 21
205.525164
 31
0.0
  0
LINE
  5
4B5A
330
2A
100
AcDbEntity
  8
2
 62
     4
370
    13
100
AcDbLine
 10
84.75526999999997
 20
204.848664
 30
0.0
 11
84.75526999999997
 21
212.348664
 31
0.0
  0
LINE
  5
4B5B
330
2A
100
AcDbEntity
  8
2
100
AcDbLine
 10
84.07877000000008
 20
205.525164
 30
0.0
 11
84.07877000000008
 21
212.348664
 31
0.0
  0
LINE
  5
4B5C
330
2A
100
AcDbEntity
  8
2
100
AcDbLine
 10
84.75526999999997
 20
204.848664
 30
0.0
 11
84.07877000000008
 21
205.525164
 31
0.0
  0
LINE
  5
4B5D
330
2A
100
AcDbEntity
  8
2
100
AcDbLine
 10
84.75526999999997
 20
204.848664
 30
0.0
 11
91.40227000000004
 21
204.848664
 31
0.0
  0
LINE
  5
4B5E
330
2A
100
AcDbEntity
  8
2
 62
     4
370
    13
100
AcDbLine
 10
140.899744
 20
204.848664
 30
0.0
 11
140.899744
 21
212.348664
 31
0.0
  0
LINE
  5
4B5F
330
2A
100
AcDbEntity
  8
2
100
AcDbLine
 10
141.5762440000001
 20
205.525164
 30
0.0
 11
133.5762440000001
 21
205.525164
 31
0.0
  0
LINE
  5
4B60
330
2A
100
AcDbEntity
  8
2
100
AcDbLine
 10
141.5762440000001
 20
205.525164
 30
0.0
 11
141.5762440000001
 21
212.348664
 31
0.0
  0
LINE
  5
4B61
330
2A
100
AcDbEntity
  8
2
100
AcDbLine
 10
140.899744
 20
204.848664
 30
0.0
 11
141.5762440000001
 21
205.525164
 31
0.0
  0
LINE
  5
4B62
330
2A
100
AcDbEntity
  8
2
 62
     4
370
    13
100
AcDbLine
 10
134.2527439999999
 20
204.848664
 30
0.0
 11
134.2527439999999
 21
212.348664
 31
0.0
  0
LINE
  5
4B63
330
2A
100
AcDbEntity
  8
2
100
AcDbLine
 10
133.5762440000001
 20
205.525164
 30
0.0
 11
133.5762440000001
 21
212.348664
 31
0.0
  0
LINE
  5
4B64
330
2A
100
AcDbEntity
  8
2
100
AcDbLine
 10
134.2527439999999
 20
204.848664
 30
0.0
 11
133.5762440000001
 21
205.525164
 31
0.0
  0
LINE
  5
4B65
330
2A
100
AcDbEntity
  8
2
100
AcDbLine
 10
134.2527439999999
 20
204.848664
 30
0.0
 11
140.899744
 21
204.848664
 31
0.0
  0
LINE
  5
4B66
330
2A
100
AcDbEntity
  8
2
100
AcDbLine
 10
88.44527999999991
 20
219.382616
 30
0.0
 11
88.57877000000007
 21
218.848664
 31
0.0
  0
LINE
  5
4B67
330
2A
100
AcDbEntity
  8
2
100
AcDbLine
 10
88.07877000000008
 20
218.848664
 30
0.0
 11
87.88145800000005
 21
219.637912
 31
0.0
  0
LINE
  5
4B68
330
2A
100
AcDbEntity
  8
2
100
AcDbLine
 10
80.37877000000003
 20
218.848664
 30
0.0
 11
80.37877000000003
 21
220.848664
 31
0.0
  0
LINE
  5
4B69
330
2A
100
AcDbEntity
  8
2
100
AcDbLine
 10
89.46082200000002
 20
218.848664
 30
0.0
 11
80.37877000000003
 21
218.848664
 31
0.0
  0
ARC
  5
4B6A
330
2A
100
AcDbEntity
  8
2
100
AcDbCircle
 10
82.45377000000008
 20
215.480726
 30
0.0
 40
3.053774
100
AcDbArc
 50
232.1211210000013
 51
307.8788789999987
  0
LINE
  5
4B6B
330
2A
100
AcDbEntity
  8
2
100
AcDbLine
 10
84.32877000000008
 20
218.848664
 30
0.0
 11
84.32877000000008
 21
213.07035
 31
0.0
  0
LINE
  5
4B6C
330
2A
100
AcDbEntity
  8
2
100
AcDbLine
 10
80.57877000000008
 20
213.07035
 30
0.0
 11
81.82877000000008
 21
212.348664
 31
0.0
  0
LINE
  5
4B6D
330
2A
100
AcDbEntity
  8
2
100
AcDbLine
 10
80.57877000000008
 20
218.848664
 30
0.0
 11
80.57877000000008
 21
213.07035
 31
0.0
  0
ARC
  5
4B6E
330
2A
100
AcDbEntity
  8
2
100
AcDbCircle
 10
88.07877000000008
 20
223.676952
 30
0.0
 40
11.25
100
AcDbArc
 50
250.528777000002
 51
289.4712189999987
  0
ARC
  5
4B6F
330
2A
100
AcDbEntity
  8
2
100
AcDbCircle
 10
93.70377000000008
 20
215.480726
 30
0.0
 40
3.053774
100
AcDbArc
 50
232.1211210000013
 51
300.3319540000002
  0
LINE
  5
4B70
330
2A
100
AcDbEntity
  8
2
100
AcDbLine
 10
91.82877000000008
 20
217.160278
 30
0.0
 11
91.82877000000008
 21
213.07035
 31
0.0
  0
LINE
  5
4B71
330
2A
100
AcDbEntity
  8
2
100
AcDbLine
 10
94.32877000000008
 20
212.348664
 30
0.0
 11
81.82877000000008
 21
212.348664
 31
0.0
  0
LINE
  5
4B72
330
2A
100
AcDbEntity
  8
2
100
AcDbLine
 10
95.23249800000007
 20
212.87043
 30
0.0
 11
94.32877000000008
 21
212.348664
 31
0.0
  0
LINE
  5
4B73
330
2A
100
AcDbEntity
  8
2
100
AcDbLine
 10
137.5762440000001
 20
220.848664
 30
0.0
 11
138.0762440000001
 21
218.848664
 31
0.0
  0
LINE
  5
4B74
330
2A
100
AcDbEntity
  8
2
100
AcDbLine
 10
137.5762440000001
 20
218.848664
 30
0.0
 11
137.0762440000001
 21
220.848664
 31
0.0
  0
LINE
  5
4B75
330
2A
100
AcDbEntity
  8
2
100
AcDbLine
 10
129.876244
 20
218.848664
 30
0.0
 11
129.876244
 21
220.848664
 31
0.0
  0
LINE
  5
4B76
330
2A
100
AcDbEntity
  8
2
100
AcDbLine
 10
145.2762439999999
 20
218.848664
 30
0.0
 11
129.876244
 21
218.848664
 31
0.0
  0
LINE
  5
4B77
330
2A
100
AcDbEntity
  8
2
100
AcDbLine
 10
145.2762439999999
 20
220.848664
 30
0.0
 11
145.2762439999999
 21
218.848664
 31
0.0
  0
ARC
  5
4B78
330
2A
100
AcDbEntity
  8
2
100
AcDbCircle
 10
131.9512440000001
 20
215.480726
 30
0.0
 40
3.053774
100
AcDbArc
 50
232.1211210000013
 51
307.8788789999987
  0
LINE
  5
4B79
330
2A
100
AcDbEntity
  8
2
100
AcDbLine
 10
133.8262440000001
 20
218.848664
 30
0.0
 11
133.8262440000001
 21
213.07035
 31
0.0
  0
LINE
  5
4B7A
330
2A
100
AcDbEntity
  8
2
100
AcDbLine
 10
130.0762440000001
 20
213.07035
 30
0.0
 11
131.3262440000001
 21
212.348664
 31
0.0
  0
LINE
  5
4B7B
330
2A
100
AcDbEntity
  8
2
100
AcDbLine
 10
130.0762440000001
 20
218.848664
 30
0.0
 11
130.0762440000001
 21
213.07035
 31
0.0
  0
ARC
  5
4B7C
330
2A
100
AcDbEntity
  8
2
100
AcDbCircle
 10
137.5762440000001
 20
223.676952
 30
0.0
 40
11.25
100
AcDbArc
 50
250.528777000002
 51
289.4712189999987
  0
ARC
  5
4B7D
330
2A
100
AcDbEntity
  8
2
100
AcDbCircle
 10
143.2012440000001
 20
215.480726
 30
0.0
 40
3.053774
100
AcDbArc
 50
232.1211210000013
 51
307.8788789999987
  0
LINE
  5
4B7E
330
2A
100
AcDbEntity
  8
2
100
AcDbLine
 10
141.3262440000001
 20
218.848664
 30
0.0
 11
141.3262440000001
 21
213.07035
 31
0.0
  0
LINE
  5
4B7F
330
2A
100
AcDbEntity
  8
2
100
AcDbLine
 10
143.826244
 20
212.348664
 30
0.0
 11
131.3262440000001
 21
212.348664
 31
0.0
  0
LINE
  5
4B80
330
2A
100
AcDbEntity
  8
2
100
AcDbLine
 10
145.0762440000001
 20
213.07035
 30
0.0
 11
143.826244
 21
212.348664
 31
0.0
  0
LINE
  5
4B81
330
2A
100
AcDbEntity
  8
2
100
AcDbLine
 10
145.0762440000001
 20
218.848664
 30
0.0
 11
145.0762440000001
 21
213.07035
 31
0.0
  0
LINE
  5
4B82
330
2A
100
AcDbEntity
  8
2
  6
CENTER
 62
     2
370
    13
100
AcDbLine
 10
88.07877000000008
 20
269.059722
 30
0.0
 11
88.07877000000008
 21
203.233264
 31
0.0
  0
LINE
  5
4B83
330
2A
100
AcDbEntity
  8
2
  6
CENTER
 62
     2
370
    13
100
AcDbLine
 10
137.5762440000001
 20
268.826102
 30
0.0
 11
137.5762440000001
 21
203.233264
 31
0.0
  0
LINE
  5
4B84
330
2A
100
AcDbEntity
  8
1
100
AcDbLine
 10
107.8275060000001
 20
259.848664
 30
0.0
 11
107.8275060000001
 21
268.848664
 31
0.0
  0
LINE
  5
4B85
330
2A
100
AcDbEntity
  8
1
100
AcDbLine
 10
117.8275060000001
 20
259.848664
 30
0.0
 11
117.8275060000001
 21
268.848664
 31
0.0
  0
LINE
  5
4B86
330
2A
100
AcDbEntity
  8
1
100
AcDbLine
 10
109.8275060000001
 20
232.848664
 30
0.0
 11
109.8275060000001
 21
241.248664
 31
0.0
  0
LINE
  5
4B87
330
2A
100
AcDbEntity
  8
1
 62
     4
370
    13
100
AcDbLine
 10
110.368506
 20
240.848664
 30
0.0
 11
110.368506
 21
241.248664
 31
0.0
  0
LINE
  5
4B88
330
2A
100
AcDbEntity
  8
1
 62
     4
370
    13
100
AcDbLine
 10
115.2865059999999
 20
240.848664
 30
0.0
 11
115.2865059999999
 21
241.248664
 31
0.0
  0
LINE
  5
4B89
330
2A
100
AcDbEntity
  8
1
100
AcDbLine
 10
115.8275060000001
 20
232.848664
 30
0.0
 11
115.8275060000001
 21
241.248664
 31
0.0
  0
LINE
  5
4B8A
330
2A
100
AcDbEntity
  8
1
 62
     4
370
    13
100
AcDbLine
 10
109.8275060000001
 20
234.848664
 30
0.0
 11
110.368506
 21
232.848664
 31
0.0
  0
LINE
  5
4B8B
330
2A
100
AcDbEntity
  8
1
 62
     4
370
    13
100
AcDbLine
 10
110.368506
 20
240.848664
 30
0.0
 11
109.8275060000001
 21
238.848664
 31
0.0
  0
LINE
  5
4B8C
330
2A
100
AcDbEntity
  8
1
 62
     4
370
    13
100
AcDbLine
 10
115.8275060000001
 20
234.848664
 30
0.0
 11
115.2865059999999
 21
232.848664
 31
0.0
  0
LINE
  5
4B8D
330
2A
100
AcDbEntity
  8
1
 62
     4
370
    13
100
AcDbLine
 10
115.2865059999999
 20
240.848664
 30
0.0
 11
115.8275060000001
 21
238.848664
 31
0.0
  0
LINE
  5
4B8E
330
2A
100
AcDbEntity
  8
1
100
AcDbLine
 10
115.8275060000001
 20
240.848664
 30
0.0
 11
109.8275060000001
 21
240.848664
 31
0.0
  0
LINE
  5
4B8F
330
2A
100
AcDbEntity
  8
1
100
AcDbLine
 10
115.7025060000001
 20
246.248664
 30
0.0
 11
115.7025060000001
 21
249.848664
 31
0.0
  0
LINE
  5
4B90
330
2A
100
AcDbEntity
  8
1
100
AcDbLine
 10
118.577506
 20
246.248664
 30
0.0
 11
118.577506
 21
249.848664
 31
0.0
  0
LINE
  5
4B91
330
2A
100
AcDbEntity
  8
1
100
AcDbLine
 10
109.9525060000001
 20
246.248664
 30
0.0
 11
109.9525060000001
 21
249.848664
 31
0.0
  0
LINE
  5
4B92
330
2A
100
AcDbEntity
  8
1
100
AcDbLine
 10
107.077506
 20
246.248664
 30
0.0
 11
107.077506
 21
249.848664
 31
0.0
  0
LINE
  5
4B93
330
2A
100
AcDbEntity
  8
1
100
AcDbLine
 10
127.8275060000001
 20
241.248664
 30
0.0
 11
127.8275060000001
 21
246.248664
 31
0.0
  0
LINE
  5
4B94
330
2A
100
AcDbEntity
  8
1
100
AcDbLine
 10
97.82750600000007
 20
241.248664
 30
0.0
 11
97.82750600000007
 21
246.248664
 31
0.0
  0
LINE
  5
4B95
330
2A
100
AcDbEntity
  8
1
100
AcDbLine
 10
97.82750600000007
 20
241.248664
 30
0.0
 11
127.8275060000001
 21
241.248664
 31
0.0
  0
LINE
  5
4B96
330
2A
100
AcDbEntity
  8
1
100
AcDbLine
 10
97.82750600000007
 20
246.248664
 30
0.0
 11
127.8275060000001
 21
246.248664
 31
0.0
  0
LINE
  5
4B97
330
2A
100
AcDbEntity
  8
1
100
AcDbLine
 10
120.7675059999999
 20
232.848664
 30
0.0
 11
120.7675059999999
 21
241.248664
 31
0.0
  0
LINE
  5
4B98
330
2A
100
AcDbEntity
  8
1
100
AcDbLine
 10
104.887506
 20
232.848664
 30
0.0
 11
104.887506
 21
241.248664
 31
0.0
  0
LINE
  5
4B99
330
2A
100
AcDbEntity
  8
1
100
AcDbLine
 10
480.713334
 20
220.848664
 30
0.0
 11
415.8158599999998
 21
220.848664
 31
0.0
  0
LINE
  5
4B9A
330
2A
100
AcDbEntity
  8
1
100
AcDbLine
 10
413.2645979999998
 20
232.848664
 30
0.0
 11
483.2645979999998
 21
232.848664
 31
0.0
  0
LINE
  5
4B9B
330
2A
100
AcDbEntity
  8
1
100
AcDbLine
 10
464.0145979999998
 20
241.248664
 30
0.0
 11
432.514598
 21
241.248664
 31
0.0
  0
LINE
  5
4B9C
330
2A
100
AcDbEntity
  8
1
100
AcDbLine
 10
456.204598
 20
232.848664
 30
0.0
 11
456.204598
 21
241.248664
 31
0.0
  0
LINE
  5
4B9D
330
2A
100
AcDbEntity
  8
1
100
AcDbLine
 10
440.3245979999998
 20
232.848664
 30
0.0
 11
440.3245979999998
 21
241.248664
 31
0.0
  0
LINE
  5
4B9E
330
2A
100
AcDbEntity
  8
1
100
AcDbLine
 10
452.828324
 20
79.97863999999998
 30
0.0
 11
451.264598
 21
87.14720799999998
 31
0.0
  0
ARC
  5
4B9F
330
2A
100
AcDbEntity
  8
1
100
AcDbCircle
 10
443.264598
 20
90.695226
 30
0.0
 40
2.0
100
AcDbArc
 50
0.0
 51
58.64400499999721
  0
ARC
  5
4BA0
330
2A
100
AcDbEntity
  8
1
100
AcDbCircle
 10
452.183182
 20
94.82881199999996
 30
0.0
 40
2.0
100
AcDbArc
 50
180.0
 51
191.9961410000005
  0
LINE
  5
4BA1
330
2A
100
AcDbEntity
  8
1
100
AcDbLine
 10
451.264598
 20
89.52932399999998
 30
0.0
 11
450.2268579999998
 21
94.41312000000001
 31
0.0
  0
ARC
  5
4BA2
330
2A
100
AcDbEntity
  8
1
100
AcDbCircle
 10
447.264598
 20
64.97248200000001
 30
0.0
 40
2.0
100
AcDbArc
 50
90.0
 51
180.0
  0
ARC
  5
4BA3
330
2A
100
AcDbEntity
  8
1
100
AcDbCircle
 10
447.264598
 20
64.84866399999998
 30
0.0
 40
2.0
100
AcDbArc
 50
180.0
 51
270.0
  0
ARC
  5
4BA4
330
2A
100
AcDbEntity
  8
1
100
AcDbCircle
 10
449.2645979999998
 20
64.97248200000001
 30
0.0
 40
2.0
100
AcDbArc
 50
0.0
 51
90.0
  0
ARC
  5
4BA5
330
2A
100
AcDbEntity
  8
1
100
AcDbCircle
 10
449.2645979999998
 20
64.84866399999998
 30
0.0
 40
2.0
100
AcDbArc
 50
270.0
 51
0.0
  0
LINE
  5
4BA6
330
2A
100
AcDbEntity
  8
1
100
AcDbLine
 10
447.264598
 20
66.97248200000001
 30
0.0
 11
449.2645979999998
 21
66.97248200000001
 31
0.0
  0
LINE
  5
4BA7
330
2A
100
AcDbEntity
  8
1
100
AcDbLine
 10
447.264598
 20
62.84866399999998
 30
0.0
 11
449.2645979999998
 21
62.84866399999998
 31
0.0
  0
ARC
  5
4BA8
330
2A
100
AcDbEntity
  8
1
100
AcDbCircle
 10
443.264598
 20
61.84866399999997
 30
0.0
 40
2.0
100
AcDbArc
 50
270.0
 51
0.0
  0
ARC
  5
4BA9
330
2A
100
AcDbEntity
  8
1
100
AcDbCircle
 10
453.2645979999998
 20
61.84866399999997
 30
0.0
 40
2.0
100
AcDbArc
 50
180.0
 51
270.0
  0
ARC
  5
4BAA
330
2A
100
AcDbEntity
  8
1
100
AcDbCircle
 10
443.264598
 20
92.82881199999996
 30
0.0
 40
2.0
100
AcDbArc
 50
0.0
 51
87.66696699999668
  0
LINE
  5
4BAB
330
2A
100
AcDbEntity
  8
1
100
AcDbLine
 10
451.264598
 20
61.84866399999997
 30
0.0
 11
451.264598
 21
89.52932399999998
 31
0.0
  0
LINE
  5
4BAC
330
2A
100
AcDbEntity
  8
1
100
AcDbLine
 10
445.2645979999998
 20
61.84866399999997
 30
0.0
 11
445.2645979999998
 21
92.82881199999996
 31
0.0
  0
LINE
  5
4BAD
330
2A
100
AcDbEntity
  8
1
100
AcDbLine
 10
451.264598
 20
77.97863999999998
 30
0.0
 11
461.2645979999999
 21
77.97863999999998
 31
0.0
  0
LINE
  5
4BAE
330
2A
100
AcDbEntity
  8
1
100
AcDbLine
 10
437.2645979999998
 20
77.97863999999998
 30
0.0
 11
445.2645979999998
 21
77.97863999999998
 31
0.0
  0
LINE
  5
4BAF
330
2A
100
AcDbEntity
  8
1
100
AcDbLine
 10
445.2645979999998
 20
94.82881199999996
 30
0.0
 11
450.1831819999998
 21
94.82881199999996
 31
0.0
  0
LINE
  5
4BB0
330
2A
100
AcDbEntity
  8
1
100
AcDbLine
 10
452.828324
 20
149.718686
 30
0.0
 11
451.264598
 21
142.550118
 31
0.0
  0
ARC
  5
4BB1
330
2A
100
AcDbEntity
  8
1
100
AcDbCircle
 10
452.183182
 20
133.342
 30
0.0
 40
2.0
100
AcDbArc
 50
166.870838000001
 51
180.0
  0
LINE
  5
4BB2
330
2A
100
AcDbEntity
  8
1
100
AcDbLine
 10
450.2354599999998
 20
133.796294
 30
0.0
 11
451.264598
 21
138.20857
 31
0.0
  0
ARC
  5
4BB3
330
2A
100
AcDbEntity
  8
1
100
AcDbCircle
 10
447.264598
 20
143.436236
 30
0.0
 40
2.0
100
AcDbArc
 50
180.0
 51
270.0
  0
ARC
  5
4BB4
330
2A
100
AcDbEntity
  8
1
100
AcDbCircle
 10
449.2645979999998
 20
143.436236
 30
0.0
 40
2.0
100
AcDbArc
 50
270.0
 51
0.0
  0
LINE
  5
4BB5
330
2A
100
AcDbEntity
  8
1
100
AcDbLine
 10
447.264598
 20
141.436236
 30
0.0
 11
449.2645979999998
 21
141.436236
 31
0.0
  0
LINE
  5
4BB6
330
2A
100
AcDbEntity
  8
1
100
AcDbLine
 10
446.7645979999998
 20
149.676756
 30
0.0
 11
449.7645979999998
 21
149.676756
 31
0.0
  0
ARC
  5
4BB7
330
2A
100
AcDbEntity
  8
1
100
AcDbCircle
 10
447.264598
 20
168.09363
 30
0.0
 40
2.0
100
AcDbArc
 50
180.0
 51
270.0
  0
ARC
  5
4BB8
330
2A
100
AcDbEntity
  8
1
100
AcDbCircle
 10
447.264598
 20
168.4323879999999
 30
0.0
 40
2.0
100
AcDbArc
 50
90.0
 51
180.0
  0
ARC
  5
4BB9
330
2A
100
AcDbEntity
  8
1
100
AcDbCircle
 10
449.2645979999998
 20
168.09363
 30
0.0
 40
2.0
100
AcDbArc
 50
270.0
 51
0.0
  0
ARC
  5
4BBA
330
2A
100
AcDbEntity
  8
1
100
AcDbCircle
 10
449.2645979999998
 20
168.4323879999999
 30
0.0
 40
2.0
100
AcDbArc
 50
0.0
 51
90.0
  0
LINE
  5
4BBB
330
2A
100
AcDbEntity
  8
1
100
AcDbLine
 10
447.264598
 20
166.09363
 30
0.0
 11
449.2645979999998
 21
166.09363
 31
0.0
  0
LINE
  5
4BBC
330
2A
100
AcDbEntity
  8
1
100
AcDbLine
 10
447.264598
 20
170.432388
 30
0.0
 11
449.2645979999998
 21
170.432388
 31
0.0
  0
ARC
  5
4BBD
330
2A
100
AcDbEntity
  8
1
100
AcDbCircle
 10
443.264598
 20
139.0021
 30
0.0
 40
2.0
100
AcDbArc
 50
301.3559950000029
 51
0.0
  0
LINE
  5
4BBE
330
2A
100
AcDbEntity
  8
1
100
AcDbLine
 10
450.1831819999998
 20
127.083958
 30
0.0
 11
450.1831819999998
 21
133.342
 31
0.0
  0
LINE
  5
4BBF
330
2A
100
AcDbEntity
  8
1
100
AcDbLine
 10
451.264598
 20
151.718686
 30
0.0
 11
461.2645979999999
 21
151.718686
 31
0.0
  0
LINE
  5
4BC0
330
2A
100
AcDbEntity
  8
1
100
AcDbLine
 10
437.2645979999998
 20
151.718686
 30
0.0
 11
445.2645979999998
 21
151.718686
 31
0.0
  0
ARC
  5
4BC1
330
2A
100
AcDbEntity
  8
1
100
AcDbCircle
 10
443.264598
 20
135.342
 30
0.0
 40
2.0
100
AcDbArc
 50
272.3330330000033
 51
0.0
  0
ARC
  5
4BC2
330
2A
100
AcDbEntity
  8
1
100
AcDbCircle
 10
453.2645979999998
 20
179.89743
 30
0.0
 40
2.0
100
AcDbArc
 50
90.0
 51
180.0
  0
ARC
  5
4BC3
330
2A
100
AcDbEntity
  8
1
100
AcDbCircle
 10
443.264598
 20
179.89743
 30
0.0
 40
2.0
100
AcDbArc
 50
0.0
 51
90.0
  0
LINE
  5
4BC4
330
2A
100
AcDbEntity
  8
1
100
AcDbLine
 10
451.264598
 20
138.20857
 30
0.0
 11
451.264598
 21
179.89743
 31
0.0
  0
LINE
  5
4BC5
330
2A
100
AcDbEntity
  8
1
100
AcDbLine
 10
445.2645979999998
 20
135.342
 30
0.0
 11
445.2645979999998
 21
179.89743
 31
0.0
  0
LINE
  5
4BC6
330
2A
100
AcDbEntity
  8
1
100
AcDbLine
 10
445.2645979999998
 20
133.342
 30
0.0
 11
450.1831819999998
 21
133.342
 31
0.0
  0
LINE
  5
4BC7
330
2A
100
AcDbEntity
  8
1
100
AcDbLine
 10
445.2645979999998
 20
181.8974299999999
 30
0.0
 11
451.264598
 21
181.8974299999999
 31
0.0
  0
LINE
  5
4BC8
330
2A
100
AcDbEntity
  8
1
100
AcDbLine
 10
440.7006759999998
 20
79.97863999999998
 30
0.0
 11
443.346014
 21
92.11103000000004
 31
0.0
  0
LINE
  5
4BC9
330
2A
100
AcDbEntity
  8
1
100
AcDbLine
 10
443.346014
 20
137.586298
 30
0.0
 11
440.7006759999998
 21
149.718686
 31
0.0
  0
ARC
  5
4BCA
330
2A
100
AcDbEntity
  8
1
100
AcDbCircle
 10
442.2645979999998
 20
79.97863999999998
 30
0.0
 40
2.0
100
AcDbArc
 50
180.0
 51
270.0
  0
ARC
  5
4BCB
330
2A
100
AcDbEntity
  8
1
100
AcDbCircle
 10
451.264598
 20
79.97863999999998
 30
0.0
 40
2.0
100
AcDbArc
 50
270.0
 51
0.0
  0
ARC
  5
4BCC
330
2A
100
AcDbEntity
  8
1
100
AcDbCircle
 10
442.2645979999998
 20
149.718686
 30
0.0
 40
2.0
100
AcDbArc
 50
90.0
 51
180.0
  0
ARC
  5
4BCD
330
2A
100
AcDbEntity
  8
1
100
AcDbCircle
 10
451.264598
 20
149.718686
 30
0.0
 40
2.0
100
AcDbArc
 50
0.0
 51
90.0
  0
ARC
  5
4BCE
330
2A
100
AcDbEntity
  8
1
100
AcDbCircle
 10
445.3460139999998
 20
94.11103000000002
 30
0.0
 40
2.0
100
AcDbArc
 50
180.0
 51
238.6440049999972
  0
ARC
  5
4BCF
330
2A
100
AcDbEntity
  8
1
100
AcDbCircle
 10
445.3460139999998
 20
135.586298
 30
0.0
 40
2.0
100
AcDbArc
 50
121.3559950000028
 51
180.0
  0
LINE
  5
4BD0
330
2A
100
AcDbEntity
  8
1
100
AcDbLine
 10
451.3597219999998
 20
105.848664
 30
0.0
 11
450.1831819999998
 21
104.613368
 31
0.0
  0
LINE
  5
4BD1
330
2A
100
AcDbEntity
  8
1
100
AcDbLine
 10
442.1694719999999
 20
105.848664
 30
0.0
 11
443.346014
 21
104.613368
 31
0.0
  0
LINE
  5
4BD2
330
2A
100
AcDbEntity
  8
1
100
AcDbLine
 10
443.346014
 20
125.083958
 30
0.0
 11
442.1694719999999
 21
123.848664
 31
0.0
  0
LINE
  5
4BD3
330
2A
100
AcDbEntity
  8
1
100
AcDbLine
 10
450.1831819999998
 20
125.083958
 30
0.0
 11
451.3597219999998
 21
123.848664
 31
0.0
  0
ARC
  5
4BD4
330
2A
100
AcDbEntity
  8
1
100
AcDbCircle
 10
445.3460139999998
 20
102.613368
 30
0.0
 40
2.0
100
AcDbArc
 50
90.0
 51
180.0
  0
ARC
  5
4BD5
330
2A
100
AcDbEntity
  8
1
100
AcDbCircle
 10
448.183182
 20
102.613368
 30
0.0
 40
2.0
100
AcDbArc
 50
0.0
 51
90.0
  0
ARC
  5
4BD6
330
2A
100
AcDbEntity
  8
1
100
AcDbCircle
 10
448.183182
 20
127.083958
 30
0.0
 40
2.0
100
AcDbArc
 50
270.0
 51
0.0
  0
ARC
  5
4BD7
330
2A
100
AcDbEntity
  8
1
100
AcDbCircle
 10
445.3460139999998
 20
127.083958
 30
0.0
 40
2.0
100
AcDbArc
 50
180.0
 51
270.0
  0
LINE
  5
4BD8
330
2A
100
AcDbEntity
  8
1
100
AcDbLine
 10
445.3460139999998
 20
104.613368
 30
0.0
 11
448.183182
 21
104.613368
 31
0.0
  0
LINE
  5
4BD9
330
2A
100
AcDbEntity
  8
1
100
AcDbLine
 10
445.3460139999998
 20
125.083958
 30
0.0
 11
448.183182
 21
125.083958
 31
0.0
  0
ARC
  5
4BDA
330
2A
100
AcDbEntity
  8
1
100
AcDbCircle
 10
451.264598
 20
105.848664
 30
0.0
 40
2.0
100
AcDbArc
 50
0.0
 51
90.0
  0
ARC
  5
4BDB
330
2A
100
AcDbEntity
  8
1
100
AcDbCircle
 10
442.2645979999998
 20
105.848664
 30
0.0
 40
2.0
100
AcDbArc
 50
90.0
 51
180.0
  0
ARC
  5
4BDC
330
2A
100
AcDbEntity
  8
1
100
AcDbCircle
 10
442.2645979999998
 20
123.848664
 30
0.0
 40
2.0
100
AcDbArc
 50
180.0
 51
270.0
  0
ARC
  5
4BDD
330
2A
100
AcDbEntity
  8
1
100
AcDbCircle
 10
451.264598
 20
123.848664
 30
0.0
 40
2.0
100
AcDbArc
 50
270.0
 51
0.0
  0
LINE
  5
4BDE
330
2A
100
AcDbEntity
  8
1
100
AcDbLine
 10
450.1831819999998
 20
94.82881199999996
 30
0.0
 11
450.1831819999998
 21
102.613368
 31
0.0
  0
LINE
  5
4BDF
330
2A
100
AcDbEntity
  8
1
100
AcDbLine
 10
443.346014
 20
127.083958
 30
0.0
 11
443.346014
 21
135.586298
 31
0.0
  0
LINE
  5
4BE0
330
2A
100
AcDbEntity
  8
1
100
AcDbLine
 10
443.346014
 20
94.11103000000002
 30
0.0
 11
443.346014
 21
102.613368
 31
0.0
  0
LINE
  5
4BE1
330
2A
100
AcDbEntity
  8
1
100
AcDbLine
 10
440.2645979999999
 20
123.848664
 30
0.0
 11
440.2645979999999
 21
149.718686
 31
0.0
  0
LINE
  5
4BE2
330
2A
100
AcDbEntity
  8
1
100
AcDbLine
 10
440.2645979999999
 20
79.97863999999998
 30
0.0
 11
440.2645979999999
 21
105.848664
 31
0.0
  0
LINE
  5
4BE3
330
2A
100
AcDbEntity
  8
1
100
AcDbLine
 10
453.2645979999998
 20
123.848664
 30
0.0
 11
453.2645979999998
 21
149.718686
 31
0.0
  0
LINE
  5
4BE4
330
2A
100
AcDbEntity
  8
1
100
AcDbLine
 10
453.2645979999998
 20
79.97863999999998
 30
0.0
 11
453.2645979999998
 21
105.848664
 31
0.0
  0
LINE
  5
4BE5
330
2A
100
AcDbEntity
  8
1
100
AcDbLine
 10
442.2645979999998
 20
107.848664
 30
0.0
 11
451.264598
 21
107.848664
 31
0.0
  0
LINE
  5
4BE6
330
2A
100
AcDbEntity
  8
1
100
AcDbLine
 10
442.2645979999998
 20
121.848664
 30
0.0
 11
451.264598
 21
121.848664
 31
0.0
  0
LINE
  5
4BE7
330
2A
100
AcDbEntity
  8
1
100
AcDbLine
 10
435.664598
 20
54.04866400000003
 30
0.0
 11
435.664598
 21
55.34866399999998
 31
0.0
  0
LINE
  5
4BE8
330
2A
100
AcDbEntity
  8
1
100
AcDbLine
 10
444.8645980000001
 20
55.34866399999998
 30
0.0
 11
444.8645980000001
 21
54.04866400000003
 31
0.0
  0
ARC
  5
4BE9
330
2A
100
AcDbEntity
  8
1
100
AcDbCircle
 10
438.2645979999998
 20
55.69945200000001
 30
0.0
 40
5.150789999999998
100
AcDbArc
 50
247.151859000003
 51
292.8481409999969
  0
LINE
  5
4BEA
330
2A
100
AcDbEntity
  8
1
100
AcDbLine
 10
440.2645979999999
 20
54.04866400000003
 30
0.0
 11
440.2645979999999
 21
50.95280800000001
 31
0.0
  0
LINE
  5
4BEB
330
2A
100
AcDbEntity
  8
1
100
AcDbLine
 10
436.2645979999999
 20
50.54866400000003
 30
0.0
 11
444.2645979999999
 21
50.54866400000003
 31
0.0
  0
LINE
  5
4BEC
330
2A
100
AcDbEntity
  8
1
100
AcDbLine
 10
436.2645979999999
 20
54.04866400000003
 30
0.0
 11
436.2645979999999
 21
50.54866400000003
 31
0.0
  0
ARC
  5
4BED
330
2A
100
AcDbEntity
  8
1
100
AcDbCircle
 10
442.2645979999998
 20
55.69945200000001
 30
0.0
 40
5.150789999999998
100
AcDbArc
 50
247.151859000003
 51
292.8481409999969
  0
LINE
  5
4BEE
330
2A
100
AcDbEntity
  8
1
100
AcDbLine
 10
444.2645979999999
 20
54.04866400000003
 30
0.0
 11
444.2645979999999
 21
50.54866400000003
 31
0.0
  0
LINE
  5
4BEF
330
2A
100
AcDbEntity
  8
1
100
AcDbLine
 10
435.664598
 20
54.04866400000003
 30
0.0
 11
444.8645980000001
 21
54.04866400000003
 31
0.0
  0
LINE
  5
4BF0
330
2A
100
AcDbEntity
  8
1
100
AcDbLine
 10
451.664598
 20
54.04866400000003
 30
0.0
 11
451.664598
 21
55.34866399999998
 31
0.0
  0
LINE
  5
4BF1
330
2A
100
AcDbEntity
  8
1
100
AcDbLine
 10
460.8645980000002
 20
55.34866399999998
 30
0.0
 11
460.8645980000002
 21
54.04866400000003
 31
0.0
  0
ARC
  5
4BF2
330
2A
100
AcDbEntity
  8
1
100
AcDbCircle
 10
454.2645979999998
 20
55.69945200000001
 30
0.0
 40
5.150789999999998
100
AcDbArc
 50
247.151859000003
 51
292.8481409999969
  0
LINE
  5
4BF3
330
2A
100
AcDbEntity
  8
1
100
AcDbLine
 10
456.264598
 20
54.04866400000003
 30
0.0
 11
456.264598
 21
50.95280800000001
 31
0.0
  0
LINE
  5
4BF4
330
2A
100
AcDbEntity
  8
1
100
AcDbLine
 10
452.264598
 20
50.54866400000003
 30
0.0
 11
460.264598
 21
50.54866400000003
 31
0.0
  0
LINE
  5
4BF5
330
2A
100
AcDbEntity
  8
1
100
AcDbLine
 10
452.264598
 20
54.04866400000003
 30
0.0
 11
452.264598
 21
50.54866400000003
 31
0.0
  0
ARC
  5
4BF6
330
2A
100
AcDbEntity
  8
1
100
AcDbCircle
 10
458.2645979999998
 20
55.69945200000001
 30
0.0
 40
5.150789999999998
100
AcDbArc
 50
247.151859000003
 51
292.8481409999969
  0
LINE
  5
4BF7
330
2A
100
AcDbEntity
  8
1
100
AcDbLine
 10
460.264598
 20
54.04866400000003
 30
0.0
 11
460.264598
 21
50.54866400000003
 31
0.0
  0
LINE
  5
4BF8
330
2A
100
AcDbEntity
  8
1
100
AcDbLine
 10
451.664598
 20
54.04866400000003
 30
0.0
 11
460.8645980000002
 21
54.04866400000003
 31
0.0
  0
LINE
  5
4BF9
330
2A
100
AcDbEntity
  8
1
100
AcDbLine
 10
435.264598
 20
55.34866399999998
 30
0.0
 11
461.2645979999999
 21
55.34866399999998
 31
0.0
  0
LINE
  5
4BFA
330
2A
100
AcDbEntity
  8
1
100
AcDbLine
 10
435.264598
 20
58.34866399999999
 30
0.0
 11
461.2645979999999
 21
58.34866399999999
 31
0.0
  0
LINE
  5
4BFB
330
2A
100
AcDbEntity
  8
1
  6
CENTER
 62
     2
370
    13
100
AcDbLine
 10
456.264598
 20
47.34452799999997
 30
0.0
 11
456.264598
 21
64.65032999999994
 31
0.0
  0
LINE
  5
4BFC
330
2A
100
AcDbEntity
  8
1
  6
CENTER
 62
     2
370
    13
100
AcDbLine
 10
440.2645979999999
 20
47.34452799999997
 30
0.0
 11
440.2645979999999
 21
64.65032999999994
 31
0.0
  0
LINE
  5
4BFD
330
2A
100
AcDbEntity
  8
1
100
AcDbLine
 10
464.264598
 20
74.34866399999998
 30
0.0
 11
466.2645979999998
 21
74.34866399999998
 31
0.0
  0
LINE
  5
4BFE
330
2A
100
AcDbEntity
  8
1
100
AcDbLine
 10
433.2645979999998
 20
74.34866399999998
 30
0.0
 11
436.2645979999999
 21
74.34866399999998
 31
0.0
  0
ARC
  5
4BFF
330
2A
100
AcDbEntity
  8
1
100
AcDbCircle
 10
436.2645979999999
 20
76.97863999999999
 30
0.0
 40
1.0
100
AcDbArc
 50
0.0
 51
90.0
  0
ARC
  5
4C00
330
2A
100
AcDbEntity
  8
1
100
AcDbCircle
 10
464.264598
 20
74.97863999999998
 30
0.0
 40
3.0
100
AcDbArc
 50
90.0
 51
180.0
  0
LINE
  5
4C01
330
2A
100
AcDbEntity
  8
1
100
AcDbLine
 10
464.264598
 20
155.348664
 30
0.0
 11
466.2645979999998
 21
155.348664
 31
0.0
  0
LINE
  5
4C02
330
2A
100
AcDbEntity
  8
1
100
AcDbLine
 10
433.2645979999998
 20
155.348664
 30
0.0
 11
436.2645979999999
 21
155.348664
 31
0.0
  0
ARC
  5
4C03
330
2A
100
AcDbEntity
  8
1
100
AcDbCircle
 10
436.2645979999999
 20
152.718686
 30
0.0
 40
1.0
100
AcDbArc
 50
270.0
 51
0.0
  0
ARC
  5
4C04
330
2A
100
AcDbEntity
  8
1
100
AcDbCircle
 10
464.264598
 20
154.718686
 30
0.0
 40
3.0
100
AcDbArc
 50
180.0
 51
270.0
  0
ARC
  5
4C05
330
2A
100
AcDbEntity
  8
1
100
AcDbCircle
 10
436.2645979999999
 20
73.34866399999999
 30
0.0
 40
1.0
100
AcDbArc
 50
0.0
 51
90.0
  0
LINE
  5
4C06
330
2A
100
AcDbEntity
  8
1
100
AcDbLine
 10
435.264598
 20
67.34866399999998
 30
0.0
 11
437.2645979999998
 21
70.81276400000001
 31
0.0
  0
LINE
  5
4C07
330
2A
100
AcDbEntity
  8
1
100
AcDbLine
 10
437.2645979999998
 20
70.81276400000001
 30
0.0
 11
437.2645979999998
 21
76.97863999999999
 31
0.0
  0
ARC
  5
4C08
330
2A
100
AcDbEntity
  8
1
100
AcDbCircle
 10
436.2645979999999
 20
156.3486639999999
 30
0.0
 40
1.0
100
AcDbArc
 50
270.0
 51
0.0
  0
LINE
  5
4C09
330
2A
100
AcDbEntity
  8
1
100
AcDbLine
 10
435.264598
 20
162.348664
 30
0.0
 11
437.2645979999998
 21
158.884562
 31
0.0
  0
LINE
  5
4C0A
330
2A
100
AcDbEntity
  8
1
100
AcDbLine
 10
437.2645979999998
 20
152.718686
 30
0.0
 11
437.2645979999998
 21
158.884562
 31
0.0
  0
ARC
  5
4C0B
330
2A
100
AcDbEntity
  8
1
100
AcDbCircle
 10
443.264598
 20
218.848664
 30
0.0
 40
2.0
100
AcDbArc
 50
0.0
 51
90.0
  0
ARC
  5
4C0C
330
2A
100
AcDbEntity
  8
1
100
AcDbCircle
 10
453.2645979999998
 20
218.848664
 30
0.0
 40
2.0
100
AcDbArc
 50
90.0
 51
180.0
  0
ARC
  5
4C0D
330
2A
100
AcDbEntity
  8
1
100
AcDbCircle
 10
453.2645979999998
 20
207.848664
 30
0.0
 40
2.0
100
AcDbArc
 50
180.0
 51
270.0
  0
ARC
  5
4C0E
330
2A
100
AcDbEntity
  8
1
100
AcDbCircle
 10
443.264598
 20
207.848664
 30
0.0
 40
2.0
100
AcDbArc
 50
270.0
 51
0.0
  0
LINE
  5
4C0F
330
2A
100
AcDbEntity
  8
1
100
AcDbLine
 10
451.264598
 20
218.848664
 30
0.0
 11
451.264598
 21
207.848664
 31
0.0
  0
LINE
  5
4C10
330
2A
100
AcDbEntity
  8
1
100
AcDbLine
 10
445.2645979999998
 20
218.848664
 30
0.0
 11
445.2645979999998
 21
207.848664
 31
0.0
  0
LINE
  5
4C11
330
2A
100
AcDbEntity
  8
1
100
AcDbLine
 10
451.264598
 20
205.848664
 30
0.0
 11
445.2645979999998
 21
205.848664
 31
0.0
  0
ARC
  5
4C12
330
2A
100
AcDbEntity
  8
1
100
AcDbCircle
 10
420.2645979999998
 20
205.848664
 30
0.0
 40
15.0
100
AcDbArc
 50
0.0
 51
49.45205100000323
  0
ARC
  5
4C13
330
2A
100
AcDbEntity
  8
1
100
AcDbCircle
 10
476.264598
 20
205.848664
 30
0.0
 40
15.0
100
AcDbArc
 50
90.0
 51
180.0
  0
ARC
  5
4C14
330
2A
100
AcDbEntity
  8
1
100
AcDbCircle
 10
464.264598
 20
71.34866399999999
 30
0.0
 40
3.0
100
AcDbArc
 50
90.0
 51
180.0
  0
ARC
  5
4C15
330
2A
100
AcDbEntity
  8
1
100
AcDbCircle
 10
464.264598
 20
158.348664
 30
0.0
 40
3.0
100
AcDbArc
 50
180.0
 51
270.0
  0
ARC
  5
4C16
330
2A
100
AcDbEntity
  8
1
100
AcDbCircle
 10
430.264598
 20
215.848664
 30
0.0
 40
5.0
100
AcDbArc
 50
0.0
 51
79.03247799999937
  0
ARC
  5
4C17
330
2A
100
AcDbEntity
  8
1
100
AcDbCircle
 10
466.2645979999998
 20
215.848664
 30
0.0
 40
5.0
100
AcDbArc
 50
90.0
 51
180.0
  0
LINE
  5
4C18
330
2A
100
AcDbEntity
  8
1
100
AcDbLine
 10
435.264598
 20
162.348664
 30
0.0
 11
435.264598
 21
215.848664
 31
0.0
  0
LINE
  5
4C19
330
2A
100
AcDbEntity
  8
1
100
AcDbLine
 10
435.264598
 20
55.34866399999998
 30
0.0
 11
435.264598
 21
67.34866399999998
 31
0.0
  0
LINE
  5
4C1A
330
2A
100
AcDbEntity
  8
1
100
AcDbLine
 10
461.2645979999999
 20
154.718686
 30
0.0
 11
461.2645979999999
 21
215.848664
 31
0.0
  0
LINE
  5
4C1B
330
2A
100
AcDbEntity
  8
1
100
AcDbLine
 10
461.2645979999999
 20
55.34866399999998
 30
0.0
 11
461.2645979999999
 21
74.97863999999998
 31
0.0
  0
ARC
  5
4C1C
330
2A
100
AcDbEntity
  8
1
100
AcDbCircle
 10
417.2645979999998
 20
224.848664
 30
0.0
 40
4.0
100
AcDbArc
 50
180.0
 51
270.0
  0
ARC
  5
4C1D
330
2A
100
AcDbEntity
  8
1
100
AcDbCircle
 10
479.2645979999998
 20
224.848664
 30
0.0
 40
4.0
100
AcDbArc
 50
270.0
 51
0.0
  0
LINE
  5
4C1E
330
2A
100
AcDbEntity
  8
1
100
AcDbLine
 10
483.2645979999998
 20
224.848664
 30
0.0
 11
483.2645979999998
 21
232.848664
 31
0.0
  0
LINE
  5
4C1F
330
2A
100
AcDbEntity
  8
1
100
AcDbLine
 10
413.2645979999998
 20
224.848664
 30
0.0
 11
413.2645979999998
 21
232.848664
 31
0.0
  0
LINE
  5
4C20
330
2A
100
AcDbEntity
  8
1
100
AcDbLine
 10
435.264598
 20
59.84866399999997
 30
0.0
 11
461.2645979999999
 21
59.84866399999997
 31
0.0
  0
LINE
  5
4C21
330
2A
100
AcDbEntity
  8
1
100
AcDbLine
 10
433.2645979999998
 20
74.34866399999998
 30
0.0
 11
433.2645979999998
 21
155.348664
 31
0.0
  0
LINE
  5
4C22
330
2A
100
AcDbEntity
  8
1
100
AcDbLine
 10
466.2645979999998
 20
74.34866399999998
 30
0.0
 11
466.2645979999998
 21
155.348664
 31
0.0
  0
LINE
  5
4C23
330
2A
100
AcDbEntity
  8
1
  6
CENTER
 62
     2
370
    13
100
AcDbLine
 10
448.264598
 20
41.510514
 30
0.0
 11
448.264598
 21
329.293743
 31
0.0
  0
LINE
  5
4C24
330
2A
100
AcDbEntity
  8
1
  6
CENTER
 62
     2
370
    13
100
AcDbLine
 10
420.969816
 20
114.848664
 30
0.0
 11
476.2102319999998
 21
114.848664
 31
0.0
  0
LINE
  5
4C25
330
2A
100
AcDbEntity
  8
1
  6
CENTER
 62
     2
370
    13
100
AcDbLine
 10
88.07877000000008
 20
419.9854699999998
 30
0.0
 11
88.07877000000008
 21
403.855754
 31
0.0
  0
LINE
  5
4C26
330
2A
100
AcDbEntity
  8
1
  6
CENTER
 62
     2
370
    13
100
AcDbLine
 10
80.51632799999993
 20
411.642224
 30
0.0
 11
96.27523199999997
 21
411.642224
 31
0.0
  0
CIRCLE
  5
4C27
330
2A
100
AcDbEntity
  8
1
  6
HIDDEN
 62
     4
370
    13
100
AcDbCircle
 10
88.07877000000008
 20
411.642224
 30
0.0
 40
4.5
  0
LINE
  5
4C28
330
2A
100
AcDbEntity
  8
1
  6
CENTER
 62
     2
370
    13
100
AcDbLine
 10
137.5762440000001
 20
469.70879
 30
0.0
 11
137.5762440000001
 21
452.730082
 31
0.0
  0
LINE
  5
4C29
330
2A
100
AcDbEntity
  8
1
  6
CENTER
 62
     2
370
    13
100
AcDbLine
 10
129.126528
 20
461.1396980000001
 30
0.0
 11
145.8552500000001
 21
461.1396980000001
 31
0.0
  0
CIRCLE
  5
4C2A
330
2A
100
AcDbEntity
  8
1
  6
HIDDEN
 62
     4
370
    13
100
AcDbCircle
 10
137.5762440000001
 20
461.1396980000001
 30
0.0
 40
4.5
  0
CIRCLE
  5
4C2B
330
2A
100
AcDbEntity
  8
1
  6
HIDDEN
 62
     4
370
    13
100
AcDbCircle
 10
137.5762440000001
 20
411.642224
 30
0.0
 40
4.5
  0
CIRCLE
  5
4C2C
330
2A
100
AcDbEntity
  8
1
  6
HIDDEN
 62
     4
370
    13
100
AcDbCircle
 10
88.07877000000008
 20
461.1396980000001
 30
0.0
 40
4.5
  0
LINE
  5
4C2D
330
2A
100
AcDbEntity
  8
1
  6
CENTER
 62
     2
370
    13
100
AcDbLine
 10
109.144342
 20
100.8206639999999
 30
0.0
 11
116.473076
 21
100.8206639999999
 31
0.0
  0
LINE
  5
4C2E
330
2A
100
AcDbEntity
  8
1
  6
CENTER
 62
     2
370
    13
100
AcDbLine
 10
107.8275060000001
 20
125.4795719999999
 30
0.0
 11
107.8275060000001
 21
132.42156
 31
0.0
  0
LINE
  5
4C2F
330
2A
100
AcDbEntity
  8
1
  6
CENTER
 62
     2
370
    13
100
AcDbLine
 10
104.144342
 20
128.8766639999999
 30
0.0
 11
111.473076
 21
128.8766639999999
 31
0.0
  0
LINE
  5
4C30
330
2A
100
AcDbEntity
  8
1
100
AcDbLine
 10
117.8275060000001
 20
134.548664
 30
0.0
 11
117.8275060000001
 21
138.124778
 31
0.0
  0
LINE
  5
4C31
330
2A
100
AcDbEntity
  8
1
100
AcDbLine
 10
117.8275060000001
 20
104.848664
 30
0.0
 11
117.8275060000001
 21
124.848664
 31
0.0
  0
LINE
  5
4C32
330
2A
100
AcDbEntity
  8
1
100
AcDbLine
 10
117.8275060000001
 20
91.57254799999998
 30
0.0
 11
117.8275060000001
 21
95.148664
 31
0.0
  0
LINE
  5
4C33
330
2A
100
AcDbEntity
  8
1
100
AcDbLine
 10
107.8275060000001
 20
104.848664
 30
0.0
 11
107.8275060000001
 21
124.848664
 31
0.0
  0
LINE
  5
4C34
330
2A
100
AcDbEntity
  8
1
100
AcDbLine
 10
107.8275060000001
 20
91.21018799999999
 30
0.0
 11
107.8275060000001
 21
91.95988799999998
 31
0.0
  0
LINE
  5
4C35
330
2A
100
AcDbEntity
  8
1
100
AcDbLine
 10
107.8275060000001
 20
137.737438
 30
0.0
 11
107.8275060000001
 21
138.4871379999999
 31
0.0
  0
ARC
  5
4C36
330
2A
100
AcDbEntity
  8
1
100
AcDbCircle
 10
111.9775059999999
 20
114.848664
 30
0.0
 40
19.461974
100
AcDbArc
 50
298.8687069999994
 51
61.13129300000062
  0
ARC
  5
4C37
330
2A
100
AcDbEntity
  8
1
100
AcDbCircle
 10
111.9775059999999
 20
114.848664
 30
0.0
 40
19.461974
100
AcDbArc
 50
117.5446829999985
 51
242.4553170000015
  0
ARC
  5
4C38
330
2A
100
AcDbEntity
  8
1
100
AcDbCircle
 10
111.9775059999999
 20
114.848664
 30
0.0
 40
19.727854
100
AcDbArc
 50
297.4972769999995
 51
62.50272300000048
  0
ARC
  5
4C39
330
2A
100
AcDbEntity
  8
1
100
AcDbCircle
 10
111.9775059999999
 20
114.848664
 30
0.0
 40
19.727854
100
AcDbArc
 50
117.1426709999974
 51
242.8573290000026
  0
ARC
  5
4C3A
330
2A
100
AcDbEntity
  8
1
100
AcDbCircle
 10
111.977668
 20
114.848614
 30
0.0
 40
22.15
100
AcDbArc
 50
286.4116010000017
 51
293.8157819999999
  0
ARC
  5
4C3B
330
2A
100
AcDbEntity
  8
1
100
AcDbCircle
 10
118.235834
 20
-0.3353180000000293
 30
0.0
 40
93.93639400000001
100
AcDbArc
 50
90.0
 51
90.24905699999752
  0
LINE
  5
4C3C
330
2A
100
AcDbEntity
  8
1
100
AcDbLine
 10
118.235834
 20
93.60107600000004
 30
0.0
 11
118.235834
 21
95.148664
 31
0.0
  0
LINE
  5
4C3D
330
2A
100
AcDbEntity
  8
1
100
AcDbLine
 10
120.9217779999999
 20
94.58471999999998
 30
0.0
 11
120.9217779999999
 21
95.148664
 31
0.0
  0
LINE
  5
4C3E
330
2A
100
AcDbEntity
  8
1
100
AcDbLine
 10
115.9775059999999
 20
95.148664
 30
0.0
 11
120.9775059999999
 21
95.148664
 31
0.0
  0
LINE
  5
4C3F
330
2A
100
AcDbEntity
  8
1
100
AcDbLine
 10
115.9775059999999
 20
92.34869999999999
 30
0.0
 11
115.9775059999999
 21
95.148664
 31
0.0
  0
ARC
  5
4C40
330
2A
100
AcDbEntity
  8
1
100
AcDbCircle
 10
112.4775059999999
 20
114.848664
 30
0.0
 40
23.5
100
AcDbArc
 50
246.1555299999994
 51
257.3409490000037
  0
ARC
  5
4C41
330
2A
100
AcDbEntity
  8
1
100
AcDbCircle
 10
118.3275060000001
 20
-42.52204800000003
 30
0.0
 40
134.89122
100
AcDbArc
 50
90.99822600000004
 51
94.67750399999864
  0
LINE
  5
4C42
330
2A
100
AcDbEntity
  8
1
100
AcDbLine
 10
102.9775059999999
 20
93.35447799999995
 30
0.0
 11
115.9775059999999
 21
93.35447799999995
 31
0.0
  0
ARC
  5
4C43
330
2A
100
AcDbEntity
  8
1
100
AcDbCircle
 10
111.977668
 20
114.8487119999999
 30
0.0
 40
22.15
100
AcDbArc
 50
66.1842180000001
 51
73.58839899999843
  0
ARC
  5
4C44
330
2A
100
AcDbEntity
  8
1
100
AcDbCircle
 10
118.235834
 20
230.032644
 30
0.0
 40
93.93639400000001
100
AcDbArc
 50
269.7509430000025
 51
270.0
  0
LINE
  5
4C45
330
2A
100
AcDbEntity
  8
1
100
AcDbLine
 10
118.235834
 20
136.09625
 30
0.0
 11
118.235834
 21
134.548664
 31
0.0
  0
LINE
  5
4C46
330
2A
100
AcDbEntity
  8
1
100
AcDbLine
 10
120.9217779999999
 20
135.112606
 30
0.0
 11
120.9217779999999
 21
134.548664
 31
0.0
  0
LINE
  5
4C47
330
2A
100
AcDbEntity
  8
1
100
AcDbLine
 10
115.9775059999999
 20
134.548664
 30
0.0
 11
120.9775059999999
 21
134.548664
 31
0.0
  0
LINE
  5
4C48
330
2A
100
AcDbEntity
  8
1
100
AcDbLine
 10
115.9775059999999
 20
137.3486259999999
 30
0.0
 11
115.9775059999999
 21
134.548664
 31
0.0
  0
ARC
  5
4C49
330
2A
100
AcDbEntity
  8
1
100
AcDbCircle
 10
112.4775059999999
 20
114.848664
 30
0.0
 40
23.5
100
AcDbArc
 50
102.6590509999963
 51
113.8444700000006
  0
ARC
  5
4C4A
330
2A
100
AcDbEntity
  8
1
100
AcDbCircle
 10
118.3275060000001
 20
272.219374
 30
0.0
 40
134.89122
100
AcDbArc
 50
265.3224960000013
 51
269.001774
  0
LINE
  5
4C4B
330
2A
100
AcDbEntity
  8
1
100
AcDbLine
 10
102.9775059999999
 20
136.342848
 30
0.0
 11
115.9775059999999
 21
136.342848
 31
0.0
  0
CIRCLE
  5
4C4C
330
2A
100
AcDbEntity
  8
1
100
AcDbCircle
 10
112.8275060000001
 20
100.8206639999999
 30
0.0
 40
2.008
  0
CIRCLE
  5
4C4D
330
2A
100
AcDbEntity
  8
1
100
AcDbCircle
 10
107.8275060000001
 20
128.8766639999999
 30
0.0
 40
2.008
  0
ARC
  5
4C4E
330
2A
100
AcDbEntity
  8
1
100
AcDbCircle
 10
107.9775059999999
 20
100.848664
 30
0.0
 40
4.0
100
AcDbArc
 50
90.0
 51
270.0
  0
ARC
  5
4C4F
330
2A
100
AcDbEntity
  8
1
100
AcDbCircle
 10
110.9775059999999
 20
95.84866400000001
 30
0.0
 40
1.0
100
AcDbArc
 50
0.0
 51
90.0
  0
LINE
  5
4C50
330
2A
100
AcDbEntity
  8
1
100
AcDbLine
 10
107.9775059999999
 20
96.84866399999998
 30
0.0
 11
110.9775059999999
 21
96.84866399999998
 31
0.0
  0
ARC
  5
4C51
330
2A
100
AcDbEntity
  8
1
100
AcDbCircle
 10
116.018888
 20
103.848664
 30
0.0
 40
1.0
100
AcDbArc
 50
90.0
 51
180.0
  0
ARC
  5
4C52
330
2A
100
AcDbEntity
  8
1
100
AcDbCircle
 10
116.018888
 20
98.24866399999997
 30
0.0
 40
1.0
100
AcDbArc
 50
180.0
 51
270.0
  0
LINE
  5
4C53
330
2A
100
AcDbEntity
  8
1
100
AcDbLine
 10
115.018888
 20
98.24866399999997
 30
0.0
 11
115.018888
 21
103.848664
 31
0.0
  0
ARC
  5
4C54
330
2A
100
AcDbEntity
  8
1
100
AcDbCircle
 10
112.9775059999999
 20
95.84866400000001
 30
0.0
 40
1.0
100
AcDbArc
 50
90.0
 51
180.0
  0
ARC
  5
4C55
330
2A
100
AcDbEntity
  8
1
100
AcDbCircle
 10
122.187506
 20
96.84866399999998
 30
0.0
 40
1.209999999999998
100
AcDbArc
 50
140.6923520000022
 51
180.0
  0
LINE
  5
4C56
330
2A
100
AcDbEntity
  8
1
100
AcDbLine
 10
120.9775059999999
 20
96.84866399999998
 30
0.0
 11
120.9775059999999
 21
95.148664
 31
0.0
  0
ARC
  5
4C57
330
2A
100
AcDbEntity
  8
1
100
AcDbCircle
 10
120.4775059999999
 20
98.24866399999997
 30
0.0
 40
1.0
100
AcDbArc
 50
270.0
 51
0.0
  0
LINE
  5
4C58
330
2A
100
AcDbEntity
  8
1
100
AcDbLine
 10
112.9775059999999
 20
96.84866399999998
 30
0.0
 11
120.9775059999999
 21
96.84866399999998
 31
0.0
  0
LINE
  5
4C59
330
2A
100
AcDbEntity
  8
1
100
AcDbLine
 10
116.018888
 20
97.24866399999996
 30
0.0
 11
120.4775059999999
 21
97.24866399999996
 31
0.0
  0
ARC
  5
4C5A
330
2A
100
AcDbEntity
  8
1
100
AcDbCircle
 10
107.9775059999999
 20
128.848664
 30
0.0
 40
4.0
100
AcDbArc
 50
90.0
 51
270.0
  0
ARC
  5
4C5B
330
2A
100
AcDbEntity
  8
1
100
AcDbCircle
 10
110.9775059999999
 20
133.848664
 30
0.0
 40
1.0
100
AcDbArc
 50
270.0
 51
0.0
  0
LINE
  5
4C5C
330
2A
100
AcDbEntity
  8
1
100
AcDbLine
 10
107.9775059999999
 20
132.848664
 30
0.0
 11
110.9775059999999
 21
132.848664
 31
0.0
  0
ARC
  5
4C5D
330
2A
100
AcDbEntity
  8
1
100
AcDbCircle
 10
111.9775059999999
 20
114.848664
 30
0.0
 40
18.0
100
AcDbArc
 50
301.8554309999984
 51
58.14456900000166
  0
ARC
  5
4C5E
330
2A
100
AcDbEntity
  8
1
100
AcDbCircle
 10
111.9775059999999
 20
114.848664
 30
0.0
 40
18.0
100
AcDbArc
 50
120.0000000000001
 51
239.9999999999998
  0
ARC
  5
4C5F
330
2A
100
AcDbEntity
  8
1
100
AcDbCircle
 10
116.018888
 20
125.848664
 30
0.0
 40
1.0
100
AcDbArc
 50
180.0
 51
270.0
  0
ARC
  5
4C60
330
2A
100
AcDbEntity
  8
1
100
AcDbCircle
 10
116.018888
 20
131.448664
 30
0.0
 40
1.0
100
AcDbArc
 50
90.0
 51
180.0
  0
LINE
  5
4C61
330
2A
100
AcDbEntity
  8
1
100
AcDbLine
 10
115.018888
 20
131.448664
 30
0.0
 11
115.018888
 21
125.848664
 31
0.0
  0
ARC
  5
4C62
330
2A
100
AcDbEntity
  8
1
100
AcDbCircle
 10
112.9775059999999
 20
133.848664
 30
0.0
 40
1.0
100
AcDbArc
 50
180.0
 51
270.0
  0
ARC
  5
4C63
330
2A
100
AcDbEntity
  8
1
100
AcDbCircle
 10
122.187506
 20
132.848664
 30
0.0
 40
1.209999999999998
100
AcDbArc
 50
180.0
 51
219.3076479999978
  0
LINE
  5
4C64
330
2A
100
AcDbEntity
  8
1
100
AcDbLine
 10
120.9775059999999
 20
132.848664
 30
0.0
 11
120.9775059999999
 21
134.548664
 31
0.0
  0
ARC
  5
4C65
330
2A
100
AcDbEntity
  8
1
100
AcDbCircle
 10
120.4775059999999
 20
131.448664
 30
0.0
 40
1.0
100
AcDbArc
 50
0.0
 51
90.0
  0
LINE
  5
4C66
330
2A
100
AcDbEntity
  8
1
100
AcDbLine
 10
112.9775059999999
 20
132.848664
 30
0.0
 11
120.9775059999999
 21
132.848664
 31
0.0
  0
LINE
  5
4C67
330
2A
100
AcDbEntity
  8
1
100
AcDbLine
 10
116.018888
 20
132.4486639999999
 30
0.0
 11
120.4775059999999
 21
132.4486639999999
 31
0.0
  0
ARC
  5
4C68
330
2A
100
AcDbEntity
  8
1
100
AcDbCircle
 10
121.358338
 20
105.848664
 30
0.0
 40
1.0
100
AcDbArc
 50
270.0
 51
316.1869389999996
  0
ARC
  5
4C69
330
2A
100
AcDbEntity
  8
1
100
AcDbCircle
 10
102.5966760000001
 20
105.848664
 30
0.0
 40
1.0
100
AcDbArc
 50
223.8130610000005
 51
270.0
  0
ARC
  5
4C6A
330
2A
100
AcDbEntity
  8
1
100
AcDbCircle
 10
102.5966760000001
 20
123.848664
 30
0.0
 40
1.0
100
AcDbArc
 50
90.0
 51
136.1869389999996
  0
ARC
  5
4C6B
330
2A
100
AcDbEntity
  8
1
100
AcDbCircle
 10
121.358338
 20
123.848664
 30
0.0
 40
1.0
100
AcDbArc
 50
43.81306100000037
 51
90.0
  0
ARC
  5
4C6C
330
2A
100
AcDbEntity
  8
1
100
AcDbCircle
 10
111.9775059999999
 20
114.848664
 30
0.0
 40
14.0
100
AcDbArc
 50
316.1869389999996
 51
43.81306100000037
  0
ARC
  5
4C6D
330
2A
100
AcDbEntity
  8
1
100
AcDbCircle
 10
111.9775059999999
 20
114.848664
 30
0.0
 40
14.0
100
AcDbArc
 50
136.1869389999996
 51
223.8130610000005
  0
ARC
  5
4C6E
330
2A
100
AcDbEntity
  8
1
100
AcDbCircle
 10
120.4775059999999
 20
103.848664
 30
0.0
 40
1.0
100
AcDbArc
 50
0.0
 51
90.0
  0
ARC
  5
4C6F
330
2A
100
AcDbEntity
  8
1
100
AcDbCircle
 10
103.9775059999999
 20
103.848664
 30
0.0
 40
1.0
100
AcDbArc
 50
90.0
 51
180.0
  0
ARC
  5
4C70
330
2A
100
AcDbEntity
  8
1
100
AcDbCircle
 10
120.4775059999999
 20
125.848664
 30
0.0
 40
1.0
100
AcDbArc
 50
270.0
 51
0.0
  0
ARC
  5
4C71
330
2A
100
AcDbEntity
  8
1
100
AcDbCircle
 10
103.9775059999999
 20
125.848664
 30
0.0
 40
1.0
100
AcDbArc
 50
180.0
 51
270.0
  0
LINE
  5
4C72
330
2A
100
AcDbEntity
  8
1
100
AcDbLine
 10
102.9775059999999
 20
125.848664
 30
0.0
 11
102.9775059999999
 21
136.342848
 31
0.0
  0
LINE
  5
4C73
330
2A
100
AcDbEntity
  8
1
100
AcDbLine
 10
102.9775059999999
 20
93.35447799999995
 30
0.0
 11
102.9775059999999
 21
103.848664
 31
0.0
  0
LINE
  5
4C74
330
2A
100
AcDbEntity
  8
1
100
AcDbLine
 10
121.4775059999999
 20
125.848664
 30
0.0
 11
121.4775059999999
 21
131.448664
 31
0.0
  0
LINE
  5
4C75
330
2A
100
AcDbEntity
  8
1
100
AcDbLine
 10
121.4775059999999
 20
98.24866399999997
 30
0.0
 11
121.4775059999999
 21
103.848664
 31
0.0
  0
LINE
  5
4C76
330
2A
100
AcDbEntity
  8
1
100
AcDbLine
 10
102.5966760000001
 20
104.848664
 30
0.0
 11
121.358338
 21
104.848664
 31
0.0
  0
LINE
  5
4C77
330
2A
100
AcDbEntity
  8
1
100
AcDbLine
 10
102.5966760000001
 20
124.848664
 30
0.0
 11
121.358338
 21
124.848664
 31
0.0
  0
ARC
  5
4C78
330
2A
100
AcDbEntity
  8
1
100
AcDbCircle
 10
111.9775059999999
 20
114.848664
 30
0.0
 40
20.454156
100
AcDbArc
 50
296.1044160000022
 51
63.89558399999778
  0
ARC
  5
4C79
330
2A
100
AcDbEntity
  8
1
100
AcDbCircle
 10
111.9775059999999
 20
114.848664
 30
0.0
 40
20.454156
100
AcDbArc
 50
116.1044160000022
 51
243.8955839999978
  0
LINE
  5
4C7A
330
2A
100
AcDbEntity
  8
1
  6
CENTER
 62
     2
370
    13
100
AcDbLine
 10
112.8275060000001
 20
41.510514
 30
0.0
 11
112.8275060000001
 21
306.421382
 31
0.0
  0
ARC
  5
4C7B
330
2A
100
AcDbEntity
  8
1
100
AcDbCircle
 10
111.9775059999999
 20
114.848664
 30
0.0
 40
21.306258
100
AcDbArc
 50
294.9869040000017
 51
65.01309599999832
  0
ARC
  5
4C7C
330
2A
100
AcDbEntity
  8
1
100
AcDbCircle
 10
111.9775059999999
 20
114.848664
 30
0.0
 40
21.306258
100
AcDbArc
 50
118.9155380000003
 51
241.0844619999997
  0
ARC
  5
4C7D
330
2A
100
AcDbEntity
  8
1
100
AcDbCircle
 10
100.924694
 20
94.83935199999995
 30
0.0
 40
1.552813999999998
100
AcDbArc
 50
0.0
 51
61.08446199999971
  0
ARC
  5
4C7E
330
2A
100
AcDbEntity
  8
1
100
AcDbCircle
 10
111.9775059999999
 20
114.848664
 30
0.0
 40
22.15
100
AcDbArc
 50
244.6026150000013
 51
246.0260940000042
  0
ARC
  5
4C7F
330
2A
100
AcDbEntity
  8
1
100
AcDbCircle
 10
100.8139040000001
 20
95.79983400000003
 30
0.0
 40
1.920961999999999
100
AcDbArc
 50
239.6274850000012
 51
329.9999999999991
  0
ARC
  5
4C80
330
2A
100
AcDbEntity
  8
1
100
AcDbCircle
 10
108.3766780000001
 20
93.65234199999996
 30
0.0
 40
2.5
100
AcDbArc
 50
216.7963529999989
 51
257.3104199999987
  0
ARC
  5
4C81
330
2A
100
AcDbEntity
  8
1
100
AcDbCircle
 10
100.924694
 20
134.857974
 30
0.0
 40
1.552813999999998
100
AcDbArc
 50
298.9155380000003
 51
0.0
  0
ARC
  5
4C82
330
2A
100
AcDbEntity
  8
1
100
AcDbCircle
 10
111.9775059999999
 20
114.848664
 30
0.0
 40
22.15
100
AcDbArc
 50
113.9739059999958
 51
115.3973849999987
  0
ARC
  5
4C83
330
2A
100
AcDbEntity
  8
1
100
AcDbCircle
 10
100.8139040000001
 20
133.897492
 30
0.0
 40
1.920961999999999
100
AcDbArc
 50
30.00000000000095
 51
120.3725149999987
  0
ARC
  5
4C84
330
2A
100
AcDbEntity
  8
1
100
AcDbCircle
 10
108.3766780000001
 20
136.044984
 30
0.0
 40
2.5
100
AcDbArc
 50
102.6895800000013
 51
143.2036470000011
  0
LINE
  5
4C85
330
2A
100
AcDbEntity
  8
1
100
AcDbLine
 10
126.9775059999999
 20
70.81276400000001
 30
0.0
 11
96.97750599999997
 21
70.81276400000001
 31
0.0
  0
LINE
  5
4C86
330
2A
100
AcDbEntity
  8
1
100
AcDbLine
 10
126.9775059999999
 20
67.34866399999998
 30
0.0
 11
96.97750599999997
 21
67.34866399999998
 31
0.0
  0
LINE
  5
4C87
330
2A
100
AcDbEntity
  8
1
100
AcDbLine
 10
126.9775059999999
 20
158.884562
 30
0.0
 11
96.97750599999997
 21
158.884562
 31
0.0
  0
LINE
  5
4C88
330
2A
100
AcDbEntity
  8
1
100
AcDbLine
 10
126.9775059999999
 20
162.348664
 30
0.0
 11
96.97750599999997
 21
162.348664
 31
0.0
  0
LINE
  5
4C89
330
2A
100
AcDbEntity
  8
1
  6
HIDDEN
 62
     4
370
    13
100
AcDbLine
 10
151.867982
 20
438.82852
 30
0.0
 11
151.867982
 21
441.3909599999999
 31
0.0
  0
LINE
  5
4C8A
330
2A
100
AcDbEntity
  8
1
  6
HIDDEN
 62
     4
370
    13
100
AcDbLine
 10
151.867982
 20
428.3909599999999
 30
0.0
 11
151.867982
 21
433.9533999999998
 31
0.0
  0
ARC
  5
4C8B
330
2A
100
AcDbEntity
  8
1
  6
HIDDEN
 62
     4
370
    13
100
AcDbCircle
 10
150.4775059999999
 20
435.3909599999999
 30
0.0
 40
2.0
100
AcDbArc
 50
270.0
 51
0.0
  0
ARC
  5
4C8C
330
2A
100
AcDbEntity
  8
1
  6
HIDDEN
 62
     4
370
    13
100
AcDbCircle
 10
150.4775059999999
 20
437.3909599999999
 30
0.0
 40
2.0
100
AcDbArc
 50
0.0
 51
90.0
  0
LINE
  5
4C8D
330
2A
100
AcDbEntity
  8
1
  6
HIDDEN
 62
     4
370
    13
100
AcDbLine
 10
150.4775059999999
 20
433.3909599999999
 30
0.0
 11
147.8275060000001
 21
433.3909599999999
 31
0.0
  0
LINE
  5
4C8E
330
2A
100
AcDbEntity
  8
1
  6
HIDDEN
 62
     4
370
    13
100
AcDbLine
 10
150.4775059999999
 20
439.3909599999998
 30
0.0
 11
147.8275060000001
 21
439.3909599999998
 31
0.0
  0
ARC
  5
4C8F
330
2A
100
AcDbEntity
  8
1
  6
HIDDEN
 62
     4
370
    13
100
AcDbCircle
 10
149.8679819999999
 20
426.847894
 30
0.0
 40
2.0
100
AcDbArc
 50
0.0
 51
75.30278000000098
  0
ARC
  5
4C90
330
2A
100
AcDbEntity
  8
1
  6
HIDDEN
 62
     4
370
    13
100
AcDbCircle
 10
149.8679819999999
 20
442.9340279999998
 30
0.0
 40
2.0
100
AcDbArc
 50
284.697219999999
 51
0.0
  0
LINE
  5
4C91
330
2A
100
AcDbEntity
  8
1
  6
HIDDEN
 62
     4
370
    13
100
AcDbLine
 10
147.8275060000001
 20
429.4507499999999
 30
0.0
 11
150.3754039999999
 21
428.782454
 31
0.0
  0
LINE
  5
4C92
330
2A
100
AcDbEntity
  8
1
  6
HIDDEN
 62
     4
370
    13
100
AcDbLine
 10
147.8275060000001
 20
440.3311719999999
 30
0.0
 11
150.3754039999999
 21
440.9994679999998
 31
0.0
  0
LINE
  5
4C93
330
2A
100
AcDbEntity
  8
1
  6
HIDDEN
 62
     4
370
    13
100
AcDbLine
 10
150.3754039999999
 20
441.3909599999999
 30
0.0
 11
147.8275060000001
 21
441.3909599999999
 31
0.0
  0
LINE
  5
4C94
330
2A
100
AcDbEntity
  8
1
  6
HIDDEN
 62
     4
370
    13
100
AcDbLine
 10
150.3754039999999
 20
428.3909599999999
 30
0.0
 11
147.8275060000001
 21
428.3909599999999
 31
0.0
  0
LINE
  5
4C95
330
2A
100
AcDbEntity
  8
1
  6
HIDDEN
 62
     4
370
    13
100
AcDbLine
 10
152.4775059999999
 20
421.3909599999999
 30
0.0
 11
152.4775059999999
 21
454.3909599999999
 31
0.0
  0
LINE
  5
4C96
330
2A
100
AcDbEntity
  8
1
  6
HIDDEN
 62
     4
370
    13
100
AcDbLine
 10
152.4775059999999
 20
421.3909599999999
 30
0.0
 11
147.8275060000001
 21
421.3909599999999
 31
0.0
  0
LINE
  5
4C97
330
2A
100
AcDbEntity
  8
1
  6
HIDDEN
 62
     4
370
    13
100
AcDbLine
 10
152.4775059999999
 20
454.3909599999999
 30
0.0
 11
147.8275060000001
 21
454.3909599999999
 31
0.0
  0
LINE
  5
4C98
330
2A
100
AcDbEntity
  8
1
  6
HIDDEN
 62
     4
370
    13
100
AcDbLine
 10
72.08703199999991
 20
438.82852
 30
0.0
 11
72.08703199999991
 21
441.3909599999999
 31
0.0
  0
LINE
  5
4C99
330
2A
100
AcDbEntity
  8
1
  6
HIDDEN
 62
     4
370
    13
100
AcDbLine
 10
72.08703199999991
 20
428.3909599999999
 30
0.0
 11
72.08703199999991
 21
433.9533999999998
 31
0.0
  0
ARC
  5
4C9A
330
2A
100
AcDbEntity
  8
1
  6
HIDDEN
 62
     4
370
    13
100
AcDbCircle
 10
73.47750599999995
 20
435.3909599999999
 30
0.0
 40
2.0
100
AcDbArc
 50
180.0
 51
270.0
  0
ARC
  5
4C9B
330
2A
100
AcDbEntity
  8
1
  6
HIDDEN
 62
     4
370
    13
100
AcDbCircle
 10
73.47750599999995
 20
437.3909599999999
 30
0.0
 40
2.0
100
AcDbArc
 50
90.0
 51
180.0
  0
LINE
  5
4C9C
330
2A
100
AcDbEntity
  8
1
  6
HIDDEN
 62
     4
370
    13
100
AcDbLine
 10
73.47750599999995
 20
433.3909599999999
 30
0.0
 11
77.82750600000007
 21
433.3909599999999
 31
0.0
  0
LINE
  5
4C9D
330
2A
100
AcDbEntity
  8
1
  6
HIDDEN
 62
     4
370
    13
100
AcDbLine
 10
73.47750599999995
 20
439.3909599999998
 30
0.0
 11
77.82750600000007
 21
439.3909599999998
 31
0.0
  0
ARC
  5
4C9E
330
2A
100
AcDbEntity
  8
1
  6
HIDDEN
 62
     4
370
    13
100
AcDbCircle
 10
74.0870319999999
 20
426.847894
 30
0.0
 40
2.0
100
AcDbArc
 50
104.697219999999
 51
180.0
  0
ARC
  5
4C9F
330
2A
100
AcDbEntity
  8
1
  6
HIDDEN
 62
     4
370
    13
100
AcDbCircle
 10
74.0870319999999
 20
442.9340279999998
 30
0.0
 40
2.0
100
AcDbArc
 50
180.0
 51
255.3027800000009
  0
LINE
  5
4CA0
330
2A
100
AcDbEntity
  8
1
  6
HIDDEN
 62
     4
370
    13
100
AcDbLine
 10
77.82750600000007
 20
429.896648
 30
0.0
 11
73.57961
 21
428.782454
 31
0.0
  0
LINE
  5
4CA1
330
2A
100
AcDbEntity
  8
1
  6
HIDDEN
 62
     4
370
    13
100
AcDbLine
 10
77.82750600000007
 20
439.8852719999998
 30
0.0
 11
73.57961
 21
440.9994679999998
 31
0.0
  0
LINE
  5
4CA2
330
2A
100
AcDbEntity
  8
1
  6
HIDDEN
 62
     4
370
    13
100
AcDbLine
 10
73.57961
 20
441.3909599999999
 30
0.0
 11
77.82750600000007
 21
441.3909599999999
 31
0.0
  0
LINE
  5
4CA3
330
2A
100
AcDbEntity
  8
1
  6
HIDDEN
 62
     4
370
    13
100
AcDbLine
 10
73.57961
 20
428.3909599999999
 30
0.0
 11
77.82750600000007
 21
428.3909599999999
 31
0.0
  0
LINE
  5
4CA4
330
2A
100
AcDbEntity
  8
1
  6
HIDDEN
 62
     4
370
    13
100
AcDbLine
 10
71.47750599999993
 20
421.3909599999999
 30
0.0
 11
71.47750599999993
 21
454.3909599999999
 31
0.0
  0
LINE
  5
4CA5
330
2A
100
AcDbEntity
  8
1
  6
HIDDEN
 62
     4
370
    13
100
AcDbLine
 10
71.47750599999993
 20
421.3909599999999
 30
0.0
 11
77.82750600000007
 21
421.3909599999999
 31
0.0
  0
LINE
  5
4CA6
330
2A
100
AcDbEntity
  8
1
  6
HIDDEN
 62
     4
370
    13
100
AcDbLine
 10
71.47750599999993
 20
454.3909599999999
 30
0.0
 11
77.82750600000007
 21
454.3909599999999
 31
0.0
  0
ARC
  5
4CA7
330
2A
100
AcDbEntity
  8
1
  6
HIDDEN
 62
     4
370
    13
100
AcDbCircle
 10
137.8275060000001
 20
411.39096
 30
0.0
 40
10.0
100
AcDbArc
 50
270.0
 51
0.0
  0
ARC
  5
4CA8
330
2A
100
AcDbEntity
  8
1
  6
HIDDEN
 62
     4
370
    13
100
AcDbCircle
 10
87.82750600000007
 20
411.39096
 30
0.0
 40
10.0
100
AcDbArc
 50
180.0
 51
270.0
  0
ARC
  5
4CA9
330
2A
100
AcDbEntity
  8
1
  6
HIDDEN
 62
     4
370
    13
100
AcDbCircle
 10
87.82750600000007
 20
461.3909599999999
 30
0.0
 40
10.0
100
AcDbArc
 50
90.0
 51
180.0
  0
ARC
  5
4CAA
330
2A
100
AcDbEntity
  8
1
  6
HIDDEN
 62
     4
370
    13
100
AcDbCircle
 10
137.8275060000001
 20
461.3909599999999
 30
0.0
 40
10.0
100
AcDbArc
 50
0.0
 51
90.0
  0
LINE
  5
4CAB
330
2A
100
AcDbEntity
  8
1
  6
HIDDEN
 62
     4
370
    13
100
AcDbLine
 10
87.82750600000007
 20
401.3909599999998
 30
0.0
 11
137.8275060000001
 21
401.3909599999998
 31
0.0
  0
LINE
  5
4CAC
330
2A
100
AcDbEntity
  8
1
  6
HIDDEN
 62
     4
370
    13
100
AcDbLine
 10
87.82750600000007
 20
471.39096
 30
0.0
 11
137.8275060000001
 21
471.39096
 31
0.0
  0
LINE
  5
4CAD
330
2A
100
AcDbEntity
  8
1
  6
HIDDEN
 62
     4
370
    13
100
AcDbLine
 10
147.8275060000001
 20
411.39096
 30
0.0
 11
147.8275060000001
 21
461.3909599999999
 31
0.0
  0
LINE
  5
4CAE
330
2A
100
AcDbEntity
  8
1
  6
HIDDEN
 62
     4
370
    13
100
AcDbLine
 10
77.82750600000007
 20
411.39096
 30
0.0
 11
77.82750600000007
 21
461.3909599999999
 31
0.0
  0
LINE
  5
4CAF
330
2A
100
AcDbEntity
  8
1
100
AcDbLine
 10
102.4775059999999
 20
55.34866399999998
 30
0.0
 11
102.9775059999999
 21
54.04866400000003
 31
0.0
  0
LINE
  5
4CB0
330
2A
100
AcDbEntity
  8
1
100
AcDbLine
 10
102.4775059999999
 20
54.04866400000003
 30
0.0
 11
101.9775059999999
 21
55.34866399999998
 31
0.0
  0
LINE
  5
4CB1
330
2A
100
AcDbEntity
  8
1
100
AcDbLine
 10
97.87750600000004
 20
54.04866400000003
 30
0.0
 11
97.87750600000004
 21
55.34866399999998
 31
0.0
  0
LINE
  5
4CB2
330
2A
100
AcDbEntity
  8
1
100
AcDbLine
 10
107.077506
 20
54.04866400000003
 30
0.0
 11
97.87750600000004
 21
54.04866400000003
 31
0.0
  0
LINE
  5
4CB3
330
2A
100
AcDbEntity
  8
1
100
AcDbLine
 10
107.077506
 20
55.34866399999998
 30
0.0
 11
107.077506
 21
54.04866400000003
 31
0.0
  0
ARC
  5
4CB4
330
2A
100
AcDbEntity
  8
1
100
AcDbCircle
 10
99.0275059999999
 20
52.43117200000007
 30
0.0
 40
1.872982
100
AcDbArc
 50
232.1211210000013
 51
307.8788789999987
  0
LINE
  5
4CB5
330
2A
100
AcDbEntity
  8
1
100
AcDbLine
 10
100.177506
 20
54.04866400000003
 30
0.0
 11
100.177506
 21
50.95280800000001
 31
0.0
  0
LINE
  5
4CB6
330
2A
100
AcDbEntity
  8
1
100
AcDbLine
 10
98.57750600000008
 20
50.54866400000003
 30
0.0
 11
106.377506
 21
50.54866400000003
 31
0.0
  0
LINE
  5
4CB7
330
2A
100
AcDbEntity
  8
1
100
AcDbLine
 10
97.87750600000004
 20
50.95280800000001
 30
0.0
 11
98.57750600000008
 21
50.54866400000003
 31
0.0
  0
LINE
  5
4CB8
330
2A
100
AcDbEntity
  8
1
100
AcDbLine
 10
97.87750600000004
 20
54.04866400000003
 30
0.0
 11
97.87750600000004
 21
50.95280800000001
 31
0.0
  0
ARC
  5
4CB9
330
2A
100
AcDbEntity
  8
1
100
AcDbCircle
 10
102.4775059999999
 20
57.45819
 30
0.0
 40
6.9
100
AcDbArc
 50
250.528777000002
 51
289.4712189999987
  0
ARC
  5
4CBA
330
2A
100
AcDbEntity
  8
1
100
AcDbCircle
 10
105.927506
 20
52.43117200000007
 30
0.0
 40
1.872982
100
AcDbArc
 50
232.1211210000013
 51
307.8788789999987
  0
LINE
  5
4CBB
330
2A
100
AcDbEntity
  8
1
100
AcDbLine
 10
104.7775059999999
 20
54.04866400000003
 30
0.0
 11
104.7775059999999
 21
50.95280800000001
 31
0.0
  0
LINE
  5
4CBC
330
2A
100
AcDbEntity
  8
1
100
AcDbLine
 10
107.077506
 20
50.95280800000001
 30
0.0
 11
106.377506
 21
50.54866400000003
 31
0.0
  0
LINE
  5
4CBD
330
2A
100
AcDbEntity
  8
1
100
AcDbLine
 10
107.077506
 20
54.04866400000003
 30
0.0
 11
107.077506
 21
50.95280800000001
 31
0.0
  0
LINE
  5
4CBE
330
2A
100
AcDbEntity
  8
1
100
AcDbLine
 10
121.4775059999999
 20
55.34866399999998
 30
0.0
 11
121.9775059999999
 21
54.04866400000003
 31
0.0
  0
LINE
  5
4CBF
330
2A
100
AcDbEntity
  8
1
100
AcDbLine
 10
121.4775059999999
 20
54.04866400000003
 30
0.0
 11
120.9775059999999
 21
55.34866399999998
 31
0.0
  0
LINE
  5
4CC0
330
2A
100
AcDbEntity
  8
1
100
AcDbLine
 10
116.877506
 20
54.04866400000003
 30
0.0
 11
116.877506
 21
55.34866399999998
 31
0.0
  0
LINE
  5
4CC1
330
2A
100
AcDbEntity
  8
1
100
AcDbLine
 10
126.0775060000001
 20
54.04866400000003
 30
0.0
 11
116.877506
 21
54.04866400000003
 31
0.0
  0
LINE
  5
4CC2
330
2A
100
AcDbEntity
  8
1
100
AcDbLine
 10
126.0775060000001
 20
55.34866399999998
 30
0.0
 11
126.0775060000001
 21
54.04866400000003
 31
0.0
  0
ARC
  5
4CC3
330
2A
100
AcDbEntity
  8
1
100
AcDbCircle
 10
118.0275059999999
 20
52.43117200000007
 30
0.0
 40
1.872982
100
AcDbArc
 50
232.1211210000013
 51
307.8788789999987
  0
LINE
  5
4CC4
330
2A
100
AcDbEntity
  8
1
100
AcDbLine
 10
119.177506
 20
54.04866400000003
 30
0.0
 11
119.177506
 21
50.95280800000001
 31
0.0
  0
LINE
  5
4CC5
330
2A
100
AcDbEntity
  8
1
100
AcDbLine
 10
117.5775060000001
 20
50.54866400000003
 30
0.0
 11
125.377506
 21
50.54866400000003
 31
0.0
  0
LINE
  5
4CC6
330
2A
100
AcDbEntity
  8
1
100
AcDbLine
 10
116.877506
 20
50.95280800000001
 30
0.0
 11
117.5775060000001
 21
50.54866400000003
 31
0.0
  0
LINE
  5
4CC7
330
2A
100
AcDbEntity
  8
1
100
AcDbLine
 10
116.877506
 20
54.04866400000003
 30
0.0
 11
116.877506
 21
50.95280800000001
 31
0.0
  0
ARC
  5
4CC8
330
2A
100
AcDbEntity
  8
1
100
AcDbCircle
 10
121.4775059999999
 20
57.45819
 30
0.0
 40
6.9
100
AcDbArc
 50
250.528777000002
 51
289.4712189999987
  0
ARC
  5
4CC9
330
2A
100
AcDbEntity
  8
1
100
AcDbCircle
 10
124.927506
 20
52.43117200000007
 30
0.0
 40
1.872982
100
AcDbArc
 50
232.1211210000013
 51
307.8788789999987
  0
LINE
  5
4CCA
330
2A
100
AcDbEntity
  8
1
100
AcDbLine
 10
123.7775059999999
 20
54.04866400000003
 30
0.0
 11
123.7775059999999
 21
50.95280800000001
 31
0.0
  0
LINE
  5
4CCB
330
2A
100
AcDbEntity
  8
1
100
AcDbLine
 10
126.0775060000001
 20
50.95280800000001
 30
0.0
 11
125.377506
 21
50.54866400000003
 31
0.0
  0
LINE
  5
4CCC
330
2A
100
AcDbEntity
  8
1
100
AcDbLine
 10
126.0775060000001
 20
54.04866400000003
 30
0.0
 11
126.0775060000001
 21
50.95280800000001
 31
0.0
  0
LINE
  5
4CCD
330
2A
100
AcDbEntity
  8
1
100
AcDbLine
 10
96.97750599999997
 20
55.34866399999998
 30
0.0
 11
126.9775059999999
 21
55.34866399999998
 31
0.0
  0
LINE
  5
4CCE
330
2A
100
AcDbEntity
  8
1
100
AcDbLine
 10
96.97750599999997
 20
58.34866399999999
 30
0.0
 11
126.9775059999999
 21
58.34866399999999
 31
0.0
  0
LINE
  5
4CCF
330
2A
100
AcDbEntity
  8
1
  6
CENTER
 62
     2
370
    13
100
AcDbLine
 10
121.4775059999999
 20
64.65032999999994
 30
0.0
 11
121.4775059999999
 21
47.34452799999997
 31
0.0
  0
LINE
  5
4CD0
330
2A
100
AcDbEntity
  8
1
  6
CENTER
 62
     2
370
    13
100
AcDbLine
 10
102.4775059999999
 20
64.65032999999994
 30
0.0
 11
102.4775059999999
 21
47.34452799999997
 31
0.0
  0
ARC
  5
4CD1
330
2A
100
AcDbEntity
  8
1
100
AcDbCircle
 10
93.97750599999994
 20
59.84866399999997
 30
0.0
 40
3.0
100
AcDbArc
 50
0.0
 51
90.0
  0
ARC
  5
4CD2
330
2A
100
AcDbEntity
  8
1
100
AcDbCircle
 10
129.9775059999999
 20
59.84866399999997
 30
0.0
 40
3.0
100
AcDbArc
 50
90.0
 51
180.0
  0
LINE
  5
4CD3
330
2A
100
AcDbEntity
  8
1
100
AcDbLine
 10
129.9775059999999
 20
62.84866399999998
 30
0.0
 11
139.5298239999999
 21
62.84866399999998
 31
0.0
  0
LINE
  5
4CD4
330
2A
100
AcDbEntity
  8
1
100
AcDbLine
 10
84.42518999999993
 20
62.84866399999998
 30
0.0
 11
93.97750599999994
 21
62.84866399999998
 31
0.0
  0
LINE
  5
4CD5
330
2A
100
AcDbEntity
  8
1
100
AcDbLine
 10
81.64363800000002
 20
66.97248200000001
 30
0.0
 11
87.84572200000004
 21
82.32317999999997
 31
0.0
  0
ARC
  5
4CD6
330
2A
100
AcDbEntity
  8
1
100
AcDbCircle
 10
84.42518999999993
 20
65.84866399999999
 30
0.0
 40
3.0
100
AcDbArc
 50
157.9999999999998
 51
270.0
  0
ARC
  5
4CD7
330
2A
100
AcDbEntity
  8
1
100
AcDbCircle
 10
139.5298239999999
 20
65.84866399999999
 30
0.0
 40
3.0
100
AcDbArc
 50
270.0
 51
22.00000000000022
  0
LINE
  5
4CD8
330
2A
100
AcDbEntity
  8
1
100
AcDbLine
 10
142.3113759999998
 20
66.97248200000001
 30
0.0
 11
136.1092899999998
 21
82.32317999999997
 31
0.0
  0
ARC
  5
4CD9
330
2A
100
AcDbEntity
  8
1
100
AcDbCircle
 10
78.38993400000005
 20
148.436236
 30
0.0
 40
7.0
100
AcDbArc
 50
0.0
 51
20.09893800000066
  0
ARC
  5
4CDA
330
2A
100
AcDbEntity
  8
1
100
AcDbCircle
 10
145.5650780000001
 20
148.436236
 30
0.0
 40
7.0
100
AcDbArc
 50
159.9010619999993
 51
180.0
  0
LINE
  5
4CDB
330
2A
100
AcDbEntity
  8
1
100
AcDbLine
 10
85.38993400000006
 20
148.436236
 30
0.0
 11
85.38993400000006
 21
145.3994579999999
 31
0.0
  0
LINE
  5
4CDC
330
2A
100
AcDbEntity
  8
1
100
AcDbLine
 10
138.5650780000001
 20
148.436236
 30
0.0
 11
138.5650780000001
 21
145.3994579999999
 31
0.0
  0
ARC
  5
4CDD
330
2A
100
AcDbEntity
  8
1
100
AcDbCircle
 10
72.97750599999995
 20
169.125282
 30
0.0
 40
1.5
100
AcDbArc
 50
119.3777920000005
 51
180.0
  0
ARC
  5
4CDE
330
2A
100
AcDbEntity
  8
1
100
AcDbCircle
 10
72.97750599999995
 20
167.585432
 30
0.0
 40
1.5
100
AcDbArc
 50
180.0
 51
264.0070019999974
  0
ARC
  5
4CDF
330
2A
100
AcDbEntity
  8
1
100
AcDbCircle
 10
150.9775059999999
 20
167.585432
 30
0.0
 40
1.5
100
AcDbArc
 50
275.9929979999961
 51
0.0
  0
ARC
  5
4CE0
330
2A
100
AcDbEntity
  8
1
100
AcDbCircle
 10
150.9775059999999
 20
169.125282
 30
0.0
 40
1.5
100
AcDbArc
 50
0.0
 51
60.62220799999945
  0
ARC
  5
4CE1
330
2A
100
AcDbEntity
  8
1
100
AcDbCircle
 10
71.6724200000001
 20
155.15375
 30
0.0
 40
11.0
100
AcDbArc
 50
20.09893800000066
 51
84.00700199999738
  0
ARC
  5
4CE2
330
2A
100
AcDbEntity
  8
1
100
AcDbCircle
 10
152.282594
 20
155.15375
 30
0.0
 40
11.0
100
AcDbArc
 50
95.9929980000026
 51
159.9010619999993
  0
LINE
  5
4CE3
330
2A
100
AcDbEntity
  8
1
100
AcDbLine
 10
82.00252599999997
 20
158.933814
 30
0.0
 11
84.96363799999995
 21
150.8417319999999
 31
0.0
  0
LINE
  5
4CE4
330
2A
100
AcDbEntity
  8
1
100
AcDbLine
 10
141.9524859999999
 20
158.933814
 30
0.0
 11
138.9913739999999
 21
150.8417319999999
 31
0.0
  0
ARC
  5
4CE5
330
2A
100
AcDbEntity
  8
1
100
AcDbCircle
 10
93.97750599999994
 20
181.8974299999999
 30
0.0
 40
3.0
100
AcDbArc
 50
282.3736250000038
 51
0.0
  0
ARC
  5
4CE6
330
2A
100
AcDbEntity
  8
1
100
AcDbCircle
 10
129.9775059999999
 20
181.8974299999999
 30
0.0
 40
3.0
100
AcDbArc
 50
180.0
 51
257.6263749999962
  0
ARC
  5
4CE7
330
2A
100
AcDbEntity
  8
1
100
AcDbCircle
 10
111.9775059999999
 20
99.84866400000001
 30
0.0
 40
81.0
100
AcDbArc
 50
102.3736250000037
 51
119.3777920000005
  0
ARC
  5
4CE8
330
2A
100
AcDbEntity
  8
1
100
AcDbCircle
 10
111.9775059999999
 20
99.84866400000001
 30
0.0
 40
81.0
100
AcDbArc
 50
60.62220799999945
 51
77.62637499999623
  0
LINE
  5
4CE9
330
2A
100
AcDbEntity
  8
1
100
AcDbLine
 10
152.4775059999999
 20
169.125282
 30
0.0
 11
152.4775059999999
 21
167.585432
 31
0.0
  0
LINE
  5
4CEA
330
2A
100
AcDbEntity
  8
1
100
AcDbLine
 10
71.47750599999993
 20
169.125282
 30
0.0
 11
71.47750599999993
 21
167.585432
 31
0.0
  0
ARC
  5
4CEB
330
2A
100
AcDbEntity
  8
1
100
AcDbCircle
 10
107.8275060000001
 20
218.848664
 30
0.0
 40
2.0
100
AcDbArc
 50
0.0
 51
90.0
  0
ARC
  5
4CEC
330
2A
100
AcDbEntity
  8
1
100
AcDbCircle
 10
117.8275060000001
 20
218.848664
 30
0.0
 40
2.0
100
AcDbArc
 50
90.0
 51
180.0
  0
ARC
  5
4CED
330
2A
100
AcDbEntity
  8
1
100
AcDbCircle
 10
117.8275060000001
 20
207.848664
 30
0.0
 40
2.0
100
AcDbArc
 50
180.0
 51
270.0
  0
ARC
  5
4CEE
330
2A
100
AcDbEntity
  8
1
100
AcDbCircle
 10
107.8275060000001
 20
207.848664
 30
0.0
 40
2.0
100
AcDbArc
 50
270.0
 51
0.0
  0
LINE
  5
4CEF
330
2A
100
AcDbEntity
  8
1
100
AcDbLine
 10
115.8275060000001
 20
218.848664
 30
0.0
 11
115.8275060000001
 21
207.848664
 31
0.0
  0
LINE
  5
4CF0
330
2A
100
AcDbEntity
  8
1
100
AcDbLine
 10
109.8275060000001
 20
218.848664
 30
0.0
 11
109.8275060000001
 21
207.848664
 31
0.0
  0
LINE
  5
4CF1
330
2A
100
AcDbEntity
  8
1
100
AcDbLine
 10
115.8275060000001
 20
205.848664
 30
0.0
 11
109.8275060000001
 21
205.848664
 31
0.0
  0
ARC
  5
4CF2
330
2A
100
AcDbEntity
  8
1
100
AcDbCircle
 10
81.97750599999995
 20
205.848664
 30
0.0
 40
15.0
100
AcDbArc
 50
0.0
 51
90.0
  0
ARC
  5
4CF3
330
2A
100
AcDbEntity
  8
1
100
AcDbCircle
 10
141.9775059999999
 20
205.848664
 30
0.0
 40
15.0
100
AcDbArc
 50
142.5060399999989
 51
180.0
  0
ARC
  5
4CF4
330
2A
100
AcDbEntity
  8
1
100
AcDbCircle
 10
91.97750599999997
 20
215.848664
 30
0.0
 40
5.0
100
AcDbArc
 50
0.0
 51
90.0
  0
ARC
  5
4CF5
330
2A
100
AcDbEntity
  8
1
100
AcDbCircle
 10
131.9775059999999
 20
215.848664
 30
0.0
 40
5.0
100
AcDbArc
 50
114.8505319999974
 51
180.0
  0
ARC
  5
4CF6
330
2A
100
AcDbEntity
  8
1
100
AcDbCircle
 10
143.8275060000001
 20
224.848664
 30
0.0
 40
4.0
100
AcDbArc
 50
270.0
 51
0.0
  0
ARC
  5
4CF7
330
2A
100
AcDbEntity
  8
1
100
AcDbCircle
 10
81.8275060000001
 20
224.848664
 30
0.0
 40
4.0
100
AcDbArc
 50
180.0
 51
270.0
  0
LINE
  5
4CF8
330
2A
100
AcDbEntity
  8
1
100
AcDbLine
 10
77.82750600000007
 20
232.848664
 30
0.0
 11
77.82750600000007
 21
224.848664
 31
0.0
  0
LINE
  5
4CF9
330
2A
100
AcDbEntity
  8
1
100
AcDbLine
 10
147.8275060000001
 20
232.848664
 30
0.0
 11
147.8275060000001
 21
224.848664
 31
0.0
  0
LINE
  5
4CFA
330
2A
100
AcDbEntity
  8
1
100
AcDbLine
 10
80.37877000000003
 20
220.848664
 30
0.0
 11
145.2762439999999
 21
220.848664
 31
0.0
  0
ARC
  5
4CFB
330
2A
100
AcDbEntity
  8
1
100
AcDbCircle
 10
93.97750599999994
 20
75.24752599999998
 30
0.0
 40
3.0
100
AcDbArc
 50
0.0
 51
65.55666499999874
  0
ARC
  5
4CFC
330
2A
100
AcDbEntity
  8
1
100
AcDbCircle
 10
129.9775059999999
 20
75.24752599999998
 30
0.0
 40
3.0
100
AcDbArc
 50
114.4433350000012
 51
180.0
  0
ARC
  5
4CFD
330
2A
100
AcDbEntity
  8
1
100
AcDbCircle
 10
93.97750599999994
 20
154.4498
 30
0.0
 40
3.0
100
AcDbArc
 50
294.4433350000013
 51
0.0
  0
ARC
  5
4CFE
330
2A
100
AcDbEntity
  8
1
100
AcDbCircle
 10
129.9775059999999
 20
154.4498
 30
0.0
 40
3.0
100
AcDbArc
 50
180.0
 51
245.5566649999987
  0
LINE
  5
4CFF
330
2A
100
AcDbEntity
  8
1
100
AcDbLine
 10
96.97750599999997
 20
154.4498
 30
0.0
 11
96.97750599999997
 21
215.848664
 31
0.0
  0
LINE
  5
4D00
330
2A
100
AcDbEntity
  8
1
100
AcDbLine
 10
96.97750599999997
 20
55.34866399999998
 30
0.0
 11
96.97750599999997
 21
75.24752599999998
 31
0.0
  0
LINE
  5
4D01
330
2A
100
AcDbEntity
  8
1
100
AcDbLine
 10
126.9775059999999
 20
154.4498
 30
0.0
 11
126.9775059999999
 21
215.848664
 31
0.0
  0
LINE
  5
4D02
330
2A
100
AcDbEntity
  8
1
100
AcDbLine
 10
126.9775059999999
 20
55.34866399999998
 30
0.0
 11
126.9775059999999
 21
75.24752599999998
 31
0.0
  0
CIRCLE
  5
4D03
330
2A
100
AcDbEntity
  8
1
100
AcDbCircle
 10
111.9775059999999
 20
114.848664
 30
0.0
 40
24.0
  0
CIRCLE
  5
4D04
330
2A
100
AcDbEntity
  8
1
100
AcDbCircle
 10
111.9775059999999
 20
114.848664
 30
0.0
 40
40.49999999999999
  0
LINE
  5
4D05
330
2A
100
AcDbEntity
  8
1
100
AcDbLine
 10
96.97750599999997
 20
59.84866399999997
 30
0.0
 11
126.9775059999999
 21
59.84866399999997
 31
0.0
  0
LINE
  5
4D06
330
2A
100
AcDbEntity
  8
1
100
AcDbLine
 10
77.82750600000007
 20
232.848664
 30
0.0
 11
147.8275060000001
 21
232.848664
 31
0.0
  0
LINE
  5
4D07
330
2A
100
AcDbEntity
  8
1
  6
CENTER
 62
     2
370
    13
100
AcDbLine
 10
111.9775059999999
 20
227.597198
 30
0.0
 11
111.9775059999999
 21
51.38705400000002
 31
0.0
  0
LINE
  5
4D08
330
2A
100
AcDbEntity
  8
1
  6
CENTER
 62
     2
370
    13
100
AcDbLine
 10
58.90675199999998
 20
114.848664
 30
0.0
 11
164.789092
 21
114.848664
 31
0.0
  0
LINE
  5
4D09
330
2A
100
AcDbEntity
  8
1
  6
CENTER
 62
     2
370
    13
100
AcDbLine
 10
111.9775059999999
 20
395.520522
 30
0.0
 11
111.9775059999999
 21
476.7360219999998
 31
0.0
  0
ENDSEC
  0
SECTION
  2
OBJECTS
  0
DICTIONARY
  5
68A
330
0
100
AcDbDictionary
281
     1
  3
ACAD_COLOR
350
698
  3
ACAD_GROUP
350
68B
  3
ACAD_LAYOUT
350
699
  3
ACAD_MATERIAL
350
697
  3
ACAD_MLINESTYLE
350
68C
  3
ACAD_PLOTSETTINGS
350
69A
  3
ACAD_PLOTSTYLENAME
350
695
  3
ACDBHEADERROUNDTRIPXREC
350
5002
  3
AcDbVariableDictionary
350
4178
  3
DWGPROPS
350
5001
  0
DICTIONARY
  5
698
102
{ACAD_REACTORS
330
68A
102
}
330
68A
100
AcDbDictionary
281
     1
  0
DICTIONARY
  5
68B
102
{ACAD_REACTORS
330
68A
102
}
330
68A
100
AcDbDictionary
281
     1
  0
DICTIONARY
  5
699
102
{ACAD_REACTORS
330
68A
102
}
330
68A
100
AcDbDictionary
281
     1
  3
Model
350
69B
  3
レイアウト1
350
69C
  0
DICTIONARY
  5
697
102
{ACAD_REACTORS
330
68A
102
}
330
68A
100
AcDbDictionary
281
     1
  0
DICTIONARY
  5
68C
102
{ACAD_REACTORS
330
68A
102
}
330
68A
100
AcDbDictionary
281
     1
  3
STANDARD
350
68D
  0
DICTIONARY
  5
69A
102
{ACAD_REACTORS
330
68A
102
}
330
68A
100
AcDbDictionary
281
     1
  0
ACDBDICTIONARYWDFLT
  5
695
102
{ACAD_REACTORS
330
68A
102
}
330
68A
100
AcDbDictionary
281
     1
  3
Normal
350
696
100
AcDbDictionaryWithDefault
340
696
  0
DICTIONARY
  5
5002
102
{ACAD_REACTORS
330
68A
102
}
330
68A
100
AcDbDictionary
281
     1
  3
COLORDICT
350
5004
  3
MATERIALDICT
350
5003
  0
DICTIONARY
  5
4178
102
{ACAD_REACTORS
330
68A
102
}
330
68A
100
AcDbDictionary
281
     1
  3
DIMASSOC
350
4179
  3
PROJECTNAME
350
417A
  0
XRECORD
  5
5001
102
{ACAD_REACTORS
330
68A
102
}
330
68A
100
AcDbXrecord
280
     1
  1
DWGPROPS COOKIE
  2

  3

  4

  6

  7

  8

  9

300
=
301
=
302
=
303
=
304
=
305
=
306
=
307
=
308
=
309
=
 40
0.1780549768518518
 41
2454113.0
 42
2454460.418390752
  1

 90
        0
  0
LAYOUT
  5
69B
102
{ACAD_XDICTIONARY
360
5005
102
}
102
{ACAD_REACTORS
330
699
102
}
330
699
100
AcDbPlotSettings
  1

  2
EMP01
  4
A4
  6

 40
5.873749732971191
 41
5.873747825622557
 42
5.873748779296875
 43
5.873748779296875
 44
209.9733276367186
 45
296.9259948730469
 46
2.509999999999999
 47
6.87
 48
0.0
 49
0.0
140
0.0
141
0.0
142
1.0
143
2.799999999999998
 70
 11940
 72
     1
 73
     1
 74
     2
  7
monochrome.ctb
 75
     0
147
0.3571428571428572
148
0.0
149
0.0
100
AcDbLayout
  1
Model
 70
     1
 71
     0
 10
0.0
 20
0.0
 11
12.0
 21
9.0
 12
0.0
 22
0.0
 32
0.0
 14
0.0
 24
0.0
 34
0.0
 15
0.0
 25
0.0
 35
0.0
146
0.0
 13
0.0
 23
0.0
 33
0.0
 16
1.0
 26
0.0
 36
0.0
 17
0.0
 27
1.0
 37
0.0
 76
     0
330
2A
  0
LAYOUT
  5
69C
102
{ACAD_XDICTIONARY
360
5007
102
}
102
{ACAD_REACTORS
330
699
102
}
330
699
100
AcDbPlotSettings
  1

  2
EMP01
  4

  6

 40
0.0
 41
0.0
 42
0.0
 43
0.0
 44
0.0
 45
0.0
 46
0.0
 47
0.0
 48
0.0
 49
0.0
140
0.0
141
0.0
142
1.0
143
1.0
 70
   688
 72
     0
 73
     0
 74
     5
  7
monochrome.ctb
 75
    16
147
1.0
148
0.0
149
0.0
100
AcDbLayout
  1
レイアウト1
 70
     0
 71
     1
 10
0.0
 20
0.0
 11
12.0
 21
9.0
 12
0.0
 22
0.0
 32
0.0
 14
1.000000000000000E+20
 24
1.000000000000000E+20
 34
1.000000000000000E+20
 15
-1.000000000000000E+20
 25
-1.000000000000000E+20
 35
-1.000000000000000E+20
146
0.0
 13
0.0
 23
0.0
 33
0.0
 16
1.0
 26
0.0
 36
0.0
 17
0.0
 27
1.0
 37
0.0
 76
     0
330
2B
  0
MLINESTYLE
  5
68D
102
{ACAD_REACTORS
330
68C
102
}
330
68C
100
AcDbMlineStyle
  2
STANDARD
 70
     0
  3

 62
     0
 51
90.0
 52
90.0
 71
     2
 49
0.5
 62
   256
  6
BYLAYER
 49
-0.5
 62
   256
  6
BYLAYER
  0
ACDBPLACEHOLDER
  5
696
102
{ACAD_REACTORS
330
695
102
}
330
695
  0
XRECORD
  5
5004
102
{ACAD_REACTORS
330
5002
102
}
330
5002
100
AcDbXrecord
280
     1
340
698
  0
XRECORD
  5
5003
102
{ACAD_REACTORS
330
5002
102
}
330
5002
100
AcDbXrecord
280
     1
340
697
  0
DICTIONARYVAR
  5
4179
102
{ACAD_REACTORS
330
4178
102
}
330
4178
100
DictionaryVariables
280
     0
  1
1
  0
DICTIONARYVAR
  5
417A
102
{ACAD_REACTORS
330
4178
102
}
330
4178
100
DictionaryVariables
280
     0
  1

  0
DICTIONARY
  5
5005
330
69B
100
AcDbDictionary
280
     1
281
     1
  3
ACAD_XREC_ROUNDTRIP
360
5006
  0
DICTIONARY
  5
5007
330
69C
100
AcDbDictionary
280
     1
281
     1
  3
ACAD_XREC_ROUNDTRIP
360
5008
  0
XRECORD
  5
5006
102
{ACAD_REACTORS
330
5005
102
}
330
5005
100
AcDbXrecord
280
     1
102
SHADEPLOT
 70
     0
102
SHADEPLOTRESLEVEL
 70
     2
102
SHADEPLOTCUSTOMDPI
 70
   300
  0
XRECORD
  5
5008
102
{ACAD_REACTORS
330
5007
102
}
330
5007
100
AcDbXrecord
280
     1
102
SHADEPLOT
 70
     0
102
SHADEPLOTRESLEVEL
 70
     2
102
SHADEPLOTCUSTOMDPI
 70
   300
  0
ENDSEC
  0
EOF
