  0
SECTION
  2
HEADER
  9
$ACADVER
  1
AC1012
  9
$DWGCODEPAGE
  3
ansi_932
  9
$INSBASE
 10
0.0
 20
0.0
 30
0.0
  9
$EXTMIN
 10
-420.0
 20
-297.0
 30
1.000000E+20
  9
$EXTMAX
 10
420.0
 20
297.0
 30
-1.000000E+20
  9
$LIMMIN
 10
-420.0
 20
-297.0
  9
$LIMMAX
 10
420.0
 20
297.0
  9
$ORTHOMODE
 70
     0
  9
$REGENMODE
 70
     1
  9
$FILLMODE
 70
     1
  9
$QTEXTMODE
 70
     0
  9
$MIRRTEXT
 70
     1
  9
$DRAGMODE
 70
     2
  9
$LTSCALE
 40
1.0
  9
$OSMODE
 70
     0
  9
$ATTMODE
 70
     1
  9
$TEXTSIZE
 40
0.2
  9
$TRACEWID
 40
0.05
  9
$TEXTSTYLE
  7
STANDARD
  9
$CLAYER
  8
0
  9
$CELTYPE
  6
CONTINUOUS
  9
$CECOLOR
 62
   256
  9
$CELTSCALE
 40
1.0
  9
$DELOBJ
 70
     1
  9
$DISPSILH
 70
     0
  9
$DIMSCALE
 40
2.0
  9
$DIMASZ
 40
0.18
  9
$DIMEXO
 40
0.0625
  9
$DIMDLI
 40
0.38
  9
$DIMRND
 40
0.0
  9
$DIMDLE
 40
0.0
  9
$DIMEXE
 40
0.18
  9
$DIMTP
 40
0.0
  9
$DIMTM
 40
0.0
  9
$DIMTXT
 40
0.18
  9
$DIMCEN
 40
0.09
  9
$DIMTSZ
 40
0.0
  9
$DIMTOL
 70
     0
  9
$DIMLIM
 70
     0
  9
$DIMTIH
 70
     1
  9
$DIMTOH
 70
     1
  9
$DIMSE1
 70
     0
  9
$DIMSE2
 70
     0
  9
$DIMTAD
 70
     1
  9
$DIMZIN
 70
     0
  9
$DIMBLK
  1

  9
$DIMASO
 70
     1
  9
$DIMSHO
 70
     1
  9
$DIMPOST
  1

  9
$DIMAPOST
  1

  9
$DIMALT
 70
     0
  9
$DIMALTD
 70
     2
  9
$DIMALTF
 40
25.4
  9
$DIMLFAC
 40
1.0
  9
$DIMTOFL
 70
     0
  9
$DIMTVP
 40
0.0
  9
$DIMTIX
 70
     0
  9
$DIMSOXD
 70
     0
  9
$DIMSAH
 70
     0
  9
$DIMBLK1
  1

  9
$DIMBLK2
  1

  9
$DIMSTYLE
  2
STANDARD
  9
$DIMCLRD
 70
     0
  9
$DIMCLRE
 70
     0
  9
$DIMCLRT
 70
     0
  9
$DIMTFAC
 40
1.0
  9
$DIMGAP
 40
0.09
  9
$DIMJUST
 70
     0
  9
$DIMSD1
 70
     0
  9
$DIMSD2
 70
     0
  9
$DIMTOLJ
 70
     1
  9
$DIMTZIN
 70
     0
  9
$DIMALTZ
 70
     0
  9
$DIMALTTZ
 70
     0
  9
$DIMFIT
 70
     3
  9
$DIMUPT
 70
     0
  9
$DIMUNIT
 70
     2
  9
$DIMDEC
 70
     4
  9
$DIMTDEC
 70
     4
  9
$DIMALTU
 70
     2
  9
$DIMALTTD
 70
     2
  9
$DIMTXSTY
  7
STANDARD
  9
$DIMAUNIT
 70
     0
  9
$LUNITS
 70
     2
  9
$LUPREC
 70
     4
  9
$SKETCHINC
 40
0.1
  9
$FILLETRAD
 40
0.0
  9
$AUNITS
 70
     0
  9
$AUPREC
 70
     0
  9
$MENU
  1
acad
  9
$ELEVATION
 40
0.0
  9
$PELEVATION
 40
0.0
  9
$THICKNESS
 40
0.0
  9
$LIMCHECK
 70
     0
  9
$BLIPMODE
 70
     1
  9
$CHAMFERA
 40
0.0
  9
$CHAMFERB
 40
0.0
  9
$CHAMFERC
 40
0.0
  9
$CHAMFERD
 40
0.0
  9
$SKPOLY
 70
     0
  9
$TDCREATE
 40
2451320.000000000
  9
$TDUPDATE
 40
0.000000000
  9
$TDINDWG
 40
0.0000000000
  9
$TDUSRTIMER
 40
0.0000000000
  9
$USRTIMER
 70
     1
  9
$ANGBASE
 50
0.0
  9
$ANGDIR
 70
     0
  9
$PDMODE
 70
     0
  9
$PDSIZE
 40
0.0
  9
$PLINEWID
 40
0.0
  9
$COORDS
 70
     0
  9
$SPLFRAME
 70
     0
  9
$SPLINETYPE
 70
     6
  9
$SPLINESEGS
 70
     8
  9
$ATTDIA
 70
     0
  9
$ATTREQ
 70
     1
  9
$HANDLING
 70
     1
  9
$HANDSEED
  5
68B
  9
$SURFTAB1
 70
     6
  9
$SURFTAB2
 70
     6
  9
$SURFTYPE
 70
     6
  9
$SURFU
 70
     6
  9
$SURFV
 70
     6
  9
$UCSNAME
  2

  9
$UCSORG
 10
0.0
 20
0.0
 30
0.0
  9
$UCSXDIR
 10
1.0
 20
0.0
 30
0.0
  9
$UCSYDIR
 10
0.0
 20
1.0
 30
0.0
  9
$PUCSNAME
  2

  9
$PUCSORG
 10
0.0
 20
0.0
 30
0.0
  9
$PUCSXDIR
 10
1.0
 20
0.0
 30
0.0
  9
$PUCSYDIR
 10
0.0
 20
1.0
 30
0.0
  9
$USERI1
 70
     0
  9
$USERI2
 70
     0
  9
$USERI3
 70
     0
  9
$USERI4
 70
     0
  9
$USERI5
 70
     0
  9
$USERR1
 40
0.0
  9
$USERR2
 40
0.0
  9
$USERR3
 40
0.0
  9
$USERR4
 40
0.0
  9
$USERR5
 40
0.0
  9
$WORLDVIEW
 70
     1
  9
$SHADEDGE
 70
     3
  9
$SHADEDIF
 70
    70
  9
$TILEMODE
 70
     1
  9
$MAXACTVP
 70
    16
  9
$PINSBASE
 10
0.0
 20
0.0
 30
0.0
  9
$PLIMCHECK
 70
     0
  9
$PEXTMIN
 10
1.000000E+20
 20
1.000000E+20
 30
1.000000E+20
  9
$PEXTMAX
 10
-1.000000E+20
 20
-1.000000E+20
 30
-1.000000E+20
  9
$PLIMMIN
 10
0.0
 20
0.0
  9
$PLIMMAX
 10
12.0
 20
9.0
  9
$UNITMODE
 70
     0
  9
$VISRETAIN
 70
     0
  9
$PLINEGEN
 70
     1
  9
$PSLTSCALE
 70
     0
  9
$TREEDEPTH
 70
  3020
  9
$PICKSTYLE
 70
     1
  9
$CMLSTYLE
  2
STANDARD
  9
$CMLJUST
 70
     0
  9
$CMLSCALE
 40
1.0
  9
$SAVEIMAGES
 70
     0
  0
ENDSEC
  0
SECTION
  2
CLASSES
  0
CLASS
  1
LWPOLYLINE
  2
AcDbPolyline
  3
"AutoCAD"
 90
    32768
280
     0
281
     1
  0
CLASS
  1
IMAGE
  2
AcDbRasterImage
  3
ISM
 90
    32895
280
     0
281
     1
  0
CLASS
  1
OLE2FRAME
  2
AcDbOle2Frame
  3
""
 90
    32768
280
     0
281
     1
  0
CLASS
  1
HATCH
  2
AcDbHatch
  3
"ACAD_SEDONA"
 90
    32768
280
     0
281
     1
  0
CLASS
  1
DICTIONARYVAR
  2
AcDbDictionaryVar
  3
"AutoCAD"
 90
    32768
280
     0
281
     0
  0
CLASS
  1
RASTERVARIABLES
  2
AcDbRasterVariables
  3
ISM
 90
    32768
280
     0
281
     0
  0
CLASS
  1
IMAGEDEF
  2
AcDbRasterImageDef
  3
ISM
 90
    32768
280
     0
281
     0
  0
CLASS
  1
IMAGEDEF_REACTOR
  2
AcDbRasterImageDefReactor
  3
ISM
 90
    32769
280
     0
281
     0
  0
CLASS
  1
IDBUFFER
  2
AcDbIdBuffer
  3
"Acad"
 90
    32768
280
     0
281
     0
  0
CLASS
  1
SPATIAL_FILTER
  2
AcDbSpatialFilter
  3
"Acad"
 90
    32768
280
     0
281
     0
  0
CLASS
  1
XRECORD
  2
AcDbXrecord
  3
"<Built In>"
 90
    32768
280
     0
281
     0
  0
CLASS
  1
SORTENTSTABLE
  2
AcDbSortentsTable
  3
"AutoCAD"
 90
    32768
280
     0
281
     0
  0
CLASS
  1
LAYER_INDEX
  2
AcDbLayerIndex
  3
"Acad"
 90
    32768
280
     0
281
     0
  0
CLASS
  1
SPATIAL_INDEX
  2
AcDbSpatialIndex
  3
"Acad"
 90
    32768
280
     0
281
     0
  0
CLASS
  1
OBJECT_PTR
  2
CAseDLPNTableRecord
  3
"ASE-LPNTableRecord"
 90
    32769
280
     0
281
     0
  0
CLASS
  1
LAYOUT
  2
AcDbLayout
  3
"AutoCAD 2000"
 90
    32768
280
     0
281
     0
  0
CLASS
  1
PLOTSETTINGS
  2
AcDbPlotSettings
  3
"AutoCAD 2000"
 90
    32768
280
     0
281
     0
  0
CLASS
  1
ACDBDICTIONARYWDFLT
  2
AcDbDictionaryWithDefault
  3
"AutoCAD 2000"
 90
    32768
280
     0
281
     0
  0
CLASS
  1
ACDBPLACEHOLDER
  2
AcDbPlaceHolder
  3
"AutoCAD 2000"
 90
    32768
280
     0
281
     0
  0
CLASS
  1
VBA_PROJECT
  2
AcDbVbaProject
  3
"acadvba"
 90
    32768
280
     0
281
     0
  0
CLASS
  1
WIPEOUT
  2
AcDbWipeout
  3
WipeOut|AutoCAD Express Tool|expresstools@autodesk.com
 90
    32895
280
     0
281
     1
  0
CLASS
  1
WIPEOUTVARIABLES
  2
AcDbWipeoutVariables
  3
WipeOut|AutoCAD Express Tool|expresstools@autodesk.com
 90
    32768
280
     0
281
     0
  0
CLASS
  1
RTEXT
  2
RText
  3
RText|AutoCAD Express Tool|expresstools@autodesk.com
 90
    32768
280
     0
281
     1
  0
CLASS
  1
ARCALIGNEDTEXT
  2
AcDbArcAlignedText
  3
ATEXT|AutoCAD Express Tool|expresstools@autodesk.com
 90
    32768
280
     0
281
     1
  0
ENDSEC
  0
SECTION
  2
TABLES
  0
TABLE
  2
VPORT
  5
6
100
AcDbSymbolTable
 70
     1
  0
VPORT
  5
1D
100
AcDbSymbolTableRecord
100
AcDbViewportTableRecord
  2
*ACTIVE
 70
     0
 10
0.0
 20
0.0
 11
1.0
 21
1.0
 12
0.0
 22
0.0
 13
0.0
 23
0.0
 14
1.0
 24
1.0
 15
0.0
 25
0.0
 16
0.0
 26
0.0
 36
1.0
 17
0.0
 27
0.0
 37
0.0
 40
594.0
 41
1.414141
 42
50.0
 43
0.0
 44
0.0
 50
0.0
 51
0.0
 71
     0
 72
   500
 73
     1
 74
     1
 75
     0
 76
     0
 77
     0
 78
     0
  0
ENDTAB
  0
TABLE
  2
LTYPE
  5
3
100
AcDbSymbolTable
 70
     9
  0
LTYPE
  5
C
100
AcDbSymbolTableRecord
100
AcDbLinetypeTableRecord
  2
BYBLOCK
 70
    64
  3

 72
    65
 73
     0
 40
0.0
  0
LTYPE
  5
D
100
AcDbSymbolTableRecord
100
AcDbLinetypeTableRecord
  2
BYLAYER
 70
    64
  3

 72
    65
 73
     0
 40
0.0
  0
LTYPE
  5
E
100
AcDbSymbolTableRecord
100
AcDbLinetypeTableRecord
  2
CONTINUOUS
 70
     0
  3
Solid line
 72
    65
 73
     0
 40
0.0
  0
LTYPE
  5
F
100
AcDbSymbolTableRecord
100
AcDbLinetypeTableRecord
  2
DASHED
 70
     0
  3
__ __ __ __ __ __ __ __ __ __ __ __ __ __ __
 72
    65
 73
     2
 40
2.0
 49
1.2
 74
     0
 49
-0.8
 74
     0
  0
LTYPE
  5
10
100
AcDbSymbolTableRecord
100
AcDbLinetypeTableRecord
  2
CENTER
 70
     0
  3
____ _ ____ _ ____ _ ____ _ ____ _ ____ _ ____
 72
    65
 73
     4
 40
12.0
 49
9.0
 74
     0
 49
-1.0
 74
     0
 49
1.0
 74
     0
 49
-1.0
 74
     0
  0
LTYPE
  5
11
100
AcDbSymbolTableRecord
100
AcDbLinetypeTableRecord
  2
HIDDEN
 70
     0
  3
_ _ _ _ _ _ _ _ _ _ _ _ _ _ _ _ _ _ _ _ _ _ _
 72
    65
 73
     2
 40
3.2
 49
2.4
 74
     0
 49
-0.8
 74
     0
  0
LTYPE
  5
12
100
AcDbSymbolTableRecord
100
AcDbLinetypeTableRecord
  2
PHANTOM
 70
     0
  3
_____ _ _ _____ _ _ _____ _ _ _____ _ _ _____
 72
    65
 73
     6
 40
13.5
 49
9.0
 74
     0
 49
-1.0
 74
     0
 49
1.0
 74
     0
 49
-0.5
 74
     0
 49
1.0
 74
     0
 49
-1.0
 74
     0
  0
LTYPE
  5
13
100
AcDbSymbolTableRecord
100
AcDbLinetypeTableRecord
  2
DOT
 70
     0
  3
...............................................
 72
    65
 73
     2
 40
1.0
 49
0.5
 74
     0
 49
-0.5
 74
     0
  0
LTYPE
  5
14
100
AcDbSymbolTableRecord
100
AcDbLinetypeTableRecord
  2
DASHDOT
 70
     0
  3
__ . __ . __ . __ . __ . __ . __ . __ . __ . __
 72
    65
 73
     4
 40
8.0
 49
5.0
 74
     0
 49
-1.0
 74
     0
 49
1.0
 74
     0
 49
-1.0
 74
     0
  0
ENDTAB
  0
TABLE
  2
LAYER
  5
1
100
AcDbSymbolTable
 70
     8
  0
LAYER
  5
15
100
AcDbSymbolTableRecord
100
AcDbLayerTableRecord
  2
0
 70
     0
 62
     7
  6
CONTINUOUS
  0
LAYER
  5
16
100
AcDbSymbolTableRecord
100
AcDbLayerTableRecord
  2
1
 70
     0
 62
     7
  6
CONTINUOUS
  0
LAYER
  5
17
100
AcDbSymbolTableRecord
100
AcDbLayerTableRecord
  2
2
 70
     0
 62
     7
  6
CONTINUOUS
  0
LAYER
  5
18
100
AcDbSymbolTableRecord
100
AcDbLayerTableRecord
  2
3
 70
     0
 62
     7
  6
CONTINUOUS
  0
LAYER
  5
19
100
AcDbSymbolTableRecord
100
AcDbLayerTableRecord
  2
4
 70
     0
 62
     7
  6
CONTINUOUS
  0
LAYER
  5
1A
100
AcDbSymbolTableRecord
100
AcDbLayerTableRecord
  2
5
 70
     0
 62
     7
  6
CONTINUOUS
  0
LAYER
  5
1B
100
AcDbSymbolTableRecord
100
AcDbLayerTableRecord
  2
18
 70
     0
 62
     7
  6
CONTINUOUS
  0
LAYER
  5
1C
100
AcDbSymbolTableRecord
100
AcDbLayerTableRecord
  2
20
 70
     0
 62
     7
  6
CONTINUOUS
  0
ENDTAB
  0
TABLE
  2
STYLE
  5
2
100
AcDbSymbolTable
 70
     1
  0
STYLE
  5
1F
100
AcDbSymbolTableRecord
100
AcDbTextStyleTableRecord
  2
STANDARD
 70
    64
 40
0.0
 41
1.0
 50
0.0
 71
     0
 42
1.0
  3
txt
  4
BIGFONT
  0
ENDTAB
  0
TABLE
  2
VIEW
  5
4
100
AcDbSymbolTable
 70
     0
  0
ENDTAB
  0
TABLE
  2
UCS
  5
5
100
AcDbSymbolTable
 70
     0
  0
ENDTAB
  0
TABLE
  2
APPID
  5
7
100
AcDbSymbolTable
 70
     1
  0
APPID
  5
1E
100
AcDbSymbolTableRecord
100
AcDbRegAppTableRecord
  2
ACAD
 70
     0
  0
ENDTAB
  0
TABLE
  2
DIMSTYLE
  5
8
100
AcDbSymbolTable
 70
     1
  0
DIMSTYLE
105
33
100
AcDbSymbolTableRecord
100
AcDbDimStyleTableRecord
  2
STANDARD
 70
     0
  3

  4

  5

  6

  7

 40
2.0
 41
0.18
 42
0.0625
 43
0.38
 44
0.18
 45
0.0
 46
0.0
 47
0.0
 48
0.0
 71
     0
 72
     0
 73
     1
 74
     1
 75
     0
 76
     0
 77
     1
 78
     0
140
0.18
141
0.09
142
0.0
143
25.4
144
1.0
145
0.0
146
1.0
147
0.09
170
     0
171
     2
172
     0
173
     0
174
     0
175
     0
176
     0
177
     0
178
     0
270
     2
271
     4
272
     4
273
     2
274
     2
275
     0
280
     0
281
     0
282
     0
283
     1
284
     0
285
     0
286
     0
287
     3
288
     0
340
1F
  0
ENDTAB
  0
TABLE
  2
BLOCK_RECORD
  5
2E
100
AcDbSymbolTable
 70
    12
  0
BLOCK_RECORD
  5
2C
100
AcDbSymbolTableRecord
100
AcDbBlockTableRecord
  2
*MODEL_SPACE
  0
BLOCK_RECORD
  5
2D
100
AcDbSymbolTableRecord
100
AcDbBlockTableRecord
  2
*PAPER_SPACE
  0
BLOCK_RECORD
  5
20
100
AcDbSymbolTableRecord
100
AcDbBlockTableRecord
  2
*D0
  0
BLOCK_RECORD
  5
21
100
AcDbSymbolTableRecord
100
AcDbBlockTableRecord
  2
*D1
  0
BLOCK_RECORD
  5
22
100
AcDbSymbolTableRecord
100
AcDbBlockTableRecord
  2
*D2
  0
BLOCK_RECORD
  5
23
100
AcDbSymbolTableRecord
100
AcDbBlockTableRecord
  2
*D3
  0
BLOCK_RECORD
  5
24
100
AcDbSymbolTableRecord
100
AcDbBlockTableRecord
  2
*D4
  0
BLOCK_RECORD
  5
25
100
AcDbSymbolTableRecord
100
AcDbBlockTableRecord
  2
*D5
  0
BLOCK_RECORD
  5
26
100
AcDbSymbolTableRecord
100
AcDbBlockTableRecord
  2
*D6
  0
BLOCK_RECORD
  5
27
100
AcDbSymbolTableRecord
100
AcDbBlockTableRecord
  2
*D7
  0
BLOCK_RECORD
  5
28
100
AcDbSymbolTableRecord
100
AcDbBlockTableRecord
  2
*D8
  0
BLOCK_RECORD
  5
29
100
AcDbSymbolTableRecord
100
AcDbBlockTableRecord
  2
*D9
  0
BLOCK_RECORD
  5
2A
100
AcDbSymbolTableRecord
100
AcDbBlockTableRecord
  2
*D10
  0
BLOCK_RECORD
  5
2B
100
AcDbSymbolTableRecord
100
AcDbBlockTableRecord
  2
*D11
  0
ENDTAB
  0
ENDSEC
  0
SECTION
  2
BLOCKS
  0
BLOCK
  5
2F
100
AcDbEntity
  8
0
100
AcDbBlockBegin
  2
*MODEL_SPACE
 70
     0
 10
0.0
 20
0.0
 30
0.0
  3
*MODEL_SPACE
  1

  0
ENDBLK
  5
30
100
AcDbEntity
  8
0
100
AcDbBlockEnd
  0
BLOCK
  5
31
100
AcDbEntity
 67
     1
  8
0
100
AcDbBlockBegin
  2
*PAPER_SPACE
 70
     0
 10
0.0
 20
0.0
 30
0.0
  3
*PAPER_SPACE
  1

  0
ENDBLK
  5
32
100
AcDbEntity
 67
     1
  8
0
100
AcDbBlockEnd
  0
BLOCK
  5
5F9
100
AcDbEntity
  8
5
100
AcDbBlockBegin
  2
*D0
 70
     1
 10
0.0
 20
0.0
 30
0.0
  3
*D0
  1

  0
TEXT
  5
5FA
100
AcDbEntity
  8
5
 62
     2
100
AcDbText
 10
-333.298248
 20
197.27096
 30
0.0
 40
6.6
  1
75
 50
90.0
 41
1.4
 72
     5
 11
-333.298248
 21
204.66296
 31
0.0
100
AcDbText
  0
LINE
  5
5FB
100
AcDbEntity
  8
5
 62
     2
100
AcDbLine
 10
-314.752334
 20
164.39096
 30
0.0
 11
-334.298248
 21
164.39096
 31
0.0
  0
LINE
  5
5FC
100
AcDbEntity
  8
5
 62
     2
100
AcDbLine
 10
-332.298248
 20
164.39096
 30
0.0
 11
-331.262972
 21
168.254663
 31
0.0
  0
LINE
  5
5FD
100
AcDbEntity
  8
5
 62
     2
100
AcDbLine
 10
-332.298248
 20
164.39096
 30
0.0
 11
-333.333524
 21
168.254663
 31
0.0
  0
LINE
  5
5FE
100
AcDbEntity
  8
5
 62
     2
100
AcDbLine
 10
-331.262972
 20
168.254663
 30
0.0
 11
-333.333524
 21
168.254663
 31
0.0
  0
LINE
  5
5FF
100
AcDbEntity
  8
5
 62
     2
100
AcDbLine
 10
-332.298248
 20
164.39096
 30
0.0
 11
-332.298248
 21
239.39096
 31
0.0
  0
LINE
  5
600
100
AcDbEntity
  8
5
 62
     2
100
AcDbLine
 10
-332.298248
 20
239.39096
 30
0.0
 11
-333.333524
 21
235.527257
 31
0.0
  0
LINE
  5
601
100
AcDbEntity
  8
5
 62
     2
100
AcDbLine
 10
-332.298248
 20
239.39096
 30
0.0
 11
-331.262972
 21
235.527257
 31
0.0
  0
LINE
  5
602
100
AcDbEntity
  8
5
 62
     2
100
AcDbLine
 10
-333.333524
 20
235.527257
 30
0.0
 11
-331.262972
 21
235.527257
 31
0.0
  0
LINE
  5
603
100
AcDbEntity
  8
5
 62
     2
100
AcDbLine
 10
-264.172494
 20
239.39096
 30
0.0
 11
-334.298248
 21
239.39096
 31
0.0
  0
ENDBLK
  5
604
100
AcDbEntity
  8
5
100
AcDbBlockEnd
  0
BLOCK
  5
605
100
AcDbEntity
  8
5
100
AcDbBlockBegin
  2
*D1
 70
     1
 10
0.0
 20
0.0
 30
0.0
  3
*D1
  1

  0
TEXT
  5
606
100
AcDbEntity
  8
5
 62
     2
100
AcDbText
 10
-333.298248
 20
134.77096
 30
0.0
 40
6.6
  1
50
 50
90.0
 41
1.4
 72
     5
 11
-333.298248
 21
142.16296
 31
0.0
100
AcDbText
  0
LINE
  5
607
100
AcDbEntity
  8
5
 62
     2
100
AcDbLine
 10
-249.172494
 20
114.39096
 30
0.0
 11
-334.298248
 21
114.39096
 31
0.0
  0
LINE
  5
608
100
AcDbEntity
  8
5
 62
     2
100
AcDbLine
 10
-332.298248
 20
114.39096
 30
0.0
 11
-331.262972
 21
118.254663
 31
0.0
  0
LINE
  5
609
100
AcDbEntity
  8
5
 62
     2
100
AcDbLine
 10
-332.298248
 20
114.39096
 30
0.0
 11
-333.333524
 21
118.254663
 31
0.0
  0
LINE
  5
60A
100
AcDbEntity
  8
5
 62
     2
100
AcDbLine
 10
-331.262972
 20
118.254663
 30
0.0
 11
-333.333524
 21
118.254663
 31
0.0
  0
LINE
  5
60B
100
AcDbEntity
  8
5
 62
     2
100
AcDbLine
 10
-332.298248
 20
114.39096
 30
0.0
 11
-332.298248
 21
164.39096
 31
0.0
  0
LINE
  5
60C
100
AcDbEntity
  8
5
 62
     2
100
AcDbLine
 10
-332.298248
 20
164.39096
 30
0.0
 11
-333.333524
 21
160.527257
 31
0.0
  0
LINE
  5
60D
100
AcDbEntity
  8
5
 62
     2
100
AcDbLine
 10
-332.298248
 20
164.39096
 30
0.0
 11
-331.262972
 21
160.527257
 31
0.0
  0
LINE
  5
60E
100
AcDbEntity
  8
5
 62
     2
100
AcDbLine
 10
-333.333524
 20
160.527257
 30
0.0
 11
-331.262972
 21
160.527257
 31
0.0
  0
LINE
  5
60F
100
AcDbEntity
  8
5
 62
     2
100
AcDbLine
 10
-314.752334
 20
164.39096
 30
0.0
 11
-334.298248
 21
164.39096
 31
0.0
  0
ENDBLK
  5
610
100
AcDbEntity
  8
5
100
AcDbBlockEnd
  0
BLOCK
  5
611
100
AcDbEntity
  8
5
100
AcDbBlockBegin
  2
*D2
 70
     1
 10
0.0
 20
0.0
 30
0.0
  3
*D2
  1

  0
TEXT
  5
612
100
AcDbEntity
  8
5
 62
     2
100
AcDbText
 10
12.484966
 20
-88.581336
 30
0.0
 40
6.6
  1
125
 50
90.0
 41
1.4
 72
     5
 11
12.484966
 21
-76.569336
 31
0.0
100
AcDbText
  0
LINE
  5
613
100
AcDbEntity
  8
5
 62
     2
100
AcDbLine
 10
53.714666
 20
-144.151336
 30
0.0
 11
11.484966
 21
-144.151336
 31
0.0
  0
LINE
  5
614
100
AcDbEntity
  8
5
 62
     2
100
AcDbLine
 10
13.484966
 20
-144.151336
 30
0.0
 11
14.520242
 21
-140.287633
 31
0.0
  0
LINE
  5
615
100
AcDbEntity
  8
5
 62
     2
100
AcDbLine
 10
13.484966
 20
-144.151336
 30
0.0
 11
12.44969
 21
-140.287633
 31
0.0
  0
LINE
  5
616
100
AcDbEntity
  8
5
 62
     2
100
AcDbLine
 10
14.520242
 20
-140.287633
 30
0.0
 11
12.44969
 21
-140.287633
 31
0.0
  0
LINE
  5
617
100
AcDbEntity
  8
5
 62
     2
100
AcDbLine
 10
13.484966
 20
-144.151336
 30
0.0
 11
13.484966
 21
-19.151336
 31
0.0
  0
LINE
  5
618
100
AcDbEntity
  8
5
 62
     2
100
AcDbLine
 10
13.484966
 20
-19.151336
 30
0.0
 11
12.44969
 21
-23.015039
 31
0.0
  0
LINE
  5
619
100
AcDbEntity
  8
5
 62
     2
100
AcDbLine
 10
13.484966
 20
-19.151336
 30
0.0
 11
14.520242
 21
-23.015039
 31
0.0
  0
LINE
  5
61A
100
AcDbEntity
  8
5
 62
     2
100
AcDbLine
 10
12.44969
 20
-23.015039
 30
0.0
 11
14.520242
 21
-23.015039
 31
0.0
  0
LINE
  5
61B
100
AcDbEntity
  8
5
 62
     2
100
AcDbLine
 10
51.264598
 20
-19.151336
 30
0.0
 11
11.484966
 21
-19.151336
 31
0.0
  0
ENDBLK
  5
61C
100
AcDbEntity
  8
5
100
AcDbBlockEnd
  0
BLOCK
  5
61D
100
AcDbEntity
  8
5
100
AcDbBlockBegin
  2
*D3
 70
     1
 10
0.0
 20
0.0
 30
0.0
  3
*D3
  1

  0
TEXT
  5
61E
100
AcDbEntity
  8
5
 62
     2
100
AcDbText
 10
12.484966
 20
-185.921336
 30
0.0
 40
6.6
  1
74
 50
90.0
 41
1.4
 72
     5
 11
12.484966
 21
-178.529336
 31
0.0
100
AcDbText
  0
LINE
  5
61F
100
AcDbEntity
  8
5
 62
     2
100
AcDbLine
 10
71.264598
 20
-218.451336
 30
0.0
 11
11.484966
 21
-218.451336
 31
0.0
  0
LINE
  5
620
100
AcDbEntity
  8
5
 62
     2
100
AcDbLine
 10
13.484966
 20
-218.451336
 30
0.0
 11
14.520242
 21
-214.587633
 31
0.0
  0
LINE
  5
621
100
AcDbEntity
  8
5
 62
     2
100
AcDbLine
 10
13.484966
 20
-218.451336
 30
0.0
 11
12.44969
 21
-214.587633
 31
0.0
  0
LINE
  5
622
100
AcDbEntity
  8
5
 62
     2
100
AcDbLine
 10
14.520242
 20
-214.587633
 30
0.0
 11
12.44969
 21
-214.587633
 31
0.0
  0
LINE
  5
623
100
AcDbEntity
  8
5
 62
     2
100
AcDbLine
 10
13.484966
 20
-218.451336
 30
0.0
 11
13.484966
 21
-144.151336
 31
0.0
  0
LINE
  5
624
100
AcDbEntity
  8
5
 62
     2
100
AcDbLine
 10
13.484966
 20
-144.151336
 30
0.0
 11
12.44969
 21
-148.015039
 31
0.0
  0
LINE
  5
625
100
AcDbEntity
  8
5
 62
     2
100
AcDbLine
 10
13.484966
 20
-144.151336
 30
0.0
 11
14.520242
 21
-148.015039
 31
0.0
  0
LINE
  5
626
100
AcDbEntity
  8
5
 62
     2
100
AcDbLine
 10
12.44969
 20
-148.015039
 30
0.0
 11
14.520242
 21
-148.015039
 31
0.0
  0
LINE
  5
627
100
AcDbEntity
  8
5
 62
     2
100
AcDbLine
 10
53.714666
 20
-144.151336
 30
0.0
 11
11.484966
 21
-144.151336
 31
0.0
  0
ENDBLK
  5
628
100
AcDbEntity
  8
5
100
AcDbBlockEnd
  0
BLOCK
  5
629
100
AcDbEntity
  8
5
100
AcDbBlockBegin
  2
*D4
 70
     1
 10
0.0
 20
0.0
 30
0.0
  3
*D4
  1

  0
TEXT
  5
62A
100
AcDbEntity
  8
5
 62
     2
100
AcDbText
 10
73.144598
 20
-238.850128
 30
0.0
 40
6.6
  1
21
 41
1.4
 72
     5
 11
80.536598
 21
-238.850128
 31
0.0
100
AcDbText
  0
LINE
  5
62B
100
AcDbEntity
  8
5
 62
     2
100
AcDbLine
 10
67.264598
 20
-194.651336
 30
0.0
 11
67.264598
 21
-241.850128
 31
0.0
  0
LINE
  5
62C
100
AcDbEntity
  8
5
 62
     2
100
AcDbLine
 10
67.264598
 20
-239.850128
 30
0.0
 11
71.128301
 21
-240.885404
 31
0.0
  0
LINE
  5
62D
100
AcDbEntity
  8
5
 62
     2
100
AcDbLine
 10
67.264598
 20
-239.850128
 30
0.0
 11
71.128301
 21
-238.814852
 31
0.0
  0
LINE
  5
62E
100
AcDbEntity
  8
5
 62
     2
100
AcDbLine
 10
71.128301
 20
-240.885404
 30
0.0
 11
71.128301
 21
-238.814852
 31
0.0
  0
LINE
  5
62F
100
AcDbEntity
  8
5
 62
     2
100
AcDbLine
 10
67.264598
 20
-239.850128
 30
0.0
 11
88.264598
 21
-239.850128
 31
0.0
  0
LINE
  5
630
100
AcDbEntity
  8
5
 62
     2
100
AcDbLine
 10
88.264598
 20
-239.850128
 30
0.0
 11
84.400895
 21
-238.814852
 31
0.0
  0
LINE
  5
631
100
AcDbEntity
  8
5
 62
     2
100
AcDbLine
 10
88.264598
 20
-239.850128
 30
0.0
 11
84.400895
 21
-240.885404
 31
0.0
  0
LINE
  5
632
100
AcDbEntity
  8
5
 62
     2
100
AcDbLine
 10
84.400895
 20
-238.814852
 30
0.0
 11
84.400895
 21
-240.885404
 31
0.0
  0
LINE
  5
633
100
AcDbEntity
  8
5
 62
     2
100
AcDbLine
 10
88.264598
 20
-231.453216
 30
0.0
 11
88.264598
 21
-241.850128
 31
0.0
  0
ENDBLK
  5
634
100
AcDbEntity
  8
5
100
AcDbBlockEnd
  0
BLOCK
  5
635
100
AcDbEntity
  8
5
100
AcDbBlockBegin
  2
*D5
 70
     1
 10
0.0
 20
0.0
 30
0.0
  3
*D5
  1

  0
TEXT
  5
636
100
AcDbEntity
  8
5
 62
     2
100
AcDbText
 10
84.144598
 20
-256.424744
 30
0.0
 40
6.6
  1
43
 41
1.4
 72
     5
 11
91.536598
 21
-256.424744
 31
0.0
100
AcDbText
  0
LINE
  5
637
100
AcDbEntity
  8
5
 62
     2
100
AcDbLine
 10
67.264598
 20
-194.651336
 30
0.0
 11
67.264598
 21
-259.424744
 31
0.0
  0
LINE
  5
638
100
AcDbEntity
  8
5
 62
     2
100
AcDbLine
 10
67.264598
 20
-257.424744
 30
0.0
 11
71.128301
 21
-258.46002
 31
0.0
  0
LINE
  5
639
100
AcDbEntity
  8
5
 62
     2
100
AcDbLine
 10
67.264598
 20
-257.424744
 30
0.0
 11
71.128301
 21
-256.389468
 31
0.0
  0
LINE
  5
63A
100
AcDbEntity
  8
5
 62
     2
100
AcDbLine
 10
71.128301
 20
-258.46002
 30
0.0
 11
71.128301
 21
-256.389468
 31
0.0
  0
LINE
  5
63B
100
AcDbEntity
  8
5
 62
     2
100
AcDbLine
 10
67.264598
 20
-257.424744
 30
0.0
 11
110.264598
 21
-257.424744
 31
0.0
  0
LINE
  5
63C
100
AcDbEntity
  8
5
 62
     2
100
AcDbLine
 10
110.264598
 20
-257.424744
 30
0.0
 11
106.400895
 21
-256.389468
 31
0.0
  0
LINE
  5
63D
100
AcDbEntity
  8
5
 62
     2
100
AcDbLine
 10
110.264598
 20
-257.424744
 30
0.0
 11
106.400895
 21
-258.46002
 31
0.0
  0
LINE
  5
63E
100
AcDbEntity
  8
5
 62
     2
100
AcDbLine
 10
106.400895
 20
-256.389468
 30
0.0
 11
106.400895
 21
-258.46002
 31
0.0
  0
LINE
  5
63F
100
AcDbEntity
  8
5
 62
     2
100
AcDbLine
 10
110.264598
 20
-194.651336
 30
0.0
 11
110.264598
 21
-259.424744
 31
0.0
  0
ENDBLK
  5
640
100
AcDbEntity
  8
5
100
AcDbBlockEnd
  0
BLOCK
  5
641
100
AcDbEntity
  8
5
100
AcDbBlockBegin
  2
*D6
 70
     1
 10
0.0
 20
0.0
 30
0.0
  3
*D6
  1

  0
TEXT
  5
642
100
AcDbEntity
  8
5
 62
     2
100
AcDbText
 10
12.484966
 20
-11.271336
 30
0.0
 40
6.6
  1
25
 50
90.0
 41
1.4
 72
     5
 11
12.484966
 21
-3.879336
 31
0.0
100
AcDbText
  0
LINE
  5
643
100
AcDbEntity
  8
5
 62
     2
100
AcDbLine
 10
51.264598
 20
-19.151336
 30
0.0
 11
11.484966
 21
-19.151336
 31
0.0
  0
LINE
  5
644
100
AcDbEntity
  8
5
 62
     2
100
AcDbLine
 10
13.484966
 20
-19.151336
 30
0.0
 11
14.520242
 21
-15.287633
 31
0.0
  0
LINE
  5
645
100
AcDbEntity
  8
5
 62
     2
100
AcDbLine
 10
13.484966
 20
-19.151336
 30
0.0
 11
12.44969
 21
-15.287633
 31
0.0
  0
LINE
  5
646
100
AcDbEntity
  8
5
 62
     2
100
AcDbLine
 10
14.520242
 20
-15.287633
 30
0.0
 11
12.44969
 21
-15.287633
 31
0.0
  0
LINE
  5
647
100
AcDbEntity
  8
5
 62
     2
100
AcDbLine
 10
13.484966
 20
-19.151336
 30
0.0
 11
13.484966
 21
5.848664
 31
0.0
  0
LINE
  5
648
100
AcDbEntity
  8
5
 62
     2
100
AcDbLine
 10
13.484966
 20
5.848664
 30
0.0
 11
12.44969
 21
1.984961
 31
0.0
  0
LINE
  5
649
100
AcDbEntity
  8
5
 62
     2
100
AcDbLine
 10
13.484966
 20
5.848664
 30
0.0
 11
14.520242
 21
1.984961
 31
0.0
  0
LINE
  5
64A
100
AcDbEntity
  8
5
 62
     2
100
AcDbLine
 10
12.44969
 20
1.984961
 30
0.0
 11
14.520242
 21
1.984961
 31
0.0
  0
LINE
  5
64B
100
AcDbEntity
  8
5
 62
     2
100
AcDbLine
 10
46.264598
 20
5.848664
 30
0.0
 11
11.484966
 21
5.848664
 31
0.0
  0
ENDBLK
  5
64C
100
AcDbEntity
  8
5
100
AcDbBlockEnd
  0
BLOCK
  5
64D
100
AcDbEntity
  8
5
100
AcDbBlockBegin
  2
*D7
 70
     1
 10
0.0
 20
0.0
 30
0.0
  3
*D7
  1

  0
LINE
  5
64E
100
AcDbEntity
  8
5
 62
     2
100
AcDbLine
 10
46.264598
 20
5.848664
 30
0.0
 11
11.484966
 21
5.848664
 31
0.0
  0
LINE
  5
64F
100
AcDbEntity
  8
5
 62
     2
100
AcDbLine
 10
13.484966
 20
5.848664
 30
0.0
 11
14.520242
 21
9.712367
 31
0.0
  0
LINE
  5
650
100
AcDbEntity
  8
5
 62
     2
100
AcDbLine
 10
13.484966
 20
5.848664
 30
0.0
 11
12.44969
 21
9.712367
 31
0.0
  0
LINE
  5
651
100
AcDbEntity
  8
5
 62
     2
100
AcDbLine
 10
14.520242
 20
9.712367
 30
0.0
 11
12.44969
 21
9.712367
 31
0.0
  0
LINE
  5
652
100
AcDbEntity
  8
5
 62
     2
100
AcDbLine
 10
13.484966
 20
5.848664
 30
0.0
 11
13.484966
 21
72.026038
 31
0.0
  0
LINE
  5
653
100
AcDbEntity
  8
5
 62
     2
100
AcDbLine
 10
13.484966
 20
72.026038
 30
0.0
 11
12.44969
 21
68.162335
 31
0.0
  0
LINE
  5
654
100
AcDbEntity
  8
5
 62
     2
100
AcDbLine
 10
13.484966
 20
72.026038
 30
0.0
 11
14.520242
 21
68.162335
 31
0.0
  0
LINE
  5
655
100
AcDbEntity
  8
5
 62
     2
100
AcDbLine
 10
12.44969
 20
68.162335
 30
0.0
 11
14.520242
 21
68.162335
 31
0.0
  0
LINE
  5
656
100
AcDbEntity
  8
5
 62
     2
100
AcDbLine
 10
86.264598
 20
72.026038
 30
0.0
 11
11.484966
 21
72.026038
 31
0.0
  0
ENDBLK
  5
657
100
AcDbEntity
  8
5
100
AcDbBlockEnd
  0
BLOCK
  5
658
100
AcDbEntity
  8
5
100
AcDbBlockBegin
  2
*D8
 70
     1
 10
0.0
 20
0.0
 30
0.0
  3
*D8
  1

  0
LINE
  5
659
100
AcDbEntity
  8
5
 62
     2
100
AcDbLine
 10
-247.172494
 20
56.421382
 30
0.0
 11
-247.172494
 21
83.511955
 31
0.0
  0
LINE
  5
65A
100
AcDbEntity
  8
5
 62
     2
100
AcDbLine
 10
-247.172494
 20
81.511955
 30
0.0
 11
-243.308791
 21
80.476679
 31
0.0
  0
LINE
  5
65B
100
AcDbEntity
  8
5
 62
     2
100
AcDbLine
 10
-247.172494
 20
81.511955
 30
0.0
 11
-243.308791
 21
82.547231
 31
0.0
  0
LINE
  5
65C
100
AcDbEntity
  8
5
 62
     2
100
AcDbLine
 10
-243.308791
 20
80.476679
 30
0.0
 11
-243.308791
 21
82.547231
 31
0.0
  0
LINE
  5
65D
100
AcDbEntity
  8
5
 62
     2
100
AcDbLine
 10
-247.172494
 20
81.511955
 30
0.0
 11
-47.333124
 21
81.511955
 31
0.0
  0
LINE
  5
65E
100
AcDbEntity
  8
5
 62
     2
100
AcDbLine
 10
-47.333124
 20
81.511955
 30
0.0
 11
-51.196828
 21
82.547231
 31
0.0
  0
LINE
  5
65F
100
AcDbEntity
  8
5
 62
     2
100
AcDbLine
 10
-47.333124
 20
81.511955
 30
0.0
 11
-51.196828
 21
80.476679
 31
0.0
  0
LINE
  5
660
100
AcDbEntity
  8
5
 62
     2
100
AcDbLine
 10
-51.196828
 20
82.547231
 30
0.0
 11
-51.196828
 21
80.476679
 31
0.0
  0
LINE
  5
661
100
AcDbEntity
  8
5
 62
     2
100
AcDbLine
 10
-47.333124
 20
66.776892
 30
0.0
 11
-47.333124
 21
83.511955
 31
0.0
  0
ENDBLK
  5
662
100
AcDbEntity
  8
5
100
AcDbBlockEnd
  0
BLOCK
  5
663
100
AcDbEntity
  8
18
100
AcDbBlockBegin
  2
*D9
 70
     1
 10
0.0
 20
0.0
 30
0.0
  3
*D9
  1

  0
LINE
  5
664
100
AcDbEntity
  8
18
 62
     2
100
AcDbLine
 10
335.736194
 20
201.027406
 30
0.0
 11
335.736194
 21
219.146826
 31
0.0
  0
LINE
  5
665
100
AcDbEntity
  8
18
 62
     2
100
AcDbLine
 10
333.736194
 20
199.027406
 30
0.0
 11
315.616774
 21
199.027406
 31
0.0
  0
LINE
  5
666
100
AcDbEntity
  8
18
 62
     2
100
AcDbLine
 10
335.736194
 20
217.146826
 30
0.0
 11
331.784135
 21
217.764262
 31
0.0
  0
LINE
  5
667
100
AcDbEntity
  8
18
 62
     2
100
AcDbLine
 10
335.736194
 20
217.146826
 30
0.0
 11
332.004892
 21
215.705511
 31
0.0
  0
LINE
  5
668
100
AcDbEntity
  8
18
 62
     2
100
AcDbLine
 10
331.784135
 20
217.764262
 30
0.0
 11
332.004892
 21
215.705511
 31
0.0
  0
LINE
  5
669
100
AcDbEntity
  8
18
 62
     2
100
AcDbLine
 10
317.616774
 20
199.027406
 30
0.0
 11
319.058089
 21
202.758708
 31
0.0
  0
LINE
  5
66A
100
AcDbEntity
  8
18
 62
     2
100
AcDbLine
 10
317.616774
 20
199.027406
 30
0.0
 11
316.999338
 21
202.979465
 31
0.0
  0
LINE
  5
66B
100
AcDbEntity
  8
18
 62
     2
100
AcDbLine
 10
319.058089
 20
202.758708
 30
0.0
 11
316.999338
 21
202.979465
 31
0.0
  0
ARC
  5
66C
100
AcDbEntity
  8
18
 62
     2
100
AcDbCircle
 10
335.736194
 20
199.027406
 30
0.0
 40
18.11942
100
AcDbArc
 50
90.0
 51
180.0
  0
ENDBLK
  5
66D
100
AcDbEntity
  8
18
100
AcDbBlockEnd
  0
BLOCK
  5
66E
100
AcDbEntity
  8
18
100
AcDbBlockBegin
  2
*D10
 70
     1
 10
0.0
 20
0.0
 30
0.0
  3
*D10
  1

  0
LINE
  5
66F
100
AcDbEntity
  8
18
 62
     2
100
AcDbLine
 10
277.852042
 20
210.401862
 30
0.0
 11
259.732622
 21
210.401862
 31
0.0
  0
LINE
  5
670
100
AcDbEntity
  8
18
 62
     2
100
AcDbLine
 10
279.852042
 20
208.401862
 30
0.0
 11
279.852042
 21
190.282442
 31
0.0
  0
LINE
  5
671
100
AcDbEntity
  8
18
 62
     2
100
AcDbLine
 10
261.732622
 20
210.401862
 30
0.0
 11
261.115186
 21
206.449803
 31
0.0
  0
LINE
  5
672
100
AcDbEntity
  8
18
 62
     2
100
AcDbLine
 10
261.732622
 20
210.401862
 30
0.0
 11
263.173937
 21
206.67056
 31
0.0
  0
LINE
  5
673
100
AcDbEntity
  8
18
 62
     2
100
AcDbLine
 10
261.115186
 20
206.449803
 30
0.0
 11
263.173937
 21
206.67056
 31
0.0
  0
LINE
  5
674
100
AcDbEntity
  8
18
 62
     2
100
AcDbLine
 10
279.852042
 20
192.282442
 30
0.0
 11
276.12074
 21
193.723757
 31
0.0
  0
LINE
  5
675
100
AcDbEntity
  8
18
 62
     2
100
AcDbLine
 10
279.852042
 20
192.282442
 30
0.0
 11
275.899983
 21
191.665006
 31
0.0
  0
LINE
  5
676
100
AcDbEntity
  8
18
 62
     2
100
AcDbLine
 10
276.12074
 20
193.723757
 30
0.0
 11
275.899983
 21
191.665006
 31
0.0
  0
ARC
  5
677
100
AcDbEntity
  8
18
 62
     2
100
AcDbCircle
 10
279.852042
 20
210.401862
 30
0.0
 40
18.11942
100
AcDbArc
 50
180.0
 51
270.0
  0
ENDBLK
  5
678
100
AcDbEntity
  8
18
100
AcDbBlockEnd
  0
BLOCK
  5
679
100
AcDbEntity
  8
18
100
AcDbBlockBegin
  2
*D11
 70
     1
 10
0.0
 20
0.0
 30
0.0
  3
*D11
  1

  0
LINE
  5
67A
100
AcDbEntity
  8
18
 62
     2
100
AcDbLine
 10
219.532562
 20
206.953402
 30
0.0
 11
219.532562
 21
188.833982
 31
0.0
  0
LINE
  5
67B
100
AcDbEntity
  8
18
 62
     2
100
AcDbLine
 10
221.532562
 20
208.953402
 30
0.0
 11
239.651982
 21
208.953402
 31
0.0
  0
LINE
  5
67C
100
AcDbEntity
  8
18
 62
     2
100
AcDbLine
 10
219.532562
 20
190.833982
 30
0.0
 11
223.484621
 21
190.216546
 31
0.0
  0
LINE
  5
67D
100
AcDbEntity
  8
18
 62
     2
100
AcDbLine
 10
219.532562
 20
190.833982
 30
0.0
 11
223.263864
 21
192.275297
 31
0.0
  0
LINE
  5
67E
100
AcDbEntity
  8
18
 62
     2
100
AcDbLine
 10
223.484621
 20
190.216546
 30
0.0
 11
223.263864
 21
192.275297
 31
0.0
  0
LINE
  5
67F
100
AcDbEntity
  8
18
 62
     2
100
AcDbLine
 10
237.651982
 20
208.953402
 30
0.0
 11
236.210667
 21
205.2221
 31
0.0
  0
LINE
  5
680
100
AcDbEntity
  8
18
 62
     2
100
AcDbLine
 10
237.651982
 20
208.953402
 30
0.0
 11
238.269418
 21
205.001343
 31
0.0
  0
LINE
  5
681
100
AcDbEntity
  8
18
 62
     2
100
AcDbLine
 10
236.210667
 20
205.2221
 30
0.0
 11
238.269418
 21
205.001343
 31
0.0
  0
ARC
  5
682
100
AcDbEntity
  8
18
 62
     2
100
AcDbCircle
 10
219.532562
 20
208.953402
 30
0.0
 40
18.11942
100
AcDbArc
 50
270.0
 51
360.0
  0
ENDBLK
  5
683
100
AcDbEntity
  8
18
100
AcDbBlockEnd
  0
ENDSEC
  0
SECTION
  2
ENTITIES
  0
LINE
  5
34
100
AcDbEntity
  8
1
  6
CENTER
 62
     2
100
AcDbLine
 10
-248.022494
 20
123.520522
 30
0.0
 11
-248.022494
 21
204.736022
 31
0.0
  0
LINE
  5
35
100
AcDbEntity
  8
1
  6
DASHED
100
AcDbLine
 10
-282.172494
 20
139.39096
 30
0.0
 11
-282.172494
 21
189.39096
 31
0.0
  0
LINE
  5
36
100
AcDbEntity
  8
1
  6
DASHED
100
AcDbLine
 10
-212.172494
 20
139.39096
 30
0.0
 11
-212.172494
 21
189.39096
 31
0.0
  0
LINE
  5
37
100
AcDbEntity
  8
1
  6
DASHED
100
AcDbLine
 10
-272.172494
 20
199.39096
 30
0.0
 11
-222.172494
 21
199.39096
 31
0.0
  0
LINE
  5
38
100
AcDbEntity
  8
1
  6
DASHED
100
AcDbLine
 10
-272.172494
 20
129.39096
 30
0.0
 11
-222.172494
 21
129.39096
 31
0.0
  0
ARC
  5
39
100
AcDbEntity
  8
1
  6
DASHED
100
AcDbCircle
 10
-222.172494
 20
189.39096
 30
0.0
 40
10.0
100
AcDbArc
 50
0.0
 51
90.0
  0
ARC
  5
3A
100
AcDbEntity
  8
1
  6
DASHED
100
AcDbCircle
 10
-272.172494
 20
189.39096
 30
0.0
 40
10.0
100
AcDbArc
 50
90.0
 51
180.0
  0
ARC
  5
3B
100
AcDbEntity
  8
1
  6
DASHED
100
AcDbCircle
 10
-272.172494
 20
139.39096
 30
0.0
 40
10.0
100
AcDbArc
 50
180.0
 51
270.0
  0
ARC
  5
3C
100
AcDbEntity
  8
1
  6
DASHED
100
AcDbCircle
 10
-222.172494
 20
139.39096
 30
0.0
 40
10.0
100
AcDbArc
 50
270.0
 51
360.0
  0
LINE
  5
3D
100
AcDbEntity
  8
1
  6
CENTER
 62
     2
100
AcDbLine
 10
-247.172494
 20
54.421382
 30
0.0
 11
-247.172494
 21
-226.73256
 31
0.0
  0
CIRCLE
  5
3E
100
AcDbEntity
  8
1
  6
DASHED
100
AcDbCircle
 10
-271.92123
 20
189.139698
 30
0.0
 40
4.5
  0
CIRCLE
  5
3F
100
AcDbEntity
  8
1
  6
DASHED
100
AcDbCircle
 10
-222.423756
 20
139.642224
 30
0.0
 40
4.5
  0
CIRCLE
  5
40
100
AcDbEntity
  8
1
  6
DASHED
100
AcDbCircle
 10
-222.423756
 20
189.139698
 30
0.0
 40
4.5
  0
LINE
  5
41
100
AcDbEntity
  8
1
  6
CENTER
 62
     2
100
AcDbLine
 10
-230.873472
 20
189.139698
 30
0.0
 11
-214.14475
 21
189.139698
 31
0.0
  0
LINE
  5
42
100
AcDbEntity
  8
1
  6
CENTER
 62
     2
100
AcDbLine
 10
-222.423756
 20
197.70879
 30
0.0
 11
-222.423756
 21
180.730082
 31
0.0
  0
CIRCLE
  5
43
100
AcDbEntity
  8
1
  6
DASHED
100
AcDbCircle
 10
-271.92123
 20
139.642224
 30
0.0
 40
4.5
  0
LINE
  5
44
100
AcDbEntity
  8
1
  6
CENTER
 62
     2
100
AcDbLine
 10
-279.483672
 20
139.642224
 30
0.0
 11
-263.724768
 21
139.642224
 31
0.0
  0
LINE
  5
45
100
AcDbEntity
  8
1
  6
CENTER
 62
     2
100
AcDbLine
 10
-271.92123
 20
147.98547
 30
0.0
 11
-271.92123
 21
131.855754
 31
0.0
  0
LINE
  5
46
100
AcDbEntity
  8
1
  6
CENTER
 62
     2
100
AcDbLine
 10
88.264598
 20
78.058662
 30
0.0
 11
88.264598
 21
-229.453216
 31
0.0
  0
LINE
  5
47
100
AcDbEntity
  8
1
  6
CENTER
 62
     2
100
AcDbLine
 10
-310.416216
 20
-144.151336
 30
0.0
 11
-186.16582
 21
-144.151336
 31
0.0
  0
LINE
  5
48
100
AcDbEntity
  8
1
  6
CENTER
 62
     2
100
AcDbLine
 10
55.714666
 20
-144.151336
 30
0.0
 11
122.30732
 21
-144.151336
 31
0.0
  0
LINE
  5
49
100
AcDbEntity
  8
1
  6
CENTER
 62
     2
100
AcDbLine
 10
-248.022494
 20
-26.399486
 30
0.0
 11
-248.022494
 21
-229.453216
 31
0.0
  0
LINE
  5
4A
100
AcDbEntity
  8
1
100
AcDbLine
 10
-263.022494
 20
-209.151336
 30
0.0
 11
-233.022494
 21
-209.151336
 31
0.0
  0
LINE
  5
4B
100
AcDbEntity
  8
1
100
AcDbLine
 10
-282.172494
 20
-19.151336
 30
0.0
 11
-212.172494
 21
-19.151336
 31
0.0
  0
LINE
  5
4C
100
AcDbEntity
  8
1
100
AcDbLine
 10
-282.172494
 20
-19.151336
 30
0.0
 11
-282.172494
 21
-27.151336
 31
0.0
  0
LINE
  5
4D
100
AcDbEntity
  8
1
100
AcDbLine
 10
-212.172494
 20
-19.151336
 30
0.0
 11
-212.172494
 21
-27.151336
 31
0.0
  0
ARC
  5
4E
100
AcDbEntity
  8
1
100
AcDbCircle
 10
-278.172494
 20
-27.151336
 30
0.0
 40
4.0
100
AcDbArc
 50
180.0
 51
270.0
  0
ARC
  5
4F
100
AcDbEntity
  8
1
100
AcDbCircle
 10
-216.172494
 20
-27.151336
 30
0.0
 40
4.0
100
AcDbArc
 50
270.0
 51
360.0
  0
ARC
  5
50
100
AcDbEntity
  8
1
100
AcDbCircle
 10
-230.022494
 20
-95.899394
 30
0.0
 40
3.0
100
AcDbArc
 50
180.0
 51
249.542373
  0
ARC
  5
51
100
AcDbEntity
  8
1
100
AcDbCircle
 10
-266.022494
 20
-95.899394
 30
0.0
 40
3.0
100
AcDbArc
 50
290.457627
 51
360.0
  0
ARC
  5
52
100
AcDbEntity
  8
1
100
AcDbCircle
 10
-266.022494
 20
-192.40328
 30
0.0
 40
3.0
100
AcDbArc
 50
0.0
 51
69.542373
  0
ARC
  5
53
100
AcDbEntity
  8
1
100
AcDbCircle
 10
-230.022494
 20
-192.40328
 30
0.0
 40
3.0
100
AcDbArc
 50
110.457627
 51
180.0
  0
ARC
  5
54
100
AcDbEntity
  8
1
100
AcDbCircle
 10
-228.022494
 20
-36.151336
 30
0.0
 40
5.0
100
AcDbArc
 50
114.850532
 51
180.0
  0
ARC
  5
55
100
AcDbEntity
  8
1
100
AcDbCircle
 10
-268.022494
 20
-36.151336
 30
0.0
 40
5.0
100
AcDbArc
 50
0.0
 51
90.0
  0
ARC
  5
56
100
AcDbEntity
  8
1
100
AcDbCircle
 10
-215.022494
 20
-49.12126
 30
0.0
 40
18.0
100
AcDbArc
 50
145.617176
 51
180.0
  0
ARC
  5
57
100
AcDbEntity
  8
1
100
AcDbCircle
 10
-281.022494
 20
-48.965954
 30
0.0
 40
18.0
100
AcDbArc
 50
0.0
 51
82.556673
  0
LINE
  5
58
100
AcDbEntity
  8
1
100
AcDbLine
 10
-244.172494
 20
-49.12126
 30
0.0
 11
-250.172494
 21
-49.12126
 31
0.0
  0
LINE
  5
59
100
AcDbEntity
  8
1
100
AcDbLine
 10
-250.172494
 20
-33.651336
 30
0.0
 11
-250.172494
 21
-46.62126
 31
0.0
  0
LINE
  5
5A
100
AcDbEntity
  8
1
100
AcDbLine
 10
-244.172494
 20
-33.651336
 30
0.0
 11
-244.172494
 21
-46.62126
 31
0.0
  0
ARC
  5
5B
100
AcDbEntity
  8
1
100
AcDbCircle
 10
-241.672494
 20
-33.651336
 30
0.0
 40
2.5
100
AcDbArc
 50
90.0
 51
180.0
  0
ARC
  5
5C
100
AcDbEntity
  8
1
100
AcDbCircle
 10
-252.672494
 20
-33.651336
 30
0.0
 40
2.5
100
AcDbArc
 50
0.0
 51
90.0
  0
ARC
  5
5D
100
AcDbEntity
  8
1
100
AcDbCircle
 10
-252.672494
 20
-46.62126
 30
0.0
 40
2.5
100
AcDbArc
 50
270.0
 51
360.0
  0
ARC
  5
5E
100
AcDbEntity
  8
1
100
AcDbCircle
 10
-241.672494
 20
-46.62126
 30
0.0
 40
2.5
100
AcDbArc
 50
180.0
 51
270.0
  0
CIRCLE
  5
5F
100
AcDbEntity
  8
1
100
AcDbCircle
 10
-248.022494
 20
-144.151336
 30
0.0
 40
30.0
  0
ARC
  5
60
100
AcDbEntity
  8
1
100
AcDbCircle
 10
-210.899388
 20
-107.02823
 30
0.0
 40
7.0
100
AcDbArc
 50
188.130102
 51
261.869898
  0
ARC
  5
61
100
AcDbEntity
  8
1
100
AcDbCircle
 10
-210.899388
 20
-181.274442
 30
0.0
 40
7.0
100
AcDbArc
 50
98.130102
 51
171.869898
  0
ARC
  5
62
100
AcDbEntity
  8
1
100
AcDbCircle
 10
-248.022494
 20
-144.151336
 30
0.0
 40
48.5
100
AcDbArc
 50
324.527283
 51
35.472717
  0
ARC
  5
63
100
AcDbEntity
  8
1
100
AcDbCircle
 10
-285.1456
 20
-181.274442
 30
0.0
 40
7.0
100
AcDbArc
 50
8.130102
 51
81.869898
  0
ARC
  5
64
100
AcDbEntity
  8
1
100
AcDbCircle
 10
-248.022494
 20
-144.151336
 30
0.0
 40
48.5
100
AcDbArc
 50
234.527283
 51
305.472717
  0
ARC
  5
65
100
AcDbEntity
  8
1
100
AcDbCircle
 10
-285.1456
 20
-107.02823
 30
0.0
 40
7.0
100
AcDbArc
 50
278.130102
 51
351.869898
  0
ARC
  5
66
100
AcDbEntity
  8
1
100
AcDbCircle
 10
-248.022494
 20
-144.151336
 30
0.0
 40
48.5
100
AcDbArc
 50
54.527283
 51
125.472717
  0
ARC
  5
67
100
AcDbEntity
  8
1
100
AcDbCircle
 10
-248.022494
 20
-144.151336
 30
0.0
 40
48.5
100
AcDbArc
 50
144.527283
 51
215.472717
  0
ARC
  5
68
100
AcDbEntity
  8
1
100
AcDbCircle
 10
-273.266206
 20
-108.725288
 30
0.0
 40
5.0
100
AcDbArc
 50
125.472717
 51
171.869898
  0
ARC
  5
69
100
AcDbEntity
  8
1
100
AcDbCircle
 10
-283.448544
 20
-118.907624
 30
0.0
 40
5.0
100
AcDbArc
 50
98.130102
 51
144.527283
  0
ARC
  5
6A
100
AcDbEntity
  8
1
100
AcDbCircle
 10
-283.448544
 20
-169.395048
 30
0.0
 40
5.0
100
AcDbArc
 50
215.472717
 51
261.869898
  0
ARC
  5
6B
100
AcDbEntity
  8
1
100
AcDbCircle
 10
-273.266206
 20
-179.577386
 30
0.0
 40
5.0
100
AcDbArc
 50
188.130102
 51
234.527283
  0
ARC
  5
6C
100
AcDbEntity
  8
1
100
AcDbCircle
 10
-222.778782
 20
-179.577386
 30
0.0
 40
5.0
100
AcDbArc
 50
305.472717
 51
351.869898
  0
ARC
  5
6D
100
AcDbEntity
  8
1
100
AcDbCircle
 10
-212.596444
 20
-169.395048
 30
0.0
 40
5.0
100
AcDbArc
 50
278.130102
 51
324.527283
  0
ARC
  5
6E
100
AcDbEntity
  8
1
100
AcDbCircle
 10
-212.596444
 20
-118.907624
 30
0.0
 40
5.0
100
AcDbArc
 50
35.472717
 51
81.869898
  0
ARC
  5
6F
100
AcDbEntity
  8
1
100
AcDbCircle
 10
-222.778782
 20
-108.725288
 30
0.0
 40
5.0
100
AcDbArc
 50
8.130102
 51
54.527283
  0
LINE
  5
70
100
AcDbEntity
  8
1
100
AcDbLine
 10
-220.687418
 20
-104.08834
 30
0.0
 11
-209.537212
 21
-92.938134
 31
0.0
  0
LINE
  5
71
100
AcDbEntity
  8
1
100
AcDbLine
 10
-290.022494
 20
-84.151336
 30
0.0
 11
-290.022494
 21
-84.452852
 31
0.0
  0
LINE
  5
72
100
AcDbEntity
  8
1
100
AcDbLine
 10
-206.022494
 20
-84.151336
 30
0.0
 11
-206.022494
 21
-84.452852
 31
0.0
  0
ARC
  5
73
100
AcDbEntity
  8
1
100
AcDbCircle
 10
-218.022494
 20
-84.151336
 30
0.0
 40
12.0
100
AcDbArc
 50
0.0
 51
90.0
  0
ARC
  5
74
100
AcDbEntity
  8
1
100
AcDbCircle
 10
-278.022494
 20
-84.151336
 30
0.0
 40
12.0
100
AcDbArc
 50
90.0
 51
180.0
  0
LINE
  5
75
100
AcDbEntity
  8
1
100
AcDbLine
 10
-278.022494
 20
-72.151336
 30
0.0
 11
-268.022494
 21
-72.151336
 31
0.0
  0
LINE
  5
76
100
AcDbEntity
  8
1
100
AcDbLine
 10
-228.022494
 20
-72.151336
 30
0.0
 11
-218.022494
 21
-72.151336
 31
0.0
  0
ARC
  5
77
100
AcDbEntity
  8
1
100
AcDbCircle
 10
-218.022494
 20
-84.452852
 30
0.0
 40
12.0
100
AcDbArc
 50
315.0
 51
360.0
  0
ARC
  5
78
100
AcDbEntity
  8
1
100
AcDbCircle
 10
-278.022494
 20
-84.452852
 30
0.0
 40
12.0
100
AcDbArc
 50
180.0
 51
225.0
  0
LINE
  5
79
100
AcDbEntity
  8
1
100
AcDbLine
 10
-275.357568
 20
-104.08834
 30
0.0
 11
-286.507774
 21
-92.938134
 31
0.0
  0
ARC
  5
7A
100
AcDbEntity
  8
1
100
AcDbCircle
 10
-228.022494
 20
-67.151336
 30
0.0
 40
5.0
100
AcDbArc
 50
180.0
 51
270.0
  0
ARC
  5
7B
100
AcDbEntity
  8
1
100
AcDbCircle
 10
-268.022494
 20
-67.151336
 30
0.0
 40
5.0
100
AcDbArc
 50
270.0
 51
360.0
  0
LINE
  5
7C
100
AcDbEntity
  8
1
100
AcDbLine
 10
-216.746572
 20
-92.162716
 30
0.0
 11
-215.40718
 21
-88.929138
 31
0.0
  0
LINE
  5
7D
100
AcDbEntity
  8
1
100
AcDbLine
 10
-232.037012
 20
-82.040836
 30
0.0
 11
-233.376404
 21
-85.274414
 31
0.0
  0
LINE
  5
7E
100
AcDbEntity
  8
1
100
AcDbLine
 10
-262.668584
 20
-85.274414
 30
0.0
 11
-264.007976
 21
-82.040836
 31
0.0
  0
LINE
  5
7F
100
AcDbEntity
  8
1
100
AcDbLine
 10
-280.637808
 20
-88.929138
 30
0.0
 11
-279.298416
 21
-92.162716
 31
0.0
  0
ARC
  5
80
100
AcDbEntity
  8
1
100
AcDbCircle
 10
-225.061488
 20
-88.718564
 30
0.0
 40
9.0
100
AcDbArc
 50
157.5
 51
337.5
  0
ARC
  5
81
100
AcDbEntity
  8
1
100
AcDbCircle
 10
-223.722096
 20
-85.484986
 30
0.0
 40
9.0
100
AcDbArc
 50
337.5
 51
157.5
  0
LINE
  5
82
100
AcDbEntity
  8
1
100
AcDbLine
 10
-233.022494
 20
-95.899394
 30
0.0
 11
-233.022494
 21
-94.011232
 31
0.0
  0
LINE
  5
83
100
AcDbEntity
  8
1
100
AcDbLine
 10
-233.022494
 20
-83.425898
 30
0.0
 11
-233.022494
 21
-36.151336
 31
0.0
  0
ARC
  5
84
100
AcDbEntity
  8
1
100
AcDbCircle
 10
-270.9835
 20
-88.718564
 30
0.0
 40
9.0
100
AcDbArc
 50
202.5
 51
22.5
  0
ARC
  5
85
100
AcDbEntity
  8
1
100
AcDbCircle
 10
-272.322892
 20
-85.484986
 30
0.0
 40
9.0
100
AcDbArc
 50
22.5
 51
202.5
  0
LINE
  5
86
100
AcDbEntity
  8
1
100
AcDbLine
 10
-263.022494
 20
-95.899394
 30
0.0
 11
-263.022494
 21
-94.011232
 31
0.0
  0
LINE
  5
87
100
AcDbEntity
  8
1
100
AcDbLine
 10
-263.022494
 20
-83.425898
 30
0.0
 11
-263.022494
 21
-36.151336
 31
0.0
  0
ARC
  5
88
100
AcDbEntity
  8
1
100
AcDbCircle
 10
-238.022494
 20
-83.425898
 30
0.0
 40
5.0
100
AcDbArc
 50
337.787198
 51
360.0
  0
ARC
  5
89
100
AcDbEntity
  8
1
100
AcDbCircle
 10
-238.022494
 20
-94.011232
 30
0.0
 40
5.0
100
AcDbArc
 50
0.0
 51
22.212802
  0
ARC
  5
8A
100
AcDbEntity
  8
1
100
AcDbCircle
 10
-258.022494
 20
-94.011232
 30
0.0
 40
5.0
100
AcDbArc
 50
157.787198
 51
180.0
  0
ARC
  5
8B
100
AcDbEntity
  8
1
100
AcDbCircle
 10
-258.022494
 20
-83.425898
 30
0.0
 40
5.0
100
AcDbArc
 50
180.0
 51
202.212802
  0
LINE
  5
8C
100
AcDbEntity
  8
1
100
AcDbLine
 10
-216.35743
 20
-186.901336
 30
0.0
 11
-218.821476
 21
-182.633484
 31
0.0
  0
LINE
  5
8D
100
AcDbEntity
  8
1
100
AcDbLine
 10
-277.522494
 20
-190.651336
 30
0.0
 11
-270.9835
 21
-190.651336
 31
0.0
  0
LINE
  5
8E
100
AcDbEntity
  8
1
100
AcDbLine
 10
-225.061488
 20
-190.651336
 30
0.0
 11
-218.522494
 21
-190.651336
 31
0.0
  0
ARC
  5
8F
100
AcDbEntity
  8
1
100
AcDbCircle
 10
-270.9835
 20
-199.651336
 30
0.0
 40
9.0
100
AcDbArc
 50
337.787198
 51
90.0
  0
ARC
  5
90
100
AcDbEntity
  8
1
100
AcDbCircle
 10
-225.061488
 20
-199.651336
 30
0.0
 40
9.0
100
AcDbArc
 50
90.0
 51
202.212802
  0
ARC
  5
91
100
AcDbEntity
  8
1
100
AcDbCircle
 10
-218.522494
 20
-188.151336
 30
0.0
 40
2.5
100
AcDbArc
 50
270.0
 51
30.0
  0
ARC
  5
92
100
AcDbEntity
  8
1
100
AcDbCircle
 10
-277.522494
 20
-188.151336
 30
0.0
 40
2.5
100
AcDbArc
 50
150.0
 51
270.0
  0
LINE
  5
93
100
AcDbEntity
  8
1
100
AcDbLine
 10
-233.022494
 20
-213.651336
 30
0.0
 11
-233.022494
 21
-204.944004
 31
0.0
  0
LINE
  5
94
100
AcDbEntity
  8
1
100
AcDbLine
 10
-233.022494
 20
-194.35867
 30
0.0
 11
-233.022494
 21
-192.40328
 31
0.0
  0
LINE
  5
95
100
AcDbEntity
  8
1
100
AcDbLine
 10
-263.022494
 20
-213.651336
 30
0.0
 11
-263.022494
 21
-204.944004
 31
0.0
  0
LINE
  5
96
100
AcDbEntity
  8
1
100
AcDbLine
 10
-263.022494
 20
-194.35867
 30
0.0
 11
-263.022494
 21
-192.40328
 31
0.0
  0
LINE
  5
97
100
AcDbEntity
  8
1
100
AcDbLine
 10
-279.687556
 20
-186.901336
 30
0.0
 11
-277.223512
 21
-182.633484
 31
0.0
  0
ARC
  5
98
100
AcDbEntity
  8
1
100
AcDbCircle
 10
-258.022494
 20
-194.35867
 30
0.0
 40
5.0
100
AcDbArc
 50
180.0
 51
202.212802
  0
ARC
  5
99
100
AcDbEntity
  8
1
100
AcDbCircle
 10
-238.022494
 20
-194.35867
 30
0.0
 40
5.0
100
AcDbArc
 50
337.787198
 51
360.0
  0
ARC
  5
9A
100
AcDbEntity
  8
1
100
AcDbCircle
 10
-238.022494
 20
-204.944004
 30
0.0
 40
5.0
100
AcDbArc
 50
0.0
 51
22.212802
  0
ARC
  5
9B
100
AcDbEntity
  8
1
100
AcDbCircle
 10
-258.022494
 20
-204.944004
 30
0.0
 40
5.0
100
AcDbArc
 50
157.787198
 51
180.0
  0
LINE
  5
9C
100
AcDbEntity
  8
1
100
AcDbLine
 10
-263.022494
 20
-210.651336
 30
0.0
 11
-233.022494
 21
-210.651336
 31
0.0
  0
LINE
  5
9D
100
AcDbEntity
  8
1
100
AcDbLine
 10
-263.022494
 20
-213.651336
 30
0.0
 11
-233.022494
 21
-213.651336
 31
0.0
  0
LINE
  5
9E
100
AcDbEntity
  8
1
  6
CENTER
 62
     2
100
AcDbLine
 10
-257.522494
 20
-203.914902
 30
0.0
 11
-257.522494
 21
-222.186142
 31
0.0
  0
LINE
  5
9F
100
AcDbEntity
  8
1
  6
CENTER
 62
     2
100
AcDbLine
 10
-238.522494
 20
-203.914902
 30
0.0
 11
-238.522494
 21
-222.186142
 31
0.0
  0
LINE
  5
A0
100
AcDbEntity
  8
1
100
AcDbLine
 10
-233.922494
 20
-214.951336
 30
0.0
 11
-233.922494
 21
-218.047192
 31
0.0
  0
LINE
  5
A1
100
AcDbEntity
  8
1
100
AcDbLine
 10
-233.922494
 20
-218.047192
 30
0.0
 11
-234.622494
 21
-218.451336
 31
0.0
  0
LINE
  5
A2
100
AcDbEntity
  8
1
100
AcDbLine
 10
-236.222494
 20
-214.951336
 30
0.0
 11
-236.222494
 21
-218.047192
 31
0.0
  0
ARC
  5
A3
100
AcDbEntity
  8
1
100
AcDbCircle
 10
-235.072494
 20
-216.568828
 30
0.0
 40
1.872982
100
AcDbArc
 50
232.121121
 51
307.878879
  0
ARC
  5
A4
100
AcDbEntity
  8
1
100
AcDbCircle
 10
-238.522494
 20
-211.54181
 30
0.0
 40
6.9
100
AcDbArc
 50
250.528777
 51
289.471219
  0
LINE
  5
A5
100
AcDbEntity
  8
1
100
AcDbLine
 10
-243.122494
 20
-214.951336
 30
0.0
 11
-243.122494
 21
-218.047192
 31
0.0
  0
LINE
  5
A6
100
AcDbEntity
  8
1
100
AcDbLine
 10
-243.122494
 20
-218.047192
 30
0.0
 11
-242.422494
 21
-218.451336
 31
0.0
  0
LINE
  5
A7
100
AcDbEntity
  8
1
100
AcDbLine
 10
-242.422494
 20
-218.451336
 30
0.0
 11
-234.622494
 21
-218.451336
 31
0.0
  0
LINE
  5
A8
100
AcDbEntity
  8
1
100
AcDbLine
 10
-240.822494
 20
-214.951336
 30
0.0
 11
-240.822494
 21
-218.047192
 31
0.0
  0
ARC
  5
A9
100
AcDbEntity
  8
1
100
AcDbCircle
 10
-241.972494
 20
-216.568828
 30
0.0
 40
1.872982
100
AcDbArc
 50
232.121121
 51
307.878879
  0
LINE
  5
AA
100
AcDbEntity
  8
1
100
AcDbLine
 10
-233.922494
 20
-213.651336
 30
0.0
 11
-233.922494
 21
-214.951336
 31
0.0
  0
LINE
  5
AB
100
AcDbEntity
  8
1
100
AcDbLine
 10
-233.922494
 20
-214.951336
 30
0.0
 11
-243.122494
 21
-214.951336
 31
0.0
  0
LINE
  5
AC
100
AcDbEntity
  8
1
100
AcDbLine
 10
-243.122494
 20
-214.951336
 30
0.0
 11
-243.122494
 21
-213.651336
 31
0.0
  0
LINE
  5
AD
100
AcDbEntity
  8
1
100
AcDbLine
 10
-238.522494
 20
-214.951336
 30
0.0
 11
-239.022494
 21
-213.651336
 31
0.0
  0
LINE
  5
AE
100
AcDbEntity
  8
1
100
AcDbLine
 10
-238.522494
 20
-213.651336
 30
0.0
 11
-238.022494
 21
-214.951336
 31
0.0
  0
LINE
  5
AF
100
AcDbEntity
  8
1
100
AcDbLine
 10
-252.922494
 20
-214.951336
 30
0.0
 11
-252.922494
 21
-218.047192
 31
0.0
  0
LINE
  5
B0
100
AcDbEntity
  8
1
100
AcDbLine
 10
-252.922494
 20
-218.047192
 30
0.0
 11
-253.622494
 21
-218.451336
 31
0.0
  0
LINE
  5
B1
100
AcDbEntity
  8
1
100
AcDbLine
 10
-255.222494
 20
-214.951336
 30
0.0
 11
-255.222494
 21
-218.047192
 31
0.0
  0
ARC
  5
B2
100
AcDbEntity
  8
1
100
AcDbCircle
 10
-254.072494
 20
-216.568828
 30
0.0
 40
1.872982
100
AcDbArc
 50
232.121121
 51
307.878879
  0
ARC
  5
B3
100
AcDbEntity
  8
1
100
AcDbCircle
 10
-257.522494
 20
-211.54181
 30
0.0
 40
6.9
100
AcDbArc
 50
250.528777
 51
289.471219
  0
LINE
  5
B4
100
AcDbEntity
  8
1
100
AcDbLine
 10
-262.122494
 20
-214.951336
 30
0.0
 11
-262.122494
 21
-218.047192
 31
0.0
  0
LINE
  5
B5
100
AcDbEntity
  8
1
100
AcDbLine
 10
-262.122494
 20
-218.047192
 30
0.0
 11
-261.422494
 21
-218.451336
 31
0.0
  0
LINE
  5
B6
100
AcDbEntity
  8
1
100
AcDbLine
 10
-261.422494
 20
-218.451336
 30
0.0
 11
-253.622494
 21
-218.451336
 31
0.0
  0
LINE
  5
B7
100
AcDbEntity
  8
1
100
AcDbLine
 10
-259.822494
 20
-214.951336
 30
0.0
 11
-259.822494
 21
-218.047192
 31
0.0
  0
ARC
  5
B8
100
AcDbEntity
  8
1
100
AcDbCircle
 10
-260.972494
 20
-216.568828
 30
0.0
 40
1.872982
100
AcDbArc
 50
232.121121
 51
307.878879
  0
LINE
  5
B9
100
AcDbEntity
  8
1
100
AcDbLine
 10
-252.922494
 20
-213.651336
 30
0.0
 11
-252.922494
 21
-214.951336
 31
0.0
  0
LINE
  5
BA
100
AcDbEntity
  8
1
100
AcDbLine
 10
-252.922494
 20
-214.951336
 30
0.0
 11
-262.122494
 21
-214.951336
 31
0.0
  0
LINE
  5
BB
100
AcDbEntity
  8
1
100
AcDbLine
 10
-262.122494
 20
-214.951336
 30
0.0
 11
-262.122494
 21
-213.651336
 31
0.0
  0
LINE
  5
BC
100
AcDbEntity
  8
1
100
AcDbLine
 10
-257.522494
 20
-214.951336
 30
0.0
 11
-258.022494
 21
-213.651336
 31
0.0
  0
LINE
  5
BD
100
AcDbEntity
  8
1
100
AcDbLine
 10
-257.522494
 20
-213.651336
 30
0.0
 11
-257.022494
 21
-214.951336
 31
0.0
  0
LINE
  5
BE
100
AcDbEntity
  8
1
  6
DASHED
100
AcDbLine
 10
-282.31535
 20
157.859392
 30
0.0
 11
-282.31535
 21
161.39096
 31
0.0
  0
LINE
  5
BF
100
AcDbEntity
  8
1
  6
DASHED
100
AcDbLine
 10
-294.52528
 20
170.997684
 30
0.0
 11
-286.038848
 21
168.756838
 31
0.0
  0
LINE
  5
C0
100
AcDbEntity
  8
1
  6
DASHED
100
AcDbLine
 10
-294.52528
 20
150.784238
 30
0.0
 11
-286.038848
 21
153.025084
 31
0.0
  0
ARC
  5
C1
100
AcDbEntity
  8
1
  6
DASHED
100
AcDbCircle
 10
-294.01468
 20
172.931408
 30
0.0
 40
2.0
100
AcDbArc
 50
180.0
 51
255.208621
  0
ARC
  5
C2
100
AcDbEntity
  8
1
  6
DASHED
100
AcDbCircle
 10
-287.31535
 20
157.859392
 30
0.0
 40
5.0
100
AcDbArc
 50
284.791379
 51
360.0
  0
ARC
  5
C3
100
AcDbEntity
  8
1
  6
DASHED
100
AcDbCircle
 10
-287.31535
 20
163.922528
 30
0.0
 40
5.0
100
AcDbArc
 50
43.922629
 51
75.208621
  0
LINE
  5
C4
100
AcDbEntity
  8
1
  6
DASHED
100
AcDbLine
 10
-288.022494
 20
167.39096
 30
0.0
 11
-282.172494
 21
167.39096
 31
0.0
  0
LINE
  5
C5
100
AcDbEntity
  8
1
  6
DASHED
100
AcDbLine
 10
-288.022494
 20
161.39096
 30
0.0
 11
-282.172494
 21
161.39096
 31
0.0
  0
LINE
  5
C6
100
AcDbEntity
  8
1
  6
DASHED
100
AcDbLine
 10
-290.022494
 20
165.39096
 30
0.0
 11
-290.022494
 21
163.39096
 31
0.0
  0
ARC
  5
C7
100
AcDbEntity
  8
1
  6
DASHED
100
AcDbCircle
 10
-288.022494
 20
165.39096
 30
0.0
 40
2.0
100
AcDbArc
 50
90.0
 51
180.0
  0
ARC
  5
C8
100
AcDbEntity
  8
1
  6
DASHED
100
AcDbCircle
 10
-288.022494
 20
163.39096
 30
0.0
 40
2.0
100
AcDbArc
 50
180.0
 51
270.0
  0
LINE
  5
C9
100
AcDbEntity
  8
1
  6
DASHED
100
AcDbLine
 10
-294.52528
 20
171.39096
 30
0.0
 11
-285.992818
 21
171.39096
 31
0.0
  0
LINE
  5
CA
100
AcDbEntity
  8
1
  6
DASHED
100
AcDbLine
 10
-294.52528
 20
150.39096
 30
0.0
 11
-285.992818
 21
150.39096
 31
0.0
  0
ARC
  5
CB
100
AcDbEntity
  8
1
  6
DASHED
100
AcDbCircle
 10
-280.195852
 20
129.890398
 30
0.0
 40
21.30441
100
AcDbArc
 50
95.323608
 51
105.789371
  0
LINE
  5
CC
100
AcDbEntity
  8
1
  6
DASHED
100
AcDbLine
 10
-285.992818
 20
143.39096
 30
0.0
 11
-285.992818
 21
150.39096
 31
0.0
  0
LINE
  5
CD
100
AcDbEntity
  8
1
  6
DASHED
100
AcDbLine
 10
-285.992818
 20
171.39096
 30
0.0
 11
-285.992818
 21
186.39096
 31
0.0
  0
ARC
  5
CE
100
AcDbEntity
  8
1
  6
DASHED
100
AcDbCircle
 10
-280.195852
 20
191.891522
 30
0.0
 40
21.30441
100
AcDbArc
 50
254.210629
 51
264.676392
  0
LINE
  5
CF
100
AcDbEntity
  8
1
100
AcDbLine
 10
110.264598
 20
-95.651336
 30
0.0
 11
110.264598
 21
-192.651336
 31
0.0
  0
LINE
  5
D0
100
AcDbEntity
  8
1
100
AcDbLine
 10
67.264598
 20
-95.651336
 30
0.0
 11
67.264598
 21
-192.651336
 31
0.0
  0
ARC
  5
D1
100
AcDbEntity
  8
1
100
AcDbCircle
 10
115.76516
 20
-111.977978
 30
0.0
 40
21.30441
100
AcDbArc
 50
164.855941
 51
180.0
  0
ARC
  5
D2
100
AcDbEntity
  8
1
100
AcDbCircle
 10
53.764036
 20
-111.977978
 30
0.0
 40
21.30441
100
AcDbArc
 50
0.0
 51
15.144059
  0
ARC
  5
D3
100
AcDbEntity
  8
1
100
AcDbCircle
 10
97.347706
 20
-111.977978
 30
0.0
 40
2.886956
100
AcDbArc
 50
180.0
 51
223.816672
  0
ARC
  5
D4
100
AcDbEntity
  8
1
100
AcDbCircle
 10
72.181488
 20
-111.977978
 30
0.0
 40
2.886956
100
AcDbArc
 50
316.183328
 51
360.0
  0
LINE
  5
D5
100
AcDbEntity
  8
1
100
AcDbLine
 10
67.264598
 20
-106.181012
 30
0.0
 11
74.28165
 21
-106.181012
 31
0.0
  0
LINE
  5
D6
100
AcDbEntity
  8
1
100
AcDbLine
 10
95.247544
 20
-106.181012
 30
0.0
 11
110.264598
 21
-106.181012
 31
0.0
  0
LINE
  5
D7
100
AcDbEntity
  8
1
100
AcDbLine
 10
67.264598
 20
-113.976772
 30
0.0
 11
74.264598
 21
-113.976772
 31
0.0
  0
LINE
  5
D8
100
AcDbEntity
  8
1
100
AcDbLine
 10
95.264598
 20
-113.976772
 30
0.0
 11
110.264598
 21
-113.976772
 31
0.0
  0
ARC
  5
D9
100
AcDbEntity
  8
1
100
AcDbCircle
 10
115.76516
 20
-176.324696
 30
0.0
 40
21.30441
100
AcDbArc
 50
180.0
 51
190.414423
  0
ARC
  5
DA
100
AcDbEntity
  8
1
100
AcDbCircle
 10
53.764036
 20
-176.324696
 30
0.0
 40
21.30441
100
AcDbArc
 50
349.585577
 51
360.0
  0
ARC
  5
DB
100
AcDbEntity
  8
1
100
AcDbCircle
 10
97.347706
 20
-176.324696
 30
0.0
 40
2.886956
100
AcDbArc
 50
136.183328
 51
180.0
  0
ARC
  5
DC
100
AcDbEntity
  8
1
100
AcDbCircle
 10
72.181488
 20
-176.324696
 30
0.0
 40
2.886956
100
AcDbArc
 50
0.0
 51
43.816672
  0
LINE
  5
DD
100
AcDbEntity
  8
1
100
AcDbLine
 10
67.264598
 20
-182.121662
 30
0.0
 11
75.397608
 21
-182.121662
 31
0.0
  0
LINE
  5
DE
100
AcDbEntity
  8
1
100
AcDbLine
 10
94.131588
 20
-182.121662
 30
0.0
 11
110.264598
 21
-182.121662
 31
0.0
  0
LINE
  5
DF
100
AcDbEntity
  8
1
100
AcDbLine
 10
67.264598
 20
-174.325902
 30
0.0
 11
74.264598
 21
-174.325902
 31
0.0
  0
LINE
  5
E0
100
AcDbEntity
  8
1
100
AcDbLine
 10
95.264598
 20
-174.325902
 30
0.0
 11
110.264598
 21
-174.325902
 31
0.0
  0
LINE
  5
E1
100
AcDbEntity
  8
1
100
AcDbLine
 10
76.764598
 20
-137.151336
 30
0.0
 11
92.764598
 21
-137.151336
 31
0.0
  0
LINE
  5
E2
100
AcDbEntity
  8
1
100
AcDbLine
 10
76.764598
 20
-151.151336
 30
0.0
 11
92.764598
 21
-151.151336
 31
0.0
  0
ARC
  5
E3
100
AcDbEntity
  8
1
100
AcDbCircle
 10
76.764598
 20
-134.651336
 30
0.0
 40
2.5
100
AcDbArc
 50
180.0
 51
270.0
  0
ARC
  5
E4
100
AcDbEntity
  8
1
100
AcDbCircle
 10
92.764598
 20
-134.651336
 30
0.0
 40
2.5
100
AcDbArc
 50
270.0
 51
360.0
  0
ARC
  5
E5
100
AcDbEntity
  8
1
100
AcDbCircle
 10
92.764598
 20
-153.651336
 30
0.0
 40
2.5
100
AcDbArc
 50
0.0
 51
90.0
  0
ARC
  5
E6
100
AcDbEntity
  8
1
100
AcDbCircle
 10
76.764598
 20
-153.651336
 30
0.0
 40
2.5
100
AcDbArc
 50
90.0
 51
180.0
  0
LINE
  5
E7
100
AcDbEntity
  8
1
100
AcDbLine
 10
80.381912
 20
-133.651336
 30
0.0
 11
89.147284
 21
-133.651336
 31
0.0
  0
LINE
  5
E8
100
AcDbEntity
  8
1
100
AcDbLine
 10
80.381912
 20
-154.651336
 30
0.0
 11
89.147284
 21
-154.651336
 31
0.0
  0
LINE
  5
E9
100
AcDbEntity
  8
1
100
AcDbLine
 10
91.647284
 20
-165.949802
 30
0.0
 11
91.647284
 21
-157.151336
 31
0.0
  0
LINE
  5
EA
100
AcDbEntity
  8
1
100
AcDbLine
 10
91.647284
 20
-131.151336
 30
0.0
 11
91.647284
 21
-119.55178
 31
0.0
  0
LINE
  5
EB
100
AcDbEntity
  8
1
100
AcDbLine
 10
77.881912
 20
-165.949802
 30
0.0
 11
77.881912
 21
-157.151336
 31
0.0
  0
LINE
  5
EC
100
AcDbEntity
  8
1
100
AcDbLine
 10
77.881912
 20
-131.151336
 30
0.0
 11
77.881912
 21
-119.55178
 31
0.0
  0
ARC
  5
ED
100
AcDbEntity
  8
1
100
AcDbCircle
 10
80.381912
 20
-157.151336
 30
0.0
 40
2.5
100
AcDbArc
 50
90.0
 51
180.0
  0
ARC
  5
EE
100
AcDbEntity
  8
1
100
AcDbCircle
 10
89.147284
 20
-157.151336
 30
0.0
 40
2.5
100
AcDbArc
 50
0.0
 51
90.0
  0
LINE
  5
EF
100
AcDbEntity
  8
1
100
AcDbLine
 10
91.647284
 20
-133.651336
 30
0.0
 11
93.19756
 21
-135.151336
 31
0.0
  0
LINE
  5
F0
100
AcDbEntity
  8
1
100
AcDbLine
 10
77.881912
 20
-133.651336
 30
0.0
 11
76.331634
 21
-135.151336
 31
0.0
  0
ARC
  5
F1
100
AcDbEntity
  8
1
100
AcDbCircle
 10
89.147284
 20
-131.151336
 30
0.0
 40
2.5
100
AcDbArc
 50
270.0
 51
360.0
  0
ARC
  5
F2
100
AcDbEntity
  8
1
100
AcDbCircle
 10
80.381912
 20
-131.151336
 30
0.0
 40
2.5
100
AcDbArc
 50
180.0
 51
270.0
  0
LINE
  5
F3
100
AcDbEntity
  8
1
100
AcDbLine
 10
93.19756
 20
-153.151336
 30
0.0
 11
91.647284
 21
-154.651336
 31
0.0
  0
LINE
  5
F4
100
AcDbEntity
  8
1
100
AcDbLine
 10
76.331634
 20
-153.151336
 30
0.0
 11
77.881912
 21
-154.651336
 31
0.0
  0
LINE
  5
F5
100
AcDbEntity
  8
1
100
AcDbLine
 10
73.264598
 20
-36.151336
 30
0.0
 11
73.264598
 21
-95.710186
 31
0.0
  0
LINE
  5
F6
100
AcDbEntity
  8
1
100
AcDbLine
 10
103.264598
 20
-36.151336
 30
0.0
 11
103.264598
 21
-95.710186
 31
0.0
  0
ARC
  5
F7
100
AcDbEntity
  8
1
100
AcDbCircle
 10
106.264598
 20
-92.651336
 30
0.0
 40
3.0
100
AcDbArc
 50
180.0
 51
270.0
  0
ARC
  5
F8
100
AcDbEntity
  8
1
100
AcDbCircle
 10
70.264598
 20
-92.651336
 30
0.0
 40
3.0
100
AcDbArc
 50
270.0
 51
360.0
  0
LINE
  5
F9
100
AcDbEntity
  8
1
100
AcDbLine
 10
67.264598
 20
-95.651336
 30
0.0
 11
70.264598
 21
-95.651336
 31
0.0
  0
LINE
  5
FA
100
AcDbEntity
  8
1
100
AcDbLine
 10
106.264598
 20
-95.651336
 30
0.0
 11
110.264598
 21
-95.651336
 31
0.0
  0
ARC
  5
FB
100
AcDbEntity
  8
1
100
AcDbCircle
 10
106.264598
 20
-95.710186
 30
0.0
 40
3.0
100
AcDbArc
 50
180.0
 51
270.0
  0
ARC
  5
FC
100
AcDbEntity
  8
1
100
AcDbCircle
 10
70.264598
 20
-95.710186
 30
0.0
 40
3.0
100
AcDbArc
 50
270.0
 51
360.0
  0
ARC
  5
FD
100
AcDbEntity
  8
1
100
AcDbCircle
 10
89.147284
 20
-119.55178
 30
0.0
 40
2.5
100
AcDbArc
 50
0.0
 51
90.0
  0
ARC
  5
FE
100
AcDbEntity
  8
1
100
AcDbCircle
 10
80.381912
 20
-119.55178
 30
0.0
 40
2.5
100
AcDbArc
 50
90.0
 51
180.0
  0
ARC
  5
FF
100
AcDbEntity
  8
1
100
AcDbCircle
 10
80.381912
 20
-165.949802
 30
0.0
 40
2.5
100
AcDbArc
 50
180.0
 51
270.0
  0
ARC
  5
100
100
AcDbEntity
  8
1
100
AcDbCircle
 10
89.147284
 20
-165.949802
 30
0.0
 40
2.5
100
AcDbArc
 50
270.0
 51
360.0
  0
ARC
  5
101
100
AcDbEntity
  8
1
100
AcDbCircle
 10
93.422034
 20
-105.930904
 30
0.0
 40
1.842564
100
AcDbArc
 50
344.855941
 51
85.475512
  0
ARC
  5
102
100
AcDbEntity
  8
1
100
AcDbCircle
 10
76.107162
 20
-105.930904
 30
0.0
 40
1.842564
100
AcDbArc
 50
90.0
 51
195.144059
  0
LINE
  5
103
100
AcDbEntity
  8
1
100
AcDbLine
 10
74.848536
 20
-106.181012
 30
0.0
 11
77.881912
 21
-117.05178
 31
0.0
  0
LINE
  5
104
100
AcDbEntity
  8
1
100
AcDbLine
 10
94.68066
 20
-106.181012
 30
0.0
 11
91.647284
 21
-117.05178
 31
0.0
  0
ARC
  5
105
100
AcDbEntity
  8
1
100
AcDbCircle
 10
92.764598
 20
-180.552074
 30
0.0
 40
2.08141
100
AcDbArc
 50
282.607641
 51
10.414423
  0
ARC
  5
106
100
AcDbEntity
  8
1
100
AcDbCircle
 10
76.764598
 20
-180.552074
 30
0.0
 40
2.08141
100
AcDbArc
 50
169.585577
 51
270.0
  0
LINE
  5
107
100
AcDbEntity
  8
1
100
AcDbLine
 10
91.647284
 20
-168.449802
 30
0.0
 11
94.637812
 21
-180.175824
 31
0.0
  0
LINE
  5
108
100
AcDbEntity
  8
1
100
AcDbLine
 10
77.881912
 20
-168.449802
 30
0.0
 11
74.891384
 21
-180.175824
 31
0.0
  0
LINE
  5
109
100
AcDbEntity
  8
1
100
AcDbLine
 10
71.264598
 20
-209.151336
 30
0.0
 11
105.264598
 21
-209.151336
 31
0.0
  0
LINE
  5
10A
100
AcDbEntity
  8
1
100
AcDbLine
 10
71.264598
 20
-192.592488
 30
0.0
 11
71.264598
 21
-213.651336
 31
0.0
  0
LINE
  5
10B
100
AcDbEntity
  8
1
100
AcDbLine
 10
105.264598
 20
-192.592488
 30
0.0
 11
105.264598
 21
-213.651336
 31
0.0
  0
ARC
  5
10C
100
AcDbEntity
  8
1
100
AcDbCircle
 10
108.264598
 20
-195.651336
 30
0.0
 40
3.0
100
AcDbArc
 50
90.0
 51
180.0
  0
ARC
  5
10D
100
AcDbEntity
  8
1
100
AcDbCircle
 10
68.264598
 20
-195.651336
 30
0.0
 40
3.0
100
AcDbArc
 50
0.0
 51
90.0
  0
LINE
  5
10E
100
AcDbEntity
  8
1
100
AcDbLine
 10
67.264598
 20
-192.651336
 30
0.0
 11
68.264598
 21
-192.651336
 31
0.0
  0
LINE
  5
10F
100
AcDbEntity
  8
1
100
AcDbLine
 10
108.264598
 20
-192.651336
 30
0.0
 11
110.264598
 21
-192.651336
 31
0.0
  0
ARC
  5
110
100
AcDbEntity
  8
1
100
AcDbCircle
 10
108.264598
 20
-192.592488
 30
0.0
 40
3.0
100
AcDbArc
 50
90.0
 51
180.0
  0
ARC
  5
111
100
AcDbEntity
  8
1
100
AcDbCircle
 10
68.264598
 20
-192.592488
 30
0.0
 40
3.0
100
AcDbArc
 50
0.0
 51
90.0
  0
LINE
  5
112
100
AcDbEntity
  8
1
100
AcDbLine
 10
53.264598
 20
-19.151336
 30
0.0
 11
53.264598
 21
-27.151336
 31
0.0
  0
LINE
  5
113
100
AcDbEntity
  8
1
100
AcDbLine
 10
123.264598
 20
-19.151336
 30
0.0
 11
123.264598
 21
-27.151336
 31
0.0
  0
ARC
  5
114
100
AcDbEntity
  8
1
100
AcDbCircle
 10
57.264598
 20
-27.151336
 30
0.0
 40
4.0
100
AcDbArc
 50
180.0
 51
270.0
  0
ARC
  5
115
100
AcDbEntity
  8
1
100
AcDbCircle
 10
119.264598
 20
-27.151336
 30
0.0
 40
4.0
100
AcDbArc
 50
270.0
 51
360.0
  0
ARC
  5
116
100
AcDbEntity
  8
1
100
AcDbCircle
 10
108.264598
 20
-36.151336
 30
0.0
 40
5.0
100
AcDbArc
 50
90.0
 51
180.0
  0
ARC
  5
117
100
AcDbEntity
  8
1
100
AcDbCircle
 10
68.264598
 20
-36.151336
 30
0.0
 40
5.0
100
AcDbArc
 50
0.0
 51
53.825069
  0
ARC
  5
118
100
AcDbEntity
  8
1
100
AcDbCircle
 10
121.264598
 20
-49.06024
 30
0.0
 40
18.0
100
AcDbArc
 50
95.215909
 51
180.0
  0
ARC
  5
119
100
AcDbEntity
  8
1
100
AcDbCircle
 10
55.264598
 20
-49.06024
 30
0.0
 40
18.0
100
AcDbArc
 50
0.0
 51
34.963768
  0
LINE
  5
11A
100
AcDbEntity
  8
1
100
AcDbLine
 10
91.264598
 20
-49.12126
 30
0.0
 11
85.264598
 21
-49.12126
 31
0.0
  0
LINE
  5
11B
100
AcDbEntity
  8
1
100
AcDbLine
 10
85.264598
 20
-33.651336
 30
0.0
 11
85.264598
 21
-46.62126
 31
0.0
  0
LINE
  5
11C
100
AcDbEntity
  8
1
100
AcDbLine
 10
91.264598
 20
-33.651336
 30
0.0
 11
91.264598
 21
-46.62126
 31
0.0
  0
ARC
  5
11D
100
AcDbEntity
  8
1
100
AcDbCircle
 10
93.764598
 20
-33.651336
 30
0.0
 40
2.5
100
AcDbArc
 50
90.0
 51
180.0
  0
ARC
  5
11E
100
AcDbEntity
  8
1
100
AcDbCircle
 10
82.764598
 20
-33.651336
 30
0.0
 40
2.5
100
AcDbArc
 50
0.0
 51
90.0
  0
ARC
  5
11F
100
AcDbEntity
  8
1
100
AcDbCircle
 10
82.764598
 20
-46.62126
 30
0.0
 40
2.5
100
AcDbArc
 50
270.0
 51
360.0
  0
ARC
  5
120
100
AcDbEntity
  8
1
100
AcDbCircle
 10
93.764598
 20
-46.62126
 30
0.0
 40
2.5
100
AcDbArc
 50
180.0
 51
270.0
  0
LINE
  5
121
100
AcDbEntity
  8
1
100
AcDbLine
 10
95.264598
 20
-174.325902
 30
0.0
 11
95.264598
 21
-153.651336
 31
0.0
  0
LINE
  5
122
100
AcDbEntity
  8
1
100
AcDbLine
 10
95.264598
 20
-134.651336
 30
0.0
 11
95.264598
 21
-113.976772
 31
0.0
  0
LINE
  5
123
100
AcDbEntity
  8
1
100
AcDbLine
 10
74.264598
 20
-174.325902
 30
0.0
 11
74.264598
 21
-153.651336
 31
0.0
  0
LINE
  5
124
100
AcDbEntity
  8
1
100
AcDbLine
 10
74.264598
 20
-134.651336
 30
0.0
 11
74.264598
 21
-113.976772
 31
0.0
  0
LINE
  5
125
100
AcDbEntity
  8
1
100
AcDbLine
 10
80.381912
 20
-117.05178
 30
0.0
 11
82.764598
 21
-117.05178
 31
0.0
  0
LINE
  5
126
100
AcDbEntity
  8
1
100
AcDbLine
 10
85.264598
 20
-117.05178
 30
0.0
 11
89.147284
 21
-117.05178
 31
0.0
  0
LINE
  5
127
100
AcDbEntity
  8
1
100
AcDbLine
 10
73.264598
 20
-98.710186
 30
0.0
 11
85.264598
 21
-98.710186
 31
0.0
  0
LINE
  5
128
100
AcDbEntity
  8
1
100
AcDbLine
 10
91.264598
 20
-98.710186
 30
0.0
 11
103.264598
 21
-98.710186
 31
0.0
  0
LINE
  5
129
100
AcDbEntity
  8
1
100
AcDbLine
 10
76.107162
 20
-104.08834
 30
0.0
 11
82.764598
 21
-104.08834
 31
0.0
  0
LINE
  5
12A
100
AcDbEntity
  8
1
100
AcDbLine
 10
71.264598
 20
-203.84924
 30
0.0
 11
105.264598
 21
-203.84924
 31
0.0
  0
ARC
  5
12B
100
AcDbEntity
  8
1
100
AcDbCircle
 10
93.764598
 20
-192.953434
 30
0.0
 40
2.5
100
AcDbArc
 50
180.0
 51
270.0
  0
ARC
  5
12C
100
AcDbEntity
  8
1
100
AcDbCircle
 10
82.764598
 20
-192.953434
 30
0.0
 40
2.5
100
AcDbArc
 50
270.0
 51
360.0
  0
LINE
  5
12D
100
AcDbEntity
  8
1
100
AcDbLine
 10
93.764598
 20
-195.453434
 30
0.0
 11
105.264598
 21
-195.453434
 31
0.0
  0
LINE
  5
12E
100
AcDbEntity
  8
1
100
AcDbLine
 10
71.264598
 20
-195.453434
 30
0.0
 11
82.764598
 21
-195.453434
 31
0.0
  0
LINE
  5
12F
100
AcDbEntity
  8
1
100
AcDbLine
 10
85.264598
 20
-195.453434
 30
0.0
 11
91.264598
 21
-195.453434
 31
0.0
  0
ARC
  5
130
100
AcDbEntity
  8
1
100
AcDbCircle
 10
82.764598
 20
-170.949802
 30
0.0
 40
2.5
100
AcDbArc
 50
0.0
 51
90.0
  0
ARC
  5
131
100
AcDbEntity
  8
1
100
AcDbCircle
 10
93.764598
 20
-167.868242
 30
0.0
 40
2.5
100
AcDbArc
 50
157.437691
 51
180.0
  0
LINE
  5
132
100
AcDbEntity
  8
1
100
AcDbLine
 10
80.381912
 20
-168.449802
 30
0.0
 11
82.764598
 21
-168.449802
 31
0.0
  0
LINE
  5
133
100
AcDbEntity
  8
1
100
AcDbLine
 10
85.264598
 20
-168.449802
 30
0.0
 11
89.147284
 21
-168.449802
 31
0.0
  0
LINE
  5
134
100
AcDbEntity
  8
1
100
AcDbLine
 10
71.264598
 20
-189.592488
 30
0.0
 11
85.264598
 21
-189.592488
 31
0.0
  0
LINE
  5
135
100
AcDbEntity
  8
1
100
AcDbLine
 10
91.264598
 20
-189.592488
 30
0.0
 11
105.264598
 21
-189.592488
 31
0.0
  0
LINE
  5
136
100
AcDbEntity
  8
1
100
AcDbLine
 10
76.764598
 20
-182.633484
 30
0.0
 11
82.764598
 21
-182.633484
 31
0.0
  0
ARC
  5
137
100
AcDbEntity
  8
1
100
AcDbCircle
 10
82.764598
 20
-185.133484
 30
0.0
 40
2.5
100
AcDbArc
 50
0.0
 51
90.0
  0
ARC
  5
138
100
AcDbEntity
  8
1
100
AcDbCircle
 10
93.764598
 20
-185.023016
 30
0.0
 40
2.5
100
AcDbArc
 50
102.607641
 51
180.0
  0
LINE
  5
139
100
AcDbEntity
  8
1
100
AcDbLine
 10
87.264598
 20
-190.651336
 30
0.0
 11
89.264598
 21
-190.651336
 31
0.0
  0
LINE
  5
13A
100
AcDbEntity
  8
1
100
AcDbLine
 10
87.264598
 20
-186.901336
 30
0.0
 11
89.264598
 21
-186.901336
 31
0.0
  0
ARC
  5
13B
100
AcDbEntity
  8
1
100
AcDbCircle
 10
89.264598
 20
-188.651336
 30
0.0
 40
2.0
100
AcDbArc
 50
270.0
 51
360.0
  0
ARC
  5
13C
100
AcDbEntity
  8
1
100
AcDbCircle
 10
89.264598
 20
-188.901336
 30
0.0
 40
2.0
100
AcDbArc
 50
0.0
 51
90.0
  0
ARC
  5
13D
100
AcDbEntity
  8
1
100
AcDbCircle
 10
87.264598
 20
-188.651336
 30
0.0
 40
2.0
100
AcDbArc
 50
180.0
 51
270.0
  0
ARC
  5
13E
100
AcDbEntity
  8
1
100
AcDbCircle
 10
87.264598
 20
-188.901336
 30
0.0
 40
2.0
100
AcDbArc
 50
90.0
 51
180.0
  0
LINE
  5
13F
100
AcDbEntity
  8
1
100
AcDbLine
 10
85.264598
 20
-69.651336
 30
0.0
 11
85.264598
 21
-114.55178
 31
0.0
  0
LINE
  5
140
100
AcDbEntity
  8
1
100
AcDbLine
 10
91.264598
 20
-69.651336
 30
0.0
 11
91.264598
 21
-117.63334
 31
0.0
  0
LINE
  5
141
100
AcDbEntity
  8
1
100
AcDbLine
 10
85.264598
 20
-67.151336
 30
0.0
 11
91.264598
 21
-67.151336
 31
0.0
  0
ARC
  5
142
100
AcDbEntity
  8
1
100
AcDbCircle
 10
93.764598
 20
-69.651336
 30
0.0
 40
2.5
100
AcDbArc
 50
90.0
 51
180.0
  0
ARC
  5
143
100
AcDbEntity
  8
1
100
AcDbCircle
 10
82.764598
 20
-69.651336
 30
0.0
 40
2.5
100
AcDbArc
 50
0.0
 51
90.0
  0
ARC
  5
144
100
AcDbEntity
  8
1
100
AcDbCircle
 10
82.764598
 20
-114.55178
 30
0.0
 40
2.5
100
AcDbArc
 50
270.0
 51
360.0
  0
ARC
  5
145
100
AcDbEntity
  8
1
100
AcDbCircle
 10
93.764598
 20
-117.63334
 30
0.0
 40
2.5
100
AcDbArc
 50
180.0
 51
202.562309
  0
ARC
  5
146
100
AcDbEntity
  8
1
100
AcDbCircle
 10
82.764598
 20
-101.58834
 30
0.0
 40
2.5
100
AcDbArc
 50
270.0
 51
360.0
  0
ARC
  5
147
100
AcDbEntity
  8
1
100
AcDbCircle
 10
93.764598
 20
-101.601872
 30
0.0
 40
2.5
100
AcDbArc
 50
180.0
 51
265.475512
  0
LINE
  5
148
100
AcDbEntity
  8
1
100
AcDbLine
 10
87.264598
 20
-72.151336
 30
0.0
 11
89.264598
 21
-72.151336
 31
0.0
  0
LINE
  5
149
100
AcDbEntity
  8
1
100
AcDbLine
 10
87.264598
 20
-92.938134
 30
0.0
 11
89.264598
 21
-92.938134
 31
0.0
  0
ARC
  5
14A
100
AcDbEntity
  8
1
100
AcDbCircle
 10
89.264598
 20
-74.151336
 30
0.0
 40
2.0
100
AcDbArc
 50
0.0
 51
90.0
  0
ARC
  5
14B
100
AcDbEntity
  8
1
100
AcDbCircle
 10
89.264598
 20
-90.938134
 30
0.0
 40
2.0
100
AcDbArc
 50
270.0
 51
360.0
  0
ARC
  5
14C
100
AcDbEntity
  8
1
100
AcDbCircle
 10
87.264598
 20
-90.938134
 30
0.0
 40
2.0
100
AcDbArc
 50
180.0
 51
270.0
  0
ARC
  5
14D
100
AcDbEntity
  8
1
100
AcDbCircle
 10
87.264598
 20
-74.151336
 30
0.0
 40
2.0
100
AcDbArc
 50
90.0
 51
180.0
  0
LINE
  5
14E
100
AcDbEntity
  8
1
100
AcDbLine
 10
85.264598
 20
-170.949802
 30
0.0
 11
85.264598
 21
-192.953434
 31
0.0
  0
LINE
  5
14F
100
AcDbEntity
  8
1
100
AcDbLine
 10
91.264598
 20
-167.868242
 30
0.0
 11
91.264598
 21
-192.953434
 31
0.0
  0
LINE
  5
150
100
AcDbEntity
  8
1
100
AcDbLine
 10
73.264598
 20
-92.916468
 30
0.0
 11
85.264598
 21
-92.916468
 31
0.0
  0
LINE
  5
151
100
AcDbEntity
  8
1
100
AcDbLine
 10
91.264598
 20
-92.916468
 30
0.0
 11
103.264598
 21
-92.916468
 31
0.0
  0
LINE
  5
152
100
AcDbEntity
  8
1
100
AcDbLine
 10
73.264598
 20
-84.42
 30
0.0
 11
85.264598
 21
-84.42
 31
0.0
  0
LINE
  5
153
100
AcDbEntity
  8
1
100
AcDbLine
 10
91.264598
 20
-84.42
 30
0.0
 11
103.264598
 21
-84.42
 31
0.0
  0
LINE
  5
154
100
AcDbEntity
  8
1
  6
DASHED
100
AcDbLine
 10
-199.522494
 20
143.39096
 30
0.0
 11
-199.522494
 21
186.39096
 31
0.0
  0
LINE
  5
155
100
AcDbEntity
  8
1
  6
DASHED
100
AcDbLine
 10
-199.522494
 20
186.39096
 30
0.0
 11
-212.172494
 21
186.39096
 31
0.0
  0
LINE
  5
156
100
AcDbEntity
  8
1
  6
DASHED
100
AcDbLine
 10
-199.522494
 20
143.39096
 30
0.0
 11
-212.172494
 21
143.39096
 31
0.0
  0
LINE
  5
157
100
AcDbEntity
  8
1
  6
DASHED
100
AcDbLine
 10
-200.030306
 20
150.39096
 30
0.0
 11
-200.030306
 21
171.39096
 31
0.0
  0
LINE
  5
158
100
AcDbEntity
  8
1
  6
DASHED
100
AcDbLine
 10
-201.519706
 20
170.997684
 30
0.0
 11
-210.006138
 21
168.756838
 31
0.0
  0
LINE
  5
159
100
AcDbEntity
  8
1
  6
DASHED
100
AcDbLine
 10
-201.519706
 20
150.784238
 30
0.0
 11
-210.006138
 21
153.025084
 31
0.0
  0
ARC
  5
15A
100
AcDbEntity
  8
1
  6
DASHED
100
AcDbCircle
 10
-202.030306
 20
172.931408
 30
0.0
 40
2.0
100
AcDbArc
 50
284.791379
 51
360.0
  0
ARC
  5
15B
100
AcDbEntity
  8
1
  6
DASHED
100
AcDbCircle
 10
-202.030306
 20
148.850514
 30
0.0
 40
2.0
100
AcDbArc
 50
0.0
 51
75.208621
  0
ARC
  5
15C
100
AcDbEntity
  8
1
  6
DASHED
100
AcDbCircle
 10
-208.729636
 20
157.859392
 30
0.0
 40
5.0
100
AcDbArc
 50
226.482881
 51
255.208621
  0
ARC
  5
15D
100
AcDbEntity
  8
1
  6
DASHED
100
AcDbCircle
 10
-208.729636
 20
163.922528
 30
0.0
 40
5.0
100
AcDbArc
 50
104.791379
 51
133.517119
  0
LINE
  5
15E
100
AcDbEntity
  8
1
  6
DASHED
100
AcDbLine
 10
-208.022494
 20
167.39096
 30
0.0
 11
-212.172494
 21
167.39096
 31
0.0
  0
LINE
  5
15F
100
AcDbEntity
  8
1
  6
DASHED
100
AcDbLine
 10
-208.022494
 20
161.39096
 30
0.0
 11
-212.172494
 21
161.39096
 31
0.0
  0
LINE
  5
160
100
AcDbEntity
  8
1
  6
DASHED
100
AcDbLine
 10
-206.022494
 20
165.39096
 30
0.0
 11
-206.022494
 21
163.39096
 31
0.0
  0
ARC
  5
161
100
AcDbEntity
  8
1
  6
DASHED
100
AcDbCircle
 10
-208.022494
 20
165.39096
 30
0.0
 40
2.0
100
AcDbArc
 50
0.0
 51
90.0
  0
ARC
  5
162
100
AcDbEntity
  8
1
  6
DASHED
100
AcDbCircle
 10
-208.022494
 20
163.39096
 30
0.0
 40
2.0
100
AcDbArc
 50
270.0
 51
360.0
  0
LINE
  5
163
100
AcDbEntity
  8
1
  6
DASHED
100
AcDbLine
 10
-201.519706
 20
171.39096
 30
0.0
 11
-210.052168
 21
171.39096
 31
0.0
  0
LINE
  5
164
100
AcDbEntity
  8
1
  6
DASHED
100
AcDbLine
 10
-201.519706
 20
150.39096
 30
0.0
 11
-210.052168
 21
150.39096
 31
0.0
  0
ARC
  5
165
100
AcDbEntity
  8
1
  6
DASHED
100
AcDbCircle
 10
-215.849134
 20
129.890398
 30
0.0
 40
21.30441
100
AcDbArc
 50
74.210629
 51
80.062341
  0
LINE
  5
166
100
AcDbEntity
  8
1
  6
DASHED
100
AcDbLine
 10
-210.052168
 20
143.39096
 30
0.0
 11
-210.052168
 21
150.39096
 31
0.0
  0
LINE
  5
167
100
AcDbEntity
  8
1
  6
DASHED
100
AcDbLine
 10
-210.052168
 20
171.39096
 30
0.0
 11
-210.052168
 21
186.39096
 31
0.0
  0
ARC
  5
168
100
AcDbEntity
  8
1
  6
DASHED
100
AcDbCircle
 10
-215.849134
 20
191.891522
 30
0.0
 40
21.30441
100
AcDbArc
 50
279.937659
 51
285.789371
  0
LINE
  5
169
100
AcDbEntity
  8
1
100
AcDbLine
 10
-258.522494
 20
-118.951336
 30
0.0
 11
-258.726356
 21
-118.598236
 31
0.0
  0
ARC
  5
16A
100
AcDbEntity
  8
1
100
AcDbCircle
 10
-260.89142
 20
-119.848236
 30
0.0
 40
2.5
100
AcDbArc
 50
30.0
 51
117.90202
  0
ARC
  5
16B
100
AcDbEntity
  8
1
100
AcDbCircle
 10
-248.022494
 20
-144.151336
 30
0.0
 40
27.3
100
AcDbArc
 50
111.487631
 51
112.619865
  0
LINE
  5
16C
100
AcDbEntity
  8
1
100
AcDbLine
 10
-258.522494
 20
-169.351336
 30
0.0
 11
-258.726356
 21
-169.704438
 31
0.0
  0
ARC
  5
16D
100
AcDbEntity
  8
1
100
AcDbCircle
 10
-260.89142
 20
-168.454438
 30
0.0
 40
2.5
100
AcDbArc
 50
242.09798
 51
330.0
  0
ARC
  5
16E
100
AcDbEntity
  8
1
100
AcDbCircle
 10
-248.022494
 20
-144.151336
 30
0.0
 40
27.3
100
AcDbArc
 50
247.380135
 51
248.512369
  0
ARC
  5
16F
100
AcDbEntity
  8
1
100
AcDbCircle
 10
-248.022494
 20
-144.151336
 30
0.0
 40
26.360186
100
AcDbArc
 50
115.629635
 51
244.370365
  0
ARC
  5
170
100
AcDbEntity
  8
1
100
AcDbCircle
 10
-248.022494
 20
-144.151336
 30
0.0
 40
26.360186
100
AcDbArc
 50
292.294044
 51
67.705956
  0
ARC
  5
171
100
AcDbEntity
  8
1
100
AcDbCircle
 10
-260.11234
 20
-118.951336
 30
0.0
 40
1.589848
100
AcDbArc
 50
295.629635
 51
360.0
  0
ARC
  5
172
100
AcDbEntity
  8
1
100
AcDbCircle
 10
-260.11234
 20
-169.351336
 30
0.0
 40
1.589848
100
AcDbArc
 50
0.0
 51
64.370365
  0
LINE
  5
173
100
AcDbEntity
  8
1
100
AcDbLine
 10
71.264598
 20
-210.651336
 30
0.0
 11
105.264598
 21
-210.651336
 31
0.0
  0
LINE
  5
174
100
AcDbEntity
  8
1
100
AcDbLine
 10
71.264598
 20
-213.651336
 30
0.0
 11
105.264598
 21
-213.651336
 31
0.0
  0
LINE
  5
175
100
AcDbEntity
  8
1
  6
CENTER
 62
     2
100
AcDbLine
 10
77.264598
 20
-203.914902
 30
0.0
 11
77.264598
 21
-222.186142
 31
0.0
  0
LINE
  5
176
100
AcDbEntity
  8
1
  6
CENTER
 62
     2
100
AcDbLine
 10
99.264598
 20
-203.914902
 30
0.0
 11
99.264598
 21
-222.186142
 31
0.0
  0
LINE
  5
177
100
AcDbEntity
  8
1
100
AcDbLine
 10
103.264598
 20
-214.951336
 30
0.0
 11
103.264598
 21
-218.451336
 31
0.0
  0
ARC
  5
178
100
AcDbEntity
  8
1
100
AcDbCircle
 10
101.264598
 20
-213.300548
 30
0.0
 40
5.15079
100
AcDbArc
 50
247.151859
 51
292.848141
  0
LINE
  5
179
100
AcDbEntity
  8
1
100
AcDbLine
 10
95.264598
 20
-214.951336
 30
0.0
 11
95.264598
 21
-218.451336
 31
0.0
  0
LINE
  5
17A
100
AcDbEntity
  8
1
100
AcDbLine
 10
95.264598
 20
-218.451336
 30
0.0
 11
103.264598
 21
-218.451336
 31
0.0
  0
LINE
  5
17B
100
AcDbEntity
  8
1
100
AcDbLine
 10
99.264598
 20
-214.951336
 30
0.0
 11
99.264598
 21
-218.047192
 31
0.0
  0
ARC
  5
17C
100
AcDbEntity
  8
1
100
AcDbCircle
 10
97.264598
 20
-213.300548
 30
0.0
 40
5.15079
100
AcDbArc
 50
247.151859
 51
292.848141
  0
LINE
  5
17D
100
AcDbEntity
  8
1
100
AcDbLine
 10
103.864598
 20
-213.651336
 30
0.0
 11
103.864598
 21
-214.951336
 31
0.0
  0
LINE
  5
17E
100
AcDbEntity
  8
1
100
AcDbLine
 10
103.864598
 20
-214.951336
 30
0.0
 11
94.664598
 21
-214.951336
 31
0.0
  0
LINE
  5
17F
100
AcDbEntity
  8
1
100
AcDbLine
 10
94.664598
 20
-214.951336
 30
0.0
 11
94.664598
 21
-213.651336
 31
0.0
  0
LINE
  5
180
100
AcDbEntity
  8
1
100
AcDbLine
 10
81.264598
 20
-214.951336
 30
0.0
 11
81.264598
 21
-218.451336
 31
0.0
  0
ARC
  5
181
100
AcDbEntity
  8
1
100
AcDbCircle
 10
79.264598
 20
-213.300548
 30
0.0
 40
5.15079
100
AcDbArc
 50
247.151859
 51
292.848141
  0
LINE
  5
182
100
AcDbEntity
  8
1
100
AcDbLine
 10
73.264598
 20
-214.951336
 30
0.0
 11
73.264598
 21
-218.451336
 31
0.0
  0
LINE
  5
183
100
AcDbEntity
  8
1
100
AcDbLine
 10
73.264598
 20
-218.451336
 30
0.0
 11
81.264598
 21
-218.451336
 31
0.0
  0
LINE
  5
184
100
AcDbEntity
  8
1
100
AcDbLine
 10
77.264598
 20
-214.951336
 30
0.0
 11
77.264598
 21
-218.047192
 31
0.0
  0
ARC
  5
185
100
AcDbEntity
  8
1
100
AcDbCircle
 10
75.264598
 20
-213.300548
 30
0.0
 40
5.15079
100
AcDbArc
 50
247.151859
 51
292.848141
  0
LINE
  5
186
100
AcDbEntity
  8
1
100
AcDbLine
 10
81.864598
 20
-213.651336
 30
0.0
 11
81.864598
 21
-214.951336
 31
0.0
  0
LINE
  5
187
100
AcDbEntity
  8
1
100
AcDbLine
 10
81.864598
 20
-214.951336
 30
0.0
 11
72.664598
 21
-214.951336
 31
0.0
  0
LINE
  5
188
100
AcDbEntity
  8
1
100
AcDbLine
 10
72.664598
 20
-214.951336
 30
0.0
 11
72.664598
 21
-213.651336
 31
0.0
  0
ARC
  5
189
100
AcDbEntity
  8
1
100
AcDbCircle
 10
-248.022494
 20
-144.151336
 30
0.0
 40
25.2
100
AcDbArc
 50
113.379868
 51
246.620132
  0
ARC
  5
18A
100
AcDbEntity
  8
1
100
AcDbCircle
 10
-248.022494
 20
-144.151336
 30
0.0
 40
25.2
100
AcDbArc
 50
293.379868
 51
66.620132
  0
LINE
  5
18B
100
AcDbEntity
  8
1
100
AcDbLine
 10
-257.022494
 20
-131.151336
 30
0.0
 11
-238.522494
 21
-131.151336
 31
0.0
  0
LINE
  5
18C
100
AcDbEntity
  8
1
100
AcDbLine
 10
-257.022494
 20
-157.151336
 30
0.0
 11
-238.522494
 21
-157.151336
 31
0.0
  0
LINE
  5
18D
100
AcDbEntity
  8
1
100
AcDbLine
 10
-258.022494
 20
-171.719434
 30
0.0
 11
-258.022494
 21
-158.151336
 31
0.0
  0
LINE
  5
18E
100
AcDbEntity
  8
1
100
AcDbLine
 10
-258.022494
 20
-130.151336
 30
0.0
 11
-258.022494
 21
-116.58324
 31
0.0
  0
ARC
  5
18F
100
AcDbEntity
  8
1
100
AcDbCircle
 10
-257.022494
 20
-158.151336
 30
0.0
 40
1.0
100
AcDbArc
 50
90.0
 51
180.0
  0
ARC
  5
190
100
AcDbEntity
  8
1
100
AcDbCircle
 10
-238.522494
 20
-158.151336
 30
0.0
 40
1.0
100
AcDbArc
 50
0.0
 51
90.0
  0
ARC
  5
191
100
AcDbEntity
  8
1
100
AcDbCircle
 10
-257.022494
 20
-130.151336
 30
0.0
 40
1.0
100
AcDbArc
 50
180.0
 51
270.0
  0
ARC
  5
192
100
AcDbEntity
  8
1
100
AcDbCircle
 10
-238.522494
 20
-130.151336
 30
0.0
 40
1.0
100
AcDbArc
 50
270.0
 51
360.0
  0
LINE
  5
193
100
AcDbEntity
  8
1
100
AcDbLine
 10
-255.522494
 20
-156.151336
 30
0.0
 11
-255.522494
 21
-132.151336
 31
0.0
  0
LINE
  5
194
100
AcDbEntity
  8
1
100
AcDbLine
 10
-240.522494
 20
-156.151336
 30
0.0
 11
-240.522494
 21
-132.151336
 31
0.0
  0
LINE
  5
195
100
AcDbEntity
  8
1
100
AcDbLine
 10
-258.522494
 20
-159.151336
 30
0.0
 11
-258.522494
 21
-129.151336
 31
0.0
  0
LINE
  5
196
100
AcDbEntity
  8
1
100
AcDbLine
 10
-237.522494
 20
-122.651336
 30
0.0
 11
-237.522494
 21
-165.651336
 31
0.0
  0
ARC
  5
197
100
AcDbEntity
  8
1
100
AcDbCircle
 10
-241.522494
 20
-132.151336
 30
0.0
 40
1.0
100
AcDbArc
 50
0.0
 51
69.512685
  0
ARC
  5
198
100
AcDbEntity
  8
1
100
AcDbCircle
 10
-241.522494
 20
-156.151336
 30
0.0
 40
1.0
100
AcDbArc
 50
290.487315
 51
360.0
  0
LINE
  5
199
100
AcDbEntity
  8
1
100
AcDbLine
 10
-236.522494
 20
-131.151336
 30
0.0
 11
-233.291574
 21
-131.151336
 31
0.0
  0
LINE
  5
19A
100
AcDbEntity
  8
1
100
AcDbLine
 10
-236.522494
 20
-157.151336
 30
0.0
 11
-233.291574
 21
-157.151336
 31
0.0
  0
ARC
  5
19B
100
AcDbEntity
  8
1
100
AcDbCircle
 10
-236.522494
 20
-132.151336
 30
0.0
 40
1.0
100
AcDbArc
 50
90.0
 51
180.0
  0
ARC
  5
19C
100
AcDbEntity
  8
1
100
AcDbCircle
 10
-236.522494
 20
-156.151336
 30
0.0
 40
1.0
100
AcDbArc
 50
180.0
 51
270.0
  0
LINE
  5
19D
100
AcDbEntity
  8
1
100
AcDbLine
 10
-236.522494
 20
-142.651336
 30
0.0
 11
-229.187686
 21
-142.651336
 31
0.0
  0
LINE
  5
19E
100
AcDbEntity
  8
1
100
AcDbLine
 10
-236.522494
 20
-145.651336
 30
0.0
 11
-229.187686
 21
-145.651336
 31
0.0
  0
LINE
  5
19F
100
AcDbEntity
  8
1
100
AcDbLine
 10
-266.857302
 20
-142.651336
 30
0.0
 11
-259.522494
 21
-142.651336
 31
0.0
  0
LINE
  5
1A0
100
AcDbEntity
  8
1
100
AcDbLine
 10
-254.522494
 20
-142.651336
 30
0.0
 11
-253.172494
 21
-142.651336
 31
0.0
  0
LINE
  5
1A1
100
AcDbEntity
  8
1
100
AcDbLine
 10
-266.857302
 20
-145.651336
 30
0.0
 11
-259.522494
 21
-145.651336
 31
0.0
  0
LINE
  5
1A2
100
AcDbEntity
  8
1
100
AcDbLine
 10
-254.522494
 20
-145.651336
 30
0.0
 11
-253.172494
 21
-145.651336
 31
0.0
  0
ARC
  5
1A3
100
AcDbEntity
  8
1
100
AcDbCircle
 10
-241.522494
 20
-141.651336
 30
0.0
 40
1.0
100
AcDbArc
 50
290.487315
 51
360.0
  0
ARC
  5
1A4
100
AcDbEntity
  8
1
100
AcDbCircle
 10
-241.522494
 20
-146.651336
 30
0.0
 40
1.0
100
AcDbArc
 50
0.0
 51
69.512685
  0
ARC
  5
1A5
100
AcDbEntity
  8
1
100
AcDbCircle
 10
-254.522494
 20
-146.651336
 30
0.0
 40
1.0
100
AcDbArc
 50
90.0
 51
180.0
  0
ARC
  5
1A6
100
AcDbEntity
  8
1
100
AcDbCircle
 10
-254.522494
 20
-141.651336
 30
0.0
 40
1.0
100
AcDbArc
 50
180.0
 51
270.0
  0
ARC
  5
1A7
100
AcDbEntity
  8
1
100
AcDbCircle
 10
-236.522494
 20
-141.651336
 30
0.0
 40
1.0
100
AcDbArc
 50
180.0
 51
270.0
  0
ARC
  5
1A8
100
AcDbEntity
  8
1
100
AcDbCircle
 10
-236.522494
 20
-146.651336
 30
0.0
 40
1.0
100
AcDbArc
 50
90.0
 51
180.0
  0
ARC
  5
1A9
100
AcDbEntity
  8
1
100
AcDbCircle
 10
-259.522494
 20
-141.651336
 30
0.0
 40
1.0
100
AcDbArc
 50
270.0
 51
360.0
  0
ARC
  5
1AA
100
AcDbEntity
  8
1
100
AcDbCircle
 10
-259.522494
 20
-146.651336
 30
0.0
 40
1.0
100
AcDbArc
 50
0.0
 51
90.0
  0
ARC
  5
1AB
100
AcDbEntity
  8
1
100
AcDbCircle
 10
-229.187686
 20
-141.651336
 30
0.0
 40
1.0
100
AcDbArc
 50
270.0
 51
7.560843
  0
ARC
  5
1AC
100
AcDbEntity
  8
1
100
AcDbCircle
 10
-229.187686
 20
-146.651336
 30
0.0
 40
1.0
100
AcDbArc
 50
352.439157
 51
90.0
  0
ARC
  5
1AD
100
AcDbEntity
  8
1
100
AcDbCircle
 10
-233.291574
 20
-156.151336
 30
0.0
 40
1.0
100
AcDbArc
 50
270.0
 51
320.833289
  0
ARC
  5
1AE
100
AcDbEntity
  8
1
100
AcDbCircle
 10
-233.291574
 20
-132.151336
 30
0.0
 40
1.0
100
AcDbArc
 50
39.166711
 51
90.0
  0
ARC
  5
1AF
100
AcDbEntity
  8
1
100
AcDbCircle
 10
-248.022494
 20
-144.151336
 30
0.0
 40
20.0
100
AcDbArc
 50
7.560843
 51
39.166711
  0
ARC
  5
1B0
100
AcDbEntity
  8
1
100
AcDbCircle
 10
-248.022494
 20
-144.151336
 30
0.0
 40
20.0
100
AcDbArc
 50
140.833289
 51
172.439157
  0
ARC
  5
1B1
100
AcDbEntity
  8
1
100
AcDbCircle
 10
-248.022494
 20
-144.151336
 30
0.0
 40
20.0
100
AcDbArc
 50
187.560843
 51
219.166711
  0
ARC
  5
1B2
100
AcDbEntity
  8
1
100
AcDbCircle
 10
-248.022494
 20
-144.151336
 30
0.0
 40
20.0
100
AcDbArc
 50
320.833289
 51
352.439157
  0
ARC
  5
1B3
100
AcDbEntity
  8
1
100
AcDbCircle
 10
-266.857302
 20
-146.651336
 30
0.0
 40
1.0
100
AcDbArc
 50
90.0
 51
187.560843
  0
ARC
  5
1B4
100
AcDbEntity
  8
1
100
AcDbCircle
 10
-266.857302
 20
-141.651336
 30
0.0
 40
1.0
100
AcDbArc
 50
172.439157
 51
270.0
  0
LINE
  5
1B5
100
AcDbEntity
  8
1
100
AcDbLine
 10
-262.753414
 20
-131.151336
 30
0.0
 11
-259.522494
 21
-131.151336
 31
0.0
  0
LINE
  5
1B6
100
AcDbEntity
  8
1
100
AcDbLine
 10
-262.753414
 20
-157.151336
 30
0.0
 11
-259.522494
 21
-157.151336
 31
0.0
  0
ARC
  5
1B7
100
AcDbEntity
  8
1
100
AcDbCircle
 10
-262.753414
 20
-156.151336
 30
0.0
 40
1.0
100
AcDbArc
 50
219.166711
 51
270.0
  0
ARC
  5
1B8
100
AcDbEntity
  8
1
100
AcDbCircle
 10
-262.753414
 20
-132.151336
 30
0.0
 40
1.0
100
AcDbArc
 50
90.0
 51
140.833289
  0
ARC
  5
1B9
100
AcDbEntity
  8
1
100
AcDbCircle
 10
-259.522494
 20
-132.151336
 30
0.0
 40
1.0
100
AcDbArc
 50
0.0
 51
90.0
  0
ARC
  5
1BA
100
AcDbEntity
  8
1
100
AcDbCircle
 10
-259.522494
 20
-156.151336
 30
0.0
 40
1.0
100
AcDbArc
 50
270.0
 51
360.0
  0
ARC
  5
1BB
100
AcDbEntity
  8
1
100
AcDbCircle
 10
-254.522494
 20
-132.151336
 30
0.0
 40
1.0
100
AcDbArc
 50
90.0
 51
180.0
  0
ARC
  5
1BC
100
AcDbEntity
  8
1
100
AcDbCircle
 10
-254.522494
 20
-156.151336
 30
0.0
 40
1.0
100
AcDbArc
 50
180.0
 51
270.0
  0
ARC
  5
1BD
100
AcDbEntity
  8
1
100
AcDbCircle
 10
-257.522494
 20
-129.151336
 30
0.0
 40
1.0
100
AcDbArc
 50
138.590378
 51
180.0
  0
ARC
  5
1BE
100
AcDbEntity
  8
1
100
AcDbCircle
 10
-259.022494
 20
-127.828462
 30
0.0
 40
1.0
100
AcDbArc
 50
318.590378
 51
360.0
  0
ARC
  5
1BF
100
AcDbEntity
  8
1
100
AcDbCircle
 10
-257.522494
 20
-159.151336
 30
0.0
 40
1.0
100
AcDbArc
 50
180.0
 51
221.409622
  0
ARC
  5
1C0
100
AcDbEntity
  8
1
100
AcDbCircle
 10
-259.022494
 20
-160.474212
 30
0.0
 40
1.0
100
AcDbArc
 50
0.0
 51
41.409622
  0
LINE
  5
1C1
100
AcDbEntity
  8
1
100
AcDbLine
 10
-253.022494
 20
-122.151336
 30
0.0
 11
-249.022494
 21
-122.151336
 31
0.0
  0
ARC
  5
1C2
100
AcDbEntity
  8
1
100
AcDbCircle
 10
-253.022494
 20
-126.651336
 30
0.0
 40
4.5
100
AcDbArc
 50
90.0
 51
270.0
  0
ARC
  5
1C3
100
AcDbEntity
  8
1
100
AcDbCircle
 10
-249.022494
 20
-121.151336
 30
0.0
 40
1.0
100
AcDbArc
 50
270.0
 51
360.0
  0
ARC
  5
1C4
100
AcDbEntity
  8
1
100
AcDbCircle
 10
-253.022494
 20
-161.651336
 30
0.0
 40
4.5
100
AcDbArc
 50
90.0
 51
270.0
  0
LINE
  5
1C5
100
AcDbEntity
  8
1
100
AcDbLine
 10
-253.022494
 20
-166.151336
 30
0.0
 11
-249.022494
 21
-166.151336
 31
0.0
  0
ARC
  5
1C6
100
AcDbEntity
  8
1
100
AcDbCircle
 10
-249.022494
 20
-167.151336
 30
0.0
 40
1.0
100
AcDbArc
 50
0.0
 51
90.0
  0
LINE
  5
1C7
100
AcDbEntity
  8
1
100
AcDbLine
 10
-243.820932
 20
-121.651336
 30
0.0
 11
-238.522494
 21
-121.651336
 31
0.0
  0
LINE
  5
1C8
100
AcDbEntity
  8
1
100
AcDbLine
 10
-247.022494
 20
-121.151336
 30
0.0
 11
-238.022494
 21
-121.151336
 31
0.0
  0
ARC
  5
1C9
100
AcDbEntity
  8
1
100
AcDbCircle
 10
-238.522494
 20
-122.651336
 30
0.0
 40
1.0
100
AcDbArc
 50
0.0
 51
90.0
  0
LINE
  5
1CA
100
AcDbEntity
  8
1
100
AcDbLine
 10
-244.820932
 20
-122.651336
 30
0.0
 11
-244.820932
 21
-130.151336
 31
0.0
  0
ARC
  5
1CB
100
AcDbEntity
  8
1
100
AcDbCircle
 10
-243.820932
 20
-122.651336
 30
0.0
 40
1.0
100
AcDbArc
 50
90.0
 51
180.0
  0
ARC
  5
1CC
100
AcDbEntity
  8
1
100
AcDbCircle
 10
-243.820932
 20
-130.151336
 30
0.0
 40
1.0
100
AcDbArc
 50
180.0
 51
270.0
  0
LINE
  5
1CD
100
AcDbEntity
  8
1
100
AcDbLine
 10
-238.022494
 20
-121.151336
 30
0.0
 11
-238.022494
 21
-119.651336
 31
0.0
  0
ARC
  5
1CE
100
AcDbEntity
  8
1
100
AcDbCircle
 10
-247.022494
 20
-120.151336
 30
0.0
 40
1.0
100
AcDbArc
 50
180.0
 51
270.0
  0
ARC
  5
1CF
100
AcDbEntity
  8
1
100
AcDbCircle
 10
-236.522494
 20
-121.151336
 30
0.0
 40
1.5
100
AcDbArc
 50
180.0
 51
216.869898
  0
LINE
  5
1D0
100
AcDbEntity
  8
1
100
AcDbLine
 10
-243.820932
 20
-166.651336
 30
0.0
 11
-238.522494
 21
-166.651336
 31
0.0
  0
LINE
  5
1D1
100
AcDbEntity
  8
1
100
AcDbLine
 10
-247.022494
 20
-167.151336
 30
0.0
 11
-238.022494
 21
-167.151336
 31
0.0
  0
ARC
  5
1D2
100
AcDbEntity
  8
1
100
AcDbCircle
 10
-238.522494
 20
-165.651336
 30
0.0
 40
1.0
100
AcDbArc
 50
270.0
 51
360.0
  0
ARC
  5
1D3
100
AcDbEntity
  8
1
100
AcDbCircle
 10
-243.820932
 20
-165.651336
 30
0.0
 40
1.0
100
AcDbArc
 50
180.0
 51
270.0
  0
ARC
  5
1D4
100
AcDbEntity
  8
1
100
AcDbCircle
 10
-243.820932
 20
-158.151336
 30
0.0
 40
1.0
100
AcDbArc
 50
90.0
 51
180.0
  0
LINE
  5
1D5
100
AcDbEntity
  8
1
100
AcDbLine
 10
-238.022494
 20
-167.151336
 30
0.0
 11
-238.022494
 21
-168.651336
 31
0.0
  0
ARC
  5
1D6
100
AcDbEntity
  8
1
100
AcDbCircle
 10
-247.022494
 20
-168.151336
 30
0.0
 40
1.0
100
AcDbArc
 50
90.0
 51
180.0
  0
ARC
  5
1D7
100
AcDbEntity
  8
1
100
AcDbCircle
 10
-236.522494
 20
-167.151336
 30
0.0
 40
1.5
100
AcDbArc
 50
143.130102
 51
180.0
  0
ARC
  5
1D8
100
AcDbEntity
  8
1
100
AcDbCircle
 10
-248.022494
 20
-144.151336
 30
0.0
 40
22.5
100
AcDbArc
 50
116.3878
 51
243.6122
  0
ARC
  5
1D9
100
AcDbEntity
  8
1
100
AcDbCircle
 10
-248.022494
 20
-144.151336
 30
0.0
 40
22.5
100
AcDbArc
 50
297.818139
 51
62.181861
  0
CIRCLE
  5
1DA
100
AcDbEntity
  8
1
100
AcDbCircle
 10
-253.172494
 20
-126.641836
 30
0.0
 40
3.0085
  0
CIRCLE
  5
1DB
100
AcDbEntity
  8
1
100
AcDbCircle
 10
-253.172494
 20
-126.641836
 30
0.0
 40
2.15
  0
CIRCLE
  5
1DC
100
AcDbEntity
  8
1
 62
     2
100
AcDbCircle
 10
-253.172494
 20
-126.641836
 30
0.0
 40
2.0
  0
CIRCLE
  5
1DD
100
AcDbEntity
  8
1
100
AcDbCircle
 10
-253.172494
 20
-126.641836
 30
0.0
 40
1.621
  0
CIRCLE
  5
1DE
100
AcDbEntity
  8
1
100
AcDbCircle
 10
-247.172494
 20
-161.660836
 30
0.0
 40
3.0085
  0
CIRCLE
  5
1DF
100
AcDbEntity
  8
1
100
AcDbCircle
 10
-247.172494
 20
-161.660836
 30
0.0
 40
2.15
  0
CIRCLE
  5
1E0
100
AcDbEntity
  8
1
 62
     2
100
AcDbCircle
 10
-247.172494
 20
-161.660836
 30
0.0
 40
2.0
  0
CIRCLE
  5
1E1
100
AcDbEntity
  8
1
100
AcDbCircle
 10
-247.172494
 20
-161.660836
 30
0.0
 40
1.621
  0
LINE
  5
1E2
100
AcDbEntity
  8
1
100
AcDbLine
 10
-244.820932
 20
-165.651336
 30
0.0
 11
-244.820932
 21
-163.53733
 31
0.0
  0
LINE
  5
1E3
100
AcDbEntity
  8
1
100
AcDbLine
 10
-244.820932
 20
-159.784344
 30
0.0
 11
-244.820932
 21
-158.151336
 31
0.0
  0
LINE
  5
1E4
100
AcDbEntity
  8
1
100
AcDbLine
 10
-244.022494
 20
-119.651336
 30
0.0
 11
-244.022494
 21
-115.6874
 31
0.0
  0
LINE
  5
1E5
100
AcDbEntity
  8
1
100
AcDbLine
 10
-258.022494
 20
-116.58324
 30
0.0
 11
-244.022494
 21
-116.58324
 31
0.0
  0
ARC
  5
1E6
100
AcDbEntity
  8
1
100
AcDbCircle
 10
-240.672494
 20
87.889928
 30
0.0
 40
203.604888
100
AcDbArc
 50
266.339223
 51
269.057245
  0
ARC
  5
1E7
100
AcDbEntity
  8
1
100
AcDbCircle
 10
-247.522494
 20
-144.151336
 30
0.0
 40
29.5
100
AcDbArc
 50
102.032973
 51
110.850588
  0
LINE
  5
1E8
100
AcDbEntity
  8
1
100
AcDbLine
 10
-241.172494
 20
-118.651336
 30
0.0
 11
-240.749878
 21
-118.651336
 31
0.0
  0
LINE
  5
1E9
100
AcDbEntity
  8
1
100
AcDbLine
 10
-238.072618
 20
-118.729152
 30
0.0
 11
-238.072618
 21
-119.651336
 31
0.0
  0
LINE
  5
1EA
100
AcDbEntity
  8
1
100
AcDbLine
 10
-240.749878
 20
-117.837966
 30
0.0
 11
-240.749878
 21
-118.651336
 31
0.0
  0
ARC
  5
1EB
100
AcDbEntity
  8
1
100
AcDbCircle
 10
-240.749878
 20
13.485726
 30
0.0
 40
131.323692
100
AcDbArc
 50
269.815615
 51
270.0
  0
LINE
  5
1EC
100
AcDbEntity
  8
1
100
AcDbLine
 10
-244.022494
 20
-119.651336
 30
0.0
 11
-238.022494
 21
-119.651336
 31
0.0
  0
ARC
  5
1ED
100
AcDbEntity
  8
1
100
AcDbCircle
 10
-248.021998
 20
-144.15158
 30
0.0
 40
27.3
100
AcDbArc
 50
68.626499
 51
74.551145
  0
LINE
  5
1EE
100
AcDbEntity
  8
1
100
AcDbLine
 10
-244.022494
 20
-168.651336
 30
0.0
 11
-244.022494
 21
-172.615274
 31
0.0
  0
LINE
  5
1EF
100
AcDbEntity
  8
1
100
AcDbLine
 10
-258.022494
 20
-171.719434
 30
0.0
 11
-244.022494
 21
-171.719434
 31
0.0
  0
ARC
  5
1F0
100
AcDbEntity
  8
1
100
AcDbCircle
 10
-240.672494
 20
-376.192602
 30
0.0
 40
203.604888
100
AcDbArc
 50
90.942755
 51
93.660777
  0
ARC
  5
1F1
100
AcDbEntity
  8
1
100
AcDbCircle
 10
-247.522494
 20
-144.151336
 30
0.0
 40
29.5
100
AcDbArc
 50
249.149412
 51
257.967027
  0
LINE
  5
1F2
100
AcDbEntity
  8
1
100
AcDbLine
 10
-241.172494
 20
-169.651336
 30
0.0
 11
-240.749878
 21
-169.651336
 31
0.0
  0
LINE
  5
1F3
100
AcDbEntity
  8
1
100
AcDbLine
 10
-238.072618
 20
-169.573522
 30
0.0
 11
-238.072618
 21
-168.651336
 31
0.0
  0
LINE
  5
1F4
100
AcDbEntity
  8
1
100
AcDbLine
 10
-240.749878
 20
-170.464708
 30
0.0
 11
-240.749878
 21
-169.651336
 31
0.0
  0
ARC
  5
1F5
100
AcDbEntity
  8
1
100
AcDbCircle
 10
-240.749878
 20
-301.788398
 30
0.0
 40
131.323692
100
AcDbArc
 50
90.0
 51
90.184385
  0
LINE
  5
1F6
100
AcDbEntity
  8
1
100
AcDbLine
 10
-244.022494
 20
-168.651336
 30
0.0
 11
-238.022494
 21
-168.651336
 31
0.0
  0
ARC
  5
1F7
100
AcDbEntity
  8
1
100
AcDbCircle
 10
-248.021998
 20
-144.151094
 30
0.0
 40
27.3
100
AcDbArc
 50
285.448855
 51
291.373501
  0
LINE
  5
1F8
100
AcDbEntity
  8
1
100
AcDbLine
 10
-241.172494
 20
-119.651336
 30
0.0
 11
-241.172494
 21
-114.943846
 31
0.0
  0
LINE
  5
1F9
100
AcDbEntity
  8
1
100
AcDbLine
 10
-253.172494
 20
-115.33089
 30
0.0
 11
-253.172494
 21
-114.596684
 31
0.0
  0
LINE
  5
1FA
100
AcDbEntity
  8
1
100
AcDbLine
 10
-241.172494
 20
-173.358828
 30
0.0
 11
-241.172494
 21
-168.651336
 31
0.0
  0
LINE
  5
1FB
100
AcDbEntity
  8
1
100
AcDbLine
 10
-241.172494
 20
-157.151336
 30
0.0
 11
-241.172494
 21
-131.151336
 31
0.0
  0
LINE
  5
1FC
100
AcDbEntity
  8
1
100
AcDbLine
 10
-253.172494
 20
-173.70599
 30
0.0
 11
-253.172494
 21
-172.971784
 31
0.0
  0
LINE
  5
1FD
100
AcDbEntity
  8
1
100
AcDbLine
 10
-253.172494
 20
-157.151336
 30
0.0
 11
-253.172494
 21
-131.151336
 31
0.0
  0
ARC
  5
1FE
100
AcDbEntity
  8
1
100
AcDbCircle
 10
-248.022494
 20
-144.151336
 30
0.0
 40
24.409464
100
AcDbArc
 50
114.184556
 51
245.815444
  0
ARC
  5
1FF
100
AcDbEntity
  8
1
100
AcDbCircle
 10
-248.022494
 20
-144.151336
 30
0.0
 40
24.409464
100
AcDbArc
 50
294.874912
 51
65.125088
  0
ARC
  5
200
100
AcDbEntity
  8
1
100
AcDbCircle
 10
-248.022494
 20
-144.151336
 30
0.0
 40
23.95
100
AcDbArc
 50
114.679156
 51
245.320844
  0
ARC
  5
201
100
AcDbEntity
  8
1
100
AcDbCircle
 10
-248.022494
 20
-144.151336
 30
0.0
 40
23.95
100
AcDbArc
 50
296.001806
 51
63.998194
  0
LINE
  5
202
100
AcDbEntity
  8
1
  6
CENTER
 62
     2
100
AcDbLine
 10
-258.62076
 20
-126.641836
 30
0.0
 11
-248.331178
 21
-126.641836
 31
0.0
  0
LINE
  5
203
100
AcDbEntity
  8
1
  6
CENTER
 62
     2
100
AcDbLine
 10
-253.172494
 20
-131.782062
 30
0.0
 11
-253.172494
 21
-121.448028
 31
0.0
  0
LINE
  5
204
100
AcDbEntity
  8
1
  6
CENTER
 62
     2
100
AcDbLine
 10
-252.62076
 20
-161.660836
 30
0.0
 11
-242.331178
 21
-161.660836
 31
0.0
  0
LINE
  5
205
100
AcDbEntity
  8
1
100
AcDbLine
 10
-296.522494
 20
186.39096
 30
0.0
 11
-292.072382
 21
186.39096
 31
0.0
  0
LINE
  5
206
100
AcDbEntity
  8
1
  6
DASHED
100
AcDbLine
 10
-292.072382
 20
186.39096
 30
0.0
 11
-282.172494
 21
186.39096
 31
0.0
  0
LINE
  5
207
100
AcDbEntity
  8
1
100
AcDbLine
 10
-296.522494
 20
172.426974
 30
0.0
 11
-296.522494
 21
186.39096
 31
0.0
  0
LINE
  5
208
100
AcDbEntity
  8
1
100
AcDbLine
 10
-296.522494
 20
143.39096
 30
0.0
 11
-296.522494
 21
156.354948
 31
0.0
  0
LINE
  5
209
100
AcDbEntity
  8
1
  6
DASHED
100
AcDbLine
 10
-296.522494
 20
156.354948
 30
0.0
 11
-296.522494
 21
172.426974
 31
0.0
  0
LINE
  5
20A
100
AcDbEntity
  8
1
100
AcDbLine
 10
-296.522494
 20
143.39096
 30
0.0
 11
-292.548698
 21
143.39096
 31
0.0
  0
LINE
  5
20B
100
AcDbEntity
  8
1
  6
DASHED
100
AcDbLine
 10
-292.548698
 20
143.39096
 30
0.0
 11
-282.172494
 21
143.39096
 31
0.0
  0
ARC
  5
20C
100
AcDbEntity
  8
1
  6
DASHED
100
AcDbCircle
 10
-294.01468
 20
148.850514
 30
0.0
 40
2.0
100
AcDbArc
 50
104.791379
 51
126.140579
  0
ARC
  5
20D
100
AcDbEntity
  8
1
100
AcDbCircle
 10
-294.01468
 20
148.850514
 30
0.0
 40
2.0
100
AcDbArc
 50
126.140579
 51
180.0
  0
LINE
  5
20E
100
AcDbEntity
  8
1
100
AcDbLine
 10
-296.01468
 20
150.39096
 30
0.0
 11
-296.01468
 21
153.69326
 31
0.0
  0
LINE
  5
20F
100
AcDbEntity
  8
1
  6
DASHED
100
AcDbLine
 10
-296.01468
 20
153.69326
 30
0.0
 11
-296.01468
 21
171.39096
 31
0.0
  0
LINE
  5
210
100
AcDbEntity
  8
1
100
AcDbLine
 10
53.264598
 20
-19.151336
 30
0.0
 11
123.264598
 21
-19.151336
 31
0.0
  0
LINE
  5
211
100
AcDbEntity
  8
1
100
AcDbLine
 10
55.81586
 20
-31.151336
 30
0.0
 11
120.713334
 21
-31.151336
 31
0.0
  0
LINE
  5
212
100
AcDbEntity
  8
1
100
AcDbLine
 10
-241.172494
 20
-8.751336
 30
0.0
 11
-241.172494
 21
-2.151336
 31
0.0
  0
LINE
  5
213
100
AcDbEntity
  8
1
100
AcDbLine
 10
-241.172494
 20
7.848664
 30
0.0
 11
-241.172494
 21
16.848664
 31
0.0
  0
LINE
  5
214
100
AcDbEntity
  8
1
100
AcDbLine
 10
-253.172494
 20
-8.751336
 30
0.0
 11
-253.172494
 21
-2.151336
 31
0.0
  0
LINE
  5
215
100
AcDbEntity
  8
1
100
AcDbLine
 10
-253.172494
 20
7.848664
 30
0.0
 11
-253.172494
 21
16.848664
 31
0.0
  0
LINE
  5
216
100
AcDbEntity
  8
1
100
AcDbLine
 10
103.97419
 20
-8.751336
 30
0.0
 11
72.555006
 21
-8.751336
 31
0.0
  0
LINE
  5
217
100
AcDbEntity
  8
1
100
AcDbLine
 10
72.514598
 20
-13.751336
 30
0.0
 11
104.014598
 21
-13.751336
 31
0.0
  0
LINE
  5
218
100
AcDbEntity
  8
1
100
AcDbLine
 10
97.764598
 20
-19.151336
 30
0.0
 11
97.764598
 21
-13.751336
 31
0.0
  0
LINE
  5
219
100
AcDbEntity
  8
1
100
AcDbLine
 10
78.764598
 20
-19.151336
 30
0.0
 11
78.764598
 21
-13.751336
 31
0.0
  0
LINE
  5
21A
100
AcDbEntity
  8
1
100
AcDbLine
 10
94.264598
 20
-8.751336
 30
0.0
 11
94.264598
 21
-7.151336
 31
0.0
  0
LINE
  5
21B
100
AcDbEntity
  8
1
100
AcDbLine
 10
82.264598
 20
-8.751336
 30
0.0
 11
82.264598
 21
-7.151336
 31
0.0
  0
LINE
  5
21C
100
AcDbEntity
  8
1
100
AcDbLine
 10
-237.672494
 20
-19.151336
 30
0.0
 11
-237.672494
 21
-13.751336
 31
0.0
  0
LINE
  5
21D
100
AcDbEntity
  8
1
100
AcDbLine
 10
-256.672494
 20
-19.151336
 30
0.0
 11
-256.672494
 21
-13.751336
 31
0.0
  0
LINE
  5
21E
100
AcDbEntity
  8
1
100
AcDbLine
 10
-262.172494
 20
-8.751336
 30
0.0
 11
-232.172494
 21
-8.751336
 31
0.0
  0
LINE
  5
21F
100
AcDbEntity
  8
1
100
AcDbLine
 10
-262.172494
 20
-13.751336
 30
0.0
 11
-232.172494
 21
-13.751336
 31
0.0
  0
LINE
  5
220
100
AcDbEntity
  8
1
100
AcDbLine
 10
-262.172494
 20
-13.751336
 30
0.0
 11
-262.172494
 21
-8.751336
 31
0.0
  0
LINE
  5
221
100
AcDbEntity
  8
1
100
AcDbLine
 10
-232.172494
 20
-13.751336
 30
0.0
 11
-232.172494
 21
-8.751336
 31
0.0
  0
LINE
  5
222
100
AcDbEntity
  8
1
100
AcDbLine
 10
-252.922494
 20
-8.751336
 30
0.0
 11
-252.922494
 21
-4.242084
 31
0.0
  0
LINE
  5
223
100
AcDbEntity
  8
1
100
AcDbLine
 10
-252.922494
 20
-4.242084
 30
0.0
 11
-252.072494
 21
-3.751336
 31
0.0
  0
LINE
  5
224
100
AcDbEntity
  8
1
100
AcDbLine
 10
-250.047494
 20
-8.751336
 30
0.0
 11
-250.047494
 21
-4.242084
 31
0.0
  0
ARC
  5
225
100
AcDbEntity
  8
1
100
AcDbCircle
 10
-251.484994
 20
-6.090039
 30
0.0
 40
2.341227
100
AcDbArc
 50
52.121121
 51
127.878879
  0
LINE
  5
226
100
AcDbEntity
  8
1
100
AcDbLine
 10
-241.422494
 20
-8.751336
 30
0.0
 11
-241.422494
 21
-4.242084
 31
0.0
  0
LINE
  5
227
100
AcDbEntity
  8
1
100
AcDbLine
 10
-241.422494
 20
-4.242084
 30
0.0
 11
-242.272494
 21
-3.751336
 31
0.0
  0
LINE
  5
228
100
AcDbEntity
  8
1
100
AcDbLine
 10
-242.272494
 20
-3.751336
 30
0.0
 11
-252.072494
 21
-3.751336
 31
0.0
  0
LINE
  5
229
100
AcDbEntity
  8
1
100
AcDbLine
 10
-244.297494
 20
-8.751336
 30
0.0
 11
-244.297494
 21
-4.242084
 31
0.0
  0
ARC
  5
22A
100
AcDbEntity
  8
1
100
AcDbCircle
 10
-242.859994
 20
-6.090039
 30
0.0
 40
2.341227
100
AcDbArc
 50
52.121121
 51
127.878879
  0
ARC
  5
22B
100
AcDbEntity
  8
1
100
AcDbCircle
 10
-247.172494
 20
-12.373812
 30
0.0
 40
8.625
100
AcDbArc
 50
70.528781
 51
109.471223
  0
LINE
  5
22C
100
AcDbEntity
  8
1
 62
     2
100
AcDbLine
 10
-244.172494
 20
-17.151336
 30
0.0
 11
-244.713494
 21
-19.151336
 31
0.0
  0
LINE
  5
22D
100
AcDbEntity
  8
1
 62
     2
100
AcDbLine
 10
-250.172494
 20
-17.151336
 30
0.0
 11
-249.631494
 21
-19.151336
 31
0.0
  0
LINE
  5
22E
100
AcDbEntity
  8
1
100
AcDbLine
 10
-244.172494
 20
-19.151336
 30
0.0
 11
-244.172494
 21
-13.751336
 31
0.0
  0
LINE
  5
22F
100
AcDbEntity
  8
1
100
AcDbLine
 10
-244.172494
 20
-3.751336
 30
0.0
 11
-244.172494
 21
-2.151336
 31
0.0
  0
LINE
  5
230
100
AcDbEntity
  8
1
 62
     2
100
AcDbLine
 10
-244.713494
 20
-3.751336
 30
0.0
 11
-244.713494
 21
-2.151336
 31
0.0
  0
LINE
  5
231
100
AcDbEntity
  8
1
 62
     2
100
AcDbLine
 10
-249.631494
 20
-3.751336
 30
0.0
 11
-249.631494
 21
-2.151336
 31
0.0
  0
LINE
  5
232
100
AcDbEntity
  8
1
100
AcDbLine
 10
-250.172494
 20
-19.151336
 30
0.0
 11
-250.172494
 21
-13.751336
 31
0.0
  0
LINE
  5
233
100
AcDbEntity
  8
1
100
AcDbLine
 10
-250.172494
 20
-3.751336
 30
0.0
 11
-250.172494
 21
-2.151336
 31
0.0
  0
LINE
  5
234
100
AcDbEntity
  8
1
100
AcDbLine
 10
-279.62123
 20
-31.151336
 30
0.0
 11
-214.723756
 21
-31.151336
 31
0.0
  0
LINE
  5
235
100
AcDbEntity
  8
2
100
AcDbLine
 10
-214.923756
 20
-33.151336
 30
0.0
 11
-214.923756
 21
-38.92965
 31
0.0
  0
LINE
  5
236
100
AcDbEntity
  8
2
100
AcDbLine
 10
-214.923756
 20
-38.92965
 30
0.0
 11
-216.173756
 21
-39.651336
 31
0.0
  0
LINE
  5
237
100
AcDbEntity
  8
2
100
AcDbLine
 10
-216.173756
 20
-39.651336
 30
0.0
 11
-228.673756
 21
-39.651336
 31
0.0
  0
LINE
  5
238
100
AcDbEntity
  8
2
100
AcDbLine
 10
-218.673756
 20
-33.151336
 30
0.0
 11
-218.673756
 21
-38.92965
 31
0.0
  0
ARC
  5
239
100
AcDbEntity
  8
2
100
AcDbCircle
 10
-216.798756
 20
-36.519274
 30
0.0
 40
3.053774
100
AcDbArc
 50
232.121121
 51
307.878879
  0
ARC
  5
23A
100
AcDbEntity
  8
2
100
AcDbCircle
 10
-222.423756
 20
-28.323048
 30
0.0
 40
11.25
100
AcDbArc
 50
250.528777
 51
289.471219
  0
LINE
  5
23B
100
AcDbEntity
  8
2
100
AcDbLine
 10
-229.923756
 20
-33.151336
 30
0.0
 11
-229.923756
 21
-38.92965
 31
0.0
  0
LINE
  5
23C
100
AcDbEntity
  8
2
100
AcDbLine
 10
-229.923756
 20
-38.92965
 30
0.0
 11
-228.673756
 21
-39.651336
 31
0.0
  0
LINE
  5
23D
100
AcDbEntity
  8
2
100
AcDbLine
 10
-226.173756
 20
-33.151336
 30
0.0
 11
-226.173756
 21
-38.92965
 31
0.0
  0
ARC
  5
23E
100
AcDbEntity
  8
2
100
AcDbCircle
 10
-228.048756
 20
-36.519274
 30
0.0
 40
3.053774
100
AcDbArc
 50
232.121121
 51
307.878879
  0
LINE
  5
23F
100
AcDbEntity
  8
2
100
AcDbLine
 10
-214.723756
 20
-31.151336
 30
0.0
 11
-214.723756
 21
-33.151336
 31
0.0
  0
LINE
  5
240
100
AcDbEntity
  8
2
100
AcDbLine
 10
-214.723756
 20
-33.151336
 30
0.0
 11
-230.123756
 21
-33.151336
 31
0.0
  0
LINE
  5
241
100
AcDbEntity
  8
2
100
AcDbLine
 10
-230.123756
 20
-33.151336
 30
0.0
 11
-230.123756
 21
-31.151336
 31
0.0
  0
LINE
  5
242
100
AcDbEntity
  8
2
100
AcDbLine
 10
-222.423756
 20
-33.151336
 30
0.0
 11
-222.923756
 21
-31.151336
 31
0.0
  0
LINE
  5
243
100
AcDbEntity
  8
2
100
AcDbLine
 10
-222.423756
 20
-31.151336
 30
0.0
 11
-221.923756
 21
-33.151336
 31
0.0
  0
LINE
  5
244
100
AcDbEntity
  8
2
100
AcDbLine
 10
-265.619964
 20
-39.651336
 30
0.0
 11
-278.17123
 21
-39.651336
 31
0.0
  0
LINE
  5
245
100
AcDbEntity
  8
2
100
AcDbLine
 10
-268.17123
 20
-36.36258
 30
0.0
 11
-268.17123
 21
-38.92965
 31
0.0
  0
ARC
  5
246
100
AcDbEntity
  8
2
100
AcDbCircle
 10
-266.29623
 20
-36.519274
 30
0.0
 40
3.053774
100
AcDbArc
 50
232.121121
 51
281.196124
  0
ARC
  5
247
100
AcDbEntity
  8
2
100
AcDbCircle
 10
-271.92123
 20
-28.323048
 30
0.0
 40
11.25
100
AcDbArc
 50
250.528777
 51
289.471219
  0
LINE
  5
248
100
AcDbEntity
  8
2
100
AcDbLine
 10
-279.42123
 20
-33.151336
 30
0.0
 11
-279.42123
 21
-38.92965
 31
0.0
  0
LINE
  5
249
100
AcDbEntity
  8
2
100
AcDbLine
 10
-279.42123
 20
-38.92965
 30
0.0
 11
-278.17123
 21
-39.651336
 31
0.0
  0
LINE
  5
24A
100
AcDbEntity
  8
2
100
AcDbLine
 10
-275.67123
 20
-33.151336
 30
0.0
 11
-275.67123
 21
-38.92965
 31
0.0
  0
ARC
  5
24B
100
AcDbEntity
  8
2
100
AcDbCircle
 10
-277.54623
 20
-36.519274
 30
0.0
 40
3.053774
100
AcDbArc
 50
232.121121
 51
307.878879
  0
LINE
  5
24C
100
AcDbEntity
  8
2
100
AcDbLine
 10
-272.426104
 20
-33.151336
 30
0.0
 11
-279.62123
 21
-33.151336
 31
0.0
  0
LINE
  5
24D
100
AcDbEntity
  8
2
100
AcDbLine
 10
-279.62123
 20
-33.151336
 30
0.0
 11
-279.62123
 21
-31.151336
 31
0.0
  0
LINE
  5
24E
100
AcDbEntity
  8
2
100
AcDbLine
 10
-225.747256
 20
-47.151336
 30
0.0
 11
-219.100256
 21
-47.151336
 31
0.0
  0
LINE
  5
24F
100
AcDbEntity
  8
2
100
AcDbLine
 10
-225.747256
 20
-47.151336
 30
0.0
 11
-226.423756
 21
-46.474836
 31
0.0
  0
LINE
  5
250
100
AcDbEntity
  8
2
100
AcDbLine
 10
-226.423756
 20
-46.474836
 30
0.0
 11
-226.423756
 21
-39.651336
 31
0.0
  0
LINE
  5
251
100
AcDbEntity
  8
2
 62
     2
100
AcDbLine
 10
-225.747256
 20
-47.151336
 30
0.0
 11
-225.747256
 21
-39.651336
 31
0.0
  0
LINE
  5
252
100
AcDbEntity
  8
2
100
AcDbLine
 10
-219.100256
 20
-47.151336
 30
0.0
 11
-218.423756
 21
-46.474836
 31
0.0
  0
LINE
  5
253
100
AcDbEntity
  8
2
100
AcDbLine
 10
-218.423756
 20
-46.474836
 30
0.0
 11
-218.423756
 21
-39.651336
 31
0.0
  0
LINE
  5
254
100
AcDbEntity
  8
2
100
AcDbLine
 10
-218.423756
 20
-46.474836
 30
0.0
 11
-226.423756
 21
-46.474836
 31
0.0
  0
LINE
  5
255
100
AcDbEntity
  8
2
 62
     2
100
AcDbLine
 10
-219.100256
 20
-47.151336
 30
0.0
 11
-219.100256
 21
-39.651336
 31
0.0
  0
LINE
  5
256
100
AcDbEntity
  8
2
100
AcDbLine
 10
-275.24473
 20
-47.151336
 30
0.0
 11
-268.59773
 21
-47.151336
 31
0.0
  0
LINE
  5
257
100
AcDbEntity
  8
2
100
AcDbLine
 10
-275.24473
 20
-47.151336
 30
0.0
 11
-275.92123
 21
-46.474836
 31
0.0
  0
LINE
  5
258
100
AcDbEntity
  8
2
100
AcDbLine
 10
-275.92123
 20
-46.474836
 30
0.0
 11
-275.92123
 21
-39.651336
 31
0.0
  0
LINE
  5
259
100
AcDbEntity
  8
2
 62
     2
100
AcDbLine
 10
-275.24473
 20
-47.151336
 30
0.0
 11
-275.24473
 21
-39.651336
 31
0.0
  0
LINE
  5
25A
100
AcDbEntity
  8
2
100
AcDbLine
 10
-268.59773
 20
-47.151336
 30
0.0
 11
-267.92123
 21
-46.474836
 31
0.0
  0
LINE
  5
25B
100
AcDbEntity
  8
2
100
AcDbLine
 10
-267.92123
 20
-46.474836
 30
0.0
 11
-267.92123
 21
-39.651336
 31
0.0
  0
LINE
  5
25C
100
AcDbEntity
  8
2
100
AcDbLine
 10
-267.92123
 20
-46.474836
 30
0.0
 11
-275.92123
 21
-46.474836
 31
0.0
  0
LINE
  5
25D
100
AcDbEntity
  8
2
 62
     2
100
AcDbLine
 10
-268.59773
 20
-47.151336
 30
0.0
 11
-268.59773
 21
-39.651336
 31
0.0
  0
LINE
  5
25E
100
AcDbEntity
  8
2
100
AcDbLine
 10
109.689834
 20
-47.151336
 30
0.0
 11
116.336834
 21
-47.151336
 31
0.0
  0
LINE
  5
25F
100
AcDbEntity
  8
2
100
AcDbLine
 10
109.689834
 20
-47.151336
 30
0.0
 11
109.013334
 21
-46.474836
 31
0.0
  0
LINE
  5
260
100
AcDbEntity
  8
2
100
AcDbLine
 10
109.013334
 20
-46.474836
 30
0.0
 11
109.013334
 21
-39.651336
 31
0.0
  0
LINE
  5
261
100
AcDbEntity
  8
2
 62
     2
100
AcDbLine
 10
109.689834
 20
-47.151336
 30
0.0
 11
109.689834
 21
-39.651336
 31
0.0
  0
LINE
  5
262
100
AcDbEntity
  8
2
100
AcDbLine
 10
116.336834
 20
-47.151336
 30
0.0
 11
117.013334
 21
-46.474836
 31
0.0
  0
LINE
  5
263
100
AcDbEntity
  8
2
100
AcDbLine
 10
117.013334
 20
-46.474836
 30
0.0
 11
117.013334
 21
-39.651336
 31
0.0
  0
LINE
  5
264
100
AcDbEntity
  8
2
100
AcDbLine
 10
117.013334
 20
-46.474836
 30
0.0
 11
109.013334
 21
-46.474836
 31
0.0
  0
LINE
  5
265
100
AcDbEntity
  8
2
 62
     2
100
AcDbLine
 10
116.336834
 20
-47.151336
 30
0.0
 11
116.336834
 21
-39.651336
 31
0.0
  0
LINE
  5
266
100
AcDbEntity
  8
2
100
AcDbLine
 10
119.513334
 20
-33.151336
 30
0.0
 11
119.513334
 21
-39.651336
 31
0.0
  0
ARC
  5
267
100
AcDbEntity
  8
2
100
AcDbCircle
 10
116.263334
 20
-31.972578
 30
0.0
 40
7.678758
100
AcDbArc
 50
244.96034
 51
295.03966
  0
LINE
  5
268
100
AcDbEntity
  8
2
100
AcDbLine
 10
106.513334
 20
-38.74519
 30
0.0
 11
106.513334
 21
-39.651336
 31
0.0
  0
LINE
  5
269
100
AcDbEntity
  8
2
100
AcDbLine
 10
106.513334
 20
-39.651336
 30
0.0
 11
119.513334
 21
-39.651336
 31
0.0
  0
LINE
  5
26A
100
AcDbEntity
  8
2
100
AcDbLine
 10
113.013334
 20
-33.151336
 30
0.0
 11
113.013334
 21
-38.92965
 31
0.0
  0
ARC
  5
26B
100
AcDbEntity
  8
2
100
AcDbCircle
 10
109.763334
 20
-31.972578
 30
0.0
 40
7.678758
100
AcDbArc
 50
244.96034
 51
295.03966
  0
LINE
  5
26C
100
AcDbEntity
  8
2
100
AcDbLine
 10
120.713334
 20
-31.151336
 30
0.0
 11
120.713334
 21
-33.151336
 31
0.0
  0
LINE
  5
26D
100
AcDbEntity
  8
2
100
AcDbLine
 10
120.713334
 20
-33.151336
 30
0.0
 11
112.843978
 21
-33.151336
 31
0.0
  0
LINE
  5
26E
100
AcDbEntity
  8
2
100
AcDbLine
 10
60.19236
 20
-47.151336
 30
0.0
 11
66.83936
 21
-47.151336
 31
0.0
  0
LINE
  5
26F
100
AcDbEntity
  8
2
100
AcDbLine
 10
60.19236
 20
-47.151336
 30
0.0
 11
59.51586
 21
-46.474836
 31
0.0
  0
LINE
  5
270
100
AcDbEntity
  8
2
100
AcDbLine
 10
59.51586
 20
-46.474836
 30
0.0
 11
59.51586
 21
-39.651336
 31
0.0
  0
LINE
  5
271
100
AcDbEntity
  8
2
 62
     2
100
AcDbLine
 10
60.19236
 20
-47.151336
 30
0.0
 11
60.19236
 21
-39.651336
 31
0.0
  0
LINE
  5
272
100
AcDbEntity
  8
2
100
AcDbLine
 10
66.83936
 20
-47.151336
 30
0.0
 11
67.51586
 21
-46.474836
 31
0.0
  0
LINE
  5
273
100
AcDbEntity
  8
2
100
AcDbLine
 10
67.51586
 20
-46.474836
 30
0.0
 11
67.51586
 21
-39.651336
 31
0.0
  0
LINE
  5
274
100
AcDbEntity
  8
2
100
AcDbLine
 10
67.51586
 20
-46.474836
 30
0.0
 11
59.51586
 21
-46.474836
 31
0.0
  0
LINE
  5
275
100
AcDbEntity
  8
2
 62
     2
100
AcDbLine
 10
66.83936
 20
-47.151336
 30
0.0
 11
66.83936
 21
-39.651336
 31
0.0
  0
LINE
  5
276
100
AcDbEntity
  8
2
100
AcDbLine
 10
70.01586
 20
-33.151336
 30
0.0
 11
70.01586
 21
-39.651336
 31
0.0
  0
ARC
  5
277
100
AcDbEntity
  8
2
100
AcDbCircle
 10
66.76586
 20
-31.972578
 30
0.0
 40
7.678758
100
AcDbArc
 50
244.96034
 51
295.03966
  0
LINE
  5
278
100
AcDbEntity
  8
2
100
AcDbLine
 10
57.01586
 20
-33.151336
 30
0.0
 11
57.01586
 21
-39.651336
 31
0.0
  0
LINE
  5
279
100
AcDbEntity
  8
2
100
AcDbLine
 10
57.01586
 20
-39.651336
 30
0.0
 11
70.01586
 21
-39.651336
 31
0.0
  0
LINE
  5
27A
100
AcDbEntity
  8
2
100
AcDbLine
 10
63.51586
 20
-33.151336
 30
0.0
 11
63.51586
 21
-38.92965
 31
0.0
  0
ARC
  5
27B
100
AcDbEntity
  8
2
100
AcDbCircle
 10
60.26586
 20
-31.972578
 30
0.0
 40
7.678758
100
AcDbArc
 50
244.96034
 51
295.03966
  0
LINE
  5
27C
100
AcDbEntity
  8
2
100
AcDbLine
 10
71.21586
 20
-31.151336
 30
0.0
 11
71.21586
 21
-33.151336
 31
0.0
  0
LINE
  5
27D
100
AcDbEntity
  8
2
100
AcDbLine
 10
71.21586
 20
-33.151336
 30
0.0
 11
55.81586
 21
-33.151336
 31
0.0
  0
LINE
  5
27E
100
AcDbEntity
  8
2
100
AcDbLine
 10
55.81586
 20
-33.151336
 30
0.0
 11
55.81586
 21
-31.151336
 31
0.0
  0
LINE
  5
27F
100
AcDbEntity
  8
2
100
AcDbLine
 10
-246.777757
 20
179.385765
 30
0.0
 11
-56.909336
 21
174.387497
 31
0.0
  0
LINE
  5
280
100
AcDbEntity
  8
2
100
AcDbLine
 10
-214.027342
 20
204.610465
 30
0.0
 11
-211.605399
 21
212.291885
 31
0.0
  0
LINE
  5
281
100
AcDbEntity
  8
2
  6
CENTER
 62
     2
100
AcDbLine
 10
-247.172494
 20
110.552411
 30
0.0
 11
-247.172494
 21
228.380025
 31
0.0
  0
LINE
  5
282
100
AcDbEntity
  8
2
  6
CENTER
 62
     2
100
AcDbLine
 10
-38.853288
 20
164.39096
 30
0.0
 11
-311.195539
 21
164.39096
 31
0.0
  0
ARC
  5
283
100
AcDbEntity
  8
2
100
AcDbCircle
 10
-282.172494
 20
164.39096
 30
0.0
 40
2.0
100
AcDbArc
 50
111.803748
 51
248.196252
  0
LINE
  5
284
100
AcDbEntity
  8
2
100
AcDbLine
 10
-282.915351
 20
166.247883
 30
0.0
 11
-252.743922
 21
178.317883
 31
0.0
  0
LINE
  5
285
100
AcDbEntity
  8
2
100
AcDbLine
 10
-282.915351
 20
162.534037
 30
0.0
 11
-254.429637
 21
151.138403
 31
0.0
  0
LINE
  5
286
100
AcDbEntity
  8
2
100
AcDbLine
 10
-252.172494
 20
147.39096
 30
0.0
 11
-242.172494
 21
147.39096
 31
0.0
  0
ARC
  5
287
100
AcDbEntity
  8
2
100
AcDbCircle
 10
-247.172494
 20
164.39096
 30
0.0
 40
15.0
100
AcDbArc
 50
298.072487
 51
241.927513
  0
LINE
  5
288
100
AcDbEntity
  8
2
100
AcDbLine
 10
-253.172494
 20
148.39096
 30
0.0
 11
-253.172494
 21
151.741849
 31
0.0
  0
LINE
  5
289
100
AcDbEntity
  8
2
100
AcDbLine
 10
-241.172494
 20
148.39096
 30
0.0
 11
-241.172494
 21
151.741849
 31
0.0
  0
ARC
  5
28A
100
AcDbEntity
  8
2
100
AcDbCircle
 10
-252.172494
 20
148.39096
 30
0.0
 40
1.0
100
AcDbArc
 50
180.0
 51
270.0
  0
ARC
  5
28B
100
AcDbEntity
  8
2
100
AcDbCircle
 10
-255.172494
 20
149.281479
 30
0.0
 40
2.0
100
AcDbArc
 50
0.0
 51
68.196252
  0
ARC
  5
28C
100
AcDbEntity
  8
2
100
AcDbCircle
 10
-239.172494
 20
149.39096
 30
0.0
 40
2.0
100
AcDbArc
 50
118.072487
 51
180.0
  0
ARC
  5
28D
100
AcDbEntity
  8
2
100
AcDbCircle
 10
-255.172494
 20
149.39096
 30
0.0
 40
2.0
100
AcDbArc
 50
0.0
 51
61.927513
  0
ARC
  5
28E
100
AcDbEntity
  8
2
100
AcDbCircle
 10
-152.672494
 20
150.89096
 30
0.0
 40
0.5
100
AcDbArc
 50
270.0
 51
360.0
  0
ARC
  5
28F
100
AcDbEntity
  8
2
100
AcDbCircle
 10
-161.672494
 20
150.89096
 30
0.0
 40
0.5
100
AcDbArc
 50
167.306936
 51
270.0
  0
LINE
  5
290
100
AcDbEntity
  8
2
100
AcDbLine
 10
-161.672494
 20
150.39096
 30
0.0
 11
-152.672494
 21
150.39096
 31
0.0
  0
LINE
  5
291
100
AcDbEntity
  8
2
100
AcDbLine
 10
-152.172494
 20
150.89096
 30
0.0
 11
-152.172494
 21
151.399619
 31
0.0
  0
ARC
  5
292
100
AcDbEntity
  8
2
100
AcDbCircle
 10
-162.648055
 20
151.110688
 30
0.0
 40
0.5
100
AcDbArc
 50
347.306936
 51
91.507958
  0
ARC
  5
293
100
AcDbEntity
  8
2
100
AcDbCircle
 10
-151.672494
 20
151.399619
 30
0.0
 40
0.5
100
AcDbArc
 50
91.507958
 51
180.0
  0
LINE
  5
294
100
AcDbEntity
  8
2
100
AcDbLine
 10
-239.333244
 20
149.592131
 30
0.0
 11
-56.909336
 21
154.394423
 31
0.0
  0
ARC
  5
295
100
AcDbEntity
  8
2
100
AcDbCircle
 10
-151.672494
 20
177.382301
 30
0.0
 40
0.5
100
AcDbArc
 50
180.0
 51
268.492042
  0
ARC
  5
296
100
AcDbEntity
  8
2
100
AcDbCircle
 10
-162.648055
 20
177.671232
 30
0.0
 40
0.5
100
AcDbArc
 50
268.492042
 51
12.693064
  0
LINE
  5
297
100
AcDbEntity
  8
2
100
AcDbLine
 10
-152.172494
 20
177.89096
 30
0.0
 11
-152.172494
 21
177.382301
 31
0.0
  0
LINE
  5
298
100
AcDbEntity
  8
2
100
AcDbLine
 10
-161.672494
 20
178.39096
 30
0.0
 11
-152.672494
 21
178.39096
 31
0.0
  0
ARC
  5
299
100
AcDbEntity
  8
2
100
AcDbCircle
 10
-161.672494
 20
177.89096
 30
0.0
 40
0.5
100
AcDbArc
 50
90.0
 51
192.693064
  0
ARC
  5
29A
100
AcDbEntity
  8
2
100
AcDbCircle
 10
-152.672494
 20
177.89096
 30
0.0
 40
0.5
100
AcDbArc
 50
0.0
 51
90.0
  0
ARC
  5
29B
100
AcDbEntity
  8
2
100
AcDbCircle
 10
-239.280612
 20
147.592824
 30
0.0
 40
2.0
100
AcDbArc
 50
91.507958
 51
164.570915
  0
ARC
  5
29C
100
AcDbEntity
  8
2
100
AcDbCircle
 10
-242.172494
 20
148.39096
 30
0.0
 40
1.0
100
AcDbArc
 50
270.0
 51
360.0
  0
LINE
  5
29D
100
AcDbEntity
  8
2
  6
CENTER
 62
     2
100
AcDbLine
 10
-157.172494
 20
181.982987
 30
0.0
 11
-157.172494
 21
146.659774
 31
0.0
  0
LINE
  5
29E
100
AcDbEntity
  8
2
100
AcDbLine
 10
-244.675437
 20
170.024671
 30
0.0
 11
-240.98615
 21
170.024671
 31
0.0
  0
LINE
  5
29F
100
AcDbEntity
  8
2
100
AcDbLine
 10
-240.939363
 20
169.826477
 30
0.0
 11
-244.558469
 21
168.016924
 31
0.0
  0
CIRCLE
  5
2A0
100
AcDbEntity
  8
2
100
AcDbCircle
 10
-247.172494
 20
164.39096
 30
0.0
 40
14.0
  0
LINE
  5
2A1
100
AcDbEntity
  8
2
100
AcDbLine
 10
-245.281063
 20
167.629472
 30
0.0
 11
-248.90017
 21
165.819919
 31
0.0
  0
LINE
  5
2A2
100
AcDbEntity
  8
2
100
AcDbLine
 10
-249.278686
 20
166.053855
 30
0.0
 11
-249.278686
 21
167.566118
 31
0.0
  0
LINE
  5
2A3
100
AcDbEntity
  8
2
100
AcDbLine
 10
-249.622763
 20
167.629472
 30
0.0
 11
-253.323096
 21
165.779306
 31
0.0
  0
LINE
  5
2A4
100
AcDbEntity
  8
2
100
AcDbLine
 10
-253.620386
 20
163.85685
 30
0.0
 11
-253.620386
 21
169.763123
 31
0.0
  0
LINE
  5
2A5
100
AcDbEntity
  8
2
100
AcDbLine
 10
-249.622763
 20
165.432467
 30
0.0
 11
-253.24187
 21
163.622914
 31
0.0
  0
LINE
  5
2A6
100
AcDbEntity
  8
2
100
AcDbLine
 10
-253.288005
 20
165.630661
 30
0.0
 11
-249.66955
 21
165.630661
 31
0.0
  0
ARC
  5
2A7
100
AcDbEntity
  8
2
100
AcDbCircle
 10
-253.358838
 20
163.85685
 30
0.0
 40
0.261548
100
AcDbArc
 50
180.0
 51
296.565051
  0
ARC
  5
2A8
100
AcDbEntity
  8
2
100
AcDbCircle
 10
-253.288005
 20
165.709125
 30
0.0
 40
0.078464
100
AcDbArc
 50
116.565051
 51
270.0
  0
LINE
  5
2A9
100
AcDbEntity
  8
2
100
AcDbLine
 10
-249.121757
 20
157.287273
 30
0.0
 11
-245.388347
 21
157.287273
 31
0.0
  0
LINE
  5
2AA
100
AcDbEntity
  8
2
100
AcDbLine
 10
-249.121757
 20
165.630661
 30
0.0
 11
-245.388347
 21
165.630661
 31
0.0
  0
LINE
  5
2AB
100
AcDbEntity
  8
2
100
AcDbLine
 10
-249.278686
 20
165.473732
 30
0.0
 11
-249.278686
 21
157.444202
 31
0.0
  0
ARC
  5
2AC
100
AcDbEntity
  8
2
100
AcDbCircle
 10
-249.121757
 20
157.444202
 30
0.0
 40
0.156929
100
AcDbArc
 50
180.0
 51
270.0
  0
ARC
  5
2AD
100
AcDbEntity
  8
2
100
AcDbCircle
 10
-249.017137
 20
166.053855
 30
0.0
 40
0.261548
100
AcDbArc
 50
180.0
 51
296.565051
  0
ARC
  5
2AE
100
AcDbEntity
  8
2
100
AcDbCircle
 10
-249.121757
 20
165.473732
 30
0.0
 40
0.156929
100
AcDbArc
 50
90.0
 51
180.0
  0
ARC
  5
2AF
100
AcDbEntity
  8
2
100
AcDbCircle
 10
-249.66955
 20
165.526042
 30
0.0
 40
0.104619
100
AcDbArc
 50
296.565051
 51
90.0
  0
LINE
  5
2B0
100
AcDbEntity
  8
2
100
AcDbLine
 10
-245.231418
 20
157.444202
 30
0.0
 11
-245.231418
 21
165.473732
 31
0.0
  0
ARC
  5
2B1
100
AcDbEntity
  8
2
100
AcDbCircle
 10
-245.388347
 20
157.444202
 30
0.0
 40
0.156929
100
AcDbArc
 50
270.0
 51
360.0
  0
ARC
  5
2B2
100
AcDbEntity
  8
2
100
AcDbCircle
 10
-245.388347
 20
165.473732
 30
0.0
 40
0.156929
100
AcDbArc
 50
0.0
 51
90.0
  0
LINE
  5
2B3
100
AcDbEntity
  8
2
100
AcDbLine
 10
-253.358838
 20
170.024671
 30
0.0
 11
-249.66955
 21
170.024671
 31
0.0
  0
LINE
  5
2B4
100
AcDbEntity
  8
2
100
AcDbLine
 10
-253.288005
 20
167.827666
 30
0.0
 11
-249.66955
 21
167.827666
 31
0.0
  0
LINE
  5
2B5
100
AcDbEntity
  8
2
100
AcDbLine
 10
-249.622763
 20
169.826477
 30
0.0
 11
-253.323096
 21
167.976311
 31
0.0
  0
ARC
  5
2B6
100
AcDbEntity
  8
2
100
AcDbCircle
 10
-253.358838
 20
169.763123
 30
0.0
 40
0.261548
100
AcDbArc
 50
90.0
 51
180.0
  0
ARC
  5
2B7
100
AcDbEntity
  8
2
100
AcDbCircle
 10
-253.288005
 20
167.90613
 30
0.0
 40
0.078464
100
AcDbArc
 50
116.565051
 51
270.0
  0
LINE
  5
2B8
100
AcDbEntity
  8
2
100
AcDbLine
 10
-249.017137
 20
170.024671
 30
0.0
 11
-245.32785
 21
170.024671
 31
0.0
  0
LINE
  5
2B9
100
AcDbEntity
  8
2
100
AcDbLine
 10
-249.017137
 20
167.827666
 30
0.0
 11
-245.32785
 21
167.827666
 31
0.0
  0
LINE
  5
2BA
100
AcDbEntity
  8
2
100
AcDbLine
 10
-245.281063
 20
169.826477
 30
0.0
 11
-248.90017
 21
168.016924
 31
0.0
  0
ARC
  5
2BB
100
AcDbEntity
  8
2
100
AcDbCircle
 10
-249.017137
 20
169.763123
 30
0.0
 40
0.261548
100
AcDbArc
 50
90.0
 51
180.0
  0
ARC
  5
2BC
100
AcDbEntity
  8
2
100
AcDbCircle
 10
-249.66955
 20
169.920052
 30
0.0
 40
0.104619
100
AcDbArc
 50
296.565051
 51
90.0
  0
ARC
  5
2BD
100
AcDbEntity
  8
2
100
AcDbCircle
 10
-249.017137
 20
168.25086
 30
0.0
 40
0.261548
100
AcDbArc
 50
180.0
 51
296.565051
  0
ARC
  5
2BE
100
AcDbEntity
  8
2
100
AcDbCircle
 10
-249.017137
 20
167.566118
 30
0.0
 40
0.261548
100
AcDbArc
 50
90.0
 51
180.0
  0
ARC
  5
2BF
100
AcDbEntity
  8
2
100
AcDbCircle
 10
-249.66955
 20
167.723047
 30
0.0
 40
0.104619
100
AcDbArc
 50
296.565051
 51
90.0
  0
LINE
  5
2C0
100
AcDbEntity
  8
2
100
AcDbLine
 10
-249.278686
 20
168.25086
 30
0.0
 11
-249.278686
 21
169.763123
 31
0.0
  0
ARC
  5
2C1
100
AcDbEntity
  8
2
100
AcDbCircle
 10
-244.675437
 20
169.763123
 30
0.0
 40
0.261548
100
AcDbArc
 50
90.0
 51
180.0
  0
ARC
  5
2C2
100
AcDbEntity
  8
2
100
AcDbCircle
 10
-245.32785
 20
169.920052
 30
0.0
 40
0.104619
100
AcDbArc
 50
296.565051
 51
90.0
  0
ARC
  5
2C3
100
AcDbEntity
  8
2
100
AcDbCircle
 10
-244.675437
 20
168.25086
 30
0.0
 40
0.261548
100
AcDbArc
 50
180.0
 51
296.565051
  0
ARC
  5
2C4
100
AcDbEntity
  8
2
100
AcDbCircle
 10
-245.32785
 20
167.723047
 30
0.0
 40
0.104619
100
AcDbArc
 50
296.565051
 51
90.0
  0
LINE
  5
2C5
100
AcDbEntity
  8
2
100
AcDbLine
 10
-244.936985
 20
168.25086
 30
0.0
 11
-244.936985
 21
169.763123
 31
0.0
  0
ARC
  5
2C6
100
AcDbEntity
  8
2
100
AcDbCircle
 10
-240.98615
 20
169.920052
 30
0.0
 40
0.104619
100
AcDbArc
 50
296.565051
 51
90.0
  0
LINE
  5
2C7
100
AcDbEntity
  8
2
100
AcDbLine
 10
-247.634434
 20
216.506181
 30
0.0
 11
-250.71664
 21
223.947285
 31
0.0
  0
LINE
  5
2C8
100
AcDbEntity
  8
2
100
AcDbLine
 10
-246.710554
 20
216.506181
 30
0.0
 11
-243.628348
 21
223.947285
 31
0.0
  0
ARC
  5
2C9
100
AcDbEntity
  8
2
100
AcDbCircle
 10
-247.172494
 20
216.697523
 30
0.0
 40
0.5
100
AcDbArc
 50
202.5
 51
337.5
  0
ARC
  5
2CA
100
AcDbEntity
  8
2
100
AcDbCircle
 10
-251.17858
 20
223.755944
 30
0.0
 40
0.5
100
AcDbArc
 50
22.5
 51
93.860598
  0
ARC
  5
2CB
100
AcDbEntity
  8
2
100
AcDbCircle
 10
-243.166408
 20
223.755944
 30
0.0
 40
0.5
100
AcDbArc
 50
86.139402
 51
157.5
  0
ARC
  5
2CC
100
AcDbEntity
  8
2
100
AcDbCircle
 10
-232.918648
 20
222.158407
 30
0.0
 40
0.5
100
AcDbArc
 50
76.139402
 51
147.5
  0
ARC
  5
2CD
100
AcDbEntity
  8
2
100
AcDbCircle
 10
-240.809097
 20
223.549706
 30
0.0
 40
0.5
100
AcDbArc
 50
12.5
 51
83.860598
  0
ARC
  5
2CE
100
AcDbEntity
  8
2
100
AcDbCircle
 10
-238.089554
 20
215.902869
 30
0.0
 40
0.5
100
AcDbArc
 50
192.5
 51
327.5
  0
LINE
  5
2CF
100
AcDbEntity
  8
2
100
AcDbLine
 10
-237.667859
 20
215.634219
 30
0.0
 11
-233.340344
 21
222.427056
 31
0.0
  0
LINE
  5
2D0
100
AcDbEntity
  8
2
100
AcDbLine
 10
-238.577702
 20
215.794649
 30
0.0
 11
-240.320949
 21
223.657925
 31
0.0
  0
ARC
  5
2D1
100
AcDbEntity
  8
2
100
AcDbCircle
 10
-223.103984
 20
218.805635
 30
0.0
 40
0.5
100
AcDbArc
 50
66.139402
 51
137.5
  0
ARC
  5
2D2
100
AcDbEntity
  8
2
100
AcDbCircle
 10
-230.632963
 20
221.545959
 30
0.0
 40
0.5
100
AcDbArc
 50
2.5
 51
73.860598
  0
ARC
  5
2D3
100
AcDbEntity
  8
2
100
AcDbCircle
 10
-229.282596
 20
213.543051
 30
0.0
 40
0.5
100
AcDbArc
 50
182.5
 51
317.5
  0
LINE
  5
2D4
100
AcDbEntity
  8
2
100
AcDbLine
 10
-228.913957
 20
213.205256
 30
0.0
 11
-223.472623
 21
219.14343
 31
0.0
  0
LINE
  5
2D5
100
AcDbEntity
  8
2
100
AcDbLine
 10
-229.78212
 20
213.521242
 30
0.0
 11
-230.133439
 21
221.567769
 31
0.0
  0
ARC
  5
2D6
100
AcDbEntity
  8
2
100
AcDbCircle
 10
-214.02063
 20
213.799501
 30
0.0
 40
0.5
100
AcDbArc
 50
56.139402
 51
127.5
  0
ARC
  5
2D7
100
AcDbEntity
  8
2
100
AcDbCircle
 10
-220.959374
 20
217.805587
 30
0.0
 40
0.5
100
AcDbArc
 50
352.5
 51
63.860598
  0
ARC
  5
2D8
100
AcDbEntity
  8
2
100
AcDbCircle
 10
-221.019212
 20
209.689772
 30
0.0
 40
0.5
100
AcDbArc
 50
172.5
 51
307.5
  0
LINE
  5
2D9
100
AcDbEntity
  8
2
100
AcDbLine
 10
-220.714832
 20
209.293096
 30
0.0
 11
-214.325011
 21
214.196178
 31
0.0
  0
LINE
  5
2DA
100
AcDbEntity
  8
2
100
AcDbLine
 10
-221.514935
 20
209.755035
 30
0.0
 11
-220.463652
 21
217.740324
 31
0.0
  0
ARC
  5
2DB
100
AcDbEntity
  8
2
100
AcDbCircle
 10
-205.944578
 20
207.292114
 30
0.0
 40
0.5
100
AcDbArc
 50
46.139402
 51
117.5
  0
ARC
  5
2DC
100
AcDbEntity
  8
2
100
AcDbCircle
 10
-212.082258
 20
212.442238
 30
0.0
 40
0.5
100
AcDbArc
 50
342.5
 51
53.860598
  0
ARC
  5
2DD
100
AcDbEntity
  8
2
100
AcDbCircle
 10
-213.550483
 20
204.460112
 30
0.0
 40
0.5
100
AcDbArc
 50
162.5
 51
297.5
  0
LINE
  5
2DE
100
AcDbEntity
  8
2
100
AcDbLine
 10
-213.319609
 20
204.016606
 30
0.0
 11
-206.175452
 21
207.735619
 31
0.0
  0
ARC
  5
2DF
100
AcDbEntity
  8
2
100
AcDbCircle
 10
-199.121216
 20
199.481196
 30
0.0
 40
0.5
100
AcDbArc
 50
36.139402
 51
107.5
  0
ARC
  5
2E0
100
AcDbEntity
  8
2
100
AcDbCircle
 10
-204.27134
 20
205.618876
 30
0.0
 40
0.5
100
AcDbArc
 50
332.5
 51
43.860598
  0
ARC
  5
2E1
100
AcDbEntity
  8
2
100
AcDbCircle
 10
-207.103342
 20
198.012971
 30
0.0
 40
0.5
100
AcDbArc
 50
152.5
 51
287.5
  0
LINE
  5
2E2
100
AcDbEntity
  8
2
100
AcDbLine
 10
-206.952989
 20
197.536112
 30
0.0
 11
-199.271569
 21
199.958055
 31
0.0
  0
LINE
  5
2E3
100
AcDbEntity
  8
2
100
AcDbLine
 10
-207.546847
 20
198.243845
 30
0.0
 11
-203.827835
 21
205.388001
 31
0.0
  0
ARC
  5
2E4
100
AcDbEntity
  8
2
100
AcDbCircle
 10
-193.757867
 20
190.60408
 30
0.0
 40
0.5
100
AcDbArc
 50
26.139402
 51
97.5
  0
ARC
  5
2E5
100
AcDbEntity
  8
2
100
AcDbCircle
 10
-197.763953
 20
197.542824
 30
0.0
 40
0.5
100
AcDbArc
 50
322.5
 51
33.860598
  0
ARC
  5
2E6
100
AcDbEntity
  8
2
100
AcDbCircle
 10
-201.873681
 20
190.544241
 30
0.0
 40
0.5
100
AcDbArc
 50
142.5
 51
277.5
  0
LINE
  5
2E7
100
AcDbEntity
  8
2
100
AcDbLine
 10
-201.808418
 20
190.048519
 30
0.0
 11
-193.82313
 21
191.099802
 31
0.0
  0
LINE
  5
2E8
100
AcDbEntity
  8
2
100
AcDbLine
 10
-202.270358
 20
190.848622
 30
0.0
 11
-197.367276
 21
197.238443
 31
0.0
  0
ARC
  5
2E9
100
AcDbEntity
  8
2
100
AcDbCircle
 10
-190.017495
 20
180.930491
 30
0.0
 40
0.5
100
AcDbArc
 50
16.139402
 51
87.5
  0
ARC
  5
2EA
100
AcDbEntity
  8
2
100
AcDbCircle
 10
-192.757819
 20
188.459469
 30
0.0
 40
0.5
100
AcDbArc
 50
312.5
 51
23.860598
  0
ARC
  5
2EB
100
AcDbEntity
  8
2
100
AcDbCircle
 10
-198.020403
 20
182.280858
 30
0.0
 40
0.5
100
AcDbArc
 50
132.5
 51
267.5
  0
LINE
  5
2EC
100
AcDbEntity
  8
2
100
AcDbLine
 10
-198.042212
 20
181.781334
 30
0.0
 11
-189.995685
 21
181.430015
 31
0.0
  0
LINE
  5
2ED
100
AcDbEntity
  8
2
100
AcDbLine
 10
-198.358198
 20
182.649497
 30
0.0
 11
-192.420024
 21
188.090831
 31
0.0
  0
ARC
  5
2EE
100
AcDbEntity
  8
2
100
AcDbCircle
 10
-189.405047
 20
178.644806
 30
0.0
 40
0.5
100
AcDbArc
 50
302.5
 51
13.860598
  0
LINE
  5
2EF
100
AcDbEntity
  8
2
100
AcDbLine
 10
-189.671143
 20
177.882439
 30
0.0
 11
-189.136397
 21
178.22311
 31
0.0
  0
ARC
  5
2F0
100
AcDbEntity
  8
2
100
AcDbCircle
 10
-247.172494
 20
164.39096
 30
0.0
 40
50.0
100
AcDbArc
 50
127.979872
 51
322.020128
  0
LINE
  5
2F1
100
AcDbEntity
  8
2
100
AcDbLine
 10
-195.93774
 20
139.39096
 30
0.0
 11
-182.172494
 21
139.39096
 31
0.0
  0
LINE
  5
2F2
100
AcDbEntity
  8
2
100
AcDbLine
 10
-172.172494
 20
149.39096
 30
0.0
 11
-172.172494
 21
151.360131
 31
0.0
  0
ARC
  5
2F3
100
AcDbEntity
  8
2
100
AcDbCircle
 10
-182.172494
 20
149.39096
 30
0.0
 40
10.0
100
AcDbArc
 50
270.0
 51
360.0
  0
ARC
  5
2F4
100
AcDbEntity
  8
2
100
AcDbCircle
 10
-262.172494
 20
229.39096
 30
0.0
 40
10.0
100
AcDbArc
 50
90.0
 51
180.0
  0
ARC
  5
2F5
100
AcDbEntity
  8
2
100
AcDbCircle
 10
-253.172494
 20
225.095161
 30
0.0
 40
1.0
100
AcDbArc
 50
180.0
 51
275.644778
  0
ARC
  5
2F6
100
AcDbEntity
  8
2
100
AcDbCircle
 10
-255.172494
 20
238.39096
 30
0.0
 40
1.0
100
AcDbArc
 50
0.0
 51
90.0
  0
LINE
  5
2F7
100
AcDbEntity
  8
2
100
AcDbLine
 10
-254.172494
 20
238.39096
 30
0.0
 11
-254.172494
 21
225.095161
 31
0.0
  0
LINE
  5
2F8
100
AcDbEntity
  8
2
100
AcDbLine
 10
-262.172494
 20
239.39096
 30
0.0
 11
-255.172494
 21
239.39096
 31
0.0
  0
LINE
  5
2F9
100
AcDbEntity
  8
2
100
AcDbLine
 10
-272.172494
 20
215.625714
 30
0.0
 11
-272.172494
 21
229.39096
 31
0.0
  0
ARC
  5
2FA
100
AcDbEntity
  8
2
100
AcDbCircle
 10
-195.93774
 20
124.39096
 30
0.0
 40
15.0
100
AcDbArc
 50
90.0
 51
142.020128
  0
ARC
  5
2FB
100
AcDbEntity
  8
2
100
AcDbCircle
 10
-287.172494
 20
215.625714
 30
0.0
 40
15.0
100
AcDbArc
 50
307.979872
 51
360.0
  0
ARC
  5
2FC
100
AcDbEntity
  8
2
100
AcDbCircle
 10
-247.172494
 20
164.39096
 30
0.0
 40
60.0
100
AcDbArc
 50
13.860598
 51
16.139402
  0
ARC
  5
2FD
100
AcDbEntity
  8
2
100
AcDbCircle
 10
-247.172494
 20
164.39096
 30
0.0
 40
60.0
100
AcDbArc
 50
23.860598
 51
26.139402
  0
ARC
  5
2FE
100
AcDbEntity
  8
2
100
AcDbCircle
 10
-247.172494
 20
164.39096
 30
0.0
 40
60.0
100
AcDbArc
 50
93.860598
 51
95.644778
  0
ARC
  5
2FF
100
AcDbEntity
  8
2
100
AcDbCircle
 10
-247.172494
 20
164.39096
 30
0.0
 40
60.0
100
AcDbArc
 50
83.860598
 51
86.139402
  0
ARC
  5
300
100
AcDbEntity
  8
2
100
AcDbCircle
 10
-247.172494
 20
164.39096
 30
0.0
 40
60.0
100
AcDbArc
 50
73.860598
 51
76.139402
  0
ARC
  5
301
100
AcDbEntity
  8
2
100
AcDbCircle
 10
-247.172494
 20
164.39096
 30
0.0
 40
60.0
100
AcDbArc
 50
63.860598
 51
66.139402
  0
ARC
  5
302
100
AcDbEntity
  8
2
100
AcDbCircle
 10
-247.172494
 20
164.39096
 30
0.0
 40
60.0
100
AcDbArc
 50
53.860598
 51
56.139402
  0
ARC
  5
303
100
AcDbEntity
  8
2
100
AcDbCircle
 10
-247.172494
 20
164.39096
 30
0.0
 40
60.0
100
AcDbArc
 50
43.860598
 51
46.139402
  0
ARC
  5
304
100
AcDbEntity
  8
2
100
AcDbCircle
 10
-247.172494
 20
164.39096
 30
0.0
 40
60.0
100
AcDbArc
 50
33.860598
 51
36.139402
  0
LINE
  5
305
100
AcDbEntity
  8
2
100
AcDbLine
 10
-245.051173
 20
184.897057
 30
0.0
 11
-248.586707
 21
188.432591
 31
0.0
  0
LINE
  5
306
100
AcDbEntity
  8
2
100
AcDbLine
 10
-245.051173
 20
191.968124
 30
0.0
 11
-248.586707
 21
188.432591
 31
0.0
  0
LINE
  5
307
100
AcDbEntity
  8
2
100
AcDbLine
 10
-244.69762
 20
191.614571
 30
0.0
 11
-247.879601
 21
188.432591
 31
0.0
  0
LINE
  5
308
100
AcDbEntity
  8
2
100
AcDbLine
 10
-244.69762
 20
185.25061
 30
0.0
 11
-247.879601
 21
188.432591
 31
0.0
  0
LINE
  5
309
100
AcDbEntity
  8
2
100
AcDbLine
 10
-244.69762
 20
185.25061
 30
0.0
 11
-245.051173
 21
184.897057
 31
0.0
  0
LINE
  5
30A
100
AcDbEntity
  8
2
100
AcDbLine
 10
-244.69762
 20
191.614571
 30
0.0
 11
-245.051173
 21
191.968124
 31
0.0
  0
LINE
  5
30B
100
AcDbEntity
  8
2
100
AcDbLine
 10
-272.577591
 20
154.440718
 30
0.0
 11
-275.82855
 21
157.691677
 31
0.0
  0
LINE
  5
30C
100
AcDbEntity
  8
2
100
AcDbLine
 10
-276.742882
 20
150.275427
 30
0.0
 11
-279.993841
 21
153.526386
 31
0.0
  0
LINE
  5
30D
100
AcDbEntity
  8
2
100
AcDbLine
 10
-269.650867
 20
145.192705
 30
0.0
 11
-265.344704
 21
147.207831
 31
0.0
  0
LINE
  5
30E
100
AcDbEntity
  8
2
100
AcDbLine
 10
-270.003784
 20
143.536328
 30
0.0
 11
-266.381744
 21
145.154866
 31
0.0
  0
LINE
  5
30F
100
AcDbEntity
  8
2
100
AcDbLine
 10
-269.650867
 20
145.192705
 30
0.0
 11
-266.628219
 21
148.491346
 31
0.0
  0
LINE
  5
310
100
AcDbEntity
  8
2
100
AcDbLine
 10
-271.547381
 20
145.095464
 30
0.0
 11
-267.644144
 21
149.507271
 31
0.0
  0
ARC
  5
311
100
AcDbEntity
  8
2
100
AcDbCircle
 10
-266.940177
 20
144.312917
 30
0.0
 40
10.402317
100
AcDbArc
 50
128.830069
 51
141.169931
  0
ARC
  5
312
100
AcDbEntity
  8
2
100
AcDbCircle
 10
-277.628213
 20
155.000953
 30
0.0
 40
10.402317
100
AcDbArc
 50
308.830069
 51
321.169931
  0
LINE
  5
313
100
AcDbEntity
  8
2
100
AcDbLine
 10
-276.742882
 20
150.275427
 30
0.0
 11
-272.577591
 21
154.440718
 31
0.0
  0
ARC
  5
314
100
AcDbEntity
  8
2
100
AcDbCircle
 10
-272.381541
 20
151.073341
 30
0.0
 40
1.724081
100
AcDbArc
 50
51.270542
 51
128.830069
  0
ARC
  5
315
100
AcDbEntity
  8
2
100
AcDbCircle
 10
-270.867789
 20
149.559589
 30
0.0
 40
1.724081
100
AcDbArc
 50
321.169931
 51
38.729458
  0
ARC
  5
316
100
AcDbEntity
  8
2
100
AcDbCircle
 10
-278.512829
 20
143.428301
 30
0.0
 40
11.524047
100
AcDbArc
 50
38.729458
 51
51.270542
  0
LINE
  5
317
100
AcDbEntity
  8
2
100
AcDbLine
 10
-267.644144
 20
149.507271
 30
0.0
 11
-266.628219
 21
148.491346
 31
0.0
  0
ARC
  5
318
100
AcDbEntity
  8
2
100
AcDbCircle
 10
-273.700601
 20
149.754281
 30
0.0
 40
1.724081
100
AcDbArc
 50
141.169931
 51
218.729458
  0
ARC
  5
319
100
AcDbEntity
  8
2
100
AcDbCircle
 10
-272.186849
 20
148.240529
 30
0.0
 40
1.724081
100
AcDbArc
 50
231.270542
 51
308.830069
  0
ARC
  5
31A
100
AcDbEntity
  8
2
100
AcDbCircle
 10
-266.055561
 20
155.885569
 30
0.0
 40
11.524047
100
AcDbArc
 50
218.729458
 51
231.270542
  0
LINE
  5
31B
100
AcDbEntity
  8
2
100
AcDbLine
 10
-271.55515
 20
145.087695
 30
0.0
 11
-270.003784
 21
143.536328
 31
0.0
  0
LINE
  5
31C
100
AcDbEntity
  8
2
100
AcDbLine
 10
-276.539697
 20
152.916831
 30
0.0
 11
-277.250845
 21
152.205684
 31
0.0
  0
LINE
  5
31D
100
AcDbEntity
  8
2
100
AcDbLine
 10
-274.507848
 20
154.948681
 30
0.0
 11
-275.82855
 21
153.627979
 31
0.0
  0
LINE
  5
31E
100
AcDbEntity
  8
2
100
AcDbLine
 10
-274.507848
 20
154.948681
 30
0.0
 11
-276.539697
 21
156.98053
 31
0.0
  0
LINE
  5
31F
100
AcDbEntity
  8
2
100
AcDbLine
 10
-275.82855
 20
153.627979
 30
0.0
 11
-277.8604
 21
155.659828
 31
0.0
  0
LINE
  5
320
100
AcDbEntity
  8
2
100
AcDbLine
 10
-276.539697
 20
152.916831
 30
0.0
 11
-278.571547
 21
154.948681
 31
0.0
  0
LINE
  5
321
100
AcDbEntity
  8
2
100
AcDbLine
 10
-277.250845
 20
152.205684
 30
0.0
 11
-279.282694
 21
154.237533
 31
0.0
  0
LINE
  5
322
100
AcDbEntity
  8
2
100
AcDbLine
 10
-255.117374
 20
136.980501
 30
0.0
 11
-256.567532
 21
138.430659
 31
0.0
  0
LINE
  5
323
100
AcDbEntity
  8
2
100
AcDbLine
 10
-258.203348
 20
133.894527
 30
0.0
 11
-259.653506
 21
135.344685
 31
0.0
  0
ARC
  5
324
100
AcDbEntity
  8
2
100
AcDbCircle
 10
-258.317536
 20
130.488742
 30
0.0
 40
0.143673
100
AcDbArc
 50
225.0
 51
315.0
  0
LINE
  5
325
100
AcDbEntity
  8
2
100
AcDbLine
 10
-258.081437
 20
133.894527
 30
0.0
 11
-255.117374
 21
136.85859
 31
0.0
  0
LINE
  5
326
100
AcDbEntity
  8
2
100
AcDbLine
 10
-262.875181
 20
135.218279
 30
0.0
 11
-255.977945
 21
132.9192
 31
0.0
  0
ARC
  5
327
100
AcDbEntity
  8
2
100
AcDbCircle
 10
-255.178329
 20
136.919545
 30
0.0
 40
0.086204
100
AcDbArc
 50
315.0
 51
45.0
  0
ARC
  5
328
100
AcDbEntity
  8
2
100
AcDbCircle
 10
-256.023379
 20
132.7829
 30
0.0
 40
0.143673
100
AcDbArc
 50
315.0
 51
71.565051
  0
ARC
  5
329
100
AcDbEntity
  8
2
100
AcDbCircle
 10
-258.142392
 20
133.955482
 30
0.0
 40
0.086204
100
AcDbArc
 50
225.0
 51
315.0
  0
LINE
  5
32A
100
AcDbEntity
  8
2
100
AcDbLine
 10
-255.921786
 20
132.681307
 30
0.0
 11
-258.215944
 21
130.38715
 31
0.0
  0
ARC
  5
32B
100
AcDbEntity
  8
2
100
AcDbCircle
 10
-256.535657
 20
133.908398
 30
0.0
 40
10.402317
100
AcDbArc
 50
128.830069
 51
141.169931
  0
ARC
  5
32C
100
AcDbEntity
  8
2
100
AcDbCircle
 10
-257.306675
 20
134.679416
 30
0.0
 40
7.674066
100
AcDbArc
 50
124.473609
 51
145.526391
  0
LINE
  5
32D
100
AcDbEntity
  8
2
100
AcDbLine
 10
-266.441146
 20
139.989229
 30
0.0
 11
-262.029339
 21
143.892466
 31
0.0
  0
ARC
  5
32E
100
AcDbEntity
  8
2
100
AcDbCircle
 10
-261.977021
 20
140.668821
 30
0.0
 40
1.724081
100
AcDbArc
 50
51.270542
 51
128.830069
  0
LINE
  5
32F
100
AcDbEntity
  8
2
100
AcDbLine
 10
-263.045264
 20
144.908391
 30
0.0
 11
-262.029339
 21
143.892466
 31
0.0
  0
ARC
  5
330
100
AcDbEntity
  8
2
100
AcDbCircle
 10
-263.296081
 20
139.349761
 30
0.0
 40
1.724081
100
AcDbArc
 50
141.169931
 51
218.729458
  0
LINE
  5
331
100
AcDbEntity
  8
2
100
AcDbLine
 10
-268.000282
 20
141.532827
 30
0.0
 11
-266.448915
 21
139.98146
 31
0.0
  0
ARC
  5
332
100
AcDbEntity
  8
2
100
AcDbCircle
 10
-267.223693
 20
144.596433
 30
0.0
 40
10.402317
100
AcDbArc
 50
308.830069
 51
321.169931
  0
ARC
  5
333
100
AcDbEntity
  8
2
100
AcDbCircle
 10
-267.071273
 20
144.569446
 30
0.0
 40
8.638035
100
AcDbArc
 50
305.062783
 51
323.774302
  0
LINE
  5
334
100
AcDbEntity
  8
2
100
AcDbLine
 10
-256.689443
 20
138.430659
 30
0.0
 11
-259.653506
 21
135.466596
 31
0.0
  0
ARC
  5
335
100
AcDbEntity
  8
2
100
AcDbCircle
 10
-260.463269
 20
139.155069
 30
0.0
 40
1.724081
100
AcDbArc
 50
321.169931
 51
38.729458
  0
ARC
  5
336
100
AcDbEntity
  8
2
100
AcDbCircle
 10
-262.730425
 20
138.401665
 30
0.0
 40
3.169316
100
AcDbArc
 50
34.668048
 51
55.331952
  0
ARC
  5
337
100
AcDbEntity
  8
2
100
AcDbCircle
 10
-260.73303
 20
139.817143
 30
0.0
 40
0.721926
100
AcDbArc
 50
330.772957
 51
32.444044
  0
ARC
  5
338
100
AcDbEntity
  8
2
100
AcDbCircle
 10
-256.628487
 20
138.369704
 30
0.0
 40
0.086204
100
AcDbArc
 50
45.0
 51
135.0
  0
ARC
  5
339
100
AcDbEntity
  8
2
100
AcDbCircle
 10
-261.782329
 20
137.83601
 30
0.0
 40
1.724081
100
AcDbArc
 50
231.270542
 51
308.830069
  0
ARC
  5
33A
100
AcDbEntity
  8
2
100
AcDbCircle
 10
-262.472111
 20
138.016455
 30
0.0
 40
0.632163
100
AcDbArc
 50
235.331952
 51
305.062783
  0
ARC
  5
33B
100
AcDbEntity
  8
2
100
AcDbCircle
 10
-261.028925
 20
140.103165
 30
0.0
 40
3.169316
100
AcDbArc
 50
214.668048
 51
235.331952
  0
ARC
  5
33C
100
AcDbEntity
  8
2
100
AcDbCircle
 10
-259.59255
 20
135.405641
 30
0.0
 40
0.086204
100
AcDbArc
 50
135.0
 51
225.0
  0
ARC
  5
33D
100
AcDbEntity
  8
2
100
AcDbCircle
 10
-268.108309
 20
133.023781
 30
0.0
 40
11.524047
100
AcDbArc
 50
38.729458
 51
51.270542
  0
ARC
  5
33E
100
AcDbEntity
  8
2
100
AcDbCircle
 10
-261.28724
 20
140.488376
 30
0.0
 40
0.632163
100
AcDbArc
 50
55.331952
 51
125.062783
  0
ARC
  5
33F
100
AcDbEntity
  8
2
100
AcDbCircle
 10
-255.651041
 20
145.48105
 30
0.0
 40
11.524047
100
AcDbArc
 50
218.729458
 51
231.270542
  0
ARC
  5
340
100
AcDbEntity
  8
2
100
AcDbCircle
 10
-263.115635
 20
138.65998
 30
0.0
 40
0.632163
100
AcDbArc
 50
144.937217
 51
214.668048
  0
LINE
  5
341
100
AcDbEntity
  8
2
100
AcDbLine
 10
-268.000282
 20
141.532827
 30
0.0
 11
-266.381744
 21
145.154866
 31
0.0
  0
LINE
  5
342
100
AcDbEntity
  8
2
100
AcDbLine
 10
-265.344704
 20
147.207831
 30
0.0
 11
-264.328779
 21
146.191906
 31
0.0
  0
ARC
  5
343
100
AcDbEntity
  8
2
100
AcDbCircle
 10
-262.919453
 20
135.085463
 30
0.0
 40
0.14
100
AcDbArc
 50
71.565051
 51
225.0
  0
ARC
  5
344
100
AcDbEntity
  8
2
100
AcDbCircle
 10
-272.903474
 20
148.447818
 30
0.0
 40
0.632163
100
AcDbArc
 50
235.331952
 51
305.062783
  0
ARC
  5
345
100
AcDbEntity
  8
2
100
AcDbCircle
 10
-271.075078
 20
150.276214
 30
0.0
 40
0.632163
100
AcDbArc
 50
324.937217
 51
34.668048
  0
ARC
  5
346
100
AcDbEntity
  8
2
100
AcDbCircle
 10
-271.460288
 20
150.534529
 30
0.0
 40
3.169316
100
AcDbArc
 50
214.668048
 51
235.331952
  0
ARC
  5
347
100
AcDbEntity
  8
2
100
AcDbCircle
 10
-273.546999
 20
149.091343
 30
0.0
 40
0.632163
100
AcDbArc
 50
144.937217
 51
214.668048
  0
ARC
  5
348
100
AcDbEntity
  8
2
100
AcDbCircle
 10
-271.746311
 20
150.830424
 30
0.0
 40
0.721926
100
AcDbArc
 50
57.555956
 51
119.227043
  0
ARC
  5
349
100
AcDbEntity
  8
2
100
AcDbCircle
 10
-273.161788
 20
148.833029
 30
0.0
 40
3.169316
100
AcDbArc
 50
34.668048
 51
55.331952
  0
ARC
  5
34A
100
AcDbEntity
  8
2
100
AcDbCircle
 10
-266.994008
 20
144.49218
 30
0.0
 40
8.638035
100
AcDbArc
 50
126.225698
 51
144.937217
  0
ARC
  5
34B
100
AcDbEntity
  8
2
100
AcDbCircle
 10
-276.884038
 20
154.256778
 30
0.0
 40
7.674066
100
AcDbArc
 50
304.473609
 51
325.526391
  0
LINE
  5
34C
100
AcDbEntity
  8
2
100
AcDbLine
 10
-258.419129
 20
130.38715
 30
0.0
 11
-263.018447
 21
134.986468
 31
0.0
  0
LINE
  5
34D
100
AcDbEntity
  8
2
100
AcDbLine
 10
-266.370749
 20
141.912587
 30
0.0
 11
-264.355623
 21
146.21875
 31
0.0
  0
LINE
  5
34E
100
AcDbEntity
  8
2
100
AcDbLine
 10
-266.370749
 20
141.912587
 30
0.0
 11
-263.072108
 21
144.935235
 31
0.0
  0
ARC
  5
34F
100
AcDbEntity
  8
2
100
AcDbCircle
 10
-293.66174
 20
165.39096
 30
0.0
 40
0.5
100
AcDbArc
 50
90.0
 51
178.767738
  0
LINE
  5
350
100
AcDbEntity
  8
2
100
AcDbLine
 10
-293.66174
 20
165.89096
 30
0.0
 11
-283.495369
 21
165.89096
 31
0.0
  0
LINE
  5
351
100
AcDbEntity
  8
2
100
AcDbLine
 10
-293.66174
 20
162.89096
 30
0.0
 11
-283.495369
 21
162.89096
 31
0.0
  0
ARC
  5
352
100
AcDbEntity
  8
2
100
AcDbCircle
 10
-293.66174
 20
163.39096
 30
0.0
 40
0.5
100
AcDbArc
 50
181.232262
 51
270.0
  0
LINE
  5
353
100
AcDbEntity
  8
2
100
AcDbLine
 10
-292.87923
 20
155.823916
 30
0.0
 11
-283.031153
 21
157.560398
 31
0.0
  0
ARC
  5
354
100
AcDbEntity
  8
2
100
AcDbCircle
 10
-292.966054
 20
156.31632
 30
0.0
 40
0.5
100
AcDbArc
 50
100.0
 51
280.0
  0
LINE
  5
355
100
AcDbEntity
  8
2
100
AcDbLine
 10
-293.052878
 20
156.808724
 30
0.0
 11
-283.204801
 21
158.545205
 31
0.0
  0
LINE
  5
356
100
AcDbEntity
  8
2
100
AcDbLine
 10
-283.114954
 20
134.884358
 30
0.0
 11
-275.45451
 21
141.312234
 31
0.0
  0
ARC
  5
357
100
AcDbEntity
  8
2
100
AcDbCircle
 10
-282.79356
 20
134.501336
 30
0.0
 40
0.5
100
AcDbArc
 50
130.0
 51
310.0
  0
LINE
  5
358
100
AcDbEntity
  8
2
100
AcDbLine
 10
-282.472167
 20
134.118314
 30
0.0
 11
-274.811722
 21
140.54619
 31
0.0
  0
LINE
  5
359
100
AcDbEntity
  8
2
100
AcDbLine
 10
-287.692675
 20
141.573973
 30
0.0
 11
-279.032421
 21
146.573973
 31
0.0
  0
ARC
  5
35A
100
AcDbEntity
  8
2
100
AcDbCircle
 10
-287.442675
 20
141.14096
 30
0.0
 40
0.5
100
AcDbArc
 50
120.0
 51
300.0
  0
LINE
  5
35B
100
AcDbEntity
  8
2
100
AcDbLine
 10
-287.192675
 20
140.707947
 30
0.0
 11
-278.532421
 21
145.707947
 31
0.0
  0
LINE
  5
35C
100
AcDbEntity
  8
2
100
AcDbLine
 10
-291.039211
 20
148.95687
 30
0.0
 11
-281.642284
 21
152.377071
 31
0.0
  0
ARC
  5
35D
100
AcDbEntity
  8
2
100
AcDbCircle
 10
-290.868201
 20
148.487023
 30
0.0
 40
0.5
100
AcDbArc
 50
110.0
 51
290.0
  0
LINE
  5
35E
100
AcDbEntity
  8
2
100
AcDbLine
 10
-290.697191
 20
148.017177
 30
0.0
 11
-281.300264
 21
151.437378
 31
0.0
  0
ARC
  5
35F
100
AcDbEntity
  8
2
100
AcDbCircle
 10
-247.172494
 20
164.39096
 30
0.0
 40
47.0
100
AcDbArc
 50
178.767738
 51
181.232262
  0
LINE
  5
360
100
AcDbEntity
  8
2
100
AcDbLine
 10
-263.546277
 20
120.866263
 30
0.0
 11
-260.126075
 21
130.263189
 31
0.0
  0
LINE
  5
361
100
AcDbEntity
  8
2
100
AcDbLine
 10
-262.606584
 20
120.524243
 30
0.0
 11
-259.186383
 21
129.921169
 31
0.0
  0
LINE
  5
362
100
AcDbEntity
  8
2
100
AcDbLine
 10
-270.855506
 20
124.370779
 30
0.0
 11
-265.855506
 21
133.031033
 31
0.0
  0
ARC
  5
363
100
AcDbEntity
  8
2
100
AcDbCircle
 10
-270.422494
 20
124.120779
 30
0.0
 40
0.5
100
AcDbArc
 50
150.0
 51
330.0
  0
LINE
  5
364
100
AcDbEntity
  8
2
100
AcDbLine
 10
-269.989481
 20
123.870779
 30
0.0
 11
-264.989481
 21
132.531033
 31
0.0
  0
LINE
  5
365
100
AcDbEntity
  8
2
100
AcDbLine
 10
-277.44514
 20
129.091287
 30
0.0
 11
-271.017264
 21
136.751732
 31
0.0
  0
ARC
  5
366
100
AcDbEntity
  8
2
100
AcDbCircle
 10
-277.062118
 20
128.769893
 30
0.0
 40
0.5
100
AcDbArc
 50
140.0
 51
320.0
  0
LINE
  5
367
100
AcDbEntity
  8
2
100
AcDbLine
 10
-276.679095
 20
128.4485
 30
0.0
 11
-270.251219
 21
136.108944
 31
0.0
  0
LINE
  5
368
100
AcDbEntity
  8
2
100
AcDbLine
 10
-254.75473
 20
118.510575
 30
0.0
 11
-253.018248
 21
128.358653
 31
0.0
  0
LINE
  5
369
100
AcDbEntity
  8
2
100
AcDbLine
 10
-255.739538
 20
118.684224
 30
0.0
 11
-254.003056
 21
128.532301
 31
0.0
  0
LINE
  5
36A
100
AcDbEntity
  8
2
100
AcDbLine
 10
-248.672494
 20
117.901714
 30
0.0
 11
-248.672494
 21
136.909148
 31
0.0
  0
LINE
  5
36B
100
AcDbEntity
  8
2
100
AcDbLine
 10
-245.672494
 20
117.901714
 30
0.0
 11
-245.672494
 21
136.909148
 31
0.0
  0
LINE
  5
36C
100
AcDbEntity
  8
2
100
AcDbLine
 10
-279.993841
 20
153.526386
 30
0.0
 11
-279.282694
 21
154.237533
 31
0.0
  0
LINE
  5
36D
100
AcDbEntity
  8
2
100
AcDbLine
 10
-278.571547
 20
154.948681
 30
0.0
 11
-277.8604
 21
155.659828
 31
0.0
  0
LINE
  5
36E
100
AcDbEntity
  8
2
100
AcDbLine
 10
-276.539697
 20
156.98053
 30
0.0
 11
-275.82855
 21
157.691677
 31
0.0
  0
ARC
  5
36F
100
AcDbEntity
  8
2
100
AcDbCircle
 10
-253.510652
 20
128.445477
 30
0.0
 40
0.5
100
AcDbArc
 50
350.0
 51
170.0
  0
ARC
  5
370
100
AcDbEntity
  8
2
100
AcDbCircle
 10
-259.656229
 20
130.092179
 30
0.0
 40
0.5
100
AcDbArc
 50
340.0
 51
160.0
  0
ARC
  5
371
100
AcDbEntity
  8
2
100
AcDbCircle
 10
-265.422494
 20
132.781033
 30
0.0
 40
0.5
100
AcDbArc
 50
330.0
 51
150.0
  0
ARC
  5
372
100
AcDbEntity
  8
2
100
AcDbCircle
 10
-270.634242
 20
136.430338
 30
0.0
 40
0.5
100
AcDbArc
 50
320.0
 51
140.0
  0
ARC
  5
373
100
AcDbEntity
  8
2
100
AcDbCircle
 10
-275.133116
 20
140.929212
 30
0.0
 40
0.5
100
AcDbArc
 50
310.0
 51
130.0
  0
ARC
  5
374
100
AcDbEntity
  8
2
100
AcDbCircle
 10
-278.782421
 20
146.14096
 30
0.0
 40
0.5
100
AcDbArc
 50
300.0
 51
120.0
  0
ARC
  5
375
100
AcDbEntity
  8
2
100
AcDbCircle
 10
-281.471274
 20
151.907225
 30
0.0
 40
0.5
100
AcDbArc
 50
290.0
 51
110.0
  0
ARC
  5
376
100
AcDbEntity
  8
2
100
AcDbCircle
 10
-283.117977
 20
158.052802
 30
0.0
 40
0.5
100
AcDbArc
 50
280.0
 51
100.0
  0
ARC
  5
377
100
AcDbEntity
  8
2
100
AcDbCircle
 10
-247.172494
 20
164.39096
 30
0.0
 40
47.0
100
AcDbArc
 50
189.999966
 51
190.000034
  0
ARC
  5
378
100
AcDbEntity
  8
2
100
AcDbCircle
 10
-248.172494
 20
117.901714
 30
0.0
 40
0.5
100
AcDbArc
 50
180.0
 51
268.767738
  0
ARC
  5
379
100
AcDbEntity
  8
2
100
AcDbCircle
 10
-246.172494
 20
117.901714
 30
0.0
 40
0.5
100
AcDbArc
 50
271.232262
 51
360.0
  0
ARC
  5
37A
100
AcDbEntity
  8
2
100
AcDbCircle
 10
-247.172494
 20
164.39096
 30
0.0
 40
47.0
100
AcDbArc
 50
199.999929
 51
200.000071
  0
ARC
  5
37B
100
AcDbEntity
  8
2
100
AcDbCircle
 10
-247.172494
 20
164.39096
 30
0.0
 40
47.0
100
AcDbArc
 50
268.767738
 51
271.232262
  0
ARC
  5
37C
100
AcDbEntity
  8
2
100
AcDbCircle
 10
-247.172494
 20
164.39096
 30
0.0
 40
27.0
100
AcDbArc
 50
267.916058
 51
272.083942
  0
ARC
  5
37D
100
AcDbEntity
  8
2
100
AcDbCircle
 10
-246.172494
 20
136.909148
 30
0.0
 40
0.5
100
AcDbArc
 50
0.0
 51
92.083942
  0
ARC
  5
37E
100
AcDbEntity
  8
2
100
AcDbCircle
 10
-248.172494
 20
136.909148
 30
0.0
 40
0.5
100
AcDbArc
 50
87.916058
 51
180.0
  0
ARC
  5
37F
100
AcDbEntity
  8
2
100
AcDbCircle
 10
-263.07643
 20
120.695253
 30
0.0
 40
0.5
100
AcDbArc
 50
160.0
 51
340.0
  0
ARC
  5
380
100
AcDbEntity
  8
2
100
AcDbCircle
 10
-255.247134
 20
118.597399
 30
0.0
 40
0.5
100
AcDbArc
 50
170.0
 51
350.0
  0
LINE
  5
381
100
AcDbEntity
  8
2
100
AcDbLine
 10
-225.097083
 20
149.966897
 30
0.0
 11
-223.548667
 21
149.441332
 31
0.0
  0
LINE
  5
382
100
AcDbEntity
  8
2
100
AcDbLine
 10
-223.548667
 20
149.441332
 30
0.0
 11
-224.039322
 21
149.994742
 31
0.0
  0
ARC
  5
383
100
AcDbEntity
  8
2
  6
CENTER
 62
     2
100
AcDbCircle
 10
-247.172494
 20
164.39096
 30
0.0
 40
35.0
100
AcDbArc
 50
298.585378
 51
330.968199
  0
LINE
  5
384
100
AcDbEntity
  8
2
  6
CENTER
 62
     2
100
AcDbLine
 10
-215.147805
 20
132.366271
 30
0.0
 11
-229.823653
 21
147.04212
 31
0.0
  0
ARC
  5
385
100
AcDbEntity
  8
2
  6
CENTER
 62
     2
100
AcDbCircle
 10
-247.172494
 20
164.39096
 30
0.0
 40
35.0
100
AcDbArc
 50
118.005522
 51
150.923658
  0
LINE
  5
386
100
AcDbEntity
  8
2
  6
CENTER
 62
     2
100
AcDbLine
 10
-263.594877
 20
180.813343
 30
0.0
 11
-280.314477
 21
197.532944
 31
0.0
  0
TEXT
  5
387
100
AcDbEntity
  8
2
100
AcDbText
 10
-228.623516
 20
133.046579
 30
0.0
 40
10.0
  1
Ｏ
 50
202.5
 72
     5
 11
-236.014552
 21
129.985112
 31
0.0
100
AcDbText
  0
TEXT
  5
388
100
AcDbEntity
  8
2
100
AcDbText
 10
-282.132644
 20
174.136462
 30
0.0
 40
10.0
  1
Ｓ
 50
67.5
 72
     5
 11
-279.071177
 21
181.527498
 31
0.0
100
AcDbText
  0
TEXT
  5
389
100
AcDbEntity
  8
2
100
AcDbText
 10
-268.222788
 20
177.940744
 30
0.0
 40
3.0
  1
Ｊ
 50
55.0
 72
     5
 11
-266.846205
 21
179.906709
 31
0.0
100
AcDbText
  0
TEXT
  5
38A
100
AcDbEntity
  8
2
100
AcDbText
 10
-266.961744
 20
179.723837
 30
0.0
 40
3.0
  1
Ａ
 50
50.0
 72
     5
 11
-265.419054
 21
181.562344
 31
0.0
100
AcDbText
  0
TEXT
  5
38B
100
AcDbEntity
  8
2
100
AcDbText
 10
-263.998574
 20
182.927264
 30
0.0
 40
3.0
  1
Ａ
 50
40.0
 72
     5
 11
-262.160067
 21
184.469954
 31
0.0
100
AcDbText
  0
TEXT
  5
38C
100
AcDbEntity
  8
2
100
AcDbText
 10
-262.319001
 20
184.323217
 30
0.0
 40
3.0
  1
Ｎ
 50
35.0
 72
     5
 11
-260.353036
 21
185.6998
 31
0.0
100
AcDbText
  0
TEXT
  5
38D
100
AcDbEntity
  8
2
100
AcDbText
 10
-265.550091
 20
181.390238
 30
0.0
 40
3.0
  1
Ｐ
 50
45.0
 72
     5
 11
-263.853035
 21
183.087294
 31
0.0
100
AcDbText
  0
TEXT
  5
38E
100
AcDbEntity
  8
2
100
AcDbText
 10
-234.648947
 20
142.714422
 30
0.0
 40
3.0
  1
Ｄ
 50
207.785854
 72
     5
 11
-236.772218
 21
141.595618
 31
0.0
100
AcDbText
  0
TEXT
  5
38F
100
AcDbEntity
  8
2
100
AcDbText
 10
-232.807368
 20
143.888406
 30
0.0
 40
3.0
  1
Ｅ
 50
212.785854
 72
     5
 11
-234.825049
 21
142.588804
 31
0.0
100
AcDbText
  0
TEXT
  5
390
100
AcDbEntity
  8
2
100
AcDbText
 10
-231.075117
 20
145.218428
 30
0.0
 40
3.0
  1
Ｔ
 50
217.785854
 72
     5
 11
-232.971852
 21
143.747919
 31
0.0
100
AcDbText
  0
TEXT
  5
391
100
AcDbEntity
  8
2
100
AcDbText
 10
-229.465376
 20
146.694364
 30
0.0
 40
3.0
  1
Ｎ
 50
222.785854
 72
     5
 11
-231.22673
 21
145.06414
 31
0.0
100
AcDbText
  0
TEXT
  5
392
100
AcDbEntity
  8
2
100
AcDbText
 10
-227.990397
 20
148.304982
 30
0.0
 40
3.0
  1
Ｅ
 50
227.785854
 72
     5
 11
-229.602965
 21
146.527449
 31
0.0
100
AcDbText
  0
TEXT
  5
393
100
AcDbEntity
  8
2
100
AcDbText
 10
-226.661405
 20
150.038024
 30
0.0
 40
3.0
  1
Ｔ
 50
232.785854
 72
     5
 11
-228.112915
 21
148.126711
 31
0.0
100
AcDbText
  0
LINE
  5
394
100
AcDbEntity
  8
2
100
AcDbLine
 10
-247.172494
 20
138.39096
 30
0.0
 11
-249.631494
 21
138.39096
 31
0.0
  0
LINE
  5
395
100
AcDbEntity
  8
2
100
AcDbLine
 10
-249.631494
 20
138.39096
 30
0.0
 11
-250.172494
 21
138.93196
 31
0.0
  0
LINE
  5
396
100
AcDbEntity
  8
2
100
AcDbLine
 10
-250.172494
 20
138.93196
 30
0.0
 11
-250.172494
 21
142.409889
 31
0.0
  0
LINE
  5
397
100
AcDbEntity
  8
2
100
AcDbLine
 10
-250.172494
 20
138.93196
 30
0.0
 11
-247.172494
 21
138.93196
 31
0.0
  0
LINE
  5
398
100
AcDbEntity
  8
2
100
AcDbLine
 10
-247.172494
 20
138.39096
 30
0.0
 11
-244.713494
 21
138.39096
 31
0.0
  0
LINE
  5
399
100
AcDbEntity
  8
2
100
AcDbLine
 10
-244.713494
 20
138.39096
 30
0.0
 11
-244.172494
 21
138.93196
 31
0.0
  0
LINE
  5
39A
100
AcDbEntity
  8
2
100
AcDbLine
 10
-244.172494
 20
138.93196
 30
0.0
 11
-244.172494
 21
142.409889
 31
0.0
  0
LINE
  5
39B
100
AcDbEntity
  8
2
100
AcDbLine
 10
-244.172494
 20
138.93196
 30
0.0
 11
-247.172494
 21
138.93196
 31
0.0
  0
LINE
  5
39C
100
AcDbEntity
  8
2
100
AcDbLine
 10
-247.172494
 20
147.39096
 30
0.0
 11
-241.422494
 21
147.39096
 31
0.0
  0
LINE
  5
39D
100
AcDbEntity
  8
2
100
AcDbLine
 10
-241.422494
 20
147.39096
 30
0.0
 11
-241.422494
 21
142.881708
 31
0.0
  0
LINE
  5
39E
100
AcDbEntity
  8
2
100
AcDbLine
 10
-241.422494
 20
142.881708
 30
0.0
 11
-242.272494
 21
142.39096
 31
0.0
  0
LINE
  5
39F
100
AcDbEntity
  8
2
100
AcDbLine
 10
-242.272494
 20
142.39096
 30
0.0
 11
-247.172494
 21
142.39096
 31
0.0
  0
LINE
  5
3A0
100
AcDbEntity
  8
2
100
AcDbLine
 10
-244.297494
 20
147.39096
 30
0.0
 11
-244.297494
 21
142.881708
 31
0.0
  0
ARC
  5
3A1
100
AcDbEntity
  8
2
100
AcDbCircle
 10
-242.859994
 20
144.729663
 30
0.0
 40
2.341227
100
AcDbArc
 50
232.121121
 51
307.878879
  0
ARC
  5
3A2
100
AcDbEntity
  8
2
100
AcDbCircle
 10
-247.172494
 20
151.013436
 30
0.0
 40
8.625
100
AcDbArc
 50
270.0
 51
289.471221
  0
LINE
  5
3A3
100
AcDbEntity
  8
2
100
AcDbLine
 10
-247.172494
 20
147.39096
 30
0.0
 11
-252.922494
 21
147.39096
 31
0.0
  0
LINE
  5
3A4
100
AcDbEntity
  8
2
100
AcDbLine
 10
-252.922494
 20
147.39096
 30
0.0
 11
-252.922494
 21
142.881708
 31
0.0
  0
LINE
  5
3A5
100
AcDbEntity
  8
2
100
AcDbLine
 10
-252.922494
 20
142.881708
 30
0.0
 11
-252.072494
 21
142.39096
 31
0.0
  0
LINE
  5
3A6
100
AcDbEntity
  8
2
100
AcDbLine
 10
-252.072494
 20
142.39096
 30
0.0
 11
-247.172494
 21
142.39096
 31
0.0
  0
LINE
  5
3A7
100
AcDbEntity
  8
2
100
AcDbLine
 10
-250.047494
 20
147.39096
 30
0.0
 11
-250.047494
 21
142.881708
 31
0.0
  0
ARC
  5
3A8
100
AcDbEntity
  8
2
100
AcDbCircle
 10
-251.484994
 20
144.729663
 30
0.0
 40
2.341227
100
AcDbArc
 50
232.121121
 51
307.878879
  0
ARC
  5
3A9
100
AcDbEntity
  8
2
100
AcDbCircle
 10
-247.172494
 20
151.013436
 30
0.0
 40
8.625
100
AcDbArc
 50
250.528779
 51
270.0
  0
LINE
  5
3AA
100
AcDbEntity
  8
2
 62
     2
100
AcDbLine
 10
-249.631494
 20
138.39096
 30
0.0
 11
-249.631494
 21
142.39096
 31
0.0
  0
LINE
  5
3AB
100
AcDbEntity
  8
2
 62
     2
100
AcDbLine
 10
-244.713494
 20
138.39096
 30
0.0
 11
-244.713494
 21
142.39096
 31
0.0
  0
CIRCLE
  5
3AC
100
AcDbEntity
  8
2
100
AcDbCircle
 10
-222.423756
 20
139.642223
 30
0.0
 40
6.5
  0
LINE
  5
3AD
100
AcDbEntity
  8
2
100
AcDbLine
 10
-218.67098
 20
146.142223
 30
0.0
 11
-226.176533
 21
146.142223
 31
0.0
  0
LINE
  5
3AE
100
AcDbEntity
  8
2
100
AcDbLine
 10
-226.176533
 20
146.142223
 30
0.0
 11
-229.92931
 21
139.642223
 31
0.0
  0
LINE
  5
3AF
100
AcDbEntity
  8
2
100
AcDbLine
 10
-229.92931
 20
139.642223
 30
0.0
 11
-226.176533
 21
133.142223
 31
0.0
  0
LINE
  5
3B0
100
AcDbEntity
  8
2
100
AcDbLine
 10
-226.176533
 20
133.142223
 30
0.0
 11
-218.67098
 21
133.142223
 31
0.0
  0
LINE
  5
3B1
100
AcDbEntity
  8
2
100
AcDbLine
 10
-218.67098
 20
133.142223
 30
0.0
 11
-214.918203
 21
139.642223
 31
0.0
  0
LINE
  5
3B2
100
AcDbEntity
  8
2
100
AcDbLine
 10
-214.918203
 20
139.642223
 30
0.0
 11
-218.67098
 21
146.142223
 31
0.0
  0
LINE
  5
3B3
100
AcDbEntity
  8
2
100
AcDbLine
 10
-279.426785
 20
189.139697
 30
0.0
 11
-275.674008
 21
182.639697
 31
0.0
  0
LINE
  5
3B4
100
AcDbEntity
  8
2
100
AcDbLine
 10
-275.674008
 20
195.639697
 30
0.0
 11
-279.426785
 21
189.139697
 31
0.0
  0
LINE
  5
3B5
100
AcDbEntity
  8
2
100
AcDbLine
 10
-268.168454
 20
195.639697
 30
0.0
 11
-275.674008
 21
195.639697
 31
0.0
  0
LINE
  5
3B6
100
AcDbEntity
  8
2
100
AcDbLine
 10
-264.415678
 20
189.139697
 30
0.0
 11
-268.168454
 21
195.639697
 31
0.0
  0
LINE
  5
3B7
100
AcDbEntity
  8
2
100
AcDbLine
 10
-268.168454
 20
182.639697
 30
0.0
 11
-264.415678
 21
189.139697
 31
0.0
  0
LINE
  5
3B8
100
AcDbEntity
  8
2
100
AcDbLine
 10
-275.674008
 20
182.639697
 30
0.0
 11
-268.168454
 21
182.639697
 31
0.0
  0
CIRCLE
  5
3B9
100
AcDbEntity
  8
2
100
AcDbCircle
 10
-271.921231
 20
189.139697
 30
0.0
 40
6.5
  0
ARC
  5
3BA
100
AcDbEntity
  8
2
100
AcDbCircle
 10
-57.172494
 20
164.39096
 30
0.0
 40
10.0
100
AcDbArc
 50
271.507958
 51
88.492042
  0
LINE
  5
3BB
100
AcDbEntity
  8
2
100
AcDbLine
 10
-146.2438
 20
29.777596
 30
0.0
 11
-143.55664
 21
32.464756
 31
0.0
  0
LINE
  5
3BC
100
AcDbEntity
  8
2
  6
CENTER
 62
     2
100
AcDbLine
 10
-222.423756
 20
14.659023
 30
0.0
 11
-222.423756
 21
-48.766736
 31
0.0
  0
LINE
  5
3BD
100
AcDbEntity
  8
2
  6
CENTER
 62
     2
100
AcDbLine
 10
-271.92123
 20
14.98416
 30
0.0
 11
-271.92123
 21
-48.766736
 31
0.0
  0
LINE
  5
3BE
100
AcDbEntity
  8
2
100
AcDbLine
 10
-229.923756
 20
7.848664
 30
0.0
 11
-229.923756
 21
12.626976
 31
0.0
  0
LINE
  5
3BF
100
AcDbEntity
  8
2
100
AcDbLine
 10
-229.923756
 20
12.626976
 30
0.0
 11
-228.673756
 21
13.348664
 31
0.0
  0
LINE
  5
3C0
100
AcDbEntity
  8
2
100
AcDbLine
 10
-226.173756
 20
7.848664
 30
0.0
 11
-226.173756
 21
12.626976
 31
0.0
  0
ARC
  5
3C1
100
AcDbEntity
  8
2
100
AcDbCircle
 10
-228.048756
 20
10.2166
 30
0.0
 40
3.053774
100
AcDbArc
 50
52.121121
 51
127.878879
  0
ARC
  5
3C2
100
AcDbEntity
  8
2
100
AcDbCircle
 10
-222.423756
 20
2.020374
 30
0.0
 40
11.25
100
AcDbArc
 50
70.528781
 51
109.471223
  0
LINE
  5
3C3
100
AcDbEntity
  8
2
100
AcDbLine
 10
-214.923756
 20
7.848664
 30
0.0
 11
-214.923756
 21
12.626976
 31
0.0
  0
LINE
  5
3C4
100
AcDbEntity
  8
2
100
AcDbLine
 10
-214.923756
 20
12.626976
 30
0.0
 11
-216.173756
 21
13.348664
 31
0.0
  0
LINE
  5
3C5
100
AcDbEntity
  8
2
100
AcDbLine
 10
-216.173756
 20
13.348664
 30
0.0
 11
-228.673756
 21
13.348664
 31
0.0
  0
LINE
  5
3C6
100
AcDbEntity
  8
2
100
AcDbLine
 10
-218.673756
 20
7.848664
 30
0.0
 11
-218.673756
 21
12.626976
 31
0.0
  0
ARC
  5
3C7
100
AcDbEntity
  8
2
100
AcDbCircle
 10
-216.798756
 20
10.2166
 30
0.0
 40
3.053774
100
AcDbArc
 50
52.121121
 51
127.878879
  0
LINE
  5
3C8
100
AcDbEntity
  8
2
100
AcDbLine
 10
-264.42123
 20
7.848664
 30
0.0
 11
-264.42123
 21
12.626976
 31
0.0
  0
LINE
  5
3C9
100
AcDbEntity
  8
2
100
AcDbLine
 10
-264.42123
 20
12.626976
 30
0.0
 11
-265.67123
 21
13.348664
 31
0.0
  0
LINE
  5
3CA
100
AcDbEntity
  8
2
100
AcDbLine
 10
-268.17123
 20
7.848664
 30
0.0
 11
-268.17123
 21
12.626976
 31
0.0
  0
ARC
  5
3CB
100
AcDbEntity
  8
2
100
AcDbCircle
 10
-266.29623
 20
10.2166
 30
0.0
 40
3.053774
100
AcDbArc
 50
52.121121
 51
127.878879
  0
ARC
  5
3CC
100
AcDbEntity
  8
2
100
AcDbCircle
 10
-271.92123
 20
2.020374
 30
0.0
 40
11.25
100
AcDbArc
 50
70.528777
 51
109.471219
  0
LINE
  5
3CD
100
AcDbEntity
  8
2
100
AcDbLine
 10
-279.42123
 20
7.848664
 30
0.0
 11
-279.42123
 21
12.626976
 31
0.0
  0
LINE
  5
3CE
100
AcDbEntity
  8
2
100
AcDbLine
 10
-279.42123
 20
12.626976
 30
0.0
 11
-278.17123
 21
13.348664
 31
0.0
  0
LINE
  5
3CF
100
AcDbEntity
  8
2
100
AcDbLine
 10
-278.17123
 20
13.348664
 30
0.0
 11
-265.67123
 21
13.348664
 31
0.0
  0
LINE
  5
3D0
100
AcDbEntity
  8
2
100
AcDbLine
 10
-275.67123
 20
7.848664
 30
0.0
 11
-275.67123
 21
12.626976
 31
0.0
  0
ARC
  5
3D1
100
AcDbEntity
  8
2
100
AcDbCircle
 10
-277.54623
 20
10.2166
 30
0.0
 40
3.053774
100
AcDbArc
 50
52.121121
 51
127.878879
  0
LINE
  5
3D2
100
AcDbEntity
  8
2
100
AcDbLine
 10
-136.163311
 20
38.221269
 30
0.0
 11
-114.302047
 21
34.366539
 31
0.0
  0
ARC
  5
3D3
100
AcDbEntity
  8
2
100
AcDbCircle
 10
-267.172732
 20
33.357047
 30
0.0
 40
5.0
100
AcDbArc
 50
290.0
 51
360.0
  0
LINE
  5
3D4
100
AcDbEntity
  8
2
100
AcDbLine
 10
-282.198792
 20
22.567119
 30
0.0
 11
-265.462631
 21
28.658584
 31
0.0
  0
LINE
  5
3D5
100
AcDbEntity
  8
2
100
AcDbLine
 10
-236.172732
 20
17.848664
 30
0.0
 11
-284.172732
 21
17.848664
 31
0.0
  0
LINE
  5
3D6
100
AcDbEntity
  8
2
100
AcDbLine
 10
-258.172732
 20
16.848664
 30
0.0
 11
-258.172732
 21
17.848664
 31
0.0
  0
LINE
  5
3D7
100
AcDbEntity
  8
2
100
AcDbLine
 10
-284.172732
 20
19.748041
 30
0.0
 11
-284.172732
 21
17.848664
 31
0.0
  0
LINE
  5
3D8
100
AcDbEntity
  8
2
100
AcDbLine
 10
-232.172732
 20
37.848664
 30
0.0
 11
-233.172732
 21
38.848664
 31
0.0
  0
LINE
  5
3D9
100
AcDbEntity
  8
2
100
AcDbLine
 10
-261.172732
 20
38.848664
 30
0.0
 11
-262.172732
 21
37.848664
 31
0.0
  0
LINE
  5
3DA
100
AcDbEntity
  8
2
100
AcDbLine
 10
-262.172732
 20
33.357047
 30
0.0
 11
-262.172732
 21
37.848664
 31
0.0
  0
LINE
  5
3DB
100
AcDbEntity
  8
2
100
AcDbLine
 10
-232.172732
 20
37.741704
 30
0.0
 11
-232.172732
 21
37.848664
 31
0.0
  0
LINE
  5
3DC
100
AcDbEntity
  8
2
100
AcDbLine
 10
-236.172732
 20
16.848664
 30
0.0
 11
-258.172732
 21
16.848664
 31
0.0
  0
LINE
  5
3DD
100
AcDbEntity
  8
2
100
AcDbLine
 10
-236.172732
 20
16.848664
 30
0.0
 11
-236.172732
 21
17.848664
 31
0.0
  0
LINE
  5
3DE
100
AcDbEntity
  8
2
100
AcDbLine
 10
-253.941963
 20
37.848664
 30
0.0
 11
-253.941963
 21
17.848664
 31
0.0
  0
LINE
  5
3DF
100
AcDbEntity
  8
2
100
AcDbLine
 10
-240.403501
 20
37.848664
 30
0.0
 11
-240.403501
 21
17.848664
 31
0.0
  0
ARC
  5
3E0
100
AcDbEntity
  8
2
100
AcDbCircle
 10
-281.172732
 20
19.748041
 30
0.0
 40
3.0
100
AcDbArc
 50
110.0
 51
180.0
  0
ARC
  5
3E1
100
AcDbEntity
  8
2
100
AcDbCircle
 10
-252.941963
 20
37.848664
 30
0.0
 40
1.0
100
AcDbArc
 50
90.0
 51
180.0
  0
ARC
  5
3E2
100
AcDbEntity
  8
2
100
AcDbCircle
 10
-241.403501
 20
37.848664
 30
0.0
 40
1.0
100
AcDbArc
 50
0.0
 51
90.0
  0
LINE
  5
3E3
100
AcDbEntity
  8
2
100
AcDbLine
 10
-233.172732
 20
38.848664
 30
0.0
 11
-261.172732
 21
38.848664
 31
0.0
  0
ARC
  5
3E4
100
AcDbEntity
  8
2
100
AcDbCircle
 10
-270.511095
 20
48.530866
 30
0.0
 40
22.811628
100
AcDbArc
 50
283.335578
 51
313.128065
  0
LINE
  5
3E5
100
AcDbEntity
  8
2
100
AcDbLine
 10
-231.57597
 20
34.163858
 30
0.0
 11
-53.962457
 21
71.916776
 31
0.0
  0
CIRCLE
  5
3E6
100
AcDbEntity
  8
2
100
AcDbCircle
 10
-157.172732
 20
36.848664
 30
0.0
 40
2.0
  0
ARC
  5
3E7
100
AcDbEntity
  8
2
100
AcDbCircle
 10
-157.172732
 20
36.848664
 30
0.0
 40
5.0
100
AcDbArc
 50
0.0
 51
180.0
  0
LINE
  5
3E8
100
AcDbEntity
  8
2
100
AcDbLine
 10
-152.172732
 20
36.848664
 30
0.0
 11
-152.172732
 21
27.848664
 31
0.0
  0
LINE
  5
3E9
100
AcDbEntity
  8
2
100
AcDbLine
 10
-162.172732
 20
36.848664
 30
0.0
 11
-162.172732
 21
27.848664
 31
0.0
  0
ARC
  5
3EA
100
AcDbEntity
  8
2
100
AcDbCircle
 10
-52.922898
 20
67.026038
 30
0.0
 40
5.0
100
AcDbArc
 50
12.0
 51
102.0
  0
LINE
  5
3EB
100
AcDbEntity
  8
2
100
AcDbLine
 10
-47.333125
 20
64.776891
 30
0.0
 11
-48.03216
 21
68.065596
 31
0.0
  0
ARC
  5
3EC
100
AcDbEntity
  8
2
100
AcDbCircle
 10
-48.311272
 20
64.56898
 30
0.0
 40
1.0
100
AcDbArc
 50
285.0
 51
12.0
  0
LINE
  5
3ED
100
AcDbEntity
  8
2
100
AcDbLine
 10
-48.052453
 20
63.603054
 30
0.0
 11
-125.62513
 21
42.817518
 31
0.0
  0
LINE
  5
3EE
100
AcDbEntity
  8
2
100
AcDbLine
 10
-236.172732
 20
17.848664
 30
0.0
 11
-194.859135
 21
26.63014
 31
0.0
  0
ARC
  5
3EF
100
AcDbEntity
  8
2
100
AcDbCircle
 10
-229.172732
 20
37.741704
 30
0.0
 40
3.0
100
AcDbArc
 50
180.0
 51
282.0
  0
ARC
  5
3F0
100
AcDbEntity
  8
2
100
AcDbCircle
 10
-115.272369
 20
4.180485
 30
0.0
 40
40.0
100
AcDbArc
 50
105.0
 51
135.0
  0
ARC
  5
3F1
100
AcDbEntity
  8
2
100
AcDbCircle
 10
-161.172732
 20
27.848664
 30
0.0
 40
1.0
100
AcDbArc
 50
180.0
 51
270.0
  0
ARC
  5
3F2
100
AcDbEntity
  8
2
100
AcDbCircle
 10
-153.172732
 20
27.848664
 30
0.0
 40
1.0
100
AcDbArc
 50
270.0
 51
360.0
  0
LINE
  5
3F3
100
AcDbEntity
  8
2
100
AcDbLine
 10
-192.780018
 20
26.848664
 30
0.0
 11
-153.314867
 21
26.848664
 31
0.0
  0
ARC
  5
3F4
100
AcDbEntity
  8
2
100
AcDbCircle
 10
-153.314867
 20
36.848664
 30
0.0
 40
10.0
100
AcDbArc
 50
270.0
 51
315.0
  0
ARC
  5
3F5
100
AcDbEntity
  8
2
100
AcDbCircle
 10
-192.780018
 20
16.848664
 30
0.0
 40
10.0
100
AcDbArc
 50
90.0
 51
102.0
  0
LINE
  5
3F6
100
AcDbEntity
  8
2
100
AcDbLine
 10
-110.615104
 20
42.155818
 30
0.0
 11
-104.779849
 21
41.383999
 31
0.0
  0
LINE
  5
3F7
100
AcDbEntity
  8
2
100
AcDbLine
 10
-110.73538
 20
46.807214
 30
0.0
 11
-105.23365
 21
46.356298
 31
0.0
  0
LINE
  5
3F8
100
AcDbEntity
  8
2
100
AcDbLine
 10
-101.338988
 20
47.936288
 30
0.0
 11
-110.859902
 21
44.073834
 31
0.0
  0
LINE
  5
3F9
100
AcDbEntity
  8
2
100
AcDbLine
 10
-100.587139
 20
46.082988
 30
0.0
 11
-110.108053
 21
42.220533
 31
0.0
  0
LINE
  5
3FA
100
AcDbEntity
  8
2
100
AcDbLine
 10
-100.657982
 20
42.754688
 30
0.0
 11
-110.613337
 21
39.444127
 31
0.0
  0
LINE
  5
3FB
100
AcDbEntity
  8
2
100
AcDbLine
 10
-100.026881
 20
40.856871
 30
0.0
 11
-109.982235
 21
37.54631
 31
0.0
  0
LINE
  5
3FC
100
AcDbEntity
  8
2
100
AcDbLine
 10
-100.587469
 20
37.110367
 30
0.0
 11
-110.807287
 21
33.164205
 31
0.0
  0
LINE
  5
3FD
100
AcDbEntity
  8
2
100
AcDbLine
 10
-99.867052
 20
35.244623
 30
0.0
 11
-110.294649
 21
31.218232
 31
0.0
  0
LINE
  5
3FE
100
AcDbEntity
  8
2
100
AcDbLine
 10
-110.519719
 20
37.520156
 30
0.0
 11
-108.365157
 21
37.029758
 31
0.0
  0
ARC
  5
3FF
100
AcDbEntity
  8
2
100
AcDbCircle
 10
-110.297786
 20
38.495218
 30
0.0
 40
1.0
100
AcDbArc
 50
108.394069
 51
288.394069
  0
ARC
  5
400
100
AcDbEntity
  8
2
100
AcDbCircle
 10
-110.483977
 20
43.147184
 30
0.0
 40
1.0
100
AcDbArc
 50
112.081463
 51
292.081463
  0
ARC
  5
401
100
AcDbEntity
  8
2
100
AcDbCircle
 10
-100.342431
 20
41.805779
 30
0.0
 40
1.0
100
AcDbArc
 50
288.394069
 51
108.394069
  0
CIRCLE
  5
402
100
AcDbEntity
  8
2
100
AcDbCircle
 10
-100.460215
 20
31.895706
 30
0.0
 40
1.0
  0
LINE
  5
403
100
AcDbEntity
  8
2
100
AcDbLine
 10
-101.376491
 20
32.926499
 30
0.0
 11
-100.460215
 21
32.895706
 31
0.0
  0
LINE
  5
404
100
AcDbEntity
  8
2
100
AcDbLine
 10
-106.601283
 20
38.670614
 30
0.0
 11
-100.002975
 21
37.152019
 31
0.0
  0
LINE
  5
405
100
AcDbEntity
  8
2
100
AcDbLine
 10
-103.647185
 20
35.955902
 30
0.0
 11
-103.603227
 21
35.945897
 31
0.0
  0
ARC
  5
406
100
AcDbEntity
  8
2
100
AcDbCircle
 10
-100.227261
 20
36.177495
 30
0.0
 40
1.0
100
AcDbArc
 50
291.112991
 51
111.112991
  0
LINE
  5
407
100
AcDbEntity
  8
2
100
AcDbLine
 10
-105.00043
 20
48.34389
 30
0.0
 11
-100.881379
 21
48.006296
 31
0.0
  0
LINE
  5
408
100
AcDbEntity
  8
2
100
AcDbLine
 10
-106.602821
 20
43.64254
 30
0.0
 11
-100.211305
 21
42.797145
 31
0.0
  0
ARC
  5
409
100
AcDbEntity
  8
2
100
AcDbCircle
 10
-100.963064
 20
47.009638
 30
0.0
 40
1.0
100
AcDbArc
 50
292.081463
 51
112.081463
  0
ARC
  5
40A
100
AcDbEntity
  8
2
100
AcDbCircle
 10
-110.447079
 20
32.231333
 30
0.0
 40
1.0
100
AcDbArc
 50
111.105845
 51
266.001991
  0
LINE
  5
40B
100
AcDbEntity
  8
2
100
AcDbLine
 10
-101.263264
 20
30.92302
 30
0.0
 11
-100.460215
 21
30.895706
 31
0.0
  0
CIRCLE
  5
40C
100
AcDbEntity
  8
2
100
AcDbCircle
 10
-247.172732
 20
23.348664
 30
0.0
 40
5.0
  0
CIRCLE
  5
40D
100
AcDbEntity
  8
2
100
AcDbCircle
 10
-247.172732
 20
23.348664
 30
0.0
 40
3.0
  0
CIRCLE
  5
40E
100
AcDbEntity
  8
2
100
AcDbCircle
 10
-247.172732
 20
23.348664
 30
0.0
 40
2.5
  0
LINE
  5
40F
100
AcDbEntity
  8
2
100
AcDbLine
 10
-252.946234
 20
23.348664
 30
0.0
 11
-250.059483
 21
18.348664
 31
0.0
  0
LINE
  5
410
100
AcDbEntity
  8
2
100
AcDbLine
 10
-250.059483
 20
18.348664
 30
0.0
 11
-244.28598
 21
18.348664
 31
0.0
  0
LINE
  5
411
100
AcDbEntity
  8
2
100
AcDbLine
 10
-244.28598
 20
18.348664
 30
0.0
 11
-241.399229
 21
23.348664
 31
0.0
  0
LINE
  5
412
100
AcDbEntity
  8
2
100
AcDbLine
 10
-241.399229
 20
23.348664
 30
0.0
 11
-244.28598
 21
28.348664
 31
0.0
  0
LINE
  5
413
100
AcDbEntity
  8
2
100
AcDbLine
 10
-244.28598
 20
28.348664
 30
0.0
 11
-250.059483
 21
28.348664
 31
0.0
  0
LINE
  5
414
100
AcDbEntity
  8
2
100
AcDbLine
 10
-250.059483
 20
28.348664
 30
0.0
 11
-252.946234
 21
23.348664
 31
0.0
  0
ARC
  5
415
100
AcDbEntity
  8
2
  6
CENTER
 62
     2
100
AcDbCircle
 10
-157.172732
 20
36.848664
 30
0.0
 40
52.075925
100
AcDbArc
 50
348.756732
 51
23.167626
  0
LINE
  5
416
100
AcDbEntity
  8
2
  6
CENTER
 62
     2
100
AcDbLine
 10
-147.250111
 20
36.848664
 30
0.0
 11
-167.457385
 21
36.848664
 31
0.0
  0
LINE
  5
417
100
AcDbEntity
  8
2
  6
CENTER
 62
     2
100
AcDbLine
 10
-157.172732
 20
47.240154
 30
0.0
 11
-157.172732
 21
25.856269
 31
0.0
  0
LINE
  5
418
100
AcDbEntity
  8
2
100
AcDbLine
 10
-238.403501
 20
28.041545
 30
0.0
 11
-238.403501
 21
17.848664
 31
0.0
  0
ARC
  5
419
100
AcDbEntity
  8
2
100
AcDbCircle
 10
-233.403501
 20
28.041545
 30
0.0
 40
5.0
100
AcDbArc
 50
124.714037
 51
180.0
  0
ARC
  5
41A
100
AcDbEntity
  8
2
100
AcDbCircle
 10
-228.873118
 20
21.447939
 30
0.0
 40
13.0
100
AcDbArc
 50
102.0
 51
124.492462
  0
LINE
  5
41B
100
AcDbEntity
  8
2
100
AcDbLine
 10
-265.249502
 20
26.334335
 30
0.0
 11
-281.547313
 21
22.471008
 31
0.0
  0
LINE
  5
41C
100
AcDbEntity
  8
2
  6
CENTER
 62
     2
100
AcDbLine
 10
-255.915822
 20
23.348664
 30
0.0
 11
-238.124069
 21
23.348664
 31
0.0
  0
CIRCLE
  5
41D
100
AcDbEntity
  8
2
100
AcDbCircle
 10
-157.172732
 20
36.848664
 30
0.0
 40
1.5
  0
ARC
  5
41E
100
AcDbEntity
  8
2
100
AcDbCircle
 10
-55.174737
 20
23.623224
 30
0.0
 40
8.0
100
AcDbArc
 50
359.985133
 51
88.0
  0
LINE
  5
41F
100
AcDbEntity
  8
2
100
AcDbLine
 10
-140.124155
 20
26.734554
 30
0.0
 11
-116.35551
 21
22.5435
 31
0.0
  0
LINE
  5
420
100
AcDbEntity
  8
2
100
AcDbLine
 10
-113.439771
 20
32.440602
 30
0.0
 11
-113.386996
 21
33.195326
 31
0.0
  0
LINE
  5
421
100
AcDbEntity
  8
2
100
AcDbLine
 10
-97.478746
 20
31.324499
 30
0.0
 11
-97.424274
 21
32.103487
 31
0.0
  0
LINE
  5
422
100
AcDbEntity
  8
2
100
AcDbLine
 10
-108.089927
 20
37.269011
 30
0.0
 11
-102.104542
 21
36.850472
 31
0.0
  0
LINE
  5
423
100
AcDbEntity
  8
2
100
AcDbLine
 10
-109.339781
 20
33.730851
 30
0.0
 11
-109.157247
 21
36.341204
 31
0.0
  0
LINE
  5
424
100
AcDbEntity
  8
2
100
AcDbLine
 10
-101.469003
 20
31.603525
 30
0.0
 11
-101.251781
 21
34.70994
 31
0.0
  0
LINE
  5
425
100
AcDbEntity
  8
2
100
AcDbLine
 10
-109.157247
 20
36.341204
 30
0.0
 11
-108.089927
 21
37.269011
 31
0.0
  0
LINE
  5
426
100
AcDbEntity
  8
2
100
AcDbLine
 10
-102.104542
 20
36.850472
 30
0.0
 11
-101.892443
 21
36.60648
 31
0.0
  0
LINE
  5
427
100
AcDbEntity
  8
2
100
AcDbLine
 10
-47.174737
 20
23.621148
 30
0.0
 11
-47.175308
 21
21.419187
 31
0.0
  0
LINE
  5
428
100
AcDbEntity
  8
2
100
AcDbLine
 10
-54.895541
 20
31.61835
 30
0.0
 11
-96.355127
 21
33.066151
 31
0.0
  0
ARC
  5
429
100
AcDbEntity
  8
2
100
AcDbCircle
 10
-191.94648
 20
1.848664
 30
0.0
 40
1.0
100
AcDbArc
 50
180.0
 51
270.0
  0
LINE
  5
42A
100
AcDbEntity
  8
2
100
AcDbLine
 10
-191.94648
 20
0.848664
 30
0.0
 11
-186.172732
 21
0.848664
 31
0.0
  0
LINE
  5
42B
100
AcDbEntity
  8
2
100
AcDbLine
 10
-182.637198
 20
2.31313
 30
0.0
 11
-179.101664
 21
5.848664
 31
0.0
  0
LINE
  5
42C
100
AcDbEntity
  8
2
100
AcDbLine
 10
-192.94648
 20
12.848664
 30
0.0
 11
-180.637198
 21
25.157946
 31
0.0
  0
ARC
  5
42D
100
AcDbEntity
  8
2
100
AcDbCircle
 10
-145.3336
 20
-2.809679
 30
0.0
 40
30.0
100
AcDbArc
 50
80.0
 51
135.0
  0
LINE
  5
42E
100
AcDbEntity
  8
2
100
AcDbLine
 10
-192.94648
 20
12.848664
 30
0.0
 11
-192.94648
 21
7.848664
 31
0.0
  0
ARC
  5
42F
100
AcDbEntity
  8
2
100
AcDbCircle
 10
-100.471439
 20
31.533768
 30
0.0
 40
1.0
100
AcDbArc
 50
176.0
 51
266.0
  0
LINE
  5
430
100
AcDbEntity
  8
2
100
AcDbLine
 10
-112.511964
 20
31.373282
 30
0.0
 11
-98.546067
 21
30.396691
 31
0.0
  0
LINE
  5
431
100
AcDbEntity
  8
2
100
AcDbLine
 10
-184.101664
 20
21.69348
 30
0.0
 11
-184.101664
 21
7.848664
 31
0.0
  0
LINE
  5
432
100
AcDbEntity
  8
2
100
AcDbLine
 10
-109.157247
 20
36.341204
 30
0.0
 11
-103.588028
 21
35.951766
 31
0.0
  0
ARC
  5
433
100
AcDbEntity
  8
2
100
AcDbCircle
 10
-102.463655
 20
101.32812
 30
0.0
 40
80.0
100
AcDbArc
 50
260.0
 51
269.845396
  0
ARC
  5
434
100
AcDbEntity
  8
2
100
AcDbCircle
 10
-49.175308
 20
21.419706
 30
0.0
 40
2.0
100
AcDbArc
 50
222.427004
 51
359.985133
  0
ARC
  5
435
100
AcDbEntity
  8
2
100
AcDbCircle
 10
-56.556683
 20
14.673202
 30
0.0
 40
8.0
100
AcDbArc
 50
42.427004
 51
123.659088
  0
ARC
  5
436
100
AcDbEntity
  8
2
100
AcDbCircle
 10
-65.424686
 20
27.990804
 30
0.0
 40
8.0
100
AcDbArc
 50
232.340912
 51
303.659088
  0
ARC
  5
437
100
AcDbEntity
  8
2
100
AcDbCircle
 10
-75.200077
 20
15.324244
 30
0.0
 40
8.0
100
AcDbArc
 50
52.340912
 51
123.659088
  0
ARC
  5
438
100
AcDbEntity
  8
2
100
AcDbCircle
 10
-84.068081
 20
28.641846
 30
0.0
 40
8.0
100
AcDbArc
 50
232.340912
 51
303.659088
  0
ARC
  5
439
100
AcDbEntity
  8
2
100
AcDbCircle
 10
-93.843471
 20
15.975286
 30
0.0
 40
8.0
100
AcDbArc
 50
52.340912
 51
123.42906
  0
ARC
  5
43A
100
AcDbEntity
  8
2
100
AcDbCircle
 10
-102.657937
 20
29.328383
 30
0.0
 40
8.0
100
AcDbArc
 50
269.845396
 51
303.42906
  0
ARC
  5
43B
100
AcDbEntity
  8
2
100
AcDbCircle
 10
-186.172732
 20
5.848664
 30
0.0
 40
5.0
100
AcDbArc
 50
270.0
 51
315.0
  0
LINE
  5
43C
100
AcDbEntity
  8
2
100
AcDbLine
 10
-113.386996
 20
33.195326
 30
0.0
 11
-114.302047
 21
34.366539
 31
0.0
  0
LINE
  5
43D
100
AcDbEntity
  8
2
100
AcDbLine
 10
-96.355127
 20
33.066151
 30
0.0
 11
-97.424274
 21
32.103487
 31
0.0
  0
ARC
  5
43E
100
AcDbEntity
  8
2
100
AcDbCircle
 10
-112.442207
 20
32.370846
 30
0.0
 40
1.0
100
AcDbArc
 50
176.0
 51
266.0
  0
ARC
  5
43F
100
AcDbEntity
  8
2
100
AcDbCircle
 10
-98.476311
 20
31.394255
 30
0.0
 40
1.0
100
AcDbArc
 50
266.0
 51
356.0
  0
LINE
  5
440
100
AcDbEntity
  8
2
100
AcDbLine
 10
-138.172732
 20
26.390465
 30
0.0
 11
-138.172732
 21
36.97642
 31
0.0
  0
ARC
  5
441
100
AcDbEntity
  8
2
100
AcDbCircle
 10
-135.642367
 20
41.175693
 30
0.0
 40
3.0
100
AcDbArc
 50
258.30264
 51
260.0
  0
LINE
  5
442
100
AcDbEntity
  8
2
100
AcDbLine
 10
-179.172732
 20
26.848664
 30
0.0
 11
-179.172732
 21
7.848664
 31
0.0
  0
ARC
  5
443
100
AcDbEntity
  8
2
100
AcDbCircle
 10
-184.172732
 20
28.69348
 30
0.0
 40
5.0
100
AcDbArc
 50
315.0
 51
338.348311
  0
LINE
  5
444
100
AcDbEntity
  8
2
100
AcDbLine
 10
-180.072732
 20
4.877596
 30
0.0
 11
-180.072732
 21
5.848664
 31
0.0
  0
LINE
  5
445
100
AcDbEntity
  8
2
100
AcDbLine
 10
-192.94648
 20
5.848664
 30
0.0
 11
-192.94648
 21
1.848664
 31
0.0
  0
LINE
  5
446
100
AcDbEntity
  8
2
100
AcDbLine
 10
-184.101664
 20
5.848664
 30
0.0
 11
-184.101664
 21
1.297765
 31
0.0
  0
LINE
  5
447
100
AcDbEntity
  8
2
100
AcDbLine
 10
-179.172732
 20
5.848664
 30
0.0
 11
-179.172732
 21
5.777596
 31
0.0
  0
LINE
  5
448
100
AcDbEntity
  8
2
100
AcDbLine
 10
-177.101664
 20
7.848664
 30
0.0
 11
-166.546803
 21
18.403524
 31
0.0
  0
LINE
  5
449
100
AcDbEntity
  8
2
100
AcDbLine
 10
-172.172732
 20
7.848664
 30
0.0
 11
-172.172732
 21
5.848664
 31
0.0
  0
LINE
  5
44A
100
AcDbEntity
  8
2
100
AcDbLine
 10
-172.172732
 20
7.848664
 30
0.0
 11
-297.172732
 21
7.848664
 31
0.0
  0
LINE
  5
44B
100
AcDbEntity
  8
2
100
AcDbLine
 10
-297.172732
 20
5.848664
 30
0.0
 11
-172.172732
 21
5.848664
 31
0.0
  0
LINE
  5
44C
100
AcDbEntity
  8
2
100
AcDbLine
 10
-207.761383
 20
7.848664
 30
0.0
 11
-207.761383
 21
5.848664
 31
0.0
  0
LINE
  5
44D
100
AcDbEntity
  8
2
100
AcDbLine
 10
-297.172732
 20
7.848664
 30
0.0
 11
-297.172732
 21
5.848664
 31
0.0
  0
LINE
  5
44E
100
AcDbEntity
  8
2
  6
CENTER
 62
     2
100
AcDbLine
 10
113.013334
 20
16.256348
 30
0.0
 11
113.013334
 21
-48.766736
 31
0.0
  0
LINE
  5
44F
100
AcDbEntity
  8
2
  6
CENTER
 62
     2
100
AcDbLine
 10
63.51586
 20
16.453302
 30
0.0
 11
63.51586
 21
-48.766736
 31
0.0
  0
LINE
  5
450
100
AcDbEntity
  8
2
100
AcDbLine
 10
94.894089
 20
61.318965
 30
0.0
 11
97.043
 21
41.049964
 31
0.0
  0
LINE
  5
451
100
AcDbEntity
  8
2
100
AcDbLine
 10
81.264598
 20
7.848664
 30
0.0
 11
81.264598
 21
16.848664
 31
0.0
  0
LINE
  5
452
100
AcDbEntity
  8
2
100
AcDbLine
 10
95.264598
 20
16.848664
 30
0.0
 11
95.264598
 21
7.848664
 31
0.0
  0
LINE
  5
453
100
AcDbEntity
  8
2
100
AcDbLine
 10
75.264598
 20
26.848664
 30
0.0
 11
81.264598
 21
26.848664
 31
0.0
  0
ARC
  5
454
100
AcDbEntity
  8
2
100
AcDbCircle
 10
76.764598
 20
27.848664
 30
0.0
 40
1.0
100
AcDbArc
 50
180.0
 51
270.0
  0
LINE
  5
455
100
AcDbEntity
  8
2
100
AcDbLine
 10
101.264598
 20
26.848664
 30
0.0
 11
95.264598
 21
26.848664
 31
0.0
  0
ARC
  5
456
100
AcDbEntity
  8
2
100
AcDbCircle
 10
99.764598
 20
27.848664
 30
0.0
 40
1.0
100
AcDbArc
 50
270.0
 51
360.0
  0
LINE
  5
457
100
AcDbEntity
  8
2
100
AcDbLine
 10
102.264598
 20
38.848664
 30
0.0
 11
103.264598
 21
37.848664
 31
0.0
  0
LINE
  5
458
100
AcDbEntity
  8
2
100
AcDbLine
 10
103.264598
 20
17.848664
 30
0.0
 11
103.264598
 21
37.848664
 31
0.0
  0
LINE
  5
459
100
AcDbEntity
  8
2
100
AcDbLine
 10
94.264598
 20
27.848664
 30
0.0
 11
94.264598
 21
38.593033
 31
0.0
  0
LINE
  5
45A
100
AcDbEntity
  8
2
100
AcDbLine
 10
102.264598
 20
27.848664
 30
0.0
 11
102.264598
 21
41.348664
 31
0.0
  0
ARC
  5
45B
100
AcDbEntity
  8
2
100
AcDbCircle
 10
101.764598
 20
41.348664
 30
0.0
 40
0.5
100
AcDbArc
 50
0.0
 51
90.0
  0
ARC
  5
45C
100
AcDbEntity
  8
2
100
AcDbCircle
 10
101.264598
 20
42.348664
 30
0.0
 40
0.5
100
AcDbArc
 50
180.0
 51
270.0
  0
LINE
  5
45D
100
AcDbEntity
  8
2
100
AcDbLine
 10
101.764598
 20
41.848664
 30
0.0
 11
101.264598
 21
41.848664
 31
0.0
  0
LINE
  5
45E
100
AcDbEntity
  8
2
100
AcDbLine
 10
100.764598
 20
27.848664
 30
0.0
 11
100.764598
 21
42.348664
 31
0.0
  0
LINE
  5
45F
100
AcDbEntity
  8
2
100
AcDbLine
 10
96.353798
 20
39.992255
 30
0.0
 11
94.959373
 21
39.545313
 31
0.0
  0
ARC
  5
460
100
AcDbEntity
  8
2
100
AcDbCircle
 10
95.264598
 20
38.593033
 30
0.0
 40
1.0
100
AcDbArc
 50
107.771715
 51
180.0
  0
LINE
  5
461
100
AcDbEntity
  8
2
100
AcDbLine
 10
94.264598
 20
45.094935
 30
0.0
 11
94.264598
 21
38.593033
 31
0.0
  0
LINE
  5
462
100
AcDbEntity
  8
2
100
AcDbLine
 10
102.264598
 20
34.321676
 30
0.0
 11
103.064598
 21
26.7759
 31
0.0
  0
ARC
  5
463
100
AcDbEntity
  8
2
100
AcDbCircle
 10
101.264598
 20
27.848664
 30
0.0
 40
1.0
100
AcDbArc
 50
270.0
 51
360.0
  0
ARC
  5
464
100
AcDbEntity
  8
2
100
AcDbCircle
 10
95.264598
 20
27.848664
 30
0.0
 40
1.0
100
AcDbArc
 50
180.0
 51
270.0
  0
ARC
  5
465
100
AcDbEntity
  8
2
100
AcDbCircle
 10
96.048573
 20
40.944536
 30
0.0
 40
1.0
100
AcDbArc
 50
287.771715
 51
6.051867
  0
ARC
  5
466
100
AcDbEntity
  8
2
100
AcDbCircle
 10
80.480623
 20
40.944536
 30
0.0
 40
1.0
100
AcDbArc
 50
173.948133
 51
252.228285
  0
ARC
  5
467
100
AcDbEntity
  8
2
100
AcDbCircle
 10
81.264598
 20
27.848664
 30
0.0
 40
1.0
100
AcDbArc
 50
270.0
 51
360.0
  0
ARC
  5
468
100
AcDbEntity
  8
2
100
AcDbCircle
 10
75.264598
 20
27.848664
 30
0.0
 40
1.0
100
AcDbArc
 50
180.0
 51
270.0
  0
ARC
  5
469
100
AcDbEntity
  8
2
100
AcDbCircle
 10
98.095185
 20
21.640447
 30
0.0
 40
1.0
100
AcDbArc
 50
279.951879
 51
6.051867
  0
ARC
  5
46A
100
AcDbEntity
  8
2
100
AcDbCircle
 10
78.434011
 20
21.640447
 30
0.0
 40
1.0
100
AcDbArc
 50
173.948133
 51
260.048121
  0
ARC
  5
46B
100
AcDbEntity
  8
2
100
AcDbCircle
 10
88.264598
 20
77.667595
 30
0.0
 40
57.883053
100
AcDbArc
 50
260.048121
 51
264.1497
  0
LINE
  5
46C
100
AcDbEntity
  8
2
100
AcDbLine
 10
73.464598
 20
17.848664
 30
0.0
 11
73.464598
 21
26.7759
 31
0.0
  0
LINE
  5
46D
100
AcDbEntity
  8
2
100
AcDbLine
 10
74.264598
 20
34.321676
 30
0.0
 11
73.464598
 21
26.7759
 31
0.0
  0
LINE
  5
46E
100
AcDbEntity
  8
2
100
AcDbLine
 10
77.98058
 20
26.848664
 30
0.0
 11
77.439585
 21
21.745875
 31
0.0
  0
LINE
  5
46F
100
AcDbEntity
  8
2
100
AcDbLine
 10
99.264598
 20
17.848664
 30
0.0
 11
99.264598
 21
16.848664
 31
0.0
  0
ARC
  5
470
100
AcDbEntity
  8
2
100
AcDbCircle
 10
93.764598
 20
55.954549
 30
0.0
 40
1.5
100
AcDbArc
 50
69.332801
 51
94.270956
  0
LINE
  5
471
100
AcDbEntity
  8
2
100
AcDbLine
 10
102.264598
 20
34.321676
 30
0.0
 11
103.264598
 21
24.889455
 31
0.0
  0
ARC
  5
472
100
AcDbEntity
  8
2
100
AcDbCircle
 10
93.839734
 20
66.431863
 30
0.0
 40
5.0
100
AcDbArc
 50
9.174666
 51
77.83324
  0
LINE
  5
473
100
AcDbEntity
  8
2
100
AcDbLine
 10
98.775768
 20
67.229087
 30
0.0
 11
98.775768
 21
62.646441
 31
0.0
  0
LINE
  5
474
100
AcDbEntity
  8
2
100
AcDbLine
 10
92.264598
 20
55.618659
 30
0.0
 11
92.264598
 21
52.933045
 31
0.0
  0
ARC
  5
475
100
AcDbEntity
  8
2
100
AcDbCircle
 10
97.775768
 20
62.646441
 30
0.0
 40
1.0
100
AcDbArc
 50
259.300245
 51
360.0
  0
LINE
  5
476
100
AcDbEntity
  8
2
100
AcDbLine
 10
98.775768
 20
67.229087
 30
0.0
 11
101.46659
 21
41.848664
 31
0.0
  0
ARC
  5
477
100
AcDbEntity
  8
2
100
AcDbCircle
 10
93.899662
 20
61.213537
 30
0.0
 40
1.0
100
AcDbArc
 50
6.051867
 51
83.42706
  0
LINE
  5
478
100
AcDbEntity
  8
2
100
AcDbLine
 10
98.548616
 20
26.848664
 30
0.0
 11
99.089611
 21
21.745875
 31
0.0
  0
ARC
  5
479
100
AcDbEntity
  8
2
100
AcDbCircle
 10
91.264598
 20
45.094935
 30
0.0
 40
3.0
100
AcDbArc
 50
0.0
 51
28.460849
  0
LINE
  5
47A
100
AcDbEntity
  8
2
100
AcDbLine
 10
94.264598
 20
45.094935
 30
0.0
 11
94.264598
 21
39.932664
 31
0.0
  0
LINE
  5
47B
100
AcDbEntity
  8
2
100
AcDbLine
 10
82.264598
 20
45.094935
 30
0.0
 11
82.264598
 21
38.593033
 31
0.0
  0
ARC
  5
47C
100
AcDbEntity
  8
2
100
AcDbCircle
 10
81.264598
 20
38.593033
 30
0.0
 40
1.0
100
AcDbArc
 50
0.0
 51
72.228285
  0
LINE
  5
47D
100
AcDbEntity
  8
2
100
AcDbLine
 10
81.635107
 20
61.318965
 30
0.0
 11
79.486196
 21
41.049964
 31
0.0
  0
ARC
  5
47E
100
AcDbEntity
  8
2
100
AcDbCircle
 10
85.264598
 20
45.094935
 30
0.0
 40
3.0
100
AcDbArc
 50
113.205282
 51
180.0
  0
LINE
  5
47F
100
AcDbEntity
  8
2
100
AcDbLine
 10
80.175397
 20
39.992255
 30
0.0
 11
81.569823
 21
39.545313
 31
0.0
  0
LINE
  5
480
100
AcDbEntity
  8
2
100
AcDbLine
 10
77.264598
 20
17.848664
 30
0.0
 11
77.264598
 21
16.848664
 31
0.0
  0
ARC
  5
481
100
AcDbEntity
  8
2
100
AcDbCircle
 10
82.629534
 20
61.213537
 30
0.0
 40
1.0
100
AcDbArc
 50
96.57294
 51
173.948133
  0
LINE
  5
482
100
AcDbEntity
  8
2
100
AcDbLine
 10
103.264598
 20
17.848664
 30
0.0
 11
94.164598
 21
17.848664
 31
0.0
  0
LINE
  5
483
100
AcDbEntity
  8
2
100
AcDbLine
 10
77.264598
 20
16.848664
 30
0.0
 11
82.364598
 21
16.848664
 31
0.0
  0
LINE
  5
484
100
AcDbEntity
  8
2
100
AcDbLine
 10
75.764598
 20
27.848664
 30
0.0
 11
75.764598
 21
42.348664
 31
0.0
  0
LINE
  5
485
100
AcDbEntity
  8
2
100
AcDbLine
 10
77.753428
 20
67.229087
 30
0.0
 11
75.062606
 21
41.848664
 31
0.0
  0
LINE
  5
486
100
AcDbEntity
  8
2
100
AcDbLine
 10
74.764598
 20
41.848664
 30
0.0
 11
75.264598
 21
41.848664
 31
0.0
  0
ARC
  5
487
100
AcDbEntity
  8
2
100
AcDbCircle
 10
75.264598
 20
42.348664
 30
0.0
 40
0.5
100
AcDbArc
 50
270.0
 51
360.0
  0
ARC
  5
488
100
AcDbEntity
  8
2
100
AcDbCircle
 10
74.764598
 20
41.348664
 30
0.0
 40
0.5
100
AcDbArc
 50
90.0
 51
180.0
  0
LINE
  5
489
100
AcDbEntity
  8
2
100
AcDbLine
 10
74.264598
 20
27.848664
 30
0.0
 11
74.264598
 21
41.348664
 31
0.0
  0
ARC
  5
48A
100
AcDbEntity
  8
2
100
AcDbCircle
 10
88.264598
 20
12.308813
 30
0.0
 40
50.228304
100
AcDbArc
 50
79.300245
 51
100.699755
  0
ARC
  5
48B
100
AcDbEntity
  8
2
100
AcDbCircle
 10
78.753428
 20
62.646441
 30
0.0
 40
1.0
100
AcDbArc
 50
180.0
 51
280.699755
  0
ARC
  5
48C
100
AcDbEntity
  8
2
100
AcDbCircle
 10
88.264598
 20
47.75999
 30
0.0
 40
11.334722
100
AcDbArc
 50
68.408724
 51
114.66929
  0
LINE
  5
48D
100
AcDbEntity
  8
2
100
AcDbLine
 10
84.264598
 20
51.781782
 30
0.0
 11
85.264598
 21
50.781782
 31
0.0
  0
ARC
  5
48E
100
AcDbEntity
  8
2
100
AcDbCircle
 10
88.264598
 20
42.760267
 30
0.0
 40
9.868523
100
AcDbArc
 50
76.978496
 51
113.911756
  0
ARC
  5
48F
100
AcDbEntity
  8
2
100
AcDbCircle
 10
82.764598
 20
55.954549
 30
0.0
 40
1.5
100
AcDbArc
 50
0.0
 51
110.667199
  0
LINE
  5
490
100
AcDbEntity
  8
2
100
AcDbLine
 10
84.264598
 20
55.954549
 30
0.0
 11
84.264598
 21
55.782926
 31
0.0
  0
LINE
  5
491
100
AcDbEntity
  8
2
100
AcDbLine
 10
82.264598
 20
27.848664
 30
0.0
 11
82.264598
 21
38.593033
 31
0.0
  0
LINE
  5
492
100
AcDbEntity
  8
2
100
AcDbLine
 10
77.753428
 20
67.229087
 30
0.0
 11
77.753428
 21
62.646441
 31
0.0
  0
LINE
  5
493
100
AcDbEntity
  8
2
100
AcDbLine
 10
72.264598
 20
38.848664
 30
0.0
 11
74.264598
 21
38.848664
 31
0.0
  0
LINE
  5
494
100
AcDbEntity
  8
2
100
AcDbLine
 10
71.264598
 20
37.848664
 30
0.0
 11
71.264598
 21
17.848664
 31
0.0
  0
ARC
  5
495
100
AcDbEntity
  8
2
100
AcDbCircle
 10
72.264598
 20
37.848664
 30
0.0
 40
1.0
100
AcDbArc
 50
90.0
 51
180.0
  0
ARC
  5
496
100
AcDbEntity
  8
2
100
AcDbCircle
 10
82.689462
 20
66.431863
 30
0.0
 40
5.0
100
AcDbArc
 50
102.16676
 51
170.825334
  0
ARC
  5
497
100
AcDbEntity
  8
2
100
AcDbCircle
 10
88.264598
 20
40.573216
 30
0.0
 40
31.452822
100
AcDbArc
 50
77.83324
 51
102.16676
  0
LINE
  5
498
100
AcDbEntity
  8
2
100
AcDbLine
 10
94.164598
 20
16.848664
 30
0.0
 11
99.264598
 21
16.848664
 31
0.0
  0
LINE
  5
499
100
AcDbEntity
  8
2
100
AcDbLine
 10
82.364598
 20
17.848664
 30
0.0
 11
71.264598
 21
17.848664
 31
0.0
  0
ARC
  5
49A
100
AcDbEntity
  8
2
100
AcDbCircle
 10
88.264598
 20
77.667595
 30
0.0
 40
57.883053
100
AcDbArc
 50
275.8503
 51
279.951879
  0
LINE
  5
49B
100
AcDbEntity
  8
2
100
AcDbLine
 10
84.264598
 20
53.795611
 30
0.0
 11
84.264598
 21
51.781782
 31
0.0
  0
ARC
  5
49C
100
AcDbEntity
  8
2
100
AcDbCircle
 10
91.264598
 20
45.094935
 30
0.0
 40
3.0
100
AcDbArc
 50
55.144622
 51
90.0
  0
LINE
  5
49D
100
AcDbEntity
  8
2
100
AcDbLine
 10
92.602959
 20
47.513695
 30
0.0
 11
83.041775
 21
44.510342
 31
0.0
  0
LINE
  5
49E
100
AcDbEntity
  8
2
100
AcDbLine
 10
93.202323
 20
45.605617
 30
0.0
 11
83.641139
 21
42.602263
 31
0.0
  0
LINE
  5
49F
100
AcDbEntity
  8
2
100
AcDbLine
 10
83.086379
 20
42.589382
 30
0.0
 11
89.299422
 21
40.950353
 31
0.0
  0
LINE
  5
4A0
100
AcDbEntity
  8
2
100
AcDbLine
 10
92.602959
 20
41.988058
 30
0.0
 11
83.041775
 21
38.984705
 31
0.0
  0
LINE
  5
4A1
100
AcDbEntity
  8
2
100
AcDbLine
 10
93.202323
 20
40.07998
 30
0.0
 11
83.641139
 21
37.076627
 31
0.0
  0
LINE
  5
4A2
100
AcDbEntity
  8
2
100
AcDbLine
 10
93.202323
 20
34.554344
 30
0.0
 11
83.641139
 21
31.55099
 31
0.0
  0
LINE
  5
4A3
100
AcDbEntity
  8
2
100
AcDbLine
 10
92.602959
 20
36.462422
 30
0.0
 11
83.041775
 21
33.459069
 31
0.0
  0
LINE
  5
4A4
100
AcDbEntity
  8
2
100
AcDbLine
 10
83.086379
 20
37.063745
 30
0.0
 11
84.978675
 21
36.564549
 31
0.0
  0
ARC
  5
4A5
100
AcDbEntity
  8
2
100
AcDbCircle
 10
83.341457
 20
32.50503
 30
0.0
 40
1.0
100
AcDbArc
 50
100.738785
 51
286.620601
  0
ARC
  5
4A6
100
AcDbEntity
  8
2
100
AcDbCircle
 10
83.341457
 20
38.030666
 30
0.0
 40
1.0
100
AcDbArc
 50
107.438515
 51
286.620601
  0
ARC
  5
4A7
100
AcDbEntity
  8
2
100
AcDbCircle
 10
83.341457
 20
43.556302
 30
0.0
 40
1.0
100
AcDbArc
 50
107.438515
 51
286.620601
  0
LINE
  5
4A8
100
AcDbEntity
  8
2
100
AcDbLine
 10
86.944676
 20
38.114332
 30
0.0
 11
93.157719
 21
36.475303
 31
0.0
  0
ARC
  5
4A9
100
AcDbEntity
  8
2
100
AcDbCircle
 10
92.902641
 20
35.508383
 30
0.0
 40
1.0
100
AcDbArc
 50
287.438515
 51
107.438515
  0
LINE
  5
4AA
100
AcDbEntity
  8
2
100
AcDbLine
 10
88.556595
 20
33.09503
 30
0.0
 11
93.157719
 21
32.717662
 31
0.0
  0
ARC
  5
4AB
100
AcDbEntity
  8
2
100
AcDbCircle
 10
93.187739
 20
31.697199
 30
0.0
 40
1.0
100
AcDbArc
 50
273.731968
 51
85.591963
  0
LINE
  5
4AC
100
AcDbEntity
  8
2
100
AcDbLine
 10
86.944676
 20
43.639968
 30
0.0
 11
93.157719
 21
42.00094
 31
0.0
  0
ARC
  5
4AD
100
AcDbEntity
  8
2
100
AcDbCircle
 10
92.902641
 20
41.034019
 30
0.0
 40
1.0
100
AcDbArc
 50
281.107766
 51
107.438515
  0
LINE
  5
4AE
100
AcDbEntity
  8
2
100
AcDbLine
 10
93.095296
 20
55.807959
 30
0.0
 11
83.641139
 21
53.653536
 31
0.0
  0
LINE
  5
4AF
100
AcDbEntity
  8
2
100
AcDbLine
 10
92.602959
 20
57.743265
 30
0.0
 11
83.041775
 21
55.561614
 31
0.0
  0
LINE
  5
4B0
100
AcDbEntity
  8
2
100
AcDbLine
 10
83.086379
 20
48.115018
 30
0.0
 11
89.299422
 21
46.47599
 31
0.0
  0
LINE
  5
4B1
100
AcDbEntity
  8
2
100
AcDbLine
 10
92.602959
 20
53.039331
 30
0.0
 11
83.041775
 21
50.035978
 31
0.0
  0
LINE
  5
4B2
100
AcDbEntity
  8
2
100
AcDbLine
 10
93.202323
 20
51.131253
 30
0.0
 11
83.641139
 21
48.1279
 31
0.0
  0
ARC
  5
4B3
100
AcDbEntity
  8
2
100
AcDbCircle
 10
83.341457
 20
54.607575
 30
0.0
 40
1.0
100
AcDbArc
 50
98.020858
 51
286.620601
  0
LINE
  5
4B4
100
AcDbEntity
  8
2
100
AcDbLine
 10
83.086379
 20
53.640655
 30
0.0
 11
84.264598
 21
53.329835
 31
0.0
  0
ARC
  5
4B5
100
AcDbEntity
  8
2
100
AcDbCircle
 10
83.341457
 20
49.081939
 30
0.0
 40
1.0
100
AcDbArc
 50
107.438515
 51
286.620601
  0
LINE
  5
4B6
100
AcDbEntity
  8
2
100
AcDbLine
 10
92.264598
 20
53.287822
 30
0.0
 11
93.157719
 21
53.052213
 31
0.0
  0
LINE
  5
4B7
100
AcDbEntity
  8
2
100
AcDbLine
 10
86.944676
 20
49.165605
 30
0.0
 11
93.157719
 21
47.526576
 31
0.0
  0
ARC
  5
4B8
100
AcDbEntity
  8
2
100
AcDbCircle
 10
92.902641
 20
52.085292
 30
0.0
 40
1.0
100
AcDbArc
 50
281.107766
 51
107.438515
  0
ARC
  5
4B9
100
AcDbEntity
  8
2
100
AcDbCircle
 10
92.902641
 20
46.559656
 30
0.0
 40
1.0
100
AcDbArc
 50
281.107766
 51
107.438515
  0
ARC
  5
4BA
100
AcDbEntity
  8
2
100
AcDbCircle
 10
92.902641
 20
56.789226
 30
0.0
 40
1.0
100
AcDbArc
 50
281.107766
 51
107.438515
  0
LINE
  5
4BB
100
AcDbEntity
  8
2
  6
CENTER
 62
     2
100
AcDbLine
 10
68.040173
 20
36.848664
 30
0.0
 11
108.363167
 21
36.848664
 31
0.0
  0
LINE
  5
4BC
100
AcDbEntity
  8
2
  6
CENTER
 62
     2
100
AcDbLine
 10
88.264598
 20
23.164009
 30
0.0
 11
58.905219
 21
23.164009
 31
0.0
  0
LINE
  5
4BD
100
AcDbEntity
  8
2
100
AcDbLine
 10
71.264598
 20
18.164009
 30
0.0
 11
71.264598
 21
28.164009
 31
0.0
  0
ARC
  5
4BE
100
AcDbEntity
  8
2
100
AcDbCircle
 10
92.264598
 20
38.564093
 30
0.0
 40
1.0
100
AcDbArc
 50
0.0
 51
90.0
  0
ARC
  5
4BF
100
AcDbEntity
  8
2
100
AcDbCircle
 10
84.264598
 20
38.564093
 30
0.0
 40
1.0
100
AcDbArc
 50
90.0
 51
147.287273
  0
LINE
  5
4C0
100
AcDbEntity
  8
2
100
AcDbLine
 10
84.264598
 20
39.564093
 30
0.0
 11
84.886259
 21
39.564093
 31
0.0
  0
LINE
  5
4C1
100
AcDbEntity
  8
2
100
AcDbLine
 10
93.264598
 20
20.455227
 30
0.0
 11
93.264598
 21
30.700157
 31
0.0
  0
LINE
  5
4C2
100
AcDbEntity
  8
2
100
AcDbLine
 10
83.264598
 20
4.877596
 30
0.0
 11
83.264598
 21
1.848664
 31
0.0
  0
ARC
  5
4C3
100
AcDbEntity
  8
2
100
AcDbCircle
 10
83.364598
 20
40.848664
 30
0.0
 40
1.0
100
AcDbArc
 50
90.0
 51
180.0
  0
ARC
  5
4C4
100
AcDbEntity
  8
2
100
AcDbCircle
 10
93.164598
 20
40.848664
 30
0.0
 40
1.0
100
AcDbArc
 50
0.0
 51
63.950626
  0
LINE
  5
4C5
100
AcDbEntity
  8
2
100
AcDbLine
 10
94.164598
 20
40.848664
 30
0.0
 11
94.164598
 21
5.777596
 31
0.0
  0
LINE
  5
4C6
100
AcDbEntity
  8
2
100
AcDbLine
 10
82.364598
 20
40.848664
 30
0.0
 11
82.364598
 21
5.777596
 31
0.0
  0
LINE
  5
4C7
100
AcDbEntity
  8
2
100
AcDbLine
 10
94.164598
 20
5.777596
 30
0.0
 11
93.264598
 21
4.877596
 31
0.0
  0
LINE
  5
4C8
100
AcDbEntity
  8
2
100
AcDbLine
 10
83.264598
 20
4.877596
 30
0.0
 11
82.364598
 21
5.777596
 31
0.0
  0
LINE
  5
4C9
100
AcDbEntity
  8
2
100
AcDbLine
 10
92.264598
 20
34.259786
 30
0.0
 11
92.264598
 21
32.790913
 31
0.0
  0
ARC
  5
4CA
100
AcDbEntity
  8
2
100
AcDbCircle
 10
88.264598
 20
49.857621
 30
0.0
 40
14.567094
100
AcDbArc
 50
254.062329
 51
272.574998
  0
ARC
  5
4CB
100
AcDbEntity
  8
2
100
AcDbCircle
 10
88.270042
 20
51.918232
 30
0.0
 40
15.364572
100
AcDbArc
 50
258.719715
 51
281.24576
  0
ARC
  5
4CC
100
AcDbEntity
  8
2
100
AcDbCircle
 10
88.264598
 20
26.308051
 30
0.0
 40
10.96096
100
AcDbArc
 50
74.115522
 51
105.884478
  0
LINE
  5
4CD
100
AcDbEntity
  8
2
100
AcDbLine
 10
91.879805
 20
36.235265
 30
0.0
 11
91.264598
 21
36.850472
 31
0.0
  0
LINE
  5
4CE
100
AcDbEntity
  8
2
100
AcDbLine
 10
85.264598
 20
36.850472
 30
0.0
 11
84.264598
 21
35.850472
 31
0.0
  0
LINE
  5
4CF
100
AcDbEntity
  8
2
100
AcDbLine
 10
84.264598
 20
35.850472
 30
0.0
 11
84.264598
 21
33.843181
 31
0.0
  0
ARC
  5
4D0
100
AcDbEntity
  8
2
100
AcDbCircle
 10
92.264598
 20
30.61835
 30
0.0
 40
1.0
100
AcDbArc
 50
0.0
 51
90.0
  0
ARC
  5
4D1
100
AcDbEntity
  8
2
100
AcDbCircle
 10
84.264598
 20
30.61835
 30
0.0
 40
1.0
100
AcDbArc
 50
90.0
 51
180.0
  0
LINE
  5
4D2
100
AcDbEntity
  8
2
100
AcDbLine
 10
84.264598
 20
31.61835
 30
0.0
 11
92.264598
 21
31.61835
 31
0.0
  0
LINE
  5
4D3
100
AcDbEntity
  8
2
100
AcDbLine
 10
92.264598
 20
31.61835
 30
0.0
 11
84.264598
 21
31.61835
 31
0.0
  0
ARC
  5
4D4
100
AcDbEntity
  8
2
100
AcDbCircle
 10
84.264598
 20
30.61835
 30
0.0
 40
1.0
100
AcDbArc
 50
90.0
 51
180.0
  0
ARC
  5
4D5
100
AcDbEntity
  8
2
100
AcDbCircle
 10
92.264598
 20
30.61835
 30
0.0
 40
1.0
100
AcDbArc
 50
0.0
 51
90.0
  0
ARC
  5
4D6
100
AcDbEntity
  8
2
100
AcDbCircle
 10
92.264598
 20
20.455227
 30
0.0
 40
1.0
100
AcDbArc
 50
270.0
 51
360.0
  0
ARC
  5
4D7
100
AcDbEntity
  8
2
100
AcDbCircle
 10
84.264598
 20
20.455227
 30
0.0
 40
1.0
100
AcDbArc
 50
180.0
 51
270.0
  0
LINE
  5
4D8
100
AcDbEntity
  8
2
100
AcDbLine
 10
92.264598
 20
19.455227
 30
0.0
 11
84.264598
 21
19.455227
 31
0.0
  0
LINE
  5
4D9
100
AcDbEntity
  8
2
100
AcDbLine
 10
84.264598
 20
19.455227
 30
0.0
 11
92.264598
 21
19.455227
 31
0.0
  0
ARC
  5
4DA
100
AcDbEntity
  8
2
100
AcDbCircle
 10
84.264598
 20
20.455227
 30
0.0
 40
1.0
100
AcDbArc
 50
180.0
 51
270.0
  0
ARC
  5
4DB
100
AcDbEntity
  8
2
100
AcDbCircle
 10
92.264598
 20
20.455227
 30
0.0
 40
1.0
100
AcDbArc
 50
270.0
 51
360.0
  0
ARC
  5
4DC
100
AcDbEntity
  8
2
100
AcDbCircle
 10
92.264598
 20
1.848664
 30
0.0
 40
1.0
100
AcDbArc
 50
270.0
 51
360.0
  0
ARC
  5
4DD
100
AcDbEntity
  8
2
100
AcDbCircle
 10
84.264598
 20
1.848664
 30
0.0
 40
1.0
100
AcDbArc
 50
180.0
 51
270.0
  0
LINE
  5
4DE
100
AcDbEntity
  8
2
100
AcDbLine
 10
84.264598
 20
0.848664
 30
0.0
 11
92.264598
 21
0.848664
 31
0.0
  0
LINE
  5
4DF
100
AcDbEntity
  8
2
100
AcDbLine
 10
92.264598
 20
0.848664
 30
0.0
 11
84.264598
 21
0.848664
 31
0.0
  0
ARC
  5
4E0
100
AcDbEntity
  8
2
100
AcDbCircle
 10
84.264598
 20
1.848664
 30
0.0
 40
1.0
100
AcDbArc
 50
180.0
 51
270.0
  0
ARC
  5
4E1
100
AcDbEntity
  8
2
100
AcDbCircle
 10
92.264598
 20
1.848664
 30
0.0
 40
1.0
100
AcDbArc
 50
270.0
 51
360.0
  0
LINE
  5
4E2
100
AcDbEntity
  8
2
100
AcDbLine
 10
93.264598
 20
1.848664
 30
0.0
 11
93.264598
 21
4.877596
 31
0.0
  0
LINE
  5
4E3
100
AcDbEntity
  8
2
100
AcDbLine
 10
83.264598
 20
37.033624
 30
0.0
 11
83.264598
 21
33.529062
 31
0.0
  0
LINE
  5
4E4
100
AcDbEntity
  8
2
100
AcDbLine
 10
85.894208
 20
41.848664
 30
0.0
 11
83.364598
 21
41.848664
 31
0.0
  0
LINE
  5
4E5
100
AcDbEntity
  8
2
100
AcDbLine
 10
91.559996
 20
39.564093
 30
0.0
 11
92.264598
 21
39.564093
 31
0.0
  0
LINE
  5
4E6
100
AcDbEntity
  8
2
100
AcDbLine
 10
84.264598
 20
31.746831
 30
0.0
 11
84.264598
 21
31.61835
 31
0.0
  0
LINE
  5
4E7
100
AcDbEntity
  8
2
100
AcDbLine
 10
83.264598
 20
31.507988
 30
0.0
 11
83.264598
 21
20.455227
 31
0.0
  0
LINE
  5
4E8
100
AcDbEntity
  8
2
100
AcDbLine
 10
93.264598
 20
32.694241
 30
0.0
 11
93.264598
 21
34.576188
 31
0.0
  0
LINE
  5
4E9
100
AcDbEntity
  8
2
100
AcDbLine
 10
93.264598
 20
36.440578
 30
0.0
 11
93.264598
 21
38.564093
 31
0.0
  0
LINE
  5
4EA
100
AcDbEntity
  8
2
100
AcDbLine
 10
163.264598
 20
7.848664
 30
0.0
 11
163.264598
 21
5.848664
 31
0.0
  0
LINE
  5
4EB
100
AcDbEntity
  8
2
100
AcDbLine
 10
148.128447
 20
7.348664
 30
0.0
 11
148.128447
 21
6.348664
 31
0.0
  0
LINE
  5
4EC
100
AcDbEntity
  8
2
100
AcDbLine
 10
146.532045
 20
7.348664
 30
0.0
 11
146.532045
 21
6.348664
 31
0.0
  0
LINE
  5
4ED
100
AcDbEntity
  8
2
100
AcDbLine
 10
143.179273
 20
7.348664
 30
0.0
 11
143.179273
 21
6.348664
 31
0.0
  0
LINE
  5
4EE
100
AcDbEntity
  8
2
100
AcDbLine
 10
138.173139
 20
7.348664
 30
0.0
 11
138.173139
 21
6.348664
 31
0.0
  0
LINE
  5
4EF
100
AcDbEntity
  8
2
100
AcDbLine
 10
131.665751
 20
7.348664
 30
0.0
 11
131.665751
 21
6.348664
 31
0.0
  0
LINE
  5
4F0
100
AcDbEntity
  8
2
100
AcDbLine
 10
123.854834
 20
7.348664
 30
0.0
 11
123.854834
 21
6.348664
 31
0.0
  0
LINE
  5
4F1
100
AcDbEntity
  8
2
100
AcDbLine
 10
114.977718
 20
7.348664
 30
0.0
 11
114.977718
 21
6.348664
 31
0.0
  0
LINE
  5
4F2
100
AcDbEntity
  8
2
100
AcDbLine
 10
38.264598
 20
7.848664
 30
0.0
 11
38.264598
 21
5.848664
 31
0.0
  0
LINE
  5
4F3
100
AcDbEntity
  8
2
100
AcDbLine
 10
145.455966
 20
7.348664
 30
0.0
 11
145.455966
 21
6.348664
 31
0.0
  0
LINE
  5
4F4
100
AcDbEntity
  8
2
100
AcDbLine
 10
141.628521
 20
7.348664
 30
0.0
 11
141.628521
 21
6.348664
 31
0.0
  0
LINE
  5
4F5
100
AcDbEntity
  8
2
100
AcDbLine
 10
136.180082
 20
7.348664
 30
0.0
 11
136.180082
 21
6.348664
 31
0.0
  0
LINE
  5
4F6
100
AcDbEntity
  8
2
100
AcDbLine
 10
129.276199
 20
7.348664
 30
0.0
 11
129.276199
 21
6.348664
 31
0.0
  0
LINE
  5
4F7
100
AcDbEntity
  8
2
100
AcDbLine
 10
121.12664
 20
7.348664
 30
0.0
 11
121.12664
 21
6.348664
 31
0.0
  0
LINE
  5
4F8
100
AcDbEntity
  8
2
100
AcDbLine
 10
111.979028
 20
7.348664
 30
0.0
 11
111.979028
 21
6.348664
 31
0.0
  0
LINE
  5
4F9
100
AcDbEntity
  8
2
100
AcDbLine
 10
105.318212
 20
7.348664
 30
0.0
 11
105.318212
 21
6.348664
 31
0.0
  0
LINE
  5
4FA
100
AcDbEntity
  8
2
100
AcDbLine
 10
102.111307
 20
7.348664
 30
0.0
 11
102.111307
 21
6.348664
 31
0.0
  0
ARC
  5
4FB
100
AcDbEntity
  8
2
100
AcDbCircle
 10
147.628447
 20
7.348664
 30
0.0
 40
0.5
100
AcDbArc
 50
0.0
 51
90.0
  0
ARC
  5
4FC
100
AcDbEntity
  8
2
100
AcDbCircle
 10
147.628447
 20
6.348664
 30
0.0
 40
0.5
100
AcDbArc
 50
270.0
 51
360.0
  0
ARC
  5
4FD
100
AcDbEntity
  8
2
100
AcDbCircle
 10
146.032045
 20
7.348664
 30
0.0
 40
0.5
100
AcDbArc
 50
0.0
 51
90.0
  0
ARC
  5
4FE
100
AcDbEntity
  8
2
100
AcDbCircle
 10
146.032045
 20
6.348664
 30
0.0
 40
0.5
100
AcDbArc
 50
270.0
 51
360.0
  0
ARC
  5
4FF
100
AcDbEntity
  8
2
100
AcDbCircle
 10
144.955966
 20
7.348664
 30
0.0
 40
0.5
100
AcDbArc
 50
0.0
 51
90.0
  0
ARC
  5
500
100
AcDbEntity
  8
2
100
AcDbCircle
 10
144.955966
 20
6.348664
 30
0.0
 40
0.5
100
AcDbArc
 50
270.0
 51
360.0
  0
ARC
  5
501
100
AcDbEntity
  8
2
100
AcDbCircle
 10
142.679273
 20
6.348664
 30
0.0
 40
0.5
100
AcDbArc
 50
270.0
 51
360.0
  0
ARC
  5
502
100
AcDbEntity
  8
2
100
AcDbCircle
 10
142.679273
 20
7.348664
 30
0.0
 40
0.5
100
AcDbArc
 50
0.0
 51
90.0
  0
ARC
  5
503
100
AcDbEntity
  8
2
100
AcDbCircle
 10
141.128521
 20
7.348664
 30
0.0
 40
0.5
100
AcDbArc
 50
0.0
 51
90.0
  0
ARC
  5
504
100
AcDbEntity
  8
2
100
AcDbCircle
 10
141.128521
 20
6.348664
 30
0.0
 40
0.5
100
AcDbArc
 50
270.0
 51
360.0
  0
ARC
  5
505
100
AcDbEntity
  8
2
100
AcDbCircle
 10
137.673139
 20
7.348664
 30
0.0
 40
0.5
100
AcDbArc
 50
0.0
 51
90.0
  0
ARC
  5
506
100
AcDbEntity
  8
2
100
AcDbCircle
 10
137.673139
 20
6.348664
 30
0.0
 40
0.5
100
AcDbArc
 50
270.0
 51
360.0
  0
ARC
  5
507
100
AcDbEntity
  8
2
100
AcDbCircle
 10
135.680082
 20
7.348664
 30
0.0
 40
0.5
100
AcDbArc
 50
0.0
 51
90.0
  0
ARC
  5
508
100
AcDbEntity
  8
2
100
AcDbCircle
 10
135.680082
 20
6.348664
 30
0.0
 40
0.5
100
AcDbArc
 50
270.0
 51
360.0
  0
ARC
  5
509
100
AcDbEntity
  8
2
100
AcDbCircle
 10
131.165751
 20
7.348664
 30
0.0
 40
0.5
100
AcDbArc
 50
0.0
 51
90.0
  0
ARC
  5
50A
100
AcDbEntity
  8
2
100
AcDbCircle
 10
131.165751
 20
6.348664
 30
0.0
 40
0.5
100
AcDbArc
 50
270.0
 51
360.0
  0
ARC
  5
50B
100
AcDbEntity
  8
2
100
AcDbCircle
 10
128.776199
 20
7.348664
 30
0.0
 40
0.5
100
AcDbArc
 50
0.0
 51
90.0
  0
ARC
  5
50C
100
AcDbEntity
  8
2
100
AcDbCircle
 10
128.776199
 20
6.348664
 30
0.0
 40
0.5
100
AcDbArc
 50
270.0
 51
360.0
  0
ARC
  5
50D
100
AcDbEntity
  8
2
100
AcDbCircle
 10
123.354834
 20
7.348664
 30
0.0
 40
0.5
100
AcDbArc
 50
0.0
 51
90.0
  0
ARC
  5
50E
100
AcDbEntity
  8
2
100
AcDbCircle
 10
123.354834
 20
6.348664
 30
0.0
 40
0.5
100
AcDbArc
 50
270.0
 51
360.0
  0
ARC
  5
50F
100
AcDbEntity
  8
2
100
AcDbCircle
 10
120.62664
 20
6.348664
 30
0.0
 40
0.5
100
AcDbArc
 50
270.0
 51
360.0
  0
ARC
  5
510
100
AcDbEntity
  8
2
100
AcDbCircle
 10
114.477718
 20
7.348664
 30
0.0
 40
0.5
100
AcDbArc
 50
0.0
 51
90.0
  0
ARC
  5
511
100
AcDbEntity
  8
2
100
AcDbCircle
 10
114.477718
 20
6.348664
 30
0.0
 40
0.5
100
AcDbArc
 50
270.0
 51
360.0
  0
ARC
  5
512
100
AcDbEntity
  8
2
100
AcDbCircle
 10
111.479028
 20
6.348664
 30
0.0
 40
0.5
100
AcDbArc
 50
270.0
 51
360.0
  0
ARC
  5
513
100
AcDbEntity
  8
2
100
AcDbCircle
 10
104.818212
 20
6.348664
 30
0.0
 40
0.5
100
AcDbArc
 50
270.0
 51
360.0
  0
ARC
  5
514
100
AcDbEntity
  8
2
100
AcDbCircle
 10
104.818212
 20
7.348664
 30
0.0
 40
0.5
100
AcDbArc
 50
0.0
 51
90.0
  0
ARC
  5
515
100
AcDbEntity
  8
2
100
AcDbCircle
 10
101.611307
 20
7.348664
 30
0.0
 40
0.5
100
AcDbArc
 50
0.0
 51
90.0
  0
ARC
  5
516
100
AcDbEntity
  8
2
100
AcDbCircle
 10
101.611307
 20
6.348664
 30
0.0
 40
0.5
100
AcDbArc
 50
270.0
 51
360.0
  0
LINE
  5
517
100
AcDbEntity
  8
2
100
AcDbLine
 10
81.264598
 20
7.348664
 30
0.0
 11
81.264598
 21
6.348664
 31
0.0
  0
ARC
  5
518
100
AcDbEntity
  8
2
100
AcDbCircle
 10
80.764598
 20
7.348664
 30
0.0
 40
0.5
100
AcDbArc
 50
0.0
 51
90.0
  0
LINE
  5
519
100
AcDbEntity
  8
2
100
AcDbLine
 10
163.264598
 20
7.848664
 30
0.0
 11
94.164598
 21
7.848664
 31
0.0
  0
ARC
  5
51A
100
AcDbEntity
  8
2
100
AcDbCircle
 10
80.764598
 20
6.348664
 30
0.0
 40
0.5
100
AcDbArc
 50
270.0
 51
360.0
  0
LINE
  5
51B
100
AcDbEntity
  8
2
100
AcDbLine
 10
163.264598
 20
5.848664
 30
0.0
 11
94.164598
 21
5.848664
 31
0.0
  0
LINE
  5
51C
100
AcDbEntity
  8
2
100
AcDbLine
 10
82.364598
 20
7.848664
 30
0.0
 11
38.264598
 21
7.848664
 31
0.0
  0
ARC
  5
51D
100
AcDbEntity
  8
2
100
AcDbCircle
 10
94.846177
 20
6.348664
 30
0.0
 40
0.5
100
AcDbArc
 50
270.0
 51
360.0
  0
ARC
  5
51E
100
AcDbEntity
  8
2
100
AcDbCircle
 10
94.846177
 20
7.348664
 30
0.0
 40
0.5
100
AcDbArc
 50
0.0
 51
90.0
  0
LINE
  5
51F
100
AcDbEntity
  8
2
100
AcDbLine
 10
95.346177
 20
7.348664
 30
0.0
 11
95.346177
 21
6.348664
 31
0.0
  0
LINE
  5
520
100
AcDbEntity
  8
2
100
AcDbLine
 10
82.364598
 20
5.848664
 30
0.0
 11
38.264598
 21
5.848664
 31
0.0
  0
LINE
  5
521
100
AcDbEntity
  8
2
100
AcDbLine
 10
62.264598
 20
23.164009
 30
0.0
 11
62.264598
 21
25.623009
 31
0.0
  0
LINE
  5
522
100
AcDbEntity
  8
2
100
AcDbLine
 10
62.264598
 20
25.623009
 30
0.0
 11
62.805598
 21
26.164009
 31
0.0
  0
LINE
  5
523
100
AcDbEntity
  8
2
100
AcDbLine
 10
62.805598
 20
26.164009
 30
0.0
 11
66.283526
 21
26.164009
 31
0.0
  0
LINE
  5
524
100
AcDbEntity
  8
2
100
AcDbLine
 10
62.805598
 20
26.164009
 30
0.0
 11
62.805598
 21
23.164009
 31
0.0
  0
LINE
  5
525
100
AcDbEntity
  8
2
100
AcDbLine
 10
62.264598
 20
23.164009
 30
0.0
 11
62.264598
 21
20.705009
 31
0.0
  0
LINE
  5
526
100
AcDbEntity
  8
2
100
AcDbLine
 10
62.264598
 20
20.705009
 30
0.0
 11
62.805598
 21
20.164009
 31
0.0
  0
LINE
  5
527
100
AcDbEntity
  8
2
100
AcDbLine
 10
62.805598
 20
20.164009
 30
0.0
 11
66.283526
 21
20.164009
 31
0.0
  0
LINE
  5
528
100
AcDbEntity
  8
2
100
AcDbLine
 10
62.805598
 20
20.164009
 30
0.0
 11
62.805598
 21
23.164009
 31
0.0
  0
LINE
  5
529
100
AcDbEntity
  8
2
100
AcDbLine
 10
71.264598
 20
23.164009
 30
0.0
 11
71.264598
 21
18.164009
 31
0.0
  0
LINE
  5
52A
100
AcDbEntity
  8
2
100
AcDbLine
 10
71.264598
 20
18.164009
 30
0.0
 11
66.755345
 21
18.164009
 31
0.0
  0
LINE
  5
52B
100
AcDbEntity
  8
2
100
AcDbLine
 10
66.264598
 20
20.664009
 30
0.0
 11
66.264598
 21
23.164009
 31
0.0
  0
LINE
  5
52C
100
AcDbEntity
  8
2
100
AcDbLine
 10
71.264598
 20
23.164009
 30
0.0
 11
66.755345
 21
23.164009
 31
0.0
  0
ARC
  5
52D
100
AcDbEntity
  8
2
100
AcDbCircle
 10
72.877805
 20
20.664009
 30
0.0
 40
6.613208
100
AcDbArc
 50
157.788205
 51
202.211795
  0
LINE
  5
52E
100
AcDbEntity
  8
2
100
AcDbLine
 10
71.264598
 20
23.164009
 30
0.0
 11
71.264598
 21
28.164009
 31
0.0
  0
LINE
  5
52F
100
AcDbEntity
  8
2
100
AcDbLine
 10
71.264598
 20
28.164009
 30
0.0
 11
66.755345
 21
28.164009
 31
0.0
  0
LINE
  5
530
100
AcDbEntity
  8
2
100
AcDbLine
 10
66.264598
 20
25.664009
 30
0.0
 11
66.264598
 21
23.164009
 31
0.0
  0
LINE
  5
531
100
AcDbEntity
  8
2
100
AcDbLine
 10
71.264598
 20
23.164009
 30
0.0
 11
66.755345
 21
23.164009
 31
0.0
  0
ARC
  5
532
100
AcDbEntity
  8
2
100
AcDbCircle
 10
72.877805
 20
25.664009
 30
0.0
 40
6.613208
100
AcDbArc
 50
157.788205
 51
202.211795
  0
LINE
  5
533
100
AcDbEntity
  8
2
 62
     2
100
AcDbLine
 10
62.264598
 20
20.705009
 30
0.0
 11
66.264598
 21
20.705009
 31
0.0
  0
LINE
  5
534
100
AcDbEntity
  8
2
 62
     2
100
AcDbLine
 10
62.264598
 20
25.623009
 30
0.0
 11
66.264598
 21
25.623009
 31
0.0
  0
LINE
  5
535
100
AcDbEntity
  8
2
100
AcDbLine
 10
113.013335
 20
7.848664
 30
0.0
 11
106.513335
 21
7.848664
 31
0.0
  0
LINE
  5
536
100
AcDbEntity
  8
2
100
AcDbLine
 10
113.013335
 20
7.248664
 30
0.0
 11
113.013335
 21
12.026976
 31
0.0
  0
LINE
  5
537
100
AcDbEntity
  8
2
100
AcDbLine
 10
113.013335
 20
7.848664
 30
0.0
 11
119.513335
 21
7.848664
 31
0.0
  0
LINE
  5
538
100
AcDbEntity
  8
2
100
AcDbLine
 10
113.013335
 20
7.248664
 30
0.0
 11
113.013335
 21
12.026976
 31
0.0
  0
LINE
  5
539
100
AcDbEntity
  8
2
100
AcDbLine
 10
57.01586
 20
7.848664
 30
0.0
 11
57.01586
 21
13.348664
 31
0.0
  0
LINE
  5
53A
100
AcDbEntity
  8
2
100
AcDbLine
 10
57.01586
 20
13.348664
 30
0.0
 11
70.01586
 21
13.348664
 31
0.0
  0
ARC
  5
53B
100
AcDbEntity
  8
2
100
AcDbCircle
 10
60.26586
 20
5.669904
 30
0.0
 40
7.678758
100
AcDbArc
 50
64.96034
 51
115.03966
  0
LINE
  5
53C
100
AcDbEntity
  8
2
100
AcDbLine
 10
63.51586
 20
7.848664
 30
0.0
 11
63.51586
 21
12.626976
 31
0.0
  0
ARC
  5
53D
100
AcDbEntity
  8
2
100
AcDbCircle
 10
66.76586
 20
5.669904
 30
0.0
 40
7.678758
100
AcDbArc
 50
64.96034
 51
115.03966
  0
LINE
  5
53E
100
AcDbEntity
  8
2
100
AcDbLine
 10
70.01586
 20
7.848664
 30
0.0
 11
70.01586
 21
13.348664
 31
0.0
  0
LINE
  5
53F
100
AcDbEntity
  8
2
100
AcDbLine
 10
119.513334
 20
7.848664
 30
0.0
 11
119.513334
 21
13.348664
 31
0.0
  0
LINE
  5
540
100
AcDbEntity
  8
2
100
AcDbLine
 10
119.513334
 20
13.348664
 30
0.0
 11
106.513334
 21
13.348664
 31
0.0
  0
ARC
  5
541
100
AcDbEntity
  8
2
100
AcDbCircle
 10
116.263334
 20
5.669904
 30
0.0
 40
7.678758
100
AcDbArc
 50
64.96034
 51
115.03966
  0
LINE
  5
542
100
AcDbEntity
  8
2
100
AcDbLine
 10
106.513334
 20
7.848664
 30
0.0
 11
106.513334
 21
13.348664
 31
0.0
  0
LINE
  5
543
100
AcDbEntity
  8
2
100
AcDbLine
 10
113.013334
 20
7.848664
 30
0.0
 11
113.013334
 21
12.626976
 31
0.0
  0
ARC
  5
544
100
AcDbEntity
  8
2
100
AcDbCircle
 10
109.763334
 20
5.669904
 30
0.0
 40
7.678758
100
AcDbArc
 50
64.96034
 51
115.03966
  0
LINE
  5
545
100
AcDbEntity
  8
2
100
AcDbLine
 10
-214.723756
 20
-31.151336
 30
0.0
 11
-230.123756
 21
-31.151336
 31
0.0
  0
LINE
  5
546
100
AcDbEntity
  8
2
100
AcDbLine
 10
-279.62123
 20
-31.151336
 30
0.0
 11
-278.445793
 21
-31.151336
 31
0.0
  0
LINE
  5
547
100
AcDbEntity
  8
3
100
AcDbLine
 10
-212.172494
 20
5.848664
 30
0.0
 11
-282.172494
 21
5.848664
 31
0.0
  0
LINE
  5
548
100
AcDbEntity
  8
3
100
AcDbLine
 10
-282.172494
 20
-19.151336
 30
0.0
 11
-282.172494
 21
5.848664
 31
0.0
  0
LINE
  5
549
100
AcDbEntity
  8
3
100
AcDbLine
 10
-212.172494
 20
-19.151336
 30
0.0
 11
-212.172494
 21
5.848664
 31
0.0
  0
LINE
  5
54A
100
AcDbEntity
  8
3
100
AcDbLine
 10
-262.922494
 20
-19.151336
 30
0.0
 11
-262.922494
 21
-4.151336
 31
0.0
  0
LINE
  5
54B
100
AcDbEntity
  8
3
100
AcDbLine
 10
-231.422494
 20
-19.151336
 30
0.0
 11
-231.422494
 21
-4.151336
 31
0.0
  0
LINE
  5
54C
100
AcDbEntity
  8
3
100
AcDbLine
 10
-225.422494
 20
-2.151336
 30
0.0
 11
-268.922494
 21
-2.151336
 31
0.0
  0
ARC
  5
54D
100
AcDbEntity
  8
3
100
AcDbCircle
 10
-233.422494
 20
-4.151336
 30
0.0
 40
2.0
100
AcDbArc
 50
0.0
 51
90.0
  0
ARC
  5
54E
100
AcDbEntity
  8
3
100
AcDbCircle
 10
-260.922494
 20
-4.151336
 30
0.0
 40
2.0
100
AcDbArc
 50
90.0
 51
180.0
  0
ARC
  5
54F
100
AcDbEntity
  8
3
100
AcDbCircle
 10
-225.422494
 20
-4.151336
 30
0.0
 40
2.0
100
AcDbArc
 50
0.0
 51
90.0
  0
ARC
  5
550
100
AcDbEntity
  8
3
100
AcDbCircle
 10
-268.922494
 20
-4.151336
 30
0.0
 40
2.0
100
AcDbArc
 50
90.0
 51
180.0
  0
LINE
  5
551
100
AcDbEntity
  8
3
100
AcDbLine
 10
-234.925044
 20
5.848664
 30
0.0
 11
-234.925044
 21
-2.151336
 31
0.0
  0
LINE
  5
552
100
AcDbEntity
  8
3
100
AcDbLine
 10
-259.419942
 20
5.848664
 30
0.0
 11
-259.419942
 21
-2.151336
 31
0.0
  0
LINE
  5
553
100
AcDbEntity
  8
3
100
AcDbLine
 10
53.264598
 20
5.848664
 30
0.0
 11
53.264598
 21
-19.151336
 31
0.0
  0
LINE
  5
554
100
AcDbEntity
  8
3
100
AcDbLine
 10
123.264598
 20
5.848664
 30
0.0
 11
123.264598
 21
-19.151336
 31
0.0
  0
LINE
  5
555
100
AcDbEntity
  8
3
100
AcDbLine
 10
72.514598
 20
-9.151336
 30
0.0
 11
72.514598
 21
-19.151336
 31
0.0
  0
LINE
  5
556
100
AcDbEntity
  8
3
100
AcDbLine
 10
104.014598
 20
-9.151336
 30
0.0
 11
104.014598
 21
-19.151336
 31
0.0
  0
ARC
  5
557
100
AcDbEntity
  8
3
100
AcDbCircle
 10
102.014598
 20
-9.151336
 30
0.0
 40
2.0
100
AcDbArc
 50
0.0
 51
90.0
  0
ARC
  5
558
100
AcDbEntity
  8
3
100
AcDbCircle
 10
74.514598
 20
-9.151336
 30
0.0
 40
2.0
100
AcDbArc
 50
90.0
 51
180.0
  0
ARC
  5
559
100
AcDbEntity
  8
3
100
AcDbCircle
 10
110.014598
 20
-9.151336
 30
0.0
 40
2.0
100
AcDbArc
 50
0.0
 51
90.0
  0
ARC
  5
55A
100
AcDbEntity
  8
3
100
AcDbCircle
 10
66.514598
 20
-9.151336
 30
0.0
 40
2.0
100
AcDbArc
 50
90.0
 51
180.0
  0
LINE
  5
55B
100
AcDbEntity
  8
3
100
AcDbLine
 10
128.264598
 20
5.848664
 30
0.0
 11
128.264598
 21
-2.151336
 31
0.0
  0
LINE
  5
55C
100
AcDbEntity
  8
3
100
AcDbLine
 10
48.264598
 20
5.848664
 30
0.0
 11
48.264598
 21
-2.151336
 31
0.0
  0
LINE
  5
55D
100
AcDbEntity
  8
3
100
AcDbLine
 10
48.264598
 20
-2.151336
 30
0.0
 11
53.264598
 21
-2.151336
 31
0.0
  0
LINE
  5
55E
100
AcDbEntity
  8
3
100
AcDbLine
 10
123.264598
 20
-2.151336
 30
0.0
 11
128.264598
 21
-2.151336
 31
0.0
  0
LINE
  5
55F
100
AcDbEntity
  8
3
100
AcDbLine
 10
48.264598
 20
5.848664
 30
0.0
 11
74.83753
 21
5.848664
 31
0.0
  0
LINE
  5
560
100
AcDbEntity
  8
3
100
AcDbLine
 10
101.691666
 20
5.848664
 30
0.0
 11
128.264598
 21
5.848664
 31
0.0
  0
LINE
  5
561
100
AcDbEntity
  8
3
100
AcDbLine
 10
66.514598
 20
-7.151336
 30
0.0
 11
110.014598
 21
-7.151336
 31
0.0
  0
DIMENSION
  5
562
100
AcDbEntity
  8
5
100
AcDbDimension
  2
*D0
 10
-332.298248
 20
239.39096
 30
0.0
 11
-337.918248
 21
203.87096
 31
0.0
  1
75
100
AcDbAlignedDimension
 13
-312.752334
 23
164.39096
 33
0.0
 14
-262.172494
 24
239.39096
 34
0.0
 50
90.0
100
AcDbRotatedDimension
  0
DIMENSION
  5
563
100
AcDbEntity
  8
5
100
AcDbDimension
  2
*D1
 10
-332.298248
 20
164.39096
 30
0.0
 11
-337.918248
 21
141.37096
 31
0.0
  1
50
100
AcDbAlignedDimension
 13
-247.172494
 23
114.39096
 33
0.0
 14
-312.752334
 24
164.39096
 34
0.0
 50
90.0
100
AcDbRotatedDimension
  0
DIMENSION
  5
564
100
AcDbEntity
  8
5
100
AcDbDimension
  2
*D2
 10
13.484966
 20
-19.151336
 30
0.0
 11
5.554966
 21
-81.981336
 31
0.0
  1
125
100
AcDbAlignedDimension
 13
55.714666
 23
-144.151336
 33
0.0
 14
53.264598
 24
-19.151336
 34
0.0
 50
90.0
100
AcDbRotatedDimension
  0
DIMENSION
  5
565
100
AcDbEntity
  8
5
100
AcDbDimension
  2
*D3
 10
13.484966
 20
-144.151336
 30
0.0
 11
7.864966
 21
-179.321336
 31
0.0
  1
74
100
AcDbAlignedDimension
 13
73.264598
 23
-218.451336
 33
0.0
 14
55.714666
 24
-144.151336
 34
0.0
 50
90.0
100
AcDbRotatedDimension
  0
DIMENSION
  5
566
100
AcDbEntity
  8
5
100
AcDbDimension
  2
*D4
 10
88.264598
 20
-239.850128
 30
0.0
 11
77.764598
 21
-235.550128
 31
0.0
  1
21
100
AcDbAlignedDimension
 13
67.264598
 23
-192.651336
 33
0.0
 14
88.264598
 24
-229.453216
 34
0.0
100
AcDbRotatedDimension
  0
DIMENSION
  5
567
100
AcDbEntity
  8
5
100
AcDbDimension
  2
*D5
 10
110.264598
 20
-257.424744
 30
0.0
 11
88.764598
 21
-253.124744
 31
0.0
  1
43
100
AcDbAlignedDimension
 13
67.264598
 23
-192.651336
 33
0.0
 14
110.264598
 24
-192.651336
 34
0.0
100
AcDbRotatedDimension
  0
DIMENSION
  5
568
100
AcDbEntity
  8
5
100
AcDbDimension
  2
*D6
 10
13.484966
 20
5.848664
 30
0.0
 11
7.864966
 21
-4.671336
 31
0.0
  1
25
100
AcDbAlignedDimension
 13
53.264598
 23
-19.151336
 33
0.0
 14
48.264598
 24
5.848664
 34
0.0
 50
90.0
100
AcDbRotatedDimension
  0
TEXT
  5
569
100
AcDbEntity
  8
5
100
AcDbText
 10
12.484966
 20
34.317351
 30
0.0
 40
6.6
  1
66
 50
90.0
 41
1.4
 72
     5
 11
12.484966
 21
41.709351
 31
0.0
100
AcDbText
  0
DIMENSION
  5
56A
100
AcDbEntity
  8
5
100
AcDbDimension
  2
*D7
 10
13.484966
 20
72.026038
 30
0.0
 11
10.984966
 21
38.937351
 31
0.0
100
AcDbAlignedDimension
 13
48.264598
 23
5.848664
 33
0.0
 14
88.264598
 24
72.026038
 34
0.0
 50
90.0
100
AcDbRotatedDimension
  0
TEXT
  5
56B
100
AcDbEntity
  8
5
100
AcDbText
 10
-154.182809
 20
82.511955
 30
0.0
 40
6.6
  1
200
 41
1.4
 72
     5
 11
-142.170809
 21
82.511955
 31
0.0
100
AcDbText
  0
DIMENSION
  5
56C
100
AcDbEntity
  8
5
100
AcDbDimension
  2
*D8
 10
-47.333124
 20
81.511955
 30
0.0
 11
-147.252809
 21
83.511955
 31
0.0
100
AcDbAlignedDimension
 13
-247.172494
 23
54.421382
 33
0.0
 14
-47.333124
 24
64.776892
 34
0.0
100
AcDbRotatedDimension
  0
LINE
  5
56D
100
AcDbEntity
  8
18
100
AcDbLine
 10
132.35481
 20
-144.151336
 30
0.0
 11
192.35481
 21
-144.151336
 31
0.0
  0
LINE
  5
56E
100
AcDbEntity
  8
18
100
AcDbLine
 10
132.35481
 20
-144.151336
 30
0.0
 11
152.35481
 21
-138.792354
 31
0.0
  0
LINE
  5
56F
100
AcDbEntity
  8
18
100
AcDbLine
 10
152.35481
 20
-138.792354
 30
0.0
 11
152.35481
 21
-149.51032
 31
0.0
  0
LINE
  5
570
100
AcDbEntity
  8
18
100
AcDbLine
 10
132.35481
 20
-144.151336
 30
0.0
 11
152.35481
 21
-149.51032
 31
0.0
  0
LINE
  5
571
100
AcDbEntity
  8
18
100
AcDbLine
 10
137.347336
 20
230.185196
 30
0.0
 11
137.347336
 21
160.185196
 31
0.0
  0
LINE
  5
572
100
AcDbEntity
  8
18
100
AcDbLine
 10
361.347336
 20
180.185196
 30
0.0
 11
137.347336
 21
180.185196
 31
0.0
  0
LINE
  5
573
100
AcDbEntity
  8
18
100
AcDbLine
 10
361.347336
 20
170.185196
 30
0.0
 11
137.347336
 21
170.185196
 31
0.0
  0
LINE
  5
574
100
AcDbEntity
  8
18
100
AcDbLine
 10
361.347336
 20
160.185196
 30
0.0
 11
137.347336
 21
160.185196
 31
0.0
  0
LINE
  5
575
100
AcDbEntity
  8
18
100
AcDbLine
 10
193.347336
 20
230.185196
 30
0.0
 11
193.347336
 21
170.185196
 31
0.0
  0
LINE
  5
576
100
AcDbEntity
  8
18
100
AcDbLine
 10
249.347336
 20
230.185196
 30
0.0
 11
249.347336
 21
170.185196
 31
0.0
  0
LINE
  5
577
100
AcDbEntity
  8
18
100
AcDbLine
 10
305.347336
 20
230.185196
 30
0.0
 11
305.347336
 21
170.185196
 31
0.0
  0
LINE
  5
578
100
AcDbEntity
  8
18
100
AcDbLine
 10
361.347336
 20
230.185196
 30
0.0
 11
361.347336
 21
160.185196
 31
0.0
  0
LINE
  5
579
100
AcDbEntity
  8
18
100
AcDbLine
 10
137.347336
 20
230.185196
 30
0.0
 11
361.347336
 21
230.185196
 31
0.0
  0
LINE
  5
57A
100
AcDbEntity
  8
18
100
AcDbLine
 10
154.372746
 20
201.695792
 30
0.0
 11
154.372746
 21
196.850792
 31
0.0
  0
LINE
  5
57B
100
AcDbEntity
  8
18
100
AcDbLine
 10
154.372746
 20
201.695792
 30
0.0
 11
158.955668
 21
201.695792
 31
0.0
  0
LINE
  5
57C
100
AcDbEntity
  8
18
100
AcDbLine
 10
169.169824
 20
201.695792
 30
0.0
 11
173.752746
 21
201.695792
 31
0.0
  0
LINE
  5
57D
100
AcDbEntity
  8
18
100
AcDbLine
 10
154.372746
 20
196.850792
 30
0.0
 11
158.955668
 21
196.850792
 31
0.0
  0
LINE
  5
57E
100
AcDbEntity
  8
18
100
AcDbLine
 10
169.169824
 20
196.850792
 30
0.0
 11
173.752746
 21
196.850792
 31
0.0
  0
LINE
  5
57F
100
AcDbEntity
  8
18
100
AcDbLine
 10
162.368728
 20
200.080792
 30
0.0
 11
183.837894
 21
200.080792
 31
0.0
  0
LINE
  5
580
100
AcDbEntity
  8
18
100
AcDbLine
 10
162.368728
 20
198.465792
 30
0.0
 11
183.837894
 21
198.465792
 31
0.0
  0
LINE
  5
581
100
AcDbEntity
  8
18
100
AcDbLine
 10
159.961688
 20
199.589774
 30
0.0
 11
162.368728
 21
200.080792
 31
0.0
  0
LINE
  5
582
100
AcDbEntity
  8
18
100
AcDbLine
 10
159.961688
 20
198.95681
 30
0.0
 11
162.368728
 21
198.465792
 31
0.0
  0
ARC
  5
583
100
AcDbEntity
  8
18
100
AcDbCircle
 10
160.026248
 20
199.273292
 30
0.0
 40
0.323
100
AcDbArc
 50
101.529708
 51
258.470292
  0
LINE
  5
584
100
AcDbEntity
  8
18
100
AcDbLine
 10
173.752746
 20
196.850792
 30
0.0
 11
173.752746
 21
198.465792
 31
0.0
  0
LINE
  5
585
100
AcDbEntity
  8
18
100
AcDbLine
 10
173.752746
 20
200.080792
 30
0.0
 11
173.752746
 21
201.695792
 31
0.0
  0
ARC
  5
586
100
AcDbEntity
  8
18
100
AcDbCircle
 10
164.062746
 20
199.273292
 30
0.0
 40
5.6525
100
AcDbArc
 50
8.213211
 51
351.786789
  0
LINE
  5
587
100
AcDbEntity
  8
18
100
AcDbLine
 10
183.837894
 20
200.080792
 30
0.0
 11
183.837894
 21
198.465792
 31
0.0
  0
LINE
  5
588
100
AcDbEntity
  8
18
  6
CENTER
 62
     2
100
AcDbLine
 10
316.192578
 20
199.027406
 30
0.0
 11
348.827546
 21
199.027406
 31
0.0
  0
LINE
  5
589
100
AcDbEntity
  8
18
100
AcDbLine
 10
346.233694
 20
196.604906
 30
0.0
 11
346.233694
 21
201.449906
 31
0.0
  0
LINE
  5
58A
100
AcDbEntity
  8
18
100
AcDbLine
 10
346.233694
 20
196.604906
 30
0.0
 11
341.650772
 21
196.604906
 31
0.0
  0
LINE
  5
58B
100
AcDbEntity
  8
18
100
AcDbLine
 10
331.436616
 20
196.604906
 30
0.0
 11
326.853694
 21
196.604906
 31
0.0
  0
LINE
  5
58C
100
AcDbEntity
  8
18
100
AcDbLine
 10
346.233694
 20
201.449906
 30
0.0
 11
341.650772
 21
201.449906
 31
0.0
  0
LINE
  5
58D
100
AcDbEntity
  8
18
100
AcDbLine
 10
331.436616
 20
201.449906
 30
0.0
 11
326.853694
 21
201.449906
 31
0.0
  0
LINE
  5
58E
100
AcDbEntity
  8
18
100
AcDbLine
 10
335.736194
 20
197.333388
 30
0.0
 11
335.736194
 21
218.802554
 31
0.0
  0
LINE
  5
58F
100
AcDbEntity
  8
18
100
AcDbLine
 10
337.351194
 20
197.333388
 30
0.0
 11
337.351194
 21
218.802554
 31
0.0
  0
LINE
  5
590
100
AcDbEntity
  8
18
100
AcDbLine
 10
336.227212
 20
194.926348
 30
0.0
 11
335.736194
 21
197.333388
 31
0.0
  0
LINE
  5
591
100
AcDbEntity
  8
18
100
AcDbLine
 10
336.860176
 20
194.926348
 30
0.0
 11
337.351194
 21
197.333388
 31
0.0
  0
ARC
  5
592
100
AcDbEntity
  8
18
100
AcDbCircle
 10
336.543694
 20
194.990908
 30
0.0
 40
0.323
100
AcDbArc
 50
191.529708
 51
348.470292
  0
LINE
  5
593
100
AcDbEntity
  8
18
100
AcDbLine
 10
326.853694
 20
201.449906
 30
0.0
 11
326.853694
 21
199.834906
 31
0.0
  0
LINE
  5
594
100
AcDbEntity
  8
18
100
AcDbLine
 10
326.853694
 20
199.834906
 30
0.0
 11
326.853694
 21
196.604906
 31
0.0
  0
LINE
  5
595
100
AcDbEntity
  8
18
100
AcDbLine
 10
335.736194
 20
218.802554
 30
0.0
 11
337.351194
 21
218.802554
 31
0.0
  0
ARC
  5
596
100
AcDbEntity
  8
18
100
AcDbCircle
 10
336.543694
 20
199.027406
 30
0.0
 40
5.6525
100
AcDbArc
 50
98.213211
 51
81.786789
  0
LINE
  5
597
100
AcDbEntity
  8
18
100
AcDbLine
 10
289.542042
 20
208.786862
 30
0.0
 11
289.542042
 21
213.631862
 31
0.0
  0
LINE
  5
598
100
AcDbEntity
  8
18
100
AcDbLine
 10
289.542042
 20
208.786862
 30
0.0
 11
284.959122
 21
208.786862
 31
0.0
  0
LINE
  5
599
100
AcDbEntity
  8
18
100
AcDbLine
 10
274.744964
 20
208.786862
 30
0.0
 11
270.162042
 21
208.786862
 31
0.0
  0
LINE
  5
59A
100
AcDbEntity
  8
18
100
AcDbLine
 10
289.542042
 20
213.631862
 30
0.0
 11
284.959122
 21
213.631862
 31
0.0
  0
LINE
  5
59B
100
AcDbEntity
  8
18
100
AcDbLine
 10
274.744964
 20
213.631862
 30
0.0
 11
270.162042
 21
213.631862
 31
0.0
  0
LINE
  5
59C
100
AcDbEntity
  8
18
100
AcDbLine
 10
281.54606
 20
210.401862
 30
0.0
 11
260.076894
 21
210.401862
 31
0.0
  0
LINE
  5
59D
100
AcDbEntity
  8
18
100
AcDbLine
 10
281.54606
 20
212.016862
 30
0.0
 11
260.076894
 21
212.016862
 31
0.0
  0
LINE
  5
59E
100
AcDbEntity
  8
18
100
AcDbLine
 10
283.9531
 20
210.89288
 30
0.0
 11
281.54606
 21
210.401862
 31
0.0
  0
LINE
  5
59F
100
AcDbEntity
  8
18
100
AcDbLine
 10
283.9531
 20
211.525844
 30
0.0
 11
281.54606
 21
212.016862
 31
0.0
  0
ARC
  5
5A0
100
AcDbEntity
  8
18
100
AcDbCircle
 10
283.88854
 20
211.209362
 30
0.0
 40
0.323
100
AcDbArc
 50
281.529708
 51
78.470292
  0
LINE
  5
5A1
100
AcDbEntity
  8
18
100
AcDbLine
 10
270.162042
 20
213.631862
 30
0.0
 11
270.162042
 21
212.016862
 31
0.0
  0
LINE
  5
5A2
100
AcDbEntity
  8
18
100
AcDbLine
 10
270.162042
 20
210.401862
 30
0.0
 11
270.162042
 21
208.786862
 31
0.0
  0
ARC
  5
5A3
100
AcDbEntity
  8
18
100
AcDbCircle
 10
279.852042
 20
211.209362
 30
0.0
 40
5.6525
100
AcDbArc
 50
188.213211
 51
171.786789
  0
LINE
  5
5A4
100
AcDbEntity
  8
18
100
AcDbLine
 10
260.076894
 20
210.401862
 30
0.0
 11
260.076894
 21
212.016862
 31
0.0
  0
LINE
  5
5A5
100
AcDbEntity
  8
18
  6
CENTER
 62
     2
100
AcDbLine
 10
239.076178
 20
208.953402
 30
0.0
 11
205.686492
 21
208.953402
 31
0.0
  0
LINE
  5
5A6
100
AcDbEntity
  8
18
100
AcDbLine
 10
209.035062
 20
211.375902
 30
0.0
 11
209.035062
 21
206.530902
 31
0.0
  0
LINE
  5
5A7
100
AcDbEntity
  8
18
100
AcDbLine
 10
209.035062
 20
211.375902
 30
0.0
 11
213.617982
 21
211.375902
 31
0.0
  0
LINE
  5
5A8
100
AcDbEntity
  8
18
100
AcDbLine
 10
223.83214
 20
211.375902
 30
0.0
 11
228.415062
 21
211.375902
 31
0.0
  0
LINE
  5
5A9
100
AcDbEntity
  8
18
100
AcDbLine
 10
209.035062
 20
206.530902
 30
0.0
 11
213.617982
 21
206.530902
 31
0.0
  0
LINE
  5
5AA
100
AcDbEntity
  8
18
100
AcDbLine
 10
223.83214
 20
206.530902
 30
0.0
 11
228.415062
 21
206.530902
 31
0.0
  0
LINE
  5
5AB
100
AcDbEntity
  8
18
100
AcDbLine
 10
219.532562
 20
210.64742
 30
0.0
 11
219.532562
 21
189.178254
 31
0.0
  0
LINE
  5
5AC
100
AcDbEntity
  8
18
100
AcDbLine
 10
217.917562
 20
210.64742
 30
0.0
 11
217.917562
 21
189.178254
 31
0.0
  0
LINE
  5
5AD
100
AcDbEntity
  8
18
100
AcDbLine
 10
219.041544
 20
213.05446
 30
0.0
 11
219.532562
 21
210.64742
 31
0.0
  0
LINE
  5
5AE
100
AcDbEntity
  8
18
100
AcDbLine
 10
218.408578
 20
213.05446
 30
0.0
 11
217.917562
 21
210.64742
 31
0.0
  0
ARC
  5
5AF
100
AcDbEntity
  8
18
100
AcDbCircle
 10
218.725062
 20
212.9899
 30
0.0
 40
0.323
100
AcDbArc
 50
11.529708
 51
168.470292
  0
LINE
  5
5B0
100
AcDbEntity
  8
18
100
AcDbLine
 10
228.415062
 20
206.530902
 30
0.0
 11
228.415062
 21
208.145902
 31
0.0
  0
LINE
  5
5B1
100
AcDbEntity
  8
18
100
AcDbLine
 10
228.415062
 20
208.145902
 30
0.0
 11
228.415062
 21
211.375902
 31
0.0
  0
LINE
  5
5B2
100
AcDbEntity
  8
18
100
AcDbLine
 10
219.532562
 20
189.178254
 30
0.0
 11
217.917562
 21
189.178254
 31
0.0
  0
ARC
  5
5B3
100
AcDbEntity
  8
18
100
AcDbCircle
 10
218.725062
 20
208.953402
 30
0.0
 40
5.6525
100
AcDbArc
 50
278.213211
 51
261.786789
  0
ARC
  5
5B4
100
AcDbEntity
  8
18
 62
     2
100
AcDbCircle
 10
164.062746
 20
199.273292
 30
0.0
 40
18.0
100
AcDbArc
 50
2.571215
 51
48.757144
  0
LINE
  5
5B5
100
AcDbEntity
  8
18
 62
     2
100
AcDbLine
 10
182.032238
 20
200.05606
 30
0.0
 11
182.032238
 21
200.786744
 31
0.0
  0
LINE
  5
5B6
100
AcDbEntity
  8
18
 62
     2
100
AcDbLine
 10
182.032238
 20
203.919764
 30
0.0
 11
180.996962
 21
203.919764
 31
0.0
  0
LINE
  5
5B7
100
AcDbEntity
  8
18
 62
     2
100
AcDbLine
 10
180.996962
 20
203.919764
 30
0.0
 11
182.032238
 21
200.05606
 31
0.0
  0
LINE
  5
5B8
100
AcDbEntity
  8
18
 62
     2
100
AcDbLine
 10
182.032238
 20
200.05606
 30
0.0
 11
183.067514
 21
203.919764
 31
0.0
  0
LINE
  5
5B9
100
AcDbEntity
  8
18
 62
     2
100
AcDbLine
 10
183.067514
 20
203.919764
 30
0.0
 11
182.032238
 21
203.919764
 31
0.0
  0
LINE
  5
5BA
100
AcDbEntity
  8
18
 62
     2
100
AcDbLine
 10
175.93095
 20
212.876374
 30
0.0
 11
176.369396
 21
212.437942
 31
0.0
  0
LINE
  5
5BB
100
AcDbEntity
  8
18
 62
     2
100
AcDbLine
 10
178.663048
 20
210.14437
 30
0.0
 11
179.395086
 21
210.876434
 31
0.0
  0
LINE
  5
5BC
100
AcDbEntity
  8
18
 62
     2
100
AcDbLine
 10
179.395086
 20
210.876434
 30
0.0
 11
175.93095
 21
212.876374
 31
0.0
  0
LINE
  5
5BD
100
AcDbEntity
  8
18
 62
     2
100
AcDbLine
 10
175.93095
 20
212.876374
 30
0.0
 11
177.93101
 21
209.412306
 31
0.0
  0
LINE
  5
5BE
100
AcDbEntity
  8
18
 62
     2
100
AcDbLine
 10
177.93101
 20
209.412306
 30
0.0
 11
178.663048
 21
210.14437
 31
0.0
  0
LINE
  5
5BF
100
AcDbEntity
  8
18
  6
CENTER
 62
     2
100
AcDbLine
 10
164.062746
 20
207.980758
 30
0.0
 11
164.062746
 21
191.108368
 31
0.0
  0
LINE
  5
5C0
100
AcDbEntity
  8
18
 62
     2
100
AcDbLine
 10
164.127728
 20
209.429734
 30
0.0
 11
164.127728
 21
220.105164
 31
0.0
  0
LINE
  5
5C1
100
AcDbEntity
  8
18
 62
     2
100
AcDbLine
 10
164.127728
 20
213.293436
 30
0.0
 11
163.092452
 21
213.293436
 31
0.0
  0
LINE
  5
5C2
100
AcDbEntity
  8
18
 62
     2
100
AcDbLine
 10
163.092452
 20
213.293436
 30
0.0
 11
164.127728
 21
209.429734
 31
0.0
  0
LINE
  5
5C3
100
AcDbEntity
  8
18
 62
     2
100
AcDbLine
 10
164.127728
 20
209.429734
 30
0.0
 11
165.163004
 21
213.293436
 31
0.0
  0
LINE
  5
5C4
100
AcDbEntity
  8
18
 62
     2
100
AcDbLine
 10
165.163004
 20
213.293436
 30
0.0
 11
164.127728
 21
213.293436
 31
0.0
  0
LINE
  5
5C5
100
AcDbEntity
  8
18
  6
CENTER
 62
     2
100
AcDbLine
 10
279.852042
 20
219.916828
 30
0.0
 11
279.852042
 21
190.858244
 31
0.0
  0
TEXT
  5
5C6
100
AcDbEntity
  8
18
100
AcDbText
 10
244.598252
 20
-266.543824
 30
0.0
 40
6.0
  1
１
 72
     5
 11
249.398252
 21
-266.543824
 31
0.0
100
AcDbText
  0
TEXT
  5
5C7
100
AcDbEntity
  8
18
100
AcDbText
 10
244.375148
 20
-254.070526
 30
0.0
 40
6.0
  1
標準仕様
 72
     5
 11
267.175148
 21
-254.070526
 31
0.0
100
AcDbText
  0
TEXT
  5
5C8
100
AcDbEntity
  8
18
100
AcDbText
 10
157.707778
 20
-140.656044
 30
0.0
 40
10.0
  1
高圧側
 72
     5
 11
185.707778
 21
-140.656044
 31
0.0
100
AcDbText
  0
TEXT
  5
5C9
100
AcDbEntity
  8
18
100
AcDbText
 10
161.60881
 20
172.540954
 30
0.0
 40
6.0
  1
Ａ
 72
     5
 11
166.40881
 21
172.540954
 31
0.0
100
AcDbText
  0
TEXT
  5
5CA
100
AcDbEntity
  8
18
100
AcDbText
 10
217.584916
 20
172.380646
 30
0.0
 40
6.0
  1
Ｂ
 72
     5
 11
222.384916
 21
172.380646
 31
0.0
100
AcDbText
  0
TEXT
  5
5CB
100
AcDbEntity
  8
18
100
AcDbText
 10
273.60881
 20
172.540954
 30
0.0
 40
6.0
  1
Ｃ
 72
     5
 11
278.40881
 21
172.540954
 31
0.0
100
AcDbText
  0
TEXT
  5
5CC
100
AcDbEntity
  8
18
100
AcDbText
 10
217.264312
 20
162.327138
 30
0.0
 40
6.0
  1
アクチュエ－タ取付方向
 72
     5
 11
282.064312
 21
162.327138
 31
0.0
100
AcDbText
  0
TEXT
  5
5CD
100
AcDbEntity
  8
18
100
AcDbText
 10
147.698792
 20
182.276428
 30
0.0
 40
5.0
  1
弁棒側　低圧側
 72
     5
 11
181.698792
 21
182.276428
 31
0.0
100
AcDbText
  0
TEXT
  5
5CE
100
AcDbEntity
  8
18
100
AcDbText
 10
142.906112
 20
222.087814
 30
0.0
 40
5.0
  1
フラット側　高圧側
 72
     5
 11
186.906112
 21
222.087814
 31
0.0
100
AcDbText
  0
TEXT
  5
5CF
100
AcDbEntity
  8
18
100
AcDbText
 10
329.60881
 20
172.540954
 30
0.0
 40
6.0
  1
Ｄ
 72
     5
 11
334.40881
 21
172.540954
 31
0.0
100
AcDbText
  0
TEXT
  5
5D0
100
AcDbEntity
  8
18
100
AcDbText
 10
252.595154
 20
-274.033538
 30
0.0
 40
6.0
  1
２
 72
     5
 11
257.395154
 21
-274.033538
 31
0.0
100
AcDbText
  0
TEXT
  5
5D1
100
AcDbEntity
  8
18
100
AcDbText
 10
181.078968
 20
194.52201
 30
0.0
 40
3.23
  1
Ｓ
 72
     5
 11
183.662968
 21
194.52201
 31
0.0
100
AcDbText
  0
TEXT
  5
5D2
100
AcDbEntity
  8
18
100
AcDbText
 10
317.213942
 20
207.271862
 30
0.0
 40
4.845
  1
　
 50
45.0
 72
     5
 11
316.528756
 21
206.586676
 31
0.0
100
AcDbText
  0
DIMENSION
  5
5D3
100
AcDbEntity
  8
18
100
AcDbDimension
  2
*D9
 10
335.734382
 20
199.027406
 30
0.0
 11
309.757911
 21
225.712796
 31
0.0
 70
     2
100
AcDb2LineAngularDimension
 13
335.736194
 23
199.029218
 33
0.0
 14
335.736194
 24
199.027406
 34
0.0
 15
335.736194
 25
199.027406
 35
0.0
 16
322.923829
 26
211.839771
 36
0.0
  0
TEXT
  5
5D4
100
AcDbEntity
  8
18
100
AcDbText
 10
316.309926
 20
194.911078
 30
0.0
 40
3.23
  1
Ｏ
 72
     5
 11
318.893926
 21
194.911078
 31
0.0
100
AcDbText
  0
TEXT
  5
5D5
100
AcDbEntity
  8
18
100
AcDbText
 10
337.976642
 20
215.901628
 30
0.0
 40
3.23
  1
Ｓ
 72
     5
 11
340.560642
 21
215.901628
 31
0.0
100
AcDbText
  0
TEXT
  5
5D6
100
AcDbEntity
  8
18
100
AcDbText
 10
271.607588
 20
191.879608
 30
0.0
 40
4.845
  1
　
 50
135.0
 72
     5
 11
272.292774
 21
191.194422
 31
0.0
100
AcDbText
  0
DIMENSION
  5
5D7
100
AcDbEntity
  8
18
100
AcDbDimension
  2
*D10
 10
279.852042
 20
210.40005
 30
0.0
 11
253.873759
 21
185.130686
 31
0.0
 70
     2
100
AcDb2LineAngularDimension
 13
279.85023
 23
210.401862
 33
0.0
 14
279.852042
 24
210.401862
 34
0.0
 15
279.852042
 25
210.401862
 35
0.0
 16
267.039677
 26
197.589497
 36
0.0
  0
TEXT
  5
5D8
100
AcDbEntity
  8
18
100
AcDbText
 10
283.46182
 20
194.046032
 30
0.0
 40
3.23
  1
Ｏ
 50
180.0
 72
     5
 11
280.87782
 21
194.046032
 31
0.0
100
AcDbText
  0
TEXT
  5
5D9
100
AcDbEntity
  8
18
100
AcDbText
 10
262.83582
 20
215.960644
 30
0.0
 40
3.23
  1
Ｓ
 50
180.0
 72
     5
 11
260.25182
 21
215.960644
 31
0.0
100
AcDbText
  0
TEXT
  5
5DA
100
AcDbEntity
  8
18
100
AcDbText
 10
238.054814
 20
200.708946
 30
0.0
 40
4.845
  1
　
 50
225.0
 72
     5
 11
238.74
 21
201.394132
 31
0.0
100
AcDbText
  0
DIMENSION
  5
5DB
100
AcDbEntity
  8
18
100
AcDbDimension
  2
*D11
 10
219.534374
 20
208.953402
 30
0.0
 11
245.510845
 21
182.268012
 31
0.0
 70
     2
100
AcDb2LineAngularDimension
 13
219.532562
 23
208.95159
 33
0.0
 14
219.532562
 24
208.953402
 34
0.0
 15
219.532562
 25
208.953402
 35
0.0
 16
232.344927
 26
196.141037
 36
0.0
  0
TEXT
  5
5DC
100
AcDbEntity
  8
18
100
AcDbText
 10
239.032316
 20
212.756898
 30
0.0
 40
3.23
  1
Ｏ
 50
180.0
 72
     5
 11
236.448316
 21
212.756898
 31
0.0
100
AcDbText
  0
TEXT
  5
5DD
100
AcDbEntity
  8
18
100
AcDbText
 10
216.9453
 20
192.110704
 30
0.0
 40
3.23
  1
Ｓ
 50
180.0
 72
     5
 11
214.3613
 21
192.110704
 31
0.0
100
AcDbText
  0
TEXT
  5
5DE
100
AcDbEntity
  8
18
100
AcDbText
 10
175.08565
 20
211.6717
 30
0.0
 40
3.23
  1
Ｏ
 50
180.0
 72
     5
 11
172.50165
 21
211.6717
 31
0.0
100
AcDbText
  0
TEXT
  5
5DF
100
AcDbEntity
  8
18
100
AcDbText
 10
244.375148
 20
-246.070526
 30
0.0
 40
6.0
  1
３０２Ｙ／３０４Ｙ－１ＴＡＳ　５０Ａ
 72
     5
 11
351.175148
 21
-246.070526
 31
0.0
100
AcDbText
  0
TEXT
  5
5E0
100
AcDbEntity
  8
18
100
AcDbText
 10
359.736388
 20
-253.837098
 30
0.0
 40
4.5
  1
′０５．　７．２０
 72
     5
 11
399.336388
 21
-253.837098
 31
0.0
100
AcDbText
  0
TEXT
  5
5E1
100
AcDbEntity
  8
18
100
AcDbText
 10
307.2
 20
-272.0
 30
0.0
 40
10.0
  1
Ｄ３－０３８１３
 72
     5
 11
385.2
 21
-272.0
 31
0.0
100
AcDbText
  0
LINE
  5
5E2
100
AcDbEntity
  8
20
 62
     3
100
AcDbLine
 10
-360.0
 20
-277.0
 30
0.0
 11
400.0
 21
-277.0
 31
0.0
  0
LINE
  5
5E3
100
AcDbEntity
  8
20
 62
     3
100
AcDbLine
 10
-360.0
 20
264.0
 30
0.0
 11
400.0
 21
264.0
 31
0.0
  0
LINE
  5
5E4
100
AcDbEntity
  8
20
 62
     3
100
AcDbLine
 10
-360.0
 20
264.0
 30
0.0
 11
-360.0
 21
-277.0
 31
0.0
  0
LINE
  5
5E5
100
AcDbEntity
  8
20
 62
     3
100
AcDbLine
 10
400.0
 20
264.0
 30
0.0
 11
400.0
 21
-277.0
 31
0.0
  0
LINE
  5
5E6
100
AcDbEntity
  8
20
 62
     3
100
AcDbLine
 10
120.0
 20
-277.0
 30
0.0
 11
120.0
 21
-237.0
 31
0.0
  0
LINE
  5
5E7
100
AcDbEntity
  8
20
 62
     3
100
AcDbLine
 10
214.0
 20
-277.0
 30
0.0
 11
214.0
 21
-237.0
 31
0.0
  0
LINE
  5
5E8
100
AcDbEntity
  8
20
100
AcDbLine
 10
214.0
 20
-257.0
 30
0.0
 11
400.0
 21
-257.0
 31
0.0
  0
LINE
  5
5E9
100
AcDbEntity
  8
20
 62
     3
100
AcDbLine
 10
120.0
 20
-237.0
 30
0.0
 11
400.0
 21
-237.0
 31
0.0
  0
LINE
  5
5EA
100
AcDbEntity
  8
20
100
AcDbLine
 10
360.0
 20
-257.0
 30
0.0
 11
360.0
 21
-237.0
 31
0.0
  0
LINE
  5
5EB
100
AcDbEntity
  8
20
100
AcDbLine
 10
360.0
 20
-247.0
 30
0.0
 11
400.0
 21
-247.0
 31
0.0
  0
LINE
  5
5EC
100
AcDbEntity
  8
20
100
AcDbLine
 10
242.0
 20
-277.0
 30
0.0
 11
242.0
 21
-237.0
 31
0.0
  0
LINE
  5
5ED
100
AcDbEntity
  8
20
100
AcDbLine
 10
262.0
 20
-277.0
 30
0.0
 11
262.0
 21
-257.0
 31
0.0
  0
LINE
  5
5EE
100
AcDbEntity
  8
20
100
AcDbLine
 10
302.0
 20
-277.0
 30
0.0
 11
302.0
 21
-257.0
 31
0.0
  0
LINE
  5
5EF
100
AcDbEntity
  8
20
100
AcDbLine
 10
247.45683
 20
-271.54317
 30
0.0
 11
255.796582
 21
-263.203418
 31
0.0
  0
TEXT
  5
5F0
100
AcDbEntity
  8
20
100
AcDbText
 10
263.066658
 20
-264.993836
 30
0.0
 40
3.6
  1
ＤＲＡＷＩＮＧ　ＮＯ．
 72
     5
 11
301.946658
 21
-264.993836
 31
0.0
100
AcDbText
  0
TEXT
  5
5F1
100
AcDbEntity
  8
20
100
AcDbText
 10
267.0
 20
-273.0
 30
0.0
 40
6.0
  1
図　　　番
 72
     5
 11
295.8
 21
-273.0
 31
0.0
100
AcDbText
  0
TEXT
  5
5F2
100
AcDbEntity
  8
20
100
AcDbText
 10
372.0
 20
-244.0
 30
0.0
 40
4.0
  1
ＤＡＴＥ
 72
     5
 11
387.2
 21
-244.0
 31
0.0
100
AcDbText
  0
TEXT
  5
5F3
100
AcDbEntity
  8
20
100
AcDbText
 10
218.002142
 20
-265.922058
 30
0.0
 40
4.0
  1
ＳＣＡＬＥ
 72
     5
 11
237.202142
 21
-265.922058
 31
0.0
100
AcDbText
  0
TEXT
  5
5F4
100
AcDbEntity
  8
20
100
AcDbText
 10
216.0
 20
-273.0
 30
0.0
 40
6.0
  1
尺　　度
 72
     5
 11
238.8
 21
-273.0
 31
0.0
100
AcDbText
  0
TEXT
  5
5F5
100
AcDbEntity
  8
20
100
AcDbText
 10
215.002142
 20
-244.99177
 30
0.0
 40
4.0
  1
ＦＩＧ．ＮＯ．
 72
     5
 11
242.202142
 21
-244.99177
 31
0.0
100
AcDbText
  0
TEXT
  5
5F6
100
AcDbEntity
  8
20
100
AcDbText
 10
216.0
 20
-253.0
 30
0.0
 40
6.0
  1
名　　称
 72
     5
 11
238.8
 21
-253.0
 31
0.0
100
AcDbText
  0
TEXT
  5
5F7
100
AcDbEntity
  8
20
100
AcDbText
 10
121.13105
 20
-252.940506
 30
0.0
 40
4.6
  1
ＴＯＭＯＥ　ＶＡＬＶＥ　ＣＯ．，ＬＴＤ．
 72
     5
 11
212.21105
 21
-252.940506
 31
0.0
100
AcDbText
  0
TEXT
  5
5F8
100
AcDbEntity
  8
20
100
AcDbText
 10
135.0
 20
-266.57962
 30
0.0
 40
8.0
  1
巴バルブ株式会社
 72
     5
 11
197.4
 21
-266.57962
 31
0.0
100
AcDbText
  0
ENDSEC
  0
SECTION
  2
OBJECTS
  0
DICTIONARY
  5
684
100
AcDbDictionary
  3
ACAD_GROUP
350
685
  3
ACAD_MLINESTYLE
350
686
  0
DICTIONARY
  5
685
102
{ACAD_REACTORS
330
684
102
}
100
AcDbDictionary
  0
DICTIONARY
  5
686
102
{ACAD_REACTORS
330
684
102
}
100
AcDbDictionary
  3
STANDARD
350
687
  0
MLINESTYLE
  5
687
102
{ACAD_REACTORS
330
686
102
}
100
AcDbMlineStyle
  2
STANDARD
 70
     0
  3

 62
     0
 51
90.0
 52
90.0
 71
     2
 49
0.5
 62
   256
  6
BYLAYER
 49
-0.5
 62
   256
  6
BYLAYER
  0
ENDSEC
  0
EOF
