  0
SECTION
  2
HEADER
  9
$ACADVER
  1
AC1012
  9
$DWGCODEPAGE
  3
ansi_932
  9
$INSBASE
 10
0.0
 20
0.0
 30
0.0
  9
$EXTMIN
 10
-420.0
 20
-297.0
 30
1.000000E+20
  9
$EXTMAX
 10
420.0
 20
297.0
 30
-1.000000E+20
  9
$LIMMIN
 10
-420.0
 20
-297.0
  9
$LIMMAX
 10
420.0
 20
297.0
  9
$ORTHOMODE
 70
     0
  9
$REGENMODE
 70
     1
  9
$FILLMODE
 70
     1
  9
$QTEXTMODE
 70
     0
  9
$MIRRTEXT
 70
     1
  9
$DRAGMODE
 70
     2
  9
$LTSCALE
 40
1.0
  9
$OSMODE
 70
     0
  9
$ATTMODE
 70
     1
  9
$TEXTSIZE
 40
0.2
  9
$TRACEWID
 40
0.05
  9
$TEXTSTYLE
  7
STANDARD
  9
$CLAYER
  8
0
  9
$CELTYPE
  6
CONTINUOUS
  9
$CECOLOR
 62
   256
  9
$CELTSCALE
 40
1.0
  9
$DELOBJ
 70
     1
  9
$DISPSILH
 70
     0
  9
$DIMSCALE
 40
2.0
  9
$DIMASZ
 40
0.18
  9
$DIMEXO
 40
0.0625
  9
$DIMDLI
 40
0.38
  9
$DIMRND
 40
0.0
  9
$DIMDLE
 40
0.0
  9
$DIMEXE
 40
0.18
  9
$DIMTP
 40
0.0
  9
$DIMTM
 40
0.0
  9
$DIMTXT
 40
0.18
  9
$DIMCEN
 40
0.09
  9
$DIMTSZ
 40
0.0
  9
$DIMTOL
 70
     0
  9
$DIMLIM
 70
     0
  9
$DIMTIH
 70
     1
  9
$DIMTOH
 70
     1
  9
$DIMSE1
 70
     0
  9
$DIMSE2
 70
     0
  9
$DIMTAD
 70
     1
  9
$DIMZIN
 70
     0
  9
$DIMBLK
  1

  9
$DIMASO
 70
     1
  9
$DIMSHO
 70
     1
  9
$DIMPOST
  1

  9
$DIMAPOST
  1

  9
$DIMALT
 70
     0
  9
$DIMALTD
 70
     2
  9
$DIMALTF
 40
25.4
  9
$DIMLFAC
 40
1.0
  9
$DIMTOFL
 70
     0
  9
$DIMTVP
 40
0.0
  9
$DIMTIX
 70
     0
  9
$DIMSOXD
 70
     0
  9
$DIMSAH
 70
     0
  9
$DIMBLK1
  1

  9
$DIMBLK2
  1

  9
$DIMSTYLE
  2
STANDARD
  9
$DIMCLRD
 70
     0
  9
$DIMCLRE
 70
     0
  9
$DIMCLRT
 70
     0
  9
$DIMTFAC
 40
1.0
  9
$DIMGAP
 40
0.09
  9
$DIMJUST
 70
     0
  9
$DIMSD1
 70
     0
  9
$DIMSD2
 70
     0
  9
$DIMTOLJ
 70
     1
  9
$DIMTZIN
 70
     0
  9
$DIMALTZ
 70
     0
  9
$DIMALTTZ
 70
     0
  9
$DIMFIT
 70
     3
  9
$DIMUPT
 70
     0
  9
$DIMUNIT
 70
     2
  9
$DIMDEC
 70
     4
  9
$DIMTDEC
 70
     4
  9
$DIMALTU
 70
     2
  9
$DIMALTTD
 70
     2
  9
$DIMTXSTY
  7
STANDARD
  9
$DIMAUNIT
 70
     0
  9
$LUNITS
 70
     2
  9
$LUPREC
 70
     4
  9
$SKETCHINC
 40
0.1
  9
$FILLETRAD
 40
0.0
  9
$AUNITS
 70
     0
  9
$AUPREC
 70
     0
  9
$MENU
  1
acad
  9
$ELEVATION
 40
0.0
  9
$PELEVATION
 40
0.0
  9
$THICKNESS
 40
0.0
  9
$LIMCHECK
 70
     0
  9
$BLIPMODE
 70
     1
  9
$CHAMFERA
 40
0.0
  9
$CHAMFERB
 40
0.0
  9
$CHAMFERC
 40
0.0
  9
$CHAMFERD
 40
0.0
  9
$SKPOLY
 70
     0
  9
$TDCREATE
 40
2451320.000000000
  9
$TDUPDATE
 40
0.000000000
  9
$TDINDWG
 40
0.0000000000
  9
$TDUSRTIMER
 40
0.0000000000
  9
$USRTIMER
 70
     1
  9
$ANGBASE
 50
0.0
  9
$ANGDIR
 70
     0
  9
$PDMODE
 70
     0
  9
$PDSIZE
 40
0.0
  9
$PLINEWID
 40
0.0
  9
$COORDS
 70
     0
  9
$SPLFRAME
 70
     0
  9
$SPLINETYPE
 70
     6
  9
$SPLINESEGS
 70
     8
  9
$ATTDIA
 70
     0
  9
$ATTREQ
 70
     1
  9
$HANDLING
 70
     1
  9
$HANDSEED
  5
665
  9
$SURFTAB1
 70
     6
  9
$SURFTAB2
 70
     6
  9
$SURFTYPE
 70
     6
  9
$SURFU
 70
     6
  9
$SURFV
 70
     6
  9
$UCSNAME
  2

  9
$UCSORG
 10
0.0
 20
0.0
 30
0.0
  9
$UCSXDIR
 10
1.0
 20
0.0
 30
0.0
  9
$UCSYDIR
 10
0.0
 20
1.0
 30
0.0
  9
$PUCSNAME
  2

  9
$PUCSORG
 10
0.0
 20
0.0
 30
0.0
  9
$PUCSXDIR
 10
1.0
 20
0.0
 30
0.0
  9
$PUCSYDIR
 10
0.0
 20
1.0
 30
0.0
  9
$USERI1
 70
     0
  9
$USERI2
 70
     0
  9
$USERI3
 70
     0
  9
$USERI4
 70
     0
  9
$USERI5
 70
     0
  9
$USERR1
 40
0.0
  9
$USERR2
 40
0.0
  9
$USERR3
 40
0.0
  9
$USERR4
 40
0.0
  9
$USERR5
 40
0.0
  9
$WORLDVIEW
 70
     1
  9
$SHADEDGE
 70
     3
  9
$SHADEDIF
 70
    70
  9
$TILEMODE
 70
     1
  9
$MAXACTVP
 70
    16
  9
$PINSBASE
 10
0.0
 20
0.0
 30
0.0
  9
$PLIMCHECK
 70
     0
  9
$PEXTMIN
 10
1.000000E+20
 20
1.000000E+20
 30
1.000000E+20
  9
$PEXTMAX
 10
-1.000000E+20
 20
-1.000000E+20
 30
-1.000000E+20
  9
$PLIMMIN
 10
0.0
 20
0.0
  9
$PLIMMAX
 10
12.0
 20
9.0
  9
$UNITMODE
 70
     0
  9
$VISRETAIN
 70
     0
  9
$PLINEGEN
 70
     1
  9
$PSLTSCALE
 70
     0
  9
$TREEDEPTH
 70
  3020
  9
$PICKSTYLE
 70
     1
  9
$CMLSTYLE
  2
STANDARD
  9
$CMLJUST
 70
     0
  9
$CMLSCALE
 40
1.0
  9
$SAVEIMAGES
 70
     0
  0
ENDSEC
  0
SECTION
  2
CLASSES
  0
CLASS
  1
LWPOLYLINE
  2
AcDbPolyline
  3
"AutoCAD"
 90
    32768
280
     0
281
     1
  0
CLASS
  1
IMAGE
  2
AcDbRasterImage
  3
ISM
 90
    32895
280
     0
281
     1
  0
CLASS
  1
OLE2FRAME
  2
AcDbOle2Frame
  3
""
 90
    32768
280
     0
281
     1
  0
CLASS
  1
HATCH
  2
AcDbHatch
  3
"ACAD_SEDONA"
 90
    32768
280
     0
281
     1
  0
CLASS
  1
DICTIONARYVAR
  2
AcDbDictionaryVar
  3
"AutoCAD"
 90
    32768
280
     0
281
     0
  0
CLASS
  1
RASTERVARIABLES
  2
AcDbRasterVariables
  3
ISM
 90
    32768
280
     0
281
     0
  0
CLASS
  1
IMAGEDEF
  2
AcDbRasterImageDef
  3
ISM
 90
    32768
280
     0
281
     0
  0
CLASS
  1
IMAGEDEF_REACTOR
  2
AcDbRasterImageDefReactor
  3
ISM
 90
    32769
280
     0
281
     0
  0
CLASS
  1
IDBUFFER
  2
AcDbIdBuffer
  3
"Acad"
 90
    32768
280
     0
281
     0
  0
CLASS
  1
SPATIAL_FILTER
  2
AcDbSpatialFilter
  3
"Acad"
 90
    32768
280
     0
281
     0
  0
CLASS
  1
XRECORD
  2
AcDbXrecord
  3
"<Built In>"
 90
    32768
280
     0
281
     0
  0
CLASS
  1
SORTENTSTABLE
  2
AcDbSortentsTable
  3
"AutoCAD"
 90
    32768
280
     0
281
     0
  0
CLASS
  1
LAYER_INDEX
  2
AcDbLayerIndex
  3
"Acad"
 90
    32768
280
     0
281
     0
  0
CLASS
  1
SPATIAL_INDEX
  2
AcDbSpatialIndex
  3
"Acad"
 90
    32768
280
     0
281
     0
  0
CLASS
  1
OBJECT_PTR
  2
CAseDLPNTableRecord
  3
"ASE-LPNTableRecord"
 90
    32769
280
     0
281
     0
  0
CLASS
  1
LAYOUT
  2
AcDbLayout
  3
"AutoCAD 2000"
 90
    32768
280
     0
281
     0
  0
CLASS
  1
PLOTSETTINGS
  2
AcDbPlotSettings
  3
"AutoCAD 2000"
 90
    32768
280
     0
281
     0
  0
CLASS
  1
ACDBDICTIONARYWDFLT
  2
AcDbDictionaryWithDefault
  3
"AutoCAD 2000"
 90
    32768
280
     0
281
     0
  0
CLASS
  1
ACDBPLACEHOLDER
  2
AcDbPlaceHolder
  3
"AutoCAD 2000"
 90
    32768
280
     0
281
     0
  0
CLASS
  1
VBA_PROJECT
  2
AcDbVbaProject
  3
"acadvba"
 90
    32768
280
     0
281
     0
  0
CLASS
  1
WIPEOUT
  2
AcDbWipeout
  3
WipeOut|AutoCAD Express Tool|expresstools@autodesk.com
 90
    32895
280
     0
281
     1
  0
CLASS
  1
WIPEOUTVARIABLES
  2
AcDbWipeoutVariables
  3
WipeOut|AutoCAD Express Tool|expresstools@autodesk.com
 90
    32768
280
     0
281
     0
  0
CLASS
  1
RTEXT
  2
RText
  3
RText|AutoCAD Express Tool|expresstools@autodesk.com
 90
    32768
280
     0
281
     1
  0
CLASS
  1
ARCALIGNEDTEXT
  2
AcDbArcAlignedText
  3
ATEXT|AutoCAD Express Tool|expresstools@autodesk.com
 90
    32768
280
     0
281
     1
  0
ENDSEC
  0
SECTION
  2
TABLES
  0
TABLE
  2
VPORT
  5
6
100
AcDbSymbolTable
 70
     1
  0
VPORT
  5
1D
100
AcDbSymbolTableRecord
100
AcDbViewportTableRecord
  2
*ACTIVE
 70
     0
 10
0.0
 20
0.0
 11
1.0
 21
1.0
 12
0.0
 22
0.0
 13
0.0
 23
0.0
 14
1.0
 24
1.0
 15
0.0
 25
0.0
 16
0.0
 26
0.0
 36
1.0
 17
0.0
 27
0.0
 37
0.0
 40
594.0
 41
1.414141
 42
50.0
 43
0.0
 44
0.0
 50
0.0
 51
0.0
 71
     0
 72
   500
 73
     1
 74
     1
 75
     0
 76
     0
 77
     0
 78
     0
  0
ENDTAB
  0
TABLE
  2
LTYPE
  5
3
100
AcDbSymbolTable
 70
     9
  0
LTYPE
  5
C
100
AcDbSymbolTableRecord
100
AcDbLinetypeTableRecord
  2
BYBLOCK
 70
    64
  3

 72
    65
 73
     0
 40
0.0
  0
LTYPE
  5
D
100
AcDbSymbolTableRecord
100
AcDbLinetypeTableRecord
  2
BYLAYER
 70
    64
  3

 72
    65
 73
     0
 40
0.0
  0
LTYPE
  5
E
100
AcDbSymbolTableRecord
100
AcDbLinetypeTableRecord
  2
CONTINUOUS
 70
     0
  3
Solid line
 72
    65
 73
     0
 40
0.0
  0
LTYPE
  5
F
100
AcDbSymbolTableRecord
100
AcDbLinetypeTableRecord
  2
DASHED
 70
     0
  3
__ __ __ __ __ __ __ __ __ __ __ __ __ __ __
 72
    65
 73
     2
 40
2.0
 49
1.2
 74
     0
 49
-0.8
 74
     0
  0
LTYPE
  5
10
100
AcDbSymbolTableRecord
100
AcDbLinetypeTableRecord
  2
CENTER
 70
     0
  3
____ _ ____ _ ____ _ ____ _ ____ _ ____ _ ____
 72
    65
 73
     4
 40
12.0
 49
9.0
 74
     0
 49
-1.0
 74
     0
 49
1.0
 74
     0
 49
-1.0
 74
     0
  0
LTYPE
  5
11
100
AcDbSymbolTableRecord
100
AcDbLinetypeTableRecord
  2
HIDDEN
 70
     0
  3
_ _ _ _ _ _ _ _ _ _ _ _ _ _ _ _ _ _ _ _ _ _ _
 72
    65
 73
     2
 40
3.2
 49
2.4
 74
     0
 49
-0.8
 74
     0
  0
LTYPE
  5
12
100
AcDbSymbolTableRecord
100
AcDbLinetypeTableRecord
  2
PHANTOM
 70
     0
  3
_____ _ _ _____ _ _ _____ _ _ _____ _ _ _____
 72
    65
 73
     6
 40
13.5
 49
9.0
 74
     0
 49
-1.0
 74
     0
 49
1.0
 74
     0
 49
-0.5
 74
     0
 49
1.0
 74
     0
 49
-1.0
 74
     0
  0
LTYPE
  5
13
100
AcDbSymbolTableRecord
100
AcDbLinetypeTableRecord
  2
DOT
 70
     0
  3
...............................................
 72
    65
 73
     2
 40
1.0
 49
0.5
 74
     0
 49
-0.5
 74
     0
  0
LTYPE
  5
14
100
AcDbSymbolTableRecord
100
AcDbLinetypeTableRecord
  2
DASHDOT
 70
     0
  3
__ . __ . __ . __ . __ . __ . __ . __ . __ . __
 72
    65
 73
     4
 40
8.0
 49
5.0
 74
     0
 49
-1.0
 74
     0
 49
1.0
 74
     0
 49
-1.0
 74
     0
  0
ENDTAB
  0
TABLE
  2
LAYER
  5
1
100
AcDbSymbolTable
 70
     8
  0
LAYER
  5
15
100
AcDbSymbolTableRecord
100
AcDbLayerTableRecord
  2
0
 70
     0
 62
     7
  6
CONTINUOUS
  0
LAYER
  5
16
100
AcDbSymbolTableRecord
100
AcDbLayerTableRecord
  2
1
 70
     0
 62
     7
  6
CONTINUOUS
  0
LAYER
  5
17
100
AcDbSymbolTableRecord
100
AcDbLayerTableRecord
  2
2
 70
     0
 62
     7
  6
CONTINUOUS
  0
LAYER
  5
18
100
AcDbSymbolTableRecord
100
AcDbLayerTableRecord
  2
3
 70
     0
 62
     7
  6
CONTINUOUS
  0
LAYER
  5
19
100
AcDbSymbolTableRecord
100
AcDbLayerTableRecord
  2
4
 70
     0
 62
     7
  6
CONTINUOUS
  0
LAYER
  5
1A
100
AcDbSymbolTableRecord
100
AcDbLayerTableRecord
  2
5
 70
     0
 62
     7
  6
CONTINUOUS
  0
LAYER
  5
1B
100
AcDbSymbolTableRecord
100
AcDbLayerTableRecord
  2
18
 70
     0
 62
     7
  6
CONTINUOUS
  0
LAYER
  5
1C
100
AcDbSymbolTableRecord
100
AcDbLayerTableRecord
  2
20
 70
     0
 62
     7
  6
CONTINUOUS
  0
ENDTAB
  0
TABLE
  2
STYLE
  5
2
100
AcDbSymbolTable
 70
     1
  0
STYLE
  5
1F
100
AcDbSymbolTableRecord
100
AcDbTextStyleTableRecord
  2
STANDARD
 70
    64
 40
0.0
 41
1.0
 50
0.0
 71
     0
 42
1.0
  3
txt
  4
BIGFONT
  0
ENDTAB
  0
TABLE
  2
VIEW
  5
4
100
AcDbSymbolTable
 70
     0
  0
ENDTAB
  0
TABLE
  2
UCS
  5
5
100
AcDbSymbolTable
 70
     0
  0
ENDTAB
  0
TABLE
  2
APPID
  5
7
100
AcDbSymbolTable
 70
     1
  0
APPID
  5
1E
100
AcDbSymbolTableRecord
100
AcDbRegAppTableRecord
  2
ACAD
 70
     0
  0
ENDTAB
  0
TABLE
  2
DIMSTYLE
  5
8
100
AcDbSymbolTable
 70
     1
  0
DIMSTYLE
105
33
100
AcDbSymbolTableRecord
100
AcDbDimStyleTableRecord
  2
STANDARD
 70
     0
  3

  4

  5

  6

  7

 40
2.0
 41
0.18
 42
0.0625
 43
0.38
 44
0.18
 45
0.0
 46
0.0
 47
0.0
 48
0.0
 71
     0
 72
     0
 73
     1
 74
     1
 75
     0
 76
     0
 77
     1
 78
     0
140
0.18
141
0.09
142
0.0
143
25.4
144
1.0
145
0.0
146
1.0
147
0.09
170
     0
171
     2
172
     0
173
     0
174
     0
175
     0
176
     0
177
     0
178
     0
270
     2
271
     4
272
     4
273
     2
274
     2
275
     0
280
     0
281
     0
282
     0
283
     1
284
     0
285
     0
286
     0
287
     3
288
     0
340
1F
  0
ENDTAB
  0
TABLE
  2
BLOCK_RECORD
  5
2E
100
AcDbSymbolTable
 70
    12
  0
BLOCK_RECORD
  5
2C
100
AcDbSymbolTableRecord
100
AcDbBlockTableRecord
  2
*MODEL_SPACE
  0
BLOCK_RECORD
  5
2D
100
AcDbSymbolTableRecord
100
AcDbBlockTableRecord
  2
*PAPER_SPACE
  0
BLOCK_RECORD
  5
20
100
AcDbSymbolTableRecord
100
AcDbBlockTableRecord
  2
*D0
  0
BLOCK_RECORD
  5
21
100
AcDbSymbolTableRecord
100
AcDbBlockTableRecord
  2
*D1
  0
BLOCK_RECORD
  5
22
100
AcDbSymbolTableRecord
100
AcDbBlockTableRecord
  2
*D2
  0
BLOCK_RECORD
  5
23
100
AcDbSymbolTableRecord
100
AcDbBlockTableRecord
  2
*D3
  0
BLOCK_RECORD
  5
24
100
AcDbSymbolTableRecord
100
AcDbBlockTableRecord
  2
*D4
  0
BLOCK_RECORD
  5
25
100
AcDbSymbolTableRecord
100
AcDbBlockTableRecord
  2
*D5
  0
BLOCK_RECORD
  5
26
100
AcDbSymbolTableRecord
100
AcDbBlockTableRecord
  2
*D6
  0
BLOCK_RECORD
  5
27
100
AcDbSymbolTableRecord
100
AcDbBlockTableRecord
  2
*D7
  0
BLOCK_RECORD
  5
28
100
AcDbSymbolTableRecord
100
AcDbBlockTableRecord
  2
*D8
  0
BLOCK_RECORD
  5
29
100
AcDbSymbolTableRecord
100
AcDbBlockTableRecord
  2
*D9
  0
BLOCK_RECORD
  5
2A
100
AcDbSymbolTableRecord
100
AcDbBlockTableRecord
  2
*D10
  0
BLOCK_RECORD
  5
2B
100
AcDbSymbolTableRecord
100
AcDbBlockTableRecord
  2
*D11
  0
ENDTAB
  0
ENDSEC
  0
SECTION
  2
BLOCKS
  0
BLOCK
  5
2F
100
AcDbEntity
  8
0
100
AcDbBlockBegin
  2
*MODEL_SPACE
 70
     0
 10
0.0
 20
0.0
 30
0.0
  3
*MODEL_SPACE
  1

  0
ENDBLK
  5
30
100
AcDbEntity
  8
0
100
AcDbBlockEnd
  0
BLOCK
  5
31
100
AcDbEntity
 67
     1
  8
0
100
AcDbBlockBegin
  2
*PAPER_SPACE
 70
     0
 10
0.0
 20
0.0
 30
0.0
  3
*PAPER_SPACE
  1

  0
ENDBLK
  5
32
100
AcDbEntity
 67
     1
  8
0
100
AcDbBlockEnd
  0
BLOCK
  5
5D8
100
AcDbEntity
  8
5
100
AcDbBlockBegin
  2
*D0
 70
     1
 10
0.0
 20
0.0
 30
0.0
  3
*D0
  1

  0
TEXT
  5
5D9
100
AcDbEntity
  8
5
 62
     2
100
AcDbText
 10
-322.153503
 20
207.27096
 30
0.0
 40
6.6
  1
75
 50
90.0
 41
1.4
 72
     5
 11
-322.153503
 21
214.66296
 31
0.0
100
AcDbText
  0
LINE
  5
5DA
100
AcDbEntity
  8
5
 62
     2
100
AcDbLine
 10
-313.195539
 20
174.39096
 30
0.0
 11
-323.153503
 21
174.39096
 31
0.0
  0
LINE
  5
5DB
100
AcDbEntity
  8
5
 62
     2
100
AcDbLine
 10
-321.153503
 20
174.39096
 30
0.0
 11
-320.118227
 21
178.254663
 31
0.0
  0
LINE
  5
5DC
100
AcDbEntity
  8
5
 62
     2
100
AcDbLine
 10
-321.153503
 20
174.39096
 30
0.0
 11
-322.18878
 21
178.254663
 31
0.0
  0
LINE
  5
5DD
100
AcDbEntity
  8
5
 62
     2
100
AcDbLine
 10
-320.118227
 20
178.254663
 30
0.0
 11
-322.18878
 21
178.254663
 31
0.0
  0
LINE
  5
5DE
100
AcDbEntity
  8
5
 62
     2
100
AcDbLine
 10
-321.153503
 20
174.39096
 30
0.0
 11
-321.153503
 21
249.39096
 31
0.0
  0
LINE
  5
5DF
100
AcDbEntity
  8
5
 62
     2
100
AcDbLine
 10
-321.153503
 20
249.39096
 30
0.0
 11
-322.18878
 21
245.527257
 31
0.0
  0
LINE
  5
5E0
100
AcDbEntity
  8
5
 62
     2
100
AcDbLine
 10
-321.153503
 20
249.39096
 30
0.0
 11
-320.118227
 21
245.527257
 31
0.0
  0
LINE
  5
5E1
100
AcDbEntity
  8
5
 62
     2
100
AcDbLine
 10
-322.18878
 20
245.527257
 30
0.0
 11
-320.118227
 21
245.527257
 31
0.0
  0
LINE
  5
5E2
100
AcDbEntity
  8
5
 62
     2
100
AcDbLine
 10
-264.172494
 20
249.39096
 30
0.0
 11
-323.153503
 21
249.39096
 31
0.0
  0
ENDBLK
  5
5E3
100
AcDbEntity
  8
5
100
AcDbBlockEnd
  0
BLOCK
  5
5E4
100
AcDbEntity
  8
5
100
AcDbBlockBegin
  2
*D1
 70
     1
 10
0.0
 20
0.0
 30
0.0
  3
*D1
  1

  0
TEXT
  5
5E5
100
AcDbEntity
  8
5
 62
     2
100
AcDbText
 10
-322.153503
 20
144.77096
 30
0.0
 40
6.6
  1
50
 50
90.0
 41
1.4
 72
     5
 11
-322.153503
 21
152.16296
 31
0.0
100
AcDbText
  0
LINE
  5
5E6
100
AcDbEntity
  8
5
 62
     2
100
AcDbLine
 10
-249.172494
 20
124.39096
 30
0.0
 11
-323.153503
 21
124.39096
 31
0.0
  0
LINE
  5
5E7
100
AcDbEntity
  8
5
 62
     2
100
AcDbLine
 10
-321.153503
 20
124.39096
 30
0.0
 11
-320.118227
 21
128.254663
 31
0.0
  0
LINE
  5
5E8
100
AcDbEntity
  8
5
 62
     2
100
AcDbLine
 10
-321.153503
 20
124.39096
 30
0.0
 11
-322.18878
 21
128.254663
 31
0.0
  0
LINE
  5
5E9
100
AcDbEntity
  8
5
 62
     2
100
AcDbLine
 10
-320.118227
 20
128.254663
 30
0.0
 11
-322.18878
 21
128.254663
 31
0.0
  0
LINE
  5
5EA
100
AcDbEntity
  8
5
 62
     2
100
AcDbLine
 10
-321.153503
 20
124.39096
 30
0.0
 11
-321.153503
 21
174.39096
 31
0.0
  0
LINE
  5
5EB
100
AcDbEntity
  8
5
 62
     2
100
AcDbLine
 10
-321.153503
 20
174.39096
 30
0.0
 11
-322.18878
 21
170.527257
 31
0.0
  0
LINE
  5
5EC
100
AcDbEntity
  8
5
 62
     2
100
AcDbLine
 10
-321.153503
 20
174.39096
 30
0.0
 11
-320.118227
 21
170.527257
 31
0.0
  0
LINE
  5
5ED
100
AcDbEntity
  8
5
 62
     2
100
AcDbLine
 10
-322.18878
 20
170.527257
 30
0.0
 11
-320.118227
 21
170.527257
 31
0.0
  0
ENDBLK
  5
5EE
100
AcDbEntity
  8
5
100
AcDbBlockEnd
  0
BLOCK
  5
5EF
100
AcDbEntity
  8
5
100
AcDbBlockBegin
  2
*D2
 70
     1
 10
0.0
 20
0.0
 30
0.0
  3
*D2
  1

  0
LINE
  5
5F0
100
AcDbEntity
  8
5
 62
     2
100
AcDbLine
 10
-247.172494
 20
74.421382
 30
0.0
 11
-247.172494
 21
101.386307
 31
0.0
  0
LINE
  5
5F1
100
AcDbEntity
  8
5
 62
     2
100
AcDbLine
 10
-247.172494
 20
99.386307
 30
0.0
 11
-243.308791
 21
98.351031
 31
0.0
  0
LINE
  5
5F2
100
AcDbEntity
  8
5
 62
     2
100
AcDbLine
 10
-247.172494
 20
99.386307
 30
0.0
 11
-243.308791
 21
100.421583
 31
0.0
  0
LINE
  5
5F3
100
AcDbEntity
  8
5
 62
     2
100
AcDbLine
 10
-243.308791
 20
98.351031
 30
0.0
 11
-243.308791
 21
100.421583
 31
0.0
  0
LINE
  5
5F4
100
AcDbEntity
  8
5
 62
     2
100
AcDbLine
 10
-247.172494
 20
99.386307
 30
0.0
 11
-47.333124
 21
99.386307
 31
0.0
  0
LINE
  5
5F5
100
AcDbEntity
  8
5
 62
     2
100
AcDbLine
 10
-47.333124
 20
99.386307
 30
0.0
 11
-51.196828
 21
100.421583
 31
0.0
  0
LINE
  5
5F6
100
AcDbEntity
  8
5
 62
     2
100
AcDbLine
 10
-47.333124
 20
99.386307
 30
0.0
 11
-51.196828
 21
98.351031
 31
0.0
  0
LINE
  5
5F7
100
AcDbEntity
  8
5
 62
     2
100
AcDbLine
 10
-51.196828
 20
100.421583
 30
0.0
 11
-51.196828
 21
98.351031
 31
0.0
  0
LINE
  5
5F8
100
AcDbEntity
  8
5
 62
     2
100
AcDbLine
 10
-47.333124
 20
84.776892
 30
0.0
 11
-47.333124
 21
101.386307
 31
0.0
  0
ENDBLK
  5
5F9
100
AcDbEntity
  8
5
100
AcDbBlockEnd
  0
BLOCK
  5
5FA
100
AcDbEntity
  8
5
100
AcDbBlockBegin
  2
*D3
 70
     1
 10
0.0
 20
0.0
 30
0.0
  3
*D3
  1

  0
TEXT
  5
5FB
100
AcDbEntity
  8
5
 62
     2
100
AcDbText
 10
15.70335
 20
6.728664
 30
0.0
 40
6.6
  1
25
 50
90.0
 41
1.4
 72
     5
 11
15.70335
 21
14.120664
 31
0.0
100
AcDbText
  0
LINE
  5
5FC
100
AcDbEntity
  8
5
 62
     2
100
AcDbLine
 10
51.264598
 20
-1.151336
 30
0.0
 11
14.70335
 21
-1.151336
 31
0.0
  0
LINE
  5
5FD
100
AcDbEntity
  8
5
 62
     2
100
AcDbLine
 10
16.70335
 20
-1.151336
 30
0.0
 11
17.738626
 21
2.712367
 31
0.0
  0
LINE
  5
5FE
100
AcDbEntity
  8
5
 62
     2
100
AcDbLine
 10
16.70335
 20
-1.151336
 30
0.0
 11
15.668074
 21
2.712367
 31
0.0
  0
LINE
  5
5FF
100
AcDbEntity
  8
5
 62
     2
100
AcDbLine
 10
17.738626
 20
2.712367
 30
0.0
 11
15.668074
 21
2.712367
 31
0.0
  0
LINE
  5
600
100
AcDbEntity
  8
5
 62
     2
100
AcDbLine
 10
16.70335
 20
-1.151336
 30
0.0
 11
16.70335
 21
23.848664
 31
0.0
  0
LINE
  5
601
100
AcDbEntity
  8
5
 62
     2
100
AcDbLine
 10
16.70335
 20
23.848664
 30
0.0
 11
15.668074
 21
19.984961
 31
0.0
  0
LINE
  5
602
100
AcDbEntity
  8
5
 62
     2
100
AcDbLine
 10
16.70335
 20
23.848664
 30
0.0
 11
17.738626
 21
19.984961
 31
0.0
  0
LINE
  5
603
100
AcDbEntity
  8
5
 62
     2
100
AcDbLine
 10
15.668074
 20
19.984961
 30
0.0
 11
17.738626
 21
19.984961
 31
0.0
  0
ENDBLK
  5
604
100
AcDbEntity
  8
5
100
AcDbBlockEnd
  0
BLOCK
  5
605
100
AcDbEntity
  8
5
100
AcDbBlockBegin
  2
*D4
 70
     1
 10
0.0
 20
0.0
 30
0.0
  3
*D4
  1

  0
TEXT
  5
606
100
AcDbEntity
  8
5
 62
     2
100
AcDbText
 10
15.70335
 20
-77.081336
 30
0.0
 40
6.6
  1
138
 50
90.0
 41
1.4
 72
     5
 11
15.70335
 21
-65.069336
 31
0.0
100
AcDbText
  0
LINE
  5
607
100
AcDbEntity
  8
5
 62
     2
100
AcDbLine
 10
51.645656
 20
-139.151336
 30
0.0
 11
14.70335
 21
-139.151336
 31
0.0
  0
LINE
  5
608
100
AcDbEntity
  8
5
 62
     2
100
AcDbLine
 10
16.70335
 20
-139.151336
 30
0.0
 11
17.738626
 21
-135.287633
 31
0.0
  0
LINE
  5
609
100
AcDbEntity
  8
5
 62
     2
100
AcDbLine
 10
16.70335
 20
-139.151336
 30
0.0
 11
15.668074
 21
-135.287633
 31
0.0
  0
LINE
  5
60A
100
AcDbEntity
  8
5
 62
     2
100
AcDbLine
 10
17.738626
 20
-135.287633
 30
0.0
 11
15.668074
 21
-135.287633
 31
0.0
  0
LINE
  5
60B
100
AcDbEntity
  8
5
 62
     2
100
AcDbLine
 10
16.70335
 20
-139.151336
 30
0.0
 11
16.70335
 21
-1.151336
 31
0.0
  0
LINE
  5
60C
100
AcDbEntity
  8
5
 62
     2
100
AcDbLine
 10
16.70335
 20
-1.151336
 30
0.0
 11
15.668074
 21
-5.015039
 31
0.0
  0
LINE
  5
60D
100
AcDbEntity
  8
5
 62
     2
100
AcDbLine
 10
16.70335
 20
-1.151336
 30
0.0
 11
17.738626
 21
-5.015039
 31
0.0
  0
LINE
  5
60E
100
AcDbEntity
  8
5
 62
     2
100
AcDbLine
 10
15.668074
 20
-5.015039
 30
0.0
 11
17.738626
 21
-5.015039
 31
0.0
  0
ENDBLK
  5
60F
100
AcDbEntity
  8
5
100
AcDbBlockEnd
  0
BLOCK
  5
610
100
AcDbEntity
  8
5
100
AcDbBlockBegin
  2
*D5
 70
     1
 10
0.0
 20
0.0
 30
0.0
  3
*D5
  1

  0
TEXT
  5
611
100
AcDbEntity
  8
5
 62
     2
100
AcDbText
 10
15.70335
 20
-186.271336
 30
0.0
 40
6.6
  1
85
 50
90.0
 41
1.4
 72
     5
 11
15.70335
 21
-178.879336
 31
0.0
100
AcDbText
  0
LINE
  5
612
100
AcDbEntity
  8
5
 62
     2
100
AcDbLine
 10
79.264598
 20
-224.151336
 30
0.0
 11
14.70335
 21
-224.151336
 31
0.0
  0
LINE
  5
613
100
AcDbEntity
  8
5
 62
     2
100
AcDbLine
 10
16.70335
 20
-224.151336
 30
0.0
 11
17.738626
 21
-220.287633
 31
0.0
  0
LINE
  5
614
100
AcDbEntity
  8
5
 62
     2
100
AcDbLine
 10
16.70335
 20
-224.151336
 30
0.0
 11
15.668074
 21
-220.287633
 31
0.0
  0
LINE
  5
615
100
AcDbEntity
  8
5
 62
     2
100
AcDbLine
 10
17.738626
 20
-220.287633
 30
0.0
 11
15.668074
 21
-220.287633
 31
0.0
  0
LINE
  5
616
100
AcDbEntity
  8
5
 62
     2
100
AcDbLine
 10
16.70335
 20
-224.151336
 30
0.0
 11
16.70335
 21
-139.151336
 31
0.0
  0
LINE
  5
617
100
AcDbEntity
  8
5
 62
     2
100
AcDbLine
 10
16.70335
 20
-139.151336
 30
0.0
 11
15.668074
 21
-143.015039
 31
0.0
  0
LINE
  5
618
100
AcDbEntity
  8
5
 62
     2
100
AcDbLine
 10
16.70335
 20
-139.151336
 30
0.0
 11
17.738626
 21
-143.015039
 31
0.0
  0
LINE
  5
619
100
AcDbEntity
  8
5
 62
     2
100
AcDbLine
 10
15.668074
 20
-143.015039
 30
0.0
 11
17.738626
 21
-143.015039
 31
0.0
  0
ENDBLK
  5
61A
100
AcDbEntity
  8
5
100
AcDbBlockEnd
  0
BLOCK
  5
61B
100
AcDbEntity
  8
5
100
AcDbBlockBegin
  2
*D6
 70
     1
 10
0.0
 20
0.0
 30
0.0
  3
*D6
  1

  0
TEXT
  5
61C
100
AcDbEntity
  8
5
 62
     2
100
AcDbText
 10
84.644598
 20
-258.325684
 30
0.0
 40
6.6
  1
46
 41
1.4
 72
     5
 11
92.036598
 21
-258.325684
 31
0.0
100
AcDbText
  0
LINE
  5
61D
100
AcDbEntity
  8
5
 62
     2
100
AcDbLine
 10
66.264598
 20
-199.651336
 30
0.0
 11
66.264598
 21
-261.325684
 31
0.0
  0
LINE
  5
61E
100
AcDbEntity
  8
5
 62
     2
100
AcDbLine
 10
66.264598
 20
-259.325684
 30
0.0
 11
70.128301
 21
-260.36096
 31
0.0
  0
LINE
  5
61F
100
AcDbEntity
  8
5
 62
     2
100
AcDbLine
 10
66.264598
 20
-259.325684
 30
0.0
 11
70.128301
 21
-258.290407
 31
0.0
  0
LINE
  5
620
100
AcDbEntity
  8
5
 62
     2
100
AcDbLine
 10
70.128301
 20
-260.36096
 30
0.0
 11
70.128301
 21
-258.290407
 31
0.0
  0
LINE
  5
621
100
AcDbEntity
  8
5
 62
     2
100
AcDbLine
 10
66.264598
 20
-259.325684
 30
0.0
 11
112.264598
 21
-259.325684
 31
0.0
  0
LINE
  5
622
100
AcDbEntity
  8
5
 62
     2
100
AcDbLine
 10
112.264598
 20
-259.325684
 30
0.0
 11
108.400895
 21
-258.290407
 31
0.0
  0
LINE
  5
623
100
AcDbEntity
  8
5
 62
     2
100
AcDbLine
 10
112.264598
 20
-259.325684
 30
0.0
 11
108.400895
 21
-260.36096
 31
0.0
  0
LINE
  5
624
100
AcDbEntity
  8
5
 62
     2
100
AcDbLine
 10
108.400895
 20
-258.290407
 30
0.0
 11
108.400895
 21
-260.36096
 31
0.0
  0
LINE
  5
625
100
AcDbEntity
  8
5
 62
     2
100
AcDbLine
 10
112.264598
 20
-199.651336
 30
0.0
 11
112.264598
 21
-261.325684
 31
0.0
  0
ENDBLK
  5
626
100
AcDbEntity
  8
5
100
AcDbBlockEnd
  0
BLOCK
  5
627
100
AcDbEntity
  8
5
100
AcDbBlockBegin
  2
*D7
 70
     1
 10
0.0
 20
0.0
 30
0.0
  3
*D7
  1

  0
TEXT
  5
628
100
AcDbEntity
  8
5
 62
     2
100
AcDbText
 10
49.024598
 20
-238.442017
 30
0.0
 40
6.6
  1
22
 41
1.4
 72
     5
 11
56.416598
 21
-238.442017
 31
0.0
100
AcDbText
  0
LINE
  5
629
100
AcDbEntity
  8
5
 62
     2
100
AcDbLine
 10
66.264598
 20
-199.651336
 30
0.0
 11
66.264598
 21
-241.442017
 31
0.0
  0
LINE
  5
62A
100
AcDbEntity
  8
5
 62
     2
100
AcDbLine
 10
66.264598
 20
-239.442017
 30
0.0
 11
62.400895
 21
-238.40674
 31
0.0
  0
LINE
  5
62B
100
AcDbEntity
  8
5
 62
     2
100
AcDbLine
 10
66.264598
 20
-239.442017
 30
0.0
 11
62.400895
 21
-240.477293
 31
0.0
  0
LINE
  5
62C
100
AcDbEntity
  8
5
 62
     2
100
AcDbLine
 10
62.400895
 20
-238.40674
 30
0.0
 11
62.400895
 21
-240.477293
 31
0.0
  0
LINE
  5
62D
100
AcDbEntity
  8
5
 62
     2
100
AcDbLine
 10
49.024598
 20
-239.442017
 30
0.0
 11
98.264598
 21
-239.442017
 31
0.0
  0
LINE
  5
62E
100
AcDbEntity
  8
5
 62
     2
100
AcDbLine
 10
88.264598
 20
-239.442017
 30
0.0
 11
92.128301
 21
-240.477293
 31
0.0
  0
LINE
  5
62F
100
AcDbEntity
  8
5
 62
     2
100
AcDbLine
 10
88.264598
 20
-239.442017
 30
0.0
 11
92.128301
 21
-238.40674
 31
0.0
  0
LINE
  5
630
100
AcDbEntity
  8
5
 62
     2
100
AcDbLine
 10
92.128301
 20
-240.477293
 30
0.0
 11
92.128301
 21
-238.40674
 31
0.0
  0
ENDBLK
  5
631
100
AcDbEntity
  8
5
100
AcDbBlockEnd
  0
BLOCK
  5
632
100
AcDbEntity
  8
5
100
AcDbBlockBegin
  2
*D8
 70
     1
 10
0.0
 20
0.0
 30
0.0
  3
*D8
  1

  0
LINE
  5
633
100
AcDbEntity
  8
5
 62
     2
100
AcDbLine
 10
36.264598
 20
23.848664
 30
0.0
 11
14.70335
 21
23.848664
 31
0.0
  0
LINE
  5
634
100
AcDbEntity
  8
5
 62
     2
100
AcDbLine
 10
16.70335
 20
23.848664
 30
0.0
 11
17.738626
 21
27.712367
 31
0.0
  0
LINE
  5
635
100
AcDbEntity
  8
5
 62
     2
100
AcDbLine
 10
16.70335
 20
23.848664
 30
0.0
 11
15.668074
 21
27.712367
 31
0.0
  0
LINE
  5
636
100
AcDbEntity
  8
5
 62
     2
100
AcDbLine
 10
17.738626
 20
27.712367
 30
0.0
 11
15.668074
 21
27.712367
 31
0.0
  0
LINE
  5
637
100
AcDbEntity
  8
5
 62
     2
100
AcDbLine
 10
16.70335
 20
23.848664
 30
0.0
 11
16.70335
 21
90.026038
 31
0.0
  0
LINE
  5
638
100
AcDbEntity
  8
5
 62
     2
100
AcDbLine
 10
16.70335
 20
90.026038
 30
0.0
 11
15.668074
 21
86.162335
 31
0.0
  0
LINE
  5
639
100
AcDbEntity
  8
5
 62
     2
100
AcDbLine
 10
16.70335
 20
90.026038
 30
0.0
 11
17.738626
 21
86.162335
 31
0.0
  0
LINE
  5
63A
100
AcDbEntity
  8
5
 62
     2
100
AcDbLine
 10
15.668074
 20
86.162335
 30
0.0
 11
17.738626
 21
86.162335
 31
0.0
  0
LINE
  5
63B
100
AcDbEntity
  8
5
 62
     2
100
AcDbLine
 10
86.264598
 20
90.026038
 30
0.0
 11
14.70335
 21
90.026038
 31
0.0
  0
ENDBLK
  5
63C
100
AcDbEntity
  8
5
100
AcDbBlockEnd
  0
BLOCK
  5
63D
100
AcDbEntity
  8
18
100
AcDbBlockBegin
  2
*D9
 70
     1
 10
0.0
 20
0.0
 30
0.0
  3
*D9
  1

  0
LINE
  5
63E
100
AcDbEntity
  8
18
 62
     2
100
AcDbLine
 10
335.736194
 20
201.027406
 30
0.0
 11
335.736194
 21
219.146826
 31
0.0
  0
LINE
  5
63F
100
AcDbEntity
  8
18
 62
     2
100
AcDbLine
 10
333.736194
 20
199.027406
 30
0.0
 11
315.616774
 21
199.027406
 31
0.0
  0
LINE
  5
640
100
AcDbEntity
  8
18
 62
     2
100
AcDbLine
 10
335.736194
 20
217.146826
 30
0.0
 11
331.784135
 21
217.764262
 31
0.0
  0
LINE
  5
641
100
AcDbEntity
  8
18
 62
     2
100
AcDbLine
 10
335.736194
 20
217.146826
 30
0.0
 11
332.004892
 21
215.705511
 31
0.0
  0
LINE
  5
642
100
AcDbEntity
  8
18
 62
     2
100
AcDbLine
 10
331.784135
 20
217.764262
 30
0.0
 11
332.004892
 21
215.705511
 31
0.0
  0
LINE
  5
643
100
AcDbEntity
  8
18
 62
     2
100
AcDbLine
 10
317.616774
 20
199.027406
 30
0.0
 11
319.058089
 21
202.758708
 31
0.0
  0
LINE
  5
644
100
AcDbEntity
  8
18
 62
     2
100
AcDbLine
 10
317.616774
 20
199.027406
 30
0.0
 11
316.999338
 21
202.979465
 31
0.0
  0
LINE
  5
645
100
AcDbEntity
  8
18
 62
     2
100
AcDbLine
 10
319.058089
 20
202.758708
 30
0.0
 11
316.999338
 21
202.979465
 31
0.0
  0
ARC
  5
646
100
AcDbEntity
  8
18
 62
     2
100
AcDbCircle
 10
335.736194
 20
199.027406
 30
0.0
 40
18.11942
100
AcDbArc
 50
90.0
 51
180.0
  0
ENDBLK
  5
647
100
AcDbEntity
  8
18
100
AcDbBlockEnd
  0
BLOCK
  5
648
100
AcDbEntity
  8
18
100
AcDbBlockBegin
  2
*D10
 70
     1
 10
0.0
 20
0.0
 30
0.0
  3
*D10
  1

  0
LINE
  5
649
100
AcDbEntity
  8
18
 62
     2
100
AcDbLine
 10
277.852042
 20
210.401862
 30
0.0
 11
259.732622
 21
210.401862
 31
0.0
  0
LINE
  5
64A
100
AcDbEntity
  8
18
 62
     2
100
AcDbLine
 10
279.852042
 20
208.401862
 30
0.0
 11
279.852042
 21
190.282442
 31
0.0
  0
LINE
  5
64B
100
AcDbEntity
  8
18
 62
     2
100
AcDbLine
 10
261.732622
 20
210.401862
 30
0.0
 11
261.115186
 21
206.449803
 31
0.0
  0
LINE
  5
64C
100
AcDbEntity
  8
18
 62
     2
100
AcDbLine
 10
261.732622
 20
210.401862
 30
0.0
 11
263.173937
 21
206.67056
 31
0.0
  0
LINE
  5
64D
100
AcDbEntity
  8
18
 62
     2
100
AcDbLine
 10
261.115186
 20
206.449803
 30
0.0
 11
263.173937
 21
206.67056
 31
0.0
  0
LINE
  5
64E
100
AcDbEntity
  8
18
 62
     2
100
AcDbLine
 10
279.852042
 20
192.282442
 30
0.0
 11
276.12074
 21
193.723757
 31
0.0
  0
LINE
  5
64F
100
AcDbEntity
  8
18
 62
     2
100
AcDbLine
 10
279.852042
 20
192.282442
 30
0.0
 11
275.899983
 21
191.665006
 31
0.0
  0
LINE
  5
650
100
AcDbEntity
  8
18
 62
     2
100
AcDbLine
 10
276.12074
 20
193.723757
 30
0.0
 11
275.899983
 21
191.665006
 31
0.0
  0
ARC
  5
651
100
AcDbEntity
  8
18
 62
     2
100
AcDbCircle
 10
279.852042
 20
210.401862
 30
0.0
 40
18.11942
100
AcDbArc
 50
180.0
 51
270.0
  0
ENDBLK
  5
652
100
AcDbEntity
  8
18
100
AcDbBlockEnd
  0
BLOCK
  5
653
100
AcDbEntity
  8
18
100
AcDbBlockBegin
  2
*D11
 70
     1
 10
0.0
 20
0.0
 30
0.0
  3
*D11
  1

  0
LINE
  5
654
100
AcDbEntity
  8
18
 62
     2
100
AcDbLine
 10
219.532562
 20
206.953402
 30
0.0
 11
219.532562
 21
188.833982
 31
0.0
  0
LINE
  5
655
100
AcDbEntity
  8
18
 62
     2
100
AcDbLine
 10
221.532562
 20
208.953402
 30
0.0
 11
239.651982
 21
208.953402
 31
0.0
  0
LINE
  5
656
100
AcDbEntity
  8
18
 62
     2
100
AcDbLine
 10
219.532562
 20
190.833982
 30
0.0
 11
223.484621
 21
190.216546
 31
0.0
  0
LINE
  5
657
100
AcDbEntity
  8
18
 62
     2
100
AcDbLine
 10
219.532562
 20
190.833982
 30
0.0
 11
223.263864
 21
192.275297
 31
0.0
  0
LINE
  5
658
100
AcDbEntity
  8
18
 62
     2
100
AcDbLine
 10
223.484621
 20
190.216546
 30
0.0
 11
223.263864
 21
192.275297
 31
0.0
  0
LINE
  5
659
100
AcDbEntity
  8
18
 62
     2
100
AcDbLine
 10
237.651982
 20
208.953402
 30
0.0
 11
236.210667
 21
205.2221
 31
0.0
  0
LINE
  5
65A
100
AcDbEntity
  8
18
 62
     2
100
AcDbLine
 10
237.651982
 20
208.953402
 30
0.0
 11
238.269418
 21
205.001343
 31
0.0
  0
LINE
  5
65B
100
AcDbEntity
  8
18
 62
     2
100
AcDbLine
 10
236.210667
 20
205.2221
 30
0.0
 11
238.269418
 21
205.001343
 31
0.0
  0
ARC
  5
65C
100
AcDbEntity
  8
18
 62
     2
100
AcDbCircle
 10
219.532562
 20
208.953402
 30
0.0
 40
18.11942
100
AcDbArc
 50
270.0
 51
360.0
  0
ENDBLK
  5
65D
100
AcDbEntity
  8
18
100
AcDbBlockEnd
  0
ENDSEC
  0
SECTION
  2
ENTITIES
  0
LINE
  5
34
100
AcDbEntity
  8
1
  6
CENTER
 62
     2
100
AcDbLine
 10
-248.172494
 20
133.520522
 30
0.0
 11
-248.172494
 21
214.736022
 31
0.0
  0
LINE
  5
35
100
AcDbEntity
  8
1
  6
DASHED
100
AcDbLine
 10
-282.172494
 20
149.39096
 30
0.0
 11
-282.172494
 21
199.39096
 31
0.0
  0
LINE
  5
36
100
AcDbEntity
  8
1
  6
DASHED
100
AcDbLine
 10
-212.172494
 20
149.39096
 30
0.0
 11
-212.172494
 21
199.39096
 31
0.0
  0
LINE
  5
37
100
AcDbEntity
  8
1
  6
DASHED
100
AcDbLine
 10
-272.172494
 20
209.39096
 30
0.0
 11
-222.172494
 21
209.39096
 31
0.0
  0
LINE
  5
38
100
AcDbEntity
  8
1
  6
DASHED
100
AcDbLine
 10
-272.172494
 20
139.39096
 30
0.0
 11
-222.172494
 21
139.39096
 31
0.0
  0
ARC
  5
39
100
AcDbEntity
  8
1
  6
DASHED
100
AcDbCircle
 10
-222.172494
 20
199.39096
 30
0.0
 40
10.0
100
AcDbArc
 50
0.0
 51
90.0
  0
ARC
  5
3A
100
AcDbEntity
  8
1
  6
DASHED
100
AcDbCircle
 10
-272.172494
 20
199.39096
 30
0.0
 40
10.0
100
AcDbArc
 50
90.0
 51
180.0
  0
ARC
  5
3B
100
AcDbEntity
  8
1
  6
DASHED
100
AcDbCircle
 10
-272.172494
 20
149.39096
 30
0.0
 40
10.0
100
AcDbArc
 50
180.0
 51
270.0
  0
ARC
  5
3C
100
AcDbEntity
  8
1
  6
DASHED
100
AcDbCircle
 10
-222.172494
 20
149.39096
 30
0.0
 40
10.0
100
AcDbArc
 50
270.0
 51
360.0
  0
LINE
  5
3D
100
AcDbEntity
  8
1
  6
CENTER
 62
     2
100
AcDbLine
 10
-247.172494
 20
72.421382
 30
0.0
 11
-247.172494
 21
-229.07602
 31
0.0
  0
CIRCLE
  5
3E
100
AcDbEntity
  8
1
  6
DASHED
100
AcDbCircle
 10
-271.92123
 20
199.139698
 30
0.0
 40
4.5
  0
CIRCLE
  5
3F
100
AcDbEntity
  8
1
  6
DASHED
100
AcDbCircle
 10
-222.423756
 20
149.642224
 30
0.0
 40
4.5
  0
CIRCLE
  5
40
100
AcDbEntity
  8
1
  6
DASHED
100
AcDbCircle
 10
-222.423756
 20
199.139698
 30
0.0
 40
4.5
  0
LINE
  5
41
100
AcDbEntity
  8
1
  6
CENTER
 62
     2
100
AcDbLine
 10
-230.873472
 20
199.139698
 30
0.0
 11
-214.14475
 21
199.139698
 31
0.0
  0
LINE
  5
42
100
AcDbEntity
  8
1
  6
CENTER
 62
     2
100
AcDbLine
 10
-222.423756
 20
207.70879
 30
0.0
 11
-222.423756
 21
190.730082
 31
0.0
  0
CIRCLE
  5
43
100
AcDbEntity
  8
1
  6
DASHED
100
AcDbCircle
 10
-271.92123
 20
149.642224
 30
0.0
 40
4.5
  0
LINE
  5
44
100
AcDbEntity
  8
1
  6
CENTER
 62
     2
100
AcDbLine
 10
-279.483672
 20
149.642224
 30
0.0
 11
-263.724768
 21
149.642224
 31
0.0
  0
LINE
  5
45
100
AcDbEntity
  8
1
  6
CENTER
 62
     2
100
AcDbLine
 10
-271.92123
 20
157.98547
 30
0.0
 11
-271.92123
 21
141.855754
 31
0.0
  0
LINE
  5
46
100
AcDbEntity
  8
1
  6
CENTER
 62
     2
100
AcDbLine
 10
88.264598
 20
96.890991
 30
0.0
 11
88.264598
 21
-237.97281
 31
0.0
  0
LINE
  5
47
100
AcDbEntity
  8
1
  6
CENTER
 62
     2
100
AcDbLine
 10
-248.172494
 20
-6.735234
 30
0.0
 11
-248.172494
 21
-237.97281
 31
0.0
  0
LINE
  5
48
100
AcDbEntity
  8
1
  6
CENTER
 62
     2
100
AcDbLine
 10
-322.7858
 20
-139.151336
 30
0.0
 11
-174.672624
 21
-139.151336
 31
0.0
  0
LINE
  5
49
100
AcDbEntity
  8
1
  6
CENTER
 62
     2
100
AcDbLine
 10
53.645656
 20
-139.151336
 30
0.0
 11
124.13682
 21
-139.151336
 31
0.0
  0
CIRCLE
  5
4A
100
AcDbEntity
  8
1
100
AcDbCircle
 10
-248.172494
 20
-139.151336
 30
0.0
 40
58.5
  0
LINE
  5
4B
100
AcDbEntity
  8
1
100
AcDbLine
 10
-282.172494
 20
-1.151336
 30
0.0
 11
-212.172494
 21
-1.151336
 31
0.0
  0
LINE
  5
4C
100
AcDbEntity
  8
1
100
AcDbLine
 10
-266.172494
 20
-214.151336
 30
0.0
 11
-230.172494
 21
-214.151336
 31
0.0
  0
CIRCLE
  5
4D
100
AcDbEntity
  8
1
100
AcDbCircle
 10
-248.172494
 20
-139.151336
 30
0.0
 40
37.0
  0
LINE
  5
4E
100
AcDbEntity
  8
1
100
AcDbLine
 10
-279.62123
 20
-13.151336
 30
0.0
 11
-214.723756
 21
-13.151336
 31
0.0
  0
LINE
  5
4F
100
AcDbEntity
  8
1
100
AcDbLine
 10
-282.172494
 20
-1.151336
 30
0.0
 11
-282.172494
 21
-9.151336
 31
0.0
  0
LINE
  5
50
100
AcDbEntity
  8
1
100
AcDbLine
 10
-212.172494
 20
-1.151336
 30
0.0
 11
-212.172494
 21
-9.151336
 31
0.0
  0
ARC
  5
51
100
AcDbEntity
  8
1
100
AcDbCircle
 10
-216.172494
 20
-9.151336
 30
0.0
 40
4.0
100
AcDbArc
 50
270.0
 51
360.0
  0
ARC
  5
52
100
AcDbEntity
  8
1
100
AcDbCircle
 10
-278.172494
 20
-9.151336
 30
0.0
 40
4.0
100
AcDbArc
 50
180.0
 51
270.0
  0
LINE
  5
53
100
AcDbEntity
  8
1
100
AcDbLine
 10
-265.172494
 20
-18.151336
 30
0.0
 11
-265.172494
 21
-80.994222
 31
0.0
  0
LINE
  5
54
100
AcDbEntity
  8
1
100
AcDbLine
 10
-231.172494
 20
-18.151336
 30
0.0
 11
-231.172494
 21
-80.994222
 31
0.0
  0
ARC
  5
55
100
AcDbEntity
  8
1
100
AcDbCircle
 10
-228.172494
 20
-80.994222
 30
0.0
 40
3.0
100
AcDbArc
 50
180.0
 51
251.022111
  0
ARC
  5
56
100
AcDbEntity
  8
1
100
AcDbCircle
 10
-268.172494
 20
-80.994222
 30
0.0
 40
3.0
100
AcDbArc
 50
288.977889
 51
360.0
  0
ARC
  5
57
100
AcDbEntity
  8
1
100
AcDbCircle
 10
-270.172494
 20
-18.151336
 30
0.0
 40
5.0
100
AcDbArc
 50
0.0
 51
90.0
  0
ARC
  5
58
100
AcDbEntity
  8
1
100
AcDbCircle
 10
-226.172494
 20
-18.151336
 30
0.0
 40
5.0
100
AcDbArc
 50
142.209117
 51
180.0
  0
ARC
  5
59
100
AcDbEntity
  8
1
100
AcDbCircle
 10
-213.172494
 20
-30.945832
 30
0.0
 40
18.0
100
AcDbArc
 50
148.911543
 51
180.0
  0
ARC
  5
5A
100
AcDbEntity
  8
1
100
AcDbCircle
 10
-283.172494
 20
-30.575622
 30
0.0
 40
18.0
100
AcDbArc
 50
0.0
 51
76.863441
  0
LINE
  5
5B
100
AcDbEntity
  8
1
100
AcDbLine
 10
-244.172494
 20
-30.945832
 30
0.0
 11
-250.172494
 21
-30.945832
 31
0.0
  0
LINE
  5
5C
100
AcDbEntity
  8
1
100
AcDbLine
 10
-250.172494
 20
-16.151336
 30
0.0
 11
-250.172494
 21
-27.945832
 31
0.0
  0
LINE
  5
5D
100
AcDbEntity
  8
1
100
AcDbLine
 10
-244.172494
 20
-16.151336
 30
0.0
 11
-244.172494
 21
-27.945832
 31
0.0
  0
ARC
  5
5E
100
AcDbEntity
  8
1
100
AcDbCircle
 10
-241.172494
 20
-16.151336
 30
0.0
 40
3.0
100
AcDbArc
 50
90.0
 51
180.0
  0
ARC
  5
5F
100
AcDbEntity
  8
1
100
AcDbCircle
 10
-253.172494
 20
-16.151336
 30
0.0
 40
3.0
100
AcDbArc
 50
0.0
 51
90.0
  0
ARC
  5
60
100
AcDbEntity
  8
1
100
AcDbCircle
 10
-241.172494
 20
-27.945832
 30
0.0
 40
3.0
100
AcDbArc
 50
180.0
 51
270.0
  0
ARC
  5
61
100
AcDbEntity
  8
1
100
AcDbCircle
 10
-253.172494
 20
-27.945832
 30
0.0
 40
3.0
100
AcDbArc
 50
270.0
 51
360.0
  0
LINE
  5
62
100
AcDbEntity
  8
1
100
AcDbLine
 10
-266.172494
 20
-196.954884
 30
0.0
 11
-266.172494
 21
-218.651336
 31
0.0
  0
LINE
  5
63
100
AcDbEntity
  8
1
100
AcDbLine
 10
-230.172494
 20
-196.954884
 30
0.0
 11
-230.172494
 21
-218.651336
 31
0.0
  0
ARC
  5
64
100
AcDbEntity
  8
1
100
AcDbCircle
 10
-227.172494
 20
-196.954884
 30
0.0
 40
3.0
100
AcDbArc
 50
109.966058
 51
180.0
  0
ARC
  5
65
100
AcDbEntity
  8
1
100
AcDbCircle
 10
-269.172494
 20
-196.954884
 30
0.0
 40
3.0
100
AcDbArc
 50
0.0
 51
70.033942
  0
LINE
  5
66
100
AcDbEntity
  8
1
100
AcDbLine
 10
-258.042552
 20
-18.151336
 30
0.0
 11
-258.042552
 21
-28.849356
 31
0.0
  0
LINE
  5
67
100
AcDbEntity
  8
1
100
AcDbLine
 10
-238.302436
 20
-18.151336
 30
0.0
 11
-238.302436
 21
-28.849356
 31
0.0
  0
LINE
  5
68
100
AcDbEntity
  8
1
100
AcDbLine
 10
-260.266094
 20
-31.747134
 30
0.0
 11
-262.94895
 21
-32.466002
 31
0.0
  0
LINE
  5
69
100
AcDbEntity
  8
1
100
AcDbLine
 10
-236.078892
 20
-31.747134
 30
0.0
 11
-233.396036
 21
-32.466002
 31
0.0
  0
ARC
  5
6A
100
AcDbEntity
  8
1
100
AcDbCircle
 10
-261.042552
 20
-28.849356
 30
0.0
 40
3.0
100
AcDbArc
 50
285.0
 51
360.0
  0
ARC
  5
6B
100
AcDbEntity
  8
1
100
AcDbCircle
 10
-235.302436
 20
-28.849356
 30
0.0
 40
3.0
100
AcDbArc
 50
180.0
 51
255.0
  0
ARC
  5
6C
100
AcDbEntity
  8
1
100
AcDbCircle
 10
-234.172494
 20
-35.36378
 30
0.0
 40
3.0
100
AcDbArc
 50
0.0
 51
75.0
  0
ARC
  5
6D
100
AcDbEntity
  8
1
100
AcDbCircle
 10
-262.172494
 20
-35.36378
 30
0.0
 40
3.0
100
AcDbArc
 50
105.0
 51
180.0
  0
ARC
  5
6E
100
AcDbEntity
  8
1
100
AcDbCircle
 10
-233.302436
 20
-18.151336
 30
0.0
 40
5.0
100
AcDbArc
 50
90.0
 51
180.0
  0
ARC
  5
6F
100
AcDbEntity
  8
1
100
AcDbCircle
 10
-263.042552
 20
-18.151336
 30
0.0
 40
5.0
100
AcDbArc
 50
0.0
 51
90.0
  0
LINE
  5
70
100
AcDbEntity
  8
1
100
AcDbLine
 10
-213.663174
 20
-91.914096
 30
0.0
 11
-203.272998
 21
-81.52392
 31
0.0
  0
ARC
  5
71
100
AcDbEntity
  8
1
100
AcDbCircle
 10
-213.172494
 20
-71.624424
 30
0.0
 40
14.0
100
AcDbArc
 50
315.0
 51
75.0
  0
ARC
  5
72
100
AcDbEntity
  8
1
100
AcDbCircle
 10
-283.172494
 20
-71.624424
 30
0.0
 40
14.0
100
AcDbArc
 50
105.0
 51
225.0
  0
LINE
  5
73
100
AcDbEntity
  8
1
100
AcDbLine
 10
-209.549026
 20
-58.101464
 30
0.0
 11
-227.466588
 21
-53.300468
 31
0.0
  0
LINE
  5
74
100
AcDbEntity
  8
1
100
AcDbLine
 10
-286.79596
 20
-58.101464
 30
0.0
 11
-268.878398
 21
-53.300468
 31
0.0
  0
ARC
  5
75
100
AcDbEntity
  8
1
100
AcDbCircle
 10
-270.172494
 20
-48.470838
 30
0.0
 40
5.0
100
AcDbArc
 50
285.0
 51
360.0
  0
ARC
  5
76
100
AcDbEntity
  8
1
100
AcDbCircle
 10
-226.172494
 20
-48.470838
 30
0.0
 40
5.0
100
AcDbArc
 50
180.0
 51
255.0
  0
LINE
  5
77
100
AcDbEntity
  8
1
100
AcDbLine
 10
-282.681812
 20
-91.914096
 30
0.0
 11
-293.071988
 21
-81.52392
 31
0.0
  0
LINE
  5
78
100
AcDbEntity
  8
1
100
AcDbLine
 10
-211.856028
 20
-77.344262
 30
0.0
 11
-214.693326
 21
-80.498584
 31
0.0
  0
LINE
  5
79
100
AcDbEntity
  8
1
100
AcDbLine
 10
-230.14791
 20
-69.767518
 30
0.0
 11
-230.372082
 21
-74.004232
 31
0.0
  0
LINE
  5
7A
100
AcDbEntity
  8
1
100
AcDbLine
 10
-266.197076
 20
-69.767518
 30
0.0
 11
-265.972906
 21
-74.004232
 31
0.0
  0
LINE
  5
7B
100
AcDbEntity
  8
1
100
AcDbLine
 10
-281.651662
 20
-80.498584
 30
0.0
 11
-284.488958
 21
-77.344262
 31
0.0
  0
ARC
  5
7C
100
AcDbEntity
  8
1
100
AcDbCircle
 10
-276.68241
 20
-70.322312
 30
0.0
 40
10.5
100
AcDbArc
 50
3.028779
 51
221.971221
  0
ARC
  5
7D
100
AcDbEntity
  8
1
100
AcDbCircle
 10
-274.960334
 20
-74.47977
 30
0.0
 40
9.0
100
AcDbArc
 50
221.971221
 51
3.028779
  0
ARC
  5
7E
100
AcDbEntity
  8
1
100
AcDbCircle
 10
-219.662578
 20
-70.322312
 30
0.0
 40
10.5
100
AcDbArc
 50
318.028779
 51
176.971221
  0
ARC
  5
7F
100
AcDbEntity
  8
1
100
AcDbCircle
 10
-221.384654
 20
-74.47977
 30
0.0
 40
9.0
100
AcDbArc
 50
176.971221
 51
318.028779
  0
LINE
  5
80
100
AcDbEntity
  8
1
100
AcDbLine
 10
-286.672494
 20
-194.651336
 30
0.0
 11
-275.172494
 21
-194.651336
 31
0.0
  0
LINE
  5
81
100
AcDbEntity
  8
1
100
AcDbLine
 10
-221.172494
 20
-194.651336
 30
0.0
 11
-209.672494
 21
-194.651336
 31
0.0
  0
ARC
  5
82
100
AcDbEntity
  8
1
100
AcDbCircle
 10
-221.172494
 20
-203.651336
 30
0.0
 40
9.0
100
AcDbArc
 50
90.0
 51
180.0
  0
ARC
  5
83
100
AcDbEntity
  8
1
100
AcDbCircle
 10
-275.172494
 20
-203.651336
 30
0.0
 40
9.0
100
AcDbArc
 50
0.0
 51
90.0
  0
LINE
  5
84
100
AcDbEntity
  8
1
100
AcDbLine
 10
-207.904726
 20
-190.38357
 30
0.0
 11
-212.653872
 21
-185.634426
 31
0.0
  0
ARC
  5
85
100
AcDbEntity
  8
1
100
AcDbCircle
 10
-209.672494
 20
-192.151336
 30
0.0
 40
2.5
100
AcDbArc
 50
270.0
 51
45.0
  0
ARC
  5
86
100
AcDbEntity
  8
1
100
AcDbCircle
 10
-286.672494
 20
-192.151336
 30
0.0
 40
2.5
100
AcDbArc
 50
135.0
 51
270.0
  0
LINE
  5
87
100
AcDbEntity
  8
1
100
AcDbLine
 10
-288.44026
 20
-190.38357
 30
0.0
 11
-283.691116
 21
-185.634426
 31
0.0
  0
LINE
  5
88
100
AcDbEntity
  8
1
  6
CENTER
 62
     2
100
AcDbLine
 10
-260.172494
 20
-206.993988
 30
0.0
 11
-260.172494
 21
-229.315156
 31
0.0
  0
LINE
  5
89
100
AcDbEntity
  8
1
  6
CENTER
 62
     2
100
AcDbLine
 10
-236.172494
 20
-206.993988
 30
0.0
 11
-236.172494
 21
-229.315156
 31
0.0
  0
LINE
  5
8A
100
AcDbEntity
  8
1
100
AcDbLine
 10
-266.172494
 20
-215.651336
 30
0.0
 11
-230.172494
 21
-215.651336
 31
0.0
  0
LINE
  5
8B
100
AcDbEntity
  8
1
100
AcDbLine
 10
-266.272494
 20
-218.651336
 30
0.0
 11
-230.072494
 21
-218.651336
 31
0.0
  0
LINE
  5
8C
100
AcDbEntity
  8
1
100
AcDbLine
 10
-230.422494
 20
-220.151336
 30
0.0
 11
-230.422494
 21
-223.66059
 31
0.0
  0
LINE
  5
8D
100
AcDbEntity
  8
1
100
AcDbLine
 10
-230.422494
 20
-223.66059
 30
0.0
 11
-231.272494
 21
-224.151336
 31
0.0
  0
LINE
  5
8E
100
AcDbEntity
  8
1
100
AcDbLine
 10
-231.272494
 20
-224.151336
 30
0.0
 11
-241.072494
 21
-224.151336
 31
0.0
  0
LINE
  5
8F
100
AcDbEntity
  8
1
100
AcDbLine
 10
-233.297494
 20
-220.151336
 30
0.0
 11
-233.297494
 21
-223.66059
 31
0.0
  0
ARC
  5
90
100
AcDbEntity
  8
1
100
AcDbCircle
 10
-231.859994
 20
-221.812634
 30
0.0
 40
2.341228
100
AcDbArc
 50
232.121121
 51
307.878879
  0
ARC
  5
91
100
AcDbEntity
  8
1
100
AcDbCircle
 10
-236.172494
 20
-215.528862
 30
0.0
 40
8.625
100
AcDbArc
 50
250.528777
 51
289.471219
  0
LINE
  5
92
100
AcDbEntity
  8
1
100
AcDbLine
 10
-241.922494
 20
-220.151336
 30
0.0
 11
-241.922494
 21
-223.66059
 31
0.0
  0
LINE
  5
93
100
AcDbEntity
  8
1
100
AcDbLine
 10
-241.922494
 20
-223.66059
 30
0.0
 11
-241.072494
 21
-224.151336
 31
0.0
  0
LINE
  5
94
100
AcDbEntity
  8
1
100
AcDbLine
 10
-239.047494
 20
-220.151336
 30
0.0
 11
-239.047494
 21
-223.66059
 31
0.0
  0
ARC
  5
95
100
AcDbEntity
  8
1
100
AcDbCircle
 10
-240.484994
 20
-221.812634
 30
0.0
 40
2.341228
100
AcDbArc
 50
232.121121
 51
307.878879
  0
LINE
  5
96
100
AcDbEntity
  8
1
100
AcDbLine
 10
-230.072494
 20
-218.651336
 30
0.0
 11
-230.072494
 21
-220.151336
 31
0.0
  0
LINE
  5
97
100
AcDbEntity
  8
1
100
AcDbLine
 10
-230.072494
 20
-220.151336
 30
0.0
 11
-242.272494
 21
-220.151336
 31
0.0
  0
LINE
  5
98
100
AcDbEntity
  8
1
100
AcDbLine
 10
-242.272494
 20
-220.151336
 30
0.0
 11
-242.272494
 21
-218.651336
 31
0.0
  0
LINE
  5
99
100
AcDbEntity
  8
1
100
AcDbLine
 10
-236.172494
 20
-220.151336
 30
0.0
 11
-236.672494
 21
-218.651336
 31
0.0
  0
LINE
  5
9A
100
AcDbEntity
  8
1
100
AcDbLine
 10
-236.172494
 20
-218.651336
 30
0.0
 11
-235.672494
 21
-220.151336
 31
0.0
  0
LINE
  5
9B
100
AcDbEntity
  8
1
100
AcDbLine
 10
-254.422494
 20
-220.151336
 30
0.0
 11
-254.422494
 21
-223.66059
 31
0.0
  0
LINE
  5
9C
100
AcDbEntity
  8
1
100
AcDbLine
 10
-254.422494
 20
-223.66059
 30
0.0
 11
-255.272494
 21
-224.151336
 31
0.0
  0
LINE
  5
9D
100
AcDbEntity
  8
1
100
AcDbLine
 10
-255.272494
 20
-224.151336
 30
0.0
 11
-265.072494
 21
-224.151336
 31
0.0
  0
LINE
  5
9E
100
AcDbEntity
  8
1
100
AcDbLine
 10
-257.297494
 20
-220.151336
 30
0.0
 11
-257.297494
 21
-223.66059
 31
0.0
  0
ARC
  5
9F
100
AcDbEntity
  8
1
100
AcDbCircle
 10
-255.859994
 20
-221.812634
 30
0.0
 40
2.341228
100
AcDbArc
 50
232.121121
 51
307.878879
  0
ARC
  5
A0
100
AcDbEntity
  8
1
100
AcDbCircle
 10
-260.172494
 20
-215.528862
 30
0.0
 40
8.625
100
AcDbArc
 50
250.528777
 51
289.471219
  0
LINE
  5
A1
100
AcDbEntity
  8
1
100
AcDbLine
 10
-265.922494
 20
-220.151336
 30
0.0
 11
-265.922494
 21
-223.66059
 31
0.0
  0
LINE
  5
A2
100
AcDbEntity
  8
1
100
AcDbLine
 10
-265.922494
 20
-223.66059
 30
0.0
 11
-265.072494
 21
-224.151336
 31
0.0
  0
LINE
  5
A3
100
AcDbEntity
  8
1
100
AcDbLine
 10
-263.047494
 20
-220.151336
 30
0.0
 11
-263.047494
 21
-223.66059
 31
0.0
  0
ARC
  5
A4
100
AcDbEntity
  8
1
100
AcDbCircle
 10
-264.484994
 20
-221.812634
 30
0.0
 40
2.341228
100
AcDbArc
 50
232.121121
 51
307.878879
  0
LINE
  5
A5
100
AcDbEntity
  8
1
100
AcDbLine
 10
-254.072494
 20
-218.651336
 30
0.0
 11
-254.072494
 21
-220.151336
 31
0.0
  0
LINE
  5
A6
100
AcDbEntity
  8
1
100
AcDbLine
 10
-254.072494
 20
-220.151336
 30
0.0
 11
-266.272494
 21
-220.151336
 31
0.0
  0
LINE
  5
A7
100
AcDbEntity
  8
1
100
AcDbLine
 10
-266.272494
 20
-220.151336
 30
0.0
 11
-266.272494
 21
-218.651336
 31
0.0
  0
LINE
  5
A8
100
AcDbEntity
  8
1
100
AcDbLine
 10
-260.172494
 20
-220.151336
 30
0.0
 11
-260.672494
 21
-218.651336
 31
0.0
  0
LINE
  5
A9
100
AcDbEntity
  8
1
100
AcDbLine
 10
-260.172494
 20
-218.651336
 30
0.0
 11
-259.672494
 21
-220.151336
 31
0.0
  0
LINE
  5
AA
100
AcDbEntity
  8
1
100
AcDbLine
 10
112.264598
 20
-197.651336
 30
0.0
 11
112.264598
 21
-80.651336
 31
0.0
  0
LINE
  5
AB
100
AcDbEntity
  8
1
100
AcDbLine
 10
66.264598
 20
-197.651336
 30
0.0
 11
66.264598
 21
-80.651336
 31
0.0
  0
LINE
  5
AC
100
AcDbEntity
  8
1
100
AcDbLine
 10
-306.672494
 20
198.39096
 30
0.0
 11
-306.672494
 21
152.39096
 31
0.0
  0
LINE
  5
AD
100
AcDbEntity
  8
1
  6
DASHED
100
AcDbLine
 10
-290.09206
 20
167.524638
 30
0.0
 11
-290.09206
 21
171.39096
 31
0.0
  0
LINE
  5
AE
100
AcDbEntity
  8
1
100
AcDbLine
 10
-306.25218
 20
159.39096
 30
0.0
 11
-306.25218
 21
183.39096
 31
0.0
  0
ARC
  5
AF
100
AcDbEntity
  8
1
100
AcDbCircle
 10
-304.25218
 20
184.929556
 30
0.0
 40
2.0
100
AcDbArc
 50
180.0
 51
255.142021
  0
ARC
  5
B0
100
AcDbEntity
  8
1
100
AcDbCircle
 10
-304.25218
 20
157.852364
 30
0.0
 40
2.0
100
AcDbArc
 50
104.857979
 51
180.0
  0
ARC
  5
B1
100
AcDbEntity
  8
1
  6
DASHED
100
AcDbCircle
 10
-295.09206
 20
175.257284
 30
0.0
 40
5.0
100
AcDbArc
 50
25.260557
 51
75.142021
  0
ARC
  5
B2
100
AcDbEntity
  8
1
  6
DASHED
100
AcDbCircle
 10
-295.09206
 20
167.524638
 30
0.0
 40
5.0
100
AcDbArc
 50
284.857979
 51
360.0
  0
ARC
  5
B3
100
AcDbEntity
  8
1
  6
DASHED
100
AcDbCircle
 10
-285.181812
 20
180.89096
 30
0.0
 40
2.5
100
AcDbArc
 50
0.0
 51
90.0
  0
ARC
  5
B4
100
AcDbEntity
  8
1
  6
DASHED
100
AcDbCircle
 10
-285.181812
 20
161.89096
 30
0.0
 40
2.5
100
AcDbArc
 50
270.0
 51
360.0
  0
LINE
  5
B5
100
AcDbEntity
  8
1
  6
DASHED
100
AcDbLine
 10
-282.681812
 20
179.103774
 30
0.0
 11
-290.09206
 21
179.103774
 31
0.0
  0
LINE
  5
B6
100
AcDbEntity
  8
1
  6
DASHED
100
AcDbLine
 10
-282.681812
 20
163.678148
 30
0.0
 11
-290.09206
 21
163.678148
 31
0.0
  0
LINE
  5
B7
100
AcDbEntity
  8
1
  6
DASHED
100
AcDbLine
 10
-297.172494
 20
173.39096
 30
0.0
 11
-297.172494
 21
175.39096
 31
0.0
  0
LINE
  5
B8
100
AcDbEntity
  8
1
  6
DASHED
100
AcDbLine
 10
-295.172494
 20
177.39096
 30
0.0
 11
-282.172494
 21
177.39096
 31
0.0
  0
LINE
  5
B9
100
AcDbEntity
  8
1
  6
DASHED
100
AcDbLine
 10
-295.172494
 20
171.39096
 30
0.0
 11
-282.172494
 21
171.39096
 31
0.0
  0
ARC
  5
BA
100
AcDbEntity
  8
1
  6
DASHED
100
AcDbCircle
 10
-295.172494
 20
175.39096
 30
0.0
 40
2.0
100
AcDbArc
 50
90.0
 51
180.0
  0
ARC
  5
BB
100
AcDbEntity
  8
1
  6
DASHED
100
AcDbCircle
 10
-295.172494
 20
173.39096
 30
0.0
 40
2.0
100
AcDbArc
 50
180.0
 51
270.0
  0
LINE
  5
BC
100
AcDbEntity
  8
1
  6
DASHED
100
AcDbLine
 10
-282.681812
 20
161.89096
 30
0.0
 11
-282.681812
 21
171.39096
 31
0.0
  0
LINE
  5
BD
100
AcDbEntity
  8
1
  6
DASHED
100
AcDbLine
 10
-282.681812
 20
177.39096
 30
0.0
 11
-282.681812
 21
180.89096
 31
0.0
  0
LINE
  5
BE
100
AcDbEntity
  8
1
  6
DASHED
100
AcDbLine
 10
-189.672494
 20
152.39096
 30
0.0
 11
-212.172494
 21
152.39096
 31
0.0
  0
LINE
  5
BF
100
AcDbEntity
  8
1
  6
DASHED
100
AcDbLine
 10
-206.252928
 20
167.524638
 30
0.0
 11
-206.252928
 21
171.39096
 31
0.0
  0
LINE
  5
C0
100
AcDbEntity
  8
1
  6
DASHED
100
AcDbLine
 10
-190.092806
 20
159.39096
 30
0.0
 11
-190.092806
 21
183.39096
 31
0.0
  0
LINE
  5
C1
100
AcDbEntity
  8
1
  6
DASHED
100
AcDbLine
 10
-191.579958
 20
182.996428
 30
0.0
 11
-202.535048
 21
180.090106
 31
0.0
  0
LINE
  5
C2
100
AcDbEntity
  8
1
  6
DASHED
100
AcDbLine
 10
-202.535048
 20
162.691816
 30
0.0
 11
-191.579958
 21
159.785494
 31
0.0
  0
ARC
  5
C3
100
AcDbEntity
  8
1
  6
DASHED
100
AcDbCircle
 10
-192.092806
 20
184.929556
 30
0.0
 40
2.0
100
AcDbArc
 50
284.857979
 51
360.0
  0
ARC
  5
C4
100
AcDbEntity
  8
1
  6
DASHED
100
AcDbCircle
 10
-192.092806
 20
157.852364
 30
0.0
 40
2.0
100
AcDbArc
 50
0.0
 51
75.142021
  0
ARC
  5
C5
100
AcDbEntity
  8
1
  6
DASHED
100
AcDbCircle
 10
-201.252928
 20
175.257284
 30
0.0
 40
5.0
100
AcDbArc
 50
104.857979
 51
154.739443
  0
ARC
  5
C6
100
AcDbEntity
  8
1
  6
DASHED
100
AcDbCircle
 10
-201.252928
 20
167.524638
 30
0.0
 40
5.0
100
AcDbArc
 50
180.0
 51
255.142021
  0
ARC
  5
C7
100
AcDbEntity
  8
1
  6
DASHED
100
AcDbCircle
 10
-211.163174
 20
180.89096
 30
0.0
 40
2.5
100
AcDbArc
 50
90.0
 51
113.81141
  0
ARC
  5
C8
100
AcDbEntity
  8
1
  6
DASHED
100
AcDbCircle
 10
-211.163174
 20
161.89096
 30
0.0
 40
2.5
100
AcDbArc
 50
246.18859
 51
270.0
  0
LINE
  5
C9
100
AcDbEntity
  8
1
  6
DASHED
100
AcDbLine
 10
-191.579958
 20
159.39096
 30
0.0
 11
-211.163174
 21
159.39096
 31
0.0
  0
LINE
  5
CA
100
AcDbEntity
  8
1
  6
DASHED
100
AcDbLine
 10
-191.579958
 20
183.39096
 30
0.0
 11
-211.163174
 21
183.39096
 31
0.0
  0
LINE
  5
CB
100
AcDbEntity
  8
1
  6
DASHED
100
AcDbLine
 10
-212.172494
 20
179.103774
 30
0.0
 11
-206.252928
 21
179.103774
 31
0.0
  0
LINE
  5
CC
100
AcDbEntity
  8
1
  6
DASHED
100
AcDbLine
 10
-212.172494
 20
163.678148
 30
0.0
 11
-206.252928
 21
163.678148
 31
0.0
  0
LINE
  5
CD
100
AcDbEntity
  8
1
  6
DASHED
100
AcDbLine
 10
-199.172494
 20
173.39096
 30
0.0
 11
-199.172494
 21
175.39096
 31
0.0
  0
LINE
  5
CE
100
AcDbEntity
  8
1
  6
DASHED
100
AcDbLine
 10
-201.172494
 20
177.39096
 30
0.0
 11
-212.172494
 21
177.39096
 31
0.0
  0
LINE
  5
CF
100
AcDbEntity
  8
1
  6
DASHED
100
AcDbLine
 10
-201.172494
 20
171.39096
 30
0.0
 11
-212.172494
 21
171.39096
 31
0.0
  0
ARC
  5
D0
100
AcDbEntity
  8
1
  6
DASHED
100
AcDbCircle
 10
-201.172494
 20
175.39096
 30
0.0
 40
2.0
100
AcDbArc
 50
0.0
 51
90.0
  0
ARC
  5
D1
100
AcDbEntity
  8
1
  6
DASHED
100
AcDbCircle
 10
-201.172494
 20
173.39096
 30
0.0
 40
2.0
100
AcDbArc
 50
270.0
 51
360.0
  0
LINE
  5
D2
100
AcDbEntity
  8
1
100
AcDbLine
 10
70.264598
 20
-214.151336
 30
0.0
 11
106.264598
 21
-214.151336
 31
0.0
  0
LINE
  5
D3
100
AcDbEntity
  8
1
100
AcDbLine
 10
53.264598
 20
-9.151336
 30
0.0
 11
53.264598
 21
-1.151336
 31
0.0
  0
LINE
  5
D4
100
AcDbEntity
  8
1
100
AcDbLine
 10
123.264598
 20
-9.151336
 30
0.0
 11
123.264598
 21
-1.151336
 31
0.0
  0
ARC
  5
D5
100
AcDbEntity
  8
1
100
AcDbCircle
 10
57.264598
 20
-9.151336
 30
0.0
 40
4.0
100
AcDbArc
 50
180.0
 51
270.0
  0
ARC
  5
D6
100
AcDbEntity
  8
1
100
AcDbCircle
 10
119.264598
 20
-9.151336
 30
0.0
 40
4.0
100
AcDbArc
 50
270.0
 51
360.0
  0
LINE
  5
D7
100
AcDbEntity
  8
1
100
AcDbLine
 10
71.264598
 20
-80.831154
 30
0.0
 11
71.264598
 21
-18.151336
 31
0.0
  0
LINE
  5
D8
100
AcDbEntity
  8
1
100
AcDbLine
 10
105.264598
 20
-80.831154
 30
0.0
 11
105.264598
 21
-18.151336
 31
0.0
  0
ARC
  5
D9
100
AcDbEntity
  8
1
100
AcDbCircle
 10
108.264598
 20
-77.651336
 30
0.0
 40
3.0
100
AcDbArc
 50
180.0
 51
270.0
  0
ARC
  5
DA
100
AcDbEntity
  8
1
100
AcDbCircle
 10
68.264598
 20
-77.651336
 30
0.0
 40
3.0
100
AcDbArc
 50
270.0
 51
360.0
  0
ARC
  5
DB
100
AcDbEntity
  8
1
100
AcDbCircle
 10
110.264598
 20
-18.151336
 30
0.0
 40
5.0
100
AcDbArc
 50
90.0
 51
180.0
  0
ARC
  5
DC
100
AcDbEntity
  8
1
100
AcDbCircle
 10
66.264598
 20
-18.151336
 30
0.0
 40
5.0
100
AcDbArc
 50
0.0
 51
36.869898
  0
ARC
  5
DD
100
AcDbEntity
  8
1
100
AcDbCircle
 10
123.264598
 20
-30.784644
 30
0.0
 40
18.0
100
AcDbArc
 50
100.475682
 51
180.0
  0
ARC
  5
DE
100
AcDbEntity
  8
1
100
AcDbCircle
 10
53.264598
 20
-30.784644
 30
0.0
 40
18.0
100
AcDbArc
 50
0.0
 51
30.491197
  0
LINE
  5
DF
100
AcDbEntity
  8
1
100
AcDbLine
 10
91.264598
 20
-30.945832
 30
0.0
 11
85.264598
 21
-30.945832
 31
0.0
  0
LINE
  5
E0
100
AcDbEntity
  8
1
100
AcDbLine
 10
85.264598
 20
-16.151336
 30
0.0
 11
85.264598
 21
-27.945832
 31
0.0
  0
LINE
  5
E1
100
AcDbEntity
  8
1
100
AcDbLine
 10
91.264598
 20
-16.151336
 30
0.0
 11
91.264598
 21
-27.945832
 31
0.0
  0
ARC
  5
E2
100
AcDbEntity
  8
1
100
AcDbCircle
 10
94.264598
 20
-16.151336
 30
0.0
 40
3.0
100
AcDbArc
 50
90.0
 51
180.0
  0
ARC
  5
E3
100
AcDbEntity
  8
1
100
AcDbCircle
 10
82.264598
 20
-16.151336
 30
0.0
 40
3.0
100
AcDbArc
 50
0.0
 51
90.0
  0
ARC
  5
E4
100
AcDbEntity
  8
1
100
AcDbCircle
 10
94.264598
 20
-27.945832
 30
0.0
 40
3.0
100
AcDbArc
 50
180.0
 51
270.0
  0
ARC
  5
E5
100
AcDbEntity
  8
1
100
AcDbCircle
 10
82.264598
 20
-27.945832
 30
0.0
 40
3.0
100
AcDbArc
 50
270.0
 51
360.0
  0
LINE
  5
E6
100
AcDbEntity
  8
1
100
AcDbLine
 10
78.39454
 20
-18.151336
 30
0.0
 11
78.39454
 21
-28.849356
 31
0.0
  0
LINE
  5
E7
100
AcDbEntity
  8
1
100
AcDbLine
 10
98.134656
 20
-18.151336
 30
0.0
 11
98.134656
 21
-28.849356
 31
0.0
  0
LINE
  5
E8
100
AcDbEntity
  8
1
100
AcDbLine
 10
76.170996
 20
-31.747134
 30
0.0
 11
73.48814
 21
-32.466002
 31
0.0
  0
LINE
  5
E9
100
AcDbEntity
  8
1
100
AcDbLine
 10
100.358198
 20
-31.747134
 30
0.0
 11
103.041054
 21
-32.466002
 31
0.0
  0
ARC
  5
EA
100
AcDbEntity
  8
1
100
AcDbCircle
 10
75.39454
 20
-28.849356
 30
0.0
 40
3.0
100
AcDbArc
 50
285.0
 51
360.0
  0
ARC
  5
EB
100
AcDbEntity
  8
1
100
AcDbCircle
 10
101.134656
 20
-28.849356
 30
0.0
 40
3.0
100
AcDbArc
 50
180.0
 51
255.0
  0
ARC
  5
EC
100
AcDbEntity
  8
1
100
AcDbCircle
 10
102.264598
 20
-35.36378
 30
0.0
 40
3.0
100
AcDbArc
 50
0.0
 51
75.0
  0
ARC
  5
ED
100
AcDbEntity
  8
1
100
AcDbCircle
 10
74.264598
 20
-35.36378
 30
0.0
 40
3.0
100
AcDbArc
 50
105.0
 51
180.0
  0
ARC
  5
EE
100
AcDbEntity
  8
1
100
AcDbCircle
 10
103.134656
 20
-18.151336
 30
0.0
 40
5.0
100
AcDbArc
 50
90.0
 51
180.0
  0
ARC
  5
EF
100
AcDbEntity
  8
1
100
AcDbCircle
 10
73.39454
 20
-18.151336
 30
0.0
 40
5.0
100
AcDbArc
 50
0.0
 51
90.0
  0
ARC
  5
F0
100
AcDbEntity
  8
1
100
AcDbCircle
 10
108.264598
 20
-80.831154
 30
0.0
 40
3.0
100
AcDbArc
 50
180.0
 51
270.0
  0
ARC
  5
F1
100
AcDbEntity
  8
1
100
AcDbCircle
 10
68.264598
 20
-80.831154
 30
0.0
 40
3.0
100
AcDbArc
 50
270.0
 51
360.0
  0
LINE
  5
F2
100
AcDbEntity
  8
1
100
AcDbLine
 10
66.264598
 20
-80.651336
 30
0.0
 11
68.264598
 21
-80.651336
 31
0.0
  0
LINE
  5
F3
100
AcDbEntity
  8
1
100
AcDbLine
 10
108.264598
 20
-80.651336
 30
0.0
 11
112.264598
 21
-80.651336
 31
0.0
  0
LINE
  5
F4
100
AcDbEntity
  8
1
100
AcDbLine
 10
70.264598
 20
-218.651336
 30
0.0
 11
70.264598
 21
-197.135198
 31
0.0
  0
LINE
  5
F5
100
AcDbEntity
  8
1
100
AcDbLine
 10
106.264598
 20
-218.651336
 30
0.0
 11
106.264598
 21
-197.135198
 31
0.0
  0
ARC
  5
F6
100
AcDbEntity
  8
1
100
AcDbCircle
 10
109.264598
 20
-200.651336
 30
0.0
 40
3.0
100
AcDbArc
 50
90.0
 51
180.0
  0
ARC
  5
F7
100
AcDbEntity
  8
1
100
AcDbCircle
 10
67.264598
 20
-200.651336
 30
0.0
 40
3.0
100
AcDbArc
 50
0.0
 51
90.0
  0
ARC
  5
F8
100
AcDbEntity
  8
1
100
AcDbCircle
 10
109.264598
 20
-197.135198
 30
0.0
 40
3.0
100
AcDbArc
 50
90.0
 51
180.0
  0
ARC
  5
F9
100
AcDbEntity
  8
1
100
AcDbCircle
 10
67.264598
 20
-197.135198
 30
0.0
 40
3.0
100
AcDbArc
 50
0.0
 51
90.0
  0
LINE
  5
FA
100
AcDbEntity
  8
1
100
AcDbLine
 10
66.264598
 20
-197.651336
 30
0.0
 11
67.264598
 21
-197.651336
 31
0.0
  0
LINE
  5
FB
100
AcDbEntity
  8
1
100
AcDbLine
 10
109.264598
 20
-197.651336
 30
0.0
 11
112.264598
 21
-197.651336
 31
0.0
  0
LINE
  5
FC
100
AcDbEntity
  8
1
100
AcDbLine
 10
75.764598
 20
-132.151336
 30
0.0
 11
94.764598
 21
-132.151336
 31
0.0
  0
LINE
  5
FD
100
AcDbEntity
  8
1
100
AcDbLine
 10
75.764598
 20
-146.151336
 30
0.0
 11
94.764598
 21
-146.151336
 31
0.0
  0
LINE
  5
FE
100
AcDbEntity
  8
1
100
AcDbLine
 10
80.051784
 20
-128.414494
 30
0.0
 11
90.47741
 21
-128.414494
 31
0.0
  0
LINE
  5
FF
100
AcDbEntity
  8
1
100
AcDbLine
 10
80.051784
 20
-149.88818
 30
0.0
 11
90.47741
 21
-149.88818
 31
0.0
  0
ARC
  5
100
100
AcDbEntity
  8
1
100
AcDbCircle
 10
94.764598
 20
-129.651336
 30
0.0
 40
2.5
100
AcDbArc
 50
270.0
 51
360.0
  0
ARC
  5
101
100
AcDbEntity
  8
1
100
AcDbCircle
 10
75.764598
 20
-129.651336
 30
0.0
 40
2.5
100
AcDbArc
 50
180.0
 51
270.0
  0
ARC
  5
102
100
AcDbEntity
  8
1
100
AcDbCircle
 10
75.764598
 20
-148.651336
 30
0.0
 40
2.5
100
AcDbArc
 50
90.0
 51
180.0
  0
ARC
  5
103
100
AcDbEntity
  8
1
100
AcDbCircle
 10
94.764598
 20
-148.651336
 30
0.0
 40
2.5
100
AcDbArc
 50
0.0
 51
90.0
  0
ARC
  5
104
100
AcDbEntity
  8
1
100
AcDbCircle
 10
90.47741
 20
-125.914494
 30
0.0
 40
2.5
100
AcDbArc
 50
270.0
 51
360.0
  0
ARC
  5
105
100
AcDbEntity
  8
1
100
AcDbCircle
 10
80.051784
 20
-125.914494
 30
0.0
 40
2.5
100
AcDbArc
 50
180.0
 51
270.0
  0
ARC
  5
106
100
AcDbEntity
  8
1
100
AcDbCircle
 10
80.051784
 20
-152.38818
 30
0.0
 40
2.5
100
AcDbArc
 50
90.0
 51
180.0
  0
ARC
  5
107
100
AcDbEntity
  8
1
100
AcDbCircle
 10
90.47741
 20
-152.38818
 30
0.0
 40
2.5
100
AcDbArc
 50
0.0
 51
90.0
  0
LINE
  5
108
100
AcDbEntity
  8
1
100
AcDbLine
 10
94.970046
 20
-130.151336
 30
0.0
 11
92.97741
 21
-128.414494
 31
0.0
  0
LINE
  5
109
100
AcDbEntity
  8
1
100
AcDbLine
 10
75.559148
 20
-130.151336
 30
0.0
 11
77.551784
 21
-128.414494
 31
0.0
  0
LINE
  5
10A
100
AcDbEntity
  8
1
100
AcDbLine
 10
94.970046
 20
-148.151336
 30
0.0
 11
92.97741
 21
-149.88818
 31
0.0
  0
LINE
  5
10B
100
AcDbEntity
  8
1
100
AcDbLine
 10
77.551784
 20
-149.88818
 30
0.0
 11
75.559148
 21
-148.151336
 31
0.0
  0
LINE
  5
10C
100
AcDbEntity
  8
1
100
AcDbLine
 10
97.264598
 20
-183.134426
 30
0.0
 11
97.264598
 21
-148.651336
 31
0.0
  0
LINE
  5
10D
100
AcDbEntity
  8
1
100
AcDbLine
 10
97.264598
 20
-129.651336
 30
0.0
 11
97.264598
 21
-94.414096
 31
0.0
  0
LINE
  5
10E
100
AcDbEntity
  8
1
100
AcDbLine
 10
92.97741
 20
-125.914494
 30
0.0
 11
92.97741
 21
-109.175346
 31
0.0
  0
LINE
  5
10F
100
AcDbEntity
  8
1
100
AcDbLine
 10
77.551784
 20
-125.914494
 30
0.0
 11
77.551784
 21
-109.175346
 31
0.0
  0
LINE
  5
110
100
AcDbEntity
  8
1
100
AcDbLine
 10
73.264598
 20
-183.134426
 30
0.0
 11
73.264598
 21
-148.651336
 31
0.0
  0
LINE
  5
111
100
AcDbEntity
  8
1
100
AcDbLine
 10
73.264598
 20
-129.651336
 30
0.0
 11
73.264598
 21
-94.414096
 31
0.0
  0
LINE
  5
112
100
AcDbEntity
  8
1
100
AcDbLine
 10
92.97741
 20
-168.39464
 30
0.0
 11
92.97741
 21
-152.38818
 31
0.0
  0
LINE
  5
113
100
AcDbEntity
  8
1
100
AcDbLine
 10
77.551784
 20
-168.39464
 30
0.0
 11
77.551784
 21
-152.38818
 31
0.0
  0
ARC
  5
114
100
AcDbEntity
  8
1
100
AcDbCircle
 10
80.051784
 20
-109.175346
 30
0.0
 40
2.5
100
AcDbArc
 50
90.0
 51
180.0
  0
ARC
  5
115
100
AcDbEntity
  8
1
100
AcDbCircle
 10
90.47741
 20
-109.175346
 30
0.0
 40
2.5
100
AcDbArc
 50
0.0
 51
46.482234
  0
ARC
  5
116
100
AcDbEntity
  8
1
100
AcDbCircle
 10
94.764598
 20
-94.414096
 30
0.0
 40
2.5
100
AcDbArc
 50
0.0
 51
90.0
  0
ARC
  5
117
100
AcDbEntity
  8
1
100
AcDbCircle
 10
75.764598
 20
-94.414096
 30
0.0
 40
2.5
100
AcDbArc
 50
90.0
 51
180.0
  0
ARC
  5
118
100
AcDbEntity
  8
1
100
AcDbCircle
 10
80.051784
 20
-168.39464
 30
0.0
 40
2.5
100
AcDbArc
 50
180.0
 51
270.0
  0
ARC
  5
119
100
AcDbEntity
  8
1
100
AcDbCircle
 10
90.47741
 20
-168.39464
 30
0.0
 40
2.5
100
AcDbArc
 50
313.517766
 51
360.0
  0
ARC
  5
11A
100
AcDbEntity
  8
1
100
AcDbCircle
 10
94.764598
 20
-183.134426
 30
0.0
 40
2.5
100
AcDbArc
 50
270.0
 51
360.0
  0
ARC
  5
11B
100
AcDbEntity
  8
1
100
AcDbCircle
 10
75.764598
 20
-183.134426
 30
0.0
 40
2.5
100
AcDbArc
 50
180.0
 51
270.0
  0
LINE
  5
11C
100
AcDbEntity
  8
1
100
AcDbLine
 10
96.53851
 20
-94.414096
 30
0.0
 11
92.97741
 21
-106.675346
 31
0.0
  0
LINE
  5
11D
100
AcDbEntity
  8
1
100
AcDbLine
 10
73.990686
 20
-94.414096
 30
0.0
 11
77.551784
 21
-106.675346
 31
0.0
  0
LINE
  5
11E
100
AcDbEntity
  8
1
100
AcDbLine
 10
77.551784
 20
-170.89464
 30
0.0
 11
73.991742
 21
-183.134426
 31
0.0
  0
LINE
  5
11F
100
AcDbEntity
  8
1
100
AcDbLine
 10
96.537452
 20
-183.134426
 30
0.0
 11
92.97741
 21
-170.89464
 31
0.0
  0
LINE
  5
120
100
AcDbEntity
  8
1
100
AcDbLine
 10
70.264598
 20
-215.651336
 30
0.0
 11
106.264598
 21
-215.651336
 31
0.0
  0
LINE
  5
121
100
AcDbEntity
  8
1
100
AcDbLine
 10
70.164598
 20
-218.651336
 30
0.0
 11
106.364598
 21
-218.651336
 31
0.0
  0
LINE
  5
122
100
AcDbEntity
  8
1
  6
CENTER
 62
     2
100
AcDbLine
 10
76.264598
 20
-229.315156
 30
0.0
 11
76.264598
 21
-206.993988
 31
0.0
  0
LINE
  5
123
100
AcDbEntity
  8
1
  6
CENTER
 62
     2
100
AcDbLine
 10
100.264598
 20
-229.315156
 30
0.0
 11
100.264598
 21
-206.993988
 31
0.0
  0
LINE
  5
124
100
AcDbEntity
  8
1
100
AcDbLine
 10
105.264598
 20
-220.151336
 30
0.0
 11
105.264598
 21
-224.151336
 31
0.0
  0
ARC
  5
125
100
AcDbEntity
  8
1
100
AcDbCircle
 10
102.764598
 20
-217.53813
 30
0.0
 40
6.613208
100
AcDbArc
 50
247.788205
 51
292.211795
  0
LINE
  5
126
100
AcDbEntity
  8
1
100
AcDbLine
 10
95.264598
 20
-220.151336
 30
0.0
 11
95.264598
 21
-224.151336
 31
0.0
  0
LINE
  5
127
100
AcDbEntity
  8
1
100
AcDbLine
 10
95.264598
 20
-224.151336
 30
0.0
 11
105.264598
 21
-224.151336
 31
0.0
  0
LINE
  5
128
100
AcDbEntity
  8
1
100
AcDbLine
 10
100.264598
 20
-220.151336
 30
0.0
 11
100.264598
 21
-223.66059
 31
0.0
  0
ARC
  5
129
100
AcDbEntity
  8
1
100
AcDbCircle
 10
97.764598
 20
-217.53813
 30
0.0
 40
6.613208
100
AcDbArc
 50
247.788205
 51
292.211795
  0
LINE
  5
12A
100
AcDbEntity
  8
1
100
AcDbLine
 10
106.364598
 20
-218.651336
 30
0.0
 11
106.364598
 21
-220.151336
 31
0.0
  0
LINE
  5
12B
100
AcDbEntity
  8
1
100
AcDbLine
 10
106.364598
 20
-220.151336
 30
0.0
 11
94.164598
 21
-220.151336
 31
0.0
  0
LINE
  5
12C
100
AcDbEntity
  8
1
100
AcDbLine
 10
94.164598
 20
-220.151336
 30
0.0
 11
94.164598
 21
-218.651336
 31
0.0
  0
LINE
  5
12D
100
AcDbEntity
  8
1
100
AcDbLine
 10
81.264598
 20
-220.151336
 30
0.0
 11
81.264598
 21
-224.151336
 31
0.0
  0
ARC
  5
12E
100
AcDbEntity
  8
1
100
AcDbCircle
 10
78.764598
 20
-217.53813
 30
0.0
 40
6.613208
100
AcDbArc
 50
247.788205
 51
292.211795
  0
LINE
  5
12F
100
AcDbEntity
  8
1
100
AcDbLine
 10
71.264598
 20
-220.151336
 30
0.0
 11
71.264598
 21
-224.151336
 31
0.0
  0
LINE
  5
130
100
AcDbEntity
  8
1
100
AcDbLine
 10
71.264598
 20
-224.151336
 30
0.0
 11
81.264598
 21
-224.151336
 31
0.0
  0
LINE
  5
131
100
AcDbEntity
  8
1
100
AcDbLine
 10
76.264598
 20
-220.151336
 30
0.0
 11
76.264598
 21
-223.66059
 31
0.0
  0
ARC
  5
132
100
AcDbEntity
  8
1
100
AcDbCircle
 10
73.764598
 20
-217.53813
 30
0.0
 40
6.613208
100
AcDbArc
 50
247.788205
 51
292.211795
  0
LINE
  5
133
100
AcDbEntity
  8
1
100
AcDbLine
 10
82.364598
 20
-218.651336
 30
0.0
 11
82.364598
 21
-220.151336
 31
0.0
  0
LINE
  5
134
100
AcDbEntity
  8
1
100
AcDbLine
 10
82.364598
 20
-220.151336
 30
0.0
 11
70.164598
 21
-220.151336
 31
0.0
  0
LINE
  5
135
100
AcDbEntity
  8
1
100
AcDbLine
 10
70.164598
 20
-220.151336
 30
0.0
 11
70.164598
 21
-218.651336
 31
0.0
  0
LINE
  5
136
100
AcDbEntity
  8
1
100
AcDbLine
 10
85.264598
 20
-48.470838
 30
0.0
 11
91.264598
 21
-48.470838
 31
0.0
  0
LINE
  5
137
100
AcDbEntity
  8
1
100
AcDbLine
 10
85.264598
 20
-103.675346
 30
0.0
 11
85.264598
 21
-51.470838
 31
0.0
  0
LINE
  5
138
100
AcDbEntity
  8
1
100
AcDbLine
 10
91.264598
 20
-105.186962
 30
0.0
 11
91.264598
 21
-51.470838
 31
0.0
  0
ARC
  5
139
100
AcDbEntity
  8
1
100
AcDbCircle
 10
82.264598
 20
-51.470838
 30
0.0
 40
3.0
100
AcDbArc
 50
0.0
 51
90.0
  0
ARC
  5
13A
100
AcDbEntity
  8
1
100
AcDbCircle
 10
94.264598
 20
-51.470838
 30
0.0
 40
3.0
100
AcDbArc
 50
90.0
 51
180.0
  0
LINE
  5
13B
100
AcDbEntity
  8
1
100
AcDbLine
 10
71.264598
 20
-83.831154
 30
0.0
 11
85.264598
 21
-83.831154
 31
0.0
  0
LINE
  5
13C
100
AcDbEntity
  8
1
100
AcDbLine
 10
91.264598
 20
-83.831154
 30
0.0
 11
105.264598
 21
-83.831154
 31
0.0
  0
LINE
  5
13D
100
AcDbEntity
  8
1
100
AcDbLine
 10
75.764598
 20
-91.914096
 30
0.0
 11
82.264598
 21
-91.914096
 31
0.0
  0
LINE
  5
13E
100
AcDbEntity
  8
1
100
AcDbLine
 10
94.264598
 20
-91.914096
 30
0.0
 11
94.764598
 21
-91.914096
 31
0.0
  0
ARC
  5
13F
100
AcDbEntity
  8
1
100
AcDbCircle
 10
82.264598
 20
-103.675346
 30
0.0
 40
3.0
100
AcDbArc
 50
270.0
 51
360.0
  0
ARC
  5
140
100
AcDbEntity
  8
1
100
AcDbCircle
 10
94.264598
 20
-105.186962
 30
0.0
 40
3.0
100
AcDbArc
 50
180.0
 51
226.482234
  0
LINE
  5
141
100
AcDbEntity
  8
1
100
AcDbLine
 10
80.051784
 20
-106.675346
 30
0.0
 11
82.264598
 21
-106.675346
 31
0.0
  0
LINE
  5
142
100
AcDbEntity
  8
1
100
AcDbLine
 10
85.264598
 20
-106.675346
 30
0.0
 11
90.47741
 21
-106.675346
 31
0.0
  0
ARC
  5
143
100
AcDbEntity
  8
1
100
AcDbCircle
 10
82.264598
 20
-88.914096
 30
0.0
 40
3.0
100
AcDbArc
 50
270.0
 51
360.0
  0
ARC
  5
144
100
AcDbEntity
  8
1
100
AcDbCircle
 10
94.264598
 20
-88.914096
 30
0.0
 40
3.0
100
AcDbArc
 50
180.0
 51
270.0
  0
LINE
  5
145
100
AcDbEntity
  8
1
100
AcDbLine
 10
87.264598
 20
-58.101464
 30
0.0
 11
89.264598
 21
-58.101464
 31
0.0
  0
LINE
  5
146
100
AcDbEntity
  8
1
100
AcDbLine
 10
87.264598
 20
-81.52392
 30
0.0
 11
89.264598
 21
-81.52392
 31
0.0
  0
ARC
  5
147
100
AcDbEntity
  8
1
100
AcDbCircle
 10
89.264598
 20
-60.101464
 30
0.0
 40
2.0
100
AcDbArc
 50
0.0
 51
90.0
  0
ARC
  5
148
100
AcDbEntity
  8
1
100
AcDbCircle
 10
87.264598
 20
-60.101464
 30
0.0
 40
2.0
100
AcDbArc
 50
90.0
 51
180.0
  0
ARC
  5
149
100
AcDbEntity
  8
1
100
AcDbCircle
 10
89.264598
 20
-79.52392
 30
0.0
 40
2.0
100
AcDbArc
 50
270.0
 51
360.0
  0
ARC
  5
14A
100
AcDbEntity
  8
1
100
AcDbCircle
 10
87.264598
 20
-79.52392
 30
0.0
 40
2.0
100
AcDbArc
 50
180.0
 51
270.0
  0
LINE
  5
14B
100
AcDbEntity
  8
1
100
AcDbLine
 10
85.264598
 20
-203.651336
 30
0.0
 11
91.264598
 21
-203.651336
 31
0.0
  0
LINE
  5
14C
100
AcDbEntity
  8
1
100
AcDbLine
 10
85.264598
 20
-200.651336
 30
0.0
 11
85.264598
 21
-173.89464
 31
0.0
  0
LINE
  5
14D
100
AcDbEntity
  8
1
100
AcDbLine
 10
91.264598
 20
-200.651336
 30
0.0
 11
91.264598
 21
-172.383026
 31
0.0
  0
ARC
  5
14E
100
AcDbEntity
  8
1
100
AcDbCircle
 10
82.264598
 20
-200.651336
 30
0.0
 40
3.0
100
AcDbArc
 50
270.0
 51
360.0
  0
ARC
  5
14F
100
AcDbEntity
  8
1
100
AcDbCircle
 10
94.264598
 20
-200.651336
 30
0.0
 40
3.0
100
AcDbArc
 50
180.0
 51
270.0
  0
LINE
  5
150
100
AcDbEntity
  8
1
100
AcDbLine
 10
70.264598
 20
-194.135198
 30
0.0
 11
85.264598
 21
-194.135198
 31
0.0
  0
LINE
  5
151
100
AcDbEntity
  8
1
100
AcDbLine
 10
91.264598
 20
-194.135198
 30
0.0
 11
106.264598
 21
-194.135198
 31
0.0
  0
LINE
  5
152
100
AcDbEntity
  8
1
100
AcDbLine
 10
75.764598
 20
-185.634426
 30
0.0
 11
82.264598
 21
-185.634426
 31
0.0
  0
LINE
  5
153
100
AcDbEntity
  8
1
100
AcDbLine
 10
94.264598
 20
-185.634426
 30
0.0
 11
94.764598
 21
-185.634426
 31
0.0
  0
ARC
  5
154
100
AcDbEntity
  8
1
100
AcDbCircle
 10
82.264598
 20
-188.634426
 30
0.0
 40
3.0
100
AcDbArc
 50
0.0
 51
90.0
  0
ARC
  5
155
100
AcDbEntity
  8
1
100
AcDbCircle
 10
94.264598
 20
-188.634426
 30
0.0
 40
3.0
100
AcDbArc
 50
90.0
 51
180.0
  0
ARC
  5
156
100
AcDbEntity
  8
1
100
AcDbCircle
 10
82.264598
 20
-173.89464
 30
0.0
 40
3.0
100
AcDbArc
 50
0.0
 51
90.0
  0
ARC
  5
157
100
AcDbEntity
  8
1
100
AcDbCircle
 10
94.264598
 20
-172.383026
 30
0.0
 40
3.0
100
AcDbArc
 50
133.517766
 51
180.0
  0
LINE
  5
158
100
AcDbEntity
  8
1
100
AcDbLine
 10
80.051784
 20
-170.89464
 30
0.0
 11
82.264598
 21
-170.89464
 31
0.0
  0
LINE
  5
159
100
AcDbEntity
  8
1
100
AcDbLine
 10
85.264598
 20
-170.89464
 30
0.0
 11
90.47741
 21
-170.89464
 31
0.0
  0
LINE
  5
15A
100
AcDbEntity
  8
1
100
AcDbLine
 10
87.264598
 20
-190.38357
 30
0.0
 11
89.264598
 21
-190.38357
 31
0.0
  0
LINE
  5
15B
100
AcDbEntity
  8
1
100
AcDbLine
 10
87.264598
 20
-194.651336
 30
0.0
 11
89.264598
 21
-194.651336
 31
0.0
  0
ARC
  5
15C
100
AcDbEntity
  8
1
100
AcDbCircle
 10
89.264598
 20
-192.38357
 30
0.0
 40
2.0
100
AcDbArc
 50
0.0
 51
90.0
  0
ARC
  5
15D
100
AcDbEntity
  8
1
100
AcDbCircle
 10
89.264598
 20
-192.651336
 30
0.0
 40
2.0
100
AcDbArc
 50
270.0
 51
360.0
  0
ARC
  5
15E
100
AcDbEntity
  8
1
100
AcDbCircle
 10
87.264598
 20
-192.651336
 30
0.0
 40
2.0
100
AcDbArc
 50
180.0
 51
270.0
  0
ARC
  5
15F
100
AcDbEntity
  8
1
100
AcDbCircle
 10
87.264598
 20
-192.38357
 30
0.0
 40
2.0
100
AcDbArc
 50
90.0
 51
180.0
  0
LINE
  5
160
100
AcDbEntity
  8
1
100
AcDbLine
 10
97.764598
 20
-1.151336
 30
0.0
 11
97.764598
 21
7.248664
 31
0.0
  0
LINE
  5
161
100
AcDbEntity
  8
1
100
AcDbLine
 10
78.764598
 20
-1.151336
 30
0.0
 11
78.764598
 21
7.248664
 31
0.0
  0
LINE
  5
162
100
AcDbEntity
  8
1
100
AcDbLine
 10
-237.672494
 20
-1.151336
 30
0.0
 11
-237.672494
 21
7.248664
 31
0.0
  0
LINE
  5
163
100
AcDbEntity
  8
1
100
AcDbLine
 10
-256.672494
 20
-1.151336
 30
0.0
 11
-256.672494
 21
7.248664
 31
0.0
  0
LINE
  5
164
100
AcDbEntity
  8
1
100
AcDbLine
 10
-262.172494
 20
12.248664
 30
0.0
 11
-232.172494
 21
12.248664
 31
0.0
  0
LINE
  5
165
100
AcDbEntity
  8
1
100
AcDbLine
 10
-262.172494
 20
7.248664
 30
0.0
 11
-232.172494
 21
7.248664
 31
0.0
  0
LINE
  5
166
100
AcDbEntity
  8
1
100
AcDbLine
 10
-262.172494
 20
7.248664
 30
0.0
 11
-262.172494
 21
12.248664
 31
0.0
  0
LINE
  5
167
100
AcDbEntity
  8
1
100
AcDbLine
 10
-232.172494
 20
7.248664
 30
0.0
 11
-232.172494
 21
12.248664
 31
0.0
  0
LINE
  5
168
100
AcDbEntity
  8
1
100
AcDbLine
 10
-252.922494
 20
12.248664
 30
0.0
 11
-252.922494
 21
15.848664
 31
0.0
  0
LINE
  5
169
100
AcDbEntity
  8
1
100
AcDbLine
 10
-250.047494
 20
12.248664
 30
0.0
 11
-250.047494
 21
15.848664
 31
0.0
  0
LINE
  5
16A
100
AcDbEntity
  8
1
100
AcDbLine
 10
-241.422494
 20
12.248664
 30
0.0
 11
-241.422494
 21
15.848664
 31
0.0
  0
LINE
  5
16B
100
AcDbEntity
  8
1
100
AcDbLine
 10
-244.297494
 20
12.248664
 30
0.0
 11
-244.297494
 21
15.848664
 31
0.0
  0
LINE
  5
16C
100
AcDbEntity
  8
1
100
AcDbLine
 10
-244.172494
 20
6.848664
 30
0.0
 11
-250.172494
 21
6.848664
 31
0.0
  0
LINE
  5
16D
100
AcDbEntity
  8
1
 62
     2
100
AcDbLine
 10
-244.713494
 20
6.848664
 30
0.0
 11
-244.172494
 21
4.848664
 31
0.0
  0
LINE
  5
16E
100
AcDbEntity
  8
1
 62
     2
100
AcDbLine
 10
-244.172494
 20
0.848664
 30
0.0
 11
-244.713494
 21
-1.151336
 31
0.0
  0
LINE
  5
16F
100
AcDbEntity
  8
1
 62
     2
100
AcDbLine
 10
-249.631494
 20
6.848664
 30
0.0
 11
-250.172494
 21
4.848664
 31
0.0
  0
LINE
  5
170
100
AcDbEntity
  8
1
 62
     2
100
AcDbLine
 10
-250.172494
 20
0.848664
 30
0.0
 11
-249.631494
 21
-1.151336
 31
0.0
  0
LINE
  5
171
100
AcDbEntity
  8
1
100
AcDbLine
 10
-244.172494
 20
-1.151336
 30
0.0
 11
-244.172494
 21
7.248664
 31
0.0
  0
LINE
  5
172
100
AcDbEntity
  8
1
 62
     2
100
AcDbLine
 10
-244.713494
 20
6.848664
 30
0.0
 11
-244.713494
 21
7.248664
 31
0.0
  0
LINE
  5
173
100
AcDbEntity
  8
1
 62
     2
100
AcDbLine
 10
-249.631494
 20
6.848664
 30
0.0
 11
-249.631494
 21
7.248664
 31
0.0
  0
LINE
  5
174
100
AcDbEntity
  8
1
100
AcDbLine
 10
-250.172494
 20
-1.151336
 30
0.0
 11
-250.172494
 21
7.248664
 31
0.0
  0
LINE
  5
175
100
AcDbEntity
  8
1
100
AcDbLine
 10
-259.672494
 20
-106.624424
 30
0.0
 11
-259.85774
 21
-106.30357
 31
0.0
  0
ARC
  5
176
100
AcDbEntity
  8
1
100
AcDbCircle
 10
-262.022804
 20
-107.55357
 30
0.0
 40
2.5
100
AcDbArc
 50
30.0
 51
113.669372
  0
ARC
  5
177
100
AcDbEntity
  8
1
100
AcDbCircle
 10
-261.117098
 20
-106.624424
 30
0.0
 40
1.444604
100
AcDbArc
 50
291.700874
 51
360.0
  0
LINE
  5
178
100
AcDbEntity
  8
1
100
AcDbLine
 10
-259.672494
 20
-171.678248
 30
0.0
 11
-259.85774
 21
-171.999104
 31
0.0
  0
ARC
  5
179
100
AcDbEntity
  8
1
100
AcDbCircle
 10
-262.022804
 20
-170.749104
 30
0.0
 40
2.5
100
AcDbArc
 50
246.330628
 51
330.0
  0
ARC
  5
17A
100
AcDbEntity
  8
1
100
AcDbCircle
 10
-261.117098
 20
-171.678248
 30
0.0
 40
1.444604
100
AcDbArc
 50
0.0
 51
68.299126
  0
ARC
  5
17B
100
AcDbEntity
  8
1
100
AcDbCircle
 10
-248.172494
 20
-139.151336
 30
0.0
 40
33.563434
100
AcDbArc
 50
111.700874
 51
248.299126
  0
ARC
  5
17C
100
AcDbEntity
  8
1
100
AcDbCircle
 10
-248.172494
 20
-139.151336
 30
0.0
 40
33.563434
100
AcDbArc
 50
289.958347
 51
70.041653
  0
ARC
  5
17D
100
AcDbEntity
  8
1
100
AcDbCircle
 10
-248.172494
 20
-139.151336
 30
0.0
 40
32.345788
100
AcDbArc
 50
110.826124
 51
249.173876
  0
ARC
  5
17E
100
AcDbEntity
  8
1
100
AcDbCircle
 10
-248.172494
 20
-139.151336
 30
0.0
 40
32.345788
100
AcDbArc
 50
290.826124
 51
69.173876
  0
LINE
  5
17F
100
AcDbEntity
  8
1
100
AcDbLine
 10
-258.672494
 20
-121.651336
 30
0.0
 11
-236.872494
 21
-121.651336
 31
0.0
  0
LINE
  5
180
100
AcDbEntity
  8
1
100
AcDbLine
 10
-258.672494
 20
-156.651336
 30
0.0
 11
-236.872494
 21
-156.651336
 31
0.0
  0
LINE
  5
181
100
AcDbEntity
  8
1
100
AcDbLine
 10
-235.872494
 20
-120.651336
 30
0.0
 11
-235.872494
 21
-110.651336
 31
0.0
  0
LINE
  5
182
100
AcDbEntity
  8
1
100
AcDbLine
 10
-259.672494
 20
-173.444194
 30
0.0
 11
-259.672494
 21
-157.651336
 31
0.0
  0
LINE
  5
183
100
AcDbEntity
  8
1
100
AcDbLine
 10
-259.672494
 20
-120.651336
 30
0.0
 11
-259.672494
 21
-104.85848
 31
0.0
  0
ARC
  5
184
100
AcDbEntity
  8
1
100
AcDbCircle
 10
-258.672494
 20
-120.651336
 30
0.0
 40
1.0
100
AcDbArc
 50
180.0
 51
270.0
  0
ARC
  5
185
100
AcDbEntity
  8
1
100
AcDbCircle
 10
-236.872494
 20
-120.651336
 30
0.0
 40
1.0
100
AcDbArc
 50
270.0
 51
360.0
  0
ARC
  5
186
100
AcDbEntity
  8
1
100
AcDbCircle
 10
-236.872494
 20
-157.651336
 30
0.0
 40
1.0
100
AcDbArc
 50
0.0
 51
90.0
  0
ARC
  5
187
100
AcDbEntity
  8
1
100
AcDbCircle
 10
-258.672494
 20
-157.651336
 30
0.0
 40
1.0
100
AcDbArc
 50
90.0
 51
180.0
  0
LINE
  5
188
100
AcDbEntity
  8
1
100
AcDbLine
 10
-257.172494
 20
-122.651336
 30
0.0
 11
-257.172494
 21
-155.651336
 31
0.0
  0
LINE
  5
189
100
AcDbEntity
  8
1
100
AcDbLine
 10
-239.172494
 20
-122.651336
 30
0.0
 11
-239.172494
 21
-155.651336
 31
0.0
  0
LINE
  5
18A
100
AcDbEntity
  8
1
100
AcDbLine
 10
-236.172494
 20
-121.704902
 30
0.0
 11
-236.172494
 21
-156.597772
 31
0.0
  0
LINE
  5
18B
100
AcDbEntity
  8
1
100
AcDbLine
 10
-260.172494
 20
-119.651336
 30
0.0
 11
-260.172494
 21
-158.651336
 31
0.0
  0
ARC
  5
18C
100
AcDbEntity
  8
1
100
AcDbCircle
 10
-240.172494
 20
-122.651336
 30
0.0
 40
1.0
100
AcDbArc
 50
0.0
 51
90.0
  0
ARC
  5
18D
100
AcDbEntity
  8
1
100
AcDbCircle
 10
-256.172494
 20
-122.651336
 30
0.0
 40
1.0
100
AcDbArc
 50
90.0
 51
180.0
  0
ARC
  5
18E
100
AcDbEntity
  8
1
100
AcDbCircle
 10
-256.172494
 20
-155.651336
 30
0.0
 40
1.0
100
AcDbArc
 50
180.0
 51
270.0
  0
ARC
  5
18F
100
AcDbEntity
  8
1
100
AcDbCircle
 10
-240.172494
 20
-155.651336
 30
0.0
 40
1.0
100
AcDbArc
 50
270.0
 51
360.0
  0
ARC
  5
190
100
AcDbEntity
  8
1
100
AcDbCircle
 10
-235.172494
 20
-156.597772
 30
0.0
 40
1.0
100
AcDbArc
 50
180.0
 51
211.788331
  0
ARC
  5
191
100
AcDbEntity
  8
1
100
AcDbCircle
 10
-235.172494
 20
-121.704902
 30
0.0
 40
1.0
100
AcDbArc
 50
148.211669
 51
180.0
  0
LINE
  5
192
100
AcDbEntity
  8
1
100
AcDbLine
 10
-235.172494
 20
-137.651336
 30
0.0
 11
-223.04656
 21
-137.651336
 31
0.0
  0
LINE
  5
193
100
AcDbEntity
  8
1
100
AcDbLine
 10
-235.172494
 20
-140.651336
 30
0.0
 11
-223.04656
 21
-140.651336
 31
0.0
  0
LINE
  5
194
100
AcDbEntity
  8
1
100
AcDbLine
 10
-273.298426
 20
-140.651336
 30
0.0
 11
-261.172494
 21
-140.651336
 31
0.0
  0
LINE
  5
195
100
AcDbEntity
  8
1
100
AcDbLine
 10
-256.172494
 20
-140.651336
 30
0.0
 11
-254.172494
 21
-140.651336
 31
0.0
  0
LINE
  5
196
100
AcDbEntity
  8
1
100
AcDbLine
 10
-273.298426
 20
-137.651336
 30
0.0
 11
-261.172494
 21
-137.651336
 31
0.0
  0
LINE
  5
197
100
AcDbEntity
  8
1
100
AcDbLine
 10
-256.172494
 20
-137.651336
 30
0.0
 11
-254.172494
 21
-137.651336
 31
0.0
  0
ARC
  5
198
100
AcDbEntity
  8
1
100
AcDbCircle
 10
-248.172494
 20
-139.151336
 30
0.0
 40
26.25
100
AcDbArc
 50
5.682159
 51
40.803387
  0
ARC
  5
199
100
AcDbEntity
  8
1
100
AcDbCircle
 10
-248.172494
 20
-139.151336
 30
0.0
 40
26.25
100
AcDbArc
 50
139.196613
 51
174.317841
  0
ARC
  5
19A
100
AcDbEntity
  8
1
100
AcDbCircle
 10
-248.172494
 20
-139.151336
 30
0.0
 40
26.25
100
AcDbArc
 50
185.682159
 51
220.803387
  0
ARC
  5
19B
100
AcDbEntity
  8
1
100
AcDbCircle
 10
-248.172494
 20
-139.151336
 30
0.0
 40
26.25
100
AcDbArc
 50
319.196613
 51
354.317841
  0
ARC
  5
19C
100
AcDbEntity
  8
1
100
AcDbCircle
 10
-223.04656
 20
-136.651336
 30
0.0
 40
1.0
100
AcDbArc
 50
270.0
 51
5.682159
  0
ARC
  5
19D
100
AcDbEntity
  8
1
100
AcDbCircle
 10
-223.04656
 20
-141.651336
 30
0.0
 40
1.0
100
AcDbArc
 50
354.317841
 51
90.0
  0
ARC
  5
19E
100
AcDbEntity
  8
1
100
AcDbCircle
 10
-273.298426
 20
-136.651336
 30
0.0
 40
1.0
100
AcDbArc
 50
174.317841
 51
270.0
  0
ARC
  5
19F
100
AcDbEntity
  8
1
100
AcDbCircle
 10
-273.298426
 20
-141.651336
 30
0.0
 40
1.0
100
AcDbArc
 50
90.0
 51
185.682159
  0
ARC
  5
1A0
100
AcDbEntity
  8
1
100
AcDbCircle
 10
-235.172494
 20
-136.651336
 30
0.0
 40
1.0
100
AcDbArc
 50
180.0
 51
270.0
  0
ARC
  5
1A1
100
AcDbEntity
  8
1
100
AcDbCircle
 10
-235.172494
 20
-141.651336
 30
0.0
 40
1.0
100
AcDbArc
 50
90.0
 51
180.0
  0
ARC
  5
1A2
100
AcDbEntity
  8
1
100
AcDbCircle
 10
-240.172494
 20
-141.651336
 30
0.0
 40
1.0
100
AcDbArc
 50
0.0
 51
90.0
  0
ARC
  5
1A3
100
AcDbEntity
  8
1
100
AcDbCircle
 10
-240.172494
 20
-136.651336
 30
0.0
 40
1.0
100
AcDbArc
 50
270.0
 51
360.0
  0
ARC
  5
1A4
100
AcDbEntity
  8
1
100
AcDbCircle
 10
-256.172494
 20
-136.651336
 30
0.0
 40
1.0
100
AcDbArc
 50
180.0
 51
270.0
  0
ARC
  5
1A5
100
AcDbEntity
  8
1
100
AcDbCircle
 10
-256.172494
 20
-141.651336
 30
0.0
 40
1.0
100
AcDbArc
 50
90.0
 51
180.0
  0
ARC
  5
1A6
100
AcDbEntity
  8
1
100
AcDbCircle
 10
-261.172494
 20
-141.651336
 30
0.0
 40
1.0
100
AcDbArc
 50
0.0
 51
90.0
  0
ARC
  5
1A7
100
AcDbEntity
  8
1
100
AcDbCircle
 10
-261.172494
 20
-136.651336
 30
0.0
 40
1.0
100
AcDbArc
 50
270.0
 51
360.0
  0
LINE
  5
1A8
100
AcDbEntity
  8
1
100
AcDbLine
 10
-267.285644
 20
-121.651336
 30
0.0
 11
-261.172494
 21
-121.651336
 31
0.0
  0
LINE
  5
1A9
100
AcDbEntity
  8
1
100
AcDbLine
 10
-235.172494
 20
-121.651336
 30
0.0
 11
-229.059344
 21
-121.651336
 31
0.0
  0
LINE
  5
1AA
100
AcDbEntity
  8
1
100
AcDbLine
 10
-267.285644
 20
-156.651336
 30
0.0
 11
-261.172494
 21
-156.651336
 31
0.0
  0
LINE
  5
1AB
100
AcDbEntity
  8
1
100
AcDbLine
 10
-235.172494
 20
-156.651336
 30
0.0
 11
-229.059344
 21
-156.651336
 31
0.0
  0
ARC
  5
1AC
100
AcDbEntity
  8
1
100
AcDbCircle
 10
-229.059344
 20
-122.651336
 30
0.0
 40
1.0
100
AcDbArc
 50
40.803387
 51
90.0
  0
ARC
  5
1AD
100
AcDbEntity
  8
1
100
AcDbCircle
 10
-229.059344
 20
-155.651336
 30
0.0
 40
1.0
100
AcDbArc
 50
270.0
 51
319.196613
  0
ARC
  5
1AE
100
AcDbEntity
  8
1
100
AcDbCircle
 10
-267.285644
 20
-155.651336
 30
0.0
 40
1.0
100
AcDbArc
 50
220.803387
 51
270.0
  0
ARC
  5
1AF
100
AcDbEntity
  8
1
100
AcDbCircle
 10
-267.285644
 20
-122.651336
 30
0.0
 40
1.0
100
AcDbArc
 50
90.0
 51
139.196613
  0
ARC
  5
1B0
100
AcDbEntity
  8
1
100
AcDbCircle
 10
-235.172494
 20
-122.651336
 30
0.0
 40
1.0
100
AcDbArc
 50
90.0
 51
180.0
  0
ARC
  5
1B1
100
AcDbEntity
  8
1
100
AcDbCircle
 10
-261.172494
 20
-122.651336
 30
0.0
 40
1.0
100
AcDbArc
 50
0.0
 51
90.0
  0
ARC
  5
1B2
100
AcDbEntity
  8
1
100
AcDbCircle
 10
-235.172494
 20
-155.651336
 30
0.0
 40
1.0
100
AcDbArc
 50
180.0
 51
270.0
  0
ARC
  5
1B3
100
AcDbEntity
  8
1
100
AcDbCircle
 10
-261.172494
 20
-155.651336
 30
0.0
 40
1.0
100
AcDbArc
 50
270.0
 51
360.0
  0
ARC
  5
1B4
100
AcDbEntity
  8
1
100
AcDbCircle
 10
-259.172494
 20
-119.651336
 30
0.0
 40
1.0
100
AcDbArc
 50
138.590378
 51
180.0
  0
ARC
  5
1B5
100
AcDbEntity
  8
1
100
AcDbCircle
 10
-260.672494
 20
-118.328462
 30
0.0
 40
1.0
100
AcDbArc
 50
318.590378
 51
360.0
  0
ARC
  5
1B6
100
AcDbEntity
  8
1
100
AcDbCircle
 10
-259.172494
 20
-158.651336
 30
0.0
 40
1.0
100
AcDbArc
 50
180.0
 51
221.409622
  0
ARC
  5
1B7
100
AcDbEntity
  8
1
100
AcDbCircle
 10
-260.672494
 20
-159.974212
 30
0.0
 40
1.0
100
AcDbArc
 50
0.0
 51
41.409622
  0
LINE
  5
1B8
100
AcDbEntity
  8
1
100
AcDbLine
 10
-243.809008
 20
-110.651336
 30
0.0
 11
-243.809008
 21
-120.651336
 31
0.0
  0
ARC
  5
1B9
100
AcDbEntity
  8
1
100
AcDbCircle
 10
-242.809008
 20
-120.651336
 30
0.0
 40
1.0
100
AcDbArc
 50
180.0
 51
270.0
  0
LINE
  5
1BA
100
AcDbEntity
  8
1
100
AcDbLine
 10
-242.809008
 20
-109.651336
 30
0.0
 11
-236.872494
 21
-109.651336
 31
0.0
  0
ARC
  5
1BB
100
AcDbEntity
  8
1
100
AcDbCircle
 10
-236.872494
 20
-110.651336
 30
0.0
 40
1.0
100
AcDbArc
 50
0.0
 51
90.0
  0
ARC
  5
1BC
100
AcDbEntity
  8
1
100
AcDbCircle
 10
-242.809008
 20
-110.651336
 30
0.0
 40
1.0
100
AcDbArc
 50
90.0
 51
180.0
  0
LINE
  5
1BD
100
AcDbEntity
  8
1
100
AcDbLine
 10
-247.172494
 20
-109.151336
 30
0.0
 11
-236.672494
 21
-109.151336
 31
0.0
  0
ARC
  5
1BE
100
AcDbEntity
  8
1
100
AcDbCircle
 10
-247.172494
 20
-108.151336
 30
0.0
 40
1.0
100
AcDbArc
 50
180.0
 51
270.0
  0
LINE
  5
1BF
100
AcDbEntity
  8
1
100
AcDbLine
 10
-236.672494
 20
-109.151336
 30
0.0
 11
-236.672494
 21
-107.651336
 31
0.0
  0
ARC
  5
1C0
100
AcDbEntity
  8
1
100
AcDbCircle
 10
-235.866244
 20
-109.151336
 30
0.0
 40
0.80625
100
AcDbArc
 50
180.0
 51
236.144974
  0
LINE
  5
1C1
100
AcDbEntity
  8
1
100
AcDbLine
 10
-235.872494
 20
-157.651336
 30
0.0
 11
-235.872494
 21
-167.651336
 31
0.0
  0
LINE
  5
1C2
100
AcDbEntity
  8
1
100
AcDbLine
 10
-243.809008
 20
-167.651336
 30
0.0
 11
-243.809008
 21
-157.651336
 31
0.0
  0
ARC
  5
1C3
100
AcDbEntity
  8
1
100
AcDbCircle
 10
-242.809008
 20
-157.651336
 30
0.0
 40
1.0
100
AcDbArc
 50
90.0
 51
180.0
  0
LINE
  5
1C4
100
AcDbEntity
  8
1
100
AcDbLine
 10
-242.809008
 20
-168.651336
 30
0.0
 11
-236.872494
 21
-168.651336
 31
0.0
  0
ARC
  5
1C5
100
AcDbEntity
  8
1
100
AcDbCircle
 10
-236.872494
 20
-167.651336
 30
0.0
 40
1.0
100
AcDbArc
 50
270.0
 51
360.0
  0
ARC
  5
1C6
100
AcDbEntity
  8
1
100
AcDbCircle
 10
-242.809008
 20
-167.651336
 30
0.0
 40
1.0
100
AcDbArc
 50
180.0
 51
270.0
  0
LINE
  5
1C7
100
AcDbEntity
  8
1
100
AcDbLine
 10
-247.172494
 20
-169.151336
 30
0.0
 11
-236.672494
 21
-169.151336
 31
0.0
  0
ARC
  5
1C8
100
AcDbEntity
  8
1
100
AcDbCircle
 10
-247.172494
 20
-170.151336
 30
0.0
 40
1.0
100
AcDbArc
 50
90.0
 51
180.0
  0
LINE
  5
1C9
100
AcDbEntity
  8
1
100
AcDbLine
 10
-236.672494
 20
-169.151336
 30
0.0
 11
-236.672494
 21
-170.651336
 31
0.0
  0
ARC
  5
1CA
100
AcDbEntity
  8
1
100
AcDbCircle
 10
-235.866244
 20
-169.151336
 30
0.0
 40
0.80625
100
AcDbArc
 50
123.855026
 51
180.0
  0
ARC
  5
1CB
100
AcDbEntity
  8
1
100
AcDbCircle
 10
-248.172494
 20
-139.151336
 30
0.0
 40
29.5
100
AcDbArc
 50
112.943954
 51
247.056046
  0
ARC
  5
1CC
100
AcDbEntity
  8
1
100
AcDbCircle
 10
-248.172494
 20
-139.151336
 30
0.0
 40
29.5
100
AcDbArc
 50
294.642124
 51
65.357876
  0
LINE
  5
1CD
100
AcDbEntity
  8
1
100
AcDbLine
 10
-254.172494
 20
-111.651336
 30
0.0
 11
-249.172494
 21
-111.651336
 31
0.0
  0
ARC
  5
1CE
100
AcDbEntity
  8
1
100
AcDbCircle
 10
-254.172494
 20
-116.651336
 30
0.0
 40
5.0
100
AcDbArc
 50
90.0
 51
270.0
  0
ARC
  5
1CF
100
AcDbEntity
  8
1
100
AcDbCircle
 10
-249.172494
 20
-110.651336
 30
0.0
 40
1.0
100
AcDbArc
 50
270.0
 51
360.0
  0
ARC
  5
1D0
100
AcDbEntity
  8
1
100
AcDbCircle
 10
-254.172494
 20
-161.651336
 30
0.0
 40
5.0
100
AcDbArc
 50
90.0
 51
270.0
  0
LINE
  5
1D1
100
AcDbEntity
  8
1
100
AcDbLine
 10
-254.172494
 20
-166.651336
 30
0.0
 11
-249.172494
 21
-166.651336
 31
0.0
  0
ARC
  5
1D2
100
AcDbEntity
  8
1
100
AcDbCircle
 10
-249.172494
 20
-167.651336
 30
0.0
 40
1.0
100
AcDbArc
 50
0.0
 51
90.0
  0
LINE
  5
1D3
100
AcDbEntity
  8
1
100
AcDbLine
 10
-259.672494
 20
-104.85848
 30
0.0
 11
-244.172494
 21
-104.85848
 31
0.0
  0
LINE
  5
1D4
100
AcDbEntity
  8
1
100
AcDbLine
 10
-244.172494
 20
-107.651336
 30
0.0
 11
-244.172494
 21
-103.569842
 31
0.0
  0
ARC
  5
1D5
100
AcDbEntity
  8
1
100
AcDbCircle
 10
-248.172494
 20
-9.513012
 30
0.0
 40
94.141846
100
AcDbArc
 50
266.040877
 51
272.435178
  0
ARC
  5
1D6
100
AcDbEntity
  8
1
100
AcDbCircle
 10
-247.172494
 20
-139.151336
 30
0.0
 40
36.5
100
AcDbArc
 50
101.857567
 51
110.027172
  0
LINE
  5
1D7
100
AcDbEntity
  8
1
100
AcDbLine
 10
-244.172494
 20
-107.651336
 30
0.0
 11
-236.672494
 21
-107.651336
 31
0.0
  0
LINE
  5
1D8
100
AcDbEntity
  8
1
100
AcDbLine
 10
-236.716054
 20
-105.985096
 30
0.0
 11
-236.716054
 21
-107.651336
 31
0.0
  0
LINE
  5
1D9
100
AcDbEntity
  8
1
100
AcDbLine
 10
-239.739458
 20
-105.71483
 30
0.0
 11
-239.739458
 21
-106.651336
 31
0.0
  0
ARC
  5
1DA
100
AcDbEntity
  8
1
100
AcDbCircle
 10
-239.739458
 20
43.551268
 30
0.0
 40
149.266098
100
AcDbArc
 50
269.83378
 51
270.0
  0
ARC
  5
1DB
100
AcDbEntity
  8
1
100
AcDbCircle
 10
-241.29653
 20
-140.179674
 30
0.0
 40
34.5
100
AcDbArc
 50
82.370461
 51
87.413221
  0
LINE
  5
1DC
100
AcDbEntity
  8
1
100
AcDbLine
 10
-240.172494
 20
-106.651336
 30
0.0
 11
-239.739458
 21
-106.651336
 31
0.0
  0
LINE
  5
1DD
100
AcDbEntity
  8
1
100
AcDbLine
 10
-259.672494
 20
-173.444194
 30
0.0
 11
-244.172494
 21
-173.444194
 31
0.0
  0
LINE
  5
1DE
100
AcDbEntity
  8
1
100
AcDbLine
 10
-244.172494
 20
-170.651336
 30
0.0
 11
-244.172494
 21
-174.732832
 31
0.0
  0
ARC
  5
1DF
100
AcDbEntity
  8
1
100
AcDbCircle
 10
-248.172494
 20
-268.789662
 30
0.0
 40
94.141846
100
AcDbArc
 50
87.564822
 51
93.959123
  0
ARC
  5
1E0
100
AcDbEntity
  8
1
100
AcDbCircle
 10
-247.172494
 20
-139.151336
 30
0.0
 40
36.5
100
AcDbArc
 50
249.972828
 51
258.142433
  0
LINE
  5
1E1
100
AcDbEntity
  8
1
100
AcDbLine
 10
-244.172494
 20
-170.651336
 30
0.0
 11
-236.672494
 21
-170.651336
 31
0.0
  0
LINE
  5
1E2
100
AcDbEntity
  8
1
100
AcDbLine
 10
-236.716054
 20
-172.317578
 30
0.0
 11
-236.716054
 21
-170.651336
 31
0.0
  0
LINE
  5
1E3
100
AcDbEntity
  8
1
100
AcDbLine
 10
-239.739458
 20
-172.587844
 30
0.0
 11
-239.739458
 21
-171.651336
 31
0.0
  0
ARC
  5
1E4
100
AcDbEntity
  8
1
100
AcDbCircle
 10
-239.739458
 20
-321.853942
 30
0.0
 40
149.266098
100
AcDbArc
 50
90.0
 51
90.16622
  0
ARC
  5
1E5
100
AcDbEntity
  8
1
100
AcDbCircle
 10
-241.29653
 20
-138.123
 30
0.0
 40
34.5
100
AcDbArc
 50
272.586779
 51
277.629539
  0
LINE
  5
1E6
100
AcDbEntity
  8
1
100
AcDbLine
 10
-240.172494
 20
-171.651336
 30
0.0
 11
-239.739458
 21
-171.651336
 31
0.0
  0
CIRCLE
  5
1E7
100
AcDbEntity
  8
1
100
AcDbCircle
 10
-254.172494
 20
-116.627336
 30
0.0
 40
3.0105
  0
CIRCLE
  5
1E8
100
AcDbEntity
  8
1
100
AcDbCircle
 10
-254.172494
 20
-116.627336
 30
0.0
 40
2.15
  0
CIRCLE
  5
1E9
100
AcDbEntity
  8
1
 62
     2
100
AcDbCircle
 10
-254.172494
 20
-116.627336
 30
0.0
 40
2.0
  0
CIRCLE
  5
1EA
100
AcDbEntity
  8
1
100
AcDbCircle
 10
-254.172494
 20
-116.627336
 30
0.0
 40
1.621
  0
CIRCLE
  5
1EB
100
AcDbEntity
  8
1
100
AcDbCircle
 10
-247.172494
 20
-161.675336
 30
0.0
 40
3.0105
  0
CIRCLE
  5
1EC
100
AcDbEntity
  8
1
100
AcDbCircle
 10
-247.172494
 20
-161.675336
 30
0.0
 40
2.15
  0
CIRCLE
  5
1ED
100
AcDbEntity
  8
1
 62
     2
100
AcDbCircle
 10
-247.172494
 20
-161.675336
 30
0.0
 40
2.0
  0
CIRCLE
  5
1EE
100
AcDbEntity
  8
1
100
AcDbCircle
 10
-247.172494
 20
-161.675336
 30
0.0
 40
1.621
  0
LINE
  5
1EF
100
AcDbEntity
  8
1
100
AcDbLine
 10
-254.172494
 20
-103.463462
 30
0.0
 11
-254.172494
 21
-102.641064
 31
0.0
  0
LINE
  5
1F0
100
AcDbEntity
  8
1
100
AcDbLine
 10
-240.172494
 20
-107.651336
 30
0.0
 11
-240.172494
 21
-103.026554
 31
0.0
  0
LINE
  5
1F1
100
AcDbEntity
  8
1
100
AcDbLine
 10
-240.172494
 20
-175.27612
 30
0.0
 11
-240.172494
 21
-170.651336
 31
0.0
  0
LINE
  5
1F2
100
AcDbEntity
  8
1
100
AcDbLine
 10
-240.172494
 20
-156.651336
 30
0.0
 11
-240.172494
 21
-121.651336
 31
0.0
  0
LINE
  5
1F3
100
AcDbEntity
  8
1
100
AcDbLine
 10
-254.172494
 20
-175.66161
 30
0.0
 11
-254.172494
 21
-174.839212
 31
0.0
  0
LINE
  5
1F4
100
AcDbEntity
  8
1
100
AcDbLine
 10
-254.172494
 20
-156.651336
 30
0.0
 11
-254.172494
 21
-121.651336
 31
0.0
  0
ARC
  5
1F5
100
AcDbEntity
  8
1
100
AcDbCircle
 10
-248.172494
 20
-139.151336
 30
0.0
 40
31.624146
100
AcDbArc
 50
111.324291
 51
248.675709
  0
ARC
  5
1F6
100
AcDbEntity
  8
1
100
AcDbCircle
 10
-248.172494
 20
-139.151336
 30
0.0
 40
31.624146
100
AcDbArc
 50
292.105659
 51
67.894341
  0
ARC
  5
1F7
100
AcDbEntity
  8
1
100
AcDbCircle
 10
-248.172494
 20
-139.151336
 30
0.0
 40
31.1645
100
AcDbArc
 50
111.65455
 51
248.34545
  0
ARC
  5
1F8
100
AcDbEntity
  8
1
100
AcDbCircle
 10
-248.172494
 20
-139.151336
 30
0.0
 40
31.1645
100
AcDbArc
 50
293.226677
 51
66.773323
  0
LINE
  5
1F9
100
AcDbEntity
  8
1
  6
CENTER
 62
     2
100
AcDbLine
 10
-258.97976
 20
-116.627336
 30
0.0
 11
-249.47419
 21
-116.627336
 31
0.0
  0
LINE
  5
1FA
100
AcDbEntity
  8
1
  6
CENTER
 62
     2
100
AcDbLine
 10
-254.172494
 20
-121.259534
 30
0.0
 11
-254.172494
 21
-112.012706
 31
0.0
  0
LINE
  5
1FB
100
AcDbEntity
  8
1
  6
CENTER
 62
     2
100
AcDbLine
 10
-251.97976
 20
-161.675336
 30
0.0
 11
-242.47419
 21
-161.675336
 31
0.0
  0
LINE
  5
1FC
100
AcDbEntity
  8
1
100
AcDbLine
 10
-240.172494
 20
12.248664
 30
0.0
 11
-240.172494
 21
15.848664
 31
0.0
  0
LINE
  5
1FD
100
AcDbEntity
  8
1
100
AcDbLine
 10
-240.172494
 20
25.848664
 30
0.0
 11
-240.172494
 21
34.848664
 31
0.0
  0
LINE
  5
1FE
100
AcDbEntity
  8
1
100
AcDbLine
 10
-254.172494
 20
12.248664
 30
0.0
 11
-254.172494
 21
15.848664
 31
0.0
  0
LINE
  5
1FF
100
AcDbEntity
  8
1
100
AcDbLine
 10
-254.172494
 20
25.848664
 30
0.0
 11
-254.172494
 21
34.848664
 31
0.0
  0
LINE
  5
200
100
AcDbEntity
  8
1
100
AcDbLine
 10
-306.672494
 20
198.39096
 30
0.0
 11
-291.035918
 21
198.39096
 31
0.0
  0
LINE
  5
201
100
AcDbEntity
  8
1
  6
DASHED
100
AcDbLine
 10
-291.035918
 20
198.39096
 30
0.0
 11
-282.172494
 21
198.39096
 31
0.0
  0
LINE
  5
202
100
AcDbEntity
  8
1
100
AcDbLine
 10
-304.765028
 20
183.39096
 30
0.0
 11
-296.355824
 21
183.39096
 31
0.0
  0
LINE
  5
203
100
AcDbEntity
  8
1
  6
DASHED
100
AcDbLine
 10
-296.355824
 20
183.39096
 30
0.0
 11
-285.181812
 21
183.39096
 31
0.0
  0
LINE
  5
204
100
AcDbEntity
  8
1
100
AcDbLine
 10
-304.765028
 20
182.996428
 30
0.0
 11
-296.750894
 21
180.870324
 31
0.0
  0
LINE
  5
205
100
AcDbEntity
  8
1
  6
DASHED
100
AcDbLine
 10
-296.750894
 20
180.870324
 30
0.0
 11
-293.80994
 21
180.090106
 31
0.0
  0
LINE
  5
206
100
AcDbEntity
  8
1
  6
DASHED
100
AcDbLine
 10
-293.80994
 20
162.691816
 30
0.0
 11
-295.663544
 21
162.200064
 31
0.0
  0
LINE
  5
207
100
AcDbEntity
  8
1
100
AcDbLine
 10
-295.663544
 20
162.200064
 30
0.0
 11
-304.765028
 21
159.785494
 31
0.0
  0
LINE
  5
208
100
AcDbEntity
  8
1
100
AcDbLine
 10
-304.765028
 20
159.39096
 30
0.0
 11
-294.869454
 21
159.39096
 31
0.0
  0
LINE
  5
209
100
AcDbEntity
  8
1
  6
DASHED
100
AcDbLine
 10
-294.869454
 20
159.39096
 30
0.0
 11
-285.181812
 21
159.39096
 31
0.0
  0
LINE
  5
20A
100
AcDbEntity
  8
1
100
AcDbLine
 10
-306.672494
 20
152.39096
 30
0.0
 11
-292.072382
 21
152.39096
 31
0.0
  0
LINE
  5
20B
100
AcDbEntity
  8
1
  6
DASHED
100
AcDbLine
 10
-292.072382
 20
152.39096
 30
0.0
 11
-282.172494
 21
152.39096
 31
0.0
  0
LINE
  5
20C
100
AcDbEntity
  8
1
100
AcDbLine
 10
-189.672494
 20
198.39096
 30
0.0
 11
-192.549362
 21
198.39096
 31
0.0
  0
LINE
  5
20D
100
AcDbEntity
  8
1
  6
DASHED
100
AcDbLine
 10
-192.549362
 20
198.39096
 30
0.0
 11
-212.172494
 21
198.39096
 31
0.0
  0
LINE
  5
20E
100
AcDbEntity
  8
1
100
AcDbLine
 10
-189.672494
 20
198.39096
 30
0.0
 11
-189.672494
 21
191.047482
 31
0.0
  0
LINE
  5
20F
100
AcDbEntity
  8
1
  6
DASHED
100
AcDbLine
 10
-189.672494
 20
191.047482
 30
0.0
 11
-189.672494
 21
152.39096
 31
0.0
  0
LINE
  5
210
100
AcDbEntity
  8
1
100
AcDbLine
 10
104.014598
 20
7.248664
 30
0.0
 11
72.514598
 21
7.248664
 31
0.0
  0
LINE
  5
211
100
AcDbEntity
  8
1
100
AcDbLine
 10
53.264598
 20
-1.151336
 30
0.0
 11
123.264598
 21
-1.151336
 31
0.0
  0
LINE
  5
212
100
AcDbEntity
  8
1
100
AcDbLine
 10
120.713334
 20
-13.151336
 30
0.0
 11
55.81586
 21
-13.151336
 31
0.0
  0
LINE
  5
213
100
AcDbEntity
  8
2
100
AcDbLine
 10
-239.333244
 20
159.592131
 30
0.0
 11
-56.909336
 21
164.394423
 31
0.0
  0
LINE
  5
214
100
AcDbEntity
  8
2
100
AcDbLine
 10
-214.923756
 20
-15.151336
 30
0.0
 11
-214.923756
 21
-20.92965
 31
0.0
  0
LINE
  5
215
100
AcDbEntity
  8
2
100
AcDbLine
 10
-214.923756
 20
-20.92965
 30
0.0
 11
-216.173756
 21
-21.651336
 31
0.0
  0
LINE
  5
216
100
AcDbEntity
  8
2
100
AcDbLine
 10
-216.173756
 20
-21.651336
 30
0.0
 11
-228.673756
 21
-21.651336
 31
0.0
  0
LINE
  5
217
100
AcDbEntity
  8
2
100
AcDbLine
 10
-218.673756
 20
-15.151336
 30
0.0
 11
-218.673756
 21
-20.92965
 31
0.0
  0
ARC
  5
218
100
AcDbEntity
  8
2
100
AcDbCircle
 10
-216.798756
 20
-18.519274
 30
0.0
 40
3.053774
100
AcDbArc
 50
232.121121
 51
307.878879
  0
ARC
  5
219
100
AcDbEntity
  8
2
100
AcDbCircle
 10
-222.423756
 20
-10.323048
 30
0.0
 40
11.25
100
AcDbArc
 50
250.528777
 51
289.471219
  0
LINE
  5
21A
100
AcDbEntity
  8
2
100
AcDbLine
 10
-229.923756
 20
-15.151336
 30
0.0
 11
-229.923756
 21
-20.92965
 31
0.0
  0
LINE
  5
21B
100
AcDbEntity
  8
2
100
AcDbLine
 10
-229.923756
 20
-20.92965
 30
0.0
 11
-228.673756
 21
-21.651336
 31
0.0
  0
LINE
  5
21C
100
AcDbEntity
  8
2
100
AcDbLine
 10
-226.173756
 20
-15.151336
 30
0.0
 11
-226.173756
 21
-20.92965
 31
0.0
  0
ARC
  5
21D
100
AcDbEntity
  8
2
100
AcDbCircle
 10
-228.048756
 20
-18.519274
 30
0.0
 40
3.053774
100
AcDbArc
 50
232.121121
 51
307.878879
  0
LINE
  5
21E
100
AcDbEntity
  8
2
100
AcDbLine
 10
-214.723756
 20
-13.151336
 30
0.0
 11
-214.723756
 21
-15.151336
 31
0.0
  0
LINE
  5
21F
100
AcDbEntity
  8
2
100
AcDbLine
 10
-214.723756
 20
-15.151336
 30
0.0
 11
-230.123756
 21
-15.151336
 31
0.0
  0
LINE
  5
220
100
AcDbEntity
  8
2
100
AcDbLine
 10
-230.123756
 20
-15.151336
 30
0.0
 11
-230.123756
 21
-13.151336
 31
0.0
  0
LINE
  5
221
100
AcDbEntity
  8
2
100
AcDbLine
 10
-222.423756
 20
-15.151336
 30
0.0
 11
-222.923756
 21
-13.151336
 31
0.0
  0
LINE
  5
222
100
AcDbEntity
  8
2
100
AcDbLine
 10
-222.423756
 20
-13.151336
 30
0.0
 11
-221.923756
 21
-15.151336
 31
0.0
  0
LINE
  5
223
100
AcDbEntity
  8
2
100
AcDbLine
 10
-267.540568
 20
-21.651336
 30
0.0
 11
-278.17123
 21
-21.651336
 31
0.0
  0
LINE
  5
224
100
AcDbEntity
  8
2
100
AcDbLine
 10
-268.17123
 20
-20.627653
 30
0.0
 11
-268.17123
 21
-20.92965
 31
0.0
  0
ARC
  5
225
100
AcDbEntity
  8
2
100
AcDbCircle
 10
-266.29623
 20
-18.519274
 30
0.0
 40
3.053774
100
AcDbArc
 50
232.121121
 51
239.798742
  0
ARC
  5
226
100
AcDbEntity
  8
2
100
AcDbCircle
 10
-271.92123
 20
-10.323048
 30
0.0
 40
11.25
100
AcDbArc
 50
250.528777
 51
289.471219
  0
LINE
  5
227
100
AcDbEntity
  8
2
100
AcDbLine
 10
-279.42123
 20
-15.151336
 30
0.0
 11
-279.42123
 21
-20.92965
 31
0.0
  0
LINE
  5
228
100
AcDbEntity
  8
2
100
AcDbLine
 10
-279.42123
 20
-20.92965
 30
0.0
 11
-278.17123
 21
-21.651336
 31
0.0
  0
LINE
  5
229
100
AcDbEntity
  8
2
100
AcDbLine
 10
-275.67123
 20
-15.151336
 30
0.0
 11
-275.67123
 21
-20.92965
 31
0.0
  0
ARC
  5
22A
100
AcDbEntity
  8
2
100
AcDbCircle
 10
-277.54623
 20
-18.519274
 30
0.0
 40
3.053774
100
AcDbArc
 50
232.121121
 51
307.878879
  0
LINE
  5
22B
100
AcDbEntity
  8
2
100
AcDbLine
 10
-273.893949
 20
-15.151336
 30
0.0
 11
-279.62123
 21
-15.151336
 31
0.0
  0
LINE
  5
22C
100
AcDbEntity
  8
2
100
AcDbLine
 10
-279.62123
 20
-15.151336
 30
0.0
 11
-279.62123
 21
-13.151336
 31
0.0
  0
LINE
  5
22D
100
AcDbEntity
  8
2
100
AcDbLine
 10
-225.747256
 20
-29.151336
 30
0.0
 11
-219.100256
 21
-29.151336
 31
0.0
  0
LINE
  5
22E
100
AcDbEntity
  8
2
100
AcDbLine
 10
-225.747256
 20
-29.151336
 30
0.0
 11
-226.423756
 21
-28.474836
 31
0.0
  0
LINE
  5
22F
100
AcDbEntity
  8
2
100
AcDbLine
 10
-226.423756
 20
-28.474836
 30
0.0
 11
-226.423756
 21
-21.651336
 31
0.0
  0
LINE
  5
230
100
AcDbEntity
  8
2
 62
     2
100
AcDbLine
 10
-225.747256
 20
-29.151336
 30
0.0
 11
-225.747256
 21
-21.651336
 31
0.0
  0
LINE
  5
231
100
AcDbEntity
  8
2
100
AcDbLine
 10
-219.100256
 20
-29.151336
 30
0.0
 11
-218.423756
 21
-28.474836
 31
0.0
  0
LINE
  5
232
100
AcDbEntity
  8
2
100
AcDbLine
 10
-218.423756
 20
-28.474836
 30
0.0
 11
-218.423756
 21
-21.651336
 31
0.0
  0
LINE
  5
233
100
AcDbEntity
  8
2
100
AcDbLine
 10
-218.423756
 20
-28.474836
 30
0.0
 11
-226.423756
 21
-28.474836
 31
0.0
  0
LINE
  5
234
100
AcDbEntity
  8
2
 62
     2
100
AcDbLine
 10
-219.100256
 20
-29.151336
 30
0.0
 11
-219.100256
 21
-21.651336
 31
0.0
  0
LINE
  5
235
100
AcDbEntity
  8
2
100
AcDbLine
 10
-275.24473
 20
-29.151336
 30
0.0
 11
-268.59773
 21
-29.151336
 31
0.0
  0
LINE
  5
236
100
AcDbEntity
  8
2
100
AcDbLine
 10
-275.24473
 20
-29.151336
 30
0.0
 11
-275.92123
 21
-28.474836
 31
0.0
  0
LINE
  5
237
100
AcDbEntity
  8
2
100
AcDbLine
 10
-275.92123
 20
-28.474836
 30
0.0
 11
-275.92123
 21
-21.651336
 31
0.0
  0
LINE
  5
238
100
AcDbEntity
  8
2
 62
     2
100
AcDbLine
 10
-275.24473
 20
-29.151336
 30
0.0
 11
-275.24473
 21
-21.651336
 31
0.0
  0
LINE
  5
239
100
AcDbEntity
  8
2
100
AcDbLine
 10
-268.59773
 20
-29.151336
 30
0.0
 11
-267.92123
 21
-28.474836
 31
0.0
  0
LINE
  5
23A
100
AcDbEntity
  8
2
100
AcDbLine
 10
-267.92123
 20
-28.474836
 30
0.0
 11
-267.92123
 21
-21.651336
 31
0.0
  0
LINE
  5
23B
100
AcDbEntity
  8
2
100
AcDbLine
 10
-267.92123
 20
-28.474836
 30
0.0
 11
-275.92123
 21
-28.474836
 31
0.0
  0
LINE
  5
23C
100
AcDbEntity
  8
2
 62
     2
100
AcDbLine
 10
-268.59773
 20
-29.151336
 30
0.0
 11
-268.59773
 21
-21.651336
 31
0.0
  0
LINE
  5
23D
100
AcDbEntity
  8
2
100
AcDbLine
 10
-146.2438
 20
47.777596
 30
0.0
 11
-143.55664
 21
50.464756
 31
0.0
  0
LINE
  5
23E
100
AcDbEntity
  8
2
  6
CENTER
 62
     2
100
AcDbLine
 10
-222.423756
 20
32.659023
 30
0.0
 11
-222.423756
 21
-30.766736
 31
0.0
  0
LINE
  5
23F
100
AcDbEntity
  8
2
  6
CENTER
 62
     2
100
AcDbLine
 10
-271.92123
 20
32.98416
 30
0.0
 11
-271.92123
 21
-30.766736
 31
0.0
  0
LINE
  5
240
100
AcDbEntity
  8
2
100
AcDbLine
 10
-229.923756
 20
25.848664
 30
0.0
 11
-229.923756
 21
30.626976
 31
0.0
  0
LINE
  5
241
100
AcDbEntity
  8
2
100
AcDbLine
 10
-229.923756
 20
30.626976
 30
0.0
 11
-228.673756
 21
31.348664
 31
0.0
  0
LINE
  5
242
100
AcDbEntity
  8
2
100
AcDbLine
 10
-226.173756
 20
25.848664
 30
0.0
 11
-226.173756
 21
30.626976
 31
0.0
  0
ARC
  5
243
100
AcDbEntity
  8
2
100
AcDbCircle
 10
-228.048756
 20
28.2166
 30
0.0
 40
3.053774
100
AcDbArc
 50
52.121121
 51
127.878879
  0
ARC
  5
244
100
AcDbEntity
  8
2
100
AcDbCircle
 10
-222.423756
 20
20.020374
 30
0.0
 40
11.25
100
AcDbArc
 50
70.528781
 51
109.471223
  0
LINE
  5
245
100
AcDbEntity
  8
2
100
AcDbLine
 10
-214.923756
 20
25.848664
 30
0.0
 11
-214.923756
 21
30.626976
 31
0.0
  0
LINE
  5
246
100
AcDbEntity
  8
2
100
AcDbLine
 10
-214.923756
 20
30.626976
 30
0.0
 11
-216.173756
 21
31.348664
 31
0.0
  0
LINE
  5
247
100
AcDbEntity
  8
2
100
AcDbLine
 10
-216.173756
 20
31.348664
 30
0.0
 11
-228.673756
 21
31.348664
 31
0.0
  0
LINE
  5
248
100
AcDbEntity
  8
2
100
AcDbLine
 10
-218.673756
 20
25.848664
 30
0.0
 11
-218.673756
 21
30.626976
 31
0.0
  0
ARC
  5
249
100
AcDbEntity
  8
2
100
AcDbCircle
 10
-216.798756
 20
28.2166
 30
0.0
 40
3.053774
100
AcDbArc
 50
52.121121
 51
127.878879
  0
LINE
  5
24A
100
AcDbEntity
  8
2
100
AcDbLine
 10
-264.42123
 20
25.848664
 30
0.0
 11
-264.42123
 21
30.626976
 31
0.0
  0
LINE
  5
24B
100
AcDbEntity
  8
2
100
AcDbLine
 10
-264.42123
 20
30.626976
 30
0.0
 11
-265.67123
 21
31.348664
 31
0.0
  0
LINE
  5
24C
100
AcDbEntity
  8
2
100
AcDbLine
 10
-268.17123
 20
25.848664
 30
0.0
 11
-268.17123
 21
30.626976
 31
0.0
  0
ARC
  5
24D
100
AcDbEntity
  8
2
100
AcDbCircle
 10
-266.29623
 20
28.2166
 30
0.0
 40
3.053774
100
AcDbArc
 50
52.121121
 51
127.878879
  0
ARC
  5
24E
100
AcDbEntity
  8
2
100
AcDbCircle
 10
-271.92123
 20
20.020374
 30
0.0
 40
11.25
100
AcDbArc
 50
70.528777
 51
109.471219
  0
LINE
  5
24F
100
AcDbEntity
  8
2
100
AcDbLine
 10
-279.42123
 20
25.848664
 30
0.0
 11
-279.42123
 21
30.626976
 31
0.0
  0
LINE
  5
250
100
AcDbEntity
  8
2
100
AcDbLine
 10
-279.42123
 20
30.626976
 30
0.0
 11
-278.17123
 21
31.348664
 31
0.0
  0
LINE
  5
251
100
AcDbEntity
  8
2
100
AcDbLine
 10
-278.17123
 20
31.348664
 30
0.0
 11
-265.67123
 21
31.348664
 31
0.0
  0
LINE
  5
252
100
AcDbEntity
  8
2
100
AcDbLine
 10
-275.67123
 20
25.848664
 30
0.0
 11
-275.67123
 21
30.626976
 31
0.0
  0
ARC
  5
253
100
AcDbEntity
  8
2
100
AcDbCircle
 10
-277.54623
 20
28.2166
 30
0.0
 40
3.053774
100
AcDbArc
 50
52.121121
 51
127.878879
  0
LINE
  5
254
100
AcDbEntity
  8
2
100
AcDbLine
 10
-136.163311
 20
56.221269
 30
0.0
 11
-114.302047
 21
52.366539
 31
0.0
  0
ARC
  5
255
100
AcDbEntity
  8
2
100
AcDbCircle
 10
-267.172732
 20
51.357047
 30
0.0
 40
5.0
100
AcDbArc
 50
290.0
 51
360.0
  0
LINE
  5
256
100
AcDbEntity
  8
2
100
AcDbLine
 10
-282.198792
 20
40.567119
 30
0.0
 11
-265.462631
 21
46.658584
 31
0.0
  0
LINE
  5
257
100
AcDbEntity
  8
2
100
AcDbLine
 10
-236.172732
 20
35.848664
 30
0.0
 11
-284.172732
 21
35.848664
 31
0.0
  0
LINE
  5
258
100
AcDbEntity
  8
2
100
AcDbLine
 10
-258.172732
 20
34.848664
 30
0.0
 11
-258.172732
 21
35.848664
 31
0.0
  0
LINE
  5
259
100
AcDbEntity
  8
2
100
AcDbLine
 10
-284.172732
 20
37.748041
 30
0.0
 11
-284.172732
 21
35.848664
 31
0.0
  0
LINE
  5
25A
100
AcDbEntity
  8
2
100
AcDbLine
 10
-232.172732
 20
55.848664
 30
0.0
 11
-233.172732
 21
56.848664
 31
0.0
  0
LINE
  5
25B
100
AcDbEntity
  8
2
100
AcDbLine
 10
-261.172732
 20
56.848664
 30
0.0
 11
-262.172732
 21
55.848664
 31
0.0
  0
LINE
  5
25C
100
AcDbEntity
  8
2
100
AcDbLine
 10
-262.172732
 20
51.357047
 30
0.0
 11
-262.172732
 21
55.848664
 31
0.0
  0
LINE
  5
25D
100
AcDbEntity
  8
2
100
AcDbLine
 10
-232.172732
 20
55.741704
 30
0.0
 11
-232.172732
 21
55.848664
 31
0.0
  0
LINE
  5
25E
100
AcDbEntity
  8
2
100
AcDbLine
 10
-236.172732
 20
34.848664
 30
0.0
 11
-258.172732
 21
34.848664
 31
0.0
  0
LINE
  5
25F
100
AcDbEntity
  8
2
100
AcDbLine
 10
-236.172732
 20
34.848664
 30
0.0
 11
-236.172732
 21
35.848664
 31
0.0
  0
LINE
  5
260
100
AcDbEntity
  8
2
100
AcDbLine
 10
-253.941963
 20
55.848664
 30
0.0
 11
-253.941963
 21
35.848664
 31
0.0
  0
LINE
  5
261
100
AcDbEntity
  8
2
100
AcDbLine
 10
-240.403501
 20
55.848664
 30
0.0
 11
-240.403501
 21
35.848664
 31
0.0
  0
ARC
  5
262
100
AcDbEntity
  8
2
100
AcDbCircle
 10
-281.172732
 20
37.748041
 30
0.0
 40
3.0
100
AcDbArc
 50
110.0
 51
180.0
  0
ARC
  5
263
100
AcDbEntity
  8
2
100
AcDbCircle
 10
-252.941963
 20
55.848664
 30
0.0
 40
1.0
100
AcDbArc
 50
90.0
 51
180.0
  0
ARC
  5
264
100
AcDbEntity
  8
2
100
AcDbCircle
 10
-241.403501
 20
55.848664
 30
0.0
 40
1.0
100
AcDbArc
 50
0.0
 51
90.0
  0
LINE
  5
265
100
AcDbEntity
  8
2
100
AcDbLine
 10
-233.172732
 20
56.848664
 30
0.0
 11
-261.172732
 21
56.848664
 31
0.0
  0
ARC
  5
266
100
AcDbEntity
  8
2
100
AcDbCircle
 10
-270.511095
 20
66.530866
 30
0.0
 40
22.811628
100
AcDbArc
 50
283.335578
 51
313.128065
  0
LINE
  5
267
100
AcDbEntity
  8
2
100
AcDbLine
 10
-231.57597
 20
52.163858
 30
0.0
 11
-53.962457
 21
89.916776
 31
0.0
  0
CIRCLE
  5
268
100
AcDbEntity
  8
2
100
AcDbCircle
 10
-157.172732
 20
54.848664
 30
0.0
 40
2.0
  0
ARC
  5
269
100
AcDbEntity
  8
2
100
AcDbCircle
 10
-157.172732
 20
54.848664
 30
0.0
 40
5.0
100
AcDbArc
 50
0.0
 51
180.0
  0
LINE
  5
26A
100
AcDbEntity
  8
2
100
AcDbLine
 10
-152.172732
 20
54.848664
 30
0.0
 11
-152.172732
 21
45.848664
 31
0.0
  0
LINE
  5
26B
100
AcDbEntity
  8
2
100
AcDbLine
 10
-162.172732
 20
54.848664
 30
0.0
 11
-162.172732
 21
45.848664
 31
0.0
  0
ARC
  5
26C
100
AcDbEntity
  8
2
100
AcDbCircle
 10
-52.922898
 20
85.026038
 30
0.0
 40
5.0
100
AcDbArc
 50
12.0
 51
102.0
  0
LINE
  5
26D
100
AcDbEntity
  8
2
100
AcDbLine
 10
-47.333125
 20
82.776891
 30
0.0
 11
-48.03216
 21
86.065596
 31
0.0
  0
ARC
  5
26E
100
AcDbEntity
  8
2
100
AcDbCircle
 10
-48.311272
 20
82.56898
 30
0.0
 40
1.0
100
AcDbArc
 50
285.0
 51
12.0
  0
LINE
  5
26F
100
AcDbEntity
  8
2
100
AcDbLine
 10
-48.052453
 20
81.603054
 30
0.0
 11
-125.62513
 21
60.817518
 31
0.0
  0
LINE
  5
270
100
AcDbEntity
  8
2
100
AcDbLine
 10
-236.172732
 20
35.848664
 30
0.0
 11
-194.859135
 21
44.63014
 31
0.0
  0
ARC
  5
271
100
AcDbEntity
  8
2
100
AcDbCircle
 10
-229.172732
 20
55.741704
 30
0.0
 40
3.0
100
AcDbArc
 50
180.0
 51
282.0
  0
ARC
  5
272
100
AcDbEntity
  8
2
100
AcDbCircle
 10
-115.272369
 20
22.180485
 30
0.0
 40
40.0
100
AcDbArc
 50
105.0
 51
135.0
  0
ARC
  5
273
100
AcDbEntity
  8
2
100
AcDbCircle
 10
-161.172732
 20
45.848664
 30
0.0
 40
1.0
100
AcDbArc
 50
180.0
 51
270.0
  0
ARC
  5
274
100
AcDbEntity
  8
2
100
AcDbCircle
 10
-153.172732
 20
45.848664
 30
0.0
 40
1.0
100
AcDbArc
 50
270.0
 51
360.0
  0
LINE
  5
275
100
AcDbEntity
  8
2
100
AcDbLine
 10
-192.780018
 20
44.848664
 30
0.0
 11
-153.314867
 21
44.848664
 31
0.0
  0
ARC
  5
276
100
AcDbEntity
  8
2
100
AcDbCircle
 10
-153.314867
 20
54.848664
 30
0.0
 40
10.0
100
AcDbArc
 50
270.0
 51
315.0
  0
ARC
  5
277
100
AcDbEntity
  8
2
100
AcDbCircle
 10
-192.780018
 20
34.848664
 30
0.0
 40
10.0
100
AcDbArc
 50
90.0
 51
102.0
  0
LINE
  5
278
100
AcDbEntity
  8
2
100
AcDbLine
 10
-110.615104
 20
60.155818
 30
0.0
 11
-104.779849
 21
59.383999
 31
0.0
  0
LINE
  5
279
100
AcDbEntity
  8
2
100
AcDbLine
 10
-110.73538
 20
64.807214
 30
0.0
 11
-105.23365
 21
64.356298
 31
0.0
  0
LINE
  5
27A
100
AcDbEntity
  8
2
100
AcDbLine
 10
-101.338988
 20
65.936288
 30
0.0
 11
-110.859902
 21
62.073834
 31
0.0
  0
LINE
  5
27B
100
AcDbEntity
  8
2
100
AcDbLine
 10
-100.587139
 20
64.082988
 30
0.0
 11
-110.108053
 21
60.220533
 31
0.0
  0
LINE
  5
27C
100
AcDbEntity
  8
2
100
AcDbLine
 10
-100.657982
 20
60.754688
 30
0.0
 11
-110.613337
 21
57.444127
 31
0.0
  0
LINE
  5
27D
100
AcDbEntity
  8
2
100
AcDbLine
 10
-100.026881
 20
58.856871
 30
0.0
 11
-109.982235
 21
55.54631
 31
0.0
  0
LINE
  5
27E
100
AcDbEntity
  8
2
100
AcDbLine
 10
-100.587469
 20
55.110367
 30
0.0
 11
-110.807287
 21
51.164205
 31
0.0
  0
LINE
  5
27F
100
AcDbEntity
  8
2
100
AcDbLine
 10
-99.867052
 20
53.244623
 30
0.0
 11
-110.294649
 21
49.218232
 31
0.0
  0
LINE
  5
280
100
AcDbEntity
  8
2
100
AcDbLine
 10
-110.519719
 20
55.520156
 30
0.0
 11
-108.365157
 21
55.029758
 31
0.0
  0
ARC
  5
281
100
AcDbEntity
  8
2
100
AcDbCircle
 10
-110.297786
 20
56.495218
 30
0.0
 40
1.0
100
AcDbArc
 50
108.394069
 51
288.394069
  0
ARC
  5
282
100
AcDbEntity
  8
2
100
AcDbCircle
 10
-110.483977
 20
61.147184
 30
0.0
 40
1.0
100
AcDbArc
 50
112.081463
 51
292.081463
  0
ARC
  5
283
100
AcDbEntity
  8
2
100
AcDbCircle
 10
-100.342431
 20
59.805779
 30
0.0
 40
1.0
100
AcDbArc
 50
288.394069
 51
108.394069
  0
CIRCLE
  5
284
100
AcDbEntity
  8
2
100
AcDbCircle
 10
-100.460215
 20
49.895706
 30
0.0
 40
1.0
  0
LINE
  5
285
100
AcDbEntity
  8
2
100
AcDbLine
 10
-101.376491
 20
50.926499
 30
0.0
 11
-100.460215
 21
50.895706
 31
0.0
  0
LINE
  5
286
100
AcDbEntity
  8
2
100
AcDbLine
 10
-106.601283
 20
56.670614
 30
0.0
 11
-100.002975
 21
55.152019
 31
0.0
  0
LINE
  5
287
100
AcDbEntity
  8
2
100
AcDbLine
 10
-103.647185
 20
53.955902
 30
0.0
 11
-103.603227
 21
53.945897
 31
0.0
  0
ARC
  5
288
100
AcDbEntity
  8
2
100
AcDbCircle
 10
-100.227261
 20
54.177495
 30
0.0
 40
1.0
100
AcDbArc
 50
291.112991
 51
111.112991
  0
LINE
  5
289
100
AcDbEntity
  8
2
100
AcDbLine
 10
-105.00043
 20
66.34389
 30
0.0
 11
-100.881379
 21
66.006296
 31
0.0
  0
LINE
  5
28A
100
AcDbEntity
  8
2
100
AcDbLine
 10
-106.602821
 20
61.64254
 30
0.0
 11
-100.211305
 21
60.797145
 31
0.0
  0
ARC
  5
28B
100
AcDbEntity
  8
2
100
AcDbCircle
 10
-100.963064
 20
65.009638
 30
0.0
 40
1.0
100
AcDbArc
 50
292.081463
 51
112.081463
  0
ARC
  5
28C
100
AcDbEntity
  8
2
100
AcDbCircle
 10
-110.447079
 20
50.231333
 30
0.0
 40
1.0
100
AcDbArc
 50
111.105845
 51
266.001991
  0
LINE
  5
28D
100
AcDbEntity
  8
2
100
AcDbLine
 10
-101.263264
 20
48.92302
 30
0.0
 11
-100.460215
 21
48.895706
 31
0.0
  0
CIRCLE
  5
28E
100
AcDbEntity
  8
2
100
AcDbCircle
 10
-247.172732
 20
41.348664
 30
0.0
 40
5.0
  0
CIRCLE
  5
28F
100
AcDbEntity
  8
2
100
AcDbCircle
 10
-247.172732
 20
41.348664
 30
0.0
 40
3.0
  0
CIRCLE
  5
290
100
AcDbEntity
  8
2
100
AcDbCircle
 10
-247.172732
 20
41.348664
 30
0.0
 40
2.5
  0
LINE
  5
291
100
AcDbEntity
  8
2
100
AcDbLine
 10
-252.946234
 20
41.348664
 30
0.0
 11
-250.059483
 21
36.348664
 31
0.0
  0
LINE
  5
292
100
AcDbEntity
  8
2
100
AcDbLine
 10
-250.059483
 20
36.348664
 30
0.0
 11
-244.28598
 21
36.348664
 31
0.0
  0
LINE
  5
293
100
AcDbEntity
  8
2
100
AcDbLine
 10
-244.28598
 20
36.348664
 30
0.0
 11
-241.399229
 21
41.348664
 31
0.0
  0
LINE
  5
294
100
AcDbEntity
  8
2
100
AcDbLine
 10
-241.399229
 20
41.348664
 30
0.0
 11
-244.28598
 21
46.348664
 31
0.0
  0
LINE
  5
295
100
AcDbEntity
  8
2
100
AcDbLine
 10
-244.28598
 20
46.348664
 30
0.0
 11
-250.059483
 21
46.348664
 31
0.0
  0
LINE
  5
296
100
AcDbEntity
  8
2
100
AcDbLine
 10
-250.059483
 20
46.348664
 30
0.0
 11
-252.946234
 21
41.348664
 31
0.0
  0
ARC
  5
297
100
AcDbEntity
  8
2
  6
CENTER
 62
     2
100
AcDbCircle
 10
-157.172732
 20
54.848664
 30
0.0
 40
52.075925
100
AcDbArc
 50
348.756732
 51
23.167626
  0
LINE
  5
298
100
AcDbEntity
  8
2
  6
CENTER
 62
     2
100
AcDbLine
 10
-147.250111
 20
54.848664
 30
0.0
 11
-167.457385
 21
54.848664
 31
0.0
  0
LINE
  5
299
100
AcDbEntity
  8
2
  6
CENTER
 62
     2
100
AcDbLine
 10
-157.172732
 20
65.240154
 30
0.0
 11
-157.172732
 21
43.856269
 31
0.0
  0
LINE
  5
29A
100
AcDbEntity
  8
2
100
AcDbLine
 10
-238.403501
 20
46.041545
 30
0.0
 11
-238.403501
 21
35.848664
 31
0.0
  0
ARC
  5
29B
100
AcDbEntity
  8
2
100
AcDbCircle
 10
-233.403501
 20
46.041545
 30
0.0
 40
5.0
100
AcDbArc
 50
124.714037
 51
180.0
  0
ARC
  5
29C
100
AcDbEntity
  8
2
100
AcDbCircle
 10
-228.873118
 20
39.447939
 30
0.0
 40
13.0
100
AcDbArc
 50
102.0
 51
124.492462
  0
LINE
  5
29D
100
AcDbEntity
  8
2
100
AcDbLine
 10
-265.249502
 20
44.334335
 30
0.0
 11
-281.547313
 21
40.471008
 31
0.0
  0
LINE
  5
29E
100
AcDbEntity
  8
2
  6
CENTER
 62
     2
100
AcDbLine
 10
-255.915822
 20
41.348664
 30
0.0
 11
-238.124069
 21
41.348664
 31
0.0
  0
CIRCLE
  5
29F
100
AcDbEntity
  8
2
100
AcDbCircle
 10
-157.172732
 20
54.848664
 30
0.0
 40
1.5
  0
ARC
  5
2A0
100
AcDbEntity
  8
2
100
AcDbCircle
 10
-55.174737
 20
41.623224
 30
0.0
 40
8.0
100
AcDbArc
 50
359.985133
 51
88.0
  0
LINE
  5
2A1
100
AcDbEntity
  8
2
100
AcDbLine
 10
-140.124155
 20
44.734554
 30
0.0
 11
-116.35551
 21
40.5435
 31
0.0
  0
LINE
  5
2A2
100
AcDbEntity
  8
2
100
AcDbLine
 10
-113.439771
 20
50.440602
 30
0.0
 11
-113.386996
 21
51.195326
 31
0.0
  0
LINE
  5
2A3
100
AcDbEntity
  8
2
100
AcDbLine
 10
-97.478746
 20
49.324499
 30
0.0
 11
-97.424274
 21
50.103487
 31
0.0
  0
LINE
  5
2A4
100
AcDbEntity
  8
2
100
AcDbLine
 10
-108.089927
 20
55.269011
 30
0.0
 11
-102.104542
 21
54.850472
 31
0.0
  0
LINE
  5
2A5
100
AcDbEntity
  8
2
100
AcDbLine
 10
-109.339781
 20
51.730851
 30
0.0
 11
-109.157247
 21
54.341204
 31
0.0
  0
LINE
  5
2A6
100
AcDbEntity
  8
2
100
AcDbLine
 10
-101.469003
 20
49.603525
 30
0.0
 11
-101.251781
 21
52.70994
 31
0.0
  0
LINE
  5
2A7
100
AcDbEntity
  8
2
100
AcDbLine
 10
-109.157247
 20
54.341204
 30
0.0
 11
-108.089927
 21
55.269011
 31
0.0
  0
LINE
  5
2A8
100
AcDbEntity
  8
2
100
AcDbLine
 10
-102.104542
 20
54.850472
 30
0.0
 11
-101.892443
 21
54.60648
 31
0.0
  0
LINE
  5
2A9
100
AcDbEntity
  8
2
100
AcDbLine
 10
-47.174737
 20
41.621148
 30
0.0
 11
-47.175308
 21
39.419187
 31
0.0
  0
LINE
  5
2AA
100
AcDbEntity
  8
2
100
AcDbLine
 10
-54.895541
 20
49.61835
 30
0.0
 11
-96.355127
 21
51.066151
 31
0.0
  0
ARC
  5
2AB
100
AcDbEntity
  8
2
100
AcDbCircle
 10
-191.94648
 20
19.848664
 30
0.0
 40
1.0
100
AcDbArc
 50
180.0
 51
270.0
  0
LINE
  5
2AC
100
AcDbEntity
  8
2
100
AcDbLine
 10
-191.94648
 20
18.848664
 30
0.0
 11
-186.172732
 21
18.848664
 31
0.0
  0
LINE
  5
2AD
100
AcDbEntity
  8
2
100
AcDbLine
 10
-182.637198
 20
20.31313
 30
0.0
 11
-179.101664
 21
23.848664
 31
0.0
  0
LINE
  5
2AE
100
AcDbEntity
  8
2
100
AcDbLine
 10
-192.94648
 20
30.848664
 30
0.0
 11
-180.637198
 21
43.157946
 31
0.0
  0
ARC
  5
2AF
100
AcDbEntity
  8
2
100
AcDbCircle
 10
-145.3336
 20
15.190321
 30
0.0
 40
30.0
100
AcDbArc
 50
80.0
 51
135.0
  0
LINE
  5
2B0
100
AcDbEntity
  8
2
100
AcDbLine
 10
-192.94648
 20
30.848664
 30
0.0
 11
-192.94648
 21
25.848664
 31
0.0
  0
ARC
  5
2B1
100
AcDbEntity
  8
2
100
AcDbCircle
 10
-100.471439
 20
49.533768
 30
0.0
 40
1.0
100
AcDbArc
 50
176.0
 51
266.0
  0
LINE
  5
2B2
100
AcDbEntity
  8
2
100
AcDbLine
 10
-112.511964
 20
49.373282
 30
0.0
 11
-98.546067
 21
48.396691
 31
0.0
  0
LINE
  5
2B3
100
AcDbEntity
  8
2
100
AcDbLine
 10
-184.101664
 20
39.69348
 30
0.0
 11
-184.101664
 21
25.848664
 31
0.0
  0
LINE
  5
2B4
100
AcDbEntity
  8
2
100
AcDbLine
 10
-109.157247
 20
54.341204
 30
0.0
 11
-103.588028
 21
53.951766
 31
0.0
  0
ARC
  5
2B5
100
AcDbEntity
  8
2
100
AcDbCircle
 10
-102.463655
 20
119.32812
 30
0.0
 40
80.0
100
AcDbArc
 50
260.0
 51
269.845396
  0
ARC
  5
2B6
100
AcDbEntity
  8
2
100
AcDbCircle
 10
-49.175308
 20
39.419706
 30
0.0
 40
2.0
100
AcDbArc
 50
222.427004
 51
359.985133
  0
ARC
  5
2B7
100
AcDbEntity
  8
2
100
AcDbCircle
 10
-56.556683
 20
32.673202
 30
0.0
 40
8.0
100
AcDbArc
 50
42.427004
 51
123.659088
  0
ARC
  5
2B8
100
AcDbEntity
  8
2
100
AcDbCircle
 10
-65.424686
 20
45.990804
 30
0.0
 40
8.0
100
AcDbArc
 50
232.340912
 51
303.659088
  0
ARC
  5
2B9
100
AcDbEntity
  8
2
100
AcDbCircle
 10
-75.200077
 20
33.324244
 30
0.0
 40
8.0
100
AcDbArc
 50
52.340912
 51
123.659088
  0
ARC
  5
2BA
100
AcDbEntity
  8
2
100
AcDbCircle
 10
-84.068081
 20
46.641846
 30
0.0
 40
8.0
100
AcDbArc
 50
232.340912
 51
303.659088
  0
ARC
  5
2BB
100
AcDbEntity
  8
2
100
AcDbCircle
 10
-93.843471
 20
33.975286
 30
0.0
 40
8.0
100
AcDbArc
 50
52.340912
 51
123.42906
  0
ARC
  5
2BC
100
AcDbEntity
  8
2
100
AcDbCircle
 10
-102.657937
 20
47.328383
 30
0.0
 40
8.0
100
AcDbArc
 50
269.845396
 51
303.42906
  0
ARC
  5
2BD
100
AcDbEntity
  8
2
100
AcDbCircle
 10
-186.172732
 20
23.848664
 30
0.0
 40
5.0
100
AcDbArc
 50
270.0
 51
315.0
  0
LINE
  5
2BE
100
AcDbEntity
  8
2
100
AcDbLine
 10
-113.386996
 20
51.195326
 30
0.0
 11
-114.302047
 21
52.366539
 31
0.0
  0
LINE
  5
2BF
100
AcDbEntity
  8
2
100
AcDbLine
 10
-96.355127
 20
51.066151
 30
0.0
 11
-97.424274
 21
50.103487
 31
0.0
  0
ARC
  5
2C0
100
AcDbEntity
  8
2
100
AcDbCircle
 10
-112.442207
 20
50.370846
 30
0.0
 40
1.0
100
AcDbArc
 50
176.0
 51
266.0
  0
ARC
  5
2C1
100
AcDbEntity
  8
2
100
AcDbCircle
 10
-98.476311
 20
49.394255
 30
0.0
 40
1.0
100
AcDbArc
 50
266.0
 51
356.0
  0
LINE
  5
2C2
100
AcDbEntity
  8
2
100
AcDbLine
 10
-138.172732
 20
44.390465
 30
0.0
 11
-138.172732
 21
54.97642
 31
0.0
  0
ARC
  5
2C3
100
AcDbEntity
  8
2
100
AcDbCircle
 10
-135.642367
 20
59.175693
 30
0.0
 40
3.0
100
AcDbArc
 50
258.30264
 51
260.0
  0
LINE
  5
2C4
100
AcDbEntity
  8
2
100
AcDbLine
 10
-179.172732
 20
44.848664
 30
0.0
 11
-179.172732
 21
25.848664
 31
0.0
  0
ARC
  5
2C5
100
AcDbEntity
  8
2
100
AcDbCircle
 10
-184.172732
 20
46.69348
 30
0.0
 40
5.0
100
AcDbArc
 50
315.0
 51
338.348311
  0
LINE
  5
2C6
100
AcDbEntity
  8
2
100
AcDbLine
 10
-180.072732
 20
22.877596
 30
0.0
 11
-180.072732
 21
23.848664
 31
0.0
  0
LINE
  5
2C7
100
AcDbEntity
  8
2
100
AcDbLine
 10
-192.94648
 20
23.848664
 30
0.0
 11
-192.94648
 21
19.848664
 31
0.0
  0
LINE
  5
2C8
100
AcDbEntity
  8
2
100
AcDbLine
 10
-184.101664
 20
23.848664
 30
0.0
 11
-184.101664
 21
19.297765
 31
0.0
  0
LINE
  5
2C9
100
AcDbEntity
  8
2
100
AcDbLine
 10
-179.172732
 20
23.848664
 30
0.0
 11
-179.172732
 21
23.777596
 31
0.0
  0
LINE
  5
2CA
100
AcDbEntity
  8
2
100
AcDbLine
 10
-177.101664
 20
25.848664
 30
0.0
 11
-166.546803
 21
36.403524
 31
0.0
  0
LINE
  5
2CB
100
AcDbEntity
  8
2
100
AcDbLine
 10
-172.172732
 20
25.848664
 30
0.0
 11
-172.172732
 21
23.848664
 31
0.0
  0
LINE
  5
2CC
100
AcDbEntity
  8
2
100
AcDbLine
 10
-172.172732
 20
25.848664
 30
0.0
 11
-297.172732
 21
25.848664
 31
0.0
  0
LINE
  5
2CD
100
AcDbEntity
  8
2
100
AcDbLine
 10
-297.172732
 20
23.848664
 30
0.0
 11
-172.172732
 21
23.848664
 31
0.0
  0
LINE
  5
2CE
100
AcDbEntity
  8
2
100
AcDbLine
 10
-207.761383
 20
25.848664
 30
0.0
 11
-207.761383
 21
23.848664
 31
0.0
  0
LINE
  5
2CF
100
AcDbEntity
  8
2
100
AcDbLine
 10
-297.172732
 20
25.848664
 30
0.0
 11
-297.172732
 21
23.848664
 31
0.0
  0
LINE
  5
2D0
100
AcDbEntity
  8
2
100
AcDbLine
 10
-214.723756
 20
-13.151336
 30
0.0
 11
-230.123756
 21
-13.151336
 31
0.0
  0
LINE
  5
2D1
100
AcDbEntity
  8
2
100
AcDbLine
 10
-279.62123
 20
-13.151336
 30
0.0
 11
-278.445793
 21
-13.151336
 31
0.0
  0
LINE
  5
2D2
100
AcDbEntity
  8
2
100
AcDbLine
 10
-246.777757
 20
189.385765
 30
0.0
 11
-56.909336
 21
184.387497
 31
0.0
  0
LINE
  5
2D3
100
AcDbEntity
  8
2
100
AcDbLine
 10
-214.027342
 20
214.610465
 30
0.0
 11
-211.605399
 21
222.291885
 31
0.0
  0
LINE
  5
2D4
100
AcDbEntity
  8
2
  6
CENTER
 62
     2
100
AcDbLine
 10
-247.172494
 20
120.552411
 30
0.0
 11
-247.172494
 21
238.380025
 31
0.0
  0
LINE
  5
2D5
100
AcDbEntity
  8
2
  6
CENTER
 62
     2
100
AcDbLine
 10
-38.853288
 20
174.39096
 30
0.0
 11
-311.195539
 21
174.39096
 31
0.0
  0
ARC
  5
2D6
100
AcDbEntity
  8
2
100
AcDbCircle
 10
-282.172494
 20
174.39096
 30
0.0
 40
2.0
100
AcDbArc
 50
111.803748
 51
248.196252
  0
LINE
  5
2D7
100
AcDbEntity
  8
2
100
AcDbLine
 10
-282.915351
 20
176.247883
 30
0.0
 11
-252.743922
 21
188.317883
 31
0.0
  0
LINE
  5
2D8
100
AcDbEntity
  8
2
100
AcDbLine
 10
-282.915351
 20
172.534037
 30
0.0
 11
-254.429637
 21
161.138403
 31
0.0
  0
LINE
  5
2D9
100
AcDbEntity
  8
2
100
AcDbLine
 10
-252.172494
 20
157.39096
 30
0.0
 11
-242.172494
 21
157.39096
 31
0.0
  0
ARC
  5
2DA
100
AcDbEntity
  8
2
100
AcDbCircle
 10
-247.172494
 20
174.39096
 30
0.0
 40
15.0
100
AcDbArc
 50
298.072487
 51
241.927513
  0
LINE
  5
2DB
100
AcDbEntity
  8
2
100
AcDbLine
 10
-253.172494
 20
158.39096
 30
0.0
 11
-253.172494
 21
161.741849
 31
0.0
  0
LINE
  5
2DC
100
AcDbEntity
  8
2
100
AcDbLine
 10
-241.172494
 20
158.39096
 30
0.0
 11
-241.172494
 21
161.741849
 31
0.0
  0
ARC
  5
2DD
100
AcDbEntity
  8
2
100
AcDbCircle
 10
-252.172494
 20
158.39096
 30
0.0
 40
1.0
100
AcDbArc
 50
180.0
 51
270.0
  0
ARC
  5
2DE
100
AcDbEntity
  8
2
100
AcDbCircle
 10
-255.172494
 20
159.281479
 30
0.0
 40
2.0
100
AcDbArc
 50
0.0
 51
68.196252
  0
ARC
  5
2DF
100
AcDbEntity
  8
2
100
AcDbCircle
 10
-239.172494
 20
159.39096
 30
0.0
 40
2.0
100
AcDbArc
 50
118.072487
 51
180.0
  0
ARC
  5
2E0
100
AcDbEntity
  8
2
100
AcDbCircle
 10
-255.172494
 20
159.39096
 30
0.0
 40
2.0
100
AcDbArc
 50
0.0
 51
61.927513
  0
ARC
  5
2E1
100
AcDbEntity
  8
2
100
AcDbCircle
 10
-152.672494
 20
160.89096
 30
0.0
 40
0.5
100
AcDbArc
 50
270.0
 51
360.0
  0
ARC
  5
2E2
100
AcDbEntity
  8
2
100
AcDbCircle
 10
-161.672494
 20
160.89096
 30
0.0
 40
0.5
100
AcDbArc
 50
167.306936
 51
270.0
  0
LINE
  5
2E3
100
AcDbEntity
  8
2
100
AcDbLine
 10
-161.672494
 20
160.39096
 30
0.0
 11
-152.672494
 21
160.39096
 31
0.0
  0
LINE
  5
2E4
100
AcDbEntity
  8
2
100
AcDbLine
 10
-152.172494
 20
160.89096
 30
0.0
 11
-152.172494
 21
161.399619
 31
0.0
  0
ARC
  5
2E5
100
AcDbEntity
  8
2
100
AcDbCircle
 10
-162.648055
 20
161.110688
 30
0.0
 40
0.5
100
AcDbArc
 50
347.306936
 51
91.507958
  0
ARC
  5
2E6
100
AcDbEntity
  8
2
100
AcDbCircle
 10
-151.672494
 20
161.399619
 30
0.0
 40
0.5
100
AcDbArc
 50
91.507958
 51
180.0
  0
ARC
  5
2E7
100
AcDbEntity
  8
2
100
AcDbCircle
 10
-151.672494
 20
187.382301
 30
0.0
 40
0.5
100
AcDbArc
 50
180.0
 51
268.492042
  0
ARC
  5
2E8
100
AcDbEntity
  8
2
100
AcDbCircle
 10
-162.648055
 20
187.671232
 30
0.0
 40
0.5
100
AcDbArc
 50
268.492042
 51
12.693064
  0
LINE
  5
2E9
100
AcDbEntity
  8
2
100
AcDbLine
 10
-152.172494
 20
187.89096
 30
0.0
 11
-152.172494
 21
187.382301
 31
0.0
  0
LINE
  5
2EA
100
AcDbEntity
  8
2
100
AcDbLine
 10
-161.672494
 20
188.39096
 30
0.0
 11
-152.672494
 21
188.39096
 31
0.0
  0
ARC
  5
2EB
100
AcDbEntity
  8
2
100
AcDbCircle
 10
-161.672494
 20
187.89096
 30
0.0
 40
0.5
100
AcDbArc
 50
90.0
 51
192.693064
  0
ARC
  5
2EC
100
AcDbEntity
  8
2
100
AcDbCircle
 10
-152.672494
 20
187.89096
 30
0.0
 40
0.5
100
AcDbArc
 50
0.0
 51
90.0
  0
ARC
  5
2ED
100
AcDbEntity
  8
2
100
AcDbCircle
 10
-239.280612
 20
157.592824
 30
0.0
 40
2.0
100
AcDbArc
 50
91.507958
 51
164.570915
  0
ARC
  5
2EE
100
AcDbEntity
  8
2
100
AcDbCircle
 10
-242.172494
 20
158.39096
 30
0.0
 40
1.0
100
AcDbArc
 50
270.0
 51
360.0
  0
LINE
  5
2EF
100
AcDbEntity
  8
2
  6
CENTER
 62
     2
100
AcDbLine
 10
-157.172494
 20
191.982987
 30
0.0
 11
-157.172494
 21
156.659774
 31
0.0
  0
LINE
  5
2F0
100
AcDbEntity
  8
2
100
AcDbLine
 10
-244.675437
 20
180.024671
 30
0.0
 11
-240.98615
 21
180.024671
 31
0.0
  0
LINE
  5
2F1
100
AcDbEntity
  8
2
100
AcDbLine
 10
-240.939363
 20
179.826477
 30
0.0
 11
-244.558469
 21
178.016924
 31
0.0
  0
CIRCLE
  5
2F2
100
AcDbEntity
  8
2
100
AcDbCircle
 10
-247.172494
 20
174.39096
 30
0.0
 40
14.0
  0
LINE
  5
2F3
100
AcDbEntity
  8
2
100
AcDbLine
 10
-245.281063
 20
177.629472
 30
0.0
 11
-248.90017
 21
175.819919
 31
0.0
  0
LINE
  5
2F4
100
AcDbEntity
  8
2
100
AcDbLine
 10
-249.278686
 20
176.053855
 30
0.0
 11
-249.278686
 21
177.566118
 31
0.0
  0
LINE
  5
2F5
100
AcDbEntity
  8
2
100
AcDbLine
 10
-249.622763
 20
177.629472
 30
0.0
 11
-253.323096
 21
175.779306
 31
0.0
  0
LINE
  5
2F6
100
AcDbEntity
  8
2
100
AcDbLine
 10
-253.620386
 20
173.85685
 30
0.0
 11
-253.620386
 21
179.763123
 31
0.0
  0
LINE
  5
2F7
100
AcDbEntity
  8
2
100
AcDbLine
 10
-249.622763
 20
175.432467
 30
0.0
 11
-253.24187
 21
173.622914
 31
0.0
  0
LINE
  5
2F8
100
AcDbEntity
  8
2
100
AcDbLine
 10
-253.288005
 20
175.630661
 30
0.0
 11
-249.66955
 21
175.630661
 31
0.0
  0
ARC
  5
2F9
100
AcDbEntity
  8
2
100
AcDbCircle
 10
-253.358838
 20
173.85685
 30
0.0
 40
0.261548
100
AcDbArc
 50
180.0
 51
296.565051
  0
ARC
  5
2FA
100
AcDbEntity
  8
2
100
AcDbCircle
 10
-253.288005
 20
175.709125
 30
0.0
 40
0.078464
100
AcDbArc
 50
116.565051
 51
270.0
  0
LINE
  5
2FB
100
AcDbEntity
  8
2
100
AcDbLine
 10
-249.121757
 20
167.287273
 30
0.0
 11
-245.388347
 21
167.287273
 31
0.0
  0
LINE
  5
2FC
100
AcDbEntity
  8
2
100
AcDbLine
 10
-249.121757
 20
175.630661
 30
0.0
 11
-245.388347
 21
175.630661
 31
0.0
  0
LINE
  5
2FD
100
AcDbEntity
  8
2
100
AcDbLine
 10
-249.278686
 20
175.473732
 30
0.0
 11
-249.278686
 21
167.444202
 31
0.0
  0
ARC
  5
2FE
100
AcDbEntity
  8
2
100
AcDbCircle
 10
-249.121757
 20
167.444202
 30
0.0
 40
0.156929
100
AcDbArc
 50
180.0
 51
270.0
  0
ARC
  5
2FF
100
AcDbEntity
  8
2
100
AcDbCircle
 10
-249.017137
 20
176.053855
 30
0.0
 40
0.261548
100
AcDbArc
 50
180.0
 51
296.565051
  0
ARC
  5
300
100
AcDbEntity
  8
2
100
AcDbCircle
 10
-249.121757
 20
175.473732
 30
0.0
 40
0.156929
100
AcDbArc
 50
90.0
 51
180.0
  0
ARC
  5
301
100
AcDbEntity
  8
2
100
AcDbCircle
 10
-249.66955
 20
175.526042
 30
0.0
 40
0.104619
100
AcDbArc
 50
296.565051
 51
90.0
  0
LINE
  5
302
100
AcDbEntity
  8
2
100
AcDbLine
 10
-245.231418
 20
167.444202
 30
0.0
 11
-245.231418
 21
175.473732
 31
0.0
  0
ARC
  5
303
100
AcDbEntity
  8
2
100
AcDbCircle
 10
-245.388347
 20
167.444202
 30
0.0
 40
0.156929
100
AcDbArc
 50
270.0
 51
360.0
  0
ARC
  5
304
100
AcDbEntity
  8
2
100
AcDbCircle
 10
-245.388347
 20
175.473732
 30
0.0
 40
0.156929
100
AcDbArc
 50
0.0
 51
90.0
  0
LINE
  5
305
100
AcDbEntity
  8
2
100
AcDbLine
 10
-253.358838
 20
180.024671
 30
0.0
 11
-249.66955
 21
180.024671
 31
0.0
  0
LINE
  5
306
100
AcDbEntity
  8
2
100
AcDbLine
 10
-253.288005
 20
177.827666
 30
0.0
 11
-249.66955
 21
177.827666
 31
0.0
  0
LINE
  5
307
100
AcDbEntity
  8
2
100
AcDbLine
 10
-249.622763
 20
179.826477
 30
0.0
 11
-253.323096
 21
177.976311
 31
0.0
  0
ARC
  5
308
100
AcDbEntity
  8
2
100
AcDbCircle
 10
-253.358838
 20
179.763123
 30
0.0
 40
0.261548
100
AcDbArc
 50
90.0
 51
180.0
  0
ARC
  5
309
100
AcDbEntity
  8
2
100
AcDbCircle
 10
-253.288005
 20
177.90613
 30
0.0
 40
0.078464
100
AcDbArc
 50
116.565051
 51
270.0
  0
LINE
  5
30A
100
AcDbEntity
  8
2
100
AcDbLine
 10
-249.017137
 20
180.024671
 30
0.0
 11
-245.32785
 21
180.024671
 31
0.0
  0
LINE
  5
30B
100
AcDbEntity
  8
2
100
AcDbLine
 10
-249.017137
 20
177.827666
 30
0.0
 11
-245.32785
 21
177.827666
 31
0.0
  0
LINE
  5
30C
100
AcDbEntity
  8
2
100
AcDbLine
 10
-245.281063
 20
179.826477
 30
0.0
 11
-248.90017
 21
178.016924
 31
0.0
  0
ARC
  5
30D
100
AcDbEntity
  8
2
100
AcDbCircle
 10
-249.017137
 20
179.763123
 30
0.0
 40
0.261548
100
AcDbArc
 50
90.0
 51
180.0
  0
ARC
  5
30E
100
AcDbEntity
  8
2
100
AcDbCircle
 10
-249.66955
 20
179.920052
 30
0.0
 40
0.104619
100
AcDbArc
 50
296.565051
 51
90.0
  0
ARC
  5
30F
100
AcDbEntity
  8
2
100
AcDbCircle
 10
-249.017137
 20
178.25086
 30
0.0
 40
0.261548
100
AcDbArc
 50
180.0
 51
296.565051
  0
ARC
  5
310
100
AcDbEntity
  8
2
100
AcDbCircle
 10
-249.017137
 20
177.566118
 30
0.0
 40
0.261548
100
AcDbArc
 50
90.0
 51
180.0
  0
ARC
  5
311
100
AcDbEntity
  8
2
100
AcDbCircle
 10
-249.66955
 20
177.723047
 30
0.0
 40
0.104619
100
AcDbArc
 50
296.565051
 51
90.0
  0
LINE
  5
312
100
AcDbEntity
  8
2
100
AcDbLine
 10
-249.278686
 20
178.25086
 30
0.0
 11
-249.278686
 21
179.763123
 31
0.0
  0
ARC
  5
313
100
AcDbEntity
  8
2
100
AcDbCircle
 10
-244.675437
 20
179.763123
 30
0.0
 40
0.261548
100
AcDbArc
 50
90.0
 51
180.0
  0
ARC
  5
314
100
AcDbEntity
  8
2
100
AcDbCircle
 10
-245.32785
 20
179.920052
 30
0.0
 40
0.104619
100
AcDbArc
 50
296.565051
 51
90.0
  0
ARC
  5
315
100
AcDbEntity
  8
2
100
AcDbCircle
 10
-244.675437
 20
178.25086
 30
0.0
 40
0.261548
100
AcDbArc
 50
180.0
 51
296.565051
  0
ARC
  5
316
100
AcDbEntity
  8
2
100
AcDbCircle
 10
-245.32785
 20
177.723047
 30
0.0
 40
0.104619
100
AcDbArc
 50
296.565051
 51
90.0
  0
LINE
  5
317
100
AcDbEntity
  8
2
100
AcDbLine
 10
-244.936985
 20
178.25086
 30
0.0
 11
-244.936985
 21
179.763123
 31
0.0
  0
ARC
  5
318
100
AcDbEntity
  8
2
100
AcDbCircle
 10
-240.98615
 20
179.920052
 30
0.0
 40
0.104619
100
AcDbArc
 50
296.565051
 51
90.0
  0
LINE
  5
319
100
AcDbEntity
  8
2
100
AcDbLine
 10
-247.634434
 20
226.506181
 30
0.0
 11
-250.71664
 21
233.947285
 31
0.0
  0
LINE
  5
31A
100
AcDbEntity
  8
2
100
AcDbLine
 10
-246.710554
 20
226.506181
 30
0.0
 11
-243.628348
 21
233.947285
 31
0.0
  0
ARC
  5
31B
100
AcDbEntity
  8
2
100
AcDbCircle
 10
-247.172494
 20
226.697523
 30
0.0
 40
0.5
100
AcDbArc
 50
202.5
 51
337.5
  0
ARC
  5
31C
100
AcDbEntity
  8
2
100
AcDbCircle
 10
-251.17858
 20
233.755944
 30
0.0
 40
0.5
100
AcDbArc
 50
22.5
 51
93.860598
  0
ARC
  5
31D
100
AcDbEntity
  8
2
100
AcDbCircle
 10
-243.166408
 20
233.755944
 30
0.0
 40
0.5
100
AcDbArc
 50
86.139402
 51
157.5
  0
ARC
  5
31E
100
AcDbEntity
  8
2
100
AcDbCircle
 10
-232.918648
 20
232.158407
 30
0.0
 40
0.5
100
AcDbArc
 50
76.139402
 51
147.5
  0
ARC
  5
31F
100
AcDbEntity
  8
2
100
AcDbCircle
 10
-240.809097
 20
233.549706
 30
0.0
 40
0.5
100
AcDbArc
 50
12.5
 51
83.860598
  0
ARC
  5
320
100
AcDbEntity
  8
2
100
AcDbCircle
 10
-238.089554
 20
225.902869
 30
0.0
 40
0.5
100
AcDbArc
 50
192.5
 51
327.5
  0
LINE
  5
321
100
AcDbEntity
  8
2
100
AcDbLine
 10
-237.667859
 20
225.634219
 30
0.0
 11
-233.340344
 21
232.427056
 31
0.0
  0
LINE
  5
322
100
AcDbEntity
  8
2
100
AcDbLine
 10
-238.577702
 20
225.794649
 30
0.0
 11
-240.320949
 21
233.657925
 31
0.0
  0
ARC
  5
323
100
AcDbEntity
  8
2
100
AcDbCircle
 10
-223.103984
 20
228.805635
 30
0.0
 40
0.5
100
AcDbArc
 50
66.139402
 51
137.5
  0
ARC
  5
324
100
AcDbEntity
  8
2
100
AcDbCircle
 10
-230.632963
 20
231.545959
 30
0.0
 40
0.5
100
AcDbArc
 50
2.5
 51
73.860598
  0
ARC
  5
325
100
AcDbEntity
  8
2
100
AcDbCircle
 10
-229.282596
 20
223.543051
 30
0.0
 40
0.5
100
AcDbArc
 50
182.5
 51
317.5
  0
LINE
  5
326
100
AcDbEntity
  8
2
100
AcDbLine
 10
-228.913957
 20
223.205256
 30
0.0
 11
-223.472623
 21
229.14343
 31
0.0
  0
LINE
  5
327
100
AcDbEntity
  8
2
100
AcDbLine
 10
-229.78212
 20
223.521242
 30
0.0
 11
-230.133439
 21
231.567769
 31
0.0
  0
ARC
  5
328
100
AcDbEntity
  8
2
100
AcDbCircle
 10
-214.02063
 20
223.799501
 30
0.0
 40
0.5
100
AcDbArc
 50
56.139402
 51
127.5
  0
ARC
  5
329
100
AcDbEntity
  8
2
100
AcDbCircle
 10
-220.959374
 20
227.805587
 30
0.0
 40
0.5
100
AcDbArc
 50
352.5
 51
63.860598
  0
ARC
  5
32A
100
AcDbEntity
  8
2
100
AcDbCircle
 10
-221.019212
 20
219.689772
 30
0.0
 40
0.5
100
AcDbArc
 50
172.5
 51
307.5
  0
LINE
  5
32B
100
AcDbEntity
  8
2
100
AcDbLine
 10
-220.714832
 20
219.293096
 30
0.0
 11
-214.325011
 21
224.196178
 31
0.0
  0
LINE
  5
32C
100
AcDbEntity
  8
2
100
AcDbLine
 10
-221.514935
 20
219.755035
 30
0.0
 11
-220.463652
 21
227.740324
 31
0.0
  0
ARC
  5
32D
100
AcDbEntity
  8
2
100
AcDbCircle
 10
-205.944578
 20
217.292114
 30
0.0
 40
0.5
100
AcDbArc
 50
46.139402
 51
117.5
  0
ARC
  5
32E
100
AcDbEntity
  8
2
100
AcDbCircle
 10
-212.082258
 20
222.442238
 30
0.0
 40
0.5
100
AcDbArc
 50
342.5
 51
53.860598
  0
ARC
  5
32F
100
AcDbEntity
  8
2
100
AcDbCircle
 10
-213.550483
 20
214.460112
 30
0.0
 40
0.5
100
AcDbArc
 50
162.5
 51
297.5
  0
LINE
  5
330
100
AcDbEntity
  8
2
100
AcDbLine
 10
-213.319609
 20
214.016606
 30
0.0
 11
-206.175452
 21
217.735619
 31
0.0
  0
ARC
  5
331
100
AcDbEntity
  8
2
100
AcDbCircle
 10
-199.121216
 20
209.481196
 30
0.0
 40
0.5
100
AcDbArc
 50
36.139402
 51
107.5
  0
ARC
  5
332
100
AcDbEntity
  8
2
100
AcDbCircle
 10
-204.27134
 20
215.618876
 30
0.0
 40
0.5
100
AcDbArc
 50
332.5
 51
43.860598
  0
ARC
  5
333
100
AcDbEntity
  8
2
100
AcDbCircle
 10
-207.103342
 20
208.012971
 30
0.0
 40
0.5
100
AcDbArc
 50
152.5
 51
287.5
  0
LINE
  5
334
100
AcDbEntity
  8
2
100
AcDbLine
 10
-206.952989
 20
207.536112
 30
0.0
 11
-199.271569
 21
209.958055
 31
0.0
  0
LINE
  5
335
100
AcDbEntity
  8
2
100
AcDbLine
 10
-207.546847
 20
208.243845
 30
0.0
 11
-203.827835
 21
215.388001
 31
0.0
  0
ARC
  5
336
100
AcDbEntity
  8
2
100
AcDbCircle
 10
-193.757867
 20
200.60408
 30
0.0
 40
0.5
100
AcDbArc
 50
26.139402
 51
97.5
  0
ARC
  5
337
100
AcDbEntity
  8
2
100
AcDbCircle
 10
-197.763953
 20
207.542824
 30
0.0
 40
0.5
100
AcDbArc
 50
322.5
 51
33.860598
  0
ARC
  5
338
100
AcDbEntity
  8
2
100
AcDbCircle
 10
-201.873681
 20
200.544241
 30
0.0
 40
0.5
100
AcDbArc
 50
142.5
 51
277.5
  0
LINE
  5
339
100
AcDbEntity
  8
2
100
AcDbLine
 10
-201.808418
 20
200.048519
 30
0.0
 11
-193.82313
 21
201.099802
 31
0.0
  0
LINE
  5
33A
100
AcDbEntity
  8
2
100
AcDbLine
 10
-202.270358
 20
200.848622
 30
0.0
 11
-197.367276
 21
207.238443
 31
0.0
  0
ARC
  5
33B
100
AcDbEntity
  8
2
100
AcDbCircle
 10
-190.017495
 20
190.930491
 30
0.0
 40
0.5
100
AcDbArc
 50
16.139402
 51
87.5
  0
ARC
  5
33C
100
AcDbEntity
  8
2
100
AcDbCircle
 10
-192.757819
 20
198.459469
 30
0.0
 40
0.5
100
AcDbArc
 50
312.5
 51
23.860598
  0
ARC
  5
33D
100
AcDbEntity
  8
2
100
AcDbCircle
 10
-198.020403
 20
192.280858
 30
0.0
 40
0.5
100
AcDbArc
 50
132.5
 51
267.5
  0
LINE
  5
33E
100
AcDbEntity
  8
2
100
AcDbLine
 10
-198.042212
 20
191.781334
 30
0.0
 11
-189.995685
 21
191.430015
 31
0.0
  0
LINE
  5
33F
100
AcDbEntity
  8
2
100
AcDbLine
 10
-198.358198
 20
192.649497
 30
0.0
 11
-192.420024
 21
198.090831
 31
0.0
  0
ARC
  5
340
100
AcDbEntity
  8
2
100
AcDbCircle
 10
-189.405047
 20
188.644806
 30
0.0
 40
0.5
100
AcDbArc
 50
302.5
 51
13.860598
  0
LINE
  5
341
100
AcDbEntity
  8
2
100
AcDbLine
 10
-189.671143
 20
187.882439
 30
0.0
 11
-189.136397
 21
188.22311
 31
0.0
  0
ARC
  5
342
100
AcDbEntity
  8
2
100
AcDbCircle
 10
-247.172494
 20
174.39096
 30
0.0
 40
50.0
100
AcDbArc
 50
127.979872
 51
322.020128
  0
LINE
  5
343
100
AcDbEntity
  8
2
100
AcDbLine
 10
-195.93774
 20
149.39096
 30
0.0
 11
-182.172494
 21
149.39096
 31
0.0
  0
LINE
  5
344
100
AcDbEntity
  8
2
100
AcDbLine
 10
-172.172494
 20
159.39096
 30
0.0
 11
-172.172494
 21
161.360131
 31
0.0
  0
ARC
  5
345
100
AcDbEntity
  8
2
100
AcDbCircle
 10
-182.172494
 20
159.39096
 30
0.0
 40
10.0
100
AcDbArc
 50
270.0
 51
360.0
  0
ARC
  5
346
100
AcDbEntity
  8
2
100
AcDbCircle
 10
-262.172494
 20
239.39096
 30
0.0
 40
10.0
100
AcDbArc
 50
90.0
 51
180.0
  0
ARC
  5
347
100
AcDbEntity
  8
2
100
AcDbCircle
 10
-253.172494
 20
235.095161
 30
0.0
 40
1.0
100
AcDbArc
 50
180.0
 51
275.644778
  0
ARC
  5
348
100
AcDbEntity
  8
2
100
AcDbCircle
 10
-255.172494
 20
248.39096
 30
0.0
 40
1.0
100
AcDbArc
 50
0.0
 51
90.0
  0
LINE
  5
349
100
AcDbEntity
  8
2
100
AcDbLine
 10
-254.172494
 20
248.39096
 30
0.0
 11
-254.172494
 21
235.095161
 31
0.0
  0
LINE
  5
34A
100
AcDbEntity
  8
2
100
AcDbLine
 10
-262.172494
 20
249.39096
 30
0.0
 11
-255.172494
 21
249.39096
 31
0.0
  0
LINE
  5
34B
100
AcDbEntity
  8
2
100
AcDbLine
 10
-272.172494
 20
225.625714
 30
0.0
 11
-272.172494
 21
239.39096
 31
0.0
  0
ARC
  5
34C
100
AcDbEntity
  8
2
100
AcDbCircle
 10
-195.93774
 20
134.39096
 30
0.0
 40
15.0
100
AcDbArc
 50
90.0
 51
142.020128
  0
ARC
  5
34D
100
AcDbEntity
  8
2
100
AcDbCircle
 10
-287.172494
 20
225.625714
 30
0.0
 40
15.0
100
AcDbArc
 50
307.979872
 51
360.0
  0
ARC
  5
34E
100
AcDbEntity
  8
2
100
AcDbCircle
 10
-247.172494
 20
174.39096
 30
0.0
 40
60.0
100
AcDbArc
 50
13.860598
 51
16.139402
  0
ARC
  5
34F
100
AcDbEntity
  8
2
100
AcDbCircle
 10
-247.172494
 20
174.39096
 30
0.0
 40
60.0
100
AcDbArc
 50
23.860598
 51
26.139402
  0
ARC
  5
350
100
AcDbEntity
  8
2
100
AcDbCircle
 10
-247.172494
 20
174.39096
 30
0.0
 40
60.0
100
AcDbArc
 50
93.860598
 51
95.644778
  0
ARC
  5
351
100
AcDbEntity
  8
2
100
AcDbCircle
 10
-247.172494
 20
174.39096
 30
0.0
 40
60.0
100
AcDbArc
 50
83.860598
 51
86.139402
  0
ARC
  5
352
100
AcDbEntity
  8
2
100
AcDbCircle
 10
-247.172494
 20
174.39096
 30
0.0
 40
60.0
100
AcDbArc
 50
73.860598
 51
76.139402
  0
ARC
  5
353
100
AcDbEntity
  8
2
100
AcDbCircle
 10
-247.172494
 20
174.39096
 30
0.0
 40
60.0
100
AcDbArc
 50
63.860598
 51
66.139402
  0
ARC
  5
354
100
AcDbEntity
  8
2
100
AcDbCircle
 10
-247.172494
 20
174.39096
 30
0.0
 40
60.0
100
AcDbArc
 50
53.860598
 51
56.139402
  0
ARC
  5
355
100
AcDbEntity
  8
2
100
AcDbCircle
 10
-247.172494
 20
174.39096
 30
0.0
 40
60.0
100
AcDbArc
 50
43.860598
 51
46.139402
  0
ARC
  5
356
100
AcDbEntity
  8
2
100
AcDbCircle
 10
-247.172494
 20
174.39096
 30
0.0
 40
60.0
100
AcDbArc
 50
33.860598
 51
36.139402
  0
LINE
  5
357
100
AcDbEntity
  8
2
100
AcDbLine
 10
-245.051173
 20
194.897057
 30
0.0
 11
-248.586707
 21
198.432591
 31
0.0
  0
LINE
  5
358
100
AcDbEntity
  8
2
100
AcDbLine
 10
-245.051173
 20
201.968124
 30
0.0
 11
-248.586707
 21
198.432591
 31
0.0
  0
LINE
  5
359
100
AcDbEntity
  8
2
100
AcDbLine
 10
-244.69762
 20
201.614571
 30
0.0
 11
-247.879601
 21
198.432591
 31
0.0
  0
LINE
  5
35A
100
AcDbEntity
  8
2
100
AcDbLine
 10
-244.69762
 20
195.25061
 30
0.0
 11
-247.879601
 21
198.432591
 31
0.0
  0
LINE
  5
35B
100
AcDbEntity
  8
2
100
AcDbLine
 10
-244.69762
 20
195.25061
 30
0.0
 11
-245.051173
 21
194.897057
 31
0.0
  0
LINE
  5
35C
100
AcDbEntity
  8
2
100
AcDbLine
 10
-244.69762
 20
201.614571
 30
0.0
 11
-245.051173
 21
201.968124
 31
0.0
  0
LINE
  5
35D
100
AcDbEntity
  8
2
100
AcDbLine
 10
-272.577591
 20
164.440718
 30
0.0
 11
-275.82855
 21
167.691677
 31
0.0
  0
LINE
  5
35E
100
AcDbEntity
  8
2
100
AcDbLine
 10
-276.742882
 20
160.275427
 30
0.0
 11
-279.993841
 21
163.526386
 31
0.0
  0
LINE
  5
35F
100
AcDbEntity
  8
2
100
AcDbLine
 10
-269.650867
 20
155.192705
 30
0.0
 11
-265.344704
 21
157.207831
 31
0.0
  0
LINE
  5
360
100
AcDbEntity
  8
2
100
AcDbLine
 10
-270.003784
 20
153.536328
 30
0.0
 11
-266.381744
 21
155.154866
 31
0.0
  0
LINE
  5
361
100
AcDbEntity
  8
2
100
AcDbLine
 10
-269.650867
 20
155.192705
 30
0.0
 11
-266.628219
 21
158.491346
 31
0.0
  0
LINE
  5
362
100
AcDbEntity
  8
2
100
AcDbLine
 10
-271.547381
 20
155.095464
 30
0.0
 11
-267.644144
 21
159.507271
 31
0.0
  0
ARC
  5
363
100
AcDbEntity
  8
2
100
AcDbCircle
 10
-266.940177
 20
154.312917
 30
0.0
 40
10.402317
100
AcDbArc
 50
128.830069
 51
141.169931
  0
ARC
  5
364
100
AcDbEntity
  8
2
100
AcDbCircle
 10
-277.628213
 20
165.000953
 30
0.0
 40
10.402317
100
AcDbArc
 50
308.830069
 51
321.169931
  0
LINE
  5
365
100
AcDbEntity
  8
2
100
AcDbLine
 10
-276.742882
 20
160.275427
 30
0.0
 11
-272.577591
 21
164.440718
 31
0.0
  0
ARC
  5
366
100
AcDbEntity
  8
2
100
AcDbCircle
 10
-272.381541
 20
161.073341
 30
0.0
 40
1.724081
100
AcDbArc
 50
51.270542
 51
128.830069
  0
ARC
  5
367
100
AcDbEntity
  8
2
100
AcDbCircle
 10
-270.867789
 20
159.559589
 30
0.0
 40
1.724081
100
AcDbArc
 50
321.169931
 51
38.729458
  0
ARC
  5
368
100
AcDbEntity
  8
2
100
AcDbCircle
 10
-278.512829
 20
153.428301
 30
0.0
 40
11.524047
100
AcDbArc
 50
38.729458
 51
51.270542
  0
LINE
  5
369
100
AcDbEntity
  8
2
100
AcDbLine
 10
-267.644144
 20
159.507271
 30
0.0
 11
-266.628219
 21
158.491346
 31
0.0
  0
ARC
  5
36A
100
AcDbEntity
  8
2
100
AcDbCircle
 10
-273.700601
 20
159.754281
 30
0.0
 40
1.724081
100
AcDbArc
 50
141.169931
 51
218.729458
  0
ARC
  5
36B
100
AcDbEntity
  8
2
100
AcDbCircle
 10
-272.186849
 20
158.240529
 30
0.0
 40
1.724081
100
AcDbArc
 50
231.270542
 51
308.830069
  0
ARC
  5
36C
100
AcDbEntity
  8
2
100
AcDbCircle
 10
-266.055561
 20
165.885569
 30
0.0
 40
11.524047
100
AcDbArc
 50
218.729458
 51
231.270542
  0
LINE
  5
36D
100
AcDbEntity
  8
2
100
AcDbLine
 10
-271.55515
 20
155.087695
 30
0.0
 11
-270.003784
 21
153.536328
 31
0.0
  0
LINE
  5
36E
100
AcDbEntity
  8
2
100
AcDbLine
 10
-276.539697
 20
162.916831
 30
0.0
 11
-277.250845
 21
162.205684
 31
0.0
  0
LINE
  5
36F
100
AcDbEntity
  8
2
100
AcDbLine
 10
-274.507848
 20
164.948681
 30
0.0
 11
-275.82855
 21
163.627979
 31
0.0
  0
LINE
  5
370
100
AcDbEntity
  8
2
100
AcDbLine
 10
-274.507848
 20
164.948681
 30
0.0
 11
-276.539697
 21
166.98053
 31
0.0
  0
LINE
  5
371
100
AcDbEntity
  8
2
100
AcDbLine
 10
-275.82855
 20
163.627979
 30
0.0
 11
-277.8604
 21
165.659828
 31
0.0
  0
LINE
  5
372
100
AcDbEntity
  8
2
100
AcDbLine
 10
-276.539697
 20
162.916831
 30
0.0
 11
-278.571547
 21
164.948681
 31
0.0
  0
LINE
  5
373
100
AcDbEntity
  8
2
100
AcDbLine
 10
-277.250845
 20
162.205684
 30
0.0
 11
-279.282694
 21
164.237533
 31
0.0
  0
LINE
  5
374
100
AcDbEntity
  8
2
100
AcDbLine
 10
-255.117374
 20
146.980501
 30
0.0
 11
-256.567532
 21
148.430659
 31
0.0
  0
LINE
  5
375
100
AcDbEntity
  8
2
100
AcDbLine
 10
-258.203348
 20
143.894527
 30
0.0
 11
-259.653506
 21
145.344685
 31
0.0
  0
ARC
  5
376
100
AcDbEntity
  8
2
100
AcDbCircle
 10
-258.317536
 20
140.488742
 30
0.0
 40
0.143673
100
AcDbArc
 50
225.0
 51
315.0
  0
LINE
  5
377
100
AcDbEntity
  8
2
100
AcDbLine
 10
-258.081437
 20
143.894527
 30
0.0
 11
-255.117374
 21
146.85859
 31
0.0
  0
LINE
  5
378
100
AcDbEntity
  8
2
100
AcDbLine
 10
-262.875181
 20
145.218279
 30
0.0
 11
-255.977945
 21
142.9192
 31
0.0
  0
ARC
  5
379
100
AcDbEntity
  8
2
100
AcDbCircle
 10
-255.178329
 20
146.919545
 30
0.0
 40
0.086204
100
AcDbArc
 50
315.0
 51
45.0
  0
ARC
  5
37A
100
AcDbEntity
  8
2
100
AcDbCircle
 10
-256.023379
 20
142.7829
 30
0.0
 40
0.143673
100
AcDbArc
 50
315.0
 51
71.565051
  0
ARC
  5
37B
100
AcDbEntity
  8
2
100
AcDbCircle
 10
-258.142392
 20
143.955482
 30
0.0
 40
0.086204
100
AcDbArc
 50
225.0
 51
315.0
  0
LINE
  5
37C
100
AcDbEntity
  8
2
100
AcDbLine
 10
-255.921786
 20
142.681307
 30
0.0
 11
-258.215944
 21
140.38715
 31
0.0
  0
ARC
  5
37D
100
AcDbEntity
  8
2
100
AcDbCircle
 10
-256.535657
 20
143.908398
 30
0.0
 40
10.402317
100
AcDbArc
 50
128.830069
 51
141.169931
  0
ARC
  5
37E
100
AcDbEntity
  8
2
100
AcDbCircle
 10
-257.306675
 20
144.679416
 30
0.0
 40
7.674066
100
AcDbArc
 50
124.473609
 51
145.526391
  0
LINE
  5
37F
100
AcDbEntity
  8
2
100
AcDbLine
 10
-266.441146
 20
149.989229
 30
0.0
 11
-262.029339
 21
153.892466
 31
0.0
  0
ARC
  5
380
100
AcDbEntity
  8
2
100
AcDbCircle
 10
-261.977021
 20
150.668821
 30
0.0
 40
1.724081
100
AcDbArc
 50
51.270542
 51
128.830069
  0
LINE
  5
381
100
AcDbEntity
  8
2
100
AcDbLine
 10
-263.045264
 20
154.908391
 30
0.0
 11
-262.029339
 21
153.892466
 31
0.0
  0
ARC
  5
382
100
AcDbEntity
  8
2
100
AcDbCircle
 10
-263.296081
 20
149.349761
 30
0.0
 40
1.724081
100
AcDbArc
 50
141.169931
 51
218.729458
  0
LINE
  5
383
100
AcDbEntity
  8
2
100
AcDbLine
 10
-268.000282
 20
151.532827
 30
0.0
 11
-266.448915
 21
149.98146
 31
0.0
  0
ARC
  5
384
100
AcDbEntity
  8
2
100
AcDbCircle
 10
-267.223693
 20
154.596433
 30
0.0
 40
10.402317
100
AcDbArc
 50
308.830069
 51
321.169931
  0
ARC
  5
385
100
AcDbEntity
  8
2
100
AcDbCircle
 10
-267.071273
 20
154.569446
 30
0.0
 40
8.638035
100
AcDbArc
 50
305.062783
 51
323.774302
  0
LINE
  5
386
100
AcDbEntity
  8
2
100
AcDbLine
 10
-256.689443
 20
148.430659
 30
0.0
 11
-259.653506
 21
145.466596
 31
0.0
  0
ARC
  5
387
100
AcDbEntity
  8
2
100
AcDbCircle
 10
-260.463269
 20
149.155069
 30
0.0
 40
1.724081
100
AcDbArc
 50
321.169931
 51
38.729458
  0
ARC
  5
388
100
AcDbEntity
  8
2
100
AcDbCircle
 10
-262.730425
 20
148.401665
 30
0.0
 40
3.169316
100
AcDbArc
 50
34.668048
 51
55.331952
  0
ARC
  5
389
100
AcDbEntity
  8
2
100
AcDbCircle
 10
-260.73303
 20
149.817143
 30
0.0
 40
0.721926
100
AcDbArc
 50
330.772957
 51
32.444044
  0
ARC
  5
38A
100
AcDbEntity
  8
2
100
AcDbCircle
 10
-256.628487
 20
148.369704
 30
0.0
 40
0.086204
100
AcDbArc
 50
45.0
 51
135.0
  0
ARC
  5
38B
100
AcDbEntity
  8
2
100
AcDbCircle
 10
-261.782329
 20
147.83601
 30
0.0
 40
1.724081
100
AcDbArc
 50
231.270542
 51
308.830069
  0
ARC
  5
38C
100
AcDbEntity
  8
2
100
AcDbCircle
 10
-262.472111
 20
148.016455
 30
0.0
 40
0.632163
100
AcDbArc
 50
235.331952
 51
305.062783
  0
ARC
  5
38D
100
AcDbEntity
  8
2
100
AcDbCircle
 10
-261.028925
 20
150.103165
 30
0.0
 40
3.169316
100
AcDbArc
 50
214.668048
 51
235.331952
  0
ARC
  5
38E
100
AcDbEntity
  8
2
100
AcDbCircle
 10
-259.59255
 20
145.405641
 30
0.0
 40
0.086204
100
AcDbArc
 50
135.0
 51
225.0
  0
ARC
  5
38F
100
AcDbEntity
  8
2
100
AcDbCircle
 10
-268.108309
 20
143.023781
 30
0.0
 40
11.524047
100
AcDbArc
 50
38.729458
 51
51.270542
  0
ARC
  5
390
100
AcDbEntity
  8
2
100
AcDbCircle
 10
-261.28724
 20
150.488376
 30
0.0
 40
0.632163
100
AcDbArc
 50
55.331952
 51
125.062783
  0
ARC
  5
391
100
AcDbEntity
  8
2
100
AcDbCircle
 10
-255.651041
 20
155.48105
 30
0.0
 40
11.524047
100
AcDbArc
 50
218.729458
 51
231.270542
  0
ARC
  5
392
100
AcDbEntity
  8
2
100
AcDbCircle
 10
-263.115635
 20
148.65998
 30
0.0
 40
0.632163
100
AcDbArc
 50
144.937217
 51
214.668048
  0
LINE
  5
393
100
AcDbEntity
  8
2
100
AcDbLine
 10
-268.000282
 20
151.532827
 30
0.0
 11
-266.381744
 21
155.154866
 31
0.0
  0
LINE
  5
394
100
AcDbEntity
  8
2
100
AcDbLine
 10
-265.344704
 20
157.207831
 30
0.0
 11
-264.328779
 21
156.191906
 31
0.0
  0
ARC
  5
395
100
AcDbEntity
  8
2
100
AcDbCircle
 10
-262.919453
 20
145.085463
 30
0.0
 40
0.14
100
AcDbArc
 50
71.565051
 51
225.0
  0
ARC
  5
396
100
AcDbEntity
  8
2
100
AcDbCircle
 10
-272.903474
 20
158.447818
 30
0.0
 40
0.632163
100
AcDbArc
 50
235.331952
 51
305.062783
  0
ARC
  5
397
100
AcDbEntity
  8
2
100
AcDbCircle
 10
-271.075078
 20
160.276214
 30
0.0
 40
0.632163
100
AcDbArc
 50
324.937217
 51
34.668048
  0
ARC
  5
398
100
AcDbEntity
  8
2
100
AcDbCircle
 10
-271.460288
 20
160.534529
 30
0.0
 40
3.169316
100
AcDbArc
 50
214.668048
 51
235.331952
  0
ARC
  5
399
100
AcDbEntity
  8
2
100
AcDbCircle
 10
-273.546999
 20
159.091343
 30
0.0
 40
0.632163
100
AcDbArc
 50
144.937217
 51
214.668048
  0
ARC
  5
39A
100
AcDbEntity
  8
2
100
AcDbCircle
 10
-271.746311
 20
160.830424
 30
0.0
 40
0.721926
100
AcDbArc
 50
57.555956
 51
119.227043
  0
ARC
  5
39B
100
AcDbEntity
  8
2
100
AcDbCircle
 10
-273.161788
 20
158.833029
 30
0.0
 40
3.169316
100
AcDbArc
 50
34.668048
 51
55.331952
  0
ARC
  5
39C
100
AcDbEntity
  8
2
100
AcDbCircle
 10
-266.994008
 20
154.49218
 30
0.0
 40
8.638035
100
AcDbArc
 50
126.225698
 51
144.937217
  0
ARC
  5
39D
100
AcDbEntity
  8
2
100
AcDbCircle
 10
-276.884038
 20
164.256778
 30
0.0
 40
7.674066
100
AcDbArc
 50
304.473609
 51
325.526391
  0
LINE
  5
39E
100
AcDbEntity
  8
2
100
AcDbLine
 10
-258.419129
 20
140.38715
 30
0.0
 11
-263.018447
 21
144.986468
 31
0.0
  0
LINE
  5
39F
100
AcDbEntity
  8
2
100
AcDbLine
 10
-266.370749
 20
151.912587
 30
0.0
 11
-264.355623
 21
156.21875
 31
0.0
  0
LINE
  5
3A0
100
AcDbEntity
  8
2
100
AcDbLine
 10
-266.370749
 20
151.912587
 30
0.0
 11
-263.072108
 21
154.935235
 31
0.0
  0
ARC
  5
3A1
100
AcDbEntity
  8
2
100
AcDbCircle
 10
-293.66174
 20
175.39096
 30
0.0
 40
0.5
100
AcDbArc
 50
90.0
 51
178.767738
  0
LINE
  5
3A2
100
AcDbEntity
  8
2
100
AcDbLine
 10
-293.66174
 20
175.89096
 30
0.0
 11
-283.495369
 21
175.89096
 31
0.0
  0
LINE
  5
3A3
100
AcDbEntity
  8
2
100
AcDbLine
 10
-293.66174
 20
172.89096
 30
0.0
 11
-283.495369
 21
172.89096
 31
0.0
  0
ARC
  5
3A4
100
AcDbEntity
  8
2
100
AcDbCircle
 10
-293.66174
 20
173.39096
 30
0.0
 40
0.5
100
AcDbArc
 50
181.232262
 51
270.0
  0
LINE
  5
3A5
100
AcDbEntity
  8
2
100
AcDbLine
 10
-292.87923
 20
165.823916
 30
0.0
 11
-283.031153
 21
167.560398
 31
0.0
  0
ARC
  5
3A6
100
AcDbEntity
  8
2
100
AcDbCircle
 10
-292.966054
 20
166.31632
 30
0.0
 40
0.5
100
AcDbArc
 50
100.0
 51
280.0
  0
LINE
  5
3A7
100
AcDbEntity
  8
2
100
AcDbLine
 10
-293.052878
 20
166.808724
 30
0.0
 11
-283.204801
 21
168.545205
 31
0.0
  0
LINE
  5
3A8
100
AcDbEntity
  8
2
100
AcDbLine
 10
-283.114954
 20
144.884358
 30
0.0
 11
-275.45451
 21
151.312234
 31
0.0
  0
ARC
  5
3A9
100
AcDbEntity
  8
2
100
AcDbCircle
 10
-282.79356
 20
144.501336
 30
0.0
 40
0.5
100
AcDbArc
 50
130.0
 51
310.0
  0
LINE
  5
3AA
100
AcDbEntity
  8
2
100
AcDbLine
 10
-282.472167
 20
144.118314
 30
0.0
 11
-274.811722
 21
150.54619
 31
0.0
  0
LINE
  5
3AB
100
AcDbEntity
  8
2
100
AcDbLine
 10
-287.692675
 20
151.573973
 30
0.0
 11
-279.032421
 21
156.573973
 31
0.0
  0
ARC
  5
3AC
100
AcDbEntity
  8
2
100
AcDbCircle
 10
-287.442675
 20
151.14096
 30
0.0
 40
0.5
100
AcDbArc
 50
120.0
 51
300.0
  0
LINE
  5
3AD
100
AcDbEntity
  8
2
100
AcDbLine
 10
-287.192675
 20
150.707947
 30
0.0
 11
-278.532421
 21
155.707947
 31
0.0
  0
LINE
  5
3AE
100
AcDbEntity
  8
2
100
AcDbLine
 10
-291.039211
 20
158.95687
 30
0.0
 11
-281.642284
 21
162.377071
 31
0.0
  0
ARC
  5
3AF
100
AcDbEntity
  8
2
100
AcDbCircle
 10
-290.868201
 20
158.487023
 30
0.0
 40
0.5
100
AcDbArc
 50
110.0
 51
290.0
  0
LINE
  5
3B0
100
AcDbEntity
  8
2
100
AcDbLine
 10
-290.697191
 20
158.017177
 30
0.0
 11
-281.300264
 21
161.437378
 31
0.0
  0
ARC
  5
3B1
100
AcDbEntity
  8
2
100
AcDbCircle
 10
-247.172494
 20
174.39096
 30
0.0
 40
47.0
100
AcDbArc
 50
178.767738
 51
181.232262
  0
LINE
  5
3B2
100
AcDbEntity
  8
2
100
AcDbLine
 10
-263.546277
 20
130.866263
 30
0.0
 11
-260.126075
 21
140.263189
 31
0.0
  0
LINE
  5
3B3
100
AcDbEntity
  8
2
100
AcDbLine
 10
-262.606584
 20
130.524243
 30
0.0
 11
-259.186383
 21
139.921169
 31
0.0
  0
LINE
  5
3B4
100
AcDbEntity
  8
2
100
AcDbLine
 10
-270.855506
 20
134.370779
 30
0.0
 11
-265.855506
 21
143.031033
 31
0.0
  0
ARC
  5
3B5
100
AcDbEntity
  8
2
100
AcDbCircle
 10
-270.422494
 20
134.120779
 30
0.0
 40
0.5
100
AcDbArc
 50
150.0
 51
330.0
  0
LINE
  5
3B6
100
AcDbEntity
  8
2
100
AcDbLine
 10
-269.989481
 20
133.870779
 30
0.0
 11
-264.989481
 21
142.531033
 31
0.0
  0
LINE
  5
3B7
100
AcDbEntity
  8
2
100
AcDbLine
 10
-277.44514
 20
139.091287
 30
0.0
 11
-271.017264
 21
146.751732
 31
0.0
  0
ARC
  5
3B8
100
AcDbEntity
  8
2
100
AcDbCircle
 10
-277.062118
 20
138.769893
 30
0.0
 40
0.5
100
AcDbArc
 50
140.0
 51
320.0
  0
LINE
  5
3B9
100
AcDbEntity
  8
2
100
AcDbLine
 10
-276.679095
 20
138.4485
 30
0.0
 11
-270.251219
 21
146.108944
 31
0.0
  0
LINE
  5
3BA
100
AcDbEntity
  8
2
100
AcDbLine
 10
-254.75473
 20
128.510575
 30
0.0
 11
-253.018248
 21
138.358653
 31
0.0
  0
LINE
  5
3BB
100
AcDbEntity
  8
2
100
AcDbLine
 10
-255.739538
 20
128.684224
 30
0.0
 11
-254.003056
 21
138.532301
 31
0.0
  0
LINE
  5
3BC
100
AcDbEntity
  8
2
100
AcDbLine
 10
-248.672494
 20
127.901714
 30
0.0
 11
-248.672494
 21
146.909148
 31
0.0
  0
LINE
  5
3BD
100
AcDbEntity
  8
2
100
AcDbLine
 10
-245.672494
 20
127.901714
 30
0.0
 11
-245.672494
 21
146.909148
 31
0.0
  0
LINE
  5
3BE
100
AcDbEntity
  8
2
100
AcDbLine
 10
-279.993841
 20
163.526386
 30
0.0
 11
-279.282694
 21
164.237533
 31
0.0
  0
LINE
  5
3BF
100
AcDbEntity
  8
2
100
AcDbLine
 10
-278.571547
 20
164.948681
 30
0.0
 11
-277.8604
 21
165.659828
 31
0.0
  0
LINE
  5
3C0
100
AcDbEntity
  8
2
100
AcDbLine
 10
-276.539697
 20
166.98053
 30
0.0
 11
-275.82855
 21
167.691677
 31
0.0
  0
ARC
  5
3C1
100
AcDbEntity
  8
2
100
AcDbCircle
 10
-253.510652
 20
138.445477
 30
0.0
 40
0.5
100
AcDbArc
 50
350.0
 51
170.0
  0
ARC
  5
3C2
100
AcDbEntity
  8
2
100
AcDbCircle
 10
-259.656229
 20
140.092179
 30
0.0
 40
0.5
100
AcDbArc
 50
340.0
 51
160.0
  0
ARC
  5
3C3
100
AcDbEntity
  8
2
100
AcDbCircle
 10
-265.422494
 20
142.781033
 30
0.0
 40
0.5
100
AcDbArc
 50
330.0
 51
150.0
  0
ARC
  5
3C4
100
AcDbEntity
  8
2
100
AcDbCircle
 10
-270.634242
 20
146.430338
 30
0.0
 40
0.5
100
AcDbArc
 50
320.0
 51
140.0
  0
ARC
  5
3C5
100
AcDbEntity
  8
2
100
AcDbCircle
 10
-275.133116
 20
150.929212
 30
0.0
 40
0.5
100
AcDbArc
 50
310.0
 51
130.0
  0
ARC
  5
3C6
100
AcDbEntity
  8
2
100
AcDbCircle
 10
-278.782421
 20
156.14096
 30
0.0
 40
0.5
100
AcDbArc
 50
300.0
 51
120.0
  0
ARC
  5
3C7
100
AcDbEntity
  8
2
100
AcDbCircle
 10
-281.471274
 20
161.907225
 30
0.0
 40
0.5
100
AcDbArc
 50
290.0
 51
110.0
  0
ARC
  5
3C8
100
AcDbEntity
  8
2
100
AcDbCircle
 10
-283.117977
 20
168.052802
 30
0.0
 40
0.5
100
AcDbArc
 50
280.0
 51
100.0
  0
ARC
  5
3C9
100
AcDbEntity
  8
2
100
AcDbCircle
 10
-247.172494
 20
174.39096
 30
0.0
 40
47.0
100
AcDbArc
 50
189.999966
 51
190.000034
  0
ARC
  5
3CA
100
AcDbEntity
  8
2
100
AcDbCircle
 10
-248.172494
 20
127.901714
 30
0.0
 40
0.5
100
AcDbArc
 50
180.0
 51
268.767738
  0
ARC
  5
3CB
100
AcDbEntity
  8
2
100
AcDbCircle
 10
-246.172494
 20
127.901714
 30
0.0
 40
0.5
100
AcDbArc
 50
271.232262
 51
360.0
  0
ARC
  5
3CC
100
AcDbEntity
  8
2
100
AcDbCircle
 10
-247.172494
 20
174.39096
 30
0.0
 40
47.0
100
AcDbArc
 50
199.999929
 51
200.000071
  0
ARC
  5
3CD
100
AcDbEntity
  8
2
100
AcDbCircle
 10
-247.172494
 20
174.39096
 30
0.0
 40
47.0
100
AcDbArc
 50
268.767738
 51
271.232262
  0
ARC
  5
3CE
100
AcDbEntity
  8
2
100
AcDbCircle
 10
-247.172494
 20
174.39096
 30
0.0
 40
27.0
100
AcDbArc
 50
267.916058
 51
272.083942
  0
ARC
  5
3CF
100
AcDbEntity
  8
2
100
AcDbCircle
 10
-246.172494
 20
146.909148
 30
0.0
 40
0.5
100
AcDbArc
 50
0.0
 51
92.083942
  0
ARC
  5
3D0
100
AcDbEntity
  8
2
100
AcDbCircle
 10
-248.172494
 20
146.909148
 30
0.0
 40
0.5
100
AcDbArc
 50
87.916058
 51
180.0
  0
ARC
  5
3D1
100
AcDbEntity
  8
2
100
AcDbCircle
 10
-263.07643
 20
130.695253
 30
0.0
 40
0.5
100
AcDbArc
 50
160.0
 51
340.0
  0
ARC
  5
3D2
100
AcDbEntity
  8
2
100
AcDbCircle
 10
-255.247134
 20
128.597399
 30
0.0
 40
0.5
100
AcDbArc
 50
170.0
 51
350.0
  0
LINE
  5
3D3
100
AcDbEntity
  8
2
100
AcDbLine
 10
-225.097083
 20
159.966897
 30
0.0
 11
-223.548667
 21
159.441332
 31
0.0
  0
LINE
  5
3D4
100
AcDbEntity
  8
2
100
AcDbLine
 10
-223.548667
 20
159.441332
 30
0.0
 11
-224.039322
 21
159.994742
 31
0.0
  0
ARC
  5
3D5
100
AcDbEntity
  8
2
  6
CENTER
 62
     2
100
AcDbCircle
 10
-247.172494
 20
174.39096
 30
0.0
 40
35.0
100
AcDbArc
 50
298.585378
 51
330.968199
  0
LINE
  5
3D6
100
AcDbEntity
  8
2
  6
CENTER
 62
     2
100
AcDbLine
 10
-215.147805
 20
142.366271
 30
0.0
 11
-229.823653
 21
157.04212
 31
0.0
  0
ARC
  5
3D7
100
AcDbEntity
  8
2
  6
CENTER
 62
     2
100
AcDbCircle
 10
-247.172494
 20
174.39096
 30
0.0
 40
35.0
100
AcDbArc
 50
118.005522
 51
150.923658
  0
LINE
  5
3D8
100
AcDbEntity
  8
2
  6
CENTER
 62
     2
100
AcDbLine
 10
-263.594877
 20
190.813343
 30
0.0
 11
-280.314477
 21
207.532944
 31
0.0
  0
TEXT
  5
3D9
100
AcDbEntity
  8
2
100
AcDbText
 10
-228.623516
 20
143.046579
 30
0.0
 40
10.0
  1
Ｏ
 50
202.5
 72
     5
 11
-236.014552
 21
139.985112
 31
0.0
100
AcDbText
  0
TEXT
  5
3DA
100
AcDbEntity
  8
2
100
AcDbText
 10
-282.132644
 20
184.136462
 30
0.0
 40
10.0
  1
Ｓ
 50
67.5
 72
     5
 11
-279.071177
 21
191.527498
 31
0.0
100
AcDbText
  0
TEXT
  5
3DB
100
AcDbEntity
  8
2
100
AcDbText
 10
-268.222788
 20
187.940744
 30
0.0
 40
3.0
  1
Ｊ
 50
55.0
 72
     5
 11
-266.846205
 21
189.906709
 31
0.0
100
AcDbText
  0
TEXT
  5
3DC
100
AcDbEntity
  8
2
100
AcDbText
 10
-266.961744
 20
189.723837
 30
0.0
 40
3.0
  1
Ａ
 50
50.0
 72
     5
 11
-265.419054
 21
191.562344
 31
0.0
100
AcDbText
  0
TEXT
  5
3DD
100
AcDbEntity
  8
2
100
AcDbText
 10
-263.998574
 20
192.927264
 30
0.0
 40
3.0
  1
Ａ
 50
40.0
 72
     5
 11
-262.160067
 21
194.469954
 31
0.0
100
AcDbText
  0
TEXT
  5
3DE
100
AcDbEntity
  8
2
100
AcDbText
 10
-262.319001
 20
194.323217
 30
0.0
 40
3.0
  1
Ｎ
 50
35.0
 72
     5
 11
-260.353036
 21
195.6998
 31
0.0
100
AcDbText
  0
TEXT
  5
3DF
100
AcDbEntity
  8
2
100
AcDbText
 10
-265.550091
 20
191.390238
 30
0.0
 40
3.0
  1
Ｐ
 50
45.0
 72
     5
 11
-263.853035
 21
193.087294
 31
0.0
100
AcDbText
  0
TEXT
  5
3E0
100
AcDbEntity
  8
2
100
AcDbText
 10
-234.648947
 20
152.714422
 30
0.0
 40
3.0
  1
Ｄ
 50
207.785854
 72
     5
 11
-236.772218
 21
151.595618
 31
0.0
100
AcDbText
  0
TEXT
  5
3E1
100
AcDbEntity
  8
2
100
AcDbText
 10
-232.807368
 20
153.888406
 30
0.0
 40
3.0
  1
Ｅ
 50
212.785854
 72
     5
 11
-234.825049
 21
152.588804
 31
0.0
100
AcDbText
  0
TEXT
  5
3E2
100
AcDbEntity
  8
2
100
AcDbText
 10
-231.075117
 20
155.218428
 30
0.0
 40
3.0
  1
Ｔ
 50
217.785854
 72
     5
 11
-232.971852
 21
153.747919
 31
0.0
100
AcDbText
  0
TEXT
  5
3E3
100
AcDbEntity
  8
2
100
AcDbText
 10
-229.465376
 20
156.694364
 30
0.0
 40
3.0
  1
Ｎ
 50
222.785854
 72
     5
 11
-231.22673
 21
155.06414
 31
0.0
100
AcDbText
  0
TEXT
  5
3E4
100
AcDbEntity
  8
2
100
AcDbText
 10
-227.990397
 20
158.304982
 30
0.0
 40
3.0
  1
Ｅ
 50
227.785854
 72
     5
 11
-229.602965
 21
156.527449
 31
0.0
100
AcDbText
  0
TEXT
  5
3E5
100
AcDbEntity
  8
2
100
AcDbText
 10
-226.661405
 20
160.038024
 30
0.0
 40
3.0
  1
Ｔ
 50
232.785854
 72
     5
 11
-228.112915
 21
158.126711
 31
0.0
100
AcDbText
  0
LINE
  5
3E6
100
AcDbEntity
  8
2
100
AcDbLine
 10
-247.172494
 20
148.39096
 30
0.0
 11
-249.631494
 21
148.39096
 31
0.0
  0
LINE
  5
3E7
100
AcDbEntity
  8
2
100
AcDbLine
 10
-249.631494
 20
148.39096
 30
0.0
 11
-250.172494
 21
148.93196
 31
0.0
  0
LINE
  5
3E8
100
AcDbEntity
  8
2
100
AcDbLine
 10
-250.172494
 20
148.93196
 30
0.0
 11
-250.172494
 21
152.409889
 31
0.0
  0
LINE
  5
3E9
100
AcDbEntity
  8
2
100
AcDbLine
 10
-250.172494
 20
148.93196
 30
0.0
 11
-247.172494
 21
148.93196
 31
0.0
  0
LINE
  5
3EA
100
AcDbEntity
  8
2
100
AcDbLine
 10
-247.172494
 20
148.39096
 30
0.0
 11
-244.713494
 21
148.39096
 31
0.0
  0
LINE
  5
3EB
100
AcDbEntity
  8
2
100
AcDbLine
 10
-244.713494
 20
148.39096
 30
0.0
 11
-244.172494
 21
148.93196
 31
0.0
  0
LINE
  5
3EC
100
AcDbEntity
  8
2
100
AcDbLine
 10
-244.172494
 20
148.93196
 30
0.0
 11
-244.172494
 21
152.409889
 31
0.0
  0
LINE
  5
3ED
100
AcDbEntity
  8
2
100
AcDbLine
 10
-244.172494
 20
148.93196
 30
0.0
 11
-247.172494
 21
148.93196
 31
0.0
  0
LINE
  5
3EE
100
AcDbEntity
  8
2
100
AcDbLine
 10
-247.172494
 20
157.39096
 30
0.0
 11
-241.422494
 21
157.39096
 31
0.0
  0
LINE
  5
3EF
100
AcDbEntity
  8
2
100
AcDbLine
 10
-241.422494
 20
157.39096
 30
0.0
 11
-241.422494
 21
152.881708
 31
0.0
  0
LINE
  5
3F0
100
AcDbEntity
  8
2
100
AcDbLine
 10
-241.422494
 20
152.881708
 30
0.0
 11
-242.272494
 21
152.39096
 31
0.0
  0
LINE
  5
3F1
100
AcDbEntity
  8
2
100
AcDbLine
 10
-242.272494
 20
152.39096
 30
0.0
 11
-247.172494
 21
152.39096
 31
0.0
  0
LINE
  5
3F2
100
AcDbEntity
  8
2
100
AcDbLine
 10
-244.297494
 20
157.39096
 30
0.0
 11
-244.297494
 21
152.881708
 31
0.0
  0
ARC
  5
3F3
100
AcDbEntity
  8
2
100
AcDbCircle
 10
-242.859994
 20
154.729663
 30
0.0
 40
2.341227
100
AcDbArc
 50
232.121121
 51
307.878879
  0
ARC
  5
3F4
100
AcDbEntity
  8
2
100
AcDbCircle
 10
-247.172494
 20
161.013436
 30
0.0
 40
8.625
100
AcDbArc
 50
270.0
 51
289.471221
  0
LINE
  5
3F5
100
AcDbEntity
  8
2
100
AcDbLine
 10
-247.172494
 20
157.39096
 30
0.0
 11
-252.922494
 21
157.39096
 31
0.0
  0
LINE
  5
3F6
100
AcDbEntity
  8
2
100
AcDbLine
 10
-252.922494
 20
157.39096
 30
0.0
 11
-252.922494
 21
152.881708
 31
0.0
  0
LINE
  5
3F7
100
AcDbEntity
  8
2
100
AcDbLine
 10
-252.922494
 20
152.881708
 30
0.0
 11
-252.072494
 21
152.39096
 31
0.0
  0
LINE
  5
3F8
100
AcDbEntity
  8
2
100
AcDbLine
 10
-252.072494
 20
152.39096
 30
0.0
 11
-247.172494
 21
152.39096
 31
0.0
  0
LINE
  5
3F9
100
AcDbEntity
  8
2
100
AcDbLine
 10
-250.047494
 20
157.39096
 30
0.0
 11
-250.047494
 21
152.881708
 31
0.0
  0
ARC
  5
3FA
100
AcDbEntity
  8
2
100
AcDbCircle
 10
-251.484994
 20
154.729663
 30
0.0
 40
2.341227
100
AcDbArc
 50
232.121121
 51
307.878879
  0
ARC
  5
3FB
100
AcDbEntity
  8
2
100
AcDbCircle
 10
-247.172494
 20
161.013436
 30
0.0
 40
8.625
100
AcDbArc
 50
250.528779
 51
270.0
  0
LINE
  5
3FC
100
AcDbEntity
  8
2
 62
     2
100
AcDbLine
 10
-249.631494
 20
148.39096
 30
0.0
 11
-249.631494
 21
152.39096
 31
0.0
  0
LINE
  5
3FD
100
AcDbEntity
  8
2
 62
     2
100
AcDbLine
 10
-244.713494
 20
148.39096
 30
0.0
 11
-244.713494
 21
152.39096
 31
0.0
  0
CIRCLE
  5
3FE
100
AcDbEntity
  8
2
100
AcDbCircle
 10
-222.423756
 20
149.642223
 30
0.0
 40
6.5
  0
LINE
  5
3FF
100
AcDbEntity
  8
2
100
AcDbLine
 10
-218.67098
 20
156.142223
 30
0.0
 11
-226.176533
 21
156.142223
 31
0.0
  0
LINE
  5
400
100
AcDbEntity
  8
2
100
AcDbLine
 10
-226.176533
 20
156.142223
 30
0.0
 11
-229.92931
 21
149.642223
 31
0.0
  0
LINE
  5
401
100
AcDbEntity
  8
2
100
AcDbLine
 10
-229.92931
 20
149.642223
 30
0.0
 11
-226.176533
 21
143.142223
 31
0.0
  0
LINE
  5
402
100
AcDbEntity
  8
2
100
AcDbLine
 10
-226.176533
 20
143.142223
 30
0.0
 11
-218.67098
 21
143.142223
 31
0.0
  0
LINE
  5
403
100
AcDbEntity
  8
2
100
AcDbLine
 10
-218.67098
 20
143.142223
 30
0.0
 11
-214.918203
 21
149.642223
 31
0.0
  0
LINE
  5
404
100
AcDbEntity
  8
2
100
AcDbLine
 10
-214.918203
 20
149.642223
 30
0.0
 11
-218.67098
 21
156.142223
 31
0.0
  0
LINE
  5
405
100
AcDbEntity
  8
2
100
AcDbLine
 10
-279.426785
 20
199.139697
 30
0.0
 11
-275.674008
 21
192.639697
 31
0.0
  0
LINE
  5
406
100
AcDbEntity
  8
2
100
AcDbLine
 10
-275.674008
 20
205.639697
 30
0.0
 11
-279.426785
 21
199.139697
 31
0.0
  0
LINE
  5
407
100
AcDbEntity
  8
2
100
AcDbLine
 10
-268.168454
 20
205.639697
 30
0.0
 11
-275.674008
 21
205.639697
 31
0.0
  0
LINE
  5
408
100
AcDbEntity
  8
2
100
AcDbLine
 10
-264.415678
 20
199.139697
 30
0.0
 11
-268.168454
 21
205.639697
 31
0.0
  0
LINE
  5
409
100
AcDbEntity
  8
2
100
AcDbLine
 10
-268.168454
 20
192.639697
 30
0.0
 11
-264.415678
 21
199.139697
 31
0.0
  0
LINE
  5
40A
100
AcDbEntity
  8
2
100
AcDbLine
 10
-275.674008
 20
192.639697
 30
0.0
 11
-268.168454
 21
192.639697
 31
0.0
  0
CIRCLE
  5
40B
100
AcDbEntity
  8
2
100
AcDbCircle
 10
-271.921231
 20
199.139697
 30
0.0
 40
6.5
  0
ARC
  5
40C
100
AcDbEntity
  8
2
100
AcDbCircle
 10
-57.172494
 20
174.39096
 30
0.0
 40
10.0
100
AcDbArc
 50
271.507958
 51
88.492042
  0
LINE
  5
40D
100
AcDbEntity
  8
2
100
AcDbLine
 10
109.689834
 20
-29.151336
 30
0.0
 11
116.336834
 21
-29.151336
 31
0.0
  0
LINE
  5
40E
100
AcDbEntity
  8
2
100
AcDbLine
 10
109.689834
 20
-29.151336
 30
0.0
 11
109.013334
 21
-28.474836
 31
0.0
  0
LINE
  5
40F
100
AcDbEntity
  8
2
100
AcDbLine
 10
109.013334
 20
-28.474836
 30
0.0
 11
109.013334
 21
-21.651336
 31
0.0
  0
LINE
  5
410
100
AcDbEntity
  8
2
 62
     2
100
AcDbLine
 10
109.689834
 20
-29.151336
 30
0.0
 11
109.689834
 21
-21.651336
 31
0.0
  0
LINE
  5
411
100
AcDbEntity
  8
2
100
AcDbLine
 10
116.336834
 20
-29.151336
 30
0.0
 11
117.013334
 21
-28.474836
 31
0.0
  0
LINE
  5
412
100
AcDbEntity
  8
2
100
AcDbLine
 10
117.013334
 20
-28.474836
 30
0.0
 11
117.013334
 21
-21.651336
 31
0.0
  0
LINE
  5
413
100
AcDbEntity
  8
2
100
AcDbLine
 10
117.013334
 20
-28.474836
 30
0.0
 11
109.013334
 21
-28.474836
 31
0.0
  0
LINE
  5
414
100
AcDbEntity
  8
2
 62
     2
100
AcDbLine
 10
116.336834
 20
-29.151336
 30
0.0
 11
116.336834
 21
-21.651336
 31
0.0
  0
LINE
  5
415
100
AcDbEntity
  8
2
100
AcDbLine
 10
119.513334
 20
-15.151336
 30
0.0
 11
119.513334
 21
-21.651336
 31
0.0
  0
ARC
  5
416
100
AcDbEntity
  8
2
100
AcDbCircle
 10
116.263334
 20
-13.972578
 30
0.0
 40
7.678758
100
AcDbArc
 50
244.96034
 51
295.03966
  0
LINE
  5
417
100
AcDbEntity
  8
2
100
AcDbLine
 10
107.75387
 20
-21.651336
 30
0.0
 11
119.513334
 21
-21.651336
 31
0.0
  0
LINE
  5
418
100
AcDbEntity
  8
2
100
AcDbLine
 10
113.013334
 20
-15.988983
 30
0.0
 11
113.013334
 21
-20.92965
 31
0.0
  0
ARC
  5
419
100
AcDbEntity
  8
2
100
AcDbCircle
 10
109.763334
 20
-13.972578
 30
0.0
 40
7.678758
100
AcDbArc
 50
255.898438
 51
295.03966
  0
LINE
  5
41A
100
AcDbEntity
  8
2
100
AcDbLine
 10
120.713334
 20
-13.151336
 30
0.0
 11
120.713334
 21
-15.151336
 31
0.0
  0
LINE
  5
41B
100
AcDbEntity
  8
2
100
AcDbLine
 10
120.713334
 20
-15.151336
 30
0.0
 11
114.342733
 21
-15.151336
 31
0.0
  0
LINE
  5
41C
100
AcDbEntity
  8
2
100
AcDbLine
 10
60.19236
 20
-29.151336
 30
0.0
 11
66.83936
 21
-29.151336
 31
0.0
  0
LINE
  5
41D
100
AcDbEntity
  8
2
100
AcDbLine
 10
60.19236
 20
-29.151336
 30
0.0
 11
59.51586
 21
-28.474836
 31
0.0
  0
LINE
  5
41E
100
AcDbEntity
  8
2
100
AcDbLine
 10
59.51586
 20
-28.474836
 30
0.0
 11
59.51586
 21
-21.651336
 31
0.0
  0
LINE
  5
41F
100
AcDbEntity
  8
2
 62
     2
100
AcDbLine
 10
60.19236
 20
-29.151336
 30
0.0
 11
60.19236
 21
-21.651336
 31
0.0
  0
LINE
  5
420
100
AcDbEntity
  8
2
100
AcDbLine
 10
66.83936
 20
-29.151336
 30
0.0
 11
67.51586
 21
-28.474836
 31
0.0
  0
LINE
  5
421
100
AcDbEntity
  8
2
100
AcDbLine
 10
67.51586
 20
-28.474836
 30
0.0
 11
67.51586
 21
-21.651336
 31
0.0
  0
LINE
  5
422
100
AcDbEntity
  8
2
100
AcDbLine
 10
67.51586
 20
-28.474836
 30
0.0
 11
59.51586
 21
-28.474836
 31
0.0
  0
LINE
  5
423
100
AcDbEntity
  8
2
 62
     2
100
AcDbLine
 10
66.83936
 20
-29.151336
 30
0.0
 11
66.83936
 21
-21.651336
 31
0.0
  0
LINE
  5
424
100
AcDbEntity
  8
2
100
AcDbLine
 10
70.01586
 20
-15.151336
 30
0.0
 11
70.01586
 21
-21.651336
 31
0.0
  0
ARC
  5
425
100
AcDbEntity
  8
2
100
AcDbCircle
 10
66.76586
 20
-13.972578
 30
0.0
 40
7.678758
100
AcDbArc
 50
244.96034
 51
295.03966
  0
LINE
  5
426
100
AcDbEntity
  8
2
100
AcDbLine
 10
57.01586
 20
-15.151336
 30
0.0
 11
57.01586
 21
-21.651336
 31
0.0
  0
LINE
  5
427
100
AcDbEntity
  8
2
100
AcDbLine
 10
57.01586
 20
-21.651336
 30
0.0
 11
70.01586
 21
-21.651336
 31
0.0
  0
LINE
  5
428
100
AcDbEntity
  8
2
100
AcDbLine
 10
63.51586
 20
-15.151336
 30
0.0
 11
63.51586
 21
-20.92965
 31
0.0
  0
ARC
  5
429
100
AcDbEntity
  8
2
100
AcDbCircle
 10
60.26586
 20
-13.972578
 30
0.0
 40
7.678758
100
AcDbArc
 50
244.96034
 51
295.03966
  0
LINE
  5
42A
100
AcDbEntity
  8
2
100
AcDbLine
 10
71.21586
 20
-13.151336
 30
0.0
 11
71.21586
 21
-15.151336
 31
0.0
  0
LINE
  5
42B
100
AcDbEntity
  8
2
100
AcDbLine
 10
71.21586
 20
-15.151336
 30
0.0
 11
55.81586
 21
-15.151336
 31
0.0
  0
LINE
  5
42C
100
AcDbEntity
  8
2
100
AcDbLine
 10
55.81586
 20
-15.151336
 30
0.0
 11
55.81586
 21
-13.151336
 31
0.0
  0
LINE
  5
42D
100
AcDbEntity
  8
2
  6
CENTER
 62
     2
100
AcDbLine
 10
113.013334
 20
34.256348
 30
0.0
 11
113.013334
 21
-30.766736
 31
0.0
  0
LINE
  5
42E
100
AcDbEntity
  8
2
  6
CENTER
 62
     2
100
AcDbLine
 10
63.51586
 20
34.453302
 30
0.0
 11
63.51586
 21
-30.766736
 31
0.0
  0
LINE
  5
42F
100
AcDbEntity
  8
2
100
AcDbLine
 10
94.894089
 20
79.318965
 30
0.0
 11
97.043
 21
59.049964
 31
0.0
  0
LINE
  5
430
100
AcDbEntity
  8
2
100
AcDbLine
 10
81.264598
 20
25.848664
 30
0.0
 11
81.264598
 21
34.848664
 31
0.0
  0
LINE
  5
431
100
AcDbEntity
  8
2
100
AcDbLine
 10
95.264598
 20
34.848664
 30
0.0
 11
95.264598
 21
25.848664
 31
0.0
  0
LINE
  5
432
100
AcDbEntity
  8
2
100
AcDbLine
 10
75.264598
 20
44.848664
 30
0.0
 11
81.264598
 21
44.848664
 31
0.0
  0
ARC
  5
433
100
AcDbEntity
  8
2
100
AcDbCircle
 10
76.764598
 20
45.848664
 30
0.0
 40
1.0
100
AcDbArc
 50
180.0
 51
270.0
  0
LINE
  5
434
100
AcDbEntity
  8
2
100
AcDbLine
 10
101.264598
 20
44.848664
 30
0.0
 11
95.264598
 21
44.848664
 31
0.0
  0
ARC
  5
435
100
AcDbEntity
  8
2
100
AcDbCircle
 10
99.764598
 20
45.848664
 30
0.0
 40
1.0
100
AcDbArc
 50
270.0
 51
360.0
  0
LINE
  5
436
100
AcDbEntity
  8
2
100
AcDbLine
 10
102.264598
 20
56.848664
 30
0.0
 11
103.264598
 21
55.848664
 31
0.0
  0
LINE
  5
437
100
AcDbEntity
  8
2
100
AcDbLine
 10
103.264598
 20
35.848664
 30
0.0
 11
103.264598
 21
55.848664
 31
0.0
  0
LINE
  5
438
100
AcDbEntity
  8
2
100
AcDbLine
 10
94.264598
 20
45.848664
 30
0.0
 11
94.264598
 21
56.593033
 31
0.0
  0
LINE
  5
439
100
AcDbEntity
  8
2
100
AcDbLine
 10
102.264598
 20
45.848664
 30
0.0
 11
102.264598
 21
59.348664
 31
0.0
  0
ARC
  5
43A
100
AcDbEntity
  8
2
100
AcDbCircle
 10
101.764598
 20
59.348664
 30
0.0
 40
0.5
100
AcDbArc
 50
0.0
 51
90.0
  0
ARC
  5
43B
100
AcDbEntity
  8
2
100
AcDbCircle
 10
101.264598
 20
60.348664
 30
0.0
 40
0.5
100
AcDbArc
 50
180.0
 51
270.0
  0
LINE
  5
43C
100
AcDbEntity
  8
2
100
AcDbLine
 10
101.764598
 20
59.848664
 30
0.0
 11
101.264598
 21
59.848664
 31
0.0
  0
LINE
  5
43D
100
AcDbEntity
  8
2
100
AcDbLine
 10
100.764598
 20
45.848664
 30
0.0
 11
100.764598
 21
60.348664
 31
0.0
  0
LINE
  5
43E
100
AcDbEntity
  8
2
100
AcDbLine
 10
96.353798
 20
57.992255
 30
0.0
 11
94.959373
 21
57.545313
 31
0.0
  0
ARC
  5
43F
100
AcDbEntity
  8
2
100
AcDbCircle
 10
95.264598
 20
56.593033
 30
0.0
 40
1.0
100
AcDbArc
 50
107.771715
 51
180.0
  0
LINE
  5
440
100
AcDbEntity
  8
2
100
AcDbLine
 10
94.264598
 20
63.094935
 30
0.0
 11
94.264598
 21
56.593033
 31
0.0
  0
LINE
  5
441
100
AcDbEntity
  8
2
100
AcDbLine
 10
102.264598
 20
52.321676
 30
0.0
 11
103.064598
 21
44.7759
 31
0.0
  0
ARC
  5
442
100
AcDbEntity
  8
2
100
AcDbCircle
 10
101.264598
 20
45.848664
 30
0.0
 40
1.0
100
AcDbArc
 50
270.0
 51
360.0
  0
ARC
  5
443
100
AcDbEntity
  8
2
100
AcDbCircle
 10
95.264598
 20
45.848664
 30
0.0
 40
1.0
100
AcDbArc
 50
180.0
 51
270.0
  0
ARC
  5
444
100
AcDbEntity
  8
2
100
AcDbCircle
 10
96.048573
 20
58.944536
 30
0.0
 40
1.0
100
AcDbArc
 50
287.771715
 51
6.051867
  0
ARC
  5
445
100
AcDbEntity
  8
2
100
AcDbCircle
 10
80.480623
 20
58.944536
 30
0.0
 40
1.0
100
AcDbArc
 50
173.948133
 51
252.228285
  0
ARC
  5
446
100
AcDbEntity
  8
2
100
AcDbCircle
 10
81.264598
 20
45.848664
 30
0.0
 40
1.0
100
AcDbArc
 50
270.0
 51
360.0
  0
ARC
  5
447
100
AcDbEntity
  8
2
100
AcDbCircle
 10
75.264598
 20
45.848664
 30
0.0
 40
1.0
100
AcDbArc
 50
180.0
 51
270.0
  0
ARC
  5
448
100
AcDbEntity
  8
2
100
AcDbCircle
 10
98.095185
 20
39.640447
 30
0.0
 40
1.0
100
AcDbArc
 50
279.951879
 51
6.051867
  0
ARC
  5
449
100
AcDbEntity
  8
2
100
AcDbCircle
 10
78.434011
 20
39.640447
 30
0.0
 40
1.0
100
AcDbArc
 50
173.948133
 51
260.048121
  0
ARC
  5
44A
100
AcDbEntity
  8
2
100
AcDbCircle
 10
88.264598
 20
95.667595
 30
0.0
 40
57.883053
100
AcDbArc
 50
260.048121
 51
264.1497
  0
LINE
  5
44B
100
AcDbEntity
  8
2
100
AcDbLine
 10
73.464598
 20
35.848664
 30
0.0
 11
73.464598
 21
44.7759
 31
0.0
  0
LINE
  5
44C
100
AcDbEntity
  8
2
100
AcDbLine
 10
74.264598
 20
52.321676
 30
0.0
 11
73.464598
 21
44.7759
 31
0.0
  0
LINE
  5
44D
100
AcDbEntity
  8
2
100
AcDbLine
 10
77.98058
 20
44.848664
 30
0.0
 11
77.439585
 21
39.745875
 31
0.0
  0
LINE
  5
44E
100
AcDbEntity
  8
2
100
AcDbLine
 10
99.264598
 20
35.848664
 30
0.0
 11
99.264598
 21
34.848664
 31
0.0
  0
ARC
  5
44F
100
AcDbEntity
  8
2
100
AcDbCircle
 10
93.764598
 20
73.954549
 30
0.0
 40
1.5
100
AcDbArc
 50
69.332801
 51
94.270956
  0
LINE
  5
450
100
AcDbEntity
  8
2
100
AcDbLine
 10
102.264598
 20
52.321676
 30
0.0
 11
103.264598
 21
42.889455
 31
0.0
  0
ARC
  5
451
100
AcDbEntity
  8
2
100
AcDbCircle
 10
93.839734
 20
84.431863
 30
0.0
 40
5.0
100
AcDbArc
 50
9.174666
 51
77.83324
  0
LINE
  5
452
100
AcDbEntity
  8
2
100
AcDbLine
 10
98.775768
 20
85.229087
 30
0.0
 11
98.775768
 21
80.646441
 31
0.0
  0
LINE
  5
453
100
AcDbEntity
  8
2
100
AcDbLine
 10
92.264598
 20
73.618659
 30
0.0
 11
92.264598
 21
70.933045
 31
0.0
  0
ARC
  5
454
100
AcDbEntity
  8
2
100
AcDbCircle
 10
97.775768
 20
80.646441
 30
0.0
 40
1.0
100
AcDbArc
 50
259.300245
 51
360.0
  0
LINE
  5
455
100
AcDbEntity
  8
2
100
AcDbLine
 10
98.775768
 20
85.229087
 30
0.0
 11
101.46659
 21
59.848664
 31
0.0
  0
ARC
  5
456
100
AcDbEntity
  8
2
100
AcDbCircle
 10
93.899662
 20
79.213537
 30
0.0
 40
1.0
100
AcDbArc
 50
6.051867
 51
83.42706
  0
LINE
  5
457
100
AcDbEntity
  8
2
100
AcDbLine
 10
98.548616
 20
44.848664
 30
0.0
 11
99.089611
 21
39.745875
 31
0.0
  0
ARC
  5
458
100
AcDbEntity
  8
2
100
AcDbCircle
 10
91.264598
 20
63.094935
 30
0.0
 40
3.0
100
AcDbArc
 50
0.0
 51
28.460849
  0
LINE
  5
459
100
AcDbEntity
  8
2
100
AcDbLine
 10
94.264598
 20
63.094935
 30
0.0
 11
94.264598
 21
57.932664
 31
0.0
  0
LINE
  5
45A
100
AcDbEntity
  8
2
100
AcDbLine
 10
82.264598
 20
63.094935
 30
0.0
 11
82.264598
 21
56.593033
 31
0.0
  0
ARC
  5
45B
100
AcDbEntity
  8
2
100
AcDbCircle
 10
81.264598
 20
56.593033
 30
0.0
 40
1.0
100
AcDbArc
 50
0.0
 51
72.228285
  0
LINE
  5
45C
100
AcDbEntity
  8
2
100
AcDbLine
 10
81.635107
 20
79.318965
 30
0.0
 11
79.486196
 21
59.049964
 31
0.0
  0
ARC
  5
45D
100
AcDbEntity
  8
2
100
AcDbCircle
 10
85.264598
 20
63.094935
 30
0.0
 40
3.0
100
AcDbArc
 50
113.205282
 51
180.0
  0
LINE
  5
45E
100
AcDbEntity
  8
2
100
AcDbLine
 10
80.175397
 20
57.992255
 30
0.0
 11
81.569823
 21
57.545313
 31
0.0
  0
LINE
  5
45F
100
AcDbEntity
  8
2
100
AcDbLine
 10
77.264598
 20
35.848664
 30
0.0
 11
77.264598
 21
34.848664
 31
0.0
  0
ARC
  5
460
100
AcDbEntity
  8
2
100
AcDbCircle
 10
82.629534
 20
79.213537
 30
0.0
 40
1.0
100
AcDbArc
 50
96.57294
 51
173.948133
  0
LINE
  5
461
100
AcDbEntity
  8
2
100
AcDbLine
 10
103.264598
 20
35.848664
 30
0.0
 11
94.164598
 21
35.848664
 31
0.0
  0
LINE
  5
462
100
AcDbEntity
  8
2
100
AcDbLine
 10
77.264598
 20
34.848664
 30
0.0
 11
82.364598
 21
34.848664
 31
0.0
  0
LINE
  5
463
100
AcDbEntity
  8
2
100
AcDbLine
 10
75.764598
 20
45.848664
 30
0.0
 11
75.764598
 21
60.348664
 31
0.0
  0
LINE
  5
464
100
AcDbEntity
  8
2
100
AcDbLine
 10
77.753428
 20
85.229087
 30
0.0
 11
75.062606
 21
59.848664
 31
0.0
  0
LINE
  5
465
100
AcDbEntity
  8
2
100
AcDbLine
 10
74.764598
 20
59.848664
 30
0.0
 11
75.264598
 21
59.848664
 31
0.0
  0
ARC
  5
466
100
AcDbEntity
  8
2
100
AcDbCircle
 10
75.264598
 20
60.348664
 30
0.0
 40
0.5
100
AcDbArc
 50
270.0
 51
360.0
  0
ARC
  5
467
100
AcDbEntity
  8
2
100
AcDbCircle
 10
74.764598
 20
59.348664
 30
0.0
 40
0.5
100
AcDbArc
 50
90.0
 51
180.0
  0
LINE
  5
468
100
AcDbEntity
  8
2
100
AcDbLine
 10
74.264598
 20
45.848664
 30
0.0
 11
74.264598
 21
59.348664
 31
0.0
  0
ARC
  5
469
100
AcDbEntity
  8
2
100
AcDbCircle
 10
88.264598
 20
30.308813
 30
0.0
 40
50.228304
100
AcDbArc
 50
79.300245
 51
100.699755
  0
ARC
  5
46A
100
AcDbEntity
  8
2
100
AcDbCircle
 10
78.753428
 20
80.646441
 30
0.0
 40
1.0
100
AcDbArc
 50
180.0
 51
280.699755
  0
ARC
  5
46B
100
AcDbEntity
  8
2
100
AcDbCircle
 10
88.264598
 20
65.75999
 30
0.0
 40
11.334722
100
AcDbArc
 50
68.408724
 51
114.66929
  0
LINE
  5
46C
100
AcDbEntity
  8
2
100
AcDbLine
 10
84.264598
 20
69.781782
 30
0.0
 11
85.264598
 21
68.781782
 31
0.0
  0
ARC
  5
46D
100
AcDbEntity
  8
2
100
AcDbCircle
 10
88.264598
 20
60.760267
 30
0.0
 40
9.868523
100
AcDbArc
 50
76.978496
 51
113.911756
  0
ARC
  5
46E
100
AcDbEntity
  8
2
100
AcDbCircle
 10
82.764598
 20
73.954549
 30
0.0
 40
1.5
100
AcDbArc
 50
0.0
 51
110.667199
  0
LINE
  5
46F
100
AcDbEntity
  8
2
100
AcDbLine
 10
84.264598
 20
73.954549
 30
0.0
 11
84.264598
 21
73.782926
 31
0.0
  0
LINE
  5
470
100
AcDbEntity
  8
2
100
AcDbLine
 10
82.264598
 20
45.848664
 30
0.0
 11
82.264598
 21
56.593033
 31
0.0
  0
LINE
  5
471
100
AcDbEntity
  8
2
100
AcDbLine
 10
77.753428
 20
85.229087
 30
0.0
 11
77.753428
 21
80.646441
 31
0.0
  0
LINE
  5
472
100
AcDbEntity
  8
2
100
AcDbLine
 10
72.264598
 20
56.848664
 30
0.0
 11
74.264598
 21
56.848664
 31
0.0
  0
LINE
  5
473
100
AcDbEntity
  8
2
100
AcDbLine
 10
71.264598
 20
55.848664
 30
0.0
 11
71.264598
 21
35.848664
 31
0.0
  0
ARC
  5
474
100
AcDbEntity
  8
2
100
AcDbCircle
 10
72.264598
 20
55.848664
 30
0.0
 40
1.0
100
AcDbArc
 50
90.0
 51
180.0
  0
ARC
  5
475
100
AcDbEntity
  8
2
100
AcDbCircle
 10
82.689462
 20
84.431863
 30
0.0
 40
5.0
100
AcDbArc
 50
102.16676
 51
170.825334
  0
ARC
  5
476
100
AcDbEntity
  8
2
100
AcDbCircle
 10
88.264598
 20
58.573216
 30
0.0
 40
31.452822
100
AcDbArc
 50
77.83324
 51
102.16676
  0
LINE
  5
477
100
AcDbEntity
  8
2
100
AcDbLine
 10
94.164598
 20
34.848664
 30
0.0
 11
99.264598
 21
34.848664
 31
0.0
  0
LINE
  5
478
100
AcDbEntity
  8
2
100
AcDbLine
 10
82.364598
 20
35.848664
 30
0.0
 11
71.264598
 21
35.848664
 31
0.0
  0
ARC
  5
479
100
AcDbEntity
  8
2
100
AcDbCircle
 10
88.264598
 20
95.667595
 30
0.0
 40
57.883053
100
AcDbArc
 50
275.8503
 51
279.951879
  0
LINE
  5
47A
100
AcDbEntity
  8
2
100
AcDbLine
 10
84.264598
 20
71.795611
 30
0.0
 11
84.264598
 21
69.781782
 31
0.0
  0
ARC
  5
47B
100
AcDbEntity
  8
2
100
AcDbCircle
 10
91.264598
 20
63.094935
 30
0.0
 40
3.0
100
AcDbArc
 50
55.144622
 51
90.0
  0
LINE
  5
47C
100
AcDbEntity
  8
2
100
AcDbLine
 10
92.602959
 20
65.513695
 30
0.0
 11
83.041775
 21
62.510342
 31
0.0
  0
LINE
  5
47D
100
AcDbEntity
  8
2
100
AcDbLine
 10
93.202323
 20
63.605617
 30
0.0
 11
83.641139
 21
60.602263
 31
0.0
  0
LINE
  5
47E
100
AcDbEntity
  8
2
100
AcDbLine
 10
83.086379
 20
60.589382
 30
0.0
 11
89.299422
 21
58.950353
 31
0.0
  0
LINE
  5
47F
100
AcDbEntity
  8
2
100
AcDbLine
 10
92.602959
 20
59.988058
 30
0.0
 11
83.041775
 21
56.984705
 31
0.0
  0
LINE
  5
480
100
AcDbEntity
  8
2
100
AcDbLine
 10
93.202323
 20
58.07998
 30
0.0
 11
83.641139
 21
55.076627
 31
0.0
  0
LINE
  5
481
100
AcDbEntity
  8
2
100
AcDbLine
 10
93.202323
 20
52.554344
 30
0.0
 11
83.641139
 21
49.55099
 31
0.0
  0
LINE
  5
482
100
AcDbEntity
  8
2
100
AcDbLine
 10
92.602959
 20
54.462422
 30
0.0
 11
83.041775
 21
51.459069
 31
0.0
  0
LINE
  5
483
100
AcDbEntity
  8
2
100
AcDbLine
 10
83.086379
 20
55.063745
 30
0.0
 11
84.978675
 21
54.564549
 31
0.0
  0
ARC
  5
484
100
AcDbEntity
  8
2
100
AcDbCircle
 10
83.341457
 20
50.50503
 30
0.0
 40
1.0
100
AcDbArc
 50
100.738785
 51
286.620601
  0
ARC
  5
485
100
AcDbEntity
  8
2
100
AcDbCircle
 10
83.341457
 20
56.030666
 30
0.0
 40
1.0
100
AcDbArc
 50
107.438515
 51
286.620601
  0
ARC
  5
486
100
AcDbEntity
  8
2
100
AcDbCircle
 10
83.341457
 20
61.556302
 30
0.0
 40
1.0
100
AcDbArc
 50
107.438515
 51
286.620601
  0
LINE
  5
487
100
AcDbEntity
  8
2
100
AcDbLine
 10
86.944676
 20
56.114332
 30
0.0
 11
93.157719
 21
54.475303
 31
0.0
  0
ARC
  5
488
100
AcDbEntity
  8
2
100
AcDbCircle
 10
92.902641
 20
53.508383
 30
0.0
 40
1.0
100
AcDbArc
 50
287.438515
 51
107.438515
  0
LINE
  5
489
100
AcDbEntity
  8
2
100
AcDbLine
 10
88.556595
 20
51.09503
 30
0.0
 11
93.157719
 21
50.717662
 31
0.0
  0
ARC
  5
48A
100
AcDbEntity
  8
2
100
AcDbCircle
 10
93.187739
 20
49.697199
 30
0.0
 40
1.0
100
AcDbArc
 50
273.731968
 51
85.591963
  0
LINE
  5
48B
100
AcDbEntity
  8
2
100
AcDbLine
 10
86.944676
 20
61.639968
 30
0.0
 11
93.157719
 21
60.00094
 31
0.0
  0
ARC
  5
48C
100
AcDbEntity
  8
2
100
AcDbCircle
 10
92.902641
 20
59.034019
 30
0.0
 40
1.0
100
AcDbArc
 50
281.107766
 51
107.438515
  0
LINE
  5
48D
100
AcDbEntity
  8
2
100
AcDbLine
 10
93.095296
 20
73.807959
 30
0.0
 11
83.641139
 21
71.653536
 31
0.0
  0
LINE
  5
48E
100
AcDbEntity
  8
2
100
AcDbLine
 10
92.602959
 20
75.743265
 30
0.0
 11
83.041775
 21
73.561614
 31
0.0
  0
LINE
  5
48F
100
AcDbEntity
  8
2
100
AcDbLine
 10
83.086379
 20
66.115018
 30
0.0
 11
89.299422
 21
64.47599
 31
0.0
  0
LINE
  5
490
100
AcDbEntity
  8
2
100
AcDbLine
 10
92.602959
 20
71.039331
 30
0.0
 11
83.041775
 21
68.035978
 31
0.0
  0
LINE
  5
491
100
AcDbEntity
  8
2
100
AcDbLine
 10
93.202323
 20
69.131253
 30
0.0
 11
83.641139
 21
66.1279
 31
0.0
  0
ARC
  5
492
100
AcDbEntity
  8
2
100
AcDbCircle
 10
83.341457
 20
72.607575
 30
0.0
 40
1.0
100
AcDbArc
 50
98.020858
 51
286.620601
  0
LINE
  5
493
100
AcDbEntity
  8
2
100
AcDbLine
 10
83.086379
 20
71.640655
 30
0.0
 11
84.264598
 21
71.329835
 31
0.0
  0
ARC
  5
494
100
AcDbEntity
  8
2
100
AcDbCircle
 10
83.341457
 20
67.081939
 30
0.0
 40
1.0
100
AcDbArc
 50
107.438515
 51
286.620601
  0
LINE
  5
495
100
AcDbEntity
  8
2
100
AcDbLine
 10
92.264598
 20
71.287822
 30
0.0
 11
93.157719
 21
71.052213
 31
0.0
  0
LINE
  5
496
100
AcDbEntity
  8
2
100
AcDbLine
 10
86.944676
 20
67.165605
 30
0.0
 11
93.157719
 21
65.526576
 31
0.0
  0
ARC
  5
497
100
AcDbEntity
  8
2
100
AcDbCircle
 10
92.902641
 20
70.085292
 30
0.0
 40
1.0
100
AcDbArc
 50
281.107766
 51
107.438515
  0
ARC
  5
498
100
AcDbEntity
  8
2
100
AcDbCircle
 10
92.902641
 20
64.559656
 30
0.0
 40
1.0
100
AcDbArc
 50
281.107766
 51
107.438515
  0
ARC
  5
499
100
AcDbEntity
  8
2
100
AcDbCircle
 10
92.902641
 20
74.789226
 30
0.0
 40
1.0
100
AcDbArc
 50
281.107766
 51
107.438515
  0
LINE
  5
49A
100
AcDbEntity
  8
2
  6
CENTER
 62
     2
100
AcDbLine
 10
68.040173
 20
54.848664
 30
0.0
 11
108.363167
 21
54.848664
 31
0.0
  0
LINE
  5
49B
100
AcDbEntity
  8
2
  6
CENTER
 62
     2
100
AcDbLine
 10
88.264598
 20
41.164009
 30
0.0
 11
58.905219
 21
41.164009
 31
0.0
  0
LINE
  5
49C
100
AcDbEntity
  8
2
100
AcDbLine
 10
71.264598
 20
36.164009
 30
0.0
 11
71.264598
 21
46.164009
 31
0.0
  0
ARC
  5
49D
100
AcDbEntity
  8
2
100
AcDbCircle
 10
92.264598
 20
56.564093
 30
0.0
 40
1.0
100
AcDbArc
 50
0.0
 51
90.0
  0
ARC
  5
49E
100
AcDbEntity
  8
2
100
AcDbCircle
 10
84.264598
 20
56.564093
 30
0.0
 40
1.0
100
AcDbArc
 50
90.0
 51
147.287273
  0
LINE
  5
49F
100
AcDbEntity
  8
2
100
AcDbLine
 10
84.264598
 20
57.564093
 30
0.0
 11
84.886259
 21
57.564093
 31
0.0
  0
LINE
  5
4A0
100
AcDbEntity
  8
2
100
AcDbLine
 10
93.264598
 20
38.455227
 30
0.0
 11
93.264598
 21
48.700157
 31
0.0
  0
LINE
  5
4A1
100
AcDbEntity
  8
2
100
AcDbLine
 10
83.264598
 20
22.877596
 30
0.0
 11
83.264598
 21
19.848664
 31
0.0
  0
ARC
  5
4A2
100
AcDbEntity
  8
2
100
AcDbCircle
 10
83.364598
 20
58.848664
 30
0.0
 40
1.0
100
AcDbArc
 50
90.0
 51
180.0
  0
ARC
  5
4A3
100
AcDbEntity
  8
2
100
AcDbCircle
 10
93.164598
 20
58.848664
 30
0.0
 40
1.0
100
AcDbArc
 50
0.0
 51
63.950626
  0
LINE
  5
4A4
100
AcDbEntity
  8
2
100
AcDbLine
 10
94.164598
 20
58.848664
 30
0.0
 11
94.164598
 21
23.777596
 31
0.0
  0
LINE
  5
4A5
100
AcDbEntity
  8
2
100
AcDbLine
 10
82.364598
 20
58.848664
 30
0.0
 11
82.364598
 21
23.777596
 31
0.0
  0
LINE
  5
4A6
100
AcDbEntity
  8
2
100
AcDbLine
 10
94.164598
 20
23.777596
 30
0.0
 11
93.264598
 21
22.877596
 31
0.0
  0
LINE
  5
4A7
100
AcDbEntity
  8
2
100
AcDbLine
 10
83.264598
 20
22.877596
 30
0.0
 11
82.364598
 21
23.777596
 31
0.0
  0
LINE
  5
4A8
100
AcDbEntity
  8
2
100
AcDbLine
 10
92.264598
 20
52.259786
 30
0.0
 11
92.264598
 21
50.790913
 31
0.0
  0
ARC
  5
4A9
100
AcDbEntity
  8
2
100
AcDbCircle
 10
88.264598
 20
67.857621
 30
0.0
 40
14.567094
100
AcDbArc
 50
254.062329
 51
272.574998
  0
ARC
  5
4AA
100
AcDbEntity
  8
2
100
AcDbCircle
 10
88.270042
 20
69.918232
 30
0.0
 40
15.364572
100
AcDbArc
 50
258.719715
 51
281.24576
  0
ARC
  5
4AB
100
AcDbEntity
  8
2
100
AcDbCircle
 10
88.264598
 20
44.308051
 30
0.0
 40
10.96096
100
AcDbArc
 50
74.115522
 51
105.884478
  0
LINE
  5
4AC
100
AcDbEntity
  8
2
100
AcDbLine
 10
91.879805
 20
54.235265
 30
0.0
 11
91.264598
 21
54.850472
 31
0.0
  0
LINE
  5
4AD
100
AcDbEntity
  8
2
100
AcDbLine
 10
85.264598
 20
54.850472
 30
0.0
 11
84.264598
 21
53.850472
 31
0.0
  0
LINE
  5
4AE
100
AcDbEntity
  8
2
100
AcDbLine
 10
84.264598
 20
53.850472
 30
0.0
 11
84.264598
 21
51.843181
 31
0.0
  0
ARC
  5
4AF
100
AcDbEntity
  8
2
100
AcDbCircle
 10
92.264598
 20
48.61835
 30
0.0
 40
1.0
100
AcDbArc
 50
0.0
 51
90.0
  0
ARC
  5
4B0
100
AcDbEntity
  8
2
100
AcDbCircle
 10
84.264598
 20
48.61835
 30
0.0
 40
1.0
100
AcDbArc
 50
90.0
 51
180.0
  0
LINE
  5
4B1
100
AcDbEntity
  8
2
100
AcDbLine
 10
84.264598
 20
49.61835
 30
0.0
 11
92.264598
 21
49.61835
 31
0.0
  0
LINE
  5
4B2
100
AcDbEntity
  8
2
100
AcDbLine
 10
92.264598
 20
49.61835
 30
0.0
 11
84.264598
 21
49.61835
 31
0.0
  0
ARC
  5
4B3
100
AcDbEntity
  8
2
100
AcDbCircle
 10
84.264598
 20
48.61835
 30
0.0
 40
1.0
100
AcDbArc
 50
90.0
 51
180.0
  0
ARC
  5
4B4
100
AcDbEntity
  8
2
100
AcDbCircle
 10
92.264598
 20
48.61835
 30
0.0
 40
1.0
100
AcDbArc
 50
0.0
 51
90.0
  0
ARC
  5
4B5
100
AcDbEntity
  8
2
100
AcDbCircle
 10
92.264598
 20
38.455227
 30
0.0
 40
1.0
100
AcDbArc
 50
270.0
 51
360.0
  0
ARC
  5
4B6
100
AcDbEntity
  8
2
100
AcDbCircle
 10
84.264598
 20
38.455227
 30
0.0
 40
1.0
100
AcDbArc
 50
180.0
 51
270.0
  0
LINE
  5
4B7
100
AcDbEntity
  8
2
100
AcDbLine
 10
92.264598
 20
37.455227
 30
0.0
 11
84.264598
 21
37.455227
 31
0.0
  0
LINE
  5
4B8
100
AcDbEntity
  8
2
100
AcDbLine
 10
84.264598
 20
37.455227
 30
0.0
 11
92.264598
 21
37.455227
 31
0.0
  0
ARC
  5
4B9
100
AcDbEntity
  8
2
100
AcDbCircle
 10
84.264598
 20
38.455227
 30
0.0
 40
1.0
100
AcDbArc
 50
180.0
 51
270.0
  0
ARC
  5
4BA
100
AcDbEntity
  8
2
100
AcDbCircle
 10
92.264598
 20
38.455227
 30
0.0
 40
1.0
100
AcDbArc
 50
270.0
 51
360.0
  0
ARC
  5
4BB
100
AcDbEntity
  8
2
100
AcDbCircle
 10
92.264598
 20
19.848664
 30
0.0
 40
1.0
100
AcDbArc
 50
270.0
 51
360.0
  0
ARC
  5
4BC
100
AcDbEntity
  8
2
100
AcDbCircle
 10
84.264598
 20
19.848664
 30
0.0
 40
1.0
100
AcDbArc
 50
180.0
 51
270.0
  0
LINE
  5
4BD
100
AcDbEntity
  8
2
100
AcDbLine
 10
84.264598
 20
18.848664
 30
0.0
 11
92.264598
 21
18.848664
 31
0.0
  0
LINE
  5
4BE
100
AcDbEntity
  8
2
100
AcDbLine
 10
92.264598
 20
18.848664
 30
0.0
 11
84.264598
 21
18.848664
 31
0.0
  0
ARC
  5
4BF
100
AcDbEntity
  8
2
100
AcDbCircle
 10
84.264598
 20
19.848664
 30
0.0
 40
1.0
100
AcDbArc
 50
180.0
 51
270.0
  0
ARC
  5
4C0
100
AcDbEntity
  8
2
100
AcDbCircle
 10
92.264598
 20
19.848664
 30
0.0
 40
1.0
100
AcDbArc
 50
270.0
 51
360.0
  0
LINE
  5
4C1
100
AcDbEntity
  8
2
100
AcDbLine
 10
93.264598
 20
19.848664
 30
0.0
 11
93.264598
 21
22.877596
 31
0.0
  0
LINE
  5
4C2
100
AcDbEntity
  8
2
100
AcDbLine
 10
83.264598
 20
55.033624
 30
0.0
 11
83.264598
 21
51.529062
 31
0.0
  0
LINE
  5
4C3
100
AcDbEntity
  8
2
100
AcDbLine
 10
85.894208
 20
59.848664
 30
0.0
 11
83.364598
 21
59.848664
 31
0.0
  0
LINE
  5
4C4
100
AcDbEntity
  8
2
100
AcDbLine
 10
91.559996
 20
57.564093
 30
0.0
 11
92.264598
 21
57.564093
 31
0.0
  0
LINE
  5
4C5
100
AcDbEntity
  8
2
100
AcDbLine
 10
84.264598
 20
49.746831
 30
0.0
 11
84.264598
 21
49.61835
 31
0.0
  0
LINE
  5
4C6
100
AcDbEntity
  8
2
100
AcDbLine
 10
83.264598
 20
49.507988
 30
0.0
 11
83.264598
 21
38.455227
 31
0.0
  0
LINE
  5
4C7
100
AcDbEntity
  8
2
100
AcDbLine
 10
93.264598
 20
50.694241
 30
0.0
 11
93.264598
 21
52.576188
 31
0.0
  0
LINE
  5
4C8
100
AcDbEntity
  8
2
100
AcDbLine
 10
93.264598
 20
54.440578
 30
0.0
 11
93.264598
 21
56.564093
 31
0.0
  0
LINE
  5
4C9
100
AcDbEntity
  8
2
100
AcDbLine
 10
163.264598
 20
25.848664
 30
0.0
 11
163.264598
 21
23.848664
 31
0.0
  0
LINE
  5
4CA
100
AcDbEntity
  8
2
100
AcDbLine
 10
148.128447
 20
25.348664
 30
0.0
 11
148.128447
 21
24.348664
 31
0.0
  0
LINE
  5
4CB
100
AcDbEntity
  8
2
100
AcDbLine
 10
146.532045
 20
25.348664
 30
0.0
 11
146.532045
 21
24.348664
 31
0.0
  0
LINE
  5
4CC
100
AcDbEntity
  8
2
100
AcDbLine
 10
143.179273
 20
25.348664
 30
0.0
 11
143.179273
 21
24.348664
 31
0.0
  0
LINE
  5
4CD
100
AcDbEntity
  8
2
100
AcDbLine
 10
138.173139
 20
25.348664
 30
0.0
 11
138.173139
 21
24.348664
 31
0.0
  0
LINE
  5
4CE
100
AcDbEntity
  8
2
100
AcDbLine
 10
131.665751
 20
25.348664
 30
0.0
 11
131.665751
 21
24.348664
 31
0.0
  0
LINE
  5
4CF
100
AcDbEntity
  8
2
100
AcDbLine
 10
123.854834
 20
25.348664
 30
0.0
 11
123.854834
 21
24.348664
 31
0.0
  0
LINE
  5
4D0
100
AcDbEntity
  8
2
100
AcDbLine
 10
114.977718
 20
25.348664
 30
0.0
 11
114.977718
 21
24.348664
 31
0.0
  0
LINE
  5
4D1
100
AcDbEntity
  8
2
100
AcDbLine
 10
38.264598
 20
25.848664
 30
0.0
 11
38.264598
 21
23.848664
 31
0.0
  0
LINE
  5
4D2
100
AcDbEntity
  8
2
100
AcDbLine
 10
145.455966
 20
25.348664
 30
0.0
 11
145.455966
 21
24.348664
 31
0.0
  0
LINE
  5
4D3
100
AcDbEntity
  8
2
100
AcDbLine
 10
141.628521
 20
25.348664
 30
0.0
 11
141.628521
 21
24.348664
 31
0.0
  0
LINE
  5
4D4
100
AcDbEntity
  8
2
100
AcDbLine
 10
136.180082
 20
25.348664
 30
0.0
 11
136.180082
 21
24.348664
 31
0.0
  0
LINE
  5
4D5
100
AcDbEntity
  8
2
100
AcDbLine
 10
129.276199
 20
25.348664
 30
0.0
 11
129.276199
 21
24.348664
 31
0.0
  0
LINE
  5
4D6
100
AcDbEntity
  8
2
100
AcDbLine
 10
121.12664
 20
25.348664
 30
0.0
 11
121.12664
 21
24.348664
 31
0.0
  0
LINE
  5
4D7
100
AcDbEntity
  8
2
100
AcDbLine
 10
111.979028
 20
25.348664
 30
0.0
 11
111.979028
 21
24.348664
 31
0.0
  0
LINE
  5
4D8
100
AcDbEntity
  8
2
100
AcDbLine
 10
105.318212
 20
25.348664
 30
0.0
 11
105.318212
 21
24.348664
 31
0.0
  0
LINE
  5
4D9
100
AcDbEntity
  8
2
100
AcDbLine
 10
102.111307
 20
25.348664
 30
0.0
 11
102.111307
 21
24.348664
 31
0.0
  0
ARC
  5
4DA
100
AcDbEntity
  8
2
100
AcDbCircle
 10
147.628447
 20
25.348664
 30
0.0
 40
0.5
100
AcDbArc
 50
0.0
 51
90.0
  0
ARC
  5
4DB
100
AcDbEntity
  8
2
100
AcDbCircle
 10
147.628447
 20
24.348664
 30
0.0
 40
0.5
100
AcDbArc
 50
270.0
 51
360.0
  0
ARC
  5
4DC
100
AcDbEntity
  8
2
100
AcDbCircle
 10
146.032045
 20
25.348664
 30
0.0
 40
0.5
100
AcDbArc
 50
0.0
 51
90.0
  0
ARC
  5
4DD
100
AcDbEntity
  8
2
100
AcDbCircle
 10
146.032045
 20
24.348664
 30
0.0
 40
0.5
100
AcDbArc
 50
270.0
 51
360.0
  0
ARC
  5
4DE
100
AcDbEntity
  8
2
100
AcDbCircle
 10
144.955966
 20
25.348664
 30
0.0
 40
0.5
100
AcDbArc
 50
0.0
 51
90.0
  0
ARC
  5
4DF
100
AcDbEntity
  8
2
100
AcDbCircle
 10
144.955966
 20
24.348664
 30
0.0
 40
0.5
100
AcDbArc
 50
270.0
 51
360.0
  0
ARC
  5
4E0
100
AcDbEntity
  8
2
100
AcDbCircle
 10
142.679273
 20
24.348664
 30
0.0
 40
0.5
100
AcDbArc
 50
270.0
 51
360.0
  0
ARC
  5
4E1
100
AcDbEntity
  8
2
100
AcDbCircle
 10
142.679273
 20
25.348664
 30
0.0
 40
0.5
100
AcDbArc
 50
0.0
 51
90.0
  0
ARC
  5
4E2
100
AcDbEntity
  8
2
100
AcDbCircle
 10
141.128521
 20
25.348664
 30
0.0
 40
0.5
100
AcDbArc
 50
0.0
 51
90.0
  0
ARC
  5
4E3
100
AcDbEntity
  8
2
100
AcDbCircle
 10
141.128521
 20
24.348664
 30
0.0
 40
0.5
100
AcDbArc
 50
270.0
 51
360.0
  0
ARC
  5
4E4
100
AcDbEntity
  8
2
100
AcDbCircle
 10
137.673139
 20
25.348664
 30
0.0
 40
0.5
100
AcDbArc
 50
0.0
 51
90.0
  0
ARC
  5
4E5
100
AcDbEntity
  8
2
100
AcDbCircle
 10
137.673139
 20
24.348664
 30
0.0
 40
0.5
100
AcDbArc
 50
270.0
 51
360.0
  0
ARC
  5
4E6
100
AcDbEntity
  8
2
100
AcDbCircle
 10
135.680082
 20
25.348664
 30
0.0
 40
0.5
100
AcDbArc
 50
0.0
 51
90.0
  0
ARC
  5
4E7
100
AcDbEntity
  8
2
100
AcDbCircle
 10
135.680082
 20
24.348664
 30
0.0
 40
0.5
100
AcDbArc
 50
270.0
 51
360.0
  0
ARC
  5
4E8
100
AcDbEntity
  8
2
100
AcDbCircle
 10
131.165751
 20
25.348664
 30
0.0
 40
0.5
100
AcDbArc
 50
0.0
 51
90.0
  0
ARC
  5
4E9
100
AcDbEntity
  8
2
100
AcDbCircle
 10
131.165751
 20
24.348664
 30
0.0
 40
0.5
100
AcDbArc
 50
270.0
 51
360.0
  0
ARC
  5
4EA
100
AcDbEntity
  8
2
100
AcDbCircle
 10
128.776199
 20
25.348664
 30
0.0
 40
0.5
100
AcDbArc
 50
0.0
 51
90.0
  0
ARC
  5
4EB
100
AcDbEntity
  8
2
100
AcDbCircle
 10
128.776199
 20
24.348664
 30
0.0
 40
0.5
100
AcDbArc
 50
270.0
 51
360.0
  0
ARC
  5
4EC
100
AcDbEntity
  8
2
100
AcDbCircle
 10
123.354834
 20
25.348664
 30
0.0
 40
0.5
100
AcDbArc
 50
0.0
 51
90.0
  0
ARC
  5
4ED
100
AcDbEntity
  8
2
100
AcDbCircle
 10
123.354834
 20
24.348664
 30
0.0
 40
0.5
100
AcDbArc
 50
270.0
 51
360.0
  0
ARC
  5
4EE
100
AcDbEntity
  8
2
100
AcDbCircle
 10
120.62664
 20
24.348664
 30
0.0
 40
0.5
100
AcDbArc
 50
270.0
 51
360.0
  0
ARC
  5
4EF
100
AcDbEntity
  8
2
100
AcDbCircle
 10
114.477718
 20
25.348664
 30
0.0
 40
0.5
100
AcDbArc
 50
0.0
 51
90.0
  0
ARC
  5
4F0
100
AcDbEntity
  8
2
100
AcDbCircle
 10
114.477718
 20
24.348664
 30
0.0
 40
0.5
100
AcDbArc
 50
270.0
 51
360.0
  0
ARC
  5
4F1
100
AcDbEntity
  8
2
100
AcDbCircle
 10
111.479028
 20
24.348664
 30
0.0
 40
0.5
100
AcDbArc
 50
270.0
 51
360.0
  0
ARC
  5
4F2
100
AcDbEntity
  8
2
100
AcDbCircle
 10
104.818212
 20
24.348664
 30
0.0
 40
0.5
100
AcDbArc
 50
270.0
 51
360.0
  0
ARC
  5
4F3
100
AcDbEntity
  8
2
100
AcDbCircle
 10
104.818212
 20
25.348664
 30
0.0
 40
0.5
100
AcDbArc
 50
0.0
 51
90.0
  0
ARC
  5
4F4
100
AcDbEntity
  8
2
100
AcDbCircle
 10
101.611307
 20
25.348664
 30
0.0
 40
0.5
100
AcDbArc
 50
0.0
 51
90.0
  0
ARC
  5
4F5
100
AcDbEntity
  8
2
100
AcDbCircle
 10
101.611307
 20
24.348664
 30
0.0
 40
0.5
100
AcDbArc
 50
270.0
 51
360.0
  0
LINE
  5
4F6
100
AcDbEntity
  8
2
100
AcDbLine
 10
81.264598
 20
25.348664
 30
0.0
 11
81.264598
 21
24.348664
 31
0.0
  0
ARC
  5
4F7
100
AcDbEntity
  8
2
100
AcDbCircle
 10
80.764598
 20
25.348664
 30
0.0
 40
0.5
100
AcDbArc
 50
0.0
 51
90.0
  0
LINE
  5
4F8
100
AcDbEntity
  8
2
100
AcDbLine
 10
163.264598
 20
25.848664
 30
0.0
 11
94.164598
 21
25.848664
 31
0.0
  0
ARC
  5
4F9
100
AcDbEntity
  8
2
100
AcDbCircle
 10
80.764598
 20
24.348664
 30
0.0
 40
0.5
100
AcDbArc
 50
270.0
 51
360.0
  0
LINE
  5
4FA
100
AcDbEntity
  8
2
100
AcDbLine
 10
163.264598
 20
23.848664
 30
0.0
 11
94.164598
 21
23.848664
 31
0.0
  0
LINE
  5
4FB
100
AcDbEntity
  8
2
100
AcDbLine
 10
82.364598
 20
25.848664
 30
0.0
 11
38.264598
 21
25.848664
 31
0.0
  0
ARC
  5
4FC
100
AcDbEntity
  8
2
100
AcDbCircle
 10
94.846177
 20
24.348664
 30
0.0
 40
0.5
100
AcDbArc
 50
270.0
 51
360.0
  0
ARC
  5
4FD
100
AcDbEntity
  8
2
100
AcDbCircle
 10
94.846177
 20
25.348664
 30
0.0
 40
0.5
100
AcDbArc
 50
0.0
 51
90.0
  0
LINE
  5
4FE
100
AcDbEntity
  8
2
100
AcDbLine
 10
95.346177
 20
25.348664
 30
0.0
 11
95.346177
 21
24.348664
 31
0.0
  0
LINE
  5
4FF
100
AcDbEntity
  8
2
100
AcDbLine
 10
82.364598
 20
23.848664
 30
0.0
 11
38.264598
 21
23.848664
 31
0.0
  0
LINE
  5
500
100
AcDbEntity
  8
2
100
AcDbLine
 10
62.264598
 20
41.164009
 30
0.0
 11
62.264598
 21
43.623009
 31
0.0
  0
LINE
  5
501
100
AcDbEntity
  8
2
100
AcDbLine
 10
62.264598
 20
43.623009
 30
0.0
 11
62.805598
 21
44.164009
 31
0.0
  0
LINE
  5
502
100
AcDbEntity
  8
2
100
AcDbLine
 10
62.805598
 20
44.164009
 30
0.0
 11
66.283526
 21
44.164009
 31
0.0
  0
LINE
  5
503
100
AcDbEntity
  8
2
100
AcDbLine
 10
62.805598
 20
44.164009
 30
0.0
 11
62.805598
 21
41.164009
 31
0.0
  0
LINE
  5
504
100
AcDbEntity
  8
2
100
AcDbLine
 10
62.264598
 20
41.164009
 30
0.0
 11
62.264598
 21
38.705009
 31
0.0
  0
LINE
  5
505
100
AcDbEntity
  8
2
100
AcDbLine
 10
62.264598
 20
38.705009
 30
0.0
 11
62.805598
 21
38.164009
 31
0.0
  0
LINE
  5
506
100
AcDbEntity
  8
2
100
AcDbLine
 10
62.805598
 20
38.164009
 30
0.0
 11
66.283526
 21
38.164009
 31
0.0
  0
LINE
  5
507
100
AcDbEntity
  8
2
100
AcDbLine
 10
62.805598
 20
38.164009
 30
0.0
 11
62.805598
 21
41.164009
 31
0.0
  0
LINE
  5
508
100
AcDbEntity
  8
2
100
AcDbLine
 10
71.264598
 20
41.164009
 30
0.0
 11
71.264598
 21
36.164009
 31
0.0
  0
LINE
  5
509
100
AcDbEntity
  8
2
100
AcDbLine
 10
71.264598
 20
36.164009
 30
0.0
 11
66.755345
 21
36.164009
 31
0.0
  0
LINE
  5
50A
100
AcDbEntity
  8
2
100
AcDbLine
 10
66.264598
 20
38.664009
 30
0.0
 11
66.264598
 21
41.164009
 31
0.0
  0
LINE
  5
50B
100
AcDbEntity
  8
2
100
AcDbLine
 10
71.264598
 20
41.164009
 30
0.0
 11
66.755345
 21
41.164009
 31
0.0
  0
ARC
  5
50C
100
AcDbEntity
  8
2
100
AcDbCircle
 10
72.877805
 20
38.664009
 30
0.0
 40
6.613208
100
AcDbArc
 50
157.788205
 51
202.211795
  0
LINE
  5
50D
100
AcDbEntity
  8
2
100
AcDbLine
 10
71.264598
 20
41.164009
 30
0.0
 11
71.264598
 21
46.164009
 31
0.0
  0
LINE
  5
50E
100
AcDbEntity
  8
2
100
AcDbLine
 10
71.264598
 20
46.164009
 30
0.0
 11
66.755345
 21
46.164009
 31
0.0
  0
LINE
  5
50F
100
AcDbEntity
  8
2
100
AcDbLine
 10
66.264598
 20
43.664009
 30
0.0
 11
66.264598
 21
41.164009
 31
0.0
  0
LINE
  5
510
100
AcDbEntity
  8
2
100
AcDbLine
 10
71.264598
 20
41.164009
 30
0.0
 11
66.755345
 21
41.164009
 31
0.0
  0
ARC
  5
511
100
AcDbEntity
  8
2
100
AcDbCircle
 10
72.877805
 20
43.664009
 30
0.0
 40
6.613208
100
AcDbArc
 50
157.788205
 51
202.211795
  0
LINE
  5
512
100
AcDbEntity
  8
2
 62
     2
100
AcDbLine
 10
62.264598
 20
38.705009
 30
0.0
 11
66.264598
 21
38.705009
 31
0.0
  0
LINE
  5
513
100
AcDbEntity
  8
2
 62
     2
100
AcDbLine
 10
62.264598
 20
43.623009
 30
0.0
 11
66.264598
 21
43.623009
 31
0.0
  0
LINE
  5
514
100
AcDbEntity
  8
2
100
AcDbLine
 10
113.013335
 20
25.848664
 30
0.0
 11
106.513335
 21
25.848664
 31
0.0
  0
LINE
  5
515
100
AcDbEntity
  8
2
100
AcDbLine
 10
113.013335
 20
25.248664
 30
0.0
 11
113.013335
 21
30.026976
 31
0.0
  0
LINE
  5
516
100
AcDbEntity
  8
2
100
AcDbLine
 10
113.013335
 20
25.848664
 30
0.0
 11
119.513335
 21
25.848664
 31
0.0
  0
LINE
  5
517
100
AcDbEntity
  8
2
100
AcDbLine
 10
113.013335
 20
25.248664
 30
0.0
 11
113.013335
 21
30.026976
 31
0.0
  0
LINE
  5
518
100
AcDbEntity
  8
2
100
AcDbLine
 10
57.01586
 20
25.848664
 30
0.0
 11
57.01586
 21
31.348664
 31
0.0
  0
LINE
  5
519
100
AcDbEntity
  8
2
100
AcDbLine
 10
57.01586
 20
31.348664
 30
0.0
 11
70.01586
 21
31.348664
 31
0.0
  0
ARC
  5
51A
100
AcDbEntity
  8
2
100
AcDbCircle
 10
60.26586
 20
23.669904
 30
0.0
 40
7.678758
100
AcDbArc
 50
64.96034
 51
115.03966
  0
LINE
  5
51B
100
AcDbEntity
  8
2
100
AcDbLine
 10
63.51586
 20
25.848664
 30
0.0
 11
63.51586
 21
30.626976
 31
0.0
  0
ARC
  5
51C
100
AcDbEntity
  8
2
100
AcDbCircle
 10
66.76586
 20
23.669904
 30
0.0
 40
7.678758
100
AcDbArc
 50
64.96034
 51
115.03966
  0
LINE
  5
51D
100
AcDbEntity
  8
2
100
AcDbLine
 10
70.01586
 20
25.848664
 30
0.0
 11
70.01586
 21
31.348664
 31
0.0
  0
LINE
  5
51E
100
AcDbEntity
  8
2
100
AcDbLine
 10
119.513334
 20
25.848664
 30
0.0
 11
119.513334
 21
31.348664
 31
0.0
  0
LINE
  5
51F
100
AcDbEntity
  8
2
100
AcDbLine
 10
119.513334
 20
31.348664
 30
0.0
 11
106.513334
 21
31.348664
 31
0.0
  0
ARC
  5
520
100
AcDbEntity
  8
2
100
AcDbCircle
 10
116.263334
 20
23.669904
 30
0.0
 40
7.678758
100
AcDbArc
 50
64.96034
 51
115.03966
  0
LINE
  5
521
100
AcDbEntity
  8
2
100
AcDbLine
 10
106.513334
 20
25.848664
 30
0.0
 11
106.513334
 21
31.348664
 31
0.0
  0
LINE
  5
522
100
AcDbEntity
  8
2
100
AcDbLine
 10
113.013334
 20
25.848664
 30
0.0
 11
113.013334
 21
30.626976
 31
0.0
  0
ARC
  5
523
100
AcDbEntity
  8
2
100
AcDbCircle
 10
109.763334
 20
23.669904
 30
0.0
 40
7.678758
100
AcDbArc
 50
64.96034
 51
115.03966
  0
ARC
  5
524
100
AcDbEntity
  8
2
100
AcDbCircle
 10
111.479028
 20
25.348664
 30
0.0
 40
0.5
100
AcDbArc
 50
0.0
 51
90.0
  0
ARC
  5
525
100
AcDbEntity
  8
2
100
AcDbCircle
 10
120.62664
 20
25.348664
 30
0.0
 40
0.5
100
AcDbArc
 50
0.0
 51
90.0
  0
LINE
  5
526
100
AcDbEntity
  8
3
100
AcDbLine
 10
-212.172494
 20
23.848664
 30
0.0
 11
-282.172494
 21
23.848664
 31
0.0
  0
LINE
  5
527
100
AcDbEntity
  8
3
100
AcDbLine
 10
-282.172494
 20
-1.151336
 30
0.0
 11
-282.172494
 21
23.848664
 31
0.0
  0
LINE
  5
528
100
AcDbEntity
  8
3
100
AcDbLine
 10
-212.172494
 20
-1.151336
 30
0.0
 11
-212.172494
 21
23.848664
 31
0.0
  0
LINE
  5
529
100
AcDbEntity
  8
3
100
AcDbLine
 10
-262.922494
 20
-1.151336
 30
0.0
 11
-262.922494
 21
13.848664
 31
0.0
  0
LINE
  5
52A
100
AcDbEntity
  8
3
100
AcDbLine
 10
-231.422494
 20
-1.151336
 30
0.0
 11
-231.422494
 21
13.848664
 31
0.0
  0
LINE
  5
52B
100
AcDbEntity
  8
3
100
AcDbLine
 10
-225.422494
 20
15.848664
 30
0.0
 11
-268.922494
 21
15.848664
 31
0.0
  0
ARC
  5
52C
100
AcDbEntity
  8
3
100
AcDbCircle
 10
-233.422494
 20
13.848664
 30
0.0
 40
2.0
100
AcDbArc
 50
0.0
 51
90.0
  0
ARC
  5
52D
100
AcDbEntity
  8
3
100
AcDbCircle
 10
-260.922494
 20
13.848664
 30
0.0
 40
2.0
100
AcDbArc
 50
90.0
 51
180.0
  0
ARC
  5
52E
100
AcDbEntity
  8
3
100
AcDbCircle
 10
-225.422494
 20
13.848664
 30
0.0
 40
2.0
100
AcDbArc
 50
0.0
 51
90.0
  0
ARC
  5
52F
100
AcDbEntity
  8
3
100
AcDbCircle
 10
-268.922494
 20
13.848664
 30
0.0
 40
2.0
100
AcDbArc
 50
90.0
 51
180.0
  0
LINE
  5
530
100
AcDbEntity
  8
3
100
AcDbLine
 10
-234.925044
 20
23.848664
 30
0.0
 11
-234.925044
 21
15.848664
 31
0.0
  0
LINE
  5
531
100
AcDbEntity
  8
3
100
AcDbLine
 10
-259.419942
 20
23.848664
 30
0.0
 11
-259.419942
 21
15.848664
 31
0.0
  0
LINE
  5
532
100
AcDbEntity
  8
3
100
AcDbLine
 10
53.264598
 20
23.848664
 30
0.0
 11
53.264598
 21
-1.151336
 31
0.0
  0
LINE
  5
533
100
AcDbEntity
  8
3
100
AcDbLine
 10
123.264598
 20
23.848664
 30
0.0
 11
123.264598
 21
-1.151336
 31
0.0
  0
LINE
  5
534
100
AcDbEntity
  8
3
100
AcDbLine
 10
72.514598
 20
8.848664
 30
0.0
 11
72.514598
 21
-1.151336
 31
0.0
  0
LINE
  5
535
100
AcDbEntity
  8
3
100
AcDbLine
 10
104.014598
 20
8.848664
 30
0.0
 11
104.014598
 21
-1.151336
 31
0.0
  0
ARC
  5
536
100
AcDbEntity
  8
3
100
AcDbCircle
 10
102.014598
 20
8.848664
 30
0.0
 40
2.0
100
AcDbArc
 50
0.0
 51
90.0
  0
ARC
  5
537
100
AcDbEntity
  8
3
100
AcDbCircle
 10
74.514598
 20
8.848664
 30
0.0
 40
2.0
100
AcDbArc
 50
90.0
 51
180.0
  0
ARC
  5
538
100
AcDbEntity
  8
3
100
AcDbCircle
 10
110.014598
 20
8.848664
 30
0.0
 40
2.0
100
AcDbArc
 50
0.0
 51
90.0
  0
ARC
  5
539
100
AcDbEntity
  8
3
100
AcDbCircle
 10
66.514598
 20
8.848664
 30
0.0
 40
2.0
100
AcDbArc
 50
90.0
 51
180.0
  0
LINE
  5
53A
100
AcDbEntity
  8
3
100
AcDbLine
 10
128.264598
 20
23.848664
 30
0.0
 11
128.264598
 21
15.848664
 31
0.0
  0
LINE
  5
53B
100
AcDbEntity
  8
3
100
AcDbLine
 10
48.264598
 20
23.848664
 30
0.0
 11
48.264598
 21
15.848664
 31
0.0
  0
LINE
  5
53C
100
AcDbEntity
  8
3
100
AcDbLine
 10
48.264598
 20
15.848664
 30
0.0
 11
53.264598
 21
15.848664
 31
0.0
  0
LINE
  5
53D
100
AcDbEntity
  8
3
100
AcDbLine
 10
123.264598
 20
15.848664
 30
0.0
 11
128.264598
 21
15.848664
 31
0.0
  0
LINE
  5
53E
100
AcDbEntity
  8
3
100
AcDbLine
 10
48.264598
 20
23.848664
 30
0.0
 11
74.83753
 21
23.848664
 31
0.0
  0
LINE
  5
53F
100
AcDbEntity
  8
3
100
AcDbLine
 10
101.691666
 20
23.848664
 30
0.0
 11
128.264598
 21
23.848664
 31
0.0
  0
LINE
  5
540
100
AcDbEntity
  8
3
100
AcDbLine
 10
66.514598
 20
10.848664
 30
0.0
 11
110.014598
 21
10.848664
 31
0.0
  0
DIMENSION
  5
541
100
AcDbEntity
  8
5
100
AcDbDimension
  2
*D0
 10
-321.153503
 20
249.39096
 30
0.0
 11
-326.773503
 21
213.87096
 31
0.0
  1
75
100
AcDbAlignedDimension
 13
-311.195539
 23
174.39096
 33
0.0
 14
-262.172494
 24
249.39096
 34
0.0
 50
90.0
100
AcDbRotatedDimension
  0
DIMENSION
  5
542
100
AcDbEntity
  8
5
100
AcDbDimension
  2
*D1
 10
-321.153503
 20
174.39096
 30
0.0
 11
-326.773503
 21
151.37096
 31
0.0
  1
50
100
AcDbAlignedDimension
 13
-247.172494
 23
124.39096
 33
0.0
 14
-321.153503
 24
174.39096
 34
0.0
 50
90.0
100
AcDbRotatedDimension
  0
TEXT
  5
543
100
AcDbEntity
  8
5
100
AcDbText
 10
-154.182809
 20
100.386307
 30
0.0
 40
6.6
  1
200
 41
1.4
 72
     5
 11
-142.170809
 21
100.386307
 31
0.0
100
AcDbText
  0
DIMENSION
  5
544
100
AcDbEntity
  8
5
100
AcDbDimension
  2
*D2
 10
-47.333124
 20
99.386307
 30
0.0
 11
-147.252809
 21
101.386307
 31
0.0
100
AcDbAlignedDimension
 13
-247.172494
 23
72.421382
 33
0.0
 14
-47.333124
 24
82.776892
 34
0.0
100
AcDbRotatedDimension
  0
DIMENSION
  5
545
100
AcDbEntity
  8
5
100
AcDbDimension
  2
*D3
 10
16.70335
 20
23.848664
 30
0.0
 11
11.08335
 21
13.328664
 31
0.0
  1
25
100
AcDbAlignedDimension
 13
53.264598
 23
-1.151336
 33
0.0
 14
16.70335
 24
23.848664
 34
0.0
 50
90.0
100
AcDbRotatedDimension
  0
DIMENSION
  5
546
100
AcDbEntity
  8
5
100
AcDbDimension
  2
*D4
 10
16.70335
 20
-1.151336
 30
0.0
 11
8.77335
 21
-70.481336
 31
0.0
  1
138
100
AcDbAlignedDimension
 13
53.645656
 23
-139.151336
 33
0.0
 14
16.70335
 24
-1.151336
 34
0.0
 50
90.0
100
AcDbRotatedDimension
  0
DIMENSION
  5
547
100
AcDbEntity
  8
5
100
AcDbDimension
  2
*D5
 10
16.70335
 20
-139.151336
 30
0.0
 11
11.08335
 21
-179.671336
 31
0.0
  1
85
100
AcDbAlignedDimension
 13
81.264598
 23
-224.151336
 33
0.0
 14
16.70335
 24
-139.151336
 34
0.0
 50
90.0
100
AcDbRotatedDimension
  0
DIMENSION
  5
548
100
AcDbEntity
  8
5
100
AcDbDimension
  2
*D6
 10
112.264598
 20
-259.325684
 30
0.0
 11
89.264598
 21
-255.025684
 31
0.0
  1
46
100
AcDbAlignedDimension
 13
66.264598
 23
-197.651336
 33
0.0
 14
112.264598
 24
-197.651336
 34
0.0
100
AcDbRotatedDimension
  0
DIMENSION
  5
549
100
AcDbEntity
  8
5
100
AcDbDimension
  2
*D7
 10
88.264598
 20
-239.442017
 30
0.0
 11
53.644598
 21
-235.142017
 31
0.0
  1
22
100
AcDbAlignedDimension
 13
66.264598
 23
-197.651336
 33
0.0
 14
88.264598
 24
-237.97281
 34
0.0
100
AcDbRotatedDimension
  0
TEXT
  5
54A
100
AcDbEntity
  8
5
100
AcDbText
 10
15.70335
 20
52.317351
 30
0.0
 40
6.6
  1
66
 50
90.0
 41
1.4
 72
     5
 11
15.70335
 21
59.709351
 31
0.0
100
AcDbText
  0
DIMENSION
  5
54B
100
AcDbEntity
  8
5
100
AcDbDimension
  2
*D8
 10
16.70335
 20
90.026038
 30
0.0
 11
14.20335
 21
56.937351
 31
0.0
100
AcDbAlignedDimension
 13
38.264598
 23
23.848664
 33
0.0
 14
88.264598
 24
90.026038
 34
0.0
 50
90.0
100
AcDbRotatedDimension
  0
LINE
  5
54C
100
AcDbEntity
  8
18
100
AcDbLine
 10
132.35481
 20
-139.151336
 30
0.0
 11
192.35481
 21
-139.151336
 31
0.0
  0
LINE
  5
54D
100
AcDbEntity
  8
18
100
AcDbLine
 10
132.35481
 20
-139.151336
 30
0.0
 11
152.35481
 21
-133.792354
 31
0.0
  0
LINE
  5
54E
100
AcDbEntity
  8
18
100
AcDbLine
 10
152.35481
 20
-133.792354
 30
0.0
 11
152.35481
 21
-144.51032
 31
0.0
  0
LINE
  5
54F
100
AcDbEntity
  8
18
100
AcDbLine
 10
132.35481
 20
-139.151336
 30
0.0
 11
152.35481
 21
-144.51032
 31
0.0
  0
LINE
  5
550
100
AcDbEntity
  8
18
100
AcDbLine
 10
137.347336
 20
230.185196
 30
0.0
 11
137.347336
 21
160.185196
 31
0.0
  0
LINE
  5
551
100
AcDbEntity
  8
18
100
AcDbLine
 10
361.347336
 20
180.185196
 30
0.0
 11
137.347336
 21
180.185196
 31
0.0
  0
LINE
  5
552
100
AcDbEntity
  8
18
100
AcDbLine
 10
361.347336
 20
170.185196
 30
0.0
 11
137.347336
 21
170.185196
 31
0.0
  0
LINE
  5
553
100
AcDbEntity
  8
18
100
AcDbLine
 10
361.347336
 20
160.185196
 30
0.0
 11
137.347336
 21
160.185196
 31
0.0
  0
LINE
  5
554
100
AcDbEntity
  8
18
100
AcDbLine
 10
193.347336
 20
230.185196
 30
0.0
 11
193.347336
 21
170.185196
 31
0.0
  0
LINE
  5
555
100
AcDbEntity
  8
18
100
AcDbLine
 10
249.347336
 20
230.185196
 30
0.0
 11
249.347336
 21
170.185196
 31
0.0
  0
LINE
  5
556
100
AcDbEntity
  8
18
100
AcDbLine
 10
305.347336
 20
230.185196
 30
0.0
 11
305.347336
 21
170.185196
 31
0.0
  0
LINE
  5
557
100
AcDbEntity
  8
18
100
AcDbLine
 10
361.347336
 20
230.185196
 30
0.0
 11
361.347336
 21
160.185196
 31
0.0
  0
LINE
  5
558
100
AcDbEntity
  8
18
100
AcDbLine
 10
137.347336
 20
230.185196
 30
0.0
 11
361.347336
 21
230.185196
 31
0.0
  0
LINE
  5
559
100
AcDbEntity
  8
18
100
AcDbLine
 10
154.372746
 20
201.695792
 30
0.0
 11
154.372746
 21
196.850792
 31
0.0
  0
LINE
  5
55A
100
AcDbEntity
  8
18
100
AcDbLine
 10
154.372746
 20
201.695792
 30
0.0
 11
158.955668
 21
201.695792
 31
0.0
  0
LINE
  5
55B
100
AcDbEntity
  8
18
100
AcDbLine
 10
169.169824
 20
201.695792
 30
0.0
 11
173.752746
 21
201.695792
 31
0.0
  0
LINE
  5
55C
100
AcDbEntity
  8
18
100
AcDbLine
 10
154.372746
 20
196.850792
 30
0.0
 11
158.955668
 21
196.850792
 31
0.0
  0
LINE
  5
55D
100
AcDbEntity
  8
18
100
AcDbLine
 10
169.169824
 20
196.850792
 30
0.0
 11
173.752746
 21
196.850792
 31
0.0
  0
LINE
  5
55E
100
AcDbEntity
  8
18
100
AcDbLine
 10
162.368728
 20
200.080792
 30
0.0
 11
183.837894
 21
200.080792
 31
0.0
  0
LINE
  5
55F
100
AcDbEntity
  8
18
100
AcDbLine
 10
162.368728
 20
198.465792
 30
0.0
 11
183.837894
 21
198.465792
 31
0.0
  0
LINE
  5
560
100
AcDbEntity
  8
18
100
AcDbLine
 10
159.961688
 20
199.589774
 30
0.0
 11
162.368728
 21
200.080792
 31
0.0
  0
LINE
  5
561
100
AcDbEntity
  8
18
100
AcDbLine
 10
159.961688
 20
198.95681
 30
0.0
 11
162.368728
 21
198.465792
 31
0.0
  0
ARC
  5
562
100
AcDbEntity
  8
18
100
AcDbCircle
 10
160.026248
 20
199.273292
 30
0.0
 40
0.323
100
AcDbArc
 50
101.529708
 51
258.470292
  0
LINE
  5
563
100
AcDbEntity
  8
18
100
AcDbLine
 10
173.752746
 20
196.850792
 30
0.0
 11
173.752746
 21
198.465792
 31
0.0
  0
LINE
  5
564
100
AcDbEntity
  8
18
100
AcDbLine
 10
173.752746
 20
200.080792
 30
0.0
 11
173.752746
 21
201.695792
 31
0.0
  0
ARC
  5
565
100
AcDbEntity
  8
18
100
AcDbCircle
 10
164.062746
 20
199.273292
 30
0.0
 40
5.6525
100
AcDbArc
 50
8.213211
 51
351.786789
  0
LINE
  5
566
100
AcDbEntity
  8
18
100
AcDbLine
 10
183.837894
 20
200.080792
 30
0.0
 11
183.837894
 21
198.465792
 31
0.0
  0
LINE
  5
567
100
AcDbEntity
  8
18
  6
CENTER
 62
     2
100
AcDbLine
 10
316.192578
 20
199.027406
 30
0.0
 11
348.827546
 21
199.027406
 31
0.0
  0
LINE
  5
568
100
AcDbEntity
  8
18
100
AcDbLine
 10
346.233694
 20
196.604906
 30
0.0
 11
346.233694
 21
201.449906
 31
0.0
  0
LINE
  5
569
100
AcDbEntity
  8
18
100
AcDbLine
 10
346.233694
 20
196.604906
 30
0.0
 11
341.650772
 21
196.604906
 31
0.0
  0
LINE
  5
56A
100
AcDbEntity
  8
18
100
AcDbLine
 10
331.436616
 20
196.604906
 30
0.0
 11
326.853694
 21
196.604906
 31
0.0
  0
LINE
  5
56B
100
AcDbEntity
  8
18
100
AcDbLine
 10
346.233694
 20
201.449906
 30
0.0
 11
341.650772
 21
201.449906
 31
0.0
  0
LINE
  5
56C
100
AcDbEntity
  8
18
100
AcDbLine
 10
331.436616
 20
201.449906
 30
0.0
 11
326.853694
 21
201.449906
 31
0.0
  0
LINE
  5
56D
100
AcDbEntity
  8
18
100
AcDbLine
 10
335.736194
 20
197.333388
 30
0.0
 11
335.736194
 21
218.802554
 31
0.0
  0
LINE
  5
56E
100
AcDbEntity
  8
18
100
AcDbLine
 10
337.351194
 20
197.333388
 30
0.0
 11
337.351194
 21
218.802554
 31
0.0
  0
LINE
  5
56F
100
AcDbEntity
  8
18
100
AcDbLine
 10
336.227212
 20
194.926348
 30
0.0
 11
335.736194
 21
197.333388
 31
0.0
  0
LINE
  5
570
100
AcDbEntity
  8
18
100
AcDbLine
 10
336.860176
 20
194.926348
 30
0.0
 11
337.351194
 21
197.333388
 31
0.0
  0
ARC
  5
571
100
AcDbEntity
  8
18
100
AcDbCircle
 10
336.543694
 20
194.990908
 30
0.0
 40
0.323
100
AcDbArc
 50
191.529708
 51
348.470292
  0
LINE
  5
572
100
AcDbEntity
  8
18
100
AcDbLine
 10
326.853694
 20
201.449906
 30
0.0
 11
326.853694
 21
199.834906
 31
0.0
  0
LINE
  5
573
100
AcDbEntity
  8
18
100
AcDbLine
 10
326.853694
 20
199.834906
 30
0.0
 11
326.853694
 21
196.604906
 31
0.0
  0
LINE
  5
574
100
AcDbEntity
  8
18
100
AcDbLine
 10
335.736194
 20
218.802554
 30
0.0
 11
337.351194
 21
218.802554
 31
0.0
  0
ARC
  5
575
100
AcDbEntity
  8
18
100
AcDbCircle
 10
336.543694
 20
199.027406
 30
0.0
 40
5.6525
100
AcDbArc
 50
98.213211
 51
81.786789
  0
LINE
  5
576
100
AcDbEntity
  8
18
100
AcDbLine
 10
289.542042
 20
208.786862
 30
0.0
 11
289.542042
 21
213.631862
 31
0.0
  0
LINE
  5
577
100
AcDbEntity
  8
18
100
AcDbLine
 10
289.542042
 20
208.786862
 30
0.0
 11
284.959122
 21
208.786862
 31
0.0
  0
LINE
  5
578
100
AcDbEntity
  8
18
100
AcDbLine
 10
274.744964
 20
208.786862
 30
0.0
 11
270.162042
 21
208.786862
 31
0.0
  0
LINE
  5
579
100
AcDbEntity
  8
18
100
AcDbLine
 10
289.542042
 20
213.631862
 30
0.0
 11
284.959122
 21
213.631862
 31
0.0
  0
LINE
  5
57A
100
AcDbEntity
  8
18
100
AcDbLine
 10
274.744964
 20
213.631862
 30
0.0
 11
270.162042
 21
213.631862
 31
0.0
  0
LINE
  5
57B
100
AcDbEntity
  8
18
100
AcDbLine
 10
281.54606
 20
210.401862
 30
0.0
 11
260.076894
 21
210.401862
 31
0.0
  0
LINE
  5
57C
100
AcDbEntity
  8
18
100
AcDbLine
 10
281.54606
 20
212.016862
 30
0.0
 11
260.076894
 21
212.016862
 31
0.0
  0
LINE
  5
57D
100
AcDbEntity
  8
18
100
AcDbLine
 10
283.9531
 20
210.89288
 30
0.0
 11
281.54606
 21
210.401862
 31
0.0
  0
LINE
  5
57E
100
AcDbEntity
  8
18
100
AcDbLine
 10
283.9531
 20
211.525844
 30
0.0
 11
281.54606
 21
212.016862
 31
0.0
  0
ARC
  5
57F
100
AcDbEntity
  8
18
100
AcDbCircle
 10
283.88854
 20
211.209362
 30
0.0
 40
0.323
100
AcDbArc
 50
281.529708
 51
78.470292
  0
LINE
  5
580
100
AcDbEntity
  8
18
100
AcDbLine
 10
270.162042
 20
213.631862
 30
0.0
 11
270.162042
 21
212.016862
 31
0.0
  0
LINE
  5
581
100
AcDbEntity
  8
18
100
AcDbLine
 10
270.162042
 20
210.401862
 30
0.0
 11
270.162042
 21
208.786862
 31
0.0
  0
ARC
  5
582
100
AcDbEntity
  8
18
100
AcDbCircle
 10
279.852042
 20
211.209362
 30
0.0
 40
5.6525
100
AcDbArc
 50
188.213211
 51
171.786789
  0
LINE
  5
583
100
AcDbEntity
  8
18
100
AcDbLine
 10
260.076894
 20
210.401862
 30
0.0
 11
260.076894
 21
212.016862
 31
0.0
  0
LINE
  5
584
100
AcDbEntity
  8
18
  6
CENTER
 62
     2
100
AcDbLine
 10
239.076178
 20
208.953402
 30
0.0
 11
205.686492
 21
208.953402
 31
0.0
  0
LINE
  5
585
100
AcDbEntity
  8
18
100
AcDbLine
 10
209.035062
 20
211.375902
 30
0.0
 11
209.035062
 21
206.530902
 31
0.0
  0
LINE
  5
586
100
AcDbEntity
  8
18
100
AcDbLine
 10
209.035062
 20
211.375902
 30
0.0
 11
213.617982
 21
211.375902
 31
0.0
  0
LINE
  5
587
100
AcDbEntity
  8
18
100
AcDbLine
 10
223.83214
 20
211.375902
 30
0.0
 11
228.415062
 21
211.375902
 31
0.0
  0
LINE
  5
588
100
AcDbEntity
  8
18
100
AcDbLine
 10
209.035062
 20
206.530902
 30
0.0
 11
213.617982
 21
206.530902
 31
0.0
  0
LINE
  5
589
100
AcDbEntity
  8
18
100
AcDbLine
 10
223.83214
 20
206.530902
 30
0.0
 11
228.415062
 21
206.530902
 31
0.0
  0
LINE
  5
58A
100
AcDbEntity
  8
18
100
AcDbLine
 10
219.532562
 20
210.64742
 30
0.0
 11
219.532562
 21
189.178254
 31
0.0
  0
LINE
  5
58B
100
AcDbEntity
  8
18
100
AcDbLine
 10
217.917562
 20
210.64742
 30
0.0
 11
217.917562
 21
189.178254
 31
0.0
  0
LINE
  5
58C
100
AcDbEntity
  8
18
100
AcDbLine
 10
219.041544
 20
213.05446
 30
0.0
 11
219.532562
 21
210.64742
 31
0.0
  0
LINE
  5
58D
100
AcDbEntity
  8
18
100
AcDbLine
 10
218.408578
 20
213.05446
 30
0.0
 11
217.917562
 21
210.64742
 31
0.0
  0
ARC
  5
58E
100
AcDbEntity
  8
18
100
AcDbCircle
 10
218.725062
 20
212.9899
 30
0.0
 40
0.323
100
AcDbArc
 50
11.529708
 51
168.470292
  0
LINE
  5
58F
100
AcDbEntity
  8
18
100
AcDbLine
 10
228.415062
 20
206.530902
 30
0.0
 11
228.415062
 21
208.145902
 31
0.0
  0
LINE
  5
590
100
AcDbEntity
  8
18
100
AcDbLine
 10
228.415062
 20
208.145902
 30
0.0
 11
228.415062
 21
211.375902
 31
0.0
  0
LINE
  5
591
100
AcDbEntity
  8
18
100
AcDbLine
 10
219.532562
 20
189.178254
 30
0.0
 11
217.917562
 21
189.178254
 31
0.0
  0
ARC
  5
592
100
AcDbEntity
  8
18
100
AcDbCircle
 10
218.725062
 20
208.953402
 30
0.0
 40
5.6525
100
AcDbArc
 50
278.213211
 51
261.786789
  0
ARC
  5
593
100
AcDbEntity
  8
18
 62
     2
100
AcDbCircle
 10
164.062746
 20
199.273292
 30
0.0
 40
18.0
100
AcDbArc
 50
2.571215
 51
48.757144
  0
LINE
  5
594
100
AcDbEntity
  8
18
 62
     2
100
AcDbLine
 10
182.032238
 20
200.05606
 30
0.0
 11
182.032238
 21
200.786744
 31
0.0
  0
LINE
  5
595
100
AcDbEntity
  8
18
 62
     2
100
AcDbLine
 10
182.032238
 20
203.919764
 30
0.0
 11
180.996962
 21
203.919764
 31
0.0
  0
LINE
  5
596
100
AcDbEntity
  8
18
 62
     2
100
AcDbLine
 10
180.996962
 20
203.919764
 30
0.0
 11
182.032238
 21
200.05606
 31
0.0
  0
LINE
  5
597
100
AcDbEntity
  8
18
 62
     2
100
AcDbLine
 10
182.032238
 20
200.05606
 30
0.0
 11
183.067514
 21
203.919764
 31
0.0
  0
LINE
  5
598
100
AcDbEntity
  8
18
 62
     2
100
AcDbLine
 10
183.067514
 20
203.919764
 30
0.0
 11
182.032238
 21
203.919764
 31
0.0
  0
LINE
  5
599
100
AcDbEntity
  8
18
 62
     2
100
AcDbLine
 10
175.93095
 20
212.876374
 30
0.0
 11
176.369396
 21
212.437942
 31
0.0
  0
LINE
  5
59A
100
AcDbEntity
  8
18
 62
     2
100
AcDbLine
 10
178.663048
 20
210.14437
 30
0.0
 11
179.395086
 21
210.876434
 31
0.0
  0
LINE
  5
59B
100
AcDbEntity
  8
18
 62
     2
100
AcDbLine
 10
179.395086
 20
210.876434
 30
0.0
 11
175.93095
 21
212.876374
 31
0.0
  0
LINE
  5
59C
100
AcDbEntity
  8
18
 62
     2
100
AcDbLine
 10
175.93095
 20
212.876374
 30
0.0
 11
177.93101
 21
209.412306
 31
0.0
  0
LINE
  5
59D
100
AcDbEntity
  8
18
 62
     2
100
AcDbLine
 10
177.93101
 20
209.412306
 30
0.0
 11
178.663048
 21
210.14437
 31
0.0
  0
LINE
  5
59E
100
AcDbEntity
  8
18
  6
CENTER
 62
     2
100
AcDbLine
 10
164.062746
 20
207.980758
 30
0.0
 11
164.062746
 21
191.108368
 31
0.0
  0
LINE
  5
59F
100
AcDbEntity
  8
18
 62
     2
100
AcDbLine
 10
164.127728
 20
209.429734
 30
0.0
 11
164.127728
 21
220.105164
 31
0.0
  0
LINE
  5
5A0
100
AcDbEntity
  8
18
 62
     2
100
AcDbLine
 10
164.127728
 20
213.293436
 30
0.0
 11
163.092452
 21
213.293436
 31
0.0
  0
LINE
  5
5A1
100
AcDbEntity
  8
18
 62
     2
100
AcDbLine
 10
163.092452
 20
213.293436
 30
0.0
 11
164.127728
 21
209.429734
 31
0.0
  0
LINE
  5
5A2
100
AcDbEntity
  8
18
 62
     2
100
AcDbLine
 10
164.127728
 20
209.429734
 30
0.0
 11
165.163004
 21
213.293436
 31
0.0
  0
LINE
  5
5A3
100
AcDbEntity
  8
18
 62
     2
100
AcDbLine
 10
165.163004
 20
213.293436
 30
0.0
 11
164.127728
 21
213.293436
 31
0.0
  0
LINE
  5
5A4
100
AcDbEntity
  8
18
  6
CENTER
 62
     2
100
AcDbLine
 10
279.852042
 20
219.916828
 30
0.0
 11
279.852042
 21
190.858244
 31
0.0
  0
TEXT
  5
5A5
100
AcDbEntity
  8
18
100
AcDbText
 10
244.598252
 20
-266.543824
 30
0.0
 40
6.0
  1
１
 72
     5
 11
249.398252
 21
-266.543824
 31
0.0
100
AcDbText
  0
TEXT
  5
5A6
100
AcDbEntity
  8
18
100
AcDbText
 10
244.375148
 20
-254.070526
 30
0.0
 40
6.0
  1
標準仕様
 72
     5
 11
267.175148
 21
-254.070526
 31
0.0
100
AcDbText
  0
TEXT
  5
5A7
100
AcDbEntity
  8
18
100
AcDbText
 10
157.707778
 20
-135.656044
 30
0.0
 40
10.0
  1
高圧側
 72
     5
 11
185.707778
 21
-135.656044
 31
0.0
100
AcDbText
  0
TEXT
  5
5A8
100
AcDbEntity
  8
18
100
AcDbText
 10
161.60881
 20
172.540954
 30
0.0
 40
6.0
  1
Ａ
 72
     5
 11
166.40881
 21
172.540954
 31
0.0
100
AcDbText
  0
TEXT
  5
5A9
100
AcDbEntity
  8
18
100
AcDbText
 10
217.584916
 20
172.380646
 30
0.0
 40
6.0
  1
Ｂ
 72
     5
 11
222.384916
 21
172.380646
 31
0.0
100
AcDbText
  0
TEXT
  5
5AA
100
AcDbEntity
  8
18
100
AcDbText
 10
273.60881
 20
172.540954
 30
0.0
 40
6.0
  1
Ｃ
 72
     5
 11
278.40881
 21
172.540954
 31
0.0
100
AcDbText
  0
TEXT
  5
5AB
100
AcDbEntity
  8
18
100
AcDbText
 10
217.264312
 20
162.327138
 30
0.0
 40
6.0
  1
アクチュエ－タ取付方向
 72
     5
 11
282.064312
 21
162.327138
 31
0.0
100
AcDbText
  0
TEXT
  5
5AC
100
AcDbEntity
  8
18
100
AcDbText
 10
147.698792
 20
182.276428
 30
0.0
 40
5.0
  1
弁棒側　低圧側
 72
     5
 11
181.698792
 21
182.276428
 31
0.0
100
AcDbText
  0
TEXT
  5
5AD
100
AcDbEntity
  8
18
100
AcDbText
 10
142.906112
 20
222.087814
 30
0.0
 40
5.0
  1
フラット側　高圧側
 72
     5
 11
186.906112
 21
222.087814
 31
0.0
100
AcDbText
  0
TEXT
  5
5AE
100
AcDbEntity
  8
18
100
AcDbText
 10
329.60881
 20
172.540954
 30
0.0
 40
6.0
  1
Ｄ
 72
     5
 11
334.40881
 21
172.540954
 31
0.0
100
AcDbText
  0
TEXT
  5
5AF
100
AcDbEntity
  8
18
100
AcDbText
 10
252.595154
 20
-274.033538
 30
0.0
 40
6.0
  1
２
 72
     5
 11
257.395154
 21
-274.033538
 31
0.0
100
AcDbText
  0
TEXT
  5
5B0
100
AcDbEntity
  8
18
100
AcDbText
 10
181.078968
 20
194.52201
 30
0.0
 40
3.23
  1
Ｓ
 72
     5
 11
183.662968
 21
194.52201
 31
0.0
100
AcDbText
  0
TEXT
  5
5B1
100
AcDbEntity
  8
18
100
AcDbText
 10
317.213942
 20
207.271862
 30
0.0
 40
4.845
  1
　
 50
45.0
 72
     5
 11
316.528756
 21
206.586676
 31
0.0
100
AcDbText
  0
DIMENSION
  5
5B2
100
AcDbEntity
  8
18
100
AcDbDimension
  2
*D9
 10
335.734382
 20
199.027406
 30
0.0
 11
309.757911
 21
225.712796
 31
0.0
 70
     2
100
AcDb2LineAngularDimension
 13
335.736194
 23
199.029218
 33
0.0
 14
335.736194
 24
199.027406
 34
0.0
 15
335.736194
 25
199.027406
 35
0.0
 16
322.923829
 26
211.839771
 36
0.0
  0
TEXT
  5
5B3
100
AcDbEntity
  8
18
100
AcDbText
 10
316.309926
 20
194.911078
 30
0.0
 40
3.23
  1
Ｏ
 72
     5
 11
318.893926
 21
194.911078
 31
0.0
100
AcDbText
  0
TEXT
  5
5B4
100
AcDbEntity
  8
18
100
AcDbText
 10
337.976642
 20
215.901628
 30
0.0
 40
3.23
  1
Ｓ
 72
     5
 11
340.560642
 21
215.901628
 31
0.0
100
AcDbText
  0
TEXT
  5
5B5
100
AcDbEntity
  8
18
100
AcDbText
 10
271.607588
 20
191.879608
 30
0.0
 40
4.845
  1
　
 50
135.0
 72
     5
 11
272.292774
 21
191.194422
 31
0.0
100
AcDbText
  0
DIMENSION
  5
5B6
100
AcDbEntity
  8
18
100
AcDbDimension
  2
*D10
 10
279.852042
 20
210.40005
 30
0.0
 11
253.873759
 21
185.130686
 31
0.0
 70
     2
100
AcDb2LineAngularDimension
 13
279.85023
 23
210.401862
 33
0.0
 14
279.852042
 24
210.401862
 34
0.0
 15
279.852042
 25
210.401862
 35
0.0
 16
267.039677
 26
197.589497
 36
0.0
  0
TEXT
  5
5B7
100
AcDbEntity
  8
18
100
AcDbText
 10
283.46182
 20
194.046032
 30
0.0
 40
3.23
  1
Ｏ
 50
180.0
 72
     5
 11
280.87782
 21
194.046032
 31
0.0
100
AcDbText
  0
TEXT
  5
5B8
100
AcDbEntity
  8
18
100
AcDbText
 10
262.83582
 20
215.960644
 30
0.0
 40
3.23
  1
Ｓ
 50
180.0
 72
     5
 11
260.25182
 21
215.960644
 31
0.0
100
AcDbText
  0
TEXT
  5
5B9
100
AcDbEntity
  8
18
100
AcDbText
 10
238.054814
 20
200.708946
 30
0.0
 40
4.845
  1
　
 50
225.0
 72
     5
 11
238.74
 21
201.394132
 31
0.0
100
AcDbText
  0
DIMENSION
  5
5BA
100
AcDbEntity
  8
18
100
AcDbDimension
  2
*D11
 10
219.534374
 20
208.953402
 30
0.0
 11
245.510845
 21
182.268012
 31
0.0
 70
     2
100
AcDb2LineAngularDimension
 13
219.532562
 23
208.95159
 33
0.0
 14
219.532562
 24
208.953402
 34
0.0
 15
219.532562
 25
208.953402
 35
0.0
 16
232.344927
 26
196.141037
 36
0.0
  0
TEXT
  5
5BB
100
AcDbEntity
  8
18
100
AcDbText
 10
239.032316
 20
212.756898
 30
0.0
 40
3.23
  1
Ｏ
 50
180.0
 72
     5
 11
236.448316
 21
212.756898
 31
0.0
100
AcDbText
  0
TEXT
  5
5BC
100
AcDbEntity
  8
18
100
AcDbText
 10
216.9453
 20
192.110704
 30
0.0
 40
3.23
  1
Ｓ
 50
180.0
 72
     5
 11
214.3613
 21
192.110704
 31
0.0
100
AcDbText
  0
TEXT
  5
5BD
100
AcDbEntity
  8
18
100
AcDbText
 10
175.08565
 20
211.6717
 30
0.0
 40
3.23
  1
Ｏ
 50
180.0
 72
     5
 11
172.50165
 21
211.6717
 31
0.0
100
AcDbText
  0
TEXT
  5
5BE
100
AcDbEntity
  8
18
100
AcDbText
 10
244.375148
 20
-246.070526
 30
0.0
 40
6.0
  1
３０２Ｙ／３０４Ｙ－１ＴＡＳ　６５Ａ
 72
     5
 11
351.175148
 21
-246.070526
 31
0.0
100
AcDbText
  0
TEXT
  5
5BF
100
AcDbEntity
  8
18
100
AcDbText
 10
307.2
 20
-272.0
 30
0.0
 40
10.0
  1
Ｄ３－０３８１４
 72
     5
 11
385.2
 21
-272.0
 31
0.0
100
AcDbText
  0
TEXT
  5
5C0
100
AcDbEntity
  8
18
100
AcDbText
 10
360.188293
 20
-253.837098
 30
0.0
 40
4.5
  1
′０５．　７．２１
 72
     5
 11
399.788293
 21
-253.837098
 31
0.0
100
AcDbText
  0
LINE
  5
5C1
100
AcDbEntity
  8
20
 62
     3
100
AcDbLine
 10
-360.0
 20
-277.0
 30
0.0
 11
400.0
 21
-277.0
 31
0.0
  0
LINE
  5
5C2
100
AcDbEntity
  8
20
 62
     3
100
AcDbLine
 10
-360.0
 20
264.0
 30
0.0
 11
400.0
 21
264.0
 31
0.0
  0
LINE
  5
5C3
100
AcDbEntity
  8
20
 62
     3
100
AcDbLine
 10
-360.0
 20
264.0
 30
0.0
 11
-360.0
 21
-277.0
 31
0.0
  0
LINE
  5
5C4
100
AcDbEntity
  8
20
 62
     3
100
AcDbLine
 10
400.0
 20
264.0
 30
0.0
 11
400.0
 21
-277.0
 31
0.0
  0
LINE
  5
5C5
100
AcDbEntity
  8
20
 62
     3
100
AcDbLine
 10
120.0
 20
-277.0
 30
0.0
 11
120.0
 21
-237.0
 31
0.0
  0
LINE
  5
5C6
100
AcDbEntity
  8
20
 62
     3
100
AcDbLine
 10
214.0
 20
-277.0
 30
0.0
 11
214.0
 21
-237.0
 31
0.0
  0
LINE
  5
5C7
100
AcDbEntity
  8
20
100
AcDbLine
 10
214.0
 20
-257.0
 30
0.0
 11
400.0
 21
-257.0
 31
0.0
  0
LINE
  5
5C8
100
AcDbEntity
  8
20
 62
     3
100
AcDbLine
 10
120.0
 20
-237.0
 30
0.0
 11
400.0
 21
-237.0
 31
0.0
  0
LINE
  5
5C9
100
AcDbEntity
  8
20
100
AcDbLine
 10
360.0
 20
-257.0
 30
0.0
 11
360.0
 21
-237.0
 31
0.0
  0
LINE
  5
5CA
100
AcDbEntity
  8
20
100
AcDbLine
 10
360.0
 20
-247.0
 30
0.0
 11
400.0
 21
-247.0
 31
0.0
  0
LINE
  5
5CB
100
AcDbEntity
  8
20
100
AcDbLine
 10
242.0
 20
-277.0
 30
0.0
 11
242.0
 21
-237.0
 31
0.0
  0
LINE
  5
5CC
100
AcDbEntity
  8
20
100
AcDbLine
 10
262.0
 20
-277.0
 30
0.0
 11
262.0
 21
-257.0
 31
0.0
  0
LINE
  5
5CD
100
AcDbEntity
  8
20
100
AcDbLine
 10
302.0
 20
-277.0
 30
0.0
 11
302.0
 21
-257.0
 31
0.0
  0
LINE
  5
5CE
100
AcDbEntity
  8
20
100
AcDbLine
 10
247.45683
 20
-271.54317
 30
0.0
 11
255.796582
 21
-263.203418
 31
0.0
  0
TEXT
  5
5CF
100
AcDbEntity
  8
20
100
AcDbText
 10
263.066658
 20
-264.993836
 30
0.0
 40
3.6
  1
ＤＲＡＷＩＮＧ　ＮＯ．
 72
     5
 11
301.946658
 21
-264.993836
 31
0.0
100
AcDbText
  0
TEXT
  5
5D0
100
AcDbEntity
  8
20
100
AcDbText
 10
267.0
 20
-273.0
 30
0.0
 40
6.0
  1
図　　　番
 72
     5
 11
295.8
 21
-273.0
 31
0.0
100
AcDbText
  0
TEXT
  5
5D1
100
AcDbEntity
  8
20
100
AcDbText
 10
372.0
 20
-244.0
 30
0.0
 40
4.0
  1
ＤＡＴＥ
 72
     5
 11
387.2
 21
-244.0
 31
0.0
100
AcDbText
  0
TEXT
  5
5D2
100
AcDbEntity
  8
20
100
AcDbText
 10
218.002142
 20
-265.922058
 30
0.0
 40
4.0
  1
ＳＣＡＬＥ
 72
     5
 11
237.202142
 21
-265.922058
 31
0.0
100
AcDbText
  0
TEXT
  5
5D3
100
AcDbEntity
  8
20
100
AcDbText
 10
216.0
 20
-273.0
 30
0.0
 40
6.0
  1
尺　　度
 72
     5
 11
238.8
 21
-273.0
 31
0.0
100
AcDbText
  0
TEXT
  5
5D4
100
AcDbEntity
  8
20
100
AcDbText
 10
215.002142
 20
-244.99177
 30
0.0
 40
4.0
  1
ＦＩＧ．ＮＯ．
 72
     5
 11
242.202142
 21
-244.99177
 31
0.0
100
AcDbText
  0
TEXT
  5
5D5
100
AcDbEntity
  8
20
100
AcDbText
 10
216.0
 20
-253.0
 30
0.0
 40
6.0
  1
名　　称
 72
     5
 11
238.8
 21
-253.0
 31
0.0
100
AcDbText
  0
TEXT
  5
5D6
100
AcDbEntity
  8
20
100
AcDbText
 10
121.13105
 20
-252.940506
 30
0.0
 40
4.6
  1
ＴＯＭＯＥ　ＶＡＬＶＥ　ＣＯ．，ＬＴＤ．
 72
     5
 11
212.21105
 21
-252.940506
 31
0.0
100
AcDbText
  0
TEXT
  5
5D7
100
AcDbEntity
  8
20
100
AcDbText
 10
135.0
 20
-266.57962
 30
0.0
 40
8.0
  1
巴バルブ株式会社
 72
     5
 11
197.4
 21
-266.57962
 31
0.0
100
AcDbText
  0
ENDSEC
  0
SECTION
  2
OBJECTS
  0
DICTIONARY
  5
65E
100
AcDbDictionary
  3
ACAD_GROUP
350
65F
  3
ACAD_MLINESTYLE
350
660
  0
DICTIONARY
  5
65F
102
{ACAD_REACTORS
330
65E
102
}
100
AcDbDictionary
  0
DICTIONARY
  5
660
102
{ACAD_REACTORS
330
65E
102
}
100
AcDbDictionary
  3
STANDARD
350
661
  0
MLINESTYLE
  5
661
102
{ACAD_REACTORS
330
660
102
}
100
AcDbMlineStyle
  2
STANDARD
 70
     0
  3

 62
     0
 51
90.0
 52
90.0
 71
     2
 49
0.5
 62
   256
  6
BYLAYER
 49
-0.5
 62
   256
  6
BYLAYER
  0
ENDSEC
  0
EOF
