  0
SECTION
  2
HEADER
  9
$ACADVER
  1
AC1012
  9
$DWGCODEPAGE
  3
ansi_932
  9
$INSBASE
 10
0.0
 20
0.0
 30
0.0
  9
$EXTMIN
 10
-630.0
 20
-445.5
 30
1.000000E+20
  9
$EXTMAX
 10
630.0
 20
445.5
 30
-1.000000E+20
  9
$LIMMIN
 10
-630.0
 20
-445.5
  9
$LIMMAX
 10
630.0
 20
445.5
  9
$ORTHOMODE
 70
     0
  9
$REGENMODE
 70
     1
  9
$FILLMODE
 70
     1
  9
$QTEXTMODE
 70
     0
  9
$MIRRTEXT
 70
     1
  9
$DRAGMODE
 70
     2
  9
$LTSCALE
 40
1.0
  9
$OSMODE
 70
     0
  9
$ATTMODE
 70
     1
  9
$TEXTSIZE
 40
0.2
  9
$TRACEWID
 40
0.05
  9
$TEXTSTYLE
  7
STANDARD
  9
$CLAYER
  8
0
  9
$CELTYPE
  6
CONTINUOUS
  9
$CECOLOR
 62
   256
  9
$CELTSCALE
 40
1.0
  9
$DELOBJ
 70
     1
  9
$DISPSILH
 70
     0
  9
$DIMSCALE
 40
3.0
  9
$DIMASZ
 40
0.18
  9
$DIMEXO
 40
0.0625
  9
$DIMDLI
 40
0.38
  9
$DIMRND
 40
0.0
  9
$DIMDLE
 40
0.0
  9
$DIMEXE
 40
0.18
  9
$DIMTP
 40
0.0
  9
$DIMTM
 40
0.0
  9
$DIMTXT
 40
0.18
  9
$DIMCEN
 40
0.09
  9
$DIMTSZ
 40
0.0
  9
$DIMTOL
 70
     0
  9
$DIMLIM
 70
     0
  9
$DIMTIH
 70
     1
  9
$DIMTOH
 70
     1
  9
$DIMSE1
 70
     0
  9
$DIMSE2
 70
     0
  9
$DIMTAD
 70
     1
  9
$DIMZIN
 70
     0
  9
$DIMBLK
  1

  9
$DIMASO
 70
     1
  9
$DIMSHO
 70
     1
  9
$DIMPOST
  1

  9
$DIMAPOST
  1

  9
$DIMALT
 70
     0
  9
$DIMALTD
 70
     2
  9
$DIMALTF
 40
25.4
  9
$DIMLFAC
 40
1.0
  9
$DIMTOFL
 70
     0
  9
$DIMTVP
 40
0.0
  9
$DIMTIX
 70
     0
  9
$DIMSOXD
 70
     0
  9
$DIMSAH
 70
     0
  9
$DIMBLK1
  1

  9
$DIMBLK2
  1

  9
$DIMSTYLE
  2
STANDARD
  9
$DIMCLRD
 70
     0
  9
$DIMCLRE
 70
     0
  9
$DIMCLRT
 70
     0
  9
$DIMTFAC
 40
1.0
  9
$DIMGAP
 40
0.09
  9
$DIMJUST
 70
     0
  9
$DIMSD1
 70
     0
  9
$DIMSD2
 70
     0
  9
$DIMTOLJ
 70
     1
  9
$DIMTZIN
 70
     0
  9
$DIMALTZ
 70
     0
  9
$DIMALTTZ
 70
     0
  9
$DIMFIT
 70
     3
  9
$DIMUPT
 70
     0
  9
$DIMUNIT
 70
     2
  9
$DIMDEC
 70
     4
  9
$DIMTDEC
 70
     4
  9
$DIMALTU
 70
     2
  9
$DIMALTTD
 70
     2
  9
$DIMTXSTY
  7
STANDARD
  9
$DIMAUNIT
 70
     0
  9
$LUNITS
 70
     2
  9
$LUPREC
 70
     4
  9
$SKETCHINC
 40
0.1
  9
$FILLETRAD
 40
0.0
  9
$AUNITS
 70
     0
  9
$AUPREC
 70
     0
  9
$MENU
  1
acad
  9
$ELEVATION
 40
0.0
  9
$PELEVATION
 40
0.0
  9
$THICKNESS
 40
0.0
  9
$LIMCHECK
 70
     0
  9
$BLIPMODE
 70
     1
  9
$CHAMFERA
 40
0.0
  9
$CHAMFERB
 40
0.0
  9
$CHAMFERC
 40
0.0
  9
$CHAMFERD
 40
0.0
  9
$SKPOLY
 70
     0
  9
$TDCREATE
 40
2451320.000000000
  9
$TDUPDATE
 40
0.000000000
  9
$TDINDWG
 40
0.0000000000
  9
$TDUSRTIMER
 40
0.0000000000
  9
$USRTIMER
 70
     1
  9
$ANGBASE
 50
0.0
  9
$ANGDIR
 70
     0
  9
$PDMODE
 70
     0
  9
$PDSIZE
 40
0.0
  9
$PLINEWID
 40
0.0
  9
$COORDS
 70
     0
  9
$SPLFRAME
 70
     0
  9
$SPLINETYPE
 70
     6
  9
$SPLINESEGS
 70
     8
  9
$ATTDIA
 70
     0
  9
$ATTREQ
 70
     1
  9
$HANDLING
 70
     1
  9
$HANDSEED
  5
735
  9
$SURFTAB1
 70
     6
  9
$SURFTAB2
 70
     6
  9
$SURFTYPE
 70
     6
  9
$SURFU
 70
     6
  9
$SURFV
 70
     6
  9
$UCSNAME
  2

  9
$UCSORG
 10
0.0
 20
0.0
 30
0.0
  9
$UCSXDIR
 10
1.0
 20
0.0
 30
0.0
  9
$UCSYDIR
 10
0.0
 20
1.0
 30
0.0
  9
$PUCSNAME
  2

  9
$PUCSORG
 10
0.0
 20
0.0
 30
0.0
  9
$PUCSXDIR
 10
1.0
 20
0.0
 30
0.0
  9
$PUCSYDIR
 10
0.0
 20
1.0
 30
0.0
  9
$USERI1
 70
     0
  9
$USERI2
 70
     0
  9
$USERI3
 70
     0
  9
$USERI4
 70
     0
  9
$USERI5
 70
     0
  9
$USERR1
 40
0.0
  9
$USERR2
 40
0.0
  9
$USERR3
 40
0.0
  9
$USERR4
 40
0.0
  9
$USERR5
 40
0.0
  9
$WORLDVIEW
 70
     1
  9
$SHADEDGE
 70
     3
  9
$SHADEDIF
 70
    70
  9
$TILEMODE
 70
     1
  9
$MAXACTVP
 70
    16
  9
$PINSBASE
 10
0.0
 20
0.0
 30
0.0
  9
$PLIMCHECK
 70
     0
  9
$PEXTMIN
 10
1.000000E+20
 20
1.000000E+20
 30
1.000000E+20
  9
$PEXTMAX
 10
-1.000000E+20
 20
-1.000000E+20
 30
-1.000000E+20
  9
$PLIMMIN
 10
0.0
 20
0.0
  9
$PLIMMAX
 10
12.0
 20
9.0
  9
$UNITMODE
 70
     0
  9
$VISRETAIN
 70
     0
  9
$PLINEGEN
 70
     1
  9
$PSLTSCALE
 70
     0
  9
$TREEDEPTH
 70
  3020
  9
$PICKSTYLE
 70
     1
  9
$CMLSTYLE
  2
STANDARD
  9
$CMLJUST
 70
     0
  9
$CMLSCALE
 40
1.0
  9
$SAVEIMAGES
 70
     0
  0
ENDSEC
  0
SECTION
  2
CLASSES
  0
CLASS
  1
LWPOLYLINE
  2
AcDbPolyline
  3
"AutoCAD"
 90
    32768
280
     0
281
     1
  0
CLASS
  1
IMAGE
  2
AcDbRasterImage
  3
ISM
 90
    32895
280
     0
281
     1
  0
CLASS
  1
OLE2FRAME
  2
AcDbOle2Frame
  3
""
 90
    32768
280
     0
281
     1
  0
CLASS
  1
HATCH
  2
AcDbHatch
  3
"ACAD_SEDONA"
 90
    32768
280
     0
281
     1
  0
CLASS
  1
DICTIONARYVAR
  2
AcDbDictionaryVar
  3
"AutoCAD"
 90
    32768
280
     0
281
     0
  0
CLASS
  1
RASTERVARIABLES
  2
AcDbRasterVariables
  3
ISM
 90
    32768
280
     0
281
     0
  0
CLASS
  1
IMAGEDEF
  2
AcDbRasterImageDef
  3
ISM
 90
    32768
280
     0
281
     0
  0
CLASS
  1
IMAGEDEF_REACTOR
  2
AcDbRasterImageDefReactor
  3
ISM
 90
    32769
280
     0
281
     0
  0
CLASS
  1
IDBUFFER
  2
AcDbIdBuffer
  3
"Acad"
 90
    32768
280
     0
281
     0
  0
CLASS
  1
SPATIAL_FILTER
  2
AcDbSpatialFilter
  3
"Acad"
 90
    32768
280
     0
281
     0
  0
CLASS
  1
XRECORD
  2
AcDbXrecord
  3
"<Built In>"
 90
    32768
280
     0
281
     0
  0
CLASS
  1
SORTENTSTABLE
  2
AcDbSortentsTable
  3
"AutoCAD"
 90
    32768
280
     0
281
     0
  0
CLASS
  1
LAYER_INDEX
  2
AcDbLayerIndex
  3
"Acad"
 90
    32768
280
     0
281
     0
  0
CLASS
  1
SPATIAL_INDEX
  2
AcDbSpatialIndex
  3
"Acad"
 90
    32768
280
     0
281
     0
  0
CLASS
  1
OBJECT_PTR
  2
CAseDLPNTableRecord
  3
"ASE-LPNTableRecord"
 90
    32769
280
     0
281
     0
  0
CLASS
  1
LAYOUT
  2
AcDbLayout
  3
"AutoCAD 2000"
 90
    32768
280
     0
281
     0
  0
CLASS
  1
PLOTSETTINGS
  2
AcDbPlotSettings
  3
"AutoCAD 2000"
 90
    32768
280
     0
281
     0
  0
CLASS
  1
ACDBDICTIONARYWDFLT
  2
AcDbDictionaryWithDefault
  3
"AutoCAD 2000"
 90
    32768
280
     0
281
     0
  0
CLASS
  1
ACDBPLACEHOLDER
  2
AcDbPlaceHolder
  3
"AutoCAD 2000"
 90
    32768
280
     0
281
     0
  0
CLASS
  1
VBA_PROJECT
  2
AcDbVbaProject
  3
"acadvba"
 90
    32768
280
     0
281
     0
  0
CLASS
  1
WIPEOUT
  2
AcDbWipeout
  3
WipeOut|AutoCAD Express Tool|expresstools@autodesk.com
 90
    32895
280
     0
281
     1
  0
CLASS
  1
WIPEOUTVARIABLES
  2
AcDbWipeoutVariables
  3
WipeOut|AutoCAD Express Tool|expresstools@autodesk.com
 90
    32768
280
     0
281
     0
  0
CLASS
  1
RTEXT
  2
RText
  3
RText|AutoCAD Express Tool|expresstools@autodesk.com
 90
    32768
280
     0
281
     1
  0
CLASS
  1
ARCALIGNEDTEXT
  2
AcDbArcAlignedText
  3
ATEXT|AutoCAD Express Tool|expresstools@autodesk.com
 90
    32768
280
     0
281
     1
  0
ENDSEC
  0
SECTION
  2
TABLES
  0
TABLE
  2
VPORT
  5
6
100
AcDbSymbolTable
 70
     1
  0
VPORT
  5
1D
100
AcDbSymbolTableRecord
100
AcDbViewportTableRecord
  2
*ACTIVE
 70
     0
 10
0.0
 20
0.0
 11
1.0
 21
1.0
 12
0.0
 22
0.0
 13
0.0
 23
0.0
 14
1.0
 24
1.0
 15
0.0
 25
0.0
 16
0.0
 26
0.0
 36
1.0
 17
0.0
 27
0.0
 37
0.0
 40
891.0
 41
1.414141
 42
50.0
 43
0.0
 44
0.0
 50
0.0
 51
0.0
 71
     0
 72
   500
 73
     1
 74
     1
 75
     0
 76
     0
 77
     0
 78
     0
  0
ENDTAB
  0
TABLE
  2
LTYPE
  5
3
100
AcDbSymbolTable
 70
     9
  0
LTYPE
  5
C
100
AcDbSymbolTableRecord
100
AcDbLinetypeTableRecord
  2
BYBLOCK
 70
    64
  3

 72
    65
 73
     0
 40
0.0
  0
LTYPE
  5
D
100
AcDbSymbolTableRecord
100
AcDbLinetypeTableRecord
  2
BYLAYER
 70
    64
  3

 72
    65
 73
     0
 40
0.0
  0
LTYPE
  5
E
100
AcDbSymbolTableRecord
100
AcDbLinetypeTableRecord
  2
CONTINUOUS
 70
     0
  3
Solid line
 72
    65
 73
     0
 40
0.0
  0
LTYPE
  5
F
100
AcDbSymbolTableRecord
100
AcDbLinetypeTableRecord
  2
DASHED
 70
     0
  3
__ __ __ __ __ __ __ __ __ __ __ __ __ __ __
 72
    65
 73
     2
 40
2.0
 49
1.2
 74
     0
 49
-0.8
 74
     0
  0
LTYPE
  5
10
100
AcDbSymbolTableRecord
100
AcDbLinetypeTableRecord
  2
CENTER
 70
     0
  3
____ _ ____ _ ____ _ ____ _ ____ _ ____ _ ____
 72
    65
 73
     4
 40
12.0
 49
9.0
 74
     0
 49
-1.0
 74
     0
 49
1.0
 74
     0
 49
-1.0
 74
     0
  0
LTYPE
  5
11
100
AcDbSymbolTableRecord
100
AcDbLinetypeTableRecord
  2
HIDDEN
 70
     0
  3
_ _ _ _ _ _ _ _ _ _ _ _ _ _ _ _ _ _ _ _ _ _ _
 72
    65
 73
     2
 40
3.2
 49
2.4
 74
     0
 49
-0.8
 74
     0
  0
LTYPE
  5
12
100
AcDbSymbolTableRecord
100
AcDbLinetypeTableRecord
  2
PHANTOM
 70
     0
  3
_____ _ _ _____ _ _ _____ _ _ _____ _ _ _____
 72
    65
 73
     6
 40
13.5
 49
9.0
 74
     0
 49
-1.0
 74
     0
 49
1.0
 74
     0
 49
-0.5
 74
     0
 49
1.0
 74
     0
 49
-1.0
 74
     0
  0
LTYPE
  5
13
100
AcDbSymbolTableRecord
100
AcDbLinetypeTableRecord
  2
DOT
 70
     0
  3
...............................................
 72
    65
 73
     2
 40
1.0
 49
0.5
 74
     0
 49
-0.5
 74
     0
  0
LTYPE
  5
14
100
AcDbSymbolTableRecord
100
AcDbLinetypeTableRecord
  2
DASHDOT
 70
     0
  3
__ . __ . __ . __ . __ . __ . __ . __ . __ . __
 72
    65
 73
     4
 40
8.0
 49
5.0
 74
     0
 49
-1.0
 74
     0
 49
1.0
 74
     0
 49
-1.0
 74
     0
  0
ENDTAB
  0
TABLE
  2
LAYER
  5
1
100
AcDbSymbolTable
 70
     8
  0
LAYER
  5
15
100
AcDbSymbolTableRecord
100
AcDbLayerTableRecord
  2
0
 70
     0
 62
     7
  6
CONTINUOUS
  0
LAYER
  5
16
100
AcDbSymbolTableRecord
100
AcDbLayerTableRecord
  2
1
 70
     0
 62
     7
  6
CONTINUOUS
  0
LAYER
  5
17
100
AcDbSymbolTableRecord
100
AcDbLayerTableRecord
  2
2
 70
     0
 62
     7
  6
CONTINUOUS
  0
LAYER
  5
18
100
AcDbSymbolTableRecord
100
AcDbLayerTableRecord
  2
3
 70
     0
 62
     7
  6
CONTINUOUS
  0
LAYER
  5
19
100
AcDbSymbolTableRecord
100
AcDbLayerTableRecord
  2
4
 70
     0
 62
     7
  6
CONTINUOUS
  0
LAYER
  5
1A
100
AcDbSymbolTableRecord
100
AcDbLayerTableRecord
  2
5
 70
     0
 62
     7
  6
CONTINUOUS
  0
LAYER
  5
1B
100
AcDbSymbolTableRecord
100
AcDbLayerTableRecord
  2
18
 70
     0
 62
     7
  6
CONTINUOUS
  0
LAYER
  5
1C
100
AcDbSymbolTableRecord
100
AcDbLayerTableRecord
  2
20
 70
     0
 62
     7
  6
CONTINUOUS
  0
ENDTAB
  0
TABLE
  2
STYLE
  5
2
100
AcDbSymbolTable
 70
     1
  0
STYLE
  5
1F
100
AcDbSymbolTableRecord
100
AcDbTextStyleTableRecord
  2
STANDARD
 70
    64
 40
0.0
 41
1.0
 50
0.0
 71
     0
 42
1.0
  3
txt
  4
BIGFONT
  0
ENDTAB
  0
TABLE
  2
VIEW
  5
4
100
AcDbSymbolTable
 70
     0
  0
ENDTAB
  0
TABLE
  2
UCS
  5
5
100
AcDbSymbolTable
 70
     0
  0
ENDTAB
  0
TABLE
  2
APPID
  5
7
100
AcDbSymbolTable
 70
     1
  0
APPID
  5
1E
100
AcDbSymbolTableRecord
100
AcDbRegAppTableRecord
  2
ACAD
 70
     0
  0
ENDTAB
  0
TABLE
  2
DIMSTYLE
  5
8
100
AcDbSymbolTable
 70
     1
  0
DIMSTYLE
105
33
100
AcDbSymbolTableRecord
100
AcDbDimStyleTableRecord
  2
STANDARD
 70
     0
  3

  4

  5

  6

  7

 40
3.0
 41
0.18
 42
0.0625
 43
0.38
 44
0.18
 45
0.0
 46
0.0
 47
0.0
 48
0.0
 71
     0
 72
     0
 73
     1
 74
     1
 75
     0
 76
     0
 77
     1
 78
     0
140
0.18
141
0.09
142
0.0
143
25.4
144
1.0
145
0.0
146
1.0
147
0.09
170
     0
171
     2
172
     0
173
     0
174
     0
175
     0
176
     0
177
     0
178
     0
270
     2
271
     4
272
     4
273
     2
274
     2
275
     0
280
     0
281
     0
282
     0
283
     1
284
     0
285
     0
286
     0
287
     3
288
     0
340
1F
  0
ENDTAB
  0
TABLE
  2
BLOCK_RECORD
  5
2E
100
AcDbSymbolTable
 70
    12
  0
BLOCK_RECORD
  5
2C
100
AcDbSymbolTableRecord
100
AcDbBlockTableRecord
  2
*MODEL_SPACE
  0
BLOCK_RECORD
  5
2D
100
AcDbSymbolTableRecord
100
AcDbBlockTableRecord
  2
*PAPER_SPACE
  0
BLOCK_RECORD
  5
20
100
AcDbSymbolTableRecord
100
AcDbBlockTableRecord
  2
*D0
  0
BLOCK_RECORD
  5
21
100
AcDbSymbolTableRecord
100
AcDbBlockTableRecord
  2
*D1
  0
BLOCK_RECORD
  5
22
100
AcDbSymbolTableRecord
100
AcDbBlockTableRecord
  2
*D2
  0
BLOCK_RECORD
  5
23
100
AcDbSymbolTableRecord
100
AcDbBlockTableRecord
  2
*D3
  0
BLOCK_RECORD
  5
24
100
AcDbSymbolTableRecord
100
AcDbBlockTableRecord
  2
*D4
  0
BLOCK_RECORD
  5
25
100
AcDbSymbolTableRecord
100
AcDbBlockTableRecord
  2
*D5
  0
BLOCK_RECORD
  5
26
100
AcDbSymbolTableRecord
100
AcDbBlockTableRecord
  2
*D6
  0
BLOCK_RECORD
  5
27
100
AcDbSymbolTableRecord
100
AcDbBlockTableRecord
  2
*D7
  0
BLOCK_RECORD
  5
28
100
AcDbSymbolTableRecord
100
AcDbBlockTableRecord
  2
*D8
  0
BLOCK_RECORD
  5
29
100
AcDbSymbolTableRecord
100
AcDbBlockTableRecord
  2
*D9
  0
BLOCK_RECORD
  5
2A
100
AcDbSymbolTableRecord
100
AcDbBlockTableRecord
  2
*D10
  0
BLOCK_RECORD
  5
2B
100
AcDbSymbolTableRecord
100
AcDbBlockTableRecord
  2
*D11
  0
ENDTAB
  0
ENDSEC
  0
SECTION
  2
BLOCKS
  0
BLOCK
  5
2F
100
AcDbEntity
  8
0
100
AcDbBlockBegin
  2
*MODEL_SPACE
 70
     0
 10
0.0
 20
0.0
 30
0.0
  3
*MODEL_SPACE
  1

  0
ENDBLK
  5
30
100
AcDbEntity
  8
0
100
AcDbBlockEnd
  0
BLOCK
  5
31
100
AcDbEntity
 67
     1
  8
0
100
AcDbBlockBegin
  2
*PAPER_SPACE
 70
     0
 10
0.0
 20
0.0
 30
0.0
  3
*PAPER_SPACE
  1

  0
ENDBLK
  5
32
100
AcDbEntity
 67
     1
  8
0
100
AcDbBlockEnd
  0
BLOCK
  5
6A3
100
AcDbEntity
  8
5
100
AcDbBlockBegin
  2
*D0
 70
     1
 10
0.0
 20
0.0
 30
0.0
  3
*D0
  1

  0
TEXT
  5
6A4
100
AcDbEntity
  8
5
 62
     2
100
AcDbText
 10
-499.048782
 20
289.774896
 30
0.0
 40
9.9
  1
87.5
 50
90.0
 41
1.4
 72
     5
 11
-499.048782
 21
314.722896
 31
0.0
100
AcDbText
  0
LINE
  5
6A5
100
AcDbEntity
  8
5
 62
     2
100
AcDbLine
 10
-471.849273
 20
259.884894
 30
0.0
 11
-500.548782
 21
259.884894
 31
0.0
  0
LINE
  5
6A6
100
AcDbEntity
  8
5
 62
     2
100
AcDbLine
 10
-497.548782
 20
259.884894
 30
0.0
 11
-495.995868
 21
265.680449
 31
0.0
  0
LINE
  5
6A7
100
AcDbEntity
  8
5
 62
     2
100
AcDbLine
 10
-497.548782
 20
259.884894
 30
0.0
 11
-499.101696
 21
265.680449
 31
0.0
  0
LINE
  5
6A8
100
AcDbEntity
  8
5
 62
     2
100
AcDbLine
 10
-495.995868
 20
265.680449
 30
0.0
 11
-499.101696
 21
265.680449
 31
0.0
  0
LINE
  5
6A9
100
AcDbEntity
  8
5
 62
     2
100
AcDbLine
 10
-497.548782
 20
259.884894
 30
0.0
 11
-497.548782
 21
347.384895
 31
0.0
  0
LINE
  5
6AA
100
AcDbEntity
  8
5
 62
     2
100
AcDbLine
 10
-497.548782
 20
347.384895
 30
0.0
 11
-499.101696
 21
341.58934
 31
0.0
  0
LINE
  5
6AB
100
AcDbEntity
  8
5
 62
     2
100
AcDbLine
 10
-497.548782
 20
347.384895
 30
0.0
 11
-495.995868
 21
341.58934
 31
0.0
  0
LINE
  5
6AC
100
AcDbEntity
  8
5
 62
     2
100
AcDbLine
 10
-499.101696
 20
341.58934
 30
0.0
 11
-495.995868
 21
341.58934
 31
0.0
  0
LINE
  5
6AD
100
AcDbEntity
  8
5
 62
     2
100
AcDbLine
 10
-372.782076
 20
347.384895
 30
0.0
 11
-500.548782
 21
347.384895
 31
0.0
  0
ENDBLK
  5
6AE
100
AcDbEntity
  8
5
100
AcDbBlockEnd
  0
BLOCK
  5
6AF
100
AcDbEntity
  8
5
100
AcDbBlockBegin
  2
*D1
 70
     1
 10
0.0
 20
0.0
 30
0.0
  3
*D1
  1

  0
TEXT
  5
6B0
100
AcDbEntity
  8
5
 62
     2
100
AcDbText
 10
-499.048782
 20
214.774896
 30
0.0
 40
9.9
  1
62.5
 50
90.0
 41
1.4
 72
     5
 11
-499.048782
 21
239.722896
 31
0.0
100
AcDbText
  0
LINE
  5
6B1
100
AcDbEntity
  8
5
 62
     2
100
AcDbLine
 10
-355.782075
 20
197.384895
 30
0.0
 11
-500.548782
 21
197.384895
 31
0.0
  0
LINE
  5
6B2
100
AcDbEntity
  8
5
 62
     2
100
AcDbLine
 10
-497.548782
 20
197.384895
 30
0.0
 11
-495.995868
 21
203.18045
 31
0.0
  0
LINE
  5
6B3
100
AcDbEntity
  8
5
 62
     2
100
AcDbLine
 10
-497.548782
 20
197.384895
 30
0.0
 11
-499.101696
 21
203.18045
 31
0.0
  0
LINE
  5
6B4
100
AcDbEntity
  8
5
 62
     2
100
AcDbLine
 10
-495.995868
 20
203.18045
 30
0.0
 11
-499.101696
 21
203.18045
 31
0.0
  0
LINE
  5
6B5
100
AcDbEntity
  8
5
 62
     2
100
AcDbLine
 10
-497.548782
 20
197.384895
 30
0.0
 11
-497.548782
 21
259.884894
 31
0.0
  0
LINE
  5
6B6
100
AcDbEntity
  8
5
 62
     2
100
AcDbLine
 10
-497.548782
 20
259.884894
 30
0.0
 11
-499.101696
 21
254.089339
 31
0.0
  0
LINE
  5
6B7
100
AcDbEntity
  8
5
 62
     2
100
AcDbLine
 10
-497.548782
 20
259.884894
 30
0.0
 11
-495.995868
 21
254.089339
 31
0.0
  0
LINE
  5
6B8
100
AcDbEntity
  8
5
 62
     2
100
AcDbLine
 10
-499.101696
 20
254.089339
 30
0.0
 11
-495.995868
 21
254.089339
 31
0.0
  0
LINE
  5
6B9
100
AcDbEntity
  8
5
 62
     2
100
AcDbLine
 10
-471.849273
 20
259.884894
 30
0.0
 11
-500.548782
 21
259.884894
 31
0.0
  0
ENDBLK
  5
6BA
100
AcDbEntity
  8
5
100
AcDbBlockEnd
  0
BLOCK
  5
6BB
100
AcDbEntity
  8
5
100
AcDbBlockBegin
  2
*D2
 70
     1
 10
0.0
 20
0.0
 30
0.0
  3
*D2
  1

  0
TEXT
  5
6BC
100
AcDbEntity
  8
5
 62
     2
100
AcDbText
 10
77.567484
 20
-349.353492
 30
0.0
 40
9.9
  1
24
 41
1.4
 72
     5
 11
88.655484
 21
-349.353492
 31
0.0
100
AcDbText
  0
LINE
  5
6BD
100
AcDbEntity
  8
5
 62
     2
100
AcDbLine
 10
103.427484
 20
-272.225976
 30
0.0
 11
103.427484
 21
-353.853492
 31
0.0
  0
LINE
  5
6BE
100
AcDbEntity
  8
5
 62
     2
100
AcDbLine
 10
103.427484
 20
-350.853492
 30
0.0
 11
97.631929
 21
-349.300578
 31
0.0
  0
LINE
  5
6BF
100
AcDbEntity
  8
5
 62
     2
100
AcDbLine
 10
103.427484
 20
-350.853492
 30
0.0
 11
97.631929
 21
-352.406406
 31
0.0
  0
LINE
  5
6C0
100
AcDbEntity
  8
5
 62
     2
100
AcDbLine
 10
97.631929
 20
-349.300578
 30
0.0
 11
97.631929
 21
-352.406406
 31
0.0
  0
LINE
  5
6C1
100
AcDbEntity
  8
5
 62
     2
100
AcDbLine
 10
77.567484
 20
-350.853492
 30
0.0
 11
142.427484
 21
-350.853492
 31
0.0
  0
LINE
  5
6C2
100
AcDbEntity
  8
5
 62
     2
100
AcDbLine
 10
127.427484
 20
-350.853492
 30
0.0
 11
133.223039
 21
-352.406406
 31
0.0
  0
LINE
  5
6C3
100
AcDbEntity
  8
5
 62
     2
100
AcDbLine
 10
127.427484
 20
-350.853492
 30
0.0
 11
133.223039
 21
-349.300578
 31
0.0
  0
LINE
  5
6C4
100
AcDbEntity
  8
5
 62
     2
100
AcDbLine
 10
133.223039
 20
-352.406406
 30
0.0
 11
133.223039
 21
-349.300578
 31
0.0
  0
LINE
  5
6C5
100
AcDbEntity
  8
5
 62
     2
100
AcDbLine
 10
127.427484
 20
-338.099673
 30
0.0
 11
127.427484
 21
-353.853492
 31
0.0
  0
ENDBLK
  5
6C6
100
AcDbEntity
  8
5
100
AcDbBlockEnd
  0
BLOCK
  5
6C7
100
AcDbEntity
  8
5
100
AcDbBlockBegin
  2
*D3
 70
     1
 10
0.0
 20
0.0
 30
0.0
  3
*D3
  1

  0
TEXT
  5
6C8
100
AcDbEntity
  8
5
 62
     2
100
AcDbText
 10
124.497485
 20
-377.592933
 30
0.0
 40
9.9
  1
56
 41
1.4
 72
     5
 11
135.585485
 21
-377.592933
 31
0.0
100
AcDbText
  0
LINE
  5
6C9
100
AcDbEntity
  8
5
 62
     2
100
AcDbLine
 10
103.427484
 20
-272.225976
 30
0.0
 11
103.427484
 21
-382.092933
 31
0.0
  0
LINE
  5
6CA
100
AcDbEntity
  8
5
 62
     2
100
AcDbLine
 10
103.427484
 20
-379.092933
 30
0.0
 11
109.223039
 21
-380.645847
 31
0.0
  0
LINE
  5
6CB
100
AcDbEntity
  8
5
 62
     2
100
AcDbLine
 10
103.427484
 20
-379.092933
 30
0.0
 11
109.223039
 21
-377.540019
 31
0.0
  0
LINE
  5
6CC
100
AcDbEntity
  8
5
 62
     2
100
AcDbLine
 10
109.223039
 20
-380.645847
 30
0.0
 11
109.223039
 21
-377.540019
 31
0.0
  0
LINE
  5
6CD
100
AcDbEntity
  8
5
 62
     2
100
AcDbLine
 10
103.427484
 20
-379.092933
 30
0.0
 11
159.427485
 21
-379.092933
 31
0.0
  0
LINE
  5
6CE
100
AcDbEntity
  8
5
 62
     2
100
AcDbLine
 10
159.427485
 20
-379.092933
 30
0.0
 11
153.63193
 21
-377.540019
 31
0.0
  0
LINE
  5
6CF
100
AcDbEntity
  8
5
 62
     2
100
AcDbLine
 10
159.427485
 20
-379.092933
 30
0.0
 11
153.63193
 21
-380.645847
 31
0.0
  0
LINE
  5
6D0
100
AcDbEntity
  8
5
 62
     2
100
AcDbLine
 10
153.63193
 20
-377.540019
 30
0.0
 11
153.63193
 21
-380.645847
 31
0.0
  0
LINE
  5
6D1
100
AcDbEntity
  8
5
 62
     2
100
AcDbLine
 10
159.427485
 20
-272.225976
 30
0.0
 11
159.427485
 21
-382.092933
 31
0.0
  0
ENDBLK
  5
6D2
100
AcDbEntity
  8
5
100
AcDbBlockEnd
  0
BLOCK
  5
6D3
100
AcDbEntity
  8
5
100
AcDbBlockBegin
  2
*D4
 70
     1
 10
0.0
 20
0.0
 30
0.0
  3
*D4
  1

  0
TEXT
  5
6D4
100
AcDbEntity
  8
5
 62
     2
100
AcDbText
 10
36.534387
 20
-95.620976
 30
0.0
 40
9.9
  1
185
 50
90.0
 41
1.4
 72
     5
 11
36.534387
 21
-77.602976
 31
0.0
100
AcDbText
  0
LINE
  5
6D5
100
AcDbEntity
  8
5
 62
     2
100
AcDbLine
 10
76.098261
 20
-177.725976
 30
0.0
 11
35.034387
 21
-177.725976
 31
0.0
  0
LINE
  5
6D6
100
AcDbEntity
  8
5
 62
     2
100
AcDbLine
 10
38.034387
 20
-177.725976
 30
0.0
 11
39.587301
 21
-171.930421
 31
0.0
  0
LINE
  5
6D7
100
AcDbEntity
  8
5
 62
     2
100
AcDbLine
 10
38.034387
 20
-177.725976
 30
0.0
 11
36.481473
 21
-171.930421
 31
0.0
  0
LINE
  5
6D8
100
AcDbEntity
  8
5
 62
     2
100
AcDbLine
 10
39.587301
 20
-171.930421
 30
0.0
 11
36.481473
 21
-171.930421
 31
0.0
  0
LINE
  5
6D9
100
AcDbEntity
  8
5
 62
     2
100
AcDbLine
 10
38.034387
 20
-177.725976
 30
0.0
 11
38.034387
 21
7.274025
 31
0.0
  0
LINE
  5
6DA
100
AcDbEntity
  8
5
 62
     2
100
AcDbLine
 10
38.034387
 20
7.274025
 30
0.0
 11
36.481473
 21
1.47847
 31
0.0
  0
LINE
  5
6DB
100
AcDbEntity
  8
5
 62
     2
100
AcDbLine
 10
38.034387
 20
7.274025
 30
0.0
 11
39.587301
 21
1.47847
 31
0.0
  0
LINE
  5
6DC
100
AcDbEntity
  8
5
 62
     2
100
AcDbLine
 10
36.481473
 20
1.47847
 30
0.0
 11
39.587301
 21
1.47847
 31
0.0
  0
LINE
  5
6DD
100
AcDbEntity
  8
5
 62
     2
100
AcDbLine
 10
73.427484
 20
7.274025
 30
0.0
 11
35.034387
 21
7.274025
 31
0.0
  0
ENDBLK
  5
6DE
100
AcDbEntity
  8
5
100
AcDbBlockEnd
  0
BLOCK
  5
6DF
100
AcDbEntity
  8
5
100
AcDbBlockBegin
  2
*D5
 70
     1
 10
0.0
 20
0.0
 30
0.0
  3
*D5
  1

  0
TEXT
  5
6E0
100
AcDbEntity
  8
5
 62
     2
100
AcDbText
 10
36.534387
 20
-257.120976
 30
0.0
 40
9.9
  1
138
 50
90.0
 41
1.4
 72
     5
 11
36.534387
 21
-239.102976
 31
0.0
100
AcDbText
  0
LINE
  5
6E1
100
AcDbEntity
  8
5
 62
     2
100
AcDbLine
 10
104.427483
 20
-315.725976
 30
0.0
 11
35.034387
 21
-315.725976
 31
0.0
  0
LINE
  5
6E2
100
AcDbEntity
  8
5
 62
     2
100
AcDbLine
 10
38.034387
 20
-315.725976
 30
0.0
 11
39.587301
 21
-309.930421
 31
0.0
  0
LINE
  5
6E3
100
AcDbEntity
  8
5
 62
     2
100
AcDbLine
 10
38.034387
 20
-315.725976
 30
0.0
 11
36.481473
 21
-309.930421
 31
0.0
  0
LINE
  5
6E4
100
AcDbEntity
  8
5
 62
     2
100
AcDbLine
 10
39.587301
 20
-309.930421
 30
0.0
 11
36.481473
 21
-309.930421
 31
0.0
  0
LINE
  5
6E5
100
AcDbEntity
  8
5
 62
     2
100
AcDbLine
 10
38.034387
 20
-315.725976
 30
0.0
 11
38.034387
 21
-177.725976
 31
0.0
  0
LINE
  5
6E6
100
AcDbEntity
  8
5
 62
     2
100
AcDbLine
 10
38.034387
 20
-177.725976
 30
0.0
 11
36.481473
 21
-183.521531
 31
0.0
  0
LINE
  5
6E7
100
AcDbEntity
  8
5
 62
     2
100
AcDbLine
 10
38.034387
 20
-177.725976
 30
0.0
 11
39.587301
 21
-183.521531
 31
0.0
  0
LINE
  5
6E8
100
AcDbEntity
  8
5
 62
     2
100
AcDbLine
 10
36.481473
 20
-183.521531
 30
0.0
 11
39.587301
 21
-183.521531
 31
0.0
  0
LINE
  5
6E9
100
AcDbEntity
  8
5
 62
     2
100
AcDbLine
 10
76.098261
 20
-177.725976
 30
0.0
 11
35.034387
 21
-177.725976
 31
0.0
  0
ENDBLK
  5
6EA
100
AcDbEntity
  8
5
100
AcDbBlockEnd
  0
BLOCK
  5
6EB
100
AcDbEntity
  8
5
100
AcDbBlockBegin
  2
*D6
 70
     1
 10
0.0
 20
0.0
 30
0.0
  3
*D6
  1

  0
TEXT
  5
6EC
100
AcDbEntity
  8
5
 62
     2
100
AcDbText
 10
36.534387
 20
12.844025
 30
0.0
 40
9.9
  1
25
 50
90.0
 41
1.4
 72
     5
 11
36.534387
 21
23.932024
 31
0.0
100
AcDbText
  0
LINE
  5
6ED
100
AcDbEntity
  8
5
 62
     2
100
AcDbLine
 10
73.427484
 20
7.274025
 30
0.0
 11
35.034387
 21
7.274025
 31
0.0
  0
LINE
  5
6EE
100
AcDbEntity
  8
5
 62
     2
100
AcDbLine
 10
38.034387
 20
7.274025
 30
0.0
 11
39.587301
 21
13.06958
 31
0.0
  0
LINE
  5
6EF
100
AcDbEntity
  8
5
 62
     2
100
AcDbLine
 10
38.034387
 20
7.274025
 30
0.0
 11
36.481473
 21
13.06958
 31
0.0
  0
LINE
  5
6F0
100
AcDbEntity
  8
5
 62
     2
100
AcDbLine
 10
39.587301
 20
13.06958
 30
0.0
 11
36.481473
 21
13.06958
 31
0.0
  0
LINE
  5
6F1
100
AcDbEntity
  8
5
 62
     2
100
AcDbLine
 10
38.034387
 20
7.274025
 30
0.0
 11
38.034387
 21
32.274024
 31
0.0
  0
LINE
  5
6F2
100
AcDbEntity
  8
5
 62
     2
100
AcDbLine
 10
38.034387
 20
32.274024
 30
0.0
 11
36.481473
 21
26.478469
 31
0.0
  0
LINE
  5
6F3
100
AcDbEntity
  8
5
 62
     2
100
AcDbLine
 10
38.034387
 20
32.274024
 30
0.0
 11
39.587301
 21
26.478469
 31
0.0
  0
LINE
  5
6F4
100
AcDbEntity
  8
5
 62
     2
100
AcDbLine
 10
36.481473
 20
26.478469
 30
0.0
 11
39.587301
 21
26.478469
 31
0.0
  0
LINE
  5
6F5
100
AcDbEntity
  8
5
 62
     2
100
AcDbLine
 10
61.865038
 20
32.274024
 30
0.0
 11
35.034387
 21
32.274024
 31
0.0
  0
ENDBLK
  5
6F6
100
AcDbEntity
  8
5
100
AcDbBlockEnd
  0
BLOCK
  5
6F7
100
AcDbEntity
  8
5
100
AcDbBlockBegin
  2
*D7
 70
     1
 10
0.0
 20
0.0
 30
0.0
  3
*D7
  1

  0
LINE
  5
6F8
100
AcDbEntity
  8
5
 62
     2
100
AcDbLine
 10
61.865038
 20
32.274024
 30
0.0
 11
35.034387
 21
32.274024
 31
0.0
  0
LINE
  5
6F9
100
AcDbEntity
  8
5
 62
     2
100
AcDbLine
 10
38.034387
 20
32.274024
 30
0.0
 11
39.587301
 21
38.069579
 31
0.0
  0
LINE
  5
6FA
100
AcDbEntity
  8
5
 62
     2
100
AcDbLine
 10
38.034387
 20
32.274024
 30
0.0
 11
36.481473
 21
38.069579
 31
0.0
  0
LINE
  5
6FB
100
AcDbEntity
  8
5
 62
     2
100
AcDbLine
 10
39.587301
 20
38.069579
 30
0.0
 11
36.481473
 21
38.069579
 31
0.0
  0
LINE
  5
6FC
100
AcDbEntity
  8
5
 62
     2
100
AcDbLine
 10
38.034387
 20
32.274024
 30
0.0
 11
38.034387
 21
124.588398
 31
0.0
  0
LINE
  5
6FD
100
AcDbEntity
  8
5
 62
     2
100
AcDbLine
 10
38.034387
 20
124.588398
 30
0.0
 11
36.481473
 21
118.792843
 31
0.0
  0
LINE
  5
6FE
100
AcDbEntity
  8
5
 62
     2
100
AcDbLine
 10
38.034387
 20
124.588398
 30
0.0
 11
39.587301
 21
118.792843
 31
0.0
  0
LINE
  5
6FF
100
AcDbEntity
  8
5
 62
     2
100
AcDbLine
 10
36.481473
 20
118.792843
 30
0.0
 11
39.587301
 21
118.792843
 31
0.0
  0
LINE
  5
700
100
AcDbEntity
  8
5
 62
     2
100
AcDbLine
 10
124.427484
 20
124.588398
 30
0.0
 11
35.034387
 21
124.588398
 31
0.0
  0
ENDBLK
  5
701
100
AcDbEntity
  8
5
100
AcDbBlockEnd
  0
BLOCK
  5
702
100
AcDbEntity
  8
5
100
AcDbBlockBegin
  2
*D8
 70
     1
 10
0.0
 20
0.0
 30
0.0
  3
*D8
  1

  0
LINE
  5
703
100
AcDbEntity
  8
5
 62
     2
100
AcDbLine
 10
-352.782075
 20
86.744856
 30
0.0
 11
-352.782075
 21
144.359528
 31
0.0
  0
LINE
  5
704
100
AcDbEntity
  8
5
 62
     2
100
AcDbLine
 10
-352.782075
 20
141.359528
 30
0.0
 11
-346.98652
 21
139.806613
 31
0.0
  0
LINE
  5
705
100
AcDbEntity
  8
5
 62
     2
100
AcDbLine
 10
-352.782075
 20
141.359528
 30
0.0
 11
-346.98652
 21
142.912442
 31
0.0
  0
LINE
  5
706
100
AcDbEntity
  8
5
 62
     2
100
AcDbLine
 10
-346.98652
 20
139.806613
 30
0.0
 11
-346.98652
 21
142.912442
 31
0.0
  0
LINE
  5
707
100
AcDbEntity
  8
5
 62
     2
100
AcDbLine
 10
-352.782075
 20
141.359528
 30
0.0
 11
-52.981106
 21
141.359528
 31
0.0
  0
LINE
  5
708
100
AcDbEntity
  8
5
 62
     2
100
AcDbLine
 10
-52.981106
 20
141.359528
 30
0.0
 11
-58.776661
 21
142.912442
 31
0.0
  0
LINE
  5
709
100
AcDbEntity
  8
5
 62
     2
100
AcDbLine
 10
-52.981106
 20
141.359528
 30
0.0
 11
-58.776661
 21
139.806613
 31
0.0
  0
LINE
  5
70A
100
AcDbEntity
  8
5
 62
     2
100
AcDbLine
 10
-58.776661
 20
142.912442
 30
0.0
 11
-58.776661
 21
139.806613
 31
0.0
  0
LINE
  5
70B
100
AcDbEntity
  8
5
 62
     2
100
AcDbLine
 10
-52.981106
 20
117.210397
 30
0.0
 11
-52.981106
 21
144.359528
 31
0.0
  0
ENDBLK
  5
70C
100
AcDbEntity
  8
5
100
AcDbBlockEnd
  0
BLOCK
  5
70D
100
AcDbEntity
  8
18
100
AcDbBlockBegin
  2
*D9
 70
     1
 10
0.0
 20
0.0
 30
0.0
  3
*D9
  1

  0
LINE
  5
70E
100
AcDbEntity
  8
18
 62
     2
100
AcDbLine
 10
503.604291
 20
301.541109
 30
0.0
 11
503.604291
 21
328.720239
 31
0.0
  0
LINE
  5
70F
100
AcDbEntity
  8
18
 62
     2
100
AcDbLine
 10
500.604291
 20
298.541109
 30
0.0
 11
473.425161
 21
298.541109
 31
0.0
  0
LINE
  5
710
100
AcDbEntity
  8
18
 62
     2
100
AcDbLine
 10
503.604291
 20
325.720239
 30
0.0
 11
497.676202
 21
326.646393
 31
0.0
  0
LINE
  5
711
100
AcDbEntity
  8
18
 62
     2
100
AcDbLine
 10
503.604291
 20
325.720239
 30
0.0
 11
498.007338
 21
323.558267
 31
0.0
  0
LINE
  5
712
100
AcDbEntity
  8
18
 62
     2
100
AcDbLine
 10
497.676202
 20
326.646393
 30
0.0
 11
498.007338
 21
323.558267
 31
0.0
  0
LINE
  5
713
100
AcDbEntity
  8
18
 62
     2
100
AcDbLine
 10
476.425161
 20
298.541109
 30
0.0
 11
478.587133
 21
304.138062
 31
0.0
  0
LINE
  5
714
100
AcDbEntity
  8
18
 62
     2
100
AcDbLine
 10
476.425161
 20
298.541109
 30
0.0
 11
475.499007
 21
304.469198
 31
0.0
  0
LINE
  5
715
100
AcDbEntity
  8
18
 62
     2
100
AcDbLine
 10
478.587133
 20
304.138062
 30
0.0
 11
475.499007
 21
304.469198
 31
0.0
  0
ARC
  5
716
100
AcDbEntity
  8
18
 62
     2
100
AcDbCircle
 10
503.604291
 20
298.541109
 30
0.0
 40
27.17913
100
AcDbArc
 50
90.0
 51
180.0
  0
ENDBLK
  5
717
100
AcDbEntity
  8
18
100
AcDbBlockEnd
  0
BLOCK
  5
718
100
AcDbEntity
  8
18
100
AcDbBlockBegin
  2
*D10
 70
     1
 10
0.0
 20
0.0
 30
0.0
  3
*D10
  1

  0
LINE
  5
719
100
AcDbEntity
  8
18
 62
     2
100
AcDbLine
 10
416.778063
 20
315.602793
 30
0.0
 11
389.598933
 21
315.602793
 31
0.0
  0
LINE
  5
71A
100
AcDbEntity
  8
18
 62
     2
100
AcDbLine
 10
419.778063
 20
312.602793
 30
0.0
 11
419.778063
 21
285.423663
 31
0.0
  0
LINE
  5
71B
100
AcDbEntity
  8
18
 62
     2
100
AcDbLine
 10
392.598933
 20
315.602793
 30
0.0
 11
391.672779
 21
309.674704
 31
0.0
  0
LINE
  5
71C
100
AcDbEntity
  8
18
 62
     2
100
AcDbLine
 10
392.598933
 20
315.602793
 30
0.0
 11
394.760905
 21
310.00584
 31
0.0
  0
LINE
  5
71D
100
AcDbEntity
  8
18
 62
     2
100
AcDbLine
 10
391.672779
 20
309.674704
 30
0.0
 11
394.760905
 21
310.00584
 31
0.0
  0
LINE
  5
71E
100
AcDbEntity
  8
18
 62
     2
100
AcDbLine
 10
419.778063
 20
288.423663
 30
0.0
 11
414.18111
 21
290.585635
 31
0.0
  0
LINE
  5
71F
100
AcDbEntity
  8
18
 62
     2
100
AcDbLine
 10
419.778063
 20
288.423663
 30
0.0
 11
413.849974
 21
287.497509
 31
0.0
  0
LINE
  5
720
100
AcDbEntity
  8
18
 62
     2
100
AcDbLine
 10
414.18111
 20
290.585635
 30
0.0
 11
413.849974
 21
287.497509
 31
0.0
  0
ARC
  5
721
100
AcDbEntity
  8
18
 62
     2
100
AcDbCircle
 10
419.778063
 20
315.602793
 30
0.0
 40
27.17913
100
AcDbArc
 50
180.0
 51
270.0
  0
ENDBLK
  5
722
100
AcDbEntity
  8
18
100
AcDbBlockEnd
  0
BLOCK
  5
723
100
AcDbEntity
  8
18
100
AcDbBlockBegin
  2
*D11
 70
     1
 10
0.0
 20
0.0
 30
0.0
  3
*D11
  1

  0
LINE
  5
724
100
AcDbEntity
  8
18
 62
     2
100
AcDbLine
 10
329.298843
 20
310.430103
 30
0.0
 11
329.298843
 21
283.250973
 31
0.0
  0
LINE
  5
725
100
AcDbEntity
  8
18
 62
     2
100
AcDbLine
 10
332.298843
 20
313.430103
 30
0.0
 11
359.477973
 21
313.430103
 31
0.0
  0
LINE
  5
726
100
AcDbEntity
  8
18
 62
     2
100
AcDbLine
 10
329.298843
 20
286.250973
 30
0.0
 11
335.226932
 21
285.324819
 31
0.0
  0
LINE
  5
727
100
AcDbEntity
  8
18
 62
     2
100
AcDbLine
 10
329.298843
 20
286.250973
 30
0.0
 11
334.895796
 21
288.412945
 31
0.0
  0
LINE
  5
728
100
AcDbEntity
  8
18
 62
     2
100
AcDbLine
 10
335.226932
 20
285.324819
 30
0.0
 11
334.895796
 21
288.412945
 31
0.0
  0
LINE
  5
729
100
AcDbEntity
  8
18
 62
     2
100
AcDbLine
 10
356.477973
 20
313.430103
 30
0.0
 11
354.316001
 21
307.83315
 31
0.0
  0
LINE
  5
72A
100
AcDbEntity
  8
18
 62
     2
100
AcDbLine
 10
356.477973
 20
313.430103
 30
0.0
 11
357.404127
 21
307.502014
 31
0.0
  0
LINE
  5
72B
100
AcDbEntity
  8
18
 62
     2
100
AcDbLine
 10
354.316001
 20
307.83315
 30
0.0
 11
357.404127
 21
307.502014
 31
0.0
  0
ARC
  5
72C
100
AcDbEntity
  8
18
 62
     2
100
AcDbCircle
 10
329.298843
 20
313.430103
 30
0.0
 40
27.17913
100
AcDbArc
 50
270.0
 51
360.0
  0
ENDBLK
  5
72D
100
AcDbEntity
  8
18
100
AcDbBlockEnd
  0
ENDSEC
  0
SECTION
  2
ENTITIES
  0
LINE
  5
34
100
AcDbEntity
  8
1
  6
CENTER
 62
     2
100
AcDbLine
 10
127.427484
 20
127.46767
 30
0.0
 11
127.427484
 21
-335.099673
 31
0.0
  0
LINE
  5
35
100
AcDbEntity
  8
1
  6
CENTER
 62
     2
100
AcDbLine
 10
-352.782075
 20
83.744856
 30
0.0
 11
-352.782075
 21
-335.099673
 31
0.0
  0
LINE
  5
36
100
AcDbEntity
  8
1
  6
DASHED
100
AcDbLine
 10
-301.782075
 20
232.384896
 30
0.0
 11
-301.782075
 21
287.384895
 31
0.0
  0
LINE
  5
37
100
AcDbEntity
  8
1
  6
DASHED
100
AcDbLine
 10
-403.782075
 20
232.384896
 30
0.0
 11
-403.782075
 21
287.384895
 31
0.0
  0
LINE
  5
38
100
AcDbEntity
  8
1
  6
DASHED
100
AcDbLine
 10
-380.282076
 20
310.884894
 30
0.0
 11
-325.282074
 21
310.884894
 31
0.0
  0
LINE
  5
39
100
AcDbEntity
  8
1
  6
DASHED
100
AcDbLine
 10
-380.282076
 20
208.884894
 30
0.0
 11
-325.282074
 21
208.884894
 31
0.0
  0
ARC
  5
3A
100
AcDbEntity
  8
1
  6
DASHED
100
AcDbCircle
 10
-380.282076
 20
232.384896
 30
0.0
 40
23.499999
100
AcDbArc
 50
180.0
 51
270.0
  0
ARC
  5
3B
100
AcDbEntity
  8
1
  6
DASHED
100
AcDbCircle
 10
-325.282074
 20
232.384896
 30
0.0
 40
23.499999
100
AcDbArc
 50
270.0
 51
360.0
  0
ARC
  5
3C
100
AcDbEntity
  8
1
  6
DASHED
100
AcDbCircle
 10
-325.282074
 20
287.384895
 30
0.0
 40
23.499999
100
AcDbArc
 50
0.0
 51
90.0
  0
ARC
  5
3D
100
AcDbEntity
  8
1
  6
DASHED
100
AcDbCircle
 10
-380.282076
 20
287.384895
 30
0.0
 40
23.499999
100
AcDbArc
 50
90.0
 51
180.0
  0
LINE
  5
3E
100
AcDbEntity
  8
1
  6
CENTER
 62
     2
100
AcDbLine
 10
-354.632076
 20
202.241337
 30
0.0
 11
-354.632076
 21
315.910155
 31
0.0
  0
LINE
  5
3F
100
AcDbEntity
  8
1
  6
CENTER
 62
     2
100
AcDbLine
 10
-324.851358
 20
287.815614
 30
0.0
 11
-308.587902
 21
304.07907
 31
0.0
  0
CIRCLE
  5
40
100
AcDbEntity
  8
1
  6
DASHED
100
AcDbCircle
 10
-316.71963
 20
295.947342
 30
0.0
 40
5.499999
  0
ARC
  5
41
100
AcDbEntity
  8
1
  6
CENTER
 62
     2
100
AcDbCircle
 10
-352.782075
 20
259.884894
 30
0.0
 40
51.0
100
AcDbArc
 50
32.052834
 51
57.947166
  0
CIRCLE
  5
42
100
AcDbEntity
  8
1
  6
DASHED
100
AcDbCircle
 10
-388.84452
 20
295.947342
 30
0.0
 40
5.499999
  0
ARC
  5
43
100
AcDbEntity
  8
1
  6
CENTER
 62
     2
100
AcDbCircle
 10
-352.782075
 20
259.884894
 30
0.0
 40
51.0
100
AcDbArc
 50
122.052834
 51
147.947166
  0
LINE
  5
44
100
AcDbEntity
  8
1
  6
CENTER
 62
     2
100
AcDbLine
 10
-380.712792
 20
287.815614
 30
0.0
 11
-396.976248
 21
304.07907
 31
0.0
  0
CIRCLE
  5
45
100
AcDbEntity
  8
1
  6
DASHED
100
AcDbCircle
 10
-316.71963
 20
223.822449
 30
0.0
 40
5.499999
  0
LINE
  5
46
100
AcDbEntity
  8
1
  6
CENTER
 62
     2
100
AcDbLine
 10
-324.851358
 20
231.954177
 30
0.0
 11
-308.587902
 21
215.690721
 31
0.0
  0
ARC
  5
47
100
AcDbEntity
  8
1
  6
CENTER
 62
     2
100
AcDbCircle
 10
-352.782075
 20
259.884894
 30
0.0
 40
51.0
100
AcDbArc
 50
302.052834
 51
327.947166
  0
LINE
  5
48
100
AcDbEntity
  8
1
  6
CENTER
 62
     2
100
AcDbLine
 10
-380.712792
 20
231.954177
 30
0.0
 11
-396.976248
 21
215.690721
 31
0.0
  0
CIRCLE
  5
49
100
AcDbEntity
  8
1
  6
DASHED
100
AcDbCircle
 10
-388.84452
 20
223.822449
 30
0.0
 40
5.499999
  0
ARC
  5
4A
100
AcDbEntity
  8
1
  6
CENTER
 62
     2
100
AcDbCircle
 10
-352.782075
 20
259.884894
 30
0.0
 40
51.0
100
AcDbArc
 50
212.052834
 51
237.947166
  0
LINE
  5
4B
100
AcDbEntity
  8
1
100
AcDbLine
 10
-342.782076
 20
34.274024
 30
0.0
 11
-342.782076
 21
43.274025
 31
0.0
  0
LINE
  5
4C
100
AcDbEntity
  8
1
100
AcDbLine
 10
-362.782074
 20
34.274024
 30
0.0
 11
-362.782074
 21
43.274025
 31
0.0
  0
LINE
  5
4D
100
AcDbEntity
  8
1
  6
CENTER
 62
     2
100
AcDbLine
 10
-477.984798
 20
-177.725976
 30
0.0
 11
-234.255648
 21
-177.725976
 31
0.0
  0
LINE
  5
4E
100
AcDbEntity
  8
1
100
AcDbLine
 10
-403.782075
 20
7.274025
 30
0.0
 11
-301.782075
 21
7.274025
 31
0.0
  0
LINE
  5
4F
100
AcDbEntity
  8
1
100
AcDbLine
 10
-399.782076
 20
-7.725975
 30
0.0
 11
-305.782074
 21
-7.725975
 31
0.0
  0
LINE
  5
50
100
AcDbEntity
  8
1
100
AcDbLine
 10
-403.782075
 20
-3.725976
 30
0.0
 11
-403.782075
 21
7.274025
 31
0.0
  0
LINE
  5
51
100
AcDbEntity
  8
1
100
AcDbLine
 10
-301.782075
 20
-3.725976
 30
0.0
 11
-301.782075
 21
7.274025
 31
0.0
  0
ARC
  5
52
100
AcDbEntity
  8
1
100
AcDbCircle
 10
-305.782074
 20
-3.725976
 30
0.0
 40
3.999999
100
AcDbArc
 50
270.0
 51
360.0
  0
ARC
  5
53
100
AcDbEntity
  8
1
100
AcDbCircle
 10
-399.782076
 20
-3.725976
 30
0.0
 40
3.999999
100
AcDbArc
 50
180.0
 51
270.0
  0
CIRCLE
  5
54
100
AcDbEntity
  8
1
100
AcDbCircle
 10
-354.632076
 20
-177.725976
 30
0.0
 40
91.5
  0
LINE
  5
55
100
AcDbEntity
  8
1
100
AcDbLine
 10
-376.632075
 20
-85.080144
 30
0.0
 11
-376.632075
 21
-15.725976
 31
0.0
  0
LINE
  5
56
100
AcDbEntity
  8
1
100
AcDbLine
 10
-332.632074
 20
-85.080144
 30
0.0
 11
-332.632074
 21
-15.725976
 31
0.0
  0
ARC
  5
57
100
AcDbEntity
  8
1
100
AcDbCircle
 10
-324.632076
 20
-15.725976
 30
0.0
 40
8.000001
100
AcDbArc
 50
99.261709
 51
180.0
  0
ARC
  5
58
100
AcDbEntity
  8
1
100
AcDbCircle
 10
-384.632076
 20
-15.725976
 30
0.0
 40
8.000001
100
AcDbArc
 50
0.0
 51
90.0
  0
ARC
  5
59
100
AcDbEntity
  8
1
100
AcDbCircle
 10
-327.632076
 20
-85.080144
 30
0.0
 40
5.000001
100
AcDbArc
 50
180.0
 51
253.752164
  0
ARC
  5
5A
100
AcDbEntity
  8
1
100
AcDbCircle
 10
-381.632076
 20
-85.080144
 30
0.0
 40
5.000001
100
AcDbArc
 50
286.247836
 51
360.0
  0
ARC
  5
5B
100
AcDbEntity
  8
1
100
AcDbCircle
 10
-300.910842
 20
-37.375212
 30
0.0
 40
30.0
100
AcDbArc
 50
98.237199
 51
102.726235
  0
ARC
  5
5C
100
AcDbEntity
  8
1
100
AcDbCircle
 10
-409.669128
 20
-36.256671
 30
0.0
 40
30.0
100
AcDbArc
 50
48.643586
 51
73.094403
  0
ARC
  5
5D
100
AcDbEntity
  8
1
100
AcDbCircle
 10
-332.632074
 20
1.274025
 30
0.0
 40
20.000001
100
AcDbArc
 50
277.494717
 51
289.245926
  0
ARC
  5
5E
100
AcDbEntity
  8
1
100
AcDbCircle
 10
-376.632075
 20
1.274025
 30
0.0
 40
20.000001
100
AcDbArc
 50
228.643586
 51
262.505283
  0
ARC
  5
5F
100
AcDbEntity
  8
1
100
AcDbCircle
 10
-329.632074
 20
-21.529485
 30
0.0
 40
3.0
100
AcDbArc
 50
97.494717
 51
180.0
  0
ARC
  5
60
100
AcDbEntity
  8
1
100
AcDbCircle
 10
-379.632075
 20
-21.529485
 30
0.0
 40
3.0
100
AcDbArc
 50
0.0
 51
82.505283
  0
LINE
  5
61
100
AcDbEntity
  8
1
100
AcDbLine
 10
-348.782076
 20
-37.356318
 30
0.0
 11
-356.782074
 21
-37.356318
 31
0.0
  0
LINE
  5
62
100
AcDbEntity
  8
1
100
AcDbLine
 10
-356.782074
 20
-33.356319
 30
0.0
 11
-356.782074
 21
-11.725974
 31
0.0
  0
LINE
  5
63
100
AcDbEntity
  8
1
100
AcDbLine
 10
-348.782076
 20
-33.356319
 30
0.0
 11
-348.782076
 21
-11.725974
 31
0.0
  0
ARC
  5
64
100
AcDbEntity
  8
1
100
AcDbCircle
 10
-344.782074
 20
-33.356319
 30
0.0
 40
3.999999
100
AcDbArc
 50
180.0
 51
270.0
  0
ARC
  5
65
100
AcDbEntity
  8
1
100
AcDbCircle
 10
-360.782076
 20
-33.356319
 30
0.0
 40
3.999999
100
AcDbArc
 50
270.0
 51
360.0
  0
ARC
  5
66
100
AcDbEntity
  8
1
100
AcDbCircle
 10
-360.782076
 20
-11.725974
 30
0.0
 40
3.999999
100
AcDbArc
 50
0.0
 51
90.0
  0
ARC
  5
67
100
AcDbEntity
  8
1
100
AcDbCircle
 10
-344.782074
 20
-11.725974
 30
0.0
 40
3.999999
100
AcDbArc
 50
90.0
 51
180.0
  0
LINE
  5
68
100
AcDbEntity
  8
1
100
AcDbLine
 10
-382.132074
 20
-302.725974
 30
0.0
 11
-327.132075
 21
-302.725974
 31
0.0
  0
LINE
  5
69
100
AcDbEntity
  8
1
100
AcDbLine
 10
-376.632075
 20
-283.154907
 30
0.0
 11
-376.632075
 21
-270.371805
 31
0.0
  0
LINE
  5
6A
100
AcDbEntity
  8
1
100
AcDbLine
 10
-332.632074
 20
-283.154907
 30
0.0
 11
-332.632074
 21
-270.371805
 31
0.0
  0
ARC
  5
6B
100
AcDbEntity
  8
1
100
AcDbCircle
 10
-327.632076
 20
-270.371805
 30
0.0
 40
5.000001
100
AcDbArc
 50
106.247836
 51
180.0
  0
ARC
  5
6C
100
AcDbEntity
  8
1
100
AcDbCircle
 10
-381.632076
 20
-270.371805
 30
0.0
 40
5.000001
100
AcDbArc
 50
0.0
 51
73.752164
  0
LINE
  5
6D
100
AcDbEntity
  8
1
100
AcDbLine
 10
-382.132074
 20
-310.225974
 30
0.0
 11
-382.132074
 21
-292.797042
 31
0.0
  0
LINE
  5
6E
100
AcDbEntity
  8
1
100
AcDbLine
 10
-327.132075
 20
-310.225974
 30
0.0
 11
-327.132075
 21
-292.797042
 31
0.0
  0
LINE
  5
6F
100
AcDbEntity
  8
1
100
AcDbLine
 10
-380.667609
 20
-289.261509
 30
0.0
 11
-378.09654
 21
-286.69044
 31
0.0
  0
LINE
  5
70
100
AcDbEntity
  8
1
100
AcDbLine
 10
-328.59654
 20
-289.261509
 30
0.0
 11
-331.167609
 21
-286.69044
 31
0.0
  0
ARC
  5
71
100
AcDbEntity
  8
1
100
AcDbCircle
 10
-377.132076
 20
-292.797042
 30
0.0
 40
5.000001
100
AcDbArc
 50
135.0
 51
180.0
  0
ARC
  5
72
100
AcDbEntity
  8
1
100
AcDbCircle
 10
-381.632076
 20
-283.154907
 30
0.0
 40
5.000001
100
AcDbArc
 50
315.0
 51
360.0
  0
ARC
  5
73
100
AcDbEntity
  8
1
100
AcDbCircle
 10
-332.132076
 20
-292.797042
 30
0.0
 40
5.000001
100
AcDbArc
 50
0.0
 51
45.0
  0
ARC
  5
74
100
AcDbEntity
  8
1
100
AcDbCircle
 10
-327.632076
 20
-283.154907
 30
0.0
 40
5.000001
100
AcDbArc
 50
180.0
 51
225.0
  0
LINE
  5
75
100
AcDbEntity
  8
1
  6
CENTER
 62
     2
100
AcDbLine
 10
-375.632076
 20
-321.536838
 30
0.0
 11
-375.632076
 21
-294.13779
 31
0.0
  0
LINE
  5
76
100
AcDbEntity
  8
1
  6
CENTER
 62
     2
100
AcDbLine
 10
-333.632076
 20
-321.536838
 30
0.0
 11
-333.632076
 21
-294.13779
 31
0.0
  0
LINE
  5
77
100
AcDbEntity
  8
1
100
AcDbLine
 10
-454.030263
 20
-148.725975
 30
0.0
 11
-446.996841
 21
-148.725975
 31
0.0
  0
LINE
  5
78
100
AcDbEntity
  8
1
100
AcDbLine
 10
-262.267308
 20
-148.725975
 30
0.0
 11
-255.233886
 21
-148.725975
 31
0.0
  0
LINE
  5
79
100
AcDbEntity
  8
1
100
AcDbLine
 10
-454.030263
 20
-206.725974
 30
0.0
 11
-446.996841
 21
-206.725974
 31
0.0
  0
LINE
  5
7A
100
AcDbEntity
  8
1
100
AcDbLine
 10
-262.267308
 20
-206.725974
 30
0.0
 11
-255.233886
 21
-206.725974
 31
0.0
  0
LINE
  5
7B
100
AcDbEntity
  8
1
100
AcDbLine
 10
-253.254006
 20
-156.666831
 30
0.0
 11
-259.46415
 21
-159.968826
 31
0.0
  0
LINE
  5
7C
100
AcDbEntity
  8
1
100
AcDbLine
 10
-456.010143
 20
-198.785118
 30
0.0
 11
-449.799999
 21
-195.483126
 31
0.0
  0
LINE
  5
7D
100
AcDbEntity
  8
1
100
AcDbLine
 10
-253.254006
 20
-198.785118
 30
0.0
 11
-259.46415
 21
-195.483126
 31
0.0
  0
LINE
  5
7E
100
AcDbEntity
  8
1
100
AcDbLine
 10
-456.010143
 20
-156.666831
 30
0.0
 11
-449.799999
 21
-159.968826
 31
0.0
  0
ARC
  5
7F
100
AcDbEntity
  8
1
100
AcDbCircle
 10
-354.632076
 20
-177.725976
 30
0.0
 40
105.0
100
AcDbArc
 50
12.803162
 51
15.196838
  0
ARC
  5
80
100
AcDbEntity
  8
1
100
AcDbCircle
 10
-354.632076
 20
-177.725976
 30
0.0
 40
105.0
100
AcDbArc
 50
164.803162
 51
167.196838
  0
ARC
  5
81
100
AcDbEntity
  8
1
100
AcDbCircle
 10
-354.632076
 20
-177.725976
 30
0.0
 40
105.0
100
AcDbArc
 50
192.803162
 51
195.196838
  0
ARC
  5
82
100
AcDbEntity
  8
1
100
AcDbCircle
 10
-354.632076
 20
-177.725976
 30
0.0
 40
105.0
100
AcDbArc
 50
344.803162
 51
347.196838
  0
ARC
  5
83
100
AcDbEntity
  8
1
100
AcDbCircle
 10
-255.233886
 20
-150.725976
 30
0.0
 40
2.000001
100
AcDbArc
 50
15.196838
 51
90.0
  0
ARC
  5
84
100
AcDbEntity
  8
1
100
AcDbCircle
 10
-254.192952
 20
-154.900938
 30
0.0
 40
2.000001
100
AcDbArc
 50
298.0
 51
12.803162
  0
ARC
  5
85
100
AcDbEntity
  8
1
100
AcDbCircle
 10
-254.192952
 20
-200.551014
 30
0.0
 40
2.000001
100
AcDbArc
 50
347.196838
 51
62.0
  0
ARC
  5
86
100
AcDbEntity
  8
1
100
AcDbCircle
 10
-255.233886
 20
-204.725976
 30
0.0
 40
2.000001
100
AcDbArc
 50
270.0
 51
344.803162
  0
ARC
  5
87
100
AcDbEntity
  8
1
100
AcDbCircle
 10
-262.267308
 20
-140.725974
 30
0.0
 40
8.000001
100
AcDbArc
 50
201.830331
 51
270.0
  0
ARC
  5
88
100
AcDbEntity
  8
1
100
AcDbCircle
 10
-255.708378
 20
-167.032404
 30
0.0
 40
8.000001
100
AcDbArc
 50
118.0
 51
186.169669
  0
ARC
  5
89
100
AcDbEntity
  8
1
100
AcDbCircle
 10
-255.708378
 20
-188.419545
 30
0.0
 40
8.000001
100
AcDbArc
 50
173.830331
 51
242.0
  0
ARC
  5
8A
100
AcDbEntity
  8
1
100
AcDbCircle
 10
-262.267308
 20
-214.725975
 30
0.0
 40
8.000001
100
AcDbArc
 50
90.0
 51
158.169669
  0
ARC
  5
8B
100
AcDbEntity
  8
1
100
AcDbCircle
 10
-446.996841
 20
-140.725974
 30
0.0
 40
8.000001
100
AcDbArc
 50
270.0
 51
338.169669
  0
ARC
  5
8C
100
AcDbEntity
  8
1
100
AcDbCircle
 10
-453.555771
 20
-167.032404
 30
0.0
 40
8.000001
100
AcDbArc
 50
353.830331
 51
62.0
  0
ARC
  5
8D
100
AcDbEntity
  8
1
100
AcDbCircle
 10
-453.555771
 20
-188.419545
 30
0.0
 40
8.000001
100
AcDbArc
 50
298.0
 51
6.169669
  0
ARC
  5
8E
100
AcDbEntity
  8
1
100
AcDbCircle
 10
-446.996841
 20
-214.725975
 30
0.0
 40
8.000001
100
AcDbArc
 50
21.830331
 51
90.0
  0
ARC
  5
8F
100
AcDbEntity
  8
1
100
AcDbCircle
 10
-455.0712
 20
-200.551014
 30
0.0
 40
2.000001
100
AcDbArc
 50
118.0
 51
192.803162
  0
ARC
  5
90
100
AcDbEntity
  8
1
100
AcDbCircle
 10
-454.030263
 20
-204.725976
 30
0.0
 40
2.000001
100
AcDbArc
 50
195.196838
 51
270.0
  0
ARC
  5
91
100
AcDbEntity
  8
1
100
AcDbCircle
 10
-455.0712
 20
-154.900938
 30
0.0
 40
2.000001
100
AcDbArc
 50
167.196838
 51
242.0
  0
ARC
  5
92
100
AcDbEntity
  8
1
100
AcDbCircle
 10
-454.030263
 20
-150.725976
 30
0.0
 40
2.000001
100
AcDbArc
 50
90.0
 51
164.803162
  0
CIRCLE
  5
93
100
AcDbEntity
  8
1
100
AcDbCircle
 10
-354.632076
 20
-177.725976
 30
0.0
 40
68.499999
  0
ARC
  5
94
100
AcDbEntity
  8
1
100
AcDbCircle
 10
-354.632076
 20
-177.725976
 30
0.0
 40
134.499999
100
AcDbArc
 50
72.008234
 51
78.840063
  0
ARC
  5
95
100
AcDbEntity
  8
1
100
AcDbCircle
 10
-354.632076
 20
-177.725976
 30
0.0
 40
134.499999
100
AcDbArc
 50
101.159937
 51
107.991766
  0
ARC
  5
96
100
AcDbEntity
  8
1
100
AcDbCircle
 10
-327.632076
 20
-40.863819
 30
0.0
 40
5.000001
100
AcDbArc
 50
180.0
 51
258.840063
  0
ARC
  5
97
100
AcDbEntity
  8
1
100
AcDbCircle
 10
-381.632076
 20
-40.863819
 30
0.0
 40
5.000001
100
AcDbArc
 50
281.159937
 51
360.0
  0
ARC
  5
98
100
AcDbEntity
  8
1
100
AcDbCircle
 10
-394.632075
 20
-54.558408
 30
0.0
 40
5.000001
100
AcDbArc
 50
107.991766
 51
243.462271
  0
ARC
  5
99
100
AcDbEntity
  8
1
100
AcDbCircle
 10
-314.632074
 20
-54.558408
 30
0.0
 40
5.000001
100
AcDbArc
 50
296.537729
 51
72.008234
  0
LINE
  5
9A
100
AcDbEntity
  8
1
100
AcDbLine
 10
-325.576896
 20
-72.605169
 30
0.0
 11
-328.153182
 21
-82.219995
 31
0.0
  0
LINE
  5
9B
100
AcDbEntity
  8
1
100
AcDbLine
 10
-383.687253
 20
-72.605169
 30
0.0
 11
-381.110967
 21
-82.219995
 31
0.0
  0
ARC
  5
9C
100
AcDbEntity
  8
1
100
AcDbCircle
 10
-309.666771
 20
-69.17013
 30
0.0
 40
10.5
100
AcDbArc
 50
105.077794
 51
151.76083
  0
ARC
  5
9D
100
AcDbEntity
  8
1
100
AcDbCircle
 10
-312.536898
 20
-76.099227
 30
0.0
 40
13.5
100
AcDbArc
 50
118.20352
 51
165.0
  0
ARC
  5
9E
100
AcDbEntity
  8
1
100
AcDbCircle
 10
-399.597378
 20
-69.17013
 30
0.0
 40
10.5
100
AcDbArc
 50
28.23917
 51
74.922206
  0
ARC
  5
9F
100
AcDbEntity
  8
1
100
AcDbCircle
 10
-396.727251
 20
-76.099227
 30
0.0
 40
13.5
100
AcDbArc
 50
15.0
 51
61.79648
  0
ARC
  5
A0
100
AcDbEntity
  8
1
100
AcDbCircle
 10
-320.425773
 20
-84.290547
 30
0.0
 40
8.000001
100
AcDbArc
 50
165.0
 51
249.892543
  0
ARC
  5
A1
100
AcDbEntity
  8
1
100
AcDbCircle
 10
-388.838376
 20
-84.290547
 30
0.0
 40
8.000001
100
AcDbArc
 50
290.107457
 51
15.0
  0
ARC
  5
A2
100
AcDbEntity
  8
1
100
AcDbCircle
 10
-312.536898
 20
-279.352725
 30
0.0
 40
13.5
100
AcDbArc
 50
195.0
 51
241.79648
  0
ARC
  5
A3
100
AcDbEntity
  8
1
100
AcDbCircle
 10
-396.727251
 20
-279.352725
 30
0.0
 40
13.5
100
AcDbArc
 50
298.20352
 51
345.0
  0
LINE
  5
A4
100
AcDbEntity
  8
1
100
AcDbLine
 10
-325.576896
 20
-282.84678
 30
0.0
 11
-328.153182
 21
-273.231954
 31
0.0
  0
LINE
  5
A5
100
AcDbEntity
  8
1
100
AcDbLine
 10
-383.687253
 20
-282.84678
 30
0.0
 11
-381.110967
 21
-273.231954
 31
0.0
  0
ARC
  5
A6
100
AcDbEntity
  8
1
100
AcDbCircle
 10
-320.425773
 20
-271.161402
 30
0.0
 40
8.000001
100
AcDbArc
 50
110.107457
 51
195.0
  0
ARC
  5
A7
100
AcDbEntity
  8
1
100
AcDbCircle
 10
-388.838376
 20
-271.161402
 30
0.0
 40
8.000001
100
AcDbArc
 50
345.0
 51
69.892543
  0
LINE
  5
A8
100
AcDbEntity
  8
1
100
AcDbLine
 10
-389.432658
 20
-300.725976
 30
0.0
 11
-384.132075
 21
-300.725976
 31
0.0
  0
LINE
  5
A9
100
AcDbEntity
  8
1
100
AcDbLine
 10
-325.132074
 20
-300.725976
 30
0.0
 11
-319.831491
 21
-300.725976
 31
0.0
  0
ARC
  5
AA
100
AcDbEntity
  8
1
100
AcDbCircle
 10
-384.132075
 20
-302.725974
 30
0.0
 40
2.000001
100
AcDbArc
 50
0.0
 51
90.0
  0
ARC
  5
AB
100
AcDbEntity
  8
1
100
AcDbCircle
 10
-325.132074
 20
-302.725974
 30
0.0
 40
2.000001
100
AcDbArc
 50
90.0
 51
180.0
  0
LINE
  5
AC
100
AcDbEntity
  8
1
100
AcDbLine
 10
-317.710239
 20
-293.03109
 30
0.0
 11
-316.767312
 21
-294.154824
 31
0.0
  0
LINE
  5
AD
100
AcDbEntity
  8
1
100
AcDbLine
 10
-391.55391
 20
-293.03109
 30
0.0
 11
-392.496837
 21
-294.154824
 31
0.0
  0
ARC
  5
AE
100
AcDbEntity
  8
1
100
AcDbCircle
 10
-309.666771
 20
-286.281819
 30
0.0
 40
10.5
100
AcDbArc
 50
208.23917
 51
220.0
  0
ARC
  5
AF
100
AcDbEntity
  8
1
100
AcDbCircle
 10
-399.597378
 20
-286.281819
 30
0.0
 40
10.5
100
AcDbArc
 50
320.0
 51
331.76083
  0
ARC
  5
B0
100
AcDbEntity
  8
1
100
AcDbCircle
 10
-319.831491
 20
-296.725974
 30
0.0
 40
3.999999
100
AcDbArc
 50
270.0
 51
40.0
  0
ARC
  5
B1
100
AcDbEntity
  8
1
100
AcDbCircle
 10
-389.432658
 20
-296.725974
 30
0.0
 40
3.999999
100
AcDbArc
 50
140.0
 51
270.0
  0
LINE
  5
B2
100
AcDbEntity
  8
1
100
AcDbLine
 10
-373.782075
 20
19.774026
 30
0.0
 11
-331.782075
 21
19.774026
 31
0.0
  0
LINE
  5
B3
100
AcDbEntity
  8
1
100
AcDbLine
 10
-373.782075
 20
13.774026
 30
0.0
 11
-373.782075
 21
19.774026
 31
0.0
  0
LINE
  5
B4
100
AcDbEntity
  8
1
100
AcDbLine
 10
-331.782075
 20
13.774026
 30
0.0
 11
-331.782075
 21
19.774026
 31
0.0
  0
LINE
  5
B5
100
AcDbEntity
  8
1
100
AcDbLine
 10
-338.492076
 20
7.274025
 30
0.0
 11
-338.492076
 21
13.774026
 31
0.0
  0
LINE
  5
B6
100
AcDbEntity
  8
1
100
AcDbLine
 10
-367.072074
 20
7.274025
 30
0.0
 11
-367.072074
 21
13.774026
 31
0.0
  0
LINE
  5
B7
100
AcDbEntity
  8
1
100
AcDbLine
 10
-360.282075
 20
19.774026
 30
0.0
 11
-360.282075
 21
24.274026
 31
0.0
  0
LINE
  5
B8
100
AcDbEntity
  8
1
100
AcDbLine
 10
-356.532075
 20
19.774026
 30
0.0
 11
-356.532075
 21
24.274026
 31
0.0
  0
LINE
  5
B9
100
AcDbEntity
  8
1
100
AcDbLine
 10
-345.282075
 20
19.774026
 30
0.0
 11
-345.282075
 21
24.274026
 31
0.0
  0
LINE
  5
BA
100
AcDbEntity
  8
1
100
AcDbLine
 10
-349.032075
 20
19.774026
 30
0.0
 11
-349.032075
 21
24.274026
 31
0.0
  0
LINE
  5
BB
100
AcDbEntity
  8
1
100
AcDbLine
 10
152.427483
 20
-86.225976
 30
0.0
 11
159.427485
 21
-86.225976
 31
0.0
  0
LINE
  5
BC
100
AcDbEntity
  8
1
100
AcDbLine
 10
152.427483
 20
-269.225976
 30
0.0
 11
159.427485
 21
-269.225976
 31
0.0
  0
LINE
  5
BD
100
AcDbEntity
  8
1
100
AcDbLine
 10
159.427485
 20
-269.225976
 30
0.0
 11
159.427485
 21
-86.225976
 31
0.0
  0
LINE
  5
BE
100
AcDbEntity
  8
1
100
AcDbLine
 10
103.427484
 20
-269.225976
 30
0.0
 11
103.427484
 21
-86.225976
 31
0.0
  0
LINE
  5
BF
100
AcDbEntity
  8
1
100
AcDbLine
 10
76.427484
 20
-3.725976
 30
0.0
 11
76.427484
 21
7.274025
 31
0.0
  0
LINE
  5
C0
100
AcDbEntity
  8
1
100
AcDbLine
 10
178.427484
 20
-3.725976
 30
0.0
 11
178.427484
 21
7.274025
 31
0.0
  0
ARC
  5
C1
100
AcDbEntity
  8
1
100
AcDbCircle
 10
80.427483
 20
-3.725976
 30
0.0
 40
3.999999
100
AcDbArc
 50
180.0
 51
270.0
  0
ARC
  5
C2
100
AcDbEntity
  8
1
100
AcDbCircle
 10
174.427485
 20
-3.725976
 30
0.0
 40
3.999999
100
AcDbArc
 50
270.0
 51
360.0
  0
LINE
  5
C3
100
AcDbEntity
  8
1
100
AcDbLine
 10
106.427484
 20
-86.880447
 30
0.0
 11
106.427484
 21
-15.725976
 31
0.0
  0
LINE
  5
C4
100
AcDbEntity
  8
1
100
AcDbLine
 10
148.427484
 20
-85.880448
 30
0.0
 11
148.427484
 21
-15.725976
 31
0.0
  0
ARC
  5
C5
100
AcDbEntity
  8
1
100
AcDbCircle
 10
98.427483
 20
-15.725976
 30
0.0
 40
8.000001
100
AcDbArc
 50
0.0
 51
74.502622
  0
ARC
  5
C6
100
AcDbEntity
  8
1
100
AcDbCircle
 10
156.427485
 20
-15.725976
 30
0.0
 40
8.000001
100
AcDbArc
 50
90.0
 51
180.0
  0
ARC
  5
C7
100
AcDbEntity
  8
1
100
AcDbCircle
 10
178.427484
 20
-37.48986
 30
0.0
 40
30.0
100
AcDbArc
 50
96.756327
 51
180.0
  0
LINE
  5
C8
100
AcDbEntity
  8
1
100
AcDbLine
 10
123.427485
 20
-21.529485
 30
0.0
 11
131.427483
 21
-21.529485
 31
0.0
  0
LINE
  5
C9
100
AcDbEntity
  8
1
100
AcDbLine
 10
123.427485
 20
-17.529483
 30
0.0
 11
123.427485
 21
-11.725974
 31
0.0
  0
LINE
  5
CA
100
AcDbEntity
  8
1
100
AcDbLine
 10
131.427483
 20
-17.529483
 30
0.0
 11
131.427483
 21
-11.725974
 31
0.0
  0
ARC
  5
CB
100
AcDbEntity
  8
1
100
AcDbCircle
 10
119.427483
 20
-11.725974
 30
0.0
 40
3.999999
100
AcDbArc
 50
0.0
 51
90.0
  0
ARC
  5
CC
100
AcDbEntity
  8
1
100
AcDbCircle
 10
119.427483
 20
-17.529483
 30
0.0
 40
3.999999
100
AcDbArc
 50
270.0
 51
360.0
  0
ARC
  5
CD
100
AcDbEntity
  8
1
100
AcDbCircle
 10
135.427485
 20
-17.529483
 30
0.0
 40
3.999999
100
AcDbArc
 50
180.0
 51
270.0
  0
ARC
  5
CE
100
AcDbEntity
  8
1
100
AcDbCircle
 10
135.427485
 20
-11.725974
 30
0.0
 40
3.999999
100
AcDbArc
 50
90.0
 51
180.0
  0
ARC
  5
CF
100
AcDbEntity
  8
1
100
AcDbCircle
 10
152.427483
 20
-82.225974
 30
0.0
 40
3.999999
100
AcDbArc
 50
180.0
 51
270.0
  0
ARC
  5
D0
100
AcDbEntity
  8
1
100
AcDbCircle
 10
103.427484
 20
-83.225976
 30
0.0
 40
3.0
100
AcDbArc
 50
270.0
 51
360.0
  0
ARC
  5
D1
100
AcDbEntity
  8
1
100
AcDbCircle
 10
103.427484
 20
-86.880447
 30
0.0
 40
3.0
100
AcDbArc
 50
270.0
 51
360.0
  0
ARC
  5
D2
100
AcDbEntity
  8
1
100
AcDbCircle
 10
152.427483
 20
-85.880448
 30
0.0
 40
3.999999
100
AcDbArc
 50
180.0
 51
270.0
  0
LINE
  5
D3
100
AcDbEntity
  8
1
100
AcDbLine
 10
106.427484
 20
-302.725974
 30
0.0
 11
148.427484
 21
-302.725974
 31
0.0
  0
LINE
  5
D4
100
AcDbEntity
  8
1
100
AcDbLine
 10
106.427484
 20
-310.225974
 30
0.0
 11
106.427484
 21
-268.571505
 31
0.0
  0
LINE
  5
D5
100
AcDbEntity
  8
1
100
AcDbLine
 10
148.427484
 20
-310.225974
 30
0.0
 11
148.427484
 21
-269.571504
 31
0.0
  0
ARC
  5
D6
100
AcDbEntity
  8
1
100
AcDbCircle
 10
152.427483
 20
-273.225975
 30
0.0
 40
3.999999
100
AcDbArc
 50
90.0
 51
180.0
  0
ARC
  5
D7
100
AcDbEntity
  8
1
100
AcDbCircle
 10
103.427484
 20
-272.225976
 30
0.0
 40
3.0
100
AcDbArc
 50
0.0
 51
90.0
  0
ARC
  5
D8
100
AcDbEntity
  8
1
100
AcDbCircle
 10
103.427484
 20
-268.571505
 30
0.0
 40
3.0
100
AcDbArc
 50
0.0
 51
90.0
  0
ARC
  5
D9
100
AcDbEntity
  8
1
100
AcDbCircle
 10
152.427483
 20
-269.571504
 30
0.0
 40
3.999999
100
AcDbArc
 50
90.0
 51
180.0
  0
LINE
  5
DA
100
AcDbEntity
  8
1
  6
CENTER
 62
     2
100
AcDbLine
 10
112.427484
 20
-321.536838
 30
0.0
 11
112.427484
 21
-294.13779
 31
0.0
  0
LINE
  5
DB
100
AcDbEntity
  8
1
  6
CENTER
 62
     2
100
AcDbLine
 10
142.427484
 20
-321.536838
 30
0.0
 11
142.427484
 21
-294.13779
 31
0.0
  0
LINE
  5
DC
100
AcDbEntity
  8
1
100
AcDbLine
 10
141.717483
 20
7.274025
 30
0.0
 11
141.717483
 21
13.774026
 31
0.0
  0
LINE
  5
DD
100
AcDbEntity
  8
1
100
AcDbLine
 10
113.137485
 20
7.274025
 30
0.0
 11
113.137485
 21
13.774026
 31
0.0
  0
LINE
  5
DE
100
AcDbEntity
  8
1
 62
     2
100
AcDbLine
 10
-349.323276
 20
13.774026
 30
0.0
 11
-348.782076
 21
11.774025
 31
0.0
  0
LINE
  5
DF
100
AcDbEntity
  8
1
 62
     2
100
AcDbLine
 10
-348.782076
 20
9.774024
 30
0.0
 11
-349.458576
 21
7.274025
 31
0.0
  0
LINE
  5
E0
100
AcDbEntity
  8
1
 62
     2
100
AcDbLine
 10
-356.240874
 20
13.774026
 30
0.0
 11
-356.782074
 21
11.774025
 31
0.0
  0
LINE
  5
E1
100
AcDbEntity
  8
1
 62
     2
100
AcDbLine
 10
-356.782074
 20
9.774024
 30
0.0
 11
-356.105574
 21
7.274025
 31
0.0
  0
LINE
  5
E2
100
AcDbEntity
  8
1
100
AcDbLine
 10
-348.782076
 20
7.274025
 30
0.0
 11
-348.782076
 21
13.774026
 31
0.0
  0
LINE
  5
E3
100
AcDbEntity
  8
1
100
AcDbLine
 10
-356.782074
 20
7.274025
 30
0.0
 11
-356.782074
 21
13.774026
 31
0.0
  0
LINE
  5
E4
100
AcDbEntity
  8
1
100
AcDbLine
 10
-445.688376
 20
245.884896
 30
0.0
 11
-445.688376
 21
271.884894
 31
0.0
  0
LINE
  5
E5
100
AcDbEntity
  8
1
100
AcDbLine
 10
-430.097298
 20
257.1393
 30
0.0
 11
-430.097298
 21
260.63049
 31
0.0
  0
LINE
  5
E6
100
AcDbEntity
  8
1
100
AcDbLine
 10
-445.133232
 20
271.68402
 30
0.0
 11
-435.375267
 21
268.153158
 31
0.0
  0
LINE
  5
E7
100
AcDbEntity
  8
1
100
AcDbLine
 10
-435.375267
 20
249.616632
 30
0.0
 11
-443.709138
 21
246.601071
 31
0.0
  0
ARC
  5
E8
100
AcDbEntity
  8
1
100
AcDbCircle
 10
-442.688376
 20
243.780069
 30
0.0
 40
3.0
100
AcDbArc
 50
109.892356
 51
180.0
  0
ARC
  5
E9
100
AcDbEntity
  8
1
100
AcDbCircle
 10
-438.097299
 20
257.1393
 30
0.0
 40
8.000001
100
AcDbArc
 50
289.892356
 51
360.0
  0
ARC
  5
EA
100
AcDbEntity
  8
1
100
AcDbCircle
 10
-438.097299
 20
260.63049
 30
0.0
 40
8.000001
100
AcDbArc
 50
0.0
 51
70.107644
  0
LINE
  5
EB
100
AcDbEntity
  8
1
100
AcDbLine
 10
-446.132076
 20
235.884894
 30
0.0
 11
-446.132076
 21
272.111943
 31
0.0
  0
LINE
  5
EC
100
AcDbEntity
  8
1
100
AcDbLine
 10
-446.132076
 20
283.884894
 30
0.0
 11
-446.132076
 21
291.884895
 31
0.0
  0
LINE
  5
ED
100
AcDbEntity
  8
1
  6
DASHED
100
AcDbLine
 10
-265.555011
 20
245.884896
 30
0.0
 11
-301.782075
 21
245.884896
 31
0.0
  0
LINE
  5
EE
100
AcDbEntity
  8
1
  6
DASHED
100
AcDbLine
 10
-269.693622
 20
271.884894
 30
0.0
 11
-301.782075
 21
271.884894
 31
0.0
  0
LINE
  5
EF
100
AcDbEntity
  8
1
  6
DASHED
100
AcDbLine
 10
-279.166851
 20
266.243355
 30
0.0
 11
-301.782075
 21
266.243355
 31
0.0
  0
LINE
  5
F0
100
AcDbEntity
  8
1
  6
DASHED
100
AcDbLine
 10
-279.166851
 20
251.526435
 30
0.0
 11
-301.782075
 21
251.526435
 31
0.0
  0
LINE
  5
F1
100
AcDbEntity
  8
1
  6
DASHED
100
AcDbLine
 10
-263.575773
 20
245.884896
 30
0.0
 11
-263.575773
 21
271.884894
 31
0.0
  0
LINE
  5
F2
100
AcDbEntity
  8
1
  6
DASHED
100
AcDbLine
 10
-279.166851
 20
257.1393
 30
0.0
 11
-279.166851
 21
260.63049
 31
0.0
  0
LINE
  5
F3
100
AcDbEntity
  8
1
  6
DASHED
100
AcDbLine
 10
-264.130917
 20
271.68402
 30
0.0
 11
-273.888885
 21
268.153158
 31
0.0
  0
LINE
  5
F4
100
AcDbEntity
  8
1
  6
DASHED
100
AcDbLine
 10
-273.888885
 20
249.616632
 30
0.0
 11
-265.555011
 21
246.601071
 31
0.0
  0
ARC
  5
F5
100
AcDbEntity
  8
1
  6
DASHED
100
AcDbCircle
 10
-266.575773
 20
243.780069
 30
0.0
 40
3.0
100
AcDbArc
 50
0.0
 51
70.107644
  0
ARC
  5
F6
100
AcDbEntity
  8
1
  6
DASHED
100
AcDbCircle
 10
-271.16685
 20
257.1393
 30
0.0
 40
8.000001
100
AcDbArc
 50
180.0
 51
250.107644
  0
ARC
  5
F7
100
AcDbEntity
  8
1
  6
DASHED
100
AcDbCircle
 10
-271.16685
 20
260.63049
 30
0.0
 40
8.000001
100
AcDbArc
 50
109.892356
 51
180.0
  0
LINE
  5
F8
100
AcDbEntity
  8
1
100
AcDbLine
 10
-263.132076
 20
283.884894
 30
0.0
 11
-263.132076
 21
291.884895
 31
0.0
  0
LINE
  5
F9
100
AcDbEntity
  8
1
100
AcDbLine
 10
-455.0712
 20
283.884894
 30
0.0
 11
-442.570527
 21
283.884894
 31
0.0
  0
LINE
  5
FA
100
AcDbEntity
  8
1
100
AcDbLine
 10
-457.071198
 20
278.776956
 30
0.0
 11
-457.071198
 21
281.884896
 31
0.0
  0
LINE
  5
FB
100
AcDbEntity
  8
1
100
AcDbLine
 10
-455.547882
 20
279.01455
 30
0.0
 11
-455.547882
 21
281.884896
 31
0.0
  0
LINE
  5
FC
100
AcDbEntity
  8
1
100
AcDbLine
 10
-439.570527
 20
271.884894
 30
0.0
 11
-439.570527
 21
283.884894
 31
0.0
  0
ARC
  5
FD
100
AcDbEntity
  8
1
100
AcDbCircle
 10
-442.570527
 20
286.884894
 30
0.0
 40
3.0
100
AcDbArc
 50
270.0
 51
360.0
  0
ARC
  5
FE
100
AcDbEntity
  8
1
100
AcDbCircle
 10
-455.0712
 20
281.884896
 30
0.0
 40
2.000001
100
AcDbArc
 50
90.0
 51
180.0
  0
ARC
  5
FF
100
AcDbEntity
  8
1
100
AcDbCircle
 10
-453.547881
 20
281.884896
 30
0.0
 40
2.000001
100
AcDbArc
 50
90.0
 51
180.0
  0
LINE
  5
100
100
AcDbEntity
  8
1
100
AcDbLine
 10
-455.252607
 20
276.019371
 30
0.0
 11
-445.133232
 21
271.68402
 31
0.0
  0
LINE
  5
101
100
AcDbEntity
  8
1
100
AcDbLine
 10
-453.429726
 20
276.147087
 30
0.0
 11
-439.570527
 21
271.884894
 31
0.0
  0
ARC
  5
102
100
AcDbEntity
  8
1
100
AcDbCircle
 10
-452.547882
 20
279.01455
 30
0.0
 40
3.0
100
AcDbArc
 50
180.0
 51
252.905496
  0
ARC
  5
103
100
AcDbEntity
  8
1
100
AcDbCircle
 10
-454.071198
 20
278.776956
 30
0.0
 40
3.0
100
AcDbArc
 50
180.0
 51
246.808699
  0
LINE
  5
104
100
AcDbEntity
  8
1
100
AcDbLine
 10
-254.192952
 20
283.884894
 30
0.0
 11
-266.693622
 21
283.884894
 31
0.0
  0
LINE
  5
105
100
AcDbEntity
  8
1
100
AcDbLine
 10
-252.192951
 20
278.776956
 30
0.0
 11
-252.192951
 21
281.884896
 31
0.0
  0
LINE
  5
106
100
AcDbEntity
  8
1
100
AcDbLine
 10
-253.716267
 20
279.01455
 30
0.0
 11
-253.716267
 21
281.884896
 31
0.0
  0
ARC
  5
107
100
AcDbEntity
  8
1
100
AcDbCircle
 10
-266.693622
 20
286.884894
 30
0.0
 40
3.0
100
AcDbArc
 50
180.0
 51
270.0
  0
ARC
  5
108
100
AcDbEntity
  8
1
100
AcDbCircle
 10
-254.192952
 20
281.884896
 30
0.0
 40
2.000001
100
AcDbArc
 50
0.0
 51
90.0
  0
ARC
  5
109
100
AcDbEntity
  8
1
100
AcDbCircle
 10
-255.716268
 20
281.884896
 30
0.0
 40
2.000001
100
AcDbArc
 50
0.0
 51
90.0
  0
LINE
  5
10A
100
AcDbEntity
  8
1
100
AcDbLine
 10
-254.011542
 20
276.019371
 30
0.0
 11
-255.168743
 21
275.523602
 31
0.0
  0
LINE
  5
10B
100
AcDbEntity
  8
1
  6
DASHED
100
AcDbLine
 10
-257.704303
 20
275.572033
 30
0.0
 11
-269.693622
 21
271.884894
 31
0.0
  0
LINE
  5
10C
100
AcDbEntity
  8
1
100
AcDbLine
 10
106.427484
 20
-89.880447
 30
0.0
 11
119.427483
 21
-89.880447
 31
0.0
  0
LINE
  5
10D
100
AcDbEntity
  8
1
100
AcDbLine
 10
135.427485
 20
-89.880447
 30
0.0
 11
148.427484
 21
-89.880447
 31
0.0
  0
LINE
  5
10E
100
AcDbEntity
  8
1
100
AcDbLine
 10
106.427484
 20
-265.571505
 30
0.0
 11
119.427483
 21
-265.571505
 31
0.0
  0
LINE
  5
10F
100
AcDbEntity
  8
1
100
AcDbLine
 10
135.427485
 20
-265.571505
 30
0.0
 11
148.427484
 21
-265.571505
 31
0.0
  0
LINE
  5
110
100
AcDbEntity
  8
1
100
AcDbLine
 10
106.427484
 20
-285.225975
 30
0.0
 11
123.427485
 21
-285.225975
 31
0.0
  0
LINE
  5
111
100
AcDbEntity
  8
1
100
AcDbLine
 10
131.427483
 20
-285.225975
 30
0.0
 11
148.427484
 21
-285.225975
 31
0.0
  0
LINE
  5
112
100
AcDbEntity
  8
1
100
AcDbLine
 10
106.427484
 20
-290.725974
 30
0.0
 11
123.427485
 21
-290.725974
 31
0.0
  0
LINE
  5
113
100
AcDbEntity
  8
1
100
AcDbLine
 10
131.427483
 20
-290.725974
 30
0.0
 11
148.427484
 21
-290.725974
 31
0.0
  0
LINE
  5
114
100
AcDbEntity
  8
1
100
AcDbLine
 10
113.427483
 20
-100.432293
 30
0.0
 11
113.427483
 21
-163.725975
 31
0.0
  0
LINE
  5
115
100
AcDbEntity
  8
1
100
AcDbLine
 10
139.427484
 20
-100.432293
 30
0.0
 11
139.427484
 21
-145.725975
 31
0.0
  0
LINE
  5
116
100
AcDbEntity
  8
1
100
AcDbLine
 10
133.785945
 20
-116.103999
 30
0.0
 11
133.785945
 21
-156.589611
 31
0.0
  0
LINE
  5
117
100
AcDbEntity
  8
1
100
AcDbLine
 10
119.069022
 20
-116.103999
 30
0.0
 11
119.069022
 21
-156.589611
 31
0.0
  0
LINE
  5
118
100
AcDbEntity
  8
1
100
AcDbLine
 10
118.427484
 20
-168.725976
 30
0.0
 11
134.427483
 21
-168.725976
 31
0.0
  0
LINE
  5
119
100
AcDbEntity
  8
1
100
AcDbLine
 10
122.069022
 20
-159.589611
 30
0.0
 11
130.785945
 21
-159.589611
 31
0.0
  0
ARC
  5
11A
100
AcDbEntity
  8
1
100
AcDbCircle
 10
134.427483
 20
-163.725975
 30
0.0
 40
5.000001
100
AcDbArc
 50
270.0
 51
331.478711
  0
ARC
  5
11B
100
AcDbEntity
  8
1
100
AcDbCircle
 10
118.427484
 20
-163.725975
 30
0.0
 40
5.000001
100
AcDbArc
 50
180.0
 51
270.0
  0
ARC
  5
11C
100
AcDbEntity
  8
1
100
AcDbCircle
 10
130.785945
 20
-156.589611
 30
0.0
 40
3.0
100
AcDbArc
 50
270.0
 51
360.0
  0
ARC
  5
11D
100
AcDbEntity
  8
1
100
AcDbCircle
 10
122.069022
 20
-156.589611
 30
0.0
 40
3.0
100
AcDbArc
 50
180.0
 51
270.0
  0
LINE
  5
11E
100
AcDbEntity
  8
1
100
AcDbLine
 10
133.785945
 20
-159.589611
 30
0.0
 11
136.340073
 21
-163.725975
 31
0.0
  0
LINE
  5
11F
100
AcDbEntity
  8
1
100
AcDbLine
 10
119.069022
 20
-159.589611
 30
0.0
 11
116.514894
 21
-163.725975
 31
0.0
  0
LINE
  5
120
100
AcDbEntity
  8
1
100
AcDbLine
 10
118.427484
 20
-95.432295
 30
0.0
 11
134.427483
 21
-95.432295
 31
0.0
  0
LINE
  5
121
100
AcDbEntity
  8
1
100
AcDbLine
 10
122.069022
 20
-113.103999
 30
0.0
 11
130.785945
 21
-113.103999
 31
0.0
  0
ARC
  5
122
100
AcDbEntity
  8
1
100
AcDbCircle
 10
122.069022
 20
-116.103999
 30
0.0
 40
3.0
100
AcDbArc
 50
90.0
 51
180.0
  0
ARC
  5
123
100
AcDbEntity
  8
1
100
AcDbCircle
 10
130.785945
 20
-116.103999
 30
0.0
 40
3.0
100
AcDbArc
 50
0.0
 51
90.0
  0
LINE
  5
124
100
AcDbEntity
  8
1
100
AcDbLine
 10
133.785945
 20
-113.103999
 30
0.0
 11
137.831277
 21
-100.432293
 31
0.0
  0
LINE
  5
125
100
AcDbEntity
  8
1
100
AcDbLine
 10
115.02369
 20
-100.432293
 30
0.0
 11
119.069022
 21
-113.103999
 31
0.0
  0
ARC
  5
126
100
AcDbEntity
  8
1
100
AcDbCircle
 10
118.427484
 20
-100.432293
 30
0.0
 40
5.000001
100
AcDbArc
 50
90.0
 51
180.0
  0
ARC
  5
127
100
AcDbEntity
  8
1
100
AcDbCircle
 10
134.427483
 20
-100.432293
 30
0.0
 40
5.000001
100
AcDbArc
 50
0.0
 51
90.0
  0
LINE
  5
128
100
AcDbEntity
  8
1
100
AcDbLine
 10
113.427483
 20
-255.019656
 30
0.0
 11
113.427483
 21
-191.725974
 31
0.0
  0
LINE
  5
129
100
AcDbEntity
  8
1
100
AcDbLine
 10
139.427484
 20
-255.019656
 30
0.0
 11
139.427484
 21
-209.725974
 31
0.0
  0
LINE
  5
12A
100
AcDbEntity
  8
1
100
AcDbLine
 10
133.785945
 20
-239.347953
 30
0.0
 11
133.785945
 21
-198.862338
 31
0.0
  0
LINE
  5
12B
100
AcDbEntity
  8
1
100
AcDbLine
 10
119.069022
 20
-239.347953
 30
0.0
 11
119.069022
 21
-198.862338
 31
0.0
  0
LINE
  5
12C
100
AcDbEntity
  8
1
100
AcDbLine
 10
118.427484
 20
-186.725976
 30
0.0
 11
134.427483
 21
-186.725976
 31
0.0
  0
LINE
  5
12D
100
AcDbEntity
  8
1
100
AcDbLine
 10
122.069022
 20
-195.862338
 30
0.0
 11
130.785945
 21
-195.862338
 31
0.0
  0
ARC
  5
12E
100
AcDbEntity
  8
1
100
AcDbCircle
 10
134.427483
 20
-191.725974
 30
0.0
 40
5.000001
100
AcDbArc
 50
28.521289
 51
90.0
  0
ARC
  5
12F
100
AcDbEntity
  8
1
100
AcDbCircle
 10
118.427484
 20
-191.725974
 30
0.0
 40
5.000001
100
AcDbArc
 50
90.0
 51
180.0
  0
ARC
  5
130
100
AcDbEntity
  8
1
100
AcDbCircle
 10
130.785945
 20
-198.862338
 30
0.0
 40
3.0
100
AcDbArc
 50
0.0
 51
90.0
  0
ARC
  5
131
100
AcDbEntity
  8
1
100
AcDbCircle
 10
122.069022
 20
-198.862338
 30
0.0
 40
3.0
100
AcDbArc
 50
90.0
 51
180.0
  0
LINE
  5
132
100
AcDbEntity
  8
1
100
AcDbLine
 10
133.785945
 20
-195.862338
 30
0.0
 11
136.340073
 21
-191.725974
 31
0.0
  0
LINE
  5
133
100
AcDbEntity
  8
1
100
AcDbLine
 10
119.069022
 20
-195.862338
 30
0.0
 11
116.514894
 21
-191.725974
 31
0.0
  0
LINE
  5
134
100
AcDbEntity
  8
1
100
AcDbLine
 10
118.427484
 20
-260.019657
 30
0.0
 11
134.427483
 21
-260.019657
 31
0.0
  0
LINE
  5
135
100
AcDbEntity
  8
1
100
AcDbLine
 10
122.069022
 20
-242.347953
 30
0.0
 11
130.785945
 21
-242.347953
 31
0.0
  0
ARC
  5
136
100
AcDbEntity
  8
1
100
AcDbCircle
 10
122.069022
 20
-239.347953
 30
0.0
 40
3.0
100
AcDbArc
 50
180.0
 51
270.0
  0
ARC
  5
137
100
AcDbEntity
  8
1
100
AcDbCircle
 10
130.785945
 20
-239.347953
 30
0.0
 40
3.0
100
AcDbArc
 50
270.0
 51
360.0
  0
LINE
  5
138
100
AcDbEntity
  8
1
100
AcDbLine
 10
133.785945
 20
-242.347953
 30
0.0
 11
137.831277
 21
-255.019656
 31
0.0
  0
LINE
  5
139
100
AcDbEntity
  8
1
100
AcDbLine
 10
115.02369
 20
-255.019656
 30
0.0
 11
119.069022
 21
-242.347953
 31
0.0
  0
ARC
  5
13A
100
AcDbEntity
  8
1
100
AcDbCircle
 10
118.427484
 20
-255.019656
 30
0.0
 40
5.000001
100
AcDbArc
 50
180.0
 51
270.0
  0
ARC
  5
13B
100
AcDbEntity
  8
1
100
AcDbCircle
 10
134.427483
 20
-255.019656
 30
0.0
 40
5.000001
100
AcDbArc
 50
270.0
 51
360.0
  0
LINE
  5
13C
100
AcDbEntity
  8
1
100
AcDbLine
 10
123.427485
 20
-40.863819
 30
0.0
 11
131.427483
 21
-40.863819
 31
0.0
  0
LINE
  5
13D
100
AcDbEntity
  8
1
100
AcDbLine
 10
123.427485
 20
-87.802944
 30
0.0
 11
123.427485
 21
-44.863818
 31
0.0
  0
LINE
  5
13E
100
AcDbEntity
  8
1
100
AcDbLine
 10
131.427483
 20
-87.802944
 30
0.0
 11
131.427483
 21
-44.863818
 31
0.0
  0
ARC
  5
13F
100
AcDbEntity
  8
1
100
AcDbCircle
 10
135.427485
 20
-44.863818
 30
0.0
 40
3.999999
100
AcDbArc
 50
90.0
 51
180.0
  0
ARC
  5
140
100
AcDbEntity
  8
1
100
AcDbCircle
 10
119.427483
 20
-44.863818
 30
0.0
 40
3.999999
100
AcDbArc
 50
0.0
 51
90.0
  0
LINE
  5
141
100
AcDbEntity
  8
1
100
AcDbLine
 10
123.427485
 20
-91.802946
 30
0.0
 11
131.427483
 21
-91.802946
 31
0.0
  0
ARC
  5
142
100
AcDbEntity
  8
1
100
AcDbCircle
 10
135.427485
 20
-87.802944
 30
0.0
 40
3.999999
100
AcDbArc
 50
180.0
 51
270.0
  0
ARC
  5
143
100
AcDbEntity
  8
1
100
AcDbCircle
 10
119.427483
 20
-87.802944
 30
0.0
 40
3.999999
100
AcDbArc
 50
270.0
 51
360.0
  0
ARC
  5
144
100
AcDbEntity
  8
1
100
AcDbCircle
 10
135.427485
 20
-85.880448
 30
0.0
 40
3.999999
100
AcDbArc
 50
180.0
 51
270.0
  0
ARC
  5
145
100
AcDbEntity
  8
1
100
AcDbCircle
 10
119.427483
 20
-85.880448
 30
0.0
 40
3.999999
100
AcDbArc
 50
270.0
 51
360.0
  0
LINE
  5
146
100
AcDbEntity
  8
1
100
AcDbLine
 10
125.427483
 20
-49.802901
 30
0.0
 11
129.427485
 21
-49.802901
 31
0.0
  0
LINE
  5
147
100
AcDbEntity
  8
1
100
AcDbLine
 10
125.427483
 20
-59.031609
 30
0.0
 11
129.427485
 21
-59.031609
 31
0.0
  0
ARC
  5
148
100
AcDbEntity
  8
1
100
AcDbCircle
 10
129.427485
 20
-51.802902
 30
0.0
 40
2.000001
100
AcDbArc
 50
0.0
 51
90.0
  0
ARC
  5
149
100
AcDbEntity
  8
1
100
AcDbCircle
 10
125.427483
 20
-51.802902
 30
0.0
 40
2.000001
100
AcDbArc
 50
90.0
 51
180.0
  0
ARC
  5
14A
100
AcDbEntity
  8
1
100
AcDbCircle
 10
129.427485
 20
-57.031608
 30
0.0
 40
2.000001
100
AcDbArc
 50
270.0
 51
360.0
  0
ARC
  5
14B
100
AcDbEntity
  8
1
100
AcDbCircle
 10
125.427483
 20
-57.031608
 30
0.0
 40
2.000001
100
AcDbArc
 50
180.0
 51
270.0
  0
LINE
  5
14C
100
AcDbEntity
  8
1
100
AcDbLine
 10
125.427483
 20
-64.202022
 30
0.0
 11
129.427485
 21
-64.202022
 31
0.0
  0
LINE
  5
14D
100
AcDbEntity
  8
1
100
AcDbLine
 10
125.427483
 20
-300.725976
 30
0.0
 11
129.427485
 21
-300.725976
 31
0.0
  0
LINE
  5
14E
100
AcDbEntity
  8
1
100
AcDbLine
 10
123.427485
 20
-263.649006
 30
0.0
 11
131.427483
 21
-263.649006
 31
0.0
  0
LINE
  5
14F
100
AcDbEntity
  8
1
100
AcDbLine
 10
123.427485
 20
-298.725975
 30
0.0
 11
123.427485
 21
-267.649005
 31
0.0
  0
LINE
  5
150
100
AcDbEntity
  8
1
100
AcDbLine
 10
131.427483
 20
-298.725975
 30
0.0
 11
131.427483
 21
-267.649005
 31
0.0
  0
ARC
  5
151
100
AcDbEntity
  8
1
100
AcDbCircle
 10
135.427485
 20
-298.725975
 30
0.0
 40
3.999999
100
AcDbArc
 50
180.0
 51
270.0
  0
ARC
  5
152
100
AcDbEntity
  8
1
100
AcDbCircle
 10
119.427483
 20
-298.725975
 30
0.0
 40
3.999999
100
AcDbArc
 50
270.0
 51
360.0
  0
ARC
  5
153
100
AcDbEntity
  8
1
100
AcDbCircle
 10
129.427485
 20
-298.725975
 30
0.0
 40
2.000001
100
AcDbArc
 50
270.0
 51
360.0
  0
ARC
  5
154
100
AcDbEntity
  8
1
100
AcDbCircle
 10
125.427483
 20
-298.725975
 30
0.0
 40
2.000001
100
AcDbArc
 50
180.0
 51
270.0
  0
ARC
  5
155
100
AcDbEntity
  8
1
100
AcDbCircle
 10
135.427485
 20
-267.649005
 30
0.0
 40
3.999999
100
AcDbArc
 50
90.0
 51
180.0
  0
ARC
  5
156
100
AcDbEntity
  8
1
100
AcDbCircle
 10
119.427483
 20
-267.649005
 30
0.0
 40
3.999999
100
AcDbArc
 50
0.0
 51
90.0
  0
ARC
  5
157
100
AcDbEntity
  8
1
100
AcDbCircle
 10
135.427485
 20
-269.571504
 30
0.0
 40
3.999999
100
AcDbArc
 50
90.0
 51
180.0
  0
ARC
  5
158
100
AcDbEntity
  8
1
100
AcDbCircle
 10
119.427483
 20
-269.571504
 30
0.0
 40
3.999999
100
AcDbArc
 50
0.0
 51
90.0
  0
LINE
  5
159
100
AcDbEntity
  8
1
100
AcDbLine
 10
125.427483
 20
-294.154824
 30
0.0
 11
129.427485
 21
-294.154824
 31
0.0
  0
LINE
  5
15A
100
AcDbEntity
  8
1
100
AcDbLine
 10
125.427483
 20
-291.24993
 30
0.0
 11
129.427485
 21
-291.24993
 31
0.0
  0
ARC
  5
15B
100
AcDbEntity
  8
1
100
AcDbCircle
 10
129.427485
 20
-296.154825
 30
0.0
 40
2.000001
100
AcDbArc
 50
0.0
 51
90.0
  0
ARC
  5
15C
100
AcDbEntity
  8
1
100
AcDbCircle
 10
125.427483
 20
-296.154825
 30
0.0
 40
2.000001
100
AcDbArc
 50
90.0
 51
180.0
  0
LINE
  5
15D
100
AcDbEntity
  8
1
100
AcDbLine
 10
151.427484
 20
-164.892189
 30
0.0
 11
151.427484
 21
-146.700849
 31
0.0
  0
ARC
  5
15E
100
AcDbEntity
  8
1
100
AcDbCircle
 10
149.427483
 20
-150.725976
 30
0.0
 40
2.000001
100
AcDbArc
 50
0.0
 51
90.0
  0
LINE
  5
15F
100
AcDbEntity
  8
1
100
AcDbLine
 10
142.427484
 20
-143.700849
 30
0.0
 11
151.427484
 21
-143.700849
 31
0.0
  0
ARC
  5
160
100
AcDbEntity
  8
1
100
AcDbCircle
 10
154.427484
 20
-146.700849
 30
0.0
 40
3.0
100
AcDbArc
 50
90.0
 51
180.0
  0
LINE
  5
161
100
AcDbEntity
  8
1
100
AcDbLine
 10
146.341485
 20
-155.954355
 30
0.0
 11
149.427483
 21
-155.954355
 31
0.0
  0
LINE
  5
162
100
AcDbEntity
  8
1
100
AcDbLine
 10
139.427484
 20
-167.892189
 30
0.0
 11
151.427484
 21
-167.892189
 31
0.0
  0
LINE
  5
163
100
AcDbEntity
  8
1
100
AcDbLine
 10
144.341484
 20
-153.954354
 30
0.0
 11
144.341484
 21
-150.725976
 31
0.0
  0
ARC
  5
164
100
AcDbEntity
  8
1
100
AcDbCircle
 10
149.427483
 20
-153.954354
 30
0.0
 40
2.000001
100
AcDbArc
 50
270.0
 51
360.0
  0
ARC
  5
165
100
AcDbEntity
  8
1
100
AcDbCircle
 10
146.341485
 20
-150.725976
 30
0.0
 40
2.000001
100
AcDbArc
 50
90.0
 51
180.0
  0
ARC
  5
166
100
AcDbEntity
  8
1
100
AcDbCircle
 10
146.341485
 20
-153.954354
 30
0.0
 40
2.000001
100
AcDbArc
 50
180.0
 51
270.0
  0
ARC
  5
167
100
AcDbEntity
  8
1
100
AcDbCircle
 10
154.427484
 20
-164.892189
 30
0.0
 40
3.0
100
AcDbArc
 50
180.0
 51
270.0
  0
LINE
  5
168
100
AcDbEntity
  8
1
100
AcDbLine
 10
144.341484
 20
-155.954355
 30
0.0
 11
138.820683
 21
-166.113402
 31
0.0
  0
ARC
  5
169
100
AcDbEntity
  8
1
100
AcDbCircle
 10
142.427484
 20
-145.725975
 30
0.0
 40
3.0
100
AcDbArc
 50
180.0
 51
270.0
  0
LINE
  5
16A
100
AcDbEntity
  8
1
100
AcDbLine
 10
142.427484
 20
-148.725975
 30
0.0
 11
144.341484
 21
-148.725975
 31
0.0
  0
LINE
  5
16B
100
AcDbEntity
  8
1
100
AcDbLine
 10
146.341485
 20
-148.725975
 30
0.0
 11
149.427483
 21
-148.725975
 31
0.0
  0
LINE
  5
16C
100
AcDbEntity
  8
1
100
AcDbLine
 10
151.427484
 20
-190.55976
 30
0.0
 11
151.427484
 21
-208.7511
 31
0.0
  0
ARC
  5
16D
100
AcDbEntity
  8
1
100
AcDbCircle
 10
149.427483
 20
-204.725976
 30
0.0
 40
2.000001
100
AcDbArc
 50
270.0
 51
360.0
  0
LINE
  5
16E
100
AcDbEntity
  8
1
100
AcDbLine
 10
142.427484
 20
-211.7511
 30
0.0
 11
151.427484
 21
-211.7511
 31
0.0
  0
ARC
  5
16F
100
AcDbEntity
  8
1
100
AcDbCircle
 10
154.427484
 20
-208.7511
 30
0.0
 40
3.0
100
AcDbArc
 50
180.0
 51
270.0
  0
LINE
  5
170
100
AcDbEntity
  8
1
100
AcDbLine
 10
146.341485
 20
-199.497597
 30
0.0
 11
149.427483
 21
-199.497597
 31
0.0
  0
LINE
  5
171
100
AcDbEntity
  8
1
100
AcDbLine
 10
139.427484
 20
-187.55976
 30
0.0
 11
151.427484
 21
-187.55976
 31
0.0
  0
LINE
  5
172
100
AcDbEntity
  8
1
100
AcDbLine
 10
144.341484
 20
-201.497598
 30
0.0
 11
144.341484
 21
-204.725976
 31
0.0
  0
ARC
  5
173
100
AcDbEntity
  8
1
100
AcDbCircle
 10
149.427483
 20
-201.497598
 30
0.0
 40
2.000001
100
AcDbArc
 50
0.0
 51
90.0
  0
ARC
  5
174
100
AcDbEntity
  8
1
100
AcDbCircle
 10
146.341485
 20
-204.725976
 30
0.0
 40
2.000001
100
AcDbArc
 50
180.0
 51
270.0
  0
ARC
  5
175
100
AcDbEntity
  8
1
100
AcDbCircle
 10
146.341485
 20
-201.497598
 30
0.0
 40
2.000001
100
AcDbArc
 50
90.0
 51
180.0
  0
ARC
  5
176
100
AcDbEntity
  8
1
100
AcDbCircle
 10
154.427484
 20
-190.55976
 30
0.0
 40
3.0
100
AcDbArc
 50
90.0
 51
180.0
  0
LINE
  5
177
100
AcDbEntity
  8
1
100
AcDbLine
 10
144.341484
 20
-199.497597
 30
0.0
 11
138.820683
 21
-189.33855
 31
0.0
  0
ARC
  5
178
100
AcDbEntity
  8
1
100
AcDbCircle
 10
142.427484
 20
-209.725974
 30
0.0
 40
3.0
100
AcDbArc
 50
90.0
 51
180.0
  0
LINE
  5
179
100
AcDbEntity
  8
1
100
AcDbLine
 10
142.427484
 20
-206.725974
 30
0.0
 11
144.341484
 21
-206.725974
 31
0.0
  0
LINE
  5
17A
100
AcDbEntity
  8
1
100
AcDbLine
 10
146.341485
 20
-206.725974
 30
0.0
 11
149.427483
 21
-206.725974
 31
0.0
  0
LINE
  5
17B
100
AcDbEntity
  8
1
100
AcDbLine
 10
106.427484
 20
-304.225974
 30
0.0
 11
148.427484
 21
-304.225974
 31
0.0
  0
LINE
  5
17C
100
AcDbEntity
  8
1
100
AcDbLine
 10
-382.132074
 20
-304.225974
 30
0.0
 11
-327.132075
 21
-304.225974
 31
0.0
  0
LINE
  5
17D
100
AcDbEntity
  8
1
100
AcDbLine
 10
-382.132074
 20
-310.225974
 30
0.0
 11
-327.132075
 21
-310.225974
 31
0.0
  0
LINE
  5
17E
100
AcDbEntity
  8
1
100
AcDbLine
 10
106.327485
 20
-310.225974
 30
0.0
 11
148.527483
 21
-310.225974
 31
0.0
  0
LINE
  5
17F
100
AcDbEntity
  8
1
100
AcDbLine
 10
-362.782074
 20
19.774026
 30
0.0
 11
-362.782074
 21
24.274026
 31
0.0
  0
LINE
  5
180
100
AcDbEntity
  8
1
100
AcDbLine
 10
-342.782076
 20
19.774026
 30
0.0
 11
-342.782076
 21
24.274026
 31
0.0
  0
LINE
  5
181
100
AcDbEntity
  8
1
  6
CENTER
 62
     2
100
AcDbLine
 10
-354.632076
 20
-321.536838
 30
0.0
 11
-354.632076
 21
-3.725931
 31
0.0
  0
LINE
  5
182
100
AcDbEntity
  8
1
100
AcDbLine
 10
-339.732075
 20
-311.725974
 30
0.0
 11
-327.532074
 21
-311.725974
 31
0.0
  0
LINE
  5
183
100
AcDbEntity
  8
1
100
AcDbLine
 10
-327.882075
 20
-311.725974
 30
0.0
 11
-327.882075
 21
-315.235227
 31
0.0
  0
LINE
  5
184
100
AcDbEntity
  8
1
100
AcDbLine
 10
-327.882075
 20
-315.235227
 30
0.0
 11
-328.732074
 21
-315.725976
 31
0.0
  0
LINE
  5
185
100
AcDbEntity
  8
1
100
AcDbLine
 10
-330.757074
 20
-311.725974
 30
0.0
 11
-330.757074
 21
-315.235227
 31
0.0
  0
ARC
  5
186
100
AcDbEntity
  8
1
100
AcDbCircle
 10
-329.319576
 20
-313.387272
 30
0.0
 40
2.341227
100
AcDbArc
 50
232.121121
 51
307.878879
  0
ARC
  5
187
100
AcDbEntity
  8
1
100
AcDbCircle
 10
-333.632076
 20
-307.103499
 30
0.0
 40
8.625
100
AcDbArc
 50
250.528777
 51
289.471219
  0
LINE
  5
188
100
AcDbEntity
  8
1
100
AcDbLine
 10
-339.382074
 20
-311.725974
 30
0.0
 11
-339.382074
 21
-315.235227
 31
0.0
  0
LINE
  5
189
100
AcDbEntity
  8
1
100
AcDbLine
 10
-339.382074
 20
-315.235227
 30
0.0
 11
-338.532075
 21
-315.725976
 31
0.0
  0
LINE
  5
18A
100
AcDbEntity
  8
1
100
AcDbLine
 10
-338.532075
 20
-315.725976
 30
0.0
 11
-328.732074
 21
-315.725976
 31
0.0
  0
LINE
  5
18B
100
AcDbEntity
  8
1
100
AcDbLine
 10
-336.507075
 20
-311.725974
 30
0.0
 11
-336.507075
 21
-315.235227
 31
0.0
  0
ARC
  5
18C
100
AcDbEntity
  8
1
100
AcDbCircle
 10
-337.944576
 20
-313.387272
 30
0.0
 40
2.341227
100
AcDbArc
 50
232.121121
 51
307.878879
  0
LINE
  5
18D
100
AcDbEntity
  8
1
100
AcDbLine
 10
-327.532074
 20
-310.225974
 30
0.0
 11
-327.532074
 21
-311.725974
 31
0.0
  0
LINE
  5
18E
100
AcDbEntity
  8
1
100
AcDbLine
 10
-339.732075
 20
-311.725974
 30
0.0
 11
-339.732075
 21
-310.225974
 31
0.0
  0
LINE
  5
18F
100
AcDbEntity
  8
1
100
AcDbLine
 10
-333.632076
 20
-311.725974
 30
0.0
 11
-334.132074
 21
-310.225974
 31
0.0
  0
LINE
  5
190
100
AcDbEntity
  8
1
100
AcDbLine
 10
-333.632076
 20
-310.225974
 30
0.0
 11
-333.132075
 21
-311.725974
 31
0.0
  0
LINE
  5
191
100
AcDbEntity
  8
1
100
AcDbLine
 10
-381.732075
 20
-311.725974
 30
0.0
 11
-369.532074
 21
-311.725974
 31
0.0
  0
LINE
  5
192
100
AcDbEntity
  8
1
100
AcDbLine
 10
-369.882075
 20
-311.725974
 30
0.0
 11
-369.882075
 21
-315.235227
 31
0.0
  0
LINE
  5
193
100
AcDbEntity
  8
1
100
AcDbLine
 10
-369.882075
 20
-315.235227
 30
0.0
 11
-370.732074
 21
-315.725976
 31
0.0
  0
LINE
  5
194
100
AcDbEntity
  8
1
100
AcDbLine
 10
-372.757074
 20
-311.725974
 30
0.0
 11
-372.757074
 21
-315.235227
 31
0.0
  0
ARC
  5
195
100
AcDbEntity
  8
1
100
AcDbCircle
 10
-371.319576
 20
-313.387272
 30
0.0
 40
2.341227
100
AcDbArc
 50
232.121121
 51
307.878879
  0
ARC
  5
196
100
AcDbEntity
  8
1
100
AcDbCircle
 10
-375.632076
 20
-307.103499
 30
0.0
 40
8.625
100
AcDbArc
 50
250.528777
 51
289.471219
  0
LINE
  5
197
100
AcDbEntity
  8
1
100
AcDbLine
 10
-381.382074
 20
-311.725974
 30
0.0
 11
-381.382074
 21
-315.235227
 31
0.0
  0
LINE
  5
198
100
AcDbEntity
  8
1
100
AcDbLine
 10
-381.382074
 20
-315.235227
 30
0.0
 11
-380.532075
 21
-315.725976
 31
0.0
  0
LINE
  5
199
100
AcDbEntity
  8
1
100
AcDbLine
 10
-380.532075
 20
-315.725976
 30
0.0
 11
-370.732074
 21
-315.725976
 31
0.0
  0
LINE
  5
19A
100
AcDbEntity
  8
1
100
AcDbLine
 10
-378.507075
 20
-311.725974
 30
0.0
 11
-378.507075
 21
-315.235227
 31
0.0
  0
ARC
  5
19B
100
AcDbEntity
  8
1
100
AcDbCircle
 10
-379.944576
 20
-313.387272
 30
0.0
 40
2.341227
100
AcDbArc
 50
232.121121
 51
307.878879
  0
LINE
  5
19C
100
AcDbEntity
  8
1
100
AcDbLine
 10
-369.532074
 20
-310.225974
 30
0.0
 11
-369.532074
 21
-311.725974
 31
0.0
  0
LINE
  5
19D
100
AcDbEntity
  8
1
100
AcDbLine
 10
-381.732075
 20
-311.725974
 30
0.0
 11
-381.732075
 21
-310.225974
 31
0.0
  0
LINE
  5
19E
100
AcDbEntity
  8
1
100
AcDbLine
 10
-375.632076
 20
-311.725974
 30
0.0
 11
-376.132074
 21
-310.225974
 31
0.0
  0
LINE
  5
19F
100
AcDbEntity
  8
1
100
AcDbLine
 10
-375.632076
 20
-310.225974
 30
0.0
 11
-375.132075
 21
-311.725974
 31
0.0
  0
LINE
  5
1A0
100
AcDbEntity
  8
1
100
AcDbLine
 10
117.427485
 20
-311.725974
 30
0.0
 11
117.427485
 21
-315.725976
 31
0.0
  0
ARC
  5
1A1
100
AcDbEntity
  8
1
100
AcDbCircle
 10
114.927483
 20
-309.112767
 30
0.0
 40
6.613209
100
AcDbArc
 50
247.788205
 51
292.211795
  0
LINE
  5
1A2
100
AcDbEntity
  8
1
100
AcDbLine
 10
107.427483
 20
-311.725974
 30
0.0
 11
107.427483
 21
-315.725976
 31
0.0
  0
LINE
  5
1A3
100
AcDbEntity
  8
1
100
AcDbLine
 10
107.427483
 20
-315.725976
 30
0.0
 11
117.427485
 21
-315.725976
 31
0.0
  0
LINE
  5
1A4
100
AcDbEntity
  8
1
100
AcDbLine
 10
112.427484
 20
-311.725974
 30
0.0
 11
112.427484
 21
-315.235227
 31
0.0
  0
ARC
  5
1A5
100
AcDbEntity
  8
1
100
AcDbCircle
 10
109.927485
 20
-309.112767
 30
0.0
 40
6.613209
100
AcDbArc
 50
247.788205
 51
292.211795
  0
LINE
  5
1A6
100
AcDbEntity
  8
1
100
AcDbLine
 10
118.527483
 20
-310.225974
 30
0.0
 11
118.527483
 21
-311.725974
 31
0.0
  0
LINE
  5
1A7
100
AcDbEntity
  8
1
100
AcDbLine
 10
118.527483
 20
-311.725974
 30
0.0
 11
106.327485
 21
-311.725974
 31
0.0
  0
LINE
  5
1A8
100
AcDbEntity
  8
1
100
AcDbLine
 10
106.327485
 20
-311.725974
 30
0.0
 11
106.327485
 21
-310.225974
 31
0.0
  0
LINE
  5
1A9
100
AcDbEntity
  8
1
100
AcDbLine
 10
147.427485
 20
-311.725974
 30
0.0
 11
147.427485
 21
-315.725976
 31
0.0
  0
ARC
  5
1AA
100
AcDbEntity
  8
1
100
AcDbCircle
 10
144.927483
 20
-309.112767
 30
0.0
 40
6.613209
100
AcDbArc
 50
247.788205
 51
292.211795
  0
LINE
  5
1AB
100
AcDbEntity
  8
1
100
AcDbLine
 10
137.427483
 20
-311.725974
 30
0.0
 11
137.427483
 21
-315.725976
 31
0.0
  0
LINE
  5
1AC
100
AcDbEntity
  8
1
100
AcDbLine
 10
137.427483
 20
-315.725976
 30
0.0
 11
147.427485
 21
-315.725976
 31
0.0
  0
LINE
  5
1AD
100
AcDbEntity
  8
1
100
AcDbLine
 10
142.427484
 20
-311.725974
 30
0.0
 11
142.427484
 21
-315.235227
 31
0.0
  0
ARC
  5
1AE
100
AcDbEntity
  8
1
100
AcDbCircle
 10
139.927485
 20
-309.112767
 30
0.0
 40
6.613209
100
AcDbArc
 50
247.788205
 51
292.211795
  0
LINE
  5
1AF
100
AcDbEntity
  8
1
100
AcDbLine
 10
148.527483
 20
-310.225974
 30
0.0
 11
148.527483
 21
-311.725974
 31
0.0
  0
LINE
  5
1B0
100
AcDbEntity
  8
1
100
AcDbLine
 10
148.527483
 20
-311.725974
 30
0.0
 11
136.327485
 21
-311.725974
 31
0.0
  0
LINE
  5
1B1
100
AcDbEntity
  8
1
100
AcDbLine
 10
136.327485
 20
-311.725974
 30
0.0
 11
136.327485
 21
-310.225974
 31
0.0
  0
LINE
  5
1B2
100
AcDbEntity
  8
1
100
AcDbLine
 10
-371.632074
 20
-116.025084
 30
0.0
 11
-372.339564
 21
-114.799677
 31
0.0
  0
ARC
  5
1B3
100
AcDbEntity
  8
1
100
AcDbCircle
 10
-375.803664
 20
-116.799678
 30
0.0
 40
3.999999
100
AcDbArc
 50
30.0
 51
109.162089
  0
ARC
  5
1B4
100
AcDbEntity
  8
1
100
AcDbCircle
 10
-359.988018
 20
-113.448732
 30
0.0
 40
3.999999
100
AcDbArc
 50
134.307931
 51
144.097166
  0
ARC
  5
1B5
100
AcDbEntity
  8
1
100
AcDbCircle
 10
-372.986412
 20
-116.025084
 30
0.0
 40
1.354338
100
AcDbArc
 50
286.566311
 51
360.0
  0
LINE
  5
1B6
100
AcDbEntity
  8
1
100
AcDbLine
 10
-371.632074
 20
-239.426868
 30
0.0
 11
-372.339564
 21
-240.652272
 31
0.0
  0
ARC
  5
1B7
100
AcDbEntity
  8
1
100
AcDbCircle
 10
-375.803664
 20
-238.652274
 30
0.0
 40
3.999999
100
AcDbArc
 50
250.837911
 51
330.0
  0
ARC
  5
1B8
100
AcDbEntity
  8
1
100
AcDbCircle
 10
-359.988018
 20
-242.003217
 30
0.0
 40
3.999999
100
AcDbArc
 50
215.902834
 51
225.692069
  0
ARC
  5
1B9
100
AcDbEntity
  8
1
100
AcDbCircle
 10
-372.986412
 20
-239.426868
 30
0.0
 40
1.354338
100
AcDbArc
 50
0.0
 51
73.433689
  0
ARC
  5
1BA
100
AcDbEntity
  8
1
100
AcDbCircle
 10
-354.632076
 20
-177.725976
 30
0.0
 40
63.018651
100
AcDbArc
 50
106.566311
 51
253.433689
  0
ARC
  5
1BB
100
AcDbEntity
  8
1
100
AcDbCircle
 10
-354.632076
 20
-177.725976
 30
0.0
 40
63.018651
100
AcDbArc
 50
285.65007
 51
74.34993
  0
LINE
  5
1BC
100
AcDbEntity
  8
1
100
AcDbLine
 10
-342.782076
 20
-213.725976
 30
0.0
 11
-342.782076
 21
-141.725976
 31
0.0
  0
LINE
  5
1BD
100
AcDbEntity
  8
1
100
AcDbLine
 10
-362.782074
 20
-213.725976
 30
0.0
 11
-362.782074
 21
-141.725976
 31
0.0
  0
ARC
  5
1BE
100
AcDbEntity
  8
1
100
AcDbCircle
 10
-354.632076
 20
-177.725976
 30
0.0
 40
61.416609
100
AcDbArc
 50
106.069197
 51
253.930803
  0
ARC
  5
1BF
100
AcDbEntity
  8
1
100
AcDbCircle
 10
-354.632076
 20
-177.725976
 30
0.0
 40
61.416609
100
AcDbArc
 50
286.069197
 51
73.930803
  0
LINE
  5
1C0
100
AcDbEntity
  8
1
100
AcDbLine
 10
-370.632075
 20
-141.725976
 30
0.0
 11
-337.632075
 21
-141.725976
 31
0.0
  0
LINE
  5
1C1
100
AcDbEntity
  8
1
100
AcDbLine
 10
-337.632075
 20
-119.743926
 30
0.0
 11
-337.632075
 21
-116.975976
 31
0.0
  0
LINE
  5
1C2
100
AcDbEntity
  8
1
100
AcDbLine
 10
-336.632076
 20
-140.725974
 30
0.0
 11
-336.632076
 21
-121.475976
 31
0.0
  0
LINE
  5
1C3
100
AcDbEntity
  8
1
100
AcDbLine
 10
-353.632074
 20
-120.475974
 30
0.0
 11
-337.632075
 21
-120.475974
 31
0.0
  0
ARC
  5
1C4
100
AcDbEntity
  8
1
100
AcDbCircle
 10
-337.632075
 20
-121.475976
 30
0.0
 40
0.999999
100
AcDbArc
 50
0.0
 51
90.0
  0
ARC
  5
1C5
100
AcDbEntity
  8
1
100
AcDbCircle
 10
-337.632075
 20
-140.725974
 30
0.0
 40
0.999999
100
AcDbArc
 50
270.0
 51
360.0
  0
ARC
  5
1C6
100
AcDbEntity
  8
1
100
AcDbCircle
 10
-370.632075
 20
-140.725974
 30
0.0
 40
0.999999
100
AcDbArc
 50
180.0
 51
270.0
  0
LINE
  5
1C7
100
AcDbEntity
  8
1
100
AcDbLine
 10
-348.715995
 20
-121.475976
 30
0.0
 11
-348.715995
 21
-140.725974
 31
0.0
  0
ARC
  5
1C8
100
AcDbEntity
  8
1
100
AcDbCircle
 10
-336.632076
 20
-119.743926
 30
0.0
 40
0.999999
100
AcDbArc
 50
180.0
 51
240.0
  0
LINE
  5
1C9
100
AcDbEntity
  8
1
100
AcDbLine
 10
-347.632074
 20
-116.975976
 30
0.0
 11
-337.632075
 21
-116.975976
 31
0.0
  0
LINE
  5
1CA
100
AcDbEntity
  8
1
100
AcDbLine
 10
-347.632074
 20
-116.975976
 30
0.0
 11
-347.632074
 21
-111.322938
 31
0.0
  0
LINE
  5
1CB
100
AcDbEntity
  8
1
100
AcDbLine
 10
-347.632074
 20
-112.810647
 30
0.0
 11
-371.632074
 21
-112.810647
 31
0.0
  0
ARC
  5
1CC
100
AcDbEntity
  8
1
100
AcDbCircle
 10
-352.782075
 20
-287.272218
 30
0.0
 40
172.593846
100
AcDbArc
 50
86.380046
 51
86.678451
  0
LINE
  5
1CD
100
AcDbEntity
  8
1
100
AcDbLine
 10
-337.698381
 20
-116.006937
 30
0.0
 11
-337.698381
 21
-116.975976
 31
0.0
  0
LINE
  5
1CE
100
AcDbEntity
  8
1
100
AcDbLine
 10
-341.884827
 20
-115.022733
 30
0.0
 11
-341.884827
 21
-116.025975
 31
0.0
  0
LINE
  5
1CF
100
AcDbEntity
  8
1
100
AcDbLine
 10
-342.782076
 20
-116.025975
 30
0.0
 11
-341.884827
 21
-116.025975
 31
0.0
  0
LINE
  5
1D0
100
AcDbEntity
  8
1
100
AcDbLine
 10
-342.782076
 20
-116.975976
 30
0.0
 11
-342.782076
 21
-110.258742
 31
0.0
  0
LINE
  5
1D1
100
AcDbEntity
  8
1
100
AcDbLine
 10
-362.782074
 20
-111.127368
 30
0.0
 11
-362.782074
 21
-109.712538
 31
0.0
  0
ARC
  5
1D2
100
AcDbEntity
  8
1
100
AcDbCircle
 10
-352.782075
 20
76.630845
 30
0.0
 40
188.024325
100
AcDbArc
 50
266.646106
 51
271.569532
  0
ARC
  5
1D3
100
AcDbEntity
  8
1
100
AcDbCircle
 10
-353.132076
 20
-177.725976
 30
0.0
 40
67.5
100
AcDbArc
 50
99.077934
 51
105.906843
  0
LINE
  5
1D4
100
AcDbEntity
  8
1
100
AcDbLine
 10
-370.632075
 20
-213.725976
 30
0.0
 11
-337.632075
 21
-213.725976
 31
0.0
  0
LINE
  5
1D5
100
AcDbEntity
  8
1
100
AcDbLine
 10
-337.632075
 20
-235.708026
 30
0.0
 11
-337.632075
 21
-238.475976
 31
0.0
  0
LINE
  5
1D6
100
AcDbEntity
  8
1
100
AcDbLine
 10
-336.632076
 20
-214.725975
 30
0.0
 11
-336.632076
 21
-233.975976
 31
0.0
  0
LINE
  5
1D7
100
AcDbEntity
  8
1
100
AcDbLine
 10
-353.632074
 20
-234.975975
 30
0.0
 11
-337.632075
 21
-234.975975
 31
0.0
  0
ARC
  5
1D8
100
AcDbEntity
  8
1
100
AcDbCircle
 10
-337.632075
 20
-233.975976
 30
0.0
 40
0.999999
100
AcDbArc
 50
270.0
 51
360.0
  0
ARC
  5
1D9
100
AcDbEntity
  8
1
100
AcDbCircle
 10
-337.632075
 20
-214.725975
 30
0.0
 40
0.999999
100
AcDbArc
 50
0.0
 51
90.0
  0
ARC
  5
1DA
100
AcDbEntity
  8
1
100
AcDbCircle
 10
-370.632075
 20
-214.725975
 30
0.0
 40
0.999999
100
AcDbArc
 50
90.0
 51
180.0
  0
LINE
  5
1DB
100
AcDbEntity
  8
1
100
AcDbLine
 10
-348.715995
 20
-233.975976
 30
0.0
 11
-348.715995
 21
-214.725975
 31
0.0
  0
ARC
  5
1DC
100
AcDbEntity
  8
1
100
AcDbCircle
 10
-336.632076
 20
-235.708026
 30
0.0
 40
0.999999
100
AcDbArc
 50
120.0
 51
180.0
  0
LINE
  5
1DD
100
AcDbEntity
  8
1
100
AcDbLine
 10
-347.632074
 20
-238.475976
 30
0.0
 11
-337.632075
 21
-238.475976
 31
0.0
  0
LINE
  5
1DE
100
AcDbEntity
  8
1
100
AcDbLine
 10
-347.632074
 20
-238.475976
 30
0.0
 11
-347.632074
 21
-244.129014
 31
0.0
  0
LINE
  5
1DF
100
AcDbEntity
  8
1
100
AcDbLine
 10
-347.632074
 20
-242.641305
 30
0.0
 11
-371.632074
 21
-242.641305
 31
0.0
  0
ARC
  5
1E0
100
AcDbEntity
  8
1
100
AcDbCircle
 10
-352.782075
 20
-68.179731
 30
0.0
 40
172.593846
100
AcDbArc
 50
273.321549
 51
273.619954
  0
LINE
  5
1E1
100
AcDbEntity
  8
1
100
AcDbLine
 10
-341.884827
 20
-240.429216
 30
0.0
 11
-341.884827
 21
-239.425974
 31
0.0
  0
LINE
  5
1E2
100
AcDbEntity
  8
1
100
AcDbLine
 10
-342.782076
 20
-239.425974
 30
0.0
 11
-341.884827
 21
-239.425974
 31
0.0
  0
LINE
  5
1E3
100
AcDbEntity
  8
1
100
AcDbLine
 10
-342.782076
 20
-238.475976
 30
0.0
 11
-342.782076
 21
-245.193207
 31
0.0
  0
LINE
  5
1E4
100
AcDbEntity
  8
1
100
AcDbLine
 10
-362.782074
 20
-244.324584
 30
0.0
 11
-362.782074
 21
-245.739411
 31
0.0
  0
ARC
  5
1E5
100
AcDbEntity
  8
1
100
AcDbCircle
 10
-352.782075
 20
-432.082794
 30
0.0
 40
188.024325
100
AcDbArc
 50
88.430468
 51
93.353894
  0
ARC
  5
1E6
100
AcDbEntity
  8
1
100
AcDbCircle
 10
-353.132076
 20
-177.725976
 30
0.0
 40
67.5
100
AcDbArc
 50
254.093157
 51
260.922066
  0
LINE
  5
1E7
100
AcDbEntity
  8
1
100
AcDbLine
 10
-367.632075
 20
-212.225976
 30
0.0
 11
-367.632075
 21
-143.225976
 31
0.0
  0
LINE
  5
1E8
100
AcDbEntity
  8
1
100
AcDbLine
 10
-341.632074
 20
-212.225976
 30
0.0
 11
-341.632074
 21
-143.225976
 31
0.0
  0
LINE
  5
1E9
100
AcDbEntity
  8
1
100
AcDbLine
 10
-371.632074
 20
-112.810647
 30
0.0
 11
-371.632074
 21
-242.641305
 31
0.0
  0
LINE
  5
1EA
100
AcDbEntity
  8
1
100
AcDbLine
 10
-337.632075
 20
-212.725974
 30
0.0
 11
-337.632075
 21
-142.725975
 31
0.0
  0
ARC
  5
1EB
100
AcDbEntity
  8
1
100
AcDbCircle
 10
-366.132075
 20
-143.225976
 30
0.0
 40
1.5
100
AcDbArc
 50
90.0
 51
180.0
  0
ARC
  5
1EC
100
AcDbEntity
  8
1
100
AcDbCircle
 10
-343.132074
 20
-143.225976
 30
0.0
 40
1.5
100
AcDbArc
 50
0.0
 51
76.506601
  0
ARC
  5
1ED
100
AcDbEntity
  8
1
100
AcDbCircle
 10
-366.132075
 20
-212.225976
 30
0.0
 40
1.5
100
AcDbArc
 50
180.0
 51
270.0
  0
ARC
  5
1EE
100
AcDbEntity
  8
1
100
AcDbCircle
 10
-343.132074
 20
-212.225976
 30
0.0
 40
1.5
100
AcDbArc
 50
283.493399
 51
360.0
  0
ARC
  5
1EF
100
AcDbEntity
  8
1
100
AcDbCircle
 10
-336.132075
 20
-212.725974
 30
0.0
 40
1.5
100
AcDbArc
 50
180.0
 51
233.130102
  0
ARC
  5
1F0
100
AcDbEntity
  8
1
100
AcDbCircle
 10
-336.132075
 20
-142.725975
 30
0.0
 40
1.5
100
AcDbArc
 50
126.869898
 51
180.0
  0
LINE
  5
1F1
100
AcDbEntity
  8
1
  6
CENTER
 62
     2
100
AcDbLine
 10
-369.015804
 20
-136.725972
 30
0.0
 11
-357.191187
 21
-136.725975
 31
0.0
  0
LINE
  5
1F2
100
AcDbEntity
  8
1
100
AcDbLine
 10
-366.632076
 20
-131.725974
 30
0.0
 11
-355.632075
 21
-131.725974
 31
0.0
  0
ARC
  5
1F3
100
AcDbEntity
  8
1
100
AcDbCircle
 10
-366.632076
 20
-136.725975
 30
0.0
 40
5.000001
100
AcDbArc
 50
90.0
 51
270.0
  0
ARC
  5
1F4
100
AcDbEntity
  8
1
100
AcDbCircle
 10
-355.632075
 20
-130.725975
 30
0.0
 40
0.999999
100
AcDbArc
 50
270.0
 51
360.0
  0
ARC
  5
1F5
100
AcDbEntity
  8
1
100
AcDbCircle
 10
-353.632074
 20
-119.475975
 30
0.0
 40
0.999999
100
AcDbArc
 50
180.0
 51
270.0
  0
ARC
  5
1F6
100
AcDbEntity
  8
1
100
AcDbCircle
 10
-349.715994
 20
-121.475976
 30
0.0
 40
0.999999
100
AcDbArc
 50
0.0
 51
90.0
  0
ARC
  5
1F7
100
AcDbEntity
  8
1
100
AcDbCircle
 10
-349.715994
 20
-140.725974
 30
0.0
 40
0.999999
100
AcDbArc
 50
270.0
 51
360.0
  0
ARC
  5
1F8
100
AcDbEntity
  8
1
100
AcDbCircle
 10
-353.632074
 20
-235.975974
 30
0.0
 40
0.999999
100
AcDbArc
 50
90.0
 51
180.0
  0
ARC
  5
1F9
100
AcDbEntity
  8
1
100
AcDbCircle
 10
-349.715994
 20
-233.975976
 30
0.0
 40
0.999999
100
AcDbArc
 50
270.0
 51
360.0
  0
ARC
  5
1FA
100
AcDbEntity
  8
1
100
AcDbCircle
 10
-349.715994
 20
-214.725975
 30
0.0
 40
0.999999
100
AcDbArc
 50
0.0
 51
90.0
  0
LINE
  5
1FB
100
AcDbEntity
  8
1
100
AcDbLine
 10
-366.632076
 20
-223.725975
 30
0.0
 11
-355.632075
 21
-223.725975
 31
0.0
  0
ARC
  5
1FC
100
AcDbEntity
  8
1
100
AcDbCircle
 10
-366.632076
 20
-218.725974
 30
0.0
 40
5.000001
100
AcDbArc
 50
90.0
 51
270.0
  0
ARC
  5
1FD
100
AcDbEntity
  8
1
100
AcDbCircle
 10
-355.632075
 20
-224.725974
 30
0.0
 40
0.999999
100
AcDbArc
 50
0.0
 51
90.0
  0
LINE
  5
1FE
100
AcDbEntity
  8
1
  6
CENTER
 62
     2
100
AcDbLine
 10
-359.158578
 20
-218.725968
 30
0.0
 11
-346.185909
 21
-218.725974
 31
0.0
  0
LINE
  5
1FF
100
AcDbEntity
  8
1
  6
CENTER
 62
     2
100
AcDbLine
 10
-362.782074
 20
-141.725976
 30
0.0
 11
-362.782074
 21
-129.412851
 31
0.0
  0
ARC
  5
200
100
AcDbEntity
  8
1
100
AcDbCircle
 10
-354.429972
 20
-177.781155
 30
0.0
 40
63.999999
100
AcDbArc
 50
74.845003
 51
78.695808
  0
LINE
  5
201
100
AcDbEntity
  8
1
100
AcDbLine
 10
-337.698381
 20
-239.445012
 30
0.0
 11
-337.698381
 21
-238.475976
 31
0.0
  0
ARC
  5
202
100
AcDbEntity
  8
1
100
AcDbCircle
 10
-354.429972
 20
-177.670797
 30
0.0
 40
63.999999
100
AcDbArc
 50
281.304192
 51
285.154997
  0
ARC
  5
203
100
AcDbEntity
  8
1
100
AcDbCircle
 10
-354.632076
 20
-177.725976
 30
0.0
 40
60.269277
100
AcDbArc
 50
106.383634
 51
253.616366
  0
ARC
  5
204
100
AcDbEntity
  8
1
100
AcDbCircle
 10
-354.632076
 20
-177.725976
 30
0.0
 40
60.269277
100
AcDbArc
 50
286.397054
 51
73.602946
  0
ARC
  5
205
100
AcDbEntity
  8
1
100
AcDbCircle
 10
-354.632076
 20
-177.725976
 30
0.0
 40
57.999999
100
AcDbArc
 50
107.043847
 51
252.956153
  0
ARC
  5
206
100
AcDbEntity
  8
1
100
AcDbCircle
 10
-354.632076
 20
-177.725976
 30
0.0
 40
57.999999
100
AcDbArc
 50
288.080013
 51
71.919987
  0
ARC
  5
207
100
AcDbEntity
  8
1
100
AcDbCircle
 10
-354.632076
 20
-177.725976
 30
0.0
 40
58.867353
100
AcDbArc
 50
106.785221
 51
253.214779
  0
ARC
  5
208
100
AcDbEntity
  8
1
100
AcDbCircle
 10
-354.632076
 20
-177.725976
 30
0.0
 40
58.867353
100
AcDbArc
 50
287.804627
 51
72.195373
  0
LINE
  5
209
100
AcDbEntity
  8
1
100
AcDbLine
 10
-336.132075
 20
-156.725976
 30
0.0
 11
-321.132075
 21
-156.725976
 31
0.0
  0
LINE
  5
20A
100
AcDbEntity
  8
1
100
AcDbLine
 10
-336.132075
 20
-175.725975
 30
0.0
 11
-321.132075
 21
-175.725975
 31
0.0
  0
LINE
  5
20B
100
AcDbEntity
  8
1
100
AcDbLine
 10
-388.132074
 20
-175.725975
 30
0.0
 11
-373.132074
 21
-175.725975
 31
0.0
  0
LINE
  5
20C
100
AcDbEntity
  8
1
100
AcDbLine
 10
-366.132075
 20
-175.725975
 30
0.0
 11
-362.782074
 21
-175.725975
 31
0.0
  0
LINE
  5
20D
100
AcDbEntity
  8
1
100
AcDbLine
 10
-388.132074
 20
-160.725975
 30
0.0
 11
-373.132074
 21
-160.725975
 31
0.0
  0
LINE
  5
20E
100
AcDbEntity
  8
1
100
AcDbLine
 10
-388.132074
 20
-156.725976
 30
0.0
 11
-373.132074
 21
-156.725976
 31
0.0
  0
LINE
  5
20F
100
AcDbEntity
  8
1
100
AcDbLine
 10
-366.132075
 20
-156.725976
 30
0.0
 11
-362.782074
 21
-156.725976
 31
0.0
  0
LINE
  5
210
100
AcDbEntity
  8
1
100
AcDbLine
 10
-319.632075
 20
-174.225975
 30
0.0
 11
-319.632075
 21
-162.225975
 31
0.0
  0
LINE
  5
211
100
AcDbEntity
  8
1
100
AcDbLine
 10
-389.632074
 20
-162.225975
 30
0.0
 11
-389.632074
 21
-174.225975
 31
0.0
  0
LINE
  5
212
100
AcDbEntity
  8
1
100
AcDbLine
 10
-393.632076
 20
-145.110795
 30
0.0
 11
-393.632076
 21
-174.225975
 31
0.0
  0
LINE
  5
213
100
AcDbEntity
  8
1
100
AcDbLine
 10
-315.632076
 20
-174.225975
 30
0.0
 11
-315.632076
 21
-145.110795
 31
0.0
  0
ARC
  5
214
100
AcDbEntity
  8
1
100
AcDbCircle
 10
-321.132075
 20
-162.225975
 30
0.0
 40
1.5
100
AcDbArc
 50
0.0
 51
90.0
  0
ARC
  5
215
100
AcDbEntity
  8
1
100
AcDbCircle
 10
-321.132075
 20
-174.225975
 30
0.0
 40
1.5
100
AcDbArc
 50
270.0
 51
360.0
  0
LINE
  5
216
100
AcDbEntity
  8
1
100
AcDbLine
 10
-366.132075
 20
-160.725975
 30
0.0
 11
-362.782074
 21
-160.725975
 31
0.0
  0
LINE
  5
217
100
AcDbEntity
  8
1
100
AcDbLine
 10
-336.132075
 20
-160.725975
 30
0.0
 11
-321.132075
 21
-160.725975
 31
0.0
  0
ARC
  5
218
100
AcDbEntity
  8
1
100
AcDbCircle
 10
-388.132074
 20
-162.225975
 30
0.0
 40
1.5
100
AcDbArc
 50
90.0
 51
180.0
  0
ARC
  5
219
100
AcDbEntity
  8
1
100
AcDbCircle
 10
-388.132074
 20
-174.225975
 30
0.0
 40
1.5
100
AcDbArc
 50
180.0
 51
270.0
  0
ARC
  5
21A
100
AcDbEntity
  8
1
100
AcDbCircle
 10
-343.132074
 20
-174.225975
 30
0.0
 40
1.5
100
AcDbArc
 50
283.493399
 51
360.0
  0
ARC
  5
21B
100
AcDbEntity
  8
1
100
AcDbCircle
 10
-343.132074
 20
-162.225975
 30
0.0
 40
1.5
100
AcDbArc
 50
0.0
 51
76.506601
  0
ARC
  5
21C
100
AcDbEntity
  8
1
100
AcDbCircle
 10
-343.132074
 20
-155.225976
 30
0.0
 40
1.5
100
AcDbArc
 50
283.493399
 51
360.0
  0
ARC
  5
21D
100
AcDbEntity
  8
1
100
AcDbCircle
 10
-366.132075
 20
-155.225976
 30
0.0
 40
1.5
100
AcDbArc
 50
180.0
 51
270.0
  0
ARC
  5
21E
100
AcDbEntity
  8
1
100
AcDbCircle
 10
-366.132075
 20
-162.225975
 30
0.0
 40
1.5
100
AcDbArc
 50
90.0
 51
180.0
  0
ARC
  5
21F
100
AcDbEntity
  8
1
100
AcDbCircle
 10
-366.132075
 20
-174.225975
 30
0.0
 40
1.5
100
AcDbArc
 50
180.0
 51
270.0
  0
ARC
  5
220
100
AcDbEntity
  8
1
100
AcDbCircle
 10
-373.132074
 20
-174.225975
 30
0.0
 40
1.5
100
AcDbArc
 50
270.0
 51
360.0
  0
ARC
  5
221
100
AcDbEntity
  8
1
100
AcDbCircle
 10
-373.132074
 20
-162.225975
 30
0.0
 40
1.5
100
AcDbArc
 50
0.0
 51
90.0
  0
ARC
  5
222
100
AcDbEntity
  8
1
100
AcDbCircle
 10
-373.132074
 20
-155.225976
 30
0.0
 40
1.5
100
AcDbArc
 50
270.0
 51
360.0
  0
ARC
  5
223
100
AcDbEntity
  8
1
100
AcDbCircle
 10
-336.132075
 20
-162.225975
 30
0.0
 40
1.5
100
AcDbArc
 50
90.0
 51
180.0
  0
ARC
  5
224
100
AcDbEntity
  8
1
100
AcDbCircle
 10
-336.132075
 20
-174.225975
 30
0.0
 40
1.5
100
AcDbArc
 50
180.0
 51
270.0
  0
ARC
  5
225
100
AcDbEntity
  8
1
100
AcDbCircle
 10
-336.132075
 20
-155.225976
 30
0.0
 40
1.5
100
AcDbArc
 50
180.0
 51
270.0
  0
LINE
  5
226
100
AcDbEntity
  8
1
100
AcDbLine
 10
-319.632075
 20
-155.225976
 30
0.0
 11
-319.632075
 21
-137.954754
 31
0.0
  0
LINE
  5
227
100
AcDbEntity
  8
1
100
AcDbLine
 10
-389.632074
 20
-155.225976
 30
0.0
 11
-389.632074
 21
-137.954754
 31
0.0
  0
ARC
  5
228
100
AcDbEntity
  8
1
100
AcDbCircle
 10
-321.132075
 20
-155.225976
 30
0.0
 40
1.5
100
AcDbArc
 50
270.0
 51
360.0
  0
ARC
  5
229
100
AcDbEntity
  8
1
100
AcDbCircle
 10
-388.132074
 20
-155.225976
 30
0.0
 40
1.5
100
AcDbArc
 50
180.0
 51
270.0
  0
ARC
  5
22A
100
AcDbEntity
  8
1
100
AcDbCircle
 10
-354.632076
 20
-177.725976
 30
0.0
 40
53.499999
100
AcDbArc
 50
3.859364
 51
38.844949
  0
ARC
  5
22B
100
AcDbEntity
  8
1
100
AcDbCircle
 10
-354.632076
 20
-177.725976
 30
0.0
 40
53.499999
100
AcDbArc
 50
49.891974
 51
70.339349
  0
ARC
  5
22C
100
AcDbEntity
  8
1
100
AcDbCircle
 10
-354.632076
 20
-177.725976
 30
0.0
 40
53.499999
100
AcDbArc
 50
108.527332
 51
130.108026
  0
ARC
  5
22D
100
AcDbEntity
  8
1
100
AcDbCircle
 10
-354.632076
 20
-177.725976
 30
0.0
 40
53.499999
100
AcDbArc
 50
141.155051
 51
176.140636
  0
ARC
  5
22E
100
AcDbEntity
  8
1
100
AcDbCircle
 10
-321.132075
 20
-137.954754
 30
0.0
 40
1.5
100
AcDbArc
 50
0.0
 51
49.891974
  0
ARC
  5
22F
100
AcDbEntity
  8
1
100
AcDbCircle
 10
-314.132076
 20
-145.110795
 30
0.0
 40
1.5
100
AcDbArc
 50
38.844949
 51
180.0
  0
ARC
  5
230
100
AcDbEntity
  8
1
100
AcDbCircle
 10
-388.132074
 20
-137.954754
 30
0.0
 40
1.5
100
AcDbArc
 50
130.108026
 51
180.0
  0
ARC
  5
231
100
AcDbEntity
  8
1
100
AcDbCircle
 10
-395.132076
 20
-145.110795
 30
0.0
 40
1.5
100
AcDbArc
 50
0.0
 51
141.155051
  0
LINE
  5
232
100
AcDbEntity
  8
1
100
AcDbLine
 10
-314.132076
 20
-175.725975
 30
0.0
 11
-302.749998
 21
-175.725975
 31
0.0
  0
LINE
  5
233
100
AcDbEntity
  8
1
100
AcDbLine
 10
-395.132076
 20
-175.725975
 30
0.0
 11
-406.514151
 21
-175.725975
 31
0.0
  0
ARC
  5
234
100
AcDbEntity
  8
1
100
AcDbCircle
 10
-395.132076
 20
-174.225975
 30
0.0
 40
1.5
100
AcDbArc
 50
270.0
 51
360.0
  0
ARC
  5
235
100
AcDbEntity
  8
1
100
AcDbCircle
 10
-314.132076
 20
-174.225975
 30
0.0
 40
1.5
100
AcDbArc
 50
180.0
 51
270.0
  0
ARC
  5
236
100
AcDbEntity
  8
1
100
AcDbCircle
 10
-302.749998
 20
-174.225975
 30
0.0
 40
1.5
100
AcDbArc
 50
270.0
 51
3.859364
  0
ARC
  5
237
100
AcDbEntity
  8
1
100
AcDbCircle
 10
-406.514151
 20
-174.225975
 30
0.0
 40
1.5
100
AcDbArc
 50
176.140636
 51
270.0
  0
LINE
  5
238
100
AcDbEntity
  8
1
100
AcDbLine
 10
-336.132075
 20
-198.725976
 30
0.0
 11
-321.132075
 21
-198.725976
 31
0.0
  0
LINE
  5
239
100
AcDbEntity
  8
1
100
AcDbLine
 10
-336.132075
 20
-179.725974
 30
0.0
 11
-321.132075
 21
-179.725974
 31
0.0
  0
LINE
  5
23A
100
AcDbEntity
  8
1
100
AcDbLine
 10
-388.132074
 20
-179.725974
 30
0.0
 11
-373.132074
 21
-179.725974
 31
0.0
  0
LINE
  5
23B
100
AcDbEntity
  8
1
100
AcDbLine
 10
-366.132075
 20
-179.725974
 30
0.0
 11
-362.782074
 21
-179.725974
 31
0.0
  0
LINE
  5
23C
100
AcDbEntity
  8
1
100
AcDbLine
 10
-388.132074
 20
-194.725974
 30
0.0
 11
-373.132074
 21
-194.725974
 31
0.0
  0
LINE
  5
23D
100
AcDbEntity
  8
1
100
AcDbLine
 10
-388.132074
 20
-198.725976
 30
0.0
 11
-373.132074
 21
-198.725976
 31
0.0
  0
LINE
  5
23E
100
AcDbEntity
  8
1
100
AcDbLine
 10
-366.132075
 20
-198.725976
 30
0.0
 11
-362.782074
 21
-198.725976
 31
0.0
  0
LINE
  5
23F
100
AcDbEntity
  8
1
100
AcDbLine
 10
-319.632075
 20
-181.225974
 30
0.0
 11
-319.632075
 21
-193.225974
 31
0.0
  0
LINE
  5
240
100
AcDbEntity
  8
1
100
AcDbLine
 10
-389.632074
 20
-193.225974
 30
0.0
 11
-389.632074
 21
-181.225974
 31
0.0
  0
LINE
  5
241
100
AcDbEntity
  8
1
100
AcDbLine
 10
-393.632076
 20
-210.341157
 30
0.0
 11
-393.632076
 21
-181.225974
 31
0.0
  0
LINE
  5
242
100
AcDbEntity
  8
1
100
AcDbLine
 10
-315.632076
 20
-181.225974
 30
0.0
 11
-315.632076
 21
-210.341157
 31
0.0
  0
ARC
  5
243
100
AcDbEntity
  8
1
100
AcDbCircle
 10
-321.132075
 20
-193.225974
 30
0.0
 40
1.5
100
AcDbArc
 50
270.0
 51
360.0
  0
ARC
  5
244
100
AcDbEntity
  8
1
100
AcDbCircle
 10
-321.132075
 20
-181.225974
 30
0.0
 40
1.5
100
AcDbArc
 50
0.0
 51
90.0
  0
LINE
  5
245
100
AcDbEntity
  8
1
100
AcDbLine
 10
-366.132075
 20
-194.725974
 30
0.0
 11
-362.782074
 21
-194.725974
 31
0.0
  0
LINE
  5
246
100
AcDbEntity
  8
1
100
AcDbLine
 10
-336.132075
 20
-194.725974
 30
0.0
 11
-321.132075
 21
-194.725974
 31
0.0
  0
ARC
  5
247
100
AcDbEntity
  8
1
100
AcDbCircle
 10
-388.132074
 20
-193.225974
 30
0.0
 40
1.5
100
AcDbArc
 50
180.0
 51
270.0
  0
ARC
  5
248
100
AcDbEntity
  8
1
100
AcDbCircle
 10
-388.132074
 20
-181.225974
 30
0.0
 40
1.5
100
AcDbArc
 50
90.0
 51
180.0
  0
ARC
  5
249
100
AcDbEntity
  8
1
100
AcDbCircle
 10
-343.132074
 20
-181.225974
 30
0.0
 40
1.5
100
AcDbArc
 50
0.0
 51
76.506601
  0
ARC
  5
24A
100
AcDbEntity
  8
1
100
AcDbCircle
 10
-343.132074
 20
-193.225974
 30
0.0
 40
1.5
100
AcDbArc
 50
283.493399
 51
360.0
  0
ARC
  5
24B
100
AcDbEntity
  8
1
100
AcDbCircle
 10
-343.132074
 20
-200.225976
 30
0.0
 40
1.5
100
AcDbArc
 50
0.0
 51
76.506601
  0
ARC
  5
24C
100
AcDbEntity
  8
1
100
AcDbCircle
 10
-366.132075
 20
-200.225976
 30
0.0
 40
1.5
100
AcDbArc
 50
90.0
 51
180.0
  0
ARC
  5
24D
100
AcDbEntity
  8
1
100
AcDbCircle
 10
-366.132075
 20
-193.225974
 30
0.0
 40
1.5
100
AcDbArc
 50
180.0
 51
270.0
  0
ARC
  5
24E
100
AcDbEntity
  8
1
100
AcDbCircle
 10
-366.132075
 20
-181.225974
 30
0.0
 40
1.5
100
AcDbArc
 50
90.0
 51
180.0
  0
ARC
  5
24F
100
AcDbEntity
  8
1
100
AcDbCircle
 10
-373.132074
 20
-181.225974
 30
0.0
 40
1.5
100
AcDbArc
 50
0.0
 51
90.0
  0
ARC
  5
250
100
AcDbEntity
  8
1
100
AcDbCircle
 10
-373.132074
 20
-193.225974
 30
0.0
 40
1.5
100
AcDbArc
 50
270.0
 51
360.0
  0
ARC
  5
251
100
AcDbEntity
  8
1
100
AcDbCircle
 10
-373.132074
 20
-200.225976
 30
0.0
 40
1.5
100
AcDbArc
 50
0.0
 51
90.0
  0
ARC
  5
252
100
AcDbEntity
  8
1
100
AcDbCircle
 10
-336.132075
 20
-193.225974
 30
0.0
 40
1.5
100
AcDbArc
 50
180.0
 51
270.0
  0
ARC
  5
253
100
AcDbEntity
  8
1
100
AcDbCircle
 10
-336.132075
 20
-181.225974
 30
0.0
 40
1.5
100
AcDbArc
 50
90.0
 51
180.0
  0
ARC
  5
254
100
AcDbEntity
  8
1
100
AcDbCircle
 10
-336.132075
 20
-200.225976
 30
0.0
 40
1.5
100
AcDbArc
 50
90.0
 51
180.0
  0
LINE
  5
255
100
AcDbEntity
  8
1
100
AcDbLine
 10
-319.632075
 20
-200.225976
 30
0.0
 11
-319.632075
 21
-217.497195
 31
0.0
  0
LINE
  5
256
100
AcDbEntity
  8
1
100
AcDbLine
 10
-389.632074
 20
-200.225976
 30
0.0
 11
-389.632074
 21
-217.497195
 31
0.0
  0
ARC
  5
257
100
AcDbEntity
  8
1
100
AcDbCircle
 10
-321.132075
 20
-200.225976
 30
0.0
 40
1.5
100
AcDbArc
 50
0.0
 51
90.0
  0
ARC
  5
258
100
AcDbEntity
  8
1
100
AcDbCircle
 10
-388.132074
 20
-200.225976
 30
0.0
 40
1.5
100
AcDbArc
 50
90.0
 51
180.0
  0
ARC
  5
259
100
AcDbEntity
  8
1
100
AcDbCircle
 10
-354.632076
 20
-177.725976
 30
0.0
 40
53.499999
100
AcDbArc
 50
321.155051
 51
356.140636
  0
ARC
  5
25A
100
AcDbEntity
  8
1
100
AcDbCircle
 10
-354.632076
 20
-177.725976
 30
0.0
 40
53.499999
100
AcDbArc
 50
289.660651
 51
310.108026
  0
ARC
  5
25B
100
AcDbEntity
  8
1
100
AcDbCircle
 10
-354.632076
 20
-177.725976
 30
0.0
 40
53.499999
100
AcDbArc
 50
229.891974
 51
251.472668
  0
ARC
  5
25C
100
AcDbEntity
  8
1
100
AcDbCircle
 10
-354.632076
 20
-177.725976
 30
0.0
 40
53.499999
100
AcDbArc
 50
183.859364
 51
218.844949
  0
ARC
  5
25D
100
AcDbEntity
  8
1
100
AcDbCircle
 10
-321.132075
 20
-217.497195
 30
0.0
 40
1.5
100
AcDbArc
 50
310.108026
 51
360.0
  0
ARC
  5
25E
100
AcDbEntity
  8
1
100
AcDbCircle
 10
-314.132076
 20
-210.341157
 30
0.0
 40
1.5
100
AcDbArc
 50
180.0
 51
321.155051
  0
ARC
  5
25F
100
AcDbEntity
  8
1
100
AcDbCircle
 10
-388.132074
 20
-217.497195
 30
0.0
 40
1.5
100
AcDbArc
 50
180.0
 51
229.891974
  0
ARC
  5
260
100
AcDbEntity
  8
1
100
AcDbCircle
 10
-395.132076
 20
-210.341157
 30
0.0
 40
1.5
100
AcDbArc
 50
218.844949
 51
360.0
  0
LINE
  5
261
100
AcDbEntity
  8
1
100
AcDbLine
 10
-314.132076
 20
-179.725974
 30
0.0
 11
-302.749998
 21
-179.725974
 31
0.0
  0
LINE
  5
262
100
AcDbEntity
  8
1
100
AcDbLine
 10
-395.132076
 20
-179.725974
 30
0.0
 11
-406.514151
 21
-179.725974
 31
0.0
  0
ARC
  5
263
100
AcDbEntity
  8
1
100
AcDbCircle
 10
-395.132076
 20
-181.225974
 30
0.0
 40
1.5
100
AcDbArc
 50
0.0
 51
90.0
  0
ARC
  5
264
100
AcDbEntity
  8
1
100
AcDbCircle
 10
-314.132076
 20
-181.225974
 30
0.0
 40
1.5
100
AcDbArc
 50
90.0
 51
180.0
  0
ARC
  5
265
100
AcDbEntity
  8
1
100
AcDbCircle
 10
-302.749998
 20
-181.225974
 30
0.0
 40
1.5
100
AcDbArc
 50
356.140636
 51
90.0
  0
ARC
  5
266
100
AcDbEntity
  8
1
100
AcDbCircle
 10
-406.514151
 20
-181.225974
 30
0.0
 40
1.5
100
AcDbArc
 50
90.0
 51
183.859364
  0
CIRCLE
  5
267
100
AcDbEntity
  8
1
100
AcDbCircle
 10
-362.782074
 20
-136.725972
 30
0.0
 40
3.015
  0
CIRCLE
  5
268
100
AcDbEntity
  8
1
 62
     2
100
AcDbCircle
 10
-362.782074
 20
-136.725975
 30
0.0
 40
2.000001
  0
CIRCLE
  5
269
100
AcDbEntity
  8
1
100
AcDbCircle
 10
-362.782074
 20
-136.725975
 30
0.0
 40
1.620999
  0
CIRCLE
  5
26A
100
AcDbEntity
  8
1
100
AcDbCircle
 10
-362.782074
 20
-136.725972
 30
0.0
 40
2.150001
  0
CIRCLE
  5
26B
100
AcDbEntity
  8
1
100
AcDbCircle
 10
-352.782075
 20
-218.725974
 30
0.0
 40
3.015
  0
CIRCLE
  5
26C
100
AcDbEntity
  8
1
 62
     2
100
AcDbCircle
 10
-352.782075
 20
-218.725977
 30
0.0
 40
2.000001
  0
CIRCLE
  5
26D
100
AcDbEntity
  8
1
100
AcDbCircle
 10
-352.782075
 20
-218.725977
 30
0.0
 40
1.620999
  0
CIRCLE
  5
26E
100
AcDbEntity
  8
1
100
AcDbCircle
 10
-352.782075
 20
-218.725974
 30
0.0
 40
2.150001
  0
LINE
  5
26F
100
AcDbEntity
  8
1
100
AcDbLine
 10
-331.782075
 20
13.774026
 30
0.0
 11
-373.782075
 21
13.774026
 31
0.0
  0
LINE
  5
270
100
AcDbEntity
  8
1
100
AcDbLine
 10
-446.132076
 20
291.884895
 30
0.0
 11
-406.468665
 21
291.884895
 31
0.0
  0
LINE
  5
271
100
AcDbEntity
  8
1
  6
DASHED
100
AcDbLine
 10
-406.468665
 20
291.884895
 30
0.0
 11
-403.347201
 21
291.884895
 31
0.0
  0
LINE
  5
272
100
AcDbEntity
  8
1
100
AcDbLine
 10
-439.570527
 20
271.884894
 30
0.0
 11
-414.119256
 21
271.884894
 31
0.0
  0
LINE
  5
273
100
AcDbEntity
  8
1
  6
DASHED
100
AcDbLine
 10
-414.119256
 20
271.884894
 30
0.0
 11
-403.782075
 21
271.884894
 31
0.0
  0
LINE
  5
274
100
AcDbEntity
  8
1
100
AcDbLine
 10
-430.097298
 20
266.243355
 30
0.0
 11
-414.957794
 21
266.243355
 31
0.0
  0
LINE
  5
275
100
AcDbEntity
  8
1
  6
DASHED
100
AcDbLine
 10
-414.957792
 20
266.243355
 30
0.0
 11
-403.782075
 21
266.243355
 31
0.0
  0
LINE
  5
276
100
AcDbEntity
  8
1
100
AcDbLine
 10
-430.097298
 20
251.526435
 30
0.0
 11
-414.720642
 21
251.526435
 31
0.0
  0
LINE
  5
277
100
AcDbEntity
  8
1
  6
DASHED
100
AcDbLine
 10
-414.720642
 20
251.526435
 30
0.0
 11
-403.782075
 21
251.526435
 31
0.0
  0
LINE
  5
278
100
AcDbEntity
  8
1
100
AcDbLine
 10
-443.709138
 20
245.884896
 30
0.0
 11
-413.693895
 21
245.884896
 31
0.0
  0
LINE
  5
279
100
AcDbEntity
  8
1
  6
DASHED
100
AcDbLine
 10
-413.693895
 20
245.884896
 30
0.0
 11
-403.782075
 21
245.884896
 31
0.0
  0
LINE
  5
27A
100
AcDbEntity
  8
1
100
AcDbLine
 10
-446.132076
 20
235.884894
 30
0.0
 11
-410.490393
 21
235.884894
 31
0.0
  0
LINE
  5
27B
100
AcDbEntity
  8
1
  6
DASHED
100
AcDbLine
 10
-410.490393
 20
235.884894
 30
0.0
 11
-403.782075
 21
235.884894
 31
0.0
  0
LINE
  5
27C
100
AcDbEntity
  8
1
100
AcDbLine
 10
-263.132076
 20
235.884894
 30
0.0
 11
-263.132076
 21
243.947076
 31
0.0
  0
LINE
  5
27D
100
AcDbEntity
  8
1
  6
DASHED
100
AcDbLine
 10
-263.132076
 20
243.947076
 30
0.0
 11
-263.132076
 21
272.111943
 31
0.0
  0
LINE
  5
27E
100
AcDbEntity
  8
1
100
AcDbLine
 10
-263.132076
 20
235.884894
 30
0.0
 11
-268.140645
 21
235.884894
 31
0.0
  0
LINE
  5
27F
100
AcDbEntity
  8
1
  6
DASHED
100
AcDbLine
 10
-268.140645
 20
235.884894
 30
0.0
 11
-301.782075
 21
235.884894
 31
0.0
  0
LINE
  5
280
100
AcDbEntity
  8
1
  6
DASHED
100
AcDbLine
 10
-296.953521
 20
291.884895
 30
0.0
 11
-302.216949
 21
291.884895
 31
0.0
  0
LINE
  5
281
100
AcDbEntity
  8
1
100
AcDbLine
 10
-295.890515
 20
291.884895
 30
0.0
 11
-296.953521
 21
291.884895
 31
0.0
  0
LINE
  5
282
100
AcDbEntity
  8
1
100
AcDbLine
 10
-263.132076
 20
291.884895
 30
0.0
 11
-287.72633
 21
291.884895
 31
0.0
  0
LINE
  5
283
100
AcDbEntity
  8
1
  6
DASHED
100
AcDbLine
 10
-287.72633
 20
291.884895
 30
0.0
 11
-295.890515
 21
291.884895
 31
0.0
  0
LINE
  5
284
100
AcDbEntity
  8
1
  6
DASHED
100
AcDbLine
 10
-269.693622
 20
271.884894
 30
0.0
 11
-269.693622
 21
275.937246
 31
0.0
  0
LINE
  5
285
100
AcDbEntity
  8
1
100
AcDbLine
 10
-269.693622
 20
275.937246
 30
0.0
 11
-269.693622
 21
283.884894
 31
0.0
  0
ARC
  5
286
100
AcDbEntity
  8
1
100
AcDbCircle
 10
-255.192951
 20
278.776956
 30
0.0
 40
3.0
100
AcDbArc
 50
293.191301
 51
314.237421
  0
ARC
  5
287
100
AcDbEntity
  8
1
100
AcDbCircle
 10
-255.192951
 20
278.776956
 30
0.0
 40
3.0
100
AcDbArc
 50
314.237421
 51
360.0
  0
ARC
  5
288
100
AcDbEntity
  8
1
100
AcDbCircle
 10
-256.716267
 20
279.01455
 30
0.0
 40
3.0
100
AcDbArc
 50
287.094504
 51
308.240742
  0
ARC
  5
289
100
AcDbEntity
  8
1
100
AcDbCircle
 10
-256.716267
 20
279.01455
 30
0.0
 40
3.0
100
AcDbArc
 50
308.240742
 51
360.0
  0
LINE
  5
28A
100
AcDbEntity
  8
1
100
AcDbLine
 10
112.427484
 20
13.774026
 30
0.0
 11
142.427484
 21
13.774026
 31
0.0
  0
LINE
  5
28B
100
AcDbEntity
  8
1
100
AcDbLine
 10
76.427484
 20
7.274025
 30
0.0
 11
178.427484
 21
7.274025
 31
0.0
  0
LINE
  5
28C
100
AcDbEntity
  8
1
100
AcDbLine
 10
174.427485
 20
-7.725975
 30
0.0
 11
80.427483
 21
-7.725975
 31
0.0
  0
ARC
  5
28D
100
AcDbEntity
  8
1
100
AcDbCircle
 10
76.427484
 20
-37.48986
 30
0.0
 40
30.0
100
AcDbArc
 50
0.0
 51
39.950797
  0
ARC
  5
28E
100
AcDbEntity
  8
1
100
AcDbCircle
 10
76.427484
 20
-37.48986
 30
0.0
 40
30.0
100
AcDbArc
 50
78.974153
 51
83.243673
  0
LINE
  5
28F
100
AcDbEntity
  8
1
  6
CENTER
 62
     2
100
AcDbLine
 10
175.756707
 20
-177.725976
 30
0.0
 11
79.098261
 21
-177.725976
 31
0.0
  0
LINE
  5
290
100
AcDbEntity
  8
1
100
AcDbLine
 10
-255.834423
 20
276.147087
 30
0.0
 11
-257.704303
 21
275.572033
 31
0.0
  0
LINE
  5
291
100
AcDbEntity
  8
1
  6
DASHED
100
AcDbLine
 10
-255.168743
 20
275.523602
 30
0.0
 11
-264.130917
 21
271.68402
 31
0.0
  0
LINE
  5
292
100
AcDbEntity
  8
2
100
AcDbLine
 10
-64.552908
 20
247.887082
 30
0.0
 11
-342.836628
 21
242.571667
 31
0.0
  0
LINE
  5
293
100
AcDbEntity
  8
2
  6
CENTER
 62
     2
100
AcDbLine
 10
-316.71963
 20
43.644716
 30
0.0
 11
-316.71963
 21
-28.48061
 31
0.0
  0
LINE
  5
294
100
AcDbEntity
  8
2
  6
CENTER
 62
     2
100
AcDbLine
 10
-388.84452
 20
43.402393
 30
0.0
 11
-388.84452
 21
-27.753635
 31
0.0
  0
LINE
  5
295
100
AcDbEntity
  8
2
100
AcDbLine
 10
-306.919629
 20
-10.225974
 30
0.0
 11
-306.919629
 21
-17.331081
 31
0.0
  0
LINE
  5
296
100
AcDbEntity
  8
2
100
AcDbLine
 10
-306.919629
 20
-17.331081
 30
0.0
 11
-308.46963
 21
-18.225975
 31
0.0
  0
LINE
  5
297
100
AcDbEntity
  8
2
100
AcDbLine
 10
-308.46963
 20
-18.225975
 30
0.0
 11
-324.96963
 21
-18.225975
 31
0.0
  0
LINE
  5
298
100
AcDbEntity
  8
2
100
AcDbLine
 10
-311.819628
 20
-10.225974
 30
0.0
 11
-311.819628
 21
-17.331081
 31
0.0
  0
ARC
  5
299
100
AcDbEntity
  8
2
100
AcDbCircle
 10
-309.36963
 20
-14.181525
 30
0.0
 40
3.990264
100
AcDbArc
 50
232.121121
 51
307.878879
  0
LINE
  5
29A
100
AcDbEntity
  8
2
100
AcDbLine
 10
-306.919629
 20
-10.225974
 30
0.0
 11
-326.519628
 21
-10.225974
 31
0.0
  0
LINE
  5
29B
100
AcDbEntity
  8
2
100
AcDbLine
 10
-326.519628
 20
-10.225974
 30
0.0
 11
-326.519628
 21
-17.331081
 31
0.0
  0
LINE
  5
29C
100
AcDbEntity
  8
2
100
AcDbLine
 10
-326.519628
 20
-17.331081
 30
0.0
 11
-324.96963
 21
-18.225975
 31
0.0
  0
LINE
  5
29D
100
AcDbEntity
  8
2
100
AcDbLine
 10
-321.619629
 20
-10.225974
 30
0.0
 11
-321.619629
 21
-17.331081
 31
0.0
  0
ARC
  5
29E
100
AcDbEntity
  8
2
100
AcDbCircle
 10
-324.06963
 20
-14.181525
 30
0.0
 40
3.990264
100
AcDbArc
 50
232.121121
 51
307.878879
  0
ARC
  5
29F
100
AcDbEntity
  8
2
100
AcDbCircle
 10
-316.71963
 20
-3.471789
 30
0.0
 40
14.7
100
AcDbArc
 50
250.528777
 51
289.471219
  0
LINE
  5
2A0
100
AcDbEntity
  8
2
100
AcDbLine
 10
-307.519629
 20
-7.725975
 30
0.0
 11
-307.519629
 21
-10.225974
 31
0.0
  0
LINE
  5
2A1
100
AcDbEntity
  8
2
100
AcDbLine
 10
-325.919628
 20
-10.225974
 30
0.0
 11
-325.919628
 21
-7.725975
 31
0.0
  0
LINE
  5
2A2
100
AcDbEntity
  8
2
100
AcDbLine
 10
-316.71963
 20
-10.225974
 30
0.0
 11
-317.219628
 21
-7.725975
 31
0.0
  0
LINE
  5
2A3
100
AcDbEntity
  8
2
100
AcDbLine
 10
-316.71963
 20
-7.725975
 30
0.0
 11
-316.219629
 21
-10.225974
 31
0.0
  0
LINE
  5
2A4
100
AcDbEntity
  8
2
100
AcDbLine
 10
-381.076177
 20
-18.225975
 30
0.0
 11
-397.09452
 21
-18.225975
 31
0.0
  0
ARC
  5
2A5
100
AcDbEntity
  8
2
100
AcDbCircle
 10
-381.49452
 20
-14.181525
 30
0.0
 40
3.990264
100
AcDbArc
 50
232.607085
 51
272.464894
  0
LINE
  5
2A6
100
AcDbEntity
  8
2
100
AcDbLine
 10
-394.755952
 20
-10.225974
 30
0.0
 11
-398.644521
 21
-10.225974
 31
0.0
  0
LINE
  5
2A7
100
AcDbEntity
  8
2
100
AcDbLine
 10
-398.644521
 20
-10.225974
 30
0.0
 11
-398.644521
 21
-17.331081
 31
0.0
  0
LINE
  5
2A8
100
AcDbEntity
  8
2
100
AcDbLine
 10
-398.644521
 20
-17.331081
 30
0.0
 11
-397.09452
 21
-18.225975
 31
0.0
  0
LINE
  5
2A9
100
AcDbEntity
  8
2
100
AcDbLine
 10
-393.744519
 20
-10.832139
 30
0.0
 11
-393.744519
 21
-17.331081
 31
0.0
  0
ARC
  5
2AA
100
AcDbEntity
  8
2
100
AcDbCircle
 10
-396.19452
 20
-14.181525
 30
0.0
 40
3.990264
100
AcDbArc
 50
232.121121
 51
307.878879
  0
ARC
  5
2AB
100
AcDbEntity
  8
2
100
AcDbCircle
 10
-388.84452
 20
-3.471789
 30
0.0
 40
14.7
100
AcDbArc
 50
250.528777
 51
289.414941
  0
LINE
  5
2AC
100
AcDbEntity
  8
2
100
AcDbLine
 10
-398.044521
 20
-10.225974
 30
0.0
 11
-398.044521
 21
-8.600415
 31
0.0
  0
LINE
  5
2AD
100
AcDbEntity
  8
2
100
AcDbLine
 10
-320.90763
 20
-25.725975
 30
0.0
 11
-312.53163
 21
-25.725975
 31
0.0
  0
LINE
  5
2AE
100
AcDbEntity
  8
2
100
AcDbLine
 10
-320.90763
 20
-25.725975
 30
0.0
 11
-321.719628
 21
-24.913974
 31
0.0
  0
LINE
  5
2AF
100
AcDbEntity
  8
2
100
AcDbLine
 10
-321.719628
 20
-24.913974
 30
0.0
 11
-321.719628
 21
-18.225975
 31
0.0
  0
LINE
  5
2B0
100
AcDbEntity
  8
2
 62
     2
100
AcDbLine
 10
-320.90763
 20
-25.725975
 30
0.0
 11
-320.90763
 21
-18.225975
 31
0.0
  0
LINE
  5
2B1
100
AcDbEntity
  8
2
100
AcDbLine
 10
-312.53163
 20
-25.725975
 30
0.0
 11
-311.719629
 21
-24.913974
 31
0.0
  0
LINE
  5
2B2
100
AcDbEntity
  8
2
100
AcDbLine
 10
-311.719629
 20
-24.913974
 30
0.0
 11
-311.719629
 21
-18.225975
 31
0.0
  0
LINE
  5
2B3
100
AcDbEntity
  8
2
100
AcDbLine
 10
-311.719629
 20
-24.913974
 30
0.0
 11
-321.719628
 21
-24.913974
 31
0.0
  0
LINE
  5
2B4
100
AcDbEntity
  8
2
 62
     2
100
AcDbLine
 10
-312.53163
 20
-25.725975
 30
0.0
 11
-312.53163
 21
-18.225975
 31
0.0
  0
LINE
  5
2B5
100
AcDbEntity
  8
2
100
AcDbLine
 10
-393.03252
 20
-25.725975
 30
0.0
 11
-384.65652
 21
-25.725975
 31
0.0
  0
LINE
  5
2B6
100
AcDbEntity
  8
2
100
AcDbLine
 10
-393.03252
 20
-25.725975
 30
0.0
 11
-393.844521
 21
-24.913974
 31
0.0
  0
LINE
  5
2B7
100
AcDbEntity
  8
2
100
AcDbLine
 10
-393.844521
 20
-24.913974
 30
0.0
 11
-393.844521
 21
-18.225975
 31
0.0
  0
LINE
  5
2B8
100
AcDbEntity
  8
2
 62
     2
100
AcDbLine
 10
-393.03252
 20
-25.725975
 30
0.0
 11
-393.03252
 21
-18.225975
 31
0.0
  0
LINE
  5
2B9
100
AcDbEntity
  8
2
100
AcDbLine
 10
-384.65652
 20
-25.725975
 30
0.0
 11
-383.844519
 21
-24.913974
 31
0.0
  0
LINE
  5
2BA
100
AcDbEntity
  8
2
100
AcDbLine
 10
-383.844519
 20
-24.913974
 30
0.0
 11
-383.844519
 21
-18.225975
 31
0.0
  0
LINE
  5
2BB
100
AcDbEntity
  8
2
100
AcDbLine
 10
-383.844519
 20
-24.913974
 30
0.0
 11
-393.844521
 21
-24.913974
 31
0.0
  0
LINE
  5
2BC
100
AcDbEntity
  8
2
 62
     2
100
AcDbLine
 10
-384.65652
 20
-25.725975
 30
0.0
 11
-384.65652
 21
-18.225975
 31
0.0
  0
LINE
  5
2BD
100
AcDbEntity
  8
2
100
AcDbLine
 10
-311.819628
 20
34.274024
 30
0.0
 11
-311.819628
 21
40.379132
 31
0.0
  0
LINE
  5
2BE
100
AcDbEntity
  8
2
100
AcDbLine
 10
-326.519628
 20
34.274024
 30
0.0
 11
-326.519628
 21
40.379132
 31
0.0
  0
LINE
  5
2BF
100
AcDbEntity
  8
2
100
AcDbLine
 10
-326.519628
 20
40.379132
 30
0.0
 11
-324.96963
 21
41.274023
 31
0.0
  0
LINE
  5
2C0
100
AcDbEntity
  8
2
100
AcDbLine
 10
-324.96963
 20
41.274023
 30
0.0
 11
-308.46963
 21
41.274023
 31
0.0
  0
LINE
  5
2C1
100
AcDbEntity
  8
2
100
AcDbLine
 10
-321.619629
 20
34.274024
 30
0.0
 11
-321.619629
 21
40.379132
 31
0.0
  0
ARC
  5
2C2
100
AcDbEntity
  8
2
100
AcDbCircle
 10
-324.06963
 20
37.229573
 30
0.0
 40
3.990264
100
AcDbArc
 50
52.121121
 51
127.878879
  0
LINE
  5
2C3
100
AcDbEntity
  8
2
100
AcDbLine
 10
-306.919629
 20
34.274024
 30
0.0
 11
-306.919629
 21
40.379132
 31
0.0
  0
LINE
  5
2C4
100
AcDbEntity
  8
2
100
AcDbLine
 10
-306.919629
 20
40.379132
 30
0.0
 11
-308.46963
 21
41.274023
 31
0.0
  0
ARC
  5
2C5
100
AcDbEntity
  8
2
100
AcDbCircle
 10
-309.36963
 20
37.229573
 30
0.0
 40
3.990264
100
AcDbArc
 50
52.121121
 51
127.878879
  0
ARC
  5
2C6
100
AcDbEntity
  8
2
100
AcDbCircle
 10
-316.71963
 20
26.519837
 30
0.0
 40
14.7
100
AcDbArc
 50
70.528781
 51
109.471223
  0
LINE
  5
2C7
100
AcDbEntity
  8
2
100
AcDbLine
 10
-379.044519
 20
34.274024
 30
0.0
 11
-379.044519
 21
40.379132
 31
0.0
  0
LINE
  5
2C8
100
AcDbEntity
  8
2
100
AcDbLine
 10
-379.044519
 20
40.379132
 30
0.0
 11
-380.59452
 21
41.274023
 31
0.0
  0
LINE
  5
2C9
100
AcDbEntity
  8
2
100
AcDbLine
 10
-380.59452
 20
41.274023
 30
0.0
 11
-397.09452
 21
41.274023
 31
0.0
  0
LINE
  5
2CA
100
AcDbEntity
  8
2
100
AcDbLine
 10
-383.944521
 20
34.274024
 30
0.0
 11
-383.944521
 21
40.379132
 31
0.0
  0
ARC
  5
2CB
100
AcDbEntity
  8
2
100
AcDbCircle
 10
-381.49452
 20
37.229573
 30
0.0
 40
3.990264
100
AcDbArc
 50
52.121121
 51
127.878879
  0
LINE
  5
2CC
100
AcDbEntity
  8
2
100
AcDbLine
 10
-398.644521
 20
34.274024
 30
0.0
 11
-398.644521
 21
40.379132
 31
0.0
  0
LINE
  5
2CD
100
AcDbEntity
  8
2
100
AcDbLine
 10
-398.644521
 20
40.379132
 30
0.0
 11
-397.09452
 21
41.274023
 31
0.0
  0
LINE
  5
2CE
100
AcDbEntity
  8
2
100
AcDbLine
 10
-393.744519
 20
34.274024
 30
0.0
 11
-393.744519
 21
40.379132
 31
0.0
  0
ARC
  5
2CF
100
AcDbEntity
  8
2
100
AcDbCircle
 10
-396.19452
 20
37.229573
 30
0.0
 40
3.990264
100
AcDbArc
 50
52.121121
 51
127.878879
  0
ARC
  5
2D0
100
AcDbEntity
  8
2
100
AcDbCircle
 10
-388.84452
 20
26.519837
 30
0.0
 40
14.7
100
AcDbArc
 50
70.528777
 51
109.471219
  0
LINE
  5
2D1
100
AcDbEntity
  8
2
100
AcDbLine
 10
-336.847275
 20
65.66107
 30
0.0
 11
-59.615927
 21
124.588412
 31
0.0
  0
LINE
  5
2D2
100
AcDbEntity
  8
2
  6
CENTER
 62
     2
100
AcDbLine
 10
-342.260232
 20
51.274024
 30
0.0
 11
-363.450931
 21
51.274024
 31
0.0
  0
LINE
  5
2D3
100
AcDbEntity
  8
2
  6
CENTER
 62
     2
100
AcDbLine
 10
-232.782075
 20
84.645384
 30
0.0
 11
-232.782075
 21
55.938772
 31
0.0
  0
LINE
  5
2D4
100
AcDbEntity
  8
2
  6
CENTER
 62
     2
100
AcDbLine
 10
-223.250897
 20
74.274024
 30
0.0
 11
-242.104933
 21
74.274024
 31
0.0
  0
ARC
  5
2D5
100
AcDbEntity
  8
2
  6
CENTER
 62
     2
100
AcDbCircle
 10
-232.782075
 20
74.274024
 30
0.0
 40
92.276149
100
AcDbArc
 50
347.219321
 51
15.742888
  0
LINE
  5
2D6
100
AcDbEntity
  8
2
100
AcDbLine
 10
-369.282075
 20
70.274024
 30
0.0
 11
-336.282075
 21
70.274024
 31
0.0
  0
LINE
  5
2D7
100
AcDbEntity
  8
2
100
AcDbLine
 10
-360.782075
 20
44.274024
 30
0.0
 11
-360.782075
 21
70.273695
 31
0.0
  0
ARC
  5
2D8
100
AcDbEntity
  8
2
100
AcDbCircle
 10
-389.255789
 20
104.567388
 30
0.0
 40
50.564281
100
AcDbArc
 50
285.102514
 51
302.946073
  0
LINE
  5
2D9
100
AcDbEntity
  8
2
100
AcDbLine
 10
-374.229954
 20
59.030116
 30
0.0
 11
-401.808135
 21
48.992479
 31
0.0
  0
LINE
  5
2DA
100
AcDbEntity
  8
2
100
AcDbLine
 10
-338.782075
 20
43.274024
 30
0.0
 11
-367.782075
 21
43.274024
 31
0.0
  0
LINE
  5
2DB
100
AcDbEntity
  8
2
100
AcDbLine
 10
-369.282075
 20
70.274024
 30
0.0
 11
-370.282075
 21
69.274024
 31
0.0
  0
LINE
  5
2DC
100
AcDbEntity
  8
2
100
AcDbLine
 10
-370.282075
 20
64.668272
 30
0.0
 11
-370.282075
 21
69.274024
 31
0.0
  0
LINE
  5
2DD
100
AcDbEntity
  8
2
100
AcDbLine
 10
-338.782075
 20
44.274024
 30
0.0
 11
-403.782075
 21
44.274024
 31
0.0
  0
LINE
  5
2DE
100
AcDbEntity
  8
2
100
AcDbLine
 10
-403.782075
 20
44.274024
 30
0.0
 11
-403.782075
 21
46.173401
 31
0.0
  0
LINE
  5
2DF
100
AcDbEntity
  8
2
100
AcDbLine
 10
-367.782075
 20
44.274024
 30
0.0
 11
-367.782075
 21
43.274024
 31
0.0
  0
ARC
  5
2E0
100
AcDbEntity
  8
2
100
AcDbCircle
 10
-376.282075
 20
64.668272
 30
0.0
 40
6.0
100
AcDbArc
 50
290.0
 51
360.0
  0
ARC
  5
2E1
100
AcDbEntity
  8
2
100
AcDbCircle
 10
-400.782075
 20
46.173401
 30
0.0
 40
3.0
100
AcDbArc
 50
110.0
 51
180.0
  0
ARC
  5
2E2
100
AcDbEntity
  8
2
100
AcDbCircle
 10
-333.282075
 20
68.463558
 30
0.0
 40
2.0
100
AcDbArc
 50
180.0
 51
282.0
  0
LINE
  5
2E3
100
AcDbEntity
  8
2
100
AcDbLine
 10
-338.782075
 20
43.274024
 30
0.0
 11
-338.782075
 21
44.274024
 31
0.0
  0
LINE
  5
2E4
100
AcDbEntity
  8
2
100
AcDbLine
 10
-338.782075
 20
44.274024
 30
0.0
 11
-269.446313
 21
59.011795
 31
0.0
  0
CIRCLE
  5
2E5
100
AcDbEntity
  8
2
100
AcDbCircle
 10
-352.782075
 20
51.274024
 30
0.0
 40
4.0
  0
LINE
  5
2E6
100
AcDbEntity
  8
2
100
AcDbLine
 10
-344.782075
 20
44.274024
 30
0.0
 11
-344.782075
 21
70.273695
 31
0.0
  0
LINE
  5
2E7
100
AcDbEntity
  8
2
100
AcDbLine
 10
-335.282075
 20
68.463558
 30
0.0
 11
-335.282075
 21
69.274024
 31
0.0
  0
LINE
  5
2E8
100
AcDbEntity
  8
2
100
AcDbLine
 10
-336.282075
 20
70.274024
 30
0.0
 11
-335.282075
 21
69.274024
 31
0.0
  0
ARC
  5
2E9
100
AcDbEntity
  8
2
100
AcDbCircle
 10
-223.752637
 20
71.274024
 30
0.0
 40
12.0
100
AcDbArc
 50
270.0
 51
315.0
  0
LINE
  5
2EA
100
AcDbEntity
  8
2
100
AcDbLine
 10
-266.951372
 20
59.274024
 30
0.0
 11
-223.752637
 21
59.274024
 31
0.0
  0
ARC
  5
2EB
100
AcDbEntity
  8
2
100
AcDbCircle
 10
-226.782075
 20
60.274024
 30
0.0
 40
1.0
100
AcDbArc
 50
270.0
 51
360.0
  0
ARC
  5
2EC
100
AcDbEntity
  8
2
100
AcDbCircle
 10
-238.782075
 20
60.274024
 30
0.0
 40
1.0
100
AcDbArc
 50
180.0
 51
270.0
  0
LINE
  5
2ED
100
AcDbEntity
  8
2
100
AcDbLine
 10
-212.526284
 20
65.529815
 30
0.0
 11
-215.267356
 21
62.788742
 31
0.0
  0
LINE
  5
2EE
100
AcDbEntity
  8
2
100
AcDbLine
 10
-225.782075
 20
74.274024
 30
0.0
 11
-225.782075
 21
60.274024
 31
0.0
  0
LINE
  5
2EF
100
AcDbEntity
  8
2
100
AcDbLine
 10
-239.782075
 20
74.274024
 30
0.0
 11
-239.782075
 21
60.274024
 31
0.0
  0
ARC
  5
2F0
100
AcDbEntity
  8
2
100
AcDbCircle
 10
-232.782075
 20
74.274024
 30
0.0
 40
7.0
100
AcDbArc
 50
0.0
 51
180.0
  0
CIRCLE
  5
2F1
100
AcDbEntity
  8
2
100
AcDbCircle
 10
-232.782075
 20
74.274024
 30
0.0
 40
2.5
  0
ARC
  5
2F2
100
AcDbEntity
  8
2
100
AcDbCircle
 10
-180.706479
 20
33.710009
 30
0.0
 40
45.0
100
AcDbArc
 50
104.5
 51
135.0
  0
LINE
  5
2F3
100
AcDbEntity
  8
2
100
AcDbLine
 10
-191.973579
 20
77.276653
 30
0.0
 11
-53.708874
 21
113.034337
 31
0.0
  0
ARC
  5
2F4
100
AcDbEntity
  8
2
100
AcDbCircle
 10
-53.959254
 20
114.002485
 30
0.0
 40
1.0
100
AcDbArc
 50
284.5
 51
12.0
  0
LINE
  5
2F5
100
AcDbEntity
  8
2
100
AcDbLine
 10
-52.981107
 20
114.210396
 30
0.0
 11
-54.338913
 21
120.598373
 31
0.0
  0
ARC
  5
2F6
100
AcDbEntity
  8
2
100
AcDbCircle
 10
-59.229651
 20
119.558815
 30
0.0
 40
5.0
100
AcDbArc
 50
12.0
 51
102.0
  0
ARC
  5
2F7
100
AcDbEntity
  8
2
100
AcDbCircle
 10
-266.951372
 20
47.274024
 30
0.0
 40
12.0
100
AcDbArc
 50
90.0
 51
102.0
  0
LINE
  5
2F8
100
AcDbEntity
  8
2
100
AcDbLine
 10
-208.782075
 20
68.877621
 30
0.0
 11
-208.782075
 21
56.881779
 31
0.0
  0
LINE
  5
2F9
100
AcDbEntity
  8
2
100
AcDbLine
 10
-201.338192
 20
73.701664
 30
0.0
 11
-154.816274
 21
63.813125
 31
0.0
  0
LINE
  5
2FA
100
AcDbEntity
  8
2
100
AcDbLine
 10
-285.76293
 20
40.566917
 30
0.0
 11
-267.056281
 21
59.273565
 31
0.0
  0
LINE
  5
2FB
100
AcDbEntity
  8
2
100
AcDbLine
 10
-262.782075
 20
59.274024
 30
0.0
 11
-262.782075
 21
35.547772
 31
0.0
  0
LINE
  5
2FC
100
AcDbEntity
  8
2
100
AcDbLine
 10
-126.8512
 20
62.759549
 30
0.0
 11
-62.43662
 21
60.510143
 31
0.0
  0
ARC
  5
2FD
100
AcDbEntity
  8
2
100
AcDbCircle
 10
-137.547533
 20
55.128197
 30
0.0
 40
10.0
100
AcDbArc
 50
268.0
 51
299.788331
  0
ARC
  5
2FE
100
AcDbEntity
  8
2
100
AcDbCircle
 10
-127.611588
 20
37.770864
 30
0.0
 40
10.0
100
AcDbArc
 50
56.211669
 51
119.788331
  0
ARC
  5
2FF
100
AcDbEntity
  8
2
100
AcDbCircle
 10
-116.489061
 20
54.392819
 30
0.0
 40
10.0
100
AcDbArc
 50
236.211669
 51
299.788331
  0
ARC
  5
300
100
AcDbEntity
  8
2
100
AcDbCircle
 10
-106.553117
 20
37.035486
 30
0.0
 40
10.0
100
AcDbArc
 50
56.211669
 51
119.788331
  0
ARC
  5
301
100
AcDbEntity
  8
2
100
AcDbCircle
 10
-95.43059
 20
53.657441
 30
0.0
 40
10.0
100
AcDbArc
 50
236.211669
 51
299.788331
  0
ARC
  5
302
100
AcDbEntity
  8
2
100
AcDbCircle
 10
-85.494645
 20
36.300108
 30
0.0
 40
10.0
100
AcDbArc
 50
56.211669
 51
119.788331
  0
ARC
  5
303
100
AcDbEntity
  8
2
100
AcDbCircle
 10
-74.372118
 20
52.922063
 30
0.0
 40
10.0
100
AcDbArc
 50
236.211669
 51
299.788331
  0
ARC
  5
304
100
AcDbEntity
  8
2
100
AcDbCircle
 10
-64.436174
 20
35.56473
 30
0.0
 40
10.0
100
AcDbArc
 50
48.284863
 51
119.788331
  0
LINE
  5
305
100
AcDbEntity
  8
2
100
AcDbLine
 10
-127.88549
 20
61.795058
 30
0.0
 11
-126.8512
 21
62.759549
 31
0.0
  0
ARC
  5
306
100
AcDbEntity
  8
2
100
AcDbCircle
 10
-146.797965
 20
125.493898
 30
0.0
 40
80.0
100
AcDbArc
 50
258.0
 51
268.0
  0
LINE
  5
307
100
AcDbEntity
  8
2
100
AcDbLine
 10
-154.816274
 20
63.813125
 30
0.0
 11
-153.873026
 21
62.605822
 31
0.0
  0
ARC
  5
308
100
AcDbEntity
  8
2
100
AcDbCircle
 10
-226.026469
 20
29.876971
 30
0.0
 40
30.0
100
AcDbArc
 50
78.0
 51
81.068297
  0
LINE
  5
309
100
AcDbEntity
  8
2
100
AcDbLine
 10
-149.589925
 20
45.542631
 30
0.0
 11
-137.896528
 21
45.134289
 31
0.0
  0
ARC
  5
30A
100
AcDbEntity
  8
2
100
AcDbCircle
 10
-55.785615
 20
45.268741
 30
0.0
 40
3.0
100
AcDbArc
 50
228.284863
 51
360.0
  0
LINE
  5
30B
100
AcDbEntity
  8
2
100
AcDbLine
 10
-52.785615
 20
45.268741
 30
0.0
 11
-52.785615
 21
50.516234
 31
0.0
  0
ARC
  5
30C
100
AcDbEntity
  8
2
100
AcDbCircle
 10
-62.785615
 20
50.516234
 30
0.0
 40
10.0
100
AcDbArc
 50
0.0
 51
88.0
  0
LINE
  5
30D
100
AcDbEntity
  8
2
100
AcDbLine
 10
-219.789119
 20
59.221399
 30
0.0
 11
-163.4309
 21
47.242089
 31
0.0
  0
LINE
  5
30E
100
AcDbEntity
  8
2
100
AcDbLine
 10
-147.058743
 20
71.49226
 30
0.0
 11
-143.279266
 21
71.360278
 31
0.0
  0
LINE
  5
30F
100
AcDbEntity
  8
2
100
AcDbLine
 10
-135.031153
 20
72.072857
 30
0.0
 11
-134.066662
 21
71.038566
 31
0.0
  0
LINE
  5
310
100
AcDbEntity
  8
2
100
AcDbLine
 10
-146.024452
 20
72.456751
 30
0.0
 11
-140.491207
 21
72.263526
 31
0.0
  0
LINE
  5
311
100
AcDbEntity
  8
2
100
AcDbLine
 10
-146.024452
 20
72.456751
 30
0.0
 11
-147.058743
 21
71.49226
 31
0.0
  0
LINE
  5
312
100
AcDbEntity
  8
2
100
AcDbLine
 10
-147.375568
 20
62.419579
 30
0.0
 11
-147.323312
 21
63.915996
 31
0.0
  0
LINE
  5
313
100
AcDbEntity
  8
2
100
AcDbLine
 10
-153.903778
 20
61.725198
 30
0.0
 11
-153.873026
 21
62.605822
 31
0.0
  0
ARC
  5
314
100
AcDbEntity
  8
2
100
AcDbCircle
 10
-152.904387
 20
61.690299
 30
0.0
 40
1.0
100
AcDbArc
 50
178.0
 51
268.0
  0
ARC
  5
315
100
AcDbEntity
  8
2
100
AcDbCircle
 10
-148.407129
 20
61.533251
 30
0.0
 40
1.0
100
AcDbArc
 50
268.0
 51
298.333059
  0
LINE
  5
316
100
AcDbEntity
  8
2
100
AcDbLine
 10
-134.415657
 20
61.044658
 30
0.0
 11
-134.321755
 21
63.733652
 31
0.0
  0
LINE
  5
317
100
AcDbEntity
  8
2
100
AcDbLine
 10
-127.919617
 20
60.817811
 30
0.0
 11
-127.88549
 21
61.795058
 31
0.0
  0
ARC
  5
318
100
AcDbEntity
  8
2
100
AcDbCircle
 10
-128.919007
 20
60.852711
 30
0.0
 40
1.0
100
AcDbArc
 50
268.0
 51
358.0
  0
ARC
  5
319
100
AcDbEntity
  8
2
100
AcDbCircle
 10
-133.416266
 20
61.009759
 30
0.0
 40
1.0
100
AcDbArc
 50
178.0
 51
268.0
  0
LINE
  5
31A
100
AcDbEntity
  8
2
100
AcDbLine
 10
-152.939287
 20
60.690908
 30
0.0
 11
-128.953907
 21
59.85332
 31
0.0
  0
LINE
  5
31B
100
AcDbEntity
  8
2
100
AcDbLine
 10
-274.755823
 20
50.15981
 30
0.0
 11
-275.140046
 21
51.189801
 31
0.0
  0
ARC
  5
31C
100
AcDbEntity
  8
2
100
AcDbCircle
 10
-273.126891
 20
32.274024
 30
0.0
 40
5.0
100
AcDbArc
 50
270.0
 51
315.0
  0
ARC
  5
31D
100
AcDbEntity
  8
2
100
AcDbCircle
 10
-285.055823
 20
28.274024
 30
0.0
 40
1.0
100
AcDbArc
 50
180.0
 51
270.0
  0
ARC
  5
31E
100
AcDbEntity
  8
2
100
AcDbCircle
 10
-285.055823
 20
39.85981
 30
0.0
 40
1.0
100
AcDbArc
 50
135.0
 51
180.0
  0
LINE
  5
31F
100
AcDbEntity
  8
2
100
AcDbLine
 10
-269.591357
 20
28.73849
 30
0.0
 11
-266.055823
 21
32.274024
 31
0.0
  0
LINE
  5
320
100
AcDbEntity
  8
2
100
AcDbLine
 10
-274.755823
 20
50.15981
 30
0.0
 11
-274.755823
 21
34.274024
 31
0.0
  0
LINE
  5
321
100
AcDbEntity
  8
2
100
AcDbLine
 10
-285.055823
 20
27.274024
 30
0.0
 11
-273.126891
 21
27.274024
 31
0.0
  0
LINE
  5
322
100
AcDbEntity
  8
2
100
AcDbLine
 10
-286.055823
 20
39.85981
 30
0.0
 11
-286.055823
 21
34.274024
 31
0.0
  0
ARC
  5
323
100
AcDbEntity
  8
2
100
AcDbCircle
 10
-226.026469
 20
29.876971
 30
0.0
 40
30.0
100
AcDbArc
 50
101.506587
 51
135.0
  0
LINE
  5
324
100
AcDbEntity
  8
2
100
AcDbLine
 10
-286.055823
 20
32.274024
 30
0.0
 11
-286.055823
 21
28.274024
 31
0.0
  0
LINE
  5
325
100
AcDbEntity
  8
2
100
AcDbLine
 10
-274.755823
 20
32.274024
 30
0.0
 11
-274.755823
 21
27.274024
 31
0.0
  0
LINE
  5
326
100
AcDbEntity
  8
2
100
AcDbLine
 10
-265.282075
 20
33.047772
 30
0.0
 11
-247.239673
 21
51.090174
 31
0.0
  0
LINE
  5
327
100
AcDbEntity
  8
2
100
AcDbLine
 10
-134.264012
 20
65.387192
 30
0.0
 11
-134.168668
 21
68.117494
 31
0.0
  0
LINE
  5
328
100
AcDbEntity
  8
2
100
AcDbLine
 10
-134.109353
 20
69.816067
 30
0.0
 11
-134.066662
 21
71.038566
 31
0.0
  0
LINE
  5
329
100
AcDbEntity
  8
2
100
AcDbLine
 10
-147.106652
 20
70.120318
 30
0.0
 11
-147.058743
 21
71.49226
 31
0.0
  0
LINE
  5
32A
100
AcDbEntity
  8
2
100
AcDbLine
 10
-147.263996
 20
65.614569
 30
0.0
 11
-147.166056
 21
68.419202
 31
0.0
  0
LINE
  5
32B
100
AcDbEntity
  8
2
100
AcDbLine
 10
-138.592967
 20
71.196628
 30
0.0
 11
-134.066662
 21
71.038566
 31
0.0
  0
LINE
  5
32C
100
AcDbEntity
  8
2
100
AcDbLine
 10
-135.804907
 20
72.099877
 30
0.0
 11
-135.031153
 21
72.072857
 31
0.0
  0
LINE
  5
32D
100
AcDbEntity
  8
2
100
AcDbLine
 10
-356.534851
 20
57.774024
 30
0.0
 11
-360.287628
 21
51.274024
 31
0.0
  0
LINE
  5
32E
100
AcDbEntity
  8
2
100
AcDbLine
 10
-349.029298
 20
57.774024
 30
0.0
 11
-356.534851
 21
57.774024
 31
0.0
  0
LINE
  5
32F
100
AcDbEntity
  8
2
100
AcDbLine
 10
-345.276521
 20
51.274024
 30
0.0
 11
-349.029298
 21
57.774024
 31
0.0
  0
LINE
  5
330
100
AcDbEntity
  8
2
100
AcDbLine
 10
-349.029298
 20
44.774024
 30
0.0
 11
-345.276521
 21
51.274024
 31
0.0
  0
LINE
  5
331
100
AcDbEntity
  8
2
100
AcDbLine
 10
-356.534851
 20
44.774024
 30
0.0
 11
-349.029298
 21
44.774024
 31
0.0
  0
LINE
  5
332
100
AcDbEntity
  8
2
100
AcDbLine
 10
-360.287628
 20
51.274024
 30
0.0
 11
-356.534851
 21
44.774024
 31
0.0
  0
CIRCLE
  5
333
100
AcDbEntity
  8
2
100
AcDbCircle
 10
-352.782075
 20
51.274024
 30
0.0
 40
3.375
  0
CIRCLE
  5
334
100
AcDbEntity
  8
2
100
AcDbCircle
 10
-352.782075
 20
51.274024
 30
0.0
 40
4.0
  0
CIRCLE
  5
335
100
AcDbEntity
  8
2
100
AcDbCircle
 10
-352.782075
 20
51.274024
 30
0.0
 40
6.5
  0
CIRCLE
  5
336
100
AcDbEntity
  8
2
100
AcDbCircle
 10
-133.158352
 20
60.801951
 30
0.0
 40
0.8
  0
ARC
  5
337
100
AcDbEntity
  8
2
100
AcDbCircle
 10
-148.516196
 20
61.341179
 30
0.0
 40
0.8
100
AcDbArc
 50
102.753204
 51
282.753204
  0
ARC
  5
338
100
AcDbEntity
  8
2
100
AcDbCircle
 10
-132.97906
 20
64.857787
 30
0.0
 40
0.8
100
AcDbArc
 50
282.753204
 51
102.753204
  0
ARC
  5
339
100
AcDbEntity
  8
2
100
AcDbCircle
 10
-132.908913
 20
69.359664
 30
0.0
 40
0.8
100
AcDbArc
 50
287.713107
 51
107.713107
  0
ARC
  5
33A
100
AcDbEntity
  8
2
100
AcDbCircle
 10
-132.974065
 20
73.857921
 30
0.0
 40
0.8
100
AcDbArc
 50
287.950783
 51
107.950783
  0
ARC
  5
33B
100
AcDbEntity
  8
2
100
AcDbCircle
 10
-133.19093
 20
78.626117
 30
0.0
 40
0.8
100
AcDbArc
 50
289.113908
 51
109.113908
  0
ARC
  5
33C
100
AcDbEntity
  8
2
100
AcDbCircle
 10
-133.612845
 20
83.941997
 30
0.0
 40
0.8
100
AcDbArc
 50
292.202303
 51
112.202303
  0
ARC
  5
33D
100
AcDbEntity
  8
2
100
AcDbCircle
 10
-134.174149
 20
88.863623
 30
0.0
 40
0.8
100
AcDbArc
 50
292.351981
 51
112.351981
  0
ARC
  5
33E
100
AcDbEntity
  8
2
100
AcDbCircle
 10
-149.252118
 20
87.375491
 30
0.0
 40
0.8
100
AcDbArc
 50
95.636598
 51
293.997777
  0
ARC
  5
33F
100
AcDbEntity
  8
2
100
AcDbCircle
 10
-148.70122
 20
82.890235
 30
0.0
 40
0.8
100
AcDbArc
 50
93.987453
 51
292.351981
  0
ARC
  5
340
100
AcDbEntity
  8
2
100
AcDbCircle
 10
-148.299588
 20
77.94776
 30
0.0
 40
0.8
100
AcDbArc
 50
92.570774
 51
292.202303
  0
ARC
  5
341
100
AcDbEntity
  8
2
100
AcDbCircle
 10
-148.119495
 20
73.452579
 30
0.0
 40
0.8
100
AcDbArc
 50
109.113908
 51
289.113908
  0
ARC
  5
342
100
AcDbEntity
  8
2
100
AcDbCircle
 10
-148.115028
 20
68.952699
 30
0.0
 40
0.8
100
AcDbArc
 50
91.533057
 51
287.950783
  0
ARC
  5
343
100
AcDbEntity
  8
2
100
AcDbCircle
 10
-148.28672
 20
64.448104
 30
0.0
 40
0.8
100
AcDbArc
 50
107.713107
 51
287.713107
  0
LINE
  5
344
100
AcDbEntity
  8
2
100
AcDbLine
 10
-148.692798
 20
62.121443
 30
0.0
 11
-133.155661
 21
65.638051
 31
0.0
  0
LINE
  5
345
100
AcDbEntity
  8
2
100
AcDbLine
 10
-132.802458
 20
64.077523
 30
0.0
 11
-148.339594
 21
60.560915
 31
0.0
  0
LINE
  5
346
100
AcDbEntity
  8
2
100
AcDbLine
 10
-133.000463
 20
65.657501
 30
0.0
 11
-134.255746
 21
65.623905
 31
0.0
  0
LINE
  5
347
100
AcDbEntity
  8
2
100
AcDbLine
 10
-148.530121
 20
65.210177
 30
0.0
 11
-133.152314
 21
70.121738
 31
0.0
  0
LINE
  5
348
100
AcDbEntity
  8
2
100
AcDbLine
 10
-132.665513
 20
68.597591
 30
0.0
 11
-148.043319
 21
63.68603
 31
0.0
  0
LINE
  5
349
100
AcDbEntity
  8
2
100
AcDbLine
 10
-148.361588
 20
69.713756
 30
0.0
 11
-133.220625
 21
74.618978
 31
0.0
  0
LINE
  5
34A
100
AcDbEntity
  8
2
100
AcDbLine
 10
-132.727505
 20
73.096864
 30
0.0
 11
-147.868468
 21
68.191642
 31
0.0
  0
LINE
  5
34B
100
AcDbEntity
  8
2
100
AcDbLine
 10
-148.381452
 20
74.208475
 30
0.0
 11
-133.452888
 21
79.382013
 31
0.0
  0
LINE
  5
34C
100
AcDbEntity
  8
2
100
AcDbLine
 10
-132.928972
 20
77.870221
 30
0.0
 11
-147.857537
 21
72.696684
 31
0.0
  0
LINE
  5
34D
100
AcDbEntity
  8
2
100
AcDbLine
 10
-148.60189
 20
78.688444
 30
0.0
 11
-133.915147
 21
84.682681
 31
0.0
  0
LINE
  5
34E
100
AcDbEntity
  8
2
100
AcDbLine
 10
-133.310542
 20
83.201313
 30
0.0
 11
-147.997285
 21
77.207075
 31
0.0
  0
LINE
  5
34F
100
AcDbEntity
  8
2
100
AcDbLine
 10
-149.005457
 20
83.630127
 30
0.0
 11
-134.478386
 21
89.603515
 31
0.0
  0
LINE
  5
350
100
AcDbEntity
  8
2
100
AcDbLine
 10
-148.396984
 20
82.150343
 30
0.0
 11
-133.869913
 21
88.123731
 31
0.0
  0
LINE
  5
351
100
AcDbEntity
  8
2
100
AcDbLine
 10
-149.577479
 20
88.10634
 30
0.0
 11
-148.855532
 21
88.427738
 31
0.0
  0
LINE
  5
352
100
AcDbEntity
  8
2
100
AcDbLine
 10
-148.926757
 20
86.644642
 30
0.0
 11
-139.467965
 21
90.855528
 31
0.0
  0
LINE
  5
353
100
AcDbEntity
  8
2
100
AcDbLine
 10
-132.930316
 20
70.159378
 30
0.0
 11
-134.098456
 21
70.128115
 31
0.0
  0
LINE
  5
354
100
AcDbEntity
  8
2
100
AcDbLine
 10
-147.174494
 20
68.177584
 30
0.0
 11
-148.093625
 21
68.152985
 31
0.0
  0
LINE
  5
355
100
AcDbEntity
  8
2
100
AcDbLine
 10
-138.496216
 20
72.909843
 30
0.0
 11
-148.098092
 21
72.652866
 31
0.0
  0
LINE
  5
356
100
AcDbEntity
  8
2
100
AcDbLine
 10
-142.969346
 20
74.390701
 30
0.0
 11
-132.995468
 21
74.657634
 31
0.0
  0
LINE
  5
357
100
AcDbEntity
  8
2
100
AcDbLine
 10
-138.652426
 20
77.580098
 30
0.0
 11
-148.263705
 21
77.148565
 31
0.0
  0
LINE
  5
358
100
AcDbEntity
  8
2
100
AcDbLine
 10
-143.716204
 20
78.954353
 30
0.0
 11
-133.226813
 21
79.425312
 31
0.0
  0
LINE
  5
359
100
AcDbEntity
  8
2
100
AcDbLine
 10
-138.535559
 20
82.796909
 30
0.0
 11
-148.64559
 21
82.092172
 31
0.0
  0
LINE
  5
35A
100
AcDbEntity
  8
2
100
AcDbLine
 10
-143.819775
 20
84.032446
 30
0.0
 11
-133.668475
 21
84.74006
 31
0.0
  0
LINE
  5
35B
100
AcDbEntity
  8
2
100
AcDbLine
 10
-139.514656
 20
87.532651
 30
0.0
 11
-149.173543
 21
86.57936
 31
0.0
  0
LINE
  5
35C
100
AcDbEntity
  8
2
100
AcDbLine
 10
-144.404653
 20
88.657803
 30
0.0
 11
-134.252724
 21
89.659755
 31
0.0
  0
LINE
  5
35D
100
AcDbEntity
  8
2
100
AcDbLine
 10
-134.394663
 20
61.645852
 30
0.0
 11
-133.130281
 21
61.601458
 31
0.0
  0
LINE
  5
35E
100
AcDbEntity
  8
2
100
AcDbLine
 10
-147.331784
 20
63.673375
 30
0.0
 11
-148.265317
 21
63.64839
 31
0.0
  0
LINE
  5
35F
100
AcDbEntity
  8
2
100
AcDbLine
 10
-376.081424
 20
55.749536
 30
0.0
 11
-397.208154
 21
50.048113
 31
0.0
  0
LINE
  5
360
100
AcDbEntity
  8
2
100
AcDbLine
 10
-340.807716
 20
44.274024
 30
0.0
 11
-340.807716
 21
60.770332
 31
0.0
  0
ARC
  5
361
100
AcDbEntity
  8
2
100
AcDbCircle
 10
-335.807716
 20
60.770332
 30
0.0
 40
5.0
100
AcDbArc
 50
102.0
 51
180.0
  0
LINE
  5
362
100
AcDbEntity
  8
2
100
AcDbLine
 10
-300.255819
 20
34.274024
 30
0.0
 11
-300.255819
 21
32.274024
 31
0.0
  0
LINE
  5
363
100
AcDbEntity
  8
2
100
AcDbLine
 10
-265.282075
 20
32.274024
 30
0.0
 11
-265.282075
 21
34.274024
 31
0.0
  0
LINE
  5
364
100
AcDbEntity
  8
2
100
AcDbLine
 10
-265.282075
 20
32.274024
 30
0.0
 11
-415.415626
 21
32.274024
 31
0.0
  0
LINE
  5
365
100
AcDbEntity
  8
2
100
AcDbLine
 10
-415.415626
 20
34.274024
 30
0.0
 11
-265.282075
 21
34.274024
 31
0.0
  0
LINE
  5
366
100
AcDbEntity
  8
2
100
AcDbLine
 10
-415.415626
 20
34.274024
 30
0.0
 11
-415.415626
 21
32.274024
 31
0.0
  0
LINE
  5
367
100
AcDbEntity
  8
2
  6
CENTER
 62
     2
100
AcDbLine
 10
-473.126999
 20
259.884894
 30
0.0
 11
-42.734137
 21
259.884894
 31
0.0
  0
LINE
  5
368
100
AcDbEntity
  8
2
  6
CENTER
 62
     2
100
AcDbLine
 10
-232.782075
 20
283.487613
 30
0.0
 11
-232.782075
 21
236.25524
 31
0.0
  0
ARC
  5
369
100
AcDbEntity
  8
2
  6
CENTER
 62
     2
100
AcDbCircle
 10
-352.782075
 20
259.884894
 30
0.0
 40
51.0
100
AcDbArc
 50
120.634972
 51
149.476834
  0
LINE
  5
36A
100
AcDbEntity
  8
2
  6
CENTER
 62
     2
100
AcDbLine
 10
-399.703112
 20
306.805931
 30
0.0
 11
-377.909598
 21
285.012417
 31
0.0
  0
LINE
  5
36B
100
AcDbEntity
  8
2
  6
CENTER
 62
     2
100
AcDbLine
 10
-326.422231
 20
233.52505
 30
0.0
 11
-306.639767
 21
213.742586
 31
0.0
  0
ARC
  5
36C
100
AcDbEntity
  8
2
  6
CENTER
 62
     2
100
AcDbCircle
 10
-352.782075
 20
259.884894
 30
0.0
 40
51.0
100
AcDbArc
 50
300.411746
 51
329.444298
  0
LINE
  5
36D
100
AcDbEntity
  8
2
  6
CENTER
 62
     2
100
AcDbLine
 10
-352.782075
 20
190.362512
 30
0.0
 11
-352.782075
 21
337.041505
 31
0.0
  0
LINE
  5
36E
100
AcDbEntity
  8
2
100
AcDbLine
 10
-239.282075
 20
243.884894
 30
0.0
 11
-226.282075
 21
243.884894
 31
0.0
  0
ARC
  5
36F
100
AcDbEntity
  8
2
100
AcDbCircle
 10
-239.282075
 20
244.384894
 30
0.0
 40
0.5
100
AcDbArc
 50
200.684551
 51
270.0
  0
ARC
  5
370
100
AcDbEntity
  8
2
100
AcDbCircle
 10
-226.282075
 20
244.384894
 30
0.0
 40
0.5
100
AcDbArc
 50
270.0
 51
356.101598
  0
ARC
  5
371
100
AcDbEntity
  8
2
100
AcDbCircle
 10
-225.284389
 20
244.316906
 30
0.0
 40
0.5
100
AcDbArc
 50
91.094257
 51
176.101598
  0
ARC
  5
372
100
AcDbEntity
  8
2
100
AcDbCircle
 10
-240.217614
 20
244.031671
 30
0.0
 40
0.5
100
AcDbArc
 50
20.684551
 51
91.094257
  0
LINE
  5
373
100
AcDbEntity
  8
2
100
AcDbLine
 10
-64.552908
 20
271.882705
 30
0.0
 11
-352.447873
 21
277.381702
 31
0.0
  0
ARC
  5
374
100
AcDbEntity
  8
2
100
AcDbCircle
 10
-240.217614
 20
275.738116
 30
0.0
 40
0.5
100
AcDbArc
 50
268.905743
 51
339.315449
  0
ARC
  5
375
100
AcDbEntity
  8
2
100
AcDbCircle
 10
-225.284389
 20
275.452881
 30
0.0
 40
0.5
100
AcDbArc
 50
183.898402
 51
268.905743
  0
ARC
  5
376
100
AcDbEntity
  8
2
100
AcDbCircle
 10
-226.282075
 20
275.384894
 30
0.0
 40
0.5
100
AcDbArc
 50
3.898402
 51
90.0
  0
ARC
  5
377
100
AcDbEntity
  8
2
100
AcDbCircle
 10
-239.282075
 20
275.384894
 30
0.0
 40
0.5
100
AcDbArc
 50
90.0
 51
159.315449
  0
LINE
  5
378
100
AcDbEntity
  8
2
100
AcDbLine
 10
-239.282075
 20
275.884894
 30
0.0
 11
-226.282075
 21
275.884894
 31
0.0
  0
ARC
  5
379
100
AcDbEntity
  8
2
100
AcDbCircle
 10
-352.782075
 20
259.884894
 30
0.0
 40
17.5
100
AcDbArc
 50
300.851886
 51
239.148114
  0
ARC
  5
37A
100
AcDbEntity
  8
2
100
AcDbCircle
 10
-342.782075
 20
243.144225
 30
0.0
 40
2.0
100
AcDbArc
 50
120.851886
 51
180.0
  0
LINE
  5
37B
100
AcDbEntity
  8
2
100
AcDbLine
 10
-344.782075
 20
240.884894
 30
0.0
 11
-344.782075
 21
245.454024
 31
0.0
  0
ARC
  5
37C
100
AcDbEntity
  8
2
100
AcDbCircle
 10
-362.782075
 20
243.144225
 30
0.0
 40
2.0
100
AcDbArc
 50
0.0
 51
59.148114
  0
ARC
  5
37D
100
AcDbEntity
  8
2
100
AcDbCircle
 10
-342.798433
 20
240.572032
 30
0.0
 40
2.0
100
AcDbArc
 50
91.094257
 51
174.013887
  0
ARC
  5
37E
100
AcDbEntity
  8
2
100
AcDbCircle
 10
-345.782075
 20
240.884894
 30
0.0
 40
1.0
100
AcDbArc
 50
270.0
 51
354.013887
  0
ARC
  5
37F
100
AcDbEntity
  8
2
100
AcDbCircle
 10
-359.782075
 20
240.884894
 30
0.0
 40
1.0
100
AcDbArc
 50
180.0
 51
270.0
  0
LINE
  5
380
100
AcDbEntity
  8
2
100
AcDbLine
 10
-360.782075
 20
240.884894
 30
0.0
 11
-360.782075
 21
245.454024
 31
0.0
  0
LINE
  5
381
100
AcDbEntity
  8
2
100
AcDbLine
 10
-345.782075
 20
239.884894
 30
0.0
 11
-359.782075
 21
239.884894
 31
0.0
  0
ARC
  5
382
100
AcDbEntity
  8
2
100
AcDbCircle
 10
-64.782075
 20
259.884894
 30
0.0
 40
12.0
100
AcDbArc
 50
271.094257
 51
88.905743
  0
LINE
  5
383
100
AcDbEntity
  8
2
100
AcDbLine
 10
-402.055271
 20
257.507465
 30
0.0
 11
-361.070028
 21
244.178099
 31
0.0
  0
LINE
  5
384
100
AcDbEntity
  8
2
100
AcDbLine
 10
-402.055271
 20
262.262323
 30
0.0
 11
-358.194446
 21
276.526896
 31
0.0
  0
ARC
  5
385
100
AcDbEntity
  8
2
100
AcDbCircle
 10
-401.282075
 20
259.884894
 30
0.0
 40
2.5
100
AcDbArc
 50
108.015746
 51
251.984254
  0
LINE
  5
386
100
AcDbEntity
  8
2
100
AcDbLine
 10
-345.357454
 20
285.694291
 30
0.0
 11
-345.711007
 21
285.340738
 31
0.0
  0
LINE
  5
387
100
AcDbEntity
  8
2
100
AcDbLine
 10
-348.539434
 20
288.876272
 30
0.0
 11
-345.357454
 21
285.694291
 31
0.0
  0
LINE
  5
388
100
AcDbEntity
  8
2
100
AcDbLine
 10
-345.357454
 20
292.058252
 30
0.0
 11
-348.539434
 21
288.876272
 31
0.0
  0
LINE
  5
389
100
AcDbEntity
  8
2
100
AcDbLine
 10
-345.711007
 20
292.411806
 30
0.0
 11
-345.357454
 21
292.058252
 31
0.0
  0
LINE
  5
38A
100
AcDbEntity
  8
2
100
AcDbLine
 10
-349.246541
 20
288.876272
 30
0.0
 11
-345.711007
 21
292.411806
 31
0.0
  0
LINE
  5
38B
100
AcDbEntity
  8
2
100
AcDbLine
 10
-345.711007
 20
285.340738
 30
0.0
 11
-349.246541
 21
288.876272
 31
0.0
  0
LINE
  5
38C
100
AcDbEntity
  8
2
100
AcDbLine
 10
-386.391919
 20
248.231823
 30
0.0
 11
-385.680772
 21
248.942971
 31
0.0
  0
LINE
  5
38D
100
AcDbEntity
  8
2
100
AcDbLine
 10
-384.36007
 20
246.199974
 30
0.0
 11
-386.391919
 21
248.231823
 31
0.0
  0
LINE
  5
38E
100
AcDbEntity
  8
2
100
AcDbLine
 10
-382.429813
 20
245.692012
 30
0.0
 11
-385.680772
 21
248.942971
 31
0.0
  0
ARC
  5
38F
100
AcDbEntity
  8
2
100
AcDbCircle
 10
-365.021777
 20
228.170839
 30
0.0
 40
0.08
100
AcDbArc
 50
315.0
 51
45.0
  0
ARC
  5
390
100
AcDbEntity
  8
2
100
AcDbCircle
 10
-352.782075
 20
259.884894
 30
0.0
 40
40.0
100
AcDbArc
 50
268.945417
 51
271.059499
  0
LINE
  5
391
100
AcDbEntity
  8
2
100
AcDbLine
 10
-351.282075
 20
200.639641
 30
0.0
 11
-351.282075
 21
219.141796
 31
0.0
  0
ARC
  5
392
100
AcDbEntity
  8
2
100
AcDbCircle
 10
-352.032075
 20
200.639641
 30
0.0
 40
0.75
100
AcDbArc
 50
270.725282
 51
360.0
  0
ARC
  5
393
100
AcDbEntity
  8
2
100
AcDbCircle
 10
-352.032075
 20
219.141796
 30
0.0
 40
0.75
100
AcDbArc
 50
0.0
 51
91.054583
  0
ARC
  5
394
100
AcDbEntity
  8
2
100
AcDbCircle
 10
-353.532075
 20
219.141796
 30
0.0
 40
0.75
100
AcDbArc
 50
88.945417
 51
180.0
  0
ARC
  5
395
100
AcDbEntity
  8
2
100
AcDbCircle
 10
-353.532075
 20
200.639641
 30
0.0
 40
0.75
100
AcDbArc
 50
180.0
 51
269.274718
  0
LINE
  5
396
100
AcDbEntity
  8
2
100
AcDbLine
 10
-354.282075
 20
200.639641
 30
0.0
 11
-354.282075
 21
219.141796
 31
0.0
  0
LINE
  5
397
100
AcDbEntity
  8
2
100
AcDbLine
 10
-411.26217
 20
250.334845
 30
0.0
 11
-402.891304
 21
251.810855
 31
0.0
  0
ARC
  5
398
100
AcDbEntity
  8
2
100
AcDbCircle
 10
-402.761068
 20
251.072249
 30
0.0
 40
0.75
100
AcDbArc
 50
280.0
 51
100.0
  0
ARC
  5
399
100
AcDbEntity
  8
2
100
AcDbCircle
 10
-411.131934
 20
249.596239
 30
0.0
 40
0.75
100
AcDbArc
 50
100.0
 51
280.0
  0
LINE
  5
39A
100
AcDbEntity
  8
2
100
AcDbLine
 10
-411.001698
 20
248.857634
 30
0.0
 11
-402.630832
 21
250.333643
 31
0.0
  0
LINE
  5
39B
100
AcDbEntity
  8
2
100
AcDbLine
 10
-397.688117
 20
221.225195
 30
0.0
 11
-391.17674
 21
226.688889
 31
0.0
  0
ARC
  5
39C
100
AcDbEntity
  8
2
100
AcDbCircle
 10
-398.170208
 20
221.799728
 30
0.0
 40
0.75
100
AcDbArc
 50
130.0
 51
310.0
  0
ARC
  5
39D
100
AcDbEntity
  8
2
100
AcDbCircle
 10
-391.65883
 20
227.263423
 30
0.0
 40
0.75
100
AcDbArc
 50
310.0
 51
130.0
  0
LINE
  5
39E
100
AcDbEntity
  8
2
100
AcDbLine
 10
-398.652299
 20
222.374261
 30
0.0
 11
-392.140921
 21
227.837956
 31
0.0
  0
LINE
  5
39F
100
AcDbEntity
  8
2
100
AcDbLine
 10
-403.71908
 20
229.610375
 30
0.0
 11
-396.357864
 21
233.860375
 31
0.0
  0
ARC
  5
3A0
100
AcDbEntity
  8
2
100
AcDbCircle
 10
-404.09408
 20
230.259894
 30
0.0
 40
0.75
100
AcDbArc
 50
120.0
 51
300.0
  0
ARC
  5
3A1
100
AcDbEntity
  8
2
100
AcDbCircle
 10
-396.732864
 20
234.509894
 30
0.0
 40
0.75
100
AcDbArc
 50
300.0
 51
120.0
  0
LINE
  5
3A2
100
AcDbEntity
  8
2
100
AcDbLine
 10
-404.46908
 20
230.909413
 30
0.0
 11
-397.107864
 21
235.159413
 31
0.0
  0
LINE
  5
3A3
100
AcDbEntity
  8
2
100
AcDbLine
 10
-408.202347
 20
238.915431
 30
0.0
 11
-400.21496
 21
241.822602
 31
0.0
  0
ARC
  5
3A4
100
AcDbEntity
  8
2
100
AcDbCircle
 10
-408.458863
 20
239.6202
 30
0.0
 40
0.75
100
AcDbArc
 50
110.0
 51
290.0
  0
ARC
  5
3A5
100
AcDbEntity
  8
2
100
AcDbCircle
 10
-400.471475
 20
242.527372
 30
0.0
 40
0.75
100
AcDbArc
 50
290.0
 51
110.0
  0
LINE
  5
3A6
100
AcDbEntity
  8
2
100
AcDbLine
 10
-408.715378
 20
240.32497
 30
0.0
 11
-400.72799
 21
243.232141
 31
0.0
  0
LINE
  5
3A7
100
AcDbEntity
  8
2
100
AcDbLine
 10
-372.341999
 20
203.951591
 30
0.0
 11
-369.434828
 21
211.938978
 31
0.0
  0
ARC
  5
3A8
100
AcDbEntity
  8
2
100
AcDbCircle
 10
-370.139597
 20
212.195493
 30
0.0
 40
0.75
100
AcDbArc
 50
340.0
 51
160.0
  0
ARC
  5
3A9
100
AcDbEntity
  8
2
100
AcDbCircle
 10
-373.046768
 20
204.208106
 30
0.0
 40
0.75
100
AcDbArc
 50
160.0
 51
340.0
  0
LINE
  5
3AA
100
AcDbEntity
  8
2
100
AcDbLine
 10
-373.751538
 20
204.464621
 30
0.0
 11
-370.844366
 21
212.452008
 31
0.0
  0
LINE
  5
3AB
100
AcDbEntity
  8
2
100
AcDbLine
 10
-381.757556
 20
208.197889
 30
0.0
 11
-377.507556
 21
215.559105
 31
0.0
  0
ARC
  5
3AC
100
AcDbEntity
  8
2
100
AcDbCircle
 10
-378.157075
 20
215.934105
 30
0.0
 40
0.75
100
AcDbArc
 50
330.0
 51
150.0
  0
ARC
  5
3AD
100
AcDbEntity
  8
2
100
AcDbCircle
 10
-382.407075
 20
208.572889
 30
0.0
 40
0.75
100
AcDbArc
 50
150.0
 51
330.0
  0
LINE
  5
3AE
100
AcDbEntity
  8
2
100
AcDbLine
 10
-383.056594
 20
208.947889
 30
0.0
 11
-378.806594
 21
216.309105
 31
0.0
  0
LINE
  5
3AF
100
AcDbEntity
  8
2
100
AcDbLine
 10
-390.292707
 20
214.01467
 30
0.0
 11
-384.829013
 21
220.526048
 31
0.0
  0
ARC
  5
3B0
100
AcDbEntity
  8
2
100
AcDbCircle
 10
-385.403546
 20
221.008138
 30
0.0
 40
0.75
100
AcDbArc
 50
320.0
 51
140.0
  0
ARC
  5
3B1
100
AcDbEntity
  8
2
100
AcDbCircle
 10
-390.867241
 20
214.496761
 30
0.0
 40
0.75
100
AcDbArc
 50
140.0
 51
320.0
  0
LINE
  5
3B2
100
AcDbEntity
  8
2
100
AcDbLine
 10
-391.441774
 20
214.978851
 30
0.0
 11
-385.978079
 21
221.490229
 31
0.0
  0
LINE
  5
3B3
100
AcDbEntity
  8
2
100
AcDbLine
 10
-363.809335
 20
201.665271
 30
0.0
 11
-362.333326
 21
210.036137
 31
0.0
  0
ARC
  5
3B4
100
AcDbEntity
  8
2
100
AcDbCircle
 10
-363.070729
 20
201.535035
 30
0.0
 40
0.75
100
AcDbArc
 50
170.0
 51
350.0
  0
ARC
  5
3B5
100
AcDbEntity
  8
2
100
AcDbCircle
 10
-361.59472
 20
209.9059
 30
0.0
 40
0.75
100
AcDbArc
 50
350.0
 51
170.0
  0
LINE
  5
3B6
100
AcDbEntity
  8
2
100
AcDbLine
 10
-362.332123
 20
201.404798
 30
0.0
 11
-360.856114
 21
209.775664
 31
0.0
  0
LINE
  5
3B7
100
AcDbEntity
  8
2
100
AcDbLine
 10
-412.027328
 20
258.384894
 30
0.0
 11
-403.282075
 21
258.384894
 31
0.0
  0
ARC
  5
3B8
100
AcDbEntity
  8
2
100
AcDbCircle
 10
-412.027328
 20
259.134894
 30
0.0
 40
0.75
100
AcDbArc
 50
180.725282
 51
270.0
  0
ARC
  5
3B9
100
AcDbEntity
  8
2
100
AcDbCircle
 10
-412.027328
 20
260.634894
 30
0.0
 40
0.75
100
AcDbArc
 50
90.0
 51
179.274718
  0
LINE
  5
3BA
100
AcDbEntity
  8
2
100
AcDbLine
 10
-412.027328
 20
261.384894
 30
0.0
 11
-403.282075
 21
261.384894
 31
0.0
  0
ARC
  5
3BB
100
AcDbEntity
  8
2
100
AcDbCircle
 10
-352.782075
 20
259.884894
 30
0.0
 40
60.0
100
AcDbArc
 50
179.274718
 51
180.725282
  0
LINE
  5
3BC
100
AcDbEntity
  8
2
100
AcDbLine
 10
-386.595104
 20
241.52672
 30
0.0
 11
-389.846063
 21
244.777679
 31
0.0
  0
LINE
  5
3BD
100
AcDbEntity
  8
2
100
AcDbLine
 10
-379.503089
 20
236.443998
 30
0.0
 11
-375.196926
 21
238.459124
 31
0.0
  0
LINE
  5
3BE
100
AcDbEntity
  8
2
100
AcDbLine
 10
-379.856005
 20
234.787622
 30
0.0
 11
-376.233966
 21
236.406159
 31
0.0
  0
LINE
  5
3BF
100
AcDbEntity
  8
2
100
AcDbLine
 10
-379.503089
 20
236.443998
 30
0.0
 11
-376.480441
 21
239.742639
 31
0.0
  0
LINE
  5
3C0
100
AcDbEntity
  8
2
100
AcDbLine
 10
-381.399603
 20
236.346757
 30
0.0
 11
-377.496365
 21
240.758564
 31
0.0
  0
ARC
  5
3C1
100
AcDbEntity
  8
2
100
AcDbCircle
 10
-376.792399
 20
235.56421
 30
0.0
 40
10.402317
100
AcDbArc
 50
128.830069
 51
141.169931
  0
ARC
  5
3C2
100
AcDbEntity
  8
2
100
AcDbCircle
 10
-387.480434
 20
246.252246
 30
0.0
 40
10.402317
100
AcDbArc
 50
308.830069
 51
321.169931
  0
LINE
  5
3C3
100
AcDbEntity
  8
2
100
AcDbLine
 10
-386.595104
 20
241.52672
 30
0.0
 11
-382.429813
 21
245.692012
 31
0.0
  0
ARC
  5
3C4
100
AcDbEntity
  8
2
100
AcDbCircle
 10
-382.233763
 20
242.324634
 30
0.0
 40
1.724081
100
AcDbArc
 50
51.270542
 51
128.830069
  0
ARC
  5
3C5
100
AcDbEntity
  8
2
100
AcDbCircle
 10
-380.720011
 20
240.810882
 30
0.0
 40
1.724081
100
AcDbArc
 50
321.169931
 51
38.729458
  0
ARC
  5
3C6
100
AcDbEntity
  8
2
100
AcDbCircle
 10
-388.365051
 20
234.679594
 30
0.0
 40
11.524047
100
AcDbArc
 50
38.729458
 51
51.270542
  0
LINE
  5
3C7
100
AcDbEntity
  8
2
100
AcDbLine
 10
-377.496365
 20
240.758564
 30
0.0
 11
-376.480441
 21
239.742639
 31
0.0
  0
ARC
  5
3C8
100
AcDbEntity
  8
2
100
AcDbCircle
 10
-383.552822
 20
241.005574
 30
0.0
 40
1.724081
100
AcDbArc
 50
141.169931
 51
218.729458
  0
ARC
  5
3C9
100
AcDbEntity
  8
2
100
AcDbCircle
 10
-382.03907
 20
239.491822
 30
0.0
 40
1.724081
100
AcDbArc
 50
231.270542
 51
308.830069
  0
ARC
  5
3CA
100
AcDbEntity
  8
2
100
AcDbCircle
 10
-375.907782
 20
247.136862
 30
0.0
 40
11.524047
100
AcDbArc
 50
218.729458
 51
231.270542
  0
LINE
  5
3CB
100
AcDbEntity
  8
2
100
AcDbLine
 10
-381.407372
 20
236.338988
 30
0.0
 11
-379.856005
 21
234.787622
 31
0.0
  0
LINE
  5
3CC
100
AcDbEntity
  8
2
100
AcDbLine
 10
-386.391919
 20
244.168125
 30
0.0
 11
-387.103066
 21
243.456977
 31
0.0
  0
LINE
  5
3CD
100
AcDbEntity
  8
2
100
AcDbLine
 10
-384.36007
 20
246.199974
 30
0.0
 11
-385.680772
 21
244.879272
 31
0.0
  0
LINE
  5
3CE
100
AcDbEntity
  8
2
100
AcDbLine
 10
-385.680772
 20
244.879272
 30
0.0
 11
-387.712621
 21
246.911121
 31
0.0
  0
LINE
  5
3CF
100
AcDbEntity
  8
2
100
AcDbLine
 10
-386.391919
 20
244.168125
 30
0.0
 11
-388.423769
 21
246.199974
 31
0.0
  0
LINE
  5
3D0
100
AcDbEntity
  8
2
100
AcDbLine
 10
-387.103066
 20
243.456977
 30
0.0
 11
-389.134916
 21
245.488827
 31
0.0
  0
LINE
  5
3D1
100
AcDbEntity
  8
2
100
AcDbLine
 10
-364.965208
 20
228.227407
 30
0.0
 11
-366.419754
 21
229.681952
 31
0.0
  0
LINE
  5
3D2
100
AcDbEntity
  8
2
100
AcDbLine
 10
-368.055569
 20
225.14582
 30
0.0
 11
-369.505727
 21
226.595978
 31
0.0
  0
ARC
  5
3D3
100
AcDbEntity
  8
2
100
AcDbCircle
 10
-368.169758
 20
221.740035
 30
0.0
 40
0.143673
100
AcDbArc
 50
225.0
 51
315.0
  0
LINE
  5
3D4
100
AcDbEntity
  8
2
100
AcDbLine
 10
-367.933658
 20
225.14582
 30
0.0
 11
-364.965208
 21
228.11427
 31
0.0
  0
LINE
  5
3D5
100
AcDbEntity
  8
2
100
AcDbLine
 10
-372.727402
 20
226.469572
 30
0.0
 11
-365.830167
 21
224.170494
 31
0.0
  0
ARC
  5
3D6
100
AcDbEntity
  8
2
100
AcDbCircle
 10
-367.994614
 20
225.206776
 30
0.0
 40
0.086204
100
AcDbArc
 50
225.0
 51
315.0
  0
LINE
  5
3D7
100
AcDbEntity
  8
2
100
AcDbLine
 10
-365.774008
 20
223.932601
 30
0.0
 11
-368.068166
 21
221.638443
 31
0.0
  0
ARC
  5
3D8
100
AcDbEntity
  8
2
100
AcDbCircle
 10
-366.387879
 20
225.159691
 30
0.0
 40
10.402317
100
AcDbArc
 50
128.830069
 51
141.169931
  0
ARC
  5
3D9
100
AcDbEntity
  8
2
100
AcDbCircle
 10
-367.158897
 20
225.930709
 30
0.0
 40
7.674066
100
AcDbArc
 50
124.473609
 51
145.526391
  0
LINE
  5
3DA
100
AcDbEntity
  8
2
100
AcDbLine
 10
-376.293368
 20
231.240523
 30
0.0
 11
-371.881561
 21
235.14376
 31
0.0
  0
ARC
  5
3DB
100
AcDbEntity
  8
2
100
AcDbCircle
 10
-371.829243
 20
231.920114
 30
0.0
 40
1.724081
100
AcDbArc
 50
51.270542
 51
128.830069
  0
LINE
  5
3DC
100
AcDbEntity
  8
2
100
AcDbLine
 10
-372.897486
 20
236.159684
 30
0.0
 11
-371.881561
 21
235.14376
 31
0.0
  0
ARC
  5
3DD
100
AcDbEntity
  8
2
100
AcDbCircle
 10
-373.148303
 20
230.601055
 30
0.0
 40
1.724081
100
AcDbArc
 50
141.169931
 51
218.729458
  0
LINE
  5
3DE
100
AcDbEntity
  8
2
100
AcDbLine
 10
-377.852503
 20
232.78412
 30
0.0
 11
-376.301137
 21
231.232753
 31
0.0
  0
ARC
  5
3DF
100
AcDbEntity
  8
2
100
AcDbCircle
 10
-377.075915
 20
235.847726
 30
0.0
 40
10.402317
100
AcDbArc
 50
308.830069
 51
321.169931
  0
ARC
  5
3E0
100
AcDbEntity
  8
2
100
AcDbCircle
 10
-376.923495
 20
235.820739
 30
0.0
 40
8.638035
100
AcDbArc
 50
305.062783
 51
323.774302
  0
LINE
  5
3E1
100
AcDbEntity
  8
2
100
AcDbLine
 10
-366.541664
 20
229.681952
 30
0.0
 11
-369.505727
 21
226.717889
 31
0.0
  0
ARC
  5
3E2
100
AcDbEntity
  8
2
100
AcDbCircle
 10
-370.315491
 20
230.406362
 30
0.0
 40
1.724081
100
AcDbArc
 50
321.169931
 51
38.729458
  0
ARC
  5
3E3
100
AcDbEntity
  8
2
100
AcDbCircle
 10
-372.582647
 20
229.652958
 30
0.0
 40
3.169316
100
AcDbArc
 50
34.668048
 51
55.331952
  0
ARC
  5
3E4
100
AcDbEntity
  8
2
100
AcDbCircle
 10
-370.585251
 20
231.068436
 30
0.0
 40
0.721926
100
AcDbArc
 50
330.772957
 51
32.444044
  0
ARC
  5
3E5
100
AcDbEntity
  8
2
100
AcDbCircle
 10
-366.480709
 20
229.620997
 30
0.0
 40
0.086204
100
AcDbArc
 50
45.0
 51
135.0
  0
ARC
  5
3E6
100
AcDbEntity
  8
2
100
AcDbCircle
 10
-371.634551
 20
229.087303
 30
0.0
 40
1.724081
100
AcDbArc
 50
231.270542
 51
308.830069
  0
ARC
  5
3E7
100
AcDbEntity
  8
2
100
AcDbCircle
 10
-372.324333
 20
229.267748
 30
0.0
 40
0.632163
100
AcDbArc
 50
235.331952
 51
305.062783
  0
ARC
  5
3E8
100
AcDbEntity
  8
2
100
AcDbCircle
 10
-370.881147
 20
231.354459
 30
0.0
 40
3.169316
100
AcDbArc
 50
214.668048
 51
235.331952
  0
ARC
  5
3E9
100
AcDbEntity
  8
2
100
AcDbCircle
 10
-369.444772
 20
226.656934
 30
0.0
 40
0.086204
100
AcDbArc
 50
135.0
 51
225.0
  0
ARC
  5
3EA
100
AcDbEntity
  8
2
100
AcDbCircle
 10
-377.960531
 20
224.275074
 30
0.0
 40
11.524047
100
AcDbArc
 50
38.729458
 51
51.270542
  0
ARC
  5
3EB
100
AcDbEntity
  8
2
100
AcDbCircle
 10
-371.139461
 20
231.739669
 30
0.0
 40
0.632163
100
AcDbArc
 50
55.331952
 51
125.062783
  0
ARC
  5
3EC
100
AcDbEntity
  8
2
100
AcDbCircle
 10
-365.503263
 20
236.732343
 30
0.0
 40
11.524047
100
AcDbArc
 50
218.729458
 51
231.270542
  0
ARC
  5
3ED
100
AcDbEntity
  8
2
100
AcDbCircle
 10
-372.967857
 20
229.911273
 30
0.0
 40
0.632163
100
AcDbArc
 50
144.937217
 51
214.668048
  0
LINE
  5
3EE
100
AcDbEntity
  8
2
100
AcDbLine
 10
-377.852503
 20
232.78412
 30
0.0
 11
-376.233966
 21
236.406159
 31
0.0
  0
LINE
  5
3EF
100
AcDbEntity
  8
2
100
AcDbLine
 10
-375.196926
 20
238.459124
 30
0.0
 11
-374.181001
 21
237.4432
 31
0.0
  0
ARC
  5
3F0
100
AcDbEntity
  8
2
100
AcDbCircle
 10
-372.771674
 20
226.336756
 30
0.0
 40
0.14
100
AcDbArc
 50
71.565051
 51
225.0
  0
ARC
  5
3F1
100
AcDbEntity
  8
2
100
AcDbCircle
 10
-382.755696
 20
239.699112
 30
0.0
 40
0.632163
100
AcDbArc
 50
235.331952
 51
305.062783
  0
ARC
  5
3F2
100
AcDbEntity
  8
2
100
AcDbCircle
 10
-380.9273
 20
241.527507
 30
0.0
 40
0.632163
100
AcDbArc
 50
324.937217
 51
34.668048
  0
ARC
  5
3F3
100
AcDbEntity
  8
2
100
AcDbCircle
 10
-381.31251
 20
241.785822
 30
0.0
 40
3.169316
100
AcDbArc
 50
214.668048
 51
235.331952
  0
ARC
  5
3F4
100
AcDbEntity
  8
2
100
AcDbCircle
 10
-383.39922
 20
240.342636
 30
0.0
 40
0.632163
100
AcDbArc
 50
144.937217
 51
214.668048
  0
ARC
  5
3F5
100
AcDbEntity
  8
2
100
AcDbCircle
 10
-381.598532
 20
242.081717
 30
0.0
 40
0.721926
100
AcDbArc
 50
57.555956
 51
119.227043
  0
ARC
  5
3F6
100
AcDbEntity
  8
2
100
AcDbCircle
 10
-383.01401
 20
240.084322
 30
0.0
 40
3.169316
100
AcDbArc
 50
34.668048
 51
55.331952
  0
ARC
  5
3F7
100
AcDbEntity
  8
2
100
AcDbCircle
 10
-376.84623
 20
235.743473
 30
0.0
 40
8.638035
100
AcDbArc
 50
126.225698
 51
144.937217
  0
ARC
  5
3F8
100
AcDbEntity
  8
2
100
AcDbCircle
 10
-386.73626
 20
245.508072
 30
0.0
 40
7.674066
100
AcDbArc
 50
304.473609
 51
325.526391
  0
LINE
  5
3F9
100
AcDbEntity
  8
2
100
AcDbLine
 10
-368.271351
 20
221.638443
 30
0.0
 11
-372.870669
 21
226.237761
 31
0.0
  0
LINE
  5
3FA
100
AcDbEntity
  8
2
100
AcDbLine
 10
-376.222971
 20
233.16388
 30
0.0
 11
-374.207844
 21
237.470043
 31
0.0
  0
LINE
  5
3FB
100
AcDbEntity
  8
2
100
AcDbLine
 10
-376.222971
 20
233.16388
 30
0.0
 11
-372.924329
 21
236.186528
 31
0.0
  0
LINE
  5
3FC
100
AcDbEntity
  8
2
100
AcDbLine
 10
-389.846063
 20
244.777679
 30
0.0
 11
-389.134916
 21
245.488827
 31
0.0
  0
LINE
  5
3FD
100
AcDbEntity
  8
2
100
AcDbLine
 10
-388.423769
 20
246.199974
 30
0.0
 11
-387.712621
 21
246.911121
 31
0.0
  0
ARC
  5
3FE
100
AcDbEntity
  8
2
100
AcDbCircle
 10
-365.8756
 20
224.034193
 30
0.0
 40
0.143673
100
AcDbArc
 50
315.0
 51
71.565051
  0
LINE
  5
3FF
100
AcDbEntity
  8
2
100
AcDbLine
 10
-327.591452
 20
242.862861
 30
0.0
 11
-324.927056
 21
242.116759
 31
0.0
  0
LINE
  5
400
100
AcDbEntity
  8
2
100
AcDbLine
 10
-324.927056
 20
242.116759
 30
0.0
 11
-325.6851
 21
242.899273
 31
0.0
  0
LINE
  5
401
100
AcDbEntity
  8
2
100
AcDbLine
 10
-345.782075
 20
239.884894
 30
0.0
 11
-359.782075
 21
239.884894
 31
0.0
  0
LINE
  5
402
100
AcDbEntity
  8
2
100
AcDbLine
 10
-312.100827
 20
231.822448
 30
0.0
 11
-321.338431
 21
231.822448
 31
0.0
  0
LINE
  5
403
100
AcDbEntity
  8
2
100
AcDbLine
 10
-321.338431
 20
215.822448
 30
0.0
 11
-312.100827
 21
215.822448
 31
0.0
  0
CIRCLE
  5
404
100
AcDbEntity
  8
2
100
AcDbCircle
 10
-316.719629
 20
223.822448
 30
0.0
 40
8.0
  0
LINE
  5
405
100
AcDbEntity
  8
2
100
AcDbLine
 10
-325.957233
 20
223.822448
 30
0.0
 11
-321.338431
 21
215.822448
 31
0.0
  0
LINE
  5
406
100
AcDbEntity
  8
2
100
AcDbLine
 10
-312.100827
 20
215.822448
 30
0.0
 11
-307.482025
 21
223.822448
 31
0.0
  0
LINE
  5
407
100
AcDbEntity
  8
2
100
AcDbLine
 10
-307.482025
 20
223.822448
 30
0.0
 11
-312.100827
 21
231.822448
 31
0.0
  0
LINE
  5
408
100
AcDbEntity
  8
2
100
AcDbLine
 10
-321.338431
 20
231.822448
 30
0.0
 11
-325.957233
 21
223.822448
 31
0.0
  0
LINE
  5
409
100
AcDbEntity
  8
2
100
AcDbLine
 10
-393.463323
 20
303.94734
 30
0.0
 11
-398.082125
 21
295.94734
 31
0.0
  0
LINE
  5
40A
100
AcDbEntity
  8
2
100
AcDbLine
 10
-398.082125
 20
295.94734
 30
0.0
 11
-393.463323
 21
287.94734
 31
0.0
  0
LINE
  5
40B
100
AcDbEntity
  8
2
100
AcDbLine
 10
-384.225718
 20
303.94734
 30
0.0
 11
-393.463323
 21
303.94734
 31
0.0
  0
LINE
  5
40C
100
AcDbEntity
  8
2
100
AcDbLine
 10
-379.606916
 20
295.94734
 30
0.0
 11
-384.225718
 21
303.94734
 31
0.0
  0
LINE
  5
40D
100
AcDbEntity
  8
2
100
AcDbLine
 10
-384.225718
 20
287.94734
 30
0.0
 11
-379.606916
 21
295.94734
 31
0.0
  0
LINE
  5
40E
100
AcDbEntity
  8
2
100
AcDbLine
 10
-393.463323
 20
287.94734
 30
0.0
 11
-384.225718
 21
287.94734
 31
0.0
  0
CIRCLE
  5
40F
100
AcDbEntity
  8
2
100
AcDbCircle
 10
-388.844521
 20
295.94734
 30
0.0
 40
8.0
  0
LINE
  5
410
100
AcDbEntity
  8
2
100
AcDbLine
 10
-350.285018
 20
265.518605
 30
0.0
 11
-346.595731
 21
265.518605
 31
0.0
  0
LINE
  5
411
100
AcDbEntity
  8
2
100
AcDbLine
 10
-346.548943
 20
265.320411
 30
0.0
 11
-350.16805
 21
263.510858
 31
0.0
  0
CIRCLE
  5
412
100
AcDbEntity
  8
2
100
AcDbCircle
 10
-352.782075
 20
259.884894
 30
0.0
 40
14.0
  0
LINE
  5
413
100
AcDbEntity
  8
2
100
AcDbLine
 10
-350.890644
 20
263.123406
 30
0.0
 11
-354.509751
 21
261.313853
 31
0.0
  0
LINE
  5
414
100
AcDbEntity
  8
2
100
AcDbLine
 10
-354.888267
 20
261.547789
 30
0.0
 11
-354.888267
 21
263.060052
 31
0.0
  0
LINE
  5
415
100
AcDbEntity
  8
2
100
AcDbLine
 10
-355.232344
 20
263.123406
 30
0.0
 11
-358.932677
 21
261.27324
 31
0.0
  0
LINE
  5
416
100
AcDbEntity
  8
2
100
AcDbLine
 10
-359.229967
 20
259.350784
 30
0.0
 11
-359.229967
 21
265.257057
 31
0.0
  0
LINE
  5
417
100
AcDbEntity
  8
2
100
AcDbLine
 10
-355.232344
 20
260.926401
 30
0.0
 11
-358.851451
 21
259.116848
 31
0.0
  0
LINE
  5
418
100
AcDbEntity
  8
2
100
AcDbLine
 10
-358.897586
 20
261.124595
 30
0.0
 11
-355.279131
 21
261.124595
 31
0.0
  0
ARC
  5
419
100
AcDbEntity
  8
2
100
AcDbCircle
 10
-358.968419
 20
259.350784
 30
0.0
 40
0.261548
100
AcDbArc
 50
180.0
 51
296.565051
  0
ARC
  5
41A
100
AcDbEntity
  8
2
100
AcDbCircle
 10
-358.897586
 20
261.203059
 30
0.0
 40
0.078464
100
AcDbArc
 50
116.565051
 51
270.0
  0
LINE
  5
41B
100
AcDbEntity
  8
2
100
AcDbLine
 10
-354.731338
 20
252.781207
 30
0.0
 11
-350.997928
 21
252.781207
 31
0.0
  0
LINE
  5
41C
100
AcDbEntity
  8
2
100
AcDbLine
 10
-354.731338
 20
261.124595
 30
0.0
 11
-350.997928
 21
261.124595
 31
0.0
  0
LINE
  5
41D
100
AcDbEntity
  8
2
100
AcDbLine
 10
-354.888267
 20
260.967666
 30
0.0
 11
-354.888267
 21
252.938136
 31
0.0
  0
ARC
  5
41E
100
AcDbEntity
  8
2
100
AcDbCircle
 10
-354.731338
 20
252.938136
 30
0.0
 40
0.156929
100
AcDbArc
 50
180.0
 51
270.0
  0
ARC
  5
41F
100
AcDbEntity
  8
2
100
AcDbCircle
 10
-354.626718
 20
261.547789
 30
0.0
 40
0.261548
100
AcDbArc
 50
180.0
 51
296.565051
  0
ARC
  5
420
100
AcDbEntity
  8
2
100
AcDbCircle
 10
-354.731338
 20
260.967666
 30
0.0
 40
0.156929
100
AcDbArc
 50
90.0
 51
180.0
  0
ARC
  5
421
100
AcDbEntity
  8
2
100
AcDbCircle
 10
-355.279131
 20
261.019975
 30
0.0
 40
0.104619
100
AcDbArc
 50
296.565051
 51
90.0
  0
LINE
  5
422
100
AcDbEntity
  8
2
100
AcDbLine
 10
-350.840999
 20
252.938136
 30
0.0
 11
-350.840999
 21
260.967666
 31
0.0
  0
ARC
  5
423
100
AcDbEntity
  8
2
100
AcDbCircle
 10
-350.997928
 20
252.938136
 30
0.0
 40
0.156929
100
AcDbArc
 50
270.0
 51
360.0
  0
ARC
  5
424
100
AcDbEntity
  8
2
100
AcDbCircle
 10
-350.997928
 20
260.967666
 30
0.0
 40
0.156929
100
AcDbArc
 50
0.0
 51
90.0
  0
LINE
  5
425
100
AcDbEntity
  8
2
100
AcDbLine
 10
-358.968419
 20
265.518605
 30
0.0
 11
-355.279131
 21
265.518605
 31
0.0
  0
LINE
  5
426
100
AcDbEntity
  8
2
100
AcDbLine
 10
-358.897586
 20
263.3216
 30
0.0
 11
-355.279131
 21
263.3216
 31
0.0
  0
LINE
  5
427
100
AcDbEntity
  8
2
100
AcDbLine
 10
-355.232344
 20
265.320411
 30
0.0
 11
-358.932677
 21
263.470245
 31
0.0
  0
ARC
  5
428
100
AcDbEntity
  8
2
100
AcDbCircle
 10
-358.968419
 20
265.257057
 30
0.0
 40
0.261548
100
AcDbArc
 50
90.0
 51
180.0
  0
ARC
  5
429
100
AcDbEntity
  8
2
100
AcDbCircle
 10
-358.897586
 20
263.400064
 30
0.0
 40
0.078464
100
AcDbArc
 50
116.565051
 51
270.0
  0
LINE
  5
42A
100
AcDbEntity
  8
2
100
AcDbLine
 10
-354.626718
 20
265.518605
 30
0.0
 11
-350.937431
 21
265.518605
 31
0.0
  0
LINE
  5
42B
100
AcDbEntity
  8
2
100
AcDbLine
 10
-354.626718
 20
263.3216
 30
0.0
 11
-350.937431
 21
263.3216
 31
0.0
  0
LINE
  5
42C
100
AcDbEntity
  8
2
100
AcDbLine
 10
-350.890644
 20
265.320411
 30
0.0
 11
-354.509751
 21
263.510858
 31
0.0
  0
ARC
  5
42D
100
AcDbEntity
  8
2
100
AcDbCircle
 10
-354.626718
 20
265.257057
 30
0.0
 40
0.261548
100
AcDbArc
 50
90.0
 51
180.0
  0
ARC
  5
42E
100
AcDbEntity
  8
2
100
AcDbCircle
 10
-355.279131
 20
265.413985
 30
0.0
 40
0.104619
100
AcDbArc
 50
296.565051
 51
90.0
  0
ARC
  5
42F
100
AcDbEntity
  8
2
100
AcDbCircle
 10
-354.626718
 20
263.744794
 30
0.0
 40
0.261548
100
AcDbArc
 50
180.0
 51
296.565051
  0
ARC
  5
430
100
AcDbEntity
  8
2
100
AcDbCircle
 10
-354.626718
 20
263.060052
 30
0.0
 40
0.261548
100
AcDbArc
 50
90.0
 51
180.0
  0
ARC
  5
431
100
AcDbEntity
  8
2
100
AcDbCircle
 10
-355.279131
 20
263.21698
 30
0.0
 40
0.104619
100
AcDbArc
 50
296.565051
 51
90.0
  0
LINE
  5
432
100
AcDbEntity
  8
2
100
AcDbLine
 10
-354.888267
 20
263.744794
 30
0.0
 11
-354.888267
 21
265.257057
 31
0.0
  0
ARC
  5
433
100
AcDbEntity
  8
2
100
AcDbCircle
 10
-350.285018
 20
265.257057
 30
0.0
 40
0.261548
100
AcDbArc
 50
90.0
 51
180.0
  0
ARC
  5
434
100
AcDbEntity
  8
2
100
AcDbCircle
 10
-350.937431
 20
265.413985
 30
0.0
 40
0.104619
100
AcDbArc
 50
296.565051
 51
90.0
  0
ARC
  5
435
100
AcDbEntity
  8
2
100
AcDbCircle
 10
-350.285018
 20
263.744794
 30
0.0
 40
0.261548
100
AcDbArc
 50
180.0
 51
296.565051
  0
ARC
  5
436
100
AcDbEntity
  8
2
100
AcDbCircle
 10
-350.937431
 20
263.21698
 30
0.0
 40
0.104619
100
AcDbArc
 50
296.565051
 51
90.0
  0
LINE
  5
437
100
AcDbEntity
  8
2
100
AcDbLine
 10
-350.546566
 20
263.744794
 30
0.0
 11
-350.546566
 21
265.257057
 31
0.0
  0
ARC
  5
438
100
AcDbEntity
  8
2
100
AcDbCircle
 10
-346.595731
 20
265.413985
 30
0.0
 40
0.104619
100
AcDbArc
 50
296.565051
 51
90.0
  0
TEXT
  5
439
100
AcDbEntity
  8
2
100
AcDbText
 10
-328.351641
 20
242.420138
 30
0.0
 40
3.0
  1
Ｔ
 50
232.580106
 72
     5
 11
-329.810005
 21
240.514049
 31
0.0
100
AcDbText
  0
TEXT
  5
43A
100
AcDbEntity
  8
2
100
AcDbText
 10
-329.96676
 20
240.357344
 30
0.0
 40
3.0
  1
Ｅ
 50
227.580106
 72
     5
 11
-331.585701
 21
238.585613
 31
0.0
100
AcDbText
  0
TEXT
  5
43B
100
AcDbEntity
  8
2
100
AcDbText
 10
-331.755517
 20
238.443166
 30
0.0
 40
3.0
  1
Ｎ
 50
222.580106
 72
     5
 11
-333.522714
 21
236.819277
 31
0.0
100
AcDbText
  0
TEXT
  5
43C
100
AcDbEntity
  8
2
100
AcDbText
 10
-333.704299
 20
236.692173
 30
0.0
 40
3.0
  1
Ｔ
 50
217.580106
 72
     5
 11
-335.606302
 21
235.228485
 31
0.0
100
AcDbText
  0
TEXT
  5
43D
100
AcDbEntity
  8
2
100
AcDbText
 10
-335.798275
 20
235.117691
 30
0.0
 40
3.0
  1
Ｅ
 50
212.580106
 72
     5
 11
-337.82061
 21
233.825343
 31
0.0
100
AcDbText
  0
TEXT
  5
43E
100
AcDbEntity
  8
2
100
AcDbText
 10
-338.021507
 20
233.731702
 30
0.0
 40
3.0
  1
Ｄ
 50
207.580106
 72
     5
 11
-340.148782
 21
232.62053
 31
0.0
100
AcDbText
  0
TEXT
  5
43F
100
AcDbEntity
  8
2
100
AcDbText
 10
-377.824798
 20
276.459749
 30
0.0
 40
3.0
  1
Ｊ
 50
54.641106
 72
     5
 11
-376.435927
 21
278.417053
 31
0.0
100
AcDbText
  0
TEXT
  5
440
100
AcDbEntity
  8
2
100
AcDbText
 10
-376.284909
 20
278.579294
 30
0.0
 40
3.0
  1
Ａ
 50
49.641106
 72
     5
 11
-374.730733
 21
280.408101
 31
0.0
100
AcDbText
  0
TEXT
  5
441
100
AcDbEntity
  8
2
100
AcDbText
 10
-374.56615
 20
280.556563
 30
0.0
 40
3.0
  1
Ｐ
 50
44.641106
 72
     5
 11
-372.858497
 21
282.242956
 31
0.0
100
AcDbText
  0
TEXT
  5
442
100
AcDbEntity
  8
2
100
AcDbText
 10
-372.6816
 20
282.376508
 30
0.0
 40
3.0
  1
Ａ
 50
39.641106
 72
     5
 11
-370.833466
 21
283.907652
 31
0.0
100
AcDbText
  0
TEXT
  5
443
100
AcDbEntity
  8
2
100
AcDbText
 10
-370.645603
 20
284.025279
 30
0.0
 40
3.0
  1
Ｎ
 50
34.641106
 72
     5
 11
-368.671054
 21
285.389521
 31
0.0
100
AcDbText
  0
ARC
  5
444
100
AcDbEntity
  8
2
100
AcDbCircle
 10
-394.782075
 20
325.017451
 30
0.0
 40
15.0
100
AcDbArc
 50
302.815493
 51
360.0
  0
LINE
  5
445
100
AcDbEntity
  8
2
100
AcDbLine
 10
-360.782075
 20
347.384894
 30
0.0
 11
-369.782075
 21
347.384894
 31
0.0
  0
LINE
  5
446
100
AcDbEntity
  8
2
100
AcDbLine
 10
-379.782075
 20
337.384894
 30
0.0
 11
-379.782075
 21
325.017451
 31
0.0
  0
LINE
  5
447
100
AcDbEntity
  8
2
100
AcDbLine
 10
-359.782075
 20
346.384894
 30
0.0
 11
-359.782075
 21
333.139587
 31
0.0
  0
ARC
  5
448
100
AcDbEntity
  8
2
100
AcDbCircle
 10
-369.782075
 20
337.384894
 30
0.0
 40
10.0
100
AcDbArc
 50
90.0
 51
180.0
  0
ARC
  5
449
100
AcDbEntity
  8
2
100
AcDbCircle
 10
-360.782075
 20
346.384894
 30
0.0
 40
1.0
100
AcDbArc
 50
0.0
 51
90.0
  0
ARC
  5
44A
100
AcDbEntity
  8
2
100
AcDbCircle
 10
-358.782075
 20
333.139587
 30
0.0
 40
1.0
100
AcDbArc
 50
180.0
 51
274.682417
  0
ARC
  5
44B
100
AcDbEntity
  8
2
100
AcDbCircle
 10
-352.782075
 20
259.884894
 30
0.0
 40
72.5
100
AcDbArc
 50
63.197079
 51
66.802931
  0
ARC
  5
44C
100
AcDbEntity
  8
2
100
AcDbCircle
 10
-352.782075
 20
259.884894
 30
0.0
 40
72.5
100
AcDbArc
 50
73.197071
 51
76.802929
  0
ARC
  5
44D
100
AcDbEntity
  8
2
100
AcDbCircle
 10
-352.782075
 20
259.884894
 30
0.0
 40
72.5
100
AcDbArc
 50
83.197075
 51
86.802934
  0
ARC
  5
44E
100
AcDbEntity
  8
2
100
AcDbCircle
 10
-352.782075
 20
259.884894
 30
0.0
 40
72.5
100
AcDbArc
 50
93.197072
 51
94.682417
  0
LINE
  5
44F
100
AcDbEntity
  8
2
100
AcDbLine
 10
-331.116449
 20
320.761333
 30
0.0
 11
-331.468851
 21
328.832678
 31
0.0
  0
ARC
  5
450
100
AcDbEntity
  8
2
100
AcDbCircle
 10
-331.968375
 20
328.810868
 30
0.0
 40
0.5
100
AcDbArc
 50
2.5
 51
73.197166
  0
ARC
  5
451
100
AcDbEntity
  8
2
100
AcDbCircle
 10
-324.421531
 20
326.064041
 30
0.0
 40
0.5
100
AcDbArc
 50
66.802834
 51
137.5
  0
LINE
  5
452
100
AcDbEntity
  8
2
100
AcDbLine
 10
-330.248286
 20
320.445348
 30
0.0
 11
-324.79017
 21
326.401837
 31
0.0
  0
LINE
  5
453
100
AcDbEntity
  8
2
100
AcDbLine
 10
-352.320135
 20
324.500115
 30
0.0
 11
-349.228422
 21
331.964169
 31
0.0
  0
ARC
  5
454
100
AcDbEntity
  8
2
100
AcDbCircle
 10
-348.766483
 20
331.772828
 30
0.0
 40
0.5
100
AcDbArc
 50
86.802834
 51
157.5
  0
ARC
  5
455
100
AcDbEntity
  8
2
100
AcDbCircle
 10
-356.797667
 20
331.772828
 30
0.0
 40
0.5
100
AcDbArc
 50
22.5
 51
93.197166
  0
LINE
  5
456
100
AcDbEntity
  8
2
100
AcDbLine
 10
-353.244014
 20
324.500115
 30
0.0
 11
-356.335727
 21
331.964169
 31
0.0
  0
LINE
  5
457
100
AcDbEntity
  8
2
100
AcDbLine
 10
-342.016681
 20
323.59868
 30
0.0
 11
-343.765304
 21
331.486208
 31
0.0
  0
ARC
  5
458
100
AcDbEntity
  8
2
100
AcDbCircle
 10
-344.253452
 20
331.377989
 30
0.0
 40
0.5
100
AcDbArc
 50
12.5
 51
83.197166
  0
ARC
  5
459
100
AcDbEntity
  8
2
100
AcDbCircle
 10
-336.34428
 20
329.983388
 30
0.0
 40
0.5
100
AcDbArc
 50
76.802834
 51
147.5
  0
LINE
  5
45A
100
AcDbEntity
  8
2
100
AcDbLine
 10
-341.106837
 20
323.43825
 30
0.0
 11
-336.765976
 21
330.252038
 31
0.0
  0
ARC
  5
45B
100
AcDbEntity
  8
2
100
AcDbCircle
 10
-336.34428
 20
329.983388
 30
0.0
 40
0.5
100
AcDbArc
 50
76.802834
 51
147.5
  0
ARC
  5
45C
100
AcDbEntity
  8
2
100
AcDbCircle
 10
-331.968375
 20
328.810868
 30
0.0
 40
0.5
100
AcDbArc
 50
2.5
 51
73.197166
  0
LINE
  5
45D
100
AcDbEntity
  8
2
100
AcDbLine
 10
-265.282075
 20
244.053014
 30
0.0
 11
-265.282075
 21
242.884894
 31
0.0
  0
ARC
  5
45E
100
AcDbEntity
  8
2
100
AcDbCircle
 10
-283.8561
 20
280.698593
 30
0.0
 40
0.5
100
AcDbArc
 50
16.802834
 51
87.5
  0
ARC
  5
45F
100
AcDbEntity
  8
2
100
AcDbCircle
 10
-282.68358
 20
276.322689
 30
0.0
 40
0.5
100
AcDbArc
 50
325.746539
 51
13.197166
  0
LINE
  5
460
100
AcDbEntity
  8
2
100
AcDbLine
 10
-292.221621
 20
282.418683
 30
0.0
 11
-286.265132
 21
287.876799
 31
0.0
  0
ARC
  5
461
100
AcDbEntity
  8
2
100
AcDbCircle
 10
-283.8561
 20
280.698593
 30
0.0
 40
0.5
100
AcDbArc
 50
16.802834
 51
87.5
  0
ARC
  5
462
100
AcDbEntity
  8
2
100
AcDbCircle
 10
-291.883826
 20
282.050044
 30
0.0
 40
0.5
100
AcDbArc
 50
132.5
 51
267.5
  0
LINE
  5
463
100
AcDbEntity
  8
2
100
AcDbLine
 10
-291.905635
 20
281.55052
 30
0.0
 11
-283.834291
 21
281.198117
 31
0.0
  0
LINE
  5
464
100
AcDbEntity
  8
2
100
AcDbLine
 10
-275.282075
 20
232.884894
 30
0.0
 11
-287.649518
 21
232.884894
 31
0.0
  0
ARC
  5
465
100
AcDbEntity
  8
2
100
AcDbCircle
 10
-275.282075
 20
242.884894
 30
0.0
 40
10.0
100
AcDbArc
 50
270.0
 51
360.0
  0
LINE
  5
466
100
AcDbEntity
  8
2
100
AcDbLine
 10
-265.282075
 20
244.053014
 30
0.0
 11
-265.282075
 21
242.884894
 31
0.0
  0
ARC
  5
467
100
AcDbEntity
  8
2
100
AcDbCircle
 10
-282.68358
 20
276.322689
 30
0.0
 40
0.5
100
AcDbArc
 50
325.746539
 51
13.197166
  0
LINE
  5
468
100
AcDbEntity
  8
2
100
AcDbLine
 10
-291.905635
 20
281.55052
 30
0.0
 11
-283.834291
 21
281.198117
 31
0.0
  0
ARC
  5
469
100
AcDbEntity
  8
2
100
AcDbCircle
 10
-283.8561
 20
280.698593
 30
0.0
 40
0.5
100
AcDbArc
 50
16.802834
 51
87.5
  0
ARC
  5
46A
100
AcDbEntity
  8
2
100
AcDbCircle
 10
-286.602927
 20
288.245437
 30
0.0
 40
0.5
100
AcDbArc
 50
312.5
 51
23.197166
  0
ARC
  5
46B
100
AcDbEntity
  8
2
100
AcDbCircle
 10
-291.883826
 20
282.050044
 30
0.0
 40
0.5
100
AcDbArc
 50
132.5
 51
267.5
  0
LINE
  5
46C
100
AcDbEntity
  8
2
100
AcDbLine
 10
-292.221621
 20
282.418683
 30
0.0
 11
-286.265132
 21
287.876799
 31
0.0
  0
LINE
  5
46D
100
AcDbEntity
  8
2
100
AcDbLine
 10
-296.592682
 20
291.792453
 30
0.0
 11
-288.582765
 21
292.846978
 31
0.0
  0
ARC
  5
46E
100
AcDbEntity
  8
2
100
AcDbCircle
 10
-288.517502
 20
292.351256
 30
0.0
 40
0.5
100
AcDbArc
 50
26.802834
 51
97.5
  0
ARC
  5
46F
100
AcDbEntity
  8
2
100
AcDbCircle
 10
-296.657945
 20
292.288175
 30
0.0
 40
0.5
100
AcDbArc
 50
142.5
 51
277.5
  0
LINE
  5
470
100
AcDbEntity
  8
2
100
AcDbLine
 10
-297.054622
 20
292.592556
 30
0.0
 11
-292.136417
 21
299.002085
 31
0.0
  0
LINE
  5
471
100
AcDbEntity
  8
2
100
AcDbLine
 10
-292.221621
 20
282.418683
 30
0.0
 11
-286.265132
 21
287.876799
 31
0.0
  0
ARC
  5
472
100
AcDbEntity
  8
2
100
AcDbCircle
 10
-291.883826
 20
282.050044
 30
0.0
 40
0.5
100
AcDbArc
 50
132.5
 51
267.5
  0
ARC
  5
473
100
AcDbEntity
  8
2
100
AcDbCircle
 10
-286.602927
 20
288.245437
 30
0.0
 40
0.5
100
AcDbArc
 50
312.5
 51
23.197166
  0
ARC
  5
474
100
AcDbEntity
  8
2
100
AcDbCircle
 10
-283.8561
 20
280.698593
 30
0.0
 40
0.5
100
AcDbArc
 50
16.802834
 51
87.5
  0
ARC
  5
475
100
AcDbEntity
  8
2
100
AcDbCircle
 10
-352.782075
 20
259.884894
 30
0.0
 40
72.5
100
AcDbArc
 50
23.197079
 51
26.802933
  0
ARC
  5
476
100
AcDbEntity
  8
2
100
AcDbCircle
 10
-352.782075
 20
259.884894
 30
0.0
 40
72.5
100
AcDbArc
 50
13.197089
 51
16.802918
  0
ARC
  5
477
100
AcDbEntity
  8
2
100
AcDbCircle
 10
-303.49728
 20
312.373073
 30
0.0
 40
0.5
100
AcDbArc
 50
46.802834
 51
117.5
  0
ARC
  5
478
100
AcDbEntity
  8
2
100
AcDbCircle
 10
-300.293895
 20
309.169689
 30
0.0
 40
0.5
100
AcDbArc
 50
332.5
 51
43.197166
  0
LINE
  5
479
100
AcDbEntity
  8
2
100
AcDbLine
 10
-302.987014
 20
301.064891
 30
0.0
 11
-295.281903
 21
303.494304
 31
0.0
  0
ARC
  5
47A
100
AcDbEntity
  8
2
100
AcDbCircle
 10
-295.13155
 20
303.017445
 30
0.0
 40
0.5
100
AcDbArc
 50
36.802834
 51
107.5
  0
ARC
  5
47B
100
AcDbEntity
  8
2
100
AcDbCircle
 10
-300.293895
 20
309.169689
 30
0.0
 40
0.5
100
AcDbArc
 50
332.5
 51
43.197166
  0
ARC
  5
47C
100
AcDbEntity
  8
2
100
AcDbCircle
 10
-303.137367
 20
301.54175
 30
0.0
 40
0.5
100
AcDbArc
 50
152.5
 51
287.5
  0
LINE
  5
47D
100
AcDbEntity
  8
2
100
AcDbLine
 10
-303.580873
 20
301.772624
 30
0.0
 11
-299.85039
 21
308.938815
 31
0.0
  0
LINE
  5
47E
100
AcDbEntity
  8
2
100
AcDbLine
 10
-311.602077
 20
309.679954
 30
0.0
 11
-309.172665
 21
317.385066
 31
0.0
  0
ARC
  5
47F
100
AcDbEntity
  8
2
100
AcDbCircle
 10
-311.125219
 20
309.529601
 30
0.0
 40
0.5
100
AcDbArc
 50
162.5
 51
297.5
  0
ARC
  5
480
100
AcDbEntity
  8
2
100
AcDbCircle
 10
-309.649524
 20
317.535419
 30
0.0
 40
0.5
100
AcDbArc
 50
342.5
 51
53.197166
  0
ARC
  5
481
100
AcDbEntity
  8
2
100
AcDbCircle
 10
-303.49728
 20
312.373073
 30
0.0
 40
0.5
100
AcDbArc
 50
46.802834
 51
117.5
  0
LINE
  5
482
100
AcDbEntity
  8
2
100
AcDbLine
 10
-310.894345
 20
309.086096
 30
0.0
 11
-303.728154
 21
312.816579
 31
0.0
  0
ARC
  5
483
100
AcDbEntity
  8
2
100
AcDbCircle
 10
-341.528533
 20
323.7069
 30
0.0
 40
0.5
100
AcDbArc
 50
192.5
 51
327.5
  0
ARC
  5
484
100
AcDbEntity
  8
2
100
AcDbCircle
 10
-352.782075
 20
324.691457
 30
0.0
 40
0.5
100
AcDbArc
 50
202.5
 51
337.5
  0
ARC
  5
485
100
AcDbEntity
  8
2
100
AcDbCircle
 10
-330.616925
 20
320.783143
 30
0.0
 40
0.5
100
AcDbArc
 50
182.5
 51
317.5
  0
LINE
  5
486
100
AcDbEntity
  8
2
100
AcDbLine
 10
-320.874516
 20
316.074287
 30
0.0
 11
-319.81999
 21
324.084204
 31
0.0
  0
ARC
  5
487
100
AcDbEntity
  8
2
100
AcDbCircle
 10
-320.378793
 20
316.009024
 30
0.0
 40
0.5
100
AcDbArc
 50
172.5
 51
307.5
  0
ARC
  5
488
100
AcDbEntity
  8
2
100
AcDbCircle
 10
-320.315713
 20
324.149467
 30
0.0
 40
0.5
100
AcDbArc
 50
352.5
 51
63.197166
  0
ARC
  5
489
100
AcDbEntity
  8
2
100
AcDbCircle
 10
-313.360503
 20
320.133875
 30
0.0
 40
0.5
100
AcDbArc
 50
56.802834
 51
127.5
  0
LINE
  5
48A
100
AcDbEntity
  8
2
100
AcDbLine
 10
-320.074413
 20
315.612347
 30
0.0
 11
-313.664884
 21
320.530551
 31
0.0
  0
ARC
  5
48B
100
AcDbEntity
  8
2
100
AcDbCircle
 10
-292.533094
 20
299.306465
 30
0.0
 40
0.5
100
AcDbArc
 50
322.5
 51
33.197166
  0
ARC
  5
48C
100
AcDbEntity
  8
2
100
AcDbCircle
 10
-292.533094
 20
299.306465
 30
0.0
 40
0.5
100
AcDbArc
 50
322.5
 51
33.197166
  0
ARC
  5
48D
100
AcDbEntity
  8
2
100
AcDbCircle
 10
-352.782075
 20
259.884894
 30
0.0
 40
72.5
100
AcDbArc
 50
53.197091
 51
56.802921
  0
ARC
  5
48E
100
AcDbEntity
  8
2
100
AcDbCircle
 10
-352.782075
 20
259.884894
 30
0.0
 40
72.5
100
AcDbArc
 50
43.197104
 51
46.802926
  0
ARC
  5
48F
100
AcDbEntity
  8
2
100
AcDbCircle
 10
-352.782075
 20
259.884894
 30
0.0
 40
72.5
100
AcDbArc
 50
33.197067
 51
36.802896
  0
ARC
  5
490
100
AcDbEntity
  8
2
100
AcDbCircle
 10
-287.649518
 20
217.884894
 30
0.0
 40
15.0
100
AcDbArc
 50
90.0
 51
147.184507
  0
ARC
  5
491
100
AcDbEntity
  8
2
100
AcDbCircle
 10
-352.782075
 20
259.884894
 30
0.0
 40
62.5
100
AcDbArc
 50
121.541246
 51
327.184507
  0
LINE
  5
492
100
AcDbEntity
  8
2
100
AcDbLine
 10
-291.905635
 20
281.55052
 30
0.0
 11
-283.834291
 21
281.198117
 31
0.0
  0
LINE
  5
493
100
AcDbEntity
  8
2
  6
CENTER
 62
     2
100
AcDbLine
 10
-352.782075
 20
249.884894
 30
0.0
 11
-352.782075
 21
223.384894
 31
0.0
  0
LINE
  5
494
100
AcDbEntity
  8
2
100
AcDbLine
 10
-352.782075
 20
239.884894
 30
0.0
 11
-345.282075
 21
239.884894
 31
0.0
  0
LINE
  5
495
100
AcDbEntity
  8
2
100
AcDbLine
 10
-345.282075
 20
239.884894
 30
0.0
 11
-345.282075
 21
234.106582
 31
0.0
  0
LINE
  5
496
100
AcDbEntity
  8
2
100
AcDbLine
 10
-345.282075
 20
234.106582
 30
0.0
 11
-346.532075
 21
233.384894
 31
0.0
  0
LINE
  5
497
100
AcDbEntity
  8
2
100
AcDbLine
 10
-346.532075
 20
233.384894
 30
0.0
 11
-352.782075
 21
233.384894
 31
0.0
  0
LINE
  5
498
100
AcDbEntity
  8
2
100
AcDbLine
 10
-349.032075
 20
239.884894
 30
0.0
 11
-349.032075
 21
234.106582
 31
0.0
  0
ARC
  5
499
100
AcDbEntity
  8
2
100
AcDbCircle
 10
-347.157075
 20
236.516958
 30
0.0
 40
3.053774
100
AcDbArc
 50
232.121121
 51
307.878879
  0
ARC
  5
49A
100
AcDbEntity
  8
2
100
AcDbCircle
 10
-352.782075
 20
244.713184
 30
0.0
 40
11.25
100
AcDbArc
 50
270.0
 51
289.471221
  0
LINE
  5
49B
100
AcDbEntity
  8
2
100
AcDbLine
 10
-352.782075
 20
239.884894
 30
0.0
 11
-360.282075
 21
239.884894
 31
0.0
  0
LINE
  5
49C
100
AcDbEntity
  8
2
100
AcDbLine
 10
-360.282075
 20
239.884894
 30
0.0
 11
-360.282075
 21
234.106582
 31
0.0
  0
LINE
  5
49D
100
AcDbEntity
  8
2
100
AcDbLine
 10
-360.282075
 20
234.106582
 30
0.0
 11
-359.032075
 21
233.384894
 31
0.0
  0
LINE
  5
49E
100
AcDbEntity
  8
2
100
AcDbLine
 10
-359.032075
 20
233.384894
 30
0.0
 11
-352.782075
 21
233.384894
 31
0.0
  0
LINE
  5
49F
100
AcDbEntity
  8
2
100
AcDbLine
 10
-356.532075
 20
239.884894
 30
0.0
 11
-356.532075
 21
234.106582
 31
0.0
  0
ARC
  5
4A0
100
AcDbEntity
  8
2
100
AcDbCircle
 10
-358.407075
 20
236.516958
 30
0.0
 40
3.053774
100
AcDbArc
 50
232.121121
 51
307.878879
  0
ARC
  5
4A1
100
AcDbEntity
  8
2
100
AcDbCircle
 10
-352.782075
 20
244.713184
 30
0.0
 40
11.25
100
AcDbArc
 50
250.528779
 51
270.0
  0
LINE
  5
4A2
100
AcDbEntity
  8
2
100
AcDbLine
 10
-352.782075
 20
227.884894
 30
0.0
 11
-356.105575
 21
227.884894
 31
0.0
  0
LINE
  5
4A3
100
AcDbEntity
  8
2
100
AcDbLine
 10
-356.105575
 20
227.884894
 30
0.0
 11
-356.782075
 21
228.561394
 31
0.0
  0
LINE
  5
4A4
100
AcDbEntity
  8
2
100
AcDbLine
 10
-356.782075
 20
228.561394
 30
0.0
 11
-356.782075
 21
233.421609
 31
0.0
  0
LINE
  5
4A5
100
AcDbEntity
  8
2
100
AcDbLine
 10
-356.782075
 20
228.561394
 30
0.0
 11
-352.782075
 21
228.561394
 31
0.0
  0
LINE
  5
4A6
100
AcDbEntity
  8
2
 62
     2
100
AcDbLine
 10
-356.105575
 20
227.884894
 30
0.0
 11
-356.105575
 21
233.385246
 31
0.0
  0
LINE
  5
4A7
100
AcDbEntity
  8
2
100
AcDbLine
 10
-352.782075
 20
227.884894
 30
0.0
 11
-349.458575
 21
227.884894
 31
0.0
  0
LINE
  5
4A8
100
AcDbEntity
  8
2
100
AcDbLine
 10
-349.458575
 20
227.884894
 30
0.0
 11
-348.782075
 21
228.561394
 31
0.0
  0
LINE
  5
4A9
100
AcDbEntity
  8
2
100
AcDbLine
 10
-348.782075
 20
228.561394
 30
0.0
 11
-348.782075
 21
233.421609
 31
0.0
  0
LINE
  5
4AA
100
AcDbEntity
  8
2
100
AcDbLine
 10
-348.782075
 20
228.561394
 30
0.0
 11
-352.782075
 21
228.561394
 31
0.0
  0
LINE
  5
4AB
100
AcDbEntity
  8
2
 62
     2
100
AcDbLine
 10
-349.458575
 20
227.884894
 30
0.0
 11
-349.458575
 21
233.385246
 31
0.0
  0
TEXT
  5
4AC
100
AcDbEntity
  8
2
100
AcDbText
 10
-401.315066
 20
272.789587
 30
0.0
 40
10.0
  1
Ｓ
 50
70.112034
 72
     5
 11
-398.59361
 21
280.312464
 31
0.0
100
AcDbText
  0
TEXT
  5
4AD
100
AcDbEntity
  8
2
100
AcDbText
 10
-330.886813
 20
214.577905
 30
0.0
 40
10.0
  1
Ｏ
 50
199.927742
 72
     5
 11
-338.407799
 21
211.851227
 31
0.0
100
AcDbText
  0
LINE
  5
4AE
100
AcDbEntity
  8
2
100
AcDbLine
 10
-352.022581
 20
199.889701
 30
0.0
 11
-353.532075
 21
199.889701
 31
0.0
  0
LINE
  5
4AF
100
AcDbEntity
  8
2
  6
CENTER
 62
     2
100
AcDbLine
 10
163.489929
 20
44.129365
 30
0.0
 11
163.489929
 21
-31.234773
 31
0.0
  0
LINE
  5
4B0
100
AcDbEntity
  8
2
  6
CENTER
 62
     2
100
AcDbLine
 10
91.365039
 20
43.887039
 30
0.0
 11
91.365039
 21
-31.234773
 31
0.0
  0
LINE
  5
4B1
100
AcDbEntity
  8
2
100
AcDbLine
 10
171.989928
 20
-10.225974
 30
0.0
 11
171.989928
 21
-18.225975
 31
0.0
  0
ARC
  5
4B2
100
AcDbEntity
  8
2
100
AcDbCircle
 10
167.73993
 20
-7.68654
 30
0.0
 40
10.539435
100
AcDbArc
 50
246.218654
 51
293.781346
  0
LINE
  5
4B3
100
AcDbEntity
  8
2
100
AcDbLine
 10
155.429599
 20
-18.225975
 30
0.0
 11
171.989928
 21
-18.225975
 31
0.0
  0
LINE
  5
4B4
100
AcDbEntity
  8
2
100
AcDbLine
 10
163.489929
 20
-11.473145
 30
0.0
 11
163.489929
 21
-17.331081
 31
0.0
  0
ARC
  5
4B5
100
AcDbEntity
  8
2
100
AcDbCircle
 10
159.239928
 20
-7.68654
 30
0.0
 40
10.539435
100
AcDbArc
 50
251.505721
 51
293.781346
  0
LINE
  5
4B6
100
AcDbEntity
  8
2
100
AcDbLine
 10
172.68993
 20
-8.04363
 30
0.0
 11
172.68993
 21
-10.225974
 31
0.0
  0
LINE
  5
4B7
100
AcDbEntity
  8
2
100
AcDbLine
 10
172.68993
 20
-10.225974
 30
0.0
 11
165.910275
 21
-10.225974
 31
0.0
  0
LINE
  5
4B8
100
AcDbEntity
  8
2
100
AcDbLine
 10
159.301929
 20
-25.725975
 30
0.0
 11
167.677929
 21
-25.725975
 31
0.0
  0
LINE
  5
4B9
100
AcDbEntity
  8
2
100
AcDbLine
 10
159.301929
 20
-25.725975
 30
0.0
 11
158.489928
 21
-24.913974
 31
0.0
  0
LINE
  5
4BA
100
AcDbEntity
  8
2
100
AcDbLine
 10
158.489928
 20
-24.913974
 30
0.0
 11
158.489928
 21
-18.225975
 31
0.0
  0
LINE
  5
4BB
100
AcDbEntity
  8
2
 62
     2
100
AcDbLine
 10
159.301929
 20
-25.725975
 30
0.0
 11
159.301929
 21
-18.225975
 31
0.0
  0
LINE
  5
4BC
100
AcDbEntity
  8
2
100
AcDbLine
 10
167.677929
 20
-25.725975
 30
0.0
 11
168.48993
 21
-24.913974
 31
0.0
  0
LINE
  5
4BD
100
AcDbEntity
  8
2
100
AcDbLine
 10
168.48993
 20
-24.913974
 30
0.0
 11
168.48993
 21
-18.225975
 31
0.0
  0
LINE
  5
4BE
100
AcDbEntity
  8
2
100
AcDbLine
 10
168.48993
 20
-24.913974
 30
0.0
 11
158.489928
 21
-24.913974
 31
0.0
  0
LINE
  5
4BF
100
AcDbEntity
  8
2
 62
     2
100
AcDbLine
 10
167.677929
 20
-25.725975
 30
0.0
 11
167.677929
 21
-18.225975
 31
0.0
  0
LINE
  5
4C0
100
AcDbEntity
  8
2
100
AcDbLine
 10
99.865038
 20
-10.225974
 30
0.0
 11
99.865038
 21
-18.225975
 31
0.0
  0
ARC
  5
4C1
100
AcDbEntity
  8
2
100
AcDbCircle
 10
95.615037
 20
-7.68654
 30
0.0
 40
10.539435
100
AcDbArc
 50
246.218654
 51
293.781346
  0
LINE
  5
4C2
100
AcDbEntity
  8
2
100
AcDbLine
 10
82.865037
 20
-10.225974
 30
0.0
 11
82.865037
 21
-18.225975
 31
0.0
  0
LINE
  5
4C3
100
AcDbEntity
  8
2
100
AcDbLine
 10
82.865037
 20
-18.225975
 30
0.0
 11
99.865038
 21
-18.225975
 31
0.0
  0
LINE
  5
4C4
100
AcDbEntity
  8
2
100
AcDbLine
 10
91.365039
 20
-10.225974
 30
0.0
 11
91.365039
 21
-17.331081
 31
0.0
  0
ARC
  5
4C5
100
AcDbEntity
  8
2
100
AcDbCircle
 10
87.115038
 20
-7.68654
 30
0.0
 40
10.539435
100
AcDbArc
 50
246.218654
 51
293.781346
  0
LINE
  5
4C6
100
AcDbEntity
  8
2
100
AcDbLine
 10
100.565037
 20
-7.725975
 30
0.0
 11
100.565037
 21
-10.225974
 31
0.0
  0
LINE
  5
4C7
100
AcDbEntity
  8
2
100
AcDbLine
 10
100.565037
 20
-10.225974
 30
0.0
 11
82.165038
 21
-10.225974
 31
0.0
  0
LINE
  5
4C8
100
AcDbEntity
  8
2
100
AcDbLine
 10
82.165038
 20
-10.225974
 30
0.0
 11
82.165038
 21
-7.725975
 31
0.0
  0
LINE
  5
4C9
100
AcDbEntity
  8
2
100
AcDbLine
 10
87.177039
 20
-25.725975
 30
0.0
 11
95.553039
 21
-25.725975
 31
0.0
  0
LINE
  5
4CA
100
AcDbEntity
  8
2
100
AcDbLine
 10
87.177039
 20
-25.725975
 30
0.0
 11
86.365038
 21
-24.913974
 31
0.0
  0
LINE
  5
4CB
100
AcDbEntity
  8
2
100
AcDbLine
 10
86.365038
 20
-24.913974
 30
0.0
 11
86.365038
 21
-18.225975
 31
0.0
  0
LINE
  5
4CC
100
AcDbEntity
  8
2
 62
     2
100
AcDbLine
 10
87.177039
 20
-25.725975
 30
0.0
 11
87.177039
 21
-18.225975
 31
0.0
  0
LINE
  5
4CD
100
AcDbEntity
  8
2
100
AcDbLine
 10
95.553039
 20
-25.725975
 30
0.0
 11
96.365037
 21
-24.913974
 31
0.0
  0
LINE
  5
4CE
100
AcDbEntity
  8
2
100
AcDbLine
 10
96.365037
 20
-24.913974
 30
0.0
 11
96.365037
 21
-18.225975
 31
0.0
  0
LINE
  5
4CF
100
AcDbEntity
  8
2
100
AcDbLine
 10
96.365037
 20
-24.913974
 30
0.0
 11
86.365038
 21
-24.913974
 31
0.0
  0
LINE
  5
4D0
100
AcDbEntity
  8
2
 62
     2
100
AcDbLine
 10
95.553039
 20
-25.725975
 30
0.0
 11
95.553039
 21
-18.225975
 31
0.0
  0
LINE
  5
4D1
100
AcDbEntity
  8
2
100
AcDbLine
 10
171.989928
 20
41.274023
 30
0.0
 11
154.98993
 21
41.274023
 31
0.0
  0
LINE
  5
4D2
100
AcDbEntity
  8
2
100
AcDbLine
 10
171.989928
 20
34.274024
 30
0.0
 11
171.989928
 21
41.274023
 31
0.0
  0
ARC
  5
4D3
100
AcDbEntity
  8
2
100
AcDbCircle
 10
167.73993
 20
30.734588
 30
0.0
 40
10.539435
100
AcDbArc
 50
66.218654
 51
113.781346
  0
LINE
  5
4D4
100
AcDbEntity
  8
2
100
AcDbLine
 10
154.98993
 20
34.274024
 30
0.0
 11
154.98993
 21
41.274023
 31
0.0
  0
ARC
  5
4D5
100
AcDbEntity
  8
2
100
AcDbCircle
 10
159.239928
 20
30.734588
 30
0.0
 40
10.539435
100
AcDbArc
 50
66.218654
 51
113.781346
  0
LINE
  5
4D6
100
AcDbEntity
  8
2
100
AcDbLine
 10
163.489929
 20
40.379132
 30
0.0
 11
163.489929
 21
34.274024
 31
0.0
  0
LINE
  5
4D7
100
AcDbEntity
  8
2
100
AcDbLine
 10
82.865037
 20
34.274024
 30
0.0
 11
82.865037
 21
41.274023
 31
0.0
  0
LINE
  5
4D8
100
AcDbEntity
  8
2
100
AcDbLine
 10
82.865037
 20
41.274023
 30
0.0
 11
99.865038
 21
41.274023
 31
0.0
  0
ARC
  5
4D9
100
AcDbEntity
  8
2
100
AcDbCircle
 10
87.115038
 20
30.734588
 30
0.0
 40
10.539435
100
AcDbArc
 50
66.218654
 51
113.781346
  0
ARC
  5
4DA
100
AcDbEntity
  8
2
100
AcDbCircle
 10
95.615037
 20
30.734588
 30
0.0
 40
10.539435
100
AcDbArc
 50
66.218654
 51
113.781346
  0
LINE
  5
4DB
100
AcDbEntity
  8
2
100
AcDbLine
 10
91.365039
 20
40.379132
 30
0.0
 11
91.365039
 21
34.274024
 31
0.0
  0
LINE
  5
4DC
100
AcDbEntity
  8
2
100
AcDbLine
 10
99.865038
 20
34.274024
 30
0.0
 11
99.865038
 21
41.274023
 31
0.0
  0
LINE
  5
4DD
100
AcDbEntity
  8
2
100
AcDbLine
 10
119.932299
 20
83.674297
 30
0.0
 11
135.132299
 21
86.924073
 31
0.0
  0
LINE
  5
4DE
100
AcDbEntity
  8
2
  6
CENTER
 62
     2
100
AcDbLine
 10
149.035208
 20
74.274024
 30
0.0
 11
105.609303
 21
74.274024
 31
0.0
  0
LINE
  5
4DF
100
AcDbEntity
  8
2
  6
CENTER
 62
     2
100
AcDbLine
 10
117.495002
 20
51.274024
 30
0.0
 11
89.914362
 21
51.274024
 31
0.0
  0
LINE
  5
4E0
100
AcDbEntity
  8
2
  6
CENTER
 62
     2
100
AcDbLine
 10
149.035208
 20
74.274024
 30
0.0
 11
105.609303
 21
74.274024
 31
0.0
  0
LINE
  5
4E1
100
AcDbEntity
  8
2
100
AcDbLine
 10
143.865038
 20
70.274024
 30
0.0
 11
143.365038
 21
70.274024
 31
0.0
  0
LINE
  5
4E2
100
AcDbEntity
  8
2
100
AcDbLine
 10
142.365038
 20
43.274024
 30
0.0
 11
142.365038
 21
44.274024
 31
0.0
  0
LINE
  5
4E3
100
AcDbEntity
  8
2
100
AcDbLine
 10
143.365038
 20
60.274024
 30
0.0
 11
143.365038
 21
76.276163
 31
0.0
  0
ARC
  5
4E4
100
AcDbEntity
  8
2
100
AcDbCircle
 10
142.865038
 20
76.276163
 30
0.0
 40
0.5
100
AcDbArc
 50
0.0
 51
90.0
  0
ARC
  5
4E5
100
AcDbEntity
  8
2
100
AcDbCircle
 10
142.972981
 20
77.536759
 30
0.0
 40
0.768217
100
AcDbArc
 50
199.829456
 51
261.922631
  0
LINE
  5
4E6
100
AcDbEntity
  8
2
100
AcDbLine
 10
142.250314
 20
77.276163
 30
0.0
 11
142.250314
 21
67.274024
 31
0.0
  0
LINE
  5
4E7
100
AcDbEntity
  8
2
100
AcDbLine
 10
140.019799
 20
51.589351
 30
0.0
 11
139.442394
 21
59.274024
 31
0.0
  0
ARC
  5
4E8
100
AcDbEntity
  8
2
100
AcDbCircle
 10
143.84477
 20
46.182929
 30
0.0
 40
1.0
100
AcDbArc
 50
270.0
 51
4.281504
  0
ARC
  5
4E9
100
AcDbEntity
  8
2
100
AcDbCircle
 10
143.250314
 20
67.274024
 30
0.0
 40
1.0
100
AcDbArc
 50
180.0
 51
270.0
  0
ARC
  5
4EA
100
AcDbEntity
  8
2
100
AcDbCircle
 10
139.02261
 20
51.514425
 30
0.0
 40
1.0
100
AcDbArc
 50
301.28895
 51
4.296975
  0
LINE
  5
4EB
100
AcDbEntity
  8
2
100
AcDbLine
 10
142.365038
 20
59.274024
 30
0.0
 11
135.565038
 21
59.274024
 31
0.0
  0
ARC
  5
4EC
100
AcDbEntity
  8
2
100
AcDbCircle
 10
142.365038
 20
60.274024
 30
0.0
 40
1.0
100
AcDbArc
 50
270.0
 51
360.0
  0
ARC
  5
4ED
100
AcDbEntity
  8
2
100
AcDbCircle
 10
135.565038
 20
60.274024
 30
0.0
 40
1.0
100
AcDbArc
 50
180.0
 51
270.0
  0
LINE
  5
4EE
100
AcDbEntity
  8
2
100
AcDbLine
 10
137.631083
 20
72.398368
 30
0.0
 11
135.314658
 21
71.7993
 31
0.0
  0
ARC
  5
4EF
100
AcDbEntity
  8
2
100
AcDbCircle
 10
135.565038
 20
70.831153
 30
0.0
 40
1.0
100
AcDbArc
 50
104.5
 51
118.215328
  0
LINE
  5
4F0
100
AcDbEntity
  8
2
100
AcDbLine
 10
134.565038
 20
60.274024
 30
0.0
 11
134.565038
 21
61.446495
 31
0.0
  0
ARC
  5
4F1
100
AcDbEntity
  8
2
100
AcDbCircle
 10
137.380703
 20
73.366516
 30
0.0
 40
1.0
100
AcDbArc
 50
284.5
 51
4.296975
  0
ARC
  5
4F2
100
AcDbEntity
  8
2
100
AcDbCircle
 10
127.365038
 20
59.786189
 30
0.0
 40
53.955821
100
AcDbArc
 50
78.453639
 51
101.653235
  0
ARC
  5
4F3
100
AcDbEntity
  8
2
100
AcDbCircle
 10
134.457989
 20
112.264842
 30
0.0
 40
1.0
100
AcDbArc
 50
4.296975
 51
82.302618
  0
ARC
  5
4F4
100
AcDbEntity
  8
2
100
AcDbCircle
 10
120.272087
 20
112.264842
 30
0.0
 40
1.0
100
AcDbArc
 50
97.697382
 51
175.703025
  0
LINE
  5
4F5
100
AcDbEntity
  8
2
100
AcDbLine
 10
116.352184
 20
73.441442
 30
0.0
 11
119.274898
 21
112.339768
 31
0.0
  0
ARC
  5
4F6
100
AcDbEntity
  8
2
100
AcDbCircle
 10
117.349373
 20
73.366516
 30
0.0
 40
1.0
100
AcDbArc
 50
175.703025
 51
255.5
  0
LINE
  5
4F7
100
AcDbEntity
  8
2
100
AcDbLine
 10
120.165038
 20
60.274024
 30
0.0
 11
120.165038
 21
62.447042
 31
0.0
  0
ARC
  5
4F8
100
AcDbEntity
  8
2
100
AcDbCircle
 10
119.165038
 20
70.831153
 30
0.0
 40
1.0
100
AcDbArc
 50
0.0
 51
17.265212
  0
LINE
  5
4F9
100
AcDbEntity
  8
2
100
AcDbLine
 10
117.098993
 20
72.398368
 30
0.0
 11
118.965957
 21
71.915539
 31
0.0
  0
ARC
  5
4FA
100
AcDbEntity
  8
2
100
AcDbCircle
 10
119.165038
 20
60.274024
 30
0.0
 40
1.0
100
AcDbArc
 50
270.0
 51
360.0
  0
ARC
  5
4FB
100
AcDbEntity
  8
2
100
AcDbCircle
 10
112.365038
 20
60.274024
 30
0.0
 40
1.0
100
AcDbArc
 50
180.0
 51
270.0
  0
LINE
  5
4FC
100
AcDbEntity
  8
2
100
AcDbLine
 10
112.365038
 20
59.274024
 30
0.0
 11
119.165038
 21
59.274024
 31
0.0
  0
ARC
  5
4FD
100
AcDbEntity
  8
2
100
AcDbCircle
 10
143.865038
 20
46.182929
 30
0.0
 40
1.0
100
AcDbArc
 50
270.0
 51
360.0
  0
ARC
  5
4FE
100
AcDbEntity
  8
2
100
AcDbCircle
 10
115.707467
 20
51.514425
 30
0.0
 40
1.0
100
AcDbArc
 50
175.703025
 51
238.71105
  0
ARC
  5
4FF
100
AcDbEntity
  8
2
100
AcDbCircle
 10
127.365038
 20
70.696095
 30
0.0
 40
23.446279
100
AcDbArc
 50
238.71105
 51
252.885046
  0
LINE
  5
500
100
AcDbEntity
  8
2
100
AcDbLine
 10
134.565038
 20
82.541094
 30
0.0
 11
134.565038
 21
80.506425
 31
0.0
  0
ARC
  5
501
100
AcDbEntity
  8
2
100
AcDbCircle
 10
131.565038
 20
83.747218
 30
0.0
 40
3.0
100
AcDbArc
 50
9.787427
 51
58.915644
  0
ARC
  5
502
100
AcDbEntity
  8
2
100
AcDbCircle
 10
111.479763
 20
67.274024
 30
0.0
 40
1.0
100
AcDbArc
 50
270.0
 51
360.0
  0
LINE
  5
503
100
AcDbEntity
  8
2
100
AcDbLine
 10
142.54816
 20
76.896693
 30
0.0
 11
139.313622
 21
120.101211
 31
0.0
  0
LINE
  5
504
100
AcDbEntity
  8
2
100
AcDbLine
 10
109.365038
 20
45.182929
 30
0.0
 11
120.465038
 21
45.182929
 31
0.0
  0
ARC
  5
505
100
AcDbEntity
  8
2
100
AcDbCircle
 10
110.885307
 20
46.182929
 30
0.0
 40
1.0
100
AcDbArc
 50
175.718496
 51
270.0
  0
ARC
  5
506
100
AcDbEntity
  8
2
100
AcDbCircle
 10
116.795038
 20
62.474024
 30
0.0
 40
8.43
100
AcDbArc
 50
130.100336
 51
180.0
  0
LINE
  5
507
100
AcDbEntity
  8
2
100
AcDbLine
 10
112.181917
 20
76.896693
 30
0.0
 11
115.416455
 21
120.101211
 31
0.0
  0
ARC
  5
508
100
AcDbEntity
  8
2
100
AcDbCircle
 10
109.365038
 20
46.182929
 30
0.0
 40
1.0
100
AcDbArc
 50
180.0
 51
270.0
  0
LINE
  5
509
100
AcDbEntity
  8
2
100
AcDbLine
 10
114.710277
 20
51.589351
 30
0.0
 11
115.287683
 21
59.274024
 31
0.0
  0
LINE
  5
50A
100
AcDbEntity
  8
2
100
AcDbLine
 10
138.377893
 20
73.441442
 30
0.0
 11
135.455178
 21
112.339768
 31
0.0
  0
LINE
  5
50B
100
AcDbEntity
  8
2
100
AcDbLine
 10
108.365038
 20
44.274024
 30
0.0
 11
108.365038
 21
62.474024
 31
0.0
  0
LINE
  5
50C
100
AcDbEntity
  8
2
100
AcDbLine
 10
120.165038
 20
83.235839
 30
0.0
 11
120.165038
 21
81.592967
 31
0.0
  0
ARC
  5
50D
100
AcDbEntity
  8
2
100
AcDbCircle
 10
119.165038
 20
83.235839
 30
0.0
 40
1.0
100
AcDbArc
 50
0.0
 51
23.414798
  0
LINE
  5
50E
100
AcDbEntity
  8
2
100
AcDbLine
 10
107.365038
 20
44.274024
 30
0.0
 11
120.465038
 21
44.274024
 31
0.0
  0
LINE
  5
50F
100
AcDbEntity
  8
2
100
AcDbLine
 10
111.365038
 20
70.274024
 30
0.0
 11
108.365038
 21
70.274024
 31
0.0
  0
LINE
  5
510
100
AcDbEntity
  8
2
100
AcDbLine
 10
144.748502
 20
47.506179
 30
0.0
 11
143.365038
 21
65.985446
 31
0.0
  0
ARC
  5
511
100
AcDbEntity
  8
2
100
AcDbCircle
 10
127.365038
 20
128.809777
 30
0.0
 40
37.225083
100
AcDbArc
 50
260.989975
 51
279.010025
  0
ARC
  5
512
100
AcDbEntity
  8
2
100
AcDbCircle
 10
127.365038
 20
68.317472
 30
0.0
 40
24.432244
100
AcDbArc
 50
76.195627
 51
103.804373
  0
LINE
  5
513
100
AcDbEntity
  8
2
100
AcDbLine
 10
133.865038
 20
92.714297
 30
0.0
 11
133.194757
 21
92.044016
 31
0.0
  0
LINE
  5
514
100
AcDbEntity
  8
2
100
AcDbLine
 10
121.464397
 20
92.114939
 30
0.0
 11
121.53532
 21
92.044016
 31
0.0
  0
ARC
  5
515
100
AcDbEntity
  8
2
100
AcDbCircle
 10
127.365038
 20
48.877904
 30
0.0
 40
52.194665
100
AcDbArc
 50
83.049623
 51
96.849881
  0
LINE
  5
516
100
AcDbEntity
  8
2
100
AcDbLine
 10
133.865038
 20
98.461807
 30
0.0
 11
133.865038
 21
96.015748
 31
0.0
  0
ARC
  5
517
100
AcDbEntity
  8
2
100
AcDbCircle
 10
135.365038
 20
98.955836
 30
0.0
 40
1.5
100
AcDbArc
 50
90.0
 51
121.105665
  0
ARC
  5
518
100
AcDbEntity
  8
2
100
AcDbCircle
 10
119.365038
 20
98.955836
 30
0.0
 40
1.5
100
AcDbArc
 50
0.0
 51
90.0
  0
LINE
  5
519
100
AcDbEntity
  8
2
100
AcDbLine
 10
120.865038
 20
98.955836
 30
0.0
 11
120.865038
 21
97.473337
 31
0.0
  0
LINE
  5
51A
100
AcDbEntity
  8
2
100
AcDbLine
 10
112.479763
 20
77.276163
 30
0.0
 11
112.479763
 21
67.274024
 31
0.0
  0
ARC
  5
51B
100
AcDbEntity
  8
2
100
AcDbCircle
 10
111.757096
 20
77.536759
 30
0.0
 40
0.768217
100
AcDbArc
 50
278.077369
 51
340.170544
  0
ARC
  5
51C
100
AcDbEntity
  8
2
100
AcDbCircle
 10
111.865038
 20
76.276163
 30
0.0
 40
0.5
100
AcDbArc
 50
90.0
 51
180.0
  0
LINE
  5
51D
100
AcDbEntity
  8
2
100
AcDbLine
 10
139.365038
 20
119.386003
 30
0.0
 11
139.365038
 21
113.629873
 31
0.0
  0
ARC
  5
51E
100
AcDbEntity
  8
2
100
AcDbCircle
 10
134.365038
 20
119.386003
 30
0.0
 40
5.0
100
AcDbArc
 50
0.0
 51
86.687439
  0
ARC
  5
51F
100
AcDbEntity
  8
2
100
AcDbCircle
 10
138.365038
 20
113.629873
 30
0.0
 40
1.0
100
AcDbArc
 50
258.453639
 51
360.0
  0
ARC
  5
520
100
AcDbEntity
  8
2
100
AcDbCircle
 10
116.365038
 20
113.629873
 30
0.0
 40
1.0
100
AcDbArc
 50
180.0
 51
281.546361
  0
LINE
  5
521
100
AcDbEntity
  8
2
100
AcDbLine
 10
109.888097
 20
46.257586
 30
0.0
 11
111.365038
 21
65.985446
 31
0.0
  0
ARC
  5
522
100
AcDbEntity
  8
2
100
AcDbCircle
 10
120.365038
 20
119.386003
 30
0.0
 40
5.0
100
AcDbArc
 50
93.312561
 51
180.0
  0
ARC
  5
523
100
AcDbEntity
  8
2
100
AcDbCircle
 10
127.365038
 20
-1.554705
 30
0.0
 40
126.143118
100
AcDbArc
 50
86.687439
 51
93.312561
  0
LINE
  5
524
100
AcDbEntity
  8
2
100
AcDbLine
 10
111.365038
 20
60.274024
 30
0.0
 11
111.365038
 21
76.276163
 31
0.0
  0
LINE
  5
525
100
AcDbEntity
  8
2
100
AcDbLine
 10
115.365038
 20
119.386003
 30
0.0
 11
115.365038
 21
113.629873
 31
0.0
  0
LINE
  5
526
100
AcDbEntity
  8
2
100
AcDbLine
 10
112.365038
 20
43.274024
 30
0.0
 11
112.365038
 21
44.274024
 31
0.0
  0
LINE
  5
527
100
AcDbEntity
  8
2
100
AcDbLine
 10
144.865038
 20
44.274024
 30
0.0
 11
144.865038
 21
69.274024
 31
0.0
  0
LINE
  5
528
100
AcDbEntity
  8
2
100
AcDbLine
 10
143.865038
 20
70.274024
 30
0.0
 11
144.865038
 21
69.274024
 31
0.0
  0
LINE
  5
529
100
AcDbEntity
  8
2
100
AcDbLine
 10
112.365038
 20
43.274024
 30
0.0
 11
120.465038
 21
43.274024
 31
0.0
  0
LINE
  5
52A
100
AcDbEntity
  8
2
100
AcDbLine
 10
107.365038
 20
69.274024
 30
0.0
 11
107.365038
 21
44.274024
 31
0.0
  0
ARC
  5
52B
100
AcDbEntity
  8
2
100
AcDbCircle
 10
108.365038
 20
69.274024
 30
0.0
 40
1.0
100
AcDbArc
 50
90.0
 51
180.0
  0
LINE
  5
52C
100
AcDbEntity
  8
2
100
AcDbLine
 10
134.265038
 20
45.182929
 30
0.0
 11
143.865038
 21
45.182929
 31
0.0
  0
LINE
  5
52D
100
AcDbEntity
  8
2
100
AcDbLine
 10
134.265038
 20
44.274024
 30
0.0
 11
144.865038
 21
44.274024
 31
0.0
  0
LINE
  5
52E
100
AcDbEntity
  8
2
100
AcDbLine
 10
134.265038
 20
43.274024
 30
0.0
 11
142.365038
 21
43.274024
 31
0.0
  0
ARC
  5
52F
100
AcDbEntity
  8
2
100
AcDbCircle
 10
127.365038
 20
70.696095
 30
0.0
 40
23.446279
100
AcDbArc
 50
287.114954
 51
301.28895
  0
LINE
  5
530
100
AcDbEntity
  8
2
100
AcDbLine
 10
120.165038
 20
64.175583
 30
0.0
 11
120.165038
 21
66.619418
 31
0.0
  0
LINE
  5
531
100
AcDbEntity
  8
2
100
AcDbLine
 10
120.165038
 20
68.360452
 30
0.0
 11
120.165038
 21
70.831153
 31
0.0
  0
LINE
  5
532
100
AcDbEntity
  8
2
100
AcDbLine
 10
120.165038
 20
75.347529
 30
0.0
 11
120.165038
 21
72.855294
 31
0.0
  0
LINE
  5
533
100
AcDbEntity
  8
2
100
AcDbLine
 10
120.165038
 20
79.879826
 30
0.0
 11
120.165038
 21
77.089585
 31
0.0
  0
LINE
  5
534
100
AcDbEntity
  8
2
100
AcDbLine
 10
134.565038
 20
63.042825
 30
0.0
 11
134.565038
 21
65.517475
 31
0.0
  0
LINE
  5
535
100
AcDbEntity
  8
2
100
AcDbLine
 10
134.565038
 20
67.246017
 30
0.0
 11
134.565038
 21
70.010455
 31
0.0
  0
LINE
  5
536
100
AcDbEntity
  8
2
100
AcDbLine
 10
134.565038
 20
78.764369
 30
0.0
 11
134.565038
 21
75.974128
 31
0.0
  0
LINE
  5
537
100
AcDbEntity
  8
2
100
AcDbLine
 10
133.865038
 20
94.389066
 30
0.0
 11
133.865038
 21
92.714297
 31
0.0
  0
LINE
  5
538
100
AcDbEntity
  8
2
100
AcDbLine
 10
120.865038
 20
95.84115
 30
0.0
 11
120.865038
 21
93.631707
 31
0.0
  0
LINE
  5
539
100
AcDbEntity
  8
2
100
AcDbLine
 10
133.365038
 20
43.270569
 30
0.0
 11
133.365038
 21
61.759549
 31
0.0
  0
LINE
  5
53A
100
AcDbEntity
  8
2
100
AcDbLine
 10
121.365038
 20
43.270569
 30
0.0
 11
121.365038
 21
61.759549
 31
0.0
  0
LINE
  5
53B
100
AcDbEntity
  8
2
100
AcDbLine
 10
134.265038
 20
35.547772
 30
0.0
 11
133.365038
 21
34.647772
 31
0.0
  0
ARC
  5
53C
100
AcDbEntity
  8
2
100
AcDbCircle
 10
122.365038
 20
73.782296
 30
0.0
 40
1.0
100
AcDbArc
 50
90.0
 51
180.0
  0
ARC
  5
53D
100
AcDbEntity
  8
2
100
AcDbCircle
 10
132.365038
 20
73.782296
 30
0.0
 40
1.0
100
AcDbArc
 50
0.0
 51
11.831031
  0
LINE
  5
53E
100
AcDbEntity
  8
2
100
AcDbLine
 10
122.365038
 20
74.782296
 30
0.0
 11
129.343317
 21
74.782296
 31
0.0
  0
LINE
  5
53F
100
AcDbEntity
  8
2
100
AcDbLine
 10
120.465038
 20
35.547772
 30
0.0
 11
121.365038
 21
34.647772
 31
0.0
  0
LINE
  5
540
100
AcDbEntity
  8
2
100
AcDbLine
 10
133.365038
 20
28.274024
 30
0.0
 11
133.365038
 21
34.647772
 31
0.0
  0
ARC
  5
541
100
AcDbEntity
  8
2
100
AcDbCircle
 10
132.365038
 20
59.510143
 30
0.0
 40
1.0
100
AcDbArc
 50
0.0
 51
90.0
  0
LINE
  5
542
100
AcDbEntity
  8
2
100
AcDbLine
 10
121.365038
 20
28.274024
 30
0.0
 11
121.365038
 21
34.647772
 31
0.0
  0
ARC
  5
543
100
AcDbEntity
  8
2
100
AcDbCircle
 10
122.365038
 20
59.510143
 30
0.0
 40
1.0
100
AcDbArc
 50
90.0
 51
180.0
  0
LINE
  5
544
100
AcDbEntity
  8
2
100
AcDbLine
 10
122.365038
 20
42.270569
 30
0.0
 11
132.365038
 21
42.270569
 31
0.0
  0
ARC
  5
545
100
AcDbEntity
  8
2
100
AcDbCircle
 10
132.365038
 20
43.270569
 30
0.0
 40
1.0
100
AcDbArc
 50
270.0
 51
360.0
  0
ARC
  5
546
100
AcDbEntity
  8
2
100
AcDbCircle
 10
122.365038
 20
43.270569
 30
0.0
 40
1.0
100
AcDbArc
 50
180.0
 51
270.0
  0
LINE
  5
547
100
AcDbEntity
  8
2
100
AcDbLine
 10
122.365038
 20
60.510143
 30
0.0
 11
132.365038
 21
60.510143
 31
0.0
  0
LINE
  5
548
100
AcDbEntity
  8
2
100
AcDbLine
 10
133.365038
 20
72.264804
 30
0.0
 11
133.365038
 21
73.782296
 31
0.0
  0
LINE
  5
549
100
AcDbEntity
  8
2
100
AcDbLine
 10
121.365038
 20
73.107237
 30
0.0
 11
121.365038
 21
73.782296
 31
0.0
  0
ARC
  5
54A
100
AcDbEntity
  8
2
100
AcDbCircle
 10
127.365038
 20
140.849186
 30
0.0
 40
80.838818
100
AcDbArc
 50
274.256508
 51
274.611956
  0
ARC
  5
54B
100
AcDbEntity
  8
2
100
AcDbCircle
 10
127.365038
 20
140.849186
 30
0.0
 40
80.838818
100
AcDbArc
 50
265.388044
 51
265.743492
  0
ARC
  5
54C
100
AcDbEntity
  8
2
100
AcDbCircle
 10
132.365038
 20
61.759549
 30
0.0
 40
1.0
100
AcDbArc
 50
0.0
 51
90.0
  0
ARC
  5
54D
100
AcDbEntity
  8
2
100
AcDbCircle
 10
122.365038
 20
61.759549
 30
0.0
 40
1.0
100
AcDbArc
 50
90.0
 51
180.0
  0
LINE
  5
54E
100
AcDbEntity
  8
2
100
AcDbLine
 10
122.365038
 20
62.759549
 30
0.0
 11
132.365038
 21
62.759549
 31
0.0
  0
LINE
  5
54F
100
AcDbEntity
  8
2
100
AcDbLine
 10
133.865038
 20
69.850463
 30
0.0
 11
133.865038
 21
67.006628
 31
0.0
  0
LINE
  5
550
100
AcDbEntity
  8
2
100
AcDbLine
 10
133.365038
 20
72.264804
 30
0.0
 11
133.763432
 21
71.4685
 31
0.0
  0
LINE
  5
551
100
AcDbEntity
  8
2
100
AcDbLine
 10
120.865038
 20
71.367377
 30
0.0
 11
120.865038
 21
68.520444
 31
0.0
  0
LINE
  5
552
100
AcDbEntity
  8
2
100
AcDbLine
 10
120.465038
 20
79.274024
 30
0.0
 11
120.465038
 21
77.158682
 31
0.0
  0
ARC
  5
553
100
AcDbEntity
  8
2
100
AcDbCircle
 10
122.365038
 20
28.274024
 30
0.0
 40
1.0
100
AcDbArc
 50
180.0
 51
270.0
  0
LINE
  5
554
100
AcDbEntity
  8
2
100
AcDbLine
 10
122.365038
 20
27.274024
 30
0.0
 11
132.365038
 21
27.274024
 31
0.0
  0
ARC
  5
555
100
AcDbEntity
  8
2
100
AcDbCircle
 10
132.365038
 20
28.274024
 30
0.0
 40
1.0
100
AcDbArc
 50
270.0
 51
360.0
  0
LINE
  5
556
100
AcDbEntity
  8
2
100
AcDbLine
 10
134.265038
 20
78.695272
 30
0.0
 11
134.265038
 21
75.994484
 31
0.0
  0
LINE
  5
557
100
AcDbEntity
  8
2
100
AcDbLine
 10
120.465038
 20
62.426686
 30
0.0
 11
120.465038
 21
35.547772
 31
0.0
  0
LINE
  5
558
100
AcDbEntity
  8
2
100
AcDbLine
 10
120.865038
 20
62.68643
 30
0.0
 11
120.865038
 21
60.272114
 31
0.0
  0
LINE
  5
559
100
AcDbEntity
  8
2
100
AcDbLine
 10
120.465038
 20
66.599062
 30
0.0
 11
120.465038
 21
64.237577
 31
0.0
  0
LINE
  5
55A
100
AcDbEntity
  8
2
100
AcDbLine
 10
120.865038
 20
66.879184
 30
0.0
 11
120.865038
 21
64.320235
 31
0.0
  0
LINE
  5
55B
100
AcDbEntity
  8
2
100
AcDbLine
 10
120.465038
 20
71.104534
 30
0.0
 11
120.465038
 21
68.42902
 31
0.0
  0
LINE
  5
55C
100
AcDbEntity
  8
2
100
AcDbLine
 10
120.465038
 20
75.327173
 30
0.0
 11
120.465038
 21
72.918279
 31
0.0
  0
ARC
  5
55D
100
AcDbEntity
  8
2
100
AcDbCircle
 10
121.465038
 20
79.274024
 30
0.0
 40
1.0
100
AcDbArc
 50
145.02678
 51
180.0
  0
LINE
  5
55E
100
AcDbEntity
  8
2
100
AcDbLine
 10
133.865038
 20
61.446495
 30
0.0
 11
133.865038
 21
60.272114
 31
0.0
  0
LINE
  5
55F
100
AcDbEntity
  8
2
100
AcDbLine
 10
134.265038
 20
61.446495
 30
0.0
 11
134.265038
 21
35.547772
 31
0.0
  0
LINE
  5
560
100
AcDbEntity
  8
2
100
AcDbLine
 10
133.865038
 20
65.372823
 30
0.0
 11
133.865038
 21
63.042825
 31
0.0
  0
LINE
  5
561
100
AcDbEntity
  8
2
100
AcDbLine
 10
134.265038
 20
65.455482
 30
0.0
 11
134.265038
 21
63.042825
 31
0.0
  0
LINE
  5
562
100
AcDbEntity
  8
2
100
AcDbLine
 10
134.265038
 20
69.941887
 30
0.0
 11
134.265038
 21
67.266372
 31
0.0
  0
LINE
  5
563
100
AcDbEntity
  8
2
100
AcDbLine
 10
134.265038
 20
74.180739
 30
0.0
 11
134.265038
 21
71.771845
 31
0.0
  0
ARC
  5
564
100
AcDbEntity
  8
2
100
AcDbCircle
 10
134.965038
 20
99.499648
 30
0.0
 40
0.8
100
AcDbArc
 50
281.397445
 51
101.397445
  0
LINE
  5
565
100
AcDbEntity
  8
2
100
AcDbLine
 10
107.365038
 20
44.274024
 30
0.0
 11
107.365038
 21
57.774024
 31
0.0
  0
LINE
  5
566
100
AcDbEntity
  8
2
100
AcDbLine
 10
107.365038
 20
44.274024
 30
0.0
 11
107.365038
 21
57.774024
 31
0.0
  0
ARC
  5
567
100
AcDbEntity
  8
2
100
AcDbCircle
 10
134.965038
 20
95.404134
 30
0.0
 40
0.8
100
AcDbArc
 50
280.391878
 51
100.391878
  0
ARC
  5
568
100
AcDbEntity
  8
2
100
AcDbCircle
 10
134.965038
 20
91.585277
 30
0.0
 40
0.8
100
AcDbArc
 50
280.610631
 51
100.610631
  0
ARC
  5
569
100
AcDbEntity
  8
2
100
AcDbCircle
 10
134.965038
 20
87.706393
 30
0.0
 40
0.8
100
AcDbArc
 50
282.068205
 51
102.068205
  0
ARC
  5
56A
100
AcDbEntity
  8
2
100
AcDbCircle
 10
134.965038
 20
83.425255
 30
0.0
 40
0.8
100
AcDbArc
 50
280.132571
 51
100.132571
  0
ARC
  5
56B
100
AcDbEntity
  8
2
100
AcDbCircle
 10
134.965038
 20
79.677445
 30
0.0
 40
0.8
100
AcDbArc
 50
282.970431
 51
102.970431
  0
ARC
  5
56C
100
AcDbEntity
  8
2
100
AcDbCircle
 10
134.965038
 20
75.145148
 30
0.0
 40
0.8
100
AcDbArc
 50
281.857168
 51
101.857168
  0
ARC
  5
56D
100
AcDbEntity
  8
2
100
AcDbCircle
 10
134.965038
 20
66.417036
 30
0.0
 40
0.8
100
AcDbArc
 50
281.675583
 51
101.675583
  0
ARC
  5
56E
100
AcDbEntity
  8
2
100
AcDbCircle
 10
134.965038
 20
62.24466
 30
0.0
 40
0.8
100
AcDbArc
 50
266.118273
 51
93.881727
  0
ARC
  5
56F
100
AcDbEntity
  8
2
100
AcDbCircle
 10
134.965038
 20
70.922509
 30
0.0
 40
0.8
100
AcDbArc
 50
282.874375
 51
102.874375
  0
ARC
  5
570
100
AcDbEntity
  8
2
100
AcDbCircle
 10
119.765038
 20
71.953871
 30
0.0
 40
0.8
100
AcDbArc
 50
101.857168
 51
281.857168
  0
ARC
  5
571
100
AcDbEntity
  8
2
100
AcDbCircle
 10
119.765038
 20
63.276022
 30
0.0
 40
0.8
100
AcDbArc
 50
101.675583
 51
281.675583
  0
ARC
  5
572
100
AcDbEntity
  8
2
100
AcDbCircle
 10
119.765038
 20
67.448398
 30
0.0
 40
0.8
100
AcDbArc
 50
102.874375
 51
282.874375
  0
ARC
  5
573
100
AcDbEntity
  8
2
100
AcDbCircle
 10
119.765038
 20
76.17651
 30
0.0
 40
0.8
100
AcDbArc
 50
102.970431
 51
282.970431
  0
ARC
  5
574
100
AcDbEntity
  8
2
100
AcDbCircle
 10
119.765038
 20
80.708807
 30
0.0
 40
0.8
100
AcDbArc
 50
100.132571
 51
280.132571
  0
ARC
  5
575
100
AcDbEntity
  8
2
100
AcDbCircle
 10
119.765038
 20
84.456617
 30
0.0
 40
0.8
100
AcDbArc
 50
102.068205
 51
282.068205
  0
ARC
  5
576
100
AcDbEntity
  8
2
100
AcDbCircle
 10
119.765038
 20
88.737755
 30
0.0
 40
0.8
100
AcDbArc
 50
100.610631
 51
280.610631
  0
ARC
  5
577
100
AcDbEntity
  8
2
100
AcDbCircle
 10
119.765038
 20
92.616639
 30
0.0
 40
0.8
100
AcDbArc
 50
100.391878
 51
280.391878
  0
ARC
  5
578
100
AcDbEntity
  8
2
100
AcDbCircle
 10
119.765038
 20
96.435496
 30
0.0
 40
0.8
100
AcDbArc
 50
101.397445
 51
281.397445
  0
LINE
  5
579
100
AcDbEntity
  8
2
100
AcDbLine
 10
133.865038
 20
63.121138
 30
0.0
 11
135.019196
 21
63.042825
 31
0.0
  0
LINE
  5
57A
100
AcDbEntity
  8
2
100
AcDbLine
 10
119.603142
 20
64.059469
 30
0.0
 11
134.803142
 21
67.200483
 31
0.0
  0
LINE
  5
57B
100
AcDbEntity
  8
2
100
AcDbLine
 10
135.126934
 20
65.633589
 30
0.0
 11
119.926934
 21
62.492575
 31
0.0
  0
LINE
  5
57C
100
AcDbEntity
  8
2
100
AcDbLine
 10
119.586787
 20
68.228287
 30
0.0
 11
134.786787
 21
71.702398
 31
0.0
  0
LINE
  5
57D
100
AcDbEntity
  8
2
100
AcDbLine
 10
135.14329
 20
70.14262
 30
0.0
 11
119.94329
 21
66.668509
 31
0.0
  0
LINE
  5
57E
100
AcDbEntity
  8
2
100
AcDbLine
 10
119.60066
 20
72.736801
 30
0.0
 11
134.80066
 21
75.928078
 31
0.0
  0
LINE
  5
57F
100
AcDbEntity
  8
2
100
AcDbLine
 10
135.129416
 20
74.362217
 30
0.0
 11
119.929416
 21
71.170941
 31
0.0
  0
LINE
  5
580
100
AcDbEntity
  8
2
100
AcDbLine
 10
119.58548
 20
76.956098
 30
0.0
 11
134.78548
 21
80.457033
 31
0.0
  0
LINE
  5
581
100
AcDbEntity
  8
2
100
AcDbLine
 10
135.144597
 20
78.897856
 30
0.0
 11
119.944597
 21
75.396921
 31
0.0
  0
LINE
  5
582
100
AcDbEntity
  8
2
100
AcDbLine
 10
119.905779
 20
79.921284
 30
0.0
 11
135.105779
 21
82.637732
 31
0.0
  0
LINE
  5
583
100
AcDbEntity
  8
2
100
AcDbLine
 10
134.824297
 20
84.212777
 30
0.0
 11
119.624297
 21
81.496329
 31
0.0
  0
LINE
  5
584
100
AcDbEntity
  8
2
100
AcDbLine
 10
134.797778
 20
88.488712
 30
0.0
 11
119.597778
 21
85.238936
 31
0.0
  0
LINE
  5
585
100
AcDbEntity
  8
2
100
AcDbLine
 10
119.912345
 20
87.951434
 30
0.0
 11
135.112345
 21
90.798956
 31
0.0
  0
LINE
  5
586
100
AcDbEntity
  8
2
100
AcDbLine
 10
134.817731
 20
92.371598
 30
0.0
 11
119.617731
 21
89.524076
 31
0.0
  0
LINE
  5
587
100
AcDbEntity
  8
2
100
AcDbLine
 10
119.909342
 20
91.829761
 30
0.0
 11
135.109342
 21
94.617256
 31
0.0
  0
LINE
  5
588
100
AcDbEntity
  8
2
100
AcDbLine
 10
134.820735
 20
96.191011
 30
0.0
 11
119.620735
 21
93.403516
 31
0.0
  0
LINE
  5
589
100
AcDbEntity
  8
2
100
AcDbLine
 10
119.923129
 20
95.651272
 30
0.0
 11
135.123129
 21
98.715424
 31
0.0
  0
LINE
  5
58A
100
AcDbEntity
  8
2
100
AcDbLine
 10
134.806947
 20
100.283872
 30
0.0
 11
119.606947
 21
97.21972
 31
0.0
  0
LINE
  5
58B
100
AcDbEntity
  8
2
100
AcDbLine
 10
133.865038
 20
67.293514
 30
0.0
 11
135.019196
 21
67.215201
 31
0.0
  0
LINE
  5
58C
100
AcDbEntity
  8
2
100
AcDbLine
 10
120.865038
 20
66.57192
 30
0.0
 11
119.710881
 21
66.650233
 31
0.0
  0
LINE
  5
58D
100
AcDbEntity
  8
2
100
AcDbLine
 10
133.588708
 20
71.817737
 30
0.0
 11
135.019196
 21
71.720674
 31
0.0
  0
LINE
  5
58E
100
AcDbEntity
  8
2
100
AcDbLine
 10
120.865038
 20
71.077393
 30
0.0
 11
119.710881
 21
71.155706
 31
0.0
  0
LINE
  5
58F
100
AcDbEntity
  8
2
100
AcDbLine
 10
125.207385
 20
76.609071
 30
0.0
 11
135.019196
 21
75.943312
 31
0.0
  0
LINE
  5
590
100
AcDbEntity
  8
2
100
AcDbLine
 10
129.136201
 20
74.738811
 30
0.0
 11
119.710881
 21
75.378345
 31
0.0
  0
LINE
  5
591
100
AcDbEntity
  8
2
100
AcDbLine
 10
126.313027
 20
81.066347
 30
0.0
 11
135.019196
 21
80.475609
 31
0.0
  0
LINE
  5
592
100
AcDbEntity
  8
2
100
AcDbLine
 10
129.522691
 20
79.244883
 30
0.0
 11
119.710881
 21
79.910642
 31
0.0
  0
LINE
  5
593
100
AcDbEntity
  8
2
100
AcDbLine
 10
125.516494
 20
84.868204
 30
0.0
 11
135.019196
 21
84.223419
 31
0.0
  0
LINE
  5
594
100
AcDbEntity
  8
2
100
AcDbLine
 10
128.417049
 20
83.067714
 30
0.0
 11
119.710881
 21
83.658452
 31
0.0
  0
LINE
  5
595
100
AcDbEntity
  8
2
100
AcDbLine
 10
126.096627
 20
89.109979
 30
0.0
 11
135.019196
 21
88.504558
 31
0.0
  0
LINE
  5
596
100
AcDbEntity
  8
2
100
AcDbLine
 10
129.213583
 20
87.294806
 30
0.0
 11
119.710881
 21
87.93959
 31
0.0
  0
LINE
  5
597
100
AcDbEntity
  8
2
100
AcDbLine
 10
133.628542
 20
92.477801
 30
0.0
 11
135.019196
 21
92.383442
 31
0.0
  0
LINE
  5
598
100
AcDbEntity
  8
2
100
AcDbLine
 10
128.633449
 20
91.213053
 30
0.0
 11
119.710881
 21
91.818474
 31
0.0
  0
LINE
  5
599
100
AcDbEntity
  8
2
100
AcDbLine
 10
119.710881
 20
95.637331
 30
0.0
 11
120.865038
 21
95.559018
 31
0.0
  0
LINE
  5
59A
100
AcDbEntity
  8
2
100
AcDbLine
 10
135.019196
 20
96.202298
 30
0.0
 11
133.865038
 21
96.280611
 31
0.0
  0
LINE
  5
59B
100
AcDbEntity
  8
2
100
AcDbLine
 10
135.019196
 20
63.042825
 30
0.0
 11
127.365038
 21
63.042825
 31
0.0
  0
LINE
  5
59C
100
AcDbEntity
  8
2
100
AcDbLine
 10
134.910881
 20
61.446495
 30
0.0
 11
133.365038
 21
61.446495
 31
0.0
  0
ARC
  5
59D
100
AcDbEntity
  8
2
100
AcDbCircle
 10
127.365038
 20
62.24466
 30
0.0
 40
0.798165
100
AcDbArc
 50
90.0
 51
139.827467
  0
LINE
  5
59E
100
AcDbEntity
  8
2
100
AcDbLine
 10
119.710881
 20
62.477857
 30
0.0
 11
120.865038
 21
62.399545
 31
0.0
  0
LINE
  5
59F
100
AcDbEntity
  8
2
100
AcDbLine
 10
133.365038
 20
72.264804
 30
0.0
 11
125.139469
 21
72.264804
 31
0.0
  0
ARC
  5
5A0
100
AcDbEntity
  8
2
100
AcDbCircle
 10
153.865038
 20
32.774024
 30
0.0
 40
0.5
100
AcDbArc
 50
270.0
 51
360.0
  0
ARC
  5
5A1
100
AcDbEntity
  8
2
100
AcDbCircle
 10
153.865038
 20
33.774024
 30
0.0
 40
0.5
100
AcDbArc
 50
0.0
 51
90.0
  0
LINE
  5
5A2
100
AcDbEntity
  8
2
100
AcDbLine
 10
154.365038
 20
32.774024
 30
0.0
 11
154.365038
 21
33.774024
 31
0.0
  0
LINE
  5
5A3
100
AcDbEntity
  8
2
100
AcDbLine
 10
187.614019
 20
33.774024
 30
0.0
 11
187.614019
 21
32.774024
 31
0.0
  0
LINE
  5
5A4
100
AcDbEntity
  8
2
100
AcDbLine
 10
184.86521
 20
33.774024
 30
0.0
 11
184.86521
 21
32.774024
 31
0.0
  0
LINE
  5
5A5
100
AcDbEntity
  8
2
100
AcDbLine
 10
155.725582
 20
33.774024
 30
0.0
 11
155.725582
 21
32.774024
 31
0.0
  0
LINE
  5
5A6
100
AcDbEntity
  8
2
100
AcDbLine
 10
148.178738
 20
33.774024
 30
0.0
 11
148.178738
 21
32.774024
 31
0.0
  0
LINE
  5
5A7
100
AcDbEntity
  8
2
100
AcDbLine
 10
143.802833
 20
33.774024
 30
0.0
 11
143.802833
 21
32.774024
 31
0.0
  0
LINE
  5
5A8
100
AcDbEntity
  8
2
100
AcDbLine
 10
135.893661
 20
33.774024
 30
0.0
 11
135.893661
 21
32.774024
 31
0.0
  0
LINE
  5
5A9
100
AcDbEntity
  8
2
100
AcDbLine
 10
120.365038
 20
33.774024
 30
0.0
 11
120.365038
 21
32.774024
 31
0.0
  0
LINE
  5
5AA
100
AcDbEntity
  8
2
100
AcDbLine
 10
179.853218
 20
33.774024
 30
0.0
 11
179.853218
 21
32.774024
 31
0.0
  0
LINE
  5
5AB
100
AcDbEntity
  8
2
100
AcDbLine
 10
176.649833
 20
33.774024
 30
0.0
 11
176.649833
 21
32.774024
 31
0.0
  0
LINE
  5
5AC
100
AcDbEntity
  8
2
100
AcDbLine
 10
170.497589
 20
33.774024
 30
0.0
 11
170.497589
 21
32.774024
 31
0.0
  0
LINE
  5
5AD
100
AcDbEntity
  8
2
100
AcDbLine
 10
166.78661
 20
33.774024
 30
0.0
 11
166.78661
 21
32.774024
 31
0.0
  0
LINE
  5
5AE
100
AcDbEntity
  8
2
100
AcDbLine
 10
159.831401
 20
34.274024
 30
0.0
 11
159.831401
 21
32.274024
 31
0.0
  0
LINE
  5
5AF
100
AcDbEntity
  8
2
100
AcDbLine
 10
159.76832
 20
33.774024
 30
0.0
 11
159.76832
 21
32.774024
 31
0.0
  0
ARC
  5
5B0
100
AcDbEntity
  8
2
100
AcDbCircle
 10
187.114019
 20
33.774024
 30
0.0
 40
0.5
100
AcDbArc
 50
0.0
 51
90.0
  0
ARC
  5
5B1
100
AcDbEntity
  8
2
100
AcDbCircle
 10
187.114019
 20
32.774024
 30
0.0
 40
0.5
100
AcDbArc
 50
270.0
 51
360.0
  0
ARC
  5
5B2
100
AcDbEntity
  8
2
100
AcDbCircle
 10
184.36521
 20
33.774024
 30
0.0
 40
0.5
100
AcDbArc
 50
0.0
 51
90.0
  0
ARC
  5
5B3
100
AcDbEntity
  8
2
100
AcDbCircle
 10
184.36521
 20
32.774024
 30
0.0
 40
0.5
100
AcDbArc
 50
270.0
 51
360.0
  0
ARC
  5
5B4
100
AcDbEntity
  8
2
100
AcDbCircle
 10
179.353218
 20
33.774024
 30
0.0
 40
0.5
100
AcDbArc
 50
0.0
 51
90.0
  0
ARC
  5
5B5
100
AcDbEntity
  8
2
100
AcDbCircle
 10
179.353218
 20
32.774024
 30
0.0
 40
0.5
100
AcDbArc
 50
270.0
 51
360.0
  0
ARC
  5
5B6
100
AcDbEntity
  8
2
100
AcDbCircle
 10
176.149833
 20
33.774024
 30
0.0
 40
0.5
100
AcDbArc
 50
0.0
 51
90.0
  0
ARC
  5
5B7
100
AcDbEntity
  8
2
100
AcDbCircle
 10
176.149833
 20
32.774024
 30
0.0
 40
0.5
100
AcDbArc
 50
270.0
 51
360.0
  0
ARC
  5
5B8
100
AcDbEntity
  8
2
100
AcDbCircle
 10
169.997589
 20
33.774024
 30
0.0
 40
0.5
100
AcDbArc
 50
0.0
 51
90.0
  0
ARC
  5
5B9
100
AcDbEntity
  8
2
100
AcDbCircle
 10
169.997589
 20
32.774024
 30
0.0
 40
0.5
100
AcDbArc
 50
270.0
 51
360.0
  0
ARC
  5
5BA
100
AcDbEntity
  8
2
100
AcDbCircle
 10
166.28661
 20
33.774024
 30
0.0
 40
0.5
100
AcDbArc
 50
0.0
 51
90.0
  0
ARC
  5
5BB
100
AcDbEntity
  8
2
100
AcDbCircle
 10
166.28661
 20
32.774024
 30
0.0
 40
0.5
100
AcDbArc
 50
270.0
 51
360.0
  0
ARC
  5
5BC
100
AcDbEntity
  8
2
100
AcDbCircle
 10
159.26832
 20
33.774024
 30
0.0
 40
0.5
100
AcDbArc
 50
0.0
 51
90.0
  0
ARC
  5
5BD
100
AcDbEntity
  8
2
100
AcDbCircle
 10
159.26832
 20
32.774024
 30
0.0
 40
0.5
100
AcDbArc
 50
270.0
 51
360.0
  0
ARC
  5
5BE
100
AcDbEntity
  8
2
100
AcDbCircle
 10
156.225582
 20
33.774024
 30
0.0
 40
0.5
100
AcDbArc
 50
90.0
 51
180.0
  0
ARC
  5
5BF
100
AcDbEntity
  8
2
100
AcDbCircle
 10
156.225582
 20
32.774024
 30
0.0
 40
0.5
100
AcDbArc
 50
180.0
 51
270.0
  0
ARC
  5
5C0
100
AcDbEntity
  8
2
100
AcDbCircle
 10
147.678738
 20
33.774024
 30
0.0
 40
0.5
100
AcDbArc
 50
0.0
 51
90.0
  0
ARC
  5
5C1
100
AcDbEntity
  8
2
100
AcDbCircle
 10
147.678738
 20
32.774024
 30
0.0
 40
0.5
100
AcDbArc
 50
270.0
 51
360.0
  0
ARC
  5
5C2
100
AcDbEntity
  8
2
100
AcDbCircle
 10
144.302833
 20
33.774024
 30
0.0
 40
0.5
100
AcDbArc
 50
90.0
 51
180.0
  0
ARC
  5
5C3
100
AcDbEntity
  8
2
100
AcDbCircle
 10
144.302833
 20
32.774024
 30
0.0
 40
0.5
100
AcDbArc
 50
180.0
 51
270.0
  0
ARC
  5
5C4
100
AcDbEntity
  8
2
100
AcDbCircle
 10
135.393661
 20
33.774024
 30
0.0
 40
0.5
100
AcDbArc
 50
0.0
 51
90.0
  0
ARC
  5
5C5
100
AcDbEntity
  8
2
100
AcDbCircle
 10
135.393661
 20
32.774024
 30
0.0
 40
0.5
100
AcDbArc
 50
270.0
 51
360.0
  0
ARC
  5
5C6
100
AcDbEntity
  8
2
100
AcDbCircle
 10
119.865038
 20
33.774024
 30
0.0
 40
0.5
100
AcDbArc
 50
0.0
 51
90.0
  0
ARC
  5
5C7
100
AcDbEntity
  8
2
100
AcDbCircle
 10
119.865038
 20
32.774024
 30
0.0
 40
0.5
100
AcDbArc
 50
270.0
 51
360.0
  0
LINE
  5
5C8
100
AcDbEntity
  8
2
100
AcDbLine
 10
100.365038
 20
32.774024
 30
0.0
 11
100.365038
 21
33.774024
 31
0.0
  0
ARC
  5
5C9
100
AcDbEntity
  8
2
100
AcDbCircle
 10
100.865038
 20
33.774024
 30
0.0
 40
0.5
100
AcDbArc
 50
90.0
 51
180.0
  0
LINE
  5
5CA
100
AcDbEntity
  8
2
100
AcDbLine
 10
214.865038
 20
34.274024
 30
0.0
 11
133.365038
 21
34.274024
 31
0.0
  0
ARC
  5
5CB
100
AcDbEntity
  8
2
100
AcDbCircle
 10
100.865038
 20
32.774024
 30
0.0
 40
0.5
100
AcDbArc
 50
180.0
 51
270.0
  0
LINE
  5
5CC
100
AcDbEntity
  8
2
100
AcDbLine
 10
214.865038
 20
32.274024
 30
0.0
 11
133.365038
 21
32.274024
 31
0.0
  0
LINE
  5
5CD
100
AcDbEntity
  8
2
100
AcDbLine
 10
121.365038
 20
32.274024
 30
0.0
 11
64.865038
 21
32.274024
 31
0.0
  0
LINE
  5
5CE
100
AcDbEntity
  8
2
100
AcDbLine
 10
121.365038
 20
34.274024
 30
0.0
 11
64.865038
 21
34.274024
 31
0.0
  0
LINE
  5
5CF
100
AcDbEntity
  8
2
100
AcDbLine
 10
64.865038
 20
34.274024
 30
0.0
 11
64.865038
 21
32.274024
 31
0.0
  0
LINE
  5
5D0
100
AcDbEntity
  8
2
100
AcDbLine
 10
214.865038
 20
34.274024
 30
0.0
 11
214.865038
 21
32.274024
 31
0.0
  0
LINE
  5
5D1
100
AcDbEntity
  8
2
100
AcDbLine
 10
199.753729
 20
34.274024
 30
0.0
 11
199.753729
 21
32.274024
 31
0.0
  0
LINE
  5
5D2
100
AcDbEntity
  8
2
100
AcDbLine
 10
197.888205
 20
34.274024
 30
0.0
 11
197.888205
 21
32.274024
 31
0.0
  0
LINE
  5
5D3
100
AcDbEntity
  8
2
100
AcDbLine
 10
193.914785
 20
34.274024
 30
0.0
 11
193.914785
 21
32.274024
 31
0.0
  0
LINE
  5
5D4
100
AcDbEntity
  8
2
100
AcDbLine
 10
199.351336
 20
34.274024
 30
0.0
 11
199.351336
 21
32.274024
 31
0.0
  0
LINE
  5
5D5
100
AcDbEntity
  8
2
100
AcDbLine
 10
196.761677
 20
34.274024
 30
0.0
 11
196.761677
 21
32.274024
 31
0.0
  0
LINE
  5
5D6
100
AcDbEntity
  8
2
100
AcDbLine
 10
192.063436
 20
34.274024
 30
0.0
 11
192.063436
 21
32.274024
 31
0.0
  0
LINE
  5
5D7
100
AcDbEntity
  8
2
100
AcDbLine
 10
107.365038
 20
51.274024
 30
0.0
 11
107.365038
 21
44.774024
 31
0.0
  0
LINE
  5
5D8
100
AcDbEntity
  8
2
100
AcDbLine
 10
107.365038
 20
44.774024
 30
0.0
 11
101.586726
 21
44.774024
 31
0.0
  0
LINE
  5
5D9
100
AcDbEntity
  8
2
100
AcDbLine
 10
100.865038
 20
48.024024
 30
0.0
 11
100.865038
 21
51.274024
 31
0.0
  0
LINE
  5
5DA
100
AcDbEntity
  8
2
100
AcDbLine
 10
107.365038
 20
51.274024
 30
0.0
 11
101.586726
 21
51.274024
 31
0.0
  0
ARC
  5
5DB
100
AcDbEntity
  8
2
100
AcDbCircle
 10
108.543797
 20
48.024024
 30
0.0
 40
7.678759
100
AcDbArc
 50
154.96034
 51
205.03966
  0
LINE
  5
5DC
100
AcDbEntity
  8
2
100
AcDbLine
 10
107.365038
 20
51.274024
 30
0.0
 11
107.365038
 21
57.774024
 31
0.0
  0
LINE
  5
5DD
100
AcDbEntity
  8
2
100
AcDbLine
 10
107.365038
 20
57.774024
 30
0.0
 11
101.586726
 21
57.774024
 31
0.0
  0
LINE
  5
5DE
100
AcDbEntity
  8
2
100
AcDbLine
 10
100.865038
 20
54.524024
 30
0.0
 11
100.865038
 21
51.274024
 31
0.0
  0
LINE
  5
5DF
100
AcDbEntity
  8
2
100
AcDbLine
 10
107.365038
 20
51.274024
 30
0.0
 11
101.586726
 21
51.274024
 31
0.0
  0
ARC
  5
5E0
100
AcDbEntity
  8
2
100
AcDbCircle
 10
108.543797
 20
54.524024
 30
0.0
 40
7.678759
100
AcDbArc
 50
154.96034
 51
205.03966
  0
LINE
  5
5E1
100
AcDbEntity
  8
2
100
AcDbLine
 10
95.365038
 20
51.274024
 30
0.0
 11
95.365038
 21
54.597524
 31
0.0
  0
LINE
  5
5E2
100
AcDbEntity
  8
2
100
AcDbLine
 10
95.365038
 20
54.597524
 30
0.0
 11
96.041538
 21
55.274024
 31
0.0
  0
LINE
  5
5E3
100
AcDbEntity
  8
2
100
AcDbLine
 10
96.041538
 20
55.274024
 30
0.0
 11
100.901753
 21
55.274024
 31
0.0
  0
LINE
  5
5E4
100
AcDbEntity
  8
2
100
AcDbLine
 10
96.041538
 20
55.274024
 30
0.0
 11
96.041538
 21
51.274024
 31
0.0
  0
LINE
  5
5E5
100
AcDbEntity
  8
2
 62
     2
100
AcDbLine
 10
95.365038
 20
54.597524
 30
0.0
 11
100.86539
 21
54.597524
 31
0.0
  0
LINE
  5
5E6
100
AcDbEntity
  8
2
100
AcDbLine
 10
95.365038
 20
51.274024
 30
0.0
 11
95.365038
 21
47.950524
 31
0.0
  0
LINE
  5
5E7
100
AcDbEntity
  8
2
100
AcDbLine
 10
95.365038
 20
47.950524
 30
0.0
 11
96.041538
 21
47.274024
 31
0.0
  0
LINE
  5
5E8
100
AcDbEntity
  8
2
100
AcDbLine
 10
96.041538
 20
47.274024
 30
0.0
 11
100.901753
 21
47.274024
 31
0.0
  0
LINE
  5
5E9
100
AcDbEntity
  8
2
100
AcDbLine
 10
96.041538
 20
47.274024
 30
0.0
 11
96.041538
 21
51.274024
 31
0.0
  0
LINE
  5
5EA
100
AcDbEntity
  8
2
 62
     2
100
AcDbLine
 10
95.365038
 20
47.950524
 30
0.0
 11
100.86539
 21
47.950524
 31
0.0
  0
LINE
  5
5EB
100
AcDbEntity
  8
3
100
AcDbLine
 10
-301.782075
 20
32.274024
 30
0.0
 11
-403.782075
 21
32.274024
 31
0.0
  0
LINE
  5
5EC
100
AcDbEntity
  8
3
100
AcDbLine
 10
-403.782075
 20
7.274025
 30
0.0
 11
-403.782075
 21
32.274024
 31
0.0
  0
LINE
  5
5ED
100
AcDbEntity
  8
3
100
AcDbLine
 10
-301.782075
 20
7.274025
 30
0.0
 11
-301.782075
 21
32.274024
 31
0.0
  0
LINE
  5
5EE
100
AcDbEntity
  8
3
100
AcDbLine
 10
-377.782074
 20
7.274025
 30
0.0
 11
-377.782074
 21
22.274025
 31
0.0
  0
LINE
  5
5EF
100
AcDbEntity
  8
3
100
AcDbLine
 10
-327.782076
 20
7.274025
 30
0.0
 11
-327.782076
 21
22.274025
 31
0.0
  0
LINE
  5
5F0
100
AcDbEntity
  8
3
100
AcDbLine
 10
-314.226519
 20
24.274026
 30
0.0
 11
-391.337631
 21
24.274026
 31
0.0
  0
ARC
  5
5F1
100
AcDbEntity
  8
3
100
AcDbCircle
 10
-329.782074
 20
22.274025
 30
0.0
 40
2.000001
100
AcDbArc
 50
0.0
 51
90.0
  0
ARC
  5
5F2
100
AcDbEntity
  8
3
100
AcDbCircle
 10
-375.782076
 20
22.274025
 30
0.0
 40
2.000001
100
AcDbArc
 50
90.0
 51
180.0
  0
ARC
  5
5F3
100
AcDbEntity
  8
3
100
AcDbCircle
 10
-314.226519
 20
22.274025
 30
0.0
 40
2.000001
100
AcDbArc
 50
0.0
 51
90.0
  0
ARC
  5
5F4
100
AcDbEntity
  8
3
100
AcDbCircle
 10
-391.337631
 20
22.274025
 30
0.0
 40
2.000001
100
AcDbArc
 50
90.0
 51
180.0
  0
LINE
  5
5F5
100
AcDbEntity
  8
3
100
AcDbLine
 10
-337.782075
 20
32.274024
 30
0.0
 11
-337.782075
 21
24.274026
 31
0.0
  0
LINE
  5
5F6
100
AcDbEntity
  8
3
100
AcDbLine
 10
-367.782075
 20
32.274024
 30
0.0
 11
-367.782075
 21
24.274026
 31
0.0
  0
LINE
  5
5F7
100
AcDbEntity
  8
3
100
AcDbLine
 10
76.427484
 20
32.274024
 30
0.0
 11
76.427484
 21
24.274026
 31
0.0
  0
LINE
  5
5F8
100
AcDbEntity
  8
3
100
AcDbLine
 10
178.427484
 20
32.274024
 30
0.0
 11
178.427484
 21
24.274026
 31
0.0
  0
LINE
  5
5F9
100
AcDbEntity
  8
3
100
AcDbLine
 10
112.427484
 20
15.274026
 30
0.0
 11
112.427484
 21
7.274025
 31
0.0
  0
LINE
  5
5FA
100
AcDbEntity
  8
3
100
AcDbLine
 10
142.427484
 20
15.274026
 30
0.0
 11
142.427484
 21
7.274025
 31
0.0
  0
ARC
  5
5FB
100
AcDbEntity
  8
3
100
AcDbCircle
 10
140.427483
 20
15.274026
 30
0.0
 40
2.000001
100
AcDbArc
 50
0.0
 51
90.0
  0
ARC
  5
5FC
100
AcDbEntity
  8
3
100
AcDbCircle
 10
114.427485
 20
15.274026
 30
0.0
 40
2.000001
100
AcDbArc
 50
90.0
 51
180.0
  0
ARC
  5
5FD
100
AcDbEntity
  8
3
100
AcDbCircle
 10
150.427485
 20
15.274026
 30
0.0
 40
2.000001
100
AcDbArc
 50
0.0
 51
90.0
  0
ARC
  5
5FE
100
AcDbEntity
  8
3
100
AcDbCircle
 10
104.427483
 20
15.274026
 30
0.0
 40
2.000001
100
AcDbArc
 50
90.0
 51
180.0
  0
LINE
  5
5FF
100
AcDbEntity
  8
3
100
AcDbLine
 10
78.70251
 20
22.274025
 30
0.0
 11
78.70251
 21
7.274025
 31
0.0
  0
LINE
  5
600
100
AcDbEntity
  8
3
100
AcDbLine
 10
176.152455
 20
22.274025
 30
0.0
 11
176.152455
 21
7.274025
 31
0.0
  0
LINE
  5
601
100
AcDbEntity
  8
3
100
AcDbLine
 10
183.427485
 20
32.274024
 30
0.0
 11
183.427485
 21
24.274026
 31
0.0
  0
LINE
  5
602
100
AcDbEntity
  8
3
100
AcDbLine
 10
71.427483
 20
32.274024
 30
0.0
 11
71.427483
 21
24.274026
 31
0.0
  0
ARC
  5
603
100
AcDbEntity
  8
3
100
AcDbCircle
 10
178.152456
 20
22.274025
 30
0.0
 40
2.000001
100
AcDbArc
 50
90.0
 51
180.0
  0
ARC
  5
604
100
AcDbEntity
  8
3
100
AcDbCircle
 10
76.702512
 20
22.274025
 30
0.0
 40
2.000001
100
AcDbArc
 50
0.0
 51
90.0
  0
LINE
  5
605
100
AcDbEntity
  8
3
100
AcDbLine
 10
71.427483
 20
24.274026
 30
0.0
 11
78.387717
 21
24.274026
 31
0.0
  0
LINE
  5
606
100
AcDbEntity
  8
3
100
AcDbLine
 10
176.467251
 20
24.274026
 30
0.0
 11
183.427485
 21
24.274026
 31
0.0
  0
ARC
  5
607
100
AcDbEntity
  8
3
100
AcDbCircle
 10
78.387717
 20
22.274025
 30
0.0
 40
2.000001
100
AcDbArc
 50
0.0
 51
90.0
  0
ARC
  5
608
100
AcDbEntity
  8
3
100
AcDbCircle
 10
176.467251
 20
22.274025
 30
0.0
 40
2.000001
100
AcDbArc
 50
90.0
 51
180.0
  0
LINE
  5
609
100
AcDbEntity
  8
3
100
AcDbLine
 10
150.427485
 20
17.274024
 30
0.0
 11
104.427483
 21
17.274024
 31
0.0
  0
LINE
  5
60A
100
AcDbEntity
  8
3
100
AcDbLine
 10
71.427483
 20
32.274024
 30
0.0
 11
112.186485
 21
32.274024
 31
0.0
  0
LINE
  5
60B
100
AcDbEntity
  8
3
100
AcDbLine
 10
142.668483
 20
32.274024
 30
0.0
 11
183.427485
 21
32.274024
 31
0.0
  0
DIMENSION
  5
60C
100
AcDbEntity
  8
5
100
AcDbDimension
  2
*D0
 10
-497.548782
 20
347.384895
 30
0.0
 11
-512.908782
 21
299.674896
 31
0.0
  1
87.5
100
AcDbAlignedDimension
 13
-468.849273
 23
259.884894
 33
0.0
 14
-369.782076
 24
347.384895
 34
0.0
 50
90.0
100
AcDbRotatedDimension
  0
DIMENSION
  5
60D
100
AcDbEntity
  8
5
100
AcDbDimension
  2
*D1
 10
-497.548782
 20
259.884894
 30
0.0
 11
-512.908782
 21
224.674896
 31
0.0
  1
62.5
100
AcDbAlignedDimension
 13
-352.782075
 23
197.384895
 33
0.0
 14
-468.849273
 24
259.884894
 34
0.0
 50
90.0
100
AcDbRotatedDimension
  0
DIMENSION
  5
60E
100
AcDbEntity
  8
5
100
AcDbDimension
  2
*D2
 10
127.427484
 20
-350.853492
 30
0.0
 11
84.497484
 21
-344.403492
 31
0.0
  1
24
100
AcDbAlignedDimension
 13
103.427484
 23
-269.225976
 33
0.0
 14
127.427484
 24
-335.099673
 34
0.0
100
AcDbRotatedDimension
  0
DIMENSION
  5
60F
100
AcDbEntity
  8
5
100
AcDbDimension
  2
*D3
 10
159.427485
 20
-379.092933
 30
0.0
 11
131.427485
 21
-372.642933
 31
0.0
  1
56
100
AcDbAlignedDimension
 13
103.427484
 23
-269.225976
 33
0.0
 14
159.427485
 24
-269.225976
 34
0.0
100
AcDbRotatedDimension
  0
DIMENSION
  5
610
100
AcDbEntity
  8
5
100
AcDbDimension
  2
*D4
 10
38.034387
 20
7.274025
 30
0.0
 11
26.139387
 21
-85.720976
 31
0.0
  1
185
100
AcDbAlignedDimension
 13
79.098261
 23
-177.725976
 33
0.0
 14
76.427484
 24
7.274025
 34
0.0
 50
90.0
100
AcDbRotatedDimension
  0
DIMENSION
  5
611
100
AcDbEntity
  8
5
100
AcDbDimension
  2
*D5
 10
38.034387
 20
-177.725976
 30
0.0
 11
26.139387
 21
-247.220976
 31
0.0
  1
138
100
AcDbAlignedDimension
 13
107.427483
 23
-315.725976
 33
0.0
 14
79.098261
 24
-177.725976
 34
0.0
 50
90.0
100
AcDbRotatedDimension
  0
DIMENSION
  5
612
100
AcDbEntity
  8
5
100
AcDbDimension
  2
*D6
 10
38.034387
 20
32.274024
 30
0.0
 11
29.604387
 21
22.744024
 31
0.0
  1
25
100
AcDbAlignedDimension
 13
76.427484
 23
7.274025
 33
0.0
 14
64.865038
 24
32.274024
 34
0.0
 50
90.0
100
AcDbRotatedDimension
  0
TEXT
  5
613
100
AcDbEntity
  8
5
100
AcDbText
 10
36.534387
 20
71.501211
 30
0.0
 40
9.9
  1
92
 50
90.0
 41
1.4
 72
     5
 11
36.534387
 21
82.589211
 31
0.0
100
AcDbText
  0
DIMENSION
  5
614
100
AcDbEntity
  8
5
100
AcDbDimension
  2
*D7
 10
38.034387
 20
124.588398
 30
0.0
 11
35.534387
 21
78.431211
 31
0.0
100
AcDbAlignedDimension
 13
64.865038
 23
32.274024
 33
0.0
 14
127.427484
 24
124.588398
 34
0.0
 50
90.0
100
AcDbRotatedDimension
  0
TEXT
  5
615
100
AcDbEntity
  8
5
100
AcDbText
 10
-213.276591
 20
142.859528
 30
0.0
 40
9.9
  1
300
 41
1.4
 72
     5
 11
-195.258591
 21
142.859528
 31
0.0
100
AcDbText
  0
DIMENSION
  5
616
100
AcDbEntity
  8
5
100
AcDbDimension
  2
*D8
 10
-52.981106
 20
141.359528
 30
0.0
 11
-202.881591
 21
143.359528
 31
0.0
100
AcDbAlignedDimension
 13
-352.782075
 23
83.744856
 33
0.0
 14
-52.981106
 24
114.210397
 34
0.0
100
AcDbRotatedDimension
  0
LINE
  5
617
100
AcDbEntity
  8
18
100
AcDbLine
 10
208.105896
 20
-177.725976
 30
0.0
 11
298.105896
 21
-177.725976
 31
0.0
  0
LINE
  5
618
100
AcDbEntity
  8
18
100
AcDbLine
 10
208.105896
 20
-177.725976
 30
0.0
 11
238.105896
 21
-169.6875
 31
0.0
  0
LINE
  5
619
100
AcDbEntity
  8
18
100
AcDbLine
 10
238.105896
 20
-169.6875
 30
0.0
 11
238.105896
 21
-185.764452
 31
0.0
  0
LINE
  5
61A
100
AcDbEntity
  8
18
100
AcDbLine
 10
208.105896
 20
-177.725976
 30
0.0
 11
238.105896
 21
-185.764452
 31
0.0
  0
LINE
  5
61B
100
AcDbEntity
  8
18
100
AcDbLine
 10
206.021004
 20
345.277794
 30
0.0
 11
206.021004
 21
240.277794
 31
0.0
  0
LINE
  5
61C
100
AcDbEntity
  8
18
100
AcDbLine
 10
542.021004
 20
270.277794
 30
0.0
 11
206.021004
 21
270.277794
 31
0.0
  0
LINE
  5
61D
100
AcDbEntity
  8
18
100
AcDbLine
 10
542.021004
 20
255.277794
 30
0.0
 11
206.021004
 21
255.277794
 31
0.0
  0
LINE
  5
61E
100
AcDbEntity
  8
18
100
AcDbLine
 10
542.021004
 20
240.277794
 30
0.0
 11
206.021004
 21
240.277794
 31
0.0
  0
LINE
  5
61F
100
AcDbEntity
  8
18
100
AcDbLine
 10
290.021004
 20
345.277794
 30
0.0
 11
290.021004
 21
255.277794
 31
0.0
  0
LINE
  5
620
100
AcDbEntity
  8
18
100
AcDbLine
 10
374.021004
 20
345.277794
 30
0.0
 11
374.021004
 21
255.277794
 31
0.0
  0
LINE
  5
621
100
AcDbEntity
  8
18
100
AcDbLine
 10
458.021004
 20
345.277794
 30
0.0
 11
458.021004
 21
255.277794
 31
0.0
  0
LINE
  5
622
100
AcDbEntity
  8
18
100
AcDbLine
 10
542.021004
 20
345.277794
 30
0.0
 11
542.021004
 21
240.277794
 31
0.0
  0
LINE
  5
623
100
AcDbEntity
  8
18
100
AcDbLine
 10
206.021004
 20
345.277794
 30
0.0
 11
542.021004
 21
345.277794
 31
0.0
  0
LINE
  5
624
100
AcDbEntity
  8
18
100
AcDbLine
 10
231.559119
 20
302.543688
 30
0.0
 11
231.559119
 21
295.276188
 31
0.0
  0
LINE
  5
625
100
AcDbEntity
  8
18
100
AcDbLine
 10
231.559119
 20
302.543688
 30
0.0
 11
238.433502
 21
302.543688
 31
0.0
  0
LINE
  5
626
100
AcDbEntity
  8
18
100
AcDbLine
 10
253.754736
 20
302.543688
 30
0.0
 11
260.629119
 21
302.543688
 31
0.0
  0
LINE
  5
627
100
AcDbEntity
  8
18
100
AcDbLine
 10
231.559119
 20
295.276188
 30
0.0
 11
238.433502
 21
295.276188
 31
0.0
  0
LINE
  5
628
100
AcDbEntity
  8
18
100
AcDbLine
 10
253.754736
 20
295.276188
 30
0.0
 11
260.629119
 21
295.276188
 31
0.0
  0
LINE
  5
629
100
AcDbEntity
  8
18
100
AcDbLine
 10
243.553092
 20
300.121188
 30
0.0
 11
275.756841
 21
300.121188
 31
0.0
  0
LINE
  5
62A
100
AcDbEntity
  8
18
100
AcDbLine
 10
243.553092
 20
297.698688
 30
0.0
 11
275.756841
 21
297.698688
 31
0.0
  0
LINE
  5
62B
100
AcDbEntity
  8
18
100
AcDbLine
 10
239.942532
 20
299.384661
 30
0.0
 11
243.553092
 21
300.121188
 31
0.0
  0
LINE
  5
62C
100
AcDbEntity
  8
18
100
AcDbLine
 10
239.942532
 20
298.435215
 30
0.0
 11
243.553092
 21
297.698688
 31
0.0
  0
ARC
  5
62D
100
AcDbEntity
  8
18
100
AcDbCircle
 10
240.039372
 20
298.909938
 30
0.0
 40
0.4845
100
AcDbArc
 50
101.529708
 51
258.470292
  0
LINE
  5
62E
100
AcDbEntity
  8
18
100
AcDbLine
 10
260.629119
 20
295.276188
 30
0.0
 11
260.629119
 21
297.698688
 31
0.0
  0
LINE
  5
62F
100
AcDbEntity
  8
18
100
AcDbLine
 10
260.629119
 20
300.121188
 30
0.0
 11
260.629119
 21
302.543688
 31
0.0
  0
ARC
  5
630
100
AcDbEntity
  8
18
100
AcDbCircle
 10
246.094119
 20
298.909938
 30
0.0
 40
8.47875
100
AcDbArc
 50
8.213211
 51
351.786789
  0
LINE
  5
631
100
AcDbEntity
  8
18
100
AcDbLine
 10
275.756841
 20
300.121188
 30
0.0
 11
275.756841
 21
297.698688
 31
0.0
  0
LINE
  5
632
100
AcDbEntity
  8
18
  6
CENTER
 62
     2
100
AcDbLine
 10
474.288867
 20
298.541109
 30
0.0
 11
523.241319
 21
298.541109
 31
0.0
  0
LINE
  5
633
100
AcDbEntity
  8
18
100
AcDbLine
 10
519.350541
 20
294.907359
 30
0.0
 11
519.350541
 21
302.174859
 31
0.0
  0
LINE
  5
634
100
AcDbEntity
  8
18
100
AcDbLine
 10
519.350541
 20
294.907359
 30
0.0
 11
512.476158
 21
294.907359
 31
0.0
  0
LINE
  5
635
100
AcDbEntity
  8
18
100
AcDbLine
 10
497.154924
 20
294.907359
 30
0.0
 11
490.280541
 21
294.907359
 31
0.0
  0
LINE
  5
636
100
AcDbEntity
  8
18
100
AcDbLine
 10
519.350541
 20
302.174859
 30
0.0
 11
512.476158
 21
302.174859
 31
0.0
  0
LINE
  5
637
100
AcDbEntity
  8
18
100
AcDbLine
 10
497.154924
 20
302.174859
 30
0.0
 11
490.280541
 21
302.174859
 31
0.0
  0
LINE
  5
638
100
AcDbEntity
  8
18
100
AcDbLine
 10
503.604291
 20
296.000082
 30
0.0
 11
503.604291
 21
328.203831
 31
0.0
  0
LINE
  5
639
100
AcDbEntity
  8
18
100
AcDbLine
 10
506.026791
 20
296.000082
 30
0.0
 11
506.026791
 21
328.203831
 31
0.0
  0
LINE
  5
63A
100
AcDbEntity
  8
18
100
AcDbLine
 10
504.340818
 20
292.389522
 30
0.0
 11
503.604291
 21
296.000082
 31
0.0
  0
LINE
  5
63B
100
AcDbEntity
  8
18
100
AcDbLine
 10
505.290264
 20
292.389522
 30
0.0
 11
506.026791
 21
296.000082
 31
0.0
  0
ARC
  5
63C
100
AcDbEntity
  8
18
100
AcDbCircle
 10
504.815541
 20
292.486362
 30
0.0
 40
0.4845
100
AcDbArc
 50
191.529708
 51
348.470292
  0
LINE
  5
63D
100
AcDbEntity
  8
18
100
AcDbLine
 10
490.280541
 20
302.174859
 30
0.0
 11
490.280541
 21
299.752359
 31
0.0
  0
LINE
  5
63E
100
AcDbEntity
  8
18
100
AcDbLine
 10
490.280541
 20
299.752359
 30
0.0
 11
490.280541
 21
294.907359
 31
0.0
  0
LINE
  5
63F
100
AcDbEntity
  8
18
100
AcDbLine
 10
503.604291
 20
328.203831
 30
0.0
 11
506.026791
 21
328.203831
 31
0.0
  0
ARC
  5
640
100
AcDbEntity
  8
18
100
AcDbCircle
 10
504.815541
 20
298.541109
 30
0.0
 40
8.47875
100
AcDbArc
 50
98.213211
 51
81.786789
  0
LINE
  5
641
100
AcDbEntity
  8
18
100
AcDbLine
 10
434.313063
 20
313.180293
 30
0.0
 11
434.313063
 21
320.447793
 31
0.0
  0
LINE
  5
642
100
AcDbEntity
  8
18
100
AcDbLine
 10
434.313063
 20
313.180293
 30
0.0
 11
427.438683
 21
313.180293
 31
0.0
  0
LINE
  5
643
100
AcDbEntity
  8
18
100
AcDbLine
 10
412.117446
 20
313.180293
 30
0.0
 11
405.243063
 21
313.180293
 31
0.0
  0
LINE
  5
644
100
AcDbEntity
  8
18
100
AcDbLine
 10
434.313063
 20
320.447793
 30
0.0
 11
427.438683
 21
320.447793
 31
0.0
  0
LINE
  5
645
100
AcDbEntity
  8
18
100
AcDbLine
 10
412.117446
 20
320.447793
 30
0.0
 11
405.243063
 21
320.447793
 31
0.0
  0
LINE
  5
646
100
AcDbEntity
  8
18
100
AcDbLine
 10
422.31909
 20
315.602793
 30
0.0
 11
390.115341
 21
315.602793
 31
0.0
  0
LINE
  5
647
100
AcDbEntity
  8
18
100
AcDbLine
 10
422.31909
 20
318.025293
 30
0.0
 11
390.115341
 21
318.025293
 31
0.0
  0
LINE
  5
648
100
AcDbEntity
  8
18
100
AcDbLine
 10
425.92965
 20
316.33932
 30
0.0
 11
422.31909
 21
315.602793
 31
0.0
  0
LINE
  5
649
100
AcDbEntity
  8
18
100
AcDbLine
 10
425.92965
 20
317.288766
 30
0.0
 11
422.31909
 21
318.025293
 31
0.0
  0
ARC
  5
64A
100
AcDbEntity
  8
18
100
AcDbCircle
 10
425.83281
 20
316.814043
 30
0.0
 40
0.4845
100
AcDbArc
 50
281.529708
 51
78.470292
  0
LINE
  5
64B
100
AcDbEntity
  8
18
100
AcDbLine
 10
405.243063
 20
320.447793
 30
0.0
 11
405.243063
 21
318.025293
 31
0.0
  0
LINE
  5
64C
100
AcDbEntity
  8
18
100
AcDbLine
 10
405.243063
 20
315.602793
 30
0.0
 11
405.243063
 21
313.180293
 31
0.0
  0
ARC
  5
64D
100
AcDbEntity
  8
18
100
AcDbCircle
 10
419.778063
 20
316.814043
 30
0.0
 40
8.47875
100
AcDbArc
 50
188.213211
 51
171.786789
  0
LINE
  5
64E
100
AcDbEntity
  8
18
100
AcDbLine
 10
390.115341
 20
315.602793
 30
0.0
 11
390.115341
 21
318.025293
 31
0.0
  0
LINE
  5
64F
100
AcDbEntity
  8
18
  6
CENTER
 62
     2
100
AcDbLine
 10
358.614267
 20
313.430103
 30
0.0
 11
308.529738
 21
313.430103
 31
0.0
  0
LINE
  5
650
100
AcDbEntity
  8
18
100
AcDbLine
 10
313.552593
 20
317.063853
 30
0.0
 11
313.552593
 21
309.796353
 31
0.0
  0
LINE
  5
651
100
AcDbEntity
  8
18
100
AcDbLine
 10
313.552593
 20
317.063853
 30
0.0
 11
320.426973
 21
317.063853
 31
0.0
  0
LINE
  5
652
100
AcDbEntity
  8
18
100
AcDbLine
 10
335.74821
 20
317.063853
 30
0.0
 11
342.622593
 21
317.063853
 31
0.0
  0
LINE
  5
653
100
AcDbEntity
  8
18
100
AcDbLine
 10
313.552593
 20
309.796353
 30
0.0
 11
320.426973
 21
309.796353
 31
0.0
  0
LINE
  5
654
100
AcDbEntity
  8
18
100
AcDbLine
 10
335.74821
 20
309.796353
 30
0.0
 11
342.622593
 21
309.796353
 31
0.0
  0
LINE
  5
655
100
AcDbEntity
  8
18
100
AcDbLine
 10
329.298843
 20
315.97113
 30
0.0
 11
329.298843
 21
283.767381
 31
0.0
  0
LINE
  5
656
100
AcDbEntity
  8
18
100
AcDbLine
 10
326.876343
 20
315.97113
 30
0.0
 11
326.876343
 21
283.767381
 31
0.0
  0
LINE
  5
657
100
AcDbEntity
  8
18
100
AcDbLine
 10
328.562316
 20
319.58169
 30
0.0
 11
329.298843
 21
315.97113
 31
0.0
  0
LINE
  5
658
100
AcDbEntity
  8
18
100
AcDbLine
 10
327.612867
 20
319.58169
 30
0.0
 11
326.876343
 21
315.97113
 31
0.0
  0
ARC
  5
659
100
AcDbEntity
  8
18
100
AcDbCircle
 10
328.087593
 20
319.48485
 30
0.0
 40
0.4845
100
AcDbArc
 50
11.529708
 51
168.470292
  0
LINE
  5
65A
100
AcDbEntity
  8
18
100
AcDbLine
 10
342.622593
 20
309.796353
 30
0.0
 11
342.622593
 21
312.218853
 31
0.0
  0
LINE
  5
65B
100
AcDbEntity
  8
18
100
AcDbLine
 10
342.622593
 20
312.218853
 30
0.0
 11
342.622593
 21
317.063853
 31
0.0
  0
LINE
  5
65C
100
AcDbEntity
  8
18
100
AcDbLine
 10
329.298843
 20
283.767381
 30
0.0
 11
326.876343
 21
283.767381
 31
0.0
  0
ARC
  5
65D
100
AcDbEntity
  8
18
100
AcDbCircle
 10
328.087593
 20
313.430103
 30
0.0
 40
8.47875
100
AcDbArc
 50
278.213211
 51
261.786789
  0
ARC
  5
65E
100
AcDbEntity
  8
18
 62
     2
100
AcDbCircle
 10
246.094119
 20
298.909938
 30
0.0
 40
27.0
100
AcDbArc
 50
2.571215
 51
48.757144
  0
LINE
  5
65F
100
AcDbEntity
  8
18
 62
     2
100
AcDbLine
 10
273.048357
 20
300.08409
 30
0.0
 11
273.048357
 21
301.180116
 31
0.0
  0
LINE
  5
660
100
AcDbEntity
  8
18
 62
     2
100
AcDbLine
 10
273.048357
 20
305.879646
 30
0.0
 11
271.495443
 21
305.879646
 31
0.0
  0
LINE
  5
661
100
AcDbEntity
  8
18
 62
     2
100
AcDbLine
 10
271.495443
 20
305.879646
 30
0.0
 11
273.048357
 21
300.08409
 31
0.0
  0
LINE
  5
662
100
AcDbEntity
  8
18
 62
     2
100
AcDbLine
 10
273.048357
 20
300.08409
 30
0.0
 11
274.601271
 21
305.879646
 31
0.0
  0
LINE
  5
663
100
AcDbEntity
  8
18
 62
     2
100
AcDbLine
 10
274.601271
 20
305.879646
 30
0.0
 11
273.048357
 21
305.879646
 31
0.0
  0
LINE
  5
664
100
AcDbEntity
  8
18
 62
     2
100
AcDbLine
 10
263.896425
 20
319.314561
 30
0.0
 11
264.554094
 21
318.656913
 31
0.0
  0
LINE
  5
665
100
AcDbEntity
  8
18
 62
     2
100
AcDbLine
 10
267.994572
 20
315.216555
 30
0.0
 11
269.092629
 21
316.314651
 31
0.0
  0
LINE
  5
666
100
AcDbEntity
  8
18
 62
     2
100
AcDbLine
 10
269.092629
 20
316.314651
 30
0.0
 11
263.896425
 21
319.314561
 31
0.0
  0
LINE
  5
667
100
AcDbEntity
  8
18
 62
     2
100
AcDbLine
 10
263.896425
 20
319.314561
 30
0.0
 11
266.896515
 21
314.118459
 31
0.0
  0
LINE
  5
668
100
AcDbEntity
  8
18
 62
     2
100
AcDbLine
 10
266.896515
 20
314.118459
 30
0.0
 11
267.994572
 21
315.216555
 31
0.0
  0
LINE
  5
669
100
AcDbEntity
  8
18
  6
CENTER
 62
     2
100
AcDbLine
 10
246.094119
 20
311.971137
 30
0.0
 11
246.094119
 21
286.662552
 31
0.0
  0
LINE
  5
66A
100
AcDbEntity
  8
18
 62
     2
100
AcDbLine
 10
246.191592
 20
314.144601
 30
0.0
 11
246.191592
 21
330.157746
 31
0.0
  0
LINE
  5
66B
100
AcDbEntity
  8
18
 62
     2
100
AcDbLine
 10
246.191592
 20
319.940154
 30
0.0
 11
244.638678
 21
319.940154
 31
0.0
  0
LINE
  5
66C
100
AcDbEntity
  8
18
 62
     2
100
AcDbLine
 10
244.638678
 20
319.940154
 30
0.0
 11
246.191592
 21
314.144601
 31
0.0
  0
LINE
  5
66D
100
AcDbEntity
  8
18
 62
     2
100
AcDbLine
 10
246.191592
 20
314.144601
 30
0.0
 11
247.744506
 21
319.940154
 31
0.0
  0
LINE
  5
66E
100
AcDbEntity
  8
18
 62
     2
100
AcDbLine
 10
247.744506
 20
319.940154
 30
0.0
 11
246.191592
 21
319.940154
 31
0.0
  0
LINE
  5
66F
100
AcDbEntity
  8
18
  6
CENTER
 62
     2
100
AcDbLine
 10
419.778063
 20
329.875242
 30
0.0
 11
419.778063
 21
286.287366
 31
0.0
  0
TEXT
  5
670
100
AcDbEntity
  8
18
100
AcDbText
 10
366.897378
 20
-399.815736
 30
0.0
 40
9.0
  1
１
 72
     5
 11
374.097378
 21
-399.815736
 31
0.0
100
AcDbText
  0
TEXT
  5
671
100
AcDbEntity
  8
18
100
AcDbText
 10
366.562722
 20
-381.105789
 30
0.0
 40
9.0
  1
標準仕様
 72
     5
 11
400.762722
 21
-381.105789
 31
0.0
100
AcDbText
  0
TEXT
  5
672
100
AcDbEntity
  8
18
100
AcDbText
 10
246.135348
 20
-172.483035
 30
0.0
 40
15.0
  1
高圧側
 72
     5
 11
288.135348
 21
-172.483035
 31
0.0
100
AcDbText
  0
TEXT
  5
673
100
AcDbEntity
  8
18
100
AcDbText
 10
242.413215
 20
258.811431
 30
0.0
 40
9.0
  1
Ａ
 72
     5
 11
249.613215
 21
258.811431
 31
0.0
100
AcDbText
  0
TEXT
  5
674
100
AcDbEntity
  8
18
100
AcDbText
 10
326.377374
 20
258.570969
 30
0.0
 40
9.0
  1
Ｂ
 72
     5
 11
333.577374
 21
258.570969
 31
0.0
100
AcDbText
  0
TEXT
  5
675
100
AcDbEntity
  8
18
100
AcDbText
 10
410.413215
 20
258.811431
 30
0.0
 40
9.0
  1
Ｃ
 72
     5
 11
417.613215
 21
258.811431
 31
0.0
100
AcDbText
  0
TEXT
  5
676
100
AcDbEntity
  8
18
100
AcDbText
 10
325.896468
 20
243.490707
 30
0.0
 40
9.0
  1
アクチュエ－タ取付方向
 72
     5
 11
423.096468
 21
243.490707
 31
0.0
100
AcDbText
  0
TEXT
  5
677
100
AcDbEntity
  8
18
100
AcDbText
 10
221.548188
 20
273.414642
 30
0.0
 40
7.5
  1
弁棒側　低圧側
 72
     5
 11
272.548188
 21
273.414642
 31
0.0
100
AcDbText
  0
TEXT
  5
678
100
AcDbEntity
  8
18
100
AcDbText
 10
214.359168
 20
333.131721
 30
0.0
 40
7.5
  1
フラット側　高圧側
 72
     5
 11
280.359168
 21
333.131721
 31
0.0
100
AcDbText
  0
TEXT
  5
679
100
AcDbEntity
  8
18
100
AcDbText
 10
494.413215
 20
258.811431
 30
0.0
 40
9.0
  1
Ｄ
 72
     5
 11
501.613215
 21
258.811431
 31
0.0
100
AcDbText
  0
TEXT
  5
67A
100
AcDbEntity
  8
18
100
AcDbText
 10
271.618452
 20
291.783015
 30
0.0
 40
4.845
  1
Ｓ
 72
     5
 11
275.494452
 21
291.783015
 31
0.0
100
AcDbText
  0
TEXT
  5
67B
100
AcDbEntity
  8
18
100
AcDbText
 10
475.820913
 20
310.907793
 30
0.0
 40
7.2675
  1
　
 50
45.0
 72
     5
 11
474.793133
 21
309.880013
 31
0.0
100
AcDbText
  0
DIMENSION
  5
67C
100
AcDbEntity
  8
18
100
AcDbDimension
  2
*D9
 10
503.601573
 20
298.541109
 30
0.0
 11
464.813643
 21
338.038863
 31
0.0
 70
     2
100
AcDb2LineAngularDimension
 13
503.604291
 23
298.543827
 33
0.0
 14
503.604291
 24
298.541109
 34
0.0
 15
503.604291
 25
298.541109
 35
0.0
 16
484.385744
 26
317.759656
 36
0.0
  0
TEXT
  5
67D
100
AcDbEntity
  8
18
100
AcDbText
 10
474.464889
 20
292.366617
 30
0.0
 40
4.845
  1
Ｏ
 72
     5
 11
478.340889
 21
292.366617
 31
0.0
100
AcDbText
  0
TEXT
  5
67E
100
AcDbEntity
  8
18
100
AcDbText
 10
506.964963
 20
323.852442
 30
0.0
 40
4.845
  1
Ｓ
 72
     5
 11
510.840963
 21
323.852442
 31
0.0
100
AcDbText
  0
TEXT
  5
67F
100
AcDbEntity
  8
18
100
AcDbText
 10
407.411382
 20
287.819412
 30
0.0
 40
7.2675
  1
　
 50
135.0
 72
     5
 11
408.439162
 21
286.791632
 31
0.0
100
AcDbText
  0
DIMENSION
  5
680
100
AcDbEntity
  8
18
100
AcDbDimension
  2
*D10
 10
419.778063
 20
315.600075
 30
0.0
 11
380.987415
 21
277.519252
 31
0.0
 70
     2
100
AcDb2LineAngularDimension
 13
419.775345
 23
315.602793
 33
0.0
 14
419.778063
 24
315.602793
 34
0.0
 15
419.778063
 25
315.602793
 35
0.0
 16
400.559516
 26
296.384246
 36
0.0
  0
TEXT
  5
681
100
AcDbEntity
  8
18
100
AcDbText
 10
425.19273
 20
291.069048
 30
0.0
 40
4.845
  1
Ｏ
 50
180.0
 72
     5
 11
421.31673
 21
291.069048
 31
0.0
100
AcDbText
  0
TEXT
  5
682
100
AcDbEntity
  8
18
100
AcDbText
 10
394.25373
 20
323.940966
 30
0.0
 40
4.845
  1
Ｓ
 50
180.0
 72
     5
 11
390.37773
 21
323.940966
 31
0.0
100
AcDbText
  0
TEXT
  5
683
100
AcDbEntity
  8
18
100
AcDbText
 10
357.082221
 20
301.063419
 30
0.0
 40
7.2675
  1
　
 50
225.0
 72
     5
 11
358.110001
 21
302.091199
 31
0.0
100
AcDbText
  0
DIMENSION
  5
684
100
AcDbEntity
  8
18
100
AcDbDimension
  2
*D11
 10
329.301561
 20
313.430103
 30
0.0
 11
368.089491
 21
273.932349
 31
0.0
 70
     2
100
AcDb2LineAngularDimension
 13
329.298843
 23
313.427385
 33
0.0
 14
329.298843
 24
313.430103
 34
0.0
 15
329.298843
 25
313.430103
 35
0.0
 16
348.51739
 26
294.211556
 36
0.0
  0
TEXT
  5
685
100
AcDbEntity
  8
18
100
AcDbText
 10
358.548474
 20
319.135347
 30
0.0
 40
4.845
  1
Ｏ
 50
180.0
 72
     5
 11
354.672474
 21
319.135347
 31
0.0
100
AcDbText
  0
TEXT
  5
686
100
AcDbEntity
  8
18
100
AcDbText
 10
325.41795
 20
288.166056
 30
0.0
 40
4.845
  1
Ｓ
 50
180.0
 72
     5
 11
321.54195
 21
288.166056
 31
0.0
100
AcDbText
  0
TEXT
  5
687
100
AcDbEntity
  8
18
100
AcDbText
 10
262.628475
 20
317.50755
 30
0.0
 40
4.845
  1
Ｏ
 50
180.0
 72
     5
 11
258.752475
 21
317.50755
 31
0.0
100
AcDbText
  0
TEXT
  5
688
100
AcDbEntity
  8
18
100
AcDbText
 10
378.892731
 20
-411.050307
 30
0.0
 40
9.0
  1
３
 72
     5
 11
386.092731
 21
-411.050307
 31
0.0
100
AcDbText
  0
TEXT
  5
689
100
AcDbEntity
  8
18
100
AcDbText
 10
366.562722
 20
-369.105789
 30
0.0
 40
9.0
  1
３０２Ｙ／３０４Ｙ－１ＴＡＳ　１２５Ａ
 72
     5
 11
535.762722
 21
-369.105789
 31
0.0
100
AcDbText
  0
TEXT
  5
68A
100
AcDbEntity
  8
18
100
AcDbText
 10
540.247283
 20
-380.755647
 30
0.0
 40
6.75
  1
′０５．　７．２１
 72
     5
 11
599.647283
 21
-380.755647
 31
0.0
100
AcDbText
  0
TEXT
  5
68B
100
AcDbEntity
  8
18
100
AcDbText
 10
460.8
 20
-408.0
 30
0.0
 40
15.0
  1
Ｄ３－０３８１７
 72
     5
 11
577.8
 21
-408.0
 31
0.0
100
AcDbText
  0
LINE
  5
68C
100
AcDbEntity
  8
20
 62
     3
100
AcDbLine
 10
-540.0
 20
-415.5
 30
0.0
 11
600.0
 21
-415.5
 31
0.0
  0
LINE
  5
68D
100
AcDbEntity
  8
20
 62
     3
100
AcDbLine
 10
-540.0
 20
396.0
 30
0.0
 11
600.0
 21
396.0
 31
0.0
  0
LINE
  5
68E
100
AcDbEntity
  8
20
 62
     3
100
AcDbLine
 10
-540.0
 20
396.0
 30
0.0
 11
-540.0
 21
-415.5
 31
0.0
  0
LINE
  5
68F
100
AcDbEntity
  8
20
 62
     3
100
AcDbLine
 10
600.0
 20
396.0
 30
0.0
 11
600.0
 21
-415.5
 31
0.0
  0
LINE
  5
690
100
AcDbEntity
  8
20
 62
     3
100
AcDbLine
 10
180.0
 20
-415.5
 30
0.0
 11
180.0
 21
-355.5
 31
0.0
  0
LINE
  5
691
100
AcDbEntity
  8
20
 62
     3
100
AcDbLine
 10
321.0
 20
-415.5
 30
0.0
 11
321.0
 21
-355.5
 31
0.0
  0
LINE
  5
692
100
AcDbEntity
  8
20
100
AcDbLine
 10
321.0
 20
-385.5
 30
0.0
 11
600.0
 21
-385.5
 31
0.0
  0
LINE
  5
693
100
AcDbEntity
  8
20
 62
     3
100
AcDbLine
 10
180.0
 20
-355.5
 30
0.0
 11
600.0
 21
-355.5
 31
0.0
  0
LINE
  5
694
100
AcDbEntity
  8
20
100
AcDbLine
 10
540.0
 20
-385.5
 30
0.0
 11
540.0
 21
-355.5
 31
0.0
  0
LINE
  5
695
100
AcDbEntity
  8
20
100
AcDbLine
 10
540.0
 20
-370.5
 30
0.0
 11
600.0
 21
-370.5
 31
0.0
  0
LINE
  5
696
100
AcDbEntity
  8
20
100
AcDbLine
 10
363.0
 20
-415.5
 30
0.0
 11
363.0
 21
-355.5
 31
0.0
  0
LINE
  5
697
100
AcDbEntity
  8
20
100
AcDbLine
 10
393.0
 20
-415.5
 30
0.0
 11
393.0
 21
-385.5
 31
0.0
  0
LINE
  5
698
100
AcDbEntity
  8
20
100
AcDbLine
 10
453.0
 20
-415.5
 30
0.0
 11
453.0
 21
-385.5
 31
0.0
  0
LINE
  5
699
100
AcDbEntity
  8
20
100
AcDbLine
 10
371.185245
 20
-407.314755
 30
0.0
 11
383.694873
 21
-394.805127
 31
0.0
  0
TEXT
  5
69A
100
AcDbEntity
  8
20
100
AcDbText
 10
394.599987
 20
-397.490754
 30
0.0
 40
5.4
  1
ＤＲＡＷＩＮＧ　ＮＯ．
 72
     5
 11
452.919987
 21
-397.490754
 31
0.0
100
AcDbText
  0
TEXT
  5
69B
100
AcDbEntity
  8
20
100
AcDbText
 10
400.5
 20
-409.5
 30
0.0
 40
9.0
  1
図　　　番
 72
     5
 11
443.7
 21
-409.5
 31
0.0
100
AcDbText
  0
TEXT
  5
69C
100
AcDbEntity
  8
20
100
AcDbText
 10
558.0
 20
-366.0
 30
0.0
 40
6.0
  1
ＤＡＴＥ
 72
     5
 11
580.8
 21
-366.0
 31
0.0
100
AcDbText
  0
TEXT
  5
69D
100
AcDbEntity
  8
20
100
AcDbText
 10
327.003213
 20
-398.883087
 30
0.0
 40
6.0
  1
ＳＣＡＬＥ
 72
     5
 11
355.803213
 21
-398.883087
 31
0.0
100
AcDbText
  0
TEXT
  5
69E
100
AcDbEntity
  8
20
100
AcDbText
 10
324.0
 20
-409.5
 30
0.0
 40
9.0
  1
尺　　度
 72
     5
 11
358.2
 21
-409.5
 31
0.0
100
AcDbText
  0
TEXT
  5
69F
100
AcDbEntity
  8
20
100
AcDbText
 10
322.503213
 20
-367.487655
 30
0.0
 40
6.0
  1
ＦＩＧ．ＮＯ．
 72
     5
 11
363.303213
 21
-367.487655
 31
0.0
100
AcDbText
  0
TEXT
  5
6A0
100
AcDbEntity
  8
20
100
AcDbText
 10
324.0
 20
-379.5
 30
0.0
 40
9.0
  1
名　　称
 72
     5
 11
358.2
 21
-379.5
 31
0.0
100
AcDbText
  0
TEXT
  5
6A1
100
AcDbEntity
  8
20
100
AcDbText
 10
181.696575
 20
-379.410759
 30
0.0
 40
6.9
  1
ＴＯＭＯＥ　ＶＡＬＶＥ　ＣＯ．，ＬＴＤ．
 72
     5
 11
318.316575
 21
-379.410759
 31
0.0
100
AcDbText
  0
TEXT
  5
6A2
100
AcDbEntity
  8
20
100
AcDbText
 10
202.5
 20
-399.86943
 30
0.0
 40
12.0
  1
巴バルブ株式会社
 72
     5
 11
296.1
 21
-399.86943
 31
0.0
100
AcDbText
  0
ENDSEC
  0
SECTION
  2
OBJECTS
  0
DICTIONARY
  5
72E
100
AcDbDictionary
  3
ACAD_GROUP
350
72F
  3
ACAD_MLINESTYLE
350
730
  0
DICTIONARY
  5
72F
102
{ACAD_REACTORS
330
72E
102
}
100
AcDbDictionary
  0
DICTIONARY
  5
730
102
{ACAD_REACTORS
330
72E
102
}
100
AcDbDictionary
  3
STANDARD
350
731
  0
MLINESTYLE
  5
731
102
{ACAD_REACTORS
330
730
102
}
100
AcDbMlineStyle
  2
STANDARD
 70
     0
  3

 62
     0
 51
90.0
 52
90.0
 71
     2
 49
0.5
 62
   256
  6
BYLAYER
 49
-0.5
 62
   256
  6
BYLAYER
  0
ENDSEC
  0
EOF
