  0
SECTION
  2
HEADER
  9
$ACADVER
  1
AC1012
  9
$DWGCODEPAGE
  3
ansi_932
  9
$INSBASE
 10
0.0
 20
0.0
 30
0.0
  9
$EXTMIN
 10
-840.0
 20
-594.0
 30
1.000000E+20
  9
$EXTMAX
 10
840.0
 20
594.0
 30
-1.000000E+20
  9
$LIMMIN
 10
-840.0
 20
-594.0
  9
$LIMMAX
 10
840.0
 20
594.0
  9
$ORTHOMODE
 70
     0
  9
$REGENMODE
 70
     1
  9
$FILLMODE
 70
     1
  9
$QTEXTMODE
 70
     0
  9
$MIRRTEXT
 70
     1
  9
$DRAGMODE
 70
     2
  9
$LTSCALE
 40
1.0
  9
$OSMODE
 70
     0
  9
$ATTMODE
 70
     1
  9
$TEXTSIZE
 40
0.2
  9
$TRACEWID
 40
0.05
  9
$TEXTSTYLE
  7
STANDARD
  9
$CLAYER
  8
0
  9
$CELTYPE
  6
CONTINUOUS
  9
$CECOLOR
 62
   256
  9
$CELTSCALE
 40
1.0
  9
$DELOBJ
 70
     1
  9
$DISPSILH
 70
     0
  9
$DIMSCALE
 40
4.0
  9
$DIMASZ
 40
0.18
  9
$DIMEXO
 40
0.0625
  9
$DIMDLI
 40
0.38
  9
$DIMRND
 40
0.0
  9
$DIMDLE
 40
0.0
  9
$DIMEXE
 40
0.18
  9
$DIMTP
 40
0.0
  9
$DIMTM
 40
0.0
  9
$DIMTXT
 40
0.18
  9
$DIMCEN
 40
0.09
  9
$DIMTSZ
 40
0.0
  9
$DIMTOL
 70
     0
  9
$DIMLIM
 70
     0
  9
$DIMTIH
 70
     1
  9
$DIMTOH
 70
     1
  9
$DIMSE1
 70
     0
  9
$DIMSE2
 70
     0
  9
$DIMTAD
 70
     1
  9
$DIMZIN
 70
     0
  9
$DIMBLK
  1

  9
$DIMASO
 70
     1
  9
$DIMSHO
 70
     1
  9
$DIMPOST
  1

  9
$DIMAPOST
  1

  9
$DIMALT
 70
     0
  9
$DIMALTD
 70
     2
  9
$DIMALTF
 40
25.4
  9
$DIMLFAC
 40
1.0
  9
$DIMTOFL
 70
     0
  9
$DIMTVP
 40
0.0
  9
$DIMTIX
 70
     0
  9
$DIMSOXD
 70
     0
  9
$DIMSAH
 70
     0
  9
$DIMBLK1
  1

  9
$DIMBLK2
  1

  9
$DIMSTYLE
  2
STANDARD
  9
$DIMCLRD
 70
     0
  9
$DIMCLRE
 70
     0
  9
$DIMCLRT
 70
     0
  9
$DIMTFAC
 40
1.0
  9
$DIMGAP
 40
0.09
  9
$DIMJUST
 70
     0
  9
$DIMSD1
 70
     0
  9
$DIMSD2
 70
     0
  9
$DIMTOLJ
 70
     1
  9
$DIMTZIN
 70
     0
  9
$DIMALTZ
 70
     0
  9
$DIMALTTZ
 70
     0
  9
$DIMFIT
 70
     3
  9
$DIMUPT
 70
     0
  9
$DIMUNIT
 70
     2
  9
$DIMDEC
 70
     4
  9
$DIMTDEC
 70
     4
  9
$DIMALTU
 70
     2
  9
$DIMALTTD
 70
     2
  9
$DIMTXSTY
  7
STANDARD
  9
$DIMAUNIT
 70
     0
  9
$LUNITS
 70
     2
  9
$LUPREC
 70
     4
  9
$SKETCHINC
 40
0.1
  9
$FILLETRAD
 40
0.0
  9
$AUNITS
 70
     0
  9
$AUPREC
 70
     0
  9
$MENU
  1
acad
  9
$ELEVATION
 40
0.0
  9
$PELEVATION
 40
0.0
  9
$THICKNESS
 40
0.0
  9
$LIMCHECK
 70
     0
  9
$BLIPMODE
 70
     1
  9
$CHAMFERA
 40
0.0
  9
$CHAMFERB
 40
0.0
  9
$CHAMFERC
 40
0.0
  9
$CHAMFERD
 40
0.0
  9
$SKPOLY
 70
     0
  9
$TDCREATE
 40
2451320.000000000
  9
$TDUPDATE
 40
0.000000000
  9
$TDINDWG
 40
0.0000000000
  9
$TDUSRTIMER
 40
0.0000000000
  9
$USRTIMER
 70
     1
  9
$ANGBASE
 50
0.0
  9
$ANGDIR
 70
     0
  9
$PDMODE
 70
     0
  9
$PDSIZE
 40
0.0
  9
$PLINEWID
 40
0.0
  9
$COORDS
 70
     0
  9
$SPLFRAME
 70
     0
  9
$SPLINETYPE
 70
     6
  9
$SPLINESEGS
 70
     8
  9
$ATTDIA
 70
     0
  9
$ATTREQ
 70
     1
  9
$HANDLING
 70
     1
  9
$HANDSEED
  5
87B
  9
$SURFTAB1
 70
     6
  9
$SURFTAB2
 70
     6
  9
$SURFTYPE
 70
     6
  9
$SURFU
 70
     6
  9
$SURFV
 70
     6
  9
$UCSNAME
  2

  9
$UCSORG
 10
0.0
 20
0.0
 30
0.0
  9
$UCSXDIR
 10
1.0
 20
0.0
 30
0.0
  9
$UCSYDIR
 10
0.0
 20
1.0
 30
0.0
  9
$PUCSNAME
  2

  9
$PUCSORG
 10
0.0
 20
0.0
 30
0.0
  9
$PUCSXDIR
 10
1.0
 20
0.0
 30
0.0
  9
$PUCSYDIR
 10
0.0
 20
1.0
 30
0.0
  9
$USERI1
 70
     0
  9
$USERI2
 70
     0
  9
$USERI3
 70
     0
  9
$USERI4
 70
     0
  9
$USERI5
 70
     0
  9
$USERR1
 40
0.0
  9
$USERR2
 40
0.0
  9
$USERR3
 40
0.0
  9
$USERR4
 40
0.0
  9
$USERR5
 40
0.0
  9
$WORLDVIEW
 70
     1
  9
$SHADEDGE
 70
     3
  9
$SHADEDIF
 70
    70
  9
$TILEMODE
 70
     1
  9
$MAXACTVP
 70
    16
  9
$PINSBASE
 10
0.0
 20
0.0
 30
0.0
  9
$PLIMCHECK
 70
     0
  9
$PEXTMIN
 10
1.000000E+20
 20
1.000000E+20
 30
1.000000E+20
  9
$PEXTMAX
 10
-1.000000E+20
 20
-1.000000E+20
 30
-1.000000E+20
  9
$PLIMMIN
 10
0.0
 20
0.0
  9
$PLIMMAX
 10
12.0
 20
9.0
  9
$UNITMODE
 70
     0
  9
$VISRETAIN
 70
     0
  9
$PLINEGEN
 70
     1
  9
$PSLTSCALE
 70
     0
  9
$TREEDEPTH
 70
  3020
  9
$PICKSTYLE
 70
     1
  9
$CMLSTYLE
  2
STANDARD
  9
$CMLJUST
 70
     0
  9
$CMLSCALE
 40
1.0
  9
$SAVEIMAGES
 70
     0
  0
ENDSEC
  0
SECTION
  2
CLASSES
  0
CLASS
  1
LWPOLYLINE
  2
AcDbPolyline
  3
"AutoCAD"
 90
    32768
280
     0
281
     1
  0
CLASS
  1
IMAGE
  2
AcDbRasterImage
  3
ISM
 90
    32895
280
     0
281
     1
  0
CLASS
  1
OLE2FRAME
  2
AcDbOle2Frame
  3
""
 90
    32768
280
     0
281
     1
  0
CLASS
  1
HATCH
  2
AcDbHatch
  3
"ACAD_SEDONA"
 90
    32768
280
     0
281
     1
  0
CLASS
  1
DICTIONARYVAR
  2
AcDbDictionaryVar
  3
"AutoCAD"
 90
    32768
280
     0
281
     0
  0
CLASS
  1
RASTERVARIABLES
  2
AcDbRasterVariables
  3
ISM
 90
    32768
280
     0
281
     0
  0
CLASS
  1
IMAGEDEF
  2
AcDbRasterImageDef
  3
ISM
 90
    32768
280
     0
281
     0
  0
CLASS
  1
IMAGEDEF_REACTOR
  2
AcDbRasterImageDefReactor
  3
ISM
 90
    32769
280
     0
281
     0
  0
CLASS
  1
IDBUFFER
  2
AcDbIdBuffer
  3
"Acad"
 90
    32768
280
     0
281
     0
  0
CLASS
  1
SPATIAL_FILTER
  2
AcDbSpatialFilter
  3
"Acad"
 90
    32768
280
     0
281
     0
  0
CLASS
  1
XRECORD
  2
AcDbXrecord
  3
"<Built In>"
 90
    32768
280
     0
281
     0
  0
CLASS
  1
SORTENTSTABLE
  2
AcDbSortentsTable
  3
"AutoCAD"
 90
    32768
280
     0
281
     0
  0
CLASS
  1
LAYER_INDEX
  2
AcDbLayerIndex
  3
"Acad"
 90
    32768
280
     0
281
     0
  0
CLASS
  1
SPATIAL_INDEX
  2
AcDbSpatialIndex
  3
"Acad"
 90
    32768
280
     0
281
     0
  0
CLASS
  1
OBJECT_PTR
  2
CAseDLPNTableRecord
  3
"ASE-LPNTableRecord"
 90
    32769
280
     0
281
     0
  0
CLASS
  1
LAYOUT
  2
AcDbLayout
  3
"AutoCAD 2000"
 90
    32768
280
     0
281
     0
  0
CLASS
  1
PLOTSETTINGS
  2
AcDbPlotSettings
  3
"AutoCAD 2000"
 90
    32768
280
     0
281
     0
  0
CLASS
  1
ACDBDICTIONARYWDFLT
  2
AcDbDictionaryWithDefault
  3
"AutoCAD 2000"
 90
    32768
280
     0
281
     0
  0
CLASS
  1
ACDBPLACEHOLDER
  2
AcDbPlaceHolder
  3
"AutoCAD 2000"
 90
    32768
280
     0
281
     0
  0
CLASS
  1
VBA_PROJECT
  2
AcDbVbaProject
  3
"acadvba"
 90
    32768
280
     0
281
     0
  0
CLASS
  1
WIPEOUT
  2
AcDbWipeout
  3
WipeOut|AutoCAD Express Tool|expresstools@autodesk.com
 90
    32895
280
     0
281
     1
  0
CLASS
  1
WIPEOUTVARIABLES
  2
AcDbWipeoutVariables
  3
WipeOut|AutoCAD Express Tool|expresstools@autodesk.com
 90
    32768
280
     0
281
     0
  0
CLASS
  1
RTEXT
  2
RText
  3
RText|AutoCAD Express Tool|expresstools@autodesk.com
 90
    32768
280
     0
281
     1
  0
CLASS
  1
ARCALIGNEDTEXT
  2
AcDbArcAlignedText
  3
ATEXT|AutoCAD Express Tool|expresstools@autodesk.com
 90
    32768
280
     0
281
     1
  0
ENDSEC
  0
SECTION
  2
TABLES
  0
TABLE
  2
VPORT
  5
6
100
AcDbSymbolTable
 70
     1
  0
VPORT
  5
1D
100
AcDbSymbolTableRecord
100
AcDbViewportTableRecord
  2
*ACTIVE
 70
     0
 10
0.0
 20
0.0
 11
1.0
 21
1.0
 12
0.0
 22
0.0
 13
0.0
 23
0.0
 14
1.0
 24
1.0
 15
0.0
 25
0.0
 16
0.0
 26
0.0
 36
1.0
 17
0.0
 27
0.0
 37
0.0
 40
1188.0
 41
1.414141
 42
50.0
 43
0.0
 44
0.0
 50
0.0
 51
0.0
 71
     0
 72
   500
 73
     1
 74
     1
 75
     0
 76
     0
 77
     0
 78
     0
  0
ENDTAB
  0
TABLE
  2
LTYPE
  5
3
100
AcDbSymbolTable
 70
     9
  0
LTYPE
  5
C
100
AcDbSymbolTableRecord
100
AcDbLinetypeTableRecord
  2
BYBLOCK
 70
    64
  3

 72
    65
 73
     0
 40
0.0
  0
LTYPE
  5
D
100
AcDbSymbolTableRecord
100
AcDbLinetypeTableRecord
  2
BYLAYER
 70
    64
  3

 72
    65
 73
     0
 40
0.0
  0
LTYPE
  5
E
100
AcDbSymbolTableRecord
100
AcDbLinetypeTableRecord
  2
CONTINUOUS
 70
     0
  3
Solid line
 72
    65
 73
     0
 40
0.0
  0
LTYPE
  5
F
100
AcDbSymbolTableRecord
100
AcDbLinetypeTableRecord
  2
DASHED
 70
     0
  3
__ __ __ __ __ __ __ __ __ __ __ __ __ __ __
 72
    65
 73
     2
 40
2.0
 49
1.2
 74
     0
 49
-0.8
 74
     0
  0
LTYPE
  5
10
100
AcDbSymbolTableRecord
100
AcDbLinetypeTableRecord
  2
CENTER
 70
     0
  3
____ _ ____ _ ____ _ ____ _ ____ _ ____ _ ____
 72
    65
 73
     4
 40
12.0
 49
9.0
 74
     0
 49
-1.0
 74
     0
 49
1.0
 74
     0
 49
-1.0
 74
     0
  0
LTYPE
  5
11
100
AcDbSymbolTableRecord
100
AcDbLinetypeTableRecord
  2
HIDDEN
 70
     0
  3
_ _ _ _ _ _ _ _ _ _ _ _ _ _ _ _ _ _ _ _ _ _ _
 72
    65
 73
     2
 40
3.2
 49
2.4
 74
     0
 49
-0.8
 74
     0
  0
LTYPE
  5
12
100
AcDbSymbolTableRecord
100
AcDbLinetypeTableRecord
  2
PHANTOM
 70
     0
  3
_____ _ _ _____ _ _ _____ _ _ _____ _ _ _____
 72
    65
 73
     6
 40
13.5
 49
9.0
 74
     0
 49
-1.0
 74
     0
 49
1.0
 74
     0
 49
-0.5
 74
     0
 49
1.0
 74
     0
 49
-1.0
 74
     0
  0
LTYPE
  5
13
100
AcDbSymbolTableRecord
100
AcDbLinetypeTableRecord
  2
DOT
 70
     0
  3
...............................................
 72
    65
 73
     2
 40
1.0
 49
0.5
 74
     0
 49
-0.5
 74
     0
  0
LTYPE
  5
14
100
AcDbSymbolTableRecord
100
AcDbLinetypeTableRecord
  2
DASHDOT
 70
     0
  3
__ . __ . __ . __ . __ . __ . __ . __ . __ . __
 72
    65
 73
     4
 40
8.0
 49
5.0
 74
     0
 49
-1.0
 74
     0
 49
1.0
 74
     0
 49
-1.0
 74
     0
  0
ENDTAB
  0
TABLE
  2
LAYER
  5
1
100
AcDbSymbolTable
 70
     8
  0
LAYER
  5
15
100
AcDbSymbolTableRecord
100
AcDbLayerTableRecord
  2
0
 70
     0
 62
     7
  6
CONTINUOUS
  0
LAYER
  5
16
100
AcDbSymbolTableRecord
100
AcDbLayerTableRecord
  2
1
 70
     0
 62
     7
  6
CONTINUOUS
  0
LAYER
  5
17
100
AcDbSymbolTableRecord
100
AcDbLayerTableRecord
  2
2
 70
     0
 62
     7
  6
CONTINUOUS
  0
LAYER
  5
18
100
AcDbSymbolTableRecord
100
AcDbLayerTableRecord
  2
3
 70
     0
 62
     7
  6
CONTINUOUS
  0
LAYER
  5
19
100
AcDbSymbolTableRecord
100
AcDbLayerTableRecord
  2
4
 70
     0
 62
     7
  6
CONTINUOUS
  0
LAYER
  5
1A
100
AcDbSymbolTableRecord
100
AcDbLayerTableRecord
  2
5
 70
     0
 62
     7
  6
CONTINUOUS
  0
LAYER
  5
1B
100
AcDbSymbolTableRecord
100
AcDbLayerTableRecord
  2
18
 70
     0
 62
     7
  6
CONTINUOUS
  0
LAYER
  5
1C
100
AcDbSymbolTableRecord
100
AcDbLayerTableRecord
  2
20
 70
     0
 62
     7
  6
CONTINUOUS
  0
ENDTAB
  0
TABLE
  2
STYLE
  5
2
100
AcDbSymbolTable
 70
     1
  0
STYLE
  5
1F
100
AcDbSymbolTableRecord
100
AcDbTextStyleTableRecord
  2
STANDARD
 70
    64
 40
0.0
 41
1.0
 50
0.0
 71
     0
 42
1.0
  3
txt
  4
BIGFONT
  0
ENDTAB
  0
TABLE
  2
VIEW
  5
4
100
AcDbSymbolTable
 70
     0
  0
ENDTAB
  0
TABLE
  2
UCS
  5
5
100
AcDbSymbolTable
 70
     0
  0
ENDTAB
  0
TABLE
  2
APPID
  5
7
100
AcDbSymbolTable
 70
     1
  0
APPID
  5
1E
100
AcDbSymbolTableRecord
100
AcDbRegAppTableRecord
  2
ACAD
 70
     0
  0
ENDTAB
  0
TABLE
  2
DIMSTYLE
  5
8
100
AcDbSymbolTable
 70
     1
  0
DIMSTYLE
105
33
100
AcDbSymbolTableRecord
100
AcDbDimStyleTableRecord
  2
STANDARD
 70
     0
  3

  4

  5

  6

  7

 40
4.0
 41
0.18
 42
0.0625
 43
0.38
 44
0.18
 45
0.0
 46
0.0
 47
0.0
 48
0.0
 71
     0
 72
     0
 73
     1
 74
     1
 75
     0
 76
     0
 77
     1
 78
     0
140
0.18
141
0.09
142
0.0
143
25.4
144
1.0
145
0.0
146
1.0
147
0.09
170
     0
171
     2
172
     0
173
     0
174
     0
175
     0
176
     0
177
     0
178
     0
270
     2
271
     4
272
     4
273
     2
274
     2
275
     0
280
     0
281
     0
282
     0
283
     1
284
     0
285
     0
286
     0
287
     3
288
     0
340
1F
  0
ENDTAB
  0
TABLE
  2
BLOCK_RECORD
  5
2E
100
AcDbSymbolTable
 70
    12
  0
BLOCK_RECORD
  5
2C
100
AcDbSymbolTableRecord
100
AcDbBlockTableRecord
  2
*MODEL_SPACE
  0
BLOCK_RECORD
  5
2D
100
AcDbSymbolTableRecord
100
AcDbBlockTableRecord
  2
*PAPER_SPACE
  0
BLOCK_RECORD
  5
20
100
AcDbSymbolTableRecord
100
AcDbBlockTableRecord
  2
*D0
  0
BLOCK_RECORD
  5
21
100
AcDbSymbolTableRecord
100
AcDbBlockTableRecord
  2
*D1
  0
BLOCK_RECORD
  5
22
100
AcDbSymbolTableRecord
100
AcDbBlockTableRecord
  2
*D2
  0
BLOCK_RECORD
  5
23
100
AcDbSymbolTableRecord
100
AcDbBlockTableRecord
  2
*D3
  0
BLOCK_RECORD
  5
24
100
AcDbSymbolTableRecord
100
AcDbBlockTableRecord
  2
*D4
  0
BLOCK_RECORD
  5
25
100
AcDbSymbolTableRecord
100
AcDbBlockTableRecord
  2
*D5
  0
BLOCK_RECORD
  5
26
100
AcDbSymbolTableRecord
100
AcDbBlockTableRecord
  2
*D6
  0
BLOCK_RECORD
  5
27
100
AcDbSymbolTableRecord
100
AcDbBlockTableRecord
  2
*D7
  0
BLOCK_RECORD
  5
28
100
AcDbSymbolTableRecord
100
AcDbBlockTableRecord
  2
*D8
  0
BLOCK_RECORD
  5
29
100
AcDbSymbolTableRecord
100
AcDbBlockTableRecord
  2
*D9
  0
BLOCK_RECORD
  5
2A
100
AcDbSymbolTableRecord
100
AcDbBlockTableRecord
  2
*D10
  0
BLOCK_RECORD
  5
2B
100
AcDbSymbolTableRecord
100
AcDbBlockTableRecord
  2
*D11
  0
ENDTAB
  0
ENDSEC
  0
SECTION
  2
BLOCKS
  0
BLOCK
  5
2F
100
AcDbEntity
  8
0
100
AcDbBlockBegin
  2
*MODEL_SPACE
 70
     0
 10
0.0
 20
0.0
 30
0.0
  3
*MODEL_SPACE
  1

  0
ENDBLK
  5
30
100
AcDbEntity
  8
0
100
AcDbBlockEnd
  0
BLOCK
  5
31
100
AcDbEntity
 67
     1
  8
0
100
AcDbBlockBegin
  2
*PAPER_SPACE
 70
     0
 10
0.0
 20
0.0
 30
0.0
  3
*PAPER_SPACE
  1

  0
ENDBLK
  5
32
100
AcDbEntity
 67
     1
  8
0
100
AcDbBlockEnd
  0
BLOCK
  5
7E9
100
AcDbEntity
  8
5
100
AcDbBlockBegin
  2
*D0
 70
     1
 10
0.0
 20
0.0
 30
0.0
  3
*D0
  1

  0
TEXT
  5
7EA
100
AcDbEntity
  8
5
 62
     2
100
AcDbText
 10
-612.639708
 20
374.878232
 30
0.0
 40
13.2
  1
102.5
 50
90.0
 41
1.4
 72
     5
 11
-612.639708
 21
417.382232
 31
0.0
100
AcDbText
  0
LINE
  5
7EB
100
AcDbEntity
  8
5
 62
     2
100
AcDbLine
 10
-579.6572
 20
346.728232
 30
0.0
 11
-614.639708
 21
346.728232
 31
0.0
  0
LINE
  5
7EC
100
AcDbEntity
  8
5
 62
     2
100
AcDbLine
 10
-610.639708
 20
346.728232
 30
0.0
 11
-608.569156
 21
354.455639
 31
0.0
  0
LINE
  5
7ED
100
AcDbEntity
  8
5
 62
     2
100
AcDbLine
 10
-610.639708
 20
346.728232
 30
0.0
 11
-612.71026
 21
354.455639
 31
0.0
  0
LINE
  5
7EE
100
AcDbEntity
  8
5
 62
     2
100
AcDbLine
 10
-608.569156
 20
354.455639
 30
0.0
 11
-612.71026
 21
354.455639
 31
0.0
  0
LINE
  5
7EF
100
AcDbEntity
  8
5
 62
     2
100
AcDbLine
 10
-610.639708
 20
346.728232
 30
0.0
 11
-610.639708
 21
449.228232
 31
0.0
  0
LINE
  5
7F0
100
AcDbEntity
  8
5
 62
     2
100
AcDbLine
 10
-610.639708
 20
449.228232
 30
0.0
 11
-612.71026
 21
441.500825
 31
0.0
  0
LINE
  5
7F1
100
AcDbEntity
  8
5
 62
     2
100
AcDbLine
 10
-610.639708
 20
449.228232
 30
0.0
 11
-608.569156
 21
441.500825
 31
0.0
  0
LINE
  5
7F2
100
AcDbEntity
  8
5
 62
     2
100
AcDbLine
 10
-612.71026
 20
441.500825
 30
0.0
 11
-608.569156
 21
441.500825
 31
0.0
  0
LINE
  5
7F3
100
AcDbEntity
  8
5
 62
     2
100
AcDbLine
 10
-455.3761
 20
449.228232
 30
0.0
 11
-614.639708
 21
449.228232
 31
0.0
  0
ENDBLK
  5
7F4
100
AcDbEntity
  8
5
100
AcDbBlockEnd
  0
BLOCK
  5
7F5
100
AcDbEntity
  8
5
100
AcDbBlockBegin
  2
*D1
 70
     1
 10
0.0
 20
0.0
 30
0.0
  3
*D1
  1

  0
TEXT
  5
7F6
100
AcDbEntity
  8
5
 62
     2
100
AcDbText
 10
-612.639708
 20
289.498232
 30
0.0
 40
13.2
  1
77.5
 50
90.0
 41
1.4
 72
     5
 11
-612.639708
 21
322.762232
 31
0.0
100
AcDbText
  0
LINE
  5
7F7
100
AcDbEntity
  8
5
 62
     2
100
AcDbLine
 10
-438.3761
 20
269.228232
 30
0.0
 11
-614.639708
 21
269.228232
 31
0.0
  0
LINE
  5
7F8
100
AcDbEntity
  8
5
 62
     2
100
AcDbLine
 10
-610.639708
 20
269.228232
 30
0.0
 11
-608.569156
 21
276.955639
 31
0.0
  0
LINE
  5
7F9
100
AcDbEntity
  8
5
 62
     2
100
AcDbLine
 10
-610.639708
 20
269.228232
 30
0.0
 11
-612.71026
 21
276.955639
 31
0.0
  0
LINE
  5
7FA
100
AcDbEntity
  8
5
 62
     2
100
AcDbLine
 10
-608.569156
 20
276.955639
 30
0.0
 11
-612.71026
 21
276.955639
 31
0.0
  0
LINE
  5
7FB
100
AcDbEntity
  8
5
 62
     2
100
AcDbLine
 10
-610.639708
 20
269.228232
 30
0.0
 11
-610.639708
 21
346.728232
 31
0.0
  0
LINE
  5
7FC
100
AcDbEntity
  8
5
 62
     2
100
AcDbLine
 10
-610.639708
 20
346.728232
 30
0.0
 11
-612.71026
 21
339.000825
 31
0.0
  0
LINE
  5
7FD
100
AcDbEntity
  8
5
 62
     2
100
AcDbLine
 10
-610.639708
 20
346.728232
 30
0.0
 11
-608.569156
 21
339.000825
 31
0.0
  0
LINE
  5
7FE
100
AcDbEntity
  8
5
 62
     2
100
AcDbLine
 10
-612.71026
 20
339.000825
 30
0.0
 11
-608.569156
 21
339.000825
 31
0.0
  0
LINE
  5
7FF
100
AcDbEntity
  8
5
 62
     2
100
AcDbLine
 10
-579.6572
 20
346.728232
 30
0.0
 11
-614.639708
 21
346.728232
 31
0.0
  0
ENDBLK
  5
800
100
AcDbEntity
  8
5
100
AcDbBlockEnd
  0
BLOCK
  5
801
100
AcDbEntity
  8
5
100
AcDbBlockBegin
  2
*D2
 70
     1
 10
0.0
 20
0.0
 30
0.0
  3
*D2
  1

  0
TEXT
  5
802
100
AcDbEntity
  8
5
 62
     2
100
AcDbText
 10
123.2044
 20
-452.625
 30
0.0
 40
13.2
  1
23
 41
1.4
 72
     5
 11
137.9884
 21
-452.625
 31
0.0
100
AcDbText
  0
LINE
  5
803
100
AcDbEntity
  8
5
 62
     2
100
AcDbLine
 10
151.6844
 20
-363.467968
 30
0.0
 11
151.6844
 21
-458.625
 31
0.0
  0
LINE
  5
804
100
AcDbEntity
  8
5
 62
     2
100
AcDbLine
 10
151.6844
 20
-454.625
 30
0.0
 11
143.956993
 21
-452.554448
 31
0.0
  0
LINE
  5
805
100
AcDbEntity
  8
5
 62
     2
100
AcDbLine
 10
151.6844
 20
-454.625
 30
0.0
 11
143.956993
 21
-456.695552
 31
0.0
  0
LINE
  5
806
100
AcDbEntity
  8
5
 62
     2
100
AcDbLine
 10
143.956993
 20
-452.554448
 30
0.0
 11
143.956993
 21
-456.695552
 31
0.0
  0
LINE
  5
807
100
AcDbEntity
  8
5
 62
     2
100
AcDbLine
 10
121.2044
 20
-454.625
 30
0.0
 11
194.6844
 21
-454.625
 31
0.0
  0
LINE
  5
808
100
AcDbEntity
  8
5
 62
     2
100
AcDbLine
 10
174.6844
 20
-454.625
 30
0.0
 11
182.411807
 21
-456.695552
 31
0.0
  0
LINE
  5
809
100
AcDbEntity
  8
5
 62
     2
100
AcDbLine
 10
174.6844
 20
-454.625
 30
0.0
 11
182.411807
 21
-452.554448
 31
0.0
  0
LINE
  5
80A
100
AcDbEntity
  8
5
 62
     2
100
AcDbLine
 10
182.411807
 20
-456.695552
 30
0.0
 11
182.411807
 21
-452.554448
 31
0.0
  0
LINE
  5
80B
100
AcDbEntity
  8
5
 62
     2
100
AcDbLine
 10
174.6844
 20
-435.94056
 30
0.0
 11
174.6844
 21
-458.625
 31
0.0
  0
ENDBLK
  5
80C
100
AcDbEntity
  8
5
100
AcDbBlockEnd
  0
BLOCK
  5
80D
100
AcDbEntity
  8
5
100
AcDbBlockBegin
  2
*D3
 70
     1
 10
0.0
 20
0.0
 30
0.0
  3
*D3
  1

  0
TEXT
  5
80E
100
AcDbEntity
  8
5
 62
     2
100
AcDbText
 10
170.9444
 20
-490.86566
 30
0.0
 40
13.2
  1
57
 41
1.4
 72
     5
 11
185.7284
 21
-490.86566
 31
0.0
100
AcDbText
  0
LINE
  5
80F
100
AcDbEntity
  8
5
 62
     2
100
AcDbLine
 10
151.6844
 20
-363.467968
 30
0.0
 11
151.6844
 21
-496.86566
 31
0.0
  0
LINE
  5
810
100
AcDbEntity
  8
5
 62
     2
100
AcDbLine
 10
151.6844
 20
-492.86566
 30
0.0
 11
159.411807
 21
-494.936212
 31
0.0
  0
LINE
  5
811
100
AcDbEntity
  8
5
 62
     2
100
AcDbLine
 10
151.6844
 20
-492.86566
 30
0.0
 11
159.411807
 21
-490.795108
 31
0.0
  0
LINE
  5
812
100
AcDbEntity
  8
5
 62
     2
100
AcDbLine
 10
159.411807
 20
-494.936212
 30
0.0
 11
159.411807
 21
-490.795108
 31
0.0
  0
LINE
  5
813
100
AcDbEntity
  8
5
 62
     2
100
AcDbLine
 10
151.6844
 20
-492.86566
 30
0.0
 11
208.6844
 21
-492.86566
 31
0.0
  0
LINE
  5
814
100
AcDbEntity
  8
5
 62
     2
100
AcDbLine
 10
208.6844
 20
-492.86566
 30
0.0
 11
200.956993
 21
-490.795108
 31
0.0
  0
LINE
  5
815
100
AcDbEntity
  8
5
 62
     2
100
AcDbLine
 10
208.6844
 20
-492.86566
 30
0.0
 11
200.956993
 21
-494.936212
 31
0.0
  0
LINE
  5
816
100
AcDbEntity
  8
5
 62
     2
100
AcDbLine
 10
200.956993
 20
-490.795108
 30
0.0
 11
200.956993
 21
-494.936212
 31
0.0
  0
LINE
  5
817
100
AcDbEntity
  8
5
 62
     2
100
AcDbLine
 10
208.6844
 20
-363.467968
 30
0.0
 11
208.6844
 21
-496.86566
 31
0.0
  0
ENDBLK
  5
818
100
AcDbEntity
  8
5
100
AcDbBlockEnd
  0
BLOCK
  5
819
100
AcDbEntity
  8
5
100
AcDbBlockBegin
  2
*D4
 70
     1
 10
0.0
 20
0.0
 30
0.0
  3
*D4
  1

  0
TEXT
  5
81A
100
AcDbEntity
  8
5
 62
     2
100
AcDbText
 10
70.91896
 20
-164.327968
 30
0.0
 40
13.2
  1
205
 50
90.0
 41
1.4
 72
     5
 11
70.91896
 21
-140.303968
 31
0.0
100
AcDbText
  0
LINE
  5
81B
100
AcDbEntity
  8
5
 62
     2
100
AcDbLine
 10
124.950064
 20
-252.967968
 30
0.0
 11
68.91896
 21
-252.967968
 31
0.0
  0
LINE
  5
81C
100
AcDbEntity
  8
5
 62
     2
100
AcDbLine
 10
72.91896
 20
-252.967968
 30
0.0
 11
74.989512
 21
-245.240561
 31
0.0
  0
LINE
  5
81D
100
AcDbEntity
  8
5
 62
     2
100
AcDbLine
 10
72.91896
 20
-252.967968
 30
0.0
 11
70.848408
 21
-245.240561
 31
0.0
  0
LINE
  5
81E
100
AcDbEntity
  8
5
 62
     2
100
AcDbLine
 10
74.989512
 20
-245.240561
 30
0.0
 11
70.848408
 21
-245.240561
 31
0.0
  0
LINE
  5
81F
100
AcDbEntity
  8
5
 62
     2
100
AcDbLine
 10
72.91896
 20
-252.967968
 30
0.0
 11
72.91896
 21
-47.967968
 31
0.0
  0
LINE
  5
820
100
AcDbEntity
  8
5
 62
     2
100
AcDbLine
 10
72.91896
 20
-47.967968
 30
0.0
 11
70.848408
 21
-55.695375
 31
0.0
  0
LINE
  5
821
100
AcDbEntity
  8
5
 62
     2
100
AcDbLine
 10
72.91896
 20
-47.967968
 30
0.0
 11
74.989512
 21
-55.695375
 31
0.0
  0
LINE
  5
822
100
AcDbEntity
  8
5
 62
     2
100
AcDbLine
 10
70.848408
 20
-55.695375
 30
0.0
 11
74.989512
 21
-55.695375
 31
0.0
  0
LINE
  5
823
100
AcDbEntity
  8
5
 62
     2
100
AcDbLine
 10
108.1844
 20
-47.967968
 30
0.0
 11
68.91896
 21
-47.967968
 31
0.0
  0
ENDBLK
  5
824
100
AcDbEntity
  8
5
100
AcDbBlockEnd
  0
BLOCK
  5
825
100
AcDbEntity
  8
5
100
AcDbBlockBegin
  2
*D5
 70
     1
 10
0.0
 20
0.0
 30
0.0
  3
*D5
  1

  0
TEXT
  5
826
100
AcDbEntity
  8
5
 62
     2
100
AcDbText
 10
70.91896
 20
-348.327968
 30
0.0
 40
13.2
  1
163
 50
90.0
 41
1.4
 72
     5
 11
70.91896
 21
-324.303968
 31
0.0
100
AcDbText
  0
LINE
  5
827
100
AcDbEntity
  8
5
 62
     2
100
AcDbLine
 10
150.6844
 20
-415.967968
 30
0.0
 11
68.91896
 21
-415.967968
 31
0.0
  0
LINE
  5
828
100
AcDbEntity
  8
5
 62
     2
100
AcDbLine
 10
72.91896
 20
-415.967968
 30
0.0
 11
74.989512
 21
-408.240561
 31
0.0
  0
LINE
  5
829
100
AcDbEntity
  8
5
 62
     2
100
AcDbLine
 10
72.91896
 20
-415.967968
 30
0.0
 11
70.848408
 21
-408.240561
 31
0.0
  0
LINE
  5
82A
100
AcDbEntity
  8
5
 62
     2
100
AcDbLine
 10
74.989512
 20
-408.240561
 30
0.0
 11
70.848408
 21
-408.240561
 31
0.0
  0
LINE
  5
82B
100
AcDbEntity
  8
5
 62
     2
100
AcDbLine
 10
72.91896
 20
-415.967968
 30
0.0
 11
72.91896
 21
-252.967968
 31
0.0
  0
LINE
  5
82C
100
AcDbEntity
  8
5
 62
     2
100
AcDbLine
 10
72.91896
 20
-252.967968
 30
0.0
 11
70.848408
 21
-260.695375
 31
0.0
  0
LINE
  5
82D
100
AcDbEntity
  8
5
 62
     2
100
AcDbLine
 10
72.91896
 20
-252.967968
 30
0.0
 11
74.989512
 21
-260.695375
 31
0.0
  0
LINE
  5
82E
100
AcDbEntity
  8
5
 62
     2
100
AcDbLine
 10
70.848408
 20
-260.695375
 30
0.0
 11
74.989512
 21
-260.695375
 31
0.0
  0
LINE
  5
82F
100
AcDbEntity
  8
5
 62
     2
100
AcDbLine
 10
124.950064
 20
-252.967968
 30
0.0
 11
68.91896
 21
-252.967968
 31
0.0
  0
ENDBLK
  5
830
100
AcDbEntity
  8
5
100
AcDbBlockEnd
  0
BLOCK
  5
831
100
AcDbEntity
  8
5
100
AcDbBlockBegin
  2
*D6
 70
     1
 10
0.0
 20
0.0
 30
0.0
  3
*D6
  1

  0
TEXT
  5
832
100
AcDbEntity
  8
5
 62
     2
100
AcDbText
 10
70.91896
 20
-43.207968
 30
0.0
 40
13.2
  1
28
 50
90.0
 41
1.4
 72
     5
 11
70.91896
 21
-28.423968
 31
0.0
100
AcDbText
  0
LINE
  5
833
100
AcDbEntity
  8
5
 62
     2
100
AcDbLine
 10
108.1844
 20
-47.967968
 30
0.0
 11
68.91896
 21
-47.967968
 31
0.0
  0
LINE
  5
834
100
AcDbEntity
  8
5
 62
     2
100
AcDbLine
 10
72.91896
 20
-47.967968
 30
0.0
 11
74.989512
 21
-40.240561
 31
0.0
  0
LINE
  5
835
100
AcDbEntity
  8
5
 62
     2
100
AcDbLine
 10
72.91896
 20
-47.967968
 30
0.0
 11
70.848408
 21
-40.240561
 31
0.0
  0
LINE
  5
836
100
AcDbEntity
  8
5
 62
     2
100
AcDbLine
 10
74.989512
 20
-40.240561
 30
0.0
 11
70.848408
 21
-40.240561
 31
0.0
  0
LINE
  5
837
100
AcDbEntity
  8
5
 62
     2
100
AcDbLine
 10
72.91896
 20
-47.967968
 30
0.0
 11
72.91896
 21
-19.967968
 31
0.0
  0
LINE
  5
838
100
AcDbEntity
  8
5
 62
     2
100
AcDbLine
 10
72.91896
 20
-19.967968
 30
0.0
 11
70.848408
 21
-27.695375
 31
0.0
  0
LINE
  5
839
100
AcDbEntity
  8
5
 62
     2
100
AcDbLine
 10
72.91896
 20
-19.967968
 30
0.0
 11
74.989512
 21
-27.695375
 31
0.0
  0
LINE
  5
83A
100
AcDbEntity
  8
5
 62
     2
100
AcDbLine
 10
70.848408
 20
-27.695375
 30
0.0
 11
74.989512
 21
-27.695375
 31
0.0
  0
LINE
  5
83B
100
AcDbEntity
  8
5
 62
     2
100
AcDbLine
 10
93.1844
 20
-19.967968
 30
0.0
 11
68.91896
 21
-19.967968
 31
0.0
  0
ENDBLK
  5
83C
100
AcDbEntity
  8
5
100
AcDbBlockEnd
  0
BLOCK
  5
83D
100
AcDbEntity
  8
5
100
AcDbBlockBegin
  2
*D7
 70
     1
 10
0.0
 20
0.0
 30
0.0
  3
*D7
  1

  0
LINE
  5
83E
100
AcDbEntity
  8
5
 62
     2
100
AcDbLine
 10
93.1844
 20
-19.967968
 30
0.0
 11
68.91896
 21
-19.967968
 31
0.0
  0
LINE
  5
83F
100
AcDbEntity
  8
5
 62
     2
100
AcDbLine
 10
72.91896
 20
-19.967968
 30
0.0
 11
74.989512
 21
-12.240561
 31
0.0
  0
LINE
  5
840
100
AcDbEntity
  8
5
 62
     2
100
AcDbLine
 10
72.91896
 20
-19.967968
 30
0.0
 11
70.848408
 21
-12.240561
 31
0.0
  0
LINE
  5
841
100
AcDbEntity
  8
5
 62
     2
100
AcDbLine
 10
74.989512
 20
-12.240561
 30
0.0
 11
70.848408
 21
-12.240561
 31
0.0
  0
LINE
  5
842
100
AcDbEntity
  8
5
 62
     2
100
AcDbLine
 10
72.91896
 20
-19.967968
 30
0.0
 11
72.91896
 21
77.428585
 31
0.0
  0
LINE
  5
843
100
AcDbEntity
  8
5
 62
     2
100
AcDbLine
 10
72.91896
 20
77.428585
 30
0.0
 11
70.848408
 21
69.701178
 31
0.0
  0
LINE
  5
844
100
AcDbEntity
  8
5
 62
     2
100
AcDbLine
 10
72.91896
 20
77.428585
 30
0.0
 11
74.989512
 21
69.701178
 31
0.0
  0
LINE
  5
845
100
AcDbEntity
  8
5
 62
     2
100
AcDbLine
 10
70.848408
 20
69.701178
 30
0.0
 11
74.989512
 21
69.701178
 31
0.0
  0
LINE
  5
846
100
AcDbEntity
  8
5
 62
     2
100
AcDbLine
 10
170.6844
 20
77.428585
 30
0.0
 11
68.91896
 21
77.428585
 31
0.0
  0
ENDBLK
  5
847
100
AcDbEntity
  8
5
100
AcDbBlockEnd
  0
BLOCK
  5
848
100
AcDbEntity
  8
5
100
AcDbBlockBegin
  2
*D8
 70
     1
 10
0.0
 20
0.0
 30
0.0
  3
*D8
  1

  0
LINE
  5
849
100
AcDbEntity
  8
5
 62
     2
100
AcDbLine
 10
-434.3761
 20
37.707256
 30
0.0
 11
-434.3761
 21
108.63179
 31
0.0
  0
LINE
  5
84A
100
AcDbEntity
  8
5
 62
     2
100
AcDbLine
 10
-434.3761
 20
104.63179
 30
0.0
 11
-426.648693
 21
102.561238
 31
0.0
  0
LINE
  5
84B
100
AcDbEntity
  8
5
 62
     2
100
AcDbLine
 10
-434.3761
 20
104.63179
 30
0.0
 11
-426.648693
 21
106.702343
 31
0.0
  0
LINE
  5
84C
100
AcDbEntity
  8
5
 62
     2
100
AcDbLine
 10
-426.648693
 20
102.561238
 30
0.0
 11
-426.648693
 21
106.702343
 31
0.0
  0
LINE
  5
84D
100
AcDbEntity
  8
5
 62
     2
100
AcDbLine
 10
-434.3761
 20
104.63179
 30
0.0
 11
-84.561804
 21
104.63179
 31
0.0
  0
LINE
  5
84E
100
AcDbEntity
  8
5
 62
     2
100
AcDbLine
 10
-84.561804
 20
104.63179
 30
0.0
 11
-92.289211
 21
106.702343
 31
0.0
  0
LINE
  5
84F
100
AcDbEntity
  8
5
 62
     2
100
AcDbLine
 10
-84.561804
 20
104.63179
 30
0.0
 11
-92.289211
 21
102.561238
 31
0.0
  0
LINE
  5
850
100
AcDbEntity
  8
5
 62
     2
100
AcDbLine
 10
-92.289211
 20
106.702343
 30
0.0
 11
-92.289211
 21
102.561238
 31
0.0
  0
LINE
  5
851
100
AcDbEntity
  8
5
 62
     2
100
AcDbLine
 10
-84.561804
 20
67.488291
 30
0.0
 11
-84.561804
 21
108.63179
 31
0.0
  0
ENDBLK
  5
852
100
AcDbEntity
  8
5
100
AcDbBlockEnd
  0
BLOCK
  5
853
100
AcDbEntity
  8
18
100
AcDbBlockBegin
  2
*D9
 70
     1
 10
0.0
 20
0.0
 30
0.0
  3
*D9
  1

  0
LINE
  5
854
100
AcDbEntity
  8
18
 62
     2
100
AcDbLine
 10
671.472388
 20
402.054812
 30
0.0
 11
671.472388
 21
438.293652
 31
0.0
  0
LINE
  5
855
100
AcDbEntity
  8
18
 62
     2
100
AcDbLine
 10
667.472388
 20
398.054812
 30
0.0
 11
631.233548
 21
398.054812
 31
0.0
  0
LINE
  5
856
100
AcDbEntity
  8
18
 62
     2
100
AcDbLine
 10
671.472388
 20
434.293652
 30
0.0
 11
663.568269
 21
435.528524
 31
0.0
  0
LINE
  5
857
100
AcDbEntity
  8
18
 62
     2
100
AcDbLine
 10
671.472388
 20
434.293652
 30
0.0
 11
664.009785
 21
431.411023
 31
0.0
  0
LINE
  5
858
100
AcDbEntity
  8
18
 62
     2
100
AcDbLine
 10
663.568269
 20
435.528524
 30
0.0
 11
664.009785
 21
431.411023
 31
0.0
  0
LINE
  5
859
100
AcDbEntity
  8
18
 62
     2
100
AcDbLine
 10
635.233548
 20
398.054812
 30
0.0
 11
638.116177
 21
405.517415
 31
0.0
  0
LINE
  5
85A
100
AcDbEntity
  8
18
 62
     2
100
AcDbLine
 10
635.233548
 20
398.054812
 30
0.0
 11
633.998676
 21
405.958931
 31
0.0
  0
LINE
  5
85B
100
AcDbEntity
  8
18
 62
     2
100
AcDbLine
 10
638.116177
 20
405.517415
 30
0.0
 11
633.998676
 21
405.958931
 31
0.0
  0
ARC
  5
85C
100
AcDbEntity
  8
18
 62
     2
100
AcDbCircle
 10
671.472388
 20
398.054812
 30
0.0
 40
36.23884
100
AcDbArc
 50
90.0
 51
180.0
  0
ENDBLK
  5
85D
100
AcDbEntity
  8
18
100
AcDbBlockEnd
  0
BLOCK
  5
85E
100
AcDbEntity
  8
18
100
AcDbBlockBegin
  2
*D10
 70
     1
 10
0.0
 20
0.0
 30
0.0
  3
*D10
  1

  0
LINE
  5
85F
100
AcDbEntity
  8
18
 62
     2
100
AcDbLine
 10
555.704084
 20
420.803724
 30
0.0
 11
519.465244
 21
420.803724
 31
0.0
  0
LINE
  5
860
100
AcDbEntity
  8
18
 62
     2
100
AcDbLine
 10
559.704084
 20
416.803724
 30
0.0
 11
559.704084
 21
380.564884
 31
0.0
  0
LINE
  5
861
100
AcDbEntity
  8
18
 62
     2
100
AcDbLine
 10
523.465244
 20
420.803724
 30
0.0
 11
522.230372
 21
412.899605
 31
0.0
  0
LINE
  5
862
100
AcDbEntity
  8
18
 62
     2
100
AcDbLine
 10
523.465244
 20
420.803724
 30
0.0
 11
526.347873
 21
413.341121
 31
0.0
  0
LINE
  5
863
100
AcDbEntity
  8
18
 62
     2
100
AcDbLine
 10
522.230372
 20
412.899605
 30
0.0
 11
526.347873
 21
413.341121
 31
0.0
  0
LINE
  5
864
100
AcDbEntity
  8
18
 62
     2
100
AcDbLine
 10
559.704084
 20
384.564884
 30
0.0
 11
552.241481
 21
387.447513
 31
0.0
  0
LINE
  5
865
100
AcDbEntity
  8
18
 62
     2
100
AcDbLine
 10
559.704084
 20
384.564884
 30
0.0
 11
551.799965
 21
383.330012
 31
0.0
  0
LINE
  5
866
100
AcDbEntity
  8
18
 62
     2
100
AcDbLine
 10
552.241481
 20
387.447513
 30
0.0
 11
551.799965
 21
383.330012
 31
0.0
  0
ARC
  5
867
100
AcDbEntity
  8
18
 62
     2
100
AcDbCircle
 10
559.704084
 20
420.803724
 30
0.0
 40
36.23884
100
AcDbArc
 50
180.0
 51
270.0
  0
ENDBLK
  5
868
100
AcDbEntity
  8
18
100
AcDbBlockEnd
  0
BLOCK
  5
869
100
AcDbEntity
  8
18
100
AcDbBlockBegin
  2
*D11
 70
     1
 10
0.0
 20
0.0
 30
0.0
  3
*D11
  1

  0
LINE
  5
86A
100
AcDbEntity
  8
18
 62
     2
100
AcDbLine
 10
439.065124
 20
413.906804
 30
0.0
 11
439.065124
 21
377.667964
 31
0.0
  0
LINE
  5
86B
100
AcDbEntity
  8
18
 62
     2
100
AcDbLine
 10
443.065124
 20
417.906804
 30
0.0
 11
479.303964
 21
417.906804
 31
0.0
  0
LINE
  5
86C
100
AcDbEntity
  8
18
 62
     2
100
AcDbLine
 10
439.065124
 20
381.667964
 30
0.0
 11
446.969243
 21
380.433092
 31
0.0
  0
LINE
  5
86D
100
AcDbEntity
  8
18
 62
     2
100
AcDbLine
 10
439.065124
 20
381.667964
 30
0.0
 11
446.527727
 21
384.550593
 31
0.0
  0
LINE
  5
86E
100
AcDbEntity
  8
18
 62
     2
100
AcDbLine
 10
446.969243
 20
380.433092
 30
0.0
 11
446.527727
 21
384.550593
 31
0.0
  0
LINE
  5
86F
100
AcDbEntity
  8
18
 62
     2
100
AcDbLine
 10
475.303964
 20
417.906804
 30
0.0
 11
472.421335
 21
410.444201
 31
0.0
  0
LINE
  5
870
100
AcDbEntity
  8
18
 62
     2
100
AcDbLine
 10
475.303964
 20
417.906804
 30
0.0
 11
476.538836
 21
410.002685
 31
0.0
  0
LINE
  5
871
100
AcDbEntity
  8
18
 62
     2
100
AcDbLine
 10
472.421335
 20
410.444201
 30
0.0
 11
476.538836
 21
410.002685
 31
0.0
  0
ARC
  5
872
100
AcDbEntity
  8
18
 62
     2
100
AcDbCircle
 10
439.065124
 20
417.906804
 30
0.0
 40
36.23884
100
AcDbArc
 50
270.0
 51
360.0
  0
ENDBLK
  5
873
100
AcDbEntity
  8
18
100
AcDbBlockEnd
  0
ENDSEC
  0
SECTION
  2
ENTITIES
  0
LINE
  5
34
100
AcDbEntity
  8
1
  6
CENTER
 62
     2
100
AcDbLine
 10
218.8794
 20
-30.283104
 30
0.0
 11
218.8794
 21
-86.52484
 31
0.0
  0
LINE
  5
35
100
AcDbEntity
  8
1
  6
CENTER
 62
     2
100
AcDbLine
 10
130.4894
 20
-30.283104
 30
0.0
 11
130.4894
 21
-86.52484
 31
0.0
  0
LINE
  5
36
100
AcDbEntity
  8
1
  6
CENTER
 62
     2
100
AcDbLine
 10
-434.3761
 20
33.707256
 30
0.0
 11
-434.3761
 21
-431.94056
 31
0.0
  0
LINE
  5
37
100
AcDbEntity
  8
1
  6
CENTER
 62
     2
100
AcDbLine
 10
174.6844
 20
84.919273
 30
0.0
 11
174.6844
 21
-431.94056
 31
0.0
  0
LINE
  5
38
100
AcDbEntity
  8
1
  6
DASHED
100
AcDbLine
 10
-464.4761
 20
409.228232
 30
0.0
 11
-404.2761
 21
409.228232
 31
0.0
  0
LINE
  5
39
100
AcDbEntity
  8
1
  6
DASHED
100
AcDbLine
 10
-464.4761
 20
284.228232
 30
0.0
 11
-404.2761
 21
284.228232
 31
0.0
  0
LINE
  5
3A
100
AcDbEntity
  8
1
  6
DASHED
100
AcDbLine
 10
-496.8761
 20
316.628232
 30
0.0
 11
-496.8761
 21
376.828232
 31
0.0
  0
LINE
  5
3B
100
AcDbEntity
  8
1
  6
DASHED
100
AcDbLine
 10
-371.8761
 20
316.628232
 30
0.0
 11
-371.8761
 21
376.828232
 31
0.0
  0
ARC
  5
3C
100
AcDbEntity
  8
1
  6
DASHED
100
AcDbCircle
 10
-464.4761
 20
376.828232
 30
0.0
 40
32.4
100
AcDbArc
 50
90.0
 51
180.0
  0
ARC
  5
3D
100
AcDbEntity
  8
1
  6
DASHED
100
AcDbCircle
 10
-404.2761
 20
376.828232
 30
0.0
 40
32.4
100
AcDbArc
 50
0.0
 51
90.0
  0
ARC
  5
3E
100
AcDbEntity
  8
1
  6
DASHED
100
AcDbCircle
 10
-404.2761
 20
316.628232
 30
0.0
 40
32.4
100
AcDbArc
 50
270.0
 51
360.0
  0
ARC
  5
3F
100
AcDbEntity
  8
1
  6
DASHED
100
AcDbCircle
 10
-464.4761
 20
316.628232
 30
0.0
 40
32.4
100
AcDbArc
 50
180.0
 51
270.0
  0
LINE
  5
40
100
AcDbEntity
  8
1
  6
CENTER
 62
     2
100
AcDbLine
 10
-390.1811
 20
377.653924
 30
0.0
 11
-390.1811
 21
404.612632
 31
0.0
  0
LINE
  5
41
100
AcDbEntity
  8
1
  6
CENTER
 62
     2
100
AcDbLine
 10
-403.469316
 20
390.923232
 30
0.0
 11
-376.886628
 21
390.923232
 31
0.0
  0
CIRCLE
  5
42
100
AcDbEntity
  8
1
  6
DASHED
100
AcDbCircle
 10
-390.1811
 20
390.923232
 30
0.0
 40
6.5
  0
LINE
  5
43
100
AcDbEntity
  8
1
  6
CENTER
 62
     2
100
AcDbLine
 10
-478.5711
 20
377.653924
 30
0.0
 11
-478.5711
 21
404.612632
 31
0.0
  0
LINE
  5
44
100
AcDbEntity
  8
1
  6
CENTER
 62
     2
100
AcDbLine
 10
-465.28288
 20
390.923232
 30
0.0
 11
-491.865568
 21
390.923232
 31
0.0
  0
CIRCLE
  5
45
100
AcDbEntity
  8
1
  6
DASHED
100
AcDbCircle
 10
-478.5711
 20
390.923232
 30
0.0
 40
6.5
  0
LINE
  5
46
100
AcDbEntity
  8
1
  6
CENTER
 62
     2
100
AcDbLine
 10
-390.1811
 20
315.802536
 30
0.0
 11
-390.1811
 21
288.843828
 31
0.0
  0
LINE
  5
47
100
AcDbEntity
  8
1
  6
CENTER
 62
     2
100
AcDbLine
 10
-403.469316
 20
302.533232
 30
0.0
 11
-376.886628
 21
302.533232
 31
0.0
  0
CIRCLE
  5
48
100
AcDbEntity
  8
1
  6
DASHED
100
AcDbCircle
 10
-390.1811
 20
302.533232
 30
0.0
 40
6.5
  0
LINE
  5
49
100
AcDbEntity
  8
1
  6
CENTER
 62
     2
100
AcDbLine
 10
-478.5711
 20
315.802536
 30
0.0
 11
-478.5711
 21
288.843828
 31
0.0
  0
LINE
  5
4A
100
AcDbEntity
  8
1
  6
CENTER
 62
     2
100
AcDbLine
 10
-465.28288
 20
302.533232
 30
0.0
 11
-491.865568
 21
302.533232
 31
0.0
  0
CIRCLE
  5
4B
100
AcDbEntity
  8
1
  6
DASHED
100
AcDbCircle
 10
-478.5711
 20
302.533232
 30
0.0
 40
6.5
  0
LINE
  5
4C
100
AcDbEntity
  8
1
  6
CENTER
 62
     2
100
AcDbLine
 10
-436.4761
 20
278.524484
 30
0.0
 11
-436.4761
 21
415.002188
 31
0.0
  0
LINE
  5
4D
100
AcDbEntity
  8
1
100
AcDbLine
 10
-423.3761
 20
-17.967968
 30
0.0
 11
-423.3761
 21
-9.967968
 31
0.0
  0
LINE
  5
4E
100
AcDbEntity
  8
1
100
AcDbLine
 10
-445.3761
 20
-9.967968
 30
0.0
 11
-445.3761
 21
-17.967968
 31
0.0
  0
LINE
  5
4F
100
AcDbEntity
  8
1
  6
CENTER
 62
     2
100
AcDbLine
 10
-575.6572
 20
-252.967968
 30
0.0
 11
-295.589548
 21
-252.967968
 31
0.0
  0
LINE
  5
50
100
AcDbEntity
  8
1
  6
CENTER
 62
     2
100
AcDbLine
 10
128.950064
 20
-252.967968
 30
0.0
 11
235.032652
 21
-252.967968
 31
0.0
  0
LINE
  5
51
100
AcDbEntity
  8
1
100
AcDbLine
 10
-496.8761
 20
-47.967968
 30
0.0
 11
-371.8761
 21
-47.967968
 31
0.0
  0
LINE
  5
52
100
AcDbEntity
  8
1
100
AcDbLine
 10
-463.9761
 20
-402.967968
 30
0.0
 11
-408.9761
 21
-402.967968
 31
0.0
  0
LINE
  5
53
100
AcDbEntity
  8
1
100
AcDbLine
 10
-492.8761
 20
-62.967968
 30
0.0
 11
-375.8761
 21
-62.967968
 31
0.0
  0
LINE
  5
54
100
AcDbEntity
  8
1
100
AcDbLine
 10
-496.8761
 20
-47.967968
 30
0.0
 11
-496.8761
 21
-58.967968
 31
0.0
  0
LINE
  5
55
100
AcDbEntity
  8
1
100
AcDbLine
 10
-371.8761
 20
-47.967968
 30
0.0
 11
-371.8761
 21
-58.967968
 31
0.0
  0
ARC
  5
56
100
AcDbEntity
  8
1
100
AcDbCircle
 10
-375.8761
 20
-58.967968
 30
0.0
 40
4.0
100
AcDbArc
 50
270.0
 51
360.0
  0
ARC
  5
57
100
AcDbEntity
  8
1
100
AcDbCircle
 10
-492.8761
 20
-58.967968
 30
0.0
 40
4.0
100
AcDbArc
 50
180.0
 51
270.0
  0
ARC
  5
58
100
AcDbEntity
  8
1
100
AcDbCircle
 10
-404.9761
 20
-70.967968
 30
0.0
 40
8.0
100
AcDbArc
 50
90.0
 51
180.0
  0
ARC
  5
59
100
AcDbEntity
  8
1
100
AcDbCircle
 10
-467.9761
 20
-70.967968
 30
0.0
 40
8.0
100
AcDbArc
 50
0.0
 51
90.0
  0
ARC
  5
5A
100
AcDbEntity
  8
1
100
AcDbCircle
 10
-407.9761
 20
-145.171864
 30
0.0
 40
5.0
100
AcDbArc
 50
180.0
 51
255.19054
  0
ARC
  5
5B
100
AcDbEntity
  8
1
100
AcDbCircle
 10
-464.9761
 20
-145.171864
 30
0.0
 40
5.0
100
AcDbArc
 50
284.80946
 51
360.0
  0
ARC
  5
5C
100
AcDbEntity
  8
1
100
AcDbCircle
 10
-381.687124
 20
-92.967968
 30
0.0
 40
30.0
100
AcDbArc
 50
90.0
 51
128.739425
  0
ARC
  5
5D
100
AcDbEntity
  8
1
100
AcDbCircle
 10
-412.9761
 20
-53.967968
 30
0.0
 40
20.0
100
AcDbArc
 50
281.536959
 51
308.739425
  0
ARC
  5
5E
100
AcDbEntity
  8
1
100
AcDbCircle
 10
-491.265076
 20
-92.967968
 30
0.0
 40
30.0
100
AcDbArc
 50
86.284677
 51
90.0
  0
ARC
  5
5F
100
AcDbEntity
  8
1
100
AcDbCircle
 10
-459.9761
 20
-53.967968
 30
0.0
 40
20.0
100
AcDbArc
 50
245.651186
 51
258.463041
  0
ARC
  5
60
100
AcDbEntity
  8
1
100
AcDbCircle
 10
-407.9761
 20
-78.462864
 30
0.0
 40
5.0
100
AcDbArc
 50
101.536959
 51
180.0
  0
ARC
  5
61
100
AcDbEntity
  8
1
100
AcDbCircle
 10
-464.9761
 20
-78.462864
 30
0.0
 40
5.0
100
AcDbArc
 50
0.0
 51
78.463041
  0
LINE
  5
62
100
AcDbEntity
  8
1
100
AcDbLine
 10
208.6844
 20
-146.467968
 30
0.0
 11
208.6844
 21
-359.467968
 31
0.0
  0
LINE
  5
63
100
AcDbEntity
  8
1
100
AcDbLine
 10
151.6844
 20
-146.467968
 30
0.0
 11
151.6844
 21
-359.467968
 31
0.0
  0
LINE
  5
64
100
AcDbEntity
  8
1
100
AcDbLine
 10
200.6844
 20
-146.467968
 30
0.0
 11
208.6844
 21
-146.467968
 31
0.0
  0
LINE
  5
65
100
AcDbEntity
  8
1
100
AcDbLine
 10
200.6844
 20
-359.467968
 30
0.0
 11
208.6844
 21
-359.467968
 31
0.0
  0
LINE
  5
66
100
AcDbEntity
  8
1
100
AcDbLine
 10
153.6844
 20
-402.967968
 30
0.0
 11
195.6844
 21
-402.967968
 31
0.0
  0
LINE
  5
67
100
AcDbEntity
  8
1
100
AcDbLine
 10
112.1844
 20
-47.967968
 30
0.0
 11
112.1844
 21
-58.967968
 31
0.0
  0
LINE
  5
68
100
AcDbEntity
  8
1
100
AcDbLine
 10
237.1844
 20
-47.967968
 30
0.0
 11
237.1844
 21
-58.967968
 31
0.0
  0
ARC
  5
69
100
AcDbEntity
  8
1
100
AcDbCircle
 10
116.1844
 20
-58.967968
 30
0.0
 40
4.0
100
AcDbArc
 50
180.0
 51
270.0
  0
ARC
  5
6A
100
AcDbEntity
  8
1
100
AcDbCircle
 10
233.1844
 20
-58.967968
 30
0.0
 40
4.0
100
AcDbArc
 50
270.0
 51
360.0
  0
LINE
  5
6B
100
AcDbEntity
  8
1
100
AcDbLine
 10
153.6844
 20
-137.967968
 30
0.0
 11
154.6844
 21
-137.967968
 31
0.0
  0
LINE
  5
6C
100
AcDbEntity
  8
1
100
AcDbLine
 10
153.6844
 20
-367.967968
 30
0.0
 11
154.6844
 21
-367.967968
 31
0.0
  0
LINE
  5
6D
100
AcDbEntity
  8
1
100
AcDbLine
 10
195.6844
 20
-410.467968
 30
0.0
 11
195.6844
 21
-360.930164
 31
0.0
  0
LINE
  5
6E
100
AcDbEntity
  8
1
100
AcDbLine
 10
195.6844
 20
-145.005768
 30
0.0
 11
195.6844
 21
-70.967968
 31
0.0
  0
LINE
  5
6F
100
AcDbEntity
  8
1
100
AcDbLine
 10
153.6844
 20
-410.467968
 30
0.0
 11
153.6844
 21
-367.967968
 31
0.0
  0
LINE
  5
70
100
AcDbEntity
  8
1
100
AcDbLine
 10
153.6844
 20
-137.967968
 30
0.0
 11
153.6844
 21
-70.967968
 31
0.0
  0
ARC
  5
71
100
AcDbEntity
  8
1
100
AcDbCircle
 10
203.6844
 20
-70.967968
 30
0.0
 40
8.0
100
AcDbArc
 50
90.0
 51
180.0
  0
ARC
  5
72
100
AcDbEntity
  8
1
100
AcDbCircle
 10
145.6844
 20
-70.967968
 30
0.0
 40
8.0
100
AcDbArc
 50
0.0
 51
90.0
  0
LINE
  5
73
100
AcDbEntity
  8
1
100
AcDbLine
 10
154.6844
 20
-144.741784
 30
0.0
 11
154.6844
 21
-137.967968
 31
0.0
  0
ARC
  5
74
100
AcDbEntity
  8
1
100
AcDbCircle
 10
151.6844
 20
-143.467968
 30
0.0
 40
3.0
100
AcDbArc
 50
270.0
 51
360.0
  0
LINE
  5
75
100
AcDbEntity
  8
1
100
AcDbLine
 10
154.6844
 20
-367.967968
 30
0.0
 11
154.6844
 21
-361.194152
 31
0.0
  0
ARC
  5
76
100
AcDbEntity
  8
1
100
AcDbCircle
 10
151.6844
 20
-362.467968
 30
0.0
 40
3.0
100
AcDbArc
 50
0.0
 51
90.0
  0
ARC
  5
77
100
AcDbEntity
  8
1
100
AcDbCircle
 10
200.6844
 20
-141.467968
 30
0.0
 40
5.0
100
AcDbArc
 50
180.0
 51
270.0
  0
ARC
  5
78
100
AcDbEntity
  8
1
100
AcDbCircle
 10
200.6844
 20
-364.467968
 30
0.0
 40
5.0
100
AcDbArc
 50
90.0
 51
180.0
  0
ARC
  5
79
100
AcDbEntity
  8
1
100
AcDbCircle
 10
225.6844
 20
-92.967968
 30
0.0
 40
30.0
100
AcDbArc
 50
122.922218
 51
180.0
  0
ARC
  5
7A
100
AcDbEntity
  8
1
100
AcDbCircle
 10
123.6844
 20
-92.967968
 30
0.0
 40
30.0
100
AcDbArc
 50
0.0
 51
90.0
  0
LINE
  5
7B
100
AcDbEntity
  8
1
100
AcDbLine
 10
-430.3761
 20
-92.967968
 30
0.0
 11
-438.3761
 21
-92.967968
 31
0.0
  0
LINE
  5
7C
100
AcDbEntity
  8
1
100
AcDbLine
 10
170.6844
 20
-78.462864
 30
0.0
 11
178.6844
 21
-78.462864
 31
0.0
  0
LINE
  5
7D
100
AcDbEntity
  8
1
100
AcDbLine
 10
170.6844
 20
-66.967968
 30
0.0
 11
170.6844
 21
-74.462864
 31
0.0
  0
LINE
  5
7E
100
AcDbEntity
  8
1
100
AcDbLine
 10
178.6844
 20
-66.967968
 30
0.0
 11
178.6844
 21
-74.462864
 31
0.0
  0
ARC
  5
7F
100
AcDbEntity
  8
1
100
AcDbCircle
 10
182.6844
 20
-66.967968
 30
0.0
 40
4.0
100
AcDbArc
 50
90.0
 51
180.0
  0
ARC
  5
80
100
AcDbEntity
  8
1
100
AcDbCircle
 10
166.6844
 20
-66.967968
 30
0.0
 40
4.0
100
AcDbArc
 50
0.0
 51
90.0
  0
ARC
  5
81
100
AcDbEntity
  8
1
100
AcDbCircle
 10
166.6844
 20
-74.462864
 30
0.0
 40
4.0
100
AcDbArc
 50
270.0
 51
360.0
  0
ARC
  5
82
100
AcDbEntity
  8
1
100
AcDbCircle
 10
182.6844
 20
-74.462864
 30
0.0
 40
4.0
100
AcDbArc
 50
180.0
 51
270.0
  0
LINE
  5
83
100
AcDbEntity
  8
1
100
AcDbLine
 10
-438.3761
 20
-66.967968
 30
0.0
 11
-438.3761
 21
-88.967968
 31
0.0
  0
LINE
  5
84
100
AcDbEntity
  8
1
100
AcDbLine
 10
-430.3761
 20
-66.967968
 30
0.0
 11
-430.3761
 21
-88.967968
 31
0.0
  0
ARC
  5
85
100
AcDbEntity
  8
1
100
AcDbCircle
 10
-426.3761
 20
-66.967968
 30
0.0
 40
4.0
100
AcDbArc
 50
90.0
 51
180.0
  0
ARC
  5
86
100
AcDbEntity
  8
1
100
AcDbCircle
 10
-442.3761
 20
-66.967968
 30
0.0
 40
4.0
100
AcDbArc
 50
0.0
 51
90.0
  0
ARC
  5
87
100
AcDbEntity
  8
1
100
AcDbCircle
 10
-442.3761
 20
-88.967968
 30
0.0
 40
4.0
100
AcDbArc
 50
270.0
 51
360.0
  0
ARC
  5
88
100
AcDbEntity
  8
1
100
AcDbCircle
 10
-426.3761
 20
-88.967968
 30
0.0
 40
4.0
100
AcDbArc
 50
180.0
 51
270.0
  0
LINE
  5
89
100
AcDbEntity
  8
1
100
AcDbLine
 10
-459.9761
 20
-370.81924
 30
0.0
 11
-459.9761
 21
-360.764072
 31
0.0
  0
LINE
  5
8A
100
AcDbEntity
  8
1
100
AcDbLine
 10
-412.9761
 20
-370.81924
 30
0.0
 11
-412.9761
 21
-360.764072
 31
0.0
  0
LINE
  5
8B
100
AcDbEntity
  8
1
100
AcDbLine
 10
-463.9761
 20
-410.467968
 30
0.0
 11
-463.9761
 21
-392.613612
 31
0.0
  0
LINE
  5
8C
100
AcDbEntity
  8
1
100
AcDbLine
 10
-408.9761
 20
-410.467968
 30
0.0
 11
-408.9761
 21
-392.613612
 31
0.0
  0
ARC
  5
8D
100
AcDbEntity
  8
1
100
AcDbCircle
 10
-407.9761
 20
-360.764072
 30
0.0
 40
5.0
100
AcDbArc
 50
104.80946
 51
180.0
  0
ARC
  5
8E
100
AcDbEntity
  8
1
100
AcDbCircle
 10
-464.9761
 20
-360.764072
 30
0.0
 40
5.0
100
AcDbArc
 50
0.0
 51
75.19054
  0
LINE
  5
8F
100
AcDbEntity
  8
1
100
AcDbLine
 10
153.6844
 20
-390.967968
 30
0.0
 11
195.6844
 21
-390.967968
 31
0.0
  0
LINE
  5
90
100
AcDbEntity
  8
1
  6
CENTER
 62
     2
100
AcDbLine
 10
-457.4761
 20
-421.043036
 30
0.0
 11
-457.4761
 21
-394.275428
 31
0.0
  0
LINE
  5
91
100
AcDbEntity
  8
1
  6
CENTER
 62
     2
100
AcDbLine
 10
-415.4761
 20
-421.043036
 30
0.0
 11
-415.4761
 21
-394.275428
 31
0.0
  0
LINE
  5
92
100
AcDbEntity
  8
1
  6
CENTER
 62
     2
100
AcDbLine
 10
159.6844
 20
-394.275428
 30
0.0
 11
159.6844
 21
-421.043036
 31
0.0
  0
LINE
  5
93
100
AcDbEntity
  8
1
  6
CENTER
 62
     2
100
AcDbLine
 10
189.6844
 20
-394.275428
 30
0.0
 11
189.6844
 21
-421.043036
 31
0.0
  0
LINE
  5
94
100
AcDbEntity
  8
1
100
AcDbLine
 10
-448.361264
 20
-137.967968
 30
0.0
 11
-424.590936
 21
-137.967968
 31
0.0
  0
LINE
  5
95
100
AcDbEntity
  8
1
100
AcDbLine
 10
-422.590936
 20
-139.967968
 30
0.0
 11
-422.590936
 21
-144.777668
 31
0.0
  0
LINE
  5
96
100
AcDbEntity
  8
1
100
AcDbLine
 10
-450.361264
 20
-139.967968
 30
0.0
 11
-450.361264
 21
-144.777668
 31
0.0
  0
ARC
  5
97
100
AcDbEntity
  8
1
100
AcDbCircle
 10
-424.590936
 20
-139.967968
 30
0.0
 40
2.0
100
AcDbArc
 50
0.0
 51
90.0
  0
ARC
  5
98
100
AcDbEntity
  8
1
100
AcDbCircle
 10
-448.361264
 20
-139.967968
 30
0.0
 40
2.0
100
AcDbArc
 50
90.0
 51
180.0
  0
ARC
  5
99
100
AcDbEntity
  8
1
100
AcDbCircle
 10
-419.590936
 20
-144.777668
 30
0.0
 40
3.0
100
AcDbArc
 50
180.0
 51
261.129458
  0
ARC
  5
9A
100
AcDbEntity
  8
1
100
AcDbCircle
 10
-453.361264
 20
-144.777668
 30
0.0
 40
3.0
100
AcDbArc
 50
278.870542
 51
360.0
  0
LINE
  5
9B
100
AcDbEntity
  8
1
100
AcDbLine
 10
-448.361264
 20
-367.967968
 30
0.0
 11
-424.590936
 21
-367.967968
 31
0.0
  0
LINE
  5
9C
100
AcDbEntity
  8
1
100
AcDbLine
 10
-422.590936
 20
-365.967968
 30
0.0
 11
-422.590936
 21
-361.158268
 31
0.0
  0
LINE
  5
9D
100
AcDbEntity
  8
1
100
AcDbLine
 10
-450.361264
 20
-365.967968
 30
0.0
 11
-450.361264
 21
-361.158268
 31
0.0
  0
ARC
  5
9E
100
AcDbEntity
  8
1
100
AcDbCircle
 10
-424.590936
 20
-365.967968
 30
0.0
 40
2.0
100
AcDbArc
 50
270.0
 51
360.0
  0
ARC
  5
9F
100
AcDbEntity
  8
1
100
AcDbCircle
 10
-448.361264
 20
-365.967968
 30
0.0
 40
2.0
100
AcDbArc
 50
180.0
 51
270.0
  0
ARC
  5
A0
100
AcDbEntity
  8
1
100
AcDbCircle
 10
-419.590936
 20
-361.158268
 30
0.0
 40
3.0
100
AcDbArc
 50
98.870542
 51
180.0
  0
ARC
  5
A1
100
AcDbEntity
  8
1
100
AcDbCircle
 10
-453.361264
 20
-361.158268
 30
0.0
 40
3.0
100
AcDbArc
 50
0.0
 51
81.129458
  0
ARC
  5
A2
100
AcDbEntity
  8
1
100
AcDbCircle
 10
200.6844
 20
-145.005768
 30
0.0
 40
5.0
100
AcDbArc
 50
180.0
 51
270.0
  0
ARC
  5
A3
100
AcDbEntity
  8
1
100
AcDbCircle
 10
151.6844
 20
-144.741784
 30
0.0
 40
3.0
100
AcDbArc
 50
270.0
 51
360.0
  0
ARC
  5
A4
100
AcDbEntity
  8
1
100
AcDbCircle
 10
200.6844
 20
-360.930164
 30
0.0
 40
5.0
100
AcDbArc
 50
90.0
 51
180.0
  0
ARC
  5
A5
100
AcDbEntity
  8
1
100
AcDbCircle
 10
151.6844
 20
-361.194152
 30
0.0
 40
3.0
100
AcDbArc
 50
0.0
 51
90.0
  0
ARC
  5
A6
100
AcDbEntity
  8
1
100
AcDbCircle
 10
-332.539652
 20
-209.91608
 30
0.0
 40
9.0
100
AcDbArc
 50
172.573565
 51
232.426435
  0
LINE
  5
A7
100
AcDbEntity
  8
1
100
AcDbLine
 10
-547.161464
 20
-217.967968
 30
0.0
 11
-537.82682
 21
-217.967968
 31
0.0
  0
LINE
  5
A8
100
AcDbEntity
  8
1
100
AcDbLine
 10
-335.12538
 20
-217.967968
 30
0.0
 11
-325.790736
 21
-217.967968
 31
0.0
  0
LINE
  5
A9
100
AcDbEntity
  8
1
100
AcDbLine
 10
-547.161464
 20
-287.967968
 30
0.0
 11
-537.82682
 21
-287.967968
 31
0.0
  0
LINE
  5
AA
100
AcDbEntity
  8
1
100
AcDbLine
 10
-335.12538
 20
-287.967968
 30
0.0
 11
-325.790736
 21
-287.967968
 31
0.0
  0
ARC
  5
AB
100
AcDbEntity
  8
1
100
AcDbCircle
 10
-351.380272
 20
-207.460272
 30
0.0
 40
10.0
100
AcDbArc
 50
352.573565
 51
28.137058
  0
ARC
  5
AC
100
AcDbEntity
  8
1
100
AcDbCircle
 10
-344.125464
 20
-224.974932
 30
0.0
 40
10.0
100
AcDbArc
 50
16.862942
 51
52.426435
  0
ARC
  5
AD
100
AcDbEntity
  8
1
100
AcDbCircle
 10
-393.424212
 20
-149.03152
 30
0.0
 40
9.0
100
AcDbArc
 50
217.573565
 51
277.426435
  0
ARC
  5
AE
100
AcDbEntity
  8
1
100
AcDbCircle
 10
-479.527984
 20
-149.03152
 30
0.0
 40
9.0
100
AcDbArc
 50
262.573565
 51
322.426435
  0
ARC
  5
AF
100
AcDbEntity
  8
1
100
AcDbCircle
 10
-436.4761
 20
-252.967968
 30
0.0
 40
106.5
100
AcDbArc
 50
28.137058
 51
61.862942
  0
ARC
  5
B0
100
AcDbEntity
  8
1
100
AcDbCircle
 10
-436.4761
 20
-252.967968
 30
0.0
 40
106.5
100
AcDbArc
 50
73.137058
 51
106.862942
  0
ARC
  5
B1
100
AcDbEntity
  8
1
100
AcDbCircle
 10
-390.968404
 20
-167.87214
 30
0.0
 40
10.0
100
AcDbArc
 50
61.862942
 51
97.426435
  0
ARC
  5
B2
100
AcDbEntity
  8
1
100
AcDbCircle
 10
-481.983796
 20
-167.87214
 30
0.0
 40
10.0
100
AcDbArc
 50
82.573565
 51
118.137058
  0
ARC
  5
B3
100
AcDbEntity
  8
1
100
AcDbCircle
 10
-408.483064
 20
-160.617332
 30
0.0
 40
10.0
100
AcDbArc
 50
37.573565
 51
73.137058
  0
ARC
  5
B4
100
AcDbEntity
  8
1
100
AcDbCircle
 10
-464.469136
 20
-160.617332
 30
0.0
 40
10.0
100
AcDbArc
 50
106.862942
 51
142.426435
  0
ARC
  5
B5
100
AcDbEntity
  8
1
100
AcDbCircle
 10
-396.4761
 20
-151.617248
 30
0.0
 40
5.0
100
AcDbArc
 50
180.0
 51
220.273133
  0
ARC
  5
B6
100
AcDbEntity
  8
1
100
AcDbCircle
 10
-476.4761
 20
-151.617248
 30
0.0
 40
5.0
100
AcDbArc
 50
319.726867
 51
360.0
  0
ARC
  5
B7
100
AcDbEntity
  8
1
100
AcDbCircle
 10
-335.12538
 20
-212.967968
 30
0.0
 40
5.0
100
AcDbArc
 50
229.726867
 51
270.0
  0
ARC
  5
B8
100
AcDbEntity
  8
1
100
AcDbCircle
 10
-436.4761
 20
-252.967968
 30
0.0
 40
106.5
100
AcDbArc
 50
343.137058
 51
16.862942
  0
ARC
  5
B9
100
AcDbEntity
  8
1
100
AcDbCircle
 10
-332.539652
 20
-296.019852
 30
0.0
 40
9.0
100
AcDbArc
 50
127.573565
 51
187.426435
  0
ARC
  5
BA
100
AcDbEntity
  8
1
100
AcDbCircle
 10
-351.380272
 20
-298.475664
 30
0.0
 40
10.0
100
AcDbArc
 50
331.862942
 51
7.426435
  0
ARC
  5
BB
100
AcDbEntity
  8
1
100
AcDbCircle
 10
-344.125464
 20
-280.961004
 30
0.0
 40
10.0
100
AcDbArc
 50
307.573565
 51
343.137058
  0
ARC
  5
BC
100
AcDbEntity
  8
1
100
AcDbCircle
 10
-335.12538
 20
-292.967968
 30
0.0
 40
5.0
100
AcDbArc
 50
90.0
 51
130.273133
  0
ARC
  5
BD
100
AcDbEntity
  8
1
100
AcDbCircle
 10
-436.4761
 20
-252.967968
 30
0.0
 40
106.5
100
AcDbArc
 50
118.137058
 51
151.862942
  0
ARC
  5
BE
100
AcDbEntity
  8
1
100
AcDbCircle
 10
-540.412548
 20
-209.91608
 30
0.0
 40
9.0
100
AcDbArc
 50
307.573565
 51
7.426435
  0
ARC
  5
BF
100
AcDbEntity
  8
1
100
AcDbCircle
 10
-521.571924
 20
-207.460272
 30
0.0
 40
10.0
100
AcDbArc
 50
151.862942
 51
187.426435
  0
ARC
  5
C0
100
AcDbEntity
  8
1
100
AcDbCircle
 10
-528.826736
 20
-224.974932
 30
0.0
 40
10.0
100
AcDbArc
 50
127.573565
 51
163.137058
  0
ARC
  5
C1
100
AcDbEntity
  8
1
100
AcDbCircle
 10
-537.82682
 20
-212.967968
 30
0.0
 40
5.0
100
AcDbArc
 50
270.0
 51
310.273133
  0
ARC
  5
C2
100
AcDbEntity
  8
1
100
AcDbCircle
 10
-436.4761
 20
-252.967968
 30
0.0
 40
106.5
100
AcDbArc
 50
163.137058
 51
196.862942
  0
ARC
  5
C3
100
AcDbEntity
  8
1
100
AcDbCircle
 10
-540.412548
 20
-296.019852
 30
0.0
 40
9.0
100
AcDbArc
 50
352.573565
 51
52.426435
  0
ARC
  5
C4
100
AcDbEntity
  8
1
100
AcDbCircle
 10
-521.571924
 20
-298.475664
 30
0.0
 40
10.0
100
AcDbArc
 50
172.573565
 51
208.137058
  0
ARC
  5
C5
100
AcDbEntity
  8
1
100
AcDbCircle
 10
-528.826736
 20
-280.961004
 30
0.0
 40
10.0
100
AcDbArc
 50
196.862942
 51
232.426435
  0
ARC
  5
C6
100
AcDbEntity
  8
1
100
AcDbCircle
 10
-537.82682
 20
-292.967968
 30
0.0
 40
5.0
100
AcDbArc
 50
49.726867
 51
90.0
  0
LINE
  5
C7
100
AcDbEntity
  8
1
100
AcDbLine
 10
-471.4761
 20
-361.934012
 30
0.0
 11
-471.4761
 21
-354.318688
 31
0.0
  0
LINE
  5
C8
100
AcDbEntity
  8
1
100
AcDbLine
 10
-401.4761
 20
-361.934012
 30
0.0
 11
-401.4761
 21
-354.318688
 31
0.0
  0
ARC
  5
C9
100
AcDbEntity
  8
1
100
AcDbCircle
 10
-436.4761
 20
-252.967968
 30
0.0
 40
106.5
100
AcDbArc
 50
298.137058
 51
331.862942
  0
ARC
  5
CA
100
AcDbEntity
  8
1
100
AcDbCircle
 10
-393.424212
 20
-356.904416
 30
0.0
 40
9.0
100
AcDbArc
 50
82.573565
 51
142.426435
  0
ARC
  5
CB
100
AcDbEntity
  8
1
100
AcDbCircle
 10
-436.4761
 20
-252.967968
 30
0.0
 40
106.5
100
AcDbArc
 50
208.137058
 51
241.862942
  0
ARC
  5
CC
100
AcDbEntity
  8
1
100
AcDbCircle
 10
-436.4761
 20
-252.967968
 30
0.0
 40
106.5
100
AcDbArc
 50
253.137058
 51
286.862942
  0
ARC
  5
CD
100
AcDbEntity
  8
1
100
AcDbCircle
 10
-479.527984
 20
-356.904416
 30
0.0
 40
9.0
100
AcDbArc
 50
37.573565
 51
97.426435
  0
ARC
  5
CE
100
AcDbEntity
  8
1
100
AcDbCircle
 10
-390.968404
 20
-338.063792
 30
0.0
 40
10.0
100
AcDbArc
 50
262.573565
 51
298.137058
  0
ARC
  5
CF
100
AcDbEntity
  8
1
100
AcDbCircle
 10
-408.483064
 20
-345.318604
 30
0.0
 40
10.0
100
AcDbArc
 50
286.862942
 51
322.426435
  0
ARC
  5
D0
100
AcDbEntity
  8
1
100
AcDbCircle
 10
-481.983796
 20
-338.063792
 30
0.0
 40
10.0
100
AcDbArc
 50
241.862942
 51
277.426435
  0
ARC
  5
D1
100
AcDbEntity
  8
1
100
AcDbCircle
 10
-464.469136
 20
-345.318604
 30
0.0
 40
10.0
100
AcDbArc
 50
217.573565
 51
253.137058
  0
ARC
  5
D2
100
AcDbEntity
  8
1
100
AcDbCircle
 10
-476.4761
 20
-354.318688
 30
0.0
 40
5.0
100
AcDbArc
 50
0.0
 51
40.273133
  0
ARC
  5
D3
100
AcDbEntity
  8
1
100
AcDbCircle
 10
-396.4761
 20
-354.318688
 30
0.0
 40
5.0
100
AcDbArc
 50
139.726867
 51
180.0
  0
LINE
  5
D4
100
AcDbEntity
  8
1
100
AcDbLine
 10
-323.11976
 20
-227.936172
 30
0.0
 11
-327.074316
 21
-230.219336
 31
0.0
  0
LINE
  5
D5
100
AcDbEntity
  8
1
100
AcDbLine
 10
-549.832436
 20
-277.99976
 30
0.0
 11
-545.87788
 21
-275.716596
 31
0.0
  0
LINE
  5
D6
100
AcDbEntity
  8
1
100
AcDbLine
 10
-549.832436
 20
-227.936172
 30
0.0
 11
-545.87788
 21
-230.219336
 31
0.0
  0
LINE
  5
D7
100
AcDbEntity
  8
1
100
AcDbLine
 10
-323.11976
 20
-277.99976
 30
0.0
 11
-327.074316
 21
-275.716596
 31
0.0
  0
ARC
  5
D8
100
AcDbEntity
  8
1
100
AcDbCircle
 10
-436.4761
 20
-252.967968
 30
0.0
 40
117.5
100
AcDbArc
 50
163.39845
 51
166.60155
  0
ARC
  5
D9
100
AcDbEntity
  8
1
100
AcDbCircle
 10
-436.4761
 20
-252.967968
 30
0.0
 40
117.5
100
AcDbArc
 50
193.39845
 51
196.60155
  0
ARC
  5
DA
100
AcDbEntity
  8
1
100
AcDbCircle
 10
-436.4761
 20
-252.967968
 30
0.0
 40
117.5
100
AcDbArc
 50
343.39845
 51
346.60155
  0
ARC
  5
DB
100
AcDbEntity
  8
1
100
AcDbCircle
 10
-436.4761
 20
-252.967968
 30
0.0
 40
117.5
100
AcDbArc
 50
13.39845
 51
16.60155
  0
ARC
  5
DC
100
AcDbEntity
  8
1
100
AcDbCircle
 10
-325.790736
 20
-219.967968
 30
0.0
 40
2.0
100
AcDbArc
 50
16.60155
 51
90.0
  0
ARC
  5
DD
100
AcDbEntity
  8
1
100
AcDbCircle
 10
-324.11976
 20
-226.204124
 30
0.0
 40
2.0
100
AcDbArc
 50
300.0
 51
13.39845
  0
ARC
  5
DE
100
AcDbEntity
  8
1
100
AcDbCircle
 10
-324.11976
 20
-279.731812
 30
0.0
 40
2.0
100
AcDbArc
 50
346.60155
 51
60.0
  0
ARC
  5
DF
100
AcDbEntity
  8
1
100
AcDbCircle
 10
-325.790736
 20
-285.967968
 30
0.0
 40
2.0
100
AcDbArc
 50
270.0
 51
343.39845
  0
ARC
  5
E0
100
AcDbEntity
  8
1
100
AcDbCircle
 10
-323.074316
 20
-237.14754
 30
0.0
 40
8.0
100
AcDbArc
 50
120.0
 51
187.941946
  0
ARC
  5
E1
100
AcDbEntity
  8
1
100
AcDbCircle
 10
-323.074316
 20
-268.788392
 30
0.0
 40
8.0
100
AcDbArc
 50
172.058054
 51
240.0
  0
ARC
  5
E2
100
AcDbEntity
  8
1
100
AcDbCircle
 10
-549.87788
 20
-237.14754
 30
0.0
 40
8.0
100
AcDbArc
 50
352.058054
 51
60.0
  0
ARC
  5
E3
100
AcDbEntity
  8
1
100
AcDbCircle
 10
-549.87788
 20
-268.788392
 30
0.0
 40
8.0
100
AcDbArc
 50
300.0
 51
7.941946
  0
ARC
  5
E4
100
AcDbEntity
  8
1
100
AcDbCircle
 10
-548.832436
 20
-279.731812
 30
0.0
 40
2.0
100
AcDbArc
 50
120.0
 51
193.39845
  0
ARC
  5
E5
100
AcDbEntity
  8
1
100
AcDbCircle
 10
-547.161464
 20
-285.967968
 30
0.0
 40
2.0
100
AcDbArc
 50
196.60155
 51
270.0
  0
ARC
  5
E6
100
AcDbEntity
  8
1
100
AcDbCircle
 10
-548.832436
 20
-226.204124
 30
0.0
 40
2.0
100
AcDbArc
 50
166.60155
 51
240.0
  0
ARC
  5
E7
100
AcDbEntity
  8
1
100
AcDbCircle
 10
-547.161464
 20
-219.967968
 30
0.0
 40
2.0
100
AcDbArc
 50
90.0
 51
163.39845
  0
LINE
  5
E8
100
AcDbEntity
  8
1
100
AcDbLine
 10
-401.4761
 20
-151.617248
 30
0.0
 11
-401.4761
 21
-144.001924
 31
0.0
  0
LINE
  5
E9
100
AcDbEntity
  8
1
100
AcDbLine
 10
-471.4761
 20
-151.617248
 30
0.0
 11
-471.4761
 21
-144.001924
 31
0.0
  0
ARC
  5
EA
100
AcDbEntity
  8
1
100
AcDbCircle
 10
-401.535528
 20
-122.56798
 30
0.0
 40
10.5
100
AcDbArc
 50
108.587137
 51
160.219808
  0
ARC
  5
EB
100
AcDbEntity
  8
1
100
AcDbCircle
 10
-471.416672
 20
-122.56798
 30
0.0
 40
10.5
100
AcDbArc
 50
19.780192
 51
71.412863
  0
ARC
  5
EC
100
AcDbEntity
  8
1
100
AcDbCircle
 10
-406.4761
 20
-107.87646
 30
0.0
 40
5.0
100
AcDbArc
 50
288.587137
 51
76.506601
  0
ARC
  5
ED
100
AcDbEntity
  8
1
100
AcDbCircle
 10
-466.4761
 20
-107.87646
 30
0.0
 40
5.0
100
AcDbArc
 50
103.493399
 51
251.412863
  0
ARC
  5
EE
100
AcDbEntity
  8
1
100
AcDbCircle
 10
-402.9761
 20
-93.290508
 30
0.0
 40
10.0
100
AcDbArc
 50
180.0
 51
256.506601
  0
ARC
  5
EF
100
AcDbEntity
  8
1
100
AcDbCircle
 10
-469.9761
 20
-93.290508
 30
0.0
 40
10.0
100
AcDbArc
 50
283.493399
 51
360.0
  0
LINE
  5
F0
100
AcDbEntity
  8
1
100
AcDbLine
 10
-412.9761
 20
-145.171864
 30
0.0
 11
-412.9761
 21
-135.116696
 31
0.0
  0
LINE
  5
F1
100
AcDbEntity
  8
1
100
AcDbLine
 10
-412.9761
 20
-119.678524
 30
0.0
 11
-412.9761
 21
-70.967968
 31
0.0
  0
LINE
  5
F2
100
AcDbEntity
  8
1
100
AcDbLine
 10
-459.9761
 20
-145.171864
 30
0.0
 11
-459.9761
 21
-135.116696
 31
0.0
  0
LINE
  5
F3
100
AcDbEntity
  8
1
100
AcDbLine
 10
-459.9761
 20
-119.678524
 30
0.0
 11
-459.9761
 21
-70.967968
 31
0.0
  0
ARC
  5
F4
100
AcDbEntity
  8
1
100
AcDbCircle
 10
-402.829624
 20
-127.397608
 30
0.0
 40
12.0
100
AcDbArc
 50
135.686801
 51
257.613888
  0
ARC
  5
F5
100
AcDbEntity
  8
1
100
AcDbCircle
 10
-470.122576
 20
-127.397608
 30
0.0
 40
12.0
100
AcDbArc
 50
282.386112
 51
44.313199
  0
ARC
  5
F6
100
AcDbEntity
  8
1
100
AcDbCircle
 10
-406.4761
 20
-144.001924
 30
0.0
 40
5.0
100
AcDbArc
 50
0.0
 51
77.613888
  0
ARC
  5
F7
100
AcDbEntity
  8
1
100
AcDbCircle
 10
-466.4761
 20
-144.001924
 30
0.0
 40
5.0
100
AcDbArc
 50
102.386112
 51
180.0
  0
ARC
  5
F8
100
AcDbEntity
  8
1
100
AcDbCircle
 10
-417.9761
 20
-135.116696
 30
0.0
 40
5.0
100
AcDbArc
 50
0.0
 51
27.004714
  0
ARC
  5
F9
100
AcDbEntity
  8
1
100
AcDbCircle
 10
-417.9761
 20
-119.678524
 30
0.0
 40
5.0
100
AcDbArc
 50
332.995286
 51
360.0
  0
ARC
  5
FA
100
AcDbEntity
  8
1
100
AcDbCircle
 10
-454.9761
 20
-119.678524
 30
0.0
 40
5.0
100
AcDbArc
 50
180.0
 51
207.004714
  0
ARC
  5
FB
100
AcDbEntity
  8
1
100
AcDbCircle
 10
-454.9761
 20
-135.116696
 30
0.0
 40
5.0
100
AcDbArc
 50
152.995286
 51
180.0
  0
ARC
  5
FC
100
AcDbEntity
  8
1
100
AcDbCircle
 10
-402.829624
 20
-378.538324
 30
0.0
 40
12.0
100
AcDbArc
 50
102.386112
 51
224.313199
  0
ARC
  5
FD
100
AcDbEntity
  8
1
100
AcDbCircle
 10
-470.122576
 20
-378.538324
 30
0.0
 40
12.0
100
AcDbArc
 50
315.686801
 51
77.613888
  0
ARC
  5
FE
100
AcDbEntity
  8
1
100
AcDbCircle
 10
-466.4761
 20
-361.934012
 30
0.0
 40
5.0
100
AcDbArc
 50
180.0
 51
257.613888
  0
ARC
  5
FF
100
AcDbEntity
  8
1
100
AcDbCircle
 10
-406.4761
 20
-361.934012
 30
0.0
 40
5.0
100
AcDbArc
 50
282.386112
 51
360.0
  0
ARC
  5
100
100
AcDbEntity
  8
1
100
AcDbCircle
 10
-401.535528
 20
-383.367952
 30
0.0
 40
10.5
100
AcDbArc
 50
199.780192
 51
216.619214
  0
ARC
  5
101
100
AcDbEntity
  8
1
100
AcDbCircle
 10
-471.416672
 20
-383.367952
 30
0.0
 40
10.5
100
AcDbArc
 50
323.380786
 51
340.219808
  0
ARC
  5
102
100
AcDbEntity
  8
1
100
AcDbCircle
 10
-413.9761
 20
-392.613612
 30
0.0
 40
5.0
100
AcDbArc
 50
0.0
 51
36.619214
  0
ARC
  5
103
100
AcDbEntity
  8
1
100
AcDbCircle
 10
-458.9761
 20
-392.613612
 30
0.0
 40
5.0
100
AcDbArc
 50
143.380786
 51
180.0
  0
ARC
  5
104
100
AcDbEntity
  8
1
100
AcDbCircle
 10
-417.9761
 20
-370.81924
 30
0.0
 40
5.0
100
AcDbArc
 50
332.995286
 51
360.0
  0
ARC
  5
105
100
AcDbEntity
  8
1
100
AcDbCircle
 10
-454.9761
 20
-370.81924
 30
0.0
 40
5.0
100
AcDbArc
 50
180.0
 51
207.004714
  0
CIRCLE
  5
106
100
AcDbEntity
  8
1
100
AcDbCircle
 10
-436.4761
 20
-252.967968
 30
0.0
 40
81.5
  0
LINE
  5
107
100
AcDbEntity
  8
1
100
AcDbLine
 10
-448.871788
 20
-35.467968
 30
0.0
 11
-413.3761
 21
-35.467968
 31
0.0
  0
LINE
  5
108
100
AcDbEntity
  8
1
100
AcDbLine
 10
-413.3761
 20
-41.467968
 30
0.0
 11
-413.3761
 21
-35.467968
 31
0.0
  0
LINE
  5
109
100
AcDbEntity
  8
1
100
AcDbLine
 10
-420.0861
 20
-47.967968
 30
0.0
 11
-420.0861
 21
-41.467968
 31
0.0
  0
LINE
  5
10A
100
AcDbEntity
  8
1
100
AcDbLine
 10
-448.6661
 20
-47.967968
 30
0.0
 11
-448.6661
 21
-41.467968
 31
0.0
  0
LINE
  5
10B
100
AcDbEntity
  8
1
100
AcDbLine
 10
-441.8761
 20
-35.467968
 30
0.0
 11
-441.8761
 21
-29.689656
 31
0.0
  0
LINE
  5
10C
100
AcDbEntity
  8
1
100
AcDbLine
 10
-441.8761
 20
-29.689656
 30
0.0
 11
-440.6261
 21
-28.967968
 31
0.0
  0
LINE
  5
10D
100
AcDbEntity
  8
1
100
AcDbLine
 10
-440.6261
 20
-28.967968
 30
0.0
 11
-428.1261
 21
-28.967968
 31
0.0
  0
LINE
  5
10E
100
AcDbEntity
  8
1
100
AcDbLine
 10
-438.1261
 20
-35.467968
 30
0.0
 11
-438.1261
 21
-29.689656
 31
0.0
  0
ARC
  5
10F
100
AcDbEntity
  8
1
100
AcDbCircle
 10
-440.0011
 20
-32.100032
 30
0.0
 40
3.053776
100
AcDbArc
 50
52.121121
 51
127.878879
  0
LINE
  5
110
100
AcDbEntity
  8
1
100
AcDbLine
 10
-426.8761
 20
-35.467968
 30
0.0
 11
-426.8761
 21
-29.689656
 31
0.0
  0
LINE
  5
111
100
AcDbEntity
  8
1
100
AcDbLine
 10
-426.8761
 20
-29.689656
 30
0.0
 11
-428.1261
 21
-28.967968
 31
0.0
  0
LINE
  5
112
100
AcDbEntity
  8
1
100
AcDbLine
 10
-430.6261
 20
-35.467968
 30
0.0
 11
-430.6261
 21
-29.689656
 31
0.0
  0
ARC
  5
113
100
AcDbEntity
  8
1
100
AcDbCircle
 10
-428.7511
 20
-32.100032
 30
0.0
 40
3.053776
100
AcDbArc
 50
52.121121
 51
127.878879
  0
ARC
  5
114
100
AcDbEntity
  8
1
100
AcDbCircle
 10
-434.3761
 20
-40.296256
 30
0.0
 40
11.25
100
AcDbArc
 50
70.528781
 51
109.471223
  0
LINE
  5
115
100
AcDbEntity
  8
1
100
AcDbLine
 10
-430.3761
 20
-26.667968
 30
0.0
 11
-438.3761
 21
-26.667968
 31
0.0
  0
ARC
  5
116
100
AcDbEntity
  8
1
100
AcDbCircle
 10
-434.3761
 20
-32.734632
 30
0.0
 40
7.266668
100
AcDbArc
 50
56.601512
 51
123.398491
  0
LINE
  5
117
100
AcDbEntity
  8
1
 62
     2
100
AcDbLine
 10
-431.0526
 20
-26.272528
 30
0.0
 11
-431.0526
 21
-28.967968
 31
0.0
  0
LINE
  5
118
100
AcDbEntity
  8
1
 62
     2
100
AcDbLine
 10
-430.9173
 20
-41.467968
 30
0.0
 11
-430.3761
 21
-43.467968
 31
0.0
  0
LINE
  5
119
100
AcDbEntity
  8
1
 62
     2
100
AcDbLine
 10
-430.3761
 20
-45.467968
 30
0.0
 11
-431.0526
 21
-47.967968
 31
0.0
  0
LINE
  5
11A
100
AcDbEntity
  8
1
 62
     2
100
AcDbLine
 10
-437.6996
 20
-26.272528
 30
0.0
 11
-437.6996
 21
-28.967968
 31
0.0
  0
LINE
  5
11B
100
AcDbEntity
  8
1
 62
     2
100
AcDbLine
 10
-437.8349
 20
-41.467968
 30
0.0
 11
-438.3761
 21
-43.467968
 31
0.0
  0
LINE
  5
11C
100
AcDbEntity
  8
1
 62
     2
100
AcDbLine
 10
-438.3761
 20
-45.467968
 30
0.0
 11
-437.6996
 21
-47.967968
 31
0.0
  0
LINE
  5
11D
100
AcDbEntity
  8
1
100
AcDbLine
 10
-430.3761
 20
-47.967968
 30
0.0
 11
-430.3761
 21
-41.467968
 31
0.0
  0
LINE
  5
11E
100
AcDbEntity
  8
1
100
AcDbLine
 10
-430.3761
 20
-28.967968
 30
0.0
 11
-430.3761
 21
-26.667968
 31
0.0
  0
LINE
  5
11F
100
AcDbEntity
  8
1
100
AcDbLine
 10
-438.3761
 20
-47.967968
 30
0.0
 11
-438.3761
 21
-41.467968
 31
0.0
  0
LINE
  5
120
100
AcDbEntity
  8
1
100
AcDbLine
 10
-438.3761
 20
-28.967968
 30
0.0
 11
-438.3761
 21
-26.667968
 31
0.0
  0
LINE
  5
121
100
AcDbEntity
  8
1
100
AcDbLine
 10
133.6844
 20
-41.467968
 30
0.0
 11
133.6844
 21
-37.218412
 31
0.0
  0
LINE
  5
122
100
AcDbEntity
  8
1
  6
CENTER
 62
     2
100
AcDbLine
 10
143.6844
 20
-56.703136
 30
0.0
 11
143.6844
 21
-20.388532
 31
0.0
  0
LINE
  5
123
100
AcDbEntity
  8
1
100
AcDbLine
 10
147.121956
 20
-28.967968
 30
0.0
 11
150.1844
 21
-28.967968
 31
0.0
  0
LINE
  5
124
100
AcDbEntity
  8
1
100
AcDbLine
 10
150.1844
 20
-35.467968
 30
0.0
 11
150.1844
 21
-28.967968
 31
0.0
  0
LINE
  5
125
100
AcDbEntity
  8
1
100
AcDbLine
 10
143.6844
 20
-35.467968
 30
0.0
 11
143.6844
 21
-32.967968
 31
0.0
  0
ARC
  5
126
100
AcDbEntity
  8
1
100
AcDbCircle
 10
146.9344
 20
-36.646724
 30
0.0
 40
7.67876
100
AcDbArc
 50
64.96034
 51
88.600408
  0
LINE
  5
127
100
AcDbEntity
  8
1
100
AcDbLine
 10
188.9744
 20
-47.967968
 30
0.0
 11
188.9744
 21
-41.467968
 31
0.0
  0
LINE
  5
128
100
AcDbEntity
  8
1
100
AcDbLine
 10
160.3944
 20
-47.967968
 30
0.0
 11
160.3944
 21
-41.467968
 31
0.0
  0
LINE
  5
129
100
AcDbEntity
  8
1
 62
     2
100
AcDbLine
 10
147.1432
 20
-41.467968
 30
0.0
 11
147.6844
 21
-43.467968
 31
0.0
  0
LINE
  5
12A
100
AcDbEntity
  8
1
 62
     2
100
AcDbLine
 10
147.6844
 20
-45.467968
 30
0.0
 11
147.0079
 21
-47.967968
 31
0.0
  0
LINE
  5
12B
100
AcDbEntity
  8
1
 62
     2
100
AcDbLine
 10
140.2256
 20
-41.467968
 30
0.0
 11
139.6844
 21
-43.467968
 31
0.0
  0
LINE
  5
12C
100
AcDbEntity
  8
1
 62
     2
100
AcDbLine
 10
139.6844
 20
-45.467968
 30
0.0
 11
140.3609
 21
-47.967968
 31
0.0
  0
LINE
  5
12D
100
AcDbEntity
  8
1
100
AcDbLine
 10
147.6844
 20
-47.967968
 30
0.0
 11
147.6844
 21
-41.467968
 31
0.0
  0
LINE
  5
12E
100
AcDbEntity
  8
1
100
AcDbLine
 10
147.6844
 20
-28.967968
 30
0.0
 11
147.6844
 21
-26.967968
 31
0.0
  0
LINE
  5
12F
100
AcDbEntity
  8
1
100
AcDbLine
 10
139.6844
 20
-47.967968
 30
0.0
 11
139.6844
 21
-41.467968
 31
0.0
  0
LINE
  5
130
100
AcDbEntity
  8
1
  6
CENTER
 62
     2
100
AcDbLine
 10
-390.1811
 20
-34.511368
 30
0.0
 11
-390.1811
 21
-88.573968
 31
0.0
  0
LINE
  5
131
100
AcDbEntity
  8
1
  6
CENTER
 62
     2
100
AcDbLine
 10
-478.5711
 20
-30.283104
 30
0.0
 11
-478.5711
 21
-88.573968
 31
0.0
  0
LINE
  5
132
100
AcDbEntity
  8
1
100
AcDbLine
 10
-423.3761
 20
-35.467968
 30
0.0
 11
-423.3761
 21
-24.467968
 31
0.0
  0
LINE
  5
133
100
AcDbEntity
  8
1
100
AcDbLine
 10
-526.421916
 20
347.173128
 30
0.0
 11
-526.421916
 21
349.283332
 31
0.0
  0
LINE
  5
134
100
AcDbEntity
  8
1
100
AcDbLine
 10
-542.587868
 20
335.728232
 30
0.0
 11
-542.587868
 21
360.728232
 31
0.0
  0
LINE
  5
135
100
AcDbEntity
  8
1
100
AcDbLine
 10
-539.440636
 20
359.594492
 30
0.0
 11
-531.710604
 21
356.809872
 31
0.0
  0
LINE
  5
136
100
AcDbEntity
  8
1
100
AcDbLine
 10
-531.710604
 20
339.646592
 30
0.0
 11
-539.943524
 21
336.680812
 31
0.0
  0
ARC
  5
137
100
AcDbEntity
  8
1
100
AcDbCircle
 10
-538.587868
 20
332.917544
 30
0.0
 40
4.0
100
AcDbArc
 50
109.810741
 51
180.0
  0
ARC
  5
138
100
AcDbEntity
  8
1
100
AcDbCircle
 10
-534.421916
 20
349.283332
 30
0.0
 40
8.0
100
AcDbArc
 50
0.0
 51
70.189259
  0
ARC
  5
139
100
AcDbEntity
  8
1
100
AcDbCircle
 10
-534.421916
 20
347.173128
 30
0.0
 40
8.0
100
AcDbArc
 50
289.810741
 51
360.0
  0
LINE
  5
13A
100
AcDbEntity
  8
1
100
AcDbLine
 10
-539.943524
 20
335.728232
 30
0.0
 11
-537.181044
 21
335.728232
 31
0.0
  0
LINE
  5
13B
100
AcDbEntity
  8
1
100
AcDbLine
 10
163.6844
 20
-157.897644
 30
0.0
 11
151.6844
 21
-157.897644
 31
0.0
  0
LINE
  5
13C
100
AcDbEntity
  8
1
100
AcDbLine
 10
188.6844
 20
-157.897644
 30
0.0
 11
208.6844
 21
-157.897644
 31
0.0
  0
ARC
  5
13D
100
AcDbEntity
  8
1
100
AcDbCircle
 10
141.15528
 20
-213.360232
 30
0.0
 40
23.621032
100
AcDbArc
 50
0.0
 51
17.489166
  0
ARC
  5
13E
100
AcDbEntity
  8
1
100
AcDbCircle
 10
152.984516
 20
-213.360232
 30
0.0
 40
11.791796
100
AcDbArc
 50
335.148597
 51
360.0
  0
ARC
  5
13F
100
AcDbEntity
  8
1
100
AcDbCircle
 10
211.21352
 20
-213.360232
 30
0.0
 40
23.621032
100
AcDbArc
 50
162.510834
 51
180.0
  0
ARC
  5
140
100
AcDbEntity
  8
1
100
AcDbCircle
 10
199.384284
 20
-213.360232
 30
0.0
 40
11.791796
100
AcDbArc
 50
180.0
 51
196.873049
  0
LINE
  5
141
100
AcDbEntity
  8
1
100
AcDbLine
 10
151.6844
 20
-206.261512
 30
0.0
 11
163.6844
 21
-206.261512
 31
0.0
  0
LINE
  5
142
100
AcDbEntity
  8
1
100
AcDbLine
 10
188.6844
 20
-206.261512
 30
0.0
 11
208.6844
 21
-206.261512
 31
0.0
  0
LINE
  5
143
100
AcDbEntity
  8
1
100
AcDbLine
 10
151.6844
 20
-218.315928
 30
0.0
 11
163.6844
 21
-218.315928
 31
0.0
  0
LINE
  5
144
100
AcDbEntity
  8
1
100
AcDbLine
 10
202.6844
 20
-218.315928
 30
0.0
 11
208.6844
 21
-218.315928
 31
0.0
  0
LINE
  5
145
100
AcDbEntity
  8
1
100
AcDbLine
 10
169.6844
 20
-242.967968
 30
0.0
 11
182.6844
 21
-242.967968
 31
0.0
  0
LINE
  5
146
100
AcDbEntity
  8
1
100
AcDbLine
 10
173.507924
 20
-231.522468
 30
0.0
 11
178.860876
 21
-231.522468
 31
0.0
  0
ARC
  5
147
100
AcDbEntity
  8
1
100
AcDbCircle
 10
169.6844
 20
-236.967968
 30
0.0
 40
6.0
100
AcDbArc
 50
180.0
 51
270.0
  0
ARC
  5
148
100
AcDbEntity
  8
1
100
AcDbCircle
 10
182.6844
 20
-236.967968
 30
0.0
 40
6.0
100
AcDbArc
 50
270.0
 51
347.634031
  0
ARC
  5
149
100
AcDbEntity
  8
1
100
AcDbCircle
 10
178.860876
 20
-227.522468
 30
0.0
 40
4.0
100
AcDbArc
 50
270.0
 51
360.0
  0
ARC
  5
14A
100
AcDbEntity
  8
1
100
AcDbCircle
 10
173.507924
 20
-227.522468
 30
0.0
 40
4.0
100
AcDbArc
 50
180.0
 51
270.0
  0
LINE
  5
14B
100
AcDbEntity
  8
1
100
AcDbLine
 10
182.860876
 20
-231.522468
 30
0.0
 11
185.631572
 21
-236.967968
 31
0.0
  0
LINE
  5
14C
100
AcDbEntity
  8
1
100
AcDbLine
 10
169.507924
 20
-231.522468
 30
0.0
 11
166.737228
 21
-236.967968
 31
0.0
  0
LINE
  5
14D
100
AcDbEntity
  8
1
100
AcDbLine
 10
173.507924
 20
-175.030492
 30
0.0
 11
178.860876
 21
-175.030492
 31
0.0
  0
ARC
  5
14E
100
AcDbEntity
  8
1
100
AcDbCircle
 10
178.860876
 20
-179.030492
 30
0.0
 40
4.0
100
AcDbArc
 50
0.0
 51
90.0
  0
ARC
  5
14F
100
AcDbEntity
  8
1
100
AcDbCircle
 10
173.507924
 20
-179.030492
 30
0.0
 40
4.0
100
AcDbArc
 50
90.0
 51
180.0
  0
LINE
  5
150
100
AcDbEntity
  8
1
100
AcDbLine
 10
182.860876
 20
-179.030492
 30
0.0
 11
182.860876
 21
-227.522468
 31
0.0
  0
LINE
  5
151
100
AcDbEntity
  8
1
100
AcDbLine
 10
169.507924
 20
-179.030492
 30
0.0
 11
169.507924
 21
-227.522468
 31
0.0
  0
ARC
  5
152
100
AcDbEntity
  8
1
100
AcDbCircle
 10
164.091228
 20
-157.346436
 30
0.0
 40
0.685084
100
AcDbArc
 50
233.570424
 51
360.0
  0
ARC
  5
153
100
AcDbEntity
  8
1
100
AcDbCircle
 10
188.277572
 20
-157.346436
 30
0.0
 40
0.685084
100
AcDbArc
 50
180.0
 51
306.429576
  0
LINE
  5
154
100
AcDbEntity
  8
1
100
AcDbLine
 10
188.6844
 20
-206.261512
 30
0.0
 11
188.6844
 21
-157.897644
 31
0.0
  0
LINE
  5
155
100
AcDbEntity
  8
1
100
AcDbLine
 10
163.6844
 20
-236.967968
 30
0.0
 11
163.6844
 21
-218.315928
 31
0.0
  0
LINE
  5
156
100
AcDbEntity
  8
1
100
AcDbLine
 10
163.6844
 20
-206.261512
 30
0.0
 11
163.6844
 21
-157.897644
 31
0.0
  0
LINE
  5
157
100
AcDbEntity
  8
1
100
AcDbLine
 10
163.6844
 20
-348.038288
 30
0.0
 11
151.6844
 21
-348.038288
 31
0.0
  0
LINE
  5
158
100
AcDbEntity
  8
1
100
AcDbLine
 10
188.6844
 20
-348.038288
 30
0.0
 11
208.6844
 21
-348.038288
 31
0.0
  0
ARC
  5
159
100
AcDbEntity
  8
1
100
AcDbCircle
 10
141.15528
 20
-292.575704
 30
0.0
 40
23.621032
100
AcDbArc
 50
342.510834
 51
360.0
  0
ARC
  5
15A
100
AcDbEntity
  8
1
100
AcDbCircle
 10
152.984516
 20
-292.575704
 30
0.0
 40
11.791796
100
AcDbArc
 50
0.0
 51
24.851403
  0
ARC
  5
15B
100
AcDbEntity
  8
1
100
AcDbCircle
 10
211.21352
 20
-292.575704
 30
0.0
 40
23.621032
100
AcDbArc
 50
180.0
 51
197.489166
  0
ARC
  5
15C
100
AcDbEntity
  8
1
100
AcDbCircle
 10
199.384284
 20
-292.575704
 30
0.0
 40
11.791796
100
AcDbArc
 50
163.126951
 51
180.0
  0
LINE
  5
15D
100
AcDbEntity
  8
1
100
AcDbLine
 10
151.6844
 20
-299.674424
 30
0.0
 11
163.6844
 21
-299.674424
 31
0.0
  0
LINE
  5
15E
100
AcDbEntity
  8
1
100
AcDbLine
 10
188.6844
 20
-299.674424
 30
0.0
 11
208.6844
 21
-299.674424
 31
0.0
  0
LINE
  5
15F
100
AcDbEntity
  8
1
100
AcDbLine
 10
151.6844
 20
-287.620008
 30
0.0
 11
163.6844
 21
-287.620008
 31
0.0
  0
LINE
  5
160
100
AcDbEntity
  8
1
100
AcDbLine
 10
202.6844
 20
-287.620008
 30
0.0
 11
208.6844
 21
-287.620008
 31
0.0
  0
LINE
  5
161
100
AcDbEntity
  8
1
100
AcDbLine
 10
169.6844
 20
-262.967968
 30
0.0
 11
182.6844
 21
-262.967968
 31
0.0
  0
LINE
  5
162
100
AcDbEntity
  8
1
100
AcDbLine
 10
173.507924
 20
-274.413464
 30
0.0
 11
178.860876
 21
-274.413464
 31
0.0
  0
ARC
  5
163
100
AcDbEntity
  8
1
100
AcDbCircle
 10
169.6844
 20
-268.967968
 30
0.0
 40
6.0
100
AcDbArc
 50
90.0
 51
180.0
  0
ARC
  5
164
100
AcDbEntity
  8
1
100
AcDbCircle
 10
182.6844
 20
-268.967968
 30
0.0
 40
6.0
100
AcDbArc
 50
12.365969
 51
90.0
  0
ARC
  5
165
100
AcDbEntity
  8
1
100
AcDbCircle
 10
178.860876
 20
-278.413464
 30
0.0
 40
4.0
100
AcDbArc
 50
0.0
 51
90.0
  0
ARC
  5
166
100
AcDbEntity
  8
1
100
AcDbCircle
 10
173.507924
 20
-278.413464
 30
0.0
 40
4.0
100
AcDbArc
 50
90.0
 51
180.0
  0
LINE
  5
167
100
AcDbEntity
  8
1
100
AcDbLine
 10
182.860876
 20
-274.413464
 30
0.0
 11
185.631572
 21
-268.967968
 31
0.0
  0
LINE
  5
168
100
AcDbEntity
  8
1
100
AcDbLine
 10
169.507924
 20
-274.413464
 30
0.0
 11
166.737228
 21
-268.967968
 31
0.0
  0
LINE
  5
169
100
AcDbEntity
  8
1
100
AcDbLine
 10
173.507924
 20
-330.905444
 30
0.0
 11
178.860876
 21
-330.905444
 31
0.0
  0
ARC
  5
16A
100
AcDbEntity
  8
1
100
AcDbCircle
 10
178.860876
 20
-326.905444
 30
0.0
 40
4.0
100
AcDbArc
 50
270.0
 51
360.0
  0
ARC
  5
16B
100
AcDbEntity
  8
1
100
AcDbCircle
 10
173.507924
 20
-326.905444
 30
0.0
 40
4.0
100
AcDbArc
 50
180.0
 51
270.0
  0
LINE
  5
16C
100
AcDbEntity
  8
1
100
AcDbLine
 10
182.860876
 20
-326.905444
 30
0.0
 11
182.860876
 21
-278.413464
 31
0.0
  0
LINE
  5
16D
100
AcDbEntity
  8
1
100
AcDbLine
 10
169.507924
 20
-326.905444
 30
0.0
 11
169.507924
 21
-278.413464
 31
0.0
  0
LINE
  5
16E
100
AcDbEntity
  8
1
100
AcDbLine
 10
188.6844
 20
-299.674424
 30
0.0
 11
188.6844
 21
-348.038288
 31
0.0
  0
LINE
  5
16F
100
AcDbEntity
  8
1
100
AcDbLine
 10
163.6844
 20
-268.967968
 30
0.0
 11
163.6844
 21
-287.620008
 31
0.0
  0
LINE
  5
170
100
AcDbEntity
  8
1
100
AcDbLine
 10
163.6844
 20
-299.674424
 30
0.0
 11
163.6844
 21
-348.038288
 31
0.0
  0
LINE
  5
171
100
AcDbEntity
  8
1
100
AcDbLine
 10
-531.571924
 20
323.728232
 30
0.0
 11
-531.571924
 21
335.728232
 31
0.0
  0
LINE
  5
172
100
AcDbEntity
  8
1
100
AcDbLine
 10
-537.181044
 20
323.728232
 30
0.0
 11
-537.181044
 21
335.728232
 31
0.0
  0
ARC
  5
173
100
AcDbEntity
  8
1
100
AcDbCircle
 10
-532.097632
 20
324.441216
 30
0.0
 40
12.378928
100
AcDbArc
 50
90.0
 51
114.245712
  0
ARC
  5
174
100
AcDbEntity
  8
1
100
AcDbCircle
 10
-532.097632
 20
336.135056
 30
0.0
 40
0.685084
100
AcDbArc
 50
323.570424
 51
90.0
  0
LINE
  5
175
100
AcDbEntity
  8
1
100
AcDbLine
 10
-531.571924
 20
380.728232
 30
0.0
 11
-531.571924
 21
360.728232
 31
0.0
  0
LINE
  5
176
100
AcDbEntity
  8
1
100
AcDbLine
 10
-537.181044
 20
380.728232
 30
0.0
 11
-537.181044
 21
371.75688
 31
0.0
  0
ARC
  5
177
100
AcDbEntity
  8
1
100
AcDbCircle
 10
-532.097632
 20
372.015248
 30
0.0
 40
12.378928
100
AcDbArc
 50
250.540764
 51
270.0
  0
ARC
  5
178
100
AcDbEntity
  8
1
100
AcDbCircle
 10
-532.097632
 20
360.321404
 30
0.0
 40
0.685084
100
AcDbArc
 50
270.0
 51
36.429576
  0
LINE
  5
179
100
AcDbEntity
  8
1
100
AcDbLine
 10
-542.9761
 20
323.728232
 30
0.0
 11
-542.9761
 21
361.188896
 31
0.0
  0
LINE
  5
17A
100
AcDbEntity
  8
1
100
AcDbLine
 10
-542.9761
 20
371.728232
 30
0.0
 11
-542.9761
 21
380.728232
 31
0.0
  0
LINE
  5
17B
100
AcDbEntity
  8
1
  6
DASHED
100
AcDbLine
 10
-346.530284
 20
354.904708
 30
0.0
 11
-371.8761
 21
354.904708
 31
0.0
  0
LINE
  5
17C
100
AcDbEntity
  8
1
  6
DASHED
100
AcDbLine
 10
-346.530284
 20
341.551756
 30
0.0
 11
-371.8761
 21
341.551756
 31
0.0
  0
LINE
  5
17D
100
AcDbEntity
  8
1
  6
DASHED
100
AcDbLine
 10
-346.530284
 20
347.173128
 30
0.0
 11
-346.530284
 21
349.283332
 31
0.0
  0
LINE
  5
17E
100
AcDbEntity
  8
1
  6
DASHED
100
AcDbLine
 10
-330.364332
 20
335.728232
 30
0.0
 11
-330.364332
 21
360.728232
 31
0.0
  0
LINE
  5
17F
100
AcDbEntity
  8
1
  6
DASHED
100
AcDbLine
 10
-333.511564
 20
359.594492
 30
0.0
 11
-341.241596
 21
356.809872
 31
0.0
  0
LINE
  5
180
100
AcDbEntity
  8
1
  6
DASHED
100
AcDbLine
 10
-341.241596
 20
339.646592
 30
0.0
 11
-333.008676
 21
336.680812
 31
0.0
  0
ARC
  5
181
100
AcDbEntity
  8
1
  6
DASHED
100
AcDbCircle
 10
-334.364332
 20
332.917544
 30
0.0
 40
4.0
100
AcDbArc
 50
0.0
 51
70.189259
  0
ARC
  5
182
100
AcDbEntity
  8
1
  6
DASHED
100
AcDbCircle
 10
-338.530284
 20
349.283332
 30
0.0
 40
8.0
100
AcDbArc
 50
109.810741
 51
180.0
  0
ARC
  5
183
100
AcDbEntity
  8
1
  6
DASHED
100
AcDbCircle
 10
-338.530284
 20
347.173128
 30
0.0
 40
8.0
100
AcDbArc
 50
180.0
 51
250.189259
  0
LINE
  5
184
100
AcDbEntity
  8
1
  6
DASHED
100
AcDbLine
 10
-333.008676
 20
335.728232
 30
0.0
 11
-335.771152
 21
335.728232
 31
0.0
  0
LINE
  5
185
100
AcDbEntity
  8
1
  6
DASHED
100
AcDbLine
 10
-341.380272
 20
335.728232
 30
0.0
 11
-371.8761
 21
335.728232
 31
0.0
  0
LINE
  5
186
100
AcDbEntity
  8
1
  6
DASHED
100
AcDbLine
 10
-341.380272
 20
360.728232
 30
0.0
 11
-371.8761
 21
360.728232
 31
0.0
  0
LINE
  5
187
100
AcDbEntity
  8
1
  6
DASHED
100
AcDbLine
 10
-341.380272
 20
323.728232
 30
0.0
 11
-341.380272
 21
335.728232
 31
0.0
  0
LINE
  5
188
100
AcDbEntity
  8
1
  6
DASHED
100
AcDbLine
 10
-335.771152
 20
323.728232
 30
0.0
 11
-335.771152
 21
335.728232
 31
0.0
  0
ARC
  5
189
100
AcDbEntity
  8
1
  6
DASHED
100
AcDbCircle
 10
-340.854568
 20
324.441216
 30
0.0
 40
12.378928
100
AcDbArc
 50
65.754288
 51
90.0
  0
ARC
  5
18A
100
AcDbEntity
  8
1
  6
DASHED
100
AcDbCircle
 10
-340.854568
 20
336.135056
 30
0.0
 40
0.685084
100
AcDbArc
 50
90.0
 51
216.429576
  0
LINE
  5
18B
100
AcDbEntity
  8
1
100
AcDbLine
 10
-335.771152
 20
380.728232
 30
0.0
 11
-335.771152
 21
371.75688
 31
0.0
  0
ARC
  5
18C
100
AcDbEntity
  8
1
  6
DASHED
100
AcDbCircle
 10
-340.854568
 20
372.015248
 30
0.0
 40
12.378928
100
AcDbArc
 50
270.0
 51
289.459236
  0
ARC
  5
18D
100
AcDbEntity
  8
1
  6
DASHED
100
AcDbCircle
 10
-340.854568
 20
360.321404
 30
0.0
 40
0.685084
100
AcDbArc
 50
143.570424
 51
270.0
  0
LINE
  5
18E
100
AcDbEntity
  8
1
100
AcDbLine
 10
-329.9761
 20
371.728232
 30
0.0
 11
-329.9761
 21
380.728232
 31
0.0
  0
LINE
  5
18F
100
AcDbEntity
  8
1
100
AcDbLine
 10
-548.832436
 20
371.728232
 30
0.0
 11
-537.59466
 21
371.728232
 31
0.0
  0
LINE
  5
190
100
AcDbEntity
  8
1
100
AcDbLine
 10
-534.59466
 20
360.728232
 30
0.0
 11
-534.59466
 21
371.728232
 31
0.0
  0
ARC
  5
191
100
AcDbEntity
  8
1
100
AcDbCircle
 10
-537.59466
 20
374.728232
 30
0.0
 40
3.0
100
AcDbArc
 50
270.0
 51
360.0
  0
LINE
  5
192
100
AcDbEntity
  8
1
100
AcDbLine
 10
-548.642272
 20
366.853692
 30
0.0
 11
-548.642272
 21
369.728232
 31
0.0
  0
LINE
  5
193
100
AcDbEntity
  8
1
100
AcDbLine
 10
-550.832436
 20
366.669936
 30
0.0
 11
-550.832436
 21
369.728232
 31
0.0
  0
ARC
  5
194
100
AcDbEntity
  8
1
100
AcDbCircle
 10
-548.832436
 20
369.728232
 30
0.0
 40
2.0
100
AcDbArc
 50
90.0
 51
180.0
  0
ARC
  5
195
100
AcDbEntity
  8
1
100
AcDbCircle
 10
-546.642272
 20
369.728232
 30
0.0
 40
2.0
100
AcDbArc
 50
90.0
 51
180.0
  0
LINE
  5
196
100
AcDbEntity
  8
1
100
AcDbLine
 10
-536.2215
 20
360.34342
 30
0.0
 11
-546.64168
 21
364.025056
 31
0.0
  0
LINE
  5
197
100
AcDbEntity
  8
1
100
AcDbLine
 10
-539.440636
 20
359.594492
 30
0.0
 11
-549.065748
 21
363.935172
 31
0.0
  0
ARC
  5
198
100
AcDbEntity
  8
1
100
AcDbCircle
 10
-545.642272
 20
366.853692
 30
0.0
 40
3.0
100
AcDbArc
 50
180.0
 51
250.540764
  0
ARC
  5
199
100
AcDbEntity
  8
1
100
AcDbCircle
 10
-547.832436
 20
366.669936
 30
0.0
 40
3.0
100
AcDbArc
 50
180.0
 51
245.725839
  0
LINE
  5
19A
100
AcDbEntity
  8
1
100
AcDbLine
 10
-324.11976
 20
371.728232
 30
0.0
 11
-335.35754
 21
371.728232
 31
0.0
  0
ARC
  5
19B
100
AcDbEntity
  8
1
100
AcDbCircle
 10
-335.35754
 20
374.728232
 30
0.0
 40
3.0
100
AcDbArc
 50
180.0
 51
270.0
  0
LINE
  5
19C
100
AcDbEntity
  8
1
100
AcDbLine
 10
-324.309928
 20
366.853692
 30
0.0
 11
-324.309928
 21
369.728232
 31
0.0
  0
LINE
  5
19D
100
AcDbEntity
  8
1
100
AcDbLine
 10
-322.11976
 20
366.669936
 30
0.0
 11
-322.11976
 21
369.728232
 31
0.0
  0
ARC
  5
19E
100
AcDbEntity
  8
1
100
AcDbCircle
 10
-324.11976
 20
369.728232
 30
0.0
 40
2.0
100
AcDbArc
 50
0.0
 51
90.0
  0
ARC
  5
19F
100
AcDbEntity
  8
1
100
AcDbCircle
 10
-326.309928
 20
369.728232
 30
0.0
 40
2.0
100
AcDbArc
 50
0.0
 51
90.0
  0
LINE
  5
1A0
100
AcDbEntity
  8
1
  6
DASHED
100
AcDbLine
 10
-336.7307
 20
360.34342
 30
0.0
 11
-326.31052
 21
364.025056
 31
0.0
  0
LINE
  5
1A1
100
AcDbEntity
  8
1
  6
DASHED
100
AcDbLine
 10
-333.511564
 20
359.594492
 30
0.0
 11
-323.886452
 21
363.935172
 31
0.0
  0
LINE
  5
1A2
100
AcDbEntity
  8
1
100
AcDbLine
 10
199.6844
 20
-219.782824
 30
0.0
 11
199.6844
 21
-235.2529
 31
0.0
  0
LINE
  5
1A3
100
AcDbEntity
  8
1
100
AcDbLine
 10
192.6884
 20
-219.967968
 30
0.0
 11
192.6884
 21
-225.195772
 31
0.0
  0
LINE
  5
1A4
100
AcDbEntity
  8
1
100
AcDbLine
 10
189.698048
 20
-216.782824
 30
0.0
 11
199.6844
 21
-216.782824
 31
0.0
  0
LINE
  5
1A5
100
AcDbEntity
  8
1
100
AcDbLine
 10
188.6844
 20
-238.2529
 30
0.0
 11
199.6844
 21
-238.2529
 31
0.0
  0
LINE
  5
1A6
100
AcDbEntity
  8
1
100
AcDbLine
 10
194.6884
 20
-217.967968
 30
0.0
 11
197.6844
 21
-217.967968
 31
0.0
  0
LINE
  5
1A7
100
AcDbEntity
  8
1
100
AcDbLine
 10
194.6884
 20
-227.195772
 30
0.0
 11
197.6844
 21
-227.195772
 31
0.0
  0
ARC
  5
1A8
100
AcDbEntity
  8
1
100
AcDbCircle
 10
197.6844
 20
-219.967968
 30
0.0
 40
2.0
100
AcDbArc
 50
0.0
 51
90.0
  0
ARC
  5
1A9
100
AcDbEntity
  8
1
100
AcDbCircle
 10
194.6884
 20
-219.967968
 30
0.0
 40
2.0
100
AcDbArc
 50
90.0
 51
180.0
  0
ARC
  5
1AA
100
AcDbEntity
  8
1
100
AcDbCircle
 10
194.6884
 20
-225.195772
 30
0.0
 40
2.0
100
AcDbArc
 50
180.0
 51
270.0
  0
ARC
  5
1AB
100
AcDbEntity
  8
1
100
AcDbCircle
 10
197.6844
 20
-225.195772
 30
0.0
 40
2.0
100
AcDbArc
 50
270.0
 51
360.0
  0
ARC
  5
1AC
100
AcDbEntity
  8
1
100
AcDbCircle
 10
202.6844
 20
-219.782824
 30
0.0
 40
3.0
100
AcDbArc
 50
90.0
 51
180.0
  0
LINE
  5
1AD
100
AcDbEntity
  8
1
100
AcDbLine
 10
192.6884
 20
-217.967968
 30
0.0
 11
189.698048
 21
-217.967968
 31
0.0
  0
ARC
  5
1AE
100
AcDbEntity
  8
1
100
AcDbCircle
 10
189.698048
 20
-216.29816
 30
0.0
 40
1.669808
100
AcDbArc
 50
196.873049
 51
270.0
  0
ARC
  5
1AF
100
AcDbEntity
  8
1
100
AcDbCircle
 10
202.6844
 20
-235.2529
 30
0.0
 40
3.0
100
AcDbArc
 50
180.0
 51
270.0
  0
LINE
  5
1B0
100
AcDbEntity
  8
1
100
AcDbLine
 10
192.6884
 20
-227.195772
 30
0.0
 11
188.5452
 21
-238.2529
 31
0.0
  0
LINE
  5
1B1
100
AcDbEntity
  8
1
100
AcDbLine
 10
199.6844
 20
-286.153108
 30
0.0
 11
199.6844
 21
-270.683036
 31
0.0
  0
LINE
  5
1B2
100
AcDbEntity
  8
1
100
AcDbLine
 10
192.6884
 20
-285.967968
 30
0.0
 11
192.6884
 21
-280.740164
 31
0.0
  0
LINE
  5
1B3
100
AcDbEntity
  8
1
100
AcDbLine
 10
189.698048
 20
-289.153108
 30
0.0
 11
199.6844
 21
-289.153108
 31
0.0
  0
LINE
  5
1B4
100
AcDbEntity
  8
1
100
AcDbLine
 10
188.6844
 20
-267.683036
 30
0.0
 11
199.6844
 21
-267.683036
 31
0.0
  0
LINE
  5
1B5
100
AcDbEntity
  8
1
100
AcDbLine
 10
194.6884
 20
-287.967968
 30
0.0
 11
197.6844
 21
-287.967968
 31
0.0
  0
LINE
  5
1B6
100
AcDbEntity
  8
1
100
AcDbLine
 10
194.6884
 20
-278.740164
 30
0.0
 11
197.6844
 21
-278.740164
 31
0.0
  0
ARC
  5
1B7
100
AcDbEntity
  8
1
100
AcDbCircle
 10
197.6844
 20
-285.967968
 30
0.0
 40
2.0
100
AcDbArc
 50
270.0
 51
360.0
  0
ARC
  5
1B8
100
AcDbEntity
  8
1
100
AcDbCircle
 10
194.6884
 20
-285.967968
 30
0.0
 40
2.0
100
AcDbArc
 50
180.0
 51
270.0
  0
ARC
  5
1B9
100
AcDbEntity
  8
1
100
AcDbCircle
 10
194.6884
 20
-280.740164
 30
0.0
 40
2.0
100
AcDbArc
 50
90.0
 51
180.0
  0
ARC
  5
1BA
100
AcDbEntity
  8
1
100
AcDbCircle
 10
197.6844
 20
-280.740164
 30
0.0
 40
2.0
100
AcDbArc
 50
0.0
 51
90.0
  0
ARC
  5
1BB
100
AcDbEntity
  8
1
100
AcDbCircle
 10
202.6844
 20
-286.153108
 30
0.0
 40
3.0
100
AcDbArc
 50
180.0
 51
270.0
  0
LINE
  5
1BC
100
AcDbEntity
  8
1
100
AcDbLine
 10
192.6884
 20
-287.967968
 30
0.0
 11
189.698048
 21
-287.967968
 31
0.0
  0
ARC
  5
1BD
100
AcDbEntity
  8
1
100
AcDbCircle
 10
189.698048
 20
-289.637776
 30
0.0
 40
1.669808
100
AcDbArc
 50
90.0
 51
163.126951
  0
ARC
  5
1BE
100
AcDbEntity
  8
1
100
AcDbCircle
 10
202.6844
 20
-270.683036
 30
0.0
 40
3.0
100
AcDbArc
 50
90.0
 51
180.0
  0
LINE
  5
1BF
100
AcDbEntity
  8
1
100
AcDbLine
 10
192.6884
 20
-278.740164
 30
0.0
 11
188.5452
 21
-267.683036
 31
0.0
  0
LINE
  5
1C0
100
AcDbEntity
  8
1
100
AcDbLine
 10
164.776312
 20
-159.002564
 30
0.0
 11
164.776312
 21
-157.346436
 31
0.0
  0
LINE
  5
1C1
100
AcDbEntity
  8
1
100
AcDbLine
 10
187.592488
 20
-159.002564
 30
0.0
 11
187.592488
 21
-157.346436
 31
0.0
  0
LINE
  5
1C2
100
AcDbEntity
  8
1
100
AcDbLine
 10
187.211508
 20
-161.44194
 30
0.0
 11
182.860876
 21
-175.030492
 31
0.0
  0
LINE
  5
1C3
100
AcDbEntity
  8
1
100
AcDbLine
 10
187.211508
 20
-160.252004
 30
0.0
 11
165.157292
 21
-160.252004
 31
0.0
  0
LINE
  5
1C4
100
AcDbEntity
  8
1
100
AcDbLine
 10
165.157292
 20
-161.44194
 30
0.0
 11
169.507924
 21
-175.030492
 31
0.0
  0
ARC
  5
1C5
100
AcDbEntity
  8
1
100
AcDbCircle
 10
179.592488
 20
-159.002564
 30
0.0
 40
8.0
100
AcDbArc
 50
342.246549
 51
360.0
  0
ARC
  5
1C6
100
AcDbEntity
  8
1
100
AcDbCircle
 10
172.776312
 20
-159.002564
 30
0.0
 40
8.0
100
AcDbArc
 50
180.0
 51
197.753451
  0
ARC
  5
1C7
100
AcDbEntity
  8
1
100
AcDbCircle
 10
164.091228
 20
-348.5895
 30
0.0
 40
0.685084
100
AcDbArc
 50
0.0
 51
126.429576
  0
ARC
  5
1C8
100
AcDbEntity
  8
1
100
AcDbCircle
 10
188.277572
 20
-348.5895
 30
0.0
 40
0.685084
100
AcDbArc
 50
53.570424
 51
180.0
  0
LINE
  5
1C9
100
AcDbEntity
  8
1
100
AcDbLine
 10
164.776312
 20
-346.933368
 30
0.0
 11
164.776312
 21
-348.5895
 31
0.0
  0
LINE
  5
1CA
100
AcDbEntity
  8
1
100
AcDbLine
 10
187.592488
 20
-346.933368
 30
0.0
 11
187.592488
 21
-348.5895
 31
0.0
  0
LINE
  5
1CB
100
AcDbEntity
  8
1
100
AcDbLine
 10
187.211508
 20
-344.493996
 30
0.0
 11
182.860876
 21
-330.905444
 31
0.0
  0
LINE
  5
1CC
100
AcDbEntity
  8
1
100
AcDbLine
 10
187.211508
 20
-345.683932
 30
0.0
 11
165.157292
 21
-345.683932
 31
0.0
  0
LINE
  5
1CD
100
AcDbEntity
  8
1
100
AcDbLine
 10
165.157292
 20
-344.493996
 30
0.0
 11
169.507924
 21
-330.905444
 31
0.0
  0
ARC
  5
1CE
100
AcDbEntity
  8
1
100
AcDbCircle
 10
179.592488
 20
-346.933368
 30
0.0
 40
8.0
100
AcDbArc
 50
0.0
 51
17.753451
  0
ARC
  5
1CF
100
AcDbEntity
  8
1
100
AcDbCircle
 10
172.776312
 20
-346.933368
 30
0.0
 40
8.0
100
AcDbArc
 50
162.246549
 51
180.0
  0
ARC
  5
1D0
100
AcDbEntity
  8
1
100
AcDbCircle
 10
181.501208
 20
-127.397608
 30
0.0
 40
6.406952
100
AcDbArc
 50
276.528221
 51
83.471779
  0
ARC
  5
1D1
100
AcDbEntity
  8
1
100
AcDbCircle
 10
167.867592
 20
-127.397608
 30
0.0
 40
6.406952
100
AcDbArc
 50
96.528221
 51
263.471779
  0
ARC
  5
1D2
100
AcDbEntity
  8
1
100
AcDbCircle
 10
181.501208
 20
-378.538324
 30
0.0
 40
6.406952
100
AcDbArc
 50
0.0
 51
83.471779
  0
ARC
  5
1D3
100
AcDbEntity
  8
1
100
AcDbCircle
 10
167.867592
 20
-378.538324
 30
0.0
 40
6.406952
100
AcDbArc
 50
96.528221
 51
180.0
  0
LINE
  5
1D4
100
AcDbEntity
  8
1
100
AcDbLine
 10
170.6844
 20
-93.290508
 30
0.0
 11
178.6844
 21
-93.290508
 31
0.0
  0
LINE
  5
1D5
100
AcDbEntity
  8
1
100
AcDbLine
 10
170.6844
 20
-154.849408
 30
0.0
 11
178.6844
 21
-154.849408
 31
0.0
  0
ARC
  5
1D6
100
AcDbEntity
  8
1
100
AcDbCircle
 10
182.6844
 20
-97.290508
 30
0.0
 40
4.0
100
AcDbArc
 50
90.0
 51
180.0
  0
ARC
  5
1D7
100
AcDbEntity
  8
1
100
AcDbCircle
 10
166.6844
 20
-97.290508
 30
0.0
 40
4.0
100
AcDbArc
 50
0.0
 51
90.0
  0
ARC
  5
1D8
100
AcDbEntity
  8
1
100
AcDbCircle
 10
182.6844
 20
-150.849408
 30
0.0
 40
4.0
100
AcDbArc
 50
180.0
 51
270.0
  0
ARC
  5
1D9
100
AcDbEntity
  8
1
100
AcDbCircle
 10
166.6844
 20
-150.849408
 30
0.0
 40
4.0
100
AcDbArc
 50
270.0
 51
360.0
  0
LINE
  5
1DA
100
AcDbEntity
  8
1
100
AcDbLine
 10
178.6844
 20
-150.849408
 30
0.0
 11
178.6844
 21
-137.737084
 31
0.0
  0
LINE
  5
1DB
100
AcDbEntity
  8
1
100
AcDbLine
 10
178.6844
 20
-117.058136
 30
0.0
 11
178.6844
 21
-97.290508
 31
0.0
  0
LINE
  5
1DC
100
AcDbEntity
  8
1
100
AcDbLine
 10
170.6844
 20
-150.849408
 30
0.0
 11
170.6844
 21
-137.737084
 31
0.0
  0
LINE
  5
1DD
100
AcDbEntity
  8
1
100
AcDbLine
 10
170.6844
 20
-117.058136
 30
0.0
 11
170.6844
 21
-97.290508
 31
0.0
  0
ARC
  5
1DE
100
AcDbEntity
  8
1
100
AcDbCircle
 10
182.6844
 20
-117.058136
 30
0.0
 40
4.0
100
AcDbArc
 50
180.0
 51
263.471779
  0
ARC
  5
1DF
100
AcDbEntity
  8
1
100
AcDbCircle
 10
166.6844
 20
-117.058136
 30
0.0
 40
4.0
100
AcDbArc
 50
276.528221
 51
360.0
  0
ARC
  5
1E0
100
AcDbEntity
  8
1
100
AcDbCircle
 10
166.6844
 20
-137.737084
 30
0.0
 40
4.0
100
AcDbArc
 50
0.0
 51
83.471779
  0
ARC
  5
1E1
100
AcDbEntity
  8
1
100
AcDbCircle
 10
182.6844
 20
-137.737084
 30
0.0
 40
4.0
100
AcDbArc
 50
96.528221
 51
180.0
  0
LINE
  5
1E2
100
AcDbEntity
  8
1
100
AcDbLine
 10
172.6844
 20
-103.014476
 30
0.0
 11
176.6844
 21
-103.014476
 31
0.0
  0
LINE
  5
1E3
100
AcDbEntity
  8
1
100
AcDbLine
 10
172.6844
 20
-112.61566
 30
0.0
 11
176.6844
 21
-112.61566
 31
0.0
  0
ARC
  5
1E4
100
AcDbEntity
  8
1
100
AcDbCircle
 10
176.6844
 20
-105.014476
 30
0.0
 40
2.0
100
AcDbArc
 50
0.0
 51
90.0
  0
ARC
  5
1E5
100
AcDbEntity
  8
1
100
AcDbCircle
 10
172.6844
 20
-105.014476
 30
0.0
 40
2.0
100
AcDbArc
 50
90.0
 51
180.0
  0
ARC
  5
1E6
100
AcDbEntity
  8
1
100
AcDbCircle
 10
172.6844
 20
-110.61566
 30
0.0
 40
2.0
100
AcDbArc
 50
180.0
 51
270.0
  0
ARC
  5
1E7
100
AcDbEntity
  8
1
100
AcDbCircle
 10
176.6844
 20
-110.61566
 30
0.0
 40
2.0
100
AcDbArc
 50
270.0
 51
360.0
  0
LINE
  5
1E8
100
AcDbEntity
  8
1
100
AcDbLine
 10
172.6844
 20
-119.014648
 30
0.0
 11
176.6844
 21
-119.014648
 31
0.0
  0
LINE
  5
1E9
100
AcDbEntity
  8
1
100
AcDbLine
 10
172.6844
 20
-139.1183
 30
0.0
 11
176.6844
 21
-139.1183
 31
0.0
  0
ARC
  5
1EA
100
AcDbEntity
  8
1
100
AcDbCircle
 10
176.6844
 20
-141.1183
 30
0.0
 40
2.0
100
AcDbArc
 50
0.0
 51
90.0
  0
ARC
  5
1EB
100
AcDbEntity
  8
1
100
AcDbCircle
 10
172.6844
 20
-141.1183
 30
0.0
 40
2.0
100
AcDbArc
 50
90.0
 51
180.0
  0
LINE
  5
1EC
100
AcDbEntity
  8
1
100
AcDbLine
 10
154.6844
 20
-150.005768
 30
0.0
 11
166.6844
 21
-150.005768
 31
0.0
  0
LINE
  5
1ED
100
AcDbEntity
  8
1
100
AcDbLine
 10
182.6844
 20
-150.005768
 30
0.0
 11
195.6844
 21
-150.005768
 31
0.0
  0
LINE
  5
1EE
100
AcDbEntity
  8
1
100
AcDbLine
 10
151.6844
 20
-152.26302
 30
0.0
 11
166.6844
 21
-152.26302
 31
0.0
  0
LINE
  5
1EF
100
AcDbEntity
  8
1
100
AcDbLine
 10
182.6844
 20
-152.26302
 30
0.0
 11
208.6844
 21
-152.26302
 31
0.0
  0
ARC
  5
1F0
100
AcDbEntity
  8
1
100
AcDbCircle
 10
182.6844
 20
-146.005768
 30
0.0
 40
4.0
100
AcDbArc
 50
180.0
 51
270.0
  0
ARC
  5
1F1
100
AcDbEntity
  8
1
100
AcDbCircle
 10
182.6844
 20
-148.26302
 30
0.0
 40
4.0
100
AcDbArc
 50
180.0
 51
270.0
  0
ARC
  5
1F2
100
AcDbEntity
  8
1
100
AcDbCircle
 10
166.6844
 20
-146.005768
 30
0.0
 40
4.0
100
AcDbArc
 50
270.0
 51
360.0
  0
ARC
  5
1F3
100
AcDbEntity
  8
1
100
AcDbCircle
 10
166.6844
 20
-148.26302
 30
0.0
 40
4.0
100
AcDbArc
 50
270.0
 51
360.0
  0
LINE
  5
1F4
100
AcDbEntity
  8
1
100
AcDbLine
 10
187.90816
 20
-383.921288
 30
0.0
 11
187.90816
 21
-378.538324
 31
0.0
  0
LINE
  5
1F5
100
AcDbEntity
  8
1
100
AcDbLine
 10
161.46064
 20
-383.921288
 30
0.0
 11
161.46064
 21
-378.538324
 31
0.0
  0
LINE
  5
1F6
100
AcDbEntity
  8
1
100
AcDbLine
 10
153.6844
 20
-386.921288
 30
0.0
 11
158.46064
 21
-386.921288
 31
0.0
  0
LINE
  5
1F7
100
AcDbEntity
  8
1
100
AcDbLine
 10
190.90816
 20
-386.921288
 30
0.0
 11
195.6844
 21
-386.921288
 31
0.0
  0
ARC
  5
1F8
100
AcDbEntity
  8
1
100
AcDbCircle
 10
158.46064
 20
-383.921288
 30
0.0
 40
3.0
100
AcDbArc
 50
270.0
 51
360.0
  0
ARC
  5
1F9
100
AcDbEntity
  8
1
100
AcDbCircle
 10
190.90816
 20
-383.921288
 30
0.0
 40
3.0
100
AcDbArc
 50
180.0
 51
270.0
  0
LINE
  5
1FA
100
AcDbEntity
  8
1
100
AcDbLine
 10
170.6844
 20
-351.086524
 30
0.0
 11
178.6844
 21
-351.086524
 31
0.0
  0
ARC
  5
1FB
100
AcDbEntity
  8
1
100
AcDbCircle
 10
182.6844
 20
-355.086524
 30
0.0
 40
4.0
100
AcDbArc
 50
90.0
 51
180.0
  0
ARC
  5
1FC
100
AcDbEntity
  8
1
100
AcDbCircle
 10
166.6844
 20
-355.086524
 30
0.0
 40
4.0
100
AcDbArc
 50
0.0
 51
90.0
  0
LINE
  5
1FD
100
AcDbEntity
  8
1
100
AcDbLine
 10
178.6844
 20
-355.086524
 30
0.0
 11
178.6844
 21
-368.198852
 31
0.0
  0
LINE
  5
1FE
100
AcDbEntity
  8
1
100
AcDbLine
 10
170.6844
 20
-355.086524
 30
0.0
 11
170.6844
 21
-368.198852
 31
0.0
  0
LINE
  5
1FF
100
AcDbEntity
  8
1
100
AcDbLine
 10
172.6844
 20
-366.817632
 30
0.0
 11
176.6844
 21
-366.817632
 31
0.0
  0
ARC
  5
200
100
AcDbEntity
  8
1
100
AcDbCircle
 10
176.6844
 20
-364.817632
 30
0.0
 40
2.0
100
AcDbArc
 50
270.0
 51
360.0
  0
ARC
  5
201
100
AcDbEntity
  8
1
100
AcDbCircle
 10
172.6844
 20
-364.817632
 30
0.0
 40
2.0
100
AcDbArc
 50
180.0
 51
270.0
  0
ARC
  5
202
100
AcDbEntity
  8
1
100
AcDbCircle
 10
182.6844
 20
-368.198852
 30
0.0
 40
4.0
100
AcDbArc
 50
180.0
 51
263.471779
  0
ARC
  5
203
100
AcDbEntity
  8
1
100
AcDbCircle
 10
166.6844
 20
-368.198852
 30
0.0
 40
4.0
100
AcDbArc
 50
276.528221
 51
360.0
  0
LINE
  5
204
100
AcDbEntity
  8
1
100
AcDbLine
 10
151.6844
 20
-353.672912
 30
0.0
 11
166.6844
 21
-353.672912
 31
0.0
  0
LINE
  5
205
100
AcDbEntity
  8
1
100
AcDbLine
 10
182.6844
 20
-353.672912
 30
0.0
 11
208.6844
 21
-353.672912
 31
0.0
  0
LINE
  5
206
100
AcDbEntity
  8
1
100
AcDbLine
 10
154.6844
 20
-355.930164
 30
0.0
 11
166.6844
 21
-355.930164
 31
0.0
  0
LINE
  5
207
100
AcDbEntity
  8
1
100
AcDbLine
 10
182.6844
 20
-355.930164
 30
0.0
 11
195.6844
 21
-355.930164
 31
0.0
  0
ARC
  5
208
100
AcDbEntity
  8
1
100
AcDbCircle
 10
182.6844
 20
-359.930164
 30
0.0
 40
4.0
100
AcDbArc
 50
90.0
 51
180.0
  0
ARC
  5
209
100
AcDbEntity
  8
1
100
AcDbCircle
 10
182.6844
 20
-357.672912
 30
0.0
 40
4.0
100
AcDbArc
 50
90.0
 51
180.0
  0
ARC
  5
20A
100
AcDbEntity
  8
1
100
AcDbCircle
 10
166.6844
 20
-359.930164
 30
0.0
 40
4.0
100
AcDbArc
 50
0.0
 51
90.0
  0
ARC
  5
20B
100
AcDbEntity
  8
1
100
AcDbCircle
 10
166.6844
 20
-357.672912
 30
0.0
 40
4.0
100
AcDbArc
 50
0.0
 51
90.0
  0
LINE
  5
20C
100
AcDbEntity
  8
1
100
AcDbLine
 10
153.6844
 20
-404.467968
 30
0.0
 11
195.6844
 21
-404.467968
 31
0.0
  0
LINE
  5
20D
100
AcDbEntity
  8
1
100
AcDbLine
 10
-463.9761
 20
-404.467968
 30
0.0
 11
-408.9761
 21
-404.467968
 31
0.0
  0
LINE
  5
20E
100
AcDbEntity
  8
1
100
AcDbLine
 10
153.5844
 20
-410.467968
 30
0.0
 11
195.7844
 21
-410.467968
 31
0.0
  0
LINE
  5
20F
100
AcDbEntity
  8
1
100
AcDbLine
 10
-463.9761
 20
-410.467968
 30
0.0
 11
-408.9761
 21
-410.467968
 31
0.0
  0
LINE
  5
210
100
AcDbEntity
  8
1
100
AcDbLine
 10
-451.7261
 20
-411.967968
 30
0.0
 11
-451.7261
 21
-415.47722
 31
0.0
  0
LINE
  5
211
100
AcDbEntity
  8
1
100
AcDbLine
 10
-451.7261
 20
-415.47722
 30
0.0
 11
-452.5761
 21
-415.967968
 31
0.0
  0
LINE
  5
212
100
AcDbEntity
  8
1
100
AcDbLine
 10
-454.6011
 20
-411.967968
 30
0.0
 11
-454.6011
 21
-415.47722
 31
0.0
  0
ARC
  5
213
100
AcDbEntity
  8
1
100
AcDbCircle
 10
-453.1636
 20
-413.629264
 30
0.0
 40
2.341228
100
AcDbArc
 50
232.121121
 51
307.878879
  0
ARC
  5
214
100
AcDbEntity
  8
1
100
AcDbCircle
 10
-457.4761
 20
-407.345492
 30
0.0
 40
8.625
100
AcDbArc
 50
250.528777
 51
289.471219
  0
LINE
  5
215
100
AcDbEntity
  8
1
100
AcDbLine
 10
-463.2261
 20
-411.967968
 30
0.0
 11
-463.2261
 21
-415.47722
 31
0.0
  0
LINE
  5
216
100
AcDbEntity
  8
1
100
AcDbLine
 10
-463.2261
 20
-415.47722
 30
0.0
 11
-462.3761
 21
-415.967968
 31
0.0
  0
LINE
  5
217
100
AcDbEntity
  8
1
100
AcDbLine
 10
-462.3761
 20
-415.967968
 30
0.0
 11
-452.5761
 21
-415.967968
 31
0.0
  0
LINE
  5
218
100
AcDbEntity
  8
1
100
AcDbLine
 10
-460.3511
 20
-411.967968
 30
0.0
 11
-460.3511
 21
-415.47722
 31
0.0
  0
ARC
  5
219
100
AcDbEntity
  8
1
100
AcDbCircle
 10
-461.7886
 20
-413.629264
 30
0.0
 40
2.341228
100
AcDbArc
 50
232.121121
 51
307.878879
  0
LINE
  5
21A
100
AcDbEntity
  8
1
100
AcDbLine
 10
-451.3761
 20
-410.467968
 30
0.0
 11
-451.3761
 21
-411.967968
 31
0.0
  0
LINE
  5
21B
100
AcDbEntity
  8
1
100
AcDbLine
 10
-451.3761
 20
-411.967968
 30
0.0
 11
-463.5761
 21
-411.967968
 31
0.0
  0
LINE
  5
21C
100
AcDbEntity
  8
1
100
AcDbLine
 10
-463.5761
 20
-411.967968
 30
0.0
 11
-463.5761
 21
-410.467968
 31
0.0
  0
LINE
  5
21D
100
AcDbEntity
  8
1
100
AcDbLine
 10
-457.4761
 20
-411.967968
 30
0.0
 11
-457.9761
 21
-410.467968
 31
0.0
  0
LINE
  5
21E
100
AcDbEntity
  8
1
100
AcDbLine
 10
-457.4761
 20
-410.467968
 30
0.0
 11
-456.9761
 21
-411.967968
 31
0.0
  0
LINE
  5
21F
100
AcDbEntity
  8
1
100
AcDbLine
 10
-409.7261
 20
-411.967968
 30
0.0
 11
-409.7261
 21
-415.47722
 31
0.0
  0
LINE
  5
220
100
AcDbEntity
  8
1
100
AcDbLine
 10
-409.7261
 20
-415.47722
 30
0.0
 11
-410.5761
 21
-415.967968
 31
0.0
  0
LINE
  5
221
100
AcDbEntity
  8
1
100
AcDbLine
 10
-412.6011
 20
-411.967968
 30
0.0
 11
-412.6011
 21
-415.47722
 31
0.0
  0
ARC
  5
222
100
AcDbEntity
  8
1
100
AcDbCircle
 10
-411.1636
 20
-413.629264
 30
0.0
 40
2.341228
100
AcDbArc
 50
232.121121
 51
307.878879
  0
ARC
  5
223
100
AcDbEntity
  8
1
100
AcDbCircle
 10
-415.4761
 20
-407.345492
 30
0.0
 40
8.625
100
AcDbArc
 50
250.528777
 51
289.471219
  0
LINE
  5
224
100
AcDbEntity
  8
1
100
AcDbLine
 10
-421.2261
 20
-411.967968
 30
0.0
 11
-421.2261
 21
-415.47722
 31
0.0
  0
LINE
  5
225
100
AcDbEntity
  8
1
100
AcDbLine
 10
-421.2261
 20
-415.47722
 30
0.0
 11
-420.3761
 21
-415.967968
 31
0.0
  0
LINE
  5
226
100
AcDbEntity
  8
1
100
AcDbLine
 10
-420.3761
 20
-415.967968
 30
0.0
 11
-410.5761
 21
-415.967968
 31
0.0
  0
LINE
  5
227
100
AcDbEntity
  8
1
100
AcDbLine
 10
-418.3511
 20
-411.967968
 30
0.0
 11
-418.3511
 21
-415.47722
 31
0.0
  0
ARC
  5
228
100
AcDbEntity
  8
1
100
AcDbCircle
 10
-419.7886
 20
-413.629264
 30
0.0
 40
2.341228
100
AcDbArc
 50
232.121121
 51
307.878879
  0
LINE
  5
229
100
AcDbEntity
  8
1
100
AcDbLine
 10
-409.3761
 20
-410.467968
 30
0.0
 11
-409.3761
 21
-411.967968
 31
0.0
  0
LINE
  5
22A
100
AcDbEntity
  8
1
100
AcDbLine
 10
-409.3761
 20
-411.967968
 30
0.0
 11
-421.5761
 21
-411.967968
 31
0.0
  0
LINE
  5
22B
100
AcDbEntity
  8
1
100
AcDbLine
 10
-421.5761
 20
-411.967968
 30
0.0
 11
-421.5761
 21
-410.467968
 31
0.0
  0
LINE
  5
22C
100
AcDbEntity
  8
1
100
AcDbLine
 10
-415.4761
 20
-411.967968
 30
0.0
 11
-415.9761
 21
-410.467968
 31
0.0
  0
LINE
  5
22D
100
AcDbEntity
  8
1
100
AcDbLine
 10
-415.4761
 20
-410.467968
 30
0.0
 11
-414.9761
 21
-411.967968
 31
0.0
  0
LINE
  5
22E
100
AcDbEntity
  8
1
100
AcDbLine
 10
194.6844
 20
-411.967968
 30
0.0
 11
194.6844
 21
-415.967968
 31
0.0
  0
ARC
  5
22F
100
AcDbEntity
  8
1
100
AcDbCircle
 10
192.1844
 20
-409.35476
 30
0.0
 40
6.613208
100
AcDbArc
 50
247.788205
 51
292.211795
  0
LINE
  5
230
100
AcDbEntity
  8
1
100
AcDbLine
 10
184.6844
 20
-411.967968
 30
0.0
 11
184.6844
 21
-415.967968
 31
0.0
  0
LINE
  5
231
100
AcDbEntity
  8
1
100
AcDbLine
 10
184.6844
 20
-415.967968
 30
0.0
 11
194.6844
 21
-415.967968
 31
0.0
  0
LINE
  5
232
100
AcDbEntity
  8
1
100
AcDbLine
 10
189.6844
 20
-411.967968
 30
0.0
 11
189.6844
 21
-415.47722
 31
0.0
  0
ARC
  5
233
100
AcDbEntity
  8
1
100
AcDbCircle
 10
187.1844
 20
-409.35476
 30
0.0
 40
6.613208
100
AcDbArc
 50
247.788205
 51
292.211795
  0
LINE
  5
234
100
AcDbEntity
  8
1
100
AcDbLine
 10
195.7844
 20
-410.467968
 30
0.0
 11
195.7844
 21
-411.967968
 31
0.0
  0
LINE
  5
235
100
AcDbEntity
  8
1
100
AcDbLine
 10
195.7844
 20
-411.967968
 30
0.0
 11
183.5844
 21
-411.967968
 31
0.0
  0
LINE
  5
236
100
AcDbEntity
  8
1
100
AcDbLine
 10
183.5844
 20
-411.967968
 30
0.0
 11
183.5844
 21
-410.467968
 31
0.0
  0
LINE
  5
237
100
AcDbEntity
  8
1
100
AcDbLine
 10
154.6844
 20
-411.967968
 30
0.0
 11
154.6844
 21
-415.967968
 31
0.0
  0
ARC
  5
238
100
AcDbEntity
  8
1
100
AcDbCircle
 10
157.1844
 20
-409.35476
 30
0.0
 40
6.613208
100
AcDbArc
 50
247.788205
 51
292.211795
  0
LINE
  5
239
100
AcDbEntity
  8
1
100
AcDbLine
 10
164.6844
 20
-411.967968
 30
0.0
 11
164.6844
 21
-415.967968
 31
0.0
  0
LINE
  5
23A
100
AcDbEntity
  8
1
100
AcDbLine
 10
164.6844
 20
-415.967968
 30
0.0
 11
154.6844
 21
-415.967968
 31
0.0
  0
LINE
  5
23B
100
AcDbEntity
  8
1
100
AcDbLine
 10
159.6844
 20
-411.967968
 30
0.0
 11
159.6844
 21
-415.47722
 31
0.0
  0
ARC
  5
23C
100
AcDbEntity
  8
1
100
AcDbCircle
 10
162.1844
 20
-409.35476
 30
0.0
 40
6.613208
100
AcDbArc
 50
247.788205
 51
292.211795
  0
LINE
  5
23D
100
AcDbEntity
  8
1
100
AcDbLine
 10
153.5844
 20
-410.467968
 30
0.0
 11
153.5844
 21
-411.967968
 31
0.0
  0
LINE
  5
23E
100
AcDbEntity
  8
1
100
AcDbLine
 10
153.5844
 20
-411.967968
 30
0.0
 11
165.7844
 21
-411.967968
 31
0.0
  0
LINE
  5
23F
100
AcDbEntity
  8
1
100
AcDbLine
 10
165.7844
 20
-411.967968
 30
0.0
 11
165.7844
 21
-410.467968
 31
0.0
  0
LINE
  5
240
100
AcDbEntity
  8
1
100
AcDbLine
 10
-455.9761
 20
-178.788184
 30
0.0
 11
-456.467432
 21
-177.937172
 31
0.0
  0
ARC
  5
241
100
AcDbEntity
  8
1
100
AcDbCircle
 10
-460.79756
 20
-180.437172
 30
0.0
 40
5.0
100
AcDbArc
 50
30.0
 51
108.537641
  0
ARC
  5
242
100
AcDbEntity
  8
1
100
AcDbCircle
 10
-457.33286
 20
-178.788184
 30
0.0
 40
1.35676
100
AcDbArc
 50
285.704125
 51
360.0
  0
LINE
  5
243
100
AcDbEntity
  8
1
100
AcDbLine
 10
-455.9761
 20
-327.147748
 30
0.0
 11
-456.467432
 21
-327.998764
 31
0.0
  0
ARC
  5
244
100
AcDbEntity
  8
1
100
AcDbCircle
 10
-460.79756
 20
-325.498764
 30
0.0
 40
5.0
100
AcDbArc
 50
251.462359
 51
330.0
  0
ARC
  5
245
100
AcDbEntity
  8
1
100
AcDbCircle
 10
-457.33286
 20
-327.147748
 30
0.0
 40
1.35676
100
AcDbArc
 50
0.0
 51
74.295875
  0
ARC
  5
246
100
AcDbEntity
  8
1
100
AcDbCircle
 10
-436.4761
 20
-252.967968
 30
0.0
 40
75.699352
100
AcDbArc
 50
105.704125
 51
254.295875
  0
ARC
  5
247
100
AcDbEntity
  8
1
100
AcDbCircle
 10
-436.4761
 20
-252.967968
 30
0.0
 40
75.699352
100
AcDbArc
 50
284.882328
 51
75.117672
  0
ARC
  5
248
100
AcDbEntity
  8
1
100
AcDbCircle
 10
-436.4761
 20
-252.967968
 30
0.0
 40
74.17978
100
AcDbArc
 50
105.240715
 51
254.759285
  0
ARC
  5
249
100
AcDbEntity
  8
1
100
AcDbCircle
 10
-436.4761
 20
-252.967968
 30
0.0
 40
74.17978
100
AcDbArc
 50
285.240715
 51
74.759285
  0
LINE
  5
24A
100
AcDbEntity
  8
1
100
AcDbLine
 10
-453.9761
 20
-207.967968
 30
0.0
 11
-417.9761
 21
-207.967968
 31
0.0
  0
LINE
  5
24B
100
AcDbEntity
  8
1
100
AcDbLine
 10
-455.9761
 20
-205.967968
 30
0.0
 11
-455.9761
 21
-175.255356
 31
0.0
  0
LINE
  5
24C
100
AcDbEntity
  8
1
100
AcDbLine
 10
-415.9761
 20
-185.967968
 30
0.0
 11
-415.9761
 21
-319.967968
 31
0.0
  0
ARC
  5
24D
100
AcDbEntity
  8
1
100
AcDbCircle
 10
-453.9761
 20
-205.967968
 30
0.0
 40
2.0
100
AcDbArc
 50
180.0
 51
270.0
  0
ARC
  5
24E
100
AcDbEntity
  8
1
100
AcDbCircle
 10
-417.9761
 20
-205.967968
 30
0.0
 40
2.0
100
AcDbArc
 50
270.0
 51
360.0
  0
LINE
  5
24F
100
AcDbEntity
  8
1
100
AcDbLine
 10
-416.9761
 20
-183.322216
 30
0.0
 11
-416.9761
 21
-179.967968
 31
0.0
  0
LINE
  5
250
100
AcDbEntity
  8
1
100
AcDbLine
 10
-427.9761
 20
-175.255356
 30
0.0
 11
-455.9761
 21
-175.255356
 31
0.0
  0
ARC
  5
251
100
AcDbEntity
  8
1
100
AcDbCircle
 10
-434.9761
 20
-252.967968
 30
0.0
 40
80.5
100
AcDbArc
 50
98.141305
 51
105.121665
  0
ARC
  5
252
100
AcDbEntity
  8
1
100
AcDbCircle
 10
-434.3761
 20
45.556212
 30
0.0
 40
219.16424
100
AcDbArc
 50
266.861288
 51
271.67338
  0
LINE
  5
253
100
AcDbEntity
  8
1
100
AcDbLine
 10
-427.9761
 20
-179.967968
 30
0.0
 11
-427.9761
 21
-173.51456
 31
0.0
  0
LINE
  5
254
100
AcDbEntity
  8
1
100
AcDbLine
 10
-427.9761
 20
-179.967968
 30
0.0
 11
-416.9761
 21
-179.967968
 31
0.0
  0
ARC
  5
255
100
AcDbEntity
  8
1
100
AcDbCircle
 10
-434.3761
 20
-274.073136
 30
0.0
 40
96.860632
100
AcDbArc
 50
82.939482
 51
83.479123
  0
LINE
  5
256
100
AcDbEntity
  8
1
100
AcDbLine
 10
-422.47022
 20
-177.947012
 30
0.0
 11
-422.47022
 21
-178.667968
 31
0.0
  0
LINE
  5
257
100
AcDbEntity
  8
1
100
AcDbLine
 10
-423.3761
 20
-178.667968
 30
0.0
 11
-422.47022
 21
-178.667968
 31
0.0
  0
LINE
  5
258
100
AcDbEntity
  8
1
100
AcDbLine
 10
-423.3761
 20
-172.52768
 30
0.0
 11
-423.3761
 21
-179.967968
 31
0.0
  0
LINE
  5
259
100
AcDbEntity
  8
1
100
AcDbLine
 10
-445.3761
 20
-173.331804
 30
0.0
 11
-445.3761
 21
-171.955376
 31
0.0
  0
LINE
  5
25A
100
AcDbEntity
  8
1
100
AcDbLine
 10
-417.033876
 20
-178.772964
 30
0.0
 11
-417.033876
 21
-179.967968
 31
0.0
  0
ARC
  5
25B
100
AcDbEntity
  8
1
100
AcDbCircle
 10
-431.265576
 20
-254.141052
 30
0.0
 40
76.7
100
AcDbArc
 50
79.306788
 51
83.415281
  0
LINE
  5
25C
100
AcDbEntity
  8
1
100
AcDbLine
 10
-434.4761
 20
-183.967968
 30
0.0
 11
-417.9761
 21
-183.967968
 31
0.0
  0
ARC
  5
25D
100
AcDbEntity
  8
1
100
AcDbCircle
 10
-417.9761
 20
-185.967968
 30
0.0
 40
2.0
100
AcDbArc
 50
0.0
 51
90.0
  0
ARC
  5
25E
100
AcDbEntity
  8
1
100
AcDbCircle
 10
-414.9761
 20
-183.322216
 30
0.0
 40
2.0
100
AcDbArc
 50
180.0
 51
221.409622
  0
ARC
  5
25F
100
AcDbEntity
  8
1
100
AcDbCircle
 10
-434.4761
 20
-181.967968
 30
0.0
 40
2.0
100
AcDbArc
 50
180.0
 51
270.0
  0
LINE
  5
260
100
AcDbEntity
  8
1
  6
CENTER
 62
     2
100
AcDbLine
 10
-452.580676
 20
-199.967968
 30
0.0
 11
-437.963456
 21
-199.967968
 31
0.0
  0
LINE
  5
261
100
AcDbEntity
  8
1
100
AcDbLine
 10
-447.4761
 20
-191.967968
 30
0.0
 11
-438.4761
 21
-191.967968
 31
0.0
  0
ARC
  5
262
100
AcDbEntity
  8
1
100
AcDbCircle
 10
-447.4761
 20
-199.967968
 30
0.0
 40
8.0
100
AcDbArc
 50
90.0
 51
270.0
  0
ARC
  5
263
100
AcDbEntity
  8
1
100
AcDbCircle
 10
-438.4761
 20
-189.967968
 30
0.0
 40
2.0
100
AcDbArc
 50
270.0
 51
360.0
  0
LINE
  5
264
100
AcDbEntity
  8
1
100
AcDbLine
 10
-430.151544
 20
-185.967968
 30
0.0
 11
-430.151544
 21
-205.967968
 31
0.0
  0
ARC
  5
265
100
AcDbEntity
  8
1
100
AcDbCircle
 10
-432.151544
 20
-205.967968
 30
0.0
 40
2.0
100
AcDbArc
 50
270.0
 51
360.0
  0
ARC
  5
266
100
AcDbEntity
  8
1
100
AcDbCircle
 10
-432.151544
 20
-185.967968
 30
0.0
 40
2.0
100
AcDbArc
 50
0.0
 51
90.0
  0
LINE
  5
267
100
AcDbEntity
  8
1
100
AcDbLine
 10
-453.9761
 20
-297.967968
 30
0.0
 11
-417.9761
 21
-297.967968
 31
0.0
  0
LINE
  5
268
100
AcDbEntity
  8
1
100
AcDbLine
 10
-455.9761
 20
-299.967968
 30
0.0
 11
-455.9761
 21
-330.68058
 31
0.0
  0
ARC
  5
269
100
AcDbEntity
  8
1
100
AcDbCircle
 10
-453.9761
 20
-299.967968
 30
0.0
 40
2.0
100
AcDbArc
 50
90.0
 51
180.0
  0
ARC
  5
26A
100
AcDbEntity
  8
1
100
AcDbCircle
 10
-417.9761
 20
-299.967968
 30
0.0
 40
2.0
100
AcDbArc
 50
0.0
 51
90.0
  0
LINE
  5
26B
100
AcDbEntity
  8
1
100
AcDbLine
 10
-416.9761
 20
-322.61372
 30
0.0
 11
-416.9761
 21
-325.967968
 31
0.0
  0
LINE
  5
26C
100
AcDbEntity
  8
1
100
AcDbLine
 10
-427.9761
 20
-330.68058
 30
0.0
 11
-455.9761
 21
-330.68058
 31
0.0
  0
ARC
  5
26D
100
AcDbEntity
  8
1
100
AcDbCircle
 10
-434.9761
 20
-252.967968
 30
0.0
 40
80.5
100
AcDbArc
 50
254.878335
 51
261.858695
  0
ARC
  5
26E
100
AcDbEntity
  8
1
100
AcDbCircle
 10
-434.3761
 20
-551.492148
 30
0.0
 40
219.16424
100
AcDbArc
 50
88.32662
 51
93.138712
  0
LINE
  5
26F
100
AcDbEntity
  8
1
100
AcDbLine
 10
-427.9761
 20
-325.967968
 30
0.0
 11
-427.9761
 21
-332.421372
 31
0.0
  0
LINE
  5
270
100
AcDbEntity
  8
1
100
AcDbLine
 10
-427.9761
 20
-325.967968
 30
0.0
 11
-416.9761
 21
-325.967968
 31
0.0
  0
ARC
  5
271
100
AcDbEntity
  8
1
100
AcDbCircle
 10
-434.3761
 20
-231.862796
 30
0.0
 40
96.860632
100
AcDbArc
 50
276.520877
 51
277.060518
  0
LINE
  5
272
100
AcDbEntity
  8
1
100
AcDbLine
 10
-422.47022
 20
-327.988924
 30
0.0
 11
-422.47022
 21
-327.267968
 31
0.0
  0
LINE
  5
273
100
AcDbEntity
  8
1
100
AcDbLine
 10
-423.3761
 20
-327.267968
 30
0.0
 11
-422.47022
 21
-327.267968
 31
0.0
  0
LINE
  5
274
100
AcDbEntity
  8
1
100
AcDbLine
 10
-423.3761
 20
-333.408256
 30
0.0
 11
-423.3761
 21
-325.967968
 31
0.0
  0
LINE
  5
275
100
AcDbEntity
  8
1
100
AcDbLine
 10
-445.3761
 20
-332.604128
 30
0.0
 11
-445.3761
 21
-333.98056
 31
0.0
  0
LINE
  5
276
100
AcDbEntity
  8
1
100
AcDbLine
 10
-417.033876
 20
-327.162972
 30
0.0
 11
-417.033876
 21
-325.967968
 31
0.0
  0
ARC
  5
277
100
AcDbEntity
  8
1
100
AcDbCircle
 10
-431.265576
 20
-251.794884
 30
0.0
 40
76.7
100
AcDbArc
 50
276.584719
 51
280.693212
  0
LINE
  5
278
100
AcDbEntity
  8
1
100
AcDbLine
 10
-434.4761
 20
-321.967968
 30
0.0
 11
-417.9761
 21
-321.967968
 31
0.0
  0
ARC
  5
279
100
AcDbEntity
  8
1
100
AcDbCircle
 10
-417.9761
 20
-319.967968
 30
0.0
 40
2.0
100
AcDbArc
 50
270.0
 51
360.0
  0
ARC
  5
27A
100
AcDbEntity
  8
1
100
AcDbCircle
 10
-414.9761
 20
-322.61372
 30
0.0
 40
2.0
100
AcDbArc
 50
138.590378
 51
180.0
  0
ARC
  5
27B
100
AcDbEntity
  8
1
100
AcDbCircle
 10
-434.4761
 20
-323.967968
 30
0.0
 40
2.0
100
AcDbArc
 50
90.0
 51
180.0
  0
LINE
  5
27C
100
AcDbEntity
  8
1
  6
CENTER
 62
     2
100
AcDbLine
 10
-441.499332
 20
-305.967968
 30
0.0
 11
-427.220536
 21
-305.967968
 31
0.0
  0
LINE
  5
27D
100
AcDbEntity
  8
1
100
AcDbLine
 10
-447.4761
 20
-313.967968
 30
0.0
 11
-438.4761
 21
-313.967968
 31
0.0
  0
ARC
  5
27E
100
AcDbEntity
  8
1
100
AcDbCircle
 10
-447.4761
 20
-305.967968
 30
0.0
 40
8.0
100
AcDbArc
 50
90.0
 51
270.0
  0
ARC
  5
27F
100
AcDbEntity
  8
1
100
AcDbCircle
 10
-438.4761
 20
-315.967968
 30
0.0
 40
2.0
100
AcDbArc
 50
0.0
 51
90.0
  0
LINE
  5
280
100
AcDbEntity
  8
1
100
AcDbLine
 10
-430.151544
 20
-319.967968
 30
0.0
 11
-430.151544
 21
-299.967968
 31
0.0
  0
ARC
  5
281
100
AcDbEntity
  8
1
100
AcDbCircle
 10
-432.151544
 20
-299.967968
 30
0.0
 40
2.0
100
AcDbArc
 50
0.0
 51
90.0
  0
ARC
  5
282
100
AcDbEntity
  8
1
100
AcDbCircle
 10
-432.151544
 20
-319.967968
 30
0.0
 40
2.0
100
AcDbArc
 50
270.0
 51
360.0
  0
LINE
  5
283
100
AcDbEntity
  8
1
100
AcDbLine
 10
-450.9761
 20
-295.967968
 30
0.0
 11
-450.9761
 21
-209.967968
 31
0.0
  0
LINE
  5
284
100
AcDbEntity
  8
1
100
AcDbLine
 10
-421.9761
 20
-295.967968
 30
0.0
 11
-421.9761
 21
-209.967968
 31
0.0
  0
LINE
  5
285
100
AcDbEntity
  8
1
100
AcDbLine
 10
-456.9761
 20
-297.967968
 30
0.0
 11
-456.9761
 21
-207.967968
 31
0.0
  0
ARC
  5
286
100
AcDbEntity
  8
1
100
AcDbCircle
 10
-423.9761
 20
-209.967968
 30
0.0
 40
2.0
100
AcDbArc
 50
0.0
 51
72.542397
  0
ARC
  5
287
100
AcDbEntity
  8
1
100
AcDbCircle
 10
-448.9761
 20
-209.967968
 30
0.0
 40
2.0
100
AcDbArc
 50
90.0
 51
180.0
  0
ARC
  5
288
100
AcDbEntity
  8
1
100
AcDbCircle
 10
-413.9761
 20
-209.967968
 30
0.0
 40
2.0
100
AcDbArc
 50
90.0
 51
180.0
  0
ARC
  5
289
100
AcDbEntity
  8
1
100
AcDbCircle
 10
-413.9761
 20
-295.967968
 30
0.0
 40
2.0
100
AcDbArc
 50
180.0
 51
270.0
  0
ARC
  5
28A
100
AcDbEntity
  8
1
100
AcDbCircle
 10
-423.9761
 20
-295.967968
 30
0.0
 40
2.0
100
AcDbArc
 50
287.457603
 51
360.0
  0
ARC
  5
28B
100
AcDbEntity
  8
1
100
AcDbCircle
 10
-448.9761
 20
-295.967968
 30
0.0
 40
2.0
100
AcDbArc
 50
180.0
 51
270.0
  0
ARC
  5
28C
100
AcDbEntity
  8
1
100
AcDbCircle
 10
-458.9761
 20
-209.967968
 30
0.0
 40
2.0
100
AcDbArc
 50
0.0
 51
90.0
  0
ARC
  5
28D
100
AcDbEntity
  8
1
100
AcDbCircle
 10
-458.9761
 20
-295.967968
 30
0.0
 40
2.0
100
AcDbArc
 50
270.0
 51
360.0
  0
ARC
  5
28E
100
AcDbEntity
  8
1
100
AcDbCircle
 10
-413.9761
 20
-193.053444
 30
0.0
 40
2.0
100
AcDbArc
 50
69.417086
 51
180.0
  0
ARC
  5
28F
100
AcDbEntity
  8
1
100
AcDbCircle
 10
-457.9761
 20
-192.687372
 30
0.0
 40
2.0
100
AcDbArc
 50
0.0
 51
109.629557
  0
ARC
  5
290
100
AcDbEntity
  8
1
100
AcDbCircle
 10
-457.9761
 20
-313.24856
 30
0.0
 40
2.0
100
AcDbArc
 50
250.370443
 51
360.0
  0
ARC
  5
291
100
AcDbEntity
  8
1
100
AcDbCircle
 10
-413.9761
 20
-312.882488
 30
0.0
 40
2.0
100
AcDbArc
 50
180.0
 51
290.582914
  0
LINE
  5
292
100
AcDbEntity
  8
1
100
AcDbLine
 10
-413.9761
 20
-201.967968
 30
0.0
 11
-400.601316
 21
-201.967968
 31
0.0
  0
LINE
  5
293
100
AcDbEntity
  8
1
100
AcDbLine
 10
-457.9761
 20
-201.967968
 30
0.0
 11
-472.35088
 21
-201.967968
 31
0.0
  0
LINE
  5
294
100
AcDbEntity
  8
1
100
AcDbLine
 10
-457.9761
 20
-303.967968
 30
0.0
 11
-472.35088
 21
-303.967968
 31
0.0
  0
LINE
  5
295
100
AcDbEntity
  8
1
100
AcDbLine
 10
-413.9761
 20
-303.967968
 30
0.0
 11
-400.601316
 21
-303.967968
 31
0.0
  0
ARC
  5
296
100
AcDbEntity
  8
1
100
AcDbCircle
 10
-436.4761
 20
-252.967968
 30
0.0
 40
66.0
100
AcDbArc
 50
55.906609
 51
69.417086
  0
ARC
  5
297
100
AcDbEntity
  8
1
100
AcDbCircle
 10
-436.4761
 20
-252.967968
 30
0.0
 40
66.0
100
AcDbArc
 50
290.582914
 51
304.093391
  0
ARC
  5
298
100
AcDbEntity
  8
1
100
AcDbCircle
 10
-436.4761
 20
-252.967968
 30
0.0
 40
66.0
100
AcDbArc
 50
235.906609
 51
250.370443
  0
ARC
  5
299
100
AcDbEntity
  8
1
100
AcDbCircle
 10
-436.4761
 20
-252.967968
 30
0.0
 40
66.0
100
AcDbArc
 50
109.629557
 51
124.093391
  0
ARC
  5
29A
100
AcDbEntity
  8
1
100
AcDbCircle
 10
-389.073568
 20
-209.967968
 30
0.0
 40
2.0
100
AcDbArc
 50
42.211944
 51
90.0
  0
ARC
  5
29B
100
AcDbEntity
  8
1
100
AcDbCircle
 10
-400.601316
 20
-199.967968
 30
0.0
 40
2.0
100
AcDbArc
 50
270.0
 51
55.906609
  0
ARC
  5
29C
100
AcDbEntity
  8
1
100
AcDbCircle
 10
-472.35088
 20
-199.967968
 30
0.0
 40
2.0
100
AcDbArc
 50
124.093391
 51
270.0
  0
ARC
  5
29D
100
AcDbEntity
  8
1
100
AcDbCircle
 10
-483.878632
 20
-209.967968
 30
0.0
 40
2.0
100
AcDbArc
 50
90.0
 51
137.788056
  0
ARC
  5
29E
100
AcDbEntity
  8
1
100
AcDbCircle
 10
-472.35088
 20
-305.967968
 30
0.0
 40
2.0
100
AcDbArc
 50
90.0
 51
235.906609
  0
ARC
  5
29F
100
AcDbEntity
  8
1
100
AcDbCircle
 10
-400.601316
 20
-305.967968
 30
0.0
 40
2.0
100
AcDbArc
 50
304.093391
 51
90.0
  0
ARC
  5
2A0
100
AcDbEntity
  8
1
100
AcDbCircle
 10
-413.9761
 20
-305.967968
 30
0.0
 40
2.0
100
AcDbArc
 50
90.0
 51
180.0
  0
ARC
  5
2A1
100
AcDbEntity
  8
1
100
AcDbCircle
 10
-457.9761
 20
-305.967968
 30
0.0
 40
2.0
100
AcDbArc
 50
0.0
 51
90.0
  0
ARC
  5
2A2
100
AcDbEntity
  8
1
100
AcDbCircle
 10
-457.9761
 20
-199.967968
 30
0.0
 40
2.0
100
AcDbArc
 50
270.0
 51
360.0
  0
ARC
  5
2A3
100
AcDbEntity
  8
1
100
AcDbCircle
 10
-413.9761
 20
-199.967968
 30
0.0
 40
2.0
100
AcDbArc
 50
180.0
 51
270.0
  0
LINE
  5
2A4
100
AcDbEntity
  8
1
100
AcDbLine
 10
-448.9761
 20
-249.967968
 30
0.0
 11
-445.3761
 21
-249.967968
 31
0.0
  0
LINE
  5
2A5
100
AcDbEntity
  8
1
100
AcDbLine
 10
-448.9761
 20
-232.967968
 30
0.0
 11
-445.3761
 21
-232.967968
 31
0.0
  0
LINE
  5
2A6
100
AcDbEntity
  8
1
100
AcDbLine
 10
-448.9761
 20
-226.967968
 30
0.0
 11
-445.3761
 21
-226.967968
 31
0.0
  0
LINE
  5
2A7
100
AcDbEntity
  8
1
100
AcDbLine
 10
-497.892708
 20
-232.967968
 30
0.0
 11
-482.9761
 21
-232.967968
 31
0.0
  0
LINE
  5
2A8
100
AcDbEntity
  8
1
100
AcDbLine
 10
-472.9761
 20
-232.967968
 30
0.0
 11
-458.9761
 21
-232.967968
 31
0.0
  0
LINE
  5
2A9
100
AcDbEntity
  8
1
100
AcDbLine
 10
-500.280488
 20
-249.967968
 30
0.0
 11
-482.9761
 21
-249.967968
 31
0.0
  0
LINE
  5
2AA
100
AcDbEntity
  8
1
100
AcDbLine
 10
-472.9761
 20
-249.967968
 30
0.0
 11
-458.9761
 21
-249.967968
 31
0.0
  0
LINE
  5
2AB
100
AcDbEntity
  8
1
100
AcDbLine
 10
-413.9761
 20
-249.967968
 30
0.0
 11
-399.9761
 21
-249.967968
 31
0.0
  0
LINE
  5
2AC
100
AcDbEntity
  8
1
100
AcDbLine
 10
-389.9761
 20
-249.967968
 30
0.0
 11
-372.671712
 21
-249.967968
 31
0.0
  0
LINE
  5
2AD
100
AcDbEntity
  8
1
100
AcDbLine
 10
-413.9761
 20
-232.967968
 30
0.0
 11
-399.9761
 21
-232.967968
 31
0.0
  0
LINE
  5
2AE
100
AcDbEntity
  8
1
100
AcDbLine
 10
-389.9761
 20
-232.967968
 30
0.0
 11
-375.059488
 21
-232.967968
 31
0.0
  0
LINE
  5
2AF
100
AcDbEntity
  8
1
100
AcDbLine
 10
-413.9761
 20
-226.967968
 30
0.0
 11
-399.9761
 21
-226.967968
 31
0.0
  0
LINE
  5
2B0
100
AcDbEntity
  8
1
100
AcDbLine
 10
-389.9761
 20
-226.967968
 30
0.0
 11
-378.92612
 21
-226.967968
 31
0.0
  0
LINE
  5
2B1
100
AcDbEntity
  8
1
100
AcDbLine
 10
-494.026076
 20
-226.967968
 30
0.0
 11
-482.9761
 21
-226.967968
 31
0.0
  0
LINE
  5
2B2
100
AcDbEntity
  8
1
100
AcDbLine
 10
-472.9761
 20
-226.967968
 30
0.0
 11
-458.9761
 21
-226.967968
 31
0.0
  0
LINE
  5
2B3
100
AcDbEntity
  8
1
100
AcDbLine
 10
-474.9761
 20
-247.967968
 30
0.0
 11
-474.9761
 21
-234.967968
 31
0.0
  0
LINE
  5
2B4
100
AcDbEntity
  8
1
100
AcDbLine
 10
-474.9761
 20
-224.967968
 30
0.0
 11
-474.9761
 21
-209.967968
 31
0.0
  0
LINE
  5
2B5
100
AcDbEntity
  8
1
100
AcDbLine
 10
-480.9761
 20
-247.967968
 30
0.0
 11
-480.9761
 21
-234.967968
 31
0.0
  0
LINE
  5
2B6
100
AcDbEntity
  8
1
100
AcDbLine
 10
-480.9761
 20
-224.967968
 30
0.0
 11
-480.9761
 21
-209.967968
 31
0.0
  0
LINE
  5
2B7
100
AcDbEntity
  8
1
100
AcDbLine
 10
-397.9761
 20
-247.967968
 30
0.0
 11
-397.9761
 21
-234.967968
 31
0.0
  0
LINE
  5
2B8
100
AcDbEntity
  8
1
100
AcDbLine
 10
-397.9761
 20
-224.967968
 30
0.0
 11
-397.9761
 21
-209.967968
 31
0.0
  0
LINE
  5
2B9
100
AcDbEntity
  8
1
100
AcDbLine
 10
-391.9761
 20
-247.967968
 30
0.0
 11
-391.9761
 21
-234.967968
 31
0.0
  0
LINE
  5
2BA
100
AcDbEntity
  8
1
100
AcDbLine
 10
-391.9761
 20
-224.967968
 30
0.0
 11
-391.9761
 21
-209.967968
 31
0.0
  0
ARC
  5
2BB
100
AcDbEntity
  8
1
100
AcDbCircle
 10
-436.4761
 20
-252.967968
 30
0.0
 40
66.0
100
AcDbArc
 50
25.94448
 51
42.211944
  0
ARC
  5
2BC
100
AcDbEntity
  8
1
100
AcDbCircle
 10
-436.4761
 20
-252.967968
 30
0.0
 40
66.0
100
AcDbArc
 50
137.788056
 51
154.05552
  0
ARC
  5
2BD
100
AcDbEntity
  8
1
100
AcDbCircle
 10
-436.4761
 20
-252.967968
 30
0.0
 40
66.0
100
AcDbArc
 50
4.480799
 51
16.334823
  0
ARC
  5
2BE
100
AcDbEntity
  8
1
100
AcDbCircle
 10
-436.4761
 20
-252.967968
 30
0.0
 40
66.0
100
AcDbArc
 50
163.665177
 51
175.519201
  0
LINE
  5
2BF
100
AcDbEntity
  8
1
100
AcDbLine
 10
-413.9761
 20
-207.967968
 30
0.0
 11
-399.9761
 21
-207.967968
 31
0.0
  0
LINE
  5
2C0
100
AcDbEntity
  8
1
100
AcDbLine
 10
-389.9761
 20
-207.967968
 30
0.0
 11
-389.073568
 21
-207.967968
 31
0.0
  0
LINE
  5
2C1
100
AcDbEntity
  8
1
100
AcDbLine
 10
-483.878632
 20
-207.967968
 30
0.0
 11
-482.9761
 21
-207.967968
 31
0.0
  0
LINE
  5
2C2
100
AcDbEntity
  8
1
100
AcDbLine
 10
-472.9761
 20
-207.967968
 30
0.0
 11
-458.9761
 21
-207.967968
 31
0.0
  0
ARC
  5
2C3
100
AcDbEntity
  8
1
100
AcDbCircle
 10
-399.9761
 20
-247.967968
 30
0.0
 40
2.0
100
AcDbArc
 50
270.0
 51
360.0
  0
ARC
  5
2C4
100
AcDbEntity
  8
1
100
AcDbCircle
 10
-399.9761
 20
-234.967968
 30
0.0
 40
2.0
100
AcDbArc
 50
0.0
 51
90.0
  0
ARC
  5
2C5
100
AcDbEntity
  8
1
100
AcDbCircle
 10
-399.9761
 20
-224.967968
 30
0.0
 40
2.0
100
AcDbArc
 50
270.0
 51
360.0
  0
ARC
  5
2C6
100
AcDbEntity
  8
1
100
AcDbCircle
 10
-389.9761
 20
-224.967968
 30
0.0
 40
2.0
100
AcDbArc
 50
180.0
 51
270.0
  0
ARC
  5
2C7
100
AcDbEntity
  8
1
100
AcDbCircle
 10
-389.9761
 20
-234.967968
 30
0.0
 40
2.0
100
AcDbArc
 50
90.0
 51
180.0
  0
ARC
  5
2C8
100
AcDbEntity
  8
1
100
AcDbCircle
 10
-389.9761
 20
-247.967968
 30
0.0
 40
2.0
100
AcDbArc
 50
180.0
 51
270.0
  0
ARC
  5
2C9
100
AcDbEntity
  8
1
100
AcDbCircle
 10
-482.9761
 20
-224.967968
 30
0.0
 40
2.0
100
AcDbArc
 50
270.0
 51
360.0
  0
ARC
  5
2CA
100
AcDbEntity
  8
1
100
AcDbCircle
 10
-482.9761
 20
-234.967968
 30
0.0
 40
2.0
100
AcDbArc
 50
0.0
 51
90.0
  0
ARC
  5
2CB
100
AcDbEntity
  8
1
100
AcDbCircle
 10
-472.9761
 20
-234.967968
 30
0.0
 40
2.0
100
AcDbArc
 50
90.0
 51
180.0
  0
ARC
  5
2CC
100
AcDbEntity
  8
1
100
AcDbCircle
 10
-472.9761
 20
-224.967968
 30
0.0
 40
2.0
100
AcDbArc
 50
180.0
 51
270.0
  0
ARC
  5
2CD
100
AcDbEntity
  8
1
100
AcDbCircle
 10
-472.9761
 20
-247.967968
 30
0.0
 40
2.0
100
AcDbArc
 50
180.0
 51
270.0
  0
ARC
  5
2CE
100
AcDbEntity
  8
1
100
AcDbCircle
 10
-482.9761
 20
-247.967968
 30
0.0
 40
2.0
100
AcDbArc
 50
270.0
 51
360.0
  0
ARC
  5
2CF
100
AcDbEntity
  8
1
100
AcDbCircle
 10
-399.9761
 20
-209.967968
 30
0.0
 40
2.0
100
AcDbArc
 50
0.0
 51
90.0
  0
ARC
  5
2D0
100
AcDbEntity
  8
1
100
AcDbCircle
 10
-389.9761
 20
-209.967968
 30
0.0
 40
2.0
100
AcDbArc
 50
90.0
 51
180.0
  0
ARC
  5
2D1
100
AcDbEntity
  8
1
100
AcDbCircle
 10
-472.9761
 20
-209.967968
 30
0.0
 40
2.0
100
AcDbArc
 50
90.0
 51
180.0
  0
ARC
  5
2D2
100
AcDbEntity
  8
1
100
AcDbCircle
 10
-482.9761
 20
-209.967968
 30
0.0
 40
2.0
100
AcDbArc
 50
0.0
 51
90.0
  0
ARC
  5
2D3
100
AcDbEntity
  8
1
100
AcDbCircle
 10
-378.92612
 20
-224.967968
 30
0.0
 40
2.0
100
AcDbArc
 50
270.0
 51
25.94448
  0
ARC
  5
2D4
100
AcDbEntity
  8
1
100
AcDbCircle
 10
-375.059488
 20
-234.967968
 30
0.0
 40
2.0
100
AcDbArc
 50
16.334823
 51
90.0
  0
ARC
  5
2D5
100
AcDbEntity
  8
1
100
AcDbCircle
 10
-372.671712
 20
-247.967968
 30
0.0
 40
2.0
100
AcDbArc
 50
270.0
 51
4.480799
  0
ARC
  5
2D6
100
AcDbEntity
  8
1
100
AcDbCircle
 10
-500.280488
 20
-247.967968
 30
0.0
 40
2.0
100
AcDbArc
 50
175.519201
 51
270.0
  0
ARC
  5
2D7
100
AcDbEntity
  8
1
100
AcDbCircle
 10
-497.892708
 20
-234.967968
 30
0.0
 40
2.0
100
AcDbArc
 50
90.0
 51
163.665177
  0
ARC
  5
2D8
100
AcDbEntity
  8
1
100
AcDbCircle
 10
-494.026076
 20
-224.967968
 30
0.0
 40
2.0
100
AcDbArc
 50
154.05552
 51
270.0
  0
ARC
  5
2D9
100
AcDbEntity
  8
1
100
AcDbCircle
 10
-413.9761
 20
-224.967968
 30
0.0
 40
2.0
100
AcDbArc
 50
180.0
 51
270.0
  0
ARC
  5
2DA
100
AcDbEntity
  8
1
100
AcDbCircle
 10
-413.9761
 20
-234.967968
 30
0.0
 40
2.0
100
AcDbArc
 50
90.0
 51
180.0
  0
ARC
  5
2DB
100
AcDbEntity
  8
1
100
AcDbCircle
 10
-413.9761
 20
-247.967968
 30
0.0
 40
2.0
100
AcDbArc
 50
180.0
 51
270.0
  0
ARC
  5
2DC
100
AcDbEntity
  8
1
100
AcDbCircle
 10
-423.9761
 20
-247.967968
 30
0.0
 40
2.0
100
AcDbArc
 50
287.457603
 51
360.0
  0
ARC
  5
2DD
100
AcDbEntity
  8
1
100
AcDbCircle
 10
-423.9761
 20
-234.967968
 30
0.0
 40
2.0
100
AcDbArc
 50
0.0
 51
72.542397
  0
ARC
  5
2DE
100
AcDbEntity
  8
1
100
AcDbCircle
 10
-423.9761
 20
-224.967968
 30
0.0
 40
2.0
100
AcDbArc
 50
287.457603
 51
360.0
  0
ARC
  5
2DF
100
AcDbEntity
  8
1
100
AcDbCircle
 10
-448.9761
 20
-224.967968
 30
0.0
 40
2.0
100
AcDbArc
 50
180.0
 51
270.0
  0
ARC
  5
2E0
100
AcDbEntity
  8
1
100
AcDbCircle
 10
-448.9761
 20
-234.967968
 30
0.0
 40
2.0
100
AcDbArc
 50
90.0
 51
180.0
  0
ARC
  5
2E1
100
AcDbEntity
  8
1
100
AcDbCircle
 10
-448.9761
 20
-247.967968
 30
0.0
 40
2.0
100
AcDbArc
 50
180.0
 51
270.0
  0
ARC
  5
2E2
100
AcDbEntity
  8
1
100
AcDbCircle
 10
-458.9761
 20
-247.967968
 30
0.0
 40
2.0
100
AcDbArc
 50
270.0
 51
360.0
  0
ARC
  5
2E3
100
AcDbEntity
  8
1
100
AcDbCircle
 10
-458.9761
 20
-234.967968
 30
0.0
 40
2.0
100
AcDbArc
 50
0.0
 51
90.0
  0
ARC
  5
2E4
100
AcDbEntity
  8
1
100
AcDbCircle
 10
-458.9761
 20
-224.967968
 30
0.0
 40
2.0
100
AcDbArc
 50
270.0
 51
360.0
  0
ARC
  5
2E5
100
AcDbEntity
  8
1
100
AcDbCircle
 10
-389.073568
 20
-295.967968
 30
0.0
 40
2.0
100
AcDbArc
 50
270.0
 51
317.788056
  0
ARC
  5
2E6
100
AcDbEntity
  8
1
100
AcDbCircle
 10
-483.878632
 20
-295.967968
 30
0.0
 40
2.0
100
AcDbArc
 50
222.211944
 51
270.0
  0
LINE
  5
2E7
100
AcDbEntity
  8
1
100
AcDbLine
 10
-448.9761
 20
-255.967968
 30
0.0
 11
-445.3761
 21
-255.967968
 31
0.0
  0
LINE
  5
2E8
100
AcDbEntity
  8
1
100
AcDbLine
 10
-448.9761
 20
-272.967968
 30
0.0
 11
-445.3761
 21
-272.967968
 31
0.0
  0
LINE
  5
2E9
100
AcDbEntity
  8
1
100
AcDbLine
 10
-448.9761
 20
-278.967968
 30
0.0
 11
-445.3761
 21
-278.967968
 31
0.0
  0
LINE
  5
2EA
100
AcDbEntity
  8
1
100
AcDbLine
 10
-497.892708
 20
-272.967968
 30
0.0
 11
-482.9761
 21
-272.967968
 31
0.0
  0
LINE
  5
2EB
100
AcDbEntity
  8
1
100
AcDbLine
 10
-472.9761
 20
-272.967968
 30
0.0
 11
-458.9761
 21
-272.967968
 31
0.0
  0
LINE
  5
2EC
100
AcDbEntity
  8
1
100
AcDbLine
 10
-500.280488
 20
-255.967968
 30
0.0
 11
-482.9761
 21
-255.967968
 31
0.0
  0
LINE
  5
2ED
100
AcDbEntity
  8
1
100
AcDbLine
 10
-472.9761
 20
-255.967968
 30
0.0
 11
-458.9761
 21
-255.967968
 31
0.0
  0
LINE
  5
2EE
100
AcDbEntity
  8
1
100
AcDbLine
 10
-413.9761
 20
-255.967968
 30
0.0
 11
-399.9761
 21
-255.967968
 31
0.0
  0
LINE
  5
2EF
100
AcDbEntity
  8
1
100
AcDbLine
 10
-389.9761
 20
-255.967968
 30
0.0
 11
-372.671712
 21
-255.967968
 31
0.0
  0
LINE
  5
2F0
100
AcDbEntity
  8
1
100
AcDbLine
 10
-413.9761
 20
-272.967968
 30
0.0
 11
-399.9761
 21
-272.967968
 31
0.0
  0
LINE
  5
2F1
100
AcDbEntity
  8
1
100
AcDbLine
 10
-389.9761
 20
-272.967968
 30
0.0
 11
-375.059488
 21
-272.967968
 31
0.0
  0
LINE
  5
2F2
100
AcDbEntity
  8
1
100
AcDbLine
 10
-413.9761
 20
-278.967968
 30
0.0
 11
-399.9761
 21
-278.967968
 31
0.0
  0
LINE
  5
2F3
100
AcDbEntity
  8
1
100
AcDbLine
 10
-389.9761
 20
-278.967968
 30
0.0
 11
-378.92612
 21
-278.967968
 31
0.0
  0
LINE
  5
2F4
100
AcDbEntity
  8
1
100
AcDbLine
 10
-494.026076
 20
-278.967968
 30
0.0
 11
-482.9761
 21
-278.967968
 31
0.0
  0
LINE
  5
2F5
100
AcDbEntity
  8
1
100
AcDbLine
 10
-472.9761
 20
-278.967968
 30
0.0
 11
-458.9761
 21
-278.967968
 31
0.0
  0
LINE
  5
2F6
100
AcDbEntity
  8
1
100
AcDbLine
 10
-474.9761
 20
-257.967968
 30
0.0
 11
-474.9761
 21
-270.967968
 31
0.0
  0
LINE
  5
2F7
100
AcDbEntity
  8
1
100
AcDbLine
 10
-474.9761
 20
-280.967968
 30
0.0
 11
-474.9761
 21
-295.967968
 31
0.0
  0
LINE
  5
2F8
100
AcDbEntity
  8
1
100
AcDbLine
 10
-480.9761
 20
-257.967968
 30
0.0
 11
-480.9761
 21
-270.967968
 31
0.0
  0
LINE
  5
2F9
100
AcDbEntity
  8
1
100
AcDbLine
 10
-480.9761
 20
-280.967968
 30
0.0
 11
-480.9761
 21
-295.967968
 31
0.0
  0
LINE
  5
2FA
100
AcDbEntity
  8
1
100
AcDbLine
 10
-397.9761
 20
-257.967968
 30
0.0
 11
-397.9761
 21
-270.967968
 31
0.0
  0
LINE
  5
2FB
100
AcDbEntity
  8
1
100
AcDbLine
 10
-397.9761
 20
-280.967968
 30
0.0
 11
-397.9761
 21
-295.967968
 31
0.0
  0
LINE
  5
2FC
100
AcDbEntity
  8
1
100
AcDbLine
 10
-391.9761
 20
-257.967968
 30
0.0
 11
-391.9761
 21
-270.967968
 31
0.0
  0
LINE
  5
2FD
100
AcDbEntity
  8
1
100
AcDbLine
 10
-391.9761
 20
-280.967968
 30
0.0
 11
-391.9761
 21
-295.967968
 31
0.0
  0
ARC
  5
2FE
100
AcDbEntity
  8
1
100
AcDbCircle
 10
-436.4761
 20
-252.967968
 30
0.0
 40
66.0
100
AcDbArc
 50
317.788056
 51
334.05552
  0
ARC
  5
2FF
100
AcDbEntity
  8
1
100
AcDbCircle
 10
-436.4761
 20
-252.967968
 30
0.0
 40
66.0
100
AcDbArc
 50
205.94448
 51
222.211944
  0
ARC
  5
300
100
AcDbEntity
  8
1
100
AcDbCircle
 10
-436.4761
 20
-252.967968
 30
0.0
 40
66.0
100
AcDbArc
 50
343.665177
 51
355.519201
  0
ARC
  5
301
100
AcDbEntity
  8
1
100
AcDbCircle
 10
-436.4761
 20
-252.967968
 30
0.0
 40
66.0
100
AcDbArc
 50
184.480799
 51
196.334823
  0
LINE
  5
302
100
AcDbEntity
  8
1
100
AcDbLine
 10
-413.9761
 20
-297.967968
 30
0.0
 11
-399.9761
 21
-297.967968
 31
0.0
  0
LINE
  5
303
100
AcDbEntity
  8
1
100
AcDbLine
 10
-389.9761
 20
-297.967968
 30
0.0
 11
-389.073568
 21
-297.967968
 31
0.0
  0
LINE
  5
304
100
AcDbEntity
  8
1
100
AcDbLine
 10
-483.878632
 20
-297.967968
 30
0.0
 11
-482.9761
 21
-297.967968
 31
0.0
  0
LINE
  5
305
100
AcDbEntity
  8
1
100
AcDbLine
 10
-472.9761
 20
-297.967968
 30
0.0
 11
-458.9761
 21
-297.967968
 31
0.0
  0
ARC
  5
306
100
AcDbEntity
  8
1
100
AcDbCircle
 10
-399.9761
 20
-257.967968
 30
0.0
 40
2.0
100
AcDbArc
 50
0.0
 51
90.0
  0
ARC
  5
307
100
AcDbEntity
  8
1
100
AcDbCircle
 10
-399.9761
 20
-270.967968
 30
0.0
 40
2.0
100
AcDbArc
 50
270.0
 51
360.0
  0
ARC
  5
308
100
AcDbEntity
  8
1
100
AcDbCircle
 10
-399.9761
 20
-280.967968
 30
0.0
 40
2.0
100
AcDbArc
 50
0.0
 51
90.0
  0
ARC
  5
309
100
AcDbEntity
  8
1
100
AcDbCircle
 10
-389.9761
 20
-280.967968
 30
0.0
 40
2.0
100
AcDbArc
 50
90.0
 51
180.0
  0
ARC
  5
30A
100
AcDbEntity
  8
1
100
AcDbCircle
 10
-389.9761
 20
-270.967968
 30
0.0
 40
2.0
100
AcDbArc
 50
180.0
 51
270.0
  0
ARC
  5
30B
100
AcDbEntity
  8
1
100
AcDbCircle
 10
-389.9761
 20
-257.967968
 30
0.0
 40
2.0
100
AcDbArc
 50
90.0
 51
180.0
  0
ARC
  5
30C
100
AcDbEntity
  8
1
100
AcDbCircle
 10
-482.9761
 20
-280.967968
 30
0.0
 40
2.0
100
AcDbArc
 50
0.0
 51
90.0
  0
ARC
  5
30D
100
AcDbEntity
  8
1
100
AcDbCircle
 10
-482.9761
 20
-270.967968
 30
0.0
 40
2.0
100
AcDbArc
 50
270.0
 51
360.0
  0
ARC
  5
30E
100
AcDbEntity
  8
1
100
AcDbCircle
 10
-472.9761
 20
-270.967968
 30
0.0
 40
2.0
100
AcDbArc
 50
180.0
 51
270.0
  0
ARC
  5
30F
100
AcDbEntity
  8
1
100
AcDbCircle
 10
-472.9761
 20
-280.967968
 30
0.0
 40
2.0
100
AcDbArc
 50
90.0
 51
180.0
  0
ARC
  5
310
100
AcDbEntity
  8
1
100
AcDbCircle
 10
-472.9761
 20
-257.967968
 30
0.0
 40
2.0
100
AcDbArc
 50
90.0
 51
180.0
  0
ARC
  5
311
100
AcDbEntity
  8
1
100
AcDbCircle
 10
-482.9761
 20
-257.967968
 30
0.0
 40
2.0
100
AcDbArc
 50
0.0
 51
90.0
  0
ARC
  5
312
100
AcDbEntity
  8
1
100
AcDbCircle
 10
-399.9761
 20
-295.967968
 30
0.0
 40
2.0
100
AcDbArc
 50
270.0
 51
360.0
  0
ARC
  5
313
100
AcDbEntity
  8
1
100
AcDbCircle
 10
-389.9761
 20
-295.967968
 30
0.0
 40
2.0
100
AcDbArc
 50
180.0
 51
270.0
  0
ARC
  5
314
100
AcDbEntity
  8
1
100
AcDbCircle
 10
-472.9761
 20
-295.967968
 30
0.0
 40
2.0
100
AcDbArc
 50
180.0
 51
270.0
  0
ARC
  5
315
100
AcDbEntity
  8
1
100
AcDbCircle
 10
-482.9761
 20
-295.967968
 30
0.0
 40
2.0
100
AcDbArc
 50
270.0
 51
360.0
  0
ARC
  5
316
100
AcDbEntity
  8
1
100
AcDbCircle
 10
-378.92612
 20
-280.967968
 30
0.0
 40
2.0
100
AcDbArc
 50
334.05552
 51
90.0
  0
ARC
  5
317
100
AcDbEntity
  8
1
100
AcDbCircle
 10
-375.059488
 20
-270.967968
 30
0.0
 40
2.0
100
AcDbArc
 50
270.0
 51
343.665177
  0
ARC
  5
318
100
AcDbEntity
  8
1
100
AcDbCircle
 10
-372.671712
 20
-257.967968
 30
0.0
 40
2.0
100
AcDbArc
 50
355.519201
 51
90.0
  0
ARC
  5
319
100
AcDbEntity
  8
1
100
AcDbCircle
 10
-500.280488
 20
-257.967968
 30
0.0
 40
2.0
100
AcDbArc
 50
90.0
 51
184.480799
  0
ARC
  5
31A
100
AcDbEntity
  8
1
100
AcDbCircle
 10
-497.892708
 20
-270.967968
 30
0.0
 40
2.0
100
AcDbArc
 50
196.334823
 51
270.0
  0
ARC
  5
31B
100
AcDbEntity
  8
1
100
AcDbCircle
 10
-494.026076
 20
-280.967968
 30
0.0
 40
2.0
100
AcDbArc
 50
90.0
 51
205.94448
  0
ARC
  5
31C
100
AcDbEntity
  8
1
100
AcDbCircle
 10
-413.9761
 20
-280.967968
 30
0.0
 40
2.0
100
AcDbArc
 50
90.0
 51
180.0
  0
ARC
  5
31D
100
AcDbEntity
  8
1
100
AcDbCircle
 10
-413.9761
 20
-270.967968
 30
0.0
 40
2.0
100
AcDbArc
 50
180.0
 51
270.0
  0
ARC
  5
31E
100
AcDbEntity
  8
1
100
AcDbCircle
 10
-413.9761
 20
-257.967968
 30
0.0
 40
2.0
100
AcDbArc
 50
90.0
 51
180.0
  0
ARC
  5
31F
100
AcDbEntity
  8
1
100
AcDbCircle
 10
-423.9761
 20
-257.967968
 30
0.0
 40
2.0
100
AcDbArc
 50
0.0
 51
72.542397
  0
ARC
  5
320
100
AcDbEntity
  8
1
100
AcDbCircle
 10
-423.9761
 20
-270.967968
 30
0.0
 40
2.0
100
AcDbArc
 50
287.457603
 51
360.0
  0
ARC
  5
321
100
AcDbEntity
  8
1
100
AcDbCircle
 10
-423.9761
 20
-280.967968
 30
0.0
 40
2.0
100
AcDbArc
 50
0.0
 51
72.542397
  0
ARC
  5
322
100
AcDbEntity
  8
1
100
AcDbCircle
 10
-448.9761
 20
-280.967968
 30
0.0
 40
2.0
100
AcDbArc
 50
90.0
 51
180.0
  0
ARC
  5
323
100
AcDbEntity
  8
1
100
AcDbCircle
 10
-448.9761
 20
-270.967968
 30
0.0
 40
2.0
100
AcDbArc
 50
180.0
 51
270.0
  0
ARC
  5
324
100
AcDbEntity
  8
1
100
AcDbCircle
 10
-448.9761
 20
-257.967968
 30
0.0
 40
2.0
100
AcDbArc
 50
90.0
 51
180.0
  0
ARC
  5
325
100
AcDbEntity
  8
1
100
AcDbCircle
 10
-458.9761
 20
-257.967968
 30
0.0
 40
2.0
100
AcDbArc
 50
0.0
 51
90.0
  0
ARC
  5
326
100
AcDbEntity
  8
1
100
AcDbCircle
 10
-458.9761
 20
-270.967968
 30
0.0
 40
2.0
100
AcDbArc
 50
270.0
 51
360.0
  0
ARC
  5
327
100
AcDbEntity
  8
1
100
AcDbCircle
 10
-458.9761
 20
-280.967968
 30
0.0
 40
2.0
100
AcDbArc
 50
0.0
 51
90.0
  0
ARC
  5
328
100
AcDbEntity
  8
1
100
AcDbCircle
 10
-436.4761
 20
-252.967968
 30
0.0
 40
70.0
100
AcDbArc
 50
106.174962
 51
253.825038
  0
ARC
  5
329
100
AcDbEntity
  8
1
100
AcDbCircle
 10
-436.4761
 20
-252.967968
 30
0.0
 40
70.0
100
AcDbArc
 50
287.029087
 51
72.970913
  0
ARC
  5
32A
100
AcDbEntity
  8
1
100
AcDbCircle
 10
-436.4761
 20
-252.967968
 30
0.0
 40
71.58902
100
AcDbArc
 50
105.806425
 51
254.193575
  0
ARC
  5
32B
100
AcDbEntity
  8
1
100
AcDbCircle
 10
-436.4761
 20
-252.967968
 30
0.0
 40
71.58902
100
AcDbArc
 50
285.950048
 51
74.049952
  0
ARC
  5
32C
100
AcDbEntity
  8
1
100
AcDbCircle
 10
-436.4761
 20
-252.967968
 30
0.0
 40
73.27962
100
AcDbArc
 50
105.432563
 51
254.567437
  0
ARC
  5
32D
100
AcDbEntity
  8
1
100
AcDbCircle
 10
-436.4761
 20
-252.967968
 30
0.0
 40
73.27962
100
AcDbArc
 50
285.432563
 51
74.567437
  0
LINE
  5
32E
100
AcDbEntity
  8
1
100
AcDbLine
 10
-423.3761
 20
-297.967968
 30
0.0
 11
-423.3761
 21
-207.967968
 31
0.0
  0
LINE
  5
32F
100
AcDbEntity
  8
1
100
AcDbLine
 10
-445.3761
 20
-297.967968
 30
0.0
 11
-445.3761
 21
-207.967968
 31
0.0
  0
LINE
  5
330
100
AcDbEntity
  8
1
  6
CENTER
 62
     2
100
AcDbLine
 10
-445.3761
 20
-206.883248
 30
0.0
 11
-445.3761
 21
-193.252512
 31
0.0
  0
CIRCLE
  5
331
100
AcDbEntity
  8
1
100
AcDbCircle
 10
-445.3761
 20
-199.967968
 30
0.0
 40
3.5175
  0
CIRCLE
  5
332
100
AcDbEntity
  8
1
 62
     2
100
AcDbCircle
 10
-445.3761
 20
-199.967968
 30
0.0
 40
2.5
  0
CIRCLE
  5
333
100
AcDbEntity
  8
1
100
AcDbCircle
 10
-445.3761
 20
-199.967968
 30
0.0
 40
2.067
  0
CIRCLE
  5
334
100
AcDbEntity
  8
1
100
AcDbCircle
 10
-445.3761
 20
-199.967968
 30
0.0
 40
2.65
  0
CIRCLE
  5
335
100
AcDbEntity
  8
1
100
AcDbCircle
 10
-434.3761
 20
-305.967968
 30
0.0
 40
3.5175
  0
CIRCLE
  5
336
100
AcDbEntity
  8
1
 62
     2
100
AcDbCircle
 10
-434.3761
 20
-305.967968
 30
0.0
 40
2.5
  0
CIRCLE
  5
337
100
AcDbEntity
  8
1
100
AcDbCircle
 10
-434.3761
 20
-305.967968
 30
0.0
 40
2.067
  0
CIRCLE
  5
338
100
AcDbEntity
  8
1
100
AcDbCircle
 10
-434.3761
 20
-305.967968
 30
0.0
 40
2.65
  0
LINE
  5
339
100
AcDbEntity
  8
1
  6
CENTER
 62
     2
100
AcDbLine
 10
-436.4761
 20
-416.197488
 30
0.0
 11
-436.4761
 21
-56.9204
 31
0.0
  0
ARC
  5
33A
100
AcDbEntity
  8
1
100
AcDbCircle
 10
-454.9761
 20
-207.967968
 30
0.0
 40
2.0
100
AcDbArc
 50
138.590378
 51
180.0
  0
ARC
  5
33B
100
AcDbEntity
  8
1
100
AcDbCircle
 10
-457.9761
 20
-205.322216
 30
0.0
 40
2.0
100
AcDbArc
 50
318.590378
 51
360.0
  0
ARC
  5
33C
100
AcDbEntity
  8
1
100
AcDbCircle
 10
-454.9761
 20
-297.967968
 30
0.0
 40
2.0
100
AcDbArc
 50
180.0
 51
221.409622
  0
ARC
  5
33D
100
AcDbEntity
  8
1
100
AcDbCircle
 10
-457.9761
 20
-300.61372
 30
0.0
 40
2.0
100
AcDbArc
 50
0.0
 51
41.409622
  0
LINE
  5
33E
100
AcDbEntity
  8
1
100
AcDbLine
 10
-413.3761
 20
-41.467968
 30
0.0
 11
-448.871788
 21
-41.467968
 31
0.0
  0
LINE
  5
33F
100
AcDbEntity
  8
1
100
AcDbLine
 10
-445.3761
 20
-35.467968
 30
0.0
 11
-445.3761
 21
-24.467968
 31
0.0
  0
LINE
  5
340
100
AcDbEntity
  8
1
100
AcDbLine
 10
-542.9761
 20
380.728232
 30
0.0
 11
-504.019836
 21
380.728232
 31
0.0
  0
LINE
  5
341
100
AcDbEntity
  8
1
  6
DASHED
100
AcDbLine
 10
-504.019836
 20
380.728232
 30
0.0
 11
-496.64052
 21
380.728232
 31
0.0
  0
LINE
  5
342
100
AcDbEntity
  8
1
100
AcDbLine
 10
-531.571924
 20
360.728232
 30
0.0
 11
-510.601096
 21
360.728232
 31
0.0
  0
LINE
  5
343
100
AcDbEntity
  8
1
  6
DASHED
100
AcDbLine
 10
-510.601096
 20
360.728232
 30
0.0
 11
-496.8761
 21
360.728232
 31
0.0
  0
LINE
  5
344
100
AcDbEntity
  8
1
100
AcDbLine
 10
-526.421916
 20
354.904708
 30
0.0
 11
-511.443572
 21
354.904708
 31
0.0
  0
LINE
  5
345
100
AcDbEntity
  8
1
  6
DASHED
100
AcDbLine
 10
-511.443572
 20
354.904708
 30
0.0
 11
-496.8761
 21
354.904708
 31
0.0
  0
LINE
  5
346
100
AcDbEntity
  8
1
100
AcDbLine
 10
-526.421916
 20
341.551756
 30
0.0
 11
-511.703028
 21
341.551756
 31
0.0
  0
LINE
  5
347
100
AcDbEntity
  8
1
  6
DASHED
100
AcDbLine
 10
-511.703028
 20
341.551756
 30
0.0
 11
-496.8761
 21
341.551756
 31
0.0
  0
LINE
  5
348
100
AcDbEntity
  8
1
100
AcDbLine
 10
-531.571924
 20
335.728232
 30
0.0
 11
-511.091484
 21
335.728232
 31
0.0
  0
LINE
  5
349
100
AcDbEntity
  8
1
  6
DASHED
100
AcDbLine
 10
-511.091484
 20
335.728232
 30
0.0
 11
-496.8761
 21
335.728232
 31
0.0
  0
LINE
  5
34A
100
AcDbEntity
  8
1
100
AcDbLine
 10
-542.9761
 20
323.728232
 30
0.0
 11
-508.384544
 21
323.728232
 31
0.0
  0
LINE
  5
34B
100
AcDbEntity
  8
1
  6
DASHED
100
AcDbLine
 10
-508.384544
 20
323.728232
 30
0.0
 11
-496.8761
 21
323.728232
 31
0.0
  0
LINE
  5
34C
100
AcDbEntity
  8
1
100
AcDbLine
 10
-329.9761
 20
323.728232
 30
0.0
 11
-329.9761
 21
328.547492
 31
0.0
  0
LINE
  5
34D
100
AcDbEntity
  8
1
  6
DASHED
100
AcDbLine
 10
-329.9761
 20
328.547492
 30
0.0
 11
-329.9761
 21
361.188896
 31
0.0
  0
LINE
  5
34E
100
AcDbEntity
  8
1
100
AcDbLine
 10
-329.9761
 20
323.728232
 30
0.0
 11
-333.8761
 21
323.728232
 31
0.0
  0
LINE
  5
34F
100
AcDbEntity
  8
1
  6
DASHED
100
AcDbLine
 10
-333.8761
 20
323.728232
 30
0.0
 11
-371.8761
 21
323.728232
 31
0.0
  0
LINE
  5
350
100
AcDbEntity
  8
1
100
AcDbLine
 10
-329.9761
 20
380.728232
 30
0.0
 11
-353.767252
 21
380.728232
 31
0.0
  0
LINE
  5
351
100
AcDbEntity
  8
1
  6
DASHED
100
AcDbLine
 10
-353.767252
 20
380.728232
 30
0.0
 11
-372.11168
 21
380.728232
 31
0.0
  0
LINE
  5
352
100
AcDbEntity
  8
1
100
AcDbLine
 10
-341.380272
 20
380.728232
 30
0.0
 11
-341.380272
 21
365.108028
 31
0.0
  0
LINE
  5
353
100
AcDbEntity
  8
1
  6
DASHED
100
AcDbLine
 10
-341.380272
 20
365.108028
 30
0.0
 11
-341.380272
 21
360.728232
 31
0.0
  0
LINE
  5
354
100
AcDbEntity
  8
1
  6
DASHED
100
AcDbLine
 10
-338.35754
 20
360.728232
 30
0.0
 11
-338.35754
 21
365.055268
 31
0.0
  0
LINE
  5
355
100
AcDbEntity
  8
1
100
AcDbLine
 10
-338.35754
 20
365.055268
 30
0.0
 11
-338.35754
 21
371.728232
 31
0.0
  0
ARC
  5
356
100
AcDbEntity
  8
1
  6
DASHED
100
AcDbCircle
 10
-327.309928
 20
366.853692
 30
0.0
 40
3.0
100
AcDbArc
 50
289.459236
 51
341.088199
  0
ARC
  5
357
100
AcDbEntity
  8
1
100
AcDbCircle
 10
-327.309928
 20
366.853692
 30
0.0
 40
3.0
100
AcDbArc
 50
341.088199
 51
360.0
  0
ARC
  5
358
100
AcDbEntity
  8
1
  6
DASHED
100
AcDbCircle
 10
-325.11976
 20
366.669936
 30
0.0
 40
3.0
100
AcDbArc
 50
294.274161
 51
343.986249
  0
ARC
  5
359
100
AcDbEntity
  8
1
100
AcDbCircle
 10
-325.11976
 20
366.669936
 30
0.0
 40
3.0
100
AcDbArc
 50
343.986249
 51
360.0
  0
LINE
  5
35A
100
AcDbEntity
  8
1
100
AcDbLine
 10
189.180088
 20
-35.467968
 30
0.0
 11
143.6844
 21
-35.467968
 31
0.0
  0
LINE
  5
35B
100
AcDbEntity
  8
1
100
AcDbLine
 10
133.6844
 20
-41.467968
 30
0.0
 11
189.180088
 21
-41.467968
 31
0.0
  0
LINE
  5
35C
100
AcDbEntity
  8
1
100
AcDbLine
 10
237.1844
 20
-47.967968
 30
0.0
 11
112.1844
 21
-47.967968
 31
0.0
  0
LINE
  5
35D
100
AcDbEntity
  8
1
100
AcDbLine
 10
116.1844
 20
-62.967968
 30
0.0
 11
233.1844
 21
-62.967968
 31
0.0
  0
LINE
  5
35E
100
AcDbEntity
  8
1
100
AcDbLine
 10
163.6844
 20
-35.467968
 30
0.0
 11
163.6844
 21
-24.467968
 31
0.0
  0
LINE
  5
35F
100
AcDbEntity
  8
1
100
AcDbLine
 10
163.6844
 20
-17.967968
 30
0.0
 11
163.6844
 21
-9.967968
 31
0.0
  0
LINE
  5
360
100
AcDbEntity
  8
1
100
AcDbLine
 10
185.6844
 20
-35.467968
 30
0.0
 11
185.6844
 21
-24.467968
 31
0.0
  0
LINE
  5
361
100
AcDbEntity
  8
1
100
AcDbLine
 10
185.6844
 20
-17.967968
 30
0.0
 11
185.6844
 21
-9.967968
 31
0.0
  0
LINE
  5
362
100
AcDbEntity
  8
2
  6
CENTER
 62
     2
100
AcDbLine
 10
-398.313652
 20
-6.877077
 30
0.0
 11
-398.313652
 21
-40.367676
 31
0.0
  0
LINE
  5
363
100
AcDbEntity
  8
2
  6
CENTER
 62
     2
100
AcDbLine
 10
-470.438544
 20
-6.505913
 30
0.0
 11
-470.438544
 21
-33.045032
 31
0.0
  0
LINE
  5
364
100
AcDbEntity
  8
2
  6
CENTER
 62
     2
100
AcDbLine
 10
210.746848
 20
-7.514477
 30
0.0
 11
210.746848
 21
-30.159296
 31
0.0
  0
LINE
  5
365
100
AcDbEntity
  8
2
  6
CENTER
 62
     2
100
AcDbLine
 10
138.621956
 20
-7.514477
 30
0.0
 11
138.621956
 21
-40.367676
 31
0.0
  0
LINE
  5
366
100
AcDbEntity
  8
2
100
AcDbLine
 10
134.433956
 20
-37.967968
 30
0.0
 11
133.621956
 21
-37.155968
 31
0.0
  0
LINE
  5
367
100
AcDbEntity
  8
2
100
AcDbLine
 10
133.621956
 20
-37.155968
 30
0.0
 11
133.621956
 21
-32.967968
 31
0.0
  0
LINE
  5
368
100
AcDbEntity
  8
2
 62
     2
100
AcDbLine
 10
134.433956
 20
-37.967968
 30
0.0
 11
134.433956
 21
-32.967968
 31
0.0
  0
LINE
  5
369
100
AcDbEntity
  8
2
100
AcDbLine
 10
142.809956
 20
-37.967968
 30
0.0
 11
134.433956
 21
-37.967968
 31
0.0
  0
LINE
  5
36A
100
AcDbEntity
  8
2
100
AcDbLine
 10
142.809956
 20
-37.967968
 30
0.0
 11
143.621956
 21
-37.155968
 31
0.0
  0
LINE
  5
36B
100
AcDbEntity
  8
2
100
AcDbLine
 10
143.621956
 20
-37.155968
 30
0.0
 11
143.621956
 21
-32.967968
 31
0.0
  0
LINE
  5
36C
100
AcDbEntity
  8
2
100
AcDbLine
 10
143.621956
 20
-37.155968
 30
0.0
 11
133.621956
 21
-37.155968
 31
0.0
  0
LINE
  5
36D
100
AcDbEntity
  8
2
 62
     2
100
AcDbLine
 10
142.809956
 20
-37.967968
 30
0.0
 11
142.809956
 21
-32.967968
 31
0.0
  0
LINE
  5
36E
100
AcDbEntity
  8
2
100
AcDbLine
 10
147.121956
 20
-26.967968
 30
0.0
 11
147.121956
 21
-32.967968
 31
0.0
  0
ARC
  5
36F
100
AcDbEntity
  8
2
100
AcDbCircle
 10
142.871956
 20
-22.428532
 30
0.0
 40
10.539436
100
AcDbArc
 50
246.218654
 51
293.781346
  0
LINE
  5
370
100
AcDbEntity
  8
2
100
AcDbLine
 10
147.821956
 20
-26.967968
 30
0.0
 11
129.421956
 21
-26.967968
 31
0.0
  0
LINE
  5
371
100
AcDbEntity
  8
2
100
AcDbLine
 10
130.121956
 20
-26.967968
 30
0.0
 11
130.121956
 21
-32.967968
 31
0.0
  0
LINE
  5
372
100
AcDbEntity
  8
2
100
AcDbLine
 10
130.121956
 20
-32.967968
 30
0.0
 11
147.121956
 21
-32.967968
 31
0.0
  0
LINE
  5
373
100
AcDbEntity
  8
2
100
AcDbLine
 10
138.621956
 20
-27.86286
 30
0.0
 11
138.621956
 21
-32.073076
 31
0.0
  0
ARC
  5
374
100
AcDbEntity
  8
2
100
AcDbCircle
 10
134.371956
 20
-22.428532
 30
0.0
 40
10.539436
100
AcDbArc
 50
246.218654
 51
293.781346
  0
LINE
  5
375
100
AcDbEntity
  8
2
100
AcDbLine
 10
147.821956
 20
-24.467968
 30
0.0
 11
147.821956
 21
-26.967968
 31
0.0
  0
LINE
  5
376
100
AcDbEntity
  8
2
100
AcDbLine
 10
129.421956
 20
-26.967968
 30
0.0
 11
129.421956
 21
-24.467968
 31
0.0
  0
ARC
  5
377
100
AcDbEntity
  8
2
100
AcDbCircle
 10
142.871956
 20
-37.507404
 30
0.0
 40
10.539436
100
AcDbArc
 50
66.218654
 51
113.781346
  0
ARC
  5
378
100
AcDbEntity
  8
2
100
AcDbCircle
 10
134.371956
 20
-37.507404
 30
0.0
 40
10.539436
100
AcDbArc
 50
66.218654
 51
113.781346
  0
LINE
  5
379
100
AcDbEntity
  8
2
100
AcDbLine
 10
-402.501652
 20
-37.967968
 30
0.0
 11
-394.125652
 21
-37.967968
 31
0.0
  0
LINE
  5
37A
100
AcDbEntity
  8
2
100
AcDbLine
 10
-402.501652
 20
-37.967968
 30
0.0
 11
-403.313652
 21
-37.155968
 31
0.0
  0
LINE
  5
37B
100
AcDbEntity
  8
2
100
AcDbLine
 10
-403.313652
 20
-37.155968
 30
0.0
 11
-403.313652
 21
-32.967968
 31
0.0
  0
LINE
  5
37C
100
AcDbEntity
  8
2
 62
     2
100
AcDbLine
 10
-402.501652
 20
-37.967968
 30
0.0
 11
-402.501652
 21
-32.967968
 31
0.0
  0
LINE
  5
37D
100
AcDbEntity
  8
2
100
AcDbLine
 10
-394.125652
 20
-37.967968
 30
0.0
 11
-393.313652
 21
-37.155968
 31
0.0
  0
LINE
  5
37E
100
AcDbEntity
  8
2
100
AcDbLine
 10
-393.313652
 20
-37.155968
 30
0.0
 11
-393.313652
 21
-32.967968
 31
0.0
  0
LINE
  5
37F
100
AcDbEntity
  8
2
100
AcDbLine
 10
-393.313652
 20
-37.155968
 30
0.0
 11
-403.313652
 21
-37.155968
 31
0.0
  0
LINE
  5
380
100
AcDbEntity
  8
2
 62
     2
100
AcDbLine
 10
-394.125652
 20
-37.967968
 30
0.0
 11
-394.125652
 21
-32.967968
 31
0.0
  0
LINE
  5
381
100
AcDbEntity
  8
2
100
AcDbLine
 10
-388.513652
 20
-27.86286
 30
0.0
 11
-388.513652
 21
-32.073076
 31
0.0
  0
LINE
  5
382
100
AcDbEntity
  8
2
100
AcDbLine
 10
-388.513652
 20
-32.073076
 30
0.0
 11
-390.063652
 21
-32.967968
 31
0.0
  0
LINE
  5
383
100
AcDbEntity
  8
2
100
AcDbLine
 10
-393.413652
 20
-27.86286
 30
0.0
 11
-393.413652
 21
-32.073076
 31
0.0
  0
ARC
  5
384
100
AcDbEntity
  8
2
100
AcDbCircle
 10
-390.963652
 20
-28.923516
 30
0.0
 40
3.990264
100
AcDbArc
 50
232.121121
 51
307.878879
  0
LINE
  5
385
100
AcDbEntity
  8
2
100
AcDbLine
 10
-389.113652
 20
-26.967968
 30
0.0
 11
-407.513652
 21
-26.967968
 31
0.0
  0
LINE
  5
386
100
AcDbEntity
  8
2
100
AcDbLine
 10
-408.113652
 20
-27.86286
 30
0.0
 11
-408.113652
 21
-32.073076
 31
0.0
  0
LINE
  5
387
100
AcDbEntity
  8
2
100
AcDbLine
 10
-408.113652
 20
-32.073076
 30
0.0
 11
-406.563652
 21
-32.967968
 31
0.0
  0
LINE
  5
388
100
AcDbEntity
  8
2
100
AcDbLine
 10
-406.563652
 20
-32.967968
 30
0.0
 11
-390.063652
 21
-32.967968
 31
0.0
  0
LINE
  5
389
100
AcDbEntity
  8
2
100
AcDbLine
 10
-403.213652
 20
-27.86286
 30
0.0
 11
-403.213652
 21
-32.073076
 31
0.0
  0
ARC
  5
38A
100
AcDbEntity
  8
2
100
AcDbCircle
 10
-405.663652
 20
-28.923516
 30
0.0
 40
3.990264
100
AcDbArc
 50
232.121121
 51
307.878879
  0
ARC
  5
38B
100
AcDbEntity
  8
2
100
AcDbCircle
 10
-398.313652
 20
-18.21378
 30
0.0
 40
14.7
100
AcDbArc
 50
250.528779
 51
289.471221
  0
LINE
  5
38C
100
AcDbEntity
  8
2
100
AcDbLine
 10
-389.113652
 20
-24.467968
 30
0.0
 11
-389.113652
 21
-26.967968
 31
0.0
  0
LINE
  5
38D
100
AcDbEntity
  8
2
100
AcDbLine
 10
-407.513652
 20
-26.967968
 30
0.0
 11
-407.513652
 21
-24.467968
 31
0.0
  0
LINE
  5
38E
100
AcDbEntity
  8
2
100
AcDbLine
 10
-398.313652
 20
-26.967968
 30
0.0
 11
-398.813652
 21
-24.467968
 31
0.0
  0
LINE
  5
38F
100
AcDbEntity
  8
2
100
AcDbLine
 10
-398.313652
 20
-24.467968
 30
0.0
 11
-397.813652
 21
-26.967968
 31
0.0
  0
ARC
  5
390
100
AcDbEntity
  8
2
100
AcDbCircle
 10
-398.313652
 20
-41.722152
 30
0.0
 40
14.7
100
AcDbArc
 50
70.528779
 51
109.471221
  0
ARC
  5
391
100
AcDbEntity
  8
2
100
AcDbCircle
 10
-405.663652
 20
-31.01242
 30
0.0
 40
3.990264
100
AcDbArc
 50
52.121121
 51
127.878879
  0
LINE
  5
392
100
AcDbEntity
  8
2
100
AcDbLine
 10
-408.113652
 20
-27.86286
 30
0.0
 11
-406.563652
 21
-26.967968
 31
0.0
  0
ARC
  5
393
100
AcDbEntity
  8
2
100
AcDbCircle
 10
-390.963652
 20
-31.01242
 30
0.0
 40
3.990264
100
AcDbArc
 50
52.121121
 51
127.878879
  0
LINE
  5
394
100
AcDbEntity
  8
2
100
AcDbLine
 10
-388.513652
 20
-27.86286
 30
0.0
 11
-390.063652
 21
-26.967968
 31
0.0
  0
LINE
  5
395
100
AcDbEntity
  8
2
100
AcDbLine
 10
-408.113652
 20
-17.967968
 30
0.0
 11
-408.113652
 21
-11.86286
 31
0.0
  0
LINE
  5
396
100
AcDbEntity
  8
2
100
AcDbLine
 10
-408.113652
 20
-11.86286
 30
0.0
 11
-406.563652
 21
-10.967968
 31
0.0
  0
LINE
  5
397
100
AcDbEntity
  8
2
100
AcDbLine
 10
-406.563652
 20
-10.967968
 30
0.0
 11
-390.063652
 21
-10.967968
 31
0.0
  0
LINE
  5
398
100
AcDbEntity
  8
2
100
AcDbLine
 10
-403.213652
 20
-17.967968
 30
0.0
 11
-403.213652
 21
-11.86286
 31
0.0
  0
ARC
  5
399
100
AcDbEntity
  8
2
100
AcDbCircle
 10
-405.663652
 20
-15.01242
 30
0.0
 40
3.990264
100
AcDbArc
 50
52.121121
 51
127.878879
  0
LINE
  5
39A
100
AcDbEntity
  8
2
100
AcDbLine
 10
-388.513652
 20
-17.967968
 30
0.0
 11
-388.513652
 21
-11.86286
 31
0.0
  0
LINE
  5
39B
100
AcDbEntity
  8
2
100
AcDbLine
 10
-388.513652
 20
-11.86286
 30
0.0
 11
-390.063652
 21
-10.967968
 31
0.0
  0
LINE
  5
39C
100
AcDbEntity
  8
2
100
AcDbLine
 10
-393.413652
 20
-17.967968
 30
0.0
 11
-393.413652
 21
-11.86286
 31
0.0
  0
ARC
  5
39D
100
AcDbEntity
  8
2
100
AcDbCircle
 10
-390.963652
 20
-15.01242
 30
0.0
 40
3.990264
100
AcDbArc
 50
52.121121
 51
127.878879
  0
ARC
  5
39E
100
AcDbEntity
  8
2
100
AcDbCircle
 10
-398.313652
 20
-25.722152
 30
0.0
 40
14.7
100
AcDbArc
 50
70.528781
 51
109.471223
  0
LINE
  5
39F
100
AcDbEntity
  8
2
100
AcDbLine
 10
130.121956
 20
-17.967968
 30
0.0
 11
130.121956
 21
-10.967968
 31
0.0
  0
ARC
  5
3A0
100
AcDbEntity
  8
2
100
AcDbCircle
 10
134.371956
 20
-21.507404
 30
0.0
 40
10.539436
100
AcDbArc
 50
66.218654
 51
113.781346
  0
LINE
  5
3A1
100
AcDbEntity
  8
2
100
AcDbLine
 10
147.121956
 20
-17.967968
 30
0.0
 11
147.121956
 21
-10.967968
 31
0.0
  0
LINE
  5
3A2
100
AcDbEntity
  8
2
100
AcDbLine
 10
147.121956
 20
-10.967968
 30
0.0
 11
130.121956
 21
-10.967968
 31
0.0
  0
ARC
  5
3A3
100
AcDbEntity
  8
2
100
AcDbCircle
 10
142.871956
 20
-21.507404
 30
0.0
 40
10.539436
100
AcDbArc
 50
66.218654
 51
113.781346
  0
LINE
  5
3A4
100
AcDbEntity
  8
2
100
AcDbLine
 10
138.621956
 20
-11.86286
 30
0.0
 11
138.621956
 21
-17.967968
 31
0.0
  0
LINE
  5
3A5
100
AcDbEntity
  8
2
100
AcDbLine
 10
219.246848
 20
-17.967968
 30
0.0
 11
219.246848
 21
-10.967968
 31
0.0
  0
ARC
  5
3A6
100
AcDbEntity
  8
2
100
AcDbCircle
 10
214.996848
 20
-21.507404
 30
0.0
 40
10.539436
100
AcDbArc
 50
66.218654
 51
113.781346
  0
LINE
  5
3A7
100
AcDbEntity
  8
2
100
AcDbLine
 10
202.246848
 20
-17.967968
 30
0.0
 11
202.246848
 21
-10.967968
 31
0.0
  0
LINE
  5
3A8
100
AcDbEntity
  8
2
100
AcDbLine
 10
202.246848
 20
-10.967968
 30
0.0
 11
219.246848
 21
-10.967968
 31
0.0
  0
ARC
  5
3A9
100
AcDbEntity
  8
2
100
AcDbCircle
 10
206.496848
 20
-21.507404
 30
0.0
 40
10.539436
100
AcDbArc
 50
66.218654
 51
113.781346
  0
LINE
  5
3AA
100
AcDbEntity
  8
2
100
AcDbLine
 10
210.746848
 20
-11.86286
 30
0.0
 11
210.746848
 21
-17.967968
 31
0.0
  0
LINE
  5
3AB
100
AcDbEntity
  8
2
100
AcDbLine
 10
-480.238544
 20
-17.967968
 30
0.0
 11
-480.238544
 21
-11.86286
 31
0.0
  0
LINE
  5
3AC
100
AcDbEntity
  8
2
100
AcDbLine
 10
-480.238544
 20
-11.86286
 30
0.0
 11
-478.688544
 21
-10.967968
 31
0.0
  0
LINE
  5
3AD
100
AcDbEntity
  8
2
100
AcDbLine
 10
-478.688544
 20
-10.967968
 30
0.0
 11
-462.188544
 21
-10.967968
 31
0.0
  0
LINE
  5
3AE
100
AcDbEntity
  8
2
100
AcDbLine
 10
-475.338544
 20
-17.967968
 30
0.0
 11
-475.338544
 21
-11.86286
 31
0.0
  0
ARC
  5
3AF
100
AcDbEntity
  8
2
100
AcDbCircle
 10
-477.788544
 20
-15.01242
 30
0.0
 40
3.990264
100
AcDbArc
 50
52.121121
 51
127.878879
  0
LINE
  5
3B0
100
AcDbEntity
  8
2
100
AcDbLine
 10
-460.638544
 20
-17.967968
 30
0.0
 11
-460.638544
 21
-11.86286
 31
0.0
  0
LINE
  5
3B1
100
AcDbEntity
  8
2
100
AcDbLine
 10
-460.638544
 20
-11.86286
 30
0.0
 11
-462.188544
 21
-10.967968
 31
0.0
  0
LINE
  5
3B2
100
AcDbEntity
  8
2
100
AcDbLine
 10
-465.538544
 20
-17.967968
 30
0.0
 11
-465.538544
 21
-11.86286
 31
0.0
  0
ARC
  5
3B3
100
AcDbEntity
  8
2
100
AcDbCircle
 10
-463.088544
 20
-15.01242
 30
0.0
 40
3.990264
100
AcDbArc
 50
52.121121
 51
127.878879
  0
ARC
  5
3B4
100
AcDbEntity
  8
2
100
AcDbCircle
 10
-470.438544
 20
-25.722152
 30
0.0
 40
14.7
100
AcDbArc
 50
70.528781
 51
109.471223
  0
LINE
  5
3B5
100
AcDbEntity
  8
2
100
AcDbLine
 10
147.121956
 20
-17.967968
 30
0.0
 11
130.121956
 21
-17.967968
 31
0.0
  0
LINE
  5
3B6
100
AcDbEntity
  8
2
  6
CENTER
 62
     2
100
AcDbLine
 10
-573.787842
 20
346.728232
 30
0.0
 11
-76.634284
 21
346.728232
 31
0.0
  0
LINE
  5
3B7
100
AcDbEntity
  8
2
100
AcDbLine
 10
-383.039392
 20
407.190287
 30
0.0
 11
-375.57245
 21
411.077331
 31
0.0
  0
LINE
  5
3B8
100
AcDbEntity
  8
2
100
AcDbLine
 10
-426.3761
 20
324.728232
 30
0.0
 11
-426.3761
 21
327.132314
 31
0.0
  0
ARC
  5
3B9
100
AcDbEntity
  8
2
100
AcDbCircle
 10
-424.3761
 20
324.903323
 30
0.0
 40
2.0
100
AcDbArc
 50
91.023193
 51
180.0
  0
LINE
  5
3BA
100
AcDbEntity
  8
2
100
AcDbLine
 10
-98.1261
 20
332.730464
 30
0.0
 11
-424.411814
 21
326.903004
 31
0.0
  0
LINE
  5
3BB
100
AcDbEntity
  8
2
100
AcDbLine
 10
-98.1261
 20
360.725999
 30
0.0
 11
-434.018957
 21
366.725043
 31
0.0
  0
ARC
  5
3BC
100
AcDbEntity
  8
2
100
AcDbCircle
 10
-424.3761
 20
327.132314
 30
0.0
 40
2.0
100
AcDbArc
 50
117.035692
 51
180.0
  0
LINE
  5
3BD
100
AcDbEntity
  8
2
100
AcDbLine
 10
-281.3761
 20
366.728232
 30
0.0
 11
-267.3761
 21
366.728232
 31
0.0
  0
LINE
  5
3BE
100
AcDbEntity
  8
2
100
AcDbLine
 10
-266.3761
 20
365.103509
 30
0.0
 11
-266.3761
 21
365.728232
 31
0.0
  0
LINE
  5
3BF
100
AcDbEntity
  8
2
100
AcDbLine
 10
-282.3761
 20
365.383335
 30
0.0
 11
-282.3761
 21
365.728232
 31
0.0
  0
ARC
  5
3C0
100
AcDbEntity
  8
2
100
AcDbCircle
 10
-281.3761
 20
365.728232
 30
0.0
 40
1.0
100
AcDbArc
 50
90.0
 51
180.0
  0
ARC
  5
3C1
100
AcDbEntity
  8
2
100
AcDbCircle
 10
-267.3761
 20
365.728232
 30
0.0
 40
1.0
100
AcDbArc
 50
0.0
 51
90.0
  0
ARC
  5
3C2
100
AcDbEntity
  8
2
100
AcDbCircle
 10
-283.3761
 20
365.383335
 30
0.0
 40
1.0
100
AcDbArc
 50
269.109356
 51
360.0
  0
ARC
  5
3C3
100
AcDbEntity
  8
2
100
AcDbCircle
 10
-265.3761
 20
365.103509
 30
0.0
 40
1.0
100
AcDbArc
 50
180.0
 51
269.109356
  0
ARC
  5
3C4
100
AcDbEntity
  8
2
100
AcDbCircle
 10
-265.3761
 20
328.352955
 30
0.0
 40
1.0
100
AcDbArc
 50
90.890644
 51
180.0
  0
ARC
  5
3C5
100
AcDbEntity
  8
2
100
AcDbCircle
 10
-283.3761
 20
328.073128
 30
0.0
 40
1.0
100
AcDbArc
 50
0.0
 51
90.890644
  0
ARC
  5
3C6
100
AcDbEntity
  8
2
100
AcDbCircle
 10
-267.3761
 20
327.728232
 30
0.0
 40
1.0
100
AcDbArc
 50
270.0
 51
360.0
  0
ARC
  5
3C7
100
AcDbEntity
  8
2
100
AcDbCircle
 10
-281.3761
 20
327.728232
 30
0.0
 40
1.0
100
AcDbArc
 50
180.0
 51
270.0
  0
LINE
  5
3C8
100
AcDbEntity
  8
2
100
AcDbLine
 10
-282.3761
 20
328.073128
 30
0.0
 11
-282.3761
 21
327.728232
 31
0.0
  0
LINE
  5
3C9
100
AcDbEntity
  8
2
100
AcDbLine
 10
-266.3761
 20
328.352955
 30
0.0
 11
-266.3761
 21
327.728232
 31
0.0
  0
LINE
  5
3CA
100
AcDbEntity
  8
2
100
AcDbLine
 10
-281.3761
 20
326.728232
 30
0.0
 11
-267.3761
 21
326.728232
 31
0.0
  0
ARC
  5
3CB
100
AcDbEntity
  8
2
100
AcDbCircle
 10
-434.3761
 20
346.728232
 30
0.0
 40
20.0
100
AcDbArc
 50
297.035692
 51
242.964308
  0
LINE
  5
3CC
100
AcDbEntity
  8
2
100
AcDbLine
 10
-441.3761
 20
323.728232
 30
0.0
 11
-427.3761
 21
323.728232
 31
0.0
  0
ARC
  5
3CD
100
AcDbEntity
  8
2
100
AcDbCircle
 10
-441.3761
 20
324.728232
 30
0.0
 40
1.0
100
AcDbArc
 50
180.0
 51
270.0
  0
ARC
  5
3CE
100
AcDbEntity
  8
2
100
AcDbCircle
 10
-427.3761
 20
324.728232
 30
0.0
 40
1.0
100
AcDbArc
 50
270.0
 51
360.0
  0
ARC
  5
3CF
100
AcDbEntity
  8
2
100
AcDbCircle
 10
-98.3761
 20
346.728232
 30
0.0
 40
14.0
100
AcDbArc
 50
270.890644
 51
90.0
  0
ARC
  5
3D0
100
AcDbEntity
  8
2
100
AcDbCircle
 10
-482.8761
 20
346.728232
 30
0.0
 40
2.5
100
AcDbArc
 50
111.150855
 51
248.849145
  0
LINE
  5
3D1
100
AcDbEntity
  8
2
100
AcDbLine
 10
-483.778162
 20
349.059816
 30
0.0
 11
-441.592595
 21
365.380905
 31
0.0
  0
LINE
  5
3D2
100
AcDbEntity
  8
2
100
AcDbLine
 10
-483.778162
 20
344.396648
 30
0.0
 11
-443.65445
 21
328.873266
 31
0.0
  0
ARC
  5
3D3
100
AcDbEntity
  8
2
100
AcDbCircle
 10
-444.3761
 20
327.007999
 30
0.0
 40
2.0
100
AcDbArc
 50
0.0
 51
68.849145
  0
LINE
  5
3D4
100
AcDbEntity
  8
2
100
AcDbLine
 10
-442.3761
 20
324.728232
 30
0.0
 11
-442.3761
 21
327.132314
 31
0.0
  0
ARC
  5
3D5
100
AcDbEntity
  8
2
100
AcDbCircle
 10
-449.052423
 20
306.074388
 30
0.0
 40
0.164198
100
AcDbArc
 50
315.0
 51
71.565051
  0
LINE
  5
3D6
100
AcDbEntity
  8
2
100
AcDbLine
 10
-474.821757
 20
331.406708
 30
0.0
 11
-474.009017
 21
332.219448
 31
0.0
  0
LINE
  5
3D7
100
AcDbEntity
  8
2
100
AcDbLine
 10
-476.447236
 20
329.781228
 30
0.0
 11
-475.634497
 21
330.593968
 31
0.0
  0
LINE
  5
3D8
100
AcDbEntity
  8
2
100
AcDbLine
 10
-460.877988
 20
316.508315
 30
0.0
 11
-457.108113
 21
319.96277
 31
0.0
  0
LINE
  5
3D9
100
AcDbEntity
  8
2
100
AcDbLine
 10
-460.877988
 20
316.508315
 30
0.0
 11
-458.574987
 21
321.429644
 31
0.0
  0
LINE
  5
3DA
100
AcDbEntity
  8
2
100
AcDbLine
 10
-451.790423
 20
303.336388
 30
0.0
 11
-457.046787
 21
308.592752
 31
0.0
  0
ARC
  5
3DB
100
AcDbEntity
  8
2
100
AcDbCircle
 10
-472.893176
 20
330.615962
 30
0.0
 40
8.770361
100
AcDbArc
 50
304.473609
 51
325.526391
  0
ARC
  5
3DC
100
AcDbEntity
  8
2
100
AcDbCircle
 10
-461.590285
 20
319.456422
 30
0.0
 40
9.872039
100
AcDbArc
 50
126.225698
 51
144.937217
  0
ARC
  5
3DD
100
AcDbEntity
  8
2
100
AcDbCircle
 10
-468.639176
 20
324.417391
 30
0.0
 40
3.622075
100
AcDbArc
 50
34.668048
 51
55.331952
  0
ARC
  5
3DE
100
AcDbEntity
  8
2
100
AcDbCircle
 10
-467.021487
 20
326.700129
 30
0.0
 40
0.825058
100
AcDbArc
 50
57.555956
 51
119.227043
  0
ARC
  5
3DF
100
AcDbEntity
  8
2
100
AcDbCircle
 10
-469.079416
 20
324.712608
 30
0.0
 40
0.722472
100
AcDbArc
 50
144.937217
 51
214.668048
  0
ARC
  5
3E0
100
AcDbEntity
  8
2
100
AcDbCircle
 10
-466.694605
 20
326.361963
 30
0.0
 40
3.622075
100
AcDbArc
 50
214.668048
 51
235.331952
  0
ARC
  5
3E1
100
AcDbEntity
  8
2
100
AcDbCircle
 10
-466.254365
 20
326.066746
 30
0.0
 40
0.722472
100
AcDbArc
 50
324.937217
 51
34.668048
  0
ARC
  5
3E2
100
AcDbEntity
  8
2
100
AcDbCircle
 10
-468.34396
 20
323.977151
 30
0.0
 40
0.722472
100
AcDbArc
 50
235.331952
 51
305.062783
  0
ARC
  5
3E3
100
AcDbEntity
  8
2
100
AcDbCircle
 10
-456.93365
 20
308.705889
 30
0.0
 40
0.16
100
AcDbArc
 50
71.565051
 51
225.0
  0
LINE
  5
3E4
100
AcDbEntity
  8
2
100
AcDbLine
 10
-459.705366
 20
322.560023
 30
0.0
 11
-458.544309
 21
321.398966
 31
0.0
  0
LINE
  5
3E5
100
AcDbEntity
  8
2
100
AcDbLine
 10
-462.740312
 20
316.074304
 30
0.0
 11
-460.890554
 21
320.213777
 31
0.0
  0
ARC
  5
3E6
100
AcDbEntity
  8
2
100
AcDbCircle
 10
-457.157859
 20
312.79105
 30
0.0
 40
0.722472
100
AcDbArc
 50
144.937217
 51
214.668048
  0
ARC
  5
3E7
100
AcDbEntity
  8
2
100
AcDbCircle
 10
-448.626894
 20
320.586558
 30
0.0
 40
13.170339
100
AcDbArc
 50
218.729458
 51
231.270542
  0
ARC
  5
3E8
100
AcDbEntity
  8
2
100
AcDbCircle
 10
-455.068264
 20
314.880645
 30
0.0
 40
0.722472
100
AcDbArc
 50
55.331952
 51
125.062783
  0
ARC
  5
3E9
100
AcDbEntity
  8
2
100
AcDbCircle
 10
-462.863772
 20
306.349681
 30
0.0
 40
13.170339
100
AcDbArc
 50
38.729458
 51
51.270542
  0
ARC
  5
3EA
100
AcDbEntity
  8
2
100
AcDbCircle
 10
-453.131476
 20
309.071806
 30
0.0
 40
0.098519
100
AcDbArc
 50
135.0
 51
225.0
  0
ARC
  5
3EB
100
AcDbEntity
  8
2
100
AcDbCircle
 10
-454.773047
 20
314.440405
 30
0.0
 40
3.622075
100
AcDbArc
 50
214.668048
 51
235.331952
  0
ARC
  5
3EC
100
AcDbEntity
  8
2
100
AcDbCircle
 10
-456.422402
 20
312.055594
 30
0.0
 40
0.722472
100
AcDbArc
 50
235.331952
 51
305.062783
  0
ARC
  5
3ED
100
AcDbEntity
  8
2
100
AcDbCircle
 10
-455.63408
 20
311.84937
 30
0.0
 40
1.970379
100
AcDbArc
 50
231.270542
 51
308.830069
  0
ARC
  5
3EE
100
AcDbEntity
  8
2
100
AcDbCircle
 10
-449.743976
 20
312.459306
 30
0.0
 40
0.098519
100
AcDbArc
 50
45.0
 51
135.0
  0
ARC
  5
3EF
100
AcDbEntity
  8
2
100
AcDbCircle
 10
-454.434881
 20
314.113523
 30
0.0
 40
0.825058
100
AcDbArc
 50
330.772957
 51
32.444044
  0
ARC
  5
3F0
100
AcDbEntity
  8
2
100
AcDbCircle
 10
-456.717619
 20
312.495834
 30
0.0
 40
3.622075
100
AcDbArc
 50
34.668048
 51
55.331952
  0
ARC
  5
3F1
100
AcDbEntity
  8
2
100
AcDbCircle
 10
-454.126584
 20
313.356867
 30
0.0
 40
1.970379
100
AcDbArc
 50
321.169931
 51
38.729458
  0
LINE
  5
3F2
100
AcDbEntity
  8
2
100
AcDbLine
 10
-449.813639
 20
312.528969
 30
0.0
 11
-453.201139
 21
309.141469
 31
0.0
  0
ARC
  5
3F3
100
AcDbEntity
  8
2
100
AcDbCircle
 10
-461.678588
 20
319.544725
 30
0.0
 40
9.872039
100
AcDbArc
 50
305.062783
 51
323.774302
  0
ARC
  5
3F4
100
AcDbEntity
  8
2
100
AcDbCircle
 10
-461.852782
 20
319.575568
 30
0.0
 40
11.888361
100
AcDbArc
 50
308.830069
 51
321.169931
  0
LINE
  5
3F5
100
AcDbEntity
  8
2
100
AcDbLine
 10
-462.740312
 20
316.074304
 30
0.0
 11
-460.967322
 21
314.301314
 31
0.0
  0
ARC
  5
3F6
100
AcDbEntity
  8
2
100
AcDbCircle
 10
-457.364082
 20
313.579372
 30
0.0
 40
1.970379
100
AcDbArc
 50
141.169931
 51
218.729458
  0
LINE
  5
3F7
100
AcDbEntity
  8
2
100
AcDbLine
 10
-457.077434
 20
319.932092
 30
0.0
 11
-455.916378
 21
318.771035
 31
0.0
  0
ARC
  5
3F8
100
AcDbEntity
  8
2
100
AcDbCircle
 10
-455.856586
 20
315.086869
 30
0.0
 40
1.970379
100
AcDbArc
 50
51.270542
 51
128.830069
  0
LINE
  5
3F9
100
AcDbEntity
  8
2
100
AcDbLine
 10
-460.958443
 20
314.310193
 30
0.0
 11
-455.916378
 21
318.771035
 31
0.0
  0
ARC
  5
3FA
100
AcDbEntity
  8
2
100
AcDbCircle
 10
-450.519048
 20
308.241834
 30
0.0
 40
8.770361
100
AcDbArc
 50
124.473609
 51
145.526391
  0
ARC
  5
3FB
100
AcDbEntity
  8
2
100
AcDbCircle
 10
-449.637884
 20
307.360671
 30
0.0
 40
11.888361
100
AcDbArc
 50
128.830069
 51
141.169931
  0
LINE
  5
3FC
100
AcDbEntity
  8
2
100
AcDbLine
 10
-448.936317
 20
305.958282
 30
0.0
 11
-451.558212
 21
303.336388
 31
0.0
  0
ARC
  5
3FD
100
AcDbEntity
  8
2
100
AcDbCircle
 10
-451.474152
 20
307.414482
 30
0.0
 40
0.098519
100
AcDbArc
 50
225.0
 51
315.0
  0
LINE
  5
3FE
100
AcDbEntity
  8
2
100
AcDbLine
 10
-456.883053
 20
308.857678
 30
0.0
 11
-449.000499
 21
306.23016
 31
0.0
  0
LINE
  5
3FF
100
AcDbEntity
  8
2
100
AcDbLine
 10
-451.404489
 20
307.344819
 30
0.0
 11
-448.011975
 21
310.737333
 31
0.0
  0
ARC
  5
400
100
AcDbEntity
  8
2
100
AcDbCircle
 10
-451.674317
 20
303.452493
 30
0.0
 40
0.164198
100
AcDbArc
 50
225.0
 51
315.0
  0
LINE
  5
401
100
AcDbEntity
  8
2
100
AcDbLine
 10
-451.543816
 20
307.344819
 30
0.0
 11
-453.201139
 21
309.002142
 31
0.0
  0
LINE
  5
402
100
AcDbEntity
  8
2
100
AcDbLine
 10
-448.011975
 20
310.866632
 30
0.0
 11
-449.674312
 21
312.528969
 31
0.0
  0
LINE
  5
403
100
AcDbEntity
  8
2
100
AcDbLine
 10
-473.312383
 20
328.271855
 30
0.0
 11
-475.634497
 21
330.593968
 31
0.0
  0
LINE
  5
404
100
AcDbEntity
  8
2
100
AcDbLine
 10
-472.499644
 20
329.084594
 30
0.0
 11
-474.821757
 21
331.406708
 31
0.0
  0
LINE
  5
405
100
AcDbEntity
  8
2
100
AcDbLine
 10
-471.686904
 20
329.897334
 30
0.0
 11
-474.009017
 21
332.219448
 31
0.0
  0
LINE
  5
406
100
AcDbEntity
  8
2
100
AcDbLine
 10
-470.17753
 20
331.406708
 30
0.0
 11
-471.686904
 21
329.897334
 31
0.0
  0
LINE
  5
407
100
AcDbEntity
  8
2
100
AcDbLine
 10
-472.499644
 20
329.084594
 30
0.0
 11
-473.312383
 21
328.271855
 31
0.0
  0
LINE
  5
408
100
AcDbEntity
  8
2
100
AcDbLine
 10
-466.803018
 20
320.13701
 30
0.0
 11
-465.030028
 21
318.36402
 31
0.0
  0
ARC
  5
409
100
AcDbEntity
  8
2
100
AcDbCircle
 10
-460.517773
 20
332.477437
 30
0.0
 40
13.170339
100
AcDbArc
 50
218.729458
 51
231.270542
  0
ARC
  5
40A
100
AcDbEntity
  8
2
100
AcDbCircle
 10
-467.524959
 20
323.740249
 30
0.0
 40
1.970379
100
AcDbArc
 50
231.270542
 51
308.830069
  0
ARC
  5
40B
100
AcDbEntity
  8
2
100
AcDbCircle
 10
-469.254962
 20
325.470251
 30
0.0
 40
1.970379
100
AcDbArc
 50
141.169931
 51
218.729458
  0
LINE
  5
40C
100
AcDbEntity
  8
2
100
AcDbLine
 10
-462.333297
 20
325.187954
 30
0.0
 11
-461.17224
 21
324.026897
 31
0.0
  0
ARC
  5
40D
100
AcDbEntity
  8
2
100
AcDbCircle
 10
-474.754651
 20
318.24056
 30
0.0
 40
13.170339
100
AcDbArc
 50
38.729458
 51
51.270542
  0
ARC
  5
40E
100
AcDbEntity
  8
2
100
AcDbCircle
 10
-466.017463
 20
325.247746
 30
0.0
 40
1.970379
100
AcDbArc
 50
321.169931
 51
38.729458
  0
ARC
  5
40F
100
AcDbEntity
  8
2
100
AcDbCircle
 10
-467.747465
 20
326.977748
 30
0.0
 40
1.970379
100
AcDbArc
 50
51.270542
 51
128.830069
  0
LINE
  5
410
100
AcDbEntity
  8
2
100
AcDbLine
 10
-472.731855
 20
326.065847
 30
0.0
 11
-467.971522
 21
330.826179
 31
0.0
  0
ARC
  5
411
100
AcDbEntity
  8
2
100
AcDbCircle
 10
-473.743661
 20
331.466447
 30
0.0
 40
11.888361
100
AcDbArc
 50
308.830069
 51
321.169931
  0
ARC
  5
412
100
AcDbEntity
  8
2
100
AcDbCircle
 10
-461.528764
 20
319.25155
 30
0.0
 40
11.888361
100
AcDbArc
 50
128.830069
 51
141.169931
  0
LINE
  5
413
100
AcDbEntity
  8
2
100
AcDbLine
 10
-466.794139
 20
320.145889
 30
0.0
 11
-462.333297
 21
325.187954
 31
0.0
  0
LINE
  5
414
100
AcDbEntity
  8
2
100
AcDbLine
 10
-464.626695
 20
320.257022
 30
0.0
 11
-461.17224
 21
324.026897
 31
0.0
  0
LINE
  5
415
100
AcDbEntity
  8
2
100
AcDbLine
 10
-465.030028
 20
318.36402
 30
0.0
 11
-460.890554
 21
320.213777
 31
0.0
  0
LINE
  5
416
100
AcDbEntity
  8
2
100
AcDbLine
 10
-464.626695
 20
320.257022
 30
0.0
 11
-459.705366
 21
322.560023
 31
0.0
  0
LINE
  5
417
100
AcDbEntity
  8
2
100
AcDbLine
 10
-472.731855
 20
326.065847
 30
0.0
 11
-476.447236
 21
329.781228
 31
0.0
  0
ARC
  5
418
100
AcDbEntity
  8
2
100
AcDbCircle
 10
-448.076625
 20
310.801982
 30
0.0
 40
0.091429
100
AcDbArc
 50
315.0
 51
45.0
  0
LINE
  5
419
100
AcDbEntity
  8
2
100
AcDbLine
 10
-467.971522
 20
330.826179
 30
0.0
 11
-471.686904
 21
334.541561
 31
0.0
  0
LINE
  5
41A
100
AcDbEntity
  8
2
100
AcDbLine
 10
-470.17753
 20
331.406708
 30
0.0
 11
-472.499644
 21
333.728821
 31
0.0
  0
LINE
  5
41B
100
AcDbEntity
  8
2
100
AcDbLine
 10
-472.499644
 20
333.728821
 30
0.0
 11
-471.686904
 21
334.541561
 31
0.0
  0
LINE
  5
41C
100
AcDbEntity
  8
2
100
AcDbLine
 10
-506.369155
 20
344.728232
 30
0.0
 11
-484.3761
 21
344.728232
 31
0.0
  0
LINE
  5
41D
100
AcDbEntity
  8
2
100
AcDbLine
 10
-506.369155
 20
348.728232
 30
0.0
 11
-484.3761
 21
348.728232
 31
0.0
  0
ARC
  5
41E
100
AcDbEntity
  8
2
100
AcDbCircle
 10
-434.3761
 20
346.728232
 30
0.0
 40
73.0
100
AcDbArc
 50
179.2042
 51
180.7958
  0
ARC
  5
41F
100
AcDbEntity
  8
2
100
AcDbCircle
 10
-506.369155
 20
347.728232
 30
0.0
 40
1.0
100
AcDbArc
 50
90.0
 51
179.2042
  0
ARC
  5
420
100
AcDbEntity
  8
2
100
AcDbCircle
 10
-506.369155
 20
345.728232
 30
0.0
 40
1.0
100
AcDbArc
 50
180.7958
 51
270.0
  0
ARC
  5
421
100
AcDbEntity
  8
2
100
AcDbCircle
 10
-433.3761
 20
297.738437
 30
0.0
 40
1.0
100
AcDbArc
 50
0.0
 51
91.169383
  0
ARC
  5
422
100
AcDbEntity
  8
2
100
AcDbCircle
 10
-435.3761
 20
297.738437
 30
0.0
 40
1.0
100
AcDbArc
 50
88.830617
 51
180.0
  0
ARC
  5
423
100
AcDbEntity
  8
2
100
AcDbCircle
 10
-435.3761
 20
274.735177
 30
0.0
 40
1.0
100
AcDbArc
 50
180.0
 51
269.2042
  0
ARC
  5
424
100
AcDbEntity
  8
2
100
AcDbCircle
 10
-433.3761
 20
274.735177
 30
0.0
 40
1.0
100
AcDbArc
 50
270.7958
 51
360.0
  0
LINE
  5
425
100
AcDbEntity
  8
2
100
AcDbLine
 10
-445.893961
 20
275.648425
 30
0.0
 11
-443.636535
 21
288.450926
 31
0.0
  0
ARC
  5
426
100
AcDbEntity
  8
2
100
AcDbCircle
 10
-444.621342
 20
288.624574
 30
0.0
 40
1.0
100
AcDbArc
 50
350.0
 51
170.0
  0
ARC
  5
427
100
AcDbEntity
  8
2
100
AcDbCircle
 10
-446.878769
 20
275.822074
 30
0.0
 40
1.0
100
AcDbArc
 50
169.999267
 51
350.0
  0
LINE
  5
428
100
AcDbEntity
  8
2
100
AcDbLine
 10
-447.863576
 20
275.995722
 30
0.0
 11
-445.60615
 21
288.798222
 31
0.0
  0
LINE
  5
429
100
AcDbEntity
  8
2
100
AcDbLine
 10
-458.061858
 20
278.728343
 30
0.0
 11
-453.615596
 21
290.944347
 31
0.0
  0
ARC
  5
42A
100
AcDbEntity
  8
2
100
AcDbCircle
 10
-454.555288
 20
291.286367
 30
0.0
 40
1.0
100
AcDbArc
 50
340.0
 51
160.0
  0
ARC
  5
42B
100
AcDbEntity
  8
2
100
AcDbCircle
 10
-459.00155
 20
279.070363
 30
0.0
 40
1.0
100
AcDbArc
 50
159.999267
 51
340.0
  0
LINE
  5
42C
100
AcDbEntity
  8
2
100
AcDbLine
 10
-459.941243
 20
279.412383
 30
0.0
 11
-455.494981
 21
291.628387
 31
0.0
  0
LINE
  5
42D
100
AcDbEntity
  8
2
100
AcDbLine
 10
-469.510074
 20
283.874403
 30
0.0
 11
-463.010074
 21
295.132733
 31
0.0
  0
ARC
  5
42E
100
AcDbEntity
  8
2
100
AcDbCircle
 10
-463.8761
 20
295.632733
 30
0.0
 40
1.0
100
AcDbArc
 50
330.0
 51
150.0
  0
ARC
  5
42F
100
AcDbEntity
  8
2
100
AcDbCircle
 10
-470.3761
 20
284.374403
 30
0.0
 40
1.0
100
AcDbArc
 50
149.999267
 51
330.0
  0
LINE
  5
430
100
AcDbEntity
  8
2
100
AcDbLine
 10
-471.242125
 20
284.874403
 30
0.0
 11
-464.742125
 21
296.132733
 31
0.0
  0
LINE
  5
431
100
AcDbEntity
  8
2
100
AcDbLine
 10
-479.890763
 20
290.930244
 30
0.0
 11
-471.534524
 21
300.888822
 31
0.0
  0
ARC
  5
432
100
AcDbEntity
  8
2
100
AcDbCircle
 10
-472.300569
 20
301.53161
 30
0.0
 40
1.0
100
AcDbArc
 50
320.0
 51
140.0
  0
ARC
  5
433
100
AcDbEntity
  8
2
100
AcDbCircle
 10
-480.656808
 20
291.573032
 30
0.0
 40
1.0
100
AcDbArc
 50
139.999267
 51
320.0
  0
LINE
  5
434
100
AcDbEntity
  8
2
100
AcDbLine
 10
-481.422852
 20
292.215819
 30
0.0
 11
-473.066613
 21
302.174397
 31
0.0
  0
LINE
  5
435
100
AcDbEntity
  8
2
100
AcDbLine
 10
-488.888512
 20
299.681479
 30
0.0
 11
-478.929934
 21
308.037718
 31
0.0
  0
ARC
  5
436
100
AcDbEntity
  8
2
100
AcDbCircle
 10
-479.572722
 20
308.803763
 30
0.0
 40
1.0
100
AcDbArc
 50
310.0
 51
130.0
  0
ARC
  5
437
100
AcDbEntity
  8
2
100
AcDbCircle
 10
-489.5313
 20
300.447524
 30
0.0
 40
1.0
100
AcDbArc
 50
129.999267
 51
310.0
  0
LINE
  5
438
100
AcDbEntity
  8
2
100
AcDbLine
 10
-490.174087
 20
301.213568
 30
0.0
 11
-480.21551
 21
309.569807
 31
0.0
  0
LINE
  5
439
100
AcDbEntity
  8
2
100
AcDbLine
 10
-496.229929
 20
309.862206
 30
0.0
 11
-484.971599
 21
316.362206
 31
0.0
  0
ARC
  5
43A
100
AcDbEntity
  8
2
100
AcDbCircle
 10
-485.471599
 20
317.228232
 30
0.0
 40
1.0
100
AcDbArc
 50
300.0
 51
120.0
  0
ARC
  5
43B
100
AcDbEntity
  8
2
100
AcDbCircle
 10
-496.729929
 20
310.728232
 30
0.0
 40
1.0
100
AcDbArc
 50
119.999267
 51
300.0
  0
LINE
  5
43C
100
AcDbEntity
  8
2
100
AcDbLine
 10
-497.229929
 20
311.594257
 30
0.0
 11
-485.971599
 21
318.094257
 31
0.0
  0
LINE
  5
43D
100
AcDbEntity
  8
2
100
AcDbLine
 10
-501.691948
 20
321.163089
 30
0.0
 11
-489.475944
 21
325.609351
 31
0.0
  0
ARC
  5
43E
100
AcDbEntity
  8
2
100
AcDbCircle
 10
-489.817965
 20
326.549043
 30
0.0
 40
1.0
100
AcDbArc
 50
290.0
 51
110.0
  0
ARC
  5
43F
100
AcDbEntity
  8
2
100
AcDbCircle
 10
-502.033969
 20
322.102781
 30
0.0
 40
1.0
100
AcDbArc
 50
109.999267
 51
290.0
  0
LINE
  5
440
100
AcDbEntity
  8
2
100
AcDbLine
 10
-502.375989
 20
323.042474
 30
0.0
 11
-490.159985
 21
327.488736
 31
0.0
  0
LINE
  5
441
100
AcDbEntity
  8
2
100
AcDbLine
 10
-505.455906
 20
335.210371
 30
0.0
 11
-492.653405
 21
337.467797
 31
0.0
  0
ARC
  5
442
100
AcDbEntity
  8
2
100
AcDbCircle
 10
-505.282258
 20
334.225563
 30
0.0
 40
1.0
100
AcDbArc
 50
99.999267
 51
280.0
  0
ARC
  5
443
100
AcDbEntity
  8
2
100
AcDbCircle
 10
-492.479757
 20
336.482989
 30
0.0
 40
1.0
100
AcDbArc
 50
280.0
 51
100.0
  0
LINE
  5
444
100
AcDbEntity
  8
2
100
AcDbLine
 10
-505.10861
 20
333.240755
 30
0.0
 11
-492.306109
 21
335.498182
 31
0.0
  0
LINE
  5
445
100
AcDbEntity
  8
2
100
AcDbLine
 10
-432.3761
 20
274.735177
 30
0.0
 11
-432.3761
 21
297.738437
 31
0.0
  0
LINE
  5
446
100
AcDbEntity
  8
2
100
AcDbLine
 10
-436.3761
 20
274.735177
 30
0.0
 11
-436.3761
 21
297.738437
 31
0.0
  0
ARC
  5
447
100
AcDbEntity
  8
2
100
AcDbCircle
 10
-434.3761
 20
346.728232
 30
0.0
 40
73.0
100
AcDbArc
 50
269.2042
 51
270.7958
  0
ARC
  5
448
100
AcDbEntity
  8
2
100
AcDbCircle
 10
-434.3761
 20
346.728232
 30
0.0
 40
48.0
100
AcDbArc
 50
268.830617
 51
271.169383
  0
LINE
  5
449
100
AcDbEntity
  8
2
100
AcDbLine
 10
-422.001731
 20
377.487377
 30
0.0
 11
-422.355285
 21
377.133823
 31
0.0
  0
LINE
  5
44A
100
AcDbEntity
  8
2
100
AcDbLine
 10
-425.183712
 20
380.669357
 30
0.0
 11
-422.001731
 21
377.487377
 31
0.0
  0
LINE
  5
44B
100
AcDbEntity
  8
2
100
AcDbLine
 10
-422.001731
 20
383.851338
 30
0.0
 11
-425.183712
 21
380.669357
 31
0.0
  0
LINE
  5
44C
100
AcDbEntity
  8
2
100
AcDbLine
 10
-422.355285
 20
384.204891
 30
0.0
 11
-422.001731
 21
383.851338
 31
0.0
  0
LINE
  5
44D
100
AcDbEntity
  8
2
100
AcDbLine
 10
-425.890819
 20
380.669357
 30
0.0
 11
-422.355285
 21
384.204891
 31
0.0
  0
LINE
  5
44E
100
AcDbEntity
  8
2
100
AcDbLine
 10
-422.355285
 20
377.133823
 30
0.0
 11
-425.890819
 21
380.669357
 31
0.0
  0
LINE
  5
44F
100
AcDbEntity
  8
2
100
AcDbLine
 10
-393.694852
 20
302.665786
 30
0.0
 11
-389.07605
 21
310.665786
 31
0.0
  0
LINE
  5
450
100
AcDbEntity
  8
2
100
AcDbLine
 10
-389.07605
 20
310.665786
 30
0.0
 11
-393.694852
 21
318.665786
 31
0.0
  0
LINE
  5
451
100
AcDbEntity
  8
2
100
AcDbLine
 10
-402.932456
 20
302.665786
 30
0.0
 11
-393.694852
 21
302.665786
 31
0.0
  0
LINE
  5
452
100
AcDbEntity
  8
2
100
AcDbLine
 10
-407.551258
 20
310.665786
 30
0.0
 11
-402.932456
 21
302.665786
 31
0.0
  0
LINE
  5
453
100
AcDbEntity
  8
2
100
AcDbLine
 10
-402.932456
 20
318.665786
 30
0.0
 11
-407.551258
 21
310.665786
 31
0.0
  0
LINE
  5
454
100
AcDbEntity
  8
2
100
AcDbLine
 10
-393.694852
 20
318.665786
 30
0.0
 11
-402.932456
 21
318.665786
 31
0.0
  0
CIRCLE
  5
455
100
AcDbEntity
  8
2
100
AcDbCircle
 10
-398.313654
 20
310.665786
 30
0.0
 40
8.0
  0
LINE
  5
456
100
AcDbEntity
  8
2
100
AcDbLine
 10
-426.870546
 20
323.728232
 30
0.0
 11
-441.881653
 21
323.728232
 31
0.0
  0
LINE
  5
457
100
AcDbEntity
  8
2
100
AcDbLine
 10
-427.3761
 20
323.728232
 30
0.0
 11
-441.3761
 21
323.728232
 31
0.0
  0
CIRCLE
  5
458
100
AcDbEntity
  8
2
100
AcDbCircle
 10
-470.438546
 20
382.790678
 30
0.0
 40
8.0
  0
LINE
  5
459
100
AcDbEntity
  8
2
100
AcDbLine
 10
-475.057348
 20
374.790678
 30
0.0
 11
-465.819744
 21
374.790678
 31
0.0
  0
LINE
  5
45A
100
AcDbEntity
  8
2
100
AcDbLine
 10
-465.819744
 20
374.790678
 30
0.0
 11
-461.200941
 21
382.790678
 31
0.0
  0
LINE
  5
45B
100
AcDbEntity
  8
2
100
AcDbLine
 10
-461.200941
 20
382.790678
 30
0.0
 11
-465.819744
 21
390.790678
 31
0.0
  0
LINE
  5
45C
100
AcDbEntity
  8
2
100
AcDbLine
 10
-465.819744
 20
390.790678
 30
0.0
 11
-475.057348
 21
390.790678
 31
0.0
  0
LINE
  5
45D
100
AcDbEntity
  8
2
100
AcDbLine
 10
-479.67615
 20
382.790678
 30
0.0
 11
-475.057348
 21
374.790678
 31
0.0
  0
LINE
  5
45E
100
AcDbEntity
  8
2
100
AcDbLine
 10
-475.057348
 20
390.790678
 30
0.0
 11
-479.67615
 21
382.790678
 31
0.0
  0
LINE
  5
45F
100
AcDbEntity
  8
2
100
AcDbLine
 10
-431.879043
 20
352.361943
 30
0.0
 11
-428.189756
 21
352.361943
 31
0.0
  0
LINE
  5
460
100
AcDbEntity
  8
2
100
AcDbLine
 10
-428.142969
 20
352.163749
 30
0.0
 11
-431.762075
 21
350.354196
 31
0.0
  0
CIRCLE
  5
461
100
AcDbEntity
  8
2
100
AcDbCircle
 10
-434.3761
 20
346.728232
 30
0.0
 40
14.0
  0
LINE
  5
462
100
AcDbEntity
  8
2
100
AcDbLine
 10
-432.484669
 20
349.966744
 30
0.0
 11
-436.103776
 21
348.157191
 31
0.0
  0
LINE
  5
463
100
AcDbEntity
  8
2
100
AcDbLine
 10
-436.482292
 20
348.391127
 30
0.0
 11
-436.482292
 21
349.903389
 31
0.0
  0
LINE
  5
464
100
AcDbEntity
  8
2
100
AcDbLine
 10
-436.826369
 20
349.966744
 30
0.0
 11
-440.526702
 21
348.116578
 31
0.0
  0
LINE
  5
465
100
AcDbEntity
  8
2
100
AcDbLine
 10
-440.823992
 20
346.194122
 30
0.0
 11
-440.823992
 21
352.100394
 31
0.0
  0
LINE
  5
466
100
AcDbEntity
  8
2
100
AcDbLine
 10
-436.826369
 20
347.769739
 30
0.0
 11
-440.445476
 21
345.960186
 31
0.0
  0
LINE
  5
467
100
AcDbEntity
  8
2
100
AcDbLine
 10
-440.491611
 20
347.967933
 30
0.0
 11
-436.873157
 21
347.967933
 31
0.0
  0
ARC
  5
468
100
AcDbEntity
  8
2
100
AcDbCircle
 10
-440.562444
 20
346.194122
 30
0.0
 40
0.261548
100
AcDbArc
 50
180.0
 51
296.565051
  0
ARC
  5
469
100
AcDbEntity
  8
2
100
AcDbCircle
 10
-440.491611
 20
348.046397
 30
0.0
 40
0.078464
100
AcDbArc
 50
116.565051
 51
270.0
  0
LINE
  5
46A
100
AcDbEntity
  8
2
100
AcDbLine
 10
-436.325363
 20
339.624545
 30
0.0
 11
-432.591953
 21
339.624545
 31
0.0
  0
LINE
  5
46B
100
AcDbEntity
  8
2
100
AcDbLine
 10
-436.325363
 20
347.967933
 30
0.0
 11
-432.591953
 21
347.967933
 31
0.0
  0
LINE
  5
46C
100
AcDbEntity
  8
2
100
AcDbLine
 10
-436.482292
 20
347.811004
 30
0.0
 11
-436.482292
 21
339.781473
 31
0.0
  0
ARC
  5
46D
100
AcDbEntity
  8
2
100
AcDbCircle
 10
-436.325363
 20
339.781473
 30
0.0
 40
0.156929
100
AcDbArc
 50
180.0
 51
270.0
  0
ARC
  5
46E
100
AcDbEntity
  8
2
100
AcDbCircle
 10
-436.220744
 20
348.391127
 30
0.0
 40
0.261548
100
AcDbArc
 50
180.0
 51
296.565051
  0
ARC
  5
46F
100
AcDbEntity
  8
2
100
AcDbCircle
 10
-436.325363
 20
347.811004
 30
0.0
 40
0.156929
100
AcDbArc
 50
90.0
 51
180.0
  0
ARC
  5
470
100
AcDbEntity
  8
2
100
AcDbCircle
 10
-436.873157
 20
347.863313
 30
0.0
 40
0.104619
100
AcDbArc
 50
296.565051
 51
90.0
  0
LINE
  5
471
100
AcDbEntity
  8
2
100
AcDbLine
 10
-432.435024
 20
339.781473
 30
0.0
 11
-432.435024
 21
347.811004
 31
0.0
  0
ARC
  5
472
100
AcDbEntity
  8
2
100
AcDbCircle
 10
-432.591953
 20
339.781473
 30
0.0
 40
0.156929
100
AcDbArc
 50
270.0
 51
360.0
  0
ARC
  5
473
100
AcDbEntity
  8
2
100
AcDbCircle
 10
-432.591953
 20
347.811004
 30
0.0
 40
0.156929
100
AcDbArc
 50
0.0
 51
90.0
  0
LINE
  5
474
100
AcDbEntity
  8
2
100
AcDbLine
 10
-440.562444
 20
352.361943
 30
0.0
 11
-436.873157
 21
352.361943
 31
0.0
  0
LINE
  5
475
100
AcDbEntity
  8
2
100
AcDbLine
 10
-440.491611
 20
350.164938
 30
0.0
 11
-436.873157
 21
350.164938
 31
0.0
  0
LINE
  5
476
100
AcDbEntity
  8
2
100
AcDbLine
 10
-436.826369
 20
352.163749
 30
0.0
 11
-440.526702
 21
350.313583
 31
0.0
  0
ARC
  5
477
100
AcDbEntity
  8
2
100
AcDbCircle
 10
-440.562444
 20
352.100394
 30
0.0
 40
0.261548
100
AcDbArc
 50
90.0
 51
180.0
  0
ARC
  5
478
100
AcDbEntity
  8
2
100
AcDbCircle
 10
-440.491611
 20
350.243402
 30
0.0
 40
0.078464
100
AcDbArc
 50
116.565051
 51
270.0
  0
LINE
  5
479
100
AcDbEntity
  8
2
100
AcDbLine
 10
-436.220744
 20
352.361943
 30
0.0
 11
-432.531456
 21
352.361943
 31
0.0
  0
LINE
  5
47A
100
AcDbEntity
  8
2
100
AcDbLine
 10
-436.220744
 20
350.164938
 30
0.0
 11
-432.531456
 21
350.164938
 31
0.0
  0
LINE
  5
47B
100
AcDbEntity
  8
2
100
AcDbLine
 10
-432.484669
 20
352.163749
 30
0.0
 11
-436.103776
 21
350.354196
 31
0.0
  0
ARC
  5
47C
100
AcDbEntity
  8
2
100
AcDbCircle
 10
-436.220744
 20
352.100394
 30
0.0
 40
0.261548
100
AcDbArc
 50
90.0
 51
180.0
  0
ARC
  5
47D
100
AcDbEntity
  8
2
100
AcDbCircle
 10
-436.873157
 20
352.257323
 30
0.0
 40
0.104619
100
AcDbArc
 50
296.565051
 51
90.0
  0
ARC
  5
47E
100
AcDbEntity
  8
2
100
AcDbCircle
 10
-436.220744
 20
350.588132
 30
0.0
 40
0.261548
100
AcDbArc
 50
180.0
 51
296.565051
  0
ARC
  5
47F
100
AcDbEntity
  8
2
100
AcDbCircle
 10
-436.220744
 20
349.903389
 30
0.0
 40
0.261548
100
AcDbArc
 50
90.0
 51
180.0
  0
ARC
  5
480
100
AcDbEntity
  8
2
100
AcDbCircle
 10
-436.873157
 20
350.060318
 30
0.0
 40
0.104619
100
AcDbArc
 50
296.565051
 51
90.0
  0
LINE
  5
481
100
AcDbEntity
  8
2
100
AcDbLine
 10
-436.482292
 20
350.588132
 30
0.0
 11
-436.482292
 21
352.100394
 31
0.0
  0
ARC
  5
482
100
AcDbEntity
  8
2
100
AcDbCircle
 10
-431.879043
 20
352.100394
 30
0.0
 40
0.261548
100
AcDbArc
 50
90.0
 51
180.0
  0
ARC
  5
483
100
AcDbEntity
  8
2
100
AcDbCircle
 10
-432.531456
 20
352.257323
 30
0.0
 40
0.104619
100
AcDbArc
 50
296.565051
 51
90.0
  0
ARC
  5
484
100
AcDbEntity
  8
2
100
AcDbCircle
 10
-431.879043
 20
350.588132
 30
0.0
 40
0.261548
100
AcDbArc
 50
180.0
 51
296.565051
  0
ARC
  5
485
100
AcDbEntity
  8
2
100
AcDbCircle
 10
-432.531456
 20
350.060318
 30
0.0
 40
0.104619
100
AcDbArc
 50
296.565051
 51
90.0
  0
LINE
  5
486
100
AcDbEntity
  8
2
100
AcDbLine
 10
-432.140591
 20
350.588132
 30
0.0
 11
-432.140591
 21
352.100394
 31
0.0
  0
ARC
  5
487
100
AcDbEntity
  8
2
100
AcDbCircle
 10
-428.189756
 20
352.257323
 30
0.0
 40
0.104619
100
AcDbArc
 50
296.565051
 51
90.0
  0
ARC
  5
488
100
AcDbEntity
  8
2
100
AcDbCircle
 10
-444.3761
 20
327.132314
 30
0.0
 40
2.0
100
AcDbArc
 50
0.0
 51
62.964308
  0
ARC
  5
489
100
AcDbEntity
  8
2
100
AcDbCircle
 10
-434.3761
 20
346.728232
 30
0.0
 40
77.5
100
AcDbArc
 50
117.004087
 51
332.995913
  0
LINE
  5
48A
100
AcDbEntity
  8
2
100
AcDbLine
 10
-341.8761
 20
319.728232
 30
0.0
 11
-351.960992
 21
319.728232
 31
0.0
  0
ARC
  5
48B
100
AcDbEntity
  8
2
100
AcDbCircle
 10
-349.51497
 20
365.900833
 30
0.0
 40
0.5
100
AcDbArc
 50
302.5
 51
12.731043
  0
LINE
  5
48C
100
AcDbEntity
  8
2
100
AcDbLine
 10
-349.655726
 20
365.218316
 30
0.0
 11
-349.24632
 21
365.479137
 31
0.0
  0
ARC
  5
48D
100
AcDbEntity
  8
2
100
AcDbCircle
 10
-354.133488
 20
380.345538
 30
0.0
 40
0.5
100
AcDbArc
 50
312.5
 51
22.731043
  0
ARC
  5
48E
100
AcDbEntity
  8
2
100
AcDbCircle
 10
-351.297905
 20
372.554837
 30
0.0
 40
0.5
100
AcDbArc
 50
17.268957
 51
87.5
  0
ARC
  5
48F
100
AcDbEntity
  8
2
100
AcDbCircle
 10
-359.664369
 20
373.921078
 30
0.0
 40
0.5
100
AcDbArc
 50
132.5
 51
267.5
  0
LINE
  5
490
100
AcDbEntity
  8
2
100
AcDbLine
 10
-359.686179
 20
373.421554
 30
0.0
 11
-351.276095
 21
373.054362
 31
0.0
  0
LINE
  5
491
100
AcDbEntity
  8
2
100
AcDbLine
 10
-360.002164
 20
374.289716
 30
0.0
 11
-353.795693
 21
379.9769
 31
0.0
  0
ARC
  5
492
100
AcDbEntity
  8
2
100
AcDbCircle
 10
-361.190138
 20
393.768799
 30
0.0
 40
0.5
100
AcDbArc
 50
322.5
 51
32.731043
  0
ARC
  5
493
100
AcDbEntity
  8
2
100
AcDbCircle
 10
-357.044793
 20
386.58885
 30
0.0
 40
0.5
100
AcDbArc
 50
27.268957
 51
97.5
  0
ARC
  5
494
100
AcDbEntity
  8
2
100
AcDbCircle
 10
-365.521397
 20
386.481513
 30
0.0
 40
0.5
100
AcDbArc
 50
142.5
 51
277.5
  0
LINE
  5
495
100
AcDbEntity
  8
2
100
AcDbLine
 10
-365.456133
 20
385.985791
 30
0.0
 11
-357.110056
 21
387.084573
 31
0.0
  0
LINE
  5
496
100
AcDbEntity
  8
2
100
AcDbLine
 10
-365.918073
 20
386.785894
 30
0.0
 11
-360.793461
 21
393.464418
 31
0.0
  0
ARC
  5
497
100
AcDbEntity
  8
2
100
AcDbCircle
 10
-370.470506
 20
405.762756
 30
0.0
 40
0.5
100
AcDbArc
 50
332.5
 51
42.731043
  0
ARC
  5
498
100
AcDbEntity
  8
2
100
AcDbCircle
 10
-365.141353
 20
399.411719
 30
0.0
 40
0.5
100
AcDbArc
 50
37.268957
 51
107.5
  0
ARC
  5
499
100
AcDbEntity
  8
2
100
AcDbCircle
 10
-373.470539
 20
397.834065
 30
0.0
 40
0.5
100
AcDbArc
 50
152.5
 51
287.5
  0
LINE
  5
49A
100
AcDbEntity
  8
2
100
AcDbLine
 10
-373.320186
 20
397.357207
 30
0.0
 11
-365.291706
 21
399.888577
 31
0.0
  0
LINE
  5
49B
100
AcDbEntity
  8
2
100
AcDbLine
 10
-373.914045
 20
398.06494
 30
0.0
 11
-370.027001
 21
405.531882
 31
0.0
  0
ARC
  5
49C
100
AcDbEntity
  8
2
100
AcDbCircle
 10
-381.692613
 20
415.962979
 30
0.0
 40
0.5
100
AcDbArc
 50
342.5
 51
52.731043
  0
ARC
  5
49D
100
AcDbEntity
  8
2
100
AcDbCircle
 10
-375.341576
 20
410.633826
 30
0.0
 40
0.5
100
AcDbArc
 50
47.268957
 51
117.5
  0
ARC
  5
49E
100
AcDbEntity
  8
2
100
AcDbCircle
 10
-383.270266
 20
407.633792
 30
0.0
 40
0.5
100
AcDbArc
 50
162.5
 51
297.5
  0
LINE
  5
49F
100
AcDbEntity
  8
2
100
AcDbLine
 10
-383.747125
 20
407.784145
 30
0.0
 11
-381.215755
 21
415.812626
 31
0.0
  0
ARC
  5
4A0
100
AcDbEntity
  8
2
100
AcDbCircle
 10
-394.515481
 20
424.059539
 30
0.0
 40
0.5
100
AcDbArc
 50
352.5
 51
62.731043
  0
ARC
  5
4A1
100
AcDbEntity
  8
2
100
AcDbCircle
 10
-387.335533
 20
419.914194
 30
0.0
 40
0.5
100
AcDbArc
 50
57.268957
 51
127.5
  0
ARC
  5
4A2
100
AcDbEntity
  8
2
100
AcDbCircle
 10
-394.622818
 20
415.582935
 30
0.0
 40
0.5
100
AcDbArc
 50
172.5
 51
307.5
  0
LINE
  5
4A3
100
AcDbEntity
  8
2
100
AcDbLine
 10
-394.318438
 20
415.186258
 30
0.0
 11
-387.639913
 21
420.31087
 31
0.0
  0
LINE
  5
4A4
100
AcDbEntity
  8
2
100
AcDbLine
 10
-395.118541
 20
415.648198
 30
0.0
 11
-394.019759
 21
423.994276
 31
0.0
  0
ARC
  5
4A5
100
AcDbEntity
  8
2
100
AcDbCircle
 10
-408.549494
 20
429.806426
 30
0.0
 40
0.5
100
AcDbArc
 50
2.5
 51
72.731043
  0
ARC
  5
4A6
100
AcDbEntity
  8
2
100
AcDbCircle
 10
-400.758793
 20
426.970843
 30
0.0
 40
0.5
100
AcDbArc
 50
67.268957
 51
137.5
  0
ARC
  5
4A7
100
AcDbEntity
  8
2
100
AcDbCircle
 10
-407.183254
 20
421.439962
 30
0.0
 40
0.5
100
AcDbArc
 50
182.5
 51
317.5
  0
LINE
  5
4A8
100
AcDbEntity
  8
2
100
AcDbLine
 10
-406.814615
 20
421.102167
 30
0.0
 11
-401.127432
 21
427.308638
 31
0.0
  0
LINE
  5
4A9
100
AcDbEntity
  8
2
100
AcDbLine
 10
-407.682778
 20
421.418153
 30
0.0
 11
-408.04997
 21
429.828236
 31
0.0
  0
ARC
  5
4AA
100
AcDbEntity
  8
2
100
AcDbCircle
 10
-415.203499
 20
431.589362
 30
0.0
 40
0.5
100
AcDbArc
 50
77.268957
 51
147.5
  0
ARC
  5
4AB
100
AcDbEntity
  8
2
100
AcDbCircle
 10
-420.56993
 20
425.026911
 30
0.0
 40
0.5
100
AcDbArc
 50
192.5
 51
327.5
  0
LINE
  5
4AC
100
AcDbEntity
  8
2
100
AcDbLine
 10
-420.148234
 20
424.758262
 30
0.0
 11
-415.625195
 21
431.858012
 31
0.0
  0
LINE
  5
4AD
100
AcDbEntity
  8
2
100
AcDbLine
 10
-421.058078
 20
424.918692
 30
0.0
 11
-422.880088
 21
433.137245
 31
0.0
  0
ARC
  5
4AE
100
AcDbEntity
  8
2
100
AcDbCircle
 10
-349.51497
 20
365.900833
 30
0.0
 40
0.5
100
AcDbArc
 50
302.5
 51
12.731043
  0
LINE
  5
4AF
100
AcDbEntity
  8
2
100
AcDbLine
 10
-349.655726
 20
365.218316
 30
0.0
 11
-349.24632
 21
365.479137
 31
0.0
  0
ARC
  5
4B0
100
AcDbEntity
  8
2
100
AcDbCircle
 10
-351.960992
 20
304.728232
 30
0.0
 40
15.0
100
AcDbArc
 50
90.0
 51
152.995913
  0
ARC
  5
4B1
100
AcDbEntity
  8
2
100
AcDbCircle
 10
-341.8761
 20
329.728232
 30
0.0
 40
10.0
100
AcDbArc
 50
270.0
 51
353.259225
  0
ARC
  5
4B2
100
AcDbEntity
  8
2
100
AcDbCircle
 10
-451.3761
 20
439.228232
 30
0.0
 40
10.0
100
AcDbArc
 50
90.0
 51
180.0
  0
ARC
  5
4B3
100
AcDbEntity
  8
2
100
AcDbCircle
 10
-476.3761
 20
429.14334
 30
0.0
 40
15.0
100
AcDbArc
 50
297.004087
 51
360.0
  0
LINE
  5
4B4
100
AcDbEntity
  8
2
100
AcDbLine
 10
-461.3761
 20
439.228232
 30
0.0
 11
-461.3761
 21
429.14334
 31
0.0
  0
LINE
  5
4B5
100
AcDbEntity
  8
2
100
AcDbLine
 10
-441.3761
 20
448.228232
 30
0.0
 11
-441.3761
 21
435.024608
 31
0.0
  0
ARC
  5
4B6
100
AcDbEntity
  8
2
100
AcDbCircle
 10
-434.3761
 20
346.728232
 30
0.0
 40
87.5
100
AcDbArc
 50
72.731043
 51
77.268957
  0
ARC
  5
4B7
100
AcDbEntity
  8
2
100
AcDbCircle
 10
-434.3761
 20
346.728232
 30
0.0
 40
87.5
100
AcDbArc
 50
62.731043
 51
67.268957
  0
ARC
  5
4B8
100
AcDbEntity
  8
2
100
AcDbCircle
 10
-434.3761
 20
346.728232
 30
0.0
 40
87.5
100
AcDbArc
 50
52.731043
 51
57.268957
  0
ARC
  5
4B9
100
AcDbEntity
  8
2
100
AcDbCircle
 10
-434.3761
 20
346.728232
 30
0.0
 40
87.5
100
AcDbArc
 50
42.731043
 51
47.268957
  0
ARC
  5
4BA
100
AcDbEntity
  8
2
100
AcDbCircle
 10
-434.3761
 20
346.728232
 30
0.0
 40
87.5
100
AcDbArc
 50
32.731043
 51
37.268957
  0
ARC
  5
4BB
100
AcDbEntity
  8
2
100
AcDbCircle
 10
-434.3761
 20
346.728232
 30
0.0
 40
87.5
100
AcDbArc
 50
22.731043
 51
27.268957
  0
ARC
  5
4BC
100
AcDbEntity
  8
2
100
AcDbCircle
 10
-434.3761
 20
346.728232
 30
0.0
 40
87.5
100
AcDbArc
 50
12.731043
 51
17.268957
  0
ARC
  5
4BD
100
AcDbEntity
  8
2
100
AcDbCircle
 10
-434.3761
 20
346.728232
 30
0.0
 40
87.5
100
AcDbArc
 50
82.731043
 51
87.268957
  0
ARC
  5
4BE
100
AcDbEntity
  8
2
100
AcDbCircle
 10
-434.3761
 20
346.728232
 30
0.0
 40
87.5
100
AcDbArc
 50
92.731043
 51
93.887442
  0
ARC
  5
4BF
100
AcDbEntity
  8
2
100
AcDbCircle
 10
-440.3761
 20
435.024608
 30
0.0
 40
1.0
100
AcDbArc
 50
180.0
 51
273.887442
  0
LINE
  5
4C0
100
AcDbEntity
  8
2
100
AcDbLine
 10
-434.83804
 20
426.043453
 30
0.0
 11
-438.059505
 21
433.820759
 31
0.0
  0
LINE
  5
4C1
100
AcDbEntity
  8
2
100
AcDbLine
 10
-433.91416
 20
426.043453
 30
0.0
 11
-430.692694
 21
433.820759
 31
0.0
  0
ARC
  5
4C2
100
AcDbEntity
  8
2
100
AcDbCircle
 10
-434.3761
 20
426.234795
 30
0.0
 40
0.5
100
AcDbArc
 50
202.5
 51
337.5
  0
ARC
  5
4C3
100
AcDbEntity
  8
2
100
AcDbCircle
 10
-430.230755
 20
433.629418
 30
0.0
 40
0.5
100
AcDbArc
 50
87.268957
 51
157.5
  0
ARC
  5
4C4
100
AcDbEntity
  8
2
100
AcDbCircle
 10
-438.521445
 20
433.629418
 30
0.0
 40
0.5
100
AcDbArc
 50
22.5
 51
92.731043
  0
ARC
  5
4C5
100
AcDbEntity
  8
2
100
AcDbCircle
 10
-423.368236
 20
433.029025
 30
0.0
 40
0.5
100
AcDbArc
 50
12.5
 51
82.731043
  0
ARC
  5
4C6
100
AcDbEntity
  8
2
100
AcDbCircle
 10
-442.3761
 20
448.228232
 30
0.0
 40
1.0
100
AcDbArc
 50
0.0
 51
90.0
  0
LINE
  5
4C7
100
AcDbEntity
  8
2
100
AcDbLine
 10
-442.3761
 20
449.228232
 30
0.0
 11
-451.3761
 21
449.228232
 31
0.0
  0
TEXT
  5
4C8
100
AcDbEntity
  8
2
100
AcDbText
 10
-407.714541
 20
291.517402
 30
0.0
 40
12.0
  1
Ｏ
 50
200.0
 72
     5
 11
-416.73559
 21
288.234009
 31
0.0
100
AcDbText
  0
TEXT
  5
4C9
100
AcDbEntity
  8
2
100
AcDbText
 10
-493.492956
 20
362.658074
 30
0.0
 40
12.0
  1
Ｓ
 50
70.0
 72
     5
 11
-490.209563
 21
371.679123
 31
0.0
100
AcDbText
  0
ARC
  5
4CA
100
AcDbEntity
  8
2
  6
CENTER
 62
     2
100
AcDbCircle
 10
-434.3761
 20
346.728232
 30
0.0
 40
51.0
100
AcDbArc
 50
300.634972
 51
329.476834
  0
LINE
  5
4CB
100
AcDbEntity
  8
2
  6
CENTER
 62
     2
100
AcDbLine
 10
-387.455062
 20
299.807194
 30
0.0
 11
-409.248577
 21
321.600709
 31
0.0
  0
LINE
  5
4CC
100
AcDbEntity
  8
2
  6
CENTER
 62
     2
100
AcDbLine
 10
-434.3761
 20
258.158183
 30
0.0
 11
-434.3761
 21
452.374532
 31
0.0
  0
LINE
  5
4CD
100
AcDbEntity
  8
2
  6
CENTER
 62
     2
100
AcDbLine
 10
-274.3761
 20
318.223443
 30
0.0
 11
-274.3761
 21
372.554167
 31
0.0
  0
LINE
  5
4CE
100
AcDbEntity
  8
2
  6
CENTER
 62
     2
100
AcDbLine
 10
-481.297137
 20
393.649269
 30
0.0
 11
-459.503623
 21
371.855755
 31
0.0
  0
ARC
  5
4CF
100
AcDbEntity
  8
2
  6
CENTER
 62
     2
100
AcDbCircle
 10
-434.3761
 20
346.728232
 30
0.0
 40
51.0
100
AcDbArc
 50
120.634972
 51
149.476834
  0
LINE
  5
4D0
100
AcDbEntity
  8
2
100
AcDbLine
 10
-426.8761
 20
323.728232
 30
0.0
 11
-426.8761
 21
317.94992
 31
0.0
  0
LINE
  5
4D1
100
AcDbEntity
  8
2
100
AcDbLine
 10
-426.8761
 20
317.94992
 30
0.0
 11
-428.1261
 21
317.228232
 31
0.0
  0
LINE
  5
4D2
100
AcDbEntity
  8
2
100
AcDbLine
 10
-428.1261
 20
317.228232
 30
0.0
 11
-434.3761
 21
317.228232
 31
0.0
  0
LINE
  5
4D3
100
AcDbEntity
  8
2
100
AcDbLine
 10
-430.6261
 20
323.728232
 30
0.0
 11
-430.6261
 21
317.94992
 31
0.0
  0
ARC
  5
4D4
100
AcDbEntity
  8
2
100
AcDbCircle
 10
-428.7511
 20
320.360296
 30
0.0
 40
3.053774
100
AcDbArc
 50
232.121121
 51
307.878879
  0
ARC
  5
4D5
100
AcDbEntity
  8
2
100
AcDbCircle
 10
-434.3761
 20
328.556522
 30
0.0
 40
11.25
100
AcDbArc
 50
270.0
 51
289.471221
  0
LINE
  5
4D6
100
AcDbEntity
  8
2
100
AcDbLine
 10
-441.8761
 20
323.728232
 30
0.0
 11
-441.8761
 21
317.94992
 31
0.0
  0
LINE
  5
4D7
100
AcDbEntity
  8
2
100
AcDbLine
 10
-441.8761
 20
317.94992
 30
0.0
 11
-440.6261
 21
317.228232
 31
0.0
  0
LINE
  5
4D8
100
AcDbEntity
  8
2
100
AcDbLine
 10
-440.6261
 20
317.228232
 30
0.0
 11
-434.3761
 21
317.228232
 31
0.0
  0
LINE
  5
4D9
100
AcDbEntity
  8
2
100
AcDbLine
 10
-438.1261
 20
323.728232
 30
0.0
 11
-438.1261
 21
317.94992
 31
0.0
  0
ARC
  5
4DA
100
AcDbEntity
  8
2
100
AcDbCircle
 10
-440.0011
 20
320.360296
 30
0.0
 40
3.053774
100
AcDbArc
 50
232.121121
 51
307.878879
  0
ARC
  5
4DB
100
AcDbEntity
  8
2
100
AcDbCircle
 10
-434.3761
 20
328.556522
 30
0.0
 40
11.25
100
AcDbArc
 50
250.528779
 51
270.0
  0
LINE
  5
4DC
100
AcDbEntity
  8
2
100
AcDbLine
 10
-434.3761
 20
312.728232
 30
0.0
 11
-437.6996
 21
312.728232
 31
0.0
  0
LINE
  5
4DD
100
AcDbEntity
  8
2
100
AcDbLine
 10
-437.6996
 20
312.728232
 30
0.0
 11
-438.3761
 21
313.404732
 31
0.0
  0
LINE
  5
4DE
100
AcDbEntity
  8
2
100
AcDbLine
 10
-438.3761
 20
313.404732
 30
0.0
 11
-438.3761
 21
317.264947
 31
0.0
  0
LINE
  5
4DF
100
AcDbEntity
  8
2
100
AcDbLine
 10
-438.3761
 20
313.404732
 30
0.0
 11
-434.3761
 21
313.404732
 31
0.0
  0
LINE
  5
4E0
100
AcDbEntity
  8
2
 62
     2
100
AcDbLine
 10
-437.6996
 20
312.728232
 30
0.0
 11
-437.6996
 21
317.228584
 31
0.0
  0
LINE
  5
4E1
100
AcDbEntity
  8
2
100
AcDbLine
 10
-434.3761
 20
312.728232
 30
0.0
 11
-431.0526
 21
312.728232
 31
0.0
  0
LINE
  5
4E2
100
AcDbEntity
  8
2
100
AcDbLine
 10
-431.0526
 20
312.728232
 30
0.0
 11
-430.3761
 21
313.404732
 31
0.0
  0
LINE
  5
4E3
100
AcDbEntity
  8
2
100
AcDbLine
 10
-430.3761
 20
313.404732
 30
0.0
 11
-430.3761
 21
317.264947
 31
0.0
  0
LINE
  5
4E4
100
AcDbEntity
  8
2
100
AcDbLine
 10
-430.3761
 20
313.404732
 30
0.0
 11
-434.3761
 21
313.404732
 31
0.0
  0
LINE
  5
4E5
100
AcDbEntity
  8
2
 62
     2
100
AcDbLine
 10
-431.0526
 20
312.728232
 30
0.0
 11
-431.0526
 21
317.228584
 31
0.0
  0
ARC
  5
4E6
100
AcDbEntity
  8
2
100
AcDbCircle
 10
-127.612364
 20
14.970063
 30
0.0
 40
10.0
100
AcDbArc
 50
240.211669
 51
303.788331
  0
LINE
  5
4E7
100
AcDbEntity
  8
2
100
AcDbLine
 10
180.6844
 20
-4.976246
 30
0.0
 11
182.36082
 21
-4.806804
 31
0.0
  0
LINE
  5
4E8
100
AcDbEntity
  8
2
100
AcDbLine
 10
182.36082
 20
-4.806804
 30
0.0
 11
184.249871
 21
-4.536063
 31
0.0
  0
LINE
  5
4E9
100
AcDbEntity
  8
2
100
AcDbLine
 10
184.249871
 20
-4.536063
 30
0.0
 11
185.920369
 21
-4.209427
 31
0.0
  0
LINE
  5
4EA
100
AcDbEntity
  8
2
100
AcDbLine
 10
185.920369
 20
-4.209427
 30
0.0
 11
187.334145
 21
-3.834361
 31
0.0
  0
LINE
  5
4EB
100
AcDbEntity
  8
2
100
AcDbLine
 10
187.334145
 20
-3.834361
 30
0.0
 11
188.458898
 21
-3.419433
 31
0.0
  0
LINE
  5
4EC
100
AcDbEntity
  8
2
100
AcDbLine
 10
188.458898
 20
-3.419433
 30
0.0
 11
189.268928
 21
-2.974125
 31
0.0
  0
LINE
  5
4ED
100
AcDbEntity
  8
2
100
AcDbLine
 10
189.268928
 20
-2.974125
 30
0.0
 11
189.745729
 21
-2.50861
 31
0.0
  0
LINE
  5
4EE
100
AcDbEntity
  8
2
100
AcDbLine
 10
189.745729
 20
-2.50861
 30
0.0
 11
189.880829
 21
-2.089744
 31
0.0
  0
LINE
  5
4EF
100
AcDbEntity
  8
2
100
AcDbLine
 10
175.458693
 20
52.226484
 30
0.0
 11
174.6844
 21
52.245934
 31
0.0
  0
LINE
  5
4F0
100
AcDbEntity
  8
2
100
AcDbLine
 10
180.1844
 20
51.196485
 30
0.0
 11
179.996992
 21
51.468102
 31
0.0
  0
LINE
  5
4F1
100
AcDbEntity
  8
2
100
AcDbLine
 10
179.996992
 20
50.924867
 30
0.0
 11
180.1844
 21
51.196485
 31
0.0
  0
LINE
  5
4F2
100
AcDbEntity
  8
2
100
AcDbLine
 10
179.44754
 20
50.67176
 30
0.0
 11
179.996992
 21
50.924867
 31
0.0
  0
LINE
  5
4F3
100
AcDbEntity
  8
2
100
AcDbLine
 10
178.573487
 20
50.454412
 30
0.0
 11
179.44754
 21
50.67176
 31
0.0
  0
LINE
  5
4F4
100
AcDbEntity
  8
2
100
AcDbLine
 10
177.4344
 20
50.287635
 30
0.0
 11
178.573487
 21
50.454412
 31
0.0
  0
LINE
  5
4F5
100
AcDbEntity
  8
2
100
AcDbLine
 10
176.107905
 20
50.182795
 30
0.0
 11
177.4344
 21
50.287635
 31
0.0
  0
LINE
  5
4F6
100
AcDbEntity
  8
2
100
AcDbLine
 10
174.6844
 20
50.147035
 30
0.0
 11
176.107905
 21
50.182795
 31
0.0
  0
LINE
  5
4F7
100
AcDbEntity
  8
2
100
AcDbLine
 10
173.260895
 20
50.182795
 30
0.0
 11
174.6844
 21
50.147035
 31
0.0
  0
LINE
  5
4F8
100
AcDbEntity
  8
2
100
AcDbLine
 10
169.1844
 20
51.196485
 30
0.0
 11
169.273244
 21
51.06772
 31
0.0
  0
LINE
  5
4F9
100
AcDbEntity
  8
2
100
AcDbLine
 10
169.371808
 20
51.468102
 30
0.0
 11
169.1844
 21
51.196485
 31
0.0
  0
LINE
  5
4FA
100
AcDbEntity
  8
2
100
AcDbLine
 10
169.92126
 20
51.72121
 30
0.0
 11
169.371808
 21
51.468102
 31
0.0
  0
LINE
  5
4FB
100
AcDbEntity
  8
2
100
AcDbLine
 10
170.795313
 20
51.938558
 30
0.0
 11
169.92126
 21
51.72121
 31
0.0
  0
LINE
  5
4FC
100
AcDbEntity
  8
2
100
AcDbLine
 10
171.9344
 20
52.105335
 30
0.0
 11
170.795313
 21
51.938558
 31
0.0
  0
LINE
  5
4FD
100
AcDbEntity
  8
2
100
AcDbLine
 10
173.260895
 20
52.210175
 30
0.0
 11
171.9344
 21
52.105335
 31
0.0
  0
LINE
  5
4FE
100
AcDbEntity
  8
2
100
AcDbLine
 10
174.6844
 20
52.245934
 30
0.0
 11
173.260895
 21
52.210175
 31
0.0
  0
LINE
  5
4FF
100
AcDbEntity
  8
2
100
AcDbLine
 10
167.847818
 20
60.354662
 30
0.0
 11
167.834879
 21
60.361283
 31
0.0
  0
LINE
  5
500
100
AcDbEntity
  8
2
100
AcDbLine
 10
167.834879
 20
60.361283
 30
0.0
 11
167.975747
 21
60.209566
 31
0.0
  0
LINE
  5
501
100
AcDbEntity
  8
2
100
AcDbLine
 10
167.975747
 20
60.209566
 30
0.0
 11
168.1844
 21
59.733045
 31
0.0
  0
LINE
  5
502
100
AcDbEntity
  8
2
100
AcDbLine
 10
192.842098
 20
35.045757
 30
0.0
 11
192.58169
 21
35.063485
 31
0.0
  0
LINE
  5
503
100
AcDbEntity
  8
2
100
AcDbLine
 10
192.58169
 20
35.063485
 30
0.0
 11
192.28889
 21
35.191774
 31
0.0
  0
LINE
  5
504
100
AcDbEntity
  8
2
100
AcDbLine
 10
192.28889
 20
35.191774
 30
0.0
 11
192.092255
 21
35.358849
 31
0.0
  0
LINE
  5
505
100
AcDbEntity
  8
2
100
AcDbLine
 10
192.092255
 20
35.358849
 30
0.0
 11
191.970572
 21
35.525179
 31
0.0
  0
LINE
  5
506
100
AcDbEntity
  8
2
100
AcDbLine
 10
191.970572
 20
35.525179
 30
0.0
 11
191.909032
 21
35.651214
 31
0.0
  0
LINE
  5
507
100
AcDbEntity
  8
2
100
AcDbLine
 10
191.909032
 20
35.651214
 30
0.0
 11
191.880802
 21
35.732387
 31
0.0
  0
LINE
  5
508
100
AcDbEntity
  8
2
100
AcDbLine
 10
191.880802
 20
35.732387
 30
0.0
 11
191.866114
 21
35.789479
 31
0.0
  0
LINE
  5
509
100
AcDbEntity
  8
2
100
AcDbLine
 10
191.866114
 20
35.789479
 30
0.0
 11
191.860206
 21
35.820651
 31
0.0
  0
LINE
  5
50A
100
AcDbEntity
  8
2
100
AcDbLine
 10
191.860206
 20
35.820651
 30
0.0
 11
191.860597
 21
35.816906
 31
0.0
  0
ARC
  5
50B
100
AcDbEntity
  8
2
100
AcDbCircle
 10
193.6844
 20
34.032032
 30
0.0
 40
1.0
100
AcDbArc
 50
0.0
 51
90.0
  0
LINE
  5
50C
100
AcDbEntity
  8
2
100
AcDbLine
 10
193.6844
 20
35.032032
 30
0.0
 11
192.83015
 21
35.032032
 31
0.0
  0
LINE
  5
50D
100
AcDbEntity
  8
2
100
AcDbLine
 10
187.096987
 20
29.454103
 30
0.0
 11
187.042935
 21
30.72124
 31
0.0
  0
LINE
  5
50E
100
AcDbEntity
  8
2
100
AcDbLine
 10
187.042935
 20
30.72124
 30
0.0
 11
186.987408
 21
31.769431
 31
0.0
  0
LINE
  5
50F
100
AcDbEntity
  8
2
100
AcDbLine
 10
186.987408
 20
31.769431
 30
0.0
 11
186.930688
 21
32.593345
 31
0.0
  0
LINE
  5
510
100
AcDbEntity
  8
2
100
AcDbLine
 10
186.949238
 20
32.402415
 30
0.0
 11
186.933758
 21
32.513044
 31
0.0
  0
LINE
  5
511
100
AcDbEntity
  8
2
100
AcDbLine
 10
191.802971
 20
36.579305
 30
0.0
 11
191.827182
 21
36.030328
 31
0.0
  0
LINE
  5
512
100
AcDbEntity
  8
2
100
AcDbLine
 10
186.118523
 20
42.632483
 30
0.0
 11
186.101594
 21
42.629983
 31
0.0
  0
LINE
  5
513
100
AcDbEntity
  8
2
100
AcDbLine
 10
182.799688
 20
41.469001
 30
0.0
 11
182.767802
 21
41.374605
 31
0.0
  0
LINE
  5
514
100
AcDbEntity
  8
2
100
AcDbLine
 10
191.863705
 20
35.798843
 30
0.0
 11
191.861293
 21
35.838571
 31
0.0
  0
LINE
  5
515
100
AcDbEntity
  8
2
100
AcDbLine
 10
191.861293
 20
35.838571
 30
0.0
 11
191.827182
 21
36.030328
 31
0.0
  0
LINE
  5
516
100
AcDbEntity
  8
2
100
AcDbLine
 10
194.630191
 20
5.809083
 30
0.0
 11
194.140198
 21
11.141949
 31
0.0
  0
LINE
  5
517
100
AcDbEntity
  8
2
100
AcDbLine
 10
193.6844
 20
11.032032
 30
0.0
 11
183.6844
 21
11.032032
 31
0.0
  0
ARC
  5
518
100
AcDbEntity
  8
2
100
AcDbCircle
 10
183.6844
 20
12.032032
 30
0.0
 40
1.0
100
AcDbArc
 50
180.0
 51
270.0
  0
LINE
  5
519
100
AcDbEntity
  8
2
100
AcDbLine
 10
182.6844
 20
12.032032
 30
0.0
 11
182.6844
 21
22.677897
 31
0.0
  0
ARC
  5
51A
100
AcDbEntity
  8
2
100
AcDbCircle
 10
193.6844
 20
12.032032
 30
0.0
 40
1.0
100
AcDbArc
 50
270.0
 51
360.0
  0
LINE
  5
51B
100
AcDbEntity
  8
2
100
AcDbLine
 10
194.6844
 20
27.032032
 30
0.0
 11
194.6844
 21
12.032032
 31
0.0
  0
LINE
  5
51C
100
AcDbEntity
  8
2
100
AcDbLine
 10
191.66957
 20
12.032032
 30
0.0
 11
191.66957
 21
27.032032
 31
0.0
  0
LINE
  5
51D
100
AcDbEntity
  8
2
100
AcDbLine
 10
184.441759
 20
26.140057
 30
0.0
 11
185.340584
 21
26.715202
 31
0.0
  0
LINE
  5
51E
100
AcDbEntity
  8
2
100
AcDbLine
 10
182.797349
 20
23.914385
 30
0.0
 11
183.181616
 21
25.082069
 31
0.0
  0
LINE
  5
51F
100
AcDbEntity
  8
2
100
AcDbLine
 10
183.181616
 20
25.082069
 30
0.0
 11
184.441759
 21
26.140057
 31
0.0
  0
LINE
  5
520
100
AcDbEntity
  8
2
100
AcDbLine
 10
191.66957
 20
12.032032
 30
0.0
 11
191.650358
 21
11.836942
 31
0.0
  0
LINE
  5
521
100
AcDbEntity
  8
2
100
AcDbLine
 10
191.650358
 20
11.836942
 30
0.0
 11
191.593462
 21
11.649349
 31
0.0
  0
LINE
  5
522
100
AcDbEntity
  8
2
100
AcDbLine
 10
191.593462
 20
11.649349
 30
0.0
 11
191.501066
 21
11.476462
 31
0.0
  0
LINE
  5
523
100
AcDbEntity
  8
2
100
AcDbLine
 10
191.501066
 20
11.476462
 30
0.0
 11
191.376723
 21
11.324925
 31
0.0
  0
LINE
  5
524
100
AcDbEntity
  8
2
100
AcDbLine
 10
191.376723
 20
11.324925
 30
0.0
 11
191.225211
 21
11.200562
 31
0.0
  0
LINE
  5
525
100
AcDbEntity
  8
2
100
AcDbLine
 10
191.225211
 20
11.200562
 30
0.0
 11
191.052352
 21
11.108153
 31
0.0
  0
LINE
  5
526
100
AcDbEntity
  8
2
100
AcDbLine
 10
191.052352
 20
11.108153
 30
0.0
 11
190.864789
 21
11.051247
 31
0.0
  0
LINE
  5
527
100
AcDbEntity
  8
2
100
AcDbLine
 10
190.864789
 20
11.051247
 30
0.0
 11
190.669729
 21
11.032032
 31
0.0
  0
LINE
  5
528
100
AcDbEntity
  8
2
100
AcDbLine
 10
194.681211
 20
4.968327
 30
0.0
 11
194.680732
 21
4.984175
 31
0.0
  0
LINE
  5
529
100
AcDbEntity
  8
2
100
AcDbLine
 10
194.680732
 20
4.984175
 30
0.0
 11
194.647221
 21
5.459493
 31
0.0
  0
LINE
  5
52A
100
AcDbEntity
  8
2
100
AcDbLine
 10
194.555582
 20
6.621092
 30
0.0
 11
194.596988
 21
6.413033
 31
0.0
  0
LINE
  5
52B
100
AcDbEntity
  8
2
100
AcDbLine
 10
194.596988
 20
6.413033
 30
0.0
 11
194.680829
 21
4.988216
 31
0.0
  0
LINE
  5
52C
100
AcDbEntity
  8
2
100
AcDbLine
 10
194.680829
 20
4.988216
 30
0.0
 11
194.681211
 21
4.968327
 31
0.0
  0
LINE
  5
52D
100
AcDbEntity
  8
2
100
AcDbLine
 10
194.6844
 20
34.032032
 30
0.0
 11
194.6844
 21
27.032032
 31
0.0
  0
LINE
  5
52E
100
AcDbEntity
  8
2
100
AcDbLine
 10
191.66957
 20
27.032032
 30
0.0
 11
191.672583
 21
28.766366
 31
0.0
  0
LINE
  5
52F
100
AcDbEntity
  8
2
100
AcDbLine
 10
191.672583
 20
28.766366
 30
0.0
 11
191.681508
 21
30.435688
 31
0.0
  0
LINE
  5
530
100
AcDbEntity
  8
2
100
AcDbLine
 10
191.681508
 20
30.435688
 30
0.0
 11
191.696011
 21
31.977419
 31
0.0
  0
LINE
  5
531
100
AcDbEntity
  8
2
100
AcDbLine
 10
191.696011
 20
31.977419
 30
0.0
 11
191.715549
 21
33.333767
 31
0.0
  0
LINE
  5
532
100
AcDbEntity
  8
2
100
AcDbLine
 10
191.715549
 20
33.333767
 30
0.0
 11
191.739389
 21
34.453888
 31
0.0
  0
LINE
  5
533
100
AcDbEntity
  8
2
100
AcDbLine
 10
191.739389
 20
34.453888
 30
0.0
 11
191.766636
 21
35.295793
 31
0.0
  0
LINE
  5
534
100
AcDbEntity
  8
2
100
AcDbLine
 10
191.766636
 20
35.295793
 30
0.0
 11
191.796271
 21
35.827922
 31
0.0
  0
LINE
  5
535
100
AcDbEntity
  8
2
100
AcDbLine
 10
191.796271
 20
35.827922
 30
0.0
 11
191.827182
 21
36.030328
 31
0.0
  0
LINE
  5
536
100
AcDbEntity
  8
2
100
AcDbLine
 10
185.340584
 20
26.715202
 30
0.0
 11
185.566558
 21
26.887511
 31
0.0
  0
LINE
  5
537
100
AcDbEntity
  8
2
100
AcDbLine
 10
185.566558
 20
26.887511
 30
0.0
 11
186.720667
 21
28.170886
 31
0.0
  0
LINE
  5
538
100
AcDbEntity
  8
2
100
AcDbLine
 10
186.720667
 20
28.170886
 30
0.0
 11
187.096987
 21
29.454103
 31
0.0
  0
LINE
  5
539
100
AcDbEntity
  8
2
100
AcDbLine
 10
168.308379
 20
51.93703
 30
0.0
 11
169.230193
 21
51.059655
 31
0.0
  0
LINE
  5
53A
100
AcDbEntity
  8
2
100
AcDbLine
 10
179.996992
 20
50.924867
 30
0.0
 11
180.682413
 21
51.577246
 31
0.0
  0
LINE
  5
53B
100
AcDbEntity
  8
2
100
AcDbLine
 10
174.6844
 20
53.418371
 30
0.0
 11
176.183403
 21
53.384939
 31
0.0
  0
LINE
  5
53C
100
AcDbEntity
  8
2
100
AcDbLine
 10
176.183403
 20
53.384939
 30
0.0
 11
177.601595
 21
53.286448
 31
0.0
  0
LINE
  5
53D
100
AcDbEntity
  8
2
100
AcDbLine
 10
177.601595
 20
53.286448
 30
0.0
 11
178.862519
 21
53.128205
 31
0.0
  0
LINE
  5
53E
100
AcDbEntity
  8
2
100
AcDbLine
 10
178.862519
 20
53.128205
 30
0.0
 11
179.540319
 21
52.991123
 31
0.0
  0
LINE
  5
53F
100
AcDbEntity
  8
2
100
AcDbLine
 10
168.308379
 20
51.93703
 30
0.0
 11
168.195397
 21
52.105997
 31
0.0
  0
LINE
  5
540
100
AcDbEntity
  8
2
100
AcDbLine
 10
168.195397
 20
52.105997
 30
0.0
 11
168.28315
 21
52.393481
 31
0.0
  0
LINE
  5
541
100
AcDbEntity
  8
2
100
AcDbLine
 10
168.28315
 20
52.393481
 30
0.0
 11
168.715995
 21
52.669353
 31
0.0
  0
LINE
  5
542
100
AcDbEntity
  8
2
100
AcDbLine
 10
168.715995
 20
52.669353
 30
0.0
 11
169.470599
 21
52.918743
 31
0.0
  0
LINE
  5
543
100
AcDbEntity
  8
2
100
AcDbLine
 10
169.470599
 20
52.918743
 30
0.0
 11
170.50628
 21
53.128205
 31
0.0
  0
LINE
  5
544
100
AcDbEntity
  8
2
100
AcDbLine
 10
170.50628
 20
53.128205
 30
0.0
 11
171.767205
 21
53.286448
 31
0.0
  0
LINE
  5
545
100
AcDbEntity
  8
2
100
AcDbLine
 10
171.767205
 20
53.286448
 30
0.0
 11
173.185397
 21
53.384939
 31
0.0
  0
LINE
  5
546
100
AcDbEntity
  8
2
100
AcDbLine
 10
173.185397
 20
53.384939
 30
0.0
 11
174.6844
 21
53.418371
 31
0.0
  0
LINE
  5
547
100
AcDbEntity
  8
2
100
AcDbLine
 10
162.438112
 20
32.593345
 30
0.0
 11
162.381392
 21
31.769431
 31
0.0
  0
LINE
  5
548
100
AcDbEntity
  8
2
100
AcDbLine
 10
162.381392
 20
31.769431
 30
0.0
 11
162.325865
 21
30.72124
 31
0.0
  0
LINE
  5
549
100
AcDbEntity
  8
2
100
AcDbLine
 10
162.325865
 20
30.72124
 30
0.0
 11
162.271813
 21
29.454103
 31
0.0
  0
LINE
  5
54A
100
AcDbEntity
  8
2
100
AcDbLine
 10
163.267206
 20
42.629983
 30
0.0
 11
163.250276
 21
42.632483
 31
0.0
  0
LINE
  5
54B
100
AcDbEntity
  8
2
100
AcDbLine
 10
166.238641
 20
41.786642
 30
0.0
 11
166.227677
 21
41.797181
 31
0.0
  0
LINE
  5
54C
100
AcDbEntity
  8
2
100
AcDbLine
 10
157.505553
 20
35.806376
 30
0.0
 11
157.494989
 21
35.757451
 31
0.0
  0
LINE
  5
54D
100
AcDbEntity
  8
2
100
AcDbLine
 10
157.494989
 20
35.757451
 30
0.0
 11
157.465251
 21
35.665221
 31
0.0
  0
LINE
  5
54E
100
AcDbEntity
  8
2
100
AcDbLine
 10
157.465251
 20
35.665221
 30
0.0
 11
157.402406
 21
35.532437
 31
0.0
  0
LINE
  5
54F
100
AcDbEntity
  8
2
100
AcDbLine
 10
157.402406
 20
35.532437
 30
0.0
 11
157.252985
 21
35.333737
 31
0.0
  0
LINE
  5
550
100
AcDbEntity
  8
2
100
AcDbLine
 10
157.252985
 20
35.333737
 30
0.0
 11
156.995743
 21
35.142994
 31
0.0
  0
LINE
  5
551
100
AcDbEntity
  8
2
100
AcDbLine
 10
156.995743
 20
35.142994
 30
0.0
 11
156.653951
 21
35.038721
 31
0.0
  0
LINE
  5
552
100
AcDbEntity
  8
2
100
AcDbLine
 10
156.653951
 20
35.038721
 30
0.0
 11
156.550597
 21
35.045757
 31
0.0
  0
ARC
  5
553
100
AcDbEntity
  8
2
100
AcDbCircle
 10
155.6844
 20
34.032032
 30
0.0
 40
1.0
100
AcDbArc
 50
90.0
 51
180.0
  0
LINE
  5
554
100
AcDbEntity
  8
2
100
AcDbLine
 10
156.538649
 20
35.032032
 30
0.0
 11
155.6844
 21
35.032032
 31
0.0
  0
LINE
  5
555
100
AcDbEntity
  8
2
100
AcDbLine
 10
157.566936
 20
36.591021
 30
0.0
 11
157.566608
 21
36.587512
 31
0.0
  0
LINE
  5
556
100
AcDbEntity
  8
2
100
AcDbLine
 10
157.566608
 20
36.587512
 30
0.0
 11
157.546712
 21
36.345761
 31
0.0
  0
LINE
  5
557
100
AcDbEntity
  8
2
100
AcDbLine
 10
157.546712
 20
36.345761
 30
0.0
 11
157.534511
 21
36.136538
 31
0.0
  0
LINE
  5
558
100
AcDbEntity
  8
2
100
AcDbLine
 10
157.534511
 20
36.136538
 30
0.0
 11
157.528402
 21
35.970706
 31
0.0
  0
LINE
  5
559
100
AcDbEntity
  8
2
100
AcDbLine
 10
157.507507
 20
35.838571
 30
0.0
 11
157.505553
 21
35.806376
 31
0.0
  0
LINE
  5
55A
100
AcDbEntity
  8
2
100
AcDbLine
 10
157.541618
 20
36.030328
 30
0.0
 11
157.507532
 21
35.83871
 31
0.0
  0
LINE
  5
55B
100
AcDbEntity
  8
2
100
AcDbLine
 10
162.419562
 20
32.402415
 30
0.0
 11
162.435042
 21
32.513044
 31
0.0
  0
ARC
  5
55C
100
AcDbEntity
  8
2
100
AcDbCircle
 10
165.6844
 20
12.032032
 30
0.0
 40
1.0
100
AcDbArc
 50
270.0
 51
360.0
  0
LINE
  5
55D
100
AcDbEntity
  8
2
100
AcDbLine
 10
164.028216
 20
26.715202
 30
0.0
 11
164.927041
 21
26.140057
 31
0.0
  0
LINE
  5
55E
100
AcDbEntity
  8
2
100
AcDbLine
 10
164.927041
 20
26.140057
 30
0.0
 11
166.152014
 21
25.129337
 31
0.0
  0
LINE
  5
55F
100
AcDbEntity
  8
2
100
AcDbLine
 10
166.152014
 20
25.129337
 30
0.0
 11
166.321593
 21
24.728627
 31
0.0
  0
LINE
  5
560
100
AcDbEntity
  8
2
100
AcDbLine
 10
155.228602
 20
11.141949
 30
0.0
 11
154.885935
 21
7.412513
 31
0.0
  0
LINE
  5
561
100
AcDbEntity
  8
2
100
AcDbLine
 10
158.7852
 20
11.032032
 30
0.0
 11
158.69907
 21
11.032032
 31
0.0
  0
LINE
  5
562
100
AcDbEntity
  8
2
100
AcDbLine
 10
158.69907
 20
11.032032
 30
0.0
 11
156.699389
 21
11.032032
 31
0.0
  0
ARC
  5
563
100
AcDbEntity
  8
2
100
AcDbCircle
 10
155.6844
 20
12.032032
 30
0.0
 40
1.0
100
AcDbArc
 50
180.0
 51
270.0
  0
LINE
  5
564
100
AcDbEntity
  8
2
100
AcDbLine
 10
154.6844
 20
12.032032
 30
0.0
 11
154.6844
 21
27.032032
 31
0.0
  0
LINE
  5
565
100
AcDbEntity
  8
2
100
AcDbLine
 10
156.699389
 20
11.032032
 30
0.0
 11
155.6844
 21
11.032032
 31
0.0
  0
LINE
  5
566
100
AcDbEntity
  8
2
100
AcDbLine
 10
154.885935
 20
7.412513
 30
0.0
 11
154.859172
 21
6.835766
 31
0.0
  0
LINE
  5
567
100
AcDbEntity
  8
2
100
AcDbLine
 10
154.6844
 20
19.032032
 30
0.0
 11
152.6844
 21
19.032032
 31
0.0
  0
LINE
  5
568
100
AcDbEntity
  8
2
100
AcDbLine
 10
151.6844
 20
19.032032
 30
0.0
 11
152.6844
 21
19.032032
 31
0.0
  0
LINE
  5
569
100
AcDbEntity
  8
2
100
AcDbLine
 10
157.69923
 20
27.032032
 30
0.0
 11
157.69923
 21
12.032032
 31
0.0
  0
LINE
  5
56A
100
AcDbEntity
  8
2
100
AcDbLine
 10
157.69923
 20
12.032032
 30
0.0
 11
157.718442
 21
11.836942
 31
0.0
  0
LINE
  5
56B
100
AcDbEntity
  8
2
100
AcDbLine
 10
157.718442
 20
11.836942
 30
0.0
 11
157.775338
 21
11.649349
 31
0.0
  0
LINE
  5
56C
100
AcDbEntity
  8
2
100
AcDbLine
 10
157.775338
 20
11.649349
 30
0.0
 11
157.867733
 21
11.476462
 31
0.0
  0
LINE
  5
56D
100
AcDbEntity
  8
2
100
AcDbLine
 10
157.867733
 20
11.476462
 30
0.0
 11
157.992076
 21
11.324925
 31
0.0
  0
LINE
  5
56E
100
AcDbEntity
  8
2
100
AcDbLine
 10
157.992076
 20
11.324925
 30
0.0
 11
158.143589
 21
11.200562
 31
0.0
  0
LINE
  5
56F
100
AcDbEntity
  8
2
100
AcDbLine
 10
158.143589
 20
11.200562
 30
0.0
 11
158.316448
 21
11.108153
 31
0.0
  0
LINE
  5
570
100
AcDbEntity
  8
2
100
AcDbLine
 10
158.316448
 20
11.108153
 30
0.0
 11
158.504011
 21
11.051247
 31
0.0
  0
LINE
  5
571
100
AcDbEntity
  8
2
100
AcDbLine
 10
158.504011
 20
11.051247
 30
0.0
 11
158.69907
 21
11.032032
 31
0.0
  0
LINE
  5
572
100
AcDbEntity
  8
2
100
AcDbLine
 10
165.6844
 20
11.032032
 30
0.0
 11
158.7852
 21
11.032032
 31
0.0
  0
LINE
  5
573
100
AcDbEntity
  8
2
100
AcDbLine
 10
154.6844
 20
27.032032
 30
0.0
 11
154.6844
 21
34.032032
 31
0.0
  0
LINE
  5
574
100
AcDbEntity
  8
2
100
AcDbLine
 10
157.541618
 20
36.030328
 30
0.0
 11
157.572529
 21
35.827922
 31
0.0
  0
LINE
  5
575
100
AcDbEntity
  8
2
100
AcDbLine
 10
157.572529
 20
35.827922
 30
0.0
 11
157.602163
 21
35.295793
 31
0.0
  0
LINE
  5
576
100
AcDbEntity
  8
2
100
AcDbLine
 10
157.602163
 20
35.295793
 30
0.0
 11
157.629411
 21
34.453888
 31
0.0
  0
LINE
  5
577
100
AcDbEntity
  8
2
100
AcDbLine
 10
157.629411
 20
34.453888
 30
0.0
 11
157.653251
 21
33.333767
 31
0.0
  0
LINE
  5
578
100
AcDbEntity
  8
2
100
AcDbLine
 10
157.653251
 20
33.333767
 30
0.0
 11
157.672789
 21
31.977419
 31
0.0
  0
LINE
  5
579
100
AcDbEntity
  8
2
100
AcDbLine
 10
157.672789
 20
31.977419
 30
0.0
 11
157.687292
 21
30.435688
 31
0.0
  0
LINE
  5
57A
100
AcDbEntity
  8
2
100
AcDbLine
 10
157.687292
 20
30.435688
 30
0.0
 11
157.696217
 21
28.766366
 31
0.0
  0
LINE
  5
57B
100
AcDbEntity
  8
2
100
AcDbLine
 10
157.696217
 20
28.766366
 30
0.0
 11
157.69923
 21
27.032032
 31
0.0
  0
LINE
  5
57C
100
AcDbEntity
  8
2
100
AcDbLine
 10
162.271813
 20
29.454103
 30
0.0
 11
162.276873
 21
29.249071
 31
0.0
  0
LINE
  5
57D
100
AcDbEntity
  8
2
100
AcDbLine
 10
162.276873
 20
29.249071
 30
0.0
 11
162.777277
 21
27.968237
 31
0.0
  0
LINE
  5
57E
100
AcDbEntity
  8
2
100
AcDbLine
 10
162.777277
 20
27.968237
 30
0.0
 11
164.028216
 21
26.715202
 31
0.0
  0
LINE
  5
57F
100
AcDbEntity
  8
2
100
AcDbLine
 10
194.681211
 20
-7.967968
 30
0.0
 11
194.423672
 21
-7.967968
 31
0.0
  0
LINE
  5
580
100
AcDbEntity
  8
2
100
AcDbLine
 10
194.423672
 20
-7.967968
 30
0.0
 11
193.333638
 21
-7.967968
 31
0.0
  0
LINE
  5
581
100
AcDbEntity
  8
2
100
AcDbLine
 10
154.945128
 20
-7.967968
 30
0.0
 11
154.859172
 21
-7.967968
 31
0.0
  0
LINE
  5
582
100
AcDbEntity
  8
2
100
AcDbLine
 10
156.035162
 20
-7.967968
 30
0.0
 11
154.945128
 21
-7.967968
 31
0.0
  0
LINE
  5
583
100
AcDbEntity
  8
2
100
AcDbLine
 10
168.6844
 20
-7.967968
 30
0.0
 11
156.035162
 21
-7.967968
 31
0.0
  0
LINE
  5
584
100
AcDbEntity
  8
2
100
AcDbLine
 10
193.333638
 20
-7.967968
 30
0.0
 11
180.6844
 21
-7.967968
 31
0.0
  0
LINE
  5
585
100
AcDbEntity
  8
2
100
AcDbLine
 10
159.487971
 20
-2.089744
 30
0.0
 11
159.623071
 21
-2.50861
 31
0.0
  0
LINE
  5
586
100
AcDbEntity
  8
2
100
AcDbLine
 10
159.623071
 20
-2.50861
 30
0.0
 11
160.099872
 21
-2.974125
 31
0.0
  0
LINE
  5
587
100
AcDbEntity
  8
2
100
AcDbLine
 10
160.099872
 20
-2.974125
 30
0.0
 11
160.909902
 21
-3.419433
 31
0.0
  0
LINE
  5
588
100
AcDbEntity
  8
2
100
AcDbLine
 10
160.909902
 20
-3.419433
 30
0.0
 11
162.034655
 21
-3.834361
 31
0.0
  0
LINE
  5
589
100
AcDbEntity
  8
2
100
AcDbLine
 10
162.034655
 20
-3.834361
 30
0.0
 11
163.448431
 21
-4.209427
 31
0.0
  0
LINE
  5
58A
100
AcDbEntity
  8
2
100
AcDbLine
 10
163.448431
 20
-4.209427
 30
0.0
 11
165.118929
 21
-4.536063
 31
0.0
  0
LINE
  5
58B
100
AcDbEntity
  8
2
100
AcDbLine
 10
165.118929
 20
-4.536063
 30
0.0
 11
167.00798
 21
-4.806804
 31
0.0
  0
LINE
  5
58C
100
AcDbEntity
  8
2
100
AcDbLine
 10
167.00798
 20
-4.806804
 30
0.0
 11
168.6844
 21
-4.976246
 31
0.0
  0
LINE
  5
58D
100
AcDbEntity
  8
2
100
AcDbLine
 10
151.6844
 20
-9.967968
 30
0.0
 11
168.6844
 21
-9.967968
 31
0.0
  0
LINE
  5
58E
100
AcDbEntity
  8
2
100
AcDbLine
 10
188.674141
 20
11.025586
 30
0.0
 11
189.882441
 21
-2.125021
 31
0.0
  0
LINE
  5
58F
100
AcDbEntity
  8
2
100
AcDbLine
 10
159.486359
 20
-2.125021
 30
0.0
 11
160.694832
 21
11.02747
 31
0.0
  0
LINE
  5
590
100
AcDbEntity
  8
2
100
AcDbLine
 10
194.6844
 20
-9.967968
 30
0.0
 11
194.6844
 21
12.032032
 31
0.0
  0
LINE
  5
591
100
AcDbEntity
  8
2
100
AcDbLine
 10
151.6844
 20
19.032032
 30
0.0
 11
151.6844
 21
-9.967968
 31
0.0
  0
LINE
  5
592
100
AcDbEntity
  8
2
100
AcDbLine
 10
194.681211
 20
4.968327
 30
0.0
 11
194.681211
 21
-7.967968
 31
0.0
  0
LINE
  5
593
100
AcDbEntity
  8
2
100
AcDbLine
 10
154.859172
 20
6.835766
 30
0.0
 11
154.859172
 21
-9.967968
 31
0.0
  0
LINE
  5
594
100
AcDbEntity
  8
2
100
AcDbLine
 10
184.690688
 20
60.356095
 30
0.0
 11
186.933758
 21
32.513044
 31
0.0
  0
LINE
  5
595
100
AcDbEntity
  8
2
100
AcDbLine
 10
162.435042
 20
32.513044
 30
0.0
 11
164.679585
 21
60.374379
 31
0.0
  0
LINE
  5
596
100
AcDbEntity
  8
2
100
AcDbLine
 10
191.802971
 20
36.579305
 30
0.0
 11
188.686593
 21
70.496594
 31
0.0
  0
LINE
  5
597
100
AcDbEntity
  8
2
100
AcDbLine
 10
160.682206
 20
70.496594
 30
0.0
 11
157.565829
 21
36.579305
 31
0.0
  0
LINE
  5
598
100
AcDbEntity
  8
2
100
AcDbLine
 10
168.1844
 20
59.733045
 30
0.0
 11
168.1844
 21
58.57999
 31
0.0
  0
LINE
  5
599
100
AcDbEntity
  8
2
100
AcDbLine
 10
181.1844
 20
53.29912
 30
0.0
 11
181.1844
 21
55.494881
 31
0.0
  0
LINE
  5
59A
100
AcDbEntity
  8
2
100
AcDbLine
 10
180.6844
 20
-9.967968
 30
0.0
 11
194.6844
 21
-9.967968
 31
0.0
  0
LINE
  5
59B
100
AcDbEntity
  8
2
100
AcDbLine
 10
168.1844
 20
53.11084
 30
0.0
 11
168.1844
 21
52.178112
 31
0.0
  0
LINE
  5
59C
100
AcDbEntity
  8
2
100
AcDbLine
 10
181.1844
 20
57.121564
 30
0.0
 11
181.1844
 21
59.540316
 31
0.0
  0
LINE
  5
59D
100
AcDbEntity
  8
2
100
AcDbLine
 10
168.1844
 20
56.947803
 30
0.0
 11
168.1844
 21
54.737522
 31
0.0
  0
LINE
  5
59E
100
AcDbEntity
  8
2
100
AcDbLine
 10
179.6844
 20
26.118731
 30
0.0
 11
169.6844
 21
26.118731
 31
0.0
  0
ARC
  5
59F
100
AcDbEntity
  8
2
100
AcDbCircle
 10
179.6844
 20
-23.985616
 30
0.0
 40
1.0
100
AcDbArc
 50
270.0
 51
360.0
  0
LINE
  5
5A0
100
AcDbEntity
  8
2
100
AcDbLine
 10
182.5844
 20
33.032032
 30
0.0
 11
182.5844
 21
32.741197
 31
0.0
  0
LINE
  5
5A1
100
AcDbEntity
  8
2
100
AcDbLine
 10
180.6844
 20
6.110549
 30
0.0
 11
182.5844
 21
6.110549
 31
0.0
  0
ARC
  5
5A2
100
AcDbEntity
  8
2
100
AcDbCircle
 10
179.6844
 20
25.118731
 30
0.0
 40
1.0
100
AcDbArc
 50
0.0
 51
90.0
  0
ARC
  5
5A3
100
AcDbEntity
  8
2
100
AcDbCircle
 10
169.6844
 20
25.118731
 30
0.0
 40
1.0
100
AcDbArc
 50
90.0
 51
180.0
  0
LINE
  5
5A4
100
AcDbEntity
  8
2
100
AcDbLine
 10
168.6844
 20
6.110549
 30
0.0
 11
166.7844
 21
6.110549
 31
0.0
  0
ARC
  5
5A5
100
AcDbEntity
  8
2
100
AcDbCircle
 10
169.6844
 20
-23.985616
 30
0.0
 40
1.0
100
AcDbArc
 50
180.0
 51
270.0
  0
LINE
  5
5A6
100
AcDbEntity
  8
2
100
AcDbLine
 10
166.7844
 20
32.292645
 30
0.0
 11
166.7844
 21
29.304384
 31
0.0
  0
LINE
  5
5A7
100
AcDbEntity
  8
2
100
AcDbLine
 10
181.5844
 20
34.032032
 30
0.0
 11
175.60331
 21
34.032032
 31
0.0
  0
LINE
  5
5A8
100
AcDbEntity
  8
2
100
AcDbLine
 10
179.6844
 20
-24.985616
 30
0.0
 11
169.6844
 21
-24.985616
 31
0.0
  0
LINE
  5
5A9
100
AcDbEntity
  8
2
100
AcDbLine
 10
168.1844
 20
32.001507
 30
0.0
 11
168.1844
 21
29.628337
 31
0.0
  0
LINE
  5
5AA
100
AcDbEntity
  8
2
100
AcDbLine
 10
181.1844
 20
30.958356
 30
0.0
 11
181.1844
 21
28.113514
 31
0.0
  0
ARC
  5
5AB
100
AcDbEntity
  8
2
100
AcDbCircle
 10
174.6844
 20
-45.700217
 30
0.0
 40
78.893672
100
AcDbArc
 50
86.002435
 51
92.492272
  0
LINE
  5
5AC
100
AcDbEntity
  8
2
100
AcDbLine
 10
168.78298
 20
32.600087
 30
0.0
 11
168.1844
 21
32.001507
 31
0.0
  0
LINE
  5
5AD
100
AcDbEntity
  8
2
100
AcDbLine
 10
180.1844
 20
33.001507
 30
0.0
 11
180.697563
 21
32.488345
 31
0.0
  0
ARC
  5
5AE
100
AcDbEntity
  8
2
100
AcDbCircle
 10
174.6844
 20
-60.75991
 30
0.0
 40
92.988874
100
AcDbArc
 50
87.27635
 51
94.008292
  0
LINE
  5
5AF
100
AcDbEntity
  8
2
100
AcDbLine
 10
169.6844
 20
6.367291
 30
0.0
 11
179.6844
 21
6.367291
 31
0.0
  0
ARC
  5
5B0
100
AcDbEntity
  8
2
100
AcDbCircle
 10
169.6844
 20
7.367291
 30
0.0
 40
1.0
100
AcDbArc
 50
180.0
 51
270.0
  0
LINE
  5
5B1
100
AcDbEntity
  8
2
100
AcDbLine
 10
168.6844
 20
25.118731
 30
0.0
 11
168.6844
 21
5.68782
 31
0.0
  0
ARC
  5
5B2
100
AcDbEntity
  8
2
100
AcDbCircle
 10
179.6844
 20
7.367291
 30
0.0
 40
1.0
100
AcDbArc
 50
270.0
 51
360.0
  0
LINE
  5
5B3
100
AcDbEntity
  8
2
100
AcDbLine
 10
180.6844
 20
25.118731
 30
0.0
 11
180.6844
 21
5.68782
 31
0.0
  0
ARC
  5
5B4
100
AcDbEntity
  8
2
100
AcDbCircle
 10
179.6844
 20
5.68782
 30
0.0
 40
1.0
100
AcDbArc
 50
270.0
 51
360.0
  0
ARC
  5
5B5
100
AcDbEntity
  8
2
100
AcDbCircle
 10
169.6844
 20
5.68782
 30
0.0
 40
1.0
100
AcDbArc
 50
180.0
 51
270.0
  0
LINE
  5
5B6
100
AcDbEntity
  8
2
100
AcDbLine
 10
169.6844
 20
4.68782
 30
0.0
 11
179.6844
 21
4.68782
 31
0.0
  0
ARC
  5
5B7
100
AcDbEntity
  8
2
100
AcDbCircle
 10
174.6844
 20
62.338302
 30
0.0
 40
40.139682
100
AcDbArc
 50
260.6808
 51
261.403322
  0
LINE
  5
5B8
100
AcDbEntity
  8
2
100
AcDbLine
 10
166.7844
 20
-2.286255
 30
0.0
 11
168.6844
 21
-4.186255
 31
0.0
  0
LINE
  5
5B9
100
AcDbEntity
  8
2
100
AcDbLine
 10
182.5844
 20
-2.286255
 30
0.0
 11
180.6844
 21
-4.186255
 31
0.0
  0
ARC
  5
5BA
100
AcDbEntity
  8
2
100
AcDbCircle
 10
167.7844
 20
33.032032
 30
0.0
 40
1.0
100
AcDbArc
 50
90.0
 51
115.425482
  0
ARC
  5
5BB
100
AcDbEntity
  8
2
100
AcDbCircle
 10
181.5844
 20
33.032032
 30
0.0
 40
1.0
100
AcDbArc
 50
0.0
 51
90.0
  0
LINE
  5
5BC
100
AcDbEntity
  8
2
100
AcDbLine
 10
168.6844
 20
-4.186255
 30
0.0
 11
168.6844
 21
-23.985616
 31
0.0
  0
LINE
  5
5BD
100
AcDbEntity
  8
2
100
AcDbLine
 10
180.6844
 20
-4.186255
 30
0.0
 11
180.6844
 21
-23.985616
 31
0.0
  0
LINE
  5
5BE
100
AcDbEntity
  8
2
100
AcDbLine
 10
168.1844
 20
23.793315
 30
0.0
 11
168.1844
 21
22.728403
 31
0.0
  0
LINE
  5
5BF
100
AcDbEntity
  8
2
100
AcDbLine
 10
181.1844
 20
26.479709
 30
0.0
 11
181.1844
 21
24.140205
 31
0.0
  0
LINE
  5
5C0
100
AcDbEntity
  8
2
100
AcDbLine
 10
182.5844
 20
26.793108
 30
0.0
 11
182.5844
 21
24.063349
 31
0.0
  0
LINE
  5
5C1
100
AcDbEntity
  8
2
100
AcDbLine
 10
182.5844
 20
31.298581
 30
0.0
 11
182.5844
 21
28.235725
 31
0.0
  0
LINE
  5
5C2
100
AcDbEntity
  8
2
100
AcDbLine
 10
168.1844
 20
27.987077
 30
0.0
 11
168.1844
 21
25.42712
 31
0.0
  0
LINE
  5
5C3
100
AcDbEntity
  8
2
100
AcDbLine
 10
167.816385
 20
34.032032
 30
0.0
 11
167.7844
 21
34.032032
 31
0.0
  0
LINE
  5
5C4
100
AcDbEntity
  8
2
100
AcDbLine
 10
166.7844
 20
27.787172
 30
0.0
 11
166.7844
 21
25.132008
 31
0.0
  0
LINE
  5
5C5
100
AcDbEntity
  8
2
100
AcDbLine
 10
166.7844
 20
23.614797
 30
0.0
 11
166.7844
 21
-2.286255
 31
0.0
  0
LINE
  5
5C6
100
AcDbEntity
  8
2
100
AcDbLine
 10
182.5844
 20
22.620732
 30
0.0
 11
182.5844
 21
-2.286255
 31
0.0
  0
ARC
  5
5C7
100
AcDbEntity
  8
2
100
AcDbCircle
 10
182.238402
 20
60.597028
 30
0.0
 40
0.8
100
AcDbArc
 50
281.397445
 51
16.78627
  0
ARC
  5
5C8
100
AcDbEntity
  8
2
100
AcDbCircle
 10
182.238402
 20
56.501514
 30
0.0
 40
0.8
100
AcDbArc
 50
280.391878
 51
100.391878
  0
ARC
  5
5C9
100
AcDbEntity
  8
2
100
AcDbCircle
 10
182.238402
 20
52.682657
 30
0.0
 40
0.8
100
AcDbArc
 50
280.610631
 51
100.610631
  0
ARC
  5
5CA
100
AcDbEntity
  8
2
100
AcDbCircle
 10
182.238402
 20
48.803773
 30
0.0
 40
0.8
100
AcDbArc
 50
282.068205
 51
102.068205
  0
ARC
  5
5CB
100
AcDbEntity
  8
2
100
AcDbCircle
 10
182.238402
 20
44.522635
 30
0.0
 40
0.8
100
AcDbArc
 50
280.132571
 51
100.132571
  0
ARC
  5
5CC
100
AcDbEntity
  8
2
100
AcDbCircle
 10
182.238402
 20
40.774825
 30
0.0
 40
0.8
100
AcDbArc
 50
282.970431
 51
102.970431
  0
ARC
  5
5CD
100
AcDbEntity
  8
2
100
AcDbCircle
 10
182.238402
 20
36.242528
 30
0.0
 40
0.8
100
AcDbArc
 50
281.857168
 51
101.857168
  0
ARC
  5
5CE
100
AcDbEntity
  8
2
100
AcDbCircle
 10
182.238402
 20
27.514416
 30
0.0
 40
0.8
100
AcDbArc
 50
281.675583
 51
101.675583
  0
ARC
  5
5CF
100
AcDbEntity
  8
2
100
AcDbCircle
 10
182.238402
 20
23.34204
 30
0.0
 40
0.8
100
AcDbArc
 50
266.118273
 51
93.881727
  0
ARC
  5
5D0
100
AcDbEntity
  8
2
100
AcDbCircle
 10
182.238402
 20
32.019889
 30
0.0
 40
0.8
100
AcDbArc
 50
282.874375
 51
102.874375
  0
ARC
  5
5D1
100
AcDbEntity
  8
2
100
AcDbCircle
 10
167.038402
 20
33.051251
 30
0.0
 40
0.8
100
AcDbArc
 50
101.857168
 51
281.857168
  0
ARC
  5
5D2
100
AcDbEntity
  8
2
100
AcDbCircle
 10
167.038402
 20
24.373402
 30
0.0
 40
0.8
100
AcDbArc
 50
101.675583
 51
281.675583
  0
ARC
  5
5D3
100
AcDbEntity
  8
2
100
AcDbCircle
 10
167.038402
 20
28.545778
 30
0.0
 40
0.8
100
AcDbArc
 50
102.874375
 51
282.874375
  0
ARC
  5
5D4
100
AcDbEntity
  8
2
100
AcDbCircle
 10
167.038402
 20
37.27389
 30
0.0
 40
0.8
100
AcDbArc
 50
102.970431
 51
282.970431
  0
ARC
  5
5D5
100
AcDbEntity
  8
2
100
AcDbCircle
 10
167.038402
 20
41.806187
 30
0.0
 40
0.8
100
AcDbArc
 50
100.132571
 51
280.132571
  0
ARC
  5
5D6
100
AcDbEntity
  8
2
100
AcDbCircle
 10
167.038402
 20
45.553997
 30
0.0
 40
0.8
100
AcDbArc
 50
102.068205
 51
282.068205
  0
ARC
  5
5D7
100
AcDbEntity
  8
2
100
AcDbCircle
 10
167.038402
 20
49.835135
 30
0.0
 40
0.8
100
AcDbArc
 50
100.610631
 51
280.610631
  0
ARC
  5
5D8
100
AcDbEntity
  8
2
100
AcDbCircle
 10
167.038402
 20
53.714019
 30
0.0
 40
0.8
100
AcDbArc
 50
100.391878
 51
280.391878
  0
ARC
  5
5D9
100
AcDbEntity
  8
2
100
AcDbCircle
 10
167.038402
 20
57.532876
 30
0.0
 40
0.8
100
AcDbArc
 50
101.397445
 51
281.397445
  0
LINE
  5
5DA
100
AcDbEntity
  8
2
100
AcDbLine
 10
181.1844
 20
24.215397
 30
0.0
 11
182.29256
 21
24.140205
 31
0.0
  0
LINE
  5
5DB
100
AcDbEntity
  8
2
100
AcDbLine
 10
166.876507
 20
25.15685
 30
0.0
 11
168.782521
 21
25.550719
 31
0.0
  0
LINE
  5
5DC
100
AcDbEntity
  8
2
100
AcDbLine
 10
182.400298
 20
26.730969
 30
0.0
 11
179.437554
 21
26.118731
 31
0.0
  0
LINE
  5
5DD
100
AcDbEntity
  8
2
100
AcDbLine
 10
166.860151
 20
29.325667
 30
0.0
 11
182.060151
 21
32.799778
 31
0.0
  0
LINE
  5
5DE
100
AcDbEntity
  8
2
100
AcDbLine
 10
182.416654
 20
31.24
 30
0.0
 11
167.216654
 21
27.765889
 31
0.0
  0
LINE
  5
5DF
100
AcDbEntity
  8
2
100
AcDbLine
 10
166.874024
 20
33.834181
 30
0.0
 11
182.074024
 21
37.025458
 31
0.0
  0
LINE
  5
5E0
100
AcDbEntity
  8
2
100
AcDbLine
 10
182.402781
 20
35.459597
 30
0.0
 11
167.202781
 21
32.268321
 31
0.0
  0
LINE
  5
5E1
100
AcDbEntity
  8
2
100
AcDbLine
 10
166.858844
 20
38.053479
 30
0.0
 11
182.058844
 21
41.554414
 31
0.0
  0
LINE
  5
5E2
100
AcDbEntity
  8
2
100
AcDbLine
 10
182.417961
 20
39.995236
 30
0.0
 11
167.217961
 21
36.494301
 31
0.0
  0
LINE
  5
5E3
100
AcDbEntity
  8
2
100
AcDbLine
 10
167.179144
 20
41.018664
 30
0.0
 11
182.379144
 21
43.735112
 31
0.0
  0
LINE
  5
5E4
100
AcDbEntity
  8
2
100
AcDbLine
 10
182.097661
 20
45.310158
 30
0.0
 11
166.897661
 21
42.593709
 31
0.0
  0
LINE
  5
5E5
100
AcDbEntity
  8
2
100
AcDbLine
 10
167.205663
 20
44.771677
 30
0.0
 11
182.405663
 21
48.021454
 31
0.0
  0
LINE
  5
5E6
100
AcDbEntity
  8
2
100
AcDbLine
 10
182.071142
 20
49.586093
 30
0.0
 11
166.871142
 21
46.336316
 31
0.0
  0
LINE
  5
5E7
100
AcDbEntity
  8
2
100
AcDbLine
 10
167.185709
 20
49.048814
 30
0.0
 11
182.385709
 21
51.896336
 31
0.0
  0
LINE
  5
5E8
100
AcDbEntity
  8
2
100
AcDbLine
 10
182.091096
 20
53.468978
 30
0.0
 11
166.891096
 21
50.621456
 31
0.0
  0
LINE
  5
5E9
100
AcDbEntity
  8
2
100
AcDbLine
 10
167.182706
 20
52.927141
 30
0.0
 11
182.382706
 21
55.714636
 31
0.0
  0
LINE
  5
5EA
100
AcDbEntity
  8
2
100
AcDbLine
 10
182.094099
 20
57.288391
 30
0.0
 11
166.894099
 21
54.500897
 31
0.0
  0
LINE
  5
5EB
100
AcDbEntity
  8
2
100
AcDbLine
 10
167.196493
 20
56.748652
 30
0.0
 11
182.396493
 21
59.812804
 31
0.0
  0
LINE
  5
5EC
100
AcDbEntity
  8
2
100
AcDbLine
 10
181.270319
 20
61.217967
 30
0.0
 11
166.880312
 21
58.3171
 31
0.0
  0
LINE
  5
5ED
100
AcDbEntity
  8
2
100
AcDbLine
 10
181.1844
 20
28.387773
 30
0.0
 11
182.29256
 21
28.312581
 31
0.0
  0
LINE
  5
5EE
100
AcDbEntity
  8
2
100
AcDbLine
 10
168.1844
 20
27.66618
 30
0.0
 11
166.984245
 21
27.747614
 31
0.0
  0
LINE
  5
5EF
100
AcDbEntity
  8
2
100
AcDbLine
 10
172.86724
 20
33.457588
 30
0.0
 11
177.501427
 21
33.143145
 31
0.0
  0
LINE
  5
5F0
100
AcDbEntity
  8
2
100
AcDbLine
 10
168.343734
 20
32.160841
 30
0.0
 11
166.984245
 21
32.253086
 31
0.0
  0
LINE
  5
5F1
100
AcDbEntity
  8
2
100
AcDbLine
 10
172.48075
 20
37.706451
 30
0.0
 11
182.29256
 21
37.040692
 31
0.0
  0
LINE
  5
5F2
100
AcDbEntity
  8
2
100
AcDbLine
 10
176.409565
 20
35.836191
 30
0.0
 11
166.984245
 21
36.475725
 31
0.0
  0
LINE
  5
5F3
100
AcDbEntity
  8
2
100
AcDbLine
 10
173.586392
 20
42.163727
 30
0.0
 11
182.29256
 21
41.572989
 31
0.0
  0
LINE
  5
5F4
100
AcDbEntity
  8
2
100
AcDbLine
 10
176.796055
 20
40.342264
 30
0.0
 11
166.984245
 21
41.008022
 31
0.0
  0
LINE
  5
5F5
100
AcDbEntity
  8
2
100
AcDbLine
 10
172.789858
 20
45.965584
 30
0.0
 11
182.29256
 21
45.3208
 31
0.0
  0
LINE
  5
5F6
100
AcDbEntity
  8
2
100
AcDbLine
 10
175.690413
 20
44.165095
 30
0.0
 11
166.984245
 21
44.755832
 31
0.0
  0
LINE
  5
5F7
100
AcDbEntity
  8
2
100
AcDbLine
 10
174.008964
 20
50.164003
 30
0.0
 11
182.29256
 21
49.601938
 31
0.0
  0
LINE
  5
5F8
100
AcDbEntity
  8
2
100
AcDbLine
 10
176.486947
 20
48.392186
 30
0.0
 11
166.984245
 21
49.03697
 31
0.0
  0
LINE
  5
5F9
100
AcDbEntity
  8
2
100
AcDbLine
 10
181.1844
 20
53.556013
 30
0.0
 11
182.29256
 21
53.480822
 31
0.0
  0
LINE
  5
5FA
100
AcDbEntity
  8
2
100
AcDbLine
 10
168.1844
 20
52.83442
 30
0.0
 11
166.984245
 21
52.915854
 31
0.0
  0
LINE
  5
5FB
100
AcDbEntity
  8
2
100
AcDbLine
 10
166.984245
 20
56.734711
 30
0.0
 11
168.138402
 21
56.656398
 31
0.0
  0
LINE
  5
5FC
100
AcDbEntity
  8
2
100
AcDbLine
 10
182.29256
 20
57.299678
 30
0.0
 11
181.138402
 21
57.377991
 31
0.0
  0
LINE
  5
5FD
100
AcDbEntity
  8
2
100
AcDbLine
 10
182.29256
 20
24.140205
 30
0.0
 11
180.6844
 21
24.140205
 31
0.0
  0
LINE
  5
5FE
100
AcDbEntity
  8
2
100
AcDbLine
 10
182.184245
 20
22.543876
 30
0.0
 11
180.6844
 21
22.543876
 31
0.0
  0
LINE
  5
5FF
100
AcDbEntity
  8
2
100
AcDbLine
 10
166.984245
 20
23.575238
 30
0.0
 11
168.1844
 21
23.493804
 31
0.0
  0
LINE
  5
600
100
AcDbEntity
  8
2
100
AcDbLine
 10
151.6844
 20
-6.967968
 30
0.0
 11
151.6844
 21
6.532032
 31
0.0
  0
LINE
  5
601
100
AcDbEntity
  8
2
100
AcDbLine
 10
151.6844
 20
-6.967968
 30
0.0
 11
151.6844
 21
6.532032
 31
0.0
  0
LINE
  5
602
100
AcDbEntity
  8
2
100
AcDbLine
 10
168.6844
 20
23.896638
 30
0.0
 11
167.200298
 21
23.589955
 31
0.0
  0
LINE
  5
603
100
AcDbEntity
  8
2
100
AcDbLine
 10
171.531243
 20
26.118731
 30
0.0
 11
182.076507
 21
28.297864
 31
0.0
  0
LINE
  5
604
100
AcDbEntity
  8
2
100
AcDbLine
 10
180.227751
 20
32.958157
 30
0.0
 11
182.29256
 21
32.818054
 31
0.0
  0
LINE
  5
605
100
AcDbEntity
  8
2
100
AcDbLine
 10
168.6844
 20
-19.967968
 30
0.0
 11
97.1844
 21
-19.967968
 31
0.0
  0
LINE
  5
606
100
AcDbEntity
  8
2
100
AcDbLine
 10
180.6844
 20
-17.967968
 30
0.0
 11
277.1844
 21
-17.967968
 31
0.0
  0
LINE
  5
607
100
AcDbEntity
  8
2
100
AcDbLine
 10
243.734896
 20
-17.967968
 30
0.0
 11
243.734896
 21
-19.967968
 31
0.0
  0
LINE
  5
608
100
AcDbEntity
  8
2
100
AcDbLine
 10
97.1844
 20
-17.967968
 30
0.0
 11
168.6844
 21
-17.967968
 31
0.0
  0
LINE
  5
609
100
AcDbEntity
  8
2
100
AcDbLine
 10
97.1844
 20
-17.967968
 30
0.0
 11
97.1844
 21
-19.967968
 31
0.0
  0
LINE
  5
60A
100
AcDbEntity
  8
2
100
AcDbLine
 10
277.1844
 20
-19.967968
 30
0.0
 11
180.6844
 21
-19.967968
 31
0.0
  0
LINE
  5
60B
100
AcDbEntity
  8
2
100
AcDbLine
 10
277.1844
 20
-19.967968
 30
0.0
 11
277.1844
 21
-17.967968
 31
0.0
  0
LINE
  5
60C
100
AcDbEntity
  8
2
100
AcDbLine
 10
262.085018
 20
-17.967968
 30
0.0
 11
262.085018
 21
-19.967968
 31
0.0
  0
LINE
  5
60D
100
AcDbEntity
  8
2
100
AcDbLine
 10
259.81418
 20
-17.967968
 30
0.0
 11
259.81418
 21
-19.967968
 31
0.0
  0
LINE
  5
60E
100
AcDbEntity
  8
2
100
AcDbLine
 10
258.240056
 20
-17.967968
 30
0.0
 11
258.240056
 21
-19.967968
 31
0.0
  0
LINE
  5
60F
100
AcDbEntity
  8
2
100
AcDbLine
 10
255.388176
 20
-17.967968
 30
0.0
 11
255.388176
 21
-19.967968
 31
0.0
  0
LINE
  5
610
100
AcDbEntity
  8
2
100
AcDbLine
 10
252.46014
 20
-17.967968
 30
0.0
 11
252.46014
 21
-19.967968
 31
0.0
  0
LINE
  5
611
100
AcDbEntity
  8
2
100
AcDbLine
 10
248.290971
 20
-17.967968
 30
0.0
 11
248.290971
 21
-19.967968
 31
0.0
  0
LINE
  5
612
100
AcDbEntity
  8
2
100
AcDbLine
 10
243.768794
 20
-17.967968
 30
0.0
 11
243.768794
 21
-19.967968
 31
0.0
  0
LINE
  5
613
100
AcDbEntity
  8
2
100
AcDbLine
 10
238.957267
 20
-17.967968
 30
0.0
 11
238.957267
 21
-19.967968
 31
0.0
  0
LINE
  5
614
100
AcDbEntity
  8
2
100
AcDbLine
 10
234.058203
 20
-17.967968
 30
0.0
 11
234.058203
 21
-19.967968
 31
0.0
  0
LINE
  5
615
100
AcDbEntity
  8
2
100
AcDbLine
 10
227.670665
 20
-17.967968
 30
0.0
 11
227.670665
 21
-19.967968
 31
0.0
  0
LINE
  5
616
100
AcDbEntity
  8
2
100
AcDbLine
 10
221.724967
 20
-17.967968
 30
0.0
 11
221.724967
 21
-19.967968
 31
0.0
  0
LINE
  5
617
100
AcDbEntity
  8
2
100
AcDbLine
 10
215.040741
 20
-17.967968
 30
0.0
 11
215.040741
 21
-19.967968
 31
0.0
  0
LINE
  5
618
100
AcDbEntity
  8
2
100
AcDbLine
 10
208.301706
 20
-17.967968
 30
0.0
 11
208.301706
 21
-19.967968
 31
0.0
  0
LINE
  5
619
100
AcDbEntity
  8
2
100
AcDbLine
 10
201.01053
 20
-17.967968
 30
0.0
 11
201.01053
 21
-19.967968
 31
0.0
  0
LINE
  5
61A
100
AcDbEntity
  8
2
100
AcDbLine
 10
193.435305
 20
-17.967968
 30
0.0
 11
193.435305
 21
-19.967968
 31
0.0
  0
LINE
  5
61B
100
AcDbEntity
  8
2
100
AcDbLine
 10
185.755528
 20
-17.967968
 30
0.0
 11
185.755528
 21
-19.967968
 31
0.0
  0
LINE
  5
61C
100
AcDbEntity
  8
2
100
AcDbLine
 10
147.6844
 20
-17.967968
 30
0.0
 11
147.6844
 21
-19.967968
 31
0.0
  0
LINE
  5
61D
100
AcDbEntity
  8
2
100
AcDbLine
 10
167.6844
 20
-17.967968
 30
0.0
 11
167.6844
 21
-19.967968
 31
0.0
  0
ARC
  5
61E
100
AcDbEntity
  8
2
100
AcDbCircle
 10
174.655334
 20
27.748313
 30
0.0
 40
34.117089
100
AcDbArc
 50
72.893757
 51
107.001541
  0
ARC
  5
61F
100
AcDbEntity
  8
2
100
AcDbCircle
 10
174.655334
 20
28.414956
 30
0.0
 40
34.117089
100
AcDbArc
 50
63.756415
 51
116.129647
  0
LINE
  5
620
100
AcDbEntity
  8
2
100
AcDbLine
 10
166.6844
 20
12.032032
 30
0.0
 11
166.6844
 21
23.655988
 31
0.0
  0
LINE
  5
621
100
AcDbEntity
  8
2
  6
CENTER
 62
     2
100
AcDbLine
 10
147.88397
 20
27.032032
 30
0.0
 11
200.486798
 21
27.032032
 31
0.0
  0
LINE
  5
622
100
AcDbEntity
  8
2
  6
CENTER
 62
     2
100
AcDbLine
 10
139.417302
 20
0.032032
 30
0.0
 11
162.404296
 21
0.032032
 31
0.0
  0
LINE
  5
623
100
AcDbEntity
  8
2
100
AcDbLine
 10
151.6844
 20
-6.467968
 30
0.0
 11
145.906088
 21
-6.467968
 31
0.0
  0
LINE
  5
624
100
AcDbEntity
  8
2
100
AcDbLine
 10
145.1844
 20
-3.217968
 30
0.0
 11
145.1844
 21
0.032032
 31
0.0
  0
LINE
  5
625
100
AcDbEntity
  8
2
100
AcDbLine
 10
151.6844
 20
0.032032
 30
0.0
 11
145.906088
 21
0.032032
 31
0.0
  0
ARC
  5
626
100
AcDbEntity
  8
2
100
AcDbCircle
 10
152.863159
 20
-3.217968
 30
0.0
 40
7.678759
100
AcDbArc
 50
154.96034
 51
205.03966
  0
LINE
  5
627
100
AcDbEntity
  8
2
100
AcDbLine
 10
151.6844
 20
6.532032
 30
0.0
 11
145.906088
 21
6.532032
 31
0.0
  0
LINE
  5
628
100
AcDbEntity
  8
2
100
AcDbLine
 10
145.1844
 20
3.282032
 30
0.0
 11
145.1844
 21
0.032032
 31
0.0
  0
LINE
  5
629
100
AcDbEntity
  8
2
100
AcDbLine
 10
151.6844
 20
0.032032
 30
0.0
 11
145.906088
 21
0.032032
 31
0.0
  0
ARC
  5
62A
100
AcDbEntity
  8
2
100
AcDbCircle
 10
152.863159
 20
3.282032
 30
0.0
 40
7.678759
100
AcDbArc
 50
154.96034
 51
205.03966
  0
LINE
  5
62B
100
AcDbEntity
  8
2
100
AcDbLine
 10
140.6844
 20
0.032032
 30
0.0
 11
140.6844
 21
3.355532
 31
0.0
  0
LINE
  5
62C
100
AcDbEntity
  8
2
100
AcDbLine
 10
140.6844
 20
3.355532
 30
0.0
 11
141.3609
 21
4.032032
 31
0.0
  0
LINE
  5
62D
100
AcDbEntity
  8
2
100
AcDbLine
 10
141.3609
 20
4.032032
 30
0.0
 11
145.221115
 21
4.032032
 31
0.0
  0
LINE
  5
62E
100
AcDbEntity
  8
2
100
AcDbLine
 10
141.3609
 20
4.032032
 30
0.0
 11
141.3609
 21
0.032032
 31
0.0
  0
LINE
  5
62F
100
AcDbEntity
  8
2
 62
     2
100
AcDbLine
 10
140.6844
 20
3.355532
 30
0.0
 11
145.184752
 21
3.355532
 31
0.0
  0
LINE
  5
630
100
AcDbEntity
  8
2
100
AcDbLine
 10
140.6844
 20
0.032032
 30
0.0
 11
140.6844
 21
-3.291468
 31
0.0
  0
LINE
  5
631
100
AcDbEntity
  8
2
100
AcDbLine
 10
140.6844
 20
-3.291468
 30
0.0
 11
141.3609
 21
-3.967968
 31
0.0
  0
LINE
  5
632
100
AcDbEntity
  8
2
100
AcDbLine
 10
141.3609
 20
-3.967968
 30
0.0
 11
145.221115
 21
-3.967968
 31
0.0
  0
LINE
  5
633
100
AcDbEntity
  8
2
100
AcDbLine
 10
141.3609
 20
-3.967968
 30
0.0
 11
141.3609
 21
0.032032
 31
0.0
  0
LINE
  5
634
100
AcDbEntity
  8
2
 62
     2
100
AcDbLine
 10
140.6844
 20
-3.291468
 30
0.0
 11
145.184752
 21
-3.291468
 31
0.0
  0
ARC
  5
635
100
AcDbEntity
  8
2
100
AcDbCircle
 10
182.256575
 20
69.905793
 30
0.0
 40
6.457103
100
AcDbArc
 50
5.249693
 51
73.977899
  0
ARC
  5
636
100
AcDbEntity
  8
2
100
AcDbCircle
 10
174.6844
 20
43.536874
 30
0.0
 40
33.891711
100
AcDbArc
 50
73.977899
 51
106.022101
  0
ARC
  5
637
100
AcDbEntity
  8
2
100
AcDbCircle
 10
167.112225
 20
69.905793
 30
0.0
 40
6.457103
100
AcDbArc
 50
106.022101
 51
174.750307
  0
LINE
  5
638
100
AcDbEntity
  8
2
100
AcDbLine
 10
-315.185064
 20
11.032032
 30
0.0
 11
-260.589129
 21
11.032032
 31
0.0
  0
ARC
  5
639
100
AcDbEntity
  8
2
100
AcDbCircle
 10
-267.375926
 20
12.032032
 30
0.0
 40
1.0
100
AcDbArc
 50
270.0
 51
360.0
  0
ARC
  5
63A
100
AcDbEntity
  8
2
100
AcDbCircle
 10
-281.375926
 20
12.032032
 30
0.0
 40
1.0
100
AcDbArc
 50
180.0
 51
270.0
  0
ARC
  5
63B
100
AcDbEntity
  8
2
100
AcDbCircle
 10
-260.589129
 20
26.032032
 30
0.0
 40
15.0
100
AcDbArc
 50
270.0
 51
315.0
  0
LINE
  5
63C
100
AcDbEntity
  8
2
100
AcDbLine
 10
-249.982528
 20
15.42543
 30
0.0
 11
-245.904424
 21
19.503534
 31
0.0
  0
ARC
  5
63D
100
AcDbEntity
  8
2
100
AcDbCircle
 10
-214.084619
 20
-12.316271
 30
0.0
 40
45.0
100
AcDbArc
 50
102.5
 51
135.0
  0
LINE
  5
63E
100
AcDbEntity
  8
2
100
AcDbLine
 10
-223.824401
 20
31.617049
 30
0.0
 11
-85.326991
 21
62.321186
 31
0.0
  0
ARC
  5
63F
100
AcDbEntity
  8
2
100
AcDbCircle
 10
-85.543431
 20
63.297482
 30
0.0
 40
1.0
100
AcDbArc
 50
282.5
 51
11.0
  0
LINE
  5
640
100
AcDbEntity
  8
2
100
AcDbLine
 10
-86.327778
 20
72.573439
 30
0.0
 11
-84.561804
 21
63.488291
 31
0.0
  0
ARC
  5
641
100
AcDbEntity
  8
2
100
AcDbCircle
 10
-92.217541
 20
71.428585
 30
0.0
 40
6.0
100
AcDbArc
 50
11.0
 51
101.0
  0
LINE
  5
642
100
AcDbEntity
  8
2
100
AcDbLine
 10
-266.375926
 20
27.032032
 30
0.0
 11
-266.375926
 21
12.032032
 31
0.0
  0
LINE
  5
643
100
AcDbEntity
  8
2
100
AcDbLine
 10
-282.375926
 20
27.032032
 30
0.0
 11
-282.375926
 21
12.032032
 31
0.0
  0
ARC
  5
644
100
AcDbEntity
  8
2
100
AcDbCircle
 10
-274.375926
 20
27.032032
 30
0.0
 40
8.0
100
AcDbArc
 50
0.0
 51
180.0
  0
LINE
  5
645
100
AcDbEntity
  8
2
100
AcDbLine
 10
-414.375923
 20
14.919639
 30
0.0
 11
-93.362395
 21
77.318348
 31
0.0
  0
CIRCLE
  5
646
100
AcDbEntity
  8
2
100
AcDbCircle
 10
-274.375926
 20
27.032032
 30
0.0
 40
2.5
  0
ARC
  5
647
100
AcDbEntity
  8
2
100
AcDbCircle
 10
-268.079509
 20
-46.797983
 30
0.0
 40
60.0
100
AcDbArc
 50
105.456387
 51
130.0
  0
LINE
  5
648
100
AcDbEntity
  8
2
100
AcDbLine
 10
-254.653128
 20
12.256551
 30
0.0
 11
-168.577086
 21
4.725873
 31
0.0
  0
LINE
  5
649
100
AcDbEntity
  8
2
100
AcDbLine
 10
-186.791656
 20
32.915667
 30
0.0
 11
-179.750973
 21
33.161534
 31
0.0
  0
LINE
  5
64A
100
AcDbEntity
  8
2
100
AcDbLine
 10
-177.802583
 20
32.228963
 30
0.0
 11
-177.706551
 21
29.478961
 31
0.0
  0
LINE
  5
64B
100
AcDbEntity
  8
2
100
AcDbLine
 10
-190.77134
 20
31.107378
 30
0.0
 11
-190.671696
 21
28.253927
 31
0.0
  0
LINE
  5
64C
100
AcDbEntity
  8
2
100
AcDbLine
 10
-198.13859
 20
27.388566
 30
0.0
 11
-197.107496
 21
26.302019
 31
0.0
  0
ARC
  5
64D
100
AcDbEntity
  8
2
100
AcDbCircle
 10
-196.012117
 20
23.588196
 30
0.0
 40
1.0
100
AcDbArc
 50
182.0
 51
272.0
  0
ARC
  5
64E
100
AcDbEntity
  8
2
100
AcDbCircle
 10
-192.032004
 20
24.227489
 30
0.0
 40
1.5
100
AcDbArc
 50
272.0
 51
314.00304
  0
ARC
  5
64F
100
AcDbEntity
  8
2
100
AcDbCircle
 10
-176.04175
 20
24.785881
 30
0.0
 40
1.5
100
AcDbArc
 50
182.0
 51
272.0
  0
LINE
  5
650
100
AcDbEntity
  8
2
100
AcDbLine
 10
-195.977218
 20
22.588805
 30
0.0
 11
-187.982091
 21
22.868001
 31
0.0
  0
LINE
  5
651
100
AcDbEntity
  8
2
100
AcDbLine
 10
-189.177131
 20
31.831755
 30
0.0
 11
-182.165198
 21
32.076617
 31
0.0
  0
LINE
  5
652
100
AcDbEntity
  8
2
100
AcDbLine
 10
-84.724921
 20
16.467726
 30
0.0
 11
-84.480624
 21
9.47199
 31
0.0
  0
ARC
  5
653
100
AcDbEntity
  8
2
100
AcDbCircle
 10
-94.718829
 20
16.118731
 30
0.0
 40
10.0
100
AcDbArc
 50
2.0
 51
92.0
  0
ARC
  5
654
100
AcDbEntity
  8
2
100
AcDbCircle
 10
-87.478797
 20
9.367291
 30
0.0
 40
3.0
100
AcDbArc
 50
232.284863
 51
2.0
  0
ARC
  5
655
100
AcDbEntity
  8
2
100
AcDbCircle
 10
-95.431366
 20
-0.916514
 30
0.0
 40
10.0
100
AcDbArc
 50
52.284863
 51
123.788331
  0
ARC
  5
656
100
AcDbEntity
  8
2
100
AcDbCircle
 10
-106.553893
 20
15.705441
 30
0.0
 40
10.0
100
AcDbArc
 50
240.211669
 51
303.788331
  0
ARC
  5
657
100
AcDbEntity
  8
2
100
AcDbCircle
 10
-116.489837
 20
-1.651892
 30
0.0
 40
10.0
100
AcDbArc
 50
60.211669
 51
123.788331
  0
ARC
  5
658
100
AcDbEntity
  8
2
100
AcDbCircle
 10
-137.548308
 20
-2.38727
 30
0.0
 40
10.0
100
AcDbArc
 50
60.211669
 51
123.788331
  0
ARC
  5
659
100
AcDbEntity
  8
2
100
AcDbCircle
 10
-148.670836
 20
14.234685
 30
0.0
 40
10.0
100
AcDbArc
 50
240.211669
 51
303.788331
  0
ARC
  5
65A
100
AcDbEntity
  8
2
100
AcDbCircle
 10
-158.60678
 20
-3.122648
 30
0.0
 40
10.0
100
AcDbArc
 50
60.211669
 51
117.060909
  0
ARC
  5
65B
100
AcDbEntity
  8
2
100
AcDbCircle
 10
-167.705529
 20
14.68782
 30
0.0
 40
10.0
100
AcDbArc
 50
265.0
 51
297.060909
  0
LINE
  5
65C
100
AcDbEntity
  8
2
100
AcDbLine
 10
-197.107496
 20
26.302019
 30
0.0
 11
-197.011508
 21
23.553296
 31
0.0
  0
LINE
  5
65D
100
AcDbEntity
  8
2
100
AcDbLine
 10
-229.116655
 20
30.098796
 30
0.0
 11
-198.13859
 21
27.388566
 31
0.0
  0
LINE
  5
65E
100
AcDbEntity
  8
2
100
AcDbLine
 10
-247.575926
 20
11.637376
 30
0.0
 11
-247.575926
 21
17.832032
 31
0.0
  0
ARC
  5
65F
100
AcDbEntity
  8
2
100
AcDbCircle
 10
-180.039314
 20
24.646283
 30
0.0
 40
1.5
100
AcDbArc
 50
182.0
 51
272.0
  0
ARC
  5
660
100
AcDbEntity
  8
2
100
AcDbCircle
 10
-188.03444
 20
24.367087
 30
0.0
 40
1.5
100
AcDbArc
 50
272.0
 51
2.0
  0
LINE
  5
661
100
AcDbEntity
  8
2
100
AcDbLine
 10
-179.986965
 20
23.147197
 30
0.0
 11
-95.067824
 21
26.112639
 31
0.0
  0
LINE
  5
662
100
AcDbEntity
  8
2
100
AcDbLine
 10
-190.611386
 20
26.526896
 30
0.0
 11
-190.557856
 21
24.993972
 31
0.0
  0
LINE
  5
663
100
AcDbEntity
  8
2
100
AcDbLine
 10
-177.648085
 20
27.804728
 30
0.0
 11
-177.540837
 21
24.733532
 31
0.0
  0
CIRCLE
  5
664
100
AcDbEntity
  8
2
100
AcDbCircle
 10
-176.364603
 20
24.952134
 30
0.0
 40
0.8
  0
ARC
  5
665
100
AcDbEntity
  8
2
100
AcDbCircle
 10
-191.685075
 20
23.753264
 30
0.0
 40
0.8
100
AcDbArc
 50
109.238523
 51
289.238523
  0
ARC
  5
666
100
AcDbEntity
  8
2
100
AcDbCircle
 10
-176.644559
 20
29.002267
 30
0.0
 40
0.8
100
AcDbArc
 50
289.238523
 51
109.238523
  0
ARC
  5
667
100
AcDbEntity
  8
2
100
AcDbCircle
 10
-177.083343
 20
33.483259
 30
0.0
 40
0.8
100
AcDbArc
 50
294.198425
 51
114.198425
  0
ARC
  5
668
100
AcDbEntity
  8
2
100
AcDbCircle
 10
-177.656149
 20
37.945372
 30
0.0
 40
0.8
100
AcDbArc
 50
294.436101
 51
114.436101
  0
ARC
  5
669
100
AcDbEntity
  8
2
100
AcDbCircle
 10
-192.658878
 20
35.831969
 30
0.0
 40
0.8
100
AcDbArc
 50
115.599226
 51
295.599226
  0
ARC
  5
66A
100
AcDbEntity
  8
2
100
AcDbCircle
 10
-192.146185
 20
31.361389
 30
0.0
 40
0.8
100
AcDbArc
 50
114.436101
 51
294.436101
  0
ARC
  5
66B
100
AcDbEntity
  8
2
100
AcDbCircle
 10
-191.80799
 20
26.866227
 30
0.0
 40
0.8
100
AcDbArc
 50
114.198425
 51
294.198425
  0
LINE
  5
66C
100
AcDbEntity
  8
2
100
AcDbLine
 10
-191.948676
 20
24.508588
 30
0.0
 11
-176.90816
 21
29.757592
 31
0.0
  0
LINE
  5
66D
100
AcDbEntity
  8
2
100
AcDbLine
 10
-176.380958
 20
28.246943
 30
0.0
 11
-191.421473
 21
22.99794
 31
0.0
  0
LINE
  5
66E
100
AcDbEntity
  8
2
100
AcDbLine
 10
-176.756152
 20
29.794446
 30
0.0
 11
-177.712861
 21
29.659676
 31
0.0
  0
LINE
  5
66F
100
AcDbEntity
  8
2
100
AcDbLine
 10
-192.135909
 20
27.595932
 30
0.0
 11
-177.411261
 21
34.212965
 31
0.0
  0
LINE
  5
670
100
AcDbEntity
  8
2
100
AcDbLine
 10
-176.755424
 20
32.753554
 30
0.0
 11
-191.480072
 21
26.136522
 31
0.0
  0
LINE
  5
671
100
AcDbEntity
  8
2
100
AcDbLine
 10
-192.477127
 20
32.089727
 30
0.0
 11
-177.987092
 21
38.67371
 31
0.0
  0
LINE
  5
672
100
AcDbEntity
  8
2
100
AcDbLine
 10
-177.325207
 20
37.217033
 30
0.0
 11
-191.815242
 21
30.63305
 31
0.0
  0
LINE
  5
673
100
AcDbEntity
  8
2
100
AcDbLine
 10
-193.004537
 20
36.55344
 30
0.0
 11
-185.637999
 21
40.082771
 31
0.0
  0
LINE
  5
674
100
AcDbEntity
  8
2
100
AcDbLine
 10
-178.74563
 20
41.610772
 30
0.0
 11
-192.313219
 21
35.110498
 31
0.0
  0
LINE
  5
675
100
AcDbEntity
  8
2
100
AcDbLine
 10
-177.194935
 20
34.275438
 30
0.0
 11
-186.766455
 21
32.927118
 31
0.0
  0
LINE
  5
676
100
AcDbEntity
  8
2
100
AcDbLine
 10
-190.758823
 20
30.748925
 30
0.0
 11
-192.034592
 21
30.56921
 31
0.0
  0
LINE
  5
677
100
AcDbEntity
  8
2
100
AcDbLine
 10
-183.035879
 20
36.379642
 30
0.0
 11
-192.547285
 21
35.03979
 31
0.0
  0
LINE
  5
678
100
AcDbEntity
  8
2
100
AcDbLine
 10
-187.647645
 20
37.345789
 30
0.0
 11
-177.767742
 21
38.737551
 31
0.0
  0
LINE
  5
679
100
AcDbEntity
  8
2
100
AcDbLine
 10
-177.57319
 20
25.660005
 30
0.0
 11
-176.427015
 21
25.749696
 31
0.0
  0
LINE
  5
67A
100
AcDbEntity
  8
2
100
AcDbLine
 10
-190.600961
 20
26.22836
 30
0.0
 11
-191.696398
 21
26.074048
 31
0.0
  0
LINE
  5
67B
100
AcDbEntity
  8
2
100
AcDbLine
 10
-177.361426
 20
24.07282
 30
0.0
 11
-176.326981
 21
24.153769
 31
0.0
  0
ARC
  5
67C
100
AcDbEntity
  8
2
  6
CENTER
 62
     2
100
AcDbCircle
 10
-274.375926
 20
27.032032
 30
0.0
 40
90.240063
100
AcDbArc
 50
353.346477
 51
18.285602
  0
LINE
  5
67D
100
AcDbEntity
  8
2
  6
CENTER
 62
     2
100
AcDbLine
 10
-274.375926
 20
39.115172
 30
0.0
 11
-274.375926
 21
5.409142
 31
0.0
  0
LINE
  5
67E
100
AcDbEntity
  8
2
  6
CENTER
 62
     2
100
AcDbLine
 10
-263.299175
 20
27.032032
 30
0.0
 11
-285.395585
 21
27.032032
 31
0.0
  0
CIRCLE
  5
67F
100
AcDbEntity
  8
2
100
AcDbCircle
 10
-274.375926
 20
27.032032
 30
0.0
 40
2.0
  0
ARC
  5
680
100
AcDbEntity
  8
2
100
AcDbCircle
 10
-315.185064
 20
-3.967968
 30
0.0
 40
15.0
100
AcDbArc
 50
90.0
 51
101.0
  0
ARC
  5
681
100
AcDbEntity
  8
2
100
AcDbCircle
 10
-412.375926
 20
17.345832
 30
0.0
 40
2.0
100
AcDbArc
 50
180.0
 51
281.0
  0
LINE
  5
682
100
AcDbEntity
  8
2
100
AcDbLine
 10
-414.375926
 20
-7.967968
 30
0.0
 11
-318.047199
 21
10.75644
 31
0.0
  0
LINE
  5
683
100
AcDbEntity
  8
2
100
AcDbLine
 10
-454.375926
 20
-7.967968
 30
0.0
 11
-454.375926
 21
-9.967968
 31
0.0
  0
LINE
  5
684
100
AcDbEntity
  8
2
100
AcDbLine
 10
-414.375926
 20
-7.967968
 30
0.0
 11
-414.375926
 21
-9.967968
 31
0.0
  0
LINE
  5
685
100
AcDbEntity
  8
2
100
AcDbLine
 10
-414.375926
 20
18.032032
 30
0.0
 11
-414.375926
 21
17.345832
 31
0.0
  0
LINE
  5
686
100
AcDbEntity
  8
2
100
AcDbLine
 10
-415.375926
 20
19.032032
 30
0.0
 11
-453.375926
 21
19.032032
 31
0.0
  0
ARC
  5
687
100
AcDbEntity
  8
2
100
AcDbCircle
 10
-426.375926
 20
18.032032
 30
0.0
 40
1.0
100
AcDbArc
 50
0.0
 51
90.0
  0
ARC
  5
688
100
AcDbEntity
  8
2
100
AcDbCircle
 10
-442.375926
 20
18.032032
 30
0.0
 40
1.0
100
AcDbArc
 50
90.0
 51
180.0
  0
ARC
  5
689
100
AcDbEntity
  8
2
100
AcDbCircle
 10
-474.020805
 20
53.856366
 30
0.0
 40
52.973971
100
AcDbArc
 50
284.869627
 51
304.976114
  0
LINE
  5
68A
100
AcDbEntity
  8
2
100
AcDbLine
 10
-458.323805
 20
5.878199
 30
0.0
 11
-483.401986
 21
-3.249513
 31
0.0
  0
LINE
  5
68B
100
AcDbEntity
  8
2
100
AcDbLine
 10
-415.375926
 20
19.032032
 30
0.0
 11
-414.375926
 21
18.032032
 31
0.0
  0
LINE
  5
68C
100
AcDbEntity
  8
2
100
AcDbLine
 10
-453.375926
 20
19.032032
 30
0.0
 11
-454.375926
 21
18.032032
 31
0.0
  0
LINE
  5
68D
100
AcDbEntity
  8
2
100
AcDbLine
 10
-414.375926
 20
18.032032
 30
0.0
 11
-414.375926
 21
17.919638
 31
0.0
  0
LINE
  5
68E
100
AcDbEntity
  8
2
100
AcDbLine
 10
-454.375926
 20
18.032032
 30
0.0
 11
-454.375926
 21
11.516355
 31
0.0
  0
LINE
  5
68F
100
AcDbEntity
  8
2
100
AcDbLine
 10
-425.375926
 20
18.032032
 30
0.0
 11
-425.375926
 21
-7.967968
 31
0.0
  0
LINE
  5
690
100
AcDbEntity
  8
2
100
AcDbLine
 10
-443.375926
 20
18.032032
 30
0.0
 11
-443.375926
 21
-7.967968
 31
0.0
  0
ARC
  5
691
100
AcDbEntity
  8
2
100
AcDbCircle
 10
-482.375926
 20
-6.068591
 30
0.0
 40
3.0
100
AcDbArc
 50
110.0
 51
180.0
  0
LINE
  5
692
100
AcDbEntity
  8
2
100
AcDbLine
 10
-485.375926
 20
-7.967968
 30
0.0
 11
-485.375926
 21
-6.068591
 31
0.0
  0
LINE
  5
693
100
AcDbEntity
  8
2
100
AcDbLine
 10
-414.375926
 20
-7.967968
 30
0.0
 11
-485.375926
 21
-7.967968
 31
0.0
  0
LINE
  5
694
100
AcDbEntity
  8
2
100
AcDbLine
 10
-414.375926
 20
-9.967968
 30
0.0
 11
-454.375926
 21
-9.967968
 31
0.0
  0
ARC
  5
695
100
AcDbEntity
  8
2
100
AcDbCircle
 10
-460.375926
 20
11.516355
 30
0.0
 40
6.0
100
AcDbArc
 50
290.0
 51
360.0
  0
LINE
  5
696
100
AcDbEntity
  8
2
100
AcDbLine
 10
-350.070759
 20
-12.68588
 30
0.0
 11
-323.365232
 21
9.722719
 31
0.0
  0
LINE
  5
697
100
AcDbEntity
  8
2
100
AcDbLine
 10
-339.168942
 20
-24.985616
 30
0.0
 11
-339.168942
 21
-19.967968
 31
0.0
  0
LINE
  5
698
100
AcDbEntity
  8
2
100
AcDbLine
 10
-350.427972
 20
-13.451924
 30
0.0
 11
-350.427972
 21
-17.967968
 31
0.0
  0
LINE
  5
699
100
AcDbEntity
  8
2
100
AcDbLine
 10
-337.611793
 20
-24.985616
 30
0.0
 11
-349.427972
 21
-24.985616
 31
0.0
  0
LINE
  5
69A
100
AcDbEntity
  8
2
100
AcDbLine
 10
-333.755068
 20
-23.581883
 30
0.0
 11
-306.646766
 21
-0.835317
 31
0.0
  0
ARC
  5
69B
100
AcDbEntity
  8
2
100
AcDbCircle
 10
-349.427972
 20
-13.451924
 30
0.0
 40
1.0
100
AcDbArc
 50
130.0
 51
180.0
  0
ARC
  5
69C
100
AcDbEntity
  8
2
100
AcDbCircle
 10
-349.427972
 20
-23.985616
 30
0.0
 40
1.0
100
AcDbArc
 50
180.0
 51
270.0
  0
ARC
  5
69D
100
AcDbEntity
  8
2
100
AcDbCircle
 10
-337.611793
 20
-18.985616
 30
0.0
 40
6.0
100
AcDbArc
 50
270.0
 51
310.0
  0
LINE
  5
69E
100
AcDbEntity
  8
2
100
AcDbLine
 10
-310.175926
 20
-3.796634
 30
0.0
 11
-310.175926
 21
11.032032
 31
0.0
  0
LINE
  5
69F
100
AcDbEntity
  8
2
100
AcDbLine
 10
-350.427972
 20
-19.967968
 30
0.0
 11
-350.427972
 21
-23.985616
 31
0.0
  0
LINE
  5
6A0
100
AcDbEntity
  8
2
100
AcDbLine
 10
-339.168942
 20
-17.967968
 30
0.0
 11
-339.168942
 21
-3.538169
 31
0.0
  0
LINE
  5
6A1
100
AcDbEntity
  8
2
100
AcDbLine
 10
-438.128703
 20
6.532032
 30
0.0
 11
-441.881479
 21
0.032032
 31
0.0
  0
LINE
  5
6A2
100
AcDbEntity
  8
2
100
AcDbLine
 10
-430.623149
 20
6.532032
 30
0.0
 11
-438.128703
 21
6.532032
 31
0.0
  0
LINE
  5
6A3
100
AcDbEntity
  8
2
100
AcDbLine
 10
-426.870372
 20
0.032032
 30
0.0
 11
-430.623149
 21
6.532032
 31
0.0
  0
LINE
  5
6A4
100
AcDbEntity
  8
2
100
AcDbLine
 10
-430.623149
 20
-6.467968
 30
0.0
 11
-426.870372
 21
0.032032
 31
0.0
  0
LINE
  5
6A5
100
AcDbEntity
  8
2
100
AcDbLine
 10
-438.128703
 20
-6.467968
 30
0.0
 11
-430.623149
 21
-6.467968
 31
0.0
  0
LINE
  5
6A6
100
AcDbEntity
  8
2
100
AcDbLine
 10
-441.881479
 20
0.032032
 30
0.0
 11
-438.128703
 21
-6.467968
 31
0.0
  0
CIRCLE
  5
6A7
100
AcDbEntity
  8
2
100
AcDbCircle
 10
-434.375926
 20
0.032032
 30
0.0
 40
3.375
  0
CIRCLE
  5
6A8
100
AcDbEntity
  8
2
100
AcDbCircle
 10
-434.375926
 20
0.032032
 30
0.0
 40
4.0
  0
CIRCLE
  5
6A9
100
AcDbEntity
  8
2
100
AcDbCircle
 10
-434.375926
 20
0.032032
 30
0.0
 40
6.5
  0
LINE
  5
6AA
100
AcDbEntity
  8
2
100
AcDbLine
 10
-460.426599
 20
2.656374
 30
0.0
 11
-481.399083
 21
-2.912069
 31
0.0
  0
LINE
  5
6AB
100
AcDbEntity
  8
2
100
AcDbLine
 10
-511.87608
 20
-17.967968
 30
0.0
 11
-511.87608
 21
-19.967968
 31
0.0
  0
LINE
  5
6AC
100
AcDbEntity
  8
2
100
AcDbLine
 10
-331.87608
 20
-17.967968
 30
0.0
 11
-511.87608
 21
-17.967968
 31
0.0
  0
LINE
  5
6AD
100
AcDbEntity
  8
2
100
AcDbLine
 10
-331.87608
 20
-19.967968
 30
0.0
 11
-511.87608
 21
-19.967968
 31
0.0
  0
LINE
  5
6AE
100
AcDbEntity
  8
2
100
AcDbLine
 10
-351.891846
 20
-17.967968
 30
0.0
 11
-351.891846
 21
-19.967968
 31
0.0
  0
LINE
  5
6AF
100
AcDbEntity
  8
2
100
AcDbLine
 10
-331.87608
 20
-17.967968
 30
0.0
 11
-331.87608
 21
-19.967968
 31
0.0
  0
LINE
  5
6B0
100
AcDbEntity
  8
2
  6
CENTER
 62
     2
100
AcDbLine
 10
-445.160511
 20
0.032032
 30
0.0
 11
-423.199065
 21
0.032032
 31
0.0
  0
LINE
  5
6B1
100
AcDbEntity
  8
2
100
AcDbLine
 10
-423.375926
 20
6.184802
 30
0.0
 11
-423.375926
 21
-7.967968
 31
0.0
  0
ARC
  5
6B2
100
AcDbEntity
  8
2
100
AcDbCircle
 10
-417.375926
 20
6.184802
 30
0.0
 40
6.0
100
AcDbArc
 50
135.03921
 51
180.0
  0
ARC
  5
6B3
100
AcDbEntity
  8
2
100
AcDbCircle
 10
-408.434203
 20
-2.744691
 30
0.0
 40
18.636861
100
AcDbArc
 50
108.591313
 51
135.03921
  0
LINE
  5
6B4
100
AcDbEntity
  8
3
100
AcDbLine
 10
-485.3761
 20
-19.967968
 30
0.0
 11
-383.3761
 21
-19.967968
 31
0.0
  0
LINE
  5
6B5
100
AcDbEntity
  8
3
100
AcDbLine
 10
-383.3761
 20
-19.967968
 30
0.0
 11
-383.3761
 21
-24.467968
 31
0.0
  0
LINE
  5
6B6
100
AcDbEntity
  8
3
100
AcDbLine
 10
-485.3761
 20
-19.967968
 30
0.0
 11
-485.3761
 21
-24.467968
 31
0.0
  0
LINE
  5
6B7
100
AcDbEntity
  8
3
100
AcDbLine
 10
-485.3761
 20
-24.467968
 30
0.0
 11
-383.3761
 21
-24.467968
 31
0.0
  0
LINE
  5
6B8
100
AcDbEntity
  8
3
100
AcDbLine
 10
-493.266972
 20
-43.467968
 30
0.0
 11
-493.266972
 21
-47.967968
 31
0.0
  0
LINE
  5
6B9
100
AcDbEntity
  8
3
100
AcDbLine
 10
-375.485228
 20
-43.467968
 30
0.0
 11
-375.485228
 21
-47.967968
 31
0.0
  0
LINE
  5
6BA
100
AcDbEntity
  8
3
100
AcDbLine
 10
-448.871788
 20
-24.467968
 30
0.0
 11
-448.871788
 21
-41.285988
 31
0.0
  0
LINE
  5
6BB
100
AcDbEntity
  8
3
100
AcDbLine
 10
-452.053768
 20
-24.467968
 30
0.0
 11
-452.053768
 21
-39.967968
 31
0.0
  0
LINE
  5
6BC
100
AcDbEntity
  8
3
100
AcDbLine
 10
-480.33804
 20
-24.467968
 30
0.0
 11
-480.33804
 21
-35.467968
 31
0.0
  0
LINE
  5
6BD
100
AcDbEntity
  8
3
100
AcDbLine
 10
-375.485228
 20
-43.467968
 30
0.0
 11
-384.91416
 21
-43.467968
 31
0.0
  0
LINE
  5
6BE
100
AcDbEntity
  8
3
100
AcDbLine
 10
-455.553768
 20
-43.467968
 30
0.0
 11
-493.266972
 21
-43.467968
 31
0.0
  0
ARC
  5
6BF
100
AcDbEntity
  8
3
100
AcDbCircle
 10
-455.553768
 20
-39.967968
 30
0.0
 40
3.5
100
AcDbArc
 50
270.0
 51
360.0
  0
ARC
  5
6C0
100
AcDbEntity
  8
3
100
AcDbCircle
 10
-455.553768
 20
-41.285988
 30
0.0
 40
6.68198
100
AcDbArc
 50
270.0
 51
360.0
  0
LINE
  5
6C1
100
AcDbEntity
  8
3
100
AcDbLine
 10
-391.59614
 20
-32.967968
 30
0.0
 11
-391.59614
 21
-41.285988
 31
0.0
  0
LINE
  5
6C2
100
AcDbEntity
  8
3
100
AcDbLine
 10
-388.41416
 20
-24.467968
 30
0.0
 11
-388.41416
 21
-39.967968
 31
0.0
  0
LINE
  5
6C3
100
AcDbEntity
  8
3
100
AcDbLine
 10
-419.880412
 20
-24.467968
 30
0.0
 11
-419.880412
 21
-35.467968
 31
0.0
  0
ARC
  5
6C4
100
AcDbEntity
  8
3
100
AcDbCircle
 10
-384.91416
 20
-39.967968
 30
0.0
 40
3.5
100
AcDbArc
 50
180.0
 51
270.0
  0
ARC
  5
6C5
100
AcDbEntity
  8
3
100
AcDbCircle
 10
-384.91416
 20
-41.285988
 30
0.0
 40
6.68198
100
AcDbArc
 50
180.0
 51
270.0
  0
LINE
  5
6C6
100
AcDbEntity
  8
3
100
AcDbLine
 10
225.6844
 20
-19.967968
 30
0.0
 11
225.6844
 21
-24.467968
 31
0.0
  0
LINE
  5
6C7
100
AcDbEntity
  8
3
100
AcDbLine
 10
123.6844
 20
-19.967968
 30
0.0
 11
123.6844
 21
-24.467968
 31
0.0
  0
LINE
  5
6C8
100
AcDbEntity
  8
3
100
AcDbLine
 10
139.417372
 20
-19.967968
 30
0.0
 11
139.417372
 21
-24.467968
 31
0.0
  0
LINE
  5
6C9
100
AcDbEntity
  8
3
100
AcDbLine
 10
233.575272
 20
-43.467968
 30
0.0
 11
233.575272
 21
-47.967968
 31
0.0
  0
LINE
  5
6CA
100
AcDbEntity
  8
3
100
AcDbLine
 10
115.793528
 20
-43.467968
 30
0.0
 11
115.793528
 21
-47.967968
 31
0.0
  0
LINE
  5
6CB
100
AcDbEntity
  8
3
100
AcDbLine
 10
189.180088
 20
-24.956068
 30
0.0
 11
189.180088
 21
-41.285988
 31
0.0
  0
LINE
  5
6CC
100
AcDbEntity
  8
3
100
AcDbLine
 10
192.362068
 20
-24.467968
 30
0.0
 11
192.362068
 21
-39.967968
 31
0.0
  0
LINE
  5
6CD
100
AcDbEntity
  8
3
100
AcDbLine
 10
220.64634
 20
-24.467968
 30
0.0
 11
220.64634
 21
-35.467968
 31
0.0
  0
LINE
  5
6CE
100
AcDbEntity
  8
3
100
AcDbLine
 10
115.793528
 20
-43.467968
 30
0.0
 11
125.22246
 21
-43.467968
 31
0.0
  0
LINE
  5
6CF
100
AcDbEntity
  8
3
100
AcDbLine
 10
195.862068
 20
-43.467968
 30
0.0
 11
233.575272
 21
-43.467968
 31
0.0
  0
ARC
  5
6D0
100
AcDbEntity
  8
3
100
AcDbCircle
 10
195.862068
 20
-39.967968
 30
0.0
 40
3.5
100
AcDbArc
 50
180.0
 51
270.0
  0
ARC
  5
6D1
100
AcDbEntity
  8
3
100
AcDbCircle
 10
195.862068
 20
-41.285988
 30
0.0
 40
6.68198
100
AcDbArc
 50
180.0
 51
270.0
  0
LINE
  5
6D2
100
AcDbEntity
  8
3
100
AcDbLine
 10
131.90444
 20
-32.967968
 30
0.0
 11
131.90444
 21
-41.285988
 31
0.0
  0
LINE
  5
6D3
100
AcDbEntity
  8
3
100
AcDbLine
 10
128.72246
 20
-24.467968
 30
0.0
 11
128.72246
 21
-39.967968
 31
0.0
  0
LINE
  5
6D4
100
AcDbEntity
  8
3
100
AcDbLine
 10
160.188712
 20
-24.956068
 30
0.0
 11
160.188712
 21
-35.467968
 31
0.0
  0
ARC
  5
6D5
100
AcDbEntity
  8
3
100
AcDbCircle
 10
125.22246
 20
-39.967968
 30
0.0
 40
3.5
100
AcDbArc
 50
270.0
 51
360.0
  0
ARC
  5
6D6
100
AcDbEntity
  8
3
100
AcDbCircle
 10
125.22246
 20
-41.285988
 30
0.0
 40
6.68198
100
AcDbArc
 50
270.0
 51
360.0
  0
LINE
  5
6D7
100
AcDbEntity
  8
3
100
AcDbLine
 10
-399.109072
 20
-19.967968
 30
0.0
 11
-399.109072
 21
-24.467968
 31
0.0
  0
LINE
  5
6D8
100
AcDbEntity
  8
3
100
AcDbLine
 10
-447.015708
 20
-19.967968
 30
0.0
 11
-447.015708
 21
-24.467968
 31
0.0
  0
LINE
  5
6D9
100
AcDbEntity
  8
3
100
AcDbLine
 10
-467.6211
 20
-67.0938
 30
0.0
 11
-467.6211
 21
-71.842136
 31
0.0
  0
LINE
  5
6DA
100
AcDbEntity
  8
3
100
AcDbLine
 10
-467.6211
 20
-71.842136
 30
0.0
 11
-469.5711
 21
-72.967968
 31
0.0
  0
LINE
  5
6DB
100
AcDbEntity
  8
3
100
AcDbLine
 10
-469.5711
 20
-72.967968
 30
0.0
 11
-487.5711
 21
-72.967968
 31
0.0
  0
LINE
  5
6DC
100
AcDbEntity
  8
3
100
AcDbLine
 10
-473.0961
 20
-67.0938
 30
0.0
 11
-473.0961
 21
-71.842136
 31
0.0
  0
ARC
  5
6DD
100
AcDbEntity
  8
3
100
AcDbCircle
 10
-470.3586
 20
-68.322984
 30
0.0
 40
4.458512
100
AcDbArc
 50
232.121121
 51
307.878879
  0
ARC
  5
6DE
100
AcDbEntity
  8
3
100
AcDbCircle
 10
-478.5711
 20
-56.356496
 30
0.0
 40
16.425
100
AcDbArc
 50
250.528777
 51
289.471219
  0
LINE
  5
6DF
100
AcDbEntity
  8
3
100
AcDbLine
 10
-467.8211
 20
-65.967968
 30
0.0
 11
-489.3211
 21
-65.967968
 31
0.0
  0
LINE
  5
6E0
100
AcDbEntity
  8
3
100
AcDbLine
 10
-489.5211
 20
-67.0938
 30
0.0
 11
-489.5211
 21
-71.842136
 31
0.0
  0
LINE
  5
6E1
100
AcDbEntity
  8
3
100
AcDbLine
 10
-489.5211
 20
-71.842136
 30
0.0
 11
-487.5711
 21
-72.967968
 31
0.0
  0
LINE
  5
6E2
100
AcDbEntity
  8
3
100
AcDbLine
 10
-484.0461
 20
-67.0938
 30
0.0
 11
-484.0461
 21
-71.842136
 31
0.0
  0
ARC
  5
6E3
100
AcDbEntity
  8
3
100
AcDbCircle
 10
-486.7836
 20
-68.322984
 30
0.0
 40
4.458512
100
AcDbArc
 50
232.121121
 51
307.878879
  0
LINE
  5
6E4
100
AcDbEntity
  8
3
100
AcDbLine
 10
-467.8211
 20
-62.967968
 30
0.0
 11
-467.8211
 21
-65.967968
 31
0.0
  0
LINE
  5
6E5
100
AcDbEntity
  8
3
100
AcDbLine
 10
-489.3211
 20
-65.967968
 30
0.0
 11
-489.3211
 21
-62.967968
 31
0.0
  0
LINE
  5
6E6
100
AcDbEntity
  8
3
100
AcDbLine
 10
-478.5711
 20
-65.967968
 30
0.0
 11
-479.0711
 21
-62.967968
 31
0.0
  0
LINE
  5
6E7
100
AcDbEntity
  8
3
100
AcDbLine
 10
-478.5711
 20
-62.967968
 30
0.0
 11
-478.0711
 21
-65.967968
 31
0.0
  0
LINE
  5
6E8
100
AcDbEntity
  8
3
100
AcDbLine
 10
-489.5211
 20
-43.467968
 30
0.0
 11
-489.5211
 21
-36.5938
 31
0.0
  0
LINE
  5
6E9
100
AcDbEntity
  8
3
100
AcDbLine
 10
-489.5211
 20
-36.5938
 30
0.0
 11
-487.5711
 21
-35.467968
 31
0.0
  0
LINE
  5
6EA
100
AcDbEntity
  8
3
100
AcDbLine
 10
-487.5711
 20
-35.467968
 30
0.0
 11
-469.5711
 21
-35.467968
 31
0.0
  0
LINE
  5
6EB
100
AcDbEntity
  8
3
100
AcDbLine
 10
-484.0461
 20
-43.467968
 30
0.0
 11
-484.0461
 21
-36.5938
 31
0.0
  0
ARC
  5
6EC
100
AcDbEntity
  8
3
100
AcDbCircle
 10
-486.7836
 20
-40.112948
 30
0.0
 40
4.458512
100
AcDbArc
 50
52.121121
 51
127.878879
  0
LINE
  5
6ED
100
AcDbEntity
  8
3
100
AcDbLine
 10
-483.6241
 20
-78.467968
 30
0.0
 11
-473.5181
 21
-78.467968
 31
0.0
  0
LINE
  5
6EE
100
AcDbEntity
  8
3
100
AcDbLine
 10
-483.6241
 20
-78.467968
 30
0.0
 11
-484.5711
 21
-77.520968
 31
0.0
  0
LINE
  5
6EF
100
AcDbEntity
  8
3
100
AcDbLine
 10
-484.5711
 20
-77.520968
 30
0.0
 11
-484.5711
 21
-72.967968
 31
0.0
  0
LINE
  5
6F0
100
AcDbEntity
  8
3
 62
     2
100
AcDbLine
 10
-483.6241
 20
-78.467968
 30
0.0
 11
-483.6241
 21
-72.967968
 31
0.0
  0
LINE
  5
6F1
100
AcDbEntity
  8
3
100
AcDbLine
 10
-467.6211
 20
-43.467968
 30
0.0
 11
-467.6211
 21
-36.5938
 31
0.0
  0
LINE
  5
6F2
100
AcDbEntity
  8
3
100
AcDbLine
 10
-467.6211
 20
-36.5938
 30
0.0
 11
-469.5711
 21
-35.467968
 31
0.0
  0
LINE
  5
6F3
100
AcDbEntity
  8
3
100
AcDbLine
 10
-473.0961
 20
-43.467968
 30
0.0
 11
-473.0961
 21
-36.5938
 31
0.0
  0
ARC
  5
6F4
100
AcDbEntity
  8
3
100
AcDbCircle
 10
-470.3586
 20
-40.112948
 30
0.0
 40
4.458512
100
AcDbArc
 50
52.121121
 51
127.878879
  0
ARC
  5
6F5
100
AcDbEntity
  8
3
100
AcDbCircle
 10
-478.5711
 20
-52.07944
 30
0.0
 40
16.425
100
AcDbArc
 50
70.528781
 51
109.471223
  0
LINE
  5
6F6
100
AcDbEntity
  8
3
100
AcDbLine
 10
-473.5181
 20
-78.467968
 30
0.0
 11
-472.5711
 21
-77.520968
 31
0.0
  0
LINE
  5
6F7
100
AcDbEntity
  8
3
100
AcDbLine
 10
-472.5711
 20
-77.520968
 30
0.0
 11
-472.5711
 21
-72.967968
 31
0.0
  0
LINE
  5
6F8
100
AcDbEntity
  8
3
100
AcDbLine
 10
-472.5711
 20
-77.520968
 30
0.0
 11
-484.5711
 21
-77.520968
 31
0.0
  0
LINE
  5
6F9
100
AcDbEntity
  8
3
 62
     2
100
AcDbLine
 10
-473.5181
 20
-78.467968
 30
0.0
 11
-473.5181
 21
-72.967968
 31
0.0
  0
LINE
  5
6FA
100
AcDbEntity
  8
3
100
AcDbLine
 10
-388.41416
 20
-35.467968
 30
0.0
 11
-381.1811
 21
-35.467968
 31
0.0
  0
LINE
  5
6FB
100
AcDbEntity
  8
3
100
AcDbLine
 10
-379.2311
 20
-43.467968
 30
0.0
 11
-379.2311
 21
-36.5938
 31
0.0
  0
LINE
  5
6FC
100
AcDbEntity
  8
3
100
AcDbLine
 10
-379.2311
 20
-36.5938
 30
0.0
 11
-381.1811
 21
-35.467968
 31
0.0
  0
LINE
  5
6FD
100
AcDbEntity
  8
3
100
AcDbLine
 10
-384.7061
 20
-43.467968
 30
0.0
 11
-384.7061
 21
-36.5938
 31
0.0
  0
ARC
  5
6FE
100
AcDbEntity
  8
3
100
AcDbCircle
 10
-381.9686
 20
-40.112948
 30
0.0
 40
4.458512
100
AcDbArc
 50
52.121121
 51
127.878879
  0
ARC
  5
6FF
100
AcDbEntity
  8
3
100
AcDbCircle
 10
-390.1811
 20
-52.07944
 30
0.0
 40
16.425
100
AcDbArc
 50
70.528781
 51
83.824381
  0
LINE
  5
700
100
AcDbEntity
  8
3
100
AcDbLine
 10
-379.2311
 20
-67.0938
 30
0.0
 11
-379.2311
 21
-71.842136
 31
0.0
  0
LINE
  5
701
100
AcDbEntity
  8
3
100
AcDbLine
 10
-379.2311
 20
-71.842136
 30
0.0
 11
-381.1811
 21
-72.967968
 31
0.0
  0
LINE
  5
702
100
AcDbEntity
  8
3
100
AcDbLine
 10
-381.1811
 20
-72.967968
 30
0.0
 11
-399.1811
 21
-72.967968
 31
0.0
  0
LINE
  5
703
100
AcDbEntity
  8
3
100
AcDbLine
 10
-384.7061
 20
-67.0938
 30
0.0
 11
-384.7061
 21
-71.842136
 31
0.0
  0
ARC
  5
704
100
AcDbEntity
  8
3
100
AcDbCircle
 10
-381.9686
 20
-68.322984
 30
0.0
 40
4.458512
100
AcDbArc
 50
232.121121
 51
307.878879
  0
ARC
  5
705
100
AcDbEntity
  8
3
100
AcDbCircle
 10
-390.1811
 20
-56.356496
 30
0.0
 40
16.425
100
AcDbArc
 50
250.528777
 51
289.471219
  0
LINE
  5
706
100
AcDbEntity
  8
3
100
AcDbLine
 10
-379.4311
 20
-65.967968
 30
0.0
 11
-394.76382
 21
-65.967968
 31
0.0
  0
LINE
  5
707
100
AcDbEntity
  8
3
100
AcDbLine
 10
-401.1311
 20
-70.12214
 30
0.0
 11
-401.1311
 21
-71.842136
 31
0.0
  0
LINE
  5
708
100
AcDbEntity
  8
3
100
AcDbLine
 10
-401.1311
 20
-71.842136
 30
0.0
 11
-399.1811
 21
-72.967968
 31
0.0
  0
LINE
  5
709
100
AcDbEntity
  8
3
100
AcDbLine
 10
-395.6561
 20
-67.0938
 30
0.0
 11
-395.6561
 21
-71.842136
 31
0.0
  0
ARC
  5
70A
100
AcDbEntity
  8
3
100
AcDbCircle
 10
-398.3936
 20
-68.322984
 30
0.0
 40
4.458512
100
AcDbArc
 50
232.121121
 51
307.878879
  0
LINE
  5
70B
100
AcDbEntity
  8
3
100
AcDbLine
 10
-379.4311
 20
-62.967968
 30
0.0
 11
-379.4311
 21
-65.967968
 31
0.0
  0
LINE
  5
70C
100
AcDbEntity
  8
3
100
AcDbLine
 10
-390.1811
 20
-65.967968
 30
0.0
 11
-390.462412
 21
-64.280088
 31
0.0
  0
LINE
  5
70D
100
AcDbEntity
  8
3
100
AcDbLine
 10
-389.985984
 20
-64.13866
 30
0.0
 11
-389.6811
 21
-65.967968
 31
0.0
  0
LINE
  5
70E
100
AcDbEntity
  8
3
100
AcDbLine
 10
-395.2341
 20
-78.467968
 30
0.0
 11
-385.1281
 21
-78.467968
 31
0.0
  0
LINE
  5
70F
100
AcDbEntity
  8
3
100
AcDbLine
 10
-395.2341
 20
-78.467968
 30
0.0
 11
-396.1811
 21
-77.520968
 31
0.0
  0
LINE
  5
710
100
AcDbEntity
  8
3
100
AcDbLine
 10
-396.1811
 20
-77.520968
 30
0.0
 11
-396.1811
 21
-72.967968
 31
0.0
  0
LINE
  5
711
100
AcDbEntity
  8
3
 62
     2
100
AcDbLine
 10
-395.2341
 20
-78.467968
 30
0.0
 11
-395.2341
 21
-72.967968
 31
0.0
  0
LINE
  5
712
100
AcDbEntity
  8
3
100
AcDbLine
 10
-385.1281
 20
-78.467968
 30
0.0
 11
-384.1811
 21
-77.520968
 31
0.0
  0
LINE
  5
713
100
AcDbEntity
  8
3
100
AcDbLine
 10
-384.1811
 20
-77.520968
 30
0.0
 11
-384.1811
 21
-72.967968
 31
0.0
  0
LINE
  5
714
100
AcDbEntity
  8
3
100
AcDbLine
 10
-384.1811
 20
-77.520968
 30
0.0
 11
-396.1811
 21
-77.520968
 31
0.0
  0
LINE
  5
715
100
AcDbEntity
  8
3
 62
     2
100
AcDbLine
 10
-385.1281
 20
-78.467968
 30
0.0
 11
-385.1281
 21
-72.967968
 31
0.0
  0
LINE
  5
716
100
AcDbEntity
  8
3
100
AcDbLine
 10
228.3794
 20
-65.967968
 30
0.0
 11
228.3794
 21
-72.967968
 31
0.0
  0
ARC
  5
717
100
AcDbEntity
  8
3
100
AcDbCircle
 10
223.6294
 20
-62.384692
 30
0.0
 40
10.583276
100
AcDbArc
 50
243.331909
 51
296.668091
  0
LINE
  5
718
100
AcDbEntity
  8
3
100
AcDbLine
 10
209.3794
 20
-65.967968
 30
0.0
 11
209.3794
 21
-72.967968
 31
0.0
  0
LINE
  5
719
100
AcDbEntity
  8
3
100
AcDbLine
 10
209.3794
 20
-72.967968
 30
0.0
 11
228.3794
 21
-72.967968
 31
0.0
  0
LINE
  5
71A
100
AcDbEntity
  8
3
100
AcDbLine
 10
218.8794
 20
-67.0938
 30
0.0
 11
218.8794
 21
-71.842136
 31
0.0
  0
ARC
  5
71B
100
AcDbEntity
  8
3
100
AcDbCircle
 10
214.1294
 20
-62.384692
 30
0.0
 40
10.583276
100
AcDbArc
 50
243.331909
 51
296.668091
  0
LINE
  5
71C
100
AcDbEntity
  8
3
100
AcDbLine
 10
229.6294
 20
-62.967968
 30
0.0
 11
229.6294
 21
-65.967968
 31
0.0
  0
LINE
  5
71D
100
AcDbEntity
  8
3
100
AcDbLine
 10
229.6294
 20
-65.967968
 30
0.0
 11
208.1294
 21
-65.967968
 31
0.0
  0
LINE
  5
71E
100
AcDbEntity
  8
3
100
AcDbLine
 10
208.1294
 20
-65.967968
 30
0.0
 11
208.1294
 21
-62.967968
 31
0.0
  0
LINE
  5
71F
100
AcDbEntity
  8
3
100
AcDbLine
 10
139.9894
 20
-67.785692
 30
0.0
 11
139.9894
 21
-72.967968
 31
0.0
  0
ARC
  5
720
100
AcDbEntity
  8
3
100
AcDbCircle
 10
135.2394
 20
-62.384692
 30
0.0
 40
10.583276
100
AcDbArc
 50
243.331909
 51
296.668091
  0
LINE
  5
721
100
AcDbEntity
  8
3
100
AcDbLine
 10
120.9894
 20
-65.967968
 30
0.0
 11
120.9894
 21
-72.967968
 31
0.0
  0
LINE
  5
722
100
AcDbEntity
  8
3
100
AcDbLine
 10
120.9894
 20
-72.967968
 30
0.0
 11
139.9894
 21
-72.967968
 31
0.0
  0
LINE
  5
723
100
AcDbEntity
  8
3
100
AcDbLine
 10
130.4894
 20
-67.0938
 30
0.0
 11
130.4894
 21
-71.842136
 31
0.0
  0
ARC
  5
724
100
AcDbEntity
  8
3
100
AcDbCircle
 10
125.7394
 20
-62.384692
 30
0.0
 40
10.583276
100
AcDbArc
 50
243.331909
 51
296.668091
  0
LINE
  5
725
100
AcDbEntity
  8
3
100
AcDbLine
 10
136.761096
 20
-65.967968
 30
0.0
 11
119.7394
 21
-65.967968
 31
0.0
  0
LINE
  5
726
100
AcDbEntity
  8
3
100
AcDbLine
 10
119.7394
 20
-65.967968
 30
0.0
 11
119.7394
 21
-62.967968
 31
0.0
  0
LINE
  5
727
100
AcDbEntity
  8
3
100
AcDbLine
 10
213.8264
 20
-78.467968
 30
0.0
 11
223.9324
 21
-78.467968
 31
0.0
  0
LINE
  5
728
100
AcDbEntity
  8
3
100
AcDbLine
 10
213.8264
 20
-78.467968
 30
0.0
 11
212.8794
 21
-77.520968
 31
0.0
  0
LINE
  5
729
100
AcDbEntity
  8
3
100
AcDbLine
 10
212.8794
 20
-77.520968
 30
0.0
 11
212.8794
 21
-72.967968
 31
0.0
  0
LINE
  5
72A
100
AcDbEntity
  8
3
 62
     2
100
AcDbLine
 10
213.8264
 20
-78.467968
 30
0.0
 11
213.8264
 21
-72.967968
 31
0.0
  0
LINE
  5
72B
100
AcDbEntity
  8
3
100
AcDbLine
 10
223.9324
 20
-78.467968
 30
0.0
 11
224.8794
 21
-77.520968
 31
0.0
  0
LINE
  5
72C
100
AcDbEntity
  8
3
100
AcDbLine
 10
224.8794
 20
-77.520968
 30
0.0
 11
224.8794
 21
-72.967968
 31
0.0
  0
LINE
  5
72D
100
AcDbEntity
  8
3
100
AcDbLine
 10
224.8794
 20
-77.520968
 30
0.0
 11
212.8794
 21
-77.520968
 31
0.0
  0
LINE
  5
72E
100
AcDbEntity
  8
3
 62
     2
100
AcDbLine
 10
223.9324
 20
-78.467968
 30
0.0
 11
223.9324
 21
-72.967968
 31
0.0
  0
LINE
  5
72F
100
AcDbEntity
  8
3
100
AcDbLine
 10
125.4364
 20
-78.467968
 30
0.0
 11
135.5424
 21
-78.467968
 31
0.0
  0
LINE
  5
730
100
AcDbEntity
  8
3
100
AcDbLine
 10
125.4364
 20
-78.467968
 30
0.0
 11
124.4894
 21
-77.520968
 31
0.0
  0
LINE
  5
731
100
AcDbEntity
  8
3
100
AcDbLine
 10
124.4894
 20
-77.520968
 30
0.0
 11
124.4894
 21
-72.967968
 31
0.0
  0
LINE
  5
732
100
AcDbEntity
  8
3
 62
     2
100
AcDbLine
 10
125.4364
 20
-78.467968
 30
0.0
 11
125.4364
 21
-72.967968
 31
0.0
  0
LINE
  5
733
100
AcDbEntity
  8
3
100
AcDbLine
 10
135.5424
 20
-78.467968
 30
0.0
 11
136.4894
 21
-77.520968
 31
0.0
  0
LINE
  5
734
100
AcDbEntity
  8
3
100
AcDbLine
 10
136.4894
 20
-77.520968
 30
0.0
 11
136.4894
 21
-72.967968
 31
0.0
  0
LINE
  5
735
100
AcDbEntity
  8
3
100
AcDbLine
 10
136.4894
 20
-77.520968
 30
0.0
 11
124.4894
 21
-77.520968
 31
0.0
  0
LINE
  5
736
100
AcDbEntity
  8
3
 62
     2
100
AcDbLine
 10
135.5424
 20
-78.467968
 30
0.0
 11
135.5424
 21
-72.967968
 31
0.0
  0
LINE
  5
737
100
AcDbEntity
  8
3
100
AcDbLine
 10
209.3794
 20
-43.467968
 30
0.0
 11
209.3794
 21
-35.467968
 31
0.0
  0
LINE
  5
738
100
AcDbEntity
  8
3
100
AcDbLine
 10
209.3794
 20
-35.467968
 30
0.0
 11
228.3794
 21
-35.467968
 31
0.0
  0
ARC
  5
739
100
AcDbEntity
  8
3
100
AcDbCircle
 10
214.1294
 20
-46.05124
 30
0.0
 40
10.583276
100
AcDbArc
 50
63.331909
 51
116.668091
  0
LINE
  5
73A
100
AcDbEntity
  8
3
100
AcDbLine
 10
228.3794
 20
-43.467968
 30
0.0
 11
228.3794
 21
-35.467968
 31
0.0
  0
ARC
  5
73B
100
AcDbEntity
  8
3
100
AcDbCircle
 10
223.6294
 20
-46.05124
 30
0.0
 40
10.583276
100
AcDbArc
 50
63.331909
 51
116.668091
  0
LINE
  5
73C
100
AcDbEntity
  8
3
100
AcDbLine
 10
218.8794
 20
-36.5938
 30
0.0
 11
218.8794
 21
-43.467968
 31
0.0
  0
LINE
  5
73D
100
AcDbEntity
  8
3
100
AcDbLine
 10
120.9894
 20
-43.467968
 30
0.0
 11
120.9894
 21
-35.467968
 31
0.0
  0
LINE
  5
73E
100
AcDbEntity
  8
3
100
AcDbLine
 10
120.9894
 20
-35.467968
 30
0.0
 11
128.72246
 21
-35.467968
 31
0.0
  0
ARC
  5
73F
100
AcDbEntity
  8
3
100
AcDbCircle
 10
125.7394
 20
-46.05124
 30
0.0
 40
10.583276
100
AcDbArc
 50
73.628429
 51
116.668091
  0
ARC
  5
740
100
AcDbEntity
  8
3
100
AcDbCircle
 10
-470.3586
 20
-70.612948
 30
0.0
 40
4.458512
100
AcDbArc
 50
52.121121
 51
127.878879
  0
ARC
  5
741
100
AcDbEntity
  8
3
100
AcDbCircle
 10
-478.5711
 20
-82.57944
 30
0.0
 40
16.425
100
AcDbArc
 50
70.528781
 51
109.471223
  0
ARC
  5
742
100
AcDbEntity
  8
3
100
AcDbCircle
 10
-486.7836
 20
-70.612948
 30
0.0
 40
4.458512
100
AcDbArc
 50
52.121121
 51
127.878879
  0
LINE
  5
743
100
AcDbEntity
  8
3
100
AcDbLine
 10
-489.5211
 20
-67.0938
 30
0.0
 11
-487.5711
 21
-65.967968
 31
0.0
  0
LINE
  5
744
100
AcDbEntity
  8
3
100
AcDbLine
 10
-467.6211
 20
-67.0938
 30
0.0
 11
-469.5711
 21
-65.967968
 31
0.0
  0
ARC
  5
745
100
AcDbEntity
  8
3
100
AcDbCircle
 10
-381.9686
 20
-70.612948
 30
0.0
 40
4.458512
100
AcDbArc
 50
52.121121
 51
127.878879
  0
ARC
  5
746
100
AcDbEntity
  8
3
100
AcDbCircle
 10
-390.1811
 20
-82.57944
 30
0.0
 40
16.425
100
AcDbArc
 50
70.528781
 51
109.471223
  0
ARC
  5
747
100
AcDbEntity
  8
3
100
AcDbCircle
 10
-398.3936
 20
-70.612948
 30
0.0
 40
4.458512
100
AcDbArc
 50
52.121121
 51
60.784252
  0
LINE
  5
748
100
AcDbEntity
  8
3
100
AcDbLine
 10
-379.2311
 20
-67.0938
 30
0.0
 11
-381.1811
 21
-65.967968
 31
0.0
  0
ARC
  5
749
100
AcDbEntity
  8
3
100
AcDbCircle
 10
135.2394
 20
-76.55124
 30
0.0
 40
10.583276
100
AcDbArc
 50
79.907711
 51
116.668091
  0
ARC
  5
74A
100
AcDbEntity
  8
3
100
AcDbCircle
 10
125.7394
 20
-76.55124
 30
0.0
 40
10.583276
100
AcDbArc
 50
63.331909
 51
116.668091
  0
ARC
  5
74B
100
AcDbEntity
  8
3
100
AcDbCircle
 10
223.6294
 20
-76.55124
 30
0.0
 40
10.583276
100
AcDbArc
 50
63.331909
 51
116.668091
  0
ARC
  5
74C
100
AcDbEntity
  8
3
100
AcDbCircle
 10
214.1294
 20
-76.55124
 30
0.0
 40
10.583276
100
AcDbArc
 50
63.331909
 51
116.668091
  0
ARC
  5
74D
100
AcDbEntity
  8
3
100
AcDbCircle
 10
-413.198428
 20
-41.285988
 30
0.0
 40
6.68198
100
AcDbArc
 50
181.560616
 51
270.0
  0
ARC
  5
74E
100
AcDbEntity
  8
3
100
AcDbCircle
 10
153.506732
 20
-41.285988
 30
0.0
 40
6.68198
100
AcDbArc
 50
270.0
 51
358.439384
  0
LINE
  5
74F
100
AcDbEntity
  8
3
100
AcDbLine
 10
193.766176
 20
-19.967968
 30
0.0
 11
225.6844
 21
-19.967968
 31
0.0
  0
LINE
  5
750
100
AcDbEntity
  8
3
100
AcDbLine
 10
123.6844
 20
-24.467968
 30
0.0
 11
168.6844
 21
-24.467968
 31
0.0
  0
LINE
  5
751
100
AcDbEntity
  8
3
100
AcDbLine
 10
180.6844
 20
-24.467968
 30
0.0
 11
225.6844
 21
-24.467968
 31
0.0
  0
DIMENSION
  5
752
100
AcDbEntity
  8
5
100
AcDbDimension
  2
*D0
 10
-610.639708
 20
449.228232
 30
0.0
 11
-635.739708
 21
388.078232
 31
0.0
  1
102.5
100
AcDbAlignedDimension
 13
-575.6572
 23
346.728232
 33
0.0
 14
-451.3761
 24
449.228232
 34
0.0
 50
90.0
100
AcDbRotatedDimension
  0
DIMENSION
  5
753
100
AcDbEntity
  8
5
100
AcDbDimension
  2
*D1
 10
-610.639708
 20
346.728232
 30
0.0
 11
-631.119708
 21
302.698232
 31
0.0
  1
77.5
100
AcDbAlignedDimension
 13
-434.3761
 23
269.228232
 33
0.0
 14
-575.6572
 24
346.728232
 34
0.0
 50
90.0
100
AcDbRotatedDimension
  0
DIMENSION
  5
754
100
AcDbEntity
  8
5
100
AcDbDimension
  2
*D2
 10
174.6844
 20
-454.625
 30
0.0
 11
132.4444
 21
-446.025
 31
0.0
  1
23
100
AcDbAlignedDimension
 13
151.6844
 23
-359.467968
 33
0.0
 14
174.6844
 24
-431.94056
 34
0.0
100
AcDbRotatedDimension
  0
DIMENSION
  5
755
100
AcDbEntity
  8
5
100
AcDbDimension
  2
*D3
 10
208.6844
 20
-492.86566
 30
0.0
 11
180.1844
 21
-484.26566
 31
0.0
  1
57
100
AcDbAlignedDimension
 13
151.6844
 23
-359.467968
 33
0.0
 14
208.6844
 24
-359.467968
 34
0.0
100
AcDbRotatedDimension
  0
DIMENSION
  5
756
100
AcDbEntity
  8
5
100
AcDbDimension
  2
*D4
 10
72.91896
 20
-47.967968
 30
0.0
 11
57.05896
 21
-151.127968
 31
0.0
  1
205
100
AcDbAlignedDimension
 13
128.950064
 23
-252.967968
 33
0.0
 14
112.1844
 24
-47.967968
 34
0.0
 50
90.0
100
AcDbRotatedDimension
  0
DIMENSION
  5
757
100
AcDbEntity
  8
5
100
AcDbDimension
  2
*D5
 10
72.91896
 20
-252.967968
 30
0.0
 11
57.05896
 21
-335.127968
 31
0.0
  1
163
100
AcDbAlignedDimension
 13
154.6844
 23
-415.967968
 33
0.0
 14
128.950064
 24
-252.967968
 34
0.0
 50
90.0
100
AcDbRotatedDimension
  0
DIMENSION
  5
758
100
AcDbEntity
  8
5
100
AcDbDimension
  2
*D6
 10
72.91896
 20
-19.967968
 30
0.0
 11
61.67896
 21
-30.007968
 31
0.0
  1
28
100
AcDbAlignedDimension
 13
112.1844
 23
-47.967968
 33
0.0
 14
97.1844
 24
-19.967968
 34
0.0
 50
90.0
100
AcDbRotatedDimension
  0
TEXT
  5
759
100
AcDbEntity
  8
5
100
AcDbText
 10
70.91896
 20
19.490309
 30
0.0
 40
13.2
  1
97
 50
90.0
 41
1.4
 72
     5
 11
70.91896
 21
34.274308
 31
0.0
100
AcDbText
  0
DIMENSION
  5
75A
100
AcDbEntity
  8
5
100
AcDbDimension
  2
*D7
 10
72.91896
 20
77.428585
 30
0.0
 11
70.41896
 21
28.730309
 31
0.0
100
AcDbAlignedDimension
 13
97.1844
 23
-19.967968
 33
0.0
 14
174.6844
 24
77.428585
 34
0.0
 50
90.0
100
AcDbRotatedDimension
  0
TEXT
  5
75B
100
AcDbEntity
  8
5
100
AcDbText
 10
-273.328952
 20
106.63179
 30
0.0
 40
13.2
  1
350
 41
1.4
 72
     5
 11
-249.304952
 21
106.63179
 31
0.0
100
AcDbText
  0
DIMENSION
  5
75C
100
AcDbEntity
  8
5
100
AcDbDimension
  2
*D8
 10
-84.561804
 20
104.63179
 30
0.0
 11
-259.468952
 21
106.63179
 31
0.0
100
AcDbAlignedDimension
 13
-434.3761
 23
33.707256
 33
0.0
 14
-84.561804
 24
63.488291
 34
0.0
100
AcDbRotatedDimension
  0
LINE
  5
75D
100
AcDbEntity
  8
18
100
AcDbLine
 10
277.929056
 20
-252.967968
 30
0.0
 11
397.929056
 21
-252.967968
 31
0.0
  0
LINE
  5
75E
100
AcDbEntity
  8
18
100
AcDbLine
 10
277.929056
 20
-252.967968
 30
0.0
 11
317.929056
 21
-242.25
 31
0.0
  0
LINE
  5
75F
100
AcDbEntity
  8
18
100
AcDbLine
 10
317.929056
 20
-242.25
 30
0.0
 11
317.929056
 21
-263.685936
 31
0.0
  0
LINE
  5
760
100
AcDbEntity
  8
18
100
AcDbLine
 10
277.929056
 20
-252.967968
 30
0.0
 11
317.929056
 21
-263.685936
 31
0.0
  0
LINE
  5
761
100
AcDbEntity
  8
18
100
AcDbLine
 10
274.694672
 20
460.370392
 30
0.0
 11
274.694672
 21
320.370392
 31
0.0
  0
LINE
  5
762
100
AcDbEntity
  8
18
100
AcDbLine
 10
722.694672
 20
360.370392
 30
0.0
 11
274.694672
 21
360.370392
 31
0.0
  0
LINE
  5
763
100
AcDbEntity
  8
18
100
AcDbLine
 10
722.694672
 20
340.370392
 30
0.0
 11
274.694672
 21
340.370392
 31
0.0
  0
LINE
  5
764
100
AcDbEntity
  8
18
100
AcDbLine
 10
722.694672
 20
320.370392
 30
0.0
 11
274.694672
 21
320.370392
 31
0.0
  0
LINE
  5
765
100
AcDbEntity
  8
18
100
AcDbLine
 10
386.694672
 20
460.370392
 30
0.0
 11
386.694672
 21
340.370392
 31
0.0
  0
LINE
  5
766
100
AcDbEntity
  8
18
100
AcDbLine
 10
498.694672
 20
460.370392
 30
0.0
 11
498.694672
 21
340.370392
 31
0.0
  0
LINE
  5
767
100
AcDbEntity
  8
18
100
AcDbLine
 10
610.694672
 20
460.370392
 30
0.0
 11
610.694672
 21
340.370392
 31
0.0
  0
LINE
  5
768
100
AcDbEntity
  8
18
100
AcDbLine
 10
722.694672
 20
460.370392
 30
0.0
 11
722.694672
 21
320.370392
 31
0.0
  0
LINE
  5
769
100
AcDbEntity
  8
18
100
AcDbLine
 10
274.694672
 20
460.370392
 30
0.0
 11
722.694672
 21
460.370392
 31
0.0
  0
LINE
  5
76A
100
AcDbEntity
  8
18
100
AcDbLine
 10
308.745492
 20
403.391584
 30
0.0
 11
308.745492
 21
393.701584
 31
0.0
  0
LINE
  5
76B
100
AcDbEntity
  8
18
100
AcDbLine
 10
308.745492
 20
403.391584
 30
0.0
 11
317.911336
 21
403.391584
 31
0.0
  0
LINE
  5
76C
100
AcDbEntity
  8
18
100
AcDbLine
 10
338.339648
 20
403.391584
 30
0.0
 11
347.505492
 21
403.391584
 31
0.0
  0
LINE
  5
76D
100
AcDbEntity
  8
18
100
AcDbLine
 10
308.745492
 20
393.701584
 30
0.0
 11
317.911336
 21
393.701584
 31
0.0
  0
LINE
  5
76E
100
AcDbEntity
  8
18
100
AcDbLine
 10
338.339648
 20
393.701584
 30
0.0
 11
347.505492
 21
393.701584
 31
0.0
  0
LINE
  5
76F
100
AcDbEntity
  8
18
100
AcDbLine
 10
324.737456
 20
400.161584
 30
0.0
 11
367.675788
 21
400.161584
 31
0.0
  0
LINE
  5
770
100
AcDbEntity
  8
18
100
AcDbLine
 10
324.737456
 20
396.931584
 30
0.0
 11
367.675788
 21
396.931584
 31
0.0
  0
LINE
  5
771
100
AcDbEntity
  8
18
100
AcDbLine
 10
319.923376
 20
399.179548
 30
0.0
 11
324.737456
 21
400.161584
 31
0.0
  0
LINE
  5
772
100
AcDbEntity
  8
18
100
AcDbLine
 10
319.923376
 20
397.91362
 30
0.0
 11
324.737456
 21
396.931584
 31
0.0
  0
ARC
  5
773
100
AcDbEntity
  8
18
100
AcDbCircle
 10
320.052496
 20
398.546584
 30
0.0
 40
0.646
100
AcDbArc
 50
101.529708
 51
258.470292
  0
LINE
  5
774
100
AcDbEntity
  8
18
100
AcDbLine
 10
347.505492
 20
393.701584
 30
0.0
 11
347.505492
 21
396.931584
 31
0.0
  0
LINE
  5
775
100
AcDbEntity
  8
18
100
AcDbLine
 10
347.505492
 20
400.161584
 30
0.0
 11
347.505492
 21
403.391584
 31
0.0
  0
ARC
  5
776
100
AcDbEntity
  8
18
100
AcDbCircle
 10
328.125492
 20
398.546584
 30
0.0
 40
11.305
100
AcDbArc
 50
8.213211
 51
351.786789
  0
LINE
  5
777
100
AcDbEntity
  8
18
100
AcDbLine
 10
367.675788
 20
400.161584
 30
0.0
 11
367.675788
 21
396.931584
 31
0.0
  0
LINE
  5
778
100
AcDbEntity
  8
18
  6
CENTER
 62
     2
100
AcDbLine
 10
632.385156
 20
398.054812
 30
0.0
 11
697.655092
 21
398.054812
 31
0.0
  0
LINE
  5
779
100
AcDbEntity
  8
18
100
AcDbLine
 10
692.467388
 20
393.209812
 30
0.0
 11
692.467388
 21
402.899812
 31
0.0
  0
LINE
  5
77A
100
AcDbEntity
  8
18
100
AcDbLine
 10
692.467388
 20
393.209812
 30
0.0
 11
683.301544
 21
393.209812
 31
0.0
  0
LINE
  5
77B
100
AcDbEntity
  8
18
100
AcDbLine
 10
662.873232
 20
393.209812
 30
0.0
 11
653.707388
 21
393.209812
 31
0.0
  0
LINE
  5
77C
100
AcDbEntity
  8
18
100
AcDbLine
 10
692.467388
 20
402.899812
 30
0.0
 11
683.301544
 21
402.899812
 31
0.0
  0
LINE
  5
77D
100
AcDbEntity
  8
18
100
AcDbLine
 10
662.873232
 20
402.899812
 30
0.0
 11
653.707388
 21
402.899812
 31
0.0
  0
LINE
  5
77E
100
AcDbEntity
  8
18
100
AcDbLine
 10
671.472388
 20
394.666776
 30
0.0
 11
671.472388
 21
437.605108
 31
0.0
  0
LINE
  5
77F
100
AcDbEntity
  8
18
100
AcDbLine
 10
674.702388
 20
394.666776
 30
0.0
 11
674.702388
 21
437.605108
 31
0.0
  0
LINE
  5
780
100
AcDbEntity
  8
18
100
AcDbLine
 10
672.454424
 20
389.852696
 30
0.0
 11
671.472388
 21
394.666776
 31
0.0
  0
LINE
  5
781
100
AcDbEntity
  8
18
100
AcDbLine
 10
673.720352
 20
389.852696
 30
0.0
 11
674.702388
 21
394.666776
 31
0.0
  0
ARC
  5
782
100
AcDbEntity
  8
18
100
AcDbCircle
 10
673.087388
 20
389.981816
 30
0.0
 40
0.646
100
AcDbArc
 50
191.529708
 51
348.470292
  0
LINE
  5
783
100
AcDbEntity
  8
18
100
AcDbLine
 10
653.707388
 20
402.899812
 30
0.0
 11
653.707388
 21
399.669812
 31
0.0
  0
LINE
  5
784
100
AcDbEntity
  8
18
100
AcDbLine
 10
653.707388
 20
399.669812
 30
0.0
 11
653.707388
 21
393.209812
 31
0.0
  0
LINE
  5
785
100
AcDbEntity
  8
18
100
AcDbLine
 10
671.472388
 20
437.605108
 30
0.0
 11
674.702388
 21
437.605108
 31
0.0
  0
ARC
  5
786
100
AcDbEntity
  8
18
100
AcDbCircle
 10
673.087388
 20
398.054812
 30
0.0
 40
11.305
100
AcDbArc
 50
98.213211
 51
81.786789
  0
LINE
  5
787
100
AcDbEntity
  8
18
100
AcDbLine
 10
579.084084
 20
417.573724
 30
0.0
 11
579.084084
 21
427.263724
 31
0.0
  0
LINE
  5
788
100
AcDbEntity
  8
18
100
AcDbLine
 10
579.084084
 20
417.573724
 30
0.0
 11
569.918244
 21
417.573724
 31
0.0
  0
LINE
  5
789
100
AcDbEntity
  8
18
100
AcDbLine
 10
549.489928
 20
417.573724
 30
0.0
 11
540.324084
 21
417.573724
 31
0.0
  0
LINE
  5
78A
100
AcDbEntity
  8
18
100
AcDbLine
 10
579.084084
 20
427.263724
 30
0.0
 11
569.918244
 21
427.263724
 31
0.0
  0
LINE
  5
78B
100
AcDbEntity
  8
18
100
AcDbLine
 10
549.489928
 20
427.263724
 30
0.0
 11
540.324084
 21
427.263724
 31
0.0
  0
LINE
  5
78C
100
AcDbEntity
  8
18
100
AcDbLine
 10
563.09212
 20
420.803724
 30
0.0
 11
520.153788
 21
420.803724
 31
0.0
  0
LINE
  5
78D
100
AcDbEntity
  8
18
100
AcDbLine
 10
563.09212
 20
424.033724
 30
0.0
 11
520.153788
 21
424.033724
 31
0.0
  0
LINE
  5
78E
100
AcDbEntity
  8
18
100
AcDbLine
 10
567.9062
 20
421.78576
 30
0.0
 11
563.09212
 21
420.803724
 31
0.0
  0
LINE
  5
78F
100
AcDbEntity
  8
18
100
AcDbLine
 10
567.9062
 20
423.051688
 30
0.0
 11
563.09212
 21
424.033724
 31
0.0
  0
ARC
  5
790
100
AcDbEntity
  8
18
100
AcDbCircle
 10
567.77708
 20
422.418724
 30
0.0
 40
0.646
100
AcDbArc
 50
281.529708
 51
78.470292
  0
LINE
  5
791
100
AcDbEntity
  8
18
100
AcDbLine
 10
540.324084
 20
427.263724
 30
0.0
 11
540.324084
 21
424.033724
 31
0.0
  0
LINE
  5
792
100
AcDbEntity
  8
18
100
AcDbLine
 10
540.324084
 20
420.803724
 30
0.0
 11
540.324084
 21
417.573724
 31
0.0
  0
ARC
  5
793
100
AcDbEntity
  8
18
100
AcDbCircle
 10
559.704084
 20
422.418724
 30
0.0
 40
11.305
100
AcDbArc
 50
188.213211
 51
171.786789
  0
LINE
  5
794
100
AcDbEntity
  8
18
100
AcDbLine
 10
520.153788
 20
420.803724
 30
0.0
 11
520.153788
 21
424.033724
 31
0.0
  0
LINE
  5
795
100
AcDbEntity
  8
18
  6
CENTER
 62
     2
100
AcDbLine
 10
478.152356
 20
417.906804
 30
0.0
 11
411.372984
 21
417.906804
 31
0.0
  0
LINE
  5
796
100
AcDbEntity
  8
18
100
AcDbLine
 10
418.070124
 20
422.751804
 30
0.0
 11
418.070124
 21
413.061804
 31
0.0
  0
LINE
  5
797
100
AcDbEntity
  8
18
100
AcDbLine
 10
418.070124
 20
422.751804
 30
0.0
 11
427.235964
 21
422.751804
 31
0.0
  0
LINE
  5
798
100
AcDbEntity
  8
18
100
AcDbLine
 10
447.66428
 20
422.751804
 30
0.0
 11
456.830124
 21
422.751804
 31
0.0
  0
LINE
  5
799
100
AcDbEntity
  8
18
100
AcDbLine
 10
418.070124
 20
413.061804
 30
0.0
 11
427.235964
 21
413.061804
 31
0.0
  0
LINE
  5
79A
100
AcDbEntity
  8
18
100
AcDbLine
 10
447.66428
 20
413.061804
 30
0.0
 11
456.830124
 21
413.061804
 31
0.0
  0
LINE
  5
79B
100
AcDbEntity
  8
18
100
AcDbLine
 10
439.065124
 20
421.29484
 30
0.0
 11
439.065124
 21
378.356508
 31
0.0
  0
LINE
  5
79C
100
AcDbEntity
  8
18
100
AcDbLine
 10
435.835124
 20
421.29484
 30
0.0
 11
435.835124
 21
378.356508
 31
0.0
  0
LINE
  5
79D
100
AcDbEntity
  8
18
100
AcDbLine
 10
438.083088
 20
426.10892
 30
0.0
 11
439.065124
 21
421.29484
 31
0.0
  0
LINE
  5
79E
100
AcDbEntity
  8
18
100
AcDbLine
 10
436.817156
 20
426.10892
 30
0.0
 11
435.835124
 21
421.29484
 31
0.0
  0
ARC
  5
79F
100
AcDbEntity
  8
18
100
AcDbCircle
 10
437.450124
 20
425.9798
 30
0.0
 40
0.646
100
AcDbArc
 50
11.529708
 51
168.470292
  0
LINE
  5
7A0
100
AcDbEntity
  8
18
100
AcDbLine
 10
456.830124
 20
413.061804
 30
0.0
 11
456.830124
 21
416.291804
 31
0.0
  0
LINE
  5
7A1
100
AcDbEntity
  8
18
100
AcDbLine
 10
456.830124
 20
416.291804
 30
0.0
 11
456.830124
 21
422.751804
 31
0.0
  0
LINE
  5
7A2
100
AcDbEntity
  8
18
100
AcDbLine
 10
439.065124
 20
378.356508
 30
0.0
 11
435.835124
 21
378.356508
 31
0.0
  0
ARC
  5
7A3
100
AcDbEntity
  8
18
100
AcDbCircle
 10
437.450124
 20
417.906804
 30
0.0
 40
11.305
100
AcDbArc
 50
278.213211
 51
261.786789
  0
ARC
  5
7A4
100
AcDbEntity
  8
18
 62
     2
100
AcDbCircle
 10
328.125492
 20
398.546584
 30
0.0
 40
36.0
100
AcDbArc
 50
2.571215
 51
48.757144
  0
LINE
  5
7A5
100
AcDbEntity
  8
18
 62
     2
100
AcDbLine
 10
364.064476
 20
400.11212
 30
0.0
 11
364.064476
 21
401.573488
 31
0.0
  0
LINE
  5
7A6
100
AcDbEntity
  8
18
 62
     2
100
AcDbLine
 10
364.064476
 20
407.839528
 30
0.0
 11
361.993924
 21
407.839528
 31
0.0
  0
LINE
  5
7A7
100
AcDbEntity
  8
18
 62
     2
100
AcDbLine
 10
361.993924
 20
407.839528
 30
0.0
 11
364.064476
 21
400.11212
 31
0.0
  0
LINE
  5
7A8
100
AcDbEntity
  8
18
 62
     2
100
AcDbLine
 10
364.064476
 20
400.11212
 30
0.0
 11
366.135028
 21
407.839528
 31
0.0
  0
LINE
  5
7A9
100
AcDbEntity
  8
18
 62
     2
100
AcDbLine
 10
366.135028
 20
407.839528
 30
0.0
 11
364.064476
 21
407.839528
 31
0.0
  0
LINE
  5
7AA
100
AcDbEntity
  8
18
 62
     2
100
AcDbLine
 10
351.8619
 20
425.752748
 30
0.0
 11
352.738792
 21
424.875884
 31
0.0
  0
LINE
  5
7AB
100
AcDbEntity
  8
18
 62
     2
100
AcDbLine
 10
357.326096
 20
420.28874
 30
0.0
 11
358.790172
 21
421.752868
 31
0.0
  0
LINE
  5
7AC
100
AcDbEntity
  8
18
 62
     2
100
AcDbLine
 10
358.790172
 20
421.752868
 30
0.0
 11
351.8619
 21
425.752748
 31
0.0
  0
LINE
  5
7AD
100
AcDbEntity
  8
18
 62
     2
100
AcDbLine
 10
351.8619
 20
425.752748
 30
0.0
 11
355.86202
 21
418.824612
 31
0.0
  0
LINE
  5
7AE
100
AcDbEntity
  8
18
 62
     2
100
AcDbLine
 10
355.86202
 20
418.824612
 30
0.0
 11
357.326096
 21
420.28874
 31
0.0
  0
LINE
  5
7AF
100
AcDbEntity
  8
18
  6
CENTER
 62
     2
100
AcDbLine
 10
328.125492
 20
415.961516
 30
0.0
 11
328.125492
 21
382.216736
 31
0.0
  0
LINE
  5
7B0
100
AcDbEntity
  8
18
 62
     2
100
AcDbLine
 10
328.255456
 20
418.859468
 30
0.0
 11
328.255456
 21
440.210328
 31
0.0
  0
LINE
  5
7B1
100
AcDbEntity
  8
18
 62
     2
100
AcDbLine
 10
328.255456
 20
426.586872
 30
0.0
 11
326.184904
 21
426.586872
 31
0.0
  0
LINE
  5
7B2
100
AcDbEntity
  8
18
 62
     2
100
AcDbLine
 10
326.184904
 20
426.586872
 30
0.0
 11
328.255456
 21
418.859468
 31
0.0
  0
LINE
  5
7B3
100
AcDbEntity
  8
18
 62
     2
100
AcDbLine
 10
328.255456
 20
418.859468
 30
0.0
 11
330.326008
 21
426.586872
 31
0.0
  0
LINE
  5
7B4
100
AcDbEntity
  8
18
 62
     2
100
AcDbLine
 10
330.326008
 20
426.586872
 30
0.0
 11
328.255456
 21
426.586872
 31
0.0
  0
LINE
  5
7B5
100
AcDbEntity
  8
18
  6
CENTER
 62
     2
100
AcDbLine
 10
559.704084
 20
439.833656
 30
0.0
 11
559.704084
 21
381.716488
 31
0.0
  0
TEXT
  5
7B6
100
AcDbEntity
  8
18
100
AcDbText
 10
489.196504
 20
-533.087648
 30
0.0
 40
12.0
  1
１
 72
     5
 11
498.796504
 21
-533.087648
 31
0.0
100
AcDbText
  0
TEXT
  5
7B7
100
AcDbEntity
  8
18
100
AcDbText
 10
488.750296
 20
-508.141052
 30
0.0
 40
12.0
  1
標準仕様
 72
     5
 11
534.350296
 21
-508.141052
 31
0.0
100
AcDbText
  0
TEXT
  5
7B8
100
AcDbEntity
  8
18
100
AcDbText
 10
328.634996
 20
-245.97738
 30
0.0
 40
20.0
  1
高圧側
 72
     5
 11
384.634996
 21
-245.97738
 31
0.0
100
AcDbText
  0
TEXT
  5
7B9
100
AcDbEntity
  8
18
100
AcDbText
 10
323.21762
 20
345.081908
 30
0.0
 40
12.0
  1
Ａ
 72
     5
 11
332.81762
 21
345.081908
 31
0.0
100
AcDbText
  0
TEXT
  5
7BA
100
AcDbEntity
  8
18
100
AcDbText
 10
435.169832
 20
344.761292
 30
0.0
 40
12.0
  1
Ｂ
 72
     5
 11
444.769832
 21
344.761292
 31
0.0
100
AcDbText
  0
TEXT
  5
7BB
100
AcDbEntity
  8
18
100
AcDbText
 10
547.21762
 20
345.081908
 30
0.0
 40
12.0
  1
Ｃ
 72
     5
 11
556.81762
 21
345.081908
 31
0.0
100
AcDbText
  0
TEXT
  5
7BC
100
AcDbEntity
  8
18
100
AcDbText
 10
434.528624
 20
324.654276
 30
0.0
 40
12.0
  1
アクチュエ－タ取付方向
 72
     5
 11
564.128624
 21
324.654276
 31
0.0
100
AcDbText
  0
TEXT
  5
7BD
100
AcDbEntity
  8
18
100
AcDbText
 10
295.397584
 20
364.552856
 30
0.0
 40
10.0
  1
弁棒側　低圧側
 72
     5
 11
363.397584
 21
364.552856
 31
0.0
100
AcDbText
  0
TEXT
  5
7BE
100
AcDbEntity
  8
18
100
AcDbText
 10
285.812224
 20
444.175628
 30
0.0
 40
10.0
  1
フラット側　高圧側
 72
     5
 11
373.812224
 21
444.175628
 31
0.0
100
AcDbText
  0
TEXT
  5
7BF
100
AcDbEntity
  8
18
100
AcDbText
 10
659.21762
 20
345.081908
 30
0.0
 40
12.0
  1
Ｄ
 72
     5
 11
668.81762
 21
345.081908
 31
0.0
100
AcDbText
  0
TEXT
  5
7C0
100
AcDbEntity
  8
18
100
AcDbText
 10
362.157936
 20
389.04402
 30
0.0
 40
6.46
  1
Ｓ
 72
     5
 11
367.325936
 21
389.04402
 31
0.0
100
AcDbText
  0
TEXT
  5
7C1
100
AcDbEntity
  8
18
100
AcDbText
 10
634.427884
 20
414.543724
 30
0.0
 40
9.69
  1
　
 50
45.0
 72
     5
 11
633.057511
 21
413.173351
 31
0.0
100
AcDbText
  0
DIMENSION
  5
7C2
100
AcDbEntity
  8
18
100
AcDbDimension
  2
*D9
 10
671.468764
 20
398.054812
 30
0.0
 11
619.869376
 21
450.364931
 31
0.0
 70
     2
100
AcDb2LineAngularDimension
 13
671.472388
 23
398.058436
 33
0.0
 14
671.472388
 24
398.054812
 34
0.0
 15
671.472388
 25
398.054812
 35
0.0
 16
645.847658
 26
423.679542
 36
0.0
  0
TEXT
  5
7C3
100
AcDbEntity
  8
18
100
AcDbText
 10
632.619852
 20
389.822156
 30
0.0
 40
6.46
  1
Ｏ
 72
     5
 11
637.787852
 21
389.822156
 31
0.0
100
AcDbText
  0
TEXT
  5
7C4
100
AcDbEntity
  8
18
100
AcDbText
 10
675.953284
 20
431.803256
 30
0.0
 40
6.46
  1
Ｓ
 72
     5
 11
681.121284
 21
431.803256
 31
0.0
100
AcDbText
  0
TEXT
  5
7C5
100
AcDbEntity
  8
18
100
AcDbText
 10
543.215176
 20
383.759216
 30
0.0
 40
9.69
  1
　
 50
135.0
 72
     5
 11
544.585549
 21
382.388843
 31
0.0
100
AcDbText
  0
DIMENSION
  5
7C6
100
AcDbEntity
  8
18
100
AcDbDimension
  2
*D10
 10
559.704084
 20
420.8001
 30
0.0
 11
508.101072
 21
369.907818
 31
0.0
 70
     2
100
AcDb2LineAngularDimension
 13
559.70046
 23
420.803724
 33
0.0
 14
559.704084
 24
420.803724
 34
0.0
 15
559.704084
 25
420.803724
 35
0.0
 16
534.079354
 26
395.178994
 36
0.0
  0
TEXT
  5
7C7
100
AcDbEntity
  8
18
100
AcDbText
 10
566.92364
 20
388.092064
 30
0.0
 40
6.46
  1
Ｏ
 50
180.0
 72
     5
 11
561.75564
 21
388.092064
 31
0.0
100
AcDbText
  0
TEXT
  5
7C8
100
AcDbEntity
  8
18
100
AcDbText
 10
525.67164
 20
431.921288
 30
0.0
 40
6.46
  1
Ｓ
 50
180.0
 72
     5
 11
520.50364
 21
431.921288
 31
0.0
100
AcDbText
  0
TEXT
  5
7C9
100
AcDbEntity
  8
18
100
AcDbText
 10
476.109628
 20
401.417892
 30
0.0
 40
9.69
  1
　
 50
225.0
 72
     5
 11
477.480001
 21
402.788265
 31
0.0
100
AcDbText
  0
DIMENSION
  5
7CA
100
AcDbEntity
  8
18
100
AcDbDimension
  2
*D11
 10
439.068748
 20
417.906804
 30
0.0
 11
490.668136
 21
365.596685
 31
0.0
 70
     2
100
AcDb2LineAngularDimension
 13
439.065124
 23
417.90318
 33
0.0
 14
439.065124
 24
417.906804
 34
0.0
 15
439.065124
 25
417.906804
 35
0.0
 16
464.689854
 26
392.282074
 36
0.0
  0
TEXT
  5
7CB
100
AcDbEntity
  8
18
100
AcDbText
 10
478.064632
 20
425.513796
 30
0.0
 40
6.46
  1
Ｏ
 50
180.0
 72
     5
 11
472.896632
 21
425.513796
 31
0.0
100
AcDbText
  0
TEXT
  5
7CC
100
AcDbEntity
  8
18
100
AcDbText
 10
433.8906
 20
384.221408
 30
0.0
 40
6.46
  1
Ｓ
 50
180.0
 72
     5
 11
428.7226
 21
384.221408
 31
0.0
100
AcDbText
  0
TEXT
  5
7CD
100
AcDbEntity
  8
18
100
AcDbText
 10
350.1713
 20
423.3434
 30
0.0
 40
6.46
  1
Ｏ
 50
180.0
 72
     5
 11
345.0033
 21
423.3434
 31
0.0
100
AcDbText
  0
TEXT
  5
7CE
100
AcDbEntity
  8
18
100
AcDbText
 10
505.190308
 20
-548.067076
 30
0.0
 40
12.0
  1
４
 72
     5
 11
514.790308
 21
-548.067076
 31
0.0
100
AcDbText
  0
TEXT
  5
7CF
100
AcDbEntity
  8
18
100
AcDbText
 10
488.750296
 20
-492.141052
 30
0.0
 40
12.0
  1
３０２Ｙ／３０４Ｙ－１ＴＡＳ　１５０Ａ
 72
     5
 11
714.350296
 21
-492.141052
 31
0.0
100
AcDbText
  0
TEXT
  5
7D0
100
AcDbEntity
  8
18
100
AcDbText
 10
614.4
 20
-544.0
 30
0.0
 40
20.0
  1
Ｄ３－０３８１８
 72
     5
 11
770.4
 21
-544.0
 31
0.0
100
AcDbText
  0
TEXT
  5
7D1
100
AcDbEntity
  8
18
100
AcDbText
 10
719.942686
 20
-507.674196
 30
0.0
 40
9.0
  1
′０５．　７．２１
 72
     5
 11
799.142686
 21
-507.674196
 31
0.0
100
AcDbText
  0
LINE
  5
7D2
100
AcDbEntity
  8
20
 62
     3
100
AcDbLine
 10
-720.0
 20
-554.0
 30
0.0
 11
800.0
 21
-554.0
 31
0.0
  0
LINE
  5
7D3
100
AcDbEntity
  8
20
 62
     3
100
AcDbLine
 10
-720.0
 20
528.0
 30
0.0
 11
800.0
 21
528.0
 31
0.0
  0
LINE
  5
7D4
100
AcDbEntity
  8
20
 62
     3
100
AcDbLine
 10
-720.0
 20
528.0
 30
0.0
 11
-720.0
 21
-554.0
 31
0.0
  0
LINE
  5
7D5
100
AcDbEntity
  8
20
 62
     3
100
AcDbLine
 10
800.0
 20
528.0
 30
0.0
 11
800.0
 21
-554.0
 31
0.0
  0
LINE
  5
7D6
100
AcDbEntity
  8
20
 62
     3
100
AcDbLine
 10
240.0
 20
-554.0
 30
0.0
 11
240.0
 21
-474.0
 31
0.0
  0
LINE
  5
7D7
100
AcDbEntity
  8
20
 62
     3
100
AcDbLine
 10
428.0
 20
-554.0
 30
0.0
 11
428.0
 21
-474.0
 31
0.0
  0
LINE
  5
7D8
100
AcDbEntity
  8
20
100
AcDbLine
 10
428.0
 20
-514.0
 30
0.0
 11
800.0
 21
-514.0
 31
0.0
  0
LINE
  5
7D9
100
AcDbEntity
  8
20
 62
     3
100
AcDbLine
 10
240.0
 20
-474.0
 30
0.0
 11
800.0
 21
-474.0
 31
0.0
  0
LINE
  5
7DA
100
AcDbEntity
  8
20
100
AcDbLine
 10
720.0
 20
-514.0
 30
0.0
 11
720.0
 21
-474.0
 31
0.0
  0
LINE
  5
7DB
100
AcDbEntity
  8
20
100
AcDbLine
 10
720.0
 20
-494.0
 30
0.0
 11
800.0
 21
-494.0
 31
0.0
  0
LINE
  5
7DC
100
AcDbEntity
  8
20
100
AcDbLine
 10
484.0
 20
-554.0
 30
0.0
 11
484.0
 21
-474.0
 31
0.0
  0
LINE
  5
7DD
100
AcDbEntity
  8
20
100
AcDbLine
 10
524.0
 20
-554.0
 30
0.0
 11
524.0
 21
-514.0
 31
0.0
  0
LINE
  5
7DE
100
AcDbEntity
  8
20
100
AcDbLine
 10
604.0
 20
-554.0
 30
0.0
 11
604.0
 21
-514.0
 31
0.0
  0
LINE
  5
7DF
100
AcDbEntity
  8
20
100
AcDbLine
 10
494.91366
 20
-543.08634
 30
0.0
 11
511.593164
 21
-526.406836
 31
0.0
  0
TEXT
  5
7E0
100
AcDbEntity
  8
20
100
AcDbText
 10
526.133316
 20
-529.987672
 30
0.0
 40
7.2
  1
ＤＲＡＷＩＮＧ　ＮＯ．
 72
     5
 11
603.893316
 21
-529.987672
 31
0.0
100
AcDbText
  0
TEXT
  5
7E1
100
AcDbEntity
  8
20
100
AcDbText
 10
534.0
 20
-546.0
 30
0.0
 40
12.0
  1
図　　　番
 72
     5
 11
591.6
 21
-546.0
 31
0.0
100
AcDbText
  0
TEXT
  5
7E2
100
AcDbEntity
  8
20
100
AcDbText
 10
744.0
 20
-488.0
 30
0.0
 40
8.0
  1
ＤＡＴＥ
 72
     5
 11
774.4
 21
-488.0
 31
0.0
100
AcDbText
  0
TEXT
  5
7E3
100
AcDbEntity
  8
20
100
AcDbText
 10
436.004284
 20
-531.844116
 30
0.0
 40
8.0
  1
ＳＣＡＬＥ
 72
     5
 11
474.404284
 21
-531.844116
 31
0.0
100
AcDbText
  0
TEXT
  5
7E4
100
AcDbEntity
  8
20
100
AcDbText
 10
432.0
 20
-546.0
 30
0.0
 40
12.0
  1
尺　　度
 72
     5
 11
477.6
 21
-546.0
 31
0.0
100
AcDbText
  0
TEXT
  5
7E5
100
AcDbEntity
  8
20
100
AcDbText
 10
430.004284
 20
-489.98354
 30
0.0
 40
8.0
  1
ＦＩＧ．ＮＯ．
 72
     5
 11
484.404284
 21
-489.98354
 31
0.0
100
AcDbText
  0
TEXT
  5
7E6
100
AcDbEntity
  8
20
100
AcDbText
 10
432.0
 20
-506.0
 30
0.0
 40
12.0
  1
名　　称
 72
     5
 11
477.6
 21
-506.0
 31
0.0
100
AcDbText
  0
TEXT
  5
7E7
100
AcDbEntity
  8
20
100
AcDbText
 10
242.2621
 20
-505.881012
 30
0.0
 40
9.2
  1
ＴＯＭＯＥ　ＶＡＬＶＥ　ＣＯ．，ＬＴＤ．
 72
     5
 11
424.4221
 21
-505.881012
 31
0.0
100
AcDbText
  0
TEXT
  5
7E8
100
AcDbEntity
  8
20
100
AcDbText
 10
270.0
 20
-533.15924
 30
0.0
 40
16.0
  1
巴バルブ株式会社
 72
     5
 11
394.8
 21
-533.15924
 31
0.0
100
AcDbText
  0
ENDSEC
  0
SECTION
  2
OBJECTS
  0
DICTIONARY
  5
874
100
AcDbDictionary
  3
ACAD_GROUP
350
875
  3
ACAD_MLINESTYLE
350
876
  0
DICTIONARY
  5
875
102
{ACAD_REACTORS
330
874
102
}
100
AcDbDictionary
  0
DICTIONARY
  5
876
102
{ACAD_REACTORS
330
874
102
}
100
AcDbDictionary
  3
STANDARD
350
877
  0
MLINESTYLE
  5
877
102
{ACAD_REACTORS
330
876
102
}
100
AcDbMlineStyle
  2
STANDARD
 70
     0
  3

 62
     0
 51
90.0
 52
90.0
 71
     2
 49
0.5
 62
   256
  6
BYLAYER
 49
-0.5
 62
   256
  6
BYLAYER
  0
ENDSEC
  0
EOF
