  0
SECTION
  2
HEADER
  9
$ACADVER
  1
AC1015
  9
$ACADMAINTVER
 70
    20
  9
$DWGCODEPAGE
  3
ANSI_932
  9
$INSBASE
 10
0.0
 20
0.0
 30
0.0
  9
$EXTMIN
 10
-360.0402811775452
 20
-368.8027941107316
 30
-0.0015258207003583
  9
$EXTMAX
 10
400.0305195106547
 20
264.0261854266587
 30
0.0000000349246037
  9
$LIMMIN
 10
-420.0
 20
-297.0
  9
$LIMMAX
 10
420.0
 20
297.0
  9
$ORTHOMODE
 70
     0
  9
$REGENMODE
 70
     1
  9
$FILLMODE
 70
     1
  9
$QTEXTMODE
 70
     0
  9
$MIRRTEXT
 70
     1
  9
$LTSCALE
 40
1.0
  9
$ATTMODE
 70
     1
  9
$TEXTSIZE
 40
1.0
  9
$TRACEWID
 40
0.05
  9
$TEXTSTYLE
  7
STANDARD
  9
$CLAYER
  8
0
  9
$CELTYPE
  6
CONTINUOUS
  9
$CECOLOR
 62
   256
  9
$CELTSCALE
 40
1.0
  9
$DISPSILH
 70
     0
  9
$DIMSCALE
 40
2.0
  9
$DIMASZ
 40
0.18
  9
$DIMEXO
 40
0.0625
  9
$DIMDLI
 40
0.38
  9
$DIMRND
 40
0.0
  9
$DIMDLE
 40
0.0
  9
$DIMEXE
 40
0.18
  9
$DIMTP
 40
0.0
  9
$DIMTM
 40
0.0
  9
$DIMTXT
 40
0.18
  9
$DIMCEN
 40
0.09
  9
$DIMTSZ
 40
0.0
  9
$DIMTOL
 70
     0
  9
$DIMLIM
 70
     0
  9
$DIMTIH
 70
     1
  9
$DIMTOH
 70
     1
  9
$DIMSE1
 70
     0
  9
$DIMSE2
 70
     0
  9
$DIMTAD
 70
     1
  9
$DIMZIN
 70
     0
  9
$DIMBLK
  1

  9
$DIMASO
 70
     1
  9
$DIMSHO
 70
     1
  9
$DIMPOST
  1

  9
$DIMAPOST
  1

  9
$DIMALT
 70
     0
  9
$DIMALTD
 70
     2
  9
$DIMALTF
 40
25.4
  9
$DIMLFAC
 40
1.0
  9
$DIMTOFL
 70
     0
  9
$DIMTVP
 40
0.0
  9
$DIMTIX
 70
     0
  9
$DIMSOXD
 70
     0
  9
$DIMSAH
 70
     0
  9
$DIMBLK1
  1

  9
$DIMBLK2
  1

  9
$DIMSTYLE
  2
STANDARD
  9
$DIMCLRD
 70
     0
  9
$DIMCLRE
 70
     0
  9
$DIMCLRT
 70
     0
  9
$DIMTFAC
 40
1.0
  9
$DIMGAP
 40
0.09
  9
$DIMJUST
 70
     0
  9
$DIMSD1
 70
     0
  9
$DIMSD2
 70
     0
  9
$DIMTOLJ
 70
     1
  9
$DIMTZIN
 70
     0
  9
$DIMALTZ
 70
     0
  9
$DIMALTTZ
 70
     0
  9
$DIMUPT
 70
     0
  9
$DIMDEC
 70
     4
  9
$DIMTDEC
 70
     4
  9
$DIMALTU
 70
     2
  9
$DIMALTTD
 70
     2
  9
$DIMTXSTY
  7
STANDARD
  9
$DIMAUNIT
 70
     0
  9
$DIMADEC
 70
     0
  9
$DIMALTRND
 40
0.0
  9
$DIMAZIN
 70
     0
  9
$DIMDSEP
 70
    46
  9
$DIMATFIT
 70
     3
  9
$DIMFRAC
 70
     0
  9
$DIMLDRBLK
  1

  9
$DIMLUNIT
 70
     2
  9
$DIMLWD
 70
    -2
  9
$DIMLWE
 70
    -2
  9
$DIMTMOVE
 70
     0
  9
$LUNITS
 70
     2
  9
$LUPREC
 70
     4
  9
$SKETCHINC
 40
0.1
  9
$FILLETRAD
 40
0.0
  9
$AUNITS
 70
     0
  9
$AUPREC
 70
     0
  9
$MENU
  1
acad
  9
$ELEVATION
 40
0.0
  9
$PELEVATION
 40
0.0
  9
$THICKNESS
 40
0.0
  9
$LIMCHECK
 70
     0
  9
$CHAMFERA
 40
0.0
  9
$CHAMFERB
 40
0.0
  9
$CHAMFERC
 40
0.0
  9
$CHAMFERD
 40
0.0
  9
$SKPOLY
 70
     0
  9
$TDCREATE
 40
2453571.000000000
  9
$TDUCREATE
 40
2453570.625000000
  9
$TDUPDATE
 40
2455707.700265243
  9
$TDUUPDATE
 40
2455707.325265243
  9
$TDINDWG
 40
0.0014050000
  9
$TDUSRTIMER
 40
0.0014050000
  9
$USRTIMER
 70
     1
  9
$ANGBASE
 50
0.0
  9
$ANGDIR
 70
     0
  9
$PDMODE
 70
     0
  9
$PDSIZE
 40
0.0
  9
$PLINEWID
 40
0.0
  9
$SPLFRAME
 70
     0
  9
$SPLINETYPE
 70
     6
  9
$SPLINESEGS
 70
     8
  9
$HANDSEED
  5
6BF
  9
$SURFTAB1
 70
     6
  9
$SURFTAB2
 70
     6
  9
$SURFTYPE
 70
     6
  9
$SURFU
 70
     6
  9
$SURFV
 70
     6
  9
$UCSBASE
  2

  9
$UCSNAME
  2

  9
$UCSORG
 10
0.0
 20
0.0
 30
0.0
  9
$UCSXDIR
 10
1.0
 20
0.0
 30
0.0
  9
$UCSYDIR
 10
0.0
 20
1.0
 30
0.0
  9
$UCSORTHOREF
  2

  9
$UCSORTHOVIEW
 70
     0
  9
$UCSORGTOP
 10
0.0
 20
0.0
 30
0.0
  9
$UCSORGBOTTOM
 10
0.0
 20
0.0
 30
0.0
  9
$UCSORGLEFT
 10
0.0
 20
0.0
 30
0.0
  9
$UCSORGRIGHT
 10
0.0
 20
0.0
 30
0.0
  9
$UCSORGFRONT
 10
0.0
 20
0.0
 30
0.0
  9
$UCSORGBACK
 10
0.0
 20
0.0
 30
0.0
  9
$PUCSBASE
  2

  9
$PUCSNAME
  2

  9
$PUCSORG
 10
0.0
 20
0.0
 30
0.0
  9
$PUCSXDIR
 10
1.0
 20
0.0
 30
0.0
  9
$PUCSYDIR
 10
0.0
 20
1.0
 30
0.0
  9
$PUCSORTHOREF
  2

  9
$PUCSORTHOVIEW
 70
     0
  9
$PUCSORGTOP
 10
0.0
 20
0.0
 30
0.0
  9
$PUCSORGBOTTOM
 10
0.0
 20
0.0
 30
0.0
  9
$PUCSORGLEFT
 10
0.0
 20
0.0
 30
0.0
  9
$PUCSORGRIGHT
 10
0.0
 20
0.0
 30
0.0
  9
$PUCSORGFRONT
 10
0.0
 20
0.0
 30
0.0
  9
$PUCSORGBACK
 10
0.0
 20
0.0
 30
0.0
  9
$USERI1
 70
     0
  9
$USERI2
 70
     0
  9
$USERI3
 70
     0
  9
$USERI4
 70
     0
  9
$USERI5
 70
     0
  9
$USERR1
 40
0.0
  9
$USERR2
 40
0.0
  9
$USERR3
 40
0.0
  9
$USERR4
 40
0.0
  9
$USERR5
 40
0.0
  9
$WORLDVIEW
 70
     1
  9
$SHADEDGE
 70
     3
  9
$SHADEDIF
 70
    70
  9
$TILEMODE
 70
     1
  9
$MAXACTVP
 70
    16
  9
$PINSBASE
 10
0.0
 20
0.0
 30
0.0
  9
$PLIMCHECK
 70
     0
  9
$PEXTMIN
 10
1.000000000000000E+20
 20
1.000000000000000E+20
 30
1.000000000000000E+20
  9
$PEXTMAX
 10
-1.000000000000000E+20
 20
-1.000000000000000E+20
 30
-1.000000000000000E+20
  9
$PLIMMIN
 10
0.0
 20
0.0
  9
$PLIMMAX
 10
12.0
 20
9.0
  9
$UNITMODE
 70
     0
  9
$VISRETAIN
 70
     0
  9
$PLINEGEN
 70
     1
  9
$PSLTSCALE
 70
     0
  9
$TREEDEPTH
 70
  3020
  9
$CMLSTYLE
  2
STANDARD
  9
$CMLJUST
 70
     0
  9
$CMLSCALE
 40
1.0
  9
$PROXYGRAPHICS
 70
     1
  9
$MEASUREMENT
 70
     0
  9
$CELWEIGHT
370
    -1
  9
$ENDCAPS
280
     0
  9
$JOINSTYLE
280
     0
  9
$LWDISPLAY
290
     0
  9
$INSUNITS
 70
     0
  9
$HYPERLINKBASE
  1

  9
$STYLESHEET
  1
monochrome.ctb
  9
$XEDIT
290
     1
  9
$CEPSNTYPE
380
     0
  9
$PSTYLEMODE
290
     1
  9
$FINGERPRINTGUID
  2
{3D3D4E1E-F3E5-4986-A451-7F5B4E82F68A}
  9
$VERSIONGUID
  2
{78FB058B-123A-47FF-9F5C-D8060596E377}
  9
$EXTNAMES
290
     1
  9
$PSVPSCALE
 40
0.0
  9
$OLESTARTUP
290
     0
  0
ENDSEC
  0
SECTION
  2
CLASSES
  0
CLASS
  1
IMAGE
  2
AcDbRasterImage
  3
ISM
 90
    34943
280
     0
281
     1
  0
CLASS
  1
DICTIONARYVAR
  2
AcDbDictionaryVar
  3
ObjectDBX Classes
 90
        0
280
     0
281
     0
  0
CLASS
  1
RASTERVARIABLES
  2
AcDbRasterVariables
  3
ISM
 90
    32768
280
     0
281
     0
  0
CLASS
  1
IMAGEDEF
  2
AcDbRasterImageDef
  3
ISM
 90
    32768
280
     0
281
     0
  0
CLASS
  1
IMAGEDEF_REACTOR
  2
AcDbRasterImageDefReactor
  3
ISM
 90
    32769
280
     0
281
     0
  0
CLASS
  1
IDBUFFER
  2
AcDbIdBuffer
  3
ObjectDBX Classes
 90
    32768
280
     0
281
     0
  0
CLASS
  1
SPATIAL_FILTER
  2
AcDbSpatialFilter
  3
ObjectDBX Classes
 90
    32768
280
     0
281
     0
  0
CLASS
  1
SORTENTSTABLE
  2
AcDbSortentsTable
  3
ObjectDBX Classes
 90
    32768
280
     0
281
     0
  0
CLASS
  1
LAYER_INDEX
  2
AcDbLayerIndex
  3
ObjectDBX Classes
 90
    32768
280
     0
281
     0
  0
CLASS
  1
SPATIAL_INDEX
  2
AcDbSpatialIndex
  3
ObjectDBX Classes
 90
    32768
280
     0
281
     0
  0
CLASS
  1
OBJECT_PTR
  2
CAseDLPNTableRecord
  3
"ASE-LPNTableRecord"
 90
    32769
280
     0
281
     0
  0
CLASS
  1
LAYOUT
  2
AcDbLayout
  3
ObjectDBX Classes
 90
        0
280
     0
281
     0
  0
CLASS
  1
PLOTSETTINGS
  2
AcDbPlotSettings
  3
ObjectDBX Classes
 90
    32768
280
     0
281
     0
  0
CLASS
  1
ACDBDICTIONARYWDFLT
  2
AcDbDictionaryWithDefault
  3
ObjectDBX Classes
 90
        0
280
     0
281
     0
  0
CLASS
  1
ACDBPLACEHOLDER
  2
AcDbPlaceHolder
  3
ObjectDBX Classes
 90
        0
280
     0
281
     0
  0
CLASS
  1
VBA_PROJECT
  2
AcDbVbaProject
  3
acad
 90
    32768
280
     0
281
     0
  0
CLASS
  1
WIPEOUT
  2
AcDbWipeout
  3
"WipeOut|Product Desc: Object Enabler for WipeOut entity                        |Company: Autodesk, Inc.                        |WEB Address: www.autodesk.com"
 90
    34943
280
     0
281
     1
  0
CLASS
  1
WIPEOUTVARIABLES
  2
AcDbWipeoutVariables
  3
"WipeOut|Product Desc:     WipeOut Dbx Application|Company:          Autodesk, Inc.|WEB Address:      www.autodesk.com"
 90
    32768
280
     0
281
     0
  0
CLASS
  1
RTEXT
  2
RText
  3
RText|AutoCAD Express Tool|expresstools@autodesk.com
 90
    32768
280
     0
281
     1
  0
CLASS
  1
ARCALIGNEDTEXT
  2
AcDbArcAlignedText
  3
ATEXT|AutoCAD Express Tool|expresstools@autodesk.com
 90
    32768
280
     0
281
     1
  0
CLASS
  1
MATERIAL
  2
AcDbMaterial
  3
ObjectDBX Classes
 90
     1153
280
     0
281
     0
  0
CLASS
  1
VISUALSTYLE
  2
AcDbVisualStyle
  3
ObjectDBX Classes
 90
     4095
280
     0
281
     0
  0
CLASS
  1
TABLESTYLE
  2
AcDbTableStyle
  3
ObjectDBX Classes
 90
     4095
280
     0
281
     0
  0
CLASS
  1
SCALE
  2
AcDbScale
  3
ObjectDBX Classes
 90
     1153
280
     0
281
     0
  0
CLASS
  1
MLEADERSTYLE
  2
AcDbMLeaderStyle
  3
ACDB_MLEADERSTYLE_CLASS
 90
     4095
280
     0
281
     0
  0
CLASS
  1
CELLSTYLEMAP
  2
AcDbCellStyleMap
  3
ObjectDBX Classes
 90
     1152
280
     0
281
     0
  0
ENDSEC
  0
SECTION
  2
TABLES
  0
TABLE
  2
VPORT
  5
6
330
0
100
AcDbSymbolTable
 70
     1
  0
VPORT
  5
1B
330
6
100
AcDbSymbolTableRecord
100
AcDbViewportTableRecord
  2
*ACTIVE
 70
     0
 10
0.0
 20
0.0
 11
1.0
 21
1.0
 12
129.7900378974485
 22
-18.68371295429858
 13
0.0
 23
0.0
 14
1.0
 24
1.0
 15
0.0
 25
0.0
 16
0.0
 26
0.0
 36
1.0
 17
0.0
 27
0.0
 37
0.0
 40
591.70477101448
 41
2.087030716723549
 42
50.0
 43
0.0
 44
0.0
 50
0.0
 51
0.0
 71
     0
 72
   500
 73
     1
 74
     0
 75
     0
 76
     0
 77
     0
 78
     0
281
     0
 65
     1
110
0.0
120
0.0
130
0.0
111
1.0
121
0.0
131
0.0
112
0.0
122
1.0
132
0.0
 79
     0
146
0.0
  0
ENDTAB
  0
TABLE
  2
LTYPE
  5
3
330
0
100
AcDbSymbolTable
 70
     7
  0
LTYPE
  5
C
330
3
100
AcDbSymbolTableRecord
100
AcDbLinetypeTableRecord
  2
BYBLOCK
 70
     0
  3

 72
    65
 73
     0
 40
0.0
  0
LTYPE
  5
D
330
3
100
AcDbSymbolTableRecord
100
AcDbLinetypeTableRecord
  2
BYLAYER
 70
     0
  3

 72
    65
 73
     0
 40
0.0
  0
LTYPE
  5
E
330
3
100
AcDbSymbolTableRecord
100
AcDbLinetypeTableRecord
  2
CONTINUOUS
 70
     0
  3
Solid line
 72
    65
 73
     0
 40
0.0
  0
LTYPE
  5
F
330
3
100
AcDbSymbolTableRecord
100
AcDbLinetypeTableRecord
  2
DASHED
 70
     0
  3
__ __ __ __ __ __ __ __ __ __ __ __ __ __ __
 72
    65
 73
     2
 40
2.0
 49
1.199999999999999
 74
     0
 49
-0.8
 74
     0
  0
LTYPE
  5
10
330
3
100
AcDbSymbolTableRecord
100
AcDbLinetypeTableRecord
  2
CENTER
 70
     0
  3
____ _ ____ _ ____ _ ____ _ ____ _ ____ _ ____
 72
    65
 73
     4
 40
12.0
 49
9.0
 74
     0
 49
-1.0
 74
     0
 49
1.0
 74
     0
 49
-1.0
 74
     0
  0
LTYPE
  5
11
330
3
100
AcDbSymbolTableRecord
100
AcDbLinetypeTableRecord
  2
HIDDEN
 70
     0
  3
_ _ _ _ _ _ _ _ _ _ _ _ _ _ _ _ _ _ _ _ _ _ _
 72
    65
 73
     2
 40
3.2
 49
2.399999999999999
 74
     0
 49
-0.8
 74
     0
  0
LTYPE
  5
12
330
3
100
AcDbSymbolTableRecord
100
AcDbLinetypeTableRecord
  2
PHANTOM
 70
     0
  3
_____ _ _ _____ _ _ _____ _ _ _____ _ _ _____
 72
    65
 73
     6
 40
13.5
 49
9.0
 74
     0
 49
-1.0
 74
     0
 49
1.0
 74
     0
 49
-0.5
 74
     0
 49
1.0
 74
     0
 49
-1.0
 74
     0
  0
LTYPE
  5
13
330
3
100
AcDbSymbolTableRecord
100
AcDbLinetypeTableRecord
  2
DOT
 70
     0
  3
...............................................
 72
    65
 73
     2
 40
1.0
 49
0.5
 74
     0
 49
-0.5
 74
     0
  0
LTYPE
  5
14
330
3
100
AcDbSymbolTableRecord
100
AcDbLinetypeTableRecord
  2
DASHDOT
 70
     0
  3
__ . __ . __ . __ . __ . __ . __ . __ . __ . __
 72
    65
 73
     4
 40
8.0
 49
5.0
 74
     0
 49
-1.0
 74
     0
 49
1.0
 74
     0
 49
-1.0
 74
     0
  0
ENDTAB
  0
TABLE
  2
LAYER
  5
1
330
0
100
AcDbSymbolTable
 70
     6
  0
LAYER
  5
15
102
{ACAD_XDICTIONARY
360
697
102
}
330
1
100
AcDbSymbolTableRecord
100
AcDbLayerTableRecord
  2
0
 70
     0
 62
     7
  6
CONTINUOUS
370
    -3
390
63F
  0
LAYER
  5
16
102
{ACAD_XDICTIONARY
360
699
102
}
330
1
100
AcDbSymbolTableRecord
100
AcDbLayerTableRecord
  2
1
 70
     0
 62
     7
  6
CONTINUOUS
370
    -3
390
63F
  0
LAYER
  5
17
102
{ACAD_XDICTIONARY
360
69B
102
}
330
1
100
AcDbSymbolTableRecord
100
AcDbLayerTableRecord
  2
2
 70
     0
 62
     7
  6
CONTINUOUS
370
    -3
390
63F
  0
LAYER
  5
18
102
{ACAD_XDICTIONARY
360
69D
102
}
330
1
100
AcDbSymbolTableRecord
100
AcDbLayerTableRecord
  2
5
 70
     0
 62
     7
  6
CONTINUOUS
370
    -3
390
63F
  0
LAYER
  5
19
102
{ACAD_XDICTIONARY
360
69F
102
}
330
1
100
AcDbSymbolTableRecord
100
AcDbLayerTableRecord
  2
18
 70
     0
 62
     7
  6
CONTINUOUS
370
    -3
390
63F
  0
LAYER
  5
1A
102
{ACAD_XDICTIONARY
360
6A1
102
}
330
1
100
AcDbSymbolTableRecord
100
AcDbLayerTableRecord
  2
20
 70
     0
 62
     7
  6
CONTINUOUS
370
    -3
390
63F
  0
ENDTAB
  0
TABLE
  2
STYLE
  5
2
330
0
100
AcDbSymbolTable
 70
     2
  0
STYLE
  5
1D
330
2
100
AcDbSymbolTableRecord
100
AcDbTextStyleTableRecord
  2
STANDARD
 70
     0
 40
0.0
 41
1.0
 50
0.0
 71
     0
 42
1.0
  3
txt
  4
BIGFONT
  0
ENDTAB
  0
TABLE
  2
VIEW
  5
4
330
0
100
AcDbSymbolTable
 70
     0
  0
ENDTAB
  0
TABLE
  2
UCS
  5
5
330
0
100
AcDbSymbolTable
 70
     0
  0
ENDTAB
  0
TABLE
  2
APPID
  5
7
330
0
100
AcDbSymbolTable
 70
     3
  0
APPID
  5
1C
330
7
100
AcDbSymbolTableRecord
100
AcDbRegAppTableRecord
  2
ACAD
 70
     0
  0
APPID
  5
691
330
7
100
AcDbSymbolTableRecord
100
AcDbRegAppTableRecord
  2
ACAD_MLEADERVER
 70
     0
  0
APPID
  5
6A3
330
7
100
AcDbSymbolTableRecord
100
AcDbRegAppTableRecord
  2
ACAD_PSEXT
 70
     0
  0
ENDTAB
  0
TABLE
  2
DIMSTYLE
  5
8
330
0
100
AcDbSymbolTable
 70
     2
100
AcDbDimStyleTable
 71
     1
340
2E
  0
DIMSTYLE
105
2E
330
8
100
AcDbSymbolTableRecord
100
AcDbDimStyleTableRecord
  2
STANDARD
 70
     0
 40
2.0
 77
     1
340
1D
  0
ENDTAB
  0
TABLE
  2
BLOCK_RECORD
  5
29
330
0
100
AcDbSymbolTable
 70
    10
  0
BLOCK_RECORD
  5
27
330
29
100
AcDbSymbolTableRecord
100
AcDbBlockTableRecord
  2
*MODEL_SPACE
340
694
  0
BLOCK_RECORD
  5
28
330
29
100
AcDbSymbolTableRecord
100
AcDbBlockTableRecord
  2
*PAPER_SPACE
340
695
  0
BLOCK_RECORD
  5
1E
330
29
100
AcDbSymbolTableRecord
100
AcDbBlockTableRecord
  2
*D0
340
0
  0
BLOCK_RECORD
  5
1F
330
29
100
AcDbSymbolTableRecord
100
AcDbBlockTableRecord
  2
*D1
340
0
  0
BLOCK_RECORD
  5
20
330
29
100
AcDbSymbolTableRecord
100
AcDbBlockTableRecord
  2
*D2
340
0
  0
BLOCK_RECORD
  5
21
330
29
100
AcDbSymbolTableRecord
100
AcDbBlockTableRecord
  2
*D3
340
0
  0
BLOCK_RECORD
  5
22
330
29
100
AcDbSymbolTableRecord
100
AcDbBlockTableRecord
  2
*D4
340
0
  0
BLOCK_RECORD
  5
23
330
29
100
AcDbSymbolTableRecord
100
AcDbBlockTableRecord
  2
*D5
340
0
  0
BLOCK_RECORD
  5
24
330
29
100
AcDbSymbolTableRecord
100
AcDbBlockTableRecord
  2
*D6
340
0
  0
BLOCK_RECORD
  5
25
330
29
100
AcDbSymbolTableRecord
100
AcDbBlockTableRecord
  2
*D7
340
0
  0
BLOCK_RECORD
  5
26
330
29
100
AcDbSymbolTableRecord
100
AcDbBlockTableRecord
  2
*D8
340
0
  0
ENDTAB
  0
ENDSEC
  0
SECTION
  2
BLOCKS
  0
BLOCK
  5
2A
330
27
100
AcDbEntity
  8
0
100
AcDbBlockBegin
  2
*MODEL_SPACE
 70
     0
 10
0.0
 20
0.0
 30
0.0
  3
*MODEL_SPACE
  1

  0
ENDBLK
  5
2B
330
27
100
AcDbEntity
  8
0
100
AcDbBlockEnd
  0
BLOCK
  5
2C
330
28
100
AcDbEntity
 67
     1
  8
0
100
AcDbBlockBegin
  2
*PAPER_SPACE
 70
     0
 10
0.0
 20
0.0
 30
0.0
  3
*PAPER_SPACE
  1

  0
ENDBLK
  5
2D
330
28
100
AcDbEntity
 67
     1
  8
0
100
AcDbBlockEnd
  0
BLOCK
  5
5CB
330
1E
100
AcDbEntity
  8
5
100
AcDbBlockBegin
  2
*D0
 70
     1
 10
0.0
 20
0.0
 30
0.0
  3
*D0
  1

  0
TEXT
  5
5CC
330
1E
100
AcDbEntity
  8
5
 62
     2
100
AcDbText
 10
-337.125122
 20
208.787236
 30
0.0
 40
6.599999999999999
  1
75
 50
90.0
 41
0.6719999999999973
 72
     5
 11
-337.125122
 21
216.179236
 31
0.0
100
AcDbText
  0
LINE
  5
5CD
330
1E
100
AcDbEntity
  8
5
 62
     2
100
AcDbLine
 10
-323.791931
 20
175.907236
 30
0.0
 11
-338.125122
 21
175.907236
 31
0.0
  0
LINE
  5
5CE
330
1E
100
AcDbEntity
  8
5
 62
     2
100
AcDbLine
 10
-336.125122
 20
175.907236
 30
0.0
 11
-335.089846
 21
179.77094
 31
0.0
  0
LINE
  5
5CF
330
1E
100
AcDbEntity
  8
5
 62
     2
100
AcDbLine
 10
-336.125122
 20
175.907236
 30
0.0
 11
-337.160398
 21
179.77094
 31
0.0
  0
LINE
  5
5D0
330
1E
100
AcDbEntity
  8
5
 62
     2
100
AcDbLine
 10
-335.089846
 20
179.77094
 30
0.0
 11
-337.160398
 21
179.77094
 31
0.0
  0
LINE
  5
5D1
330
1E
100
AcDbEntity
  8
5
 62
     2
100
AcDbLine
 10
-336.125122
 20
175.907236
 30
0.0
 11
-336.125122
 21
250.907236
 31
0.0
  0
LINE
  5
5D2
330
1E
100
AcDbEntity
  8
5
 62
     2
100
AcDbLine
 10
-336.125122
 20
250.907236
 30
0.0
 11
-337.160398
 21
247.043533
 31
0.0
  0
LINE
  5
5D3
330
1E
100
AcDbEntity
  8
5
 62
     2
100
AcDbLine
 10
-336.125122
 20
250.907236
 30
0.0
 11
-335.089846
 21
247.043533
 31
0.0
  0
LINE
  5
5D4
330
1E
100
AcDbEntity
  8
5
 62
     2
100
AcDbLine
 10
-337.160398
 20
247.043533
 30
0.0
 11
-335.089846
 21
247.043533
 31
0.0
  0
LINE
  5
5D5
330
1E
100
AcDbEntity
  8
5
 62
     2
100
AcDbLine
 10
-261.194112
 20
250.907236
 30
0.0
 11
-338.125122
 21
250.907236
 31
0.0
  0
ENDBLK
  5
5D6
330
1E
100
AcDbEntity
  8
5
100
AcDbBlockEnd
  0
BLOCK
  5
5D7
330
1F
100
AcDbEntity
  8
5
100
AcDbBlockBegin
  2
*D1
 70
     1
 10
0.0
 20
0.0
 30
0.0
  3
*D1
  1

  0
TEXT
  5
5D8
330
1F
100
AcDbEntity
  8
5
 62
     2
100
AcDbText
 10
-337.125122
 20
146.287236
 30
0.0
 40
6.599999999999999
  1
50
 50
90.0
 41
0.7466666666666665
 72
     5
 11
-337.125122
 21
153.679236
 31
0.0
100
AcDbText
  0
LINE
  5
5D9
330
1F
100
AcDbEntity
  8
5
 62
     2
100
AcDbLine
 10
-246.194112
 20
125.907236
 30
0.0
 11
-338.125122
 21
125.907236
 31
0.0
  0
LINE
  5
5DA
330
1F
100
AcDbEntity
  8
5
 62
     2
100
AcDbLine
 10
-336.125122
 20
125.907236
 30
0.0
 11
-335.089846
 21
129.77094
 31
0.0
  0
LINE
  5
5DB
330
1F
100
AcDbEntity
  8
5
 62
     2
100
AcDbLine
 10
-336.125122
 20
125.907236
 30
0.0
 11
-337.160398
 21
129.77094
 31
0.0
  0
LINE
  5
5DC
330
1F
100
AcDbEntity
  8
5
 62
     2
100
AcDbLine
 10
-335.089846
 20
129.77094
 30
0.0
 11
-337.160398
 21
129.77094
 31
0.0
  0
LINE
  5
5DD
330
1F
100
AcDbEntity
  8
5
 62
     2
100
AcDbLine
 10
-336.125122
 20
125.907236
 30
0.0
 11
-336.125122
 21
175.907236
 31
0.0
  0
LINE
  5
5DE
330
1F
100
AcDbEntity
  8
5
 62
     2
100
AcDbLine
 10
-336.125122
 20
175.907236
 30
0.0
 11
-337.160398
 21
172.043533
 31
0.0
  0
LINE
  5
5DF
330
1F
100
AcDbEntity
  8
5
 62
     2
100
AcDbLine
 10
-336.125122
 20
175.907236
 30
0.0
 11
-335.089846
 21
172.043533
 31
0.0
  0
LINE
  5
5E0
330
1F
100
AcDbEntity
  8
5
 62
     2
100
AcDbLine
 10
-337.160398
 20
172.043533
 30
0.0
 11
-335.089846
 21
172.043533
 31
0.0
  0
LINE
  5
5E1
330
1F
100
AcDbEntity
  8
5
 62
     2
100
AcDbLine
 10
-323.791931
 20
175.907236
 30
0.0
 11
-338.125122
 21
175.907236
 31
0.0
  0
ENDBLK
  5
5E2
330
1F
100
AcDbEntity
  8
5
100
AcDbBlockEnd
  0
BLOCK
  5
5E3
330
20
100
AcDbEntity
  8
5
100
AcDbBlockBegin
  2
*D2
 70
     1
 10
0.0
 20
0.0
 30
0.0
  3
*D2
  1

  0
TEXT
  5
5E4
330
20
100
AcDbEntity
  8
5
 62
     2
100
AcDbText
 10
-0.4270050000000001
 20
-69.06546699999999
 30
0.0
 40
6.599999999999999
  1
125
 50
90.0
 41
0.7799999999999998
 72
     5
 11
-0.4270050000000001
 21
-57.053467
 31
0.0
100
AcDbText
  0
LINE
  5
5E5
330
20
100
AcDbEntity
  8
5
 62
     2
100
AcDbLine
 10
35.753113
 20
-124.635467
 30
0.0
 11
-1.427004999999999
 21
-124.635467
 31
0.0
  0
LINE
  5
5E6
330
20
100
AcDbEntity
  8
5
 62
     2
100
AcDbLine
 10
0.5729950000000001
 20
-124.635467
 30
0.0
 11
1.608271
 21
-120.771764
 31
0.0
  0
LINE
  5
5E7
330
20
100
AcDbEntity
  8
5
 62
     2
100
AcDbLine
 10
0.5729950000000001
 20
-124.635467
 30
0.0
 11
-0.4622810000000001
 21
-120.771764
 31
0.0
  0
LINE
  5
5E8
330
20
100
AcDbEntity
  8
5
 62
     2
100
AcDbLine
 10
1.608271
 20
-120.771764
 30
0.0
 11
-0.4622810000000001
 21
-120.771764
 31
0.0
  0
LINE
  5
5E9
330
20
100
AcDbEntity
  8
5
 62
     2
100
AcDbLine
 10
0.5729950000000001
 20
-124.635467
 30
0.0
 11
0.5729950000000001
 21
0.364533
 31
0.0
  0
LINE
  5
5EA
330
20
100
AcDbEntity
  8
5
 62
     2
100
AcDbLine
 10
0.5729950000000001
 20
0.364533
 30
0.0
 11
-0.4622810000000001
 21
-3.499171
 31
0.0
  0
LINE
  5
5EB
330
20
100
AcDbEntity
  8
5
 62
     2
100
AcDbLine
 10
0.5729950000000001
 20
0.364533
 30
0.0
 11
1.608271
 21
-3.499171
 31
0.0
  0
LINE
  5
5EC
330
20
100
AcDbEntity
  8
5
 62
     2
100
AcDbLine
 10
-0.4622810000000001
 20
-3.499171
 30
0.0
 11
1.608271
 21
-3.499171
 31
0.0
  0
LINE
  5
5ED
330
20
100
AcDbEntity
  8
5
 62
     2
100
AcDbLine
 10
24.968825
 20
0.364533
 30
0.0
 11
-1.427004999999999
 21
0.364533
 31
0.0
  0
ENDBLK
  5
5EE
330
20
100
AcDbEntity
  8
5
100
AcDbBlockEnd
  0
BLOCK
  5
5EF
330
21
100
AcDbEntity
  8
5
100
AcDbBlockBegin
  2
*D3
 70
     1
 10
0.0
 20
0.0
 30
0.0
  3
*D3
  1

  0
TEXT
  5
5F0
330
21
100
AcDbEntity
  8
5
 62
     2
100
AcDbText
 10
-0.4270050000000001
 20
-194.0654669999999
 30
0.0
 40
6.599999999999999
  1
125
 50
90.0
 41
0.7800000000000003
 72
     5
 11
-0.4270050000000001
 21
-182.0534669999999
 31
0.0
100
AcDbText
  0
LINE
  5
5F1
330
21
100
AcDbEntity
  8
5
 62
     2
100
AcDbLine
 10
55.968825
 20
-249.635467
 30
0.0
 11
-1.427004999999999
 21
-249.635467
 31
0.0
  0
LINE
  5
5F2
330
21
100
AcDbEntity
  8
5
 62
     2
100
AcDbLine
 10
0.5729950000000001
 20
-249.635467
 30
0.0
 11
1.608271
 21
-245.771764
 31
0.0
  0
LINE
  5
5F3
330
21
100
AcDbEntity
  8
5
 62
     2
100
AcDbLine
 10
0.5729950000000001
 20
-249.635467
 30
0.0
 11
-0.4622810000000001
 21
-245.771764
 31
0.0
  0
LINE
  5
5F4
330
21
100
AcDbEntity
  8
5
 62
     2
100
AcDbLine
 10
1.608271
 20
-245.771764
 30
0.0
 11
-0.4622810000000001
 21
-245.771764
 31
0.0
  0
LINE
  5
5F5
330
21
100
AcDbEntity
  8
5
 62
     2
100
AcDbLine
 10
0.5729950000000001
 20
-249.635467
 30
0.0
 11
0.5729950000000001
 21
-124.635467
 31
0.0
  0
LINE
  5
5F6
330
21
100
AcDbEntity
  8
5
 62
     2
100
AcDbLine
 10
0.5729950000000001
 20
-124.635467
 30
0.0
 11
-0.4622810000000001
 21
-128.499171
 31
0.0
  0
LINE
  5
5F7
330
21
100
AcDbEntity
  8
5
 62
     2
100
AcDbLine
 10
0.5729950000000001
 20
-124.635467
 30
0.0
 11
1.608271
 21
-128.499171
 31
0.0
  0
LINE
  5
5F8
330
21
100
AcDbEntity
  8
5
 62
     2
100
AcDbLine
 10
-0.4622810000000001
 20
-128.499171
 30
0.0
 11
1.608271
 21
-128.499171
 31
0.0
  0
LINE
  5
5F9
330
21
100
AcDbEntity
  8
5
 62
     2
100
AcDbLine
 10
35.753113
 20
-124.635467
 30
0.0
 11
-1.427004999999999
 21
-124.635467
 31
0.0
  0
ENDBLK
  5
5FA
330
21
100
AcDbEntity
  8
5
100
AcDbBlockEnd
  0
BLOCK
  5
5FB
330
22
100
AcDbEntity
  8
5
100
AcDbBlockBegin
  2
*D4
 70
     1
 10
0.0
 20
0.0
 30
0.0
  3
*D4
  1

  0
TEXT
  5
5FC
330
22
100
AcDbEntity
  8
5
 62
     2
100
AcDbText
 10
72.34882500000001
 20
-267.00885
 30
0.0
 40
6.599999999999999
  1
46
 41
0.6719999999999997
 72
     5
 11
79.740825
 21
-267.00885
 31
0.0
100
AcDbText
  0
LINE
  5
5FD
330
22
100
AcDbEntity
  8
5
 62
     2
100
AcDbLine
 10
53.968825
 20
-180.135467
 30
0.0
 11
53.968825
 21
-270.00885
 31
0.0
  0
LINE
  5
5FE
330
22
100
AcDbEntity
  8
5
 62
     2
100
AcDbLine
 10
53.968825
 20
-268.00885
 30
0.0
 11
57.832528
 21
-269.044126
 31
0.0
  0
LINE
  5
5FF
330
22
100
AcDbEntity
  8
5
 62
     2
100
AcDbLine
 10
53.968825
 20
-268.00885
 30
0.0
 11
57.832528
 21
-266.9735740000001
 31
0.0
  0
LINE
  5
600
330
22
100
AcDbEntity
  8
5
 62
     2
100
AcDbLine
 10
57.832528
 20
-269.044126
 30
0.0
 11
57.832528
 21
-266.9735740000001
 31
0.0
  0
LINE
  5
601
330
22
100
AcDbEntity
  8
5
 62
     2
100
AcDbLine
 10
53.968825
 20
-268.00885
 30
0.0
 11
99.96882499999999
 21
-268.00885
 31
0.0
  0
LINE
  5
602
330
22
100
AcDbEntity
  8
5
 62
     2
100
AcDbLine
 10
99.96882499999999
 20
-268.00885
 30
0.0
 11
96.105122
 21
-266.9735740000001
 31
0.0
  0
LINE
  5
603
330
22
100
AcDbEntity
  8
5
 62
     2
100
AcDbLine
 10
99.96882499999999
 20
-268.00885
 30
0.0
 11
96.105122
 21
-269.044126
 31
0.0
  0
LINE
  5
604
330
22
100
AcDbEntity
  8
5
 62
     2
100
AcDbLine
 10
96.105122
 20
-266.9735740000001
 30
0.0
 11
96.105122
 21
-269.044126
 31
0.0
  0
LINE
  5
605
330
22
100
AcDbEntity
  8
5
 62
     2
100
AcDbLine
 10
99.96882499999999
 20
-180.135467
 30
0.0
 11
99.96882499999999
 21
-270.00885
 31
0.0
  0
ENDBLK
  5
606
330
22
100
AcDbEntity
  8
5
100
AcDbBlockEnd
  0
BLOCK
  5
607
330
23
100
AcDbEntity
  8
5
100
AcDbBlockBegin
  2
*D5
 70
     1
 10
0.0
 20
0.0
 30
0.0
  3
*D5
  1

  0
LINE
  5
608
330
23
100
AcDbEntity
  8
5
 62
     2
100
AcDbLine
 10
24.968825
 20
0.364533
 30
0.0
 11
-1.427004999999999
 21
0.364533
 31
0.0
  0
LINE
  5
609
330
23
100
AcDbEntity
  8
5
 62
     2
100
AcDbLine
 10
0.5729950000000001
 20
0.364533
 30
0.0
 11
1.608271
 21
4.228235999999999
 31
0.0
  0
LINE
  5
60A
330
23
100
AcDbEntity
  8
5
 62
     2
100
AcDbLine
 10
0.5729950000000001
 20
0.364533
 30
0.0
 11
-0.4622810000000001
 21
4.228235999999999
 31
0.0
  0
LINE
  5
60B
330
23
100
AcDbEntity
  8
5
 62
     2
100
AcDbLine
 10
1.608271
 20
4.228235999999999
 30
0.0
 11
-0.4622810000000001
 21
4.228235999999999
 31
0.0
  0
LINE
  5
60C
330
23
100
AcDbEntity
  8
5
 62
     2
100
AcDbLine
 10
0.5729950000000001
 20
0.364533
 30
0.0
 11
0.5729950000000001
 21
66.541907
 31
0.0
  0
LINE
  5
60D
330
23
100
AcDbEntity
  8
5
 62
     2
100
AcDbLine
 10
0.5729950000000001
 20
66.541907
 30
0.0
 11
-0.4622810000000001
 21
62.678203
 31
0.0
  0
LINE
  5
60E
330
23
100
AcDbEntity
  8
5
 62
     2
100
AcDbLine
 10
0.5729950000000001
 20
66.541907
 30
0.0
 11
1.608271
 21
62.678203
 31
0.0
  0
LINE
  5
60F
330
23
100
AcDbEntity
  8
5
 62
     2
100
AcDbLine
 10
-0.4622810000000001
 20
62.678203
 30
0.0
 11
1.608271
 21
62.678203
 31
0.0
  0
LINE
  5
610
330
23
100
AcDbEntity
  8
5
 62
     2
100
AcDbLine
 10
74.96882499999999
 20
66.541907
 30
0.0
 11
-1.427004999999999
 21
66.541907
 31
0.0
  0
ENDBLK
  5
611
330
23
100
AcDbEntity
  8
5
100
AcDbBlockEnd
  0
BLOCK
  5
612
330
24
100
AcDbEntity
  8
5
100
AcDbBlockBegin
  2
*D6
 70
     1
 10
0.0
 20
0.0
 30
0.0
  3
*D6
  1

  0
LINE
  5
613
330
24
100
AcDbEntity
  8
5
 62
     2
100
AcDbLine
 10
-244.194112
 20
49.43719399999999
 30
0.0
 11
-244.194112
 21
85.86371599999999
 31
0.0
  0
LINE
  5
614
330
24
100
AcDbEntity
  8
5
 62
     2
100
AcDbLine
 10
-244.194112
 20
83.863716
 30
0.0
 11
-240.330409
 21
82.82844
 31
0.0
  0
LINE
  5
615
330
24
100
AcDbEntity
  8
5
 62
     2
100
AcDbLine
 10
-244.194112
 20
83.863716
 30
0.0
 11
-240.330409
 21
84.89899200000001
 31
0.0
  0
LINE
  5
616
330
24
100
AcDbEntity
  8
5
 62
     2
100
AcDbLine
 10
-240.330409
 20
82.82844
 30
0.0
 11
-240.330409
 21
84.89899200000001
 31
0.0
  0
LINE
  5
617
330
24
100
AcDbEntity
  8
5
 62
     2
100
AcDbLine
 10
-244.194112
 20
83.863716
 30
0.0
 11
-44.35450499999999
 21
83.863716
 31
0.0
  0
LINE
  5
618
330
24
100
AcDbEntity
  8
5
 62
     2
100
AcDbLine
 10
-44.35450499999999
 20
83.863716
 30
0.0
 11
-48.218209
 21
84.89899200000001
 31
0.0
  0
LINE
  5
619
330
24
100
AcDbEntity
  8
5
 62
     2
100
AcDbLine
 10
-44.35450499999999
 20
83.863716
 30
0.0
 11
-48.218209
 21
82.82844
 31
0.0
  0
LINE
  5
61A
330
24
100
AcDbEntity
  8
5
 62
     2
100
AcDbLine
 10
-48.218209
 20
84.89899200000001
 30
0.0
 11
-48.218209
 21
82.82844
 31
0.0
  0
LINE
  5
61B
330
24
100
AcDbEntity
  8
5
 62
     2
100
AcDbLine
 10
-44.35450499999999
 20
61.29275999999999
 30
0.0
 11
-44.35450499999999
 21
85.86371599999999
 31
0.0
  0
ENDBLK
  5
61C
330
24
100
AcDbEntity
  8
5
100
AcDbBlockEnd
  0
BLOCK
  5
61D
330
25
100
AcDbEntity
  8
18
100
AcDbBlockBegin
  2
*D7
 70
     1
 10
0.0
 20
0.0
 30
0.0
  3
*D7
  1

  0
LINE
  5
61E
330
25
100
AcDbEntity
  8
18
 62
     2
100
AcDbLine
 10
298.858932
 20
-172.226685
 30
0.0
 11
298.858932
 21
-172.226685
 31
0.0
  0
LINE
  5
61F
330
25
100
AcDbEntity
  8
18
 62
     2
100
AcDbLine
 10
274.420021
 20
-147.787773
 30
0.0
 11
274.420021
 21
-147.787773
 31
0.0
  0
LINE
  5
620
330
25
100
AcDbEntity
  8
18
 62
     2
100
AcDbLine
 10
296.858932
 20
-172.226685
 30
0.0
 11
297.557724
 21
-168.288196
 31
0.0
  0
LINE
  5
621
330
25
100
AcDbEntity
  8
18
 62
     2
100
AcDbLine
 10
296.858932
 20
-172.226685
 30
0.0
 11
295.494859
 21
-168.466458
 31
0.0
  0
LINE
  5
622
330
25
100
AcDbEntity
  8
18
 62
     2
100
AcDbLine
 10
297.557724
 20
-168.288196
 30
0.0
 11
295.494859
 21
-168.466458
 31
0.0
  0
LINE
  5
623
330
25
100
AcDbEntity
  8
18
 62
     2
100
AcDbLine
 10
274.420021
 20
-149.787773
 30
0.0
 11
278.180248
 21
-151.151846
 31
0.0
  0
LINE
  5
624
330
25
100
AcDbEntity
  8
18
 62
     2
100
AcDbLine
 10
274.420021
 20
-149.787773
 30
0.0
 11
278.358509
 21
-149.088982
 31
0.0
  0
LINE
  5
625
330
25
100
AcDbEntity
  8
18
 62
     2
100
AcDbLine
 10
278.180248
 20
-151.151846
 30
0.0
 11
278.358509
 21
-149.088982
 31
0.0
  0
ARC
  5
626
330
25
100
AcDbEntity
  8
18
 62
     2
100
AcDbCircle
 10
274.420021
 20
-172.226685
 30
0.0
 40
22.438911
100
AcDbArc
 50
0.0
 51
90.0
  0
ENDBLK
  5
627
330
25
100
AcDbEntity
  8
18
100
AcDbBlockEnd
  0
BLOCK
  5
628
330
26
100
AcDbEntity
  8
18
100
AcDbBlockBegin
  2
*D8
 70
     1
 10
0.0
 20
0.0
 30
0.0
  3
*D8
  1

  0
LINE
  5
629
330
26
100
AcDbEntity
  8
18
 62
     2
100
AcDbLine
 10
325.08222
 20
-178.705208
 30
0.0
 11
325.08222
 21
-178.705208
 31
0.0
  0
LINE
  5
62A
330
26
100
AcDbEntity
  8
18
 62
     2
100
AcDbLine
 10
345.521132
 20
-158.266296
 30
0.0
 11
345.521132
 21
-158.266296
 31
0.0
  0
LINE
  5
62B
330
26
100
AcDbEntity
  8
18
 62
     2
100
AcDbLine
 10
325.08222
 20
-180.705208
 30
0.0
 11
329.020708
 21
-181.403999
 31
0.0
  0
LINE
  5
62C
330
26
100
AcDbEntity
  8
18
 62
     2
100
AcDbLine
 10
325.08222
 20
-180.705208
 30
0.0
 11
328.842447
 21
-179.341135
 31
0.0
  0
LINE
  5
62D
330
26
100
AcDbEntity
  8
18
 62
     2
100
AcDbLine
 10
329.020708
 20
-181.403999
 30
0.0
 11
328.842447
 21
-179.341135
 31
0.0
  0
LINE
  5
62E
330
26
100
AcDbEntity
  8
18
 62
     2
100
AcDbLine
 10
347.521132
 20
-158.266296
 30
0.0
 11
346.157058
 21
-162.026523
 31
0.0
  0
LINE
  5
62F
330
26
100
AcDbEntity
  8
18
 62
     2
100
AcDbLine
 10
347.521132
 20
-158.266296
 30
0.0
 11
348.219923
 21
-162.204785
 31
0.0
  0
LINE
  5
630
330
26
100
AcDbEntity
  8
18
 62
     2
100
AcDbLine
 10
346.157058
 20
-162.026523
 30
0.0
 11
348.219923
 21
-162.204785
 31
0.0
  0
ARC
  5
631
330
26
100
AcDbEntity
  8
18
 62
     2
100
AcDbCircle
 10
325.08222
 20
-158.266296
 30
0.0
 40
22.438911
100
AcDbArc
 50
270.0
 51
360.0
  0
ENDBLK
  5
632
330
26
100
AcDbEntity
  8
18
100
AcDbBlockEnd
  0
ENDSEC
  0
SECTION
  2
ENTITIES
  0
LINE
  5
2F
330
27
100
AcDbEntity
  8
1
  6
DASHED
100
AcDbLine
 10
-279.194112
 20
150.907236
 30
0.0
 11
-279.194112
 21
200.907236
 31
0.0
  0
LINE
  5
30
330
27
100
AcDbEntity
  8
1
  6
DASHED
100
AcDbLine
 10
-209.194112
 20
150.907236
 30
0.0
 11
-209.194112
 21
200.907236
 31
0.0
  0
LINE
  5
31
330
27
100
AcDbEntity
  8
1
  6
DASHED
100
AcDbLine
 10
-269.194112
 20
210.907236
 30
0.0
 11
-219.194112
 21
210.907236
 31
0.0
  0
LINE
  5
32
330
27
100
AcDbEntity
  8
1
  6
DASHED
100
AcDbLine
 10
-269.194112
 20
140.907236
 30
0.0
 11
-219.194112
 21
140.907236
 31
0.0
  0
ARC
  5
33
330
27
100
AcDbEntity
  8
1
  6
DASHED
100
AcDbCircle
 10
-219.194112
 20
200.907236
 30
0.0
 40
10.0
100
AcDbArc
 50
0.0
 51
90.0
  0
ARC
  5
34
330
27
100
AcDbEntity
  8
1
  6
DASHED
100
AcDbCircle
 10
-269.194112
 20
200.907236
 30
0.0
 40
10.0
100
AcDbArc
 50
90.0
 51
180.0
  0
ARC
  5
35
330
27
100
AcDbEntity
  8
1
  6
DASHED
100
AcDbCircle
 10
-269.194112
 20
150.907236
 30
0.0
 40
10.0
100
AcDbArc
 50
180.0
 51
270.0
  0
ARC
  5
36
330
27
100
AcDbEntity
  8
1
  6
DASHED
100
AcDbCircle
 10
-219.194112
 20
150.907236
 30
0.0
 40
10.0
100
AcDbArc
 50
270.0
 51
360.0
  0
CIRCLE
  5
37
330
27
100
AcDbEntity
  8
1
  6
DASHED
100
AcDbCircle
 10
-219.445375
 20
200.655974
 30
0.0
 40
4.5
  0
CIRCLE
  5
38
330
27
100
AcDbEntity
  8
1
  6
DASHED
100
AcDbCircle
 10
-268.94285
 20
200.655974
 30
0.0
 40
4.5
  0
CIRCLE
  5
39
330
27
100
AcDbEntity
  8
1
  6
DASHED
100
AcDbCircle
 10
-268.94285
 20
151.158499
 30
0.0
 40
4.5
  0
CIRCLE
  5
3A
330
27
100
AcDbEntity
  8
1
  6
DASHED
100
AcDbCircle
 10
-219.445375
 20
151.158499
 30
0.0
 40
4.5
  0
LINE
  5
3B
330
27
100
AcDbEntity
  8
1
  6
CENTER
 62
     2
100
AcDbLine
 10
-225.104139
 20
194.99721
 30
0.0
 11
-213.446233
 21
206.655115
 31
0.0
  0
ARC
  5
3C
330
27
100
AcDbEntity
  8
1
  6
CENTER
 62
     2
100
AcDbCircle
 10
-244.194112
 20
175.907236
 30
0.0
 40
35.0
100
AcDbArc
 50
31.716537
 51
58.56124399999998
  0
LINE
  5
3D
330
27
100
AcDbEntity
  8
1
  6
CENTER
 62
     2
100
AcDbLine
 10
-263.284086
 20
194.99721
 30
0.0
 11
-274.941991
 21
206.655115
 31
0.0
  0
ARC
  5
3E
330
27
100
AcDbEntity
  8
1
  6
CENTER
 62
     2
100
AcDbCircle
 10
-244.194112
 20
175.907236
 30
0.0
 40
35.0
100
AcDbArc
 50
121.716537
 51
148.561244
  0
LINE
  5
3F
330
27
100
AcDbEntity
  8
1
  6
CENTER
 62
     2
100
AcDbLine
 10
-263.284086
 20
156.817263
 30
0.0
 11
-274.941991
 21
145.159357
 31
0.0
  0
ARC
  5
40
330
27
100
AcDbEntity
  8
1
  6
CENTER
 62
     2
100
AcDbCircle
 10
-244.194112
 20
175.907236
 30
0.0
 40
35.0
100
AcDbArc
 50
211.716537
 51
238.561244
  0
LINE
  5
41
330
27
100
AcDbEntity
  8
1
  6
CENTER
 62
     2
100
AcDbLine
 10
-225.104139
 20
156.817263
 30
0.0
 11
-213.446233
 21
145.159357
 31
0.0
  0
ARC
  5
42
330
27
100
AcDbEntity
  8
1
  6
CENTER
 62
     2
100
AcDbCircle
 10
-244.194112
 20
175.907236
 30
0.0
 40
35.0
100
AcDbArc
 50
301.716537
 51
328.561244
  0
LINE
  5
43
330
27
100
AcDbEntity
  8
1
100
AcDbLine
 10
-275.194112
 20
-11.635467
 30
0.0
 11
-213.194112
 21
-11.635467
 31
0.0
  0
LINE
  5
44
330
27
100
AcDbEntity
  8
1
100
AcDbLine
 10
-279.194112
 20
0.364533
 30
0.0
 11
-279.194112
 21
-7.635467
 31
0.0
  0
LINE
  5
45
330
27
100
AcDbEntity
  8
1
100
AcDbLine
 10
-209.194112
 20
0.364533
 30
0.0
 11
-209.194112
 21
-7.635467
 31
0.0
  0
ARC
  5
46
330
27
100
AcDbEntity
  8
1
100
AcDbCircle
 10
-275.194112
 20
-7.635467
 30
0.0
 40
4.0
100
AcDbArc
 50
180.0
 51
270.0
  0
ARC
  5
47
330
27
100
AcDbEntity
  8
1
100
AcDbCircle
 10
-213.194112
 20
-7.635467
 30
0.0
 40
4.0
100
AcDbArc
 50
270.0
 51
360.0
  0
LINE
  5
48
330
27
100
AcDbEntity
  8
1
  6
CENTER
 62
     2
100
AcDbLine
 10
-327.027191
 20
-124.635467
 30
0.0
 11
-163.299132
 21
-124.635467
 31
0.0
  0
LINE
  5
49
330
27
100
AcDbEntity
  8
1
  6
CENTER
 62
     2
100
AcDbLine
 10
-244.194112
 20
47.034836
 30
0.0
 11
-244.194112
 21
-257.01619
 31
0.0
  0
LINE
  5
4A
330
27
100
AcDbEntity
  8
1
100
AcDbLine
 10
-263.194112
 20
-249.635467
 30
0.0
 11
-225.194112
 21
-249.635467
 31
0.0
  0
LINE
  5
4B
330
27
100
AcDbEntity
  8
1
100
AcDbLine
 10
-263.194112
 20
-15.635467
 30
0.0
 11
-263.194112
 21
-63.68261700000001
 31
0.0
  0
LINE
  5
4C
330
27
100
AcDbEntity
  8
1
100
AcDbLine
 10
-225.194112
 20
-20.135467
 30
0.0
 11
-225.194112
 21
-63.68261700000001
 31
0.0
  0
ARC
  5
4D
330
27
100
AcDbEntity
  8
1
100
AcDbCircle
 10
-267.194112
 20
-15.635467
 30
0.0
 40
4.0
100
AcDbArc
 50
0.0
 51
90.0
  0
ARC
  5
4E
330
27
100
AcDbEntity
  8
1
100
AcDbCircle
 10
-244.194112
 20
-124.635467
 30
0.0
 40
65.0
100
AcDbArc
 50
168.28024
 51
195.540875
  0
ARC
  5
4F
330
27
100
AcDbEntity
  8
1
100
AcDbCircle
 10
-244.194112
 20
-124.635467
 30
0.0
 40
65.0
100
AcDbArc
 50
344.459125
 51
11.71976
  0
LINE
  5
50
330
27
100
AcDbEntity
  8
1
100
AcDbLine
 10
-306.859892
 20
-110.635467
 30
0.0
 11
-301.502489
 21
-110.635467
 31
0.0
  0
LINE
  5
51
330
27
100
AcDbEntity
  8
1
100
AcDbLine
 10
-306.062156
 20
-142.760863
 30
0.0
 11
-299.246198
 21
-144.20964
 31
0.0
  0
ARC
  5
52
330
27
100
AcDbEntity
  8
1
100
AcDbCircle
 10
-306.859892
 20
-111.635467
 30
0.0
 40
1.0
100
AcDbArc
 50
90.0
 51
168.28024
  0
ARC
  5
53
330
27
100
AcDbEntity
  8
1
100
AcDbCircle
 10
-305.854244
 20
-141.782716
 30
0.0
 40
1.0
100
AcDbArc
 50
195.540875
 51
258.0
  0
ARC
  5
54
330
27
100
AcDbEntity
  8
1
100
AcDbCircle
 10
-182.53398
 20
-141.782716
 30
0.0
 40
1.0
100
AcDbArc
 50
282.0
 51
344.459125
  0
ARC
  5
55
330
27
100
AcDbEntity
  8
1
100
AcDbCircle
 10
-181.528332
 20
-111.635467
 30
0.0
 40
1.0
100
AcDbArc
 50
11.71976
 51
90.0
  0
ARC
  5
56
330
27
100
AcDbEntity
  8
1
100
AcDbCircle
 10
-186.885736
 20
-108.635467
 30
0.0
 40
2.0
100
AcDbArc
 50
195.599271
 51
270.0
  0
ARC
  5
57
330
27
100
AcDbEntity
  8
1
100
AcDbCircle
 10
-301.502489
 20
-108.635467
 30
0.0
 40
2.0
100
AcDbArc
 50
270.0
 51
344.400729
  0
ARC
  5
58
330
27
100
AcDbEntity
  8
1
100
AcDbCircle
 10
-188.726203
 20
-146.165935
 30
0.0
 40
2.0
100
AcDbArc
 50
102.0
 51
158.78574
  0
ARC
  5
59
330
27
100
AcDbEntity
  8
1
100
AcDbCircle
 10
-299.662022
 20
-146.165935
 30
0.0
 40
2.0
100
AcDbArc
 50
21.21426
 51
78.0
  0
LINE
  5
5A
330
27
100
AcDbEntity
  8
1
100
AcDbLine
 10
-263.194112
 20
-186.838763
 30
0.0
 11
-263.194112
 21
-249.635467
 31
0.0
  0
LINE
  5
5B
330
27
100
AcDbEntity
  8
1
100
AcDbLine
 10
-225.194112
 20
-186.838763
 30
0.0
 11
-225.194112
 21
-249.635467
 31
0.0
  0
ARC
  5
5C
330
27
100
AcDbEntity
  8
1
100
AcDbCircle
 10
-199.292832
 20
-169.5367479999999
 30
0.0
 40
9.5
100
AcDbArc
 50
92.934786
 51
177.065214
  0
ARC
  5
5D
330
27
100
AcDbEntity
  8
1
100
AcDbCircle
 10
-289.095393
 20
-169.5367479999999
 30
0.0
 40
9.5
100
AcDbArc
 50
2.934785999999999
 51
87.06521399999999
  0
ARC
  5
5E
330
27
100
AcDbEntity
  8
1
100
AcDbCircle
 10
-244.194112
 20
-124.635467
 30
0.0
 40
57.5
100
AcDbArc
 50
232.979794
 51
307.020206
  0
ARC
  5
5F
330
27
100
AcDbEntity
  8
1
100
AcDbCircle
 10
-288.506601
 20
-158.051831
 30
0.0
 40
2.0
100
AcDbArc
 50
217.020206
 51
267.065214
  0
ARC
  5
60
330
27
100
AcDbEntity
  8
1
100
AcDbCircle
 10
-277.610476
 20
-168.947956
 30
0.0
 40
2.0
100
AcDbArc
 50
182.934786
 51
232.979794
  0
ARC
  5
61
330
27
100
AcDbEntity
  8
1
100
AcDbCircle
 10
-210.777749
 20
-168.947956
 30
0.0
 40
2.0
100
AcDbArc
 50
307.020206
 51
357.065214
  0
ARC
  5
62
330
27
100
AcDbEntity
  8
1
100
AcDbCircle
 10
-199.881624
 20
-158.051831
 30
0.0
 40
2.0
100
AcDbArc
 50
272.934786
 51
322.979794
  0
ARC
  5
63
330
27
100
AcDbEntity
  8
1
100
AcDbCircle
 10
-199.292832
 20
-79.734187
 30
0.0
 40
9.5
100
AcDbArc
 50
135.0
 51
267.065214
  0
ARC
  5
64
330
27
100
AcDbEntity
  8
1
100
AcDbCircle
 10
-289.095393
 20
-79.734187
 30
0.0
 40
9.5
100
AcDbArc
 50
272.934786
 51
45.0
  0
ARC
  5
65
330
27
100
AcDbEntity
  8
1
100
AcDbCircle
 10
-244.194112
 20
-124.635467
 30
0.0
 40
57.5
100
AcDbArc
 50
322.979794
 51
37.020206
  0
ARC
  5
66
330
27
100
AcDbEntity
  8
1
100
AcDbCircle
 10
-244.194112
 20
-124.635467
 30
0.0
 40
57.5
100
AcDbArc
 50
52.97979399999999
 51
127.020206
  0
ARC
  5
67
330
27
100
AcDbEntity
  8
1
100
AcDbCircle
 10
-244.194112
 20
-124.635467
 30
0.0
 40
57.5
100
AcDbArc
 50
142.979794
 51
217.020206
  0
ARC
  5
68
330
27
100
AcDbEntity
  8
1
100
AcDbCircle
 10
-199.881624
 20
-91.219104
 30
0.0
 40
2.0
100
AcDbArc
 50
37.020206
 51
87.06521399999999
  0
ARC
  5
69
330
27
100
AcDbEntity
  8
1
100
AcDbCircle
 10
-288.506601
 20
-91.219104
 30
0.0
 40
2.0
100
AcDbArc
 50
92.934786
 51
142.979794
  0
ARC
  5
6A
330
27
100
AcDbEntity
  8
1
100
AcDbCircle
 10
-210.777749
 20
-80.32297900000001
 30
0.0
 40
2.0
100
AcDbArc
 50
2.934785999999999
 51
52.97979399999999
  0
ARC
  5
6B
330
27
100
AcDbEntity
  8
1
100
AcDbCircle
 10
-277.610476
 20
-80.32297900000001
 30
0.0
 40
2.0
100
AcDbArc
 50
127.020206
 51
177.065214
  0
ARC
  5
6C
330
27
100
AcDbEntity
  8
1
100
AcDbCircle
 10
-258.194112
 20
-146.635467
 30
0.0
 40
115.0
100
AcDbArc
 50
54.43322399999999
 51
69.87923599999999
  0
ARC
  5
6D
330
27
100
AcDbEntity
  8
1
100
AcDbCircle
 10
-230.194112
 20
-146.635467
 30
0.0
 40
115.0
100
AcDbArc
 50
110.120764
 51
125.566776
  0
ARC
  5
6E
330
27
100
AcDbEntity
  8
1
100
AcDbCircle
 10
-215.194112
 20
-29.264261
 30
0.0
 40
10.0
100
AcDbArc
 50
180.0
 51
249.879236
  0
ARC
  5
6F
330
27
100
AcDbEntity
  8
1
100
AcDbCircle
 10
-273.194112
 20
-29.264261
 30
0.0
 40
10.0
100
AcDbArc
 50
290.120764
 51
360.0
  0
ARC
  5
70
330
27
100
AcDbEntity
  8
1
100
AcDbCircle
 10
-194.794112
 20
-57.970705
 30
0.0
 40
6.0
100
AcDbArc
 50
359.9419430000001
 51
54.43322399999999
  0
ARC
  5
71
330
27
100
AcDbEntity
  8
1
100
AcDbCircle
 10
-293.594112
 20
-57.970705
 30
0.0
 40
6.0
100
AcDbArc
 50
125.566776
 51
180.058057
  0
ARC
  5
72
330
27
100
AcDbEntity
  8
1
100
AcDbCircle
 10
-192.928871
 20
-73.370226
 30
0.0
 40
9.5
100
AcDbArc
 50
96.91162
 51
135.0
  0
ARC
  5
73
330
27
100
AcDbEntity
  8
1
100
AcDbCircle
 10
-295.459354
 20
-73.370226
 30
0.0
 40
9.5
100
AcDbArc
 50
45.0
 51
83.08837999999999
  0
ARC
  5
74
330
27
100
AcDbEntity
  8
1
100
AcDbCircle
 10
-293.594112
 20
-57.982865
 30
0.0
 40
6.0
100
AcDbArc
 50
179.941943
 51
263.08838
  0
ARC
  5
75
330
27
100
AcDbEntity
  8
1
100
AcDbCircle
 10
-194.794112
 20
-57.982865
 30
0.0
 40
6.0
100
AcDbArc
 50
276.91162
 51
0.058057
  0
LINE
  5
76
330
27
100
AcDbEntity
  8
1
100
AcDbLine
 10
-288.7418399999999
 20
-66.652711
 30
0.0
 11
-277.576473
 21
-77.818078
 31
0.0
  0
LINE
  5
77
330
27
100
AcDbEntity
  8
1
100
AcDbLine
 10
-277.576473
 20
-171.452857
 30
0.0
 11
-288.022539
 21
-181.898923
 31
0.0
  0
LINE
  5
78
330
27
100
AcDbEntity
  8
1
100
AcDbLine
 10
-275.639552
 20
-195.472218
 30
0.0
 11
-286.524163
 21
-190.396641
 31
0.0
  0
LINE
  5
79
330
27
100
AcDbEntity
  8
1
100
AcDbLine
 10
-212.748673
 20
-195.472218
 30
0.0
 11
-201.864062
 21
-190.396641
 31
0.0
  0
ARC
  5
7A
330
27
100
AcDbEntity
  8
1
100
AcDbCircle
 10
-203.194112
 20
-184.72735
 30
0.0
 40
4.0
100
AcDbArc
 50
350.0
 51
45.0
  0
ARC
  5
7B
330
27
100
AcDbEntity
  8
1
100
AcDbCircle
 10
-285.194112
 20
-184.72735
 30
0.0
 40
4.0
100
AcDbArc
 50
135.0
 51
190.0
  0
LINE
  5
7C
330
27
100
AcDbEntity
  8
1
100
AcDbLine
 10
-199.254881
 20
-185.421943
 30
0.0
 11
-199.615304
 21
-187.466002
 31
0.0
  0
LINE
  5
7D
330
27
100
AcDbEntity
  8
1
100
AcDbLine
 10
-289.133343
 20
-185.421943
 30
0.0
 11
-288.772921
 21
-187.466002
 31
0.0
  0
ARC
  5
7E
330
27
100
AcDbEntity
  8
1
100
AcDbCircle
 10
-203.554535
 20
-186.77141
 30
0.0
 40
4.0
100
AcDbArc
 50
295.0
 51
350.0
  0
ARC
  5
7F
330
27
100
AcDbEntity
  8
1
100
AcDbCircle
 10
-284.83369
 20
-186.77141
 30
0.0
 40
4.0
100
AcDbArc
 50
190.0
 51
245.0
  0
LINE
  5
80
330
27
100
AcDbEntity
  8
1
100
AcDbLine
 10
-220.954522
 20
-231.896935
 30
0.0
 11
-218.484437
 21
-203.663738
 31
0.0
  0
LINE
  5
81
330
27
100
AcDbEntity
  8
1
100
AcDbLine
 10
-267.433703
 20
-231.896935
 30
0.0
 11
-269.903787
 21
-203.663738
 31
0.0
  0
ARC
  5
82
330
27
100
AcDbEntity
  8
1
100
AcDbCircle
 10
-208.52249
 20
-204.535296
 30
0.0
 40
10.0
100
AcDbArc
 50
115.0
 51
175.0
  0
ARC
  5
83
330
27
100
AcDbEntity
  8
1
100
AcDbCircle
 10
-279.865734
 20
-204.535296
 30
0.0
 40
10.0
100
AcDbArc
 50
5.0
 51
65.0
  0
ARC
  5
84
330
27
100
AcDbEntity
  8
1
100
AcDbCircle
 10
-223.943106
 20
-231.635467
 30
0.0
 40
3.0
100
AcDbArc
 50
286.947716
 51
355.0
  0
ARC
  5
85
330
27
100
AcDbEntity
  8
1
100
AcDbCircle
 10
-264.445119
 20
-231.635467
 30
0.0
 40
3.0
100
AcDbArc
 50
185.0
 51
253.052284
  0
ARC
  5
86
330
27
100
AcDbEntity
  8
1
100
AcDbCircle
 10
-222.194112
 20
-237.374894
 30
0.0
 40
3.0
100
AcDbArc
 50
106.947716
 51
180.0
  0
ARC
  5
87
330
27
100
AcDbEntity
  8
1
100
AcDbCircle
 10
-266.194112
 20
-237.374894
 30
0.0
 40
3.0
100
AcDbArc
 50
0.0
 51
73.052284
  0
LINE
  5
88
330
27
100
AcDbEntity
  8
1
100
AcDbLine
 10
-309.194112
 20
175.907236
 30
0.0
 11
-308.522069
 21
163.083877
 31
0.0
  0
LINE
  5
89
330
27
100
AcDbEntity
  8
1
100
AcDbLine
 10
-309.194112
 20
175.907236
 30
0.0
 11
-308.522069
 21
188.730596
 31
0.0
  0
LINE
  5
8A
330
27
100
AcDbEntity
  8
1
100
AcDbLine
 10
-306.302637
 20
191.471365
 30
0.0
 11
-303.917655
 21
192.110419
 31
0.0
  0
LINE
  5
8B
330
27
100
AcDbEntity
  8
1
100
AcDbLine
 10
-306.302637
 20
160.343107
 30
0.0
 11
-303.917655
 21
159.704053
 31
0.0
  0
ARC
  5
8C
330
27
100
AcDbEntity
  8
1
100
AcDbCircle
 10
-305.52618
 20
188.573588
 30
0.0
 40
3.0
100
AcDbArc
 50
105.0
 51
177.0
  0
ARC
  5
8D
330
27
100
AcDbEntity
  8
1
100
AcDbCircle
 10
-305.52618
 20
163.240885
 30
0.0
 40
3.0
100
AcDbArc
 50
183.0
 51
255.0
  0
ARC
  5
8E
330
27
100
AcDbEntity
  8
1
100
AcDbCircle
 10
-304.694112
 20
195.008197
 30
0.0
 40
3.0
100
AcDbArc
 50
285.0
 51
360.0
  0
ARC
  5
8F
330
27
100
AcDbEntity
  8
1
100
AcDbCircle
 10
-304.694112
 20
156.806276
 30
0.0
 40
3.0
100
AcDbArc
 50
0.0
 51
75.0
  0
LINE
  5
90
330
27
100
AcDbEntity
  8
1
100
AcDbLine
 10
-301.694112
 20
155.907236
 30
0.0
 11
-301.694112
 21
156.806276
 31
0.0
  0
LINE
  5
91
330
27
100
AcDbEntity
  8
1
100
AcDbLine
 10
-301.694112
 20
195.008197
 30
0.0
 11
-301.694112
 21
195.907236
 31
0.0
  0
LINE
  5
92
330
27
100
AcDbEntity
  8
1
100
AcDbLine
 10
-307.668517
 20
175.907236
 30
0.0
 11
-306.979951
 21
188.733652
 31
0.0
  0
LINE
  5
93
330
27
100
AcDbEntity
  8
1
100
AcDbLine
 10
-307.668517
 20
175.907236
 30
0.0
 11
-306.979951
 21
163.08082
 31
0.0
  0
LINE
  5
94
330
27
100
AcDbEntity
  8
1
100
AcDbLine
 10
-299.963728
 20
155.907236
 30
0.0
 11
-299.963728
 21
160.356761
 31
0.0
  0
LINE
  5
95
330
27
100
AcDbEntity
  8
1
100
AcDbLine
 10
-299.963728
 20
191.457712
 30
0.0
 11
-299.963728
 21
195.907236
 31
0.0
  0
ARC
  5
96
330
27
100
AcDbEntity
  8
1
100
AcDbCircle
 10
-244.194112
 20
-124.635467
 30
0.0
 40
64.213883
100
AcDbArc
 50
168.132388
 51
195.913068
  0
ARC
  5
97
330
27
100
AcDbEntity
  8
1
100
AcDbCircle
 10
-244.194112
 20
-124.635467
 30
0.0
 40
64.213883
100
AcDbArc
 50
344.086932
 51
11.867612
  0
ARC
  5
98
330
27
100
AcDbEntity
  8
1
100
AcDbCircle
 10
-182.331401
 20
-111.635467
 30
0.0
 40
1.0
100
AcDbArc
 50
11.867612
 51
90.0
  0
ARC
  5
99
330
27
100
AcDbEntity
  8
1
100
AcDbCircle
 10
-183.402661
 20
-141.96736
 30
0.0
 40
1.0
100
AcDbArc
 50
282.0
 51
344.086932
  0
ARC
  5
9A
330
27
100
AcDbEntity
  8
1
100
AcDbCircle
 10
-306.056824
 20
-111.635467
 30
0.0
 40
1.0
100
AcDbArc
 50
90.0
 51
168.132388
  0
ARC
  5
9B
330
27
100
AcDbEntity
  8
1
100
AcDbCircle
 10
-304.985564
 20
-141.96736
 30
0.0
 40
1.0
100
AcDbArc
 50
195.913068
 51
258.0
  0
LINE
  5
9C
330
27
100
AcDbEntity
  8
1
100
AcDbLine
 10
-304.7607220000001
 20
191.470611
 30
0.0
 11
-302.13922
 21
192.173041
 31
0.0
  0
LINE
  5
9D
330
27
100
AcDbEntity
  8
1
100
AcDbLine
 10
-304.7607220000001
 20
160.343861
 30
0.0
 11
-302.13922
 21
159.641432
 31
0.0
  0
ARC
  5
9E
330
27
100
AcDbEntity
  8
1
100
AcDbCircle
 10
-303.984265
 20
188.572834
 30
0.0
 40
3.0
100
AcDbArc
 50
105.0
 51
176.927118
  0
ARC
  5
9F
330
27
100
AcDbEntity
  8
1
100
AcDbCircle
 10
-303.984265
 20
163.241639
 30
0.0
 40
3.0
100
AcDbArc
 50
183.072882
 51
255.0
  0
ARC
  5
A0
330
27
100
AcDbEntity
  8
1
100
AcDbCircle
 10
-302.898897
 20
195.008197
 30
0.0
 40
2.93517
100
AcDbArc
 50
285.0
 51
360.0
  0
ARC
  5
A1
330
27
100
AcDbEntity
  8
1
100
AcDbCircle
 10
-302.898897
 20
156.806276
 30
0.0
 40
2.93517
100
AcDbArc
 50
0.0
 51
75.0
  0
LINE
  5
A2
330
27
100
AcDbEntity
  8
1
  6
CENTER
 62
     2
100
AcDbLine
 10
-297.194112
 20
167.075699
 30
0.0
 11
-297.194112
 21
185.049545
 31
0.0
  0
LINE
  5
A3
330
27
100
AcDbEntity
  8
1
100
AcDbLine
 10
-210.811751
 20
-171.452857
 30
0.0
 11
-200.365685
 21
-181.898923
 31
0.0
  0
LINE
  5
A4
330
27
100
AcDbEntity
  8
1
100
AcDbLine
 10
-182.326069
 20
-142.760863
 30
0.0
 11
-189.142026
 21
-144.20964
 31
0.0
  0
LINE
  5
A5
330
27
100
AcDbEntity
  8
1
100
AcDbLine
 10
-186.885736
 20
-110.635467
 30
0.0
 11
-181.528332
 21
-110.635467
 31
0.0
  0
LINE
  5
A6
330
27
100
AcDbEntity
  8
1
100
AcDbLine
 10
-199.646385
 20
-66.652711
 30
0.0
 11
-210.811751
 21
-77.818078
 31
0.0
  0
LINE
  5
A7
330
27
100
AcDbEntity
  8
1
100
AcDbLine
 10
-241.694112
 20
-39.73137600000001
 30
0.0
 11
-246.694112
 21
-39.73137600000001
 31
0.0
  0
LINE
  5
A8
330
27
100
AcDbEntity
  8
1
100
AcDbLine
 10
-246.694112
 20
-13.635467
 30
0.0
 11
-246.694112
 21
-37.731376
 31
0.0
  0
LINE
  5
A9
330
27
100
AcDbEntity
  8
1
100
AcDbLine
 10
-241.694112
 20
-13.635467
 30
0.0
 11
-241.694112
 21
-37.731376
 31
0.0
  0
ARC
  5
AA
330
27
100
AcDbEntity
  8
1
100
AcDbCircle
 10
-239.694112
 20
-37.731376
 30
0.0
 40
2.0
100
AcDbArc
 50
180.0
 51
270.0
  0
ARC
  5
AB
330
27
100
AcDbEntity
  8
1
100
AcDbCircle
 10
-248.694112
 20
-37.731376
 30
0.0
 40
2.0
100
AcDbArc
 50
270.0
 51
360.0
  0
ARC
  5
AC
330
27
100
AcDbEntity
  8
1
100
AcDbCircle
 10
-248.694112
 20
-13.635467
 30
0.0
 40
2.0
100
AcDbArc
 50
0.0
 51
90.0
  0
ARC
  5
AD
330
27
100
AcDbEntity
  8
1
100
AcDbCircle
 10
-239.694112
 20
-13.635467
 30
0.0
 40
2.0
100
AcDbArc
 50
90.0
 51
180.0
  0
LINE
  5
AE
330
27
100
AcDbEntity
  8
1
  6
DASHED
100
AcDbLine
 10
-285.90742
 20
170.175977
 30
0.0
 11
-285.90742
 21
181.638496
 31
0.0
  0
LINE
  5
AF
330
27
100
AcDbEntity
  8
1
  6
DASHED
100
AcDbLine
 10
-285.90742
 20
165.52455
 30
0.0
 11
-279.194112
 21
165.52455
 31
0.0
  0
ARC
  5
B0
330
27
100
AcDbEntity
  8
1
100
AcDbCircle
 10
-297.963728
 20
191.457712
 30
0.0
 40
2.0
100
AcDbArc
 50
180.0
 51
215.393619
  0
ARC
  5
B1
330
27
100
AcDbEntity
  8
1
100
AcDbCircle
 10
-297.963728
 20
160.356761
 30
0.0
 40
2.0
100
AcDbArc
 50
104.431611
 51
180.0
  0
ARC
  5
B2
330
27
100
AcDbEntity
  8
1
  6
DASHED
100
AcDbCircle
 10
-291.90742
 20
170.175977
 30
0.0
 40
6.0
100
AcDbArc
 50
284.431611
 51
0.0
  0
ARC
  5
B3
330
27
100
AcDbEntity
  8
1
  6
DASHED
100
AcDbCircle
 10
-291.90742
 20
181.638496
 30
0.0
 40
6.0
100
AcDbArc
 50
0.0
 51
52.635436
  0
LINE
  5
B4
330
27
100
AcDbEntity
  8
1
100
AcDbLine
 10
-299.594112
 20
188.407236
 30
0.0
 11
-299.594112
 21
190.407236
 31
0.0
  0
ARC
  5
B5
330
27
100
AcDbEntity
  8
1
100
AcDbCircle
 10
-297.594112
 20
188.407236
 30
0.0
 40
2.0
100
AcDbArc
 50
180.0
 51
270.0
  0
ARC
  5
B6
330
27
100
AcDbEntity
  8
1
100
AcDbCircle
 10
-297.594112
 20
190.407236
 30
0.0
 40
2.0
100
AcDbArc
 50
90.0
 51
180.0
  0
LINE
  5
B7
330
27
100
AcDbEntity
  8
1
  6
DASHED
100
AcDbLine
 10
-279.603907
 20
155.907236
 30
0.0
 11
-279.603907
 21
161.907236
 31
0.0
  0
LINE
  5
B8
330
27
100
AcDbEntity
  8
1
  6
DASHED
100
AcDbLine
 10
-279.603907
 20
192.407236
 30
0.0
 11
-279.603907
 21
195.907236
 31
0.0
  0
LINE
  5
B9
330
27
100
AcDbEntity
  8
1
  6
DASHED
100
AcDbLine
 10
-289.497495
 20
155.907236
 30
0.0
 11
-289.497495
 21
161.907236
 31
0.0
  0
LINE
  5
BA
330
27
100
AcDbEntity
  8
1
  6
DASHED
100
AcDbLine
 10
-289.497495
 20
192.407236
 30
0.0
 11
-289.497495
 21
195.907236
 31
0.0
  0
ARC
  5
BB
330
27
100
AcDbEntity
  8
1
  6
DASHED
100
AcDbCircle
 10
-282.3778779999999
 20
135.351334
 30
0.0
 40
27.493724
100
AcDbArc
 50
90.0
 51
105.008019
  0
ARC
  5
BC
330
27
100
AcDbEntity
  8
1
  6
DASHED
100
AcDbCircle
 10
-282.3778779999999
 20
158.2736
 30
0.0
 40
4.571458999999999
100
AcDbArc
 50
52.64135
 51
90.0
  0
LINE
  5
BD
330
27
100
AcDbEntity
  8
1
  6
DASHED
100
AcDbLine
 10
-279.603907
 20
161.907236
 30
0.0
 11
-279.194112
 21
161.907236
 31
0.0
  0
ARC
  5
BE
330
27
100
AcDbEntity
  8
1
100
AcDbCircle
 10
-213.194112
 20
-186.838763
 30
0.0
 40
12.0
100
AcDbArc
 50
116.4901
 51
180.0
  0
ARC
  5
BF
330
27
100
AcDbEntity
  8
1
100
AcDbCircle
 10
-275.194112
 20
-186.838763
 30
0.0
 40
12.0
100
AcDbArc
 50
0.0
 51
63.5099
  0
LINE
  5
C0
330
27
100
AcDbEntity
  8
1
100
AcDbLine
 10
-230.285147
 20
-186.838763
 30
0.0
 11
-225.194112
 21
-234.635467
 31
0.0
  0
LINE
  5
C1
330
27
100
AcDbEntity
  8
1
100
AcDbLine
 10
-258.103078
 20
-186.838763
 30
0.0
 11
-263.194112
 21
-234.635467
 31
0.0
  0
ARC
  5
C2
330
27
100
AcDbEntity
  8
1
100
AcDbCircle
 10
-222.80165
 20
-186.041663
 30
0.0
 40
7.525827999999999
100
AcDbArc
 50
109.207125
 51
186.079899
  0
ARC
  5
C3
330
27
100
AcDbEntity
  8
1
100
AcDbCircle
 10
-265.586574
 20
-186.041663
 30
0.0
 40
7.525827999999999
100
AcDbArc
 50
353.920101
 51
70.79287499999999
  0
ARC
  5
C4
330
27
100
AcDbEntity
  8
1
100
AcDbCircle
 10
-273.194112
 20
-63.68261700000001
 30
0.0
 40
10.0
100
AcDbArc
 50
295.444058
 51
360.0
  0
LINE
  5
C5
330
27
100
AcDbEntity
  8
1
100
AcDbLine
 10
-234.896003
 20
-15.870531
 30
0.0
 11
-232.216055
 21
-61.395435
 31
0.0
  0
ARC
  5
C6
330
27
100
AcDbEntity
  8
1
100
AcDbCircle
 10
-230.902916
 20
-15.635467
 30
0.0
 40
4.0
100
AcDbArc
 50
90.0
 51
183.368985
  0
ARC
  5
C7
330
27
100
AcDbEntity
  8
1
100
AcDbCircle
 10
-222.233337
 20
-60.80777499999999
 30
0.0
 40
10.0
100
AcDbArc
 50
183.368985
 51
251.013533
  0
LINE
  5
C8
330
27
100
AcDbEntity
  8
1
100
AcDbLine
 10
-253.492221
 20
-15.870531
 30
0.0
 11
-256.172169
 21
-61.395435
 31
0.0
  0
ARC
  5
C9
330
27
100
AcDbEntity
  8
1
100
AcDbCircle
 10
-257.485308
 20
-15.635467
 30
0.0
 40
4.0
100
AcDbArc
 50
356.631015
 51
90.0
  0
ARC
  5
CA
330
27
100
AcDbEntity
  8
1
100
AcDbCircle
 10
-266.154887
 20
-60.80777499999999
 30
0.0
 40
10.0
100
AcDbArc
 50
288.986467
 51
356.631015
  0
LINE
  5
CB
330
27
100
AcDbEntity
  8
1
100
AcDbLine
 10
-187.006112
 20
-107.635467
 30
0.0
 11
-186.194112
 21
-108.447467
 31
0.0
  0
LINE
  5
CC
330
27
100
AcDbEntity
  8
1
100
AcDbLine
 10
-186.194112
 20
-108.447467
 30
0.0
 11
-186.194112
 21
-110.635467
 31
0.0
  0
LINE
  5
CD
330
27
100
AcDbEntity
  8
1
100
AcDbLine
 10
-186.194112
 20
-108.447467
 30
0.0
 11
-189.019855
 21
-108.447467
 31
0.0
  0
LINE
  5
CE
330
27
100
AcDbEntity
  8
1
 62
     2
100
AcDbLine
 10
-187.006112
 20
-107.635467
 30
0.0
 11
-187.006112
 21
-110.635467
 31
0.0
  0
LINE
  5
CF
330
27
100
AcDbEntity
  8
1
100
AcDbLine
 10
-189.264612
 20
-107.635467
 30
0.0
 11
-187.006112
 21
-107.635467
 31
0.0
  0
LINE
  5
D0
330
27
100
AcDbEntity
  8
1
100
AcDbLine
 10
-301.382112
 20
-107.635467
 30
0.0
 11
-302.194112
 21
-108.447467
 31
0.0
  0
LINE
  5
D1
330
27
100
AcDbEntity
  8
1
100
AcDbLine
 10
-302.194112
 20
-108.447467
 30
0.0
 11
-302.194112
 21
-110.635467
 31
0.0
  0
LINE
  5
D2
330
27
100
AcDbEntity
  8
1
100
AcDbLine
 10
-302.194112
 20
-108.447467
 30
0.0
 11
-299.368369
 21
-108.447467
 31
0.0
  0
LINE
  5
D3
330
27
100
AcDbEntity
  8
1
 62
     2
100
AcDbLine
 10
-301.382112
 20
-107.635467
 30
0.0
 11
-301.382112
 21
-110.635467
 31
0.0
  0
LINE
  5
D4
330
27
100
AcDbEntity
  8
1
100
AcDbLine
 10
-299.123613
 20
-107.635467
 30
0.0
 11
-301.382112
 21
-107.635467
 31
0.0
  0
ARC
  5
D5
330
27
100
AcDbEntity
  8
1
100
AcDbCircle
 10
-215.194112
 20
-63.68261700000001
 30
0.0
 40
10.0
100
AcDbArc
 50
180.0
 51
244.555942
  0
LINE
  5
D6
330
27
100
AcDbEntity
  8
1
  6
DASHED
100
AcDbLine
 10
-179.194112
 20
175.907236
 30
0.0
 11
-179.866156
 21
163.083877
 31
0.0
  0
LINE
  5
D7
330
27
100
AcDbEntity
  8
1
  6
DASHED
100
AcDbLine
 10
-179.194112
 20
175.907236
 30
0.0
 11
-179.866156
 21
188.730596
 31
0.0
  0
LINE
  5
D8
330
27
100
AcDbEntity
  8
1
  6
DASHED
100
AcDbLine
 10
-186.694112
 20
155.907236
 30
0.0
 11
-209.194112
 21
155.907236
 31
0.0
  0
LINE
  5
D9
330
27
100
AcDbEntity
  8
1
100
AcDbLine
 10
-182.085588
 20
191.471365
 30
0.0
 11
-184.4705689999999
 21
192.110419
 31
0.0
  0
LINE
  5
DA
330
27
100
AcDbEntity
  8
1
  6
DASHED
100
AcDbLine
 10
-182.085588
 20
160.343107
 30
0.0
 11
-184.4705689999999
 21
159.704053
 31
0.0
  0
ARC
  5
DB
330
27
100
AcDbEntity
  8
1
  6
DASHED
100
AcDbCircle
 10
-182.862045
 20
163.240885
 30
0.0
 40
3.0
100
AcDbArc
 50
285.0
 51
357.0
  0
ARC
  5
DC
330
27
100
AcDbEntity
  8
1
100
AcDbCircle
 10
-183.694112
 20
195.008197
 30
0.0
 40
3.0
100
AcDbArc
 50
180.0
 51
255.0
  0
ARC
  5
DD
330
27
100
AcDbEntity
  8
1
  6
DASHED
100
AcDbCircle
 10
-183.694112
 20
156.806276
 30
0.0
 40
3.0
100
AcDbArc
 50
105.0
 51
180.0
  0
LINE
  5
DE
330
27
100
AcDbEntity
  8
1
  6
DASHED
100
AcDbLine
 10
-186.694112
 20
155.907236
 30
0.0
 11
-186.694112
 21
156.806276
 31
0.0
  0
LINE
  5
DF
330
27
100
AcDbEntity
  8
1
100
AcDbLine
 10
-186.694112
 20
195.008197
 30
0.0
 11
-186.694112
 21
195.907236
 31
0.0
  0
LINE
  5
E0
330
27
100
AcDbEntity
  8
1
  6
DASHED
100
AcDbLine
 10
-180.719708
 20
175.907236
 30
0.0
 11
-181.408273
 21
188.733652
 31
0.0
  0
LINE
  5
E1
330
27
100
AcDbEntity
  8
1
  6
DASHED
100
AcDbLine
 10
-180.719708
 20
175.907236
 30
0.0
 11
-181.408273
 21
163.08082
 31
0.0
  0
LINE
  5
E2
330
27
100
AcDbEntity
  8
1
  6
DASHED
100
AcDbLine
 10
-188.424497
 20
155.907236
 30
0.0
 11
-188.424497
 21
160.356761
 31
0.0
  0
LINE
  5
E3
330
27
100
AcDbEntity
  8
1
100
AcDbLine
 10
-183.627503
 20
191.470611
 30
0.0
 11
-186.249005
 21
192.173041
 31
0.0
  0
LINE
  5
E4
330
27
100
AcDbEntity
  8
1
  6
DASHED
100
AcDbLine
 10
-183.627503
 20
160.343861
 30
0.0
 11
-186.249005
 21
159.641432
 31
0.0
  0
ARC
  5
E5
330
27
100
AcDbEntity
  8
1
  6
DASHED
100
AcDbCircle
 10
-184.40396
 20
163.241639
 30
0.0
 40
3.0
100
AcDbArc
 50
285.0
 51
356.927118
  0
ARC
  5
E6
330
27
100
AcDbEntity
  8
1
  6
DASHED
100
AcDbCircle
 10
-185.489327
 20
156.806276
 30
0.0
 40
2.93517
100
AcDbArc
 50
105.0
 51
180.0
  0
LINE
  5
E7
330
27
100
AcDbEntity
  8
1
  6
CENTER
 62
     2
100
AcDbLine
 10
-191.194112
 20
167.075699
 30
0.0
 11
-191.194112
 21
185.049545
 31
0.0
  0
CIRCLE
  5
E8
330
27
100
AcDbEntity
  8
1
  6
DASHED
100
AcDbCircle
 10
-191.194112
 20
175.907236
 30
0.0
 40
5.0
  0
CIRCLE
  5
E9
330
27
100
AcDbEntity
  8
1
  6
DASHED
 62
     2
100
AcDbCircle
 10
-191.194112
 20
175.907236
 30
0.0
 40
4.187999999999999
  0
LINE
  5
EA
330
27
100
AcDbEntity
  8
1
  6
DASHED
100
AcDbLine
 10
-189.926048
 20
162.293652
 30
0.0
 11
-197.97615
 21
164.365302
 31
0.0
  0
LINE
  5
EB
330
27
100
AcDbEntity
  8
1
  6
DASHED
100
AcDbLine
 10
-202.480805
 20
170.175977
 30
0.0
 11
-202.480805
 21
181.638496
 31
0.0
  0
LINE
  5
EC
330
27
100
AcDbEntity
  8
1
  6
DASHED
100
AcDbLine
 10
-202.480805
 20
165.52455
 30
0.0
 11
-209.194112
 21
165.52455
 31
0.0
  0
ARC
  5
ED
330
27
100
AcDbEntity
  8
1
  6
DASHED
100
AcDbCircle
 10
-190.424497
 20
191.457712
 30
0.0
 40
2.0
100
AcDbArc
 50
324.606381
 51
0.0
  0
ARC
  5
EE
330
27
100
AcDbEntity
  8
1
  6
DASHED
100
AcDbCircle
 10
-190.424497
 20
160.356761
 30
0.0
 40
2.0
100
AcDbArc
 50
0.0
 51
75.56838899999999
  0
ARC
  5
EF
330
27
100
AcDbEntity
  8
1
  6
DASHED
100
AcDbCircle
 10
-196.480805
 20
170.175977
 30
0.0
 40
6.0
100
AcDbArc
 50
180.0
 51
255.568389
  0
ARC
  5
F0
330
27
100
AcDbEntity
  8
1
  6
DASHED
100
AcDbCircle
 10
-196.480805
 20
181.638496
 30
0.0
 40
6.0
100
AcDbArc
 50
127.364564
 51
180.0
  0
LINE
  5
F1
330
27
100
AcDbEntity
  8
1
  6
DASHED
100
AcDbLine
 10
-190.794112
 20
192.407236
 30
0.0
 11
-209.194112
 21
192.407236
 31
0.0
  0
LINE
  5
F2
330
27
100
AcDbEntity
  8
1
  6
DASHED
100
AcDbLine
 10
-190.794112
 20
186.407236
 30
0.0
 11
-209.194112
 21
186.407236
 31
0.0
  0
LINE
  5
F3
330
27
100
AcDbEntity
  8
1
  6
DASHED
100
AcDbLine
 10
-188.794112
 20
188.407236
 30
0.0
 11
-188.794112
 21
190.407236
 31
0.0
  0
ARC
  5
F4
330
27
100
AcDbEntity
  8
1
  6
DASHED
100
AcDbCircle
 10
-190.794112
 20
188.407236
 30
0.0
 40
2.0
100
AcDbArc
 50
270.0
 51
360.0
  0
ARC
  5
F5
330
27
100
AcDbEntity
  8
1
  6
DASHED
100
AcDbCircle
 10
-190.794112
 20
190.407236
 30
0.0
 40
2.0
100
AcDbArc
 50
0.0
 51
90.0
  0
LINE
  5
F6
330
27
100
AcDbEntity
  8
1
  6
DASHED
100
AcDbLine
 10
-208.784318
 20
155.907236
 30
0.0
 11
-208.784318
 21
161.907236
 31
0.0
  0
LINE
  5
F7
330
27
100
AcDbEntity
  8
1
  6
DASHED
100
AcDbLine
 10
-208.784318
 20
192.407236
 30
0.0
 11
-208.784318
 21
195.907236
 31
0.0
  0
LINE
  5
F8
330
27
100
AcDbEntity
  8
1
  6
DASHED
100
AcDbLine
 10
-198.89073
 20
155.907236
 30
0.0
 11
-198.89073
 21
161.907236
 31
0.0
  0
LINE
  5
F9
330
27
100
AcDbEntity
  8
1
  6
DASHED
100
AcDbLine
 10
-198.89073
 20
192.407236
 30
0.0
 11
-198.89073
 21
195.907236
 31
0.0
  0
ARC
  5
FA
330
27
100
AcDbEntity
  8
1
  6
DASHED
100
AcDbCircle
 10
-206.010346
 20
135.351334
 30
0.0
 40
27.493724
100
AcDbArc
 50
74.991981
 51
90.0
  0
ARC
  5
FB
330
27
100
AcDbEntity
  8
1
  6
DASHED
100
AcDbCircle
 10
-206.010346
 20
158.2736
 30
0.0
 40
4.571458999999999
100
AcDbArc
 50
90.0
 51
127.35865
  0
LINE
  5
FC
330
27
100
AcDbEntity
  8
1
  6
DASHED
100
AcDbLine
 10
-189.926048
 20
161.907236
 30
0.0
 11
-198.89073
 21
161.907236
 31
0.0
  0
LINE
  5
FD
330
27
100
AcDbEntity
  8
1
  6
DASHED
100
AcDbLine
 10
-208.784318
 20
161.907236
 30
0.0
 11
-209.194112
 21
161.907236
 31
0.0
  0
LINE
  5
FE
330
27
100
AcDbEntity
  8
1
100
AcDbLine
 10
-186.694112
 20
-124.635467
 30
0.0
 11
-179.194112
 21
-124.635467
 31
0.0
  0
LINE
  5
FF
330
27
100
AcDbEntity
  8
1
100
AcDbLine
 10
-297.694112
 20
-124.635467
 30
0.0
 11
-309.194112
 21
-124.635467
 31
0.0
  0
LINE
  5
100
330
27
100
AcDbEntity
  8
1
  6
DASHED
100
AcDbLine
 10
-190.694112
 20
152.907236
 30
0.0
 11
-190.694112
 21
155.907236
 31
0.0
  0
LINE
  5
101
330
27
100
AcDbEntity
  8
1
100
AcDbLine
 10
-190.694112
 20
195.907236
 30
0.0
 11
-190.694112
 21
198.907236
 31
0.0
  0
LINE
  5
102
330
27
100
AcDbEntity
  8
1
100
AcDbLine
 10
-297.694112
 20
152.907236
 30
0.0
 11
-297.694112
 21
155.907236
 31
0.0
  0
LINE
  5
103
330
27
100
AcDbEntity
  8
1
100
AcDbLine
 10
-297.694112
 20
195.907236
 30
0.0
 11
-297.694112
 21
198.907236
 31
0.0
  0
LINE
  5
104
330
27
100
AcDbEntity
  8
1
  6
DASHED
100
AcDbLine
 10
-209.194112
 20
198.907236
 30
0.0
 11
-190.694112
 21
198.907236
 31
0.0
  0
LINE
  5
105
330
27
100
AcDbEntity
  8
1
  6
DASHED
100
AcDbLine
 10
-209.194112
 20
152.907236
 30
0.0
 11
-190.694112
 21
152.907236
 31
0.0
  0
LINE
  5
106
330
27
100
AcDbEntity
  8
1
100
AcDbLine
 10
-297.694112
 20
198.907236
 30
0.0
 11
-288.590058
 21
198.907236
 31
0.0
  0
LINE
  5
107
330
27
100
AcDbEntity
  8
1
  6
DASHED
100
AcDbLine
 10
-288.590058
 20
198.907236
 30
0.0
 11
-279.194112
 21
198.907236
 31
0.0
  0
LINE
  5
108
330
27
100
AcDbEntity
  8
1
100
AcDbLine
 10
-301.694112
 20
195.907236
 30
0.0
 11
-290.019869
 21
195.907236
 31
0.0
  0
LINE
  5
109
330
27
100
AcDbEntity
  8
1
  6
DASHED
100
AcDbLine
 10
-290.019869
 20
195.907236
 30
0.0
 11
-279.194112
 21
195.907236
 31
0.0
  0
LINE
  5
10A
330
27
100
AcDbEntity
  8
1
100
AcDbLine
 10
-297.594112
 20
192.407236
 30
0.0
 11
-291.393159
 21
192.407236
 31
0.0
  0
LINE
  5
10B
330
27
100
AcDbEntity
  8
1
  6
DASHED
100
AcDbLine
 10
-291.393159
 20
192.407236
 30
0.0
 11
-279.194112
 21
192.407236
 31
0.0
  0
LINE
  5
10C
330
27
100
AcDbEntity
  8
1
100
AcDbLine
 10
-297.594112
 20
186.407236
 30
0.0
 11
-293.079182
 21
186.407236
 31
0.0
  0
LINE
  5
10D
330
27
100
AcDbEntity
  8
1
  6
DASHED
100
AcDbLine
 10
-293.079182
 20
186.407236
 30
0.0
 11
-279.194112
 21
186.407236
 31
0.0
  0
LINE
  5
10E
330
27
100
AcDbEntity
  8
1
100
AcDbLine
 10
-298.462176
 20
162.293652
 30
0.0
 11
-292.700237
 21
163.776456
 31
0.0
  0
LINE
  5
10F
330
27
100
AcDbEntity
  8
1
  6
DASHED
100
AcDbLine
 10
-292.700237
 20
163.776456
 30
0.0
 11
-290.412074
 21
164.365302
 31
0.0
  0
LINE
  5
110
330
27
100
AcDbEntity
  8
1
100
AcDbLine
 10
-298.462176
 20
161.907236
 30
0.0
 11
-292.194112
 21
161.907236
 31
0.0
  0
LINE
  5
111
330
27
100
AcDbEntity
  8
1
  6
DASHED
100
AcDbLine
 10
-292.194112
 20
161.907236
 30
0.0
 11
-289.497495
 21
161.907236
 31
0.0
  0
LINE
  5
112
330
27
100
AcDbEntity
  8
1
100
AcDbLine
 10
-301.694112
 20
155.907236
 30
0.0
 11
-290.019869
 21
155.907236
 31
0.0
  0
LINE
  5
113
330
27
100
AcDbEntity
  8
1
  6
DASHED
100
AcDbLine
 10
-290.019869
 20
155.907236
 30
0.0
 11
-279.194112
 21
155.907236
 31
0.0
  0
LINE
  5
114
330
27
100
AcDbEntity
  8
1
100
AcDbLine
 10
-297.694112
 20
152.907236
 30
0.0
 11
-288.590058
 21
152.907236
 31
0.0
  0
LINE
  5
115
330
27
100
AcDbEntity
  8
1
  6
DASHED
100
AcDbLine
 10
-288.590058
 20
152.907236
 30
0.0
 11
-279.194112
 21
152.907236
 31
0.0
  0
ARC
  5
116
330
27
100
AcDbEntity
  8
1
  6
DASHED
 62
     2
100
AcDbCircle
 10
-297.194112
 20
175.907236
 30
0.0
 40
4.187999999999999
100
AcDbArc
 50
317.355255
 51
42.644745
  0
ARC
  5
117
330
27
100
AcDbEntity
  8
1
 62
     2
100
AcDbCircle
 10
-297.194112
 20
175.907236
 30
0.0
 40
4.187999999999999
100
AcDbArc
 50
42.644745
 51
317.355255
  0
ARC
  5
118
330
27
100
AcDbEntity
  8
1
  6
DASHED
100
AcDbCircle
 10
-297.194112
 20
175.907236
 30
0.0
 40
5.0
100
AcDbArc
 50
309.064044
 51
50.935956
  0
ARC
  5
119
330
27
100
AcDbEntity
  8
1
100
AcDbCircle
 10
-297.194112
 20
175.907236
 30
0.0
 40
5.0
100
AcDbArc
 50
50.935956
 51
309.064044
  0
ARC
  5
11A
330
27
100
AcDbEntity
  8
1
  6
DASHED
100
AcDbCircle
 10
-182.862045
 20
188.573588
 30
0.0
 40
3.0
100
AcDbArc
 50
3.0
 51
15.632424
  0
ARC
  5
11B
330
27
100
AcDbEntity
  8
1
100
AcDbCircle
 10
-182.862045
 20
188.573588
 30
0.0
 40
3.0
100
AcDbArc
 50
15.632424
 51
75.0
  0
ARC
  5
11C
330
27
100
AcDbEntity
  8
1
  6
DASHED
100
AcDbCircle
 10
-184.40396
 20
188.572834
 30
0.0
 40
3.0
100
AcDbArc
 50
3.072881999999999
 51
16.382178
  0
ARC
  5
11D
330
27
100
AcDbEntity
  8
1
100
AcDbCircle
 10
-184.40396
 20
188.572834
 30
0.0
 40
3.0
100
AcDbArc
 50
16.382178
 51
75.0
  0
LINE
  5
11E
330
27
100
AcDbEntity
  8
1
100
AcDbLine
 10
-186.694112
 20
195.907236
 30
0.0
 11
-193.936215
 21
195.907236
 31
0.0
  0
LINE
  5
11F
330
27
100
AcDbEntity
  8
1
  6
DASHED
100
AcDbLine
 10
-193.936215
 20
195.907236
 30
0.0
 11
-209.194112
 21
195.907236
 31
0.0
  0
LINE
  5
120
330
27
100
AcDbEntity
  8
1
  6
DASHED
100
AcDbLine
 10
-188.424497
 20
191.457712
 30
0.0
 11
-188.424497
 21
192.698778
 31
0.0
  0
LINE
  5
121
330
27
100
AcDbEntity
  8
1
100
AcDbLine
 10
-188.424497
 20
192.698778
 30
0.0
 11
-188.424497
 21
195.907236
 31
0.0
  0
ARC
  5
122
330
27
100
AcDbEntity
  8
1
100
AcDbCircle
 10
-185.489327
 20
195.008197
 30
0.0
 40
2.93517
100
AcDbArc
 50
180.0
 51
233.56585
  0
ARC
  5
123
330
27
100
AcDbEntity
  8
1
  6
DASHED
100
AcDbCircle
 10
-185.489327
 20
195.008197
 30
0.0
 40
2.93517
100
AcDbArc
 50
233.56585
 51
250.702932
  0
ARC
  5
124
330
27
100
AcDbEntity
  8
1
100
AcDbCircle
 10
-185.489327
 20
195.008197
 30
0.0
 40
2.93517
100
AcDbArc
 50
250.702932
 51
255.0
  0
LINE
  5
125
330
27
100
AcDbEntity
  8
1
100
AcDbLine
 10
-237.194112
 20
2.964533
 30
0.0
 11
-237.194112
 21
11.364533
 31
0.0
  0
LINE
  5
126
330
27
100
AcDbEntity
  8
1
100
AcDbLine
 10
-251.194112
 20
2.964533
 30
0.0
 11
-251.194112
 21
11.364533
 31
0.0
  0
CIRCLE
  5
127
330
27
100
AcDbEntity
  8
1
100
AcDbCircle
 10
-244.194112
 20
-124.635467
 30
0.0
 40
53.5
  0
CIRCLE
  5
128
330
27
100
AcDbEntity
  8
1
100
AcDbCircle
 10
-244.194112
 20
-124.635467
 30
0.0
 40
38.5
  0
ARC
  5
129
330
27
100
AcDbEntity
  8
1
100
AcDbCircle
 10
-244.194112
 20
-124.635467
 30
0.0
 40
32.5
100
AcDbArc
 50
115.509861
 51
244.490139
  0
ARC
  5
12A
330
27
100
AcDbEntity
  8
1
100
AcDbCircle
 10
-244.194112
 20
-124.635467
 30
0.0
 40
32.5
100
AcDbArc
 50
295.509861
 51
64.490139
  0
ARC
  5
12B
330
27
100
AcDbEntity
  8
1
100
AcDbCircle
 10
-244.194112
 20
-124.635467
 30
0.0
 40
33.5
100
AcDbArc
 50
109.555584
 51
250.444416
  0
ARC
  5
12C
330
27
100
AcDbEntity
  8
1
100
AcDbCircle
 10
-244.194112
 20
-124.635467
 30
0.0
 40
33.5
100
AcDbArc
 50
289.555584
 51
70.444416
  0
LINE
  5
12D
330
27
100
AcDbEntity
  8
1
100
AcDbLine
 10
-230.197453
 20
-95.303854
 30
0.0
 11
-258.190771
 21
-95.303854
 31
0.0
  0
ARC
  5
12E
330
27
100
AcDbEntity
  8
1
100
AcDbCircle
 10
-244.194112
 20
-109.877059
 30
0.0
 40
20.206057
100
AcDbArc
 50
46.156083
 51
133.843917
  0
LINE
  5
12F
330
27
100
AcDbEntity
  8
1
100
AcDbLine
 10
-230.197453
 20
-153.967081
 30
0.0
 11
-258.190771
 21
-153.967081
 31
0.0
  0
ARC
  5
130
330
27
100
AcDbEntity
  8
1
100
AcDbCircle
 10
-244.194112
 20
-139.393876
 30
0.0
 40
20.206057
100
AcDbArc
 50
226.156083
 51
313.843917
  0
ARC
  5
131
330
27
100
AcDbEntity
  8
1
100
AcDbCircle
 10
-381.601359
 20
-124.635467
 30
0.0
 40
128.376468
100
AcDbArc
 50
349.467229
 51
10.532771
  0
LINE
  5
132
330
27
100
AcDbEntity
  8
1
100
AcDbLine
 10
-255.387968
 20
-153.967081
 30
0.0
 11
-255.387968
 21
-148.102414
 31
0.0
  0
LINE
  5
133
330
27
100
AcDbEntity
  8
1
100
AcDbLine
 10
-255.387968
 20
-101.168521
 30
0.0
 11
-255.387968
 21
-95.303854
 31
0.0
  0
ARC
  5
134
330
27
100
AcDbEntity
  8
1
100
AcDbCircle
 10
-244.194112
 20
-124.635467
 30
0.0
 40
31.551506
100
AcDbArc
 50
111.62088
 51
248.3791200000001
  0
ARC
  5
135
330
27
100
AcDbEntity
  8
1
100
AcDbCircle
 10
-244.194112
 20
-124.635467
 30
0.0
 40
31.551506
100
AcDbArc
 50
291.62088
 51
68.37912
  0
ARC
  5
136
330
27
100
AcDbEntity
  8
1
100
AcDbCircle
 10
-106.786866
 20
-124.635467
 30
0.0
 40
128.376468
100
AcDbArc
 50
169.467229
 51
190.532771
  0
LINE
  5
137
330
27
100
AcDbEntity
  8
1
100
AcDbLine
 10
-233.000256
 20
-101.168521
 30
0.0
 11
-233.000256
 21
-95.303854
 31
0.0
  0
LINE
  5
138
330
27
100
AcDbEntity
  8
1
100
AcDbLine
 10
-233.000256
 20
-153.967081
 30
0.0
 11
-233.000256
 21
-148.102414
 31
0.0
  0
ARC
  5
139
330
27
100
AcDbEntity
  8
1
100
AcDbCircle
 10
-244.194112
 20
-124.635467
 30
0.0
 40
26.0
100
AcDbArc
 50
115.501385
 51
244.498615
  0
ARC
  5
13A
330
27
100
AcDbEntity
  8
1
100
AcDbCircle
 10
-244.194112
 20
-124.635467
 30
0.0
 40
26.0
100
AcDbArc
 50
295.501385
 51
64.498615
  0
LINE
  5
13B
330
27
100
AcDbEntity
  8
1
100
AcDbLine
 10
45.968825
 20
-11.635467
 30
0.0
 11
107.968825
 21
-11.635467
 31
0.0
  0
LINE
  5
13C
330
27
100
AcDbEntity
  8
1
100
AcDbLine
 10
41.968825
 20
0.364533
 30
0.0
 11
41.968825
 21
-7.635467
 31
0.0
  0
LINE
  5
13D
330
27
100
AcDbEntity
  8
1
100
AcDbLine
 10
111.968825
 20
0.364533
 30
0.0
 11
111.968825
 21
-7.635467
 31
0.0
  0
ARC
  5
13E
330
27
100
AcDbEntity
  8
1
100
AcDbCircle
 10
45.968825
 20
-7.635467
 30
0.0
 40
4.0
100
AcDbArc
 50
180.0
 51
270.0
  0
ARC
  5
13F
330
27
100
AcDbEntity
  8
1
100
AcDbCircle
 10
107.968825
 20
-7.635467
 30
0.0
 40
4.0
100
AcDbArc
 50
270.0
 51
360.0
  0
ARC
  5
140
330
27
100
AcDbEntity
  8
1
100
AcDbCircle
 10
74.825968
 20
-27.878324
 30
0.0
 40
2.857143
100
AcDbArc
 50
180.0
 51
270.0
  0
ARC
  5
141
330
27
100
AcDbEntity
  8
1
100
AcDbCircle
 10
77.411682
 20
-24.89261
 30
0.0
 40
2.857143
100
AcDbArc
 50
0.0
 51
90.0
  0
ARC
  5
142
330
27
100
AcDbEntity
  8
1
100
AcDbCircle
 10
74.79739599999999
 20
-26.164039
 30
0.0
 40
1.428570999999999
100
AcDbArc
 50
90.0
 51
180.0
  0
ARC
  5
143
330
27
100
AcDbEntity
  8
1
100
AcDbCircle
 10
77.440253
 20
-26.606896
 30
0.0
 40
1.428570999999999
100
AcDbArc
 50
270.0
 51
0.0
  0
LINE
  5
144
330
27
100
AcDbEntity
  8
1
100
AcDbLine
 10
78.868825
 20
-34.135467
 30
0.0
 11
71.968825
 21
-33.835467
 31
0.0
  0
LINE
  5
145
330
27
100
AcDbEntity
  8
1
100
AcDbLine
 10
78.868825
 20
-38.835467
 30
0.0
 11
71.968825
 21
-39.135467
 31
0.0
  0
LINE
  5
146
330
27
100
AcDbEntity
  8
1
100
AcDbLine
 10
78.868825
 20
-34.135467
 30
0.0
 11
71.968825
 21
-35.421182
 31
0.0
  0
LINE
  5
147
330
27
100
AcDbEntity
  8
1
100
AcDbLine
 10
75.29739599999999
 20
-36.485467
 30
0.0
 11
80.26882500000001
 21
-37.41182
 31
0.0
  0
LINE
  5
148
330
27
100
AcDbEntity
  8
1
100
AcDbLine
 10
80.26882500000001
 20
-31.735467
 30
0.0
 11
80.26882500000001
 21
-35.559114
 31
0.0
  0
LINE
  5
149
330
27
100
AcDbEntity
  8
1
100
AcDbLine
 10
71.968825
 20
-35.421182
 30
0.0
 11
71.968825
 21
-37.549753
 31
0.0
  0
ARC
  5
14A
330
27
100
AcDbEntity
  8
1
100
AcDbCircle
 10
74.825968
 20
-48.078324
 30
0.0
 40
2.857143
100
AcDbArc
 50
180.0
 51
270.0
  0
ARC
  5
14B
330
27
100
AcDbEntity
  8
1
100
AcDbCircle
 10
74.79739599999999
 20
-46.806896
 30
0.0
 40
1.428570999999999
100
AcDbArc
 50
180.0
 51
270.0
  0
LINE
  5
14C
330
27
100
AcDbEntity
  8
1
100
AcDbLine
 10
77.440253
 20
-44.93546699999999
 30
0.0
 11
74.79739599999999
 21
-44.93546699999999
 31
0.0
  0
ARC
  5
14D
330
27
100
AcDbEntity
  8
1
100
AcDbCircle
 10
77.411682
 20
-45.09261
 30
0.0
 40
2.857143
100
AcDbArc
 50
0.0
 51
90.0
  0
LINE
  5
14E
330
27
100
AcDbEntity
  8
1
100
AcDbLine
 10
77.411682
 20
-42.23546699999999
 30
0.0
 11
74.825968
 21
-42.23546699999999
 31
0.0
  0
LINE
  5
14F
330
27
100
AcDbEntity
  8
1
100
AcDbLine
 10
71.968825
 20
-39.135467
 30
0.0
 11
71.968825
 21
-41.83546699999999
 31
0.0
  0
LINE
  5
150
330
27
100
AcDbEntity
  8
1
100
AcDbLine
 10
72.168825
 20
-51.635467
 30
0.0
 11
72.168825
 21
-58.135467
 31
0.0
  0
LINE
  5
151
330
27
100
AcDbEntity
  8
1
100
AcDbLine
 10
75.368825
 20
-54.335467
 30
0.0
 11
75.368825
 21
-58.135467
 31
0.0
  0
LINE
  5
152
330
27
100
AcDbEntity
  8
1
100
AcDbLine
 10
76.868825
 20
-54.335467
 30
0.0
 11
76.868825
 21
-58.135467
 31
0.0
  0
LINE
  5
153
330
27
100
AcDbEntity
  8
1
100
AcDbLine
 10
73.668825
 20
-54.335467
 30
0.0
 11
75.368825
 21
-54.335467
 31
0.0
  0
LINE
  5
154
330
27
100
AcDbEntity
  8
1
100
AcDbLine
 10
76.868825
 20
-54.335467
 30
0.0
 11
78.56882500000001
 21
-54.335467
 31
0.0
  0
LINE
  5
155
330
27
100
AcDbEntity
  8
1
100
AcDbLine
 10
78.56882500000001
 20
-18.635467
 30
0.0
 11
78.56882500000001
 21
-21.335467
 31
0.0
  0
LINE
  5
156
330
27
100
AcDbEntity
  8
1
100
AcDbLine
 10
76.868825
 20
-15.135467
 30
0.0
 11
81.96882499999999
 21
-25.635467
 31
0.0
  0
LINE
  5
157
330
27
100
AcDbEntity
  8
1
100
AcDbLine
 10
76.868825
 20
-15.135467
 30
0.0
 11
81.96882499999999
 21
-15.135467
 31
0.0
  0
LINE
  5
158
330
27
100
AcDbEntity
  8
1
100
AcDbLine
 10
78.56882500000001
 20
-21.335467
 30
0.0
 11
71.968825
 21
-21.335467
 31
0.0
  0
LINE
  5
159
330
27
100
AcDbEntity
  8
1
100
AcDbLine
 10
77.411682
 20
-22.035467
 30
0.0
 11
74.825968
 21
-22.035467
 31
0.0
  0
LINE
  5
15A
330
27
100
AcDbEntity
  8
1
100
AcDbLine
 10
77.411682
 20
-30.735467
 30
0.0
 11
74.825968
 21
-30.735467
 31
0.0
  0
LINE
  5
15B
330
27
100
AcDbEntity
  8
1
100
AcDbLine
 10
77.440253
 20
-24.735467
 30
0.0
 11
74.79739599999999
 21
-24.735467
 31
0.0
  0
LINE
  5
15C
330
27
100
AcDbEntity
  8
1
100
AcDbLine
 10
77.440253
 20
-28.035467
 30
0.0
 11
74.79739599999999
 21
-28.035467
 31
0.0
  0
ARC
  5
15D
330
27
100
AcDbEntity
  8
1
100
AcDbCircle
 10
74.825968
 20
-24.89261
 30
0.0
 40
2.857143
100
AcDbArc
 50
90.0
 51
180.0
  0
ARC
  5
15E
330
27
100
AcDbEntity
  8
1
100
AcDbCircle
 10
77.411682
 20
-27.878324
 30
0.0
 40
2.857143
100
AcDbArc
 50
270.0
 51
360.0
  0
ARC
  5
15F
330
27
100
AcDbEntity
  8
1
100
AcDbCircle
 10
74.79739599999999
 20
-26.606896
 30
0.0
 40
1.428570999999999
100
AcDbArc
 50
180.0
 51
270.0
  0
ARC
  5
160
330
27
100
AcDbEntity
  8
1
100
AcDbCircle
 10
77.440253
 20
-26.164039
 30
0.0
 40
1.428570999999999
100
AcDbArc
 50
360.0
 51
90.0
  0
LINE
  5
161
330
27
100
AcDbEntity
  8
1
100
AcDbLine
 10
71.968825
 20
-18.635467
 30
0.0
 11
71.968825
 21
-21.335467
 31
0.0
  0
LINE
  5
162
330
27
100
AcDbEntity
  8
1
100
AcDbLine
 10
80.26882500000001
 20
-31.735467
 30
0.0
 11
71.968825
 21
-31.135467
 31
0.0
  0
LINE
  5
163
330
27
100
AcDbEntity
  8
1
100
AcDbLine
 10
80.26882500000001
 20
-41.235467
 30
0.0
 11
71.968825
 21
-41.83546699999999
 31
0.0
  0
LINE
  5
164
330
27
100
AcDbEntity
  8
1
100
AcDbLine
 10
78.868825
 20
-38.835467
 30
0.0
 11
71.968825
 21
-37.549753
 31
0.0
  0
LINE
  5
165
330
27
100
AcDbEntity
  8
1
100
AcDbLine
 10
75.29739599999999
 20
-36.485467
 30
0.0
 11
80.26882500000001
 21
-35.559114
 31
0.0
  0
LINE
  5
166
330
27
100
AcDbEntity
  8
1
100
AcDbLine
 10
80.26882500000001
 20
-24.89261
 30
0.0
 11
80.26882500000001
 21
-27.878324
 31
0.0
  0
LINE
  5
167
330
27
100
AcDbEntity
  8
1
100
AcDbLine
 10
71.968825
 20
-24.89261
 30
0.0
 11
71.968825
 21
-27.878324
 31
0.0
  0
LINE
  5
168
330
27
100
AcDbEntity
  8
1
100
AcDbLine
 10
71.968825
 20
-31.135467
 30
0.0
 11
71.968825
 21
-33.835467
 31
0.0
  0
ARC
  5
169
330
27
100
AcDbEntity
  8
1
100
AcDbCircle
 10
74.825968
 20
-45.09261
 30
0.0
 40
2.857143
100
AcDbArc
 50
90.0
 51
180.0
  0
LINE
  5
16A
330
27
100
AcDbEntity
  8
1
100
AcDbLine
 10
77.440253
 20
-48.235467
 30
0.0
 11
74.79739599999999
 21
-48.235467
 31
0.0
  0
ARC
  5
16B
330
27
100
AcDbEntity
  8
1
100
AcDbCircle
 10
74.79739599999999
 20
-46.364039
 30
0.0
 40
1.428570999999999
100
AcDbArc
 50
90.0
 51
180.0
  0
ARC
  5
16C
330
27
100
AcDbEntity
  8
1
100
AcDbCircle
 10
77.440253
 20
-46.806896
 30
0.0
 40
1.428570999999999
100
AcDbArc
 50
270.0
 51
360.0
  0
ARC
  5
16D
330
27
100
AcDbEntity
  8
1
100
AcDbCircle
 10
77.440253
 20
-46.364039
 30
0.0
 40
1.428570999999999
100
AcDbArc
 50
0.0
 51
90.0
  0
ARC
  5
16E
330
27
100
AcDbEntity
  8
1
100
AcDbCircle
 10
77.411682
 20
-48.078324
 30
0.0
 40
2.857143
100
AcDbArc
 50
270.0
 51
360.0
  0
LINE
  5
16F
330
27
100
AcDbEntity
  8
1
100
AcDbLine
 10
77.411682
 20
-50.935467
 30
0.0
 11
74.825968
 21
-50.935467
 31
0.0
  0
LINE
  5
170
330
27
100
AcDbEntity
  8
1
100
AcDbLine
 10
78.868825
 20
-26.606896
 30
0.0
 11
78.868825
 21
-26.164039
 31
0.0
  0
LINE
  5
171
330
27
100
AcDbEntity
  8
1
100
AcDbLine
 10
73.368825
 20
-26.606896
 30
0.0
 11
73.368825
 21
-26.164039
 31
0.0
  0
LINE
  5
172
330
27
100
AcDbEntity
  8
1
100
AcDbLine
 10
78.868825
 20
-46.364039
 30
0.0
 11
78.868825
 21
-46.806896
 31
0.0
  0
LINE
  5
173
330
27
100
AcDbEntity
  8
1
100
AcDbLine
 10
80.26882500000001
 20
-37.41182
 30
0.0
 11
80.26882500000001
 21
-41.235467
 31
0.0
  0
LINE
  5
174
330
27
100
AcDbEntity
  8
1
100
AcDbLine
 10
80.26882500000001
 20
-45.09261
 30
0.0
 11
80.26882500000001
 21
-48.078324
 31
0.0
  0
LINE
  5
175
330
27
100
AcDbEntity
  8
1
100
AcDbLine
 10
71.968825
 20
-45.09261
 30
0.0
 11
71.968825
 21
-48.078324
 31
0.0
  0
LINE
  5
176
330
27
100
AcDbEntity
  8
1
100
AcDbLine
 10
80.06882500000001
 20
-51.635467
 30
0.0
 11
72.168825
 21
-51.635467
 31
0.0
  0
LINE
  5
177
330
27
100
AcDbEntity
  8
1
100
AcDbLine
 10
80.06882500000001
 20
-51.635467
 30
0.0
 11
80.06882500000001
 21
-58.135467
 31
0.0
  0
LINE
  5
178
330
27
100
AcDbEntity
  8
1
100
AcDbLine
 10
73.668825
 20
-54.335467
 30
0.0
 11
73.668825
 21
-58.135467
 31
0.0
  0
LINE
  5
179
330
27
100
AcDbEntity
  8
1
100
AcDbLine
 10
78.56882500000001
 20
-54.335467
 30
0.0
 11
78.56882500000001
 21
-58.135467
 31
0.0
  0
LINE
  5
17A
330
27
100
AcDbEntity
  8
1
100
AcDbLine
 10
78.56882500000001
 20
-58.135467
 30
0.0
 11
80.06882500000001
 21
-58.135467
 31
0.0
  0
LINE
  5
17B
330
27
100
AcDbEntity
  8
1
100
AcDbLine
 10
72.168825
 20
-58.135467
 30
0.0
 11
73.668825
 21
-58.135467
 31
0.0
  0
LINE
  5
17C
330
27
100
AcDbEntity
  8
1
100
AcDbLine
 10
75.368825
 20
-58.135467
 30
0.0
 11
76.868825
 21
-58.135467
 31
0.0
  0
LINE
  5
17D
330
27
100
AcDbEntity
  8
1
100
AcDbLine
 10
78.56882500000001
 20
-18.635467
 30
0.0
 11
71.968825
 21
-18.635467
 31
0.0
  0
LINE
  5
17E
330
27
100
AcDbEntity
  8
1
100
AcDbLine
 10
81.96882499999999
 20
-15.135467
 30
0.0
 11
81.96882499999999
 21
-25.635467
 31
0.0
  0
LINE
  5
17F
330
27
100
AcDbEntity
  8
1
100
AcDbLine
 10
73.368825
 20
-46.364039
 30
0.0
 11
73.368825
 21
-46.806896
 31
0.0
  0
LINE
  5
180
330
27
100
AcDbEntity
  8
1
  6
CENTER
 62
     2
100
AcDbLine
 10
37.753113
 20
-124.635467
 30
0.0
 11
114.223709
 21
-124.635467
 31
0.0
  0
LINE
  5
181
330
27
100
AcDbEntity
  8
1
  6
CENTER
 62
     2
100
AcDbLine
 10
101.717562
 20
8.731749
 30
0.0
 11
101.717562
 21
-17.658738
 31
0.0
  0
LINE
  5
182
330
27
100
AcDbEntity
  8
1
  6
CENTER
 62
     2
100
AcDbLine
 10
52.220088
 20
8.731749
 30
0.0
 11
52.220088
 21
-17.658738
 31
0.0
  0
LINE
  5
183
330
27
100
AcDbEntity
  8
1
100
AcDbLine
 10
57.968825
 20
-249.635467
 30
0.0
 11
95.96882499999999
 21
-249.635467
 31
0.0
  0
LINE
  5
184
330
27
100
AcDbEntity
  8
1
100
AcDbLine
 10
56.968825
 20
-67.13546700000001
 30
0.0
 11
56.968825
 21
-182.135467
 31
0.0
  0
LINE
  5
185
330
27
100
AcDbEntity
  8
1
100
AcDbLine
 10
96.968825
 20
-67.13546700000001
 30
0.0
 11
96.968825
 21
-182.135467
 31
0.0
  0
LINE
  5
186
330
27
100
AcDbEntity
  8
1
100
AcDbLine
 10
95.96882499999999
 20
-249.635467
 30
0.0
 11
95.96882499999999
 21
-181.170825
 31
0.0
  0
LINE
  5
187
330
27
100
AcDbEntity
  8
1
100
AcDbLine
 10
95.96882499999999
 20
-68.02766099999999
 30
0.0
 11
95.96882499999999
 21
-15.635467
 31
0.0
  0
LINE
  5
188
330
27
100
AcDbEntity
  8
1
100
AcDbLine
 10
57.968825
 20
-249.635467
 30
0.0
 11
57.968825
 21
-181.170825
 31
0.0
  0
LINE
  5
189
330
27
100
AcDbEntity
  8
1
100
AcDbLine
 10
57.968825
 20
-68.02766099999999
 30
0.0
 11
57.968825
 21
-19.717538
 31
0.0
  0
ARC
  5
18A
330
27
100
AcDbEntity
  8
1
100
AcDbCircle
 10
99.96882499999999
 20
-15.635467
 30
0.0
 40
4.0
100
AcDbArc
 50
90.0
 51
180.0
  0
LINE
  5
18B
330
27
100
AcDbEntity
  8
1
100
AcDbLine
 10
104.439074
 20
-14.916028
 30
0.0
 11
98.77959099999999
 21
-27.052829
 31
0.0
  0
LINE
  5
18C
330
27
100
AcDbEntity
  8
1
100
AcDbLine
 10
53.098209
 20
-22.635467
 30
0.0
 11
55.15805799999999
 21
-27.052829
 31
0.0
  0
ARC
  5
18D
330
27
100
AcDbEntity
  8
1
100
AcDbCircle
 10
27.968825
 20
-39.73137600000001
 30
0.0
 40
30.0
100
AcDbArc
 50
0.0
 51
25.0
  0
ARC
  5
18E
330
27
100
AcDbEntity
  8
1
100
AcDbCircle
 10
125.968825
 20
-39.73137600000001
 30
0.0
 40
30.0
100
AcDbArc
 50
155.0
 51
180.0
  0
ARC
  5
18F
330
27
100
AcDbEntity
  8
1
100
AcDbCircle
 10
109.876921
 20
-17.451738
 30
0.0
 40
6.0
100
AcDbArc
 50
101.000035
 51
155.0
  0
LINE
  5
190
330
27
100
AcDbEntity
  8
1
100
AcDbLine
 10
62.169825
 20
-110.635467
 30
0.0
 11
91.76782499999999
 21
-110.635467
 31
0.0
  0
LINE
  5
191
330
27
100
AcDbEntity
  8
1
100
AcDbLine
 10
61.968825
 20
-112.635467
 30
0.0
 11
61.968825
 21
-140.635467
 31
0.0
  0
LINE
  5
192
330
27
100
AcDbEntity
  8
1
100
AcDbLine
 10
91.96882499999999
 20
-112.635467
 30
0.0
 11
91.96882499999999
 21
-140.635467
 31
0.0
  0
ARC
  5
193
330
27
100
AcDbEntity
  8
1
100
AcDbCircle
 10
63.968825
 20
-112.635467
 30
0.0
 40
2.0
100
AcDbArc
 50
90.0
 51
180.0
  0
ARC
  5
194
330
27
100
AcDbEntity
  8
1
100
AcDbCircle
 10
63.968825
 20
-140.635467
 30
0.0
 40
2.0
100
AcDbArc
 50
180.0
 51
270.0
  0
ARC
  5
195
330
27
100
AcDbEntity
  8
1
100
AcDbCircle
 10
89.96882499999999
 20
-140.635467
 30
0.0
 40
2.0
100
AcDbArc
 50
270.0
 51
360.0
  0
ARC
  5
196
330
27
100
AcDbEntity
  8
1
100
AcDbCircle
 10
89.96882499999999
 20
-112.635467
 30
0.0
 40
2.0
100
AcDbArc
 50
0.0
 51
90.0
  0
LINE
  5
197
330
27
100
AcDbEntity
  8
1
100
AcDbLine
 10
68.868825
 20
-132.635467
 30
0.0
 11
85.06882500000001
 21
-132.635467
 31
0.0
  0
LINE
  5
198
330
27
100
AcDbEntity
  8
1
100
AcDbLine
 10
66.868825
 20
-134.635467
 30
0.0
 11
66.868825
 21
-140.635467
 31
0.0
  0
LINE
  5
199
330
27
100
AcDbEntity
  8
1
100
AcDbLine
 10
87.068825
 20
-134.635467
 30
0.0
 11
87.068825
 21
-140.635467
 31
0.0
  0
LINE
  5
19A
330
27
100
AcDbEntity
  8
1
100
AcDbLine
 10
63.968825
 20
-142.635467
 30
0.0
 11
64.868825
 21
-142.635467
 31
0.0
  0
LINE
  5
19B
330
27
100
AcDbEntity
  8
1
100
AcDbLine
 10
89.068825
 20
-142.635467
 30
0.0
 11
89.96882499999999
 21
-142.635467
 31
0.0
  0
ARC
  5
19C
330
27
100
AcDbEntity
  8
1
100
AcDbCircle
 10
89.068825
 20
-140.635467
 30
0.0
 40
2.0
100
AcDbArc
 50
180.0
 51
270.0
  0
ARC
  5
19D
330
27
100
AcDbEntity
  8
1
100
AcDbCircle
 10
85.06882500000001
 20
-134.635467
 30
0.0
 40
2.0
100
AcDbArc
 50
0.0
 51
90.0
  0
ARC
  5
19E
330
27
100
AcDbEntity
  8
1
100
AcDbCircle
 10
68.868825
 20
-134.635467
 30
0.0
 40
2.0
100
AcDbArc
 50
90.0
 51
180.0
  0
ARC
  5
19F
330
27
100
AcDbEntity
  8
1
100
AcDbCircle
 10
64.868825
 20
-140.635467
 30
0.0
 40
2.0
100
AcDbArc
 50
270.0
 51
360.0
  0
LINE
  5
1A0
330
27
100
AcDbEntity
  8
1
100
AcDbLine
 10
87.068825
 20
-140.635467
 30
0.0
 11
86.468825
 21
-144.645824
 31
0.0
  0
LINE
  5
1A1
330
27
100
AcDbEntity
  8
1
100
AcDbLine
 10
66.868825
 20
-140.635467
 30
0.0
 11
67.46882499999999
 21
-144.645824
 31
0.0
  0
ARC
  5
1A2
330
27
100
AcDbEntity
  8
1
100
AcDbCircle
 10
76.968825
 20
-112.078291
 30
0.0
 40
34.586821
100
AcDbArc
 50
255.4681910000001
 51
284.531809
  0
ARC
  5
1A3
330
27
100
AcDbEntity
  8
1
100
AcDbCircle
 10
68.569688
 20
-144.481121
 30
0.0
 40
1.113115999999999
100
AcDbArc
 50
188.509057
 51
255.4681910000001
  0
ARC
  5
1A4
330
27
100
AcDbEntity
  8
1
100
AcDbCircle
 10
85.36796200000001
 20
-144.481121
 30
0.0
 40
1.113115999999999
100
AcDbArc
 50
284.531809
 51
351.490943
  0
LINE
  5
1A5
330
27
100
AcDbEntity
  8
1
100
AcDbLine
 10
62.169825
 20
-144.436903
 30
0.0
 11
62.968825
 21
-144.436903
 31
0.0
  0
LINE
  5
1A6
330
27
100
AcDbEntity
  8
1
100
AcDbLine
 10
90.96882499999999
 20
-144.436903
 30
0.0
 11
91.76782499999999
 21
-144.436903
 31
0.0
  0
LINE
  5
1A7
330
27
100
AcDbEntity
  8
1
100
AcDbLine
 10
60.16982500000001
 20
-112.635467
 30
0.0
 11
60.16982500000001
 21
-142.436903
 31
0.0
  0
LINE
  5
1A8
330
27
100
AcDbEntity
  8
1
100
AcDbLine
 10
93.767825
 20
-112.635467
 30
0.0
 11
93.767825
 21
-142.436903
 31
0.0
  0
ARC
  5
1A9
330
27
100
AcDbEntity
  8
1
100
AcDbCircle
 10
91.76782499999999
 20
-112.635467
 30
0.0
 40
2.0
100
AcDbArc
 50
0.0
 51
90.0
  0
ARC
  5
1AA
330
27
100
AcDbEntity
  8
1
100
AcDbCircle
 10
62.169825
 20
-112.635467
 30
0.0
 40
2.0
100
AcDbArc
 50
90.0
 51
180.0
  0
ARC
  5
1AB
330
27
100
AcDbEntity
  8
1
100
AcDbCircle
 10
62.169825
 20
-142.436903
 30
0.0
 40
2.0
100
AcDbArc
 50
180.0
 51
270.0
  0
ARC
  5
1AC
330
27
100
AcDbEntity
  8
1
100
AcDbCircle
 10
91.76782499999999
 20
-142.436903
 30
0.0
 40
2.0
100
AcDbArc
 50
270.0
 51
360.0
  0
LINE
  5
1AD
330
27
100
AcDbEntity
  8
1
100
AcDbLine
 10
91.96882499999999
 20
-142.635467
 30
0.0
 11
92.611065
 21
-143.278577
 31
0.0
  0
LINE
  5
1AE
330
27
100
AcDbEntity
  8
1
100
AcDbLine
 10
61.968825
 20
-142.635467
 30
0.0
 11
61.32658499999999
 21
-143.278577
 31
0.0
  0
LINE
  5
1AF
330
27
100
AcDbEntity
  8
1
100
AcDbLine
 10
69.585825
 20
-147.984262
 30
0.0
 11
84.35182500000001
 21
-147.984262
 31
0.0
  0
LINE
  5
1B0
330
27
100
AcDbEntity
  8
1
100
AcDbLine
 10
66.585825
 20
-150.984262
 30
0.0
 11
66.585825
 21
-159.740585
 31
0.0
  0
LINE
  5
1B1
330
27
100
AcDbEntity
  8
1
100
AcDbLine
 10
87.351825
 20
-150.984262
 30
0.0
 11
87.351825
 21
-159.740585
 31
0.0
  0
ARC
  5
1B2
330
27
100
AcDbEntity
  8
1
100
AcDbCircle
 10
69.585825
 20
-150.984262
 30
0.0
 40
3.0
100
AcDbArc
 50
90.0
 51
180.0
  0
ARC
  5
1B3
330
27
100
AcDbEntity
  8
1
100
AcDbCircle
 10
69.585825
 20
-159.740585
 30
0.0
 40
3.0
100
AcDbArc
 50
180.0
 51
270.0
  0
ARC
  5
1B4
330
27
100
AcDbEntity
  8
1
100
AcDbCircle
 10
84.35182500000001
 20
-159.740585
 30
0.0
 40
3.0
100
AcDbArc
 50
270.0
 51
360.0
  0
ARC
  5
1B5
330
27
100
AcDbEntity
  8
1
100
AcDbCircle
 10
84.35182500000001
 20
-150.984262
 30
0.0
 40
3.0
100
AcDbArc
 50
0.0
 51
90.0
  0
ARC
  5
1B6
330
27
100
AcDbEntity
  8
1
100
AcDbCircle
 10
86.96882499999999
 20
-148.436903
 30
0.0
 40
4.0
100
AcDbArc
 50
0.0
 51
90.0
  0
ARC
  5
1B7
330
27
100
AcDbEntity
  8
1
100
AcDbCircle
 10
66.968825
 20
-148.436903
 30
0.0
 40
4.0
100
AcDbArc
 50
90.0
 51
180.0
  0
LINE
  5
1B8
330
27
100
AcDbEntity
  8
1
100
AcDbLine
 10
88.851165
 20
-146.51379
 30
0.0
 11
87.351825
 21
-147.984262
 31
0.0
  0
LINE
  5
1B9
330
27
100
AcDbEntity
  8
1
100
AcDbLine
 10
65.086484
 20
-146.51379
 30
0.0
 11
66.585825
 21
-147.984262
 31
0.0
  0
ARC
  5
1BA
330
27
100
AcDbEntity
  8
1
100
AcDbCircle
 10
65.96882499999999
 20
-175.114531
 30
0.0
 40
3.0
100
AcDbArc
 50
180.0
 51
270.0
  0
ARC
  5
1BB
330
27
100
AcDbEntity
  8
1
100
AcDbCircle
 10
87.968825
 20
-175.114531
 30
0.0
 40
3.0
100
AcDbArc
 50
270.0
 51
360.0
  0
LINE
  5
1BC
330
27
100
AcDbEntity
  8
1
100
AcDbLine
 10
87.351825
 20
-162.740585
 30
0.0
 11
90.26301999999999
 21
-175.114531
 31
0.0
  0
LINE
  5
1BD
330
27
100
AcDbEntity
  8
1
100
AcDbLine
 10
63.674629
 20
-175.114531
 30
0.0
 11
66.585825
 21
-162.740585
 31
0.0
  0
ARC
  5
1BE
330
27
100
AcDbEntity
  8
1
100
AcDbCircle
 10
98.968825
 20
-184.371535
 30
0.0
 40
3.0
100
AcDbArc
 50
131.810315
 51
180.0
  0
ARC
  5
1BF
330
27
100
AcDbEntity
  8
1
100
AcDbCircle
 10
54.968825
 20
-184.371535
 30
0.0
 40
3.0
100
AcDbArc
 50
0.0
 51
48.189685
  0
ARC
  5
1C0
330
27
100
AcDbEntity
  8
1
100
AcDbCircle
 10
98.968825
 20
-181.170825
 30
0.0
 40
3.0
100
AcDbArc
 50
131.810315
 51
180.0
  0
ARC
  5
1C1
330
27
100
AcDbEntity
  8
1
100
AcDbCircle
 10
54.968825
 20
-181.170825
 30
0.0
 40
3.0
100
AcDbArc
 50
0.0
 51
48.189685
  0
LINE
  5
1C2
330
27
100
AcDbEntity
  8
1
100
AcDbLine
 10
95.96882499999999
 20
-178.79295
 30
0.0
 11
89.228707
 21
-177.837157
 31
0.0
  0
LINE
  5
1C3
330
27
100
AcDbEntity
  8
1
100
AcDbLine
 10
57.968825
 20
-178.79295
 30
0.0
 11
64.70894300000001
 21
-177.837157
 31
0.0
  0
LINE
  5
1C4
330
27
100
AcDbEntity
  8
1
100
AcDbLine
 10
74.468825
 20
-155.458751
 30
0.0
 11
79.468825
 21
-155.458751
 31
0.0
  0
LINE
  5
1C5
330
27
100
AcDbEntity
  8
1
100
AcDbLine
 10
74.468825
 20
-157.458751
 30
0.0
 11
74.468825
 21
-235.374894
 31
0.0
  0
LINE
  5
1C6
330
27
100
AcDbEntity
  8
1
100
AcDbLine
 10
79.468825
 20
-157.458751
 30
0.0
 11
79.468825
 21
-235.374894
 31
0.0
  0
LINE
  5
1C7
330
27
100
AcDbEntity
  8
1
100
AcDbLine
 10
74.468825
 20
-237.374894
 30
0.0
 11
79.468825
 21
-237.374894
 31
0.0
  0
ARC
  5
1C8
330
27
100
AcDbEntity
  8
1
100
AcDbCircle
 10
81.468825
 20
-157.458751
 30
0.0
 40
2.0
100
AcDbArc
 50
90.0
 51
180.0
  0
ARC
  5
1C9
330
27
100
AcDbEntity
  8
1
100
AcDbCircle
 10
72.46882499999999
 20
-157.458751
 30
0.0
 40
2.0
100
AcDbArc
 50
0.0
 51
90.0
  0
ARC
  5
1CA
330
27
100
AcDbEntity
  8
1
100
AcDbCircle
 10
81.468825
 20
-235.374894
 30
0.0
 40
2.0
100
AcDbArc
 50
180.0
 51
270.0
  0
ARC
  5
1CB
330
27
100
AcDbEntity
  8
1
100
AcDbCircle
 10
72.46882499999999
 20
-235.374894
 30
0.0
 40
2.0
100
AcDbArc
 50
270.0
 51
360.0
  0
LINE
  5
1CC
330
27
100
AcDbEntity
  8
1
100
AcDbLine
 10
69.585825
 20
-162.740585
 30
0.0
 11
72.46882499999999
 21
-162.740585
 31
0.0
  0
LINE
  5
1CD
330
27
100
AcDbEntity
  8
1
100
AcDbLine
 10
81.468825
 20
-162.740585
 30
0.0
 11
84.35182500000001
 21
-162.740585
 31
0.0
  0
LINE
  5
1CE
330
27
100
AcDbEntity
  8
1
100
AcDbLine
 10
65.96882499999999
 20
-178.114531
 30
0.0
 11
74.468825
 21
-178.114531
 31
0.0
  0
LINE
  5
1CF
330
27
100
AcDbEntity
  8
1
100
AcDbLine
 10
79.468825
 20
-178.114531
 30
0.0
 11
87.968825
 21
-178.114531
 31
0.0
  0
LINE
  5
1D0
330
27
100
AcDbEntity
  8
1
100
AcDbLine
 10
76.468825
 20
-181.898923
 30
0.0
 11
77.46882499999999
 21
-181.898923
 31
0.0
  0
LINE
  5
1D1
330
27
100
AcDbEntity
  8
1
100
AcDbLine
 10
76.468825
 20
-190.396641
 30
0.0
 11
77.46882499999999
 21
-190.396641
 31
0.0
  0
ARC
  5
1D2
330
27
100
AcDbEntity
  8
1
100
AcDbCircle
 10
77.46882499999999
 20
-183.898923
 30
0.0
 40
2.0
100
AcDbArc
 50
0.0
 51
90.0
  0
ARC
  5
1D3
330
27
100
AcDbEntity
  8
1
100
AcDbCircle
 10
77.46882499999999
 20
-188.396641
 30
0.0
 40
2.0
100
AcDbArc
 50
270.0
 51
360.0
  0
ARC
  5
1D4
330
27
100
AcDbEntity
  8
1
100
AcDbCircle
 10
76.468825
 20
-188.396641
 30
0.0
 40
2.0
100
AcDbArc
 50
180.0
 51
270.0
  0
ARC
  5
1D5
330
27
100
AcDbEntity
  8
1
100
AcDbCircle
 10
76.468825
 20
-183.898923
 30
0.0
 40
2.0
100
AcDbArc
 50
90.0
 51
180.0
  0
LINE
  5
1D6
330
27
100
AcDbEntity
  8
1
100
AcDbLine
 10
75.46882499999999
 20
-203.663738
 30
0.0
 11
78.46882499999999
 21
-203.663738
 31
0.0
  0
LINE
  5
1D7
330
27
100
AcDbEntity
  8
1
100
AcDbLine
 10
75.46882499999999
 20
-231.896935
 30
0.0
 11
78.46882499999999
 21
-231.896935
 31
0.0
  0
ARC
  5
1D8
330
27
100
AcDbEntity
  8
1
100
AcDbCircle
 10
81.468825
 20
-164.740585
 30
0.0
 40
2.0
100
AcDbArc
 50
90.0
 51
180.0
  0
ARC
  5
1D9
330
27
100
AcDbEntity
  8
1
100
AcDbCircle
 10
72.46882499999999
 20
-164.740585
 30
0.0
 40
2.0
100
AcDbArc
 50
0.0
 51
90.0
  0
ARC
  5
1DA
330
27
100
AcDbEntity
  8
1
100
AcDbCircle
 10
98.968825
 20
-64.899399
 30
0.0
 40
3.0
100
AcDbArc
 50
180.0
 51
228.189685
  0
ARC
  5
1DB
330
27
100
AcDbEntity
  8
1
100
AcDbCircle
 10
54.968825
 20
-64.899399
 30
0.0
 40
3.0
100
AcDbArc
 50
311.810315
 51
360.0
  0
ARC
  5
1DC
330
27
100
AcDbEntity
  8
1
100
AcDbCircle
 10
36.412923
 20
-162.819233
 30
0.0
 40
27.493724
100
AcDbArc
 50
344.991981
 51
360.0
  0
ARC
  5
1DD
330
27
100
AcDbEntity
  8
1
100
AcDbCircle
 10
59.335188
 20
-162.819233
 30
0.0
 40
4.571458999999999
100
AcDbArc
 50
0.0
 51
37.35865
  0
ARC
  5
1DE
330
27
100
AcDbEntity
  8
1
100
AcDbCircle
 10
117.524727
 20
-162.819233
 30
0.0
 40
27.493724
100
AcDbArc
 50
180.0
 51
195.008019
  0
ARC
  5
1DF
330
27
100
AcDbEntity
  8
1
100
AcDbCircle
 10
94.602462
 20
-162.819233
 30
0.0
 40
4.571458999999999
100
AcDbArc
 50
142.64135
 51
180.0
  0
LINE
  5
1E0
330
27
100
AcDbEntity
  8
1
100
AcDbLine
 10
56.968825
 20
-160.045262
 30
0.0
 11
62.968825
 21
-160.045262
 31
0.0
  0
LINE
  5
1E1
330
27
100
AcDbEntity
  8
1
100
AcDbLine
 10
90.96882499999999
 20
-160.045262
 30
0.0
 11
96.968825
 21
-160.045262
 31
0.0
  0
LINE
  5
1E2
330
27
100
AcDbEntity
  8
1
100
AcDbLine
 10
56.968825
 20
-169.93885
 30
0.0
 11
62.968825
 21
-169.93885
 31
0.0
  0
LINE
  5
1E3
330
27
100
AcDbEntity
  8
1
100
AcDbLine
 10
90.96882499999999
 20
-169.93885
 30
0.0
 11
96.968825
 21
-169.93885
 31
0.0
  0
LINE
  5
1E4
330
27
100
AcDbEntity
  8
1
100
AcDbLine
 10
90.96882499999999
 20
-175.114531
 30
0.0
 11
90.96882499999999
 21
-169.93885
 31
0.0
  0
LINE
  5
1E5
330
27
100
AcDbEntity
  8
1
100
AcDbLine
 10
90.96882499999999
 20
-160.045262
 30
0.0
 11
90.96882499999999
 21
-148.436903
 31
0.0
  0
LINE
  5
1E6
330
27
100
AcDbEntity
  8
1
100
AcDbLine
 10
62.968825
 20
-175.114531
 30
0.0
 11
62.968825
 21
-169.93885
 31
0.0
  0
LINE
  5
1E7
330
27
100
AcDbEntity
  8
1
100
AcDbLine
 10
62.968825
 20
-160.045262
 30
0.0
 11
62.968825
 21
-148.436903
 31
0.0
  0
LINE
  5
1E8
330
27
100
AcDbEntity
  8
1
100
AcDbLine
 10
84.96882499999999
 20
-132.635467
 30
0.0
 11
84.96882499999999
 21
-142.035467
 31
0.0
  0
LINE
  5
1E9
330
27
100
AcDbEntity
  8
1
100
AcDbLine
 10
84.96882499999999
 20
-142.035467
 30
0.0
 11
83.929594
 21
-142.635467
 31
0.0
  0
LINE
  5
1EA
330
27
100
AcDbEntity
  8
1
100
AcDbLine
 10
84.96882499999999
 20
-142.035467
 30
0.0
 11
68.968825
 21
-142.035467
 31
0.0
  0
LINE
  5
1EB
330
27
100
AcDbEntity
  8
1
100
AcDbLine
 10
81.156825
 20
-107.635467
 30
0.0
 11
81.96882499999999
 21
-108.447467
 31
0.0
  0
LINE
  5
1EC
330
27
100
AcDbEntity
  8
1
100
AcDbLine
 10
81.96882499999999
 20
-108.447467
 30
0.0
 11
81.96882499999999
 21
-110.635467
 31
0.0
  0
LINE
  5
1ED
330
27
100
AcDbEntity
  8
1
100
AcDbLine
 10
81.96882499999999
 20
-108.447467
 30
0.0
 11
71.968825
 21
-108.447467
 31
0.0
  0
LINE
  5
1EE
330
27
100
AcDbEntity
  8
1
 62
     2
100
AcDbLine
 10
81.156825
 20
-107.635467
 30
0.0
 11
81.156825
 21
-110.635467
 31
0.0
  0
LINE
  5
1EF
330
27
100
AcDbEntity
  8
1
100
AcDbLine
 10
68.968825
 20
-132.635467
 30
0.0
 11
68.968825
 21
-142.035467
 31
0.0
  0
LINE
  5
1F0
330
27
100
AcDbEntity
  8
1
100
AcDbLine
 10
68.968825
 20
-142.035467
 30
0.0
 11
70.008055
 21
-142.635467
 31
0.0
  0
LINE
  5
1F1
330
27
100
AcDbEntity
  8
1
100
AcDbLine
 10
70.008055
 20
-142.635467
 30
0.0
 11
83.929594
 21
-142.635467
 31
0.0
  0
LINE
  5
1F2
330
27
100
AcDbEntity
  8
1
100
AcDbLine
 10
72.780825
 20
-107.635467
 30
0.0
 11
81.156825
 21
-107.635467
 31
0.0
  0
LINE
  5
1F3
330
27
100
AcDbEntity
  8
1
100
AcDbLine
 10
72.780825
 20
-107.635467
 30
0.0
 11
71.968825
 21
-108.447467
 31
0.0
  0
LINE
  5
1F4
330
27
100
AcDbEntity
  8
1
100
AcDbLine
 10
71.968825
 20
-108.447467
 30
0.0
 11
71.968825
 21
-110.635467
 31
0.0
  0
LINE
  5
1F5
330
27
100
AcDbEntity
  8
1
 62
     2
100
AcDbLine
 10
72.780825
 20
-107.635467
 30
0.0
 11
72.780825
 21
-110.635467
 31
0.0
  0
LINE
  5
1F6
330
27
100
AcDbEntity
  8
1
100
AcDbLine
 10
69.585825
 20
-86.53035
 30
0.0
 11
84.35182500000001
 21
-86.53035
 31
0.0
  0
LINE
  5
1F7
330
27
100
AcDbEntity
  8
1
100
AcDbLine
 10
66.585825
 20
-107.635467
 30
0.0
 11
66.585825
 21
-89.53034999999999
 31
0.0
  0
ARC
  5
1F8
330
27
100
AcDbEntity
  8
1
100
AcDbCircle
 10
84.35182500000001
 20
-89.53034999999999
 30
0.0
 40
3.0
100
AcDbArc
 50
0.0
 51
90.0
  0
ARC
  5
1F9
330
27
100
AcDbEntity
  8
1
100
AcDbCircle
 10
69.585825
 20
-89.53034999999999
 30
0.0
 40
3.0
100
AcDbArc
 50
90.0
 51
180.0
  0
ARC
  5
1FA
330
27
100
AcDbEntity
  8
1
100
AcDbCircle
 10
84.35182500000001
 20
-107.635467
 30
0.0
 40
3.0
100
AcDbArc
 50
270.0
 51
360.0
  0
ARC
  5
1FB
330
27
100
AcDbEntity
  8
1
100
AcDbCircle
 10
69.585825
 20
-107.635467
 30
0.0
 40
3.0
100
AcDbArc
 50
180.0
 51
270.0
  0
LINE
  5
1FC
330
27
100
AcDbEntity
  8
1
100
AcDbLine
 10
86.26693399999998
 20
-15.870531
 30
0.0
 11
87.055392
 21
-29.264261
 31
0.0
  0
ARC
  5
1FD
330
27
100
AcDbEntity
  8
1
100
AcDbCircle
 10
90.26002099999999
 20
-15.635467
 30
0.0
 40
4.0
100
AcDbArc
 50
90.0
 51
183.368985
  0
LINE
  5
1FE
330
27
100
AcDbEntity
  8
1
100
AcDbLine
 10
67.670716
 20
-15.870531
 30
0.0
 11
64.462744
 21
-70.365091
 31
0.0
  0
ARC
  5
1FF
330
27
100
AcDbEntity
  8
1
100
AcDbCircle
 10
63.677629
 20
-15.635467
 30
0.0
 40
4.0
100
AcDbArc
 50
356.631015
 51
90.0
  0
ARC
  5
200
330
27
100
AcDbEntity
  8
1
100
AcDbCircle
 10
54.968825
 20
-68.02766099999999
 30
0.0
 40
3.0
100
AcDbArc
 50
311.810315
 51
360.0
  0
ARC
  5
201
330
27
100
AcDbEntity
  8
1
100
AcDbCircle
 10
98.968825
 20
-68.02766099999999
 30
0.0
 40
3.0
100
AcDbArc
 50
180.0
 51
228.189685
  0
LINE
  5
202
330
27
100
AcDbEntity
  8
1
100
AcDbLine
 10
95.96882499999999
 20
-70.804676
 30
0.0
 11
93.46882499999999
 21
-72.15704399999999
 31
0.0
  0
ARC
  5
203
330
27
100
AcDbEntity
  8
1
100
AcDbCircle
 10
66.968825
 20
-106.635467
 30
0.0
 40
4.0
100
AcDbArc
 50
180.0
 51
270.0
  0
LINE
  5
204
330
27
100
AcDbEntity
  8
1
100
AcDbLine
 10
65.96882499999999
 20
-71.15640400000001
 30
0.0
 11
85.468825
 21
-71.15640400000001
 31
0.0
  0
ARC
  5
205
330
27
100
AcDbEntity
  8
1
100
AcDbCircle
 10
65.96882499999999
 20
-74.156404
 30
0.0
 40
3.0
100
AcDbArc
 50
90.0
 51
180.0
  0
ARC
  5
206
330
27
100
AcDbEntity
  8
1
100
AcDbCircle
 10
86.96882499999999
 20
-106.635467
 30
0.0
 40
4.0
100
AcDbArc
 50
270.0
 51
0.0
  0
LINE
  5
207
330
27
100
AcDbEntity
  8
1
100
AcDbLine
 10
90.96882499999999
 20
-106.635467
 30
0.0
 11
90.96882499999999
 21
-89.225673
 31
0.0
  0
ARC
  5
208
330
27
100
AcDbEntity
  8
1
100
AcDbCircle
 10
61.46792900000001
 20
-70.188793
 30
0.0
 40
3.0
100
AcDbArc
 50
318.603314
 51
356.631015
  0
LINE
  5
209
330
27
100
AcDbEntity
  8
1
100
AcDbLine
 10
57.968825
 20
-70.804676
 30
0.0
 11
61.513804
 21
-72.722323
 31
0.0
  0
ARC
  5
20A
330
27
100
AcDbEntity
  8
1
100
AcDbCircle
 10
36.412923
 20
-86.45170099999999
 30
0.0
 40
27.493724
100
AcDbArc
 50
0.0
 51
15.008019
  0
ARC
  5
20B
330
27
100
AcDbEntity
  8
1
100
AcDbCircle
 10
59.335188
 20
-86.45170099999999
 30
0.0
 40
4.571458999999999
100
AcDbArc
 50
322.64135
 51
360.0
  0
ARC
  5
20C
330
27
100
AcDbEntity
  8
1
100
AcDbCircle
 10
94.602462
 20
-86.45170099999999
 30
0.0
 40
4.571458999999999
100
AcDbArc
 50
180.0
 51
217.35865
  0
LINE
  5
20D
330
27
100
AcDbEntity
  8
1
100
AcDbLine
 10
56.968825
 20
-89.225673
 30
0.0
 11
62.968825
 21
-89.225673
 31
0.0
  0
LINE
  5
20E
330
27
100
AcDbEntity
  8
1
100
AcDbLine
 10
90.96882499999999
 20
-89.225673
 30
0.0
 11
96.968825
 21
-89.225673
 31
0.0
  0
LINE
  5
20F
330
27
100
AcDbEntity
  8
1
100
AcDbLine
 10
56.968825
 20
-79.33208499999999
 30
0.0
 11
62.968825
 21
-79.33208499999999
 31
0.0
  0
LINE
  5
210
330
27
100
AcDbEntity
  8
1
100
AcDbLine
 10
92.968825
 20
-79.33208499999999
 30
0.0
 11
96.968825
 21
-79.33208499999999
 31
0.0
  0
LINE
  5
211
330
27
100
AcDbEntity
  8
1
100
AcDbLine
 10
62.968825
 20
-106.635467
 30
0.0
 11
62.968825
 21
-89.225673
 31
0.0
  0
LINE
  5
212
330
27
100
AcDbEntity
  8
1
100
AcDbLine
 10
62.968825
 20
-79.33208499999999
 30
0.0
 11
62.968825
 21
-74.156404
 31
0.0
  0
ARC
  5
213
330
27
100
AcDbEntity
  8
1
100
AcDbCircle
 10
92.968825
 20
-81.332085
 30
0.0
 40
2.0
100
AcDbArc
 50
90.0
 51
159.239049
  0
ARC
  5
214
330
27
100
AcDbEntity
  8
1
100
AcDbCircle
 10
106.47403
 20
-86.45170099999999
 30
0.0
 40
16.443027
100
AcDbArc
 50
159.239049
 51
180.0
  0
ARC
  5
215
330
27
100
AcDbEntity
  8
1
100
AcDbCircle
 10
95.468825
 20
-77.33208499999999
 30
0.0
 40
2.0
100
AcDbArc
 50
180.0
 51
270.0
  0
LINE
  5
216
330
27
100
AcDbEntity
  8
1
100
AcDbLine
 10
87.351825
 20
-107.635467
 30
0.0
 11
87.351825
 21
-93.81218299999998
 31
0.0
  0
LINE
  5
217
330
27
100
AcDbEntity
  8
1
100
AcDbLine
 10
87.351825
 20
-92.486209
 30
0.0
 11
87.351825
 21
-89.53034999999999
 31
0.0
  0
LINE
  5
218
330
27
100
AcDbEntity
  8
1
100
AcDbLine
 10
90.64632900000001
 20
-80.62314499999999
 30
0.0
 11
87.56212899999999
 21
-92.970264
 31
0.0
  0
LINE
  5
219
330
27
100
AcDbEntity
  8
1
100
AcDbLine
 10
89.46882499999999
 20
-53.09007600000001
 30
0.0
 11
91.468825
 21
-53.09007600000001
 31
0.0
  0
LINE
  5
21A
330
27
100
AcDbEntity
  8
1
100
AcDbLine
 10
89.46882499999999
 20
-63.939263
 30
0.0
 11
91.468825
 21
-63.939263
 31
0.0
  0
ARC
  5
21B
330
27
100
AcDbEntity
  8
1
100
AcDbCircle
 10
91.468825
 20
-55.090076
 30
0.0
 40
2.0
100
AcDbArc
 50
0.0
 51
90.0
  0
ARC
  5
21C
330
27
100
AcDbEntity
  8
1
100
AcDbCircle
 10
89.46882499999999
 20
-55.090076
 30
0.0
 40
2.0
100
AcDbArc
 50
90.0
 51
180.0
  0
ARC
  5
21D
330
27
100
AcDbEntity
  8
1
100
AcDbCircle
 10
89.46882499999999
 20
-61.93926300000001
 30
0.0
 40
2.0
100
AcDbArc
 50
180.0
 51
270.0
  0
ARC
  5
21E
330
27
100
AcDbEntity
  8
1
100
AcDbCircle
 10
91.468825
 20
-61.93926300000001
 30
0.0
 40
2.0
100
AcDbArc
 50
270.0
 51
360.0
  0
LINE
  5
21F
330
27
100
AcDbEntity
  8
1
100
AcDbLine
 10
93.46882499999999
 20
-31.264261
 30
0.0
 11
93.46882499999999
 21
-77.33208499999999
 31
0.0
  0
LINE
  5
220
330
27
100
AcDbEntity
  8
1
100
AcDbLine
 10
87.46882499999999
 20
-31.264261
 30
0.0
 11
87.46882499999999
 21
-91.81218299999999
 31
0.0
  0
LINE
  5
221
330
27
100
AcDbEntity
  8
1
100
AcDbLine
 10
87.46882499999999
 20
-29.264261
 30
0.0
 11
93.46882499999999
 21
-29.264261
 31
0.0
  0
ARC
  5
222
330
27
100
AcDbEntity
  8
1
100
AcDbCircle
 10
95.468825
 20
-31.264261
 30
0.0
 40
2.0
100
AcDbArc
 50
90.0
 51
180.0
  0
ARC
  5
223
330
27
100
AcDbEntity
  8
1
100
AcDbCircle
 10
85.468825
 20
-31.264261
 30
0.0
 40
2.0
100
AcDbArc
 50
0.0
 51
90.0
  0
ARC
  5
224
330
27
100
AcDbEntity
  8
1
100
AcDbCircle
 10
85.468825
 20
-91.81218299999999
 30
0.0
 40
2.0
100
AcDbArc
 50
270.0
 51
360.0
  0
LINE
  5
225
330
27
100
AcDbEntity
  8
1
100
AcDbLine
 10
63.674629
 20
-74.156404
 30
0.0
 11
66.585825
 21
-86.53035
 31
0.0
  0
ARC
  5
226
330
27
100
AcDbEntity
  8
1
100
AcDbCircle
 10
85.468825
 20
-69.156404
 30
0.0
 40
2.0
100
AcDbArc
 50
270.0
 51
360.0
  0
LINE
  5
227
330
27
100
AcDbEntity
  8
1
100
AcDbLine
 10
96.968825
 20
-124.635467
 30
0.0
 11
56.968825
 21
-124.635467
 31
0.0
  0
LINE
  5
228
330
27
100
AcDbEntity
  8
1
100
AcDbLine
 10
53.968825
 20
-71.135467
 30
0.0
 11
53.968825
 21
-178.135467
 31
0.0
  0
LINE
  5
229
330
27
100
AcDbEntity
  8
1
100
AcDbLine
 10
99.96882499999999
 20
-71.135467
 30
0.0
 11
99.96882499999999
 21
-178.135467
 31
0.0
  0
LINE
  5
22A
330
27
100
AcDbEntity
  8
1
100
AcDbLine
 10
53.968825
 20
-71.135467
 30
0.0
 11
56.968825
 21
-71.135467
 31
0.0
  0
LINE
  5
22B
330
27
100
AcDbEntity
  8
1
100
AcDbLine
 10
96.968825
 20
-71.135467
 30
0.0
 11
99.96882499999999
 21
-71.135467
 31
0.0
  0
LINE
  5
22C
330
27
100
AcDbEntity
  8
1
100
AcDbLine
 10
53.968825
 20
-178.135467
 30
0.0
 11
56.968825
 21
-178.135467
 31
0.0
  0
LINE
  5
22D
330
27
100
AcDbEntity
  8
1
100
AcDbLine
 10
96.968825
 20
-178.135467
 30
0.0
 11
99.96882499999999
 21
-178.135467
 31
0.0
  0
LINE
  5
22E
330
27
100
AcDbEntity
  8
1
100
AcDbLine
 10
76.468825
 20
-234.505181
 30
0.0
 11
77.46882499999999
 21
-234.505181
 31
0.0
  0
ARC
  5
22F
330
27
100
AcDbEntity
  8
1
100
AcDbCircle
 10
77.46882499999999
 20
-232.505181
 30
0.0
 40
2.0
100
AcDbArc
 50
270.0
 51
360.0
  0
ARC
  5
230
330
27
100
AcDbEntity
  8
1
100
AcDbCircle
 10
76.468825
 20
-232.505181
 30
0.0
 40
2.0
100
AcDbArc
 50
180.0
 51
270.0
  0
LINE
  5
231
330
27
100
AcDbEntity
  8
1
  6
CENTER
 62
     2
100
AcDbLine
 10
76.968825
 20
73.822174
 30
0.0
 11
76.968825
 21
-257.01619
 31
0.0
  0
LINE
  5
232
330
27
100
AcDbEntity
  8
1
100
AcDbLine
 10
41.968825
 20
0.364533
 30
0.0
 11
71.06882500000001
 21
0.364533
 31
0.0
  0
LINE
  5
233
330
27
100
AcDbEntity
  8
1
100
AcDbLine
 10
82.868825
 20
0.364533
 30
0.0
 11
111.968825
 21
0.364533
 31
0.0
  0
LINE
  5
234
330
27
100
AcDbEntity
  8
2
  6
CENTER
 62
     2
100
AcDbLine
 10
-244.194112
 20
119.857559
 30
0.0
 11
-244.194112
 21
243.004042
 31
0.0
  0
LINE
  5
235
330
27
100
AcDbEntity
  8
2
  6
CENTER
 62
     2
100
AcDbLine
 10
-322.184192
 20
175.907236
 30
0.0
 11
-34.623142
 21
175.907236
 31
0.0
  0
ARC
  5
236
330
27
100
AcDbEntity
  8
2
100
AcDbCircle
 10
-279.194112
 20
175.907236
 30
0.0
 40
2.0
100
AcDbArc
 50
111.803748
 51
248.196252
  0
LINE
  5
237
330
27
100
AcDbEntity
  8
2
100
AcDbLine
 10
-279.936969
 20
177.764159
 30
0.0
 11
-249.76554
 21
189.834159
 31
0.0
  0
LINE
  5
238
330
27
100
AcDbEntity
  8
2
100
AcDbLine
 10
-279.936969
 20
174.050313
 30
0.0
 11
-251.451255
 21
162.654679
 31
0.0
  0
LINE
  5
239
330
27
100
AcDbEntity
  8
2
100
AcDbLine
 10
-249.194112
 20
158.907236
 30
0.0
 11
-239.194112
 21
158.907236
 31
0.0
  0
ARC
  5
23A
330
27
100
AcDbEntity
  8
2
100
AcDbCircle
 10
-244.194112
 20
175.907236
 30
0.0
 40
15.0
100
AcDbArc
 50
298.072487
 51
241.927513
  0
LINE
  5
23B
330
27
100
AcDbEntity
  8
2
100
AcDbLine
 10
-250.194112
 20
159.907236
 30
0.0
 11
-250.194112
 21
163.258125
 31
0.0
  0
LINE
  5
23C
330
27
100
AcDbEntity
  8
2
100
AcDbLine
 10
-238.194112
 20
159.907236
 30
0.0
 11
-238.194112
 21
163.258125
 31
0.0
  0
ARC
  5
23D
330
27
100
AcDbEntity
  8
2
100
AcDbCircle
 10
-249.194112
 20
159.907236
 30
0.0
 40
1.0
100
AcDbArc
 50
180.0
 51
270.0
  0
ARC
  5
23E
330
27
100
AcDbEntity
  8
2
100
AcDbCircle
 10
-252.194112
 20
160.797755
 30
0.0
 40
2.0
100
AcDbArc
 50
0.0
 51
68.196252
  0
ARC
  5
23F
330
27
100
AcDbEntity
  8
2
100
AcDbCircle
 10
-236.194112
 20
160.907236
 30
0.0
 40
2.0
100
AcDbArc
 50
118.072487
 51
180.0
  0
ARC
  5
240
330
27
100
AcDbEntity
  8
2
100
AcDbCircle
 10
-252.194112
 20
160.907236
 30
0.0
 40
2.0
100
AcDbArc
 50
0.0
 51
61.92751300000001
  0
LINE
  5
241
330
27
100
AcDbEntity
  8
2
100
AcDbLine
 10
-243.799375
 20
190.902041
 30
0.0
 11
-53.930954
 21
185.903773
 31
0.0
  0
ARC
  5
242
330
27
100
AcDbEntity
  8
2
100
AcDbCircle
 10
-149.694112
 20
162.407236
 30
0.0
 40
0.5
100
AcDbArc
 50
270.0
 51
360.0
  0
ARC
  5
243
330
27
100
AcDbEntity
  8
2
100
AcDbCircle
 10
-158.694112
 20
162.407236
 30
0.0
 40
0.5
100
AcDbArc
 50
167.306936
 51
270.0
  0
LINE
  5
244
330
27
100
AcDbEntity
  8
2
100
AcDbLine
 10
-158.694112
 20
161.907236
 30
0.0
 11
-149.694112
 21
161.907236
 31
0.0
  0
LINE
  5
245
330
27
100
AcDbEntity
  8
2
100
AcDbLine
 10
-149.194112
 20
162.407236
 30
0.0
 11
-149.194112
 21
162.915895
 31
0.0
  0
ARC
  5
246
330
27
100
AcDbEntity
  8
2
100
AcDbCircle
 10
-159.669673
 20
162.626964
 30
0.0
 40
0.5
100
AcDbArc
 50
347.306936
 51
91.507958
  0
ARC
  5
247
330
27
100
AcDbEntity
  8
2
100
AcDbCircle
 10
-148.694112
 20
162.915895
 30
0.0
 40
0.5
100
AcDbArc
 50
91.507958
 51
180.0
  0
LINE
  5
248
330
27
100
AcDbEntity
  8
2
100
AcDbLine
 10
-236.354862
 20
161.108407
 30
0.0
 11
-53.930954
 21
165.910699
 31
0.0
  0
ARC
  5
249
330
27
100
AcDbEntity
  8
2
100
AcDbCircle
 10
-148.694112
 20
188.898577
 30
0.0
 40
0.5
100
AcDbArc
 50
180.0
 51
268.492042
  0
ARC
  5
24A
330
27
100
AcDbEntity
  8
2
100
AcDbCircle
 10
-159.669673
 20
189.187508
 30
0.0
 40
0.5
100
AcDbArc
 50
268.492042
 51
12.693064
  0
LINE
  5
24B
330
27
100
AcDbEntity
  8
2
100
AcDbLine
 10
-149.194112
 20
189.407236
 30
0.0
 11
-149.194112
 21
188.898577
 31
0.0
  0
LINE
  5
24C
330
27
100
AcDbEntity
  8
2
100
AcDbLine
 10
-158.694112
 20
189.907236
 30
0.0
 11
-149.694112
 21
189.907236
 31
0.0
  0
ARC
  5
24D
330
27
100
AcDbEntity
  8
2
100
AcDbCircle
 10
-158.694112
 20
189.407236
 30
0.0
 40
0.5
100
AcDbArc
 50
90.0
 51
192.693064
  0
ARC
  5
24E
330
27
100
AcDbEntity
  8
2
100
AcDbCircle
 10
-149.694112
 20
189.407236
 30
0.0
 40
0.5
100
AcDbArc
 50
0.0
 51
90.0
  0
ARC
  5
24F
330
27
100
AcDbEntity
  8
2
100
AcDbCircle
 10
-236.30223
 20
159.1091
 30
0.0
 40
2.0
100
AcDbArc
 50
91.507958
 51
164.570915
  0
ARC
  5
250
330
27
100
AcDbEntity
  8
2
100
AcDbCircle
 10
-239.194112
 20
159.907236
 30
0.0
 40
1.0
100
AcDbArc
 50
270.0
 51
360.0
  0
LINE
  5
251
330
27
100
AcDbEntity
  8
2
  6
CENTER
 62
     2
100
AcDbLine
 10
-154.194112
 20
193.499263
 30
0.0
 11
-154.194112
 21
158.17605
 31
0.0
  0
LINE
  5
252
330
27
100
AcDbEntity
  8
2
100
AcDbLine
 10
-241.697055
 20
181.540947
 30
0.0
 11
-238.007768
 21
181.540947
 31
0.0
  0
LINE
  5
253
330
27
100
AcDbEntity
  8
2
100
AcDbLine
 10
-237.960981
 20
181.342753
 30
0.0
 11
-241.580087
 21
179.5332
 31
0.0
  0
CIRCLE
  5
254
330
27
100
AcDbEntity
  8
2
100
AcDbCircle
 10
-244.194112
 20
175.907236
 30
0.0
 40
14.0
  0
LINE
  5
255
330
27
100
AcDbEntity
  8
2
100
AcDbLine
 10
-242.302681
 20
179.145748
 30
0.0
 11
-245.921788
 21
177.336195
 31
0.0
  0
LINE
  5
256
330
27
100
AcDbEntity
  8
2
100
AcDbLine
 10
-246.300304
 20
177.570131
 30
0.0
 11
-246.300304
 21
179.082394
 31
0.0
  0
LINE
  5
257
330
27
100
AcDbEntity
  8
2
100
AcDbLine
 10
-246.644381
 20
179.145748
 30
0.0
 11
-250.344714
 21
177.295582
 31
0.0
  0
LINE
  5
258
330
27
100
AcDbEntity
  8
2
100
AcDbLine
 10
-250.642004
 20
175.373126
 30
0.0
 11
-250.642004
 21
181.279399
 31
0.0
  0
LINE
  5
259
330
27
100
AcDbEntity
  8
2
100
AcDbLine
 10
-246.644381
 20
176.948743
 30
0.0
 11
-250.263488
 21
175.1391899999999
 31
0.0
  0
LINE
  5
25A
330
27
100
AcDbEntity
  8
2
100
AcDbLine
 10
-250.309623
 20
177.146937
 30
0.0
 11
-246.691168
 21
177.146937
 31
0.0
  0
ARC
  5
25B
330
27
100
AcDbEntity
  8
2
100
AcDbCircle
 10
-250.380456
 20
175.373126
 30
0.0
 40
0.261548
100
AcDbArc
 50
180.0
 51
296.565051
  0
ARC
  5
25C
330
27
100
AcDbEntity
  8
2
100
AcDbCircle
 10
-250.309623
 20
177.225401
 30
0.0
 40
0.078464
100
AcDbArc
 50
116.565051
 51
270.0
  0
LINE
  5
25D
330
27
100
AcDbEntity
  8
2
100
AcDbLine
 10
-246.143375
 20
168.803549
 30
0.0
 11
-242.409965
 21
168.803549
 31
0.0
  0
LINE
  5
25E
330
27
100
AcDbEntity
  8
2
100
AcDbLine
 10
-246.143375
 20
177.146937
 30
0.0
 11
-242.409965
 21
177.146937
 31
0.0
  0
LINE
  5
25F
330
27
100
AcDbEntity
  8
2
100
AcDbLine
 10
-246.300304
 20
176.990008
 30
0.0
 11
-246.300304
 21
168.960478
 31
0.0
  0
ARC
  5
260
330
27
100
AcDbEntity
  8
2
100
AcDbCircle
 10
-246.143375
 20
168.960478
 30
0.0
 40
0.156929
100
AcDbArc
 50
180.0
 51
270.0
  0
ARC
  5
261
330
27
100
AcDbEntity
  8
2
100
AcDbCircle
 10
-246.038755
 20
177.570131
 30
0.0
 40
0.261548
100
AcDbArc
 50
180.0
 51
296.565051
  0
ARC
  5
262
330
27
100
AcDbEntity
  8
2
100
AcDbCircle
 10
-246.143375
 20
176.990008
 30
0.0
 40
0.156929
100
AcDbArc
 50
90.0
 51
180.0
  0
ARC
  5
263
330
27
100
AcDbEntity
  8
2
100
AcDbCircle
 10
-246.691168
 20
177.042318
 30
0.0
 40
0.104619
100
AcDbArc
 50
296.565051
 51
90.0
  0
LINE
  5
264
330
27
100
AcDbEntity
  8
2
100
AcDbLine
 10
-242.253036
 20
168.960478
 30
0.0
 11
-242.253036
 21
176.990008
 31
0.0
  0
ARC
  5
265
330
27
100
AcDbEntity
  8
2
100
AcDbCircle
 10
-242.409965
 20
168.960478
 30
0.0
 40
0.156929
100
AcDbArc
 50
270.0
 51
360.0
  0
ARC
  5
266
330
27
100
AcDbEntity
  8
2
100
AcDbCircle
 10
-242.409965
 20
176.990008
 30
0.0
 40
0.156929
100
AcDbArc
 50
0.0
 51
90.0
  0
LINE
  5
267
330
27
100
AcDbEntity
  8
2
100
AcDbLine
 10
-250.380456
 20
181.540947
 30
0.0
 11
-246.691168
 21
181.540947
 31
0.0
  0
LINE
  5
268
330
27
100
AcDbEntity
  8
2
100
AcDbLine
 10
-250.309623
 20
179.343942
 30
0.0
 11
-246.691168
 21
179.343942
 31
0.0
  0
LINE
  5
269
330
27
100
AcDbEntity
  8
2
100
AcDbLine
 10
-246.644381
 20
181.342753
 30
0.0
 11
-250.344714
 21
179.492587
 31
0.0
  0
ARC
  5
26A
330
27
100
AcDbEntity
  8
2
100
AcDbCircle
 10
-250.380456
 20
181.279399
 30
0.0
 40
0.261548
100
AcDbArc
 50
90.0
 51
180.0
  0
ARC
  5
26B
330
27
100
AcDbEntity
  8
2
100
AcDbCircle
 10
-250.309623
 20
179.422406
 30
0.0
 40
0.078464
100
AcDbArc
 50
116.565051
 51
270.0
  0
LINE
  5
26C
330
27
100
AcDbEntity
  8
2
100
AcDbLine
 10
-246.038755
 20
181.540947
 30
0.0
 11
-242.3494680000001
 21
181.540947
 31
0.0
  0
LINE
  5
26D
330
27
100
AcDbEntity
  8
2
100
AcDbLine
 10
-246.038755
 20
179.343942
 30
0.0
 11
-242.3494680000001
 21
179.343942
 31
0.0
  0
LINE
  5
26E
330
27
100
AcDbEntity
  8
2
100
AcDbLine
 10
-242.302681
 20
181.342753
 30
0.0
 11
-245.921788
 21
179.5332
 31
0.0
  0
ARC
  5
26F
330
27
100
AcDbEntity
  8
2
100
AcDbCircle
 10
-246.038755
 20
181.279399
 30
0.0
 40
0.261548
100
AcDbArc
 50
90.0
 51
180.0
  0
ARC
  5
270
330
27
100
AcDbEntity
  8
2
100
AcDbCircle
 10
-246.691168
 20
181.436328
 30
0.0
 40
0.104619
100
AcDbArc
 50
296.565051
 51
90.0
  0
ARC
  5
271
330
27
100
AcDbEntity
  8
2
100
AcDbCircle
 10
-246.038755
 20
179.767136
 30
0.0
 40
0.261548
100
AcDbArc
 50
180.0
 51
296.565051
  0
ARC
  5
272
330
27
100
AcDbEntity
  8
2
100
AcDbCircle
 10
-246.038755
 20
179.082394
 30
0.0
 40
0.261548
100
AcDbArc
 50
90.0
 51
180.0
  0
ARC
  5
273
330
27
100
AcDbEntity
  8
2
100
AcDbCircle
 10
-246.691168
 20
179.239323
 30
0.0
 40
0.104619
100
AcDbArc
 50
296.565051
 51
90.0
  0
LINE
  5
274
330
27
100
AcDbEntity
  8
2
100
AcDbLine
 10
-246.300304
 20
179.767136
 30
0.0
 11
-246.300304
 21
181.279399
 31
0.0
  0
ARC
  5
275
330
27
100
AcDbEntity
  8
2
100
AcDbCircle
 10
-241.697055
 20
181.279399
 30
0.0
 40
0.261548
100
AcDbArc
 50
90.0
 51
180.0
  0
ARC
  5
276
330
27
100
AcDbEntity
  8
2
100
AcDbCircle
 10
-242.3494680000001
 20
181.436328
 30
0.0
 40
0.104619
100
AcDbArc
 50
296.565051
 51
90.0
  0
ARC
  5
277
330
27
100
AcDbEntity
  8
2
100
AcDbCircle
 10
-241.697055
 20
179.767136
 30
0.0
 40
0.261548
100
AcDbArc
 50
180.0
 51
296.565051
  0
ARC
  5
278
330
27
100
AcDbEntity
  8
2
100
AcDbCircle
 10
-242.3494680000001
 20
179.239323
 30
0.0
 40
0.104619
100
AcDbArc
 50
296.565051
 51
90.0
  0
LINE
  5
279
330
27
100
AcDbEntity
  8
2
100
AcDbLine
 10
-241.958603
 20
179.767136
 30
0.0
 11
-241.958603
 21
181.279399
 31
0.0
  0
ARC
  5
27A
330
27
100
AcDbEntity
  8
2
100
AcDbCircle
 10
-238.007768
 20
181.436328
 30
0.0
 40
0.104619
100
AcDbArc
 50
296.565051
 51
90.0
  0
LINE
  5
27B
330
27
100
AcDbEntity
  8
2
100
AcDbLine
 10
-244.656052
 20
228.022457
 30
0.0
 11
-247.738258
 21
235.463561
 31
0.0
  0
LINE
  5
27C
330
27
100
AcDbEntity
  8
2
100
AcDbLine
 10
-243.732172
 20
228.022457
 30
0.0
 11
-240.649966
 21
235.463561
 31
0.0
  0
ARC
  5
27D
330
27
100
AcDbEntity
  8
2
100
AcDbCircle
 10
-244.194112
 20
228.213799
 30
0.0
 40
0.5
100
AcDbArc
 50
202.5
 51
337.5
  0
ARC
  5
27E
330
27
100
AcDbEntity
  8
2
100
AcDbCircle
 10
-248.200198
 20
235.27222
 30
0.0
 40
0.5
100
AcDbArc
 50
22.5
 51
93.86059799999999
  0
ARC
  5
27F
330
27
100
AcDbEntity
  8
2
100
AcDbCircle
 10
-240.188026
 20
235.27222
 30
0.0
 40
0.5
100
AcDbArc
 50
86.139402
 51
157.5
  0
ARC
  5
280
330
27
100
AcDbEntity
  8
2
100
AcDbCircle
 10
-229.940266
 20
233.674683
 30
0.0
 40
0.5
100
AcDbArc
 50
76.139402
 51
147.5
  0
ARC
  5
281
330
27
100
AcDbEntity
  8
2
100
AcDbCircle
 10
-237.830715
 20
235.065982
 30
0.0
 40
0.5
100
AcDbArc
 50
12.5
 51
83.86059799999999
  0
ARC
  5
282
330
27
100
AcDbEntity
  8
2
100
AcDbCircle
 10
-235.111172
 20
227.419145
 30
0.0
 40
0.5
100
AcDbArc
 50
192.5
 51
327.5
  0
LINE
  5
283
330
27
100
AcDbEntity
  8
2
100
AcDbLine
 10
-234.689477
 20
227.150495
 30
0.0
 11
-230.361962
 21
233.943332
 31
0.0
  0
LINE
  5
284
330
27
100
AcDbEntity
  8
2
100
AcDbLine
 10
-235.59932
 20
227.310925
 30
0.0
 11
-237.342567
 21
235.174201
 31
0.0
  0
ARC
  5
285
330
27
100
AcDbEntity
  8
2
100
AcDbCircle
 10
-220.125602
 20
230.321911
 30
0.0
 40
0.5
100
AcDbArc
 50
66.139402
 51
137.5
  0
ARC
  5
286
330
27
100
AcDbEntity
  8
2
100
AcDbCircle
 10
-227.654581
 20
233.062235
 30
0.0
 40
0.5
100
AcDbArc
 50
2.5
 51
73.86059799999999
  0
ARC
  5
287
330
27
100
AcDbEntity
  8
2
100
AcDbCircle
 10
-226.304214
 20
225.059327
 30
0.0
 40
0.5
100
AcDbArc
 50
182.5
 51
317.5
  0
LINE
  5
288
330
27
100
AcDbEntity
  8
2
100
AcDbLine
 10
-225.935575
 20
224.721532
 30
0.0
 11
-220.494241
 21
230.659706
 31
0.0
  0
LINE
  5
289
330
27
100
AcDbEntity
  8
2
100
AcDbLine
 10
-226.803738
 20
225.037518
 30
0.0
 11
-227.155057
 21
233.084045
 31
0.0
  0
ARC
  5
28A
330
27
100
AcDbEntity
  8
2
100
AcDbCircle
 10
-211.042248
 20
225.315777
 30
0.0
 40
0.5
100
AcDbArc
 50
56.139402
 51
127.5
  0
ARC
  5
28B
330
27
100
AcDbEntity
  8
2
100
AcDbCircle
 10
-217.980992
 20
229.321863
 30
0.0
 40
0.5
100
AcDbArc
 50
352.5
 51
63.86059799999999
  0
ARC
  5
28C
330
27
100
AcDbEntity
  8
2
100
AcDbCircle
 10
-218.04083
 20
221.206048
 30
0.0
 40
0.5
100
AcDbArc
 50
172.5
 51
307.5
  0
LINE
  5
28D
330
27
100
AcDbEntity
  8
2
100
AcDbLine
 10
-217.73645
 20
220.809372
 30
0.0
 11
-211.346629
 21
225.712454
 31
0.0
  0
LINE
  5
28E
330
27
100
AcDbEntity
  8
2
100
AcDbLine
 10
-218.536553
 20
221.271311
 30
0.0
 11
-217.48527
 21
229.2566
 31
0.0
  0
ARC
  5
28F
330
27
100
AcDbEntity
  8
2
100
AcDbCircle
 10
-202.966196
 20
218.80839
 30
0.0
 40
0.5
100
AcDbArc
 50
46.139402
 51
117.5
  0
ARC
  5
290
330
27
100
AcDbEntity
  8
2
100
AcDbCircle
 10
-209.103876
 20
223.958514
 30
0.0
 40
0.5
100
AcDbArc
 50
342.5
 51
53.86059799999999
  0
ARC
  5
291
330
27
100
AcDbEntity
  8
2
100
AcDbCircle
 10
-210.572101
 20
215.976388
 30
0.0
 40
0.5
100
AcDbArc
 50
162.5
 51
297.5
  0
LINE
  5
292
330
27
100
AcDbEntity
  8
2
100
AcDbLine
 10
-210.341227
 20
215.532882
 30
0.0
 11
-203.19707
 21
219.251895
 31
0.0
  0
LINE
  5
293
330
27
100
AcDbEntity
  8
2
100
AcDbLine
 10
-211.04896
 20
216.126741
 30
0.0
 11
-208.627017
 21
223.808161
 31
0.0
  0
ARC
  5
294
330
27
100
AcDbEntity
  8
2
100
AcDbCircle
 10
-196.142834
 20
210.997472
 30
0.0
 40
0.5
100
AcDbArc
 50
36.139402
 51
107.5
  0
ARC
  5
295
330
27
100
AcDbEntity
  8
2
100
AcDbCircle
 10
-201.292958
 20
217.135152
 30
0.0
 40
0.5
100
AcDbArc
 50
332.5
 51
43.86059799999999
  0
ARC
  5
296
330
27
100
AcDbEntity
  8
2
100
AcDbCircle
 10
-204.12496
 20
209.529247
 30
0.0
 40
0.5
100
AcDbArc
 50
152.5
 51
287.5
  0
LINE
  5
297
330
27
100
AcDbEntity
  8
2
100
AcDbLine
 10
-203.974607
 20
209.052388
 30
0.0
 11
-196.293187
 21
211.474331
 31
0.0
  0
LINE
  5
298
330
27
100
AcDbEntity
  8
2
100
AcDbLine
 10
-204.568465
 20
209.760121
 30
0.0
 11
-200.849453
 21
216.904277
 31
0.0
  0
ARC
  5
299
330
27
100
AcDbEntity
  8
2
100
AcDbCircle
 10
-190.779485
 20
202.120356
 30
0.0
 40
0.5
100
AcDbArc
 50
26.139402
 51
97.5
  0
ARC
  5
29A
330
27
100
AcDbEntity
  8
2
100
AcDbCircle
 10
-194.785571
 20
209.0591
 30
0.0
 40
0.5
100
AcDbArc
 50
322.5
 51
33.860598
  0
ARC
  5
29B
330
27
100
AcDbEntity
  8
2
100
AcDbCircle
 10
-198.895299
 20
202.060517
 30
0.0
 40
0.5
100
AcDbArc
 50
142.5
 51
277.5
  0
LINE
  5
29C
330
27
100
AcDbEntity
  8
2
100
AcDbLine
 10
-198.830036
 20
201.564795
 30
0.0
 11
-190.844748
 21
202.616078
 31
0.0
  0
LINE
  5
29D
330
27
100
AcDbEntity
  8
2
100
AcDbLine
 10
-199.291976
 20
202.364898
 30
0.0
 11
-194.388894
 21
208.754719
 31
0.0
  0
ARC
  5
29E
330
27
100
AcDbEntity
  8
2
100
AcDbCircle
 10
-187.0391129999999
 20
192.446767
 30
0.0
 40
0.5
100
AcDbArc
 50
16.139402
 51
87.5
  0
ARC
  5
29F
330
27
100
AcDbEntity
  8
2
100
AcDbCircle
 10
-189.779437
 20
199.975745
 30
0.0
 40
0.5
100
AcDbArc
 50
312.5
 51
23.860598
  0
ARC
  5
2A0
330
27
100
AcDbEntity
  8
2
100
AcDbCircle
 10
-195.042021
 20
193.797134
 30
0.0
 40
0.5
100
AcDbArc
 50
132.5
 51
267.5
  0
LINE
  5
2A1
330
27
100
AcDbEntity
  8
2
100
AcDbLine
 10
-195.06383
 20
193.29761
 30
0.0
 11
-187.017303
 21
192.946291
 31
0.0
  0
LINE
  5
2A2
330
27
100
AcDbEntity
  8
2
100
AcDbLine
 10
-195.379816
 20
194.165773
 30
0.0
 11
-189.441642
 21
199.607107
 31
0.0
  0
ARC
  5
2A3
330
27
100
AcDbEntity
  8
2
100
AcDbCircle
 10
-186.426665
 20
190.161082
 30
0.0
 40
0.5
100
AcDbArc
 50
302.5
 51
13.860598
  0
LINE
  5
2A4
330
27
100
AcDbEntity
  8
2
100
AcDbLine
 10
-186.692761
 20
189.398715
 30
0.0
 11
-186.1580149999999
 21
189.739386
 31
0.0
  0
ARC
  5
2A5
330
27
100
AcDbEntity
  8
2
100
AcDbCircle
 10
-244.194112
 20
175.907236
 30
0.0
 40
50.0
100
AcDbArc
 50
127.979872
 51
322.020128
  0
LINE
  5
2A6
330
27
100
AcDbEntity
  8
2
100
AcDbLine
 10
-192.959358
 20
150.907236
 30
0.0
 11
-179.194112
 21
150.907236
 31
0.0
  0
LINE
  5
2A7
330
27
100
AcDbEntity
  8
2
100
AcDbLine
 10
-169.194112
 20
160.907236
 30
0.0
 11
-169.194112
 21
162.876407
 31
0.0
  0
ARC
  5
2A8
330
27
100
AcDbEntity
  8
2
100
AcDbCircle
 10
-179.194112
 20
160.907236
 30
0.0
 40
10.0
100
AcDbArc
 50
270.0
 51
360.0
  0
ARC
  5
2A9
330
27
100
AcDbEntity
  8
2
100
AcDbCircle
 10
-259.194112
 20
240.907236
 30
0.0
 40
10.0
100
AcDbArc
 50
90.0
 51
180.0
  0
ARC
  5
2AA
330
27
100
AcDbEntity
  8
2
100
AcDbCircle
 10
-250.194112
 20
236.611437
 30
0.0
 40
1.0
100
AcDbArc
 50
180.0
 51
275.644778
  0
ARC
  5
2AB
330
27
100
AcDbEntity
  8
2
100
AcDbCircle
 10
-252.194112
 20
249.907236
 30
0.0
 40
1.0
100
AcDbArc
 50
0.0
 51
90.0
  0
LINE
  5
2AC
330
27
100
AcDbEntity
  8
2
100
AcDbLine
 10
-251.194112
 20
249.907236
 30
0.0
 11
-251.194112
 21
236.611437
 31
0.0
  0
LINE
  5
2AD
330
27
100
AcDbEntity
  8
2
100
AcDbLine
 10
-259.194112
 20
250.907236
 30
0.0
 11
-252.194112
 21
250.907236
 31
0.0
  0
LINE
  5
2AE
330
27
100
AcDbEntity
  8
2
100
AcDbLine
 10
-269.194112
 20
227.14199
 30
0.0
 11
-269.194112
 21
240.907236
 31
0.0
  0
ARC
  5
2AF
330
27
100
AcDbEntity
  8
2
100
AcDbCircle
 10
-192.959358
 20
135.907236
 30
0.0
 40
15.0
100
AcDbArc
 50
90.0
 51
142.020128
  0
ARC
  5
2B0
330
27
100
AcDbEntity
  8
2
100
AcDbCircle
 10
-284.194112
 20
227.14199
 30
0.0
 40
15.0
100
AcDbArc
 50
307.979872
 51
360.0
  0
ARC
  5
2B1
330
27
100
AcDbEntity
  8
2
100
AcDbCircle
 10
-244.194112
 20
175.907236
 30
0.0
 40
60.0
100
AcDbArc
 50
13.860598
 51
16.139402
  0
ARC
  5
2B2
330
27
100
AcDbEntity
  8
2
100
AcDbCircle
 10
-244.194112
 20
175.907236
 30
0.0
 40
60.0
100
AcDbArc
 50
23.860598
 51
26.139402
  0
ARC
  5
2B3
330
27
100
AcDbEntity
  8
2
100
AcDbCircle
 10
-244.194112
 20
175.907236
 30
0.0
 40
60.0
100
AcDbArc
 50
93.86059799999999
 51
95.644778
  0
ARC
  5
2B4
330
27
100
AcDbEntity
  8
2
100
AcDbCircle
 10
-244.194112
 20
175.907236
 30
0.0
 40
60.0
100
AcDbArc
 50
83.86059799999999
 51
86.139402
  0
ARC
  5
2B5
330
27
100
AcDbEntity
  8
2
100
AcDbCircle
 10
-244.194112
 20
175.907236
 30
0.0
 40
60.0
100
AcDbArc
 50
73.86059799999999
 51
76.139402
  0
ARC
  5
2B6
330
27
100
AcDbEntity
  8
2
100
AcDbCircle
 10
-244.194112
 20
175.907236
 30
0.0
 40
60.0
100
AcDbArc
 50
63.86059799999999
 51
66.139402
  0
ARC
  5
2B7
330
27
100
AcDbEntity
  8
2
100
AcDbCircle
 10
-244.194112
 20
175.907236
 30
0.0
 40
60.0
100
AcDbArc
 50
53.86059799999999
 51
56.139402
  0
ARC
  5
2B8
330
27
100
AcDbEntity
  8
2
100
AcDbCircle
 10
-244.194112
 20
175.907236
 30
0.0
 40
60.0
100
AcDbArc
 50
43.86059799999999
 51
46.139402
  0
ARC
  5
2B9
330
27
100
AcDbEntity
  8
2
100
AcDbCircle
 10
-244.194112
 20
175.907236
 30
0.0
 40
60.0
100
AcDbArc
 50
33.860598
 51
36.139402
  0
LINE
  5
2BA
330
27
100
AcDbEntity
  8
2
100
AcDbLine
 10
-242.072791
 20
196.413333
 30
0.0
 11
-245.608325
 21
199.948867
 31
0.0
  0
LINE
  5
2BB
330
27
100
AcDbEntity
  8
2
100
AcDbLine
 10
-242.072791
 20
203.4844
 30
0.0
 11
-245.608325
 21
199.948867
 31
0.0
  0
LINE
  5
2BC
330
27
100
AcDbEntity
  8
2
100
AcDbLine
 10
-241.719238
 20
203.130847
 30
0.0
 11
-244.901219
 21
199.948867
 31
0.0
  0
LINE
  5
2BD
330
27
100
AcDbEntity
  8
2
100
AcDbLine
 10
-241.719238
 20
196.766886
 30
0.0
 11
-244.901219
 21
199.948867
 31
0.0
  0
LINE
  5
2BE
330
27
100
AcDbEntity
  8
2
100
AcDbLine
 10
-241.719238
 20
196.766886
 30
0.0
 11
-242.072791
 21
196.413333
 31
0.0
  0
LINE
  5
2BF
330
27
100
AcDbEntity
  8
2
100
AcDbLine
 10
-241.719238
 20
203.130847
 30
0.0
 11
-242.072791
 21
203.4844
 31
0.0
  0
LINE
  5
2C0
330
27
100
AcDbEntity
  8
2
100
AcDbLine
 10
-269.599209
 20
165.956994
 30
0.0
 11
-272.850168
 21
169.207953
 31
0.0
  0
LINE
  5
2C1
330
27
100
AcDbEntity
  8
2
100
AcDbLine
 10
-273.7645
 20
161.791703
 30
0.0
 11
-277.015459
 21
165.042662
 31
0.0
  0
LINE
  5
2C2
330
27
100
AcDbEntity
  8
2
100
AcDbLine
 10
-266.672485
 20
156.708981
 30
0.0
 11
-262.366322
 21
158.724107
 31
0.0
  0
LINE
  5
2C3
330
27
100
AcDbEntity
  8
2
100
AcDbLine
 10
-267.025402
 20
155.052604
 30
0.0
 11
-263.403362
 21
156.671142
 31
0.0
  0
LINE
  5
2C4
330
27
100
AcDbEntity
  8
2
100
AcDbLine
 10
-266.672485
 20
156.708981
 30
0.0
 11
-263.649837
 21
160.007622
 31
0.0
  0
LINE
  5
2C5
330
27
100
AcDbEntity
  8
2
100
AcDbLine
 10
-268.568999
 20
156.61174
 30
0.0
 11
-264.665762
 21
161.023547
 31
0.0
  0
ARC
  5
2C6
330
27
100
AcDbEntity
  8
2
100
AcDbCircle
 10
-263.961795
 20
155.829193
 30
0.0
 40
10.402317
100
AcDbArc
 50
128.830069
 51
141.169931
  0
ARC
  5
2C7
330
27
100
AcDbEntity
  8
2
100
AcDbCircle
 10
-274.649831
 20
166.517229
 30
0.0
 40
10.402317
100
AcDbArc
 50
308.830069
 51
321.169931
  0
LINE
  5
2C8
330
27
100
AcDbEntity
  8
2
100
AcDbLine
 10
-273.7645
 20
161.791703
 30
0.0
 11
-269.599209
 21
165.956994
 31
0.0
  0
ARC
  5
2C9
330
27
100
AcDbEntity
  8
2
100
AcDbCircle
 10
-269.403159
 20
162.589617
 30
0.0
 40
1.724081
100
AcDbArc
 50
51.27054199999999
 51
128.830069
  0
ARC
  5
2CA
330
27
100
AcDbEntity
  8
2
100
AcDbCircle
 10
-267.889407
 20
161.075865
 30
0.0
 40
1.724081
100
AcDbArc
 50
321.169931
 51
38.729458
  0
ARC
  5
2CB
330
27
100
AcDbEntity
  8
2
100
AcDbCircle
 10
-275.534447
 20
154.944577
 30
0.0
 40
11.524047
100
AcDbArc
 50
38.729458
 51
51.27054199999999
  0
LINE
  5
2CC
330
27
100
AcDbEntity
  8
2
100
AcDbLine
 10
-264.665762
 20
161.023547
 30
0.0
 11
-263.649837
 21
160.007622
 31
0.0
  0
ARC
  5
2CD
330
27
100
AcDbEntity
  8
2
100
AcDbCircle
 10
-270.722219
 20
161.270557
 30
0.0
 40
1.724081
100
AcDbArc
 50
141.169931
 51
218.729458
  0
ARC
  5
2CE
330
27
100
AcDbEntity
  8
2
100
AcDbCircle
 10
-269.208467
 20
159.756805
 30
0.0
 40
1.724081
100
AcDbArc
 50
231.270542
 51
308.830069
  0
ARC
  5
2CF
330
27
100
AcDbEntity
  8
2
100
AcDbCircle
 10
-263.077179
 20
167.401845
 30
0.0
 40
11.524047
100
AcDbArc
 50
218.729458
 51
231.270542
  0
LINE
  5
2D0
330
27
100
AcDbEntity
  8
2
100
AcDbLine
 10
-268.576768
 20
156.603971
 30
0.0
 11
-267.025402
 21
155.052604
 31
0.0
  0
LINE
  5
2D1
330
27
100
AcDbEntity
  8
2
100
AcDbLine
 10
-273.561315
 20
164.433107
 30
0.0
 11
-274.272463
 21
163.72196
 31
0.0
  0
LINE
  5
2D2
330
27
100
AcDbEntity
  8
2
100
AcDbLine
 10
-271.529466
 20
166.464957
 30
0.0
 11
-272.850168
 21
165.144255
 31
0.0
  0
LINE
  5
2D3
330
27
100
AcDbEntity
  8
2
100
AcDbLine
 10
-271.529466
 20
166.464957
 30
0.0
 11
-273.561315
 21
168.496806
 31
0.0
  0
LINE
  5
2D4
330
27
100
AcDbEntity
  8
2
100
AcDbLine
 10
-272.850168
 20
165.144255
 30
0.0
 11
-274.882018
 21
167.176104
 31
0.0
  0
LINE
  5
2D5
330
27
100
AcDbEntity
  8
2
100
AcDbLine
 10
-273.561315
 20
164.433107
 30
0.0
 11
-275.593165
 21
166.464957
 31
0.0
  0
LINE
  5
2D6
330
27
100
AcDbEntity
  8
2
100
AcDbLine
 10
-274.272463
 20
163.72196
 30
0.0
 11
-276.304312
 21
165.753809
 31
0.0
  0
LINE
  5
2D7
330
27
100
AcDbEntity
  8
2
100
AcDbLine
 10
-252.138992
 20
148.496777
 30
0.0
 11
-253.58915
 21
149.946935
 31
0.0
  0
LINE
  5
2D8
330
27
100
AcDbEntity
  8
2
100
AcDbLine
 10
-255.224966
 20
145.410803
 30
0.0
 11
-256.675124
 21
146.860961
 31
0.0
  0
ARC
  5
2D9
330
27
100
AcDbEntity
  8
2
100
AcDbCircle
 10
-255.339154
 20
142.005018
 30
0.0
 40
0.143673
100
AcDbArc
 50
225.0
 51
315.0
  0
LINE
  5
2DA
330
27
100
AcDbEntity
  8
2
100
AcDbLine
 10
-255.103055
 20
145.410803
 30
0.0
 11
-252.138992
 21
148.374866
 31
0.0
  0
LINE
  5
2DB
330
27
100
AcDbEntity
  8
2
100
AcDbLine
 10
-259.8967990000001
 20
146.734555
 30
0.0
 11
-252.999563
 21
144.435476
 31
0.0
  0
ARC
  5
2DC
330
27
100
AcDbEntity
  8
2
100
AcDbCircle
 10
-252.199947
 20
148.435821
 30
0.0
 40
0.086204
100
AcDbArc
 50
315.0
 51
45.0
  0
ARC
  5
2DD
330
27
100
AcDbEntity
  8
2
100
AcDbCircle
 10
-253.044997
 20
144.299176
 30
0.0
 40
0.143673
100
AcDbArc
 50
315.0
 51
71.565051
  0
ARC
  5
2DE
330
27
100
AcDbEntity
  8
2
100
AcDbCircle
 10
-255.16401
 20
145.471758
 30
0.0
 40
0.086204
100
AcDbArc
 50
225.0
 51
315.0
  0
LINE
  5
2DF
330
27
100
AcDbEntity
  8
2
100
AcDbLine
 10
-252.943404
 20
144.197583
 30
0.0
 11
-255.237562
 21
141.903426
 31
0.0
  0
ARC
  5
2E0
330
27
100
AcDbEntity
  8
2
100
AcDbCircle
 10
-253.557275
 20
145.424674
 30
0.0
 40
10.402317
100
AcDbArc
 50
128.830069
 51
141.169931
  0
ARC
  5
2E1
330
27
100
AcDbEntity
  8
2
100
AcDbCircle
 10
-254.328293
 20
146.1956919999999
 30
0.0
 40
7.674066
100
AcDbArc
 50
124.473609
 51
145.526391
  0
LINE
  5
2E2
330
27
100
AcDbEntity
  8
2
100
AcDbLine
 10
-263.462764
 20
151.505505
 30
0.0
 11
-259.050957
 21
155.408742
 31
0.0
  0
ARC
  5
2E3
330
27
100
AcDbEntity
  8
2
100
AcDbCircle
 10
-258.998639
 20
152.185097
 30
0.0
 40
1.724081
100
AcDbArc
 50
51.27054199999999
 51
128.830069
  0
LINE
  5
2E4
330
27
100
AcDbEntity
  8
2
100
AcDbLine
 10
-260.066882
 20
156.424667
 30
0.0
 11
-259.050957
 21
155.408742
 31
0.0
  0
ARC
  5
2E5
330
27
100
AcDbEntity
  8
2
100
AcDbCircle
 10
-260.317699
 20
150.866037
 30
0.0
 40
1.724081
100
AcDbArc
 50
141.169931
 51
218.729458
  0
LINE
  5
2E6
330
27
100
AcDbEntity
  8
2
100
AcDbLine
 10
-265.0219
 20
153.049103
 30
0.0
 11
-263.470533
 21
151.497736
 31
0.0
  0
ARC
  5
2E7
330
27
100
AcDbEntity
  8
2
100
AcDbCircle
 10
-264.245311
 20
156.112709
 30
0.0
 40
10.402317
100
AcDbArc
 50
308.830069
 51
321.169931
  0
ARC
  5
2E8
330
27
100
AcDbEntity
  8
2
100
AcDbCircle
 10
-264.092891
 20
156.085722
 30
0.0
 40
8.638035
100
AcDbArc
 50
305.062783
 51
323.774302
  0
LINE
  5
2E9
330
27
100
AcDbEntity
  8
2
100
AcDbLine
 10
-253.711061
 20
149.946935
 30
0.0
 11
-256.675124
 21
146.982872
 31
0.0
  0
ARC
  5
2EA
330
27
100
AcDbEntity
  8
2
100
AcDbCircle
 10
-257.484887
 20
150.671345
 30
0.0
 40
1.724081
100
AcDbArc
 50
321.169931
 51
38.729458
  0
ARC
  5
2EB
330
27
100
AcDbEntity
  8
2
100
AcDbCircle
 10
-259.752043
 20
149.917941
 30
0.0
 40
3.169315999999999
100
AcDbArc
 50
34.668048
 51
55.331952
  0
ARC
  5
2EC
330
27
100
AcDbEntity
  8
2
100
AcDbCircle
 10
-257.754648
 20
151.333419
 30
0.0
 40
0.7219260000000001
100
AcDbArc
 50
330.772957
 51
32.444044
  0
ARC
  5
2ED
330
27
100
AcDbEntity
  8
2
100
AcDbCircle
 10
-253.650105
 20
149.88598
 30
0.0
 40
0.086204
100
AcDbArc
 50
45.0
 51
135.0
  0
ARC
  5
2EE
330
27
100
AcDbEntity
  8
2
100
AcDbCircle
 10
-258.803947
 20
149.352286
 30
0.0
 40
1.724081
100
AcDbArc
 50
231.270542
 51
308.830069
  0
ARC
  5
2EF
330
27
100
AcDbEntity
  8
2
100
AcDbCircle
 10
-259.493729
 20
149.532731
 30
0.0
 40
0.6321630000000001
100
AcDbArc
 50
235.331952
 51
305.062783
  0
ARC
  5
2F0
330
27
100
AcDbEntity
  8
2
100
AcDbCircle
 10
-258.050543
 20
151.619441
 30
0.0
 40
3.169315999999999
100
AcDbArc
 50
214.668048
 51
235.331952
  0
ARC
  5
2F1
330
27
100
AcDbEntity
  8
2
100
AcDbCircle
 10
-256.614168
 20
146.921917
 30
0.0
 40
0.086204
100
AcDbArc
 50
135.0
 51
225.0
  0
ARC
  5
2F2
330
27
100
AcDbEntity
  8
2
100
AcDbCircle
 10
-265.129927
 20
144.540057
 30
0.0
 40
11.524047
100
AcDbArc
 50
38.729458
 51
51.27054199999999
  0
ARC
  5
2F3
330
27
100
AcDbEntity
  8
2
100
AcDbCircle
 10
-258.308858
 20
152.004652
 30
0.0
 40
0.6321630000000001
100
AcDbArc
 50
55.331952
 51
125.062783
  0
ARC
  5
2F4
330
27
100
AcDbEntity
  8
2
100
AcDbCircle
 10
-252.672659
 20
156.997326
 30
0.0
 40
11.524047
100
AcDbArc
 50
218.729458
 51
231.270542
  0
ARC
  5
2F5
330
27
100
AcDbEntity
  8
2
100
AcDbCircle
 10
-260.137253
 20
150.176256
 30
0.0
 40
0.6321630000000001
100
AcDbArc
 50
144.937217
 51
214.668048
  0
LINE
  5
2F6
330
27
100
AcDbEntity
  8
2
100
AcDbLine
 10
-265.0219
 20
153.049103
 30
0.0
 11
-263.403362
 21
156.671142
 31
0.0
  0
LINE
  5
2F7
330
27
100
AcDbEntity
  8
2
100
AcDbLine
 10
-262.366322
 20
158.724107
 30
0.0
 11
-261.350397
 21
157.708182
 31
0.0
  0
ARC
  5
2F8
330
27
100
AcDbEntity
  8
2
100
AcDbCircle
 10
-259.941071
 20
146.601739
 30
0.0
 40
0.14
100
AcDbArc
 50
71.565051
 51
225.0
  0
ARC
  5
2F9
330
27
100
AcDbEntity
  8
2
100
AcDbCircle
 10
-269.925092
 20
159.964094
 30
0.0
 40
0.6321630000000001
100
AcDbArc
 50
235.331952
 51
305.062783
  0
ARC
  5
2FA
330
27
100
AcDbEntity
  8
2
100
AcDbCircle
 10
-268.096696
 20
161.79249
 30
0.0
 40
0.6321630000000001
100
AcDbArc
 50
324.937217
 51
34.668048
  0
ARC
  5
2FB
330
27
100
AcDbEntity
  8
2
100
AcDbCircle
 10
-268.481906
 20
162.050805
 30
0.0
 40
3.169315999999999
100
AcDbArc
 50
214.668048
 51
235.331952
  0
ARC
  5
2FC
330
27
100
AcDbEntity
  8
2
100
AcDbCircle
 10
-270.568617
 20
160.607619
 30
0.0
 40
0.6321630000000001
100
AcDbArc
 50
144.937217
 51
214.668048
  0
ARC
  5
2FD
330
27
100
AcDbEntity
  8
2
100
AcDbCircle
 10
-268.767929
 20
162.3467
 30
0.0
 40
0.7219260000000001
100
AcDbArc
 50
57.55595600000001
 51
119.227043
  0
ARC
  5
2FE
330
27
100
AcDbEntity
  8
2
100
AcDbCircle
 10
-270.183406
 20
160.349305
 30
0.0
 40
3.169315999999999
100
AcDbArc
 50
34.668048
 51
55.331952
  0
ARC
  5
2FF
330
27
100
AcDbEntity
  8
2
100
AcDbCircle
 10
-264.015626
 20
156.008456
 30
0.0
 40
8.638035
100
AcDbArc
 50
126.225698
 51
144.937217
  0
ARC
  5
300
330
27
100
AcDbEntity
  8
2
100
AcDbCircle
 10
-273.905656
 20
165.773054
 30
0.0
 40
7.674066
100
AcDbArc
 50
304.473609
 51
325.526391
  0
LINE
  5
301
330
27
100
AcDbEntity
  8
2
100
AcDbLine
 10
-255.440747
 20
141.903426
 30
0.0
 11
-260.040065
 21
146.502744
 31
0.0
  0
LINE
  5
302
330
27
100
AcDbEntity
  8
2
100
AcDbLine
 10
-263.392367
 20
153.4288629999999
 30
0.0
 11
-261.377241
 21
157.735026
 31
0.0
  0
LINE
  5
303
330
27
100
AcDbEntity
  8
2
100
AcDbLine
 10
-263.392367
 20
153.4288629999999
 30
0.0
 11
-260.093726
 21
156.451511
 31
0.0
  0
ARC
  5
304
330
27
100
AcDbEntity
  8
2
100
AcDbCircle
 10
-290.683358
 20
176.907236
 30
0.0
 40
0.5
100
AcDbArc
 50
90.0
 51
178.767738
  0
LINE
  5
305
330
27
100
AcDbEntity
  8
2
100
AcDbLine
 10
-290.683358
 20
177.407236
 30
0.0
 11
-280.516987
 21
177.407236
 31
0.0
  0
LINE
  5
306
330
27
100
AcDbEntity
  8
2
100
AcDbLine
 10
-290.683358
 20
174.407236
 30
0.0
 11
-280.516987
 21
174.407236
 31
0.0
  0
ARC
  5
307
330
27
100
AcDbEntity
  8
2
100
AcDbCircle
 10
-290.683358
 20
174.907236
 30
0.0
 40
0.5
100
AcDbArc
 50
181.232262
 51
270.0
  0
LINE
  5
308
330
27
100
AcDbEntity
  8
2
100
AcDbLine
 10
-289.900848
 20
167.340192
 30
0.0
 11
-280.052771
 21
169.076674
 31
0.0
  0
ARC
  5
309
330
27
100
AcDbEntity
  8
2
100
AcDbCircle
 10
-289.987672
 20
167.832596
 30
0.0
 40
0.5
100
AcDbArc
 50
100.0
 51
280.0
  0
LINE
  5
30A
330
27
100
AcDbEntity
  8
2
100
AcDbLine
 10
-290.074496
 20
168.325
 30
0.0
 11
-280.226419
 21
170.061481
 31
0.0
  0
LINE
  5
30B
330
27
100
AcDbEntity
  8
2
100
AcDbLine
 10
-280.136572
 20
146.400634
 30
0.0
 11
-272.476128
 21
152.82851
 31
0.0
  0
ARC
  5
30C
330
27
100
AcDbEntity
  8
2
100
AcDbCircle
 10
-279.815178
 20
146.017612
 30
0.0
 40
0.5
100
AcDbArc
 50
130.0
 51
310.0
  0
LINE
  5
30D
330
27
100
AcDbEntity
  8
2
100
AcDbLine
 10
-279.493785
 20
145.63459
 30
0.0
 11
-271.83334
 21
152.062466
 31
0.0
  0
LINE
  5
30E
330
27
100
AcDbEntity
  8
2
100
AcDbLine
 10
-284.714293
 20
153.090249
 30
0.0
 11
-276.054039
 21
158.090249
 31
0.0
  0
ARC
  5
30F
330
27
100
AcDbEntity
  8
2
100
AcDbCircle
 10
-284.464293
 20
152.657236
 30
0.0
 40
0.5
100
AcDbArc
 50
120.0
 51
300.0
  0
LINE
  5
310
330
27
100
AcDbEntity
  8
2
100
AcDbLine
 10
-284.214293
 20
152.224223
 30
0.0
 11
-275.554039
 21
157.224223
 31
0.0
  0
LINE
  5
311
330
27
100
AcDbEntity
  8
2
100
AcDbLine
 10
-288.060829
 20
160.473146
 30
0.0
 11
-278.663902
 21
163.893347
 31
0.0
  0
ARC
  5
312
330
27
100
AcDbEntity
  8
2
100
AcDbCircle
 10
-287.889819
 20
160.003299
 30
0.0
 40
0.5
100
AcDbArc
 50
110.0
 51
290.0
  0
LINE
  5
313
330
27
100
AcDbEntity
  8
2
100
AcDbLine
 10
-287.718809
 20
159.533453
 30
0.0
 11
-278.321882
 21
162.953654
 31
0.0
  0
ARC
  5
314
330
27
100
AcDbEntity
  8
2
100
AcDbCircle
 10
-244.194112
 20
175.907236
 30
0.0
 40
47.0
100
AcDbArc
 50
178.767738
 51
181.232262
  0
LINE
  5
315
330
27
100
AcDbEntity
  8
2
100
AcDbLine
 10
-260.567895
 20
132.382539
 30
0.0
 11
-257.147693
 21
141.779465
 31
0.0
  0
LINE
  5
316
330
27
100
AcDbEntity
  8
2
100
AcDbLine
 10
-259.628202
 20
132.040519
 30
0.0
 11
-256.208001
 21
141.437445
 31
0.0
  0
LINE
  5
317
330
27
100
AcDbEntity
  8
2
100
AcDbLine
 10
-267.877124
 20
135.887055
 30
0.0
 11
-262.877124
 21
144.547309
 31
0.0
  0
ARC
  5
318
330
27
100
AcDbEntity
  8
2
100
AcDbCircle
 10
-267.444112
 20
135.637055
 30
0.0
 40
0.5
100
AcDbArc
 50
150.0
 51
330.0
  0
LINE
  5
319
330
27
100
AcDbEntity
  8
2
100
AcDbLine
 10
-267.011099
 20
135.387055
 30
0.0
 11
-262.011099
 21
144.047309
 31
0.0
  0
LINE
  5
31A
330
27
100
AcDbEntity
  8
2
100
AcDbLine
 10
-274.466758
 20
140.607563
 30
0.0
 11
-268.038882
 21
148.268008
 31
0.0
  0
ARC
  5
31B
330
27
100
AcDbEntity
  8
2
100
AcDbCircle
 10
-274.083736
 20
140.286169
 30
0.0
 40
0.5
100
AcDbArc
 50
140.0
 51
320.0
  0
LINE
  5
31C
330
27
100
AcDbEntity
  8
2
100
AcDbLine
 10
-273.700713
 20
139.964776
 30
0.0
 11
-267.2728370000001
 21
147.62522
 31
0.0
  0
LINE
  5
31D
330
27
100
AcDbEntity
  8
2
100
AcDbLine
 10
-251.776348
 20
130.026851
 30
0.0
 11
-250.039866
 21
139.874929
 31
0.0
  0
LINE
  5
31E
330
27
100
AcDbEntity
  8
2
100
AcDbLine
 10
-252.761156
 20
130.2005
 30
0.0
 11
-251.024674
 21
140.048577
 31
0.0
  0
LINE
  5
31F
330
27
100
AcDbEntity
  8
2
100
AcDbLine
 10
-245.694112
 20
129.41799
 30
0.0
 11
-245.694112
 21
148.425424
 31
0.0
  0
LINE
  5
320
330
27
100
AcDbEntity
  8
2
100
AcDbLine
 10
-242.694112
 20
129.41799
 30
0.0
 11
-242.694112
 21
148.425424
 31
0.0
  0
LINE
  5
321
330
27
100
AcDbEntity
  8
2
100
AcDbLine
 10
-277.015459
 20
165.042662
 30
0.0
 11
-276.304312
 21
165.753809
 31
0.0
  0
LINE
  5
322
330
27
100
AcDbEntity
  8
2
100
AcDbLine
 10
-275.593165
 20
166.464957
 30
0.0
 11
-274.882018
 21
167.176104
 31
0.0
  0
LINE
  5
323
330
27
100
AcDbEntity
  8
2
100
AcDbLine
 10
-273.561315
 20
168.496806
 30
0.0
 11
-272.850168
 21
169.207953
 31
0.0
  0
ARC
  5
324
330
27
100
AcDbEntity
  8
2
100
AcDbCircle
 10
-250.53227
 20
139.961753
 30
0.0
 40
0.5
100
AcDbArc
 50
350.0
 51
170.0
  0
ARC
  5
325
330
27
100
AcDbEntity
  8
2
100
AcDbCircle
 10
-256.677847
 20
141.608455
 30
0.0
 40
0.5
100
AcDbArc
 50
340.0
 51
160.0
  0
ARC
  5
326
330
27
100
AcDbEntity
  8
2
100
AcDbCircle
 10
-262.444112
 20
144.297309
 30
0.0
 40
0.5
100
AcDbArc
 50
330.0
 51
150.0
  0
ARC
  5
327
330
27
100
AcDbEntity
  8
2
100
AcDbCircle
 10
-267.65586
 20
147.9466139999999
 30
0.0
 40
0.5
100
AcDbArc
 50
320.0
 51
140.0
  0
ARC
  5
328
330
27
100
AcDbEntity
  8
2
100
AcDbCircle
 10
-272.154734
 20
152.445488
 30
0.0
 40
0.5
100
AcDbArc
 50
310.0
 51
130.0
  0
ARC
  5
329
330
27
100
AcDbEntity
  8
2
100
AcDbCircle
 10
-275.804039
 20
157.657236
 30
0.0
 40
0.5
100
AcDbArc
 50
300.0
 51
120.0
  0
ARC
  5
32A
330
27
100
AcDbEntity
  8
2
100
AcDbCircle
 10
-278.492892
 20
163.423501
 30
0.0
 40
0.5
100
AcDbArc
 50
290.0
 51
110.0
  0
ARC
  5
32B
330
27
100
AcDbEntity
  8
2
100
AcDbCircle
 10
-280.139595
 20
169.569078
 30
0.0
 40
0.5
100
AcDbArc
 50
280.0
 51
100.0
  0
ARC
  5
32C
330
27
100
AcDbEntity
  8
2
100
AcDbCircle
 10
-244.194112
 20
175.907236
 30
0.0
 40
47.0
100
AcDbArc
 50
189.999966
 51
190.000034
  0
ARC
  5
32D
330
27
100
AcDbEntity
  8
2
100
AcDbCircle
 10
-245.194112
 20
129.41799
 30
0.0
 40
0.5
100
AcDbArc
 50
180.0
 51
268.767738
  0
ARC
  5
32E
330
27
100
AcDbEntity
  8
2
100
AcDbCircle
 10
-243.194112
 20
129.41799
 30
0.0
 40
0.5
100
AcDbArc
 50
271.232262
 51
360.0
  0
ARC
  5
32F
330
27
100
AcDbEntity
  8
2
100
AcDbCircle
 10
-244.194112
 20
175.907236
 30
0.0
 40
47.0
100
AcDbArc
 50
199.999929
 51
200.000071
  0
ARC
  5
330
330
27
100
AcDbEntity
  8
2
100
AcDbCircle
 10
-244.194112
 20
175.907236
 30
0.0
 40
47.0
100
AcDbArc
 50
268.767738
 51
271.232262
  0
ARC
  5
331
330
27
100
AcDbEntity
  8
2
100
AcDbCircle
 10
-244.194112
 20
175.907236
 30
0.0
 40
27.0
100
AcDbArc
 50
267.916058
 51
272.083942
  0
ARC
  5
332
330
27
100
AcDbEntity
  8
2
100
AcDbCircle
 10
-243.194112
 20
148.425424
 30
0.0
 40
0.5
100
AcDbArc
 50
0.0
 51
92.083942
  0
ARC
  5
333
330
27
100
AcDbEntity
  8
2
100
AcDbCircle
 10
-245.194112
 20
148.425424
 30
0.0
 40
0.5
100
AcDbArc
 50
87.91605799999999
 51
180.0
  0
ARC
  5
334
330
27
100
AcDbEntity
  8
2
100
AcDbCircle
 10
-260.098048
 20
132.211529
 30
0.0
 40
0.5
100
AcDbArc
 50
160.0
 51
340.0
  0
ARC
  5
335
330
27
100
AcDbEntity
  8
2
100
AcDbCircle
 10
-252.268752
 20
130.113675
 30
0.0
 40
0.5
100
AcDbArc
 50
170.0
 51
350.0
  0
LINE
  5
336
330
27
100
AcDbEntity
  8
2
100
AcDbLine
 10
-222.118701
 20
161.483173
 30
0.0
 11
-220.570285
 21
160.957608
 31
0.0
  0
LINE
  5
337
330
27
100
AcDbEntity
  8
2
100
AcDbLine
 10
-220.570285
 20
160.957608
 30
0.0
 11
-221.06094
 21
161.511018
 31
0.0
  0
ARC
  5
338
330
27
100
AcDbEntity
  8
2
  6
CENTER
 62
     2
100
AcDbCircle
 10
-244.194112
 20
175.907236
 30
0.0
 40
35.0
100
AcDbArc
 50
298.585378
 51
330.968199
  0
LINE
  5
339
330
27
100
AcDbEntity
  8
2
  6
CENTER
 62
     2
100
AcDbLine
 10
-212.169423
 20
143.882547
 30
0.0
 11
-226.845271
 21
158.558396
 31
0.0
  0
ARC
  5
33A
330
27
100
AcDbEntity
  8
2
  6
DASHED
100
AcDbCircle
 10
-244.194112
 20
175.907236
 30
0.0
 40
35.0
100
AcDbArc
 50
118.005522
 51
150.923658
  0
LINE
  5
33B
330
27
100
AcDbEntity
  8
2
  6
CENTER
 62
     2
100
AcDbLine
 10
-260.6164950000001
 20
192.329619
 30
0.0
 11
-277.336095
 21
209.04922
 31
0.0
  0
TEXT
  5
33C
330
27
100
AcDbEntity
  8
2
100
AcDbText
 10
-225.645134
 20
144.562855
 30
0.0
 40
10.0
  1
Ｏ
 50
202.4999949354929
 41
0.9230769816883995
 72
     5
 11
-233.036171
 21
141.501388
 31
0.0
100
AcDbText
  0
TEXT
  5
33D
330
27
100
AcDbEntity
  8
2
  6
DASHED
100
AcDbText
 10
-279.154262
 20
185.652738
 30
0.0
 40
10.0
  1
Ｓ
 50
67.50000506450724
 41
1.000000063495764
 72
     5
 11
-276.092795
 21
193.043775
 31
0.0
100
AcDbText
  0
TEXT
  5
33E
330
27
100
AcDbEntity
  8
2
100
AcDbText
 10
-265.244406
 20
189.45702
 30
0.0
 40
3.0
  1
Ｊ
 50
55.00001002932581
 41
1.199999910116054
 72
     5
 11
-263.867823
 21
191.422985
 31
0.0
100
AcDbText
  0
TEXT
  5
33F
330
27
100
AcDbEntity
  8
2
100
AcDbText
 10
-263.983362
 20
191.240113
 30
0.0
 40
3.0
  1
Ａ
 50
50.00000997822133
 41
0.9230769571433532
 72
     5
 11
-262.440672
 21
193.07862
 31
0.0
100
AcDbText
  0
TEXT
  5
340
330
27
100
AcDbEntity
  8
2
100
AcDbText
 10
-261.020192
 20
194.44354
 30
0.0
 40
3.0
  1
Ａ
 50
40.0000236551673
 41
0.9230769097369421
 72
     5
 11
-259.181686
 21
195.986231
 31
0.0
100
AcDbText
  0
TEXT
  5
341
330
27
100
AcDbEntity
  8
2
100
AcDbText
 10
-259.340619
 20
195.839493
 30
0.0
 40
3.0
  1
Ｎ
 50
35.00000952648772
 41
0.9230770745417308
 72
     5
 11
-257.374654
 21
197.216077
 31
0.0
100
AcDbText
  0
TEXT
  5
342
330
27
100
AcDbEntity
  8
2
100
AcDbText
 10
-262.571709
 20
192.906514
 30
0.0
 40
3.0
  1
Ｐ
 50
45.00001688092816
 41
1.000000132672309
 72
     5
 11
-260.874653
 21
194.603571
 31
0.0
100
AcDbText
  0
TEXT
  5
343
330
27
100
AcDbEntity
  8
2
100
AcDbText
 10
-231.670565
 20
154.230698
 30
0.0
 40
3.0
  1
Ｄ
 50
207.7858341098464
 41
0.9999999906467046
 72
     5
 11
-233.793836
 21
153.111895
 31
0.0
100
AcDbText
  0
TEXT
  5
344
330
27
100
AcDbEntity
  8
2
100
AcDbText
 10
-229.828986
 20
155.404682
 30
0.0
 40
3.0
  1
Ｅ
 50
212.7858392287266
 41
1.090909031909281
 72
     5
 11
-231.846667
 21
154.105081
 31
0.0
100
AcDbText
  0
TEXT
  5
345
330
27
100
AcDbEntity
  8
2
100
AcDbText
 10
-228.096735
 20
156.734704
 30
0.0
 40
3.0
  1
Ｔ
 50
217.7858433203656
 41
0.9230767178116051
 72
     5
 11
-229.99347
 21
155.264196
 31
0.0
100
AcDbText
  0
TEXT
  5
346
330
27
100
AcDbEntity
  8
2
100
AcDbText
 10
-226.486994
 20
158.2106399999999
 30
0.0
 40
3.0
  1
Ｎ
 50
222.7858359161866
 41
0.9230770613943107
 72
     5
 11
-228.248349
 21
156.580416
 31
0.0
100
AcDbText
  0
TEXT
  5
347
330
27
100
AcDbEntity
  8
2
100
AcDbText
 10
-225.012015
 20
159.821258
 30
0.0
 40
3.0
  1
Ｅ
 50
227.785842866681
 41
1.090909313053958
 72
     5
 11
-226.624584
 21
158.043725
 31
0.0
100
AcDbText
  0
TEXT
  5
348
330
27
100
AcDbEntity
  8
2
100
AcDbText
 10
-223.683023
 20
161.5543
 30
0.0
 40
3.0
  1
Ｔ
 50
232.7858433263027
 41
0.9230768160311685
 72
     5
 11
-225.134533
 21
159.642987
 31
0.0
100
AcDbText
  0
LINE
  5
349
330
27
100
AcDbEntity
  8
2
100
AcDbLine
 10
-244.194112
 20
149.907236
 30
0.0
 11
-246.653112
 21
149.907236
 31
0.0
  0
LINE
  5
34A
330
27
100
AcDbEntity
  8
2
100
AcDbLine
 10
-246.653112
 20
149.907236
 30
0.0
 11
-247.194112
 21
150.448236
 31
0.0
  0
LINE
  5
34B
330
27
100
AcDbEntity
  8
2
100
AcDbLine
 10
-247.194112
 20
150.448236
 30
0.0
 11
-247.194112
 21
153.926165
 31
0.0
  0
LINE
  5
34C
330
27
100
AcDbEntity
  8
2
100
AcDbLine
 10
-247.194112
 20
150.448236
 30
0.0
 11
-244.194112
 21
150.448236
 31
0.0
  0
LINE
  5
34D
330
27
100
AcDbEntity
  8
2
100
AcDbLine
 10
-244.194112
 20
149.907236
 30
0.0
 11
-241.735112
 21
149.907236
 31
0.0
  0
LINE
  5
34E
330
27
100
AcDbEntity
  8
2
100
AcDbLine
 10
-241.735112
 20
149.907236
 30
0.0
 11
-241.194112
 21
150.448236
 31
0.0
  0
LINE
  5
34F
330
27
100
AcDbEntity
  8
2
100
AcDbLine
 10
-241.194112
 20
150.448236
 30
0.0
 11
-241.194112
 21
153.926165
 31
0.0
  0
LINE
  5
350
330
27
100
AcDbEntity
  8
2
100
AcDbLine
 10
-241.194112
 20
150.448236
 30
0.0
 11
-244.194112
 21
150.448236
 31
0.0
  0
POINT
  5
351
330
27
100
AcDbEntity
  8
2
100
AcDbPoint
 10
-244.194112
 20
158.907236
 30
0.0
  0
LINE
  5
352
330
27
100
AcDbEntity
  8
2
100
AcDbLine
 10
-244.194112
 20
158.907236
 30
0.0
 11
-238.444112
 21
158.907236
 31
0.0
  0
LINE
  5
353
330
27
100
AcDbEntity
  8
2
100
AcDbLine
 10
-238.444112
 20
158.907236
 30
0.0
 11
-238.444112
 21
154.397984
 31
0.0
  0
LINE
  5
354
330
27
100
AcDbEntity
  8
2
100
AcDbLine
 10
-238.444112
 20
154.397984
 30
0.0
 11
-239.294112
 21
153.907236
 31
0.0
  0
LINE
  5
355
330
27
100
AcDbEntity
  8
2
100
AcDbLine
 10
-239.294112
 20
153.907236
 30
0.0
 11
-244.194112
 21
153.907236
 31
0.0
  0
LINE
  5
356
330
27
100
AcDbEntity
  8
2
100
AcDbLine
 10
-241.319112
 20
158.907236
 30
0.0
 11
-241.319112
 21
154.397984
 31
0.0
  0
ARC
  5
357
330
27
100
AcDbEntity
  8
2
100
AcDbCircle
 10
-239.881612
 20
156.245939
 30
0.0
 40
2.341226999999999
100
AcDbArc
 50
232.121121
 51
307.878879
  0
ARC
  5
358
330
27
100
AcDbEntity
  8
2
100
AcDbCircle
 10
-244.194112
 20
162.529712
 30
0.0
 40
8.625
100
AcDbArc
 50
270.0
 51
289.471221
  0
LINE
  5
359
330
27
100
AcDbEntity
  8
2
100
AcDbLine
 10
-244.194112
 20
158.907236
 30
0.0
 11
-249.944112
 21
158.907236
 31
0.0
  0
LINE
  5
35A
330
27
100
AcDbEntity
  8
2
100
AcDbLine
 10
-249.944112
 20
158.907236
 30
0.0
 11
-249.944112
 21
154.397984
 31
0.0
  0
LINE
  5
35B
330
27
100
AcDbEntity
  8
2
100
AcDbLine
 10
-249.944112
 20
154.397984
 30
0.0
 11
-249.094112
 21
153.907236
 31
0.0
  0
LINE
  5
35C
330
27
100
AcDbEntity
  8
2
100
AcDbLine
 10
-249.094112
 20
153.907236
 30
0.0
 11
-244.194112
 21
153.907236
 31
0.0
  0
LINE
  5
35D
330
27
100
AcDbEntity
  8
2
100
AcDbLine
 10
-247.069112
 20
158.907236
 30
0.0
 11
-247.069112
 21
154.397984
 31
0.0
  0
ARC
  5
35E
330
27
100
AcDbEntity
  8
2
100
AcDbCircle
 10
-248.506612
 20
156.245939
 30
0.0
 40
2.341226999999999
100
AcDbArc
 50
232.121121
 51
307.878879
  0
ARC
  5
35F
330
27
100
AcDbEntity
  8
2
100
AcDbCircle
 10
-244.194112
 20
162.529712
 30
0.0
 40
8.625
100
AcDbArc
 50
250.528779
 51
270.0
  0
LINE
  5
360
330
27
100
AcDbEntity
  8
2
 62
     2
100
AcDbLine
 10
-246.653112
 20
149.907236
 30
0.0
 11
-246.653112
 21
153.907236
 31
0.0
  0
LINE
  5
361
330
27
100
AcDbEntity
  8
2
 62
     2
100
AcDbLine
 10
-241.735112
 20
149.907236
 30
0.0
 11
-241.735112
 21
153.907236
 31
0.0
  0
CIRCLE
  5
362
330
27
100
AcDbEntity
  8
2
100
AcDbCircle
 10
-219.445374
 20
151.158499
 30
0.0
 40
6.5
  0
LINE
  5
363
330
27
100
AcDbEntity
  8
2
100
AcDbLine
 10
-215.692598
 20
157.658499
 30
0.0
 11
-223.198151
 21
157.658499
 31
0.0
  0
LINE
  5
364
330
27
100
AcDbEntity
  8
2
100
AcDbLine
 10
-223.198151
 20
157.658499
 30
0.0
 11
-226.950928
 21
151.158499
 31
0.0
  0
LINE
  5
365
330
27
100
AcDbEntity
  8
2
100
AcDbLine
 10
-226.950928
 20
151.158499
 30
0.0
 11
-223.198151
 21
144.658499
 31
0.0
  0
LINE
  5
366
330
27
100
AcDbEntity
  8
2
100
AcDbLine
 10
-223.198151
 20
144.658499
 30
0.0
 11
-215.692598
 21
144.658499
 31
0.0
  0
LINE
  5
367
330
27
100
AcDbEntity
  8
2
100
AcDbLine
 10
-215.692598
 20
144.658499
 30
0.0
 11
-211.939821
 21
151.158499
 31
0.0
  0
LINE
  5
368
330
27
100
AcDbEntity
  8
2
100
AcDbLine
 10
-211.939821
 20
151.158499
 30
0.0
 11
-215.692598
 21
157.658499
 31
0.0
  0
LINE
  5
369
330
27
100
AcDbEntity
  8
2
100
AcDbLine
 10
-276.448403
 20
200.655973
 30
0.0
 11
-272.695626
 21
194.155973
 31
0.0
  0
LINE
  5
36A
330
27
100
AcDbEntity
  8
2
100
AcDbLine
 10
-272.695626
 20
207.155973
 30
0.0
 11
-276.448403
 21
200.655973
 31
0.0
  0
LINE
  5
36B
330
27
100
AcDbEntity
  8
2
100
AcDbLine
 10
-265.190072
 20
207.155973
 30
0.0
 11
-272.695626
 21
207.155973
 31
0.0
  0
LINE
  5
36C
330
27
100
AcDbEntity
  8
2
100
AcDbLine
 10
-261.437296
 20
200.655973
 30
0.0
 11
-265.190072
 21
207.155973
 31
0.0
  0
LINE
  5
36D
330
27
100
AcDbEntity
  8
2
100
AcDbLine
 10
-265.190072
 20
194.155973
 30
0.0
 11
-261.437296
 21
200.655973
 31
0.0
  0
LINE
  5
36E
330
27
100
AcDbEntity
  8
2
100
AcDbLine
 10
-272.695626
 20
194.155973
 30
0.0
 11
-265.190072
 21
194.155973
 31
0.0
  0
CIRCLE
  5
36F
330
27
100
AcDbEntity
  8
2
100
AcDbCircle
 10
-268.942849
 20
200.655973
 30
0.0
 40
6.5
  0
ARC
  5
370
330
27
100
AcDbEntity
  8
2
100
AcDbCircle
 10
-54.19411199999999
 20
175.907236
 30
0.0
 40
10.0
100
AcDbArc
 50
271.507958
 51
88.492042
  0
LINE
  5
371
330
27
100
AcDbEntity
  8
2
100
AcDbLine
 10
-239.194112
 20
2.364533
 30
0.0
 11
-239.194112
 21
11.364533
 31
0.0
  0
LINE
  5
372
330
27
100
AcDbEntity
  8
2
100
AcDbLine
 10
-249.194112
 20
2.364533
 30
0.0
 11
-249.194112
 21
11.364533
 31
0.0
  0
LINE
  5
373
330
27
100
AcDbEntity
  8
2
100
AcDbLine
 10
-228.597351
 20
28.67972700000001
 30
0.0
 11
-50.983837
 21
66.43264499999999
 31
0.0
  0
ARC
  5
374
330
27
100
AcDbEntity
  8
2
100
AcDbCircle
 10
-264.194112
 20
27.872916
 30
0.0
 40
5.0
100
AcDbArc
 50
290.0
 51
360.0
  0
LINE
  5
375
330
27
100
AcDbEntity
  8
2
100
AcDbLine
 10
-279.220172
 20
17.082988
 30
0.0
 11
-262.484011
 21
23.174453
 31
0.0
  0
LINE
  5
376
330
27
100
AcDbEntity
  8
2
100
AcDbLine
 10
-233.194112
 20
12.364533
 30
0.0
 11
-281.194112
 21
12.364533
 31
0.0
  0
LINE
  5
377
330
27
100
AcDbEntity
  8
2
100
AcDbLine
 10
-255.194112
 20
11.364533
 30
0.0
 11
-255.194112
 21
12.364533
 31
0.0
  0
LINE
  5
378
330
27
100
AcDbEntity
  8
2
100
AcDbLine
 10
-281.194112
 20
14.26391
 30
0.0
 11
-281.194112
 21
12.364533
 31
0.0
  0
LINE
  5
379
330
27
100
AcDbEntity
  8
2
100
AcDbLine
 10
-229.194112
 20
32.364533
 30
0.0
 11
-230.194112
 21
33.364533
 31
0.0
  0
LINE
  5
37A
330
27
100
AcDbEntity
  8
2
100
AcDbLine
 10
-258.194112
 20
33.364533
 30
0.0
 11
-259.194112
 21
32.364533
 31
0.0
  0
LINE
  5
37B
330
27
100
AcDbEntity
  8
2
100
AcDbLine
 10
-259.194112
 20
27.872916
 30
0.0
 11
-259.194112
 21
32.364533
 31
0.0
  0
LINE
  5
37C
330
27
100
AcDbEntity
  8
2
100
AcDbLine
 10
-229.194112
 20
32.257573
 30
0.0
 11
-229.194112
 21
32.364533
 31
0.0
  0
LINE
  5
37D
330
27
100
AcDbEntity
  8
2
100
AcDbLine
 10
-233.194112
 20
11.364533
 30
0.0
 11
-255.194112
 21
11.364533
 31
0.0
  0
LINE
  5
37E
330
27
100
AcDbEntity
  8
2
100
AcDbLine
 10
-233.194112
 20
11.364533
 30
0.0
 11
-233.194112
 21
12.364533
 31
0.0
  0
LINE
  5
37F
330
27
100
AcDbEntity
  8
2
100
AcDbLine
 10
-250.963343
 20
32.364533
 30
0.0
 11
-250.963343
 21
12.364533
 31
0.0
  0
LINE
  5
380
330
27
100
AcDbEntity
  8
2
100
AcDbLine
 10
-237.424881
 20
32.364533
 30
0.0
 11
-237.424881
 21
12.364533
 31
0.0
  0
ARC
  5
381
330
27
100
AcDbEntity
  8
2
100
AcDbCircle
 10
-278.194112
 20
14.26391
 30
0.0
 40
3.0
100
AcDbArc
 50
110.0
 51
180.0
  0
ARC
  5
382
330
27
100
AcDbEntity
  8
2
100
AcDbCircle
 10
-249.963343
 20
32.364533
 30
0.0
 40
1.0
100
AcDbArc
 50
90.0
 51
180.0
  0
ARC
  5
383
330
27
100
AcDbEntity
  8
2
100
AcDbCircle
 10
-238.424881
 20
32.364533
 30
0.0
 40
1.0
100
AcDbArc
 50
0.0
 51
90.0
  0
LINE
  5
384
330
27
100
AcDbEntity
  8
2
100
AcDbLine
 10
-230.194112
 20
33.364533
 30
0.0
 11
-258.194112
 21
33.364533
 31
0.0
  0
ARC
  5
385
330
27
100
AcDbEntity
  8
2
100
AcDbCircle
 10
-267.532475
 20
43.04673499999999
 30
0.0
 40
22.811628
100
AcDbArc
 50
283.335578
 51
313.128065
  0
CIRCLE
  5
386
330
27
100
AcDbEntity
  8
2
100
AcDbCircle
 10
-154.194112
 20
31.364533
 30
0.0
 40
2.0
  0
ARC
  5
387
330
27
100
AcDbEntity
  8
2
100
AcDbCircle
 10
-154.194112
 20
31.364533
 30
0.0
 40
5.0
100
AcDbArc
 50
0.0
 51
180.0
  0
LINE
  5
388
330
27
100
AcDbEntity
  8
2
100
AcDbLine
 10
-159.194112
 20
31.364533
 30
0.0
 11
-159.194112
 21
22.364533
 31
0.0
  0
LINE
  5
389
330
27
100
AcDbEntity
  8
2
100
AcDbLine
 10
-233.194112
 20
12.364533
 30
0.0
 11
-191.880515
 21
21.146009
 31
0.0
  0
ARC
  5
38A
330
27
100
AcDbEntity
  8
2
100
AcDbCircle
 10
-226.194112
 20
32.257573
 30
0.0
 40
3.0
100
AcDbArc
 50
180.0
 51
282.0
  0
ARC
  5
38B
330
27
100
AcDbEntity
  8
2
100
AcDbCircle
 10
-158.194112
 20
22.364533
 30
0.0
 40
1.0
100
AcDbArc
 50
180.0
 51
270.0
  0
LINE
  5
38C
330
27
100
AcDbEntity
  8
2
100
AcDbLine
 10
-189.801398
 20
21.364533
 30
0.0
 11
-150.336247
 21
21.364533
 31
0.0
  0
ARC
  5
38D
330
27
100
AcDbEntity
  8
2
100
AcDbCircle
 10
-150.336247
 20
31.364533
 30
0.0
 40
10.0
100
AcDbArc
 50
270.0
 51
315.0
  0
ARC
  5
38E
330
27
100
AcDbEntity
  8
2
100
AcDbCircle
 10
-189.801398
 20
11.364533
 30
0.0
 40
10.0
100
AcDbArc
 50
90.0
 51
102.0
  0
CIRCLE
  5
38F
330
27
100
AcDbEntity
  8
2
100
AcDbCircle
 10
-244.194112
 20
17.86453299999999
 30
0.0
 40
5.0
  0
CIRCLE
  5
390
330
27
100
AcDbEntity
  8
2
100
AcDbCircle
 10
-244.194112
 20
17.86453299999999
 30
0.0
 40
3.0
  0
CIRCLE
  5
391
330
27
100
AcDbEntity
  8
2
100
AcDbCircle
 10
-244.194112
 20
17.86453299999999
 30
0.0
 40
2.5
  0
LINE
  5
392
330
27
100
AcDbEntity
  8
2
100
AcDbLine
 10
-249.967614
 20
17.86453299999999
 30
0.0
 11
-247.080863
 21
12.864533
 31
0.0
  0
LINE
  5
393
330
27
100
AcDbEntity
  8
2
100
AcDbLine
 10
-247.080863
 20
12.864533
 30
0.0
 11
-241.30736
 21
12.864533
 31
0.0
  0
LINE
  5
394
330
27
100
AcDbEntity
  8
2
100
AcDbLine
 10
-241.30736
 20
12.864533
 30
0.0
 11
-238.420609
 21
17.86453299999999
 31
0.0
  0
LINE
  5
395
330
27
100
AcDbEntity
  8
2
100
AcDbLine
 10
-238.420609
 20
17.86453299999999
 30
0.0
 11
-241.30736
 21
22.864533
 31
0.0
  0
LINE
  5
396
330
27
100
AcDbEntity
  8
2
100
AcDbLine
 10
-241.30736
 20
22.864533
 30
0.0
 11
-247.080863
 21
22.864533
 31
0.0
  0
LINE
  5
397
330
27
100
AcDbEntity
  8
2
100
AcDbLine
 10
-247.080863
 20
22.864533
 30
0.0
 11
-249.967614
 21
17.86453299999999
 31
0.0
  0
LINE
  5
398
330
27
100
AcDbEntity
  8
2
  6
CENTER
 62
     2
100
AcDbLine
 10
-144.271491
 20
31.364533
 30
0.0
 11
-164.478765
 21
31.364533
 31
0.0
  0
LINE
  5
399
330
27
100
AcDbEntity
  8
2
  6
CENTER
 62
     2
100
AcDbLine
 10
-154.194112
 20
41.756023
 30
0.0
 11
-154.194112
 21
20.372138
 31
0.0
  0
LINE
  5
39A
330
27
100
AcDbEntity
  8
2
100
AcDbLine
 10
-235.424881
 20
22.557413
 30
0.0
 11
-235.424881
 21
12.364533
 31
0.0
  0
ARC
  5
39B
330
27
100
AcDbEntity
  8
2
100
AcDbCircle
 10
-230.424881
 20
22.557413
 30
0.0
 40
5.0
100
AcDbArc
 50
124.714037
 51
180.0
  0
ARC
  5
39C
330
27
100
AcDbEntity
  8
2
100
AcDbCircle
 10
-225.894499
 20
15.963808
 30
0.0
 40
13.0
100
AcDbArc
 50
102.0
 51
124.492462
  0
LINE
  5
39D
330
27
100
AcDbEntity
  8
2
100
AcDbLine
 10
-262.270882
 20
20.850203
 30
0.0
 11
-278.568693
 21
16.986877
 31
0.0
  0
LINE
  5
39E
330
27
100
AcDbEntity
  8
2
  6
CENTER
 62
     2
100
AcDbLine
 10
-252.937202
 20
17.86453299999999
 30
0.0
 11
-235.145449
 21
17.86453299999999
 31
0.0
  0
CIRCLE
  5
39F
330
27
100
AcDbEntity
  8
2
100
AcDbCircle
 10
-154.194112
 20
31.364533
 30
0.0
 40
1.5
  0
ARC
  5
3A0
330
27
100
AcDbEntity
  8
2
100
AcDbCircle
 10
-188.96786
 20
-3.635466999999999
 30
0.0
 40
1.0
100
AcDbArc
 50
180.0
 51
270.0
  0
LINE
  5
3A1
330
27
100
AcDbEntity
  8
2
100
AcDbLine
 10
-188.96786
 20
-4.635467
 30
0.0
 11
-183.194112
 21
-4.635467
 31
0.0
  0
LINE
  5
3A2
330
27
100
AcDbEntity
  8
2
100
AcDbLine
 10
-179.658578
 20
-3.171000999999999
 30
0.0
 11
-176.123044
 21
0.364533
 31
0.0
  0
LINE
  5
3A3
330
27
100
AcDbEntity
  8
2
100
AcDbLine
 10
-189.96786
 20
7.364532999999999
 30
0.0
 11
-177.658578
 21
19.673815
 31
0.0
  0
ARC
  5
3A4
330
27
100
AcDbEntity
  8
2
100
AcDbCircle
 10
-142.35498
 20
-8.29381
 30
0.0
 40
30.0
100
AcDbArc
 50
80.0
 51
135.0
  0
LINE
  5
3A5
330
27
100
AcDbEntity
  8
2
100
AcDbLine
 10
-189.96786
 20
7.364532999999999
 30
0.0
 11
-189.96786
 21
2.364533
 31
0.0
  0
LINE
  5
3A6
330
27
100
AcDbEntity
  8
2
100
AcDbLine
 10
-181.123044
 20
16.209349
 30
0.0
 11
-181.123044
 21
2.364533
 31
0.0
  0
ARC
  5
3A7
330
27
100
AcDbEntity
  8
2
100
AcDbCircle
 10
-183.194112
 20
0.364533
 30
0.0
 40
5.0
100
AcDbArc
 50
270.0
 51
315.0
  0
LINE
  5
3A8
330
27
100
AcDbEntity
  8
2
100
AcDbLine
 10
-176.194112
 20
21.364533
 30
0.0
 11
-176.194112
 21
2.364533
 31
0.0
  0
ARC
  5
3A9
330
27
100
AcDbEntity
  8
2
100
AcDbCircle
 10
-181.194112
 20
23.209349
 30
0.0
 40
5.0
100
AcDbArc
 50
315.0
 51
338.348311
  0
LINE
  5
3AA
330
27
100
AcDbEntity
  8
2
100
AcDbLine
 10
-177.094112
 20
-0.6065350000000001
 30
0.0
 11
-177.094112
 21
0.364533
 31
0.0
  0
LINE
  5
3AB
330
27
100
AcDbEntity
  8
2
100
AcDbLine
 10
-189.96786
 20
0.364533
 30
0.0
 11
-189.96786
 21
-3.635466999999999
 31
0.0
  0
LINE
  5
3AC
330
27
100
AcDbEntity
  8
2
100
AcDbLine
 10
-181.123044
 20
0.364533
 30
0.0
 11
-181.123044
 21
-4.186366
 31
0.0
  0
LINE
  5
3AD
330
27
100
AcDbEntity
  8
2
100
AcDbLine
 10
-176.194112
 20
0.364533
 30
0.0
 11
-176.194112
 21
0.293465
 31
0.0
  0
LINE
  5
3AE
330
27
100
AcDbEntity
  8
2
100
AcDbLine
 10
-174.123044
 20
2.364533
 30
0.0
 11
-163.568183
 21
12.919393
 31
0.0
  0
LINE
  5
3AF
330
27
100
AcDbEntity
  8
2
100
AcDbLine
 10
-169.194112
 20
2.364533
 30
0.0
 11
-169.194112
 21
0.364533
 31
0.0
  0
LINE
  5
3B0
330
27
100
AcDbEntity
  8
2
100
AcDbLine
 10
-169.194112
 20
2.364533
 30
0.0
 11
-294.194112
 21
2.364533
 31
0.0
  0
LINE
  5
3B1
330
27
100
AcDbEntity
  8
2
100
AcDbLine
 10
-294.194112
 20
0.364533
 30
0.0
 11
-169.194112
 21
0.364533
 31
0.0
  0
LINE
  5
3B2
330
27
100
AcDbEntity
  8
2
100
AcDbLine
 10
-204.782763
 20
2.364533
 30
0.0
 11
-204.782763
 21
0.364533
 31
0.0
  0
POINT
  5
3B3
330
27
100
AcDbEntity
  8
2
100
AcDbPoint
 10
-219.445374
 20
2.364533
 30
0.0
  0
LINE
  5
3B4
330
27
100
AcDbEntity
  8
2
100
AcDbLine
 10
-219.445374
 20
2.364533
 30
0.0
 11
-226.945374
 21
2.364533
 31
0.0
  0
LINE
  5
3B5
330
27
100
AcDbEntity
  8
2
100
AcDbLine
 10
-226.945374
 20
2.364533
 30
0.0
 11
-226.945374
 21
7.142844999999999
 31
0.0
  0
LINE
  5
3B6
330
27
100
AcDbEntity
  8
2
100
AcDbLine
 10
-226.945374
 20
7.142844999999999
 30
0.0
 11
-225.695374
 21
7.864532999999999
 31
0.0
  0
LINE
  5
3B7
330
27
100
AcDbEntity
  8
2
100
AcDbLine
 10
-225.695374
 20
7.864532999999999
 30
0.0
 11
-219.445374
 21
7.864532999999999
 31
0.0
  0
LINE
  5
3B8
330
27
100
AcDbEntity
  8
2
100
AcDbLine
 10
-223.195374
 20
2.364533
 30
0.0
 11
-223.195374
 21
7.142844999999999
 31
0.0
  0
ARC
  5
3B9
330
27
100
AcDbEntity
  8
2
100
AcDbCircle
 10
-225.070374
 20
4.732469
 30
0.0
 40
3.053774
100
AcDbArc
 50
52.121121
 51
127.878879
  0
ARC
  5
3BA
330
27
100
AcDbEntity
  8
2
100
AcDbCircle
 10
-219.445374
 20
-3.463756999999999
 30
0.0
 40
11.25
100
AcDbArc
 50
90.0
 51
109.471221
  0
LINE
  5
3BB
330
27
100
AcDbEntity
  8
2
100
AcDbLine
 10
-219.445374
 20
-22.635467
 30
0.0
 11
-222.768874
 21
-22.635467
 31
0.0
  0
LINE
  5
3BC
330
27
100
AcDbEntity
  8
2
100
AcDbLine
 10
-222.768874
 20
-22.635467
 30
0.0
 11
-223.445374
 21
-21.958967
 31
0.0
  0
LINE
  5
3BD
330
27
100
AcDbEntity
  8
2
100
AcDbLine
 10
-223.445374
 20
-21.958967
 30
0.0
 11
-223.445374
 21
-20.135467
 31
0.0
  0
LINE
  5
3BE
330
27
100
AcDbEntity
  8
2
100
AcDbLine
 10
-223.445374
 20
-21.958967
 30
0.0
 11
-219.445374
 21
-21.958967
 31
0.0
  0
LINE
  5
3BF
330
27
100
AcDbEntity
  8
2
 62
     2
100
AcDbLine
 10
-222.768874
 20
-22.635467
 30
0.0
 11
-222.768874
 21
-20.135467
 31
0.0
  0
LINE
  5
3C0
330
27
100
AcDbEntity
  8
2
100
AcDbLine
 10
-219.445374
 20
2.364533
 30
0.0
 11
-211.945374
 21
2.364533
 31
0.0
  0
LINE
  5
3C1
330
27
100
AcDbEntity
  8
2
100
AcDbLine
 10
-211.945374
 20
2.364533
 30
0.0
 11
-211.945374
 21
7.142844999999999
 31
0.0
  0
LINE
  5
3C2
330
27
100
AcDbEntity
  8
2
100
AcDbLine
 10
-211.945374
 20
7.142844999999999
 30
0.0
 11
-213.195374
 21
7.864532999999999
 31
0.0
  0
LINE
  5
3C3
330
27
100
AcDbEntity
  8
2
100
AcDbLine
 10
-213.195374
 20
7.864532999999999
 30
0.0
 11
-219.445374
 21
7.864532999999999
 31
0.0
  0
LINE
  5
3C4
330
27
100
AcDbEntity
  8
2
100
AcDbLine
 10
-215.695374
 20
2.364533
 30
0.0
 11
-215.695374
 21
7.142844999999999
 31
0.0
  0
ARC
  5
3C5
330
27
100
AcDbEntity
  8
2
100
AcDbCircle
 10
-213.820374
 20
4.732469
 30
0.0
 40
3.053774
100
AcDbArc
 50
52.121121
 51
127.878879
  0
ARC
  5
3C6
330
27
100
AcDbEntity
  8
2
100
AcDbCircle
 10
-219.445374
 20
-3.463756999999999
 30
0.0
 40
11.25
100
AcDbArc
 50
70.528779
 51
90.0
  0
LINE
  5
3C7
330
27
100
AcDbEntity
  8
2
100
AcDbLine
 10
-219.445374
 20
-22.635467
 30
0.0
 11
-216.121874
 21
-22.635467
 31
0.0
  0
LINE
  5
3C8
330
27
100
AcDbEntity
  8
2
100
AcDbLine
 10
-216.121874
 20
-22.635467
 30
0.0
 11
-215.445374
 21
-21.958967
 31
0.0
  0
LINE
  5
3C9
330
27
100
AcDbEntity
  8
2
100
AcDbLine
 10
-215.445374
 20
-21.958967
 30
0.0
 11
-215.445374
 21
-20.135467
 31
0.0
  0
LINE
  5
3CA
330
27
100
AcDbEntity
  8
2
100
AcDbLine
 10
-215.445374
 20
-21.958967
 30
0.0
 11
-219.445374
 21
-21.958967
 31
0.0
  0
LINE
  5
3CB
330
27
100
AcDbEntity
  8
2
 62
     2
100
AcDbLine
 10
-216.121874
 20
-22.635467
 30
0.0
 11
-216.121874
 21
-20.135467
 31
0.0
  0
POINT
  5
3CC
330
27
100
AcDbEntity
  8
2
100
AcDbPoint
 10
-219.445374
 20
-11.635467
 30
0.0
  0
LINE
  5
3CD
330
27
100
AcDbEntity
  8
2
100
AcDbLine
 10
-219.445374
 20
-13.635467
 30
0.0
 11
-211.945374
 21
-13.635467
 31
0.0
  0
LINE
  5
3CE
330
27
100
AcDbEntity
  8
2
100
AcDbLine
 10
-211.945374
 20
-13.635467
 30
0.0
 11
-211.945374
 21
-19.413779
 31
0.0
  0
LINE
  5
3CF
330
27
100
AcDbEntity
  8
2
100
AcDbLine
 10
-211.945374
 20
-19.413779
 30
0.0
 11
-213.195374
 21
-20.135467
 31
0.0
  0
LINE
  5
3D0
330
27
100
AcDbEntity
  8
2
100
AcDbLine
 10
-213.195374
 20
-20.135467
 30
0.0
 11
-219.445374
 21
-20.135467
 31
0.0
  0
LINE
  5
3D1
330
27
100
AcDbEntity
  8
2
100
AcDbLine
 10
-215.695374
 20
-13.635467
 30
0.0
 11
-215.695374
 21
-19.413779
 31
0.0
  0
ARC
  5
3D2
330
27
100
AcDbEntity
  8
2
100
AcDbCircle
 10
-213.820374
 20
-17.003403
 30
0.0
 40
3.053774
100
AcDbArc
 50
232.121121
 51
307.878879
  0
ARC
  5
3D3
330
27
100
AcDbEntity
  8
2
100
AcDbCircle
 10
-219.445374
 20
-8.807178
 30
0.0
 40
11.25
100
AcDbArc
 50
270.0
 51
289.471221
  0
LINE
  5
3D4
330
27
100
AcDbEntity
  8
2
100
AcDbLine
 10
-219.445374
 20
-13.635467
 30
0.0
 11
-226.945374
 21
-13.635467
 31
0.0
  0
LINE
  5
3D5
330
27
100
AcDbEntity
  8
2
100
AcDbLine
 10
-226.945374
 20
-13.635467
 30
0.0
 11
-226.945374
 21
-19.413779
 31
0.0
  0
LINE
  5
3D6
330
27
100
AcDbEntity
  8
2
100
AcDbLine
 10
-226.945374
 20
-19.413779
 30
0.0
 11
-225.695374
 21
-20.135467
 31
0.0
  0
LINE
  5
3D7
330
27
100
AcDbEntity
  8
2
100
AcDbLine
 10
-225.695374
 20
-20.135467
 30
0.0
 11
-219.445374
 21
-20.135467
 31
0.0
  0
LINE
  5
3D8
330
27
100
AcDbEntity
  8
2
100
AcDbLine
 10
-223.195374
 20
-13.635467
 30
0.0
 11
-223.195374
 21
-19.413779
 31
0.0
  0
ARC
  5
3D9
330
27
100
AcDbEntity
  8
2
100
AcDbCircle
 10
-225.070374
 20
-17.003403
 30
0.0
 40
3.053774
100
AcDbArc
 50
232.121121
 51
307.878879
  0
ARC
  5
3DA
330
27
100
AcDbEntity
  8
2
100
AcDbCircle
 10
-219.445374
 20
-8.807178
 30
0.0
 40
11.25
100
AcDbArc
 50
250.528779
 51
270.0
  0
LINE
  5
3DB
330
27
100
AcDbEntity
  8
2
100
AcDbLine
 10
-211.745374
 20
-11.635467
 30
0.0
 11
-211.745374
 21
-13.635467
 31
0.0
  0
LINE
  5
3DC
330
27
100
AcDbEntity
  8
2
100
AcDbLine
 10
-211.745374
 20
-13.635467
 30
0.0
 11
-227.145374
 21
-13.635467
 31
0.0
  0
LINE
  5
3DD
330
27
100
AcDbEntity
  8
2
100
AcDbLine
 10
-227.145374
 20
-13.635467
 30
0.0
 11
-227.145374
 21
-11.635467
 31
0.0
  0
LINE
  5
3DE
330
27
100
AcDbEntity
  8
2
100
AcDbLine
 10
-227.145374
 20
-11.635467
 30
0.0
 11
-211.745374
 21
-11.635467
 31
0.0
  0
LINE
  5
3DF
330
27
100
AcDbEntity
  8
2
100
AcDbLine
 10
-219.445374
 20
-13.635467
 30
0.0
 11
-219.945374
 21
-11.635467
 31
0.0
  0
LINE
  5
3E0
330
27
100
AcDbEntity
  8
2
100
AcDbLine
 10
-219.445374
 20
-11.635467
 30
0.0
 11
-218.945374
 21
-13.635467
 31
0.0
  0
POINT
  5
3E1
330
27
100
AcDbEntity
  8
2
100
AcDbPoint
 10
-268.942849
 20
2.364533
 30
0.0
  0
LINE
  5
3E2
330
27
100
AcDbEntity
  8
2
100
AcDbLine
 10
-268.942849
 20
2.364533
 30
0.0
 11
-276.442849
 21
2.364533
 31
0.0
  0
LINE
  5
3E3
330
27
100
AcDbEntity
  8
2
100
AcDbLine
 10
-276.442849
 20
2.364533
 30
0.0
 11
-276.442849
 21
7.142844999999999
 31
0.0
  0
LINE
  5
3E4
330
27
100
AcDbEntity
  8
2
100
AcDbLine
 10
-276.442849
 20
7.142844999999999
 30
0.0
 11
-275.192849
 21
7.864532999999999
 31
0.0
  0
LINE
  5
3E5
330
27
100
AcDbEntity
  8
2
100
AcDbLine
 10
-275.192849
 20
7.864532999999999
 30
0.0
 11
-268.942849
 21
7.864532999999999
 31
0.0
  0
LINE
  5
3E6
330
27
100
AcDbEntity
  8
2
100
AcDbLine
 10
-272.692849
 20
2.364533
 30
0.0
 11
-272.692849
 21
7.142844999999999
 31
0.0
  0
ARC
  5
3E7
330
27
100
AcDbEntity
  8
2
100
AcDbCircle
 10
-274.567849
 20
4.732469
 30
0.0
 40
3.053774
100
AcDbArc
 50
52.121121
 51
127.878879
  0
ARC
  5
3E8
330
27
100
AcDbEntity
  8
2
100
AcDbCircle
 10
-268.942849
 20
-3.463756999999999
 30
0.0
 40
11.25
100
AcDbArc
 50
90.0
 51
109.471221
  0
LINE
  5
3E9
330
27
100
AcDbEntity
  8
2
100
AcDbLine
 10
-268.942849
 20
-22.635467
 30
0.0
 11
-272.266349
 21
-22.635467
 31
0.0
  0
LINE
  5
3EA
330
27
100
AcDbEntity
  8
2
100
AcDbLine
 10
-272.266349
 20
-22.635467
 30
0.0
 11
-272.942849
 21
-21.958967
 31
0.0
  0
LINE
  5
3EB
330
27
100
AcDbEntity
  8
2
100
AcDbLine
 10
-272.942849
 20
-21.958967
 30
0.0
 11
-272.942849
 21
-20.135467
 31
0.0
  0
LINE
  5
3EC
330
27
100
AcDbEntity
  8
2
100
AcDbLine
 10
-272.942849
 20
-21.958967
 30
0.0
 11
-268.942849
 21
-21.958967
 31
0.0
  0
LINE
  5
3ED
330
27
100
AcDbEntity
  8
2
 62
     2
100
AcDbLine
 10
-272.266349
 20
-22.635467
 30
0.0
 11
-272.266349
 21
-20.135467
 31
0.0
  0
LINE
  5
3EE
330
27
100
AcDbEntity
  8
2
100
AcDbLine
 10
-268.942849
 20
2.364533
 30
0.0
 11
-261.442849
 21
2.364533
 31
0.0
  0
LINE
  5
3EF
330
27
100
AcDbEntity
  8
2
100
AcDbLine
 10
-261.442849
 20
2.364533
 30
0.0
 11
-261.442849
 21
7.142844999999999
 31
0.0
  0
LINE
  5
3F0
330
27
100
AcDbEntity
  8
2
100
AcDbLine
 10
-261.442849
 20
7.142844999999999
 30
0.0
 11
-262.692849
 21
7.864532999999999
 31
0.0
  0
LINE
  5
3F1
330
27
100
AcDbEntity
  8
2
100
AcDbLine
 10
-262.692849
 20
7.864532999999999
 30
0.0
 11
-268.942849
 21
7.864532999999999
 31
0.0
  0
LINE
  5
3F2
330
27
100
AcDbEntity
  8
2
100
AcDbLine
 10
-265.192849
 20
2.364533
 30
0.0
 11
-265.192849
 21
7.142844999999999
 31
0.0
  0
ARC
  5
3F3
330
27
100
AcDbEntity
  8
2
100
AcDbCircle
 10
-263.317849
 20
4.732469
 30
0.0
 40
3.053774
100
AcDbArc
 50
52.121121
 51
127.878879
  0
ARC
  5
3F4
330
27
100
AcDbEntity
  8
2
100
AcDbCircle
 10
-268.942849
 20
-3.463756999999999
 30
0.0
 40
11.25
100
AcDbArc
 50
70.528779
 51
90.0
  0
LINE
  5
3F5
330
27
100
AcDbEntity
  8
2
100
AcDbLine
 10
-268.942849
 20
-22.635467
 30
0.0
 11
-265.619349
 21
-22.635467
 31
0.0
  0
LINE
  5
3F6
330
27
100
AcDbEntity
  8
2
100
AcDbLine
 10
-265.619349
 20
-22.635467
 30
0.0
 11
-264.942849
 21
-21.958967
 31
0.0
  0
LINE
  5
3F7
330
27
100
AcDbEntity
  8
2
100
AcDbLine
 10
-264.942849
 20
-21.958967
 30
0.0
 11
-264.942849
 21
-20.135467
 31
0.0
  0
LINE
  5
3F8
330
27
100
AcDbEntity
  8
2
100
AcDbLine
 10
-264.942849
 20
-21.958967
 30
0.0
 11
-268.942849
 21
-21.958967
 31
0.0
  0
LINE
  5
3F9
330
27
100
AcDbEntity
  8
2
 62
     2
100
AcDbLine
 10
-265.619349
 20
-22.635467
 30
0.0
 11
-265.619349
 21
-20.135467
 31
0.0
  0
POINT
  5
3FA
330
27
100
AcDbEntity
  8
2
100
AcDbPoint
 10
-268.942849
 20
-11.635467
 30
0.0
  0
LINE
  5
3FB
330
27
100
AcDbEntity
  8
2
100
AcDbLine
 10
-263.194112
 20
-20.135467
 30
0.0
 11
-268.942849
 21
-20.135467
 31
0.0
  0
LINE
  5
3FC
330
27
100
AcDbEntity
  8
2
100
AcDbLine
 10
-265.192849
 20
-13.635467
 30
0.0
 11
-265.192849
 21
-19.413779
 31
0.0
  0
ARC
  5
3FD
330
27
100
AcDbEntity
  8
2
100
AcDbCircle
 10
-263.317849
 20
-17.003403
 30
0.0
 40
3.053774
100
AcDbArc
 50
232.121121
 51
272.322224
  0
ARC
  5
3FE
330
27
100
AcDbEntity
  8
2
100
AcDbCircle
 10
-268.942849
 20
-8.807178
 30
0.0
 40
11.25
100
AcDbArc
 50
270.0
 51
289.471221
  0
LINE
  5
3FF
330
27
100
AcDbEntity
  8
2
100
AcDbLine
 10
-263.730011
 20
-13.635467
 30
0.0
 11
-276.442849
 21
-13.635467
 31
0.0
  0
LINE
  5
400
330
27
100
AcDbEntity
  8
2
100
AcDbLine
 10
-276.442849
 20
-13.635467
 30
0.0
 11
-276.442849
 21
-19.413779
 31
0.0
  0
LINE
  5
401
330
27
100
AcDbEntity
  8
2
100
AcDbLine
 10
-276.442849
 20
-19.413779
 30
0.0
 11
-275.192849
 21
-20.135467
 31
0.0
  0
LINE
  5
402
330
27
100
AcDbEntity
  8
2
100
AcDbLine
 10
-275.192849
 20
-20.135467
 30
0.0
 11
-268.942849
 21
-20.135467
 31
0.0
  0
LINE
  5
403
330
27
100
AcDbEntity
  8
2
100
AcDbLine
 10
-272.692849
 20
-13.635467
 30
0.0
 11
-272.692849
 21
-19.413779
 31
0.0
  0
ARC
  5
404
330
27
100
AcDbEntity
  8
2
100
AcDbCircle
 10
-274.567849
 20
-17.003403
 30
0.0
 40
3.053774
100
AcDbArc
 50
232.121121
 51
307.878879
  0
ARC
  5
405
330
27
100
AcDbEntity
  8
2
100
AcDbCircle
 10
-268.942849
 20
-8.807178
 30
0.0
 40
11.25
100
AcDbArc
 50
250.528779
 51
270.0
  0
LINE
  5
406
330
27
100
AcDbEntity
  8
2
100
AcDbLine
 10
-269.560915
 20
-13.635467
 30
0.0
 11
-276.642849
 21
-13.635467
 31
0.0
  0
LINE
  5
407
330
27
100
AcDbEntity
  8
2
100
AcDbLine
 10
-276.642849
 20
-13.635467
 30
0.0
 11
-276.642849
 21
-11.635467
 31
0.0
  0
LINE
  5
408
330
27
100
AcDbEntity
  8
2
100
AcDbLine
 10
-276.642849
 20
-11.635467
 30
0.0
 11
-261.242849
 21
-11.635467
 31
0.0
  0
LINE
  5
409
330
27
100
AcDbEntity
  8
2
  6
CENTER
 62
     2
100
AcDbLine
 10
-219.445375
 20
-23.372357
 30
0.0
 11
-219.445375
 21
9.476414999999999
 31
0.0
  0
LINE
  5
40A
330
27
100
AcDbEntity
  8
2
  6
CENTER
 62
     2
100
AcDbLine
 10
-268.94285
 20
-23.875781
 30
0.0
 11
-268.94285
 21
9.350566
 31
0.0
  0
LINE
  5
40B
330
27
100
AcDbEntity
  8
2
100
AcDbLine
 10
-294.194112
 20
2.364533
 30
0.0
 11
-294.194112
 21
0.364533
 31
0.0
  0
ARC
  5
40C
330
27
100
AcDbEntity
  8
2
100
AcDbCircle
 10
-49.944278
 20
61.541907
 30
0.0
 40
5.0
100
AcDbArc
 50
12.0
 51
102.0
  0
LINE
  5
40D
330
27
100
AcDbEntity
  8
2
100
AcDbLine
 10
-44.35450499999999
 20
59.29275999999999
 30
0.0
 11
-45.05354
 21
62.581465
 31
0.0
  0
LINE
  5
40E
330
27
100
AcDbEntity
  8
2
100
AcDbLine
 10
-143.26518
 20
24.293465
 30
0.0
 11
-140.57802
 21
26.980625
 31
0.0
  0
ARC
  5
40F
330
27
100
AcDbEntity
  8
2
100
AcDbCircle
 10
-45.332652
 20
59.084849
 30
0.0
 40
1.0
100
AcDbArc
 50
285.0
 51
12.0
  0
LINE
  5
410
330
27
100
AcDbEntity
  8
2
100
AcDbLine
 10
-45.07383299999999
 20
58.118923
 30
0.0
 11
-122.64651
 21
37.333387
 31
0.0
  0
ARC
  5
411
330
27
100
AcDbEntity
  8
2
100
AcDbCircle
 10
-112.293749
 20
-1.303645999999999
 30
0.0
 40
40.0
100
AcDbArc
 50
105.0
 51
135.0
  0
LINE
  5
412
330
27
100
AcDbEntity
  8
2
100
AcDbLine
 10
-107.636484
 20
36.671687
 30
0.0
 11
-101.801229
 21
35.899868
 31
0.0
  0
LINE
  5
413
330
27
100
AcDbEntity
  8
2
100
AcDbLine
 10
-107.75676
 20
41.323083
 30
0.0
 11
-102.25503
 21
40.87216699999999
 31
0.0
  0
LINE
  5
414
330
27
100
AcDbEntity
  8
2
100
AcDbLine
 10
-98.36036800000002
 20
42.452157
 30
0.0
 11
-107.881282
 21
38.589703
 31
0.0
  0
LINE
  5
415
330
27
100
AcDbEntity
  8
2
100
AcDbLine
 10
-97.608519
 20
40.598857
 30
0.0
 11
-107.129433
 21
36.73640200000001
 31
0.0
  0
LINE
  5
416
330
27
100
AcDbEntity
  8
2
100
AcDbLine
 10
-97.67936200000001
 20
37.27055700000001
 30
0.0
 11
-107.634717
 21
33.95999600000001
 31
0.0
  0
LINE
  5
417
330
27
100
AcDbEntity
  8
2
100
AcDbLine
 10
-97.048261
 20
35.37274
 30
0.0
 11
-107.003615
 21
32.062179
 31
0.0
  0
LINE
  5
418
330
27
100
AcDbEntity
  8
2
100
AcDbLine
 10
-97.608849
 20
31.626236
 30
0.0
 11
-107.828667
 21
27.680074
 31
0.0
  0
LINE
  5
419
330
27
100
AcDbEntity
  8
2
100
AcDbLine
 10
-96.888432
 20
29.760492
 30
0.0
 11
-107.316029
 21
25.734101
 31
0.0
  0
LINE
  5
41A
330
27
100
AcDbEntity
  8
2
100
AcDbLine
 10
-107.541099
 20
32.03602500000001
 30
0.0
 11
-105.386537
 21
31.545626
 31
0.0
  0
ARC
  5
41B
330
27
100
AcDbEntity
  8
2
100
AcDbCircle
 10
-107.319166
 20
33.011087
 30
0.0
 40
1.0
100
AcDbArc
 50
108.394069
 51
288.394069
  0
ARC
  5
41C
330
27
100
AcDbEntity
  8
2
100
AcDbCircle
 10
-107.505357
 20
37.66305300000001
 30
0.0
 40
1.0
100
AcDbArc
 50
112.081463
 51
292.081463
  0
ARC
  5
41D
330
27
100
AcDbEntity
  8
2
100
AcDbCircle
 10
-97.363811
 20
36.321648
 30
0.0
 40
1.0
100
AcDbArc
 50
288.394069
 51
108.394069
  0
CIRCLE
  5
41E
330
27
100
AcDbEntity
  8
2
100
AcDbCircle
 10
-97.48159499999999
 20
26.411575
 30
0.0
 40
1.0
  0
LINE
  5
41F
330
27
100
AcDbEntity
  8
2
100
AcDbLine
 10
-98.39787199999999
 20
27.442368
 30
0.0
 11
-97.48159499999999
 21
27.411575
 31
0.0
  0
LINE
  5
420
330
27
100
AcDbEntity
  8
2
100
AcDbLine
 10
-103.622663
 20
33.186483
 30
0.0
 11
-97.02435499999999
 21
31.667888
 31
0.0
  0
LINE
  5
421
330
27
100
AcDbEntity
  8
2
100
AcDbLine
 10
-100.668565
 20
30.471771
 30
0.0
 11
-100.624607
 21
30.461766
 31
0.0
  0
ARC
  5
422
330
27
100
AcDbEntity
  8
2
100
AcDbCircle
 10
-97.24864100000001
 20
30.693364
 30
0.0
 40
1.0
100
AcDbArc
 50
291.112991
 51
111.112991
  0
LINE
  5
423
330
27
100
AcDbEntity
  8
2
100
AcDbLine
 10
-102.02181
 20
42.859759
 30
0.0
 11
-97.90275900000001
 21
42.522165
 31
0.0
  0
LINE
  5
424
330
27
100
AcDbEntity
  8
2
100
AcDbLine
 10
-103.624201
 20
38.15840900000001
 30
0.0
 11
-97.23268500000001
 21
37.313014
 31
0.0
  0
ARC
  5
425
330
27
100
AcDbEntity
  8
2
100
AcDbCircle
 10
-97.98444400000001
 20
41.52550699999999
 30
0.0
 40
1.0
100
AcDbArc
 50
292.081463
 51
112.081463
  0
ARC
  5
426
330
27
100
AcDbEntity
  8
2
100
AcDbCircle
 10
-107.468459
 20
26.747202
 30
0.0
 40
1.0
100
AcDbArc
 50
111.105845
 51
266.001991
  0
LINE
  5
427
330
27
100
AcDbEntity
  8
2
100
AcDbLine
 10
-98.28464400000001
 20
25.438889
 30
0.0
 11
-97.48159499999999
 21
25.411575
 31
0.0
  0
ARC
  5
428
330
27
100
AcDbEntity
  8
2
  6
CENTER
 62
     2
100
AcDbCircle
 10
-154.194112
 20
31.364533
 30
0.0
 40
52.075925
100
AcDbArc
 50
348.756732
 51
23.167626
  0
ARC
  5
429
330
27
100
AcDbEntity
  8
2
100
AcDbCircle
 10
-52.196117
 20
18.139093
 30
0.0
 40
8.0
100
AcDbArc
 50
359.985133
 51
88.0
  0
LINE
  5
42A
330
27
100
AcDbEntity
  8
2
100
AcDbLine
 10
-137.145535
 20
21.250423
 30
0.0
 11
-113.37689
 21
17.059369
 31
0.0
  0
LINE
  5
42B
330
27
100
AcDbEntity
  8
2
100
AcDbLine
 10
-110.461151
 20
26.956471
 30
0.0
 11
-110.408376
 21
27.711195
 31
0.0
  0
LINE
  5
42C
330
27
100
AcDbEntity
  8
2
100
AcDbLine
 10
-94.50012599999999
 20
25.840368
 30
0.0
 11
-94.445654
 21
26.619356
 31
0.0
  0
LINE
  5
42D
330
27
100
AcDbEntity
  8
2
100
AcDbLine
 10
-105.111307
 20
31.78488
 30
0.0
 11
-99.125922
 21
31.366341
 31
0.0
  0
LINE
  5
42E
330
27
100
AcDbEntity
  8
2
100
AcDbLine
 10
-106.361161
 20
28.24672
 30
0.0
 11
-106.178627
 21
30.857073
 31
0.0
  0
LINE
  5
42F
330
27
100
AcDbEntity
  8
2
100
AcDbLine
 10
-98.490383
 20
26.119394
 30
0.0
 11
-98.273161
 21
29.225809
 31
0.0
  0
LINE
  5
430
330
27
100
AcDbEntity
  8
2
100
AcDbLine
 10
-106.178627
 20
30.857073
 30
0.0
 11
-105.111307
 21
31.78488
 31
0.0
  0
LINE
  5
431
330
27
100
AcDbEntity
  8
2
100
AcDbLine
 10
-99.125922
 20
31.366341
 30
0.0
 11
-98.913823
 21
31.122349
 31
0.0
  0
LINE
  5
432
330
27
100
AcDbEntity
  8
2
100
AcDbLine
 10
-44.19611699999999
 20
18.137017
 30
0.0
 11
-44.196688
 21
15.935056
 31
0.0
  0
LINE
  5
433
330
27
100
AcDbEntity
  8
2
100
AcDbLine
 10
-51.916921
 20
26.134219
 30
0.0
 11
-93.37650699999999
 21
27.58202
 31
0.0
  0
ARC
  5
434
330
27
100
AcDbEntity
  8
2
100
AcDbCircle
 10
-97.49281899999999
 20
26.049637
 30
0.0
 40
1.0
100
AcDbArc
 50
176.0
 51
266.0
  0
LINE
  5
435
330
27
100
AcDbEntity
  8
2
100
AcDbLine
 10
-109.533344
 20
25.889151
 30
0.0
 11
-95.56744700000001
 21
24.91256
 31
0.0
  0
LINE
  5
436
330
27
100
AcDbEntity
  8
2
100
AcDbLine
 10
-106.178627
 20
30.857073
 30
0.0
 11
-100.609408
 21
30.467635
 31
0.0
  0
ARC
  5
437
330
27
100
AcDbEntity
  8
2
100
AcDbCircle
 10
-99.48503500000001
 20
95.84398900000001
 30
0.0
 40
80.0
100
AcDbArc
 50
260.0
 51
269.845396
  0
ARC
  5
438
330
27
100
AcDbEntity
  8
2
100
AcDbCircle
 10
-46.196688
 20
15.935575
 30
0.0
 40
2.0
100
AcDbArc
 50
222.427004
 51
359.985133
  0
ARC
  5
439
330
27
100
AcDbEntity
  8
2
100
AcDbCircle
 10
-53.578063
 20
9.189071
 30
0.0
 40
8.0
100
AcDbArc
 50
42.42700399999999
 51
123.6590879999999
  0
ARC
  5
43A
330
27
100
AcDbEntity
  8
2
100
AcDbCircle
 10
-62.446066
 20
22.506673
 30
0.0
 40
8.0
100
AcDbArc
 50
232.340912
 51
303.659088
  0
ARC
  5
43B
330
27
100
AcDbEntity
  8
2
100
AcDbCircle
 10
-72.221457
 20
9.840113
 30
0.0
 40
8.0
100
AcDbArc
 50
52.340912
 51
123.6590879999999
  0
ARC
  5
43C
330
27
100
AcDbEntity
  8
2
100
AcDbCircle
 10
-81.089461
 20
23.157715
 30
0.0
 40
8.0
100
AcDbArc
 50
232.340912
 51
303.659088
  0
ARC
  5
43D
330
27
100
AcDbEntity
  8
2
100
AcDbCircle
 10
-90.864851
 20
10.491155
 30
0.0
 40
8.0
100
AcDbArc
 50
52.340912
 51
123.42906
  0
ARC
  5
43E
330
27
100
AcDbEntity
  8
2
100
AcDbCircle
 10
-99.67931700000001
 20
23.844252
 30
0.0
 40
8.0
100
AcDbArc
 50
269.845396
 51
303.42906
  0
LINE
  5
43F
330
27
100
AcDbEntity
  8
2
100
AcDbLine
 10
-110.408376
 20
27.711195
 30
0.0
 11
-111.323427
 21
28.882408
 31
0.0
  0
LINE
  5
440
330
27
100
AcDbEntity
  8
2
100
AcDbLine
 10
-93.37650699999999
 20
27.58202
 30
0.0
 11
-94.445654
 21
26.619356
 31
0.0
  0
ARC
  5
441
330
27
100
AcDbEntity
  8
2
100
AcDbCircle
 10
-109.463587
 20
26.886715
 30
0.0
 40
1.0
100
AcDbArc
 50
176.0
 51
266.0
  0
ARC
  5
442
330
27
100
AcDbEntity
  8
2
100
AcDbCircle
 10
-95.497691
 20
25.910124
 30
0.0
 40
1.0
100
AcDbArc
 50
266.0
 51
356.0
  0
LINE
  5
443
330
27
100
AcDbEntity
  8
2
100
AcDbLine
 10
-135.194112
 20
20.906334
 30
0.0
 11
-135.194112
 21
31.49228900000001
 31
0.0
  0
LINE
  5
444
330
27
100
AcDbEntity
  8
2
100
AcDbLine
 10
-133.184691
 20
32.737138
 30
0.0
 11
-111.323427
 21
28.882408
 31
0.0
  0
ARC
  5
445
330
27
100
AcDbEntity
  8
2
100
AcDbCircle
 10
-132.663747
 20
35.691562
 30
0.0
 40
3.0
100
AcDbArc
 50
258.30264
 51
260.0
  0
LINE
  5
446
330
27
100
AcDbEntity
  8
2
100
AcDbLine
 10
-149.194112
 20
31.364533
 30
0.0
 11
-149.194112
 21
22.364533
 31
0.0
  0
ARC
  5
447
330
27
100
AcDbEntity
  8
2
100
AcDbCircle
 10
-150.194112
 20
22.364533
 30
0.0
 40
1.0
100
AcDbArc
 50
270.0
 51
360.0
  0
LINE
  5
448
330
27
100
AcDbEntity
  8
2
100
AcDbLine
 10
63.968825
 20
21.364533
 30
0.0
 11
69.96882499999999
 21
21.364533
 31
0.0
  0
ARC
  5
449
330
27
100
AcDbEntity
  8
2
100
AcDbCircle
 10
65.46882499999999
 20
22.364533
 30
0.0
 40
1.0
100
AcDbArc
 50
180.0
 51
270.0
  0
LINE
  5
44A
330
27
100
AcDbEntity
  8
2
100
AcDbLine
 10
89.96882499999999
 20
21.364533
 30
0.0
 11
83.968825
 21
21.364533
 31
0.0
  0
ARC
  5
44B
330
27
100
AcDbEntity
  8
2
100
AcDbCircle
 10
88.46882499999999
 20
22.364533
 30
0.0
 40
1.0
100
AcDbArc
 50
270.0
 51
360.0
  0
LINE
  5
44C
330
27
100
AcDbEntity
  8
2
100
AcDbLine
 10
90.96882499999999
 20
33.364533
 30
0.0
 11
91.96882499999999
 21
32.364533
 31
0.0
  0
LINE
  5
44D
330
27
100
AcDbEntity
  8
2
100
AcDbLine
 10
91.96882499999999
 20
12.364533
 30
0.0
 11
91.96882499999999
 21
32.364533
 31
0.0
  0
LINE
  5
44E
330
27
100
AcDbEntity
  8
2
100
AcDbLine
 10
82.968825
 20
22.364533
 30
0.0
 11
82.968825
 21
33.108902
 31
0.0
  0
LINE
  5
44F
330
27
100
AcDbEntity
  8
2
100
AcDbLine
 10
90.96882499999999
 20
22.364533
 30
0.0
 11
90.96882499999999
 21
35.864533
 31
0.0
  0
ARC
  5
450
330
27
100
AcDbEntity
  8
2
100
AcDbCircle
 10
90.468825
 20
35.864533
 30
0.0
 40
0.5
100
AcDbArc
 50
0.0
 51
90.0
  0
ARC
  5
451
330
27
100
AcDbEntity
  8
2
100
AcDbCircle
 10
89.96882499999999
 20
36.864533
 30
0.0
 40
0.5
100
AcDbArc
 50
180.0
 51
270.0
  0
LINE
  5
452
330
27
100
AcDbEntity
  8
2
100
AcDbLine
 10
90.468825
 20
36.364533
 30
0.0
 11
89.96882499999999
 21
36.364533
 31
0.0
  0
LINE
  5
453
330
27
100
AcDbEntity
  8
2
100
AcDbLine
 10
89.46882499999999
 20
22.364533
 30
0.0
 11
89.46882499999999
 21
36.864533
 31
0.0
  0
LINE
  5
454
330
27
100
AcDbEntity
  8
2
100
AcDbLine
 10
85.05802499999999
 20
34.508124
 30
0.0
 11
83.6636
 21
34.061182
 31
0.0
  0
ARC
  5
455
330
27
100
AcDbEntity
  8
2
100
AcDbCircle
 10
83.968825
 20
33.108902
 30
0.0
 40
1.0
100
AcDbArc
 50
107.771715
 51
180.0
  0
LINE
  5
456
330
27
100
AcDbEntity
  8
2
100
AcDbLine
 10
82.968825
 20
39.610804
 30
0.0
 11
82.968825
 21
33.108902
 31
0.0
  0
LINE
  5
457
330
27
100
AcDbEntity
  8
2
100
AcDbLine
 10
90.96882499999999
 20
28.837545
 30
0.0
 11
91.76882500000001
 21
21.291769
 31
0.0
  0
ARC
  5
458
330
27
100
AcDbEntity
  8
2
100
AcDbCircle
 10
89.96882499999999
 20
22.364533
 30
0.0
 40
1.0
100
AcDbArc
 50
270.0
 51
360.0
  0
ARC
  5
459
330
27
100
AcDbEntity
  8
2
100
AcDbCircle
 10
83.968825
 20
22.364533
 30
0.0
 40
1.0
100
AcDbArc
 50
180.0
 51
270.0
  0
ARC
  5
45A
330
27
100
AcDbEntity
  8
2
100
AcDbCircle
 10
84.75279999999999
 20
35.460405
 30
0.0
 40
1.0
100
AcDbArc
 50
287.771715
 51
6.051866999999999
  0
ARC
  5
45B
330
27
100
AcDbEntity
  8
2
100
AcDbCircle
 10
69.18485
 20
35.460405
 30
0.0
 40
1.0
100
AcDbArc
 50
173.948133
 51
252.228285
  0
ARC
  5
45C
330
27
100
AcDbEntity
  8
2
100
AcDbCircle
 10
69.96882499999999
 20
22.364533
 30
0.0
 40
1.0
100
AcDbArc
 50
270.0
 51
360.0
  0
ARC
  5
45D
330
27
100
AcDbEntity
  8
2
100
AcDbCircle
 10
63.968825
 20
22.364533
 30
0.0
 40
1.0
100
AcDbArc
 50
180.0
 51
270.0
  0
ARC
  5
45E
330
27
100
AcDbEntity
  8
2
100
AcDbCircle
 10
86.799412
 20
16.156316
 30
0.0
 40
1.0
100
AcDbArc
 50
279.951879
 51
6.051866999999999
  0
ARC
  5
45F
330
27
100
AcDbEntity
  8
2
100
AcDbCircle
 10
67.138238
 20
16.156316
 30
0.0
 40
1.0
100
AcDbArc
 50
173.948133
 51
260.048121
  0
ARC
  5
460
330
27
100
AcDbEntity
  8
2
100
AcDbCircle
 10
76.968825
 20
72.183464
 30
0.0
 40
57.88305300000001
100
AcDbArc
 50
260.048121
 51
264.1497
  0
LINE
  5
461
330
27
100
AcDbEntity
  8
2
100
AcDbLine
 10
62.168825
 20
12.364533
 30
0.0
 11
62.168825
 21
21.291769
 31
0.0
  0
LINE
  5
462
330
27
100
AcDbEntity
  8
2
100
AcDbLine
 10
62.968825
 20
28.837545
 30
0.0
 11
62.168825
 21
21.291769
 31
0.0
  0
LINE
  5
463
330
27
100
AcDbEntity
  8
2
100
AcDbLine
 10
66.68480699999999
 20
21.364533
 30
0.0
 11
66.143812
 21
16.261744
 31
0.0
  0
LINE
  5
464
330
27
100
AcDbEntity
  8
2
100
AcDbLine
 10
87.968825
 20
12.364533
 30
0.0
 11
87.968825
 21
11.364533
 31
0.0
  0
ARC
  5
465
330
27
100
AcDbEntity
  8
2
100
AcDbCircle
 10
82.46882499999999
 20
50.470418
 30
0.0
 40
1.5
100
AcDbArc
 50
69.33280100000001
 51
94.27095600000001
  0
LINE
  5
466
330
27
100
AcDbEntity
  8
2
100
AcDbLine
 10
90.96882499999999
 20
28.837545
 30
0.0
 11
91.96882499999999
 21
19.405324
 31
0.0
  0
ARC
  5
467
330
27
100
AcDbEntity
  8
2
100
AcDbCircle
 10
82.54396099999999
 20
60.94773199999999
 30
0.0
 40
5.0
100
AcDbArc
 50
9.174666
 51
77.83324
  0
LINE
  5
468
330
27
100
AcDbEntity
  8
2
100
AcDbLine
 10
87.479995
 20
61.74495600000001
 30
0.0
 11
87.479995
 21
57.16231
 31
0.0
  0
LINE
  5
469
330
27
100
AcDbEntity
  8
2
100
AcDbLine
 10
80.96882499999999
 20
50.134528
 30
0.0
 11
80.96882499999999
 21
47.448914
 31
0.0
  0
ARC
  5
46A
330
27
100
AcDbEntity
  8
2
100
AcDbCircle
 10
86.479995
 20
57.16231
 30
0.0
 40
1.0
100
AcDbArc
 50
259.300245
 51
360.0
  0
LINE
  5
46B
330
27
100
AcDbEntity
  8
2
100
AcDbLine
 10
87.479995
 20
61.74495600000001
 30
0.0
 11
90.170817
 21
36.364533
 31
0.0
  0
ARC
  5
46C
330
27
100
AcDbEntity
  8
2
100
AcDbCircle
 10
82.603889
 20
55.729406
 30
0.0
 40
1.0
100
AcDbArc
 50
6.051866999999999
 51
83.42705999999999
  0
LINE
  5
46D
330
27
100
AcDbEntity
  8
2
100
AcDbLine
 10
87.252843
 20
21.364533
 30
0.0
 11
87.79383799999999
 21
16.261744
 31
0.0
  0
ARC
  5
46E
330
27
100
AcDbEntity
  8
2
100
AcDbCircle
 10
79.96882499999999
 20
39.610804
 30
0.0
 40
3.0
100
AcDbArc
 50
0.0
 51
28.460849
  0
LINE
  5
46F
330
27
100
AcDbEntity
  8
2
100
AcDbLine
 10
83.59831599999999
 20
55.83483399999999
 30
0.0
 11
85.747227
 21
35.56583300000001
 31
0.0
  0
LINE
  5
470
330
27
100
AcDbEntity
  8
2
100
AcDbLine
 10
82.968825
 20
39.610804
 30
0.0
 11
82.968825
 21
34.44853300000001
 31
0.0
  0
LINE
  5
471
330
27
100
AcDbEntity
  8
2
100
AcDbLine
 10
70.96882499999999
 20
39.610804
 30
0.0
 11
70.96882499999999
 21
33.108902
 31
0.0
  0
ARC
  5
472
330
27
100
AcDbEntity
  8
2
100
AcDbCircle
 10
69.96882499999999
 20
33.108902
 30
0.0
 40
1.0
100
AcDbArc
 50
0.0
 51
72.228285
  0
LINE
  5
473
330
27
100
AcDbEntity
  8
2
100
AcDbLine
 10
70.33933399999999
 20
55.83483399999999
 30
0.0
 11
68.19042299999999
 21
35.56583300000001
 31
0.0
  0
ARC
  5
474
330
27
100
AcDbEntity
  8
2
100
AcDbCircle
 10
73.968825
 20
39.610804
 30
0.0
 40
3.0
100
AcDbArc
 50
113.205282
 51
180.0
  0
LINE
  5
475
330
27
100
AcDbEntity
  8
2
100
AcDbLine
 10
68.87962399999999
 20
34.508124
 30
0.0
 11
70.27405
 21
34.061182
 31
0.0
  0
LINE
  5
476
330
27
100
AcDbEntity
  8
2
100
AcDbLine
 10
65.96882499999999
 20
12.364533
 30
0.0
 11
65.96882499999999
 21
11.364533
 31
0.0
  0
ARC
  5
477
330
27
100
AcDbEntity
  8
2
100
AcDbCircle
 10
71.33376099999999
 20
55.729406
 30
0.0
 40
1.0
100
AcDbArc
 50
96.57294
 51
173.948133
  0
LINE
  5
478
330
27
100
AcDbEntity
  8
2
100
AcDbLine
 10
91.96882499999999
 20
12.364533
 30
0.0
 11
82.868825
 21
12.364533
 31
0.0
  0
LINE
  5
479
330
27
100
AcDbEntity
  8
2
100
AcDbLine
 10
65.96882499999999
 20
11.364533
 30
0.0
 11
71.06882500000001
 21
11.364533
 31
0.0
  0
LINE
  5
47A
330
27
100
AcDbEntity
  8
2
100
AcDbLine
 10
64.468825
 20
22.364533
 30
0.0
 11
64.468825
 21
36.864533
 31
0.0
  0
LINE
  5
47B
330
27
100
AcDbEntity
  8
2
100
AcDbLine
 10
66.457655
 20
61.74495600000001
 30
0.0
 11
63.76683299999999
 21
36.364533
 31
0.0
  0
LINE
  5
47C
330
27
100
AcDbEntity
  8
2
100
AcDbLine
 10
63.468825
 20
36.364533
 30
0.0
 11
63.968825
 21
36.364533
 31
0.0
  0
ARC
  5
47D
330
27
100
AcDbEntity
  8
2
100
AcDbCircle
 10
63.968825
 20
36.864533
 30
0.0
 40
0.5
100
AcDbArc
 50
270.0
 51
360.0
  0
ARC
  5
47E
330
27
100
AcDbEntity
  8
2
100
AcDbCircle
 10
63.468825
 20
35.864533
 30
0.0
 40
0.5
100
AcDbArc
 50
90.0
 51
180.0
  0
LINE
  5
47F
330
27
100
AcDbEntity
  8
2
100
AcDbLine
 10
62.968825
 20
22.364533
 30
0.0
 11
62.968825
 21
35.864533
 31
0.0
  0
ARC
  5
480
330
27
100
AcDbEntity
  8
2
100
AcDbCircle
 10
76.968825
 20
6.824682000000001
 30
0.0
 40
50.228304
100
AcDbArc
 50
79.30024499999999
 51
100.699755
  0
ARC
  5
481
330
27
100
AcDbEntity
  8
2
100
AcDbCircle
 10
67.457655
 20
57.16231
 30
0.0
 40
1.0
100
AcDbArc
 50
180.0
 51
280.699755
  0
ARC
  5
482
330
27
100
AcDbEntity
  8
2
100
AcDbCircle
 10
76.968825
 20
42.275859
 30
0.0
 40
11.334722
100
AcDbArc
 50
68.40872399999999
 51
114.66929
  0
LINE
  5
483
330
27
100
AcDbEntity
  8
2
100
AcDbLine
 10
72.96882499999999
 20
46.297651
 30
0.0
 11
73.968825
 21
45.297651
 31
0.0
  0
ARC
  5
484
330
27
100
AcDbEntity
  8
2
100
AcDbCircle
 10
76.968825
 20
37.276136
 30
0.0
 40
9.868522999999999
100
AcDbArc
 50
76.97849599999999
 51
113.911756
  0
ARC
  5
485
330
27
100
AcDbEntity
  8
2
100
AcDbCircle
 10
71.468825
 20
50.470418
 30
0.0
 40
1.5
100
AcDbArc
 50
0.0
 51
110.667199
  0
LINE
  5
486
330
27
100
AcDbEntity
  8
2
100
AcDbLine
 10
72.96882499999999
 20
50.470418
 30
0.0
 11
72.96882499999999
 21
50.29879499999999
 31
0.0
  0
LINE
  5
487
330
27
100
AcDbEntity
  8
2
100
AcDbLine
 10
70.96882499999999
 20
22.364533
 30
0.0
 11
70.96882499999999
 21
33.108902
 31
0.0
  0
LINE
  5
488
330
27
100
AcDbEntity
  8
2
100
AcDbLine
 10
66.457655
 20
61.74495600000001
 30
0.0
 11
66.457655
 21
57.16231
 31
0.0
  0
LINE
  5
489
330
27
100
AcDbEntity
  8
2
100
AcDbLine
 10
60.968825
 20
33.364533
 30
0.0
 11
62.968825
 21
33.364533
 31
0.0
  0
LINE
  5
48A
330
27
100
AcDbEntity
  8
2
100
AcDbLine
 10
59.968825
 20
32.364533
 30
0.0
 11
59.968825
 21
12.364533
 31
0.0
  0
ARC
  5
48B
330
27
100
AcDbEntity
  8
2
100
AcDbCircle
 10
60.968825
 20
32.364533
 30
0.0
 40
1.0
100
AcDbArc
 50
90.0
 51
180.0
  0
ARC
  5
48C
330
27
100
AcDbEntity
  8
2
100
AcDbCircle
 10
71.393689
 20
60.94773199999999
 30
0.0
 40
5.0
100
AcDbArc
 50
102.16676
 51
170.825334
  0
ARC
  5
48D
330
27
100
AcDbEntity
  8
2
100
AcDbCircle
 10
76.968825
 20
35.089085
 30
0.0
 40
31.452822
100
AcDbArc
 50
77.83324
 51
102.16676
  0
LINE
  5
48E
330
27
100
AcDbEntity
  8
2
100
AcDbLine
 10
82.868825
 20
11.364533
 30
0.0
 11
87.968825
 21
11.364533
 31
0.0
  0
LINE
  5
48F
330
27
100
AcDbEntity
  8
2
100
AcDbLine
 10
71.06882500000001
 20
12.364533
 30
0.0
 11
59.968825
 21
12.364533
 31
0.0
  0
ARC
  5
490
330
27
100
AcDbEntity
  8
2
100
AcDbCircle
 10
76.968825
 20
72.183464
 30
0.0
 40
57.88305300000001
100
AcDbArc
 50
275.8503
 51
279.951879
  0
LINE
  5
491
330
27
100
AcDbEntity
  8
2
100
AcDbLine
 10
72.96882499999999
 20
48.31147999999999
 30
0.0
 11
72.96882499999999
 21
46.297651
 31
0.0
  0
ARC
  5
492
330
27
100
AcDbEntity
  8
2
100
AcDbCircle
 10
79.96882499999999
 20
39.610804
 30
0.0
 40
3.0
100
AcDbArc
 50
55.144622
 51
90.0
  0
LINE
  5
493
330
27
100
AcDbEntity
  8
2
100
AcDbLine
 10
81.30718599999999
 20
42.029564
 30
0.0
 11
71.746002
 21
39.026211
 31
0.0
  0
LINE
  5
494
330
27
100
AcDbEntity
  8
2
100
AcDbLine
 10
81.90654999999999
 20
40.12148599999999
 30
0.0
 11
72.345366
 21
37.118132
 31
0.0
  0
LINE
  5
495
330
27
100
AcDbEntity
  8
2
100
AcDbLine
 10
71.79060600000001
 20
37.105251
 30
0.0
 11
78.00364899999999
 21
35.466222
 31
0.0
  0
LINE
  5
496
330
27
100
AcDbEntity
  8
2
100
AcDbLine
 10
81.30718599999999
 20
36.50392700000001
 30
0.0
 11
71.746002
 21
33.500574
 31
0.0
  0
LINE
  5
497
330
27
100
AcDbEntity
  8
2
100
AcDbLine
 10
81.90654999999999
 20
34.595849
 30
0.0
 11
72.345366
 21
31.592496
 31
0.0
  0
LINE
  5
498
330
27
100
AcDbEntity
  8
2
100
AcDbLine
 10
81.90654999999999
 20
29.070213
 30
0.0
 11
72.345366
 21
26.066859
 31
0.0
  0
LINE
  5
499
330
27
100
AcDbEntity
  8
2
100
AcDbLine
 10
81.30718599999999
 20
30.978291
 30
0.0
 11
71.746002
 21
27.974938
 31
0.0
  0
LINE
  5
49A
330
27
100
AcDbEntity
  8
2
100
AcDbLine
 10
71.79060600000001
 20
31.579614
 30
0.0
 11
73.682902
 21
31.080418
 31
0.0
  0
ARC
  5
49B
330
27
100
AcDbEntity
  8
2
100
AcDbCircle
 10
72.04568399999999
 20
27.020899
 30
0.0
 40
1.0
100
AcDbArc
 50
100.738785
 51
286.6206009999999
  0
ARC
  5
49C
330
27
100
AcDbEntity
  8
2
100
AcDbCircle
 10
72.04568399999999
 20
32.546535
 30
0.0
 40
1.0
100
AcDbArc
 50
107.438515
 51
286.6206009999999
  0
ARC
  5
49D
330
27
100
AcDbEntity
  8
2
100
AcDbCircle
 10
72.04568399999999
 20
38.07217100000001
 30
0.0
 40
1.0
100
AcDbArc
 50
107.438515
 51
286.6206009999999
  0
LINE
  5
49E
330
27
100
AcDbEntity
  8
2
100
AcDbLine
 10
75.648903
 20
32.630201
 30
0.0
 11
81.861946
 21
30.991172
 31
0.0
  0
ARC
  5
49F
330
27
100
AcDbEntity
  8
2
100
AcDbCircle
 10
81.606868
 20
30.024252
 30
0.0
 40
1.0
100
AcDbArc
 50
287.438515
 51
107.438515
  0
LINE
  5
4A0
330
27
100
AcDbEntity
  8
2
100
AcDbLine
 10
77.26082199999999
 20
27.610899
 30
0.0
 11
81.861946
 21
27.233531
 31
0.0
  0
ARC
  5
4A1
330
27
100
AcDbEntity
  8
2
100
AcDbCircle
 10
81.891966
 20
26.213068
 30
0.0
 40
1.0
100
AcDbArc
 50
273.731968
 51
85.59196300000001
  0
LINE
  5
4A2
330
27
100
AcDbEntity
  8
2
100
AcDbLine
 10
75.648903
 20
38.155837
 30
0.0
 11
81.861946
 21
36.51680900000001
 31
0.0
  0
ARC
  5
4A3
330
27
100
AcDbEntity
  8
2
100
AcDbCircle
 10
81.606868
 20
35.549888
 30
0.0
 40
1.0
100
AcDbArc
 50
281.107766
 51
107.438515
  0
LINE
  5
4A4
330
27
100
AcDbEntity
  8
2
100
AcDbLine
 10
81.799523
 20
50.323828
 30
0.0
 11
72.345366
 21
48.169405
 31
0.0
  0
LINE
  5
4A5
330
27
100
AcDbEntity
  8
2
100
AcDbLine
 10
81.30718599999999
 20
52.259134
 30
0.0
 11
71.746002
 21
50.077483
 31
0.0
  0
LINE
  5
4A6
330
27
100
AcDbEntity
  8
2
100
AcDbLine
 10
71.79060600000001
 20
42.63088699999999
 30
0.0
 11
78.00364899999999
 21
40.99185900000001
 31
0.0
  0
LINE
  5
4A7
330
27
100
AcDbEntity
  8
2
100
AcDbLine
 10
81.30718599999999
 20
47.55519999999999
 30
0.0
 11
71.746002
 21
44.55184699999999
 31
0.0
  0
LINE
  5
4A8
330
27
100
AcDbEntity
  8
2
100
AcDbLine
 10
81.90654999999999
 20
45.64712199999999
 30
0.0
 11
72.345366
 21
42.643769
 31
0.0
  0
ARC
  5
4A9
330
27
100
AcDbEntity
  8
2
100
AcDbCircle
 10
72.04568399999999
 20
49.123444
 30
0.0
 40
1.0
100
AcDbArc
 50
98.020858
 51
286.6206009999999
  0
LINE
  5
4AA
330
27
100
AcDbEntity
  8
2
100
AcDbLine
 10
71.79060600000001
 20
48.156524
 30
0.0
 11
72.96882499999999
 21
47.84570399999999
 31
0.0
  0
ARC
  5
4AB
330
27
100
AcDbEntity
  8
2
100
AcDbCircle
 10
72.04568399999999
 20
43.597808
 30
0.0
 40
1.0
100
AcDbArc
 50
107.438515
 51
286.6206009999999
  0
LINE
  5
4AC
330
27
100
AcDbEntity
  8
2
100
AcDbLine
 10
80.96882499999999
 20
47.803691
 30
0.0
 11
81.861946
 21
47.568082
 31
0.0
  0
LINE
  5
4AD
330
27
100
AcDbEntity
  8
2
100
AcDbLine
 10
75.648903
 20
43.681474
 30
0.0
 11
81.861946
 21
42.042445
 31
0.0
  0
ARC
  5
4AE
330
27
100
AcDbEntity
  8
2
100
AcDbCircle
 10
81.606868
 20
46.60116099999999
 30
0.0
 40
1.0
100
AcDbArc
 50
281.107766
 51
107.438515
  0
ARC
  5
4AF
330
27
100
AcDbEntity
  8
2
100
AcDbCircle
 10
81.606868
 20
41.07552499999999
 30
0.0
 40
1.0
100
AcDbArc
 50
281.107766
 51
107.438515
  0
ARC
  5
4B0
330
27
100
AcDbEntity
  8
2
100
AcDbCircle
 10
81.606868
 20
51.305095
 30
0.0
 40
1.0
100
AcDbArc
 50
281.107766
 51
107.438515
  0
LINE
  5
4B1
330
27
100
AcDbEntity
  8
2
  6
CENTER
 62
     2
100
AcDbLine
 10
56.7444
 20
31.364533
 30
0.0
 11
97.067394
 21
31.364533
 31
0.0
  0
LINE
  5
4B2
330
27
100
AcDbEntity
  8
2
  6
CENTER
 62
     2
100
AcDbLine
 10
76.968825
 20
17.679878
 30
0.0
 11
47.60944600000001
 21
17.679878
 31
0.0
  0
LINE
  5
4B3
330
27
100
AcDbEntity
  8
2
100
AcDbLine
 10
59.968825
 20
12.679878
 30
0.0
 11
59.968825
 21
22.679878
 31
0.0
  0
ARC
  5
4B4
330
27
100
AcDbEntity
  8
2
100
AcDbCircle
 10
80.96882499999999
 20
33.079962
 30
0.0
 40
1.0
100
AcDbArc
 50
0.0
 51
90.0
  0
ARC
  5
4B5
330
27
100
AcDbEntity
  8
2
100
AcDbCircle
 10
72.96882499999999
 20
33.079962
 30
0.0
 40
1.0
100
AcDbArc
 50
90.0
 51
147.287273
  0
LINE
  5
4B6
330
27
100
AcDbEntity
  8
2
100
AcDbLine
 10
72.96882499999999
 20
34.079962
 30
0.0
 11
73.590486
 21
34.079962
 31
0.0
  0
LINE
  5
4B7
330
27
100
AcDbEntity
  8
2
100
AcDbLine
 10
81.96882499999999
 20
14.971096
 30
0.0
 11
81.96882499999999
 21
25.216026
 31
0.0
  0
LINE
  5
4B8
330
27
100
AcDbEntity
  8
2
100
AcDbLine
 10
71.968825
 20
-0.6065350000000001
 30
0.0
 11
71.968825
 21
-3.635466999999999
 31
0.0
  0
ARC
  5
4B9
330
27
100
AcDbEntity
  8
2
100
AcDbCircle
 10
72.068825
 20
35.364533
 30
0.0
 40
1.0
100
AcDbArc
 50
90.0
 51
180.0
  0
ARC
  5
4BA
330
27
100
AcDbEntity
  8
2
100
AcDbCircle
 10
81.86882500000001
 20
35.364533
 30
0.0
 40
1.0
100
AcDbArc
 50
0.0
 51
63.950626
  0
LINE
  5
4BB
330
27
100
AcDbEntity
  8
2
100
AcDbLine
 10
82.868825
 20
35.364533
 30
0.0
 11
82.868825
 21
0.293465
 31
0.0
  0
LINE
  5
4BC
330
27
100
AcDbEntity
  8
2
100
AcDbLine
 10
71.06882500000001
 20
35.364533
 30
0.0
 11
71.06882500000001
 21
0.293465
 31
0.0
  0
LINE
  5
4BD
330
27
100
AcDbEntity
  8
2
100
AcDbLine
 10
82.868825
 20
0.293465
 30
0.0
 11
81.96882499999999
 21
-0.6065350000000001
 31
0.0
  0
LINE
  5
4BE
330
27
100
AcDbEntity
  8
2
100
AcDbLine
 10
71.968825
 20
-0.6065350000000001
 30
0.0
 11
71.06882500000001
 21
0.293465
 31
0.0
  0
LINE
  5
4BF
330
27
100
AcDbEntity
  8
2
100
AcDbLine
 10
80.96882499999999
 20
28.775655
 30
0.0
 11
80.96882499999999
 21
27.306782
 31
0.0
  0
ARC
  5
4C0
330
27
100
AcDbEntity
  8
2
100
AcDbCircle
 10
76.968825
 20
44.37349
 30
0.0
 40
14.567094
100
AcDbArc
 50
254.062329
 51
272.574998
  0
ARC
  5
4C1
330
27
100
AcDbEntity
  8
2
100
AcDbCircle
 10
76.97426899999999
 20
46.43410099999999
 30
0.0
 40
15.364572
100
AcDbArc
 50
258.719715
 51
281.24576
  0
ARC
  5
4C2
330
27
100
AcDbEntity
  8
2
100
AcDbCircle
 10
76.968825
 20
20.82392
 30
0.0
 40
10.96096
100
AcDbArc
 50
74.115522
 51
105.884478
  0
LINE
  5
4C3
330
27
100
AcDbEntity
  8
2
100
AcDbLine
 10
80.58403199999998
 20
30.75113400000001
 30
0.0
 11
79.96882499999999
 21
31.366341
 31
0.0
  0
LINE
  5
4C4
330
27
100
AcDbEntity
  8
2
100
AcDbLine
 10
73.968825
 20
31.366341
 30
0.0
 11
72.96882499999999
 21
30.366341
 31
0.0
  0
LINE
  5
4C5
330
27
100
AcDbEntity
  8
2
100
AcDbLine
 10
72.96882499999999
 20
30.366341
 30
0.0
 11
72.96882499999999
 21
28.35905
 31
0.0
  0
ARC
  5
4C6
330
27
100
AcDbEntity
  8
2
100
AcDbCircle
 10
80.96882499999999
 20
25.134219
 30
0.0
 40
1.0
100
AcDbArc
 50
0.0
 51
90.0
  0
ARC
  5
4C7
330
27
100
AcDbEntity
  8
2
100
AcDbCircle
 10
72.96882499999999
 20
25.134219
 30
0.0
 40
1.0
100
AcDbArc
 50
90.0
 51
180.0
  0
LINE
  5
4C8
330
27
100
AcDbEntity
  8
2
100
AcDbLine
 10
72.96882499999999
 20
26.134219
 30
0.0
 11
80.96882499999999
 21
26.134219
 31
0.0
  0
LINE
  5
4C9
330
27
100
AcDbEntity
  8
2
100
AcDbLine
 10
80.96882499999999
 20
26.134219
 30
0.0
 11
72.96882499999999
 21
26.134219
 31
0.0
  0
ARC
  5
4CA
330
27
100
AcDbEntity
  8
2
100
AcDbCircle
 10
72.96882499999999
 20
25.134219
 30
0.0
 40
1.0
100
AcDbArc
 50
90.0
 51
180.0
  0
ARC
  5
4CB
330
27
100
AcDbEntity
  8
2
100
AcDbCircle
 10
80.96882499999999
 20
25.134219
 30
0.0
 40
1.0
100
AcDbArc
 50
0.0
 51
90.0
  0
ARC
  5
4CC
330
27
100
AcDbEntity
  8
2
100
AcDbCircle
 10
80.96882499999999
 20
14.971096
 30
0.0
 40
1.0
100
AcDbArc
 50
270.0
 51
360.0
  0
ARC
  5
4CD
330
27
100
AcDbEntity
  8
2
100
AcDbCircle
 10
72.96882499999999
 20
14.971096
 30
0.0
 40
1.0
100
AcDbArc
 50
180.0
 51
270.0
  0
LINE
  5
4CE
330
27
100
AcDbEntity
  8
2
100
AcDbLine
 10
80.96882499999999
 20
13.971096
 30
0.0
 11
72.96882499999999
 21
13.971096
 31
0.0
  0
LINE
  5
4CF
330
27
100
AcDbEntity
  8
2
100
AcDbLine
 10
72.96882499999999
 20
13.971096
 30
0.0
 11
80.96882499999999
 21
13.971096
 31
0.0
  0
ARC
  5
4D0
330
27
100
AcDbEntity
  8
2
100
AcDbCircle
 10
72.96882499999999
 20
14.971096
 30
0.0
 40
1.0
100
AcDbArc
 50
180.0
 51
270.0
  0
ARC
  5
4D1
330
27
100
AcDbEntity
  8
2
100
AcDbCircle
 10
80.96882499999999
 20
14.971096
 30
0.0
 40
1.0
100
AcDbArc
 50
270.0
 51
360.0
  0
ARC
  5
4D2
330
27
100
AcDbEntity
  8
2
100
AcDbCircle
 10
80.96882499999999
 20
-3.635466999999999
 30
0.0
 40
1.0
100
AcDbArc
 50
270.0
 51
360.0
  0
ARC
  5
4D3
330
27
100
AcDbEntity
  8
2
100
AcDbCircle
 10
72.96882499999999
 20
-3.635466999999999
 30
0.0
 40
1.0
100
AcDbArc
 50
180.0
 51
270.0
  0
LINE
  5
4D4
330
27
100
AcDbEntity
  8
2
100
AcDbLine
 10
72.96882499999999
 20
-4.635467
 30
0.0
 11
80.96882499999999
 21
-4.635467
 31
0.0
  0
LINE
  5
4D5
330
27
100
AcDbEntity
  8
2
100
AcDbLine
 10
80.96882499999999
 20
-4.635467
 30
0.0
 11
72.96882499999999
 21
-4.635467
 31
0.0
  0
ARC
  5
4D6
330
27
100
AcDbEntity
  8
2
100
AcDbCircle
 10
72.96882499999999
 20
-3.635466999999999
 30
0.0
 40
1.0
100
AcDbArc
 50
180.0
 51
270.0
  0
ARC
  5
4D7
330
27
100
AcDbEntity
  8
2
100
AcDbCircle
 10
80.96882499999999
 20
-3.635466999999999
 30
0.0
 40
1.0
100
AcDbArc
 50
270.0
 51
360.0
  0
LINE
  5
4D8
330
27
100
AcDbEntity
  8
2
100
AcDbLine
 10
81.96882499999999
 20
-3.635466999999999
 30
0.0
 11
81.96882499999999
 21
-0.6065350000000001
 31
0.0
  0
LINE
  5
4D9
330
27
100
AcDbEntity
  8
2
100
AcDbLine
 10
71.968825
 20
31.549493
 30
0.0
 11
71.968825
 21
28.044931
 31
0.0
  0
LINE
  5
4DA
330
27
100
AcDbEntity
  8
2
100
AcDbLine
 10
74.59843499999999
 20
36.364533
 30
0.0
 11
72.068825
 21
36.364533
 31
0.0
  0
LINE
  5
4DB
330
27
100
AcDbEntity
  8
2
100
AcDbLine
 10
80.264223
 20
34.079962
 30
0.0
 11
80.96882499999999
 21
34.079962
 31
0.0
  0
LINE
  5
4DC
330
27
100
AcDbEntity
  8
2
100
AcDbLine
 10
72.96882499999999
 20
26.2627
 30
0.0
 11
72.96882499999999
 21
26.134219
 31
0.0
  0
LINE
  5
4DD
330
27
100
AcDbEntity
  8
2
100
AcDbLine
 10
71.968825
 20
26.023857
 30
0.0
 11
71.968825
 21
14.971096
 31
0.0
  0
LINE
  5
4DE
330
27
100
AcDbEntity
  8
2
100
AcDbLine
 10
81.96882499999999
 20
27.21011
 30
0.0
 11
81.96882499999999
 21
29.092057
 31
0.0
  0
LINE
  5
4DF
330
27
100
AcDbEntity
  8
2
100
AcDbLine
 10
81.96882499999999
 20
30.956447
 30
0.0
 11
81.96882499999999
 21
33.079962
 31
0.0
  0
LINE
  5
4E0
330
27
100
AcDbEntity
  8
2
100
AcDbLine
 10
151.968825
 20
2.364533
 30
0.0
 11
151.968825
 21
0.364533
 31
0.0
  0
LINE
  5
4E1
330
27
100
AcDbEntity
  8
2
100
AcDbLine
 10
136.832674
 20
1.864533
 30
0.0
 11
136.832674
 21
0.8645329999999999
 31
0.0
  0
LINE
  5
4E2
330
27
100
AcDbEntity
  8
2
100
AcDbLine
 10
135.236272
 20
1.864533
 30
0.0
 11
135.236272
 21
0.8645329999999999
 31
0.0
  0
LINE
  5
4E3
330
27
100
AcDbEntity
  8
2
100
AcDbLine
 10
131.8835
 20
1.864533
 30
0.0
 11
131.8835
 21
0.8645329999999999
 31
0.0
  0
LINE
  5
4E4
330
27
100
AcDbEntity
  8
2
100
AcDbLine
 10
126.877366
 20
1.864533
 30
0.0
 11
126.877366
 21
0.8645329999999999
 31
0.0
  0
LINE
  5
4E5
330
27
100
AcDbEntity
  8
2
100
AcDbLine
 10
120.369978
 20
1.864533
 30
0.0
 11
120.369978
 21
0.8645329999999999
 31
0.0
  0
LINE
  5
4E6
330
27
100
AcDbEntity
  8
2
100
AcDbLine
 10
112.559061
 20
1.864533
 30
0.0
 11
112.559061
 21
0.8645329999999999
 31
0.0
  0
LINE
  5
4E7
330
27
100
AcDbEntity
  8
2
100
AcDbLine
 10
103.681945
 20
1.864533
 30
0.0
 11
103.681945
 21
0.8645329999999999
 31
0.0
  0
LINE
  5
4E8
330
27
100
AcDbEntity
  8
2
100
AcDbLine
 10
51.968825
 20
1.864533
 30
0.0
 11
51.968825
 21
0.8645329999999999
 31
0.0
  0
LINE
  5
4E9
330
27
100
AcDbEntity
  8
2
100
AcDbLine
 10
26.968825
 20
2.364533
 30
0.0
 11
26.968825
 21
0.364533
 31
0.0
  0
LINE
  5
4EA
330
27
100
AcDbEntity
  8
2
100
AcDbLine
 10
134.160193
 20
1.864533
 30
0.0
 11
134.160193
 21
0.8645329999999999
 31
0.0
  0
LINE
  5
4EB
330
27
100
AcDbEntity
  8
2
100
AcDbLine
 10
130.332748
 20
1.864533
 30
0.0
 11
130.332748
 21
0.8645329999999999
 31
0.0
  0
LINE
  5
4EC
330
27
100
AcDbEntity
  8
2
100
AcDbLine
 10
124.884309
 20
1.864533
 30
0.0
 11
124.884309
 21
0.8645329999999999
 31
0.0
  0
LINE
  5
4ED
330
27
100
AcDbEntity
  8
2
100
AcDbLine
 10
117.980426
 20
1.864533
 30
0.0
 11
117.980426
 21
0.8645329999999999
 31
0.0
  0
LINE
  5
4EE
330
27
100
AcDbEntity
  8
2
100
AcDbLine
 10
109.830867
 20
1.864533
 30
0.0
 11
109.830867
 21
0.8645329999999999
 31
0.0
  0
LINE
  5
4EF
330
27
100
AcDbEntity
  8
2
100
AcDbLine
 10
100.683255
 20
1.864533
 30
0.0
 11
100.683255
 21
0.8645329999999999
 31
0.0
  0
LINE
  5
4F0
330
27
100
AcDbEntity
  8
2
100
AcDbLine
 10
94.022439
 20
1.864533
 30
0.0
 11
94.022439
 21
0.8645329999999999
 31
0.0
  0
LINE
  5
4F1
330
27
100
AcDbEntity
  8
2
100
AcDbLine
 10
90.815534
 20
1.864533
 30
0.0
 11
90.815534
 21
0.8645329999999999
 31
0.0
  0
ARC
  5
4F2
330
27
100
AcDbEntity
  8
2
100
AcDbCircle
 10
136.332674
 20
1.864533
 30
0.0
 40
0.5
100
AcDbArc
 50
0.0
 51
90.0
  0
ARC
  5
4F3
330
27
100
AcDbEntity
  8
2
100
AcDbCircle
 10
136.332674
 20
0.8645329999999999
 30
0.0
 40
0.5
100
AcDbArc
 50
270.0
 51
360.0
  0
ARC
  5
4F4
330
27
100
AcDbEntity
  8
2
100
AcDbCircle
 10
134.736272
 20
1.864533
 30
0.0
 40
0.5
100
AcDbArc
 50
0.0
 51
90.0
  0
ARC
  5
4F5
330
27
100
AcDbEntity
  8
2
100
AcDbCircle
 10
134.736272
 20
0.8645329999999999
 30
0.0
 40
0.5
100
AcDbArc
 50
270.0
 51
360.0
  0
ARC
  5
4F6
330
27
100
AcDbEntity
  8
2
100
AcDbCircle
 10
133.660193
 20
1.864533
 30
0.0
 40
0.5
100
AcDbArc
 50
0.0
 51
90.0
  0
ARC
  5
4F7
330
27
100
AcDbEntity
  8
2
100
AcDbCircle
 10
133.660193
 20
0.8645329999999999
 30
0.0
 40
0.5
100
AcDbArc
 50
270.0
 51
360.0
  0
ARC
  5
4F8
330
27
100
AcDbEntity
  8
2
100
AcDbCircle
 10
131.3835
 20
0.8645329999999999
 30
0.0
 40
0.5
100
AcDbArc
 50
270.0
 51
360.0
  0
ARC
  5
4F9
330
27
100
AcDbEntity
  8
2
100
AcDbCircle
 10
131.3835
 20
1.864533
 30
0.0
 40
0.5
100
AcDbArc
 50
0.0
 51
90.0
  0
ARC
  5
4FA
330
27
100
AcDbEntity
  8
2
100
AcDbCircle
 10
129.832748
 20
1.864533
 30
0.0
 40
0.5
100
AcDbArc
 50
0.0
 51
90.0
  0
ARC
  5
4FB
330
27
100
AcDbEntity
  8
2
100
AcDbCircle
 10
129.832748
 20
0.8645329999999999
 30
0.0
 40
0.5
100
AcDbArc
 50
270.0
 51
360.0
  0
ARC
  5
4FC
330
27
100
AcDbEntity
  8
2
100
AcDbCircle
 10
126.377366
 20
1.864533
 30
0.0
 40
0.5
100
AcDbArc
 50
0.0
 51
90.0
  0
ARC
  5
4FD
330
27
100
AcDbEntity
  8
2
100
AcDbCircle
 10
126.377366
 20
0.8645329999999999
 30
0.0
 40
0.5
100
AcDbArc
 50
270.0
 51
360.0
  0
ARC
  5
4FE
330
27
100
AcDbEntity
  8
2
100
AcDbCircle
 10
124.384309
 20
1.864533
 30
0.0
 40
0.5
100
AcDbArc
 50
0.0
 51
90.0
  0
ARC
  5
4FF
330
27
100
AcDbEntity
  8
2
100
AcDbCircle
 10
124.384309
 20
0.8645329999999999
 30
0.0
 40
0.5
100
AcDbArc
 50
270.0
 51
360.0
  0
ARC
  5
500
330
27
100
AcDbEntity
  8
2
100
AcDbCircle
 10
119.869978
 20
1.864533
 30
0.0
 40
0.5
100
AcDbArc
 50
0.0
 51
90.0
  0
ARC
  5
501
330
27
100
AcDbEntity
  8
2
100
AcDbCircle
 10
119.869978
 20
0.8645329999999999
 30
0.0
 40
0.5
100
AcDbArc
 50
270.0
 51
360.0
  0
ARC
  5
502
330
27
100
AcDbEntity
  8
2
100
AcDbCircle
 10
117.480426
 20
1.864533
 30
0.0
 40
0.5
100
AcDbArc
 50
0.0
 51
90.0
  0
ARC
  5
503
330
27
100
AcDbEntity
  8
2
100
AcDbCircle
 10
117.480426
 20
0.8645329999999999
 30
0.0
 40
0.5
100
AcDbArc
 50
270.0
 51
360.0
  0
ARC
  5
504
330
27
100
AcDbEntity
  8
2
100
AcDbCircle
 10
112.059061
 20
1.864533
 30
0.0
 40
0.5
100
AcDbArc
 50
0.0
 51
90.0
  0
ARC
  5
505
330
27
100
AcDbEntity
  8
2
100
AcDbCircle
 10
112.059061
 20
0.8645329999999999
 30
0.0
 40
0.5
100
AcDbArc
 50
270.0
 51
360.0
  0
ARC
  5
506
330
27
100
AcDbEntity
  8
2
100
AcDbCircle
 10
109.330867
 20
1.864533
 30
0.0
 40
0.5
100
AcDbArc
 50
0.0
 51
90.0
  0
ARC
  5
507
330
27
100
AcDbEntity
  8
2
100
AcDbCircle
 10
109.330867
 20
0.8645329999999999
 30
0.0
 40
0.5
100
AcDbArc
 50
270.0
 51
360.0
  0
ARC
  5
508
330
27
100
AcDbEntity
  8
2
100
AcDbCircle
 10
103.181945
 20
1.864533
 30
0.0
 40
0.5
100
AcDbArc
 50
0.0
 51
90.0
  0
ARC
  5
509
330
27
100
AcDbEntity
  8
2
100
AcDbCircle
 10
103.181945
 20
0.8645329999999999
 30
0.0
 40
0.5
100
AcDbArc
 50
270.0
 51
360.0
  0
ARC
  5
50A
330
27
100
AcDbEntity
  8
2
100
AcDbCircle
 10
100.183255
 20
1.864533
 30
0.0
 40
0.5
100
AcDbArc
 50
0.0
 51
90.0
  0
ARC
  5
50B
330
27
100
AcDbEntity
  8
2
100
AcDbCircle
 10
100.183255
 20
0.8645329999999999
 30
0.0
 40
0.5
100
AcDbArc
 50
270.0
 51
360.0
  0
ARC
  5
50C
330
27
100
AcDbEntity
  8
2
100
AcDbCircle
 10
93.52243900000001
 20
0.8645329999999999
 30
0.0
 40
0.5
100
AcDbArc
 50
270.0
 51
360.0
  0
ARC
  5
50D
330
27
100
AcDbEntity
  8
2
100
AcDbCircle
 10
93.52243900000001
 20
1.864533
 30
0.0
 40
0.5
100
AcDbArc
 50
0.0
 51
90.0
  0
ARC
  5
50E
330
27
100
AcDbEntity
  8
2
100
AcDbCircle
 10
90.31553399999999
 20
1.864533
 30
0.0
 40
0.5
100
AcDbArc
 50
0.0
 51
90.0
  0
ARC
  5
50F
330
27
100
AcDbEntity
  8
2
100
AcDbCircle
 10
90.31553399999999
 20
0.8645329999999999
 30
0.0
 40
0.5
100
AcDbArc
 50
270.0
 51
360.0
  0
ARC
  5
510
330
27
100
AcDbEntity
  8
2
100
AcDbCircle
 10
52.468825
 20
1.864533
 30
0.0
 40
0.5
100
AcDbArc
 50
90.0
 51
180.0
  0
ARC
  5
511
330
27
100
AcDbEntity
  8
2
100
AcDbCircle
 10
52.468825
 20
0.8645329999999999
 30
0.0
 40
0.5
100
AcDbArc
 50
180.0
 51
270.0
  0
LINE
  5
512
330
27
100
AcDbEntity
  8
2
100
AcDbLine
 10
69.96882499999999
 20
1.864533
 30
0.0
 11
69.96882499999999
 21
0.8645329999999999
 31
0.0
  0
ARC
  5
513
330
27
100
AcDbEntity
  8
2
100
AcDbCircle
 10
69.468825
 20
1.864533
 30
0.0
 40
0.5
100
AcDbArc
 50
0.0
 51
90.0
  0
LINE
  5
514
330
27
100
AcDbEntity
  8
2
100
AcDbLine
 10
151.968825
 20
2.364533
 30
0.0
 11
82.868825
 21
2.364533
 31
0.0
  0
ARC
  5
515
330
27
100
AcDbEntity
  8
2
100
AcDbCircle
 10
69.468825
 20
0.8645329999999999
 30
0.0
 40
0.5
100
AcDbArc
 50
270.0
 51
360.0
  0
LINE
  5
516
330
27
100
AcDbEntity
  8
2
100
AcDbLine
 10
151.968825
 20
0.364533
 30
0.0
 11
82.868825
 21
0.364533
 31
0.0
  0
LINE
  5
517
330
27
100
AcDbEntity
  8
2
100
AcDbLine
 10
71.06882500000001
 20
2.364533
 30
0.0
 11
26.968825
 21
2.364533
 31
0.0
  0
ARC
  5
518
330
27
100
AcDbEntity
  8
2
100
AcDbCircle
 10
83.550404
 20
0.8645329999999999
 30
0.0
 40
0.5
100
AcDbArc
 50
270.0
 51
360.0
  0
ARC
  5
519
330
27
100
AcDbEntity
  8
2
100
AcDbCircle
 10
83.550404
 20
1.864533
 30
0.0
 40
0.5
100
AcDbArc
 50
0.0
 51
90.0
  0
LINE
  5
51A
330
27
100
AcDbEntity
  8
2
100
AcDbLine
 10
84.050404
 20
1.864533
 30
0.0
 11
84.050404
 21
0.8645329999999999
 31
0.0
  0
LINE
  5
51B
330
27
100
AcDbEntity
  8
2
100
AcDbLine
 10
71.06882500000001
 20
0.364533
 30
0.0
 11
26.968825
 21
0.364533
 31
0.0
  0
LINE
  5
51C
330
27
100
AcDbEntity
  8
2
100
AcDbLine
 10
50.968825
 20
17.679878
 30
0.0
 11
50.968825
 21
20.138878
 31
0.0
  0
LINE
  5
51D
330
27
100
AcDbEntity
  8
2
100
AcDbLine
 10
50.968825
 20
20.138878
 30
0.0
 11
51.509825
 21
20.679878
 31
0.0
  0
LINE
  5
51E
330
27
100
AcDbEntity
  8
2
100
AcDbLine
 10
51.509825
 20
20.679878
 30
0.0
 11
54.987754
 21
20.679878
 31
0.0
  0
LINE
  5
51F
330
27
100
AcDbEntity
  8
2
100
AcDbLine
 10
51.509825
 20
20.679878
 30
0.0
 11
51.509825
 21
17.679878
 31
0.0
  0
LINE
  5
520
330
27
100
AcDbEntity
  8
2
100
AcDbLine
 10
50.968825
 20
17.679878
 30
0.0
 11
50.968825
 21
15.220878
 31
0.0
  0
LINE
  5
521
330
27
100
AcDbEntity
  8
2
100
AcDbLine
 10
50.968825
 20
15.220878
 30
0.0
 11
51.509825
 21
14.679878
 31
0.0
  0
LINE
  5
522
330
27
100
AcDbEntity
  8
2
100
AcDbLine
 10
51.509825
 20
14.679878
 30
0.0
 11
54.987754
 21
14.679878
 31
0.0
  0
LINE
  5
523
330
27
100
AcDbEntity
  8
2
100
AcDbLine
 10
51.509825
 20
14.679878
 30
0.0
 11
51.509825
 21
17.679878
 31
0.0
  0
POINT
  5
524
330
27
100
AcDbEntity
  8
2
100
AcDbPoint
 10
59.968825
 20
17.679878
 30
0.0
  0
LINE
  5
525
330
27
100
AcDbEntity
  8
2
100
AcDbLine
 10
59.968825
 20
17.679878
 30
0.0
 11
59.968825
 21
12.679878
 31
0.0
  0
LINE
  5
526
330
27
100
AcDbEntity
  8
2
100
AcDbLine
 10
59.968825
 20
12.679878
 30
0.0
 11
55.459573
 21
12.679878
 31
0.0
  0
LINE
  5
527
330
27
100
AcDbEntity
  8
2
100
AcDbLine
 10
54.968825
 20
15.179878
 30
0.0
 11
54.968825
 21
17.679878
 31
0.0
  0
LINE
  5
528
330
27
100
AcDbEntity
  8
2
100
AcDbLine
 10
59.968825
 20
17.679878
 30
0.0
 11
55.459573
 21
17.679878
 31
0.0
  0
ARC
  5
529
330
27
100
AcDbEntity
  8
2
100
AcDbCircle
 10
61.582033
 20
15.179878
 30
0.0
 40
6.613208
100
AcDbArc
 50
157.788205
 51
202.211795
  0
LINE
  5
52A
330
27
100
AcDbEntity
  8
2
100
AcDbLine
 10
59.968825
 20
17.679878
 30
0.0
 11
59.968825
 21
22.679878
 31
0.0
  0
LINE
  5
52B
330
27
100
AcDbEntity
  8
2
100
AcDbLine
 10
59.968825
 20
22.679878
 30
0.0
 11
55.459573
 21
22.679878
 31
0.0
  0
LINE
  5
52C
330
27
100
AcDbEntity
  8
2
100
AcDbLine
 10
54.968825
 20
20.179878
 30
0.0
 11
54.968825
 21
17.679878
 31
0.0
  0
LINE
  5
52D
330
27
100
AcDbEntity
  8
2
100
AcDbLine
 10
59.968825
 20
17.679878
 30
0.0
 11
55.459573
 21
17.679878
 31
0.0
  0
ARC
  5
52E
330
27
100
AcDbEntity
  8
2
100
AcDbCircle
 10
61.582033
 20
20.179878
 30
0.0
 40
6.613208
100
AcDbArc
 50
157.788205
 51
202.211795
  0
LINE
  5
52F
330
27
100
AcDbEntity
  8
2
 62
     2
100
AcDbLine
 10
50.968825
 20
15.220878
 30
0.0
 11
54.968825
 21
15.220878
 31
0.0
  0
LINE
  5
530
330
27
100
AcDbEntity
  8
2
 62
     2
100
AcDbLine
 10
50.968825
 20
20.138878
 30
0.0
 11
54.968825
 21
20.138878
 31
0.0
  0
POINT
  5
531
330
27
100
AcDbEntity
  8
2
100
AcDbPoint
 10
101.717562
 20
2.364533
 30
0.0
  0
LINE
  5
532
330
27
100
AcDbEntity
  8
2
  6
CENTER
 62
     2
100
AcDbLine
 10
101.717562
 20
-25.694063
 30
0.0
 11
101.717562
 21
11.456246
 31
0.0
  0
LINE
  5
533
330
27
100
AcDbEntity
  8
2
100
AcDbLine
 10
101.717562
 20
2.364533
 30
0.0
 11
95.217562
 21
2.364533
 31
0.0
  0
LINE
  5
534
330
27
100
AcDbEntity
  8
2
100
AcDbLine
 10
95.217562
 20
2.364533
 30
0.0
 11
95.217562
 21
7.142844999999999
 31
0.0
  0
LINE
  5
535
330
27
100
AcDbEntity
  8
2
100
AcDbLine
 10
98.46756200000001
 20
7.864532999999999
 30
0.0
 11
101.717562
 21
7.864532999999999
 31
0.0
  0
LINE
  5
536
330
27
100
AcDbEntity
  8
2
100
AcDbLine
 10
101.717562
 20
2.364533
 30
0.0
 11
101.717562
 21
7.142844999999999
 31
0.0
  0
ARC
  5
537
330
27
100
AcDbEntity
  8
2
100
AcDbCircle
 10
98.46756200000001
 20
0.185774
 30
0.0
 40
7.678758999999999
100
AcDbArc
 50
64.96034
 51
115.03966
  0
LINE
  5
538
330
27
100
AcDbEntity
  8
2
100
AcDbLine
 10
101.717562
 20
-22.635467
 30
0.0
 11
100.839441
 21
-22.635467
 31
0.0
  0
LINE
  5
539
330
27
100
AcDbEntity
  8
2
100
AcDbLine
 10
101.154898
 20
-21.958967
 30
0.0
 11
101.717562
 21
-21.958967
 31
0.0
  0
LINE
  5
53A
330
27
100
AcDbEntity
  8
2
100
AcDbLine
 10
101.717562
 20
2.364533
 30
0.0
 11
108.217562
 21
2.364533
 31
0.0
  0
LINE
  5
53B
330
27
100
AcDbEntity
  8
2
100
AcDbLine
 10
108.217562
 20
2.364533
 30
0.0
 11
108.217562
 21
7.142844999999999
 31
0.0
  0
LINE
  5
53C
330
27
100
AcDbEntity
  8
2
100
AcDbLine
 10
104.967562
 20
7.864532999999999
 30
0.0
 11
101.717562
 21
7.864532999999999
 31
0.0
  0
LINE
  5
53D
330
27
100
AcDbEntity
  8
2
100
AcDbLine
 10
101.717562
 20
2.364533
 30
0.0
 11
101.717562
 21
7.142844999999999
 31
0.0
  0
ARC
  5
53E
330
27
100
AcDbEntity
  8
2
100
AcDbCircle
 10
104.967562
 20
0.185774
 30
0.0
 40
7.678758999999999
100
AcDbArc
 50
64.96034
 51
115.03966
  0
LINE
  5
53F
330
27
100
AcDbEntity
  8
2
100
AcDbLine
 10
101.717562
 20
-22.635467
 30
0.0
 11
105.041062
 21
-22.635467
 31
0.0
  0
LINE
  5
540
330
27
100
AcDbEntity
  8
2
100
AcDbLine
 10
105.041062
 20
-22.635467
 30
0.0
 11
105.717562
 21
-21.958967
 31
0.0
  0
LINE
  5
541
330
27
100
AcDbEntity
  8
2
100
AcDbLine
 10
105.717562
 20
-21.958967
 30
0.0
 11
105.717562
 21
-20.098753
 31
0.0
  0
LINE
  5
542
330
27
100
AcDbEntity
  8
2
100
AcDbLine
 10
105.717562
 20
-21.958967
 30
0.0
 11
101.717562
 21
-21.958967
 31
0.0
  0
LINE
  5
543
330
27
100
AcDbEntity
  8
2
 62
     2
100
AcDbLine
 10
105.041062
 20
-22.635467
 30
0.0
 11
105.041062
 21
-20.135116
 31
0.0
  0
POINT
  5
544
330
27
100
AcDbEntity
  8
2
100
AcDbPoint
 10
101.717562
 20
-11.635467
 30
0.0
  0
POINT
  5
545
330
27
100
AcDbEntity
  8
2
100
AcDbPoint
 10
101.717562
 20
-11.635467
 30
0.0
  0
LINE
  5
546
330
27
100
AcDbEntity
  8
2
100
AcDbLine
 10
105.24701
 20
-13.635467
 30
0.0
 11
108.217562
 21
-13.635467
 31
0.0
  0
LINE
  5
547
330
27
100
AcDbEntity
  8
2
100
AcDbLine
 10
108.217562
 20
-13.635467
 30
0.0
 11
108.217562
 21
-19.413779
 31
0.0
  0
LINE
  5
548
330
27
100
AcDbEntity
  8
2
100
AcDbLine
 10
104.967562
 20
-20.135467
 30
0.0
 11
102.00521
 21
-20.135467
 31
0.0
  0
ARC
  5
549
330
27
100
AcDbEntity
  8
2
100
AcDbCircle
 10
104.967562
 20
-12.456709
 30
0.0
 40
7.678758999999999
100
AcDbArc
 50
249.185055
 51
295.03966
  0
LINE
  5
54A
330
27
100
AcDbEntity
  8
2
100
AcDbLine
 10
109.417562
 20
-11.635467
 30
0.0
 11
109.417562
 21
-13.635467
 31
0.0
  0
LINE
  5
54B
330
27
100
AcDbEntity
  8
2
100
AcDbLine
 10
109.417562
 20
-13.635467
 30
0.0
 11
105.24701
 21
-13.635467
 31
0.0
  0
LINE
  5
54C
330
27
100
AcDbEntity
  8
2
100
AcDbLine
 10
94.01756199999999
 20
-11.635467
 30
0.0
 11
109.417562
 21
-11.635467
 31
0.0
  0
POINT
  5
54D
330
27
100
AcDbEntity
  8
2
100
AcDbPoint
 10
52.220088
 20
2.364533
 30
0.0
  0
LINE
  5
54E
330
27
100
AcDbEntity
  8
2
  6
CENTER
 62
     2
100
AcDbLine
 10
52.220088
 20
-25.694063
 30
0.0
 11
52.220088
 21
11.456246
 31
0.0
  0
LINE
  5
54F
330
27
100
AcDbEntity
  8
2
100
AcDbLine
 10
52.220088
 20
2.364533
 30
0.0
 11
58.72008799999999
 21
2.364533
 31
0.0
  0
LINE
  5
550
330
27
100
AcDbEntity
  8
2
100
AcDbLine
 10
58.72008799999999
 20
2.364533
 30
0.0
 11
58.72008799999999
 21
7.142844999999999
 31
0.0
  0
LINE
  5
551
330
27
100
AcDbEntity
  8
2
100
AcDbLine
 10
55.470088
 20
7.864532999999999
 30
0.0
 11
52.220088
 21
7.864532999999999
 31
0.0
  0
LINE
  5
552
330
27
100
AcDbEntity
  8
2
100
AcDbLine
 10
52.220088
 20
2.364533
 30
0.0
 11
52.220088
 21
7.142844999999999
 31
0.0
  0
ARC
  5
553
330
27
100
AcDbEntity
  8
2
100
AcDbCircle
 10
55.470088
 20
0.185774
 30
0.0
 40
7.678758999999999
100
AcDbArc
 50
64.96034
 51
115.03966
  0
LINE
  5
554
330
27
100
AcDbEntity
  8
2
100
AcDbLine
 10
52.220088
 20
-22.635467
 30
0.0
 11
55.543588
 21
-22.635467
 31
0.0
  0
LINE
  5
555
330
27
100
AcDbEntity
  8
2
100
AcDbLine
 10
55.543588
 20
-22.635467
 30
0.0
 11
56.22008799999999
 21
-21.958967
 31
0.0
  0
LINE
  5
556
330
27
100
AcDbEntity
  8
2
100
AcDbLine
 10
56.22008799999999
 20
-21.958967
 30
0.0
 11
56.22008799999999
 21
-20.098753
 31
0.0
  0
LINE
  5
557
330
27
100
AcDbEntity
  8
2
100
AcDbLine
 10
56.22008799999999
 20
-21.958967
 30
0.0
 11
52.220088
 21
-21.958967
 31
0.0
  0
LINE
  5
558
330
27
100
AcDbEntity
  8
2
 62
     2
100
AcDbLine
 10
55.543588
 20
-22.635467
 30
0.0
 11
55.543588
 21
-20.135116
 31
0.0
  0
LINE
  5
559
330
27
100
AcDbEntity
  8
2
100
AcDbLine
 10
52.220088
 20
2.364533
 30
0.0
 11
45.72008799999999
 21
2.364533
 31
0.0
  0
LINE
  5
55A
330
27
100
AcDbEntity
  8
2
100
AcDbLine
 10
45.72008799999999
 20
2.364533
 30
0.0
 11
45.72008799999999
 21
7.142844999999999
 31
0.0
  0
LINE
  5
55B
330
27
100
AcDbEntity
  8
2
100
AcDbLine
 10
48.970088
 20
7.864532999999999
 30
0.0
 11
52.220088
 21
7.864532999999999
 31
0.0
  0
LINE
  5
55C
330
27
100
AcDbEntity
  8
2
100
AcDbLine
 10
52.220088
 20
2.364533
 30
0.0
 11
52.220088
 21
7.142844999999999
 31
0.0
  0
ARC
  5
55D
330
27
100
AcDbEntity
  8
2
100
AcDbCircle
 10
48.970088
 20
0.185774
 30
0.0
 40
7.678758999999999
100
AcDbArc
 50
64.96034
 51
115.03966
  0
LINE
  5
55E
330
27
100
AcDbEntity
  8
2
100
AcDbLine
 10
52.220088
 20
-22.635467
 30
0.0
 11
48.896588
 21
-22.635467
 31
0.0
  0
LINE
  5
55F
330
27
100
AcDbEntity
  8
2
100
AcDbLine
 10
48.896588
 20
-22.635467
 30
0.0
 11
48.22008799999999
 21
-21.958967
 31
0.0
  0
LINE
  5
560
330
27
100
AcDbEntity
  8
2
100
AcDbLine
 10
48.22008799999999
 20
-21.958967
 30
0.0
 11
48.22008799999999
 21
-20.098753
 31
0.0
  0
LINE
  5
561
330
27
100
AcDbEntity
  8
2
100
AcDbLine
 10
48.22008799999999
 20
-21.958967
 30
0.0
 11
52.220088
 21
-21.958967
 31
0.0
  0
LINE
  5
562
330
27
100
AcDbEntity
  8
2
 62
     2
100
AcDbLine
 10
48.896588
 20
-22.635467
 30
0.0
 11
48.896588
 21
-20.135116
 31
0.0
  0
POINT
  5
563
330
27
100
AcDbEntity
  8
2
100
AcDbPoint
 10
52.220088
 20
-11.635467
 30
0.0
  0
POINT
  5
564
330
27
100
AcDbEntity
  8
2
100
AcDbPoint
 10
52.220088
 20
-11.635467
 30
0.0
  0
LINE
  5
565
330
27
100
AcDbEntity
  8
2
100
AcDbLine
 10
52.220088
 20
-13.635467
 30
0.0
 11
45.72008799999999
 21
-13.635467
 31
0.0
  0
LINE
  5
566
330
27
100
AcDbEntity
  8
2
100
AcDbLine
 10
45.72008799999999
 20
-13.635467
 30
0.0
 11
45.72008799999999
 21
-19.413779
 31
0.0
  0
LINE
  5
567
330
27
100
AcDbEntity
  8
2
100
AcDbLine
 10
48.970088
 20
-20.135467
 30
0.0
 11
52.220088
 21
-20.135467
 31
0.0
  0
LINE
  5
568
330
27
100
AcDbEntity
  8
2
100
AcDbLine
 10
52.220088
 20
-13.635467
 30
0.0
 11
52.220088
 21
-19.413779
 31
0.0
  0
ARC
  5
569
330
27
100
AcDbEntity
  8
2
100
AcDbCircle
 10
48.970088
 20
-12.456709
 30
0.0
 40
7.678758999999999
100
AcDbArc
 50
244.96034
 51
295.03966
  0
LINE
  5
56A
330
27
100
AcDbEntity
  8
2
100
AcDbLine
 10
52.220088
 20
-13.635467
 30
0.0
 11
58.72008799999999
 21
-13.635467
 31
0.0
  0
LINE
  5
56B
330
27
100
AcDbEntity
  8
2
100
AcDbLine
 10
58.72008799999999
 20
-13.635467
 30
0.0
 11
58.72008799999999
 21
-19.413779
 31
0.0
  0
LINE
  5
56C
330
27
100
AcDbEntity
  8
2
100
AcDbLine
 10
55.470088
 20
-20.135467
 30
0.0
 11
52.220088
 21
-20.135467
 31
0.0
  0
LINE
  5
56D
330
27
100
AcDbEntity
  8
2
100
AcDbLine
 10
52.220088
 20
-13.635467
 30
0.0
 11
52.220088
 21
-19.413779
 31
0.0
  0
ARC
  5
56E
330
27
100
AcDbEntity
  8
2
100
AcDbCircle
 10
55.470088
 20
-12.456709
 30
0.0
 40
7.678758999999999
100
AcDbArc
 50
244.96034
 51
295.03966
  0
LINE
  5
56F
330
27
100
AcDbEntity
  8
2
100
AcDbLine
 10
44.520088
 20
-11.635467
 30
0.0
 11
44.520088
 21
-13.635467
 31
0.0
  0
LINE
  5
570
330
27
100
AcDbEntity
  8
2
100
AcDbLine
 10
44.520088
 20
-13.635467
 30
0.0
 11
59.920088
 21
-13.635467
 31
0.0
  0
LINE
  5
571
330
27
100
AcDbEntity
  8
2
100
AcDbLine
 10
59.920088
 20
-13.635467
 30
0.0
 11
59.920088
 21
-11.635467
 31
0.0
  0
LINE
  5
572
330
27
100
AcDbEntity
  8
2
100
AcDbLine
 10
59.920088
 20
-11.635467
 30
0.0
 11
44.520088
 21
-11.635467
 31
0.0
  0
LINE
  5
573
330
27
100
AcDbEntity
  8
2
100
AcDbLine
 10
-268.942849
 20
-11.635467
 30
0.0
 11
-268.442849
 21
-13.635467
 31
0.0
  0
LINE
  5
574
330
27
100
AcDbEntity
  8
2
100
AcDbLine
 10
-268.942849
 20
-13.635467
 30
0.0
 11
-269.442849
 21
-11.635467
 31
0.0
  0
DIMENSION
  5
575
330
27
100
AcDbEntity
  8
5
100
AcDbDimension
  2
*D0
 10
-336.125122
 20
250.907236
 30
0.0
 11
-341.745122
 21
215.387236
 31
0.0
  1
75
 71
     5
 42
-1.0
100
AcDbAlignedDimension
 13
-321.791931
 23
175.907236
 33
0.0
 14
-259.194112
 24
250.907236
 34
0.0
 50
90.0
100
AcDbRotatedDimension
  0
DIMENSION
  5
576
330
27
100
AcDbEntity
  8
5
100
AcDbDimension
  2
*D1
 10
-336.125122
 20
175.907236
 30
0.0
 11
-341.745122
 21
152.887236
 31
0.0
  1
50
 71
     5
 42
-1.0
100
AcDbAlignedDimension
 13
-244.194112
 23
125.907236
 33
0.0
 14
-321.791931
 24
175.907236
 34
0.0
 50
90.0
100
AcDbRotatedDimension
  0
DIMENSION
  5
577
330
27
100
AcDbEntity
  8
5
100
AcDbDimension
  2
*D2
 10
0.5729950000000001
 20
0.364533
 30
0.0
 11
-7.357005
 21
-62.465467
 31
0.0
  1
125
 71
     5
 42
-1.0
100
AcDbAlignedDimension
 13
37.753113
 23
-124.635467
 33
0.0
 14
26.968825
 24
0.364533
 34
0.0
 50
90.0
100
AcDbRotatedDimension
  0
DIMENSION
  5
578
330
27
100
AcDbEntity
  8
5
100
AcDbDimension
  2
*D3
 10
0.5729950000000001
 20
-124.635467
 30
0.0
 11
-7.357005
 21
-187.465467
 31
0.0
  1
125
 71
     5
 42
-1.0
100
AcDbAlignedDimension
 13
57.968825
 23
-249.635467
 33
0.0
 14
37.753113
 24
-124.635467
 34
0.0
 50
90.0
100
AcDbRotatedDimension
  0
DIMENSION
  5
579
330
27
100
AcDbEntity
  8
5
100
AcDbDimension
  2
*D4
 10
99.96882499999999
 20
-268.00885
 30
0.0
 11
76.968825
 21
-263.70885
 31
0.0
  1
46
 71
     5
 42
-1.0
100
AcDbAlignedDimension
 13
53.968825
 23
-178.135467
 33
0.0
 14
99.96882499999999
 24
-178.135467
 34
0.0
100
AcDbRotatedDimension
  0
TEXT
  5
57A
330
27
100
AcDbEntity
  8
5
100
AcDbText
 10
-0.4270050000000001
 20
14.97322
 30
0.0
 40
6.599999999999999
  1
66(概略)
 50
90.0
 41
0.9851851571268237
 72
     5
 11
-0.4270050000000001
 21
50.085219
 31
0.0
100
AcDbText
  0
DIMENSION
  5
57B
330
27
100
AcDbEntity
  8
5
100
AcDbDimension
  2
*D5
 10
0.5729950000000001
 20
66.541907
 30
0.0
 11
-1.927004999999999
 21
33.45322
 31
0.0
 71
     5
 42
-1.0
100
AcDbAlignedDimension
 13
26.968825
 23
0.364533
 33
0.0
 14
76.968825
 24
66.541907
 34
0.0
 50
90.0
100
AcDbRotatedDimension
  0
TEXT
  5
57C
330
27
100
AcDbEntity
  8
5
100
AcDbText
 10
-151.204309
 20
84.863716
 30
0.0
 40
6.599999999999999
  1
200
 41
0.7800000000000002
 72
     5
 11
-139.192309
 21
84.863716
 31
0.0
100
AcDbText
  0
DIMENSION
  5
57D
330
27
100
AcDbEntity
  8
5
100
AcDbDimension
  2
*D6
 10
-44.35450499999999
 20
83.863716
 30
0.0
 11
-144.274309
 21
85.86371599999999
 31
0.0
 71
     5
 42
-1.0
100
AcDbAlignedDimension
 13
-244.194112
 23
47.43719399999999
 33
0.0
 14
-44.35450499999999
 24
59.29275999999999
 34
0.0
100
AcDbRotatedDimension
  0
TEXT
  5
57E
330
27
100
AcDbEntity
  8
18
100
AcDbText
 10
244.289261
 20
-361.527985
 30
0.0
 40
6.0
  1
１
 41
1.500000000000003
 72
     5
 11
249.089261
 21
-361.527985
 31
0.0
100
AcDbText
  0
TEXT
  5
57F
330
27
100
AcDbEntity
  8
18
100
AcDbText
 10
253.082458
 20
-369.202026
 30
0.0
 40
6.0
  1
２
 72
     5
 11
257.882458
 21
-369.202026
 31
0.0
100
AcDbText
  0
TEXT
  5
580
330
27
100
AcDbEntity
  8
18
100
AcDbText
 10
245.708481
 20
-254.070526
 30
0.0
 40
6.0
  1
標準仕様
 41
0.8382352941176472
 72
     5
 11
268.508481
 21
-254.070526
 31
0.0
100
AcDbText
  0
LINE
  5
581
330
27
100
AcDbEntity
  8
18
100
AcDbLine
 10
256.862762
 20
-146.055054
 30
0.0
 11
356.862762
 21
-146.055054
 31
0.0
  0
LINE
  5
582
330
27
100
AcDbEntity
  8
18
100
AcDbLine
 10
256.862762
 20
-186.055054
 30
0.0
 11
356.862762
 21
-186.055054
 31
0.0
  0
LINE
  5
583
330
27
100
AcDbEntity
  8
18
100
AcDbLine
 10
256.862762
 20
-196.055054
 30
0.0
 11
356.862762
 21
-196.055054
 31
0.0
  0
LINE
  5
584
330
27
100
AcDbEntity
  8
18
100
AcDbLine
 10
256.862762
 20
-206.055054
 30
0.0
 11
356.862762
 21
-206.055054
 31
0.0
  0
LINE
  5
585
330
27
100
AcDbEntity
  8
18
100
AcDbLine
 10
256.862762
 20
-146.055054
 30
0.0
 11
256.862762
 21
-206.055054
 31
0.0
  0
LINE
  5
586
330
27
100
AcDbEntity
  8
18
100
AcDbLine
 10
306.862762
 20
-146.055054
 30
0.0
 11
306.862762
 21
-196.055054
 31
0.0
  0
LINE
  5
587
330
27
100
AcDbEntity
  8
18
100
AcDbLine
 10
356.862762
 20
-146.055054
 30
0.0
 11
356.862762
 21
-206.055054
 31
0.0
  0
LINE
  5
588
330
27
100
AcDbEntity
  8
18
 62
     2
100
AcDbLine
 10
274.420021
 20
-148.024063
 30
0.0
 11
274.420021
 21
-172.226685
 31
0.0
  0
LINE
  5
589
330
27
100
AcDbEntity
  8
18
100
AcDbLine
 10
262.420021
 20
-170.226685
 30
0.0
 11
262.420021
 21
-176.226685
 31
0.0
  0
LINE
  5
58A
330
27
100
AcDbEntity
  8
18
100
AcDbLine
 10
262.420021
 20
-170.226685
 30
0.0
 11
268.095466
 21
-170.226685
 31
0.0
  0
LINE
  5
58B
330
27
100
AcDbEntity
  8
18
100
AcDbLine
 10
280.744576
 20
-170.226685
 30
0.0
 11
286.420021
 21
-170.226685
 31
0.0
  0
LINE
  5
58C
330
27
100
AcDbEntity
  8
18
100
AcDbLine
 10
262.420021
 20
-176.226685
 30
0.0
 11
268.095466
 21
-176.226685
 31
0.0
  0
LINE
  5
58D
330
27
100
AcDbEntity
  8
18
100
AcDbLine
 10
280.744576
 20
-176.226685
 30
0.0
 11
286.420021
 21
-176.226685
 31
0.0
  0
LINE
  5
58E
330
27
100
AcDbEntity
  8
18
100
AcDbLine
 10
272.322167
 20
-172.226685
 30
0.0
 11
298.909369
 21
-172.226685
 31
0.0
  0
LINE
  5
58F
330
27
100
AcDbEntity
  8
18
100
AcDbLine
 10
272.322167
 20
-174.226685
 30
0.0
 11
298.909369
 21
-174.226685
 31
0.0
  0
LINE
  5
590
330
27
100
AcDbEntity
  8
18
100
AcDbLine
 10
269.341311
 20
-172.834756
 30
0.0
 11
272.322167
 21
-172.226685
 31
0.0
  0
LINE
  5
591
330
27
100
AcDbEntity
  8
18
100
AcDbLine
 10
269.341311
 20
-173.618613
 30
0.0
 11
272.322167
 21
-174.226685
 31
0.0
  0
ARC
  5
592
330
27
100
AcDbEntity
  8
18
100
AcDbCircle
 10
269.421262
 20
-173.226685
 30
0.0
 40
0.4
100
AcDbArc
 50
101.529708
 51
258.470292
  0
LINE
  5
593
330
27
100
AcDbEntity
  8
18
100
AcDbLine
 10
286.420021
 20
-176.226685
 30
0.0
 11
286.420021
 21
-174.226685
 31
0.0
  0
LINE
  5
594
330
27
100
AcDbEntity
  8
18
100
AcDbLine
 10
286.420021
 20
-172.226685
 30
0.0
 11
286.420021
 21
-170.226685
 31
0.0
  0
ARC
  5
595
330
27
100
AcDbEntity
  8
18
100
AcDbCircle
 10
274.420021
 20
-173.226685
 30
0.0
 40
7.0
100
AcDbArc
 50
8.213210999999999
 51
351.786789
  0
LINE
  5
596
330
27
100
AcDbEntity
  8
18
100
AcDbLine
 10
298.909369
 20
-172.226685
 30
0.0
 11
298.909369
 21
-174.226685
 31
0.0
  0
LINE
  5
597
330
27
100
AcDbEntity
  8
18
 62
     2
100
AcDbLine
 10
349.284842
 20
-158.266296
 30
0.0
 11
325.08222
 21
-158.266296
 31
0.0
  0
LINE
  5
598
330
27
100
AcDbEntity
  8
18
100
AcDbLine
 10
312.08222
 20
-155.266296
 30
0.0
 11
312.08222
 21
-161.2662959999999
 31
0.0
  0
LINE
  5
599
330
27
100
AcDbEntity
  8
18
100
AcDbLine
 10
312.08222
 20
-155.266296
 30
0.0
 11
317.757665
 21
-155.266296
 31
0.0
  0
LINE
  5
59A
330
27
100
AcDbEntity
  8
18
100
AcDbLine
 10
330.406775
 20
-155.266296
 30
0.0
 11
336.08222
 21
-155.266296
 31
0.0
  0
LINE
  5
59B
330
27
100
AcDbEntity
  8
18
100
AcDbLine
 10
312.08222
 20
-161.2662959999999
 30
0.0
 11
317.757665
 21
-161.2662959999999
 31
0.0
  0
LINE
  5
59C
330
27
100
AcDbEntity
  8
18
100
AcDbLine
 10
330.406775
 20
-161.2662959999999
 30
0.0
 11
336.08222
 21
-161.2662959999999
 31
0.0
  0
LINE
  5
59D
330
27
100
AcDbEntity
  8
18
100
AcDbLine
 10
325.08222
 20
-156.168442
 30
0.0
 11
325.08222
 21
-182.755644
 31
0.0
  0
LINE
  5
59E
330
27
100
AcDbEntity
  8
18
100
AcDbLine
 10
323.08222
 20
-156.168442
 30
0.0
 11
323.08222
 21
-182.755644
 31
0.0
  0
LINE
  5
59F
330
27
100
AcDbEntity
  8
18
100
AcDbLine
 10
324.474149
 20
-153.187587
 30
0.0
 11
325.08222
 21
-156.168442
 31
0.0
  0
LINE
  5
5A0
330
27
100
AcDbEntity
  8
18
100
AcDbLine
 10
323.690292
 20
-153.187587
 30
0.0
 11
323.08222
 21
-156.168442
 31
0.0
  0
ARC
  5
5A1
330
27
100
AcDbEntity
  8
18
100
AcDbCircle
 10
324.08222
 20
-153.267537
 30
0.0
 40
0.4
100
AcDbArc
 50
11.529708
 51
168.470292
  0
LINE
  5
5A2
330
27
100
AcDbEntity
  8
18
100
AcDbLine
 10
336.08222
 20
-161.2662959999999
 30
0.0
 11
336.08222
 21
-159.266296
 31
0.0
  0
LINE
  5
5A3
330
27
100
AcDbEntity
  8
18
100
AcDbLine
 10
336.08222
 20
-159.266296
 30
0.0
 11
336.08222
 21
-155.266296
 31
0.0
  0
LINE
  5
5A4
330
27
100
AcDbEntity
  8
18
100
AcDbLine
 10
325.08222
 20
-182.755644
 30
0.0
 11
323.08222
 21
-182.755644
 31
0.0
  0
ARC
  5
5A5
330
27
100
AcDbEntity
  8
18
100
AcDbCircle
 10
324.08222
 20
-158.266296
 30
0.0
 40
7.0
100
AcDbArc
 50
278.213211
 51
261.786789
  0
TEXT
  5
5A6
330
27
100
AcDbEntity
  8
18
100
AcDbText
 10
264.847015
 20
-203.122322
 30
0.0
 40
5.0
  1
ＡＣＴＵＡＴＯＲ　ＰＯＳＩＴＩＯＮ
 41
0.8372093023255812
 72
     5
 11
348.847015
 21
-203.122322
 31
0.0
100
AcDbText
  0
TEXT
  5
5A7
330
27
100
AcDbEntity
  8
18
100
AcDbText
 10
277.124237
 20
-193.699295
 30
0.0
 40
6.0
  1
Ｌ
 72
     5
 11
281.924237
 21
-193.699295
 31
0.0
100
AcDbText
  0
TEXT
  5
5A8
330
27
100
AcDbEntity
  8
18
100
AcDbText
 10
327.100342
 20
-193.859604
 30
0.0
 40
6.0
  1
Ｒ
 41
0.9230769230769144
 72
     5
 11
331.900342
 21
-193.859604
 31
0.0
100
AcDbText
  0
TEXT
  5
5A9
330
27
100
AcDbEntity
  8
18
100
AcDbText
 10
288.872514
 20
-153.531551
 30
0.0
 40
6.0
  1
　
 50
135.0000000000009
 72
     5
 11
288.023986
 21
-152.683023
 31
0.0
100
AcDbText
  0
DIMENSION
  5
5AA
330
27
100
AcDbEntity
  8
18
100
AcDbDimension
  2
*D7
 10
274.420021
 20
-149.787773
 30
0.0
 11
306.506987
 21
-140.846825
 31
0.0
 70
     2
 71
     5
 42
-1.0
100
AcDb2LineAngularDimension
 13
296.858932
 23
-172.226685
 33
0.0
 14
274.420021
 24
-172.226685
 34
0.0
 15
274.420021
 25
-172.226685
 35
0.0
 16
290.286727
 26
-156.359978
 36
0.0
  0
TEXT
  5
5AB
330
27
100
AcDbEntity
  8
18
100
AcDbText
 10
269.949709
 20
-151.971787
 30
0.0
 40
4.0
  1
Ｏ
 41
0.9230769230769197
 72
     5
 11
273.149709
 21
-151.971787
 31
0.0
100
AcDbText
  0
TEXT
  5
5AC
330
27
100
AcDbEntity
  8
18
100
AcDbText
 10
295.492743
 20
-179.110626
 30
0.0
 40
4.0
  1
Ｓ
 72
     5
 11
298.692743
 21
-179.110626
 31
0.0
100
AcDbText
  0
TEXT
  5
5AD
330
27
100
AcDbEntity
  8
18
100
AcDbText
 10
342.36314
 20
-171.304576
 30
0.0
 40
6.0
  1
　
 50
44.99999999999809
 72
     5
 11
343.211668
 21
-170.456048
 31
0.0
100
AcDbText
  0
DIMENSION
  5
5AE
330
27
100
AcDbEntity
  8
18
100
AcDbDimension
  2
*D8
 10
347.521132
 20
-158.266296
 30
0.0
 11
357.169186
 21
-191.060369
 31
0.0
 70
     2
 71
     5
 42
-1.0
100
AcDb2LineAngularDimension
 13
325.08222
 23
-180.705208
 33
0.0
 14
325.08222
 24
-158.266296
 34
0.0
 15
325.08222
 25
-158.266296
 35
0.0
 16
340.948927
 26
-174.133003
 36
0.0
  0
TEXT
  5
5AF
330
27
100
AcDbEntity
  8
18
100
AcDbText
 10
345.337118
 20
-153.795984
 30
0.0
 40
4.0
  1
Ｏ
 50
270.0
 41
0.9230769230769279
 72
     5
 11
345.337118
 21
-156.995984
 31
0.0
100
AcDbText
  0
TEXT
  5
5B0
330
27
100
AcDbEntity
  8
18
100
AcDbText
 10
318.198278
 20
-179.339018
 30
0.0
 40
4.0
  1
Ｓ
 50
270.0
 72
     5
 11
318.198278
 21
-182.539018
 31
0.0
100
AcDbText
  0
TEXT
  5
5B1
330
27
100
AcDbEntity
  8
18
100
AcDbText
 10
245.708481
 20
-246.070526
 30
0.0
 40
6.0
  1
８４６Ｔ－１ＴＬＳ　６５Ａ
 41
0.8384279475982534
 72
     5
 11
322.508481
 21
-246.070526
 31
0.0
100
AcDbText
  0
TEXT
  5
5B2
330
27
100
AcDbEntity
  8
18
100
AcDbText
 10
307.2
 20
-272.0
 30
0.0
 40
10.0
  1
Ｄ３－０３８１９
 41
0.8478260869565216
 72
     5
 11
385.2
 21
-272.0
 31
0.0
100
AcDbText
  0
TEXT
  5
5B3
330
27
100
AcDbEntity
  8
18
100
AcDbText
 10
360.398199
 20
-254.208344
 30
0.0
 40
4.0
  1
２００５．　７．１９
 41
0.8448275862068966
 72
     5
 11
399.598199
 21
-254.208344
 31
0.0
100
AcDbText
  0
LINE
  5
5B4
330
27
100
AcDbEntity
  8
20
 62
     3
100
AcDbLine
 10
-360.0
 20
-277.0
 30
0.0
 11
400.0
 21
-277.0
 31
0.0
  0
LINE
  5
5B5
330
27
100
AcDbEntity
  8
20
 62
     3
100
AcDbLine
 10
-360.0
 20
264.0
 30
0.0
 11
400.0
 21
264.0
 31
0.0
  0
LINE
  5
5B6
330
27
100
AcDbEntity
  8
20
 62
     3
100
AcDbLine
 10
-360.0
 20
264.0
 30
0.0
 11
-360.0
 21
-277.0
 31
0.0
  0
LINE
  5
5B7
330
27
100
AcDbEntity
  8
20
 62
     3
100
AcDbLine
 10
400.0
 20
264.0
 30
0.0
 11
400.0
 21
-277.0
 31
0.0
  0
LINE
  5
5B8
330
27
100
AcDbEntity
  8
20
 62
     3
100
AcDbLine
 10
120.0
 20
-277.0
 30
0.0
 11
120.0
 21
-237.0
 31
0.0
  0
LINE
  5
5B9
330
27
100
AcDbEntity
  8
20
 62
     3
100
AcDbLine
 10
214.0
 20
-277.0
 30
0.0
 11
214.0
 21
-237.0
 31
0.0
  0
LINE
  5
5BA
330
27
100
AcDbEntity
  8
20
100
AcDbLine
 10
214.0
 20
-257.0
 30
0.0
 11
400.0
 21
-257.0
 31
0.0
  0
LINE
  5
5BB
330
27
100
AcDbEntity
  8
20
 62
     3
100
AcDbLine
 10
120.0
 20
-237.0
 30
0.0
 11
400.0
 21
-237.0
 31
0.0
  0
LINE
  5
5BC
330
27
100
AcDbEntity
  8
20
100
AcDbLine
 10
360.0
 20
-257.0
 30
0.0
 11
360.0
 21
-237.0
 31
0.0
  0
LINE
  5
5BD
330
27
100
AcDbEntity
  8
20
100
AcDbLine
 10
360.0
 20
-247.0
 30
0.0
 11
400.0
 21
-247.0
 31
0.0
  0
LINE
  5
5BE
330
27
100
AcDbEntity
  8
20
100
AcDbLine
 10
242.0
 20
-277.0
 30
0.0
 11
242.0
 21
-237.0
 31
0.0
  0
LINE
  5
5BF
330
27
100
AcDbEntity
  8
20
100
AcDbLine
 10
262.0
 20
-277.0
 30
0.0
 11
262.0
 21
-257.0
 31
0.0
  0
LINE
  5
5C0
330
27
100
AcDbEntity
  8
20
100
AcDbLine
 10
302.0
 20
-277.0
 30
0.0
 11
302.0
 21
-257.0
 31
0.0
  0
LINE
  5
5C1
330
27
100
AcDbEntity
  8
20
100
AcDbLine
 10
247.456829
 20
-271.543171
 30
0.0
 11
255.796581
 21
-263.203419
 31
0.0
  0
TEXT
  5
5C2
330
27
100
AcDbEntity
  8
20
100
AcDbText
 10
263.066658
 20
-264.993835
 30
0.0
 40
3.6
  1
ＤＲＡＷＩＮＧ　ＮＯ．
 41
0.880434782608696
 72
     5
 11
301.946658
 21
-264.993835
 31
0.0
100
AcDbText
  0
TEXT
  5
5C3
330
27
100
AcDbEntity
  8
20
100
AcDbText
 10
267.0
 20
-273.0
 30
0.0
 40
6.0
  1
図　　　番
 41
0.8372093023255818
 72
     5
 11
295.8
 21
-273.0
 31
0.0
100
AcDbText
  0
TEXT
  5
5C4
330
27
100
AcDbEntity
  8
20
100
AcDbText
 10
372.0
 20
-244.0
 30
0.0
 40
4.0
  1
ＤＡＴＥ
 41
0.8769230769230761
 72
     5
 11
387.2
 21
-244.0
 31
0.0
100
AcDbText
  0
TEXT
  5
5C5
330
27
100
AcDbEntity
  8
20
100
AcDbText
 10
218.002142
 20
-265.922058
 30
0.0
 40
4.0
  1
ＳＣＡＬＥ
 41
0.8674698795180717
 72
     5
 11
237.202142
 21
-265.922058
 31
0.0
100
AcDbText
  0
TEXT
  5
5C6
330
27
100
AcDbEntity
  8
20
100
AcDbText
 10
216.0
 20
-273.0
 30
0.0
 40
6.0
  1
尺　　度
 41
0.8382352941176474
 72
     5
 11
238.8
 21
-273.0
 31
0.0
100
AcDbText
  0
TEXT
  5
5C7
330
27
100
AcDbEntity
  8
20
100
AcDbText
 10
215.002142
 20
-244.991769
 30
0.0
 40
4.0
  1
ＦＩＧ．ＮＯ．
 41
0.9107142857142854
 72
     5
 11
242.202142
 21
-244.991769
 31
0.0
100
AcDbText
  0
TEXT
  5
5C8
330
27
100
AcDbEntity
  8
20
100
AcDbText
 10
216.0
 20
-253.0
 30
0.0
 40
6.0
  1
名　　称
 41
0.8382352941176474
 72
     5
 11
238.8
 21
-253.0
 31
0.0
100
AcDbText
  0
TEXT
  5
5C9
330
27
100
AcDbEntity
  8
20
100
AcDbText
 10
121.13105
 20
-252.940506
 30
0.0
 40
4.599999999999999
  1
ＴＯＭＯＥ　ＶＡＬＶＥ　ＣＯ．，ＬＴＤ．
 41
0.8583815028901732
 72
     5
 11
212.21105
 21
-252.940506
 31
0.0
100
AcDbText
  0
TEXT
  5
5CA
330
27
100
AcDbEntity
  8
20
100
AcDbText
 10
135.0
 20
-266.57962
 30
0.0
 40
8.0
  1
巴バルブ株式会社
 41
0.8357142857142855
 72
     5
 11
197.4
 21
-266.57962
 31
0.0
100
AcDbText
  0
ENDSEC
  0
SECTION
  2
OBJECTS
  0
DICTIONARY
  5
633
330
0
100
AcDbDictionary
281
     1
  3
ACAD_COLOR
350
66A
  3
ACAD_GROUP
350
634
  3
ACAD_LAYOUT
350
692
  3
ACAD_MATERIAL
350
640
  3
ACAD_MLEADERSTYLE
350
68F
  3
ACAD_MLINESTYLE
350
635
  3
ACAD_PLOTSETTINGS
350
693
  3
ACAD_PLOTSTYLENAME
350
63E
  3
ACAD_SCALELIST
350
66D
  3
ACAD_TABLESTYLE
350
66B
  3
ACAD_VISUALSTYLE
350
659
  3
ACDB_RECOMPOSE_DATA
350
6B5
  3
AcDbVariableDictionary
350
6AC
  3
DWGPROPS
350
6B6
  0
DICTIONARY
  5
697
330
15
100
AcDbDictionary
280
     1
281
     1
  3
ADSK_XREC_LAYER_RECONCILED
360
698
  0
DICTIONARY
  5
699
330
16
100
AcDbDictionary
280
     1
281
     1
  3
ADSK_XREC_LAYER_RECONCILED
360
69A
  0
DICTIONARY
  5
69B
330
17
100
AcDbDictionary
280
     1
281
     1
  3
ADSK_XREC_LAYER_RECONCILED
360
69C
  0
DICTIONARY
  5
69D
330
18
100
AcDbDictionary
280
     1
281
     1
  3
ADSK_XREC_LAYER_RECONCILED
360
69E
  0
DICTIONARY
  5
69F
330
19
100
AcDbDictionary
280
     1
281
     1
  3
ADSK_XREC_LAYER_RECONCILED
360
6A0
  0
DICTIONARY
  5
6A1
330
1A
100
AcDbDictionary
280
     1
281
     1
  3
ADSK_XREC_LAYER_RECONCILED
360
6A2
  0
DICTIONARY
  5
66A
102
{ACAD_REACTORS
330
633
102
}
330
633
100
AcDbDictionary
281
     1
  0
DICTIONARY
  5
634
102
{ACAD_REACTORS
330
633
102
}
330
633
100
AcDbDictionary
281
     1
  0
DICTIONARY
  5
692
102
{ACAD_REACTORS
330
633
102
}
330
633
100
AcDbDictionary
281
     1
  3
Model
350
694
  3
レイアウト1
350
695
  0
DICTIONARY
  5
640
102
{ACAD_REACTORS
330
633
102
}
330
633
100
AcDbDictionary
281
     1
  3
ByBlock
350
649
  3
ByLayer
350
641
  3
Global
350
651
  0
DICTIONARY
  5
68F
102
{ACAD_REACTORS
330
633
102
}
330
633
100
AcDbDictionary
281
     1
  3
Standard
350
690
  0
DICTIONARY
  5
635
102
{ACAD_REACTORS
330
633
102
}
330
633
100
AcDbDictionary
281
     1
  3
STANDARD
350
636
  0
DICTIONARY
  5
693
102
{ACAD_REACTORS
330
633
102
}
330
633
100
AcDbDictionary
281
     1
  0
ACDBDICTIONARYWDFLT
  5
63E
102
{ACAD_REACTORS
330
633
102
}
330
633
100
AcDbDictionary
281
     1
  3
Normal
350
63F
100
AcDbDictionaryWithDefault
340
63F
  0
DICTIONARY
  5
66D
102
{ACAD_REACTORS
330
633
102
}
330
633
100
AcDbDictionary
281
     1
  3
A0
350
66E
  3
A1
350
66F
  3
A2
350
670
  3
A3
350
671
  3
A4
350
672
  3
A5
350
673
  3
A6
350
674
  3
A7
350
675
  3
A8
350
676
  3
A9
350
677
  3
B0
350
678
  3
B1
350
679
  3
B2
350
67A
  3
B3
350
67B
  3
B4
350
67C
  3
B5
350
67D
  3
B6
350
67E
  3
B7
350
67F
  3
B8
350
680
  3
B9
350
681
  3
C0
350
682
  3
C1
350
683
  3
C2
350
684
  3
C3
350
685
  3
C4
350
686
  3
C5
350
687
  3
C6
350
688
  3
C7
350
689
  3
C8
350
68A
  3
C9
350
68B
  3
D0
350
68C
  3
D1
350
68D
  3
D2
350
68E
  0
DICTIONARY
  5
66B
102
{ACAD_REACTORS
330
633
102
}
330
633
100
AcDbDictionary
281
     1
  3
Standard
350
66C
  0
DICTIONARY
  5
659
102
{ACAD_REACTORS
330
633
102
}
330
633
100
AcDbDictionary
281
     1
  3
2dWireframe
350
65F
  3
3D Hidden
350
661
  3
3dWireframe
350
660
  3
Basic
350
65E
  3
Brighten
350
665
  3
ColorChange
350
669
  3
Conceptual
350
662
  3
Dim
350
664
  3
Facepattern
350
668
  3
Flat
350
65A
  3
FlatWithEdges
350
65B
  3
Gouraud
350
65C
  3
GouraudWithEdges
350
65D
  3
Linepattern
350
667
  3
Realistic
350
663
  3
Thicken
350
666
  0
XRECORD
  5
6B5
102
{ACAD_REACTORS
330
633
102
}
330
633
100
AcDbXrecord
280
     1
 90
        1
330
66C
  0
DICTIONARY
  5
6AC
102
{ACAD_REACTORS
330
633
102
}
330
633
100
AcDbDictionary
281
     1
  3
CANNOSCALE
350
6AF
  3
CMLEADERSTYLE
350
6AE
  3
CTABLESTYLE
350
6AD
  3
DIMASSOC
350
6B2
  3
INDEXCTL
350
6B1
  3
SORTENTS
350
6B0
  0
XRECORD
  5
6B6
102
{ACAD_REACTORS
330
633
102
}
330
633
100
AcDbXrecord
280
     1
  1
DWGPROPS COOKIE
  2

  3

  4

  6

  7

  8
miyazaki-tomoko
  9

300
=
301
=
302
=
303
=
304
=
305
=
306
=
307
=
308
=
309
=
 40
0.001405
 41
2453571.0
 42
2455707.700265243
  1

 90
        0
  0
XRECORD
  5
698
102
{ACAD_REACTORS
330
697
102
}
330
697
100
AcDbXrecord
280
     1
290
     1
  0
XRECORD
  5
69A
102
{ACAD_REACTORS
330
699
102
}
330
699
100
AcDbXrecord
280
     1
290
     1
  0
XRECORD
  5
69C
102
{ACAD_REACTORS
330
69B
102
}
330
69B
100
AcDbXrecord
280
     1
290
     1
  0
XRECORD
  5
69E
102
{ACAD_REACTORS
330
69D
102
}
330
69D
100
AcDbXrecord
280
     1
290
     1
  0
XRECORD
  5
6A0
102
{ACAD_REACTORS
330
69F
102
}
330
69F
100
AcDbXrecord
280
     1
290
     1
  0
XRECORD
  5
6A2
102
{ACAD_REACTORS
330
6A1
102
}
330
6A1
100
AcDbXrecord
280
     1
290
     1
  0
LAYOUT
  5
694
102
{ACAD_XDICTIONARY
360
6BB
102
}
102
{ACAD_REACTORS
330
692
102
}
330
692
100
AcDbPlotSettings
  1

  2
Adobe PDF
  4
A4
  6

 40
3.174999952316284
 41
3.174999952316284
 42
3.175003051757812
 43
3.17498779296875
 44
209.9098358154297
 45
297.0318298339844
 46
0.0
 47
0.0
 48
0.0
 49
0.0
140
0.0
141
0.0
142
1.0
143
96.01295139474885
 70
 11952
 72
     0
 73
     1
 74
     0
  7

 75
     0
147
0.0104152615399623
148
11518.51655917613
149
6869.526518955433
100
AcDbLayout
  1
Model
 70
     1
 71
     0
 10
0.0
 20
0.0
 11
12.0
 21
9.0
 12
0.0
 22
0.0
 32
0.0
 14
0.0
 24
0.0
 34
0.0
 15
0.0
 25
0.0
 35
0.0
146
0.0
 13
0.0
 23
0.0
 33
0.0
 16
1.0
 26
0.0
 36
0.0
 17
0.0
 27
1.0
 37
0.0
 76
     0
330
27
331
1B
1001
ACAD_PSEXT
1000
Adobe PDF
1000
Adobe PDF Converter
1000
C:\Documents and Settings\administrator.TOMOE\My Documents
1000
Adobe PDF の作成
1070
     0
  0
LAYOUT
  5
695
102
{ACAD_XDICTIONARY
360
6BD
102
}
102
{ACAD_REACTORS
330
692
102
}
330
692
100
AcDbPlotSettings
  1

  2
Adobe PDF
  4

  6

 40
0.0
 41
0.0
 42
0.0
 43
0.0
 44
0.0
 45
0.0
 46
0.0
 47
0.0
 48
0.0
 49
0.0
140
0.0
141
0.0
142
1.0
143
1.0
 70
   688
 72
     0
 73
     0
 74
     5
  7

 75
    16
147
1.0
148
0.0
149
0.0
100
AcDbLayout
  1
レイアウト1
 70
     0
 71
     1
 10
0.0
 20
0.0
 11
12.0
 21
9.0
 12
0.0
 22
0.0
 32
0.0
 14
1.000000000000000E+20
 24
1.000000000000000E+20
 34
1.000000000000000E+20
 15
-1.000000000000000E+20
 25
-1.000000000000000E+20
 35
-1.000000000000000E+20
146
0.0
 13
0.0
 23
0.0
 33
0.0
 16
1.0
 26
0.0
 36
0.0
 17
0.0
 27
1.0
 37
0.0
 76
     0
330
28
  0
MATERIAL
  5
649
102
{ACAD_XDICTIONARY
360
64A
102
}
102
{ACAD_REACTORS
330
640
102
}
330
640
100
AcDbMaterial
  1
ByBlock
 72
     0
 43
0.0208333333333333
 43
0.0
 43
0.0
 43
0.0
 43
0.0
 43
0.0208333333333333
 43
0.0
 43
0.0
 43
0.0
 43
0.0
 43
1.0
 43
0.0
 43
0.0
 43
0.0
 43
0.0
 43
1.0
 77
     0
 47
0.0208333333333333
 47
0.0
 47
0.0
 47
0.0
 47
0.0
 47
0.0208333333333333
 47
0.0
 47
0.0
 47
0.0
 47
0.0
 47
1.0
 47
0.0
 47
0.0
 47
0.0
 47
0.0
 47
1.0
171
     0
 49
0.0208333333333333
 49
0.0
 49
0.0
 49
0.0
 49
0.0
 49
0.0208333333333333
 49
0.0
 49
0.0
 49
0.0
 49
0.0
 49
1.0
 49
0.0
 49
0.0
 49
0.0
 49
0.0
 49
1.0
175
     0
142
0.0208333333333333
142
0.0
142
0.0
142
0.0
142
0.0
142
0.0208333333333333
142
0.0
142
0.0
142
0.0
142
0.0
142
1.0
142
0.0
142
0.0
142
0.0
142
0.0
142
1.0
179
     0
144
0.0208333333333333
144
0.0
144
0.0
144
0.0
144
0.0
144
0.0208333333333333
144
0.0
144
0.0
144
0.0
144
0.0
144
1.0
144
0.0
144
0.0
144
0.0
144
0.0
144
1.0
147
0.0208333333333333
147
0.0
147
0.0
147
0.0
147
0.0
147
0.0208333333333333
147
0.0
147
0.0
147
0.0
147
0.0
147
1.0
147
0.0
147
0.0
147
0.0
147
0.0
147
1.0
  0
MATERIAL
  5
641
102
{ACAD_XDICTIONARY
360
642
102
}
102
{ACAD_REACTORS
330
640
102
}
330
640
100
AcDbMaterial
  1
ByLayer
 72
     0
 43
0.0208333333333333
 43
0.0
 43
0.0
 43
0.0
 43
0.0
 43
0.0208333333333333
 43
0.0
 43
0.0
 43
0.0
 43
0.0
 43
1.0
 43
0.0
 43
0.0
 43
0.0
 43
0.0
 43
1.0
 77
     0
 47
0.0208333333333333
 47
0.0
 47
0.0
 47
0.0
 47
0.0
 47
0.0208333333333333
 47
0.0
 47
0.0
 47
0.0
 47
0.0
 47
1.0
 47
0.0
 47
0.0
 47
0.0
 47
0.0
 47
1.0
171
     0
 49
0.0208333333333333
 49
0.0
 49
0.0
 49
0.0
 49
0.0
 49
0.0208333333333333
 49
0.0
 49
0.0
 49
0.0
 49
0.0
 49
1.0
 49
0.0
 49
0.0
 49
0.0
 49
0.0
 49
1.0
175
     0
142
0.0208333333333333
142
0.0
142
0.0
142
0.0
142
0.0
142
0.0208333333333333
142
0.0
142
0.0
142
0.0
142
0.0
142
1.0
142
0.0
142
0.0
142
0.0
142
0.0
142
1.0
179
     0
144
0.0208333333333333
144
0.0
144
0.0
144
0.0
144
0.0
144
0.0208333333333333
144
0.0
144
0.0
144
0.0
144
0.0
144
1.0
144
0.0
144
0.0
144
0.0
144
0.0
144
1.0
147
0.0208333333333333
147
0.0
147
0.0
147
0.0
147
0.0
147
0.0208333333333333
147
0.0
147
0.0
147
0.0
147
0.0
147
1.0
147
0.0
147
0.0
147
0.0
147
0.0
147
1.0
  0
MATERIAL
  5
651
102
{ACAD_XDICTIONARY
360
652
102
}
102
{ACAD_REACTORS
330
640
102
}
330
640
100
AcDbMaterial
  1
Global
 72
     0
 43
0.0208333333333333
 43
0.0
 43
0.0
 43
0.0
 43
0.0
 43
0.0208333333333333
 43
0.0
 43
0.0
 43
0.0
 43
0.0
 43
1.0
 43
0.0
 43
0.0
 43
0.0
 43
0.0
 43
1.0
 77
     0
 47
0.0208333333333333
 47
0.0
 47
0.0
 47
0.0
 47
0.0
 47
0.0208333333333333
 47
0.0
 47
0.0
 47
0.0
 47
0.0
 47
1.0
 47
0.0
 47
0.0
 47
0.0
 47
0.0
 47
1.0
171
     0
 49
0.0208333333333333
 49
0.0
 49
0.0
 49
0.0
 49
0.0
 49
0.0208333333333333
 49
0.0
 49
0.0
 49
0.0
 49
0.0
 49
1.0
 49
0.0
 49
0.0
 49
0.0
 49
0.0
 49
1.0
175
     0
142
0.0208333333333333
142
0.0
142
0.0
142
0.0
142
0.0
142
0.0208333333333333
142
0.0
142
0.0
142
0.0
142
0.0
142
1.0
142
0.0
142
0.0
142
0.0
142
0.0
142
1.0
179
     0
144
0.0208333333333333
144
0.0
144
0.0
144
0.0
144
0.0
144
0.0208333333333333
144
0.0
144
0.0
144
0.0
144
0.0
144
1.0
144
0.0
144
0.0
144
0.0
144
0.0
144
1.0
147
0.0208333333333333
147
0.0
147
0.0
147
0.0
147
0.0
147
0.0208333333333333
147
0.0
147
0.0
147
0.0
147
0.0
147
1.0
147
0.0
147
0.0
147
0.0
147
0.0
147
1.0
  0
MLEADERSTYLE
  5
690
102
{ACAD_REACTORS
330
68F
102
}
330
68F
100
AcDbMLeaderStyle
170
     2
171
     1
172
     0
 90
        2
 40
0.0
 41
0.0
173
     1
 91
-1056964608
340
C
 92
       -2
290
     1
 42
0.09
291
     1
 43
0.36
  3
Standard
 44
0.18
300

342
1D
174
     1
178
     6
175
     1
176
     0
 93
-1056964608
 45
0.18
292
     0
297
     0
 46
0.18
 94
-1056964608
 47
1.0
 49
1.0
140
1.0
293
     1
141
0.0
294
     1
177
     0
142
1.0
295
     0
296
     0
143
0.125
1001
ACAD_MLEADERVER
1070
     2
  0
MLINESTYLE
  5
636
102
{ACAD_REACTORS
330
635
102
}
330
635
100
AcDbMlineStyle
  2
STANDARD
 70
     0
  3

 62
     0
 51
90.0
 52
90.0
 71
     2
 49
0.5
 62
   256
  6
BYLAYER
 49
-0.5
 62
   256
  6
BYLAYER
  0
ACDBPLACEHOLDER
  5
63F
102
{ACAD_REACTORS
330
63E
102
}
330
63E
  0
SCALE
  5
66E
102
{ACAD_REACTORS
330
66D
102
}
330
66D
100
AcDbScale
 70
     0
300
1:1
140
1.0
141
1.0
290
     1
  0
SCALE
  5
66F
102
{ACAD_REACTORS
330
66D
102
}
330
66D
100
AcDbScale
 70
     0
300
1:2
140
1.0
141
2.0
290
     0
  0
SCALE
  5
670
102
{ACAD_REACTORS
330
66D
102
}
330
66D
100
AcDbScale
 70
     0
300
1:4
140
1.0
141
4.0
290
     0
  0
SCALE
  5
671
102
{ACAD_REACTORS
330
66D
102
}
330
66D
100
AcDbScale
 70
     0
300
1:5
140
1.0
141
5.0
290
     0
  0
SCALE
  5
672
102
{ACAD_REACTORS
330
66D
102
}
330
66D
100
AcDbScale
 70
     0
300
1:8
140
1.0
141
8.0
290
     0
  0
SCALE
  5
673
102
{ACAD_REACTORS
330
66D
102
}
330
66D
100
AcDbScale
 70
     0
300
1:10
140
1.0
141
10.0
290
     0
  0
SCALE
  5
674
102
{ACAD_REACTORS
330
66D
102
}
330
66D
100
AcDbScale
 70
     0
300
1:16
140
1.0
141
16.0
290
     0
  0
SCALE
  5
675
102
{ACAD_REACTORS
330
66D
102
}
330
66D
100
AcDbScale
 70
     0
300
1:20
140
1.0
141
20.0
290
     0
  0
SCALE
  5
676
102
{ACAD_REACTORS
330
66D
102
}
330
66D
100
AcDbScale
 70
     0
300
1:30
140
1.0
141
30.0
290
     0
  0
SCALE
  5
677
102
{ACAD_REACTORS
330
66D
102
}
330
66D
100
AcDbScale
 70
     0
300
1:40
140
1.0
141
40.0
290
     0
  0
SCALE
  5
678
102
{ACAD_REACTORS
330
66D
102
}
330
66D
100
AcDbScale
 70
     0
300
1:50
140
1.0
141
50.0
290
     0
  0
SCALE
  5
679
102
{ACAD_REACTORS
330
66D
102
}
330
66D
100
AcDbScale
 70
     0
300
1:100
140
1.0
141
100.0
290
     0
  0
SCALE
  5
67A
102
{ACAD_REACTORS
330
66D
102
}
330
66D
100
AcDbScale
 70
     0
300
2:1
140
2.0
141
1.0
290
     0
  0
SCALE
  5
67B
102
{ACAD_REACTORS
330
66D
102
}
330
66D
100
AcDbScale
 70
     0
300
4:1
140
4.0
141
1.0
290
     0
  0
SCALE
  5
67C
102
{ACAD_REACTORS
330
66D
102
}
330
66D
100
AcDbScale
 70
     0
300
8:1
140
8.0
141
1.0
290
     0
  0
SCALE
  5
67D
102
{ACAD_REACTORS
330
66D
102
}
330
66D
100
AcDbScale
 70
     0
300
10:1
140
10.0
141
1.0
290
     0
  0
SCALE
  5
67E
102
{ACAD_REACTORS
330
66D
102
}
330
66D
100
AcDbScale
 70
     0
300
100:1
140
100.0
141
1.0
290
     0
  0
SCALE
  5
67F
102
{ACAD_REACTORS
330
66D
102
}
330
66D
100
AcDbScale
 70
     0
300
1/128" = 1'-0"
140
0.0078125
141
12.0
290
     0
  0
SCALE
  5
680
102
{ACAD_REACTORS
330
66D
102
}
330
66D
100
AcDbScale
 70
     0
300
1/64" = 1'-0"
140
0.015625
141
12.0
290
     0
  0
SCALE
  5
681
102
{ACAD_REACTORS
330
66D
102
}
330
66D
100
AcDbScale
 70
     0
300
1/32" = 1'-0"
140
0.03125
141
12.0
290
     0
  0
SCALE
  5
682
102
{ACAD_REACTORS
330
66D
102
}
330
66D
100
AcDbScale
 70
     0
300
1/16" = 1'-0"
140
0.0625
141
12.0
290
     0
  0
SCALE
  5
683
102
{ACAD_REACTORS
330
66D
102
}
330
66D
100
AcDbScale
 70
     0
300
3/32" = 1'-0"
140
0.09375
141
12.0
290
     0
  0
SCALE
  5
684
102
{ACAD_REACTORS
330
66D
102
}
330
66D
100
AcDbScale
 70
     0
300
1/8" = 1'-0"
140
0.125
141
12.0
290
     0
  0
SCALE
  5
685
102
{ACAD_REACTORS
330
66D
102
}
330
66D
100
AcDbScale
 70
     0
300
3/16" = 1'-0"
140
0.1875
141
12.0
290
     0
  0
SCALE
  5
686
102
{ACAD_REACTORS
330
66D
102
}
330
66D
100
AcDbScale
 70
     0
300
1/4" = 1'-0"
140
0.25
141
12.0
290
     0
  0
SCALE
  5
687
102
{ACAD_REACTORS
330
66D
102
}
330
66D
100
AcDbScale
 70
     0
300
3/8" = 1'-0"
140
0.375
141
12.0
290
     0
  0
SCALE
  5
688
102
{ACAD_REACTORS
330
66D
102
}
330
66D
100
AcDbScale
 70
     0
300
1/2" = 1'-0"
140
0.5
141
12.0
290
     0
  0
SCALE
  5
689
102
{ACAD_REACTORS
330
66D
102
}
330
66D
100
AcDbScale
 70
     0
300
3/4" = 1'-0"
140
0.75
141
12.0
290
     0
  0
SCALE
  5
68A
102
{ACAD_REACTORS
330
66D
102
}
330
66D
100
AcDbScale
 70
     0
300
1" = 1'-0"
140
1.0
141
12.0
290
     0
  0
SCALE
  5
68B
102
{ACAD_REACTORS
330
66D
102
}
330
66D
100
AcDbScale
 70
     0
300
1-1/2" = 1'-0"
140
1.5
141
12.0
290
     0
  0
SCALE
  5
68C
102
{ACAD_REACTORS
330
66D
102
}
330
66D
100
AcDbScale
 70
     0
300
3" = 1'-0"
140
3.0
141
12.0
290
     0
  0
SCALE
  5
68D
102
{ACAD_REACTORS
330
66D
102
}
330
66D
100
AcDbScale
 70
     0
300
6" = 1'-0"
140
6.0
141
12.0
290
     0
  0
SCALE
  5
68E
102
{ACAD_REACTORS
330
66D
102
}
330
66D
100
AcDbScale
 70
     0
300
1'-0" = 1'-0"
140
12.0
141
12.0
290
     0
  0
TABLESTYLE
  5
66C
102
{ACAD_XDICTIONARY
360
6B3
102
}
102
{ACAD_REACTORS
330
66B
102
}
330
66B
100
AcDbTableStyle
  3
Standard
 70
     0
 71
     0
 40
0.06
 41
0.06
280
     0
281
     0
  7
STANDARD
140
0.18
170
     2
 62
     0
 63
     7
283
     0
274
    -2
284
     1
 64
     0
275
    -2
285
     1
 65
     0
276
    -2
286
     1
 66
     0
277
    -2
287
     1
 67
     0
278
    -2
288
     1
 68
     0
279
    -2
289
     1
 69
     0
  7
STANDARD
140
0.25
170
     5
 62
     0
 63
     7
283
     0
274
    -2
284
     1
 64
     0
275
    -2
285
     1
 65
     0
276
    -2
286
     1
 66
     0
277
    -2
287
     1
 67
     0
278
    -2
288
     1
 68
     0
279
    -2
289
     1
 69
     0
  7
STANDARD
140
0.18
170
     5
 62
     0
 63
     7
283
     0
274
    -2
284
     1
 64
     0
275
    -2
285
     1
 65
     0
276
    -2
286
     1
 66
     0
277
    -2
287
     1
 67
     0
278
    -2
288
     1
 68
     0
279
    -2
289
     1
 69
     0
  0
VISUALSTYLE
  5
65F
102
{ACAD_REACTORS
330
659
102
}
330
659
100
AcDbVisualStyle
  2
2dWireframe
 70
     4
 71
     0
 72
     2
 73
     0
 90
        0
 40
-0.6
 41
-30.0
 62
     5
 63
     7
 74
     1
 91
        4
 64
     7
 65
   257
 75
     1
175
     1
 42
1.0
 92
        0
 66
   257
 43
1.0
 76
     1
 77
     6
 78
     2
 67
     7
 79
     5
170
     0
171
     0
290
     0
174
     0
 93
        1
 44
0.0
173
     0
291
     0
 45
0.0
1001
ACAD
1000
AcDbSavedByObjectVersion
1070
     0
  0
VISUALSTYLE
  5
661
102
{ACAD_REACTORS
330
659
102
}
330
659
100
AcDbVisualStyle
  2
3D Hidden
 70
     6
 71
     1
 72
     2
 73
     2
 90
        0
 40
-0.6
 41
-30.0
 62
     5
 63
     7
 74
     2
 91
        2
 64
     7
 65
   257
 75
     2
175
     1
 42
40.0
 92
        0
 66
   257
 43
1.0
 76
     1
 77
     6
 78
     2
 67
     7
 79
     3
170
     0
171
     0
290
     0
174
     0
 93
        1
 44
0.0
173
     0
291
     0
 45
0.0
1001
ACAD
1000
AcDbSavedByObjectVersion
1070
     0
  0
VISUALSTYLE
  5
660
102
{ACAD_REACTORS
330
659
102
}
330
659
100
AcDbVisualStyle
  2
3dWireframe
 70
     5
 71
     0
 72
     2
 73
     0
 90
        0
 40
-0.6
 41
-30.0
 62
     5
 63
     7
 74
     1
 91
        4
 64
     7
 65
   257
 75
     1
175
     1
 42
1.0
 92
        0
 66
   257
 43
1.0
 76
     1
 77
     6
 78
     2
 67
     7
 79
     5
170
     0
171
     0
290
     0
174
     0
 93
        1
 44
0.0
173
     0
291
     0
 45
0.0
1001
ACAD
1000
AcDbSavedByObjectVersion
1070
     0
  0
VISUALSTYLE
  5
65E
102
{ACAD_REACTORS
330
659
102
}
330
659
100
AcDbVisualStyle
  2
Basic
 70
     7
 71
     1
 72
     0
 73
     1
 90
        0
 40
-0.6
 41
-30.0
 62
     5
 63
     7
 74
     0
 91
        4
 64
     7
 65
   257
 75
     1
175
     1
 42
1.0
 92
        8
 66
     7
 43
1.0
 76
     1
 77
     6
 78
     2
 67
     7
 79
     5
170
     0
171
     0
290
     0
174
     0
 93
        1
 44
0.0
173
     0
291
     1
 45
0.0
1001
ACAD
1000
AcDbSavedByObjectVersion
1070
     0
  0
VISUALSTYLE
  5
665
102
{ACAD_REACTORS
330
659
102
}
330
659
100
AcDbVisualStyle
  2
Brighten
 70
    12
 71
     2
 72
     2
 73
     0
 90
        0
 40
-0.6
 41
-30.0
 62
     5
 63
     7
 74
     1
 91
        4
 64
     7
 65
   257
 75
     1
175
     1
 42
1.0
 92
        8
 66
     7
 43
1.0
 76
     1
 77
     6
 78
     2
 67
     7
 79
     5
170
     0
171
     0
290
     0
174
     0
 93
        1
 44
50.0
173
     0
291
     1
 45
0.0
1001
ACAD
1000
AcDbSavedByObjectVersion
1070
     0
  0
VISUALSTYLE
  5
669
102
{ACAD_REACTORS
330
659
102
}
330
659
100
AcDbVisualStyle
  2
ColorChange
 70
    16
 71
     2
 72
     2
 73
     3
 90
        0
 40
-0.6
 41
-30.0
 62
     5
 63
     8
 74
     1
 91
        4
 64
     7
 65
   257
 75
     1
175
     1
 42
1.0
 92
        8
 66
     8
 43
1.0
 76
     1
 77
     6
 78
     2
 67
     7
 79
     5
170
     0
171
     0
290
     0
174
     0
 93
        1
 44
0.0
173
     0
291
     1
 45
0.0
1001
ACAD
1000
AcDbSavedByObjectVersion
1070
     0
  0
VISUALSTYLE
  5
662
102
{ACAD_REACTORS
330
659
102
}
330
659
100
AcDbVisualStyle
  2
Conceptual
 70
     9
 71
     3
 72
     2
 73
     0
 90
        0
 40
-0.6
 41
-30.0
 62
     5
 63
     7
 74
     2
 91
        2
 64
     7
 65
   257
 75
     1
175
     1
 42
40.0
 92
        8
 66
     7
 43
1.0
 76
     1
 77
     6
 78
     2
 67
     7
 79
     3
170
     0
171
     0
290
     0
174
     0
 93
        1
 44
0.0
173
     0
291
     0
 45
0.0
1001
ACAD
1000
AcDbSavedByObjectVersion
1070
     0
  0
VISUALSTYLE
  5
664
102
{ACAD_REACTORS
330
659
102
}
330
659
100
AcDbVisualStyle
  2
Dim
 70
    11
 71
     2
 72
     2
 73
     0
 90
        0
 40
-0.6
 41
-30.0
 62
     5
 63
     7
 74
     1
 91
        4
 64
     7
 65
   257
 75
     1
175
     1
 42
1.0
 92
        8
 66
     7
 43
1.0
 76
     1
 77
     6
 78
     2
 67
     7
 79
     5
170
     0
171
     0
290
     0
174
     0
 93
        1
 44
-50.0
173
     0
291
     1
 45
0.0
1001
ACAD
1000
AcDbSavedByObjectVersion
1070
     0
  0
VISUALSTYLE
  5
668
102
{ACAD_REACTORS
330
659
102
}
330
659
100
AcDbVisualStyle
  2
Facepattern
 70
    15
 71
     2
 72
     2
 73
     0
 90
        0
 40
-0.6
 41
-30.0
 62
     5
 63
     7
 74
     1
 91
        4
 64
     7
 65
   257
 75
     1
175
     1
 42
1.0
 92
        8
 66
     7
 43
1.0
 76
     1
 77
     6
 78
     2
 67
     7
 79
     5
170
     0
171
     0
290
     0
174
     0
 93
        1
 44
0.0
173
     0
291
     1
 45
0.0
1001
ACAD
1000
AcDbSavedByObjectVersion
1070
     0
  0
VISUALSTYLE
  5
65A
102
{ACAD_REACTORS
330
659
102
}
330
659
100
AcDbVisualStyle
  2
Flat
 70
     0
 71
     2
 72
     1
 73
     1
 90
        2
 40
-0.6
 41
30.0
 62
     5
 63
     7
 74
     0
 91
        4
 64
     7
 65
   257
 75
     1
175
     1
 42
1.0
 92
        8
 66
     7
 43
1.0
 76
     1
 77
     6
 78
     2
 67
     7
 79
     5
170
     0
171
     0
290
     0
174
     0
 93
       13
 44
0.0
173
     0
291
     1
 45
0.0
1001
ACAD
1000
AcDbSavedByObjectVersion
1070
     0
  0
VISUALSTYLE
  5
65B
102
{ACAD_REACTORS
330
659
102
}
330
659
100
AcDbVisualStyle
  2
FlatWithEdges
 70
     1
 71
     2
 72
     1
 73
     1
 90
        2
 40
-0.6
 41
30.0
 62
     5
 63
     7
 74
     1
 91
        4
 64
     7
 65
   257
 75
     1
175
     1
 42
1.0
 92
        0
 66
   257
 43
1.0
 76
     1
 77
     6
 78
     2
 67
     7
 79
     5
170
     0
171
     0
290
     0
174
     0
 93
       13
 44
0.0
173
     0
291
     1
 45
0.0
1001
ACAD
1000
AcDbSavedByObjectVersion
1070
     0
  0
VISUALSTYLE
  5
65C
102
{ACAD_REACTORS
330
659
102
}
330
659
100
AcDbVisualStyle
  2
Gouraud
 70
     2
 71
     2
 72
     2
 73
     1
 90
        2
 40
-0.6
 41
30.0
 62
     5
 63
     7
 74
     0
 91
        4
 64
     7
 65
   257
 75
     1
175
     1
 42
1.0
 92
        0
 66
     7
 43
1.0
 76
     1
 77
     6
 78
     2
 67
     7
 79
     5
170
     0
171
     0
290
     0
174
     0
 93
       13
 44
0.0
173
     0
291
     1
 45
0.0
1001
ACAD
1000
AcDbSavedByObjectVersion
1070
     0
  0
VISUALSTYLE
  5
65D
102
{ACAD_REACTORS
330
659
102
}
330
659
100
AcDbVisualStyle
  2
GouraudWithEdges
 70
     3
 71
     2
 72
     2
 73
     1
 90
        2
 40
-0.6
 41
30.0
 62
     5
 63
     7
 74
     1
 91
        4
 64
     7
 65
   257
 75
     1
175
     1
 42
1.0
 92
        0
 66
   257
 43
1.0
 76
     1
 77
     6
 78
     2
 67
     7
 79
     5
170
     0
171
     0
290
     0
174
     0
 93
       13
 44
0.0
173
     0
291
     1
 45
0.0
1001
ACAD
1000
AcDbSavedByObjectVersion
1070
     0
  0
VISUALSTYLE
  5
667
102
{ACAD_REACTORS
330
659
102
}
330
659
100
AcDbVisualStyle
  2
Linepattern
 70
    14
 71
     2
 72
     2
 73
     0
 90
        0
 40
-0.6
 41
-30.0
 62
     5
 63
     7
 74
     1
 91
        4
 64
     7
 65
   257
 75
     7
175
     7
 42
1.0
 92
        8
 66
     7
 43
1.0
 76
     1
 77
     6
 78
     2
 67
     7
 79
     5
170
     0
171
     0
290
     0
174
     0
 93
        1
 44
0.0
173
     0
291
     1
 45
0.0
1001
ACAD
1000
AcDbSavedByObjectVersion
1070
     0
  0
VISUALSTYLE
  5
663
102
{ACAD_REACTORS
330
659
102
}
330
659
100
AcDbVisualStyle
  2
Realistic
 70
     8
 71
     2
 72
     2
 73
     0
 90
        0
 40
-0.6
 41
-30.0
 62
     5
 63
     7
 74
     1
 91
        0
 64
     7
 65
   257
 75
     1
175
     1
 42
1.0
 92
        8
 66
     8
 43
1.0
 76
     1
 77
     6
 78
     2
 67
     7
 79
     5
170
     0
171
     0
290
     0
174
     0
 93
       13
 44
0.0
173
     0
291
     0
 45
0.0
1001
ACAD
1000
AcDbSavedByObjectVersion
1070
     0
  0
VISUALSTYLE
  5
666
102
{ACAD_REACTORS
330
659
102
}
330
659
100
AcDbVisualStyle
  2
Thicken
 70
    13
 71
     2
 72
     2
 73
     0
 90
        0
 40
-0.6
 41
-30.0
 62
     5
 63
     7
 74
     1
 91
        4
 64
     7
 65
   257
 75
     1
175
     1
 42
1.0
 92
       12
 66
     7
 43
1.0
 76
     1
 77
     6
 78
     2
 67
     7
 79
     5
170
     0
171
     0
290
     0
174
     0
 93
        1
 44
0.0
173
     0
291
     1
 45
0.0
1001
ACAD
1000
AcDbSavedByObjectVersion
1070
     0
  0
DICTIONARYVAR
  5
6AF
102
{ACAD_REACTORS
330
6AC
102
}
330
6AC
100
DictionaryVariables
280
     0
  1
1:1
  0
DICTIONARYVAR
  5
6AE
102
{ACAD_REACTORS
330
6AC
102
}
330
6AC
100
DictionaryVariables
280
     0
  1
STANDARD
  0
DICTIONARYVAR
  5
6AD
102
{ACAD_REACTORS
330
6AC
102
}
330
6AC
100
DictionaryVariables
280
     0
  1
STANDARD
  0
DICTIONARYVAR
  5
6B2
102
{ACAD_REACTORS
330
6AC
102
}
330
6AC
100
DictionaryVariables
280
     0
  1
1
  0
DICTIONARYVAR
  5
6B1
102
{ACAD_REACTORS
330
6AC
102
}
330
6AC
100
DictionaryVariables
280
     0
  1
0
  0
DICTIONARYVAR
  5
6B0
102
{ACAD_REACTORS
330
6AC
102
}
330
6AC
100
DictionaryVariables
280
     0
  1
127
  0
DICTIONARY
  5
6BB
330
694
100
AcDbDictionary
280
     1
281
     1
  3
ACAD_XREC_ROUNDTRIP
360
6BC
  0
DICTIONARY
  5
6BD
330
695
100
AcDbDictionary
280
     1
281
     1
  3
ACAD_XREC_ROUNDTRIP
360
6BE
  0
DICTIONARY
  5
64A
330
649
100
AcDbDictionary
280
     1
281
     1
  3
ACAD_XREC_ROUNDTRIP
360
6B8
  3
BUMPTILE
360
64C
  3
DIFFUSETILE
360
64B
  3
OPACITYTILE
360
64F
  3
REFLECTIONTILE
360
64E
  3
REFRACTIONTILE
360
650
  3
SPECULARTILE
360
64D
  0
DICTIONARY
  5
642
330
641
100
AcDbDictionary
280
     1
281
     1
  3
ACAD_XREC_ROUNDTRIP
360
6B7
  3
BUMPTILE
360
644
  3
DIFFUSETILE
360
643
  3
OPACITYTILE
360
647
  3
REFLECTIONTILE
360
646
  3
REFRACTIONTILE
360
648
  3
SPECULARTILE
360
645
  0
DICTIONARY
  5
652
330
651
100
AcDbDictionary
280
     1
281
     1
  3
ACAD_XREC_ROUNDTRIP
360
6B9
  3
BUMPTILE
360
654
  3
DIFFUSETILE
360
653
  3
OPACITYTILE
360
657
  3
REFLECTIONTILE
360
656
  3
REFRACTIONTILE
360
658
  3
SPECULARTILE
360
655
  0
DICTIONARY
  5
6B3
330
66C
100
AcDbDictionary
280
     1
281
     1
  3
ACAD_ROUNDTRIP_2008_TABLESTYLE_CELLSTYLEMAP
360
6B4
  3
ACAD_XREC_ROUNDTRIP
360
6BA
  0
XRECORD
  5
6BC
102
{ACAD_REACTORS
330
6BB
102
}
330
6BB
100
AcDbXrecord
280
     1
102
SHADEPLOT
 70
     0
102
SHADEPLOTRESLEVEL
 70
     2
102
SHADEPLOTCUSTOMDPI
 70
   300
  0
XRECORD
  5
6BE
102
{ACAD_REACTORS
330
6BD
102
}
330
6BD
100
AcDbXrecord
280
     1
102
SHADEPLOT
 70
     0
102
SHADEPLOTRESLEVEL
 70
     2
102
SHADEPLOTCUSTOMDPI
 70
   300
  0
XRECORD
  5
6B8
102
{ACAD_REACTORS
330
64A
102
}
330
64A
100
AcDbXrecord
280
     1
102
MATERIAL
148
0.0
149
0.0
149
0.0
 93
        0
 94
      127
282
     0
 72
     0
 77
     0
171
     0
175
     0
179
     0
273
     0
  0
XRECORD
  5
64C
102
{ACAD_REACTORS
330
64A
102
}
330
64A
100
AcDbXrecord
280
     1
270
     1
271
     1
  0
XRECORD
  5
64B
102
{ACAD_REACTORS
330
64A
102
}
330
64A
100
AcDbXrecord
280
     1
270
     1
271
     1
  0
XRECORD
  5
64F
102
{ACAD_REACTORS
330
64A
102
}
330
64A
100
AcDbXrecord
280
     1
270
     1
271
     1
  0
XRECORD
  5
64E
102
{ACAD_REACTORS
330
64A
102
}
330
64A
100
AcDbXrecord
280
     1
270
     1
271
     1
  0
XRECORD
  5
650
102
{ACAD_REACTORS
330
64A
102
}
330
64A
100
AcDbXrecord
280
     1
270
     1
271
     1
  0
XRECORD
  5
64D
102
{ACAD_REACTORS
330
64A
102
}
330
64A
100
AcDbXrecord
280
     1
270
     1
271
     1
  0
XRECORD
  5
6B7
102
{ACAD_REACTORS
330
642
102
}
330
642
100
AcDbXrecord
280
     1
102
MATERIAL
148
0.0
149
0.0
149
0.0
 93
        0
 94
      127
282
     0
 72
     0
 77
     0
171
     0
175
     0
179
     0
273
     0
  0
XRECORD
  5
644
102
{ACAD_REACTORS
330
642
102
}
330
642
100
AcDbXrecord
280
     1
270
     1
271
     1
  0
XRECORD
  5
643
102
{ACAD_REACTORS
330
642
102
}
330
642
100
AcDbXrecord
280
     1
270
     1
271
     1
  0
XRECORD
  5
647
102
{ACAD_REACTORS
330
642
102
}
330
642
100
AcDbXrecord
280
     1
270
     1
271
     1
  0
XRECORD
  5
646
102
{ACAD_REACTORS
330
642
102
}
330
642
100
AcDbXrecord
280
     1
270
     1
271
     1
  0
XRECORD
  5
648
102
{ACAD_REACTORS
330
642
102
}
330
642
100
AcDbXrecord
280
     1
270
     1
271
     1
  0
XRECORD
  5
645
102
{ACAD_REACTORS
330
642
102
}
330
642
100
AcDbXrecord
280
     1
270
     1
271
     1
  0
XRECORD
  5
6B9
102
{ACAD_REACTORS
330
652
102
}
330
652
100
AcDbXrecord
280
     1
102
MATERIAL
148
0.0
149
0.0
149
0.0
 93
        0
 94
      127
282
     0
 72
     0
 77
     0
171
     0
175
     0
179
     0
273
     0
  0
XRECORD
  5
654
102
{ACAD_REACTORS
330
652
102
}
330
652
100
AcDbXrecord
280
     1
270
     1
271
     1
  0
XRECORD
  5
653
102
{ACAD_REACTORS
330
652
102
}
330
652
100
AcDbXrecord
280
     1
270
     1
271
     1
  0
XRECORD
  5
657
102
{ACAD_REACTORS
330
652
102
}
330
652
100
AcDbXrecord
280
     1
270
     1
271
     1
  0
XRECORD
  5
656
102
{ACAD_REACTORS
330
652
102
}
330
652
100
AcDbXrecord
280
     1
270
     1
271
     1
  0
XRECORD
  5
658
102
{ACAD_REACTORS
330
652
102
}
330
652
100
AcDbXrecord
280
     1
270
     1
271
     1
  0
XRECORD
  5
655
102
{ACAD_REACTORS
330
652
102
}
330
652
100
AcDbXrecord
280
     1
270
     1
271
     1
  0
CELLSTYLEMAP
  5
6B4
102
{ACAD_REACTORS
330
6B3
102
}
330
6B3
100
AcDbCellStyleMap
 90
        3
300
CELLSTYLE
  1
TABLEFORMAT_BEGIN
 90
        5
170
     1
 91
        0
 92
    32768
 62
   257
 93
        1
300
CONTENTFORMAT
  1
CONTENTFORMAT_BEGIN
 90
        0
 91
        0
 92
      512
 93
        0
300

 40
0.0
140
1.0
 94
        5
 62
     0
340
1D
144
0.25
309
CONTENTFORMAT_END
171
     0
 94
        0
309
TABLEFORMAT_END
  1
CELLSTYLE_BEGIN
 90
        1
 91
        1
300
_TITLE
309
CELLSTYLE_END
300
CELLSTYLE
  1
TABLEFORMAT_BEGIN
 90
        5
170
     1
 91
        0
 92
        0
 62
   257
 93
        1
300
CONTENTFORMAT
  1
CONTENTFORMAT_BEGIN
 90
        0
 91
        0
 92
      512
 93
        0
300

 40
0.0
140
1.0
 94
        5
 62
     0
340
1D
144
0.18
309
CONTENTFORMAT_END
171
     0
 94
        0
309
TABLEFORMAT_END
  1
CELLSTYLE_BEGIN
 90
        2
 91
        1
300
_HEADER
309
CELLSTYLE_END
300
CELLSTYLE
  1
TABLEFORMAT_BEGIN
 90
        5
170
     1
 91
        0
 92
        0
 62
   257
 93
        1
300
CONTENTFORMAT
  1
CONTENTFORMAT_BEGIN
 90
        0
 91
        0
 92
      512
 93
        0
300

 40
0.0
140
1.0
 94
        2
 62
     0
340
1D
144
0.18
309
CONTENTFORMAT_END
171
     0
 94
        0
309
TABLEFORMAT_END
  1
CELLSTYLE_BEGIN
 90
        3
 91
        2
300
_DATA
309
CELLSTYLE_END
  0
XRECORD
  5
6BA
102
{ACAD_REACTORS
330
6B3
102
}
330
6B3
100
AcDbXrecord
280
     1
102
ACAD_ROUNDTRIP_PRE2007_TABLESTYLE
 90
      512
 91
        0
  1

 92
      512
 93
        0
  2

 94
      512
 95
        0
  3

  0
ENDSEC
  0
EOF
