  0
SECTION
  2
HEADER
  9
$ACADVER
  1
AC1015
  9
$ACADMAINTVER
 70
    20
  9
$DWGCODEPAGE
  3
ANSI_932
  9
$INSBASE
 10
0.0
 20
0.0
 30
0.0
  9
$EXTMIN
 10
-540.0
 20
-510.70304
 30
0.0
  9
$EXTMAX
 10
600.0
 20
396.0
 30
0.0
  9
$LIMMIN
 10
-630.0
 20
-445.5
  9
$LIMMAX
 10
630.0
 20
445.5
  9
$ORTHOMODE
 70
     0
  9
$REGENMODE
 70
     1
  9
$FILLMODE
 70
     1
  9
$QTEXTMODE
 70
     0
  9
$MIRRTEXT
 70
     1
  9
$LTSCALE
 40
1.0
  9
$ATTMODE
 70
     1
  9
$TEXTSIZE
 40
1.0
  9
$TRACEWID
 40
0.05
  9
$TEXTSTYLE
  7
STANDARD
  9
$CLAYER
  8
0
  9
$CELTYPE
  6
CONTINUOUS
  9
$CECOLOR
 62
   256
  9
$CELTSCALE
 40
1.0
  9
$DISPSILH
 70
     0
  9
$DIMSCALE
 40
3.0
  9
$DIMASZ
 40
0.18
  9
$DIMEXO
 40
0.0625
  9
$DIMDLI
 40
0.38
  9
$DIMRND
 40
0.0
  9
$DIMDLE
 40
0.0
  9
$DIMEXE
 40
0.18
  9
$DIMTP
 40
0.0
  9
$DIMTM
 40
0.0
  9
$DIMTXT
 40
0.18
  9
$DIMCEN
 40
0.09
  9
$DIMTSZ
 40
0.0
  9
$DIMTOL
 70
     0
  9
$DIMLIM
 70
     0
  9
$DIMTIH
 70
     1
  9
$DIMTOH
 70
     1
  9
$DIMSE1
 70
     0
  9
$DIMSE2
 70
     0
  9
$DIMTAD
 70
     1
  9
$DIMZIN
 70
     0
  9
$DIMBLK
  1

  9
$DIMASO
 70
     1
  9
$DIMSHO
 70
     1
  9
$DIMPOST
  1

  9
$DIMAPOST
  1

  9
$DIMALT
 70
     0
  9
$DIMALTD
 70
     2
  9
$DIMALTF
 40
25.4
  9
$DIMLFAC
 40
1.0
  9
$DIMTOFL
 70
     0
  9
$DIMTVP
 40
0.0
  9
$DIMTIX
 70
     0
  9
$DIMSOXD
 70
     0
  9
$DIMSAH
 70
     0
  9
$DIMBLK1
  1

  9
$DIMBLK2
  1

  9
$DIMSTYLE
  2
STANDARD
  9
$DIMCLRD
 70
     0
  9
$DIMCLRE
 70
     0
  9
$DIMCLRT
 70
     0
  9
$DIMTFAC
 40
1.0
  9
$DIMGAP
 40
0.09
  9
$DIMJUST
 70
     0
  9
$DIMSD1
 70
     0
  9
$DIMSD2
 70
     0
  9
$DIMTOLJ
 70
     1
  9
$DIMTZIN
 70
     0
  9
$DIMALTZ
 70
     0
  9
$DIMALTTZ
 70
     0
  9
$DIMUPT
 70
     0
  9
$DIMDEC
 70
     4
  9
$DIMTDEC
 70
     4
  9
$DIMALTU
 70
     2
  9
$DIMALTTD
 70
     2
  9
$DIMTXSTY
  7
STANDARD
  9
$DIMAUNIT
 70
     0
  9
$DIMADEC
 70
     0
  9
$DIMALTRND
 40
0.0
  9
$DIMAZIN
 70
     0
  9
$DIMDSEP
 70
    46
  9
$DIMATFIT
 70
     3
  9
$DIMFRAC
 70
     0
  9
$DIMLDRBLK
  1

  9
$DIMLUNIT
 70
     2
  9
$DIMLWD
 70
    -2
  9
$DIMLWE
 70
    -2
  9
$DIMTMOVE
 70
     0
  9
$LUNITS
 70
     2
  9
$LUPREC
 70
     4
  9
$SKETCHINC
 40
0.1
  9
$FILLETRAD
 40
0.0
  9
$AUNITS
 70
     0
  9
$AUPREC
 70
     0
  9
$MENU
  1
acad
  9
$ELEVATION
 40
0.0
  9
$PELEVATION
 40
0.0
  9
$THICKNESS
 40
0.0
  9
$LIMCHECK
 70
     0
  9
$CHAMFERA
 40
0.0
  9
$CHAMFERB
 40
0.0
  9
$CHAMFERC
 40
0.0
  9
$CHAMFERD
 40
0.0
  9
$SKPOLY
 70
     0
  9
$TDCREATE
 40
2453571.000000000
  9
$TDUCREATE
 40
2453570.625000000
  9
$TDUPDATE
 40
2455707.696810556
  9
$TDUUPDATE
 40
2455707.321810556
  9
$TDINDWG
 40
0.2096552083
  9
$TDUSRTIMER
 40
0.2096548495
  9
$USRTIMER
 70
     1
  9
$ANGBASE
 50
0.0
  9
$ANGDIR
 70
     0
  9
$PDMODE
 70
     0
  9
$PDSIZE
 40
0.0
  9
$PLINEWID
 40
0.0
  9
$SPLFRAME
 70
     0
  9
$SPLINETYPE
 70
     6
  9
$SPLINESEGS
 70
     8
  9
$HANDSEED
  5
6DA
  9
$SURFTAB1
 70
     6
  9
$SURFTAB2
 70
     6
  9
$SURFTYPE
 70
     6
  9
$SURFU
 70
     6
  9
$SURFV
 70
     6
  9
$UCSBASE
  2

  9
$UCSNAME
  2

  9
$UCSORG
 10
0.0
 20
0.0
 30
0.0
  9
$UCSXDIR
 10
1.0
 20
0.0
 30
0.0
  9
$UCSYDIR
 10
0.0
 20
1.0
 30
0.0
  9
$UCSORTHOREF
  2

  9
$UCSORTHOVIEW
 70
     0
  9
$UCSORGTOP
 10
0.0
 20
0.0
 30
0.0
  9
$UCSORGBOTTOM
 10
0.0
 20
0.0
 30
0.0
  9
$UCSORGLEFT
 10
0.0
 20
0.0
 30
0.0
  9
$UCSORGRIGHT
 10
0.0
 20
0.0
 30
0.0
  9
$UCSORGFRONT
 10
0.0
 20
0.0
 30
0.0
  9
$UCSORGBACK
 10
0.0
 20
0.0
 30
0.0
  9
$PUCSBASE
  2

  9
$PUCSNAME
  2

  9
$PUCSORG
 10
0.0
 20
0.0
 30
0.0
  9
$PUCSXDIR
 10
1.0
 20
0.0
 30
0.0
  9
$PUCSYDIR
 10
0.0
 20
1.0
 30
0.0
  9
$PUCSORTHOREF
  2

  9
$PUCSORTHOVIEW
 70
     0
  9
$PUCSORGTOP
 10
0.0
 20
0.0
 30
0.0
  9
$PUCSORGBOTTOM
 10
0.0
 20
0.0
 30
0.0
  9
$PUCSORGLEFT
 10
0.0
 20
0.0
 30
0.0
  9
$PUCSORGRIGHT
 10
0.0
 20
0.0
 30
0.0
  9
$PUCSORGFRONT
 10
0.0
 20
0.0
 30
0.0
  9
$PUCSORGBACK
 10
0.0
 20
0.0
 30
0.0
  9
$USERI1
 70
     0
  9
$USERI2
 70
     0
  9
$USERI3
 70
     0
  9
$USERI4
 70
     0
  9
$USERI5
 70
     0
  9
$USERR1
 40
0.0
  9
$USERR2
 40
0.0
  9
$USERR3
 40
0.0
  9
$USERR4
 40
0.0
  9
$USERR5
 40
0.0
  9
$WORLDVIEW
 70
     1
  9
$SHADEDGE
 70
     3
  9
$SHADEDIF
 70
    70
  9
$TILEMODE
 70
     1
  9
$MAXACTVP
 70
    16
  9
$PINSBASE
 10
0.0
 20
0.0
 30
0.0
  9
$PLIMCHECK
 70
     0
  9
$PEXTMIN
 10
1.000000000000000E+20
 20
1.000000000000000E+20
 30
1.000000000000000E+20
  9
$PEXTMAX
 10
-1.000000000000000E+20
 20
-1.000000000000000E+20
 30
-1.000000000000000E+20
  9
$PLIMMIN
 10
0.0
 20
0.0
  9
$PLIMMAX
 10
12.0
 20
9.0
  9
$UNITMODE
 70
     0
  9
$VISRETAIN
 70
     0
  9
$PLINEGEN
 70
     1
  9
$PSLTSCALE
 70
     0
  9
$TREEDEPTH
 70
  3020
  9
$CMLSTYLE
  2
STANDARD
  9
$CMLJUST
 70
     0
  9
$CMLSCALE
 40
1.0
  9
$PROXYGRAPHICS
 70
     1
  9
$MEASUREMENT
 70
     0
  9
$CELWEIGHT
370
    -1
  9
$ENDCAPS
280
     0
  9
$JOINSTYLE
280
     0
  9
$LWDISPLAY
290
     0
  9
$INSUNITS
 70
     0
  9
$HYPERLINKBASE
  1

  9
$STYLESHEET
  1

  9
$XEDIT
290
     1
  9
$CEPSNTYPE
380
     0
  9
$PSTYLEMODE
290
     1
  9
$FINGERPRINTGUID
  2
{59A16D04-140B-4551-A288-F265EE6876DD}
  9
$VERSIONGUID
  2
{CCF664CA-E714-4429-A7AC-3CFFC5E331C4}
  9
$EXTNAMES
290
     1
  9
$PSVPSCALE
 40
0.0
  9
$OLESTARTUP
290
     0
  0
ENDSEC
  0
SECTION
  2
CLASSES
  0
CLASS
  1
IMAGE
  2
AcDbRasterImage
  3
ISM
 90
    34943
280
     0
281
     1
  0
CLASS
  1
DICTIONARYVAR
  2
AcDbDictionaryVar
  3
ObjectDBX Classes
 90
        0
280
     0
281
     0
  0
CLASS
  1
RASTERVARIABLES
  2
AcDbRasterVariables
  3
ISM
 90
    32768
280
     0
281
     0
  0
CLASS
  1
IMAGEDEF
  2
AcDbRasterImageDef
  3
ISM
 90
    32768
280
     0
281
     0
  0
CLASS
  1
IMAGEDEF_REACTOR
  2
AcDbRasterImageDefReactor
  3
ISM
 90
    32769
280
     0
281
     0
  0
CLASS
  1
IDBUFFER
  2
AcDbIdBuffer
  3
ObjectDBX Classes
 90
    32768
280
     0
281
     0
  0
CLASS
  1
SPATIAL_FILTER
  2
AcDbSpatialFilter
  3
ObjectDBX Classes
 90
    32768
280
     0
281
     0
  0
CLASS
  1
SORTENTSTABLE
  2
AcDbSortentsTable
  3
ObjectDBX Classes
 90
    32768
280
     0
281
     0
  0
CLASS
  1
LAYER_INDEX
  2
AcDbLayerIndex
  3
ObjectDBX Classes
 90
    32768
280
     0
281
     0
  0
CLASS
  1
SPATIAL_INDEX
  2
AcDbSpatialIndex
  3
ObjectDBX Classes
 90
    32768
280
     0
281
     0
  0
CLASS
  1
OBJECT_PTR
  2
CAseDLPNTableRecord
  3
"ASE-LPNTableRecord"
 90
    32769
280
     0
281
     0
  0
CLASS
  1
LAYOUT
  2
AcDbLayout
  3
ObjectDBX Classes
 90
        0
280
     0
281
     0
  0
CLASS
  1
PLOTSETTINGS
  2
AcDbPlotSettings
  3
ObjectDBX Classes
 90
    32768
280
     0
281
     0
  0
CLASS
  1
ACDBDICTIONARYWDFLT
  2
AcDbDictionaryWithDefault
  3
ObjectDBX Classes
 90
        0
280
     0
281
     0
  0
CLASS
  1
ACDBPLACEHOLDER
  2
AcDbPlaceHolder
  3
ObjectDBX Classes
 90
        0
280
     0
281
     0
  0
CLASS
  1
VBA_PROJECT
  2
AcDbVbaProject
  3
acad
 90
    32768
280
     0
281
     0
  0
CLASS
  1
WIPEOUT
  2
AcDbWipeout
  3
"WipeOut|Product Desc: Object Enabler for WipeOut entity                        |Company: Autodesk, Inc.                        |WEB Address: www.autodesk.com"
 90
    34943
280
     0
281
     1
  0
CLASS
  1
WIPEOUTVARIABLES
  2
AcDbWipeoutVariables
  3
"WipeOut|Product Desc:     WipeOut Dbx Application|Company:          Autodesk, Inc.|WEB Address:      www.autodesk.com"
 90
    32768
280
     0
281
     0
  0
CLASS
  1
RTEXT
  2
RText
  3
RText|AutoCAD Express Tool|expresstools@autodesk.com
 90
    32768
280
     0
281
     1
  0
CLASS
  1
ARCALIGNEDTEXT
  2
AcDbArcAlignedText
  3
ATEXT|AutoCAD Express Tool|expresstools@autodesk.com
 90
    32768
280
     0
281
     1
  0
CLASS
  1
MATERIAL
  2
AcDbMaterial
  3
ObjectDBX Classes
 90
     1153
280
     0
281
     0
  0
CLASS
  1
VISUALSTYLE
  2
AcDbVisualStyle
  3
ObjectDBX Classes
 90
     4095
280
     0
281
     0
  0
CLASS
  1
TABLESTYLE
  2
AcDbTableStyle
  3
ObjectDBX Classes
 90
     4095
280
     0
281
     0
  0
CLASS
  1
SCALE
  2
AcDbScale
  3
ObjectDBX Classes
 90
     1153
280
     0
281
     0
  0
CLASS
  1
MLEADERSTYLE
  2
AcDbMLeaderStyle
  3
ACDB_MLEADERSTYLE_CLASS
 90
     4095
280
     0
281
     0
  0
CLASS
  1
CELLSTYLEMAP
  2
AcDbCellStyleMap
  3
ObjectDBX Classes
 90
     1152
280
     0
281
     0
  0
ENDSEC
  0
SECTION
  2
TABLES
  0
TABLE
  2
VPORT
  5
6
330
0
100
AcDbSymbolTable
 70
     1
  0
VPORT
  5
1B
330
6
100
AcDbSymbolTableRecord
100
AcDbViewportTableRecord
  2
*ACTIVE
 70
     0
 10
0.0
 20
0.0
 11
1.0
 21
1.0
 12
242.1681489750587
 22
0.471480587700512
 13
0.0
 23
0.0
 14
1.0
 24
1.0
 15
0.0
 25
0.0
 16
0.0
 26
0.0
 36
1.0
 17
0.0
 27
0.0
 37
0.0
 40
893.685473142
 41
2.087030716723549
 42
50.0
 43
0.0
 44
0.0
 50
0.0
 51
0.0
 71
     0
 72
   500
 73
     1
 74
     0
 75
     0
 76
     0
 77
     0
 78
     0
281
     0
 65
     1
110
0.0
120
0.0
130
0.0
111
1.0
121
0.0
131
0.0
112
0.0
122
1.0
132
0.0
 79
     0
146
0.0
  0
ENDTAB
  0
TABLE
  2
LTYPE
  5
3
330
0
100
AcDbSymbolTable
 70
     7
  0
LTYPE
  5
C
330
3
100
AcDbSymbolTableRecord
100
AcDbLinetypeTableRecord
  2
BYBLOCK
 70
     0
  3

 72
    65
 73
     0
 40
0.0
  0
LTYPE
  5
D
330
3
100
AcDbSymbolTableRecord
100
AcDbLinetypeTableRecord
  2
BYLAYER
 70
     0
  3

 72
    65
 73
     0
 40
0.0
  0
LTYPE
  5
E
330
3
100
AcDbSymbolTableRecord
100
AcDbLinetypeTableRecord
  2
CONTINUOUS
 70
     0
  3
Solid line
 72
    65
 73
     0
 40
0.0
  0
LTYPE
  5
F
330
3
100
AcDbSymbolTableRecord
100
AcDbLinetypeTableRecord
  2
DASHED
 70
     0
  3
__ __ __ __ __ __ __ __ __ __ __ __ __ __ __
 72
    65
 73
     2
 40
2.0
 49
1.199999999999999
 74
     0
 49
-0.8
 74
     0
  0
LTYPE
  5
10
330
3
100
AcDbSymbolTableRecord
100
AcDbLinetypeTableRecord
  2
CENTER
 70
     0
  3
____ _ ____ _ ____ _ ____ _ ____ _ ____ _ ____
 72
    65
 73
     4
 40
12.0
 49
9.0
 74
     0
 49
-1.0
 74
     0
 49
1.0
 74
     0
 49
-1.0
 74
     0
  0
LTYPE
  5
11
330
3
100
AcDbSymbolTableRecord
100
AcDbLinetypeTableRecord
  2
HIDDEN
 70
     0
  3
_ _ _ _ _ _ _ _ _ _ _ _ _ _ _ _ _ _ _ _ _ _ _
 72
    65
 73
     2
 40
3.2
 49
2.399999999999999
 74
     0
 49
-0.8
 74
     0
  0
LTYPE
  5
12
330
3
100
AcDbSymbolTableRecord
100
AcDbLinetypeTableRecord
  2
PHANTOM
 70
     0
  3
_____ _ _ _____ _ _ _____ _ _ _____ _ _ _____
 72
    65
 73
     6
 40
13.5
 49
9.0
 74
     0
 49
-1.0
 74
     0
 49
1.0
 74
     0
 49
-0.5
 74
     0
 49
1.0
 74
     0
 49
-1.0
 74
     0
  0
LTYPE
  5
13
330
3
100
AcDbSymbolTableRecord
100
AcDbLinetypeTableRecord
  2
DOT
 70
     0
  3
...............................................
 72
    65
 73
     2
 40
1.0
 49
0.5
 74
     0
 49
-0.5
 74
     0
  0
LTYPE
  5
14
330
3
100
AcDbSymbolTableRecord
100
AcDbLinetypeTableRecord
  2
DASHDOT
 70
     0
  3
__ . __ . __ . __ . __ . __ . __ . __ . __ . __
 72
    65
 73
     4
 40
8.0
 49
5.0
 74
     0
 49
-1.0
 74
     0
 49
1.0
 74
     0
 49
-1.0
 74
     0
  0
ENDTAB
  0
TABLE
  2
LAYER
  5
1
330
0
100
AcDbSymbolTable
 70
     6
  0
LAYER
  5
15
102
{ACAD_XDICTIONARY
360
6AA
102
}
330
1
100
AcDbSymbolTableRecord
100
AcDbLayerTableRecord
  2
0
 70
     0
 62
     7
  6
CONTINUOUS
370
    -3
390
652
  0
LAYER
  5
16
102
{ACAD_XDICTIONARY
360
6AC
102
}
330
1
100
AcDbSymbolTableRecord
100
AcDbLayerTableRecord
  2
1
 70
     0
 62
     7
  6
CONTINUOUS
370
    -3
390
652
  0
LAYER
  5
17
102
{ACAD_XDICTIONARY
360
6AE
102
}
330
1
100
AcDbSymbolTableRecord
100
AcDbLayerTableRecord
  2
2
 70
     0
 62
     7
  6
CONTINUOUS
370
    -3
390
652
  0
LAYER
  5
18
102
{ACAD_XDICTIONARY
360
6B0
102
}
330
1
100
AcDbSymbolTableRecord
100
AcDbLayerTableRecord
  2
5
 70
     0
 62
     7
  6
CONTINUOUS
370
    -3
390
652
  0
LAYER
  5
19
102
{ACAD_XDICTIONARY
360
6B2
102
}
330
1
100
AcDbSymbolTableRecord
100
AcDbLayerTableRecord
  2
18
 70
     0
 62
     7
  6
CONTINUOUS
370
    -3
390
652
  0
LAYER
  5
1A
102
{ACAD_XDICTIONARY
360
6B4
102
}
330
1
100
AcDbSymbolTableRecord
100
AcDbLayerTableRecord
  2
20
 70
     0
 62
     7
  6
CONTINUOUS
370
    -3
390
652
  0
ENDTAB
  0
TABLE
  2
STYLE
  5
2
330
0
100
AcDbSymbolTable
 70
     1
  0
STYLE
  5
1D
330
2
100
AcDbSymbolTableRecord
100
AcDbTextStyleTableRecord
  2
STANDARD
 70
     0
 40
0.0
 41
1.0
 50
0.0
 71
     0
 42
1.0
  3
txt
  4
BIGFONT
  0
ENDTAB
  0
TABLE
  2
VIEW
  5
4
330
0
100
AcDbSymbolTable
 70
     0
  0
ENDTAB
  0
TABLE
  2
UCS
  5
5
330
0
100
AcDbSymbolTable
 70
     0
  0
ENDTAB
  0
TABLE
  2
APPID
  5
7
330
0
100
AcDbSymbolTable
 70
     2
  0
APPID
  5
1C
330
7
100
AcDbSymbolTableRecord
100
AcDbRegAppTableRecord
  2
ACAD
 70
     0
  0
APPID
  5
6A4
330
7
100
AcDbSymbolTableRecord
100
AcDbRegAppTableRecord
  2
ACAD_MLEADERVER
 70
     0
  0
ENDTAB
  0
TABLE
  2
DIMSTYLE
  5
8
330
0
100
AcDbSymbolTable
 70
     1
100
AcDbDimStyleTable
 71
     0
  0
DIMSTYLE
105
2E
330
8
100
AcDbSymbolTableRecord
100
AcDbDimStyleTableRecord
  2
STANDARD
 70
     0
 40
3.0
 77
     1
340
1D
  0
ENDTAB
  0
TABLE
  2
BLOCK_RECORD
  5
29
330
0
100
AcDbSymbolTable
 70
     9
  0
BLOCK_RECORD
  5
27
330
29
100
AcDbSymbolTableRecord
100
AcDbBlockTableRecord
  2
*MODEL_SPACE
340
6A7
  0
BLOCK_RECORD
  5
28
330
29
100
AcDbSymbolTableRecord
100
AcDbBlockTableRecord
  2
*PAPER_SPACE
340
6A8
  0
BLOCK_RECORD
  5
1E
330
29
100
AcDbSymbolTableRecord
100
AcDbBlockTableRecord
  2
*D0
340
0
  0
BLOCK_RECORD
  5
1F
330
29
100
AcDbSymbolTableRecord
100
AcDbBlockTableRecord
  2
*D1
340
0
  0
BLOCK_RECORD
  5
20
330
29
100
AcDbSymbolTableRecord
100
AcDbBlockTableRecord
  2
*D2
340
0
  0
BLOCK_RECORD
  5
21
330
29
100
AcDbSymbolTableRecord
100
AcDbBlockTableRecord
  2
*D3
340
0
  0
BLOCK_RECORD
  5
22
330
29
100
AcDbSymbolTableRecord
100
AcDbBlockTableRecord
  2
*D4
340
0
  0
BLOCK_RECORD
  5
23
330
29
100
AcDbSymbolTableRecord
100
AcDbBlockTableRecord
  2
*D5
340
0
  0
BLOCK_RECORD
  5
24
330
29
100
AcDbSymbolTableRecord
100
AcDbBlockTableRecord
  2
*D6
340
0
  0
BLOCK_RECORD
  5
25
330
29
100
AcDbSymbolTableRecord
100
AcDbBlockTableRecord
  2
*D7
340
0
  0
BLOCK_RECORD
  5
26
330
29
100
AcDbSymbolTableRecord
100
AcDbBlockTableRecord
  2
*D8
340
0
  0
ENDTAB
  0
ENDSEC
  0
SECTION
  2
BLOCKS
  0
BLOCK
  5
2A
330
27
100
AcDbEntity
  8
0
100
AcDbBlockBegin
  2
*MODEL_SPACE
 70
     0
 10
0.0
 20
0.0
 30
0.0
  3
*MODEL_SPACE
  1

  0
ENDBLK
  5
2B
330
27
100
AcDbEntity
  8
0
100
AcDbBlockEnd
  0
BLOCK
  5
2C
330
28
100
AcDbEntity
 67
     1
  8
0
100
AcDbBlockBegin
  2
*PAPER_SPACE
 70
     0
 10
0.0
 20
0.0
 30
0.0
  3
*PAPER_SPACE
  1

  0
ENDBLK
  5
2D
330
28
100
AcDbEntity
 67
     1
  8
0
100
AcDbBlockEnd
  0
BLOCK
  5
5DE
330
1E
100
AcDbEntity
  8
5
100
AcDbBlockBegin
  2
*D0
 70
     1
 10
0.0
 20
0.0
 30
0.0
  3
*D0
  1

  0
TEXT
  5
5DF
330
1E
100
AcDbEntity
  8
5
 62
     2
100
AcDbText
 10
-359.197197
 20
276.900387
 30
0.0
 40
9.9
  1
75
 50
90.0
 41
0.671999999999998
 72
     5
 11
-359.197197
 21
287.988387
 31
0.0
100
AcDbText
  0
LINE
  5
5E0
330
1E
100
AcDbEntity
  8
5
 62
     2
100
AcDbLine
 10
-334.51742
 20
246.330387
 30
0.0
 11
-360.697197
 21
246.330387
 31
0.0
  0
LINE
  5
5E1
330
1E
100
AcDbEntity
  8
5
 62
     2
100
AcDbLine
 10
-357.697197
 20
246.330387
 30
0.0
 11
-356.144283
 21
252.125942
 31
0.0
  0
LINE
  5
5E2
330
1E
100
AcDbEntity
  8
5
 62
     2
100
AcDbLine
 10
-357.697197
 20
246.330387
 30
0.0
 11
-359.250111
 21
252.125942
 31
0.0
  0
LINE
  5
5E3
330
1E
100
AcDbEntity
  8
5
 62
     2
100
AcDbLine
 10
-356.144283
 20
252.125942
 30
0.0
 11
-359.250111
 21
252.125942
 31
0.0
  0
LINE
  5
5E4
330
1E
100
AcDbEntity
  8
5
 62
     2
100
AcDbLine
 10
-357.697197
 20
246.330387
 30
0.0
 11
-357.697197
 21
321.330387
 31
0.0
  0
LINE
  5
5E5
330
1E
100
AcDbEntity
  8
5
 62
     2
100
AcDbLine
 10
-357.697197
 20
321.330387
 30
0.0
 11
-359.250111
 21
315.534832
 31
0.0
  0
LINE
  5
5E6
330
1E
100
AcDbEntity
  8
5
 62
     2
100
AcDbLine
 10
-357.697197
 20
321.330387
 30
0.0
 11
-356.144283
 21
315.534832
 31
0.0
  0
LINE
  5
5E7
330
1E
100
AcDbEntity
  8
5
 62
     2
100
AcDbLine
 10
-359.250111
 20
315.534832
 30
0.0
 11
-356.144283
 21
315.534832
 31
0.0
  0
LINE
  5
5E8
330
1E
100
AcDbEntity
  8
5
 62
     2
100
AcDbLine
 10
-257.360565
 20
321.330387
 30
0.0
 11
-360.697197
 21
321.330387
 31
0.0
  0
ENDBLK
  5
5E9
330
1E
100
AcDbEntity
  8
5
100
AcDbBlockEnd
  0
BLOCK
  5
5EA
330
1F
100
AcDbEntity
  8
5
100
AcDbBlockBegin
  2
*D1
 70
     1
 10
0.0
 20
0.0
 30
0.0
  3
*D1
  1

  0
TEXT
  5
5EB
330
1F
100
AcDbEntity
  8
5
 62
     2
100
AcDbText
 10
-359.197197
 20
214.400387
 30
0.0
 40
9.9
  1
50
 50
90.0
 41
0.7466666666666663
 72
     5
 11
-359.197197
 21
225.488387
 31
0.0
100
AcDbText
  0
LINE
  5
5EC
330
1F
100
AcDbEntity
  8
5
 62
     2
100
AcDbLine
 10
-242.360565
 20
196.330387
 30
0.0
 11
-360.697197
 21
196.330387
 31
0.0
  0
LINE
  5
5ED
330
1F
100
AcDbEntity
  8
5
 62
     2
100
AcDbLine
 10
-357.697197
 20
196.330387
 30
0.0
 11
-356.144283
 21
202.125942
 31
0.0
  0
LINE
  5
5EE
330
1F
100
AcDbEntity
  8
5
 62
     2
100
AcDbLine
 10
-357.697197
 20
196.330387
 30
0.0
 11
-359.250111
 21
202.125942
 31
0.0
  0
LINE
  5
5EF
330
1F
100
AcDbEntity
  8
5
 62
     2
100
AcDbLine
 10
-356.144283
 20
202.125942
 30
0.0
 11
-359.250111
 21
202.125942
 31
0.0
  0
LINE
  5
5F0
330
1F
100
AcDbEntity
  8
5
 62
     2
100
AcDbLine
 10
-357.697197
 20
196.330387
 30
0.0
 11
-357.697197
 21
246.330387
 31
0.0
  0
LINE
  5
5F1
330
1F
100
AcDbEntity
  8
5
 62
     2
100
AcDbLine
 10
-357.697197
 20
246.330387
 30
0.0
 11
-359.250111
 21
240.534832
 31
0.0
  0
LINE
  5
5F2
330
1F
100
AcDbEntity
  8
5
 62
     2
100
AcDbLine
 10
-357.697197
 20
246.330387
 30
0.0
 11
-356.144283
 21
240.534832
 31
0.0
  0
LINE
  5
5F3
330
1F
100
AcDbEntity
  8
5
 62
     2
100
AcDbLine
 10
-359.250111
 20
240.534832
 30
0.0
 11
-356.144283
 21
240.534832
 31
0.0
  0
LINE
  5
5F4
330
1F
100
AcDbEntity
  8
5
 62
     2
100
AcDbLine
 10
-334.51742
 20
246.330387
 30
0.0
 11
-360.697197
 21
246.330387
 31
0.0
  0
ENDBLK
  5
5F5
330
1F
100
AcDbEntity
  8
5
100
AcDbBlockEnd
  0
BLOCK
  5
5F6
330
20
100
AcDbEntity
  8
5
100
AcDbBlockBegin
  2
*D2
 70
     1
 10
0.0
 20
0.0
 30
0.0
  3
*D2
  1

  0
TEXT
  5
5F7
330
20
100
AcDbEntity
  8
5
 62
     2
100
AcDbText
 10
117.319313
 20
-94.78731600000001
 30
0.0
 40
9.9
  1
132.5
 50
90.0
 41
0.8781817906336089
 72
     5
 11
117.319313
 21
-62.909317
 31
0.0
100
AcDbText
  0
LINE
  5
5F8
330
20
100
AcDbEntity
  8
5
 62
     2
100
AcDbLine
 10
159.730947
 20
-143.712316
 30
0.0
 11
115.819313
 21
-143.712316
 31
0.0
  0
LINE
  5
5F9
330
20
100
AcDbEntity
  8
5
 62
     2
100
AcDbLine
 10
118.819313
 20
-143.712316
 30
0.0
 11
120.372227
 21
-137.916761
 31
0.0
  0
LINE
  5
5FA
330
20
100
AcDbEntity
  8
5
 62
     2
100
AcDbLine
 10
118.819313
 20
-143.712316
 30
0.0
 11
117.266399
 21
-137.916761
 31
0.0
  0
LINE
  5
5FB
330
20
100
AcDbEntity
  8
5
 62
     2
100
AcDbLine
 10
120.372227
 20
-137.916761
 30
0.0
 11
117.266399
 21
-137.916761
 31
0.0
  0
LINE
  5
5FC
330
20
100
AcDbEntity
  8
5
 62
     2
100
AcDbLine
 10
118.819313
 20
-143.712316
 30
0.0
 11
118.819313
 21
-11.212316
 31
0.0
  0
LINE
  5
5FD
330
20
100
AcDbEntity
  8
5
 62
     2
100
AcDbLine
 10
118.819313
 20
-11.212316
 30
0.0
 11
117.266399
 21
-17.007871
 31
0.0
  0
LINE
  5
5FE
330
20
100
AcDbEntity
  8
5
 62
     2
100
AcDbLine
 10
118.819313
 20
-11.212316
 30
0.0
 11
120.372227
 21
-17.007871
 31
0.0
  0
LINE
  5
5FF
330
20
100
AcDbEntity
  8
5
 62
     2
100
AcDbLine
 10
117.266399
 20
-17.007871
 30
0.0
 11
120.372227
 21
-17.007871
 31
0.0
  0
LINE
  5
600
330
20
100
AcDbEntity
  8
5
 62
     2
100
AcDbLine
 10
148.94666
 20
-11.212316
 30
0.0
 11
115.819313
 21
-11.212316
 31
0.0
  0
ENDBLK
  5
601
330
20
100
AcDbEntity
  8
5
100
AcDbBlockEnd
  0
BLOCK
  5
602
330
21
100
AcDbEntity
  8
5
100
AcDbBlockBegin
  2
*D3
 70
     1
 10
0.0
 20
0.0
 30
0.0
  3
*D3
  1

  0
TEXT
  5
603
330
21
100
AcDbEntity
  8
5
 62
     2
100
AcDbText
 10
117.319313
 20
-227.287316
 30
0.0
 40
9.9
  1
132.5
 50
90.0
 41
0.8781817906336094
 72
     5
 11
117.319313
 21
-195.409317
 31
0.0
100
AcDbText
  0
LINE
  5
604
330
21
100
AcDbEntity
  8
5
 62
     2
100
AcDbLine
 10
179.94666
 20
-276.212316
 30
0.0
 11
115.819313
 21
-276.212316
 31
0.0
  0
LINE
  5
605
330
21
100
AcDbEntity
  8
5
 62
     2
100
AcDbLine
 10
118.819313
 20
-276.212316
 30
0.0
 11
120.372227
 21
-270.416761
 31
0.0
  0
LINE
  5
606
330
21
100
AcDbEntity
  8
5
 62
     2
100
AcDbLine
 10
118.819313
 20
-276.212316
 30
0.0
 11
117.266399
 21
-270.416761
 31
0.0
  0
LINE
  5
607
330
21
100
AcDbEntity
  8
5
 62
     2
100
AcDbLine
 10
120.372227
 20
-270.416761
 30
0.0
 11
117.266399
 21
-270.416761
 31
0.0
  0
LINE
  5
608
330
21
100
AcDbEntity
  8
5
 62
     2
100
AcDbLine
 10
118.819313
 20
-276.212316
 30
0.0
 11
118.819313
 21
-143.712316
 31
0.0
  0
LINE
  5
609
330
21
100
AcDbEntity
  8
5
 62
     2
100
AcDbLine
 10
118.819313
 20
-143.712316
 30
0.0
 11
117.266399
 21
-149.507871
 31
0.0
  0
LINE
  5
60A
330
21
100
AcDbEntity
  8
5
 62
     2
100
AcDbLine
 10
118.819313
 20
-143.712316
 30
0.0
 11
120.372227
 21
-149.507871
 31
0.0
  0
LINE
  5
60B
330
21
100
AcDbEntity
  8
5
 62
     2
100
AcDbLine
 10
117.266399
 20
-149.507871
 30
0.0
 11
120.372227
 21
-149.507871
 31
0.0
  0
LINE
  5
60C
330
21
100
AcDbEntity
  8
5
 62
     2
100
AcDbLine
 10
159.730947
 20
-143.712316
 30
0.0
 11
115.819313
 21
-143.712316
 31
0.0
  0
ENDBLK
  5
60D
330
21
100
AcDbEntity
  8
5
100
AcDbBlockEnd
  0
BLOCK
  5
60E
330
22
100
AcDbEntity
  8
5
100
AcDbBlockBegin
  2
*D4
 70
     1
 10
0.0
 20
0.0
 30
0.0
  3
*D4
  1

  0
TEXT
  5
60F
330
22
100
AcDbEntity
  8
5
 62
     2
100
AcDbText
 10
195.01666
 20
-309.29084
 30
0.0
 40
9.9
  1
46
 41
0.6719999999999997
 72
     5
 11
206.10466
 21
-309.29084
 31
0.0
100
AcDbText
  0
LINE
  5
610
330
22
100
AcDbEntity
  8
5
 62
     2
100
AcDbLine
 10
178.94666
 20
-209.212316
 30
0.0
 11
178.94666
 21
-313.79084
 31
0.0
  0
LINE
  5
611
330
22
100
AcDbEntity
  8
5
 62
     2
100
AcDbLine
 10
178.94666
 20
-310.79084
 30
0.0
 11
184.742215
 21
-312.343754
 31
0.0
  0
LINE
  5
612
330
22
100
AcDbEntity
  8
5
 62
     2
100
AcDbLine
 10
178.94666
 20
-310.79084
 30
0.0
 11
184.742215
 21
-309.2379259999999
 31
0.0
  0
LINE
  5
613
330
22
100
AcDbEntity
  8
5
 62
     2
100
AcDbLine
 10
184.742215
 20
-312.343754
 30
0.0
 11
184.742215
 21
-309.2379259999999
 31
0.0
  0
LINE
  5
614
330
22
100
AcDbEntity
  8
5
 62
     2
100
AcDbLine
 10
178.94666
 20
-310.79084
 30
0.0
 11
224.94666
 21
-310.79084
 31
0.0
  0
LINE
  5
615
330
22
100
AcDbEntity
  8
5
 62
     2
100
AcDbLine
 10
224.94666
 20
-310.79084
 30
0.0
 11
219.151105
 21
-309.2379259999999
 31
0.0
  0
LINE
  5
616
330
22
100
AcDbEntity
  8
5
 62
     2
100
AcDbLine
 10
224.94666
 20
-310.79084
 30
0.0
 11
219.151105
 21
-312.343754
 31
0.0
  0
LINE
  5
617
330
22
100
AcDbEntity
  8
5
 62
     2
100
AcDbLine
 10
219.151105
 20
-309.2379259999999
 30
0.0
 11
219.151105
 21
-312.343754
 31
0.0
  0
LINE
  5
618
330
22
100
AcDbEntity
  8
5
 62
     2
100
AcDbLine
 10
224.94666
 20
-209.212316
 30
0.0
 11
224.94666
 21
-313.79084
 31
0.0
  0
ENDBLK
  5
619
330
22
100
AcDbEntity
  8
5
100
AcDbBlockEnd
  0
BLOCK
  5
61A
330
23
100
AcDbEntity
  8
5
100
AcDbBlockBegin
  2
*D5
 70
     1
 10
0.0
 20
0.0
 30
0.0
  3
*D5
  1

  0
LINE
  5
61B
330
23
100
AcDbEntity
  8
5
 62
     2
100
AcDbLine
 10
148.94666
 20
-11.212316
 30
0.0
 11
115.819313
 21
-11.212316
 31
0.0
  0
LINE
  5
61C
330
23
100
AcDbEntity
  8
5
 62
     2
100
AcDbLine
 10
118.819313
 20
-11.212316
 30
0.0
 11
120.372227
 21
-5.416761
 31
0.0
  0
LINE
  5
61D
330
23
100
AcDbEntity
  8
5
 62
     2
100
AcDbLine
 10
118.819313
 20
-11.212316
 30
0.0
 11
117.266399
 21
-5.416761
 31
0.0
  0
LINE
  5
61E
330
23
100
AcDbEntity
  8
5
 62
     2
100
AcDbLine
 10
120.372227
 20
-5.416761
 30
0.0
 11
117.266399
 21
-5.416761
 31
0.0
  0
LINE
  5
61F
330
23
100
AcDbEntity
  8
5
 62
     2
100
AcDbLine
 10
118.819313
 20
-11.212316
 30
0.0
 11
118.819313
 21
54.965058
 31
0.0
  0
LINE
  5
620
330
23
100
AcDbEntity
  8
5
 62
     2
100
AcDbLine
 10
118.819313
 20
54.965058
 30
0.0
 11
117.266399
 21
49.169503
 31
0.0
  0
LINE
  5
621
330
23
100
AcDbEntity
  8
5
 62
     2
100
AcDbLine
 10
118.819313
 20
54.965058
 30
0.0
 11
120.372227
 21
49.169503
 31
0.0
  0
LINE
  5
622
330
23
100
AcDbEntity
  8
5
 62
     2
100
AcDbLine
 10
117.266399
 20
49.169503
 30
0.0
 11
120.372227
 21
49.169503
 31
0.0
  0
LINE
  5
623
330
23
100
AcDbEntity
  8
5
 62
     2
100
AcDbLine
 10
198.94666
 20
54.965058
 30
0.0
 11
115.819313
 21
54.965058
 31
0.0
  0
ENDBLK
  5
624
330
23
100
AcDbEntity
  8
5
100
AcDbBlockEnd
  0
BLOCK
  5
625
330
24
100
AcDbEntity
  8
5
100
AcDbBlockBegin
  2
*D6
 70
     1
 10
0.0
 20
0.0
 30
0.0
  3
*D6
  1

  0
LINE
  5
626
330
24
100
AcDbEntity
  8
5
 62
     2
100
AcDbLine
 10
-239.360565
 20
37.493267
 30
0.0
 11
-239.360565
 21
83.43971399999999
 31
0.0
  0
LINE
  5
627
330
24
100
AcDbEntity
  8
5
 62
     2
100
AcDbLine
 10
-239.360565
 20
80.439714
 30
0.0
 11
-233.56501
 21
78.88679999999999
 31
0.0
  0
LINE
  5
628
330
24
100
AcDbEntity
  8
5
 62
     2
100
AcDbLine
 10
-239.360565
 20
80.439714
 30
0.0
 11
-233.56501
 21
81.992629
 31
0.0
  0
LINE
  5
629
330
24
100
AcDbEntity
  8
5
 62
     2
100
AcDbLine
 10
-233.56501
 20
78.88679999999999
 30
0.0
 11
-233.56501
 21
81.992629
 31
0.0
  0
LINE
  5
62A
330
24
100
AcDbEntity
  8
5
 62
     2
100
AcDbLine
 10
-239.360565
 20
80.439714
 30
0.0
 11
-39.510171
 21
80.439714
 31
0.0
  0
LINE
  5
62B
330
24
100
AcDbEntity
  8
5
 62
     2
100
AcDbLine
 10
-39.510171
 20
80.439714
 30
0.0
 11
-45.305726
 21
81.992629
 31
0.0
  0
LINE
  5
62C
330
24
100
AcDbEntity
  8
5
 62
     2
100
AcDbLine
 10
-39.510171
 20
80.439714
 30
0.0
 11
-45.305726
 21
78.88679999999999
 31
0.0
  0
LINE
  5
62D
330
24
100
AcDbEntity
  8
5
 62
     2
100
AcDbLine
 10
-45.305726
 20
81.992629
 30
0.0
 11
-45.305726
 21
78.88679999999999
 31
0.0
  0
LINE
  5
62E
330
24
100
AcDbEntity
  8
5
 62
     2
100
AcDbLine
 10
-39.510171
 20
50.715911
 30
0.0
 11
-39.510171
 21
83.43971399999999
 31
0.0
  0
ENDBLK
  5
62F
330
24
100
AcDbEntity
  8
5
100
AcDbBlockEnd
  0
BLOCK
  5
630
330
25
100
AcDbEntity
  8
18
100
AcDbBlockBegin
  2
*D7
 70
     1
 10
0.0
 20
0.0
 30
0.0
  3
*D7
  1

  0
LINE
  5
631
330
25
100
AcDbEntity
  8
18
 62
     2
100
AcDbLine
 10
448.288399
 20
-258.340027
 30
0.0
 11
448.288399
 21
-258.340027
 31
0.0
  0
LINE
  5
632
330
25
100
AcDbEntity
  8
18
 62
     2
100
AcDbLine
 10
411.6300319999999
 20
-221.68166
 30
0.0
 11
411.6300319999999
 21
-221.68166
 31
0.0
  0
LINE
  5
633
330
25
100
AcDbEntity
  8
18
 62
     2
100
AcDbLine
 10
445.288399
 20
-258.340027
 30
0.0
 11
446.336586
 21
-252.432294
 31
0.0
  0
LINE
  5
634
330
25
100
AcDbEntity
  8
18
 62
     2
100
AcDbLine
 10
445.288399
 20
-258.340027
 30
0.0
 11
443.2422889999999
 21
-252.699687
 31
0.0
  0
LINE
  5
635
330
25
100
AcDbEntity
  8
18
 62
     2
100
AcDbLine
 10
446.336586
 20
-252.432294
 30
0.0
 11
443.2422889999999
 21
-252.699687
 31
0.0
  0
LINE
  5
636
330
25
100
AcDbEntity
  8
18
 62
     2
100
AcDbLine
 10
411.6300319999999
 20
-224.68166
 30
0.0
 11
417.270372
 21
-226.72777
 31
0.0
  0
LINE
  5
637
330
25
100
AcDbEntity
  8
18
 62
     2
100
AcDbLine
 10
411.6300319999999
 20
-224.68166
 30
0.0
 11
417.537764
 21
-223.633473
 31
0.0
  0
LINE
  5
638
330
25
100
AcDbEntity
  8
18
 62
     2
100
AcDbLine
 10
417.270372
 20
-226.72777
 30
0.0
 11
417.537764
 21
-223.633473
 31
0.0
  0
ARC
  5
639
330
25
100
AcDbEntity
  8
18
 62
     2
100
AcDbCircle
 10
411.6300319999999
 20
-258.340027
 30
0.0
 40
33.658367
100
AcDbArc
 50
0.0
 51
90.0
  0
ENDBLK
  5
63A
330
25
100
AcDbEntity
  8
18
100
AcDbBlockEnd
  0
BLOCK
  5
63B
330
26
100
AcDbEntity
  8
18
100
AcDbBlockBegin
  2
*D8
 70
     1
 10
0.0
 20
0.0
 30
0.0
  3
*D8
  1

  0
LINE
  5
63C
330
26
100
AcDbEntity
  8
18
 62
     2
100
AcDbLine
 10
487.6233299999999
 20
-268.057812
 30
0.0
 11
487.6233299999999
 21
-268.057812
 31
0.0
  0
LINE
  5
63D
330
26
100
AcDbEntity
  8
18
 62
     2
100
AcDbLine
 10
518.281697
 20
-237.399445
 30
0.0
 11
518.281697
 21
-237.399445
 31
0.0
  0
LINE
  5
63E
330
26
100
AcDbEntity
  8
18
 62
     2
100
AcDbLine
 10
487.6233299999999
 20
-271.057812
 30
0.0
 11
493.531063
 21
-272.105999
 31
0.0
  0
LINE
  5
63F
330
26
100
AcDbEntity
  8
18
 62
     2
100
AcDbLine
 10
487.6233299999999
 20
-271.057812
 30
0.0
 11
493.2636699999999
 21
-269.011702
 31
0.0
  0
LINE
  5
640
330
26
100
AcDbEntity
  8
18
 62
     2
100
AcDbLine
 10
493.531063
 20
-272.105999
 30
0.0
 11
493.2636699999999
 21
-269.011702
 31
0.0
  0
LINE
  5
641
330
26
100
AcDbEntity
  8
18
 62
     2
100
AcDbLine
 10
521.281697
 20
-237.399445
 30
0.0
 11
519.235587
 21
-243.039785
 31
0.0
  0
LINE
  5
642
330
26
100
AcDbEntity
  8
18
 62
     2
100
AcDbLine
 10
521.281697
 20
-237.399445
 30
0.0
 11
522.3298839999999
 21
-243.307177
 31
0.0
  0
LINE
  5
643
330
26
100
AcDbEntity
  8
18
 62
     2
100
AcDbLine
 10
519.235587
 20
-243.039785
 30
0.0
 11
522.3298839999999
 21
-243.307177
 31
0.0
  0
ARC
  5
644
330
26
100
AcDbEntity
  8
18
 62
     2
100
AcDbCircle
 10
487.6233299999999
 20
-237.399445
 30
0.0
 40
33.658367
100
AcDbArc
 50
270.0
 51
360.0
  0
ENDBLK
  5
645
330
26
100
AcDbEntity
  8
18
100
AcDbBlockEnd
  0
ENDSEC
  0
SECTION
  2
ENTITIES
  0
LINE
  5
2F
330
27
100
AcDbEntity
  8
1
100
AcDbLine
 10
-270.360565
 20
-23.212316
 30
0.0
 11
-208.360565
 21
-23.212316
 31
0.0
  0
LINE
  5
30
330
27
100
AcDbEntity
  8
1
100
AcDbLine
 10
-274.360565
 20
-11.212316
 30
0.0
 11
-274.360565
 21
-19.212316
 31
0.0
  0
LINE
  5
31
330
27
100
AcDbEntity
  8
1
100
AcDbLine
 10
-204.360565
 20
-11.212316
 30
0.0
 11
-204.360565
 21
-19.212316
 31
0.0
  0
ARC
  5
32
330
27
100
AcDbEntity
  8
1
100
AcDbCircle
 10
-270.360565
 20
-19.212316
 30
0.0
 40
4.0
100
AcDbArc
 50
180.0
 51
270.0
  0
ARC
  5
33
330
27
100
AcDbEntity
  8
1
100
AcDbCircle
 10
-208.360565
 20
-19.212316
 30
0.0
 40
4.0
100
AcDbArc
 50
270.0
 51
360.0
  0
LINE
  5
34
330
27
100
AcDbEntity
  8
1
  6
DASHED
100
AcDbLine
 10
-274.360565
 20
221.330387
 30
0.0
 11
-274.360565
 21
271.330387
 31
0.0
  0
LINE
  5
35
330
27
100
AcDbEntity
  8
1
  6
DASHED
100
AcDbLine
 10
-204.360565
 20
221.330387
 30
0.0
 11
-204.360565
 21
271.330387
 31
0.0
  0
LINE
  5
36
330
27
100
AcDbEntity
  8
1
  6
DASHED
100
AcDbLine
 10
-264.360565
 20
281.330387
 30
0.0
 11
-214.360565
 21
281.330387
 31
0.0
  0
LINE
  5
37
330
27
100
AcDbEntity
  8
1
  6
DASHED
100
AcDbLine
 10
-264.360565
 20
211.330387
 30
0.0
 11
-214.360565
 21
211.330387
 31
0.0
  0
ARC
  5
38
330
27
100
AcDbEntity
  8
1
  6
DASHED
100
AcDbCircle
 10
-214.360565
 20
271.330387
 30
0.0
 40
10.0
100
AcDbArc
 50
0.0
 51
90.0
  0
ARC
  5
39
330
27
100
AcDbEntity
  8
1
  6
DASHED
100
AcDbCircle
 10
-264.360565
 20
271.330387
 30
0.0
 40
10.0
100
AcDbArc
 50
90.0
 51
180.0
  0
ARC
  5
3A
330
27
100
AcDbEntity
  8
1
  6
DASHED
100
AcDbCircle
 10
-264.360565
 20
221.330387
 30
0.0
 40
10.0
100
AcDbArc
 50
180.0
 51
270.0
  0
ARC
  5
3B
330
27
100
AcDbEntity
  8
1
  6
DASHED
100
AcDbCircle
 10
-214.360565
 20
221.330387
 30
0.0
 40
10.0
100
AcDbArc
 50
270.0
 51
360.0
  0
CIRCLE
  5
3C
330
27
100
AcDbEntity
  8
1
  6
DASHED
100
AcDbCircle
 10
-214.611827
 20
271.079125
 30
0.0
 40
4.5
  0
CIRCLE
  5
3D
330
27
100
AcDbEntity
  8
1
  6
DASHED
100
AcDbCircle
 10
-264.109302
 20
271.079125
 30
0.0
 40
4.5
  0
CIRCLE
  5
3E
330
27
100
AcDbEntity
  8
1
  6
DASHED
100
AcDbCircle
 10
-264.109302
 20
221.58165
 30
0.0
 40
4.5
  0
CIRCLE
  5
3F
330
27
100
AcDbEntity
  8
1
  6
DASHED
100
AcDbCircle
 10
-214.611827
 20
221.58165
 30
0.0
 40
4.5
  0
LINE
  5
40
330
27
100
AcDbEntity
  8
1
  6
CENTER
 62
     2
100
AcDbLine
 10
-331.51742
 20
-143.712316
 30
0.0
 11
-147.857287
 21
-143.712316
 31
0.0
  0
LINE
  5
41
330
27
100
AcDbEntity
  8
1
  6
CENTER
 62
     2
100
AcDbLine
 10
-239.360565
 20
-284.816656
 30
0.0
 11
-239.360565
 21
35.860403
 31
0.0
  0
LINE
  5
42
330
27
100
AcDbEntity
  8
1
  6
CENTER
 62
     2
100
AcDbLine
 10
-220.270591
 20
265.420361
 30
0.0
 11
-208.612686
 21
277.078266
 31
0.0
  0
ARC
  5
43
330
27
100
AcDbEntity
  8
1
  6
CENTER
 62
     2
100
AcDbCircle
 10
-239.360565
 20
246.330387
 30
0.0
 40
35.0
100
AcDbArc
 50
31.716537
 51
58.56124399999998
  0
LINE
  5
44
330
27
100
AcDbEntity
  8
1
  6
CENTER
 62
     2
100
AcDbLine
 10
-258.450538
 20
265.420361
 30
0.0
 11
-270.108444
 21
277.078266
 31
0.0
  0
ARC
  5
45
330
27
100
AcDbEntity
  8
1
  6
CENTER
 62
     2
100
AcDbCircle
 10
-239.360565
 20
246.330387
 30
0.0
 40
35.0
100
AcDbArc
 50
121.716537
 51
148.561244
  0
LINE
  5
46
330
27
100
AcDbEntity
  8
1
  6
CENTER
 62
     2
100
AcDbLine
 10
-258.450538
 20
227.240414
 30
0.0
 11
-270.108444
 21
215.582508
 31
0.0
  0
ARC
  5
47
330
27
100
AcDbEntity
  8
1
  6
CENTER
 62
     2
100
AcDbCircle
 10
-239.360565
 20
246.330387
 30
0.0
 40
35.0
100
AcDbArc
 50
211.716537
 51
238.561244
  0
LINE
  5
48
330
27
100
AcDbEntity
  8
1
  6
CENTER
 62
     2
100
AcDbLine
 10
-220.270591
 20
227.240414
 30
0.0
 11
-208.612686
 21
215.582508
 31
0.0
  0
ARC
  5
49
330
27
100
AcDbEntity
  8
1
  6
CENTER
 62
     2
100
AcDbCircle
 10
-239.360565
 20
246.330387
 30
0.0
 40
35.0
100
AcDbArc
 50
301.716537
 51
328.561244
  0
LINE
  5
4A
330
27
100
AcDbEntity
  8
1
  6
CENTER
 62
     2
100
AcDbLine
 10
-300.860565
 20
237.49885
 30
0.0
 11
-300.860565
 21
255.472696
 31
0.0
  0
CIRCLE
  5
4B
330
27
100
AcDbEntity
  8
1
100
AcDbCircle
 10
-300.860565
 20
246.330387
 30
0.0
 40
5.0
  0
CIRCLE
  5
4C
330
27
100
AcDbEntity
  8
1
 62
     2
100
AcDbCircle
 10
-300.860565
 20
246.330387
 30
0.0
 40
4.187999999999999
  0
LINE
  5
4D
330
27
100
AcDbEntity
  8
1
100
AcDbLine
 10
-258.360565
 20
-276.212316
 30
0.0
 11
-220.360565
 21
-276.212316
 31
0.0
  0
LINE
  5
4E
330
27
100
AcDbEntity
  8
1
100
AcDbLine
 10
-312.860565
 20
246.330387
 30
0.0
 11
-312.188521
 21
233.507028
 31
0.0
  0
LINE
  5
4F
330
27
100
AcDbEntity
  8
1
100
AcDbLine
 10
-312.860565
 20
246.330387
 30
0.0
 11
-312.188521
 21
259.153747
 31
0.0
  0
LINE
  5
50
330
27
100
AcDbEntity
  8
1
100
AcDbLine
 10
-309.969089
 20
230.766258
 30
0.0
 11
-307.084108
 21
229.99323
 31
0.0
  0
LINE
  5
51
330
27
100
AcDbEntity
  8
1
100
AcDbLine
 10
-309.969089
 20
261.894516
 30
0.0
 11
-307.084108
 21
262.667545
 31
0.0
  0
ARC
  5
52
330
27
100
AcDbEntity
  8
1
100
AcDbCircle
 10
-309.192632
 20
258.996739
 30
0.0
 40
3.0
100
AcDbArc
 50
105.0
 51
177.0
  0
ARC
  5
53
330
27
100
AcDbEntity
  8
1
100
AcDbCircle
 10
-309.192632
 20
233.664036
 30
0.0
 40
3.0
100
AcDbArc
 50
183.0
 51
255.0
  0
ARC
  5
54
330
27
100
AcDbEntity
  8
1
100
AcDbCircle
 10
-307.860565
 20
265.565322
 30
0.0
 40
3.0
100
AcDbArc
 50
285.0
 51
360.0
  0
ARC
  5
55
330
27
100
AcDbEntity
  8
1
100
AcDbCircle
 10
-307.860565
 20
227.095452
 30
0.0
 40
3.0
100
AcDbArc
 50
0.0
 51
75.0
  0
LINE
  5
56
330
27
100
AcDbEntity
  8
1
100
AcDbLine
 10
-304.860565
 20
226.330387
 30
0.0
 11
-304.860565
 21
227.095452
 31
0.0
  0
LINE
  5
57
330
27
100
AcDbEntity
  8
1
100
AcDbLine
 10
-304.860565
 20
265.565322
 30
0.0
 11
-304.860565
 21
266.330387
 31
0.0
  0
ARC
  5
58
330
27
100
AcDbEntity
  8
1
100
AcDbCircle
 10
-239.360565
 20
-143.712316
 30
0.0
 40
73.5
100
AcDbArc
 50
169.670408
 51
193.68469
  0
ARC
  5
59
330
27
100
AcDbEntity
  8
1
100
AcDbCircle
 10
-239.360565
 20
-143.712316
 30
0.0
 40
73.5
100
AcDbArc
 50
346.31531
 51
10.329592
  0
LINE
  5
5A
330
27
100
AcDbEntity
  8
1
100
AcDbLine
 10
-310.685525
 20
-129.712316
 30
0.0
 11
-304.936856
 21
-129.712316
 31
0.0
  0
LINE
  5
5B
330
27
100
AcDbEntity
  8
1
100
AcDbLine
 10
-173.784273
 20
-129.712316
 30
0.0
 11
-168.035604
 21
-129.712316
 31
0.0
  0
LINE
  5
5C
330
27
100
AcDbEntity
  8
1
100
AcDbLine
 10
-310.010373
 20
-161.842408
 30
0.0
 11
-302.895893
 21
-163.354637
 31
0.0
  0
ARC
  5
5D
330
27
100
AcDbEntity
  8
1
100
AcDbCircle
 10
-168.035604
 20
-130.712316
 30
0.0
 40
1.0
100
AcDbArc
 50
10.329592
 51
90.0
  0
ARC
  5
5E
330
27
100
AcDbEntity
  8
1
100
AcDbCircle
 10
-168.918668
 20
-160.86426
 30
0.0
 40
1.0
100
AcDbArc
 50
282.0
 51
346.31531
  0
ARC
  5
5F
330
27
100
AcDbEntity
  8
1
100
AcDbCircle
 10
-309.802461
 20
-160.86426
 30
0.0
 40
1.0
100
AcDbArc
 50
193.68469
 51
258.0
  0
ARC
  5
60
330
27
100
AcDbEntity
  8
1
100
AcDbCircle
 10
-310.685525
 20
-130.712316
 30
0.0
 40
1.0
100
AcDbArc
 50
90.0
 51
169.670408
  0
ARC
  5
61
330
27
100
AcDbEntity
  8
1
100
AcDbCircle
 10
-173.784273
 20
-127.712316
 30
0.0
 40
2.0
100
AcDbArc
 50
193.71173
 51
270.0
  0
ARC
  5
62
330
27
100
AcDbEntity
  8
1
100
AcDbCircle
 10
-304.936856
 20
-127.712316
 30
0.0
 40
2.0
100
AcDbArc
 50
270.0
 51
346.28827
  0
ARC
  5
63
330
27
100
AcDbEntity
  8
1
100
AcDbCircle
 10
-303.311716
 20
-165.310933
 30
0.0
 40
2.0
100
AcDbArc
 50
18.661685
 51
78.0
  0
ARC
  5
64
330
27
100
AcDbEntity
  8
1
100
AcDbCircle
 10
-175.409413
 20
-165.310933
 30
0.0
 40
2.0
100
AcDbArc
 50
102.0
 51
161.338315
  0
ARC
  5
65
330
27
100
AcDbEntity
  8
1
100
AcDbCircle
 10
-239.360565
 20
-143.712316
 30
0.0
 40
72.71388299999999
100
AcDbArc
 50
169.5559129999999
 51
193.9871379999999
  0
ARC
  5
66
330
27
100
AcDbEntity
  8
1
100
AcDbCircle
 10
-239.360565
 20
-143.712316
 30
0.0
 40
72.71388299999999
100
AcDbArc
 50
346.012862
 51
10.444087
  0
ARC
  5
67
330
27
100
AcDbEntity
  8
1
100
AcDbCircle
 10
-168.834817
 20
-130.712316
 30
0.0
 40
1.0
100
AcDbArc
 50
10.444087
 51
90.0
  0
ARC
  5
68
330
27
100
AcDbEntity
  8
1
100
AcDbCircle
 10
-169.772997
 20
-161.045854
 30
0.0
 40
1.0
100
AcDbArc
 50
282.0
 51
346.012862
  0
ARC
  5
69
330
27
100
AcDbEntity
  8
1
100
AcDbCircle
 10
-309.886312
 20
-130.712316
 30
0.0
 40
1.0
100
AcDbArc
 50
90.0
 51
169.5559129999999
  0
ARC
  5
6A
330
27
100
AcDbEntity
  8
1
100
AcDbCircle
 10
-308.948132
 20
-161.045854
 30
0.0
 40
1.0
100
AcDbArc
 50
193.9871379999999
 51
258.0
  0
LINE
  5
6B
330
27
100
AcDbEntity
  8
1
100
AcDbLine
 10
-220.360565
 20
-276.212316
 30
0.0
 11
-220.360565
 21
-213.420637
 31
0.0
  0
LINE
  5
6C
330
27
100
AcDbEntity
  8
1
100
AcDbLine
 10
-220.360565
 20
-70.024697
 30
0.0
 11
-220.360565
 21
-31.712316
 31
0.0
  0
LINE
  5
6D
330
27
100
AcDbEntity
  8
1
100
AcDbLine
 10
-258.360565
 20
-276.212316
 30
0.0
 11
-258.360565
 21
-213.420637
 31
0.0
  0
LINE
  5
6E
330
27
100
AcDbEntity
  8
1
100
AcDbLine
 10
-258.360565
 20
-70.024697
 30
0.0
 11
-258.360565
 21
-27.212316
 31
0.0
  0
ARC
  5
6F
330
27
100
AcDbEntity
  8
1
100
AcDbCircle
 10
-262.360565
 20
-27.212316
 30
0.0
 40
4.0
100
AcDbArc
 50
360.0
 51
90.0
  0
LINE
  5
70
330
27
100
AcDbEntity
  8
1
100
AcDbLine
 10
-311.514913
 20
246.330387
 30
0.0
 11
-310.83007
 21
233.50466
 31
0.0
  0
LINE
  5
71
330
27
100
AcDbEntity
  8
1
100
AcDbLine
 10
-311.514913
 20
246.330387
 30
0.0
 11
-310.83007
 21
259.156115
 31
0.0
  0
LINE
  5
72
330
27
100
AcDbEntity
  8
1
100
AcDbLine
 10
-308.610795
 20
261.893932
 30
0.0
 11
-305.530784
 21
262.719219
 31
0.0
  0
LINE
  5
73
330
27
100
AcDbEntity
  8
1
100
AcDbLine
 10
-308.610795
 20
230.766842
 30
0.0
 11
-305.530784
 21
229.941556
 31
0.0
  0
ARC
  5
74
330
27
100
AcDbEntity
  8
1
100
AcDbCircle
 10
-307.834338
 20
258.996155
 30
0.0
 40
3.0
100
AcDbArc
 50
105.0
 51
176.943535
  0
ARC
  5
75
330
27
100
AcDbEntity
  8
1
100
AcDbCircle
 10
-307.834338
 20
233.66462
 30
0.0
 40
3.0
100
AcDbArc
 50
183.056465
 51
255.0
  0
ARC
  5
76
330
27
100
AcDbEntity
  8
1
100
AcDbCircle
 10
-306.2933950000001
 20
227.095452
 30
0.0
 40
2.946504
100
AcDbArc
 50
0.0
 51
75.0
  0
ARC
  5
77
330
27
100
AcDbEntity
  8
1
100
AcDbCircle
 10
-306.2933950000001
 20
265.565322
 30
0.0
 40
2.946504
100
AcDbArc
 50
285.0
 51
360.0
  0
LINE
  5
78
330
27
100
AcDbEntity
  8
1
100
AcDbLine
 10
-303.346891
 20
226.330387
 30
0.0
 11
-303.346891
 21
230.784185
 31
0.0
  0
LINE
  5
79
330
27
100
AcDbEntity
  8
1
100
AcDbLine
 10
-303.346891
 20
261.87659
 30
0.0
 11
-303.346891
 21
266.330387
 31
0.0
  0
ARC
  5
7A
330
27
100
AcDbEntity
  8
1
100
AcDbCircle
 10
-188.095323
 20
-194.977558
 30
0.0
 40
9.5
100
AcDbArc
 50
99.42388199999999
 51
170.576118
  0
ARC
  5
7B
330
27
100
AcDbEntity
  8
1
100
AcDbCircle
 10
-290.625806
 20
-194.977558
 30
0.0
 40
9.5
100
AcDbArc
 50
9.423882
 51
80.57611800000001
  0
ARC
  5
7C
330
27
100
AcDbEntity
  8
1
100
AcDbCircle
 10
-239.360565
 20
-143.712316
 30
0.0
 40
65.5
100
AcDbArc
 50
231.04805
 51
308.95195
  0
ARC
  5
7D
330
27
100
AcDbEntity
  8
1
100
AcDbCircle
 10
-239.360565
 20
-143.712316
 30
0.0
 40
65.5
100
AcDbArc
 50
321.04805
 51
38.95195
  0
ARC
  5
7E
330
27
100
AcDbEntity
  8
1
100
AcDbCircle
 10
-188.095323
 20
-92.447075
 30
0.0
 40
9.5
100
AcDbArc
 50
143.5
 51
260.576118
  0
ARC
  5
7F
330
27
100
AcDbEntity
  8
1
100
AcDbCircle
 10
-290.625806
 20
-92.447075
 30
0.0
 40
9.5
100
AcDbArc
 50
279.423882
 51
36.5
  0
ARC
  5
80
330
27
100
AcDbEntity
  8
1
100
AcDbCircle
 10
-239.360565
 20
-143.712316
 30
0.0
 40
65.5
100
AcDbArc
 50
141.04805
 51
218.95195
  0
ARC
  5
81
330
27
100
AcDbEntity
  8
1
100
AcDbCircle
 10
-199.4401189999999
 20
-193.094581
 30
0.0
 40
2.0
100
AcDbArc
 50
308.95195
 51
350.576118
  0
ARC
  5
82
330
27
100
AcDbEntity
  8
1
100
AcDbCircle
 10
-189.9783
 20
-183.632762
 30
0.0
 40
2.0
100
AcDbArc
 50
279.423882
 51
321.04805
  0
ARC
  5
83
330
27
100
AcDbEntity
  8
1
100
AcDbCircle
 10
-279.28101
 20
-193.094581
 30
0.0
 40
2.0
100
AcDbArc
 50
189.423882
 51
231.04805
  0
ARC
  5
84
330
27
100
AcDbEntity
  8
1
100
AcDbCircle
 10
-288.742829
 20
-183.632762
 30
0.0
 40
2.0
100
AcDbArc
 50
218.95195
 51
260.576118
  0
ARC
  5
85
330
27
100
AcDbEntity
  8
1
100
AcDbCircle
 10
-288.742829
 20
-103.791871
 30
0.0
 40
2.0
100
AcDbArc
 50
99.42388199999999
 51
141.04805
  0
ARC
  5
86
330
27
100
AcDbEntity
  8
1
100
AcDbCircle
 10
-189.9783
 20
-103.791871
 30
0.0
 40
2.0
100
AcDbArc
 50
38.95195
 51
80.57611800000001
  0
ARC
  5
87
330
27
100
AcDbEntity
  8
1
100
AcDbCircle
 10
-199.4401189999999
 20
-94.330052
 30
0.0
 40
2.0
100
AcDbArc
 50
9.423882
 51
51.04805
  0
ARC
  5
88
330
27
100
AcDbEntity
  8
1
100
AcDbCircle
 10
-279.28101
 20
-94.330052
 30
0.0
 40
2.0
100
AcDbArc
 50
128.95195
 51
170.576118
  0
LINE
  5
89
330
27
100
AcDbEntity
  8
1
100
AcDbLine
 10
-282.989166
 20
-86.796258
 30
0.0
 11
-286.285462
 21
-82.341571
 31
0.0
  0
ARC
  5
8A
330
27
100
AcDbEntity
  8
1
100
AcDbCircle
 10
-263.360565
 20
-162.712316
 30
0.0
 40
126.0
100
AcDbArc
 50
55.481892
 51
66.512392
  0
ARC
  5
8B
330
27
100
AcDbEntity
  8
1
100
AcDbCircle
 10
-215.360565
 20
-162.712316
 30
0.0
 40
126.0
100
AcDbArc
 50
113.487608
 51
124.518108
  0
ARC
  5
8C
330
27
100
AcDbEntity
  8
1
100
AcDbCircle
 10
-208.360565
 20
-36.14612800000001
 30
0.0
 40
12.0
100
AcDbArc
 50
180.0
 51
246.512392
  0
ARC
  5
8D
330
27
100
AcDbEntity
  8
1
100
AcDbCircle
 10
-270.360565
 20
-36.14612800000001
 30
0.0
 40
12.0
100
AcDbArc
 50
293.487608
 51
360.0
  0
ARC
  5
8E
330
27
100
AcDbEntity
  8
1
100
AcDbCircle
 10
-195.360565
 20
-63.83866
 30
0.0
 40
6.0
100
AcDbArc
 50
355.0
 51
55.481892
  0
ARC
  5
8F
330
27
100
AcDbEntity
  8
1
100
AcDbCircle
 10
-283.360565
 20
-63.83866
 30
0.0
 40
6.0
100
AcDbArc
 50
124.518108
 51
185.0
  0
ARC
  5
90
330
27
100
AcDbEntity
  8
1
100
AcDbCircle
 10
-210.659307
 20
-74.421351
 30
0.0
 40
10.5
100
AcDbArc
 50
159.406687
 51
268.624423
  0
ARC
  5
91
330
27
100
AcDbEntity
  8
1
100
AcDbCircle
 10
-222.360565
 20
-70.024697
 30
0.0
 40
2.0
100
AcDbArc
 50
339.406687
 51
360.0
  0
ARC
  5
92
330
27
100
AcDbEntity
  8
1
100
AcDbCircle
 10
-256.360565
 20
-70.024697
 30
0.0
 40
2.0
100
AcDbArc
 50
180.0
 51
200.593313
  0
ARC
  5
93
330
27
100
AcDbEntity
  8
1
100
AcDbCircle
 10
-239.360565
 20
-143.712316
 30
0.0
 40
65.5
100
AcDbArc
 50
51.04805
 51
63.431803
  0
ARC
  5
94
330
27
100
AcDbEntity
  8
1
100
AcDbCircle
 10
-268.061822
 20
-74.421351
 30
0.0
 40
10.5
100
AcDbArc
 50
271.375577
 51
20.593313
  0
ARC
  5
95
330
27
100
AcDbEntity
  8
1
100
AcDbCircle
 10
-239.360565
 20
-143.712316
 30
0.0
 40
65.5
100
AcDbArc
 50
71.56819699999999
 51
108.431803
  0
ARC
  5
96
330
27
100
AcDbEntity
  8
1
100
AcDbCircle
 10
-239.360565
 20
-143.712316
 30
0.0
 40
65.5
100
AcDbArc
 50
116.568197
 51
128.95195
  0
ARC
  5
97
330
27
100
AcDbEntity
  8
1
100
AcDbCircle
 10
-267.761747
 20
-86.917749
 30
0.0
 40
2.0
100
AcDbArc
 50
91.375577
 51
116.568197
  0
ARC
  5
98
330
27
100
AcDbEntity
  8
1
100
AcDbCircle
 10
-210.959383
 20
-86.917749
 30
0.0
 40
2.0
100
AcDbArc
 50
63.431803
 51
88.62442299999999
  0
ARC
  5
99
330
27
100
AcDbEntity
  8
1
100
AcDbCircle
 10
-219.283409
 20
-83.46982399999999
 30
0.0
 40
2.0
100
AcDbArc
 50
46.375577
 51
71.56819699999999
  0
ARC
  5
9A
330
27
100
AcDbEntity
  8
1
100
AcDbCircle
 10
-259.43772
 20
-83.46982399999999
 30
0.0
 40
2.0
100
AcDbArc
 50
108.431803
 51
133.624423
  0
LINE
  5
9B
330
27
100
AcDbEntity
  8
1
  6
CENTER
 62
     2
100
AcDbLine
 10
-262.656038
 20
-87.47207000000001
 30
0.0
 11
-273.148384
 21
-62.14130400000001
 31
0.0
  0
CIRCLE
  5
9C
330
27
100
AcDbEntity
  8
1
100
AcDbCircle
 10
-268.061822
 20
-74.421351
 30
0.0
 40
8.5
  0
ARC
  5
9D
330
27
100
AcDbEntity
  8
1
  6
CENTER
 62
     2
100
AcDbCircle
 10
-239.360565
 20
-143.712316
 30
0.0
 40
75.0
100
AcDbArc
 50
101.218407
 51
122.694099
  0
ARC
  5
9E
330
27
100
AcDbEntity
  8
1
  6
CENTER
 62
     2
100
AcDbCircle
 10
-239.360565
 20
-143.712316
 30
0.0
 40
75.0
100
AcDbArc
 50
57.305901
 51
78.781593
  0
LINE
  5
9F
330
27
100
AcDbEntity
  8
1
  6
CENTER
 62
     2
100
AcDbLine
 10
-216.065092
 20
-87.47207000000001
 30
0.0
 11
-205.572745
 21
-62.14130400000001
 31
0.0
  0
CIRCLE
  5
A0
330
27
100
AcDbEntity
  8
1
100
AcDbCircle
 10
-210.659307
 20
-74.421351
 30
0.0
 40
8.5
  0
ARC
  5
A1
330
27
100
AcDbEntity
  8
1
100
AcDbCircle
 10
-210.360565
 20
-213.420637
 30
0.0
 40
10.0
100
AcDbArc
 50
112.588248
 51
201.019748
  0
ARC
  5
A2
330
27
100
AcDbEntity
  8
1
100
AcDbCircle
 10
-268.360565
 20
-213.420637
 30
0.0
 40
10.0
100
AcDbArc
 50
338.980252
 51
67.411752
  0
LINE
  5
A3
330
27
100
AcDbEntity
  8
1
100
AcDbLine
 10
-219.695133
 20
-217.007534
 30
0.0
 11
-218.080459
 21
-221.209576
 31
0.0
  0
ARC
  5
A4
330
27
100
AcDbEntity
  8
1
100
AcDbCircle
 10
-208.74589
 20
-217.622679
 30
0.0
 40
10.0
100
AcDbArc
 50
201.019748
 51
249.456577
  0
ARC
  5
A5
330
27
100
AcDbEntity
  8
1
100
AcDbCircle
 10
-269.975239
 20
-217.622679
 30
0.0
 40
10.0
100
AcDbArc
 50
290.543423
 51
338.980252
  0
LINE
  5
A6
330
27
100
AcDbEntity
  8
1
100
AcDbLine
 10
-259.025996
 20
-217.007534
 30
0.0
 11
-260.640671
 21
-221.209576
 31
0.0
  0
LINE
  5
A7
330
27
100
AcDbEntity
  8
1
100
AcDbLine
 10
-224.743514
 20
-213.420637
 30
0.0
 11
-220.360565
 21
-261.212316
 31
0.0
  0
ARC
  5
A8
330
27
100
AcDbEntity
  8
1
100
AcDbCircle
 10
-217.943791
 20
-212.797038
 30
0.0
 40
6.828259
100
AcDbArc
 50
107.223822
 51
185.239908
  0
LINE
  5
A9
330
27
100
AcDbEntity
  8
1
100
AcDbLine
 10
-253.977615
 20
-213.420637
 30
0.0
 11
-258.360565
 21
-261.212316
 31
0.0
  0
ARC
  5
AA
330
27
100
AcDbEntity
  8
1
100
AcDbCircle
 10
-260.777338
 20
-212.797038
 30
0.0
 40
6.828259
100
AcDbArc
 50
354.760092
 51
72.776178
  0
LINE
  5
AB
330
27
100
AcDbEntity
  8
1
100
AcDbLine
 10
-230.061705
 20
-27.453665
 30
0.0
 11
-227.363832
 21
-72.08553499999999
 31
0.0
  0
ARC
  5
AC
330
27
100
AcDbEntity
  8
1
100
AcDbCircle
 10
-226.068992
 20
-27.212316
 30
0.0
 40
4.0
100
AcDbArc
 50
90.0
 51
183.459162
  0
ARC
  5
AD
330
27
100
AcDbEntity
  8
1
100
AcDbCircle
 10
-217.382051
 20
-71.48216399999999
 30
0.0
 40
10.0
100
AcDbArc
 50
183.459162
 51
253.07581
  0
LINE
  5
AE
330
27
100
AcDbEntity
  8
1
100
AcDbLine
 10
-248.659425
 20
-27.453665
 30
0.0
 11
-251.357297
 21
-72.08553499999999
 31
0.0
  0
ARC
  5
AF
330
27
100
AcDbEntity
  8
1
100
AcDbCircle
 10
-252.652137
 20
-27.212316
 30
0.0
 40
4.0
100
AcDbArc
 50
356.540838
 51
90.0
  0
ARC
  5
B0
330
27
100
AcDbEntity
  8
1
100
AcDbCircle
 10
-261.339078
 20
-71.48216399999999
 30
0.0
 40
10.0
100
AcDbArc
 50
286.92419
 51
356.540838
  0
LINE
  5
B1
330
27
100
AcDbEntity
  8
1
100
AcDbLine
 10
-168.710756
 20
-161.842408
 30
0.0
 11
-175.825237
 21
-163.354637
 31
0.0
  0
LINE
  5
B2
330
27
100
AcDbEntity
  8
1
100
AcDbLine
 10
-195.7319629999999
 20
-86.796258
 30
0.0
 11
-192.435668
 21
-82.341571
 31
0.0
  0
LINE
  5
B3
330
27
100
AcDbEntity
  8
1
100
AcDbLine
 10
-301.850513
 20
260.330387
 30
0.0
 11
-289.786877
 21
260.330387
 31
0.0
  0
LINE
  5
B4
330
27
100
AcDbEntity
  8
1
100
AcDbLine
 10
-289.959478
 20
238.906132
 30
0.0
 11
-289.959478
 21
253.754642
 31
0.0
  0
LINE
  5
B5
330
27
100
AcDbEntity
  8
1
100
AcDbLine
 10
-301.850513
 20
259.941037
 30
0.0
 11
-292.952235
 21
257.625748
 31
0.0
  0
LINE
  5
B6
330
27
100
AcDbEntity
  8
1
100
AcDbLine
 10
-301.850513
 20
232.719738
 30
0.0
 11
-292.952235
 21
235.035026
 31
0.0
  0
ARC
  5
B7
330
27
100
AcDbEntity
  8
1
100
AcDbCircle
 10
-301.346891
 20
230.784185
 30
0.0
 40
2.0
100
AcDbArc
 50
104.584687
 51
180.0
  0
ARC
  5
B8
330
27
100
AcDbEntity
  8
1
100
AcDbCircle
 10
-301.346891
 20
261.87659
 30
0.0
 40
2.0
100
AcDbArc
 50
180.0
 51
255.415313
  0
ARC
  5
B9
330
27
100
AcDbEntity
  8
1
100
AcDbCircle
 10
-293.959478
 20
253.754642
 30
0.0
 40
4.0
100
AcDbArc
 50
0.0
 51
75.41531299999999
  0
ARC
  5
BA
330
27
100
AcDbEntity
  8
1
100
AcDbCircle
 10
-293.959478
 20
238.906132
 30
0.0
 40
4.0
100
AcDbArc
 50
284.584687
 51
360.0
  0
LINE
  5
BB
330
27
100
AcDbEntity
  8
1
100
AcDbLine
 10
-289.360565
 20
258.830387
 30
0.0
 11
-289.360565
 21
260.830387
 31
0.0
  0
LINE
  5
BC
330
27
100
AcDbEntity
  8
1
  6
DASHED
100
AcDbLine
 10
-287.360565
 20
256.830387
 30
0.0
 11
-274.360565
 21
256.830387
 31
0.0
  0
ARC
  5
BD
330
27
100
AcDbEntity
  8
1
100
AcDbCircle
 10
-287.360565
 20
260.830387
 30
0.0
 40
2.0
100
AcDbArc
 50
90.0
 51
180.0
  0
LINE
  5
BE
330
27
100
AcDbEntity
  8
1
  6
DASHED
100
AcDbLine
 10
-281.162921
 20
226.330387
 30
0.0
 11
-281.162921
 21
232.330387
 31
0.0
  0
LINE
  5
BF
330
27
100
AcDbEntity
  8
1
  6
DASHED
100
AcDbLine
 10
-281.162921
 20
262.830387
 30
0.0
 11
-281.162921
 21
266.330387
 31
0.0
  0
LINE
  5
C0
330
27
100
AcDbEntity
  8
1
100
AcDbLine
 10
-289.786877
 20
226.330387
 30
0.0
 11
-289.786877
 21
232.330387
 31
0.0
  0
LINE
  5
C1
330
27
100
AcDbEntity
  8
1
100
AcDbLine
 10
-289.786877
 20
260.330387
 30
0.0
 11
-289.786877
 21
266.330387
 31
0.0
  0
LINE
  5
C2
330
27
100
AcDbEntity
  8
1
100
AcDbLine
 10
-301.850513
 20
232.330387
 30
0.0
 11
-289.786877
 21
232.330387
 31
0.0
  0
LINE
  5
C3
330
27
100
AcDbEntity
  8
1
  6
DASHED
100
AcDbLine
 10
-281.162921
 20
232.330387
 30
0.0
 11
-274.360565
 21
232.330387
 31
0.0
  0
ARC
  5
C4
330
27
100
AcDbEntity
  8
1
  6
DASHED
100
AcDbCircle
 10
-283.908292
 20
227.039585
 30
0.0
 40
5.960676
100
AcDbArc
 50
62.575428
 51
90.0
  0
ARC
  5
C5
330
27
100
AcDbEntity
  8
1
100
AcDbCircle
 10
-283.908292
 20
285.789719
 30
0.0
 40
26.129204
100
AcDbArc
 50
256.998215
 51
257.955821
  0
LINE
  5
C6
330
27
100
AcDbEntity
  8
1
100
AcDbLine
 10
-302.615999
 20
-126.712316
 30
0.0
 11
-305.048565
 21
-126.712316
 31
0.0
  0
LINE
  5
C7
330
27
100
AcDbEntity
  8
1
100
AcDbLine
 10
-305.048565
 20
-126.712316
 30
0.0
 11
-305.860565
 21
-127.524316
 31
0.0
  0
LINE
  5
C8
330
27
100
AcDbEntity
  8
1
100
AcDbLine
 10
-305.860565
 20
-127.524316
 30
0.0
 11
-305.860565
 21
-129.712316
 31
0.0
  0
LINE
  5
C9
330
27
100
AcDbEntity
  8
1
100
AcDbLine
 10
-305.860565
 20
-127.524316
 30
0.0
 11
-302.828656
 21
-127.524316
 31
0.0
  0
LINE
  5
CA
330
27
100
AcDbEntity
  8
1
 62
     2
100
AcDbLine
 10
-305.048565
 20
-126.712316
 30
0.0
 11
-305.048565
 21
-129.712316
 31
0.0
  0
LINE
  5
CB
330
27
100
AcDbEntity
  8
1
100
AcDbLine
 10
-176.10513
 20
-126.712316
 30
0.0
 11
-173.672565
 21
-126.712316
 31
0.0
  0
LINE
  5
CC
330
27
100
AcDbEntity
  8
1
100
AcDbLine
 10
-173.672565
 20
-126.712316
 30
0.0
 11
-172.8605649999999
 21
-127.524316
 31
0.0
  0
LINE
  5
CD
330
27
100
AcDbEntity
  8
1
 62
     2
100
AcDbLine
 10
-173.672565
 20
-126.712316
 30
0.0
 11
-173.672565
 21
-129.712316
 31
0.0
  0
LINE
  5
CE
330
27
100
AcDbEntity
  8
1
100
AcDbLine
 10
-172.8605649999999
 20
-127.524316
 30
0.0
 11
-172.8605649999999
 21
-129.712316
 31
0.0
  0
LINE
  5
CF
330
27
100
AcDbEntity
  8
1
100
AcDbLine
 10
-172.8605649999999
 20
-127.524316
 30
0.0
 11
-175.892473
 21
-127.524316
 31
0.0
  0
LINE
  5
D0
330
27
100
AcDbEntity
  8
1
100
AcDbLine
 10
-236.860565
 20
-51.308225
 30
0.0
 11
-241.860565
 21
-51.308225
 31
0.0
  0
LINE
  5
D1
330
27
100
AcDbEntity
  8
1
100
AcDbLine
 10
-241.860565
 20
-25.212316
 30
0.0
 11
-241.860565
 21
-49.308225
 31
0.0
  0
LINE
  5
D2
330
27
100
AcDbEntity
  8
1
100
AcDbLine
 10
-236.860565
 20
-25.212316
 30
0.0
 11
-236.860565
 21
-49.308225
 31
0.0
  0
ARC
  5
D3
330
27
100
AcDbEntity
  8
1
100
AcDbCircle
 10
-234.860565
 20
-49.308225
 30
0.0
 40
2.0
100
AcDbArc
 50
180.0
 51
270.0
  0
ARC
  5
D4
330
27
100
AcDbEntity
  8
1
100
AcDbCircle
 10
-243.860565
 20
-49.308225
 30
0.0
 40
2.0
100
AcDbArc
 50
270.0
 51
360.0
  0
ARC
  5
D5
330
27
100
AcDbEntity
  8
1
100
AcDbCircle
 10
-243.860565
 20
-25.212316
 30
0.0
 40
2.0
100
AcDbArc
 50
0.0
 51
90.0
  0
ARC
  5
D6
330
27
100
AcDbEntity
  8
1
100
AcDbCircle
 10
-234.860565
 20
-25.212316
 30
0.0
 40
2.0
100
AcDbArc
 50
90.0
 51
180.0
  0
LINE
  5
D7
330
27
100
AcDbEntity
  8
1
  6
CENTER
 62
     2
100
AcDbLine
 10
-177.860565
 20
237.49885
 30
0.0
 11
-177.860565
 21
255.472696
 31
0.0
  0
CIRCLE
  5
D8
330
27
100
AcDbEntity
  8
1
  6
DASHED
100
AcDbCircle
 10
-177.860565
 20
246.330387
 30
0.0
 40
5.0
  0
CIRCLE
  5
D9
330
27
100
AcDbEntity
  8
1
  6
DASHED
 62
     2
100
AcDbCircle
 10
-177.860565
 20
246.330387
 30
0.0
 40
4.187999999999999
  0
LINE
  5
DA
330
27
100
AcDbEntity
  8
1
  6
DASHED
100
AcDbLine
 10
-165.860565
 20
246.330387
 30
0.0
 11
-166.532609
 21
233.507028
 31
0.0
  0
LINE
  5
DB
330
27
100
AcDbEntity
  8
1
  6
DASHED
100
AcDbLine
 10
-165.860565
 20
246.330387
 30
0.0
 11
-166.532609
 21
259.153747
 31
0.0
  0
LINE
  5
DC
330
27
100
AcDbEntity
  8
1
  6
DASHED
100
AcDbLine
 10
-168.75204
 20
230.766258
 30
0.0
 11
-171.637022
 21
229.99323
 31
0.0
  0
LINE
  5
DD
330
27
100
AcDbEntity
  8
1
100
AcDbLine
 10
-168.75204
 20
261.894516
 30
0.0
 11
-171.637022
 21
262.667545
 31
0.0
  0
ARC
  5
DE
330
27
100
AcDbEntity
  8
1
  6
DASHED
100
AcDbCircle
 10
-169.528497
 20
233.664036
 30
0.0
 40
3.0
100
AcDbArc
 50
285.0
 51
357.0
  0
LINE
  5
DF
330
27
100
AcDbEntity
  8
1
  6
DASHED
100
AcDbLine
 10
-173.860565
 20
226.330387
 30
0.0
 11
-204.360565
 21
226.330387
 31
0.0
  0
ARC
  5
E0
330
27
100
AcDbEntity
  8
1
100
AcDbCircle
 10
-170.8605649999999
 20
265.565322
 30
0.0
 40
3.0
100
AcDbArc
 50
180.0
 51
255.0
  0
ARC
  5
E1
330
27
100
AcDbEntity
  8
1
  6
DASHED
100
AcDbCircle
 10
-170.8605649999999
 20
227.095452
 30
0.0
 40
3.0
100
AcDbArc
 50
105.0
 51
180.0
  0
LINE
  5
E2
330
27
100
AcDbEntity
  8
1
  6
DASHED
100
AcDbLine
 10
-173.860565
 20
226.330387
 30
0.0
 11
-173.860565
 21
227.095452
 31
0.0
  0
LINE
  5
E3
330
27
100
AcDbEntity
  8
1
100
AcDbLine
 10
-173.860565
 20
265.565322
 30
0.0
 11
-173.860565
 21
266.330387
 31
0.0
  0
LINE
  5
E4
330
27
100
AcDbEntity
  8
1
  6
DASHED
100
AcDbLine
 10
-167.206216
 20
246.330387
 30
0.0
 11
-167.891059
 21
233.50466
 31
0.0
  0
LINE
  5
E5
330
27
100
AcDbEntity
  8
1
  6
DASHED
100
AcDbLine
 10
-167.206216
 20
246.330387
 30
0.0
 11
-167.891059
 21
259.156115
 31
0.0
  0
LINE
  5
E6
330
27
100
AcDbEntity
  8
1
100
AcDbLine
 10
-170.110335
 20
261.893932
 30
0.0
 11
-173.190346
 21
262.719219
 31
0.0
  0
LINE
  5
E7
330
27
100
AcDbEntity
  8
1
  6
DASHED
100
AcDbLine
 10
-170.110335
 20
230.766842
 30
0.0
 11
-173.190346
 21
229.941556
 31
0.0
  0
ARC
  5
E8
330
27
100
AcDbEntity
  8
1
  6
DASHED
100
AcDbCircle
 10
-170.886792
 20
233.66462
 30
0.0
 40
3.0
100
AcDbArc
 50
285.0
 51
356.943535
  0
ARC
  5
E9
330
27
100
AcDbEntity
  8
1
  6
DASHED
100
AcDbCircle
 10
-172.427735
 20
227.095452
 30
0.0
 40
2.946504
100
AcDbArc
 50
105.0
 51
180.0
  0
ARC
  5
EA
330
27
100
AcDbEntity
  8
1
100
AcDbCircle
 10
-172.427735
 20
265.565322
 30
0.0
 40
2.946504
100
AcDbArc
 50
180.0
 51
255.0
  0
LINE
  5
EB
330
27
100
AcDbEntity
  8
1
  6
DASHED
100
AcDbLine
 10
-175.374238
 20
226.330387
 30
0.0
 11
-175.374238
 21
230.784185
 31
0.0
  0
LINE
  5
EC
330
27
100
AcDbEntity
  8
1
100
AcDbLine
 10
-175.374238
 20
261.87659
 30
0.0
 11
-175.374238
 21
266.330387
 31
0.0
  0
LINE
  5
ED
330
27
100
AcDbEntity
  8
1
  6
DASHED
100
AcDbLine
 10
-204.360565
 20
235.813727
 30
0.0
 11
-188.761652
 21
235.813727
 31
0.0
  0
LINE
  5
EE
330
27
100
AcDbEntity
  8
1
  6
DASHED
100
AcDbLine
 10
-188.761652
 20
238.906132
 30
0.0
 11
-188.761652
 21
253.754642
 31
0.0
  0
LINE
  5
EF
330
27
100
AcDbEntity
  8
1
  6
DASHED
100
AcDbLine
 10
-176.8706169999999
 20
232.719738
 30
0.0
 11
-185.768895
 21
235.035026
 31
0.0
  0
ARC
  5
F0
330
27
100
AcDbEntity
  8
1
  6
DASHED
100
AcDbCircle
 10
-177.374238
 20
230.784185
 30
0.0
 40
2.0
100
AcDbArc
 50
0.0
 51
75.41531299999999
  0
ARC
  5
F1
330
27
100
AcDbEntity
  8
1
100
AcDbCircle
 10
-177.374238
 20
261.87659
 30
0.0
 40
2.0
100
AcDbArc
 50
284.584687
 51
360.0
  0
ARC
  5
F2
330
27
100
AcDbEntity
  8
1
  6
DASHED
100
AcDbCircle
 10
-184.761652
 20
253.754642
 30
0.0
 40
4.0
100
AcDbArc
 50
104.584687
 51
180.0
  0
ARC
  5
F3
330
27
100
AcDbEntity
  8
1
  6
DASHED
100
AcDbCircle
 10
-184.761652
 20
238.906132
 30
0.0
 40
4.0
100
AcDbArc
 50
180.0
 51
255.415313
  0
LINE
  5
F4
330
27
100
AcDbEntity
  8
1
  6
DASHED
100
AcDbLine
 10
-189.3605649999999
 20
258.830387
 30
0.0
 11
-189.3605649999999
 21
260.830387
 31
0.0
  0
LINE
  5
F5
330
27
100
AcDbEntity
  8
1
  6
DASHED
100
AcDbLine
 10
-191.360565
 20
262.830387
 30
0.0
 11
-204.360565
 21
262.830387
 31
0.0
  0
LINE
  5
F6
330
27
100
AcDbEntity
  8
1
  6
DASHED
100
AcDbLine
 10
-191.360565
 20
256.830387
 30
0.0
 11
-204.360565
 21
256.830387
 31
0.0
  0
ARC
  5
F7
330
27
100
AcDbEntity
  8
1
  6
DASHED
100
AcDbCircle
 10
-191.360565
 20
260.830387
 30
0.0
 40
2.0
100
AcDbArc
 50
0.0
 51
90.0
  0
ARC
  5
F8
330
27
100
AcDbEntity
  8
1
  6
DASHED
100
AcDbCircle
 10
-191.360565
 20
258.830387
 30
0.0
 40
2.0
100
AcDbArc
 50
270.0
 51
360.0
  0
LINE
  5
F9
330
27
100
AcDbEntity
  8
1
  6
DASHED
100
AcDbLine
 10
-197.558208
 20
226.330387
 30
0.0
 11
-197.558208
 21
232.330387
 31
0.0
  0
LINE
  5
FA
330
27
100
AcDbEntity
  8
1
  6
DASHED
100
AcDbLine
 10
-197.558208
 20
262.830387
 30
0.0
 11
-197.558208
 21
266.330387
 31
0.0
  0
LINE
  5
FB
330
27
100
AcDbEntity
  8
1
  6
DASHED
100
AcDbLine
 10
-188.934252
 20
226.330387
 30
0.0
 11
-188.934252
 21
232.330387
 31
0.0
  0
LINE
  5
FC
330
27
100
AcDbEntity
  8
1
  6
DASHED
100
AcDbLine
 10
-176.8706169999999
 20
232.330387
 30
0.0
 11
-188.934252
 21
232.330387
 31
0.0
  0
LINE
  5
FD
330
27
100
AcDbEntity
  8
1
  6
DASHED
100
AcDbLine
 10
-197.558208
 20
232.330387
 30
0.0
 11
-204.360565
 21
232.330387
 31
0.0
  0
ARC
  5
FE
330
27
100
AcDbEntity
  8
1
  6
DASHED
100
AcDbCircle
 10
-194.812837
 20
206.871056
 30
0.0
 40
26.129204
100
AcDbArc
 50
76.998215
 51
90.0
  0
ARC
  5
FF
330
27
100
AcDbEntity
  8
1
  6
DASHED
100
AcDbCircle
 10
-194.812837
 20
227.039585
 30
0.0
 40
5.960676
100
AcDbArc
 50
90.0
 51
117.424572
  0
ARC
  5
100
330
27
100
AcDbEntity
  8
1
  6
DASHED
100
AcDbCircle
 10
-194.812837
 20
285.789719
 30
0.0
 40
26.129204
100
AcDbArc
 50
282.044179
 51
283.001785
  0
LINE
  5
101
330
27
100
AcDbEntity
  8
1
100
AcDbLine
 10
-165.860565
 20
-143.712316
 30
0.0
 11
-176.860565
 21
-143.712316
 31
0.0
  0
LINE
  5
102
330
27
100
AcDbEntity
  8
1
100
AcDbLine
 10
-312.860565
 20
-143.712316
 30
0.0
 11
-301.860565
 21
-143.712316
 31
0.0
  0
LINE
  5
103
330
27
100
AcDbEntity
  8
1
  6
DASHED
100
AcDbLine
 10
-176.860565
 20
223.330387
 30
0.0
 11
-204.360565
 21
223.330387
 31
0.0
  0
LINE
  5
104
330
27
100
AcDbEntity
  8
1
  6
DASHED
100
AcDbLine
 10
-176.860565
 20
223.330387
 30
0.0
 11
-176.860565
 21
226.330387
 31
0.0
  0
LINE
  5
105
330
27
100
AcDbEntity
  8
1
100
AcDbLine
 10
-176.860565
 20
266.330387
 30
0.0
 11
-176.860565
 21
269.330387
 31
0.0
  0
LINE
  5
106
330
27
100
AcDbEntity
  8
1
100
AcDbLine
 10
-301.860565
 20
223.330387
 30
0.0
 11
-301.860565
 21
226.330387
 31
0.0
  0
LINE
  5
107
330
27
100
AcDbEntity
  8
1
100
AcDbLine
 10
-301.860565
 20
266.330387
 30
0.0
 11
-301.860565
 21
269.330387
 31
0.0
  0
ARC
  5
108
330
27
100
AcDbEntity
  8
1
100
AcDbCircle
 10
-214.360565
 20
-232.605183
 30
0.0
 40
6.0
100
AcDbArc
 50
325.698847
 51
69.45657699999999
  0
ARC
  5
109
330
27
100
AcDbEntity
  8
1
100
AcDbCircle
 10
-264.360565
 20
-232.605183
 30
0.0
 40
6.0
100
AcDbArc
 50
110.543423
 51
214.301153
  0
ARC
  5
10A
330
27
100
AcDbEntity
  8
1
100
AcDbCircle
 10
-176.360565
 20
-258.528146
 30
0.0
 40
40.0
100
AcDbArc
 50
145.698847
 51
179.579166
  0
ARC
  5
10B
330
27
100
AcDbEntity
  8
1
100
AcDbCircle
 10
-302.360565
 20
-258.528146
 30
0.0
 40
40.0
100
AcDbArc
 50
0.4208340000000001
 51
34.301153
  0
ARC
  5
10C
330
27
100
AcDbEntity
  8
1
100
AcDbCircle
 10
-219.359405
 20
-258.212316
 30
0.0
 40
3.0
100
AcDbArc
 50
289.459473
 51
359.579166
  0
ARC
  5
10D
330
27
100
AcDbEntity
  8
1
100
AcDbCircle
 10
-217.360565
 20
-263.869581
 30
0.0
 40
3.0
100
AcDbArc
 50
109.459473
 51
180.0
  0
ARC
  5
10E
330
27
100
AcDbEntity
  8
1
100
AcDbCircle
 10
-259.361725
 20
-258.212316
 30
0.0
 40
3.0
100
AcDbArc
 50
180.420834
 51
250.540527
  0
ARC
  5
10F
330
27
100
AcDbEntity
  8
1
100
AcDbCircle
 10
-261.360565
 20
-263.869581
 30
0.0
 40
3.0
100
AcDbArc
 50
0.0
 51
70.54052699999999
  0
LINE
  5
110
330
27
100
AcDbEntity
  8
1
100
AcDbLine
 10
-189.383397
 20
-64.361594
 30
0.0
 11
-190.51229
 21
-77.2649
 31
0.0
  0
LINE
  5
111
330
27
100
AcDbEntity
  8
1
100
AcDbLine
 10
-289.337733
 20
-64.361594
 30
0.0
 11
-288.20884
 21
-77.2649
 31
0.0
  0
ARC
  5
112
330
27
100
AcDbEntity
  8
1
100
AcDbCircle
 10
-200.474237
 20
-76.393343
 30
0.0
 40
10.0
100
AcDbArc
 50
323.5
 51
355.0
  0
ARC
  5
113
330
27
100
AcDbEntity
  8
1
100
AcDbCircle
 10
-278.246893
 20
-76.393343
 30
0.0
 40
10.0
100
AcDbArc
 50
185.0
 51
216.5
  0
LINE
  5
114
330
27
100
AcDbEntity
  8
1
100
AcDbLine
 10
-301.860565
 20
269.330387
 30
0.0
 11
-283.75651
 21
269.330387
 31
0.0
  0
LINE
  5
115
330
27
100
AcDbEntity
  8
1
  6
DASHED
100
AcDbLine
 10
-283.75651
 20
269.330387
 30
0.0
 11
-274.360565
 21
269.330387
 31
0.0
  0
LINE
  5
116
330
27
100
AcDbEntity
  8
1
100
AcDbLine
 10
-304.860565
 20
266.330387
 30
0.0
 11
-285.186322
 21
266.330387
 31
0.0
  0
LINE
  5
117
330
27
100
AcDbEntity
  8
1
  6
DASHED
100
AcDbLine
 10
-285.186322
 20
266.330387
 30
0.0
 11
-274.360565
 21
266.330387
 31
0.0
  0
LINE
  5
118
330
27
100
AcDbEntity
  8
1
100
AcDbLine
 10
-287.360565
 20
262.830387
 30
0.0
 11
-286.559611
 21
262.830387
 31
0.0
  0
LINE
  5
119
330
27
100
AcDbEntity
  8
1
  6
DASHED
100
AcDbLine
 10
-286.559611
 20
262.830387
 30
0.0
 11
-274.360565
 21
262.830387
 31
0.0
  0
ARC
  5
11A
330
27
100
AcDbEntity
  8
1
100
AcDbCircle
 10
-287.360565
 20
258.830387
 30
0.0
 40
2.0
100
AcDbArc
 50
180.0
 51
245.0226999999999
  0
ARC
  5
11B
330
27
100
AcDbEntity
  8
1
  6
DASHED
100
AcDbCircle
 10
-287.360565
 20
258.830387
 30
0.0
 40
2.0
100
AcDbArc
 50
245.0226999999999
 51
270.0
  0
LINE
  5
11C
330
27
100
AcDbEntity
  8
1
  6
DASHED
100
AcDbLine
 10
-274.360565
 20
235.813727
 30
0.0
 11
-288.242053
 21
235.813727
 31
0.0
  0
LINE
  5
11D
330
27
100
AcDbEntity
  8
1
100
AcDbLine
 10
-288.242053
 20
235.813727
 30
0.0
 11
-289.959478
 21
235.813727
 31
0.0
  0
ARC
  5
11E
330
27
100
AcDbEntity
  8
1
  6
DASHED
100
AcDbCircle
 10
-283.908292
 20
206.871056
 30
0.0
 40
26.129204
100
AcDbArc
 50
90.0
 51
97.86165400000001
  0
ARC
  5
11F
330
27
100
AcDbEntity
  8
1
100
AcDbCircle
 10
-283.908292
 20
206.871056
 30
0.0
 40
26.129204
100
AcDbArc
 50
97.86165400000001
 51
103.001785
  0
LINE
  5
120
330
27
100
AcDbEntity
  8
1
100
AcDbLine
 10
-304.860565
 20
226.330387
 30
0.0
 11
-285.186322
 21
226.330387
 31
0.0
  0
LINE
  5
121
330
27
100
AcDbEntity
  8
1
  6
DASHED
100
AcDbLine
 10
-285.186322
 20
226.330387
 30
0.0
 11
-274.360565
 21
226.330387
 31
0.0
  0
LINE
  5
122
330
27
100
AcDbEntity
  8
1
100
AcDbLine
 10
-301.860565
 20
223.330387
 30
0.0
 11
-283.75651
 21
223.330387
 31
0.0
  0
LINE
  5
123
330
27
100
AcDbEntity
  8
1
  6
DASHED
100
AcDbLine
 10
-283.75651
 20
223.330387
 30
0.0
 11
-274.360565
 21
223.330387
 31
0.0
  0
LINE
  5
124
330
27
100
AcDbEntity
  8
1
100
AcDbLine
 10
-176.860565
 20
269.330387
 30
0.0
 11
-185.828742
 21
269.330387
 31
0.0
  0
LINE
  5
125
330
27
100
AcDbEntity
  8
1
  6
DASHED
100
AcDbLine
 10
-185.828742
 20
269.330387
 30
0.0
 11
-204.360565
 21
269.330387
 31
0.0
  0
LINE
  5
126
330
27
100
AcDbEntity
  8
1
100
AcDbLine
 10
-173.860565
 20
266.330387
 30
0.0
 11
-189.102667
 21
266.330387
 31
0.0
  0
LINE
  5
127
330
27
100
AcDbEntity
  8
1
  6
DASHED
100
AcDbLine
 10
-189.102667
 20
266.330387
 30
0.0
 11
-204.360565
 21
266.330387
 31
0.0
  0
LINE
  5
128
330
27
100
AcDbEntity
  8
1
  6
DASHED
100
AcDbLine
 10
-188.934252
 20
260.330387
 30
0.0
 11
-188.934252
 21
263.355223
 31
0.0
  0
LINE
  5
129
330
27
100
AcDbEntity
  8
1
100
AcDbLine
 10
-188.934252
 20
263.355223
 30
0.0
 11
-188.934252
 21
266.330387
 31
0.0
  0
LINE
  5
12A
330
27
100
AcDbEntity
  8
1
100
AcDbLine
 10
-176.8706169999999
 20
260.330387
 30
0.0
 11
-181.635458
 21
260.330387
 31
0.0
  0
LINE
  5
12B
330
27
100
AcDbEntity
  8
1
  6
DASHED
100
AcDbLine
 10
-181.635458
 20
260.330387
 30
0.0
 11
-188.934252
 21
260.330387
 31
0.0
  0
LINE
  5
12C
330
27
100
AcDbEntity
  8
1
  6
DASHED
100
AcDbLine
 10
-176.8706169999999
 20
259.941037
 30
0.0
 11
-177.203962
 21
259.854302
 31
0.0
  0
LINE
  5
12D
330
27
100
AcDbEntity
  8
1
  6
DASHED
100
AcDbLine
 10
-177.203962
 20
259.854302
 30
0.0
 11
-185.768895
 21
257.625748
 31
0.0
  0
ARC
  5
12E
330
27
100
AcDbEntity
  8
1
  6
DASHED
100
AcDbCircle
 10
-170.886792
 20
258.996155
 30
0.0
 40
3.0
100
AcDbArc
 50
3.056465
 51
12.276344
  0
ARC
  5
12F
330
27
100
AcDbEntity
  8
1
100
AcDbCircle
 10
-170.886792
 20
258.996155
 30
0.0
 40
3.0
100
AcDbArc
 50
12.276344
 51
75.0
  0
ARC
  5
130
330
27
100
AcDbEntity
  8
1
  6
DASHED
100
AcDbCircle
 10
-169.528497
 20
258.996739
 30
0.0
 40
3.0
100
AcDbArc
 50
3.0
 51
11.630152
  0
ARC
  5
131
330
27
100
AcDbEntity
  8
1
100
AcDbCircle
 10
-169.528497
 20
258.996739
 30
0.0
 40
3.0
100
AcDbArc
 50
11.630152
 51
75.0
  0
LINE
  5
132
330
27
100
AcDbEntity
  8
1
100
AcDbLine
 10
-246.360565
 20
-9.212258
 30
0.0
 11
-246.360565
 21
-0.212316
 31
0.0
  0
LINE
  5
133
330
27
100
AcDbEntity
  8
1
100
AcDbLine
 10
-232.360565
 20
-9.212258
 30
0.0
 11
-232.360565
 21
-0.212316
 31
0.0
  0
CIRCLE
  5
134
330
27
100
AcDbEntity
  8
1
100
AcDbCircle
 10
-239.360565
 20
-143.712316
 30
0.0
 40
62.5
  0
CIRCLE
  5
135
330
27
100
AcDbEntity
  8
1
100
AcDbCircle
 10
-239.360565
 20
-143.712316
 30
0.0
 40
46.0
  0
ARC
  5
136
330
27
100
AcDbEntity
  8
1
100
AcDbCircle
 10
-239.360565
 20
-143.712316
 30
0.0
 40
40.0
100
AcDbArc
 50
111.313354
 51
248.686646
  0
ARC
  5
137
330
27
100
AcDbEntity
  8
1
100
AcDbCircle
 10
-239.360565
 20
-143.712316
 30
0.0
 40
40.0
100
AcDbArc
 50
291.313354
 51
68.68664599999999
  0
ARC
  5
138
330
27
100
AcDbEntity
  8
1
100
AcDbCircle
 10
-239.360565
 20
-143.712316
 30
0.0
 40
41.0
100
AcDbArc
 50
106.375285
 51
253.624715
  0
ARC
  5
139
330
27
100
AcDbEntity
  8
1
100
AcDbCircle
 10
-239.360565
 20
-143.712316
 30
0.0
 40
41.0
100
AcDbArc
 50
286.375285
 51
73.62471500000001
  0
LINE
  5
13A
330
27
100
AcDbEntity
  8
1
100
AcDbLine
 10
-224.82183
 20
-106.448055
 30
0.0
 11
-253.8993
 21
-106.448055
 31
0.0
  0
ARC
  5
13B
330
27
100
AcDbEntity
  8
1
100
AcDbCircle
 10
-239.360565
 20
-124.171655
 30
0.0
 40
22.923804
100
AcDbArc
 50
50.637843
 51
129.362157
  0
LINE
  5
13C
330
27
100
AcDbEntity
  8
1
100
AcDbLine
 10
-224.82183
 20
-180.976578
 30
0.0
 11
-253.8993
 21
-180.976578
 31
0.0
  0
ARC
  5
13D
330
27
100
AcDbEntity
  8
1
100
AcDbCircle
 10
-239.360565
 20
-163.252978
 30
0.0
 40
22.923804
100
AcDbArc
 50
230.637843
 51
309.362157
  0
ARC
  5
13E
330
27
100
AcDbEntity
  8
1
100
AcDbCircle
 10
-423.742996
 20
-143.712316
 30
0.0
 40
174.061846
100
AcDbArc
 50
350.300947
 51
9.699052999999999
  0
LINE
  5
13F
330
27
100
AcDbEntity
  8
1
100
AcDbLine
 10
-252.169146
 20
-180.595107
 30
0.0
 11
-252.169146
 21
-173.037054
 31
0.0
  0
LINE
  5
140
330
27
100
AcDbEntity
  8
1
100
AcDbLine
 10
-252.169146
 20
-114.387579
 30
0.0
 11
-252.169146
 21
-106.829526
 31
0.0
  0
ARC
  5
141
330
27
100
AcDbEntity
  8
1
100
AcDbCircle
 10
-54.97813299999999
 20
-143.712316
 30
0.0
 40
174.061846
100
AcDbArc
 50
170.300947
 51
189.699053
  0
LINE
  5
142
330
27
100
AcDbEntity
  8
1
100
AcDbLine
 10
-226.551983
 20
-114.387579
 30
0.0
 11
-226.551983
 21
-106.829526
 31
0.0
  0
LINE
  5
143
330
27
100
AcDbEntity
  8
1
100
AcDbLine
 10
-226.551983
 20
-180.595107
 30
0.0
 11
-226.551983
 21
-173.037054
 31
0.0
  0
LINE
  5
144
330
27
100
AcDbEntity
  8
1
100
AcDbLine
 10
-226.551983
 20
-106.829526
 30
0.0
 11
-252.169146
 21
-106.829526
 31
0.0
  0
ARC
  5
145
330
27
100
AcDbEntity
  8
1
100
AcDbCircle
 10
-239.360565
 20
-143.712316
 30
0.0
 40
32.0
100
AcDbArc
 50
113.594945
 51
246.405055
  0
ARC
  5
146
330
27
100
AcDbEntity
  8
1
100
AcDbCircle
 10
-239.360565
 20
-143.712316
 30
0.0
 40
32.0
100
AcDbArc
 50
293.594945
 51
66.405055
  0
LINE
  5
147
330
27
100
AcDbEntity
  8
1
100
AcDbLine
 10
-226.551983
 20
-180.595107
 30
0.0
 11
-252.169146
 21
-180.595107
 31
0.0
  0
ARC
  5
148
330
27
100
AcDbEntity
  8
1
100
AcDbCircle
 10
-239.360565
 20
-143.712316
 30
0.0
 40
39.043565
100
AcDbArc
 50
109.150989
 51
250.849011
  0
ARC
  5
149
330
27
100
AcDbEntity
  8
1
100
AcDbCircle
 10
-239.360565
 20
-143.712316
 30
0.0
 40
39.043565
100
AcDbArc
 50
289.150989
 51
70.849011
  0
ARC
  5
14A
330
27
100
AcDbEntity
  8
1
100
AcDbCircle
 10
-228.782168
 20
-106.829526
 30
0.0
 40
2.230184999999999
100
AcDbArc
 50
0.0
 51
9.848817
  0
ARC
  5
14B
330
27
100
AcDbEntity
  8
1
100
AcDbCircle
 10
-249.938962
 20
-106.829526
 30
0.0
 40
2.230184999999999
100
AcDbArc
 50
170.151183
 51
180.0
  0
ARC
  5
14C
330
27
100
AcDbEntity
  8
1
100
AcDbCircle
 10
-228.782168
 20
-180.595107
 30
0.0
 40
2.230184999999999
100
AcDbArc
 50
350.151183
 51
360.0
  0
ARC
  5
14D
330
27
100
AcDbEntity
  8
1
100
AcDbCircle
 10
-249.938962
 20
-180.595107
 30
0.0
 40
2.230184999999999
100
AcDbArc
 50
180.0
 51
189.848817
  0
LINE
  5
14E
330
27
100
AcDbEntity
  8
1
100
AcDbLine
 10
170.94666
 20
-23.212316
 30
0.0
 11
232.94666
 21
-23.212316
 31
0.0
  0
LINE
  5
14F
330
27
100
AcDbEntity
  8
1
100
AcDbLine
 10
166.94666
 20
-11.212316
 30
0.0
 11
166.94666
 21
-19.212316
 31
0.0
  0
LINE
  5
150
330
27
100
AcDbEntity
  8
1
100
AcDbLine
 10
236.94666
 20
-11.212316
 30
0.0
 11
236.94666
 21
-19.212316
 31
0.0
  0
ARC
  5
151
330
27
100
AcDbEntity
  8
1
100
AcDbCircle
 10
170.94666
 20
-19.212316
 30
0.0
 40
4.0
100
AcDbArc
 50
180.0
 51
270.0
  0
ARC
  5
152
330
27
100
AcDbEntity
  8
1
100
AcDbCircle
 10
232.94666
 20
-19.212316
 30
0.0
 40
4.0
100
AcDbArc
 50
270.0
 51
360.0
  0
ARC
  5
153
330
27
100
AcDbEntity
  8
1
100
AcDbCircle
 10
199.803802
 20
-39.955174
 30
0.0
 40
2.857143
100
AcDbArc
 50
180.0
 51
270.0
  0
ARC
  5
154
330
27
100
AcDbEntity
  8
1
100
AcDbCircle
 10
202.389517
 20
-36.969459
 30
0.0
 40
2.857143
100
AcDbArc
 50
0.0
 51
90.0
  0
ARC
  5
155
330
27
100
AcDbEntity
  8
1
100
AcDbCircle
 10
199.775231
 20
-38.240888
 30
0.0
 40
1.428570999999999
100
AcDbArc
 50
90.0
 51
180.0
  0
ARC
  5
156
330
27
100
AcDbEntity
  8
1
100
AcDbCircle
 10
202.418088
 20
-38.683745
 30
0.0
 40
1.428570999999999
100
AcDbArc
 50
270.0
 51
0.0
  0
LINE
  5
157
330
27
100
AcDbEntity
  8
1
100
AcDbLine
 10
203.84666
 20
-46.21231599999999
 30
0.0
 11
196.94666
 21
-45.91231599999999
 31
0.0
  0
LINE
  5
158
330
27
100
AcDbEntity
  8
1
100
AcDbLine
 10
203.84666
 20
-50.912316
 30
0.0
 11
196.94666
 21
-51.21231599999999
 31
0.0
  0
LINE
  5
159
330
27
100
AcDbEntity
  8
1
100
AcDbLine
 10
203.84666
 20
-46.21231599999999
 30
0.0
 11
196.94666
 21
-47.498031
 31
0.0
  0
LINE
  5
15A
330
27
100
AcDbEntity
  8
1
100
AcDbLine
 10
200.275231
 20
-48.562316
 30
0.0
 11
205.24666
 21
-49.48866999999999
 31
0.0
  0
LINE
  5
15B
330
27
100
AcDbEntity
  8
1
100
AcDbLine
 10
205.24666
 20
-43.81231599999999
 30
0.0
 11
205.24666
 21
-47.635963
 31
0.0
  0
LINE
  5
15C
330
27
100
AcDbEntity
  8
1
100
AcDbLine
 10
196.94666
 20
-47.498031
 30
0.0
 11
196.94666
 21
-49.626602
 31
0.0
  0
ARC
  5
15D
330
27
100
AcDbEntity
  8
1
100
AcDbCircle
 10
199.803802
 20
-60.155174
 30
0.0
 40
2.857143
100
AcDbArc
 50
180.0
 51
270.0
  0
ARC
  5
15E
330
27
100
AcDbEntity
  8
1
100
AcDbCircle
 10
199.775231
 20
-58.883745
 30
0.0
 40
1.428570999999999
100
AcDbArc
 50
180.0
 51
270.0
  0
LINE
  5
15F
330
27
100
AcDbEntity
  8
1
100
AcDbLine
 10
202.418088
 20
-57.012316
 30
0.0
 11
199.775231
 21
-57.012316
 31
0.0
  0
ARC
  5
160
330
27
100
AcDbEntity
  8
1
100
AcDbCircle
 10
202.389517
 20
-57.16945899999999
 30
0.0
 40
2.857143
100
AcDbArc
 50
0.0
 51
90.0
  0
LINE
  5
161
330
27
100
AcDbEntity
  8
1
100
AcDbLine
 10
202.389517
 20
-54.312316
 30
0.0
 11
199.803802
 21
-54.312316
 31
0.0
  0
LINE
  5
162
330
27
100
AcDbEntity
  8
1
100
AcDbLine
 10
196.94666
 20
-51.21231599999999
 30
0.0
 11
196.94666
 21
-53.91231600000001
 31
0.0
  0
LINE
  5
163
330
27
100
AcDbEntity
  8
1
100
AcDbLine
 10
197.14666
 20
-63.712316
 30
0.0
 11
197.14666
 21
-70.212316
 31
0.0
  0
LINE
  5
164
330
27
100
AcDbEntity
  8
1
100
AcDbLine
 10
200.34666
 20
-66.41231600000001
 30
0.0
 11
200.34666
 21
-70.212316
 31
0.0
  0
LINE
  5
165
330
27
100
AcDbEntity
  8
1
100
AcDbLine
 10
201.84666
 20
-66.41231600000001
 30
0.0
 11
201.84666
 21
-70.212316
 31
0.0
  0
LINE
  5
166
330
27
100
AcDbEntity
  8
1
100
AcDbLine
 10
198.64666
 20
-66.41231600000001
 30
0.0
 11
200.34666
 21
-66.41231600000001
 31
0.0
  0
LINE
  5
167
330
27
100
AcDbEntity
  8
1
100
AcDbLine
 10
201.84666
 20
-66.41231600000001
 30
0.0
 11
203.54666
 21
-66.41231600000001
 31
0.0
  0
LINE
  5
168
330
27
100
AcDbEntity
  8
1
100
AcDbLine
 10
203.54666
 20
-30.712316
 30
0.0
 11
203.54666
 21
-33.412316
 31
0.0
  0
LINE
  5
169
330
27
100
AcDbEntity
  8
1
100
AcDbLine
 10
201.84666
 20
-27.212316
 30
0.0
 11
206.94666
 21
-37.712316
 31
0.0
  0
LINE
  5
16A
330
27
100
AcDbEntity
  8
1
100
AcDbLine
 10
201.84666
 20
-27.212316
 30
0.0
 11
206.94666
 21
-27.212316
 31
0.0
  0
LINE
  5
16B
330
27
100
AcDbEntity
  8
1
100
AcDbLine
 10
203.54666
 20
-33.412316
 30
0.0
 11
196.94666
 21
-33.412316
 31
0.0
  0
LINE
  5
16C
330
27
100
AcDbEntity
  8
1
100
AcDbLine
 10
202.389517
 20
-34.112316
 30
0.0
 11
199.803802
 21
-34.112316
 31
0.0
  0
LINE
  5
16D
330
27
100
AcDbEntity
  8
1
100
AcDbLine
 10
202.389517
 20
-42.81231599999999
 30
0.0
 11
199.803802
 21
-42.81231599999999
 31
0.0
  0
LINE
  5
16E
330
27
100
AcDbEntity
  8
1
100
AcDbLine
 10
202.418088
 20
-36.812316
 30
0.0
 11
199.775231
 21
-36.812316
 31
0.0
  0
LINE
  5
16F
330
27
100
AcDbEntity
  8
1
100
AcDbLine
 10
202.418088
 20
-40.112316
 30
0.0
 11
199.775231
 21
-40.112316
 31
0.0
  0
ARC
  5
170
330
27
100
AcDbEntity
  8
1
100
AcDbCircle
 10
199.803802
 20
-36.969459
 30
0.0
 40
2.857143
100
AcDbArc
 50
90.0
 51
180.0
  0
ARC
  5
171
330
27
100
AcDbEntity
  8
1
100
AcDbCircle
 10
202.389517
 20
-39.955174
 30
0.0
 40
2.857143
100
AcDbArc
 50
270.0
 51
360.0
  0
ARC
  5
172
330
27
100
AcDbEntity
  8
1
100
AcDbCircle
 10
199.775231
 20
-38.683745
 30
0.0
 40
1.428570999999999
100
AcDbArc
 50
180.0
 51
270.0
  0
ARC
  5
173
330
27
100
AcDbEntity
  8
1
100
AcDbCircle
 10
202.418088
 20
-38.240888
 30
0.0
 40
1.428570999999999
100
AcDbArc
 50
360.0
 51
90.0
  0
LINE
  5
174
330
27
100
AcDbEntity
  8
1
100
AcDbLine
 10
196.94666
 20
-30.712316
 30
0.0
 11
196.94666
 21
-33.412316
 31
0.0
  0
LINE
  5
175
330
27
100
AcDbEntity
  8
1
100
AcDbLine
 10
205.24666
 20
-43.81231599999999
 30
0.0
 11
196.94666
 21
-43.21231599999999
 31
0.0
  0
LINE
  5
176
330
27
100
AcDbEntity
  8
1
100
AcDbLine
 10
205.24666
 20
-53.312316
 30
0.0
 11
196.94666
 21
-53.91231600000001
 31
0.0
  0
LINE
  5
177
330
27
100
AcDbEntity
  8
1
100
AcDbLine
 10
203.84666
 20
-50.912316
 30
0.0
 11
196.94666
 21
-49.626602
 31
0.0
  0
LINE
  5
178
330
27
100
AcDbEntity
  8
1
100
AcDbLine
 10
200.275231
 20
-48.562316
 30
0.0
 11
205.24666
 21
-47.635963
 31
0.0
  0
LINE
  5
179
330
27
100
AcDbEntity
  8
1
100
AcDbLine
 10
205.24666
 20
-36.969459
 30
0.0
 11
205.24666
 21
-39.955174
 31
0.0
  0
LINE
  5
17A
330
27
100
AcDbEntity
  8
1
100
AcDbLine
 10
196.94666
 20
-36.969459
 30
0.0
 11
196.94666
 21
-39.955174
 31
0.0
  0
LINE
  5
17B
330
27
100
AcDbEntity
  8
1
100
AcDbLine
 10
196.94666
 20
-43.21231599999999
 30
0.0
 11
196.94666
 21
-45.91231599999999
 31
0.0
  0
ARC
  5
17C
330
27
100
AcDbEntity
  8
1
100
AcDbCircle
 10
199.803802
 20
-57.16945899999999
 30
0.0
 40
2.857143
100
AcDbArc
 50
90.0
 51
180.0
  0
LINE
  5
17D
330
27
100
AcDbEntity
  8
1
100
AcDbLine
 10
202.418088
 20
-60.312316
 30
0.0
 11
199.775231
 21
-60.312316
 31
0.0
  0
ARC
  5
17E
330
27
100
AcDbEntity
  8
1
100
AcDbCircle
 10
199.775231
 20
-58.440888
 30
0.0
 40
1.428570999999999
100
AcDbArc
 50
90.0
 51
180.0
  0
ARC
  5
17F
330
27
100
AcDbEntity
  8
1
100
AcDbCircle
 10
202.418088
 20
-58.883745
 30
0.0
 40
1.428570999999999
100
AcDbArc
 50
270.0
 51
360.0
  0
ARC
  5
180
330
27
100
AcDbEntity
  8
1
100
AcDbCircle
 10
202.418088
 20
-58.440888
 30
0.0
 40
1.428570999999999
100
AcDbArc
 50
0.0
 51
90.0
  0
ARC
  5
181
330
27
100
AcDbEntity
  8
1
100
AcDbCircle
 10
202.389517
 20
-60.155174
 30
0.0
 40
2.857143
100
AcDbArc
 50
270.0
 51
360.0
  0
LINE
  5
182
330
27
100
AcDbEntity
  8
1
100
AcDbLine
 10
202.389517
 20
-63.01231600000001
 30
0.0
 11
199.803802
 21
-63.01231600000001
 31
0.0
  0
LINE
  5
183
330
27
100
AcDbEntity
  8
1
100
AcDbLine
 10
203.84666
 20
-38.683745
 30
0.0
 11
203.84666
 21
-38.240888
 31
0.0
  0
LINE
  5
184
330
27
100
AcDbEntity
  8
1
100
AcDbLine
 10
198.34666
 20
-38.683745
 30
0.0
 11
198.34666
 21
-38.240888
 31
0.0
  0
LINE
  5
185
330
27
100
AcDbEntity
  8
1
100
AcDbLine
 10
203.84666
 20
-58.440888
 30
0.0
 11
203.84666
 21
-58.883745
 31
0.0
  0
LINE
  5
186
330
27
100
AcDbEntity
  8
1
100
AcDbLine
 10
205.24666
 20
-49.48866999999999
 30
0.0
 11
205.24666
 21
-53.312316
 31
0.0
  0
LINE
  5
187
330
27
100
AcDbEntity
  8
1
100
AcDbLine
 10
205.24666
 20
-57.16945899999999
 30
0.0
 11
205.24666
 21
-60.155174
 31
0.0
  0
LINE
  5
188
330
27
100
AcDbEntity
  8
1
100
AcDbLine
 10
196.94666
 20
-57.16945899999999
 30
0.0
 11
196.94666
 21
-60.155174
 31
0.0
  0
LINE
  5
189
330
27
100
AcDbEntity
  8
1
100
AcDbLine
 10
205.04666
 20
-63.712316
 30
0.0
 11
197.14666
 21
-63.712316
 31
0.0
  0
LINE
  5
18A
330
27
100
AcDbEntity
  8
1
100
AcDbLine
 10
205.04666
 20
-63.712316
 30
0.0
 11
205.04666
 21
-70.212316
 31
0.0
  0
LINE
  5
18B
330
27
100
AcDbEntity
  8
1
100
AcDbLine
 10
198.64666
 20
-66.41231600000001
 30
0.0
 11
198.64666
 21
-70.212316
 31
0.0
  0
LINE
  5
18C
330
27
100
AcDbEntity
  8
1
100
AcDbLine
 10
203.54666
 20
-66.41231600000001
 30
0.0
 11
203.54666
 21
-70.212316
 31
0.0
  0
LINE
  5
18D
330
27
100
AcDbEntity
  8
1
100
AcDbLine
 10
203.54666
 20
-70.212316
 30
0.0
 11
205.04666
 21
-70.212316
 31
0.0
  0
LINE
  5
18E
330
27
100
AcDbEntity
  8
1
100
AcDbLine
 10
197.14666
 20
-70.212316
 30
0.0
 11
198.64666
 21
-70.212316
 31
0.0
  0
LINE
  5
18F
330
27
100
AcDbEntity
  8
1
100
AcDbLine
 10
200.34666
 20
-70.212316
 30
0.0
 11
201.84666
 21
-70.212316
 31
0.0
  0
LINE
  5
190
330
27
100
AcDbEntity
  8
1
100
AcDbLine
 10
203.54666
 20
-30.712316
 30
0.0
 11
196.94666
 21
-30.712316
 31
0.0
  0
LINE
  5
191
330
27
100
AcDbEntity
  8
1
100
AcDbLine
 10
206.94666
 20
-27.212316
 30
0.0
 11
206.94666
 21
-37.712316
 31
0.0
  0
LINE
  5
192
330
27
100
AcDbEntity
  8
1
100
AcDbLine
 10
198.34666
 20
-58.440888
 30
0.0
 11
198.34666
 21
-58.883745
 31
0.0
  0
LINE
  5
193
330
27
100
AcDbEntity
  8
1
  6
CENTER
 62
     2
100
AcDbLine
 10
201.94666
 20
61.231693
 30
0.0
 11
201.94666
 21
-284.816656
 31
0.0
  0
LINE
  5
194
330
27
100
AcDbEntity
  8
1
  6
CENTER
 62
     2
100
AcDbLine
 10
162.730947
 20
-143.712316
 30
0.0
 11
239.201544
 21
-143.712316
 31
0.0
  0
LINE
  5
195
330
27
100
AcDbEntity
  8
1
100
AcDbLine
 10
181.94666
 20
-78.212316
 30
0.0
 11
181.94666
 21
-209.212316
 31
0.0
  0
LINE
  5
196
330
27
100
AcDbEntity
  8
1
100
AcDbLine
 10
221.94666
 20
-78.212316
 30
0.0
 11
221.94666
 21
-209.212316
 31
0.0
  0
LINE
  5
197
330
27
100
AcDbEntity
  8
1
100
AcDbLine
 10
220.94666
 20
-276.212316
 30
0.0
 11
220.94666
 21
-208.511059
 31
0.0
  0
LINE
  5
198
330
27
100
AcDbEntity
  8
1
100
AcDbLine
 10
220.94666
 20
-78.81300300000001
 30
0.0
 11
220.94666
 21
-27.212316
 31
0.0
  0
LINE
  5
199
330
27
100
AcDbEntity
  8
1
100
AcDbLine
 10
182.94666
 20
-276.212316
 30
0.0
 11
182.94666
 21
-208.511059
 31
0.0
  0
LINE
  5
19A
330
27
100
AcDbEntity
  8
1
100
AcDbLine
 10
182.94666
 20
-78.81300300000001
 30
0.0
 11
182.94666
 21
-31.294387
 31
0.0
  0
ARC
  5
19B
330
27
100
AcDbEntity
  8
1
100
AcDbCircle
 10
223.94666
 20
-211.448384
 30
0.0
 40
3.0
100
AcDbArc
 50
131.810315
 51
180.0
  0
ARC
  5
19C
330
27
100
AcDbEntity
  8
1
100
AcDbCircle
 10
179.94666
 20
-211.448384
 30
0.0
 40
3.0
100
AcDbArc
 50
0.0
 51
48.189685
  0
ARC
  5
19D
330
27
100
AcDbEntity
  8
1
100
AcDbCircle
 10
223.94666
 20
-75.976248
 30
0.0
 40
3.0
100
AcDbArc
 50
180.0
 51
228.189685
  0
ARC
  5
19E
330
27
100
AcDbEntity
  8
1
100
AcDbCircle
 10
179.94666
 20
-75.976248
 30
0.0
 40
3.0
100
AcDbArc
 50
311.810315
 51
360.0
  0
ARC
  5
19F
330
27
100
AcDbEntity
  8
1
100
AcDbCircle
 10
224.94666
 20
-27.212316
 30
0.0
 40
4.0
100
AcDbArc
 50
90.0
 51
180.0
  0
LINE
  5
1A0
330
27
100
AcDbEntity
  8
1
100
AcDbLine
 10
187.01366
 20
-129.712316
 30
0.0
 11
216.87966
 21
-129.712316
 31
0.0
  0
LINE
  5
1A1
330
27
100
AcDbEntity
  8
1
100
AcDbLine
 10
186.94666
 20
-131.712316
 30
0.0
 11
186.94666
 21
-159.712316
 31
0.0
  0
LINE
  5
1A2
330
27
100
AcDbEntity
  8
1
100
AcDbLine
 10
216.94666
 20
-131.712316
 30
0.0
 11
216.94666
 21
-159.712316
 31
0.0
  0
ARC
  5
1A3
330
27
100
AcDbEntity
  8
1
100
AcDbCircle
 10
214.94666
 20
-131.712316
 30
0.0
 40
2.0
100
AcDbArc
 50
0.0
 51
90.0
  0
ARC
  5
1A4
330
27
100
AcDbEntity
  8
1
100
AcDbCircle
 10
188.94666
 20
-131.712316
 30
0.0
 40
2.0
100
AcDbArc
 50
90.0
 51
180.0
  0
ARC
  5
1A5
330
27
100
AcDbEntity
  8
1
100
AcDbCircle
 10
188.94666
 20
-159.712316
 30
0.0
 40
2.0
100
AcDbArc
 50
180.0
 51
270.0
  0
ARC
  5
1A6
330
27
100
AcDbEntity
  8
1
100
AcDbCircle
 10
214.94666
 20
-159.712316
 30
0.0
 40
2.0
100
AcDbArc
 50
270.0
 51
360.0
  0
LINE
  5
1A7
330
27
100
AcDbEntity
  8
1
100
AcDbLine
 10
193.84666
 20
-151.712316
 30
0.0
 11
210.04666
 21
-151.712316
 31
0.0
  0
LINE
  5
1A8
330
27
100
AcDbEntity
  8
1
100
AcDbLine
 10
191.84666
 20
-153.712316
 30
0.0
 11
191.84666
 21
-159.712316
 31
0.0
  0
LINE
  5
1A9
330
27
100
AcDbEntity
  8
1
100
AcDbLine
 10
212.04666
 20
-153.712316
 30
0.0
 11
212.04666
 21
-159.712316
 31
0.0
  0
LINE
  5
1AA
330
27
100
AcDbEntity
  8
1
100
AcDbLine
 10
188.94666
 20
-161.712316
 30
0.0
 11
189.84666
 21
-161.712316
 31
0.0
  0
LINE
  5
1AB
330
27
100
AcDbEntity
  8
1
100
AcDbLine
 10
214.04666
 20
-161.712316
 30
0.0
 11
214.94666
 21
-161.712316
 31
0.0
  0
ARC
  5
1AC
330
27
100
AcDbEntity
  8
1
100
AcDbCircle
 10
189.84666
 20
-159.712316
 30
0.0
 40
2.0
100
AcDbArc
 50
270.0
 51
360.0
  0
ARC
  5
1AD
330
27
100
AcDbEntity
  8
1
100
AcDbCircle
 10
193.84666
 20
-153.712316
 30
0.0
 40
2.0
100
AcDbArc
 50
90.0
 51
180.0
  0
ARC
  5
1AE
330
27
100
AcDbEntity
  8
1
100
AcDbCircle
 10
210.04666
 20
-153.712316
 30
0.0
 40
2.0
100
AcDbArc
 50
0.0
 51
90.0
  0
ARC
  5
1AF
330
27
100
AcDbEntity
  8
1
100
AcDbCircle
 10
214.04666
 20
-159.712316
 30
0.0
 40
2.0
100
AcDbArc
 50
180.0
 51
270.0
  0
LINE
  5
1B0
330
27
100
AcDbEntity
  8
1
100
AcDbLine
 10
191.84666
 20
-159.712316
 30
0.0
 11
192.44666
 21
-163.78726
 31
0.0
  0
LINE
  5
1B1
330
27
100
AcDbEntity
  8
1
100
AcDbLine
 10
212.04666
 20
-159.712316
 30
0.0
 11
211.44666
 21
-163.78726
 31
0.0
  0
ARC
  5
1B2
330
27
100
AcDbEntity
  8
1
100
AcDbCircle
 10
201.94666
 20
-133.465763
 30
0.0
 40
32.340784
100
AcDbArc
 50
254.215116
 51
285.784884
  0
ARC
  5
1B3
330
27
100
AcDbEntity
  8
1
100
AcDbCircle
 10
193.415507
 20
-163.644605
 30
0.0
 40
0.9792939999999999
100
AcDbArc
 50
188.37612
 51
254.215116
  0
ARC
  5
1B4
330
27
100
AcDbEntity
  8
1
100
AcDbCircle
 10
210.477812
 20
-163.644605
 30
0.0
 40
0.9792939999999999
100
AcDbArc
 50
285.784884
 51
351.62388
  0
LINE
  5
1B5
330
27
100
AcDbEntity
  8
1
100
AcDbLine
 10
191.42966
 20
-169.841585
 30
0.0
 11
191.42966
 21
-187.405464
 31
0.0
  0
LINE
  5
1B6
330
27
100
AcDbEntity
  8
1
100
AcDbLine
 10
212.46366
 20
-169.841585
 30
0.0
 11
212.46366
 21
-187.405464
 31
0.0
  0
LINE
  5
1B7
330
27
100
AcDbEntity
  8
1
100
AcDbLine
 10
194.42966
 20
-166.841585
 30
0.0
 11
209.46366
 21
-166.841585
 31
0.0
  0
LINE
  5
1B8
330
27
100
AcDbEntity
  8
1
100
AcDbLine
 10
194.42966
 20
-190.405464
 30
0.0
 11
209.46366
 21
-190.405464
 31
0.0
  0
ARC
  5
1B9
330
27
100
AcDbEntity
  8
1
100
AcDbCircle
 10
209.46366
 20
-169.841585
 30
0.0
 40
3.0
100
AcDbArc
 50
0.0
 51
90.0
  0
ARC
  5
1BA
330
27
100
AcDbEntity
  8
1
100
AcDbCircle
 10
194.42966
 20
-169.841585
 30
0.0
 40
3.0
100
AcDbArc
 50
90.0
 51
180.0
  0
ARC
  5
1BB
330
27
100
AcDbEntity
  8
1
100
AcDbCircle
 10
194.42966
 20
-187.405464
 30
0.0
 40
3.0
100
AcDbArc
 50
180.0
 51
270.0
  0
ARC
  5
1BC
330
27
100
AcDbEntity
  8
1
100
AcDbCircle
 10
209.46366
 20
-187.405464
 30
0.0
 40
3.0
100
AcDbArc
 50
270.0
 51
360.0
  0
LINE
  5
1BD
330
27
100
AcDbEntity
  8
1
100
AcDbLine
 10
185.01366
 20
-131.712316
 30
0.0
 11
185.01366
 21
-161.5938929999999
 31
0.0
  0
LINE
  5
1BE
330
27
100
AcDbEntity
  8
1
100
AcDbLine
 10
218.87966
 20
-131.712316
 30
0.0
 11
218.87966
 21
-161.5938929999999
 31
0.0
  0
ARC
  5
1BF
330
27
100
AcDbEntity
  8
1
100
AcDbCircle
 10
216.87966
 20
-131.712316
 30
0.0
 40
2.0
100
AcDbArc
 50
0.0
 51
90.0
  0
ARC
  5
1C0
330
27
100
AcDbEntity
  8
1
100
AcDbCircle
 10
187.01366
 20
-131.712316
 30
0.0
 40
2.0
100
AcDbArc
 50
90.0
 51
180.0
  0
ARC
  5
1C1
330
27
100
AcDbEntity
  8
1
100
AcDbCircle
 10
216.87966
 20
-161.5938929999999
 30
0.0
 40
2.0
100
AcDbArc
 50
270.0
 51
360.0
  0
ARC
  5
1C2
330
27
100
AcDbEntity
  8
1
100
AcDbCircle
 10
187.01366
 20
-161.5938929999999
 30
0.0
 40
2.0
100
AcDbArc
 50
180.0
 51
270.0
  0
LINE
  5
1C3
330
27
100
AcDbEntity
  8
1
100
AcDbLine
 10
217.851834
 20
-162.593411
 30
0.0
 11
216.94666
 21
-161.712316
 31
0.0
  0
LINE
  5
1C4
330
27
100
AcDbEntity
  8
1
100
AcDbLine
 10
186.041485
 20
-162.593411
 30
0.0
 11
186.94666
 21
-161.712316
 31
0.0
  0
LINE
  5
1C5
330
27
100
AcDbEntity
  8
1
100
AcDbLine
 10
187.01366
 20
-163.593893
 30
0.0
 11
187.94666
 21
-163.593893
 31
0.0
  0
LINE
  5
1C6
330
27
100
AcDbEntity
  8
1
100
AcDbLine
 10
215.94666
 20
-163.593893
 30
0.0
 11
216.87966
 21
-163.593893
 31
0.0
  0
ARC
  5
1C7
330
27
100
AcDbEntity
  8
1
100
AcDbCircle
 10
211.94666
 20
-167.593893
 30
0.0
 40
4.0
100
AcDbArc
 50
0.0
 51
90.0
  0
ARC
  5
1C8
330
27
100
AcDbEntity
  8
1
100
AcDbCircle
 10
191.94666
 20
-167.593893
 30
0.0
 40
4.0
100
AcDbArc
 50
90.0
 51
180.0
  0
LINE
  5
1C9
330
27
100
AcDbEntity
  8
1
100
AcDbLine
 10
190.94666
 20
-204.760383
 30
0.0
 11
212.94666
 21
-204.760383
 31
0.0
  0
ARC
  5
1CA
330
27
100
AcDbEntity
  8
1
100
AcDbCircle
 10
190.94666
 20
-201.760383
 30
0.0
 40
3.0
100
AcDbArc
 50
180.0
 51
270.0
  0
ARC
  5
1CB
330
27
100
AcDbEntity
  8
1
100
AcDbCircle
 10
212.94666
 20
-201.760383
 30
0.0
 40
3.0
100
AcDbArc
 50
270.0
 51
360.0
  0
LINE
  5
1CC
330
27
100
AcDbEntity
  8
1
100
AcDbLine
 10
191.42966
 20
-190.405464
 30
0.0
 11
188.674563
 21
-201.760383
 31
0.0
  0
LINE
  5
1CD
330
27
100
AcDbEntity
  8
1
100
AcDbLine
 10
212.46366
 20
-190.405464
 30
0.0
 11
215.218756
 21
-201.760383
 31
0.0
  0
LINE
  5
1CE
330
27
100
AcDbEntity
  8
1
100
AcDbLine
 10
212.46366
 20
-166.841585
 30
0.0
 11
213.909107
 21
-165.49379
 31
0.0
  0
LINE
  5
1CF
330
27
100
AcDbEntity
  8
1
100
AcDbLine
 10
191.42966
 20
-166.841585
 30
0.0
 11
189.984212
 21
-165.49379
 31
0.0
  0
ARC
  5
1D0
330
27
100
AcDbEntity
  8
1
100
AcDbCircle
 10
179.94666
 20
-208.511059
 30
0.0
 40
3.0
100
AcDbArc
 50
0.0
 51
48.189685
  0
ARC
  5
1D1
330
27
100
AcDbEntity
  8
1
100
AcDbCircle
 10
223.94666
 20
-208.511059
 30
0.0
 40
3.0
100
AcDbArc
 50
131.810315
 51
180.0
  0
LINE
  5
1D2
330
27
100
AcDbEntity
  8
1
100
AcDbLine
 10
201.94666
 20
-204.760383
 30
0.0
 11
182.94666
 21
-206.19926
 31
0.0
  0
LINE
  5
1D3
330
27
100
AcDbEntity
  8
1
100
AcDbLine
 10
201.94666
 20
-204.760383
 30
0.0
 11
220.94666
 21
-206.19926
 31
0.0
  0
LINE
  5
1D4
330
27
100
AcDbEntity
  8
1
100
AcDbLine
 10
199.44666
 20
-213.420637
 30
0.0
 11
204.44666
 21
-213.420637
 31
0.0
  0
LINE
  5
1D5
330
27
100
AcDbEntity
  8
1
100
AcDbLine
 10
199.44666
 20
-215.420637
 30
0.0
 11
199.44666
 21
-261.869581
 31
0.0
  0
LINE
  5
1D6
330
27
100
AcDbEntity
  8
1
100
AcDbLine
 10
204.44666
 20
-215.420637
 30
0.0
 11
204.44666
 21
-261.869581
 31
0.0
  0
ARC
  5
1D7
330
27
100
AcDbEntity
  8
1
100
AcDbCircle
 10
206.44666
 20
-215.420637
 30
0.0
 40
2.0
100
AcDbArc
 50
90.0
 51
180.0
  0
ARC
  5
1D8
330
27
100
AcDbEntity
  8
1
100
AcDbCircle
 10
197.44666
 20
-215.420637
 30
0.0
 40
2.0
100
AcDbArc
 50
0.0
 51
90.0
  0
LINE
  5
1D9
330
27
100
AcDbEntity
  8
1
100
AcDbLine
 10
201.44666
 20
-226.986744
 30
0.0
 11
202.44666
 21
-226.986744
 31
0.0
  0
ARC
  5
1DA
330
27
100
AcDbEntity
  8
1
100
AcDbCircle
 10
202.44666
 20
-228.986744
 30
0.0
 40
2.0
100
AcDbArc
 50
0.0
 51
90.0
  0
ARC
  5
1DB
330
27
100
AcDbEntity
  8
1
100
AcDbCircle
 10
201.44666
 20
-228.986744
 30
0.0
 40
2.0
100
AcDbArc
 50
90.0
 51
180.0
  0
LINE
  5
1DC
330
27
100
AcDbEntity
  8
1
100
AcDbLine
 10
194.42966
 20
-97.019169
 30
0.0
 11
209.46366
 21
-97.019169
 31
0.0
  0
LINE
  5
1DD
330
27
100
AcDbEntity
  8
1
100
AcDbLine
 10
191.42966
 20
-126.712316
 30
0.0
 11
191.42966
 21
-100.019169
 31
0.0
  0
LINE
  5
1DE
330
27
100
AcDbEntity
  8
1
100
AcDbLine
 10
212.46366
 20
-126.712316
 30
0.0
 11
212.46366
 21
-108.803985
 31
0.0
  0
ARC
  5
1DF
330
27
100
AcDbEntity
  8
1
100
AcDbCircle
 10
209.46366
 20
-100.019169
 30
0.0
 40
3.0
100
AcDbArc
 50
6.102485999999999
 51
90.0
  0
ARC
  5
1E0
330
27
100
AcDbEntity
  8
1
100
AcDbCircle
 10
194.42966
 20
-100.019169
 30
0.0
 40
3.0
100
AcDbArc
 50
90.0
 51
180.0
  0
ARC
  5
1E1
330
27
100
AcDbEntity
  8
1
100
AcDbCircle
 10
209.46366
 20
-126.712316
 30
0.0
 40
3.0
100
AcDbArc
 50
270.0
 51
360.0
  0
ARC
  5
1E2
330
27
100
AcDbEntity
  8
1
100
AcDbCircle
 10
194.42966
 20
-126.712316
 30
0.0
 40
3.0
100
AcDbArc
 50
180.0
 51
270.0
  0
LINE
  5
1E3
330
27
100
AcDbEntity
  8
1
100
AcDbLine
 10
181.94666
 20
-185.514673
 30
0.0
 11
187.94666
 21
-185.514673
 31
0.0
  0
LINE
  5
1E4
330
27
100
AcDbEntity
  8
1
100
AcDbLine
 10
215.94666
 20
-185.514673
 30
0.0
 11
221.94666
 21
-185.514673
 31
0.0
  0
LINE
  5
1E5
330
27
100
AcDbEntity
  8
1
100
AcDbLine
 10
181.94666
 20
-194.138629
 30
0.0
 11
187.94666
 21
-194.138629
 31
0.0
  0
LINE
  5
1E6
330
27
100
AcDbEntity
  8
1
100
AcDbLine
 10
215.94666
 20
-194.138629
 30
0.0
 11
221.94666
 21
-194.138629
 31
0.0
  0
LINE
  5
1E7
330
27
100
AcDbEntity
  8
1
100
AcDbLine
 10
215.94666
 20
-201.760383
 30
0.0
 11
215.94666
 21
-194.138629
 31
0.0
  0
LINE
  5
1E8
330
27
100
AcDbEntity
  8
1
100
AcDbLine
 10
215.94666
 20
-185.514673
 30
0.0
 11
215.94666
 21
-167.593893
 31
0.0
  0
LINE
  5
1E9
330
27
100
AcDbEntity
  8
1
100
AcDbLine
 10
187.94666
 20
-201.760383
 30
0.0
 11
187.94666
 21
-194.138629
 31
0.0
  0
LINE
  5
1EA
330
27
100
AcDbEntity
  8
1
100
AcDbLine
 10
187.94666
 20
-185.514673
 30
0.0
 11
187.94666
 21
-167.593893
 31
0.0
  0
ARC
  5
1EB
330
27
100
AcDbEntity
  8
1
100
AcDbCircle
 10
241.405991
 20
-188.260044
 30
0.0
 40
26.129204
100
AcDbArc
 50
180.0
 51
193.001785
  0
ARC
  5
1EC
330
27
100
AcDbEntity
  8
1
100
AcDbCircle
 10
221.237462
 20
-188.260044
 30
0.0
 40
5.960676
100
AcDbArc
 50
152.575428
 51
180.0
  0
ARC
  5
1ED
330
27
100
AcDbEntity
  8
1
100
AcDbCircle
 10
162.487328
 20
-188.260044
 30
0.0
 40
26.129204
100
AcDbArc
 50
346.998215
 51
0.0
  0
ARC
  5
1EE
330
27
100
AcDbEntity
  8
1
100
AcDbCircle
 10
182.655857
 20
-188.260044
 30
0.0
 40
5.960676
100
AcDbArc
 50
0.0
 51
27.424572
  0
LINE
  5
1EF
330
27
100
AcDbEntity
  8
1
100
AcDbLine
 10
181.94666
 20
-101.90996
 30
0.0
 11
187.94666
 21
-101.90996
 31
0.0
  0
LINE
  5
1F0
330
27
100
AcDbEntity
  8
1
100
AcDbLine
 10
215.94666
 20
-101.90996
 30
0.0
 11
221.94666
 21
-101.90996
 31
0.0
  0
LINE
  5
1F1
330
27
100
AcDbEntity
  8
1
100
AcDbLine
 10
181.94666
 20
-93.286004
 30
0.0
 11
187.94666
 21
-93.286004
 31
0.0
  0
LINE
  5
1F2
330
27
100
AcDbEntity
  8
1
100
AcDbLine
 10
217.94666
 20
-93.286004
 30
0.0
 11
221.94666
 21
-93.286004
 31
0.0
  0
LINE
  5
1F3
330
27
100
AcDbEntity
  8
1
100
AcDbLine
 10
215.94666
 20
-101.90996
 30
0.0
 11
215.94666
 21
-125.712316
 31
0.0
  0
LINE
  5
1F4
330
27
100
AcDbEntity
  8
1
100
AcDbLine
 10
187.94666
 20
-101.90996
 30
0.0
 11
187.94666
 21
-125.712316
 31
0.0
  0
ARC
  5
1F5
330
27
100
AcDbEntity
  8
1
100
AcDbCircle
 10
221.237462
 20
-99.16458900000002
 30
0.0
 40
5.960676
100
AcDbArc
 50
180.0
 51
207.424572
  0
ARC
  5
1F6
330
27
100
AcDbEntity
  8
1
100
AcDbCircle
 10
162.487328
 20
-99.16458900000002
 30
0.0
 40
26.129204
100
AcDbArc
 50
360.0
 51
13.001785
  0
ARC
  5
1F7
330
27
100
AcDbEntity
  8
1
100
AcDbCircle
 10
182.655857
 20
-99.16458900000002
 30
0.0
 40
5.960676
100
AcDbArc
 50
332.575428
 51
360.0
  0
ARC
  5
1F8
330
27
100
AcDbEntity
  8
1
100
AcDbCircle
 10
211.94666
 20
-125.712316
 30
0.0
 40
4.0
100
AcDbArc
 50
270.0
 51
360.0
  0
ARC
  5
1F9
330
27
100
AcDbEntity
  8
1
100
AcDbCircle
 10
191.94666
 20
-125.712316
 30
0.0
 40
4.0
100
AcDbArc
 50
180.0
 51
270.0
  0
LINE
  5
1FA
330
27
100
AcDbEntity
  8
1
100
AcDbLine
 10
187.94666
 20
-93.286004
 30
0.0
 11
187.94666
 21
-84.919931
 31
0.0
  0
ARC
  5
1FB
330
27
100
AcDbEntity
  8
1
100
AcDbCircle
 10
187.806464
 20
-84.12208699999998
 30
0.0
 40
0.810068
100
AcDbArc
 50
279.966134
 51
338.770665
  0
LINE
  5
1FC
330
27
100
AcDbEntity
  8
1
100
AcDbLine
 10
181.94666
 20
-84.919931
 30
0.0
 11
187.94666
 21
-84.919931
 31
0.0
  0
LINE
  5
1FD
330
27
100
AcDbEntity
  8
1
100
AcDbLine
 10
220.44666
 20
-84.919931
 30
0.0
 11
221.94666
 21
-84.919931
 31
0.0
  0
LINE
  5
1FE
330
27
100
AcDbEntity
  8
1
100
AcDbLine
 10
190.891906
 20
-82.820668
 30
0.0
 11
210.44666
 21
-82.820668
 31
0.0
  0
ARC
  5
1FF
330
27
100
AcDbEntity
  8
1
100
AcDbCircle
 10
190.891906
 20
-85.320668
 30
0.0
 40
2.5
100
AcDbArc
 50
90.0
 51
158.770665
  0
ARC
  5
200
330
27
100
AcDbEntity
  8
1
100
AcDbCircle
 10
215.238232
 20
-27.212316
 30
0.0
 40
4.0
100
AcDbArc
 50
90.0
 51
183.459162
  0
ARC
  5
201
330
27
100
AcDbEntity
  8
1
100
AcDbCircle
 10
188.655087
 20
-27.212316
 30
0.0
 40
4.0
100
AcDbArc
 50
356.540838
 51
90.0
  0
LINE
  5
202
330
27
100
AcDbEntity
  8
1
100
AcDbLine
 10
188.461625
 20
-84.919931
 30
0.0
 11
191.42966
 21
-97.019169
 31
0.0
  0
ARC
  5
203
330
27
100
AcDbEntity
  8
1
100
AcDbCircle
 10
223.94666
 20
-78.81300300000001
 30
0.0
 40
3.0
100
AcDbArc
 50
180.0
 51
228.189685
  0
ARC
  5
204
330
27
100
AcDbEntity
  8
1
100
AcDbCircle
 10
179.94666
 20
-78.81300300000001
 30
0.0
 40
3.0
100
AcDbArc
 50
311.810315
 51
360.0
  0
LINE
  5
205
330
27
100
AcDbEntity
  8
1
100
AcDbLine
 10
182.94666
 20
-81.13986800000001
 30
0.0
 11
188.426
 21
-81.63737600000001
 31
0.0
  0
LINE
  5
206
330
27
100
AcDbEntity
  8
1
100
AcDbLine
 10
190.051545
 20
-70.404437
 30
0.0
 11
212.44666
 21
-70.404437
 31
0.0
  0
ARC
  5
207
330
27
100
AcDbEntity
  8
1
100
AcDbCircle
 10
197.485251
 20
-74.421351
 30
0.0
 40
8.449591999999999
100
AcDbArc
 50
151.614766
 51
180.0
  0
LINE
  5
208
330
27
100
AcDbEntity
  8
1
100
AcDbLine
 10
189.565922
 20
-78.43826599999999
 30
0.0
 11
212.44666
 21
-78.43826599999999
 31
0.0
  0
ARC
  5
209
330
27
100
AcDbEntity
  8
1
100
AcDbCircle
 10
204.51553
 20
-74.421351
 30
0.0
 40
15.47987
100
AcDbArc
 50
180.0
 51
195.039968
  0
LINE
  5
20A
330
27
100
AcDbEntity
  8
1
100
AcDbLine
 10
211.24552
 20
-27.453665
 30
0.0
 11
211.770955
 21
-36.14612800000001
 31
0.0
  0
LINE
  5
20B
330
27
100
AcDbEntity
  8
1
100
AcDbLine
 10
189.424178
 20
-80.78318799999999
 30
0.0
 11
189.565922
 21
-78.43826599999999
 31
0.0
  0
LINE
  5
20C
330
27
100
AcDbEntity
  8
1
100
AcDbLine
 10
190.051545
 20
-70.404437
 30
0.0
 11
192.647799
 21
-27.453665
 31
0.0
  0
ARC
  5
20D
330
27
100
AcDbEntity
  8
1
100
AcDbCircle
 10
188.426
 20
-80.722851
 30
0.0
 40
1.0
100
AcDbArc
 50
270.0
 51
356.540838
  0
LINE
  5
20E
330
27
100
AcDbEntity
  8
1
100
AcDbLine
 10
209.94666
 20
-151.712316
 30
0.0
 11
209.94666
 21
-161.112316
 31
0.0
  0
LINE
  5
20F
330
27
100
AcDbEntity
  8
1
100
AcDbLine
 10
209.94666
 20
-161.112316
 30
0.0
 11
208.907429
 21
-161.712316
 31
0.0
  0
LINE
  5
210
330
27
100
AcDbEntity
  8
1
100
AcDbLine
 10
209.94666
 20
-161.112316
 30
0.0
 11
193.94666
 21
-161.112316
 31
0.0
  0
LINE
  5
211
330
27
100
AcDbEntity
  8
1
100
AcDbLine
 10
206.13466
 20
-126.712316
 30
0.0
 11
197.75866
 21
-126.712316
 31
0.0
  0
LINE
  5
212
330
27
100
AcDbEntity
  8
1
100
AcDbLine
 10
206.13466
 20
-126.712316
 30
0.0
 11
206.94666
 21
-127.524316
 31
0.0
  0
LINE
  5
213
330
27
100
AcDbEntity
  8
1
100
AcDbLine
 10
206.94666
 20
-127.524316
 30
0.0
 11
206.94666
 21
-129.712316
 31
0.0
  0
LINE
  5
214
330
27
100
AcDbEntity
  8
1
 62
     2
100
AcDbLine
 10
206.13466
 20
-126.712316
 30
0.0
 11
206.13466
 21
-129.712316
 31
0.0
  0
LINE
  5
215
330
27
100
AcDbEntity
  8
1
100
AcDbLine
 10
193.94666
 20
-151.712316
 30
0.0
 11
193.94666
 21
-161.112316
 31
0.0
  0
LINE
  5
216
330
27
100
AcDbEntity
  8
1
100
AcDbLine
 10
193.94666
 20
-161.112316
 30
0.0
 11
194.98589
 21
-161.712316
 31
0.0
  0
LINE
  5
217
330
27
100
AcDbEntity
  8
1
100
AcDbLine
 10
194.98589
 20
-161.712316
 30
0.0
 11
208.907429
 21
-161.712316
 31
0.0
  0
LINE
  5
218
330
27
100
AcDbEntity
  8
1
100
AcDbLine
 10
197.75866
 20
-126.712316
 30
0.0
 11
196.94666
 21
-127.524316
 31
0.0
  0
LINE
  5
219
330
27
100
AcDbEntity
  8
1
100
AcDbLine
 10
196.94666
 20
-127.524316
 30
0.0
 11
196.94666
 21
-129.712316
 31
0.0
  0
LINE
  5
21A
330
27
100
AcDbEntity
  8
1
100
AcDbLine
 10
196.94666
 20
-127.524316
 30
0.0
 11
206.94666
 21
-127.524316
 31
0.0
  0
LINE
  5
21B
330
27
100
AcDbEntity
  8
1
 62
     2
100
AcDbLine
 10
197.75866
 20
-126.712316
 30
0.0
 11
197.75866
 21
-129.712316
 31
0.0
  0
LINE
  5
21C
330
27
100
AcDbEntity
  8
1
100
AcDbLine
 10
178.076044
 20
-34.212316
 30
0.0
 11
180.135893
 21
-38.62967800000001
 31
0.0
  0
LINE
  5
21D
330
27
100
AcDbEntity
  8
1
100
AcDbLine
 10
229.416909
 20
-26.492877
 30
0.0
 11
223.757426
 21
-38.62967800000001
 31
0.0
  0
ARC
  5
21E
330
27
100
AcDbEntity
  8
1
100
AcDbCircle
 10
152.94666
 20
-51.308225
 30
0.0
 40
30.0
100
AcDbArc
 50
0.0
 51
25.0
  0
ARC
  5
21F
330
27
100
AcDbEntity
  8
1
100
AcDbCircle
 10
250.94666
 20
-51.308225
 30
0.0
 40
30.0
100
AcDbArc
 50
155.0
 51
180.0
  0
ARC
  5
220
330
27
100
AcDbEntity
  8
1
100
AcDbCircle
 10
234.854756
 20
-29.028587
 30
0.0
 40
6.0
100
AcDbArc
 50
101.000035
 51
155.0
  0
LINE
  5
221
330
27
100
AcDbEntity
  8
1
100
AcDbLine
 10
181.94666
 20
-81.72285100000001
 30
0.0
 11
210.44666
 21
-81.72285100000001
 31
0.0
  0
LINE
  5
222
330
27
100
AcDbEntity
  8
1
100
AcDbLine
 10
220.44666
 20
-81.72285100000001
 30
0.0
 11
221.94666
 21
-81.72285100000001
 31
0.0
  0
ARC
  5
223
330
27
100
AcDbEntity
  8
1
100
AcDbCircle
 10
217.94666
 20
-95.286004
 30
0.0
 40
2.0
100
AcDbArc
 50
90.0
 51
160.402153
  0
ARC
  5
224
330
27
100
AcDbEntity
  8
1
100
AcDbCircle
 10
220.44666
 20
-91.28600400000001
 30
0.0
 40
2.0
100
AcDbArc
 50
180.0
 51
270.0
  0
ARC
  5
225
330
27
100
AcDbEntity
  8
1
100
AcDbCircle
 10
228.840288
 20
-99.16458900000002
 30
0.0
 40
13.563502
100
AcDbArc
 50
160.402153
 51
180.0
  0
LINE
  5
226
330
27
100
AcDbEntity
  8
1
100
AcDbLine
 10
212.675309
 20
-107.861013
 30
0.0
 11
215.664869
 21
-94.54148100000001
 31
0.0
  0
LINE
  5
227
330
27
100
AcDbEntity
  8
1
100
AcDbLine
 10
214.44666
 20
-58.894977
 30
0.0
 11
216.44666
 21
-58.894977
 31
0.0
  0
ARC
  5
228
330
27
100
AcDbEntity
  8
1
100
AcDbCircle
 10
216.44666
 20
-60.894977
 30
0.0
 40
2.0
100
AcDbArc
 50
0.0
 51
90.0
  0
ARC
  5
229
330
27
100
AcDbEntity
  8
1
100
AcDbCircle
 10
214.44666
 20
-60.894977
 30
0.0
 40
2.0
100
AcDbArc
 50
90.0
 51
180.0
  0
ARC
  5
22A
330
27
100
AcDbEntity
  8
1
100
AcDbCircle
 10
210.44666
 20
-79.722851
 30
0.0
 40
2.0
100
AcDbArc
 50
270.0
 51
360.0
  0
ARC
  5
22B
330
27
100
AcDbEntity
  8
1
100
AcDbCircle
 10
220.44666
 20
-79.722851
 30
0.0
 40
2.0
100
AcDbArc
 50
180.0
 51
270.0
  0
ARC
  5
22C
330
27
100
AcDbEntity
  8
1
100
AcDbCircle
 10
220.44666
 20
-82.919931
 30
0.0
 40
2.0
100
AcDbArc
 50
180.0
 51
270.0
  0
ARC
  5
22D
330
27
100
AcDbEntity
  8
1
100
AcDbCircle
 10
210.44666
 20
-80.82066800000001
 30
0.0
 40
2.0
100
AcDbArc
 50
270.0
 51
360.0
  0
LINE
  5
22E
330
27
100
AcDbEntity
  8
1
100
AcDbLine
 10
214.44666
 20
-82.341571
 30
0.0
 11
216.44666
 21
-82.341571
 31
0.0
  0
ARC
  5
22F
330
27
100
AcDbEntity
  8
1
100
AcDbCircle
 10
216.44666
 20
-80.34157099999999
 30
0.0
 40
2.0
100
AcDbArc
 50
270.0
 51
360.0
  0
ARC
  5
230
330
27
100
AcDbEntity
  8
1
100
AcDbCircle
 10
214.44666
 20
-80.34157099999999
 30
0.0
 40
2.0
100
AcDbArc
 50
180.0
 51
270.0
  0
LINE
  5
231
330
27
100
AcDbEntity
  8
1
100
AcDbLine
 10
218.44666
 20
-38.14612800000001
 30
0.0
 11
218.44666
 21
-91.28600400000001
 31
0.0
  0
LINE
  5
232
330
27
100
AcDbEntity
  8
1
100
AcDbLine
 10
212.44666
 20
-38.14612800000001
 30
0.0
 11
212.44666
 21
-106.803985
 31
0.0
  0
LINE
  5
233
330
27
100
AcDbEntity
  8
1
100
AcDbLine
 10
212.44666
 20
-36.14612800000001
 30
0.0
 11
218.44666
 21
-36.14612800000001
 31
0.0
  0
ARC
  5
234
330
27
100
AcDbEntity
  8
1
100
AcDbCircle
 10
220.44666
 20
-38.14612800000001
 30
0.0
 40
2.0
100
AcDbArc
 50
90.0
 51
180.0
  0
ARC
  5
235
330
27
100
AcDbEntity
  8
1
100
AcDbCircle
 10
210.44666
 20
-38.14612800000001
 30
0.0
 40
2.0
100
AcDbArc
 50
0.0
 51
90.0
  0
ARC
  5
236
330
27
100
AcDbEntity
  8
1
100
AcDbCircle
 10
210.44666
 20
-106.803985
 30
0.0
 40
2.0
100
AcDbArc
 50
270.0
 51
360.0
  0
LINE
  5
237
330
27
100
AcDbEntity
  8
1
100
AcDbLine
 10
224.94666
 20
-81.21231599999999
 30
0.0
 11
224.94666
 21
-206.212316
 31
0.0
  0
LINE
  5
238
330
27
100
AcDbEntity
  8
1
100
AcDbLine
 10
178.94666
 20
-81.21231599999999
 30
0.0
 11
178.94666
 21
-206.212316
 31
0.0
  0
LINE
  5
239
330
27
100
AcDbEntity
  8
1
100
AcDbLine
 10
178.94666
 20
-81.21231599999999
 30
0.0
 11
181.94666
 21
-81.21231599999999
 31
0.0
  0
LINE
  5
23A
330
27
100
AcDbEntity
  8
1
100
AcDbLine
 10
221.94666
 20
-81.21231599999999
 30
0.0
 11
224.94666
 21
-81.21231599999999
 31
0.0
  0
LINE
  5
23B
330
27
100
AcDbEntity
  8
1
100
AcDbLine
 10
178.94666
 20
-206.212316
 30
0.0
 11
181.94666
 21
-206.212316
 31
0.0
  0
LINE
  5
23C
330
27
100
AcDbEntity
  8
1
100
AcDbLine
 10
221.94666
 20
-206.212316
 30
0.0
 11
224.94666
 21
-206.212316
 31
0.0
  0
LINE
  5
23D
330
27
100
AcDbEntity
  8
1
100
AcDbLine
 10
221.94666
 20
-143.712316
 30
0.0
 11
181.94666
 21
-143.712316
 31
0.0
  0
LINE
  5
23E
330
27
100
AcDbEntity
  8
1
100
AcDbLine
 10
199.44666
 20
-263.869581
 30
0.0
 11
204.44666
 21
-263.869581
 31
0.0
  0
ARC
  5
23F
330
27
100
AcDbEntity
  8
1
100
AcDbCircle
 10
206.44666
 20
-261.869581
 30
0.0
 40
2.0
100
AcDbArc
 50
180.0
 51
270.0
  0
ARC
  5
240
330
27
100
AcDbEntity
  8
1
100
AcDbCircle
 10
197.44666
 20
-261.869581
 30
0.0
 40
2.0
100
AcDbArc
 50
270.0
 51
360.0
  0
LINE
  5
241
330
27
100
AcDbEntity
  8
1
100
AcDbLine
 10
201.44666
 20
-235.986439
 30
0.0
 11
202.44666
 21
-235.986439
 31
0.0
  0
ARC
  5
242
330
27
100
AcDbEntity
  8
1
100
AcDbCircle
 10
202.44666
 20
-233.986439
 30
0.0
 40
2.0
100
AcDbArc
 50
270.0
 51
360.0
  0
ARC
  5
243
330
27
100
AcDbEntity
  8
1
100
AcDbCircle
 10
201.44666
 20
-233.986439
 30
0.0
 40
2.0
100
AcDbArc
 50
180.0
 51
270.0
  0
LINE
  5
244
330
27
100
AcDbEntity
  8
1
100
AcDbLine
 10
200.94666
 20
-258.234351
 30
0.0
 11
202.94666
 21
-258.234351
 31
0.0
  0
LINE
  5
245
330
27
100
AcDbEntity
  8
1
100
AcDbLine
 10
201.44666
 20
-261.040948
 30
0.0
 11
202.44666
 21
-261.040948
 31
0.0
  0
ARC
  5
246
330
27
100
AcDbEntity
  8
1
100
AcDbCircle
 10
202.44666
 20
-259.040948
 30
0.0
 40
2.0
100
AcDbArc
 50
270.0
 51
360.0
  0
ARC
  5
247
330
27
100
AcDbEntity
  8
1
100
AcDbCircle
 10
201.44666
 20
-259.040948
 30
0.0
 40
2.0
100
AcDbArc
 50
180.0
 51
270.0
  0
LINE
  5
248
330
27
100
AcDbEntity
  8
1
100
AcDbLine
 10
182.94666
 20
-276.212316
 30
0.0
 11
220.94666
 21
-276.212316
 31
0.0
  0
LINE
  5
249
330
27
100
AcDbEntity
  8
2
  6
CENTER
 62
     2
100
AcDbLine
 10
-239.360803
 20
189.324213
 30
0.0
 11
-239.360803
 21
313.427193
 31
0.0
  0
LINE
  5
24A
330
27
100
AcDbEntity
  8
2
  6
CENTER
 62
     2
100
AcDbLine
 10
-332.530204
 20
246.330387
 30
0.0
 11
-29.789832
 21
246.330387
 31
0.0
  0
ARC
  5
24B
330
27
100
AcDbEntity
  8
2
100
AcDbCircle
 10
-274.360803
 20
246.330387
 30
0.0
 40
2.0
100
AcDbArc
 50
111.803748
 51
248.196252
  0
LINE
  5
24C
330
27
100
AcDbEntity
  8
2
100
AcDbLine
 10
-275.10366
 20
248.18731
 30
0.0
 11
-244.932231
 21
260.25731
 31
0.0
  0
LINE
  5
24D
330
27
100
AcDbEntity
  8
2
100
AcDbLine
 10
-275.10366
 20
244.473464
 30
0.0
 11
-246.617946
 21
233.07783
 31
0.0
  0
LINE
  5
24E
330
27
100
AcDbEntity
  8
2
100
AcDbLine
 10
-244.360803
 20
229.330387
 30
0.0
 11
-234.360803
 21
229.330387
 31
0.0
  0
ARC
  5
24F
330
27
100
AcDbEntity
  8
2
100
AcDbCircle
 10
-239.360803
 20
246.330387
 30
0.0
 40
15.0
100
AcDbArc
 50
298.072487
 51
241.927513
  0
LINE
  5
250
330
27
100
AcDbEntity
  8
2
100
AcDbLine
 10
-245.360803
 20
230.330387
 30
0.0
 11
-245.360803
 21
233.681276
 31
0.0
  0
LINE
  5
251
330
27
100
AcDbEntity
  8
2
100
AcDbLine
 10
-233.360803
 20
230.330387
 30
0.0
 11
-233.360803
 21
233.681276
 31
0.0
  0
ARC
  5
252
330
27
100
AcDbEntity
  8
2
100
AcDbCircle
 10
-244.360803
 20
230.330387
 30
0.0
 40
1.0
100
AcDbArc
 50
180.0
 51
270.0
  0
ARC
  5
253
330
27
100
AcDbEntity
  8
2
100
AcDbCircle
 10
-247.360803
 20
231.220906
 30
0.0
 40
2.0
100
AcDbArc
 50
0.0
 51
68.196252
  0
ARC
  5
254
330
27
100
AcDbEntity
  8
2
100
AcDbCircle
 10
-231.360803
 20
231.330387
 30
0.0
 40
2.0
100
AcDbArc
 50
118.072487
 51
180.0
  0
ARC
  5
255
330
27
100
AcDbEntity
  8
2
100
AcDbCircle
 10
-247.360803
 20
231.330387
 30
0.0
 40
2.0
100
AcDbArc
 50
0.0
 51
61.92751300000001
  0
LINE
  5
256
330
27
100
AcDbEntity
  8
2
100
AcDbLine
 10
-238.966066
 20
261.325192
 30
0.0
 11
-49.097645
 21
256.326924
 31
0.0
  0
ARC
  5
257
330
27
100
AcDbEntity
  8
2
100
AcDbCircle
 10
-144.860803
 20
232.830387
 30
0.0
 40
0.5
100
AcDbArc
 50
270.0
 51
360.0
  0
ARC
  5
258
330
27
100
AcDbEntity
  8
2
100
AcDbCircle
 10
-153.860803
 20
232.830387
 30
0.0
 40
0.5
100
AcDbArc
 50
167.306936
 51
270.0
  0
LINE
  5
259
330
27
100
AcDbEntity
  8
2
100
AcDbLine
 10
-153.860803
 20
232.330387
 30
0.0
 11
-144.860803
 21
232.330387
 31
0.0
  0
LINE
  5
25A
330
27
100
AcDbEntity
  8
2
100
AcDbLine
 10
-144.360803
 20
232.830387
 30
0.0
 11
-144.360803
 21
233.339046
 31
0.0
  0
ARC
  5
25B
330
27
100
AcDbEntity
  8
2
100
AcDbCircle
 10
-49.360803
 20
246.330387
 30
0.0
 40
10.0
100
AcDbArc
 50
271.507958
 51
88.492042
  0
ARC
  5
25C
330
27
100
AcDbEntity
  8
2
100
AcDbCircle
 10
-154.836364
 20
233.050115
 30
0.0
 40
0.5
100
AcDbArc
 50
347.306936
 51
91.507958
  0
ARC
  5
25D
330
27
100
AcDbEntity
  8
2
100
AcDbCircle
 10
-143.860803
 20
233.339046
 30
0.0
 40
0.5
100
AcDbArc
 50
91.507958
 51
180.0
  0
LINE
  5
25E
330
27
100
AcDbEntity
  8
2
100
AcDbLine
 10
-231.521553
 20
231.531558
 30
0.0
 11
-49.097645
 21
236.33385
 31
0.0
  0
ARC
  5
25F
330
27
100
AcDbEntity
  8
2
100
AcDbCircle
 10
-143.860803
 20
259.321728
 30
0.0
 40
0.5
100
AcDbArc
 50
180.0
 51
268.492042
  0
ARC
  5
260
330
27
100
AcDbEntity
  8
2
100
AcDbCircle
 10
-154.836364
 20
259.610659
 30
0.0
 40
0.5
100
AcDbArc
 50
268.492042
 51
12.693064
  0
LINE
  5
261
330
27
100
AcDbEntity
  8
2
100
AcDbLine
 10
-144.360803
 20
259.830387
 30
0.0
 11
-144.360803
 21
259.321728
 31
0.0
  0
LINE
  5
262
330
27
100
AcDbEntity
  8
2
100
AcDbLine
 10
-153.860803
 20
260.330387
 30
0.0
 11
-144.860803
 21
260.330387
 31
0.0
  0
ARC
  5
263
330
27
100
AcDbEntity
  8
2
100
AcDbCircle
 10
-153.860803
 20
259.830387
 30
0.0
 40
0.5
100
AcDbArc
 50
90.0
 51
192.693064
  0
ARC
  5
264
330
27
100
AcDbEntity
  8
2
100
AcDbCircle
 10
-144.860803
 20
259.830387
 30
0.0
 40
0.5
100
AcDbArc
 50
0.0
 51
90.0
  0
ARC
  5
265
330
27
100
AcDbEntity
  8
2
100
AcDbCircle
 10
-231.468921
 20
229.532251
 30
0.0
 40
2.0
100
AcDbArc
 50
91.507958
 51
164.570915
  0
ARC
  5
266
330
27
100
AcDbEntity
  8
2
100
AcDbCircle
 10
-234.360803
 20
230.330387
 30
0.0
 40
1.0
100
AcDbArc
 50
270.0
 51
360.0
  0
LINE
  5
267
330
27
100
AcDbEntity
  8
2
  6
CENTER
 62
     2
100
AcDbLine
 10
-149.360803
 20
263.922414
 30
0.0
 11
-149.360803
 21
228.599201
 31
0.0
  0
LINE
  5
268
330
27
100
AcDbEntity
  8
2
100
AcDbLine
 10
-236.863746
 20
251.964098
 30
0.0
 11
-233.174459
 21
251.964098
 31
0.0
  0
LINE
  5
269
330
27
100
AcDbEntity
  8
2
100
AcDbLine
 10
-233.127672
 20
251.765904
 30
0.0
 11
-236.746778
 21
249.956351
 31
0.0
  0
CIRCLE
  5
26A
330
27
100
AcDbEntity
  8
2
100
AcDbCircle
 10
-239.360803
 20
246.330387
 30
0.0
 40
14.0
  0
LINE
  5
26B
330
27
100
AcDbEntity
  8
2
100
AcDbLine
 10
-237.469372
 20
249.568899
 30
0.0
 11
-241.088479
 21
247.759346
 31
0.0
  0
LINE
  5
26C
330
27
100
AcDbEntity
  8
2
100
AcDbLine
 10
-241.466995
 20
247.993282
 30
0.0
 11
-241.466995
 21
249.505545
 31
0.0
  0
LINE
  5
26D
330
27
100
AcDbEntity
  8
2
100
AcDbLine
 10
-241.811072
 20
249.568899
 30
0.0
 11
-245.511405
 21
247.718733
 31
0.0
  0
LINE
  5
26E
330
27
100
AcDbEntity
  8
2
100
AcDbLine
 10
-245.808695
 20
245.796277
 30
0.0
 11
-245.808695
 21
251.70255
 31
0.0
  0
LINE
  5
26F
330
27
100
AcDbEntity
  8
2
100
AcDbLine
 10
-241.811072
 20
247.371894
 30
0.0
 11
-245.430179
 21
245.562341
 31
0.0
  0
LINE
  5
270
330
27
100
AcDbEntity
  8
2
100
AcDbLine
 10
-245.476314
 20
247.570088
 30
0.0
 11
-241.857859
 21
247.570088
 31
0.0
  0
ARC
  5
271
330
27
100
AcDbEntity
  8
2
100
AcDbCircle
 10
-245.547147
 20
245.796277
 30
0.0
 40
0.261548
100
AcDbArc
 50
180.0
 51
296.565051
  0
ARC
  5
272
330
27
100
AcDbEntity
  8
2
100
AcDbCircle
 10
-245.476314
 20
247.648552
 30
0.0
 40
0.078464
100
AcDbArc
 50
116.565051
 51
270.0
  0
LINE
  5
273
330
27
100
AcDbEntity
  8
2
100
AcDbLine
 10
-241.310066
 20
239.2267
 30
0.0
 11
-237.576656
 21
239.2267
 31
0.0
  0
LINE
  5
274
330
27
100
AcDbEntity
  8
2
100
AcDbLine
 10
-241.310066
 20
247.570088
 30
0.0
 11
-237.576656
 21
247.570088
 31
0.0
  0
LINE
  5
275
330
27
100
AcDbEntity
  8
2
100
AcDbLine
 10
-241.466995
 20
247.413159
 30
0.0
 11
-241.466995
 21
239.383629
 31
0.0
  0
ARC
  5
276
330
27
100
AcDbEntity
  8
2
100
AcDbCircle
 10
-241.310066
 20
239.383629
 30
0.0
 40
0.156929
100
AcDbArc
 50
180.0
 51
270.0
  0
ARC
  5
277
330
27
100
AcDbEntity
  8
2
100
AcDbCircle
 10
-241.205446
 20
247.993282
 30
0.0
 40
0.261548
100
AcDbArc
 50
180.0
 51
296.565051
  0
ARC
  5
278
330
27
100
AcDbEntity
  8
2
100
AcDbCircle
 10
-241.310066
 20
247.413159
 30
0.0
 40
0.156929
100
AcDbArc
 50
90.0
 51
180.0
  0
ARC
  5
279
330
27
100
AcDbEntity
  8
2
100
AcDbCircle
 10
-241.857859
 20
247.465469
 30
0.0
 40
0.104619
100
AcDbArc
 50
296.565051
 51
90.0
  0
LINE
  5
27A
330
27
100
AcDbEntity
  8
2
100
AcDbLine
 10
-237.419727
 20
239.383629
 30
0.0
 11
-237.419727
 21
247.413159
 31
0.0
  0
ARC
  5
27B
330
27
100
AcDbEntity
  8
2
100
AcDbCircle
 10
-237.576656
 20
239.383629
 30
0.0
 40
0.156929
100
AcDbArc
 50
270.0
 51
360.0
  0
ARC
  5
27C
330
27
100
AcDbEntity
  8
2
100
AcDbCircle
 10
-237.576656
 20
247.413159
 30
0.0
 40
0.156929
100
AcDbArc
 50
0.0
 51
90.0
  0
LINE
  5
27D
330
27
100
AcDbEntity
  8
2
100
AcDbLine
 10
-245.547147
 20
251.964098
 30
0.0
 11
-241.857859
 21
251.964098
 31
0.0
  0
LINE
  5
27E
330
27
100
AcDbEntity
  8
2
100
AcDbLine
 10
-245.476314
 20
249.767093
 30
0.0
 11
-241.857859
 21
249.767093
 31
0.0
  0
LINE
  5
27F
330
27
100
AcDbEntity
  8
2
100
AcDbLine
 10
-241.811072
 20
251.765904
 30
0.0
 11
-245.511405
 21
249.915738
 31
0.0
  0
ARC
  5
280
330
27
100
AcDbEntity
  8
2
100
AcDbCircle
 10
-245.547147
 20
251.70255
 30
0.0
 40
0.261548
100
AcDbArc
 50
90.0
 51
180.0
  0
ARC
  5
281
330
27
100
AcDbEntity
  8
2
100
AcDbCircle
 10
-245.476314
 20
249.845557
 30
0.0
 40
0.078464
100
AcDbArc
 50
116.565051
 51
270.0
  0
LINE
  5
282
330
27
100
AcDbEntity
  8
2
100
AcDbLine
 10
-241.205446
 20
251.964098
 30
0.0
 11
-237.516159
 21
251.964098
 31
0.0
  0
LINE
  5
283
330
27
100
AcDbEntity
  8
2
100
AcDbLine
 10
-241.205446
 20
249.767093
 30
0.0
 11
-237.516159
 21
249.767093
 31
0.0
  0
LINE
  5
284
330
27
100
AcDbEntity
  8
2
100
AcDbLine
 10
-237.469372
 20
251.765904
 30
0.0
 11
-241.088479
 21
249.956351
 31
0.0
  0
ARC
  5
285
330
27
100
AcDbEntity
  8
2
100
AcDbCircle
 10
-241.205446
 20
251.70255
 30
0.0
 40
0.261548
100
AcDbArc
 50
90.0
 51
180.0
  0
ARC
  5
286
330
27
100
AcDbEntity
  8
2
100
AcDbCircle
 10
-241.857859
 20
251.859479
 30
0.0
 40
0.104619
100
AcDbArc
 50
296.565051
 51
90.0
  0
ARC
  5
287
330
27
100
AcDbEntity
  8
2
100
AcDbCircle
 10
-241.205446
 20
250.190287
 30
0.0
 40
0.261548
100
AcDbArc
 50
180.0
 51
296.565051
  0
ARC
  5
288
330
27
100
AcDbEntity
  8
2
100
AcDbCircle
 10
-241.205446
 20
249.505545
 30
0.0
 40
0.261548
100
AcDbArc
 50
90.0
 51
180.0
  0
ARC
  5
289
330
27
100
AcDbEntity
  8
2
100
AcDbCircle
 10
-241.857859
 20
249.6624740000001
 30
0.0
 40
0.104619
100
AcDbArc
 50
296.565051
 51
90.0
  0
LINE
  5
28A
330
27
100
AcDbEntity
  8
2
100
AcDbLine
 10
-241.466995
 20
250.190287
 30
0.0
 11
-241.466995
 21
251.70255
 31
0.0
  0
ARC
  5
28B
330
27
100
AcDbEntity
  8
2
100
AcDbCircle
 10
-236.863746
 20
251.70255
 30
0.0
 40
0.261548
100
AcDbArc
 50
90.0
 51
180.0
  0
ARC
  5
28C
330
27
100
AcDbEntity
  8
2
100
AcDbCircle
 10
-237.516159
 20
251.859479
 30
0.0
 40
0.104619
100
AcDbArc
 50
296.565051
 51
90.0
  0
ARC
  5
28D
330
27
100
AcDbEntity
  8
2
100
AcDbCircle
 10
-236.863746
 20
250.190287
 30
0.0
 40
0.261548
100
AcDbArc
 50
180.0
 51
296.565051
  0
ARC
  5
28E
330
27
100
AcDbEntity
  8
2
100
AcDbCircle
 10
-237.516159
 20
249.6624740000001
 30
0.0
 40
0.104619
100
AcDbArc
 50
296.565051
 51
90.0
  0
LINE
  5
28F
330
27
100
AcDbEntity
  8
2
100
AcDbLine
 10
-237.125294
 20
250.190287
 30
0.0
 11
-237.125294
 21
251.70255
 31
0.0
  0
ARC
  5
290
330
27
100
AcDbEntity
  8
2
100
AcDbCircle
 10
-233.174459
 20
251.859479
 30
0.0
 40
0.104619
100
AcDbArc
 50
296.565051
 51
90.0
  0
LINE
  5
291
330
27
100
AcDbEntity
  8
2
100
AcDbLine
 10
-239.822743
 20
298.445608
 30
0.0
 11
-242.904949
 21
305.886712
 31
0.0
  0
LINE
  5
292
330
27
100
AcDbEntity
  8
2
100
AcDbLine
 10
-238.898863
 20
298.445608
 30
0.0
 11
-235.816657
 21
305.886712
 31
0.0
  0
ARC
  5
293
330
27
100
AcDbEntity
  8
2
100
AcDbCircle
 10
-239.360803
 20
298.63695
 30
0.0
 40
0.5
100
AcDbArc
 50
202.5
 51
337.5
  0
ARC
  5
294
330
27
100
AcDbEntity
  8
2
100
AcDbCircle
 10
-243.366889
 20
305.695371
 30
0.0
 40
0.5
100
AcDbArc
 50
22.5
 51
93.86059799999999
  0
ARC
  5
295
330
27
100
AcDbEntity
  8
2
100
AcDbCircle
 10
-235.354717
 20
305.695371
 30
0.0
 40
0.5
100
AcDbArc
 50
86.139402
 51
157.5
  0
ARC
  5
296
330
27
100
AcDbEntity
  8
2
100
AcDbCircle
 10
-225.106957
 20
304.097834
 30
0.0
 40
0.5
100
AcDbArc
 50
76.139402
 51
147.5
  0
ARC
  5
297
330
27
100
AcDbEntity
  8
2
100
AcDbCircle
 10
-232.997406
 20
305.489133
 30
0.0
 40
0.5
100
AcDbArc
 50
12.5
 51
83.86059799999999
  0
ARC
  5
298
330
27
100
AcDbEntity
  8
2
100
AcDbCircle
 10
-230.277863
 20
297.8422959999999
 30
0.0
 40
0.5
100
AcDbArc
 50
192.5
 51
327.5
  0
LINE
  5
299
330
27
100
AcDbEntity
  8
2
100
AcDbLine
 10
-229.856168
 20
297.573646
 30
0.0
 11
-225.528653
 21
304.366483
 31
0.0
  0
LINE
  5
29A
330
27
100
AcDbEntity
  8
2
100
AcDbLine
 10
-230.766011
 20
297.734076
 30
0.0
 11
-232.509258
 21
305.597352
 31
0.0
  0
ARC
  5
29B
330
27
100
AcDbEntity
  8
2
100
AcDbCircle
 10
-215.292293
 20
300.745062
 30
0.0
 40
0.5
100
AcDbArc
 50
66.139402
 51
137.5
  0
ARC
  5
29C
330
27
100
AcDbEntity
  8
2
100
AcDbCircle
 10
-222.821272
 20
303.485386
 30
0.0
 40
0.5
100
AcDbArc
 50
2.5
 51
73.86059799999999
  0
ARC
  5
29D
330
27
100
AcDbEntity
  8
2
100
AcDbCircle
 10
-221.470905
 20
295.482478
 30
0.0
 40
0.5
100
AcDbArc
 50
182.5
 51
317.5
  0
LINE
  5
29E
330
27
100
AcDbEntity
  8
2
100
AcDbLine
 10
-221.102266
 20
295.144683
 30
0.0
 11
-215.660932
 21
301.082857
 31
0.0
  0
LINE
  5
29F
330
27
100
AcDbEntity
  8
2
100
AcDbLine
 10
-221.970429
 20
295.460669
 30
0.0
 11
-222.321748
 21
303.507196
 31
0.0
  0
ARC
  5
2A0
330
27
100
AcDbEntity
  8
2
100
AcDbCircle
 10
-206.208939
 20
295.738928
 30
0.0
 40
0.5
100
AcDbArc
 50
56.139402
 51
127.5
  0
ARC
  5
2A1
330
27
100
AcDbEntity
  8
2
100
AcDbCircle
 10
-213.147683
 20
299.745014
 30
0.0
 40
0.5
100
AcDbArc
 50
352.5
 51
63.86059799999999
  0
ARC
  5
2A2
330
27
100
AcDbEntity
  8
2
100
AcDbCircle
 10
-213.207521
 20
291.629199
 30
0.0
 40
0.5
100
AcDbArc
 50
172.5
 51
307.5
  0
LINE
  5
2A3
330
27
100
AcDbEntity
  8
2
100
AcDbLine
 10
-212.903141
 20
291.232523
 30
0.0
 11
-206.51332
 21
296.135605
 31
0.0
  0
LINE
  5
2A4
330
27
100
AcDbEntity
  8
2
100
AcDbLine
 10
-213.703244
 20
291.694462
 30
0.0
 11
-212.651961
 21
299.679751
 31
0.0
  0
ARC
  5
2A5
330
27
100
AcDbEntity
  8
2
100
AcDbCircle
 10
-198.132887
 20
289.231541
 30
0.0
 40
0.5
100
AcDbArc
 50
46.139402
 51
117.5
  0
ARC
  5
2A6
330
27
100
AcDbEntity
  8
2
100
AcDbCircle
 10
-204.270567
 20
294.381665
 30
0.0
 40
0.5
100
AcDbArc
 50
342.5
 51
53.86059799999999
  0
ARC
  5
2A7
330
27
100
AcDbEntity
  8
2
100
AcDbCircle
 10
-205.738792
 20
286.399539
 30
0.0
 40
0.5
100
AcDbArc
 50
162.5
 51
297.5
  0
LINE
  5
2A8
330
27
100
AcDbEntity
  8
2
100
AcDbLine
 10
-205.507918
 20
285.956033
 30
0.0
 11
-198.363761
 21
289.675046
 31
0.0
  0
LINE
  5
2A9
330
27
100
AcDbEntity
  8
2
100
AcDbLine
 10
-206.215651
 20
286.549892
 30
0.0
 11
-203.793708
 21
294.231312
 31
0.0
  0
ARC
  5
2AA
330
27
100
AcDbEntity
  8
2
100
AcDbCircle
 10
-191.309525
 20
281.420623
 30
0.0
 40
0.5
100
AcDbArc
 50
36.139402
 51
107.5
  0
ARC
  5
2AB
330
27
100
AcDbEntity
  8
2
100
AcDbCircle
 10
-196.459649
 20
287.5583029999999
 30
0.0
 40
0.5
100
AcDbArc
 50
332.5
 51
43.86059799999999
  0
ARC
  5
2AC
330
27
100
AcDbEntity
  8
2
100
AcDbCircle
 10
-199.291651
 20
279.952398
 30
0.0
 40
0.5
100
AcDbArc
 50
152.5
 51
287.5
  0
LINE
  5
2AD
330
27
100
AcDbEntity
  8
2
100
AcDbLine
 10
-199.141298
 20
279.475539
 30
0.0
 11
-191.459878
 21
281.897482
 31
0.0
  0
LINE
  5
2AE
330
27
100
AcDbEntity
  8
2
100
AcDbLine
 10
-199.735156
 20
280.1832720000001
 30
0.0
 11
-196.016144
 21
287.327428
 31
0.0
  0
ARC
  5
2AF
330
27
100
AcDbEntity
  8
2
100
AcDbCircle
 10
-185.946176
 20
272.543507
 30
0.0
 40
0.5
100
AcDbArc
 50
26.139402
 51
97.5
  0
ARC
  5
2B0
330
27
100
AcDbEntity
  8
2
100
AcDbCircle
 10
-189.952262
 20
279.4822509999999
 30
0.0
 40
0.5
100
AcDbArc
 50
322.5
 51
33.860598
  0
ARC
  5
2B1
330
27
100
AcDbEntity
  8
2
100
AcDbCircle
 10
-194.06199
 20
272.483668
 30
0.0
 40
0.5
100
AcDbArc
 50
142.5
 51
277.5
  0
LINE
  5
2B2
330
27
100
AcDbEntity
  8
2
100
AcDbLine
 10
-193.996727
 20
271.987946
 30
0.0
 11
-186.011439
 21
273.039229
 31
0.0
  0
LINE
  5
2B3
330
27
100
AcDbEntity
  8
2
100
AcDbLine
 10
-194.4586669999999
 20
272.788049
 30
0.0
 11
-189.555585
 21
279.17787
 31
0.0
  0
ARC
  5
2B4
330
27
100
AcDbEntity
  8
2
100
AcDbCircle
 10
-182.205804
 20
262.869918
 30
0.0
 40
0.5
100
AcDbArc
 50
16.139402
 51
87.5
  0
ARC
  5
2B5
330
27
100
AcDbEntity
  8
2
100
AcDbCircle
 10
-184.946128
 20
270.398896
 30
0.0
 40
0.5
100
AcDbArc
 50
312.5
 51
23.860598
  0
ARC
  5
2B6
330
27
100
AcDbEntity
  8
2
100
AcDbCircle
 10
-190.208712
 20
264.220285
 30
0.0
 40
0.5
100
AcDbArc
 50
132.5
 51
267.5
  0
LINE
  5
2B7
330
27
100
AcDbEntity
  8
2
100
AcDbLine
 10
-190.230521
 20
263.720761
 30
0.0
 11
-182.183994
 21
263.369442
 31
0.0
  0
LINE
  5
2B8
330
27
100
AcDbEntity
  8
2
100
AcDbLine
 10
-190.546507
 20
264.588924
 30
0.0
 11
-184.608333
 21
270.030258
 31
0.0
  0
ARC
  5
2B9
330
27
100
AcDbEntity
  8
2
100
AcDbCircle
 10
-181.593356
 20
260.584233
 30
0.0
 40
0.5
100
AcDbArc
 50
302.5
 51
13.860598
  0
LINE
  5
2BA
330
27
100
AcDbEntity
  8
2
100
AcDbLine
 10
-181.859452
 20
259.821866
 30
0.0
 11
-181.324706
 21
260.162537
 31
0.0
  0
ARC
  5
2BB
330
27
100
AcDbEntity
  8
2
100
AcDbCircle
 10
-239.360803
 20
246.330387
 30
0.0
 40
50.0
100
AcDbArc
 50
127.979872
 51
322.020128
  0
LINE
  5
2BC
330
27
100
AcDbEntity
  8
2
100
AcDbLine
 10
-188.126049
 20
221.330387
 30
0.0
 11
-174.360803
 21
221.330387
 31
0.0
  0
LINE
  5
2BD
330
27
100
AcDbEntity
  8
2
100
AcDbLine
 10
-164.360803
 20
231.330387
 30
0.0
 11
-164.360803
 21
233.299558
 31
0.0
  0
ARC
  5
2BE
330
27
100
AcDbEntity
  8
2
100
AcDbCircle
 10
-174.360803
 20
231.330387
 30
0.0
 40
10.0
100
AcDbArc
 50
270.0
 51
360.0
  0
ARC
  5
2BF
330
27
100
AcDbEntity
  8
2
100
AcDbCircle
 10
-254.360803
 20
311.330387
 30
0.0
 40
10.0
100
AcDbArc
 50
90.0
 51
180.0
  0
ARC
  5
2C0
330
27
100
AcDbEntity
  8
2
100
AcDbCircle
 10
-245.360803
 20
307.034588
 30
0.0
 40
1.0
100
AcDbArc
 50
180.0
 51
275.644778
  0
ARC
  5
2C1
330
27
100
AcDbEntity
  8
2
100
AcDbCircle
 10
-247.360803
 20
320.330387
 30
0.0
 40
1.0
100
AcDbArc
 50
0.0
 51
90.0
  0
LINE
  5
2C2
330
27
100
AcDbEntity
  8
2
100
AcDbLine
 10
-246.360803
 20
320.330387
 30
0.0
 11
-246.360803
 21
307.034588
 31
0.0
  0
LINE
  5
2C3
330
27
100
AcDbEntity
  8
2
100
AcDbLine
 10
-254.360803
 20
321.330387
 30
0.0
 11
-247.360803
 21
321.330387
 31
0.0
  0
LINE
  5
2C4
330
27
100
AcDbEntity
  8
2
100
AcDbLine
 10
-264.360803
 20
297.5651410000001
 30
0.0
 11
-264.360803
 21
311.330387
 31
0.0
  0
ARC
  5
2C5
330
27
100
AcDbEntity
  8
2
100
AcDbCircle
 10
-188.126049
 20
206.330387
 30
0.0
 40
15.0
100
AcDbArc
 50
90.0
 51
142.020128
  0
ARC
  5
2C6
330
27
100
AcDbEntity
  8
2
100
AcDbCircle
 10
-279.360803
 20
297.5651410000001
 30
0.0
 40
15.0
100
AcDbArc
 50
307.979872
 51
360.0
  0
ARC
  5
2C7
330
27
100
AcDbEntity
  8
2
100
AcDbCircle
 10
-239.360803
 20
246.330387
 30
0.0
 40
60.0
100
AcDbArc
 50
13.860598
 51
16.139402
  0
ARC
  5
2C8
330
27
100
AcDbEntity
  8
2
100
AcDbCircle
 10
-239.360803
 20
246.330387
 30
0.0
 40
60.0
100
AcDbArc
 50
23.860598
 51
26.139402
  0
ARC
  5
2C9
330
27
100
AcDbEntity
  8
2
100
AcDbCircle
 10
-239.360803
 20
246.330387
 30
0.0
 40
60.0
100
AcDbArc
 50
93.86059799999999
 51
95.644778
  0
ARC
  5
2CA
330
27
100
AcDbEntity
  8
2
100
AcDbCircle
 10
-239.360803
 20
246.330387
 30
0.0
 40
60.0
100
AcDbArc
 50
83.86059799999999
 51
86.139402
  0
ARC
  5
2CB
330
27
100
AcDbEntity
  8
2
100
AcDbCircle
 10
-239.360803
 20
246.330387
 30
0.0
 40
60.0
100
AcDbArc
 50
73.86059799999999
 51
76.139402
  0
ARC
  5
2CC
330
27
100
AcDbEntity
  8
2
100
AcDbCircle
 10
-239.360803
 20
246.330387
 30
0.0
 40
60.0
100
AcDbArc
 50
63.86059799999999
 51
66.139402
  0
ARC
  5
2CD
330
27
100
AcDbEntity
  8
2
100
AcDbCircle
 10
-239.360803
 20
246.330387
 30
0.0
 40
60.0
100
AcDbArc
 50
53.86059799999999
 51
56.139402
  0
ARC
  5
2CE
330
27
100
AcDbEntity
  8
2
100
AcDbCircle
 10
-239.360803
 20
246.330387
 30
0.0
 40
60.0
100
AcDbArc
 50
43.86059799999999
 51
46.139402
  0
ARC
  5
2CF
330
27
100
AcDbEntity
  8
2
100
AcDbCircle
 10
-239.360803
 20
246.330387
 30
0.0
 40
60.0
100
AcDbArc
 50
33.860598
 51
36.139402
  0
LINE
  5
2D0
330
27
100
AcDbEntity
  8
2
100
AcDbLine
 10
-237.239482
 20
266.836484
 30
0.0
 11
-240.775016
 21
270.372018
 31
0.0
  0
LINE
  5
2D1
330
27
100
AcDbEntity
  8
2
100
AcDbLine
 10
-237.239482
 20
273.907551
 30
0.0
 11
-240.775016
 21
270.372018
 31
0.0
  0
LINE
  5
2D2
330
27
100
AcDbEntity
  8
2
100
AcDbLine
 10
-236.885929
 20
273.553998
 30
0.0
 11
-240.06791
 21
270.372018
 31
0.0
  0
LINE
  5
2D3
330
27
100
AcDbEntity
  8
2
100
AcDbLine
 10
-236.885929
 20
267.190037
 30
0.0
 11
-240.06791
 21
270.372018
 31
0.0
  0
LINE
  5
2D4
330
27
100
AcDbEntity
  8
2
100
AcDbLine
 10
-236.885929
 20
267.190037
 30
0.0
 11
-237.239482
 21
266.836484
 31
0.0
  0
LINE
  5
2D5
330
27
100
AcDbEntity
  8
2
100
AcDbLine
 10
-236.885929
 20
273.553998
 30
0.0
 11
-237.239482
 21
273.907551
 31
0.0
  0
LINE
  5
2D6
330
27
100
AcDbEntity
  8
2
100
AcDbLine
 10
-264.7659
 20
236.380145
 30
0.0
 11
-268.016859
 21
239.631104
 31
0.0
  0
LINE
  5
2D7
330
27
100
AcDbEntity
  8
2
100
AcDbLine
 10
-268.931191
 20
232.214854
 30
0.0
 11
-272.18215
 21
235.465813
 31
0.0
  0
LINE
  5
2D8
330
27
100
AcDbEntity
  8
2
100
AcDbLine
 10
-261.839176
 20
227.132132
 30
0.0
 11
-257.533013
 21
229.147258
 31
0.0
  0
LINE
  5
2D9
330
27
100
AcDbEntity
  8
2
100
AcDbLine
 10
-262.192093
 20
225.475755
 30
0.0
 11
-258.570053
 21
227.094293
 31
0.0
  0
LINE
  5
2DA
330
27
100
AcDbEntity
  8
2
100
AcDbLine
 10
-261.839176
 20
227.132132
 30
0.0
 11
-258.816528
 21
230.430773
 31
0.0
  0
LINE
  5
2DB
330
27
100
AcDbEntity
  8
2
100
AcDbLine
 10
-263.73569
 20
227.034891
 30
0.0
 11
-259.832453
 21
231.446698
 31
0.0
  0
ARC
  5
2DC
330
27
100
AcDbEntity
  8
2
100
AcDbCircle
 10
-259.128486
 20
226.252344
 30
0.0
 40
10.402317
100
AcDbArc
 50
128.830069
 51
141.169931
  0
ARC
  5
2DD
330
27
100
AcDbEntity
  8
2
100
AcDbCircle
 10
-269.816522
 20
236.94038
 30
0.0
 40
10.402317
100
AcDbArc
 50
308.830069
 51
321.169931
  0
LINE
  5
2DE
330
27
100
AcDbEntity
  8
2
100
AcDbLine
 10
-268.931191
 20
232.214854
 30
0.0
 11
-264.7659
 21
236.380145
 31
0.0
  0
ARC
  5
2DF
330
27
100
AcDbEntity
  8
2
100
AcDbCircle
 10
-264.56985
 20
233.012768
 30
0.0
 40
1.724081
100
AcDbArc
 50
51.27054199999999
 51
128.830069
  0
ARC
  5
2E0
330
27
100
AcDbEntity
  8
2
100
AcDbCircle
 10
-263.056098
 20
231.499016
 30
0.0
 40
1.724081
100
AcDbArc
 50
321.169931
 51
38.729458
  0
ARC
  5
2E1
330
27
100
AcDbEntity
  8
2
100
AcDbCircle
 10
-270.701138
 20
225.367728
 30
0.0
 40
11.524047
100
AcDbArc
 50
38.729458
 51
51.27054199999999
  0
LINE
  5
2E2
330
27
100
AcDbEntity
  8
2
100
AcDbLine
 10
-259.832453
 20
231.446698
 30
0.0
 11
-258.816528
 21
230.430773
 31
0.0
  0
ARC
  5
2E3
330
27
100
AcDbEntity
  8
2
100
AcDbCircle
 10
-265.88891
 20
231.693708
 30
0.0
 40
1.724081
100
AcDbArc
 50
141.169931
 51
218.729458
  0
ARC
  5
2E4
330
27
100
AcDbEntity
  8
2
100
AcDbCircle
 10
-264.375158
 20
230.179956
 30
0.0
 40
1.724081
100
AcDbArc
 50
231.270542
 51
308.830069
  0
ARC
  5
2E5
330
27
100
AcDbEntity
  8
2
100
AcDbCircle
 10
-258.24387
 20
237.824996
 30
0.0
 40
11.524047
100
AcDbArc
 50
218.729458
 51
231.270542
  0
LINE
  5
2E6
330
27
100
AcDbEntity
  8
2
100
AcDbLine
 10
-263.743459
 20
227.027122
 30
0.0
 11
-262.192093
 21
225.475755
 31
0.0
  0
LINE
  5
2E7
330
27
100
AcDbEntity
  8
2
100
AcDbLine
 10
-268.728006
 20
234.856258
 30
0.0
 11
-269.439154
 21
234.145111
 31
0.0
  0
LINE
  5
2E8
330
27
100
AcDbEntity
  8
2
100
AcDbLine
 10
-266.696157
 20
236.888108
 30
0.0
 11
-268.016859
 21
235.567406
 31
0.0
  0
LINE
  5
2E9
330
27
100
AcDbEntity
  8
2
100
AcDbLine
 10
-266.696157
 20
236.888108
 30
0.0
 11
-268.728006
 21
238.919957
 31
0.0
  0
LINE
  5
2EA
330
27
100
AcDbEntity
  8
2
100
AcDbLine
 10
-268.016859
 20
235.567406
 30
0.0
 11
-270.048709
 21
237.599255
 31
0.0
  0
LINE
  5
2EB
330
27
100
AcDbEntity
  8
2
100
AcDbLine
 10
-268.728006
 20
234.856258
 30
0.0
 11
-270.759856
 21
236.888108
 31
0.0
  0
LINE
  5
2EC
330
27
100
AcDbEntity
  8
2
100
AcDbLine
 10
-269.439154
 20
234.145111
 30
0.0
 11
-271.471003
 21
236.17696
 31
0.0
  0
LINE
  5
2ED
330
27
100
AcDbEntity
  8
2
100
AcDbLine
 10
-247.305683
 20
218.919928
 30
0.0
 11
-248.755841
 21
220.370086
 31
0.0
  0
LINE
  5
2EE
330
27
100
AcDbEntity
  8
2
100
AcDbLine
 10
-250.391657
 20
215.833954
 30
0.0
 11
-251.841815
 21
217.284112
 31
0.0
  0
ARC
  5
2EF
330
27
100
AcDbEntity
  8
2
100
AcDbCircle
 10
-250.505845
 20
212.428169
 30
0.0
 40
0.143673
100
AcDbArc
 50
225.0
 51
315.0
  0
LINE
  5
2F0
330
27
100
AcDbEntity
  8
2
100
AcDbLine
 10
-250.269746
 20
215.833954
 30
0.0
 11
-247.305683
 21
218.798017
 31
0.0
  0
LINE
  5
2F1
330
27
100
AcDbEntity
  8
2
100
AcDbLine
 10
-255.06349
 20
217.157706
 30
0.0
 11
-248.166254
 21
214.858627
 31
0.0
  0
ARC
  5
2F2
330
27
100
AcDbEntity
  8
2
100
AcDbCircle
 10
-247.366638
 20
218.858972
 30
0.0
 40
0.086204
100
AcDbArc
 50
315.0
 51
45.0
  0
ARC
  5
2F3
330
27
100
AcDbEntity
  8
2
100
AcDbCircle
 10
-248.211688
 20
214.722327
 30
0.0
 40
0.143673
100
AcDbArc
 50
315.0
 51
71.565051
  0
ARC
  5
2F4
330
27
100
AcDbEntity
  8
2
100
AcDbCircle
 10
-250.330701
 20
215.894909
 30
0.0
 40
0.086204
100
AcDbArc
 50
225.0
 51
315.0
  0
LINE
  5
2F5
330
27
100
AcDbEntity
  8
2
100
AcDbLine
 10
-248.110095
 20
214.620734
 30
0.0
 11
-250.404253
 21
212.326577
 31
0.0
  0
ARC
  5
2F6
330
27
100
AcDbEntity
  8
2
100
AcDbCircle
 10
-248.723966
 20
215.847825
 30
0.0
 40
10.402317
100
AcDbArc
 50
128.830069
 51
141.169931
  0
ARC
  5
2F7
330
27
100
AcDbEntity
  8
2
100
AcDbCircle
 10
-249.494984
 20
216.618843
 30
0.0
 40
7.674066
100
AcDbArc
 50
124.473609
 51
145.526391
  0
LINE
  5
2F8
330
27
100
AcDbEntity
  8
2
100
AcDbLine
 10
-258.629455
 20
221.928656
 30
0.0
 11
-254.217648
 21
225.831893
 31
0.0
  0
ARC
  5
2F9
330
27
100
AcDbEntity
  8
2
100
AcDbCircle
 10
-254.16533
 20
222.608248
 30
0.0
 40
1.724081
100
AcDbArc
 50
51.27054199999999
 51
128.830069
  0
LINE
  5
2FA
330
27
100
AcDbEntity
  8
2
100
AcDbLine
 10
-255.233573
 20
226.847818
 30
0.0
 11
-254.217648
 21
225.831893
 31
0.0
  0
ARC
  5
2FB
330
27
100
AcDbEntity
  8
2
100
AcDbCircle
 10
-255.48439
 20
221.289188
 30
0.0
 40
1.724081
100
AcDbArc
 50
141.169931
 51
218.729458
  0
LINE
  5
2FC
330
27
100
AcDbEntity
  8
2
100
AcDbLine
 10
-260.188591
 20
223.472254
 30
0.0
 11
-258.637224
 21
221.920887
 31
0.0
  0
ARC
  5
2FD
330
27
100
AcDbEntity
  8
2
100
AcDbCircle
 10
-259.412002
 20
226.53586
 30
0.0
 40
10.402317
100
AcDbArc
 50
308.830069
 51
321.169931
  0
ARC
  5
2FE
330
27
100
AcDbEntity
  8
2
100
AcDbCircle
 10
-259.259582
 20
226.508873
 30
0.0
 40
8.638035
100
AcDbArc
 50
305.062783
 51
323.774302
  0
LINE
  5
2FF
330
27
100
AcDbEntity
  8
2
100
AcDbLine
 10
-248.877752
 20
220.370086
 30
0.0
 11
-251.841815
 21
217.406023
 31
0.0
  0
ARC
  5
300
330
27
100
AcDbEntity
  8
2
100
AcDbCircle
 10
-252.651578
 20
221.094496
 30
0.0
 40
1.724081
100
AcDbArc
 50
321.169931
 51
38.729458
  0
ARC
  5
301
330
27
100
AcDbEntity
  8
2
100
AcDbCircle
 10
-254.918734
 20
220.341092
 30
0.0
 40
3.169315999999999
100
AcDbArc
 50
34.668048
 51
55.331952
  0
ARC
  5
302
330
27
100
AcDbEntity
  8
2
100
AcDbCircle
 10
-252.921339
 20
221.75657
 30
0.0
 40
0.7219260000000001
100
AcDbArc
 50
330.772957
 51
32.444044
  0
ARC
  5
303
330
27
100
AcDbEntity
  8
2
100
AcDbCircle
 10
-248.816796
 20
220.309131
 30
0.0
 40
0.086204
100
AcDbArc
 50
45.0
 51
135.0
  0
ARC
  5
304
330
27
100
AcDbEntity
  8
2
100
AcDbCircle
 10
-253.970638
 20
219.775437
 30
0.0
 40
1.724081
100
AcDbArc
 50
231.270542
 51
308.830069
  0
ARC
  5
305
330
27
100
AcDbEntity
  8
2
100
AcDbCircle
 10
-254.66042
 20
219.955882
 30
0.0
 40
0.6321630000000001
100
AcDbArc
 50
235.331952
 51
305.062783
  0
ARC
  5
306
330
27
100
AcDbEntity
  8
2
100
AcDbCircle
 10
-253.217234
 20
222.042592
 30
0.0
 40
3.169315999999999
100
AcDbArc
 50
214.668048
 51
235.331952
  0
ARC
  5
307
330
27
100
AcDbEntity
  8
2
100
AcDbCircle
 10
-251.780859
 20
217.345068
 30
0.0
 40
0.086204
100
AcDbArc
 50
135.0
 51
225.0
  0
ARC
  5
308
330
27
100
AcDbEntity
  8
2
100
AcDbCircle
 10
-260.296618
 20
214.963208
 30
0.0
 40
11.524047
100
AcDbArc
 50
38.729458
 51
51.27054199999999
  0
ARC
  5
309
330
27
100
AcDbEntity
  8
2
100
AcDbCircle
 10
-253.475549
 20
222.427803
 30
0.0
 40
0.6321630000000001
100
AcDbArc
 50
55.331952
 51
125.062783
  0
ARC
  5
30A
330
27
100
AcDbEntity
  8
2
100
AcDbCircle
 10
-247.83935
 20
227.420477
 30
0.0
 40
11.524047
100
AcDbArc
 50
218.729458
 51
231.270542
  0
ARC
  5
30B
330
27
100
AcDbEntity
  8
2
100
AcDbCircle
 10
-255.303944
 20
220.599407
 30
0.0
 40
0.6321630000000001
100
AcDbArc
 50
144.937217
 51
214.668048
  0
LINE
  5
30C
330
27
100
AcDbEntity
  8
2
100
AcDbLine
 10
-260.188591
 20
223.472254
 30
0.0
 11
-258.570053
 21
227.094293
 31
0.0
  0
LINE
  5
30D
330
27
100
AcDbEntity
  8
2
100
AcDbLine
 10
-257.533013
 20
229.147258
 30
0.0
 11
-256.517088
 21
228.131333
 31
0.0
  0
ARC
  5
30E
330
27
100
AcDbEntity
  8
2
100
AcDbCircle
 10
-255.107762
 20
217.02489
 30
0.0
 40
0.14
100
AcDbArc
 50
71.565051
 51
225.0
  0
ARC
  5
30F
330
27
100
AcDbEntity
  8
2
100
AcDbCircle
 10
-265.091783
 20
230.387245
 30
0.0
 40
0.6321630000000001
100
AcDbArc
 50
235.331952
 51
305.062783
  0
ARC
  5
310
330
27
100
AcDbEntity
  8
2
100
AcDbCircle
 10
-263.263387
 20
232.215641
 30
0.0
 40
0.6321630000000001
100
AcDbArc
 50
324.937217
 51
34.668048
  0
ARC
  5
311
330
27
100
AcDbEntity
  8
2
100
AcDbCircle
 10
-263.648597
 20
232.473956
 30
0.0
 40
3.169315999999999
100
AcDbArc
 50
214.668048
 51
235.331952
  0
ARC
  5
312
330
27
100
AcDbEntity
  8
2
100
AcDbCircle
 10
-265.735308
 20
231.03077
 30
0.0
 40
0.6321630000000001
100
AcDbArc
 50
144.937217
 51
214.668048
  0
ARC
  5
313
330
27
100
AcDbEntity
  8
2
100
AcDbCircle
 10
-263.93462
 20
232.769851
 30
0.0
 40
0.7219260000000001
100
AcDbArc
 50
57.55595600000001
 51
119.227043
  0
ARC
  5
314
330
27
100
AcDbEntity
  8
2
100
AcDbCircle
 10
-265.350097
 20
230.772456
 30
0.0
 40
3.169315999999999
100
AcDbArc
 50
34.668048
 51
55.331952
  0
ARC
  5
315
330
27
100
AcDbEntity
  8
2
100
AcDbCircle
 10
-259.182317
 20
226.431607
 30
0.0
 40
8.638035
100
AcDbArc
 50
126.225698
 51
144.937217
  0
ARC
  5
316
330
27
100
AcDbEntity
  8
2
100
AcDbCircle
 10
-269.072347
 20
236.196205
 30
0.0
 40
7.674066
100
AcDbArc
 50
304.473609
 51
325.526391
  0
LINE
  5
317
330
27
100
AcDbEntity
  8
2
100
AcDbLine
 10
-250.607438
 20
212.326577
 30
0.0
 11
-255.206756
 21
216.925895
 31
0.0
  0
LINE
  5
318
330
27
100
AcDbEntity
  8
2
100
AcDbLine
 10
-258.559058
 20
223.852014
 30
0.0
 11
-256.543932
 21
228.158177
 31
0.0
  0
LINE
  5
319
330
27
100
AcDbEntity
  8
2
100
AcDbLine
 10
-258.559058
 20
223.852014
 30
0.0
 11
-255.260417
 21
226.874662
 31
0.0
  0
ARC
  5
31A
330
27
100
AcDbEntity
  8
2
100
AcDbCircle
 10
-285.850049
 20
247.330387
 30
0.0
 40
0.5
100
AcDbArc
 50
90.0
 51
178.767738
  0
LINE
  5
31B
330
27
100
AcDbEntity
  8
2
100
AcDbLine
 10
-285.850049
 20
247.830387
 30
0.0
 11
-275.683678
 21
247.830387
 31
0.0
  0
LINE
  5
31C
330
27
100
AcDbEntity
  8
2
100
AcDbLine
 10
-285.850049
 20
244.830387
 30
0.0
 11
-275.683678
 21
244.830387
 31
0.0
  0
ARC
  5
31D
330
27
100
AcDbEntity
  8
2
100
AcDbCircle
 10
-285.850049
 20
245.330387
 30
0.0
 40
0.5
100
AcDbArc
 50
181.232262
 51
270.0
  0
LINE
  5
31E
330
27
100
AcDbEntity
  8
2
100
AcDbLine
 10
-285.067539
 20
237.763343
 30
0.0
 11
-275.219462
 21
239.499825
 31
0.0
  0
ARC
  5
31F
330
27
100
AcDbEntity
  8
2
100
AcDbCircle
 10
-285.154363
 20
238.255747
 30
0.0
 40
0.5
100
AcDbArc
 50
100.0
 51
280.0
  0
LINE
  5
320
330
27
100
AcDbEntity
  8
2
100
AcDbLine
 10
-285.241187
 20
238.748151
 30
0.0
 11
-275.39311
 21
240.484632
 31
0.0
  0
LINE
  5
321
330
27
100
AcDbEntity
  8
2
100
AcDbLine
 10
-275.303263
 20
216.823785
 30
0.0
 11
-267.642819
 21
223.251661
 31
0.0
  0
ARC
  5
322
330
27
100
AcDbEntity
  8
2
100
AcDbCircle
 10
-274.981869
 20
216.440763
 30
0.0
 40
0.5
100
AcDbArc
 50
130.0
 51
310.0
  0
LINE
  5
323
330
27
100
AcDbEntity
  8
2
100
AcDbLine
 10
-274.660476
 20
216.057741
 30
0.0
 11
-267.000031
 21
222.485617
 31
0.0
  0
LINE
  5
324
330
27
100
AcDbEntity
  8
2
100
AcDbLine
 10
-279.880984
 20
223.5134
 30
0.0
 11
-271.22073
 21
228.5134
 31
0.0
  0
ARC
  5
325
330
27
100
AcDbEntity
  8
2
100
AcDbCircle
 10
-279.630984
 20
223.080387
 30
0.0
 40
0.5
100
AcDbArc
 50
120.0
 51
300.0
  0
LINE
  5
326
330
27
100
AcDbEntity
  8
2
100
AcDbLine
 10
-279.380984
 20
222.647374
 30
0.0
 11
-270.72073
 21
227.647374
 31
0.0
  0
LINE
  5
327
330
27
100
AcDbEntity
  8
2
100
AcDbLine
 10
-283.22752
 20
230.896297
 30
0.0
 11
-273.830593
 21
234.316498
 31
0.0
  0
ARC
  5
328
330
27
100
AcDbEntity
  8
2
100
AcDbCircle
 10
-283.05651
 20
230.42645
 30
0.0
 40
0.5
100
AcDbArc
 50
110.0
 51
290.0
  0
LINE
  5
329
330
27
100
AcDbEntity
  8
2
100
AcDbLine
 10
-282.8855
 20
229.956604
 30
0.0
 11
-273.488573
 21
233.376805
 31
0.0
  0
ARC
  5
32A
330
27
100
AcDbEntity
  8
2
100
AcDbCircle
 10
-239.360803
 20
246.330387
 30
0.0
 40
47.0
100
AcDbArc
 50
178.767738
 51
181.232262
  0
LINE
  5
32B
330
27
100
AcDbEntity
  8
2
100
AcDbLine
 10
-255.734586
 20
202.80569
 30
0.0
 11
-252.314384
 21
212.202616
 31
0.0
  0
LINE
  5
32C
330
27
100
AcDbEntity
  8
2
100
AcDbLine
 10
-254.794893
 20
202.46367
 30
0.0
 11
-251.374692
 21
211.860596
 31
0.0
  0
LINE
  5
32D
330
27
100
AcDbEntity
  8
2
100
AcDbLine
 10
-263.043815
 20
206.310206
 30
0.0
 11
-258.043815
 21
214.97046
 31
0.0
  0
ARC
  5
32E
330
27
100
AcDbEntity
  8
2
100
AcDbCircle
 10
-262.610803
 20
206.060206
 30
0.0
 40
0.5
100
AcDbArc
 50
150.0
 51
330.0
  0
LINE
  5
32F
330
27
100
AcDbEntity
  8
2
100
AcDbLine
 10
-262.17779
 20
205.810206
 30
0.0
 11
-257.17779
 21
214.47046
 31
0.0
  0
LINE
  5
330
330
27
100
AcDbEntity
  8
2
100
AcDbLine
 10
-269.633449
 20
211.030714
 30
0.0
 11
-263.205573
 21
218.691159
 31
0.0
  0
ARC
  5
331
330
27
100
AcDbEntity
  8
2
100
AcDbCircle
 10
-269.250427
 20
210.70932
 30
0.0
 40
0.5
100
AcDbArc
 50
140.0
 51
320.0
  0
LINE
  5
332
330
27
100
AcDbEntity
  8
2
100
AcDbLine
 10
-268.867404
 20
210.387927
 30
0.0
 11
-262.439528
 21
218.048371
 31
0.0
  0
LINE
  5
333
330
27
100
AcDbEntity
  8
2
100
AcDbLine
 10
-246.943039
 20
200.450002
 30
0.0
 11
-245.206557
 21
210.29808
 31
0.0
  0
LINE
  5
334
330
27
100
AcDbEntity
  8
2
100
AcDbLine
 10
-247.927847
 20
200.623651
 30
0.0
 11
-246.191365
 21
210.471728
 31
0.0
  0
LINE
  5
335
330
27
100
AcDbEntity
  8
2
100
AcDbLine
 10
-240.860803
 20
199.841141
 30
0.0
 11
-240.860803
 21
218.848575
 31
0.0
  0
LINE
  5
336
330
27
100
AcDbEntity
  8
2
100
AcDbLine
 10
-237.860803
 20
199.841141
 30
0.0
 11
-237.860803
 21
218.848575
 31
0.0
  0
LINE
  5
337
330
27
100
AcDbEntity
  8
2
100
AcDbLine
 10
-272.18215
 20
235.465813
 30
0.0
 11
-271.471003
 21
236.17696
 31
0.0
  0
LINE
  5
338
330
27
100
AcDbEntity
  8
2
100
AcDbLine
 10
-270.759856
 20
236.888108
 30
0.0
 11
-270.048709
 21
237.599255
 31
0.0
  0
LINE
  5
339
330
27
100
AcDbEntity
  8
2
100
AcDbLine
 10
-268.728006
 20
238.919957
 30
0.0
 11
-268.016859
 21
239.631104
 31
0.0
  0
ARC
  5
33A
330
27
100
AcDbEntity
  8
2
100
AcDbCircle
 10
-245.698961
 20
210.384904
 30
0.0
 40
0.5
100
AcDbArc
 50
350.0
 51
170.0
  0
ARC
  5
33B
330
27
100
AcDbEntity
  8
2
100
AcDbCircle
 10
-251.844538
 20
212.031606
 30
0.0
 40
0.5
100
AcDbArc
 50
340.0
 51
160.0
  0
ARC
  5
33C
330
27
100
AcDbEntity
  8
2
100
AcDbCircle
 10
-257.610803
 20
214.72046
 30
0.0
 40
0.5
100
AcDbArc
 50
330.0
 51
150.0
  0
ARC
  5
33D
330
27
100
AcDbEntity
  8
2
100
AcDbCircle
 10
-262.822551
 20
218.369765
 30
0.0
 40
0.5
100
AcDbArc
 50
320.0
 51
140.0
  0
ARC
  5
33E
330
27
100
AcDbEntity
  8
2
100
AcDbCircle
 10
-267.321425
 20
222.868639
 30
0.0
 40
0.5
100
AcDbArc
 50
310.0
 51
130.0
  0
ARC
  5
33F
330
27
100
AcDbEntity
  8
2
100
AcDbCircle
 10
-270.97073
 20
228.080387
 30
0.0
 40
0.5
100
AcDbArc
 50
300.0
 51
120.0
  0
ARC
  5
340
330
27
100
AcDbEntity
  8
2
100
AcDbCircle
 10
-273.659583
 20
233.846652
 30
0.0
 40
0.5
100
AcDbArc
 50
290.0
 51
110.0
  0
ARC
  5
341
330
27
100
AcDbEntity
  8
2
100
AcDbCircle
 10
-275.306286
 20
239.992229
 30
0.0
 40
0.5
100
AcDbArc
 50
280.0
 51
100.0
  0
ARC
  5
342
330
27
100
AcDbEntity
  8
2
100
AcDbCircle
 10
-239.360803
 20
246.330387
 30
0.0
 40
47.0
100
AcDbArc
 50
189.999966
 51
190.000034
  0
ARC
  5
343
330
27
100
AcDbEntity
  8
2
100
AcDbCircle
 10
-240.360803
 20
199.841141
 30
0.0
 40
0.5
100
AcDbArc
 50
180.0
 51
268.767738
  0
ARC
  5
344
330
27
100
AcDbEntity
  8
2
100
AcDbCircle
 10
-238.360803
 20
199.841141
 30
0.0
 40
0.5
100
AcDbArc
 50
271.232262
 51
360.0
  0
ARC
  5
345
330
27
100
AcDbEntity
  8
2
100
AcDbCircle
 10
-239.360803
 20
246.330387
 30
0.0
 40
47.0
100
AcDbArc
 50
199.999929
 51
200.000071
  0
ARC
  5
346
330
27
100
AcDbEntity
  8
2
100
AcDbCircle
 10
-239.360803
 20
246.330387
 30
0.0
 40
47.0
100
AcDbArc
 50
268.767738
 51
271.232262
  0
ARC
  5
347
330
27
100
AcDbEntity
  8
2
100
AcDbCircle
 10
-239.360803
 20
246.330387
 30
0.0
 40
27.0
100
AcDbArc
 50
267.916058
 51
272.083942
  0
ARC
  5
348
330
27
100
AcDbEntity
  8
2
100
AcDbCircle
 10
-238.360803
 20
218.848575
 30
0.0
 40
0.5
100
AcDbArc
 50
0.0
 51
92.083942
  0
ARC
  5
349
330
27
100
AcDbEntity
  8
2
100
AcDbCircle
 10
-240.360803
 20
218.848575
 30
0.0
 40
0.5
100
AcDbArc
 50
87.91605799999999
 51
180.0
  0
ARC
  5
34A
330
27
100
AcDbEntity
  8
2
100
AcDbCircle
 10
-255.264739
 20
202.63468
 30
0.0
 40
0.5
100
AcDbArc
 50
160.0
 51
340.0
  0
ARC
  5
34B
330
27
100
AcDbEntity
  8
2
100
AcDbCircle
 10
-247.435443
 20
200.536826
 30
0.0
 40
0.5
100
AcDbArc
 50
170.0
 51
350.0
  0
LINE
  5
34C
330
27
100
AcDbEntity
  8
2
100
AcDbLine
 10
-217.285392
 20
231.906324
 30
0.0
 11
-215.736976
 21
231.380759
 31
0.0
  0
LINE
  5
34D
330
27
100
AcDbEntity
  8
2
100
AcDbLine
 10
-215.736976
 20
231.380759
 30
0.0
 11
-216.227631
 21
231.934169
 31
0.0
  0
ARC
  5
34E
330
27
100
AcDbEntity
  8
2
  6
CENTER
 62
     2
100
AcDbCircle
 10
-239.360803
 20
246.330387
 30
0.0
 40
35.0
100
AcDbArc
 50
298.585378
 51
330.968199
  0
LINE
  5
34F
330
27
100
AcDbEntity
  8
2
  6
CENTER
 62
     2
100
AcDbLine
 10
-207.336114
 20
214.305698
 30
0.0
 11
-222.011962
 21
228.981547
 31
0.0
  0
ARC
  5
350
330
27
100
AcDbEntity
  8
2
  6
CENTER
 62
     2
100
AcDbCircle
 10
-239.360803
 20
246.330387
 30
0.0
 40
35.0
100
AcDbArc
 50
118.005522
 51
150.923658
  0
LINE
  5
351
330
27
100
AcDbEntity
  8
2
  6
CENTER
 62
     2
100
AcDbLine
 10
-255.783186
 20
262.75277
 30
0.0
 11
-272.502786
 21
279.472371
 31
0.0
  0
TEXT
  5
352
330
27
100
AcDbEntity
  8
2
100
AcDbText
 10
-220.811825
 20
214.986006
 30
0.0
 40
10.0
  1
Ｏ
 50
202.4999976762606
 41
0.923076875086908
 72
     5
 11
-228.202861
 21
211.924539
 31
0.0
100
AcDbText
  0
TEXT
  5
353
330
27
100
AcDbEntity
  8
2
100
AcDbText
 10
-274.320953
 20
256.075889
 30
0.0
 40
10.0
  1
Ｓ
 50
67.49999570693955
 41
0.9999999958462478
 72
     5
 11
-271.259485
 21
263.466925
 31
0.0
100
AcDbText
  0
TEXT
  5
354
330
27
100
AcDbEntity
  8
2
100
AcDbText
 10
-260.411097
 20
259.880171
 30
0.0
 40
3.0
  1
Ｊ
 50
54.99999047351174
 41
1.200000196904258
 72
     5
 11
-259.034513
 21
261.846136
 31
0.0
100
AcDbText
  0
TEXT
  5
355
330
27
100
AcDbEntity
  8
2
100
AcDbText
 10
-259.150053
 20
261.663264
 30
0.0
 40
3.0
  1
Ａ
 50
49.99999169026091
 41
0.9230772043693296
 72
     5
 11
-257.607362
 21
263.501771
 31
0.0
100
AcDbText
  0
TEXT
  5
356
330
27
100
AcDbEntity
  8
2
100
AcDbText
 10
-256.186883
 20
264.866691
 30
0.0
 40
3.0
  1
Ａ
 50
39.99999002177824
 41
0.9230769571433617
 72
     5
 11
-254.348376
 21
266.409381
 31
0.0
100
AcDbText
  0
TEXT
  5
357
330
27
100
AcDbEntity
  8
2
100
AcDbText
 10
-254.50731
 20
266.262644
 30
0.0
 40
3.0
  1
Ｎ
 50
35.00000952648788
 41
0.9230770745417462
 72
     5
 11
-252.541345
 21
267.639228
 31
0.0
100
AcDbText
  0
TEXT
  5
358
330
27
100
AcDbEntity
  8
2
100
AcDbText
 10
-257.7384
 20
263.329665
 30
0.0
 40
3.0
  1
Ｐ
 50
45.00000000000095
 41
1.000000427300082
 72
     5
 11
-256.041343
 21
265.026722
 31
0.0
100
AcDbText
  0
TEXT
  5
359
330
27
100
AcDbEntity
  8
2
100
AcDbText
 10
-226.837256
 20
224.653849
 30
0.0
 40
3.0
  1
Ｄ
 50
207.7858663593599
 41
0.9999998162600512
 72
     5
 11
-228.960526
 21
223.535045
 31
0.0
100
AcDbText
  0
TEXT
  5
35A
330
27
100
AcDbEntity
  8
2
100
AcDbText
 10
-224.995677
 20
225.827833
 30
0.0
 40
3.0
  1
Ｅ
 50
212.7858521561036
 41
1.090908649772732
 72
     5
 11
-227.013357
 21
224.528232
 31
0.0
100
AcDbText
  0
TEXT
  5
35B
330
27
100
AcDbEntity
  8
2
100
AcDbText
 10
-223.263426
 20
227.157855
 30
0.0
 40
3.0
  1
Ｔ
 50
217.7858433203655
 41
0.9230767178115897
 72
     5
 11
-225.160161
 21
225.687347
 31
0.0
100
AcDbText
  0
TEXT
  5
35C
330
27
100
AcDbEntity
  8
2
100
AcDbText
 10
-221.653685
 20
228.633791
 30
0.0
 40
3.0
  1
Ｎ
 50
222.7858521323252
 41
0.9230767791259532
 72
     5
 11
-223.415039
 21
227.003567
 31
0.0
100
AcDbText
  0
TEXT
  5
35D
330
27
100
AcDbEntity
  8
2
100
AcDbText
 10
-220.178706
 20
230.244409
 30
0.0
 40
3.0
  1
Ｅ
 50
227.7858605481264
 41
1.090909007643278
 72
     5
 11
-221.791274
 21
228.466876
 31
0.0
100
AcDbText
  0
TEXT
  5
35E
330
27
100
AcDbEntity
  8
2
100
AcDbText
 10
-218.849714
 20
231.977451
 30
0.0
 40
3.0
  1
Ｔ
 50
232.7858623384939
 41
0.9230765834173958
 72
     5
 11
-220.301223
 21
230.066138
 31
0.0
100
AcDbText
  0
LINE
  5
35F
330
27
100
AcDbEntity
  8
2
100
AcDbLine
 10
-239.360803
 20
220.330387
 30
0.0
 11
-241.819803
 21
220.330387
 31
0.0
  0
LINE
  5
360
330
27
100
AcDbEntity
  8
2
100
AcDbLine
 10
-241.819803
 20
220.330387
 30
0.0
 11
-242.360803
 21
220.871387
 31
0.0
  0
LINE
  5
361
330
27
100
AcDbEntity
  8
2
100
AcDbLine
 10
-242.360803
 20
220.871387
 30
0.0
 11
-242.360803
 21
224.349316
 31
0.0
  0
LINE
  5
362
330
27
100
AcDbEntity
  8
2
100
AcDbLine
 10
-242.360803
 20
220.871387
 30
0.0
 11
-239.360803
 21
220.871387
 31
0.0
  0
LINE
  5
363
330
27
100
AcDbEntity
  8
2
100
AcDbLine
 10
-239.360803
 20
220.330387
 30
0.0
 11
-236.901803
 21
220.330387
 31
0.0
  0
LINE
  5
364
330
27
100
AcDbEntity
  8
2
100
AcDbLine
 10
-236.901803
 20
220.330387
 30
0.0
 11
-236.360803
 21
220.871387
 31
0.0
  0
LINE
  5
365
330
27
100
AcDbEntity
  8
2
100
AcDbLine
 10
-236.360803
 20
220.871387
 30
0.0
 11
-236.360803
 21
224.349316
 31
0.0
  0
LINE
  5
366
330
27
100
AcDbEntity
  8
2
100
AcDbLine
 10
-236.360803
 20
220.871387
 30
0.0
 11
-239.360803
 21
220.871387
 31
0.0
  0
POINT
  5
367
330
27
100
AcDbEntity
  8
2
100
AcDbPoint
 10
-239.360803
 20
229.330387
 30
0.0
  0
LINE
  5
368
330
27
100
AcDbEntity
  8
2
100
AcDbLine
 10
-239.360803
 20
229.330387
 30
0.0
 11
-233.610803
 21
229.330387
 31
0.0
  0
LINE
  5
369
330
27
100
AcDbEntity
  8
2
100
AcDbLine
 10
-233.610803
 20
229.330387
 30
0.0
 11
-233.610803
 21
224.821135
 31
0.0
  0
LINE
  5
36A
330
27
100
AcDbEntity
  8
2
100
AcDbLine
 10
-233.610803
 20
224.821135
 30
0.0
 11
-234.460803
 21
224.330387
 31
0.0
  0
LINE
  5
36B
330
27
100
AcDbEntity
  8
2
100
AcDbLine
 10
-234.460803
 20
224.330387
 30
0.0
 11
-239.360803
 21
224.330387
 31
0.0
  0
LINE
  5
36C
330
27
100
AcDbEntity
  8
2
100
AcDbLine
 10
-236.485803
 20
229.330387
 30
0.0
 11
-236.485803
 21
224.821135
 31
0.0
  0
ARC
  5
36D
330
27
100
AcDbEntity
  8
2
100
AcDbCircle
 10
-235.048303
 20
226.66909
 30
0.0
 40
2.341226999999999
100
AcDbArc
 50
232.121121
 51
307.878879
  0
ARC
  5
36E
330
27
100
AcDbEntity
  8
2
100
AcDbCircle
 10
-239.360803
 20
232.952863
 30
0.0
 40
8.625
100
AcDbArc
 50
270.0
 51
289.471221
  0
LINE
  5
36F
330
27
100
AcDbEntity
  8
2
100
AcDbLine
 10
-239.360803
 20
229.330387
 30
0.0
 11
-245.110803
 21
229.330387
 31
0.0
  0
LINE
  5
370
330
27
100
AcDbEntity
  8
2
100
AcDbLine
 10
-245.110803
 20
229.330387
 30
0.0
 11
-245.110803
 21
224.821135
 31
0.0
  0
LINE
  5
371
330
27
100
AcDbEntity
  8
2
100
AcDbLine
 10
-245.110803
 20
224.821135
 30
0.0
 11
-244.260803
 21
224.330387
 31
0.0
  0
LINE
  5
372
330
27
100
AcDbEntity
  8
2
100
AcDbLine
 10
-244.260803
 20
224.330387
 30
0.0
 11
-239.360803
 21
224.330387
 31
0.0
  0
LINE
  5
373
330
27
100
AcDbEntity
  8
2
100
AcDbLine
 10
-242.235803
 20
229.330387
 30
0.0
 11
-242.235803
 21
224.821135
 31
0.0
  0
ARC
  5
374
330
27
100
AcDbEntity
  8
2
100
AcDbCircle
 10
-243.673303
 20
226.66909
 30
0.0
 40
2.341226999999999
100
AcDbArc
 50
232.121121
 51
307.878879
  0
ARC
  5
375
330
27
100
AcDbEntity
  8
2
100
AcDbCircle
 10
-239.360803
 20
232.952863
 30
0.0
 40
8.625
100
AcDbArc
 50
250.528779
 51
270.0
  0
LINE
  5
376
330
27
100
AcDbEntity
  8
2
 62
     2
100
AcDbLine
 10
-241.819803
 20
220.330387
 30
0.0
 11
-241.819803
 21
224.330387
 31
0.0
  0
LINE
  5
377
330
27
100
AcDbEntity
  8
2
 62
     2
100
AcDbLine
 10
-236.901803
 20
220.330387
 30
0.0
 11
-236.901803
 21
224.330387
 31
0.0
  0
CIRCLE
  5
378
330
27
100
AcDbEntity
  8
2
100
AcDbCircle
 10
-214.612065
 20
221.58165
 30
0.0
 40
6.5
  0
LINE
  5
379
330
27
100
AcDbEntity
  8
2
100
AcDbLine
 10
-210.859289
 20
228.08165
 30
0.0
 11
-218.364842
 21
228.08165
 31
0.0
  0
LINE
  5
37A
330
27
100
AcDbEntity
  8
2
100
AcDbLine
 10
-218.364842
 20
228.08165
 30
0.0
 11
-222.117619
 21
221.58165
 31
0.0
  0
LINE
  5
37B
330
27
100
AcDbEntity
  8
2
100
AcDbLine
 10
-222.117619
 20
221.58165
 30
0.0
 11
-218.364842
 21
215.08165
 31
0.0
  0
LINE
  5
37C
330
27
100
AcDbEntity
  8
2
100
AcDbLine
 10
-218.364842
 20
215.08165
 30
0.0
 11
-210.859289
 21
215.08165
 31
0.0
  0
LINE
  5
37D
330
27
100
AcDbEntity
  8
2
100
AcDbLine
 10
-210.859289
 20
215.08165
 30
0.0
 11
-207.106512
 21
221.58165
 31
0.0
  0
LINE
  5
37E
330
27
100
AcDbEntity
  8
2
100
AcDbLine
 10
-207.106512
 20
221.58165
 30
0.0
 11
-210.859289
 21
228.08165
 31
0.0
  0
LINE
  5
37F
330
27
100
AcDbEntity
  8
2
100
AcDbLine
 10
-271.615094
 20
271.079124
 30
0.0
 11
-267.862317
 21
264.579124
 31
0.0
  0
LINE
  5
380
330
27
100
AcDbEntity
  8
2
100
AcDbLine
 10
-267.862317
 20
277.579124
 30
0.0
 11
-271.615094
 21
271.079124
 31
0.0
  0
LINE
  5
381
330
27
100
AcDbEntity
  8
2
100
AcDbLine
 10
-260.356763
 20
277.579124
 30
0.0
 11
-267.862317
 21
277.579124
 31
0.0
  0
LINE
  5
382
330
27
100
AcDbEntity
  8
2
100
AcDbLine
 10
-256.603987
 20
271.079124
 30
0.0
 11
-260.356763
 21
277.579124
 31
0.0
  0
LINE
  5
383
330
27
100
AcDbEntity
  8
2
100
AcDbLine
 10
-260.356763
 20
264.579124
 30
0.0
 11
-256.603987
 21
271.079124
 31
0.0
  0
LINE
  5
384
330
27
100
AcDbEntity
  8
2
100
AcDbLine
 10
-267.862317
 20
264.579124
 30
0.0
 11
-260.356763
 21
264.579124
 31
0.0
  0
CIRCLE
  5
385
330
27
100
AcDbEntity
  8
2
100
AcDbCircle
 10
-264.10954
 20
271.079124
 30
0.0
 40
6.5
  0
ARC
  5
386
330
27
100
AcDbEntity
  8
2
100
AcDbCircle
 10
-259.360565
 20
16.296125
 30
0.0
 40
5.0
100
AcDbArc
 50
290.0
 51
360.0
  0
LINE
  5
387
330
27
100
AcDbEntity
  8
2
100
AcDbLine
 10
-274.386625
 20
5.506197
 30
0.0
 11
-257.650464
 21
11.597662
 31
0.0
  0
LINE
  5
388
330
27
100
AcDbEntity
  8
2
100
AcDbLine
 10
-228.360565
 20
0.7877420000000001
 30
0.0
 11
-276.360565
 21
0.7877420000000001
 31
0.0
  0
LINE
  5
389
330
27
100
AcDbEntity
  8
2
100
AcDbLine
 10
-250.360565
 20
-0.212258
 30
0.0
 11
-250.360565
 21
0.7877420000000001
 31
0.0
  0
LINE
  5
38A
330
27
100
AcDbEntity
  8
2
100
AcDbLine
 10
-276.360565
 20
2.687119
 30
0.0
 11
-276.360565
 21
0.7877420000000001
 31
0.0
  0
LINE
  5
38B
330
27
100
AcDbEntity
  8
2
100
AcDbLine
 10
-224.360565
 20
20.787742
 30
0.0
 11
-225.360565
 21
21.787742
 31
0.0
  0
LINE
  5
38C
330
27
100
AcDbEntity
  8
2
100
AcDbLine
 10
-253.360565
 20
21.787742
 30
0.0
 11
-254.360565
 21
20.787742
 31
0.0
  0
LINE
  5
38D
330
27
100
AcDbEntity
  8
2
100
AcDbLine
 10
-254.360565
 20
16.296125
 30
0.0
 11
-254.360565
 21
20.787742
 31
0.0
  0
LINE
  5
38E
330
27
100
AcDbEntity
  8
2
100
AcDbLine
 10
-224.360565
 20
20.680782
 30
0.0
 11
-224.360565
 21
20.787742
 31
0.0
  0
LINE
  5
38F
330
27
100
AcDbEntity
  8
2
100
AcDbLine
 10
-228.360565
 20
-0.212258
 30
0.0
 11
-250.360565
 21
-0.212258
 31
0.0
  0
LINE
  5
390
330
27
100
AcDbEntity
  8
2
100
AcDbLine
 10
-228.360565
 20
-0.212258
 30
0.0
 11
-228.360565
 21
0.7877420000000001
 31
0.0
  0
LINE
  5
391
330
27
100
AcDbEntity
  8
2
100
AcDbLine
 10
-246.129796
 20
20.787742
 30
0.0
 11
-246.129796
 21
0.7877420000000001
 31
0.0
  0
LINE
  5
392
330
27
100
AcDbEntity
  8
2
100
AcDbLine
 10
-232.591334
 20
20.787742
 30
0.0
 11
-232.591334
 21
0.7877420000000001
 31
0.0
  0
ARC
  5
393
330
27
100
AcDbEntity
  8
2
100
AcDbCircle
 10
-273.360565
 20
2.687119
 30
0.0
 40
3.0
100
AcDbArc
 50
110.0
 51
180.0
  0
ARC
  5
394
330
27
100
AcDbEntity
  8
2
100
AcDbCircle
 10
-245.129796
 20
20.787742
 30
0.0
 40
1.0
100
AcDbArc
 50
90.0
 51
180.0
  0
ARC
  5
395
330
27
100
AcDbEntity
  8
2
100
AcDbCircle
 10
-233.591334
 20
20.787742
 30
0.0
 40
1.0
100
AcDbArc
 50
0.0
 51
90.0
  0
LINE
  5
396
330
27
100
AcDbEntity
  8
2
100
AcDbLine
 10
-225.360565
 20
21.787742
 30
0.0
 11
-253.360565
 21
21.787742
 31
0.0
  0
ARC
  5
397
330
27
100
AcDbEntity
  8
2
100
AcDbCircle
 10
-262.698928
 20
31.469944
 30
0.0
 40
22.811628
100
AcDbArc
 50
283.335578
 51
313.128065
  0
LINE
  5
398
330
27
100
AcDbEntity
  8
2
100
AcDbLine
 10
-223.763803
 20
17.102936
 30
0.0
 11
-46.15029
 21
54.855854
 31
0.0
  0
CIRCLE
  5
399
330
27
100
AcDbEntity
  8
2
100
AcDbCircle
 10
-149.360565
 20
19.787742
 30
0.0
 40
2.0
  0
ARC
  5
39A
330
27
100
AcDbEntity
  8
2
100
AcDbCircle
 10
-149.360565
 20
19.787742
 30
0.0
 40
5.0
100
AcDbArc
 50
0.0
 51
180.0
  0
LINE
  5
39B
330
27
100
AcDbEntity
  8
2
100
AcDbLine
 10
-144.360565
 20
19.787742
 30
0.0
 11
-144.360565
 21
10.787742
 31
0.0
  0
LINE
  5
39C
330
27
100
AcDbEntity
  8
2
100
AcDbLine
 10
-154.360565
 20
19.787742
 30
0.0
 11
-154.360565
 21
10.787742
 31
0.0
  0
LINE
  5
39D
330
27
100
AcDbEntity
  8
2
100
AcDbLine
 10
-228.360565
 20
0.7877420000000001
 30
0.0
 11
-187.046968
 21
9.569217999999999
 31
0.0
  0
ARC
  5
39E
330
27
100
AcDbEntity
  8
2
100
AcDbCircle
 10
-221.360565
 20
20.680782
 30
0.0
 40
3.0
100
AcDbArc
 50
180.0
 51
282.0
  0
LINE
  5
39F
330
27
100
AcDbEntity
  8
2
100
AcDbLine
 10
-138.431633
 20
12.716674
 30
0.0
 11
-135.744473
 21
15.403834
 31
0.0
  0
ARC
  5
3A0
330
27
100
AcDbEntity
  8
2
100
AcDbCircle
 10
-153.360565
 20
10.787742
 30
0.0
 40
1.0
100
AcDbArc
 50
180.0
 51
270.0
  0
ARC
  5
3A1
330
27
100
AcDbEntity
  8
2
100
AcDbCircle
 10
-145.360565
 20
10.787742
 30
0.0
 40
1.0
100
AcDbArc
 50
270.0
 51
360.0
  0
LINE
  5
3A2
330
27
100
AcDbEntity
  8
2
100
AcDbLine
 10
-184.967851
 20
9.787741999999999
 30
0.0
 11
-145.5027
 21
9.787741999999999
 31
0.0
  0
ARC
  5
3A3
330
27
100
AcDbEntity
  8
2
100
AcDbCircle
 10
-145.5027
 20
19.787742
 30
0.0
 40
10.0
100
AcDbArc
 50
270.0
 51
315.0
  0
ARC
  5
3A4
330
27
100
AcDbEntity
  8
2
100
AcDbCircle
 10
-184.967851
 20
-0.212258
 30
0.0
 40
10.0
100
AcDbArc
 50
90.0
 51
102.0
  0
CIRCLE
  5
3A5
330
27
100
AcDbEntity
  8
2
100
AcDbCircle
 10
-239.360565
 20
6.287741999999999
 30
0.0
 40
5.0
  0
CIRCLE
  5
3A6
330
27
100
AcDbEntity
  8
2
100
AcDbCircle
 10
-239.360565
 20
6.287741999999999
 30
0.0
 40
3.0
  0
CIRCLE
  5
3A7
330
27
100
AcDbEntity
  8
2
100
AcDbCircle
 10
-239.360565
 20
6.287741999999999
 30
0.0
 40
2.5
  0
LINE
  5
3A8
330
27
100
AcDbEntity
  8
2
100
AcDbLine
 10
-245.134067
 20
6.287741999999999
 30
0.0
 11
-242.247316
 21
1.287741999999999
 31
0.0
  0
LINE
  5
3A9
330
27
100
AcDbEntity
  8
2
100
AcDbLine
 10
-242.247316
 20
1.287741999999999
 30
0.0
 11
-236.473813
 21
1.287741999999999
 31
0.0
  0
LINE
  5
3AA
330
27
100
AcDbEntity
  8
2
100
AcDbLine
 10
-236.473813
 20
1.287741999999999
 30
0.0
 11
-233.587062
 21
6.287741999999999
 31
0.0
  0
LINE
  5
3AB
330
27
100
AcDbEntity
  8
2
100
AcDbLine
 10
-233.587062
 20
6.287741999999999
 30
0.0
 11
-236.473813
 21
11.287742
 31
0.0
  0
LINE
  5
3AC
330
27
100
AcDbEntity
  8
2
100
AcDbLine
 10
-236.473813
 20
11.287742
 30
0.0
 11
-242.247316
 21
11.287742
 31
0.0
  0
LINE
  5
3AD
330
27
100
AcDbEntity
  8
2
100
AcDbLine
 10
-242.247316
 20
11.287742
 30
0.0
 11
-245.134067
 21
6.287741999999999
 31
0.0
  0
LINE
  5
3AE
330
27
100
AcDbEntity
  8
2
  6
CENTER
 62
     2
100
AcDbLine
 10
-139.437944
 20
19.787742
 30
0.0
 11
-159.645218
 21
19.787742
 31
0.0
  0
LINE
  5
3AF
330
27
100
AcDbEntity
  8
2
  6
CENTER
 62
     2
100
AcDbLine
 10
-149.360565
 20
30.179232
 30
0.0
 11
-149.360565
 21
8.795346999999999
 31
0.0
  0
LINE
  5
3B0
330
27
100
AcDbEntity
  8
2
100
AcDbLine
 10
-230.591334
 20
10.980623
 30
0.0
 11
-230.591334
 21
0.7877420000000001
 31
0.0
  0
ARC
  5
3B1
330
27
100
AcDbEntity
  8
2
100
AcDbCircle
 10
-225.591334
 20
10.980623
 30
0.0
 40
5.0
100
AcDbArc
 50
124.714037
 51
180.0
  0
ARC
  5
3B2
330
27
100
AcDbEntity
  8
2
100
AcDbCircle
 10
-221.060951
 20
4.387017
 30
0.0
 40
13.0
100
AcDbArc
 50
102.0
 51
124.492462
  0
LINE
  5
3B3
330
27
100
AcDbEntity
  8
2
100
AcDbLine
 10
-257.437335
 20
9.273412999999999
 30
0.0
 11
-273.735146
 21
5.410085999999999
 31
0.0
  0
LINE
  5
3B4
330
27
100
AcDbEntity
  8
2
  6
CENTER
 62
     2
100
AcDbLine
 10
-248.103655
 20
6.287741999999999
 30
0.0
 11
-230.311902
 21
6.287741999999999
 31
0.0
  0
CIRCLE
  5
3B5
330
27
100
AcDbEntity
  8
2
100
AcDbCircle
 10
-149.360565
 20
19.787742
 30
0.0
 40
1.5
  0
ARC
  5
3B6
330
27
100
AcDbEntity
  8
2
100
AcDbCircle
 10
-184.134313
 20
-15.212258
 30
0.0
 40
1.0
100
AcDbArc
 50
180.0
 51
270.0
  0
LINE
  5
3B7
330
27
100
AcDbEntity
  8
2
100
AcDbLine
 10
-184.134313
 20
-16.212258
 30
0.0
 11
-178.360565
 21
-16.212258
 31
0.0
  0
LINE
  5
3B8
330
27
100
AcDbEntity
  8
2
100
AcDbLine
 10
-174.825031
 20
-14.747792
 30
0.0
 11
-171.2894969999999
 21
-11.212258
 31
0.0
  0
LINE
  5
3B9
330
27
100
AcDbEntity
  8
2
100
AcDbLine
 10
-185.134313
 20
-4.212258
 30
0.0
 11
-172.825031
 21
8.097024000000001
 31
0.0
  0
ARC
  5
3BA
330
27
100
AcDbEntity
  8
2
100
AcDbCircle
 10
-137.521433
 20
-19.870601
 30
0.0
 40
30.0
100
AcDbArc
 50
80.0
 51
135.0
  0
LINE
  5
3BB
330
27
100
AcDbEntity
  8
2
100
AcDbLine
 10
-185.134313
 20
-4.212258
 30
0.0
 11
-185.134313
 21
-9.212258
 31
0.0
  0
LINE
  5
3BC
330
27
100
AcDbEntity
  8
2
100
AcDbLine
 10
-176.289497
 20
4.632558
 30
0.0
 11
-176.289497
 21
-9.212258
 31
0.0
  0
ARC
  5
3BD
330
27
100
AcDbEntity
  8
2
100
AcDbCircle
 10
-178.360565
 20
-11.212258
 30
0.0
 40
5.0
100
AcDbArc
 50
270.0
 51
315.0
  0
LINE
  5
3BE
330
27
100
AcDbEntity
  8
2
100
AcDbLine
 10
-171.360565
 20
9.787741999999999
 30
0.0
 11
-171.360565
 21
-9.212258
 31
0.0
  0
ARC
  5
3BF
330
27
100
AcDbEntity
  8
2
100
AcDbCircle
 10
-176.360565
 20
11.632558
 30
0.0
 40
5.0
100
AcDbArc
 50
315.0
 51
338.348311
  0
LINE
  5
3C0
330
27
100
AcDbEntity
  8
2
100
AcDbLine
 10
-172.260565
 20
-12.183326
 30
0.0
 11
-172.260565
 21
-11.212258
 31
0.0
  0
LINE
  5
3C1
330
27
100
AcDbEntity
  8
2
100
AcDbLine
 10
-185.134313
 20
-11.212258
 30
0.0
 11
-185.134313
 21
-15.212258
 31
0.0
  0
LINE
  5
3C2
330
27
100
AcDbEntity
  8
2
100
AcDbLine
 10
-176.289497
 20
-11.212258
 30
0.0
 11
-176.289497
 21
-15.763157
 31
0.0
  0
LINE
  5
3C3
330
27
100
AcDbEntity
  8
2
100
AcDbLine
 10
-171.360565
 20
-11.212258
 30
0.0
 11
-171.360565
 21
-11.283326
 31
0.0
  0
LINE
  5
3C4
330
27
100
AcDbEntity
  8
2
100
AcDbLine
 10
-169.289497
 20
-9.212258
 30
0.0
 11
-158.734636
 21
1.342602
 31
0.0
  0
LINE
  5
3C5
330
27
100
AcDbEntity
  8
2
100
AcDbLine
 10
-164.360565
 20
-9.212258
 30
0.0
 11
-164.360565
 21
-11.212258
 31
0.0
  0
LINE
  5
3C6
330
27
100
AcDbEntity
  8
2
100
AcDbLine
 10
-164.360565
 20
-9.212258
 30
0.0
 11
-289.360565
 21
-9.212258
 31
0.0
  0
LINE
  5
3C7
330
27
100
AcDbEntity
  8
2
100
AcDbLine
 10
-289.360565
 20
-11.212258
 30
0.0
 11
-164.360565
 21
-11.212258
 31
0.0
  0
LINE
  5
3C8
330
27
100
AcDbEntity
  8
2
100
AcDbLine
 10
-199.9492159999999
 20
-9.212258
 30
0.0
 11
-199.9492159999999
 21
-11.212258
 31
0.0
  0
POINT
  5
3C9
330
27
100
AcDbEntity
  8
2
100
AcDbPoint
 10
-214.611827
 20
-9.212258
 30
0.0
  0
LINE
  5
3CA
330
27
100
AcDbEntity
  8
2
100
AcDbLine
 10
-214.611827
 20
-9.212258
 30
0.0
 11
-222.111827
 21
-9.212258
 31
0.0
  0
LINE
  5
3CB
330
27
100
AcDbEntity
  8
2
100
AcDbLine
 10
-222.111827
 20
-9.212258
 30
0.0
 11
-222.111827
 21
-4.433945999999999
 31
0.0
  0
LINE
  5
3CC
330
27
100
AcDbEntity
  8
2
100
AcDbLine
 10
-222.111827
 20
-4.433945999999999
 30
0.0
 11
-220.861827
 21
-3.712258
 31
0.0
  0
LINE
  5
3CD
330
27
100
AcDbEntity
  8
2
100
AcDbLine
 10
-220.861827
 20
-3.712258
 30
0.0
 11
-214.611827
 21
-3.712258
 31
0.0
  0
LINE
  5
3CE
330
27
100
AcDbEntity
  8
2
100
AcDbLine
 10
-218.361827
 20
-9.212258
 30
0.0
 11
-218.361827
 21
-4.433945999999999
 31
0.0
  0
ARC
  5
3CF
330
27
100
AcDbEntity
  8
2
100
AcDbCircle
 10
-220.236827
 20
-6.844322
 30
0.0
 40
3.053774
100
AcDbArc
 50
52.121121
 51
127.878879
  0
ARC
  5
3D0
330
27
100
AcDbEntity
  8
2
100
AcDbCircle
 10
-214.611827
 20
-15.040548
 30
0.0
 40
11.25
100
AcDbArc
 50
90.0
 51
109.471221
  0
LINE
  5
3D1
330
27
100
AcDbEntity
  8
2
100
AcDbLine
 10
-214.611827
 20
-34.212258
 30
0.0
 11
-217.935327
 21
-34.212258
 31
0.0
  0
LINE
  5
3D2
330
27
100
AcDbEntity
  8
2
100
AcDbLine
 10
-217.935327
 20
-34.212258
 30
0.0
 11
-218.611827
 21
-33.535758
 31
0.0
  0
LINE
  5
3D3
330
27
100
AcDbEntity
  8
2
100
AcDbLine
 10
-218.611827
 20
-33.535758
 30
0.0
 11
-218.611827
 21
-31.712258
 31
0.0
  0
LINE
  5
3D4
330
27
100
AcDbEntity
  8
2
100
AcDbLine
 10
-218.611827
 20
-33.535758
 30
0.0
 11
-214.611827
 21
-33.535758
 31
0.0
  0
LINE
  5
3D5
330
27
100
AcDbEntity
  8
2
 62
     2
100
AcDbLine
 10
-217.935327
 20
-34.212258
 30
0.0
 11
-217.935327
 21
-31.712258
 31
0.0
  0
LINE
  5
3D6
330
27
100
AcDbEntity
  8
2
100
AcDbLine
 10
-214.611827
 20
-9.212258
 30
0.0
 11
-207.111827
 21
-9.212258
 31
0.0
  0
LINE
  5
3D7
330
27
100
AcDbEntity
  8
2
100
AcDbLine
 10
-207.111827
 20
-9.212258
 30
0.0
 11
-207.111827
 21
-4.433945999999999
 31
0.0
  0
LINE
  5
3D8
330
27
100
AcDbEntity
  8
2
100
AcDbLine
 10
-207.111827
 20
-4.433945999999999
 30
0.0
 11
-208.361827
 21
-3.712258
 31
0.0
  0
LINE
  5
3D9
330
27
100
AcDbEntity
  8
2
100
AcDbLine
 10
-208.361827
 20
-3.712258
 30
0.0
 11
-214.611827
 21
-3.712258
 31
0.0
  0
LINE
  5
3DA
330
27
100
AcDbEntity
  8
2
100
AcDbLine
 10
-210.861827
 20
-9.212258
 30
0.0
 11
-210.861827
 21
-4.433945999999999
 31
0.0
  0
ARC
  5
3DB
330
27
100
AcDbEntity
  8
2
100
AcDbCircle
 10
-208.986827
 20
-6.844322
 30
0.0
 40
3.053774
100
AcDbArc
 50
52.121121
 51
127.878879
  0
ARC
  5
3DC
330
27
100
AcDbEntity
  8
2
100
AcDbCircle
 10
-214.611827
 20
-15.040548
 30
0.0
 40
11.25
100
AcDbArc
 50
70.528779
 51
90.0
  0
LINE
  5
3DD
330
27
100
AcDbEntity
  8
2
100
AcDbLine
 10
-214.611827
 20
-34.212258
 30
0.0
 11
-211.288327
 21
-34.212258
 31
0.0
  0
LINE
  5
3DE
330
27
100
AcDbEntity
  8
2
100
AcDbLine
 10
-211.288327
 20
-34.212258
 30
0.0
 11
-210.611827
 21
-33.535758
 31
0.0
  0
LINE
  5
3DF
330
27
100
AcDbEntity
  8
2
100
AcDbLine
 10
-210.611827
 20
-33.535758
 30
0.0
 11
-210.611827
 21
-31.712258
 31
0.0
  0
LINE
  5
3E0
330
27
100
AcDbEntity
  8
2
100
AcDbLine
 10
-210.611827
 20
-33.535758
 30
0.0
 11
-214.611827
 21
-33.535758
 31
0.0
  0
LINE
  5
3E1
330
27
100
AcDbEntity
  8
2
 62
     2
100
AcDbLine
 10
-211.288327
 20
-34.212258
 30
0.0
 11
-211.288327
 21
-31.712258
 31
0.0
  0
POINT
  5
3E2
330
27
100
AcDbEntity
  8
2
100
AcDbPoint
 10
-214.611827
 20
-23.212258
 30
0.0
  0
LINE
  5
3E3
330
27
100
AcDbEntity
  8
2
100
AcDbLine
 10
-214.611827
 20
-25.212258
 30
0.0
 11
-207.111827
 21
-25.212258
 31
0.0
  0
LINE
  5
3E4
330
27
100
AcDbEntity
  8
2
100
AcDbLine
 10
-207.111827
 20
-25.212258
 30
0.0
 11
-207.111827
 21
-30.99057
 31
0.0
  0
LINE
  5
3E5
330
27
100
AcDbEntity
  8
2
100
AcDbLine
 10
-207.111827
 20
-30.99057
 30
0.0
 11
-208.361827
 21
-31.712258
 31
0.0
  0
LINE
  5
3E6
330
27
100
AcDbEntity
  8
2
100
AcDbLine
 10
-208.361827
 20
-31.712258
 30
0.0
 11
-214.611827
 21
-31.712258
 31
0.0
  0
LINE
  5
3E7
330
27
100
AcDbEntity
  8
2
100
AcDbLine
 10
-210.861827
 20
-25.212258
 30
0.0
 11
-210.861827
 21
-30.99057
 31
0.0
  0
ARC
  5
3E8
330
27
100
AcDbEntity
  8
2
100
AcDbCircle
 10
-208.986827
 20
-28.580194
 30
0.0
 40
3.053774
100
AcDbArc
 50
232.121121
 51
307.878879
  0
ARC
  5
3E9
330
27
100
AcDbEntity
  8
2
100
AcDbCircle
 10
-214.611827
 20
-20.383968
 30
0.0
 40
11.25
100
AcDbArc
 50
270.0
 51
289.471221
  0
LINE
  5
3EA
330
27
100
AcDbEntity
  8
2
100
AcDbLine
 10
-214.611827
 20
-25.212258
 30
0.0
 11
-222.111827
 21
-25.212258
 31
0.0
  0
LINE
  5
3EB
330
27
100
AcDbEntity
  8
2
100
AcDbLine
 10
-222.111827
 20
-25.212258
 30
0.0
 11
-222.111827
 21
-30.99057
 31
0.0
  0
LINE
  5
3EC
330
27
100
AcDbEntity
  8
2
100
AcDbLine
 10
-222.111827
 20
-30.99057
 30
0.0
 11
-220.861827
 21
-31.712258
 31
0.0
  0
LINE
  5
3ED
330
27
100
AcDbEntity
  8
2
100
AcDbLine
 10
-220.861827
 20
-31.712258
 30
0.0
 11
-214.611827
 21
-31.712258
 31
0.0
  0
LINE
  5
3EE
330
27
100
AcDbEntity
  8
2
100
AcDbLine
 10
-218.361827
 20
-25.212258
 30
0.0
 11
-218.361827
 21
-30.99057
 31
0.0
  0
ARC
  5
3EF
330
27
100
AcDbEntity
  8
2
100
AcDbCircle
 10
-220.236827
 20
-28.580194
 30
0.0
 40
3.053774
100
AcDbArc
 50
232.121121
 51
307.878879
  0
ARC
  5
3F0
330
27
100
AcDbEntity
  8
2
100
AcDbCircle
 10
-214.611827
 20
-20.383968
 30
0.0
 40
11.25
100
AcDbArc
 50
250.528779
 51
270.0
  0
LINE
  5
3F1
330
27
100
AcDbEntity
  8
2
100
AcDbLine
 10
-206.911827
 20
-23.212258
 30
0.0
 11
-206.911827
 21
-25.212258
 31
0.0
  0
LINE
  5
3F2
330
27
100
AcDbEntity
  8
2
100
AcDbLine
 10
-206.911827
 20
-25.212258
 30
0.0
 11
-222.311827
 21
-25.212258
 31
0.0
  0
LINE
  5
3F3
330
27
100
AcDbEntity
  8
2
100
AcDbLine
 10
-222.311827
 20
-25.212258
 30
0.0
 11
-222.311827
 21
-23.212258
 31
0.0
  0
LINE
  5
3F4
330
27
100
AcDbEntity
  8
2
100
AcDbLine
 10
-222.311827
 20
-23.212258
 30
0.0
 11
-206.911827
 21
-23.212258
 31
0.0
  0
LINE
  5
3F5
330
27
100
AcDbEntity
  8
2
100
AcDbLine
 10
-214.611827
 20
-25.212258
 30
0.0
 11
-215.111827
 21
-23.212258
 31
0.0
  0
LINE
  5
3F6
330
27
100
AcDbEntity
  8
2
100
AcDbLine
 10
-214.611827
 20
-23.212258
 30
0.0
 11
-214.111827
 21
-25.212258
 31
0.0
  0
POINT
  5
3F7
330
27
100
AcDbEntity
  8
2
100
AcDbPoint
 10
-264.109302
 20
-9.212258
 30
0.0
  0
LINE
  5
3F8
330
27
100
AcDbEntity
  8
2
100
AcDbLine
 10
-264.109302
 20
-9.212258
 30
0.0
 11
-271.609302
 21
-9.212258
 31
0.0
  0
LINE
  5
3F9
330
27
100
AcDbEntity
  8
2
100
AcDbLine
 10
-271.609302
 20
-9.212258
 30
0.0
 11
-271.609302
 21
-4.433945999999999
 31
0.0
  0
LINE
  5
3FA
330
27
100
AcDbEntity
  8
2
100
AcDbLine
 10
-271.609302
 20
-4.433945999999999
 30
0.0
 11
-270.359302
 21
-3.712258
 31
0.0
  0
LINE
  5
3FB
330
27
100
AcDbEntity
  8
2
100
AcDbLine
 10
-270.359302
 20
-3.712258
 30
0.0
 11
-264.109302
 21
-3.712258
 31
0.0
  0
LINE
  5
3FC
330
27
100
AcDbEntity
  8
2
100
AcDbLine
 10
-267.859302
 20
-9.212258
 30
0.0
 11
-267.859302
 21
-4.433945999999999
 31
0.0
  0
ARC
  5
3FD
330
27
100
AcDbEntity
  8
2
100
AcDbCircle
 10
-269.734302
 20
-6.844322
 30
0.0
 40
3.053774
100
AcDbArc
 50
52.121121
 51
127.878879
  0
ARC
  5
3FE
330
27
100
AcDbEntity
  8
2
100
AcDbCircle
 10
-264.109302
 20
-15.040548
 30
0.0
 40
11.25
100
AcDbArc
 50
90.0
 51
109.471221
  0
LINE
  5
3FF
330
27
100
AcDbEntity
  8
2
100
AcDbLine
 10
-264.109302
 20
-34.212258
 30
0.0
 11
-267.432802
 21
-34.212258
 31
0.0
  0
LINE
  5
400
330
27
100
AcDbEntity
  8
2
100
AcDbLine
 10
-267.432802
 20
-34.212258
 30
0.0
 11
-268.109302
 21
-33.535758
 31
0.0
  0
LINE
  5
401
330
27
100
AcDbEntity
  8
2
100
AcDbLine
 10
-268.109302
 20
-33.535758
 30
0.0
 11
-268.109302
 21
-31.712258
 31
0.0
  0
LINE
  5
402
330
27
100
AcDbEntity
  8
2
100
AcDbLine
 10
-268.109302
 20
-33.535758
 30
0.0
 11
-264.109302
 21
-33.535758
 31
0.0
  0
LINE
  5
403
330
27
100
AcDbEntity
  8
2
 62
     2
100
AcDbLine
 10
-267.432802
 20
-34.212258
 30
0.0
 11
-267.432802
 21
-31.712258
 31
0.0
  0
LINE
  5
404
330
27
100
AcDbEntity
  8
2
100
AcDbLine
 10
-264.109302
 20
-9.212258
 30
0.0
 11
-256.609302
 21
-9.212258
 31
0.0
  0
LINE
  5
405
330
27
100
AcDbEntity
  8
2
100
AcDbLine
 10
-256.609302
 20
-9.212258
 30
0.0
 11
-256.609302
 21
-4.433945999999999
 31
0.0
  0
LINE
  5
406
330
27
100
AcDbEntity
  8
2
100
AcDbLine
 10
-256.609302
 20
-4.433945999999999
 30
0.0
 11
-257.859302
 21
-3.712258
 31
0.0
  0
LINE
  5
407
330
27
100
AcDbEntity
  8
2
100
AcDbLine
 10
-257.859302
 20
-3.712258
 30
0.0
 11
-264.109302
 21
-3.712258
 31
0.0
  0
LINE
  5
408
330
27
100
AcDbEntity
  8
2
100
AcDbLine
 10
-260.359302
 20
-9.212258
 30
0.0
 11
-260.359302
 21
-4.433945999999999
 31
0.0
  0
ARC
  5
409
330
27
100
AcDbEntity
  8
2
100
AcDbCircle
 10
-258.484302
 20
-6.844322
 30
0.0
 40
3.053774
100
AcDbArc
 50
52.121121
 51
127.878879
  0
ARC
  5
40A
330
27
100
AcDbEntity
  8
2
100
AcDbCircle
 10
-264.109302
 20
-15.040548
 30
0.0
 40
11.25
100
AcDbArc
 50
70.528779
 51
90.0
  0
LINE
  5
40B
330
27
100
AcDbEntity
  8
2
100
AcDbLine
 10
-264.109302
 20
-34.212258
 30
0.0
 11
-260.785802
 21
-34.212258
 31
0.0
  0
LINE
  5
40C
330
27
100
AcDbEntity
  8
2
100
AcDbLine
 10
-260.785802
 20
-34.212258
 30
0.0
 11
-260.109302
 21
-33.535758
 31
0.0
  0
LINE
  5
40D
330
27
100
AcDbEntity
  8
2
100
AcDbLine
 10
-260.109302
 20
-33.535758
 30
0.0
 11
-260.109302
 21
-31.712258
 31
0.0
  0
LINE
  5
40E
330
27
100
AcDbEntity
  8
2
100
AcDbLine
 10
-260.109302
 20
-33.535758
 30
0.0
 11
-264.109302
 21
-33.535758
 31
0.0
  0
LINE
  5
40F
330
27
100
AcDbEntity
  8
2
 62
     2
100
AcDbLine
 10
-260.785802
 20
-34.212258
 30
0.0
 11
-260.785802
 21
-31.712258
 31
0.0
  0
POINT
  5
410
330
27
100
AcDbEntity
  8
2
100
AcDbPoint
 10
-264.109302
 20
-23.212258
 30
0.0
  0
LINE
  5
411
330
27
100
AcDbEntity
  8
2
100
AcDbLine
 10
-258.360565
 20
-31.712258
 30
0.0
 11
-264.109302
 21
-31.712258
 31
0.0
  0
LINE
  5
412
330
27
100
AcDbEntity
  8
2
100
AcDbLine
 10
-260.359302
 20
-25.212258
 30
0.0
 11
-260.359302
 21
-30.99057
 31
0.0
  0
ARC
  5
413
330
27
100
AcDbEntity
  8
2
100
AcDbCircle
 10
-258.484302
 20
-28.580194
 30
0.0
 40
3.053774
100
AcDbArc
 50
232.121121
 51
272.322224
  0
ARC
  5
414
330
27
100
AcDbEntity
  8
2
100
AcDbCircle
 10
-264.109302
 20
-20.383968
 30
0.0
 40
11.25
100
AcDbArc
 50
270.0
 51
289.471221
  0
LINE
  5
415
330
27
100
AcDbEntity
  8
2
100
AcDbLine
 10
-258.896497
 20
-25.212258
 30
0.0
 11
-271.609302
 21
-25.212258
 31
0.0
  0
LINE
  5
416
330
27
100
AcDbEntity
  8
2
100
AcDbLine
 10
-271.609302
 20
-25.212258
 30
0.0
 11
-271.609302
 21
-30.99057
 31
0.0
  0
LINE
  5
417
330
27
100
AcDbEntity
  8
2
100
AcDbLine
 10
-271.609302
 20
-30.99057
 30
0.0
 11
-270.359302
 21
-31.712258
 31
0.0
  0
LINE
  5
418
330
27
100
AcDbEntity
  8
2
100
AcDbLine
 10
-270.359302
 20
-31.712258
 30
0.0
 11
-264.109302
 21
-31.712258
 31
0.0
  0
LINE
  5
419
330
27
100
AcDbEntity
  8
2
100
AcDbLine
 10
-267.859302
 20
-25.212258
 30
0.0
 11
-267.859302
 21
-30.99057
 31
0.0
  0
ARC
  5
41A
330
27
100
AcDbEntity
  8
2
100
AcDbCircle
 10
-269.734302
 20
-28.580194
 30
0.0
 40
3.053774
100
AcDbArc
 50
232.121121
 51
307.878879
  0
ARC
  5
41B
330
27
100
AcDbEntity
  8
2
100
AcDbCircle
 10
-264.109302
 20
-20.383968
 30
0.0
 40
11.25
100
AcDbArc
 50
250.528779
 51
270.0
  0
LINE
  5
41C
330
27
100
AcDbEntity
  8
2
100
AcDbLine
 10
-264.727368
 20
-25.212258
 30
0.0
 11
-271.809302
 21
-25.212258
 31
0.0
  0
LINE
  5
41D
330
27
100
AcDbEntity
  8
2
100
AcDbLine
 10
-271.809302
 20
-25.212258
 30
0.0
 11
-271.809302
 21
-23.212258
 31
0.0
  0
LINE
  5
41E
330
27
100
AcDbEntity
  8
2
100
AcDbLine
 10
-271.809302
 20
-23.212258
 30
0.0
 11
-256.409302
 21
-23.212258
 31
0.0
  0
ARC
  5
41F
330
27
100
AcDbEntity
  8
2
100
AcDbCircle
 10
-45.11073099999999
 20
49.96511599999999
 30
0.0
 40
5.0
100
AcDbArc
 50
12.0
 51
102.0
  0
LINE
  5
420
330
27
100
AcDbEntity
  8
2
100
AcDbLine
 10
-39.520958
 20
47.715969
 30
0.0
 11
-40.219993
 21
51.004674
 31
0.0
  0
ARC
  5
421
330
27
100
AcDbEntity
  8
2
100
AcDbCircle
 10
-40.499105
 20
47.508058
 30
0.0
 40
1.0
100
AcDbArc
 50
285.0
 51
12.0
  0
LINE
  5
422
330
27
100
AcDbEntity
  8
2
100
AcDbLine
 10
-40.240286
 20
46.542132
 30
0.0
 11
-117.812963
 21
25.756596
 31
0.0
  0
ARC
  5
423
330
27
100
AcDbEntity
  8
2
100
AcDbCircle
 10
-107.460202
 20
-12.880437
 30
0.0
 40
40.0
100
AcDbArc
 50
105.0
 51
135.0
  0
LINE
  5
424
330
27
100
AcDbEntity
  8
2
100
AcDbLine
 10
-102.802937
 20
25.094896
 30
0.0
 11
-96.96768200000001
 21
24.323077
 31
0.0
  0
LINE
  5
425
330
27
100
AcDbEntity
  8
2
100
AcDbLine
 10
-102.923213
 20
29.746292
 30
0.0
 11
-97.421483
 21
29.295376
 31
0.0
  0
LINE
  5
426
330
27
100
AcDbEntity
  8
2
100
AcDbLine
 10
-93.526821
 20
30.875366
 30
0.0
 11
-103.047735
 21
27.012912
 31
0.0
  0
LINE
  5
427
330
27
100
AcDbEntity
  8
2
100
AcDbLine
 10
-92.77497199999999
 20
29.022066
 30
0.0
 11
-102.295886
 21
25.159611
 31
0.0
  0
LINE
  5
428
330
27
100
AcDbEntity
  8
2
100
AcDbLine
 10
-92.84581499999999
 20
25.693766
 30
0.0
 11
-102.80117
 21
22.383205
 31
0.0
  0
LINE
  5
429
330
27
100
AcDbEntity
  8
2
100
AcDbLine
 10
-92.214714
 20
23.795949
 30
0.0
 11
-102.170068
 21
20.485388
 31
0.0
  0
LINE
  5
42A
330
27
100
AcDbEntity
  8
2
100
AcDbLine
 10
-92.77530199999999
 20
20.049445
 30
0.0
 11
-102.99512
 21
16.103283
 31
0.0
  0
LINE
  5
42B
330
27
100
AcDbEntity
  8
2
100
AcDbLine
 10
-92.05488499999999
 20
18.183701
 30
0.0
 11
-102.482482
 21
14.15731
 31
0.0
  0
LINE
  5
42C
330
27
100
AcDbEntity
  8
2
100
AcDbLine
 10
-102.707552
 20
20.459234
 30
0.0
 11
-100.55299
 21
19.968835
 31
0.0
  0
ARC
  5
42D
330
27
100
AcDbEntity
  8
2
100
AcDbCircle
 10
-102.485619
 20
21.434296
 30
0.0
 40
1.0
100
AcDbArc
 50
108.394069
 51
288.394069
  0
ARC
  5
42E
330
27
100
AcDbEntity
  8
2
100
AcDbCircle
 10
-102.67181
 20
26.086262
 30
0.0
 40
1.0
100
AcDbArc
 50
112.081463
 51
292.081463
  0
ARC
  5
42F
330
27
100
AcDbEntity
  8
2
100
AcDbCircle
 10
-92.53026400000001
 20
24.744857
 30
0.0
 40
1.0
100
AcDbArc
 50
288.394069
 51
108.394069
  0
CIRCLE
  5
430
330
27
100
AcDbEntity
  8
2
100
AcDbCircle
 10
-92.648048
 20
14.834784
 30
0.0
 40
1.0
  0
LINE
  5
431
330
27
100
AcDbEntity
  8
2
100
AcDbLine
 10
-93.564324
 20
15.865577
 30
0.0
 11
-92.648048
 21
15.834784
 31
0.0
  0
LINE
  5
432
330
27
100
AcDbEntity
  8
2
100
AcDbLine
 10
-98.78911600000002
 20
21.609692
 30
0.0
 11
-92.19080799999998
 21
20.091097
 31
0.0
  0
LINE
  5
433
330
27
100
AcDbEntity
  8
2
100
AcDbLine
 10
-95.835018
 20
18.89498
 30
0.0
 11
-95.79106000000001
 21
18.884975
 31
0.0
  0
ARC
  5
434
330
27
100
AcDbEntity
  8
2
100
AcDbCircle
 10
-92.41509399999999
 20
19.116573
 30
0.0
 40
1.0
100
AcDbArc
 50
291.112991
 51
111.112991
  0
LINE
  5
435
330
27
100
AcDbEntity
  8
2
100
AcDbLine
 10
-97.18826300000001
 20
31.282968
 30
0.0
 11
-93.06921199999999
 21
30.945374
 31
0.0
  0
LINE
  5
436
330
27
100
AcDbEntity
  8
2
100
AcDbLine
 10
-98.79065400000001
 20
26.581618
 30
0.0
 11
-92.399138
 21
25.736223
 31
0.0
  0
ARC
  5
437
330
27
100
AcDbEntity
  8
2
100
AcDbCircle
 10
-93.15089699999999
 20
29.948716
 30
0.0
 40
1.0
100
AcDbArc
 50
292.081463
 51
112.081463
  0
ARC
  5
438
330
27
100
AcDbEntity
  8
2
100
AcDbCircle
 10
-102.634912
 20
15.170411
 30
0.0
 40
1.0
100
AcDbArc
 50
111.105845
 51
266.001991
  0
LINE
  5
439
330
27
100
AcDbEntity
  8
2
100
AcDbLine
 10
-93.451097
 20
13.862098
 30
0.0
 11
-92.648048
 21
13.834784
 31
0.0
  0
ARC
  5
43A
330
27
100
AcDbEntity
  8
2
  6
CENTER
 62
     2
100
AcDbCircle
 10
-149.360565
 20
19.787742
 30
0.0
 40
52.075925
100
AcDbArc
 50
348.756732
 51
23.167626
  0
ARC
  5
43B
330
27
100
AcDbEntity
  8
2
100
AcDbCircle
 10
-47.36257
 20
6.562302
 30
0.0
 40
8.0
100
AcDbArc
 50
359.985133
 51
88.0
  0
LINE
  5
43C
330
27
100
AcDbEntity
  8
2
100
AcDbLine
 10
-132.311988
 20
9.673632000000001
 30
0.0
 11
-108.543343
 21
5.482578
 31
0.0
  0
LINE
  5
43D
330
27
100
AcDbEntity
  8
2
100
AcDbLine
 10
-105.627604
 20
15.37968
 30
0.0
 11
-105.574829
 21
16.134404
 31
0.0
  0
LINE
  5
43E
330
27
100
AcDbEntity
  8
2
100
AcDbLine
 10
-89.66657899999999
 20
14.263577
 30
0.0
 11
-89.612107
 21
15.042565
 31
0.0
  0
LINE
  5
43F
330
27
100
AcDbEntity
  8
2
100
AcDbLine
 10
-100.27776
 20
20.208089
 30
0.0
 11
-94.29237500000001
 21
19.78955
 31
0.0
  0
LINE
  5
440
330
27
100
AcDbEntity
  8
2
100
AcDbLine
 10
-101.527614
 20
16.669929
 30
0.0
 11
-101.34508
 21
19.280282
 31
0.0
  0
LINE
  5
441
330
27
100
AcDbEntity
  8
2
100
AcDbLine
 10
-93.656836
 20
14.542603
 30
0.0
 11
-93.43961400000001
 21
17.649018
 31
0.0
  0
LINE
  5
442
330
27
100
AcDbEntity
  8
2
100
AcDbLine
 10
-101.34508
 20
19.280282
 30
0.0
 11
-100.27776
 21
20.208089
 31
0.0
  0
LINE
  5
443
330
27
100
AcDbEntity
  8
2
100
AcDbLine
 10
-94.29237500000001
 20
19.78955
 30
0.0
 11
-94.080276
 21
19.545558
 31
0.0
  0
LINE
  5
444
330
27
100
AcDbEntity
  8
2
100
AcDbLine
 10
-39.36257
 20
6.560225999999999
 30
0.0
 11
-39.363141
 21
4.358265
 31
0.0
  0
LINE
  5
445
330
27
100
AcDbEntity
  8
2
100
AcDbLine
 10
-47.083374
 20
14.557428
 30
0.0
 11
-88.54295999999999
 21
16.005229
 31
0.0
  0
ARC
  5
446
330
27
100
AcDbEntity
  8
2
100
AcDbCircle
 10
-92.659272
 20
14.472846
 30
0.0
 40
1.0
100
AcDbArc
 50
176.0
 51
266.0
  0
LINE
  5
447
330
27
100
AcDbEntity
  8
2
100
AcDbLine
 10
-104.699797
 20
14.31236
 30
0.0
 11
-90.73390000000001
 21
13.335769
 31
0.0
  0
LINE
  5
448
330
27
100
AcDbEntity
  8
2
100
AcDbLine
 10
-101.34508
 20
19.280282
 30
0.0
 11
-95.77586099999999
 21
18.890844
 31
0.0
  0
ARC
  5
449
330
27
100
AcDbEntity
  8
2
100
AcDbCircle
 10
-94.65148799999999
 20
84.26719799999998
 30
0.0
 40
80.0
100
AcDbArc
 50
260.0
 51
269.845396
  0
ARC
  5
44A
330
27
100
AcDbEntity
  8
2
100
AcDbCircle
 10
-41.36314099999999
 20
4.358783999999999
 30
0.0
 40
2.0
100
AcDbArc
 50
222.427004
 51
359.985133
  0
ARC
  5
44B
330
27
100
AcDbEntity
  8
2
100
AcDbCircle
 10
-48.744516
 20
-2.38772
 30
0.0
 40
8.0
100
AcDbArc
 50
42.42700399999999
 51
123.6590879999999
  0
ARC
  5
44C
330
27
100
AcDbEntity
  8
2
100
AcDbCircle
 10
-57.61251899999999
 20
10.929882
 30
0.0
 40
8.0
100
AcDbArc
 50
232.340912
 51
303.659088
  0
ARC
  5
44D
330
27
100
AcDbEntity
  8
2
100
AcDbCircle
 10
-67.38790999999999
 20
-1.736677999999999
 30
0.0
 40
8.0
100
AcDbArc
 50
52.340912
 51
123.6590879999999
  0
ARC
  5
44E
330
27
100
AcDbEntity
  8
2
100
AcDbCircle
 10
-76.25591400000001
 20
11.580924
 30
0.0
 40
8.0
100
AcDbArc
 50
232.340912
 51
303.659088
  0
ARC
  5
44F
330
27
100
AcDbEntity
  8
2
100
AcDbCircle
 10
-86.03130400000001
 20
-1.085636
 30
0.0
 40
8.0
100
AcDbArc
 50
52.340912
 51
123.42906
  0
ARC
  5
450
330
27
100
AcDbEntity
  8
2
100
AcDbCircle
 10
-94.84576999999999
 20
12.267461
 30
0.0
 40
8.0
100
AcDbArc
 50
269.845396
 51
303.42906
  0
LINE
  5
451
330
27
100
AcDbEntity
  8
2
100
AcDbLine
 10
-105.574829
 20
16.134404
 30
0.0
 11
-106.48988
 21
17.305617
 31
0.0
  0
LINE
  5
452
330
27
100
AcDbEntity
  8
2
100
AcDbLine
 10
-88.54295999999999
 20
16.005229
 30
0.0
 11
-89.612107
 21
15.042565
 31
0.0
  0
ARC
  5
453
330
27
100
AcDbEntity
  8
2
100
AcDbCircle
 10
-104.63004
 20
15.309924
 30
0.0
 40
1.0
100
AcDbArc
 50
176.0
 51
266.0
  0
ARC
  5
454
330
27
100
AcDbEntity
  8
2
100
AcDbCircle
 10
-90.66414399999999
 20
14.333333
 30
0.0
 40
1.0
100
AcDbArc
 50
266.0
 51
356.0
  0
LINE
  5
455
330
27
100
AcDbEntity
  8
2
100
AcDbLine
 10
-130.3605649999999
 20
9.329542999999999
 30
0.0
 11
-130.3605649999999
 21
19.915498
 31
0.0
  0
LINE
  5
456
330
27
100
AcDbEntity
  8
2
100
AcDbLine
 10
-128.351144
 20
21.160347
 30
0.0
 11
-106.48988
 21
17.305617
 31
0.0
  0
ARC
  5
457
330
27
100
AcDbEntity
  8
2
100
AcDbCircle
 10
-127.8302
 20
24.114771
 30
0.0
 40
3.0
100
AcDbArc
 50
258.30264
 51
260.0
  0
LINE
  5
458
330
27
100
AcDbEntity
  8
2
  6
CENTER
 62
     2
100
AcDbLine
 10
-214.611827
 20
-34.949148
 30
0.0
 11
-214.611827
 21
-2.100375999999999
 31
0.0
  0
LINE
  5
459
330
27
100
AcDbEntity
  8
2
  6
CENTER
 62
     2
100
AcDbLine
 10
-264.109302
 20
-35.452572
 30
0.0
 11
-264.109302
 21
-2.226224999999999
 31
0.0
  0
LINE
  5
45A
330
27
100
AcDbEntity
  8
2
100
AcDbLine
 10
-289.360565
 20
-9.212258
 30
0.0
 11
-289.360565
 21
-11.212258
 31
0.0
  0
LINE
  5
45B
330
27
100
AcDbEntity
  8
2
100
AcDbLine
 10
188.94666
 20
9.787684
 30
0.0
 11
194.94666
 21
9.787684
 31
0.0
  0
ARC
  5
45C
330
27
100
AcDbEntity
  8
2
100
AcDbCircle
 10
190.44666
 20
10.787684
 30
0.0
 40
1.0
100
AcDbArc
 50
180.0
 51
270.0
  0
LINE
  5
45D
330
27
100
AcDbEntity
  8
2
100
AcDbLine
 10
214.94666
 20
9.787684
 30
0.0
 11
208.94666
 21
9.787684
 31
0.0
  0
ARC
  5
45E
330
27
100
AcDbEntity
  8
2
100
AcDbCircle
 10
213.44666
 20
10.787684
 30
0.0
 40
1.0
100
AcDbArc
 50
270.0
 51
360.0
  0
LINE
  5
45F
330
27
100
AcDbEntity
  8
2
100
AcDbLine
 10
215.94666
 20
21.787684
 30
0.0
 11
216.94666
 21
20.787684
 31
0.0
  0
LINE
  5
460
330
27
100
AcDbEntity
  8
2
100
AcDbLine
 10
216.94666
 20
0.7876840000000001
 30
0.0
 11
216.94666
 21
20.787684
 31
0.0
  0
LINE
  5
461
330
27
100
AcDbEntity
  8
2
100
AcDbLine
 10
207.94666
 20
10.787684
 30
0.0
 11
207.94666
 21
21.532053
 31
0.0
  0
LINE
  5
462
330
27
100
AcDbEntity
  8
2
100
AcDbLine
 10
215.94666
 20
10.787684
 30
0.0
 11
215.94666
 21
24.287684
 31
0.0
  0
ARC
  5
463
330
27
100
AcDbEntity
  8
2
100
AcDbCircle
 10
215.44666
 20
24.287684
 30
0.0
 40
0.5
100
AcDbArc
 50
0.0
 51
90.0
  0
ARC
  5
464
330
27
100
AcDbEntity
  8
2
100
AcDbCircle
 10
214.94666
 20
25.287684
 30
0.0
 40
0.5
100
AcDbArc
 50
180.0
 51
270.0
  0
LINE
  5
465
330
27
100
AcDbEntity
  8
2
100
AcDbLine
 10
215.44666
 20
24.787684
 30
0.0
 11
214.94666
 21
24.787684
 31
0.0
  0
LINE
  5
466
330
27
100
AcDbEntity
  8
2
100
AcDbLine
 10
214.44666
 20
10.787684
 30
0.0
 11
214.44666
 21
25.287684
 31
0.0
  0
LINE
  5
467
330
27
100
AcDbEntity
  8
2
100
AcDbLine
 10
210.03586
 20
22.931275
 30
0.0
 11
208.641435
 21
22.484333
 31
0.0
  0
ARC
  5
468
330
27
100
AcDbEntity
  8
2
100
AcDbCircle
 10
208.94666
 20
21.532053
 30
0.0
 40
1.0
100
AcDbArc
 50
107.771715
 51
180.0
  0
LINE
  5
469
330
27
100
AcDbEntity
  8
2
100
AcDbLine
 10
207.94666
 20
28.033955
 30
0.0
 11
207.94666
 21
21.532053
 31
0.0
  0
LINE
  5
46A
330
27
100
AcDbEntity
  8
2
100
AcDbLine
 10
215.94666
 20
17.260696
 30
0.0
 11
216.74666
 21
9.714919999999999
 31
0.0
  0
ARC
  5
46B
330
27
100
AcDbEntity
  8
2
100
AcDbCircle
 10
214.94666
 20
10.787684
 30
0.0
 40
1.0
100
AcDbArc
 50
270.0
 51
360.0
  0
ARC
  5
46C
330
27
100
AcDbEntity
  8
2
100
AcDbCircle
 10
208.94666
 20
10.787684
 30
0.0
 40
1.0
100
AcDbArc
 50
180.0
 51
270.0
  0
ARC
  5
46D
330
27
100
AcDbEntity
  8
2
100
AcDbCircle
 10
209.730635
 20
23.883556
 30
0.0
 40
1.0
100
AcDbArc
 50
287.771715
 51
6.051866999999999
  0
ARC
  5
46E
330
27
100
AcDbEntity
  8
2
100
AcDbCircle
 10
194.162685
 20
23.883556
 30
0.0
 40
1.0
100
AcDbArc
 50
173.948133
 51
252.228285
  0
ARC
  5
46F
330
27
100
AcDbEntity
  8
2
100
AcDbCircle
 10
194.94666
 20
10.787684
 30
0.0
 40
1.0
100
AcDbArc
 50
270.0
 51
360.0
  0
ARC
  5
470
330
27
100
AcDbEntity
  8
2
100
AcDbCircle
 10
188.94666
 20
10.787684
 30
0.0
 40
1.0
100
AcDbArc
 50
180.0
 51
270.0
  0
ARC
  5
471
330
27
100
AcDbEntity
  8
2
100
AcDbCircle
 10
211.777247
 20
4.579467
 30
0.0
 40
1.0
100
AcDbArc
 50
279.951879
 51
6.051866999999999
  0
ARC
  5
472
330
27
100
AcDbEntity
  8
2
100
AcDbCircle
 10
192.116073
 20
4.579467
 30
0.0
 40
1.0
100
AcDbArc
 50
173.948133
 51
260.048121
  0
ARC
  5
473
330
27
100
AcDbEntity
  8
2
100
AcDbCircle
 10
201.94666
 20
60.60661500000001
 30
0.0
 40
57.88305300000001
100
AcDbArc
 50
260.048121
 51
264.1497
  0
LINE
  5
474
330
27
100
AcDbEntity
  8
2
100
AcDbLine
 10
187.14666
 20
0.7876840000000001
 30
0.0
 11
187.14666
 21
9.714919999999999
 31
0.0
  0
LINE
  5
475
330
27
100
AcDbEntity
  8
2
100
AcDbLine
 10
187.94666
 20
17.260696
 30
0.0
 11
187.14666
 21
9.714919999999999
 31
0.0
  0
LINE
  5
476
330
27
100
AcDbEntity
  8
2
100
AcDbLine
 10
191.662642
 20
9.787684
 30
0.0
 11
191.121647
 21
4.684895
 31
0.0
  0
LINE
  5
477
330
27
100
AcDbEntity
  8
2
100
AcDbLine
 10
212.94666
 20
0.7876840000000001
 30
0.0
 11
212.94666
 21
-0.212316
 31
0.0
  0
ARC
  5
478
330
27
100
AcDbEntity
  8
2
100
AcDbCircle
 10
207.44666
 20
38.893569
 30
0.0
 40
1.5
100
AcDbArc
 50
69.33280100000001
 51
94.27095600000001
  0
LINE
  5
479
330
27
100
AcDbEntity
  8
2
100
AcDbLine
 10
215.94666
 20
17.260696
 30
0.0
 11
216.94666
 21
7.828475
 31
0.0
  0
ARC
  5
47A
330
27
100
AcDbEntity
  8
2
100
AcDbCircle
 10
207.521796
 20
49.370883
 30
0.0
 40
5.0
100
AcDbArc
 50
9.174666
 51
77.83324
  0
LINE
  5
47B
330
27
100
AcDbEntity
  8
2
100
AcDbLine
 10
212.45783
 20
50.168107
 30
0.0
 11
212.45783
 21
45.585461
 31
0.0
  0
LINE
  5
47C
330
27
100
AcDbEntity
  8
2
100
AcDbLine
 10
205.94666
 20
38.557679
 30
0.0
 11
205.94666
 21
35.872065
 31
0.0
  0
ARC
  5
47D
330
27
100
AcDbEntity
  8
2
100
AcDbCircle
 10
211.45783
 20
45.585461
 30
0.0
 40
1.0
100
AcDbArc
 50
259.300245
 51
360.0
  0
LINE
  5
47E
330
27
100
AcDbEntity
  8
2
100
AcDbLine
 10
212.45783
 20
50.168107
 30
0.0
 11
215.148652
 21
24.787684
 31
0.0
  0
ARC
  5
47F
330
27
100
AcDbEntity
  8
2
100
AcDbCircle
 10
207.581724
 20
44.152557
 30
0.0
 40
1.0
100
AcDbArc
 50
6.051866999999999
 51
83.42705999999999
  0
LINE
  5
480
330
27
100
AcDbEntity
  8
2
100
AcDbLine
 10
212.230678
 20
9.787684
 30
0.0
 11
212.771673
 21
4.684895
 31
0.0
  0
ARC
  5
481
330
27
100
AcDbEntity
  8
2
100
AcDbCircle
 10
204.94666
 20
28.033955
 30
0.0
 40
3.0
100
AcDbArc
 50
0.0
 51
28.460849
  0
LINE
  5
482
330
27
100
AcDbEntity
  8
2
100
AcDbLine
 10
208.576151
 20
44.25798499999999
 30
0.0
 11
210.725062
 21
23.988984
 31
0.0
  0
LINE
  5
483
330
27
100
AcDbEntity
  8
2
100
AcDbLine
 10
207.94666
 20
28.033955
 30
0.0
 11
207.94666
 21
22.871684
 31
0.0
  0
LINE
  5
484
330
27
100
AcDbEntity
  8
2
100
AcDbLine
 10
195.94666
 20
28.033955
 30
0.0
 11
195.94666
 21
21.532053
 31
0.0
  0
ARC
  5
485
330
27
100
AcDbEntity
  8
2
100
AcDbCircle
 10
194.94666
 20
21.532053
 30
0.0
 40
1.0
100
AcDbArc
 50
0.0
 51
72.228285
  0
LINE
  5
486
330
27
100
AcDbEntity
  8
2
100
AcDbLine
 10
195.317169
 20
44.25798499999999
 30
0.0
 11
193.168258
 21
23.988984
 31
0.0
  0
ARC
  5
487
330
27
100
AcDbEntity
  8
2
100
AcDbCircle
 10
198.94666
 20
28.033955
 30
0.0
 40
3.0
100
AcDbArc
 50
113.205282
 51
180.0
  0
LINE
  5
488
330
27
100
AcDbEntity
  8
2
100
AcDbLine
 10
193.857459
 20
22.931275
 30
0.0
 11
195.251885
 21
22.484333
 31
0.0
  0
LINE
  5
489
330
27
100
AcDbEntity
  8
2
100
AcDbLine
 10
190.94666
 20
0.7876840000000001
 30
0.0
 11
190.94666
 21
-0.212316
 31
0.0
  0
ARC
  5
48A
330
27
100
AcDbEntity
  8
2
100
AcDbCircle
 10
196.311596
 20
44.152557
 30
0.0
 40
1.0
100
AcDbArc
 50
96.57294
 51
173.948133
  0
LINE
  5
48B
330
27
100
AcDbEntity
  8
2
100
AcDbLine
 10
216.94666
 20
0.7876840000000001
 30
0.0
 11
207.84666
 21
0.7876840000000001
 31
0.0
  0
LINE
  5
48C
330
27
100
AcDbEntity
  8
2
100
AcDbLine
 10
190.94666
 20
-0.212316
 30
0.0
 11
196.04666
 21
-0.212316
 31
0.0
  0
LINE
  5
48D
330
27
100
AcDbEntity
  8
2
100
AcDbLine
 10
189.44666
 20
10.787684
 30
0.0
 11
189.44666
 21
25.287684
 31
0.0
  0
LINE
  5
48E
330
27
100
AcDbEntity
  8
2
100
AcDbLine
 10
191.43549
 20
50.168107
 30
0.0
 11
188.744668
 21
24.787684
 31
0.0
  0
LINE
  5
48F
330
27
100
AcDbEntity
  8
2
100
AcDbLine
 10
188.44666
 20
24.787684
 30
0.0
 11
188.94666
 21
24.787684
 31
0.0
  0
ARC
  5
490
330
27
100
AcDbEntity
  8
2
100
AcDbCircle
 10
188.94666
 20
25.287684
 30
0.0
 40
0.5
100
AcDbArc
 50
270.0
 51
360.0
  0
ARC
  5
491
330
27
100
AcDbEntity
  8
2
100
AcDbCircle
 10
188.44666
 20
24.287684
 30
0.0
 40
0.5
100
AcDbArc
 50
90.0
 51
180.0
  0
LINE
  5
492
330
27
100
AcDbEntity
  8
2
100
AcDbLine
 10
187.94666
 20
10.787684
 30
0.0
 11
187.94666
 21
24.287684
 31
0.0
  0
ARC
  5
493
330
27
100
AcDbEntity
  8
2
100
AcDbCircle
 10
201.94666
 20
-4.752167
 30
0.0
 40
50.228304
100
AcDbArc
 50
79.30024499999999
 51
100.699755
  0
ARC
  5
494
330
27
100
AcDbEntity
  8
2
100
AcDbCircle
 10
192.43549
 20
45.585461
 30
0.0
 40
1.0
100
AcDbArc
 50
180.0
 51
280.699755
  0
ARC
  5
495
330
27
100
AcDbEntity
  8
2
100
AcDbCircle
 10
201.94666
 20
30.69901
 30
0.0
 40
11.334722
100
AcDbArc
 50
68.40872399999999
 51
114.66929
  0
LINE
  5
496
330
27
100
AcDbEntity
  8
2
100
AcDbLine
 10
197.94666
 20
34.720802
 30
0.0
 11
198.94666
 21
33.720802
 31
0.0
  0
ARC
  5
497
330
27
100
AcDbEntity
  8
2
100
AcDbCircle
 10
201.94666
 20
25.699287
 30
0.0
 40
9.868522999999999
100
AcDbArc
 50
76.97849599999999
 51
113.911756
  0
ARC
  5
498
330
27
100
AcDbEntity
  8
2
100
AcDbCircle
 10
196.44666
 20
38.893569
 30
0.0
 40
1.5
100
AcDbArc
 50
0.0
 51
110.667199
  0
LINE
  5
499
330
27
100
AcDbEntity
  8
2
100
AcDbLine
 10
197.94666
 20
38.893569
 30
0.0
 11
197.94666
 21
38.721946
 31
0.0
  0
LINE
  5
49A
330
27
100
AcDbEntity
  8
2
100
AcDbLine
 10
195.94666
 20
10.787684
 30
0.0
 11
195.94666
 21
21.532053
 31
0.0
  0
LINE
  5
49B
330
27
100
AcDbEntity
  8
2
100
AcDbLine
 10
191.43549
 20
50.168107
 30
0.0
 11
191.43549
 21
45.585461
 31
0.0
  0
LINE
  5
49C
330
27
100
AcDbEntity
  8
2
100
AcDbLine
 10
185.94666
 20
21.787684
 30
0.0
 11
187.94666
 21
21.787684
 31
0.0
  0
LINE
  5
49D
330
27
100
AcDbEntity
  8
2
100
AcDbLine
 10
184.94666
 20
20.787684
 30
0.0
 11
184.94666
 21
0.7876840000000001
 31
0.0
  0
ARC
  5
49E
330
27
100
AcDbEntity
  8
2
100
AcDbCircle
 10
185.94666
 20
20.787684
 30
0.0
 40
1.0
100
AcDbArc
 50
90.0
 51
180.0
  0
ARC
  5
49F
330
27
100
AcDbEntity
  8
2
100
AcDbCircle
 10
196.371524
 20
49.370883
 30
0.0
 40
5.0
100
AcDbArc
 50
102.16676
 51
170.825334
  0
ARC
  5
4A0
330
27
100
AcDbEntity
  8
2
100
AcDbCircle
 10
201.94666
 20
23.512236
 30
0.0
 40
31.452822
100
AcDbArc
 50
77.83324
 51
102.16676
  0
LINE
  5
4A1
330
27
100
AcDbEntity
  8
2
100
AcDbLine
 10
207.84666
 20
-0.212316
 30
0.0
 11
212.94666
 21
-0.212316
 31
0.0
  0
LINE
  5
4A2
330
27
100
AcDbEntity
  8
2
100
AcDbLine
 10
196.04666
 20
0.7876840000000001
 30
0.0
 11
184.94666
 21
0.7876840000000001
 31
0.0
  0
ARC
  5
4A3
330
27
100
AcDbEntity
  8
2
100
AcDbCircle
 10
201.94666
 20
60.60661500000001
 30
0.0
 40
57.88305300000001
100
AcDbArc
 50
275.8503
 51
279.951879
  0
LINE
  5
4A4
330
27
100
AcDbEntity
  8
2
100
AcDbLine
 10
197.94666
 20
36.734631
 30
0.0
 11
197.94666
 21
34.720802
 31
0.0
  0
ARC
  5
4A5
330
27
100
AcDbEntity
  8
2
100
AcDbCircle
 10
204.94666
 20
28.033955
 30
0.0
 40
3.0
100
AcDbArc
 50
55.144622
 51
90.0
  0
LINE
  5
4A6
330
27
100
AcDbEntity
  8
2
100
AcDbLine
 10
206.285021
 20
30.452715
 30
0.0
 11
196.723837
 21
27.449362
 31
0.0
  0
LINE
  5
4A7
330
27
100
AcDbEntity
  8
2
100
AcDbLine
 10
206.884385
 20
28.544637
 30
0.0
 11
197.323201
 21
25.541283
 31
0.0
  0
LINE
  5
4A8
330
27
100
AcDbEntity
  8
2
100
AcDbLine
 10
196.768441
 20
25.528402
 30
0.0
 11
202.981484
 21
23.889373
 31
0.0
  0
LINE
  5
4A9
330
27
100
AcDbEntity
  8
2
100
AcDbLine
 10
206.285021
 20
24.927078
 30
0.0
 11
196.723837
 21
21.923725
 31
0.0
  0
LINE
  5
4AA
330
27
100
AcDbEntity
  8
2
100
AcDbLine
 10
206.884385
 20
23.019
 30
0.0
 11
197.323201
 21
20.015647
 31
0.0
  0
LINE
  5
4AB
330
27
100
AcDbEntity
  8
2
100
AcDbLine
 10
206.884385
 20
17.493364
 30
0.0
 11
197.323201
 21
14.49001
 31
0.0
  0
LINE
  5
4AC
330
27
100
AcDbEntity
  8
2
100
AcDbLine
 10
206.285021
 20
19.401442
 30
0.0
 11
196.723837
 21
16.398089
 31
0.0
  0
LINE
  5
4AD
330
27
100
AcDbEntity
  8
2
100
AcDbLine
 10
196.768441
 20
20.002765
 30
0.0
 11
198.660737
 21
19.503569
 31
0.0
  0
ARC
  5
4AE
330
27
100
AcDbEntity
  8
2
100
AcDbCircle
 10
197.023519
 20
15.44405
 30
0.0
 40
1.0
100
AcDbArc
 50
100.738785
 51
286.6206009999999
  0
ARC
  5
4AF
330
27
100
AcDbEntity
  8
2
100
AcDbCircle
 10
197.023519
 20
20.969686
 30
0.0
 40
1.0
100
AcDbArc
 50
107.438515
 51
286.6206009999999
  0
ARC
  5
4B0
330
27
100
AcDbEntity
  8
2
100
AcDbCircle
 10
197.023519
 20
26.495322
 30
0.0
 40
1.0
100
AcDbArc
 50
107.438515
 51
286.6206009999999
  0
LINE
  5
4B1
330
27
100
AcDbEntity
  8
2
100
AcDbLine
 10
200.626738
 20
21.053352
 30
0.0
 11
206.839781
 21
19.414323
 31
0.0
  0
ARC
  5
4B2
330
27
100
AcDbEntity
  8
2
100
AcDbCircle
 10
206.584703
 20
18.447403
 30
0.0
 40
1.0
100
AcDbArc
 50
287.438515
 51
107.438515
  0
LINE
  5
4B3
330
27
100
AcDbEntity
  8
2
100
AcDbLine
 10
202.238657
 20
16.03405
 30
0.0
 11
206.839781
 21
15.656682
 31
0.0
  0
ARC
  5
4B4
330
27
100
AcDbEntity
  8
2
100
AcDbCircle
 10
206.869801
 20
14.636219
 30
0.0
 40
1.0
100
AcDbArc
 50
273.731968
 51
85.59196300000001
  0
LINE
  5
4B5
330
27
100
AcDbEntity
  8
2
100
AcDbLine
 10
200.626738
 20
26.578988
 30
0.0
 11
206.839781
 21
24.93996
 31
0.0
  0
ARC
  5
4B6
330
27
100
AcDbEntity
  8
2
100
AcDbCircle
 10
206.584703
 20
23.973039
 30
0.0
 40
1.0
100
AcDbArc
 50
281.107766
 51
107.438515
  0
LINE
  5
4B7
330
27
100
AcDbEntity
  8
2
100
AcDbLine
 10
206.777358
 20
38.746979
 30
0.0
 11
197.323201
 21
36.592556
 31
0.0
  0
LINE
  5
4B8
330
27
100
AcDbEntity
  8
2
100
AcDbLine
 10
206.285021
 20
40.682285
 30
0.0
 11
196.723837
 21
38.50063400000001
 31
0.0
  0
LINE
  5
4B9
330
27
100
AcDbEntity
  8
2
100
AcDbLine
 10
196.768441
 20
31.054038
 30
0.0
 11
202.981484
 21
29.41501
 31
0.0
  0
LINE
  5
4BA
330
27
100
AcDbEntity
  8
2
100
AcDbLine
 10
206.285021
 20
35.97835100000001
 30
0.0
 11
196.723837
 21
32.974998
 31
0.0
  0
LINE
  5
4BB
330
27
100
AcDbEntity
  8
2
100
AcDbLine
 10
206.884385
 20
34.070273
 30
0.0
 11
197.323201
 21
31.06692
 31
0.0
  0
ARC
  5
4BC
330
27
100
AcDbEntity
  8
2
100
AcDbCircle
 10
197.023519
 20
37.54659500000001
 30
0.0
 40
1.0
100
AcDbArc
 50
98.020858
 51
286.6206009999999
  0
LINE
  5
4BD
330
27
100
AcDbEntity
  8
2
100
AcDbLine
 10
196.768441
 20
36.579675
 30
0.0
 11
197.94666
 21
36.268855
 31
0.0
  0
ARC
  5
4BE
330
27
100
AcDbEntity
  8
2
100
AcDbCircle
 10
197.023519
 20
32.02095900000001
 30
0.0
 40
1.0
100
AcDbArc
 50
107.438515
 51
286.6206009999999
  0
LINE
  5
4BF
330
27
100
AcDbEntity
  8
2
100
AcDbLine
 10
205.94666
 20
36.226842
 30
0.0
 11
206.839781
 21
35.991233
 31
0.0
  0
LINE
  5
4C0
330
27
100
AcDbEntity
  8
2
100
AcDbLine
 10
200.626738
 20
32.104625
 30
0.0
 11
206.839781
 21
30.465596
 31
0.0
  0
ARC
  5
4C1
330
27
100
AcDbEntity
  8
2
100
AcDbCircle
 10
206.584703
 20
35.024312
 30
0.0
 40
1.0
100
AcDbArc
 50
281.107766
 51
107.438515
  0
ARC
  5
4C2
330
27
100
AcDbEntity
  8
2
100
AcDbCircle
 10
206.584703
 20
29.498676
 30
0.0
 40
1.0
100
AcDbArc
 50
281.107766
 51
107.438515
  0
ARC
  5
4C3
330
27
100
AcDbEntity
  8
2
100
AcDbCircle
 10
206.584703
 20
39.728246
 30
0.0
 40
1.0
100
AcDbArc
 50
281.107766
 51
107.438515
  0
LINE
  5
4C4
330
27
100
AcDbEntity
  8
2
  6
CENTER
 62
     2
100
AcDbLine
 10
181.722235
 20
19.787684
 30
0.0
 11
222.045229
 21
19.787684
 31
0.0
  0
LINE
  5
4C5
330
27
100
AcDbEntity
  8
2
  6
CENTER
 62
     2
100
AcDbLine
 10
201.94666
 20
6.103029
 30
0.0
 11
172.587281
 21
6.103029
 31
0.0
  0
LINE
  5
4C6
330
27
100
AcDbEntity
  8
2
100
AcDbLine
 10
184.94666
 20
1.103029
 30
0.0
 11
184.94666
 21
11.103029
 31
0.0
  0
ARC
  5
4C7
330
27
100
AcDbEntity
  8
2
100
AcDbCircle
 10
205.94666
 20
21.503113
 30
0.0
 40
1.0
100
AcDbArc
 50
0.0
 51
90.0
  0
ARC
  5
4C8
330
27
100
AcDbEntity
  8
2
100
AcDbCircle
 10
197.94666
 20
21.503113
 30
0.0
 40
1.0
100
AcDbArc
 50
90.0
 51
147.287273
  0
LINE
  5
4C9
330
27
100
AcDbEntity
  8
2
100
AcDbLine
 10
197.94666
 20
22.503113
 30
0.0
 11
198.568321
 21
22.503113
 31
0.0
  0
LINE
  5
4CA
330
27
100
AcDbEntity
  8
2
100
AcDbLine
 10
206.94666
 20
3.394247
 30
0.0
 11
206.94666
 21
13.639177
 31
0.0
  0
LINE
  5
4CB
330
27
100
AcDbEntity
  8
2
100
AcDbLine
 10
196.94666
 20
-12.183384
 30
0.0
 11
196.94666
 21
-15.212316
 31
0.0
  0
ARC
  5
4CC
330
27
100
AcDbEntity
  8
2
100
AcDbCircle
 10
197.04666
 20
23.787684
 30
0.0
 40
1.0
100
AcDbArc
 50
90.0
 51
180.0
  0
ARC
  5
4CD
330
27
100
AcDbEntity
  8
2
100
AcDbCircle
 10
206.84666
 20
23.787684
 30
0.0
 40
1.0
100
AcDbArc
 50
0.0
 51
63.950626
  0
LINE
  5
4CE
330
27
100
AcDbEntity
  8
2
100
AcDbLine
 10
207.84666
 20
23.787684
 30
0.0
 11
207.84666
 21
-11.283384
 31
0.0
  0
LINE
  5
4CF
330
27
100
AcDbEntity
  8
2
100
AcDbLine
 10
196.04666
 20
23.787684
 30
0.0
 11
196.04666
 21
-11.283384
 31
0.0
  0
LINE
  5
4D0
330
27
100
AcDbEntity
  8
2
100
AcDbLine
 10
207.84666
 20
-11.283384
 30
0.0
 11
206.94666
 21
-12.183384
 31
0.0
  0
LINE
  5
4D1
330
27
100
AcDbEntity
  8
2
100
AcDbLine
 10
196.94666
 20
-12.183384
 30
0.0
 11
196.04666
 21
-11.283384
 31
0.0
  0
LINE
  5
4D2
330
27
100
AcDbEntity
  8
2
100
AcDbLine
 10
205.94666
 20
17.198806
 30
0.0
 11
205.94666
 21
15.729933
 31
0.0
  0
ARC
  5
4D3
330
27
100
AcDbEntity
  8
2
100
AcDbCircle
 10
201.94666
 20
32.796641
 30
0.0
 40
14.567094
100
AcDbArc
 50
254.062329
 51
272.574998
  0
ARC
  5
4D4
330
27
100
AcDbEntity
  8
2
100
AcDbCircle
 10
201.952104
 20
34.857252
 30
0.0
 40
15.364572
100
AcDbArc
 50
258.719715
 51
281.24576
  0
ARC
  5
4D5
330
27
100
AcDbEntity
  8
2
100
AcDbCircle
 10
201.94666
 20
9.247071
 30
0.0
 40
10.96096
100
AcDbArc
 50
74.115522
 51
105.884478
  0
LINE
  5
4D6
330
27
100
AcDbEntity
  8
2
100
AcDbLine
 10
205.561867
 20
19.174285
 30
0.0
 11
204.94666
 21
19.789492
 31
0.0
  0
LINE
  5
4D7
330
27
100
AcDbEntity
  8
2
100
AcDbLine
 10
198.94666
 20
19.789492
 30
0.0
 11
197.94666
 21
18.789492
 31
0.0
  0
LINE
  5
4D8
330
27
100
AcDbEntity
  8
2
100
AcDbLine
 10
197.94666
 20
18.789492
 30
0.0
 11
197.94666
 21
16.782201
 31
0.0
  0
ARC
  5
4D9
330
27
100
AcDbEntity
  8
2
100
AcDbCircle
 10
205.94666
 20
13.55737
 30
0.0
 40
1.0
100
AcDbArc
 50
0.0
 51
90.0
  0
ARC
  5
4DA
330
27
100
AcDbEntity
  8
2
100
AcDbCircle
 10
197.94666
 20
13.55737
 30
0.0
 40
1.0
100
AcDbArc
 50
90.0
 51
180.0
  0
LINE
  5
4DB
330
27
100
AcDbEntity
  8
2
100
AcDbLine
 10
197.94666
 20
14.55737
 30
0.0
 11
205.94666
 21
14.55737
 31
0.0
  0
LINE
  5
4DC
330
27
100
AcDbEntity
  8
2
100
AcDbLine
 10
205.94666
 20
14.55737
 30
0.0
 11
197.94666
 21
14.55737
 31
0.0
  0
ARC
  5
4DD
330
27
100
AcDbEntity
  8
2
100
AcDbCircle
 10
197.94666
 20
13.55737
 30
0.0
 40
1.0
100
AcDbArc
 50
90.0
 51
180.0
  0
ARC
  5
4DE
330
27
100
AcDbEntity
  8
2
100
AcDbCircle
 10
205.94666
 20
13.55737
 30
0.0
 40
1.0
100
AcDbArc
 50
0.0
 51
90.0
  0
ARC
  5
4DF
330
27
100
AcDbEntity
  8
2
100
AcDbCircle
 10
205.94666
 20
3.394247
 30
0.0
 40
1.0
100
AcDbArc
 50
270.0
 51
360.0
  0
ARC
  5
4E0
330
27
100
AcDbEntity
  8
2
100
AcDbCircle
 10
197.94666
 20
3.394247
 30
0.0
 40
1.0
100
AcDbArc
 50
180.0
 51
270.0
  0
LINE
  5
4E1
330
27
100
AcDbEntity
  8
2
100
AcDbLine
 10
205.94666
 20
2.394247
 30
0.0
 11
197.94666
 21
2.394247
 31
0.0
  0
LINE
  5
4E2
330
27
100
AcDbEntity
  8
2
100
AcDbLine
 10
197.94666
 20
2.394247
 30
0.0
 11
205.94666
 21
2.394247
 31
0.0
  0
ARC
  5
4E3
330
27
100
AcDbEntity
  8
2
100
AcDbCircle
 10
197.94666
 20
3.394247
 30
0.0
 40
1.0
100
AcDbArc
 50
180.0
 51
270.0
  0
ARC
  5
4E4
330
27
100
AcDbEntity
  8
2
100
AcDbCircle
 10
205.94666
 20
3.394247
 30
0.0
 40
1.0
100
AcDbArc
 50
270.0
 51
360.0
  0
ARC
  5
4E5
330
27
100
AcDbEntity
  8
2
100
AcDbCircle
 10
205.94666
 20
-15.212316
 30
0.0
 40
1.0
100
AcDbArc
 50
270.0
 51
360.0
  0
ARC
  5
4E6
330
27
100
AcDbEntity
  8
2
100
AcDbCircle
 10
197.94666
 20
-15.212316
 30
0.0
 40
1.0
100
AcDbArc
 50
180.0
 51
270.0
  0
LINE
  5
4E7
330
27
100
AcDbEntity
  8
2
100
AcDbLine
 10
197.94666
 20
-16.212316
 30
0.0
 11
205.94666
 21
-16.212316
 31
0.0
  0
LINE
  5
4E8
330
27
100
AcDbEntity
  8
2
100
AcDbLine
 10
205.94666
 20
-16.212316
 30
0.0
 11
197.94666
 21
-16.212316
 31
0.0
  0
ARC
  5
4E9
330
27
100
AcDbEntity
  8
2
100
AcDbCircle
 10
197.94666
 20
-15.212316
 30
0.0
 40
1.0
100
AcDbArc
 50
180.0
 51
270.0
  0
ARC
  5
4EA
330
27
100
AcDbEntity
  8
2
100
AcDbCircle
 10
205.94666
 20
-15.212316
 30
0.0
 40
1.0
100
AcDbArc
 50
270.0
 51
360.0
  0
LINE
  5
4EB
330
27
100
AcDbEntity
  8
2
100
AcDbLine
 10
206.94666
 20
-15.212316
 30
0.0
 11
206.94666
 21
-12.183384
 31
0.0
  0
LINE
  5
4EC
330
27
100
AcDbEntity
  8
2
100
AcDbLine
 10
196.94666
 20
19.972644
 30
0.0
 11
196.94666
 21
16.468082
 31
0.0
  0
LINE
  5
4ED
330
27
100
AcDbEntity
  8
2
100
AcDbLine
 10
199.57627
 20
24.787684
 30
0.0
 11
197.04666
 21
24.787684
 31
0.0
  0
LINE
  5
4EE
330
27
100
AcDbEntity
  8
2
100
AcDbLine
 10
205.242058
 20
22.503113
 30
0.0
 11
205.94666
 21
22.503113
 31
0.0
  0
LINE
  5
4EF
330
27
100
AcDbEntity
  8
2
100
AcDbLine
 10
197.94666
 20
14.685851
 30
0.0
 11
197.94666
 21
14.55737
 31
0.0
  0
LINE
  5
4F0
330
27
100
AcDbEntity
  8
2
100
AcDbLine
 10
196.94666
 20
14.447008
 30
0.0
 11
196.94666
 21
3.394247
 31
0.0
  0
LINE
  5
4F1
330
27
100
AcDbEntity
  8
2
100
AcDbLine
 10
206.94666
 20
15.633261
 30
0.0
 11
206.94666
 21
17.51520799999999
 31
0.0
  0
LINE
  5
4F2
330
27
100
AcDbEntity
  8
2
100
AcDbLine
 10
206.94666
 20
19.379598
 30
0.0
 11
206.94666
 21
21.503113
 31
0.0
  0
LINE
  5
4F3
330
27
100
AcDbEntity
  8
2
100
AcDbLine
 10
276.94666
 20
-9.212315999999999
 30
0.0
 11
276.94666
 21
-11.212316
 31
0.0
  0
LINE
  5
4F4
330
27
100
AcDbEntity
  8
2
100
AcDbLine
 10
261.810509
 20
-9.712315999999999
 30
0.0
 11
261.810509
 21
-10.712316
 31
0.0
  0
LINE
  5
4F5
330
27
100
AcDbEntity
  8
2
100
AcDbLine
 10
260.214107
 20
-9.712315999999999
 30
0.0
 11
260.214107
 21
-10.712316
 31
0.0
  0
LINE
  5
4F6
330
27
100
AcDbEntity
  8
2
100
AcDbLine
 10
256.861335
 20
-9.712315999999999
 30
0.0
 11
256.861335
 21
-10.712316
 31
0.0
  0
LINE
  5
4F7
330
27
100
AcDbEntity
  8
2
100
AcDbLine
 10
251.855201
 20
-9.712315999999999
 30
0.0
 11
251.855201
 21
-10.712316
 31
0.0
  0
LINE
  5
4F8
330
27
100
AcDbEntity
  8
2
100
AcDbLine
 10
245.347813
 20
-9.712315999999999
 30
0.0
 11
245.347813
 21
-10.712316
 31
0.0
  0
LINE
  5
4F9
330
27
100
AcDbEntity
  8
2
100
AcDbLine
 10
237.536896
 20
-9.712315999999999
 30
0.0
 11
237.536896
 21
-10.712316
 31
0.0
  0
LINE
  5
4FA
330
27
100
AcDbEntity
  8
2
100
AcDbLine
 10
228.65978
 20
-9.712315999999999
 30
0.0
 11
228.65978
 21
-10.712316
 31
0.0
  0
LINE
  5
4FB
330
27
100
AcDbEntity
  8
2
100
AcDbLine
 10
176.94666
 20
-9.712315999999999
 30
0.0
 11
176.94666
 21
-10.712316
 31
0.0
  0
LINE
  5
4FC
330
27
100
AcDbEntity
  8
2
100
AcDbLine
 10
151.94666
 20
-9.212315999999999
 30
0.0
 11
151.94666
 21
-11.212316
 31
0.0
  0
LINE
  5
4FD
330
27
100
AcDbEntity
  8
2
100
AcDbLine
 10
259.138028
 20
-9.712315999999999
 30
0.0
 11
259.138028
 21
-10.712316
 31
0.0
  0
LINE
  5
4FE
330
27
100
AcDbEntity
  8
2
100
AcDbLine
 10
255.310583
 20
-9.712315999999999
 30
0.0
 11
255.310583
 21
-10.712316
 31
0.0
  0
LINE
  5
4FF
330
27
100
AcDbEntity
  8
2
100
AcDbLine
 10
249.862144
 20
-9.712315999999999
 30
0.0
 11
249.862144
 21
-10.712316
 31
0.0
  0
LINE
  5
500
330
27
100
AcDbEntity
  8
2
100
AcDbLine
 10
242.958261
 20
-9.712315999999999
 30
0.0
 11
242.958261
 21
-10.712316
 31
0.0
  0
LINE
  5
501
330
27
100
AcDbEntity
  8
2
100
AcDbLine
 10
234.808702
 20
-9.712315999999999
 30
0.0
 11
234.808702
 21
-10.712316
 31
0.0
  0
LINE
  5
502
330
27
100
AcDbEntity
  8
2
100
AcDbLine
 10
225.66109
 20
-9.712315999999999
 30
0.0
 11
225.66109
 21
-10.712316
 31
0.0
  0
LINE
  5
503
330
27
100
AcDbEntity
  8
2
100
AcDbLine
 10
219.000274
 20
-9.712315999999999
 30
0.0
 11
219.000274
 21
-10.712316
 31
0.0
  0
LINE
  5
504
330
27
100
AcDbEntity
  8
2
100
AcDbLine
 10
215.793369
 20
-9.712315999999999
 30
0.0
 11
215.793369
 21
-10.712316
 31
0.0
  0
ARC
  5
505
330
27
100
AcDbEntity
  8
2
100
AcDbCircle
 10
261.310509
 20
-9.712315999999999
 30
0.0
 40
0.5
100
AcDbArc
 50
0.0
 51
90.0
  0
ARC
  5
506
330
27
100
AcDbEntity
  8
2
100
AcDbCircle
 10
261.310509
 20
-10.712316
 30
0.0
 40
0.5
100
AcDbArc
 50
270.0
 51
360.0
  0
ARC
  5
507
330
27
100
AcDbEntity
  8
2
100
AcDbCircle
 10
259.714107
 20
-9.712315999999999
 30
0.0
 40
0.5
100
AcDbArc
 50
0.0
 51
90.0
  0
ARC
  5
508
330
27
100
AcDbEntity
  8
2
100
AcDbCircle
 10
259.714107
 20
-10.712316
 30
0.0
 40
0.5
100
AcDbArc
 50
270.0
 51
360.0
  0
ARC
  5
509
330
27
100
AcDbEntity
  8
2
100
AcDbCircle
 10
258.638028
 20
-9.712315999999999
 30
0.0
 40
0.5
100
AcDbArc
 50
0.0
 51
90.0
  0
ARC
  5
50A
330
27
100
AcDbEntity
  8
2
100
AcDbCircle
 10
258.638028
 20
-10.712316
 30
0.0
 40
0.5
100
AcDbArc
 50
270.0
 51
360.0
  0
ARC
  5
50B
330
27
100
AcDbEntity
  8
2
100
AcDbCircle
 10
256.361335
 20
-10.712316
 30
0.0
 40
0.5
100
AcDbArc
 50
270.0
 51
360.0
  0
ARC
  5
50C
330
27
100
AcDbEntity
  8
2
100
AcDbCircle
 10
256.361335
 20
-9.712315999999999
 30
0.0
 40
0.5
100
AcDbArc
 50
0.0
 51
90.0
  0
ARC
  5
50D
330
27
100
AcDbEntity
  8
2
100
AcDbCircle
 10
254.810583
 20
-9.712315999999999
 30
0.0
 40
0.5
100
AcDbArc
 50
0.0
 51
90.0
  0
ARC
  5
50E
330
27
100
AcDbEntity
  8
2
100
AcDbCircle
 10
254.810583
 20
-10.712316
 30
0.0
 40
0.5
100
AcDbArc
 50
270.0
 51
360.0
  0
ARC
  5
50F
330
27
100
AcDbEntity
  8
2
100
AcDbCircle
 10
251.355201
 20
-9.712315999999999
 30
0.0
 40
0.5
100
AcDbArc
 50
0.0
 51
90.0
  0
ARC
  5
510
330
27
100
AcDbEntity
  8
2
100
AcDbCircle
 10
251.355201
 20
-10.712316
 30
0.0
 40
0.5
100
AcDbArc
 50
270.0
 51
360.0
  0
ARC
  5
511
330
27
100
AcDbEntity
  8
2
100
AcDbCircle
 10
249.362144
 20
-9.712315999999999
 30
0.0
 40
0.5
100
AcDbArc
 50
0.0
 51
90.0
  0
ARC
  5
512
330
27
100
AcDbEntity
  8
2
100
AcDbCircle
 10
249.362144
 20
-10.712316
 30
0.0
 40
0.5
100
AcDbArc
 50
270.0
 51
360.0
  0
ARC
  5
513
330
27
100
AcDbEntity
  8
2
100
AcDbCircle
 10
244.847813
 20
-9.712315999999999
 30
0.0
 40
0.5
100
AcDbArc
 50
0.0
 51
90.0
  0
ARC
  5
514
330
27
100
AcDbEntity
  8
2
100
AcDbCircle
 10
244.847813
 20
-10.712316
 30
0.0
 40
0.5
100
AcDbArc
 50
270.0
 51
360.0
  0
ARC
  5
515
330
27
100
AcDbEntity
  8
2
100
AcDbCircle
 10
242.458261
 20
-9.712315999999999
 30
0.0
 40
0.5
100
AcDbArc
 50
0.0
 51
90.0
  0
ARC
  5
516
330
27
100
AcDbEntity
  8
2
100
AcDbCircle
 10
242.458261
 20
-10.712316
 30
0.0
 40
0.5
100
AcDbArc
 50
270.0
 51
360.0
  0
ARC
  5
517
330
27
100
AcDbEntity
  8
2
100
AcDbCircle
 10
237.036896
 20
-9.712315999999999
 30
0.0
 40
0.5
100
AcDbArc
 50
0.0
 51
90.0
  0
ARC
  5
518
330
27
100
AcDbEntity
  8
2
100
AcDbCircle
 10
237.036896
 20
-10.712316
 30
0.0
 40
0.5
100
AcDbArc
 50
270.0
 51
360.0
  0
ARC
  5
519
330
27
100
AcDbEntity
  8
2
100
AcDbCircle
 10
234.308702
 20
-9.712315999999999
 30
0.0
 40
0.5
100
AcDbArc
 50
0.0
 51
90.0
  0
ARC
  5
51A
330
27
100
AcDbEntity
  8
2
100
AcDbCircle
 10
234.308702
 20
-10.712316
 30
0.0
 40
0.5
100
AcDbArc
 50
270.0
 51
360.0
  0
ARC
  5
51B
330
27
100
AcDbEntity
  8
2
100
AcDbCircle
 10
228.15978
 20
-9.712315999999999
 30
0.0
 40
0.5
100
AcDbArc
 50
0.0
 51
90.0
  0
ARC
  5
51C
330
27
100
AcDbEntity
  8
2
100
AcDbCircle
 10
228.15978
 20
-10.712316
 30
0.0
 40
0.5
100
AcDbArc
 50
270.0
 51
360.0
  0
ARC
  5
51D
330
27
100
AcDbEntity
  8
2
100
AcDbCircle
 10
225.16109
 20
-9.712315999999999
 30
0.0
 40
0.5
100
AcDbArc
 50
0.0
 51
90.0
  0
ARC
  5
51E
330
27
100
AcDbEntity
  8
2
100
AcDbCircle
 10
225.16109
 20
-10.712316
 30
0.0
 40
0.5
100
AcDbArc
 50
270.0
 51
360.0
  0
ARC
  5
51F
330
27
100
AcDbEntity
  8
2
100
AcDbCircle
 10
218.500274
 20
-10.712316
 30
0.0
 40
0.5
100
AcDbArc
 50
270.0
 51
360.0
  0
ARC
  5
520
330
27
100
AcDbEntity
  8
2
100
AcDbCircle
 10
218.500274
 20
-9.712315999999999
 30
0.0
 40
0.5
100
AcDbArc
 50
0.0
 51
90.0
  0
ARC
  5
521
330
27
100
AcDbEntity
  8
2
100
AcDbCircle
 10
215.293369
 20
-9.712315999999999
 30
0.0
 40
0.5
100
AcDbArc
 50
0.0
 51
90.0
  0
ARC
  5
522
330
27
100
AcDbEntity
  8
2
100
AcDbCircle
 10
215.293369
 20
-10.712316
 30
0.0
 40
0.5
100
AcDbArc
 50
270.0
 51
360.0
  0
ARC
  5
523
330
27
100
AcDbEntity
  8
2
100
AcDbCircle
 10
177.44666
 20
-9.712315999999999
 30
0.0
 40
0.5
100
AcDbArc
 50
90.0
 51
180.0
  0
ARC
  5
524
330
27
100
AcDbEntity
  8
2
100
AcDbCircle
 10
177.44666
 20
-10.712316
 30
0.0
 40
0.5
100
AcDbArc
 50
180.0
 51
270.0
  0
LINE
  5
525
330
27
100
AcDbEntity
  8
2
100
AcDbLine
 10
194.94666
 20
-9.712315999999999
 30
0.0
 11
194.94666
 21
-10.712316
 31
0.0
  0
ARC
  5
526
330
27
100
AcDbEntity
  8
2
100
AcDbCircle
 10
194.44666
 20
-9.712315999999999
 30
0.0
 40
0.5
100
AcDbArc
 50
0.0
 51
90.0
  0
LINE
  5
527
330
27
100
AcDbEntity
  8
2
100
AcDbLine
 10
276.94666
 20
-9.212315999999999
 30
0.0
 11
207.84666
 21
-9.212315999999999
 31
0.0
  0
ARC
  5
528
330
27
100
AcDbEntity
  8
2
100
AcDbCircle
 10
194.44666
 20
-10.712316
 30
0.0
 40
0.5
100
AcDbArc
 50
270.0
 51
360.0
  0
LINE
  5
529
330
27
100
AcDbEntity
  8
2
100
AcDbLine
 10
276.94666
 20
-11.212316
 30
0.0
 11
207.84666
 21
-11.212316
 31
0.0
  0
LINE
  5
52A
330
27
100
AcDbEntity
  8
2
100
AcDbLine
 10
196.04666
 20
-9.212315999999999
 30
0.0
 11
151.94666
 21
-9.212315999999999
 31
0.0
  0
ARC
  5
52B
330
27
100
AcDbEntity
  8
2
100
AcDbCircle
 10
208.528239
 20
-10.712316
 30
0.0
 40
0.5
100
AcDbArc
 50
270.0
 51
360.0
  0
ARC
  5
52C
330
27
100
AcDbEntity
  8
2
100
AcDbCircle
 10
208.528239
 20
-9.712315999999999
 30
0.0
 40
0.5
100
AcDbArc
 50
0.0
 51
90.0
  0
LINE
  5
52D
330
27
100
AcDbEntity
  8
2
100
AcDbLine
 10
209.028239
 20
-9.712315999999999
 30
0.0
 11
209.028239
 21
-10.712316
 31
0.0
  0
LINE
  5
52E
330
27
100
AcDbEntity
  8
2
100
AcDbLine
 10
196.04666
 20
-11.212316
 30
0.0
 11
151.94666
 21
-11.212316
 31
0.0
  0
LINE
  5
52F
330
27
100
AcDbEntity
  8
2
100
AcDbLine
 10
175.94666
 20
6.103029
 30
0.0
 11
175.94666
 21
8.562028999999999
 31
0.0
  0
LINE
  5
530
330
27
100
AcDbEntity
  8
2
100
AcDbLine
 10
175.94666
 20
8.562028999999999
 30
0.0
 11
176.48766
 21
9.103028999999999
 31
0.0
  0
LINE
  5
531
330
27
100
AcDbEntity
  8
2
100
AcDbLine
 10
176.48766
 20
9.103028999999999
 30
0.0
 11
179.965588
 21
9.103028999999999
 31
0.0
  0
LINE
  5
532
330
27
100
AcDbEntity
  8
2
100
AcDbLine
 10
176.48766
 20
9.103028999999999
 30
0.0
 11
176.48766
 21
6.103029
 31
0.0
  0
LINE
  5
533
330
27
100
AcDbEntity
  8
2
100
AcDbLine
 10
175.94666
 20
6.103029
 30
0.0
 11
175.94666
 21
3.644029
 31
0.0
  0
LINE
  5
534
330
27
100
AcDbEntity
  8
2
100
AcDbLine
 10
175.94666
 20
3.644029
 30
0.0
 11
176.48766
 21
3.103029
 31
0.0
  0
LINE
  5
535
330
27
100
AcDbEntity
  8
2
100
AcDbLine
 10
176.48766
 20
3.103029
 30
0.0
 11
179.965588
 21
3.103029
 31
0.0
  0
LINE
  5
536
330
27
100
AcDbEntity
  8
2
100
AcDbLine
 10
176.48766
 20
3.103029
 30
0.0
 11
176.48766
 21
6.103029
 31
0.0
  0
POINT
  5
537
330
27
100
AcDbEntity
  8
2
100
AcDbPoint
 10
184.94666
 20
6.103029
 30
0.0
  0
LINE
  5
538
330
27
100
AcDbEntity
  8
2
100
AcDbLine
 10
184.94666
 20
6.103029
 30
0.0
 11
184.94666
 21
1.103029
 31
0.0
  0
LINE
  5
539
330
27
100
AcDbEntity
  8
2
100
AcDbLine
 10
184.94666
 20
1.103029
 30
0.0
 11
180.437407
 21
1.103029
 31
0.0
  0
LINE
  5
53A
330
27
100
AcDbEntity
  8
2
100
AcDbLine
 10
179.94666
 20
3.603029
 30
0.0
 11
179.94666
 21
6.103029
 31
0.0
  0
LINE
  5
53B
330
27
100
AcDbEntity
  8
2
100
AcDbLine
 10
184.94666
 20
6.103029
 30
0.0
 11
180.437407
 21
6.103029
 31
0.0
  0
ARC
  5
53C
330
27
100
AcDbEntity
  8
2
100
AcDbCircle
 10
186.559867
 20
3.603029
 30
0.0
 40
6.613208
100
AcDbArc
 50
157.788205
 51
202.211795
  0
LINE
  5
53D
330
27
100
AcDbEntity
  8
2
100
AcDbLine
 10
184.94666
 20
6.103029
 30
0.0
 11
184.94666
 21
11.103029
 31
0.0
  0
LINE
  5
53E
330
27
100
AcDbEntity
  8
2
100
AcDbLine
 10
184.94666
 20
11.103029
 30
0.0
 11
180.437407
 21
11.103029
 31
0.0
  0
LINE
  5
53F
330
27
100
AcDbEntity
  8
2
100
AcDbLine
 10
179.94666
 20
8.603028999999999
 30
0.0
 11
179.94666
 21
6.103029
 31
0.0
  0
LINE
  5
540
330
27
100
AcDbEntity
  8
2
100
AcDbLine
 10
184.94666
 20
6.103029
 30
0.0
 11
180.437407
 21
6.103029
 31
0.0
  0
ARC
  5
541
330
27
100
AcDbEntity
  8
2
100
AcDbCircle
 10
186.559867
 20
8.603028999999999
 30
0.0
 40
6.613208
100
AcDbArc
 50
157.788205
 51
202.211795
  0
LINE
  5
542
330
27
100
AcDbEntity
  8
2
 62
     2
100
AcDbLine
 10
175.94666
 20
3.644029
 30
0.0
 11
179.94666
 21
3.644029
 31
0.0
  0
LINE
  5
543
330
27
100
AcDbEntity
  8
2
 62
     2
100
AcDbLine
 10
175.94666
 20
8.562028999999999
 30
0.0
 11
179.94666
 21
8.562028999999999
 31
0.0
  0
POINT
  5
544
330
27
100
AcDbEntity
  8
2
100
AcDbPoint
 10
226.695397
 20
-9.212315999999999
 30
0.0
  0
LINE
  5
545
330
27
100
AcDbEntity
  8
2
  6
CENTER
 62
     2
100
AcDbLine
 10
226.695397
 20
-37.270912
 30
0.0
 11
226.695397
 21
-0.120603
 31
0.0
  0
LINE
  5
546
330
27
100
AcDbEntity
  8
2
100
AcDbLine
 10
226.695397
 20
-9.212315999999999
 30
0.0
 11
220.195397
 21
-9.212315999999999
 31
0.0
  0
LINE
  5
547
330
27
100
AcDbEntity
  8
2
100
AcDbLine
 10
220.195397
 20
-9.212315999999999
 30
0.0
 11
220.195397
 21
-4.434003999999999
 31
0.0
  0
LINE
  5
548
330
27
100
AcDbEntity
  8
2
100
AcDbLine
 10
223.445397
 20
-3.712316
 30
0.0
 11
226.695397
 21
-3.712316
 31
0.0
  0
LINE
  5
549
330
27
100
AcDbEntity
  8
2
100
AcDbLine
 10
226.695397
 20
-9.212315999999999
 30
0.0
 11
226.695397
 21
-4.434003999999999
 31
0.0
  0
ARC
  5
54A
330
27
100
AcDbEntity
  8
2
100
AcDbCircle
 10
223.445397
 20
-11.391075
 30
0.0
 40
7.678758999999999
100
AcDbArc
 50
64.96034
 51
115.03966
  0
LINE
  5
54B
330
27
100
AcDbEntity
  8
2
100
AcDbLine
 10
226.695397
 20
-34.212316
 30
0.0
 11
225.817275
 21
-34.212316
 31
0.0
  0
LINE
  5
54C
330
27
100
AcDbEntity
  8
2
100
AcDbLine
 10
226.132732
 20
-33.535816
 30
0.0
 11
226.695397
 21
-33.535816
 31
0.0
  0
LINE
  5
54D
330
27
100
AcDbEntity
  8
2
100
AcDbLine
 10
226.695397
 20
-9.212315999999999
 30
0.0
 11
233.195397
 21
-9.212315999999999
 31
0.0
  0
LINE
  5
54E
330
27
100
AcDbEntity
  8
2
100
AcDbLine
 10
233.195397
 20
-9.212315999999999
 30
0.0
 11
233.195397
 21
-4.434003999999999
 31
0.0
  0
LINE
  5
54F
330
27
100
AcDbEntity
  8
2
100
AcDbLine
 10
229.945397
 20
-3.712316
 30
0.0
 11
226.695397
 21
-3.712316
 31
0.0
  0
LINE
  5
550
330
27
100
AcDbEntity
  8
2
100
AcDbLine
 10
226.695397
 20
-9.212315999999999
 30
0.0
 11
226.695397
 21
-4.434003999999999
 31
0.0
  0
ARC
  5
551
330
27
100
AcDbEntity
  8
2
100
AcDbCircle
 10
229.945397
 20
-11.391075
 30
0.0
 40
7.678758999999999
100
AcDbArc
 50
64.96034
 51
115.03966
  0
LINE
  5
552
330
27
100
AcDbEntity
  8
2
100
AcDbLine
 10
226.695397
 20
-34.212316
 30
0.0
 11
230.018897
 21
-34.212316
 31
0.0
  0
LINE
  5
553
330
27
100
AcDbEntity
  8
2
100
AcDbLine
 10
230.018897
 20
-34.212316
 30
0.0
 11
230.695397
 21
-33.535816
 31
0.0
  0
LINE
  5
554
330
27
100
AcDbEntity
  8
2
100
AcDbLine
 10
230.695397
 20
-33.535816
 30
0.0
 11
230.695397
 21
-31.675602
 31
0.0
  0
LINE
  5
555
330
27
100
AcDbEntity
  8
2
100
AcDbLine
 10
230.695397
 20
-33.535816
 30
0.0
 11
226.695397
 21
-33.535816
 31
0.0
  0
LINE
  5
556
330
27
100
AcDbEntity
  8
2
 62
     2
100
AcDbLine
 10
230.018897
 20
-34.212316
 30
0.0
 11
230.018897
 21
-31.71196500000001
 31
0.0
  0
POINT
  5
557
330
27
100
AcDbEntity
  8
2
100
AcDbPoint
 10
226.695397
 20
-23.212316
 30
0.0
  0
POINT
  5
558
330
27
100
AcDbEntity
  8
2
100
AcDbPoint
 10
226.695397
 20
-23.212316
 30
0.0
  0
LINE
  5
559
330
27
100
AcDbEntity
  8
2
100
AcDbLine
 10
230.224844
 20
-25.212316
 30
0.0
 11
234.395397
 21
-25.212316
 31
0.0
  0
LINE
  5
55A
330
27
100
AcDbEntity
  8
2
100
AcDbLine
 10
233.195397
 20
-25.212316
 30
0.0
 11
233.195397
 21
-30.990629
 31
0.0
  0
LINE
  5
55B
330
27
100
AcDbEntity
  8
2
100
AcDbLine
 10
229.945397
 20
-31.712316
 30
0.0
 11
226.983044
 21
-31.712316
 31
0.0
  0
ARC
  5
55C
330
27
100
AcDbEntity
  8
2
100
AcDbCircle
 10
229.945397
 20
-24.033558
 30
0.0
 40
7.678758999999999
100
AcDbArc
 50
249.185055
 51
295.03966
  0
LINE
  5
55D
330
27
100
AcDbEntity
  8
2
100
AcDbLine
 10
226.695397
 20
-25.212316
 30
0.0
 11
226.695397
 21
-30.990629
 31
0.0
  0
LINE
  5
55E
330
27
100
AcDbEntity
  8
2
100
AcDbLine
 10
234.395397
 20
-23.212316
 30
0.0
 11
234.395397
 21
-25.212316
 31
0.0
  0
LINE
  5
55F
330
27
100
AcDbEntity
  8
2
100
AcDbLine
 10
218.995397
 20
-23.212316
 30
0.0
 11
234.395397
 21
-23.212316
 31
0.0
  0
POINT
  5
560
330
27
100
AcDbEntity
  8
2
100
AcDbPoint
 10
177.197923
 20
-9.212315999999999
 30
0.0
  0
LINE
  5
561
330
27
100
AcDbEntity
  8
2
  6
CENTER
 62
     2
100
AcDbLine
 10
177.197923
 20
-37.270912
 30
0.0
 11
177.197923
 21
-0.120603
 31
0.0
  0
LINE
  5
562
330
27
100
AcDbEntity
  8
2
100
AcDbLine
 10
177.197923
 20
-9.212315999999999
 30
0.0
 11
183.697923
 21
-9.212315999999999
 31
0.0
  0
LINE
  5
563
330
27
100
AcDbEntity
  8
2
100
AcDbLine
 10
183.697923
 20
-9.212315999999999
 30
0.0
 11
183.697923
 21
-4.434003999999999
 31
0.0
  0
LINE
  5
564
330
27
100
AcDbEntity
  8
2
100
AcDbLine
 10
180.447923
 20
-3.712316
 30
0.0
 11
177.197923
 21
-3.712316
 31
0.0
  0
LINE
  5
565
330
27
100
AcDbEntity
  8
2
100
AcDbLine
 10
177.197923
 20
-9.212315999999999
 30
0.0
 11
177.197923
 21
-4.434003999999999
 31
0.0
  0
ARC
  5
566
330
27
100
AcDbEntity
  8
2
100
AcDbCircle
 10
180.447923
 20
-11.391075
 30
0.0
 40
7.678758999999999
100
AcDbArc
 50
64.96034
 51
115.03966
  0
LINE
  5
567
330
27
100
AcDbEntity
  8
2
100
AcDbLine
 10
177.197923
 20
-34.212316
 30
0.0
 11
180.521423
 21
-34.212316
 31
0.0
  0
LINE
  5
568
330
27
100
AcDbEntity
  8
2
100
AcDbLine
 10
180.521423
 20
-34.212316
 30
0.0
 11
181.197923
 21
-33.535816
 31
0.0
  0
LINE
  5
569
330
27
100
AcDbEntity
  8
2
100
AcDbLine
 10
181.197923
 20
-33.535816
 30
0.0
 11
181.197923
 21
-31.675602
 31
0.0
  0
LINE
  5
56A
330
27
100
AcDbEntity
  8
2
100
AcDbLine
 10
181.197923
 20
-33.535816
 30
0.0
 11
177.197923
 21
-33.535816
 31
0.0
  0
LINE
  5
56B
330
27
100
AcDbEntity
  8
2
 62
     2
100
AcDbLine
 10
180.521423
 20
-34.212316
 30
0.0
 11
180.521423
 21
-31.71196500000001
 31
0.0
  0
LINE
  5
56C
330
27
100
AcDbEntity
  8
2
100
AcDbLine
 10
177.197923
 20
-9.212315999999999
 30
0.0
 11
170.697923
 21
-9.212315999999999
 31
0.0
  0
LINE
  5
56D
330
27
100
AcDbEntity
  8
2
100
AcDbLine
 10
170.697923
 20
-9.212315999999999
 30
0.0
 11
170.697923
 21
-4.434003999999999
 31
0.0
  0
LINE
  5
56E
330
27
100
AcDbEntity
  8
2
100
AcDbLine
 10
173.947923
 20
-3.712316
 30
0.0
 11
177.197923
 21
-3.712316
 31
0.0
  0
LINE
  5
56F
330
27
100
AcDbEntity
  8
2
100
AcDbLine
 10
177.197923
 20
-9.212315999999999
 30
0.0
 11
177.197923
 21
-4.434003999999999
 31
0.0
  0
ARC
  5
570
330
27
100
AcDbEntity
  8
2
100
AcDbCircle
 10
173.947923
 20
-11.391075
 30
0.0
 40
7.678758999999999
100
AcDbArc
 50
64.96034
 51
115.03966
  0
LINE
  5
571
330
27
100
AcDbEntity
  8
2
100
AcDbLine
 10
177.197923
 20
-34.212316
 30
0.0
 11
173.874423
 21
-34.212316
 31
0.0
  0
LINE
  5
572
330
27
100
AcDbEntity
  8
2
100
AcDbLine
 10
173.874423
 20
-34.212316
 30
0.0
 11
173.197923
 21
-33.535816
 31
0.0
  0
LINE
  5
573
330
27
100
AcDbEntity
  8
2
100
AcDbLine
 10
173.197923
 20
-33.535816
 30
0.0
 11
173.197923
 21
-31.675602
 31
0.0
  0
LINE
  5
574
330
27
100
AcDbEntity
  8
2
100
AcDbLine
 10
173.197923
 20
-33.535816
 30
0.0
 11
177.197923
 21
-33.535816
 31
0.0
  0
LINE
  5
575
330
27
100
AcDbEntity
  8
2
 62
     2
100
AcDbLine
 10
173.874423
 20
-34.212316
 30
0.0
 11
173.874423
 21
-31.71196500000001
 31
0.0
  0
POINT
  5
576
330
27
100
AcDbEntity
  8
2
100
AcDbPoint
 10
177.197923
 20
-23.212316
 30
0.0
  0
POINT
  5
577
330
27
100
AcDbEntity
  8
2
100
AcDbPoint
 10
177.197923
 20
-23.212316
 30
0.0
  0
LINE
  5
578
330
27
100
AcDbEntity
  8
2
100
AcDbLine
 10
177.197923
 20
-25.212316
 30
0.0
 11
170.697923
 21
-25.212316
 31
0.0
  0
LINE
  5
579
330
27
100
AcDbEntity
  8
2
100
AcDbLine
 10
170.697923
 20
-25.212316
 30
0.0
 11
170.697923
 21
-30.990629
 31
0.0
  0
LINE
  5
57A
330
27
100
AcDbEntity
  8
2
100
AcDbLine
 10
173.947923
 20
-31.712316
 30
0.0
 11
177.197923
 21
-31.712316
 31
0.0
  0
LINE
  5
57B
330
27
100
AcDbEntity
  8
2
100
AcDbLine
 10
177.197923
 20
-25.212316
 30
0.0
 11
177.197923
 21
-30.990629
 31
0.0
  0
ARC
  5
57C
330
27
100
AcDbEntity
  8
2
100
AcDbCircle
 10
173.947923
 20
-24.033558
 30
0.0
 40
7.678758999999999
100
AcDbArc
 50
244.96034
 51
295.03966
  0
LINE
  5
57D
330
27
100
AcDbEntity
  8
2
100
AcDbLine
 10
177.197923
 20
-25.212316
 30
0.0
 11
183.697923
 21
-25.212316
 31
0.0
  0
LINE
  5
57E
330
27
100
AcDbEntity
  8
2
100
AcDbLine
 10
183.697923
 20
-25.212316
 30
0.0
 11
183.697923
 21
-30.990629
 31
0.0
  0
LINE
  5
57F
330
27
100
AcDbEntity
  8
2
100
AcDbLine
 10
180.447923
 20
-31.712316
 30
0.0
 11
177.197923
 21
-31.712316
 31
0.0
  0
LINE
  5
580
330
27
100
AcDbEntity
  8
2
100
AcDbLine
 10
177.197923
 20
-25.212316
 30
0.0
 11
177.197923
 21
-30.990629
 31
0.0
  0
ARC
  5
581
330
27
100
AcDbEntity
  8
2
100
AcDbCircle
 10
180.447923
 20
-24.033558
 30
0.0
 40
7.678758999999999
100
AcDbArc
 50
244.96034
 51
295.03966
  0
LINE
  5
582
330
27
100
AcDbEntity
  8
2
100
AcDbLine
 10
169.497923
 20
-23.212316
 30
0.0
 11
169.497923
 21
-25.212316
 31
0.0
  0
LINE
  5
583
330
27
100
AcDbEntity
  8
2
100
AcDbLine
 10
169.497923
 20
-25.212316
 30
0.0
 11
184.897923
 21
-25.212316
 31
0.0
  0
LINE
  5
584
330
27
100
AcDbEntity
  8
2
100
AcDbLine
 10
184.897923
 20
-25.212316
 30
0.0
 11
184.897923
 21
-23.212316
 31
0.0
  0
LINE
  5
585
330
27
100
AcDbEntity
  8
2
100
AcDbLine
 10
184.897923
 20
-23.212316
 30
0.0
 11
169.497923
 21
-23.212316
 31
0.0
  0
LINE
  5
586
330
27
100
AcDbEntity
  8
2
100
AcDbLine
 10
-264.109301
 20
-25.212258
 30
0.0
 11
-264.6093009999999
 21
-23.212258
 31
0.0
  0
LINE
  5
587
330
27
100
AcDbEntity
  8
2
100
AcDbLine
 10
-264.109301
 20
-23.212258
 30
0.0
 11
-263.609301
 21
-25.212258
 31
0.0
  0
DIMENSION
  5
588
330
27
100
AcDbEntity
  8
5
100
AcDbDimension
  2
*D0
 10
-357.697197
 20
321.330387
 30
0.0
 11
-366.127197
 21
286.800387
 31
0.0
  1
75
 71
     5
 42
-1.0
100
AcDbAlignedDimension
 13
-331.51742
 23
246.330387
 33
0.0
 14
-254.360565
 24
321.330387
 34
0.0
 50
90.0
100
AcDbRotatedDimension
  0
DIMENSION
  5
589
330
27
100
AcDbEntity
  8
5
100
AcDbDimension
  2
*D1
 10
-357.697197
 20
246.330387
 30
0.0
 11
-366.127197
 21
224.300387
 31
0.0
  1
50
 71
     5
 42
-1.0
100
AcDbAlignedDimension
 13
-239.360565
 23
196.330387
 33
0.0
 14
-331.51742
 24
246.330387
 34
0.0
 50
90.0
100
AcDbRotatedDimension
  0
DIMENSION
  5
58A
330
27
100
AcDbEntity
  8
5
100
AcDbDimension
  2
*D2
 10
118.819313
 20
-11.212316
 30
0.0
 11
99.99431300000001
 21
-84.88731599999999
 31
0.0
  1
132.5
 71
     5
 42
-1.0
100
AcDbAlignedDimension
 13
162.730947
 23
-143.712316
 33
0.0
 14
151.94666
 24
-11.212316
 34
0.0
 50
90.0
100
AcDbRotatedDimension
  0
DIMENSION
  5
58B
330
27
100
AcDbEntity
  8
5
100
AcDbDimension
  2
*D3
 10
118.819313
 20
-143.712316
 30
0.0
 11
99.99431300000001
 21
-217.387316
 31
0.0
  1
132.5
 71
     5
 42
-1.0
100
AcDbAlignedDimension
 13
182.94666
 23
-276.212316
 33
0.0
 14
162.730947
 24
-143.712316
 34
0.0
 50
90.0
100
AcDbRotatedDimension
  0
DIMENSION
  5
58C
330
27
100
AcDbEntity
  8
5
100
AcDbDimension
  2
*D4
 10
224.94666
 20
-310.79084
 30
0.0
 11
201.94666
 21
-304.34084
 31
0.0
  1
46
 71
     5
 42
-1.0
100
AcDbAlignedDimension
 13
178.94666
 23
-206.212316
 33
0.0
 14
224.94666
 24
-206.212316
 34
0.0
100
AcDbRotatedDimension
  0
TEXT
  5
58D
330
27
100
AcDbEntity
  8
5
100
AcDbText
 10
117.319313
 20
-5.843628999999999
 30
0.0
 40
9.9
  1
66(概略)
 50
90.0
 41
0.9851851664796107
 72
     5
 11
117.319313
 21
46.82437
 31
0.0
100
AcDbText
  0
DIMENSION
  5
58E
330
27
100
AcDbEntity
  8
5
100
AcDbDimension
  2
*D5
 10
118.819313
 20
54.965058
 30
0.0
 11
116.319313
 21
21.876371
 31
0.0
 71
     5
 42
-1.0
100
AcDbAlignedDimension
 13
151.94666
 23
-11.212316
 33
0.0
 14
201.94666
 24
54.965058
 34
0.0
 50
90.0
100
AcDbRotatedDimension
  0
TEXT
  5
58F
330
27
100
AcDbEntity
  8
5
100
AcDbText
 10
-149.830368
 20
81.939714
 30
0.0
 40
9.9
  1
200
 41
0.7800000000000002
 72
     5
 11
-131.812368
 21
81.939714
 31
0.0
100
AcDbText
  0
DIMENSION
  5
590
330
27
100
AcDbEntity
  8
5
100
AcDbDimension
  2
*D6
 10
-39.510171
 20
80.439714
 30
0.0
 11
-139.435368
 21
82.43971399999999
 31
0.0
 71
     5
 42
-1.0
100
AcDbAlignedDimension
 13
-239.360565
 23
34.493267
 33
0.0
 14
-39.510171
 24
47.715911
 34
0.0
100
AcDbRotatedDimension
  0
TEXT
  5
591
330
27
100
AcDbEntity
  8
18
100
AcDbText
 10
366.433891
 20
-499.791977
 30
0.0
 40
9.0
  1
１
 41
1.499999999999997
 72
     5
 11
373.633891
 21
-499.791977
 31
0.0
100
AcDbText
  0
TEXT
  5
592
330
27
100
AcDbEntity
  8
18
100
AcDbText
 10
368.562721
 20
-381.105789
 30
0.0
 40
9.0
  1
標準仕様
 41
0.8382352941176469
 72
     5
 11
402.762721
 21
-381.105789
 31
0.0
100
AcDbText
  0
TEXT
  5
593
330
27
100
AcDbEntity
  8
18
100
AcDbText
 10
379.623688
 20
-511.30304
 30
0.0
 40
9.0
  1
３
 72
     5
 11
386.823688
 21
-511.30304
 31
0.0
100
AcDbText
  0
TEXT
  5
594
330
27
100
AcDbEntity
  8
18
100
AcDbText
 10
540.597299
 20
-381.312515
 30
0.0
 40
6.0
  1
２００５．　７．１９
 41
0.8448275862068951
 72
     5
 11
599.3972989999999
 21
-381.312515
 31
0.0
100
AcDbText
  0
TEXT
  5
595
330
27
100
AcDbEntity
  8
18
100
AcDbText
 10
368.562721
 20
-369.105789
 30
0.0
 40
9.0
  1
８４６Ｔ－１ＴＬＳ　８０Ａ
 41
0.8384279475982532
 72
     5
 11
483.7627209999999
 21
-369.105789
 31
0.0
100
AcDbText
  0
TEXT
  5
596
330
27
100
AcDbEntity
  8
18
100
AcDbText
 10
460.8
 20
-408.0
 30
0.0
 40
15.0
  1
Ｄ３－０３８２０
 41
0.8540145985401455
 72
     5
 11
577.7999999999999
 21
-408.0
 31
0.0
100
AcDbText
  0
LINE
  5
597
330
27
100
AcDbEntity
  8
18
100
AcDbLine
 10
385.294144
 20
-219.082581
 30
0.0
 11
535.2941440000001
 21
-219.082581
 31
0.0
  0
LINE
  5
598
330
27
100
AcDbEntity
  8
18
100
AcDbLine
 10
385.294144
 20
-279.082581
 30
0.0
 11
535.2941440000001
 21
-279.082581
 31
0.0
  0
LINE
  5
599
330
27
100
AcDbEntity
  8
18
100
AcDbLine
 10
385.294144
 20
-294.082581
 30
0.0
 11
535.2941440000001
 21
-294.082581
 31
0.0
  0
LINE
  5
59A
330
27
100
AcDbEntity
  8
18
100
AcDbLine
 10
385.294144
 20
-309.082581
 30
0.0
 11
535.2941440000001
 21
-309.082581
 31
0.0
  0
LINE
  5
59B
330
27
100
AcDbEntity
  8
18
100
AcDbLine
 10
385.294144
 20
-219.082581
 30
0.0
 11
385.294144
 21
-309.082581
 31
0.0
  0
LINE
  5
59C
330
27
100
AcDbEntity
  8
18
100
AcDbLine
 10
460.294144
 20
-219.082581
 30
0.0
 11
460.294144
 21
-294.082581
 31
0.0
  0
LINE
  5
59D
330
27
100
AcDbEntity
  8
18
100
AcDbLine
 10
535.2941440000001
 20
-219.082581
 30
0.0
 11
535.2941440000001
 21
-309.082581
 31
0.0
  0
LINE
  5
59E
330
27
100
AcDbEntity
  8
18
 62
     2
100
AcDbLine
 10
411.6300319999999
 20
-222.036095
 30
0.0
 11
411.6300319999999
 21
-258.340027
 31
0.0
  0
LINE
  5
59F
330
27
100
AcDbEntity
  8
18
100
AcDbLine
 10
393.630032
 20
-255.340027
 30
0.0
 11
393.630032
 21
-264.340027
 31
0.0
  0
LINE
  5
5A0
330
27
100
AcDbEntity
  8
18
100
AcDbLine
 10
393.630032
 20
-255.340027
 30
0.0
 11
402.143199
 21
-255.340027
 31
0.0
  0
LINE
  5
5A1
330
27
100
AcDbEntity
  8
18
100
AcDbLine
 10
421.116865
 20
-255.340027
 30
0.0
 11
429.630032
 21
-255.340027
 31
0.0
  0
LINE
  5
5A2
330
27
100
AcDbEntity
  8
18
100
AcDbLine
 10
393.630032
 20
-264.340027
 30
0.0
 11
402.143199
 21
-264.340027
 31
0.0
  0
LINE
  5
5A3
330
27
100
AcDbEntity
  8
18
100
AcDbLine
 10
421.116865
 20
-264.340027
 30
0.0
 11
429.630032
 21
-264.340027
 31
0.0
  0
LINE
  5
5A4
330
27
100
AcDbEntity
  8
18
100
AcDbLine
 10
408.48325
 20
-258.340027
 30
0.0
 11
448.364053
 21
-258.340027
 31
0.0
  0
LINE
  5
5A5
330
27
100
AcDbEntity
  8
18
100
AcDbLine
 10
408.48325
 20
-261.340027
 30
0.0
 11
448.364053
 21
-261.340027
 31
0.0
  0
LINE
  5
5A6
330
27
100
AcDbEntity
  8
18
100
AcDbLine
 10
404.011967
 20
-259.252134
 30
0.0
 11
408.48325
 21
-258.340027
 31
0.0
  0
LINE
  5
5A7
330
27
100
AcDbEntity
  8
18
100
AcDbLine
 10
404.011967
 20
-260.42792
 30
0.0
 11
408.48325
 21
-261.340027
 31
0.0
  0
ARC
  5
5A8
330
27
100
AcDbEntity
  8
18
100
AcDbCircle
 10
404.131893
 20
-259.840027
 30
0.0
 40
0.6
100
AcDbArc
 50
101.529708
 51
258.470292
  0
LINE
  5
5A9
330
27
100
AcDbEntity
  8
18
100
AcDbLine
 10
429.630032
 20
-264.340027
 30
0.0
 11
429.630032
 21
-261.340027
 31
0.0
  0
LINE
  5
5AA
330
27
100
AcDbEntity
  8
18
100
AcDbLine
 10
429.630032
 20
-258.340027
 30
0.0
 11
429.630032
 21
-255.340027
 31
0.0
  0
ARC
  5
5AB
330
27
100
AcDbEntity
  8
18
100
AcDbCircle
 10
411.6300319999999
 20
-259.840027
 30
0.0
 40
10.5
100
AcDbArc
 50
8.213210999999999
 51
351.786789
  0
LINE
  5
5AC
330
27
100
AcDbEntity
  8
18
100
AcDbLine
 10
448.364053
 20
-258.340027
 30
0.0
 11
448.364053
 21
-261.340027
 31
0.0
  0
LINE
  5
5AD
330
27
100
AcDbEntity
  8
18
 62
     2
100
AcDbLine
 10
523.927262
 20
-237.399445
 30
0.0
 11
487.6233299999999
 21
-237.399445
 31
0.0
  0
LINE
  5
5AE
330
27
100
AcDbEntity
  8
18
100
AcDbLine
 10
468.1233299999999
 20
-232.899445
 30
0.0
 11
468.1233299999999
 21
-241.899445
 31
0.0
  0
LINE
  5
5AF
330
27
100
AcDbEntity
  8
18
100
AcDbLine
 10
468.1233299999999
 20
-232.899445
 30
0.0
 11
476.6364969999999
 21
-232.899445
 31
0.0
  0
LINE
  5
5B0
330
27
100
AcDbEntity
  8
18
100
AcDbLine
 10
495.610163
 20
-232.899445
 30
0.0
 11
504.12333
 21
-232.899445
 31
0.0
  0
LINE
  5
5B1
330
27
100
AcDbEntity
  8
18
100
AcDbLine
 10
468.1233299999999
 20
-241.899445
 30
0.0
 11
476.6364969999999
 21
-241.899445
 31
0.0
  0
LINE
  5
5B2
330
27
100
AcDbEntity
  8
18
100
AcDbLine
 10
495.610163
 20
-241.899445
 30
0.0
 11
504.12333
 21
-241.899445
 31
0.0
  0
LINE
  5
5B3
330
27
100
AcDbEntity
  8
18
100
AcDbLine
 10
487.6233299999999
 20
-234.252663
 30
0.0
 11
487.6233299999999
 21
-274.133466
 31
0.0
  0
LINE
  5
5B4
330
27
100
AcDbEntity
  8
18
100
AcDbLine
 10
484.6233299999999
 20
-234.252663
 30
0.0
 11
484.6233299999999
 21
-274.133466
 31
0.0
  0
LINE
  5
5B5
330
27
100
AcDbEntity
  8
18
100
AcDbLine
 10
486.711223
 20
-229.78138
 30
0.0
 11
487.6233299999999
 21
-234.252663
 31
0.0
  0
LINE
  5
5B6
330
27
100
AcDbEntity
  8
18
100
AcDbLine
 10
485.5354369999999
 20
-229.78138
 30
0.0
 11
484.6233299999999
 21
-234.252663
 31
0.0
  0
ARC
  5
5B7
330
27
100
AcDbEntity
  8
18
100
AcDbCircle
 10
486.1233299999999
 20
-229.901306
 30
0.0
 40
0.6
100
AcDbArc
 50
11.529708
 51
168.470292
  0
LINE
  5
5B8
330
27
100
AcDbEntity
  8
18
100
AcDbLine
 10
504.12333
 20
-241.899445
 30
0.0
 11
504.12333
 21
-238.899445
 31
0.0
  0
LINE
  5
5B9
330
27
100
AcDbEntity
  8
18
100
AcDbLine
 10
504.12333
 20
-238.899445
 30
0.0
 11
504.12333
 21
-232.899445
 31
0.0
  0
LINE
  5
5BA
330
27
100
AcDbEntity
  8
18
100
AcDbLine
 10
487.6233299999999
 20
-274.133466
 30
0.0
 11
484.6233299999999
 21
-274.133466
 31
0.0
  0
ARC
  5
5BB
330
27
100
AcDbEntity
  8
18
100
AcDbCircle
 10
486.1233299999999
 20
-237.399445
 30
0.0
 40
10.5
100
AcDbArc
 50
278.213211
 51
261.786789
  0
TEXT
  5
5BC
330
27
100
AcDbEntity
  8
18
100
AcDbText
 10
397.270523
 20
-304.683483
 30
0.0
 40
7.5
  1
ＡＣＴＵＡＴＯＲ　ＰＯＳＩＴＩＯＮ
 41
0.8372093023255814
 72
     5
 11
523.270523
 21
-304.683483
 31
0.0
100
AcDbText
  0
TEXT
  5
5BD
330
27
100
AcDbEntity
  8
18
100
AcDbText
 10
415.6863559999999
 20
-290.548943
 30
0.0
 40
9.0
  1
Ｌ
 72
     5
 11
422.8863559999999
 21
-290.548943
 31
0.0
100
AcDbText
  0
TEXT
  5
5BE
330
27
100
AcDbEntity
  8
18
100
AcDbText
 10
490.650513
 20
-290.789406
 30
0.0
 40
9.0
  1
Ｒ
 41
0.9230769230769217
 72
     5
 11
497.850513
 21
-290.789406
 31
0.0
100
AcDbText
  0
TEXT
  5
5BF
330
27
100
AcDbEntity
  8
18
100
AcDbText
 10
433.308771
 20
-230.297327
 30
0.0
 40
9.0
  1
　
 50
134.9999774920967
 72
     5
 11
432.035979
 21
-229.024534
 31
0.0
100
AcDbText
  0
DIMENSION
  5
5C0
330
27
100
AcDbEntity
  8
18
100
AcDbDimension
  2
*D7
 10
411.6300319999999
 20
-224.68166
 30
0.0
 11
459.583704
 21
-211.093461
 31
0.0
 70
     2
 71
     5
 42
-1.0
100
AcDb2LineAngularDimension
 13
445.288399
 23
-258.340027
 33
0.0
 14
411.6300319999999
 24
-258.340027
 34
0.0
 15
411.6300319999999
 25
-258.340027
 35
0.0
 16
435.430091
 26
-234.539967
 36
0.0
  0
TEXT
  5
5C1
330
27
100
AcDbEntity
  8
18
100
AcDbText
 10
404.9245629999999
 20
-227.95768
 30
0.0
 40
6.0
  1
Ｏ
 41
0.9230769230769253
 72
     5
 11
409.7245629999999
 21
-227.95768
 31
0.0
100
AcDbText
  0
TEXT
  5
5C2
330
27
100
AcDbEntity
  8
18
100
AcDbText
 10
443.239114
 20
-268.665939
 30
0.0
 40
6.0
  1
Ｓ
 72
     5
 11
448.039114
 21
-268.665939
 31
0.0
100
AcDbText
  0
TEXT
  5
5C3
330
27
100
AcDbEntity
  8
18
100
AcDbText
 10
513.54471
 20
-256.956864
 30
0.0
 40
9.0
  1
　
 50
45.00002250790329
 72
     5
 11
514.817502
 21
-255.684071
 31
0.0
100
AcDbText
  0
DIMENSION
  5
5C4
330
27
100
AcDbEntity
  8
18
100
AcDbDimension
  2
*D8
 10
521.281697
 20
-237.399445
 30
0.0
 11
535.577003
 21
-286.060224
 31
0.0
 70
     2
 71
     5
 42
-1.0
100
AcDb2LineAngularDimension
 13
487.6233299999999
 23
-271.057812
 33
0.0
 14
487.6233299999999
 24
-237.399445
 34
0.0
 15
487.6233299999999
 25
-237.399445
 35
0.0
 16
511.42339
 26
-261.199504
 36
0.0
  0
TEXT
  5
5C5
330
27
100
AcDbEntity
  8
18
100
AcDbText
 10
518.005677
 20
-230.693976
 30
0.0
 40
6.0
  1
Ｏ
 50
270.0
 41
0.9230769230769253
 72
     5
 11
518.005677
 21
-235.493976
 31
0.0
100
AcDbText
  0
TEXT
  5
5C6
330
27
100
AcDbEntity
  8
18
100
AcDbText
 10
477.297418
 20
-269.008527
 30
0.0
 40
6.0
  1
Ｓ
 50
270.0
 72
     5
 11
477.297418
 21
-273.808527
 31
0.0
100
AcDbText
  0
LINE
  5
5C7
330
27
100
AcDbEntity
  8
20
 62
     3
100
AcDbLine
 10
-540.0
 20
-415.5
 30
0.0
 11
600.0
 21
-415.5
 31
0.0
  0
LINE
  5
5C8
330
27
100
AcDbEntity
  8
20
 62
     3
100
AcDbLine
 10
-540.0
 20
396.0
 30
0.0
 11
600.0
 21
396.0
 31
0.0
  0
LINE
  5
5C9
330
27
100
AcDbEntity
  8
20
 62
     3
100
AcDbLine
 10
-540.0
 20
396.0
 30
0.0
 11
-540.0
 21
-415.5
 31
0.0
  0
LINE
  5
5CA
330
27
100
AcDbEntity
  8
20
 62
     3
100
AcDbLine
 10
600.0
 20
396.0
 30
0.0
 11
600.0
 21
-415.5
 31
0.0
  0
LINE
  5
5CB
330
27
100
AcDbEntity
  8
20
 62
     3
100
AcDbLine
 10
180.0
 20
-415.5
 30
0.0
 11
180.0
 21
-355.5
 31
0.0
  0
LINE
  5
5CC
330
27
100
AcDbEntity
  8
20
 62
     3
100
AcDbLine
 10
321.0
 20
-415.5
 30
0.0
 11
321.0
 21
-355.5
 31
0.0
  0
LINE
  5
5CD
330
27
100
AcDbEntity
  8
20
100
AcDbLine
 10
321.0
 20
-385.5
 30
0.0
 11
600.0
 21
-385.5
 31
0.0
  0
LINE
  5
5CE
330
27
100
AcDbEntity
  8
20
 62
     3
100
AcDbLine
 10
180.0
 20
-355.5
 30
0.0
 11
600.0
 21
-355.5
 31
0.0
  0
LINE
  5
5CF
330
27
100
AcDbEntity
  8
20
100
AcDbLine
 10
540.0
 20
-385.5
 30
0.0
 11
540.0
 21
-355.5
 31
0.0
  0
LINE
  5
5D0
330
27
100
AcDbEntity
  8
20
100
AcDbLine
 10
540.0
 20
-370.5
 30
0.0
 11
600.0
 21
-370.5
 31
0.0
  0
LINE
  5
5D1
330
27
100
AcDbEntity
  8
20
100
AcDbLine
 10
363.0
 20
-415.5
 30
0.0
 11
363.0
 21
-355.5
 31
0.0
  0
LINE
  5
5D2
330
27
100
AcDbEntity
  8
20
100
AcDbLine
 10
393.0
 20
-415.5
 30
0.0
 11
393.0
 21
-385.5
 31
0.0
  0
LINE
  5
5D3
330
27
100
AcDbEntity
  8
20
100
AcDbLine
 10
453.0
 20
-415.5
 30
0.0
 11
453.0
 21
-385.5
 31
0.0
  0
LINE
  5
5D4
330
27
100
AcDbEntity
  8
20
100
AcDbLine
 10
371.185244
 20
-407.3147559999999
 30
0.0
 11
383.694872
 21
-394.8051279999999
 31
0.0
  0
TEXT
  5
5D5
330
27
100
AcDbEntity
  8
20
100
AcDbText
 10
394.599987
 20
-397.490753
 30
0.0
 40
5.4
  1
ＤＲＡＷＩＮＧ　ＮＯ．
 41
0.8804347826086955
 72
     5
 11
452.919987
 21
-397.490753
 31
0.0
100
AcDbText
  0
TEXT
  5
5D6
330
27
100
AcDbEntity
  8
20
100
AcDbText
 10
400.4999999999999
 20
-409.4999999999999
 30
0.0
 40
9.0
  1
図　　　番
 41
0.8372093023255812
 72
     5
 11
443.7
 21
-409.4999999999999
 31
0.0
100
AcDbText
  0
TEXT
  5
5D7
330
27
100
AcDbEntity
  8
20
100
AcDbText
 10
558.0
 20
-366.0
 30
0.0
 40
6.0
  1
ＤＡＴＥ
 41
0.8769230769230752
 72
     5
 11
580.7999999999999
 21
-366.0
 31
0.0
100
AcDbText
  0
TEXT
  5
5D8
330
27
100
AcDbEntity
  8
20
100
AcDbText
 10
327.003213
 20
-398.883087
 30
0.0
 40
6.0
  1
ＳＣＡＬＥ
 41
0.8674698795180708
 72
     5
 11
355.803213
 21
-398.883087
 31
0.0
100
AcDbText
  0
TEXT
  5
5D9
330
27
100
AcDbEntity
  8
20
100
AcDbText
 10
324.0
 20
-409.4999999999999
 30
0.0
 40
9.0
  1
尺　　度
 41
0.8382352941176469
 72
     5
 11
358.2
 21
-409.4999999999999
 31
0.0
100
AcDbText
  0
TEXT
  5
5DA
330
27
100
AcDbEntity
  8
20
100
AcDbText
 10
322.503213
 20
-367.487654
 30
0.0
 40
6.0
  1
ＦＩＧ．ＮＯ．
 41
0.9107142857142848
 72
     5
 11
363.303213
 21
-367.487654
 31
0.0
100
AcDbText
  0
TEXT
  5
5DB
330
27
100
AcDbEntity
  8
20
100
AcDbText
 10
324.0
 20
-379.5
 30
0.0
 40
9.0
  1
名　　称
 41
0.8382352941176467
 72
     5
 11
358.2
 21
-379.5
 31
0.0
100
AcDbText
  0
TEXT
  5
5DC
330
27
100
AcDbEntity
  8
20
100
AcDbText
 10
181.696575
 20
-379.410759
 30
0.0
 40
6.9
  1
ＴＯＭＯＥ　ＶＡＬＶＥ　ＣＯ．，ＬＴＤ．
 41
0.8583815028901733
 72
     5
 11
318.316575
 21
-379.410759
 31
0.0
100
AcDbText
  0
TEXT
  5
5DD
330
27
100
AcDbEntity
  8
20
100
AcDbText
 10
202.5
 20
-399.869431
 30
0.0
 40
12.0
  1
巴バルブ株式会社
 41
0.8357142857142862
 72
     5
 11
296.1
 21
-399.869431
 31
0.0
100
AcDbText
  0
ENDSEC
  0
SECTION
  2
OBJECTS
  0
DICTIONARY
  5
646
330
0
100
AcDbDictionary
281
     1
  3
ACAD_COLOR
350
67D
  3
ACAD_GROUP
350
647
  3
ACAD_LAYOUT
350
6A5
  3
ACAD_MATERIAL
350
653
  3
ACAD_MLEADERSTYLE
350
6A2
  3
ACAD_MLINESTYLE
350
648
  3
ACAD_PLOTSETTINGS
350
6A6
  3
ACAD_PLOTSTYLENAME
350
651
  3
ACAD_SCALELIST
350
680
  3
ACAD_TABLESTYLE
350
67E
  3
ACAD_VISUALSTYLE
350
66C
  3
ACDB_RECOMPOSE_DATA
350
6D0
  3
AcDbVariableDictionary
350
6B6
  3
DWGPROPS
350
6D1
  0
DICTIONARY
  5
6AA
330
15
100
AcDbDictionary
280
     1
281
     1
  3
ADSK_XREC_LAYER_RECONCILED
360
6AB
  0
DICTIONARY
  5
6AC
330
16
100
AcDbDictionary
280
     1
281
     1
  3
ADSK_XREC_LAYER_RECONCILED
360
6AD
  0
DICTIONARY
  5
6AE
330
17
100
AcDbDictionary
280
     1
281
     1
  3
ADSK_XREC_LAYER_RECONCILED
360
6AF
  0
DICTIONARY
  5
6B0
330
18
100
AcDbDictionary
280
     1
281
     1
  3
ADSK_XREC_LAYER_RECONCILED
360
6B1
  0
DICTIONARY
  5
6B2
330
19
100
AcDbDictionary
280
     1
281
     1
  3
ADSK_XREC_LAYER_RECONCILED
360
6B3
  0
DICTIONARY
  5
6B4
330
1A
100
AcDbDictionary
280
     1
281
     1
  3
ADSK_XREC_LAYER_RECONCILED
360
6B5
  0
DICTIONARY
  5
67D
102
{ACAD_REACTORS
330
646
102
}
330
646
100
AcDbDictionary
281
     1
  0
DICTIONARY
  5
647
102
{ACAD_REACTORS
330
646
102
}
330
646
100
AcDbDictionary
281
     1
  0
DICTIONARY
  5
6A5
102
{ACAD_REACTORS
330
646
102
}
330
646
100
AcDbDictionary
281
     1
  3
Model
350
6A7
  3
レイアウト1
350
6A8
  0
DICTIONARY
  5
653
102
{ACAD_REACTORS
330
646
102
}
330
646
100
AcDbDictionary
281
     1
  3
ByBlock
350
65C
  3
ByLayer
350
654
  3
Global
350
664
  0
DICTIONARY
  5
6A2
102
{ACAD_REACTORS
330
646
102
}
330
646
100
AcDbDictionary
281
     1
  3
Standard
350
6A3
  0
DICTIONARY
  5
648
102
{ACAD_REACTORS
330
646
102
}
330
646
100
AcDbDictionary
281
     1
  3
STANDARD
350
649
  0
DICTIONARY
  5
6A6
102
{ACAD_REACTORS
330
646
102
}
330
646
100
AcDbDictionary
281
     1
  0
ACDBDICTIONARYWDFLT
  5
651
102
{ACAD_REACTORS
330
646
102
}
330
646
100
AcDbDictionary
281
     1
  3
Normal
350
652
100
AcDbDictionaryWithDefault
340
652
  0
DICTIONARY
  5
680
102
{ACAD_REACTORS
330
646
102
}
330
646
100
AcDbDictionary
281
     1
  3
A0
350
681
  3
A1
350
682
  3
A2
350
683
  3
A3
350
684
  3
A4
350
685
  3
A5
350
686
  3
A6
350
687
  3
A7
350
688
  3
A8
350
689
  3
A9
350
68A
  3
B0
350
68B
  3
B1
350
68C
  3
B2
350
68D
  3
B3
350
68E
  3
B4
350
68F
  3
B5
350
690
  3
B6
350
691
  3
B7
350
692
  3
B8
350
693
  3
B9
350
694
  3
C0
350
695
  3
C1
350
696
  3
C2
350
697
  3
C3
350
698
  3
C4
350
699
  3
C5
350
69A
  3
C6
350
69B
  3
C7
350
69C
  3
C8
350
69D
  3
C9
350
69E
  3
D0
350
69F
  3
D1
350
6A0
  3
D2
350
6A1
  0
DICTIONARY
  5
67E
102
{ACAD_REACTORS
330
646
102
}
330
646
100
AcDbDictionary
281
     1
  3
Standard
350
67F
  0
DICTIONARY
  5
66C
102
{ACAD_REACTORS
330
646
102
}
330
646
100
AcDbDictionary
281
     1
  3
2dWireframe
350
672
  3
3D Hidden
350
674
  3
3dWireframe
350
673
  3
Basic
350
671
  3
Brighten
350
678
  3
ColorChange
350
67C
  3
Conceptual
350
675
  3
Dim
350
677
  3
Facepattern
350
67B
  3
Flat
350
66D
  3
FlatWithEdges
350
66E
  3
Gouraud
350
66F
  3
GouraudWithEdges
350
670
  3
Linepattern
350
67A
  3
Realistic
350
676
  3
Thicken
350
679
  0
XRECORD
  5
6D0
102
{ACAD_REACTORS
330
646
102
}
330
646
100
AcDbXrecord
280
     1
 90
        1
330
67F
  0
DICTIONARY
  5
6B6
102
{ACAD_REACTORS
330
646
102
}
330
646
100
AcDbDictionary
281
     1
  3
CANNOSCALE
350
6B9
  3
CMLEADERSTYLE
350
6B8
  3
CTABLESTYLE
350
6B7
  3
DIMASSOC
350
6BC
  3
INDEXCTL
350
6BB
  3
SORTENTS
350
6BA
  0
XRECORD
  5
6D1
102
{ACAD_REACTORS
330
646
102
}
330
646
100
AcDbXrecord
280
     1
  1
DWGPROPS COOKIE
  2

  3

  4

  6

  7

  8
miyazaki-tomoko
  9

300
=
301
=
302
=
303
=
304
=
305
=
306
=
307
=
308
=
309
=
 40
0.2096539351851852
 41
2453571.0
 42
2455707.696810556
  1

 90
        0
  0
XRECORD
  5
6AB
102
{ACAD_REACTORS
330
6AA
102
}
330
6AA
100
AcDbXrecord
280
     1
290
     1
  0
XRECORD
  5
6AD
102
{ACAD_REACTORS
330
6AC
102
}
330
6AC
100
AcDbXrecord
280
     1
290
     1
  0
XRECORD
  5
6AF
102
{ACAD_REACTORS
330
6AE
102
}
330
6AE
100
AcDbXrecord
280
     1
290
     1
  0
XRECORD
  5
6B1
102
{ACAD_REACTORS
330
6B0
102
}
330
6B0
100
AcDbXrecord
280
     1
290
     1
  0
XRECORD
  5
6B3
102
{ACAD_REACTORS
330
6B2
102
}
330
6B2
100
AcDbXrecord
280
     1
290
     1
  0
XRECORD
  5
6B5
102
{ACAD_REACTORS
330
6B4
102
}
330
6B4
100
AcDbXrecord
280
     1
290
     1
  0
LAYOUT
  5
6A7
102
{ACAD_XDICTIONARY
360
6D6
102
}
102
{ACAD_REACTORS
330
6A5
102
}
330
6A5
100
AcDbPlotSettings
  1

  2
Adobe PDF
  4

  6

 40
0.0
 41
0.0
 42
0.0
 43
0.0
 44
0.0
 45
0.0
 46
0.0
 47
0.0
 48
0.0
 49
0.0
140
0.0
141
0.0
142
1.0
143
1.0
 70
  1712
 72
     0
 73
     0
 74
     0
  7

 75
     0
147
1.0
148
0.0
149
0.0
100
AcDbLayout
  1
Model
 70
     1
 71
     0
 10
0.0
 20
0.0
 11
12.0
 21
9.0
 12
0.0
 22
0.0
 32
0.0
 14
0.0
 24
0.0
 34
0.0
 15
0.0
 25
0.0
 35
0.0
146
0.0
 13
0.0
 23
0.0
 33
0.0
 16
1.0
 26
0.0
 36
0.0
 17
0.0
 27
1.0
 37
0.0
 76
     0
330
27
331
1B
  0
LAYOUT
  5
6A8
102
{ACAD_XDICTIONARY
360
6D8
102
}
102
{ACAD_REACTORS
330
6A5
102
}
330
6A5
100
AcDbPlotSettings
  1

  2
Adobe PDF
  4

  6

 40
0.0
 41
0.0
 42
0.0
 43
0.0
 44
0.0
 45
0.0
 46
0.0
 47
0.0
 48
0.0
 49
0.0
140
0.0
141
0.0
142
1.0
143
1.0
 70
   688
 72
     0
 73
     0
 74
     5
  7

 75
    16
147
1.0
148
0.0
149
0.0
100
AcDbLayout
  1
レイアウト1
 70
     0
 71
     1
 10
0.0
 20
0.0
 11
12.0
 21
9.0
 12
0.0
 22
0.0
 32
0.0
 14
1.000000000000000E+20
 24
1.000000000000000E+20
 34
1.000000000000000E+20
 15
-1.000000000000000E+20
 25
-1.000000000000000E+20
 35
-1.000000000000000E+20
146
0.0
 13
0.0
 23
0.0
 33
0.0
 16
1.0
 26
0.0
 36
0.0
 17
0.0
 27
1.0
 37
0.0
 76
     0
330
28
  0
MATERIAL
  5
65C
102
{ACAD_XDICTIONARY
360
65D
102
}
102
{ACAD_REACTORS
330
653
102
}
330
653
100
AcDbMaterial
  1
ByBlock
 72
     0
 43
0.0208333333333333
 43
0.0
 43
0.0
 43
0.0
 43
0.0
 43
0.0208333333333333
 43
0.0
 43
0.0
 43
0.0
 43
0.0
 43
1.0
 43
0.0
 43
0.0
 43
0.0
 43
0.0
 43
1.0
 77
     0
 47
0.0208333333333333
 47
0.0
 47
0.0
 47
0.0
 47
0.0
 47
0.0208333333333333
 47
0.0
 47
0.0
 47
0.0
 47
0.0
 47
1.0
 47
0.0
 47
0.0
 47
0.0
 47
0.0
 47
1.0
171
     0
 49
0.0208333333333333
 49
0.0
 49
0.0
 49
0.0
 49
0.0
 49
0.0208333333333333
 49
0.0
 49
0.0
 49
0.0
 49
0.0
 49
1.0
 49
0.0
 49
0.0
 49
0.0
 49
0.0
 49
1.0
175
     0
142
0.0208333333333333
142
0.0
142
0.0
142
0.0
142
0.0
142
0.0208333333333333
142
0.0
142
0.0
142
0.0
142
0.0
142
1.0
142
0.0
142
0.0
142
0.0
142
0.0
142
1.0
179
     0
144
0.0208333333333333
144
0.0
144
0.0
144
0.0
144
0.0
144
0.0208333333333333
144
0.0
144
0.0
144
0.0
144
0.0
144
1.0
144
0.0
144
0.0
144
0.0
144
0.0
144
1.0
147
0.0208333333333333
147
0.0
147
0.0
147
0.0
147
0.0
147
0.0208333333333333
147
0.0
147
0.0
147
0.0
147
0.0
147
1.0
147
0.0
147
0.0
147
0.0
147
0.0
147
1.0
  0
MATERIAL
  5
654
102
{ACAD_XDICTIONARY
360
655
102
}
102
{ACAD_REACTORS
330
653
102
}
330
653
100
AcDbMaterial
  1
ByLayer
 72
     0
 43
0.0208333333333333
 43
0.0
 43
0.0
 43
0.0
 43
0.0
 43
0.0208333333333333
 43
0.0
 43
0.0
 43
0.0
 43
0.0
 43
1.0
 43
0.0
 43
0.0
 43
0.0
 43
0.0
 43
1.0
 77
     0
 47
0.0208333333333333
 47
0.0
 47
0.0
 47
0.0
 47
0.0
 47
0.0208333333333333
 47
0.0
 47
0.0
 47
0.0
 47
0.0
 47
1.0
 47
0.0
 47
0.0
 47
0.0
 47
0.0
 47
1.0
171
     0
 49
0.0208333333333333
 49
0.0
 49
0.0
 49
0.0
 49
0.0
 49
0.0208333333333333
 49
0.0
 49
0.0
 49
0.0
 49
0.0
 49
1.0
 49
0.0
 49
0.0
 49
0.0
 49
0.0
 49
1.0
175
     0
142
0.0208333333333333
142
0.0
142
0.0
142
0.0
142
0.0
142
0.0208333333333333
142
0.0
142
0.0
142
0.0
142
0.0
142
1.0
142
0.0
142
0.0
142
0.0
142
0.0
142
1.0
179
     0
144
0.0208333333333333
144
0.0
144
0.0
144
0.0
144
0.0
144
0.0208333333333333
144
0.0
144
0.0
144
0.0
144
0.0
144
1.0
144
0.0
144
0.0
144
0.0
144
0.0
144
1.0
147
0.0208333333333333
147
0.0
147
0.0
147
0.0
147
0.0
147
0.0208333333333333
147
0.0
147
0.0
147
0.0
147
0.0
147
1.0
147
0.0
147
0.0
147
0.0
147
0.0
147
1.0
  0
MATERIAL
  5
664
102
{ACAD_XDICTIONARY
360
665
102
}
102
{ACAD_REACTORS
330
653
102
}
330
653
100
AcDbMaterial
  1
Global
 72
     0
 43
0.0208333333333333
 43
0.0
 43
0.0
 43
0.0
 43
0.0
 43
0.0208333333333333
 43
0.0
 43
0.0
 43
0.0
 43
0.0
 43
1.0
 43
0.0
 43
0.0
 43
0.0
 43
0.0
 43
1.0
 77
     0
 47
0.0208333333333333
 47
0.0
 47
0.0
 47
0.0
 47
0.0
 47
0.0208333333333333
 47
0.0
 47
0.0
 47
0.0
 47
0.0
 47
1.0
 47
0.0
 47
0.0
 47
0.0
 47
0.0
 47
1.0
171
     0
 49
0.0208333333333333
 49
0.0
 49
0.0
 49
0.0
 49
0.0
 49
0.0208333333333333
 49
0.0
 49
0.0
 49
0.0
 49
0.0
 49
1.0
 49
0.0
 49
0.0
 49
0.0
 49
0.0
 49
1.0
175
     0
142
0.0208333333333333
142
0.0
142
0.0
142
0.0
142
0.0
142
0.0208333333333333
142
0.0
142
0.0
142
0.0
142
0.0
142
1.0
142
0.0
142
0.0
142
0.0
142
0.0
142
1.0
179
     0
144
0.0208333333333333
144
0.0
144
0.0
144
0.0
144
0.0
144
0.0208333333333333
144
0.0
144
0.0
144
0.0
144
0.0
144
1.0
144
0.0
144
0.0
144
0.0
144
0.0
144
1.0
147
0.0208333333333333
147
0.0
147
0.0
147
0.0
147
0.0
147
0.0208333333333333
147
0.0
147
0.0
147
0.0
147
0.0
147
1.0
147
0.0
147
0.0
147
0.0
147
0.0
147
1.0
  0
MLEADERSTYLE
  5
6A3
102
{ACAD_REACTORS
330
6A2
102
}
330
6A2
100
AcDbMLeaderStyle
170
     2
171
     1
172
     0
 90
        2
 40
0.0
 41
0.0
173
     1
 91
-1056964608
340
C
 92
       -2
290
     1
 42
0.09
291
     1
 43
0.36
  3
Standard
 44
0.18
300

342
1D
174
     1
178
     6
175
     1
176
     0
 93
-1056964608
 45
0.18
292
     0
297
     0
 46
0.18
 94
-1056964608
 47
1.0
 49
1.0
140
1.0
293
     1
141
0.0
294
     1
177
     0
142
1.0
295
     0
296
     0
143
0.125
1001
ACAD_MLEADERVER
1070
     2
  0
MLINESTYLE
  5
649
102
{ACAD_REACTORS
330
648
102
}
330
648
100
AcDbMlineStyle
  2
STANDARD
 70
     0
  3

 62
     0
 51
90.0
 52
90.0
 71
     2
 49
0.5
 62
   256
  6
BYLAYER
 49
-0.5
 62
   256
  6
BYLAYER
  0
ACDBPLACEHOLDER
  5
652
102
{ACAD_REACTORS
330
651
102
}
330
651
  0
SCALE
  5
681
102
{ACAD_REACTORS
330
680
102
}
330
680
100
AcDbScale
 70
     0
300
1:1
140
1.0
141
1.0
290
     1
  0
SCALE
  5
682
102
{ACAD_REACTORS
330
680
102
}
330
680
100
AcDbScale
 70
     0
300
1:2
140
1.0
141
2.0
290
     0
  0
SCALE
  5
683
102
{ACAD_REACTORS
330
680
102
}
330
680
100
AcDbScale
 70
     0
300
1:4
140
1.0
141
4.0
290
     0
  0
SCALE
  5
684
102
{ACAD_REACTORS
330
680
102
}
330
680
100
AcDbScale
 70
     0
300
1:5
140
1.0
141
5.0
290
     0
  0
SCALE
  5
685
102
{ACAD_REACTORS
330
680
102
}
330
680
100
AcDbScale
 70
     0
300
1:8
140
1.0
141
8.0
290
     0
  0
SCALE
  5
686
102
{ACAD_REACTORS
330
680
102
}
330
680
100
AcDbScale
 70
     0
300
1:10
140
1.0
141
10.0
290
     0
  0
SCALE
  5
687
102
{ACAD_REACTORS
330
680
102
}
330
680
100
AcDbScale
 70
     0
300
1:16
140
1.0
141
16.0
290
     0
  0
SCALE
  5
688
102
{ACAD_REACTORS
330
680
102
}
330
680
100
AcDbScale
 70
     0
300
1:20
140
1.0
141
20.0
290
     0
  0
SCALE
  5
689
102
{ACAD_REACTORS
330
680
102
}
330
680
100
AcDbScale
 70
     0
300
1:30
140
1.0
141
30.0
290
     0
  0
SCALE
  5
68A
102
{ACAD_REACTORS
330
680
102
}
330
680
100
AcDbScale
 70
     0
300
1:40
140
1.0
141
40.0
290
     0
  0
SCALE
  5
68B
102
{ACAD_REACTORS
330
680
102
}
330
680
100
AcDbScale
 70
     0
300
1:50
140
1.0
141
50.0
290
     0
  0
SCALE
  5
68C
102
{ACAD_REACTORS
330
680
102
}
330
680
100
AcDbScale
 70
     0
300
1:100
140
1.0
141
100.0
290
     0
  0
SCALE
  5
68D
102
{ACAD_REACTORS
330
680
102
}
330
680
100
AcDbScale
 70
     0
300
2:1
140
2.0
141
1.0
290
     0
  0
SCALE
  5
68E
102
{ACAD_REACTORS
330
680
102
}
330
680
100
AcDbScale
 70
     0
300
4:1
140
4.0
141
1.0
290
     0
  0
SCALE
  5
68F
102
{ACAD_REACTORS
330
680
102
}
330
680
100
AcDbScale
 70
     0
300
8:1
140
8.0
141
1.0
290
     0
  0
SCALE
  5
690
102
{ACAD_REACTORS
330
680
102
}
330
680
100
AcDbScale
 70
     0
300
10:1
140
10.0
141
1.0
290
     0
  0
SCALE
  5
691
102
{ACAD_REACTORS
330
680
102
}
330
680
100
AcDbScale
 70
     0
300
100:1
140
100.0
141
1.0
290
     0
  0
SCALE
  5
692
102
{ACAD_REACTORS
330
680
102
}
330
680
100
AcDbScale
 70
     0
300
1/128" = 1'-0"
140
0.0078125
141
12.0
290
     0
  0
SCALE
  5
693
102
{ACAD_REACTORS
330
680
102
}
330
680
100
AcDbScale
 70
     0
300
1/64" = 1'-0"
140
0.015625
141
12.0
290
     0
  0
SCALE
  5
694
102
{ACAD_REACTORS
330
680
102
}
330
680
100
AcDbScale
 70
     0
300
1/32" = 1'-0"
140
0.03125
141
12.0
290
     0
  0
SCALE
  5
695
102
{ACAD_REACTORS
330
680
102
}
330
680
100
AcDbScale
 70
     0
300
1/16" = 1'-0"
140
0.0625
141
12.0
290
     0
  0
SCALE
  5
696
102
{ACAD_REACTORS
330
680
102
}
330
680
100
AcDbScale
 70
     0
300
3/32" = 1'-0"
140
0.09375
141
12.0
290
     0
  0
SCALE
  5
697
102
{ACAD_REACTORS
330
680
102
}
330
680
100
AcDbScale
 70
     0
300
1/8" = 1'-0"
140
0.125
141
12.0
290
     0
  0
SCALE
  5
698
102
{ACAD_REACTORS
330
680
102
}
330
680
100
AcDbScale
 70
     0
300
3/16" = 1'-0"
140
0.1875
141
12.0
290
     0
  0
SCALE
  5
699
102
{ACAD_REACTORS
330
680
102
}
330
680
100
AcDbScale
 70
     0
300
1/4" = 1'-0"
140
0.25
141
12.0
290
     0
  0
SCALE
  5
69A
102
{ACAD_REACTORS
330
680
102
}
330
680
100
AcDbScale
 70
     0
300
3/8" = 1'-0"
140
0.375
141
12.0
290
     0
  0
SCALE
  5
69B
102
{ACAD_REACTORS
330
680
102
}
330
680
100
AcDbScale
 70
     0
300
1/2" = 1'-0"
140
0.5
141
12.0
290
     0
  0
SCALE
  5
69C
102
{ACAD_REACTORS
330
680
102
}
330
680
100
AcDbScale
 70
     0
300
3/4" = 1'-0"
140
0.75
141
12.0
290
     0
  0
SCALE
  5
69D
102
{ACAD_REACTORS
330
680
102
}
330
680
100
AcDbScale
 70
     0
300
1" = 1'-0"
140
1.0
141
12.0
290
     0
  0
SCALE
  5
69E
102
{ACAD_REACTORS
330
680
102
}
330
680
100
AcDbScale
 70
     0
300
1-1/2" = 1'-0"
140
1.5
141
12.0
290
     0
  0
SCALE
  5
69F
102
{ACAD_REACTORS
330
680
102
}
330
680
100
AcDbScale
 70
     0
300
3" = 1'-0"
140
3.0
141
12.0
290
     0
  0
SCALE
  5
6A0
102
{ACAD_REACTORS
330
680
102
}
330
680
100
AcDbScale
 70
     0
300
6" = 1'-0"
140
6.0
141
12.0
290
     0
  0
SCALE
  5
6A1
102
{ACAD_REACTORS
330
680
102
}
330
680
100
AcDbScale
 70
     0
300
1'-0" = 1'-0"
140
12.0
141
12.0
290
     0
  0
TABLESTYLE
  5
67F
102
{ACAD_XDICTIONARY
360
6CE
102
}
102
{ACAD_REACTORS
330
67E
102
}
330
67E
100
AcDbTableStyle
  3
Standard
 70
     0
 71
     0
 40
0.06
 41
0.06
280
     0
281
     0
  7
STANDARD
140
0.18
170
     2
 62
     0
 63
     7
283
     0
274
    -2
284
     1
 64
     0
275
    -2
285
     1
 65
     0
276
    -2
286
     1
 66
     0
277
    -2
287
     1
 67
     0
278
    -2
288
     1
 68
     0
279
    -2
289
     1
 69
     0
  7
STANDARD
140
0.25
170
     5
 62
     0
 63
     7
283
     0
274
    -2
284
     1
 64
     0
275
    -2
285
     1
 65
     0
276
    -2
286
     1
 66
     0
277
    -2
287
     1
 67
     0
278
    -2
288
     1
 68
     0
279
    -2
289
     1
 69
     0
  7
STANDARD
140
0.18
170
     5
 62
     0
 63
     7
283
     0
274
    -2
284
     1
 64
     0
275
    -2
285
     1
 65
     0
276
    -2
286
     1
 66
     0
277
    -2
287
     1
 67
     0
278
    -2
288
     1
 68
     0
279
    -2
289
     1
 69
     0
  0
VISUALSTYLE
  5
672
102
{ACAD_REACTORS
330
66C
102
}
330
66C
100
AcDbVisualStyle
  2
2dWireframe
 70
     4
 71
     0
 72
     2
 73
     0
 90
        0
 40
-0.6
 41
-30.0
 62
     5
 63
     7
 74
     1
 91
        4
 64
     7
 65
   257
 75
     1
175
     1
 42
1.0
 92
        0
 66
   257
 43
1.0
 76
     1
 77
     6
 78
     2
 67
     7
 79
     5
170
     0
171
     0
290
     0
174
     0
 93
        1
 44
0.0
173
     0
291
     0
 45
0.0
1001
ACAD
1000
AcDbSavedByObjectVersion
1070
     0
  0
VISUALSTYLE
  5
674
102
{ACAD_REACTORS
330
66C
102
}
330
66C
100
AcDbVisualStyle
  2
3D Hidden
 70
     6
 71
     1
 72
     2
 73
     2
 90
        0
 40
-0.6
 41
-30.0
 62
     5
 63
     7
 74
     2
 91
        2
 64
     7
 65
   257
 75
     2
175
     1
 42
40.0
 92
        0
 66
   257
 43
1.0
 76
     1
 77
     6
 78
     2
 67
     7
 79
     3
170
     0
171
     0
290
     0
174
     0
 93
        1
 44
0.0
173
     0
291
     0
 45
0.0
1001
ACAD
1000
AcDbSavedByObjectVersion
1070
     0
  0
VISUALSTYLE
  5
673
102
{ACAD_REACTORS
330
66C
102
}
330
66C
100
AcDbVisualStyle
  2
3dWireframe
 70
     5
 71
     0
 72
     2
 73
     0
 90
        0
 40
-0.6
 41
-30.0
 62
     5
 63
     7
 74
     1
 91
        4
 64
     7
 65
   257
 75
     1
175
     1
 42
1.0
 92
        0
 66
   257
 43
1.0
 76
     1
 77
     6
 78
     2
 67
     7
 79
     5
170
     0
171
     0
290
     0
174
     0
 93
        1
 44
0.0
173
     0
291
     0
 45
0.0
1001
ACAD
1000
AcDbSavedByObjectVersion
1070
     0
  0
VISUALSTYLE
  5
671
102
{ACAD_REACTORS
330
66C
102
}
330
66C
100
AcDbVisualStyle
  2
Basic
 70
     7
 71
     1
 72
     0
 73
     1
 90
        0
 40
-0.6
 41
-30.0
 62
     5
 63
     7
 74
     0
 91
        4
 64
     7
 65
   257
 75
     1
175
     1
 42
1.0
 92
        8
 66
     7
 43
1.0
 76
     1
 77
     6
 78
     2
 67
     7
 79
     5
170
     0
171
     0
290
     0
174
     0
 93
        1
 44
0.0
173
     0
291
     1
 45
0.0
1001
ACAD
1000
AcDbSavedByObjectVersion
1070
     0
  0
VISUALSTYLE
  5
678
102
{ACAD_REACTORS
330
66C
102
}
330
66C
100
AcDbVisualStyle
  2
Brighten
 70
    12
 71
     2
 72
     2
 73
     0
 90
        0
 40
-0.6
 41
-30.0
 62
     5
 63
     7
 74
     1
 91
        4
 64
     7
 65
   257
 75
     1
175
     1
 42
1.0
 92
        8
 66
     7
 43
1.0
 76
     1
 77
     6
 78
     2
 67
     7
 79
     5
170
     0
171
     0
290
     0
174
     0
 93
        1
 44
50.0
173
     0
291
     1
 45
0.0
1001
ACAD
1000
AcDbSavedByObjectVersion
1070
     0
  0
VISUALSTYLE
  5
67C
102
{ACAD_REACTORS
330
66C
102
}
330
66C
100
AcDbVisualStyle
  2
ColorChange
 70
    16
 71
     2
 72
     2
 73
     3
 90
        0
 40
-0.6
 41
-30.0
 62
     5
 63
     8
 74
     1
 91
        4
 64
     7
 65
   257
 75
     1
175
     1
 42
1.0
 92
        8
 66
     8
 43
1.0
 76
     1
 77
     6
 78
     2
 67
     7
 79
     5
170
     0
171
     0
290
     0
174
     0
 93
        1
 44
0.0
173
     0
291
     1
 45
0.0
1001
ACAD
1000
AcDbSavedByObjectVersion
1070
     0
  0
VISUALSTYLE
  5
675
102
{ACAD_REACTORS
330
66C
102
}
330
66C
100
AcDbVisualStyle
  2
Conceptual
 70
     9
 71
     3
 72
     2
 73
     0
 90
        0
 40
-0.6
 41
-30.0
 62
     5
 63
     7
 74
     2
 91
        2
 64
     7
 65
   257
 75
     1
175
     1
 42
40.0
 92
        8
 66
     7
 43
1.0
 76
     1
 77
     6
 78
     2
 67
     7
 79
     3
170
     0
171
     0
290
     0
174
     0
 93
        1
 44
0.0
173
     0
291
     0
 45
0.0
1001
ACAD
1000
AcDbSavedByObjectVersion
1070
     0
  0
VISUALSTYLE
  5
677
102
{ACAD_REACTORS
330
66C
102
}
330
66C
100
AcDbVisualStyle
  2
Dim
 70
    11
 71
     2
 72
     2
 73
     0
 90
        0
 40
-0.6
 41
-30.0
 62
     5
 63
     7
 74
     1
 91
        4
 64
     7
 65
   257
 75
     1
175
     1
 42
1.0
 92
        8
 66
     7
 43
1.0
 76
     1
 77
     6
 78
     2
 67
     7
 79
     5
170
     0
171
     0
290
     0
174
     0
 93
        1
 44
-50.0
173
     0
291
     1
 45
0.0
1001
ACAD
1000
AcDbSavedByObjectVersion
1070
     0
  0
VISUALSTYLE
  5
67B
102
{ACAD_REACTORS
330
66C
102
}
330
66C
100
AcDbVisualStyle
  2
Facepattern
 70
    15
 71
     2
 72
     2
 73
     0
 90
        0
 40
-0.6
 41
-30.0
 62
     5
 63
     7
 74
     1
 91
        4
 64
     7
 65
   257
 75
     1
175
     1
 42
1.0
 92
        8
 66
     7
 43
1.0
 76
     1
 77
     6
 78
     2
 67
     7
 79
     5
170
     0
171
     0
290
     0
174
     0
 93
        1
 44
0.0
173
     0
291
     1
 45
0.0
1001
ACAD
1000
AcDbSavedByObjectVersion
1070
     0
  0
VISUALSTYLE
  5
66D
102
{ACAD_REACTORS
330
66C
102
}
330
66C
100
AcDbVisualStyle
  2
Flat
 70
     0
 71
     2
 72
     1
 73
     1
 90
        2
 40
-0.6
 41
30.0
 62
     5
 63
     7
 74
     0
 91
        4
 64
     7
 65
   257
 75
     1
175
     1
 42
1.0
 92
        8
 66
     7
 43
1.0
 76
     1
 77
     6
 78
     2
 67
     7
 79
     5
170
     0
171
     0
290
     0
174
     0
 93
       13
 44
0.0
173
     0
291
     1
 45
0.0
1001
ACAD
1000
AcDbSavedByObjectVersion
1070
     0
  0
VISUALSTYLE
  5
66E
102
{ACAD_REACTORS
330
66C
102
}
330
66C
100
AcDbVisualStyle
  2
FlatWithEdges
 70
     1
 71
     2
 72
     1
 73
     1
 90
        2
 40
-0.6
 41
30.0
 62
     5
 63
     7
 74
     1
 91
        4
 64
     7
 65
   257
 75
     1
175
     1
 42
1.0
 92
        0
 66
   257
 43
1.0
 76
     1
 77
     6
 78
     2
 67
     7
 79
     5
170
     0
171
     0
290
     0
174
     0
 93
       13
 44
0.0
173
     0
291
     1
 45
0.0
1001
ACAD
1000
AcDbSavedByObjectVersion
1070
     0
  0
VISUALSTYLE
  5
66F
102
{ACAD_REACTORS
330
66C
102
}
330
66C
100
AcDbVisualStyle
  2
Gouraud
 70
     2
 71
     2
 72
     2
 73
     1
 90
        2
 40
-0.6
 41
30.0
 62
     5
 63
     7
 74
     0
 91
        4
 64
     7
 65
   257
 75
     1
175
     1
 42
1.0
 92
        0
 66
     7
 43
1.0
 76
     1
 77
     6
 78
     2
 67
     7
 79
     5
170
     0
171
     0
290
     0
174
     0
 93
       13
 44
0.0
173
     0
291
     1
 45
0.0
1001
ACAD
1000
AcDbSavedByObjectVersion
1070
     0
  0
VISUALSTYLE
  5
670
102
{ACAD_REACTORS
330
66C
102
}
330
66C
100
AcDbVisualStyle
  2
GouraudWithEdges
 70
     3
 71
     2
 72
     2
 73
     1
 90
        2
 40
-0.6
 41
30.0
 62
     5
 63
     7
 74
     1
 91
        4
 64
     7
 65
   257
 75
     1
175
     1
 42
1.0
 92
        0
 66
   257
 43
1.0
 76
     1
 77
     6
 78
     2
 67
     7
 79
     5
170
     0
171
     0
290
     0
174
     0
 93
       13
 44
0.0
173
     0
291
     1
 45
0.0
1001
ACAD
1000
AcDbSavedByObjectVersion
1070
     0
  0
VISUALSTYLE
  5
67A
102
{ACAD_REACTORS
330
66C
102
}
330
66C
100
AcDbVisualStyle
  2
Linepattern
 70
    14
 71
     2
 72
     2
 73
     0
 90
        0
 40
-0.6
 41
-30.0
 62
     5
 63
     7
 74
     1
 91
        4
 64
     7
 65
   257
 75
     7
175
     7
 42
1.0
 92
        8
 66
     7
 43
1.0
 76
     1
 77
     6
 78
     2
 67
     7
 79
     5
170
     0
171
     0
290
     0
174
     0
 93
        1
 44
0.0
173
     0
291
     1
 45
0.0
1001
ACAD
1000
AcDbSavedByObjectVersion
1070
     0
  0
VISUALSTYLE
  5
676
102
{ACAD_REACTORS
330
66C
102
}
330
66C
100
AcDbVisualStyle
  2
Realistic
 70
     8
 71
     2
 72
     2
 73
     0
 90
        0
 40
-0.6
 41
-30.0
 62
     5
 63
     7
 74
     1
 91
        0
 64
     7
 65
   257
 75
     1
175
     1
 42
1.0
 92
        8
 66
     8
 43
1.0
 76
     1
 77
     6
 78
     2
 67
     7
 79
     5
170
     0
171
     0
290
     0
174
     0
 93
       13
 44
0.0
173
     0
291
     0
 45
0.0
1001
ACAD
1000
AcDbSavedByObjectVersion
1070
     0
  0
VISUALSTYLE
  5
679
102
{ACAD_REACTORS
330
66C
102
}
330
66C
100
AcDbVisualStyle
  2
Thicken
 70
    13
 71
     2
 72
     2
 73
     0
 90
        0
 40
-0.6
 41
-30.0
 62
     5
 63
     7
 74
     1
 91
        4
 64
     7
 65
   257
 75
     1
175
     1
 42
1.0
 92
       12
 66
     7
 43
1.0
 76
     1
 77
     6
 78
     2
 67
     7
 79
     5
170
     0
171
     0
290
     0
174
     0
 93
        1
 44
0.0
173
     0
291
     1
 45
0.0
1001
ACAD
1000
AcDbSavedByObjectVersion
1070
     0
  0
DICTIONARYVAR
  5
6B9
102
{ACAD_REACTORS
330
6B6
102
}
330
6B6
100
DictionaryVariables
280
     0
  1
1:1
  0
DICTIONARYVAR
  5
6B8
102
{ACAD_REACTORS
330
6B6
102
}
330
6B6
100
DictionaryVariables
280
     0
  1
STANDARD
  0
DICTIONARYVAR
  5
6B7
102
{ACAD_REACTORS
330
6B6
102
}
330
6B6
100
DictionaryVariables
280
     0
  1
STANDARD
  0
DICTIONARYVAR
  5
6BC
102
{ACAD_REACTORS
330
6B6
102
}
330
6B6
100
DictionaryVariables
280
     0
  1
1
  0
DICTIONARYVAR
  5
6BB
102
{ACAD_REACTORS
330
6B6
102
}
330
6B6
100
DictionaryVariables
280
     0
  1
0
  0
DICTIONARYVAR
  5
6BA
102
{ACAD_REACTORS
330
6B6
102
}
330
6B6
100
DictionaryVariables
280
     0
  1
127
  0
DICTIONARY
  5
6D6
330
6A7
100
AcDbDictionary
280
     1
281
     1
  3
ACAD_XREC_ROUNDTRIP
360
6D7
  0
DICTIONARY
  5
6D8
330
6A8
100
AcDbDictionary
280
     1
281
     1
  3
ACAD_XREC_ROUNDTRIP
360
6D9
  0
DICTIONARY
  5
65D
330
65C
100
AcDbDictionary
280
     1
281
     1
  3
ACAD_XREC_ROUNDTRIP
360
6D3
  3
BUMPTILE
360
65F
  3
DIFFUSETILE
360
65E
  3
OPACITYTILE
360
662
  3
REFLECTIONTILE
360
661
  3
REFRACTIONTILE
360
663
  3
SPECULARTILE
360
660
  0
DICTIONARY
  5
655
330
654
100
AcDbDictionary
280
     1
281
     1
  3
ACAD_XREC_ROUNDTRIP
360
6D2
  3
BUMPTILE
360
657
  3
DIFFUSETILE
360
656
  3
OPACITYTILE
360
65A
  3
REFLECTIONTILE
360
659
  3
REFRACTIONTILE
360
65B
  3
SPECULARTILE
360
658
  0
DICTIONARY
  5
665
330
664
100
AcDbDictionary
280
     1
281
     1
  3
ACAD_XREC_ROUNDTRIP
360
6D4
  3
BUMPTILE
360
667
  3
DIFFUSETILE
360
666
  3
OPACITYTILE
360
66A
  3
REFLECTIONTILE
360
669
  3
REFRACTIONTILE
360
66B
  3
SPECULARTILE
360
668
  0
DICTIONARY
  5
6CE
330
67F
100
AcDbDictionary
280
     1
281
     1
  3
ACAD_ROUNDTRIP_2008_TABLESTYLE_CELLSTYLEMAP
360
6CF
  3
ACAD_XREC_ROUNDTRIP
360
6D5
  0
XRECORD
  5
6D7
102
{ACAD_REACTORS
330
6D6
102
}
330
6D6
100
AcDbXrecord
280
     1
102
SHADEPLOT
 70
     0
102
SHADEPLOTRESLEVEL
 70
     2
102
SHADEPLOTCUSTOMDPI
 70
   300
  0
XRECORD
  5
6D9
102
{ACAD_REACTORS
330
6D8
102
}
330
6D8
100
AcDbXrecord
280
     1
102
SHADEPLOT
 70
     0
102
SHADEPLOTRESLEVEL
 70
     2
102
SHADEPLOTCUSTOMDPI
 70
   300
  0
XRECORD
  5
6D3
102
{ACAD_REACTORS
330
65D
102
}
330
65D
100
AcDbXrecord
280
     1
102
MATERIAL
148
0.0
149
0.0
149
0.0
 93
        0
 94
      127
282
     0
 72
     0
 77
     0
171
     0
175
     0
179
     0
273
     0
  0
XRECORD
  5
65F
102
{ACAD_REACTORS
330
65D
102
}
330
65D
100
AcDbXrecord
280
     1
270
     1
271
     1
  0
XRECORD
  5
65E
102
{ACAD_REACTORS
330
65D
102
}
330
65D
100
AcDbXrecord
280
     1
270
     1
271
     1
  0
XRECORD
  5
662
102
{ACAD_REACTORS
330
65D
102
}
330
65D
100
AcDbXrecord
280
     1
270
     1
271
     1
  0
XRECORD
  5
661
102
{ACAD_REACTORS
330
65D
102
}
330
65D
100
AcDbXrecord
280
     1
270
     1
271
     1
  0
XRECORD
  5
663
102
{ACAD_REACTORS
330
65D
102
}
330
65D
100
AcDbXrecord
280
     1
270
     1
271
     1
  0
XRECORD
  5
660
102
{ACAD_REACTORS
330
65D
102
}
330
65D
100
AcDbXrecord
280
     1
270
     1
271
     1
  0
XRECORD
  5
6D2
102
{ACAD_REACTORS
330
655
102
}
330
655
100
AcDbXrecord
280
     1
102
MATERIAL
148
0.0
149
0.0
149
0.0
 93
        0
 94
      127
282
     0
 72
     0
 77
     0
171
     0
175
     0
179
     0
273
     0
  0
XRECORD
  5
657
102
{ACAD_REACTORS
330
655
102
}
330
655
100
AcDbXrecord
280
     1
270
     1
271
     1
  0
XRECORD
  5
656
102
{ACAD_REACTORS
330
655
102
}
330
655
100
AcDbXrecord
280
     1
270
     1
271
     1
  0
XRECORD
  5
65A
102
{ACAD_REACTORS
330
655
102
}
330
655
100
AcDbXrecord
280
     1
270
     1
271
     1
  0
XRECORD
  5
659
102
{ACAD_REACTORS
330
655
102
}
330
655
100
AcDbXrecord
280
     1
270
     1
271
     1
  0
XRECORD
  5
65B
102
{ACAD_REACTORS
330
655
102
}
330
655
100
AcDbXrecord
280
     1
270
     1
271
     1
  0
XRECORD
  5
658
102
{ACAD_REACTORS
330
655
102
}
330
655
100
AcDbXrecord
280
     1
270
     1
271
     1
  0
XRECORD
  5
6D4
102
{ACAD_REACTORS
330
665
102
}
330
665
100
AcDbXrecord
280
     1
102
MATERIAL
148
0.0
149
0.0
149
0.0
 93
        0
 94
      127
282
     0
 72
     0
 77
     0
171
     0
175
     0
179
     0
273
     0
  0
XRECORD
  5
667
102
{ACAD_REACTORS
330
665
102
}
330
665
100
AcDbXrecord
280
     1
270
     1
271
     1
  0
XRECORD
  5
666
102
{ACAD_REACTORS
330
665
102
}
330
665
100
AcDbXrecord
280
     1
270
     1
271
     1
  0
XRECORD
  5
66A
102
{ACAD_REACTORS
330
665
102
}
330
665
100
AcDbXrecord
280
     1
270
     1
271
     1
  0
XRECORD
  5
669
102
{ACAD_REACTORS
330
665
102
}
330
665
100
AcDbXrecord
280
     1
270
     1
271
     1
  0
XRECORD
  5
66B
102
{ACAD_REACTORS
330
665
102
}
330
665
100
AcDbXrecord
280
     1
270
     1
271
     1
  0
XRECORD
  5
668
102
{ACAD_REACTORS
330
665
102
}
330
665
100
AcDbXrecord
280
     1
270
     1
271
     1
  0
CELLSTYLEMAP
  5
6CF
102
{ACAD_REACTORS
330
6CE
102
}
330
6CE
100
AcDbCellStyleMap
 90
        3
300
CELLSTYLE
  1
TABLEFORMAT_BEGIN
 90
        5
170
     1
 91
        0
 92
    32768
 62
   257
 93
        1
300
CONTENTFORMAT
  1
CONTENTFORMAT_BEGIN
 90
        0
 91
        0
 92
      512
 93
        0
300

 40
0.0
140
1.0
 94
        5
 62
     0
340
1D
144
0.25
309
CONTENTFORMAT_END
171
     0
 94
        0
309
TABLEFORMAT_END
  1
CELLSTYLE_BEGIN
 90
        1
 91
        1
300
_TITLE
309
CELLSTYLE_END
300
CELLSTYLE
  1
TABLEFORMAT_BEGIN
 90
        5
170
     1
 91
        0
 92
        0
 62
   257
 93
        1
300
CONTENTFORMAT
  1
CONTENTFORMAT_BEGIN
 90
        0
 91
        0
 92
      512
 93
        0
300

 40
0.0
140
1.0
 94
        5
 62
     0
340
1D
144
0.18
309
CONTENTFORMAT_END
171
     0
 94
        0
309
TABLEFORMAT_END
  1
CELLSTYLE_BEGIN
 90
        2
 91
        1
300
_HEADER
309
CELLSTYLE_END
300
CELLSTYLE
  1
TABLEFORMAT_BEGIN
 90
        5
170
     1
 91
        0
 92
        0
 62
   257
 93
        1
300
CONTENTFORMAT
  1
CONTENTFORMAT_BEGIN
 90
        0
 91
        0
 92
      512
 93
        0
300

 40
0.0
140
1.0
 94
        2
 62
     0
340
1D
144
0.18
309
CONTENTFORMAT_END
171
     0
 94
        0
309
TABLEFORMAT_END
  1
CELLSTYLE_BEGIN
 90
        3
 91
        2
300
_DATA
309
CELLSTYLE_END
  0
XRECORD
  5
6D5
102
{ACAD_REACTORS
330
6CE
102
}
330
6CE
100
AcDbXrecord
280
     1
102
ACAD_ROUNDTRIP_PRE2007_TABLESTYLE
 90
      512
 91
        0
  1

 92
      512
 93
        0
  2

 94
      512
 95
        0
  3

  0
ENDSEC
  0
EOF
