  0
SECTION
  2
HEADER
  9
$ACADVER
  1
AC1012
  9
$DWGCODEPAGE
  3
ansi_932
  9
$INSBASE
 10
0.0
 20
0.0
 30
0.0
  9
$EXTMIN
 10
-420.0
 20
-297.0
 30
1.000000E+20
  9
$EXTMAX
 10
420.0
 20
297.0
 30
-1.000000E+20
  9
$LIMMIN
 10
-420.0
 20
-297.0
  9
$LIMMAX
 10
420.0
 20
297.0
  9
$ORTHOMODE
 70
     0
  9
$REGENMODE
 70
     1
  9
$FILLMODE
 70
     1
  9
$QTEXTMODE
 70
     0
  9
$MIRRTEXT
 70
     1
  9
$DRAGMODE
 70
     2
  9
$LTSCALE
 40
1.0
  9
$OSMODE
 70
     0
  9
$ATTMODE
 70
     1
  9
$TEXTSIZE
 40
0.2
  9
$TRACEWID
 40
0.05
  9
$TEXTSTYLE
  7
STANDARD
  9
$CLAYER
  8
0
  9
$CELTYPE
  6
CONTINUOUS
  9
$CECOLOR
 62
   256
  9
$CELTSCALE
 40
1.0
  9
$DELOBJ
 70
     1
  9
$DISPSILH
 70
     0
  9
$DIMSCALE
 40
2.0
  9
$DIMASZ
 40
0.18
  9
$DIMEXO
 40
0.0625
  9
$DIMDLI
 40
0.38
  9
$DIMRND
 40
0.0
  9
$DIMDLE
 40
0.0
  9
$DIMEXE
 40
0.18
  9
$DIMTP
 40
0.0
  9
$DIMTM
 40
0.0
  9
$DIMTXT
 40
0.18
  9
$DIMCEN
 40
0.09
  9
$DIMTSZ
 40
0.0
  9
$DIMTOL
 70
     0
  9
$DIMLIM
 70
     0
  9
$DIMTIH
 70
     1
  9
$DIMTOH
 70
     1
  9
$DIMSE1
 70
     0
  9
$DIMSE2
 70
     0
  9
$DIMTAD
 70
     1
  9
$DIMZIN
 70
     0
  9
$DIMBLK
  1

  9
$DIMASO
 70
     1
  9
$DIMSHO
 70
     1
  9
$DIMPOST
  1

  9
$DIMAPOST
  1

  9
$DIMALT
 70
     0
  9
$DIMALTD
 70
     2
  9
$DIMALTF
 40
25.4
  9
$DIMLFAC
 40
1.0
  9
$DIMTOFL
 70
     0
  9
$DIMTVP
 40
0.0
  9
$DIMTIX
 70
     0
  9
$DIMSOXD
 70
     0
  9
$DIMSAH
 70
     0
  9
$DIMBLK1
  1

  9
$DIMBLK2
  1

  9
$DIMSTYLE
  2
STANDARD
  9
$DIMCLRD
 70
     0
  9
$DIMCLRE
 70
     0
  9
$DIMCLRT
 70
     0
  9
$DIMTFAC
 40
1.0
  9
$DIMGAP
 40
0.09
  9
$DIMJUST
 70
     0
  9
$DIMSD1
 70
     0
  9
$DIMSD2
 70
     0
  9
$DIMTOLJ
 70
     1
  9
$DIMTZIN
 70
     0
  9
$DIMALTZ
 70
     0
  9
$DIMALTTZ
 70
     0
  9
$DIMFIT
 70
     3
  9
$DIMUPT
 70
     0
  9
$DIMUNIT
 70
     2
  9
$DIMDEC
 70
     4
  9
$DIMTDEC
 70
     4
  9
$DIMALTU
 70
     2
  9
$DIMALTTD
 70
     2
  9
$DIMTXSTY
  7
STANDARD
  9
$DIMAUNIT
 70
     0
  9
$LUNITS
 70
     2
  9
$LUPREC
 70
     4
  9
$SKETCHINC
 40
0.1
  9
$FILLETRAD
 40
0.0
  9
$AUNITS
 70
     0
  9
$AUPREC
 70
     0
  9
$MENU
  1
acad
  9
$ELEVATION
 40
0.0
  9
$PELEVATION
 40
0.0
  9
$THICKNESS
 40
0.0
  9
$LIMCHECK
 70
     0
  9
$BLIPMODE
 70
     1
  9
$CHAMFERA
 40
0.0
  9
$CHAMFERB
 40
0.0
  9
$CHAMFERC
 40
0.0
  9
$CHAMFERD
 40
0.0
  9
$SKPOLY
 70
     0
  9
$TDCREATE
 40
2453571.000000000
  9
$TDUPDATE
 40
0.000000000
  9
$TDINDWG
 40
0.0000000000
  9
$TDUSRTIMER
 40
0.0000000000
  9
$USRTIMER
 70
     1
  9
$ANGBASE
 50
0.0
  9
$ANGDIR
 70
     0
  9
$PDMODE
 70
     0
  9
$PDSIZE
 40
0.0
  9
$PLINEWID
 40
0.0
  9
$COORDS
 70
     0
  9
$SPLFRAME
 70
     0
  9
$SPLINETYPE
 70
     6
  9
$SPLINESEGS
 70
     8
  9
$ATTDIA
 70
     0
  9
$ATTREQ
 70
     1
  9
$HANDLING
 70
     1
  9
$HANDSEED
  5
62D
  9
$SURFTAB1
 70
     6
  9
$SURFTAB2
 70
     6
  9
$SURFTYPE
 70
     6
  9
$SURFU
 70
     6
  9
$SURFV
 70
     6
  9
$UCSNAME
  2

  9
$UCSORG
 10
0.0
 20
0.0
 30
0.0
  9
$UCSXDIR
 10
1.0
 20
0.0
 30
0.0
  9
$UCSYDIR
 10
0.0
 20
1.0
 30
0.0
  9
$PUCSNAME
  2

  9
$PUCSORG
 10
0.0
 20
0.0
 30
0.0
  9
$PUCSXDIR
 10
1.0
 20
0.0
 30
0.0
  9
$PUCSYDIR
 10
0.0
 20
1.0
 30
0.0
  9
$USERI1
 70
     0
  9
$USERI2
 70
     0
  9
$USERI3
 70
     0
  9
$USERI4
 70
     0
  9
$USERI5
 70
     0
  9
$USERR1
 40
0.0
  9
$USERR2
 40
0.0
  9
$USERR3
 40
0.0
  9
$USERR4
 40
0.0
  9
$USERR5
 40
0.0
  9
$WORLDVIEW
 70
     1
  9
$SHADEDGE
 70
     3
  9
$SHADEDIF
 70
    70
  9
$TILEMODE
 70
     1
  9
$MAXACTVP
 70
    16
  9
$PINSBASE
 10
0.0
 20
0.0
 30
0.0
  9
$PLIMCHECK
 70
     0
  9
$PEXTMIN
 10
1.000000E+20
 20
1.000000E+20
 30
1.000000E+20
  9
$PEXTMAX
 10
-1.000000E+20
 20
-1.000000E+20
 30
-1.000000E+20
  9
$PLIMMIN
 10
0.0
 20
0.0
  9
$PLIMMAX
 10
12.0
 20
9.0
  9
$UNITMODE
 70
     0
  9
$VISRETAIN
 70
     0
  9
$PLINEGEN
 70
     1
  9
$PSLTSCALE
 70
     0
  9
$TREEDEPTH
 70
  3020
  9
$PICKSTYLE
 70
     1
  9
$CMLSTYLE
  2
STANDARD
  9
$CMLJUST
 70
     0
  9
$CMLSCALE
 40
1.0
  9
$SAVEIMAGES
 70
     0
  0
ENDSEC
  0
SECTION
  2
CLASSES
  0
CLASS
  1
LWPOLYLINE
  2
AcDbPolyline
  3
"AutoCAD"
 90
    32768
280
     0
281
     1
  0
CLASS
  1
IMAGE
  2
AcDbRasterImage
  3
ISM
 90
    32895
280
     0
281
     1
  0
CLASS
  1
OLE2FRAME
  2
AcDbOle2Frame
  3
""
 90
    32768
280
     0
281
     1
  0
CLASS
  1
HATCH
  2
AcDbHatch
  3
"ACAD_SEDONA"
 90
    32768
280
     0
281
     1
  0
CLASS
  1
DICTIONARYVAR
  2
AcDbDictionaryVar
  3
"AutoCAD"
 90
    32768
280
     0
281
     0
  0
CLASS
  1
RASTERVARIABLES
  2
AcDbRasterVariables
  3
ISM
 90
    32768
280
     0
281
     0
  0
CLASS
  1
IMAGEDEF
  2
AcDbRasterImageDef
  3
ISM
 90
    32768
280
     0
281
     0
  0
CLASS
  1
IMAGEDEF_REACTOR
  2
AcDbRasterImageDefReactor
  3
ISM
 90
    32769
280
     0
281
     0
  0
CLASS
  1
IDBUFFER
  2
AcDbIdBuffer
  3
"Acad"
 90
    32768
280
     0
281
     0
  0
CLASS
  1
SPATIAL_FILTER
  2
AcDbSpatialFilter
  3
"Acad"
 90
    32768
280
     0
281
     0
  0
CLASS
  1
XRECORD
  2
AcDbXrecord
  3
"<Built In>"
 90
    32768
280
     0
281
     0
  0
CLASS
  1
SORTENTSTABLE
  2
AcDbSortentsTable
  3
"AutoCAD"
 90
    32768
280
     0
281
     0
  0
CLASS
  1
LAYER_INDEX
  2
AcDbLayerIndex
  3
"Acad"
 90
    32768
280
     0
281
     0
  0
CLASS
  1
SPATIAL_INDEX
  2
AcDbSpatialIndex
  3
"Acad"
 90
    32768
280
     0
281
     0
  0
CLASS
  1
OBJECT_PTR
  2
CAseDLPNTableRecord
  3
"ASE-LPNTableRecord"
 90
    32769
280
     0
281
     0
  0
CLASS
  1
LAYOUT
  2
AcDbLayout
  3
"AutoCAD 2000"
 90
    32768
280
     0
281
     0
  0
CLASS
  1
PLOTSETTINGS
  2
AcDbPlotSettings
  3
"AutoCAD 2000"
 90
    32768
280
     0
281
     0
  0
CLASS
  1
ACDBDICTIONARYWDFLT
  2
AcDbDictionaryWithDefault
  3
"AutoCAD 2000"
 90
    32768
280
     0
281
     0
  0
CLASS
  1
ACDBPLACEHOLDER
  2
AcDbPlaceHolder
  3
"AutoCAD 2000"
 90
    32768
280
     0
281
     0
  0
CLASS
  1
VBA_PROJECT
  2
AcDbVbaProject
  3
"acadvba"
 90
    32768
280
     0
281
     0
  0
CLASS
  1
WIPEOUT
  2
AcDbWipeout
  3
WipeOut|AutoCAD Express Tool|expresstools@autodesk.com
 90
    32895
280
     0
281
     1
  0
CLASS
  1
WIPEOUTVARIABLES
  2
AcDbWipeoutVariables
  3
WipeOut|AutoCAD Express Tool|expresstools@autodesk.com
 90
    32768
280
     0
281
     0
  0
CLASS
  1
RTEXT
  2
RText
  3
RText|AutoCAD Express Tool|expresstools@autodesk.com
 90
    32768
280
     0
281
     1
  0
CLASS
  1
ARCALIGNEDTEXT
  2
AcDbArcAlignedText
  3
ATEXT|AutoCAD Express Tool|expresstools@autodesk.com
 90
    32768
280
     0
281
     1
  0
ENDSEC
  0
SECTION
  2
TABLES
  0
TABLE
  2
VPORT
  5
6
100
AcDbSymbolTable
 70
     1
  0
VPORT
  5
1B
100
AcDbSymbolTableRecord
100
AcDbViewportTableRecord
  2
*ACTIVE
 70
     0
 10
0.0
 20
0.0
 11
1.0
 21
1.0
 12
0.0
 22
0.0
 13
0.0
 23
0.0
 14
1.0
 24
1.0
 15
0.0
 25
0.0
 16
0.0
 26
0.0
 36
1.0
 17
0.0
 27
0.0
 37
0.0
 40
594.0
 41
1.414141
 42
50.0
 43
0.0
 44
0.0
 50
0.0
 51
0.0
 71
     0
 72
   500
 73
     1
 74
     1
 75
     0
 76
     0
 77
     0
 78
     0
  0
ENDTAB
  0
TABLE
  2
LTYPE
  5
3
100
AcDbSymbolTable
 70
     9
  0
LTYPE
  5
C
100
AcDbSymbolTableRecord
100
AcDbLinetypeTableRecord
  2
BYBLOCK
 70
    64
  3

 72
    65
 73
     0
 40
0.0
  0
LTYPE
  5
D
100
AcDbSymbolTableRecord
100
AcDbLinetypeTableRecord
  2
BYLAYER
 70
    64
  3

 72
    65
 73
     0
 40
0.0
  0
LTYPE
  5
E
100
AcDbSymbolTableRecord
100
AcDbLinetypeTableRecord
  2
CONTINUOUS
 70
     0
  3
Solid line
 72
    65
 73
     0
 40
0.0
  0
LTYPE
  5
F
100
AcDbSymbolTableRecord
100
AcDbLinetypeTableRecord
  2
DASHED
 70
     0
  3
__ __ __ __ __ __ __ __ __ __ __ __ __ __ __
 72
    65
 73
     2
 40
2.0
 49
1.2
 74
     0
 49
-0.8
 74
     0
  0
LTYPE
  5
10
100
AcDbSymbolTableRecord
100
AcDbLinetypeTableRecord
  2
CENTER
 70
     0
  3
____ _ ____ _ ____ _ ____ _ ____ _ ____ _ ____
 72
    65
 73
     4
 40
12.0
 49
9.0
 74
     0
 49
-1.0
 74
     0
 49
1.0
 74
     0
 49
-1.0
 74
     0
  0
LTYPE
  5
11
100
AcDbSymbolTableRecord
100
AcDbLinetypeTableRecord
  2
HIDDEN
 70
     0
  3
_ _ _ _ _ _ _ _ _ _ _ _ _ _ _ _ _ _ _ _ _ _ _
 72
    65
 73
     2
 40
3.2
 49
2.4
 74
     0
 49
-0.8
 74
     0
  0
LTYPE
  5
12
100
AcDbSymbolTableRecord
100
AcDbLinetypeTableRecord
  2
PHANTOM
 70
     0
  3
_____ _ _ _____ _ _ _____ _ _ _____ _ _ _____
 72
    65
 73
     6
 40
13.5
 49
9.0
 74
     0
 49
-1.0
 74
     0
 49
1.0
 74
     0
 49
-0.5
 74
     0
 49
1.0
 74
     0
 49
-1.0
 74
     0
  0
LTYPE
  5
13
100
AcDbSymbolTableRecord
100
AcDbLinetypeTableRecord
  2
DOT
 70
     0
  3
...............................................
 72
    65
 73
     2
 40
1.0
 49
0.5
 74
     0
 49
-0.5
 74
     0
  0
LTYPE
  5
14
100
AcDbSymbolTableRecord
100
AcDbLinetypeTableRecord
  2
DASHDOT
 70
     0
  3
__ . __ . __ . __ . __ . __ . __ . __ . __ . __
 72
    65
 73
     4
 40
8.0
 49
5.0
 74
     0
 49
-1.0
 74
     0
 49
1.0
 74
     0
 49
-1.0
 74
     0
  0
ENDTAB
  0
TABLE
  2
LAYER
  5
1
100
AcDbSymbolTable
 70
     6
  0
LAYER
  5
15
100
AcDbSymbolTableRecord
100
AcDbLayerTableRecord
  2
0
 70
     0
 62
     7
  6
CONTINUOUS
  0
LAYER
  5
16
100
AcDbSymbolTableRecord
100
AcDbLayerTableRecord
  2
1
 70
     0
 62
     7
  6
CONTINUOUS
  0
LAYER
  5
17
100
AcDbSymbolTableRecord
100
AcDbLayerTableRecord
  2
2
 70
     0
 62
     7
  6
CONTINUOUS
  0
LAYER
  5
18
100
AcDbSymbolTableRecord
100
AcDbLayerTableRecord
  2
5
 70
     0
 62
     7
  6
CONTINUOUS
  0
LAYER
  5
19
100
AcDbSymbolTableRecord
100
AcDbLayerTableRecord
  2
18
 70
     0
 62
     7
  6
CONTINUOUS
  0
LAYER
  5
1A
100
AcDbSymbolTableRecord
100
AcDbLayerTableRecord
  2
20
 70
     0
 62
     7
  6
CONTINUOUS
  0
ENDTAB
  0
TABLE
  2
STYLE
  5
2
100
AcDbSymbolTable
 70
     1
  0
STYLE
  5
1D
100
AcDbSymbolTableRecord
100
AcDbTextStyleTableRecord
  2
STANDARD
 70
    64
 40
0.0
 41
1.0
 50
0.0
 71
     0
 42
1.0
  3
txt
  4
BIGFONT
  0
ENDTAB
  0
TABLE
  2
VIEW
  5
4
100
AcDbSymbolTable
 70
     0
  0
ENDTAB
  0
TABLE
  2
UCS
  5
5
100
AcDbSymbolTable
 70
     0
  0
ENDTAB
  0
TABLE
  2
APPID
  5
7
100
AcDbSymbolTable
 70
     1
  0
APPID
  5
1C
100
AcDbSymbolTableRecord
100
AcDbRegAppTableRecord
  2
ACAD
 70
     0
  0
ENDTAB
  0
TABLE
  2
DIMSTYLE
  5
8
100
AcDbSymbolTable
 70
     1
  0
DIMSTYLE
105
2E
100
AcDbSymbolTableRecord
100
AcDbDimStyleTableRecord
  2
STANDARD
 70
     0
  3

  4

  5

  6

  7

 40
2.0
 41
0.18
 42
0.0625
 43
0.38
 44
0.18
 45
0.0
 46
0.0
 47
0.0
 48
0.0
 71
     0
 72
     0
 73
     1
 74
     1
 75
     0
 76
     0
 77
     1
 78
     0
140
0.18
141
0.09
142
0.0
143
25.4
144
1.0
145
0.0
146
1.0
147
0.09
170
     0
171
     2
172
     0
173
     0
174
     0
175
     0
176
     0
177
     0
178
     0
270
     2
271
     4
272
     4
273
     2
274
     2
275
     0
280
     0
281
     0
282
     0
283
     1
284
     0
285
     0
286
     0
287
     3
288
     0
340
1D
  0
ENDTAB
  0
TABLE
  2
BLOCK_RECORD
  5
29
100
AcDbSymbolTable
 70
     9
  0
BLOCK_RECORD
  5
27
100
AcDbSymbolTableRecord
100
AcDbBlockTableRecord
  2
*MODEL_SPACE
  0
BLOCK_RECORD
  5
28
100
AcDbSymbolTableRecord
100
AcDbBlockTableRecord
  2
*PAPER_SPACE
  0
BLOCK_RECORD
  5
1E
100
AcDbSymbolTableRecord
100
AcDbBlockTableRecord
  2
*D0
  0
BLOCK_RECORD
  5
1F
100
AcDbSymbolTableRecord
100
AcDbBlockTableRecord
  2
*D1
  0
BLOCK_RECORD
  5
20
100
AcDbSymbolTableRecord
100
AcDbBlockTableRecord
  2
*D2
  0
BLOCK_RECORD
  5
21
100
AcDbSymbolTableRecord
100
AcDbBlockTableRecord
  2
*D3
  0
BLOCK_RECORD
  5
22
100
AcDbSymbolTableRecord
100
AcDbBlockTableRecord
  2
*D4
  0
BLOCK_RECORD
  5
23
100
AcDbSymbolTableRecord
100
AcDbBlockTableRecord
  2
*D5
  0
BLOCK_RECORD
  5
24
100
AcDbSymbolTableRecord
100
AcDbBlockTableRecord
  2
*D6
  0
BLOCK_RECORD
  5
25
100
AcDbSymbolTableRecord
100
AcDbBlockTableRecord
  2
*D7
  0
BLOCK_RECORD
  5
26
100
AcDbSymbolTableRecord
100
AcDbBlockTableRecord
  2
*D8
  0
ENDTAB
  0
ENDSEC
  0
SECTION
  2
BLOCKS
  0
BLOCK
  5
2A
100
AcDbEntity
  8
0
100
AcDbBlockBegin
  2
*MODEL_SPACE
 70
     0
 10
0.0
 20
0.0
 30
0.0
  3
*MODEL_SPACE
  1

  0
ENDBLK
  5
2B
100
AcDbEntity
  8
0
100
AcDbBlockEnd
  0
BLOCK
  5
2C
100
AcDbEntity
 67
     1
  8
0
100
AcDbBlockBegin
  2
*PAPER_SPACE
 70
     0
 10
0.0
 20
0.0
 30
0.0
  3
*PAPER_SPACE
  1

  0
ENDBLK
  5
2D
100
AcDbEntity
 67
     1
  8
0
100
AcDbBlockEnd
  0
BLOCK
  5
5BE
100
AcDbEntity
  8
5
100
AcDbBlockBegin
  2
*D0
 70
     1
 10
0.0
 20
0.0
 30
0.0
  3
*D0
  1

  0
TEXT
  5
5BF
100
AcDbEntity
  8
5
 62
     2
100
AcDbText
 10
-283.219696
 20
184.787236
 30
0.0
 40
6.6
  1
75
 50
90.0
 41
1.4
 72
     5
 11
-283.219696
 21
192.179236
 31
0.0
100
AcDbText
  0
LINE
  5
5C0
100
AcDbEntity
  8
5
 62
     2
100
AcDbLine
 10
-269.720886
 20
151.907236
 30
0.0
 11
-284.219696
 21
151.907236
 31
0.0
  0
LINE
  5
5C1
100
AcDbEntity
  8
5
 62
     2
100
AcDbLine
 10
-282.219696
 20
151.907236
 30
0.0
 11
-281.18442
 21
155.77094
 31
0.0
  0
LINE
  5
5C2
100
AcDbEntity
  8
5
 62
     2
100
AcDbLine
 10
-282.219696
 20
151.907236
 30
0.0
 11
-283.254972
 21
155.77094
 31
0.0
  0
LINE
  5
5C3
100
AcDbEntity
  8
5
 62
     2
100
AcDbLine
 10
-281.18442
 20
155.77094
 30
0.0
 11
-283.254972
 21
155.77094
 31
0.0
  0
LINE
  5
5C4
100
AcDbEntity
  8
5
 62
     2
100
AcDbLine
 10
-282.219696
 20
151.907236
 30
0.0
 11
-282.219696
 21
226.907236
 31
0.0
  0
LINE
  5
5C5
100
AcDbEntity
  8
5
 62
     2
100
AcDbLine
 10
-282.219696
 20
226.907236
 30
0.0
 11
-283.254972
 21
223.043533
 31
0.0
  0
LINE
  5
5C6
100
AcDbEntity
  8
5
 62
     2
100
AcDbLine
 10
-282.219696
 20
226.907236
 30
0.0
 11
-281.18442
 21
223.043533
 31
0.0
  0
LINE
  5
5C7
100
AcDbEntity
  8
5
 62
     2
100
AcDbLine
 10
-283.254972
 20
223.043533
 30
0.0
 11
-281.18442
 21
223.043533
 31
0.0
  0
LINE
  5
5C8
100
AcDbEntity
  8
5
 62
     2
100
AcDbLine
 10
-211.194112
 20
226.907236
 30
0.0
 11
-284.219696
 21
226.907236
 31
0.0
  0
ENDBLK
  5
5C9
100
AcDbEntity
  8
5
100
AcDbBlockEnd
  0
BLOCK
  5
5CA
100
AcDbEntity
  8
5
100
AcDbBlockBegin
  2
*D1
 70
     1
 10
0.0
 20
0.0
 30
0.0
  3
*D1
  1

  0
TEXT
  5
5CB
100
AcDbEntity
  8
5
 62
     2
100
AcDbText
 10
-283.219696
 20
122.287236
 30
0.0
 40
6.6
  1
50
 50
90.0
 41
1.4
 72
     5
 11
-283.219696
 21
129.679236
 31
0.0
100
AcDbText
  0
LINE
  5
5CC
100
AcDbEntity
  8
5
 62
     2
100
AcDbLine
 10
-196.194112
 20
101.907236
 30
0.0
 11
-284.219696
 21
101.907236
 31
0.0
  0
LINE
  5
5CD
100
AcDbEntity
  8
5
 62
     2
100
AcDbLine
 10
-282.219696
 20
101.907236
 30
0.0
 11
-281.18442
 21
105.77094
 31
0.0
  0
LINE
  5
5CE
100
AcDbEntity
  8
5
 62
     2
100
AcDbLine
 10
-282.219696
 20
101.907236
 30
0.0
 11
-283.254972
 21
105.77094
 31
0.0
  0
LINE
  5
5CF
100
AcDbEntity
  8
5
 62
     2
100
AcDbLine
 10
-281.18442
 20
105.77094
 30
0.0
 11
-283.254972
 21
105.77094
 31
0.0
  0
LINE
  5
5D0
100
AcDbEntity
  8
5
 62
     2
100
AcDbLine
 10
-282.219696
 20
101.907236
 30
0.0
 11
-282.219696
 21
151.907236
 31
0.0
  0
LINE
  5
5D1
100
AcDbEntity
  8
5
 62
     2
100
AcDbLine
 10
-282.219696
 20
151.907236
 30
0.0
 11
-283.254972
 21
148.043533
 31
0.0
  0
LINE
  5
5D2
100
AcDbEntity
  8
5
 62
     2
100
AcDbLine
 10
-282.219696
 20
151.907236
 30
0.0
 11
-281.18442
 21
148.043533
 31
0.0
  0
LINE
  5
5D3
100
AcDbEntity
  8
5
 62
     2
100
AcDbLine
 10
-283.254972
 20
148.043533
 30
0.0
 11
-281.18442
 21
148.043533
 31
0.0
  0
LINE
  5
5D4
100
AcDbEntity
  8
5
 62
     2
100
AcDbLine
 10
-269.720886
 20
151.907236
 30
0.0
 11
-284.219696
 21
151.907236
 31
0.0
  0
ENDBLK
  5
5D5
100
AcDbEntity
  8
5
100
AcDbBlockEnd
  0
BLOCK
  5
5D6
100
AcDbEntity
  8
5
100
AcDbBlockBegin
  2
*D2
 70
     1
 10
0.0
 20
0.0
 30
0.0
  3
*D2
  1

  0
TEXT
  5
5D7
100
AcDbEntity
  8
5
 62
     2
100
AcDbText
 10
79.572995
 20
-90.435467
 30
0.0
 40
6.6
  1
118.5
 50
90.0
 41
1.4
 72
     5
 11
79.572995
 21
-69.183467
 31
0.0
100
AcDbText
  0
LINE
  5
5D8
100
AcDbEntity
  8
5
 62
     2
100
AcDbLine
 10
120.328276
 20
-138.135467
 30
0.0
 11
78.572995
 21
-138.135467
 31
0.0
  0
LINE
  5
5D9
100
AcDbEntity
  8
5
 62
     2
100
AcDbLine
 10
80.572995
 20
-138.135467
 30
0.0
 11
81.608271
 21
-134.271764
 31
0.0
  0
LINE
  5
5DA
100
AcDbEntity
  8
5
 62
     2
100
AcDbLine
 10
80.572995
 20
-138.135467
 30
0.0
 11
79.537719
 21
-134.271764
 31
0.0
  0
LINE
  5
5DB
100
AcDbEntity
  8
5
 62
     2
100
AcDbLine
 10
81.608271
 20
-134.271764
 30
0.0
 11
79.537719
 21
-134.271764
 31
0.0
  0
LINE
  5
5DC
100
AcDbEntity
  8
5
 62
     2
100
AcDbLine
 10
80.572995
 20
-138.135467
 30
0.0
 11
80.572995
 21
-19.635467
 31
0.0
  0
LINE
  5
5DD
100
AcDbEntity
  8
5
 62
     2
100
AcDbLine
 10
80.572995
 20
-19.635467
 30
0.0
 11
79.537719
 21
-23.499171
 31
0.0
  0
LINE
  5
5DE
100
AcDbEntity
  8
5
 62
     2
100
AcDbLine
 10
80.572995
 20
-19.635467
 30
0.0
 11
81.608271
 21
-23.499171
 31
0.0
  0
LINE
  5
5DF
100
AcDbEntity
  8
5
 62
     2
100
AcDbLine
 10
79.537719
 20
-23.499171
 30
0.0
 11
81.608271
 21
-23.499171
 31
0.0
  0
LINE
  5
5E0
100
AcDbEntity
  8
5
 62
     2
100
AcDbLine
 10
104.968825
 20
-19.635467
 30
0.0
 11
78.572995
 21
-19.635467
 31
0.0
  0
ENDBLK
  5
5E1
100
AcDbEntity
  8
5
100
AcDbBlockEnd
  0
BLOCK
  5
5E2
100
AcDbEntity
  8
5
100
AcDbBlockBegin
  2
*D3
 70
     1
 10
0.0
 20
0.0
 30
0.0
  3
*D3
  1

  0
TEXT
  5
5E3
100
AcDbEntity
  8
5
 62
     2
100
AcDbText
 10
79.572995
 20
-173.755467
 30
0.0
 40
6.6
  1
62
 50
90.0
 41
1.4
 72
     5
 11
79.572995
 21
-166.363467
 31
0.0
100
AcDbText
  0
LINE
  5
5E4
100
AcDbEntity
  8
5
 62
     2
100
AcDbLine
 10
151.968825
 20
-200.135467
 30
0.0
 11
78.572995
 21
-200.135467
 31
0.0
  0
LINE
  5
5E5
100
AcDbEntity
  8
5
 62
     2
100
AcDbLine
 10
80.572995
 20
-200.135467
 30
0.0
 11
81.608271
 21
-196.271764
 31
0.0
  0
LINE
  5
5E6
100
AcDbEntity
  8
5
 62
     2
100
AcDbLine
 10
80.572995
 20
-200.135467
 30
0.0
 11
79.537719
 21
-196.271764
 31
0.0
  0
LINE
  5
5E7
100
AcDbEntity
  8
5
 62
     2
100
AcDbLine
 10
81.608271
 20
-196.271764
 30
0.0
 11
79.537719
 21
-196.271764
 31
0.0
  0
LINE
  5
5E8
100
AcDbEntity
  8
5
 62
     2
100
AcDbLine
 10
80.572995
 20
-200.135467
 30
0.0
 11
80.572995
 21
-138.135467
 31
0.0
  0
LINE
  5
5E9
100
AcDbEntity
  8
5
 62
     2
100
AcDbLine
 10
80.572995
 20
-138.135467
 30
0.0
 11
79.537719
 21
-141.999171
 31
0.0
  0
LINE
  5
5EA
100
AcDbEntity
  8
5
 62
     2
100
AcDbLine
 10
80.572995
 20
-138.135467
 30
0.0
 11
81.608271
 21
-141.999171
 31
0.0
  0
LINE
  5
5EB
100
AcDbEntity
  8
5
 62
     2
100
AcDbLine
 10
79.537719
 20
-141.999171
 30
0.0
 11
81.608271
 21
-141.999171
 31
0.0
  0
LINE
  5
5EC
100
AcDbEntity
  8
5
 62
     2
100
AcDbLine
 10
120.328276
 20
-138.135467
 30
0.0
 11
78.572995
 21
-138.135467
 31
0.0
  0
ENDBLK
  5
5ED
100
AcDbEntity
  8
5
100
AcDbBlockEnd
  0
BLOCK
  5
5EE
100
AcDbEntity
  8
5
100
AcDbBlockBegin
  2
*D4
 70
     1
 10
0.0
 20
0.0
 30
0.0
  3
*D4
  1

  0
TEXT
  5
5EF
100
AcDbEntity
  8
5
 62
     2
100
AcDbText
 10
152.348825
 20
-219.010529
 30
0.0
 40
6.6
  1
43
 41
1.4
 72
     5
 11
159.740825
 21
-219.010529
 31
0.0
100
AcDbText
  0
LINE
  5
5F0
100
AcDbEntity
  8
5
 62
     2
100
AcDbLine
 10
135.468825
 20
-185.135467
 30
0.0
 11
135.468825
 21
-222.010529
 31
0.0
  0
LINE
  5
5F1
100
AcDbEntity
  8
5
 62
     2
100
AcDbLine
 10
135.468825
 20
-220.010529
 30
0.0
 11
139.332528
 21
-221.045805
 31
0.0
  0
LINE
  5
5F2
100
AcDbEntity
  8
5
 62
     2
100
AcDbLine
 10
135.468825
 20
-220.010529
 30
0.0
 11
139.332528
 21
-218.975252
 31
0.0
  0
LINE
  5
5F3
100
AcDbEntity
  8
5
 62
     2
100
AcDbLine
 10
139.332528
 20
-221.045805
 30
0.0
 11
139.332528
 21
-218.975252
 31
0.0
  0
LINE
  5
5F4
100
AcDbEntity
  8
5
 62
     2
100
AcDbLine
 10
135.468825
 20
-220.010529
 30
0.0
 11
178.468825
 21
-220.010529
 31
0.0
  0
LINE
  5
5F5
100
AcDbEntity
  8
5
 62
     2
100
AcDbLine
 10
178.468825
 20
-220.010529
 30
0.0
 11
174.605122
 21
-218.975252
 31
0.0
  0
LINE
  5
5F6
100
AcDbEntity
  8
5
 62
     2
100
AcDbLine
 10
178.468825
 20
-220.010529
 30
0.0
 11
174.605122
 21
-221.045805
 31
0.0
  0
LINE
  5
5F7
100
AcDbEntity
  8
5
 62
     2
100
AcDbLine
 10
174.605122
 20
-218.975252
 30
0.0
 11
174.605122
 21
-221.045805
 31
0.0
  0
LINE
  5
5F8
100
AcDbEntity
  8
5
 62
     2
100
AcDbLine
 10
178.468825
 20
-185.135467
 30
0.0
 11
178.468825
 21
-222.010529
 31
0.0
  0
ENDBLK
  5
5F9
100
AcDbEntity
  8
5
100
AcDbBlockEnd
  0
BLOCK
  5
5FA
100
AcDbEntity
  8
5
100
AcDbBlockBegin
  2
*D5
 70
     1
 10
0.0
 20
0.0
 30
0.0
  3
*D5
  1

  0
LINE
  5
5FB
100
AcDbEntity
  8
5
 62
     2
100
AcDbLine
 10
104.968825
 20
-19.635467
 30
0.0
 11
78.572995
 21
-19.635467
 31
0.0
  0
LINE
  5
5FC
100
AcDbEntity
  8
5
 62
     2
100
AcDbLine
 10
80.572995
 20
-19.635467
 30
0.0
 11
81.608271
 21
-15.771764
 31
0.0
  0
LINE
  5
5FD
100
AcDbEntity
  8
5
 62
     2
100
AcDbLine
 10
80.572995
 20
-19.635467
 30
0.0
 11
79.537719
 21
-15.771764
 31
0.0
  0
LINE
  5
5FE
100
AcDbEntity
  8
5
 62
     2
100
AcDbLine
 10
81.608271
 20
-15.771764
 30
0.0
 11
79.537719
 21
-15.771764
 31
0.0
  0
LINE
  5
5FF
100
AcDbEntity
  8
5
 62
     2
100
AcDbLine
 10
80.572995
 20
-19.635467
 30
0.0
 11
80.572995
 21
46.541907
 31
0.0
  0
LINE
  5
600
100
AcDbEntity
  8
5
 62
     2
100
AcDbLine
 10
80.572995
 20
46.541907
 30
0.0
 11
79.537719
 21
42.678203
 31
0.0
  0
LINE
  5
601
100
AcDbEntity
  8
5
 62
     2
100
AcDbLine
 10
80.572995
 20
46.541907
 30
0.0
 11
81.608271
 21
42.678203
 31
0.0
  0
LINE
  5
602
100
AcDbEntity
  8
5
 62
     2
100
AcDbLine
 10
79.537719
 20
42.678203
 30
0.0
 11
81.608271
 21
42.678203
 31
0.0
  0
LINE
  5
603
100
AcDbEntity
  8
5
 62
     2
100
AcDbLine
 10
154.968825
 20
46.541907
 30
0.0
 11
78.572995
 21
46.541907
 31
0.0
  0
ENDBLK
  5
604
100
AcDbEntity
  8
5
100
AcDbBlockEnd
  0
BLOCK
  5
605
100
AcDbEntity
  8
5
100
AcDbBlockBegin
  2
*D6
 70
     1
 10
0.0
 20
0.0
 30
0.0
  3
*D6
  1

  0
LINE
  5
606
100
AcDbEntity
  8
5
 62
     2
100
AcDbLine
 10
-194.194112
 20
29.437194
 30
0.0
 11
-194.194112
 21
70.69191
 31
0.0
  0
LINE
  5
607
100
AcDbEntity
  8
5
 62
     2
100
AcDbLine
 10
-194.194112
 20
68.69191
 30
0.0
 11
-190.330409
 21
67.656634
 31
0.0
  0
LINE
  5
608
100
AcDbEntity
  8
5
 62
     2
100
AcDbLine
 10
-194.194112
 20
68.69191
 30
0.0
 11
-190.330409
 21
69.727186
 31
0.0
  0
LINE
  5
609
100
AcDbEntity
  8
5
 62
     2
100
AcDbLine
 10
-190.330409
 20
67.656634
 30
0.0
 11
-190.330409
 21
69.727186
 31
0.0
  0
LINE
  5
60A
100
AcDbEntity
  8
5
 62
     2
100
AcDbLine
 10
-194.194112
 20
68.69191
 30
0.0
 11
5.645495
 21
68.69191
 31
0.0
  0
LINE
  5
60B
100
AcDbEntity
  8
5
 62
     2
100
AcDbLine
 10
5.645495
 20
68.69191
 30
0.0
 11
1.781791
 21
69.727186
 31
0.0
  0
LINE
  5
60C
100
AcDbEntity
  8
5
 62
     2
100
AcDbLine
 10
5.645495
 20
68.69191
 30
0.0
 11
1.781791
 21
67.656634
 31
0.0
  0
LINE
  5
60D
100
AcDbEntity
  8
5
 62
     2
100
AcDbLine
 10
1.781791
 20
69.727186
 30
0.0
 11
1.781791
 21
67.656634
 31
0.0
  0
LINE
  5
60E
100
AcDbEntity
  8
5
 62
     2
100
AcDbLine
 10
5.645495
 20
41.29276
 30
0.0
 11
5.645495
 21
70.69191
 31
0.0
  0
ENDBLK
  5
60F
100
AcDbEntity
  8
5
100
AcDbBlockEnd
  0
BLOCK
  5
610
100
AcDbEntity
  8
18
100
AcDbBlockBegin
  2
*D7
 70
     1
 10
0.0
 20
0.0
 30
0.0
  3
*D7
  1

  0
LINE
  5
611
100
AcDbEntity
  8
18
 62
     2
100
AcDbLine
 10
298.858932
 20
-172.226685
 30
0.0
 11
298.858932
 21
-172.226685
 31
0.0
  0
LINE
  5
612
100
AcDbEntity
  8
18
 62
     2
100
AcDbLine
 10
274.420021
 20
-147.787773
 30
0.0
 11
274.420021
 21
-147.787773
 31
0.0
  0
LINE
  5
613
100
AcDbEntity
  8
18
 62
     2
100
AcDbLine
 10
296.858932
 20
-172.226685
 30
0.0
 11
297.557724
 21
-168.288196
 31
0.0
  0
LINE
  5
614
100
AcDbEntity
  8
18
 62
     2
100
AcDbLine
 10
296.858932
 20
-172.226685
 30
0.0
 11
295.494859
 21
-168.466458
 31
0.0
  0
LINE
  5
615
100
AcDbEntity
  8
18
 62
     2
100
AcDbLine
 10
297.557724
 20
-168.288196
 30
0.0
 11
295.494859
 21
-168.466458
 31
0.0
  0
LINE
  5
616
100
AcDbEntity
  8
18
 62
     2
100
AcDbLine
 10
274.420021
 20
-149.787773
 30
0.0
 11
278.180248
 21
-151.151846
 31
0.0
  0
LINE
  5
617
100
AcDbEntity
  8
18
 62
     2
100
AcDbLine
 10
274.420021
 20
-149.787773
 30
0.0
 11
278.358509
 21
-149.088982
 31
0.0
  0
LINE
  5
618
100
AcDbEntity
  8
18
 62
     2
100
AcDbLine
 10
278.180248
 20
-151.151846
 30
0.0
 11
278.358509
 21
-149.088982
 31
0.0
  0
ARC
  5
619
100
AcDbEntity
  8
18
 62
     2
100
AcDbCircle
 10
274.420021
 20
-172.226685
 30
0.0
 40
22.438911
100
AcDbArc
 50
0.0
 51
90.0
  0
ENDBLK
  5
61A
100
AcDbEntity
  8
18
100
AcDbBlockEnd
  0
BLOCK
  5
61B
100
AcDbEntity
  8
18
100
AcDbBlockBegin
  2
*D8
 70
     1
 10
0.0
 20
0.0
 30
0.0
  3
*D8
  1

  0
LINE
  5
61C
100
AcDbEntity
  8
18
 62
     2
100
AcDbLine
 10
325.08222
 20
-178.705208
 30
0.0
 11
325.08222
 21
-178.705208
 31
0.0
  0
LINE
  5
61D
100
AcDbEntity
  8
18
 62
     2
100
AcDbLine
 10
345.521132
 20
-158.266296
 30
0.0
 11
345.521132
 21
-158.266296
 31
0.0
  0
LINE
  5
61E
100
AcDbEntity
  8
18
 62
     2
100
AcDbLine
 10
325.08222
 20
-180.705208
 30
0.0
 11
329.020708
 21
-181.403999
 31
0.0
  0
LINE
  5
61F
100
AcDbEntity
  8
18
 62
     2
100
AcDbLine
 10
325.08222
 20
-180.705208
 30
0.0
 11
328.842447
 21
-179.341135
 31
0.0
  0
LINE
  5
620
100
AcDbEntity
  8
18
 62
     2
100
AcDbLine
 10
329.020708
 20
-181.403999
 30
0.0
 11
328.842447
 21
-179.341135
 31
0.0
  0
LINE
  5
621
100
AcDbEntity
  8
18
 62
     2
100
AcDbLine
 10
347.521132
 20
-158.266296
 30
0.0
 11
346.157058
 21
-162.026523
 31
0.0
  0
LINE
  5
622
100
AcDbEntity
  8
18
 62
     2
100
AcDbLine
 10
347.521132
 20
-158.266296
 30
0.0
 11
348.219923
 21
-162.204785
 31
0.0
  0
LINE
  5
623
100
AcDbEntity
  8
18
 62
     2
100
AcDbLine
 10
346.157058
 20
-162.026523
 30
0.0
 11
348.219923
 21
-162.204785
 31
0.0
  0
ARC
  5
624
100
AcDbEntity
  8
18
 62
     2
100
AcDbCircle
 10
325.08222
 20
-158.266296
 30
0.0
 40
22.438911
100
AcDbArc
 50
270.0
 51
360.0
  0
ENDBLK
  5
625
100
AcDbEntity
  8
18
100
AcDbBlockEnd
  0
ENDSEC
  0
SECTION
  2
ENTITIES
  0
LINE
  5
2F
100
AcDbEntity
  8
1
100
AcDbLine
 10
-204.194112
 20
-200.135467
 30
0.0
 11
-184.194112
 21
-200.135467
 31
0.0
  0
LINE
  5
30
100
AcDbEntity
  8
1
100
AcDbLine
 10
-225.194112
 20
-31.635467
 30
0.0
 11
-163.194112
 21
-31.635467
 31
0.0
  0
LINE
  5
31
100
AcDbEntity
  8
1
100
AcDbLine
 10
-229.194112
 20
-19.635467
 30
0.0
 11
-229.194112
 21
-27.635467
 31
0.0
  0
LINE
  5
32
100
AcDbEntity
  8
1
100
AcDbLine
 10
-159.194112
 20
-19.635467
 30
0.0
 11
-159.194112
 21
-27.635467
 31
0.0
  0
ARC
  5
33
100
AcDbEntity
  8
1
100
AcDbCircle
 10
-225.194112
 20
-27.635467
 30
0.0
 40
4.0
100
AcDbArc
 50
180.0
 51
270.0
  0
ARC
  5
34
100
AcDbEntity
  8
1
100
AcDbCircle
 10
-163.194112
 20
-27.635467
 30
0.0
 40
4.0
100
AcDbArc
 50
270.0
 51
360.0
  0
LINE
  5
35
100
AcDbEntity
  8
1
100
AcDbLine
 10
-207.194112
 20
-186.560667
 30
0.0
 11
-207.194112
 21
-197.135467
 31
0.0
  0
LINE
  5
36
100
AcDbEntity
  8
1
100
AcDbLine
 10
-181.194112
 20
-186.560667
 30
0.0
 11
-181.194112
 21
-197.135467
 31
0.0
  0
ARC
  5
37
100
AcDbEntity
  8
1
100
AcDbCircle
 10
-178.194112
 20
-186.560667
 30
0.0
 40
3.0
100
AcDbArc
 50
108.28389
 51
180.0
  0
ARC
  5
38
100
AcDbEntity
  8
1
100
AcDbCircle
 10
-210.194112
 20
-186.560667
 30
0.0
 40
3.0
100
AcDbArc
 50
0.0
 51
71.71611
  0
LINE
  5
39
100
AcDbEntity
  8
1
100
AcDbLine
 10
-226.694112
 20
-194.135467
 30
0.0
 11
-210.194112
 21
-194.135467
 31
0.0
  0
LINE
  5
3A
100
AcDbEntity
  8
1
100
AcDbLine
 10
-178.194112
 20
-194.135467
 30
0.0
 11
-161.694112
 21
-194.135467
 31
0.0
  0
ARC
  5
3B
100
AcDbEntity
  8
1
100
AcDbCircle
 10
-178.194112
 20
-197.135467
 30
0.0
 40
3.0
100
AcDbArc
 50
90.0
 51
180.0
  0
ARC
  5
3C
100
AcDbEntity
  8
1
100
AcDbCircle
 10
-210.194112
 20
-197.135467
 30
0.0
 40
3.0
100
AcDbArc
 50
360.0
 51
90.0
  0
ARC
  5
3D
100
AcDbEntity
  8
1
100
AcDbCircle
 10
-184.194112
 20
-197.135467
 30
0.0
 40
3.0
100
AcDbArc
 50
270.0
 51
360.0
  0
ARC
  5
3E
100
AcDbEntity
  8
1
100
AcDbCircle
 10
-204.194112
 20
-197.135467
 30
0.0
 40
3.0
100
AcDbArc
 50
180.0
 51
270.0
  0
ARC
  5
3F
100
AcDbEntity
  8
1
100
AcDbCircle
 10
-161.694112
 20
-190.135467
 30
0.0
 40
4.0
100
AcDbArc
 50
270.0
 51
35.7
  0
ARC
  5
40
100
AcDbEntity
  8
1
100
AcDbCircle
 10
-226.694112
 20
-190.135467
 30
0.0
 40
4.0
100
AcDbArc
 50
144.3
 51
270.0
  0
LINE
  5
41
100
AcDbEntity
  8
1
100
AcDbLine
 10
-229.942446
 20
-187.801302
 30
0.0
 11
-222.24352
 21
-177.087113
 31
0.0
  0
LINE
  5
42
100
AcDbEntity
  8
1
100
AcDbLine
 10
-249.69186
 20
-124.135467
 30
0.0
 11
-241.564989
 21
-124.135467
 31
0.0
  0
ARC
  5
43
100
AcDbEntity
  8
1
100
AcDbCircle
 10
-146.823235
 20
-122.135467
 30
0.0
 40
2.0
100
AcDbArc
 50
198.662925
 51
270.0
  0
ARC
  5
44
100
AcDbEntity
  8
1
100
AcDbCircle
 10
-241.564989
 20
-122.135467
 30
0.0
 40
2.0
100
AcDbArc
 50
270.0
 51
341.337075
  0
ARC
  5
45
100
AcDbEntity
  8
1
100
AcDbCircle
 10
-194.194112
 20
-138.135467
 30
0.0
 40
58.0
100
AcDbArc
 50
166.816519
 51
194.409428
  0
ARC
  5
46
100
AcDbEntity
  8
1
100
AcDbCircle
 10
-194.194112
 20
-138.135467
 30
0.0
 40
58.0
100
AcDbArc
 50
345.590572
 51
13.183481
  0
ARC
  5
47
100
AcDbEntity
  8
1
100
AcDbCircle
 10
-138.696365
 20
-125.135467
 30
0.0
 40
1.0
100
AcDbArc
 50
13.183481
 51
90.0
  0
ARC
  5
48
100
AcDbEntity
  8
1
100
AcDbCircle
 10
-249.69186
 20
-125.135467
 30
0.0
 40
1.0
100
AcDbArc
 50
90.0
 51
166.816519
  0
LINE
  5
49
100
AcDbEntity
  8
1
100
AcDbLine
 10
-249.659838
 20
-153.285801
 30
0.0
 11
-239.598424
 21
-155.981749
 31
0.0
  0
ARC
  5
4A
100
AcDbEntity
  8
1
100
AcDbCircle
 10
-249.401019
 20
-152.319875
 30
0.0
 40
1.0
100
AcDbArc
 50
194.409428
 51
255.0
  0
ARC
  5
4B
100
AcDbEntity
  8
1
100
AcDbCircle
 10
-138.987205
 20
-152.319875
 30
0.0
 40
1.0
100
AcDbArc
 50
285.0
 51
345.590572
  0
ARC
  5
4C
100
AcDbEntity
  8
1
100
AcDbCircle
 10
-148.272163
 20
-157.913601
 30
0.0
 40
2.0
100
AcDbArc
 50
105.0
 51
156.698929
  0
ARC
  5
4D
100
AcDbEntity
  8
1
100
AcDbCircle
 10
-240.116062
 20
-157.913601
 30
0.0
 40
2.0
100
AcDbArc
 50
23.301071
 51
75.0
  0
ARC
  5
4E
100
AcDbEntity
  8
1
100
AcDbCircle
 10
-157.071006
 20
-101.012361
 30
0.0
 40
7.5
100
AcDbArc
 50
160.184337
 51
267.917847
  0
ARC
  5
4F
100
AcDbEntity
  8
1
100
AcDbCircle
 10
-231.317218
 20
-101.012361
 30
0.0
 40
7.5
100
AcDbArc
 50
272.082153
 51
19.815663
  0
ARC
  5
50
100
AcDbEntity
  8
1
100
AcDbCircle
 10
-157.071006
 20
-175.258573
 30
0.0
 40
7.5
100
AcDbArc
 50
92.082153
 51
177.917847
  0
ARC
  5
51
100
AcDbEntity
  8
1
100
AcDbCircle
 10
-231.317218
 20
-175.258573
 30
0.0
 40
7.5
100
AcDbArc
 50
2.082153
 51
87.917847
  0
ARC
  5
52
100
AcDbEntity
  8
1
100
AcDbCircle
 10
-194.194112
 20
-138.135467
 30
0.0
 40
48.0
100
AcDbArc
 50
233.084348
 51
306.915652
  0
ARC
  5
53
100
AcDbEntity
  8
1
100
AcDbCircle
 10
-157.416164
 20
-165.764846
 30
0.0
 40
2.0
100
AcDbArc
 50
272.082153
 51
323.084348
  0
ARC
  5
54
100
AcDbEntity
  8
1
100
AcDbCircle
 10
-166.564734
 20
-174.913415
 30
0.0
 40
2.0
100
AcDbArc
 50
306.915652
 51
357.917847
  0
ARC
  5
55
100
AcDbEntity
  8
1
100
AcDbCircle
 10
-221.823491
 20
-174.913415
 30
0.0
 40
2.0
100
AcDbArc
 50
182.082153
 51
233.084348
  0
ARC
  5
56
100
AcDbEntity
  8
1
100
AcDbCircle
 10
-230.97206
 20
-165.764846
 30
0.0
 40
2.0
100
AcDbArc
 50
216.915652
 51
267.917847
  0
ARC
  5
57
100
AcDbEntity
  8
1
100
AcDbCircle
 10
-194.194112
 20
-138.135467
 30
0.0
 40
48.0
100
AcDbArc
 50
323.084348
 51
36.915652
  0
ARC
  5
58
100
AcDbEntity
  8
1
100
AcDbCircle
 10
-194.194112
 20
-138.135467
 30
0.0
 40
48.0
100
AcDbArc
 50
53.084348
 51
126.915652
  0
ARC
  5
59
100
AcDbEntity
  8
1
100
AcDbCircle
 10
-194.194112
 20
-138.135467
 30
0.0
 40
48.0
100
AcDbArc
 50
143.084348
 51
216.915652
  0
ARC
  5
5A
100
AcDbEntity
  8
1
100
AcDbCircle
 10
-157.416164
 20
-110.506089
 30
0.0
 40
2.0
100
AcDbArc
 50
36.915652
 51
87.917847
  0
ARC
  5
5B
100
AcDbEntity
  8
1
100
AcDbCircle
 10
-230.97206
 20
-110.506089
 30
0.0
 40
2.0
100
AcDbArc
 50
92.082153
 51
143.084348
  0
ARC
  5
5C
100
AcDbEntity
  8
1
100
AcDbCircle
 10
-166.564734
 20
-101.357519
 30
0.0
 40
2.0
100
AcDbArc
 50
2.082153
 51
53.084348
  0
ARC
  5
5D
100
AcDbEntity
  8
1
100
AcDbCircle
 10
-221.823491
 20
-101.357519
 30
0.0
 40
2.0
100
AcDbArc
 50
126.915652
 51
177.917847
  0
LINE
  5
5E
100
AcDbEntity
  8
1
100
AcDbLine
 10
-213.194112
 20
-35.635467
 30
0.0
 11
-213.194112
 21
-68.135467
 31
0.0
  0
LINE
  5
5F
100
AcDbEntity
  8
1
100
AcDbLine
 10
-175.194112
 20
-40.135467
 30
0.0
 11
-175.194112
 21
-68.135467
 31
0.0
  0
LINE
  5
60
100
AcDbEntity
  8
1
100
AcDbLine
 10
-213.194112
 20
-68.135467
 30
0.0
 11
-215.557735
 21
-95.1518
 31
0.0
  0
ARC
  5
61
100
AcDbEntity
  8
1
100
AcDbCircle
 10
-217.194112
 20
-35.635467
 30
0.0
 40
4.0
100
AcDbArc
 50
0.0
 51
90.0
  0
ARC
  5
62
100
AcDbEntity
  8
1
100
AcDbCircle
 10
-184.194112
 20
-160.635467
 30
0.0
 40
100.0
100
AcDbArc
 50
110.765589
 51
122.513615
  0
ARC
  5
63
100
AcDbEntity
  8
1
100
AcDbCircle
 10
-204.194112
 20
-160.635467
 30
0.0
 40
100.0
100
AcDbArc
 50
57.486385
 51
69.234411
  0
ARC
  5
64
100
AcDbEntity
  8
1
100
AcDbCircle
 10
-165.194112
 20
-57.781201
 30
0.0
 40
10.0
100
AcDbArc
 50
180.0
 51
249.234411
  0
ARC
  5
65
100
AcDbEntity
  8
1
100
AcDbCircle
 10
-223.194112
 20
-57.781201
 30
0.0
 40
10.0
100
AcDbArc
 50
290.765589
 51
360.0
  0
LINE
  5
66
100
AcDbEntity
  8
1
100
AcDbLine
 10
-239.794112
 20
-79.682147
 30
0.0
 11
-239.794112
 21
-80.183741
 31
0.0
  0
LINE
  5
67
100
AcDbEntity
  8
1
100
AcDbLine
 10
-148.594112
 20
-79.682147
 30
0.0
 11
-148.594112
 21
-80.183741
 31
0.0
  0
ARC
  5
68
100
AcDbEntity
  8
1
100
AcDbCircle
 10
-152.594112
 20
-79.682147
 30
0.0
 40
4.0
100
AcDbArc
 50
0.0
 51
57.486385
  0
ARC
  5
69
100
AcDbEntity
  8
1
100
AcDbCircle
 10
-235.794112
 20
-79.682147
 30
0.0
 40
4.0
100
AcDbArc
 50
122.513615
 51
180.0
  0
ARC
  5
6A
100
AcDbEntity
  8
1
100
AcDbCircle
 10
-149.999938
 20
-93.941293
 30
0.0
 40
10.0
100
AcDbArc
 50
100.678515
 51
140.413312
  0
ARC
  5
6B
100
AcDbEntity
  8
1
100
AcDbCircle
 10
-152.594112
 20
-80.183741
 30
0.0
 40
4.0
100
AcDbArc
 50
280.678515
 51
360.0
  0
LINE
  5
6C
100
AcDbEntity
  8
1
100
AcDbLine
 10
-161.068887
 20
-91.635132
 30
0.0
 11
-157.706552
 21
-87.568844
 31
0.0
  0
ARC
  5
6D
100
AcDbEntity
  8
1
100
AcDbCircle
 10
-153.747604
 20
-97.688959
 30
0.0
 40
9.5
100
AcDbArc
 50
140.413312
 51
160.184337
  0
ARC
  5
6E
100
AcDbEntity
  8
1
100
AcDbCircle
 10
-238.388286
 20
-93.941293
 30
0.0
 40
10.0
100
AcDbArc
 50
39.586688
 51
79.321485
  0
ARC
  5
6F
100
AcDbEntity
  8
1
100
AcDbCircle
 10
-235.794112
 20
-80.183741
 30
0.0
 40
4.0
100
AcDbArc
 50
180.0
 51
259.321485
  0
LINE
  5
70
100
AcDbEntity
  8
1
100
AcDbLine
 10
-230.681673
 20
-87.568844
 30
0.0
 11
-227.319338
 21
-91.635132
 31
0.0
  0
LINE
  5
71
100
AcDbEntity
  8
1
100
AcDbLine
 10
-225.703133
 20
-94.468506
 30
0.0
 11
-224.261307
 21
-98.469898
 31
0.0
  0
ARC
  5
72
100
AcDbEntity
  8
1
100
AcDbCircle
 10
-234.64062
 20
-97.688959
 30
0.0
 40
9.5
100
AcDbArc
 50
19.815663
 51
39.586688
  0
LINE
  5
73
100
AcDbEntity
  8
1
  6
DASHED
100
AcDbLine
 10
-229.194112
 20
126.907236
 30
0.0
 11
-229.194112
 21
176.907236
 31
0.0
  0
LINE
  5
74
100
AcDbEntity
  8
1
  6
DASHED
100
AcDbLine
 10
-159.194112
 20
126.907236
 30
0.0
 11
-159.194112
 21
176.907236
 31
0.0
  0
LINE
  5
75
100
AcDbEntity
  8
1
  6
DASHED
100
AcDbLine
 10
-219.194112
 20
186.907236
 30
0.0
 11
-169.194112
 21
186.907236
 31
0.0
  0
LINE
  5
76
100
AcDbEntity
  8
1
  6
DASHED
100
AcDbLine
 10
-219.194112
 20
116.907236
 30
0.0
 11
-169.194112
 21
116.907236
 31
0.0
  0
ARC
  5
77
100
AcDbEntity
  8
1
  6
DASHED
100
AcDbCircle
 10
-169.194112
 20
176.907236
 30
0.0
 40
10.0
100
AcDbArc
 50
0.0
 51
90.0
  0
ARC
  5
78
100
AcDbEntity
  8
1
  6
DASHED
100
AcDbCircle
 10
-219.194112
 20
176.907236
 30
0.0
 40
10.0
100
AcDbArc
 50
90.0
 51
180.0
  0
ARC
  5
79
100
AcDbEntity
  8
1
  6
DASHED
100
AcDbCircle
 10
-219.194112
 20
126.907236
 30
0.0
 40
10.0
100
AcDbArc
 50
180.0
 51
270.0
  0
ARC
  5
7A
100
AcDbEntity
  8
1
  6
DASHED
100
AcDbCircle
 10
-169.194112
 20
126.907236
 30
0.0
 40
10.0
100
AcDbArc
 50
270.0
 51
360.0
  0
CIRCLE
  5
7B
100
AcDbEntity
  8
1
  6
DASHED
100
AcDbCircle
 10
-169.445375
 20
176.655974
 30
0.0
 40
4.5
  0
CIRCLE
  5
7C
100
AcDbEntity
  8
1
  6
DASHED
100
AcDbCircle
 10
-218.94285
 20
176.655974
 30
0.0
 40
4.5
  0
CIRCLE
  5
7D
100
AcDbEntity
  8
1
  6
DASHED
100
AcDbCircle
 10
-218.94285
 20
127.158499
 30
0.0
 40
4.5
  0
CIRCLE
  5
7E
100
AcDbEntity
  8
1
  6
DASHED
100
AcDbCircle
 10
-169.445375
 20
127.158499
 30
0.0
 40
4.5
  0
LINE
  5
7F
100
AcDbEntity
  8
1
100
AcDbLine
 10
-252.194112
 20
151.907236
 30
0.0
 11
-251.522069
 21
139.083877
 31
0.0
  0
LINE
  5
80
100
AcDbEntity
  8
1
100
AcDbLine
 10
-252.194112
 20
151.907236
 30
0.0
 11
-251.522069
 21
164.730596
 31
0.0
  0
LINE
  5
81
100
AcDbEntity
  8
1
100
AcDbLine
 10
-249.302637
 20
167.471365
 30
0.0
 11
-243.190124
 21
169.109208
 31
0.0
  0
LINE
  5
82
100
AcDbEntity
  8
1
100
AcDbLine
 10
-249.302637
 20
136.343107
 30
0.0
 11
-243.190124
 21
134.705264
 31
0.0
  0
ARC
  5
83
100
AcDbEntity
  8
1
100
AcDbCircle
 10
-248.52618
 20
164.573588
 30
0.0
 40
3.0
100
AcDbArc
 50
105.0
 51
177.0
  0
ARC
  5
84
100
AcDbEntity
  8
1
100
AcDbCircle
 10
-248.52618
 20
139.240885
 30
0.0
 40
3.0
100
AcDbArc
 50
183.0
 51
255.0
  0
ARC
  5
85
100
AcDbEntity
  8
1
100
AcDbCircle
 10
-243.53793
 20
170.407236
 30
0.0
 40
1.343817
100
AcDbArc
 50
285.0
 51
360.0
  0
ARC
  5
86
100
AcDbEntity
  8
1
100
AcDbCircle
 10
-243.53793
 20
133.407236
 30
0.0
 40
1.343817
100
AcDbArc
 50
0.0
 51
75.0
  0
LINE
  5
87
100
AcDbEntity
  8
1
100
AcDbLine
 10
-250.479101
 20
151.907236
 30
0.0
 11
-249.786286
 21
164.730596
 31
0.0
  0
LINE
  5
88
100
AcDbEntity
  8
1
100
AcDbLine
 10
-250.479101
 20
151.907236
 30
0.0
 11
-249.786286
 21
139.083877
 31
0.0
  0
ARC
  5
89
100
AcDbEntity
  8
1
  6
DASHED
100
AcDbCircle
 10
-241.329464
 20
170.407236
 30
0.0
 40
1.222391
100
AcDbArc
 50
285.0
 51
360.0
  0
ARC
  5
8A
100
AcDbEntity
  8
1
  6
DASHED
100
AcDbCircle
 10
-241.329464
 20
133.407236
 30
0.0
 40
1.222391
100
AcDbArc
 50
360.0
 51
75.0
  0
ARC
  5
8B
100
AcDbEntity
  8
1
100
AcDbCircle
 10
-246.785303
 20
164.56846
 30
0.0
 40
3.005359
100
AcDbArc
 50
105.0
 51
176.907452
  0
ARC
  5
8C
100
AcDbEntity
  8
1
100
AcDbCircle
 10
-246.785303
 20
139.246013
 30
0.0
 40
3.005359
100
AcDbArc
 50
183.092548
 51
255.0
  0
LINE
  5
8D
100
AcDbEntity
  8
1
  6
DASHED
100
AcDbLine
 10
-237.794112
 20
167.407236
 30
0.0
 11
-229.194112
 21
167.407236
 31
0.0
  0
LINE
  5
8E
100
AcDbEntity
  8
1
  6
DASHED
100
AcDbLine
 10
-237.794112
 20
162.407236
 30
0.0
 11
-229.194112
 21
162.407236
 31
0.0
  0
LINE
  5
8F
100
AcDbEntity
  8
1
  6
DASHED
100
AcDbLine
 10
-238.597456
 20
138.789036
 30
0.0
 11
-232.756803
 21
140.266204
 31
0.0
  0
LINE
  5
90
100
AcDbEntity
  8
1
  6
DASHED
100
AcDbLine
 10
-240.107073
 20
133.407236
 30
0.0
 11
-240.107073
 21
136.850086
 31
0.0
  0
LINE
  5
91
100
AcDbEntity
  8
1
  6
DASHED
100
AcDbLine
 10
-240.107073
 20
166.964386
 30
0.0
 11
-240.107073
 21
170.407236
 31
0.0
  0
ARC
  5
92
100
AcDbEntity
  8
1
  6
DASHED
100
AcDbCircle
 10
-233.98276
 20
158.700895
 30
0.0
 40
5.0
100
AcDbArc
 50
16.718529
 51
47.839563
  0
ARC
  5
93
100
AcDbEntity
  8
1
  6
DASHED
100
AcDbCircle
 10
-233.98276
 20
145.113578
 30
0.0
 40
5.0
100
AcDbArc
 50
284.193138
 51
343.281471
  0
ARC
  5
94
100
AcDbEntity
  8
1
  6
DASHED
100
AcDbCircle
 10
-238.107073
 20
166.964386
 30
0.0
 40
2.0
100
AcDbArc
 50
180.0
 51
214.759365
  0
ARC
  5
95
100
AcDbEntity
  8
1
  6
DASHED
100
AcDbCircle
 10
-238.107073
 20
136.850086
 30
0.0
 40
2.0
100
AcDbArc
 50
104.193138
 51
180.0
  0
LINE
  5
96
100
AcDbEntity
  8
1
  6
DASHED
100
AcDbLine
 10
-238.597456
 20
138.407236
 30
0.0
 11
-231.942291
 21
138.407236
 31
0.0
  0
LINE
  5
97
100
AcDbEntity
  8
1
  6
DASHED
100
AcDbLine
 10
-136.194112
 20
151.907236
 30
0.0
 11
-136.866156
 21
139.083877
 31
0.0
  0
LINE
  5
98
100
AcDbEntity
  8
1
  6
DASHED
100
AcDbLine
 10
-136.194112
 20
151.907236
 30
0.0
 11
-136.866156
 21
164.730596
 31
0.0
  0
LINE
  5
99
100
AcDbEntity
  8
1
  6
DASHED
100
AcDbLine
 10
-146.194112
 20
170.407236
 30
0.0
 11
-159.194112
 21
170.407236
 31
0.0
  0
LINE
  5
9A
100
AcDbEntity
  8
1
  6
DASHED
100
AcDbLine
 10
-146.194112
 20
133.407236
 30
0.0
 11
-159.194112
 21
133.407236
 31
0.0
  0
LINE
  5
9B
100
AcDbEntity
  8
1
  6
DASHED
100
AcDbLine
 10
-139.085588
 20
136.343107
 30
0.0
 11
-145.1981
 21
134.705264
 31
0.0
  0
ARC
  5
9C
100
AcDbEntity
  8
1
  6
DASHED
100
AcDbCircle
 10
-139.862045
 20
164.573588
 30
0.0
 40
3.0
100
AcDbArc
 50
3.0
 51
75.0
  0
ARC
  5
9D
100
AcDbEntity
  8
1
  6
DASHED
100
AcDbCircle
 10
-139.862045
 20
139.240885
 30
0.0
 40
3.0
100
AcDbArc
 50
285.0
 51
357.0
  0
ARC
  5
9E
100
AcDbEntity
  8
1
  6
DASHED
100
AcDbCircle
 10
-144.850295
 20
133.407236
 30
0.0
 40
1.343817
100
AcDbArc
 50
105.0
 51
180.0
  0
LINE
  5
9F
100
AcDbEntity
  8
1
  6
DASHED
100
AcDbLine
 10
-137.909123
 20
151.907236
 30
0.0
 11
-138.601939
 21
164.730596
 31
0.0
  0
LINE
  5
A0
100
AcDbEntity
  8
1
  6
DASHED
100
AcDbLine
 10
-137.909123
 20
151.907236
 30
0.0
 11
-138.601939
 21
139.083877
 31
0.0
  0
LINE
  5
A1
100
AcDbEntity
  8
1
  6
DASHED
100
AcDbLine
 10
-140.825077
 20
167.471414
 30
0.0
 11
-147.375138
 21
169.226498
 31
0.0
  0
ARC
  5
A2
100
AcDbEntity
  8
1
  6
DASHED
100
AcDbCircle
 10
-147.05876
 20
170.407236
 30
0.0
 40
1.222391
100
AcDbArc
 50
180.0
 51
255.0
  0
LINE
  5
A3
100
AcDbEntity
  8
1
  6
DASHED
100
AcDbLine
 10
-140.824896
 20
136.343107
 30
0.0
 11
-147.375138
 21
134.587975
 31
0.0
  0
ARC
  5
A4
100
AcDbEntity
  8
1
  6
DASHED
100
AcDbCircle
 10
-147.05876
 20
133.407236
 30
0.0
 40
1.222391
100
AcDbArc
 50
105.0
 51
180.0
  0
ARC
  5
A5
100
AcDbEntity
  8
1
  6
DASHED
100
AcDbCircle
 10
-141.602921
 20
164.56846
 30
0.0
 40
3.005359
100
AcDbArc
 50
3.092548
 51
75.0
  0
ARC
  5
A6
100
AcDbEntity
  8
1
  6
DASHED
100
AcDbCircle
 10
-141.602921
 20
139.246013
 30
0.0
 40
3.005359
100
AcDbArc
 50
285.0
 51
356.907452
  0
CIRCLE
  5
A7
100
AcDbEntity
  8
1
  6
DASHED
100
AcDbCircle
 10
-147.694112
 20
151.907236
 30
0.0
 40
5.0
  0
CIRCLE
  5
A8
100
AcDbEntity
  8
1
  6
DASHED
 62
     2
100
AcDbCircle
 10
-147.694112
 20
151.907236
 30
0.0
 40
4.188
  0
LINE
  5
A9
100
AcDbEntity
  8
1
  6
DASHED
100
AcDbLine
 10
-150.594112
 20
167.407236
 30
0.0
 11
-159.194112
 21
167.407236
 31
0.0
  0
LINE
  5
AA
100
AcDbEntity
  8
1
  6
DASHED
100
AcDbLine
 10
-150.594112
 20
162.407236
 30
0.0
 11
-159.194112
 21
162.407236
 31
0.0
  0
LINE
  5
AB
100
AcDbEntity
  8
1
  6
DASHED
100
AcDbLine
 10
-149.790769
 20
138.789036
 30
0.0
 11
-155.631421
 21
140.266204
 31
0.0
  0
LINE
  5
AC
100
AcDbEntity
  8
1
  6
DASHED
100
AcDbLine
 10
-148.281151
 20
133.407236
 30
0.0
 11
-148.281151
 21
136.850086
 31
0.0
  0
LINE
  5
AD
100
AcDbEntity
  8
1
  6
DASHED
100
AcDbLine
 10
-148.281151
 20
166.964386
 30
0.0
 11
-148.281151
 21
170.407236
 31
0.0
  0
ARC
  5
AE
100
AcDbEntity
  8
1
  6
DASHED
100
AcDbCircle
 10
-154.405465
 20
158.700895
 30
0.0
 40
5.0
100
AcDbArc
 50
132.160437
 51
163.281471
  0
ARC
  5
AF
100
AcDbEntity
  8
1
  6
DASHED
100
AcDbCircle
 10
-154.405465
 20
145.113578
 30
0.0
 40
5.0
100
AcDbArc
 50
196.718529
 51
255.806862
  0
ARC
  5
B0
100
AcDbEntity
  8
1
  6
DASHED
100
AcDbCircle
 10
-150.281151
 20
166.964386
 30
0.0
 40
2.0
100
AcDbArc
 50
325.240635
 51
360.0
  0
ARC
  5
B1
100
AcDbEntity
  8
1
  6
DASHED
100
AcDbCircle
 10
-150.281151
 20
136.850086
 30
0.0
 40
2.0
100
AcDbArc
 50
0.0
 51
75.806862
  0
LINE
  5
B2
100
AcDbEntity
  8
1
  6
DASHED
100
AcDbLine
 10
-149.790769
 20
138.407236
 30
0.0
 11
-156.445934
 21
138.407236
 31
0.0
  0
LINE
  5
B3
100
AcDbEntity
  8
1
100
AcDbLine
 10
121.968825
 20
-19.635467
 30
0.0
 11
121.968825
 21
-27.635467
 31
0.0
  0
LINE
  5
B4
100
AcDbEntity
  8
1
100
AcDbLine
 10
191.968825
 20
-19.635467
 30
0.0
 11
191.968825
 21
-27.635467
 31
0.0
  0
ARC
  5
B5
100
AcDbEntity
  8
1
100
AcDbCircle
 10
125.968825
 20
-27.635467
 30
0.0
 40
4.0
100
AcDbArc
 50
180.0
 51
270.0
  0
ARC
  5
B6
100
AcDbEntity
  8
1
100
AcDbCircle
 10
187.968825
 20
-27.635467
 30
0.0
 40
4.0
100
AcDbArc
 50
270.0
 51
360.0
  0
LINE
  5
B7
100
AcDbEntity
  8
1
100
AcDbLine
 10
137.968825
 20
-40.135467
 30
0.0
 11
137.968825
 21
-90.135467
 31
0.0
  0
LINE
  5
B8
100
AcDbEntity
  8
1
100
AcDbLine
 10
175.968825
 20
-35.635467
 30
0.0
 11
175.968825
 21
-90.135467
 31
0.0
  0
ARC
  5
B9
100
AcDbEntity
  8
1
100
AcDbCircle
 10
179.968825
 20
-35.635467
 30
0.0
 40
4.0
100
AcDbArc
 50
90.0
 51
180.0
  0
LINE
  5
BA
100
AcDbEntity
  8
1
100
AcDbLine
 10
138.468825
 20
-90.135467
 30
0.0
 11
138.468825
 21
-186.135467
 31
0.0
  0
LINE
  5
BB
100
AcDbEntity
  8
1
100
AcDbLine
 10
175.468825
 20
-90.135467
 30
0.0
 11
175.468825
 21
-186.135467
 31
0.0
  0
LINE
  5
BC
100
AcDbEntity
  8
1
100
AcDbLine
 10
153.968825
 20
-200.135467
 30
0.0
 11
159.968825
 21
-200.135467
 31
0.0
  0
LINE
  5
BD
100
AcDbEntity
  8
1
100
AcDbLine
 10
150.968825
 20
-186.712126
 30
0.0
 11
150.968825
 21
-197.135467
 31
0.0
  0
LINE
  5
BE
100
AcDbEntity
  8
1
100
AcDbLine
 10
162.968825
 20
-186.712126
 30
0.0
 11
162.968825
 21
-197.135467
 31
0.0
  0
ARC
  5
BF
100
AcDbEntity
  8
1
100
AcDbCircle
 10
153.968825
 20
-197.135467
 30
0.0
 40
3.0
100
AcDbArc
 50
180.0
 51
270.0
  0
ARC
  5
C0
100
AcDbEntity
  8
1
100
AcDbCircle
 10
159.968825
 20
-197.135467
 30
0.0
 40
3.0
100
AcDbArc
 50
270.0
 51
360.0
  0
ARC
  5
C1
100
AcDbEntity
  8
1
100
AcDbCircle
 10
165.968825
 20
-189.135467
 30
0.0
 40
3.0
100
AcDbArc
 50
90.0
 51
180.0
  0
ARC
  5
C2
100
AcDbEntity
  8
1
100
AcDbCircle
 10
147.968825
 20
-189.135467
 30
0.0
 40
3.0
100
AcDbArc
 50
0.0
 51
90.0
  0
ARC
  5
C3
100
AcDbEntity
  8
1
100
AcDbCircle
 10
-194.194112
 20
-138.135467
 30
0.0
 40
57.213883
100
AcDbArc
 50
166.628759
 51
194.862093
  0
ARC
  5
C4
100
AcDbEntity
  8
1
100
AcDbCircle
 10
-194.194112
 20
-138.135467
 30
0.0
 40
57.213883
100
AcDbArc
 50
345.137907
 51
13.371241
  0
ARC
  5
C5
100
AcDbEntity
  8
1
100
AcDbCircle
 10
-139.50407
 20
-125.135467
 30
0.0
 40
1.0
100
AcDbArc
 50
13.371241
 51
90.0
  0
ARC
  5
C6
100
AcDbEntity
  8
1
100
AcDbCircle
 10
-139.860809
 20
-152.553957
 30
0.0
 40
1.0
100
AcDbArc
 50
285.0
 51
345.137907
  0
ARC
  5
C7
100
AcDbEntity
  8
1
100
AcDbCircle
 10
-248.884154
 20
-125.135467
 30
0.0
 40
1.0
100
AcDbArc
 50
90.0
 51
166.628759
  0
ARC
  5
C8
100
AcDbEntity
  8
1
100
AcDbCircle
 10
-248.527416
 20
-152.553957
 30
0.0
 40
1.0
100
AcDbArc
 50
194.862093
 51
255.0
  0
LINE
  5
C9
100
AcDbEntity
  8
1
100
AcDbLine
 10
132.818425
 20
-42.035467
 30
0.0
 11
135.158058
 21
-47.052829
 31
0.0
  0
LINE
  5
CA
100
AcDbEntity
  8
1
100
AcDbLine
 10
184.439074
 20
-34.916028
 30
0.0
 11
178.779591
 21
-47.052829
 31
0.0
  0
ARC
  5
CB
100
AcDbEntity
  8
1
100
AcDbCircle
 10
205.968825
 20
-59.731376
 30
0.0
 40
30.0
100
AcDbArc
 50
155.0
 51
180.0
  0
ARC
  5
CC
100
AcDbEntity
  8
1
100
AcDbCircle
 10
107.968825
 20
-59.731376
 30
0.0
 40
30.0
100
AcDbArc
 50
0.0
 51
25.0
  0
ARC
  5
CD
100
AcDbEntity
  8
1
100
AcDbCircle
 10
189.876921
 20
-37.451738
 30
0.0
 40
6.0
100
AcDbArc
 50
101.000035
 51
155.0
  0
LINE
  5
CE
100
AcDbEntity
  8
1
100
AcDbLine
 10
-191.694112
 20
-59.731376
 30
0.0
 11
-196.694112
 21
-59.731376
 31
0.0
  0
LINE
  5
CF
100
AcDbEntity
  8
1
100
AcDbLine
 10
-196.694112
 20
-33.635467
 30
0.0
 11
-196.694112
 21
-57.731376
 31
0.0
  0
LINE
  5
D0
100
AcDbEntity
  8
1
100
AcDbLine
 10
-191.694112
 20
-33.635467
 30
0.0
 11
-191.694112
 21
-57.731376
 31
0.0
  0
ARC
  5
D1
100
AcDbEntity
  8
1
100
AcDbCircle
 10
-189.694112
 20
-33.635467
 30
0.0
 40
2.0
100
AcDbArc
 50
90.0
 51
180.0
  0
ARC
  5
D2
100
AcDbEntity
  8
1
100
AcDbCircle
 10
-198.694112
 20
-33.635467
 30
0.0
 40
2.0
100
AcDbArc
 50
0.0
 51
90.0
  0
ARC
  5
D3
100
AcDbEntity
  8
1
100
AcDbCircle
 10
-198.694112
 20
-57.731376
 30
0.0
 40
2.0
100
AcDbArc
 50
270.0
 51
360.0
  0
ARC
  5
D4
100
AcDbEntity
  8
1
100
AcDbCircle
 10
-189.694112
 20
-57.731376
 30
0.0
 40
2.0
100
AcDbArc
 50
180.0
 51
270.0
  0
LINE
  5
D5
100
AcDbEntity
  8
1
100
AcDbLine
 10
-138.728386
 20
-153.285801
 30
0.0
 11
-148.789801
 21
-155.981749
 31
0.0
  0
LINE
  5
D6
100
AcDbEntity
  8
1
100
AcDbLine
 10
-158.445778
 20
-187.801302
 30
0.0
 11
-166.144704
 21
-177.087113
 31
0.0
  0
LINE
  5
D7
100
AcDbEntity
  8
1
100
AcDbLine
 10
-146.823235
 20
-124.135467
 30
0.0
 11
-138.696365
 21
-124.135467
 31
0.0
  0
LINE
  5
D8
100
AcDbEntity
  8
1
100
AcDbLine
 10
-175.194112
 20
-68.135467
 30
0.0
 11
-172.830489
 21
-95.1518
 31
0.0
  0
LINE
  5
D9
100
AcDbEntity
  8
1
100
AcDbLine
 10
-164.126917
 20
-98.469898
 30
0.0
 11
-162.685092
 21
-94.468506
 31
0.0
  0
LINE
  5
DA
100
AcDbEntity
  8
1
100
AcDbLine
 10
138.468825
 20
-186.135467
 30
0.0
 11
147.968825
 21
-186.135467
 31
0.0
  0
LINE
  5
DB
100
AcDbEntity
  8
1
100
AcDbLine
 10
165.968825
 20
-186.135467
 30
0.0
 11
175.468825
 21
-186.135467
 31
0.0
  0
LINE
  5
DC
100
AcDbEntity
  8
1
100
AcDbLine
 10
154.468825
 20
-167.250018
 30
0.0
 11
154.468825
 21
-195.135467
 31
0.0
  0
LINE
  5
DD
100
AcDbEntity
  8
1
100
AcDbLine
 10
159.468825
 20
-167.250018
 30
0.0
 11
159.468825
 21
-195.135467
 31
0.0
  0
ARC
  5
DE
100
AcDbEntity
  8
1
100
AcDbCircle
 10
152.468825
 20
-195.135467
 30
0.0
 40
2.0
100
AcDbArc
 50
270.0
 51
360.0
  0
ARC
  5
DF
100
AcDbEntity
  8
1
100
AcDbCircle
 10
161.468825
 20
-195.135467
 30
0.0
 40
2.0
100
AcDbArc
 50
180.0
 51
270.0
  0
ARC
  5
E0
100
AcDbEntity
  8
1
100
AcDbCircle
 10
152.468825
 20
-167.250018
 30
0.0
 40
2.0
100
AcDbArc
 50
0.0
 51
90.0
  0
ARC
  5
E1
100
AcDbEntity
  8
1
100
AcDbCircle
 10
161.468825
 20
-167.250018
 30
0.0
 40
2.0
100
AcDbArc
 50
90.0
 51
180.0
  0
LINE
  5
E2
100
AcDbEntity
  8
1
100
AcDbLine
 10
156.468825
 20
-194.135467
 30
0.0
 11
157.468825
 21
-194.135467
 31
0.0
  0
LINE
  5
E3
100
AcDbEntity
  8
1
100
AcDbLine
 10
156.468825
 20
-187.801302
 30
0.0
 11
157.468825
 21
-187.801302
 31
0.0
  0
ARC
  5
E4
100
AcDbEntity
  8
1
100
AcDbCircle
 10
157.468825
 20
-192.135467
 30
0.0
 40
2.0
100
AcDbArc
 50
270.0
 51
360.0
  0
ARC
  5
E5
100
AcDbEntity
  8
1
100
AcDbCircle
 10
156.468825
 20
-192.135467
 30
0.0
 40
2.0
100
AcDbArc
 50
180.0
 51
270.0
  0
ARC
  5
E6
100
AcDbEntity
  8
1
100
AcDbCircle
 10
157.468825
 20
-189.801302
 30
0.0
 40
2.0
100
AcDbArc
 50
0.0
 51
90.0
  0
ARC
  5
E7
100
AcDbEntity
  8
1
100
AcDbCircle
 10
156.468825
 20
-189.801302
 30
0.0
 40
2.0
100
AcDbArc
 50
90.0
 51
180.0
  0
LINE
  5
E8
100
AcDbEntity
  8
1
100
AcDbLine
 10
141.499825
 20
-124.135467
 30
0.0
 11
172.437825
 21
-124.135467
 31
0.0
  0
LINE
  5
E9
100
AcDbEntity
  8
1
100
AcDbLine
 10
141.968825
 20
-126.135467
 30
0.0
 11
141.968825
 21
-151.135467
 31
0.0
  0
LINE
  5
EA
100
AcDbEntity
  8
1
100
AcDbLine
 10
171.968825
 20
-126.135467
 30
0.0
 11
171.968825
 21
-151.135467
 31
0.0
  0
ARC
  5
EB
100
AcDbEntity
  8
1
100
AcDbCircle
 10
143.968825
 20
-126.135467
 30
0.0
 40
2.0
100
AcDbArc
 50
90.0
 51
180.0
  0
ARC
  5
EC
100
AcDbEntity
  8
1
100
AcDbCircle
 10
169.968825
 20
-126.135467
 30
0.0
 40
2.0
100
AcDbArc
 50
0.0
 51
90.0
  0
ARC
  5
ED
100
AcDbEntity
  8
1
100
AcDbCircle
 10
169.968825
 20
-151.135467
 30
0.0
 40
2.0
100
AcDbArc
 50
270.0
 51
360.0
  0
ARC
  5
EE
100
AcDbEntity
  8
1
100
AcDbCircle
 10
143.968825
 20
-151.135467
 30
0.0
 40
2.0
100
AcDbArc
 50
180.0
 51
270.0
  0
LINE
  5
EF
100
AcDbEntity
  8
1
100
AcDbLine
 10
146.868825
 20
-148.135467
 30
0.0
 11
146.868825
 21
-151.135467
 31
0.0
  0
LINE
  5
F0
100
AcDbEntity
  8
1
100
AcDbLine
 10
167.068825
 20
-148.135467
 30
0.0
 11
167.068825
 21
-151.135467
 31
0.0
  0
LINE
  5
F1
100
AcDbEntity
  8
1
100
AcDbLine
 10
143.968825
 20
-153.135467
 30
0.0
 11
144.868825
 21
-153.135467
 31
0.0
  0
LINE
  5
F2
100
AcDbEntity
  8
1
100
AcDbLine
 10
169.068825
 20
-153.135467
 30
0.0
 11
169.968825
 21
-153.135467
 31
0.0
  0
ARC
  5
F3
100
AcDbEntity
  8
1
100
AcDbCircle
 10
169.068825
 20
-151.135467
 30
0.0
 40
2.0
100
AcDbArc
 50
180.0
 51
270.0
  0
ARC
  5
F4
100
AcDbEntity
  8
1
100
AcDbCircle
 10
165.068825
 20
-148.135467
 30
0.0
 40
2.0
100
AcDbArc
 50
0.0
 51
90.0
  0
ARC
  5
F5
100
AcDbEntity
  8
1
100
AcDbCircle
 10
148.868825
 20
-148.135467
 30
0.0
 40
2.0
100
AcDbArc
 50
90.0
 51
180.0
  0
ARC
  5
F6
100
AcDbEntity
  8
1
100
AcDbCircle
 10
144.868825
 20
-151.135467
 30
0.0
 40
2.0
100
AcDbArc
 50
270.0
 51
0.0
  0
LINE
  5
F7
100
AcDbEntity
  8
1
100
AcDbLine
 10
148.868825
 20
-146.135467
 30
0.0
 11
165.068825
 21
-146.135467
 31
0.0
  0
LINE
  5
F8
100
AcDbEntity
  8
1
100
AcDbLine
 10
167.068825
 20
-151.135467
 30
0.0
 11
166.468825
 21
-155.68816
 31
0.0
  0
LINE
  5
F9
100
AcDbEntity
  8
1
100
AcDbLine
 10
146.868825
 20
-151.135467
 30
0.0
 11
147.468825
 21
-155.68816
 31
0.0
  0
ARC
  5
FA
100
AcDbEntity
  8
1
100
AcDbCircle
 10
156.968825
 20
-131.215058
 30
0.0
 40
27.018619
100
AcDbArc
 50
251.567296
 51
288.432704
  0
ARC
  5
FB
100
AcDbEntity
  8
1
100
AcDbCircle
 10
148.873907
 20
-155.502984
 30
0.0
 40
1.417232
100
AcDbArc
 50
187.507752
 51
251.567296
  0
ARC
  5
FC
100
AcDbEntity
  8
1
100
AcDbCircle
 10
165.063743
 20
-155.502984
 30
0.0
 40
1.417232
100
AcDbArc
 50
288.432704
 51
352.492248
  0
LINE
  5
FD
100
AcDbEntity
  8
1
100
AcDbLine
 10
149.281825
 20
-159.980678
 30
0.0
 11
164.655825
 21
-159.980678
 31
0.0
  0
LINE
  5
FE
100
AcDbEntity
  8
1
100
AcDbLine
 10
146.281825
 20
-162.980678
 30
0.0
 11
146.281825
 21
-168.301715
 31
0.0
  0
LINE
  5
FF
100
AcDbEntity
  8
1
100
AcDbLine
 10
167.655825
 20
-162.980678
 30
0.0
 11
167.655825
 21
-168.301715
 31
0.0
  0
LINE
  5
100
100
AcDbEntity
  8
1
100
AcDbLine
 10
149.281825
 20
-171.301715
 30
0.0
 11
152.468825
 21
-171.301715
 31
0.0
  0
LINE
  5
101
100
AcDbEntity
  8
1
100
AcDbLine
 10
161.468825
 20
-171.301715
 30
0.0
 11
164.655825
 21
-171.301715
 31
0.0
  0
ARC
  5
102
100
AcDbEntity
  8
1
100
AcDbCircle
 10
164.655825
 20
-162.980678
 30
0.0
 40
3.0
100
AcDbArc
 50
0.0
 51
90.0
  0
ARC
  5
103
100
AcDbEntity
  8
1
100
AcDbCircle
 10
149.281825
 20
-162.980678
 30
0.0
 40
3.0
100
AcDbArc
 50
90.0
 51
180.0
  0
ARC
  5
104
100
AcDbEntity
  8
1
100
AcDbCircle
 10
149.281825
 20
-168.301715
 30
0.0
 40
3.0
100
AcDbArc
 50
180.0
 51
270.0
  0
ARC
  5
105
100
AcDbEntity
  8
1
100
AcDbCircle
 10
164.655825
 20
-168.301715
 30
0.0
 40
3.0
100
AcDbArc
 50
270.0
 51
360.0
  0
ARC
  5
106
100
AcDbEntity
  8
1
100
AcDbCircle
 10
166.468825
 20
-179.712126
 30
0.0
 40
4.0
100
AcDbArc
 50
270.0
 51
360.0
  0
ARC
  5
107
100
AcDbEntity
  8
1
100
AcDbCircle
 10
147.468825
 20
-179.712126
 30
0.0
 40
4.0
100
AcDbArc
 50
180.0
 51
270.0
  0
ARC
  5
108
100
AcDbEntity
  8
1
100
AcDbCircle
 10
161.468825
 20
-173.301715
 30
0.0
 40
2.0
100
AcDbArc
 50
90.0
 51
180.0
  0
ARC
  5
109
100
AcDbEntity
  8
1
100
AcDbCircle
 10
152.468825
 20
-173.301715
 30
0.0
 40
2.0
100
AcDbArc
 50
0.0
 51
90.0
  0
LINE
  5
10A
100
AcDbEntity
  8
1
100
AcDbLine
 10
146.281825
 20
-171.301715
 30
0.0
 11
144.375483
 21
-179.712126
 31
0.0
  0
LINE
  5
10B
100
AcDbEntity
  8
1
100
AcDbLine
 10
167.655825
 20
-171.301715
 30
0.0
 11
169.562167
 21
-179.712126
 31
0.0
  0
ARC
  5
10C
100
AcDbEntity
  8
1
100
AcDbCircle
 10
172.437825
 20
-154.235712
 30
0.0
 40
2.0
100
AcDbArc
 50
270.0
 51
360.0
  0
ARC
  5
10D
100
AcDbEntity
  8
1
100
AcDbCircle
 10
141.499825
 20
-154.235712
 30
0.0
 40
2.0
100
AcDbArc
 50
180.0
 51
270.0
  0
ARC
  5
10E
100
AcDbEntity
  8
1
100
AcDbCircle
 10
167.468825
 20
-159.235712
 30
0.0
 40
3.0
100
AcDbArc
 50
0.0
 51
90.0
  0
ARC
  5
10F
100
AcDbEntity
  8
1
100
AcDbCircle
 10
146.468825
 20
-159.235712
 30
0.0
 40
3.0
100
AcDbArc
 50
90.0
 51
180.0
  0
LINE
  5
110
100
AcDbEntity
  8
1
100
AcDbLine
 10
141.499825
 20
-156.235712
 30
0.0
 11
143.468825
 21
-156.235712
 31
0.0
  0
LINE
  5
111
100
AcDbEntity
  8
1
100
AcDbLine
 10
170.468825
 20
-156.235712
 30
0.0
 11
172.437825
 21
-156.235712
 31
0.0
  0
LINE
  5
112
100
AcDbEntity
  8
1
100
AcDbLine
 10
168.966542
 20
-158.235712
 30
0.0
 11
167.655825
 21
-159.980678
 31
0.0
  0
LINE
  5
113
100
AcDbEntity
  8
1
100
AcDbLine
 10
144.971108
 20
-158.235712
 30
0.0
 11
146.281825
 21
-159.980678
 31
0.0
  0
LINE
  5
114
100
AcDbEntity
  8
1
100
AcDbLine
 10
138.468825
 20
-167.784666
 30
0.0
 11
143.468825
 21
-167.784666
 31
0.0
  0
LINE
  5
115
100
AcDbEntity
  8
1
100
AcDbLine
 10
170.468825
 20
-167.784666
 30
0.0
 11
175.468825
 21
-167.784666
 31
0.0
  0
LINE
  5
116
100
AcDbEntity
  8
1
100
AcDbLine
 10
138.468825
 20
-175.883646
 30
0.0
 11
143.468825
 21
-175.883646
 31
0.0
  0
LINE
  5
117
100
AcDbEntity
  8
1
100
AcDbLine
 10
170.468825
 20
-175.883646
 30
0.0
 11
175.468825
 21
-175.883646
 31
0.0
  0
ARC
  5
118
100
AcDbEntity
  8
1
100
AcDbCircle
 10
172.437825
 20
-126.135467
 30
0.0
 40
2.0
100
AcDbArc
 50
0.0
 51
90.0
  0
ARC
  5
119
100
AcDbEntity
  8
1
100
AcDbCircle
 10
141.499825
 20
-126.135467
 30
0.0
 40
2.0
100
AcDbArc
 50
90.0
 51
180.0
  0
ARC
  5
11A
100
AcDbEntity
  8
1
100
AcDbCircle
 10
147.968825
 20
-186.712126
 30
0.0
 40
3.0
100
AcDbArc
 50
0.0
 51
90.0
  0
ARC
  5
11B
100
AcDbEntity
  8
1
100
AcDbCircle
 10
165.968825
 20
-186.712126
 30
0.0
 40
3.0
100
AcDbArc
 50
90.0
 51
180.0
  0
LINE
  5
11C
100
AcDbEntity
  8
1
100
AcDbLine
 10
154.468825
 20
-165.250018
 30
0.0
 11
159.468825
 21
-165.250018
 31
0.0
  0
LINE
  5
11D
100
AcDbEntity
  8
1
100
AcDbLine
 10
154.468825
 20
-197.135467
 30
0.0
 11
159.468825
 21
-197.135467
 31
0.0
  0
LINE
  5
11E
100
AcDbEntity
  8
1
100
AcDbLine
 10
159.468825
 20
-183.712126
 30
0.0
 11
162.968825
 21
-183.712126
 31
0.0
  0
LINE
  5
11F
100
AcDbEntity
  8
1
100
AcDbLine
 10
165.968825
 20
-183.712126
 30
0.0
 11
166.468825
 21
-183.712126
 31
0.0
  0
LINE
  5
120
100
AcDbEntity
  8
1
100
AcDbLine
 10
147.468825
 20
-183.712126
 30
0.0
 11
147.968825
 21
-183.712126
 31
0.0
  0
LINE
  5
121
100
AcDbEntity
  8
1
100
AcDbLine
 10
150.968825
 20
-183.712126
 30
0.0
 11
154.468825
 21
-183.712126
 31
0.0
  0
LINE
  5
122
100
AcDbEntity
  8
1
100
AcDbLine
 10
139.499825
 20
-126.135467
 30
0.0
 11
139.499825
 21
-154.235712
 31
0.0
  0
LINE
  5
123
100
AcDbEntity
  8
1
100
AcDbLine
 10
174.437825
 20
-126.135467
 30
0.0
 11
174.437825
 21
-154.235712
 31
0.0
  0
LINE
  5
124
100
AcDbEntity
  8
1
100
AcDbLine
 10
171.968825
 20
-153.135467
 30
0.0
 11
172.845047
 21
-154.235712
 31
0.0
  0
LINE
  5
125
100
AcDbEntity
  8
1
100
AcDbLine
 10
141.968825
 20
-153.135467
 30
0.0
 11
141.092602
 21
-154.235712
 31
0.0
  0
LINE
  5
126
100
AcDbEntity
  8
1
100
AcDbLine
 10
137.968825
 20
-90.135467
 30
0.0
 11
138.468825
 21
-90.135467
 31
0.0
  0
LINE
  5
127
100
AcDbEntity
  8
1
100
AcDbLine
 10
175.468825
 20
-90.135467
 30
0.0
 11
175.968825
 21
-90.135467
 31
0.0
  0
LINE
  5
128
100
AcDbEntity
  8
1
100
AcDbLine
 10
167.468825
 20
-57.781201
 30
0.0
 11
172.468825
 21
-57.781201
 31
0.0
  0
LINE
  5
129
100
AcDbEntity
  8
1
100
AcDbLine
 10
172.468825
 20
-59.781201
 30
0.0
 11
172.468825
 21
-98.387289
 31
0.0
  0
LINE
  5
12A
100
AcDbEntity
  8
1
100
AcDbLine
 10
167.468825
 20
-59.781201
 30
0.0
 11
167.468825
 21
-111.258633
 31
0.0
  0
LINE
  5
12B
100
AcDbEntity
  8
1
  6
DASHED
100
AcDbLine
 10
-239.794112
 20
165.407236
 30
0.0
 11
-239.794112
 21
164.407236
 31
0.0
  0
ARC
  5
12C
100
AcDbEntity
  8
1
  6
DASHED
100
AcDbCircle
 10
-237.794112
 20
165.407236
 30
0.0
 40
2.0
100
AcDbArc
 50
90.0
 51
180.0
  0
ARC
  5
12D
100
AcDbEntity
  8
1
  6
DASHED
100
AcDbCircle
 10
-237.794112
 20
164.407236
 30
0.0
 40
2.0
100
AcDbArc
 50
180.0
 51
270.0
  0
ARC
  5
12E
100
AcDbEntity
  8
1
100
AcDbCircle
 10
174.468825
 20
-59.781201
 30
0.0
 40
2.0
100
AcDbArc
 50
90.0
 51
180.0
  0
ARC
  5
12F
100
AcDbEntity
  8
1
100
AcDbCircle
 10
165.468825
 20
-59.781201
 30
0.0
 40
2.0
100
AcDbArc
 50
360.0
 51
90.0
  0
ARC
  5
130
100
AcDbEntity
  8
1
100
AcDbCircle
 10
165.468825
 20
-111.258633
 30
0.0
 40
2.0
100
AcDbArc
 50
270.0
 51
0.0
  0
LINE
  5
131
100
AcDbEntity
  8
1
100
AcDbLine
 10
149.281825
 20
-108.135103
 30
0.0
 11
164.655825
 21
-108.135103
 31
0.0
  0
LINE
  5
132
100
AcDbEntity
  8
1
100
AcDbLine
 10
170.468825
 20
-120.135467
 30
0.0
 11
170.468825
 21
-108.486268
 31
0.0
  0
ARC
  5
133
100
AcDbEntity
  8
1
100
AcDbCircle
 10
147.468825
 20
-120.135467
 30
0.0
 40
4.0
100
AcDbArc
 50
180.0
 51
270.0
  0
ARC
  5
134
100
AcDbEntity
  8
1
100
AcDbCircle
 10
166.468825
 20
-120.135467
 30
0.0
 40
4.0
100
AcDbArc
 50
270.0
 51
0.0
  0
LINE
  5
135
100
AcDbEntity
  8
1
100
AcDbLine
 10
146.281825
 20
-121.135467
 30
0.0
 11
146.281825
 21
-111.135103
 31
0.0
  0
LINE
  5
136
100
AcDbEntity
  8
1
100
AcDbLine
 10
167.655825
 20
-121.135467
 30
0.0
 11
167.655825
 21
-113.258633
 31
0.0
  0
ARC
  5
137
100
AcDbEntity
  8
1
100
AcDbCircle
 10
149.281825
 20
-111.135103
 30
0.0
 40
3.0
100
AcDbArc
 50
90.0
 51
180.0
  0
ARC
  5
138
100
AcDbEntity
  8
1
100
AcDbCircle
 10
164.655825
 20
-111.135103
 30
0.0
 40
3.0
100
AcDbArc
 50
20.336675
 51
90.0
  0
ARC
  5
139
100
AcDbEntity
  8
1
100
AcDbCircle
 10
164.655825
 20
-121.135467
 30
0.0
 40
3.0
100
AcDbArc
 50
270.0
 51
360.0
  0
ARC
  5
13A
100
AcDbEntity
  8
1
100
AcDbCircle
 10
149.281825
 20
-121.135467
 30
0.0
 40
3.0
100
AcDbArc
 50
180.0
 51
270.0
  0
LINE
  5
13B
100
AcDbEntity
  8
1
100
AcDbLine
 10
170.002673
 20
-102.387289
 30
0.0
 11
167.655825
 21
-112.456319
 31
0.0
  0
LINE
  5
13C
100
AcDbEntity
  8
1
100
AcDbLine
 10
169.468825
 20
-76.309092
 30
0.0
 11
170.468825
 21
-76.309092
 31
0.0
  0
LINE
  5
13D
100
AcDbEntity
  8
1
100
AcDbLine
 10
169.468825
 20
-84.11447
 30
0.0
 11
170.468825
 21
-84.11447
 31
0.0
  0
ARC
  5
13E
100
AcDbEntity
  8
1
100
AcDbCircle
 10
170.468825
 20
-78.309092
 30
0.0
 40
2.0
100
AcDbArc
 50
0.0
 51
90.0
  0
ARC
  5
13F
100
AcDbEntity
  8
1
100
AcDbCircle
 10
169.468825
 20
-78.309092
 30
0.0
 40
2.0
100
AcDbArc
 50
90.0
 51
180.0
  0
ARC
  5
140
100
AcDbEntity
  8
1
100
AcDbCircle
 10
170.468825
 20
-82.11447
 30
0.0
 40
2.0
100
AcDbArc
 50
270.0
 51
360.0
  0
ARC
  5
141
100
AcDbEntity
  8
1
100
AcDbCircle
 10
169.468825
 20
-82.11447
 30
0.0
 40
2.0
100
AcDbArc
 50
180.0
 51
270.0
  0
LINE
  5
142
100
AcDbEntity
  8
1
100
AcDbLine
 10
138.468825
 20
-108.486268
 30
0.0
 11
143.468825
 21
-108.486268
 31
0.0
  0
LINE
  5
143
100
AcDbEntity
  8
1
100
AcDbLine
 10
170.468825
 20
-108.486268
 30
0.0
 11
175.468825
 21
-108.486268
 31
0.0
  0
LINE
  5
144
100
AcDbEntity
  8
1
100
AcDbLine
 10
138.468825
 20
-100.387289
 30
0.0
 11
143.468825
 21
-100.387289
 31
0.0
  0
LINE
  5
145
100
AcDbEntity
  8
1
100
AcDbLine
 10
172.468825
 20
-100.387289
 30
0.0
 11
175.468825
 21
-100.387289
 31
0.0
  0
ARC
  5
146
100
AcDbEntity
  8
1
100
AcDbCircle
 10
174.468825
 20
-98.387289
 30
0.0
 40
2.0
100
AcDbArc
 50
180.0
 51
270.0
  0
ARC
  5
147
100
AcDbEntity
  8
1
100
AcDbCircle
 10
172.468825
 20
-102.387289
 30
0.0
 40
2.0
100
AcDbArc
 50
90.0
 51
156.870873
  0
ARC
  5
148
100
AcDbEntity
  8
1
100
AcDbCircle
 10
-208.892597
 20
-35.635467
 30
0.0
 40
4.0
100
AcDbArc
 50
356.739979
 51
90.0
  0
ARC
  5
149
100
AcDbEntity
  8
1
100
AcDbCircle
 10
-217.721024
 20
-85.121465
 30
0.0
 40
10.0
100
AcDbArc
 50
293.931014
 51
356.739979
  0
LINE
  5
14A
100
AcDbEntity
  8
1
100
AcDbLine
 10
-204.89907
 20
-35.862937
 30
0.0
 11
-207.737207
 21
-85.690139
 31
0.0
  0
LINE
  5
14B
100
AcDbEntity
  8
1
100
AcDbLine
 10
-183.489154
 20
-35.862937
 30
0.0
 11
-180.651018
 21
-85.690139
 31
0.0
  0
ARC
  5
14C
100
AcDbEntity
  8
1
100
AcDbCircle
 10
-179.495627
 20
-35.635467
 30
0.0
 40
4.0
100
AcDbArc
 50
90.0
 51
183.260021
  0
ARC
  5
14D
100
AcDbEntity
  8
1
100
AcDbCircle
 10
-170.6672
 20
-85.121465
 30
0.0
 40
10.0
100
AcDbArc
 50
183.260021
 51
246.068986
  0
ARC
  5
14E
100
AcDbEntity
  8
1
100
AcDbCircle
 10
142.27034
 20
-35.635467
 30
0.0
 40
4.0
100
AcDbArc
 50
356.739979
 51
90.0
  0
LINE
  5
14F
100
AcDbEntity
  8
1
100
AcDbLine
 10
146.263867
 20
-35.862937
 30
0.0
 11
144.425637
 21
-68.135467
 31
0.0
  0
LINE
  5
150
100
AcDbEntity
  8
1
100
AcDbLine
 10
167.673783
 20
-35.862937
 30
0.0
 11
168.922238
 21
-57.781201
 31
0.0
  0
ARC
  5
151
100
AcDbEntity
  8
1
100
AcDbCircle
 10
171.66731
 20
-35.635467
 30
0.0
 40
4.0
100
AcDbArc
 50
90.0
 51
183.260021
  0
LINE
  5
152
100
AcDbEntity
  8
1
100
AcDbLine
 10
143.951382
 20
-97.168983
 30
0.0
 11
146.281825
 21
-108.135103
 31
0.0
  0
ARC
  5
153
100
AcDbEntity
  8
1
100
AcDbCircle
 10
145.468825
 20
-97.168983
 30
0.0
 40
2.0
100
AcDbArc
 50
121.058765
 51
180.0
  0
ARC
  5
154
100
AcDbEntity
  8
1
100
AcDbCircle
 10
143.405157
 20
-93.742429
 30
0.0
 40
2.0
100
AcDbArc
 50
301.058765
 51
2.193893
  0
LINE
  5
155
100
AcDbEntity
  8
1
100
AcDbLine
 10
144.425637
 20
-68.135467
 30
0.0
 11
145.403691
 21
-93.665866
 31
0.0
  0
LINE
  5
156
100
AcDbEntity
  8
1
100
AcDbLine
 10
138.468825
 20
-94.26181
 30
0.0
 11
143.468825
 21
-94.898264
 31
0.0
  0
LINE
  5
157
100
AcDbEntity
  8
1
100
AcDbLine
 10
175.468825
 20
-94.26181
 30
0.0
 11
172.468825
 21
-94.643683
 31
0.0
  0
LINE
  5
158
100
AcDbEntity
  8
1
  6
DASHED
100
AcDbLine
 10
-148.594112
 20
165.407236
 30
0.0
 11
-148.594112
 21
164.407236
 31
0.0
  0
ARC
  5
159
100
AcDbEntity
  8
1
  6
DASHED
100
AcDbCircle
 10
-150.594112
 20
165.407236
 30
0.0
 40
2.0
100
AcDbArc
 50
0.0
 51
90.0
  0
ARC
  5
15A
100
AcDbEntity
  8
1
  6
DASHED
100
AcDbCircle
 10
-150.594112
 20
164.407236
 30
0.0
 40
2.0
100
AcDbArc
 50
270.0
 51
360.0
  0
LINE
  5
15B
100
AcDbEntity
  8
1
100
AcDbLine
 10
-139.694112
 20
-153.544567
 30
0.0
 11
-139.694112
 21
-155.535467
 31
0.0
  0
LINE
  5
15C
100
AcDbEntity
  8
1
100
AcDbLine
 10
-139.694112
 20
-155.535467
 30
0.0
 11
-140.733343
 21
-156.135467
 31
0.0
  0
LINE
  5
15D
100
AcDbEntity
  8
1
100
AcDbLine
 10
-139.694112
 20
-155.535467
 30
0.0
 11
-147.124255
 21
-155.535467
 31
0.0
  0
LINE
  5
15E
100
AcDbEntity
  8
1
100
AcDbLine
 10
-149.187718
 20
-156.135467
 30
0.0
 11
-140.733343
 21
-156.135467
 31
0.0
  0
LINE
  5
15F
100
AcDbEntity
  8
1
100
AcDbLine
 10
-248.694112
 20
-153.544567
 30
0.0
 11
-248.694112
 21
-155.535467
 31
0.0
  0
LINE
  5
160
100
AcDbEntity
  8
1
100
AcDbLine
 10
-248.694112
 20
-155.535467
 30
0.0
 11
-247.654882
 21
-156.135467
 31
0.0
  0
LINE
  5
161
100
AcDbEntity
  8
1
100
AcDbLine
 10
-248.694112
 20
-155.535467
 30
0.0
 11
-241.26397
 21
-155.535467
 31
0.0
  0
LINE
  5
162
100
AcDbEntity
  8
1
100
AcDbLine
 10
-239.200506
 20
-156.135467
 30
0.0
 11
-247.654882
 21
-156.135467
 31
0.0
  0
LINE
  5
163
100
AcDbEntity
  8
1
100
AcDbLine
 10
164.968825
 20
-146.135467
 30
0.0
 11
164.968825
 21
-155.535467
 31
0.0
  0
LINE
  5
164
100
AcDbEntity
  8
1
100
AcDbLine
 10
164.968825
 20
-155.535467
 30
0.0
 11
163.929594
 21
-156.135467
 31
0.0
  0
LINE
  5
165
100
AcDbEntity
  8
1
100
AcDbLine
 10
164.968825
 20
-155.535467
 30
0.0
 11
148.968825
 21
-155.535467
 31
0.0
  0
LINE
  5
166
100
AcDbEntity
  8
1
100
AcDbLine
 10
161.156825
 20
-121.135467
 30
0.0
 11
161.968825
 21
-121.947467
 31
0.0
  0
LINE
  5
167
100
AcDbEntity
  8
1
100
AcDbLine
 10
161.968825
 20
-121.947467
 30
0.0
 11
161.968825
 21
-124.135467
 31
0.0
  0
LINE
  5
168
100
AcDbEntity
  8
1
100
AcDbLine
 10
161.968825
 20
-121.947467
 30
0.0
 11
151.968825
 21
-121.947467
 31
0.0
  0
LINE
  5
169
100
AcDbEntity
  8
1
 62
     2
100
AcDbLine
 10
161.156825
 20
-121.135467
 30
0.0
 11
161.156825
 21
-124.135467
 31
0.0
  0
LINE
  5
16A
100
AcDbEntity
  8
1
100
AcDbLine
 10
148.968825
 20
-146.135467
 30
0.0
 11
148.968825
 21
-155.535467
 31
0.0
  0
LINE
  5
16B
100
AcDbEntity
  8
1
100
AcDbLine
 10
148.968825
 20
-155.535467
 30
0.0
 11
150.008055
 21
-156.135467
 31
0.0
  0
LINE
  5
16C
100
AcDbEntity
  8
1
100
AcDbLine
 10
150.008055
 20
-156.135467
 30
0.0
 11
163.929594
 21
-156.135467
 31
0.0
  0
LINE
  5
16D
100
AcDbEntity
  8
1
100
AcDbLine
 10
152.780825
 20
-121.135467
 30
0.0
 11
161.156825
 21
-121.135467
 31
0.0
  0
LINE
  5
16E
100
AcDbEntity
  8
1
100
AcDbLine
 10
152.780825
 20
-121.135467
 30
0.0
 11
151.968825
 21
-121.947467
 31
0.0
  0
LINE
  5
16F
100
AcDbEntity
  8
1
100
AcDbLine
 10
151.968825
 20
-121.947467
 30
0.0
 11
151.968825
 21
-124.135467
 31
0.0
  0
LINE
  5
170
100
AcDbEntity
  8
1
 62
     2
100
AcDbLine
 10
152.780825
 20
-121.135467
 30
0.0
 11
152.780825
 21
-124.135467
 31
0.0
  0
LINE
  5
171
100
AcDbEntity
  8
1
100
AcDbLine
 10
-143.506112
 20
-121.135467
 30
0.0
 11
-142.694112
 21
-121.947467
 31
0.0
  0
LINE
  5
172
100
AcDbEntity
  8
1
100
AcDbLine
 10
-142.694112
 20
-121.947467
 30
0.0
 11
-142.694112
 21
-124.135467
 31
0.0
  0
LINE
  5
173
100
AcDbEntity
  8
1
100
AcDbLine
 10
-142.694112
 20
-121.947467
 30
0.0
 11
-149.006186
 21
-121.947467
 31
0.0
  0
LINE
  5
174
100
AcDbEntity
  8
1
 62
     2
100
AcDbLine
 10
-143.506112
 20
-121.135467
 30
0.0
 11
-143.506112
 21
-124.135467
 31
0.0
  0
LINE
  5
175
100
AcDbEntity
  8
1
100
AcDbLine
 10
-149.305361
 20
-121.135467
 30
0.0
 11
-143.506112
 21
-121.135467
 31
0.0
  0
LINE
  5
176
100
AcDbEntity
  8
1
100
AcDbLine
 10
-244.882112
 20
-121.135467
 30
0.0
 11
-245.694112
 21
-121.947467
 31
0.0
  0
LINE
  5
177
100
AcDbEntity
  8
1
100
AcDbLine
 10
-245.694112
 20
-121.947467
 30
0.0
 11
-245.694112
 21
-124.135467
 31
0.0
  0
LINE
  5
178
100
AcDbEntity
  8
1
100
AcDbLine
 10
-245.694112
 20
-121.947467
 30
0.0
 11
-239.382038
 21
-121.947467
 31
0.0
  0
LINE
  5
179
100
AcDbEntity
  8
1
 62
     2
100
AcDbLine
 10
-244.882112
 20
-121.135467
 30
0.0
 11
-244.882112
 21
-124.135467
 31
0.0
  0
LINE
  5
17A
100
AcDbEntity
  8
1
100
AcDbLine
 10
-239.082864
 20
-121.135467
 30
0.0
 11
-244.882112
 21
-121.135467
 31
0.0
  0
LINE
  5
17B
100
AcDbEntity
  8
1
100
AcDbLine
 10
144.425637
 20
-68.135467
 30
0.0
 11
151.468825
 21
-68.135467
 31
0.0
  0
LINE
  5
17C
100
AcDbEntity
  8
1
100
AcDbLine
 10
162.468825
 20
-68.135467
 30
0.0
 11
167.468825
 21
-68.135467
 31
0.0
  0
LINE
  5
17D
100
AcDbEntity
  8
1
100
AcDbLine
 10
160.968825
 20
-44.076644
 30
0.0
 11
161.968825
 21
-46.135467
 31
0.0
  0
LINE
  5
17E
100
AcDbEntity
  8
1
100
AcDbLine
 10
160.968825
 20
-35.635467
 30
0.0
 11
161.968825
 21
-35.635467
 31
0.0
  0
LINE
  5
17F
100
AcDbEntity
  8
1
100
AcDbLine
 10
160.268825
 20
-65.59261
 30
0.0
 11
160.268825
 21
-68.578324
 31
0.0
  0
LINE
  5
180
100
AcDbEntity
  8
1
100
AcDbLine
 10
161.968825
 20
-35.635467
 30
0.0
 11
161.968825
 21
-46.135467
 31
0.0
  0
LINE
  5
181
100
AcDbEntity
  8
1
100
AcDbLine
 10
135.468825
 20
-93.135467
 30
0.0
 11
135.468825
 21
-183.135467
 31
0.0
  0
LINE
  5
182
100
AcDbEntity
  8
1
100
AcDbLine
 10
178.468825
 20
-93.135467
 30
0.0
 11
178.468825
 21
-183.135467
 31
0.0
  0
LINE
  5
183
100
AcDbEntity
  8
1
100
AcDbLine
 10
135.468825
 20
-93.135467
 30
0.0
 11
138.468825
 21
-93.135467
 31
0.0
  0
LINE
  5
184
100
AcDbEntity
  8
1
100
AcDbLine
 10
175.468825
 20
-93.135467
 30
0.0
 11
178.468825
 21
-93.135467
 31
0.0
  0
LINE
  5
185
100
AcDbEntity
  8
1
100
AcDbLine
 10
135.468825
 20
-183.135467
 30
0.0
 11
138.468825
 21
-183.135467
 31
0.0
  0
LINE
  5
186
100
AcDbEntity
  8
1
100
AcDbLine
 10
175.468825
 20
-183.135467
 30
0.0
 11
178.468825
 21
-183.135467
 31
0.0
  0
LINE
  5
187
100
AcDbEntity
  8
1
  6
DASHED
100
AcDbLine
 10
-149.194112
 20
173.407236
 30
0.0
 11
-159.194112
 21
173.407236
 31
0.0
  0
LINE
  5
188
100
AcDbEntity
  8
1
  6
DASHED
100
AcDbLine
 10
-149.194112
 20
130.407236
 30
0.0
 11
-159.194112
 21
130.407236
 31
0.0
  0
LINE
  5
189
100
AcDbEntity
  8
1
  6
DASHED
100
AcDbLine
 10
-239.194112
 20
130.407236
 30
0.0
 11
-229.194112
 21
130.407236
 31
0.0
  0
LINE
  5
18A
100
AcDbEntity
  8
1
  6
DASHED
100
AcDbLine
 10
-239.194112
 20
173.407236
 30
0.0
 11
-229.194112
 21
173.407236
 31
0.0
  0
LINE
  5
18B
100
AcDbEntity
  8
1
  6
DASHED
100
AcDbLine
 10
-149.194112
 20
130.407236
 30
0.0
 11
-149.194112
 21
133.407236
 31
0.0
  0
LINE
  5
18C
100
AcDbEntity
  8
1
  6
DASHED
100
AcDbLine
 10
-149.194112
 20
170.407236
 30
0.0
 11
-149.194112
 21
173.407236
 31
0.0
  0
LINE
  5
18D
100
AcDbEntity
  8
1
  6
DASHED
100
AcDbLine
 10
-239.194112
 20
130.407236
 30
0.0
 11
-239.194112
 21
133.407236
 31
0.0
  0
LINE
  5
18E
100
AcDbEntity
  8
1
  6
DASHED
100
AcDbLine
 10
-239.194112
 20
170.407236
 30
0.0
 11
-239.194112
 21
173.407236
 31
0.0
  0
CIRCLE
  5
18F
100
AcDbEntity
  8
1
100
AcDbCircle
 10
-194.194112
 20
-138.135467
 30
0.0
 40
45.0
  0
CIRCLE
  5
190
100
AcDbEntity
  8
1
100
AcDbCircle
 10
-194.194112
 20
-138.135467
 30
0.0
 40
30.7
  0
ARC
  5
191
100
AcDbEntity
  8
1
100
AcDbCircle
 10
-194.194112
 20
-138.135467
 30
0.0
 40
25.9
100
AcDbArc
 50
119.129474
 51
240.870526
  0
ARC
  5
192
100
AcDbEntity
  8
1
100
AcDbCircle
 10
-194.194112
 20
-138.135467
 30
0.0
 40
25.9
100
AcDbArc
 50
299.129474
 51
60.870526
  0
LINE
  5
193
100
AcDbEntity
  8
1
100
AcDbLine
 10
-181.586386
 20
-115.511249
 30
0.0
 11
-206.801839
 21
-115.511249
 31
0.0
  0
ARC
  5
194
100
AcDbEntity
  8
1
100
AcDbCircle
 10
-194.194112
 20
-129.513309
 30
0.0
 40
18.841774
100
AcDbArc
 50
47.999514
 51
132.000486
  0
LINE
  5
195
100
AcDbEntity
  8
1
100
AcDbLine
 10
-181.586386
 20
-160.759685
 30
0.0
 11
-206.801839
 21
-160.759685
 31
0.0
  0
ARC
  5
196
100
AcDbEntity
  8
1
100
AcDbCircle
 10
-194.194112
 20
-146.757626
 30
0.0
 40
18.841774
100
AcDbArc
 50
227.999514
 51
312.000486
  0
ARC
  5
197
100
AcDbEntity
  8
1
100
AcDbCircle
 10
-194.194112
 20
-138.135467
 30
0.0
 40
26.7
100
AcDbArc
 50
110.158455
 51
249.841545
  0
ARC
  5
198
100
AcDbEntity
  8
1
100
AcDbCircle
 10
-194.194112
 20
-138.135467
 30
0.0
 40
26.7
100
AcDbArc
 50
290.158455
 51
69.841545
  0
LINE
  5
199
100
AcDbEntity
  8
1
  6
CENTER
 62
     2
100
AcDbLine
 10
-268.050313
 20
-138.135467
 30
0.0
 11
-124.259462
 21
-138.135467
 31
0.0
  0
LINE
  5
19A
100
AcDbEntity
  8
1
  6
CENTER
 62
     2
100
AcDbLine
 10
-194.194112
 20
-210.014175
 30
0.0
 11
-194.194112
 21
27.437252
 31
0.0
  0
LINE
  5
19B
100
AcDbEntity
  8
1
  6
CENTER
 62
     2
100
AcDbLine
 10
-175.104139
 20
170.99721
 30
0.0
 11
-163.446233
 21
182.655115
 31
0.0
  0
ARC
  5
19C
100
AcDbEntity
  8
1
  6
CENTER
 62
     2
100
AcDbCircle
 10
-194.194112
 20
151.907236
 30
0.0
 40
35.0
100
AcDbArc
 50
31.716537
 51
58.561244
  0
LINE
  5
19D
100
AcDbEntity
  8
1
  6
CENTER
 62
     2
100
AcDbLine
 10
-213.284086
 20
170.99721
 30
0.0
 11
-224.941991
 21
182.655115
 31
0.0
  0
ARC
  5
19E
100
AcDbEntity
  8
1
  6
CENTER
 62
     2
100
AcDbCircle
 10
-194.194112
 20
151.907236
 30
0.0
 40
35.0
100
AcDbArc
 50
121.716537
 51
148.561244
  0
LINE
  5
19F
100
AcDbEntity
  8
1
  6
CENTER
 62
     2
100
AcDbLine
 10
-213.284086
 20
132.817263
 30
0.0
 11
-224.941991
 21
121.159357
 31
0.0
  0
ARC
  5
1A0
100
AcDbEntity
  8
1
  6
CENTER
 62
     2
100
AcDbCircle
 10
-194.194112
 20
151.907236
 30
0.0
 40
35.0
100
AcDbArc
 50
211.716537
 51
238.561244
  0
LINE
  5
1A1
100
AcDbEntity
  8
1
  6
CENTER
 62
     2
100
AcDbLine
 10
-175.104139
 20
132.817263
 30
0.0
 11
-163.446233
 21
121.159357
 31
0.0
  0
ARC
  5
1A2
100
AcDbEntity
  8
1
  6
CENTER
 62
     2
100
AcDbCircle
 10
-194.194112
 20
151.907236
 30
0.0
 40
35.0
100
AcDbArc
 50
301.716537
 51
328.561244
  0
LINE
  5
1A3
100
AcDbEntity
  8
1
  6
CENTER
 62
     2
100
AcDbLine
 10
-240.694112
 20
142.689478
 30
0.0
 11
-240.694112
 21
161.267359
 31
0.0
  0
LINE
  5
1A4
100
AcDbEntity
  8
1
  6
CENTER
 62
     2
100
AcDbLine
 10
-147.694112
 20
142.689478
 30
0.0
 11
-147.694112
 21
161.267359
 31
0.0
  0
LINE
  5
1A5
100
AcDbEntity
  8
1
  6
CENTER
 62
     2
100
AcDbLine
 10
156.968825
 20
-210.014175
 30
0.0
 11
156.968825
 21
54.410435
 31
0.0
  0
LINE
  5
1A6
100
AcDbEntity
  8
1
  6
CENTER
 62
     2
100
AcDbLine
 10
122.328276
 20
-138.135467
 30
0.0
 11
189.648543
 21
-138.135467
 31
0.0
  0
LINE
  5
1A7
100
AcDbEntity
  8
1
  6
CENTER
 62
     2
100
AcDbLine
 10
-147.694112
 20
-115.465795
 30
0.0
 11
-147.694112
 21
-162.474157
 31
0.0
  0
LINE
  5
1A8
100
AcDbEntity
  8
1
  6
CENTER
 62
     2
100
AcDbLine
 10
-240.694112
 20
-115.465795
 30
0.0
 11
-240.694112
 21
-162.474157
 31
0.0
  0
LINE
  5
1A9
100
AcDbEntity
  8
1
100
AcDbLine
 10
-203.413657
 20
-158.510397
 30
0.0
 11
-203.413657
 21
-160.460559
 31
0.0
  0
LINE
  5
1AA
100
AcDbEntity
  8
1
100
AcDbLine
 10
-184.974568
 20
-158.510397
 30
0.0
 11
-184.974568
 21
-160.460559
 31
0.0
  0
LINE
  5
1AB
100
AcDbEntity
  8
1
100
AcDbLine
 10
-186.557364
 20
-156.835467
 30
0.0
 11
-201.830861
 21
-156.835467
 31
0.0
  0
ARC
  5
1AC
100
AcDbEntity
  8
1
100
AcDbCircle
 10
-194.194112
 20
-170.114523
 30
0.0
 40
16.165808
100
AcDbArc
 50
61.809717
 51
118.190283
  0
ARC
  5
1AD
100
AcDbEntity
  8
1
100
AcDbCircle
 10
-187.974568
 20
-158.510397
 30
0.0
 40
3.0
100
AcDbArc
 50
0.0
 51
61.809717
  0
ARC
  5
1AE
100
AcDbEntity
  8
1
100
AcDbCircle
 10
-200.413657
 20
-158.510397
 30
0.0
 40
3.0
100
AcDbArc
 50
118.190283
 51
180.0
  0
LINE
  5
1AF
100
AcDbEntity
  8
1
100
AcDbLine
 10
-206.935256
 20
-117.615404
 30
0.0
 11
-206.935256
 21
-128.832544
 31
0.0
  0
LINE
  5
1B0
100
AcDbEntity
  8
1
100
AcDbLine
 10
-181.452969
 20
-117.615404
 30
0.0
 11
-181.452969
 21
-128.832544
 31
0.0
  0
ARC
  5
1B1
100
AcDbEntity
  8
1
100
AcDbCircle
 10
-194.194112
 20
-115.571402
 30
0.0
 40
19.882868
100
AcDbArc
 50
236.608942
 51
303.391058
  0
ARC
  5
1B2
100
AcDbEntity
  8
1
100
AcDbCircle
 10
-202.935256
 20
-128.832544
 30
0.0
 40
4.0
100
AcDbArc
 50
180.0
 51
236.608942
  0
ARC
  5
1B3
100
AcDbEntity
  8
1
100
AcDbCircle
 10
-185.452969
 20
-128.832544
 30
0.0
 40
4.0
100
AcDbArc
 50
303.391058
 51
360.0
  0
ARC
  5
1B4
100
AcDbEntity
  8
1
100
AcDbCircle
 10
-194.194112
 20
-138.135467
 30
0.0
 40
10.15
100
AcDbArc
 50
151.746194
 51
28.253806
  0
LINE
  5
1B5
100
AcDbEntity
  8
1
100
AcDbLine
 10
-183.251567
 20
-130.835467
 30
0.0
 11
-205.136657
 21
-130.835467
 31
0.0
  0
ARC
  5
1B6
100
AcDbEntity
  8
1
100
AcDbCircle
 10
-194.194112
 20
-138.135467
 30
0.0
 40
24.153876
100
AcDbArc
 50
292.43905
 51
58.163378
  0
ARC
  5
1B7
100
AcDbEntity
  8
1
100
AcDbCircle
 10
-194.194112
 20
-138.135467
 30
0.0
 40
24.153876
100
AcDbArc
 50
121.836622
 51
247.56095
  0
LINE
  5
1B8
100
AcDbEntity
  8
1
100
AcDbLine
 10
175.468825
 20
-138.135467
 30
0.0
 11
138.468825
 21
-138.135467
 31
0.0
  0
LINE
  5
1B9
100
AcDbEntity
  8
1
100
AcDbLine
 10
-136.194112
 20
-138.135467
 30
0.0
 11
-149.194112
 21
-138.135467
 31
0.0
  0
LINE
  5
1BA
100
AcDbEntity
  8
1
100
AcDbLine
 10
-252.194112
 20
-138.135467
 30
0.0
 11
-239.194112
 21
-138.135467
 31
0.0
  0
LINE
  5
1BB
100
AcDbEntity
  8
1
100
AcDbLine
 10
-181.452969
 20
-117.615404
 30
0.0
 11
-206.935256
 21
-117.615404
 31
0.0
  0
LINE
  5
1BC
100
AcDbEntity
  8
1
100
AcDbLine
 10
-184.974568
 20
-160.460559
 30
0.0
 11
-203.413657
 21
-160.460559
 31
0.0
  0
ARC
  5
1BD
100
AcDbEntity
  8
1
100
AcDbCircle
 10
-188.270762
 20
-160.460559
 30
0.0
 40
3.296195
100
AcDbArc
 50
354.793303
 51
360.0
  0
ARC
  5
1BE
100
AcDbEntity
  8
1
100
AcDbCircle
 10
-200.117462
 20
-160.460559
 30
0.0
 40
3.296195
100
AcDbArc
 50
180.0
 51
185.206697
  0
ARC
  5
1BF
100
AcDbEntity
  8
1
100
AcDbCircle
 10
-185.3472
 20
-117.615404
 30
0.0
 40
3.894231
100
AcDbArc
 50
0.0
 51
32.705846
  0
ARC
  5
1C0
100
AcDbEntity
  8
1
100
AcDbCircle
 10
-203.041025
 20
-117.615404
 30
0.0
 40
3.894231
100
AcDbArc
 50
147.294154
 51
180.0
  0
LINE
  5
1C1
100
AcDbEntity
  8
1
  6
DASHED
100
AcDbLine
 10
-231.942291
 20
133.407236
 30
0.0
 11
-231.942291
 21
138.407236
 31
0.0
  0
LINE
  5
1C2
100
AcDbEntity
  8
1
  6
DASHED
100
AcDbLine
 10
-231.942291
 20
167.407236
 30
0.0
 11
-231.942291
 21
170.407236
 31
0.0
  0
LINE
  5
1C3
100
AcDbEntity
  8
1
  6
DASHED
100
AcDbLine
 10
-156.445934
 20
133.407236
 30
0.0
 11
-156.445934
 21
138.407236
 31
0.0
  0
LINE
  5
1C4
100
AcDbEntity
  8
1
  6
DASHED
100
AcDbLine
 10
-156.445934
 20
167.407236
 30
0.0
 11
-156.445934
 21
170.407236
 31
0.0
  0
ARC
  5
1C5
100
AcDbEntity
  8
1
  6
DASHED
100
AcDbCircle
 10
-226.013917
 20
116.948292
 30
0.0
 40
22.262792
100
AcDbArc
 50
98.21268
 51
105.443658
  0
ARC
  5
1C6
100
AcDbEntity
  8
1
  6
DASHED
100
AcDbCircle
 10
-162.374307
 20
116.948292
 30
0.0
 40
22.262792
100
AcDbArc
 50
74.556342
 51
81.78732
  0
ARC
  5
1C7
100
AcDbEntity
  8
1
100
AcDbCircle
 10
122.00988
 20
-106.315662
 30
0.0
 40
22.262792
100
AcDbArc
 50
0.0
 51
15.443658
  0
ARC
  5
1C8
100
AcDbEntity
  8
1
100
AcDbCircle
 10
140.940137
 20
-106.315662
 30
0.0
 40
3.332536
100
AcDbArc
 50
319.357467
 51
360.0
  0
LINE
  5
1C9
100
AcDbEntity
  8
1
100
AcDbLine
 10
143.468825
 20
-120.135467
 30
0.0
 11
143.468825
 21
-108.486268
 31
0.0
  0
LINE
  5
1CA
100
AcDbEntity
  8
1
100
AcDbLine
 10
143.468825
 20
-100.387289
 30
0.0
 11
143.468825
 21
-97.168983
 31
0.0
  0
ARC
  5
1CB
100
AcDbEntity
  8
1
100
AcDbCircle
 10
172.997513
 20
-106.315662
 30
0.0
 40
3.332536
100
AcDbArc
 50
180.0
 51
220.642533
  0
ARC
  5
1CC
100
AcDbEntity
  8
1
100
AcDbCircle
 10
181.665809
 20
-106.315662
 30
0.0
 40
12.000832
100
AcDbArc
 50
156.870873
 51
180.0
  0
ARC
  5
1CD
100
AcDbEntity
  8
1
100
AcDbCircle
 10
122.00988
 20
-169.955272
 30
0.0
 40
22.262792
100
AcDbArc
 50
344.556342
 51
360.0
  0
ARC
  5
1CE
100
AcDbEntity
  8
1
100
AcDbCircle
 10
140.940137
 20
-169.955272
 30
0.0
 40
3.332536
100
AcDbArc
 50
0.0
 51
40.642533
  0
LINE
  5
1CF
100
AcDbEntity
  8
1
100
AcDbLine
 10
143.468825
 20
-179.712126
 30
0.0
 11
143.468825
 21
-175.883646
 31
0.0
  0
LINE
  5
1D0
100
AcDbEntity
  8
1
100
AcDbLine
 10
143.468825
 20
-167.784666
 30
0.0
 11
143.468825
 21
-159.235712
 31
0.0
  0
ARC
  5
1D1
100
AcDbEntity
  8
1
100
AcDbCircle
 10
172.997513
 20
-169.955272
 30
0.0
 40
3.332536
100
AcDbArc
 50
139.357467
 51
180.0
  0
ARC
  5
1D2
100
AcDbEntity
  8
1
100
AcDbCircle
 10
191.92777
 20
-169.955272
 30
0.0
 40
22.262792
100
AcDbArc
 50
180.0
 51
195.443658
  0
LINE
  5
1D3
100
AcDbEntity
  8
1
100
AcDbLine
 10
170.468825
 20
-179.712126
 30
0.0
 11
170.468825
 21
-175.883646
 31
0.0
  0
LINE
  5
1D4
100
AcDbEntity
  8
1
100
AcDbLine
 10
170.468825
 20
-167.784666
 30
0.0
 11
170.468825
 21
-159.235712
 31
0.0
  0
LINE
  5
1D5
100
AcDbEntity
  8
1
100
AcDbLine
 10
125.968825
 20
-31.635467
 30
0.0
 11
187.968825
 21
-31.635467
 31
0.0
  0
ARC
  5
1D6
100
AcDbEntity
  8
1
  6
DASHED
100
AcDbCircle
 10
-144.850295
 20
170.407236
 30
0.0
 40
1.343817
100
AcDbArc
 50
180.0
 51
201.189518
  0
ARC
  5
1D7
100
AcDbEntity
  8
1
100
AcDbCircle
 10
-144.850295
 20
170.407236
 30
0.0
 40
1.343817
100
AcDbArc
 50
201.189518
 51
255.0
  0
LINE
  5
1D8
100
AcDbEntity
  8
1
  6
DASHED
100
AcDbLine
 10
-139.085588
 20
167.471365
 30
0.0
 11
-144.686759
 21
168.972195
 31
0.0
  0
LINE
  5
1D9
100
AcDbEntity
  8
1
100
AcDbLine
 10
-144.686759
 20
168.972195
 30
0.0
 11
-145.1981
 21
169.109208
 31
0.0
  0
LINE
  5
1DA
100
AcDbEntity
  8
1
100
AcDbLine
 10
-242.194112
 20
133.407236
 30
0.0
 11
-240.6457
 21
133.407236
 31
0.0
  0
LINE
  5
1DB
100
AcDbEntity
  8
1
  6
DASHED
100
AcDbLine
 10
-240.6457
 20
133.407236
 30
0.0
 11
-229.194112
 21
133.407236
 31
0.0
  0
LINE
  5
1DC
100
AcDbEntity
  8
1
100
AcDbLine
 10
-247.563328
 20
136.343107
 30
0.0
 11
-241.108126
 21
134.613441
 31
0.0
  0
LINE
  5
1DD
100
AcDbEntity
  8
1
  6
DASHED
100
AcDbLine
 10
-241.108126
 20
134.613441
 30
0.0
 11
-241.013086
 21
134.587975
 31
0.0
  0
ARC
  5
1DE
100
AcDbEntity
  8
1
  6
DASHED
100
AcDbCircle
 10
-240.694112
 20
151.907236
 30
0.0
 40
5.0
100
AcDbArc
 50
227.733446
 51
132.266554
  0
ARC
  5
1DF
100
AcDbEntity
  8
1
100
AcDbCircle
 10
-240.694112
 20
151.907236
 30
0.0
 40
5.0
100
AcDbArc
 50
132.266554
 51
227.733446
  0
ARC
  5
1E0
100
AcDbEntity
  8
1
  6
DASHED
 62
     2
100
AcDbCircle
 10
-240.694112
 20
151.907236
 30
0.0
 40
4.188
100
AcDbArc
 50
214.700334
 51
145.299666
  0
ARC
  5
1E1
100
AcDbEntity
  8
1
 62
     2
100
AcDbCircle
 10
-240.694112
 20
151.907236
 30
0.0
 40
4.188
100
AcDbArc
 50
145.299666
 51
214.700334
  0
LINE
  5
1E2
100
AcDbEntity
  8
1
100
AcDbLine
 10
-242.194112
 20
170.407236
 30
0.0
 11
-240.6457
 21
170.407236
 31
0.0
  0
LINE
  5
1E3
100
AcDbEntity
  8
1
  6
DASHED
100
AcDbLine
 10
-240.6457
 20
170.407236
 30
0.0
 11
-229.194112
 21
170.407236
 31
0.0
  0
LINE
  5
1E4
100
AcDbEntity
  8
1
100
AcDbLine
 10
-247.563147
 20
167.471414
 30
0.0
 11
-241.108126
 21
169.201032
 31
0.0
  0
LINE
  5
1E5
100
AcDbEntity
  8
1
  6
DASHED
100
AcDbLine
 10
-241.108126
 20
169.201032
 30
0.0
 11
-241.013086
 21
169.226498
 31
0.0
  0
LINE
  5
1E6
100
AcDbEntity
  8
1
100
AcDbLine
 10
-201.194112
 20
-17.035467
 30
0.0
 11
-201.194112
 21
-8.635467
 31
0.0
  0
LINE
  5
1E7
100
AcDbEntity
  8
1
100
AcDbLine
 10
-187.194112
 20
-17.035467
 30
0.0
 11
-187.194112
 21
-8.635467
 31
0.0
  0
ARC
  5
1E8
100
AcDbEntity
  8
1
100
AcDbCircle
 10
154.825968
 20
-48.378324
 30
0.0
 40
2.857143
100
AcDbArc
 50
180.0
 51
270.0
  0
ARC
  5
1E9
100
AcDbEntity
  8
1
100
AcDbCircle
 10
157.411682
 20
-45.39261
 30
0.0
 40
2.857143
100
AcDbArc
 50
0.0
 51
90.0
  0
ARC
  5
1EA
100
AcDbEntity
  8
1
100
AcDbCircle
 10
154.797396
 20
-46.664039
 30
0.0
 40
1.428571
100
AcDbArc
 50
90.0
 51
180.0
  0
ARC
  5
1EB
100
AcDbEntity
  8
1
100
AcDbCircle
 10
157.440253
 20
-47.106896
 30
0.0
 40
1.428571
100
AcDbArc
 50
270.0
 51
0.0
  0
LINE
  5
1EC
100
AcDbEntity
  8
1
100
AcDbLine
 10
158.868825
 20
-54.635467
 30
0.0
 11
151.968825
 21
-54.335467
 31
0.0
  0
LINE
  5
1ED
100
AcDbEntity
  8
1
100
AcDbLine
 10
158.868825
 20
-59.335467
 30
0.0
 11
151.968825
 21
-59.635467
 31
0.0
  0
LINE
  5
1EE
100
AcDbEntity
  8
1
100
AcDbLine
 10
158.868825
 20
-54.635467
 30
0.0
 11
151.968825
 21
-55.921182
 31
0.0
  0
LINE
  5
1EF
100
AcDbEntity
  8
1
100
AcDbLine
 10
155.297396
 20
-56.985467
 30
0.0
 11
160.268825
 21
-57.91182
 31
0.0
  0
LINE
  5
1F0
100
AcDbEntity
  8
1
100
AcDbLine
 10
160.268825
 20
-52.235467
 30
0.0
 11
160.268825
 21
-56.059114
 31
0.0
  0
LINE
  5
1F1
100
AcDbEntity
  8
1
100
AcDbLine
 10
151.968825
 20
-55.921182
 30
0.0
 11
151.968825
 21
-58.049753
 31
0.0
  0
ARC
  5
1F2
100
AcDbEntity
  8
1
100
AcDbCircle
 10
154.825968
 20
-68.578324
 30
0.0
 40
2.857143
100
AcDbArc
 50
180.0
 51
270.0
  0
ARC
  5
1F3
100
AcDbEntity
  8
1
100
AcDbCircle
 10
154.797396
 20
-67.306896
 30
0.0
 40
1.428571
100
AcDbArc
 50
180.0
 51
270.0
  0
LINE
  5
1F4
100
AcDbEntity
  8
1
100
AcDbLine
 10
157.440253
 20
-65.435467
 30
0.0
 11
154.797396
 21
-65.435467
 31
0.0
  0
ARC
  5
1F5
100
AcDbEntity
  8
1
100
AcDbCircle
 10
157.411682
 20
-65.59261
 30
0.0
 40
2.857143
100
AcDbArc
 50
0.0
 51
90.0
  0
LINE
  5
1F6
100
AcDbEntity
  8
1
100
AcDbLine
 10
157.411682
 20
-62.735467
 30
0.0
 11
154.825968
 21
-62.735467
 31
0.0
  0
LINE
  5
1F7
100
AcDbEntity
  8
1
100
AcDbLine
 10
151.968825
 20
-59.635467
 30
0.0
 11
151.968825
 21
-62.335467
 31
0.0
  0
LINE
  5
1F8
100
AcDbEntity
  8
1
100
AcDbLine
 10
152.168825
 20
-72.135467
 30
0.0
 11
152.168825
 21
-78.635467
 31
0.0
  0
LINE
  5
1F9
100
AcDbEntity
  8
1
100
AcDbLine
 10
155.368825
 20
-74.835467
 30
0.0
 11
155.368825
 21
-78.635467
 31
0.0
  0
LINE
  5
1FA
100
AcDbEntity
  8
1
100
AcDbLine
 10
156.868825
 20
-74.835467
 30
0.0
 11
156.868825
 21
-78.635467
 31
0.0
  0
LINE
  5
1FB
100
AcDbEntity
  8
1
100
AcDbLine
 10
153.668825
 20
-74.835467
 30
0.0
 11
155.368825
 21
-74.835467
 31
0.0
  0
LINE
  5
1FC
100
AcDbEntity
  8
1
100
AcDbLine
 10
156.868825
 20
-74.835467
 30
0.0
 11
158.568825
 21
-74.835467
 31
0.0
  0
LINE
  5
1FD
100
AcDbEntity
  8
1
100
AcDbLine
 10
158.568825
 20
-39.135467
 30
0.0
 11
158.568825
 21
-41.835467
 31
0.0
  0
LINE
  5
1FE
100
AcDbEntity
  8
1
100
AcDbLine
 10
156.868825
 20
-35.635467
 30
0.0
 11
161.968825
 21
-46.135467
 31
0.0
  0
LINE
  5
1FF
100
AcDbEntity
  8
1
100
AcDbLine
 10
156.868825
 20
-35.635467
 30
0.0
 11
161.968825
 21
-35.635467
 31
0.0
  0
LINE
  5
200
100
AcDbEntity
  8
1
100
AcDbLine
 10
158.568825
 20
-41.835467
 30
0.0
 11
151.968825
 21
-41.835467
 31
0.0
  0
LINE
  5
201
100
AcDbEntity
  8
1
100
AcDbLine
 10
157.411682
 20
-42.535467
 30
0.0
 11
154.825968
 21
-42.535467
 31
0.0
  0
LINE
  5
202
100
AcDbEntity
  8
1
100
AcDbLine
 10
157.411682
 20
-51.235467
 30
0.0
 11
154.825968
 21
-51.235467
 31
0.0
  0
LINE
  5
203
100
AcDbEntity
  8
1
100
AcDbLine
 10
157.440253
 20
-45.235467
 30
0.0
 11
154.797396
 21
-45.235467
 31
0.0
  0
LINE
  5
204
100
AcDbEntity
  8
1
100
AcDbLine
 10
157.440253
 20
-48.535467
 30
0.0
 11
154.797396
 21
-48.535467
 31
0.0
  0
ARC
  5
205
100
AcDbEntity
  8
1
100
AcDbCircle
 10
154.825968
 20
-45.39261
 30
0.0
 40
2.857143
100
AcDbArc
 50
90.0
 51
180.0
  0
ARC
  5
206
100
AcDbEntity
  8
1
100
AcDbCircle
 10
157.411682
 20
-48.378324
 30
0.0
 40
2.857143
100
AcDbArc
 50
270.0
 51
360.0
  0
ARC
  5
207
100
AcDbEntity
  8
1
100
AcDbCircle
 10
154.797396
 20
-47.106896
 30
0.0
 40
1.428571
100
AcDbArc
 50
180.0
 51
270.0
  0
ARC
  5
208
100
AcDbEntity
  8
1
100
AcDbCircle
 10
157.440253
 20
-46.664039
 30
0.0
 40
1.428571
100
AcDbArc
 50
360.0
 51
90.0
  0
LINE
  5
209
100
AcDbEntity
  8
1
100
AcDbLine
 10
151.968825
 20
-39.135467
 30
0.0
 11
151.968825
 21
-41.835467
 31
0.0
  0
LINE
  5
20A
100
AcDbEntity
  8
1
100
AcDbLine
 10
160.268825
 20
-52.235467
 30
0.0
 11
151.968825
 21
-51.635467
 31
0.0
  0
LINE
  5
20B
100
AcDbEntity
  8
1
100
AcDbLine
 10
160.268825
 20
-61.735467
 30
0.0
 11
151.968825
 21
-62.335467
 31
0.0
  0
LINE
  5
20C
100
AcDbEntity
  8
1
100
AcDbLine
 10
158.868825
 20
-59.335467
 30
0.0
 11
151.968825
 21
-58.049753
 31
0.0
  0
LINE
  5
20D
100
AcDbEntity
  8
1
100
AcDbLine
 10
155.297396
 20
-56.985467
 30
0.0
 11
160.268825
 21
-56.059114
 31
0.0
  0
LINE
  5
20E
100
AcDbEntity
  8
1
100
AcDbLine
 10
160.268825
 20
-45.39261
 30
0.0
 11
160.268825
 21
-48.378324
 31
0.0
  0
LINE
  5
20F
100
AcDbEntity
  8
1
100
AcDbLine
 10
151.968825
 20
-45.39261
 30
0.0
 11
151.968825
 21
-48.378324
 31
0.0
  0
LINE
  5
210
100
AcDbEntity
  8
1
100
AcDbLine
 10
151.968825
 20
-51.635467
 30
0.0
 11
151.968825
 21
-54.335467
 31
0.0
  0
ARC
  5
211
100
AcDbEntity
  8
1
100
AcDbCircle
 10
154.825968
 20
-65.59261
 30
0.0
 40
2.857143
100
AcDbArc
 50
90.0
 51
180.0
  0
LINE
  5
212
100
AcDbEntity
  8
1
100
AcDbLine
 10
157.440253
 20
-68.735467
 30
0.0
 11
154.797396
 21
-68.735467
 31
0.0
  0
ARC
  5
213
100
AcDbEntity
  8
1
100
AcDbCircle
 10
154.797396
 20
-66.864039
 30
0.0
 40
1.428571
100
AcDbArc
 50
90.0
 51
180.0
  0
ARC
  5
214
100
AcDbEntity
  8
1
100
AcDbCircle
 10
157.440253
 20
-67.306896
 30
0.0
 40
1.428571
100
AcDbArc
 50
270.0
 51
360.0
  0
ARC
  5
215
100
AcDbEntity
  8
1
100
AcDbCircle
 10
157.440253
 20
-66.864039
 30
0.0
 40
1.428571
100
AcDbArc
 50
0.0
 51
90.0
  0
ARC
  5
216
100
AcDbEntity
  8
1
100
AcDbCircle
 10
157.411682
 20
-68.578324
 30
0.0
 40
2.857143
100
AcDbArc
 50
270.0
 51
360.0
  0
LINE
  5
217
100
AcDbEntity
  8
1
100
AcDbLine
 10
157.411682
 20
-71.435467
 30
0.0
 11
154.825968
 21
-71.435467
 31
0.0
  0
LINE
  5
218
100
AcDbEntity
  8
1
100
AcDbLine
 10
158.868825
 20
-47.106896
 30
0.0
 11
158.868825
 21
-46.664039
 31
0.0
  0
LINE
  5
219
100
AcDbEntity
  8
1
100
AcDbLine
 10
153.368825
 20
-47.106896
 30
0.0
 11
153.368825
 21
-46.664039
 31
0.0
  0
LINE
  5
21A
100
AcDbEntity
  8
1
100
AcDbLine
 10
158.868825
 20
-66.864039
 30
0.0
 11
158.868825
 21
-67.306896
 31
0.0
  0
LINE
  5
21B
100
AcDbEntity
  8
1
100
AcDbLine
 10
160.268825
 20
-57.91182
 30
0.0
 11
160.268825
 21
-61.735467
 31
0.0
  0
LINE
  5
21C
100
AcDbEntity
  8
1
100
AcDbLine
 10
160.268825
 20
-65.59261
 30
0.0
 11
160.268825
 21
-68.578324
 31
0.0
  0
LINE
  5
21D
100
AcDbEntity
  8
1
100
AcDbLine
 10
151.968825
 20
-65.59261
 30
0.0
 11
151.968825
 21
-68.578324
 31
0.0
  0
LINE
  5
21E
100
AcDbEntity
  8
1
100
AcDbLine
 10
160.068825
 20
-72.135467
 30
0.0
 11
152.168825
 21
-72.135467
 31
0.0
  0
LINE
  5
21F
100
AcDbEntity
  8
1
100
AcDbLine
 10
160.068825
 20
-72.135467
 30
0.0
 11
160.068825
 21
-78.635467
 31
0.0
  0
LINE
  5
220
100
AcDbEntity
  8
1
100
AcDbLine
 10
153.668825
 20
-74.835467
 30
0.0
 11
153.668825
 21
-78.635467
 31
0.0
  0
LINE
  5
221
100
AcDbEntity
  8
1
100
AcDbLine
 10
158.568825
 20
-74.835467
 30
0.0
 11
158.568825
 21
-78.635467
 31
0.0
  0
LINE
  5
222
100
AcDbEntity
  8
1
100
AcDbLine
 10
158.568825
 20
-78.635467
 30
0.0
 11
160.068825
 21
-78.635467
 31
0.0
  0
LINE
  5
223
100
AcDbEntity
  8
1
100
AcDbLine
 10
152.168825
 20
-78.635467
 30
0.0
 11
153.668825
 21
-78.635467
 31
0.0
  0
LINE
  5
224
100
AcDbEntity
  8
1
100
AcDbLine
 10
155.368825
 20
-78.635467
 30
0.0
 11
156.868825
 21
-78.635467
 31
0.0
  0
LINE
  5
225
100
AcDbEntity
  8
1
100
AcDbLine
 10
158.568825
 20
-39.135467
 30
0.0
 11
151.968825
 21
-39.135467
 31
0.0
  0
LINE
  5
226
100
AcDbEntity
  8
1
100
AcDbLine
 10
153.368825
 20
-66.864039
 30
0.0
 11
153.368825
 21
-67.306896
 31
0.0
  0
LINE
  5
227
100
AcDbEntity
  8
2
  6
CENTER
 62
     2
100
AcDbLine
 10
-194.194112
 20
95.857559
 30
0.0
 11
-194.194112
 21
219.004042
 31
0.0
  0
LINE
  5
228
100
AcDbEntity
  8
2
  6
CENTER
 62
     2
100
AcDbLine
 10
-272.184192
 20
151.907236
 30
0.0
 11
15.376858
 21
151.907236
 31
0.0
  0
ARC
  5
229
100
AcDbEntity
  8
2
100
AcDbCircle
 10
-229.194112
 20
151.907236
 30
0.0
 40
2.0
100
AcDbArc
 50
111.803748
 51
248.196252
  0
LINE
  5
22A
100
AcDbEntity
  8
2
100
AcDbLine
 10
-229.936969
 20
153.764159
 30
0.0
 11
-199.76554
 21
165.834159
 31
0.0
  0
LINE
  5
22B
100
AcDbEntity
  8
2
100
AcDbLine
 10
-229.936969
 20
150.050313
 30
0.0
 11
-201.451255
 21
138.654679
 31
0.0
  0
LINE
  5
22C
100
AcDbEntity
  8
2
100
AcDbLine
 10
-199.194112
 20
134.907236
 30
0.0
 11
-189.194112
 21
134.907236
 31
0.0
  0
ARC
  5
22D
100
AcDbEntity
  8
2
100
AcDbCircle
 10
-194.194112
 20
151.907236
 30
0.0
 40
15.0
100
AcDbArc
 50
298.072487
 51
241.927513
  0
LINE
  5
22E
100
AcDbEntity
  8
2
100
AcDbLine
 10
-200.194112
 20
135.907236
 30
0.0
 11
-200.194112
 21
139.258125
 31
0.0
  0
LINE
  5
22F
100
AcDbEntity
  8
2
100
AcDbLine
 10
-188.194112
 20
135.907236
 30
0.0
 11
-188.194112
 21
139.258125
 31
0.0
  0
ARC
  5
230
100
AcDbEntity
  8
2
100
AcDbCircle
 10
-199.194112
 20
135.907236
 30
0.0
 40
1.0
100
AcDbArc
 50
180.0
 51
270.0
  0
ARC
  5
231
100
AcDbEntity
  8
2
100
AcDbCircle
 10
-202.194112
 20
136.797755
 30
0.0
 40
2.0
100
AcDbArc
 50
0.0
 51
68.196252
  0
ARC
  5
232
100
AcDbEntity
  8
2
100
AcDbCircle
 10
-186.194112
 20
136.907236
 30
0.0
 40
2.0
100
AcDbArc
 50
118.072487
 51
180.0
  0
ARC
  5
233
100
AcDbEntity
  8
2
100
AcDbCircle
 10
-202.194112
 20
136.907236
 30
0.0
 40
2.0
100
AcDbArc
 50
0.0
 51
61.927513
  0
LINE
  5
234
100
AcDbEntity
  8
2
100
AcDbLine
 10
-193.799375
 20
166.902041
 30
0.0
 11
-3.930954
 21
161.903773
 31
0.0
  0
ARC
  5
235
100
AcDbEntity
  8
2
100
AcDbCircle
 10
-99.694112
 20
138.407236
 30
0.0
 40
0.5
100
AcDbArc
 50
270.0
 51
360.0
  0
ARC
  5
236
100
AcDbEntity
  8
2
100
AcDbCircle
 10
-108.694112
 20
138.407236
 30
0.0
 40
0.5
100
AcDbArc
 50
167.306936
 51
270.0
  0
LINE
  5
237
100
AcDbEntity
  8
2
100
AcDbLine
 10
-108.694112
 20
137.907236
 30
0.0
 11
-99.694112
 21
137.907236
 31
0.0
  0
LINE
  5
238
100
AcDbEntity
  8
2
100
AcDbLine
 10
-99.194112
 20
138.407236
 30
0.0
 11
-99.194112
 21
138.915895
 31
0.0
  0
ARC
  5
239
100
AcDbEntity
  8
2
100
AcDbCircle
 10
-109.669673
 20
138.626964
 30
0.0
 40
0.5
100
AcDbArc
 50
347.306936
 51
91.507958
  0
ARC
  5
23A
100
AcDbEntity
  8
2
100
AcDbCircle
 10
-98.694112
 20
138.915895
 30
0.0
 40
0.5
100
AcDbArc
 50
91.507958
 51
180.0
  0
LINE
  5
23B
100
AcDbEntity
  8
2
100
AcDbLine
 10
-186.354862
 20
137.108407
 30
0.0
 11
-3.930954
 21
141.910699
 31
0.0
  0
ARC
  5
23C
100
AcDbEntity
  8
2
100
AcDbCircle
 10
-98.694112
 20
164.898577
 30
0.0
 40
0.5
100
AcDbArc
 50
180.0
 51
268.492042
  0
ARC
  5
23D
100
AcDbEntity
  8
2
100
AcDbCircle
 10
-109.669673
 20
165.187508
 30
0.0
 40
0.5
100
AcDbArc
 50
268.492042
 51
12.693064
  0
LINE
  5
23E
100
AcDbEntity
  8
2
100
AcDbLine
 10
-99.194112
 20
165.407236
 30
0.0
 11
-99.194112
 21
164.898577
 31
0.0
  0
LINE
  5
23F
100
AcDbEntity
  8
2
100
AcDbLine
 10
-108.694112
 20
165.907236
 30
0.0
 11
-99.694112
 21
165.907236
 31
0.0
  0
ARC
  5
240
100
AcDbEntity
  8
2
100
AcDbCircle
 10
-108.694112
 20
165.407236
 30
0.0
 40
0.5
100
AcDbArc
 50
90.0
 51
192.693064
  0
ARC
  5
241
100
AcDbEntity
  8
2
100
AcDbCircle
 10
-99.694112
 20
165.407236
 30
0.0
 40
0.5
100
AcDbArc
 50
0.0
 51
90.0
  0
ARC
  5
242
100
AcDbEntity
  8
2
100
AcDbCircle
 10
-186.30223
 20
135.1091
 30
0.0
 40
2.0
100
AcDbArc
 50
91.507958
 51
164.570915
  0
ARC
  5
243
100
AcDbEntity
  8
2
100
AcDbCircle
 10
-189.194112
 20
135.907236
 30
0.0
 40
1.0
100
AcDbArc
 50
270.0
 51
360.0
  0
LINE
  5
244
100
AcDbEntity
  8
2
  6
CENTER
 62
     2
100
AcDbLine
 10
-104.194112
 20
169.499263
 30
0.0
 11
-104.194112
 21
134.17605
 31
0.0
  0
LINE
  5
245
100
AcDbEntity
  8
2
100
AcDbLine
 10
-191.697055
 20
157.540947
 30
0.0
 11
-188.007768
 21
157.540947
 31
0.0
  0
LINE
  5
246
100
AcDbEntity
  8
2
100
AcDbLine
 10
-187.960981
 20
157.342753
 30
0.0
 11
-191.580087
 21
155.5332
 31
0.0
  0
CIRCLE
  5
247
100
AcDbEntity
  8
2
100
AcDbCircle
 10
-194.194112
 20
151.907236
 30
0.0
 40
14.0
  0
LINE
  5
248
100
AcDbEntity
  8
2
100
AcDbLine
 10
-192.302681
 20
155.145748
 30
0.0
 11
-195.921788
 21
153.336195
 31
0.0
  0
LINE
  5
249
100
AcDbEntity
  8
2
100
AcDbLine
 10
-196.300304
 20
153.570131
 30
0.0
 11
-196.300304
 21
155.082394
 31
0.0
  0
LINE
  5
24A
100
AcDbEntity
  8
2
100
AcDbLine
 10
-196.644381
 20
155.145748
 30
0.0
 11
-200.344714
 21
153.295582
 31
0.0
  0
LINE
  5
24B
100
AcDbEntity
  8
2
100
AcDbLine
 10
-200.642004
 20
151.373126
 30
0.0
 11
-200.642004
 21
157.279399
 31
0.0
  0
LINE
  5
24C
100
AcDbEntity
  8
2
100
AcDbLine
 10
-196.644381
 20
152.948743
 30
0.0
 11
-200.263488
 21
151.13919
 31
0.0
  0
LINE
  5
24D
100
AcDbEntity
  8
2
100
AcDbLine
 10
-200.309623
 20
153.146937
 30
0.0
 11
-196.691168
 21
153.146937
 31
0.0
  0
ARC
  5
24E
100
AcDbEntity
  8
2
100
AcDbCircle
 10
-200.380456
 20
151.373126
 30
0.0
 40
0.261548
100
AcDbArc
 50
180.0
 51
296.565051
  0
ARC
  5
24F
100
AcDbEntity
  8
2
100
AcDbCircle
 10
-200.309623
 20
153.225401
 30
0.0
 40
0.078464
100
AcDbArc
 50
116.565051
 51
270.0
  0
LINE
  5
250
100
AcDbEntity
  8
2
100
AcDbLine
 10
-196.143375
 20
144.803549
 30
0.0
 11
-192.409965
 21
144.803549
 31
0.0
  0
LINE
  5
251
100
AcDbEntity
  8
2
100
AcDbLine
 10
-196.143375
 20
153.146937
 30
0.0
 11
-192.409965
 21
153.146937
 31
0.0
  0
LINE
  5
252
100
AcDbEntity
  8
2
100
AcDbLine
 10
-196.300304
 20
152.990008
 30
0.0
 11
-196.300304
 21
144.960478
 31
0.0
  0
ARC
  5
253
100
AcDbEntity
  8
2
100
AcDbCircle
 10
-196.143375
 20
144.960478
 30
0.0
 40
0.156929
100
AcDbArc
 50
180.0
 51
270.0
  0
ARC
  5
254
100
AcDbEntity
  8
2
100
AcDbCircle
 10
-196.038755
 20
153.570131
 30
0.0
 40
0.261548
100
AcDbArc
 50
180.0
 51
296.565051
  0
ARC
  5
255
100
AcDbEntity
  8
2
100
AcDbCircle
 10
-196.143375
 20
152.990008
 30
0.0
 40
0.156929
100
AcDbArc
 50
90.0
 51
180.0
  0
ARC
  5
256
100
AcDbEntity
  8
2
100
AcDbCircle
 10
-196.691168
 20
153.042318
 30
0.0
 40
0.104619
100
AcDbArc
 50
296.565051
 51
90.0
  0
LINE
  5
257
100
AcDbEntity
  8
2
100
AcDbLine
 10
-192.253036
 20
144.960478
 30
0.0
 11
-192.253036
 21
152.990008
 31
0.0
  0
ARC
  5
258
100
AcDbEntity
  8
2
100
AcDbCircle
 10
-192.409965
 20
144.960478
 30
0.0
 40
0.156929
100
AcDbArc
 50
270.0
 51
360.0
  0
ARC
  5
259
100
AcDbEntity
  8
2
100
AcDbCircle
 10
-192.409965
 20
152.990008
 30
0.0
 40
0.156929
100
AcDbArc
 50
0.0
 51
90.0
  0
LINE
  5
25A
100
AcDbEntity
  8
2
100
AcDbLine
 10
-200.380456
 20
157.540947
 30
0.0
 11
-196.691168
 21
157.540947
 31
0.0
  0
LINE
  5
25B
100
AcDbEntity
  8
2
100
AcDbLine
 10
-200.309623
 20
155.343942
 30
0.0
 11
-196.691168
 21
155.343942
 31
0.0
  0
LINE
  5
25C
100
AcDbEntity
  8
2
100
AcDbLine
 10
-196.644381
 20
157.342753
 30
0.0
 11
-200.344714
 21
155.492587
 31
0.0
  0
ARC
  5
25D
100
AcDbEntity
  8
2
100
AcDbCircle
 10
-200.380456
 20
157.279399
 30
0.0
 40
0.261548
100
AcDbArc
 50
90.0
 51
180.0
  0
ARC
  5
25E
100
AcDbEntity
  8
2
100
AcDbCircle
 10
-200.309623
 20
155.422406
 30
0.0
 40
0.078464
100
AcDbArc
 50
116.565051
 51
270.0
  0
LINE
  5
25F
100
AcDbEntity
  8
2
100
AcDbLine
 10
-196.038755
 20
157.540947
 30
0.0
 11
-192.349468
 21
157.540947
 31
0.0
  0
LINE
  5
260
100
AcDbEntity
  8
2
100
AcDbLine
 10
-196.038755
 20
155.343942
 30
0.0
 11
-192.349468
 21
155.343942
 31
0.0
  0
LINE
  5
261
100
AcDbEntity
  8
2
100
AcDbLine
 10
-192.302681
 20
157.342753
 30
0.0
 11
-195.921788
 21
155.5332
 31
0.0
  0
ARC
  5
262
100
AcDbEntity
  8
2
100
AcDbCircle
 10
-196.038755
 20
157.279399
 30
0.0
 40
0.261548
100
AcDbArc
 50
90.0
 51
180.0
  0
ARC
  5
263
100
AcDbEntity
  8
2
100
AcDbCircle
 10
-196.691168
 20
157.436328
 30
0.0
 40
0.104619
100
AcDbArc
 50
296.565051
 51
90.0
  0
ARC
  5
264
100
AcDbEntity
  8
2
100
AcDbCircle
 10
-196.038755
 20
155.767136
 30
0.0
 40
0.261548
100
AcDbArc
 50
180.0
 51
296.565051
  0
ARC
  5
265
100
AcDbEntity
  8
2
100
AcDbCircle
 10
-196.038755
 20
155.082394
 30
0.0
 40
0.261548
100
AcDbArc
 50
90.0
 51
180.0
  0
ARC
  5
266
100
AcDbEntity
  8
2
100
AcDbCircle
 10
-196.691168
 20
155.239323
 30
0.0
 40
0.104619
100
AcDbArc
 50
296.565051
 51
90.0
  0
LINE
  5
267
100
AcDbEntity
  8
2
100
AcDbLine
 10
-196.300304
 20
155.767136
 30
0.0
 11
-196.300304
 21
157.279399
 31
0.0
  0
ARC
  5
268
100
AcDbEntity
  8
2
100
AcDbCircle
 10
-191.697055
 20
157.279399
 30
0.0
 40
0.261548
100
AcDbArc
 50
90.0
 51
180.0
  0
ARC
  5
269
100
AcDbEntity
  8
2
100
AcDbCircle
 10
-192.349468
 20
157.436328
 30
0.0
 40
0.104619
100
AcDbArc
 50
296.565051
 51
90.0
  0
ARC
  5
26A
100
AcDbEntity
  8
2
100
AcDbCircle
 10
-191.697055
 20
155.767136
 30
0.0
 40
0.261548
100
AcDbArc
 50
180.0
 51
296.565051
  0
ARC
  5
26B
100
AcDbEntity
  8
2
100
AcDbCircle
 10
-192.349468
 20
155.239323
 30
0.0
 40
0.104619
100
AcDbArc
 50
296.565051
 51
90.0
  0
LINE
  5
26C
100
AcDbEntity
  8
2
100
AcDbLine
 10
-191.958603
 20
155.767136
 30
0.0
 11
-191.958603
 21
157.279399
 31
0.0
  0
ARC
  5
26D
100
AcDbEntity
  8
2
100
AcDbCircle
 10
-188.007768
 20
157.436328
 30
0.0
 40
0.104619
100
AcDbArc
 50
296.565051
 51
90.0
  0
LINE
  5
26E
100
AcDbEntity
  8
2
100
AcDbLine
 10
-194.656052
 20
204.022457
 30
0.0
 11
-197.738258
 21
211.463561
 31
0.0
  0
LINE
  5
26F
100
AcDbEntity
  8
2
100
AcDbLine
 10
-193.732172
 20
204.022457
 30
0.0
 11
-190.649966
 21
211.463561
 31
0.0
  0
ARC
  5
270
100
AcDbEntity
  8
2
100
AcDbCircle
 10
-194.194112
 20
204.213799
 30
0.0
 40
0.5
100
AcDbArc
 50
202.5
 51
337.5
  0
ARC
  5
271
100
AcDbEntity
  8
2
100
AcDbCircle
 10
-198.200198
 20
211.27222
 30
0.0
 40
0.5
100
AcDbArc
 50
22.5
 51
93.860598
  0
ARC
  5
272
100
AcDbEntity
  8
2
100
AcDbCircle
 10
-190.188026
 20
211.27222
 30
0.0
 40
0.5
100
AcDbArc
 50
86.139402
 51
157.5
  0
ARC
  5
273
100
AcDbEntity
  8
2
100
AcDbCircle
 10
-179.940266
 20
209.674683
 30
0.0
 40
0.5
100
AcDbArc
 50
76.139402
 51
147.5
  0
ARC
  5
274
100
AcDbEntity
  8
2
100
AcDbCircle
 10
-187.830715
 20
211.065982
 30
0.0
 40
0.5
100
AcDbArc
 50
12.5
 51
83.860598
  0
ARC
  5
275
100
AcDbEntity
  8
2
100
AcDbCircle
 10
-185.111172
 20
203.419145
 30
0.0
 40
0.5
100
AcDbArc
 50
192.5
 51
327.5
  0
LINE
  5
276
100
AcDbEntity
  8
2
100
AcDbLine
 10
-184.689477
 20
203.150495
 30
0.0
 11
-180.361962
 21
209.943332
 31
0.0
  0
LINE
  5
277
100
AcDbEntity
  8
2
100
AcDbLine
 10
-185.59932
 20
203.310925
 30
0.0
 11
-187.342567
 21
211.174201
 31
0.0
  0
ARC
  5
278
100
AcDbEntity
  8
2
100
AcDbCircle
 10
-170.125602
 20
206.321911
 30
0.0
 40
0.5
100
AcDbArc
 50
66.139402
 51
137.5
  0
ARC
  5
279
100
AcDbEntity
  8
2
100
AcDbCircle
 10
-177.654581
 20
209.062235
 30
0.0
 40
0.5
100
AcDbArc
 50
2.5
 51
73.860598
  0
ARC
  5
27A
100
AcDbEntity
  8
2
100
AcDbCircle
 10
-176.304214
 20
201.059327
 30
0.0
 40
0.5
100
AcDbArc
 50
182.5
 51
317.5
  0
LINE
  5
27B
100
AcDbEntity
  8
2
100
AcDbLine
 10
-175.935575
 20
200.721532
 30
0.0
 11
-170.494241
 21
206.659706
 31
0.0
  0
LINE
  5
27C
100
AcDbEntity
  8
2
100
AcDbLine
 10
-176.803738
 20
201.037518
 30
0.0
 11
-177.155057
 21
209.084045
 31
0.0
  0
ARC
  5
27D
100
AcDbEntity
  8
2
100
AcDbCircle
 10
-161.042248
 20
201.315777
 30
0.0
 40
0.5
100
AcDbArc
 50
56.139402
 51
127.5
  0
ARC
  5
27E
100
AcDbEntity
  8
2
100
AcDbCircle
 10
-167.980992
 20
205.321863
 30
0.0
 40
0.5
100
AcDbArc
 50
352.5
 51
63.860598
  0
ARC
  5
27F
100
AcDbEntity
  8
2
100
AcDbCircle
 10
-168.04083
 20
197.206048
 30
0.0
 40
0.5
100
AcDbArc
 50
172.5
 51
307.5
  0
LINE
  5
280
100
AcDbEntity
  8
2
100
AcDbLine
 10
-167.73645
 20
196.809372
 30
0.0
 11
-161.346629
 21
201.712454
 31
0.0
  0
LINE
  5
281
100
AcDbEntity
  8
2
100
AcDbLine
 10
-168.536553
 20
197.271311
 30
0.0
 11
-167.48527
 21
205.2566
 31
0.0
  0
ARC
  5
282
100
AcDbEntity
  8
2
100
AcDbCircle
 10
-152.966196
 20
194.80839
 30
0.0
 40
0.5
100
AcDbArc
 50
46.139402
 51
117.5
  0
ARC
  5
283
100
AcDbEntity
  8
2
100
AcDbCircle
 10
-159.103876
 20
199.958514
 30
0.0
 40
0.5
100
AcDbArc
 50
342.5
 51
53.860598
  0
ARC
  5
284
100
AcDbEntity
  8
2
100
AcDbCircle
 10
-160.572101
 20
191.976388
 30
0.0
 40
0.5
100
AcDbArc
 50
162.5
 51
297.5
  0
LINE
  5
285
100
AcDbEntity
  8
2
100
AcDbLine
 10
-160.341227
 20
191.532882
 30
0.0
 11
-153.19707
 21
195.251895
 31
0.0
  0
LINE
  5
286
100
AcDbEntity
  8
2
100
AcDbLine
 10
-161.04896
 20
192.126741
 30
0.0
 11
-158.627017
 21
199.808161
 31
0.0
  0
ARC
  5
287
100
AcDbEntity
  8
2
100
AcDbCircle
 10
-146.142834
 20
186.997472
 30
0.0
 40
0.5
100
AcDbArc
 50
36.139402
 51
107.5
  0
ARC
  5
288
100
AcDbEntity
  8
2
100
AcDbCircle
 10
-151.292958
 20
193.135152
 30
0.0
 40
0.5
100
AcDbArc
 50
332.5
 51
43.860598
  0
ARC
  5
289
100
AcDbEntity
  8
2
100
AcDbCircle
 10
-154.12496
 20
185.529247
 30
0.0
 40
0.5
100
AcDbArc
 50
152.5
 51
287.5
  0
LINE
  5
28A
100
AcDbEntity
  8
2
100
AcDbLine
 10
-153.974607
 20
185.052388
 30
0.0
 11
-146.293187
 21
187.474331
 31
0.0
  0
LINE
  5
28B
100
AcDbEntity
  8
2
100
AcDbLine
 10
-154.568465
 20
185.760121
 30
0.0
 11
-150.849453
 21
192.904277
 31
0.0
  0
ARC
  5
28C
100
AcDbEntity
  8
2
100
AcDbCircle
 10
-140.779485
 20
178.120356
 30
0.0
 40
0.5
100
AcDbArc
 50
26.139402
 51
97.5
  0
ARC
  5
28D
100
AcDbEntity
  8
2
100
AcDbCircle
 10
-144.785571
 20
185.0591
 30
0.0
 40
0.5
100
AcDbArc
 50
322.5
 51
33.860598
  0
ARC
  5
28E
100
AcDbEntity
  8
2
100
AcDbCircle
 10
-148.895299
 20
178.060517
 30
0.0
 40
0.5
100
AcDbArc
 50
142.5
 51
277.5
  0
LINE
  5
28F
100
AcDbEntity
  8
2
100
AcDbLine
 10
-148.830036
 20
177.564795
 30
0.0
 11
-140.844748
 21
178.616078
 31
0.0
  0
LINE
  5
290
100
AcDbEntity
  8
2
100
AcDbLine
 10
-149.291976
 20
178.364898
 30
0.0
 11
-144.388894
 21
184.754719
 31
0.0
  0
ARC
  5
291
100
AcDbEntity
  8
2
100
AcDbCircle
 10
-137.039113
 20
168.446767
 30
0.0
 40
0.5
100
AcDbArc
 50
16.139402
 51
87.5
  0
ARC
  5
292
100
AcDbEntity
  8
2
100
AcDbCircle
 10
-139.779437
 20
175.975745
 30
0.0
 40
0.5
100
AcDbArc
 50
312.5
 51
23.860598
  0
ARC
  5
293
100
AcDbEntity
  8
2
100
AcDbCircle
 10
-145.042021
 20
169.797134
 30
0.0
 40
0.5
100
AcDbArc
 50
132.5
 51
267.5
  0
LINE
  5
294
100
AcDbEntity
  8
2
100
AcDbLine
 10
-145.06383
 20
169.29761
 30
0.0
 11
-137.017303
 21
168.946291
 31
0.0
  0
LINE
  5
295
100
AcDbEntity
  8
2
100
AcDbLine
 10
-145.379816
 20
170.165773
 30
0.0
 11
-139.441642
 21
175.607107
 31
0.0
  0
ARC
  5
296
100
AcDbEntity
  8
2
100
AcDbCircle
 10
-136.426665
 20
166.161082
 30
0.0
 40
0.5
100
AcDbArc
 50
302.5
 51
13.860598
  0
LINE
  5
297
100
AcDbEntity
  8
2
100
AcDbLine
 10
-136.692761
 20
165.398715
 30
0.0
 11
-136.158015
 21
165.739386
 31
0.0
  0
ARC
  5
298
100
AcDbEntity
  8
2
100
AcDbCircle
 10
-194.194112
 20
151.907236
 30
0.0
 40
50.0
100
AcDbArc
 50
127.979872
 51
322.020128
  0
LINE
  5
299
100
AcDbEntity
  8
2
100
AcDbLine
 10
-142.959358
 20
126.907236
 30
0.0
 11
-129.194112
 21
126.907236
 31
0.0
  0
LINE
  5
29A
100
AcDbEntity
  8
2
100
AcDbLine
 10
-119.194112
 20
136.907236
 30
0.0
 11
-119.194112
 21
138.876407
 31
0.0
  0
ARC
  5
29B
100
AcDbEntity
  8
2
100
AcDbCircle
 10
-129.194112
 20
136.907236
 30
0.0
 40
10.0
100
AcDbArc
 50
270.0
 51
360.0
  0
ARC
  5
29C
100
AcDbEntity
  8
2
100
AcDbCircle
 10
-209.194112
 20
216.907236
 30
0.0
 40
10.0
100
AcDbArc
 50
90.0
 51
180.0
  0
ARC
  5
29D
100
AcDbEntity
  8
2
100
AcDbCircle
 10
-200.194112
 20
212.611437
 30
0.0
 40
1.0
100
AcDbArc
 50
180.0
 51
275.644778
  0
ARC
  5
29E
100
AcDbEntity
  8
2
100
AcDbCircle
 10
-202.194112
 20
225.907236
 30
0.0
 40
1.0
100
AcDbArc
 50
0.0
 51
90.0
  0
LINE
  5
29F
100
AcDbEntity
  8
2
100
AcDbLine
 10
-201.194112
 20
225.907236
 30
0.0
 11
-201.194112
 21
212.611437
 31
0.0
  0
LINE
  5
2A0
100
AcDbEntity
  8
2
100
AcDbLine
 10
-209.194112
 20
226.907236
 30
0.0
 11
-202.194112
 21
226.907236
 31
0.0
  0
LINE
  5
2A1
100
AcDbEntity
  8
2
100
AcDbLine
 10
-219.194112
 20
203.14199
 30
0.0
 11
-219.194112
 21
216.907236
 31
0.0
  0
ARC
  5
2A2
100
AcDbEntity
  8
2
100
AcDbCircle
 10
-142.959358
 20
111.907236
 30
0.0
 40
15.0
100
AcDbArc
 50
90.0
 51
142.020128
  0
ARC
  5
2A3
100
AcDbEntity
  8
2
100
AcDbCircle
 10
-234.194112
 20
203.14199
 30
0.0
 40
15.0
100
AcDbArc
 50
307.979872
 51
360.0
  0
ARC
  5
2A4
100
AcDbEntity
  8
2
100
AcDbCircle
 10
-194.194112
 20
151.907236
 30
0.0
 40
60.0
100
AcDbArc
 50
13.860598
 51
16.139402
  0
ARC
  5
2A5
100
AcDbEntity
  8
2
100
AcDbCircle
 10
-194.194112
 20
151.907236
 30
0.0
 40
60.0
100
AcDbArc
 50
23.860598
 51
26.139402
  0
ARC
  5
2A6
100
AcDbEntity
  8
2
100
AcDbCircle
 10
-194.194112
 20
151.907236
 30
0.0
 40
60.0
100
AcDbArc
 50
93.860598
 51
95.644778
  0
ARC
  5
2A7
100
AcDbEntity
  8
2
100
AcDbCircle
 10
-194.194112
 20
151.907236
 30
0.0
 40
60.0
100
AcDbArc
 50
83.860598
 51
86.139402
  0
ARC
  5
2A8
100
AcDbEntity
  8
2
100
AcDbCircle
 10
-194.194112
 20
151.907236
 30
0.0
 40
60.0
100
AcDbArc
 50
73.860598
 51
76.139402
  0
ARC
  5
2A9
100
AcDbEntity
  8
2
100
AcDbCircle
 10
-194.194112
 20
151.907236
 30
0.0
 40
60.0
100
AcDbArc
 50
63.860598
 51
66.139402
  0
ARC
  5
2AA
100
AcDbEntity
  8
2
100
AcDbCircle
 10
-194.194112
 20
151.907236
 30
0.0
 40
60.0
100
AcDbArc
 50
53.860598
 51
56.139402
  0
ARC
  5
2AB
100
AcDbEntity
  8
2
100
AcDbCircle
 10
-194.194112
 20
151.907236
 30
0.0
 40
60.0
100
AcDbArc
 50
43.860598
 51
46.139402
  0
ARC
  5
2AC
100
AcDbEntity
  8
2
100
AcDbCircle
 10
-194.194112
 20
151.907236
 30
0.0
 40
60.0
100
AcDbArc
 50
33.860598
 51
36.139402
  0
LINE
  5
2AD
100
AcDbEntity
  8
2
100
AcDbLine
 10
-192.072791
 20
172.413333
 30
0.0
 11
-195.608325
 21
175.948867
 31
0.0
  0
LINE
  5
2AE
100
AcDbEntity
  8
2
100
AcDbLine
 10
-192.072791
 20
179.4844
 30
0.0
 11
-195.608325
 21
175.948867
 31
0.0
  0
LINE
  5
2AF
100
AcDbEntity
  8
2
100
AcDbLine
 10
-191.719238
 20
179.130847
 30
0.0
 11
-194.901219
 21
175.948867
 31
0.0
  0
LINE
  5
2B0
100
AcDbEntity
  8
2
100
AcDbLine
 10
-191.719238
 20
172.766886
 30
0.0
 11
-194.901219
 21
175.948867
 31
0.0
  0
LINE
  5
2B1
100
AcDbEntity
  8
2
100
AcDbLine
 10
-191.719238
 20
172.766886
 30
0.0
 11
-192.072791
 21
172.413333
 31
0.0
  0
LINE
  5
2B2
100
AcDbEntity
  8
2
100
AcDbLine
 10
-191.719238
 20
179.130847
 30
0.0
 11
-192.072791
 21
179.4844
 31
0.0
  0
LINE
  5
2B3
100
AcDbEntity
  8
2
100
AcDbLine
 10
-219.599209
 20
141.956994
 30
0.0
 11
-222.850168
 21
145.207953
 31
0.0
  0
LINE
  5
2B4
100
AcDbEntity
  8
2
100
AcDbLine
 10
-223.7645
 20
137.791703
 30
0.0
 11
-227.015459
 21
141.042662
 31
0.0
  0
LINE
  5
2B5
100
AcDbEntity
  8
2
100
AcDbLine
 10
-216.672485
 20
132.708981
 30
0.0
 11
-212.366322
 21
134.724107
 31
0.0
  0
LINE
  5
2B6
100
AcDbEntity
  8
2
100
AcDbLine
 10
-217.025402
 20
131.052604
 30
0.0
 11
-213.403362
 21
132.671142
 31
0.0
  0
LINE
  5
2B7
100
AcDbEntity
  8
2
100
AcDbLine
 10
-216.672485
 20
132.708981
 30
0.0
 11
-213.649837
 21
136.007622
 31
0.0
  0
LINE
  5
2B8
100
AcDbEntity
  8
2
100
AcDbLine
 10
-218.568999
 20
132.61174
 30
0.0
 11
-214.665762
 21
137.023547
 31
0.0
  0
ARC
  5
2B9
100
AcDbEntity
  8
2
100
AcDbCircle
 10
-213.961795
 20
131.829193
 30
0.0
 40
10.402317
100
AcDbArc
 50
128.830069
 51
141.169931
  0
ARC
  5
2BA
100
AcDbEntity
  8
2
100
AcDbCircle
 10
-224.649831
 20
142.517229
 30
0.0
 40
10.402317
100
AcDbArc
 50
308.830069
 51
321.169931
  0
LINE
  5
2BB
100
AcDbEntity
  8
2
100
AcDbLine
 10
-223.7645
 20
137.791703
 30
0.0
 11
-219.599209
 21
141.956994
 31
0.0
  0
ARC
  5
2BC
100
AcDbEntity
  8
2
100
AcDbCircle
 10
-219.403159
 20
138.589617
 30
0.0
 40
1.724081
100
AcDbArc
 50
51.270542
 51
128.830069
  0
ARC
  5
2BD
100
AcDbEntity
  8
2
100
AcDbCircle
 10
-217.889407
 20
137.075865
 30
0.0
 40
1.724081
100
AcDbArc
 50
321.169931
 51
38.729458
  0
ARC
  5
2BE
100
AcDbEntity
  8
2
100
AcDbCircle
 10
-225.534447
 20
130.944577
 30
0.0
 40
11.524047
100
AcDbArc
 50
38.729458
 51
51.270542
  0
LINE
  5
2BF
100
AcDbEntity
  8
2
100
AcDbLine
 10
-214.665762
 20
137.023547
 30
0.0
 11
-213.649837
 21
136.007622
 31
0.0
  0
ARC
  5
2C0
100
AcDbEntity
  8
2
100
AcDbCircle
 10
-220.722219
 20
137.270557
 30
0.0
 40
1.724081
100
AcDbArc
 50
141.169931
 51
218.729458
  0
ARC
  5
2C1
100
AcDbEntity
  8
2
100
AcDbCircle
 10
-219.208467
 20
135.756805
 30
0.0
 40
1.724081
100
AcDbArc
 50
231.270542
 51
308.830069
  0
ARC
  5
2C2
100
AcDbEntity
  8
2
100
AcDbCircle
 10
-213.077179
 20
143.401845
 30
0.0
 40
11.524047
100
AcDbArc
 50
218.729458
 51
231.270542
  0
LINE
  5
2C3
100
AcDbEntity
  8
2
100
AcDbLine
 10
-218.576768
 20
132.603971
 30
0.0
 11
-217.025402
 21
131.052604
 31
0.0
  0
LINE
  5
2C4
100
AcDbEntity
  8
2
100
AcDbLine
 10
-223.561315
 20
140.433107
 30
0.0
 11
-224.272463
 21
139.72196
 31
0.0
  0
LINE
  5
2C5
100
AcDbEntity
  8
2
100
AcDbLine
 10
-221.529466
 20
142.464957
 30
0.0
 11
-222.850168
 21
141.144255
 31
0.0
  0
LINE
  5
2C6
100
AcDbEntity
  8
2
100
AcDbLine
 10
-221.529466
 20
142.464957
 30
0.0
 11
-223.561315
 21
144.496806
 31
0.0
  0
LINE
  5
2C7
100
AcDbEntity
  8
2
100
AcDbLine
 10
-222.850168
 20
141.144255
 30
0.0
 11
-224.882018
 21
143.176104
 31
0.0
  0
LINE
  5
2C8
100
AcDbEntity
  8
2
100
AcDbLine
 10
-223.561315
 20
140.433107
 30
0.0
 11
-225.593165
 21
142.464957
 31
0.0
  0
LINE
  5
2C9
100
AcDbEntity
  8
2
100
AcDbLine
 10
-224.272463
 20
139.72196
 30
0.0
 11
-226.304312
 21
141.753809
 31
0.0
  0
LINE
  5
2CA
100
AcDbEntity
  8
2
100
AcDbLine
 10
-202.138992
 20
124.496777
 30
0.0
 11
-203.58915
 21
125.946935
 31
0.0
  0
LINE
  5
2CB
100
AcDbEntity
  8
2
100
AcDbLine
 10
-205.224966
 20
121.410803
 30
0.0
 11
-206.675124
 21
122.860961
 31
0.0
  0
ARC
  5
2CC
100
AcDbEntity
  8
2
100
AcDbCircle
 10
-205.339154
 20
118.005018
 30
0.0
 40
0.143673
100
AcDbArc
 50
225.0
 51
315.0
  0
LINE
  5
2CD
100
AcDbEntity
  8
2
100
AcDbLine
 10
-205.103055
 20
121.410803
 30
0.0
 11
-202.138992
 21
124.374866
 31
0.0
  0
LINE
  5
2CE
100
AcDbEntity
  8
2
100
AcDbLine
 10
-209.896799
 20
122.734555
 30
0.0
 11
-202.999563
 21
120.435476
 31
0.0
  0
ARC
  5
2CF
100
AcDbEntity
  8
2
100
AcDbCircle
 10
-202.199947
 20
124.435821
 30
0.0
 40
0.086204
100
AcDbArc
 50
315.0
 51
45.0
  0
ARC
  5
2D0
100
AcDbEntity
  8
2
100
AcDbCircle
 10
-203.044997
 20
120.299176
 30
0.0
 40
0.143673
100
AcDbArc
 50
315.0
 51
71.565051
  0
ARC
  5
2D1
100
AcDbEntity
  8
2
100
AcDbCircle
 10
-205.16401
 20
121.471758
 30
0.0
 40
0.086204
100
AcDbArc
 50
225.0
 51
315.0
  0
LINE
  5
2D2
100
AcDbEntity
  8
2
100
AcDbLine
 10
-202.943404
 20
120.197583
 30
0.0
 11
-205.237562
 21
117.903426
 31
0.0
  0
ARC
  5
2D3
100
AcDbEntity
  8
2
100
AcDbCircle
 10
-203.557275
 20
121.424674
 30
0.0
 40
10.402317
100
AcDbArc
 50
128.830069
 51
141.169931
  0
ARC
  5
2D4
100
AcDbEntity
  8
2
100
AcDbCircle
 10
-204.328293
 20
122.195692
 30
0.0
 40
7.674066
100
AcDbArc
 50
124.473609
 51
145.526391
  0
LINE
  5
2D5
100
AcDbEntity
  8
2
100
AcDbLine
 10
-213.462764
 20
127.505505
 30
0.0
 11
-209.050957
 21
131.408742
 31
0.0
  0
ARC
  5
2D6
100
AcDbEntity
  8
2
100
AcDbCircle
 10
-208.998639
 20
128.185097
 30
0.0
 40
1.724081
100
AcDbArc
 50
51.270542
 51
128.830069
  0
LINE
  5
2D7
100
AcDbEntity
  8
2
100
AcDbLine
 10
-210.066882
 20
132.424667
 30
0.0
 11
-209.050957
 21
131.408742
 31
0.0
  0
ARC
  5
2D8
100
AcDbEntity
  8
2
100
AcDbCircle
 10
-210.317699
 20
126.866037
 30
0.0
 40
1.724081
100
AcDbArc
 50
141.169931
 51
218.729458
  0
LINE
  5
2D9
100
AcDbEntity
  8
2
100
AcDbLine
 10
-215.0219
 20
129.049103
 30
0.0
 11
-213.470533
 21
127.497736
 31
0.0
  0
ARC
  5
2DA
100
AcDbEntity
  8
2
100
AcDbCircle
 10
-214.245311
 20
132.112709
 30
0.0
 40
10.402317
100
AcDbArc
 50
308.830069
 51
321.169931
  0
ARC
  5
2DB
100
AcDbEntity
  8
2
100
AcDbCircle
 10
-214.092891
 20
132.085722
 30
0.0
 40
8.638035
100
AcDbArc
 50
305.062783
 51
323.774302
  0
LINE
  5
2DC
100
AcDbEntity
  8
2
100
AcDbLine
 10
-203.711061
 20
125.946935
 30
0.0
 11
-206.675124
 21
122.982872
 31
0.0
  0
ARC
  5
2DD
100
AcDbEntity
  8
2
100
AcDbCircle
 10
-207.484887
 20
126.671345
 30
0.0
 40
1.724081
100
AcDbArc
 50
321.169931
 51
38.729458
  0
ARC
  5
2DE
100
AcDbEntity
  8
2
100
AcDbCircle
 10
-209.752043
 20
125.917941
 30
0.0
 40
3.169316
100
AcDbArc
 50
34.668048
 51
55.331952
  0
ARC
  5
2DF
100
AcDbEntity
  8
2
100
AcDbCircle
 10
-207.754648
 20
127.333419
 30
0.0
 40
0.721926
100
AcDbArc
 50
330.772957
 51
32.444044
  0
ARC
  5
2E0
100
AcDbEntity
  8
2
100
AcDbCircle
 10
-203.650105
 20
125.88598
 30
0.0
 40
0.086204
100
AcDbArc
 50
45.0
 51
135.0
  0
ARC
  5
2E1
100
AcDbEntity
  8
2
100
AcDbCircle
 10
-208.803947
 20
125.352286
 30
0.0
 40
1.724081
100
AcDbArc
 50
231.270542
 51
308.830069
  0
ARC
  5
2E2
100
AcDbEntity
  8
2
100
AcDbCircle
 10
-209.493729
 20
125.532731
 30
0.0
 40
0.632163
100
AcDbArc
 50
235.331952
 51
305.062783
  0
ARC
  5
2E3
100
AcDbEntity
  8
2
100
AcDbCircle
 10
-208.050543
 20
127.619441
 30
0.0
 40
3.169316
100
AcDbArc
 50
214.668048
 51
235.331952
  0
ARC
  5
2E4
100
AcDbEntity
  8
2
100
AcDbCircle
 10
-206.614168
 20
122.921917
 30
0.0
 40
0.086204
100
AcDbArc
 50
135.0
 51
225.0
  0
ARC
  5
2E5
100
AcDbEntity
  8
2
100
AcDbCircle
 10
-215.129927
 20
120.540057
 30
0.0
 40
11.524047
100
AcDbArc
 50
38.729458
 51
51.270542
  0
ARC
  5
2E6
100
AcDbEntity
  8
2
100
AcDbCircle
 10
-208.308858
 20
128.004652
 30
0.0
 40
0.632163
100
AcDbArc
 50
55.331952
 51
125.062783
  0
ARC
  5
2E7
100
AcDbEntity
  8
2
100
AcDbCircle
 10
-202.672659
 20
132.997326
 30
0.0
 40
11.524047
100
AcDbArc
 50
218.729458
 51
231.270542
  0
ARC
  5
2E8
100
AcDbEntity
  8
2
100
AcDbCircle
 10
-210.137253
 20
126.176256
 30
0.0
 40
0.632163
100
AcDbArc
 50
144.937217
 51
214.668048
  0
LINE
  5
2E9
100
AcDbEntity
  8
2
100
AcDbLine
 10
-215.0219
 20
129.049103
 30
0.0
 11
-213.403362
 21
132.671142
 31
0.0
  0
LINE
  5
2EA
100
AcDbEntity
  8
2
100
AcDbLine
 10
-212.366322
 20
134.724107
 30
0.0
 11
-211.350397
 21
133.708182
 31
0.0
  0
ARC
  5
2EB
100
AcDbEntity
  8
2
100
AcDbCircle
 10
-209.941071
 20
122.601739
 30
0.0
 40
0.14
100
AcDbArc
 50
71.565051
 51
225.0
  0
ARC
  5
2EC
100
AcDbEntity
  8
2
100
AcDbCircle
 10
-219.925092
 20
135.964094
 30
0.0
 40
0.632163
100
AcDbArc
 50
235.331952
 51
305.062783
  0
ARC
  5
2ED
100
AcDbEntity
  8
2
100
AcDbCircle
 10
-218.096696
 20
137.79249
 30
0.0
 40
0.632163
100
AcDbArc
 50
324.937217
 51
34.668048
  0
ARC
  5
2EE
100
AcDbEntity
  8
2
100
AcDbCircle
 10
-218.481906
 20
138.050805
 30
0.0
 40
3.169316
100
AcDbArc
 50
214.668048
 51
235.331952
  0
ARC
  5
2EF
100
AcDbEntity
  8
2
100
AcDbCircle
 10
-220.568617
 20
136.607619
 30
0.0
 40
0.632163
100
AcDbArc
 50
144.937217
 51
214.668048
  0
ARC
  5
2F0
100
AcDbEntity
  8
2
100
AcDbCircle
 10
-218.767929
 20
138.3467
 30
0.0
 40
0.721926
100
AcDbArc
 50
57.555956
 51
119.227043
  0
ARC
  5
2F1
100
AcDbEntity
  8
2
100
AcDbCircle
 10
-220.183406
 20
136.349305
 30
0.0
 40
3.169316
100
AcDbArc
 50
34.668048
 51
55.331952
  0
ARC
  5
2F2
100
AcDbEntity
  8
2
100
AcDbCircle
 10
-214.015626
 20
132.008456
 30
0.0
 40
8.638035
100
AcDbArc
 50
126.225698
 51
144.937217
  0
ARC
  5
2F3
100
AcDbEntity
  8
2
100
AcDbCircle
 10
-223.905656
 20
141.773054
 30
0.0
 40
7.674066
100
AcDbArc
 50
304.473609
 51
325.526391
  0
LINE
  5
2F4
100
AcDbEntity
  8
2
100
AcDbLine
 10
-205.440747
 20
117.903426
 30
0.0
 11
-210.040065
 21
122.502744
 31
0.0
  0
LINE
  5
2F5
100
AcDbEntity
  8
2
100
AcDbLine
 10
-213.392367
 20
129.428863
 30
0.0
 11
-211.377241
 21
133.735026
 31
0.0
  0
LINE
  5
2F6
100
AcDbEntity
  8
2
100
AcDbLine
 10
-213.392367
 20
129.428863
 30
0.0
 11
-210.093726
 21
132.451511
 31
0.0
  0
ARC
  5
2F7
100
AcDbEntity
  8
2
100
AcDbCircle
 10
-240.683358
 20
152.907236
 30
0.0
 40
0.5
100
AcDbArc
 50
90.0
 51
178.767738
  0
LINE
  5
2F8
100
AcDbEntity
  8
2
100
AcDbLine
 10
-240.683358
 20
153.407236
 30
0.0
 11
-230.516987
 21
153.407236
 31
0.0
  0
LINE
  5
2F9
100
AcDbEntity
  8
2
100
AcDbLine
 10
-240.683358
 20
150.407236
 30
0.0
 11
-230.516987
 21
150.407236
 31
0.0
  0
ARC
  5
2FA
100
AcDbEntity
  8
2
100
AcDbCircle
 10
-240.683358
 20
150.907236
 30
0.0
 40
0.5
100
AcDbArc
 50
181.232262
 51
270.0
  0
LINE
  5
2FB
100
AcDbEntity
  8
2
100
AcDbLine
 10
-239.900848
 20
143.340192
 30
0.0
 11
-230.052771
 21
145.076674
 31
0.0
  0
ARC
  5
2FC
100
AcDbEntity
  8
2
100
AcDbCircle
 10
-239.987672
 20
143.832596
 30
0.0
 40
0.5
100
AcDbArc
 50
100.0
 51
280.0
  0
LINE
  5
2FD
100
AcDbEntity
  8
2
100
AcDbLine
 10
-240.074496
 20
144.325
 30
0.0
 11
-230.226419
 21
146.061481
 31
0.0
  0
LINE
  5
2FE
100
AcDbEntity
  8
2
100
AcDbLine
 10
-230.136572
 20
122.400634
 30
0.0
 11
-222.476128
 21
128.82851
 31
0.0
  0
ARC
  5
2FF
100
AcDbEntity
  8
2
100
AcDbCircle
 10
-229.815178
 20
122.017612
 30
0.0
 40
0.5
100
AcDbArc
 50
130.0
 51
310.0
  0
LINE
  5
300
100
AcDbEntity
  8
2
100
AcDbLine
 10
-229.493785
 20
121.63459
 30
0.0
 11
-221.83334
 21
128.062466
 31
0.0
  0
LINE
  5
301
100
AcDbEntity
  8
2
100
AcDbLine
 10
-234.714293
 20
129.090249
 30
0.0
 11
-226.054039
 21
134.090249
 31
0.0
  0
ARC
  5
302
100
AcDbEntity
  8
2
100
AcDbCircle
 10
-234.464293
 20
128.657236
 30
0.0
 40
0.5
100
AcDbArc
 50
120.0
 51
300.0
  0
LINE
  5
303
100
AcDbEntity
  8
2
100
AcDbLine
 10
-234.214293
 20
128.224223
 30
0.0
 11
-225.554039
 21
133.224223
 31
0.0
  0
LINE
  5
304
100
AcDbEntity
  8
2
100
AcDbLine
 10
-238.060829
 20
136.473146
 30
0.0
 11
-228.663902
 21
139.893347
 31
0.0
  0
ARC
  5
305
100
AcDbEntity
  8
2
100
AcDbCircle
 10
-237.889819
 20
136.003299
 30
0.0
 40
0.5
100
AcDbArc
 50
110.0
 51
290.0
  0
LINE
  5
306
100
AcDbEntity
  8
2
100
AcDbLine
 10
-237.718809
 20
135.533453
 30
0.0
 11
-228.321882
 21
138.953654
 31
0.0
  0
ARC
  5
307
100
AcDbEntity
  8
2
100
AcDbCircle
 10
-194.194112
 20
151.907236
 30
0.0
 40
47.0
100
AcDbArc
 50
178.767738
 51
181.232262
  0
LINE
  5
308
100
AcDbEntity
  8
2
100
AcDbLine
 10
-210.567895
 20
108.382539
 30
0.0
 11
-207.147693
 21
117.779465
 31
0.0
  0
LINE
  5
309
100
AcDbEntity
  8
2
100
AcDbLine
 10
-209.628202
 20
108.040519
 30
0.0
 11
-206.208001
 21
117.437445
 31
0.0
  0
LINE
  5
30A
100
AcDbEntity
  8
2
100
AcDbLine
 10
-217.877124
 20
111.887055
 30
0.0
 11
-212.877124
 21
120.547309
 31
0.0
  0
ARC
  5
30B
100
AcDbEntity
  8
2
100
AcDbCircle
 10
-217.444112
 20
111.637055
 30
0.0
 40
0.5
100
AcDbArc
 50
150.0
 51
330.0
  0
LINE
  5
30C
100
AcDbEntity
  8
2
100
AcDbLine
 10
-217.011099
 20
111.387055
 30
0.0
 11
-212.011099
 21
120.047309
 31
0.0
  0
LINE
  5
30D
100
AcDbEntity
  8
2
100
AcDbLine
 10
-224.466758
 20
116.607563
 30
0.0
 11
-218.038882
 21
124.268008
 31
0.0
  0
ARC
  5
30E
100
AcDbEntity
  8
2
100
AcDbCircle
 10
-224.083736
 20
116.286169
 30
0.0
 40
0.5
100
AcDbArc
 50
140.0
 51
320.0
  0
LINE
  5
30F
100
AcDbEntity
  8
2
100
AcDbLine
 10
-223.700713
 20
115.964776
 30
0.0
 11
-217.272837
 21
123.62522
 31
0.0
  0
LINE
  5
310
100
AcDbEntity
  8
2
100
AcDbLine
 10
-201.776348
 20
106.026851
 30
0.0
 11
-200.039866
 21
115.874929
 31
0.0
  0
LINE
  5
311
100
AcDbEntity
  8
2
100
AcDbLine
 10
-202.761156
 20
106.2005
 30
0.0
 11
-201.024674
 21
116.048577
 31
0.0
  0
LINE
  5
312
100
AcDbEntity
  8
2
100
AcDbLine
 10
-195.694112
 20
105.41799
 30
0.0
 11
-195.694112
 21
124.425424
 31
0.0
  0
LINE
  5
313
100
AcDbEntity
  8
2
100
AcDbLine
 10
-192.694112
 20
105.41799
 30
0.0
 11
-192.694112
 21
124.425424
 31
0.0
  0
LINE
  5
314
100
AcDbEntity
  8
2
100
AcDbLine
 10
-227.015459
 20
141.042662
 30
0.0
 11
-226.304312
 21
141.753809
 31
0.0
  0
LINE
  5
315
100
AcDbEntity
  8
2
100
AcDbLine
 10
-225.593165
 20
142.464957
 30
0.0
 11
-224.882018
 21
143.176104
 31
0.0
  0
LINE
  5
316
100
AcDbEntity
  8
2
100
AcDbLine
 10
-223.561315
 20
144.496806
 30
0.0
 11
-222.850168
 21
145.207953
 31
0.0
  0
ARC
  5
317
100
AcDbEntity
  8
2
100
AcDbCircle
 10
-200.53227
 20
115.961753
 30
0.0
 40
0.5
100
AcDbArc
 50
350.0
 51
170.0
  0
ARC
  5
318
100
AcDbEntity
  8
2
100
AcDbCircle
 10
-206.677847
 20
117.608455
 30
0.0
 40
0.5
100
AcDbArc
 50
340.0
 51
160.0
  0
ARC
  5
319
100
AcDbEntity
  8
2
100
AcDbCircle
 10
-212.444112
 20
120.297309
 30
0.0
 40
0.5
100
AcDbArc
 50
330.0
 51
150.0
  0
ARC
  5
31A
100
AcDbEntity
  8
2
100
AcDbCircle
 10
-217.65586
 20
123.946614
 30
0.0
 40
0.5
100
AcDbArc
 50
320.0
 51
140.0
  0
ARC
  5
31B
100
AcDbEntity
  8
2
100
AcDbCircle
 10
-222.154734
 20
128.445488
 30
0.0
 40
0.5
100
AcDbArc
 50
310.0
 51
130.0
  0
ARC
  5
31C
100
AcDbEntity
  8
2
100
AcDbCircle
 10
-225.804039
 20
133.657236
 30
0.0
 40
0.5
100
AcDbArc
 50
300.0
 51
120.0
  0
ARC
  5
31D
100
AcDbEntity
  8
2
100
AcDbCircle
 10
-228.492892
 20
139.423501
 30
0.0
 40
0.5
100
AcDbArc
 50
290.0
 51
110.0
  0
ARC
  5
31E
100
AcDbEntity
  8
2
100
AcDbCircle
 10
-230.139595
 20
145.569078
 30
0.0
 40
0.5
100
AcDbArc
 50
280.0
 51
100.0
  0
ARC
  5
31F
100
AcDbEntity
  8
2
100
AcDbCircle
 10
-194.194112
 20
151.907236
 30
0.0
 40
47.0
100
AcDbArc
 50
189.999966
 51
190.000034
  0
ARC
  5
320
100
AcDbEntity
  8
2
100
AcDbCircle
 10
-195.194112
 20
105.41799
 30
0.0
 40
0.5
100
AcDbArc
 50
180.0
 51
268.767738
  0
ARC
  5
321
100
AcDbEntity
  8
2
100
AcDbCircle
 10
-193.194112
 20
105.41799
 30
0.0
 40
0.5
100
AcDbArc
 50
271.232262
 51
360.0
  0
ARC
  5
322
100
AcDbEntity
  8
2
100
AcDbCircle
 10
-194.194112
 20
151.907236
 30
0.0
 40
47.0
100
AcDbArc
 50
199.999929
 51
200.000071
  0
ARC
  5
323
100
AcDbEntity
  8
2
100
AcDbCircle
 10
-194.194112
 20
151.907236
 30
0.0
 40
47.0
100
AcDbArc
 50
268.767738
 51
271.232262
  0
ARC
  5
324
100
AcDbEntity
  8
2
100
AcDbCircle
 10
-194.194112
 20
151.907236
 30
0.0
 40
27.0
100
AcDbArc
 50
267.916058
 51
272.083942
  0
ARC
  5
325
100
AcDbEntity
  8
2
100
AcDbCircle
 10
-193.194112
 20
124.425424
 30
0.0
 40
0.5
100
AcDbArc
 50
0.0
 51
92.083942
  0
ARC
  5
326
100
AcDbEntity
  8
2
100
AcDbCircle
 10
-195.194112
 20
124.425424
 30
0.0
 40
0.5
100
AcDbArc
 50
87.916058
 51
180.0
  0
ARC
  5
327
100
AcDbEntity
  8
2
100
AcDbCircle
 10
-210.098048
 20
108.211529
 30
0.0
 40
0.5
100
AcDbArc
 50
160.0
 51
340.0
  0
ARC
  5
328
100
AcDbEntity
  8
2
100
AcDbCircle
 10
-202.268752
 20
106.113675
 30
0.0
 40
0.5
100
AcDbArc
 50
170.0
 51
350.0
  0
LINE
  5
329
100
AcDbEntity
  8
2
100
AcDbLine
 10
-172.118701
 20
137.483173
 30
0.0
 11
-170.570285
 21
136.957608
 31
0.0
  0
LINE
  5
32A
100
AcDbEntity
  8
2
100
AcDbLine
 10
-170.570285
 20
136.957608
 30
0.0
 11
-171.06094
 21
137.511018
 31
0.0
  0
ARC
  5
32B
100
AcDbEntity
  8
2
  6
CENTER
 62
     2
100
AcDbCircle
 10
-194.194112
 20
151.907236
 30
0.0
 40
35.0
100
AcDbArc
 50
298.585378
 51
330.968199
  0
LINE
  5
32C
100
AcDbEntity
  8
2
  6
CENTER
 62
     2
100
AcDbLine
 10
-162.169423
 20
119.882547
 30
0.0
 11
-176.845271
 21
134.558396
 31
0.0
  0
ARC
  5
32D
100
AcDbEntity
  8
2
  6
DASHED
100
AcDbCircle
 10
-194.194112
 20
151.907236
 30
0.0
 40
35.0
100
AcDbArc
 50
118.005522
 51
150.923658
  0
LINE
  5
32E
100
AcDbEntity
  8
2
  6
CENTER
 62
     2
100
AcDbLine
 10
-210.616495
 20
168.329619
 30
0.0
 11
-227.336095
 21
185.04922
 31
0.0
  0
TEXT
  5
32F
100
AcDbEntity
  8
2
100
AcDbText
 10
-175.645134
 20
120.562855
 30
0.0
 40
10.0
  1
Ｏ
 50
202.5
 72
     5
 11
-183.036171
 21
117.501388
 31
0.0
100
AcDbText
  0
TEXT
  5
330
100
AcDbEntity
  8
2
  6
DASHED
100
AcDbText
 10
-229.154262
 20
161.652738
 30
0.0
 40
10.0
  1
Ｓ
 50
67.5
 72
     5
 11
-226.092795
 21
169.043775
 31
0.0
100
AcDbText
  0
TEXT
  5
331
100
AcDbEntity
  8
2
100
AcDbText
 10
-215.244406
 20
165.45702
 30
0.0
 40
3.0
  1
Ｊ
 50
55.0
 72
     5
 11
-213.867823
 21
167.422985
 31
0.0
100
AcDbText
  0
TEXT
  5
332
100
AcDbEntity
  8
2
100
AcDbText
 10
-213.983362
 20
167.240113
 30
0.0
 40
3.0
  1
Ａ
 50
50.0
 72
     5
 11
-212.440672
 21
169.07862
 31
0.0
100
AcDbText
  0
TEXT
  5
333
100
AcDbEntity
  8
2
100
AcDbText
 10
-211.020192
 20
170.44354
 30
0.0
 40
3.0
  1
Ａ
 50
40.0
 72
     5
 11
-209.181686
 21
171.986231
 31
0.0
100
AcDbText
  0
TEXT
  5
334
100
AcDbEntity
  8
2
100
AcDbText
 10
-209.340619
 20
171.839493
 30
0.0
 40
3.0
  1
Ｎ
 50
35.0
 72
     5
 11
-207.374654
 21
173.216077
 31
0.0
100
AcDbText
  0
TEXT
  5
335
100
AcDbEntity
  8
2
100
AcDbText
 10
-212.571709
 20
168.906514
 30
0.0
 40
3.0
  1
Ｐ
 50
45.0
 72
     5
 11
-210.874653
 21
170.603571
 31
0.0
100
AcDbText
  0
TEXT
  5
336
100
AcDbEntity
  8
2
100
AcDbText
 10
-181.670565
 20
130.230698
 30
0.0
 40
3.0
  1
Ｄ
 50
207.785854
 72
     5
 11
-183.793836
 21
129.111895
 31
0.0
100
AcDbText
  0
TEXT
  5
337
100
AcDbEntity
  8
2
100
AcDbText
 10
-179.828986
 20
131.404682
 30
0.0
 40
3.0
  1
Ｅ
 50
212.785854
 72
     5
 11
-181.846667
 21
130.105081
 31
0.0
100
AcDbText
  0
TEXT
  5
338
100
AcDbEntity
  8
2
100
AcDbText
 10
-178.096735
 20
132.734704
 30
0.0
 40
3.0
  1
Ｔ
 50
217.785854
 72
     5
 11
-179.99347
 21
131.264196
 31
0.0
100
AcDbText
  0
TEXT
  5
339
100
AcDbEntity
  8
2
100
AcDbText
 10
-176.486994
 20
134.21064
 30
0.0
 40
3.0
  1
Ｎ
 50
222.785854
 72
     5
 11
-178.248349
 21
132.580416
 31
0.0
100
AcDbText
  0
TEXT
  5
33A
100
AcDbEntity
  8
2
100
AcDbText
 10
-175.012015
 20
135.821258
 30
0.0
 40
3.0
  1
Ｅ
 50
227.785854
 72
     5
 11
-176.624584
 21
134.043725
 31
0.0
100
AcDbText
  0
TEXT
  5
33B
100
AcDbEntity
  8
2
100
AcDbText
 10
-173.683023
 20
137.5543
 30
0.0
 40
3.0
  1
Ｔ
 50
232.785854
 72
     5
 11
-175.134533
 21
135.642987
 31
0.0
100
AcDbText
  0
LINE
  5
33C
100
AcDbEntity
  8
2
100
AcDbLine
 10
-194.194112
 20
125.907236
 30
0.0
 11
-196.653112
 21
125.907236
 31
0.0
  0
LINE
  5
33D
100
AcDbEntity
  8
2
100
AcDbLine
 10
-196.653112
 20
125.907236
 30
0.0
 11
-197.194112
 21
126.448236
 31
0.0
  0
LINE
  5
33E
100
AcDbEntity
  8
2
100
AcDbLine
 10
-197.194112
 20
126.448236
 30
0.0
 11
-197.194112
 21
129.926165
 31
0.0
  0
LINE
  5
33F
100
AcDbEntity
  8
2
100
AcDbLine
 10
-197.194112
 20
126.448236
 30
0.0
 11
-194.194112
 21
126.448236
 31
0.0
  0
LINE
  5
340
100
AcDbEntity
  8
2
100
AcDbLine
 10
-194.194112
 20
125.907236
 30
0.0
 11
-191.735112
 21
125.907236
 31
0.0
  0
LINE
  5
341
100
AcDbEntity
  8
2
100
AcDbLine
 10
-191.735112
 20
125.907236
 30
0.0
 11
-191.194112
 21
126.448236
 31
0.0
  0
LINE
  5
342
100
AcDbEntity
  8
2
100
AcDbLine
 10
-191.194112
 20
126.448236
 30
0.0
 11
-191.194112
 21
129.926165
 31
0.0
  0
LINE
  5
343
100
AcDbEntity
  8
2
100
AcDbLine
 10
-191.194112
 20
126.448236
 30
0.0
 11
-194.194112
 21
126.448236
 31
0.0
  0
POINT
  5
344
100
AcDbEntity
  8
2
100
AcDbPoint
 10
-194.194112
 20
134.907236
 30
0.0
  0
LINE
  5
345
100
AcDbEntity
  8
2
100
AcDbLine
 10
-194.194112
 20
134.907236
 30
0.0
 11
-188.444112
 21
134.907236
 31
0.0
  0
LINE
  5
346
100
AcDbEntity
  8
2
100
AcDbLine
 10
-188.444112
 20
134.907236
 30
0.0
 11
-188.444112
 21
130.397984
 31
0.0
  0
LINE
  5
347
100
AcDbEntity
  8
2
100
AcDbLine
 10
-188.444112
 20
130.397984
 30
0.0
 11
-189.294112
 21
129.907236
 31
0.0
  0
LINE
  5
348
100
AcDbEntity
  8
2
100
AcDbLine
 10
-189.294112
 20
129.907236
 30
0.0
 11
-194.194112
 21
129.907236
 31
0.0
  0
LINE
  5
349
100
AcDbEntity
  8
2
100
AcDbLine
 10
-191.319112
 20
134.907236
 30
0.0
 11
-191.319112
 21
130.397984
 31
0.0
  0
ARC
  5
34A
100
AcDbEntity
  8
2
100
AcDbCircle
 10
-189.881612
 20
132.245939
 30
0.0
 40
2.341227
100
AcDbArc
 50
232.121121
 51
307.878879
  0
ARC
  5
34B
100
AcDbEntity
  8
2
100
AcDbCircle
 10
-194.194112
 20
138.529712
 30
0.0
 40
8.625
100
AcDbArc
 50
270.0
 51
289.471221
  0
LINE
  5
34C
100
AcDbEntity
  8
2
100
AcDbLine
 10
-194.194112
 20
134.907236
 30
0.0
 11
-199.944112
 21
134.907236
 31
0.0
  0
LINE
  5
34D
100
AcDbEntity
  8
2
100
AcDbLine
 10
-199.944112
 20
134.907236
 30
0.0
 11
-199.944112
 21
130.397984
 31
0.0
  0
LINE
  5
34E
100
AcDbEntity
  8
2
100
AcDbLine
 10
-199.944112
 20
130.397984
 30
0.0
 11
-199.094112
 21
129.907236
 31
0.0
  0
LINE
  5
34F
100
AcDbEntity
  8
2
100
AcDbLine
 10
-199.094112
 20
129.907236
 30
0.0
 11
-194.194112
 21
129.907236
 31
0.0
  0
LINE
  5
350
100
AcDbEntity
  8
2
100
AcDbLine
 10
-197.069112
 20
134.907236
 30
0.0
 11
-197.069112
 21
130.397984
 31
0.0
  0
ARC
  5
351
100
AcDbEntity
  8
2
100
AcDbCircle
 10
-198.506612
 20
132.245939
 30
0.0
 40
2.341227
100
AcDbArc
 50
232.121121
 51
307.878879
  0
ARC
  5
352
100
AcDbEntity
  8
2
100
AcDbCircle
 10
-194.194112
 20
138.529712
 30
0.0
 40
8.625
100
AcDbArc
 50
250.528779
 51
270.0
  0
LINE
  5
353
100
AcDbEntity
  8
2
 62
     2
100
AcDbLine
 10
-196.653112
 20
125.907236
 30
0.0
 11
-196.653112
 21
129.907236
 31
0.0
  0
LINE
  5
354
100
AcDbEntity
  8
2
 62
     2
100
AcDbLine
 10
-191.735112
 20
125.907236
 30
0.0
 11
-191.735112
 21
129.907236
 31
0.0
  0
CIRCLE
  5
355
100
AcDbEntity
  8
2
100
AcDbCircle
 10
-169.445374
 20
127.158499
 30
0.0
 40
6.5
  0
LINE
  5
356
100
AcDbEntity
  8
2
100
AcDbLine
 10
-165.692598
 20
133.658499
 30
0.0
 11
-173.198151
 21
133.658499
 31
0.0
  0
LINE
  5
357
100
AcDbEntity
  8
2
100
AcDbLine
 10
-173.198151
 20
133.658499
 30
0.0
 11
-176.950928
 21
127.158499
 31
0.0
  0
LINE
  5
358
100
AcDbEntity
  8
2
100
AcDbLine
 10
-176.950928
 20
127.158499
 30
0.0
 11
-173.198151
 21
120.658499
 31
0.0
  0
LINE
  5
359
100
AcDbEntity
  8
2
100
AcDbLine
 10
-173.198151
 20
120.658499
 30
0.0
 11
-165.692598
 21
120.658499
 31
0.0
  0
LINE
  5
35A
100
AcDbEntity
  8
2
100
AcDbLine
 10
-165.692598
 20
120.658499
 30
0.0
 11
-161.939821
 21
127.158499
 31
0.0
  0
LINE
  5
35B
100
AcDbEntity
  8
2
100
AcDbLine
 10
-161.939821
 20
127.158499
 30
0.0
 11
-165.692598
 21
133.658499
 31
0.0
  0
LINE
  5
35C
100
AcDbEntity
  8
2
100
AcDbLine
 10
-226.448403
 20
176.655973
 30
0.0
 11
-222.695626
 21
170.155973
 31
0.0
  0
LINE
  5
35D
100
AcDbEntity
  8
2
100
AcDbLine
 10
-222.695626
 20
183.155973
 30
0.0
 11
-226.448403
 21
176.655973
 31
0.0
  0
LINE
  5
35E
100
AcDbEntity
  8
2
100
AcDbLine
 10
-215.190072
 20
183.155973
 30
0.0
 11
-222.695626
 21
183.155973
 31
0.0
  0
LINE
  5
35F
100
AcDbEntity
  8
2
100
AcDbLine
 10
-211.437296
 20
176.655973
 30
0.0
 11
-215.190072
 21
183.155973
 31
0.0
  0
LINE
  5
360
100
AcDbEntity
  8
2
100
AcDbLine
 10
-215.190072
 20
170.155973
 30
0.0
 11
-211.437296
 21
176.655973
 31
0.0
  0
LINE
  5
361
100
AcDbEntity
  8
2
100
AcDbLine
 10
-222.695626
 20
170.155973
 30
0.0
 11
-215.190072
 21
170.155973
 31
0.0
  0
CIRCLE
  5
362
100
AcDbEntity
  8
2
100
AcDbCircle
 10
-218.942849
 20
176.655973
 30
0.0
 40
6.5
  0
ARC
  5
363
100
AcDbEntity
  8
2
100
AcDbCircle
 10
-4.194112
 20
151.907236
 30
0.0
 40
10.0
100
AcDbArc
 50
271.507958
 51
88.492042
  0
LINE
  5
364
100
AcDbEntity
  8
2
100
AcDbLine
 10
-189.194112
 20
-17.635467
 30
0.0
 11
-189.194112
 21
-8.635467
 31
0.0
  0
LINE
  5
365
100
AcDbEntity
  8
2
100
AcDbLine
 10
-199.194112
 20
-17.635467
 30
0.0
 11
-199.194112
 21
-8.635467
 31
0.0
  0
LINE
  5
366
100
AcDbEntity
  8
2
100
AcDbLine
 10
-178.597351
 20
8.679727
 30
0.0
 11
-0.983837
 21
46.432645
 31
0.0
  0
ARC
  5
367
100
AcDbEntity
  8
2
100
AcDbCircle
 10
-214.194112
 20
7.872916
 30
0.0
 40
5.0
100
AcDbArc
 50
290.0
 51
360.0
  0
LINE
  5
368
100
AcDbEntity
  8
2
100
AcDbLine
 10
-229.220172
 20
-2.917012
 30
0.0
 11
-212.484011
 21
3.174453
 31
0.0
  0
LINE
  5
369
100
AcDbEntity
  8
2
100
AcDbLine
 10
-183.194112
 20
-7.635467
 30
0.0
 11
-231.194112
 21
-7.635467
 31
0.0
  0
LINE
  5
36A
100
AcDbEntity
  8
2
100
AcDbLine
 10
-205.194112
 20
-8.635467
 30
0.0
 11
-205.194112
 21
-7.635467
 31
0.0
  0
LINE
  5
36B
100
AcDbEntity
  8
2
100
AcDbLine
 10
-231.194112
 20
-5.73609
 30
0.0
 11
-231.194112
 21
-7.635467
 31
0.0
  0
LINE
  5
36C
100
AcDbEntity
  8
2
100
AcDbLine
 10
-179.194112
 20
12.364533
 30
0.0
 11
-180.194112
 21
13.364533
 31
0.0
  0
LINE
  5
36D
100
AcDbEntity
  8
2
100
AcDbLine
 10
-208.194112
 20
13.364533
 30
0.0
 11
-209.194112
 21
12.364533
 31
0.0
  0
LINE
  5
36E
100
AcDbEntity
  8
2
100
AcDbLine
 10
-209.194112
 20
7.872916
 30
0.0
 11
-209.194112
 21
12.364533
 31
0.0
  0
LINE
  5
36F
100
AcDbEntity
  8
2
100
AcDbLine
 10
-179.194112
 20
12.257573
 30
0.0
 11
-179.194112
 21
12.364533
 31
0.0
  0
LINE
  5
370
100
AcDbEntity
  8
2
100
AcDbLine
 10
-183.194112
 20
-8.635467
 30
0.0
 11
-205.194112
 21
-8.635467
 31
0.0
  0
LINE
  5
371
100
AcDbEntity
  8
2
100
AcDbLine
 10
-183.194112
 20
-8.635467
 30
0.0
 11
-183.194112
 21
-7.635467
 31
0.0
  0
LINE
  5
372
100
AcDbEntity
  8
2
100
AcDbLine
 10
-200.963343
 20
12.364533
 30
0.0
 11
-200.963343
 21
-7.635467
 31
0.0
  0
LINE
  5
373
100
AcDbEntity
  8
2
100
AcDbLine
 10
-187.424881
 20
12.364533
 30
0.0
 11
-187.424881
 21
-7.635467
 31
0.0
  0
ARC
  5
374
100
AcDbEntity
  8
2
100
AcDbCircle
 10
-228.194112
 20
-5.73609
 30
0.0
 40
3.0
100
AcDbArc
 50
110.0
 51
180.0
  0
ARC
  5
375
100
AcDbEntity
  8
2
100
AcDbCircle
 10
-199.963343
 20
12.364533
 30
0.0
 40
1.0
100
AcDbArc
 50
90.0
 51
180.0
  0
ARC
  5
376
100
AcDbEntity
  8
2
100
AcDbCircle
 10
-188.424881
 20
12.364533
 30
0.0
 40
1.0
100
AcDbArc
 50
0.0
 51
90.0
  0
LINE
  5
377
100
AcDbEntity
  8
2
100
AcDbLine
 10
-180.194112
 20
13.364533
 30
0.0
 11
-208.194112
 21
13.364533
 31
0.0
  0
ARC
  5
378
100
AcDbEntity
  8
2
100
AcDbCircle
 10
-217.532475
 20
23.046735
 30
0.0
 40
22.811628
100
AcDbArc
 50
283.335578
 51
313.128065
  0
CIRCLE
  5
379
100
AcDbEntity
  8
2
100
AcDbCircle
 10
-104.194112
 20
11.364533
 30
0.0
 40
2.0
  0
ARC
  5
37A
100
AcDbEntity
  8
2
100
AcDbCircle
 10
-104.194112
 20
11.364533
 30
0.0
 40
5.0
100
AcDbArc
 50
0.0
 51
180.0
  0
LINE
  5
37B
100
AcDbEntity
  8
2
100
AcDbLine
 10
-109.194112
 20
11.364533
 30
0.0
 11
-109.194112
 21
2.364533
 31
0.0
  0
LINE
  5
37C
100
AcDbEntity
  8
2
100
AcDbLine
 10
-183.194112
 20
-7.635467
 30
0.0
 11
-141.880515
 21
1.146009
 31
0.0
  0
ARC
  5
37D
100
AcDbEntity
  8
2
100
AcDbCircle
 10
-176.194112
 20
12.257573
 30
0.0
 40
3.0
100
AcDbArc
 50
180.0
 51
282.0
  0
ARC
  5
37E
100
AcDbEntity
  8
2
100
AcDbCircle
 10
-108.194112
 20
2.364533
 30
0.0
 40
1.0
100
AcDbArc
 50
180.0
 51
270.0
  0
LINE
  5
37F
100
AcDbEntity
  8
2
100
AcDbLine
 10
-139.801398
 20
1.364533
 30
0.0
 11
-100.336247
 21
1.364533
 31
0.0
  0
ARC
  5
380
100
AcDbEntity
  8
2
100
AcDbCircle
 10
-100.336247
 20
11.364533
 30
0.0
 40
10.0
100
AcDbArc
 50
270.0
 51
315.0
  0
ARC
  5
381
100
AcDbEntity
  8
2
100
AcDbCircle
 10
-139.801398
 20
-8.635467
 30
0.0
 40
10.0
100
AcDbArc
 50
90.0
 51
102.0
  0
CIRCLE
  5
382
100
AcDbEntity
  8
2
100
AcDbCircle
 10
-194.194112
 20
-2.135467
 30
0.0
 40
5.0
  0
CIRCLE
  5
383
100
AcDbEntity
  8
2
100
AcDbCircle
 10
-194.194112
 20
-2.135467
 30
0.0
 40
3.0
  0
CIRCLE
  5
384
100
AcDbEntity
  8
2
100
AcDbCircle
 10
-194.194112
 20
-2.135467
 30
0.0
 40
2.5
  0
LINE
  5
385
100
AcDbEntity
  8
2
100
AcDbLine
 10
-199.967614
 20
-2.135467
 30
0.0
 11
-197.080863
 21
-7.135467
 31
0.0
  0
LINE
  5
386
100
AcDbEntity
  8
2
100
AcDbLine
 10
-197.080863
 20
-7.135467
 30
0.0
 11
-191.30736
 21
-7.135467
 31
0.0
  0
LINE
  5
387
100
AcDbEntity
  8
2
100
AcDbLine
 10
-191.30736
 20
-7.135467
 30
0.0
 11
-188.420609
 21
-2.135467
 31
0.0
  0
LINE
  5
388
100
AcDbEntity
  8
2
100
AcDbLine
 10
-188.420609
 20
-2.135467
 30
0.0
 11
-191.30736
 21
2.864533
 31
0.0
  0
LINE
  5
389
100
AcDbEntity
  8
2
100
AcDbLine
 10
-191.30736
 20
2.864533
 30
0.0
 11
-197.080863
 21
2.864533
 31
0.0
  0
LINE
  5
38A
100
AcDbEntity
  8
2
100
AcDbLine
 10
-197.080863
 20
2.864533
 30
0.0
 11
-199.967614
 21
-2.135467
 31
0.0
  0
LINE
  5
38B
100
AcDbEntity
  8
2
  6
CENTER
 62
     2
100
AcDbLine
 10
-94.271491
 20
11.364533
 30
0.0
 11
-114.478765
 21
11.364533
 31
0.0
  0
LINE
  5
38C
100
AcDbEntity
  8
2
  6
CENTER
 62
     2
100
AcDbLine
 10
-104.194112
 20
21.756023
 30
0.0
 11
-104.194112
 21
0.372138
 31
0.0
  0
LINE
  5
38D
100
AcDbEntity
  8
2
100
AcDbLine
 10
-185.424881
 20
2.557413
 30
0.0
 11
-185.424881
 21
-7.635467
 31
0.0
  0
ARC
  5
38E
100
AcDbEntity
  8
2
100
AcDbCircle
 10
-180.424881
 20
2.557413
 30
0.0
 40
5.0
100
AcDbArc
 50
124.714037
 51
180.0
  0
ARC
  5
38F
100
AcDbEntity
  8
2
100
AcDbCircle
 10
-175.894499
 20
-4.036192
 30
0.0
 40
13.0
100
AcDbArc
 50
102.0
 51
124.492462
  0
LINE
  5
390
100
AcDbEntity
  8
2
100
AcDbLine
 10
-212.270882
 20
0.850203
 30
0.0
 11
-228.568693
 21
-3.013123
 31
0.0
  0
LINE
  5
391
100
AcDbEntity
  8
2
  6
CENTER
 62
     2
100
AcDbLine
 10
-202.937202
 20
-2.135467
 30
0.0
 11
-185.145449
 21
-2.135467
 31
0.0
  0
CIRCLE
  5
392
100
AcDbEntity
  8
2
100
AcDbCircle
 10
-104.194112
 20
11.364533
 30
0.0
 40
1.5
  0
ARC
  5
393
100
AcDbEntity
  8
2
100
AcDbCircle
 10
-138.96786
 20
-23.635467
 30
0.0
 40
1.0
100
AcDbArc
 50
180.0
 51
270.0
  0
LINE
  5
394
100
AcDbEntity
  8
2
100
AcDbLine
 10
-138.96786
 20
-24.635467
 30
0.0
 11
-133.194112
 21
-24.635467
 31
0.0
  0
LINE
  5
395
100
AcDbEntity
  8
2
100
AcDbLine
 10
-129.658578
 20
-23.171001
 30
0.0
 11
-126.123044
 21
-19.635467
 31
0.0
  0
LINE
  5
396
100
AcDbEntity
  8
2
100
AcDbLine
 10
-139.96786
 20
-12.635467
 30
0.0
 11
-127.658578
 21
-0.326185
 31
0.0
  0
ARC
  5
397
100
AcDbEntity
  8
2
100
AcDbCircle
 10
-92.35498
 20
-28.29381
 30
0.0
 40
30.0
100
AcDbArc
 50
80.0
 51
135.0
  0
LINE
  5
398
100
AcDbEntity
  8
2
100
AcDbLine
 10
-139.96786
 20
-12.635467
 30
0.0
 11
-139.96786
 21
-17.635467
 31
0.0
  0
LINE
  5
399
100
AcDbEntity
  8
2
100
AcDbLine
 10
-131.123044
 20
-3.790651
 30
0.0
 11
-131.123044
 21
-17.635467
 31
0.0
  0
ARC
  5
39A
100
AcDbEntity
  8
2
100
AcDbCircle
 10
-133.194112
 20
-19.635467
 30
0.0
 40
5.0
100
AcDbArc
 50
270.0
 51
315.0
  0
LINE
  5
39B
100
AcDbEntity
  8
2
100
AcDbLine
 10
-126.194112
 20
1.364533
 30
0.0
 11
-126.194112
 21
-17.635467
 31
0.0
  0
ARC
  5
39C
100
AcDbEntity
  8
2
100
AcDbCircle
 10
-131.194112
 20
3.209349
 30
0.0
 40
5.0
100
AcDbArc
 50
315.0
 51
338.348311
  0
LINE
  5
39D
100
AcDbEntity
  8
2
100
AcDbLine
 10
-127.094112
 20
-20.606535
 30
0.0
 11
-127.094112
 21
-19.635467
 31
0.0
  0
LINE
  5
39E
100
AcDbEntity
  8
2
100
AcDbLine
 10
-139.96786
 20
-19.635467
 30
0.0
 11
-139.96786
 21
-23.635467
 31
0.0
  0
LINE
  5
39F
100
AcDbEntity
  8
2
100
AcDbLine
 10
-131.123044
 20
-19.635467
 30
0.0
 11
-131.123044
 21
-24.186366
 31
0.0
  0
LINE
  5
3A0
100
AcDbEntity
  8
2
100
AcDbLine
 10
-126.194112
 20
-19.635467
 30
0.0
 11
-126.194112
 21
-19.706535
 31
0.0
  0
LINE
  5
3A1
100
AcDbEntity
  8
2
100
AcDbLine
 10
-124.123044
 20
-17.635467
 30
0.0
 11
-113.568183
 21
-7.080607
 31
0.0
  0
LINE
  5
3A2
100
AcDbEntity
  8
2
100
AcDbLine
 10
-119.194112
 20
-17.635467
 30
0.0
 11
-119.194112
 21
-19.635467
 31
0.0
  0
LINE
  5
3A3
100
AcDbEntity
  8
2
100
AcDbLine
 10
-119.194112
 20
-17.635467
 30
0.0
 11
-244.194112
 21
-17.635467
 31
0.0
  0
LINE
  5
3A4
100
AcDbEntity
  8
2
100
AcDbLine
 10
-244.194112
 20
-19.635467
 30
0.0
 11
-119.194112
 21
-19.635467
 31
0.0
  0
LINE
  5
3A5
100
AcDbEntity
  8
2
100
AcDbLine
 10
-154.782763
 20
-17.635467
 30
0.0
 11
-154.782763
 21
-19.635467
 31
0.0
  0
POINT
  5
3A6
100
AcDbEntity
  8
2
100
AcDbPoint
 10
-169.445374
 20
-17.635467
 30
0.0
  0
LINE
  5
3A7
100
AcDbEntity
  8
2
100
AcDbLine
 10
-169.445374
 20
-17.635467
 30
0.0
 11
-176.945374
 21
-17.635467
 31
0.0
  0
LINE
  5
3A8
100
AcDbEntity
  8
2
100
AcDbLine
 10
-176.945374
 20
-17.635467
 30
0.0
 11
-176.945374
 21
-12.857155
 31
0.0
  0
LINE
  5
3A9
100
AcDbEntity
  8
2
100
AcDbLine
 10
-176.945374
 20
-12.857155
 30
0.0
 11
-175.695374
 21
-12.135467
 31
0.0
  0
LINE
  5
3AA
100
AcDbEntity
  8
2
100
AcDbLine
 10
-175.695374
 20
-12.135467
 30
0.0
 11
-169.445374
 21
-12.135467
 31
0.0
  0
LINE
  5
3AB
100
AcDbEntity
  8
2
100
AcDbLine
 10
-173.195374
 20
-17.635467
 30
0.0
 11
-173.195374
 21
-12.857155
 31
0.0
  0
ARC
  5
3AC
100
AcDbEntity
  8
2
100
AcDbCircle
 10
-175.070374
 20
-15.267531
 30
0.0
 40
3.053774
100
AcDbArc
 50
52.121121
 51
127.878879
  0
ARC
  5
3AD
100
AcDbEntity
  8
2
100
AcDbCircle
 10
-169.445374
 20
-23.463757
 30
0.0
 40
11.25
100
AcDbArc
 50
90.0
 51
109.471221
  0
LINE
  5
3AE
100
AcDbEntity
  8
2
100
AcDbLine
 10
-169.445374
 20
-42.635467
 30
0.0
 11
-172.768874
 21
-42.635467
 31
0.0
  0
LINE
  5
3AF
100
AcDbEntity
  8
2
100
AcDbLine
 10
-172.768874
 20
-42.635467
 30
0.0
 11
-173.445374
 21
-41.958967
 31
0.0
  0
LINE
  5
3B0
100
AcDbEntity
  8
2
100
AcDbLine
 10
-173.445374
 20
-41.958967
 30
0.0
 11
-173.445374
 21
-40.135467
 31
0.0
  0
LINE
  5
3B1
100
AcDbEntity
  8
2
100
AcDbLine
 10
-173.445374
 20
-41.958967
 30
0.0
 11
-169.445374
 21
-41.958967
 31
0.0
  0
LINE
  5
3B2
100
AcDbEntity
  8
2
 62
     2
100
AcDbLine
 10
-172.768874
 20
-42.635467
 30
0.0
 11
-172.768874
 21
-40.135467
 31
0.0
  0
LINE
  5
3B3
100
AcDbEntity
  8
2
100
AcDbLine
 10
-169.445374
 20
-17.635467
 30
0.0
 11
-161.945374
 21
-17.635467
 31
0.0
  0
LINE
  5
3B4
100
AcDbEntity
  8
2
100
AcDbLine
 10
-161.945374
 20
-17.635467
 30
0.0
 11
-161.945374
 21
-12.857155
 31
0.0
  0
LINE
  5
3B5
100
AcDbEntity
  8
2
100
AcDbLine
 10
-161.945374
 20
-12.857155
 30
0.0
 11
-163.195374
 21
-12.135467
 31
0.0
  0
LINE
  5
3B6
100
AcDbEntity
  8
2
100
AcDbLine
 10
-163.195374
 20
-12.135467
 30
0.0
 11
-169.445374
 21
-12.135467
 31
0.0
  0
LINE
  5
3B7
100
AcDbEntity
  8
2
100
AcDbLine
 10
-165.695374
 20
-17.635467
 30
0.0
 11
-165.695374
 21
-12.857155
 31
0.0
  0
ARC
  5
3B8
100
AcDbEntity
  8
2
100
AcDbCircle
 10
-163.820374
 20
-15.267531
 30
0.0
 40
3.053774
100
AcDbArc
 50
52.121121
 51
127.878879
  0
ARC
  5
3B9
100
AcDbEntity
  8
2
100
AcDbCircle
 10
-169.445374
 20
-23.463757
 30
0.0
 40
11.25
100
AcDbArc
 50
70.528779
 51
90.0
  0
LINE
  5
3BA
100
AcDbEntity
  8
2
100
AcDbLine
 10
-169.445374
 20
-42.635467
 30
0.0
 11
-166.121874
 21
-42.635467
 31
0.0
  0
LINE
  5
3BB
100
AcDbEntity
  8
2
100
AcDbLine
 10
-166.121874
 20
-42.635467
 30
0.0
 11
-165.445374
 21
-41.958967
 31
0.0
  0
LINE
  5
3BC
100
AcDbEntity
  8
2
100
AcDbLine
 10
-165.445374
 20
-41.958967
 30
0.0
 11
-165.445374
 21
-40.135467
 31
0.0
  0
LINE
  5
3BD
100
AcDbEntity
  8
2
100
AcDbLine
 10
-165.445374
 20
-41.958967
 30
0.0
 11
-169.445374
 21
-41.958967
 31
0.0
  0
LINE
  5
3BE
100
AcDbEntity
  8
2
 62
     2
100
AcDbLine
 10
-166.121874
 20
-42.635467
 30
0.0
 11
-166.121874
 21
-40.135467
 31
0.0
  0
POINT
  5
3BF
100
AcDbEntity
  8
2
100
AcDbPoint
 10
-169.445374
 20
-31.635467
 30
0.0
  0
LINE
  5
3C0
100
AcDbEntity
  8
2
100
AcDbLine
 10
-169.445374
 20
-33.635467
 30
0.0
 11
-161.945374
 21
-33.635467
 31
0.0
  0
LINE
  5
3C1
100
AcDbEntity
  8
2
100
AcDbLine
 10
-161.945374
 20
-33.635467
 30
0.0
 11
-161.945374
 21
-39.413779
 31
0.0
  0
LINE
  5
3C2
100
AcDbEntity
  8
2
100
AcDbLine
 10
-161.945374
 20
-39.413779
 30
0.0
 11
-163.195374
 21
-40.135467
 31
0.0
  0
LINE
  5
3C3
100
AcDbEntity
  8
2
100
AcDbLine
 10
-163.195374
 20
-40.135467
 30
0.0
 11
-169.445374
 21
-40.135467
 31
0.0
  0
LINE
  5
3C4
100
AcDbEntity
  8
2
100
AcDbLine
 10
-165.695374
 20
-33.635467
 30
0.0
 11
-165.695374
 21
-39.413779
 31
0.0
  0
ARC
  5
3C5
100
AcDbEntity
  8
2
100
AcDbCircle
 10
-163.820374
 20
-37.003403
 30
0.0
 40
3.053774
100
AcDbArc
 50
232.121121
 51
307.878879
  0
ARC
  5
3C6
100
AcDbEntity
  8
2
100
AcDbCircle
 10
-169.445374
 20
-28.807178
 30
0.0
 40
11.25
100
AcDbArc
 50
270.0
 51
289.471221
  0
LINE
  5
3C7
100
AcDbEntity
  8
2
100
AcDbLine
 10
-169.445374
 20
-33.635467
 30
0.0
 11
-176.945374
 21
-33.635467
 31
0.0
  0
LINE
  5
3C8
100
AcDbEntity
  8
2
100
AcDbLine
 10
-176.945374
 20
-33.635467
 30
0.0
 11
-176.945374
 21
-39.413779
 31
0.0
  0
LINE
  5
3C9
100
AcDbEntity
  8
2
100
AcDbLine
 10
-176.945374
 20
-39.413779
 30
0.0
 11
-175.695374
 21
-40.135467
 31
0.0
  0
LINE
  5
3CA
100
AcDbEntity
  8
2
100
AcDbLine
 10
-175.695374
 20
-40.135467
 30
0.0
 11
-169.445374
 21
-40.135467
 31
0.0
  0
LINE
  5
3CB
100
AcDbEntity
  8
2
100
AcDbLine
 10
-173.195374
 20
-33.635467
 30
0.0
 11
-173.195374
 21
-39.413779
 31
0.0
  0
ARC
  5
3CC
100
AcDbEntity
  8
2
100
AcDbCircle
 10
-175.070374
 20
-37.003403
 30
0.0
 40
3.053774
100
AcDbArc
 50
232.121121
 51
307.878879
  0
ARC
  5
3CD
100
AcDbEntity
  8
2
100
AcDbCircle
 10
-169.445374
 20
-28.807178
 30
0.0
 40
11.25
100
AcDbArc
 50
250.528779
 51
270.0
  0
LINE
  5
3CE
100
AcDbEntity
  8
2
100
AcDbLine
 10
-161.745374
 20
-31.635467
 30
0.0
 11
-161.745374
 21
-33.635467
 31
0.0
  0
LINE
  5
3CF
100
AcDbEntity
  8
2
100
AcDbLine
 10
-161.745374
 20
-33.635467
 30
0.0
 11
-177.145374
 21
-33.635467
 31
0.0
  0
LINE
  5
3D0
100
AcDbEntity
  8
2
100
AcDbLine
 10
-177.145374
 20
-33.635467
 30
0.0
 11
-177.145374
 21
-31.635467
 31
0.0
  0
LINE
  5
3D1
100
AcDbEntity
  8
2
100
AcDbLine
 10
-177.145374
 20
-31.635467
 30
0.0
 11
-161.745374
 21
-31.635467
 31
0.0
  0
LINE
  5
3D2
100
AcDbEntity
  8
2
100
AcDbLine
 10
-169.445374
 20
-33.635467
 30
0.0
 11
-169.945374
 21
-31.635467
 31
0.0
  0
LINE
  5
3D3
100
AcDbEntity
  8
2
100
AcDbLine
 10
-169.445374
 20
-31.635467
 30
0.0
 11
-168.945374
 21
-33.635467
 31
0.0
  0
POINT
  5
3D4
100
AcDbEntity
  8
2
100
AcDbPoint
 10
-218.942849
 20
-17.635467
 30
0.0
  0
LINE
  5
3D5
100
AcDbEntity
  8
2
100
AcDbLine
 10
-218.942849
 20
-17.635467
 30
0.0
 11
-226.442849
 21
-17.635467
 31
0.0
  0
LINE
  5
3D6
100
AcDbEntity
  8
2
100
AcDbLine
 10
-226.442849
 20
-17.635467
 30
0.0
 11
-226.442849
 21
-12.857155
 31
0.0
  0
LINE
  5
3D7
100
AcDbEntity
  8
2
100
AcDbLine
 10
-226.442849
 20
-12.857155
 30
0.0
 11
-225.192849
 21
-12.135467
 31
0.0
  0
LINE
  5
3D8
100
AcDbEntity
  8
2
100
AcDbLine
 10
-225.192849
 20
-12.135467
 30
0.0
 11
-218.942849
 21
-12.135467
 31
0.0
  0
LINE
  5
3D9
100
AcDbEntity
  8
2
100
AcDbLine
 10
-222.692849
 20
-17.635467
 30
0.0
 11
-222.692849
 21
-12.857155
 31
0.0
  0
ARC
  5
3DA
100
AcDbEntity
  8
2
100
AcDbCircle
 10
-224.567849
 20
-15.267531
 30
0.0
 40
3.053774
100
AcDbArc
 50
52.121121
 51
127.878879
  0
ARC
  5
3DB
100
AcDbEntity
  8
2
100
AcDbCircle
 10
-218.942849
 20
-23.463757
 30
0.0
 40
11.25
100
AcDbArc
 50
90.0
 51
109.471221
  0
LINE
  5
3DC
100
AcDbEntity
  8
2
100
AcDbLine
 10
-218.942849
 20
-42.635467
 30
0.0
 11
-222.266349
 21
-42.635467
 31
0.0
  0
LINE
  5
3DD
100
AcDbEntity
  8
2
100
AcDbLine
 10
-222.266349
 20
-42.635467
 30
0.0
 11
-222.942849
 21
-41.958967
 31
0.0
  0
LINE
  5
3DE
100
AcDbEntity
  8
2
100
AcDbLine
 10
-222.942849
 20
-41.958967
 30
0.0
 11
-222.942849
 21
-40.135467
 31
0.0
  0
LINE
  5
3DF
100
AcDbEntity
  8
2
100
AcDbLine
 10
-222.942849
 20
-41.958967
 30
0.0
 11
-218.942849
 21
-41.958967
 31
0.0
  0
LINE
  5
3E0
100
AcDbEntity
  8
2
 62
     2
100
AcDbLine
 10
-222.266349
 20
-42.635467
 30
0.0
 11
-222.266349
 21
-40.135467
 31
0.0
  0
LINE
  5
3E1
100
AcDbEntity
  8
2
100
AcDbLine
 10
-218.942849
 20
-17.635467
 30
0.0
 11
-211.442849
 21
-17.635467
 31
0.0
  0
LINE
  5
3E2
100
AcDbEntity
  8
2
100
AcDbLine
 10
-211.442849
 20
-17.635467
 30
0.0
 11
-211.442849
 21
-12.857155
 31
0.0
  0
LINE
  5
3E3
100
AcDbEntity
  8
2
100
AcDbLine
 10
-211.442849
 20
-12.857155
 30
0.0
 11
-212.692849
 21
-12.135467
 31
0.0
  0
LINE
  5
3E4
100
AcDbEntity
  8
2
100
AcDbLine
 10
-212.692849
 20
-12.135467
 30
0.0
 11
-218.942849
 21
-12.135467
 31
0.0
  0
LINE
  5
3E5
100
AcDbEntity
  8
2
100
AcDbLine
 10
-215.192849
 20
-17.635467
 30
0.0
 11
-215.192849
 21
-12.857155
 31
0.0
  0
ARC
  5
3E6
100
AcDbEntity
  8
2
100
AcDbCircle
 10
-213.317849
 20
-15.267531
 30
0.0
 40
3.053774
100
AcDbArc
 50
52.121121
 51
127.878879
  0
ARC
  5
3E7
100
AcDbEntity
  8
2
100
AcDbCircle
 10
-218.942849
 20
-23.463757
 30
0.0
 40
11.25
100
AcDbArc
 50
70.528779
 51
90.0
  0
LINE
  5
3E8
100
AcDbEntity
  8
2
100
AcDbLine
 10
-218.942849
 20
-42.635467
 30
0.0
 11
-215.619349
 21
-42.635467
 31
0.0
  0
LINE
  5
3E9
100
AcDbEntity
  8
2
100
AcDbLine
 10
-215.619349
 20
-42.635467
 30
0.0
 11
-214.942849
 21
-41.958967
 31
0.0
  0
LINE
  5
3EA
100
AcDbEntity
  8
2
100
AcDbLine
 10
-214.942849
 20
-41.958967
 30
0.0
 11
-214.942849
 21
-40.135467
 31
0.0
  0
LINE
  5
3EB
100
AcDbEntity
  8
2
100
AcDbLine
 10
-214.942849
 20
-41.958967
 30
0.0
 11
-218.942849
 21
-41.958967
 31
0.0
  0
LINE
  5
3EC
100
AcDbEntity
  8
2
 62
     2
100
AcDbLine
 10
-215.619349
 20
-42.635467
 30
0.0
 11
-215.619349
 21
-40.135467
 31
0.0
  0
POINT
  5
3ED
100
AcDbEntity
  8
2
100
AcDbPoint
 10
-218.942849
 20
-31.635467
 30
0.0
  0
LINE
  5
3EE
100
AcDbEntity
  8
2
100
AcDbLine
 10
-213.194112
 20
-40.135467
 30
0.0
 11
-218.942849
 21
-40.135467
 31
0.0
  0
LINE
  5
3EF
100
AcDbEntity
  8
2
100
AcDbLine
 10
-215.192849
 20
-33.635467
 30
0.0
 11
-215.192849
 21
-39.413779
 31
0.0
  0
ARC
  5
3F0
100
AcDbEntity
  8
2
100
AcDbCircle
 10
-213.317849
 20
-37.003403
 30
0.0
 40
3.053774
100
AcDbArc
 50
232.121121
 51
272.322224
  0
ARC
  5
3F1
100
AcDbEntity
  8
2
100
AcDbCircle
 10
-218.942849
 20
-28.807178
 30
0.0
 40
11.25
100
AcDbArc
 50
270.0
 51
289.471221
  0
LINE
  5
3F2
100
AcDbEntity
  8
2
100
AcDbLine
 10
-213.730011
 20
-33.635467
 30
0.0
 11
-226.442849
 21
-33.635467
 31
0.0
  0
LINE
  5
3F3
100
AcDbEntity
  8
2
100
AcDbLine
 10
-226.442849
 20
-33.635467
 30
0.0
 11
-226.442849
 21
-39.413779
 31
0.0
  0
LINE
  5
3F4
100
AcDbEntity
  8
2
100
AcDbLine
 10
-226.442849
 20
-39.413779
 30
0.0
 11
-225.192849
 21
-40.135467
 31
0.0
  0
LINE
  5
3F5
100
AcDbEntity
  8
2
100
AcDbLine
 10
-225.192849
 20
-40.135467
 30
0.0
 11
-218.942849
 21
-40.135467
 31
0.0
  0
LINE
  5
3F6
100
AcDbEntity
  8
2
100
AcDbLine
 10
-222.692849
 20
-33.635467
 30
0.0
 11
-222.692849
 21
-39.413779
 31
0.0
  0
ARC
  5
3F7
100
AcDbEntity
  8
2
100
AcDbCircle
 10
-224.567849
 20
-37.003403
 30
0.0
 40
3.053774
100
AcDbArc
 50
232.121121
 51
307.878879
  0
ARC
  5
3F8
100
AcDbEntity
  8
2
100
AcDbCircle
 10
-218.942849
 20
-28.807178
 30
0.0
 40
11.25
100
AcDbArc
 50
250.528779
 51
270.0
  0
LINE
  5
3F9
100
AcDbEntity
  8
2
100
AcDbLine
 10
-219.560915
 20
-33.635467
 30
0.0
 11
-226.642849
 21
-33.635467
 31
0.0
  0
LINE
  5
3FA
100
AcDbEntity
  8
2
100
AcDbLine
 10
-226.642849
 20
-33.635467
 30
0.0
 11
-226.642849
 21
-31.635467
 31
0.0
  0
LINE
  5
3FB
100
AcDbEntity
  8
2
100
AcDbLine
 10
-226.642849
 20
-31.635467
 30
0.0
 11
-211.242849
 21
-31.635467
 31
0.0
  0
LINE
  5
3FC
100
AcDbEntity
  8
2
  6
CENTER
 62
     2
100
AcDbLine
 10
-169.445375
 20
-43.372357
 30
0.0
 11
-169.445375
 21
-10.523585
 31
0.0
  0
LINE
  5
3FD
100
AcDbEntity
  8
2
  6
CENTER
 62
     2
100
AcDbLine
 10
-218.94285
 20
-43.875781
 30
0.0
 11
-218.94285
 21
-10.649434
 31
0.0
  0
LINE
  5
3FE
100
AcDbEntity
  8
2
100
AcDbLine
 10
-244.194112
 20
-17.635467
 30
0.0
 11
-244.194112
 21
-19.635467
 31
0.0
  0
ARC
  5
3FF
100
AcDbEntity
  8
2
100
AcDbCircle
 10
0.055722
 20
41.541907
 30
0.0
 40
5.0
100
AcDbArc
 50
12.0
 51
102.0
  0
LINE
  5
400
100
AcDbEntity
  8
2
100
AcDbLine
 10
5.645495
 20
39.29276
 30
0.0
 11
4.94646
 21
42.581465
 31
0.0
  0
LINE
  5
401
100
AcDbEntity
  8
2
100
AcDbLine
 10
-93.26518
 20
4.293465
 30
0.0
 11
-90.57802
 21
6.980625
 31
0.0
  0
ARC
  5
402
100
AcDbEntity
  8
2
100
AcDbCircle
 10
4.667348
 20
39.084849
 30
0.0
 40
1.0
100
AcDbArc
 50
285.0
 51
12.0
  0
LINE
  5
403
100
AcDbEntity
  8
2
100
AcDbLine
 10
4.926167
 20
38.118923
 30
0.0
 11
-72.64651
 21
17.333387
 31
0.0
  0
ARC
  5
404
100
AcDbEntity
  8
2
100
AcDbCircle
 10
-62.293749
 20
-21.303646
 30
0.0
 40
40.0
100
AcDbArc
 50
105.0
 51
135.0
  0
LINE
  5
405
100
AcDbEntity
  8
2
100
AcDbLine
 10
-57.636484
 20
16.671687
 30
0.0
 11
-51.801229
 21
15.899868
 31
0.0
  0
LINE
  5
406
100
AcDbEntity
  8
2
100
AcDbLine
 10
-57.75676
 20
21.323083
 30
0.0
 11
-52.25503
 21
20.872167
 31
0.0
  0
LINE
  5
407
100
AcDbEntity
  8
2
100
AcDbLine
 10
-48.360368
 20
22.452157
 30
0.0
 11
-57.881282
 21
18.589703
 31
0.0
  0
LINE
  5
408
100
AcDbEntity
  8
2
100
AcDbLine
 10
-47.608519
 20
20.598857
 30
0.0
 11
-57.129433
 21
16.736402
 31
0.0
  0
LINE
  5
409
100
AcDbEntity
  8
2
100
AcDbLine
 10
-47.679362
 20
17.270557
 30
0.0
 11
-57.634717
 21
13.959996
 31
0.0
  0
LINE
  5
40A
100
AcDbEntity
  8
2
100
AcDbLine
 10
-47.048261
 20
15.37274
 30
0.0
 11
-57.003615
 21
12.062179
 31
0.0
  0
LINE
  5
40B
100
AcDbEntity
  8
2
100
AcDbLine
 10
-47.608849
 20
11.626236
 30
0.0
 11
-57.828667
 21
7.680074
 31
0.0
  0
LINE
  5
40C
100
AcDbEntity
  8
2
100
AcDbLine
 10
-46.888432
 20
9.760492
 30
0.0
 11
-57.316029
 21
5.734101
 31
0.0
  0
LINE
  5
40D
100
AcDbEntity
  8
2
100
AcDbLine
 10
-57.541099
 20
12.036025
 30
0.0
 11
-55.386537
 21
11.545626
 31
0.0
  0
ARC
  5
40E
100
AcDbEntity
  8
2
100
AcDbCircle
 10
-57.319166
 20
13.011087
 30
0.0
 40
1.0
100
AcDbArc
 50
108.394069
 51
288.394069
  0
ARC
  5
40F
100
AcDbEntity
  8
2
100
AcDbCircle
 10
-57.505357
 20
17.663053
 30
0.0
 40
1.0
100
AcDbArc
 50
112.081463
 51
292.081463
  0
ARC
  5
410
100
AcDbEntity
  8
2
100
AcDbCircle
 10
-47.363811
 20
16.321648
 30
0.0
 40
1.0
100
AcDbArc
 50
288.394069
 51
108.394069
  0
CIRCLE
  5
411
100
AcDbEntity
  8
2
100
AcDbCircle
 10
-47.481595
 20
6.411575
 30
0.0
 40
1.0
  0
LINE
  5
412
100
AcDbEntity
  8
2
100
AcDbLine
 10
-48.397872
 20
7.442368
 30
0.0
 11
-47.481595
 21
7.411575
 31
0.0
  0
LINE
  5
413
100
AcDbEntity
  8
2
100
AcDbLine
 10
-53.622663
 20
13.186483
 30
0.0
 11
-47.024355
 21
11.667888
 31
0.0
  0
LINE
  5
414
100
AcDbEntity
  8
2
100
AcDbLine
 10
-50.668565
 20
10.471771
 30
0.0
 11
-50.624607
 21
10.461766
 31
0.0
  0
ARC
  5
415
100
AcDbEntity
  8
2
100
AcDbCircle
 10
-47.248641
 20
10.693364
 30
0.0
 40
1.0
100
AcDbArc
 50
291.112991
 51
111.112991
  0
LINE
  5
416
100
AcDbEntity
  8
2
100
AcDbLine
 10
-52.02181
 20
22.859759
 30
0.0
 11
-47.902759
 21
22.522165
 31
0.0
  0
LINE
  5
417
100
AcDbEntity
  8
2
100
AcDbLine
 10
-53.624201
 20
18.158409
 30
0.0
 11
-47.232685
 21
17.313014
 31
0.0
  0
ARC
  5
418
100
AcDbEntity
  8
2
100
AcDbCircle
 10
-47.984444
 20
21.525507
 30
0.0
 40
1.0
100
AcDbArc
 50
292.081463
 51
112.081463
  0
ARC
  5
419
100
AcDbEntity
  8
2
100
AcDbCircle
 10
-57.468459
 20
6.747202
 30
0.0
 40
1.0
100
AcDbArc
 50
111.105845
 51
266.001991
  0
LINE
  5
41A
100
AcDbEntity
  8
2
100
AcDbLine
 10
-48.284644
 20
5.438889
 30
0.0
 11
-47.481595
 21
5.411575
 31
0.0
  0
ARC
  5
41B
100
AcDbEntity
  8
2
  6
CENTER
 62
     2
100
AcDbCircle
 10
-104.194112
 20
11.364533
 30
0.0
 40
52.075925
100
AcDbArc
 50
348.756732
 51
23.167626
  0
ARC
  5
41C
100
AcDbEntity
  8
2
100
AcDbCircle
 10
-2.196117
 20
-1.860907
 30
0.0
 40
8.0
100
AcDbArc
 50
359.985133
 51
88.0
  0
LINE
  5
41D
100
AcDbEntity
  8
2
100
AcDbLine
 10
-87.145535
 20
1.250423
 30
0.0
 11
-63.37689
 21
-2.940631
 31
0.0
  0
LINE
  5
41E
100
AcDbEntity
  8
2
100
AcDbLine
 10
-60.461151
 20
6.956471
 30
0.0
 11
-60.408376
 21
7.711195
 31
0.0
  0
LINE
  5
41F
100
AcDbEntity
  8
2
100
AcDbLine
 10
-44.500126
 20
5.840368
 30
0.0
 11
-44.445654
 21
6.619356
 31
0.0
  0
LINE
  5
420
100
AcDbEntity
  8
2
100
AcDbLine
 10
-55.111307
 20
11.78488
 30
0.0
 11
-49.125922
 21
11.366341
 31
0.0
  0
LINE
  5
421
100
AcDbEntity
  8
2
100
AcDbLine
 10
-56.361161
 20
8.24672
 30
0.0
 11
-56.178627
 21
10.857073
 31
0.0
  0
LINE
  5
422
100
AcDbEntity
  8
2
100
AcDbLine
 10
-48.490383
 20
6.119394
 30
0.0
 11
-48.273161
 21
9.225809
 31
0.0
  0
LINE
  5
423
100
AcDbEntity
  8
2
100
AcDbLine
 10
-56.178627
 20
10.857073
 30
0.0
 11
-55.111307
 21
11.78488
 31
0.0
  0
LINE
  5
424
100
AcDbEntity
  8
2
100
AcDbLine
 10
-49.125922
 20
11.366341
 30
0.0
 11
-48.913823
 21
11.122349
 31
0.0
  0
LINE
  5
425
100
AcDbEntity
  8
2
100
AcDbLine
 10
5.803883
 20
-1.862983
 30
0.0
 11
5.803312
 21
-4.064944
 31
0.0
  0
LINE
  5
426
100
AcDbEntity
  8
2
100
AcDbLine
 10
-1.916921
 20
6.134219
 30
0.0
 11
-43.376507
 21
7.58202
 31
0.0
  0
ARC
  5
427
100
AcDbEntity
  8
2
100
AcDbCircle
 10
-47.492819
 20
6.049637
 30
0.0
 40
1.0
100
AcDbArc
 50
176.0
 51
266.0
  0
LINE
  5
428
100
AcDbEntity
  8
2
100
AcDbLine
 10
-59.533344
 20
5.889151
 30
0.0
 11
-45.567447
 21
4.91256
 31
0.0
  0
LINE
  5
429
100
AcDbEntity
  8
2
100
AcDbLine
 10
-56.178627
 20
10.857073
 30
0.0
 11
-50.609408
 21
10.467635
 31
0.0
  0
ARC
  5
42A
100
AcDbEntity
  8
2
100
AcDbCircle
 10
-49.485035
 20
75.843989
 30
0.0
 40
80.0
100
AcDbArc
 50
260.0
 51
269.845396
  0
ARC
  5
42B
100
AcDbEntity
  8
2
100
AcDbCircle
 10
3.803312
 20
-4.064425
 30
0.0
 40
2.0
100
AcDbArc
 50
222.427004
 51
359.985133
  0
ARC
  5
42C
100
AcDbEntity
  8
2
100
AcDbCircle
 10
-3.578063
 20
-10.810929
 30
0.0
 40
8.0
100
AcDbArc
 50
42.427004
 51
123.659088
  0
ARC
  5
42D
100
AcDbEntity
  8
2
100
AcDbCircle
 10
-12.446066
 20
2.506673
 30
0.0
 40
8.0
100
AcDbArc
 50
232.340912
 51
303.659088
  0
ARC
  5
42E
100
AcDbEntity
  8
2
100
AcDbCircle
 10
-22.221457
 20
-10.159887
 30
0.0
 40
8.0
100
AcDbArc
 50
52.340912
 51
123.659088
  0
ARC
  5
42F
100
AcDbEntity
  8
2
100
AcDbCircle
 10
-31.089461
 20
3.157715
 30
0.0
 40
8.0
100
AcDbArc
 50
232.340912
 51
303.659088
  0
ARC
  5
430
100
AcDbEntity
  8
2
100
AcDbCircle
 10
-40.864851
 20
-9.508845
 30
0.0
 40
8.0
100
AcDbArc
 50
52.340912
 51
123.42906
  0
ARC
  5
431
100
AcDbEntity
  8
2
100
AcDbCircle
 10
-49.679317
 20
3.844252
 30
0.0
 40
8.0
100
AcDbArc
 50
269.845396
 51
303.42906
  0
LINE
  5
432
100
AcDbEntity
  8
2
100
AcDbLine
 10
-60.408376
 20
7.711195
 30
0.0
 11
-61.323427
 21
8.882408
 31
0.0
  0
LINE
  5
433
100
AcDbEntity
  8
2
100
AcDbLine
 10
-43.376507
 20
7.58202
 30
0.0
 11
-44.445654
 21
6.619356
 31
0.0
  0
ARC
  5
434
100
AcDbEntity
  8
2
100
AcDbCircle
 10
-59.463587
 20
6.886715
 30
0.0
 40
1.0
100
AcDbArc
 50
176.0
 51
266.0
  0
ARC
  5
435
100
AcDbEntity
  8
2
100
AcDbCircle
 10
-45.497691
 20
5.910124
 30
0.0
 40
1.0
100
AcDbArc
 50
266.0
 51
356.0
  0
LINE
  5
436
100
AcDbEntity
  8
2
100
AcDbLine
 10
-85.194112
 20
0.906334
 30
0.0
 11
-85.194112
 21
11.492289
 31
0.0
  0
LINE
  5
437
100
AcDbEntity
  8
2
100
AcDbLine
 10
-83.184691
 20
12.737138
 30
0.0
 11
-61.323427
 21
8.882408
 31
0.0
  0
ARC
  5
438
100
AcDbEntity
  8
2
100
AcDbCircle
 10
-82.663747
 20
15.691562
 30
0.0
 40
3.0
100
AcDbArc
 50
258.30264
 51
260.0
  0
LINE
  5
439
100
AcDbEntity
  8
2
100
AcDbLine
 10
-99.194112
 20
11.364533
 30
0.0
 11
-99.194112
 21
2.364533
 31
0.0
  0
ARC
  5
43A
100
AcDbEntity
  8
2
100
AcDbCircle
 10
-100.194112
 20
2.364533
 30
0.0
 40
1.0
100
AcDbArc
 50
270.0
 51
360.0
  0
LINE
  5
43B
100
AcDbEntity
  8
2
100
AcDbLine
 10
-218.942849
 20
-31.635467
 30
0.0
 11
-218.442849
 21
-33.635467
 31
0.0
  0
LINE
  5
43C
100
AcDbEntity
  8
2
100
AcDbLine
 10
-218.942849
 20
-33.635467
 30
0.0
 11
-219.442849
 21
-31.635467
 31
0.0
  0
LINE
  5
43D
100
AcDbEntity
  8
2
100
AcDbLine
 10
143.968825
 20
1.364533
 30
0.0
 11
149.968825
 21
1.364533
 31
0.0
  0
ARC
  5
43E
100
AcDbEntity
  8
2
100
AcDbCircle
 10
145.468825
 20
2.364533
 30
0.0
 40
1.0
100
AcDbArc
 50
180.0
 51
270.0
  0
LINE
  5
43F
100
AcDbEntity
  8
2
100
AcDbLine
 10
169.968825
 20
1.364533
 30
0.0
 11
163.968825
 21
1.364533
 31
0.0
  0
ARC
  5
440
100
AcDbEntity
  8
2
100
AcDbCircle
 10
168.468825
 20
2.364533
 30
0.0
 40
1.0
100
AcDbArc
 50
270.0
 51
360.0
  0
LINE
  5
441
100
AcDbEntity
  8
2
100
AcDbLine
 10
170.968825
 20
13.364533
 30
0.0
 11
171.968825
 21
12.364533
 31
0.0
  0
LINE
  5
442
100
AcDbEntity
  8
2
100
AcDbLine
 10
171.968825
 20
-7.635467
 30
0.0
 11
171.968825
 21
12.364533
 31
0.0
  0
LINE
  5
443
100
AcDbEntity
  8
2
100
AcDbLine
 10
162.968825
 20
2.364533
 30
0.0
 11
162.968825
 21
13.108902
 31
0.0
  0
LINE
  5
444
100
AcDbEntity
  8
2
100
AcDbLine
 10
170.968825
 20
2.364533
 30
0.0
 11
170.968825
 21
15.864533
 31
0.0
  0
ARC
  5
445
100
AcDbEntity
  8
2
100
AcDbCircle
 10
170.468825
 20
15.864533
 30
0.0
 40
0.5
100
AcDbArc
 50
0.0
 51
90.0
  0
ARC
  5
446
100
AcDbEntity
  8
2
100
AcDbCircle
 10
169.968825
 20
16.864533
 30
0.0
 40
0.5
100
AcDbArc
 50
180.0
 51
270.0
  0
LINE
  5
447
100
AcDbEntity
  8
2
100
AcDbLine
 10
170.468825
 20
16.364533
 30
0.0
 11
169.968825
 21
16.364533
 31
0.0
  0
LINE
  5
448
100
AcDbEntity
  8
2
100
AcDbLine
 10
169.468825
 20
2.364533
 30
0.0
 11
169.468825
 21
16.864533
 31
0.0
  0
LINE
  5
449
100
AcDbEntity
  8
2
100
AcDbLine
 10
165.058025
 20
14.508124
 30
0.0
 11
163.6636
 21
14.061182
 31
0.0
  0
ARC
  5
44A
100
AcDbEntity
  8
2
100
AcDbCircle
 10
163.968825
 20
13.108902
 30
0.0
 40
1.0
100
AcDbArc
 50
107.771715
 51
180.0
  0
LINE
  5
44B
100
AcDbEntity
  8
2
100
AcDbLine
 10
162.968825
 20
19.610804
 30
0.0
 11
162.968825
 21
13.108902
 31
0.0
  0
LINE
  5
44C
100
AcDbEntity
  8
2
100
AcDbLine
 10
170.968825
 20
8.837545
 30
0.0
 11
171.768825
 21
1.291769
 31
0.0
  0
ARC
  5
44D
100
AcDbEntity
  8
2
100
AcDbCircle
 10
169.968825
 20
2.364533
 30
0.0
 40
1.0
100
AcDbArc
 50
270.0
 51
360.0
  0
ARC
  5
44E
100
AcDbEntity
  8
2
100
AcDbCircle
 10
163.968825
 20
2.364533
 30
0.0
 40
1.0
100
AcDbArc
 50
180.0
 51
270.0
  0
ARC
  5
44F
100
AcDbEntity
  8
2
100
AcDbCircle
 10
164.7528
 20
15.460405
 30
0.0
 40
1.0
100
AcDbArc
 50
287.771715
 51
6.051867
  0
ARC
  5
450
100
AcDbEntity
  8
2
100
AcDbCircle
 10
149.18485
 20
15.460405
 30
0.0
 40
1.0
100
AcDbArc
 50
173.948133
 51
252.228285
  0
ARC
  5
451
100
AcDbEntity
  8
2
100
AcDbCircle
 10
149.968825
 20
2.364533
 30
0.0
 40
1.0
100
AcDbArc
 50
270.0
 51
360.0
  0
ARC
  5
452
100
AcDbEntity
  8
2
100
AcDbCircle
 10
143.968825
 20
2.364533
 30
0.0
 40
1.0
100
AcDbArc
 50
180.0
 51
270.0
  0
ARC
  5
453
100
AcDbEntity
  8
2
100
AcDbCircle
 10
166.799412
 20
-3.843684
 30
0.0
 40
1.0
100
AcDbArc
 50
279.951879
 51
6.051867
  0
ARC
  5
454
100
AcDbEntity
  8
2
100
AcDbCircle
 10
147.138238
 20
-3.843684
 30
0.0
 40
1.0
100
AcDbArc
 50
173.948133
 51
260.048121
  0
ARC
  5
455
100
AcDbEntity
  8
2
100
AcDbCircle
 10
156.968825
 20
52.183464
 30
0.0
 40
57.883053
100
AcDbArc
 50
260.048121
 51
264.1497
  0
LINE
  5
456
100
AcDbEntity
  8
2
100
AcDbLine
 10
142.168825
 20
-7.635467
 30
0.0
 11
142.168825
 21
1.291769
 31
0.0
  0
LINE
  5
457
100
AcDbEntity
  8
2
100
AcDbLine
 10
142.968825
 20
8.837545
 30
0.0
 11
142.168825
 21
1.291769
 31
0.0
  0
LINE
  5
458
100
AcDbEntity
  8
2
100
AcDbLine
 10
146.684807
 20
1.364533
 30
0.0
 11
146.143812
 21
-3.738256
 31
0.0
  0
LINE
  5
459
100
AcDbEntity
  8
2
100
AcDbLine
 10
167.968825
 20
-7.635467
 30
0.0
 11
167.968825
 21
-8.635467
 31
0.0
  0
ARC
  5
45A
100
AcDbEntity
  8
2
100
AcDbCircle
 10
162.468825
 20
30.470418
 30
0.0
 40
1.5
100
AcDbArc
 50
69.332801
 51
94.270956
  0
LINE
  5
45B
100
AcDbEntity
  8
2
100
AcDbLine
 10
170.968825
 20
8.837545
 30
0.0
 11
171.968825
 21
-0.594676
 31
0.0
  0
ARC
  5
45C
100
AcDbEntity
  8
2
100
AcDbCircle
 10
162.543961
 20
40.947732
 30
0.0
 40
5.0
100
AcDbArc
 50
9.174666
 51
77.83324
  0
LINE
  5
45D
100
AcDbEntity
  8
2
100
AcDbLine
 10
167.479995
 20
41.744956
 30
0.0
 11
167.479995
 21
37.16231
 31
0.0
  0
LINE
  5
45E
100
AcDbEntity
  8
2
100
AcDbLine
 10
160.968825
 20
30.134528
 30
0.0
 11
160.968825
 21
27.448914
 31
0.0
  0
ARC
  5
45F
100
AcDbEntity
  8
2
100
AcDbCircle
 10
166.479995
 20
37.16231
 30
0.0
 40
1.0
100
AcDbArc
 50
259.300245
 51
360.0
  0
LINE
  5
460
100
AcDbEntity
  8
2
100
AcDbLine
 10
167.479995
 20
41.744956
 30
0.0
 11
170.170817
 21
16.364533
 31
0.0
  0
ARC
  5
461
100
AcDbEntity
  8
2
100
AcDbCircle
 10
162.603889
 20
35.729406
 30
0.0
 40
1.0
100
AcDbArc
 50
6.051867
 51
83.42706
  0
LINE
  5
462
100
AcDbEntity
  8
2
100
AcDbLine
 10
167.252843
 20
1.364533
 30
0.0
 11
167.793838
 21
-3.738256
 31
0.0
  0
ARC
  5
463
100
AcDbEntity
  8
2
100
AcDbCircle
 10
159.968825
 20
19.610804
 30
0.0
 40
3.0
100
AcDbArc
 50
0.0
 51
28.460849
  0
LINE
  5
464
100
AcDbEntity
  8
2
100
AcDbLine
 10
163.598316
 20
35.834834
 30
0.0
 11
165.747227
 21
15.565833
 31
0.0
  0
LINE
  5
465
100
AcDbEntity
  8
2
100
AcDbLine
 10
162.968825
 20
19.610804
 30
0.0
 11
162.968825
 21
14.448533
 31
0.0
  0
LINE
  5
466
100
AcDbEntity
  8
2
100
AcDbLine
 10
150.968825
 20
19.610804
 30
0.0
 11
150.968825
 21
13.108902
 31
0.0
  0
ARC
  5
467
100
AcDbEntity
  8
2
100
AcDbCircle
 10
149.968825
 20
13.108902
 30
0.0
 40
1.0
100
AcDbArc
 50
0.0
 51
72.228285
  0
LINE
  5
468
100
AcDbEntity
  8
2
100
AcDbLine
 10
150.339334
 20
35.834834
 30
0.0
 11
148.190423
 21
15.565833
 31
0.0
  0
ARC
  5
469
100
AcDbEntity
  8
2
100
AcDbCircle
 10
153.968825
 20
19.610804
 30
0.0
 40
3.0
100
AcDbArc
 50
113.205282
 51
180.0
  0
LINE
  5
46A
100
AcDbEntity
  8
2
100
AcDbLine
 10
148.879624
 20
14.508124
 30
0.0
 11
150.27405
 21
14.061182
 31
0.0
  0
LINE
  5
46B
100
AcDbEntity
  8
2
100
AcDbLine
 10
145.968825
 20
-7.635467
 30
0.0
 11
145.968825
 21
-8.635467
 31
0.0
  0
ARC
  5
46C
100
AcDbEntity
  8
2
100
AcDbCircle
 10
151.333761
 20
35.729406
 30
0.0
 40
1.0
100
AcDbArc
 50
96.57294
 51
173.948133
  0
LINE
  5
46D
100
AcDbEntity
  8
2
100
AcDbLine
 10
171.968825
 20
-7.635467
 30
0.0
 11
162.868825
 21
-7.635467
 31
0.0
  0
LINE
  5
46E
100
AcDbEntity
  8
2
100
AcDbLine
 10
145.968825
 20
-8.635467
 30
0.0
 11
151.068825
 21
-8.635467
 31
0.0
  0
LINE
  5
46F
100
AcDbEntity
  8
2
100
AcDbLine
 10
144.468825
 20
2.364533
 30
0.0
 11
144.468825
 21
16.864533
 31
0.0
  0
LINE
  5
470
100
AcDbEntity
  8
2
100
AcDbLine
 10
146.457655
 20
41.744956
 30
0.0
 11
143.766833
 21
16.364533
 31
0.0
  0
LINE
  5
471
100
AcDbEntity
  8
2
100
AcDbLine
 10
143.468825
 20
16.364533
 30
0.0
 11
143.968825
 21
16.364533
 31
0.0
  0
ARC
  5
472
100
AcDbEntity
  8
2
100
AcDbCircle
 10
143.968825
 20
16.864533
 30
0.0
 40
0.5
100
AcDbArc
 50
270.0
 51
360.0
  0
ARC
  5
473
100
AcDbEntity
  8
2
100
AcDbCircle
 10
143.468825
 20
15.864533
 30
0.0
 40
0.5
100
AcDbArc
 50
90.0
 51
180.0
  0
LINE
  5
474
100
AcDbEntity
  8
2
100
AcDbLine
 10
142.968825
 20
2.364533
 30
0.0
 11
142.968825
 21
15.864533
 31
0.0
  0
ARC
  5
475
100
AcDbEntity
  8
2
100
AcDbCircle
 10
156.968825
 20
-13.175318
 30
0.0
 40
50.228304
100
AcDbArc
 50
79.300245
 51
100.699755
  0
ARC
  5
476
100
AcDbEntity
  8
2
100
AcDbCircle
 10
147.457655
 20
37.16231
 30
0.0
 40
1.0
100
AcDbArc
 50
180.0
 51
280.699755
  0
ARC
  5
477
100
AcDbEntity
  8
2
100
AcDbCircle
 10
156.968825
 20
22.275859
 30
0.0
 40
11.334722
100
AcDbArc
 50
68.408724
 51
114.66929
  0
LINE
  5
478
100
AcDbEntity
  8
2
100
AcDbLine
 10
152.968825
 20
26.297651
 30
0.0
 11
153.968825
 21
25.297651
 31
0.0
  0
ARC
  5
479
100
AcDbEntity
  8
2
100
AcDbCircle
 10
156.968825
 20
17.276136
 30
0.0
 40
9.868523
100
AcDbArc
 50
76.978496
 51
113.911756
  0
ARC
  5
47A
100
AcDbEntity
  8
2
100
AcDbCircle
 10
151.468825
 20
30.470418
 30
0.0
 40
1.5
100
AcDbArc
 50
0.0
 51
110.667199
  0
LINE
  5
47B
100
AcDbEntity
  8
2
100
AcDbLine
 10
152.968825
 20
30.470418
 30
0.0
 11
152.968825
 21
30.298795
 31
0.0
  0
LINE
  5
47C
100
AcDbEntity
  8
2
100
AcDbLine
 10
150.968825
 20
2.364533
 30
0.0
 11
150.968825
 21
13.108902
 31
0.0
  0
LINE
  5
47D
100
AcDbEntity
  8
2
100
AcDbLine
 10
146.457655
 20
41.744956
 30
0.0
 11
146.457655
 21
37.16231
 31
0.0
  0
LINE
  5
47E
100
AcDbEntity
  8
2
100
AcDbLine
 10
140.968825
 20
13.364533
 30
0.0
 11
142.968825
 21
13.364533
 31
0.0
  0
LINE
  5
47F
100
AcDbEntity
  8
2
100
AcDbLine
 10
139.968825
 20
12.364533
 30
0.0
 11
139.968825
 21
-7.635467
 31
0.0
  0
ARC
  5
480
100
AcDbEntity
  8
2
100
AcDbCircle
 10
140.968825
 20
12.364533
 30
0.0
 40
1.0
100
AcDbArc
 50
90.0
 51
180.0
  0
ARC
  5
481
100
AcDbEntity
  8
2
100
AcDbCircle
 10
151.393689
 20
40.947732
 30
0.0
 40
5.0
100
AcDbArc
 50
102.16676
 51
170.825334
  0
ARC
  5
482
100
AcDbEntity
  8
2
100
AcDbCircle
 10
156.968825
 20
15.089085
 30
0.0
 40
31.452822
100
AcDbArc
 50
77.83324
 51
102.16676
  0
LINE
  5
483
100
AcDbEntity
  8
2
100
AcDbLine
 10
162.868825
 20
-8.635467
 30
0.0
 11
167.968825
 21
-8.635467
 31
0.0
  0
LINE
  5
484
100
AcDbEntity
  8
2
100
AcDbLine
 10
151.068825
 20
-7.635467
 30
0.0
 11
139.968825
 21
-7.635467
 31
0.0
  0
ARC
  5
485
100
AcDbEntity
  8
2
100
AcDbCircle
 10
156.968825
 20
52.183464
 30
0.0
 40
57.883053
100
AcDbArc
 50
275.8503
 51
279.951879
  0
LINE
  5
486
100
AcDbEntity
  8
2
100
AcDbLine
 10
152.968825
 20
28.31148
 30
0.0
 11
152.968825
 21
26.297651
 31
0.0
  0
ARC
  5
487
100
AcDbEntity
  8
2
100
AcDbCircle
 10
159.968825
 20
19.610804
 30
0.0
 40
3.0
100
AcDbArc
 50
55.144622
 51
90.0
  0
LINE
  5
488
100
AcDbEntity
  8
2
100
AcDbLine
 10
161.307186
 20
22.029564
 30
0.0
 11
151.746002
 21
19.026211
 31
0.0
  0
LINE
  5
489
100
AcDbEntity
  8
2
100
AcDbLine
 10
161.90655
 20
20.121486
 30
0.0
 11
152.345366
 21
17.118132
 31
0.0
  0
LINE
  5
48A
100
AcDbEntity
  8
2
100
AcDbLine
 10
151.790606
 20
17.105251
 30
0.0
 11
158.003649
 21
15.466222
 31
0.0
  0
LINE
  5
48B
100
AcDbEntity
  8
2
100
AcDbLine
 10
161.307186
 20
16.503927
 30
0.0
 11
151.746002
 21
13.500574
 31
0.0
  0
LINE
  5
48C
100
AcDbEntity
  8
2
100
AcDbLine
 10
161.90655
 20
14.595849
 30
0.0
 11
152.345366
 21
11.592496
 31
0.0
  0
LINE
  5
48D
100
AcDbEntity
  8
2
100
AcDbLine
 10
161.90655
 20
9.070213
 30
0.0
 11
152.345366
 21
6.066859
 31
0.0
  0
LINE
  5
48E
100
AcDbEntity
  8
2
100
AcDbLine
 10
161.307186
 20
10.978291
 30
0.0
 11
151.746002
 21
7.974938
 31
0.0
  0
LINE
  5
48F
100
AcDbEntity
  8
2
100
AcDbLine
 10
151.790606
 20
11.579614
 30
0.0
 11
153.682902
 21
11.080418
 31
0.0
  0
ARC
  5
490
100
AcDbEntity
  8
2
100
AcDbCircle
 10
152.045684
 20
7.020899
 30
0.0
 40
1.0
100
AcDbArc
 50
100.738785
 51
286.620601
  0
ARC
  5
491
100
AcDbEntity
  8
2
100
AcDbCircle
 10
152.045684
 20
12.546535
 30
0.0
 40
1.0
100
AcDbArc
 50
107.438515
 51
286.620601
  0
ARC
  5
492
100
AcDbEntity
  8
2
100
AcDbCircle
 10
152.045684
 20
18.072171
 30
0.0
 40
1.0
100
AcDbArc
 50
107.438515
 51
286.620601
  0
LINE
  5
493
100
AcDbEntity
  8
2
100
AcDbLine
 10
155.648903
 20
12.630201
 30
0.0
 11
161.861946
 21
10.991172
 31
0.0
  0
ARC
  5
494
100
AcDbEntity
  8
2
100
AcDbCircle
 10
161.606868
 20
10.024252
 30
0.0
 40
1.0
100
AcDbArc
 50
287.438515
 51
107.438515
  0
LINE
  5
495
100
AcDbEntity
  8
2
100
AcDbLine
 10
157.260822
 20
7.610899
 30
0.0
 11
161.861946
 21
7.233531
 31
0.0
  0
ARC
  5
496
100
AcDbEntity
  8
2
100
AcDbCircle
 10
161.891966
 20
6.213068
 30
0.0
 40
1.0
100
AcDbArc
 50
273.731968
 51
85.591963
  0
LINE
  5
497
100
AcDbEntity
  8
2
100
AcDbLine
 10
155.648903
 20
18.155837
 30
0.0
 11
161.861946
 21
16.516809
 31
0.0
  0
ARC
  5
498
100
AcDbEntity
  8
2
100
AcDbCircle
 10
161.606868
 20
15.549888
 30
0.0
 40
1.0
100
AcDbArc
 50
281.107766
 51
107.438515
  0
LINE
  5
499
100
AcDbEntity
  8
2
100
AcDbLine
 10
161.799523
 20
30.323828
 30
0.0
 11
152.345366
 21
28.169405
 31
0.0
  0
LINE
  5
49A
100
AcDbEntity
  8
2
100
AcDbLine
 10
161.307186
 20
32.259134
 30
0.0
 11
151.746002
 21
30.077483
 31
0.0
  0
LINE
  5
49B
100
AcDbEntity
  8
2
100
AcDbLine
 10
151.790606
 20
22.630887
 30
0.0
 11
158.003649
 21
20.991859
 31
0.0
  0
LINE
  5
49C
100
AcDbEntity
  8
2
100
AcDbLine
 10
161.307186
 20
27.5552
 30
0.0
 11
151.746002
 21
24.551847
 31
0.0
  0
LINE
  5
49D
100
AcDbEntity
  8
2
100
AcDbLine
 10
161.90655
 20
25.647122
 30
0.0
 11
152.345366
 21
22.643769
 31
0.0
  0
ARC
  5
49E
100
AcDbEntity
  8
2
100
AcDbCircle
 10
152.045684
 20
29.123444
 30
0.0
 40
1.0
100
AcDbArc
 50
98.020858
 51
286.620601
  0
LINE
  5
49F
100
AcDbEntity
  8
2
100
AcDbLine
 10
151.790606
 20
28.156524
 30
0.0
 11
152.968825
 21
27.845704
 31
0.0
  0
ARC
  5
4A0
100
AcDbEntity
  8
2
100
AcDbCircle
 10
152.045684
 20
23.597808
 30
0.0
 40
1.0
100
AcDbArc
 50
107.438515
 51
286.620601
  0
LINE
  5
4A1
100
AcDbEntity
  8
2
100
AcDbLine
 10
160.968825
 20
27.803691
 30
0.0
 11
161.861946
 21
27.568082
 31
0.0
  0
LINE
  5
4A2
100
AcDbEntity
  8
2
100
AcDbLine
 10
155.648903
 20
23.681474
 30
0.0
 11
161.861946
 21
22.042445
 31
0.0
  0
ARC
  5
4A3
100
AcDbEntity
  8
2
100
AcDbCircle
 10
161.606868
 20
26.601161
 30
0.0
 40
1.0
100
AcDbArc
 50
281.107766
 51
107.438515
  0
ARC
  5
4A4
100
AcDbEntity
  8
2
100
AcDbCircle
 10
161.606868
 20
21.075525
 30
0.0
 40
1.0
100
AcDbArc
 50
281.107766
 51
107.438515
  0
ARC
  5
4A5
100
AcDbEntity
  8
2
100
AcDbCircle
 10
161.606868
 20
31.305095
 30
0.0
 40
1.0
100
AcDbArc
 50
281.107766
 51
107.438515
  0
LINE
  5
4A6
100
AcDbEntity
  8
2
  6
CENTER
 62
     2
100
AcDbLine
 10
136.7444
 20
11.364533
 30
0.0
 11
177.067394
 21
11.364533
 31
0.0
  0
LINE
  5
4A7
100
AcDbEntity
  8
2
  6
CENTER
 62
     2
100
AcDbLine
 10
156.968825
 20
-2.320122
 30
0.0
 11
127.609446
 21
-2.320122
 31
0.0
  0
LINE
  5
4A8
100
AcDbEntity
  8
2
100
AcDbLine
 10
139.968825
 20
-7.320122
 30
0.0
 11
139.968825
 21
2.679878
 31
0.0
  0
ARC
  5
4A9
100
AcDbEntity
  8
2
100
AcDbCircle
 10
160.968825
 20
13.079962
 30
0.0
 40
1.0
100
AcDbArc
 50
0.0
 51
90.0
  0
ARC
  5
4AA
100
AcDbEntity
  8
2
100
AcDbCircle
 10
152.968825
 20
13.079962
 30
0.0
 40
1.0
100
AcDbArc
 50
90.0
 51
147.287273
  0
LINE
  5
4AB
100
AcDbEntity
  8
2
100
AcDbLine
 10
152.968825
 20
14.079962
 30
0.0
 11
153.590486
 21
14.079962
 31
0.0
  0
LINE
  5
4AC
100
AcDbEntity
  8
2
100
AcDbLine
 10
161.968825
 20
-5.028904
 30
0.0
 11
161.968825
 21
5.216026
 31
0.0
  0
LINE
  5
4AD
100
AcDbEntity
  8
2
100
AcDbLine
 10
151.968825
 20
-20.606535
 30
0.0
 11
151.968825
 21
-23.635467
 31
0.0
  0
ARC
  5
4AE
100
AcDbEntity
  8
2
100
AcDbCircle
 10
152.068825
 20
15.364533
 30
0.0
 40
1.0
100
AcDbArc
 50
90.0
 51
180.0
  0
ARC
  5
4AF
100
AcDbEntity
  8
2
100
AcDbCircle
 10
161.868825
 20
15.364533
 30
0.0
 40
1.0
100
AcDbArc
 50
0.0
 51
63.950626
  0
LINE
  5
4B0
100
AcDbEntity
  8
2
100
AcDbLine
 10
162.868825
 20
15.364533
 30
0.0
 11
162.868825
 21
-19.706535
 31
0.0
  0
LINE
  5
4B1
100
AcDbEntity
  8
2
100
AcDbLine
 10
151.068825
 20
15.364533
 30
0.0
 11
151.068825
 21
-19.706535
 31
0.0
  0
LINE
  5
4B2
100
AcDbEntity
  8
2
100
AcDbLine
 10
162.868825
 20
-19.706535
 30
0.0
 11
161.968825
 21
-20.606535
 31
0.0
  0
LINE
  5
4B3
100
AcDbEntity
  8
2
100
AcDbLine
 10
151.968825
 20
-20.606535
 30
0.0
 11
151.068825
 21
-19.706535
 31
0.0
  0
LINE
  5
4B4
100
AcDbEntity
  8
2
100
AcDbLine
 10
160.968825
 20
8.775655
 30
0.0
 11
160.968825
 21
7.306782
 31
0.0
  0
ARC
  5
4B5
100
AcDbEntity
  8
2
100
AcDbCircle
 10
156.968825
 20
24.37349
 30
0.0
 40
14.567094
100
AcDbArc
 50
254.062329
 51
272.574998
  0
ARC
  5
4B6
100
AcDbEntity
  8
2
100
AcDbCircle
 10
156.974269
 20
26.434101
 30
0.0
 40
15.364572
100
AcDbArc
 50
258.719715
 51
281.24576
  0
ARC
  5
4B7
100
AcDbEntity
  8
2
100
AcDbCircle
 10
156.968825
 20
0.82392
 30
0.0
 40
10.96096
100
AcDbArc
 50
74.115522
 51
105.884478
  0
LINE
  5
4B8
100
AcDbEntity
  8
2
100
AcDbLine
 10
160.584032
 20
10.751134
 30
0.0
 11
159.968825
 21
11.366341
 31
0.0
  0
LINE
  5
4B9
100
AcDbEntity
  8
2
100
AcDbLine
 10
153.968825
 20
11.366341
 30
0.0
 11
152.968825
 21
10.366341
 31
0.0
  0
LINE
  5
4BA
100
AcDbEntity
  8
2
100
AcDbLine
 10
152.968825
 20
10.366341
 30
0.0
 11
152.968825
 21
8.35905
 31
0.0
  0
ARC
  5
4BB
100
AcDbEntity
  8
2
100
AcDbCircle
 10
160.968825
 20
5.134219
 30
0.0
 40
1.0
100
AcDbArc
 50
0.0
 51
90.0
  0
ARC
  5
4BC
100
AcDbEntity
  8
2
100
AcDbCircle
 10
152.968825
 20
5.134219
 30
0.0
 40
1.0
100
AcDbArc
 50
90.0
 51
180.0
  0
LINE
  5
4BD
100
AcDbEntity
  8
2
100
AcDbLine
 10
152.968825
 20
6.134219
 30
0.0
 11
160.968825
 21
6.134219
 31
0.0
  0
LINE
  5
4BE
100
AcDbEntity
  8
2
100
AcDbLine
 10
160.968825
 20
6.134219
 30
0.0
 11
152.968825
 21
6.134219
 31
0.0
  0
ARC
  5
4BF
100
AcDbEntity
  8
2
100
AcDbCircle
 10
152.968825
 20
5.134219
 30
0.0
 40
1.0
100
AcDbArc
 50
90.0
 51
180.0
  0
ARC
  5
4C0
100
AcDbEntity
  8
2
100
AcDbCircle
 10
160.968825
 20
5.134219
 30
0.0
 40
1.0
100
AcDbArc
 50
0.0
 51
90.0
  0
ARC
  5
4C1
100
AcDbEntity
  8
2
100
AcDbCircle
 10
160.968825
 20
-5.028904
 30
0.0
 40
1.0
100
AcDbArc
 50
270.0
 51
360.0
  0
ARC
  5
4C2
100
AcDbEntity
  8
2
100
AcDbCircle
 10
152.968825
 20
-5.028904
 30
0.0
 40
1.0
100
AcDbArc
 50
180.0
 51
270.0
  0
LINE
  5
4C3
100
AcDbEntity
  8
2
100
AcDbLine
 10
160.968825
 20
-6.028904
 30
0.0
 11
152.968825
 21
-6.028904
 31
0.0
  0
LINE
  5
4C4
100
AcDbEntity
  8
2
100
AcDbLine
 10
152.968825
 20
-6.028904
 30
0.0
 11
160.968825
 21
-6.028904
 31
0.0
  0
ARC
  5
4C5
100
AcDbEntity
  8
2
100
AcDbCircle
 10
152.968825
 20
-5.028904
 30
0.0
 40
1.0
100
AcDbArc
 50
180.0
 51
270.0
  0
ARC
  5
4C6
100
AcDbEntity
  8
2
100
AcDbCircle
 10
160.968825
 20
-5.028904
 30
0.0
 40
1.0
100
AcDbArc
 50
270.0
 51
360.0
  0
ARC
  5
4C7
100
AcDbEntity
  8
2
100
AcDbCircle
 10
160.968825
 20
-23.635467
 30
0.0
 40
1.0
100
AcDbArc
 50
270.0
 51
360.0
  0
ARC
  5
4C8
100
AcDbEntity
  8
2
100
AcDbCircle
 10
152.968825
 20
-23.635467
 30
0.0
 40
1.0
100
AcDbArc
 50
180.0
 51
270.0
  0
LINE
  5
4C9
100
AcDbEntity
  8
2
100
AcDbLine
 10
152.968825
 20
-24.635467
 30
0.0
 11
160.968825
 21
-24.635467
 31
0.0
  0
LINE
  5
4CA
100
AcDbEntity
  8
2
100
AcDbLine
 10
160.968825
 20
-24.635467
 30
0.0
 11
152.968825
 21
-24.635467
 31
0.0
  0
ARC
  5
4CB
100
AcDbEntity
  8
2
100
AcDbCircle
 10
152.968825
 20
-23.635467
 30
0.0
 40
1.0
100
AcDbArc
 50
180.0
 51
270.0
  0
ARC
  5
4CC
100
AcDbEntity
  8
2
100
AcDbCircle
 10
160.968825
 20
-23.635467
 30
0.0
 40
1.0
100
AcDbArc
 50
270.0
 51
360.0
  0
LINE
  5
4CD
100
AcDbEntity
  8
2
100
AcDbLine
 10
161.968825
 20
-23.635467
 30
0.0
 11
161.968825
 21
-20.606535
 31
0.0
  0
LINE
  5
4CE
100
AcDbEntity
  8
2
100
AcDbLine
 10
151.968825
 20
11.549493
 30
0.0
 11
151.968825
 21
8.044931
 31
0.0
  0
LINE
  5
4CF
100
AcDbEntity
  8
2
100
AcDbLine
 10
154.598435
 20
16.364533
 30
0.0
 11
152.068825
 21
16.364533
 31
0.0
  0
LINE
  5
4D0
100
AcDbEntity
  8
2
100
AcDbLine
 10
160.264223
 20
14.079962
 30
0.0
 11
160.968825
 21
14.079962
 31
0.0
  0
LINE
  5
4D1
100
AcDbEntity
  8
2
100
AcDbLine
 10
152.968825
 20
6.2627
 30
0.0
 11
152.968825
 21
6.134219
 31
0.0
  0
LINE
  5
4D2
100
AcDbEntity
  8
2
100
AcDbLine
 10
151.968825
 20
6.023857
 30
0.0
 11
151.968825
 21
-5.028904
 31
0.0
  0
LINE
  5
4D3
100
AcDbEntity
  8
2
100
AcDbLine
 10
161.968825
 20
7.21011
 30
0.0
 11
161.968825
 21
9.092057
 31
0.0
  0
LINE
  5
4D4
100
AcDbEntity
  8
2
100
AcDbLine
 10
161.968825
 20
10.956447
 30
0.0
 11
161.968825
 21
13.079962
 31
0.0
  0
LINE
  5
4D5
100
AcDbEntity
  8
2
100
AcDbLine
 10
231.968825
 20
-17.635467
 30
0.0
 11
231.968825
 21
-19.635467
 31
0.0
  0
LINE
  5
4D6
100
AcDbEntity
  8
2
100
AcDbLine
 10
216.832674
 20
-18.135467
 30
0.0
 11
216.832674
 21
-19.135467
 31
0.0
  0
LINE
  5
4D7
100
AcDbEntity
  8
2
100
AcDbLine
 10
215.236272
 20
-18.135467
 30
0.0
 11
215.236272
 21
-19.135467
 31
0.0
  0
LINE
  5
4D8
100
AcDbEntity
  8
2
100
AcDbLine
 10
211.8835
 20
-18.135467
 30
0.0
 11
211.8835
 21
-19.135467
 31
0.0
  0
LINE
  5
4D9
100
AcDbEntity
  8
2
100
AcDbLine
 10
206.877366
 20
-18.135467
 30
0.0
 11
206.877366
 21
-19.135467
 31
0.0
  0
LINE
  5
4DA
100
AcDbEntity
  8
2
100
AcDbLine
 10
200.369978
 20
-18.135467
 30
0.0
 11
200.369978
 21
-19.135467
 31
0.0
  0
LINE
  5
4DB
100
AcDbEntity
  8
2
100
AcDbLine
 10
192.559061
 20
-18.135467
 30
0.0
 11
192.559061
 21
-19.135467
 31
0.0
  0
LINE
  5
4DC
100
AcDbEntity
  8
2
100
AcDbLine
 10
183.681945
 20
-18.135467
 30
0.0
 11
183.681945
 21
-19.135467
 31
0.0
  0
LINE
  5
4DD
100
AcDbEntity
  8
2
100
AcDbLine
 10
131.968825
 20
-18.135467
 30
0.0
 11
131.968825
 21
-19.135467
 31
0.0
  0
LINE
  5
4DE
100
AcDbEntity
  8
2
100
AcDbLine
 10
106.968825
 20
-17.635467
 30
0.0
 11
106.968825
 21
-19.635467
 31
0.0
  0
LINE
  5
4DF
100
AcDbEntity
  8
2
100
AcDbLine
 10
214.160193
 20
-18.135467
 30
0.0
 11
214.160193
 21
-19.135467
 31
0.0
  0
LINE
  5
4E0
100
AcDbEntity
  8
2
100
AcDbLine
 10
210.332748
 20
-18.135467
 30
0.0
 11
210.332748
 21
-19.135467
 31
0.0
  0
LINE
  5
4E1
100
AcDbEntity
  8
2
100
AcDbLine
 10
204.884309
 20
-18.135467
 30
0.0
 11
204.884309
 21
-19.135467
 31
0.0
  0
LINE
  5
4E2
100
AcDbEntity
  8
2
100
AcDbLine
 10
197.980426
 20
-18.135467
 30
0.0
 11
197.980426
 21
-19.135467
 31
0.0
  0
LINE
  5
4E3
100
AcDbEntity
  8
2
100
AcDbLine
 10
189.830867
 20
-18.135467
 30
0.0
 11
189.830867
 21
-19.135467
 31
0.0
  0
LINE
  5
4E4
100
AcDbEntity
  8
2
100
AcDbLine
 10
180.683255
 20
-18.135467
 30
0.0
 11
180.683255
 21
-19.135467
 31
0.0
  0
LINE
  5
4E5
100
AcDbEntity
  8
2
100
AcDbLine
 10
174.022439
 20
-18.135467
 30
0.0
 11
174.022439
 21
-19.135467
 31
0.0
  0
LINE
  5
4E6
100
AcDbEntity
  8
2
100
AcDbLine
 10
170.815534
 20
-18.135467
 30
0.0
 11
170.815534
 21
-19.135467
 31
0.0
  0
ARC
  5
4E7
100
AcDbEntity
  8
2
100
AcDbCircle
 10
216.332674
 20
-18.135467
 30
0.0
 40
0.5
100
AcDbArc
 50
0.0
 51
90.0
  0
ARC
  5
4E8
100
AcDbEntity
  8
2
100
AcDbCircle
 10
216.332674
 20
-19.135467
 30
0.0
 40
0.5
100
AcDbArc
 50
270.0
 51
360.0
  0
ARC
  5
4E9
100
AcDbEntity
  8
2
100
AcDbCircle
 10
214.736272
 20
-18.135467
 30
0.0
 40
0.5
100
AcDbArc
 50
0.0
 51
90.0
  0
ARC
  5
4EA
100
AcDbEntity
  8
2
100
AcDbCircle
 10
214.736272
 20
-19.135467
 30
0.0
 40
0.5
100
AcDbArc
 50
270.0
 51
360.0
  0
ARC
  5
4EB
100
AcDbEntity
  8
2
100
AcDbCircle
 10
213.660193
 20
-18.135467
 30
0.0
 40
0.5
100
AcDbArc
 50
0.0
 51
90.0
  0
ARC
  5
4EC
100
AcDbEntity
  8
2
100
AcDbCircle
 10
213.660193
 20
-19.135467
 30
0.0
 40
0.5
100
AcDbArc
 50
270.0
 51
360.0
  0
ARC
  5
4ED
100
AcDbEntity
  8
2
100
AcDbCircle
 10
211.3835
 20
-19.135467
 30
0.0
 40
0.5
100
AcDbArc
 50
270.0
 51
360.0
  0
ARC
  5
4EE
100
AcDbEntity
  8
2
100
AcDbCircle
 10
211.3835
 20
-18.135467
 30
0.0
 40
0.5
100
AcDbArc
 50
0.0
 51
90.0
  0
ARC
  5
4EF
100
AcDbEntity
  8
2
100
AcDbCircle
 10
209.832748
 20
-18.135467
 30
0.0
 40
0.5
100
AcDbArc
 50
0.0
 51
90.0
  0
ARC
  5
4F0
100
AcDbEntity
  8
2
100
AcDbCircle
 10
209.832748
 20
-19.135467
 30
0.0
 40
0.5
100
AcDbArc
 50
270.0
 51
360.0
  0
ARC
  5
4F1
100
AcDbEntity
  8
2
100
AcDbCircle
 10
206.377366
 20
-18.135467
 30
0.0
 40
0.5
100
AcDbArc
 50
0.0
 51
90.0
  0
ARC
  5
4F2
100
AcDbEntity
  8
2
100
AcDbCircle
 10
206.377366
 20
-19.135467
 30
0.0
 40
0.5
100
AcDbArc
 50
270.0
 51
360.0
  0
ARC
  5
4F3
100
AcDbEntity
  8
2
100
AcDbCircle
 10
204.384309
 20
-18.135467
 30
0.0
 40
0.5
100
AcDbArc
 50
0.0
 51
90.0
  0
ARC
  5
4F4
100
AcDbEntity
  8
2
100
AcDbCircle
 10
204.384309
 20
-19.135467
 30
0.0
 40
0.5
100
AcDbArc
 50
270.0
 51
360.0
  0
ARC
  5
4F5
100
AcDbEntity
  8
2
100
AcDbCircle
 10
199.869978
 20
-18.135467
 30
0.0
 40
0.5
100
AcDbArc
 50
0.0
 51
90.0
  0
ARC
  5
4F6
100
AcDbEntity
  8
2
100
AcDbCircle
 10
199.869978
 20
-19.135467
 30
0.0
 40
0.5
100
AcDbArc
 50
270.0
 51
360.0
  0
ARC
  5
4F7
100
AcDbEntity
  8
2
100
AcDbCircle
 10
197.480426
 20
-18.135467
 30
0.0
 40
0.5
100
AcDbArc
 50
0.0
 51
90.0
  0
ARC
  5
4F8
100
AcDbEntity
  8
2
100
AcDbCircle
 10
197.480426
 20
-19.135467
 30
0.0
 40
0.5
100
AcDbArc
 50
270.0
 51
360.0
  0
ARC
  5
4F9
100
AcDbEntity
  8
2
100
AcDbCircle
 10
192.059061
 20
-18.135467
 30
0.0
 40
0.5
100
AcDbArc
 50
0.0
 51
90.0
  0
ARC
  5
4FA
100
AcDbEntity
  8
2
100
AcDbCircle
 10
192.059061
 20
-19.135467
 30
0.0
 40
0.5
100
AcDbArc
 50
270.0
 51
360.0
  0
ARC
  5
4FB
100
AcDbEntity
  8
2
100
AcDbCircle
 10
189.330867
 20
-18.135467
 30
0.0
 40
0.5
100
AcDbArc
 50
0.0
 51
90.0
  0
ARC
  5
4FC
100
AcDbEntity
  8
2
100
AcDbCircle
 10
189.330867
 20
-19.135467
 30
0.0
 40
0.5
100
AcDbArc
 50
270.0
 51
360.0
  0
ARC
  5
4FD
100
AcDbEntity
  8
2
100
AcDbCircle
 10
183.181945
 20
-18.135467
 30
0.0
 40
0.5
100
AcDbArc
 50
0.0
 51
90.0
  0
ARC
  5
4FE
100
AcDbEntity
  8
2
100
AcDbCircle
 10
183.181945
 20
-19.135467
 30
0.0
 40
0.5
100
AcDbArc
 50
270.0
 51
360.0
  0
ARC
  5
4FF
100
AcDbEntity
  8
2
100
AcDbCircle
 10
180.183255
 20
-18.135467
 30
0.0
 40
0.5
100
AcDbArc
 50
0.0
 51
90.0
  0
ARC
  5
500
100
AcDbEntity
  8
2
100
AcDbCircle
 10
180.183255
 20
-19.135467
 30
0.0
 40
0.5
100
AcDbArc
 50
270.0
 51
360.0
  0
ARC
  5
501
100
AcDbEntity
  8
2
100
AcDbCircle
 10
173.522439
 20
-19.135467
 30
0.0
 40
0.5
100
AcDbArc
 50
270.0
 51
360.0
  0
ARC
  5
502
100
AcDbEntity
  8
2
100
AcDbCircle
 10
173.522439
 20
-18.135467
 30
0.0
 40
0.5
100
AcDbArc
 50
0.0
 51
90.0
  0
ARC
  5
503
100
AcDbEntity
  8
2
100
AcDbCircle
 10
170.315534
 20
-18.135467
 30
0.0
 40
0.5
100
AcDbArc
 50
0.0
 51
90.0
  0
ARC
  5
504
100
AcDbEntity
  8
2
100
AcDbCircle
 10
170.315534
 20
-19.135467
 30
0.0
 40
0.5
100
AcDbArc
 50
270.0
 51
360.0
  0
ARC
  5
505
100
AcDbEntity
  8
2
100
AcDbCircle
 10
132.468825
 20
-18.135467
 30
0.0
 40
0.5
100
AcDbArc
 50
90.0
 51
180.0
  0
ARC
  5
506
100
AcDbEntity
  8
2
100
AcDbCircle
 10
132.468825
 20
-19.135467
 30
0.0
 40
0.5
100
AcDbArc
 50
180.0
 51
270.0
  0
LINE
  5
507
100
AcDbEntity
  8
2
100
AcDbLine
 10
149.968825
 20
-18.135467
 30
0.0
 11
149.968825
 21
-19.135467
 31
0.0
  0
ARC
  5
508
100
AcDbEntity
  8
2
100
AcDbCircle
 10
149.468825
 20
-18.135467
 30
0.0
 40
0.5
100
AcDbArc
 50
0.0
 51
90.0
  0
LINE
  5
509
100
AcDbEntity
  8
2
100
AcDbLine
 10
231.968825
 20
-17.635467
 30
0.0
 11
162.868825
 21
-17.635467
 31
0.0
  0
ARC
  5
50A
100
AcDbEntity
  8
2
100
AcDbCircle
 10
149.468825
 20
-19.135467
 30
0.0
 40
0.5
100
AcDbArc
 50
270.0
 51
360.0
  0
LINE
  5
50B
100
AcDbEntity
  8
2
100
AcDbLine
 10
231.968825
 20
-19.635467
 30
0.0
 11
162.868825
 21
-19.635467
 31
0.0
  0
LINE
  5
50C
100
AcDbEntity
  8
2
100
AcDbLine
 10
151.068825
 20
-17.635467
 30
0.0
 11
106.968825
 21
-17.635467
 31
0.0
  0
ARC
  5
50D
100
AcDbEntity
  8
2
100
AcDbCircle
 10
163.550404
 20
-19.135467
 30
0.0
 40
0.5
100
AcDbArc
 50
270.0
 51
360.0
  0
ARC
  5
50E
100
AcDbEntity
  8
2
100
AcDbCircle
 10
163.550404
 20
-18.135467
 30
0.0
 40
0.5
100
AcDbArc
 50
0.0
 51
90.0
  0
LINE
  5
50F
100
AcDbEntity
  8
2
100
AcDbLine
 10
164.050404
 20
-18.135467
 30
0.0
 11
164.050404
 21
-19.135467
 31
0.0
  0
LINE
  5
510
100
AcDbEntity
  8
2
100
AcDbLine
 10
151.068825
 20
-19.635467
 30
0.0
 11
106.968825
 21
-19.635467
 31
0.0
  0
LINE
  5
511
100
AcDbEntity
  8
2
100
AcDbLine
 10
130.968825
 20
-2.320122
 30
0.0
 11
130.968825
 21
0.138878
 31
0.0
  0
LINE
  5
512
100
AcDbEntity
  8
2
100
AcDbLine
 10
130.968825
 20
0.138878
 30
0.0
 11
131.509825
 21
0.679878
 31
0.0
  0
LINE
  5
513
100
AcDbEntity
  8
2
100
AcDbLine
 10
131.509825
 20
0.679878
 30
0.0
 11
134.987754
 21
0.679878
 31
0.0
  0
LINE
  5
514
100
AcDbEntity
  8
2
100
AcDbLine
 10
131.509825
 20
0.679878
 30
0.0
 11
131.509825
 21
-2.320122
 31
0.0
  0
LINE
  5
515
100
AcDbEntity
  8
2
100
AcDbLine
 10
130.968825
 20
-2.320122
 30
0.0
 11
130.968825
 21
-4.779122
 31
0.0
  0
LINE
  5
516
100
AcDbEntity
  8
2
100
AcDbLine
 10
130.968825
 20
-4.779122
 30
0.0
 11
131.509825
 21
-5.320122
 31
0.0
  0
LINE
  5
517
100
AcDbEntity
  8
2
100
AcDbLine
 10
131.509825
 20
-5.320122
 30
0.0
 11
134.987754
 21
-5.320122
 31
0.0
  0
LINE
  5
518
100
AcDbEntity
  8
2
100
AcDbLine
 10
131.509825
 20
-5.320122
 30
0.0
 11
131.509825
 21
-2.320122
 31
0.0
  0
POINT
  5
519
100
AcDbEntity
  8
2
100
AcDbPoint
 10
139.968825
 20
-2.320122
 30
0.0
  0
LINE
  5
51A
100
AcDbEntity
  8
2
100
AcDbLine
 10
139.968825
 20
-2.320122
 30
0.0
 11
139.968825
 21
-7.320122
 31
0.0
  0
LINE
  5
51B
100
AcDbEntity
  8
2
100
AcDbLine
 10
139.968825
 20
-7.320122
 30
0.0
 11
135.459573
 21
-7.320122
 31
0.0
  0
LINE
  5
51C
100
AcDbEntity
  8
2
100
AcDbLine
 10
134.968825
 20
-4.820122
 30
0.0
 11
134.968825
 21
-2.320122
 31
0.0
  0
LINE
  5
51D
100
AcDbEntity
  8
2
100
AcDbLine
 10
139.968825
 20
-2.320122
 30
0.0
 11
135.459573
 21
-2.320122
 31
0.0
  0
ARC
  5
51E
100
AcDbEntity
  8
2
100
AcDbCircle
 10
141.582033
 20
-4.820122
 30
0.0
 40
6.613208
100
AcDbArc
 50
157.788205
 51
202.211795
  0
LINE
  5
51F
100
AcDbEntity
  8
2
100
AcDbLine
 10
139.968825
 20
-2.320122
 30
0.0
 11
139.968825
 21
2.679878
 31
0.0
  0
LINE
  5
520
100
AcDbEntity
  8
2
100
AcDbLine
 10
139.968825
 20
2.679878
 30
0.0
 11
135.459573
 21
2.679878
 31
0.0
  0
LINE
  5
521
100
AcDbEntity
  8
2
100
AcDbLine
 10
134.968825
 20
0.179878
 30
0.0
 11
134.968825
 21
-2.320122
 31
0.0
  0
LINE
  5
522
100
AcDbEntity
  8
2
100
AcDbLine
 10
139.968825
 20
-2.320122
 30
0.0
 11
135.459573
 21
-2.320122
 31
0.0
  0
ARC
  5
523
100
AcDbEntity
  8
2
100
AcDbCircle
 10
141.582033
 20
0.179878
 30
0.0
 40
6.613208
100
AcDbArc
 50
157.788205
 51
202.211795
  0
LINE
  5
524
100
AcDbEntity
  8
2
 62
     2
100
AcDbLine
 10
130.968825
 20
-4.779122
 30
0.0
 11
134.968825
 21
-4.779122
 31
0.0
  0
LINE
  5
525
100
AcDbEntity
  8
2
 62
     2
100
AcDbLine
 10
130.968825
 20
0.138878
 30
0.0
 11
134.968825
 21
0.138878
 31
0.0
  0
POINT
  5
526
100
AcDbEntity
  8
2
100
AcDbPoint
 10
181.717562
 20
-17.635467
 30
0.0
  0
LINE
  5
527
100
AcDbEntity
  8
2
  6
CENTER
 62
     2
100
AcDbLine
 10
181.717562
 20
-45.694063
 30
0.0
 11
181.717562
 21
-8.543754
 31
0.0
  0
LINE
  5
528
100
AcDbEntity
  8
2
100
AcDbLine
 10
181.717562
 20
-17.635467
 30
0.0
 11
175.217562
 21
-17.635467
 31
0.0
  0
LINE
  5
529
100
AcDbEntity
  8
2
100
AcDbLine
 10
175.217562
 20
-17.635467
 30
0.0
 11
175.217562
 21
-12.857155
 31
0.0
  0
LINE
  5
52A
100
AcDbEntity
  8
2
100
AcDbLine
 10
178.467562
 20
-12.135467
 30
0.0
 11
181.717562
 21
-12.135467
 31
0.0
  0
LINE
  5
52B
100
AcDbEntity
  8
2
100
AcDbLine
 10
181.717562
 20
-17.635467
 30
0.0
 11
181.717562
 21
-12.857155
 31
0.0
  0
ARC
  5
52C
100
AcDbEntity
  8
2
100
AcDbCircle
 10
178.467562
 20
-19.814226
 30
0.0
 40
7.678759
100
AcDbArc
 50
64.96034
 51
115.03966
  0
LINE
  5
52D
100
AcDbEntity
  8
2
100
AcDbLine
 10
181.717562
 20
-42.635467
 30
0.0
 11
180.839441
 21
-42.635467
 31
0.0
  0
LINE
  5
52E
100
AcDbEntity
  8
2
100
AcDbLine
 10
181.154898
 20
-41.958967
 30
0.0
 11
181.717562
 21
-41.958967
 31
0.0
  0
LINE
  5
52F
100
AcDbEntity
  8
2
100
AcDbLine
 10
181.717562
 20
-17.635467
 30
0.0
 11
188.217562
 21
-17.635467
 31
0.0
  0
LINE
  5
530
100
AcDbEntity
  8
2
100
AcDbLine
 10
188.217562
 20
-17.635467
 30
0.0
 11
188.217562
 21
-12.857155
 31
0.0
  0
LINE
  5
531
100
AcDbEntity
  8
2
100
AcDbLine
 10
184.967562
 20
-12.135467
 30
0.0
 11
181.717562
 21
-12.135467
 31
0.0
  0
LINE
  5
532
100
AcDbEntity
  8
2
100
AcDbLine
 10
181.717562
 20
-17.635467
 30
0.0
 11
181.717562
 21
-12.857155
 31
0.0
  0
ARC
  5
533
100
AcDbEntity
  8
2
100
AcDbCircle
 10
184.967562
 20
-19.814226
 30
0.0
 40
7.678759
100
AcDbArc
 50
64.96034
 51
115.03966
  0
LINE
  5
534
100
AcDbEntity
  8
2
100
AcDbLine
 10
181.717562
 20
-42.635467
 30
0.0
 11
185.041062
 21
-42.635467
 31
0.0
  0
LINE
  5
535
100
AcDbEntity
  8
2
100
AcDbLine
 10
185.041062
 20
-42.635467
 30
0.0
 11
185.717562
 21
-41.958967
 31
0.0
  0
LINE
  5
536
100
AcDbEntity
  8
2
100
AcDbLine
 10
185.717562
 20
-41.958967
 30
0.0
 11
185.717562
 21
-40.098753
 31
0.0
  0
LINE
  5
537
100
AcDbEntity
  8
2
100
AcDbLine
 10
185.717562
 20
-41.958967
 30
0.0
 11
181.717562
 21
-41.958967
 31
0.0
  0
LINE
  5
538
100
AcDbEntity
  8
2
 62
     2
100
AcDbLine
 10
185.041062
 20
-42.635467
 30
0.0
 11
185.041062
 21
-40.135116
 31
0.0
  0
POINT
  5
539
100
AcDbEntity
  8
2
100
AcDbPoint
 10
181.717562
 20
-31.635467
 30
0.0
  0
POINT
  5
53A
100
AcDbEntity
  8
2
100
AcDbPoint
 10
181.717562
 20
-31.635467
 30
0.0
  0
LINE
  5
53B
100
AcDbEntity
  8
2
100
AcDbLine
 10
185.24701
 20
-33.635467
 30
0.0
 11
188.217562
 21
-33.635467
 31
0.0
  0
LINE
  5
53C
100
AcDbEntity
  8
2
100
AcDbLine
 10
188.217562
 20
-33.635467
 30
0.0
 11
188.217562
 21
-39.413779
 31
0.0
  0
LINE
  5
53D
100
AcDbEntity
  8
2
100
AcDbLine
 10
184.967562
 20
-40.135467
 30
0.0
 11
182.00521
 21
-40.135467
 31
0.0
  0
ARC
  5
53E
100
AcDbEntity
  8
2
100
AcDbCircle
 10
184.967562
 20
-32.456709
 30
0.0
 40
7.678759
100
AcDbArc
 50
249.185055
 51
295.03966
  0
LINE
  5
53F
100
AcDbEntity
  8
2
100
AcDbLine
 10
189.417562
 20
-31.635467
 30
0.0
 11
189.417562
 21
-33.635467
 31
0.0
  0
LINE
  5
540
100
AcDbEntity
  8
2
100
AcDbLine
 10
189.417562
 20
-33.635467
 30
0.0
 11
185.24701
 21
-33.635467
 31
0.0
  0
LINE
  5
541
100
AcDbEntity
  8
2
100
AcDbLine
 10
174.017562
 20
-31.635467
 30
0.0
 11
189.417562
 21
-31.635467
 31
0.0
  0
POINT
  5
542
100
AcDbEntity
  8
2
100
AcDbPoint
 10
132.220088
 20
-17.635467
 30
0.0
  0
LINE
  5
543
100
AcDbEntity
  8
2
  6
CENTER
 62
     2
100
AcDbLine
 10
132.220088
 20
-45.694063
 30
0.0
 11
132.220088
 21
-8.543754
 31
0.0
  0
LINE
  5
544
100
AcDbEntity
  8
2
100
AcDbLine
 10
132.220088
 20
-17.635467
 30
0.0
 11
138.720088
 21
-17.635467
 31
0.0
  0
LINE
  5
545
100
AcDbEntity
  8
2
100
AcDbLine
 10
138.720088
 20
-17.635467
 30
0.0
 11
138.720088
 21
-12.857155
 31
0.0
  0
LINE
  5
546
100
AcDbEntity
  8
2
100
AcDbLine
 10
135.470088
 20
-12.135467
 30
0.0
 11
132.220088
 21
-12.135467
 31
0.0
  0
LINE
  5
547
100
AcDbEntity
  8
2
100
AcDbLine
 10
132.220088
 20
-17.635467
 30
0.0
 11
132.220088
 21
-12.857155
 31
0.0
  0
ARC
  5
548
100
AcDbEntity
  8
2
100
AcDbCircle
 10
135.470088
 20
-19.814226
 30
0.0
 40
7.678759
100
AcDbArc
 50
64.96034
 51
115.03966
  0
LINE
  5
549
100
AcDbEntity
  8
2
100
AcDbLine
 10
132.220088
 20
-42.635467
 30
0.0
 11
135.543588
 21
-42.635467
 31
0.0
  0
LINE
  5
54A
100
AcDbEntity
  8
2
100
AcDbLine
 10
135.543588
 20
-42.635467
 30
0.0
 11
136.220088
 21
-41.958967
 31
0.0
  0
LINE
  5
54B
100
AcDbEntity
  8
2
100
AcDbLine
 10
136.220088
 20
-41.958967
 30
0.0
 11
136.220088
 21
-40.098753
 31
0.0
  0
LINE
  5
54C
100
AcDbEntity
  8
2
100
AcDbLine
 10
136.220088
 20
-41.958967
 30
0.0
 11
132.220088
 21
-41.958967
 31
0.0
  0
LINE
  5
54D
100
AcDbEntity
  8
2
 62
     2
100
AcDbLine
 10
135.543588
 20
-42.635467
 30
0.0
 11
135.543588
 21
-40.135116
 31
0.0
  0
LINE
  5
54E
100
AcDbEntity
  8
2
100
AcDbLine
 10
132.220088
 20
-17.635467
 30
0.0
 11
125.720088
 21
-17.635467
 31
0.0
  0
LINE
  5
54F
100
AcDbEntity
  8
2
100
AcDbLine
 10
125.720088
 20
-17.635467
 30
0.0
 11
125.720088
 21
-12.857155
 31
0.0
  0
LINE
  5
550
100
AcDbEntity
  8
2
100
AcDbLine
 10
128.970088
 20
-12.135467
 30
0.0
 11
132.220088
 21
-12.135467
 31
0.0
  0
LINE
  5
551
100
AcDbEntity
  8
2
100
AcDbLine
 10
132.220088
 20
-17.635467
 30
0.0
 11
132.220088
 21
-12.857155
 31
0.0
  0
ARC
  5
552
100
AcDbEntity
  8
2
100
AcDbCircle
 10
128.970088
 20
-19.814226
 30
0.0
 40
7.678759
100
AcDbArc
 50
64.96034
 51
115.03966
  0
LINE
  5
553
100
AcDbEntity
  8
2
100
AcDbLine
 10
132.220088
 20
-42.635467
 30
0.0
 11
128.896588
 21
-42.635467
 31
0.0
  0
LINE
  5
554
100
AcDbEntity
  8
2
100
AcDbLine
 10
128.896588
 20
-42.635467
 30
0.0
 11
128.220088
 21
-41.958967
 31
0.0
  0
LINE
  5
555
100
AcDbEntity
  8
2
100
AcDbLine
 10
128.220088
 20
-41.958967
 30
0.0
 11
128.220088
 21
-40.098753
 31
0.0
  0
LINE
  5
556
100
AcDbEntity
  8
2
100
AcDbLine
 10
128.220088
 20
-41.958967
 30
0.0
 11
132.220088
 21
-41.958967
 31
0.0
  0
LINE
  5
557
100
AcDbEntity
  8
2
 62
     2
100
AcDbLine
 10
128.896588
 20
-42.635467
 30
0.0
 11
128.896588
 21
-40.135116
 31
0.0
  0
POINT
  5
558
100
AcDbEntity
  8
2
100
AcDbPoint
 10
132.220088
 20
-31.635467
 30
0.0
  0
POINT
  5
559
100
AcDbEntity
  8
2
100
AcDbPoint
 10
132.220088
 20
-31.635467
 30
0.0
  0
LINE
  5
55A
100
AcDbEntity
  8
2
100
AcDbLine
 10
132.220088
 20
-33.635467
 30
0.0
 11
125.720088
 21
-33.635467
 31
0.0
  0
LINE
  5
55B
100
AcDbEntity
  8
2
100
AcDbLine
 10
125.720088
 20
-33.635467
 30
0.0
 11
125.720088
 21
-39.413779
 31
0.0
  0
LINE
  5
55C
100
AcDbEntity
  8
2
100
AcDbLine
 10
128.970088
 20
-40.135467
 30
0.0
 11
132.220088
 21
-40.135467
 31
0.0
  0
LINE
  5
55D
100
AcDbEntity
  8
2
100
AcDbLine
 10
132.220088
 20
-33.635467
 30
0.0
 11
132.220088
 21
-39.413779
 31
0.0
  0
ARC
  5
55E
100
AcDbEntity
  8
2
100
AcDbCircle
 10
128.970088
 20
-32.456709
 30
0.0
 40
7.678759
100
AcDbArc
 50
244.96034
 51
295.03966
  0
LINE
  5
55F
100
AcDbEntity
  8
2
100
AcDbLine
 10
132.220088
 20
-33.635467
 30
0.0
 11
138.720088
 21
-33.635467
 31
0.0
  0
LINE
  5
560
100
AcDbEntity
  8
2
100
AcDbLine
 10
138.720088
 20
-33.635467
 30
0.0
 11
138.720088
 21
-39.413779
 31
0.0
  0
LINE
  5
561
100
AcDbEntity
  8
2
100
AcDbLine
 10
135.470088
 20
-40.135467
 30
0.0
 11
132.220088
 21
-40.135467
 31
0.0
  0
LINE
  5
562
100
AcDbEntity
  8
2
100
AcDbLine
 10
132.220088
 20
-33.635467
 30
0.0
 11
132.220088
 21
-39.413779
 31
0.0
  0
ARC
  5
563
100
AcDbEntity
  8
2
100
AcDbCircle
 10
135.470088
 20
-32.456709
 30
0.0
 40
7.678759
100
AcDbArc
 50
244.96034
 51
295.03966
  0
LINE
  5
564
100
AcDbEntity
  8
2
100
AcDbLine
 10
124.520088
 20
-31.635467
 30
0.0
 11
124.520088
 21
-33.635467
 31
0.0
  0
LINE
  5
565
100
AcDbEntity
  8
2
100
AcDbLine
 10
124.520088
 20
-33.635467
 30
0.0
 11
139.920088
 21
-33.635467
 31
0.0
  0
LINE
  5
566
100
AcDbEntity
  8
2
100
AcDbLine
 10
139.920088
 20
-33.635467
 30
0.0
 11
139.920088
 21
-31.635467
 31
0.0
  0
LINE
  5
567
100
AcDbEntity
  8
2
100
AcDbLine
 10
139.920088
 20
-31.635467
 30
0.0
 11
124.520088
 21
-31.635467
 31
0.0
  0
DIMENSION
  5
568
100
AcDbEntity
  8
5
100
AcDbDimension
  2
*D0
 10
-282.219696
 20
226.907236
 30
0.0
 11
-287.839696
 21
191.387236
 31
0.0
  1
75
100
AcDbAlignedDimension
 13
-267.720886
 23
151.907236
 33
0.0
 14
-209.194112
 24
226.907236
 34
0.0
 50
90.0
100
AcDbRotatedDimension
  0
DIMENSION
  5
569
100
AcDbEntity
  8
5
100
AcDbDimension
  2
*D1
 10
-282.219696
 20
151.907236
 30
0.0
 11
-287.839696
 21
128.887236
 31
0.0
  1
50
100
AcDbAlignedDimension
 13
-194.194112
 23
101.907236
 33
0.0
 14
-267.720886
 24
151.907236
 34
0.0
 50
90.0
100
AcDbRotatedDimension
  0
DIMENSION
  5
56A
100
AcDbEntity
  8
5
100
AcDbDimension
  2
*D2
 10
80.572995
 20
-19.635467
 30
0.0
 11
68.022995
 21
-83.835467
 31
0.0
  1
118.5
100
AcDbAlignedDimension
 13
122.328276
 23
-138.135467
 33
0.0
 14
106.968825
 24
-19.635467
 34
0.0
 50
90.0
100
AcDbRotatedDimension
  0
DIMENSION
  5
56B
100
AcDbEntity
  8
5
100
AcDbDimension
  2
*D3
 10
80.572995
 20
-138.135467
 30
0.0
 11
74.952995
 21
-167.155467
 31
0.0
  1
62
100
AcDbAlignedDimension
 13
153.968825
 23
-200.135467
 33
0.0
 14
122.328276
 24
-138.135467
 34
0.0
 50
90.0
100
AcDbRotatedDimension
  0
DIMENSION
  5
56C
100
AcDbEntity
  8
5
100
AcDbDimension
  2
*D4
 10
178.468825
 20
-220.010529
 30
0.0
 11
156.968825
 21
-215.710529
 31
0.0
  1
43
100
AcDbAlignedDimension
 13
135.468825
 23
-183.135467
 33
0.0
 14
178.468825
 24
-183.135467
 34
0.0
100
AcDbRotatedDimension
  0
TEXT
  5
56D
100
AcDbEntity
  8
5
100
AcDbText
 10
79.572995
 20
-5.02678
 30
0.0
 40
6.6
  1
66(概略)
 50
90.0
 41
1.4
 72
     5
 11
79.572995
 21
30.085219
 31
0.0
100
AcDbText
  0
DIMENSION
  5
56E
100
AcDbEntity
  8
5
100
AcDbDimension
  2
*D5
 10
80.572995
 20
46.541907
 30
0.0
 11
78.072995
 21
13.45322
 31
0.0
100
AcDbAlignedDimension
 13
106.968825
 23
-19.635467
 33
0.0
 14
156.968825
 24
46.541907
 34
0.0
 50
90.0
100
AcDbRotatedDimension
  0
TEXT
  5
56F
100
AcDbEntity
  8
5
100
AcDbText
 10
-101.204309
 20
69.69191
 30
0.0
 40
6.6
  1
200
 41
1.4
 72
     5
 11
-89.192309
 21
69.69191
 31
0.0
100
AcDbText
  0
DIMENSION
  5
570
100
AcDbEntity
  8
5
100
AcDbDimension
  2
*D6
 10
5.645495
 20
68.69191
 30
0.0
 11
-94.274309
 21
70.69191
 31
0.0
100
AcDbAlignedDimension
 13
-194.194112
 23
27.437194
 33
0.0
 14
5.645495
 24
39.29276
 34
0.0
100
AcDbRotatedDimension
  0
TEXT
  5
571
100
AcDbEntity
  8
18
100
AcDbText
 10
244.289261
 20
-266.527985
 30
0.0
 40
6.0
  1
１
 72
     5
 11
249.089261
 21
-266.527985
 31
0.0
100
AcDbText
  0
TEXT
  5
572
100
AcDbEntity
  8
18
100
AcDbText
 10
253.082458
 20
-274.202026
 30
0.0
 40
6.0
  1
２
 72
     5
 11
257.882458
 21
-274.202026
 31
0.0
100
AcDbText
  0
TEXT
  5
573
100
AcDbEntity
  8
18
100
AcDbText
 10
245.708481
 20
-254.070526
 30
0.0
 40
6.0
  1
標準仕様
 72
     5
 11
268.508481
 21
-254.070526
 31
0.0
100
AcDbText
  0
LINE
  5
574
100
AcDbEntity
  8
18
100
AcDbLine
 10
256.862762
 20
-146.055054
 30
0.0
 11
356.862762
 21
-146.055054
 31
0.0
  0
LINE
  5
575
100
AcDbEntity
  8
18
100
AcDbLine
 10
256.862762
 20
-186.055054
 30
0.0
 11
356.862762
 21
-186.055054
 31
0.0
  0
LINE
  5
576
100
AcDbEntity
  8
18
100
AcDbLine
 10
256.862762
 20
-196.055054
 30
0.0
 11
356.862762
 21
-196.055054
 31
0.0
  0
LINE
  5
577
100
AcDbEntity
  8
18
100
AcDbLine
 10
256.862762
 20
-206.055054
 30
0.0
 11
356.862762
 21
-206.055054
 31
0.0
  0
LINE
  5
578
100
AcDbEntity
  8
18
100
AcDbLine
 10
256.862762
 20
-146.055054
 30
0.0
 11
256.862762
 21
-206.055054
 31
0.0
  0
LINE
  5
579
100
AcDbEntity
  8
18
100
AcDbLine
 10
306.862762
 20
-146.055054
 30
0.0
 11
306.862762
 21
-196.055054
 31
0.0
  0
LINE
  5
57A
100
AcDbEntity
  8
18
100
AcDbLine
 10
356.862762
 20
-146.055054
 30
0.0
 11
356.862762
 21
-206.055054
 31
0.0
  0
LINE
  5
57B
100
AcDbEntity
  8
18
 62
     2
100
AcDbLine
 10
274.420021
 20
-148.024063
 30
0.0
 11
274.420021
 21
-172.226685
 31
0.0
  0
LINE
  5
57C
100
AcDbEntity
  8
18
100
AcDbLine
 10
262.420021
 20
-170.226685
 30
0.0
 11
262.420021
 21
-176.226685
 31
0.0
  0
LINE
  5
57D
100
AcDbEntity
  8
18
100
AcDbLine
 10
262.420021
 20
-170.226685
 30
0.0
 11
268.095466
 21
-170.226685
 31
0.0
  0
LINE
  5
57E
100
AcDbEntity
  8
18
100
AcDbLine
 10
280.744576
 20
-170.226685
 30
0.0
 11
286.420021
 21
-170.226685
 31
0.0
  0
LINE
  5
57F
100
AcDbEntity
  8
18
100
AcDbLine
 10
262.420021
 20
-176.226685
 30
0.0
 11
268.095466
 21
-176.226685
 31
0.0
  0
LINE
  5
580
100
AcDbEntity
  8
18
100
AcDbLine
 10
280.744576
 20
-176.226685
 30
0.0
 11
286.420021
 21
-176.226685
 31
0.0
  0
LINE
  5
581
100
AcDbEntity
  8
18
100
AcDbLine
 10
272.322167
 20
-172.226685
 30
0.0
 11
298.909369
 21
-172.226685
 31
0.0
  0
LINE
  5
582
100
AcDbEntity
  8
18
100
AcDbLine
 10
272.322167
 20
-174.226685
 30
0.0
 11
298.909369
 21
-174.226685
 31
0.0
  0
LINE
  5
583
100
AcDbEntity
  8
18
100
AcDbLine
 10
269.341311
 20
-172.834756
 30
0.0
 11
272.322167
 21
-172.226685
 31
0.0
  0
LINE
  5
584
100
AcDbEntity
  8
18
100
AcDbLine
 10
269.341311
 20
-173.618613
 30
0.0
 11
272.322167
 21
-174.226685
 31
0.0
  0
ARC
  5
585
100
AcDbEntity
  8
18
100
AcDbCircle
 10
269.421262
 20
-173.226685
 30
0.0
 40
0.4
100
AcDbArc
 50
101.529708
 51
258.470292
  0
LINE
  5
586
100
AcDbEntity
  8
18
100
AcDbLine
 10
286.420021
 20
-176.226685
 30
0.0
 11
286.420021
 21
-174.226685
 31
0.0
  0
LINE
  5
587
100
AcDbEntity
  8
18
100
AcDbLine
 10
286.420021
 20
-172.226685
 30
0.0
 11
286.420021
 21
-170.226685
 31
0.0
  0
ARC
  5
588
100
AcDbEntity
  8
18
100
AcDbCircle
 10
274.420021
 20
-173.226685
 30
0.0
 40
7.0
100
AcDbArc
 50
8.213211
 51
351.786789
  0
LINE
  5
589
100
AcDbEntity
  8
18
100
AcDbLine
 10
298.909369
 20
-172.226685
 30
0.0
 11
298.909369
 21
-174.226685
 31
0.0
  0
LINE
  5
58A
100
AcDbEntity
  8
18
 62
     2
100
AcDbLine
 10
349.284842
 20
-158.266296
 30
0.0
 11
325.08222
 21
-158.266296
 31
0.0
  0
LINE
  5
58B
100
AcDbEntity
  8
18
100
AcDbLine
 10
312.08222
 20
-155.266296
 30
0.0
 11
312.08222
 21
-161.266296
 31
0.0
  0
LINE
  5
58C
100
AcDbEntity
  8
18
100
AcDbLine
 10
312.08222
 20
-155.266296
 30
0.0
 11
317.757665
 21
-155.266296
 31
0.0
  0
LINE
  5
58D
100
AcDbEntity
  8
18
100
AcDbLine
 10
330.406775
 20
-155.266296
 30
0.0
 11
336.08222
 21
-155.266296
 31
0.0
  0
LINE
  5
58E
100
AcDbEntity
  8
18
100
AcDbLine
 10
312.08222
 20
-161.266296
 30
0.0
 11
317.757665
 21
-161.266296
 31
0.0
  0
LINE
  5
58F
100
AcDbEntity
  8
18
100
AcDbLine
 10
330.406775
 20
-161.266296
 30
0.0
 11
336.08222
 21
-161.266296
 31
0.0
  0
LINE
  5
590
100
AcDbEntity
  8
18
100
AcDbLine
 10
325.08222
 20
-156.168442
 30
0.0
 11
325.08222
 21
-182.755644
 31
0.0
  0
LINE
  5
591
100
AcDbEntity
  8
18
100
AcDbLine
 10
323.08222
 20
-156.168442
 30
0.0
 11
323.08222
 21
-182.755644
 31
0.0
  0
LINE
  5
592
100
AcDbEntity
  8
18
100
AcDbLine
 10
324.474149
 20
-153.187587
 30
0.0
 11
325.08222
 21
-156.168442
 31
0.0
  0
LINE
  5
593
100
AcDbEntity
  8
18
100
AcDbLine
 10
323.690292
 20
-153.187587
 30
0.0
 11
323.08222
 21
-156.168442
 31
0.0
  0
ARC
  5
594
100
AcDbEntity
  8
18
100
AcDbCircle
 10
324.08222
 20
-153.267537
 30
0.0
 40
0.4
100
AcDbArc
 50
11.529708
 51
168.470292
  0
LINE
  5
595
100
AcDbEntity
  8
18
100
AcDbLine
 10
336.08222
 20
-161.266296
 30
0.0
 11
336.08222
 21
-159.266296
 31
0.0
  0
LINE
  5
596
100
AcDbEntity
  8
18
100
AcDbLine
 10
336.08222
 20
-159.266296
 30
0.0
 11
336.08222
 21
-155.266296
 31
0.0
  0
LINE
  5
597
100
AcDbEntity
  8
18
100
AcDbLine
 10
325.08222
 20
-182.755644
 30
0.0
 11
323.08222
 21
-182.755644
 31
0.0
  0
ARC
  5
598
100
AcDbEntity
  8
18
100
AcDbCircle
 10
324.08222
 20
-158.266296
 30
0.0
 40
7.0
100
AcDbArc
 50
278.213211
 51
261.786789
  0
TEXT
  5
599
100
AcDbEntity
  8
18
100
AcDbText
 10
264.847015
 20
-203.122322
 30
0.0
 40
5.0
  1
ＡＣＴＵＡＴＯＲ　ＰＯＳＩＴＩＯＮ
 72
     5
 11
348.847015
 21
-203.122322
 31
0.0
100
AcDbText
  0
TEXT
  5
59A
100
AcDbEntity
  8
18
100
AcDbText
 10
277.124237
 20
-193.699295
 30
0.0
 40
6.0
  1
Ｌ
 72
     5
 11
281.924237
 21
-193.699295
 31
0.0
100
AcDbText
  0
TEXT
  5
59B
100
AcDbEntity
  8
18
100
AcDbText
 10
327.100342
 20
-193.859604
 30
0.0
 40
6.0
  1
Ｒ
 72
     5
 11
331.900342
 21
-193.859604
 31
0.0
100
AcDbText
  0
TEXT
  5
59C
100
AcDbEntity
  8
18
100
AcDbText
 10
288.872514
 20
-153.531551
 30
0.0
 40
6.0
  1
　
 50
315.0
 72
     5
 11
288.023986
 21
-152.683023
 31
0.0
100
AcDbText
  0
DIMENSION
  5
59D
100
AcDbEntity
  8
18
100
AcDbDimension
  2
*D7
 10
274.420021
 20
-149.787773
 30
0.0
 11
306.506987
 21
-140.846825
 31
0.0
 70
     2
100
AcDb2LineAngularDimension
 13
296.858932
 23
-172.226685
 33
0.0
 14
274.420021
 24
-172.226685
 34
0.0
 15
274.420021
 25
-172.226685
 35
0.0
 16
290.286727
 26
-156.359978
 36
0.0
  0
TEXT
  5
59E
100
AcDbEntity
  8
18
100
AcDbText
 10
269.949709
 20
-151.971787
 30
0.0
 40
4.0
  1
Ｏ
 72
     5
 11
273.149709
 21
-151.971787
 31
0.0
100
AcDbText
  0
TEXT
  5
59F
100
AcDbEntity
  8
18
100
AcDbText
 10
295.492743
 20
-179.110626
 30
0.0
 40
4.0
  1
Ｓ
 72
     5
 11
298.692743
 21
-179.110626
 31
0.0
100
AcDbText
  0
TEXT
  5
5A0
100
AcDbEntity
  8
18
100
AcDbText
 10
342.36314
 20
-171.304576
 30
0.0
 40
6.0
  1
　
 50
225.0
 72
     5
 11
343.211668
 21
-170.456048
 31
0.0
100
AcDbText
  0
DIMENSION
  5
5A1
100
AcDbEntity
  8
18
100
AcDbDimension
  2
*D8
 10
347.521132
 20
-158.266296
 30
0.0
 11
357.169186
 21
-191.060369
 31
0.0
 70
     2
100
AcDb2LineAngularDimension
 13
325.08222
 23
-180.705208
 33
0.0
 14
325.08222
 24
-158.266296
 34
0.0
 15
325.08222
 25
-158.266296
 35
0.0
 16
340.948927
 26
-174.133003
 36
0.0
  0
TEXT
  5
5A2
100
AcDbEntity
  8
18
100
AcDbText
 10
345.337118
 20
-153.795984
 30
0.0
 40
4.0
  1
Ｏ
 50
270.0
 72
     5
 11
345.337118
 21
-156.995984
 31
0.0
100
AcDbText
  0
TEXT
  5
5A3
100
AcDbEntity
  8
18
100
AcDbText
 10
318.198278
 20
-179.339018
 30
0.0
 40
4.0
  1
Ｓ
 50
270.0
 72
     5
 11
318.198278
 21
-182.539018
 31
0.0
100
AcDbText
  0
TEXT
  5
5A4
100
AcDbEntity
  8
18
100
AcDbText
 10
245.708481
 20
-246.070526
 30
0.0
 40
6.0
  1
８４７Ｔ－１ＴＬＳ　５０Ａ
 72
     5
 11
322.508481
 21
-246.070526
 31
0.0
100
AcDbText
  0
TEXT
  5
5A5
100
AcDbEntity
  8
18
100
AcDbText
 10
307.2
 20
-272.0
 30
0.0
 40
10.0
  1
Ｄ３－０３８２５
 72
     5
 11
385.2
 21
-272.0
 31
0.0
100
AcDbText
  0
TEXT
  5
5A6
100
AcDbEntity
  8
18
100
AcDbText
 10
360.398199
 20
-254.208344
 30
0.0
 40
4.0
  1
２００５．　７．１９
 72
     5
 11
399.598199
 21
-254.208344
 31
0.0
100
AcDbText
  0
LINE
  5
5A7
100
AcDbEntity
  8
20
 62
     3
100
AcDbLine
 10
-360.0
 20
-277.0
 30
0.0
 11
400.0
 21
-277.0
 31
0.0
  0
LINE
  5
5A8
100
AcDbEntity
  8
20
 62
     3
100
AcDbLine
 10
-360.0
 20
264.0
 30
0.0
 11
400.0
 21
264.0
 31
0.0
  0
LINE
  5
5A9
100
AcDbEntity
  8
20
 62
     3
100
AcDbLine
 10
-360.0
 20
264.0
 30
0.0
 11
-360.0
 21
-277.0
 31
0.0
  0
LINE
  5
5AA
100
AcDbEntity
  8
20
 62
     3
100
AcDbLine
 10
400.0
 20
264.0
 30
0.0
 11
400.0
 21
-277.0
 31
0.0
  0
LINE
  5
5AB
100
AcDbEntity
  8
20
 62
     3
100
AcDbLine
 10
120.0
 20
-277.0
 30
0.0
 11
120.0
 21
-237.0
 31
0.0
  0
LINE
  5
5AC
100
AcDbEntity
  8
20
 62
     3
100
AcDbLine
 10
214.0
 20
-277.0
 30
0.0
 11
214.0
 21
-237.0
 31
0.0
  0
LINE
  5
5AD
100
AcDbEntity
  8
20
100
AcDbLine
 10
214.0
 20
-257.0
 30
0.0
 11
400.0
 21
-257.0
 31
0.0
  0
LINE
  5
5AE
100
AcDbEntity
  8
20
 62
     3
100
AcDbLine
 10
120.0
 20
-237.0
 30
0.0
 11
400.0
 21
-237.0
 31
0.0
  0
LINE
  5
5AF
100
AcDbEntity
  8
20
100
AcDbLine
 10
360.0
 20
-257.0
 30
0.0
 11
360.0
 21
-237.0
 31
0.0
  0
LINE
  5
5B0
100
AcDbEntity
  8
20
100
AcDbLine
 10
360.0
 20
-247.0
 30
0.0
 11
400.0
 21
-247.0
 31
0.0
  0
LINE
  5
5B1
100
AcDbEntity
  8
20
100
AcDbLine
 10
242.0
 20
-277.0
 30
0.0
 11
242.0
 21
-237.0
 31
0.0
  0
LINE
  5
5B2
100
AcDbEntity
  8
20
100
AcDbLine
 10
262.0
 20
-277.0
 30
0.0
 11
262.0
 21
-257.0
 31
0.0
  0
LINE
  5
5B3
100
AcDbEntity
  8
20
100
AcDbLine
 10
302.0
 20
-277.0
 30
0.0
 11
302.0
 21
-257.0
 31
0.0
  0
LINE
  5
5B4
100
AcDbEntity
  8
20
100
AcDbLine
 10
247.456829
 20
-271.543171
 30
0.0
 11
255.796581
 21
-263.203419
 31
0.0
  0
TEXT
  5
5B5
100
AcDbEntity
  8
20
100
AcDbText
 10
263.066658
 20
-264.993835
 30
0.0
 40
3.6
  1
ＤＲＡＷＩＮＧ　ＮＯ．
 72
     5
 11
301.946658
 21
-264.993835
 31
0.0
100
AcDbText
  0
TEXT
  5
5B6
100
AcDbEntity
  8
20
100
AcDbText
 10
267.0
 20
-273.0
 30
0.0
 40
6.0
  1
図　　　番
 72
     5
 11
295.8
 21
-273.0
 31
0.0
100
AcDbText
  0
TEXT
  5
5B7
100
AcDbEntity
  8
20
100
AcDbText
 10
372.0
 20
-244.0
 30
0.0
 40
4.0
  1
ＤＡＴＥ
 72
     5
 11
387.2
 21
-244.0
 31
0.0
100
AcDbText
  0
TEXT
  5
5B8
100
AcDbEntity
  8
20
100
AcDbText
 10
218.002142
 20
-265.922058
 30
0.0
 40
4.0
  1
ＳＣＡＬＥ
 72
     5
 11
237.202142
 21
-265.922058
 31
0.0
100
AcDbText
  0
TEXT
  5
5B9
100
AcDbEntity
  8
20
100
AcDbText
 10
216.0
 20
-273.0
 30
0.0
 40
6.0
  1
尺　　度
 72
     5
 11
238.8
 21
-273.0
 31
0.0
100
AcDbText
  0
TEXT
  5
5BA
100
AcDbEntity
  8
20
100
AcDbText
 10
215.002142
 20
-244.991769
 30
0.0
 40
4.0
  1
ＦＩＧ．ＮＯ．
 72
     5
 11
242.202142
 21
-244.991769
 31
0.0
100
AcDbText
  0
TEXT
  5
5BB
100
AcDbEntity
  8
20
100
AcDbText
 10
216.0
 20
-253.0
 30
0.0
 40
6.0
  1
名　　称
 72
     5
 11
238.8
 21
-253.0
 31
0.0
100
AcDbText
  0
TEXT
  5
5BC
100
AcDbEntity
  8
20
100
AcDbText
 10
121.13105
 20
-252.940506
 30
0.0
 40
4.6
  1
ＴＯＭＯＥ　ＶＡＬＶＥ　ＣＯ．，ＬＴＤ．
 72
     5
 11
212.21105
 21
-252.940506
 31
0.0
100
AcDbText
  0
TEXT
  5
5BD
100
AcDbEntity
  8
20
100
AcDbText
 10
135.0
 20
-266.57962
 30
0.0
 40
8.0
  1
巴バルブ株式会社
 72
     5
 11
197.4
 21
-266.57962
 31
0.0
100
AcDbText
  0
ENDSEC
  0
SECTION
  2
OBJECTS
  0
DICTIONARY
  5
626
100
AcDbDictionary
  3
ACAD_GROUP
350
627
  3
ACAD_MLINESTYLE
350
628
  0
DICTIONARY
  5
627
102
{ACAD_REACTORS
330
626
102
}
100
AcDbDictionary
  0
DICTIONARY
  5
628
102
{ACAD_REACTORS
330
626
102
}
100
AcDbDictionary
  3
STANDARD
350
629
  0
MLINESTYLE
  5
629
102
{ACAD_REACTORS
330
628
102
}
100
AcDbMlineStyle
  2
STANDARD
 70
     0
  3

 62
     0
 51
90.0
 52
90.0
 71
     2
 49
0.5
 62
   256
  6
BYLAYER
 49
-0.5
 62
   256
  6
BYLAYER
  0
ENDSEC
  0
EOF
