  0
SECTION
  2
HEADER
  9
$ACADVER
  1
AC1012
  9
$DWGCODEPAGE
  3
ansi_932
  9
$INSBASE
 10
0.0
 20
0.0
 30
0.0
  9
$EXTMIN
 10
-420.0
 20
-297.0
 30
1.000000E+20
  9
$EXTMAX
 10
420.0
 20
297.0
 30
-1.000000E+20
  9
$LIMMIN
 10
-420.0
 20
-297.0
  9
$LIMMAX
 10
420.0
 20
297.0
  9
$ORTHOMODE
 70
     0
  9
$REGENMODE
 70
     1
  9
$FILLMODE
 70
     1
  9
$QTEXTMODE
 70
     0
  9
$MIRRTEXT
 70
     1
  9
$DRAGMODE
 70
     2
  9
$LTSCALE
 40
1.0
  9
$OSMODE
 70
     0
  9
$ATTMODE
 70
     1
  9
$TEXTSIZE
 40
0.2
  9
$TRACEWID
 40
0.05
  9
$TEXTSTYLE
  7
STANDARD
  9
$CLAYER
  8
0
  9
$CELTYPE
  6
CONTINUOUS
  9
$CECOLOR
 62
   256
  9
$CELTSCALE
 40
1.0
  9
$DELOBJ
 70
     1
  9
$DISPSILH
 70
     0
  9
$DIMSCALE
 40
2.0
  9
$DIMASZ
 40
0.18
  9
$DIMEXO
 40
0.0625
  9
$DIMDLI
 40
0.38
  9
$DIMRND
 40
0.0
  9
$DIMDLE
 40
0.0
  9
$DIMEXE
 40
0.18
  9
$DIMTP
 40
0.0
  9
$DIMTM
 40
0.0
  9
$DIMTXT
 40
0.18
  9
$DIMCEN
 40
0.09
  9
$DIMTSZ
 40
0.0
  9
$DIMTOL
 70
     0
  9
$DIMLIM
 70
     0
  9
$DIMTIH
 70
     1
  9
$DIMTOH
 70
     1
  9
$DIMSE1
 70
     0
  9
$DIMSE2
 70
     0
  9
$DIMTAD
 70
     1
  9
$DIMZIN
 70
     0
  9
$DIMBLK
  1

  9
$DIMASO
 70
     1
  9
$DIMSHO
 70
     1
  9
$DIMPOST
  1

  9
$DIMAPOST
  1

  9
$DIMALT
 70
     0
  9
$DIMALTD
 70
     2
  9
$DIMALTF
 40
25.4
  9
$DIMLFAC
 40
1.0
  9
$DIMTOFL
 70
     0
  9
$DIMTVP
 40
0.0
  9
$DIMTIX
 70
     0
  9
$DIMSOXD
 70
     0
  9
$DIMSAH
 70
     0
  9
$DIMBLK1
  1

  9
$DIMBLK2
  1

  9
$DIMSTYLE
  2
STANDARD
  9
$DIMCLRD
 70
     0
  9
$DIMCLRE
 70
     0
  9
$DIMCLRT
 70
     0
  9
$DIMTFAC
 40
1.0
  9
$DIMGAP
 40
0.09
  9
$DIMJUST
 70
     0
  9
$DIMSD1
 70
     0
  9
$DIMSD2
 70
     0
  9
$DIMTOLJ
 70
     1
  9
$DIMTZIN
 70
     0
  9
$DIMALTZ
 70
     0
  9
$DIMALTTZ
 70
     0
  9
$DIMFIT
 70
     3
  9
$DIMUPT
 70
     0
  9
$DIMUNIT
 70
     2
  9
$DIMDEC
 70
     4
  9
$DIMTDEC
 70
     4
  9
$DIMALTU
 70
     2
  9
$DIMALTTD
 70
     2
  9
$DIMTXSTY
  7
STANDARD
  9
$DIMAUNIT
 70
     0
  9
$LUNITS
 70
     2
  9
$LUPREC
 70
     4
  9
$SKETCHINC
 40
0.1
  9
$FILLETRAD
 40
0.0
  9
$AUNITS
 70
     0
  9
$AUPREC
 70
     0
  9
$MENU
  1
acad
  9
$ELEVATION
 40
0.0
  9
$PELEVATION
 40
0.0
  9
$THICKNESS
 40
0.0
  9
$LIMCHECK
 70
     0
  9
$BLIPMODE
 70
     1
  9
$CHAMFERA
 40
0.0
  9
$CHAMFERB
 40
0.0
  9
$CHAMFERC
 40
0.0
  9
$CHAMFERD
 40
0.0
  9
$SKPOLY
 70
     0
  9
$TDCREATE
 40
2453571.000000000
  9
$TDUPDATE
 40
0.000000000
  9
$TDINDWG
 40
0.0000000000
  9
$TDUSRTIMER
 40
0.0000000000
  9
$USRTIMER
 70
     1
  9
$ANGBASE
 50
0.0
  9
$ANGDIR
 70
     0
  9
$PDMODE
 70
     0
  9
$PDSIZE
 40
0.0
  9
$PLINEWID
 40
0.0
  9
$COORDS
 70
     0
  9
$SPLFRAME
 70
     0
  9
$SPLINETYPE
 70
     6
  9
$SPLINESEGS
 70
     8
  9
$ATTDIA
 70
     0
  9
$ATTREQ
 70
     1
  9
$HANDLING
 70
     1
  9
$HANDSEED
  5
645
  9
$SURFTAB1
 70
     6
  9
$SURFTAB2
 70
     6
  9
$SURFTYPE
 70
     6
  9
$SURFU
 70
     6
  9
$SURFV
 70
     6
  9
$UCSNAME
  2

  9
$UCSORG
 10
0.0
 20
0.0
 30
0.0
  9
$UCSXDIR
 10
1.0
 20
0.0
 30
0.0
  9
$UCSYDIR
 10
0.0
 20
1.0
 30
0.0
  9
$PUCSNAME
  2

  9
$PUCSORG
 10
0.0
 20
0.0
 30
0.0
  9
$PUCSXDIR
 10
1.0
 20
0.0
 30
0.0
  9
$PUCSYDIR
 10
0.0
 20
1.0
 30
0.0
  9
$USERI1
 70
     0
  9
$USERI2
 70
     0
  9
$USERI3
 70
     0
  9
$USERI4
 70
     0
  9
$USERI5
 70
     0
  9
$USERR1
 40
0.0
  9
$USERR2
 40
0.0
  9
$USERR3
 40
0.0
  9
$USERR4
 40
0.0
  9
$USERR5
 40
0.0
  9
$WORLDVIEW
 70
     1
  9
$SHADEDGE
 70
     3
  9
$SHADEDIF
 70
    70
  9
$TILEMODE
 70
     1
  9
$MAXACTVP
 70
    16
  9
$PINSBASE
 10
0.0
 20
0.0
 30
0.0
  9
$PLIMCHECK
 70
     0
  9
$PEXTMIN
 10
1.000000E+20
 20
1.000000E+20
 30
1.000000E+20
  9
$PEXTMAX
 10
-1.000000E+20
 20
-1.000000E+20
 30
-1.000000E+20
  9
$PLIMMIN
 10
0.0
 20
0.0
  9
$PLIMMAX
 10
12.0
 20
9.0
  9
$UNITMODE
 70
     0
  9
$VISRETAIN
 70
     0
  9
$PLINEGEN
 70
     1
  9
$PSLTSCALE
 70
     0
  9
$TREEDEPTH
 70
  3020
  9
$PICKSTYLE
 70
     1
  9
$CMLSTYLE
  2
STANDARD
  9
$CMLJUST
 70
     0
  9
$CMLSCALE
 40
1.0
  9
$SAVEIMAGES
 70
     0
  0
ENDSEC
  0
SECTION
  2
CLASSES
  0
CLASS
  1
LWPOLYLINE
  2
AcDbPolyline
  3
"AutoCAD"
 90
    32768
280
     0
281
     1
  0
CLASS
  1
IMAGE
  2
AcDbRasterImage
  3
ISM
 90
    32895
280
     0
281
     1
  0
CLASS
  1
OLE2FRAME
  2
AcDbOle2Frame
  3
""
 90
    32768
280
     0
281
     1
  0
CLASS
  1
HATCH
  2
AcDbHatch
  3
"ACAD_SEDONA"
 90
    32768
280
     0
281
     1
  0
CLASS
  1
DICTIONARYVAR
  2
AcDbDictionaryVar
  3
"AutoCAD"
 90
    32768
280
     0
281
     0
  0
CLASS
  1
RASTERVARIABLES
  2
AcDbRasterVariables
  3
ISM
 90
    32768
280
     0
281
     0
  0
CLASS
  1
IMAGEDEF
  2
AcDbRasterImageDef
  3
ISM
 90
    32768
280
     0
281
     0
  0
CLASS
  1
IMAGEDEF_REACTOR
  2
AcDbRasterImageDefReactor
  3
ISM
 90
    32769
280
     0
281
     0
  0
CLASS
  1
IDBUFFER
  2
AcDbIdBuffer
  3
"Acad"
 90
    32768
280
     0
281
     0
  0
CLASS
  1
SPATIAL_FILTER
  2
AcDbSpatialFilter
  3
"Acad"
 90
    32768
280
     0
281
     0
  0
CLASS
  1
XRECORD
  2
AcDbXrecord
  3
"<Built In>"
 90
    32768
280
     0
281
     0
  0
CLASS
  1
SORTENTSTABLE
  2
AcDbSortentsTable
  3
"AutoCAD"
 90
    32768
280
     0
281
     0
  0
CLASS
  1
LAYER_INDEX
  2
AcDbLayerIndex
  3
"Acad"
 90
    32768
280
     0
281
     0
  0
CLASS
  1
SPATIAL_INDEX
  2
AcDbSpatialIndex
  3
"Acad"
 90
    32768
280
     0
281
     0
  0
CLASS
  1
OBJECT_PTR
  2
CAseDLPNTableRecord
  3
"ASE-LPNTableRecord"
 90
    32769
280
     0
281
     0
  0
CLASS
  1
LAYOUT
  2
AcDbLayout
  3
"AutoCAD 2000"
 90
    32768
280
     0
281
     0
  0
CLASS
  1
PLOTSETTINGS
  2
AcDbPlotSettings
  3
"AutoCAD 2000"
 90
    32768
280
     0
281
     0
  0
CLASS
  1
ACDBDICTIONARYWDFLT
  2
AcDbDictionaryWithDefault
  3
"AutoCAD 2000"
 90
    32768
280
     0
281
     0
  0
CLASS
  1
ACDBPLACEHOLDER
  2
AcDbPlaceHolder
  3
"AutoCAD 2000"
 90
    32768
280
     0
281
     0
  0
CLASS
  1
VBA_PROJECT
  2
AcDbVbaProject
  3
"acadvba"
 90
    32768
280
     0
281
     0
  0
CLASS
  1
WIPEOUT
  2
AcDbWipeout
  3
WipeOut|AutoCAD Express Tool|expresstools@autodesk.com
 90
    32895
280
     0
281
     1
  0
CLASS
  1
WIPEOUTVARIABLES
  2
AcDbWipeoutVariables
  3
WipeOut|AutoCAD Express Tool|expresstools@autodesk.com
 90
    32768
280
     0
281
     0
  0
CLASS
  1
RTEXT
  2
RText
  3
RText|AutoCAD Express Tool|expresstools@autodesk.com
 90
    32768
280
     0
281
     1
  0
CLASS
  1
ARCALIGNEDTEXT
  2
AcDbArcAlignedText
  3
ATEXT|AutoCAD Express Tool|expresstools@autodesk.com
 90
    32768
280
     0
281
     1
  0
ENDSEC
  0
SECTION
  2
TABLES
  0
TABLE
  2
VPORT
  5
6
100
AcDbSymbolTable
 70
     1
  0
VPORT
  5
1B
100
AcDbSymbolTableRecord
100
AcDbViewportTableRecord
  2
*ACTIVE
 70
     0
 10
0.0
 20
0.0
 11
1.0
 21
1.0
 12
0.0
 22
0.0
 13
0.0
 23
0.0
 14
1.0
 24
1.0
 15
0.0
 25
0.0
 16
0.0
 26
0.0
 36
1.0
 17
0.0
 27
0.0
 37
0.0
 40
594.0
 41
1.414141
 42
50.0
 43
0.0
 44
0.0
 50
0.0
 51
0.0
 71
     0
 72
   500
 73
     1
 74
     1
 75
     0
 76
     0
 77
     0
 78
     0
  0
ENDTAB
  0
TABLE
  2
LTYPE
  5
3
100
AcDbSymbolTable
 70
     9
  0
LTYPE
  5
C
100
AcDbSymbolTableRecord
100
AcDbLinetypeTableRecord
  2
BYBLOCK
 70
    64
  3

 72
    65
 73
     0
 40
0.0
  0
LTYPE
  5
D
100
AcDbSymbolTableRecord
100
AcDbLinetypeTableRecord
  2
BYLAYER
 70
    64
  3

 72
    65
 73
     0
 40
0.0
  0
LTYPE
  5
E
100
AcDbSymbolTableRecord
100
AcDbLinetypeTableRecord
  2
CONTINUOUS
 70
     0
  3
Solid line
 72
    65
 73
     0
 40
0.0
  0
LTYPE
  5
F
100
AcDbSymbolTableRecord
100
AcDbLinetypeTableRecord
  2
DASHED
 70
     0
  3
__ __ __ __ __ __ __ __ __ __ __ __ __ __ __
 72
    65
 73
     2
 40
2.0
 49
1.2
 74
     0
 49
-0.8
 74
     0
  0
LTYPE
  5
10
100
AcDbSymbolTableRecord
100
AcDbLinetypeTableRecord
  2
CENTER
 70
     0
  3
____ _ ____ _ ____ _ ____ _ ____ _ ____ _ ____
 72
    65
 73
     4
 40
12.0
 49
9.0
 74
     0
 49
-1.0
 74
     0
 49
1.0
 74
     0
 49
-1.0
 74
     0
  0
LTYPE
  5
11
100
AcDbSymbolTableRecord
100
AcDbLinetypeTableRecord
  2
HIDDEN
 70
     0
  3
_ _ _ _ _ _ _ _ _ _ _ _ _ _ _ _ _ _ _ _ _ _ _
 72
    65
 73
     2
 40
3.2
 49
2.4
 74
     0
 49
-0.8
 74
     0
  0
LTYPE
  5
12
100
AcDbSymbolTableRecord
100
AcDbLinetypeTableRecord
  2
PHANTOM
 70
     0
  3
_____ _ _ _____ _ _ _____ _ _ _____ _ _ _____
 72
    65
 73
     6
 40
13.5
 49
9.0
 74
     0
 49
-1.0
 74
     0
 49
1.0
 74
     0
 49
-0.5
 74
     0
 49
1.0
 74
     0
 49
-1.0
 74
     0
  0
LTYPE
  5
13
100
AcDbSymbolTableRecord
100
AcDbLinetypeTableRecord
  2
DOT
 70
     0
  3
...............................................
 72
    65
 73
     2
 40
1.0
 49
0.5
 74
     0
 49
-0.5
 74
     0
  0
LTYPE
  5
14
100
AcDbSymbolTableRecord
100
AcDbLinetypeTableRecord
  2
DASHDOT
 70
     0
  3
__ . __ . __ . __ . __ . __ . __ . __ . __ . __
 72
    65
 73
     4
 40
8.0
 49
5.0
 74
     0
 49
-1.0
 74
     0
 49
1.0
 74
     0
 49
-1.0
 74
     0
  0
ENDTAB
  0
TABLE
  2
LAYER
  5
1
100
AcDbSymbolTable
 70
     6
  0
LAYER
  5
15
100
AcDbSymbolTableRecord
100
AcDbLayerTableRecord
  2
0
 70
     0
 62
     7
  6
CONTINUOUS
  0
LAYER
  5
16
100
AcDbSymbolTableRecord
100
AcDbLayerTableRecord
  2
1
 70
     0
 62
     7
  6
CONTINUOUS
  0
LAYER
  5
17
100
AcDbSymbolTableRecord
100
AcDbLayerTableRecord
  2
2
 70
     0
 62
     7
  6
CONTINUOUS
  0
LAYER
  5
18
100
AcDbSymbolTableRecord
100
AcDbLayerTableRecord
  2
5
 70
     0
 62
     7
  6
CONTINUOUS
  0
LAYER
  5
19
100
AcDbSymbolTableRecord
100
AcDbLayerTableRecord
  2
18
 70
     0
 62
     7
  6
CONTINUOUS
  0
LAYER
  5
1A
100
AcDbSymbolTableRecord
100
AcDbLayerTableRecord
  2
20
 70
     0
 62
     7
  6
CONTINUOUS
  0
ENDTAB
  0
TABLE
  2
STYLE
  5
2
100
AcDbSymbolTable
 70
     1
  0
STYLE
  5
1D
100
AcDbSymbolTableRecord
100
AcDbTextStyleTableRecord
  2
STANDARD
 70
    64
 40
0.0
 41
1.0
 50
0.0
 71
     0
 42
1.0
  3
txt
  4
BIGFONT
  0
ENDTAB
  0
TABLE
  2
VIEW
  5
4
100
AcDbSymbolTable
 70
     0
  0
ENDTAB
  0
TABLE
  2
UCS
  5
5
100
AcDbSymbolTable
 70
     0
  0
ENDTAB
  0
TABLE
  2
APPID
  5
7
100
AcDbSymbolTable
 70
     1
  0
APPID
  5
1C
100
AcDbSymbolTableRecord
100
AcDbRegAppTableRecord
  2
ACAD
 70
     0
  0
ENDTAB
  0
TABLE
  2
DIMSTYLE
  5
8
100
AcDbSymbolTable
 70
     1
  0
DIMSTYLE
105
2E
100
AcDbSymbolTableRecord
100
AcDbDimStyleTableRecord
  2
STANDARD
 70
     0
  3

  4

  5

  6

  7

 40
2.0
 41
0.18
 42
0.0625
 43
0.38
 44
0.18
 45
0.0
 46
0.0
 47
0.0
 48
0.0
 71
     0
 72
     0
 73
     1
 74
     1
 75
     0
 76
     0
 77
     1
 78
     0
140
0.18
141
0.09
142
0.0
143
25.4
144
1.0
145
0.0
146
1.0
147
0.09
170
     0
171
     2
172
     0
173
     0
174
     0
175
     0
176
     0
177
     0
178
     0
270
     2
271
     4
272
     4
273
     2
274
     2
275
     0
280
     0
281
     0
282
     0
283
     1
284
     0
285
     0
286
     0
287
     3
288
     0
340
1D
  0
ENDTAB
  0
TABLE
  2
BLOCK_RECORD
  5
29
100
AcDbSymbolTable
 70
     9
  0
BLOCK_RECORD
  5
27
100
AcDbSymbolTableRecord
100
AcDbBlockTableRecord
  2
*MODEL_SPACE
  0
BLOCK_RECORD
  5
28
100
AcDbSymbolTableRecord
100
AcDbBlockTableRecord
  2
*PAPER_SPACE
  0
BLOCK_RECORD
  5
1E
100
AcDbSymbolTableRecord
100
AcDbBlockTableRecord
  2
*D0
  0
BLOCK_RECORD
  5
1F
100
AcDbSymbolTableRecord
100
AcDbBlockTableRecord
  2
*D1
  0
BLOCK_RECORD
  5
20
100
AcDbSymbolTableRecord
100
AcDbBlockTableRecord
  2
*D2
  0
BLOCK_RECORD
  5
21
100
AcDbSymbolTableRecord
100
AcDbBlockTableRecord
  2
*D3
  0
BLOCK_RECORD
  5
22
100
AcDbSymbolTableRecord
100
AcDbBlockTableRecord
  2
*D4
  0
BLOCK_RECORD
  5
23
100
AcDbSymbolTableRecord
100
AcDbBlockTableRecord
  2
*D5
  0
BLOCK_RECORD
  5
24
100
AcDbSymbolTableRecord
100
AcDbBlockTableRecord
  2
*D6
  0
BLOCK_RECORD
  5
25
100
AcDbSymbolTableRecord
100
AcDbBlockTableRecord
  2
*D7
  0
BLOCK_RECORD
  5
26
100
AcDbSymbolTableRecord
100
AcDbBlockTableRecord
  2
*D8
  0
ENDTAB
  0
ENDSEC
  0
SECTION
  2
BLOCKS
  0
BLOCK
  5
2A
100
AcDbEntity
  8
0
100
AcDbBlockBegin
  2
*MODEL_SPACE
 70
     0
 10
0.0
 20
0.0
 30
0.0
  3
*MODEL_SPACE
  1

  0
ENDBLK
  5
2B
100
AcDbEntity
  8
0
100
AcDbBlockEnd
  0
BLOCK
  5
2C
100
AcDbEntity
 67
     1
  8
0
100
AcDbBlockBegin
  2
*PAPER_SPACE
 70
     0
 10
0.0
 20
0.0
 30
0.0
  3
*PAPER_SPACE
  1

  0
ENDBLK
  5
2D
100
AcDbEntity
 67
     1
  8
0
100
AcDbBlockEnd
  0
BLOCK
  5
5D6
100
AcDbEntity
  8
5
100
AcDbBlockBegin
  2
*D0
 70
     1
 10
0.0
 20
0.0
 30
0.0
  3
*D0
  1

  0
TEXT
  5
5D7
100
AcDbEntity
  8
5
 62
     2
100
AcDbText
 10
-337.125122
 20
208.787236
 30
0.0
 40
6.6
  1
75
 50
90.0
 41
1.4
 72
     5
 11
-337.125122
 21
216.179236
 31
0.0
100
AcDbText
  0
LINE
  5
5D8
100
AcDbEntity
  8
5
 62
     2
100
AcDbLine
 10
-323.791931
 20
175.907236
 30
0.0
 11
-338.125122
 21
175.907236
 31
0.0
  0
LINE
  5
5D9
100
AcDbEntity
  8
5
 62
     2
100
AcDbLine
 10
-336.125122
 20
175.907236
 30
0.0
 11
-335.089846
 21
179.77094
 31
0.0
  0
LINE
  5
5DA
100
AcDbEntity
  8
5
 62
     2
100
AcDbLine
 10
-336.125122
 20
175.907236
 30
0.0
 11
-337.160398
 21
179.77094
 31
0.0
  0
LINE
  5
5DB
100
AcDbEntity
  8
5
 62
     2
100
AcDbLine
 10
-335.089846
 20
179.77094
 30
0.0
 11
-337.160398
 21
179.77094
 31
0.0
  0
LINE
  5
5DC
100
AcDbEntity
  8
5
 62
     2
100
AcDbLine
 10
-336.125122
 20
175.907236
 30
0.0
 11
-336.125122
 21
250.907236
 31
0.0
  0
LINE
  5
5DD
100
AcDbEntity
  8
5
 62
     2
100
AcDbLine
 10
-336.125122
 20
250.907236
 30
0.0
 11
-337.160398
 21
247.043533
 31
0.0
  0
LINE
  5
5DE
100
AcDbEntity
  8
5
 62
     2
100
AcDbLine
 10
-336.125122
 20
250.907236
 30
0.0
 11
-335.089846
 21
247.043533
 31
0.0
  0
LINE
  5
5DF
100
AcDbEntity
  8
5
 62
     2
100
AcDbLine
 10
-337.160398
 20
247.043533
 30
0.0
 11
-335.089846
 21
247.043533
 31
0.0
  0
LINE
  5
5E0
100
AcDbEntity
  8
5
 62
     2
100
AcDbLine
 10
-261.194112
 20
250.907236
 30
0.0
 11
-338.125122
 21
250.907236
 31
0.0
  0
ENDBLK
  5
5E1
100
AcDbEntity
  8
5
100
AcDbBlockEnd
  0
BLOCK
  5
5E2
100
AcDbEntity
  8
5
100
AcDbBlockBegin
  2
*D1
 70
     1
 10
0.0
 20
0.0
 30
0.0
  3
*D1
  1

  0
TEXT
  5
5E3
100
AcDbEntity
  8
5
 62
     2
100
AcDbText
 10
-337.125122
 20
146.287236
 30
0.0
 40
6.6
  1
50
 50
90.0
 41
1.4
 72
     5
 11
-337.125122
 21
153.679236
 31
0.0
100
AcDbText
  0
LINE
  5
5E4
100
AcDbEntity
  8
5
 62
     2
100
AcDbLine
 10
-246.194112
 20
125.907236
 30
0.0
 11
-338.125122
 21
125.907236
 31
0.0
  0
LINE
  5
5E5
100
AcDbEntity
  8
5
 62
     2
100
AcDbLine
 10
-336.125122
 20
125.907236
 30
0.0
 11
-335.089846
 21
129.77094
 31
0.0
  0
LINE
  5
5E6
100
AcDbEntity
  8
5
 62
     2
100
AcDbLine
 10
-336.125122
 20
125.907236
 30
0.0
 11
-337.160398
 21
129.77094
 31
0.0
  0
LINE
  5
5E7
100
AcDbEntity
  8
5
 62
     2
100
AcDbLine
 10
-335.089846
 20
129.77094
 30
0.0
 11
-337.160398
 21
129.77094
 31
0.0
  0
LINE
  5
5E8
100
AcDbEntity
  8
5
 62
     2
100
AcDbLine
 10
-336.125122
 20
125.907236
 30
0.0
 11
-336.125122
 21
175.907236
 31
0.0
  0
LINE
  5
5E9
100
AcDbEntity
  8
5
 62
     2
100
AcDbLine
 10
-336.125122
 20
175.907236
 30
0.0
 11
-337.160398
 21
172.043533
 31
0.0
  0
LINE
  5
5EA
100
AcDbEntity
  8
5
 62
     2
100
AcDbLine
 10
-336.125122
 20
175.907236
 30
0.0
 11
-335.089846
 21
172.043533
 31
0.0
  0
LINE
  5
5EB
100
AcDbEntity
  8
5
 62
     2
100
AcDbLine
 10
-337.160398
 20
172.043533
 30
0.0
 11
-335.089846
 21
172.043533
 31
0.0
  0
LINE
  5
5EC
100
AcDbEntity
  8
5
 62
     2
100
AcDbLine
 10
-323.791931
 20
175.907236
 30
0.0
 11
-338.125122
 21
175.907236
 31
0.0
  0
ENDBLK
  5
5ED
100
AcDbEntity
  8
5
100
AcDbBlockEnd
  0
BLOCK
  5
5EE
100
AcDbEntity
  8
5
100
AcDbBlockBegin
  2
*D2
 70
     1
 10
0.0
 20
0.0
 30
0.0
  3
*D2
  1

  0
TEXT
  5
5EF
100
AcDbEntity
  8
5
 62
     2
100
AcDbText
 10
-0.427005
 20
-69.065467
 30
0.0
 40
6.6
  1
125
 50
90.0
 41
1.4
 72
     5
 11
-0.427005
 21
-57.053467
 31
0.0
100
AcDbText
  0
LINE
  5
5F0
100
AcDbEntity
  8
5
 62
     2
100
AcDbLine
 10
35.753113
 20
-124.635467
 30
0.0
 11
-1.427005
 21
-124.635467
 31
0.0
  0
LINE
  5
5F1
100
AcDbEntity
  8
5
 62
     2
100
AcDbLine
 10
0.572995
 20
-124.635467
 30
0.0
 11
1.608271
 21
-120.771764
 31
0.0
  0
LINE
  5
5F2
100
AcDbEntity
  8
5
 62
     2
100
AcDbLine
 10
0.572995
 20
-124.635467
 30
0.0
 11
-0.462281
 21
-120.771764
 31
0.0
  0
LINE
  5
5F3
100
AcDbEntity
  8
5
 62
     2
100
AcDbLine
 10
1.608271
 20
-120.771764
 30
0.0
 11
-0.462281
 21
-120.771764
 31
0.0
  0
LINE
  5
5F4
100
AcDbEntity
  8
5
 62
     2
100
AcDbLine
 10
0.572995
 20
-124.635467
 30
0.0
 11
0.572995
 21
0.364533
 31
0.0
  0
LINE
  5
5F5
100
AcDbEntity
  8
5
 62
     2
100
AcDbLine
 10
0.572995
 20
0.364533
 30
0.0
 11
-0.462281
 21
-3.499171
 31
0.0
  0
LINE
  5
5F6
100
AcDbEntity
  8
5
 62
     2
100
AcDbLine
 10
0.572995
 20
0.364533
 30
0.0
 11
1.608271
 21
-3.499171
 31
0.0
  0
LINE
  5
5F7
100
AcDbEntity
  8
5
 62
     2
100
AcDbLine
 10
-0.462281
 20
-3.499171
 30
0.0
 11
1.608271
 21
-3.499171
 31
0.0
  0
LINE
  5
5F8
100
AcDbEntity
  8
5
 62
     2
100
AcDbLine
 10
24.968825
 20
0.364533
 30
0.0
 11
-1.427005
 21
0.364533
 31
0.0
  0
ENDBLK
  5
5F9
100
AcDbEntity
  8
5
100
AcDbBlockEnd
  0
BLOCK
  5
5FA
100
AcDbEntity
  8
5
100
AcDbBlockBegin
  2
*D3
 70
     1
 10
0.0
 20
0.0
 30
0.0
  3
*D3
  1

  0
TEXT
  5
5FB
100
AcDbEntity
  8
5
 62
     2
100
AcDbText
 10
-0.427005
 20
-194.065467
 30
0.0
 40
6.6
  1
125
 50
90.0
 41
1.4
 72
     5
 11
-0.427005
 21
-182.053467
 31
0.0
100
AcDbText
  0
LINE
  5
5FC
100
AcDbEntity
  8
5
 62
     2
100
AcDbLine
 10
55.968825
 20
-249.635467
 30
0.0
 11
-1.427005
 21
-249.635467
 31
0.0
  0
LINE
  5
5FD
100
AcDbEntity
  8
5
 62
     2
100
AcDbLine
 10
0.572995
 20
-249.635467
 30
0.0
 11
1.608271
 21
-245.771764
 31
0.0
  0
LINE
  5
5FE
100
AcDbEntity
  8
5
 62
     2
100
AcDbLine
 10
0.572995
 20
-249.635467
 30
0.0
 11
-0.462281
 21
-245.771764
 31
0.0
  0
LINE
  5
5FF
100
AcDbEntity
  8
5
 62
     2
100
AcDbLine
 10
1.608271
 20
-245.771764
 30
0.0
 11
-0.462281
 21
-245.771764
 31
0.0
  0
LINE
  5
600
100
AcDbEntity
  8
5
 62
     2
100
AcDbLine
 10
0.572995
 20
-249.635467
 30
0.0
 11
0.572995
 21
-124.635467
 31
0.0
  0
LINE
  5
601
100
AcDbEntity
  8
5
 62
     2
100
AcDbLine
 10
0.572995
 20
-124.635467
 30
0.0
 11
-0.462281
 21
-128.499171
 31
0.0
  0
LINE
  5
602
100
AcDbEntity
  8
5
 62
     2
100
AcDbLine
 10
0.572995
 20
-124.635467
 30
0.0
 11
1.608271
 21
-128.499171
 31
0.0
  0
LINE
  5
603
100
AcDbEntity
  8
5
 62
     2
100
AcDbLine
 10
-0.462281
 20
-128.499171
 30
0.0
 11
1.608271
 21
-128.499171
 31
0.0
  0
LINE
  5
604
100
AcDbEntity
  8
5
 62
     2
100
AcDbLine
 10
35.753113
 20
-124.635467
 30
0.0
 11
-1.427005
 21
-124.635467
 31
0.0
  0
ENDBLK
  5
605
100
AcDbEntity
  8
5
100
AcDbBlockEnd
  0
BLOCK
  5
606
100
AcDbEntity
  8
5
100
AcDbBlockBegin
  2
*D4
 70
     1
 10
0.0
 20
0.0
 30
0.0
  3
*D4
  1

  0
TEXT
  5
607
100
AcDbEntity
  8
5
 62
     2
100
AcDbText
 10
72.348825
 20
-267.566315
 30
0.0
 40
6.6
  1
46
 41
1.4
 72
     5
 11
79.740825
 21
-267.566315
 31
0.0
100
AcDbText
  0
LINE
  5
608
100
AcDbEntity
  8
5
 62
     2
100
AcDbLine
 10
53.968825
 20
-180.135467
 30
0.0
 11
53.968825
 21
-270.566315
 31
0.0
  0
LINE
  5
609
100
AcDbEntity
  8
5
 62
     2
100
AcDbLine
 10
53.968825
 20
-268.566315
 30
0.0
 11
57.832528
 21
-269.601591
 31
0.0
  0
LINE
  5
60A
100
AcDbEntity
  8
5
 62
     2
100
AcDbLine
 10
53.968825
 20
-268.566315
 30
0.0
 11
57.832528
 21
-267.531039
 31
0.0
  0
LINE
  5
60B
100
AcDbEntity
  8
5
 62
     2
100
AcDbLine
 10
57.832528
 20
-269.601591
 30
0.0
 11
57.832528
 21
-267.531039
 31
0.0
  0
LINE
  5
60C
100
AcDbEntity
  8
5
 62
     2
100
AcDbLine
 10
53.968825
 20
-268.566315
 30
0.0
 11
99.968825
 21
-268.566315
 31
0.0
  0
LINE
  5
60D
100
AcDbEntity
  8
5
 62
     2
100
AcDbLine
 10
99.968825
 20
-268.566315
 30
0.0
 11
96.105122
 21
-267.531039
 31
0.0
  0
LINE
  5
60E
100
AcDbEntity
  8
5
 62
     2
100
AcDbLine
 10
99.968825
 20
-268.566315
 30
0.0
 11
96.105122
 21
-269.601591
 31
0.0
  0
LINE
  5
60F
100
AcDbEntity
  8
5
 62
     2
100
AcDbLine
 10
96.105122
 20
-267.531039
 30
0.0
 11
96.105122
 21
-269.601591
 31
0.0
  0
LINE
  5
610
100
AcDbEntity
  8
5
 62
     2
100
AcDbLine
 10
99.968825
 20
-180.135467
 30
0.0
 11
99.968825
 21
-270.566315
 31
0.0
  0
ENDBLK
  5
611
100
AcDbEntity
  8
5
100
AcDbBlockEnd
  0
BLOCK
  5
612
100
AcDbEntity
  8
5
100
AcDbBlockBegin
  2
*D5
 70
     1
 10
0.0
 20
0.0
 30
0.0
  3
*D5
  1

  0
LINE
  5
613
100
AcDbEntity
  8
5
 62
     2
100
AcDbLine
 10
24.968825
 20
0.364533
 30
0.0
 11
-1.427005
 21
0.364533
 31
0.0
  0
LINE
  5
614
100
AcDbEntity
  8
5
 62
     2
100
AcDbLine
 10
0.572995
 20
0.364533
 30
0.0
 11
1.608271
 21
4.228236
 31
0.0
  0
LINE
  5
615
100
AcDbEntity
  8
5
 62
     2
100
AcDbLine
 10
0.572995
 20
0.364533
 30
0.0
 11
-0.462281
 21
4.228236
 31
0.0
  0
LINE
  5
616
100
AcDbEntity
  8
5
 62
     2
100
AcDbLine
 10
1.608271
 20
4.228236
 30
0.0
 11
-0.462281
 21
4.228236
 31
0.0
  0
LINE
  5
617
100
AcDbEntity
  8
5
 62
     2
100
AcDbLine
 10
0.572995
 20
0.364533
 30
0.0
 11
0.572995
 21
66.541907
 31
0.0
  0
LINE
  5
618
100
AcDbEntity
  8
5
 62
     2
100
AcDbLine
 10
0.572995
 20
66.541907
 30
0.0
 11
-0.462281
 21
62.678203
 31
0.0
  0
LINE
  5
619
100
AcDbEntity
  8
5
 62
     2
100
AcDbLine
 10
0.572995
 20
66.541907
 30
0.0
 11
1.608271
 21
62.678203
 31
0.0
  0
LINE
  5
61A
100
AcDbEntity
  8
5
 62
     2
100
AcDbLine
 10
-0.462281
 20
62.678203
 30
0.0
 11
1.608271
 21
62.678203
 31
0.0
  0
LINE
  5
61B
100
AcDbEntity
  8
5
 62
     2
100
AcDbLine
 10
74.968825
 20
66.541907
 30
0.0
 11
-1.427005
 21
66.541907
 31
0.0
  0
ENDBLK
  5
61C
100
AcDbEntity
  8
5
100
AcDbBlockEnd
  0
BLOCK
  5
61D
100
AcDbEntity
  8
5
100
AcDbBlockBegin
  2
*D6
 70
     1
 10
0.0
 20
0.0
 30
0.0
  3
*D6
  1

  0
LINE
  5
61E
100
AcDbEntity
  8
5
 62
     2
100
AcDbLine
 10
-244.194112
 20
49.437194
 30
0.0
 11
-244.194112
 21
85.863716
 31
0.0
  0
LINE
  5
61F
100
AcDbEntity
  8
5
 62
     2
100
AcDbLine
 10
-244.194112
 20
83.863716
 30
0.0
 11
-240.330409
 21
82.82844
 31
0.0
  0
LINE
  5
620
100
AcDbEntity
  8
5
 62
     2
100
AcDbLine
 10
-244.194112
 20
83.863716
 30
0.0
 11
-240.330409
 21
84.898992
 31
0.0
  0
LINE
  5
621
100
AcDbEntity
  8
5
 62
     2
100
AcDbLine
 10
-240.330409
 20
82.82844
 30
0.0
 11
-240.330409
 21
84.898992
 31
0.0
  0
LINE
  5
622
100
AcDbEntity
  8
5
 62
     2
100
AcDbLine
 10
-244.194112
 20
83.863716
 30
0.0
 11
-44.354505
 21
83.863716
 31
0.0
  0
LINE
  5
623
100
AcDbEntity
  8
5
 62
     2
100
AcDbLine
 10
-44.354505
 20
83.863716
 30
0.0
 11
-48.218209
 21
84.898992
 31
0.0
  0
LINE
  5
624
100
AcDbEntity
  8
5
 62
     2
100
AcDbLine
 10
-44.354505
 20
83.863716
 30
0.0
 11
-48.218209
 21
82.82844
 31
0.0
  0
LINE
  5
625
100
AcDbEntity
  8
5
 62
     2
100
AcDbLine
 10
-48.218209
 20
84.898992
 30
0.0
 11
-48.218209
 21
82.82844
 31
0.0
  0
LINE
  5
626
100
AcDbEntity
  8
5
 62
     2
100
AcDbLine
 10
-44.354505
 20
61.29276
 30
0.0
 11
-44.354505
 21
85.863716
 31
0.0
  0
ENDBLK
  5
627
100
AcDbEntity
  8
5
100
AcDbBlockEnd
  0
BLOCK
  5
628
100
AcDbEntity
  8
18
100
AcDbBlockBegin
  2
*D7
 70
     1
 10
0.0
 20
0.0
 30
0.0
  3
*D7
  1

  0
LINE
  5
629
100
AcDbEntity
  8
18
 62
     2
100
AcDbLine
 10
298.858932
 20
-172.226685
 30
0.0
 11
298.858932
 21
-172.226685
 31
0.0
  0
LINE
  5
62A
100
AcDbEntity
  8
18
 62
     2
100
AcDbLine
 10
274.420021
 20
-147.787773
 30
0.0
 11
274.420021
 21
-147.787773
 31
0.0
  0
LINE
  5
62B
100
AcDbEntity
  8
18
 62
     2
100
AcDbLine
 10
296.858932
 20
-172.226685
 30
0.0
 11
297.557724
 21
-168.288196
 31
0.0
  0
LINE
  5
62C
100
AcDbEntity
  8
18
 62
     2
100
AcDbLine
 10
296.858932
 20
-172.226685
 30
0.0
 11
295.494859
 21
-168.466458
 31
0.0
  0
LINE
  5
62D
100
AcDbEntity
  8
18
 62
     2
100
AcDbLine
 10
297.557724
 20
-168.288196
 30
0.0
 11
295.494859
 21
-168.466458
 31
0.0
  0
LINE
  5
62E
100
AcDbEntity
  8
18
 62
     2
100
AcDbLine
 10
274.420021
 20
-149.787773
 30
0.0
 11
278.180248
 21
-151.151846
 31
0.0
  0
LINE
  5
62F
100
AcDbEntity
  8
18
 62
     2
100
AcDbLine
 10
274.420021
 20
-149.787773
 30
0.0
 11
278.358509
 21
-149.088982
 31
0.0
  0
LINE
  5
630
100
AcDbEntity
  8
18
 62
     2
100
AcDbLine
 10
278.180248
 20
-151.151846
 30
0.0
 11
278.358509
 21
-149.088982
 31
0.0
  0
ARC
  5
631
100
AcDbEntity
  8
18
 62
     2
100
AcDbCircle
 10
274.420021
 20
-172.226685
 30
0.0
 40
22.438911
100
AcDbArc
 50
0.0
 51
90.0
  0
ENDBLK
  5
632
100
AcDbEntity
  8
18
100
AcDbBlockEnd
  0
BLOCK
  5
633
100
AcDbEntity
  8
18
100
AcDbBlockBegin
  2
*D8
 70
     1
 10
0.0
 20
0.0
 30
0.0
  3
*D8
  1

  0
LINE
  5
634
100
AcDbEntity
  8
18
 62
     2
100
AcDbLine
 10
325.08222
 20
-178.705208
 30
0.0
 11
325.08222
 21
-178.705208
 31
0.0
  0
LINE
  5
635
100
AcDbEntity
  8
18
 62
     2
100
AcDbLine
 10
345.521132
 20
-158.266296
 30
0.0
 11
345.521132
 21
-158.266296
 31
0.0
  0
LINE
  5
636
100
AcDbEntity
  8
18
 62
     2
100
AcDbLine
 10
325.08222
 20
-180.705208
 30
0.0
 11
329.020708
 21
-181.403999
 31
0.0
  0
LINE
  5
637
100
AcDbEntity
  8
18
 62
     2
100
AcDbLine
 10
325.08222
 20
-180.705208
 30
0.0
 11
328.842447
 21
-179.341135
 31
0.0
  0
LINE
  5
638
100
AcDbEntity
  8
18
 62
     2
100
AcDbLine
 10
329.020708
 20
-181.403999
 30
0.0
 11
328.842447
 21
-179.341135
 31
0.0
  0
LINE
  5
639
100
AcDbEntity
  8
18
 62
     2
100
AcDbLine
 10
347.521132
 20
-158.266296
 30
0.0
 11
346.157058
 21
-162.026523
 31
0.0
  0
LINE
  5
63A
100
AcDbEntity
  8
18
 62
     2
100
AcDbLine
 10
347.521132
 20
-158.266296
 30
0.0
 11
348.219923
 21
-162.204785
 31
0.0
  0
LINE
  5
63B
100
AcDbEntity
  8
18
 62
     2
100
AcDbLine
 10
346.157058
 20
-162.026523
 30
0.0
 11
348.219923
 21
-162.204785
 31
0.0
  0
ARC
  5
63C
100
AcDbEntity
  8
18
 62
     2
100
AcDbCircle
 10
325.08222
 20
-158.266296
 30
0.0
 40
22.438911
100
AcDbArc
 50
270.0
 51
360.0
  0
ENDBLK
  5
63D
100
AcDbEntity
  8
18
100
AcDbBlockEnd
  0
ENDSEC
  0
SECTION
  2
ENTITIES
  0
LINE
  5
2F
100
AcDbEntity
  8
1
  6
DASHED
100
AcDbLine
 10
-279.194112
 20
150.907236
 30
0.0
 11
-279.194112
 21
200.907236
 31
0.0
  0
LINE
  5
30
100
AcDbEntity
  8
1
  6
DASHED
100
AcDbLine
 10
-209.194112
 20
150.907236
 30
0.0
 11
-209.194112
 21
200.907236
 31
0.0
  0
LINE
  5
31
100
AcDbEntity
  8
1
  6
DASHED
100
AcDbLine
 10
-269.194112
 20
210.907236
 30
0.0
 11
-219.194112
 21
210.907236
 31
0.0
  0
LINE
  5
32
100
AcDbEntity
  8
1
  6
DASHED
100
AcDbLine
 10
-269.194112
 20
140.907236
 30
0.0
 11
-219.194112
 21
140.907236
 31
0.0
  0
ARC
  5
33
100
AcDbEntity
  8
1
  6
DASHED
100
AcDbCircle
 10
-219.194112
 20
200.907236
 30
0.0
 40
10.0
100
AcDbArc
 50
0.0
 51
90.0
  0
ARC
  5
34
100
AcDbEntity
  8
1
  6
DASHED
100
AcDbCircle
 10
-269.194112
 20
200.907236
 30
0.0
 40
10.0
100
AcDbArc
 50
90.0
 51
180.0
  0
ARC
  5
35
100
AcDbEntity
  8
1
  6
DASHED
100
AcDbCircle
 10
-269.194112
 20
150.907236
 30
0.0
 40
10.0
100
AcDbArc
 50
180.0
 51
270.0
  0
ARC
  5
36
100
AcDbEntity
  8
1
  6
DASHED
100
AcDbCircle
 10
-219.194112
 20
150.907236
 30
0.0
 40
10.0
100
AcDbArc
 50
270.0
 51
360.0
  0
CIRCLE
  5
37
100
AcDbEntity
  8
1
  6
DASHED
100
AcDbCircle
 10
-219.445375
 20
200.655974
 30
0.0
 40
4.5
  0
CIRCLE
  5
38
100
AcDbEntity
  8
1
  6
DASHED
100
AcDbCircle
 10
-268.94285
 20
200.655974
 30
0.0
 40
4.5
  0
CIRCLE
  5
39
100
AcDbEntity
  8
1
  6
DASHED
100
AcDbCircle
 10
-268.94285
 20
151.158499
 30
0.0
 40
4.5
  0
CIRCLE
  5
3A
100
AcDbEntity
  8
1
  6
DASHED
100
AcDbCircle
 10
-219.445375
 20
151.158499
 30
0.0
 40
4.5
  0
LINE
  5
3B
100
AcDbEntity
  8
1
  6
CENTER
 62
     2
100
AcDbLine
 10
-225.104139
 20
194.99721
 30
0.0
 11
-213.446233
 21
206.655115
 31
0.0
  0
ARC
  5
3C
100
AcDbEntity
  8
1
  6
CENTER
 62
     2
100
AcDbCircle
 10
-244.194112
 20
175.907236
 30
0.0
 40
35.0
100
AcDbArc
 50
31.716537
 51
58.561244
  0
LINE
  5
3D
100
AcDbEntity
  8
1
  6
CENTER
 62
     2
100
AcDbLine
 10
-263.284086
 20
194.99721
 30
0.0
 11
-274.941991
 21
206.655115
 31
0.0
  0
ARC
  5
3E
100
AcDbEntity
  8
1
  6
CENTER
 62
     2
100
AcDbCircle
 10
-244.194112
 20
175.907236
 30
0.0
 40
35.0
100
AcDbArc
 50
121.716537
 51
148.561244
  0
LINE
  5
3F
100
AcDbEntity
  8
1
  6
CENTER
 62
     2
100
AcDbLine
 10
-263.284086
 20
156.817263
 30
0.0
 11
-274.941991
 21
145.159357
 31
0.0
  0
ARC
  5
40
100
AcDbEntity
  8
1
  6
CENTER
 62
     2
100
AcDbCircle
 10
-244.194112
 20
175.907236
 30
0.0
 40
35.0
100
AcDbArc
 50
211.716537
 51
238.561244
  0
LINE
  5
41
100
AcDbEntity
  8
1
  6
CENTER
 62
     2
100
AcDbLine
 10
-225.104139
 20
156.817263
 30
0.0
 11
-213.446233
 21
145.159357
 31
0.0
  0
ARC
  5
42
100
AcDbEntity
  8
1
  6
CENTER
 62
     2
100
AcDbCircle
 10
-244.194112
 20
175.907236
 30
0.0
 40
35.0
100
AcDbArc
 50
301.716537
 51
328.561244
  0
LINE
  5
43
100
AcDbEntity
  8
1
100
AcDbLine
 10
-309.194112
 20
175.907236
 30
0.0
 11
-308.522069
 21
163.083877
 31
0.0
  0
LINE
  5
44
100
AcDbEntity
  8
1
100
AcDbLine
 10
-309.194112
 20
175.907236
 30
0.0
 11
-308.522069
 21
188.730596
 31
0.0
  0
LINE
  5
45
100
AcDbEntity
  8
1
100
AcDbLine
 10
-306.302637
 20
191.471365
 30
0.0
 11
-303.917655
 21
192.110419
 31
0.0
  0
LINE
  5
46
100
AcDbEntity
  8
1
100
AcDbLine
 10
-306.302637
 20
160.343107
 30
0.0
 11
-303.917655
 21
159.704053
 31
0.0
  0
ARC
  5
47
100
AcDbEntity
  8
1
100
AcDbCircle
 10
-305.52618
 20
188.573588
 30
0.0
 40
3.0
100
AcDbArc
 50
105.0
 51
177.0
  0
ARC
  5
48
100
AcDbEntity
  8
1
100
AcDbCircle
 10
-305.52618
 20
163.240885
 30
0.0
 40
3.0
100
AcDbArc
 50
183.0
 51
255.0
  0
ARC
  5
49
100
AcDbEntity
  8
1
100
AcDbCircle
 10
-304.694112
 20
195.008197
 30
0.0
 40
3.0
100
AcDbArc
 50
285.0
 51
360.0
  0
ARC
  5
4A
100
AcDbEntity
  8
1
100
AcDbCircle
 10
-304.694112
 20
156.806276
 30
0.0
 40
3.0
100
AcDbArc
 50
0.0
 51
75.0
  0
LINE
  5
4B
100
AcDbEntity
  8
1
100
AcDbLine
 10
-301.694112
 20
155.907236
 30
0.0
 11
-301.694112
 21
156.806276
 31
0.0
  0
LINE
  5
4C
100
AcDbEntity
  8
1
100
AcDbLine
 10
-301.694112
 20
195.008197
 30
0.0
 11
-301.694112
 21
195.907236
 31
0.0
  0
LINE
  5
4D
100
AcDbEntity
  8
1
100
AcDbLine
 10
-307.668517
 20
175.907236
 30
0.0
 11
-306.979951
 21
188.733652
 31
0.0
  0
LINE
  5
4E
100
AcDbEntity
  8
1
100
AcDbLine
 10
-307.668517
 20
175.907236
 30
0.0
 11
-306.979951
 21
163.08082
 31
0.0
  0
LINE
  5
4F
100
AcDbEntity
  8
1
100
AcDbLine
 10
-299.963728
 20
155.907236
 30
0.0
 11
-299.963728
 21
160.356761
 31
0.0
  0
LINE
  5
50
100
AcDbEntity
  8
1
100
AcDbLine
 10
-299.963728
 20
191.457712
 30
0.0
 11
-299.963728
 21
195.907236
 31
0.0
  0
LINE
  5
51
100
AcDbEntity
  8
1
100
AcDbLine
 10
-304.760722
 20
191.470611
 30
0.0
 11
-302.13922
 21
192.173041
 31
0.0
  0
LINE
  5
52
100
AcDbEntity
  8
1
100
AcDbLine
 10
-304.760722
 20
160.343861
 30
0.0
 11
-302.13922
 21
159.641432
 31
0.0
  0
ARC
  5
53
100
AcDbEntity
  8
1
100
AcDbCircle
 10
-303.984265
 20
188.572834
 30
0.0
 40
3.0
100
AcDbArc
 50
105.0
 51
176.927118
  0
ARC
  5
54
100
AcDbEntity
  8
1
100
AcDbCircle
 10
-303.984265
 20
163.241639
 30
0.0
 40
3.0
100
AcDbArc
 50
183.072882
 51
255.0
  0
ARC
  5
55
100
AcDbEntity
  8
1
100
AcDbCircle
 10
-302.898897
 20
195.008197
 30
0.0
 40
2.93517
100
AcDbArc
 50
285.0
 51
360.0
  0
ARC
  5
56
100
AcDbEntity
  8
1
100
AcDbCircle
 10
-302.898897
 20
156.806276
 30
0.0
 40
2.93517
100
AcDbArc
 50
0.0
 51
75.0
  0
LINE
  5
57
100
AcDbEntity
  8
1
  6
CENTER
 62
     2
100
AcDbLine
 10
-297.194112
 20
167.075699
 30
0.0
 11
-297.194112
 21
185.049545
 31
0.0
  0
LINE
  5
58
100
AcDbEntity
  8
1
  6
DASHED
100
AcDbLine
 10
-285.90742
 20
170.175977
 30
0.0
 11
-285.90742
 21
181.638496
 31
0.0
  0
LINE
  5
59
100
AcDbEntity
  8
1
  6
DASHED
100
AcDbLine
 10
-285.90742
 20
165.52455
 30
0.0
 11
-279.194112
 21
165.52455
 31
0.0
  0
ARC
  5
5A
100
AcDbEntity
  8
1
100
AcDbCircle
 10
-297.963728
 20
191.457712
 30
0.0
 40
2.0
100
AcDbArc
 50
180.0
 51
215.393619
  0
ARC
  5
5B
100
AcDbEntity
  8
1
100
AcDbCircle
 10
-297.963728
 20
160.356761
 30
0.0
 40
2.0
100
AcDbArc
 50
104.431611
 51
180.0
  0
ARC
  5
5C
100
AcDbEntity
  8
1
  6
DASHED
100
AcDbCircle
 10
-291.90742
 20
170.175977
 30
0.0
 40
6.0
100
AcDbArc
 50
284.431611
 51
0.0
  0
ARC
  5
5D
100
AcDbEntity
  8
1
  6
DASHED
100
AcDbCircle
 10
-291.90742
 20
181.638496
 30
0.0
 40
6.0
100
AcDbArc
 50
0.0
 51
52.635436
  0
LINE
  5
5E
100
AcDbEntity
  8
1
100
AcDbLine
 10
-299.594112
 20
188.407236
 30
0.0
 11
-299.594112
 21
190.407236
 31
0.0
  0
ARC
  5
5F
100
AcDbEntity
  8
1
100
AcDbCircle
 10
-297.594112
 20
188.407236
 30
0.0
 40
2.0
100
AcDbArc
 50
180.0
 51
270.0
  0
ARC
  5
60
100
AcDbEntity
  8
1
100
AcDbCircle
 10
-297.594112
 20
190.407236
 30
0.0
 40
2.0
100
AcDbArc
 50
90.0
 51
180.0
  0
LINE
  5
61
100
AcDbEntity
  8
1
  6
DASHED
100
AcDbLine
 10
-279.603907
 20
155.907236
 30
0.0
 11
-279.603907
 21
161.907236
 31
0.0
  0
LINE
  5
62
100
AcDbEntity
  8
1
  6
DASHED
100
AcDbLine
 10
-279.603907
 20
192.407236
 30
0.0
 11
-279.603907
 21
195.907236
 31
0.0
  0
LINE
  5
63
100
AcDbEntity
  8
1
  6
DASHED
100
AcDbLine
 10
-289.497495
 20
155.907236
 30
0.0
 11
-289.497495
 21
161.907236
 31
0.0
  0
LINE
  5
64
100
AcDbEntity
  8
1
  6
DASHED
100
AcDbLine
 10
-289.497495
 20
192.407236
 30
0.0
 11
-289.497495
 21
195.907236
 31
0.0
  0
ARC
  5
65
100
AcDbEntity
  8
1
  6
DASHED
100
AcDbCircle
 10
-282.377878
 20
135.351334
 30
0.0
 40
27.493724
100
AcDbArc
 50
90.0
 51
105.008019
  0
ARC
  5
66
100
AcDbEntity
  8
1
  6
DASHED
100
AcDbCircle
 10
-282.377878
 20
158.2736
 30
0.0
 40
4.571459
100
AcDbArc
 50
52.64135
 51
90.0
  0
LINE
  5
67
100
AcDbEntity
  8
1
  6
DASHED
100
AcDbLine
 10
-279.603907
 20
161.907236
 30
0.0
 11
-279.194112
 21
161.907236
 31
0.0
  0
LINE
  5
68
100
AcDbEntity
  8
1
  6
DASHED
100
AcDbLine
 10
-179.194112
 20
175.907236
 30
0.0
 11
-179.866156
 21
163.083877
 31
0.0
  0
LINE
  5
69
100
AcDbEntity
  8
1
  6
DASHED
100
AcDbLine
 10
-179.194112
 20
175.907236
 30
0.0
 11
-179.866156
 21
188.730596
 31
0.0
  0
LINE
  5
6A
100
AcDbEntity
  8
1
  6
DASHED
100
AcDbLine
 10
-186.694112
 20
155.907236
 30
0.0
 11
-209.194112
 21
155.907236
 31
0.0
  0
LINE
  5
6B
100
AcDbEntity
  8
1
100
AcDbLine
 10
-182.085588
 20
191.471365
 30
0.0
 11
-184.470569
 21
192.110419
 31
0.0
  0
LINE
  5
6C
100
AcDbEntity
  8
1
  6
DASHED
100
AcDbLine
 10
-182.085588
 20
160.343107
 30
0.0
 11
-184.470569
 21
159.704053
 31
0.0
  0
ARC
  5
6D
100
AcDbEntity
  8
1
  6
DASHED
100
AcDbCircle
 10
-182.862045
 20
163.240885
 30
0.0
 40
3.0
100
AcDbArc
 50
285.0
 51
357.0
  0
ARC
  5
6E
100
AcDbEntity
  8
1
100
AcDbCircle
 10
-183.694112
 20
195.008197
 30
0.0
 40
3.0
100
AcDbArc
 50
180.0
 51
255.0
  0
ARC
  5
6F
100
AcDbEntity
  8
1
  6
DASHED
100
AcDbCircle
 10
-183.694112
 20
156.806276
 30
0.0
 40
3.0
100
AcDbArc
 50
105.0
 51
180.0
  0
LINE
  5
70
100
AcDbEntity
  8
1
  6
DASHED
100
AcDbLine
 10
-186.694112
 20
155.907236
 30
0.0
 11
-186.694112
 21
156.806276
 31
0.0
  0
LINE
  5
71
100
AcDbEntity
  8
1
100
AcDbLine
 10
-186.694112
 20
195.008197
 30
0.0
 11
-186.694112
 21
195.907236
 31
0.0
  0
LINE
  5
72
100
AcDbEntity
  8
1
  6
DASHED
100
AcDbLine
 10
-180.719708
 20
175.907236
 30
0.0
 11
-181.408273
 21
188.733652
 31
0.0
  0
LINE
  5
73
100
AcDbEntity
  8
1
  6
DASHED
100
AcDbLine
 10
-180.719708
 20
175.907236
 30
0.0
 11
-181.408273
 21
163.08082
 31
0.0
  0
LINE
  5
74
100
AcDbEntity
  8
1
  6
DASHED
100
AcDbLine
 10
-188.424497
 20
155.907236
 30
0.0
 11
-188.424497
 21
160.356761
 31
0.0
  0
LINE
  5
75
100
AcDbEntity
  8
1
100
AcDbLine
 10
-183.627503
 20
191.470611
 30
0.0
 11
-186.249005
 21
192.173041
 31
0.0
  0
LINE
  5
76
100
AcDbEntity
  8
1
  6
DASHED
100
AcDbLine
 10
-183.627503
 20
160.343861
 30
0.0
 11
-186.249005
 21
159.641432
 31
0.0
  0
ARC
  5
77
100
AcDbEntity
  8
1
  6
DASHED
100
AcDbCircle
 10
-184.40396
 20
163.241639
 30
0.0
 40
3.0
100
AcDbArc
 50
285.0
 51
356.927118
  0
ARC
  5
78
100
AcDbEntity
  8
1
  6
DASHED
100
AcDbCircle
 10
-185.489327
 20
156.806276
 30
0.0
 40
2.93517
100
AcDbArc
 50
105.0
 51
180.0
  0
LINE
  5
79
100
AcDbEntity
  8
1
  6
CENTER
 62
     2
100
AcDbLine
 10
-191.194112
 20
167.075699
 30
0.0
 11
-191.194112
 21
185.049545
 31
0.0
  0
CIRCLE
  5
7A
100
AcDbEntity
  8
1
  6
DASHED
100
AcDbCircle
 10
-191.194112
 20
175.907236
 30
0.0
 40
5.0
  0
CIRCLE
  5
7B
100
AcDbEntity
  8
1
  6
DASHED
 62
     2
100
AcDbCircle
 10
-191.194112
 20
175.907236
 30
0.0
 40
4.188
  0
LINE
  5
7C
100
AcDbEntity
  8
1
  6
DASHED
100
AcDbLine
 10
-189.926048
 20
162.293652
 30
0.0
 11
-197.97615
 21
164.365302
 31
0.0
  0
LINE
  5
7D
100
AcDbEntity
  8
1
  6
DASHED
100
AcDbLine
 10
-202.480805
 20
170.175977
 30
0.0
 11
-202.480805
 21
181.638496
 31
0.0
  0
LINE
  5
7E
100
AcDbEntity
  8
1
  6
DASHED
100
AcDbLine
 10
-202.480805
 20
165.52455
 30
0.0
 11
-209.194112
 21
165.52455
 31
0.0
  0
ARC
  5
7F
100
AcDbEntity
  8
1
  6
DASHED
100
AcDbCircle
 10
-190.424497
 20
191.457712
 30
0.0
 40
2.0
100
AcDbArc
 50
324.606381
 51
0.0
  0
ARC
  5
80
100
AcDbEntity
  8
1
  6
DASHED
100
AcDbCircle
 10
-190.424497
 20
160.356761
 30
0.0
 40
2.0
100
AcDbArc
 50
0.0
 51
75.568389
  0
ARC
  5
81
100
AcDbEntity
  8
1
  6
DASHED
100
AcDbCircle
 10
-196.480805
 20
170.175977
 30
0.0
 40
6.0
100
AcDbArc
 50
180.0
 51
255.568389
  0
ARC
  5
82
100
AcDbEntity
  8
1
  6
DASHED
100
AcDbCircle
 10
-196.480805
 20
181.638496
 30
0.0
 40
6.0
100
AcDbArc
 50
127.364564
 51
180.0
  0
LINE
  5
83
100
AcDbEntity
  8
1
  6
DASHED
100
AcDbLine
 10
-190.794112
 20
192.407236
 30
0.0
 11
-209.194112
 21
192.407236
 31
0.0
  0
LINE
  5
84
100
AcDbEntity
  8
1
  6
DASHED
100
AcDbLine
 10
-190.794112
 20
186.407236
 30
0.0
 11
-209.194112
 21
186.407236
 31
0.0
  0
LINE
  5
85
100
AcDbEntity
  8
1
  6
DASHED
100
AcDbLine
 10
-188.794112
 20
188.407236
 30
0.0
 11
-188.794112
 21
190.407236
 31
0.0
  0
ARC
  5
86
100
AcDbEntity
  8
1
  6
DASHED
100
AcDbCircle
 10
-190.794112
 20
188.407236
 30
0.0
 40
2.0
100
AcDbArc
 50
270.0
 51
360.0
  0
ARC
  5
87
100
AcDbEntity
  8
1
  6
DASHED
100
AcDbCircle
 10
-190.794112
 20
190.407236
 30
0.0
 40
2.0
100
AcDbArc
 50
0.0
 51
90.0
  0
LINE
  5
88
100
AcDbEntity
  8
1
  6
DASHED
100
AcDbLine
 10
-208.784318
 20
155.907236
 30
0.0
 11
-208.784318
 21
161.907236
 31
0.0
  0
LINE
  5
89
100
AcDbEntity
  8
1
  6
DASHED
100
AcDbLine
 10
-208.784318
 20
192.407236
 30
0.0
 11
-208.784318
 21
195.907236
 31
0.0
  0
LINE
  5
8A
100
AcDbEntity
  8
1
  6
DASHED
100
AcDbLine
 10
-198.89073
 20
155.907236
 30
0.0
 11
-198.89073
 21
161.907236
 31
0.0
  0
LINE
  5
8B
100
AcDbEntity
  8
1
  6
DASHED
100
AcDbLine
 10
-198.89073
 20
192.407236
 30
0.0
 11
-198.89073
 21
195.907236
 31
0.0
  0
ARC
  5
8C
100
AcDbEntity
  8
1
  6
DASHED
100
AcDbCircle
 10
-206.010346
 20
135.351334
 30
0.0
 40
27.493724
100
AcDbArc
 50
74.991981
 51
90.0
  0
ARC
  5
8D
100
AcDbEntity
  8
1
  6
DASHED
100
AcDbCircle
 10
-206.010346
 20
158.2736
 30
0.0
 40
4.571459
100
AcDbArc
 50
90.0
 51
127.35865
  0
LINE
  5
8E
100
AcDbEntity
  8
1
  6
DASHED
100
AcDbLine
 10
-189.926048
 20
161.907236
 30
0.0
 11
-198.89073
 21
161.907236
 31
0.0
  0
LINE
  5
8F
100
AcDbEntity
  8
1
  6
DASHED
100
AcDbLine
 10
-208.784318
 20
161.907236
 30
0.0
 11
-209.194112
 21
161.907236
 31
0.0
  0
LINE
  5
90
100
AcDbEntity
  8
1
  6
DASHED
100
AcDbLine
 10
-190.694112
 20
152.907236
 30
0.0
 11
-190.694112
 21
155.907236
 31
0.0
  0
LINE
  5
91
100
AcDbEntity
  8
1
100
AcDbLine
 10
-190.694112
 20
195.907236
 30
0.0
 11
-190.694112
 21
198.907236
 31
0.0
  0
LINE
  5
92
100
AcDbEntity
  8
1
100
AcDbLine
 10
-297.694112
 20
152.907236
 30
0.0
 11
-297.694112
 21
155.907236
 31
0.0
  0
LINE
  5
93
100
AcDbEntity
  8
1
100
AcDbLine
 10
-297.694112
 20
195.907236
 30
0.0
 11
-297.694112
 21
198.907236
 31
0.0
  0
LINE
  5
94
100
AcDbEntity
  8
1
  6
DASHED
100
AcDbLine
 10
-209.194112
 20
198.907236
 30
0.0
 11
-190.694112
 21
198.907236
 31
0.0
  0
LINE
  5
95
100
AcDbEntity
  8
1
  6
DASHED
100
AcDbLine
 10
-209.194112
 20
152.907236
 30
0.0
 11
-190.694112
 21
152.907236
 31
0.0
  0
LINE
  5
96
100
AcDbEntity
  8
1
100
AcDbLine
 10
-297.694112
 20
198.907236
 30
0.0
 11
-288.590058
 21
198.907236
 31
0.0
  0
LINE
  5
97
100
AcDbEntity
  8
1
  6
DASHED
100
AcDbLine
 10
-288.590058
 20
198.907236
 30
0.0
 11
-279.194112
 21
198.907236
 31
0.0
  0
LINE
  5
98
100
AcDbEntity
  8
1
100
AcDbLine
 10
-301.694112
 20
195.907236
 30
0.0
 11
-290.019869
 21
195.907236
 31
0.0
  0
LINE
  5
99
100
AcDbEntity
  8
1
  6
DASHED
100
AcDbLine
 10
-290.019869
 20
195.907236
 30
0.0
 11
-279.194112
 21
195.907236
 31
0.0
  0
LINE
  5
9A
100
AcDbEntity
  8
1
100
AcDbLine
 10
-297.594112
 20
192.407236
 30
0.0
 11
-291.393159
 21
192.407236
 31
0.0
  0
LINE
  5
9B
100
AcDbEntity
  8
1
  6
DASHED
100
AcDbLine
 10
-291.393159
 20
192.407236
 30
0.0
 11
-279.194112
 21
192.407236
 31
0.0
  0
LINE
  5
9C
100
AcDbEntity
  8
1
100
AcDbLine
 10
-297.594112
 20
186.407236
 30
0.0
 11
-293.079182
 21
186.407236
 31
0.0
  0
LINE
  5
9D
100
AcDbEntity
  8
1
  6
DASHED
100
AcDbLine
 10
-293.079182
 20
186.407236
 30
0.0
 11
-279.194112
 21
186.407236
 31
0.0
  0
LINE
  5
9E
100
AcDbEntity
  8
1
100
AcDbLine
 10
-298.462176
 20
162.293652
 30
0.0
 11
-292.700237
 21
163.776456
 31
0.0
  0
LINE
  5
9F
100
AcDbEntity
  8
1
  6
DASHED
100
AcDbLine
 10
-292.700237
 20
163.776456
 30
0.0
 11
-290.412074
 21
164.365302
 31
0.0
  0
LINE
  5
A0
100
AcDbEntity
  8
1
100
AcDbLine
 10
-298.462176
 20
161.907236
 30
0.0
 11
-292.194112
 21
161.907236
 31
0.0
  0
LINE
  5
A1
100
AcDbEntity
  8
1
  6
DASHED
100
AcDbLine
 10
-292.194112
 20
161.907236
 30
0.0
 11
-289.497495
 21
161.907236
 31
0.0
  0
LINE
  5
A2
100
AcDbEntity
  8
1
100
AcDbLine
 10
-301.694112
 20
155.907236
 30
0.0
 11
-290.019869
 21
155.907236
 31
0.0
  0
LINE
  5
A3
100
AcDbEntity
  8
1
  6
DASHED
100
AcDbLine
 10
-290.019869
 20
155.907236
 30
0.0
 11
-279.194112
 21
155.907236
 31
0.0
  0
LINE
  5
A4
100
AcDbEntity
  8
1
100
AcDbLine
 10
-297.694112
 20
152.907236
 30
0.0
 11
-288.590058
 21
152.907236
 31
0.0
  0
LINE
  5
A5
100
AcDbEntity
  8
1
  6
DASHED
100
AcDbLine
 10
-288.590058
 20
152.907236
 30
0.0
 11
-279.194112
 21
152.907236
 31
0.0
  0
ARC
  5
A6
100
AcDbEntity
  8
1
  6
DASHED
 62
     2
100
AcDbCircle
 10
-297.194112
 20
175.907236
 30
0.0
 40
4.188
100
AcDbArc
 50
317.355255
 51
42.644745
  0
ARC
  5
A7
100
AcDbEntity
  8
1
 62
     2
100
AcDbCircle
 10
-297.194112
 20
175.907236
 30
0.0
 40
4.188
100
AcDbArc
 50
42.644745
 51
317.355255
  0
ARC
  5
A8
100
AcDbEntity
  8
1
  6
DASHED
100
AcDbCircle
 10
-297.194112
 20
175.907236
 30
0.0
 40
5.0
100
AcDbArc
 50
309.064044
 51
50.935956
  0
ARC
  5
A9
100
AcDbEntity
  8
1
100
AcDbCircle
 10
-297.194112
 20
175.907236
 30
0.0
 40
5.0
100
AcDbArc
 50
50.935956
 51
309.064044
  0
ARC
  5
AA
100
AcDbEntity
  8
1
  6
DASHED
100
AcDbCircle
 10
-182.862045
 20
188.573588
 30
0.0
 40
3.0
100
AcDbArc
 50
3.0
 51
15.632424
  0
ARC
  5
AB
100
AcDbEntity
  8
1
100
AcDbCircle
 10
-182.862045
 20
188.573588
 30
0.0
 40
3.0
100
AcDbArc
 50
15.632424
 51
75.0
  0
ARC
  5
AC
100
AcDbEntity
  8
1
  6
DASHED
100
AcDbCircle
 10
-184.40396
 20
188.572834
 30
0.0
 40
3.0
100
AcDbArc
 50
3.072882
 51
16.382178
  0
ARC
  5
AD
100
AcDbEntity
  8
1
100
AcDbCircle
 10
-184.40396
 20
188.572834
 30
0.0
 40
3.0
100
AcDbArc
 50
16.382178
 51
75.0
  0
LINE
  5
AE
100
AcDbEntity
  8
1
100
AcDbLine
 10
-186.694112
 20
195.907236
 30
0.0
 11
-193.936215
 21
195.907236
 31
0.0
  0
LINE
  5
AF
100
AcDbEntity
  8
1
  6
DASHED
100
AcDbLine
 10
-193.936215
 20
195.907236
 30
0.0
 11
-209.194112
 21
195.907236
 31
0.0
  0
LINE
  5
B0
100
AcDbEntity
  8
1
  6
DASHED
100
AcDbLine
 10
-188.424497
 20
191.457712
 30
0.0
 11
-188.424497
 21
192.698778
 31
0.0
  0
LINE
  5
B1
100
AcDbEntity
  8
1
100
AcDbLine
 10
-188.424497
 20
192.698778
 30
0.0
 11
-188.424497
 21
195.907236
 31
0.0
  0
ARC
  5
B2
100
AcDbEntity
  8
1
100
AcDbCircle
 10
-185.489327
 20
195.008197
 30
0.0
 40
2.93517
100
AcDbArc
 50
180.0
 51
233.56585
  0
ARC
  5
B3
100
AcDbEntity
  8
1
  6
DASHED
100
AcDbCircle
 10
-185.489327
 20
195.008197
 30
0.0
 40
2.93517
100
AcDbArc
 50
233.56585
 51
250.702932
  0
ARC
  5
B4
100
AcDbEntity
  8
1
100
AcDbCircle
 10
-185.489327
 20
195.008197
 30
0.0
 40
2.93517
100
AcDbArc
 50
250.702932
 51
255.0
  0
LINE
  5
B5
100
AcDbEntity
  8
1
100
AcDbLine
 10
45.968825
 20
-11.635467
 30
0.0
 11
107.968825
 21
-11.635467
 31
0.0
  0
LINE
  5
B6
100
AcDbEntity
  8
1
100
AcDbLine
 10
41.968825
 20
0.364533
 30
0.0
 11
41.968825
 21
-7.635467
 31
0.0
  0
LINE
  5
B7
100
AcDbEntity
  8
1
100
AcDbLine
 10
111.968825
 20
0.364533
 30
0.0
 11
111.968825
 21
-7.635467
 31
0.0
  0
ARC
  5
B8
100
AcDbEntity
  8
1
100
AcDbCircle
 10
45.968825
 20
-7.635467
 30
0.0
 40
4.0
100
AcDbArc
 50
180.0
 51
270.0
  0
ARC
  5
B9
100
AcDbEntity
  8
1
100
AcDbCircle
 10
107.968825
 20
-7.635467
 30
0.0
 40
4.0
100
AcDbArc
 50
270.0
 51
360.0
  0
ARC
  5
BA
100
AcDbEntity
  8
1
100
AcDbCircle
 10
74.825968
 20
-27.878324
 30
0.0
 40
2.857143
100
AcDbArc
 50
180.0
 51
270.0
  0
ARC
  5
BB
100
AcDbEntity
  8
1
100
AcDbCircle
 10
77.411682
 20
-24.89261
 30
0.0
 40
2.857143
100
AcDbArc
 50
0.0
 51
90.0
  0
ARC
  5
BC
100
AcDbEntity
  8
1
100
AcDbCircle
 10
74.797396
 20
-26.164039
 30
0.0
 40
1.428571
100
AcDbArc
 50
90.0
 51
180.0
  0
ARC
  5
BD
100
AcDbEntity
  8
1
100
AcDbCircle
 10
77.440253
 20
-26.606896
 30
0.0
 40
1.428571
100
AcDbArc
 50
270.0
 51
0.0
  0
LINE
  5
BE
100
AcDbEntity
  8
1
100
AcDbLine
 10
78.868825
 20
-34.135467
 30
0.0
 11
71.968825
 21
-33.835467
 31
0.0
  0
LINE
  5
BF
100
AcDbEntity
  8
1
100
AcDbLine
 10
78.868825
 20
-38.835467
 30
0.0
 11
71.968825
 21
-39.135467
 31
0.0
  0
LINE
  5
C0
100
AcDbEntity
  8
1
100
AcDbLine
 10
78.868825
 20
-34.135467
 30
0.0
 11
71.968825
 21
-35.421182
 31
0.0
  0
LINE
  5
C1
100
AcDbEntity
  8
1
100
AcDbLine
 10
75.297396
 20
-36.485467
 30
0.0
 11
80.268825
 21
-37.41182
 31
0.0
  0
LINE
  5
C2
100
AcDbEntity
  8
1
100
AcDbLine
 10
80.268825
 20
-31.735467
 30
0.0
 11
80.268825
 21
-35.559114
 31
0.0
  0
LINE
  5
C3
100
AcDbEntity
  8
1
100
AcDbLine
 10
71.968825
 20
-35.421182
 30
0.0
 11
71.968825
 21
-37.549753
 31
0.0
  0
ARC
  5
C4
100
AcDbEntity
  8
1
100
AcDbCircle
 10
74.825968
 20
-48.078324
 30
0.0
 40
2.857143
100
AcDbArc
 50
180.0
 51
270.0
  0
ARC
  5
C5
100
AcDbEntity
  8
1
100
AcDbCircle
 10
74.797396
 20
-46.806896
 30
0.0
 40
1.428571
100
AcDbArc
 50
180.0
 51
270.0
  0
LINE
  5
C6
100
AcDbEntity
  8
1
100
AcDbLine
 10
77.440253
 20
-44.935467
 30
0.0
 11
74.797396
 21
-44.935467
 31
0.0
  0
ARC
  5
C7
100
AcDbEntity
  8
1
100
AcDbCircle
 10
77.411682
 20
-45.09261
 30
0.0
 40
2.857143
100
AcDbArc
 50
0.0
 51
90.0
  0
LINE
  5
C8
100
AcDbEntity
  8
1
100
AcDbLine
 10
77.411682
 20
-42.235467
 30
0.0
 11
74.825968
 21
-42.235467
 31
0.0
  0
LINE
  5
C9
100
AcDbEntity
  8
1
100
AcDbLine
 10
71.968825
 20
-39.135467
 30
0.0
 11
71.968825
 21
-41.835467
 31
0.0
  0
LINE
  5
CA
100
AcDbEntity
  8
1
100
AcDbLine
 10
72.168825
 20
-51.635467
 30
0.0
 11
72.168825
 21
-58.135467
 31
0.0
  0
LINE
  5
CB
100
AcDbEntity
  8
1
100
AcDbLine
 10
75.368825
 20
-54.335467
 30
0.0
 11
75.368825
 21
-58.135467
 31
0.0
  0
LINE
  5
CC
100
AcDbEntity
  8
1
100
AcDbLine
 10
76.868825
 20
-54.335467
 30
0.0
 11
76.868825
 21
-58.135467
 31
0.0
  0
LINE
  5
CD
100
AcDbEntity
  8
1
100
AcDbLine
 10
73.668825
 20
-54.335467
 30
0.0
 11
75.368825
 21
-54.335467
 31
0.0
  0
LINE
  5
CE
100
AcDbEntity
  8
1
100
AcDbLine
 10
76.868825
 20
-54.335467
 30
0.0
 11
78.568825
 21
-54.335467
 31
0.0
  0
LINE
  5
CF
100
AcDbEntity
  8
1
100
AcDbLine
 10
78.568825
 20
-18.635467
 30
0.0
 11
78.568825
 21
-21.335467
 31
0.0
  0
LINE
  5
D0
100
AcDbEntity
  8
1
100
AcDbLine
 10
76.868825
 20
-15.135467
 30
0.0
 11
81.968825
 21
-25.635467
 31
0.0
  0
LINE
  5
D1
100
AcDbEntity
  8
1
100
AcDbLine
 10
76.868825
 20
-15.135467
 30
0.0
 11
81.968825
 21
-15.135467
 31
0.0
  0
LINE
  5
D2
100
AcDbEntity
  8
1
100
AcDbLine
 10
78.568825
 20
-21.335467
 30
0.0
 11
71.968825
 21
-21.335467
 31
0.0
  0
LINE
  5
D3
100
AcDbEntity
  8
1
100
AcDbLine
 10
77.411682
 20
-22.035467
 30
0.0
 11
74.825968
 21
-22.035467
 31
0.0
  0
LINE
  5
D4
100
AcDbEntity
  8
1
100
AcDbLine
 10
77.411682
 20
-30.735467
 30
0.0
 11
74.825968
 21
-30.735467
 31
0.0
  0
LINE
  5
D5
100
AcDbEntity
  8
1
100
AcDbLine
 10
77.440253
 20
-24.735467
 30
0.0
 11
74.797396
 21
-24.735467
 31
0.0
  0
LINE
  5
D6
100
AcDbEntity
  8
1
100
AcDbLine
 10
77.440253
 20
-28.035467
 30
0.0
 11
74.797396
 21
-28.035467
 31
0.0
  0
ARC
  5
D7
100
AcDbEntity
  8
1
100
AcDbCircle
 10
74.825968
 20
-24.89261
 30
0.0
 40
2.857143
100
AcDbArc
 50
90.0
 51
180.0
  0
ARC
  5
D8
100
AcDbEntity
  8
1
100
AcDbCircle
 10
77.411682
 20
-27.878324
 30
0.0
 40
2.857143
100
AcDbArc
 50
270.0
 51
360.0
  0
ARC
  5
D9
100
AcDbEntity
  8
1
100
AcDbCircle
 10
74.797396
 20
-26.606896
 30
0.0
 40
1.428571
100
AcDbArc
 50
180.0
 51
270.0
  0
ARC
  5
DA
100
AcDbEntity
  8
1
100
AcDbCircle
 10
77.440253
 20
-26.164039
 30
0.0
 40
1.428571
100
AcDbArc
 50
360.0
 51
90.0
  0
LINE
  5
DB
100
AcDbEntity
  8
1
100
AcDbLine
 10
71.968825
 20
-18.635467
 30
0.0
 11
71.968825
 21
-21.335467
 31
0.0
  0
LINE
  5
DC
100
AcDbEntity
  8
1
100
AcDbLine
 10
80.268825
 20
-31.735467
 30
0.0
 11
71.968825
 21
-31.135467
 31
0.0
  0
LINE
  5
DD
100
AcDbEntity
  8
1
100
AcDbLine
 10
80.268825
 20
-41.235467
 30
0.0
 11
71.968825
 21
-41.835467
 31
0.0
  0
LINE
  5
DE
100
AcDbEntity
  8
1
100
AcDbLine
 10
78.868825
 20
-38.835467
 30
0.0
 11
71.968825
 21
-37.549753
 31
0.0
  0
LINE
  5
DF
100
AcDbEntity
  8
1
100
AcDbLine
 10
75.297396
 20
-36.485467
 30
0.0
 11
80.268825
 21
-35.559114
 31
0.0
  0
LINE
  5
E0
100
AcDbEntity
  8
1
100
AcDbLine
 10
80.268825
 20
-24.89261
 30
0.0
 11
80.268825
 21
-27.878324
 31
0.0
  0
LINE
  5
E1
100
AcDbEntity
  8
1
100
AcDbLine
 10
71.968825
 20
-24.89261
 30
0.0
 11
71.968825
 21
-27.878324
 31
0.0
  0
LINE
  5
E2
100
AcDbEntity
  8
1
100
AcDbLine
 10
71.968825
 20
-31.135467
 30
0.0
 11
71.968825
 21
-33.835467
 31
0.0
  0
ARC
  5
E3
100
AcDbEntity
  8
1
100
AcDbCircle
 10
74.825968
 20
-45.09261
 30
0.0
 40
2.857143
100
AcDbArc
 50
90.0
 51
180.0
  0
LINE
  5
E4
100
AcDbEntity
  8
1
100
AcDbLine
 10
77.440253
 20
-48.235467
 30
0.0
 11
74.797396
 21
-48.235467
 31
0.0
  0
ARC
  5
E5
100
AcDbEntity
  8
1
100
AcDbCircle
 10
74.797396
 20
-46.364039
 30
0.0
 40
1.428571
100
AcDbArc
 50
90.0
 51
180.0
  0
ARC
  5
E6
100
AcDbEntity
  8
1
100
AcDbCircle
 10
77.440253
 20
-46.806896
 30
0.0
 40
1.428571
100
AcDbArc
 50
270.0
 51
360.0
  0
ARC
  5
E7
100
AcDbEntity
  8
1
100
AcDbCircle
 10
77.440253
 20
-46.364039
 30
0.0
 40
1.428571
100
AcDbArc
 50
0.0
 51
90.0
  0
ARC
  5
E8
100
AcDbEntity
  8
1
100
AcDbCircle
 10
77.411682
 20
-48.078324
 30
0.0
 40
2.857143
100
AcDbArc
 50
270.0
 51
360.0
  0
LINE
  5
E9
100
AcDbEntity
  8
1
100
AcDbLine
 10
77.411682
 20
-50.935467
 30
0.0
 11
74.825968
 21
-50.935467
 31
0.0
  0
LINE
  5
EA
100
AcDbEntity
  8
1
100
AcDbLine
 10
78.868825
 20
-26.606896
 30
0.0
 11
78.868825
 21
-26.164039
 31
0.0
  0
LINE
  5
EB
100
AcDbEntity
  8
1
100
AcDbLine
 10
73.368825
 20
-26.606896
 30
0.0
 11
73.368825
 21
-26.164039
 31
0.0
  0
LINE
  5
EC
100
AcDbEntity
  8
1
100
AcDbLine
 10
78.868825
 20
-46.364039
 30
0.0
 11
78.868825
 21
-46.806896
 31
0.0
  0
LINE
  5
ED
100
AcDbEntity
  8
1
100
AcDbLine
 10
80.268825
 20
-37.41182
 30
0.0
 11
80.268825
 21
-41.235467
 31
0.0
  0
LINE
  5
EE
100
AcDbEntity
  8
1
100
AcDbLine
 10
80.268825
 20
-45.09261
 30
0.0
 11
80.268825
 21
-48.078324
 31
0.0
  0
LINE
  5
EF
100
AcDbEntity
  8
1
100
AcDbLine
 10
71.968825
 20
-45.09261
 30
0.0
 11
71.968825
 21
-48.078324
 31
0.0
  0
LINE
  5
F0
100
AcDbEntity
  8
1
100
AcDbLine
 10
80.068825
 20
-51.635467
 30
0.0
 11
72.168825
 21
-51.635467
 31
0.0
  0
LINE
  5
F1
100
AcDbEntity
  8
1
100
AcDbLine
 10
80.068825
 20
-51.635467
 30
0.0
 11
80.068825
 21
-58.135467
 31
0.0
  0
LINE
  5
F2
100
AcDbEntity
  8
1
100
AcDbLine
 10
73.668825
 20
-54.335467
 30
0.0
 11
73.668825
 21
-58.135467
 31
0.0
  0
LINE
  5
F3
100
AcDbEntity
  8
1
100
AcDbLine
 10
78.568825
 20
-54.335467
 30
0.0
 11
78.568825
 21
-58.135467
 31
0.0
  0
LINE
  5
F4
100
AcDbEntity
  8
1
100
AcDbLine
 10
78.568825
 20
-58.135467
 30
0.0
 11
80.068825
 21
-58.135467
 31
0.0
  0
LINE
  5
F5
100
AcDbEntity
  8
1
100
AcDbLine
 10
72.168825
 20
-58.135467
 30
0.0
 11
73.668825
 21
-58.135467
 31
0.0
  0
LINE
  5
F6
100
AcDbEntity
  8
1
100
AcDbLine
 10
75.368825
 20
-58.135467
 30
0.0
 11
76.868825
 21
-58.135467
 31
0.0
  0
LINE
  5
F7
100
AcDbEntity
  8
1
100
AcDbLine
 10
78.568825
 20
-18.635467
 30
0.0
 11
71.968825
 21
-18.635467
 31
0.0
  0
LINE
  5
F8
100
AcDbEntity
  8
1
100
AcDbLine
 10
81.968825
 20
-15.135467
 30
0.0
 11
81.968825
 21
-25.635467
 31
0.0
  0
LINE
  5
F9
100
AcDbEntity
  8
1
100
AcDbLine
 10
73.368825
 20
-46.364039
 30
0.0
 11
73.368825
 21
-46.806896
 31
0.0
  0
LINE
  5
FA
100
AcDbEntity
  8
1
  6
CENTER
 62
     2
100
AcDbLine
 10
37.753113
 20
-124.635467
 30
0.0
 11
114.223709
 21
-124.635467
 31
0.0
  0
LINE
  5
FB
100
AcDbEntity
  8
1
  6
CENTER
 62
     2
100
AcDbLine
 10
101.717562
 20
8.731749
 30
0.0
 11
101.717562
 21
-17.658738
 31
0.0
  0
LINE
  5
FC
100
AcDbEntity
  8
1
  6
CENTER
 62
     2
100
AcDbLine
 10
52.220088
 20
8.731749
 30
0.0
 11
52.220088
 21
-17.658738
 31
0.0
  0
LINE
  5
FD
100
AcDbEntity
  8
1
100
AcDbLine
 10
57.968825
 20
-249.635467
 30
0.0
 11
95.968825
 21
-249.635467
 31
0.0
  0
LINE
  5
FE
100
AcDbEntity
  8
1
100
AcDbLine
 10
56.968825
 20
-67.135467
 30
0.0
 11
56.968825
 21
-182.135467
 31
0.0
  0
LINE
  5
FF
100
AcDbEntity
  8
1
100
AcDbLine
 10
96.968825
 20
-67.135467
 30
0.0
 11
96.968825
 21
-182.135467
 31
0.0
  0
LINE
  5
100
100
AcDbEntity
  8
1
100
AcDbLine
 10
95.968825
 20
-249.635467
 30
0.0
 11
95.968825
 21
-181.170825
 31
0.0
  0
LINE
  5
101
100
AcDbEntity
  8
1
100
AcDbLine
 10
95.968825
 20
-68.027661
 30
0.0
 11
95.968825
 21
-15.635467
 31
0.0
  0
LINE
  5
102
100
AcDbEntity
  8
1
100
AcDbLine
 10
57.968825
 20
-249.635467
 30
0.0
 11
57.968825
 21
-181.170825
 31
0.0
  0
LINE
  5
103
100
AcDbEntity
  8
1
100
AcDbLine
 10
57.968825
 20
-68.027661
 30
0.0
 11
57.968825
 21
-19.717538
 31
0.0
  0
ARC
  5
104
100
AcDbEntity
  8
1
100
AcDbCircle
 10
99.968825
 20
-15.635467
 30
0.0
 40
4.0
100
AcDbArc
 50
90.0
 51
180.0
  0
LINE
  5
105
100
AcDbEntity
  8
1
100
AcDbLine
 10
104.439074
 20
-14.916028
 30
0.0
 11
98.779591
 21
-27.052829
 31
0.0
  0
LINE
  5
106
100
AcDbEntity
  8
1
100
AcDbLine
 10
53.098209
 20
-22.635467
 30
0.0
 11
55.158058
 21
-27.052829
 31
0.0
  0
ARC
  5
107
100
AcDbEntity
  8
1
100
AcDbCircle
 10
27.968825
 20
-39.731376
 30
0.0
 40
30.0
100
AcDbArc
 50
0.0
 51
25.0
  0
ARC
  5
108
100
AcDbEntity
  8
1
100
AcDbCircle
 10
125.968825
 20
-39.731376
 30
0.0
 40
30.0
100
AcDbArc
 50
155.0
 51
180.0
  0
ARC
  5
109
100
AcDbEntity
  8
1
100
AcDbCircle
 10
109.876921
 20
-17.451738
 30
0.0
 40
6.0
100
AcDbArc
 50
101.000035
 51
155.0
  0
LINE
  5
10A
100
AcDbEntity
  8
1
100
AcDbLine
 10
62.169825
 20
-110.635467
 30
0.0
 11
91.767825
 21
-110.635467
 31
0.0
  0
LINE
  5
10B
100
AcDbEntity
  8
1
100
AcDbLine
 10
61.968825
 20
-112.635467
 30
0.0
 11
61.968825
 21
-140.635467
 31
0.0
  0
LINE
  5
10C
100
AcDbEntity
  8
1
100
AcDbLine
 10
91.968825
 20
-112.635467
 30
0.0
 11
91.968825
 21
-140.635467
 31
0.0
  0
ARC
  5
10D
100
AcDbEntity
  8
1
100
AcDbCircle
 10
63.968825
 20
-112.635467
 30
0.0
 40
2.0
100
AcDbArc
 50
90.0
 51
180.0
  0
ARC
  5
10E
100
AcDbEntity
  8
1
100
AcDbCircle
 10
63.968825
 20
-140.635467
 30
0.0
 40
2.0
100
AcDbArc
 50
180.0
 51
270.0
  0
ARC
  5
10F
100
AcDbEntity
  8
1
100
AcDbCircle
 10
89.968825
 20
-140.635467
 30
0.0
 40
2.0
100
AcDbArc
 50
270.0
 51
360.0
  0
ARC
  5
110
100
AcDbEntity
  8
1
100
AcDbCircle
 10
89.968825
 20
-112.635467
 30
0.0
 40
2.0
100
AcDbArc
 50
0.0
 51
90.0
  0
LINE
  5
111
100
AcDbEntity
  8
1
100
AcDbLine
 10
68.868825
 20
-132.635467
 30
0.0
 11
85.068825
 21
-132.635467
 31
0.0
  0
LINE
  5
112
100
AcDbEntity
  8
1
100
AcDbLine
 10
66.868825
 20
-134.635467
 30
0.0
 11
66.868825
 21
-140.635467
 31
0.0
  0
LINE
  5
113
100
AcDbEntity
  8
1
100
AcDbLine
 10
87.068825
 20
-134.635467
 30
0.0
 11
87.068825
 21
-140.635467
 31
0.0
  0
LINE
  5
114
100
AcDbEntity
  8
1
100
AcDbLine
 10
63.968825
 20
-142.635467
 30
0.0
 11
64.868825
 21
-142.635467
 31
0.0
  0
LINE
  5
115
100
AcDbEntity
  8
1
100
AcDbLine
 10
89.068825
 20
-142.635467
 30
0.0
 11
89.968825
 21
-142.635467
 31
0.0
  0
ARC
  5
116
100
AcDbEntity
  8
1
100
AcDbCircle
 10
89.068825
 20
-140.635467
 30
0.0
 40
2.0
100
AcDbArc
 50
180.0
 51
270.0
  0
ARC
  5
117
100
AcDbEntity
  8
1
100
AcDbCircle
 10
85.068825
 20
-134.635467
 30
0.0
 40
2.0
100
AcDbArc
 50
0.0
 51
90.0
  0
ARC
  5
118
100
AcDbEntity
  8
1
100
AcDbCircle
 10
68.868825
 20
-134.635467
 30
0.0
 40
2.0
100
AcDbArc
 50
90.0
 51
180.0
  0
ARC
  5
119
100
AcDbEntity
  8
1
100
AcDbCircle
 10
64.868825
 20
-140.635467
 30
0.0
 40
2.0
100
AcDbArc
 50
270.0
 51
360.0
  0
LINE
  5
11A
100
AcDbEntity
  8
1
100
AcDbLine
 10
87.068825
 20
-140.635467
 30
0.0
 11
86.468825
 21
-144.645824
 31
0.0
  0
LINE
  5
11B
100
AcDbEntity
  8
1
100
AcDbLine
 10
66.868825
 20
-140.635467
 30
0.0
 11
67.468825
 21
-144.645824
 31
0.0
  0
ARC
  5
11C
100
AcDbEntity
  8
1
100
AcDbCircle
 10
76.968825
 20
-112.078291
 30
0.0
 40
34.586821
100
AcDbArc
 50
255.468191
 51
284.531809
  0
ARC
  5
11D
100
AcDbEntity
  8
1
100
AcDbCircle
 10
68.569688
 20
-144.481121
 30
0.0
 40
1.113116
100
AcDbArc
 50
188.509057
 51
255.468191
  0
ARC
  5
11E
100
AcDbEntity
  8
1
100
AcDbCircle
 10
85.367962
 20
-144.481121
 30
0.0
 40
1.113116
100
AcDbArc
 50
284.531809
 51
351.490943
  0
LINE
  5
11F
100
AcDbEntity
  8
1
100
AcDbLine
 10
62.169825
 20
-144.436903
 30
0.0
 11
62.968825
 21
-144.436903
 31
0.0
  0
LINE
  5
120
100
AcDbEntity
  8
1
100
AcDbLine
 10
90.968825
 20
-144.436903
 30
0.0
 11
91.767825
 21
-144.436903
 31
0.0
  0
LINE
  5
121
100
AcDbEntity
  8
1
100
AcDbLine
 10
60.169825
 20
-112.635467
 30
0.0
 11
60.169825
 21
-142.436903
 31
0.0
  0
LINE
  5
122
100
AcDbEntity
  8
1
100
AcDbLine
 10
93.767825
 20
-112.635467
 30
0.0
 11
93.767825
 21
-142.436903
 31
0.0
  0
ARC
  5
123
100
AcDbEntity
  8
1
100
AcDbCircle
 10
91.767825
 20
-112.635467
 30
0.0
 40
2.0
100
AcDbArc
 50
0.0
 51
90.0
  0
ARC
  5
124
100
AcDbEntity
  8
1
100
AcDbCircle
 10
62.169825
 20
-112.635467
 30
0.0
 40
2.0
100
AcDbArc
 50
90.0
 51
180.0
  0
ARC
  5
125
100
AcDbEntity
  8
1
100
AcDbCircle
 10
62.169825
 20
-142.436903
 30
0.0
 40
2.0
100
AcDbArc
 50
180.0
 51
270.0
  0
ARC
  5
126
100
AcDbEntity
  8
1
100
AcDbCircle
 10
91.767825
 20
-142.436903
 30
0.0
 40
2.0
100
AcDbArc
 50
270.0
 51
360.0
  0
LINE
  5
127
100
AcDbEntity
  8
1
100
AcDbLine
 10
91.968825
 20
-142.635467
 30
0.0
 11
92.611065
 21
-143.278577
 31
0.0
  0
LINE
  5
128
100
AcDbEntity
  8
1
100
AcDbLine
 10
61.968825
 20
-142.635467
 30
0.0
 11
61.326585
 21
-143.278577
 31
0.0
  0
LINE
  5
129
100
AcDbEntity
  8
1
100
AcDbLine
 10
69.585825
 20
-147.984262
 30
0.0
 11
84.351825
 21
-147.984262
 31
0.0
  0
LINE
  5
12A
100
AcDbEntity
  8
1
100
AcDbLine
 10
66.585825
 20
-150.984262
 30
0.0
 11
66.585825
 21
-159.740585
 31
0.0
  0
LINE
  5
12B
100
AcDbEntity
  8
1
100
AcDbLine
 10
87.351825
 20
-150.984262
 30
0.0
 11
87.351825
 21
-159.740585
 31
0.0
  0
ARC
  5
12C
100
AcDbEntity
  8
1
100
AcDbCircle
 10
69.585825
 20
-150.984262
 30
0.0
 40
3.0
100
AcDbArc
 50
90.0
 51
180.0
  0
ARC
  5
12D
100
AcDbEntity
  8
1
100
AcDbCircle
 10
69.585825
 20
-159.740585
 30
0.0
 40
3.0
100
AcDbArc
 50
180.0
 51
270.0
  0
ARC
  5
12E
100
AcDbEntity
  8
1
100
AcDbCircle
 10
84.351825
 20
-159.740585
 30
0.0
 40
3.0
100
AcDbArc
 50
270.0
 51
360.0
  0
ARC
  5
12F
100
AcDbEntity
  8
1
100
AcDbCircle
 10
84.351825
 20
-150.984262
 30
0.0
 40
3.0
100
AcDbArc
 50
0.0
 51
90.0
  0
ARC
  5
130
100
AcDbEntity
  8
1
100
AcDbCircle
 10
86.968825
 20
-148.436903
 30
0.0
 40
4.0
100
AcDbArc
 50
0.0
 51
90.0
  0
ARC
  5
131
100
AcDbEntity
  8
1
100
AcDbCircle
 10
66.968825
 20
-148.436903
 30
0.0
 40
4.0
100
AcDbArc
 50
90.0
 51
180.0
  0
LINE
  5
132
100
AcDbEntity
  8
1
100
AcDbLine
 10
88.851165
 20
-146.51379
 30
0.0
 11
87.351825
 21
-147.984262
 31
0.0
  0
LINE
  5
133
100
AcDbEntity
  8
1
100
AcDbLine
 10
65.086484
 20
-146.51379
 30
0.0
 11
66.585825
 21
-147.984262
 31
0.0
  0
ARC
  5
134
100
AcDbEntity
  8
1
100
AcDbCircle
 10
65.968825
 20
-175.114531
 30
0.0
 40
3.0
100
AcDbArc
 50
180.0
 51
270.0
  0
ARC
  5
135
100
AcDbEntity
  8
1
100
AcDbCircle
 10
87.968825
 20
-175.114531
 30
0.0
 40
3.0
100
AcDbArc
 50
270.0
 51
360.0
  0
LINE
  5
136
100
AcDbEntity
  8
1
100
AcDbLine
 10
87.351825
 20
-162.740585
 30
0.0
 11
90.26302
 21
-175.114531
 31
0.0
  0
LINE
  5
137
100
AcDbEntity
  8
1
100
AcDbLine
 10
63.674629
 20
-175.114531
 30
0.0
 11
66.585825
 21
-162.740585
 31
0.0
  0
ARC
  5
138
100
AcDbEntity
  8
1
100
AcDbCircle
 10
98.968825
 20
-184.371535
 30
0.0
 40
3.0
100
AcDbArc
 50
131.810315
 51
180.0
  0
ARC
  5
139
100
AcDbEntity
  8
1
100
AcDbCircle
 10
54.968825
 20
-184.371535
 30
0.0
 40
3.0
100
AcDbArc
 50
0.0
 51
48.189685
  0
ARC
  5
13A
100
AcDbEntity
  8
1
100
AcDbCircle
 10
98.968825
 20
-181.170825
 30
0.0
 40
3.0
100
AcDbArc
 50
131.810315
 51
180.0
  0
ARC
  5
13B
100
AcDbEntity
  8
1
100
AcDbCircle
 10
54.968825
 20
-181.170825
 30
0.0
 40
3.0
100
AcDbArc
 50
0.0
 51
48.189685
  0
LINE
  5
13C
100
AcDbEntity
  8
1
100
AcDbLine
 10
95.968825
 20
-178.79295
 30
0.0
 11
89.228707
 21
-177.837157
 31
0.0
  0
LINE
  5
13D
100
AcDbEntity
  8
1
100
AcDbLine
 10
57.968825
 20
-178.79295
 30
0.0
 11
64.708943
 21
-177.837157
 31
0.0
  0
LINE
  5
13E
100
AcDbEntity
  8
1
100
AcDbLine
 10
74.468825
 20
-155.458751
 30
0.0
 11
79.468825
 21
-155.458751
 31
0.0
  0
LINE
  5
13F
100
AcDbEntity
  8
1
100
AcDbLine
 10
74.468825
 20
-157.458751
 30
0.0
 11
74.468825
 21
-235.374894
 31
0.0
  0
LINE
  5
140
100
AcDbEntity
  8
1
100
AcDbLine
 10
79.468825
 20
-157.458751
 30
0.0
 11
79.468825
 21
-235.374894
 31
0.0
  0
LINE
  5
141
100
AcDbEntity
  8
1
100
AcDbLine
 10
74.468825
 20
-237.374894
 30
0.0
 11
79.468825
 21
-237.374894
 31
0.0
  0
ARC
  5
142
100
AcDbEntity
  8
1
100
AcDbCircle
 10
81.468825
 20
-157.458751
 30
0.0
 40
2.0
100
AcDbArc
 50
90.0
 51
180.0
  0
ARC
  5
143
100
AcDbEntity
  8
1
100
AcDbCircle
 10
72.468825
 20
-157.458751
 30
0.0
 40
2.0
100
AcDbArc
 50
0.0
 51
90.0
  0
ARC
  5
144
100
AcDbEntity
  8
1
100
AcDbCircle
 10
81.468825
 20
-235.374894
 30
0.0
 40
2.0
100
AcDbArc
 50
180.0
 51
270.0
  0
ARC
  5
145
100
AcDbEntity
  8
1
100
AcDbCircle
 10
72.468825
 20
-235.374894
 30
0.0
 40
2.0
100
AcDbArc
 50
270.0
 51
360.0
  0
LINE
  5
146
100
AcDbEntity
  8
1
100
AcDbLine
 10
69.585825
 20
-162.740585
 30
0.0
 11
72.468825
 21
-162.740585
 31
0.0
  0
LINE
  5
147
100
AcDbEntity
  8
1
100
AcDbLine
 10
81.468825
 20
-162.740585
 30
0.0
 11
84.351825
 21
-162.740585
 31
0.0
  0
LINE
  5
148
100
AcDbEntity
  8
1
100
AcDbLine
 10
65.968825
 20
-178.114531
 30
0.0
 11
74.468825
 21
-178.114531
 31
0.0
  0
LINE
  5
149
100
AcDbEntity
  8
1
100
AcDbLine
 10
79.468825
 20
-178.114531
 30
0.0
 11
87.968825
 21
-178.114531
 31
0.0
  0
LINE
  5
14A
100
AcDbEntity
  8
1
100
AcDbLine
 10
76.468825
 20
-181.898923
 30
0.0
 11
77.468825
 21
-181.898923
 31
0.0
  0
LINE
  5
14B
100
AcDbEntity
  8
1
100
AcDbLine
 10
76.468825
 20
-190.396641
 30
0.0
 11
77.468825
 21
-190.396641
 31
0.0
  0
ARC
  5
14C
100
AcDbEntity
  8
1
100
AcDbCircle
 10
77.468825
 20
-183.898923
 30
0.0
 40
2.0
100
AcDbArc
 50
0.0
 51
90.0
  0
ARC
  5
14D
100
AcDbEntity
  8
1
100
AcDbCircle
 10
77.468825
 20
-188.396641
 30
0.0
 40
2.0
100
AcDbArc
 50
270.0
 51
360.0
  0
ARC
  5
14E
100
AcDbEntity
  8
1
100
AcDbCircle
 10
76.468825
 20
-188.396641
 30
0.0
 40
2.0
100
AcDbArc
 50
180.0
 51
270.0
  0
ARC
  5
14F
100
AcDbEntity
  8
1
100
AcDbCircle
 10
76.468825
 20
-183.898923
 30
0.0
 40
2.0
100
AcDbArc
 50
90.0
 51
180.0
  0
LINE
  5
150
100
AcDbEntity
  8
1
100
AcDbLine
 10
75.468825
 20
-203.663738
 30
0.0
 11
78.468825
 21
-203.663738
 31
0.0
  0
LINE
  5
151
100
AcDbEntity
  8
1
100
AcDbLine
 10
75.468825
 20
-231.896935
 30
0.0
 11
78.468825
 21
-231.896935
 31
0.0
  0
ARC
  5
152
100
AcDbEntity
  8
1
100
AcDbCircle
 10
81.468825
 20
-164.740585
 30
0.0
 40
2.0
100
AcDbArc
 50
90.0
 51
180.0
  0
ARC
  5
153
100
AcDbEntity
  8
1
100
AcDbCircle
 10
72.468825
 20
-164.740585
 30
0.0
 40
2.0
100
AcDbArc
 50
0.0
 51
90.0
  0
ARC
  5
154
100
AcDbEntity
  8
1
100
AcDbCircle
 10
98.968825
 20
-64.899399
 30
0.0
 40
3.0
100
AcDbArc
 50
180.0
 51
228.189685
  0
ARC
  5
155
100
AcDbEntity
  8
1
100
AcDbCircle
 10
54.968825
 20
-64.899399
 30
0.0
 40
3.0
100
AcDbArc
 50
311.810315
 51
360.0
  0
ARC
  5
156
100
AcDbEntity
  8
1
100
AcDbCircle
 10
36.412923
 20
-162.819233
 30
0.0
 40
27.493724
100
AcDbArc
 50
344.991981
 51
360.0
  0
ARC
  5
157
100
AcDbEntity
  8
1
100
AcDbCircle
 10
59.335188
 20
-162.819233
 30
0.0
 40
4.571459
100
AcDbArc
 50
0.0
 51
37.35865
  0
ARC
  5
158
100
AcDbEntity
  8
1
100
AcDbCircle
 10
117.524727
 20
-162.819233
 30
0.0
 40
27.493724
100
AcDbArc
 50
180.0
 51
195.008019
  0
ARC
  5
159
100
AcDbEntity
  8
1
100
AcDbCircle
 10
94.602462
 20
-162.819233
 30
0.0
 40
4.571459
100
AcDbArc
 50
142.64135
 51
180.0
  0
LINE
  5
15A
100
AcDbEntity
  8
1
100
AcDbLine
 10
56.968825
 20
-160.045262
 30
0.0
 11
62.968825
 21
-160.045262
 31
0.0
  0
LINE
  5
15B
100
AcDbEntity
  8
1
100
AcDbLine
 10
90.968825
 20
-160.045262
 30
0.0
 11
96.968825
 21
-160.045262
 31
0.0
  0
LINE
  5
15C
100
AcDbEntity
  8
1
100
AcDbLine
 10
56.968825
 20
-169.93885
 30
0.0
 11
62.968825
 21
-169.93885
 31
0.0
  0
LINE
  5
15D
100
AcDbEntity
  8
1
100
AcDbLine
 10
90.968825
 20
-169.93885
 30
0.0
 11
96.968825
 21
-169.93885
 31
0.0
  0
LINE
  5
15E
100
AcDbEntity
  8
1
100
AcDbLine
 10
90.968825
 20
-175.114531
 30
0.0
 11
90.968825
 21
-169.93885
 31
0.0
  0
LINE
  5
15F
100
AcDbEntity
  8
1
100
AcDbLine
 10
90.968825
 20
-160.045262
 30
0.0
 11
90.968825
 21
-148.436903
 31
0.0
  0
LINE
  5
160
100
AcDbEntity
  8
1
100
AcDbLine
 10
62.968825
 20
-175.114531
 30
0.0
 11
62.968825
 21
-169.93885
 31
0.0
  0
LINE
  5
161
100
AcDbEntity
  8
1
100
AcDbLine
 10
62.968825
 20
-160.045262
 30
0.0
 11
62.968825
 21
-148.436903
 31
0.0
  0
LINE
  5
162
100
AcDbEntity
  8
1
100
AcDbLine
 10
84.968825
 20
-132.635467
 30
0.0
 11
84.968825
 21
-142.035467
 31
0.0
  0
LINE
  5
163
100
AcDbEntity
  8
1
100
AcDbLine
 10
84.968825
 20
-142.035467
 30
0.0
 11
83.929594
 21
-142.635467
 31
0.0
  0
LINE
  5
164
100
AcDbEntity
  8
1
100
AcDbLine
 10
84.968825
 20
-142.035467
 30
0.0
 11
68.968825
 21
-142.035467
 31
0.0
  0
LINE
  5
165
100
AcDbEntity
  8
1
100
AcDbLine
 10
81.156825
 20
-107.635467
 30
0.0
 11
81.968825
 21
-108.447467
 31
0.0
  0
LINE
  5
166
100
AcDbEntity
  8
1
100
AcDbLine
 10
81.968825
 20
-108.447467
 30
0.0
 11
81.968825
 21
-110.635467
 31
0.0
  0
LINE
  5
167
100
AcDbEntity
  8
1
100
AcDbLine
 10
81.968825
 20
-108.447467
 30
0.0
 11
71.968825
 21
-108.447467
 31
0.0
  0
LINE
  5
168
100
AcDbEntity
  8
1
 62
     2
100
AcDbLine
 10
81.156825
 20
-107.635467
 30
0.0
 11
81.156825
 21
-110.635467
 31
0.0
  0
LINE
  5
169
100
AcDbEntity
  8
1
100
AcDbLine
 10
68.968825
 20
-132.635467
 30
0.0
 11
68.968825
 21
-142.035467
 31
0.0
  0
LINE
  5
16A
100
AcDbEntity
  8
1
100
AcDbLine
 10
68.968825
 20
-142.035467
 30
0.0
 11
70.008055
 21
-142.635467
 31
0.0
  0
LINE
  5
16B
100
AcDbEntity
  8
1
100
AcDbLine
 10
70.008055
 20
-142.635467
 30
0.0
 11
83.929594
 21
-142.635467
 31
0.0
  0
LINE
  5
16C
100
AcDbEntity
  8
1
100
AcDbLine
 10
72.780825
 20
-107.635467
 30
0.0
 11
81.156825
 21
-107.635467
 31
0.0
  0
LINE
  5
16D
100
AcDbEntity
  8
1
100
AcDbLine
 10
72.780825
 20
-107.635467
 30
0.0
 11
71.968825
 21
-108.447467
 31
0.0
  0
LINE
  5
16E
100
AcDbEntity
  8
1
100
AcDbLine
 10
71.968825
 20
-108.447467
 30
0.0
 11
71.968825
 21
-110.635467
 31
0.0
  0
LINE
  5
16F
100
AcDbEntity
  8
1
 62
     2
100
AcDbLine
 10
72.780825
 20
-107.635467
 30
0.0
 11
72.780825
 21
-110.635467
 31
0.0
  0
LINE
  5
170
100
AcDbEntity
  8
1
100
AcDbLine
 10
69.585825
 20
-86.53035
 30
0.0
 11
84.351825
 21
-86.53035
 31
0.0
  0
LINE
  5
171
100
AcDbEntity
  8
1
100
AcDbLine
 10
66.585825
 20
-107.635467
 30
0.0
 11
66.585825
 21
-89.53035
 31
0.0
  0
ARC
  5
172
100
AcDbEntity
  8
1
100
AcDbCircle
 10
84.351825
 20
-89.53035
 30
0.0
 40
3.0
100
AcDbArc
 50
0.0
 51
90.0
  0
ARC
  5
173
100
AcDbEntity
  8
1
100
AcDbCircle
 10
69.585825
 20
-89.53035
 30
0.0
 40
3.0
100
AcDbArc
 50
90.0
 51
180.0
  0
ARC
  5
174
100
AcDbEntity
  8
1
100
AcDbCircle
 10
84.351825
 20
-107.635467
 30
0.0
 40
3.0
100
AcDbArc
 50
270.0
 51
360.0
  0
ARC
  5
175
100
AcDbEntity
  8
1
100
AcDbCircle
 10
69.585825
 20
-107.635467
 30
0.0
 40
3.0
100
AcDbArc
 50
180.0
 51
270.0
  0
LINE
  5
176
100
AcDbEntity
  8
1
100
AcDbLine
 10
86.266934
 20
-15.870531
 30
0.0
 11
87.055392
 21
-29.264261
 31
0.0
  0
ARC
  5
177
100
AcDbEntity
  8
1
100
AcDbCircle
 10
90.260021
 20
-15.635467
 30
0.0
 40
4.0
100
AcDbArc
 50
90.0
 51
183.368985
  0
LINE
  5
178
100
AcDbEntity
  8
1
100
AcDbLine
 10
67.670716
 20
-15.870531
 30
0.0
 11
64.462744
 21
-70.365091
 31
0.0
  0
ARC
  5
179
100
AcDbEntity
  8
1
100
AcDbCircle
 10
63.677629
 20
-15.635467
 30
0.0
 40
4.0
100
AcDbArc
 50
356.631015
 51
90.0
  0
ARC
  5
17A
100
AcDbEntity
  8
1
100
AcDbCircle
 10
54.968825
 20
-68.027661
 30
0.0
 40
3.0
100
AcDbArc
 50
311.810315
 51
360.0
  0
ARC
  5
17B
100
AcDbEntity
  8
1
100
AcDbCircle
 10
98.968825
 20
-68.027661
 30
0.0
 40
3.0
100
AcDbArc
 50
180.0
 51
228.189685
  0
LINE
  5
17C
100
AcDbEntity
  8
1
100
AcDbLine
 10
95.968825
 20
-70.804676
 30
0.0
 11
93.468825
 21
-72.157044
 31
0.0
  0
ARC
  5
17D
100
AcDbEntity
  8
1
100
AcDbCircle
 10
66.968825
 20
-106.635467
 30
0.0
 40
4.0
100
AcDbArc
 50
180.0
 51
270.0
  0
LINE
  5
17E
100
AcDbEntity
  8
1
100
AcDbLine
 10
65.968825
 20
-71.156404
 30
0.0
 11
85.468825
 21
-71.156404
 31
0.0
  0
ARC
  5
17F
100
AcDbEntity
  8
1
100
AcDbCircle
 10
65.968825
 20
-74.156404
 30
0.0
 40
3.0
100
AcDbArc
 50
90.0
 51
180.0
  0
ARC
  5
180
100
AcDbEntity
  8
1
100
AcDbCircle
 10
86.968825
 20
-106.635467
 30
0.0
 40
4.0
100
AcDbArc
 50
270.0
 51
0.0
  0
LINE
  5
181
100
AcDbEntity
  8
1
100
AcDbLine
 10
90.968825
 20
-106.635467
 30
0.0
 11
90.968825
 21
-89.225673
 31
0.0
  0
ARC
  5
182
100
AcDbEntity
  8
1
100
AcDbCircle
 10
61.467929
 20
-70.188793
 30
0.0
 40
3.0
100
AcDbArc
 50
318.603314
 51
356.631015
  0
LINE
  5
183
100
AcDbEntity
  8
1
100
AcDbLine
 10
57.968825
 20
-70.804676
 30
0.0
 11
61.513804
 21
-72.722323
 31
0.0
  0
ARC
  5
184
100
AcDbEntity
  8
1
100
AcDbCircle
 10
36.412923
 20
-86.451701
 30
0.0
 40
27.493724
100
AcDbArc
 50
0.0
 51
15.008019
  0
ARC
  5
185
100
AcDbEntity
  8
1
100
AcDbCircle
 10
59.335188
 20
-86.451701
 30
0.0
 40
4.571459
100
AcDbArc
 50
322.64135
 51
360.0
  0
ARC
  5
186
100
AcDbEntity
  8
1
100
AcDbCircle
 10
94.602462
 20
-86.451701
 30
0.0
 40
4.571459
100
AcDbArc
 50
180.0
 51
217.35865
  0
LINE
  5
187
100
AcDbEntity
  8
1
100
AcDbLine
 10
56.968825
 20
-89.225673
 30
0.0
 11
62.968825
 21
-89.225673
 31
0.0
  0
LINE
  5
188
100
AcDbEntity
  8
1
100
AcDbLine
 10
90.968825
 20
-89.225673
 30
0.0
 11
96.968825
 21
-89.225673
 31
0.0
  0
LINE
  5
189
100
AcDbEntity
  8
1
100
AcDbLine
 10
56.968825
 20
-79.332085
 30
0.0
 11
62.968825
 21
-79.332085
 31
0.0
  0
LINE
  5
18A
100
AcDbEntity
  8
1
100
AcDbLine
 10
92.968825
 20
-79.332085
 30
0.0
 11
96.968825
 21
-79.332085
 31
0.0
  0
LINE
  5
18B
100
AcDbEntity
  8
1
100
AcDbLine
 10
62.968825
 20
-106.635467
 30
0.0
 11
62.968825
 21
-89.225673
 31
0.0
  0
LINE
  5
18C
100
AcDbEntity
  8
1
100
AcDbLine
 10
62.968825
 20
-79.332085
 30
0.0
 11
62.968825
 21
-74.156404
 31
0.0
  0
ARC
  5
18D
100
AcDbEntity
  8
1
100
AcDbCircle
 10
92.968825
 20
-81.332085
 30
0.0
 40
2.0
100
AcDbArc
 50
90.0
 51
159.239049
  0
ARC
  5
18E
100
AcDbEntity
  8
1
100
AcDbCircle
 10
106.47403
 20
-86.451701
 30
0.0
 40
16.443027
100
AcDbArc
 50
159.239049
 51
180.0
  0
ARC
  5
18F
100
AcDbEntity
  8
1
100
AcDbCircle
 10
95.468825
 20
-77.332085
 30
0.0
 40
2.0
100
AcDbArc
 50
180.0
 51
270.0
  0
LINE
  5
190
100
AcDbEntity
  8
1
100
AcDbLine
 10
87.351825
 20
-107.635467
 30
0.0
 11
87.351825
 21
-93.812183
 31
0.0
  0
LINE
  5
191
100
AcDbEntity
  8
1
100
AcDbLine
 10
87.351825
 20
-92.486209
 30
0.0
 11
87.351825
 21
-89.53035
 31
0.0
  0
LINE
  5
192
100
AcDbEntity
  8
1
100
AcDbLine
 10
90.646329
 20
-80.623145
 30
0.0
 11
87.562129
 21
-92.970264
 31
0.0
  0
LINE
  5
193
100
AcDbEntity
  8
1
100
AcDbLine
 10
89.468825
 20
-53.090076
 30
0.0
 11
91.468825
 21
-53.090076
 31
0.0
  0
LINE
  5
194
100
AcDbEntity
  8
1
100
AcDbLine
 10
89.468825
 20
-63.939263
 30
0.0
 11
91.468825
 21
-63.939263
 31
0.0
  0
ARC
  5
195
100
AcDbEntity
  8
1
100
AcDbCircle
 10
91.468825
 20
-55.090076
 30
0.0
 40
2.0
100
AcDbArc
 50
0.0
 51
90.0
  0
ARC
  5
196
100
AcDbEntity
  8
1
100
AcDbCircle
 10
89.468825
 20
-55.090076
 30
0.0
 40
2.0
100
AcDbArc
 50
90.0
 51
180.0
  0
ARC
  5
197
100
AcDbEntity
  8
1
100
AcDbCircle
 10
89.468825
 20
-61.939263
 30
0.0
 40
2.0
100
AcDbArc
 50
180.0
 51
270.0
  0
ARC
  5
198
100
AcDbEntity
  8
1
100
AcDbCircle
 10
91.468825
 20
-61.939263
 30
0.0
 40
2.0
100
AcDbArc
 50
270.0
 51
360.0
  0
LINE
  5
199
100
AcDbEntity
  8
1
100
AcDbLine
 10
93.468825
 20
-31.264261
 30
0.0
 11
93.468825
 21
-77.332085
 31
0.0
  0
LINE
  5
19A
100
AcDbEntity
  8
1
100
AcDbLine
 10
87.468825
 20
-31.264261
 30
0.0
 11
87.468825
 21
-91.812183
 31
0.0
  0
LINE
  5
19B
100
AcDbEntity
  8
1
100
AcDbLine
 10
87.468825
 20
-29.264261
 30
0.0
 11
93.468825
 21
-29.264261
 31
0.0
  0
ARC
  5
19C
100
AcDbEntity
  8
1
100
AcDbCircle
 10
95.468825
 20
-31.264261
 30
0.0
 40
2.0
100
AcDbArc
 50
90.0
 51
180.0
  0
ARC
  5
19D
100
AcDbEntity
  8
1
100
AcDbCircle
 10
85.468825
 20
-31.264261
 30
0.0
 40
2.0
100
AcDbArc
 50
0.0
 51
90.0
  0
ARC
  5
19E
100
AcDbEntity
  8
1
100
AcDbCircle
 10
85.468825
 20
-91.812183
 30
0.0
 40
2.0
100
AcDbArc
 50
270.0
 51
360.0
  0
LINE
  5
19F
100
AcDbEntity
  8
1
100
AcDbLine
 10
63.674629
 20
-74.156404
 30
0.0
 11
66.585825
 21
-86.53035
 31
0.0
  0
ARC
  5
1A0
100
AcDbEntity
  8
1
100
AcDbCircle
 10
85.468825
 20
-69.156404
 30
0.0
 40
2.0
100
AcDbArc
 50
270.0
 51
360.0
  0
LINE
  5
1A1
100
AcDbEntity
  8
1
100
AcDbLine
 10
96.968825
 20
-124.635467
 30
0.0
 11
56.968825
 21
-124.635467
 31
0.0
  0
LINE
  5
1A2
100
AcDbEntity
  8
1
100
AcDbLine
 10
53.968825
 20
-71.135467
 30
0.0
 11
53.968825
 21
-178.135467
 31
0.0
  0
LINE
  5
1A3
100
AcDbEntity
  8
1
100
AcDbLine
 10
99.968825
 20
-71.135467
 30
0.0
 11
99.968825
 21
-178.135467
 31
0.0
  0
LINE
  5
1A4
100
AcDbEntity
  8
1
100
AcDbLine
 10
53.968825
 20
-71.135467
 30
0.0
 11
56.968825
 21
-71.135467
 31
0.0
  0
LINE
  5
1A5
100
AcDbEntity
  8
1
100
AcDbLine
 10
96.968825
 20
-71.135467
 30
0.0
 11
99.968825
 21
-71.135467
 31
0.0
  0
LINE
  5
1A6
100
AcDbEntity
  8
1
100
AcDbLine
 10
53.968825
 20
-178.135467
 30
0.0
 11
56.968825
 21
-178.135467
 31
0.0
  0
LINE
  5
1A7
100
AcDbEntity
  8
1
100
AcDbLine
 10
96.968825
 20
-178.135467
 30
0.0
 11
99.968825
 21
-178.135467
 31
0.0
  0
LINE
  5
1A8
100
AcDbEntity
  8
1
100
AcDbLine
 10
76.468825
 20
-234.505181
 30
0.0
 11
77.468825
 21
-234.505181
 31
0.0
  0
ARC
  5
1A9
100
AcDbEntity
  8
1
100
AcDbCircle
 10
77.468825
 20
-232.505181
 30
0.0
 40
2.0
100
AcDbArc
 50
270.0
 51
360.0
  0
ARC
  5
1AA
100
AcDbEntity
  8
1
100
AcDbCircle
 10
76.468825
 20
-232.505181
 30
0.0
 40
2.0
100
AcDbArc
 50
180.0
 51
270.0
  0
LINE
  5
1AB
100
AcDbEntity
  8
1
  6
CENTER
 62
     2
100
AcDbLine
 10
76.968825
 20
73.822174
 30
0.0
 11
76.968825
 21
-257.01619
 31
0.0
  0
LINE
  5
1AC
100
AcDbEntity
  8
1
100
AcDbLine
 10
41.968825
 20
0.364533
 30
0.0
 11
71.068825
 21
0.364533
 31
0.0
  0
LINE
  5
1AD
100
AcDbEntity
  8
1
100
AcDbLine
 10
82.868825
 20
0.364533
 30
0.0
 11
111.968825
 21
0.364533
 31
0.0
  0
LINE
  5
1AE
100
AcDbEntity
  8
1
100
AcDbLine
 10
-275.194112
 20
-11.635467
 30
0.0
 11
-213.194112
 21
-11.635467
 31
0.0
  0
LINE
  5
1AF
100
AcDbEntity
  8
1
100
AcDbLine
 10
-279.194112
 20
0.364533
 30
0.0
 11
-279.194112
 21
-7.635467
 31
0.0
  0
LINE
  5
1B0
100
AcDbEntity
  8
1
100
AcDbLine
 10
-209.194112
 20
0.364533
 30
0.0
 11
-209.194112
 21
-7.635467
 31
0.0
  0
ARC
  5
1B1
100
AcDbEntity
  8
1
100
AcDbCircle
 10
-275.194112
 20
-7.635467
 30
0.0
 40
4.0
100
AcDbArc
 50
180.0
 51
270.0
  0
ARC
  5
1B2
100
AcDbEntity
  8
1
100
AcDbCircle
 10
-213.194112
 20
-7.635467
 30
0.0
 40
4.0
100
AcDbArc
 50
270.0
 51
360.0
  0
LINE
  5
1B3
100
AcDbEntity
  8
1
  6
CENTER
 62
     2
100
AcDbLine
 10
-327.027191
 20
-124.635467
 30
0.0
 11
-163.299132
 21
-124.635467
 31
0.0
  0
LINE
  5
1B4
100
AcDbEntity
  8
1
  6
CENTER
 62
     2
100
AcDbLine
 10
-244.194112
 20
47.034836
 30
0.0
 11
-244.194112
 21
-257.01619
 31
0.0
  0
LINE
  5
1B5
100
AcDbEntity
  8
1
100
AcDbLine
 10
-263.194112
 20
-249.635467
 30
0.0
 11
-225.194112
 21
-249.635467
 31
0.0
  0
LINE
  5
1B6
100
AcDbEntity
  8
1
100
AcDbLine
 10
-263.194112
 20
-15.635467
 30
0.0
 11
-263.194112
 21
-63.682617
 31
0.0
  0
LINE
  5
1B7
100
AcDbEntity
  8
1
100
AcDbLine
 10
-225.194112
 20
-20.135467
 30
0.0
 11
-225.194112
 21
-63.682617
 31
0.0
  0
ARC
  5
1B8
100
AcDbEntity
  8
1
100
AcDbCircle
 10
-267.194112
 20
-15.635467
 30
0.0
 40
4.0
100
AcDbArc
 50
0.0
 51
90.0
  0
ARC
  5
1B9
100
AcDbEntity
  8
1
100
AcDbCircle
 10
-244.194112
 20
-124.635467
 30
0.0
 40
65.0
100
AcDbArc
 50
168.28024
 51
195.540875
  0
ARC
  5
1BA
100
AcDbEntity
  8
1
100
AcDbCircle
 10
-244.194112
 20
-124.635467
 30
0.0
 40
65.0
100
AcDbArc
 50
344.459125
 51
11.71976
  0
LINE
  5
1BB
100
AcDbEntity
  8
1
100
AcDbLine
 10
-306.859892
 20
-110.635467
 30
0.0
 11
-301.502489
 21
-110.635467
 31
0.0
  0
LINE
  5
1BC
100
AcDbEntity
  8
1
100
AcDbLine
 10
-306.062156
 20
-142.760863
 30
0.0
 11
-299.246198
 21
-144.20964
 31
0.0
  0
ARC
  5
1BD
100
AcDbEntity
  8
1
100
AcDbCircle
 10
-306.859892
 20
-111.635467
 30
0.0
 40
1.0
100
AcDbArc
 50
90.0
 51
168.28024
  0
ARC
  5
1BE
100
AcDbEntity
  8
1
100
AcDbCircle
 10
-305.854244
 20
-141.782716
 30
0.0
 40
1.0
100
AcDbArc
 50
195.540875
 51
258.0
  0
ARC
  5
1BF
100
AcDbEntity
  8
1
100
AcDbCircle
 10
-182.53398
 20
-141.782716
 30
0.0
 40
1.0
100
AcDbArc
 50
282.0
 51
344.459125
  0
ARC
  5
1C0
100
AcDbEntity
  8
1
100
AcDbCircle
 10
-181.528332
 20
-111.635467
 30
0.0
 40
1.0
100
AcDbArc
 50
11.71976
 51
90.0
  0
ARC
  5
1C1
100
AcDbEntity
  8
1
100
AcDbCircle
 10
-186.885736
 20
-108.635467
 30
0.0
 40
2.0
100
AcDbArc
 50
195.599271
 51
270.0
  0
ARC
  5
1C2
100
AcDbEntity
  8
1
100
AcDbCircle
 10
-301.502489
 20
-108.635467
 30
0.0
 40
2.0
100
AcDbArc
 50
270.0
 51
344.400729
  0
ARC
  5
1C3
100
AcDbEntity
  8
1
100
AcDbCircle
 10
-188.726203
 20
-146.165935
 30
0.0
 40
2.0
100
AcDbArc
 50
102.0
 51
158.78574
  0
ARC
  5
1C4
100
AcDbEntity
  8
1
100
AcDbCircle
 10
-299.662022
 20
-146.165935
 30
0.0
 40
2.0
100
AcDbArc
 50
21.21426
 51
78.0
  0
LINE
  5
1C5
100
AcDbEntity
  8
1
100
AcDbLine
 10
-263.194112
 20
-186.838763
 30
0.0
 11
-263.194112
 21
-249.635467
 31
0.0
  0
LINE
  5
1C6
100
AcDbEntity
  8
1
100
AcDbLine
 10
-225.194112
 20
-186.838763
 30
0.0
 11
-225.194112
 21
-249.635467
 31
0.0
  0
ARC
  5
1C7
100
AcDbEntity
  8
1
100
AcDbCircle
 10
-199.292832
 20
-169.536748
 30
0.0
 40
9.5
100
AcDbArc
 50
92.934786
 51
177.065214
  0
ARC
  5
1C8
100
AcDbEntity
  8
1
100
AcDbCircle
 10
-289.095393
 20
-169.536748
 30
0.0
 40
9.5
100
AcDbArc
 50
2.934786
 51
87.065214
  0
ARC
  5
1C9
100
AcDbEntity
  8
1
100
AcDbCircle
 10
-244.194112
 20
-124.635467
 30
0.0
 40
57.5
100
AcDbArc
 50
232.979794
 51
307.020206
  0
ARC
  5
1CA
100
AcDbEntity
  8
1
100
AcDbCircle
 10
-288.506601
 20
-158.051831
 30
0.0
 40
2.0
100
AcDbArc
 50
217.020206
 51
267.065214
  0
ARC
  5
1CB
100
AcDbEntity
  8
1
100
AcDbCircle
 10
-277.610476
 20
-168.947956
 30
0.0
 40
2.0
100
AcDbArc
 50
182.934786
 51
232.979794
  0
ARC
  5
1CC
100
AcDbEntity
  8
1
100
AcDbCircle
 10
-210.777749
 20
-168.947956
 30
0.0
 40
2.0
100
AcDbArc
 50
307.020206
 51
357.065214
  0
ARC
  5
1CD
100
AcDbEntity
  8
1
100
AcDbCircle
 10
-199.881624
 20
-158.051831
 30
0.0
 40
2.0
100
AcDbArc
 50
272.934786
 51
322.979794
  0
ARC
  5
1CE
100
AcDbEntity
  8
1
100
AcDbCircle
 10
-199.292832
 20
-79.734187
 30
0.0
 40
9.5
100
AcDbArc
 50
135.0
 51
267.065214
  0
ARC
  5
1CF
100
AcDbEntity
  8
1
100
AcDbCircle
 10
-289.095393
 20
-79.734187
 30
0.0
 40
9.5
100
AcDbArc
 50
272.934786
 51
45.0
  0
ARC
  5
1D0
100
AcDbEntity
  8
1
100
AcDbCircle
 10
-244.194112
 20
-124.635467
 30
0.0
 40
57.5
100
AcDbArc
 50
322.979794
 51
37.020206
  0
ARC
  5
1D1
100
AcDbEntity
  8
1
100
AcDbCircle
 10
-244.194112
 20
-124.635467
 30
0.0
 40
57.5
100
AcDbArc
 50
52.979794
 51
127.020206
  0
ARC
  5
1D2
100
AcDbEntity
  8
1
100
AcDbCircle
 10
-244.194112
 20
-124.635467
 30
0.0
 40
57.5
100
AcDbArc
 50
142.979794
 51
217.020206
  0
ARC
  5
1D3
100
AcDbEntity
  8
1
100
AcDbCircle
 10
-199.881624
 20
-91.219104
 30
0.0
 40
2.0
100
AcDbArc
 50
37.020206
 51
87.065214
  0
ARC
  5
1D4
100
AcDbEntity
  8
1
100
AcDbCircle
 10
-288.506601
 20
-91.219104
 30
0.0
 40
2.0
100
AcDbArc
 50
92.934786
 51
142.979794
  0
ARC
  5
1D5
100
AcDbEntity
  8
1
100
AcDbCircle
 10
-210.777749
 20
-80.322979
 30
0.0
 40
2.0
100
AcDbArc
 50
2.934786
 51
52.979794
  0
ARC
  5
1D6
100
AcDbEntity
  8
1
100
AcDbCircle
 10
-277.610476
 20
-80.322979
 30
0.0
 40
2.0
100
AcDbArc
 50
127.020206
 51
177.065214
  0
ARC
  5
1D7
100
AcDbEntity
  8
1
100
AcDbCircle
 10
-258.194112
 20
-146.635467
 30
0.0
 40
115.0
100
AcDbArc
 50
54.433224
 51
69.879236
  0
ARC
  5
1D8
100
AcDbEntity
  8
1
100
AcDbCircle
 10
-230.194112
 20
-146.635467
 30
0.0
 40
115.0
100
AcDbArc
 50
110.120764
 51
125.566776
  0
ARC
  5
1D9
100
AcDbEntity
  8
1
100
AcDbCircle
 10
-215.194112
 20
-29.264261
 30
0.0
 40
10.0
100
AcDbArc
 50
180.0
 51
249.879236
  0
ARC
  5
1DA
100
AcDbEntity
  8
1
100
AcDbCircle
 10
-273.194112
 20
-29.264261
 30
0.0
 40
10.0
100
AcDbArc
 50
290.120764
 51
360.0
  0
ARC
  5
1DB
100
AcDbEntity
  8
1
100
AcDbCircle
 10
-194.794112
 20
-57.970705
 30
0.0
 40
6.0
100
AcDbArc
 50
359.941943
 51
54.433224
  0
ARC
  5
1DC
100
AcDbEntity
  8
1
100
AcDbCircle
 10
-293.594112
 20
-57.970705
 30
0.0
 40
6.0
100
AcDbArc
 50
125.566776
 51
180.058057
  0
ARC
  5
1DD
100
AcDbEntity
  8
1
100
AcDbCircle
 10
-192.928871
 20
-73.370226
 30
0.0
 40
9.5
100
AcDbArc
 50
96.91162
 51
135.0
  0
ARC
  5
1DE
100
AcDbEntity
  8
1
100
AcDbCircle
 10
-295.459354
 20
-73.370226
 30
0.0
 40
9.5
100
AcDbArc
 50
45.0
 51
83.08838
  0
ARC
  5
1DF
100
AcDbEntity
  8
1
100
AcDbCircle
 10
-293.594112
 20
-57.982865
 30
0.0
 40
6.0
100
AcDbArc
 50
179.941943
 51
263.08838
  0
ARC
  5
1E0
100
AcDbEntity
  8
1
100
AcDbCircle
 10
-194.794112
 20
-57.982865
 30
0.0
 40
6.0
100
AcDbArc
 50
276.91162
 51
0.058057
  0
LINE
  5
1E1
100
AcDbEntity
  8
1
100
AcDbLine
 10
-288.74184
 20
-66.652711
 30
0.0
 11
-277.576473
 21
-77.818078
 31
0.0
  0
LINE
  5
1E2
100
AcDbEntity
  8
1
100
AcDbLine
 10
-277.576473
 20
-171.452857
 30
0.0
 11
-288.022539
 21
-181.898923
 31
0.0
  0
LINE
  5
1E3
100
AcDbEntity
  8
1
100
AcDbLine
 10
-275.639552
 20
-195.472218
 30
0.0
 11
-286.524163
 21
-190.396641
 31
0.0
  0
LINE
  5
1E4
100
AcDbEntity
  8
1
100
AcDbLine
 10
-212.748673
 20
-195.472218
 30
0.0
 11
-201.864062
 21
-190.396641
 31
0.0
  0
ARC
  5
1E5
100
AcDbEntity
  8
1
100
AcDbCircle
 10
-203.194112
 20
-184.72735
 30
0.0
 40
4.0
100
AcDbArc
 50
350.0
 51
45.0
  0
ARC
  5
1E6
100
AcDbEntity
  8
1
100
AcDbCircle
 10
-285.194112
 20
-184.72735
 30
0.0
 40
4.0
100
AcDbArc
 50
135.0
 51
190.0
  0
LINE
  5
1E7
100
AcDbEntity
  8
1
100
AcDbLine
 10
-199.254881
 20
-185.421943
 30
0.0
 11
-199.615304
 21
-187.466002
 31
0.0
  0
LINE
  5
1E8
100
AcDbEntity
  8
1
100
AcDbLine
 10
-289.133343
 20
-185.421943
 30
0.0
 11
-288.772921
 21
-187.466002
 31
0.0
  0
ARC
  5
1E9
100
AcDbEntity
  8
1
100
AcDbCircle
 10
-203.554535
 20
-186.77141
 30
0.0
 40
4.0
100
AcDbArc
 50
295.0
 51
350.0
  0
ARC
  5
1EA
100
AcDbEntity
  8
1
100
AcDbCircle
 10
-284.83369
 20
-186.77141
 30
0.0
 40
4.0
100
AcDbArc
 50
190.0
 51
245.0
  0
LINE
  5
1EB
100
AcDbEntity
  8
1
100
AcDbLine
 10
-220.954522
 20
-231.896935
 30
0.0
 11
-218.484437
 21
-203.663738
 31
0.0
  0
LINE
  5
1EC
100
AcDbEntity
  8
1
100
AcDbLine
 10
-267.433703
 20
-231.896935
 30
0.0
 11
-269.903787
 21
-203.663738
 31
0.0
  0
ARC
  5
1ED
100
AcDbEntity
  8
1
100
AcDbCircle
 10
-208.52249
 20
-204.535296
 30
0.0
 40
10.0
100
AcDbArc
 50
115.0
 51
175.0
  0
ARC
  5
1EE
100
AcDbEntity
  8
1
100
AcDbCircle
 10
-279.865734
 20
-204.535296
 30
0.0
 40
10.0
100
AcDbArc
 50
5.0
 51
65.0
  0
ARC
  5
1EF
100
AcDbEntity
  8
1
100
AcDbCircle
 10
-223.943106
 20
-231.635467
 30
0.0
 40
3.0
100
AcDbArc
 50
286.947716
 51
355.0
  0
ARC
  5
1F0
100
AcDbEntity
  8
1
100
AcDbCircle
 10
-264.445119
 20
-231.635467
 30
0.0
 40
3.0
100
AcDbArc
 50
185.0
 51
253.052284
  0
ARC
  5
1F1
100
AcDbEntity
  8
1
100
AcDbCircle
 10
-222.194112
 20
-237.374894
 30
0.0
 40
3.0
100
AcDbArc
 50
106.947716
 51
180.0
  0
ARC
  5
1F2
100
AcDbEntity
  8
1
100
AcDbCircle
 10
-266.194112
 20
-237.374894
 30
0.0
 40
3.0
100
AcDbArc
 50
0.0
 51
73.052284
  0
ARC
  5
1F3
100
AcDbEntity
  8
1
100
AcDbCircle
 10
-244.194112
 20
-124.635467
 30
0.0
 40
64.213883
100
AcDbArc
 50
168.132388
 51
195.913068
  0
ARC
  5
1F4
100
AcDbEntity
  8
1
100
AcDbCircle
 10
-244.194112
 20
-124.635467
 30
0.0
 40
64.213883
100
AcDbArc
 50
344.086932
 51
11.867612
  0
ARC
  5
1F5
100
AcDbEntity
  8
1
100
AcDbCircle
 10
-182.331401
 20
-111.635467
 30
0.0
 40
1.0
100
AcDbArc
 50
11.867612
 51
90.0
  0
ARC
  5
1F6
100
AcDbEntity
  8
1
100
AcDbCircle
 10
-183.402661
 20
-141.96736
 30
0.0
 40
1.0
100
AcDbArc
 50
282.0
 51
344.086932
  0
ARC
  5
1F7
100
AcDbEntity
  8
1
100
AcDbCircle
 10
-306.056824
 20
-111.635467
 30
0.0
 40
1.0
100
AcDbArc
 50
90.0
 51
168.132388
  0
ARC
  5
1F8
100
AcDbEntity
  8
1
100
AcDbCircle
 10
-304.985564
 20
-141.96736
 30
0.0
 40
1.0
100
AcDbArc
 50
195.913068
 51
258.0
  0
LINE
  5
1F9
100
AcDbEntity
  8
1
100
AcDbLine
 10
-210.811751
 20
-171.452857
 30
0.0
 11
-200.365685
 21
-181.898923
 31
0.0
  0
LINE
  5
1FA
100
AcDbEntity
  8
1
100
AcDbLine
 10
-182.326069
 20
-142.760863
 30
0.0
 11
-189.142026
 21
-144.20964
 31
0.0
  0
LINE
  5
1FB
100
AcDbEntity
  8
1
100
AcDbLine
 10
-186.885736
 20
-110.635467
 30
0.0
 11
-181.528332
 21
-110.635467
 31
0.0
  0
LINE
  5
1FC
100
AcDbEntity
  8
1
100
AcDbLine
 10
-199.646385
 20
-66.652711
 30
0.0
 11
-210.811751
 21
-77.818078
 31
0.0
  0
LINE
  5
1FD
100
AcDbEntity
  8
1
100
AcDbLine
 10
-241.694112
 20
-39.731376
 30
0.0
 11
-246.694112
 21
-39.731376
 31
0.0
  0
LINE
  5
1FE
100
AcDbEntity
  8
1
100
AcDbLine
 10
-246.694112
 20
-13.635467
 30
0.0
 11
-246.694112
 21
-37.731376
 31
0.0
  0
LINE
  5
1FF
100
AcDbEntity
  8
1
100
AcDbLine
 10
-241.694112
 20
-13.635467
 30
0.0
 11
-241.694112
 21
-37.731376
 31
0.0
  0
ARC
  5
200
100
AcDbEntity
  8
1
100
AcDbCircle
 10
-239.694112
 20
-37.731376
 30
0.0
 40
2.0
100
AcDbArc
 50
180.0
 51
270.0
  0
ARC
  5
201
100
AcDbEntity
  8
1
100
AcDbCircle
 10
-248.694112
 20
-37.731376
 30
0.0
 40
2.0
100
AcDbArc
 50
270.0
 51
360.0
  0
ARC
  5
202
100
AcDbEntity
  8
1
100
AcDbCircle
 10
-248.694112
 20
-13.635467
 30
0.0
 40
2.0
100
AcDbArc
 50
0.0
 51
90.0
  0
ARC
  5
203
100
AcDbEntity
  8
1
100
AcDbCircle
 10
-239.694112
 20
-13.635467
 30
0.0
 40
2.0
100
AcDbArc
 50
90.0
 51
180.0
  0
ARC
  5
204
100
AcDbEntity
  8
1
100
AcDbCircle
 10
-213.194112
 20
-186.838763
 30
0.0
 40
12.0
100
AcDbArc
 50
116.4901
 51
180.0
  0
ARC
  5
205
100
AcDbEntity
  8
1
100
AcDbCircle
 10
-275.194112
 20
-186.838763
 30
0.0
 40
12.0
100
AcDbArc
 50
0.0
 51
63.5099
  0
LINE
  5
206
100
AcDbEntity
  8
1
100
AcDbLine
 10
-230.285147
 20
-186.838763
 30
0.0
 11
-225.194112
 21
-234.635467
 31
0.0
  0
LINE
  5
207
100
AcDbEntity
  8
1
100
AcDbLine
 10
-258.103078
 20
-186.838763
 30
0.0
 11
-263.194112
 21
-234.635467
 31
0.0
  0
ARC
  5
208
100
AcDbEntity
  8
1
100
AcDbCircle
 10
-222.80165
 20
-186.041663
 30
0.0
 40
7.525828
100
AcDbArc
 50
109.207125
 51
186.079899
  0
ARC
  5
209
100
AcDbEntity
  8
1
100
AcDbCircle
 10
-265.586574
 20
-186.041663
 30
0.0
 40
7.525828
100
AcDbArc
 50
353.920101
 51
70.792875
  0
ARC
  5
20A
100
AcDbEntity
  8
1
100
AcDbCircle
 10
-273.194112
 20
-63.682617
 30
0.0
 40
10.0
100
AcDbArc
 50
295.444058
 51
360.0
  0
LINE
  5
20B
100
AcDbEntity
  8
1
100
AcDbLine
 10
-234.896003
 20
-15.870531
 30
0.0
 11
-232.216055
 21
-61.395435
 31
0.0
  0
ARC
  5
20C
100
AcDbEntity
  8
1
100
AcDbCircle
 10
-230.902916
 20
-15.635467
 30
0.0
 40
4.0
100
AcDbArc
 50
90.0
 51
183.368985
  0
ARC
  5
20D
100
AcDbEntity
  8
1
100
AcDbCircle
 10
-222.233337
 20
-60.807775
 30
0.0
 40
10.0
100
AcDbArc
 50
183.368985
 51
251.013533
  0
LINE
  5
20E
100
AcDbEntity
  8
1
100
AcDbLine
 10
-253.492221
 20
-15.870531
 30
0.0
 11
-256.172169
 21
-61.395435
 31
0.0
  0
ARC
  5
20F
100
AcDbEntity
  8
1
100
AcDbCircle
 10
-257.485308
 20
-15.635467
 30
0.0
 40
4.0
100
AcDbArc
 50
356.631015
 51
90.0
  0
ARC
  5
210
100
AcDbEntity
  8
1
100
AcDbCircle
 10
-266.154887
 20
-60.807775
 30
0.0
 40
10.0
100
AcDbArc
 50
288.986467
 51
356.631015
  0
LINE
  5
211
100
AcDbEntity
  8
1
100
AcDbLine
 10
-187.006112
 20
-107.635467
 30
0.0
 11
-186.194112
 21
-108.447467
 31
0.0
  0
LINE
  5
212
100
AcDbEntity
  8
1
100
AcDbLine
 10
-186.194112
 20
-108.447467
 30
0.0
 11
-186.194112
 21
-110.635467
 31
0.0
  0
LINE
  5
213
100
AcDbEntity
  8
1
100
AcDbLine
 10
-186.194112
 20
-108.447467
 30
0.0
 11
-189.019855
 21
-108.447467
 31
0.0
  0
LINE
  5
214
100
AcDbEntity
  8
1
 62
     2
100
AcDbLine
 10
-187.006112
 20
-107.635467
 30
0.0
 11
-187.006112
 21
-110.635467
 31
0.0
  0
LINE
  5
215
100
AcDbEntity
  8
1
100
AcDbLine
 10
-189.264612
 20
-107.635467
 30
0.0
 11
-187.006112
 21
-107.635467
 31
0.0
  0
LINE
  5
216
100
AcDbEntity
  8
1
100
AcDbLine
 10
-301.382112
 20
-107.635467
 30
0.0
 11
-302.194112
 21
-108.447467
 31
0.0
  0
LINE
  5
217
100
AcDbEntity
  8
1
100
AcDbLine
 10
-302.194112
 20
-108.447467
 30
0.0
 11
-302.194112
 21
-110.635467
 31
0.0
  0
LINE
  5
218
100
AcDbEntity
  8
1
100
AcDbLine
 10
-302.194112
 20
-108.447467
 30
0.0
 11
-299.368369
 21
-108.447467
 31
0.0
  0
LINE
  5
219
100
AcDbEntity
  8
1
 62
     2
100
AcDbLine
 10
-301.382112
 20
-107.635467
 30
0.0
 11
-301.382112
 21
-110.635467
 31
0.0
  0
LINE
  5
21A
100
AcDbEntity
  8
1
100
AcDbLine
 10
-299.123613
 20
-107.635467
 30
0.0
 11
-301.382112
 21
-107.635467
 31
0.0
  0
ARC
  5
21B
100
AcDbEntity
  8
1
100
AcDbCircle
 10
-215.194112
 20
-63.682617
 30
0.0
 40
10.0
100
AcDbArc
 50
180.0
 51
244.555942
  0
CIRCLE
  5
21C
100
AcDbEntity
  8
1
100
AcDbCircle
 10
-244.194112
 20
-124.635467
 30
0.0
 40
53.5
  0
LINE
  5
21D
100
AcDbEntity
  8
1
100
AcDbLine
 10
-186.694112
 20
-124.635467
 30
0.0
 11
-179.194112
 21
-124.635467
 31
0.0
  0
LINE
  5
21E
100
AcDbEntity
  8
1
100
AcDbLine
 10
-297.694112
 20
-124.635467
 30
0.0
 11
-309.194112
 21
-124.635467
 31
0.0
  0
CIRCLE
  5
21F
100
AcDbEntity
  8
1
100
AcDbCircle
 10
-244.194112
 20
-124.635467
 30
0.0
 40
38.5
  0
ARC
  5
220
100
AcDbEntity
  8
1
100
AcDbCircle
 10
-244.194112
 20
-124.635467
 30
0.0
 40
32.5
100
AcDbArc
 50
115.509861
 51
244.490139
  0
ARC
  5
221
100
AcDbEntity
  8
1
100
AcDbCircle
 10
-244.194112
 20
-124.635467
 30
0.0
 40
32.5
100
AcDbArc
 50
295.509861
 51
64.490139
  0
ARC
  5
222
100
AcDbEntity
  8
1
100
AcDbCircle
 10
-244.194112
 20
-124.635467
 30
0.0
 40
33.5
100
AcDbArc
 50
109.555584
 51
250.444416
  0
ARC
  5
223
100
AcDbEntity
  8
1
100
AcDbCircle
 10
-244.194112
 20
-124.635467
 30
0.0
 40
33.5
100
AcDbArc
 50
289.555584
 51
70.444416
  0
LINE
  5
224
100
AcDbEntity
  8
1
100
AcDbLine
 10
-230.197453
 20
-95.303854
 30
0.0
 11
-258.190771
 21
-95.303854
 31
0.0
  0
ARC
  5
225
100
AcDbEntity
  8
1
100
AcDbCircle
 10
-244.194112
 20
-109.877059
 30
0.0
 40
20.206057
100
AcDbArc
 50
46.156083
 51
133.843917
  0
LINE
  5
226
100
AcDbEntity
  8
1
100
AcDbLine
 10
-230.197453
 20
-153.967081
 30
0.0
 11
-258.190771
 21
-153.967081
 31
0.0
  0
ARC
  5
227
100
AcDbEntity
  8
1
100
AcDbCircle
 10
-244.194112
 20
-139.393876
 30
0.0
 40
20.206057
100
AcDbArc
 50
226.156083
 51
313.843917
  0
ARC
  5
228
100
AcDbEntity
  8
1
100
AcDbCircle
 10
-244.194112
 20
-124.635467
 30
0.0
 40
11.0
100
AcDbArc
 50
117.004399
 51
62.995601
  0
LINE
  5
229
100
AcDbEntity
  8
1
100
AcDbLine
 10
-254.756011
 20
-111.135467
 30
0.0
 11
-233.632214
 21
-111.135467
 31
0.0
  0
LINE
  5
22A
100
AcDbEntity
  8
1
100
AcDbLine
 10
-254.780049
 20
-141.135467
 30
0.0
 11
-233.608176
 21
-141.135467
 31
0.0
  0
LINE
  5
22B
100
AcDbEntity
  8
1
100
AcDbLine
 10
-231.735273
 20
-150.984063
 30
0.0
 11
-231.735273
 21
-143.190272
 31
0.0
  0
LINE
  5
22C
100
AcDbEntity
  8
1
100
AcDbLine
 10
-231.735273
 20
-109.062434
 30
0.0
 11
-231.735273
 21
-98.286872
 31
0.0
  0
LINE
  5
22D
100
AcDbEntity
  8
1
100
AcDbLine
 10
-256.652951
 20
-150.984063
 30
0.0
 11
-256.652951
 21
-143.190272
 31
0.0
  0
LINE
  5
22E
100
AcDbEntity
  8
1
100
AcDbLine
 10
-256.652951
 20
-109.062434
 30
0.0
 11
-256.652951
 21
-98.286872
 31
0.0
  0
ARC
  5
22F
100
AcDbEntity
  8
1
100
AcDbCircle
 10
-244.194112
 20
-95.376961
 30
0.0
 40
20.088633
100
AcDbArc
 50
238.280249
 51
301.719751
  0
ARC
  5
230
100
AcDbEntity
  8
1
100
AcDbCircle
 10
-244.194112
 20
-156.661537
 30
0.0
 40
19.906821
100
AcDbArc
 50
57.874583
 51
122.125417
  0
ARC
  5
231
100
AcDbEntity
  8
1
100
AcDbCircle
 10
-235.735273
 20
-109.062434
 30
0.0
 40
4.0
100
AcDbArc
 50
301.719751
 51
360.0
  0
ARC
  5
232
100
AcDbEntity
  8
1
100
AcDbCircle
 10
-252.652951
 20
-109.062434
 30
0.0
 40
4.0
100
AcDbArc
 50
180.0
 51
238.280249
  0
ARC
  5
233
100
AcDbEntity
  8
1
100
AcDbCircle
 10
-252.652951
 20
-143.190272
 30
0.0
 40
4.0
100
AcDbArc
 50
122.125417
 51
180.0
  0
ARC
  5
234
100
AcDbEntity
  8
1
100
AcDbCircle
 10
-235.735273
 20
-143.190272
 30
0.0
 40
4.0
100
AcDbArc
 50
0.0
 51
57.874583
  0
ARC
  5
235
100
AcDbEntity
  8
1
100
AcDbCircle
 10
-244.194112
 20
-124.635467
 30
0.0
 40
31.943425
100
AcDbArc
 50
113.330408
 51
246.669592
  0
ARC
  5
236
100
AcDbEntity
  8
1
100
AcDbCircle
 10
-244.194112
 20
-124.635467
 30
0.0
 40
31.943425
100
AcDbArc
 50
293.330408
 51
66.669592
  0
LINE
  5
237
100
AcDbEntity
  8
1
100
AcDbLine
 10
-256.652951
 20
-98.286872
 30
0.0
 11
-231.735273
 21
-98.286872
 31
0.0
  0
LINE
  5
238
100
AcDbEntity
  8
1
100
AcDbLine
 10
-256.652951
 20
-150.984063
 30
0.0
 11
-231.735273
 21
-150.984063
 31
0.0
  0
ARC
  5
239
100
AcDbEntity
  8
1
100
AcDbCircle
 10
-236.12108
 20
-98.286872
 30
0.0
 40
4.385806
100
AcDbArc
 50
0.0
 51
42.855572
  0
ARC
  5
23A
100
AcDbEntity
  8
1
100
AcDbCircle
 10
-252.267145
 20
-98.286872
 30
0.0
 40
4.385806
100
AcDbArc
 50
137.144428
 51
180.0
  0
ARC
  5
23B
100
AcDbEntity
  8
1
100
AcDbCircle
 10
-236.12108
 20
-150.984063
 30
0.0
 40
4.385806
100
AcDbArc
 50
317.144428
 51
0.0
  0
ARC
  5
23C
100
AcDbEntity
  8
1
100
AcDbCircle
 10
-252.267145
 20
-150.984063
 30
0.0
 40
4.385806
100
AcDbArc
 50
180.0
 51
222.855572
  0
LINE
  5
23D
100
AcDbEntity
  8
1
100
AcDbLine
 10
-237.194112
 20
2.364533
 30
0.0
 11
-237.194112
 21
11.364533
 31
0.0
  0
LINE
  5
23E
100
AcDbEntity
  8
1
100
AcDbLine
 10
-251.194112
 20
2.364533
 30
0.0
 11
-251.194112
 21
11.364533
 31
0.0
  0
LINE
  5
23F
100
AcDbEntity
  8
1
100
AcDbLine
 10
83.968825
 20
2.364533
 30
0.0
 11
83.968825
 21
11.364533
 31
0.0
  0
LINE
  5
240
100
AcDbEntity
  8
1
100
AcDbLine
 10
69.968825
 20
2.364533
 30
0.0
 11
69.968825
 21
11.364533
 31
0.0
  0
LINE
  5
241
100
AcDbEntity
  8
2
  6
CENTER
 62
     2
100
AcDbLine
 10
-244.194112
 20
119.857559
 30
0.0
 11
-244.194112
 21
243.004042
 31
0.0
  0
LINE
  5
242
100
AcDbEntity
  8
2
  6
CENTER
 62
     2
100
AcDbLine
 10
-322.184192
 20
175.907236
 30
0.0
 11
-34.623142
 21
175.907236
 31
0.0
  0
ARC
  5
243
100
AcDbEntity
  8
2
100
AcDbCircle
 10
-279.194112
 20
175.907236
 30
0.0
 40
2.0
100
AcDbArc
 50
111.803748
 51
248.196252
  0
LINE
  5
244
100
AcDbEntity
  8
2
100
AcDbLine
 10
-279.936969
 20
177.764159
 30
0.0
 11
-249.76554
 21
189.834159
 31
0.0
  0
LINE
  5
245
100
AcDbEntity
  8
2
100
AcDbLine
 10
-279.936969
 20
174.050313
 30
0.0
 11
-251.451255
 21
162.654679
 31
0.0
  0
LINE
  5
246
100
AcDbEntity
  8
2
100
AcDbLine
 10
-249.194112
 20
158.907236
 30
0.0
 11
-239.194112
 21
158.907236
 31
0.0
  0
ARC
  5
247
100
AcDbEntity
  8
2
100
AcDbCircle
 10
-244.194112
 20
175.907236
 30
0.0
 40
15.0
100
AcDbArc
 50
298.072487
 51
241.927513
  0
LINE
  5
248
100
AcDbEntity
  8
2
100
AcDbLine
 10
-250.194112
 20
159.907236
 30
0.0
 11
-250.194112
 21
163.258125
 31
0.0
  0
LINE
  5
249
100
AcDbEntity
  8
2
100
AcDbLine
 10
-238.194112
 20
159.907236
 30
0.0
 11
-238.194112
 21
163.258125
 31
0.0
  0
ARC
  5
24A
100
AcDbEntity
  8
2
100
AcDbCircle
 10
-249.194112
 20
159.907236
 30
0.0
 40
1.0
100
AcDbArc
 50
180.0
 51
270.0
  0
ARC
  5
24B
100
AcDbEntity
  8
2
100
AcDbCircle
 10
-252.194112
 20
160.797755
 30
0.0
 40
2.0
100
AcDbArc
 50
0.0
 51
68.196252
  0
ARC
  5
24C
100
AcDbEntity
  8
2
100
AcDbCircle
 10
-236.194112
 20
160.907236
 30
0.0
 40
2.0
100
AcDbArc
 50
118.072487
 51
180.0
  0
ARC
  5
24D
100
AcDbEntity
  8
2
100
AcDbCircle
 10
-252.194112
 20
160.907236
 30
0.0
 40
2.0
100
AcDbArc
 50
0.0
 51
61.927513
  0
LINE
  5
24E
100
AcDbEntity
  8
2
100
AcDbLine
 10
-243.799375
 20
190.902041
 30
0.0
 11
-53.930954
 21
185.903773
 31
0.0
  0
ARC
  5
24F
100
AcDbEntity
  8
2
100
AcDbCircle
 10
-149.694112
 20
162.407236
 30
0.0
 40
0.5
100
AcDbArc
 50
270.0
 51
360.0
  0
ARC
  5
250
100
AcDbEntity
  8
2
100
AcDbCircle
 10
-158.694112
 20
162.407236
 30
0.0
 40
0.5
100
AcDbArc
 50
167.306936
 51
270.0
  0
LINE
  5
251
100
AcDbEntity
  8
2
100
AcDbLine
 10
-158.694112
 20
161.907236
 30
0.0
 11
-149.694112
 21
161.907236
 31
0.0
  0
LINE
  5
252
100
AcDbEntity
  8
2
100
AcDbLine
 10
-149.194112
 20
162.407236
 30
0.0
 11
-149.194112
 21
162.915895
 31
0.0
  0
ARC
  5
253
100
AcDbEntity
  8
2
100
AcDbCircle
 10
-159.669673
 20
162.626964
 30
0.0
 40
0.5
100
AcDbArc
 50
347.306936
 51
91.507958
  0
ARC
  5
254
100
AcDbEntity
  8
2
100
AcDbCircle
 10
-148.694112
 20
162.915895
 30
0.0
 40
0.5
100
AcDbArc
 50
91.507958
 51
180.0
  0
LINE
  5
255
100
AcDbEntity
  8
2
100
AcDbLine
 10
-236.354862
 20
161.108407
 30
0.0
 11
-53.930954
 21
165.910699
 31
0.0
  0
ARC
  5
256
100
AcDbEntity
  8
2
100
AcDbCircle
 10
-148.694112
 20
188.898577
 30
0.0
 40
0.5
100
AcDbArc
 50
180.0
 51
268.492042
  0
ARC
  5
257
100
AcDbEntity
  8
2
100
AcDbCircle
 10
-159.669673
 20
189.187508
 30
0.0
 40
0.5
100
AcDbArc
 50
268.492042
 51
12.693064
  0
LINE
  5
258
100
AcDbEntity
  8
2
100
AcDbLine
 10
-149.194112
 20
189.407236
 30
0.0
 11
-149.194112
 21
188.898577
 31
0.0
  0
LINE
  5
259
100
AcDbEntity
  8
2
100
AcDbLine
 10
-158.694112
 20
189.907236
 30
0.0
 11
-149.694112
 21
189.907236
 31
0.0
  0
ARC
  5
25A
100
AcDbEntity
  8
2
100
AcDbCircle
 10
-158.694112
 20
189.407236
 30
0.0
 40
0.5
100
AcDbArc
 50
90.0
 51
192.693064
  0
ARC
  5
25B
100
AcDbEntity
  8
2
100
AcDbCircle
 10
-149.694112
 20
189.407236
 30
0.0
 40
0.5
100
AcDbArc
 50
0.0
 51
90.0
  0
ARC
  5
25C
100
AcDbEntity
  8
2
100
AcDbCircle
 10
-236.30223
 20
159.1091
 30
0.0
 40
2.0
100
AcDbArc
 50
91.507958
 51
164.570915
  0
ARC
  5
25D
100
AcDbEntity
  8
2
100
AcDbCircle
 10
-239.194112
 20
159.907236
 30
0.0
 40
1.0
100
AcDbArc
 50
270.0
 51
360.0
  0
LINE
  5
25E
100
AcDbEntity
  8
2
  6
CENTER
 62
     2
100
AcDbLine
 10
-154.194112
 20
193.499263
 30
0.0
 11
-154.194112
 21
158.17605
 31
0.0
  0
LINE
  5
25F
100
AcDbEntity
  8
2
100
AcDbLine
 10
-241.697055
 20
181.540947
 30
0.0
 11
-238.007768
 21
181.540947
 31
0.0
  0
LINE
  5
260
100
AcDbEntity
  8
2
100
AcDbLine
 10
-237.960981
 20
181.342753
 30
0.0
 11
-241.580087
 21
179.5332
 31
0.0
  0
CIRCLE
  5
261
100
AcDbEntity
  8
2
100
AcDbCircle
 10
-244.194112
 20
175.907236
 30
0.0
 40
14.0
  0
LINE
  5
262
100
AcDbEntity
  8
2
100
AcDbLine
 10
-242.302681
 20
179.145748
 30
0.0
 11
-245.921788
 21
177.336195
 31
0.0
  0
LINE
  5
263
100
AcDbEntity
  8
2
100
AcDbLine
 10
-246.300304
 20
177.570131
 30
0.0
 11
-246.300304
 21
179.082394
 31
0.0
  0
LINE
  5
264
100
AcDbEntity
  8
2
100
AcDbLine
 10
-246.644381
 20
179.145748
 30
0.0
 11
-250.344714
 21
177.295582
 31
0.0
  0
LINE
  5
265
100
AcDbEntity
  8
2
100
AcDbLine
 10
-250.642004
 20
175.373126
 30
0.0
 11
-250.642004
 21
181.279399
 31
0.0
  0
LINE
  5
266
100
AcDbEntity
  8
2
100
AcDbLine
 10
-246.644381
 20
176.948743
 30
0.0
 11
-250.263488
 21
175.13919
 31
0.0
  0
LINE
  5
267
100
AcDbEntity
  8
2
100
AcDbLine
 10
-250.309623
 20
177.146937
 30
0.0
 11
-246.691168
 21
177.146937
 31
0.0
  0
ARC
  5
268
100
AcDbEntity
  8
2
100
AcDbCircle
 10
-250.380456
 20
175.373126
 30
0.0
 40
0.261548
100
AcDbArc
 50
180.0
 51
296.565051
  0
ARC
  5
269
100
AcDbEntity
  8
2
100
AcDbCircle
 10
-250.309623
 20
177.225401
 30
0.0
 40
0.078464
100
AcDbArc
 50
116.565051
 51
270.0
  0
LINE
  5
26A
100
AcDbEntity
  8
2
100
AcDbLine
 10
-246.143375
 20
168.803549
 30
0.0
 11
-242.409965
 21
168.803549
 31
0.0
  0
LINE
  5
26B
100
AcDbEntity
  8
2
100
AcDbLine
 10
-246.143375
 20
177.146937
 30
0.0
 11
-242.409965
 21
177.146937
 31
0.0
  0
LINE
  5
26C
100
AcDbEntity
  8
2
100
AcDbLine
 10
-246.300304
 20
176.990008
 30
0.0
 11
-246.300304
 21
168.960478
 31
0.0
  0
ARC
  5
26D
100
AcDbEntity
  8
2
100
AcDbCircle
 10
-246.143375
 20
168.960478
 30
0.0
 40
0.156929
100
AcDbArc
 50
180.0
 51
270.0
  0
ARC
  5
26E
100
AcDbEntity
  8
2
100
AcDbCircle
 10
-246.038755
 20
177.570131
 30
0.0
 40
0.261548
100
AcDbArc
 50
180.0
 51
296.565051
  0
ARC
  5
26F
100
AcDbEntity
  8
2
100
AcDbCircle
 10
-246.143375
 20
176.990008
 30
0.0
 40
0.156929
100
AcDbArc
 50
90.0
 51
180.0
  0
ARC
  5
270
100
AcDbEntity
  8
2
100
AcDbCircle
 10
-246.691168
 20
177.042318
 30
0.0
 40
0.104619
100
AcDbArc
 50
296.565051
 51
90.0
  0
LINE
  5
271
100
AcDbEntity
  8
2
100
AcDbLine
 10
-242.253036
 20
168.960478
 30
0.0
 11
-242.253036
 21
176.990008
 31
0.0
  0
ARC
  5
272
100
AcDbEntity
  8
2
100
AcDbCircle
 10
-242.409965
 20
168.960478
 30
0.0
 40
0.156929
100
AcDbArc
 50
270.0
 51
360.0
  0
ARC
  5
273
100
AcDbEntity
  8
2
100
AcDbCircle
 10
-242.409965
 20
176.990008
 30
0.0
 40
0.156929
100
AcDbArc
 50
0.0
 51
90.0
  0
LINE
  5
274
100
AcDbEntity
  8
2
100
AcDbLine
 10
-250.380456
 20
181.540947
 30
0.0
 11
-246.691168
 21
181.540947
 31
0.0
  0
LINE
  5
275
100
AcDbEntity
  8
2
100
AcDbLine
 10
-250.309623
 20
179.343942
 30
0.0
 11
-246.691168
 21
179.343942
 31
0.0
  0
LINE
  5
276
100
AcDbEntity
  8
2
100
AcDbLine
 10
-246.644381
 20
181.342753
 30
0.0
 11
-250.344714
 21
179.492587
 31
0.0
  0
ARC
  5
277
100
AcDbEntity
  8
2
100
AcDbCircle
 10
-250.380456
 20
181.279399
 30
0.0
 40
0.261548
100
AcDbArc
 50
90.0
 51
180.0
  0
ARC
  5
278
100
AcDbEntity
  8
2
100
AcDbCircle
 10
-250.309623
 20
179.422406
 30
0.0
 40
0.078464
100
AcDbArc
 50
116.565051
 51
270.0
  0
LINE
  5
279
100
AcDbEntity
  8
2
100
AcDbLine
 10
-246.038755
 20
181.540947
 30
0.0
 11
-242.349468
 21
181.540947
 31
0.0
  0
LINE
  5
27A
100
AcDbEntity
  8
2
100
AcDbLine
 10
-246.038755
 20
179.343942
 30
0.0
 11
-242.349468
 21
179.343942
 31
0.0
  0
LINE
  5
27B
100
AcDbEntity
  8
2
100
AcDbLine
 10
-242.302681
 20
181.342753
 30
0.0
 11
-245.921788
 21
179.5332
 31
0.0
  0
ARC
  5
27C
100
AcDbEntity
  8
2
100
AcDbCircle
 10
-246.038755
 20
181.279399
 30
0.0
 40
0.261548
100
AcDbArc
 50
90.0
 51
180.0
  0
ARC
  5
27D
100
AcDbEntity
  8
2
100
AcDbCircle
 10
-246.691168
 20
181.436328
 30
0.0
 40
0.104619
100
AcDbArc
 50
296.565051
 51
90.0
  0
ARC
  5
27E
100
AcDbEntity
  8
2
100
AcDbCircle
 10
-246.038755
 20
179.767136
 30
0.0
 40
0.261548
100
AcDbArc
 50
180.0
 51
296.565051
  0
ARC
  5
27F
100
AcDbEntity
  8
2
100
AcDbCircle
 10
-246.038755
 20
179.082394
 30
0.0
 40
0.261548
100
AcDbArc
 50
90.0
 51
180.0
  0
ARC
  5
280
100
AcDbEntity
  8
2
100
AcDbCircle
 10
-246.691168
 20
179.239323
 30
0.0
 40
0.104619
100
AcDbArc
 50
296.565051
 51
90.0
  0
LINE
  5
281
100
AcDbEntity
  8
2
100
AcDbLine
 10
-246.300304
 20
179.767136
 30
0.0
 11
-246.300304
 21
181.279399
 31
0.0
  0
ARC
  5
282
100
AcDbEntity
  8
2
100
AcDbCircle
 10
-241.697055
 20
181.279399
 30
0.0
 40
0.261548
100
AcDbArc
 50
90.0
 51
180.0
  0
ARC
  5
283
100
AcDbEntity
  8
2
100
AcDbCircle
 10
-242.349468
 20
181.436328
 30
0.0
 40
0.104619
100
AcDbArc
 50
296.565051
 51
90.0
  0
ARC
  5
284
100
AcDbEntity
  8
2
100
AcDbCircle
 10
-241.697055
 20
179.767136
 30
0.0
 40
0.261548
100
AcDbArc
 50
180.0
 51
296.565051
  0
ARC
  5
285
100
AcDbEntity
  8
2
100
AcDbCircle
 10
-242.349468
 20
179.239323
 30
0.0
 40
0.104619
100
AcDbArc
 50
296.565051
 51
90.0
  0
LINE
  5
286
100
AcDbEntity
  8
2
100
AcDbLine
 10
-241.958603
 20
179.767136
 30
0.0
 11
-241.958603
 21
181.279399
 31
0.0
  0
ARC
  5
287
100
AcDbEntity
  8
2
100
AcDbCircle
 10
-238.007768
 20
181.436328
 30
0.0
 40
0.104619
100
AcDbArc
 50
296.565051
 51
90.0
  0
LINE
  5
288
100
AcDbEntity
  8
2
100
AcDbLine
 10
-244.656052
 20
228.022457
 30
0.0
 11
-247.738258
 21
235.463561
 31
0.0
  0
LINE
  5
289
100
AcDbEntity
  8
2
100
AcDbLine
 10
-243.732172
 20
228.022457
 30
0.0
 11
-240.649966
 21
235.463561
 31
0.0
  0
ARC
  5
28A
100
AcDbEntity
  8
2
100
AcDbCircle
 10
-244.194112
 20
228.213799
 30
0.0
 40
0.5
100
AcDbArc
 50
202.5
 51
337.5
  0
ARC
  5
28B
100
AcDbEntity
  8
2
100
AcDbCircle
 10
-248.200198
 20
235.27222
 30
0.0
 40
0.5
100
AcDbArc
 50
22.5
 51
93.860598
  0
ARC
  5
28C
100
AcDbEntity
  8
2
100
AcDbCircle
 10
-240.188026
 20
235.27222
 30
0.0
 40
0.5
100
AcDbArc
 50
86.139402
 51
157.5
  0
ARC
  5
28D
100
AcDbEntity
  8
2
100
AcDbCircle
 10
-229.940266
 20
233.674683
 30
0.0
 40
0.5
100
AcDbArc
 50
76.139402
 51
147.5
  0
ARC
  5
28E
100
AcDbEntity
  8
2
100
AcDbCircle
 10
-237.830715
 20
235.065982
 30
0.0
 40
0.5
100
AcDbArc
 50
12.5
 51
83.860598
  0
ARC
  5
28F
100
AcDbEntity
  8
2
100
AcDbCircle
 10
-235.111172
 20
227.419145
 30
0.0
 40
0.5
100
AcDbArc
 50
192.5
 51
327.5
  0
LINE
  5
290
100
AcDbEntity
  8
2
100
AcDbLine
 10
-234.689477
 20
227.150495
 30
0.0
 11
-230.361962
 21
233.943332
 31
0.0
  0
LINE
  5
291
100
AcDbEntity
  8
2
100
AcDbLine
 10
-235.59932
 20
227.310925
 30
0.0
 11
-237.342567
 21
235.174201
 31
0.0
  0
ARC
  5
292
100
AcDbEntity
  8
2
100
AcDbCircle
 10
-220.125602
 20
230.321911
 30
0.0
 40
0.5
100
AcDbArc
 50
66.139402
 51
137.5
  0
ARC
  5
293
100
AcDbEntity
  8
2
100
AcDbCircle
 10
-227.654581
 20
233.062235
 30
0.0
 40
0.5
100
AcDbArc
 50
2.5
 51
73.860598
  0
ARC
  5
294
100
AcDbEntity
  8
2
100
AcDbCircle
 10
-226.304214
 20
225.059327
 30
0.0
 40
0.5
100
AcDbArc
 50
182.5
 51
317.5
  0
LINE
  5
295
100
AcDbEntity
  8
2
100
AcDbLine
 10
-225.935575
 20
224.721532
 30
0.0
 11
-220.494241
 21
230.659706
 31
0.0
  0
LINE
  5
296
100
AcDbEntity
  8
2
100
AcDbLine
 10
-226.803738
 20
225.037518
 30
0.0
 11
-227.155057
 21
233.084045
 31
0.0
  0
ARC
  5
297
100
AcDbEntity
  8
2
100
AcDbCircle
 10
-211.042248
 20
225.315777
 30
0.0
 40
0.5
100
AcDbArc
 50
56.139402
 51
127.5
  0
ARC
  5
298
100
AcDbEntity
  8
2
100
AcDbCircle
 10
-217.980992
 20
229.321863
 30
0.0
 40
0.5
100
AcDbArc
 50
352.5
 51
63.860598
  0
ARC
  5
299
100
AcDbEntity
  8
2
100
AcDbCircle
 10
-218.04083
 20
221.206048
 30
0.0
 40
0.5
100
AcDbArc
 50
172.5
 51
307.5
  0
LINE
  5
29A
100
AcDbEntity
  8
2
100
AcDbLine
 10
-217.73645
 20
220.809372
 30
0.0
 11
-211.346629
 21
225.712454
 31
0.0
  0
LINE
  5
29B
100
AcDbEntity
  8
2
100
AcDbLine
 10
-218.536553
 20
221.271311
 30
0.0
 11
-217.48527
 21
229.2566
 31
0.0
  0
ARC
  5
29C
100
AcDbEntity
  8
2
100
AcDbCircle
 10
-202.966196
 20
218.80839
 30
0.0
 40
0.5
100
AcDbArc
 50
46.139402
 51
117.5
  0
ARC
  5
29D
100
AcDbEntity
  8
2
100
AcDbCircle
 10
-209.103876
 20
223.958514
 30
0.0
 40
0.5
100
AcDbArc
 50
342.5
 51
53.860598
  0
ARC
  5
29E
100
AcDbEntity
  8
2
100
AcDbCircle
 10
-210.572101
 20
215.976388
 30
0.0
 40
0.5
100
AcDbArc
 50
162.5
 51
297.5
  0
LINE
  5
29F
100
AcDbEntity
  8
2
100
AcDbLine
 10
-210.341227
 20
215.532882
 30
0.0
 11
-203.19707
 21
219.251895
 31
0.0
  0
LINE
  5
2A0
100
AcDbEntity
  8
2
100
AcDbLine
 10
-211.04896
 20
216.126741
 30
0.0
 11
-208.627017
 21
223.808161
 31
0.0
  0
ARC
  5
2A1
100
AcDbEntity
  8
2
100
AcDbCircle
 10
-196.142834
 20
210.997472
 30
0.0
 40
0.5
100
AcDbArc
 50
36.139402
 51
107.5
  0
ARC
  5
2A2
100
AcDbEntity
  8
2
100
AcDbCircle
 10
-201.292958
 20
217.135152
 30
0.0
 40
0.5
100
AcDbArc
 50
332.5
 51
43.860598
  0
ARC
  5
2A3
100
AcDbEntity
  8
2
100
AcDbCircle
 10
-204.12496
 20
209.529247
 30
0.0
 40
0.5
100
AcDbArc
 50
152.5
 51
287.5
  0
LINE
  5
2A4
100
AcDbEntity
  8
2
100
AcDbLine
 10
-203.974607
 20
209.052388
 30
0.0
 11
-196.293187
 21
211.474331
 31
0.0
  0
LINE
  5
2A5
100
AcDbEntity
  8
2
100
AcDbLine
 10
-204.568465
 20
209.760121
 30
0.0
 11
-200.849453
 21
216.904277
 31
0.0
  0
ARC
  5
2A6
100
AcDbEntity
  8
2
100
AcDbCircle
 10
-190.779485
 20
202.120356
 30
0.0
 40
0.5
100
AcDbArc
 50
26.139402
 51
97.5
  0
ARC
  5
2A7
100
AcDbEntity
  8
2
100
AcDbCircle
 10
-194.785571
 20
209.0591
 30
0.0
 40
0.5
100
AcDbArc
 50
322.5
 51
33.860598
  0
ARC
  5
2A8
100
AcDbEntity
  8
2
100
AcDbCircle
 10
-198.895299
 20
202.060517
 30
0.0
 40
0.5
100
AcDbArc
 50
142.5
 51
277.5
  0
LINE
  5
2A9
100
AcDbEntity
  8
2
100
AcDbLine
 10
-198.830036
 20
201.564795
 30
0.0
 11
-190.844748
 21
202.616078
 31
0.0
  0
LINE
  5
2AA
100
AcDbEntity
  8
2
100
AcDbLine
 10
-199.291976
 20
202.364898
 30
0.0
 11
-194.388894
 21
208.754719
 31
0.0
  0
ARC
  5
2AB
100
AcDbEntity
  8
2
100
AcDbCircle
 10
-187.039113
 20
192.446767
 30
0.0
 40
0.5
100
AcDbArc
 50
16.139402
 51
87.5
  0
ARC
  5
2AC
100
AcDbEntity
  8
2
100
AcDbCircle
 10
-189.779437
 20
199.975745
 30
0.0
 40
0.5
100
AcDbArc
 50
312.5
 51
23.860598
  0
ARC
  5
2AD
100
AcDbEntity
  8
2
100
AcDbCircle
 10
-195.042021
 20
193.797134
 30
0.0
 40
0.5
100
AcDbArc
 50
132.5
 51
267.5
  0
LINE
  5
2AE
100
AcDbEntity
  8
2
100
AcDbLine
 10
-195.06383
 20
193.29761
 30
0.0
 11
-187.017303
 21
192.946291
 31
0.0
  0
LINE
  5
2AF
100
AcDbEntity
  8
2
100
AcDbLine
 10
-195.379816
 20
194.165773
 30
0.0
 11
-189.441642
 21
199.607107
 31
0.0
  0
ARC
  5
2B0
100
AcDbEntity
  8
2
100
AcDbCircle
 10
-186.426665
 20
190.161082
 30
0.0
 40
0.5
100
AcDbArc
 50
302.5
 51
13.860598
  0
LINE
  5
2B1
100
AcDbEntity
  8
2
100
AcDbLine
 10
-186.692761
 20
189.398715
 30
0.0
 11
-186.158015
 21
189.739386
 31
0.0
  0
ARC
  5
2B2
100
AcDbEntity
  8
2
100
AcDbCircle
 10
-244.194112
 20
175.907236
 30
0.0
 40
50.0
100
AcDbArc
 50
127.979872
 51
322.020128
  0
LINE
  5
2B3
100
AcDbEntity
  8
2
100
AcDbLine
 10
-192.959358
 20
150.907236
 30
0.0
 11
-179.194112
 21
150.907236
 31
0.0
  0
LINE
  5
2B4
100
AcDbEntity
  8
2
100
AcDbLine
 10
-169.194112
 20
160.907236
 30
0.0
 11
-169.194112
 21
162.876407
 31
0.0
  0
ARC
  5
2B5
100
AcDbEntity
  8
2
100
AcDbCircle
 10
-179.194112
 20
160.907236
 30
0.0
 40
10.0
100
AcDbArc
 50
270.0
 51
360.0
  0
ARC
  5
2B6
100
AcDbEntity
  8
2
100
AcDbCircle
 10
-259.194112
 20
240.907236
 30
0.0
 40
10.0
100
AcDbArc
 50
90.0
 51
180.0
  0
ARC
  5
2B7
100
AcDbEntity
  8
2
100
AcDbCircle
 10
-250.194112
 20
236.611437
 30
0.0
 40
1.0
100
AcDbArc
 50
180.0
 51
275.644778
  0
ARC
  5
2B8
100
AcDbEntity
  8
2
100
AcDbCircle
 10
-252.194112
 20
249.907236
 30
0.0
 40
1.0
100
AcDbArc
 50
0.0
 51
90.0
  0
LINE
  5
2B9
100
AcDbEntity
  8
2
100
AcDbLine
 10
-251.194112
 20
249.907236
 30
0.0
 11
-251.194112
 21
236.611437
 31
0.0
  0
LINE
  5
2BA
100
AcDbEntity
  8
2
100
AcDbLine
 10
-259.194112
 20
250.907236
 30
0.0
 11
-252.194112
 21
250.907236
 31
0.0
  0
LINE
  5
2BB
100
AcDbEntity
  8
2
100
AcDbLine
 10
-269.194112
 20
227.14199
 30
0.0
 11
-269.194112
 21
240.907236
 31
0.0
  0
ARC
  5
2BC
100
AcDbEntity
  8
2
100
AcDbCircle
 10
-192.959358
 20
135.907236
 30
0.0
 40
15.0
100
AcDbArc
 50
90.0
 51
142.020128
  0
ARC
  5
2BD
100
AcDbEntity
  8
2
100
AcDbCircle
 10
-284.194112
 20
227.14199
 30
0.0
 40
15.0
100
AcDbArc
 50
307.979872
 51
360.0
  0
ARC
  5
2BE
100
AcDbEntity
  8
2
100
AcDbCircle
 10
-244.194112
 20
175.907236
 30
0.0
 40
60.0
100
AcDbArc
 50
13.860598
 51
16.139402
  0
ARC
  5
2BF
100
AcDbEntity
  8
2
100
AcDbCircle
 10
-244.194112
 20
175.907236
 30
0.0
 40
60.0
100
AcDbArc
 50
23.860598
 51
26.139402
  0
ARC
  5
2C0
100
AcDbEntity
  8
2
100
AcDbCircle
 10
-244.194112
 20
175.907236
 30
0.0
 40
60.0
100
AcDbArc
 50
93.860598
 51
95.644778
  0
ARC
  5
2C1
100
AcDbEntity
  8
2
100
AcDbCircle
 10
-244.194112
 20
175.907236
 30
0.0
 40
60.0
100
AcDbArc
 50
83.860598
 51
86.139402
  0
ARC
  5
2C2
100
AcDbEntity
  8
2
100
AcDbCircle
 10
-244.194112
 20
175.907236
 30
0.0
 40
60.0
100
AcDbArc
 50
73.860598
 51
76.139402
  0
ARC
  5
2C3
100
AcDbEntity
  8
2
100
AcDbCircle
 10
-244.194112
 20
175.907236
 30
0.0
 40
60.0
100
AcDbArc
 50
63.860598
 51
66.139402
  0
ARC
  5
2C4
100
AcDbEntity
  8
2
100
AcDbCircle
 10
-244.194112
 20
175.907236
 30
0.0
 40
60.0
100
AcDbArc
 50
53.860598
 51
56.139402
  0
ARC
  5
2C5
100
AcDbEntity
  8
2
100
AcDbCircle
 10
-244.194112
 20
175.907236
 30
0.0
 40
60.0
100
AcDbArc
 50
43.860598
 51
46.139402
  0
ARC
  5
2C6
100
AcDbEntity
  8
2
100
AcDbCircle
 10
-244.194112
 20
175.907236
 30
0.0
 40
60.0
100
AcDbArc
 50
33.860598
 51
36.139402
  0
LINE
  5
2C7
100
AcDbEntity
  8
2
100
AcDbLine
 10
-242.072791
 20
196.413333
 30
0.0
 11
-245.608325
 21
199.948867
 31
0.0
  0
LINE
  5
2C8
100
AcDbEntity
  8
2
100
AcDbLine
 10
-242.072791
 20
203.4844
 30
0.0
 11
-245.608325
 21
199.948867
 31
0.0
  0
LINE
  5
2C9
100
AcDbEntity
  8
2
100
AcDbLine
 10
-241.719238
 20
203.130847
 30
0.0
 11
-244.901219
 21
199.948867
 31
0.0
  0
LINE
  5
2CA
100
AcDbEntity
  8
2
100
AcDbLine
 10
-241.719238
 20
196.766886
 30
0.0
 11
-244.901219
 21
199.948867
 31
0.0
  0
LINE
  5
2CB
100
AcDbEntity
  8
2
100
AcDbLine
 10
-241.719238
 20
196.766886
 30
0.0
 11
-242.072791
 21
196.413333
 31
0.0
  0
LINE
  5
2CC
100
AcDbEntity
  8
2
100
AcDbLine
 10
-241.719238
 20
203.130847
 30
0.0
 11
-242.072791
 21
203.4844
 31
0.0
  0
LINE
  5
2CD
100
AcDbEntity
  8
2
100
AcDbLine
 10
-269.599209
 20
165.956994
 30
0.0
 11
-272.850168
 21
169.207953
 31
0.0
  0
LINE
  5
2CE
100
AcDbEntity
  8
2
100
AcDbLine
 10
-273.7645
 20
161.791703
 30
0.0
 11
-277.015459
 21
165.042662
 31
0.0
  0
LINE
  5
2CF
100
AcDbEntity
  8
2
100
AcDbLine
 10
-266.672485
 20
156.708981
 30
0.0
 11
-262.366322
 21
158.724107
 31
0.0
  0
LINE
  5
2D0
100
AcDbEntity
  8
2
100
AcDbLine
 10
-267.025402
 20
155.052604
 30
0.0
 11
-263.403362
 21
156.671142
 31
0.0
  0
LINE
  5
2D1
100
AcDbEntity
  8
2
100
AcDbLine
 10
-266.672485
 20
156.708981
 30
0.0
 11
-263.649837
 21
160.007622
 31
0.0
  0
LINE
  5
2D2
100
AcDbEntity
  8
2
100
AcDbLine
 10
-268.568999
 20
156.61174
 30
0.0
 11
-264.665762
 21
161.023547
 31
0.0
  0
ARC
  5
2D3
100
AcDbEntity
  8
2
100
AcDbCircle
 10
-263.961795
 20
155.829193
 30
0.0
 40
10.402317
100
AcDbArc
 50
128.830069
 51
141.169931
  0
ARC
  5
2D4
100
AcDbEntity
  8
2
100
AcDbCircle
 10
-274.649831
 20
166.517229
 30
0.0
 40
10.402317
100
AcDbArc
 50
308.830069
 51
321.169931
  0
LINE
  5
2D5
100
AcDbEntity
  8
2
100
AcDbLine
 10
-273.7645
 20
161.791703
 30
0.0
 11
-269.599209
 21
165.956994
 31
0.0
  0
ARC
  5
2D6
100
AcDbEntity
  8
2
100
AcDbCircle
 10
-269.403159
 20
162.589617
 30
0.0
 40
1.724081
100
AcDbArc
 50
51.270542
 51
128.830069
  0
ARC
  5
2D7
100
AcDbEntity
  8
2
100
AcDbCircle
 10
-267.889407
 20
161.075865
 30
0.0
 40
1.724081
100
AcDbArc
 50
321.169931
 51
38.729458
  0
ARC
  5
2D8
100
AcDbEntity
  8
2
100
AcDbCircle
 10
-275.534447
 20
154.944577
 30
0.0
 40
11.524047
100
AcDbArc
 50
38.729458
 51
51.270542
  0
LINE
  5
2D9
100
AcDbEntity
  8
2
100
AcDbLine
 10
-264.665762
 20
161.023547
 30
0.0
 11
-263.649837
 21
160.007622
 31
0.0
  0
ARC
  5
2DA
100
AcDbEntity
  8
2
100
AcDbCircle
 10
-270.722219
 20
161.270557
 30
0.0
 40
1.724081
100
AcDbArc
 50
141.169931
 51
218.729458
  0
ARC
  5
2DB
100
AcDbEntity
  8
2
100
AcDbCircle
 10
-269.208467
 20
159.756805
 30
0.0
 40
1.724081
100
AcDbArc
 50
231.270542
 51
308.830069
  0
ARC
  5
2DC
100
AcDbEntity
  8
2
100
AcDbCircle
 10
-263.077179
 20
167.401845
 30
0.0
 40
11.524047
100
AcDbArc
 50
218.729458
 51
231.270542
  0
LINE
  5
2DD
100
AcDbEntity
  8
2
100
AcDbLine
 10
-268.576768
 20
156.603971
 30
0.0
 11
-267.025402
 21
155.052604
 31
0.0
  0
LINE
  5
2DE
100
AcDbEntity
  8
2
100
AcDbLine
 10
-273.561315
 20
164.433107
 30
0.0
 11
-274.272463
 21
163.72196
 31
0.0
  0
LINE
  5
2DF
100
AcDbEntity
  8
2
100
AcDbLine
 10
-271.529466
 20
166.464957
 30
0.0
 11
-272.850168
 21
165.144255
 31
0.0
  0
LINE
  5
2E0
100
AcDbEntity
  8
2
100
AcDbLine
 10
-271.529466
 20
166.464957
 30
0.0
 11
-273.561315
 21
168.496806
 31
0.0
  0
LINE
  5
2E1
100
AcDbEntity
  8
2
100
AcDbLine
 10
-272.850168
 20
165.144255
 30
0.0
 11
-274.882018
 21
167.176104
 31
0.0
  0
LINE
  5
2E2
100
AcDbEntity
  8
2
100
AcDbLine
 10
-273.561315
 20
164.433107
 30
0.0
 11
-275.593165
 21
166.464957
 31
0.0
  0
LINE
  5
2E3
100
AcDbEntity
  8
2
100
AcDbLine
 10
-274.272463
 20
163.72196
 30
0.0
 11
-276.304312
 21
165.753809
 31
0.0
  0
LINE
  5
2E4
100
AcDbEntity
  8
2
100
AcDbLine
 10
-252.138992
 20
148.496777
 30
0.0
 11
-253.58915
 21
149.946935
 31
0.0
  0
LINE
  5
2E5
100
AcDbEntity
  8
2
100
AcDbLine
 10
-255.224966
 20
145.410803
 30
0.0
 11
-256.675124
 21
146.860961
 31
0.0
  0
ARC
  5
2E6
100
AcDbEntity
  8
2
100
AcDbCircle
 10
-255.339154
 20
142.005018
 30
0.0
 40
0.143673
100
AcDbArc
 50
225.0
 51
315.0
  0
LINE
  5
2E7
100
AcDbEntity
  8
2
100
AcDbLine
 10
-255.103055
 20
145.410803
 30
0.0
 11
-252.138992
 21
148.374866
 31
0.0
  0
LINE
  5
2E8
100
AcDbEntity
  8
2
100
AcDbLine
 10
-259.896799
 20
146.734555
 30
0.0
 11
-252.999563
 21
144.435476
 31
0.0
  0
ARC
  5
2E9
100
AcDbEntity
  8
2
100
AcDbCircle
 10
-252.199947
 20
148.435821
 30
0.0
 40
0.086204
100
AcDbArc
 50
315.0
 51
45.0
  0
ARC
  5
2EA
100
AcDbEntity
  8
2
100
AcDbCircle
 10
-253.044997
 20
144.299176
 30
0.0
 40
0.143673
100
AcDbArc
 50
315.0
 51
71.565051
  0
ARC
  5
2EB
100
AcDbEntity
  8
2
100
AcDbCircle
 10
-255.16401
 20
145.471758
 30
0.0
 40
0.086204
100
AcDbArc
 50
225.0
 51
315.0
  0
LINE
  5
2EC
100
AcDbEntity
  8
2
100
AcDbLine
 10
-252.943404
 20
144.197583
 30
0.0
 11
-255.237562
 21
141.903426
 31
0.0
  0
ARC
  5
2ED
100
AcDbEntity
  8
2
100
AcDbCircle
 10
-253.557275
 20
145.424674
 30
0.0
 40
10.402317
100
AcDbArc
 50
128.830069
 51
141.169931
  0
ARC
  5
2EE
100
AcDbEntity
  8
2
100
AcDbCircle
 10
-254.328293
 20
146.195692
 30
0.0
 40
7.674066
100
AcDbArc
 50
124.473609
 51
145.526391
  0
LINE
  5
2EF
100
AcDbEntity
  8
2
100
AcDbLine
 10
-263.462764
 20
151.505505
 30
0.0
 11
-259.050957
 21
155.408742
 31
0.0
  0
ARC
  5
2F0
100
AcDbEntity
  8
2
100
AcDbCircle
 10
-258.998639
 20
152.185097
 30
0.0
 40
1.724081
100
AcDbArc
 50
51.270542
 51
128.830069
  0
LINE
  5
2F1
100
AcDbEntity
  8
2
100
AcDbLine
 10
-260.066882
 20
156.424667
 30
0.0
 11
-259.050957
 21
155.408742
 31
0.0
  0
ARC
  5
2F2
100
AcDbEntity
  8
2
100
AcDbCircle
 10
-260.317699
 20
150.866037
 30
0.0
 40
1.724081
100
AcDbArc
 50
141.169931
 51
218.729458
  0
LINE
  5
2F3
100
AcDbEntity
  8
2
100
AcDbLine
 10
-265.0219
 20
153.049103
 30
0.0
 11
-263.470533
 21
151.497736
 31
0.0
  0
ARC
  5
2F4
100
AcDbEntity
  8
2
100
AcDbCircle
 10
-264.245311
 20
156.112709
 30
0.0
 40
10.402317
100
AcDbArc
 50
308.830069
 51
321.169931
  0
ARC
  5
2F5
100
AcDbEntity
  8
2
100
AcDbCircle
 10
-264.092891
 20
156.085722
 30
0.0
 40
8.638035
100
AcDbArc
 50
305.062783
 51
323.774302
  0
LINE
  5
2F6
100
AcDbEntity
  8
2
100
AcDbLine
 10
-253.711061
 20
149.946935
 30
0.0
 11
-256.675124
 21
146.982872
 31
0.0
  0
ARC
  5
2F7
100
AcDbEntity
  8
2
100
AcDbCircle
 10
-257.484887
 20
150.671345
 30
0.0
 40
1.724081
100
AcDbArc
 50
321.169931
 51
38.729458
  0
ARC
  5
2F8
100
AcDbEntity
  8
2
100
AcDbCircle
 10
-259.752043
 20
149.917941
 30
0.0
 40
3.169316
100
AcDbArc
 50
34.668048
 51
55.331952
  0
ARC
  5
2F9
100
AcDbEntity
  8
2
100
AcDbCircle
 10
-257.754648
 20
151.333419
 30
0.0
 40
0.721926
100
AcDbArc
 50
330.772957
 51
32.444044
  0
ARC
  5
2FA
100
AcDbEntity
  8
2
100
AcDbCircle
 10
-253.650105
 20
149.88598
 30
0.0
 40
0.086204
100
AcDbArc
 50
45.0
 51
135.0
  0
ARC
  5
2FB
100
AcDbEntity
  8
2
100
AcDbCircle
 10
-258.803947
 20
149.352286
 30
0.0
 40
1.724081
100
AcDbArc
 50
231.270542
 51
308.830069
  0
ARC
  5
2FC
100
AcDbEntity
  8
2
100
AcDbCircle
 10
-259.493729
 20
149.532731
 30
0.0
 40
0.632163
100
AcDbArc
 50
235.331952
 51
305.062783
  0
ARC
  5
2FD
100
AcDbEntity
  8
2
100
AcDbCircle
 10
-258.050543
 20
151.619441
 30
0.0
 40
3.169316
100
AcDbArc
 50
214.668048
 51
235.331952
  0
ARC
  5
2FE
100
AcDbEntity
  8
2
100
AcDbCircle
 10
-256.614168
 20
146.921917
 30
0.0
 40
0.086204
100
AcDbArc
 50
135.0
 51
225.0
  0
ARC
  5
2FF
100
AcDbEntity
  8
2
100
AcDbCircle
 10
-265.129927
 20
144.540057
 30
0.0
 40
11.524047
100
AcDbArc
 50
38.729458
 51
51.270542
  0
ARC
  5
300
100
AcDbEntity
  8
2
100
AcDbCircle
 10
-258.308858
 20
152.004652
 30
0.0
 40
0.632163
100
AcDbArc
 50
55.331952
 51
125.062783
  0
ARC
  5
301
100
AcDbEntity
  8
2
100
AcDbCircle
 10
-252.672659
 20
156.997326
 30
0.0
 40
11.524047
100
AcDbArc
 50
218.729458
 51
231.270542
  0
ARC
  5
302
100
AcDbEntity
  8
2
100
AcDbCircle
 10
-260.137253
 20
150.176256
 30
0.0
 40
0.632163
100
AcDbArc
 50
144.937217
 51
214.668048
  0
LINE
  5
303
100
AcDbEntity
  8
2
100
AcDbLine
 10
-265.0219
 20
153.049103
 30
0.0
 11
-263.403362
 21
156.671142
 31
0.0
  0
LINE
  5
304
100
AcDbEntity
  8
2
100
AcDbLine
 10
-262.366322
 20
158.724107
 30
0.0
 11
-261.350397
 21
157.708182
 31
0.0
  0
ARC
  5
305
100
AcDbEntity
  8
2
100
AcDbCircle
 10
-259.941071
 20
146.601739
 30
0.0
 40
0.14
100
AcDbArc
 50
71.565051
 51
225.0
  0
ARC
  5
306
100
AcDbEntity
  8
2
100
AcDbCircle
 10
-269.925092
 20
159.964094
 30
0.0
 40
0.632163
100
AcDbArc
 50
235.331952
 51
305.062783
  0
ARC
  5
307
100
AcDbEntity
  8
2
100
AcDbCircle
 10
-268.096696
 20
161.79249
 30
0.0
 40
0.632163
100
AcDbArc
 50
324.937217
 51
34.668048
  0
ARC
  5
308
100
AcDbEntity
  8
2
100
AcDbCircle
 10
-268.481906
 20
162.050805
 30
0.0
 40
3.169316
100
AcDbArc
 50
214.668048
 51
235.331952
  0
ARC
  5
309
100
AcDbEntity
  8
2
100
AcDbCircle
 10
-270.568617
 20
160.607619
 30
0.0
 40
0.632163
100
AcDbArc
 50
144.937217
 51
214.668048
  0
ARC
  5
30A
100
AcDbEntity
  8
2
100
AcDbCircle
 10
-268.767929
 20
162.3467
 30
0.0
 40
0.721926
100
AcDbArc
 50
57.555956
 51
119.227043
  0
ARC
  5
30B
100
AcDbEntity
  8
2
100
AcDbCircle
 10
-270.183406
 20
160.349305
 30
0.0
 40
3.169316
100
AcDbArc
 50
34.668048
 51
55.331952
  0
ARC
  5
30C
100
AcDbEntity
  8
2
100
AcDbCircle
 10
-264.015626
 20
156.008456
 30
0.0
 40
8.638035
100
AcDbArc
 50
126.225698
 51
144.937217
  0
ARC
  5
30D
100
AcDbEntity
  8
2
100
AcDbCircle
 10
-273.905656
 20
165.773054
 30
0.0
 40
7.674066
100
AcDbArc
 50
304.473609
 51
325.526391
  0
LINE
  5
30E
100
AcDbEntity
  8
2
100
AcDbLine
 10
-255.440747
 20
141.903426
 30
0.0
 11
-260.040065
 21
146.502744
 31
0.0
  0
LINE
  5
30F
100
AcDbEntity
  8
2
100
AcDbLine
 10
-263.392367
 20
153.428863
 30
0.0
 11
-261.377241
 21
157.735026
 31
0.0
  0
LINE
  5
310
100
AcDbEntity
  8
2
100
AcDbLine
 10
-263.392367
 20
153.428863
 30
0.0
 11
-260.093726
 21
156.451511
 31
0.0
  0
ARC
  5
311
100
AcDbEntity
  8
2
100
AcDbCircle
 10
-290.683358
 20
176.907236
 30
0.0
 40
0.5
100
AcDbArc
 50
90.0
 51
178.767738
  0
LINE
  5
312
100
AcDbEntity
  8
2
100
AcDbLine
 10
-290.683358
 20
177.407236
 30
0.0
 11
-280.516987
 21
177.407236
 31
0.0
  0
LINE
  5
313
100
AcDbEntity
  8
2
100
AcDbLine
 10
-290.683358
 20
174.407236
 30
0.0
 11
-280.516987
 21
174.407236
 31
0.0
  0
ARC
  5
314
100
AcDbEntity
  8
2
100
AcDbCircle
 10
-290.683358
 20
174.907236
 30
0.0
 40
0.5
100
AcDbArc
 50
181.232262
 51
270.0
  0
LINE
  5
315
100
AcDbEntity
  8
2
100
AcDbLine
 10
-289.900848
 20
167.340192
 30
0.0
 11
-280.052771
 21
169.076674
 31
0.0
  0
ARC
  5
316
100
AcDbEntity
  8
2
100
AcDbCircle
 10
-289.987672
 20
167.832596
 30
0.0
 40
0.5
100
AcDbArc
 50
100.0
 51
280.0
  0
LINE
  5
317
100
AcDbEntity
  8
2
100
AcDbLine
 10
-290.074496
 20
168.325
 30
0.0
 11
-280.226419
 21
170.061481
 31
0.0
  0
LINE
  5
318
100
AcDbEntity
  8
2
100
AcDbLine
 10
-280.136572
 20
146.400634
 30
0.0
 11
-272.476128
 21
152.82851
 31
0.0
  0
ARC
  5
319
100
AcDbEntity
  8
2
100
AcDbCircle
 10
-279.815178
 20
146.017612
 30
0.0
 40
0.5
100
AcDbArc
 50
130.0
 51
310.0
  0
LINE
  5
31A
100
AcDbEntity
  8
2
100
AcDbLine
 10
-279.493785
 20
145.63459
 30
0.0
 11
-271.83334
 21
152.062466
 31
0.0
  0
LINE
  5
31B
100
AcDbEntity
  8
2
100
AcDbLine
 10
-284.714293
 20
153.090249
 30
0.0
 11
-276.054039
 21
158.090249
 31
0.0
  0
ARC
  5
31C
100
AcDbEntity
  8
2
100
AcDbCircle
 10
-284.464293
 20
152.657236
 30
0.0
 40
0.5
100
AcDbArc
 50
120.0
 51
300.0
  0
LINE
  5
31D
100
AcDbEntity
  8
2
100
AcDbLine
 10
-284.214293
 20
152.224223
 30
0.0
 11
-275.554039
 21
157.224223
 31
0.0
  0
LINE
  5
31E
100
AcDbEntity
  8
2
100
AcDbLine
 10
-288.060829
 20
160.473146
 30
0.0
 11
-278.663902
 21
163.893347
 31
0.0
  0
ARC
  5
31F
100
AcDbEntity
  8
2
100
AcDbCircle
 10
-287.889819
 20
160.003299
 30
0.0
 40
0.5
100
AcDbArc
 50
110.0
 51
290.0
  0
LINE
  5
320
100
AcDbEntity
  8
2
100
AcDbLine
 10
-287.718809
 20
159.533453
 30
0.0
 11
-278.321882
 21
162.953654
 31
0.0
  0
ARC
  5
321
100
AcDbEntity
  8
2
100
AcDbCircle
 10
-244.194112
 20
175.907236
 30
0.0
 40
47.0
100
AcDbArc
 50
178.767738
 51
181.232262
  0
LINE
  5
322
100
AcDbEntity
  8
2
100
AcDbLine
 10
-260.567895
 20
132.382539
 30
0.0
 11
-257.147693
 21
141.779465
 31
0.0
  0
LINE
  5
323
100
AcDbEntity
  8
2
100
AcDbLine
 10
-259.628202
 20
132.040519
 30
0.0
 11
-256.208001
 21
141.437445
 31
0.0
  0
LINE
  5
324
100
AcDbEntity
  8
2
100
AcDbLine
 10
-267.877124
 20
135.887055
 30
0.0
 11
-262.877124
 21
144.547309
 31
0.0
  0
ARC
  5
325
100
AcDbEntity
  8
2
100
AcDbCircle
 10
-267.444112
 20
135.637055
 30
0.0
 40
0.5
100
AcDbArc
 50
150.0
 51
330.0
  0
LINE
  5
326
100
AcDbEntity
  8
2
100
AcDbLine
 10
-267.011099
 20
135.387055
 30
0.0
 11
-262.011099
 21
144.047309
 31
0.0
  0
LINE
  5
327
100
AcDbEntity
  8
2
100
AcDbLine
 10
-274.466758
 20
140.607563
 30
0.0
 11
-268.038882
 21
148.268008
 31
0.0
  0
ARC
  5
328
100
AcDbEntity
  8
2
100
AcDbCircle
 10
-274.083736
 20
140.286169
 30
0.0
 40
0.5
100
AcDbArc
 50
140.0
 51
320.0
  0
LINE
  5
329
100
AcDbEntity
  8
2
100
AcDbLine
 10
-273.700713
 20
139.964776
 30
0.0
 11
-267.272837
 21
147.62522
 31
0.0
  0
LINE
  5
32A
100
AcDbEntity
  8
2
100
AcDbLine
 10
-251.776348
 20
130.026851
 30
0.0
 11
-250.039866
 21
139.874929
 31
0.0
  0
LINE
  5
32B
100
AcDbEntity
  8
2
100
AcDbLine
 10
-252.761156
 20
130.2005
 30
0.0
 11
-251.024674
 21
140.048577
 31
0.0
  0
LINE
  5
32C
100
AcDbEntity
  8
2
100
AcDbLine
 10
-245.694112
 20
129.41799
 30
0.0
 11
-245.694112
 21
148.425424
 31
0.0
  0
LINE
  5
32D
100
AcDbEntity
  8
2
100
AcDbLine
 10
-242.694112
 20
129.41799
 30
0.0
 11
-242.694112
 21
148.425424
 31
0.0
  0
LINE
  5
32E
100
AcDbEntity
  8
2
100
AcDbLine
 10
-277.015459
 20
165.042662
 30
0.0
 11
-276.304312
 21
165.753809
 31
0.0
  0
LINE
  5
32F
100
AcDbEntity
  8
2
100
AcDbLine
 10
-275.593165
 20
166.464957
 30
0.0
 11
-274.882018
 21
167.176104
 31
0.0
  0
LINE
  5
330
100
AcDbEntity
  8
2
100
AcDbLine
 10
-273.561315
 20
168.496806
 30
0.0
 11
-272.850168
 21
169.207953
 31
0.0
  0
ARC
  5
331
100
AcDbEntity
  8
2
100
AcDbCircle
 10
-250.53227
 20
139.961753
 30
0.0
 40
0.5
100
AcDbArc
 50
350.0
 51
170.0
  0
ARC
  5
332
100
AcDbEntity
  8
2
100
AcDbCircle
 10
-256.677847
 20
141.608455
 30
0.0
 40
0.5
100
AcDbArc
 50
340.0
 51
160.0
  0
ARC
  5
333
100
AcDbEntity
  8
2
100
AcDbCircle
 10
-262.444112
 20
144.297309
 30
0.0
 40
0.5
100
AcDbArc
 50
330.0
 51
150.0
  0
ARC
  5
334
100
AcDbEntity
  8
2
100
AcDbCircle
 10
-267.65586
 20
147.946614
 30
0.0
 40
0.5
100
AcDbArc
 50
320.0
 51
140.0
  0
ARC
  5
335
100
AcDbEntity
  8
2
100
AcDbCircle
 10
-272.154734
 20
152.445488
 30
0.0
 40
0.5
100
AcDbArc
 50
310.0
 51
130.0
  0
ARC
  5
336
100
AcDbEntity
  8
2
100
AcDbCircle
 10
-275.804039
 20
157.657236
 30
0.0
 40
0.5
100
AcDbArc
 50
300.0
 51
120.0
  0
ARC
  5
337
100
AcDbEntity
  8
2
100
AcDbCircle
 10
-278.492892
 20
163.423501
 30
0.0
 40
0.5
100
AcDbArc
 50
290.0
 51
110.0
  0
ARC
  5
338
100
AcDbEntity
  8
2
100
AcDbCircle
 10
-280.139595
 20
169.569078
 30
0.0
 40
0.5
100
AcDbArc
 50
280.0
 51
100.0
  0
ARC
  5
339
100
AcDbEntity
  8
2
100
AcDbCircle
 10
-244.194112
 20
175.907236
 30
0.0
 40
47.0
100
AcDbArc
 50
189.999966
 51
190.000034
  0
ARC
  5
33A
100
AcDbEntity
  8
2
100
AcDbCircle
 10
-245.194112
 20
129.41799
 30
0.0
 40
0.5
100
AcDbArc
 50
180.0
 51
268.767738
  0
ARC
  5
33B
100
AcDbEntity
  8
2
100
AcDbCircle
 10
-243.194112
 20
129.41799
 30
0.0
 40
0.5
100
AcDbArc
 50
271.232262
 51
360.0
  0
ARC
  5
33C
100
AcDbEntity
  8
2
100
AcDbCircle
 10
-244.194112
 20
175.907236
 30
0.0
 40
47.0
100
AcDbArc
 50
199.999929
 51
200.000071
  0
ARC
  5
33D
100
AcDbEntity
  8
2
100
AcDbCircle
 10
-244.194112
 20
175.907236
 30
0.0
 40
47.0
100
AcDbArc
 50
268.767738
 51
271.232262
  0
ARC
  5
33E
100
AcDbEntity
  8
2
100
AcDbCircle
 10
-244.194112
 20
175.907236
 30
0.0
 40
27.0
100
AcDbArc
 50
267.916058
 51
272.083942
  0
ARC
  5
33F
100
AcDbEntity
  8
2
100
AcDbCircle
 10
-243.194112
 20
148.425424
 30
0.0
 40
0.5
100
AcDbArc
 50
0.0
 51
92.083942
  0
ARC
  5
340
100
AcDbEntity
  8
2
100
AcDbCircle
 10
-245.194112
 20
148.425424
 30
0.0
 40
0.5
100
AcDbArc
 50
87.916058
 51
180.0
  0
ARC
  5
341
100
AcDbEntity
  8
2
100
AcDbCircle
 10
-260.098048
 20
132.211529
 30
0.0
 40
0.5
100
AcDbArc
 50
160.0
 51
340.0
  0
ARC
  5
342
100
AcDbEntity
  8
2
100
AcDbCircle
 10
-252.268752
 20
130.113675
 30
0.0
 40
0.5
100
AcDbArc
 50
170.0
 51
350.0
  0
LINE
  5
343
100
AcDbEntity
  8
2
100
AcDbLine
 10
-222.118701
 20
161.483173
 30
0.0
 11
-220.570285
 21
160.957608
 31
0.0
  0
LINE
  5
344
100
AcDbEntity
  8
2
100
AcDbLine
 10
-220.570285
 20
160.957608
 30
0.0
 11
-221.06094
 21
161.511018
 31
0.0
  0
ARC
  5
345
100
AcDbEntity
  8
2
  6
CENTER
 62
     2
100
AcDbCircle
 10
-244.194112
 20
175.907236
 30
0.0
 40
35.0
100
AcDbArc
 50
298.585378
 51
330.968199
  0
LINE
  5
346
100
AcDbEntity
  8
2
  6
CENTER
 62
     2
100
AcDbLine
 10
-212.169423
 20
143.882547
 30
0.0
 11
-226.845271
 21
158.558396
 31
0.0
  0
ARC
  5
347
100
AcDbEntity
  8
2
  6
DASHED
100
AcDbCircle
 10
-244.194112
 20
175.907236
 30
0.0
 40
35.0
100
AcDbArc
 50
118.005522
 51
150.923658
  0
LINE
  5
348
100
AcDbEntity
  8
2
  6
CENTER
 62
     2
100
AcDbLine
 10
-260.616495
 20
192.329619
 30
0.0
 11
-277.336095
 21
209.04922
 31
0.0
  0
TEXT
  5
349
100
AcDbEntity
  8
2
100
AcDbText
 10
-225.645134
 20
144.562855
 30
0.0
 40
10.0
  1
Ｏ
 50
202.5
 72
     5
 11
-233.036171
 21
141.501388
 31
0.0
100
AcDbText
  0
TEXT
  5
34A
100
AcDbEntity
  8
2
  6
DASHED
100
AcDbText
 10
-279.154262
 20
185.652738
 30
0.0
 40
10.0
  1
Ｓ
 50
67.5
 72
     5
 11
-276.092795
 21
193.043775
 31
0.0
100
AcDbText
  0
TEXT
  5
34B
100
AcDbEntity
  8
2
100
AcDbText
 10
-265.244406
 20
189.45702
 30
0.0
 40
3.0
  1
Ｊ
 50
55.0
 72
     5
 11
-263.867823
 21
191.422985
 31
0.0
100
AcDbText
  0
TEXT
  5
34C
100
AcDbEntity
  8
2
100
AcDbText
 10
-263.983362
 20
191.240113
 30
0.0
 40
3.0
  1
Ａ
 50
50.0
 72
     5
 11
-262.440672
 21
193.07862
 31
0.0
100
AcDbText
  0
TEXT
  5
34D
100
AcDbEntity
  8
2
100
AcDbText
 10
-261.020192
 20
194.44354
 30
0.0
 40
3.0
  1
Ａ
 50
40.0
 72
     5
 11
-259.181686
 21
195.986231
 31
0.0
100
AcDbText
  0
TEXT
  5
34E
100
AcDbEntity
  8
2
100
AcDbText
 10
-259.340619
 20
195.839493
 30
0.0
 40
3.0
  1
Ｎ
 50
35.0
 72
     5
 11
-257.374654
 21
197.216077
 31
0.0
100
AcDbText
  0
TEXT
  5
34F
100
AcDbEntity
  8
2
100
AcDbText
 10
-262.571709
 20
192.906514
 30
0.0
 40
3.0
  1
Ｐ
 50
45.0
 72
     5
 11
-260.874653
 21
194.603571
 31
0.0
100
AcDbText
  0
TEXT
  5
350
100
AcDbEntity
  8
2
100
AcDbText
 10
-231.670565
 20
154.230698
 30
0.0
 40
3.0
  1
Ｄ
 50
207.785854
 72
     5
 11
-233.793836
 21
153.111895
 31
0.0
100
AcDbText
  0
TEXT
  5
351
100
AcDbEntity
  8
2
100
AcDbText
 10
-229.828986
 20
155.404682
 30
0.0
 40
3.0
  1
Ｅ
 50
212.785854
 72
     5
 11
-231.846667
 21
154.105081
 31
0.0
100
AcDbText
  0
TEXT
  5
352
100
AcDbEntity
  8
2
100
AcDbText
 10
-228.096735
 20
156.734704
 30
0.0
 40
3.0
  1
Ｔ
 50
217.785854
 72
     5
 11
-229.99347
 21
155.264196
 31
0.0
100
AcDbText
  0
TEXT
  5
353
100
AcDbEntity
  8
2
100
AcDbText
 10
-226.486994
 20
158.21064
 30
0.0
 40
3.0
  1
Ｎ
 50
222.785854
 72
     5
 11
-228.248349
 21
156.580416
 31
0.0
100
AcDbText
  0
TEXT
  5
354
100
AcDbEntity
  8
2
100
AcDbText
 10
-225.012015
 20
159.821258
 30
0.0
 40
3.0
  1
Ｅ
 50
227.785854
 72
     5
 11
-226.624584
 21
158.043725
 31
0.0
100
AcDbText
  0
TEXT
  5
355
100
AcDbEntity
  8
2
100
AcDbText
 10
-223.683023
 20
161.5543
 30
0.0
 40
3.0
  1
Ｔ
 50
232.785854
 72
     5
 11
-225.134533
 21
159.642987
 31
0.0
100
AcDbText
  0
LINE
  5
356
100
AcDbEntity
  8
2
100
AcDbLine
 10
-244.194112
 20
149.907236
 30
0.0
 11
-246.653112
 21
149.907236
 31
0.0
  0
LINE
  5
357
100
AcDbEntity
  8
2
100
AcDbLine
 10
-246.653112
 20
149.907236
 30
0.0
 11
-247.194112
 21
150.448236
 31
0.0
  0
LINE
  5
358
100
AcDbEntity
  8
2
100
AcDbLine
 10
-247.194112
 20
150.448236
 30
0.0
 11
-247.194112
 21
153.926165
 31
0.0
  0
LINE
  5
359
100
AcDbEntity
  8
2
100
AcDbLine
 10
-247.194112
 20
150.448236
 30
0.0
 11
-244.194112
 21
150.448236
 31
0.0
  0
LINE
  5
35A
100
AcDbEntity
  8
2
100
AcDbLine
 10
-244.194112
 20
149.907236
 30
0.0
 11
-241.735112
 21
149.907236
 31
0.0
  0
LINE
  5
35B
100
AcDbEntity
  8
2
100
AcDbLine
 10
-241.735112
 20
149.907236
 30
0.0
 11
-241.194112
 21
150.448236
 31
0.0
  0
LINE
  5
35C
100
AcDbEntity
  8
2
100
AcDbLine
 10
-241.194112
 20
150.448236
 30
0.0
 11
-241.194112
 21
153.926165
 31
0.0
  0
LINE
  5
35D
100
AcDbEntity
  8
2
100
AcDbLine
 10
-241.194112
 20
150.448236
 30
0.0
 11
-244.194112
 21
150.448236
 31
0.0
  0
POINT
  5
35E
100
AcDbEntity
  8
2
100
AcDbPoint
 10
-244.194112
 20
158.907236
 30
0.0
  0
LINE
  5
35F
100
AcDbEntity
  8
2
100
AcDbLine
 10
-244.194112
 20
158.907236
 30
0.0
 11
-238.444112
 21
158.907236
 31
0.0
  0
LINE
  5
360
100
AcDbEntity
  8
2
100
AcDbLine
 10
-238.444112
 20
158.907236
 30
0.0
 11
-238.444112
 21
154.397984
 31
0.0
  0
LINE
  5
361
100
AcDbEntity
  8
2
100
AcDbLine
 10
-238.444112
 20
154.397984
 30
0.0
 11
-239.294112
 21
153.907236
 31
0.0
  0
LINE
  5
362
100
AcDbEntity
  8
2
100
AcDbLine
 10
-239.294112
 20
153.907236
 30
0.0
 11
-244.194112
 21
153.907236
 31
0.0
  0
LINE
  5
363
100
AcDbEntity
  8
2
100
AcDbLine
 10
-241.319112
 20
158.907236
 30
0.0
 11
-241.319112
 21
154.397984
 31
0.0
  0
ARC
  5
364
100
AcDbEntity
  8
2
100
AcDbCircle
 10
-239.881612
 20
156.245939
 30
0.0
 40
2.341227
100
AcDbArc
 50
232.121121
 51
307.878879
  0
ARC
  5
365
100
AcDbEntity
  8
2
100
AcDbCircle
 10
-244.194112
 20
162.529712
 30
0.0
 40
8.625
100
AcDbArc
 50
270.0
 51
289.471221
  0
LINE
  5
366
100
AcDbEntity
  8
2
100
AcDbLine
 10
-244.194112
 20
158.907236
 30
0.0
 11
-249.944112
 21
158.907236
 31
0.0
  0
LINE
  5
367
100
AcDbEntity
  8
2
100
AcDbLine
 10
-249.944112
 20
158.907236
 30
0.0
 11
-249.944112
 21
154.397984
 31
0.0
  0
LINE
  5
368
100
AcDbEntity
  8
2
100
AcDbLine
 10
-249.944112
 20
154.397984
 30
0.0
 11
-249.094112
 21
153.907236
 31
0.0
  0
LINE
  5
369
100
AcDbEntity
  8
2
100
AcDbLine
 10
-249.094112
 20
153.907236
 30
0.0
 11
-244.194112
 21
153.907236
 31
0.0
  0
LINE
  5
36A
100
AcDbEntity
  8
2
100
AcDbLine
 10
-247.069112
 20
158.907236
 30
0.0
 11
-247.069112
 21
154.397984
 31
0.0
  0
ARC
  5
36B
100
AcDbEntity
  8
2
100
AcDbCircle
 10
-248.506612
 20
156.245939
 30
0.0
 40
2.341227
100
AcDbArc
 50
232.121121
 51
307.878879
  0
ARC
  5
36C
100
AcDbEntity
  8
2
100
AcDbCircle
 10
-244.194112
 20
162.529712
 30
0.0
 40
8.625
100
AcDbArc
 50
250.528779
 51
270.0
  0
LINE
  5
36D
100
AcDbEntity
  8
2
 62
     2
100
AcDbLine
 10
-246.653112
 20
149.907236
 30
0.0
 11
-246.653112
 21
153.907236
 31
0.0
  0
LINE
  5
36E
100
AcDbEntity
  8
2
 62
     2
100
AcDbLine
 10
-241.735112
 20
149.907236
 30
0.0
 11
-241.735112
 21
153.907236
 31
0.0
  0
CIRCLE
  5
36F
100
AcDbEntity
  8
2
100
AcDbCircle
 10
-219.445374
 20
151.158499
 30
0.0
 40
6.5
  0
LINE
  5
370
100
AcDbEntity
  8
2
100
AcDbLine
 10
-215.692598
 20
157.658499
 30
0.0
 11
-223.198151
 21
157.658499
 31
0.0
  0
LINE
  5
371
100
AcDbEntity
  8
2
100
AcDbLine
 10
-223.198151
 20
157.658499
 30
0.0
 11
-226.950928
 21
151.158499
 31
0.0
  0
LINE
  5
372
100
AcDbEntity
  8
2
100
AcDbLine
 10
-226.950928
 20
151.158499
 30
0.0
 11
-223.198151
 21
144.658499
 31
0.0
  0
LINE
  5
373
100
AcDbEntity
  8
2
100
AcDbLine
 10
-223.198151
 20
144.658499
 30
0.0
 11
-215.692598
 21
144.658499
 31
0.0
  0
LINE
  5
374
100
AcDbEntity
  8
2
100
AcDbLine
 10
-215.692598
 20
144.658499
 30
0.0
 11
-211.939821
 21
151.158499
 31
0.0
  0
LINE
  5
375
100
AcDbEntity
  8
2
100
AcDbLine
 10
-211.939821
 20
151.158499
 30
0.0
 11
-215.692598
 21
157.658499
 31
0.0
  0
LINE
  5
376
100
AcDbEntity
  8
2
100
AcDbLine
 10
-276.448403
 20
200.655973
 30
0.0
 11
-272.695626
 21
194.155973
 31
0.0
  0
LINE
  5
377
100
AcDbEntity
  8
2
100
AcDbLine
 10
-272.695626
 20
207.155973
 30
0.0
 11
-276.448403
 21
200.655973
 31
0.0
  0
LINE
  5
378
100
AcDbEntity
  8
2
100
AcDbLine
 10
-265.190072
 20
207.155973
 30
0.0
 11
-272.695626
 21
207.155973
 31
0.0
  0
LINE
  5
379
100
AcDbEntity
  8
2
100
AcDbLine
 10
-261.437296
 20
200.655973
 30
0.0
 11
-265.190072
 21
207.155973
 31
0.0
  0
LINE
  5
37A
100
AcDbEntity
  8
2
100
AcDbLine
 10
-265.190072
 20
194.155973
 30
0.0
 11
-261.437296
 21
200.655973
 31
0.0
  0
LINE
  5
37B
100
AcDbEntity
  8
2
100
AcDbLine
 10
-272.695626
 20
194.155973
 30
0.0
 11
-265.190072
 21
194.155973
 31
0.0
  0
CIRCLE
  5
37C
100
AcDbEntity
  8
2
100
AcDbCircle
 10
-268.942849
 20
200.655973
 30
0.0
 40
6.5
  0
ARC
  5
37D
100
AcDbEntity
  8
2
100
AcDbCircle
 10
-54.194112
 20
175.907236
 30
0.0
 40
10.0
100
AcDbArc
 50
271.507958
 51
88.492042
  0
LINE
  5
37E
100
AcDbEntity
  8
2
100
AcDbLine
 10
-228.597351
 20
28.679727
 30
0.0
 11
-50.983837
 21
66.432645
 31
0.0
  0
ARC
  5
37F
100
AcDbEntity
  8
2
100
AcDbCircle
 10
-264.194112
 20
27.872916
 30
0.0
 40
5.0
100
AcDbArc
 50
290.0
 51
360.0
  0
LINE
  5
380
100
AcDbEntity
  8
2
100
AcDbLine
 10
-279.220172
 20
17.082988
 30
0.0
 11
-262.484011
 21
23.174453
 31
0.0
  0
LINE
  5
381
100
AcDbEntity
  8
2
100
AcDbLine
 10
-233.194112
 20
12.364533
 30
0.0
 11
-281.194112
 21
12.364533
 31
0.0
  0
LINE
  5
382
100
AcDbEntity
  8
2
100
AcDbLine
 10
-255.194112
 20
11.364533
 30
0.0
 11
-255.194112
 21
12.364533
 31
0.0
  0
LINE
  5
383
100
AcDbEntity
  8
2
100
AcDbLine
 10
-281.194112
 20
14.26391
 30
0.0
 11
-281.194112
 21
12.364533
 31
0.0
  0
LINE
  5
384
100
AcDbEntity
  8
2
100
AcDbLine
 10
-229.194112
 20
32.364533
 30
0.0
 11
-230.194112
 21
33.364533
 31
0.0
  0
LINE
  5
385
100
AcDbEntity
  8
2
100
AcDbLine
 10
-258.194112
 20
33.364533
 30
0.0
 11
-259.194112
 21
32.364533
 31
0.0
  0
LINE
  5
386
100
AcDbEntity
  8
2
100
AcDbLine
 10
-259.194112
 20
27.872916
 30
0.0
 11
-259.194112
 21
32.364533
 31
0.0
  0
LINE
  5
387
100
AcDbEntity
  8
2
100
AcDbLine
 10
-229.194112
 20
32.257573
 30
0.0
 11
-229.194112
 21
32.364533
 31
0.0
  0
LINE
  5
388
100
AcDbEntity
  8
2
100
AcDbLine
 10
-233.194112
 20
11.364533
 30
0.0
 11
-255.194112
 21
11.364533
 31
0.0
  0
LINE
  5
389
100
AcDbEntity
  8
2
100
AcDbLine
 10
-233.194112
 20
11.364533
 30
0.0
 11
-233.194112
 21
12.364533
 31
0.0
  0
LINE
  5
38A
100
AcDbEntity
  8
2
100
AcDbLine
 10
-250.963343
 20
32.364533
 30
0.0
 11
-250.963343
 21
12.364533
 31
0.0
  0
LINE
  5
38B
100
AcDbEntity
  8
2
100
AcDbLine
 10
-237.424881
 20
32.364533
 30
0.0
 11
-237.424881
 21
12.364533
 31
0.0
  0
ARC
  5
38C
100
AcDbEntity
  8
2
100
AcDbCircle
 10
-278.194112
 20
14.26391
 30
0.0
 40
3.0
100
AcDbArc
 50
110.0
 51
180.0
  0
ARC
  5
38D
100
AcDbEntity
  8
2
100
AcDbCircle
 10
-249.963343
 20
32.364533
 30
0.0
 40
1.0
100
AcDbArc
 50
90.0
 51
180.0
  0
ARC
  5
38E
100
AcDbEntity
  8
2
100
AcDbCircle
 10
-238.424881
 20
32.364533
 30
0.0
 40
1.0
100
AcDbArc
 50
0.0
 51
90.0
  0
LINE
  5
38F
100
AcDbEntity
  8
2
100
AcDbLine
 10
-230.194112
 20
33.364533
 30
0.0
 11
-258.194112
 21
33.364533
 31
0.0
  0
ARC
  5
390
100
AcDbEntity
  8
2
100
AcDbCircle
 10
-267.532475
 20
43.046735
 30
0.0
 40
22.811628
100
AcDbArc
 50
283.335578
 51
313.128065
  0
CIRCLE
  5
391
100
AcDbEntity
  8
2
100
AcDbCircle
 10
-154.194112
 20
31.364533
 30
0.0
 40
2.0
  0
ARC
  5
392
100
AcDbEntity
  8
2
100
AcDbCircle
 10
-154.194112
 20
31.364533
 30
0.0
 40
5.0
100
AcDbArc
 50
0.0
 51
180.0
  0
LINE
  5
393
100
AcDbEntity
  8
2
100
AcDbLine
 10
-159.194112
 20
31.364533
 30
0.0
 11
-159.194112
 21
22.364533
 31
0.0
  0
LINE
  5
394
100
AcDbEntity
  8
2
100
AcDbLine
 10
-233.194112
 20
12.364533
 30
0.0
 11
-191.880515
 21
21.146009
 31
0.0
  0
ARC
  5
395
100
AcDbEntity
  8
2
100
AcDbCircle
 10
-226.194112
 20
32.257573
 30
0.0
 40
3.0
100
AcDbArc
 50
180.0
 51
282.0
  0
ARC
  5
396
100
AcDbEntity
  8
2
100
AcDbCircle
 10
-158.194112
 20
22.364533
 30
0.0
 40
1.0
100
AcDbArc
 50
180.0
 51
270.0
  0
LINE
  5
397
100
AcDbEntity
  8
2
100
AcDbLine
 10
-189.801398
 20
21.364533
 30
0.0
 11
-150.336247
 21
21.364533
 31
0.0
  0
ARC
  5
398
100
AcDbEntity
  8
2
100
AcDbCircle
 10
-150.336247
 20
31.364533
 30
0.0
 40
10.0
100
AcDbArc
 50
270.0
 51
315.0
  0
ARC
  5
399
100
AcDbEntity
  8
2
100
AcDbCircle
 10
-189.801398
 20
11.364533
 30
0.0
 40
10.0
100
AcDbArc
 50
90.0
 51
102.0
  0
CIRCLE
  5
39A
100
AcDbEntity
  8
2
100
AcDbCircle
 10
-244.194112
 20
17.864533
 30
0.0
 40
5.0
  0
CIRCLE
  5
39B
100
AcDbEntity
  8
2
100
AcDbCircle
 10
-244.194112
 20
17.864533
 30
0.0
 40
3.0
  0
CIRCLE
  5
39C
100
AcDbEntity
  8
2
100
AcDbCircle
 10
-244.194112
 20
17.864533
 30
0.0
 40
2.5
  0
LINE
  5
39D
100
AcDbEntity
  8
2
100
AcDbLine
 10
-249.967614
 20
17.864533
 30
0.0
 11
-247.080863
 21
12.864533
 31
0.0
  0
LINE
  5
39E
100
AcDbEntity
  8
2
100
AcDbLine
 10
-247.080863
 20
12.864533
 30
0.0
 11
-241.30736
 21
12.864533
 31
0.0
  0
LINE
  5
39F
100
AcDbEntity
  8
2
100
AcDbLine
 10
-241.30736
 20
12.864533
 30
0.0
 11
-238.420609
 21
17.864533
 31
0.0
  0
LINE
  5
3A0
100
AcDbEntity
  8
2
100
AcDbLine
 10
-238.420609
 20
17.864533
 30
0.0
 11
-241.30736
 21
22.864533
 31
0.0
  0
LINE
  5
3A1
100
AcDbEntity
  8
2
100
AcDbLine
 10
-241.30736
 20
22.864533
 30
0.0
 11
-247.080863
 21
22.864533
 31
0.0
  0
LINE
  5
3A2
100
AcDbEntity
  8
2
100
AcDbLine
 10
-247.080863
 20
22.864533
 30
0.0
 11
-249.967614
 21
17.864533
 31
0.0
  0
LINE
  5
3A3
100
AcDbEntity
  8
2
  6
CENTER
 62
     2
100
AcDbLine
 10
-144.271491
 20
31.364533
 30
0.0
 11
-164.478765
 21
31.364533
 31
0.0
  0
LINE
  5
3A4
100
AcDbEntity
  8
2
  6
CENTER
 62
     2
100
AcDbLine
 10
-154.194112
 20
41.756023
 30
0.0
 11
-154.194112
 21
20.372138
 31
0.0
  0
LINE
  5
3A5
100
AcDbEntity
  8
2
100
AcDbLine
 10
-235.424881
 20
22.557413
 30
0.0
 11
-235.424881
 21
12.364533
 31
0.0
  0
ARC
  5
3A6
100
AcDbEntity
  8
2
100
AcDbCircle
 10
-230.424881
 20
22.557413
 30
0.0
 40
5.0
100
AcDbArc
 50
124.714037
 51
180.0
  0
ARC
  5
3A7
100
AcDbEntity
  8
2
100
AcDbCircle
 10
-225.894499
 20
15.963808
 30
0.0
 40
13.0
100
AcDbArc
 50
102.0
 51
124.492462
  0
LINE
  5
3A8
100
AcDbEntity
  8
2
100
AcDbLine
 10
-262.270882
 20
20.850203
 30
0.0
 11
-278.568693
 21
16.986877
 31
0.0
  0
LINE
  5
3A9
100
AcDbEntity
  8
2
  6
CENTER
 62
     2
100
AcDbLine
 10
-252.937202
 20
17.864533
 30
0.0
 11
-235.145449
 21
17.864533
 31
0.0
  0
CIRCLE
  5
3AA
100
AcDbEntity
  8
2
100
AcDbCircle
 10
-154.194112
 20
31.364533
 30
0.0
 40
1.5
  0
ARC
  5
3AB
100
AcDbEntity
  8
2
100
AcDbCircle
 10
-188.96786
 20
-3.635467
 30
0.0
 40
1.0
100
AcDbArc
 50
180.0
 51
270.0
  0
LINE
  5
3AC
100
AcDbEntity
  8
2
100
AcDbLine
 10
-188.96786
 20
-4.635467
 30
0.0
 11
-183.194112
 21
-4.635467
 31
0.0
  0
LINE
  5
3AD
100
AcDbEntity
  8
2
100
AcDbLine
 10
-179.658578
 20
-3.171001
 30
0.0
 11
-176.123044
 21
0.364533
 31
0.0
  0
LINE
  5
3AE
100
AcDbEntity
  8
2
100
AcDbLine
 10
-189.96786
 20
7.364533
 30
0.0
 11
-177.658578
 21
19.673815
 31
0.0
  0
ARC
  5
3AF
100
AcDbEntity
  8
2
100
AcDbCircle
 10
-142.35498
 20
-8.29381
 30
0.0
 40
30.0
100
AcDbArc
 50
80.0
 51
135.0
  0
LINE
  5
3B0
100
AcDbEntity
  8
2
100
AcDbLine
 10
-189.96786
 20
7.364533
 30
0.0
 11
-189.96786
 21
2.364533
 31
0.0
  0
LINE
  5
3B1
100
AcDbEntity
  8
2
100
AcDbLine
 10
-181.123044
 20
16.209349
 30
0.0
 11
-181.123044
 21
2.364533
 31
0.0
  0
ARC
  5
3B2
100
AcDbEntity
  8
2
100
AcDbCircle
 10
-183.194112
 20
0.364533
 30
0.0
 40
5.0
100
AcDbArc
 50
270.0
 51
315.0
  0
LINE
  5
3B3
100
AcDbEntity
  8
2
100
AcDbLine
 10
-176.194112
 20
21.364533
 30
0.0
 11
-176.194112
 21
2.364533
 31
0.0
  0
ARC
  5
3B4
100
AcDbEntity
  8
2
100
AcDbCircle
 10
-181.194112
 20
23.209349
 30
0.0
 40
5.0
100
AcDbArc
 50
315.0
 51
338.348311
  0
LINE
  5
3B5
100
AcDbEntity
  8
2
100
AcDbLine
 10
-177.094112
 20
-0.606535
 30
0.0
 11
-177.094112
 21
0.364533
 31
0.0
  0
LINE
  5
3B6
100
AcDbEntity
  8
2
100
AcDbLine
 10
-189.96786
 20
0.364533
 30
0.0
 11
-189.96786
 21
-3.635467
 31
0.0
  0
LINE
  5
3B7
100
AcDbEntity
  8
2
100
AcDbLine
 10
-181.123044
 20
0.364533
 30
0.0
 11
-181.123044
 21
-4.186366
 31
0.0
  0
LINE
  5
3B8
100
AcDbEntity
  8
2
100
AcDbLine
 10
-176.194112
 20
0.364533
 30
0.0
 11
-176.194112
 21
0.293465
 31
0.0
  0
LINE
  5
3B9
100
AcDbEntity
  8
2
100
AcDbLine
 10
-174.123044
 20
2.364533
 30
0.0
 11
-163.568183
 21
12.919393
 31
0.0
  0
LINE
  5
3BA
100
AcDbEntity
  8
2
100
AcDbLine
 10
-169.194112
 20
2.364533
 30
0.0
 11
-169.194112
 21
0.364533
 31
0.0
  0
LINE
  5
3BB
100
AcDbEntity
  8
2
100
AcDbLine
 10
-169.194112
 20
2.364533
 30
0.0
 11
-294.194112
 21
2.364533
 31
0.0
  0
LINE
  5
3BC
100
AcDbEntity
  8
2
100
AcDbLine
 10
-294.194112
 20
0.364533
 30
0.0
 11
-169.194112
 21
0.364533
 31
0.0
  0
LINE
  5
3BD
100
AcDbEntity
  8
2
100
AcDbLine
 10
-204.782763
 20
2.364533
 30
0.0
 11
-204.782763
 21
0.364533
 31
0.0
  0
POINT
  5
3BE
100
AcDbEntity
  8
2
100
AcDbPoint
 10
-219.445374
 20
2.364533
 30
0.0
  0
LINE
  5
3BF
100
AcDbEntity
  8
2
100
AcDbLine
 10
-219.445374
 20
2.364533
 30
0.0
 11
-226.945374
 21
2.364533
 31
0.0
  0
LINE
  5
3C0
100
AcDbEntity
  8
2
100
AcDbLine
 10
-226.945374
 20
2.364533
 30
0.0
 11
-226.945374
 21
7.142845
 31
0.0
  0
LINE
  5
3C1
100
AcDbEntity
  8
2
100
AcDbLine
 10
-226.945374
 20
7.142845
 30
0.0
 11
-225.695374
 21
7.864533
 31
0.0
  0
LINE
  5
3C2
100
AcDbEntity
  8
2
100
AcDbLine
 10
-225.695374
 20
7.864533
 30
0.0
 11
-219.445374
 21
7.864533
 31
0.0
  0
LINE
  5
3C3
100
AcDbEntity
  8
2
100
AcDbLine
 10
-223.195374
 20
2.364533
 30
0.0
 11
-223.195374
 21
7.142845
 31
0.0
  0
ARC
  5
3C4
100
AcDbEntity
  8
2
100
AcDbCircle
 10
-225.070374
 20
4.732469
 30
0.0
 40
3.053774
100
AcDbArc
 50
52.121121
 51
127.878879
  0
ARC
  5
3C5
100
AcDbEntity
  8
2
100
AcDbCircle
 10
-219.445374
 20
-3.463757
 30
0.0
 40
11.25
100
AcDbArc
 50
90.0
 51
109.471221
  0
LINE
  5
3C6
100
AcDbEntity
  8
2
100
AcDbLine
 10
-219.445374
 20
-22.635467
 30
0.0
 11
-222.768874
 21
-22.635467
 31
0.0
  0
LINE
  5
3C7
100
AcDbEntity
  8
2
100
AcDbLine
 10
-222.768874
 20
-22.635467
 30
0.0
 11
-223.445374
 21
-21.958967
 31
0.0
  0
LINE
  5
3C8
100
AcDbEntity
  8
2
100
AcDbLine
 10
-223.445374
 20
-21.958967
 30
0.0
 11
-223.445374
 21
-20.135467
 31
0.0
  0
LINE
  5
3C9
100
AcDbEntity
  8
2
100
AcDbLine
 10
-223.445374
 20
-21.958967
 30
0.0
 11
-219.445374
 21
-21.958967
 31
0.0
  0
LINE
  5
3CA
100
AcDbEntity
  8
2
 62
     2
100
AcDbLine
 10
-222.768874
 20
-22.635467
 30
0.0
 11
-222.768874
 21
-20.135467
 31
0.0
  0
LINE
  5
3CB
100
AcDbEntity
  8
2
100
AcDbLine
 10
-219.445374
 20
2.364533
 30
0.0
 11
-211.945374
 21
2.364533
 31
0.0
  0
LINE
  5
3CC
100
AcDbEntity
  8
2
100
AcDbLine
 10
-211.945374
 20
2.364533
 30
0.0
 11
-211.945374
 21
7.142845
 31
0.0
  0
LINE
  5
3CD
100
AcDbEntity
  8
2
100
AcDbLine
 10
-211.945374
 20
7.142845
 30
0.0
 11
-213.195374
 21
7.864533
 31
0.0
  0
LINE
  5
3CE
100
AcDbEntity
  8
2
100
AcDbLine
 10
-213.195374
 20
7.864533
 30
0.0
 11
-219.445374
 21
7.864533
 31
0.0
  0
LINE
  5
3CF
100
AcDbEntity
  8
2
100
AcDbLine
 10
-215.695374
 20
2.364533
 30
0.0
 11
-215.695374
 21
7.142845
 31
0.0
  0
ARC
  5
3D0
100
AcDbEntity
  8
2
100
AcDbCircle
 10
-213.820374
 20
4.732469
 30
0.0
 40
3.053774
100
AcDbArc
 50
52.121121
 51
127.878879
  0
ARC
  5
3D1
100
AcDbEntity
  8
2
100
AcDbCircle
 10
-219.445374
 20
-3.463757
 30
0.0
 40
11.25
100
AcDbArc
 50
70.528779
 51
90.0
  0
LINE
  5
3D2
100
AcDbEntity
  8
2
100
AcDbLine
 10
-219.445374
 20
-22.635467
 30
0.0
 11
-216.121874
 21
-22.635467
 31
0.0
  0
LINE
  5
3D3
100
AcDbEntity
  8
2
100
AcDbLine
 10
-216.121874
 20
-22.635467
 30
0.0
 11
-215.445374
 21
-21.958967
 31
0.0
  0
LINE
  5
3D4
100
AcDbEntity
  8
2
100
AcDbLine
 10
-215.445374
 20
-21.958967
 30
0.0
 11
-215.445374
 21
-20.135467
 31
0.0
  0
LINE
  5
3D5
100
AcDbEntity
  8
2
100
AcDbLine
 10
-215.445374
 20
-21.958967
 30
0.0
 11
-219.445374
 21
-21.958967
 31
0.0
  0
LINE
  5
3D6
100
AcDbEntity
  8
2
 62
     2
100
AcDbLine
 10
-216.121874
 20
-22.635467
 30
0.0
 11
-216.121874
 21
-20.135467
 31
0.0
  0
POINT
  5
3D7
100
AcDbEntity
  8
2
100
AcDbPoint
 10
-219.445374
 20
-11.635467
 30
0.0
  0
LINE
  5
3D8
100
AcDbEntity
  8
2
100
AcDbLine
 10
-219.445374
 20
-13.635467
 30
0.0
 11
-211.945374
 21
-13.635467
 31
0.0
  0
LINE
  5
3D9
100
AcDbEntity
  8
2
100
AcDbLine
 10
-211.945374
 20
-13.635467
 30
0.0
 11
-211.945374
 21
-19.413779
 31
0.0
  0
LINE
  5
3DA
100
AcDbEntity
  8
2
100
AcDbLine
 10
-211.945374
 20
-19.413779
 30
0.0
 11
-213.195374
 21
-20.135467
 31
0.0
  0
LINE
  5
3DB
100
AcDbEntity
  8
2
100
AcDbLine
 10
-213.195374
 20
-20.135467
 30
0.0
 11
-219.445374
 21
-20.135467
 31
0.0
  0
LINE
  5
3DC
100
AcDbEntity
  8
2
100
AcDbLine
 10
-215.695374
 20
-13.635467
 30
0.0
 11
-215.695374
 21
-19.413779
 31
0.0
  0
ARC
  5
3DD
100
AcDbEntity
  8
2
100
AcDbCircle
 10
-213.820374
 20
-17.003403
 30
0.0
 40
3.053774
100
AcDbArc
 50
232.121121
 51
307.878879
  0
ARC
  5
3DE
100
AcDbEntity
  8
2
100
AcDbCircle
 10
-219.445374
 20
-8.807178
 30
0.0
 40
11.25
100
AcDbArc
 50
270.0
 51
289.471221
  0
LINE
  5
3DF
100
AcDbEntity
  8
2
100
AcDbLine
 10
-219.445374
 20
-13.635467
 30
0.0
 11
-226.945374
 21
-13.635467
 31
0.0
  0
LINE
  5
3E0
100
AcDbEntity
  8
2
100
AcDbLine
 10
-226.945374
 20
-13.635467
 30
0.0
 11
-226.945374
 21
-19.413779
 31
0.0
  0
LINE
  5
3E1
100
AcDbEntity
  8
2
100
AcDbLine
 10
-226.945374
 20
-19.413779
 30
0.0
 11
-225.695374
 21
-20.135467
 31
0.0
  0
LINE
  5
3E2
100
AcDbEntity
  8
2
100
AcDbLine
 10
-225.695374
 20
-20.135467
 30
0.0
 11
-219.445374
 21
-20.135467
 31
0.0
  0
LINE
  5
3E3
100
AcDbEntity
  8
2
100
AcDbLine
 10
-223.195374
 20
-13.635467
 30
0.0
 11
-223.195374
 21
-19.413779
 31
0.0
  0
ARC
  5
3E4
100
AcDbEntity
  8
2
100
AcDbCircle
 10
-225.070374
 20
-17.003403
 30
0.0
 40
3.053774
100
AcDbArc
 50
232.121121
 51
307.878879
  0
ARC
  5
3E5
100
AcDbEntity
  8
2
100
AcDbCircle
 10
-219.445374
 20
-8.807178
 30
0.0
 40
11.25
100
AcDbArc
 50
250.528779
 51
270.0
  0
LINE
  5
3E6
100
AcDbEntity
  8
2
100
AcDbLine
 10
-211.745374
 20
-11.635467
 30
0.0
 11
-211.745374
 21
-13.635467
 31
0.0
  0
LINE
  5
3E7
100
AcDbEntity
  8
2
100
AcDbLine
 10
-211.745374
 20
-13.635467
 30
0.0
 11
-227.145374
 21
-13.635467
 31
0.0
  0
LINE
  5
3E8
100
AcDbEntity
  8
2
100
AcDbLine
 10
-227.145374
 20
-13.635467
 30
0.0
 11
-227.145374
 21
-11.635467
 31
0.0
  0
LINE
  5
3E9
100
AcDbEntity
  8
2
100
AcDbLine
 10
-227.145374
 20
-11.635467
 30
0.0
 11
-211.745374
 21
-11.635467
 31
0.0
  0
LINE
  5
3EA
100
AcDbEntity
  8
2
100
AcDbLine
 10
-219.445374
 20
-13.635467
 30
0.0
 11
-219.945374
 21
-11.635467
 31
0.0
  0
LINE
  5
3EB
100
AcDbEntity
  8
2
100
AcDbLine
 10
-219.445374
 20
-11.635467
 30
0.0
 11
-218.945374
 21
-13.635467
 31
0.0
  0
POINT
  5
3EC
100
AcDbEntity
  8
2
100
AcDbPoint
 10
-268.942849
 20
2.364533
 30
0.0
  0
LINE
  5
3ED
100
AcDbEntity
  8
2
100
AcDbLine
 10
-268.942849
 20
2.364533
 30
0.0
 11
-276.442849
 21
2.364533
 31
0.0
  0
LINE
  5
3EE
100
AcDbEntity
  8
2
100
AcDbLine
 10
-276.442849
 20
2.364533
 30
0.0
 11
-276.442849
 21
7.142845
 31
0.0
  0
LINE
  5
3EF
100
AcDbEntity
  8
2
100
AcDbLine
 10
-276.442849
 20
7.142845
 30
0.0
 11
-275.192849
 21
7.864533
 31
0.0
  0
LINE
  5
3F0
100
AcDbEntity
  8
2
100
AcDbLine
 10
-275.192849
 20
7.864533
 30
0.0
 11
-268.942849
 21
7.864533
 31
0.0
  0
LINE
  5
3F1
100
AcDbEntity
  8
2
100
AcDbLine
 10
-272.692849
 20
2.364533
 30
0.0
 11
-272.692849
 21
7.142845
 31
0.0
  0
ARC
  5
3F2
100
AcDbEntity
  8
2
100
AcDbCircle
 10
-274.567849
 20
4.732469
 30
0.0
 40
3.053774
100
AcDbArc
 50
52.121121
 51
127.878879
  0
ARC
  5
3F3
100
AcDbEntity
  8
2
100
AcDbCircle
 10
-268.942849
 20
-3.463757
 30
0.0
 40
11.25
100
AcDbArc
 50
90.0
 51
109.471221
  0
LINE
  5
3F4
100
AcDbEntity
  8
2
100
AcDbLine
 10
-268.942849
 20
-22.635467
 30
0.0
 11
-272.266349
 21
-22.635467
 31
0.0
  0
LINE
  5
3F5
100
AcDbEntity
  8
2
100
AcDbLine
 10
-272.266349
 20
-22.635467
 30
0.0
 11
-272.942849
 21
-21.958967
 31
0.0
  0
LINE
  5
3F6
100
AcDbEntity
  8
2
100
AcDbLine
 10
-272.942849
 20
-21.958967
 30
0.0
 11
-272.942849
 21
-20.135467
 31
0.0
  0
LINE
  5
3F7
100
AcDbEntity
  8
2
100
AcDbLine
 10
-272.942849
 20
-21.958967
 30
0.0
 11
-268.942849
 21
-21.958967
 31
0.0
  0
LINE
  5
3F8
100
AcDbEntity
  8
2
 62
     2
100
AcDbLine
 10
-272.266349
 20
-22.635467
 30
0.0
 11
-272.266349
 21
-20.135467
 31
0.0
  0
LINE
  5
3F9
100
AcDbEntity
  8
2
100
AcDbLine
 10
-268.942849
 20
2.364533
 30
0.0
 11
-261.442849
 21
2.364533
 31
0.0
  0
LINE
  5
3FA
100
AcDbEntity
  8
2
100
AcDbLine
 10
-261.442849
 20
2.364533
 30
0.0
 11
-261.442849
 21
7.142845
 31
0.0
  0
LINE
  5
3FB
100
AcDbEntity
  8
2
100
AcDbLine
 10
-261.442849
 20
7.142845
 30
0.0
 11
-262.692849
 21
7.864533
 31
0.0
  0
LINE
  5
3FC
100
AcDbEntity
  8
2
100
AcDbLine
 10
-262.692849
 20
7.864533
 30
0.0
 11
-268.942849
 21
7.864533
 31
0.0
  0
LINE
  5
3FD
100
AcDbEntity
  8
2
100
AcDbLine
 10
-265.192849
 20
2.364533
 30
0.0
 11
-265.192849
 21
7.142845
 31
0.0
  0
ARC
  5
3FE
100
AcDbEntity
  8
2
100
AcDbCircle
 10
-263.317849
 20
4.732469
 30
0.0
 40
3.053774
100
AcDbArc
 50
52.121121
 51
127.878879
  0
ARC
  5
3FF
100
AcDbEntity
  8
2
100
AcDbCircle
 10
-268.942849
 20
-3.463757
 30
0.0
 40
11.25
100
AcDbArc
 50
70.528779
 51
90.0
  0
LINE
  5
400
100
AcDbEntity
  8
2
100
AcDbLine
 10
-268.942849
 20
-22.635467
 30
0.0
 11
-265.619349
 21
-22.635467
 31
0.0
  0
LINE
  5
401
100
AcDbEntity
  8
2
100
AcDbLine
 10
-265.619349
 20
-22.635467
 30
0.0
 11
-264.942849
 21
-21.958967
 31
0.0
  0
LINE
  5
402
100
AcDbEntity
  8
2
100
AcDbLine
 10
-264.942849
 20
-21.958967
 30
0.0
 11
-264.942849
 21
-20.135467
 31
0.0
  0
LINE
  5
403
100
AcDbEntity
  8
2
100
AcDbLine
 10
-264.942849
 20
-21.958967
 30
0.0
 11
-268.942849
 21
-21.958967
 31
0.0
  0
LINE
  5
404
100
AcDbEntity
  8
2
 62
     2
100
AcDbLine
 10
-265.619349
 20
-22.635467
 30
0.0
 11
-265.619349
 21
-20.135467
 31
0.0
  0
POINT
  5
405
100
AcDbEntity
  8
2
100
AcDbPoint
 10
-268.942849
 20
-11.635467
 30
0.0
  0
LINE
  5
406
100
AcDbEntity
  8
2
100
AcDbLine
 10
-263.194112
 20
-20.135467
 30
0.0
 11
-268.942849
 21
-20.135467
 31
0.0
  0
LINE
  5
407
100
AcDbEntity
  8
2
100
AcDbLine
 10
-265.192849
 20
-13.635467
 30
0.0
 11
-265.192849
 21
-19.413779
 31
0.0
  0
ARC
  5
408
100
AcDbEntity
  8
2
100
AcDbCircle
 10
-263.317849
 20
-17.003403
 30
0.0
 40
3.053774
100
AcDbArc
 50
232.121121
 51
272.322224
  0
ARC
  5
409
100
AcDbEntity
  8
2
100
AcDbCircle
 10
-268.942849
 20
-8.807178
 30
0.0
 40
11.25
100
AcDbArc
 50
270.0
 51
289.471221
  0
LINE
  5
40A
100
AcDbEntity
  8
2
100
AcDbLine
 10
-263.730011
 20
-13.635467
 30
0.0
 11
-276.442849
 21
-13.635467
 31
0.0
  0
LINE
  5
40B
100
AcDbEntity
  8
2
100
AcDbLine
 10
-276.442849
 20
-13.635467
 30
0.0
 11
-276.442849
 21
-19.413779
 31
0.0
  0
LINE
  5
40C
100
AcDbEntity
  8
2
100
AcDbLine
 10
-276.442849
 20
-19.413779
 30
0.0
 11
-275.192849
 21
-20.135467
 31
0.0
  0
LINE
  5
40D
100
AcDbEntity
  8
2
100
AcDbLine
 10
-275.192849
 20
-20.135467
 30
0.0
 11
-268.942849
 21
-20.135467
 31
0.0
  0
LINE
  5
40E
100
AcDbEntity
  8
2
100
AcDbLine
 10
-272.692849
 20
-13.635467
 30
0.0
 11
-272.692849
 21
-19.413779
 31
0.0
  0
ARC
  5
40F
100
AcDbEntity
  8
2
100
AcDbCircle
 10
-274.567849
 20
-17.003403
 30
0.0
 40
3.053774
100
AcDbArc
 50
232.121121
 51
307.878879
  0
ARC
  5
410
100
AcDbEntity
  8
2
100
AcDbCircle
 10
-268.942849
 20
-8.807178
 30
0.0
 40
11.25
100
AcDbArc
 50
250.528779
 51
270.0
  0
LINE
  5
411
100
AcDbEntity
  8
2
100
AcDbLine
 10
-269.560915
 20
-13.635467
 30
0.0
 11
-276.642849
 21
-13.635467
 31
0.0
  0
LINE
  5
412
100
AcDbEntity
  8
2
100
AcDbLine
 10
-276.642849
 20
-13.635467
 30
0.0
 11
-276.642849
 21
-11.635467
 31
0.0
  0
LINE
  5
413
100
AcDbEntity
  8
2
100
AcDbLine
 10
-276.642849
 20
-11.635467
 30
0.0
 11
-261.242849
 21
-11.635467
 31
0.0
  0
LINE
  5
414
100
AcDbEntity
  8
2
  6
CENTER
 62
     2
100
AcDbLine
 10
-219.445375
 20
-23.372357
 30
0.0
 11
-219.445375
 21
9.476415
 31
0.0
  0
LINE
  5
415
100
AcDbEntity
  8
2
  6
CENTER
 62
     2
100
AcDbLine
 10
-268.94285
 20
-23.875781
 30
0.0
 11
-268.94285
 21
9.350566
 31
0.0
  0
LINE
  5
416
100
AcDbEntity
  8
2
100
AcDbLine
 10
-294.194112
 20
2.364533
 30
0.0
 11
-294.194112
 21
0.364533
 31
0.0
  0
ARC
  5
417
100
AcDbEntity
  8
2
100
AcDbCircle
 10
-49.944278
 20
61.541907
 30
0.0
 40
5.0
100
AcDbArc
 50
12.0
 51
102.0
  0
LINE
  5
418
100
AcDbEntity
  8
2
100
AcDbLine
 10
-44.354505
 20
59.29276
 30
0.0
 11
-45.05354
 21
62.581465
 31
0.0
  0
LINE
  5
419
100
AcDbEntity
  8
2
100
AcDbLine
 10
-143.26518
 20
24.293465
 30
0.0
 11
-140.57802
 21
26.980625
 31
0.0
  0
ARC
  5
41A
100
AcDbEntity
  8
2
100
AcDbCircle
 10
-45.332652
 20
59.084849
 30
0.0
 40
1.0
100
AcDbArc
 50
285.0
 51
12.0
  0
LINE
  5
41B
100
AcDbEntity
  8
2
100
AcDbLine
 10
-45.073833
 20
58.118923
 30
0.0
 11
-122.64651
 21
37.333387
 31
0.0
  0
ARC
  5
41C
100
AcDbEntity
  8
2
100
AcDbCircle
 10
-112.293749
 20
-1.303646
 30
0.0
 40
40.0
100
AcDbArc
 50
105.0
 51
135.0
  0
LINE
  5
41D
100
AcDbEntity
  8
2
100
AcDbLine
 10
-107.636484
 20
36.671687
 30
0.0
 11
-101.801229
 21
35.899868
 31
0.0
  0
LINE
  5
41E
100
AcDbEntity
  8
2
100
AcDbLine
 10
-107.75676
 20
41.323083
 30
0.0
 11
-102.25503
 21
40.872167
 31
0.0
  0
LINE
  5
41F
100
AcDbEntity
  8
2
100
AcDbLine
 10
-98.360368
 20
42.452157
 30
0.0
 11
-107.881282
 21
38.589703
 31
0.0
  0
LINE
  5
420
100
AcDbEntity
  8
2
100
AcDbLine
 10
-97.608519
 20
40.598857
 30
0.0
 11
-107.129433
 21
36.736402
 31
0.0
  0
LINE
  5
421
100
AcDbEntity
  8
2
100
AcDbLine
 10
-97.679362
 20
37.270557
 30
0.0
 11
-107.634717
 21
33.959996
 31
0.0
  0
LINE
  5
422
100
AcDbEntity
  8
2
100
AcDbLine
 10
-97.048261
 20
35.37274
 30
0.0
 11
-107.003615
 21
32.062179
 31
0.0
  0
LINE
  5
423
100
AcDbEntity
  8
2
100
AcDbLine
 10
-97.608849
 20
31.626236
 30
0.0
 11
-107.828667
 21
27.680074
 31
0.0
  0
LINE
  5
424
100
AcDbEntity
  8
2
100
AcDbLine
 10
-96.888432
 20
29.760492
 30
0.0
 11
-107.316029
 21
25.734101
 31
0.0
  0
LINE
  5
425
100
AcDbEntity
  8
2
100
AcDbLine
 10
-107.541099
 20
32.036025
 30
0.0
 11
-105.386537
 21
31.545626
 31
0.0
  0
ARC
  5
426
100
AcDbEntity
  8
2
100
AcDbCircle
 10
-107.319166
 20
33.011087
 30
0.0
 40
1.0
100
AcDbArc
 50
108.394069
 51
288.394069
  0
ARC
  5
427
100
AcDbEntity
  8
2
100
AcDbCircle
 10
-107.505357
 20
37.663053
 30
0.0
 40
1.0
100
AcDbArc
 50
112.081463
 51
292.081463
  0
ARC
  5
428
100
AcDbEntity
  8
2
100
AcDbCircle
 10
-97.363811
 20
36.321648
 30
0.0
 40
1.0
100
AcDbArc
 50
288.394069
 51
108.394069
  0
CIRCLE
  5
429
100
AcDbEntity
  8
2
100
AcDbCircle
 10
-97.481595
 20
26.411575
 30
0.0
 40
1.0
  0
LINE
  5
42A
100
AcDbEntity
  8
2
100
AcDbLine
 10
-98.397872
 20
27.442368
 30
0.0
 11
-97.481595
 21
27.411575
 31
0.0
  0
LINE
  5
42B
100
AcDbEntity
  8
2
100
AcDbLine
 10
-103.622663
 20
33.186483
 30
0.0
 11
-97.024355
 21
31.667888
 31
0.0
  0
LINE
  5
42C
100
AcDbEntity
  8
2
100
AcDbLine
 10
-100.668565
 20
30.471771
 30
0.0
 11
-100.624607
 21
30.461766
 31
0.0
  0
ARC
  5
42D
100
AcDbEntity
  8
2
100
AcDbCircle
 10
-97.248641
 20
30.693364
 30
0.0
 40
1.0
100
AcDbArc
 50
291.112991
 51
111.112991
  0
LINE
  5
42E
100
AcDbEntity
  8
2
100
AcDbLine
 10
-102.02181
 20
42.859759
 30
0.0
 11
-97.902759
 21
42.522165
 31
0.0
  0
LINE
  5
42F
100
AcDbEntity
  8
2
100
AcDbLine
 10
-103.624201
 20
38.158409
 30
0.0
 11
-97.232685
 21
37.313014
 31
0.0
  0
ARC
  5
430
100
AcDbEntity
  8
2
100
AcDbCircle
 10
-97.984444
 20
41.525507
 30
0.0
 40
1.0
100
AcDbArc
 50
292.081463
 51
112.081463
  0
ARC
  5
431
100
AcDbEntity
  8
2
100
AcDbCircle
 10
-107.468459
 20
26.747202
 30
0.0
 40
1.0
100
AcDbArc
 50
111.105845
 51
266.001991
  0
LINE
  5
432
100
AcDbEntity
  8
2
100
AcDbLine
 10
-98.284644
 20
25.438889
 30
0.0
 11
-97.481595
 21
25.411575
 31
0.0
  0
ARC
  5
433
100
AcDbEntity
  8
2
  6
CENTER
 62
     2
100
AcDbCircle
 10
-154.194112
 20
31.364533
 30
0.0
 40
52.075925
100
AcDbArc
 50
348.756732
 51
23.167626
  0
ARC
  5
434
100
AcDbEntity
  8
2
100
AcDbCircle
 10
-52.196117
 20
18.139093
 30
0.0
 40
8.0
100
AcDbArc
 50
359.985133
 51
88.0
  0
LINE
  5
435
100
AcDbEntity
  8
2
100
AcDbLine
 10
-137.145535
 20
21.250423
 30
0.0
 11
-113.37689
 21
17.059369
 31
0.0
  0
LINE
  5
436
100
AcDbEntity
  8
2
100
AcDbLine
 10
-110.461151
 20
26.956471
 30
0.0
 11
-110.408376
 21
27.711195
 31
0.0
  0
LINE
  5
437
100
AcDbEntity
  8
2
100
AcDbLine
 10
-94.500126
 20
25.840368
 30
0.0
 11
-94.445654
 21
26.619356
 31
0.0
  0
LINE
  5
438
100
AcDbEntity
  8
2
100
AcDbLine
 10
-105.111307
 20
31.78488
 30
0.0
 11
-99.125922
 21
31.366341
 31
0.0
  0
LINE
  5
439
100
AcDbEntity
  8
2
100
AcDbLine
 10
-106.361161
 20
28.24672
 30
0.0
 11
-106.178627
 21
30.857073
 31
0.0
  0
LINE
  5
43A
100
AcDbEntity
  8
2
100
AcDbLine
 10
-98.490383
 20
26.119394
 30
0.0
 11
-98.273161
 21
29.225809
 31
0.0
  0
LINE
  5
43B
100
AcDbEntity
  8
2
100
AcDbLine
 10
-106.178627
 20
30.857073
 30
0.0
 11
-105.111307
 21
31.78488
 31
0.0
  0
LINE
  5
43C
100
AcDbEntity
  8
2
100
AcDbLine
 10
-99.125922
 20
31.366341
 30
0.0
 11
-98.913823
 21
31.122349
 31
0.0
  0
LINE
  5
43D
100
AcDbEntity
  8
2
100
AcDbLine
 10
-44.196117
 20
18.137017
 30
0.0
 11
-44.196688
 21
15.935056
 31
0.0
  0
LINE
  5
43E
100
AcDbEntity
  8
2
100
AcDbLine
 10
-51.916921
 20
26.134219
 30
0.0
 11
-93.376507
 21
27.58202
 31
0.0
  0
ARC
  5
43F
100
AcDbEntity
  8
2
100
AcDbCircle
 10
-97.492819
 20
26.049637
 30
0.0
 40
1.0
100
AcDbArc
 50
176.0
 51
266.0
  0
LINE
  5
440
100
AcDbEntity
  8
2
100
AcDbLine
 10
-109.533344
 20
25.889151
 30
0.0
 11
-95.567447
 21
24.91256
 31
0.0
  0
LINE
  5
441
100
AcDbEntity
  8
2
100
AcDbLine
 10
-106.178627
 20
30.857073
 30
0.0
 11
-100.609408
 21
30.467635
 31
0.0
  0
ARC
  5
442
100
AcDbEntity
  8
2
100
AcDbCircle
 10
-99.485035
 20
95.843989
 30
0.0
 40
80.0
100
AcDbArc
 50
260.0
 51
269.845396
  0
ARC
  5
443
100
AcDbEntity
  8
2
100
AcDbCircle
 10
-46.196688
 20
15.935575
 30
0.0
 40
2.0
100
AcDbArc
 50
222.427004
 51
359.985133
  0
ARC
  5
444
100
AcDbEntity
  8
2
100
AcDbCircle
 10
-53.578063
 20
9.189071
 30
0.0
 40
8.0
100
AcDbArc
 50
42.427004
 51
123.659088
  0
ARC
  5
445
100
AcDbEntity
  8
2
100
AcDbCircle
 10
-62.446066
 20
22.506673
 30
0.0
 40
8.0
100
AcDbArc
 50
232.340912
 51
303.659088
  0
ARC
  5
446
100
AcDbEntity
  8
2
100
AcDbCircle
 10
-72.221457
 20
9.840113
 30
0.0
 40
8.0
100
AcDbArc
 50
52.340912
 51
123.659088
  0
ARC
  5
447
100
AcDbEntity
  8
2
100
AcDbCircle
 10
-81.089461
 20
23.157715
 30
0.0
 40
8.0
100
AcDbArc
 50
232.340912
 51
303.659088
  0
ARC
  5
448
100
AcDbEntity
  8
2
100
AcDbCircle
 10
-90.864851
 20
10.491155
 30
0.0
 40
8.0
100
AcDbArc
 50
52.340912
 51
123.42906
  0
ARC
  5
449
100
AcDbEntity
  8
2
100
AcDbCircle
 10
-99.679317
 20
23.844252
 30
0.0
 40
8.0
100
AcDbArc
 50
269.845396
 51
303.42906
  0
LINE
  5
44A
100
AcDbEntity
  8
2
100
AcDbLine
 10
-110.408376
 20
27.711195
 30
0.0
 11
-111.323427
 21
28.882408
 31
0.0
  0
LINE
  5
44B
100
AcDbEntity
  8
2
100
AcDbLine
 10
-93.376507
 20
27.58202
 30
0.0
 11
-94.445654
 21
26.619356
 31
0.0
  0
ARC
  5
44C
100
AcDbEntity
  8
2
100
AcDbCircle
 10
-109.463587
 20
26.886715
 30
0.0
 40
1.0
100
AcDbArc
 50
176.0
 51
266.0
  0
ARC
  5
44D
100
AcDbEntity
  8
2
100
AcDbCircle
 10
-95.497691
 20
25.910124
 30
0.0
 40
1.0
100
AcDbArc
 50
266.0
 51
356.0
  0
LINE
  5
44E
100
AcDbEntity
  8
2
100
AcDbLine
 10
-135.194112
 20
20.906334
 30
0.0
 11
-135.194112
 21
31.492289
 31
0.0
  0
LINE
  5
44F
100
AcDbEntity
  8
2
100
AcDbLine
 10
-133.184691
 20
32.737138
 30
0.0
 11
-111.323427
 21
28.882408
 31
0.0
  0
ARC
  5
450
100
AcDbEntity
  8
2
100
AcDbCircle
 10
-132.663747
 20
35.691562
 30
0.0
 40
3.0
100
AcDbArc
 50
258.30264
 51
260.0
  0
LINE
  5
451
100
AcDbEntity
  8
2
100
AcDbLine
 10
-149.194112
 20
31.364533
 30
0.0
 11
-149.194112
 21
22.364533
 31
0.0
  0
ARC
  5
452
100
AcDbEntity
  8
2
100
AcDbCircle
 10
-150.194112
 20
22.364533
 30
0.0
 40
1.0
100
AcDbArc
 50
270.0
 51
360.0
  0
LINE
  5
453
100
AcDbEntity
  8
2
100
AcDbLine
 10
63.968825
 20
21.364533
 30
0.0
 11
69.968825
 21
21.364533
 31
0.0
  0
ARC
  5
454
100
AcDbEntity
  8
2
100
AcDbCircle
 10
65.468825
 20
22.364533
 30
0.0
 40
1.0
100
AcDbArc
 50
180.0
 51
270.0
  0
LINE
  5
455
100
AcDbEntity
  8
2
100
AcDbLine
 10
89.968825
 20
21.364533
 30
0.0
 11
83.968825
 21
21.364533
 31
0.0
  0
ARC
  5
456
100
AcDbEntity
  8
2
100
AcDbCircle
 10
88.468825
 20
22.364533
 30
0.0
 40
1.0
100
AcDbArc
 50
270.0
 51
360.0
  0
LINE
  5
457
100
AcDbEntity
  8
2
100
AcDbLine
 10
90.968825
 20
33.364533
 30
0.0
 11
91.968825
 21
32.364533
 31
0.0
  0
LINE
  5
458
100
AcDbEntity
  8
2
100
AcDbLine
 10
91.968825
 20
12.364533
 30
0.0
 11
91.968825
 21
32.364533
 31
0.0
  0
LINE
  5
459
100
AcDbEntity
  8
2
100
AcDbLine
 10
82.968825
 20
22.364533
 30
0.0
 11
82.968825
 21
33.108902
 31
0.0
  0
LINE
  5
45A
100
AcDbEntity
  8
2
100
AcDbLine
 10
90.968825
 20
22.364533
 30
0.0
 11
90.968825
 21
35.864533
 31
0.0
  0
ARC
  5
45B
100
AcDbEntity
  8
2
100
AcDbCircle
 10
90.468825
 20
35.864533
 30
0.0
 40
0.5
100
AcDbArc
 50
0.0
 51
90.0
  0
ARC
  5
45C
100
AcDbEntity
  8
2
100
AcDbCircle
 10
89.968825
 20
36.864533
 30
0.0
 40
0.5
100
AcDbArc
 50
180.0
 51
270.0
  0
LINE
  5
45D
100
AcDbEntity
  8
2
100
AcDbLine
 10
90.468825
 20
36.364533
 30
0.0
 11
89.968825
 21
36.364533
 31
0.0
  0
LINE
  5
45E
100
AcDbEntity
  8
2
100
AcDbLine
 10
89.468825
 20
22.364533
 30
0.0
 11
89.468825
 21
36.864533
 31
0.0
  0
LINE
  5
45F
100
AcDbEntity
  8
2
100
AcDbLine
 10
85.058025
 20
34.508124
 30
0.0
 11
83.6636
 21
34.061182
 31
0.0
  0
ARC
  5
460
100
AcDbEntity
  8
2
100
AcDbCircle
 10
83.968825
 20
33.108902
 30
0.0
 40
1.0
100
AcDbArc
 50
107.771715
 51
180.0
  0
LINE
  5
461
100
AcDbEntity
  8
2
100
AcDbLine
 10
82.968825
 20
39.610804
 30
0.0
 11
82.968825
 21
33.108902
 31
0.0
  0
LINE
  5
462
100
AcDbEntity
  8
2
100
AcDbLine
 10
90.968825
 20
28.837545
 30
0.0
 11
91.768825
 21
21.291769
 31
0.0
  0
ARC
  5
463
100
AcDbEntity
  8
2
100
AcDbCircle
 10
89.968825
 20
22.364533
 30
0.0
 40
1.0
100
AcDbArc
 50
270.0
 51
360.0
  0
ARC
  5
464
100
AcDbEntity
  8
2
100
AcDbCircle
 10
83.968825
 20
22.364533
 30
0.0
 40
1.0
100
AcDbArc
 50
180.0
 51
270.0
  0
ARC
  5
465
100
AcDbEntity
  8
2
100
AcDbCircle
 10
84.7528
 20
35.460405
 30
0.0
 40
1.0
100
AcDbArc
 50
287.771715
 51
6.051867
  0
ARC
  5
466
100
AcDbEntity
  8
2
100
AcDbCircle
 10
69.18485
 20
35.460405
 30
0.0
 40
1.0
100
AcDbArc
 50
173.948133
 51
252.228285
  0
ARC
  5
467
100
AcDbEntity
  8
2
100
AcDbCircle
 10
69.968825
 20
22.364533
 30
0.0
 40
1.0
100
AcDbArc
 50
270.0
 51
360.0
  0
ARC
  5
468
100
AcDbEntity
  8
2
100
AcDbCircle
 10
63.968825
 20
22.364533
 30
0.0
 40
1.0
100
AcDbArc
 50
180.0
 51
270.0
  0
ARC
  5
469
100
AcDbEntity
  8
2
100
AcDbCircle
 10
86.799412
 20
16.156316
 30
0.0
 40
1.0
100
AcDbArc
 50
279.951879
 51
6.051867
  0
ARC
  5
46A
100
AcDbEntity
  8
2
100
AcDbCircle
 10
67.138238
 20
16.156316
 30
0.0
 40
1.0
100
AcDbArc
 50
173.948133
 51
260.048121
  0
ARC
  5
46B
100
AcDbEntity
  8
2
100
AcDbCircle
 10
76.968825
 20
72.183464
 30
0.0
 40
57.883053
100
AcDbArc
 50
260.048121
 51
264.1497
  0
LINE
  5
46C
100
AcDbEntity
  8
2
100
AcDbLine
 10
62.168825
 20
12.364533
 30
0.0
 11
62.168825
 21
21.291769
 31
0.0
  0
LINE
  5
46D
100
AcDbEntity
  8
2
100
AcDbLine
 10
62.968825
 20
28.837545
 30
0.0
 11
62.168825
 21
21.291769
 31
0.0
  0
LINE
  5
46E
100
AcDbEntity
  8
2
100
AcDbLine
 10
66.684807
 20
21.364533
 30
0.0
 11
66.143812
 21
16.261744
 31
0.0
  0
LINE
  5
46F
100
AcDbEntity
  8
2
100
AcDbLine
 10
87.968825
 20
12.364533
 30
0.0
 11
87.968825
 21
11.364533
 31
0.0
  0
ARC
  5
470
100
AcDbEntity
  8
2
100
AcDbCircle
 10
82.468825
 20
50.470418
 30
0.0
 40
1.5
100
AcDbArc
 50
69.332801
 51
94.270956
  0
LINE
  5
471
100
AcDbEntity
  8
2
100
AcDbLine
 10
90.968825
 20
28.837545
 30
0.0
 11
91.968825
 21
19.405324
 31
0.0
  0
ARC
  5
472
100
AcDbEntity
  8
2
100
AcDbCircle
 10
82.543961
 20
60.947732
 30
0.0
 40
5.0
100
AcDbArc
 50
9.174666
 51
77.83324
  0
LINE
  5
473
100
AcDbEntity
  8
2
100
AcDbLine
 10
87.479995
 20
61.744956
 30
0.0
 11
87.479995
 21
57.16231
 31
0.0
  0
LINE
  5
474
100
AcDbEntity
  8
2
100
AcDbLine
 10
80.968825
 20
50.134528
 30
0.0
 11
80.968825
 21
47.448914
 31
0.0
  0
ARC
  5
475
100
AcDbEntity
  8
2
100
AcDbCircle
 10
86.479995
 20
57.16231
 30
0.0
 40
1.0
100
AcDbArc
 50
259.300245
 51
360.0
  0
LINE
  5
476
100
AcDbEntity
  8
2
100
AcDbLine
 10
87.479995
 20
61.744956
 30
0.0
 11
90.170817
 21
36.364533
 31
0.0
  0
ARC
  5
477
100
AcDbEntity
  8
2
100
AcDbCircle
 10
82.603889
 20
55.729406
 30
0.0
 40
1.0
100
AcDbArc
 50
6.051867
 51
83.42706
  0
LINE
  5
478
100
AcDbEntity
  8
2
100
AcDbLine
 10
87.252843
 20
21.364533
 30
0.0
 11
87.793838
 21
16.261744
 31
0.0
  0
ARC
  5
479
100
AcDbEntity
  8
2
100
AcDbCircle
 10
79.968825
 20
39.610804
 30
0.0
 40
3.0
100
AcDbArc
 50
0.0
 51
28.460849
  0
LINE
  5
47A
100
AcDbEntity
  8
2
100
AcDbLine
 10
83.598316
 20
55.834834
 30
0.0
 11
85.747227
 21
35.565833
 31
0.0
  0
LINE
  5
47B
100
AcDbEntity
  8
2
100
AcDbLine
 10
82.968825
 20
39.610804
 30
0.0
 11
82.968825
 21
34.448533
 31
0.0
  0
LINE
  5
47C
100
AcDbEntity
  8
2
100
AcDbLine
 10
70.968825
 20
39.610804
 30
0.0
 11
70.968825
 21
33.108902
 31
0.0
  0
ARC
  5
47D
100
AcDbEntity
  8
2
100
AcDbCircle
 10
69.968825
 20
33.108902
 30
0.0
 40
1.0
100
AcDbArc
 50
0.0
 51
72.228285
  0
LINE
  5
47E
100
AcDbEntity
  8
2
100
AcDbLine
 10
70.339334
 20
55.834834
 30
0.0
 11
68.190423
 21
35.565833
 31
0.0
  0
ARC
  5
47F
100
AcDbEntity
  8
2
100
AcDbCircle
 10
73.968825
 20
39.610804
 30
0.0
 40
3.0
100
AcDbArc
 50
113.205282
 51
180.0
  0
LINE
  5
480
100
AcDbEntity
  8
2
100
AcDbLine
 10
68.879624
 20
34.508124
 30
0.0
 11
70.27405
 21
34.061182
 31
0.0
  0
LINE
  5
481
100
AcDbEntity
  8
2
100
AcDbLine
 10
65.968825
 20
12.364533
 30
0.0
 11
65.968825
 21
11.364533
 31
0.0
  0
ARC
  5
482
100
AcDbEntity
  8
2
100
AcDbCircle
 10
71.333761
 20
55.729406
 30
0.0
 40
1.0
100
AcDbArc
 50
96.57294
 51
173.948133
  0
LINE
  5
483
100
AcDbEntity
  8
2
100
AcDbLine
 10
91.968825
 20
12.364533
 30
0.0
 11
82.868825
 21
12.364533
 31
0.0
  0
LINE
  5
484
100
AcDbEntity
  8
2
100
AcDbLine
 10
65.968825
 20
11.364533
 30
0.0
 11
71.068825
 21
11.364533
 31
0.0
  0
LINE
  5
485
100
AcDbEntity
  8
2
100
AcDbLine
 10
64.468825
 20
22.364533
 30
0.0
 11
64.468825
 21
36.864533
 31
0.0
  0
LINE
  5
486
100
AcDbEntity
  8
2
100
AcDbLine
 10
66.457655
 20
61.744956
 30
0.0
 11
63.766833
 21
36.364533
 31
0.0
  0
LINE
  5
487
100
AcDbEntity
  8
2
100
AcDbLine
 10
63.468825
 20
36.364533
 30
0.0
 11
63.968825
 21
36.364533
 31
0.0
  0
ARC
  5
488
100
AcDbEntity
  8
2
100
AcDbCircle
 10
63.968825
 20
36.864533
 30
0.0
 40
0.5
100
AcDbArc
 50
270.0
 51
360.0
  0
ARC
  5
489
100
AcDbEntity
  8
2
100
AcDbCircle
 10
63.468825
 20
35.864533
 30
0.0
 40
0.5
100
AcDbArc
 50
90.0
 51
180.0
  0
LINE
  5
48A
100
AcDbEntity
  8
2
100
AcDbLine
 10
62.968825
 20
22.364533
 30
0.0
 11
62.968825
 21
35.864533
 31
0.0
  0
ARC
  5
48B
100
AcDbEntity
  8
2
100
AcDbCircle
 10
76.968825
 20
6.824682
 30
0.0
 40
50.228304
100
AcDbArc
 50
79.300245
 51
100.699755
  0
ARC
  5
48C
100
AcDbEntity
  8
2
100
AcDbCircle
 10
67.457655
 20
57.16231
 30
0.0
 40
1.0
100
AcDbArc
 50
180.0
 51
280.699755
  0
ARC
  5
48D
100
AcDbEntity
  8
2
100
AcDbCircle
 10
76.968825
 20
42.275859
 30
0.0
 40
11.334722
100
AcDbArc
 50
68.408724
 51
114.66929
  0
LINE
  5
48E
100
AcDbEntity
  8
2
100
AcDbLine
 10
72.968825
 20
46.297651
 30
0.0
 11
73.968825
 21
45.297651
 31
0.0
  0
ARC
  5
48F
100
AcDbEntity
  8
2
100
AcDbCircle
 10
76.968825
 20
37.276136
 30
0.0
 40
9.868523
100
AcDbArc
 50
76.978496
 51
113.911756
  0
ARC
  5
490
100
AcDbEntity
  8
2
100
AcDbCircle
 10
71.468825
 20
50.470418
 30
0.0
 40
1.5
100
AcDbArc
 50
0.0
 51
110.667199
  0
LINE
  5
491
100
AcDbEntity
  8
2
100
AcDbLine
 10
72.968825
 20
50.470418
 30
0.0
 11
72.968825
 21
50.298795
 31
0.0
  0
LINE
  5
492
100
AcDbEntity
  8
2
100
AcDbLine
 10
70.968825
 20
22.364533
 30
0.0
 11
70.968825
 21
33.108902
 31
0.0
  0
LINE
  5
493
100
AcDbEntity
  8
2
100
AcDbLine
 10
66.457655
 20
61.744956
 30
0.0
 11
66.457655
 21
57.16231
 31
0.0
  0
LINE
  5
494
100
AcDbEntity
  8
2
100
AcDbLine
 10
60.968825
 20
33.364533
 30
0.0
 11
62.968825
 21
33.364533
 31
0.0
  0
LINE
  5
495
100
AcDbEntity
  8
2
100
AcDbLine
 10
59.968825
 20
32.364533
 30
0.0
 11
59.968825
 21
12.364533
 31
0.0
  0
ARC
  5
496
100
AcDbEntity
  8
2
100
AcDbCircle
 10
60.968825
 20
32.364533
 30
0.0
 40
1.0
100
AcDbArc
 50
90.0
 51
180.0
  0
ARC
  5
497
100
AcDbEntity
  8
2
100
AcDbCircle
 10
71.393689
 20
60.947732
 30
0.0
 40
5.0
100
AcDbArc
 50
102.16676
 51
170.825334
  0
ARC
  5
498
100
AcDbEntity
  8
2
100
AcDbCircle
 10
76.968825
 20
35.089085
 30
0.0
 40
31.452822
100
AcDbArc
 50
77.83324
 51
102.16676
  0
LINE
  5
499
100
AcDbEntity
  8
2
100
AcDbLine
 10
82.868825
 20
11.364533
 30
0.0
 11
87.968825
 21
11.364533
 31
0.0
  0
LINE
  5
49A
100
AcDbEntity
  8
2
100
AcDbLine
 10
71.068825
 20
12.364533
 30
0.0
 11
59.968825
 21
12.364533
 31
0.0
  0
ARC
  5
49B
100
AcDbEntity
  8
2
100
AcDbCircle
 10
76.968825
 20
72.183464
 30
0.0
 40
57.883053
100
AcDbArc
 50
275.8503
 51
279.951879
  0
LINE
  5
49C
100
AcDbEntity
  8
2
100
AcDbLine
 10
72.968825
 20
48.31148
 30
0.0
 11
72.968825
 21
46.297651
 31
0.0
  0
ARC
  5
49D
100
AcDbEntity
  8
2
100
AcDbCircle
 10
79.968825
 20
39.610804
 30
0.0
 40
3.0
100
AcDbArc
 50
55.144622
 51
90.0
  0
LINE
  5
49E
100
AcDbEntity
  8
2
100
AcDbLine
 10
81.307186
 20
42.029564
 30
0.0
 11
71.746002
 21
39.026211
 31
0.0
  0
LINE
  5
49F
100
AcDbEntity
  8
2
100
AcDbLine
 10
81.90655
 20
40.121486
 30
0.0
 11
72.345366
 21
37.118132
 31
0.0
  0
LINE
  5
4A0
100
AcDbEntity
  8
2
100
AcDbLine
 10
71.790606
 20
37.105251
 30
0.0
 11
78.003649
 21
35.466222
 31
0.0
  0
LINE
  5
4A1
100
AcDbEntity
  8
2
100
AcDbLine
 10
81.307186
 20
36.503927
 30
0.0
 11
71.746002
 21
33.500574
 31
0.0
  0
LINE
  5
4A2
100
AcDbEntity
  8
2
100
AcDbLine
 10
81.90655
 20
34.595849
 30
0.0
 11
72.345366
 21
31.592496
 31
0.0
  0
LINE
  5
4A3
100
AcDbEntity
  8
2
100
AcDbLine
 10
81.90655
 20
29.070213
 30
0.0
 11
72.345366
 21
26.066859
 31
0.0
  0
LINE
  5
4A4
100
AcDbEntity
  8
2
100
AcDbLine
 10
81.307186
 20
30.978291
 30
0.0
 11
71.746002
 21
27.974938
 31
0.0
  0
LINE
  5
4A5
100
AcDbEntity
  8
2
100
AcDbLine
 10
71.790606
 20
31.579614
 30
0.0
 11
73.682902
 21
31.080418
 31
0.0
  0
ARC
  5
4A6
100
AcDbEntity
  8
2
100
AcDbCircle
 10
72.045684
 20
27.020899
 30
0.0
 40
1.0
100
AcDbArc
 50
100.738785
 51
286.620601
  0
ARC
  5
4A7
100
AcDbEntity
  8
2
100
AcDbCircle
 10
72.045684
 20
32.546535
 30
0.0
 40
1.0
100
AcDbArc
 50
107.438515
 51
286.620601
  0
ARC
  5
4A8
100
AcDbEntity
  8
2
100
AcDbCircle
 10
72.045684
 20
38.072171
 30
0.0
 40
1.0
100
AcDbArc
 50
107.438515
 51
286.620601
  0
LINE
  5
4A9
100
AcDbEntity
  8
2
100
AcDbLine
 10
75.648903
 20
32.630201
 30
0.0
 11
81.861946
 21
30.991172
 31
0.0
  0
ARC
  5
4AA
100
AcDbEntity
  8
2
100
AcDbCircle
 10
81.606868
 20
30.024252
 30
0.0
 40
1.0
100
AcDbArc
 50
287.438515
 51
107.438515
  0
LINE
  5
4AB
100
AcDbEntity
  8
2
100
AcDbLine
 10
77.260822
 20
27.610899
 30
0.0
 11
81.861946
 21
27.233531
 31
0.0
  0
ARC
  5
4AC
100
AcDbEntity
  8
2
100
AcDbCircle
 10
81.891966
 20
26.213068
 30
0.0
 40
1.0
100
AcDbArc
 50
273.731968
 51
85.591963
  0
LINE
  5
4AD
100
AcDbEntity
  8
2
100
AcDbLine
 10
75.648903
 20
38.155837
 30
0.0
 11
81.861946
 21
36.516809
 31
0.0
  0
ARC
  5
4AE
100
AcDbEntity
  8
2
100
AcDbCircle
 10
81.606868
 20
35.549888
 30
0.0
 40
1.0
100
AcDbArc
 50
281.107766
 51
107.438515
  0
LINE
  5
4AF
100
AcDbEntity
  8
2
100
AcDbLine
 10
81.799523
 20
50.323828
 30
0.0
 11
72.345366
 21
48.169405
 31
0.0
  0
LINE
  5
4B0
100
AcDbEntity
  8
2
100
AcDbLine
 10
81.307186
 20
52.259134
 30
0.0
 11
71.746002
 21
50.077483
 31
0.0
  0
LINE
  5
4B1
100
AcDbEntity
  8
2
100
AcDbLine
 10
71.790606
 20
42.630887
 30
0.0
 11
78.003649
 21
40.991859
 31
0.0
  0
LINE
  5
4B2
100
AcDbEntity
  8
2
100
AcDbLine
 10
81.307186
 20
47.5552
 30
0.0
 11
71.746002
 21
44.551847
 31
0.0
  0
LINE
  5
4B3
100
AcDbEntity
  8
2
100
AcDbLine
 10
81.90655
 20
45.647122
 30
0.0
 11
72.345366
 21
42.643769
 31
0.0
  0
ARC
  5
4B4
100
AcDbEntity
  8
2
100
AcDbCircle
 10
72.045684
 20
49.123444
 30
0.0
 40
1.0
100
AcDbArc
 50
98.020858
 51
286.620601
  0
LINE
  5
4B5
100
AcDbEntity
  8
2
100
AcDbLine
 10
71.790606
 20
48.156524
 30
0.0
 11
72.968825
 21
47.845704
 31
0.0
  0
ARC
  5
4B6
100
AcDbEntity
  8
2
100
AcDbCircle
 10
72.045684
 20
43.597808
 30
0.0
 40
1.0
100
AcDbArc
 50
107.438515
 51
286.620601
  0
LINE
  5
4B7
100
AcDbEntity
  8
2
100
AcDbLine
 10
80.968825
 20
47.803691
 30
0.0
 11
81.861946
 21
47.568082
 31
0.0
  0
LINE
  5
4B8
100
AcDbEntity
  8
2
100
AcDbLine
 10
75.648903
 20
43.681474
 30
0.0
 11
81.861946
 21
42.042445
 31
0.0
  0
ARC
  5
4B9
100
AcDbEntity
  8
2
100
AcDbCircle
 10
81.606868
 20
46.601161
 30
0.0
 40
1.0
100
AcDbArc
 50
281.107766
 51
107.438515
  0
ARC
  5
4BA
100
AcDbEntity
  8
2
100
AcDbCircle
 10
81.606868
 20
41.075525
 30
0.0
 40
1.0
100
AcDbArc
 50
281.107766
 51
107.438515
  0
ARC
  5
4BB
100
AcDbEntity
  8
2
100
AcDbCircle
 10
81.606868
 20
51.305095
 30
0.0
 40
1.0
100
AcDbArc
 50
281.107766
 51
107.438515
  0
LINE
  5
4BC
100
AcDbEntity
  8
2
  6
CENTER
 62
     2
100
AcDbLine
 10
56.7444
 20
31.364533
 30
0.0
 11
97.067394
 21
31.364533
 31
0.0
  0
LINE
  5
4BD
100
AcDbEntity
  8
2
  6
CENTER
 62
     2
100
AcDbLine
 10
76.968825
 20
17.679878
 30
0.0
 11
47.609446
 21
17.679878
 31
0.0
  0
LINE
  5
4BE
100
AcDbEntity
  8
2
100
AcDbLine
 10
59.968825
 20
12.679878
 30
0.0
 11
59.968825
 21
22.679878
 31
0.0
  0
ARC
  5
4BF
100
AcDbEntity
  8
2
100
AcDbCircle
 10
80.968825
 20
33.079962
 30
0.0
 40
1.0
100
AcDbArc
 50
0.0
 51
90.0
  0
ARC
  5
4C0
100
AcDbEntity
  8
2
100
AcDbCircle
 10
72.968825
 20
33.079962
 30
0.0
 40
1.0
100
AcDbArc
 50
90.0
 51
147.287273
  0
LINE
  5
4C1
100
AcDbEntity
  8
2
100
AcDbLine
 10
72.968825
 20
34.079962
 30
0.0
 11
73.590486
 21
34.079962
 31
0.0
  0
LINE
  5
4C2
100
AcDbEntity
  8
2
100
AcDbLine
 10
81.968825
 20
14.971096
 30
0.0
 11
81.968825
 21
25.216026
 31
0.0
  0
LINE
  5
4C3
100
AcDbEntity
  8
2
100
AcDbLine
 10
71.968825
 20
-0.606535
 30
0.0
 11
71.968825
 21
-3.635467
 31
0.0
  0
ARC
  5
4C4
100
AcDbEntity
  8
2
100
AcDbCircle
 10
72.068825
 20
35.364533
 30
0.0
 40
1.0
100
AcDbArc
 50
90.0
 51
180.0
  0
ARC
  5
4C5
100
AcDbEntity
  8
2
100
AcDbCircle
 10
81.868825
 20
35.364533
 30
0.0
 40
1.0
100
AcDbArc
 50
0.0
 51
63.950626
  0
LINE
  5
4C6
100
AcDbEntity
  8
2
100
AcDbLine
 10
82.868825
 20
35.364533
 30
0.0
 11
82.868825
 21
0.293465
 31
0.0
  0
LINE
  5
4C7
100
AcDbEntity
  8
2
100
AcDbLine
 10
71.068825
 20
35.364533
 30
0.0
 11
71.068825
 21
0.293465
 31
0.0
  0
LINE
  5
4C8
100
AcDbEntity
  8
2
100
AcDbLine
 10
82.868825
 20
0.293465
 30
0.0
 11
81.968825
 21
-0.606535
 31
0.0
  0
LINE
  5
4C9
100
AcDbEntity
  8
2
100
AcDbLine
 10
71.968825
 20
-0.606535
 30
0.0
 11
71.068825
 21
0.293465
 31
0.0
  0
LINE
  5
4CA
100
AcDbEntity
  8
2
100
AcDbLine
 10
80.968825
 20
28.775655
 30
0.0
 11
80.968825
 21
27.306782
 31
0.0
  0
ARC
  5
4CB
100
AcDbEntity
  8
2
100
AcDbCircle
 10
76.968825
 20
44.37349
 30
0.0
 40
14.567094
100
AcDbArc
 50
254.062329
 51
272.574998
  0
ARC
  5
4CC
100
AcDbEntity
  8
2
100
AcDbCircle
 10
76.974269
 20
46.434101
 30
0.0
 40
15.364572
100
AcDbArc
 50
258.719715
 51
281.24576
  0
ARC
  5
4CD
100
AcDbEntity
  8
2
100
AcDbCircle
 10
76.968825
 20
20.82392
 30
0.0
 40
10.96096
100
AcDbArc
 50
74.115522
 51
105.884478
  0
LINE
  5
4CE
100
AcDbEntity
  8
2
100
AcDbLine
 10
80.584032
 20
30.751134
 30
0.0
 11
79.968825
 21
31.366341
 31
0.0
  0
LINE
  5
4CF
100
AcDbEntity
  8
2
100
AcDbLine
 10
73.968825
 20
31.366341
 30
0.0
 11
72.968825
 21
30.366341
 31
0.0
  0
LINE
  5
4D0
100
AcDbEntity
  8
2
100
AcDbLine
 10
72.968825
 20
30.366341
 30
0.0
 11
72.968825
 21
28.35905
 31
0.0
  0
ARC
  5
4D1
100
AcDbEntity
  8
2
100
AcDbCircle
 10
80.968825
 20
25.134219
 30
0.0
 40
1.0
100
AcDbArc
 50
0.0
 51
90.0
  0
ARC
  5
4D2
100
AcDbEntity
  8
2
100
AcDbCircle
 10
72.968825
 20
25.134219
 30
0.0
 40
1.0
100
AcDbArc
 50
90.0
 51
180.0
  0
LINE
  5
4D3
100
AcDbEntity
  8
2
100
AcDbLine
 10
72.968825
 20
26.134219
 30
0.0
 11
80.968825
 21
26.134219
 31
0.0
  0
LINE
  5
4D4
100
AcDbEntity
  8
2
100
AcDbLine
 10
80.968825
 20
26.134219
 30
0.0
 11
72.968825
 21
26.134219
 31
0.0
  0
ARC
  5
4D5
100
AcDbEntity
  8
2
100
AcDbCircle
 10
72.968825
 20
25.134219
 30
0.0
 40
1.0
100
AcDbArc
 50
90.0
 51
180.0
  0
ARC
  5
4D6
100
AcDbEntity
  8
2
100
AcDbCircle
 10
80.968825
 20
25.134219
 30
0.0
 40
1.0
100
AcDbArc
 50
0.0
 51
90.0
  0
ARC
  5
4D7
100
AcDbEntity
  8
2
100
AcDbCircle
 10
80.968825
 20
14.971096
 30
0.0
 40
1.0
100
AcDbArc
 50
270.0
 51
360.0
  0
ARC
  5
4D8
100
AcDbEntity
  8
2
100
AcDbCircle
 10
72.968825
 20
14.971096
 30
0.0
 40
1.0
100
AcDbArc
 50
180.0
 51
270.0
  0
LINE
  5
4D9
100
AcDbEntity
  8
2
100
AcDbLine
 10
80.968825
 20
13.971096
 30
0.0
 11
72.968825
 21
13.971096
 31
0.0
  0
LINE
  5
4DA
100
AcDbEntity
  8
2
100
AcDbLine
 10
72.968825
 20
13.971096
 30
0.0
 11
80.968825
 21
13.971096
 31
0.0
  0
ARC
  5
4DB
100
AcDbEntity
  8
2
100
AcDbCircle
 10
72.968825
 20
14.971096
 30
0.0
 40
1.0
100
AcDbArc
 50
180.0
 51
270.0
  0
ARC
  5
4DC
100
AcDbEntity
  8
2
100
AcDbCircle
 10
80.968825
 20
14.971096
 30
0.0
 40
1.0
100
AcDbArc
 50
270.0
 51
360.0
  0
ARC
  5
4DD
100
AcDbEntity
  8
2
100
AcDbCircle
 10
80.968825
 20
-3.635467
 30
0.0
 40
1.0
100
AcDbArc
 50
270.0
 51
360.0
  0
ARC
  5
4DE
100
AcDbEntity
  8
2
100
AcDbCircle
 10
72.968825
 20
-3.635467
 30
0.0
 40
1.0
100
AcDbArc
 50
180.0
 51
270.0
  0
LINE
  5
4DF
100
AcDbEntity
  8
2
100
AcDbLine
 10
72.968825
 20
-4.635467
 30
0.0
 11
80.968825
 21
-4.635467
 31
0.0
  0
LINE
  5
4E0
100
AcDbEntity
  8
2
100
AcDbLine
 10
80.968825
 20
-4.635467
 30
0.0
 11
72.968825
 21
-4.635467
 31
0.0
  0
ARC
  5
4E1
100
AcDbEntity
  8
2
100
AcDbCircle
 10
72.968825
 20
-3.635467
 30
0.0
 40
1.0
100
AcDbArc
 50
180.0
 51
270.0
  0
ARC
  5
4E2
100
AcDbEntity
  8
2
100
AcDbCircle
 10
80.968825
 20
-3.635467
 30
0.0
 40
1.0
100
AcDbArc
 50
270.0
 51
360.0
  0
LINE
  5
4E3
100
AcDbEntity
  8
2
100
AcDbLine
 10
81.968825
 20
-3.635467
 30
0.0
 11
81.968825
 21
-0.606535
 31
0.0
  0
LINE
  5
4E4
100
AcDbEntity
  8
2
100
AcDbLine
 10
71.968825
 20
31.549493
 30
0.0
 11
71.968825
 21
28.044931
 31
0.0
  0
LINE
  5
4E5
100
AcDbEntity
  8
2
100
AcDbLine
 10
74.598435
 20
36.364533
 30
0.0
 11
72.068825
 21
36.364533
 31
0.0
  0
LINE
  5
4E6
100
AcDbEntity
  8
2
100
AcDbLine
 10
80.264223
 20
34.079962
 30
0.0
 11
80.968825
 21
34.079962
 31
0.0
  0
LINE
  5
4E7
100
AcDbEntity
  8
2
100
AcDbLine
 10
72.968825
 20
26.2627
 30
0.0
 11
72.968825
 21
26.134219
 31
0.0
  0
LINE
  5
4E8
100
AcDbEntity
  8
2
100
AcDbLine
 10
71.968825
 20
26.023857
 30
0.0
 11
71.968825
 21
14.971096
 31
0.0
  0
LINE
  5
4E9
100
AcDbEntity
  8
2
100
AcDbLine
 10
81.968825
 20
27.21011
 30
0.0
 11
81.968825
 21
29.092057
 31
0.0
  0
LINE
  5
4EA
100
AcDbEntity
  8
2
100
AcDbLine
 10
81.968825
 20
30.956447
 30
0.0
 11
81.968825
 21
33.079962
 31
0.0
  0
LINE
  5
4EB
100
AcDbEntity
  8
2
100
AcDbLine
 10
151.968825
 20
2.364533
 30
0.0
 11
151.968825
 21
0.364533
 31
0.0
  0
LINE
  5
4EC
100
AcDbEntity
  8
2
100
AcDbLine
 10
136.832674
 20
1.864533
 30
0.0
 11
136.832674
 21
0.864533
 31
0.0
  0
LINE
  5
4ED
100
AcDbEntity
  8
2
100
AcDbLine
 10
135.236272
 20
1.864533
 30
0.0
 11
135.236272
 21
0.864533
 31
0.0
  0
LINE
  5
4EE
100
AcDbEntity
  8
2
100
AcDbLine
 10
131.8835
 20
1.864533
 30
0.0
 11
131.8835
 21
0.864533
 31
0.0
  0
LINE
  5
4EF
100
AcDbEntity
  8
2
100
AcDbLine
 10
126.877366
 20
1.864533
 30
0.0
 11
126.877366
 21
0.864533
 31
0.0
  0
LINE
  5
4F0
100
AcDbEntity
  8
2
100
AcDbLine
 10
120.369978
 20
1.864533
 30
0.0
 11
120.369978
 21
0.864533
 31
0.0
  0
LINE
  5
4F1
100
AcDbEntity
  8
2
100
AcDbLine
 10
112.559061
 20
1.864533
 30
0.0
 11
112.559061
 21
0.864533
 31
0.0
  0
LINE
  5
4F2
100
AcDbEntity
  8
2
100
AcDbLine
 10
103.681945
 20
1.864533
 30
0.0
 11
103.681945
 21
0.864533
 31
0.0
  0
LINE
  5
4F3
100
AcDbEntity
  8
2
100
AcDbLine
 10
51.968825
 20
1.864533
 30
0.0
 11
51.968825
 21
0.864533
 31
0.0
  0
LINE
  5
4F4
100
AcDbEntity
  8
2
100
AcDbLine
 10
26.968825
 20
2.364533
 30
0.0
 11
26.968825
 21
0.364533
 31
0.0
  0
LINE
  5
4F5
100
AcDbEntity
  8
2
100
AcDbLine
 10
134.160193
 20
1.864533
 30
0.0
 11
134.160193
 21
0.864533
 31
0.0
  0
LINE
  5
4F6
100
AcDbEntity
  8
2
100
AcDbLine
 10
130.332748
 20
1.864533
 30
0.0
 11
130.332748
 21
0.864533
 31
0.0
  0
LINE
  5
4F7
100
AcDbEntity
  8
2
100
AcDbLine
 10
124.884309
 20
1.864533
 30
0.0
 11
124.884309
 21
0.864533
 31
0.0
  0
LINE
  5
4F8
100
AcDbEntity
  8
2
100
AcDbLine
 10
117.980426
 20
1.864533
 30
0.0
 11
117.980426
 21
0.864533
 31
0.0
  0
LINE
  5
4F9
100
AcDbEntity
  8
2
100
AcDbLine
 10
109.830867
 20
1.864533
 30
0.0
 11
109.830867
 21
0.864533
 31
0.0
  0
LINE
  5
4FA
100
AcDbEntity
  8
2
100
AcDbLine
 10
100.683255
 20
1.864533
 30
0.0
 11
100.683255
 21
0.864533
 31
0.0
  0
LINE
  5
4FB
100
AcDbEntity
  8
2
100
AcDbLine
 10
94.022439
 20
1.864533
 30
0.0
 11
94.022439
 21
0.864533
 31
0.0
  0
LINE
  5
4FC
100
AcDbEntity
  8
2
100
AcDbLine
 10
90.815534
 20
1.864533
 30
0.0
 11
90.815534
 21
0.864533
 31
0.0
  0
ARC
  5
4FD
100
AcDbEntity
  8
2
100
AcDbCircle
 10
136.332674
 20
1.864533
 30
0.0
 40
0.5
100
AcDbArc
 50
0.0
 51
90.0
  0
ARC
  5
4FE
100
AcDbEntity
  8
2
100
AcDbCircle
 10
136.332674
 20
0.864533
 30
0.0
 40
0.5
100
AcDbArc
 50
270.0
 51
360.0
  0
ARC
  5
4FF
100
AcDbEntity
  8
2
100
AcDbCircle
 10
134.736272
 20
1.864533
 30
0.0
 40
0.5
100
AcDbArc
 50
0.0
 51
90.0
  0
ARC
  5
500
100
AcDbEntity
  8
2
100
AcDbCircle
 10
134.736272
 20
0.864533
 30
0.0
 40
0.5
100
AcDbArc
 50
270.0
 51
360.0
  0
ARC
  5
501
100
AcDbEntity
  8
2
100
AcDbCircle
 10
133.660193
 20
1.864533
 30
0.0
 40
0.5
100
AcDbArc
 50
0.0
 51
90.0
  0
ARC
  5
502
100
AcDbEntity
  8
2
100
AcDbCircle
 10
133.660193
 20
0.864533
 30
0.0
 40
0.5
100
AcDbArc
 50
270.0
 51
360.0
  0
ARC
  5
503
100
AcDbEntity
  8
2
100
AcDbCircle
 10
131.3835
 20
0.864533
 30
0.0
 40
0.5
100
AcDbArc
 50
270.0
 51
360.0
  0
ARC
  5
504
100
AcDbEntity
  8
2
100
AcDbCircle
 10
131.3835
 20
1.864533
 30
0.0
 40
0.5
100
AcDbArc
 50
0.0
 51
90.0
  0
ARC
  5
505
100
AcDbEntity
  8
2
100
AcDbCircle
 10
129.832748
 20
1.864533
 30
0.0
 40
0.5
100
AcDbArc
 50
0.0
 51
90.0
  0
ARC
  5
506
100
AcDbEntity
  8
2
100
AcDbCircle
 10
129.832748
 20
0.864533
 30
0.0
 40
0.5
100
AcDbArc
 50
270.0
 51
360.0
  0
ARC
  5
507
100
AcDbEntity
  8
2
100
AcDbCircle
 10
126.377366
 20
1.864533
 30
0.0
 40
0.5
100
AcDbArc
 50
0.0
 51
90.0
  0
ARC
  5
508
100
AcDbEntity
  8
2
100
AcDbCircle
 10
126.377366
 20
0.864533
 30
0.0
 40
0.5
100
AcDbArc
 50
270.0
 51
360.0
  0
ARC
  5
509
100
AcDbEntity
  8
2
100
AcDbCircle
 10
124.384309
 20
1.864533
 30
0.0
 40
0.5
100
AcDbArc
 50
0.0
 51
90.0
  0
ARC
  5
50A
100
AcDbEntity
  8
2
100
AcDbCircle
 10
124.384309
 20
0.864533
 30
0.0
 40
0.5
100
AcDbArc
 50
270.0
 51
360.0
  0
ARC
  5
50B
100
AcDbEntity
  8
2
100
AcDbCircle
 10
119.869978
 20
1.864533
 30
0.0
 40
0.5
100
AcDbArc
 50
0.0
 51
90.0
  0
ARC
  5
50C
100
AcDbEntity
  8
2
100
AcDbCircle
 10
119.869978
 20
0.864533
 30
0.0
 40
0.5
100
AcDbArc
 50
270.0
 51
360.0
  0
ARC
  5
50D
100
AcDbEntity
  8
2
100
AcDbCircle
 10
117.480426
 20
1.864533
 30
0.0
 40
0.5
100
AcDbArc
 50
0.0
 51
90.0
  0
ARC
  5
50E
100
AcDbEntity
  8
2
100
AcDbCircle
 10
117.480426
 20
0.864533
 30
0.0
 40
0.5
100
AcDbArc
 50
270.0
 51
360.0
  0
ARC
  5
50F
100
AcDbEntity
  8
2
100
AcDbCircle
 10
112.059061
 20
1.864533
 30
0.0
 40
0.5
100
AcDbArc
 50
0.0
 51
90.0
  0
ARC
  5
510
100
AcDbEntity
  8
2
100
AcDbCircle
 10
112.059061
 20
0.864533
 30
0.0
 40
0.5
100
AcDbArc
 50
270.0
 51
360.0
  0
ARC
  5
511
100
AcDbEntity
  8
2
100
AcDbCircle
 10
109.330867
 20
1.864533
 30
0.0
 40
0.5
100
AcDbArc
 50
0.0
 51
90.0
  0
ARC
  5
512
100
AcDbEntity
  8
2
100
AcDbCircle
 10
109.330867
 20
0.864533
 30
0.0
 40
0.5
100
AcDbArc
 50
270.0
 51
360.0
  0
ARC
  5
513
100
AcDbEntity
  8
2
100
AcDbCircle
 10
103.181945
 20
1.864533
 30
0.0
 40
0.5
100
AcDbArc
 50
0.0
 51
90.0
  0
ARC
  5
514
100
AcDbEntity
  8
2
100
AcDbCircle
 10
103.181945
 20
0.864533
 30
0.0
 40
0.5
100
AcDbArc
 50
270.0
 51
360.0
  0
ARC
  5
515
100
AcDbEntity
  8
2
100
AcDbCircle
 10
100.183255
 20
1.864533
 30
0.0
 40
0.5
100
AcDbArc
 50
0.0
 51
90.0
  0
ARC
  5
516
100
AcDbEntity
  8
2
100
AcDbCircle
 10
100.183255
 20
0.864533
 30
0.0
 40
0.5
100
AcDbArc
 50
270.0
 51
360.0
  0
ARC
  5
517
100
AcDbEntity
  8
2
100
AcDbCircle
 10
93.522439
 20
0.864533
 30
0.0
 40
0.5
100
AcDbArc
 50
270.0
 51
360.0
  0
ARC
  5
518
100
AcDbEntity
  8
2
100
AcDbCircle
 10
93.522439
 20
1.864533
 30
0.0
 40
0.5
100
AcDbArc
 50
0.0
 51
90.0
  0
ARC
  5
519
100
AcDbEntity
  8
2
100
AcDbCircle
 10
90.315534
 20
1.864533
 30
0.0
 40
0.5
100
AcDbArc
 50
0.0
 51
90.0
  0
ARC
  5
51A
100
AcDbEntity
  8
2
100
AcDbCircle
 10
90.315534
 20
0.864533
 30
0.0
 40
0.5
100
AcDbArc
 50
270.0
 51
360.0
  0
ARC
  5
51B
100
AcDbEntity
  8
2
100
AcDbCircle
 10
52.468825
 20
1.864533
 30
0.0
 40
0.5
100
AcDbArc
 50
90.0
 51
180.0
  0
ARC
  5
51C
100
AcDbEntity
  8
2
100
AcDbCircle
 10
52.468825
 20
0.864533
 30
0.0
 40
0.5
100
AcDbArc
 50
180.0
 51
270.0
  0
LINE
  5
51D
100
AcDbEntity
  8
2
100
AcDbLine
 10
69.968825
 20
1.864533
 30
0.0
 11
69.968825
 21
0.864533
 31
0.0
  0
ARC
  5
51E
100
AcDbEntity
  8
2
100
AcDbCircle
 10
69.468825
 20
1.864533
 30
0.0
 40
0.5
100
AcDbArc
 50
0.0
 51
90.0
  0
LINE
  5
51F
100
AcDbEntity
  8
2
100
AcDbLine
 10
151.968825
 20
2.364533
 30
0.0
 11
82.868825
 21
2.364533
 31
0.0
  0
ARC
  5
520
100
AcDbEntity
  8
2
100
AcDbCircle
 10
69.468825
 20
0.864533
 30
0.0
 40
0.5
100
AcDbArc
 50
270.0
 51
360.0
  0
LINE
  5
521
100
AcDbEntity
  8
2
100
AcDbLine
 10
151.968825
 20
0.364533
 30
0.0
 11
82.868825
 21
0.364533
 31
0.0
  0
LINE
  5
522
100
AcDbEntity
  8
2
100
AcDbLine
 10
71.068825
 20
2.364533
 30
0.0
 11
26.968825
 21
2.364533
 31
0.0
  0
ARC
  5
523
100
AcDbEntity
  8
2
100
AcDbCircle
 10
83.550404
 20
0.864533
 30
0.0
 40
0.5
100
AcDbArc
 50
270.0
 51
360.0
  0
ARC
  5
524
100
AcDbEntity
  8
2
100
AcDbCircle
 10
83.550404
 20
1.864533
 30
0.0
 40
0.5
100
AcDbArc
 50
0.0
 51
90.0
  0
LINE
  5
525
100
AcDbEntity
  8
2
100
AcDbLine
 10
84.050404
 20
1.864533
 30
0.0
 11
84.050404
 21
0.864533
 31
0.0
  0
LINE
  5
526
100
AcDbEntity
  8
2
100
AcDbLine
 10
71.068825
 20
0.364533
 30
0.0
 11
26.968825
 21
0.364533
 31
0.0
  0
LINE
  5
527
100
AcDbEntity
  8
2
100
AcDbLine
 10
50.968825
 20
17.679878
 30
0.0
 11
50.968825
 21
20.138878
 31
0.0
  0
LINE
  5
528
100
AcDbEntity
  8
2
100
AcDbLine
 10
50.968825
 20
20.138878
 30
0.0
 11
51.509825
 21
20.679878
 31
0.0
  0
LINE
  5
529
100
AcDbEntity
  8
2
100
AcDbLine
 10
51.509825
 20
20.679878
 30
0.0
 11
54.987754
 21
20.679878
 31
0.0
  0
LINE
  5
52A
100
AcDbEntity
  8
2
100
AcDbLine
 10
51.509825
 20
20.679878
 30
0.0
 11
51.509825
 21
17.679878
 31
0.0
  0
LINE
  5
52B
100
AcDbEntity
  8
2
100
AcDbLine
 10
50.968825
 20
17.679878
 30
0.0
 11
50.968825
 21
15.220878
 31
0.0
  0
LINE
  5
52C
100
AcDbEntity
  8
2
100
AcDbLine
 10
50.968825
 20
15.220878
 30
0.0
 11
51.509825
 21
14.679878
 31
0.0
  0
LINE
  5
52D
100
AcDbEntity
  8
2
100
AcDbLine
 10
51.509825
 20
14.679878
 30
0.0
 11
54.987754
 21
14.679878
 31
0.0
  0
LINE
  5
52E
100
AcDbEntity
  8
2
100
AcDbLine
 10
51.509825
 20
14.679878
 30
0.0
 11
51.509825
 21
17.679878
 31
0.0
  0
POINT
  5
52F
100
AcDbEntity
  8
2
100
AcDbPoint
 10
59.968825
 20
17.679878
 30
0.0
  0
LINE
  5
530
100
AcDbEntity
  8
2
100
AcDbLine
 10
59.968825
 20
17.679878
 30
0.0
 11
59.968825
 21
12.679878
 31
0.0
  0
LINE
  5
531
100
AcDbEntity
  8
2
100
AcDbLine
 10
59.968825
 20
12.679878
 30
0.0
 11
55.459573
 21
12.679878
 31
0.0
  0
LINE
  5
532
100
AcDbEntity
  8
2
100
AcDbLine
 10
54.968825
 20
15.179878
 30
0.0
 11
54.968825
 21
17.679878
 31
0.0
  0
LINE
  5
533
100
AcDbEntity
  8
2
100
AcDbLine
 10
59.968825
 20
17.679878
 30
0.0
 11
55.459573
 21
17.679878
 31
0.0
  0
ARC
  5
534
100
AcDbEntity
  8
2
100
AcDbCircle
 10
61.582033
 20
15.179878
 30
0.0
 40
6.613208
100
AcDbArc
 50
157.788205
 51
202.211795
  0
LINE
  5
535
100
AcDbEntity
  8
2
100
AcDbLine
 10
59.968825
 20
17.679878
 30
0.0
 11
59.968825
 21
22.679878
 31
0.0
  0
LINE
  5
536
100
AcDbEntity
  8
2
100
AcDbLine
 10
59.968825
 20
22.679878
 30
0.0
 11
55.459573
 21
22.679878
 31
0.0
  0
LINE
  5
537
100
AcDbEntity
  8
2
100
AcDbLine
 10
54.968825
 20
20.179878
 30
0.0
 11
54.968825
 21
17.679878
 31
0.0
  0
LINE
  5
538
100
AcDbEntity
  8
2
100
AcDbLine
 10
59.968825
 20
17.679878
 30
0.0
 11
55.459573
 21
17.679878
 31
0.0
  0
ARC
  5
539
100
AcDbEntity
  8
2
100
AcDbCircle
 10
61.582033
 20
20.179878
 30
0.0
 40
6.613208
100
AcDbArc
 50
157.788205
 51
202.211795
  0
LINE
  5
53A
100
AcDbEntity
  8
2
 62
     2
100
AcDbLine
 10
50.968825
 20
15.220878
 30
0.0
 11
54.968825
 21
15.220878
 31
0.0
  0
LINE
  5
53B
100
AcDbEntity
  8
2
 62
     2
100
AcDbLine
 10
50.968825
 20
20.138878
 30
0.0
 11
54.968825
 21
20.138878
 31
0.0
  0
POINT
  5
53C
100
AcDbEntity
  8
2
100
AcDbPoint
 10
101.717562
 20
2.364533
 30
0.0
  0
LINE
  5
53D
100
AcDbEntity
  8
2
  6
CENTER
 62
     2
100
AcDbLine
 10
101.717562
 20
-25.694063
 30
0.0
 11
101.717562
 21
11.456246
 31
0.0
  0
LINE
  5
53E
100
AcDbEntity
  8
2
100
AcDbLine
 10
101.717562
 20
2.364533
 30
0.0
 11
95.217562
 21
2.364533
 31
0.0
  0
LINE
  5
53F
100
AcDbEntity
  8
2
100
AcDbLine
 10
95.217562
 20
2.364533
 30
0.0
 11
95.217562
 21
7.142845
 31
0.0
  0
LINE
  5
540
100
AcDbEntity
  8
2
100
AcDbLine
 10
98.467562
 20
7.864533
 30
0.0
 11
101.717562
 21
7.864533
 31
0.0
  0
LINE
  5
541
100
AcDbEntity
  8
2
100
AcDbLine
 10
101.717562
 20
2.364533
 30
0.0
 11
101.717562
 21
7.142845
 31
0.0
  0
ARC
  5
542
100
AcDbEntity
  8
2
100
AcDbCircle
 10
98.467562
 20
0.185774
 30
0.0
 40
7.678759
100
AcDbArc
 50
64.96034
 51
115.03966
  0
LINE
  5
543
100
AcDbEntity
  8
2
100
AcDbLine
 10
101.717562
 20
-22.635467
 30
0.0
 11
100.839441
 21
-22.635467
 31
0.0
  0
LINE
  5
544
100
AcDbEntity
  8
2
100
AcDbLine
 10
101.154898
 20
-21.958967
 30
0.0
 11
101.717562
 21
-21.958967
 31
0.0
  0
LINE
  5
545
100
AcDbEntity
  8
2
100
AcDbLine
 10
101.717562
 20
2.364533
 30
0.0
 11
108.217562
 21
2.364533
 31
0.0
  0
LINE
  5
546
100
AcDbEntity
  8
2
100
AcDbLine
 10
108.217562
 20
2.364533
 30
0.0
 11
108.217562
 21
7.142845
 31
0.0
  0
LINE
  5
547
100
AcDbEntity
  8
2
100
AcDbLine
 10
104.967562
 20
7.864533
 30
0.0
 11
101.717562
 21
7.864533
 31
0.0
  0
LINE
  5
548
100
AcDbEntity
  8
2
100
AcDbLine
 10
101.717562
 20
2.364533
 30
0.0
 11
101.717562
 21
7.142845
 31
0.0
  0
ARC
  5
549
100
AcDbEntity
  8
2
100
AcDbCircle
 10
104.967562
 20
0.185774
 30
0.0
 40
7.678759
100
AcDbArc
 50
64.96034
 51
115.03966
  0
LINE
  5
54A
100
AcDbEntity
  8
2
100
AcDbLine
 10
101.717562
 20
-22.635467
 30
0.0
 11
105.041062
 21
-22.635467
 31
0.0
  0
LINE
  5
54B
100
AcDbEntity
  8
2
100
AcDbLine
 10
105.041062
 20
-22.635467
 30
0.0
 11
105.717562
 21
-21.958967
 31
0.0
  0
LINE
  5
54C
100
AcDbEntity
  8
2
100
AcDbLine
 10
105.717562
 20
-21.958967
 30
0.0
 11
105.717562
 21
-20.098753
 31
0.0
  0
LINE
  5
54D
100
AcDbEntity
  8
2
100
AcDbLine
 10
105.717562
 20
-21.958967
 30
0.0
 11
101.717562
 21
-21.958967
 31
0.0
  0
LINE
  5
54E
100
AcDbEntity
  8
2
 62
     2
100
AcDbLine
 10
105.041062
 20
-22.635467
 30
0.0
 11
105.041062
 21
-20.135116
 31
0.0
  0
POINT
  5
54F
100
AcDbEntity
  8
2
100
AcDbPoint
 10
101.717562
 20
-11.635467
 30
0.0
  0
POINT
  5
550
100
AcDbEntity
  8
2
100
AcDbPoint
 10
101.717562
 20
-11.635467
 30
0.0
  0
LINE
  5
551
100
AcDbEntity
  8
2
100
AcDbLine
 10
105.24701
 20
-13.635467
 30
0.0
 11
108.217562
 21
-13.635467
 31
0.0
  0
LINE
  5
552
100
AcDbEntity
  8
2
100
AcDbLine
 10
108.217562
 20
-13.635467
 30
0.0
 11
108.217562
 21
-19.413779
 31
0.0
  0
LINE
  5
553
100
AcDbEntity
  8
2
100
AcDbLine
 10
104.967562
 20
-20.135467
 30
0.0
 11
102.00521
 21
-20.135467
 31
0.0
  0
ARC
  5
554
100
AcDbEntity
  8
2
100
AcDbCircle
 10
104.967562
 20
-12.456709
 30
0.0
 40
7.678759
100
AcDbArc
 50
249.185055
 51
295.03966
  0
LINE
  5
555
100
AcDbEntity
  8
2
100
AcDbLine
 10
109.417562
 20
-11.635467
 30
0.0
 11
109.417562
 21
-13.635467
 31
0.0
  0
LINE
  5
556
100
AcDbEntity
  8
2
100
AcDbLine
 10
109.417562
 20
-13.635467
 30
0.0
 11
105.24701
 21
-13.635467
 31
0.0
  0
LINE
  5
557
100
AcDbEntity
  8
2
100
AcDbLine
 10
94.017562
 20
-11.635467
 30
0.0
 11
109.417562
 21
-11.635467
 31
0.0
  0
POINT
  5
558
100
AcDbEntity
  8
2
100
AcDbPoint
 10
52.220088
 20
2.364533
 30
0.0
  0
LINE
  5
559
100
AcDbEntity
  8
2
  6
CENTER
 62
     2
100
AcDbLine
 10
52.220088
 20
-25.694063
 30
0.0
 11
52.220088
 21
11.456246
 31
0.0
  0
LINE
  5
55A
100
AcDbEntity
  8
2
100
AcDbLine
 10
52.220088
 20
2.364533
 30
0.0
 11
58.720088
 21
2.364533
 31
0.0
  0
LINE
  5
55B
100
AcDbEntity
  8
2
100
AcDbLine
 10
58.720088
 20
2.364533
 30
0.0
 11
58.720088
 21
7.142845
 31
0.0
  0
LINE
  5
55C
100
AcDbEntity
  8
2
100
AcDbLine
 10
55.470088
 20
7.864533
 30
0.0
 11
52.220088
 21
7.864533
 31
0.0
  0
LINE
  5
55D
100
AcDbEntity
  8
2
100
AcDbLine
 10
52.220088
 20
2.364533
 30
0.0
 11
52.220088
 21
7.142845
 31
0.0
  0
ARC
  5
55E
100
AcDbEntity
  8
2
100
AcDbCircle
 10
55.470088
 20
0.185774
 30
0.0
 40
7.678759
100
AcDbArc
 50
64.96034
 51
115.03966
  0
LINE
  5
55F
100
AcDbEntity
  8
2
100
AcDbLine
 10
52.220088
 20
-22.635467
 30
0.0
 11
55.543588
 21
-22.635467
 31
0.0
  0
LINE
  5
560
100
AcDbEntity
  8
2
100
AcDbLine
 10
55.543588
 20
-22.635467
 30
0.0
 11
56.220088
 21
-21.958967
 31
0.0
  0
LINE
  5
561
100
AcDbEntity
  8
2
100
AcDbLine
 10
56.220088
 20
-21.958967
 30
0.0
 11
56.220088
 21
-20.098753
 31
0.0
  0
LINE
  5
562
100
AcDbEntity
  8
2
100
AcDbLine
 10
56.220088
 20
-21.958967
 30
0.0
 11
52.220088
 21
-21.958967
 31
0.0
  0
LINE
  5
563
100
AcDbEntity
  8
2
 62
     2
100
AcDbLine
 10
55.543588
 20
-22.635467
 30
0.0
 11
55.543588
 21
-20.135116
 31
0.0
  0
LINE
  5
564
100
AcDbEntity
  8
2
100
AcDbLine
 10
52.220088
 20
2.364533
 30
0.0
 11
45.720088
 21
2.364533
 31
0.0
  0
LINE
  5
565
100
AcDbEntity
  8
2
100
AcDbLine
 10
45.720088
 20
2.364533
 30
0.0
 11
45.720088
 21
7.142845
 31
0.0
  0
LINE
  5
566
100
AcDbEntity
  8
2
100
AcDbLine
 10
48.970088
 20
7.864533
 30
0.0
 11
52.220088
 21
7.864533
 31
0.0
  0
LINE
  5
567
100
AcDbEntity
  8
2
100
AcDbLine
 10
52.220088
 20
2.364533
 30
0.0
 11
52.220088
 21
7.142845
 31
0.0
  0
ARC
  5
568
100
AcDbEntity
  8
2
100
AcDbCircle
 10
48.970088
 20
0.185774
 30
0.0
 40
7.678759
100
AcDbArc
 50
64.96034
 51
115.03966
  0
LINE
  5
569
100
AcDbEntity
  8
2
100
AcDbLine
 10
52.220088
 20
-22.635467
 30
0.0
 11
48.896588
 21
-22.635467
 31
0.0
  0
LINE
  5
56A
100
AcDbEntity
  8
2
100
AcDbLine
 10
48.896588
 20
-22.635467
 30
0.0
 11
48.220088
 21
-21.958967
 31
0.0
  0
LINE
  5
56B
100
AcDbEntity
  8
2
100
AcDbLine
 10
48.220088
 20
-21.958967
 30
0.0
 11
48.220088
 21
-20.098753
 31
0.0
  0
LINE
  5
56C
100
AcDbEntity
  8
2
100
AcDbLine
 10
48.220088
 20
-21.958967
 30
0.0
 11
52.220088
 21
-21.958967
 31
0.0
  0
LINE
  5
56D
100
AcDbEntity
  8
2
 62
     2
100
AcDbLine
 10
48.896588
 20
-22.635467
 30
0.0
 11
48.896588
 21
-20.135116
 31
0.0
  0
POINT
  5
56E
100
AcDbEntity
  8
2
100
AcDbPoint
 10
52.220088
 20
-11.635467
 30
0.0
  0
POINT
  5
56F
100
AcDbEntity
  8
2
100
AcDbPoint
 10
52.220088
 20
-11.635467
 30
0.0
  0
LINE
  5
570
100
AcDbEntity
  8
2
100
AcDbLine
 10
52.220088
 20
-13.635467
 30
0.0
 11
45.720088
 21
-13.635467
 31
0.0
  0
LINE
  5
571
100
AcDbEntity
  8
2
100
AcDbLine
 10
45.720088
 20
-13.635467
 30
0.0
 11
45.720088
 21
-19.413779
 31
0.0
  0
LINE
  5
572
100
AcDbEntity
  8
2
100
AcDbLine
 10
48.970088
 20
-20.135467
 30
0.0
 11
52.220088
 21
-20.135467
 31
0.0
  0
LINE
  5
573
100
AcDbEntity
  8
2
100
AcDbLine
 10
52.220088
 20
-13.635467
 30
0.0
 11
52.220088
 21
-19.413779
 31
0.0
  0
ARC
  5
574
100
AcDbEntity
  8
2
100
AcDbCircle
 10
48.970088
 20
-12.456709
 30
0.0
 40
7.678759
100
AcDbArc
 50
244.96034
 51
295.03966
  0
LINE
  5
575
100
AcDbEntity
  8
2
100
AcDbLine
 10
52.220088
 20
-13.635467
 30
0.0
 11
58.720088
 21
-13.635467
 31
0.0
  0
LINE
  5
576
100
AcDbEntity
  8
2
100
AcDbLine
 10
58.720088
 20
-13.635467
 30
0.0
 11
58.720088
 21
-19.413779
 31
0.0
  0
LINE
  5
577
100
AcDbEntity
  8
2
100
AcDbLine
 10
55.470088
 20
-20.135467
 30
0.0
 11
52.220088
 21
-20.135467
 31
0.0
  0
LINE
  5
578
100
AcDbEntity
  8
2
100
AcDbLine
 10
52.220088
 20
-13.635467
 30
0.0
 11
52.220088
 21
-19.413779
 31
0.0
  0
ARC
  5
579
100
AcDbEntity
  8
2
100
AcDbCircle
 10
55.470088
 20
-12.456709
 30
0.0
 40
7.678759
100
AcDbArc
 50
244.96034
 51
295.03966
  0
LINE
  5
57A
100
AcDbEntity
  8
2
100
AcDbLine
 10
44.520088
 20
-11.635467
 30
0.0
 11
44.520088
 21
-13.635467
 31
0.0
  0
LINE
  5
57B
100
AcDbEntity
  8
2
100
AcDbLine
 10
44.520088
 20
-13.635467
 30
0.0
 11
59.920088
 21
-13.635467
 31
0.0
  0
LINE
  5
57C
100
AcDbEntity
  8
2
100
AcDbLine
 10
59.920088
 20
-13.635467
 30
0.0
 11
59.920088
 21
-11.635467
 31
0.0
  0
LINE
  5
57D
100
AcDbEntity
  8
2
100
AcDbLine
 10
59.920088
 20
-11.635467
 30
0.0
 11
44.520088
 21
-11.635467
 31
0.0
  0
LINE
  5
57E
100
AcDbEntity
  8
2
100
AcDbLine
 10
-268.942849
 20
-11.635467
 30
0.0
 11
-268.442849
 21
-13.635467
 31
0.0
  0
LINE
  5
57F
100
AcDbEntity
  8
2
100
AcDbLine
 10
-268.942849
 20
-13.635467
 30
0.0
 11
-269.442849
 21
-11.635467
 31
0.0
  0
DIMENSION
  5
580
100
AcDbEntity
  8
5
100
AcDbDimension
  2
*D0
 10
-336.125122
 20
250.907236
 30
0.0
 11
-341.745122
 21
215.387236
 31
0.0
  1
75
100
AcDbAlignedDimension
 13
-321.791931
 23
175.907236
 33
0.0
 14
-259.194112
 24
250.907236
 34
0.0
 50
90.0
100
AcDbRotatedDimension
  0
DIMENSION
  5
581
100
AcDbEntity
  8
5
100
AcDbDimension
  2
*D1
 10
-336.125122
 20
175.907236
 30
0.0
 11
-341.745122
 21
152.887236
 31
0.0
  1
50
100
AcDbAlignedDimension
 13
-244.194112
 23
125.907236
 33
0.0
 14
-321.791931
 24
175.907236
 34
0.0
 50
90.0
100
AcDbRotatedDimension
  0
DIMENSION
  5
582
100
AcDbEntity
  8
5
100
AcDbDimension
  2
*D2
 10
0.572995
 20
0.364533
 30
0.0
 11
-7.357005
 21
-62.465467
 31
0.0
  1
125
100
AcDbAlignedDimension
 13
37.753113
 23
-124.635467
 33
0.0
 14
26.968825
 24
0.364533
 34
0.0
 50
90.0
100
AcDbRotatedDimension
  0
DIMENSION
  5
583
100
AcDbEntity
  8
5
100
AcDbDimension
  2
*D3
 10
0.572995
 20
-124.635467
 30
0.0
 11
-7.357005
 21
-187.465467
 31
0.0
  1
125
100
AcDbAlignedDimension
 13
57.968825
 23
-249.635467
 33
0.0
 14
37.753113
 24
-124.635467
 34
0.0
 50
90.0
100
AcDbRotatedDimension
  0
DIMENSION
  5
584
100
AcDbEntity
  8
5
100
AcDbDimension
  2
*D4
 10
99.968825
 20
-268.566315
 30
0.0
 11
76.968825
 21
-264.266315
 31
0.0
  1
46
100
AcDbAlignedDimension
 13
53.968825
 23
-178.135467
 33
0.0
 14
99.968825
 24
-178.135467
 34
0.0
100
AcDbRotatedDimension
  0
TEXT
  5
585
100
AcDbEntity
  8
5
100
AcDbText
 10
-0.427005
 20
14.97322
 30
0.0
 40
6.6
  1
66(概略)
 50
90.0
 41
1.4
 72
     5
 11
-0.427005
 21
50.085219
 31
0.0
100
AcDbText
  0
DIMENSION
  5
586
100
AcDbEntity
  8
5
100
AcDbDimension
  2
*D5
 10
0.572995
 20
66.541907
 30
0.0
 11
-1.927005
 21
33.45322
 31
0.0
100
AcDbAlignedDimension
 13
26.968825
 23
0.364533
 33
0.0
 14
76.968825
 24
66.541907
 34
0.0
 50
90.0
100
AcDbRotatedDimension
  0
TEXT
  5
587
100
AcDbEntity
  8
5
100
AcDbText
 10
-151.204309
 20
84.863716
 30
0.0
 40
6.6
  1
200
 41
1.4
 72
     5
 11
-139.192309
 21
84.863716
 31
0.0
100
AcDbText
  0
DIMENSION
  5
588
100
AcDbEntity
  8
5
100
AcDbDimension
  2
*D6
 10
-44.354505
 20
83.863716
 30
0.0
 11
-144.274309
 21
85.863716
 31
0.0
100
AcDbAlignedDimension
 13
-244.194112
 23
47.437194
 33
0.0
 14
-44.354505
 24
59.29276
 34
0.0
100
AcDbRotatedDimension
  0
TEXT
  5
589
100
AcDbEntity
  8
18
100
AcDbText
 10
244.289261
 20
-266.527985
 30
0.0
 40
6.0
  1
１
 72
     5
 11
249.089261
 21
-266.527985
 31
0.0
100
AcDbText
  0
TEXT
  5
58A
100
AcDbEntity
  8
18
100
AcDbText
 10
253.082458
 20
-274.202026
 30
0.0
 40
6.0
  1
２
 72
     5
 11
257.882458
 21
-274.202026
 31
0.0
100
AcDbText
  0
TEXT
  5
58B
100
AcDbEntity
  8
18
100
AcDbText
 10
245.708481
 20
-254.070526
 30
0.0
 40
6.0
  1
標準仕様
 72
     5
 11
268.508481
 21
-254.070526
 31
0.0
100
AcDbText
  0
LINE
  5
58C
100
AcDbEntity
  8
18
100
AcDbLine
 10
256.862762
 20
-146.055054
 30
0.0
 11
356.862762
 21
-146.055054
 31
0.0
  0
LINE
  5
58D
100
AcDbEntity
  8
18
100
AcDbLine
 10
256.862762
 20
-186.055054
 30
0.0
 11
356.862762
 21
-186.055054
 31
0.0
  0
LINE
  5
58E
100
AcDbEntity
  8
18
100
AcDbLine
 10
256.862762
 20
-196.055054
 30
0.0
 11
356.862762
 21
-196.055054
 31
0.0
  0
LINE
  5
58F
100
AcDbEntity
  8
18
100
AcDbLine
 10
256.862762
 20
-206.055054
 30
0.0
 11
356.862762
 21
-206.055054
 31
0.0
  0
LINE
  5
590
100
AcDbEntity
  8
18
100
AcDbLine
 10
256.862762
 20
-146.055054
 30
0.0
 11
256.862762
 21
-206.055054
 31
0.0
  0
LINE
  5
591
100
AcDbEntity
  8
18
100
AcDbLine
 10
306.862762
 20
-146.055054
 30
0.0
 11
306.862762
 21
-196.055054
 31
0.0
  0
LINE
  5
592
100
AcDbEntity
  8
18
100
AcDbLine
 10
356.862762
 20
-146.055054
 30
0.0
 11
356.862762
 21
-206.055054
 31
0.0
  0
LINE
  5
593
100
AcDbEntity
  8
18
 62
     2
100
AcDbLine
 10
274.420021
 20
-148.024063
 30
0.0
 11
274.420021
 21
-172.226685
 31
0.0
  0
LINE
  5
594
100
AcDbEntity
  8
18
100
AcDbLine
 10
262.420021
 20
-170.226685
 30
0.0
 11
262.420021
 21
-176.226685
 31
0.0
  0
LINE
  5
595
100
AcDbEntity
  8
18
100
AcDbLine
 10
262.420021
 20
-170.226685
 30
0.0
 11
268.095466
 21
-170.226685
 31
0.0
  0
LINE
  5
596
100
AcDbEntity
  8
18
100
AcDbLine
 10
280.744576
 20
-170.226685
 30
0.0
 11
286.420021
 21
-170.226685
 31
0.0
  0
LINE
  5
597
100
AcDbEntity
  8
18
100
AcDbLine
 10
262.420021
 20
-176.226685
 30
0.0
 11
268.095466
 21
-176.226685
 31
0.0
  0
LINE
  5
598
100
AcDbEntity
  8
18
100
AcDbLine
 10
280.744576
 20
-176.226685
 30
0.0
 11
286.420021
 21
-176.226685
 31
0.0
  0
LINE
  5
599
100
AcDbEntity
  8
18
100
AcDbLine
 10
272.322167
 20
-172.226685
 30
0.0
 11
298.909369
 21
-172.226685
 31
0.0
  0
LINE
  5
59A
100
AcDbEntity
  8
18
100
AcDbLine
 10
272.322167
 20
-174.226685
 30
0.0
 11
298.909369
 21
-174.226685
 31
0.0
  0
LINE
  5
59B
100
AcDbEntity
  8
18
100
AcDbLine
 10
269.341311
 20
-172.834756
 30
0.0
 11
272.322167
 21
-172.226685
 31
0.0
  0
LINE
  5
59C
100
AcDbEntity
  8
18
100
AcDbLine
 10
269.341311
 20
-173.618613
 30
0.0
 11
272.322167
 21
-174.226685
 31
0.0
  0
ARC
  5
59D
100
AcDbEntity
  8
18
100
AcDbCircle
 10
269.421262
 20
-173.226685
 30
0.0
 40
0.4
100
AcDbArc
 50
101.529708
 51
258.470292
  0
LINE
  5
59E
100
AcDbEntity
  8
18
100
AcDbLine
 10
286.420021
 20
-176.226685
 30
0.0
 11
286.420021
 21
-174.226685
 31
0.0
  0
LINE
  5
59F
100
AcDbEntity
  8
18
100
AcDbLine
 10
286.420021
 20
-172.226685
 30
0.0
 11
286.420021
 21
-170.226685
 31
0.0
  0
ARC
  5
5A0
100
AcDbEntity
  8
18
100
AcDbCircle
 10
274.420021
 20
-173.226685
 30
0.0
 40
7.0
100
AcDbArc
 50
8.213211
 51
351.786789
  0
LINE
  5
5A1
100
AcDbEntity
  8
18
100
AcDbLine
 10
298.909369
 20
-172.226685
 30
0.0
 11
298.909369
 21
-174.226685
 31
0.0
  0
LINE
  5
5A2
100
AcDbEntity
  8
18
 62
     2
100
AcDbLine
 10
349.284842
 20
-158.266296
 30
0.0
 11
325.08222
 21
-158.266296
 31
0.0
  0
LINE
  5
5A3
100
AcDbEntity
  8
18
100
AcDbLine
 10
312.08222
 20
-155.266296
 30
0.0
 11
312.08222
 21
-161.266296
 31
0.0
  0
LINE
  5
5A4
100
AcDbEntity
  8
18
100
AcDbLine
 10
312.08222
 20
-155.266296
 30
0.0
 11
317.757665
 21
-155.266296
 31
0.0
  0
LINE
  5
5A5
100
AcDbEntity
  8
18
100
AcDbLine
 10
330.406775
 20
-155.266296
 30
0.0
 11
336.08222
 21
-155.266296
 31
0.0
  0
LINE
  5
5A6
100
AcDbEntity
  8
18
100
AcDbLine
 10
312.08222
 20
-161.266296
 30
0.0
 11
317.757665
 21
-161.266296
 31
0.0
  0
LINE
  5
5A7
100
AcDbEntity
  8
18
100
AcDbLine
 10
330.406775
 20
-161.266296
 30
0.0
 11
336.08222
 21
-161.266296
 31
0.0
  0
LINE
  5
5A8
100
AcDbEntity
  8
18
100
AcDbLine
 10
325.08222
 20
-156.168442
 30
0.0
 11
325.08222
 21
-182.755644
 31
0.0
  0
LINE
  5
5A9
100
AcDbEntity
  8
18
100
AcDbLine
 10
323.08222
 20
-156.168442
 30
0.0
 11
323.08222
 21
-182.755644
 31
0.0
  0
LINE
  5
5AA
100
AcDbEntity
  8
18
100
AcDbLine
 10
324.474149
 20
-153.187587
 30
0.0
 11
325.08222
 21
-156.168442
 31
0.0
  0
LINE
  5
5AB
100
AcDbEntity
  8
18
100
AcDbLine
 10
323.690292
 20
-153.187587
 30
0.0
 11
323.08222
 21
-156.168442
 31
0.0
  0
ARC
  5
5AC
100
AcDbEntity
  8
18
100
AcDbCircle
 10
324.08222
 20
-153.267537
 30
0.0
 40
0.4
100
AcDbArc
 50
11.529708
 51
168.470292
  0
LINE
  5
5AD
100
AcDbEntity
  8
18
100
AcDbLine
 10
336.08222
 20
-161.266296
 30
0.0
 11
336.08222
 21
-159.266296
 31
0.0
  0
LINE
  5
5AE
100
AcDbEntity
  8
18
100
AcDbLine
 10
336.08222
 20
-159.266296
 30
0.0
 11
336.08222
 21
-155.266296
 31
0.0
  0
LINE
  5
5AF
100
AcDbEntity
  8
18
100
AcDbLine
 10
325.08222
 20
-182.755644
 30
0.0
 11
323.08222
 21
-182.755644
 31
0.0
  0
ARC
  5
5B0
100
AcDbEntity
  8
18
100
AcDbCircle
 10
324.08222
 20
-158.266296
 30
0.0
 40
7.0
100
AcDbArc
 50
278.213211
 51
261.786789
  0
TEXT
  5
5B1
100
AcDbEntity
  8
18
100
AcDbText
 10
264.847015
 20
-203.122322
 30
0.0
 40
5.0
  1
ＡＣＴＵＡＴＯＲ　ＰＯＳＩＴＩＯＮ
 72
     5
 11
348.847015
 21
-203.122322
 31
0.0
100
AcDbText
  0
TEXT
  5
5B2
100
AcDbEntity
  8
18
100
AcDbText
 10
277.124237
 20
-193.699295
 30
0.0
 40
6.0
  1
Ｌ
 72
     5
 11
281.924237
 21
-193.699295
 31
0.0
100
AcDbText
  0
TEXT
  5
5B3
100
AcDbEntity
  8
18
100
AcDbText
 10
327.100342
 20
-193.859604
 30
0.0
 40
6.0
  1
Ｒ
 72
     5
 11
331.900342
 21
-193.859604
 31
0.0
100
AcDbText
  0
TEXT
  5
5B4
100
AcDbEntity
  8
18
100
AcDbText
 10
288.872514
 20
-153.531551
 30
0.0
 40
6.0
  1
　
 50
315.0
 72
     5
 11
288.023986
 21
-152.683023
 31
0.0
100
AcDbText
  0
DIMENSION
  5
5B5
100
AcDbEntity
  8
18
100
AcDbDimension
  2
*D7
 10
274.420021
 20
-149.787773
 30
0.0
 11
306.506987
 21
-140.846825
 31
0.0
 70
     2
100
AcDb2LineAngularDimension
 13
296.858932
 23
-172.226685
 33
0.0
 14
274.420021
 24
-172.226685
 34
0.0
 15
274.420021
 25
-172.226685
 35
0.0
 16
290.286727
 26
-156.359978
 36
0.0
  0
TEXT
  5
5B6
100
AcDbEntity
  8
18
100
AcDbText
 10
269.949709
 20
-151.971787
 30
0.0
 40
4.0
  1
Ｏ
 72
     5
 11
273.149709
 21
-151.971787
 31
0.0
100
AcDbText
  0
TEXT
  5
5B7
100
AcDbEntity
  8
18
100
AcDbText
 10
295.492743
 20
-179.110626
 30
0.0
 40
4.0
  1
Ｓ
 72
     5
 11
298.692743
 21
-179.110626
 31
0.0
100
AcDbText
  0
TEXT
  5
5B8
100
AcDbEntity
  8
18
100
AcDbText
 10
342.36314
 20
-171.304576
 30
0.0
 40
6.0
  1
　
 50
225.0
 72
     5
 11
343.211668
 21
-170.456048
 31
0.0
100
AcDbText
  0
DIMENSION
  5
5B9
100
AcDbEntity
  8
18
100
AcDbDimension
  2
*D8
 10
347.521132
 20
-158.266296
 30
0.0
 11
357.169186
 21
-191.060369
 31
0.0
 70
     2
100
AcDb2LineAngularDimension
 13
325.08222
 23
-180.705208
 33
0.0
 14
325.08222
 24
-158.266296
 34
0.0
 15
325.08222
 25
-158.266296
 35
0.0
 16
340.948927
 26
-174.133003
 36
0.0
  0
TEXT
  5
5BA
100
AcDbEntity
  8
18
100
AcDbText
 10
345.337118
 20
-153.795984
 30
0.0
 40
4.0
  1
Ｏ
 50
270.0
 72
     5
 11
345.337118
 21
-156.995984
 31
0.0
100
AcDbText
  0
TEXT
  5
5BB
100
AcDbEntity
  8
18
100
AcDbText
 10
318.198278
 20
-179.339018
 30
0.0
 40
4.0
  1
Ｓ
 50
270.0
 72
     5
 11
318.198278
 21
-182.539018
 31
0.0
100
AcDbText
  0
TEXT
  5
5BC
100
AcDbEntity
  8
18
100
AcDbText
 10
360.398199
 20
-254.208344
 30
0.0
 40
4.0
  1
２００５．　７．１９
 72
     5
 11
399.598199
 21
-254.208344
 31
0.0
100
AcDbText
  0
TEXT
  5
5BD
100
AcDbEntity
  8
18
100
AcDbText
 10
245.708481
 20
-246.070526
 30
0.0
 40
6.0
  1
８４７Ｔ－１ＴＬＳ　６５Ａ
 72
     5
 11
322.508481
 21
-246.070526
 31
0.0
100
AcDbText
  0
TEXT
  5
5BE
100
AcDbEntity
  8
18
100
AcDbText
 10
307.2
 20
-272.0
 30
0.0
 40
10.0
  1
Ｄ３－０３８２６
 72
     5
 11
385.2
 21
-272.0
 31
0.0
100
AcDbText
  0
LINE
  5
5BF
100
AcDbEntity
  8
20
 62
     3
100
AcDbLine
 10
-360.0
 20
-277.0
 30
0.0
 11
400.0
 21
-277.0
 31
0.0
  0
LINE
  5
5C0
100
AcDbEntity
  8
20
 62
     3
100
AcDbLine
 10
-360.0
 20
264.0
 30
0.0
 11
400.0
 21
264.0
 31
0.0
  0
LINE
  5
5C1
100
AcDbEntity
  8
20
 62
     3
100
AcDbLine
 10
-360.0
 20
264.0
 30
0.0
 11
-360.0
 21
-277.0
 31
0.0
  0
LINE
  5
5C2
100
AcDbEntity
  8
20
 62
     3
100
AcDbLine
 10
400.0
 20
264.0
 30
0.0
 11
400.0
 21
-277.0
 31
0.0
  0
LINE
  5
5C3
100
AcDbEntity
  8
20
 62
     3
100
AcDbLine
 10
120.0
 20
-277.0
 30
0.0
 11
120.0
 21
-237.0
 31
0.0
  0
LINE
  5
5C4
100
AcDbEntity
  8
20
 62
     3
100
AcDbLine
 10
214.0
 20
-277.0
 30
0.0
 11
214.0
 21
-237.0
 31
0.0
  0
LINE
  5
5C5
100
AcDbEntity
  8
20
100
AcDbLine
 10
214.0
 20
-257.0
 30
0.0
 11
400.0
 21
-257.0
 31
0.0
  0
LINE
  5
5C6
100
AcDbEntity
  8
20
 62
     3
100
AcDbLine
 10
120.0
 20
-237.0
 30
0.0
 11
400.0
 21
-237.0
 31
0.0
  0
LINE
  5
5C7
100
AcDbEntity
  8
20
100
AcDbLine
 10
360.0
 20
-257.0
 30
0.0
 11
360.0
 21
-237.0
 31
0.0
  0
LINE
  5
5C8
100
AcDbEntity
  8
20
100
AcDbLine
 10
360.0
 20
-247.0
 30
0.0
 11
400.0
 21
-247.0
 31
0.0
  0
LINE
  5
5C9
100
AcDbEntity
  8
20
100
AcDbLine
 10
242.0
 20
-277.0
 30
0.0
 11
242.0
 21
-237.0
 31
0.0
  0
LINE
  5
5CA
100
AcDbEntity
  8
20
100
AcDbLine
 10
262.0
 20
-277.0
 30
0.0
 11
262.0
 21
-257.0
 31
0.0
  0
LINE
  5
5CB
100
AcDbEntity
  8
20
100
AcDbLine
 10
302.0
 20
-277.0
 30
0.0
 11
302.0
 21
-257.0
 31
0.0
  0
LINE
  5
5CC
100
AcDbEntity
  8
20
100
AcDbLine
 10
247.456829
 20
-271.543171
 30
0.0
 11
255.796581
 21
-263.203419
 31
0.0
  0
TEXT
  5
5CD
100
AcDbEntity
  8
20
100
AcDbText
 10
263.066658
 20
-264.993835
 30
0.0
 40
3.6
  1
ＤＲＡＷＩＮＧ　ＮＯ．
 72
     5
 11
301.946658
 21
-264.993835
 31
0.0
100
AcDbText
  0
TEXT
  5
5CE
100
AcDbEntity
  8
20
100
AcDbText
 10
267.0
 20
-273.0
 30
0.0
 40
6.0
  1
図　　　番
 72
     5
 11
295.8
 21
-273.0
 31
0.0
100
AcDbText
  0
TEXT
  5
5CF
100
AcDbEntity
  8
20
100
AcDbText
 10
372.0
 20
-244.0
 30
0.0
 40
4.0
  1
ＤＡＴＥ
 72
     5
 11
387.2
 21
-244.0
 31
0.0
100
AcDbText
  0
TEXT
  5
5D0
100
AcDbEntity
  8
20
100
AcDbText
 10
218.002142
 20
-265.922058
 30
0.0
 40
4.0
  1
ＳＣＡＬＥ
 72
     5
 11
237.202142
 21
-265.922058
 31
0.0
100
AcDbText
  0
TEXT
  5
5D1
100
AcDbEntity
  8
20
100
AcDbText
 10
216.0
 20
-273.0
 30
0.0
 40
6.0
  1
尺　　度
 72
     5
 11
238.8
 21
-273.0
 31
0.0
100
AcDbText
  0
TEXT
  5
5D2
100
AcDbEntity
  8
20
100
AcDbText
 10
215.002142
 20
-244.991769
 30
0.0
 40
4.0
  1
ＦＩＧ．ＮＯ．
 72
     5
 11
242.202142
 21
-244.991769
 31
0.0
100
AcDbText
  0
TEXT
  5
5D3
100
AcDbEntity
  8
20
100
AcDbText
 10
216.0
 20
-253.0
 30
0.0
 40
6.0
  1
名　　称
 72
     5
 11
238.8
 21
-253.0
 31
0.0
100
AcDbText
  0
TEXT
  5
5D4
100
AcDbEntity
  8
20
100
AcDbText
 10
121.13105
 20
-252.940506
 30
0.0
 40
4.6
  1
ＴＯＭＯＥ　ＶＡＬＶＥ　ＣＯ．，ＬＴＤ．
 72
     5
 11
212.21105
 21
-252.940506
 31
0.0
100
AcDbText
  0
TEXT
  5
5D5
100
AcDbEntity
  8
20
100
AcDbText
 10
135.0
 20
-266.57962
 30
0.0
 40
8.0
  1
巴バルブ株式会社
 72
     5
 11
197.4
 21
-266.57962
 31
0.0
100
AcDbText
  0
ENDSEC
  0
SECTION
  2
OBJECTS
  0
DICTIONARY
  5
63E
100
AcDbDictionary
  3
ACAD_GROUP
350
63F
  3
ACAD_MLINESTYLE
350
640
  0
DICTIONARY
  5
63F
102
{ACAD_REACTORS
330
63E
102
}
100
AcDbDictionary
  0
DICTIONARY
  5
640
102
{ACAD_REACTORS
330
63E
102
}
100
AcDbDictionary
  3
STANDARD
350
641
  0
MLINESTYLE
  5
641
102
{ACAD_REACTORS
330
640
102
}
100
AcDbMlineStyle
  2
STANDARD
 70
     0
  3

 62
     0
 51
90.0
 52
90.0
 71
     2
 49
0.5
 62
   256
  6
BYLAYER
 49
-0.5
 62
   256
  6
BYLAYER
  0
ENDSEC
  0
EOF
