  0
SECTION
  2
HEADER
  9
$ACADVER
  1
AC1015
  9
$ACADMAINTVER
 70
    20
  9
$DWGCODEPAGE
  3
ANSI_932
  9
$INSBASE
 10
0.0
 20
0.0
 30
0.0
  9
$EXTMIN
 10
-360.0402811775452
 20
-277.0326218847565
 30
-0.0015258207003583
  9
$EXTMAX
 10
406.7596454950512
 20
264.0261854266587
 30
0.0000000349246037
  9
$LIMMIN
 10
-420.0
 20
-297.0
  9
$LIMMAX
 10
420.0
 20
297.0
  9
$ORTHOMODE
 70
     0
  9
$REGENMODE
 70
     1
  9
$FILLMODE
 70
     1
  9
$QTEXTMODE
 70
     0
  9
$MIRRTEXT
 70
     0
  9
$LTSCALE
 40
1.0
  9
$ATTMODE
 70
     1
  9
$TEXTSIZE
 40
1.0
  9
$TRACEWID
 40
0.05
  9
$TEXTSTYLE
  7
STANDARD
  9
$CLAYER
  8
0
  9
$CELTYPE
  6
CONTINUOUS
  9
$CECOLOR
 62
   256
  9
$CELTSCALE
 40
1.0
  9
$DISPSILH
 70
     0
  9
$DIMSCALE
 40
2.0
  9
$DIMASZ
 40
0.18
  9
$DIMEXO
 40
0.0625
  9
$DIMDLI
 40
0.38
  9
$DIMRND
 40
0.0
  9
$DIMDLE
 40
0.0
  9
$DIMEXE
 40
0.18
  9
$DIMTP
 40
0.0
  9
$DIMTM
 40
0.0
  9
$DIMTXT
 40
0.18
  9
$DIMCEN
 40
0.09
  9
$DIMTSZ
 40
0.0
  9
$DIMTOL
 70
     0
  9
$DIMLIM
 70
     0
  9
$DIMTIH
 70
     1
  9
$DIMTOH
 70
     1
  9
$DIMSE1
 70
     0
  9
$DIMSE2
 70
     0
  9
$DIMTAD
 70
     1
  9
$DIMZIN
 70
     0
  9
$DIMBLK
  1

  9
$DIMASO
 70
     1
  9
$DIMSHO
 70
     1
  9
$DIMPOST
  1

  9
$DIMAPOST
  1

  9
$DIMALT
 70
     0
  9
$DIMALTD
 70
     2
  9
$DIMALTF
 40
25.4
  9
$DIMLFAC
 40
1.0
  9
$DIMTOFL
 70
     0
  9
$DIMTVP
 40
0.0
  9
$DIMTIX
 70
     0
  9
$DIMSOXD
 70
     0
  9
$DIMSAH
 70
     0
  9
$DIMBLK1
  1

  9
$DIMBLK2
  1

  9
$DIMSTYLE
  2
Standard
  9
$DIMCLRD
 70
     0
  9
$DIMCLRE
 70
     0
  9
$DIMCLRT
 70
     0
  9
$DIMTFAC
 40
1.0
  9
$DIMGAP
 40
0.09
  9
$DIMJUST
 70
     0
  9
$DIMSD1
 70
     0
  9
$DIMSD2
 70
     0
  9
$DIMTOLJ
 70
     1
  9
$DIMTZIN
 70
     0
  9
$DIMALTZ
 70
     0
  9
$DIMALTTZ
 70
     0
  9
$DIMUPT
 70
     0
  9
$DIMDEC
 70
     4
  9
$DIMTDEC
 70
     4
  9
$DIMALTU
 70
     2
  9
$DIMALTTD
 70
     2
  9
$DIMTXSTY
  7
STANDARD
  9
$DIMAUNIT
 70
     0
  9
$DIMADEC
 70
     0
  9
$DIMALTRND
 40
0.0
  9
$DIMAZIN
 70
     0
  9
$DIMDSEP
 70
    46
  9
$DIMATFIT
 70
     3
  9
$DIMFRAC
 70
     0
  9
$DIMLDRBLK
  1

  9
$DIMLUNIT
 70
     2
  9
$DIMLWD
 70
    -2
  9
$DIMLWE
 70
    -2
  9
$DIMTMOVE
 70
     0
  9
$LUNITS
 70
     2
  9
$LUPREC
 70
     4
  9
$SKETCHINC
 40
0.1
  9
$FILLETRAD
 40
0.0
  9
$AUNITS
 70
     0
  9
$AUPREC
 70
     0
  9
$MENU
  1
.
  9
$ELEVATION
 40
0.0
  9
$PELEVATION
 40
0.0
  9
$THICKNESS
 40
0.0
  9
$LIMCHECK
 70
     0
  9
$CHAMFERA
 40
0.0
  9
$CHAMFERB
 40
0.0
  9
$CHAMFERC
 40
0.0
  9
$CHAMFERD
 40
0.0
  9
$SKPOLY
 70
     0
  9
$TDCREATE
 40
2450624.000000000
  9
$TDUCREATE
 40
2450623.625000000
  9
$TDUPDATE
 40
2455267.572537628
  9
$TDUUPDATE
 40
2455267.197537628
  9
$TDINDWG
 40
0.0001496644
  9
$TDUSRTIMER
 40
0.0001496644
  9
$USRTIMER
 70
     1
  9
$ANGBASE
 50
0.0
  9
$ANGDIR
 70
     0
  9
$PDMODE
 70
     0
  9
$PDSIZE
 40
0.0
  9
$PLINEWID
 40
0.0
  9
$SPLFRAME
 70
     0
  9
$SPLINETYPE
 70
     6
  9
$SPLINESEGS
 70
     8
  9
$HANDSEED
  5
876
  9
$SURFTAB1
 70
     6
  9
$SURFTAB2
 70
     6
  9
$SURFTYPE
 70
     6
  9
$SURFU
 70
     6
  9
$SURFV
 70
     6
  9
$UCSBASE
  2

  9
$UCSNAME
  2

  9
$UCSORG
 10
0.0
 20
0.0
 30
0.0
  9
$UCSXDIR
 10
1.0
 20
0.0
 30
0.0
  9
$UCSYDIR
 10
0.0
 20
1.0
 30
0.0
  9
$UCSORTHOREF
  2

  9
$UCSORTHOVIEW
 70
     0
  9
$UCSORGTOP
 10
0.0
 20
0.0
 30
0.0
  9
$UCSORGBOTTOM
 10
0.0
 20
0.0
 30
0.0
  9
$UCSORGLEFT
 10
0.0
 20
0.0
 30
0.0
  9
$UCSORGRIGHT
 10
0.0
 20
0.0
 30
0.0
  9
$UCSORGFRONT
 10
0.0
 20
0.0
 30
0.0
  9
$UCSORGBACK
 10
0.0
 20
0.0
 30
0.0
  9
$PUCSBASE
  2

  9
$PUCSNAME
  2

  9
$PUCSORG
 10
0.0
 20
0.0
 30
0.0
  9
$PUCSXDIR
 10
1.0
 20
0.0
 30
0.0
  9
$PUCSYDIR
 10
0.0
 20
1.0
 30
0.0
  9
$PUCSORTHOREF
  2

  9
$PUCSORTHOVIEW
 70
     0
  9
$PUCSORGTOP
 10
0.0
 20
0.0
 30
0.0
  9
$PUCSORGBOTTOM
 10
0.0
 20
0.0
 30
0.0
  9
$PUCSORGLEFT
 10
0.0
 20
0.0
 30
0.0
  9
$PUCSORGRIGHT
 10
0.0
 20
0.0
 30
0.0
  9
$PUCSORGFRONT
 10
0.0
 20
0.0
 30
0.0
  9
$PUCSORGBACK
 10
0.0
 20
0.0
 30
0.0
  9
$USERI1
 70
     0
  9
$USERI2
 70
     0
  9
$USERI3
 70
     0
  9
$USERI4
 70
     0
  9
$USERI5
 70
     0
  9
$USERR1
 40
0.0
  9
$USERR2
 40
0.0
  9
$USERR3
 40
0.0
  9
$USERR4
 40
0.0
  9
$USERR5
 40
0.0
  9
$WORLDVIEW
 70
     1
  9
$SHADEDGE
 70
     3
  9
$SHADEDIF
 70
    70
  9
$TILEMODE
 70
     1
  9
$MAXACTVP
 70
    64
  9
$PINSBASE
 10
0.0
 20
0.0
 30
0.0
  9
$PLIMCHECK
 70
     0
  9
$PEXTMIN
 10
1.000000000000000E+20
 20
1.000000000000000E+20
 30
1.000000000000000E+20
  9
$PEXTMAX
 10
-1.000000000000000E+20
 20
-1.000000000000000E+20
 30
-1.000000000000000E+20
  9
$PLIMMIN
 10
0.0
 20
0.0
  9
$PLIMMAX
 10
12.0
 20
9.0
  9
$UNITMODE
 70
     0
  9
$VISRETAIN
 70
     1
  9
$PLINEGEN
 70
     0
  9
$PSLTSCALE
 70
     1
  9
$TREEDEPTH
 70
  3020
  9
$CMLSTYLE
  2
Standard
  9
$CMLJUST
 70
     0
  9
$CMLSCALE
 40
1.0
  9
$PROXYGRAPHICS
 70
     1
  9
$MEASUREMENT
 70
     0
  9
$CELWEIGHT
370
    -1
  9
$ENDCAPS
280
     0
  9
$JOINSTYLE
280
     0
  9
$LWDISPLAY
290
     0
  9
$INSUNITS
 70
     0
  9
$HYPERLINKBASE
  1

  9
$STYLESHEET
  1

  9
$XEDIT
290
     1
  9
$CEPSNTYPE
380
     0
  9
$PSTYLEMODE
290
     1
  9
$FINGERPRINTGUID
  2
{C9617C58-C1EB-4341-A71D-1CB6F2E02D75}
  9
$VERSIONGUID
  2
{C7E9AF8C-A061-4849-8254-A45234BF3F15}
  9
$EXTNAMES
290
     1
  9
$PSVPSCALE
 40
0.0
  9
$OLESTARTUP
290
     0
  0
ENDSEC
  0
SECTION
  2
CLASSES
  0
CLASS
  1
ACDBDICTIONARYWDFLT
  2
AcDbDictionaryWithDefault
  3
ObjectDBX Classes
 90
        0
280
     0
281
     0
  0
CLASS
  1
MATERIAL
  2
AcDbMaterial
  3
ObjectDBX Classes
 90
     1153
280
     0
281
     0
  0
CLASS
  1
VISUALSTYLE
  2
AcDbVisualStyle
  3
ObjectDBX Classes
 90
     4095
280
     0
281
     0
  0
CLASS
  1
SCALE
  2
AcDbScale
  3
ObjectDBX Classes
 90
     1153
280
     0
281
     0
  0
CLASS
  1
TABLESTYLE
  2
AcDbTableStyle
  3
ObjectDBX Classes
 90
     4095
280
     0
281
     0
  0
CLASS
  1
MLEADERSTYLE
  2
AcDbMLeaderStyle
  3
ACDB_MLEADERSTYLE_CLASS
 90
     4095
280
     0
281
     0
  0
CLASS
  1
DICTIONARYVAR
  2
AcDbDictionaryVar
  3
ObjectDBX Classes
 90
        0
280
     0
281
     0
  0
CLASS
  1
CELLSTYLEMAP
  2
AcDbCellStyleMap
  3
ObjectDBX Classes
 90
     1152
280
     0
281
     0
  0
CLASS
  1
ACDBPLACEHOLDER
  2
AcDbPlaceHolder
  3
ObjectDBX Classes
 90
        0
280
     0
281
     0
  0
CLASS
  1
LAYOUT
  2
AcDbLayout
  3
ObjectDBX Classes
 90
        0
280
     0
281
     0
  0
ENDSEC
  0
SECTION
  2
TABLES
  0
TABLE
  2
VPORT
  5
8
330
0
100
AcDbSymbolTable
 70
     1
  0
VPORT
  5
85
330
8
100
AcDbSymbolTableRecord
100
AcDbViewportTableRecord
  2
*Active
 70
     0
 10
0.0
 20
0.0
 11
1.0
 21
1.0
 12
23.35968215875303
 22
-6.503218229048911
 13
0.0
 23
0.0
 14
1.0
 24
1.0
 15
0.0
 25
0.0
 16
0.0
 26
0.0
 36
1.0
 17
0.0
 27
0.0
 37
0.0
 40
545.4756139017124
 41
1.634877384196185
 42
50.0
 43
0.0
 44
0.0
 50
0.0
 51
0.0
 71
     0
 72
   100
 73
     1
 74
     1
 75
     0
 76
     0
 77
     0
 78
     0
281
     0
 65
     1
110
0.0
120
0.0
130
0.0
111
1.0
121
0.0
131
0.0
112
0.0
122
1.0
132
0.0
 79
     0
146
0.0
  0
ENDTAB
  0
TABLE
  2
LTYPE
  5
5
330
0
100
AcDbSymbolTable
 70
     7
  0
LTYPE
  5
62
330
5
100
AcDbSymbolTableRecord
100
AcDbLinetypeTableRecord
  2
ByBlock
 70
     0
  3

 72
    65
 73
     0
 40
0.0
  0
LTYPE
  5
63
330
5
100
AcDbSymbolTableRecord
100
AcDbLinetypeTableRecord
  2
ByLayer
 70
     0
  3

 72
    65
 73
     0
 40
0.0
  0
LTYPE
  5
64
330
5
100
AcDbSymbolTableRecord
100
AcDbLinetypeTableRecord
  2
CONTINUOUS
 70
     0
  3
Solid line
 72
    65
 73
     0
 40
0.0
  0
LTYPE
  5
78
330
5
100
AcDbSymbolTableRecord
100
AcDbLinetypeTableRecord
  2
DASHED
 70
     0
  3
__ __ __ __ __ __ __ __ __ __ __ __ __ __ __
 72
    65
 73
     2
 40
2.0
 49
1.199999999999999
 74
     0
 49
-0.8
 74
     0
  0
LTYPE
  5
79
330
5
100
AcDbSymbolTableRecord
100
AcDbLinetypeTableRecord
  2
CENTER
 70
     0
  3
____ _ ____ _ ____ _ ____ _ ____ _ ____ _ ____
 72
    65
 73
     4
 40
12.0
 49
9.0
 74
     0
 49
-1.0
 74
     0
 49
1.0
 74
     0
 49
-1.0
 74
     0
  0
LTYPE
  5
7A
330
5
100
AcDbSymbolTableRecord
100
AcDbLinetypeTableRecord
  2
HIDDEN
 70
     0
  3
_ _ _ _ _ _ _ _ _ _ _ _ _ _ _ _ _ _ _ _ _ _ _
 72
    65
 73
     2
 40
3.2
 49
2.399999999999999
 74
     0
 49
-0.8
 74
     0
  0
LTYPE
  5
7B
330
5
100
AcDbSymbolTableRecord
100
AcDbLinetypeTableRecord
  2
PHANTOM
 70
     0
  3
_____ _ _ _____ _ _ _____ _ _ _____ _ _ _____
 72
    65
 73
     6
 40
13.5
 49
9.0
 74
     0
 49
-1.0
 74
     0
 49
1.0
 74
     0
 49
-0.5
 74
     0
 49
1.0
 74
     0
 49
-1.0
 74
     0
  0
LTYPE
  5
7C
330
5
100
AcDbSymbolTableRecord
100
AcDbLinetypeTableRecord
  2
DOT
 70
     0
  3
...............................................
 72
    65
 73
     2
 40
1.0
 49
0.5
 74
     0
 49
-0.5
 74
     0
  0
LTYPE
  5
7D
330
5
100
AcDbSymbolTableRecord
100
AcDbLinetypeTableRecord
  2
DASHDOT
 70
     0
  3
__ . __ . __ . __ . __ . __ . __ . __ . __ . __
 72
    65
 73
     4
 40
8.0
 49
5.0
 74
     0
 49
-1.0
 74
     0
 49
1.0
 74
     0
 49
-1.0
 74
     0
  0
ENDTAB
  0
TABLE
  2
LAYER
  5
2
330
0
100
AcDbSymbolTable
 70
     6
  0
LAYER
  5
5C
102
{ACAD_XDICTIONARY
360
857
102
}
330
2
100
AcDbSymbolTableRecord
100
AcDbLayerTableRecord
  2
0
 70
     0
 62
     7
  6
CONTINUOUS
370
    -3
390
F
  0
LAYER
  5
7E
102
{ACAD_XDICTIONARY
360
859
102
}
330
2
100
AcDbSymbolTableRecord
100
AcDbLayerTableRecord
  2
1
 70
     0
 62
     7
  6
CONTINUOUS
370
    -3
390
F
  0
LAYER
  5
7F
102
{ACAD_XDICTIONARY
360
85B
102
}
330
2
100
AcDbSymbolTableRecord
100
AcDbLayerTableRecord
  2
2
 70
     0
 62
     7
  6
CONTINUOUS
370
    -3
390
F
  0
LAYER
  5
80
102
{ACAD_XDICTIONARY
360
85D
102
}
330
2
100
AcDbSymbolTableRecord
100
AcDbLayerTableRecord
  2
5
 70
     0
 62
     7
  6
CONTINUOUS
370
    -3
390
F
  0
LAYER
  5
81
102
{ACAD_XDICTIONARY
360
85F
102
}
330
2
100
AcDbSymbolTableRecord
100
AcDbLayerTableRecord
  2
18
 70
     0
 62
     7
  6
CONTINUOUS
370
    -3
390
F
  0
LAYER
  5
82
102
{ACAD_XDICTIONARY
360
861
102
}
330
2
100
AcDbSymbolTableRecord
100
AcDbLayerTableRecord
  2
20
 70
     0
 62
     7
  6
CONTINUOUS
370
    -3
390
F
  0
ENDTAB
  0
TABLE
  2
STYLE
  5
3
330
0
100
AcDbSymbolTable
 70
     2
  0
STYLE
  5
5D
330
3
100
AcDbSymbolTableRecord
100
AcDbTextStyleTableRecord
  2
STANDARD
 70
     0
 40
0.0
 41
1.0
 50
0.0
 71
     0
 42
1.0
  3
txt
  4
BIGFONT
  0
STYLE
  5
61
330
3
100
AcDbSymbolTableRecord
100
AcDbTextStyleTableRecord
  2
Annotative
 70
     0
 40
0.0
 41
1.0
 50
0.0
 71
     0
 42
0.2
  3

  4

1001
AcadAnnotative
1000
AnnotativeData
1002
{
1070
     1
1070
     1
1002
}
  0
ENDTAB
  0
TABLE
  2
VIEW
  5
6
330
0
100
AcDbSymbolTable
 70
     0
  0
ENDTAB
  0
TABLE
  2
UCS
  5
7
330
0
100
AcDbSymbolTable
 70
     0
  0
ENDTAB
  0
TABLE
  2
APPID
  5
9
330
0
100
AcDbSymbolTable
 70
     3
  0
APPID
  5
5E
330
9
100
AcDbSymbolTableRecord
100
AcDbRegAppTableRecord
  2
ACAD
 70
     0
  0
APPID
  5
65
330
9
100
AcDbSymbolTableRecord
100
AcDbRegAppTableRecord
  2
AcadAnnotative
 70
     0
  0
APPID
  5
6F
330
9
100
AcDbSymbolTableRecord
100
AcDbRegAppTableRecord
  2
ACAD_MLEADERVER
 70
     0
  0
ENDTAB
  0
TABLE
  2
DIMSTYLE
  5
A
330
0
100
AcDbSymbolTable
 70
     2
100
AcDbDimStyleTable
 71
     0
  0
DIMSTYLE
105
5F
102
{ACAD_REACTORS
330
77C
330
77D
330
77E
330
77F
330
780
330
781
330
782
330
783
102
}
330
A
100
AcDbSymbolTableRecord
100
AcDbDimStyleTableRecord
  2
Standard
 70
     0
340
5D
  0
DIMSTYLE
105
60
330
A
100
AcDbSymbolTableRecord
100
AcDbDimStyleTableRecord
  2
Annotative
 70
     0
340
5D
1001
AcadAnnotative
1000
AnnotativeData
1002
{
1070
     1
1070
     1
1002
}
  0
ENDTAB
  0
TABLE
  2
BLOCK_RECORD
  5
1
330
0
100
AcDbSymbolTable
 70
     8
  0
BLOCK_RECORD
  5
74
330
1
100
AcDbSymbolTableRecord
100
AcDbBlockTableRecord
  2
*Model_Space
340
77
  0
BLOCK_RECORD
  5
70
330
1
100
AcDbSymbolTableRecord
100
AcDbBlockTableRecord
  2
*Paper_Space
340
73
  0
BLOCK_RECORD
  5
86
330
1
100
AcDbSymbolTableRecord
100
AcDbBlockTableRecord
  2
*D0
340
0
  0
BLOCK_RECORD
  5
93
330
1
100
AcDbSymbolTableRecord
100
AcDbBlockTableRecord
  2
*D1
340
0
  0
BLOCK_RECORD
  5
A0
330
1
100
AcDbSymbolTableRecord
100
AcDbBlockTableRecord
  2
*D2
340
0
  0
BLOCK_RECORD
  5
AD
330
1
100
AcDbSymbolTableRecord
100
AcDbBlockTableRecord
  2
*D3
340
0
  0
BLOCK_RECORD
  5
BA
330
1
100
AcDbSymbolTableRecord
100
AcDbBlockTableRecord
  2
*D4
340
0
  0
BLOCK_RECORD
  5
C7
330
1
100
AcDbSymbolTableRecord
100
AcDbBlockTableRecord
  2
*D5
340
0
  0
BLOCK_RECORD
  5
D4
330
1
100
AcDbSymbolTableRecord
100
AcDbBlockTableRecord
  2
*D6
340
0
  0
BLOCK_RECORD
  5
E1
330
1
100
AcDbSymbolTableRecord
100
AcDbBlockTableRecord
  2
*D7
340
0
  0
ENDTAB
  0
ENDSEC
  0
SECTION
  2
BLOCKS
  0
BLOCK
  5
75
330
74
100
AcDbEntity
  8
0
100
AcDbBlockBegin
  2
*Model_Space
 70
     0
 10
0.0
 20
0.0
 30
0.0
  3
*Model_Space
  1

  0
ENDBLK
  5
76
330
74
100
AcDbEntity
  8
0
100
AcDbBlockEnd
  0
BLOCK
  5
71
330
70
100
AcDbEntity
 67
     1
  8
0
100
AcDbBlockBegin
  2
*Paper_Space
 70
     0
 10
0.0
 20
0.0
 30
0.0
  3
*Paper_Space
  1

  0
ENDBLK
  5
72
330
70
100
AcDbEntity
 67
     1
  8
0
100
AcDbBlockEnd
  0
BLOCK
  5
87
330
86
100
AcDbEntity
  8
5
100
AcDbBlockBegin
  2
*D0
 70
     1
 10
0.0
 20
0.0
 30
0.0
  3
*D0
  1

  0
TEXT
  5
88
330
86
100
AcDbEntity
  8
5
 62
     2
100
AcDbText
 10
73.536349
 20
-263.518982
 30
0.0
 40
6.599999999999999
  1
43
 41
1.399999999999999
100
AcDbText
  0
LINE
  5
89
330
86
100
AcDbEntity
  8
5
 62
     2
100
AcDbLine
 10
56.656349
 20
-221.992805
 30
0.0
 11
56.656349
 21
-266.518982
 31
0.0
  0
LINE
  5
8A
330
86
100
AcDbEntity
  8
5
 62
     2
100
AcDbLine
 10
56.656349
 20
-264.518982
 30
0.0
 11
60.52005300000001
 21
-265.554258
 31
0.0
  0
LINE
  5
8B
330
86
100
AcDbEntity
  8
5
 62
     2
100
AcDbLine
 10
56.656349
 20
-264.518982
 30
0.0
 11
60.52005300000001
 21
-263.483706
 31
0.0
  0
LINE
  5
8C
330
86
100
AcDbEntity
  8
5
 62
     2
100
AcDbLine
 10
60.52005300000001
 20
-265.554258
 30
0.0
 11
60.52005300000001
 21
-263.483706
 31
0.0
  0
LINE
  5
8D
330
86
100
AcDbEntity
  8
5
 62
     2
100
AcDbLine
 10
56.656349
 20
-264.518982
 30
0.0
 11
99.65634900000001
 21
-264.518982
 31
0.0
  0
LINE
  5
8E
330
86
100
AcDbEntity
  8
5
 62
     2
100
AcDbLine
 10
99.65634900000001
 20
-264.518982
 30
0.0
 11
95.792646
 21
-263.483706
 31
0.0
  0
LINE
  5
8F
330
86
100
AcDbEntity
  8
5
 62
     2
100
AcDbLine
 10
99.65634900000001
 20
-264.518982
 30
0.0
 11
95.792646
 21
-265.554258
 31
0.0
  0
LINE
  5
90
330
86
100
AcDbEntity
  8
5
 62
     2
100
AcDbLine
 10
95.792646
 20
-263.483706
 30
0.0
 11
95.792646
 21
-265.554258
 31
0.0
  0
LINE
  5
91
330
86
100
AcDbEntity
  8
5
 62
     2
100
AcDbLine
 10
99.65634900000001
 20
-221.992805
 30
0.0
 11
99.65634900000001
 21
-266.518982
 31
0.0
  0
ENDBLK
  5
92
330
86
100
AcDbEntity
  8
5
100
AcDbBlockEnd
  0
BLOCK
  5
94
330
93
100
AcDbEntity
  8
5
100
AcDbBlockBegin
  2
*D1
 70
     1
 10
0.0
 20
0.0
 30
0.0
  3
*D1
  1

  0
TEXT
  5
95
330
93
100
AcDbEntity
  8
5
 62
     2
100
AcDbText
 10
1.641922
 20
-211.762805
 30
0.0
 40
6.599999999999999
  1
75
 50
90.0
 41
1.399999999999999
100
AcDbText
  0
LINE
  5
96
330
93
100
AcDbEntity
  8
5
 62
     2
100
AcDbLine
 10
61.15634899999999
 20
-244.792805
 30
0.0
 11
0.6419220000000001
 21
-244.792805
 31
0.0
  0
LINE
  5
97
330
93
100
AcDbEntity
  8
5
 62
     2
100
AcDbLine
 10
2.641922
 20
-244.792805
 30
0.0
 11
3.677198
 21
-240.929102
 31
0.0
  0
LINE
  5
98
330
93
100
AcDbEntity
  8
5
 62
     2
100
AcDbLine
 10
2.641922
 20
-244.792805
 30
0.0
 11
1.606646
 21
-240.929102
 31
0.0
  0
LINE
  5
99
330
93
100
AcDbEntity
  8
5
 62
     2
100
AcDbLine
 10
3.677198
 20
-240.929102
 30
0.0
 11
1.606646
 21
-240.929102
 31
0.0
  0
LINE
  5
9A
330
93
100
AcDbEntity
  8
5
 62
     2
100
AcDbLine
 10
2.641922
 20
-244.792805
 30
0.0
 11
2.641922
 21
-169.492805
 31
0.0
  0
LINE
  5
9B
330
93
100
AcDbEntity
  8
5
 62
     2
100
AcDbLine
 10
2.641922
 20
-169.492805
 30
0.0
 11
1.606646
 21
-173.356509
 31
0.0
  0
LINE
  5
9C
330
93
100
AcDbEntity
  8
5
 62
     2
100
AcDbLine
 10
2.641922
 20
-169.492805
 30
0.0
 11
3.677198
 21
-173.356509
 31
0.0
  0
LINE
  5
9D
330
93
100
AcDbEntity
  8
5
 62
     2
100
AcDbLine
 10
1.606646
 20
-173.356509
 30
0.0
 11
3.677198
 21
-173.356509
 31
0.0
  0
LINE
  5
9E
330
93
100
AcDbEntity
  8
5
 62
     2
100
AcDbLine
 10
39.406349
 20
-169.492805
 30
0.0
 11
0.6419220000000001
 21
-169.492805
 31
0.0
  0
ENDBLK
  5
9F
330
93
100
AcDbEntity
  8
5
100
AcDbBlockEnd
  0
BLOCK
  5
A1
330
A0
100
AcDbEntity
  8
5
100
AcDbBlockBegin
  2
*D2
 70
     1
 10
0.0
 20
0.0
 30
0.0
  3
*D2
  1

  0
TEXT
  5
A2
330
A0
100
AcDbEntity
  8
5
 62
     2
100
AcDbText
 10
1.641922
 20
-104.922805
 30
0.0
 40
6.599999999999999
  1
143
 50
90.0
 41
1.399999999999999
100
AcDbText
  0
LINE
  5
A3
330
A0
100
AcDbEntity
  8
5
 62
     2
100
AcDbLine
 10
39.406349
 20
-169.492805
 30
0.0
 11
0.6419220000000001
 21
-169.492805
 31
0.0
  0
LINE
  5
A4
330
A0
100
AcDbEntity
  8
5
 62
     2
100
AcDbLine
 10
2.641922
 20
-169.492805
 30
0.0
 11
3.677198
 21
-165.629102
 31
0.0
  0
LINE
  5
A5
330
A0
100
AcDbEntity
  8
5
 62
     2
100
AcDbLine
 10
2.641922
 20
-169.492805
 30
0.0
 11
1.606646
 21
-165.629102
 31
0.0
  0
LINE
  5
A6
330
A0
100
AcDbEntity
  8
5
 62
     2
100
AcDbLine
 10
3.677198
 20
-165.629102
 30
0.0
 11
1.606646
 21
-165.629102
 31
0.0
  0
LINE
  5
A7
330
A0
100
AcDbEntity
  8
5
 62
     2
100
AcDbLine
 10
2.641922
 20
-169.492805
 30
0.0
 11
2.641922
 21
-26.492805
 31
0.0
  0
LINE
  5
A8
330
A0
100
AcDbEntity
  8
5
 62
     2
100
AcDbLine
 10
2.641922
 20
-26.492805
 30
0.0
 11
1.606646
 21
-30.356509
 31
0.0
  0
LINE
  5
A9
330
A0
100
AcDbEntity
  8
5
 62
     2
100
AcDbLine
 10
2.641922
 20
-26.492805
 30
0.0
 11
3.677198
 21
-30.356509
 31
0.0
  0
LINE
  5
AA
330
A0
100
AcDbEntity
  8
5
 62
     2
100
AcDbLine
 10
1.606646
 20
-30.356509
 30
0.0
 11
3.677198
 21
-30.356509
 31
0.0
  0
LINE
  5
AB
330
A0
100
AcDbEntity
  8
5
 62
     2
100
AcDbLine
 10
41.15634899999999
 20
-26.492805
 30
0.0
 11
0.6419220000000001
 21
-26.492805
 31
0.0
  0
ENDBLK
  5
AC
330
A0
100
AcDbEntity
  8
5
100
AcDbBlockEnd
  0
BLOCK
  5
AE
330
AD
100
AcDbEntity
  8
5
100
AcDbBlockBegin
  2
*D3
 70
     1
 10
0.0
 20
0.0
 30
0.0
  3
*D3
  1

  0
TEXT
  5
AF
330
AD
100
AcDbEntity
  8
5
 62
     2
100
AcDbText
 10
-149.634651
 20
244.710495
 30
0.0
 40
6.599999999999999
  1
160
 41
1.399999999999999
100
AcDbText
  0
LINE
  5
B0
330
AD
100
AcDbEntity
  8
5
 62
     2
100
AcDbLine
 10
-222.704651
 20
209.235864
 30
0.0
 11
-222.704651
 21
245.710495
 31
0.0
  0
LINE
  5
B1
330
AD
100
AcDbEntity
  8
5
 62
     2
100
AcDbLine
 10
-222.704651
 20
243.710495
 30
0.0
 11
-218.840948
 21
242.675219
 31
0.0
  0
LINE
  5
B2
330
AD
100
AcDbEntity
  8
5
 62
     2
100
AcDbLine
 10
-222.704651
 20
243.710495
 30
0.0
 11
-218.840948
 21
244.745771
 31
0.0
  0
LINE
  5
B3
330
AD
100
AcDbEntity
  8
5
 62
     2
100
AcDbLine
 10
-218.840948
 20
242.675219
 30
0.0
 11
-218.840948
 21
244.745771
 31
0.0
  0
LINE
  5
B4
330
AD
100
AcDbEntity
  8
5
 62
     2
100
AcDbLine
 10
-222.704651
 20
243.710495
 30
0.0
 11
-62.704651
 21
243.710495
 31
0.0
  0
LINE
  5
B5
330
AD
100
AcDbEntity
  8
5
 62
     2
100
AcDbLine
 10
-62.704651
 20
243.710495
 30
0.0
 11
-66.568354
 21
244.745771
 31
0.0
  0
LINE
  5
B6
330
AD
100
AcDbEntity
  8
5
 62
     2
100
AcDbLine
 10
-62.704651
 20
243.710495
 30
0.0
 11
-66.568354
 21
242.675219
 31
0.0
  0
LINE
  5
B7
330
AD
100
AcDbEntity
  8
5
 62
     2
100
AcDbLine
 10
-66.568354
 20
244.745771
 30
0.0
 11
-66.568354
 21
242.675219
 31
0.0
  0
LINE
  5
B8
330
AD
100
AcDbEntity
  8
5
 62
     2
100
AcDbLine
 10
-62.704651
 20
184.577387
 30
0.0
 11
-62.704651
 21
245.710495
 31
0.0
  0
ENDBLK
  5
B9
330
AD
100
AcDbEntity
  8
5
100
AcDbBlockEnd
  0
BLOCK
  5
BB
330
BA
100
AcDbEntity
  8
5
100
AcDbBlockBegin
  2
*D4
 70
     1
 10
0.0
 20
0.0
 30
0.0
  3
*D4
  1

  0
TEXT
  5
BC
330
BA
100
AcDbEntity
  8
5
 62
     2
100
AcDbText
 10
-37.105644
 20
155.057387
 30
0.0
 40
6.599999999999999
  1
36
 50
90.0
 41
1.399999999999999
100
AcDbText
  0
LINE
  5
BD
330
BA
100
AcDbEntity
  8
5
 62
     2
100
AcDbLine
 10
-161.104651
 20
141.677387
 30
0.0
 11
-34.105644
 21
141.677387
 31
0.0
  0
LINE
  5
BE
330
BA
100
AcDbEntity
  8
5
 62
     2
100
AcDbLine
 10
-36.105644
 20
141.677387
 30
0.0
 11
-35.070368
 21
145.541091
 31
0.0
  0
LINE
  5
BF
330
BA
100
AcDbEntity
  8
5
 62
     2
100
AcDbLine
 10
-36.105644
 20
141.677387
 30
0.0
 11
-37.14092
 21
145.541091
 31
0.0
  0
LINE
  5
C0
330
BA
100
AcDbEntity
  8
5
 62
     2
100
AcDbLine
 10
-35.070368
 20
145.541091
 30
0.0
 11
-37.14092
 21
145.541091
 31
0.0
  0
LINE
  5
C1
330
BA
100
AcDbEntity
  8
5
 62
     2
100
AcDbLine
 10
-36.105644
 20
141.677387
 30
0.0
 11
-36.105644
 21
177.677387
 31
0.0
  0
LINE
  5
C2
330
BA
100
AcDbEntity
  8
5
 62
     2
100
AcDbLine
 10
-36.105644
 20
177.677387
 30
0.0
 11
-37.14092
 21
173.813684
 31
0.0
  0
LINE
  5
C3
330
BA
100
AcDbEntity
  8
5
 62
     2
100
AcDbLine
 10
-36.105644
 20
177.677387
 30
0.0
 11
-35.070368
 21
173.813684
 31
0.0
  0
LINE
  5
C4
330
BA
100
AcDbEntity
  8
5
 62
     2
100
AcDbLine
 10
-37.14092
 20
173.813684
 30
0.0
 11
-35.070368
 21
173.813684
 31
0.0
  0
LINE
  5
C5
330
BA
100
AcDbEntity
  8
5
 62
     2
100
AcDbLine
 10
-54.284197
 20
177.677387
 30
0.0
 11
-34.105644
 21
177.677387
 31
0.0
  0
ENDBLK
  5
C6
330
BA
100
AcDbEntity
  8
5
100
AcDbBlockEnd
  0
BLOCK
  5
C8
330
C7
100
AcDbEntity
  8
5
100
AcDbBlockBegin
  2
*D5
 70
     1
 10
0.0
 20
0.0
 30
0.0
  3
*D5
  1

  0
TEXT
  5
C9
330
C7
100
AcDbEntity
  8
5
 62
     2
100
AcDbText
 10
-37.105644
 20
114.057387
 30
0.0
 40
6.599999999999999
  1
46
 50
90.0
 41
1.399999999999999
100
AcDbText
  0
LINE
  5
CA
330
C7
100
AcDbEntity
  8
5
 62
     2
100
AcDbLine
 10
-207.245651
 20
95.67738699999999
 30
0.0
 11
-34.105644
 21
95.67738699999999
 31
0.0
  0
LINE
  5
CB
330
C7
100
AcDbEntity
  8
5
 62
     2
100
AcDbLine
 10
-36.105644
 20
95.67738699999999
 30
0.0
 11
-35.070368
 21
99.54109100000001
 31
0.0
  0
LINE
  5
CC
330
C7
100
AcDbEntity
  8
5
 62
     2
100
AcDbLine
 10
-36.105644
 20
95.67738699999999
 30
0.0
 11
-37.14092
 21
99.54109100000001
 31
0.0
  0
LINE
  5
CD
330
C7
100
AcDbEntity
  8
5
 62
     2
100
AcDbLine
 10
-35.070368
 20
99.54109100000001
 30
0.0
 11
-37.14092
 21
99.54109100000001
 31
0.0
  0
LINE
  5
CE
330
C7
100
AcDbEntity
  8
5
 62
     2
100
AcDbLine
 10
-36.105644
 20
95.67738699999999
 30
0.0
 11
-36.105644
 21
141.677387
 31
0.0
  0
LINE
  5
CF
330
C7
100
AcDbEntity
  8
5
 62
     2
100
AcDbLine
 10
-36.105644
 20
141.677387
 30
0.0
 11
-37.14092
 21
137.813684
 31
0.0
  0
LINE
  5
D0
330
C7
100
AcDbEntity
  8
5
 62
     2
100
AcDbLine
 10
-36.105644
 20
141.677387
 30
0.0
 11
-35.070368
 21
137.813684
 31
0.0
  0
LINE
  5
D1
330
C7
100
AcDbEntity
  8
5
 62
     2
100
AcDbLine
 10
-37.14092
 20
137.813684
 30
0.0
 11
-35.070368
 21
137.813684
 31
0.0
  0
LINE
  5
D2
330
C7
100
AcDbEntity
  8
5
 62
     2
100
AcDbLine
 10
-161.104651
 20
141.677387
 30
0.0
 11
-34.105644
 21
141.677387
 31
0.0
  0
ENDBLK
  5
D3
330
C7
100
AcDbEntity
  8
5
100
AcDbBlockEnd
  0
BLOCK
  5
D5
330
D4
100
AcDbEntity
  8
5
100
AcDbBlockBegin
  2
*D6
 70
     1
 10
0.0
 20
0.0
 30
0.0
  3
*D6
  1

  0
TEXT
  5
D6
330
D4
100
AcDbEntity
  8
5
 62
     2
100
AcDbText
 10
-37.105644
 20
-6.232804999999999
 30
0.0
 40
6.599999999999999
  1
%%c100
 50
90.0
 41
1.399999999999999
100
AcDbText
  0
LINE
  5
D7
330
D4
100
AcDbEntity
  8
5
 62
     2
100
AcDbLine
 10
-76.204651
 20
53.00719499999999
 30
0.0
 11
-34.105644
 21
53.00719499999999
 31
0.0
  0
LINE
  5
D8
330
D4
100
AcDbEntity
  8
5
 62
     2
100
AcDbLine
 10
-36.105644
 20
53.00719499999999
 30
0.0
 11
-37.14092
 21
49.14349099999999
 31
0.0
  0
LINE
  5
D9
330
D4
100
AcDbEntity
  8
5
 62
     2
100
AcDbLine
 10
-36.105644
 20
53.00719499999999
 30
0.0
 11
-35.070368
 21
49.14349099999999
 31
0.0
  0
LINE
  5
DA
330
D4
100
AcDbEntity
  8
5
 62
     2
100
AcDbLine
 10
-37.14092
 20
49.14349099999999
 30
0.0
 11
-35.070368
 21
49.14349099999999
 31
0.0
  0
LINE
  5
DB
330
D4
100
AcDbEntity
  8
5
 62
     2
100
AcDbLine
 10
-36.105644
 20
53.00719499999999
 30
0.0
 11
-36.105644
 21
-46.99280499999999
 31
0.0
  0
LINE
  5
DC
330
D4
100
AcDbEntity
  8
5
 62
     2
100
AcDbLine
 10
-36.105644
 20
-46.99280499999999
 30
0.0
 11
-35.070368
 21
-43.129102
 31
0.0
  0
LINE
  5
DD
330
D4
100
AcDbEntity
  8
5
 62
     2
100
AcDbLine
 10
-36.105644
 20
-46.99280499999999
 30
0.0
 11
-37.14092
 21
-43.129102
 31
0.0
  0
LINE
  5
DE
330
D4
100
AcDbEntity
  8
5
 62
     2
100
AcDbLine
 10
-35.070368
 20
-43.129102
 30
0.0
 11
-37.14092
 21
-43.129102
 31
0.0
  0
LINE
  5
DF
330
D4
100
AcDbEntity
  8
5
 62
     2
100
AcDbLine
 10
-76.204651
 20
-46.99280499999999
 30
0.0
 11
-34.105644
 21
-46.99280499999999
 31
0.0
  0
ENDBLK
  5
E0
330
D4
100
AcDbEntity
  8
5
100
AcDbBlockEnd
  0
BLOCK
  5
E2
330
E1
100
AcDbEntity
  8
5
100
AcDbBlockBegin
  2
*D7
 70
     1
 10
0.0
 20
0.0
 30
0.0
  3
*D7
  1

  0
TEXT
  5
E3
330
E1
100
AcDbEntity
  8
5
 62
     2
100
AcDbText
 10
1.641922
 20
-20.982805
 30
0.0
 40
6.599999999999999
  1
29.5
 50
90.0
 41
1.399999999999999
100
AcDbText
  0
LINE
  5
E4
330
E1
100
AcDbEntity
  8
5
 62
     2
100
AcDbLine
 10
41.15634899999999
 20
-26.492805
 30
0.0
 11
0.6419220000000001
 21
-26.492805
 31
0.0
  0
LINE
  5
E5
330
E1
100
AcDbEntity
  8
5
 62
     2
100
AcDbLine
 10
2.641922
 20
-26.492805
 30
0.0
 11
3.677198
 21
-22.629102
 31
0.0
  0
LINE
  5
E6
330
E1
100
AcDbEntity
  8
5
 62
     2
100
AcDbLine
 10
2.641922
 20
-26.492805
 30
0.0
 11
1.606646
 21
-22.629102
 31
0.0
  0
LINE
  5
E7
330
E1
100
AcDbEntity
  8
5
 62
     2
100
AcDbLine
 10
3.677198
 20
-22.629102
 30
0.0
 11
1.606646
 21
-22.629102
 31
0.0
  0
LINE
  5
E8
330
E1
100
AcDbEntity
  8
5
 62
     2
100
AcDbLine
 10
2.641922
 20
-26.492805
 30
0.0
 11
2.641922
 21
3.007195
 31
0.0
  0
LINE
  5
E9
330
E1
100
AcDbEntity
  8
5
 62
     2
100
AcDbLine
 10
2.641922
 20
3.007195
 30
0.0
 11
1.606646
 21
-0.8565089999999999
 31
0.0
  0
LINE
  5
EA
330
E1
100
AcDbEntity
  8
5
 62
     2
100
AcDbLine
 10
2.641922
 20
3.007195
 30
0.0
 11
3.677198
 21
-0.8565089999999999
 31
0.0
  0
LINE
  5
EB
330
E1
100
AcDbEntity
  8
5
 62
     2
100
AcDbLine
 10
1.606646
 20
-0.8565089999999999
 30
0.0
 11
3.677198
 21
-0.8565089999999999
 31
0.0
  0
LINE
  5
EC
330
E1
100
AcDbEntity
  8
5
 62
     2
100
AcDbLine
 10
22.555638
 20
3.007195
 30
0.0
 11
0.6419220000000001
 21
3.007195
 31
0.0
  0
ENDBLK
  5
ED
330
E1
100
AcDbEntity
  8
5
100
AcDbBlockEnd
  0
ENDSEC
  0
SECTION
  2
ENTITIES
  0
LINE
  5
EE
330
74
100
AcDbEntity
  8
1
  6
CENTER
 62
     2
100
AcDbLine
 10
-197.954651
 20
-16.264373
 30
0.0
 11
-197.954651
 21
-49.32262
 31
0.0
  0
LINE
  5
EF
330
74
100
AcDbEntity
  8
1
  6
CENTER
 62
     2
100
AcDbLine
 10
-247.454651
 20
-16.264373
 30
0.0
 11
-247.454651
 21
-49.32262
 31
0.0
  0
LINE
  5
F0
330
74
100
AcDbEntity
  8
1
  6
CENTER
 62
     2
100
AcDbLine
 10
-163.104651
 20
-169.492805
 30
0.0
 11
-287.154651
 21
-169.492805
 31
0.0
  0
LINE
  5
F1
330
74
100
AcDbEntity
  8
1
100
AcDbLine
 10
-237.704651
 20
-236.992805
 30
0.0
 11
-207.704651
 21
-236.992805
 31
0.0
  0
LINE
  5
F2
330
74
100
AcDbEntity
  8
1
100
AcDbLine
 10
-237.704651
 20
-239.992805
 30
0.0
 11
-207.704651
 21
-239.992805
 31
0.0
  0
LINE
  5
F3
330
74
100
AcDbEntity
  8
1
100
AcDbLine
 10
-217.804651
 20
-241.292805
 30
0.0
 11
-208.604651
 21
-241.292805
 31
0.0
  0
LINE
  5
F4
330
74
100
AcDbEntity
  8
1
100
AcDbLine
 10
-208.604651
 20
-241.292805
 30
0.0
 11
-208.604651
 21
-244.38866
 31
0.0
  0
LINE
  5
F5
330
74
100
AcDbEntity
  8
1
100
AcDbLine
 10
-208.604651
 20
-244.38866
 30
0.0
 11
-209.304651
 21
-244.792805
 31
0.0
  0
LINE
  5
F6
330
74
100
AcDbEntity
  8
1
100
AcDbLine
 10
-209.304651
 20
-244.792805
 30
0.0
 11
-217.104651
 21
-244.792805
 31
0.0
  0
LINE
  5
F7
330
74
100
AcDbEntity
  8
1
100
AcDbLine
 10
-210.904651
 20
-241.292805
 30
0.0
 11
-210.904651
 21
-244.38866
 31
0.0
  0
ARC
  5
F8
330
74
100
AcDbEntity
  8
1
100
AcDbCircle
 10
-209.754651
 20
-242.910296
 30
0.0
 40
1.872982
100
AcDbArc
 50
232.121121
 51
307.878879
  0
LINE
  5
F9
330
74
100
AcDbEntity
  8
1
100
AcDbLine
 10
-217.804651
 20
-241.292805
 30
0.0
 11
-217.804651
 21
-244.38866
 31
0.0
  0
LINE
  5
FA
330
74
100
AcDbEntity
  8
1
100
AcDbLine
 10
-217.804651
 20
-244.38866
 30
0.0
 11
-217.104651
 21
-244.792805
 31
0.0
  0
LINE
  5
FB
330
74
100
AcDbEntity
  8
1
100
AcDbLine
 10
-215.504651
 20
-241.292805
 30
0.0
 11
-215.504651
 21
-244.38866
 31
0.0
  0
ARC
  5
FC
330
74
100
AcDbEntity
  8
1
100
AcDbCircle
 10
-216.654651
 20
-242.910296
 30
0.0
 40
1.872982
100
AcDbArc
 50
232.121121
 51
307.878879
  0
ARC
  5
FD
330
74
100
AcDbEntity
  8
1
100
AcDbCircle
 10
-213.204651
 20
-237.883278
 30
0.0
 40
6.9
100
AcDbArc
 50
250.528777
 51
289.471219
  0
LINE
  5
FE
330
74
100
AcDbEntity
  8
1
100
AcDbLine
 10
-208.604651
 20
-239.992805
 30
0.0
 11
-208.604651
 21
-241.292805
 31
0.0
  0
LINE
  5
FF
330
74
100
AcDbEntity
  8
1
100
AcDbLine
 10
-217.804651
 20
-241.292805
 30
0.0
 11
-217.804651
 21
-239.992805
 31
0.0
  0
LINE
  5
100
330
74
100
AcDbEntity
  8
1
100
AcDbLine
 10
-213.204651
 20
-241.292805
 30
0.0
 11
-213.704651
 21
-239.992805
 31
0.0
  0
LINE
  5
101
330
74
100
AcDbEntity
  8
1
100
AcDbLine
 10
-213.204651
 20
-239.992805
 30
0.0
 11
-212.704651
 21
-241.292805
 31
0.0
  0
LINE
  5
102
330
74
100
AcDbEntity
  8
1
100
AcDbLine
 10
-236.804651
 20
-241.292805
 30
0.0
 11
-227.604651
 21
-241.292805
 31
0.0
  0
LINE
  5
103
330
74
100
AcDbEntity
  8
1
100
AcDbLine
 10
-227.604651
 20
-241.292805
 30
0.0
 11
-227.604651
 21
-244.38866
 31
0.0
  0
LINE
  5
104
330
74
100
AcDbEntity
  8
1
100
AcDbLine
 10
-227.604651
 20
-244.38866
 30
0.0
 11
-228.304651
 21
-244.792805
 31
0.0
  0
LINE
  5
105
330
74
100
AcDbEntity
  8
1
100
AcDbLine
 10
-228.304651
 20
-244.792805
 30
0.0
 11
-236.104651
 21
-244.792805
 31
0.0
  0
LINE
  5
106
330
74
100
AcDbEntity
  8
1
100
AcDbLine
 10
-229.904651
 20
-241.292805
 30
0.0
 11
-229.904651
 21
-244.38866
 31
0.0
  0
ARC
  5
107
330
74
100
AcDbEntity
  8
1
100
AcDbCircle
 10
-228.754651
 20
-242.910296
 30
0.0
 40
1.872982
100
AcDbArc
 50
232.121121
 51
307.878879
  0
LINE
  5
108
330
74
100
AcDbEntity
  8
1
100
AcDbLine
 10
-236.804651
 20
-241.292805
 30
0.0
 11
-236.804651
 21
-244.38866
 31
0.0
  0
LINE
  5
109
330
74
100
AcDbEntity
  8
1
100
AcDbLine
 10
-236.804651
 20
-244.38866
 30
0.0
 11
-236.104651
 21
-244.792805
 31
0.0
  0
LINE
  5
10A
330
74
100
AcDbEntity
  8
1
100
AcDbLine
 10
-234.5046509999999
 20
-241.292805
 30
0.0
 11
-234.5046509999999
 21
-244.38866
 31
0.0
  0
ARC
  5
10B
330
74
100
AcDbEntity
  8
1
100
AcDbCircle
 10
-235.654651
 20
-242.910296
 30
0.0
 40
1.872982
100
AcDbArc
 50
232.121121
 51
307.878879
  0
ARC
  5
10C
330
74
100
AcDbEntity
  8
1
100
AcDbCircle
 10
-232.204651
 20
-237.883278
 30
0.0
 40
6.9
100
AcDbArc
 50
250.528777
 51
289.471219
  0
LINE
  5
10D
330
74
100
AcDbEntity
  8
1
100
AcDbLine
 10
-227.604651
 20
-239.992805
 30
0.0
 11
-227.604651
 21
-241.292805
 31
0.0
  0
LINE
  5
10E
330
74
100
AcDbEntity
  8
1
100
AcDbLine
 10
-236.804651
 20
-241.292805
 30
0.0
 11
-236.804651
 21
-239.992805
 31
0.0
  0
LINE
  5
10F
330
74
100
AcDbEntity
  8
1
100
AcDbLine
 10
-232.204651
 20
-241.292805
 30
0.0
 11
-232.704651
 21
-239.992805
 31
0.0
  0
LINE
  5
110
330
74
100
AcDbEntity
  8
1
100
AcDbLine
 10
-232.204651
 20
-239.992805
 30
0.0
 11
-231.704651
 21
-241.292805
 31
0.0
  0
LINE
  5
111
330
74
100
AcDbEntity
  8
1
100
AcDbLine
 10
-257.704651
 20
-27.492805
 30
0.0
 11
-187.704651
 21
-27.492805
 31
0.0
  0
LINE
  5
112
330
74
100
AcDbEntity
  8
1
100
AcDbLine
 10
-257.704651
 20
-37.492805
 30
0.0
 11
-257.704651
 21
-28.492805
 31
0.0
  0
LINE
  5
113
330
74
100
AcDbEntity
  8
1
100
AcDbLine
 10
-187.704651
 20
-37.492805
 30
0.0
 11
-187.704651
 21
-28.492805
 31
0.0
  0
LINE
  5
114
330
74
100
AcDbEntity
  8
1
100
AcDbLine
 10
-253.704651
 20
-41.49280499999999
 30
0.0
 11
-191.704651
 21
-41.49280499999999
 31
0.0
  0
ARC
  5
115
330
74
100
AcDbEntity
  8
1
100
AcDbCircle
 10
-253.704651
 20
-37.492805
 30
0.0
 40
4.0
100
AcDbArc
 50
180.0
 51
270.0
  0
ARC
  5
116
330
74
100
AcDbEntity
  8
1
100
AcDbCircle
 10
-191.704651
 20
-37.492805
 30
0.0
 40
4.0
100
AcDbArc
 50
270.0
 51
0.0
  0
LINE
  5
117
330
74
100
AcDbEntity
  8
1
100
AcDbLine
 10
-237.704651
 20
-235.492805
 30
0.0
 11
-207.704651
 21
-235.492805
 31
0.0
  0
CIRCLE
  5
118
330
74
100
AcDbEntity
  8
1
100
AcDbCircle
 10
-222.704651
 20
-169.492805
 30
0.0
 40
50.5
  0
LINE
  5
119
330
74
100
AcDbEntity
  8
1
100
AcDbLine
 10
-192.704651
 20
-97.49280500000001
 30
0.0
 11
-195.704651
 21
-97.49280500000001
 31
0.0
  0
LINE
  5
11A
330
74
100
AcDbEntity
  8
1
100
AcDbLine
 10
-252.704651
 20
-97.49280500000001
 30
0.0
 11
-249.704651
 21
-97.49280500000001
 31
0.0
  0
ARC
  5
11B
330
74
100
AcDbEntity
  8
1
100
AcDbCircle
 10
-192.704651
 20
-109.492805
 30
0.0
 40
12.0
100
AcDbArc
 50
315.0
 51
90.0
  0
ARC
  5
11C
330
74
100
AcDbEntity
  8
1
100
AcDbCircle
 10
-252.704651
 20
-109.492805
 30
0.0
 40
12.0
100
AcDbArc
 50
90.0
 51
225.0
  0
ARC
  5
11D
330
74
100
AcDbEntity
  8
1
100
AcDbCircle
 10
-242.704651
 20
-46.49280499999999
 30
0.0
 40
5.0
100
AcDbArc
 50
0.0
 51
90.0
  0
ARC
  5
11E
330
74
100
AcDbEntity
  8
1
100
AcDbCircle
 10
-202.704651
 20
-46.49280499999999
 30
0.0
 40
5.0
100
AcDbArc
 50
90.0
 51
180.0
  0
ARC
  5
11F
330
74
100
AcDbEntity
  8
1
100
AcDbCircle
 10
-189.704651
 20
-59.401708
 30
0.0
 40
18.0
100
AcDbArc
 50
95.21590899999999
 51
180.0
  0
ARC
  5
120
330
74
100
AcDbEntity
  8
1
100
AcDbCircle
 10
-255.704651
 20
-59.401708
 30
0.0
 40
18.0
100
AcDbArc
 50
0.0
 51
84.784091
  0
LINE
  5
121
330
74
100
AcDbEntity
  8
1
100
AcDbLine
 10
-219.704651
 20
-59.401708
 30
0.0
 11
-225.704651
 21
-59.401708
 31
0.0
  0
LINE
  5
122
330
74
100
AcDbEntity
  8
1
100
AcDbLine
 10
-225.704651
 20
-57.401708
 30
0.0
 11
-225.704651
 21
-43.49280499999999
 31
0.0
  0
LINE
  5
123
330
74
100
AcDbEntity
  8
1
100
AcDbLine
 10
-219.704651
 20
-57.401708
 30
0.0
 11
-219.704651
 21
-43.49280499999999
 31
0.0
  0
ARC
  5
124
330
74
100
AcDbEntity
  8
1
100
AcDbCircle
 10
-217.704651
 20
-43.49280499999999
 30
0.0
 40
2.0
100
AcDbArc
 50
90.0
 51
180.0
  0
ARC
  5
125
330
74
100
AcDbEntity
  8
1
100
AcDbCircle
 10
-227.704651
 20
-43.49280499999999
 30
0.0
 40
2.0
100
AcDbArc
 50
0.0
 51
90.0
  0
ARC
  5
126
330
74
100
AcDbEntity
  8
1
100
AcDbCircle
 10
-227.704651
 20
-57.401708
 30
0.0
 40
2.0
100
AcDbArc
 50
270.0
 51
0.0
  0
ARC
  5
127
330
74
100
AcDbEntity
  8
1
100
AcDbCircle
 10
-217.704651
 20
-57.401708
 30
0.0
 40
2.0
100
AcDbArc
 50
180.0
 51
270.0
  0
ARC
  5
128
330
74
100
AcDbEntity
  8
1
100
AcDbCircle
 10
-249.704651
 20
-85.492805
 30
0.0
 40
12.0
100
AcDbArc
 50
270.0
 51
0.0
  0
ARC
  5
129
330
74
100
AcDbEntity
  8
1
100
AcDbCircle
 10
-195.704651
 20
-85.492805
 30
0.0
 40
12.0
100
AcDbArc
 50
180.0
 51
270.0
  0
ARC
  5
12A
330
74
100
AcDbEntity
  8
1
100
AcDbCircle
 10
-204.704651
 20
-119.111757
 30
0.0
 40
3.0
100
AcDbArc
 50
180.0
 51
250.339349
  0
ARC
  5
12B
330
74
100
AcDbEntity
  8
1
100
AcDbCircle
 10
-240.704651
 20
-119.111757
 30
0.0
 40
3.0
100
AcDbArc
 50
289.660651
 51
0.0
  0
LINE
  5
12C
330
74
100
AcDbEntity
  8
1
100
AcDbLine
 10
-184.21937
 20
-117.978087
 30
0.0
 11
-194.109778
 21
-127.868495
 31
0.0
  0
ARC
  5
12D
330
74
100
AcDbEntity
  8
1
100
AcDbCircle
 10
-204.704651
 20
-219.8738529999999
 30
0.0
 40
3.0
100
AcDbArc
 50
109.660651
 51
180.0
  0
ARC
  5
12E
330
74
100
AcDbEntity
  8
1
100
AcDbCircle
 10
-240.704651
 20
-219.8738529999999
 30
0.0
 40
3.0
100
AcDbArc
 50
0.0
 51
70.339349
  0
LINE
  5
12F
330
74
100
AcDbEntity
  8
1
  6
CENTER
 62
     2
100
AcDbLine
 10
-232.204651
 20
-248.425816
 30
0.0
 11
-232.204651
 21
-229.665394
 31
0.0
  0
LINE
  5
130
330
74
100
AcDbEntity
  8
1
  6
CENTER
 62
     2
100
AcDbLine
 10
-213.204651
 20
-248.425816
 30
0.0
 11
-213.204651
 21
-229.665394
 31
0.0
  0
LINE
  5
131
330
74
100
AcDbEntity
  8
1
100
AcDbLine
 10
-190.089337
 20
-114.270606
 30
0.0
 11
-191.428729
 21
-117.504184
 31
0.0
  0
LINE
  5
132
330
74
100
AcDbEntity
  8
1
100
AcDbLine
 10
-206.719169
 20
-107.382304
 30
0.0
 11
-208.058561
 21
-110.615883
 31
0.0
  0
LINE
  5
133
330
74
100
AcDbEntity
  8
1
100
AcDbLine
 10
-238.690133
 20
-107.382304
 30
0.0
 11
-237.350741
 21
-110.615883
 31
0.0
  0
LINE
  5
134
330
74
100
AcDbEntity
  8
1
100
AcDbLine
 10
-255.319965
 20
-114.270606
 30
0.0
 11
-253.980573
 21
-117.504184
 31
0.0
  0
ARC
  5
135
330
74
100
AcDbEntity
  8
1
100
AcDbCircle
 10
-198.404253
 20
-110.826455
 30
0.0
 40
9.0
100
AcDbArc
 50
337.5
 51
157.5
  0
ARC
  5
136
330
74
100
AcDbEntity
  8
1
100
AcDbCircle
 10
-247.005049
 20
-110.826455
 30
0.0
 40
9.0
100
AcDbArc
 50
22.5
 51
202.5
  0
ARC
  5
137
330
74
100
AcDbEntity
  8
1
100
AcDbCircle
 10
-245.665657
 20
-114.060034
 30
0.0
 40
9.0
100
AcDbArc
 50
202.5
 51
22.5
  0
ARC
  5
138
330
74
100
AcDbEntity
  8
1
100
AcDbCircle
 10
-199.743645
 20
-114.060034
 30
0.0
 40
9.0
100
AcDbArc
 50
157.5
 51
337.5
  0
LINE
  5
139
330
74
100
AcDbEntity
  8
1
100
AcDbLine
 10
-207.704651
 20
-119.111757
 30
0.0
 11
-207.704651
 21
-118.257936
 31
0.0
  0
LINE
  5
13A
330
74
100
AcDbEntity
  8
1
100
AcDbLine
 10
-207.704651
 20
-108.767366
 30
0.0
 11
-207.704651
 21
-46.49280499999999
 31
0.0
  0
LINE
  5
13B
330
74
100
AcDbEntity
  8
1
100
AcDbLine
 10
-237.704651
 20
-119.111757
 30
0.0
 11
-237.704651
 21
-118.257936
 31
0.0
  0
LINE
  5
13C
330
74
100
AcDbEntity
  8
1
100
AcDbLine
 10
-237.704651
 20
-109.761469
 30
0.0
 11
-237.704651
 21
-46.49280499999999
 31
0.0
  0
ARC
  5
13D
330
74
100
AcDbEntity
  8
1
100
AcDbCircle
 10
-212.704651
 20
-108.767366
 30
0.0
 40
5.0
100
AcDbArc
 50
337.787198
 51
0.0
  0
LINE
  5
13E
330
74
100
AcDbEntity
  8
1
100
AcDbLine
 10
-199.743645
 20
-215.925577
 30
0.0
 11
-193.204651
 21
-215.925577
 31
0.0
  0
LINE
  5
13F
330
74
100
AcDbEntity
  8
1
100
AcDbLine
 10
-245.665657
 20
-215.925577
 30
0.0
 11
-252.204651
 21
-215.925577
 31
0.0
  0
LINE
  5
140
330
74
100
AcDbEntity
  8
1
100
AcDbLine
 10
-191.039587
 20
-212.175577
 30
0.0
 11
-192.371788
 21
-209.868138
 31
0.0
  0
ARC
  5
141
330
74
100
AcDbEntity
  8
1
100
AcDbCircle
 10
-193.204651
 20
-213.425577
 30
0.0
 40
2.5
100
AcDbArc
 50
270.0
 51
30.0
  0
ARC
  5
142
330
74
100
AcDbEntity
  8
1
100
AcDbCircle
 10
-252.204651
 20
-213.425577
 30
0.0
 40
2.5
100
AcDbArc
 50
150.0
 51
270.0
  0
LINE
  5
143
330
74
100
AcDbEntity
  8
1
100
AcDbLine
 10
-207.704651
 20
-220.727675
 30
0.0
 11
-207.704651
 21
-219.8738529999999
 31
0.0
  0
LINE
  5
144
330
74
100
AcDbEntity
  8
1
100
AcDbLine
 10
-237.704651
 20
-220.727675
 30
0.0
 11
-237.704651
 21
-219.8738529999999
 31
0.0
  0
ARC
  5
145
330
74
100
AcDbEntity
  8
1
100
AcDbCircle
 10
-199.743645
 20
-224.925577
 30
0.0
 40
9.0
100
AcDbArc
 50
90.0
 51
202.212802
  0
ARC
  5
146
330
74
100
AcDbEntity
  8
1
100
AcDbCircle
 10
-245.665657
 20
-224.925577
 30
0.0
 40
9.0
100
AcDbArc
 50
337.787198
 51
90.0
  0
ARC
  5
147
330
74
100
AcDbEntity
  8
1
100
AcDbCircle
 10
-212.704651
 20
-230.218244
 30
0.0
 40
5.0
100
AcDbArc
 50
0.0
 51
22.212802
  0
ARC
  5
148
330
74
100
AcDbEntity
  8
1
100
AcDbCircle
 10
-232.704651
 20
-230.218244
 30
0.0
 40
5.0
100
AcDbArc
 50
157.787198
 51
180.0
  0
LINE
  5
149
330
74
100
AcDbEntity
  8
1
100
AcDbLine
 10
-261.189932
 20
-117.978087
 30
0.0
 11
-251.299524
 21
-127.868495
 31
0.0
  0
LINE
  5
14A
330
74
100
AcDbEntity
  8
1
100
AcDbLine
 10
-254.369714
 20
-212.175577
 30
0.0
 11
-253.037514
 21
-209.868138
 31
0.0
  0
LINE
  5
14B
330
74
100
AcDbEntity
  8
1
100
AcDbLine
 10
-187.704651
 20
-28.492805
 30
0.0
 11
-188.704651
 21
-27.492805
 31
0.0
  0
LINE
  5
14C
330
74
100
AcDbEntity
  8
1
100
AcDbLine
 10
-256.7046509999999
 20
-27.492805
 30
0.0
 11
-257.704651
 21
-28.492805
 31
0.0
  0
LINE
  5
14D
330
74
100
AcDbEntity
  8
1
100
AcDbLine
 10
-187.704651
 20
-28.492805
 30
0.0
 11
-257.704651
 21
-28.492805
 31
0.0
  0
LINE
  5
14E
330
74
100
AcDbEntity
  8
1
100
AcDbLine
 10
-207.704651
 20
-239.992805
 30
0.0
 11
-207.704651
 21
-235.492805
 31
0.0
  0
LINE
  5
14F
330
74
100
AcDbEntity
  8
1
100
AcDbLine
 10
-207.704651
 20
-234.492805
 30
0.0
 11
-207.704651
 21
-230.218244
 31
0.0
  0
LINE
  5
150
330
74
100
AcDbEntity
  8
1
100
AcDbLine
 10
-237.704651
 20
-239.992805
 30
0.0
 11
-237.704651
 21
-235.492805
 31
0.0
  0
LINE
  5
151
330
74
100
AcDbEntity
  8
1
100
AcDbLine
 10
-237.704651
 20
-234.492805
 30
0.0
 11
-237.704651
 21
-230.218244
 31
0.0
  0
LINE
  5
152
330
74
100
AcDbEntity
  8
1
100
AcDbLine
 10
-207.704651
 20
-234.492805
 30
0.0
 11
-208.704651
 21
-235.492805
 31
0.0
  0
LINE
  5
153
330
74
100
AcDbEntity
  8
1
100
AcDbLine
 10
-237.704651
 20
-234.492805
 30
0.0
 11
-236.704651
 21
-235.492805
 31
0.0
  0
LINE
  5
154
330
74
100
AcDbEntity
  8
1
100
AcDbLine
 10
-207.704651
 20
-234.492805
 30
0.0
 11
-237.704651
 21
-234.492805
 31
0.0
  0
LINE
  5
155
330
74
100
AcDbEntity
  8
1
100
AcDbLine
 10
-257.704651
 20
-27.492805
 30
0.0
 11
-257.704651
 21
-26.492805
 31
0.0
  0
LINE
  5
156
330
74
100
AcDbEntity
  8
1
100
AcDbLine
 10
-187.704651
 20
-27.492805
 30
0.0
 11
-187.704651
 21
-26.492805
 31
0.0
  0
LINE
  5
157
330
74
100
AcDbEntity
  8
1
  6
CENTER
 62
     2
100
AcDbLine
 10
102.906349
 20
-16.264373
 30
0.0
 11
102.906349
 21
-49.32262
 31
0.0
  0
LINE
  5
158
330
74
100
AcDbEntity
  8
1
  6
CENTER
 62
     2
100
AcDbLine
 10
53.406349
 20
-16.264373
 30
0.0
 11
53.406349
 21
-49.32262
 31
0.0
  0
LINE
  5
159
330
74
100
AcDbEntity
  8
1
  6
CENTER
 62
     2
100
AcDbLine
 10
41.406349
 20
-169.492805
 30
0.0
 11
114.006349
 21
-169.492805
 31
0.0
  0
LINE
  5
15A
330
74
100
AcDbEntity
  8
1
100
AcDbLine
 10
56.656349
 20
-219.992805
 30
0.0
 11
56.656349
 21
-118.992805
 31
0.0
  0
LINE
  5
15B
330
74
100
AcDbEntity
  8
1
100
AcDbLine
 10
99.65634900000001
 20
-219.992805
 30
0.0
 11
99.65634900000001
 21
-118.992805
 31
0.0
  0
LINE
  5
15C
330
74
100
AcDbEntity
  8
1
100
AcDbLine
 10
56.656349
 20
-118.992805
 30
0.0
 11
60.156349
 21
-118.992805
 31
0.0
  0
LINE
  5
15D
330
74
100
AcDbEntity
  8
1
100
AcDbLine
 10
96.15634900000001
 20
-118.992805
 30
0.0
 11
99.65634900000001
 21
-118.992805
 31
0.0
  0
LINE
  5
15E
330
74
100
AcDbEntity
  8
1
100
AcDbLine
 10
56.656349
 20
-219.992805
 30
0.0
 11
58.156349
 21
-219.992805
 31
0.0
  0
LINE
  5
15F
330
74
100
AcDbEntity
  8
1
100
AcDbLine
 10
98.156349
 20
-219.992805
 30
0.0
 11
99.65634900000001
 21
-219.992805
 31
0.0
  0
LINE
  5
160
330
74
100
AcDbEntity
  8
1
100
AcDbLine
 10
43.156349
 20
-27.492805
 30
0.0
 11
113.156349
 21
-27.492805
 31
0.0
  0
LINE
  5
161
330
74
100
AcDbEntity
  8
1
100
AcDbLine
 10
43.156349
 20
-37.492805
 30
0.0
 11
43.156349
 21
-28.492805
 31
0.0
  0
LINE
  5
162
330
74
100
AcDbEntity
  8
1
100
AcDbLine
 10
113.156349
 20
-37.492805
 30
0.0
 11
113.156349
 21
-28.492805
 31
0.0
  0
LINE
  5
163
330
74
100
AcDbEntity
  8
1
100
AcDbLine
 10
47.156349
 20
-41.49280499999999
 30
0.0
 11
109.156349
 21
-41.49280499999999
 31
0.0
  0
ARC
  5
164
330
74
100
AcDbEntity
  8
1
100
AcDbCircle
 10
47.156349
 20
-37.492805
 30
0.0
 40
4.0
100
AcDbArc
 50
180.0
 51
270.0
  0
ARC
  5
165
330
74
100
AcDbEntity
  8
1
100
AcDbCircle
 10
109.156349
 20
-37.492805
 30
0.0
 40
4.0
100
AcDbArc
 50
270.0
 51
0.0
  0
ARC
  5
166
330
74
100
AcDbEntity
  8
1
100
AcDbCircle
 10
58.156349
 20
-46.49280499999999
 30
0.0
 40
5.0
100
AcDbArc
 50
0.0
 51
90.0
  0
ARC
  5
167
330
74
100
AcDbEntity
  8
1
100
AcDbCircle
 10
98.156349
 20
-46.49280499999999
 30
0.0
 40
5.0
100
AcDbArc
 50
90.0
 51
180.0
  0
ARC
  5
168
330
74
100
AcDbEntity
  8
1
100
AcDbCircle
 10
111.156349
 20
-59.401708
 30
0.0
 40
18.0
100
AcDbArc
 50
95.21590899999999
 51
180.0
  0
ARC
  5
169
330
74
100
AcDbEntity
  8
1
100
AcDbCircle
 10
45.156349
 20
-59.401708
 30
0.0
 40
18.0
100
AcDbArc
 50
0.0
 51
84.784091
  0
LINE
  5
16A
330
74
100
AcDbEntity
  8
1
100
AcDbLine
 10
81.15634900000001
 20
-59.401708
 30
0.0
 11
75.15634900000001
 21
-59.401708
 31
0.0
  0
LINE
  5
16B
330
74
100
AcDbEntity
  8
1
100
AcDbLine
 10
75.15634900000001
 20
-57.401708
 30
0.0
 11
75.15634900000001
 21
-43.49280499999999
 31
0.0
  0
LINE
  5
16C
330
74
100
AcDbEntity
  8
1
100
AcDbLine
 10
81.15634900000001
 20
-57.401708
 30
0.0
 11
81.15634900000001
 21
-43.49280499999999
 31
0.0
  0
ARC
  5
16D
330
74
100
AcDbEntity
  8
1
100
AcDbCircle
 10
83.156349
 20
-43.49280499999999
 30
0.0
 40
2.0
100
AcDbArc
 50
90.0
 51
180.0
  0
ARC
  5
16E
330
74
100
AcDbEntity
  8
1
100
AcDbCircle
 10
73.156349
 20
-43.49280499999999
 30
0.0
 40
2.0
100
AcDbArc
 50
0.0
 51
90.0
  0
ARC
  5
16F
330
74
100
AcDbEntity
  8
1
100
AcDbCircle
 10
73.156349
 20
-57.401708
 30
0.0
 40
2.0
100
AcDbArc
 50
270.0
 51
0.0
  0
ARC
  5
170
330
74
100
AcDbEntity
  8
1
100
AcDbCircle
 10
83.156349
 20
-57.401708
 30
0.0
 40
2.0
100
AcDbArc
 50
180.0
 51
270.0
  0
LINE
  5
171
330
74
100
AcDbEntity
  8
1
100
AcDbLine
 10
93.156349
 20
-118.936863
 30
0.0
 11
93.156349
 21
-46.49280499999999
 31
0.0
  0
LINE
  5
172
330
74
100
AcDbEntity
  8
1
100
AcDbLine
 10
63.156349
 20
-118.936863
 30
0.0
 11
63.156349
 21
-46.49280499999999
 31
0.0
  0
ARC
  5
173
330
74
100
AcDbEntity
  8
1
100
AcDbCircle
 10
96.15634900000001
 20
-115.992805
 30
0.0
 40
3.0
100
AcDbArc
 50
180.0
 51
270.0
  0
ARC
  5
174
330
74
100
AcDbEntity
  8
1
100
AcDbCircle
 10
60.156349
 20
-115.992805
 30
0.0
 40
3.0
100
AcDbArc
 50
270.0
 51
0.0
  0
LINE
  5
175
330
74
100
AcDbEntity
  8
1
100
AcDbLine
 10
61.15634899999999
 20
-235.492805
 30
0.0
 11
95.156349
 21
-235.492805
 31
0.0
  0
ARC
  5
176
330
74
100
AcDbEntity
  8
1
100
AcDbCircle
 10
98.156349
 20
-222.992805
 30
0.0
 40
3.0
100
AcDbArc
 50
90.0
 51
180.0
  0
ARC
  5
177
330
74
100
AcDbEntity
  8
1
100
AcDbCircle
 10
58.156349
 20
-222.992805
 30
0.0
 40
3.0
100
AcDbArc
 50
0.0
 51
90.0
  0
ARC
  5
178
330
74
100
AcDbEntity
  8
1
100
AcDbCircle
 10
96.15634900000001
 20
-118.936863
 30
0.0
 40
3.0
100
AcDbArc
 50
180.0
 51
270.0
  0
ARC
  5
179
330
74
100
AcDbEntity
  8
1
100
AcDbCircle
 10
60.156349
 20
-118.936863
 30
0.0
 40
3.0
100
AcDbArc
 50
270.0
 51
0.0
  0
ARC
  5
17A
330
74
100
AcDbEntity
  8
1
100
AcDbCircle
 10
98.156349
 20
-220.048748
 30
0.0
 40
3.0
100
AcDbArc
 50
90.0
 51
180.0
  0
ARC
  5
17B
330
74
100
AcDbEntity
  8
1
100
AcDbCircle
 10
58.156349
 20
-220.048748
 30
0.0
 40
3.0
100
AcDbArc
 50
0.0
 51
90.0
  0
LINE
  5
17C
330
74
100
AcDbEntity
  8
1
100
AcDbLine
 10
89.65634900000001
 20
-127.617023
 30
0.0
 11
89.65634900000001
 21
-159.992805
 31
0.0
  0
LINE
  5
17D
330
74
100
AcDbEntity
  8
1
100
AcDbLine
 10
66.656349
 20
-127.617023
 30
0.0
 11
66.656349
 21
-159.992805
 31
0.0
  0
LINE
  5
17E
330
74
100
AcDbEntity
  8
1
100
AcDbLine
 10
87.98166700000001
 20
-138.141305
 30
0.0
 11
87.98166700000001
 21
-156.21108
 31
0.0
  0
LINE
  5
17F
330
74
100
AcDbEntity
  8
1
100
AcDbLine
 10
68.331032
 20
-138.141305
 30
0.0
 11
68.331032
 21
-156.21108
 31
0.0
  0
LINE
  5
180
330
74
100
AcDbEntity
  8
1
100
AcDbLine
 10
69.156349
 20
-162.492805
 30
0.0
 11
87.15634900000001
 21
-162.492805
 31
0.0
  0
ARC
  5
181
330
74
100
AcDbEntity
  8
1
100
AcDbCircle
 10
87.15634900000001
 20
-159.992805
 30
0.0
 40
2.5
100
AcDbArc
 50
270.0
 51
0.0
  0
ARC
  5
182
330
74
100
AcDbEntity
  8
1
100
AcDbCircle
 10
69.156349
 20
-159.992805
 30
0.0
 40
2.5
100
AcDbArc
 50
180.0
 51
270.0
  0
LINE
  5
183
330
74
100
AcDbEntity
  8
1
100
AcDbLine
 10
70.831032
 20
-158.71108
 30
0.0
 11
85.48166700000001
 21
-158.71108
 31
0.0
  0
ARC
  5
184
330
74
100
AcDbEntity
  8
1
100
AcDbCircle
 10
70.831032
 20
-156.21108
 30
0.0
 40
2.5
100
AcDbArc
 50
180.0
 51
270.0
  0
ARC
  5
185
330
74
100
AcDbEntity
  8
1
100
AcDbCircle
 10
85.48166700000001
 20
-156.21108
 30
0.0
 40
2.5
100
AcDbArc
 50
270.0
 51
0.0
  0
LINE
  5
186
330
74
100
AcDbEntity
  8
1
100
AcDbLine
 10
87.98166700000001
 20
-158.71108
 30
0.0
 11
88.549261
 21
-159.992805
 31
0.0
  0
LINE
  5
187
330
74
100
AcDbEntity
  8
1
100
AcDbLine
 10
68.331032
 20
-158.71108
 30
0.0
 11
67.76343799999999
 21
-159.992805
 31
0.0
  0
LINE
  5
188
330
74
100
AcDbEntity
  8
1
100
AcDbLine
 10
89.65634900000001
 20
-211.792376
 30
0.0
 11
89.65634900000001
 21
-178.992805
 31
0.0
  0
LINE
  5
189
330
74
100
AcDbEntity
  8
1
100
AcDbLine
 10
66.656349
 20
-211.792376
 30
0.0
 11
66.656349
 21
-178.992805
 31
0.0
  0
LINE
  5
18A
330
74
100
AcDbEntity
  8
1
100
AcDbLine
 10
87.98166700000001
 20
-201.377169
 30
0.0
 11
87.98166700000001
 21
-182.774531
 31
0.0
  0
LINE
  5
18B
330
74
100
AcDbEntity
  8
1
100
AcDbLine
 10
68.331032
 20
-201.377169
 30
0.0
 11
68.331032
 21
-182.774531
 31
0.0
  0
LINE
  5
18C
330
74
100
AcDbEntity
  8
1
100
AcDbLine
 10
69.156349
 20
-176.492805
 30
0.0
 11
87.15634900000001
 21
-176.492805
 31
0.0
  0
ARC
  5
18D
330
74
100
AcDbEntity
  8
1
100
AcDbCircle
 10
87.15634900000001
 20
-178.992805
 30
0.0
 40
2.5
100
AcDbArc
 50
0.0
 51
90.0
  0
ARC
  5
18E
330
74
100
AcDbEntity
  8
1
100
AcDbCircle
 10
69.156349
 20
-178.992805
 30
0.0
 40
2.5
100
AcDbArc
 50
90.0
 51
180.0
  0
LINE
  5
18F
330
74
100
AcDbEntity
  8
1
100
AcDbLine
 10
70.831032
 20
-180.274531
 30
0.0
 11
85.48166700000001
 21
-180.274531
 31
0.0
  0
ARC
  5
190
330
74
100
AcDbEntity
  8
1
100
AcDbCircle
 10
70.831032
 20
-182.774531
 30
0.0
 40
2.5
100
AcDbArc
 50
90.0
 51
180.0
  0
ARC
  5
191
330
74
100
AcDbEntity
  8
1
100
AcDbCircle
 10
85.48166700000001
 20
-182.774531
 30
0.0
 40
2.5
100
AcDbArc
 50
0.0
 51
90.0
  0
LINE
  5
192
330
74
100
AcDbEntity
  8
1
100
AcDbLine
 10
87.98166700000001
 20
-180.274531
 30
0.0
 11
88.549261
 21
-178.992805
 31
0.0
  0
LINE
  5
193
330
74
100
AcDbEntity
  8
1
100
AcDbLine
 10
68.331032
 20
-180.274531
 30
0.0
 11
67.76343799999999
 21
-178.992805
 31
0.0
  0
ARC
  5
194
330
74
100
AcDbEntity
  8
1
100
AcDbCircle
 10
70.831032
 20
-138.141305
 30
0.0
 40
2.5
100
AcDbArc
 50
90.0
 51
180.0
  0
ARC
  5
195
330
74
100
AcDbEntity
  8
1
100
AcDbCircle
 10
85.48166700000001
 20
-138.141305
 30
0.0
 40
2.5
100
AcDbArc
 50
0.0
 51
90.0
  0
ARC
  5
196
330
74
100
AcDbEntity
  8
1
100
AcDbCircle
 10
69.156349
 20
-127.617023
 30
0.0
 40
2.5
100
AcDbArc
 50
90.0
 51
180.0
  0
ARC
  5
197
330
74
100
AcDbEntity
  8
1
100
AcDbCircle
 10
87.15634900000001
 20
-127.617023
 30
0.0
 40
2.5
100
AcDbArc
 50
0.0
 51
90.0
  0
LINE
  5
198
330
74
100
AcDbEntity
  8
1
100
AcDbLine
 10
89.258535
 20
-127.617023
 30
0.0
 11
87.98166700000001
 21
-135.641305
 31
0.0
  0
LINE
  5
199
330
74
100
AcDbEntity
  8
1
100
AcDbLine
 10
67.054163
 20
-127.617023
 30
0.0
 11
68.331032
 21
-135.641305
 31
0.0
  0
ARC
  5
19A
330
74
100
AcDbEntity
  8
1
100
AcDbCircle
 10
87.15634900000001
 20
-211.792376
 30
0.0
 40
2.5
100
AcDbArc
 50
270.0
 51
0.0
  0
ARC
  5
19B
330
74
100
AcDbEntity
  8
1
100
AcDbCircle
 10
69.156349
 20
-211.792376
 30
0.0
 40
2.5
100
AcDbArc
 50
180.0
 51
270.0
  0
ARC
  5
19C
330
74
100
AcDbEntity
  8
1
100
AcDbCircle
 10
70.831032
 20
-201.377169
 30
0.0
 40
2.5
100
AcDbArc
 50
180.0
 51
270.0
  0
ARC
  5
19D
330
74
100
AcDbEntity
  8
1
100
AcDbCircle
 10
85.48166700000001
 20
-201.377169
 30
0.0
 40
2.5
100
AcDbArc
 50
270.0
 51
0.0
  0
LINE
  5
19E
330
74
100
AcDbEntity
  8
1
100
AcDbLine
 10
87.98166700000001
 20
-203.877169
 30
0.0
 11
89.25436899999999
 21
-211.792376
 31
0.0
  0
LINE
  5
19F
330
74
100
AcDbEntity
  8
1
100
AcDbLine
 10
67.058329
 20
-211.792376
 30
0.0
 11
68.331032
 21
-203.877169
 31
0.0
  0
LINE
  5
1A0
330
74
100
AcDbEntity
  8
1
  6
CENTER
 62
     2
100
AcDbLine
 10
67.15634900000001
 20
-248.425816
 30
0.0
 11
67.15634900000001
 21
-229.665394
 31
0.0
  0
LINE
  5
1A1
330
74
100
AcDbEntity
  8
1
  6
CENTER
 62
     2
100
AcDbLine
 10
89.156349
 20
-248.425816
 30
0.0
 11
89.156349
 21
-229.665394
 31
0.0
  0
LINE
  5
1A2
330
74
100
AcDbEntity
  8
1
100
AcDbLine
 10
83.65634900000001
 20
-135.641305
 30
0.0
 11
85.48166700000001
 21
-135.641305
 31
0.0
  0
LINE
  5
1A3
330
74
100
AcDbEntity
  8
1
100
AcDbLine
 10
70.831032
 20
-135.641305
 30
0.0
 11
72.65634900000001
 21
-135.641305
 31
0.0
  0
LINE
  5
1A4
330
74
100
AcDbEntity
  8
1
100
AcDbLine
 10
75.15634900000001
 20
-135.641305
 30
0.0
 11
81.15634900000001
 21
-135.641305
 31
0.0
  0
LINE
  5
1A5
330
74
100
AcDbEntity
  8
1
100
AcDbLine
 10
63.156349
 20
-121.936863
 30
0.0
 11
72.65634900000001
 21
-121.936863
 31
0.0
  0
LINE
  5
1A6
330
74
100
AcDbEntity
  8
1
100
AcDbLine
 10
83.65634900000001
 20
-121.936863
 30
0.0
 11
93.156349
 21
-121.936863
 31
0.0
  0
LINE
  5
1A7
330
74
100
AcDbEntity
  8
1
100
AcDbLine
 10
69.156349
 20
-125.117023
 30
0.0
 11
72.65634900000001
 21
-125.117023
 31
0.0
  0
LINE
  5
1A8
330
74
100
AcDbEntity
  8
1
100
AcDbLine
 10
83.65634900000001
 20
-125.117023
 30
0.0
 11
87.15634900000001
 21
-125.117023
 31
0.0
  0
ARC
  5
1A9
330
74
100
AcDbEntity
  8
1
100
AcDbCircle
 10
87.15634900000001
 20
-112.945958
 30
0.0
 40
3.083826999999999
100
AcDbArc
 50
29.29419600000001
 51
90.0
  0
ARC
  5
1AA
330
74
100
AcDbEntity
  8
1
100
AcDbCircle
 10
87.15634900000001
 20
-115.174109
 30
0.0
 40
3.083826999999999
100
AcDbArc
 50
270.0
 51
330.705804
  0
ARC
  5
1AB
330
74
100
AcDbEntity
  8
1
100
AcDbCircle
 10
85.17061899999999
 20
-114.060034
 30
0.0
 40
5.36073
100
AcDbArc
 50
330.705804
 51
29.29419600000001
  0
ARC
  5
1AC
330
74
100
AcDbEntity
  8
1
100
AcDbCircle
 10
69.156349
 20
-112.945958
 30
0.0
 40
3.083826999999999
100
AcDbArc
 50
90.0
 51
150.705804
  0
ARC
  5
1AD
330
74
100
AcDbEntity
  8
1
100
AcDbCircle
 10
69.156349
 20
-115.174109
 30
0.0
 40
3.083826999999999
100
AcDbArc
 50
209.294196
 51
270.0
  0
ARC
  5
1AE
330
74
100
AcDbEntity
  8
1
100
AcDbCircle
 10
71.14208000000001
 20
-114.060034
 30
0.0
 40
5.36073
100
AcDbArc
 50
150.705804
 51
209.294196
  0
LINE
  5
1AF
330
74
100
AcDbEntity
  8
1
100
AcDbLine
 10
69.156349
 20
-109.862131
 30
0.0
 11
75.15634900000001
 21
-109.862131
 31
0.0
  0
LINE
  5
1B0
330
74
100
AcDbEntity
  8
1
100
AcDbLine
 10
81.15634900000001
 20
-109.862131
 30
0.0
 11
87.15634900000001
 21
-109.862131
 31
0.0
  0
LINE
  5
1B1
330
74
100
AcDbEntity
  8
1
100
AcDbLine
 10
69.156349
 20
-118.257936
 30
0.0
 11
75.15634900000001
 21
-118.257936
 31
0.0
  0
LINE
  5
1B2
330
74
100
AcDbEntity
  8
1
100
AcDbLine
 10
81.15634900000001
 20
-118.257936
 30
0.0
 11
87.15634900000001
 21
-118.257936
 31
0.0
  0
LINE
  5
1B3
330
74
100
AcDbEntity
  8
1
100
AcDbLine
 10
65.15634900000001
 20
-229.12348
 30
0.0
 11
91.15634900000001
 21
-229.12348
 31
0.0
  0
ARC
  5
1B4
330
74
100
AcDbEntity
  8
1
100
AcDbCircle
 10
91.15634900000001
 20
-222.968541
 30
0.0
 40
2.240866
100
AcDbArc
 50
25.79515
 51
90.0
  0
ARC
  5
1B5
330
74
100
AcDbEntity
  8
1
100
AcDbCircle
 10
91.15634900000001
 20
-226.882614
 30
0.0
 40
2.240866
100
AcDbArc
 50
270.0
 51
334.20485
  0
ARC
  5
1B6
330
74
100
AcDbEntity
  8
1
100
AcDbCircle
 10
87.10715099999999
 20
-224.925577
 30
0.0
 40
6.738199
100
AcDbArc
 50
334.20485
 51
25.79515
  0
ARC
  5
1B7
330
74
100
AcDbEntity
  8
1
100
AcDbCircle
 10
65.15634900000001
 20
-222.968541
 30
0.0
 40
2.240866
100
AcDbArc
 50
90.0
 51
154.20485
  0
ARC
  5
1B8
330
74
100
AcDbEntity
  8
1
100
AcDbCircle
 10
65.15634900000001
 20
-226.882614
 30
0.0
 40
2.240866
100
AcDbArc
 50
205.7951500000001
 51
270.0
  0
ARC
  5
1B9
330
74
100
AcDbEntity
  8
1
100
AcDbCircle
 10
69.20554799999999
 20
-224.925577
 30
0.0
 40
6.738199
100
AcDbArc
 50
154.20485
 51
205.7951500000001
  0
LINE
  5
1BA
330
74
100
AcDbEntity
  8
1
100
AcDbLine
 10
70.831032
 20
-203.877169
 30
0.0
 11
72.65634900000001
 21
-203.877169
 31
0.0
  0
LINE
  5
1BB
330
74
100
AcDbEntity
  8
1
100
AcDbLine
 10
83.65634900000001
 20
-203.877169
 30
0.0
 11
85.48166700000001
 21
-203.877169
 31
0.0
  0
LINE
  5
1BC
330
74
100
AcDbEntity
  8
1
100
AcDbLine
 10
83.156349
 20
-220.727675
 30
0.0
 11
91.15634900000001
 21
-220.727675
 31
0.0
  0
LINE
  5
1BD
330
74
100
AcDbEntity
  8
1
100
AcDbLine
 10
65.15634900000001
 20
-220.727675
 30
0.0
 11
73.156349
 21
-220.727675
 31
0.0
  0
LINE
  5
1BE
330
74
100
AcDbEntity
  8
1
100
AcDbLine
 10
75.15634900000001
 20
-220.727675
 30
0.0
 11
81.15634900000001
 21
-220.727675
 31
0.0
  0
LINE
  5
1BF
330
74
100
AcDbEntity
  8
1
100
AcDbLine
 10
69.156349
 20
-214.292376
 30
0.0
 11
73.156349
 21
-214.292376
 31
0.0
  0
LINE
  5
1C0
330
74
100
AcDbEntity
  8
1
100
AcDbLine
 10
83.156349
 20
-214.292376
 30
0.0
 11
87.15634900000001
 21
-214.292376
 31
0.0
  0
LINE
  5
1C1
330
74
100
AcDbEntity
  8
1
100
AcDbLine
 10
61.15634899999999
 20
-217.048748
 30
0.0
 11
73.656349
 21
-217.048748
 31
0.0
  0
LINE
  5
1C2
330
74
100
AcDbEntity
  8
1
100
AcDbLine
 10
82.656349
 20
-217.048748
 30
0.0
 11
95.156349
 21
-217.048748
 31
0.0
  0
LINE
  5
1C3
330
74
100
AcDbEntity
  8
1
100
AcDbLine
 10
75.15634900000001
 20
-85.492805
 30
0.0
 11
81.15634900000001
 21
-85.492805
 31
0.0
  0
LINE
  5
1C4
330
74
100
AcDbEntity
  8
1
100
AcDbLine
 10
75.15634900000001
 20
-133.141305
 30
0.0
 11
75.15634900000001
 21
-87.49280500000001
 31
0.0
  0
LINE
  5
1C5
330
74
100
AcDbEntity
  8
1
100
AcDbLine
 10
81.15634900000001
 20
-133.141305
 30
0.0
 11
81.15634900000001
 21
-87.49280500000001
 31
0.0
  0
ARC
  5
1C6
330
74
100
AcDbEntity
  8
1
100
AcDbCircle
 10
83.156349
 20
-87.49280500000001
 30
0.0
 40
2.0
100
AcDbArc
 50
90.0
 51
180.0
  0
ARC
  5
1C7
330
74
100
AcDbEntity
  8
1
100
AcDbCircle
 10
73.156349
 20
-87.49280500000001
 30
0.0
 40
2.0
100
AcDbArc
 50
0.0
 51
90.0
  0
ARC
  5
1C8
330
74
100
AcDbEntity
  8
1
100
AcDbCircle
 10
83.65634900000001
 20
-133.141305
 30
0.0
 40
2.5
100
AcDbArc
 50
180.0
 51
270.0
  0
ARC
  5
1C9
330
74
100
AcDbEntity
  8
1
100
AcDbCircle
 10
72.65634900000001
 20
-133.141305
 30
0.0
 40
2.5
100
AcDbArc
 50
270.0
 51
0.0
  0
ARC
  5
1CA
330
74
100
AcDbEntity
  8
1
100
AcDbCircle
 10
83.65634900000001
 20
-119.436863
 30
0.0
 40
2.5
100
AcDbArc
 50
180.0
 51
270.0
  0
ARC
  5
1CB
330
74
100
AcDbEntity
  8
1
100
AcDbCircle
 10
72.65634900000001
 20
-119.436863
 30
0.0
 40
2.5
100
AcDbArc
 50
270.0
 51
0.0
  0
ARC
  5
1CC
330
74
100
AcDbEntity
  8
1
100
AcDbCircle
 10
72.65634900000001
 20
-122.617023
 30
0.0
 40
2.5
100
AcDbArc
 50
270.0
 51
0.0
  0
ARC
  5
1CD
330
74
100
AcDbEntity
  8
1
100
AcDbCircle
 10
83.65634900000001
 20
-122.617023
 30
0.0
 40
2.5
100
AcDbArc
 50
180.0
 51
270.0
  0
LINE
  5
1CE
330
74
100
AcDbEntity
  8
1
100
AcDbLine
 10
77.15634900000001
 20
-97.49280500000001
 30
0.0
 11
79.156349
 21
-97.49280500000001
 31
0.0
  0
LINE
  5
1CF
330
74
100
AcDbEntity
  8
1
100
AcDbLine
 10
77.15634900000001
 20
-117.978087
 30
0.0
 11
79.156349
 21
-117.978087
 31
0.0
  0
ARC
  5
1D0
330
74
100
AcDbEntity
  8
1
100
AcDbCircle
 10
79.156349
 20
-99.492805
 30
0.0
 40
2.0
100
AcDbArc
 50
0.0
 51
90.0
  0
ARC
  5
1D1
330
74
100
AcDbEntity
  8
1
100
AcDbCircle
 10
77.15634900000001
 20
-99.492805
 30
0.0
 40
2.0
100
AcDbArc
 50
90.0
 51
180.0
  0
ARC
  5
1D2
330
74
100
AcDbEntity
  8
1
100
AcDbCircle
 10
77.15634900000001
 20
-115.978087
 30
0.0
 40
2.0
100
AcDbArc
 50
180.0
 51
270.0
  0
ARC
  5
1D3
330
74
100
AcDbEntity
  8
1
100
AcDbCircle
 10
79.156349
 20
-115.978087
 30
0.0
 40
2.0
100
AcDbArc
 50
270.0
 51
0.0
  0
LINE
  5
1D4
330
74
100
AcDbEntity
  8
1
100
AcDbLine
 10
75.15634900000001
 20
-201.853619
 30
0.0
 11
81.15634900000001
 21
-201.853619
 31
0.0
  0
LINE
  5
1D5
330
74
100
AcDbEntity
  8
1
100
AcDbLine
 10
75.15634900000001
 20
-218.727675
 30
0.0
 11
75.15634900000001
 21
-204.353619
 31
0.0
  0
LINE
  5
1D6
330
74
100
AcDbEntity
  8
1
100
AcDbLine
 10
81.15634900000001
 20
-218.727675
 30
0.0
 11
81.15634900000001
 21
-204.353619
 31
0.0
  0
ARC
  5
1D7
330
74
100
AcDbEntity
  8
1
100
AcDbCircle
 10
83.65634900000001
 20
-204.353619
 30
0.0
 40
2.5
100
AcDbArc
 50
90.0
 51
180.0
  0
ARC
  5
1D8
330
74
100
AcDbEntity
  8
1
100
AcDbCircle
 10
72.65634900000001
 20
-204.353619
 30
0.0
 40
2.5
100
AcDbArc
 50
0.0
 51
90.0
  0
ARC
  5
1D9
330
74
100
AcDbEntity
  8
1
100
AcDbCircle
 10
83.65634900000001
 20
-206.377169
 30
0.0
 40
2.5
100
AcDbArc
 50
90.0
 51
180.0
  0
ARC
  5
1DA
330
74
100
AcDbEntity
  8
1
100
AcDbCircle
 10
72.65634900000001
 20
-206.377169
 30
0.0
 40
2.5
100
AcDbArc
 50
0.0
 51
90.0
  0
ARC
  5
1DB
330
74
100
AcDbEntity
  8
1
100
AcDbCircle
 10
83.156349
 20
-218.727675
 30
0.0
 40
2.0
100
AcDbArc
 50
180.0
 51
270.0
  0
ARC
  5
1DC
330
74
100
AcDbEntity
  8
1
100
AcDbCircle
 10
73.156349
 20
-218.727675
 30
0.0
 40
2.0
100
AcDbArc
 50
270.0
 51
0.0
  0
LINE
  5
1DD
330
74
100
AcDbEntity
  8
1
100
AcDbLine
 10
77.03134900000001
 20
-215.925577
 30
0.0
 11
79.281349
 21
-215.925577
 31
0.0
  0
LINE
  5
1DE
330
74
100
AcDbEntity
  8
1
100
AcDbLine
 10
77.03134900000001
 20
-212.175575
 30
0.0
 11
79.281349
 21
-212.175577
 31
0.0
  0
ARC
  5
1DF
330
74
100
AcDbEntity
  8
1
100
AcDbCircle
 10
83.156349
 20
-216.292376
 30
0.0
 40
2.0
100
AcDbArc
 50
90.0
 51
180.0
  0
ARC
  5
1E0
330
74
100
AcDbEntity
  8
1
100
AcDbCircle
 10
73.156349
 20
-216.292376
 30
0.0
 40
2.0
100
AcDbArc
 50
0.0
 51
90.0
  0
ARC
  5
1E1
330
74
100
AcDbEntity
  8
1
100
AcDbCircle
 10
82.656349
 20
-218.548748
 30
0.0
 40
1.5
100
AcDbArc
 50
90.0
 51
180.0
  0
ARC
  5
1E2
330
74
100
AcDbEntity
  8
1
100
AcDbCircle
 10
73.656349
 20
-218.548748
 30
0.0
 40
1.5
100
AcDbArc
 50
0.0
 51
90.0
  0
ARC
  5
1E3
330
74
100
AcDbEntity
  8
1
100
AcDbCircle
 10
79.281349
 20
-214.050577
 30
0.0
 40
1.875
100
AcDbArc
 50
270.0
 51
90.0
  0
ARC
  5
1E4
330
74
100
AcDbEntity
  8
1
100
AcDbCircle
 10
77.03134900000001
 20
-214.050577
 30
0.0
 40
1.875
100
AcDbArc
 50
90.0
 51
270.0
  0
LINE
  5
1E5
330
74
100
AcDbEntity
  8
1
100
AcDbLine
 10
63.156349
 20
-166.992805
 30
0.0
 11
72.290324
 21
-166.992805
 31
0.0
  0
LINE
  5
1E6
330
74
100
AcDbEntity
  8
1
100
AcDbLine
 10
63.156349
 20
-171.992805
 30
0.0
 11
72.290324
 21
-171.992805
 31
0.0
  0
LINE
  5
1E7
330
74
100
AcDbEntity
  8
1
100
AcDbLine
 10
63.156349
 20
-171.992805
 30
0.0
 11
64.59972500000001
 21
-169.492805
 31
0.0
  0
LINE
  5
1E8
330
74
100
AcDbEntity
  8
1
100
AcDbLine
 10
63.156349
 20
-166.992805
 30
0.0
 11
64.59972500000001
 21
-169.492805
 31
0.0
  0
LINE
  5
1E9
330
74
100
AcDbEntity
  8
1
100
AcDbLine
 10
72.290324
 20
-166.992805
 30
0.0
 11
73.156349
 21
-168.492805
 31
0.0
  0
LINE
  5
1EA
330
74
100
AcDbEntity
  8
1
100
AcDbLine
 10
72.290324
 20
-171.992805
 30
0.0
 11
73.156349
 21
-170.492805
 31
0.0
  0
LINE
  5
1EB
330
74
100
AcDbEntity
  8
1
100
AcDbLine
 10
73.156349
 20
-168.492805
 30
0.0
 11
83.156349
 21
-168.492805
 31
0.0
  0
LINE
  5
1EC
330
74
100
AcDbEntity
  8
1
100
AcDbLine
 10
73.156349
 20
-170.492805
 30
0.0
 11
83.156349
 21
-170.492805
 31
0.0
  0
LINE
  5
1ED
330
74
100
AcDbEntity
  8
1
100
AcDbLine
 10
83.156349
 20
-168.492805
 30
0.0
 11
84.022375
 21
-166.992805
 31
0.0
  0
LINE
  5
1EE
330
74
100
AcDbEntity
  8
1
100
AcDbLine
 10
83.156349
 20
-170.492805
 30
0.0
 11
84.022375
 21
-171.992805
 31
0.0
  0
LINE
  5
1EF
330
74
100
AcDbEntity
  8
1
100
AcDbLine
 10
84.022375
 20
-166.992805
 30
0.0
 11
93.156349
 21
-169.492805
 31
0.0
  0
LINE
  5
1F0
330
74
100
AcDbEntity
  8
1
100
AcDbLine
 10
84.022375
 20
-171.992805
 30
0.0
 11
93.156349
 21
-169.492805
 31
0.0
  0
LINE
  5
1F1
330
74
100
AcDbEntity
  8
1
100
AcDbLine
 10
61.15634899999999
 20
-236.992805
 30
0.0
 11
95.156349
 21
-236.992805
 31
0.0
  0
LINE
  5
1F2
330
74
100
AcDbEntity
  8
1
100
AcDbLine
 10
61.15634899999999
 20
-239.992805
 30
0.0
 11
95.156349
 21
-239.992805
 31
0.0
  0
LINE
  5
1F3
330
74
100
AcDbEntity
  8
1
100
AcDbLine
 10
93.156349
 20
-241.292805
 30
0.0
 11
93.156349
 21
-244.792805
 31
0.0
  0
ARC
  5
1F4
330
74
100
AcDbEntity
  8
1
100
AcDbCircle
 10
91.15634900000001
 20
-239.642016
 30
0.0
 40
5.150788999999999
100
AcDbArc
 50
247.151859
 51
292.848141
  0
LINE
  5
1F5
330
74
100
AcDbEntity
  8
1
100
AcDbLine
 10
93.75634899999999
 20
-241.292805
 30
0.0
 11
84.55634899999999
 21
-241.292805
 31
0.0
  0
LINE
  5
1F6
330
74
100
AcDbEntity
  8
1
100
AcDbLine
 10
85.156349
 20
-241.292805
 30
0.0
 11
85.156349
 21
-244.792805
 31
0.0
  0
LINE
  5
1F7
330
74
100
AcDbEntity
  8
1
100
AcDbLine
 10
85.156349
 20
-244.792805
 30
0.0
 11
93.156349
 21
-244.792805
 31
0.0
  0
LINE
  5
1F8
330
74
100
AcDbEntity
  8
1
100
AcDbLine
 10
89.156349
 20
-241.292805
 30
0.0
 11
89.156349
 21
-244.38866
 31
0.0
  0
ARC
  5
1F9
330
74
100
AcDbEntity
  8
1
100
AcDbCircle
 10
87.15634900000001
 20
-239.642016
 30
0.0
 40
5.150788999999999
100
AcDbArc
 50
247.151859
 51
292.848141
  0
LINE
  5
1FA
330
74
100
AcDbEntity
  8
1
100
AcDbLine
 10
93.75634899999999
 20
-239.992805
 30
0.0
 11
93.75634899999999
 21
-241.292805
 31
0.0
  0
LINE
  5
1FB
330
74
100
AcDbEntity
  8
1
100
AcDbLine
 10
84.55634899999999
 20
-241.292805
 30
0.0
 11
84.55634899999999
 21
-239.992805
 31
0.0
  0
LINE
  5
1FC
330
74
100
AcDbEntity
  8
1
100
AcDbLine
 10
71.156349
 20
-241.292805
 30
0.0
 11
71.156349
 21
-244.792805
 31
0.0
  0
ARC
  5
1FD
330
74
100
AcDbEntity
  8
1
100
AcDbCircle
 10
69.156349
 20
-239.642016
 30
0.0
 40
5.150788999999999
100
AcDbArc
 50
247.151859
 51
292.848141
  0
LINE
  5
1FE
330
74
100
AcDbEntity
  8
1
100
AcDbLine
 10
71.756349
 20
-241.292805
 30
0.0
 11
62.556349
 21
-241.292805
 31
0.0
  0
LINE
  5
1FF
330
74
100
AcDbEntity
  8
1
100
AcDbLine
 10
63.156349
 20
-241.292805
 30
0.0
 11
63.156349
 21
-244.792805
 31
0.0
  0
LINE
  5
200
330
74
100
AcDbEntity
  8
1
100
AcDbLine
 10
63.156349
 20
-244.792805
 30
0.0
 11
71.156349
 21
-244.792805
 31
0.0
  0
LINE
  5
201
330
74
100
AcDbEntity
  8
1
100
AcDbLine
 10
67.15634900000001
 20
-241.292805
 30
0.0
 11
67.15634900000001
 21
-244.38866
 31
0.0
  0
ARC
  5
202
330
74
100
AcDbEntity
  8
1
100
AcDbCircle
 10
65.15634900000001
 20
-239.642016
 30
0.0
 40
5.150788999999999
100
AcDbArc
 50
247.151859
 51
292.848141
  0
LINE
  5
203
330
74
100
AcDbEntity
  8
1
100
AcDbLine
 10
71.756349
 20
-239.992805
 30
0.0
 11
71.756349
 21
-241.292805
 31
0.0
  0
LINE
  5
204
330
74
100
AcDbEntity
  8
1
100
AcDbLine
 10
62.556349
 20
-241.292805
 30
0.0
 11
62.556349
 21
-239.992805
 31
0.0
  0
LINE
  5
205
330
74
100
AcDbEntity
  8
1
100
AcDbLine
 10
101.056349
 20
-207.242805
 30
0.0
 11
101.056349
 21
-131.742805
 31
0.0
  0
LINE
  5
206
330
74
100
AcDbEntity
  8
1
100
AcDbLine
 10
55.256349
 20
-207.242805
 30
0.0
 11
55.256349
 21
-131.742805
 31
0.0
  0
LINE
  5
207
330
74
100
AcDbEntity
  8
1
100
AcDbLine
 10
55.256349
 20
-131.742805
 30
0.0
 11
56.656349
 21
-131.742805
 31
0.0
  0
LINE
  5
208
330
74
100
AcDbEntity
  8
1
100
AcDbLine
 10
99.65634900000001
 20
-131.742805
 30
0.0
 11
101.056349
 21
-131.742805
 31
0.0
  0
LINE
  5
209
330
74
100
AcDbEntity
  8
1
100
AcDbLine
 10
55.256349
 20
-207.242805
 30
0.0
 11
56.656349
 21
-207.242805
 31
0.0
  0
LINE
  5
20A
330
74
100
AcDbEntity
  8
1
100
AcDbLine
 10
99.65634900000001
 20
-207.242805
 30
0.0
 11
101.056349
 21
-207.242805
 31
0.0
  0
LINE
  5
20B
330
74
100
AcDbEntity
  8
1
100
AcDbLine
 10
44.15634899999999
 20
-27.492805
 30
0.0
 11
43.156349
 21
-28.492805
 31
0.0
  0
LINE
  5
20C
330
74
100
AcDbEntity
  8
1
100
AcDbLine
 10
113.156349
 20
-28.492805
 30
0.0
 11
112.156349
 21
-27.492805
 31
0.0
  0
LINE
  5
20D
330
74
100
AcDbEntity
  8
1
100
AcDbLine
 10
113.156349
 20
-28.492805
 30
0.0
 11
43.156349
 21
-28.492805
 31
0.0
  0
LINE
  5
20E
330
74
100
AcDbEntity
  8
1
100
AcDbLine
 10
95.156349
 20
-239.992805
 30
0.0
 11
95.156349
 21
-235.492805
 31
0.0
  0
LINE
  5
20F
330
74
100
AcDbEntity
  8
1
100
AcDbLine
 10
95.156349
 20
-234.492805
 30
0.0
 11
95.156349
 21
-220.048748
 31
0.0
  0
LINE
  5
210
330
74
100
AcDbEntity
  8
1
100
AcDbLine
 10
61.15634899999999
 20
-239.992805
 30
0.0
 11
61.15634899999999
 21
-235.492805
 31
0.0
  0
LINE
  5
211
330
74
100
AcDbEntity
  8
1
100
AcDbLine
 10
61.15634899999999
 20
-234.492805
 30
0.0
 11
61.15634899999999
 21
-220.048748
 31
0.0
  0
LINE
  5
212
330
74
100
AcDbEntity
  8
1
100
AcDbLine
 10
95.156349
 20
-234.492805
 30
0.0
 11
94.156349
 21
-235.492805
 31
0.0
  0
LINE
  5
213
330
74
100
AcDbEntity
  8
1
100
AcDbLine
 10
61.15634899999999
 20
-234.492805
 30
0.0
 11
62.156349
 21
-235.492805
 31
0.0
  0
LINE
  5
214
330
74
100
AcDbEntity
  8
1
100
AcDbLine
 10
95.156349
 20
-234.492805
 30
0.0
 11
61.15634899999999
 21
-234.492805
 31
0.0
  0
LINE
  5
215
330
74
100
AcDbEntity
  8
1
100
AcDbLine
 10
43.156349
 20
-27.492805
 30
0.0
 11
43.156349
 21
-26.492805
 31
0.0
  0
LINE
  5
216
330
74
100
AcDbEntity
  8
1
100
AcDbLine
 10
113.156349
 20
-27.492805
 30
0.0
 11
113.156349
 21
-26.492805
 31
0.0
  0
LINE
  5
217
330
74
100
AcDbEntity
  8
1
  6
CENTER
 62
     2
100
AcDbLine
 10
78.156349
 20
57.09907900000001
 30
0.0
 11
78.156349
 21
-253.014957
 31
0.0
  0
LINE
  5
218
330
74
100
AcDbEntity
  8
1
  6
CENTER
 62
     2
100
AcDbLine
 10
-222.704651
 20
57.09907900000001
 30
0.0
 11
-222.704651
 21
-252.514957
 31
0.0
  0
LINE
  5
219
330
74
100
AcDbEntity
  8
1
  6
CENTER
 62
     2
100
AcDbLine
 10
-287.154651
 20
141.677387
 30
0.0
 11
-163.104651
 21
141.677387
 31
0.0
  0
LINE
  5
21A
330
74
100
AcDbEntity
  8
1
100
AcDbLine
 10
-273.2046509999999
 20
120.177387
 30
0.0
 11
-273.2046509999999
 21
163.177387
 31
0.0
  0
LINE
  5
21B
330
74
100
AcDbEntity
  8
1
100
AcDbLine
 10
-273.2046509999999
 20
120.177387
 30
0.0
 11
-257.704651
 21
120.177387
 31
0.0
  0
LINE
  5
21C
330
74
100
AcDbEntity
  8
1
100
AcDbLine
 10
-264.704651
 20
140.677387
 30
0.0
 11
-264.704651
 21
142.677387
 31
0.0
  0
ARC
  5
21D
330
74
100
AcDbEntity
  8
1
100
AcDbCircle
 10
-262.704651
 20
142.677387
 30
0.0
 40
2.0
100
AcDbArc
 50
90.0
 51
180.0
  0
ARC
  5
21E
330
74
100
AcDbEntity
  8
1
100
AcDbCircle
 10
-262.704651
 20
140.677387
 30
0.0
 40
2.0
100
AcDbArc
 50
180.0
 51
270.0
  0
LINE
  5
21F
330
74
100
AcDbEntity
  8
1
  6
DASHED
100
AcDbLine
 10
-247.704651
 20
176.677387
 30
0.0
 11
-197.704651
 21
176.677387
 31
0.0
  0
LINE
  5
220
330
74
100
AcDbEntity
  8
1
  6
DASHED
100
AcDbLine
 10
-247.704651
 20
106.677387
 30
0.0
 11
-197.704651
 21
106.677387
 31
0.0
  0
LINE
  5
221
330
74
100
AcDbEntity
  8
1
  6
DASHED
100
AcDbLine
 10
-257.704651
 20
116.677387
 30
0.0
 11
-257.704651
 21
166.677387
 31
0.0
  0
LINE
  5
222
330
74
100
AcDbEntity
  8
1
  6
DASHED
100
AcDbLine
 10
-187.704651
 20
116.677387
 30
0.0
 11
-187.704651
 21
166.677387
 31
0.0
  0
ARC
  5
223
330
74
100
AcDbEntity
  8
1
  6
DASHED
100
AcDbCircle
 10
-247.704651
 20
116.677387
 30
0.0
 40
10.0
100
AcDbArc
 50
180.0
 51
270.0
  0
ARC
  5
224
330
74
100
AcDbEntity
  8
1
  6
DASHED
100
AcDbCircle
 10
-197.704651
 20
116.677387
 30
0.0
 40
10.0
100
AcDbArc
 50
270.0
 51
0.0
  0
ARC
  5
225
330
74
100
AcDbEntity
  8
1
  6
DASHED
100
AcDbCircle
 10
-197.704651
 20
166.677387
 30
0.0
 40
10.0
100
AcDbArc
 50
0.0
 51
90.0
  0
ARC
  5
226
330
74
100
AcDbEntity
  8
1
  6
DASHED
100
AcDbCircle
 10
-247.704651
 20
166.677387
 30
0.0
 40
10.0
100
AcDbArc
 50
90.0
 51
180.0
  0
CIRCLE
  5
227
330
74
100
AcDbEntity
  8
1
  6
DASHED
100
AcDbCircle
 10
-197.954651
 20
166.427387
 30
0.0
 40
4.5
  0
CIRCLE
  5
228
330
74
100
AcDbEntity
  8
1
  6
DASHED
100
AcDbCircle
 10
-197.954651
 20
116.927387
 30
0.0
 40
4.5
  0
CIRCLE
  5
229
330
74
100
AcDbEntity
  8
1
  6
DASHED
100
AcDbCircle
 10
-247.454651
 20
116.927387
 30
0.0
 40
4.5
  0
CIRCLE
  5
22A
330
74
100
AcDbEntity
  8
1
  6
DASHED
100
AcDbCircle
 10
-247.454651
 20
166.427387
 30
0.0
 40
4.5
  0
LINE
  5
22B
330
74
100
AcDbEntity
  8
1
  6
CENTER
 62
     2
100
AcDbLine
 10
-256.83531
 20
166.427387
 30
0.0
 11
-237.382423
 21
166.427387
 31
0.0
  0
LINE
  5
22C
330
74
100
AcDbEntity
  8
1
  6
CENTER
 62
     2
100
AcDbLine
 10
-207.25238
 20
166.427387
 30
0.0
 11
-189.055105
 21
166.427387
 31
0.0
  0
LINE
  5
22D
330
74
100
AcDbEntity
  8
1
  6
CENTER
 62
     2
100
AcDbLine
 10
-256.83531
 20
116.927387
 30
0.0
 11
-237.382423
 21
116.927387
 31
0.0
  0
LINE
  5
22E
330
74
100
AcDbEntity
  8
1
  6
CENTER
 62
     2
100
AcDbLine
 10
-207.25238
 20
116.927387
 30
0.0
 11
-189.055105
 21
116.927387
 31
0.0
  0
LINE
  5
22F
330
74
100
AcDbEntity
  8
1
  6
CENTER
 62
     2
100
AcDbLine
 10
-197.954651
 20
107.950342
 30
0.0
 11
-197.954651
 21
127.256995
 31
0.0
  0
LINE
  5
230
330
74
100
AcDbEntity
  8
1
  6
CENTER
 62
     2
100
AcDbLine
 10
-197.954651
 20
157.262122
 30
0.0
 11
-197.954651
 21
175.779535
 31
0.0
  0
LINE
  5
231
330
74
100
AcDbEntity
  8
1
  6
CENTER
 62
     2
100
AcDbLine
 10
-247.454651
 20
107.950342
 30
0.0
 11
-247.454651
 21
127.256995
 31
0.0
  0
LINE
  5
232
330
74
100
AcDbEntity
  8
1
  6
CENTER
 62
     2
100
AcDbLine
 10
-247.454651
 20
157.262122
 30
0.0
 11
-247.454651
 21
175.779535
 31
0.0
  0
LINE
  5
233
330
74
100
AcDbEntity
  8
1
100
AcDbLine
 10
-272.717149
 20
130.177387
 30
0.0
 11
-272.717149
 21
153.177387
 31
0.0
  0
LINE
  5
234
330
74
100
AcDbEntity
  8
1
100
AcDbLine
 10
-266.397471
 20
134.160632
 30
0.0
 11
-266.397471
 21
149.194143
 31
0.0
  0
LINE
  5
235
330
74
100
AcDbEntity
  8
1
100
AcDbLine
 10
-271.229457
 20
152.783156
 30
0.0
 11
-268.62901
 21
152.094051
 31
0.0
  0
LINE
  5
236
330
74
100
AcDbEntity
  8
1
100
AcDbLine
 10
-271.229457
 20
130.571618
 30
0.0
 11
-268.62901
 21
131.260723
 31
0.0
  0
ARC
  5
237
330
74
100
AcDbEntity
  8
1
100
AcDbCircle
 10
-269.397471
 20
149.194143
 30
0.0
 40
3.0
100
AcDbArc
 50
0.0
 51
75.158047
  0
ARC
  5
238
330
74
100
AcDbEntity
  8
1
100
AcDbCircle
 10
-269.397471
 20
134.160632
 30
0.0
 40
3.0
100
AcDbArc
 50
284.841953
 51
0.0
  0
ARC
  5
239
330
74
100
AcDbEntity
  8
1
100
AcDbCircle
 10
-270.717149
 20
154.716428
 30
0.0
 40
2.0
100
AcDbArc
 50
180.0
 51
255.158047
  0
ARC
  5
23A
330
74
100
AcDbEntity
  8
1
100
AcDbCircle
 10
-270.717149
 20
128.638346
 30
0.0
 40
2.0
100
AcDbArc
 50
104.841953
 51
180.0
  0
LINE
  5
23B
330
74
100
AcDbEntity
  8
1
100
AcDbLine
 10
-260.454651
 20
118.777387
 30
0.0
 11
-257.704651
 21
118.777387
 31
0.0
  0
LINE
  5
23C
330
74
100
AcDbEntity
  8
1
100
AcDbLine
 10
-260.454651
 20
118.777387
 30
0.0
 11
-260.454651
 21
120.177387
 31
0.0
  0
LINE
  5
23D
330
74
100
AcDbEntity
  8
1
100
AcDbLine
 10
-260.454651
 20
163.177387
 30
0.0
 11
-260.454651
 21
164.577387
 31
0.0
  0
LINE
  5
23E
330
74
100
AcDbEntity
  8
1
  6
DASHED
100
AcDbLine
 10
-172.204651
 20
163.177387
 30
0.0
 11
-187.704651
 21
163.177387
 31
0.0
  0
LINE
  5
23F
330
74
100
AcDbEntity
  8
1
100
AcDbLine
 10
-180.704651
 20
140.677387
 30
0.0
 11
-180.704651
 21
142.677387
 31
0.0
  0
ARC
  5
240
330
74
100
AcDbEntity
  8
1
100
AcDbCircle
 10
-182.704651
 20
142.677387
 30
0.0
 40
2.0
100
AcDbArc
 50
0.0
 51
90.0
  0
ARC
  5
241
330
74
100
AcDbEntity
  8
1
100
AcDbCircle
 10
-182.704651
 20
140.677387
 30
0.0
 40
2.0
100
AcDbArc
 50
270.0
 51
0.0
  0
LINE
  5
242
330
74
100
AcDbEntity
  8
1
100
AcDbLine
 10
-172.692153
 20
130.177387
 30
0.0
 11
-172.692153
 21
153.177387
 31
0.0
  0
LINE
  5
243
330
74
100
AcDbEntity
  8
1
100
AcDbLine
 10
-179.011831
 20
134.160632
 30
0.0
 11
-179.011831
 21
149.194143
 31
0.0
  0
LINE
  5
244
330
74
100
AcDbEntity
  8
1
100
AcDbLine
 10
-174.179845
 20
152.783156
 30
0.0
 11
-176.780292
 21
152.094051
 31
0.0
  0
LINE
  5
245
330
74
100
AcDbEntity
  8
1
100
AcDbLine
 10
-174.179845
 20
130.571618
 30
0.0
 11
-176.780292
 21
131.260723
 31
0.0
  0
ARC
  5
246
330
74
100
AcDbEntity
  8
1
100
AcDbCircle
 10
-176.011831
 20
149.194143
 30
0.0
 40
3.0
100
AcDbArc
 50
104.841953
 51
180.0
  0
ARC
  5
247
330
74
100
AcDbEntity
  8
1
100
AcDbCircle
 10
-176.011831
 20
134.160632
 30
0.0
 40
3.0
100
AcDbArc
 50
180.0
 51
255.158047
  0
ARC
  5
248
330
74
100
AcDbEntity
  8
1
100
AcDbCircle
 10
-174.692153
 20
154.716428
 30
0.0
 40
2.0
100
AcDbArc
 50
284.841953
 51
0.0
  0
ARC
  5
249
330
74
100
AcDbEntity
  8
1
100
AcDbCircle
 10
-174.692153
 20
128.638346
 30
0.0
 40
2.0
100
AcDbArc
 50
0.0
 51
75.158047
  0
LINE
  5
24A
330
74
100
AcDbEntity
  8
1
  6
DASHED
100
AcDbLine
 10
-184.954651
 20
164.577387
 30
0.0
 11
-187.704651
 21
164.577387
 31
0.0
  0
LINE
  5
24B
330
74
100
AcDbEntity
  8
1
  6
DASHED
100
AcDbLine
 10
-184.954651
 20
118.777387
 30
0.0
 11
-187.704651
 21
118.777387
 31
0.0
  0
LINE
  5
24C
330
74
100
AcDbEntity
  8
1
  6
DASHED
100
AcDbLine
 10
-184.954651
 20
118.777387
 30
0.0
 11
-184.954651
 21
120.177387
 31
0.0
  0
LINE
  5
24D
330
74
100
AcDbEntity
  8
1
  6
DASHED
100
AcDbLine
 10
-184.954651
 20
163.177387
 30
0.0
 11
-184.954651
 21
164.577387
 31
0.0
  0
LINE
  5
24E
330
74
100
AcDbEntity
  8
1
100
AcDbLine
 10
-172.204651
 20
120.177387
 30
0.0
 11
-172.204651
 21
155.677387
 31
0.0
  0
LINE
  5
24F
330
74
100
AcDbEntity
  8
1
  6
DASHED
100
AcDbLine
 10
-172.204651
 20
155.677387
 30
0.0
 11
-172.204651
 21
163.177387
 31
0.0
  0
LINE
  5
250
330
74
100
AcDbEntity
  8
1
100
AcDbLine
 10
-174.179845
 20
153.177387
 30
0.0
 11
-184.704651
 21
153.177387
 31
0.0
  0
LINE
  5
251
330
74
100
AcDbEntity
  8
1
  6
DASHED
100
AcDbLine
 10
-184.704651
 20
153.177387
 30
0.0
 11
-187.704651
 21
153.177387
 31
0.0
  0
LINE
  5
252
330
74
100
AcDbEntity
  8
1
100
AcDbLine
 10
-179.011831
 20
151.502705
 30
0.0
 11
-184.704651
 21
151.502705
 31
0.0
  0
LINE
  5
253
330
74
100
AcDbEntity
  8
1
  6
DASHED
100
AcDbLine
 10
-184.704651
 20
151.502705
 30
0.0
 11
-187.704651
 21
151.502705
 31
0.0
  0
LINE
  5
254
330
74
100
AcDbEntity
  8
1
100
AcDbLine
 10
-182.704651
 20
144.677387
 30
0.0
 11
-184.704651
 21
144.677387
 31
0.0
  0
LINE
  5
255
330
74
100
AcDbEntity
  8
1
  6
DASHED
100
AcDbLine
 10
-184.704651
 20
144.677387
 30
0.0
 11
-187.704651
 21
144.677387
 31
0.0
  0
LINE
  5
256
330
74
100
AcDbEntity
  8
1
100
AcDbLine
 10
-182.704651
 20
138.677387
 30
0.0
 11
-184.704651
 21
138.677387
 31
0.0
  0
LINE
  5
257
330
74
100
AcDbEntity
  8
1
  6
DASHED
100
AcDbLine
 10
-184.704651
 20
138.677387
 30
0.0
 11
-187.704651
 21
138.677387
 31
0.0
  0
LINE
  5
258
330
74
100
AcDbEntity
  8
1
100
AcDbLine
 10
-179.011831
 20
131.85207
 30
0.0
 11
-184.704651
 21
131.85207
 31
0.0
  0
LINE
  5
259
330
74
100
AcDbEntity
  8
1
  6
DASHED
100
AcDbLine
 10
-184.704651
 20
131.85207
 30
0.0
 11
-187.704651
 21
131.85207
 31
0.0
  0
LINE
  5
25A
330
74
100
AcDbEntity
  8
1
100
AcDbLine
 10
-174.179845
 20
130.177387
 30
0.0
 11
-184.704651
 21
130.177387
 31
0.0
  0
LINE
  5
25B
330
74
100
AcDbEntity
  8
1
  6
DASHED
100
AcDbLine
 10
-184.704651
 20
130.177387
 30
0.0
 11
-187.704651
 21
130.177387
 31
0.0
  0
LINE
  5
25C
330
74
100
AcDbEntity
  8
1
100
AcDbLine
 10
-172.204651
 20
120.177387
 30
0.0
 11
-184.704651
 21
120.177387
 31
0.0
  0
LINE
  5
25D
330
74
100
AcDbEntity
  8
1
  6
DASHED
100
AcDbLine
 10
-184.704651
 20
120.177387
 30
0.0
 11
-187.704651
 21
120.177387
 31
0.0
  0
LINE
  5
25E
330
74
100
AcDbEntity
  8
1
100
AcDbLine
 10
-271.229457
 20
130.177387
 30
0.0
 11
-257.872108
 21
130.177387
 31
0.0
  0
LINE
  5
25F
330
74
100
AcDbEntity
  8
1
  6
DASHED
100
AcDbLine
 10
-257.872108
 20
130.177387
 30
0.0
 11
-257.704651
 21
130.177387
 31
0.0
  0
LINE
  5
260
330
74
100
AcDbEntity
  8
1
100
AcDbLine
 10
-266.397471
 20
131.85207
 30
0.0
 11
-258.376252
 21
131.85207
 31
0.0
  0
LINE
  5
261
330
74
100
AcDbEntity
  8
1
  6
DASHED
100
AcDbLine
 10
-258.376252
 20
131.85207
 30
0.0
 11
-257.704651
 21
131.85207
 31
0.0
  0
LINE
  5
262
330
74
100
AcDbEntity
  8
1
100
AcDbLine
 10
-262.704651
 20
138.677387
 30
0.0
 11
-259.582829
 21
138.677387
 31
0.0
  0
LINE
  5
263
330
74
100
AcDbEntity
  8
1
  6
DASHED
100
AcDbLine
 10
-259.582829
 20
138.677387
 30
0.0
 11
-257.704651
 21
138.677387
 31
0.0
  0
LINE
  5
264
330
74
100
AcDbEntity
  8
1
100
AcDbLine
 10
-262.704651
 20
144.677387
 30
0.0
 11
-259.582829
 21
144.677387
 31
0.0
  0
LINE
  5
265
330
74
100
AcDbEntity
  8
1
  6
DASHED
100
AcDbLine
 10
-259.582829
 20
144.677387
 30
0.0
 11
-257.704651
 21
144.677387
 31
0.0
  0
LINE
  5
266
330
74
100
AcDbEntity
  8
1
100
AcDbLine
 10
-266.397471
 20
151.502705
 30
0.0
 11
-258.986381
 21
151.502705
 31
0.0
  0
LINE
  5
267
330
74
100
AcDbEntity
  8
1
  6
DASHED
100
AcDbLine
 10
-258.986381
 20
151.502705
 30
0.0
 11
-257.704651
 21
151.502705
 31
0.0
  0
LINE
  5
268
330
74
100
AcDbEntity
  8
1
100
AcDbLine
 10
-271.229457
 20
153.177387
 30
0.0
 11
-258.839865
 21
153.177387
 31
0.0
  0
LINE
  5
269
330
74
100
AcDbEntity
  8
1
  6
DASHED
100
AcDbLine
 10
-258.839865
 20
153.177387
 30
0.0
 11
-257.704651
 21
153.177387
 31
0.0
  0
LINE
  5
26A
330
74
100
AcDbEntity
  8
1
100
AcDbLine
 10
-273.2046509999999
 20
163.177387
 30
0.0
 11
-257.964979
 21
163.177387
 31
0.0
  0
LINE
  5
26B
330
74
100
AcDbEntity
  8
1
  6
DASHED
100
AcDbLine
 10
-257.964979
 20
163.177387
 30
0.0
 11
-257.704651
 21
163.177387
 31
0.0
  0
LINE
  5
26C
330
74
100
AcDbEntity
  8
1
100
AcDbLine
 10
-260.454651
 20
164.577387
 30
0.0
 11
-257.842495
 21
164.577387
 31
0.0
  0
LINE
  5
26D
330
74
100
AcDbEntity
  8
1
  6
DASHED
100
AcDbLine
 10
-257.842495
 20
164.577387
 30
0.0
 11
-257.704651
 21
164.577387
 31
0.0
  0
CIRCLE
  5
26E
330
74
100
AcDbEntity
  8
1
100
AcDbCircle
 10
-222.704651
 20
-169.492805
 30
0.0
 40
38.75
  0
CIRCLE
  5
26F
330
74
100
AcDbEntity
  8
1
100
AcDbCircle
 10
-222.704651
 20
-169.492805
 30
0.0
 40
34.25
  0
CIRCLE
  5
270
330
74
100
AcDbEntity
  8
1
100
AcDbCircle
 10
-222.704651
 20
-169.492805
 30
0.0
 40
33.2
  0
CIRCLE
  5
271
330
74
100
AcDbEntity
  8
1
100
AcDbCircle
 10
-222.704651
 20
-169.492805
 30
0.0
 40
28.0
  0
ARC
  5
272
330
74
100
AcDbEntity
  8
1
100
AcDbCircle
 10
-222.704651
 20
-169.492805
 30
0.0
 40
24.0
100
AcDbArc
 50
300.677427
 51
59.32257299999999
  0
LINE
  5
273
330
74
100
AcDbEntity
  8
1
100
AcDbLine
 10
-236.635842
 20
-145.204497
 30
0.0
 11
-208.77346
 21
-145.204497
 31
0.0
  0
LINE
  5
274
330
74
100
AcDbEntity
  8
1
100
AcDbLine
 10
-236.635842
 20
-193.781114
 30
0.0
 11
-208.77346
 21
-193.781114
 31
0.0
  0
ARC
  5
275
330
74
100
AcDbEntity
  8
1
100
AcDbCircle
 10
-226.776307
 20
-175.998179
 30
0.0
 40
33.18328300000001
100
AcDbArc
 50
19.393892
 51
68.12329
  0
ARC
  5
276
330
74
100
AcDbEntity
  8
1
100
AcDbCircle
 10
-208.297011
 20
-169.492805
 30
0.0
 40
13.59236
100
AcDbArc
 50
340.60611
 51
19.39389
  0
LINE
  5
277
330
74
100
AcDbEntity
  8
1
100
AcDbLine
 10
-210.704651
 20
-148.421498
 30
0.0
 11
-210.704651
 21
-148.170394
 31
0.0
  0
ARC
  5
278
330
74
100
AcDbEntity
  8
1
100
AcDbCircle
 10
-212.704651
 20
-148.170394
 30
0.0
 40
2.0
100
AcDbArc
 50
0.0
 51
63.17567800000001
  0
ARC
  5
279
330
74
100
AcDbEntity
  8
1
100
AcDbCircle
 10
-210.204651
 20
-148.421498
 30
0.0
 40
0.5
100
AcDbArc
 50
180.0
 51
239.3225759999999
  0
ARC
  5
27A
330
74
100
AcDbEntity
  8
1
100
AcDbCircle
 10
-226.776307
 20
-162.987432
 30
0.0
 40
33.18328300000001
100
AcDbArc
 50
291.87671
 51
340.606108
  0
LINE
  5
27B
330
74
100
AcDbEntity
  8
1
100
AcDbLine
 10
-210.704651
 20
-190.564113
 30
0.0
 11
-210.704651
 21
-190.815217
 31
0.0
  0
ARC
  5
27C
330
74
100
AcDbEntity
  8
1
100
AcDbCircle
 10
-212.704651
 20
-190.815217
 30
0.0
 40
2.0
100
AcDbArc
 50
296.824322
 51
0.0
  0
ARC
  5
27D
330
74
100
AcDbEntity
  8
1
100
AcDbCircle
 10
-210.204651
 20
-190.564113
 30
0.0
 40
0.5
100
AcDbArc
 50
120.677424
 51
180.0
  0
ARC
  5
27E
330
74
100
AcDbEntity
  8
1
100
AcDbCircle
 10
-218.632995
 20
-175.998179
 30
0.0
 40
33.18328300000001
100
AcDbArc
 50
144.861086
 51
160.606108
  0
ARC
  5
27F
330
74
100
AcDbEntity
  8
1
100
AcDbCircle
 10
-237.112291
 20
-169.492805
 30
0.0
 40
13.59236
100
AcDbArc
 50
160.60611
 51
199.39389
  0
ARC
  5
280
330
74
100
AcDbEntity
  8
1
100
AcDbCircle
 10
-218.632995
 20
-162.987432
 30
0.0
 40
33.18328300000001
100
AcDbArc
 50
199.393892
 51
215.138914
  0
CIRCLE
  5
281
330
74
100
AcDbEntity
  8
1
100
AcDbCircle
 10
-222.704651
 20
-169.492805
 30
0.0
 40
39.75
  0
ARC
  5
282
330
74
100
AcDbEntity
  8
1
100
AcDbCircle
 10
-221.164808
 20
-169.492805
 30
0.0
 40
27.0
100
AcDbArc
 50
135.951403
 51
224.048597
  0
ARC
  5
283
330
74
100
AcDbEntity
  8
1
100
AcDbCircle
 10
-221.885861
 20
-169.492805
 30
0.0
 40
27.0
100
AcDbArc
 50
135.951403
 51
224.048597
  0
ARC
  5
284
330
74
100
AcDbEntity
  8
1
100
AcDbCircle
 10
-223.065177
 20
-168.352018
 30
0.0
 40
25.359213
100
AcDbArc
 50
114.106834
 51
135.951403
  0
ARC
  5
285
330
74
100
AcDbEntity
  8
1
100
AcDbCircle
 10
-219.404651
 20
-148.399382
 30
0.0
 40
6.7
100
AcDbArc
 50
0.0
 51
23.912336
  0
ARC
  5
286
330
74
100
AcDbEntity
  8
1
100
AcDbCircle
 10
-225.13748
 20
-148.195692
 30
0.0
 40
6.7
100
AcDbArc
 50
153.484044
 51
180.0
  0
ARC
  5
287
330
74
100
AcDbEntity
  8
1
100
AcDbCircle
 10
-222.344124
 20
-168.352018
 30
0.0
 40
25.359213
100
AcDbArc
 50
114.106834
 51
135.951403
  0
ARC
  5
288
330
74
100
AcDbEntity
  8
1
100
AcDbCircle
 10
-221.458288
 20
-169.492805
 30
0.0
 40
24.4
100
AcDbArc
 50
116.252254
 51
243.747746
  0
ARC
  5
289
330
74
100
AcDbEntity
  8
1
100
AcDbCircle
 10
-223.065177
 20
-170.633593
 30
0.0
 40
25.359213
100
AcDbArc
 50
224.048597
 51
245.8931660000001
  0
ARC
  5
28A
330
74
100
AcDbEntity
  8
1
100
AcDbCircle
 10
-219.404651
 20
-190.586229
 30
0.0
 40
6.7
100
AcDbArc
 50
336.087664
 51
0.0
  0
ARC
  5
28B
330
74
100
AcDbEntity
  8
1
100
AcDbCircle
 10
-225.13748
 20
-190.789918
 30
0.0
 40
6.7
100
AcDbArc
 50
180.0
 51
206.515956
  0
ARC
  5
28C
330
74
100
AcDbEntity
  8
1
100
AcDbCircle
 10
-222.344124
 20
-170.633593
 30
0.0
 40
25.359213
100
AcDbArc
 50
224.048597
 51
245.8931660000001
  0
ARC
  5
28D
330
74
100
AcDbEntity
  8
1
100
AcDbCircle
 10
-211.896845
 20
-146.689747
 30
0.0
 40
1.0
100
AcDbArc
 50
192.828327
 51
243.864941
  0
ARC
  5
28E
330
74
100
AcDbEntity
  8
1
100
AcDbCircle
 10
-232.693317
 20
-146.71268
 30
0.0
 40
1.0
100
AcDbArc
 50
296.252254
 51
348.895499
  0
ARC
  5
28F
330
74
100
AcDbEntity
  8
1
100
AcDbCircle
 10
-232.693317
 20
-192.272931
 30
0.0
 40
1.0
100
AcDbArc
 50
11.104501
 51
63.747746
  0
ARC
  5
290
330
74
100
AcDbEntity
  8
1
100
AcDbCircle
 10
-211.896845
 20
-192.295864
 30
0.0
 40
1.0
100
AcDbArc
 50
116.135059
 51
167.171673
  0
ARC
  5
291
330
74
100
AcDbEntity
  8
1
100
AcDbCircle
 10
-219.633236
 20
-169.492805
 30
0.0
 40
23.0
100
AcDbArc
 50
137.4613379999999
 51
222.538662
  0
ARC
  5
292
330
74
100
AcDbEntity
  8
1
100
AcDbCircle
 10
-224.182745
 20
-173.6673129999999
 30
0.0
 40
16.825492
100
AcDbArc
 50
222.538662
 51
266.784051
  0
ARC
  5
293
330
74
100
AcDbEntity
  8
1
100
AcDbCircle
 10
-224.182745
 20
-165.318297
 30
0.0
 40
16.825492
100
AcDbArc
 50
93.21594899999999
 51
137.4613379999999
  0
LINE
  5
294
330
74
100
AcDbEntity
  8
1
100
AcDbLine
 10
-231.83748
 20
-190.789918
 30
0.0
 11
-231.83748
 21
-188.650711
 31
0.0
  0
LINE
  5
295
330
74
100
AcDbEntity
  8
1
100
AcDbLine
 10
-231.83748
 20
-150.334899
 30
0.0
 11
-231.83748
 21
-148.195692
 31
0.0
  0
ARC
  5
296
330
74
100
AcDbEntity
  8
1
100
AcDbCircle
 10
-225.182745
 20
-147.520877
 30
0.0
 40
1.0
100
AcDbArc
 50
273.215949
 51
0.0
  0
ARC
  5
297
330
74
100
AcDbEntity
  8
1
100
AcDbCircle
 10
-225.182745
 20
-191.464734
 30
0.0
 40
1.0
100
AcDbArc
 50
0.0
 51
86.784051
  0
LINE
  5
298
330
74
100
AcDbEntity
  8
1
100
AcDbLine
 10
-223.182745
 20
-161.992805
 30
0.0
 11
-217.704651
 21
-161.992805
 31
0.0
  0
LINE
  5
299
330
74
100
AcDbEntity
  8
1
100
AcDbLine
 10
-223.182745
 20
-151.992805
 30
0.0
 11
-218.277498
 21
-151.992805
 31
0.0
  0
ARC
  5
29A
330
74
100
AcDbEntity
  8
1
100
AcDbCircle
 10
-223.182745
 20
-150.992805
 30
0.0
 40
1.0
100
AcDbArc
 50
180.0
 51
270.0
  0
ARC
  5
29B
330
74
100
AcDbEntity
  8
1
100
AcDbCircle
 10
-223.182745
 20
-162.992805
 30
0.0
 40
1.0
100
AcDbArc
 50
90.0
 51
180.0
  0
LINE
  5
29C
330
74
100
AcDbEntity
  8
1
100
AcDbLine
 10
-224.182745
 20
-150.992805
 30
0.0
 11
-224.182745
 21
-148.492805
 31
0.0
  0
ARC
  5
29D
330
74
100
AcDbEntity
  8
1
100
AcDbCircle
 10
-218.184664
 20
-148.709293
 30
0.0
 40
1.0
100
AcDbArc
 50
180.0
 51
257.896402
  0
LINE
  5
29E
330
74
100
AcDbEntity
  8
1
100
AcDbLine
 10
-212.704651
 20
-156.442805
 30
0.0
 11
-212.704651
 21
-182.542805
 31
0.0
  0
LINE
  5
29F
330
74
100
AcDbEntity
  8
1
100
AcDbLine
 10
-212.704651
 20
-150.296824
 30
0.0
 11
-212.704651
 21
-148.399382
 31
0.0
  0
ARC
  5
2A0
330
74
100
AcDbEntity
  8
1
100
AcDbCircle
 10
-218.277498
 20
-156.992805
 30
0.0
 40
5.0
100
AcDbArc
 50
11.005842
 51
90.0
  0
ARC
  5
2A1
330
74
100
AcDbEntity
  8
1
100
AcDbCircle
 10
-208.139239
 20
-156.142805
 30
0.0
 40
0.3
100
AcDbArc
 50
270.0
 51
40.408235
  0
ARC
  5
2A2
330
74
100
AcDbEntity
  8
1
100
AcDbCircle
 10
-206.85412
 20
-156.142805
 30
0.0
 40
0.3
100
AcDbArc
 50
270.0
 51
39.437068
  0
ARC
  5
2A3
330
74
100
AcDbEntity
  8
1
100
AcDbCircle
 10
-212.878655
 20
-155.942805
 30
0.0
 40
0.5
100
AcDbArc
 50
191.005842
 51
270.0
  0
ARC
  5
2A4
330
74
100
AcDbEntity
  8
1
100
AcDbCircle
 10
-213.011913
 20
-156.731629
 30
0.0
 40
0.3
100
AcDbArc
 50
3.185538
 51
80.411415
  0
ARC
  5
2A5
330
74
100
AcDbEntity
  8
1
100
AcDbCircle
 10
-218.684664
 20
-151.492805
 30
0.0
 40
0.5
100
AcDbArc
 50
180.0
 51
270.0
  0
LINE
  5
2A6
330
74
100
AcDbEntity
  8
1
100
AcDbLine
 10
-212.704651
 20
-150.875209
 30
0.0
 11
-216.953625
 21
-149.996437
 31
0.0
  0
ARC
  5
2A7
330
74
100
AcDbEntity
  8
1
100
AcDbCircle
 10
-211.704651
 20
-150.296824
 30
0.0
 40
1.0
100
AcDbArc
 50
180.0
 51
239.337829
  0
ARC
  5
2A8
330
74
100
AcDbEntity
  8
1
100
AcDbCircle
 10
-204.842551
 20
-161.742805
 30
0.0
 40
0.5
100
AcDbArc
 50
270.0
 51
25.783744
  0
ARC
  5
2A9
330
74
100
AcDbEntity
  8
1
100
AcDbCircle
 10
-203.317932
 20
-167.542805
 30
0.0
 40
0.5
100
AcDbArc
 50
270.0
 51
8.361233999999999
  0
ARC
  5
2AA
330
74
100
AcDbEntity
  8
1
100
AcDbCircle
 10
-205.291219
 20
-167.542805
 30
0.0
 40
0.5
100
AcDbArc
 50
189.769204
 51
270.0
  0
ARC
  5
2AB
330
74
100
AcDbEntity
  8
1
100
AcDbCircle
 10
-205.618354
 20
-165.642805
 30
0.0
 40
0.5
100
AcDbArc
 50
90.0
 51
189.769204
  0
ARC
  5
2AC
330
74
100
AcDbEntity
  8
1
100
AcDbCircle
 10
-203.597186
 20
-165.642805
 30
0.0
 40
0.5
100
AcDbArc
 50
8.361233999999999
 51
90.0
  0
ARC
  5
2AD
330
74
100
AcDbEntity
  8
1
100
AcDbCircle
 10
-206.684554
 20
-161.242805
 30
0.0
 40
1.0
100
AcDbArc
 50
210.477988
 51
270.0
  0
ARC
  5
2AE
330
74
100
AcDbEntity
  8
1
100
AcDbCircle
 10
-206.07413
 20
-160.342805
 30
0.0
 40
1.0
100
AcDbArc
 50
25.783744
 51
90.0
  0
ARC
  5
2AF
330
74
100
AcDbEntity
  8
1
100
AcDbCircle
 10
-208.438429
 20
-159.642805
 30
0.0
 40
0.3
100
AcDbArc
 50
90.0
 51
210.477988
  0
ARC
  5
2B0
330
74
100
AcDbEntity
  8
1
100
AcDbCircle
 10
-205.939554
 20
-168.542805
 30
0.0
 40
0.5
100
AcDbArc
 50
90.0
 51
183.171372
  0
ARC
  5
2B1
330
74
100
AcDbEntity
  8
1
100
AcDbCircle
 10
-202.290945
 20
-168.542805
 30
0.0
 40
0.5
100
AcDbArc
 50
2.615772
 51
90.0
  0
ARC
  5
2B2
330
74
100
AcDbEntity
  8
1
100
AcDbCircle
 10
-202.842149
 20
-164.642805
 30
0.0
 40
0.5
100
AcDbArc
 50
270.0
 51
13.473397
  0
ARC
  5
2B3
330
74
100
AcDbEntity
  8
1
100
AcDbCircle
 10
-206.612396
 20
-164.642805
 30
0.0
 40
0.5
100
AcDbArc
 50
196.405678
 51
270.0
  0
ARC
  5
2B4
330
74
100
AcDbEntity
  8
1
100
AcDbCircle
 10
-209.374782
 20
-158.342805
 30
0.0
 40
1.0
100
AcDbArc
 50
219.119626
 51
270.0
  0
ARC
  5
2B5
330
74
100
AcDbEntity
  8
1
100
AcDbCircle
 10
-203.394055
 20
-162.742805
 30
0.0
 40
0.5
100
AcDbArc
 50
18.921341
 51
90.0
  0
ARC
  5
2B6
330
74
100
AcDbEntity
  8
1
100
AcDbCircle
 10
-204.851502
 20
-159.042805
 30
0.0
 40
0.3
100
AcDbArc
 50
270.0
 51
29.81758
  0
ARC
  5
2B7
330
74
100
AcDbEntity
  8
1
100
AcDbCircle
 10
-207.601513
 20
-162.542805
 30
0.0
 40
0.3
100
AcDbArc
 50
90.0
 51
204.173304
  0
LINE
  5
2B8
330
74
100
AcDbEntity
  8
1
100
AcDbLine
 10
-223.182745
 20
-176.992805
 30
0.0
 11
-217.704651
 21
-176.992805
 31
0.0
  0
LINE
  5
2B9
330
74
100
AcDbEntity
  8
1
100
AcDbLine
 10
-223.182745
 20
-186.992805
 30
0.0
 11
-218.277498
 21
-186.992805
 31
0.0
  0
ARC
  5
2BA
330
74
100
AcDbEntity
  8
1
100
AcDbCircle
 10
-223.182745
 20
-187.992805
 30
0.0
 40
1.0
100
AcDbArc
 50
90.0
 51
180.0
  0
ARC
  5
2BB
330
74
100
AcDbEntity
  8
1
100
AcDbCircle
 10
-223.182745
 20
-175.992805
 30
0.0
 40
1.0
100
AcDbArc
 50
180.0
 51
270.0
  0
LINE
  5
2BC
330
74
100
AcDbEntity
  8
1
100
AcDbLine
 10
-224.182745
 20
-175.992805
 30
0.0
 11
-224.182745
 21
-162.992805
 31
0.0
  0
LINE
  5
2BD
330
74
100
AcDbEntity
  8
1
100
AcDbLine
 10
-224.182745
 20
-187.992805
 30
0.0
 11
-224.182745
 21
-190.492805
 31
0.0
  0
ARC
  5
2BE
330
74
100
AcDbEntity
  8
1
100
AcDbCircle
 10
-218.184664
 20
-190.276318
 30
0.0
 40
1.0
100
AcDbArc
 50
102.103598
 51
180.0
  0
LINE
  5
2BF
330
74
100
AcDbEntity
  8
1
100
AcDbLine
 10
-212.704651
 20
-188.688787
 30
0.0
 11
-212.704651
 21
-190.586229
 31
0.0
  0
ARC
  5
2C0
330
74
100
AcDbEntity
  8
1
100
AcDbCircle
 10
-218.277498
 20
-181.992805
 30
0.0
 40
5.0
100
AcDbArc
 50
270.0
 51
348.994158
  0
ARC
  5
2C1
330
74
100
AcDbEntity
  8
1
100
AcDbCircle
 10
-208.139239
 20
-182.842805
 30
0.0
 40
0.3
100
AcDbArc
 50
319.591765
 51
90.0
  0
ARC
  5
2C2
330
74
100
AcDbEntity
  8
1
100
AcDbCircle
 10
-206.85412
 20
-182.842805
 30
0.0
 40
0.3
100
AcDbArc
 50
320.562932
 51
90.0
  0
ARC
  5
2C3
330
74
100
AcDbEntity
  8
1
100
AcDbCircle
 10
-212.878655
 20
-183.042805
 30
0.0
 40
0.5
100
AcDbArc
 50
90.0
 51
168.994158
  0
ARC
  5
2C4
330
74
100
AcDbEntity
  8
1
100
AcDbCircle
 10
-213.011913
 20
-182.253982
 30
0.0
 40
0.3
100
AcDbArc
 50
279.588585
 51
356.814462
  0
ARC
  5
2C5
330
74
100
AcDbEntity
  8
1
100
AcDbCircle
 10
-218.684664
 20
-187.492805
 30
0.0
 40
0.5
100
AcDbArc
 50
90.0
 51
180.0
  0
LINE
  5
2C6
330
74
100
AcDbEntity
  8
1
100
AcDbLine
 10
-212.704651
 20
-188.110402
 30
0.0
 11
-216.953625
 21
-188.989174
 31
0.0
  0
ARC
  5
2C7
330
74
100
AcDbEntity
  8
1
100
AcDbCircle
 10
-211.704651
 20
-188.688787
 30
0.0
 40
1.0
100
AcDbArc
 50
120.662171
 51
180.0
  0
ARC
  5
2C8
330
74
100
AcDbEntity
  8
1
100
AcDbCircle
 10
-204.842551
 20
-177.242805
 30
0.0
 40
0.5
100
AcDbArc
 50
334.216256
 51
90.0
  0
ARC
  5
2C9
330
74
100
AcDbEntity
  8
1
100
AcDbCircle
 10
-203.317932
 20
-171.442805
 30
0.0
 40
0.5
100
AcDbArc
 50
351.638766
 51
90.0
  0
ARC
  5
2CA
330
74
100
AcDbEntity
  8
1
100
AcDbCircle
 10
-205.291219
 20
-171.442805
 30
0.0
 40
0.5
100
AcDbArc
 50
90.0
 51
170.230796
  0
ARC
  5
2CB
330
74
100
AcDbEntity
  8
1
100
AcDbCircle
 10
-205.618354
 20
-173.342805
 30
0.0
 40
0.5
100
AcDbArc
 50
170.230796
 51
270.0
  0
ARC
  5
2CC
330
74
100
AcDbEntity
  8
1
100
AcDbCircle
 10
-203.597186
 20
-173.342805
 30
0.0
 40
0.5
100
AcDbArc
 50
270.0
 51
351.638766
  0
ARC
  5
2CD
330
74
100
AcDbEntity
  8
1
100
AcDbCircle
 10
-206.684554
 20
-177.742805
 30
0.0
 40
1.0
100
AcDbArc
 50
90.0
 51
149.522012
  0
ARC
  5
2CE
330
74
100
AcDbEntity
  8
1
100
AcDbCircle
 10
-206.07413
 20
-178.642805
 30
0.0
 40
1.0
100
AcDbArc
 50
270.0
 51
334.216256
  0
ARC
  5
2CF
330
74
100
AcDbEntity
  8
1
100
AcDbCircle
 10
-208.438429
 20
-179.342805
 30
0.0
 40
0.3
100
AcDbArc
 50
149.522012
 51
270.0
  0
ARC
  5
2D0
330
74
100
AcDbEntity
  8
1
100
AcDbCircle
 10
-205.939554
 20
-170.442805
 30
0.0
 40
0.5
100
AcDbArc
 50
176.828628
 51
270.0
  0
ARC
  5
2D1
330
74
100
AcDbEntity
  8
1
100
AcDbCircle
 10
-202.290945
 20
-170.442805
 30
0.0
 40
0.5
100
AcDbArc
 50
270.0
 51
357.384228
  0
ARC
  5
2D2
330
74
100
AcDbEntity
  8
1
100
AcDbCircle
 10
-202.842149
 20
-174.342805
 30
0.0
 40
0.5
100
AcDbArc
 50
346.5266029999999
 51
90.0
  0
ARC
  5
2D3
330
74
100
AcDbEntity
  8
1
100
AcDbCircle
 10
-206.612396
 20
-174.342805
 30
0.0
 40
0.5
100
AcDbArc
 50
90.0
 51
163.594322
  0
ARC
  5
2D4
330
74
100
AcDbEntity
  8
1
100
AcDbCircle
 10
-209.374782
 20
-180.642805
 30
0.0
 40
1.0
100
AcDbArc
 50
90.0
 51
140.880374
  0
ARC
  5
2D5
330
74
100
AcDbEntity
  8
1
100
AcDbCircle
 10
-203.394055
 20
-176.242805
 30
0.0
 40
0.5
100
AcDbArc
 50
270.0
 51
341.078659
  0
ARC
  5
2D6
330
74
100
AcDbEntity
  8
1
100
AcDbCircle
 10
-204.851502
 20
-179.942805
 30
0.0
 40
0.3
100
AcDbArc
 50
330.18242
 51
90.0
  0
ARC
  5
2D7
330
74
100
AcDbEntity
  8
1
100
AcDbCircle
 10
-207.601513
 20
-176.442805
 30
0.0
 40
0.3
100
AcDbArc
 50
155.826696
 51
270.0
  0
ARC
  5
2D8
330
74
100
AcDbEntity
  8
1
100
AcDbCircle
 10
-218.534003
 20
-156.992805
 30
0.0
 40
5.0
100
AcDbArc
 50
270.0
 51
90.0
  0
ARC
  5
2D9
330
74
100
AcDbEntity
  8
1
100
AcDbCircle
 10
-217.704651
 20
-156.992805
 30
0.0
 40
5.0
100
AcDbArc
 50
270.0
 51
3.185538
  0
ARC
  5
2DA
330
74
100
AcDbEntity
  8
1
100
AcDbCircle
 10
-218.534003
 20
-181.992805
 30
0.0
 40
5.0
100
AcDbArc
 50
270.0
 51
90.0
  0
ARC
  5
2DB
330
74
100
AcDbEntity
  8
1
100
AcDbCircle
 10
-217.704651
 20
-181.992805
 30
0.0
 40
5.0
100
AcDbArc
 50
356.814462
 51
90.0
  0
LINE
  5
2DC
330
74
100
AcDbEntity
  8
1
100
AcDbLine
 10
-202.842149
 20
-165.142805
 30
0.0
 11
-206.612396
 21
-165.142805
 31
0.0
  0
LINE
  5
2DD
330
74
100
AcDbEntity
  8
1
100
AcDbLine
 10
-202.290945
 20
-168.042805
 30
0.0
 11
-205.939554
 21
-168.042805
 31
0.0
  0
LINE
  5
2DE
330
74
100
AcDbEntity
  8
1
100
AcDbLine
 10
-203.102501
 20
-165.570099
 30
0.0
 11
-202.823247
 21
-167.470099
 31
0.0
  0
LINE
  5
2DF
330
74
100
AcDbEntity
  8
1
100
AcDbLine
 10
-206.111104
 20
-165.727645
 30
0.0
 11
-205.783968
 21
-167.627645
 31
0.0
  0
LINE
  5
2E0
330
74
100
AcDbEntity
  8
1
100
AcDbLine
 10
-202.842149
 20
-173.842805
 30
0.0
 11
-206.612396
 21
-173.842805
 31
0.0
  0
LINE
  5
2E1
330
74
100
AcDbEntity
  8
1
100
AcDbLine
 10
-202.290945
 20
-170.942805
 30
0.0
 11
-205.939554
 21
-170.942805
 31
0.0
  0
LINE
  5
2E2
330
74
100
AcDbEntity
  8
1
100
AcDbLine
 10
-203.102501
 20
-173.415512
 30
0.0
 11
-202.823247
 21
-171.515512
 31
0.0
  0
LINE
  5
2E3
330
74
100
AcDbEntity
  8
1
100
AcDbLine
 10
-206.111104
 20
-173.257966
 30
0.0
 11
-205.783968
 21
-171.357966
 31
0.0
  0
LINE
  5
2E4
330
74
100
AcDbEntity
  8
1
100
AcDbLine
 10
-204.851502
 20
-159.342805
 30
0.0
 11
-209.374782
 21
-159.342805
 31
0.0
  0
LINE
  5
2E5
330
74
100
AcDbEntity
  8
1
100
AcDbLine
 10
-203.394055
 20
-162.242805
 30
0.0
 11
-207.601513
 21
-162.242805
 31
0.0
  0
LINE
  5
2E6
330
74
100
AcDbEntity
  8
1
100
AcDbLine
 10
-204.392329
 20
-161.525318
 30
0.0
 11
-205.173688
 21
-159.90783
 31
0.0
  0
LINE
  5
2E7
330
74
100
AcDbEntity
  8
1
100
AcDbLine
 10
-207.546378
 20
-161.750013
 30
0.0
 11
-208.696976
 21
-159.794968
 31
0.0
  0
LINE
  5
2E8
330
74
100
AcDbEntity
  8
1
100
AcDbLine
 10
-204.851502
 20
-179.642805
 30
0.0
 11
-209.374782
 21
-179.642805
 31
0.0
  0
LINE
  5
2E9
330
74
100
AcDbEntity
  8
1
100
AcDbLine
 10
-203.394055
 20
-176.742805
 30
0.0
 11
-207.601513
 21
-176.742805
 31
0.0
  0
LINE
  5
2EA
330
74
100
AcDbEntity
  8
1
100
AcDbLine
 10
-204.392329
 20
-177.460293
 30
0.0
 11
-205.173688
 21
-179.077781
 31
0.0
  0
LINE
  5
2EB
330
74
100
AcDbEntity
  8
1
100
AcDbLine
 10
-207.546378
 20
-177.235598
 30
0.0
 11
-208.696976
 21
-179.190643
 31
0.0
  0
LINE
  5
2EC
330
74
100
AcDbEntity
  8
1
100
AcDbLine
 10
-206.85412
 20
-156.442805
 30
0.0
 11
-212.878655
 21
-156.442805
 31
0.0
  0
LINE
  5
2ED
330
74
100
AcDbEntity
  8
1
100
AcDbLine
 10
-219.184664
 20
-149.535014
 30
0.0
 11
-219.184664
 21
-151.492805
 31
0.0
  0
ARC
  5
2EE
330
74
100
AcDbEntity
  8
1
100
AcDbCircle
 10
-222.378263
 20
-168.264694
 30
0.0
 40
19.0
100
AcDbArc
 50
40.408235
 51
77.896402
  0
LINE
  5
2EF
330
74
100
AcDbEntity
  8
1
100
AcDbLine
 10
-206.85412
 20
-182.542805
 30
0.0
 11
-212.878655
 21
-182.542805
 31
0.0
  0
LINE
  5
2F0
330
74
100
AcDbEntity
  8
1
100
AcDbLine
 10
-219.184664
 20
-189.450597
 30
0.0
 11
-219.184664
 21
-187.492805
 31
0.0
  0
ARC
  5
2F1
330
74
100
AcDbEntity
  8
1
100
AcDbCircle
 10
-222.378263
 20
-170.720917
 30
0.0
 40
19.0
100
AcDbArc
 50
282.103598
 51
319.591765
  0
ARC
  5
2F2
330
74
100
AcDbEntity
  8
1
100
AcDbCircle
 10
-223.085255
 20
-169.492805
 30
0.0
 40
21.316
100
AcDbArc
 50
39.437068
 51
59.337829
  0
ARC
  5
2F3
330
74
100
AcDbEntity
  8
1
100
AcDbCircle
 10
-223.085255
 20
-169.492805
 30
0.0
 40
21.316
100
AcDbArc
 50
3.900501
 51
11.775184
  0
ARC
  5
2F4
330
74
100
AcDbEntity
  8
1
100
AcDbCircle
 10
-223.085255
 20
-169.492805
 30
0.0
 40
21.316
100
AcDbArc
 50
19.884191
 51
28.435435
  0
ARC
  5
2F5
330
74
100
AcDbEntity
  8
1
100
AcDbCircle
 10
-223.085255
 20
-169.492805
 30
0.0
 40
16.672
100
AcDbArc
 50
4.989441999999999
 51
15.124451
  0
ARC
  5
2F6
330
74
100
AcDbEntity
  8
1
100
AcDbCircle
 10
-223.085255
 20
-169.492805
 30
0.0
 40
16.672
100
AcDbArc
 50
25.77644
 51
37.50316
  0
ARC
  5
2F7
330
74
100
AcDbEntity
  8
1
100
AcDbCircle
 10
-223.085255
 20
-169.492805
 30
0.0
 40
21.316
100
AcDbArc
 50
300.662171
 51
320.562932
  0
ARC
  5
2F8
330
74
100
AcDbEntity
  8
1
100
AcDbCircle
 10
-223.085255
 20
-169.492805
 30
0.0
 40
21.316
100
AcDbArc
 50
348.2248160000001
 51
356.0994990000001
  0
ARC
  5
2F9
330
74
100
AcDbEntity
  8
1
100
AcDbCircle
 10
-223.085255
 20
-169.492805
 30
0.0
 40
21.316
100
AcDbArc
 50
331.564565
 51
340.115809
  0
ARC
  5
2FA
330
74
100
AcDbEntity
  8
1
100
AcDbCircle
 10
-223.085255
 20
-169.492805
 30
0.0
 40
16.672
100
AcDbArc
 50
344.875549
 51
355.010558
  0
ARC
  5
2FB
330
74
100
AcDbEntity
  8
1
100
AcDbCircle
 10
-223.085255
 20
-169.492805
 30
0.0
 40
16.672
100
AcDbArc
 50
322.49684
 51
334.22356
  0
CIRCLE
  5
2FC
330
74
100
AcDbEntity
  8
1
100
AcDbCircle
 10
-224.25665
 20
-156.992805
 30
0.0
 40
1.959999999999999
  0
LINE
  5
2FD
330
74
100
AcDbEntity
  8
1
  6
CENTER
 62
     2
100
AcDbLine
 10
-229.21665
 20
-156.992805
 30
0.0
 11
-219.29665
 21
-156.992805
 31
0.0
  0
LINE
  5
2FE
330
74
100
AcDbEntity
  8
1
  6
CENTER
 62
     2
100
AcDbLine
 10
-224.25665
 20
-161.952805
 30
0.0
 11
-224.25665
 21
-152.032805
 31
0.0
  0
CIRCLE
  5
2FF
330
74
100
AcDbEntity
  8
1
100
AcDbCircle
 10
-224.25665
 20
-181.992805
 30
0.0
 40
1.959999999999999
  0
LINE
  5
300
330
74
100
AcDbEntity
  8
1
  6
CENTER
 62
     2
100
AcDbLine
 10
-229.21665
 20
-181.992805
 30
0.0
 11
-219.29665
 21
-181.992805
 31
0.0
  0
LINE
  5
301
330
74
100
AcDbEntity
  8
1
  6
CENTER
 62
     2
100
AcDbLine
 10
-224.25665
 20
-177.032805
 30
0.0
 11
-224.25665
 21
-186.952805
 31
0.0
  0
ARC
  5
302
330
74
100
AcDbEntity
  8
1
100
AcDbCircle
 10
-223.085255
 20
-169.492805
 30
0.0
 40
24.4
100
AcDbArc
 50
296.135059
 51
300.496926
  0
ARC
  5
303
330
74
100
AcDbEntity
  8
1
100
AcDbCircle
 10
-223.085255
 20
-169.492805
 30
0.0
 40
24.4
100
AcDbArc
 50
59.50307399999999
 51
63.864941
  0
LINE
  5
304
330
74
100
AcDbEntity
  8
2
100
AcDbLine
 10
-257.704651
 20
-26.492805
 30
0.0
 11
-187.704651
 21
-26.492805
 31
0.0
  0
LINE
  5
305
330
74
100
AcDbEntity
  8
2
100
AcDbLine
 10
43.156349
 20
-26.492805
 30
0.0
 11
113.156349
 21
-26.492805
 31
0.0
  0
LINE
  5
306
330
74
100
AcDbEntity
  8
2
100
AcDbLine
 10
-247.703459
 20
196.677387
 30
0.0
 11
-201.204651
 21
196.677387
 31
0.0
  0
LINE
  5
307
330
74
100
AcDbEntity
  8
2
100
AcDbLine
 10
-247.704651
 20
105.677387
 30
0.0
 11
-197.704651
 21
105.677387
 31
0.0
  0
LINE
  5
308
330
74
100
AcDbEntity
  8
2
100
AcDbLine
 10
-257.704651
 20
115.677387
 30
0.0
 11
-257.704651
 21
129.677387
 31
0.0
  0
LINE
  5
309
330
74
100
AcDbEntity
  8
2
100
AcDbLine
 10
-187.704651
 20
115.677387
 30
0.0
 11
-187.704651
 21
129.677387
 31
0.0
  0
ARC
  5
30A
330
74
100
AcDbEntity
  8
2
100
AcDbCircle
 10
-197.704651
 20
115.677387
 30
0.0
 40
10.0
100
AcDbArc
 50
270.0
 51
0.0
  0
ARC
  5
30B
330
74
100
AcDbEntity
  8
2
100
AcDbCircle
 10
-247.704651
 20
115.677387
 30
0.0
 40
10.0
100
AcDbArc
 50
180.0
 51
270.0
  0
LINE
  5
30C
330
74
100
AcDbEntity
  8
2
100
AcDbLine
 10
-185.845447
 20
144.90215
 30
0.0
 11
-186.788158
 21
155.677387
 31
0.0
  0
LINE
  5
30D
330
74
100
AcDbEntity
  8
2
100
AcDbLine
 10
-259.563855
 20
144.90215
 30
0.0
 11
-255.673017
 21
189.374633
 31
0.0
  0
ARC
  5
30E
330
74
100
AcDbEntity
  8
2
100
AcDbCircle
 10
-228.624245
 20
181.534569
 30
0.0
 40
1.857127
100
AcDbArc
 50
270.0
 51
0.0
  0
ARC
  5
30F
330
74
100
AcDbEntity
  8
2
100
AcDbCircle
 10
-230.564943
 20
183.215269
 30
0.0
 40
1.857127
100
AcDbArc
 50
90.0
 51
180.0
  0
ARC
  5
310
330
74
100
AcDbEntity
  8
2
100
AcDbCircle
 10
-229.738521
 20
181.515998
 30
0.0
 40
0.9285639999999999
100
AcDbArc
 50
180.0
 51
270.0
  0
ARC
  5
311
330
74
100
AcDbEntity
  8
2
100
AcDbCircle
 10
-229.450666
 20
183.23384
 30
0.0
 40
0.9285639999999999
100
AcDbArc
 50
0.0
 51
90.0
  0
LINE
  5
312
330
74
100
AcDbEntity
  8
2
100
AcDbLine
 10
-224.232138
 20
184.162404
 30
0.0
 11
-224.427137
 21
179.677441
 31
0.0
  0
LINE
  5
313
330
74
100
AcDbEntity
  8
2
100
AcDbLine
 10
-221.177164
 20
184.162404
 30
0.0
 11
-220.982165
 21
179.677441
 31
0.0
  0
LINE
  5
314
330
74
100
AcDbEntity
  8
2
100
AcDbLine
 10
-224.232138
 20
184.162404
 30
0.0
 11
-223.396431
 21
179.677441
 31
0.0
  0
LINE
  5
315
330
74
100
AcDbEntity
  8
2
100
AcDbLine
 10
-222.704651
 20
181.840995
 30
0.0
 11
-222.102526
 21
185.072396
 31
0.0
  0
LINE
  5
316
330
74
100
AcDbEntity
  8
2
100
AcDbLine
 10
-225.792125
 20
185.072396
 30
0.0
 11
-223.306776
 21
185.072396
 31
0.0
  0
LINE
  5
317
330
74
100
AcDbEntity
  8
2
100
AcDbLine
 10
-223.396431
 20
179.677441
 30
0.0
 11
-222.012871
 21
179.677441
 31
0.0
  0
ARC
  5
318
330
74
100
AcDbEntity
  8
2
100
AcDbCircle
 10
-214.844359
 20
181.534569
 30
0.0
 40
1.857127
100
AcDbArc
 50
270.0
 51
0.0
  0
ARC
  5
319
330
74
100
AcDbEntity
  8
2
100
AcDbCircle
 10
-215.670781
 20
181.515998
 30
0.0
 40
0.9285639999999999
100
AcDbArc
 50
270.0
 51
0.0
  0
LINE
  5
31A
330
74
100
AcDbEntity
  8
2
100
AcDbLine
 10
-216.887199
 20
183.23384
 30
0.0
 11
-216.887199
 21
181.515998
 31
0.0
  0
ARC
  5
31B
330
74
100
AcDbEntity
  8
2
100
AcDbCircle
 10
-216.785057
 20
183.215269
 30
0.0
 40
1.857127
100
AcDbArc
 50
90.0
 51
180.0
  0
LINE
  5
31C
330
74
100
AcDbEntity
  8
2
100
AcDbLine
 10
-218.642185
 20
183.215269
 30
0.0
 11
-218.642185
 21
181.534569
 31
0.0
  0
LINE
  5
31D
330
74
100
AcDbEntity
  8
2
100
AcDbLine
 10
-220.982165
 20
179.677441
 30
0.0
 11
-219.22718
 21
179.677441
 31
0.0
  0
LINE
  5
31E
330
74
100
AcDbEntity
  8
2
100
AcDbLine
 10
-212.207238
 20
179.80744
 30
0.0
 11
-207.982274
 21
179.80744
 31
0.0
  0
LINE
  5
31F
330
74
100
AcDbEntity
  8
2
100
AcDbLine
 10
-210.452253
 20
181.887423
 30
0.0
 11
-207.982274
 21
181.887423
 31
0.0
  0
LINE
  5
320
330
74
100
AcDbEntity
  8
2
100
AcDbLine
 10
-210.452253
 20
182.862415
 30
0.0
 11
-207.982274
 21
182.862415
 31
0.0
  0
LINE
  5
321
330
74
100
AcDbEntity
  8
2
100
AcDbLine
 10
-210.452253
 20
180.782432
 30
0.0
 11
-210.452253
 21
181.887423
 31
0.0
  0
LINE
  5
322
330
74
100
AcDbEntity
  8
2
100
AcDbLine
 10
-210.452253
 20
182.862415
 30
0.0
 11
-210.452253
 21
183.967406
 31
0.0
  0
LINE
  5
323
330
74
100
AcDbEntity
  8
2
100
AcDbLine
 10
-235.347046
 20
183.967406
 30
0.0
 11
-233.59206
 21
183.967406
 31
0.0
  0
LINE
  5
324
330
74
100
AcDbEntity
  8
2
100
AcDbLine
 10
-237.622027
 20
182.862415
 30
0.0
 11
-230.797084
 21
186.177387
 31
0.0
  0
LINE
  5
325
330
74
100
AcDbEntity
  8
2
100
AcDbLine
 10
-237.622027
 20
182.862415
 30
0.0
 11
-237.622027
 21
186.177387
 31
0.0
  0
LINE
  5
326
330
74
100
AcDbEntity
  8
2
100
AcDbLine
 10
-233.59206
 20
183.967406
 30
0.0
 11
-233.59206
 21
179.677441
 31
0.0
  0
LINE
  5
327
330
74
100
AcDbEntity
  8
2
100
AcDbLine
 10
-232.42207
 20
183.215269
 30
0.0
 11
-232.42207
 21
181.534569
 31
0.0
  0
LINE
  5
328
330
74
100
AcDbEntity
  8
2
100
AcDbLine
 10
-226.767117
 20
183.215269
 30
0.0
 11
-226.767117
 21
181.534569
 31
0.0
  0
LINE
  5
329
330
74
100
AcDbEntity
  8
2
100
AcDbLine
 10
-230.667085
 20
183.23384
 30
0.0
 11
-230.667085
 21
181.515998
 31
0.0
  0
LINE
  5
32A
330
74
100
AcDbEntity
  8
2
100
AcDbLine
 10
-228.522102
 20
183.23384
 30
0.0
 11
-228.522102
 21
181.515998
 31
0.0
  0
ARC
  5
32B
330
74
100
AcDbEntity
  8
2
100
AcDbCircle
 10
-230.564943
 20
181.534569
 30
0.0
 40
1.857127
100
AcDbArc
 50
180.0
 51
270.0
  0
ARC
  5
32C
330
74
100
AcDbEntity
  8
2
100
AcDbCircle
 10
-228.624245
 20
183.215269
 30
0.0
 40
1.857127
100
AcDbArc
 50
0.0
 51
90.0
  0
ARC
  5
32D
330
74
100
AcDbEntity
  8
2
100
AcDbCircle
 10
-229.450666
 20
181.515998
 30
0.0
 40
0.9285639999999999
100
AcDbArc
 50
270.0
 51
0.0
  0
ARC
  5
32E
330
74
100
AcDbEntity
  8
2
100
AcDbCircle
 10
-229.738521
 20
183.23384
 30
0.0
 40
0.9285639999999999
100
AcDbArc
 50
90.0
 51
180.0
  0
LINE
  5
32F
330
74
100
AcDbEntity
  8
2
100
AcDbLine
 10
-235.347046
 20
179.677441
 30
0.0
 11
-233.59206
 21
179.677441
 31
0.0
  0
LINE
  5
330
330
74
100
AcDbEntity
  8
2
100
AcDbLine
 10
-225.792125
 20
185.072396
 30
0.0
 11
-226.182122
 21
179.677441
 31
0.0
  0
LINE
  5
331
330
74
100
AcDbEntity
  8
2
100
AcDbLine
 10
-219.617177
 20
185.072396
 30
0.0
 11
-219.22718
 21
179.677441
 31
0.0
  0
LINE
  5
332
330
74
100
AcDbEntity
  8
2
100
AcDbLine
 10
-221.177164
 20
184.162404
 30
0.0
 11
-222.012871
 21
179.677441
 31
0.0
  0
LINE
  5
333
330
74
100
AcDbEntity
  8
2
100
AcDbLine
 10
-222.704651
 20
181.840995
 30
0.0
 11
-223.306776
 21
185.072396
 31
0.0
  0
LINE
  5
334
330
74
100
AcDbEntity
  8
2
100
AcDbLine
 10
-230.564943
 20
185.072396
 30
0.0
 11
-228.624245
 21
185.072396
 31
0.0
  0
LINE
  5
335
330
74
100
AcDbEntity
  8
2
100
AcDbLine
 10
-230.564943
 20
179.677441
 30
0.0
 11
-228.624245
 21
179.677441
 31
0.0
  0
LINE
  5
336
330
74
100
AcDbEntity
  8
2
100
AcDbLine
 10
-226.182122
 20
179.677441
 30
0.0
 11
-224.427137
 21
179.677441
 31
0.0
  0
ARC
  5
337
330
74
100
AcDbEntity
  8
2
100
AcDbCircle
 10
-216.785057
 20
181.534569
 30
0.0
 40
1.857127
100
AcDbArc
 50
180.0
 51
270.0
  0
LINE
  5
338
330
74
100
AcDbEntity
  8
2
100
AcDbLine
 10
-214.742217
 20
183.23384
 30
0.0
 11
-214.742217
 21
181.515998
 31
0.0
  0
ARC
  5
339
330
74
100
AcDbEntity
  8
2
100
AcDbCircle
 10
-215.958636
 20
181.515998
 30
0.0
 40
0.9285639999999999
100
AcDbArc
 50
180.0
 51
270.0
  0
ARC
  5
33A
330
74
100
AcDbEntity
  8
2
100
AcDbCircle
 10
-215.670781
 20
183.23384
 30
0.0
 40
0.9285639999999999
100
AcDbArc
 50
0.0
 51
90.0
  0
ARC
  5
33B
330
74
100
AcDbEntity
  8
2
100
AcDbCircle
 10
-215.958636
 20
183.23384
 30
0.0
 40
0.9285639999999999
100
AcDbArc
 50
90.0
 51
180.0
  0
ARC
  5
33C
330
74
100
AcDbEntity
  8
2
100
AcDbCircle
 10
-214.844359
 20
183.215269
 30
0.0
 40
1.857127
100
AcDbArc
 50
0.0
 51
90.0
  0
LINE
  5
33D
330
74
100
AcDbEntity
  8
2
100
AcDbLine
 10
-212.987232
 20
183.215269
 30
0.0
 11
-212.987232
 21
181.534569
 31
0.0
  0
LINE
  5
33E
330
74
100
AcDbEntity
  8
2
100
AcDbLine
 10
-229.450666
 20
184.162404
 30
0.0
 11
-229.738521
 21
184.162404
 31
0.0
  0
LINE
  5
33F
330
74
100
AcDbEntity
  8
2
100
AcDbLine
 10
-229.450666
 20
180.587434
 30
0.0
 11
-229.738521
 21
180.587434
 31
0.0
  0
LINE
  5
340
330
74
100
AcDbEntity
  8
2
100
AcDbLine
 10
-215.958636
 20
184.162404
 30
0.0
 11
-215.670781
 21
184.162404
 31
0.0
  0
LINE
  5
341
330
74
100
AcDbEntity
  8
2
100
AcDbLine
 10
-222.102526
 20
185.072396
 30
0.0
 11
-219.617177
 21
185.072396
 31
0.0
  0
LINE
  5
342
330
74
100
AcDbEntity
  8
2
100
AcDbLine
 10
-216.785057
 20
185.072396
 30
0.0
 11
-214.844359
 21
185.072396
 31
0.0
  0
LINE
  5
343
330
74
100
AcDbEntity
  8
2
100
AcDbLine
 10
-216.785057
 20
179.677441
 30
0.0
 11
-214.844359
 21
179.677441
 31
0.0
  0
LINE
  5
344
330
74
100
AcDbEntity
  8
2
100
AcDbLine
 10
-212.207238
 20
184.942398
 30
0.0
 11
-212.207238
 21
179.80744
 31
0.0
  0
LINE
  5
345
330
74
100
AcDbEntity
  8
2
100
AcDbLine
 10
-212.207238
 20
184.942398
 30
0.0
 11
-207.982274
 21
184.942398
 31
0.0
  0
LINE
  5
346
330
74
100
AcDbEntity
  8
2
100
AcDbLine
 10
-210.452253
 20
180.782432
 30
0.0
 11
-207.982274
 21
180.782432
 31
0.0
  0
LINE
  5
347
330
74
100
AcDbEntity
  8
2
100
AcDbLine
 10
-210.452253
 20
183.967406
 30
0.0
 11
-207.982274
 21
183.967406
 31
0.0
  0
LINE
  5
348
330
74
100
AcDbEntity
  8
2
100
AcDbLine
 10
-207.982274
 20
183.967406
 30
0.0
 11
-207.982274
 21
184.942398
 31
0.0
  0
LINE
  5
349
330
74
100
AcDbEntity
  8
2
100
AcDbLine
 10
-207.982274
 20
179.80744
 30
0.0
 11
-207.982274
 21
180.782432
 31
0.0
  0
LINE
  5
34A
330
74
100
AcDbEntity
  8
2
100
AcDbLine
 10
-207.982274
 20
181.887423
 30
0.0
 11
-207.982274
 21
182.862415
 31
0.0
  0
LINE
  5
34B
330
74
100
AcDbEntity
  8
2
100
AcDbLine
 10
-235.347046
 20
183.967406
 30
0.0
 11
-235.347046
 21
179.677441
 31
0.0
  0
LINE
  5
34C
330
74
100
AcDbEntity
  8
2
100
AcDbLine
 10
-237.622027
 20
186.177387
 30
0.0
 11
-230.797084
 21
186.177387
 31
0.0
  0
LINE
  5
34D
330
74
100
AcDbEntity
  8
2
100
AcDbLine
 10
-215.958636
 20
180.587434
 30
0.0
 11
-215.670781
 21
180.587434
 31
0.0
  0
ARC
  5
34E
330
74
100
AcDbEntity
  8
2
100
AcDbCircle
 10
-247.703459
 20
188.677387
 30
0.0
 40
8.0
100
AcDbArc
 50
90.0
 51
175.0
  0
ARC
  5
34F
330
74
100
AcDbEntity
  8
2
100
AcDbCircle
 10
-222.704651
 20
141.677387
 30
0.0
 40
37.0
100
AcDbArc
 50
325.150095
 51
5.0
  0
ARC
  5
350
330
74
100
AcDbEntity
  8
2
100
AcDbCircle
 10
-222.704651
 20
141.677387
 30
0.0
 40
37.0
100
AcDbArc
 50
175.0
 51
214.849905
  0
LINE
  5
351
330
74
100
AcDbEntity
  8
2
100
AcDbLine
 10
-200.704651
 20
113.677387
 30
0.0
 11
-200.704651
 21
107.677387
 31
0.0
  0
LINE
  5
352
330
74
100
AcDbEntity
  8
2
100
AcDbLine
 10
-244.704651
 20
113.677387
 30
0.0
 11
-244.704651
 21
107.677387
 31
0.0
  0
ARC
  5
353
330
74
100
AcDbEntity
  8
2
100
AcDbCircle
 10
-194.704651
 20
113.677387
 30
0.0
 40
6.0
100
AcDbArc
 50
90.0
 51
180.0
  0
ARC
  5
354
330
74
100
AcDbEntity
  8
2
100
AcDbCircle
 10
-250.704651
 20
113.677387
 30
0.0
 40
6.0
100
AcDbArc
 50
0.0
 51
90.0
  0
ARC
  5
355
330
74
100
AcDbEntity
  8
2
100
AcDbCircle
 10
-242.704651
 20
107.677387
 30
0.0
 40
2.0
100
AcDbArc
 50
180.0
 51
270.0
  0
ARC
  5
356
330
74
100
AcDbEntity
  8
2
100
AcDbCircle
 10
-202.704651
 20
107.677387
 30
0.0
 40
2.0
100
AcDbArc
 50
270.0
 51
0.0
  0
LINE
  5
357
330
74
100
AcDbEntity
  8
2
100
AcDbLine
 10
-194.704651
 20
119.677387
 30
0.0
 11
-193.981838
 21
119.677387
 31
0.0
  0
LINE
  5
358
330
74
100
AcDbEntity
  8
2
100
AcDbLine
 10
-250.704651
 20
119.677387
 30
0.0
 11
-251.427464
 21
119.677387
 31
0.0
  0
ARC
  5
359
330
74
100
AcDbEntity
  8
2
100
AcDbCircle
 10
-193.981838
 20
121.677387
 30
0.0
 40
2.0
100
AcDbArc
 50
270.0
 51
325.150095
  0
ARC
  5
35A
330
74
100
AcDbEntity
  8
2
100
AcDbCircle
 10
-251.427464
 20
121.677387
 30
0.0
 40
2.0
100
AcDbArc
 50
214.849905
 51
270.0
  0
LINE
  5
35B
330
74
100
AcDbEntity
  8
2
100
AcDbLine
 10
-253.204651
 20
171.677387
 30
0.0
 11
-255.038708
 21
171.677387
 31
0.0
  0
LINE
  5
35C
330
74
100
AcDbEntity
  8
2
100
AcDbLine
 10
-253.204651
 20
159.677387
 30
0.0
 11
-256.438527
 21
159.677387
 31
0.0
  0
ARC
  5
35D
330
74
100
AcDbEntity
  8
2
100
AcDbCircle
 10
-253.204651
 20
165.677387
 30
0.0
 40
6.0
100
AcDbArc
 50
270.0
 51
90.0
  0
ARC
  5
35E
330
74
100
AcDbEntity
  8
2
100
AcDbCircle
 10
-255.038708
 20
173.677387
 30
0.0
 40
2.0
100
AcDbArc
 50
175.0
 51
270.0
  0
ARC
  5
35F
330
74
100
AcDbEntity
  8
2
100
AcDbCircle
 10
-256.438527
 20
157.677387
 30
0.0
 40
2.0
100
AcDbArc
 50
90.0
 51
175.0
  0
LINE
  5
360
330
74
100
AcDbEntity
  8
2
100
AcDbLine
 10
-244.204651
 20
190.177387
 30
0.0
 11
-244.204651
 21
194.677387
 31
0.0
  0
LINE
  5
361
330
74
100
AcDbEntity
  8
2
100
AcDbLine
 10
-250.204651
 20
184.177387
 30
0.0
 11
-254.295054
 21
184.177387
 31
0.0
  0
ARC
  5
362
330
74
100
AcDbEntity
  8
2
100
AcDbCircle
 10
-250.204651
 20
190.177387
 30
0.0
 40
6.0
100
AcDbArc
 50
270.0
 51
0.0
  0
ARC
  5
363
330
74
100
AcDbEntity
  8
2
100
AcDbCircle
 10
-203.204651
 20
194.677387
 30
0.0
 40
2.0
100
AcDbArc
 50
0.0
 51
90.0
  0
ARC
  5
364
330
74
100
AcDbEntity
  8
2
100
AcDbCircle
 10
-242.204651
 20
194.677387
 30
0.0
 40
2.0
100
AcDbArc
 50
90.0
 51
180.0
  0
ARC
  5
365
330
74
100
AcDbEntity
  8
2
100
AcDbCircle
 10
-254.295054
 20
182.177387
 30
0.0
 40
2.0
100
AcDbArc
 50
90.0
 51
175.0
  0
LINE
  5
366
330
74
100
AcDbEntity
  8
2
100
AcDbLine
 10
-225.704651
 20
164.326891
 30
0.0
 11
-225.704651
 21
166.177387
 31
0.0
  0
LINE
  5
367
330
74
100
AcDbEntity
  8
2
100
AcDbLine
 10
-219.704651
 20
164.326891
 30
0.0
 11
-219.704651
 21
165.99302
 31
0.0
  0
LINE
  5
368
330
74
100
AcDbEntity
  8
2
100
AcDbLine
 10
-252.204651
 20
139.677387
 30
0.0
 11
-252.204651
 21
143.677387
 31
0.0
  0
LINE
  5
369
330
74
100
AcDbEntity
  8
2
100
AcDbLine
 10
-251.204651
 20
144.677387
 30
0.0
 11
-245.354154
 21
144.677387
 31
0.0
  0
LINE
  5
36A
330
74
100
AcDbEntity
  8
2
100
AcDbLine
 10
-200.055148
 20
144.677387
 30
0.0
 11
-198.389018
 21
144.677387
 31
0.0
  0
LINE
  5
36B
330
74
100
AcDbEntity
  8
2
100
AcDbLine
 10
-251.204651
 20
138.677387
 30
0.0
 11
-245.354154
 21
138.677387
 31
0.0
  0
LINE
  5
36C
330
74
100
AcDbEntity
  8
2
100
AcDbLine
 10
-200.055148
 20
138.677387
 30
0.0
 11
-198.204651
 21
138.677387
 31
0.0
  0
ARC
  5
36D
330
74
100
AcDbEntity
  8
2
100
AcDbCircle
 10
-251.204651
 20
139.677387
 30
0.0
 40
1.0
100
AcDbArc
 50
180.0
 51
270.0
  0
ARC
  5
36E
330
74
100
AcDbEntity
  8
2
100
AcDbCircle
 10
-251.204651
 20
143.677387
 30
0.0
 40
1.0
100
AcDbArc
 50
90.0
 51
180.0
  0
ARC
  5
36F
330
74
100
AcDbEntity
  8
2
100
AcDbCircle
 10
-200.055148
 20
145.677387
 30
0.0
 40
1.0
100
AcDbArc
 50
190.01541
 51
270.0
  0
ARC
  5
370
330
74
100
AcDbEntity
  8
2
100
AcDbCircle
 10
-200.055148
 20
137.677387
 30
0.0
 40
1.0
100
AcDbArc
 50
90.0
 51
169.98459
  0
ARC
  5
371
330
74
100
AcDbEntity
  8
2
100
AcDbCircle
 10
-245.354154
 20
137.677387
 30
0.0
 40
1.0
100
AcDbArc
 50
10.01541
 51
90.0
  0
ARC
  5
372
330
74
100
AcDbEntity
  8
2
100
AcDbCircle
 10
-245.354154
 20
145.677387
 30
0.0
 40
1.0
100
AcDbArc
 50
270.0
 51
349.98459
  0
ARC
  5
373
330
74
100
AcDbEntity
  8
2
100
AcDbCircle
 10
-226.704651
 20
164.326891
 30
0.0
 40
1.0
100
AcDbArc
 50
280.01541
 51
0.0
  0
ARC
  5
374
330
74
100
AcDbEntity
  8
2
100
AcDbCircle
 10
-218.704651
 20
164.326891
 30
0.0
 40
1.0
100
AcDbArc
 50
180.0
 51
259.98459
  0
LINE
  5
375
330
74
100
AcDbEntity
  8
2
100
AcDbLine
 10
-202.34629
 20
151.192489
 30
0.0
 11
-200.471148
 21
151.969198
 31
0.0
  0
LINE
  5
376
330
74
100
AcDbEntity
  8
2
100
AcDbLine
 10
-201.580923
 20
149.344729
 30
0.0
 11
-199.705782
 21
150.121439
 31
0.0
  0
ARC
  5
377
330
74
100
AcDbEntity
  8
2
100
AcDbCircle
 10
-201.389582
 20
148.88279
 30
0.0
 40
0.5
100
AcDbArc
 50
112.5
 51
198.677446
  0
ARC
  5
378
330
74
100
AcDbEntity
  8
2
100
AcDbCircle
 10
-202.537632
 20
151.654428
 30
0.0
 40
0.5
100
AcDbArc
 50
206.322554
 51
292.5
  0
LINE
  5
379
330
74
100
AcDbEntity
  8
2
100
AcDbLine
 10
-207.53725
 20
158.259002
 30
0.0
 11
-206.102078
 21
159.694173
 31
0.0
  0
LINE
  5
37A
330
74
100
AcDbEntity
  8
2
100
AcDbLine
 10
-206.123036
 20
156.844788
 30
0.0
 11
-204.687865
 21
158.27996
 31
0.0
  0
ARC
  5
37B
330
74
100
AcDbEntity
  8
2
100
AcDbCircle
 10
-205.769483
 20
156.491235
 30
0.0
 40
0.5
100
AcDbArc
 50
135.0
 51
221.177446
  0
ARC
  5
37C
330
74
100
AcDbEntity
  8
2
100
AcDbCircle
 10
-207.890803
 20
158.612555
 30
0.0
 40
0.5
100
AcDbArc
 50
228.822554
 51
315.0
  0
LINE
  5
37D
330
74
100
AcDbEntity
  8
2
100
AcDbLine
 10
-215.037309
 20
162.801115
 30
0.0
 11
-214.2606
 21
164.676257
 31
0.0
  0
LINE
  5
37E
330
74
100
AcDbEntity
  8
2
100
AcDbLine
 10
-213.18955
 20
162.035748
 30
0.0
 11
-212.41284
 21
163.91089
 31
0.0
  0
ARC
  5
37F
330
74
100
AcDbEntity
  8
2
100
AcDbCircle
 10
-212.72761
 20
161.844406
 30
0.0
 40
0.5
100
AcDbArc
 50
157.5
 51
243.677446
  0
ARC
  5
380
330
74
100
AcDbEntity
  8
2
100
AcDbCircle
 10
-215.499249
 20
162.992456
 30
0.0
 40
0.5
100
AcDbArc
 50
251.322554
 51
337.5
  0
LINE
  5
381
330
74
100
AcDbEntity
  8
2
100
AcDbLine
 10
-243.063012
 20
151.192489
 30
0.0
 11
-247.724455
 21
153.123322
 31
0.0
  0
LINE
  5
382
330
74
100
AcDbEntity
  8
2
100
AcDbLine
 10
-243.828378
 20
149.344729
 30
0.0
 11
-248.489822
 21
151.275563
 31
0.0
  0
ARC
  5
383
330
74
100
AcDbEntity
  8
2
100
AcDbCircle
 10
-222.704651
 20
141.677387
 30
0.0
 40
28.0
100
AcDbArc
 50
156.458201
 51
158.541799
  0
ARC
  5
384
330
74
100
AcDbEntity
  8
2
100
AcDbCircle
 10
-247.915797
 20
152.661382
 30
0.0
 40
0.5
100
AcDbArc
 50
67.5
 51
156.458201
  0
ARC
  5
385
330
74
100
AcDbEntity
  8
2
100
AcDbCircle
 10
-248.29848
 20
151.737502
 30
0.0
 40
0.5
100
AcDbArc
 50
158.541799
 51
247.5
  0
ARC
  5
386
330
74
100
AcDbEntity
  8
2
100
AcDbCircle
 10
-244.01972
 20
148.88279
 30
0.0
 40
0.5
100
AcDbArc
 50
341.322554
 51
67.5
  0
ARC
  5
387
330
74
100
AcDbEntity
  8
2
100
AcDbCircle
 10
-242.87167
 20
151.654428
 30
0.0
 40
0.5
100
AcDbArc
 50
247.5
 51
333.677446
  0
LINE
  5
388
330
74
100
AcDbEntity
  8
2
100
AcDbLine
 10
-237.872052
 20
158.259002
 30
0.0
 11
-241.439766
 21
161.826716
 31
0.0
  0
LINE
  5
389
330
74
100
AcDbEntity
  8
2
100
AcDbLine
 10
-239.286266
 20
156.844788
 30
0.0
 11
-242.85398
 21
160.412503
 31
0.0
  0
ARC
  5
38A
330
74
100
AcDbEntity
  8
2
100
AcDbCircle
 10
-222.704651
 20
141.677387
 30
0.0
 40
28.0
100
AcDbArc
 50
133.958201
 51
136.041799
  0
ARC
  5
38B
330
74
100
AcDbEntity
  8
2
100
AcDbCircle
 10
-241.79332
 20
161.473163
 30
0.0
 40
0.5
100
AcDbArc
 50
45.0
 51
133.958201
  0
ARC
  5
38C
330
74
100
AcDbEntity
  8
2
100
AcDbCircle
 10
-242.500426
 20
160.766056
 30
0.0
 40
0.5
100
AcDbArc
 50
136.041799
 51
225.0
  0
ARC
  5
38D
330
74
100
AcDbEntity
  8
2
100
AcDbCircle
 10
-239.639819
 20
156.491235
 30
0.0
 40
0.5
100
AcDbArc
 50
318.822554
 51
45.0
  0
ARC
  5
38E
330
74
100
AcDbEntity
  8
2
100
AcDbCircle
 10
-237.518499
 20
158.612555
 30
0.0
 40
0.5
100
AcDbArc
 50
225.0
 51
311.177446
  0
LINE
  5
38F
330
74
100
AcDbEntity
  8
2
100
AcDbLine
 10
-230.371993
 20
162.801115
 30
0.0
 11
-232.302826
 21
167.462558
 31
0.0
  0
LINE
  5
390
330
74
100
AcDbEntity
  8
2
100
AcDbLine
 10
-232.219752
 20
162.035748
 30
0.0
 11
-234.150585
 21
166.697191
 31
0.0
  0
ARC
  5
391
330
74
100
AcDbEntity
  8
2
100
AcDbCircle
 10
-222.704651
 20
141.677387
 30
0.0
 40
28.0
100
AcDbArc
 50
111.458201
 51
113.541799
  0
ARC
  5
392
330
74
100
AcDbEntity
  8
2
100
AcDbCircle
 10
-232.764766
 20
167.271216
 30
0.0
 40
0.5
100
AcDbArc
 50
22.5
 51
111.458201
  0
ARC
  5
393
330
74
100
AcDbEntity
  8
2
100
AcDbCircle
 10
-233.688646
 20
166.888533
 30
0.0
 40
0.5
100
AcDbArc
 50
113.541799
 51
202.5
  0
ARC
  5
394
330
74
100
AcDbEntity
  8
2
100
AcDbCircle
 10
-232.681692
 20
161.844406
 30
0.0
 40
0.5
100
AcDbArc
 50
296.322554
 51
22.5
  0
ARC
  5
395
330
74
100
AcDbEntity
  8
2
100
AcDbCircle
 10
-229.910053
 20
162.992456
 30
0.0
 40
0.5
100
AcDbArc
 50
202.5
 51
288.677446
  0
TEXT
  5
396
330
74
100
AcDbEntity
  8
2
100
AcDbText
 10
-225.204651
 20
113.677387
 30
0.0
 40
5.0
  1
Ａ
100
AcDbText
  0
TEXT
  5
397
330
74
100
AcDbEntity
  8
2
100
AcDbText
 10
-245.704651
 20
133.177387
 30
0.0
 40
5.0
  1
Ｓ
 50
90.0
100
AcDbText
  0
LINE
  5
398
330
74
100
AcDbEntity
  8
2
100
AcDbLine
 10
-185.704651
 20
15.507195
 30
0.0
 11
-260.204651
 21
15.507195
 31
0.0
  0
LINE
  5
399
330
74
100
AcDbEntity
  8
2
100
AcDbLine
 10
-185.704651
 20
16.307195
 30
0.0
 11
-259.704651
 21
16.307195
 31
0.0
  0
LINE
  5
39A
330
74
100
AcDbEntity
  8
2
100
AcDbLine
 10
-259.704651
 20
21.307195
 30
0.0
 11
-259.704651
 21
-1.273765
 31
0.0
  0
LINE
  5
39B
330
74
100
AcDbEntity
  8
2
100
AcDbLine
 10
-185.704651
 20
21.307195
 30
0.0
 11
-185.704651
 21
15.507195
 31
0.0
  0
LINE
  5
39C
330
74
100
AcDbEntity
  8
2
100
AcDbLine
 10
-198.356197
 20
25.307195
 30
0.0
 11
-247.053105
 21
25.307195
 31
0.0
  0
LINE
  5
39D
330
74
100
AcDbEntity
  8
2
100
AcDbLine
 10
-193.204651
 20
27.007195
 30
0.0
 11
-252.204651
 21
27.007195
 31
0.0
  0
LINE
  5
39E
330
74
100
AcDbEntity
  8
2
100
AcDbLine
 10
-185.704651
 20
21.307195
 30
0.0
 11
-190.204686
 21
23.905291
 31
0.0
  0
LINE
  5
39F
330
74
100
AcDbEntity
  8
2
100
AcDbLine
 10
-259.704651
 20
21.307195
 30
0.0
 11
-255.204616
 21
23.905291
 31
0.0
  0
LINE
  5
3A0
330
74
100
AcDbEntity
  8
2
100
AcDbLine
 10
-185.704651
 20
21.307195
 30
0.0
 11
-259.704651
 21
21.307195
 31
0.0
  0
LINE
  5
3A1
330
74
100
AcDbEntity
  8
2
100
AcDbLine
 10
-252.662015
 20
144.298317
 30
0.0
 11
-251.289049
 21
159.991399
 31
0.0
  0
LINE
  5
3A2
330
74
100
AcDbEntity
  8
2
100
AcDbLine
 10
-250.330789
 20
170.944352
 30
0.0
 11
-249.16511
 21
184.268127
 31
0.0
  0
LINE
  5
3A3
330
74
100
AcDbEntity
  8
2
100
AcDbLine
 10
-201.189352
 20
189.749184
 30
0.0
 11
-244.21995
 21
189.749184
 31
0.0
  0
LINE
  5
3A4
330
74
100
AcDbEntity
  8
2
100
AcDbLine
 10
-200.704651
 20
112.60559
 30
0.0
 11
-244.704651
 21
112.60559
 31
0.0
  0
ARC
  5
3A5
330
74
100
AcDbEntity
  8
2
100
AcDbCircle
 10
-222.704651
 20
141.677387
 30
0.0
 40
30.071797
100
AcDbArc
 50
175.0
 51
212.162264
  0
ARC
  5
3A6
330
74
100
AcDbEntity
  8
2
100
AcDbCircle
 10
-222.704651
 20
141.677387
 30
0.0
 40
30.071797
100
AcDbArc
 50
327.837736
 51
346.539424
  0
ARC
  5
3A7
330
74
100
AcDbEntity
  8
2
100
AcDbCircle
 10
-267.232909
 20
113.677387
 30
0.0
 40
22.528258
100
AcDbArc
 50
0.0
 51
32.162264
  0
LINE
  5
3A8
330
74
100
AcDbEntity
  8
2
100
AcDbLine
 10
-193.204651
 20
27.007195
 30
0.0
 11
-193.204651
 21
25.813075
 31
0.0
  0
LINE
  5
3A9
330
74
100
AcDbEntity
  8
2
100
AcDbLine
 10
-252.204651
 20
27.007195
 30
0.0
 11
-252.204651
 21
25.813075
 31
0.0
  0
ARC
  5
3AA
330
74
100
AcDbEntity
  8
2
100
AcDbCircle
 10
-222.704651
 20
141.677387
 30
0.0
 40
23.7
100
AcDbArc
 50
189.319711
 51
350.680289
  0
ARC
  5
3AB
330
74
100
AcDbEntity
  8
2
100
AcDbCircle
 10
-198.330689
 20
137.677387
 30
0.0
 40
1.0
100
AcDbArc
 50
90.0
 51
170.680289
  0
ARC
  5
3AC
330
74
100
AcDbEntity
  8
2
100
AcDbCircle
 10
-247.078612
 20
137.677387
 30
0.0
 40
1.0
100
AcDbArc
 50
9.319710999999999
 51
90.0
  0
LINE
  5
3AD
330
74
100
AcDbEntity
  8
2
100
AcDbLine
 10
-200.910156
 20
27.007195
 30
0.0
 11
-199.195291
 21
25.307195
 31
0.0
  0
LINE
  5
3AE
330
74
100
AcDbEntity
  8
2
100
AcDbLine
 10
-244.499146
 20
27.007195
 30
0.0
 11
-246.214011
 21
25.307195
 31
0.0
  0
ARC
  5
3AF
330
74
100
AcDbEntity
  8
2
100
AcDbCircle
 10
-222.704651
 20
141.677387
 30
0.0
 40
23.7
100
AcDbArc
 50
71.05366899999999
 51
80.68028899999999
  0
ARC
  5
3B0
330
74
100
AcDbEntity
  8
2
100
AcDbCircle
 10
-222.704651
 20
141.677387
 30
0.0
 40
23.7
100
AcDbArc
 50
48.553669
 51
63.94633100000001
  0
ARC
  5
3B1
330
74
100
AcDbEntity
  8
2
100
AcDbCircle
 10
-222.704651
 20
141.677387
 30
0.0
 40
23.7
100
AcDbArc
 50
9.319710999999999
 51
18.946331
  0
ARC
  5
3B2
330
74
100
AcDbEntity
  8
2
100
AcDbCircle
 10
-222.704651
 20
141.677387
 30
0.0
 40
23.7
100
AcDbArc
 50
26.053669
 51
41.446331
  0
ARC
  5
3B3
330
74
100
AcDbEntity
  8
2
100
AcDbCircle
 10
-222.704651
 20
141.677387
 30
0.0
 40
23.7
100
AcDbArc
 50
99.319711
 51
108.946331
  0
ARC
  5
3B4
330
74
100
AcDbEntity
  8
2
100
AcDbCircle
 10
-222.704651
 20
141.677387
 30
0.0
 40
23.7
100
AcDbArc
 50
116.053669
 51
131.446331
  0
ARC
  5
3B5
330
74
100
AcDbEntity
  8
2
100
AcDbCircle
 10
-222.704651
 20
141.677387
 30
0.0
 40
23.7
100
AcDbArc
 50
138.553669
 51
153.946331
  0
ARC
  5
3B6
330
74
100
AcDbEntity
  8
2
100
AcDbCircle
 10
-222.704651
 20
141.677387
 30
0.0
 40
23.7
100
AcDbArc
 50
161.053669
 51
170.680289
  0
ARC
  5
3B7
330
74
100
AcDbEntity
  8
2
100
AcDbCircle
 10
-198.330689
 20
145.677387
 30
0.0
 40
1.0
100
AcDbArc
 50
189.319711
 51
270.0
  0
ARC
  5
3B8
330
74
100
AcDbEntity
  8
2
100
AcDbCircle
 10
-218.704651
 20
166.051349
 30
0.0
 40
1.0
100
AcDbArc
 50
180.0
 51
260.680289
  0
ARC
  5
3B9
330
74
100
AcDbEntity
  8
2
100
AcDbCircle
 10
-226.704651
 20
166.051349
 30
0.0
 40
1.0
100
AcDbArc
 50
279.319711
 51
0.0
  0
ARC
  5
3BA
330
74
100
AcDbEntity
  8
2
100
AcDbCircle
 10
-247.078612
 20
145.677387
 30
0.0
 40
1.0
100
AcDbArc
 50
270.0
 51
350.680289
  0
ARC
  5
3BB
330
74
100
AcDbEntity
  8
2
100
AcDbCircle
 10
-199.815731
 20
149.5347
 30
0.0
 40
0.5
100
AcDbArc
 50
112.5
 51
198.946331
  0
ARC
  5
3BC
330
74
100
AcDbEntity
  8
2
100
AcDbCircle
 10
-200.963782
 20
152.306338
 30
0.0
 40
0.5
100
AcDbArc
 50
206.053669
 51
292.5
  0
ARC
  5
3BD
330
74
100
AcDbEntity
  8
2
100
AcDbCircle
 10
-204.56491
 20
157.695808
 30
0.0
 40
0.5
100
AcDbArc
 50
135.0
 51
221.4463310000001
  0
ARC
  5
3BE
330
74
100
AcDbEntity
  8
2
100
AcDbCircle
 10
-206.68623
 20
159.817128
 30
0.0
 40
0.5
100
AcDbArc
 50
228.553669
 51
315.0
  0
ARC
  5
3BF
330
74
100
AcDbEntity
  8
2
100
AcDbCircle
 10
-212.0757
 20
163.418257
 30
0.0
 40
0.5
100
AcDbArc
 50
157.5
 51
243.946331
  0
ARC
  5
3C0
330
74
100
AcDbEntity
  8
2
100
AcDbCircle
 10
-230.561964
 20
164.566307
 30
0.0
 40
0.5
100
AcDbArc
 50
202.5
 51
288.946331
  0
ARC
  5
3C1
330
74
100
AcDbEntity
  8
2
100
AcDbCircle
 10
-233.333602
 20
163.418257
 30
0.0
 40
0.5
100
AcDbArc
 50
296.053669
 51
22.5
  0
ARC
  5
3C2
330
74
100
AcDbEntity
  8
2
100
AcDbCircle
 10
-238.723072
 20
159.817128
 30
0.0
 40
0.5
100
AcDbArc
 50
225.0
 51
311.446331
  0
ARC
  5
3C3
330
74
100
AcDbEntity
  8
2
100
AcDbCircle
 10
-240.844392
 20
157.695808
 30
0.0
 40
0.5
100
AcDbArc
 50
318.553669
 51
45.0
  0
ARC
  5
3C4
330
74
100
AcDbEntity
  8
2
100
AcDbCircle
 10
-244.44552
 20
152.306338
 30
0.0
 40
0.5
100
AcDbArc
 50
247.5
 51
333.946331
  0
ARC
  5
3C5
330
74
100
AcDbEntity
  8
2
100
AcDbCircle
 10
-245.593571
 20
149.5347
 30
0.0
 40
0.5
100
AcDbArc
 50
341.053669
 51
67.5
  0
ARC
  5
3C6
330
74
100
AcDbEntity
  8
2
100
AcDbCircle
 10
-178.176393
 20
113.677387
 30
0.0
 40
22.528258
100
AcDbArc
 50
147.837736
 51
180.0
  0
LINE
  5
3C7
330
74
100
AcDbEntity
  8
2
100
AcDbLine
 10
-200.704651
 20
24.307195
 30
0.0
 11
-200.704651
 21
22.307195
 31
0.0
  0
LINE
  5
3C8
330
74
100
AcDbEntity
  8
2
100
AcDbLine
 10
-244.704651
 20
24.307195
 30
0.0
 11
-244.704651
 21
22.307195
 31
0.0
  0
ARC
  5
3C9
330
74
100
AcDbEntity
  8
2
100
AcDbCircle
 10
-201.704651
 20
24.307195
 30
0.0
 40
1.0
100
AcDbArc
 50
0.0
 51
90.0
  0
ARC
  5
3CA
330
74
100
AcDbEntity
  8
2
100
AcDbCircle
 10
-243.704651
 20
24.307195
 30
0.0
 40
1.0
100
AcDbArc
 50
90.0
 51
180.0
  0
ARC
  5
3CB
330
74
100
AcDbEntity
  8
2
100
AcDbCircle
 10
-199.704651
 20
22.307195
 30
0.0
 40
1.0
100
AcDbArc
 50
180.0
 51
270.0
  0
ARC
  5
3CC
330
74
100
AcDbEntity
  8
2
100
AcDbCircle
 10
-245.704651
 20
22.307195
 30
0.0
 40
1.0
100
AcDbArc
 50
270.0
 51
0.0
  0
LINE
  5
3CD
330
74
100
AcDbEntity
  8
2
100
AcDbLine
 10
-187.704651
 20
20.307195
 30
0.0
 11
-187.704651
 21
-26.492805
 31
0.0
  0
ARC
  5
3CE
330
74
100
AcDbEntity
  8
2
100
AcDbCircle
 10
-188.704651
 20
20.307195
 30
0.0
 40
1.0
100
AcDbArc
 50
0.0
 51
90.0
  0
ARC
  5
3CF
330
74
100
AcDbEntity
  8
2
100
AcDbCircle
 10
-256.7046509999999
 20
20.307195
 30
0.0
 40
1.0
100
AcDbArc
 50
90.0
 51
180.0
  0
LINE
  5
3D0
330
74
100
AcDbEntity
  8
2
100
AcDbLine
 10
-199.170619
 20
24.222932
 30
0.0
 11
-201.279919
 21
25.21251400000001
 31
0.0
  0
LINE
  5
3D1
330
74
100
AcDbEntity
  8
2
100
AcDbLine
 10
-246.238683
 20
24.222932
 30
0.0
 11
-244.129383
 21
25.21251400000001
 31
0.0
  0
LINE
  5
3D2
330
74
100
AcDbEntity
  8
2
100
AcDbLine
 10
92.15634900000001
 20
16.307195
 30
0.0
 11
42.156349
 21
16.307195
 31
0.0
  0
LINE
  5
3D3
330
74
100
AcDbEntity
  8
2
100
AcDbLine
 10
92.15634900000001
 20
21.307195
 30
0.0
 11
42.156349
 21
21.307195
 31
0.0
  0
LINE
  5
3D4
330
74
100
AcDbEntity
  8
2
100
AcDbLine
 10
42.156349
 20
21.307195
 30
0.0
 11
42.156349
 21
-8.632234
 31
0.0
  0
LINE
  5
3D5
330
74
100
AcDbEntity
  8
2
100
AcDbLine
 10
42.156349
 20
21.307195
 30
0.0
 11
45.656349
 21
23.32792
 31
0.0
  0
LINE
  5
3D6
330
74
100
AcDbEntity
  8
2
100
AcDbLine
 10
56.15634899999999
 20
22.110296
 30
0.0
 11
56.15634899999999
 21
21.807195
 31
0.0
  0
LINE
  5
3D7
330
74
100
AcDbEntity
  8
2
100
AcDbLine
 10
66.156349
 20
21.307195
 30
0.0
 11
66.156349
 21
15.507195
 31
0.0
  0
ARC
  5
3D8
330
74
100
AcDbEntity
  8
2
100
AcDbCircle
 10
50.156349
 20
15.307195
 30
0.0
 40
10.0
100
AcDbArc
 50
60.908258
 51
63.52485899999999
  0
ARC
  5
3D9
330
74
100
AcDbEntity
  8
2
100
AcDbCircle
 10
53.941623
 20
22.110296
 30
0.0
 40
2.214725999999999
100
AcDbArc
 50
0.0
 51
60.908258
  0
ARC
  5
3DA
330
74
100
AcDbEntity
  8
2
100
AcDbCircle
 10
55.656349
 20
21.807195
 30
0.0
 40
0.5
100
AcDbArc
 50
270.0
 51
0.0
  0
LINE
  5
3DB
330
74
100
AcDbEntity
  8
2
100
AcDbLine
 10
92.15634900000001
 20
27.007195
 30
0.0
 11
56.15634899999999
 21
27.007195
 31
0.0
  0
LINE
  5
3DC
330
74
100
AcDbEntity
  8
2
100
AcDbLine
 10
56.15634899999999
 20
27.007195
 30
0.0
 11
54.45634899999999
 21
25.307195
 31
0.0
  0
LINE
  5
3DD
330
74
100
AcDbEntity
  8
2
100
AcDbLine
 10
81.15634900000001
 20
27.007195
 30
0.0
 11
81.15634900000001
 21
25.307195
 31
0.0
  0
LINE
  5
3DE
330
74
100
AcDbEntity
  8
2
100
AcDbLine
 10
75.15634900000001
 20
27.007195
 30
0.0
 11
75.15634900000001
 21
25.307195
 31
0.0
  0
LINE
  5
3DF
330
74
100
AcDbEntity
  8
2
100
AcDbLine
 10
87.94076999999999
 20
27.007195
 30
0.0
 11
87.94076999999999
 21
25.307195
 31
0.0
  0
LINE
  5
3E0
330
74
100
AcDbEntity
  8
2
100
AcDbLine
 10
89.640344
 20
27.007195
 30
0.0
 11
89.640344
 21
25.307195
 31
0.0
  0
LINE
  5
3E1
330
74
100
AcDbEntity
  8
2
100
AcDbLine
 10
86.29399000000001
 20
25.307195
 30
0.0
 11
85.642803
 21
27.007195
 31
0.0
  0
LINE
  5
3E2
330
74
100
AcDbEntity
  8
2
100
AcDbLine
 10
92.15634900000001
 20
15.507195
 30
0.0
 11
40.156349
 21
15.507195
 31
0.0
  0
LINE
  5
3E3
330
74
100
AcDbEntity
  8
2
100
AcDbLine
 10
-257.704651
 20
-26.492805
 30
0.0
 11
-257.704651
 21
20.307195
 31
0.0
  0
ARC
  5
3E4
330
74
100
AcDbEntity
  8
2
100
AcDbCircle
 10
-345.704651
 20
-1.273765
 30
0.0
 40
160.0
100
AcDbArc
 50
350.931278
 51
354.945811
  0
ARC
  5
3E5
330
74
100
AcDbEntity
  8
2
100
AcDbCircle
 10
-99.704651
 20
-1.273765
 30
0.0
 40
160.0
100
AcDbArc
 50
180.0
 51
189.068722
  0
LINE
  5
3E6
330
74
100
AcDbEntity
  8
2
100
AcDbLine
 10
113.156349
 20
-26.492805
 30
0.0
 11
113.156349
 21
-24.862863
 31
0.0
  0
ARC
  5
3E7
330
74
100
AcDbEntity
  8
2
100
AcDbCircle
 10
202.156349
 20
-8.632234
 30
0.0
 40
160.0
100
AcDbArc
 50
180.0
 51
186.409204
  0
LINE
  5
3E8
330
74
100
AcDbEntity
  8
2
100
AcDbLine
 10
119.026407
 20
-18.992805
 30
0.0
 11
113.156349
 21
-24.862863
 31
0.0
  0
LINE
  5
3E9
330
74
100
AcDbEntity
  8
2
100
AcDbLine
 10
113.156349
 20
-24.862863
 30
0.0
 11
67.15634900000001
 21
-24.862863
 31
0.0
  0
LINE
  5
3EA
330
74
100
AcDbEntity
  8
2
100
AcDbLine
 10
66.156349
 20
-23.862863
 30
0.0
 11
66.156349
 21
-14.492805
 31
0.0
  0
LINE
  5
3EB
330
74
100
AcDbEntity
  8
2
100
AcDbLine
 10
53.156349
 20
-12.492805
 30
0.0
 11
53.156349
 21
15.507195
 31
0.0
  0
LINE
  5
3EC
330
74
100
AcDbEntity
  8
2
100
AcDbLine
 10
91.15634900000001
 20
-14.492805
 30
0.0
 11
55.156349
 21
-14.492805
 31
0.0
  0
ARC
  5
3ED
330
74
100
AcDbEntity
  8
2
100
AcDbCircle
 10
91.15634900000001
 20
-12.492805
 30
0.0
 40
2.0
100
AcDbArc
 50
270.0
 51
310.474241
  0
ARC
  5
3EE
330
74
100
AcDbEntity
  8
2
100
AcDbCircle
 10
55.156349
 20
-12.492805
 30
0.0
 40
2.0
100
AcDbArc
 50
180.0
 51
270.0
  0
CIRCLE
  5
3EF
330
74
100
AcDbEntity
  8
2
100
AcDbCircle
 10
114.156349
 20
3.007195
 30
0.0
 40
6.0
  0
LINE
  5
3F0
330
74
100
AcDbEntity
  8
2
100
AcDbLine
 10
-184.704651
 20
117.677387
 30
0.0
 11
-184.704651
 21
155.677387
 31
0.0
  0
LINE
  5
3F1
330
74
100
AcDbEntity
  8
2
100
AcDbLine
 10
-186.704651
 20
116.677387
 30
0.0
 11
-185.704651
 21
116.677387
 31
0.0
  0
LINE
  5
3F2
330
74
100
AcDbEntity
  8
2
100
AcDbLine
 10
-184.704651
 20
-13.492805
 30
0.0
 11
-184.704651
 21
14.507195
 31
0.0
  0
LINE
  5
3F3
330
74
100
AcDbEntity
  8
2
100
AcDbLine
 10
-185.704651
 20
-14.492805
 30
0.0
 11
-186.704651
 21
-14.492805
 31
0.0
  0
LINE
  5
3F4
330
74
100
AcDbEntity
  8
2
100
AcDbLine
 10
-211.704651
 20
-3.992805
 30
0.0
 11
-233.704651
 21
-3.992805
 31
0.0
  0
LINE
  5
3F5
330
74
100
AcDbEntity
  8
2
100
AcDbLine
 10
-204.704651
 20
3.007195
 30
0.0
 11
-204.704651
 21
15.507195
 31
0.0
  0
LINE
  5
3F6
330
74
100
AcDbEntity
  8
2
100
AcDbLine
 10
-240.704651
 20
3.007195
 30
0.0
 11
-240.704651
 21
15.507195
 31
0.0
  0
ARC
  5
3F7
330
74
100
AcDbEntity
  8
2
100
AcDbCircle
 10
-211.704651
 20
3.007195
 30
0.0
 40
7.0
100
AcDbArc
 50
270.0
 51
0.0
  0
ARC
  5
3F8
330
74
100
AcDbEntity
  8
2
100
AcDbCircle
 10
-233.704651
 20
3.007195
 30
0.0
 40
7.0
100
AcDbArc
 50
180.0
 51
270.0
  0
LINE
  5
3F9
330
74
100
AcDbEntity
  8
2
100
AcDbLine
 10
-240.704651
 20
103.677387
 30
0.0
 11
-204.704651
 21
103.677387
 31
0.0
  0
LINE
  5
3FA
330
74
100
AcDbEntity
  8
2
100
AcDbLine
 10
-204.704651
 20
103.677387
 30
0.0
 11
-204.704651
 21
105.677387
 31
0.0
  0
LINE
  5
3FB
330
74
100
AcDbEntity
  8
2
100
AcDbLine
 10
-240.704651
 20
103.677387
 30
0.0
 11
-240.704651
 21
105.677387
 31
0.0
  0
LINE
  5
3FC
330
74
100
AcDbEntity
  8
2
100
AcDbLine
 10
40.156349
 20
-3.992805
 30
0.0
 11
40.156349
 21
15.507195
 31
0.0
  0
LINE
  5
3FD
330
74
100
AcDbEntity
  8
2
100
AcDbLine
 10
40.156349
 20
-3.992805
 30
0.0
 11
42.156349
 21
-3.992805
 31
0.0
  0
ARC
  5
3FE
330
74
100
AcDbEntity
  8
2
100
AcDbCircle
 10
-186.704651
 20
115.677387
 30
0.0
 40
1.0
100
AcDbArc
 50
90.0
 51
180.0
  0
LINE
  5
3FF
330
74
100
AcDbEntity
  8
2
100
AcDbLine
 10
-260.204651
 20
166.677387
 30
0.0
 11
-260.204651
 21
188.677387
 31
0.0
  0
LINE
  5
400
330
74
100
AcDbEntity
  8
2
100
AcDbLine
 10
-256.478423
 20
189.677387
 30
0.0
 11
-259.2046509999999
 21
189.677387
 31
0.0
  0
ARC
  5
401
330
74
100
AcDbEntity
  8
2
100
AcDbCircle
 10
-256.478423
 20
190.677387
 30
0.0
 40
1.0
100
AcDbArc
 50
270.0
 51
347.160412
  0
LINE
  5
402
330
74
100
AcDbEntity
  8
2
100
AcDbLine
 10
-258.837566
 20
165.677387
 30
0.0
 11
-259.2046509999999
 21
165.677387
 31
0.0
  0
ARC
  5
403
330
74
100
AcDbEntity
  8
2
100
AcDbCircle
 10
-258.837566
 20
164.677387
 30
0.0
 40
1.0
100
AcDbArc
 50
355.0
 51
90.0
  0
ARC
  5
404
330
74
100
AcDbEntity
  8
2
100
AcDbCircle
 10
-259.2046509999999
 20
188.677387
 30
0.0
 40
1.0
100
AcDbArc
 50
90.0
 51
180.0
  0
ARC
  5
405
330
74
100
AcDbEntity
  8
2
100
AcDbCircle
 10
-259.2046509999999
 20
166.677387
 30
0.0
 40
1.0
100
AcDbArc
 50
180.0
 51
270.0
  0
ARC
  5
406
330
74
100
AcDbEntity
  8
2
100
AcDbCircle
 10
-185.704651
 20
117.677387
 30
0.0
 40
1.0
100
AcDbArc
 50
270.0
 51
0.0
  0
ARC
  5
407
330
74
100
AcDbEntity
  8
2
100
AcDbCircle
 10
-185.704651
 20
-13.492805
 30
0.0
 40
1.0
100
AcDbArc
 50
270.0
 51
0.0
  0
ARC
  5
408
330
74
100
AcDbEntity
  8
2
100
AcDbCircle
 10
-185.704651
 20
14.507195
 30
0.0
 40
1.0
100
AcDbArc
 50
0.0
 51
90.0
  0
ARC
  5
409
330
74
100
AcDbEntity
  8
2
100
AcDbCircle
 10
-185.330648
 20
-15.457525
 30
0.0
 40
1.0
100
AcDbArc
 50
100.777858
 51
174.945811
  0
ARC
  5
40A
330
74
100
AcDbEntity
  8
2
100
AcDbCircle
 10
-186.704651
 20
-15.492805
 30
0.0
 40
1.0
100
AcDbArc
 50
90.0
 51
180.0
  0
LINE
  5
40B
330
74
100
AcDbEntity
  8
2
100
AcDbLine
 10
-260.204651
 20
-8.992805
 30
0.0
 11
-260.204651
 21
15.507195
 31
0.0
  0
LINE
  5
40C
330
74
100
AcDbEntity
  8
2
100
AcDbLine
 10
-259.518344
 20
-8.992805
 30
0.0
 11
-260.204651
 21
-8.992805
 31
0.0
  0
ARC
  5
40D
330
74
100
AcDbEntity
  8
2
100
AcDbCircle
 10
67.15634900000001
 20
-23.862863
 30
0.0
 40
1.0
100
AcDbArc
 50
180.0
 51
270.0
  0
LINE
  5
40E
330
74
100
AcDbEntity
  8
2
100
AcDbLine
 10
-203.704651
 20
27.507195
 30
0.0
 11
-241.704651
 21
27.507195
 31
0.0
  0
LINE
  5
40F
330
74
100
AcDbEntity
  8
2
100
AcDbLine
 10
-198.704651
 20
28.007195
 30
0.0
 11
-244.704651
 21
28.007195
 31
0.0
  0
LINE
  5
410
330
74
100
AcDbEntity
  8
2
100
AcDbLine
 10
-241.704651
 20
27.507195
 30
0.0
 11
-241.704651
 21
28.007195
 31
0.0
  0
LINE
  5
411
330
74
100
AcDbEntity
  8
2
100
AcDbLine
 10
-203.704651
 20
27.507195
 30
0.0
 11
-203.704651
 21
28.007195
 31
0.0
  0
LINE
  5
412
330
74
100
AcDbEntity
  8
2
100
AcDbLine
 10
-205.704651
 20
27.007195
 30
0.0
 11
-205.704651
 21
27.507195
 31
0.0
  0
LINE
  5
413
330
74
100
AcDbEntity
  8
2
100
AcDbLine
 10
-239.704651
 20
27.007195
 30
0.0
 11
-239.704651
 21
27.507195
 31
0.0
  0
LINE
  5
414
330
74
100
AcDbEntity
  8
2
100
AcDbLine
 10
-206.947083
 20
48.007195
 30
0.0
 11
-241.704651
 21
48.007195
 31
0.0
  0
LINE
  5
415
330
74
100
AcDbEntity
  8
2
100
AcDbLine
 10
-244.704651
 20
28.007195
 30
0.0
 11
-244.704651
 21
45.007195
 31
0.0
  0
LINE
  5
416
330
74
100
AcDbEntity
  8
2
100
AcDbLine
 10
-198.704651
 20
28.007195
 30
0.0
 11
-198.704651
 21
40.608272
 31
0.0
  0
LINE
  5
417
330
74
100
AcDbEntity
  8
2
100
AcDbLine
 10
-243.680828
 20
143.677387
 30
0.0
 11
-200.704651
 21
143.677387
 31
0.0
  0
LINE
  5
418
330
74
100
AcDbEntity
  8
2
100
AcDbLine
 10
-243.680828
 20
139.677387
 30
0.0
 11
-200.704651
 21
139.677387
 31
0.0
  0
ARC
  5
419
330
74
100
AcDbEntity
  8
2
100
AcDbCircle
 10
-200.704651
 20
141.677387
 30
0.0
 40
2.0
100
AcDbArc
 50
270.0
 51
90.0
  0
ARC
  5
41A
330
74
100
AcDbEntity
  8
2
100
AcDbCircle
 10
-222.704651
 20
141.677387
 30
0.0
 40
22.0
100
AcDbArc
 50
7.209063999999999
 51
352.790936
  0
ARC
  5
41B
330
74
100
AcDbEntity
  8
2
100
AcDbCircle
 10
-243.680828
 20
142.677387
 30
0.0
 40
1.0
100
AcDbArc
 50
90.0
 51
177.270597
  0
ARC
  5
41C
330
74
100
AcDbEntity
  8
2
100
AcDbCircle
 10
-243.680828
 20
140.677387
 30
0.0
 40
1.0
100
AcDbArc
 50
182.729403
 51
270.0
  0
LINE
  5
41D
330
74
100
AcDbEntity
  8
2
100
AcDbLine
 10
-199.776288
 20
42.906405
 30
0.0
 11
-205.01872
 21
47.305328
 31
0.0
  0
LINE
  5
41E
330
74
100
AcDbEntity
  8
2
100
AcDbLine
 10
-205.855173
 20
139.677387
 30
0.0
 11
-205.855173
 21
143.677387
 31
0.0
  0
ARC
  5
41F
330
74
100
AcDbEntity
  8
2
100
AcDbCircle
 10
-201.704651
 20
40.608272
 30
0.0
 40
3.0
100
AcDbArc
 50
0.0
 51
50.0
  0
ARC
  5
420
330
74
100
AcDbEntity
  8
2
100
AcDbCircle
 10
-206.947083
 20
45.007195
 30
0.0
 40
3.0
100
AcDbArc
 50
50.0
 51
90.0
  0
ARC
  5
421
330
74
100
AcDbEntity
  8
2
100
AcDbCircle
 10
-241.704651
 20
45.007195
 30
0.0
 40
3.0
100
AcDbArc
 50
90.0
 51
180.0
  0
LINE
  5
422
330
74
100
AcDbEntity
  8
2
100
AcDbLine
 10
-201.795749
 20
32.007195
 30
0.0
 11
-243.704651
 21
32.007195
 31
0.0
  0
ARC
  5
423
330
74
100
AcDbEntity
  8
2
100
AcDbCircle
 10
-243.704651
 20
31.007195
 30
0.0
 40
1.0
100
AcDbArc
 50
90.0
 51
180.0
  0
LINE
  5
424
330
74
100
AcDbEntity
  8
2
100
AcDbLine
 10
-200.795749
 20
31.007195
 30
0.0
 11
-200.795749
 21
28.007195
 31
0.0
  0
ARC
  5
425
330
74
100
AcDbEntity
  8
2
100
AcDbCircle
 10
-201.795749
 20
31.007195
 30
0.0
 40
1.0
100
AcDbArc
 50
0.0
 51
90.0
  0
LINE
  5
426
330
74
100
AcDbEntity
  8
2
100
AcDbLine
 10
71.156349
 20
27.507195
 30
0.0
 11
59.156349
 21
27.507195
 31
0.0
  0
LINE
  5
427
330
74
100
AcDbEntity
  8
2
100
AcDbLine
 10
61.15634899999999
 20
27.007195
 30
0.0
 11
61.15634899999999
 21
27.507195
 31
0.0
  0
LINE
  5
428
330
74
100
AcDbEntity
  8
2
100
AcDbLine
 10
56.15634899999999
 20
28.007195
 30
0.0
 11
56.15634899999999
 21
31.007195
 31
0.0
  0
LINE
  5
429
330
74
100
AcDbEntity
  8
2
100
AcDbLine
 10
59.156349
 20
27.507195
 30
0.0
 11
59.156349
 21
28.007195
 31
0.0
  0
ARC
  5
42A
330
74
100
AcDbEntity
  8
2
100
AcDbCircle
 10
57.156349
 20
31.007195
 30
0.0
 40
1.0
100
AcDbArc
 50
90.0
 51
180.0
  0
LINE
  5
42B
330
74
100
AcDbEntity
  8
2
100
AcDbLine
 10
79.156349
 20
48.007195
 30
0.0
 11
77.15634900000001
 21
48.007195
 31
0.0
  0
LINE
  5
42C
330
74
100
AcDbEntity
  8
2
100
AcDbLine
 10
76.156349
 20
28.007195
 30
0.0
 11
76.156349
 21
47.007195
 31
0.0
  0
LINE
  5
42D
330
74
100
AcDbEntity
  8
2
100
AcDbLine
 10
80.156349
 20
28.007195
 30
0.0
 11
80.156349
 21
47.007195
 31
0.0
  0
ARC
  5
42E
330
74
100
AcDbEntity
  8
2
100
AcDbCircle
 10
79.156349
 20
47.007195
 30
0.0
 40
1.0
100
AcDbArc
 50
0.0
 51
90.0
  0
ARC
  5
42F
330
74
100
AcDbEntity
  8
2
100
AcDbCircle
 10
77.15634900000001
 20
47.007195
 30
0.0
 40
1.0
100
AcDbArc
 50
90.0
 51
180.0
  0
LINE
  5
430
330
74
100
AcDbEntity
  8
2
100
AcDbLine
 10
57.156349
 20
32.007195
 30
0.0
 11
75.15634900000001
 21
32.007195
 31
0.0
  0
LINE
  5
431
330
74
100
AcDbEntity
  8
2
100
AcDbLine
 10
81.15634900000001
 20
32.007195
 30
0.0
 11
97.556349
 21
32.007195
 31
0.0
  0
ARC
  5
432
330
74
100
AcDbEntity
  8
2
100
AcDbCircle
 10
81.15634900000001
 20
33.007195
 30
0.0
 40
1.0
100
AcDbArc
 50
180.0
 51
270.0
  0
ARC
  5
433
330
74
100
AcDbEntity
  8
2
100
AcDbCircle
 10
75.15634900000001
 20
33.007195
 30
0.0
 40
1.0
100
AcDbArc
 50
270.0
 51
0.0
  0
LINE
  5
434
330
74
100
AcDbEntity
  8
2
100
AcDbLine
 10
77.15634900000001
 20
42.007195
 30
0.0
 11
79.156349
 21
42.007195
 31
0.0
  0
ARC
  5
435
330
74
100
AcDbEntity
  8
2
100
AcDbCircle
 10
79.156349
 20
41.007195
 30
0.0
 40
1.0
100
AcDbArc
 50
0.0
 51
90.0
  0
ARC
  5
436
330
74
100
AcDbEntity
  8
2
100
AcDbCircle
 10
77.15634900000001
 20
41.007195
 30
0.0
 40
1.0
100
AcDbArc
 50
90.0
 51
180.0
  0
LINE
  5
437
330
74
100
AcDbEntity
  8
2
100
AcDbLine
 10
53.80789599999999
 20
25.307195
 30
0.0
 11
92.15634900000001
 21
25.307195
 31
0.0
  0
LINE
  5
438
330
74
100
AcDbEntity
  8
2
100
AcDbLine
 10
-144.404651
 20
183.677387
 30
0.0
 11
-85.70465099999999
 21
183.677387
 31
0.0
  0
LINE
  5
439
330
74
100
AcDbEntity
  8
2
100
AcDbLine
 10
-144.404651
 20
171.677387
 30
0.0
 11
-85.70465099999999
 21
171.677387
 31
0.0
  0
CIRCLE
  5
43A
330
74
100
AcDbEntity
  8
2
  6
PHANTOM
 62
     2
100
AcDbCircle
 10
114.156349
 20
3.007195
 30
0.0
 40
50.0
  0
ARC
  5
43B
330
74
100
AcDbEntity
  8
2
  6
PHANTOM
 62
     2
100
AcDbCircle
 10
114.156349
 20
3.007195
 30
0.0
 40
35.0
100
AcDbArc
 50
351.988888
 51
8.777777999999999
  0
ARC
  5
43C
330
74
100
AcDbEntity
  8
2
  6
PHANTOM
 62
     2
100
AcDbCircle
 10
114.156349
 20
3.007195
 30
0.0
 40
35.0
100
AcDbArc
 50
112.9
 51
128.177778
  0
ARC
  5
43D
330
74
100
AcDbEntity
  8
2
  6
PHANTOM
 62
     2
100
AcDbCircle
 10
114.156349
 20
3.007195
 30
0.0
 40
35.0
100
AcDbArc
 50
231.177778
 51
247.877777
  0
ARC
  5
43E
330
74
100
AcDbEntity
  8
2
  6
PHANTOM
 62
     2
100
AcDbCircle
 10
109.156349
 20
34.10719500000001
 30
0.0
 40
3.5
100
AcDbArc
 50
99.166667
 51
213.011111
  0
ARC
  5
43F
330
74
100
AcDbEntity
  8
2
  6
PHANTOM
 62
     2
100
AcDbCircle
 10
114.156349
 20
3.007195
 30
0.0
 40
35.0
100
AcDbArc
 50
20.822222
 51
99.17777800000001
  0
LINE
  5
440
330
74
100
AcDbEntity
  8
2
  6
PHANTOM
 62
     2
100
AcDbLine
 10
115.356349
 20
18.107195
 30
0.0
 11
106.206349
 21
32.207195
 31
0.0
  0
ARC
  5
441
330
74
100
AcDbEntity
  8
2
  6
PHANTOM
 62
     2
100
AcDbCircle
 10
143.606349
 20
14.207195
 30
0.0
 40
3.5
100
AcDbArc
 50
266.988889
 51
20.833333
  0
LINE
  5
442
330
74
100
AcDbEntity
  8
2
  6
PHANTOM
 62
     2
100
AcDbLine
 10
126.656349
 20
11.607195
 30
0.0
 11
143.406349
 21
10.707195
 31
0.0
  0
ARC
  5
443
330
74
100
AcDbEntity
  8
2
  6
PHANTOM
 62
     2
100
AcDbCircle
 10
126.806349
 20
15.107195
 30
0.0
 40
3.5
100
AcDbArc
 50
223.655555
 51
267.0
  0
ARC
  5
444
330
74
100
AcDbEntity
  8
2
  6
PHANTOM
 62
     2
100
AcDbCircle
 10
114.156349
 20
3.007195
 30
0.0
 40
14.0
100
AcDbArc
 50
43.66666699999999
 51
76.36666700000001
  0
ARC
  5
445
330
74
100
AcDbEntity
  8
2
  6
PHANTOM
 62
     2
100
AcDbCircle
 10
118.306349
 20
20.007195
 30
0.0
 40
3.5
100
AcDbArc
 50
213.0
 51
256.344444
  0
LINE
  5
446
330
74
100
AcDbEntity
  8
2
  6
PHANTOM
 62
     2
100
AcDbLine
 10
100.506349
 20
9.507194999999999
 30
0.0
 11
92.85634899999999
 21
24.507195
 31
0.0
  0
ARC
  5
447
330
74
100
AcDbEntity
  8
2
  6
PHANTOM
 62
     2
100
AcDbCircle
 10
114.156349
 20
3.007195
 30
0.0
 40
35.0
100
AcDbArc
 50
140.822222
 51
219.355555
  0
ARC
  5
448
330
74
100
AcDbEntity
  8
2
  6
PHANTOM
 62
     2
100
AcDbCircle
 10
89.75634900000001
 20
22.907195
 30
0.0
 40
3.5
100
AcDbArc
 50
26.988889
 51
140.833333
  0
ARC
  5
449
330
74
100
AcDbEntity
  8
2
  6
PHANTOM
 62
     2
100
AcDbCircle
 10
89.75634900000001
 20
-16.892805
 30
0.0
 40
3.5
100
AcDbArc
 50
219.166666
 51
333.011111
  0
LINE
  5
44A
330
74
100
AcDbEntity
  8
2
  6
PHANTOM
 62
     2
100
AcDbLine
 10
100.506349
 20
-3.492805
 30
0.0
 11
92.85634899999999
 21
-18.492805
 31
0.0
  0
ARC
  5
44B
330
74
100
AcDbEntity
  8
2
  6
PHANTOM
 62
     2
100
AcDbCircle
 10
97.356349
 20
-1.892804999999999
 30
0.0
 40
3.5
100
AcDbArc
 50
333.0
 51
16.344444
  0
ARC
  5
44C
330
74
100
AcDbEntity
  8
2
  6
PHANTOM
 62
     2
100
AcDbCircle
 10
114.156349
 20
3.007195
 30
0.0
 40
14.0
100
AcDbArc
 50
163.7
 51
196.3
  0
ARC
  5
44D
330
74
100
AcDbEntity
  8
2
  6
PHANTOM
 62
     2
100
AcDbCircle
 10
97.356349
 20
7.907194999999999
 30
0.0
 40
3.5
100
AcDbArc
 50
343.655555
 51
27.0
  0
ARC
  5
44E
330
74
100
AcDbEntity
  8
2
  6
PHANTOM
 62
     2
100
AcDbCircle
 10
114.156349
 20
3.007195
 30
0.0
 40
35.0
100
AcDbArc
 50
260.822222
 51
339.177777
  0
ARC
  5
44F
330
74
100
AcDbEntity
  8
2
  6
PHANTOM
 62
     2
100
AcDbCircle
 10
143.606349
 20
-8.192804999999999
 30
0.0
 40
3.5
100
AcDbArc
 50
339.166666
 51
93.01111099999999
  0
LINE
  5
450
330
74
100
AcDbEntity
  8
2
  6
PHANTOM
 62
     2
100
AcDbLine
 10
126.656349
 20
-5.592805
 30
0.0
 11
143.406349
 21
-4.692804999999999
 31
0.0
  0
ARC
  5
451
330
74
100
AcDbEntity
  8
2
  6
PHANTOM
 62
     2
100
AcDbCircle
 10
126.806349
 20
-9.092805
 30
0.0
 40
3.5
100
AcDbArc
 50
93.0
 51
136.344444
  0
ARC
  5
452
330
74
100
AcDbEntity
  8
2
  6
PHANTOM
 62
     2
100
AcDbCircle
 10
114.156349
 20
3.007195
 30
0.0
 40
14.0
100
AcDbArc
 50
283.633333
 51
316.333333
  0
ARC
  5
453
330
74
100
AcDbEntity
  8
2
  6
PHANTOM
 62
     2
100
AcDbCircle
 10
118.306349
 20
-13.992805
 30
0.0
 40
3.5
100
AcDbArc
 50
103.655555
 51
147.0
  0
LINE
  5
454
330
74
100
AcDbEntity
  8
2
  6
PHANTOM
 62
     2
100
AcDbLine
 10
115.356349
 20
-12.092805
 30
0.0
 11
106.206349
 21
-26.192805
 31
0.0
  0
ARC
  5
455
330
74
100
AcDbEntity
  8
2
  6
PHANTOM
 62
     2
100
AcDbCircle
 10
109.156349
 20
-28.092805
 30
0.0
 40
3.5
100
AcDbArc
 50
146.988889
 51
260.833333
  0
CIRCLE
  5
456
330
74
100
AcDbEntity
  8
2
  6
PHANTOM
 62
     2
100
AcDbCircle
 10
114.156349
 20
3.007195
 30
0.0
 40
12.0
  0
LINE
  5
457
330
74
100
AcDbEntity
  8
2
100
AcDbLine
 10
-68.704651
 20
23.007195
 30
0.0
 11
-68.704651
 21
-16.992805
 31
0.0
  0
LINE
  5
458
330
74
100
AcDbEntity
  8
2
100
AcDbLine
 10
-70.70465099999999
 20
23.007195
 30
0.0
 11
-68.20465099999999
 21
23.007195
 31
0.0
  0
LINE
  5
459
330
74
100
AcDbEntity
  8
2
100
AcDbLine
 10
-70.70465099999999
 20
-16.992805
 30
0.0
 11
-68.20465099999999
 21
-16.992805
 31
0.0
  0
LINE
  5
45A
330
74
100
AcDbEntity
  8
2
100
AcDbLine
 10
-68.20465099999999
 20
23.007195
 30
0.0
 11
-68.20465099999999
 21
-16.992805
 31
0.0
  0
LINE
  5
45B
330
74
100
AcDbEntity
  8
2
100
AcDbLine
 10
-66.704651
 20
8.007194999999999
 30
0.0
 11
-62.704651
 21
8.007194999999999
 31
0.0
  0
LINE
  5
45C
330
74
100
AcDbEntity
  8
2
100
AcDbLine
 10
-66.704651
 20
3.007195
 30
0.0
 11
-63.195399
 21
3.007195
 31
0.0
  0
ARC
  5
45D
330
74
100
AcDbEntity
  8
2
100
AcDbCircle
 10
-69.317859
 20
5.507194999999999
 30
0.0
 40
6.613208
100
AcDbArc
 50
337.788205
 51
22.211795
  0
LINE
  5
45E
330
74
100
AcDbEntity
  8
2
100
AcDbLine
 10
-66.704651
 20
-1.992804999999999
 30
0.0
 11
-62.704651
 21
-1.992804999999999
 31
0.0
  0
LINE
  5
45F
330
74
100
AcDbEntity
  8
2
100
AcDbLine
 10
-62.704651
 20
-1.992804999999999
 30
0.0
 11
-62.704651
 21
8.007194999999999
 31
0.0
  0
ARC
  5
460
330
74
100
AcDbEntity
  8
2
100
AcDbCircle
 10
-69.317859
 20
0.507195
 30
0.0
 40
6.613208
100
AcDbArc
 50
337.788205
 51
22.211795
  0
LINE
  5
461
330
74
100
AcDbEntity
  8
2
100
AcDbLine
 10
-68.20465099999999
 20
9.107194999999999
 30
0.0
 11
-66.704651
 21
9.107194999999999
 31
0.0
  0
LINE
  5
462
330
74
100
AcDbEntity
  8
2
100
AcDbLine
 10
-66.704651
 20
9.107194999999999
 30
0.0
 11
-66.704651
 21
-3.092804999999999
 31
0.0
  0
LINE
  5
463
330
74
100
AcDbEntity
  8
2
100
AcDbLine
 10
-66.704651
 20
-3.092804999999999
 30
0.0
 11
-68.20465099999999
 21
-3.092804999999999
 31
0.0
  0
LINE
  5
464
330
74
100
AcDbEntity
  8
2
100
AcDbLine
 10
-68.704651
 20
197.677387
 30
0.0
 11
-68.704651
 21
157.677387
 31
0.0
  0
LINE
  5
465
330
74
100
AcDbEntity
  8
2
100
AcDbLine
 10
-70.70465099999999
 20
197.677387
 30
0.0
 11
-68.20465099999999
 21
197.677387
 31
0.0
  0
LINE
  5
466
330
74
100
AcDbEntity
  8
2
100
AcDbLine
 10
-70.70465099999999
 20
157.677387
 30
0.0
 11
-68.20465099999999
 21
157.677387
 31
0.0
  0
LINE
  5
467
330
74
100
AcDbEntity
  8
2
100
AcDbLine
 10
-68.20465099999999
 20
197.677387
 30
0.0
 11
-68.20465099999999
 21
157.677387
 31
0.0
  0
LINE
  5
468
330
74
100
AcDbEntity
  8
2
100
AcDbLine
 10
-66.704651
 20
183.427387
 30
0.0
 11
-63.195399
 21
183.427387
 31
0.0
  0
LINE
  5
469
330
74
100
AcDbEntity
  8
2
100
AcDbLine
 10
-63.195399
 20
183.427387
 30
0.0
 11
-62.704651
 21
182.577387
 31
0.0
  0
LINE
  5
46A
330
74
100
AcDbEntity
  8
2
100
AcDbLine
 10
-62.704651
 20
182.577387
 30
0.0
 11
-62.704651
 21
172.777387
 31
0.0
  0
LINE
  5
46B
330
74
100
AcDbEntity
  8
2
100
AcDbLine
 10
-66.704651
 20
180.552387
 30
0.0
 11
-63.195399
 21
180.552387
 31
0.0
  0
ARC
  5
46C
330
74
100
AcDbEntity
  8
2
100
AcDbCircle
 10
-65.04335400000001
 20
181.989887
 30
0.0
 40
2.341226999999999
100
AcDbArc
 50
322.121121
 51
37.878879
  0
LINE
  5
46D
330
74
100
AcDbEntity
  8
2
100
AcDbLine
 10
-66.704651
 20
171.927387
 30
0.0
 11
-63.195399
 21
171.927387
 31
0.0
  0
LINE
  5
46E
330
74
100
AcDbEntity
  8
2
100
AcDbLine
 10
-63.195399
 20
171.927387
 30
0.0
 11
-62.704651
 21
172.777387
 31
0.0
  0
LINE
  5
46F
330
74
100
AcDbEntity
  8
2
100
AcDbLine
 10
-66.704651
 20
174.802387
 30
0.0
 11
-63.195399
 21
174.802387
 31
0.0
  0
ARC
  5
470
330
74
100
AcDbEntity
  8
2
100
AcDbCircle
 10
-65.04335400000001
 20
173.364887
 30
0.0
 40
2.341226999999999
100
AcDbArc
 50
322.121121
 51
37.878879
  0
ARC
  5
471
330
74
100
AcDbEntity
  8
2
100
AcDbCircle
 10
-71.327127
 20
177.677387
 30
0.0
 40
8.625
100
AcDbArc
 50
340.528779
 51
19.471221
  0
LINE
  5
472
330
74
100
AcDbEntity
  8
2
100
AcDbLine
 10
-68.20465099999999
 20
183.777387
 30
0.0
 11
-66.704651
 21
183.777387
 31
0.0
  0
LINE
  5
473
330
74
100
AcDbEntity
  8
2
100
AcDbLine
 10
-66.704651
 20
183.777387
 30
0.0
 11
-66.704651
 21
171.577387
 31
0.0
  0
LINE
  5
474
330
74
100
AcDbEntity
  8
2
100
AcDbLine
 10
-66.704651
 20
171.577387
 30
0.0
 11
-68.20465099999999
 21
171.577387
 31
0.0
  0
LINE
  5
475
330
74
100
AcDbEntity
  8
2
100
AcDbLine
 10
-66.704651
 20
177.677387
 30
0.0
 11
-68.20465099999999
 21
177.177387
 31
0.0
  0
LINE
  5
476
330
74
100
AcDbEntity
  8
2
100
AcDbLine
 10
-68.20465099999999
 20
177.677387
 30
0.0
 11
-66.704651
 21
178.177387
 31
0.0
  0
LINE
  5
477
330
74
100
AcDbEntity
  8
2
100
AcDbLine
 10
-70.70465099999999
 20
220.177387
 30
0.0
 11
-70.70465099999999
 21
135.177387
 31
0.0
  0
ARC
  5
478
330
74
100
AcDbEntity
  8
2
100
AcDbCircle
 10
-78.20465099999999
 20
220.177387
 30
0.0
 40
7.5
100
AcDbArc
 50
0.0
 51
180.0
  0
LINE
  5
479
330
74
100
AcDbEntity
  8
2
100
AcDbLine
 10
-85.70465099999999
 20
165.677387
 30
0.0
 11
-85.70465099999999
 21
189.677387
 31
0.0
  0
ARC
  5
47A
330
74
100
AcDbEntity
  8
2
100
AcDbCircle
 10
-78.20465099999999
 20
176.614887
 30
0.0
 40
15.0625
100
AcDbArc
 50
113.47446
 51
119.862834
  0
ARC
  5
47B
330
74
100
AcDbEntity
  8
2
100
AcDbCircle
 10
-78.20465099999999
 20
178.739887
 30
0.0
 40
15.0625
100
AcDbArc
 50
240.137166
 51
246.544162
  0
LINE
  5
47C
330
74
100
AcDbEntity
  8
2
100
AcDbLine
 10
-78.20465099999999
 20
174.477504
 30
0.0
 11
-78.20465099999999
 21
180.877271
 31
0.0
  0
LINE
  5
47D
330
74
100
AcDbEntity
  8
2
100
AcDbLine
 10
-84.20465099999999
 20
176.02704
 30
0.0
 11
-84.20465099999999
 21
179.327735
 31
0.0
  0
LINE
  5
47E
330
74
100
AcDbEntity
  8
2
100
AcDbLine
 10
-78.20465099999999
 20
190.025525
 30
0.0
 11
-78.20465099999999
 21
195.8962
 31
0.0
  0
LINE
  5
47F
330
74
100
AcDbEntity
  8
2
100
AcDbLine
 10
-84.20465099999999
 20
189.268325
 30
0.0
 11
-84.20465099999999
 21
195.197112
 31
0.0
  0
ARC
  5
480
330
74
100
AcDbEntity
  8
2
100
AcDbCircle
 10
-78.51233499999999
 20
128.652201
 30
0.0
 40
54.25248199999999
100
AcDbArc
 50
91.85598
 51
97.294014
  0
ARC
  5
481
330
74
100
AcDbEntity
  8
2
100
AcDbCircle
 10
-78.51233499999999
 20
226.702573
 30
0.0
 40
54.25248199999999
100
AcDbArc
 50
262.705986
 51
268.14402
  0
ARC
  5
482
330
74
100
AcDbEntity
  8
2
100
AcDbCircle
 10
-80.204651
 20
180.877271
 30
0.0
 40
2.0
100
AcDbArc
 50
0.0
 51
91.85598
  0
ARC
  5
483
330
74
100
AcDbEntity
  8
2
100
AcDbCircle
 10
-80.204651
 20
174.477504
 30
0.0
 40
2.0
100
AcDbArc
 50
268.14402
 51
0.0
  0
ARC
  5
484
330
74
100
AcDbEntity
  8
2
100
AcDbCircle
 10
-87.204651
 20
179.327735
 30
0.0
 40
3.0
100
AcDbArc
 50
0.0
 51
56.49184399999999
  0
ARC
  5
485
330
74
100
AcDbEntity
  8
2
100
AcDbCircle
 10
-85.356021
 20
182.119847
 30
0.0
 40
0.34863
100
AcDbArc
 50
97.294014
 51
236.491844
  0
ARC
  5
486
330
74
100
AcDbEntity
  8
2
100
AcDbCircle
 10
-87.204651
 20
176.02704
 30
0.0
 40
3.0
100
AcDbArc
 50
303.508156
 51
0.0
  0
ARC
  5
487
330
74
100
AcDbEntity
  8
2
100
AcDbCircle
 10
-85.356021
 20
173.234928
 30
0.0
 40
0.34863
100
AcDbArc
 50
123.508156
 51
262.705986
  0
ARC
  5
488
330
74
100
AcDbEntity
  8
2
100
AcDbCircle
 10
-78.46427
 20
183.36941
 30
0.0
 40
14.64711
100
AcDbArc
 50
97.909628
 51
114.857013
  0
ARC
  5
489
330
74
100
AcDbEntity
  8
2
100
AcDbCircle
 10
-78.502286
 20
160.510433
 30
0.0
 40
27.564145
100
AcDbArc
 50
93.30103599999999
 51
103.87463
  0
ARC
  5
48A
330
74
100
AcDbEntity
  8
2
100
AcDbCircle
 10
-80.204651
 20
190.025525
 30
0.0
 40
2.0
100
AcDbArc
 50
273.301036
 51
0.0
  0
ARC
  5
48B
330
74
100
AcDbEntity
  8
2
100
AcDbCircle
 10
-80.204651
 20
195.8962
 30
0.0
 40
2.0
100
AcDbArc
 50
0.0
 51
97.909628
  0
ARC
  5
48C
330
74
100
AcDbEntity
  8
2
100
AcDbCircle
 10
-83.83558800000001
 20
194.963695
 30
0.0
 40
1.869063
100
AcDbArc
 50
114.857013
 51
226.21672
  0
ARC
  5
48D
330
74
100
AcDbEntity
  8
2
100
AcDbCircle
 10
-84.92520999999999
 20
186.513634
 30
0.0
 40
0.779441
100
AcDbArc
 50
103.87463
 51
180.0
  0
ARC
  5
48E
330
74
100
AcDbEntity
  8
2
100
AcDbCircle
 10
-87.204651
 20
191.448415
 30
0.0
 40
3.0
100
AcDbArc
 50
0.0
 51
46.21672
  0
ARC
  5
48F
330
74
100
AcDbEntity
  8
2
100
AcDbCircle
 10
-86.70465099999999
 20
189.268325
 30
0.0
 40
2.5
100
AcDbArc
 50
302.861145
 51
0.0
  0
ARC
  5
490
330
74
100
AcDbEntity
  8
2
100
AcDbCircle
 10
-78.376451
 20
201.451713
 30
0.0
 40
9.683728999999999
100
AcDbArc
 50
103.764481
 51
126.405649
  0
LINE
  5
491
330
74
100
AcDbEntity
  8
2
100
AcDbLine
 10
-78.20465099999999
 20
204.569504
 30
0.0
 11
-78.20465099999999
 21
208.91478
 31
0.0
  0
ARC
  5
492
330
74
100
AcDbEntity
  8
2
100
AcDbCircle
 10
-78.437963
 20
190.451441
 30
0.0
 40
12.228172
100
AcDbArc
 50
97.13272899999999
 51
119.31396
  0
ARC
  5
493
330
74
100
AcDbEntity
  8
2
100
AcDbCircle
 10
-80.204651
 20
208.91478
 30
0.0
 40
2.0
100
AcDbArc
 50
0.0
 51
103.764481
  0
ARC
  5
494
330
74
100
AcDbEntity
  8
2
100
AcDbCircle
 10
-80.204651
 20
204.569504
 30
0.0
 40
2.0
100
AcDbArc
 50
277.132729
 51
0.0
  0
LINE
  5
495
330
74
100
AcDbEntity
  8
2
100
AcDbLine
 10
-84.20465099999999
 20
201.23446
 30
0.0
 11
-84.20465099999999
 21
207.196754
 31
0.0
  0
ARC
  5
496
330
74
100
AcDbEntity
  8
2
100
AcDbCircle
 10
-81.81555499999999
 20
206.115438
 30
0.0
 40
3.889095999999999
100
AcDbArc
 50
126.405649
 51
218.53161
  0
ARC
  5
497
330
74
100
AcDbEntity
  8
2
100
AcDbCircle
 10
-83.197158
 20
198.927387
 30
0.0
 40
2.507493
100
AcDbArc
 50
119.31396
 51
180.0
  0
ARC
  5
498
330
74
100
AcDbEntity
  8
2
100
AcDbCircle
 10
-87.204651
 20
201.823901
 30
0.0
 40
3.0
100
AcDbArc
 50
0.0
 51
38.53161
  0
LINE
  5
499
330
74
100
AcDbEntity
  8
2
100
AcDbLine
 10
-85.70465099999999
 20
194.963695
 30
0.0
 11
-85.70465099999999
 21
198.927387
 31
0.0
  0
ARC
  5
49A
330
74
100
AcDbEntity
  8
2
100
AcDbCircle
 10
-78.282422
 20
212.85227
 30
0.0
 40
8.126758999999999
100
AcDbArc
 50
102.393185
 51
133.280016
  0
ARC
  5
49B
330
74
100
AcDbEntity
  8
2
100
AcDbCircle
 10
-78.34393399999999
 20
205.856606
 30
0.0
 40
8.979103
100
AcDbArc
 50
97.46095600000002
 51
129.149456
  0
LINE
  5
49C
330
74
100
AcDbEntity
  8
2
100
AcDbLine
 10
-78.20465099999999
 20
216.246988
 30
0.0
 11
-78.20465099999999
 21
219.324612
 31
0.0
  0
LINE
  5
49D
330
74
100
AcDbEntity
  8
2
100
AcDbLine
 10
-78.20465099999999
 20
224.303994
 30
0.0
 11
-78.204664
 21
225.510468
 31
0.0
  0
LINE
  5
49E
330
74
100
AcDbEntity
  8
2
100
AcDbLine
 10
-84.20465099999999
 20
212.654768
 30
0.0
 11
-84.20465099999999
 21
215.825675
 31
0.0
  0
ARC
  5
49F
330
74
100
AcDbEntity
  8
2
100
AcDbCircle
 10
-79.81851
 20
214.483467
 30
0.0
 40
5.886141
100
AcDbArc
 50
133.280016
 51
208.241155
  0
ARC
  5
4A0
330
74
100
AcDbEntity
  8
2
100
AcDbCircle
 10
-81.115527
 20
209.261042
 30
0.0
 40
4.589123999999999
100
AcDbArc
 50
129.149456
 51
180.0
  0
LINE
  5
4A1
330
74
100
AcDbEntity
  8
2
100
AcDbLine
 10
-85.70465099999999
 20
206.115438
 30
0.0
 11
-85.70465099999999
 21
209.261042
 31
0.0
  0
ARC
  5
4A2
330
74
100
AcDbEntity
  8
2
100
AcDbCircle
 10
-78.218098
 20
218.998942
 30
0.0
 40
7.585836999999999
100
AcDbArc
 50
98.61528800000002
 51
136.635861
  0
ARC
  5
4A3
330
74
100
AcDbEntity
  8
2
100
AcDbCircle
 10
-78.256115
 20
215.479792
 30
0.0
 40
7.875035999999999
100
AcDbArc
 50
96.135312
 51
134.747415
  0
ARC
  5
4A4
330
74
100
AcDbEntity
  8
2
100
AcDbCircle
 10
-79.704651
 20
216.246988
 30
0.0
 40
1.5
100
AcDbArc
 50
277.460956
 51
0.0
  0
ARC
  5
4A5
330
74
100
AcDbEntity
  8
2
100
AcDbCircle
 10
-79.704651
 20
219.324612
 30
0.0
 40
1.5
100
AcDbArc
 50
0.0
 51
102.393185
  0
ARC
  5
4A6
330
74
100
AcDbEntity
  8
2
100
AcDbCircle
 10
-79.204651
 20
224.303994
 30
0.0
 40
1.0
100
AcDbArc
 50
276.135312
 51
0.0
  0
ARC
  5
4A7
330
74
100
AcDbEntity
  8
2
100
AcDbCircle
 10
-79.204651
 20
225.510468
 30
0.0
 40
1.0
100
AcDbArc
 50
0.0
 51
98.61528800000002
  0
ARC
  5
4A8
330
74
100
AcDbEntity
  8
2
100
AcDbCircle
 10
-78.482499
 20
219.24866
 30
0.0
 40
7.222152
100
AcDbArc
 50
136.635861
 51
191.281293
  0
ARC
  5
4A9
330
74
100
AcDbEntity
  8
2
100
AcDbCircle
 10
-79.27041
 20
216.503069
 30
0.0
 40
6.434241
100
AcDbArc
 50
134.747415
 51
180.0
  0
LINE
  5
4AA
330
74
100
AcDbEntity
  8
2
100
AcDbLine
 10
-85.70465099999999
 20
214.483467
 30
0.0
 11
-85.70465099999999
 21
216.503069
 31
0.0
  0
LINE
  5
4AB
330
74
100
AcDbEntity
  8
2
100
AcDbLine
 10
-85.70465099999999
 20
219.24866
 30
0.0
 11
-85.70465099999999
 21
220.177387
 31
0.0
  0
ARC
  5
4AC
330
74
100
AcDbEntity
  8
2
100
AcDbCircle
 10
-78.20465099999999
 20
135.177387
 30
0.0
 40
7.5
100
AcDbArc
 50
180.0
 51
0.0
  0
LINE
  5
4AD
330
74
100
AcDbEntity
  8
2
100
AcDbLine
 10
-78.20465099999999
 20
165.329249
 30
0.0
 11
-78.20465099999999
 21
159.458574
 31
0.0
  0
LINE
  5
4AE
330
74
100
AcDbEntity
  8
2
100
AcDbLine
 10
-84.20465099999999
 20
166.0864489999999
 30
0.0
 11
-84.20465099999999
 21
160.157662
 31
0.0
  0
ARC
  5
4AF
330
74
100
AcDbEntity
  8
2
100
AcDbCircle
 10
-78.46427
 20
171.985365
 30
0.0
 40
14.64711
100
AcDbArc
 50
245.142987
 51
262.090372
  0
ARC
  5
4B0
330
74
100
AcDbEntity
  8
2
100
AcDbCircle
 10
-78.502286
 20
194.844341
 30
0.0
 40
27.564145
100
AcDbArc
 50
256.12537
 51
266.698964
  0
ARC
  5
4B1
330
74
100
AcDbEntity
  8
2
100
AcDbCircle
 10
-80.204651
 20
165.329249
 30
0.0
 40
2.0
100
AcDbArc
 50
0.0
 51
86.698964
  0
ARC
  5
4B2
330
74
100
AcDbEntity
  8
2
100
AcDbCircle
 10
-80.204651
 20
159.458574
 30
0.0
 40
2.0
100
AcDbArc
 50
262.090372
 51
0.0
  0
ARC
  5
4B3
330
74
100
AcDbEntity
  8
2
100
AcDbCircle
 10
-83.83558800000001
 20
160.39108
 30
0.0
 40
1.869063
100
AcDbArc
 50
133.78328
 51
245.142987
  0
ARC
  5
4B4
330
74
100
AcDbEntity
  8
2
100
AcDbCircle
 10
-84.92520999999999
 20
168.84114
 30
0.0
 40
0.779441
100
AcDbArc
 50
180.0
 51
256.12537
  0
ARC
  5
4B5
330
74
100
AcDbEntity
  8
2
100
AcDbCircle
 10
-87.204651
 20
163.906359
 30
0.0
 40
3.0
100
AcDbArc
 50
313.78328
 51
0.0
  0
ARC
  5
4B6
330
74
100
AcDbEntity
  8
2
100
AcDbCircle
 10
-86.70465099999999
 20
166.0864489999999
 30
0.0
 40
2.5
100
AcDbArc
 50
0.0
 51
57.138855
  0
ARC
  5
4B7
330
74
100
AcDbEntity
  8
2
100
AcDbCircle
 10
-78.376451
 20
153.903062
 30
0.0
 40
9.683728999999999
100
AcDbArc
 50
233.594351
 51
256.235519
  0
LINE
  5
4B8
330
74
100
AcDbEntity
  8
2
100
AcDbLine
 10
-78.20465099999999
 20
150.785271
 30
0.0
 11
-78.20465099999999
 21
146.439994
 31
0.0
  0
ARC
  5
4B9
330
74
100
AcDbEntity
  8
2
100
AcDbCircle
 10
-78.437963
 20
164.903333
 30
0.0
 40
12.228172
100
AcDbArc
 50
240.68604
 51
262.867271
  0
ARC
  5
4BA
330
74
100
AcDbEntity
  8
2
100
AcDbCircle
 10
-80.204651
 20
146.439994
 30
0.0
 40
2.0
100
AcDbArc
 50
256.235519
 51
0.0
  0
ARC
  5
4BB
330
74
100
AcDbEntity
  8
2
100
AcDbCircle
 10
-80.204651
 20
150.785271
 30
0.0
 40
2.0
100
AcDbArc
 50
0.0
 51
82.867271
  0
LINE
  5
4BC
330
74
100
AcDbEntity
  8
2
100
AcDbLine
 10
-84.20465099999999
 20
154.120314
 30
0.0
 11
-84.20465099999999
 21
148.15802
 31
0.0
  0
ARC
  5
4BD
330
74
100
AcDbEntity
  8
2
100
AcDbCircle
 10
-81.81555499999999
 20
149.239336
 30
0.0
 40
3.889095999999999
100
AcDbArc
 50
141.46839
 51
233.594351
  0
ARC
  5
4BE
330
74
100
AcDbEntity
  8
2
100
AcDbCircle
 10
-83.197158
 20
156.427387
 30
0.0
 40
2.507493
100
AcDbArc
 50
180.0
 51
240.68604
  0
ARC
  5
4BF
330
74
100
AcDbEntity
  8
2
100
AcDbCircle
 10
-87.204651
 20
153.530873
 30
0.0
 40
3.0
100
AcDbArc
 50
321.46839
 51
0.0
  0
LINE
  5
4C0
330
74
100
AcDbEntity
  8
2
100
AcDbLine
 10
-85.70465099999999
 20
160.39108
 30
0.0
 11
-85.70465099999999
 21
156.427387
 31
0.0
  0
ARC
  5
4C1
330
74
100
AcDbEntity
  8
2
100
AcDbCircle
 10
-78.282422
 20
142.502504
 30
0.0
 40
8.126758999999999
100
AcDbArc
 50
226.719984
 51
257.606815
  0
ARC
  5
4C2
330
74
100
AcDbEntity
  8
2
100
AcDbCircle
 10
-78.34393399999999
 20
149.498169
 30
0.0
 40
8.979103
100
AcDbArc
 50
230.850544
 51
262.539044
  0
LINE
  5
4C3
330
74
100
AcDbEntity
  8
2
100
AcDbLine
 10
-78.20465099999999
 20
139.107786
 30
0.0
 11
-78.20465099999999
 21
136.030163
 31
0.0
  0
LINE
  5
4C4
330
74
100
AcDbEntity
  8
2
100
AcDbLine
 10
-78.20465099999999
 20
131.05078
 30
0.0
 11
-78.204664
 21
129.844307
 31
0.0
  0
LINE
  5
4C5
330
74
100
AcDbEntity
  8
2
100
AcDbLine
 10
-84.20465099999999
 20
142.700007
 30
0.0
 11
-84.20465099999999
 21
139.529099
 31
0.0
  0
ARC
  5
4C6
330
74
100
AcDbEntity
  8
2
100
AcDbCircle
 10
-79.81851
 20
140.871308
 30
0.0
 40
5.886141
100
AcDbArc
 50
151.758845
 51
226.719984
  0
ARC
  5
4C7
330
74
100
AcDbEntity
  8
2
100
AcDbCircle
 10
-81.115527
 20
146.093732
 30
0.0
 40
4.589123999999999
100
AcDbArc
 50
180.0
 51
230.850544
  0
LINE
  5
4C8
330
74
100
AcDbEntity
  8
2
100
AcDbLine
 10
-85.70465099999999
 20
149.239336
 30
0.0
 11
-85.70465099999999
 21
146.093732
 31
0.0
  0
ARC
  5
4C9
330
74
100
AcDbEntity
  8
2
100
AcDbCircle
 10
-78.218098
 20
136.355833
 30
0.0
 40
7.585836999999999
100
AcDbArc
 50
223.364139
 51
261.384712
  0
ARC
  5
4CA
330
74
100
AcDbEntity
  8
2
100
AcDbCircle
 10
-78.256115
 20
139.874983
 30
0.0
 40
7.875035999999999
100
AcDbArc
 50
225.252585
 51
263.864688
  0
ARC
  5
4CB
330
74
100
AcDbEntity
  8
2
100
AcDbCircle
 10
-79.704651
 20
139.107786
 30
0.0
 40
1.5
100
AcDbArc
 50
0.0
 51
82.53904399999999
  0
ARC
  5
4CC
330
74
100
AcDbEntity
  8
2
100
AcDbCircle
 10
-79.704651
 20
136.030163
 30
0.0
 40
1.5
100
AcDbArc
 50
257.606815
 51
0.0
  0
ARC
  5
4CD
330
74
100
AcDbEntity
  8
2
100
AcDbCircle
 10
-79.204651
 20
131.05078
 30
0.0
 40
1.0
100
AcDbArc
 50
0.0
 51
83.86468800000001
  0
ARC
  5
4CE
330
74
100
AcDbEntity
  8
2
100
AcDbCircle
 10
-79.204651
 20
129.844307
 30
0.0
 40
1.0
100
AcDbArc
 50
261.384712
 51
0.0
  0
ARC
  5
4CF
330
74
100
AcDbEntity
  8
2
100
AcDbCircle
 10
-78.482499
 20
136.106114
 30
0.0
 40
7.222152
100
AcDbArc
 50
168.718707
 51
223.364139
  0
ARC
  5
4D0
330
74
100
AcDbEntity
  8
2
100
AcDbCircle
 10
-79.27041
 20
138.851705
 30
0.0
 40
6.434241
100
AcDbArc
 50
180.0
 51
225.252585
  0
LINE
  5
4D1
330
74
100
AcDbEntity
  8
2
100
AcDbLine
 10
-85.70465099999999
 20
140.871308
 30
0.0
 11
-85.70465099999999
 21
138.851705
 31
0.0
  0
LINE
  5
4D2
330
74
100
AcDbEntity
  8
2
100
AcDbLine
 10
-85.70465099999999
 20
136.106114
 30
0.0
 11
-85.70465099999999
 21
135.177387
 31
0.0
  0
LINE
  5
4D3
330
74
100
AcDbEntity
  8
2
100
AcDbLine
 10
-70.70465099999999
 20
45.507195
 30
0.0
 11
-70.70465099999999
 21
-39.492805
 31
0.0
  0
ARC
  5
4D4
330
74
100
AcDbEntity
  8
2
100
AcDbCircle
 10
-78.20465099999999
 20
45.507195
 30
0.0
 40
7.5
100
AcDbArc
 50
0.0
 51
180.0
  0
LINE
  5
4D5
330
74
100
AcDbEntity
  8
2
100
AcDbLine
 10
-85.70465099999999
 20
-8.992805
 30
0.0
 11
-85.70465099999999
 21
15.007195
 31
0.0
  0
ARC
  5
4D6
330
74
100
AcDbEntity
  8
2
100
AcDbCircle
 10
-78.20465099999999
 20
1.944695
 30
0.0
 40
15.0625
100
AcDbArc
 50
113.47446
 51
119.862834
  0
ARC
  5
4D7
330
74
100
AcDbEntity
  8
2
100
AcDbCircle
 10
-78.20465099999999
 20
4.069694999999999
 30
0.0
 40
15.0625
100
AcDbArc
 50
240.137166
 51
246.544162
  0
LINE
  5
4D8
330
74
100
AcDbEntity
  8
2
100
AcDbLine
 10
-78.20465099999999
 20
-0.192689
 30
0.0
 11
-78.20465099999999
 21
6.207078
 31
0.0
  0
LINE
  5
4D9
330
74
100
AcDbEntity
  8
2
100
AcDbLine
 10
-84.20465099999999
 20
1.356846999999999
 30
0.0
 11
-84.20465099999999
 21
4.657541999999999
 31
0.0
  0
LINE
  5
4DA
330
74
100
AcDbEntity
  8
2
100
AcDbLine
 10
-78.20465099999999
 20
15.355333
 30
0.0
 11
-78.20465099999999
 21
21.226008
 31
0.0
  0
LINE
  5
4DB
330
74
100
AcDbEntity
  8
2
100
AcDbLine
 10
-84.20465099999999
 20
14.598132
 30
0.0
 11
-84.20465099999999
 21
20.526919
 31
0.0
  0
ARC
  5
4DC
330
74
100
AcDbEntity
  8
2
100
AcDbCircle
 10
-78.51233499999999
 20
-46.017992
 30
0.0
 40
54.25248199999999
100
AcDbArc
 50
91.85598
 51
97.294014
  0
ARC
  5
4DD
330
74
100
AcDbEntity
  8
2
100
AcDbCircle
 10
-78.51233499999999
 20
52.032381
 30
0.0
 40
54.25248199999999
100
AcDbArc
 50
262.705986
 51
268.14402
  0
ARC
  5
4DE
330
74
100
AcDbEntity
  8
2
100
AcDbCircle
 10
-80.204651
 20
6.207078
 30
0.0
 40
2.0
100
AcDbArc
 50
0.0
 51
91.85598
  0
ARC
  5
4DF
330
74
100
AcDbEntity
  8
2
100
AcDbCircle
 10
-80.204651
 20
-0.192689
 30
0.0
 40
2.0
100
AcDbArc
 50
268.14402
 51
0.0
  0
ARC
  5
4E0
330
74
100
AcDbEntity
  8
2
100
AcDbCircle
 10
-87.204651
 20
4.657541999999999
 30
0.0
 40
3.0
100
AcDbArc
 50
0.0
 51
56.49184399999999
  0
ARC
  5
4E1
330
74
100
AcDbEntity
  8
2
100
AcDbCircle
 10
-85.356021
 20
7.449653999999999
 30
0.0
 40
0.34863
100
AcDbArc
 50
97.294014
 51
236.491844
  0
ARC
  5
4E2
330
74
100
AcDbEntity
  8
2
100
AcDbCircle
 10
-87.204651
 20
1.356846999999999
 30
0.0
 40
3.0
100
AcDbArc
 50
303.508156
 51
0.0
  0
ARC
  5
4E3
330
74
100
AcDbEntity
  8
2
100
AcDbCircle
 10
-85.356021
 20
-1.435265
 30
0.0
 40
0.34863
100
AcDbArc
 50
123.508156
 51
262.705986
  0
ARC
  5
4E4
330
74
100
AcDbEntity
  8
2
100
AcDbCircle
 10
-78.46427
 20
8.699216999999999
 30
0.0
 40
14.64711
100
AcDbArc
 50
97.909628
 51
114.857013
  0
ARC
  5
4E5
330
74
100
AcDbEntity
  8
2
100
AcDbCircle
 10
-78.502286
 20
-14.159759
 30
0.0
 40
27.564145
100
AcDbArc
 50
93.30103599999999
 51
103.87463
  0
ARC
  5
4E6
330
74
100
AcDbEntity
  8
2
100
AcDbCircle
 10
-80.204651
 20
15.355333
 30
0.0
 40
2.0
100
AcDbArc
 50
273.301036
 51
0.0
  0
ARC
  5
4E7
330
74
100
AcDbEntity
  8
2
100
AcDbCircle
 10
-80.204651
 20
21.226008
 30
0.0
 40
2.0
100
AcDbArc
 50
0.0
 51
97.909628
  0
ARC
  5
4E8
330
74
100
AcDbEntity
  8
2
100
AcDbCircle
 10
-83.83558800000001
 20
20.293502
 30
0.0
 40
1.869063
100
AcDbArc
 50
114.857013
 51
226.21672
  0
ARC
  5
4E9
330
74
100
AcDbEntity
  8
2
100
AcDbCircle
 10
-84.92520999999999
 20
11.843441
 30
0.0
 40
0.779441
100
AcDbArc
 50
103.87463
 51
180.0
  0
ARC
  5
4EA
330
74
100
AcDbEntity
  8
2
100
AcDbCircle
 10
-87.204651
 20
16.778222
 30
0.0
 40
3.0
100
AcDbArc
 50
0.0
 51
46.21672
  0
ARC
  5
4EB
330
74
100
AcDbEntity
  8
2
100
AcDbCircle
 10
-86.70465099999999
 20
14.598132
 30
0.0
 40
2.5
100
AcDbArc
 50
302.861145
 51
0.0
  0
ARC
  5
4EC
330
74
100
AcDbEntity
  8
2
100
AcDbCircle
 10
-78.376451
 20
26.78152
 30
0.0
 40
9.683728999999999
100
AcDbArc
 50
103.764481
 51
126.405649
  0
LINE
  5
4ED
330
74
100
AcDbEntity
  8
2
100
AcDbLine
 10
-78.20465099999999
 20
29.899311
 30
0.0
 11
-78.20465099999999
 21
34.24458700000001
 31
0.0
  0
ARC
  5
4EE
330
74
100
AcDbEntity
  8
2
100
AcDbCircle
 10
-78.437963
 20
15.781248
 30
0.0
 40
12.228172
100
AcDbArc
 50
97.13272899999999
 51
119.31396
  0
ARC
  5
4EF
330
74
100
AcDbEntity
  8
2
100
AcDbCircle
 10
-80.204651
 20
34.24458700000001
 30
0.0
 40
2.0
100
AcDbArc
 50
0.0
 51
103.764481
  0
ARC
  5
4F0
330
74
100
AcDbEntity
  8
2
100
AcDbCircle
 10
-80.204651
 20
29.899311
 30
0.0
 40
2.0
100
AcDbArc
 50
277.132729
 51
0.0
  0
LINE
  5
4F1
330
74
100
AcDbEntity
  8
2
100
AcDbLine
 10
-84.20465099999999
 20
26.564268
 30
0.0
 11
-84.20465099999999
 21
32.526561
 31
0.0
  0
ARC
  5
4F2
330
74
100
AcDbEntity
  8
2
100
AcDbCircle
 10
-81.81555499999999
 20
31.445245
 30
0.0
 40
3.889095999999999
100
AcDbArc
 50
126.405649
 51
218.53161
  0
ARC
  5
4F3
330
74
100
AcDbEntity
  8
2
100
AcDbCircle
 10
-83.197158
 20
24.257195
 30
0.0
 40
2.507493
100
AcDbArc
 50
119.31396
 51
180.0
  0
ARC
  5
4F4
330
74
100
AcDbEntity
  8
2
100
AcDbCircle
 10
-87.204651
 20
27.153709
 30
0.0
 40
3.0
100
AcDbArc
 50
0.0
 51
38.53161
  0
LINE
  5
4F5
330
74
100
AcDbEntity
  8
2
100
AcDbLine
 10
-85.70465099999999
 20
20.293502
 30
0.0
 11
-85.70465099999999
 21
24.257195
 31
0.0
  0
ARC
  5
4F6
330
74
100
AcDbEntity
  8
2
100
AcDbCircle
 10
-78.282422
 20
38.18207800000001
 30
0.0
 40
8.126758999999999
100
AcDbArc
 50
102.393185
 51
133.280016
  0
ARC
  5
4F7
330
74
100
AcDbEntity
  8
2
100
AcDbCircle
 10
-78.34393399999999
 20
31.186413
 30
0.0
 40
8.979103
100
AcDbArc
 50
97.46095600000002
 51
129.149456
  0
LINE
  5
4F8
330
74
100
AcDbEntity
  8
2
100
AcDbLine
 10
-78.20465099999999
 20
41.576796
 30
0.0
 11
-78.20465099999999
 21
44.654419
 31
0.0
  0
LINE
  5
4F9
330
74
100
AcDbEntity
  8
2
100
AcDbLine
 10
-78.20465099999999
 20
49.633802
 30
0.0
 11
-78.204664
 21
50.840275
 31
0.0
  0
LINE
  5
4FA
330
74
100
AcDbEntity
  8
2
100
AcDbLine
 10
-84.20465099999999
 20
37.984575
 30
0.0
 11
-84.20465099999999
 21
41.155483
 31
0.0
  0
ARC
  5
4FB
330
74
100
AcDbEntity
  8
2
100
AcDbCircle
 10
-79.81851
 20
39.813274
 30
0.0
 40
5.886141
100
AcDbArc
 50
133.280016
 51
208.241155
  0
ARC
  5
4FC
330
74
100
AcDbEntity
  8
2
100
AcDbCircle
 10
-81.115527
 20
34.59085
 30
0.0
 40
4.589123999999999
100
AcDbArc
 50
129.149456
 51
180.0
  0
LINE
  5
4FD
330
74
100
AcDbEntity
  8
2
100
AcDbLine
 10
-85.70465099999999
 20
31.445245
 30
0.0
 11
-85.70465099999999
 21
34.59085
 31
0.0
  0
ARC
  5
4FE
330
74
100
AcDbEntity
  8
2
100
AcDbCircle
 10
-78.218098
 20
44.328749
 30
0.0
 40
7.585836999999999
100
AcDbArc
 50
98.61528800000002
 51
136.635861
  0
ARC
  5
4FF
330
74
100
AcDbEntity
  8
2
100
AcDbCircle
 10
-78.256115
 20
40.80959899999999
 30
0.0
 40
7.875035999999999
100
AcDbArc
 50
96.135312
 51
134.747415
  0
ARC
  5
500
330
74
100
AcDbEntity
  8
2
100
AcDbCircle
 10
-79.704651
 20
41.576796
 30
0.0
 40
1.5
100
AcDbArc
 50
277.460956
 51
0.0
  0
ARC
  5
501
330
74
100
AcDbEntity
  8
2
100
AcDbCircle
 10
-79.704651
 20
44.654419
 30
0.0
 40
1.5
100
AcDbArc
 50
0.0
 51
102.393185
  0
ARC
  5
502
330
74
100
AcDbEntity
  8
2
100
AcDbCircle
 10
-79.204651
 20
49.633802
 30
0.0
 40
1.0
100
AcDbArc
 50
276.135312
 51
0.0
  0
ARC
  5
503
330
74
100
AcDbEntity
  8
2
100
AcDbCircle
 10
-79.204651
 20
50.840275
 30
0.0
 40
1.0
100
AcDbArc
 50
0.0
 51
98.61528800000002
  0
ARC
  5
504
330
74
100
AcDbEntity
  8
2
100
AcDbCircle
 10
-78.482499
 20
44.578468
 30
0.0
 40
7.222152
100
AcDbArc
 50
136.635861
 51
191.281293
  0
ARC
  5
505
330
74
100
AcDbEntity
  8
2
100
AcDbCircle
 10
-79.27041
 20
41.83287599999999
 30
0.0
 40
6.434241
100
AcDbArc
 50
134.747415
 51
180.0
  0
LINE
  5
506
330
74
100
AcDbEntity
  8
2
100
AcDbLine
 10
-85.70465099999999
 20
39.813274
 30
0.0
 11
-85.70465099999999
 21
41.83287599999999
 31
0.0
  0
LINE
  5
507
330
74
100
AcDbEntity
  8
2
100
AcDbLine
 10
-85.70465099999999
 20
44.578468
 30
0.0
 11
-85.70465099999999
 21
45.507195
 31
0.0
  0
ARC
  5
508
330
74
100
AcDbEntity
  8
2
100
AcDbCircle
 10
-78.20465099999999
 20
-39.492805
 30
0.0
 40
7.5
100
AcDbArc
 50
180.0
 51
0.0
  0
LINE
  5
509
330
74
100
AcDbEntity
  8
2
100
AcDbLine
 10
-78.20465099999999
 20
-9.340942999999999
 30
0.0
 11
-78.20465099999999
 21
-15.211619
 31
0.0
  0
LINE
  5
50A
330
74
100
AcDbEntity
  8
2
100
AcDbLine
 10
-84.20465099999999
 20
-8.583743
 30
0.0
 11
-84.20465099999999
 21
-14.51253
 31
0.0
  0
ARC
  5
50B
330
74
100
AcDbEntity
  8
2
100
AcDbCircle
 10
-78.46427
 20
-2.684827999999999
 30
0.0
 40
14.64711
100
AcDbArc
 50
245.142987
 51
262.090372
  0
ARC
  5
50C
330
74
100
AcDbEntity
  8
2
100
AcDbCircle
 10
-78.502286
 20
20.174148
 30
0.0
 40
27.564145
100
AcDbArc
 50
256.12537
 51
266.698964
  0
ARC
  5
50D
330
74
100
AcDbEntity
  8
2
100
AcDbCircle
 10
-80.204651
 20
-9.340942999999999
 30
0.0
 40
2.0
100
AcDbArc
 50
0.0
 51
86.698964
  0
ARC
  5
50E
330
74
100
AcDbEntity
  8
2
100
AcDbCircle
 10
-80.204651
 20
-15.211619
 30
0.0
 40
2.0
100
AcDbArc
 50
262.090372
 51
0.0
  0
ARC
  5
50F
330
74
100
AcDbEntity
  8
2
100
AcDbCircle
 10
-83.83558800000001
 20
-14.279113
 30
0.0
 40
1.869063
100
AcDbArc
 50
133.78328
 51
245.142987
  0
ARC
  5
510
330
74
100
AcDbEntity
  8
2
100
AcDbCircle
 10
-84.92520999999999
 20
-5.829051999999999
 30
0.0
 40
0.779441
100
AcDbArc
 50
180.0
 51
256.12537
  0
ARC
  5
511
330
74
100
AcDbEntity
  8
2
100
AcDbCircle
 10
-87.204651
 20
-10.763833
 30
0.0
 40
3.0
100
AcDbArc
 50
313.78328
 51
0.0
  0
ARC
  5
512
330
74
100
AcDbEntity
  8
2
100
AcDbCircle
 10
-86.70465099999999
 20
-8.583743
 30
0.0
 40
2.5
100
AcDbArc
 50
0.0
 51
57.138855
  0
ARC
  5
513
330
74
100
AcDbEntity
  8
2
100
AcDbCircle
 10
-78.376451
 20
-20.767131
 30
0.0
 40
9.683728999999999
100
AcDbArc
 50
233.594351
 51
256.235519
  0
LINE
  5
514
330
74
100
AcDbEntity
  8
2
100
AcDbLine
 10
-78.20465099999999
 20
-23.884922
 30
0.0
 11
-78.20465099999999
 21
-28.230198
 31
0.0
  0
ARC
  5
515
330
74
100
AcDbEntity
  8
2
100
AcDbCircle
 10
-78.437963
 20
-9.766859
 30
0.0
 40
12.228172
100
AcDbArc
 50
240.68604
 51
262.867271
  0
ARC
  5
516
330
74
100
AcDbEntity
  8
2
100
AcDbCircle
 10
-80.204651
 20
-28.230198
 30
0.0
 40
2.0
100
AcDbArc
 50
256.235519
 51
0.0
  0
ARC
  5
517
330
74
100
AcDbEntity
  8
2
100
AcDbCircle
 10
-80.204651
 20
-23.884922
 30
0.0
 40
2.0
100
AcDbArc
 50
0.0
 51
82.867271
  0
LINE
  5
518
330
74
100
AcDbEntity
  8
2
100
AcDbLine
 10
-84.20465099999999
 20
-20.549878
 30
0.0
 11
-84.20465099999999
 21
-26.512172
 31
0.0
  0
ARC
  5
519
330
74
100
AcDbEntity
  8
2
100
AcDbCircle
 10
-81.81555499999999
 20
-25.430856
 30
0.0
 40
3.889095999999999
100
AcDbArc
 50
141.46839
 51
233.594351
  0
ARC
  5
51A
330
74
100
AcDbEntity
  8
2
100
AcDbCircle
 10
-83.197158
 20
-18.242805
 30
0.0
 40
2.507493
100
AcDbArc
 50
180.0
 51
240.68604
  0
ARC
  5
51B
330
74
100
AcDbEntity
  8
2
100
AcDbCircle
 10
-87.204651
 20
-21.13932
 30
0.0
 40
3.0
100
AcDbArc
 50
321.46839
 51
0.0
  0
LINE
  5
51C
330
74
100
AcDbEntity
  8
2
100
AcDbLine
 10
-85.70465099999999
 20
-14.279113
 30
0.0
 11
-85.70465099999999
 21
-18.242805
 31
0.0
  0
ARC
  5
51D
330
74
100
AcDbEntity
  8
2
100
AcDbCircle
 10
-78.282422
 20
-32.167689
 30
0.0
 40
8.126758999999999
100
AcDbArc
 50
226.719984
 51
257.606815
  0
ARC
  5
51E
330
74
100
AcDbEntity
  8
2
100
AcDbCircle
 10
-78.34393399999999
 20
-25.172024
 30
0.0
 40
8.979103
100
AcDbArc
 50
230.850544
 51
262.539044
  0
LINE
  5
51F
330
74
100
AcDbEntity
  8
2
100
AcDbLine
 10
-78.20465099999999
 20
-35.562407
 30
0.0
 11
-78.20465099999999
 21
-38.64003
 31
0.0
  0
LINE
  5
520
330
74
100
AcDbEntity
  8
2
100
AcDbLine
 10
-78.20465099999999
 20
-43.619413
 30
0.0
 11
-78.204664
 21
-44.82588599999999
 31
0.0
  0
LINE
  5
521
330
74
100
AcDbEntity
  8
2
100
AcDbLine
 10
-84.20465099999999
 20
-31.970186
 30
0.0
 11
-84.20465099999999
 21
-35.14109400000001
 31
0.0
  0
ARC
  5
522
330
74
100
AcDbEntity
  8
2
100
AcDbCircle
 10
-79.81851
 20
-33.798885
 30
0.0
 40
5.886141
100
AcDbArc
 50
151.758845
 51
226.719984
  0
ARC
  5
523
330
74
100
AcDbEntity
  8
2
100
AcDbCircle
 10
-81.115527
 20
-28.576461
 30
0.0
 40
4.589123999999999
100
AcDbArc
 50
180.0
 51
230.850544
  0
LINE
  5
524
330
74
100
AcDbEntity
  8
2
100
AcDbLine
 10
-85.70465099999999
 20
-25.430856
 30
0.0
 11
-85.70465099999999
 21
-28.576461
 31
0.0
  0
ARC
  5
525
330
74
100
AcDbEntity
  8
2
100
AcDbCircle
 10
-78.218098
 20
-38.31436
 30
0.0
 40
7.585836999999999
100
AcDbArc
 50
223.364139
 51
261.384712
  0
ARC
  5
526
330
74
100
AcDbEntity
  8
2
100
AcDbCircle
 10
-78.256115
 20
-34.79521
 30
0.0
 40
7.875035999999999
100
AcDbArc
 50
225.252585
 51
263.864688
  0
ARC
  5
527
330
74
100
AcDbEntity
  8
2
100
AcDbCircle
 10
-79.704651
 20
-35.562407
 30
0.0
 40
1.5
100
AcDbArc
 50
0.0
 51
82.53904399999999
  0
ARC
  5
528
330
74
100
AcDbEntity
  8
2
100
AcDbCircle
 10
-79.704651
 20
-38.64003
 30
0.0
 40
1.5
100
AcDbArc
 50
257.606815
 51
0.0
  0
ARC
  5
529
330
74
100
AcDbEntity
  8
2
100
AcDbCircle
 10
-79.204651
 20
-43.619413
 30
0.0
 40
1.0
100
AcDbArc
 50
0.0
 51
83.86468800000001
  0
ARC
  5
52A
330
74
100
AcDbEntity
  8
2
100
AcDbCircle
 10
-79.204651
 20
-44.82588599999999
 30
0.0
 40
1.0
100
AcDbArc
 50
261.384712
 51
0.0
  0
ARC
  5
52B
330
74
100
AcDbEntity
  8
2
100
AcDbCircle
 10
-78.482499
 20
-38.564078
 30
0.0
 40
7.222152
100
AcDbArc
 50
168.718707
 51
223.364139
  0
ARC
  5
52C
330
74
100
AcDbEntity
  8
2
100
AcDbCircle
 10
-79.27041
 20
-35.818487
 30
0.0
 40
6.434241
100
AcDbArc
 50
180.0
 51
225.252585
  0
LINE
  5
52D
330
74
100
AcDbEntity
  8
2
100
AcDbLine
 10
-85.70465099999999
 20
-33.798885
 30
0.0
 11
-85.70465099999999
 21
-35.818487
 31
0.0
  0
LINE
  5
52E
330
74
100
AcDbEntity
  8
2
100
AcDbLine
 10
-85.70465099999999
 20
-38.564078
 30
0.0
 11
-85.70465099999999
 21
-39.492805
 31
0.0
  0
ARC
  5
52F
330
74
100
AcDbEntity
  8
2
100
AcDbCircle
 10
-199.886469
 20
138.791113
 30
0.0
 40
1.0
100
AcDbArc
 50
105.82662
 51
172.790936
  0
ARC
  5
530
330
74
100
AcDbEntity
  8
2
100
AcDbCircle
 10
-199.886469
 20
144.563661
 30
0.0
 40
1.0
100
AcDbArc
 50
187.209064
 51
254.17338
  0
CIRCLE
  5
531
330
74
100
AcDbEntity
  8
2
 62
     2
100
AcDbCircle
 10
-211.704651
 20
3.007195
 30
0.0
 40
2.459
  0
CIRCLE
  5
532
330
74
100
AcDbEntity
  8
2
100
AcDbCircle
 10
-211.704651
 20
3.007195
 30
0.0
 40
4.9
  0
CIRCLE
  5
533
330
74
100
AcDbEntity
  8
2
100
AcDbCircle
 10
-211.704651
 20
3.007195
 30
0.0
 40
3.0
  0
LINE
  5
534
330
74
100
AcDbEntity
  8
2
100
AcDbLine
 10
-208.8179
 20
8.007194999999999
 30
0.0
 11
-214.591402
 21
8.007194999999999
 31
0.0
  0
LINE
  5
535
330
74
100
AcDbEntity
  8
2
100
AcDbLine
 10
-208.8179
 20
-1.992804999999999
 30
0.0
 11
-214.591402
 21
-1.992804999999999
 31
0.0
  0
LINE
  5
536
330
74
100
AcDbEntity
  8
2
100
AcDbLine
 10
-214.591402
 20
8.007194999999999
 30
0.0
 11
-217.478154
 21
3.007195
 31
0.0
  0
LINE
  5
537
330
74
100
AcDbEntity
  8
2
100
AcDbLine
 10
-205.931148
 20
3.007195
 30
0.0
 11
-208.8179
 21
-1.992804999999999
 31
0.0
  0
LINE
  5
538
330
74
100
AcDbEntity
  8
2
100
AcDbLine
 10
-217.478154
 20
3.007195
 30
0.0
 11
-214.591402
 21
-1.992804999999999
 31
0.0
  0
LINE
  5
539
330
74
100
AcDbEntity
  8
2
100
AcDbLine
 10
-208.8179
 20
8.007194999999999
 30
0.0
 11
-205.931148
 21
3.007195
 31
0.0
  0
LINE
  5
53A
330
74
100
AcDbEntity
  8
2
100
AcDbLine
 10
-213.204651
 20
2.141168999999999
 30
0.0
 11
-213.204651
 21
3.873219999999999
 31
0.0
  0
LINE
  5
53B
330
74
100
AcDbEntity
  8
2
100
AcDbLine
 10
-210.204651
 20
2.141168999999999
 30
0.0
 11
-210.204651
 21
3.873219999999999
 31
0.0
  0
LINE
  5
53C
330
74
100
AcDbEntity
  8
2
100
AcDbLine
 10
-210.204651
 20
3.873219999999999
 30
0.0
 11
-211.704651
 21
4.739244999999999
 31
0.0
  0
LINE
  5
53D
330
74
100
AcDbEntity
  8
2
100
AcDbLine
 10
-211.704651
 20
1.275144
 30
0.0
 11
-213.204651
 21
2.141168999999999
 31
0.0
  0
LINE
  5
53E
330
74
100
AcDbEntity
  8
2
100
AcDbLine
 10
-210.204651
 20
2.141168999999999
 30
0.0
 11
-211.704651
 21
1.275144
 31
0.0
  0
LINE
  5
53F
330
74
100
AcDbEntity
  8
2
100
AcDbLine
 10
-211.704651
 20
4.739244999999999
 30
0.0
 11
-213.204651
 21
3.873219999999999
 31
0.0
  0
CIRCLE
  5
540
330
74
100
AcDbEntity
  8
2
 62
     2
100
AcDbCircle
 10
-233.704651
 20
3.007195
 30
0.0
 40
2.459
  0
CIRCLE
  5
541
330
74
100
AcDbEntity
  8
2
100
AcDbCircle
 10
-233.704651
 20
3.007195
 30
0.0
 40
4.9
  0
CIRCLE
  5
542
330
74
100
AcDbEntity
  8
2
100
AcDbCircle
 10
-233.704651
 20
3.007195
 30
0.0
 40
3.0
  0
LINE
  5
543
330
74
100
AcDbEntity
  8
2
100
AcDbLine
 10
-236.591402
 20
8.007194999999999
 30
0.0
 11
-230.8179
 21
8.007194999999999
 31
0.0
  0
LINE
  5
544
330
74
100
AcDbEntity
  8
2
100
AcDbLine
 10
-236.591402
 20
-1.992804999999999
 30
0.0
 11
-230.8179
 21
-1.992804999999999
 31
0.0
  0
LINE
  5
545
330
74
100
AcDbEntity
  8
2
100
AcDbLine
 10
-230.8179
 20
8.007194999999999
 30
0.0
 11
-227.931148
 21
3.007195
 31
0.0
  0
LINE
  5
546
330
74
100
AcDbEntity
  8
2
100
AcDbLine
 10
-239.478154
 20
3.007195
 30
0.0
 11
-236.591402
 21
-1.992804999999999
 31
0.0
  0
LINE
  5
547
330
74
100
AcDbEntity
  8
2
100
AcDbLine
 10
-227.931148
 20
3.007195
 30
0.0
 11
-230.8179
 21
-1.992804999999999
 31
0.0
  0
LINE
  5
548
330
74
100
AcDbEntity
  8
2
100
AcDbLine
 10
-236.591402
 20
8.007194999999999
 30
0.0
 11
-239.478154
 21
3.007195
 31
0.0
  0
LINE
  5
549
330
74
100
AcDbEntity
  8
2
100
AcDbLine
 10
-232.204651
 20
2.141168999999999
 30
0.0
 11
-232.204651
 21
3.873219999999999
 31
0.0
  0
LINE
  5
54A
330
74
100
AcDbEntity
  8
2
100
AcDbLine
 10
-235.204651
 20
2.141168999999999
 30
0.0
 11
-235.204651
 21
3.873219999999999
 31
0.0
  0
LINE
  5
54B
330
74
100
AcDbEntity
  8
2
100
AcDbLine
 10
-235.204651
 20
3.873219999999999
 30
0.0
 11
-233.704651
 21
4.739244999999999
 31
0.0
  0
LINE
  5
54C
330
74
100
AcDbEntity
  8
2
100
AcDbLine
 10
-233.704651
 20
1.275144
 30
0.0
 11
-232.204651
 21
2.141168999999999
 31
0.0
  0
LINE
  5
54D
330
74
100
AcDbEntity
  8
2
100
AcDbLine
 10
-235.204651
 20
2.141168999999999
 30
0.0
 11
-233.704651
 21
1.275144
 31
0.0
  0
LINE
  5
54E
330
74
100
AcDbEntity
  8
2
100
AcDbLine
 10
-233.704651
 20
4.739244999999999
 30
0.0
 11
-232.204651
 21
3.873219999999999
 31
0.0
  0
LINE
  5
54F
330
74
100
AcDbEntity
  8
2
100
AcDbLine
 10
-205.954651
 20
103.18664
 30
0.0
 11
-205.954651
 21
100.568135
 31
0.0
  0
LINE
  5
550
330
74
100
AcDbEntity
  8
2
100
AcDbLine
 10
-205.954651
 20
100.568135
 30
0.0
 11
-206.804651
 21
100.077387
 31
0.0
  0
LINE
  5
551
330
74
100
AcDbEntity
  8
2
100
AcDbLine
 10
-208.829651
 20
103.18664
 30
0.0
 11
-208.829651
 21
100.568135
 31
0.0
  0
ARC
  5
552
330
74
100
AcDbEntity
  8
2
100
AcDbCircle
 10
-207.392151
 20
102.41609
 30
0.0
 40
2.341226999999999
100
AcDbArc
 50
232.121121
 51
307.878879
  0
ARC
  5
553
330
74
100
AcDbEntity
  8
2
100
AcDbCircle
 10
-211.704651
 20
108.699863
 30
0.0
 40
8.625
100
AcDbArc
 50
250.528777
 51
289.471219
  0
LINE
  5
554
330
74
100
AcDbEntity
  8
2
100
AcDbLine
 10
-217.454651
 20
103.18664
 30
0.0
 11
-217.454651
 21
100.568135
 31
0.0
  0
LINE
  5
555
330
74
100
AcDbEntity
  8
2
100
AcDbLine
 10
-217.454651
 20
100.568135
 30
0.0
 11
-216.604651
 21
100.077387
 31
0.0
  0
LINE
  5
556
330
74
100
AcDbEntity
  8
2
100
AcDbLine
 10
-216.604651
 20
100.077387
 30
0.0
 11
-206.804651
 21
100.077387
 31
0.0
  0
LINE
  5
557
330
74
100
AcDbEntity
  8
2
100
AcDbLine
 10
-214.579651
 20
103.18664
 30
0.0
 11
-214.579651
 21
100.568135
 31
0.0
  0
ARC
  5
558
330
74
100
AcDbEntity
  8
2
100
AcDbCircle
 10
-216.017151
 20
102.41609
 30
0.0
 40
2.341226999999999
100
AcDbArc
 50
232.121121
 51
307.878879
  0
ARC
  5
559
330
74
100
AcDbEntity
  8
2
100
AcDbCircle
 10
-207.392151
 20
101.338685
 30
0.0
 40
2.341226999999999
100
AcDbArc
 50
52.121121
 51
127.878879
  0
ARC
  5
55A
330
74
100
AcDbEntity
  8
2
100
AcDbCircle
 10
-211.704651
 20
95.05491199999999
 30
0.0
 40
8.625
100
AcDbArc
 50
70.528781
 51
109.471223
  0
ARC
  5
55B
330
74
100
AcDbEntity
  8
2
100
AcDbCircle
 10
-216.017151
 20
101.338685
 30
0.0
 40
2.341226999999999
100
AcDbArc
 50
52.121121
 51
127.878879
  0
LINE
  5
55C
330
74
100
AcDbEntity
  8
2
100
AcDbLine
 10
-217.454651
 20
103.18664
 30
0.0
 11
-216.604651
 21
103.677387
 31
0.0
  0
LINE
  5
55D
330
74
100
AcDbEntity
  8
2
100
AcDbLine
 10
-205.954651
 20
103.18664
 30
0.0
 11
-206.804651
 21
103.677387
 31
0.0
  0
LINE
  5
55E
330
74
100
AcDbEntity
  8
2
100
AcDbLine
 10
-214.163651
 20
95.67738699999999
 30
0.0
 11
-209.245651
 21
95.67738699999999
 31
0.0
  0
LINE
  5
55F
330
74
100
AcDbEntity
  8
2
100
AcDbLine
 10
-214.163651
 20
95.67738699999999
 30
0.0
 11
-214.704651
 21
96.21838699999999
 31
0.0
  0
LINE
  5
560
330
74
100
AcDbEntity
  8
2
100
AcDbLine
 10
-214.704651
 20
96.21838699999999
 30
0.0
 11
-214.704651
 21
100.077387
 31
0.0
  0
LINE
  5
561
330
74
100
AcDbEntity
  8
2
 62
     2
100
AcDbLine
 10
-214.163651
 20
95.67738699999999
 30
0.0
 11
-214.163651
 21
100.077387
 31
0.0
  0
LINE
  5
562
330
74
100
AcDbEntity
  8
2
100
AcDbLine
 10
-209.245651
 20
95.67738699999999
 30
0.0
 11
-208.704651
 21
96.21838699999999
 31
0.0
  0
LINE
  5
563
330
74
100
AcDbEntity
  8
2
100
AcDbLine
 10
-208.704651
 20
96.21838699999999
 30
0.0
 11
-208.704651
 21
100.077387
 31
0.0
  0
LINE
  5
564
330
74
100
AcDbEntity
  8
2
100
AcDbLine
 10
-208.704651
 20
96.21838699999999
 30
0.0
 11
-214.704651
 21
96.21838699999999
 31
0.0
  0
LINE
  5
565
330
74
100
AcDbEntity
  8
2
 62
     2
100
AcDbLine
 10
-209.245651
 20
95.67738699999999
 30
0.0
 11
-209.245651
 21
100.077387
 31
0.0
  0
LINE
  5
566
330
74
100
AcDbEntity
  8
2
100
AcDbLine
 10
-239.454651
 20
103.18664
 30
0.0
 11
-239.454651
 21
100.568135
 31
0.0
  0
LINE
  5
567
330
74
100
AcDbEntity
  8
2
100
AcDbLine
 10
-239.454651
 20
100.568135
 30
0.0
 11
-238.604651
 21
100.077387
 31
0.0
  0
LINE
  5
568
330
74
100
AcDbEntity
  8
2
100
AcDbLine
 10
-236.579651
 20
103.18664
 30
0.0
 11
-236.579651
 21
100.568135
 31
0.0
  0
ARC
  5
569
330
74
100
AcDbEntity
  8
2
100
AcDbCircle
 10
-238.017151
 20
102.41609
 30
0.0
 40
2.341226999999999
100
AcDbArc
 50
232.121121
 51
307.878879
  0
ARC
  5
56A
330
74
100
AcDbEntity
  8
2
100
AcDbCircle
 10
-233.704651
 20
108.699863
 30
0.0
 40
8.625
100
AcDbArc
 50
250.528781
 51
289.471223
  0
LINE
  5
56B
330
74
100
AcDbEntity
  8
2
100
AcDbLine
 10
-227.954651
 20
103.18664
 30
0.0
 11
-227.954651
 21
100.568135
 31
0.0
  0
LINE
  5
56C
330
74
100
AcDbEntity
  8
2
100
AcDbLine
 10
-227.954651
 20
100.568135
 30
0.0
 11
-228.804651
 21
100.077387
 31
0.0
  0
LINE
  5
56D
330
74
100
AcDbEntity
  8
2
100
AcDbLine
 10
-228.804651
 20
100.077387
 30
0.0
 11
-238.604651
 21
100.077387
 31
0.0
  0
LINE
  5
56E
330
74
100
AcDbEntity
  8
2
100
AcDbLine
 10
-230.829651
 20
103.18664
 30
0.0
 11
-230.829651
 21
100.568135
 31
0.0
  0
ARC
  5
56F
330
74
100
AcDbEntity
  8
2
100
AcDbCircle
 10
-229.392151
 20
102.41609
 30
0.0
 40
2.341226999999999
100
AcDbArc
 50
232.121121
 51
307.878879
  0
ARC
  5
570
330
74
100
AcDbEntity
  8
2
100
AcDbCircle
 10
-238.017151
 20
101.338685
 30
0.0
 40
2.341226999999999
100
AcDbArc
 50
52.121121
 51
127.878879
  0
ARC
  5
571
330
74
100
AcDbEntity
  8
2
100
AcDbCircle
 10
-233.704651
 20
95.05491199999999
 30
0.0
 40
8.625
100
AcDbArc
 50
70.528777
 51
109.471219
  0
ARC
  5
572
330
74
100
AcDbEntity
  8
2
100
AcDbCircle
 10
-229.392151
 20
101.338685
 30
0.0
 40
2.341226999999999
100
AcDbArc
 50
52.121121
 51
127.878879
  0
LINE
  5
573
330
74
100
AcDbEntity
  8
2
100
AcDbLine
 10
-227.954651
 20
103.18664
 30
0.0
 11
-228.804651
 21
103.677387
 31
0.0
  0
LINE
  5
574
330
74
100
AcDbEntity
  8
2
100
AcDbLine
 10
-239.454651
 20
103.18664
 30
0.0
 11
-238.604651
 21
103.677387
 31
0.0
  0
LINE
  5
575
330
74
100
AcDbEntity
  8
2
100
AcDbLine
 10
-231.245651
 20
95.67738699999999
 30
0.0
 11
-236.163651
 21
95.67738699999999
 31
0.0
  0
LINE
  5
576
330
74
100
AcDbEntity
  8
2
100
AcDbLine
 10
-231.245651
 20
95.67738699999999
 30
0.0
 11
-230.704651
 21
96.21838699999999
 31
0.0
  0
LINE
  5
577
330
74
100
AcDbEntity
  8
2
100
AcDbLine
 10
-230.704651
 20
96.21838699999999
 30
0.0
 11
-230.704651
 21
100.077387
 31
0.0
  0
LINE
  5
578
330
74
100
AcDbEntity
  8
2
 62
     2
100
AcDbLine
 10
-231.245651
 20
95.67738699999999
 30
0.0
 11
-231.245651
 21
100.077387
 31
0.0
  0
LINE
  5
579
330
74
100
AcDbEntity
  8
2
100
AcDbLine
 10
-236.163651
 20
95.67738699999999
 30
0.0
 11
-236.704651
 21
96.21838699999999
 31
0.0
  0
LINE
  5
57A
330
74
100
AcDbEntity
  8
2
100
AcDbLine
 10
-236.704651
 20
96.21838699999999
 30
0.0
 11
-236.704651
 21
100.077387
 31
0.0
  0
LINE
  5
57B
330
74
100
AcDbEntity
  8
2
100
AcDbLine
 10
-236.704651
 20
96.21838699999999
 30
0.0
 11
-230.704651
 21
96.21838699999999
 31
0.0
  0
LINE
  5
57C
330
74
100
AcDbEntity
  8
2
 62
     2
100
AcDbLine
 10
-236.163651
 20
95.67738699999999
 30
0.0
 11
-236.163651
 21
100.077387
 31
0.0
  0
LINE
  5
57D
330
74
100
AcDbEntity
  8
2
100
AcDbLine
 10
40.156349
 20
-1.992804999999999
 30
0.0
 11
36.556349
 21
-1.992804999999999
 31
0.0
  0
LINE
  5
57E
330
74
100
AcDbEntity
  8
2
100
AcDbLine
 10
36.556349
 20
-1.992804999999999
 30
0.0
 11
36.556349
 21
8.007194999999999
 31
0.0
  0
ARC
  5
57F
330
74
100
AcDbEntity
  8
2
100
AcDbCircle
 10
43.169557
 20
0.507195
 30
0.0
 40
6.613208
100
AcDbArc
 50
157.788205
 51
202.211795
  0
LINE
  5
580
330
74
100
AcDbEntity
  8
2
100
AcDbLine
 10
40.156349
 20
8.007194999999999
 30
0.0
 11
36.556349
 21
8.007194999999999
 31
0.0
  0
LINE
  5
581
330
74
100
AcDbEntity
  8
2
100
AcDbLine
 10
39.665602
 20
3.007195
 30
0.0
 11
37.04709699999999
 21
3.007195
 31
0.0
  0
ARC
  5
582
330
74
100
AcDbEntity
  8
2
100
AcDbCircle
 10
43.169557
 20
5.507194999999999
 30
0.0
 40
6.613208
100
AcDbArc
 50
157.788205
 51
202.211795
  0
ARC
  5
583
330
74
100
AcDbEntity
  8
2
100
AcDbCircle
 10
33.543142
 20
5.507194999999999
 30
0.0
 40
6.613208
100
AcDbArc
 50
337.788205
 51
22.211795
  0
ARC
  5
584
330
74
100
AcDbEntity
  8
2
100
AcDbCircle
 10
33.543142
 20
0.507195
 30
0.0
 40
6.613208
100
AcDbArc
 50
337.788205
 51
22.211795
  0
LINE
  5
585
330
74
100
AcDbEntity
  8
2
100
AcDbLine
 10
32.156349
 20
5.466194999999999
 30
0.0
 11
32.156349
 21
0.548195
 31
0.0
  0
LINE
  5
586
330
74
100
AcDbEntity
  8
2
100
AcDbLine
 10
32.156349
 20
5.466194999999999
 30
0.0
 11
32.69734899999999
 21
6.007194999999999
 31
0.0
  0
LINE
  5
587
330
74
100
AcDbEntity
  8
2
100
AcDbLine
 10
32.69734899999999
 20
6.007194999999999
 30
0.0
 11
36.556349
 21
6.007194999999999
 31
0.0
  0
LINE
  5
588
330
74
100
AcDbEntity
  8
2
 62
     2
100
AcDbLine
 10
32.156349
 20
5.466194999999999
 30
0.0
 11
36.556349
 21
5.466194999999999
 31
0.0
  0
LINE
  5
589
330
74
100
AcDbEntity
  8
2
100
AcDbLine
 10
32.156349
 20
0.548195
 30
0.0
 11
32.69734899999999
 21
0.007195
 31
0.0
  0
LINE
  5
58A
330
74
100
AcDbEntity
  8
2
100
AcDbLine
 10
32.69734899999999
 20
0.007195
 30
0.0
 11
36.556349
 21
0.007195
 31
0.0
  0
LINE
  5
58B
330
74
100
AcDbEntity
  8
2
100
AcDbLine
 10
32.69734899999999
 20
0.007195
 30
0.0
 11
32.69734899999999
 21
6.007194999999999
 31
0.0
  0
LINE
  5
58C
330
74
100
AcDbEntity
  8
2
 62
     2
100
AcDbLine
 10
32.156349
 20
0.548195
 30
0.0
 11
36.556349
 21
0.548195
 31
0.0
  0
CIRCLE
  5
58D
330
74
100
AcDbEntity
  8
2
100
AcDbCircle
 10
-250.704651
 20
113.677387
 30
0.0
 40
4.5
  0
CIRCLE
  5
58E
330
74
100
AcDbEntity
  8
2
100
AcDbCircle
 10
-250.704651
 20
113.677387
 30
0.0
 40
4.599999999999999
  0
LINE
  5
58F
330
74
100
AcDbEntity
  8
2
100
AcDbLine
 10
-253.154651
 20
113.177387
 30
0.0
 11
-253.154651
 21
114.177387
 31
0.0
  0
LINE
  5
590
330
74
100
AcDbEntity
  8
2
100
AcDbLine
 10
-248.254651
 20
113.177387
 30
0.0
 11
-248.254651
 21
114.177387
 31
0.0
  0
LINE
  5
591
330
74
100
AcDbEntity
  8
2
100
AcDbLine
 10
-251.204651
 20
116.127387
 30
0.0
 11
-250.204651
 21
116.127387
 31
0.0
  0
LINE
  5
592
330
74
100
AcDbEntity
  8
2
100
AcDbLine
 10
-251.204651
 20
111.227387
 30
0.0
 11
-250.204651
 21
111.227387
 31
0.0
  0
LINE
  5
593
330
74
100
AcDbEntity
  8
2
100
AcDbLine
 10
-253.154651
 20
114.177387
 30
0.0
 11
-252.204651
 21
114.177387
 31
0.0
  0
LINE
  5
594
330
74
100
AcDbEntity
  8
2
100
AcDbLine
 10
-249.204651
 20
114.177387
 30
0.0
 11
-248.254651
 21
114.177387
 31
0.0
  0
LINE
  5
595
330
74
100
AcDbEntity
  8
2
100
AcDbLine
 10
-251.204651
 20
111.227387
 30
0.0
 11
-251.204651
 21
112.177387
 31
0.0
  0
LINE
  5
596
330
74
100
AcDbEntity
  8
2
100
AcDbLine
 10
-251.204651
 20
115.177387
 30
0.0
 11
-251.204651
 21
116.127387
 31
0.0
  0
LINE
  5
597
330
74
100
AcDbEntity
  8
2
100
AcDbLine
 10
-253.154651
 20
113.177387
 30
0.0
 11
-252.204651
 21
113.177387
 31
0.0
  0
LINE
  5
598
330
74
100
AcDbEntity
  8
2
100
AcDbLine
 10
-249.204651
 20
113.177387
 30
0.0
 11
-248.254651
 21
113.177387
 31
0.0
  0
LINE
  5
599
330
74
100
AcDbEntity
  8
2
100
AcDbLine
 10
-250.204651
 20
111.227387
 30
0.0
 11
-250.204651
 21
112.177387
 31
0.0
  0
LINE
  5
59A
330
74
100
AcDbEntity
  8
2
100
AcDbLine
 10
-250.204651
 20
115.177387
 30
0.0
 11
-250.204651
 21
116.127387
 31
0.0
  0
ARC
  5
59B
330
74
100
AcDbEntity
  8
2
100
AcDbCircle
 10
-249.204651
 20
112.177387
 30
0.0
 40
1.0
100
AcDbArc
 50
90.0
 51
180.0
  0
ARC
  5
59C
330
74
100
AcDbEntity
  8
2
100
AcDbCircle
 10
-252.204651
 20
112.177387
 30
0.0
 40
1.0
100
AcDbArc
 50
0.0
 51
90.0
  0
ARC
  5
59D
330
74
100
AcDbEntity
  8
2
100
AcDbCircle
 10
-252.204651
 20
115.177387
 30
0.0
 40
1.0
100
AcDbArc
 50
270.0
 51
0.0
  0
ARC
  5
59E
330
74
100
AcDbEntity
  8
2
100
AcDbCircle
 10
-249.204651
 20
115.177387
 30
0.0
 40
1.0
100
AcDbArc
 50
180.0
 51
270.0
  0
CIRCLE
  5
59F
330
74
100
AcDbEntity
  8
2
100
AcDbCircle
 10
-194.704651
 20
113.677387
 30
0.0
 40
4.5
  0
CIRCLE
  5
5A0
330
74
100
AcDbEntity
  8
2
100
AcDbCircle
 10
-194.704651
 20
113.677387
 30
0.0
 40
4.599999999999999
  0
LINE
  5
5A1
330
74
100
AcDbEntity
  8
2
100
AcDbLine
 10
-197.154651
 20
113.177387
 30
0.0
 11
-197.154651
 21
114.177387
 31
0.0
  0
LINE
  5
5A2
330
74
100
AcDbEntity
  8
2
100
AcDbLine
 10
-192.254651
 20
113.177387
 30
0.0
 11
-192.254651
 21
114.177387
 31
0.0
  0
LINE
  5
5A3
330
74
100
AcDbEntity
  8
2
100
AcDbLine
 10
-195.204651
 20
116.127387
 30
0.0
 11
-194.204651
 21
116.127387
 31
0.0
  0
LINE
  5
5A4
330
74
100
AcDbEntity
  8
2
100
AcDbLine
 10
-195.204651
 20
111.227387
 30
0.0
 11
-194.204651
 21
111.227387
 31
0.0
  0
LINE
  5
5A5
330
74
100
AcDbEntity
  8
2
100
AcDbLine
 10
-197.154651
 20
114.177387
 30
0.0
 11
-196.204651
 21
114.177387
 31
0.0
  0
LINE
  5
5A6
330
74
100
AcDbEntity
  8
2
100
AcDbLine
 10
-193.204651
 20
114.177387
 30
0.0
 11
-192.254651
 21
114.177387
 31
0.0
  0
LINE
  5
5A7
330
74
100
AcDbEntity
  8
2
100
AcDbLine
 10
-195.204651
 20
111.227387
 30
0.0
 11
-195.204651
 21
112.177387
 31
0.0
  0
LINE
  5
5A8
330
74
100
AcDbEntity
  8
2
100
AcDbLine
 10
-195.204651
 20
115.177387
 30
0.0
 11
-195.204651
 21
116.127387
 31
0.0
  0
LINE
  5
5A9
330
74
100
AcDbEntity
  8
2
100
AcDbLine
 10
-197.154651
 20
113.177387
 30
0.0
 11
-196.204651
 21
113.177387
 31
0.0
  0
LINE
  5
5AA
330
74
100
AcDbEntity
  8
2
100
AcDbLine
 10
-193.204651
 20
113.177387
 30
0.0
 11
-192.254651
 21
113.177387
 31
0.0
  0
LINE
  5
5AB
330
74
100
AcDbEntity
  8
2
100
AcDbLine
 10
-194.204651
 20
111.227387
 30
0.0
 11
-194.204651
 21
112.177387
 31
0.0
  0
LINE
  5
5AC
330
74
100
AcDbEntity
  8
2
100
AcDbLine
 10
-194.204651
 20
115.177387
 30
0.0
 11
-194.204651
 21
116.127387
 31
0.0
  0
ARC
  5
5AD
330
74
100
AcDbEntity
  8
2
100
AcDbCircle
 10
-193.204651
 20
112.177387
 30
0.0
 40
1.0
100
AcDbArc
 50
90.0
 51
180.0
  0
ARC
  5
5AE
330
74
100
AcDbEntity
  8
2
100
AcDbCircle
 10
-196.204651
 20
112.177387
 30
0.0
 40
1.0
100
AcDbArc
 50
0.0
 51
90.0
  0
ARC
  5
5AF
330
74
100
AcDbEntity
  8
2
100
AcDbCircle
 10
-196.204651
 20
115.177387
 30
0.0
 40
1.0
100
AcDbArc
 50
270.0
 51
0.0
  0
ARC
  5
5B0
330
74
100
AcDbEntity
  8
2
100
AcDbCircle
 10
-193.204651
 20
115.177387
 30
0.0
 40
1.0
100
AcDbArc
 50
180.0
 51
270.0
  0
CIRCLE
  5
5B1
330
74
100
AcDbEntity
  8
2
100
AcDbCircle
 10
-253.204651
 20
165.677387
 30
0.0
 40
4.5
  0
CIRCLE
  5
5B2
330
74
100
AcDbEntity
  8
2
100
AcDbCircle
 10
-253.204651
 20
165.677387
 30
0.0
 40
4.599999999999999
  0
LINE
  5
5B3
330
74
100
AcDbEntity
  8
2
100
AcDbLine
 10
-255.654651
 20
165.177387
 30
0.0
 11
-255.654651
 21
166.177387
 31
0.0
  0
LINE
  5
5B4
330
74
100
AcDbEntity
  8
2
100
AcDbLine
 10
-250.754651
 20
165.177387
 30
0.0
 11
-250.754651
 21
166.177387
 31
0.0
  0
LINE
  5
5B5
330
74
100
AcDbEntity
  8
2
100
AcDbLine
 10
-253.704651
 20
168.127387
 30
0.0
 11
-252.704651
 21
168.127387
 31
0.0
  0
LINE
  5
5B6
330
74
100
AcDbEntity
  8
2
100
AcDbLine
 10
-253.704651
 20
163.227387
 30
0.0
 11
-252.704651
 21
163.227387
 31
0.0
  0
LINE
  5
5B7
330
74
100
AcDbEntity
  8
2
100
AcDbLine
 10
-255.654651
 20
166.177387
 30
0.0
 11
-254.704651
 21
166.177387
 31
0.0
  0
LINE
  5
5B8
330
74
100
AcDbEntity
  8
2
100
AcDbLine
 10
-251.704651
 20
166.177387
 30
0.0
 11
-250.754651
 21
166.177387
 31
0.0
  0
LINE
  5
5B9
330
74
100
AcDbEntity
  8
2
100
AcDbLine
 10
-253.704651
 20
163.227387
 30
0.0
 11
-253.704651
 21
164.177387
 31
0.0
  0
LINE
  5
5BA
330
74
100
AcDbEntity
  8
2
100
AcDbLine
 10
-253.704651
 20
167.177387
 30
0.0
 11
-253.704651
 21
168.127387
 31
0.0
  0
LINE
  5
5BB
330
74
100
AcDbEntity
  8
2
100
AcDbLine
 10
-255.654651
 20
165.177387
 30
0.0
 11
-254.704651
 21
165.177387
 31
0.0
  0
LINE
  5
5BC
330
74
100
AcDbEntity
  8
2
100
AcDbLine
 10
-251.704651
 20
165.177387
 30
0.0
 11
-250.754651
 21
165.177387
 31
0.0
  0
LINE
  5
5BD
330
74
100
AcDbEntity
  8
2
100
AcDbLine
 10
-252.704651
 20
163.227387
 30
0.0
 11
-252.704651
 21
164.177387
 31
0.0
  0
LINE
  5
5BE
330
74
100
AcDbEntity
  8
2
100
AcDbLine
 10
-252.704651
 20
167.177387
 30
0.0
 11
-252.704651
 21
168.127387
 31
0.0
  0
ARC
  5
5BF
330
74
100
AcDbEntity
  8
2
100
AcDbCircle
 10
-251.704651
 20
164.177387
 30
0.0
 40
1.0
100
AcDbArc
 50
90.0
 51
180.0
  0
ARC
  5
5C0
330
74
100
AcDbEntity
  8
2
100
AcDbCircle
 10
-254.704651
 20
164.177387
 30
0.0
 40
1.0
100
AcDbArc
 50
0.0
 51
90.0
  0
ARC
  5
5C1
330
74
100
AcDbEntity
  8
2
100
AcDbCircle
 10
-254.704651
 20
167.177387
 30
0.0
 40
1.0
100
AcDbArc
 50
270.0
 51
0.0
  0
ARC
  5
5C2
330
74
100
AcDbEntity
  8
2
100
AcDbCircle
 10
-251.704651
 20
167.177387
 30
0.0
 40
1.0
100
AcDbArc
 50
180.0
 51
270.0
  0
CIRCLE
  5
5C3
330
74
100
AcDbEntity
  8
2
100
AcDbCircle
 10
-192.204651
 20
165.677387
 30
0.0
 40
4.5
  0
CIRCLE
  5
5C4
330
74
100
AcDbEntity
  8
2
100
AcDbCircle
 10
-192.204651
 20
165.677387
 30
0.0
 40
4.599999999999999
  0
LINE
  5
5C5
330
74
100
AcDbEntity
  8
2
100
AcDbLine
 10
-194.654651
 20
165.177387
 30
0.0
 11
-194.654651
 21
166.177387
 31
0.0
  0
LINE
  5
5C6
330
74
100
AcDbEntity
  8
2
100
AcDbLine
 10
-189.754651
 20
165.177387
 30
0.0
 11
-189.754651
 21
166.177387
 31
0.0
  0
LINE
  5
5C7
330
74
100
AcDbEntity
  8
2
100
AcDbLine
 10
-192.704651
 20
168.127387
 30
0.0
 11
-191.704651
 21
168.127387
 31
0.0
  0
LINE
  5
5C8
330
74
100
AcDbEntity
  8
2
100
AcDbLine
 10
-192.704651
 20
163.227387
 30
0.0
 11
-191.704651
 21
163.227387
 31
0.0
  0
LINE
  5
5C9
330
74
100
AcDbEntity
  8
2
100
AcDbLine
 10
-194.654651
 20
166.177387
 30
0.0
 11
-193.704651
 21
166.177387
 31
0.0
  0
LINE
  5
5CA
330
74
100
AcDbEntity
  8
2
100
AcDbLine
 10
-190.704651
 20
166.177387
 30
0.0
 11
-189.754651
 21
166.177387
 31
0.0
  0
LINE
  5
5CB
330
74
100
AcDbEntity
  8
2
100
AcDbLine
 10
-192.704651
 20
163.227387
 30
0.0
 11
-192.704651
 21
164.177387
 31
0.0
  0
LINE
  5
5CC
330
74
100
AcDbEntity
  8
2
100
AcDbLine
 10
-192.704651
 20
167.177387
 30
0.0
 11
-192.704651
 21
168.127387
 31
0.0
  0
LINE
  5
5CD
330
74
100
AcDbEntity
  8
2
100
AcDbLine
 10
-194.654651
 20
165.177387
 30
0.0
 11
-193.704651
 21
165.177387
 31
0.0
  0
LINE
  5
5CE
330
74
100
AcDbEntity
  8
2
100
AcDbLine
 10
-190.704651
 20
165.177387
 30
0.0
 11
-189.754651
 21
165.177387
 31
0.0
  0
LINE
  5
5CF
330
74
100
AcDbEntity
  8
2
100
AcDbLine
 10
-191.704651
 20
163.227387
 30
0.0
 11
-191.704651
 21
164.177387
 31
0.0
  0
LINE
  5
5D0
330
74
100
AcDbEntity
  8
2
100
AcDbLine
 10
-191.704651
 20
167.177387
 30
0.0
 11
-191.704651
 21
168.127387
 31
0.0
  0
ARC
  5
5D1
330
74
100
AcDbEntity
  8
2
100
AcDbCircle
 10
-190.704651
 20
164.177387
 30
0.0
 40
1.0
100
AcDbArc
 50
90.0
 51
180.0
  0
ARC
  5
5D2
330
74
100
AcDbEntity
  8
2
100
AcDbCircle
 10
-193.704651
 20
164.177387
 30
0.0
 40
1.0
100
AcDbArc
 50
0.0
 51
90.0
  0
ARC
  5
5D3
330
74
100
AcDbEntity
  8
2
100
AcDbCircle
 10
-193.704651
 20
167.177387
 30
0.0
 40
1.0
100
AcDbArc
 50
270.0
 51
0.0
  0
ARC
  5
5D4
330
74
100
AcDbEntity
  8
2
100
AcDbCircle
 10
-190.704651
 20
167.177387
 30
0.0
 40
1.0
100
AcDbArc
 50
180.0
 51
270.0
  0
CIRCLE
  5
5D5
330
74
100
AcDbEntity
  8
2
100
AcDbCircle
 10
-250.204651
 20
190.177387
 30
0.0
 40
4.5
  0
CIRCLE
  5
5D6
330
74
100
AcDbEntity
  8
2
100
AcDbCircle
 10
-250.204651
 20
190.177387
 30
0.0
 40
4.599999999999999
  0
LINE
  5
5D7
330
74
100
AcDbEntity
  8
2
100
AcDbLine
 10
-252.654651
 20
189.677387
 30
0.0
 11
-252.654651
 21
190.677387
 31
0.0
  0
LINE
  5
5D8
330
74
100
AcDbEntity
  8
2
100
AcDbLine
 10
-247.754651
 20
189.677387
 30
0.0
 11
-247.754651
 21
190.677387
 31
0.0
  0
LINE
  5
5D9
330
74
100
AcDbEntity
  8
2
100
AcDbLine
 10
-250.704651
 20
192.627387
 30
0.0
 11
-249.704651
 21
192.627387
 31
0.0
  0
LINE
  5
5DA
330
74
100
AcDbEntity
  8
2
100
AcDbLine
 10
-250.704651
 20
187.727387
 30
0.0
 11
-249.704651
 21
187.727387
 31
0.0
  0
LINE
  5
5DB
330
74
100
AcDbEntity
  8
2
100
AcDbLine
 10
-252.654651
 20
190.677387
 30
0.0
 11
-251.704651
 21
190.677387
 31
0.0
  0
LINE
  5
5DC
330
74
100
AcDbEntity
  8
2
100
AcDbLine
 10
-248.704651
 20
190.677387
 30
0.0
 11
-247.754651
 21
190.677387
 31
0.0
  0
LINE
  5
5DD
330
74
100
AcDbEntity
  8
2
100
AcDbLine
 10
-250.704651
 20
187.727387
 30
0.0
 11
-250.704651
 21
188.677387
 31
0.0
  0
LINE
  5
5DE
330
74
100
AcDbEntity
  8
2
100
AcDbLine
 10
-250.704651
 20
191.677387
 30
0.0
 11
-250.704651
 21
192.627387
 31
0.0
  0
LINE
  5
5DF
330
74
100
AcDbEntity
  8
2
100
AcDbLine
 10
-252.654651
 20
189.677387
 30
0.0
 11
-251.704651
 21
189.677387
 31
0.0
  0
LINE
  5
5E0
330
74
100
AcDbEntity
  8
2
100
AcDbLine
 10
-248.704651
 20
189.677387
 30
0.0
 11
-247.754651
 21
189.677387
 31
0.0
  0
LINE
  5
5E1
330
74
100
AcDbEntity
  8
2
100
AcDbLine
 10
-249.704651
 20
187.727387
 30
0.0
 11
-249.704651
 21
188.677387
 31
0.0
  0
LINE
  5
5E2
330
74
100
AcDbEntity
  8
2
100
AcDbLine
 10
-249.704651
 20
191.677387
 30
0.0
 11
-249.704651
 21
192.627387
 31
0.0
  0
ARC
  5
5E3
330
74
100
AcDbEntity
  8
2
100
AcDbCircle
 10
-248.704651
 20
188.677387
 30
0.0
 40
1.0
100
AcDbArc
 50
90.0
 51
180.0
  0
ARC
  5
5E4
330
74
100
AcDbEntity
  8
2
100
AcDbCircle
 10
-251.704651
 20
188.677387
 30
0.0
 40
1.0
100
AcDbArc
 50
0.0
 51
90.0
  0
ARC
  5
5E5
330
74
100
AcDbEntity
  8
2
100
AcDbCircle
 10
-251.704651
 20
191.677387
 30
0.0
 40
1.0
100
AcDbArc
 50
270.0
 51
0.0
  0
ARC
  5
5E6
330
74
100
AcDbEntity
  8
2
100
AcDbCircle
 10
-248.704651
 20
191.677387
 30
0.0
 40
1.0
100
AcDbArc
 50
180.0
 51
270.0
  0
CIRCLE
  5
5E7
330
74
100
AcDbEntity
  8
2
100
AcDbCircle
 10
-195.204651
 20
190.177387
 30
0.0
 40
4.5
  0
CIRCLE
  5
5E8
330
74
100
AcDbEntity
  8
2
100
AcDbCircle
 10
-195.204651
 20
190.177387
 30
0.0
 40
4.599999999999999
  0
LINE
  5
5E9
330
74
100
AcDbEntity
  8
2
100
AcDbLine
 10
-197.654651
 20
189.677387
 30
0.0
 11
-197.654651
 21
190.677387
 31
0.0
  0
LINE
  5
5EA
330
74
100
AcDbEntity
  8
2
100
AcDbLine
 10
-192.754651
 20
189.677387
 30
0.0
 11
-192.754651
 21
190.677387
 31
0.0
  0
LINE
  5
5EB
330
74
100
AcDbEntity
  8
2
100
AcDbLine
 10
-195.704651
 20
192.627387
 30
0.0
 11
-194.704651
 21
192.627387
 31
0.0
  0
LINE
  5
5EC
330
74
100
AcDbEntity
  8
2
100
AcDbLine
 10
-195.704651
 20
187.727387
 30
0.0
 11
-194.704651
 21
187.727387
 31
0.0
  0
LINE
  5
5ED
330
74
100
AcDbEntity
  8
2
100
AcDbLine
 10
-197.654651
 20
190.677387
 30
0.0
 11
-196.704651
 21
190.677387
 31
0.0
  0
LINE
  5
5EE
330
74
100
AcDbEntity
  8
2
100
AcDbLine
 10
-193.704651
 20
190.677387
 30
0.0
 11
-192.754651
 21
190.677387
 31
0.0
  0
LINE
  5
5EF
330
74
100
AcDbEntity
  8
2
100
AcDbLine
 10
-195.704651
 20
187.727387
 30
0.0
 11
-195.704651
 21
188.677387
 31
0.0
  0
LINE
  5
5F0
330
74
100
AcDbEntity
  8
2
100
AcDbLine
 10
-195.704651
 20
191.677387
 30
0.0
 11
-195.704651
 21
192.627387
 31
0.0
  0
LINE
  5
5F1
330
74
100
AcDbEntity
  8
2
100
AcDbLine
 10
-197.654651
 20
189.677387
 30
0.0
 11
-196.704651
 21
189.677387
 31
0.0
  0
LINE
  5
5F2
330
74
100
AcDbEntity
  8
2
100
AcDbLine
 10
-193.704651
 20
189.677387
 30
0.0
 11
-192.754651
 21
189.677387
 31
0.0
  0
LINE
  5
5F3
330
74
100
AcDbEntity
  8
2
100
AcDbLine
 10
-194.704651
 20
187.727387
 30
0.0
 11
-194.704651
 21
188.677387
 31
0.0
  0
LINE
  5
5F4
330
74
100
AcDbEntity
  8
2
100
AcDbLine
 10
-194.704651
 20
191.677387
 30
0.0
 11
-194.704651
 21
192.627387
 31
0.0
  0
ARC
  5
5F5
330
74
100
AcDbEntity
  8
2
100
AcDbCircle
 10
-193.704651
 20
188.677387
 30
0.0
 40
1.0
100
AcDbArc
 50
90.0
 51
180.0
  0
ARC
  5
5F6
330
74
100
AcDbEntity
  8
2
100
AcDbCircle
 10
-196.704651
 20
188.677387
 30
0.0
 40
1.0
100
AcDbArc
 50
0.0
 51
90.0
  0
ARC
  5
5F7
330
74
100
AcDbEntity
  8
2
100
AcDbCircle
 10
-196.704651
 20
191.677387
 30
0.0
 40
1.0
100
AcDbArc
 50
270.0
 51
0.0
  0
ARC
  5
5F8
330
74
100
AcDbEntity
  8
2
100
AcDbCircle
 10
-193.704651
 20
191.677387
 30
0.0
 40
1.0
100
AcDbArc
 50
180.0
 51
270.0
  0
CIRCLE
  5
5F9
330
74
100
AcDbEntity
  8
2
100
AcDbCircle
 10
-222.704651
 20
154.677387
 30
0.0
 40
3.5
  0
LINE
  5
5FA
330
74
100
AcDbEntity
  8
2
100
AcDbLine
 10
-224.804651
 20
154.177387
 30
0.0
 11
-224.804651
 21
155.177387
 31
0.0
  0
LINE
  5
5FB
330
74
100
AcDbEntity
  8
2
100
AcDbLine
 10
-220.604651
 20
154.177387
 30
0.0
 11
-220.604651
 21
155.177387
 31
0.0
  0
LINE
  5
5FC
330
74
100
AcDbEntity
  8
2
100
AcDbLine
 10
-223.204651
 20
156.777387
 30
0.0
 11
-222.204651
 21
156.777387
 31
0.0
  0
LINE
  5
5FD
330
74
100
AcDbEntity
  8
2
100
AcDbLine
 10
-223.204651
 20
152.577387
 30
0.0
 11
-222.204651
 21
152.577387
 31
0.0
  0
LINE
  5
5FE
330
74
100
AcDbEntity
  8
2
100
AcDbLine
 10
-224.804651
 20
155.177387
 30
0.0
 11
-224.204651
 21
155.177387
 31
0.0
  0
LINE
  5
5FF
330
74
100
AcDbEntity
  8
2
100
AcDbLine
 10
-221.204651
 20
155.177387
 30
0.0
 11
-220.604651
 21
155.177387
 31
0.0
  0
LINE
  5
600
330
74
100
AcDbEntity
  8
2
100
AcDbLine
 10
-223.204651
 20
152.577387
 30
0.0
 11
-223.204651
 21
153.177387
 31
0.0
  0
LINE
  5
601
330
74
100
AcDbEntity
  8
2
100
AcDbLine
 10
-223.204651
 20
156.177387
 30
0.0
 11
-223.204651
 21
156.777387
 31
0.0
  0
LINE
  5
602
330
74
100
AcDbEntity
  8
2
100
AcDbLine
 10
-224.804651
 20
154.177387
 30
0.0
 11
-224.204651
 21
154.177387
 31
0.0
  0
LINE
  5
603
330
74
100
AcDbEntity
  8
2
100
AcDbLine
 10
-221.204651
 20
154.177387
 30
0.0
 11
-220.604651
 21
154.177387
 31
0.0
  0
LINE
  5
604
330
74
100
AcDbEntity
  8
2
100
AcDbLine
 10
-222.204651
 20
152.577387
 30
0.0
 11
-222.204651
 21
153.177387
 31
0.0
  0
LINE
  5
605
330
74
100
AcDbEntity
  8
2
100
AcDbLine
 10
-222.204651
 20
156.177387
 30
0.0
 11
-222.204651
 21
156.777387
 31
0.0
  0
ARC
  5
606
330
74
100
AcDbEntity
  8
2
100
AcDbCircle
 10
-221.204651
 20
153.177387
 30
0.0
 40
1.0
100
AcDbArc
 50
90.0
 51
180.0
  0
ARC
  5
607
330
74
100
AcDbEntity
  8
2
100
AcDbCircle
 10
-224.204651
 20
153.177387
 30
0.0
 40
1.0
100
AcDbArc
 50
0.0
 51
90.0
  0
ARC
  5
608
330
74
100
AcDbEntity
  8
2
100
AcDbCircle
 10
-224.204651
 20
156.177387
 30
0.0
 40
1.0
100
AcDbArc
 50
270.0
 51
0.0
  0
ARC
  5
609
330
74
100
AcDbEntity
  8
2
100
AcDbCircle
 10
-221.204651
 20
156.177387
 30
0.0
 40
1.0
100
AcDbArc
 50
180.0
 51
270.0
  0
CIRCLE
  5
60A
330
74
100
AcDbEntity
  8
2
100
AcDbCircle
 10
-222.704651
 20
128.677387
 30
0.0
 40
3.5
  0
LINE
  5
60B
330
74
100
AcDbEntity
  8
2
100
AcDbLine
 10
-224.804651
 20
129.177387
 30
0.0
 11
-224.804651
 21
128.177387
 31
0.0
  0
LINE
  5
60C
330
74
100
AcDbEntity
  8
2
100
AcDbLine
 10
-220.604651
 20
129.177387
 30
0.0
 11
-220.604651
 21
128.177387
 31
0.0
  0
LINE
  5
60D
330
74
100
AcDbEntity
  8
2
100
AcDbLine
 10
-223.204651
 20
126.577387
 30
0.0
 11
-222.204651
 21
126.577387
 31
0.0
  0
LINE
  5
60E
330
74
100
AcDbEntity
  8
2
100
AcDbLine
 10
-223.204651
 20
130.777387
 30
0.0
 11
-222.204651
 21
130.777387
 31
0.0
  0
LINE
  5
60F
330
74
100
AcDbEntity
  8
2
100
AcDbLine
 10
-224.804651
 20
128.177387
 30
0.0
 11
-224.204651
 21
128.177387
 31
0.0
  0
LINE
  5
610
330
74
100
AcDbEntity
  8
2
100
AcDbLine
 10
-221.204651
 20
128.177387
 30
0.0
 11
-220.604651
 21
128.177387
 31
0.0
  0
LINE
  5
611
330
74
100
AcDbEntity
  8
2
100
AcDbLine
 10
-223.204651
 20
130.777387
 30
0.0
 11
-223.204651
 21
130.177387
 31
0.0
  0
LINE
  5
612
330
74
100
AcDbEntity
  8
2
100
AcDbLine
 10
-223.204651
 20
127.177387
 30
0.0
 11
-223.204651
 21
126.577387
 31
0.0
  0
LINE
  5
613
330
74
100
AcDbEntity
  8
2
100
AcDbLine
 10
-224.804651
 20
129.177387
 30
0.0
 11
-224.204651
 21
129.177387
 31
0.0
  0
LINE
  5
614
330
74
100
AcDbEntity
  8
2
100
AcDbLine
 10
-221.204651
 20
129.177387
 30
0.0
 11
-220.604651
 21
129.177387
 31
0.0
  0
LINE
  5
615
330
74
100
AcDbEntity
  8
2
100
AcDbLine
 10
-222.204651
 20
130.777387
 30
0.0
 11
-222.204651
 21
130.177387
 31
0.0
  0
LINE
  5
616
330
74
100
AcDbEntity
  8
2
100
AcDbLine
 10
-222.204651
 20
127.177387
 30
0.0
 11
-222.204651
 21
126.577387
 31
0.0
  0
ARC
  5
617
330
74
100
AcDbEntity
  8
2
100
AcDbCircle
 10
-221.204651
 20
130.177387
 30
0.0
 40
1.0
100
AcDbArc
 50
180.0
 51
270.0
  0
ARC
  5
618
330
74
100
AcDbEntity
  8
2
100
AcDbCircle
 10
-224.204651
 20
130.177387
 30
0.0
 40
1.0
100
AcDbArc
 50
270.0
 51
0.0
  0
ARC
  5
619
330
74
100
AcDbEntity
  8
2
100
AcDbCircle
 10
-224.204651
 20
127.177387
 30
0.0
 40
1.0
100
AcDbArc
 50
0.0
 51
90.0
  0
ARC
  5
61A
330
74
100
AcDbEntity
  8
2
100
AcDbCircle
 10
-221.204651
 20
127.177387
 30
0.0
 40
1.0
100
AcDbArc
 50
90.0
 51
180.0
  0
LINE
  5
61B
330
74
100
AcDbEntity
  8
2
100
AcDbLine
 10
-226.204651
 20
32.007195
 30
0.0
 11
-226.204651
 21
32.986219
 31
0.0
  0
LINE
  5
61C
330
74
100
AcDbEntity
  8
2
100
AcDbLine
 10
-219.204651
 20
32.007195
 30
0.0
 11
-219.204651
 21
32.986219
 31
0.0
  0
ARC
  5
61D
330
74
100
AcDbEntity
  8
2
100
AcDbCircle
 10
-222.704651
 20
25.607195
 30
0.0
 40
9.0
100
AcDbArc
 50
73.39845
 51
106.60155
  0
ARC
  5
61E
330
74
100
AcDbEntity
  8
2
100
AcDbCircle
 10
-220.504651
 20
32.986219
 30
0.0
 40
1.3
100
AcDbArc
 50
0.0
 51
73.39845
  0
ARC
  5
61F
330
74
100
AcDbEntity
  8
2
100
AcDbCircle
 10
-224.904651
 20
32.986219
 30
0.0
 40
1.3
100
AcDbArc
 50
106.60155
 51
180.0
  0
LINE
  5
620
330
74
100
AcDbEntity
  8
2
100
AcDbLine
 10
61.656349
 20
32.007195
 30
0.0
 11
61.656349
 21
32.986219
 31
0.0
  0
LINE
  5
621
330
74
100
AcDbEntity
  8
2
100
AcDbLine
 10
68.656349
 20
32.007195
 30
0.0
 11
68.656349
 21
32.986219
 31
0.0
  0
ARC
  5
622
330
74
100
AcDbEntity
  8
2
100
AcDbCircle
 10
65.15634900000001
 20
25.607195
 30
0.0
 40
9.0
100
AcDbArc
 50
73.39845
 51
106.60155
  0
ARC
  5
623
330
74
100
AcDbEntity
  8
2
100
AcDbCircle
 10
67.35634899999999
 20
32.986219
 30
0.0
 40
1.3
100
AcDbArc
 50
0.0
 51
73.39845
  0
ARC
  5
624
330
74
100
AcDbEntity
  8
2
100
AcDbCircle
 10
62.95634899999999
 20
32.986219
 30
0.0
 40
1.3
100
AcDbArc
 50
106.60155
 51
180.0
  0
LINE
  5
625
330
74
100
AcDbEntity
  8
2
100
AcDbLine
 10
87.656349
 20
32.007195
 30
0.0
 11
87.656349
 21
32.986219
 31
0.0
  0
LINE
  5
626
330
74
100
AcDbEntity
  8
2
100
AcDbLine
 10
94.65634900000001
 20
32.007195
 30
0.0
 11
94.65634900000001
 21
32.986219
 31
0.0
  0
ARC
  5
627
330
74
100
AcDbEntity
  8
2
100
AcDbCircle
 10
91.15634900000001
 20
25.607195
 30
0.0
 40
9.0
100
AcDbArc
 50
73.39845
 51
106.60155
  0
ARC
  5
628
330
74
100
AcDbEntity
  8
2
100
AcDbCircle
 10
93.356349
 20
32.986219
 30
0.0
 40
1.3
100
AcDbArc
 50
0.0
 51
73.39845
  0
ARC
  5
629
330
74
100
AcDbEntity
  8
2
100
AcDbCircle
 10
88.95634900000001
 20
32.986219
 30
0.0
 40
1.3
100
AcDbArc
 50
106.60155
 51
180.0
  0
LINE
  5
62A
330
74
100
AcDbEntity
  8
2
100
AcDbLine
 10
-190.104651
 20
22.607195
 30
0.0
 11
-199.304651
 21
22.607195
 31
0.0
  0
LINE
  5
62B
330
74
100
AcDbEntity
  8
2
100
AcDbLine
 10
-199.304651
 20
22.607195
 30
0.0
 11
-199.304651
 21
21.307195
 31
0.0
  0
LINE
  5
62C
330
74
100
AcDbEntity
  8
2
100
AcDbLine
 10
-190.104651
 20
22.607195
 30
0.0
 11
-190.104651
 21
21.307195
 31
0.0
  0
LINE
  5
62D
330
74
100
AcDbEntity
  8
2
100
AcDbLine
 10
-199.204651
 20
23.894687
 30
0.0
 11
-199.204651
 21
22.607195
 31
0.0
  0
LINE
  5
62E
330
74
100
AcDbEntity
  8
2
100
AcDbLine
 10
-190.204651
 20
23.894687
 30
0.0
 11
-190.204651
 21
22.607195
 31
0.0
  0
ARC
  5
62F
330
74
100
AcDbEntity
  8
2
100
AcDbCircle
 10
-194.704651
 20
13.907195
 30
0.0
 40
12.0
100
AcDbArc
 50
73.80864800000001
 51
106.191352
  0
ARC
  5
630
330
74
100
AcDbEntity
  8
2
100
AcDbCircle
 10
-191.804651
 20
23.894687
 30
0.0
 40
1.6
100
AcDbArc
 50
0.0
 51
73.80864800000001
  0
ARC
  5
631
330
74
100
AcDbEntity
  8
2
100
AcDbCircle
 10
-197.604651
 20
23.894687
 30
0.0
 40
1.6
100
AcDbArc
 50
106.191352
 51
180.0
  0
LINE
  5
632
330
74
100
AcDbEntity
  8
2
100
AcDbLine
 10
-246.104651
 20
22.607195
 30
0.0
 11
-255.304651
 21
22.607195
 31
0.0
  0
LINE
  5
633
330
74
100
AcDbEntity
  8
2
100
AcDbLine
 10
-255.304651
 20
22.607195
 30
0.0
 11
-255.304651
 21
21.307195
 31
0.0
  0
LINE
  5
634
330
74
100
AcDbEntity
  8
2
100
AcDbLine
 10
-246.104651
 20
22.607195
 30
0.0
 11
-246.104651
 21
21.307195
 31
0.0
  0
LINE
  5
635
330
74
100
AcDbEntity
  8
2
100
AcDbLine
 10
-255.204651
 20
23.894687
 30
0.0
 11
-255.204651
 21
22.607195
 31
0.0
  0
LINE
  5
636
330
74
100
AcDbEntity
  8
2
100
AcDbLine
 10
-246.204651
 20
23.894687
 30
0.0
 11
-246.204651
 21
22.607195
 31
0.0
  0
ARC
  5
637
330
74
100
AcDbEntity
  8
2
100
AcDbCircle
 10
-250.704651
 20
13.907195
 30
0.0
 40
12.0
100
AcDbArc
 50
73.80864800000001
 51
106.191352
  0
ARC
  5
638
330
74
100
AcDbEntity
  8
2
100
AcDbCircle
 10
-247.804651
 20
23.894687
 30
0.0
 40
1.6
100
AcDbArc
 50
0.0
 51
73.80864800000001
  0
ARC
  5
639
330
74
100
AcDbEntity
  8
2
100
AcDbCircle
 10
-253.604651
 20
23.894687
 30
0.0
 40
1.6
100
AcDbArc
 50
106.191352
 51
180.0
  0
LINE
  5
63A
330
74
100
AcDbEntity
  8
2
100
AcDbLine
 10
131.256349
 20
32.607195
 30
0.0
 11
122.056349
 21
32.607195
 31
0.0
  0
LINE
  5
63B
330
74
100
AcDbEntity
  8
2
100
AcDbLine
 10
122.056349
 20
32.607195
 30
0.0
 11
122.056349
 21
31.307195
 31
0.0
  0
LINE
  5
63C
330
74
100
AcDbEntity
  8
2
100
AcDbLine
 10
131.256349
 20
32.607195
 30
0.0
 11
131.256349
 21
31.307195
 31
0.0
  0
LINE
  5
63D
330
74
100
AcDbEntity
  8
2
100
AcDbLine
 10
122.156349
 20
33.894687
 30
0.0
 11
122.156349
 21
32.607195
 31
0.0
  0
LINE
  5
63E
330
74
100
AcDbEntity
  8
2
100
AcDbLine
 10
131.156349
 20
33.894687
 30
0.0
 11
131.156349
 21
32.607195
 31
0.0
  0
ARC
  5
63F
330
74
100
AcDbEntity
  8
2
100
AcDbCircle
 10
126.656349
 20
23.907195
 30
0.0
 40
12.0
100
AcDbArc
 50
73.80864800000001
 51
106.191352
  0
ARC
  5
640
330
74
100
AcDbEntity
  8
2
100
AcDbCircle
 10
129.556349
 20
33.894687
 30
0.0
 40
1.6
100
AcDbArc
 50
0.0
 51
73.80864800000001
  0
ARC
  5
641
330
74
100
AcDbEntity
  8
2
100
AcDbCircle
 10
123.756349
 20
33.894687
 30
0.0
 40
1.6
100
AcDbArc
 50
106.191352
 51
180.0
  0
LINE
  5
642
330
74
100
AcDbEntity
  8
2
100
AcDbLine
 10
106.756349
 20
32.607195
 30
0.0
 11
97.556349
 21
32.607195
 31
0.0
  0
LINE
  5
643
330
74
100
AcDbEntity
  8
2
100
AcDbLine
 10
97.556349
 20
32.607195
 30
0.0
 11
97.556349
 21
31.307195
 31
0.0
  0
LINE
  5
644
330
74
100
AcDbEntity
  8
2
100
AcDbLine
 10
106.756349
 20
32.607195
 30
0.0
 11
106.756349
 21
31.307195
 31
0.0
  0
LINE
  5
645
330
74
100
AcDbEntity
  8
2
100
AcDbLine
 10
97.65634900000002
 20
33.894687
 30
0.0
 11
97.65634900000002
 21
32.607195
 31
0.0
  0
LINE
  5
646
330
74
100
AcDbEntity
  8
2
100
AcDbLine
 10
106.656349
 20
33.894687
 30
0.0
 11
106.656349
 21
32.607195
 31
0.0
  0
ARC
  5
647
330
74
100
AcDbEntity
  8
2
100
AcDbCircle
 10
102.156349
 20
23.907195
 30
0.0
 40
12.0
100
AcDbArc
 50
73.80864800000001
 51
106.191352
  0
ARC
  5
648
330
74
100
AcDbEntity
  8
2
100
AcDbCircle
 10
105.056349
 20
33.894687
 30
0.0
 40
1.6
100
AcDbArc
 50
0.0
 51
73.80864800000001
  0
ARC
  5
649
330
74
100
AcDbEntity
  8
2
100
AcDbCircle
 10
99.256349
 20
33.894687
 30
0.0
 40
1.6
100
AcDbArc
 50
106.191352
 51
180.0
  0
LINE
  5
64A
330
74
100
AcDbEntity
  8
2
100
AcDbLine
 10
54.756349
 20
22.607195
 30
0.0
 11
45.556349
 21
22.607195
 31
0.0
  0
LINE
  5
64B
330
74
100
AcDbEntity
  8
2
100
AcDbLine
 10
45.556349
 20
22.607195
 30
0.0
 11
45.556349
 21
21.307195
 31
0.0
  0
LINE
  5
64C
330
74
100
AcDbEntity
  8
2
100
AcDbLine
 10
54.756349
 20
22.607195
 30
0.0
 11
54.756349
 21
21.307195
 31
0.0
  0
LINE
  5
64D
330
74
100
AcDbEntity
  8
2
100
AcDbLine
 10
45.656349
 20
23.894687
 30
0.0
 11
45.656349
 21
22.607195
 31
0.0
  0
LINE
  5
64E
330
74
100
AcDbEntity
  8
2
100
AcDbLine
 10
54.656349
 20
23.894687
 30
0.0
 11
54.656349
 21
22.607195
 31
0.0
  0
ARC
  5
64F
330
74
100
AcDbEntity
  8
2
100
AcDbCircle
 10
50.156349
 20
13.907195
 30
0.0
 40
12.0
100
AcDbArc
 50
73.80864800000001
 51
106.191352
  0
ARC
  5
650
330
74
100
AcDbEntity
  8
2
100
AcDbCircle
 10
53.056349
 20
23.894687
 30
0.0
 40
1.6
100
AcDbArc
 50
0.0
 51
73.80864800000001
  0
ARC
  5
651
330
74
100
AcDbEntity
  8
2
100
AcDbCircle
 10
47.256349
 20
23.894687
 30
0.0
 40
1.6
100
AcDbArc
 50
106.191352
 51
180.0
  0
LINE
  5
652
330
74
100
AcDbEntity
  8
2
100
AcDbLine
 10
-257.704651
 20
23.894687
 30
0.0
 11
-257.704651
 21
22.607195
 31
0.0
  0
ARC
  5
653
330
74
100
AcDbEntity
  8
2
100
AcDbCircle
 10
-253.204651
 20
13.907195
 30
0.0
 40
12.0
100
AcDbArc
 50
85.21980799999999
 51
106.191352
  0
ARC
  5
654
330
74
100
AcDbEntity
  8
2
100
AcDbCircle
 10
-256.104651
 20
23.894687
 30
0.0
 40
1.6
100
AcDbArc
 50
106.191352
 51
180.0
  0
LINE
  5
655
330
74
100
AcDbEntity
  8
2
100
AcDbLine
 10
-257.804651
 20
22.607195
 30
0.0
 11
-257.452985
 21
22.607195
 31
0.0
  0
LINE
  5
656
330
74
100
AcDbEntity
  8
2
100
AcDbLine
 10
-257.804651
 20
22.607195
 30
0.0
 11
-257.804651
 21
22.40416
 31
0.0
  0
LINE
  5
657
330
74
100
AcDbEntity
  8
2
  6
CENTER
 62
     2
100
AcDbLine
 10
-203.704651
 20
113.677387
 30
0.0
 11
-185.704651
 21
113.677387
 31
0.0
  0
LINE
  5
658
330
74
100
AcDbEntity
  8
2
  6
CENTER
 62
     2
100
AcDbLine
 10
-194.704651
 20
104.677387
 30
0.0
 11
-194.704651
 21
122.677387
 31
0.0
  0
LINE
  5
659
330
74
100
AcDbEntity
  8
2
  6
CENTER
 62
     2
100
AcDbLine
 10
-259.704651
 20
113.677387
 30
0.0
 11
-241.704651
 21
113.677387
 31
0.0
  0
LINE
  5
65A
330
74
100
AcDbEntity
  8
2
  6
CENTER
 62
     2
100
AcDbLine
 10
-250.704651
 20
104.677387
 30
0.0
 11
-250.704651
 21
122.677387
 31
0.0
  0
LINE
  5
65B
330
74
100
AcDbEntity
  8
2
  6
CENTER
 62
     2
100
AcDbLine
 10
-222.704651
 20
95.91650899999999
 30
0.0
 11
-222.704651
 21
207.235864
 31
0.0
  0
LINE
  5
65C
330
74
100
AcDbEntity
  8
2
  6
CENTER
 62
     2
100
AcDbLine
 10
-262.204651
 20
165.677387
 30
0.0
 11
-244.204651
 21
165.677387
 31
0.0
  0
LINE
  5
65D
330
74
100
AcDbEntity
  8
2
  6
CENTER
 62
     2
100
AcDbLine
 10
-253.204651
 20
156.677387
 30
0.0
 11
-253.204651
 21
174.677387
 31
0.0
  0
LINE
  5
65E
330
74
100
AcDbEntity
  8
2
  6
CENTER
 62
     2
100
AcDbLine
 10
-259.2046509999999
 20
190.177387
 30
0.0
 11
-241.204651
 21
190.177387
 31
0.0
  0
LINE
  5
65F
330
74
100
AcDbEntity
  8
2
  6
CENTER
 62
     2
100
AcDbLine
 10
-250.204651
 20
181.177387
 30
0.0
 11
-250.204651
 21
199.177387
 31
0.0
  0
LINE
  5
660
330
74
100
AcDbEntity
  8
2
  6
CENTER
 62
     2
100
AcDbLine
 10
-194.704651
 20
31.136146
 30
0.0
 11
-194.704651
 21
9.157035
 31
0.0
  0
LINE
  5
661
330
74
100
AcDbEntity
  8
2
  6
CENTER
 62
     2
100
AcDbLine
 10
-250.704651
 20
31.136146
 30
0.0
 11
-250.704651
 21
9.157035
 31
0.0
  0
LINE
  5
662
330
74
100
AcDbEntity
  8
2
  6
CENTER
 62
     2
100
AcDbLine
 10
-56.284197
 20
3.007195
 30
0.0
 11
-268.221565
 21
3.007195
 31
0.0
  0
LINE
  5
663
330
74
100
AcDbEntity
  8
2
  6
CENTER
 62
     2
100
AcDbLine
 10
171.156349
 20
3.007195
 30
0.0
 11
24.555638
 21
3.007195
 31
0.0
  0
LINE
  5
664
330
74
100
AcDbEntity
  8
2
  6
CENTER
 62
     2
100
AcDbLine
 10
50.156349
 20
31.136146
 30
0.0
 11
50.156349
 21
9.157035
 31
0.0
  0
LINE
  5
665
330
74
100
AcDbEntity
  8
2
  6
CENTER
 62
     2
100
AcDbLine
 10
102.156349
 20
41.136146
 30
0.0
 11
102.156349
 21
23.166625
 31
0.0
  0
LINE
  5
666
330
74
100
AcDbEntity
  8
2
  6
CENTER
 62
     2
100
AcDbLine
 10
126.656349
 20
41.136146
 30
0.0
 11
126.656349
 21
23.166625
 31
0.0
  0
LINE
  5
667
330
74
100
AcDbEntity
  8
2
  6
CENTER
 62
     2
100
AcDbLine
 10
114.156349
 20
-53.992805
 30
0.0
 11
114.156349
 21
60.00719499999999
 31
0.0
  0
LINE
  5
668
330
74
100
AcDbEntity
  8
2
  6
CENTER
 62
     2
100
AcDbLine
 10
-268.221565
 20
177.677387
 30
0.0
 11
-56.284197
 21
177.677387
 31
0.0
  0
LINE
  5
669
330
74
100
AcDbEntity
  8
2
  6
CENTER
 62
     2
100
AcDbLine
 10
-211.704651
 20
10.983153
 30
0.0
 11
-211.704651
 21
-4.968764
 31
0.0
  0
LINE
  5
66A
330
74
100
AcDbEntity
  8
2
  6
CENTER
 62
     2
100
AcDbLine
 10
-211.704651
 20
91.67738699999999
 30
0.0
 11
-211.704651
 21
110.378083
 31
0.0
  0
LINE
  5
66B
330
74
100
AcDbEntity
  8
2
  6
CENTER
 62
     2
100
AcDbLine
 10
-233.704651
 20
91.67738699999999
 30
0.0
 11
-233.704651
 21
110.378083
 31
0.0
  0
LINE
  5
66C
330
74
100
AcDbEntity
  8
2
  6
CENTER
 62
     2
100
AcDbLine
 10
-233.704651
 20
10.983153
 30
0.0
 11
-233.704651
 21
-4.968764
 31
0.0
  0
LINE
  5
66D
330
74
100
AcDbEntity
  8
2
  6
CENTER
 62
     2
100
AcDbLine
 10
91.15634900000001
 20
23.166625
 30
0.0
 11
91.15634900000001
 21
37.891166
 31
0.0
  0
LINE
  5
66E
330
74
100
AcDbEntity
  8
2
  6
CENTER
 62
     2
100
AcDbLine
 10
65.15634900000001
 20
23.166625
 30
0.0
 11
65.15634900000001
 21
37.891166
 31
0.0
  0
LINE
  5
66F
330
74
100
AcDbEntity
  8
2
  6
CENTER
 62
     2
100
AcDbLine
 10
-229.204651
 20
154.677387
 30
0.0
 11
-216.204651
 21
154.677387
 31
0.0
  0
LINE
  5
670
330
74
100
AcDbEntity
  8
2
  6
CENTER
 62
     2
100
AcDbLine
 10
-229.204651
 20
128.677387
 30
0.0
 11
-216.204651
 21
128.677387
 31
0.0
  0
LINE
  5
671
330
74
100
AcDbEntity
  8
2
  6
CENTER
 62
     2
100
AcDbLine
 10
-253.204651
 20
31.136146
 30
0.0
 11
-253.204651
 21
9.157035
 31
0.0
  0
LINE
  5
672
330
74
100
AcDbEntity
  8
2
  6
CENTER
 62
     2
100
AcDbLine
 10
-204.454651
 20
190.177387
 30
0.0
 11
-185.954651
 21
190.177387
 31
0.0
  0
LINE
  5
673
330
74
100
AcDbEntity
  8
2
  6
CENTER
 62
     2
100
AcDbLine
 10
-195.204651
 20
180.927387
 30
0.0
 11
-195.204651
 21
199.427387
 31
0.0
  0
LINE
  5
674
330
74
100
AcDbEntity
  8
2
  6
CENTER
 62
     2
100
AcDbLine
 10
-201.454651
 20
165.677387
 30
0.0
 11
-182.954651
 21
165.677387
 31
0.0
  0
LINE
  5
675
330
74
100
AcDbEntity
  8
2
100
AcDbLine
 10
-187.454651
 20
33.568166
 30
0.0
 11
-187.454651
 21
32.607195
 31
0.0
  0
LINE
  5
676
330
74
100
AcDbEntity
  8
2
100
AcDbLine
 10
-196.954651
 20
33.568166
 30
0.0
 11
-196.954651
 21
32.607195
 31
0.0
  0
ARC
  5
677
330
74
100
AcDbEntity
  8
2
100
AcDbCircle
 10
-192.204651
 20
28.821165
 30
0.0
 40
7.486028999999999
100
AcDbArc
 50
59.915724
 51
120.084276
  0
ARC
  5
678
330
74
100
AcDbEntity
  8
2
100
AcDbCircle
 10
-189.454651
 20
33.568166
 30
0.0
 40
2.0
100
AcDbArc
 50
0.0
 51
59.915724
  0
ARC
  5
679
330
74
100
AcDbEntity
  8
2
100
AcDbCircle
 10
-194.954651
 20
33.568166
 30
0.0
 40
2.0
100
AcDbArc
 50
120.084276
 51
180.0
  0
LINE
  5
67A
330
74
100
AcDbEntity
  8
2
100
AcDbLine
 10
-192.204651
 20
32.607195
 30
0.0
 11
-196.954651
 21
32.607195
 31
0.0
  0
LINE
  5
67B
330
74
100
AcDbEntity
  8
2
100
AcDbLine
 10
-192.204651
 20
32.607195
 30
0.0
 11
-187.454651
 21
32.607195
 31
0.0
  0
LINE
  5
67C
330
74
100
AcDbEntity
  8
2
100
AcDbLine
 10
-196.804651
 20
31.307195
 30
0.0
 11
-196.804651
 21
32.607195
 31
0.0
  0
LINE
  5
67D
330
74
100
AcDbEntity
  8
2
100
AcDbLine
 10
-187.604651
 20
32.607195
 30
0.0
 11
-187.604651
 21
31.307195
 31
0.0
  0
LINE
  5
67E
330
74
100
AcDbEntity
  8
2
100
AcDbLine
 10
-192.204651
 20
32.607195
 30
0.0
 11
-191.704651
 21
31.307195
 31
0.0
  0
LINE
  5
67F
330
74
100
AcDbEntity
  8
2
100
AcDbLine
 10
-192.204651
 20
31.307195
 30
0.0
 11
-192.704651
 21
32.607195
 31
0.0
  0
ARC
  5
680
330
74
100
AcDbEntity
  8
2
100
AcDbCircle
 10
-195.204651
 20
28.821165
 30
0.0
 40
7.486028999999999
100
AcDbArc
 50
78.441214
 51
117.874573
  0
LINE
  5
681
330
74
100
AcDbEntity
  8
2
100
AcDbLine
 10
-195.204651
 20
32.607195
 30
0.0
 11
-198.704651
 21
32.607195
 31
0.0
  0
LINE
  5
682
330
74
100
AcDbEntity
  8
2
  6
CENTER
 62
     2
100
AcDbLine
 10
-195.204651
 20
37.751513
 30
0.0
 11
-195.204651
 21
24.918776
 31
0.0
  0
LINE
  5
683
330
74
100
AcDbEntity
  8
2
  6
CENTER
 62
     2
100
AcDbLine
 10
-192.204651
 20
37.751513
 30
0.0
 11
-192.204651
 21
24.918776
 31
0.0
  0
LINE
  5
684
330
74
100
AcDbEntity
  8
2
100
AcDbLine
 10
-184.704651
 20
9.007194999999999
 30
0.0
 11
-173.404651
 21
9.007194999999999
 31
0.0
  0
LINE
  5
685
330
74
100
AcDbEntity
  8
2
100
AcDbLine
 10
-144.404651
 20
9.007194999999999
 30
0.0
 11
-85.70465099999999
 21
9.007194999999999
 31
0.0
  0
LINE
  5
686
330
74
100
AcDbEntity
  8
2
100
AcDbLine
 10
-184.704651
 20
-2.992804999999999
 30
0.0
 11
-173.404651
 21
-2.992804999999999
 31
0.0
  0
LINE
  5
687
330
74
100
AcDbEntity
  8
2
100
AcDbLine
 10
-144.404651
 20
-2.992804999999999
 30
0.0
 11
-85.70465099999999
 21
-2.992804999999999
 31
0.0
  0
ARC
  5
688
330
74
100
AcDbEntity
  8
2
100
AcDbCircle
 10
-214.847338
 20
164.566307
 30
0.0
 40
0.5
100
AcDbArc
 50
251.053669
 51
337.5
  0
LINE
  5
689
330
74
100
AcDbEntity
  8
2
100
AcDbLine
 10
-223.876595
 20
174.677499
 30
0.0
 11
-223.875084
 21
174.986062
 31
0.0
  0
LINE
  5
68A
330
74
100
AcDbEntity
  8
2
100
AcDbLine
 10
-223.875084
 20
174.986062
 30
0.0
 11
-223.72065
 21
175.458955
 31
0.0
  0
LINE
  5
68B
330
74
100
AcDbEntity
  8
2
100
AcDbLine
 10
-223.72065
 20
175.458955
 30
0.0
 11
-223.486794
 21
175.772058
 31
0.0
  0
LINE
  5
68C
330
74
100
AcDbEntity
  8
2
100
AcDbLine
 10
-223.486794
 20
175.772058
 30
0.0
 11
-223.174919
 21
176.005342
 31
0.0
  0
LINE
  5
68D
330
74
100
AcDbEntity
  8
2
100
AcDbLine
 10
-223.174919
 20
176.005342
 30
0.0
 11
-222.783348
 21
176.163087
 31
0.0
  0
LINE
  5
68E
330
74
100
AcDbEntity
  8
2
100
AcDbLine
 10
-222.783348
 20
176.163087
 30
0.0
 11
-222.472435
 21
176.163087
 31
0.0
  0
LINE
  5
68F
330
74
100
AcDbEntity
  8
2
100
AcDbLine
 10
-222.472435
 20
176.163087
 30
0.0
 11
-222.079277
 21
176.00541
 31
0.0
  0
LINE
  5
690
330
74
100
AcDbEntity
  8
2
100
AcDbLine
 10
-222.079277
 20
176.00541
 30
0.0
 11
-221.767418
 21
175.771485
 31
0.0
  0
LINE
  5
691
330
74
100
AcDbEntity
  8
2
100
AcDbLine
 10
-221.767418
 20
175.771485
 30
0.0
 11
-221.532311
 21
175.459634
 31
0.0
  0
LINE
  5
692
330
74
100
AcDbEntity
  8
2
100
AcDbLine
 10
-221.532311
 20
175.459634
 30
0.0
 11
-221.375176
 21
174.990602
 31
0.0
  0
LINE
  5
693
330
74
100
AcDbEntity
  8
2
100
AcDbLine
 10
-221.375176
 20
174.990602
 30
0.0
 11
-221.375176
 21
174.650596
 31
0.0
  0
LINE
  5
694
330
74
100
AcDbEntity
  8
2
100
AcDbLine
 10
56.15634899999999
 20
28.007195
 30
0.0
 11
76.756349
 21
28.007195
 31
0.0
  0
LINE
  5
695
330
74
100
AcDbEntity
  8
2
100
AcDbLine
 10
79.55634899999999
 20
28.007195
 30
0.0
 11
92.15634900000001
 21
28.007195
 31
0.0
  0
LINE
  5
696
330
74
100
AcDbEntity
  8
2
100
AcDbLine
 10
-171.404651
 20
199.677387
 30
0.0
 11
-171.404651
 21
155.677387
 31
0.0
  0
LINE
  5
697
330
74
100
AcDbEntity
  8
2
100
AcDbLine
 10
-201.204651
 20
199.677387
 30
0.0
 11
-201.204651
 21
166.677387
 31
0.0
  0
LINE
  5
698
330
74
100
AcDbEntity
  8
2
100
AcDbLine
 10
-201.204651
 20
199.677387
 30
0.0
 11
-171.404651
 21
199.677387
 31
0.0
  0
LINE
  5
699
330
74
100
AcDbEntity
  8
2
100
AcDbLine
 10
-192.204651
 20
155.677387
 30
0.0
 11
-171.404651
 21
155.677387
 31
0.0
  0
LINE
  5
69A
330
74
100
AcDbEntity
  8
2
100
AcDbLine
 10
-171.404651
 20
198.819523
 30
0.0
 11
-171.404651
 21
156.535252
 31
0.0
  0
LINE
  5
69B
330
74
100
AcDbEntity
  8
2
100
AcDbLine
 10
-156.404651
 20
190.677387
 30
0.0
 11
-156.404651
 21
164.677387
 31
0.0
  0
LINE
  5
69C
330
74
100
AcDbEntity
  8
2
100
AcDbLine
 10
-160.404651
 20
191.177387
 30
0.0
 11
-156.904651
 21
191.177387
 31
0.0
  0
LINE
  5
69D
330
74
100
AcDbEntity
  8
2
100
AcDbLine
 10
-165.404651
 20
164.177387
 30
0.0
 11
-156.904651
 21
164.177387
 31
0.0
  0
LINE
  5
69E
330
74
100
AcDbEntity
  8
2
100
AcDbLine
 10
-171.404651
 20
198.819523
 30
0.0
 11
-168.404651
 21
198.819523
 31
0.0
  0
LINE
  5
69F
330
74
100
AcDbEntity
  8
2
100
AcDbLine
 10
-171.404651
 20
156.535252
 30
0.0
 11
-168.404651
 21
156.535252
 31
0.0
  0
ARC
  5
6A0
330
74
100
AcDbEntity
  8
2
100
AcDbCircle
 10
-168.404651
 20
196.819523
 30
0.0
 40
2.0
100
AcDbArc
 50
0.0
 51
90.0
  0
ARC
  5
6A1
330
74
100
AcDbEntity
  8
2
100
AcDbCircle
 10
-168.404651
 20
158.535252
 30
0.0
 40
2.0
100
AcDbArc
 50
270.0
 51
0.0
  0
ARC
  5
6A2
330
74
100
AcDbEntity
  8
2
100
AcDbCircle
 10
-165.404651
 20
163.177387
 30
0.0
 40
1.0
100
AcDbArc
 50
90.0
 51
180.0
  0
LINE
  5
6A3
330
74
100
AcDbEntity
  8
2
100
AcDbLine
 10
-156.904651
 20
191.177387
 30
0.0
 11
-156.404651
 21
190.677387
 31
0.0
  0
LINE
  5
6A4
330
74
100
AcDbEntity
  8
2
100
AcDbLine
 10
-156.904651
 20
164.177387
 30
0.0
 11
-156.404651
 21
164.677387
 31
0.0
  0
LINE
  5
6A5
330
74
100
AcDbEntity
  8
2
100
AcDbLine
 10
-166.404651
 20
196.819523
 30
0.0
 11
-166.404651
 21
158.535252
 31
0.0
  0
LINE
  5
6A6
330
74
100
AcDbEntity
  8
2
  6
CENTER
 62
     2
100
AcDbLine
 10
-175.986503
 20
163.535252
 30
0.0
 11
-152.869433
 21
163.535252
 31
0.0
  0
LINE
  5
6A7
330
74
100
AcDbEntity
  8
2
  6
CENTER
 62
     2
100
AcDbLine
 10
-152.869433
 20
191.819523
 30
0.0
 11
-175.986503
 21
191.819523
 31
0.0
  0
LINE
  5
6A8
330
74
100
AcDbEntity
  8
2
100
AcDbLine
 10
-144.404651
 20
211.677387
 30
0.0
 11
-149.404651
 21
211.677387
 31
0.0
  0
LINE
  5
6A9
330
74
100
AcDbEntity
  8
2
100
AcDbLine
 10
-144.404651
 20
166.677387
 30
0.0
 11
-149.404651
 21
166.677387
 31
0.0
  0
LINE
  5
6AA
330
74
100
AcDbEntity
  8
2
100
AcDbLine
 10
-144.404651
 20
211.677387
 30
0.0
 11
-144.404651
 21
166.677387
 31
0.0
  0
LINE
  5
6AB
330
74
100
AcDbEntity
  8
2
100
AcDbLine
 10
-149.404651
 20
187.677387
 30
0.0
 11
-156.404651
 21
187.677387
 31
0.0
  0
LINE
  5
6AC
330
74
100
AcDbEntity
  8
2
100
AcDbLine
 10
-149.404651
 20
167.677387
 30
0.0
 11
-156.404651
 21
167.677387
 31
0.0
  0
LINE
  5
6AD
330
74
100
AcDbEntity
  8
2
100
AcDbLine
 10
-149.404651
 20
166.677387
 30
0.0
 11
-149.404651
 21
211.677387
 31
0.0
  0
LINE
  5
6AE
330
74
100
AcDbEntity
  8
2
 62
     2
100
AcDbLine
 10
-151.404651
 20
186.677387
 30
0.0
 11
-156.404651
 21
186.677387
 31
0.0
  0
LINE
  5
6AF
330
74
100
AcDbEntity
  8
2
100
AcDbLine
 10
-151.404651
 20
187.677387
 30
0.0
 11
-151.404651
 21
167.677387
 31
0.0
  0
LINE
  5
6B0
330
74
100
AcDbEntity
  8
2
 62
     2
100
AcDbLine
 10
-150.404651
 20
187.677387
 30
0.0
 11
-151.404651
 21
186.677387
 31
0.0
  0
LINE
  5
6B1
330
74
100
AcDbEntity
  8
2
 62
     2
100
AcDbLine
 10
-151.404651
 20
168.677387
 30
0.0
 11
-156.404651
 21
168.677387
 31
0.0
  0
LINE
  5
6B2
330
74
100
AcDbEntity
  8
2
 62
     2
100
AcDbLine
 10
-150.404651
 20
167.677387
 30
0.0
 11
-151.404651
 21
168.677387
 31
0.0
  0
LINE
  5
6B3
330
74
100
AcDbEntity
  8
2
100
AcDbLine
 10
-166.404651
 20
158.535252
 30
0.0
 11
-160.804651
 21
158.535252
 31
0.0
  0
LINE
  5
6B4
330
74
100
AcDbEntity
  8
2
100
AcDbLine
 10
-160.804651
 20
158.535252
 30
0.0
 11
-160.404651
 21
159.228072
 31
0.0
  0
LINE
  5
6B5
330
74
100
AcDbEntity
  8
2
100
AcDbLine
 10
-160.404651
 20
159.228072
 30
0.0
 11
-160.404651
 21
164.177387
 31
0.0
  0
LINE
  5
6B6
330
74
100
AcDbEntity
  8
2
100
AcDbLine
 10
-160.804651
 20
164.177387
 30
0.0
 11
-160.804651
 21
158.535252
 31
0.0
  0
LINE
  5
6B7
330
74
100
AcDbEntity
  8
2
100
AcDbLine
 10
-166.404651
 20
186.819523
 30
0.0
 11
-160.804651
 21
186.819523
 31
0.0
  0
LINE
  5
6B8
330
74
100
AcDbEntity
  8
2
100
AcDbLine
 10
-160.804651
 20
186.819523
 30
0.0
 11
-160.404651
 21
187.512343
 31
0.0
  0
LINE
  5
6B9
330
74
100
AcDbEntity
  8
2
100
AcDbLine
 10
-160.404651
 20
187.512343
 30
0.0
 11
-160.404651
 21
196.126703
 31
0.0
  0
LINE
  5
6BA
330
74
100
AcDbEntity
  8
2
100
AcDbLine
 10
-166.404651
 20
196.819523
 30
0.0
 11
-160.804651
 21
196.819523
 31
0.0
  0
LINE
  5
6BB
330
74
100
AcDbEntity
  8
2
100
AcDbLine
 10
-160.804651
 20
196.819523
 30
0.0
 11
-160.404651
 21
196.126703
 31
0.0
  0
LINE
  5
6BC
330
74
100
AcDbEntity
  8
2
100
AcDbLine
 10
-160.804651
 20
196.819523
 30
0.0
 11
-160.804651
 21
186.819523
 31
0.0
  0
LINE
  5
6BD
330
74
100
AcDbEntity
  8
2
100
AcDbLine
 10
-171.404651
 20
24.307195
 30
0.0
 11
-171.404651
 21
-18.992805
 31
0.0
  0
LINE
  5
6BE
330
74
100
AcDbEntity
  8
2
100
AcDbLine
 10
-173.404651
 20
24.307195
 30
0.0
 11
-173.404651
 21
-18.992805
 31
0.0
  0
LINE
  5
6BF
330
74
100
AcDbEntity
  8
2
100
AcDbLine
 10
-198.704651
 20
31.307195
 30
0.0
 11
-178.404651
 21
31.307195
 31
0.0
  0
LINE
  5
6C0
330
74
100
AcDbEntity
  8
2
100
AcDbLine
 10
-198.704651
 20
29.307195
 30
0.0
 11
-178.404651
 21
29.307195
 31
0.0
  0
ARC
  5
6C1
330
74
100
AcDbEntity
  8
2
100
AcDbCircle
 10
-178.404651
 20
24.307195
 30
0.0
 40
5.0
100
AcDbArc
 50
0.0
 51
90.0
  0
ARC
  5
6C2
330
74
100
AcDbEntity
  8
2
100
AcDbCircle
 10
-178.404651
 20
24.307195
 30
0.0
 40
7.0
100
AcDbArc
 50
0.0
 51
90.0
  0
LINE
  5
6C3
330
74
100
AcDbEntity
  8
2
100
AcDbLine
 10
-173.404651
 20
-18.992805
 30
0.0
 11
-171.404651
 21
-18.992805
 31
0.0
  0
LINE
  5
6C4
330
74
100
AcDbEntity
  8
2
100
AcDbLine
 10
-197.204651
 20
27.807195
 30
0.0
 11
-197.204651
 21
29.307195
 31
0.0
  0
LINE
  5
6C5
330
74
100
AcDbEntity
  8
2
100
AcDbLine
 10
-187.204651
 20
22.17322
 30
0.0
 11
-187.204651
 21
29.307195
 31
0.0
  0
LINE
  5
6C6
330
74
100
AcDbEntity
  8
2
100
AcDbLine
 10
-171.404651
 20
24.14933
 30
0.0
 11
-171.404651
 21
-18.134941
 31
0.0
  0
LINE
  5
6C7
330
74
100
AcDbEntity
  8
2
100
AcDbLine
 10
-156.404651
 20
16.007195
 30
0.0
 11
-156.404651
 21
-9.992805
 31
0.0
  0
LINE
  5
6C8
330
74
100
AcDbEntity
  8
2
100
AcDbLine
 10
-165.404651
 20
16.507195
 30
0.0
 11
-156.904651
 21
16.507195
 31
0.0
  0
LINE
  5
6C9
330
74
100
AcDbEntity
  8
2
100
AcDbLine
 10
-160.404651
 20
-10.492805
 30
0.0
 11
-156.904651
 21
-10.492805
 31
0.0
  0
LINE
  5
6CA
330
74
100
AcDbEntity
  8
2
100
AcDbLine
 10
-171.404651
 20
24.14933
 30
0.0
 11
-168.404651
 21
24.14933
 31
0.0
  0
LINE
  5
6CB
330
74
100
AcDbEntity
  8
2
100
AcDbLine
 10
-171.404651
 20
-18.134941
 30
0.0
 11
-168.404651
 21
-18.134941
 31
0.0
  0
ARC
  5
6CC
330
74
100
AcDbEntity
  8
2
100
AcDbCircle
 10
-168.404651
 20
22.14933
 30
0.0
 40
2.0
100
AcDbArc
 50
0.0
 51
90.0
  0
ARC
  5
6CD
330
74
100
AcDbEntity
  8
2
100
AcDbCircle
 10
-168.404651
 20
-16.134941
 30
0.0
 40
2.0
100
AcDbArc
 50
270.0
 51
0.0
  0
ARC
  5
6CE
330
74
100
AcDbEntity
  8
2
100
AcDbCircle
 10
-165.404651
 20
17.507195
 30
0.0
 40
1.0
100
AcDbArc
 50
180.0
 51
270.0
  0
LINE
  5
6CF
330
74
100
AcDbEntity
  8
2
100
AcDbLine
 10
-156.904651
 20
16.507195
 30
0.0
 11
-156.404651
 21
16.007195
 31
0.0
  0
LINE
  5
6D0
330
74
100
AcDbEntity
  8
2
100
AcDbLine
 10
-156.904651
 20
-10.492805
 30
0.0
 11
-156.404651
 21
-9.992805
 31
0.0
  0
LINE
  5
6D1
330
74
100
AcDbEntity
  8
2
100
AcDbLine
 10
-166.404651
 20
22.14933
 30
0.0
 11
-166.404651
 21
-16.134941
 31
0.0
  0
LINE
  5
6D2
330
74
100
AcDbEntity
  8
2
100
AcDbLine
 10
-144.404651
 20
14.007195
 30
0.0
 11
-149.404651
 21
14.007195
 31
0.0
  0
LINE
  5
6D3
330
74
100
AcDbEntity
  8
2
100
AcDbLine
 10
-144.404651
 20
-7.992805
 30
0.0
 11
-144.404651
 21
14.007195
 31
0.0
  0
LINE
  5
6D4
330
74
100
AcDbEntity
  8
2
100
AcDbLine
 10
-149.404651
 20
-6.992805
 30
0.0
 11
-156.404651
 21
-6.992805
 31
0.0
  0
LINE
  5
6D5
330
74
100
AcDbEntity
  8
2
100
AcDbLine
 10
-149.404651
 20
13.007195
 30
0.0
 11
-156.404651
 21
13.007195
 31
0.0
  0
LINE
  5
6D6
330
74
100
AcDbEntity
  8
2
100
AcDbLine
 10
-149.404651
 20
14.007195
 30
0.0
 11
-149.404651
 21
13.007195
 31
0.0
  0
LINE
  5
6D7
330
74
100
AcDbEntity
  8
2
100
AcDbLine
 10
-149.404651
 20
14.007195
 30
0.0
 11
-149.404651
 21
-7.992805
 31
0.0
  0
LINE
  5
6D8
330
74
100
AcDbEntity
  8
2
100
AcDbLine
 10
-144.404651
 20
-7.992805
 30
0.0
 11
-149.404651
 21
-7.992805
 31
0.0
  0
LINE
  5
6D9
330
74
100
AcDbEntity
  8
2
 62
     2
100
AcDbLine
 10
-151.404651
 20
12.007195
 30
0.0
 11
-156.404651
 21
12.007195
 31
0.0
  0
LINE
  5
6DA
330
74
100
AcDbEntity
  8
2
100
AcDbLine
 10
-151.404651
 20
13.007195
 30
0.0
 11
-151.404651
 21
-6.992805
 31
0.0
  0
LINE
  5
6DB
330
74
100
AcDbEntity
  8
2
 62
     2
100
AcDbLine
 10
-150.404651
 20
13.007195
 30
0.0
 11
-151.404651
 21
12.007195
 31
0.0
  0
LINE
  5
6DC
330
74
100
AcDbEntity
  8
2
 62
     2
100
AcDbLine
 10
-151.404651
 20
-5.992805
 30
0.0
 11
-156.404651
 21
-5.992805
 31
0.0
  0
LINE
  5
6DD
330
74
100
AcDbEntity
  8
2
 62
     2
100
AcDbLine
 10
-150.404651
 20
-6.992805
 30
0.0
 11
-151.404651
 21
-5.992805
 31
0.0
  0
LINE
  5
6DE
330
74
100
AcDbEntity
  8
2
  6
CENTER
 62
     2
100
AcDbLine
 10
-188.33132
 20
-11.134941
 30
0.0
 11
-150.404651
 21
-11.134941
 31
0.0
  0
LINE
  5
6DF
330
74
100
AcDbEntity
  8
2
100
AcDbLine
 10
-166.404651
 20
-11.134941
 30
0.0
 11
-166.404651
 21
-6.134941
 31
0.0
  0
LINE
  5
6E0
330
74
100
AcDbEntity
  8
2
100
AcDbLine
 10
-166.404651
 20
-6.134941
 30
0.0
 11
-160.804651
 21
-6.134941
 31
0.0
  0
LINE
  5
6E1
330
74
100
AcDbEntity
  8
2
100
AcDbLine
 10
-160.804651
 20
-6.134941
 30
0.0
 11
-160.404651
 21
-6.827760999999999
 31
0.0
  0
LINE
  5
6E2
330
74
100
AcDbEntity
  8
2
100
AcDbLine
 10
-160.404651
 20
-6.827760999999999
 30
0.0
 11
-160.404651
 21
-15.442121
 31
0.0
  0
LINE
  5
6E3
330
74
100
AcDbEntity
  8
2
100
AcDbLine
 10
-160.804651
 20
-6.134941
 30
0.0
 11
-160.804651
 21
-16.134941
 31
0.0
  0
LINE
  5
6E4
330
74
100
AcDbEntity
  8
2
100
AcDbLine
 10
-181.404651
 20
-13.593941
 30
0.0
 11
-181.404651
 21
-8.675940999999999
 31
0.0
  0
LINE
  5
6E5
330
74
100
AcDbEntity
  8
2
100
AcDbLine
 10
-181.404651
 20
-8.675940999999999
 30
0.0
 11
-180.863651
 21
-8.134940999999999
 31
0.0
  0
LINE
  5
6E6
330
74
100
AcDbEntity
  8
2
100
AcDbLine
 10
-180.863651
 20
-8.134940999999999
 30
0.0
 11
-178.404651
 21
-8.134940999999999
 31
0.0
  0
LINE
  5
6E7
330
74
100
AcDbEntity
  8
2
100
AcDbLine
 10
-180.863651
 20
-8.134940999999999
 30
0.0
 11
-180.863651
 21
-14.134941
 31
0.0
  0
LINE
  5
6E8
330
74
100
AcDbEntity
  8
2
 62
     2
100
AcDbLine
 10
-181.404651
 20
-8.675940999999999
 30
0.0
 11
-178.404651
 21
-8.675940999999999
 31
0.0
  0
LINE
  5
6E9
330
74
100
AcDbEntity
  8
2
100
AcDbLine
 10
-166.404651
 20
-11.134941
 30
0.0
 11
-166.404651
 21
-16.134941
 31
0.0
  0
LINE
  5
6EA
330
74
100
AcDbEntity
  8
2
100
AcDbLine
 10
-166.404651
 20
-16.134941
 30
0.0
 11
-160.804651
 21
-16.134941
 31
0.0
  0
LINE
  5
6EB
330
74
100
AcDbEntity
  8
2
100
AcDbLine
 10
-160.804651
 20
-16.134941
 30
0.0
 11
-160.404651
 21
-15.442121
 31
0.0
  0
LINE
  5
6EC
330
74
100
AcDbEntity
  8
2
100
AcDbLine
 10
-181.404651
 20
-13.593941
 30
0.0
 11
-180.863651
 21
-14.134941
 31
0.0
  0
LINE
  5
6ED
330
74
100
AcDbEntity
  8
2
100
AcDbLine
 10
-180.863651
 20
-14.134941
 30
0.0
 11
-178.404651
 21
-14.134941
 31
0.0
  0
LINE
  5
6EE
330
74
100
AcDbEntity
  8
2
 62
     2
100
AcDbLine
 10
-181.404651
 20
-13.593941
 30
0.0
 11
-178.404651
 21
-13.593941
 31
0.0
  0
LINE
  5
6EF
330
74
100
AcDbEntity
  8
2
100
AcDbLine
 10
-173.404651
 20
-5.384941
 30
0.0
 11
-177.913903
 21
-5.384941
 31
0.0
  0
LINE
  5
6F0
330
74
100
AcDbEntity
  8
2
100
AcDbLine
 10
-173.404651
 20
-16.884941
 30
0.0
 11
-177.913903
 21
-16.884941
 31
0.0
  0
LINE
  5
6F1
330
74
100
AcDbEntity
  8
2
100
AcDbLine
 10
-177.913903
 20
-16.884941
 30
0.0
 11
-178.404651
 21
-16.034941
 31
0.0
  0
LINE
  5
6F2
330
74
100
AcDbEntity
  8
2
100
AcDbLine
 10
-173.404651
 20
-14.009941
 30
0.0
 11
-177.913903
 21
-14.009941
 31
0.0
  0
ARC
  5
6F3
330
74
100
AcDbEntity
  8
2
100
AcDbCircle
 10
-176.065948
 20
-15.447441
 30
0.0
 40
2.341226999999999
100
AcDbArc
 50
142.121121
 51
217.878879
  0
LINE
  5
6F4
330
74
100
AcDbEntity
  8
2
100
AcDbLine
 10
-177.913903
 20
-5.384941
 30
0.0
 11
-178.404651
 21
-6.234941
 31
0.0
  0
LINE
  5
6F5
330
74
100
AcDbEntity
  8
2
100
AcDbLine
 10
-178.404651
 20
-6.234941
 30
0.0
 11
-178.404651
 21
-16.034941
 31
0.0
  0
LINE
  5
6F6
330
74
100
AcDbEntity
  8
2
100
AcDbLine
 10
-173.404651
 20
-8.259940999999999
 30
0.0
 11
-177.913903
 21
-8.259940999999999
 31
0.0
  0
ARC
  5
6F7
330
74
100
AcDbEntity
  8
2
100
AcDbCircle
 10
-176.065948
 20
-6.822441
 30
0.0
 40
2.341226999999999
100
AcDbArc
 50
142.121121
 51
217.878879
  0
ARC
  5
6F8
330
74
100
AcDbEntity
  8
2
100
AcDbCircle
 10
-169.782175
 20
-11.134941
 30
0.0
 40
8.625
100
AcDbArc
 50
160.528782
 51
199.471218
  0
LINE
  5
6F9
330
74
100
AcDbEntity
  8
2
  6
CENTER
 62
     2
100
AcDbLine
 10
-188.33132
 20
17.14933
 30
0.0
 11
-150.404651
 21
17.14933
 31
0.0
  0
LINE
  5
6FA
330
74
100
AcDbEntity
  8
2
100
AcDbLine
 10
-166.404651
 20
17.14933
 30
0.0
 11
-166.404651
 21
12.14933
 31
0.0
  0
LINE
  5
6FB
330
74
100
AcDbEntity
  8
2
100
AcDbLine
 10
-181.404651
 20
19.60833
 30
0.0
 11
-181.404651
 21
14.69033
 31
0.0
  0
LINE
  5
6FC
330
74
100
AcDbEntity
  8
2
100
AcDbLine
 10
-181.404651
 20
14.69033
 30
0.0
 11
-180.863651
 21
14.14933
 31
0.0
  0
LINE
  5
6FD
330
74
100
AcDbEntity
  8
2
100
AcDbLine
 10
-180.863651
 20
14.14933
 30
0.0
 11
-178.404651
 21
14.14933
 31
0.0
  0
LINE
  5
6FE
330
74
100
AcDbEntity
  8
2
100
AcDbLine
 10
-180.863651
 20
14.14933
 30
0.0
 11
-180.863651
 21
20.14933
 31
0.0
  0
LINE
  5
6FF
330
74
100
AcDbEntity
  8
2
 62
     2
100
AcDbLine
 10
-181.404651
 20
14.69033
 30
0.0
 11
-178.404651
 21
14.69033
 31
0.0
  0
LINE
  5
700
330
74
100
AcDbEntity
  8
2
100
AcDbLine
 10
-166.404651
 20
17.14933
 30
0.0
 11
-166.404651
 21
22.14933
 31
0.0
  0
LINE
  5
701
330
74
100
AcDbEntity
  8
2
100
AcDbLine
 10
-166.404651
 20
22.14933
 30
0.0
 11
-160.804651
 21
22.14933
 31
0.0
  0
LINE
  5
702
330
74
100
AcDbEntity
  8
2
100
AcDbLine
 10
-160.804651
 20
22.14933
 30
0.0
 11
-160.404651
 21
21.45651
 31
0.0
  0
LINE
  5
703
330
74
100
AcDbEntity
  8
2
100
AcDbLine
 10
-160.404651
 20
21.45651
 30
0.0
 11
-160.404651
 21
16.507195
 31
0.0
  0
LINE
  5
704
330
74
100
AcDbEntity
  8
2
100
AcDbLine
 10
-160.804651
 20
16.507195
 30
0.0
 11
-160.804651
 21
22.14933
 31
0.0
  0
LINE
  5
705
330
74
100
AcDbEntity
  8
2
100
AcDbLine
 10
-181.404651
 20
19.60833
 30
0.0
 11
-180.863651
 21
20.14933
 31
0.0
  0
LINE
  5
706
330
74
100
AcDbEntity
  8
2
100
AcDbLine
 10
-180.863651
 20
20.14933
 30
0.0
 11
-178.404651
 21
20.14933
 31
0.0
  0
LINE
  5
707
330
74
100
AcDbEntity
  8
2
 62
     2
100
AcDbLine
 10
-181.404651
 20
19.60833
 30
0.0
 11
-178.404651
 21
19.60833
 31
0.0
  0
LINE
  5
708
330
74
100
AcDbEntity
  8
2
100
AcDbLine
 10
-173.404651
 20
11.39933
 30
0.0
 11
-177.913903
 21
11.39933
 31
0.0
  0
LINE
  5
709
330
74
100
AcDbEntity
  8
2
100
AcDbLine
 10
-173.404651
 20
22.89933
 30
0.0
 11
-177.913903
 21
22.89933
 31
0.0
  0
LINE
  5
70A
330
74
100
AcDbEntity
  8
2
100
AcDbLine
 10
-177.913903
 20
22.89933
 30
0.0
 11
-178.404651
 21
22.04933
 31
0.0
  0
LINE
  5
70B
330
74
100
AcDbEntity
  8
2
100
AcDbLine
 10
-178.404651
 20
22.04933
 30
0.0
 11
-178.404651
 21
12.24933
 31
0.0
  0
LINE
  5
70C
330
74
100
AcDbEntity
  8
2
100
AcDbLine
 10
-173.404651
 20
20.02433
 30
0.0
 11
-177.913903
 21
20.02433
 31
0.0
  0
ARC
  5
70D
330
74
100
AcDbEntity
  8
2
100
AcDbCircle
 10
-176.065948
 20
21.46183
 30
0.0
 40
2.341226999999999
100
AcDbArc
 50
142.121121
 51
217.878879
  0
ARC
  5
70E
330
74
100
AcDbEntity
  8
2
100
AcDbCircle
 10
-169.782175
 20
17.14933
 30
0.0
 40
8.625
100
AcDbArc
 50
160.528782
 51
199.471218
  0
LINE
  5
70F
330
74
100
AcDbEntity
  8
2
100
AcDbLine
 10
-177.913903
 20
11.39933
 30
0.0
 11
-178.404651
 21
12.24933
 31
0.0
  0
LINE
  5
710
330
74
100
AcDbEntity
  8
2
100
AcDbLine
 10
-173.404651
 20
14.27433
 30
0.0
 11
-177.913903
 21
14.27433
 31
0.0
  0
ARC
  5
711
330
74
100
AcDbEntity
  8
2
100
AcDbCircle
 10
-176.065948
 20
12.83683
 30
0.0
 40
2.341226999999999
100
AcDbArc
 50
142.121121
 51
217.878879
  0
CIRCLE
  5
712
330
74
100
AcDbEntity
  8
2
  6
PHANTOM
 62
     2
100
AcDbCircle
 10
114.156349
 20
3.007195
 30
0.0
 40
50.0
  0
CIRCLE
  5
713
330
74
100
AcDbEntity
  8
2
100
AcDbCircle
 10
114.156349
 20
3.007195
 30
0.0
 40
6.0
  0
LINE
  5
714
330
74
100
AcDbEntity
  8
2
100
AcDbLine
 10
92.15634900000001
 20
31.307195
 30
0.0
 11
92.15634900000001
 21
-11.992805
 31
0.0
  0
LINE
  5
715
330
74
100
AcDbEntity
  8
2
100
AcDbLine
 10
136.156349
 20
31.307195
 30
0.0
 11
92.15634900000001
 21
31.307195
 31
0.0
  0
LINE
  5
716
330
74
100
AcDbEntity
  8
2
100
AcDbLine
 10
129.156349
 20
-18.992805
 30
0.0
 11
99.156349
 21
-18.992805
 31
0.0
  0
ARC
  5
717
330
74
100
AcDbEntity
  8
2
100
AcDbCircle
 10
129.156349
 20
-11.992805
 30
0.0
 40
7.0
100
AcDbArc
 50
270.0
 51
0.0
  0
ARC
  5
718
330
74
100
AcDbEntity
  8
2
100
AcDbCircle
 10
99.156349
 20
-11.992805
 30
0.0
 40
7.0
100
AcDbArc
 50
180.0
 51
270.0
  0
LINE
  5
719
330
74
100
AcDbEntity
  8
2
100
AcDbLine
 10
136.156349
 20
31.307195
 30
0.0
 11
136.156349
 21
9.598078999999998
 31
0.0
  0
LINE
  5
71A
330
74
100
AcDbEntity
  8
2
100
AcDbLine
 10
136.156349
 20
-3.583689
 30
0.0
 11
136.156349
 21
-11.992805
 31
0.0
  0
LINE
  5
71B
330
74
100
AcDbEntity
  8
2
  6
CENTER
 62
     2
100
AcDbLine
 10
128.298485
 20
24.94933
 30
0.0
 11
128.298485
 21
9.34933
 31
0.0
  0
LINE
  5
71C
330
74
100
AcDbEntity
  8
2
  6
CENTER
 62
     2
100
AcDbLine
 10
120.498485
 20
17.14933
 30
0.0
 11
136.098485
 21
17.14933
 31
0.0
  0
LINE
  5
71D
330
74
100
AcDbEntity
  8
2
  6
CENTER
 62
     2
100
AcDbLine
 10
100.014214
 20
-3.334941
 30
0.0
 11
100.014214
 21
-18.934941
 31
0.0
  0
LINE
  5
71E
330
74
100
AcDbEntity
  8
2
  6
CENTER
 62
     2
100
AcDbLine
 10
92.214214
 20
-11.134941
 30
0.0
 11
107.814214
 21
-11.134941
 31
0.0
  0
ARC
  5
71F
330
74
100
AcDbEntity
  8
2
100
AcDbCircle
 10
124.055844
 20
-6.892299999999999
 30
0.0
 40
30.0
100
AcDbArc
 50
99.581897
 51
170.418103
  0
ARC
  5
720
330
74
100
AcDbEntity
  8
2
100
AcDbCircle
 10
104.256854
 20
12.906689
 30
0.0
 40
30.0
100
AcDbArc
 50
279.581897
 51
322.671465
  0
LINE
  5
721
330
74
100
AcDbEntity
  8
2
100
AcDbLine
 10
119.062128
 20
22.68916
 30
0.0
 11
127.133285
 21
24.051671
 31
0.0
  0
LINE
  5
722
330
74
100
AcDbEntity
  8
2
100
AcDbLine
 10
135.200826
 20
15.98413
 30
0.0
 11
134.192876
 21
10.013299
 31
0.0
  0
LINE
  5
723
330
74
100
AcDbEntity
  8
2
100
AcDbLine
 10
109.25057
 20
-16.674771
 30
0.0
 11
101.179414
 21
-18.037282
 31
0.0
  0
LINE
  5
724
330
74
100
AcDbEntity
  8
2
100
AcDbLine
 10
93.111873
 20
-9.969741
 30
0.0
 11
94.47438400000001
 21
-1.898583999999999
 31
0.0
  0
ARC
  5
725
330
74
100
AcDbEntity
  8
2
100
AcDbCircle
 10
100.014214
 20
-11.134941
 30
0.0
 40
7.0
100
AcDbArc
 50
170.418103
 51
279.581897
  0
ARC
  5
726
330
74
100
AcDbEntity
  8
2
100
AcDbCircle
 10
128.298485
 20
17.14933
 30
0.0
 40
7.0
100
AcDbArc
 50
350.418103
 51
99.581897
  0
ARC
  5
727
330
74
100
AcDbEntity
  8
2
100
AcDbCircle
 10
114.156349
 20
3.007195
 30
0.0
 40
13.0
100
AcDbArc
 50
45.85522899999999
 51
314.144771
  0
ARC
  5
728
330
74
100
AcDbEntity
  8
2
100
AcDbCircle
 10
114.156349
 20
3.007195
 30
0.0
 40
13.5
100
AcDbArc
 50
42.62851099999999
 51
317.371489
  0
LINE
  5
729
330
74
100
AcDbEntity
  8
2
100
AcDbLine
 10
144.190832
 20
7.899008999999999
 30
0.0
 11
116.432211
 21
13.769186
 31
0.0
  0
LINE
  5
72A
330
74
100
AcDbEntity
  8
2
100
AcDbLine
 10
144.190832
 20
-1.884619999999999
 30
0.0
 11
116.432211
 21
-7.754796999999999
 31
0.0
  0
ARC
  5
72B
330
74
100
AcDbEntity
  8
2
100
AcDbCircle
 10
143.156349
 20
3.007195
 30
0.0
 40
5.0
100
AcDbArc
 50
281.940544
 51
78.05945600000001
  0
ARC
  5
72C
330
74
100
AcDbEntity
  8
2
100
AcDbCircle
 10
114.156349
 20
3.007195
 30
0.0
 40
11.0
100
AcDbArc
 50
78.05945600000001
 51
281.940544
  0
CIRCLE
  5
72D
330
74
100
AcDbEntity
  8
2
100
AcDbCircle
 10
128.298485
 20
17.14933
 30
0.0
 40
5.0
  0
CIRCLE
  5
72E
330
74
100
AcDbEntity
  8
2
100
AcDbCircle
 10
128.298485
 20
17.14933
 30
0.0
 40
4.30718
  0
CIRCLE
  5
72F
330
74
100
AcDbEntity
  8
2
100
AcDbCircle
 10
100.014214
 20
-11.134941
 30
0.0
 40
5.0
  0
CIRCLE
  5
730
330
74
100
AcDbEntity
  8
2
100
AcDbCircle
 10
100.014214
 20
-11.134941
 30
0.0
 40
4.30718
  0
LINE
  5
731
330
74
100
AcDbEntity
  8
2
100
AcDbLine
 10
-201.204651
 20
166.677387
 30
0.0
 11
-192.204651
 21
155.677387
 31
0.0
  0
LINE
  5
732
330
74
100
AcDbEntity
  8
2
100
AcDbLine
 10
126.855109
 20
19.64933
 30
0.0
 11
129.741861
 21
19.64933
 31
0.0
  0
LINE
  5
733
330
74
100
AcDbEntity
  8
2
100
AcDbLine
 10
126.855109
 20
14.64933
 30
0.0
 11
129.741861
 21
14.64933
 31
0.0
  0
LINE
  5
734
330
74
100
AcDbEntity
  8
2
100
AcDbLine
 10
125.411734
 20
17.14933
 30
0.0
 11
126.855109
 21
19.64933
 31
0.0
  0
LINE
  5
735
330
74
100
AcDbEntity
  8
2
100
AcDbLine
 10
129.741861
 20
14.64933
 30
0.0
 11
131.185236
 21
17.14933
 31
0.0
  0
LINE
  5
736
330
74
100
AcDbEntity
  8
2
100
AcDbLine
 10
126.855109
 20
14.64933
 30
0.0
 11
125.411734
 21
17.14933
 31
0.0
  0
LINE
  5
737
330
74
100
AcDbEntity
  8
2
100
AcDbLine
 10
131.185236
 20
17.14933
 30
0.0
 11
129.741861
 21
19.64933
 31
0.0
  0
LINE
  5
738
330
74
100
AcDbEntity
  8
2
100
AcDbLine
 10
98.57083799999999
 20
-13.634941
 30
0.0
 11
101.457589
 21
-13.634941
 31
0.0
  0
LINE
  5
739
330
74
100
AcDbEntity
  8
2
100
AcDbLine
 10
101.457589
 20
-13.634941
 30
0.0
 11
102.900965
 21
-11.134941
 31
0.0
  0
LINE
  5
73A
330
74
100
AcDbEntity
  8
2
100
AcDbLine
 10
102.900965
 20
-11.134941
 30
0.0
 11
101.457589
 21
-8.634940999999999
 31
0.0
  0
LINE
  5
73B
330
74
100
AcDbEntity
  8
2
100
AcDbLine
 10
98.57083799999999
 20
-8.634940999999999
 30
0.0
 11
101.457589
 21
-8.634940999999999
 31
0.0
  0
LINE
  5
73C
330
74
100
AcDbEntity
  8
2
100
AcDbLine
 10
97.12746199999999
 20
-11.134941
 30
0.0
 11
98.57083799999999
 21
-8.634940999999999
 31
0.0
  0
LINE
  5
73D
330
74
100
AcDbEntity
  8
2
100
AcDbLine
 10
98.57083799999999
 20
-13.634941
 30
0.0
 11
97.12746199999999
 21
-11.134941
 31
0.0
  0
LINE
  5
73E
330
74
100
AcDbEntity
  8
2
100
AcDbLine
 10
-222.704651
 20
166.177387
 30
0.0
 11
-228.204651
 21
166.177387
 31
0.0
  0
LINE
  5
73F
330
74
100
AcDbEntity
  8
2
100
AcDbLine
 10
-229.704651
 20
167.677387
 30
0.0
 11
-229.704651
 21
173.177387
 31
0.0
  0
LINE
  5
740
330
74
100
AcDbEntity
  8
2
100
AcDbLine
 10
-222.704651
 20
174.677387
 30
0.0
 11
-228.204651
 21
174.677387
 31
0.0
  0
ARC
  5
741
330
74
100
AcDbEntity
  8
2
100
AcDbCircle
 10
-222.704651
 20
141.677387
 30
0.0
 40
24.5
100
AcDbArc
 50
0.0
 51
90.0
  0
LINE
  5
742
330
74
100
AcDbEntity
  8
2
100
AcDbLine
 10
-198.204651
 20
141.677387
 30
0.0
 11
-198.204651
 21
136.177387
 31
0.0
  0
LINE
  5
743
330
74
100
AcDbEntity
  8
2
100
AcDbLine
 10
-196.704651
 20
134.677387
 30
0.0
 11
-191.204651
 21
134.677387
 31
0.0
  0
LINE
  5
744
330
74
100
AcDbEntity
  8
2
100
AcDbLine
 10
-189.704651
 20
141.677387
 30
0.0
 11
-189.704651
 21
136.177387
 31
0.0
  0
ARC
  5
745
330
74
100
AcDbEntity
  8
2
100
AcDbCircle
 10
-228.204651
 20
167.677387
 30
0.0
 40
1.5
100
AcDbArc
 50
180.0
 51
270.0
  0
ARC
  5
746
330
74
100
AcDbEntity
  8
2
100
AcDbCircle
 10
-228.204651
 20
173.177387
 30
0.0
 40
1.5
100
AcDbArc
 50
90.0
 51
180.0
  0
ARC
  5
747
330
74
100
AcDbEntity
  8
2
100
AcDbCircle
 10
-196.704651
 20
136.177387
 30
0.0
 40
1.5
100
AcDbArc
 50
180.0
 51
270.0
  0
ARC
  5
748
330
74
100
AcDbEntity
  8
2
100
AcDbCircle
 10
-191.204651
 20
136.177387
 30
0.0
 40
1.5
100
AcDbArc
 50
270.0
 51
0.0
  0
LINE
  5
749
330
74
100
AcDbEntity
  8
2
100
AcDbLine
 10
-198.419004
 20
144.911167
 30
0.0
 11
-195.191963
 21
145.307398
 31
0.0
  0
LINE
  5
74A
330
74
100
AcDbEntity
  8
2
100
AcDbLine
 10
-198.358069
 20
144.414894
 30
0.0
 11
-195.131028
 21
144.811125
 31
0.0
  0
ARC
  5
74B
330
74
100
AcDbEntity
  8
2
100
AcDbCircle
 10
-195.161495
 20
145.059262
 30
0.0
 40
0.25
100
AcDbArc
 50
277.0
 51
97.0
  0
LINE
  5
74C
330
74
100
AcDbEntity
  8
2
100
AcDbLine
 10
-198.994124
 20
147.846739
 30
0.0
 11
-195.839425
 21
148.633294
 31
0.0
  0
LINE
  5
74D
330
74
100
AcDbEntity
  8
2
100
AcDbLine
 10
-198.873163
 20
147.361591
 30
0.0
 11
-195.718464
 21
148.148146
 31
0.0
  0
ARC
  5
74E
330
74
100
AcDbEntity
  8
2
100
AcDbCircle
 10
-195.778945
 20
148.39072
 30
0.0
 40
0.25
100
AcDbArc
 50
284.0
 51
104.0
  0
LINE
  5
74F
330
74
100
AcDbEntity
  8
2
100
AcDbLine
 10
-199.922713
 20
150.69034
 30
0.0
 11
-196.887386
 21
151.855493
 31
0.0
  0
LINE
  5
750
330
74
100
AcDbEntity
  8
2
100
AcDbLine
 10
-199.743529
 20
150.22355
 30
0.0
 11
-196.708202
 21
151.388703
 31
0.0
  0
ARC
  5
751
330
74
100
AcDbEntity
  8
2
100
AcDbCircle
 10
-196.797794
 20
151.622098
 30
0.0
 40
0.25
100
AcDbArc
 50
291.0
 51
111.0
  0
LINE
  5
752
330
74
100
AcDbEntity
  8
2
100
AcDbLine
 10
-201.190929
 20
153.399579
 30
0.0
 11
-198.320223
 21
154.92596
 31
0.0
  0
LINE
  5
753
330
74
100
AcDbEntity
  8
2
100
AcDbLine
 10
-200.956193
 20
152.958105
 30
0.0
 11
-198.085487
 21
154.484486
 31
0.0
  0
ARC
  5
754
330
74
100
AcDbEntity
  8
2
100
AcDbCircle
 10
-198.202855
 20
154.705223
 30
0.0
 40
0.25
100
AcDbArc
 50
298.0
 51
118.0
  0
LINE
  5
755
330
74
100
AcDbEntity
  8
2
100
AcDbLine
 10
-204.665833
 20
158.25602
 30
0.0
 11
-202.249665
 21
160.431548
 31
0.0
  0
LINE
  5
756
330
74
100
AcDbEntity
  8
2
100
AcDbLine
 10
-204.331268
 20
157.884447
 30
0.0
 11
-201.915099
 21
160.059975
 31
0.0
  0
ARC
  5
757
330
74
100
AcDbEntity
  8
2
100
AcDbCircle
 10
-202.082382
 20
160.245762
 30
0.0
 40
0.25
100
AcDbArc
 50
312.0
 51
132.0
  0
LINE
  5
758
330
74
100
AcDbEntity
  8
2
100
AcDbLine
 10
-206.820719
 20
160.330824
 30
0.0
 11
-204.68769
 21
162.784593
 31
0.0
  0
LINE
  5
759
330
74
100
AcDbEntity
  8
2
100
AcDbLine
 10
-206.443364
 20
160.002795
 30
0.0
 11
-204.310336
 21
162.456563
 31
0.0
  0
ARC
  5
75A
330
74
100
AcDbEntity
  8
2
100
AcDbCircle
 10
-204.499013
 20
162.620578
 30
0.0
 40
0.25
100
AcDbArc
 50
319.0
 51
139.0
  0
LINE
  5
75B
330
74
100
AcDbEntity
  8
2
100
AcDbLine
 10
-209.212398
 20
162.127549
 30
0.0
 11
-207.394307
 21
164.822978
 31
0.0
  0
LINE
  5
75C
330
74
100
AcDbEntity
  8
2
100
AcDbLine
 10
-208.797879
 20
161.847952
 30
0.0
 11
-206.979789
 21
164.543382
 31
0.0
  0
ARC
  5
75D
330
74
100
AcDbEntity
  8
2
100
AcDbCircle
 10
-207.187048
 20
164.68318
 30
0.0
 40
0.25
100
AcDbArc
 50
326.0
 51
146.0
  0
LINE
  5
75E
330
74
100
AcDbEntity
  8
2
100
AcDbLine
 10
-211.805214
 20
163.619408
 30
0.0
 11
-210.329166
 21
166.516316
 31
0.0
  0
LINE
  5
75F
330
74
100
AcDbEntity
  8
2
100
AcDbLine
 10
-211.359711
 20
163.392413
 30
0.0
 11
-209.883663
 21
166.289321
 31
0.0
  0
ARC
  5
760
330
74
100
AcDbEntity
  8
2
100
AcDbCircle
 10
-210.106415
 20
166.402818
 30
0.0
 40
0.25
100
AcDbArc
 50
333.0
 51
153.0
  0
LINE
  5
761
330
74
100
AcDbEntity
  8
2
100
AcDbLine
 10
-202.926394
 20
156.136659
 30
0.0
 11
-198.826454
 21
159.007468
 31
0.0
  0
LINE
  5
762
330
74
100
AcDbEntity
  8
2
100
AcDbLine
 10
-202.352817
 20
155.317507
 30
0.0
 11
-198.252877
 21
158.188316
 31
0.0
  0
ARC
  5
763
330
74
100
AcDbEntity
  8
2
100
AcDbCircle
 10
-198.539666
 20
158.597892
 30
0.0
 40
0.5
100
AcDbArc
 50
305.0
 51
125.0
  0
LINE
  5
764
330
74
100
AcDbEntity
  8
2
100
AcDbLine
 10
-214.796749
 20
164.866072
 30
0.0
 11
-213.084903
 21
169.56933
 31
0.0
  0
LINE
  5
765
330
74
100
AcDbEntity
  8
2
100
AcDbLine
 10
-213.857056
 20
164.524052
 30
0.0
 11
-212.14521
 21
169.22731
 31
0.0
  0
ARC
  5
766
330
74
100
AcDbEntity
  8
2
100
AcDbCircle
 10
-212.615057
 20
169.39832
 30
0.0
 40
0.5
100
AcDbArc
 50
340.0
 51
160.0
  0
ARC
  5
767
330
74
100
AcDbEntity
  8
2
100
AcDbCircle
 10
-193.204651
 20
141.677387
 30
0.0
 40
0.5
100
AcDbArc
 50
270.0
 51
90.0
  0
LINE
  5
768
330
74
100
AcDbEntity
  8
2
100
AcDbLine
 10
-198.209754
 20
142.177387
 30
0.0
 11
-197.118865
 21
142.177387
 31
0.0
  0
LINE
  5
769
330
74
100
AcDbEntity
  8
2
100
AcDbLine
 10
-194.290437
 20
142.177387
 30
0.0
 11
-193.204651
 21
142.177387
 31
0.0
  0
LINE
  5
76A
330
74
100
AcDbEntity
  8
2
100
AcDbLine
 10
-198.209754
 20
141.177387
 30
0.0
 11
-197.118865
 21
141.177387
 31
0.0
  0
LINE
  5
76B
330
74
100
AcDbEntity
  8
2
100
AcDbLine
 10
-194.290437
 20
141.177387
 30
0.0
 11
-193.204651
 21
141.177387
 31
0.0
  0
TEXT
  5
76C
330
74
100
AcDbEntity
  8
2
 62
     3
100
AcDbText
 10
-218.604016
 20
167.128516
 30
0.0
 40
3.333333
  1
Ｏ
 50
347.0
100
AcDbText
  0
TEXT
  5
76D
330
74
100
AcDbEntity
  8
2
 62
     3
100
AcDbText
 10
-196.983391
 20
139.407109
 30
0.0
 40
3.333333
  1
Ｓ
 50
270.0
100
AcDbText
  0
LINE
  5
76E
330
74
100
AcDbEntity
  8
2
100
AcDbLine
 10
-189.704651
 20
27.807195
 30
0.0
 11
-189.704651
 21
27.007195
 31
0.0
  0
LINE
  5
76F
330
74
100
AcDbEntity
  8
2
100
AcDbLine
 10
-193.204651
 20
27.007195
 30
0.0
 11
-189.704651
 21
27.007195
 31
0.0
  0
LINE
  5
770
330
74
100
AcDbEntity
  8
2
100
AcDbLine
 10
-203.704651
 20
27.807195
 30
0.0
 11
-189.704651
 21
27.807195
 31
0.0
  0
CIRCLE
  5
771
330
74
100
AcDbEntity
  8
2
100
AcDbCircle
 10
-222.704651
 20
168.677387
 30
0.0
 40
1.5
  0
CIRCLE
  5
772
330
74
100
AcDbEntity
  8
2
100
AcDbCircle
 10
-195.704651
 20
141.677387
 30
0.0
 40
1.5
  0
ARC
  5
773
330
74
100
AcDbEntity
  8
2
100
AcDbCircle
 10
-195.704651
 20
27.182195
 30
0.0
 40
1.625
100
AcDbArc
 50
22.619865
 51
157.380135
  0
LINE
  5
774
330
74
100
AcDbEntity
  8
2
100
AcDbLine
 10
71.156349
 20
27.807195
 30
0.0
 11
71.156349
 21
27.007195
 31
0.0
  0
LINE
  5
775
330
74
100
AcDbEntity
  8
2
100
AcDbLine
 10
92.15634900000001
 20
27.807195
 30
0.0
 11
71.156349
 21
27.807195
 31
0.0
  0
ARC
  5
776
330
74
100
AcDbEntity
  8
2
100
AcDbCircle
 10
78.156349
 20
27.182195
 30
0.0
 40
1.625
100
AcDbArc
 50
22.619865
 51
157.380135
  0
ARC
  5
777
330
74
100
AcDbEntity
  8
2
100
AcDbCircle
 10
-222.704651
 20
141.677387
 30
0.0
 40
33.0
100
AcDbArc
 50
0.0
 51
29.01683
  0
ARC
  5
778
330
74
100
AcDbEntity
  8
2
100
AcDbCircle
 10
-222.704651
 20
141.677387
 30
0.0
 40
33.0
100
AcDbArc
 50
49.344065
 51
90.0
  0
LINE
  5
779
330
74
100
AcDbEntity
  8
2
100
AcDbLine
 10
-156.904651
 20
16.507195
 30
0.0
 11
-156.904651
 21
-10.492805
 31
0.0
  0
LINE
  5
77A
330
74
100
AcDbEntity
  8
2
100
AcDbLine
 10
-156.904651
 20
191.177387
 30
0.0
 11
-156.904651
 21
164.177387
 31
0.0
  0
LINE
  5
77B
330
74
100
AcDbEntity
  8
2
  6
CENTER
 62
     2
100
AcDbLine
 10
-192.204651
 20
156.677387
 30
0.0
 11
-192.204651
 21
174.677387
 31
0.0
  0
DIMENSION
  5
77C
330
74
100
AcDbEntity
  8
5
100
AcDbDimension
  2
*D0
 10
99.65634900000001
 20
-264.518982
 30
0.0
 11
78.156349
 21
-260.218982
 31
0.0
  1
43
 71
     5
 42
-1.0
  3
Standard
100
AcDbAlignedDimension
 13
56.656349
 23
-219.992805
 33
0.0
 14
99.65634900000001
 24
-219.992805
 34
0.0
100
AcDbRotatedDimension
  0
DIMENSION
  5
77D
330
74
100
AcDbEntity
  8
5
100
AcDbDimension
  2
*D1
 10
2.641922
 20
-169.492805
 30
0.0
 11
-2.978078
 21
-205.162805
 31
0.0
  1
75
 71
     5
 42
-1.0
  3
Standard
100
AcDbAlignedDimension
 13
63.156349
 23
-244.792805
 33
0.0
 14
41.406349
 24
-169.492805
 34
0.0
 50
90.0
100
AcDbRotatedDimension
  0
DIMENSION
  5
77E
330
74
100
AcDbEntity
  8
5
100
AcDbDimension
  2
*D2
 10
2.641922
 20
-26.492805
 30
0.0
 11
-5.288077999999999
 21
-98.32280500000001
 31
0.0
  1
143
 71
     5
 42
-1.0
  3
Standard
100
AcDbAlignedDimension
 13
41.406349
 23
-169.492805
 33
0.0
 14
43.156349
 24
-26.492805
 34
0.0
 50
90.0
100
AcDbRotatedDimension
  0
DIMENSION
  5
77F
330
74
100
AcDbEntity
  8
5
100
AcDbDimension
  2
*D3
 10
-62.704651
 20
243.710495
 30
0.0
 11
-142.704651
 21
248.010495
 31
0.0
  1
160
 71
     5
 42
-1.0
  3
Standard
100
AcDbAlignedDimension
 13
-222.704651
 23
207.235864
 33
0.0
 14
-62.704651
 24
182.577387
 34
0.0
100
AcDbRotatedDimension
  0
DIMENSION
  5
780
330
74
100
AcDbEntity
  8
5
100
AcDbDimension
  2
*D4
 10
-36.105644
 20
177.677387
 30
0.0
 11
-41.725644
 21
161.657387
 31
0.0
  1
36
 71
     5
 42
-1.0
  3
Standard
100
AcDbAlignedDimension
 13
-163.104651
 23
141.677387
 33
0.0
 14
-56.284197
 24
177.677387
 34
0.0
 50
90.0
100
AcDbRotatedDimension
  0
DIMENSION
  5
781
330
74
100
AcDbEntity
  8
5
100
AcDbDimension
  2
*D5
 10
-36.105644
 20
141.677387
 30
0.0
 11
-41.725644
 21
120.657387
 31
0.0
  1
46
 71
     5
 42
-1.0
  3
Standard
100
AcDbAlignedDimension
 13
-209.245651
 23
95.67738699999999
 33
0.0
 14
-163.104651
 24
141.677387
 34
0.0
 50
90.0
100
AcDbRotatedDimension
  0
DIMENSION
  5
782
330
74
100
AcDbEntity
  8
5
100
AcDbDimension
  2
*D6
 10
-36.105644
 20
-46.99280499999999
 30
0.0
 11
-46.345644
 21
0.367195
 31
0.0
 70
     1
  1
%%c100
 71
     5
 42
-1.0
  3
Standard
100
AcDbAlignedDimension
 13
-78.20465099999999
 23
53.00719499999999
 33
0.0
 14
-78.20465099999999
 24
-46.99280499999999
 34
0.0
  0
DIMENSION
  5
783
330
74
100
AcDbEntity
  8
5
100
AcDbDimension
  2
*D7
 10
2.641922
 20
3.007195
 30
0.0
 11
-7.598078
 21
-14.382805
 31
0.0
  1
29.5
 71
     5
 42
-1.0
  3
Standard
100
AcDbAlignedDimension
 13
43.156349
 23
-26.492805
 33
0.0
 14
24.555638
 24
3.007195
 34
0.0
 50
90.0
100
AcDbRotatedDimension
  0
TEXT
  5
784
330
74
100
AcDbEntity
  8
18
100
AcDbText
 10
244.289261
 20
-266.527985
 30
0.0
 40
6.0
  1
１
100
AcDbText
  0
TEXT
  5
785
330
74
100
AcDbEntity
  8
18
100
AcDbText
 10
245.708481
 20
-254.070526
 30
0.0
 40
6.0
  1
ＪＩＳ　１０，１６Ｋ
100
AcDbText
  0
LINE
  5
786
330
74
100
AcDbEntity
  8
18
100
AcDbLine
 10
-9.75665
 20
-169.492805
 30
0.0
 11
-69.75664999999999
 21
-169.492805
 31
0.0
  0
LINE
  5
787
330
74
100
AcDbEntity
  8
18
100
AcDbLine
 10
-9.75665
 20
-169.492805
 30
0.0
 11
-29.75665
 21
-164.133822
 31
0.0
  0
LINE
  5
788
330
74
100
AcDbEntity
  8
18
100
AcDbLine
 10
-29.75665
 20
-164.133822
 30
0.0
 11
-29.75665
 21
-174.851789
 31
0.0
  0
LINE
  5
789
330
74
100
AcDbEntity
  8
18
100
AcDbLine
 10
-9.75665
 20
-169.492805
 30
0.0
 11
-29.75665
 21
-174.851789
 31
0.0
  0
TEXT
  5
78A
330
74
100
AcDbEntity
  8
18
100
AcDbText
 10
-65.30961999999999
 20
-167.783953
 30
0.0
 40
8.0
  1
流れ方向
100
AcDbText
  0
LINE
  5
78B
330
74
100
AcDbEntity
  8
18
100
AcDbLine
 10
137.347336
 20
230.185196
 30
0.0
 11
137.347336
 21
160.185196
 31
0.0
  0
LINE
  5
78C
330
74
100
AcDbEntity
  8
18
100
AcDbLine
 10
361.347336
 20
180.185196
 30
0.0
 11
137.347336
 21
180.185196
 31
0.0
  0
LINE
  5
78D
330
74
100
AcDbEntity
  8
18
100
AcDbLine
 10
361.347336
 20
170.185196
 30
0.0
 11
137.347336
 21
170.185196
 31
0.0
  0
LINE
  5
78E
330
74
100
AcDbEntity
  8
18
100
AcDbLine
 10
361.347336
 20
160.185196
 30
0.0
 11
137.347336
 21
160.185196
 31
0.0
  0
LINE
  5
78F
330
74
100
AcDbEntity
  8
18
100
AcDbLine
 10
193.347336
 20
230.185196
 30
0.0
 11
193.347336
 21
170.185196
 31
0.0
  0
LINE
  5
790
330
74
100
AcDbEntity
  8
18
100
AcDbLine
 10
249.347336
 20
230.185196
 30
0.0
 11
249.347336
 21
170.185196
 31
0.0
  0
LINE
  5
791
330
74
100
AcDbEntity
  8
18
100
AcDbLine
 10
305.347336
 20
230.185196
 30
0.0
 11
305.347336
 21
170.185196
 31
0.0
  0
LINE
  5
792
330
74
100
AcDbEntity
  8
18
100
AcDbLine
 10
361.347336
 20
230.185196
 30
0.0
 11
361.347336
 21
160.185196
 31
0.0
  0
LINE
  5
793
330
74
100
AcDbEntity
  8
18
100
AcDbLine
 10
137.347336
 20
230.185196
 30
0.0
 11
361.347336
 21
230.185196
 31
0.0
  0
LWPOLYLINE
  5
794
330
74
100
AcDbEntity
  8
18
 62
     2
100
AcDbPolyline
 90
        2
 70
     0
 43
0.0
 10
163.286991
 20
199.073235
 10
163.286991
 20
189.997184
  0
LINE
  5
798
330
74
100
AcDbEntity
  8
18
 62
     2
100
AcDbLine
 10
163.286991
 20
195.209532
 30
0.0
 11
164.322267
 21
195.209532
 31
0.0
  0
LINE
  5
799
330
74
100
AcDbEntity
  8
18
 62
     2
100
AcDbLine
 10
164.322267
 20
195.209532
 30
0.0
 11
163.286991
 21
199.073235
 31
0.0
  0
LINE
  5
79A
330
74
100
AcDbEntity
  8
18
 62
     2
100
AcDbLine
 10
163.286991
 20
199.073235
 30
0.0
 11
162.251715
 21
195.209532
 31
0.0
  0
LINE
  5
79B
330
74
100
AcDbEntity
  8
18
 62
     2
100
AcDbLine
 10
162.251715
 20
195.209532
 30
0.0
 11
163.286991
 21
195.209532
 31
0.0
  0
TEXT
  5
79C
330
74
100
AcDbEntity
  8
18
100
AcDbText
 10
161.60881
 20
172.540955
 30
0.0
 40
6.0
  1
Ａ
100
AcDbText
  0
TEXT
  5
79D
330
74
100
AcDbEntity
  8
18
100
AcDbText
 10
217.584915
 20
172.380646
 30
0.0
 40
6.0
  1
Ｂ
100
AcDbText
  0
TEXT
  5
79E
330
74
100
AcDbEntity
  8
18
100
AcDbText
 10
273.60881
 20
172.540955
 30
0.0
 40
6.0
  1
Ｃ
100
AcDbText
  0
TEXT
  5
79F
330
74
100
AcDbEntity
  8
18
100
AcDbText
 10
217.264313
 20
162.327139
 30
0.0
 40
6.0
  1
アクチュエ－タ取付方向
100
AcDbText
  0
TEXT
  5
7A0
330
74
100
AcDbEntity
  8
18
100
AcDbText
 10
329.60881
 20
172.540955
 30
0.0
 40
6.0
  1
Ｄ
100
AcDbText
  0
TEXT
  5
7A1
330
74
100
AcDbEntity
  8
18
100
AcDbText
 10
154.032125
 20
182.276428
 30
0.0
 40
6.0
  1
一次側
100
AcDbText
  0
TEXT
  5
7A2
330
74
100
AcDbEntity
  8
18
100
AcDbText
 10
154.032125
 20
222.276428
 30
0.0
 40
6.0
  1
二次側
100
AcDbText
  0
TEXT
  5
7A3
330
74
100
AcDbEntity
  8
18
100
AcDbText
 10
253.082458
 20
-274.202026
 30
0.0
 40
6.0
  1
２
100
AcDbText
  0
TEXT
  5
7A4
330
74
100
AcDbEntity
  8
18
100
AcDbText
 10
245.708481
 20
-246.070526
 30
0.0
 40
6.0
  1
５０８Ｖ－２ＵＡＳ　５０Ａ
100
AcDbText
  0
TEXT
  5
7A5
330
74
100
AcDbEntity
  8
18
100
AcDbText
 10
307.2
 20
-272.0
 30
0.0
 40
10.0
  1
Ｄ３－０２６０１
100
AcDbText
  0
LINE
  5
7A6
330
74
100
AcDbEntity
  8
18
  6
CENTER
 62
     2
100
AcDbLine
 10
347.384536
 20
205.266384
 30
0.0
 11
319.200527
 21
205.266384
 31
0.0
  0
LINE
  5
7A7
330
74
100
AcDbEntity
  8
18
  6
CENTER
 62
     2
100
AcDbLine
 10
333.08503
 20
197.903033
 30
0.0
 11
333.08503
 21
212.489213
 31
0.0
  0
LINE
  5
7A8
330
74
100
AcDbEntity
  8
18
100
AcDbLine
 10
320.72983
 20
201.464784
 30
0.0
 11
320.72983
 21
209.067984
 31
0.0
  0
LINE
  5
7A9
330
74
100
AcDbEntity
  8
18
100
AcDbLine
 10
345.44023
 20
201.464784
 30
0.0
 11
345.44023
 21
209.067984
 31
0.0
  0
LINE
  5
7AA
330
74
100
AcDbEntity
  8
18
100
AcDbLine
 10
345.44023
 20
201.464784
 30
0.0
 11
336.588306
 21
201.464784
 31
0.0
  0
LINE
  5
7AB
330
74
100
AcDbEntity
  8
18
100
AcDbLine
 10
325.443936
 20
201.464784
 30
0.0
 11
320.72983
 21
201.464784
 31
0.0
  0
LINE
  5
7AC
330
74
100
AcDbEntity
  8
18
100
AcDbLine
 10
345.44023
 20
209.067984
 30
0.0
 11
336.588306
 21
209.067984
 31
0.0
  0
LINE
  5
7AD
330
74
100
AcDbEntity
  8
18
100
AcDbLine
 10
325.443936
 20
209.067984
 30
0.0
 11
320.72983
 21
209.067984
 31
0.0
  0
LINE
  5
7AE
330
74
100
AcDbEntity
  8
18
100
AcDbLine
 10
325.400442
 20
208.759213
 30
0.0
 11
325.400442
 21
201.773556
 31
0.0
  0
ARC
  5
7AF
330
74
100
AcDbEntity
  8
18
100
AcDbCircle
 10
326.5182
 20
208.759213
 30
0.0
 40
1.117758
100
AcDbArc
 50
95.0
 51
180.0
  0
ARC
  5
7B0
330
74
100
AcDbEntity
  8
18
100
AcDbCircle
 10
326.5182
 20
201.773556
 30
0.0
 40
1.117758
100
AcDbArc
 50
180.0
 51
265.0
  0
ARC
  5
7B1
330
74
100
AcDbEntity
  8
18
100
AcDbCircle
 10
333.08503
 20
205.266384
 30
0.0
 40
5.169633
100
AcDbArc
 50
265.000003
 51
346.648816
  0
ARC
  5
7B2
330
74
100
AcDbEntity
  8
18
100
AcDbCircle
 10
333.08503
 20
205.266384
 30
0.0
 40
5.169633
100
AcDbArc
 50
13.351184
 51
95.0
  0
LINE
  5
7B3
330
74
100
AcDbEntity
  8
18
100
AcDbLine
 10
329.731755
 20
200.026892
 30
0.0
 11
325.653882
 21
200.026892
 31
0.0
  0
LINE
  5
7B4
330
74
100
AcDbEntity
  8
18
100
AcDbLine
 10
325.653882
 20
210.505877
 30
0.0
 11
329.731755
 21
210.505877
 31
0.0
  0
LINE
  5
7B5
330
74
100
AcDbEntity
  8
18
100
AcDbLine
 10
329.731755
 20
210.162391
 30
0.0
 11
329.731755
 21
210.505877
 31
0.0
  0
LINE
  5
7B6
330
74
100
AcDbEntity
  8
18
100
AcDbLine
 10
329.731755
 20
200.026892
 30
0.0
 11
329.731755
 21
200.370378
 31
0.0
  0
LINE
  5
7B7
330
74
100
AcDbEntity
  8
18
100
AcDbLine
 10
338.1149430000001
 20
206.460151
 30
0.0
 11
338.1149430000001
 21
204.072618
 31
0.0
  0
LINE
  5
7B8
330
74
100
AcDbEntity
  8
18
100
AcDbLine
 10
327.216799
 20
210.505877
 30
0.0
 11
327.216799
 21
224.407997
 31
0.0
  0
LINE
  5
7B9
330
74
100
AcDbEntity
  8
18
100
AcDbLine
 10
328.893437
 20
210.505877
 30
0.0
 11
328.893437
 21
224.407997
 31
0.0
  0
ARC
  5
7BA
330
74
100
AcDbEntity
  8
18
100
AcDbCircle
 10
333.993209
 20
225.455895
 30
0.0
 40
1.047897999999999
100
AcDbArc
 50
270.0
 51
90.0
  0
ARC
  5
7BB
330
74
100
AcDbEntity
  8
18
100
AcDbCircle
 10
322.117026
 20
225.455895
 30
0.0
 40
1.047897999999999
100
AcDbArc
 50
90.0
 51
270.0
  0
LINE
  5
7BC
330
74
100
AcDbEntity
  8
18
100
AcDbLine
 10
322.248161
 20
224.407997
 30
0.0
 11
322.117026
 21
224.407997
 31
0.0
  0
LINE
  5
7BD
330
74
100
AcDbEntity
  8
18
100
AcDbLine
 10
328.055118
 20
226.503794
 30
0.0
 11
322.117026
 21
226.503794
 31
0.0
  0
LINE
  5
7BE
330
74
100
AcDbEntity
  8
18
100
AcDbLine
 10
333.862075
 20
224.407997
 30
0.0
 11
333.993209
 21
224.407997
 31
0.0
  0
LINE
  5
7BF
330
74
100
AcDbEntity
  8
18
100
AcDbLine
 10
328.055118
 20
226.503794
 30
0.0
 11
333.993209
 21
226.503794
 31
0.0
  0
LINE
  5
7C0
330
74
100
AcDbEntity
  8
18
100
AcDbLine
 10
333.3644700000001
 20
202.641215
 30
0.0
 11
333.3644700000001
 21
207.891554
 31
0.0
  0
LINE
  5
7C1
330
74
100
AcDbEntity
  8
18
100
AcDbLine
 10
332.805591
 20
202.641215
 30
0.0
 11
332.805591
 21
207.891554
 31
0.0
  0
LINE
  5
7C2
330
74
100
AcDbEntity
  8
18
100
AcDbLine
 10
326.420781
 20
209.872718
 30
0.0
 11
332.634467
 21
210.416345
 31
0.0
  0
LINE
  5
7C3
330
74
100
AcDbEntity
  8
18
100
AcDbLine
 10
326.420781
 20
200.660051
 30
0.0
 11
332.634467
 21
200.116424
 31
0.0
  0
LINE
  5
7C4
330
74
100
AcDbEntity
  8
18
100
AcDbLine
 10
328.055118
 20
224.407997
 30
0.0
 11
322.117026
 21
224.407997
 31
0.0
  0
LINE
  5
7C5
330
74
100
AcDbEntity
  8
18
100
AcDbLine
 10
328.055118
 20
224.407997
 30
0.0
 11
333.993209
 21
224.407997
 31
0.0
  0
LINE
  5
7C6
330
74
100
AcDbEntity
  8
18
100
AcDbLine
 10
325.653882
 20
210.505877
 30
0.0
 11
325.653882
 21
209.467971
 31
0.0
  0
LINE
  5
7C7
330
74
100
AcDbEntity
  8
18
100
AcDbLine
 10
325.653882
 20
201.064798
 30
0.0
 11
325.653882
 21
200.026892
 31
0.0
  0
CIRCLE
  5
7C8
330
74
100
AcDbEntity
  8
18
100
AcDbCircle
 10
333.08503
 20
205.266384
 30
0.0
 40
2.64
  0
TEXT
  5
7C9
330
74
100
AcDbEntity
  8
18
100
AcDbText
 10
330.355903
 20
204.065123
 30
0.0
 40
2.375999999999999
  1
Ｓ
 50
90.0
100
AcDbText
  0
TEXT
  5
7CA
330
74
100
AcDbEntity
  8
18
100
AcDbText
 10
334.246838
 20
202.722817
 30
0.0
 40
2.375999999999999
  1
Ｏ
 50
180.0
100
AcDbText
  0
TEXT
  5
7CB
330
74
100
AcDbEntity
  8
18
100
AcDbText
 10
334.246838
 20
210.185952
 30
0.0
 40
2.375999999999999
  1
Ｏ
 50
180.0
100
AcDbText
  0
LINE
  5
7CC
330
74
100
AcDbEntity
  8
18
  6
CENTER
 62
     2
100
AcDbLine
 10
292.210883
 20
205.266384
 30
0.0
 11
264.026873
 21
205.266384
 31
0.0
  0
LINE
  5
7CD
330
74
100
AcDbEntity
  8
18
  6
CENTER
 62
     2
100
AcDbLine
 10
277.911377
 20
194.854852
 30
0.0
 11
277.911377
 21
212.489213
 31
0.0
  0
LINE
  5
7CE
330
74
100
AcDbEntity
  8
18
100
AcDbLine
 10
265.556177
 20
201.464784
 30
0.0
 11
265.556177
 21
209.067984
 31
0.0
  0
LINE
  5
7CF
330
74
100
AcDbEntity
  8
18
100
AcDbLine
 10
290.266577
 20
201.464784
 30
0.0
 11
290.266577
 21
209.067984
 31
0.0
  0
LINE
  5
7D0
330
74
100
AcDbEntity
  8
18
100
AcDbLine
 10
290.266577
 20
201.464784
 30
0.0
 11
283.150869
 21
201.464784
 31
0.0
  0
LINE
  5
7D1
330
74
100
AcDbEntity
  8
18
100
AcDbLine
 10
272.6718850000001
 20
201.464784
 30
0.0
 11
265.556177
 21
201.464784
 31
0.0
  0
LINE
  5
7D2
330
74
100
AcDbEntity
  8
18
100
AcDbLine
 10
290.266577
 20
209.067984
 30
0.0
 11
281.414652
 21
209.067984
 31
0.0
  0
LINE
  5
7D3
330
74
100
AcDbEntity
  8
18
100
AcDbLine
 10
274.408102
 20
209.067984
 30
0.0
 11
265.556177
 21
209.067984
 31
0.0
  0
TEXT
  5
7D4
330
74
100
AcDbEntity
  8
18
100
AcDbText
 10
279.112638
 20
202.537257
 30
0.0
 40
2.375999999999999
  1
O
 50
180.0
100
AcDbText
  0
TEXT
  5
7D5
330
74
100
AcDbEntity
  8
18
100
AcDbText
 10
272.99181
 20
206.428192
 30
0.0
 40
2.375999999999999
  1
S
 50
270.0
100
AcDbText
  0
LINE
  5
7D6
330
74
100
AcDbEntity
  8
18
100
AcDbLine
 10
274.418549
 20
197.581796
 30
0.0
 11
281.404205
 21
197.581796
 31
0.0
  0
ARC
  5
7D7
330
74
100
AcDbEntity
  8
18
100
AcDbCircle
 10
274.418549
 20
198.699554
 30
0.0
 40
1.117758
100
AcDbArc
 50
185.0
 51
270.0
  0
ARC
  5
7D8
330
74
100
AcDbEntity
  8
18
100
AcDbCircle
 10
281.404205
 20
198.699554
 30
0.0
 40
1.117758
100
AcDbArc
 50
270.0
 51
355.0
  0
ARC
  5
7D9
330
74
100
AcDbEntity
  8
18
100
AcDbCircle
 10
277.911377
 20
205.266384
 30
0.0
 40
5.169633
100
AcDbArc
 50
355.000003
 51
76.648816
  0
ARC
  5
7DA
330
74
100
AcDbEntity
  8
18
100
AcDbCircle
 10
277.911377
 20
205.266384
 30
0.0
 40
5.169633
100
AcDbArc
 50
103.351184
 51
185.0
  0
LINE
  5
7DB
330
74
100
AcDbEntity
  8
18
100
AcDbLine
 10
283.150869
 20
201.913109
 30
0.0
 11
283.150869
 21
197.835236
 31
0.0
  0
LINE
  5
7DC
330
74
100
AcDbEntity
  8
18
100
AcDbLine
 10
272.6718850000001
 20
197.835236
 30
0.0
 11
272.6718850000001
 21
201.913109
 31
0.0
  0
LINE
  5
7DD
330
74
100
AcDbEntity
  8
18
100
AcDbLine
 10
283.150869
 20
201.913109
 30
0.0
 11
282.807383
 21
201.913109
 31
0.0
  0
LINE
  5
7DE
330
74
100
AcDbEntity
  8
18
100
AcDbLine
 10
273.015371
 20
201.913109
 30
0.0
 11
272.6718850000001
 21
201.913109
 31
0.0
  0
LINE
  5
7DF
330
74
100
AcDbEntity
  8
18
100
AcDbLine
 10
276.71761
 20
210.296297
 30
0.0
 11
279.105143
 21
210.296297
 31
0.0
  0
LINE
  5
7E0
330
74
100
AcDbEntity
  8
18
100
AcDbLine
 10
272.6718850000001
 20
199.398153
 30
0.0
 11
258.769765
 21
199.398153
 31
0.0
  0
LINE
  5
7E1
330
74
100
AcDbEntity
  8
18
100
AcDbLine
 10
272.6718850000001
 20
201.07479
 30
0.0
 11
258.769765
 21
201.07479
 31
0.0
  0
ARC
  5
7E2
330
74
100
AcDbEntity
  8
18
100
AcDbCircle
 10
257.721866
 20
206.174563
 30
0.0
 40
1.047897999999999
100
AcDbArc
 50
0.0
 51
180.0
  0
ARC
  5
7E3
330
74
100
AcDbEntity
  8
18
100
AcDbCircle
 10
257.721866
 20
194.29838
 30
0.0
 40
1.047897999999999
100
AcDbArc
 50
180.0
 51
0.0
  0
LINE
  5
7E4
330
74
100
AcDbEntity
  8
18
100
AcDbLine
 10
258.769765
 20
194.429515
 30
0.0
 11
258.769765
 21
194.29838
 31
0.0
  0
LINE
  5
7E5
330
74
100
AcDbEntity
  8
18
100
AcDbLine
 10
256.673968
 20
200.236472
 30
0.0
 11
256.673968
 21
194.29838
 31
0.0
  0
LINE
  5
7E6
330
74
100
AcDbEntity
  8
18
100
AcDbLine
 10
258.769765
 20
206.043429
 30
0.0
 11
258.769765
 21
206.174563
 31
0.0
  0
LINE
  5
7E7
330
74
100
AcDbEntity
  8
18
100
AcDbLine
 10
256.673968
 20
200.236472
 30
0.0
 11
256.673968
 21
206.174563
 31
0.0
  0
LINE
  5
7E8
330
74
100
AcDbEntity
  8
18
100
AcDbLine
 10
280.536546
 20
205.545824
 30
0.0
 11
275.286208
 21
205.545824
 31
0.0
  0
LINE
  5
7E9
330
74
100
AcDbEntity
  8
18
100
AcDbLine
 10
280.536546
 20
204.986945
 30
0.0
 11
275.286208
 21
204.986945
 31
0.0
  0
LINE
  5
7EA
330
74
100
AcDbEntity
  8
18
100
AcDbLine
 10
273.305044
 20
198.602135
 30
0.0
 11
272.761416
 21
204.815821
 31
0.0
  0
LINE
  5
7EB
330
74
100
AcDbEntity
  8
18
100
AcDbLine
 10
283.061337
 20
204.815821
 30
0.0
 11
282.51771
 21
198.602135
 31
0.0
  0
LINE
  5
7EC
330
74
100
AcDbEntity
  8
18
100
AcDbLine
 10
258.769765
 20
200.236472
 30
0.0
 11
258.769765
 21
194.29838
 31
0.0
  0
LINE
  5
7ED
330
74
100
AcDbEntity
  8
18
100
AcDbLine
 10
258.769765
 20
200.236472
 30
0.0
 11
258.769765
 21
206.174563
 31
0.0
  0
LINE
  5
7EE
330
74
100
AcDbEntity
  8
18
100
AcDbLine
 10
272.6718850000001
 20
197.835236
 30
0.0
 11
273.709791
 21
197.835236
 31
0.0
  0
LINE
  5
7EF
330
74
100
AcDbEntity
  8
18
100
AcDbLine
 10
282.112963
 20
197.835236
 30
0.0
 11
283.150869
 21
197.835236
 31
0.0
  0
CIRCLE
  5
7F0
330
74
100
AcDbEntity
  8
18
100
AcDbCircle
 10
277.911377
 20
205.266384
 30
0.0
 40
2.64
  0
TEXT
  5
7F1
330
74
100
AcDbEntity
  8
18
100
AcDbText
 10
280.454944
 20
206.428192
 30
0.0
 40
2.375999999999999
  1
S
 50
270.0
100
AcDbText
  0
LINE
  5
7F2
330
74
100
AcDbEntity
  8
18
  6
CENTER
 62
     2
100
AcDbLine
 10
205.443178
 20
205.266384
 30
0.0
 11
233.627188
 21
205.266384
 31
0.0
  0
LINE
  5
7F3
330
74
100
AcDbEntity
  8
18
  6
CENTER
 62
     2
100
AcDbLine
 10
219.742684
 20
212.629736
 30
0.0
 11
219.742684
 21
198.043556
 31
0.0
  0
LINE
  5
7F4
330
74
100
AcDbEntity
  8
18
100
AcDbLine
 10
232.097884
 20
209.067984
 30
0.0
 11
232.097884
 21
201.464784
 31
0.0
  0
LINE
  5
7F5
330
74
100
AcDbEntity
  8
18
100
AcDbLine
 10
207.387484
 20
209.067984
 30
0.0
 11
207.387484
 21
201.464784
 31
0.0
  0
LINE
  5
7F6
330
74
100
AcDbEntity
  8
18
100
AcDbLine
 10
207.387484
 20
209.067984
 30
0.0
 11
216.239409
 21
209.067984
 31
0.0
  0
LINE
  5
7F7
330
74
100
AcDbEntity
  8
18
100
AcDbLine
 10
227.383779
 20
209.067984
 30
0.0
 11
232.097884
 21
209.067984
 31
0.0
  0
LINE
  5
7F8
330
74
100
AcDbEntity
  8
18
100
AcDbLine
 10
207.387484
 20
201.464784
 30
0.0
 11
216.239409
 21
201.464784
 31
0.0
  0
LINE
  5
7F9
330
74
100
AcDbEntity
  8
18
100
AcDbLine
 10
227.383779
 20
201.464784
 30
0.0
 11
232.097884
 21
201.464784
 31
0.0
  0
LINE
  5
7FA
330
74
100
AcDbEntity
  8
18
100
AcDbLine
 10
227.427273
 20
201.773556
 30
0.0
 11
227.427273
 21
208.759213
 31
0.0
  0
ARC
  5
7FB
330
74
100
AcDbEntity
  8
18
100
AcDbCircle
 10
226.309515
 20
201.773556
 30
0.0
 40
1.117758
100
AcDbArc
 50
275.0
 51
0.0
  0
ARC
  5
7FC
330
74
100
AcDbEntity
  8
18
100
AcDbCircle
 10
226.309515
 20
208.759213
 30
0.0
 40
1.117758
100
AcDbArc
 50
0.0
 51
85.0
  0
ARC
  5
7FD
330
74
100
AcDbEntity
  8
18
100
AcDbCircle
 10
219.742684
 20
205.266384
 30
0.0
 40
5.169633
100
AcDbArc
 50
85.00000300000001
 51
166.648816
  0
ARC
  5
7FE
330
74
100
AcDbEntity
  8
18
100
AcDbCircle
 10
219.742684
 20
205.266384
 30
0.0
 40
5.169633
100
AcDbArc
 50
193.351184
 51
275.0
  0
LINE
  5
7FF
330
74
100
AcDbEntity
  8
18
100
AcDbLine
 10
223.095959
 20
210.505877
 30
0.0
 11
227.173833
 21
210.505877
 31
0.0
  0
LINE
  5
800
330
74
100
AcDbEntity
  8
18
100
AcDbLine
 10
227.173833
 20
200.026892
 30
0.0
 11
223.095959
 21
200.026892
 31
0.0
  0
LINE
  5
801
330
74
100
AcDbEntity
  8
18
100
AcDbLine
 10
223.095959
 20
200.370378
 30
0.0
 11
223.095959
 21
200.026892
 31
0.0
  0
LINE
  5
802
330
74
100
AcDbEntity
  8
18
100
AcDbLine
 10
223.095959
 20
210.505877
 30
0.0
 11
223.095959
 21
210.162391
 31
0.0
  0
LINE
  5
803
330
74
100
AcDbEntity
  8
18
100
AcDbLine
 10
214.712771
 20
204.072618
 30
0.0
 11
214.712771
 21
206.460151
 31
0.0
  0
LINE
  5
804
330
74
100
AcDbEntity
  8
18
100
AcDbLine
 10
225.610916
 20
200.026892
 30
0.0
 11
225.610916
 21
186.124772
 31
0.0
  0
LINE
  5
805
330
74
100
AcDbEntity
  8
18
100
AcDbLine
 10
223.934278
 20
200.026892
 30
0.0
 11
223.934278
 21
186.124772
 31
0.0
  0
ARC
  5
806
330
74
100
AcDbEntity
  8
18
100
AcDbCircle
 10
218.834506
 20
185.076874
 30
0.0
 40
1.047897999999999
100
AcDbArc
 50
90.0
 51
270.0
  0
ARC
  5
807
330
74
100
AcDbEntity
  8
18
100
AcDbCircle
 10
230.710688
 20
185.076874
 30
0.0
 40
1.047897999999999
100
AcDbArc
 50
270.0
 51
90.0
  0
LINE
  5
808
330
74
100
AcDbEntity
  8
18
100
AcDbLine
 10
230.579554
 20
186.124772
 30
0.0
 11
230.710688
 21
186.124772
 31
0.0
  0
LINE
  5
809
330
74
100
AcDbEntity
  8
18
100
AcDbLine
 10
224.772597
 20
184.028975
 30
0.0
 11
230.710688
 21
184.028975
 31
0.0
  0
LINE
  5
80A
330
74
100
AcDbEntity
  8
18
100
AcDbLine
 10
218.96564
 20
186.124772
 30
0.0
 11
218.834506
 21
186.124772
 31
0.0
  0
LINE
  5
80B
330
74
100
AcDbEntity
  8
18
100
AcDbLine
 10
224.772597
 20
184.028975
 30
0.0
 11
218.834506
 21
184.028975
 31
0.0
  0
LINE
  5
80C
330
74
100
AcDbEntity
  8
18
100
AcDbLine
 10
219.463245
 20
207.891554
 30
0.0
 11
219.463245
 21
202.641215
 31
0.0
  0
LINE
  5
80D
330
74
100
AcDbEntity
  8
18
100
AcDbLine
 10
220.022124
 20
207.891554
 30
0.0
 11
220.022124
 21
202.641215
 31
0.0
  0
LINE
  5
80E
330
74
100
AcDbEntity
  8
18
100
AcDbLine
 10
226.406934
 20
200.660051
 30
0.0
 11
220.193247
 21
200.116424
 31
0.0
  0
LINE
  5
80F
330
74
100
AcDbEntity
  8
18
100
AcDbLine
 10
226.406934
 20
209.872718
 30
0.0
 11
220.193247
 21
210.416345
 31
0.0
  0
LINE
  5
810
330
74
100
AcDbEntity
  8
18
100
AcDbLine
 10
224.772597
 20
186.124772
 30
0.0
 11
230.710688
 21
186.124772
 31
0.0
  0
LINE
  5
811
330
74
100
AcDbEntity
  8
18
100
AcDbLine
 10
224.772597
 20
186.124772
 30
0.0
 11
218.834506
 21
186.124772
 31
0.0
  0
LINE
  5
812
330
74
100
AcDbEntity
  8
18
100
AcDbLine
 10
227.173833
 20
200.026892
 30
0.0
 11
227.173833
 21
201.064798
 31
0.0
  0
LINE
  5
813
330
74
100
AcDbEntity
  8
18
100
AcDbLine
 10
227.173833
 20
209.467971
 30
0.0
 11
227.173833
 21
210.505877
 31
0.0
  0
CIRCLE
  5
814
330
74
100
AcDbEntity
  8
18
100
AcDbCircle
 10
219.742684
 20
205.266384
 30
0.0
 40
2.64
  0
TEXT
  5
815
330
74
100
AcDbEntity
  8
18
100
AcDbText
 10
222.471812
 20
206.467646
 30
0.0
 40
2.375999999999999
  1
Ｓ
 50
270.0
100
AcDbText
  0
TEXT
  5
816
330
74
100
AcDbEntity
  8
18
100
AcDbText
 10
218.580876
 20
207.809952
 30
0.0
 40
2.375999999999999
  1
Ｏ
100
AcDbText
  0
TEXT
  5
817
330
74
100
AcDbEntity
  8
18
100
AcDbText
 10
218.580876
 20
200.346817
 30
0.0
 40
2.375999999999999
  1
Ｏ
100
AcDbText
  0
LINE
  5
818
330
74
100
AcDbEntity
  8
18
  6
CENTER
 62
     2
100
AcDbLine
 10
149.019156
 20
208.377148
 30
0.0
 11
177.203165
 21
208.377148
 31
0.0
  0
LINE
  5
819
330
74
100
AcDbEntity
  8
18
  6
CENTER
 62
     2
100
AcDbLine
 10
163.318662
 20
218.788681
 30
0.0
 11
163.318662
 21
201.15432
 31
0.0
  0
LINE
  5
81A
330
74
100
AcDbEntity
  8
18
100
AcDbLine
 10
175.673862
 20
212.178748
 30
0.0
 11
175.673862
 21
204.575548
 31
0.0
  0
LINE
  5
81B
330
74
100
AcDbEntity
  8
18
100
AcDbLine
 10
150.963462
 20
212.178748
 30
0.0
 11
150.963462
 21
204.575548
 31
0.0
  0
LINE
  5
81C
330
74
100
AcDbEntity
  8
18
100
AcDbLine
 10
150.963462
 20
212.178748
 30
0.0
 11
158.079169
 21
212.178748
 31
0.0
  0
LINE
  5
81D
330
74
100
AcDbEntity
  8
18
100
AcDbLine
 10
168.558154
 20
212.178748
 30
0.0
 11
175.673862
 21
212.178748
 31
0.0
  0
LINE
  5
81E
330
74
100
AcDbEntity
  8
18
100
AcDbLine
 10
150.963462
 20
204.575548
 30
0.0
 11
159.815386
 21
204.575548
 31
0.0
  0
LINE
  5
81F
330
74
100
AcDbEntity
  8
18
100
AcDbLine
 10
166.821937
 20
204.575548
 30
0.0
 11
175.673862
 21
204.575548
 31
0.0
  0
TEXT
  5
820
330
74
100
AcDbEntity
  8
18
100
AcDbText
 10
162.1174
 20
211.106276
 30
0.0
 40
2.375999999999999
  1
O
100
AcDbText
  0
TEXT
  5
821
330
74
100
AcDbEntity
  8
18
100
AcDbText
 10
168.238229
 20
207.21534
 30
0.0
 40
2.375999999999999
  1
S
 50
90.0
100
AcDbText
  0
LINE
  5
822
330
74
100
AcDbEntity
  8
18
100
AcDbLine
 10
166.81149
 20
216.061737
 30
0.0
 11
159.825833
 21
216.061737
 31
0.0
  0
ARC
  5
823
330
74
100
AcDbEntity
  8
18
100
AcDbCircle
 10
166.81149
 20
214.943979
 30
0.0
 40
1.117758
100
AcDbArc
 50
5.0
 51
90.0
  0
ARC
  5
824
330
74
100
AcDbEntity
  8
18
100
AcDbCircle
 10
159.825833
 20
214.943979
 30
0.0
 40
1.117758
100
AcDbArc
 50
90.0
 51
175.0
  0
ARC
  5
825
330
74
100
AcDbEntity
  8
18
100
AcDbCircle
 10
163.318662
 20
208.377148
 30
0.0
 40
5.169633
100
AcDbArc
 50
175.000003
 51
256.648816
  0
ARC
  5
826
330
74
100
AcDbEntity
  8
18
100
AcDbCircle
 10
163.318662
 20
208.377148
 30
0.0
 40
5.169633
100
AcDbArc
 50
283.351184
 51
5.0
  0
LINE
  5
827
330
74
100
AcDbEntity
  8
18
100
AcDbLine
 10
158.079169
 20
211.730423
 30
0.0
 11
158.079169
 21
215.808297
 31
0.0
  0
LINE
  5
828
330
74
100
AcDbEntity
  8
18
100
AcDbLine
 10
168.558154
 20
215.808297
 30
0.0
 11
168.558154
 21
211.730423
 31
0.0
  0
LINE
  5
829
330
74
100
AcDbEntity
  8
18
100
AcDbLine
 10
158.079169
 20
211.730423
 30
0.0
 11
158.422655
 21
211.730423
 31
0.0
  0
LINE
  5
82A
330
74
100
AcDbEntity
  8
18
100
AcDbLine
 10
168.214668
 20
211.730423
 30
0.0
 11
168.558154
 21
211.730423
 31
0.0
  0
LINE
  5
82B
330
74
100
AcDbEntity
  8
18
100
AcDbLine
 10
164.512428
 20
203.347235
 30
0.0
 11
162.124895
 21
203.347235
 31
0.0
  0
LINE
  5
82C
330
74
100
AcDbEntity
  8
18
100
AcDbLine
 10
168.558154
 20
214.24538
 30
0.0
 11
182.460274
 21
214.24538
 31
0.0
  0
LINE
  5
82D
330
74
100
AcDbEntity
  8
18
100
AcDbLine
 10
168.558154
 20
212.568742
 30
0.0
 11
182.460274
 21
212.568742
 31
0.0
  0
ARC
  5
82E
330
74
100
AcDbEntity
  8
18
100
AcDbCircle
 10
183.508172
 20
207.468969
 30
0.0
 40
1.047897999999999
100
AcDbArc
 50
180.0
 51
0.0
  0
ARC
  5
82F
330
74
100
AcDbEntity
  8
18
100
AcDbCircle
 10
183.508172
 20
219.345152
 30
0.0
 40
1.047897999999999
100
AcDbArc
 50
0.0
 51
180.0
  0
LINE
  5
830
330
74
100
AcDbEntity
  8
18
100
AcDbLine
 10
182.460274
 20
219.214018
 30
0.0
 11
182.460274
 21
219.345152
 31
0.0
  0
LINE
  5
831
330
74
100
AcDbEntity
  8
18
100
AcDbLine
 10
184.556071
 20
213.407061
 30
0.0
 11
184.556071
 21
219.345152
 31
0.0
  0
LINE
  5
832
330
74
100
AcDbEntity
  8
18
100
AcDbLine
 10
182.460274
 20
207.600104
 30
0.0
 11
182.460274
 21
207.468969
 31
0.0
  0
LINE
  5
833
330
74
100
AcDbEntity
  8
18
100
AcDbLine
 10
184.556071
 20
213.407061
 30
0.0
 11
184.556071
 21
207.468969
 31
0.0
  0
LINE
  5
834
330
74
100
AcDbEntity
  8
18
100
AcDbLine
 10
160.693492
 20
208.097709
 30
0.0
 11
165.943831
 21
208.097709
 31
0.0
  0
LINE
  5
835
330
74
100
AcDbEntity
  8
18
100
AcDbLine
 10
160.693492
 20
208.656588
 30
0.0
 11
165.943831
 21
208.656588
 31
0.0
  0
LINE
  5
836
330
74
100
AcDbEntity
  8
18
100
AcDbLine
 10
167.924995
 20
215.041398
 30
0.0
 11
168.468622
 21
208.827711
 31
0.0
  0
LINE
  5
837
330
74
100
AcDbEntity
  8
18
100
AcDbLine
 10
158.168701
 20
208.827711
 30
0.0
 11
158.712328
 21
215.041398
 31
0.0
  0
LINE
  5
838
330
74
100
AcDbEntity
  8
18
100
AcDbLine
 10
182.460274
 20
213.407061
 30
0.0
 11
182.460274
 21
219.345152
 31
0.0
  0
LINE
  5
839
330
74
100
AcDbEntity
  8
18
100
AcDbLine
 10
182.460274
 20
213.407061
 30
0.0
 11
182.460274
 21
207.468969
 31
0.0
  0
LINE
  5
83A
330
74
100
AcDbEntity
  8
18
100
AcDbLine
 10
168.558154
 20
215.808297
 30
0.0
 11
167.520248
 21
215.808297
 31
0.0
  0
LINE
  5
83B
330
74
100
AcDbEntity
  8
18
100
AcDbLine
 10
159.117075
 20
215.808297
 30
0.0
 11
158.079169
 21
215.808297
 31
0.0
  0
CIRCLE
  5
83C
330
74
100
AcDbEntity
  8
18
100
AcDbCircle
 10
163.318662
 20
208.377148
 30
0.0
 40
2.64
  0
TEXT
  5
83D
330
74
100
AcDbEntity
  8
18
100
AcDbText
 10
160.775094
 20
207.21534
 30
0.0
 40
2.375999999999999
  1
S
 50
90.0
100
AcDbText
  0
TEXT
  5
83E
330
74
100
AcDbEntity
  8
18
100
AcDbText
 10
360.316223
 20
-253.771606
 30
0.0
 40
4.0
  1
２０００．１０．１８
100
AcDbText
  0
LINE
  5
83F
330
74
100
AcDbEntity
  8
20
 62
     3
100
AcDbLine
 10
-360.0
 20
-277.0
 30
0.0
 11
400.0
 21
-277.0
 31
0.0
  0
LINE
  5
840
330
74
100
AcDbEntity
  8
20
 62
     3
100
AcDbLine
 10
-360.0
 20
264.0
 30
0.0
 11
400.0
 21
264.0
 31
0.0
  0
LINE
  5
841
330
74
100
AcDbEntity
  8
20
 62
     3
100
AcDbLine
 10
-360.0
 20
264.0
 30
0.0
 11
-360.0
 21
-277.0
 31
0.0
  0
LINE
  5
842
330
74
100
AcDbEntity
  8
20
 62
     3
100
AcDbLine
 10
400.0
 20
264.0
 30
0.0
 11
400.0
 21
-277.0
 31
0.0
  0
LINE
  5
843
330
74
100
AcDbEntity
  8
20
 62
     3
100
AcDbLine
 10
120.0
 20
-277.0
 30
0.0
 11
120.0
 21
-237.0
 31
0.0
  0
LINE
  5
844
330
74
100
AcDbEntity
  8
20
 62
     3
100
AcDbLine
 10
214.0
 20
-277.0
 30
0.0
 11
214.0
 21
-237.0
 31
0.0
  0
LINE
  5
845
330
74
100
AcDbEntity
  8
20
100
AcDbLine
 10
214.0
 20
-257.0
 30
0.0
 11
400.0
 21
-257.0
 31
0.0
  0
LINE
  5
846
330
74
100
AcDbEntity
  8
20
 62
     3
100
AcDbLine
 10
120.0
 20
-237.0
 30
0.0
 11
400.0
 21
-237.0
 31
0.0
  0
LINE
  5
847
330
74
100
AcDbEntity
  8
20
100
AcDbLine
 10
360.0
 20
-257.0
 30
0.0
 11
360.0
 21
-237.0
 31
0.0
  0
LINE
  5
848
330
74
100
AcDbEntity
  8
20
100
AcDbLine
 10
360.0
 20
-247.0
 30
0.0
 11
400.0
 21
-247.0
 31
0.0
  0
LINE
  5
849
330
74
100
AcDbEntity
  8
20
100
AcDbLine
 10
242.0
 20
-277.0
 30
0.0
 11
242.0
 21
-237.0
 31
0.0
  0
LINE
  5
84A
330
74
100
AcDbEntity
  8
20
100
AcDbLine
 10
262.0
 20
-277.0
 30
0.0
 11
262.0
 21
-257.0
 31
0.0
  0
LINE
  5
84B
330
74
100
AcDbEntity
  8
20
100
AcDbLine
 10
302.0
 20
-277.0
 30
0.0
 11
302.0
 21
-257.0
 31
0.0
  0
LINE
  5
84C
330
74
100
AcDbEntity
  8
20
100
AcDbLine
 10
247.456829
 20
-271.543171
 30
0.0
 11
255.796581
 21
-263.203419
 31
0.0
  0
TEXT
  5
84D
330
74
100
AcDbEntity
  8
20
100
AcDbText
 10
263.066658
 20
-264.993835
 30
0.0
 40
3.6
  1
ＤＲＡＷＩＮＧ　ＮＯ．
100
AcDbText
  0
TEXT
  5
84E
330
74
100
AcDbEntity
  8
20
100
AcDbText
 10
267.0
 20
-273.0
 30
0.0
 40
6.0
  1
図　　　番
100
AcDbText
  0
TEXT
  5
84F
330
74
100
AcDbEntity
  8
20
100
AcDbText
 10
372.0
 20
-244.0
 30
0.0
 40
4.0
  1
ＤＡＴＥ
100
AcDbText
  0
TEXT
  5
850
330
74
100
AcDbEntity
  8
20
100
AcDbText
 10
218.002142
 20
-265.922058
 30
0.0
 40
4.0
  1
ＳＣＡＬＥ
100
AcDbText
  0
TEXT
  5
851
330
74
100
AcDbEntity
  8
20
100
AcDbText
 10
216.0
 20
-273.0
 30
0.0
 40
6.0
  1
尺　　度
100
AcDbText
  0
TEXT
  5
852
330
74
100
AcDbEntity
  8
20
100
AcDbText
 10
215.002142
 20
-244.991769
 30
0.0
 40
4.0
  1
ＦＩＧ．ＮＯ．
100
AcDbText
  0
TEXT
  5
853
330
74
100
AcDbEntity
  8
20
100
AcDbText
 10
216.0
 20
-253.0
 30
0.0
 40
6.0
  1
名　　称
100
AcDbText
  0
TEXT
  5
854
330
74
100
AcDbEntity
  8
20
100
AcDbText
 10
121.13105
 20
-252.940506
 30
0.0
 40
4.599999999999999
  1
ＴＯＭＯＥ　ＶＡＬＶＥ　ＣＯ．，ＬＴＤ．
100
AcDbText
  0
TEXT
  5
855
330
74
100
AcDbEntity
  8
20
100
AcDbText
 10
135.0
 20
-266.57962
 30
0.0
 40
8.0
  1
巴バルブ株式会社
100
AcDbText
  0
ENDSEC
  0
SECTION
  2
OBJECTS
  0
DICTIONARY
  5
C
330
0
100
AcDbDictionary
281
     1
  3
ACAD_COLOR
350
6A
  3
ACAD_GROUP
350
D
  3
ACAD_LAYOUT
350
69
  3
ACAD_MATERIAL
350
10
  3
ACAD_MLEADERSTYLE
350
6D
  3
ACAD_MLINESTYLE
350
66
  3
ACAD_PLOTSETTINGS
350
68
  3
ACAD_PLOTSTYLENAME
350
E
  3
ACAD_SCALELIST
350
3A
  3
ACAD_TABLESTYLE
350
6B
  3
ACAD_VISUALSTYLE
350
29
  3
ACDB_RECOMPOSE_DATA
350
86C
  3
AcDbVariableDictionary
350
863
  3
DWGPROPS
350
86D
  0
DICTIONARY
  5
857
330
5C
100
AcDbDictionary
280
     1
281
     1
  3
ADSK_XREC_LAYER_RECONCILED
360
858
  0
DICTIONARY
  5
859
330
7E
100
AcDbDictionary
280
     1
281
     1
  3
ADSK_XREC_LAYER_RECONCILED
360
85A
  0
DICTIONARY
  5
85B
330
7F
100
AcDbDictionary
280
     1
281
     1
  3
ADSK_XREC_LAYER_RECONCILED
360
85C
  0
DICTIONARY
  5
85D
330
80
100
AcDbDictionary
280
     1
281
     1
  3
ADSK_XREC_LAYER_RECONCILED
360
85E
  0
DICTIONARY
  5
85F
330
81
100
AcDbDictionary
280
     1
281
     1
  3
ADSK_XREC_LAYER_RECONCILED
360
860
  0
DICTIONARY
  5
861
330
82
100
AcDbDictionary
280
     1
281
     1
  3
ADSK_XREC_LAYER_RECONCILED
360
862
  0
DICTIONARY
  5
6A
102
{ACAD_REACTORS
330
C
102
}
330
C
100
AcDbDictionary
281
     1
  0
DICTIONARY
  5
D
102
{ACAD_REACTORS
330
C
102
}
330
C
100
AcDbDictionary
281
     1
  0
DICTIONARY
  5
69
102
{ACAD_REACTORS
330
C
102
}
330
C
100
AcDbDictionary
281
     1
  3
Model
350
77
  3
レイアウト1
350
73
  0
DICTIONARY
  5
10
102
{ACAD_REACTORS
330
C
102
}
330
C
100
AcDbDictionary
281
     1
  3
ByBlock
350
19
  3
ByLayer
350
11
  3
Global
350
21
  0
DICTIONARY
  5
6D
102
{ACAD_REACTORS
330
C
102
}
330
C
100
AcDbDictionary
281
     1
  3
Standard
350
6E
  0
DICTIONARY
  5
66
102
{ACAD_REACTORS
330
C
102
}
330
C
100
AcDbDictionary
281
     1
  3
Standard
350
67
  0
DICTIONARY
  5
68
102
{ACAD_REACTORS
330
C
102
}
330
C
100
AcDbDictionary
281
     1
  0
ACDBDICTIONARYWDFLT
  5
E
102
{ACAD_REACTORS
330
C
102
}
330
C
100
AcDbDictionary
281
     1
  3
Normal
350
F
100
AcDbDictionaryWithDefault
340
F
  0
DICTIONARY
  5
3A
102
{ACAD_REACTORS
330
C
102
}
330
C
100
AcDbDictionary
281
     1
  3
A0
350
3B
  3
A1
350
3C
  3
A2
350
3D
  3
A3
350
3E
  3
A4
350
3F
  3
A5
350
40
  3
A6
350
41
  3
A7
350
42
  3
A8
350
43
  3
A9
350
44
  3
B0
350
45
  3
B1
350
46
  3
B2
350
47
  3
B3
350
48
  3
B4
350
49
  3
B5
350
4A
  3
B6
350
4B
  3
B7
350
4C
  3
B8
350
4D
  3
B9
350
4E
  3
C0
350
4F
  3
C1
350
50
  3
C2
350
51
  3
C3
350
52
  3
C4
350
53
  3
C5
350
54
  3
C6
350
55
  3
C7
350
56
  3
C8
350
57
  3
C9
350
58
  3
D0
350
59
  3
D1
350
5A
  3
D2
350
5B
  0
DICTIONARY
  5
6B
102
{ACAD_REACTORS
330
C
102
}
330
C
100
AcDbDictionary
281
     1
  3
Standard
350
6C
  0
DICTIONARY
  5
29
102
{ACAD_REACTORS
330
C
102
}
330
C
100
AcDbDictionary
281
     1
  3
2dWireframe
350
2F
  3
3D Hidden
350
31
  3
3dWireframe
350
30
  3
Basic
350
2E
  3
Brighten
350
35
  3
ColorChange
350
39
  3
Conceptual
350
32
  3
Dim
350
34
  3
Facepattern
350
38
  3
Flat
350
2A
  3
FlatWithEdges
350
2B
  3
Gouraud
350
2C
  3
GouraudWithEdges
350
2D
  3
Linepattern
350
37
  3
Realistic
350
33
  3
Thicken
350
36
  0
XRECORD
  5
86C
102
{ACAD_REACTORS
330
C
102
}
330
C
100
AcDbXrecord
280
     1
 90
        1
330
6C
  0
DICTIONARY
  5
863
102
{ACAD_REACTORS
330
C
102
}
330
C
100
AcDbDictionary
281
     1
  3
CANNOSCALE
350
866
  3
CMLEADERSTYLE
350
865
  3
CTABLESTYLE
350
864
  3
DIMASSOC
350
869
  3
INDEXCTL
350
868
  3
SORTENTS
350
867
  0
XRECORD
  5
86D
102
{ACAD_REACTORS
330
C
102
}
330
C
100
AcDbXrecord
280
     1
  1
DWGPROPS COOKIE
  2

  3

  4

  6

  7

  8
matsubara-akiko
  9

300
=
301
=
302
=
303
=
304
=
305
=
306
=
307
=
308
=
309
=
 40
0.0001494791666667
 41
2450624.0
 42
2455267.572537628
  1

 90
        0
  0
XRECORD
  5
858
102
{ACAD_REACTORS
330
857
102
}
330
857
100
AcDbXrecord
280
     1
290
     1
  0
XRECORD
  5
85A
102
{ACAD_REACTORS
330
859
102
}
330
859
100
AcDbXrecord
280
     1
290
     1
  0
XRECORD
  5
85C
102
{ACAD_REACTORS
330
85B
102
}
330
85B
100
AcDbXrecord
280
     1
290
     1
  0
XRECORD
  5
85E
102
{ACAD_REACTORS
330
85D
102
}
330
85D
100
AcDbXrecord
280
     1
290
     1
  0
XRECORD
  5
860
102
{ACAD_REACTORS
330
85F
102
}
330
85F
100
AcDbXrecord
280
     1
290
     1
  0
XRECORD
  5
862
102
{ACAD_REACTORS
330
861
102
}
330
861
100
AcDbXrecord
280
     1
290
     1
  0
LAYOUT
  5
77
102
{ACAD_XDICTIONARY
360
874
102
}
102
{ACAD_REACTORS
330
69
102
}
330
69
100
AcDbPlotSettings
  1

  2
EMP01
  4

  6

 40
0.0
 41
0.0
 42
0.0
 43
0.0
 44
0.0
 45
0.0
 46
0.0
 47
0.0
 48
0.0
 49
0.0
140
0.0
141
0.0
142
1.0
143
1.0
 70
  1712
 72
     0
 73
     0
 74
     0
  7

 75
     0
147
1.0
148
0.0
149
0.0
100
AcDbLayout
  1
Model
 70
     1
 71
     0
 10
0.0
 20
0.0
 11
12.0
 21
9.0
 12
0.0
 22
0.0
 32
0.0
 14
0.0
 24
0.0
 34
0.0
 15
0.0
 25
0.0
 35
0.0
146
0.0
 13
0.0
 23
0.0
 33
0.0
 16
1.0
 26
0.0
 36
0.0
 17
0.0
 27
1.0
 37
0.0
 76
     0
330
74
331
85
  0
LAYOUT
  5
73
102
{ACAD_XDICTIONARY
360
872
102
}
102
{ACAD_REACTORS
330
69
102
}
330
69
100
AcDbPlotSettings
  1

  2
EMP01
  4

  6

 40
0.0
 41
0.0
 42
0.0
 43
0.0
 44
0.0
 45
0.0
 46
0.0
 47
0.0
 48
0.0
 49
0.0
140
0.0
141
0.0
142
1.0
143
1.0
 70
   688
 72
     0
 73
     0
 74
     5
  7

 75
    16
147
1.0
148
0.0
149
0.0
100
AcDbLayout
  1
レイアウト1
 70
     1
 71
     1
 10
0.0
 20
0.0
 11
12.0
 21
9.0
 12
0.0
 22
0.0
 32
0.0
 14
1.000000000000000E+20
 24
1.000000000000000E+20
 34
1.000000000000000E+20
 15
-1.000000000000000E+20
 25
-1.000000000000000E+20
 35
-1.000000000000000E+20
146
0.0
 13
0.0
 23
0.0
 33
0.0
 16
1.0
 26
0.0
 36
0.0
 17
0.0
 27
1.0
 37
0.0
 76
     0
330
70
  0
MATERIAL
  5
19
102
{ACAD_XDICTIONARY
360
1A
102
}
102
{ACAD_REACTORS
330
10
102
}
330
10
100
AcDbMaterial
  1
ByBlock
 72
     0
 43
0.0208333333333333
 43
0.0
 43
0.0
 43
0.0
 43
0.0
 43
0.0208333333333333
 43
0.0
 43
0.0
 43
0.0
 43
0.0
 43
1.0
 43
0.0
 43
0.0
 43
0.0
 43
0.0
 43
1.0
 77
     0
 47
0.0208333333333333
 47
0.0
 47
0.0
 47
0.0
 47
0.0
 47
0.0208333333333333
 47
0.0
 47
0.0
 47
0.0
 47
0.0
 47
1.0
 47
0.0
 47
0.0
 47
0.0
 47
0.0
 47
1.0
171
     0
 49
0.0208333333333333
 49
0.0
 49
0.0
 49
0.0
 49
0.0
 49
0.0208333333333333
 49
0.0
 49
0.0
 49
0.0
 49
0.0
 49
1.0
 49
0.0
 49
0.0
 49
0.0
 49
0.0
 49
1.0
175
     0
142
0.0208333333333333
142
0.0
142
0.0
142
0.0
142
0.0
142
0.0208333333333333
142
0.0
142
0.0
142
0.0
142
0.0
142
1.0
142
0.0
142
0.0
142
0.0
142
0.0
142
1.0
179
     0
144
0.0208333333333333
144
0.0
144
0.0
144
0.0
144
0.0
144
0.0208333333333333
144
0.0
144
0.0
144
0.0
144
0.0
144
1.0
144
0.0
144
0.0
144
0.0
144
0.0
144
1.0
147
0.0208333333333333
147
0.0
147
0.0
147
0.0
147
0.0
147
0.0208333333333333
147
0.0
147
0.0
147
0.0
147
0.0
147
1.0
147
0.0
147
0.0
147
0.0
147
0.0
147
1.0
  0
MATERIAL
  5
11
102
{ACAD_XDICTIONARY
360
12
102
}
102
{ACAD_REACTORS
330
10
102
}
330
10
100
AcDbMaterial
  1
ByLayer
 72
     0
 43
0.0208333333333333
 43
0.0
 43
0.0
 43
0.0
 43
0.0
 43
0.0208333333333333
 43
0.0
 43
0.0
 43
0.0
 43
0.0
 43
1.0
 43
0.0
 43
0.0
 43
0.0
 43
0.0
 43
1.0
 77
     0
 47
0.0208333333333333
 47
0.0
 47
0.0
 47
0.0
 47
0.0
 47
0.0208333333333333
 47
0.0
 47
0.0
 47
0.0
 47
0.0
 47
1.0
 47
0.0
 47
0.0
 47
0.0
 47
0.0
 47
1.0
171
     0
 49
0.0208333333333333
 49
0.0
 49
0.0
 49
0.0
 49
0.0
 49
0.0208333333333333
 49
0.0
 49
0.0
 49
0.0
 49
0.0
 49
1.0
 49
0.0
 49
0.0
 49
0.0
 49
0.0
 49
1.0
175
     0
142
0.0208333333333333
142
0.0
142
0.0
142
0.0
142
0.0
142
0.0208333333333333
142
0.0
142
0.0
142
0.0
142
0.0
142
1.0
142
0.0
142
0.0
142
0.0
142
0.0
142
1.0
179
     0
144
0.0208333333333333
144
0.0
144
0.0
144
0.0
144
0.0
144
0.0208333333333333
144
0.0
144
0.0
144
0.0
144
0.0
144
1.0
144
0.0
144
0.0
144
0.0
144
0.0
144
1.0
147
0.0208333333333333
147
0.0
147
0.0
147
0.0
147
0.0
147
0.0208333333333333
147
0.0
147
0.0
147
0.0
147
0.0
147
1.0
147
0.0
147
0.0
147
0.0
147
0.0
147
1.0
  0
MATERIAL
  5
21
102
{ACAD_XDICTIONARY
360
22
102
}
102
{ACAD_REACTORS
330
10
102
}
330
10
100
AcDbMaterial
  1
Global
 72
     0
 43
0.0208333333333333
 43
0.0
 43
0.0
 43
0.0
 43
0.0
 43
0.0208333333333333
 43
0.0
 43
0.0
 43
0.0
 43
0.0
 43
1.0
 43
0.0
 43
0.0
 43
0.0
 43
0.0
 43
1.0
 77
     0
 47
0.0208333333333333
 47
0.0
 47
0.0
 47
0.0
 47
0.0
 47
0.0208333333333333
 47
0.0
 47
0.0
 47
0.0
 47
0.0
 47
1.0
 47
0.0
 47
0.0
 47
0.0
 47
0.0
 47
1.0
171
     0
 49
0.0208333333333333
 49
0.0
 49
0.0
 49
0.0
 49
0.0
 49
0.0208333333333333
 49
0.0
 49
0.0
 49
0.0
 49
0.0
 49
1.0
 49
0.0
 49
0.0
 49
0.0
 49
0.0
 49
1.0
175
     0
142
0.0208333333333333
142
0.0
142
0.0
142
0.0
142
0.0
142
0.0208333333333333
142
0.0
142
0.0
142
0.0
142
0.0
142
1.0
142
0.0
142
0.0
142
0.0
142
0.0
142
1.0
179
     0
144
0.0208333333333333
144
0.0
144
0.0
144
0.0
144
0.0
144
0.0208333333333333
144
0.0
144
0.0
144
0.0
144
0.0
144
1.0
144
0.0
144
0.0
144
0.0
144
0.0
144
1.0
147
0.0208333333333333
147
0.0
147
0.0
147
0.0
147
0.0
147
0.0208333333333333
147
0.0
147
0.0
147
0.0
147
0.0
147
1.0
147
0.0
147
0.0
147
0.0
147
0.0
147
1.0
  0
MLEADERSTYLE
  5
6E
102
{ACAD_REACTORS
330
6D
102
}
330
6D
100
AcDbMLeaderStyle
170
     2
171
     1
172
     0
 90
        2
 40
0.0
 41
0.0
173
     1
 91
-1056964608
340
62
 92
       -2
290
     1
 42
0.09
291
     1
 43
0.36
  3
Standard
 44
0.18
300

342
5D
174
     1
178
     6
175
     1
176
     0
 93
-1056964608
 45
0.18
292
     0
297
     0
 46
0.18
 94
-1056964608
 47
1.0
 49
1.0
140
1.0
293
     1
141
0.0
294
     1
177
     0
142
1.0
295
     0
296
     0
143
0.125
1001
ACAD_MLEADERVER
1070
     2
  0
MLINESTYLE
  5
67
102
{ACAD_REACTORS
330
66
102
}
330
66
100
AcDbMlineStyle
  2
STANDARD
 70
     0
  3

 62
   256
 51
90.0
 52
90.0
 71
     2
 49
0.5
 62
   256
  6
BYLAYER
 49
-0.5
 62
   256
  6
BYLAYER
  0
ACDBPLACEHOLDER
  5
F
102
{ACAD_REACTORS
330
E
102
}
330
E
  0
SCALE
  5
3B
102
{ACAD_REACTORS
330
3A
102
}
330
3A
100
AcDbScale
 70
     0
300
1:1
140
1.0
141
1.0
290
     1
  0
SCALE
  5
3C
102
{ACAD_REACTORS
330
3A
102
}
330
3A
100
AcDbScale
 70
     0
300
1:2
140
1.0
141
2.0
290
     0
  0
SCALE
  5
3D
102
{ACAD_REACTORS
330
3A
102
}
330
3A
100
AcDbScale
 70
     0
300
1:4
140
1.0
141
4.0
290
     0
  0
SCALE
  5
3E
102
{ACAD_REACTORS
330
3A
102
}
330
3A
100
AcDbScale
 70
     0
300
1:5
140
1.0
141
5.0
290
     0
  0
SCALE
  5
3F
102
{ACAD_REACTORS
330
3A
102
}
330
3A
100
AcDbScale
 70
     0
300
1:8
140
1.0
141
8.0
290
     0
  0
SCALE
  5
40
102
{ACAD_REACTORS
330
3A
102
}
330
3A
100
AcDbScale
 70
     0
300
1:10
140
1.0
141
10.0
290
     0
  0
SCALE
  5
41
102
{ACAD_REACTORS
330
3A
102
}
330
3A
100
AcDbScale
 70
     0
300
1:16
140
1.0
141
16.0
290
     0
  0
SCALE
  5
42
102
{ACAD_REACTORS
330
3A
102
}
330
3A
100
AcDbScale
 70
     0
300
1:20
140
1.0
141
20.0
290
     0
  0
SCALE
  5
43
102
{ACAD_REACTORS
330
3A
102
}
330
3A
100
AcDbScale
 70
     0
300
1:30
140
1.0
141
30.0
290
     0
  0
SCALE
  5
44
102
{ACAD_REACTORS
330
3A
102
}
330
3A
100
AcDbScale
 70
     0
300
1:40
140
1.0
141
40.0
290
     0
  0
SCALE
  5
45
102
{ACAD_REACTORS
330
3A
102
}
330
3A
100
AcDbScale
 70
     0
300
1:50
140
1.0
141
50.0
290
     0
  0
SCALE
  5
46
102
{ACAD_REACTORS
330
3A
102
}
330
3A
100
AcDbScale
 70
     0
300
1:100
140
1.0
141
100.0
290
     0
  0
SCALE
  5
47
102
{ACAD_REACTORS
330
3A
102
}
330
3A
100
AcDbScale
 70
     0
300
2:1
140
2.0
141
1.0
290
     0
  0
SCALE
  5
48
102
{ACAD_REACTORS
330
3A
102
}
330
3A
100
AcDbScale
 70
     0
300
4:1
140
4.0
141
1.0
290
     0
  0
SCALE
  5
49
102
{ACAD_REACTORS
330
3A
102
}
330
3A
100
AcDbScale
 70
     0
300
8:1
140
8.0
141
1.0
290
     0
  0
SCALE
  5
4A
102
{ACAD_REACTORS
330
3A
102
}
330
3A
100
AcDbScale
 70
     0
300
10:1
140
10.0
141
1.0
290
     0
  0
SCALE
  5
4B
102
{ACAD_REACTORS
330
3A
102
}
330
3A
100
AcDbScale
 70
     0
300
100:1
140
100.0
141
1.0
290
     0
  0
SCALE
  5
4C
102
{ACAD_REACTORS
330
3A
102
}
330
3A
100
AcDbScale
 70
     0
300
1/128" = 1'-0"
140
0.0078125
141
12.0
290
     0
  0
SCALE
  5
4D
102
{ACAD_REACTORS
330
3A
102
}
330
3A
100
AcDbScale
 70
     0
300
1/64" = 1'-0"
140
0.015625
141
12.0
290
     0
  0
SCALE
  5
4E
102
{ACAD_REACTORS
330
3A
102
}
330
3A
100
AcDbScale
 70
     0
300
1/32" = 1'-0"
140
0.03125
141
12.0
290
     0
  0
SCALE
  5
4F
102
{ACAD_REACTORS
330
3A
102
}
330
3A
100
AcDbScale
 70
     0
300
1/16" = 1'-0"
140
0.0625
141
12.0
290
     0
  0
SCALE
  5
50
102
{ACAD_REACTORS
330
3A
102
}
330
3A
100
AcDbScale
 70
     0
300
3/32" = 1'-0"
140
0.09375
141
12.0
290
     0
  0
SCALE
  5
51
102
{ACAD_REACTORS
330
3A
102
}
330
3A
100
AcDbScale
 70
     0
300
1/8" = 1'-0"
140
0.125
141
12.0
290
     0
  0
SCALE
  5
52
102
{ACAD_REACTORS
330
3A
102
}
330
3A
100
AcDbScale
 70
     0
300
3/16" = 1'-0"
140
0.1875
141
12.0
290
     0
  0
SCALE
  5
53
102
{ACAD_REACTORS
330
3A
102
}
330
3A
100
AcDbScale
 70
     0
300
1/4" = 1'-0"
140
0.25
141
12.0
290
     0
  0
SCALE
  5
54
102
{ACAD_REACTORS
330
3A
102
}
330
3A
100
AcDbScale
 70
     0
300
3/8" = 1'-0"
140
0.375
141
12.0
290
     0
  0
SCALE
  5
55
102
{ACAD_REACTORS
330
3A
102
}
330
3A
100
AcDbScale
 70
     0
300
1/2" = 1'-0"
140
0.5
141
12.0
290
     0
  0
SCALE
  5
56
102
{ACAD_REACTORS
330
3A
102
}
330
3A
100
AcDbScale
 70
     0
300
3/4" = 1'-0"
140
0.75
141
12.0
290
     0
  0
SCALE
  5
57
102
{ACAD_REACTORS
330
3A
102
}
330
3A
100
AcDbScale
 70
     0
300
1" = 1'-0"
140
1.0
141
12.0
290
     0
  0
SCALE
  5
58
102
{ACAD_REACTORS
330
3A
102
}
330
3A
100
AcDbScale
 70
     0
300
1-1/2" = 1'-0"
140
1.5
141
12.0
290
     0
  0
SCALE
  5
59
102
{ACAD_REACTORS
330
3A
102
}
330
3A
100
AcDbScale
 70
     0
300
3" = 1'-0"
140
3.0
141
12.0
290
     0
  0
SCALE
  5
5A
102
{ACAD_REACTORS
330
3A
102
}
330
3A
100
AcDbScale
 70
     0
300
6" = 1'-0"
140
6.0
141
12.0
290
     0
  0
SCALE
  5
5B
102
{ACAD_REACTORS
330
3A
102
}
330
3A
100
AcDbScale
 70
     0
300
1'-0" = 1'-0"
140
12.0
141
12.0
290
     0
  0
TABLESTYLE
  5
6C
102
{ACAD_XDICTIONARY
360
86A
102
}
102
{ACAD_REACTORS
330
6B
102
}
330
6B
100
AcDbTableStyle
  3
Standard
 70
     0
 71
     0
 40
0.06
 41
0.06
280
     0
281
     0
  7
STANDARD
140
0.18
170
     2
 62
     0
 63
     7
283
     0
274
    -2
284
     1
 64
     0
275
    -2
285
     1
 65
     0
276
    -2
286
     1
 66
     0
277
    -2
287
     1
 67
     0
278
    -2
288
     1
 68
     0
279
    -2
289
     1
 69
     0
  7
STANDARD
140
0.25
170
     5
 62
     0
 63
     7
283
     0
274
    -2
284
     1
 64
     0
275
    -2
285
     1
 65
     0
276
    -2
286
     1
 66
     0
277
    -2
287
     1
 67
     0
278
    -2
288
     1
 68
     0
279
    -2
289
     1
 69
     0
  7
STANDARD
140
0.18
170
     5
 62
     0
 63
     7
283
     0
274
    -2
284
     1
 64
     0
275
    -2
285
     1
 65
     0
276
    -2
286
     1
 66
     0
277
    -2
287
     1
 67
     0
278
    -2
288
     1
 68
     0
279
    -2
289
     1
 69
     0
  0
VISUALSTYLE
  5
2F
102
{ACAD_REACTORS
330
29
102
}
330
29
100
AcDbVisualStyle
  2
2dWireframe
 70
     4
 71
     0
 72
     2
 73
     0
 90
        0
 40
-0.6
 41
-30.0
 62
     5
 63
     7
 74
     1
 91
        4
 64
     7
 65
   257
 75
     1
175
     1
 42
1.0
 92
        0
 66
   257
 43
1.0
 76
     1
 77
     6
 78
     2
 67
     7
 79
     5
170
     0
171
     0
290
     0
174
     0
 93
        1
 44
0.0
173
     0
291
     0
 45
0.0
1001
ACAD
1000
AcDbSavedByObjectVersion
1070
     0
  0
VISUALSTYLE
  5
31
102
{ACAD_REACTORS
330
29
102
}
330
29
100
AcDbVisualStyle
  2
3D Hidden
 70
     6
 71
     1
 72
     2
 73
     2
 90
        0
 40
-0.6
 41
-30.0
 62
     5
 63
     7
 74
     2
 91
        2
 64
     7
 65
   257
 75
     2
175
     1
 42
40.0
 92
        0
 66
   257
 43
1.0
 76
     1
 77
     6
 78
     2
 67
     7
 79
     3
170
     0
171
     0
290
     0
174
     0
 93
        1
 44
0.0
173
     0
291
     0
 45
0.0
1001
ACAD
1000
AcDbSavedByObjectVersion
1070
     0
  0
VISUALSTYLE
  5
30
102
{ACAD_REACTORS
330
29
102
}
330
29
100
AcDbVisualStyle
  2
3dWireframe
 70
     5
 71
     0
 72
     2
 73
     0
 90
        0
 40
-0.6
 41
-30.0
 62
     5
 63
     7
 74
     1
 91
        4
 64
     7
 65
   257
 75
     1
175
     1
 42
1.0
 92
        0
 66
   257
 43
1.0
 76
     1
 77
     6
 78
     2
 67
     7
 79
     5
170
     0
171
     0
290
     0
174
     0
 93
        1
 44
0.0
173
     0
291
     0
 45
0.0
1001
ACAD
1000
AcDbSavedByObjectVersion
1070
     0
  0
VISUALSTYLE
  5
2E
102
{ACAD_REACTORS
330
29
102
}
330
29
100
AcDbVisualStyle
  2
Basic
 70
     7
 71
     1
 72
     0
 73
     1
 90
        0
 40
-0.6
 41
-30.0
 62
     5
 63
     7
 74
     0
 91
        4
 64
     7
 65
   257
 75
     1
175
     1
 42
1.0
 92
        8
 66
     7
 43
1.0
 76
     1
 77
     6
 78
     2
 67
     7
 79
     5
170
     0
171
     0
290
     0
174
     0
 93
        1
 44
0.0
173
     0
291
     1
 45
0.0
1001
ACAD
1000
AcDbSavedByObjectVersion
1070
     0
  0
VISUALSTYLE
  5
35
102
{ACAD_REACTORS
330
29
102
}
330
29
100
AcDbVisualStyle
  2
Brighten
 70
    12
 71
     2
 72
     2
 73
     0
 90
        0
 40
-0.6
 41
-30.0
 62
     5
 63
     7
 74
     1
 91
        4
 64
     7
 65
   257
 75
     1
175
     1
 42
1.0
 92
        8
 66
     7
 43
1.0
 76
     1
 77
     6
 78
     2
 67
     7
 79
     5
170
     0
171
     0
290
     0
174
     0
 93
        1
 44
50.0
173
     0
291
     1
 45
0.0
1001
ACAD
1000
AcDbSavedByObjectVersion
1070
     0
  0
VISUALSTYLE
  5
39
102
{ACAD_REACTORS
330
29
102
}
330
29
100
AcDbVisualStyle
  2
ColorChange
 70
    16
 71
     2
 72
     2
 73
     3
 90
        0
 40
-0.6
 41
-30.0
 62
     5
 63
     8
 74
     1
 91
        4
 64
     7
 65
   257
 75
     1
175
     1
 42
1.0
 92
        8
 66
     8
 43
1.0
 76
     1
 77
     6
 78
     2
 67
     7
 79
     5
170
     0
171
     0
290
     0
174
     0
 93
        1
 44
0.0
173
     0
291
     1
 45
0.0
1001
ACAD
1000
AcDbSavedByObjectVersion
1070
     0
  0
VISUALSTYLE
  5
32
102
{ACAD_REACTORS
330
29
102
}
330
29
100
AcDbVisualStyle
  2
Conceptual
 70
     9
 71
     3
 72
     2
 73
     0
 90
        0
 40
-0.6
 41
-30.0
 62
     5
 63
     7
 74
     2
 91
        2
 64
     7
 65
   257
 75
     1
175
     1
 42
40.0
 92
        8
 66
     7
 43
1.0
 76
     1
 77
     6
 78
     2
 67
     7
 79
     3
170
     0
171
     0
290
     0
174
     0
 93
        1
 44
0.0
173
     0
291
     0
 45
0.0
1001
ACAD
1000
AcDbSavedByObjectVersion
1070
     0
  0
VISUALSTYLE
  5
34
102
{ACAD_REACTORS
330
29
102
}
330
29
100
AcDbVisualStyle
  2
Dim
 70
    11
 71
     2
 72
     2
 73
     0
 90
        0
 40
-0.6
 41
-30.0
 62
     5
 63
     7
 74
     1
 91
        4
 64
     7
 65
   257
 75
     1
175
     1
 42
1.0
 92
        8
 66
     7
 43
1.0
 76
     1
 77
     6
 78
     2
 67
     7
 79
     5
170
     0
171
     0
290
     0
174
     0
 93
        1
 44
-50.0
173
     0
291
     1
 45
0.0
1001
ACAD
1000
AcDbSavedByObjectVersion
1070
     0
  0
VISUALSTYLE
  5
38
102
{ACAD_REACTORS
330
29
102
}
330
29
100
AcDbVisualStyle
  2
Facepattern
 70
    15
 71
     2
 72
     2
 73
     0
 90
        0
 40
-0.6
 41
-30.0
 62
     5
 63
     7
 74
     1
 91
        4
 64
     7
 65
   257
 75
     1
175
     1
 42
1.0
 92
        8
 66
     7
 43
1.0
 76
     1
 77
     6
 78
     2
 67
     7
 79
     5
170
     0
171
     0
290
     0
174
     0
 93
        1
 44
0.0
173
     0
291
     1
 45
0.0
1001
ACAD
1000
AcDbSavedByObjectVersion
1070
     0
  0
VISUALSTYLE
  5
2A
102
{ACAD_REACTORS
330
29
102
}
330
29
100
AcDbVisualStyle
  2
Flat
 70
     0
 71
     2
 72
     1
 73
     1
 90
        2
 40
-0.6
 41
30.0
 62
     5
 63
     7
 74
     0
 91
        4
 64
     7
 65
   257
 75
     1
175
     1
 42
1.0
 92
        8
 66
     7
 43
1.0
 76
     1
 77
     6
 78
     2
 67
     7
 79
     5
170
     0
171
     0
290
     0
174
     0
 93
       13
 44
0.0
173
     0
291
     1
 45
0.0
1001
ACAD
1000
AcDbSavedByObjectVersion
1070
     0
  0
VISUALSTYLE
  5
2B
102
{ACAD_REACTORS
330
29
102
}
330
29
100
AcDbVisualStyle
  2
FlatWithEdges
 70
     1
 71
     2
 72
     1
 73
     1
 90
        2
 40
-0.6
 41
30.0
 62
     5
 63
     7
 74
     1
 91
        4
 64
     7
 65
   257
 75
     1
175
     1
 42
1.0
 92
        0
 66
   257
 43
1.0
 76
     1
 77
     6
 78
     2
 67
     7
 79
     5
170
     0
171
     0
290
     0
174
     0
 93
       13
 44
0.0
173
     0
291
     1
 45
0.0
1001
ACAD
1000
AcDbSavedByObjectVersion
1070
     0
  0
VISUALSTYLE
  5
2C
102
{ACAD_REACTORS
330
29
102
}
330
29
100
AcDbVisualStyle
  2
Gouraud
 70
     2
 71
     2
 72
     2
 73
     1
 90
        2
 40
-0.6
 41
30.0
 62
     5
 63
     7
 74
     0
 91
        4
 64
     7
 65
   257
 75
     1
175
     1
 42
1.0
 92
        0
 66
     7
 43
1.0
 76
     1
 77
     6
 78
     2
 67
     7
 79
     5
170
     0
171
     0
290
     0
174
     0
 93
       13
 44
0.0
173
     0
291
     1
 45
0.0
1001
ACAD
1000
AcDbSavedByObjectVersion
1070
     0
  0
VISUALSTYLE
  5
2D
102
{ACAD_REACTORS
330
29
102
}
330
29
100
AcDbVisualStyle
  2
GouraudWithEdges
 70
     3
 71
     2
 72
     2
 73
     1
 90
        2
 40
-0.6
 41
30.0
 62
     5
 63
     7
 74
     1
 91
        4
 64
     7
 65
   257
 75
     1
175
     1
 42
1.0
 92
        0
 66
   257
 43
1.0
 76
     1
 77
     6
 78
     2
 67
     7
 79
     5
170
     0
171
     0
290
     0
174
     0
 93
       13
 44
0.0
173
     0
291
     1
 45
0.0
1001
ACAD
1000
AcDbSavedByObjectVersion
1070
     0
  0
VISUALSTYLE
  5
37
102
{ACAD_REACTORS
330
29
102
}
330
29
100
AcDbVisualStyle
  2
Linepattern
 70
    14
 71
     2
 72
     2
 73
     0
 90
        0
 40
-0.6
 41
-30.0
 62
     5
 63
     7
 74
     1
 91
        4
 64
     7
 65
   257
 75
     7
175
     7
 42
1.0
 92
        8
 66
     7
 43
1.0
 76
     1
 77
     6
 78
     2
 67
     7
 79
     5
170
     0
171
     0
290
     0
174
     0
 93
        1
 44
0.0
173
     0
291
     1
 45
0.0
1001
ACAD
1000
AcDbSavedByObjectVersion
1070
     0
  0
VISUALSTYLE
  5
33
102
{ACAD_REACTORS
330
29
102
}
330
29
100
AcDbVisualStyle
  2
Realistic
 70
     8
 71
     2
 72
     2
 73
     0
 90
        0
 40
-0.6
 41
-30.0
 62
     5
 63
     7
 74
     1
 91
        0
 64
     7
 65
   257
 75
     1
175
     1
 42
1.0
 92
        8
 66
     8
 43
1.0
 76
     1
 77
     6
 78
     2
 67
     7
 79
     5
170
     0
171
     0
290
     0
174
     0
 93
       13
 44
0.0
173
     0
291
     0
 45
0.0
1001
ACAD
1000
AcDbSavedByObjectVersion
1070
     0
  0
VISUALSTYLE
  5
36
102
{ACAD_REACTORS
330
29
102
}
330
29
100
AcDbVisualStyle
  2
Thicken
 70
    13
 71
     2
 72
     2
 73
     0
 90
        0
 40
-0.6
 41
-30.0
 62
     5
 63
     7
 74
     1
 91
        4
 64
     7
 65
   257
 75
     1
175
     1
 42
1.0
 92
       12
 66
     7
 43
1.0
 76
     1
 77
     6
 78
     2
 67
     7
 79
     5
170
     0
171
     0
290
     0
174
     0
 93
        1
 44
0.0
173
     0
291
     1
 45
0.0
1001
ACAD
1000
AcDbSavedByObjectVersion
1070
     0
  0
DICTIONARYVAR
  5
866
102
{ACAD_REACTORS
330
863
102
}
330
863
100
DictionaryVariables
280
     0
  1
1:1
  0
DICTIONARYVAR
  5
865
102
{ACAD_REACTORS
330
863
102
}
330
863
100
DictionaryVariables
280
     0
  1
STANDARD
  0
DICTIONARYVAR
  5
864
102
{ACAD_REACTORS
330
863
102
}
330
863
100
DictionaryVariables
280
     0
  1
STANDARD
  0
DICTIONARYVAR
  5
869
102
{ACAD_REACTORS
330
863
102
}
330
863
100
DictionaryVariables
280
     0
  1
1
  0
DICTIONARYVAR
  5
868
102
{ACAD_REACTORS
330
863
102
}
330
863
100
DictionaryVariables
280
     0
  1
0
  0
DICTIONARYVAR
  5
867
102
{ACAD_REACTORS
330
863
102
}
330
863
100
DictionaryVariables
280
     0
  1
127
  0
DICTIONARY
  5
874
330
77
100
AcDbDictionary
280
     1
281
     1
  3
ACAD_XREC_ROUNDTRIP
360
875
  0
DICTIONARY
  5
872
330
73
100
AcDbDictionary
280
     1
281
     1
  3
ACAD_XREC_ROUNDTRIP
360
873
  0
DICTIONARY
  5
1A
330
19
100
AcDbDictionary
280
     1
281
     1
  3
ACAD_XREC_ROUNDTRIP
360
86F
  3
BUMPTILE
360
1C
  3
DIFFUSETILE
360
1B
  3
OPACITYTILE
360
1F
  3
REFLECTIONTILE
360
1E
  3
REFRACTIONTILE
360
20
  3
SPECULARTILE
360
1D
  0
DICTIONARY
  5
12
330
11
100
AcDbDictionary
280
     1
281
     1
  3
ACAD_XREC_ROUNDTRIP
360
86E
  3
BUMPTILE
360
14
  3
DIFFUSETILE
360
13
  3
OPACITYTILE
360
17
  3
REFLECTIONTILE
360
16
  3
REFRACTIONTILE
360
18
  3
SPECULARTILE
360
15
  0
DICTIONARY
  5
22
330
21
100
AcDbDictionary
280
     1
281
     1
  3
ACAD_XREC_ROUNDTRIP
360
870
  3
BUMPTILE
360
24
  3
DIFFUSETILE
360
23
  3
OPACITYTILE
360
27
  3
REFLECTIONTILE
360
26
  3
REFRACTIONTILE
360
28
  3
SPECULARTILE
360
25
  0
DICTIONARY
  5
86A
330
6C
100
AcDbDictionary
280
     1
281
     1
  3
ACAD_ROUNDTRIP_2008_TABLESTYLE_CELLSTYLEMAP
360
86B
  3
ACAD_XREC_ROUNDTRIP
360
871
  0
XRECORD
  5
875
102
{ACAD_REACTORS
330
874
102
}
330
874
100
AcDbXrecord
280
     1
102
SHADEPLOT
 70
     0
102
SHADEPLOTRESLEVEL
 70
     2
102
SHADEPLOTCUSTOMDPI
 70
   300
  0
XRECORD
  5
873
102
{ACAD_REACTORS
330
872
102
}
330
872
100
AcDbXrecord
280
     1
102
SHADEPLOT
 70
     0
102
SHADEPLOTRESLEVEL
 70
     2
102
SHADEPLOTCUSTOMDPI
 70
   300
  0
XRECORD
  5
86F
102
{ACAD_REACTORS
330
1A
102
}
330
1A
100
AcDbXrecord
280
     1
102
MATERIAL
148
0.0
149
0.0
149
0.0
 93
        0
 94
      127
282
     0
 72
     0
 77
     0
171
     0
175
     0
179
     0
273
     0
  0
XRECORD
  5
1C
102
{ACAD_REACTORS
330
1A
102
}
330
1A
100
AcDbXrecord
280
     1
270
     1
271
     1
  0
XRECORD
  5
1B
102
{ACAD_REACTORS
330
1A
102
}
330
1A
100
AcDbXrecord
280
     1
270
     1
271
     1
  0
XRECORD
  5
1F
102
{ACAD_REACTORS
330
1A
102
}
330
1A
100
AcDbXrecord
280
     1
270
     1
271
     1
  0
XRECORD
  5
1E
102
{ACAD_REACTORS
330
1A
102
}
330
1A
100
AcDbXrecord
280
     1
270
     1
271
     1
  0
XRECORD
  5
20
102
{ACAD_REACTORS
330
1A
102
}
330
1A
100
AcDbXrecord
280
     1
270
     1
271
     1
  0
XRECORD
  5
1D
102
{ACAD_REACTORS
330
1A
102
}
330
1A
100
AcDbXrecord
280
     1
270
     1
271
     1
  0
XRECORD
  5
86E
102
{ACAD_REACTORS
330
12
102
}
330
12
100
AcDbXrecord
280
     1
102
MATERIAL
148
0.0
149
0.0
149
0.0
 93
        0
 94
      127
282
     0
 72
     0
 77
     0
171
     0
175
     0
179
     0
273
     0
  0
XRECORD
  5
14
102
{ACAD_REACTORS
330
12
102
}
330
12
100
AcDbXrecord
280
     1
270
     1
271
     1
  0
XRECORD
  5
13
102
{ACAD_REACTORS
330
12
102
}
330
12
100
AcDbXrecord
280
     1
270
     1
271
     1
  0
XRECORD
  5
17
102
{ACAD_REACTORS
330
12
102
}
330
12
100
AcDbXrecord
280
     1
270
     1
271
     1
  0
XRECORD
  5
16
102
{ACAD_REACTORS
330
12
102
}
330
12
100
AcDbXrecord
280
     1
270
     1
271
     1
  0
XRECORD
  5
18
102
{ACAD_REACTORS
330
12
102
}
330
12
100
AcDbXrecord
280
     1
270
     1
271
     1
  0
XRECORD
  5
15
102
{ACAD_REACTORS
330
12
102
}
330
12
100
AcDbXrecord
280
     1
270
     1
271
     1
  0
XRECORD
  5
870
102
{ACAD_REACTORS
330
22
102
}
330
22
100
AcDbXrecord
280
     1
102
MATERIAL
148
0.0
149
0.0
149
0.0
 93
        0
 94
      127
282
     0
 72
     0
 77
     0
171
     0
175
     0
179
     0
273
     0
  0
XRECORD
  5
24
102
{ACAD_REACTORS
330
22
102
}
330
22
100
AcDbXrecord
280
     1
270
     1
271
     1
  0
XRECORD
  5
23
102
{ACAD_REACTORS
330
22
102
}
330
22
100
AcDbXrecord
280
     1
270
     1
271
     1
  0
XRECORD
  5
27
102
{ACAD_REACTORS
330
22
102
}
330
22
100
AcDbXrecord
280
     1
270
     1
271
     1
  0
XRECORD
  5
26
102
{ACAD_REACTORS
330
22
102
}
330
22
100
AcDbXrecord
280
     1
270
     1
271
     1
  0
XRECORD
  5
28
102
{ACAD_REACTORS
330
22
102
}
330
22
100
AcDbXrecord
280
     1
270
     1
271
     1
  0
XRECORD
  5
25
102
{ACAD_REACTORS
330
22
102
}
330
22
100
AcDbXrecord
280
     1
270
     1
271
     1
  0
CELLSTYLEMAP
  5
86B
102
{ACAD_REACTORS
330
86A
102
}
330
86A
100
AcDbCellStyleMap
 90
        3
300
CELLSTYLE
  1
TABLEFORMAT_BEGIN
 90
        5
170
     1
 91
        0
 92
    32768
 62
   257
 93
        1
300
CONTENTFORMAT
  1
CONTENTFORMAT_BEGIN
 90
        0
 91
        0
 92
      512
 93
        0
300

 40
0.0
140
1.0
 94
        5
 62
     0
340
5D
144
0.25
309
CONTENTFORMAT_END
171
     0
 94
        0
309
TABLEFORMAT_END
  1
CELLSTYLE_BEGIN
 90
        1
 91
        1
300
_TITLE
309
CELLSTYLE_END
300
CELLSTYLE
  1
TABLEFORMAT_BEGIN
 90
        5
170
     1
 91
        0
 92
        0
 62
   257
 93
        1
300
CONTENTFORMAT
  1
CONTENTFORMAT_BEGIN
 90
        0
 91
        0
 92
      512
 93
        0
300

 40
0.0
140
1.0
 94
        5
 62
     0
340
5D
144
0.18
309
CONTENTFORMAT_END
171
     0
 94
        0
309
TABLEFORMAT_END
  1
CELLSTYLE_BEGIN
 90
        2
 91
        1
300
_HEADER
309
CELLSTYLE_END
300
CELLSTYLE
  1
TABLEFORMAT_BEGIN
 90
        5
170
     1
 91
        0
 92
        0
 62
   257
 93
        1
300
CONTENTFORMAT
  1
CONTENTFORMAT_BEGIN
 90
        0
 91
        0
 92
      512
 93
        0
300

 40
0.0
140
1.0
 94
        2
 62
     0
340
5D
144
0.18
309
CONTENTFORMAT_END
171
     0
 94
        0
309
TABLEFORMAT_END
  1
CELLSTYLE_BEGIN
 90
        3
 91
        2
300
_DATA
309
CELLSTYLE_END
  0
XRECORD
  5
871
102
{ACAD_REACTORS
330
86A
102
}
330
86A
100
AcDbXrecord
280
     1
102
ACAD_ROUNDTRIP_PRE2007_TABLESTYLE
 90
      512
 91
        0
  1

 92
      512
 93
        0
  2

 94
      512
 95
        0
  3

  0
ENDSEC
  0
EOF
