  0
SECTION
  2
HEADER
  9
$ACADVER
  1
AC1015
  9
$ACADMAINTVER
 70
    20
  9
$DWGCODEPAGE
  3
ANSI_932
  9
$INSBASE
 10
0.0
 20
0.0
 30
0.0
  9
$EXTMIN
 10
-1260.140984121408
 20
-969.6141765966476
 30
-0.0015258207003583
  9
$EXTMAX
 10
1423.658759232679
 20
924.0916489933052
 30
0.0000000349246037
  9
$LIMMIN
 10
-1470.0
 20
-1039.5
  9
$LIMMAX
 10
1470.0
 20
1039.5
  9
$ORTHOMODE
 70
     0
  9
$REGENMODE
 70
     1
  9
$FILLMODE
 70
     1
  9
$QTEXTMODE
 70
     0
  9
$MIRRTEXT
 70
     0
  9
$LTSCALE
 40
1.0
  9
$ATTMODE
 70
     1
  9
$TEXTSIZE
 40
1.0
  9
$TRACEWID
 40
0.05
  9
$TEXTSTYLE
  7
STANDARD
  9
$CLAYER
  8
0
  9
$CELTYPE
  6
CONTINUOUS
  9
$CECOLOR
 62
   256
  9
$CELTSCALE
 40
1.0
  9
$DISPSILH
 70
     0
  9
$DIMSCALE
 40
7.0
  9
$DIMASZ
 40
0.18
  9
$DIMEXO
 40
0.0625
  9
$DIMDLI
 40
0.38
  9
$DIMRND
 40
0.0
  9
$DIMDLE
 40
0.0
  9
$DIMEXE
 40
0.18
  9
$DIMTP
 40
0.0
  9
$DIMTM
 40
0.0
  9
$DIMTXT
 40
0.18
  9
$DIMCEN
 40
0.09
  9
$DIMTSZ
 40
0.0
  9
$DIMTOL
 70
     0
  9
$DIMLIM
 70
     0
  9
$DIMTIH
 70
     1
  9
$DIMTOH
 70
     1
  9
$DIMSE1
 70
     0
  9
$DIMSE2
 70
     0
  9
$DIMTAD
 70
     1
  9
$DIMZIN
 70
     0
  9
$DIMBLK
  1

  9
$DIMASO
 70
     1
  9
$DIMSHO
 70
     1
  9
$DIMPOST
  1

  9
$DIMAPOST
  1

  9
$DIMALT
 70
     0
  9
$DIMALTD
 70
     2
  9
$DIMALTF
 40
25.4
  9
$DIMLFAC
 40
1.0
  9
$DIMTOFL
 70
     0
  9
$DIMTVP
 40
0.0
  9
$DIMTIX
 70
     0
  9
$DIMSOXD
 70
     0
  9
$DIMSAH
 70
     0
  9
$DIMBLK1
  1

  9
$DIMBLK2
  1

  9
$DIMSTYLE
  2
Standard
  9
$DIMCLRD
 70
     0
  9
$DIMCLRE
 70
     0
  9
$DIMCLRT
 70
     0
  9
$DIMTFAC
 40
1.0
  9
$DIMGAP
 40
0.09
  9
$DIMJUST
 70
     0
  9
$DIMSD1
 70
     0
  9
$DIMSD2
 70
     0
  9
$DIMTOLJ
 70
     1
  9
$DIMTZIN
 70
     0
  9
$DIMALTZ
 70
     0
  9
$DIMALTTZ
 70
     0
  9
$DIMUPT
 70
     0
  9
$DIMDEC
 70
     4
  9
$DIMTDEC
 70
     4
  9
$DIMALTU
 70
     2
  9
$DIMALTTD
 70
     2
  9
$DIMTXSTY
  7
STANDARD
  9
$DIMAUNIT
 70
     0
  9
$DIMADEC
 70
     0
  9
$DIMALTRND
 40
0.0
  9
$DIMAZIN
 70
     0
  9
$DIMDSEP
 70
    46
  9
$DIMATFIT
 70
     3
  9
$DIMFRAC
 70
     0
  9
$DIMLDRBLK
  1

  9
$DIMLUNIT
 70
     2
  9
$DIMLWD
 70
    -2
  9
$DIMLWE
 70
    -2
  9
$DIMTMOVE
 70
     0
  9
$LUNITS
 70
     2
  9
$LUPREC
 70
     4
  9
$SKETCHINC
 40
0.1
  9
$FILLETRAD
 40
0.0
  9
$AUNITS
 70
     0
  9
$AUPREC
 70
     0
  9
$MENU
  1
.
  9
$ELEVATION
 40
0.0
  9
$PELEVATION
 40
0.0
  9
$THICKNESS
 40
0.0
  9
$LIMCHECK
 70
     0
  9
$CHAMFERA
 40
0.0
  9
$CHAMFERB
 40
0.0
  9
$CHAMFERC
 40
0.0
  9
$CHAMFERD
 40
0.0
  9
$SKPOLY
 70
     0
  9
$TDCREATE
 40
2450288.000000000
  9
$TDUCREATE
 40
2450287.625000000
  9
$TDUPDATE
 40
2455267.581754352
  9
$TDUUPDATE
 40
2455267.206754352
  9
$TDINDWG
 40
0.0004941898
  9
$TDUSRTIMER
 40
0.0004941898
  9
$USRTIMER
 70
     1
  9
$ANGBASE
 50
0.0
  9
$ANGDIR
 70
     0
  9
$PDMODE
 70
     0
  9
$PDSIZE
 40
0.0
  9
$PLINEWID
 40
0.0
  9
$SPLFRAME
 70
     0
  9
$SPLINETYPE
 70
     6
  9
$SPLINESEGS
 70
     8
  9
$HANDSEED
  5
7BB
  9
$SURFTAB1
 70
     6
  9
$SURFTAB2
 70
     6
  9
$SURFTYPE
 70
     6
  9
$SURFU
 70
     6
  9
$SURFV
 70
     6
  9
$UCSBASE
  2

  9
$UCSNAME
  2

  9
$UCSORG
 10
0.0
 20
0.0
 30
0.0
  9
$UCSXDIR
 10
1.0
 20
0.0
 30
0.0
  9
$UCSYDIR
 10
0.0
 20
1.0
 30
0.0
  9
$UCSORTHOREF
  2

  9
$UCSORTHOVIEW
 70
     0
  9
$UCSORGTOP
 10
0.0
 20
0.0
 30
0.0
  9
$UCSORGBOTTOM
 10
0.0
 20
0.0
 30
0.0
  9
$UCSORGLEFT
 10
0.0
 20
0.0
 30
0.0
  9
$UCSORGRIGHT
 10
0.0
 20
0.0
 30
0.0
  9
$UCSORGFRONT
 10
0.0
 20
0.0
 30
0.0
  9
$UCSORGBACK
 10
0.0
 20
0.0
 30
0.0
  9
$PUCSBASE
  2

  9
$PUCSNAME
  2

  9
$PUCSORG
 10
0.0
 20
0.0
 30
0.0
  9
$PUCSXDIR
 10
1.0
 20
0.0
 30
0.0
  9
$PUCSYDIR
 10
0.0
 20
1.0
 30
0.0
  9
$PUCSORTHOREF
  2

  9
$PUCSORTHOVIEW
 70
     0
  9
$PUCSORGTOP
 10
0.0
 20
0.0
 30
0.0
  9
$PUCSORGBOTTOM
 10
0.0
 20
0.0
 30
0.0
  9
$PUCSORGLEFT
 10
0.0
 20
0.0
 30
0.0
  9
$PUCSORGRIGHT
 10
0.0
 20
0.0
 30
0.0
  9
$PUCSORGFRONT
 10
0.0
 20
0.0
 30
0.0
  9
$PUCSORGBACK
 10
0.0
 20
0.0
 30
0.0
  9
$USERI1
 70
     0
  9
$USERI2
 70
     0
  9
$USERI3
 70
     0
  9
$USERI4
 70
     0
  9
$USERI5
 70
     0
  9
$USERR1
 40
0.0
  9
$USERR2
 40
0.0
  9
$USERR3
 40
0.0
  9
$USERR4
 40
0.0
  9
$USERR5
 40
0.0
  9
$WORLDVIEW
 70
     1
  9
$SHADEDGE
 70
     3
  9
$SHADEDIF
 70
    70
  9
$TILEMODE
 70
     1
  9
$MAXACTVP
 70
    64
  9
$PINSBASE
 10
0.0
 20
0.0
 30
0.0
  9
$PLIMCHECK
 70
     0
  9
$PEXTMIN
 10
1.000000000000000E+20
 20
1.000000000000000E+20
 30
1.000000000000000E+20
  9
$PEXTMAX
 10
-1.000000000000000E+20
 20
-1.000000000000000E+20
 30
-1.000000000000000E+20
  9
$PLIMMIN
 10
0.0
 20
0.0
  9
$PLIMMAX
 10
12.0
 20
9.0
  9
$UNITMODE
 70
     0
  9
$VISRETAIN
 70
     1
  9
$PLINEGEN
 70
     0
  9
$PSLTSCALE
 70
     1
  9
$TREEDEPTH
 70
  3020
  9
$CMLSTYLE
  2
Standard
  9
$CMLJUST
 70
     0
  9
$CMLSCALE
 40
1.0
  9
$PROXYGRAPHICS
 70
     1
  9
$MEASUREMENT
 70
     0
  9
$CELWEIGHT
370
    -1
  9
$ENDCAPS
280
     0
  9
$JOINSTYLE
280
     0
  9
$LWDISPLAY
290
     0
  9
$INSUNITS
 70
     0
  9
$HYPERLINKBASE
  1

  9
$STYLESHEET
  1
monochrome.ctb
  9
$XEDIT
290
     1
  9
$CEPSNTYPE
380
     0
  9
$PSTYLEMODE
290
     1
  9
$FINGERPRINTGUID
  2
{13E01F1C-153E-4E5F-AB65-797686030B7E}
  9
$VERSIONGUID
  2
{9F5CD992-B5C7-40EB-8B43-E6C3EB2195C6}
  9
$EXTNAMES
290
     1
  9
$PSVPSCALE
 40
0.0
  9
$OLESTARTUP
290
     0
  0
ENDSEC
  0
SECTION
  2
CLASSES
  0
CLASS
  1
ACDBDICTIONARYWDFLT
  2
AcDbDictionaryWithDefault
  3
ObjectDBX Classes
 90
        0
280
     0
281
     0
  0
CLASS
  1
MATERIAL
  2
AcDbMaterial
  3
ObjectDBX Classes
 90
     1153
280
     0
281
     0
  0
CLASS
  1
VISUALSTYLE
  2
AcDbVisualStyle
  3
ObjectDBX Classes
 90
     4095
280
     0
281
     0
  0
CLASS
  1
SCALE
  2
AcDbScale
  3
ObjectDBX Classes
 90
     1153
280
     0
281
     0
  0
CLASS
  1
TABLESTYLE
  2
AcDbTableStyle
  3
ObjectDBX Classes
 90
     4095
280
     0
281
     0
  0
CLASS
  1
MLEADERSTYLE
  2
AcDbMLeaderStyle
  3
ACDB_MLEADERSTYLE_CLASS
 90
     4095
280
     0
281
     0
  0
CLASS
  1
DICTIONARYVAR
  2
AcDbDictionaryVar
  3
ObjectDBX Classes
 90
        0
280
     0
281
     0
  0
CLASS
  1
CELLSTYLEMAP
  2
AcDbCellStyleMap
  3
ObjectDBX Classes
 90
     1152
280
     0
281
     0
  0
CLASS
  1
ACDBPLACEHOLDER
  2
AcDbPlaceHolder
  3
ObjectDBX Classes
 90
        0
280
     0
281
     0
  0
CLASS
  1
LAYOUT
  2
AcDbLayout
  3
ObjectDBX Classes
 90
        0
280
     0
281
     0
  0
ENDSEC
  0
SECTION
  2
TABLES
  0
TABLE
  2
VPORT
  5
8
330
0
100
AcDbSymbolTable
 70
     1
  0
VPORT
  5
85
330
8
100
AcDbSymbolTableRecord
100
AcDbViewportTableRecord
  2
*Active
 70
     0
 10
0.0
 20
0.0
 11
1.0
 21
1.0
 12
81.7588875556356
 22
-22.76126380167125
 13
0.0
 23
0.0
 14
1.0
 24
1.0
 15
0.0
 25
0.0
 16
0.0
 26
0.0
 36
1.0
 17
0.0
 27
0.0
 37
0.0
 40
1909.164648655993
 41
1.634877384196185
 42
50.0
 43
0.0
 44
0.0
 50
0.0
 51
0.0
 71
     0
 72
   100
 73
     1
 74
     1
 75
     0
 76
     0
 77
     0
 78
     0
281
     0
 65
     1
110
0.0
120
0.0
130
0.0
111
1.0
121
0.0
131
0.0
112
0.0
122
1.0
132
0.0
 79
     0
146
0.0
  0
ENDTAB
  0
TABLE
  2
LTYPE
  5
5
330
0
100
AcDbSymbolTable
 70
     7
  0
LTYPE
  5
62
330
5
100
AcDbSymbolTableRecord
100
AcDbLinetypeTableRecord
  2
ByBlock
 70
     0
  3

 72
    65
 73
     0
 40
0.0
  0
LTYPE
  5
63
330
5
100
AcDbSymbolTableRecord
100
AcDbLinetypeTableRecord
  2
ByLayer
 70
     0
  3

 72
    65
 73
     0
 40
0.0
  0
LTYPE
  5
64
330
5
100
AcDbSymbolTableRecord
100
AcDbLinetypeTableRecord
  2
CONTINUOUS
 70
     0
  3
Solid line
 72
    65
 73
     0
 40
0.0
  0
LTYPE
  5
78
330
5
100
AcDbSymbolTableRecord
100
AcDbLinetypeTableRecord
  2
DASHED
 70
     0
  3
__ __ __ __ __ __ __ __ __ __ __ __ __ __ __
 72
    65
 73
     2
 40
2.0
 49
1.199999999999999
 74
     0
 49
-0.8
 74
     0
  0
LTYPE
  5
79
330
5
100
AcDbSymbolTableRecord
100
AcDbLinetypeTableRecord
  2
CENTER
 70
     0
  3
____ _ ____ _ ____ _ ____ _ ____ _ ____ _ ____
 72
    65
 73
     4
 40
12.0
 49
9.0
 74
     0
 49
-1.0
 74
     0
 49
1.0
 74
     0
 49
-1.0
 74
     0
  0
LTYPE
  5
7A
330
5
100
AcDbSymbolTableRecord
100
AcDbLinetypeTableRecord
  2
HIDDEN
 70
     0
  3
_ _ _ _ _ _ _ _ _ _ _ _ _ _ _ _ _ _ _ _ _ _ _
 72
    65
 73
     2
 40
3.2
 49
2.399999999999999
 74
     0
 49
-0.8
 74
     0
  0
LTYPE
  5
7B
330
5
100
AcDbSymbolTableRecord
100
AcDbLinetypeTableRecord
  2
PHANTOM
 70
     0
  3
_____ _ _ _____ _ _ _____ _ _ _____ _ _ _____
 72
    65
 73
     6
 40
13.5
 49
9.0
 74
     0
 49
-1.0
 74
     0
 49
1.0
 74
     0
 49
-0.5
 74
     0
 49
1.0
 74
     0
 49
-1.0
 74
     0
  0
LTYPE
  5
7C
330
5
100
AcDbSymbolTableRecord
100
AcDbLinetypeTableRecord
  2
DOT
 70
     0
  3
...............................................
 72
    65
 73
     2
 40
1.0
 49
0.5
 74
     0
 49
-0.5
 74
     0
  0
LTYPE
  5
7D
330
5
100
AcDbSymbolTableRecord
100
AcDbLinetypeTableRecord
  2
DASHDOT
 70
     0
  3
__ . __ . __ . __ . __ . __ . __ . __ . __ . __
 72
    65
 73
     4
 40
8.0
 49
5.0
 74
     0
 49
-1.0
 74
     0
 49
1.0
 74
     0
 49
-1.0
 74
     0
  0
ENDTAB
  0
TABLE
  2
LAYER
  5
2
330
0
100
AcDbSymbolTable
 70
     6
  0
LAYER
  5
5C
102
{ACAD_XDICTIONARY
360
793
102
}
330
2
100
AcDbSymbolTableRecord
100
AcDbLayerTableRecord
  2
0
 70
     0
 62
     7
  6
CONTINUOUS
370
    -3
390
F
  0
LAYER
  5
7E
102
{ACAD_XDICTIONARY
360
795
102
}
330
2
100
AcDbSymbolTableRecord
100
AcDbLayerTableRecord
  2
1
 70
     0
 62
     7
  6
CONTINUOUS
370
    -3
390
F
  0
LAYER
  5
7F
102
{ACAD_XDICTIONARY
360
797
102
}
330
2
100
AcDbSymbolTableRecord
100
AcDbLayerTableRecord
  2
2
 70
     0
 62
     7
  6
CONTINUOUS
370
    -3
390
F
  0
LAYER
  5
80
102
{ACAD_XDICTIONARY
360
799
102
}
330
2
100
AcDbSymbolTableRecord
100
AcDbLayerTableRecord
  2
5
 70
     0
 62
     7
  6
CONTINUOUS
370
    -3
390
F
  0
LAYER
  5
81
102
{ACAD_XDICTIONARY
360
79B
102
}
330
2
100
AcDbSymbolTableRecord
100
AcDbLayerTableRecord
  2
18
 70
     0
 62
     7
  6
CONTINUOUS
370
    -3
390
F
  0
LAYER
  5
82
102
{ACAD_XDICTIONARY
360
79D
102
}
330
2
100
AcDbSymbolTableRecord
100
AcDbLayerTableRecord
  2
20
 70
     0
 62
     7
  6
CONTINUOUS
370
    -3
390
F
  0
ENDTAB
  0
TABLE
  2
STYLE
  5
3
330
0
100
AcDbSymbolTable
 70
     3
  0
STYLE
  5
5D
330
3
100
AcDbSymbolTableRecord
100
AcDbTextStyleTableRecord
  2
STANDARD
 70
     0
 40
0.0
 41
1.0
 50
0.0
 71
     0
 42
1.0
  3
txt
  4
BIGFONT
  0
STYLE
  5
61
330
3
100
AcDbSymbolTableRecord
100
AcDbTextStyleTableRecord
  2
Annotative
 70
     0
 40
0.0
 41
1.0
 50
0.0
 71
     0
 42
0.2
  3

  4

1001
AcadAnnotative
1000
AnnotativeData
1002
{
1070
     1
1070
     1
1002
}
  0
ENDTAB
  0
TABLE
  2
VIEW
  5
6
330
0
100
AcDbSymbolTable
 70
     0
  0
ENDTAB
  0
TABLE
  2
UCS
  5
7
330
0
100
AcDbSymbolTable
 70
     0
  0
ENDTAB
  0
TABLE
  2
APPID
  5
9
330
0
100
AcDbSymbolTable
 70
     4
  0
APPID
  5
5E
330
9
100
AcDbSymbolTableRecord
100
AcDbRegAppTableRecord
  2
ACAD
 70
     0
  0
APPID
  5
65
330
9
100
AcDbSymbolTableRecord
100
AcDbRegAppTableRecord
  2
AcadAnnotative
 70
     0
  0
APPID
  5
6F
330
9
100
AcDbSymbolTableRecord
100
AcDbRegAppTableRecord
  2
ACAD_MLEADERVER
 70
     0
  0
APPID
  5
79F
330
9
100
AcDbSymbolTableRecord
100
AcDbRegAppTableRecord
  2
ACAD_PSEXT
 70
     0
  0
ENDTAB
  0
TABLE
  2
DIMSTYLE
  5
A
330
0
100
AcDbSymbolTable
 70
     3
100
AcDbDimStyleTable
 71
     1
340
5F
  0
DIMSTYLE
105
5F
102
{ACAD_REACTORS
330
6D8
330
6D9
330
6DA
330
6DB
330
6DC
330
6DD
330
6DE
330
6DF
102
}
330
A
100
AcDbSymbolTableRecord
100
AcDbDimStyleTableRecord
  2
Standard
 70
     0
340
5D
  0
DIMSTYLE
105
60
330
A
100
AcDbSymbolTableRecord
100
AcDbDimStyleTableRecord
  2
Annotative
 70
     0
340
5D
1001
AcadAnnotative
1000
AnnotativeData
1002
{
1070
     1
1070
     1
1002
}
  0
ENDTAB
  0
TABLE
  2
BLOCK_RECORD
  5
1
330
0
100
AcDbSymbolTable
 70
     9
  0
BLOCK_RECORD
  5
74
330
1
100
AcDbSymbolTableRecord
100
AcDbBlockTableRecord
  2
*Model_Space
340
77
  0
BLOCK_RECORD
  5
70
330
1
100
AcDbSymbolTableRecord
100
AcDbBlockTableRecord
  2
*Paper_Space
340
73
  0
BLOCK_RECORD
  5
86
330
1
100
AcDbSymbolTableRecord
100
AcDbBlockTableRecord
  2
*D0
340
0
  0
BLOCK_RECORD
  5
93
330
1
100
AcDbSymbolTableRecord
100
AcDbBlockTableRecord
  2
*D1
340
0
  0
BLOCK_RECORD
  5
A0
330
1
100
AcDbSymbolTableRecord
100
AcDbBlockTableRecord
  2
*D2
340
0
  0
BLOCK_RECORD
  5
AD
330
1
100
AcDbSymbolTableRecord
100
AcDbBlockTableRecord
  2
*D3
340
0
  0
BLOCK_RECORD
  5
BA
330
1
100
AcDbSymbolTableRecord
100
AcDbBlockTableRecord
  2
*D4
340
0
  0
BLOCK_RECORD
  5
C7
330
1
100
AcDbSymbolTableRecord
100
AcDbBlockTableRecord
  2
*D5
340
0
  0
BLOCK_RECORD
  5
D4
330
1
100
AcDbSymbolTableRecord
100
AcDbBlockTableRecord
  2
*D6
340
0
  0
BLOCK_RECORD
  5
E1
330
1
100
AcDbSymbolTableRecord
100
AcDbBlockTableRecord
  2
*D7
340
0
  0
ENDTAB
  0
ENDSEC
  0
SECTION
  2
BLOCKS
  0
BLOCK
  5
75
330
74
100
AcDbEntity
  8
0
100
AcDbBlockBegin
  2
*Model_Space
 70
     0
 10
0.0
 20
0.0
 30
0.0
  3
*Model_Space
  1

  0
ENDBLK
  5
76
330
74
100
AcDbEntity
  8
0
100
AcDbBlockEnd
  0
BLOCK
  5
71
330
70
100
AcDbEntity
 67
     1
  8
0
100
AcDbBlockBegin
  2
*Paper_Space
 70
     0
 10
0.0
 20
0.0
 30
0.0
  3
*Paper_Space
  1

  0
ENDBLK
  5
72
330
70
100
AcDbEntity
 67
     1
  8
0
100
AcDbBlockEnd
  0
BLOCK
  5
87
330
86
100
AcDbEntity
  8
5
100
AcDbBlockBegin
  2
*D0
 70
     1
 10
0.0
 20
0.0
 30
0.0
  3
*D0
  1

  0
TEXT
  5
88
330
86
100
AcDbEntity
  8
5
 62
     2
100
AcDbText
 10
-568.0314
 20
832.917862
 30
0.0
 40
23.1
  1
331
 41
1.399999999999999
100
AcDbText
  0
LINE
  5
89
330
86
100
AcDbEntity
  8
5
 62
     2
100
AcDbLine
 10
-709.2763999999999
 20
672.892624
 30
0.0
 11
-709.2763999999999
 21
836.417862
 31
0.0
  0
LINE
  5
8A
330
86
100
AcDbEntity
  8
5
 62
     2
100
AcDbLine
 10
-709.2763999999999
 20
829.417862
 30
0.0
 11
-695.7534389999999
 21
825.7943949999999
 31
0.0
  0
LINE
  5
8B
330
86
100
AcDbEntity
  8
5
 62
     2
100
AcDbLine
 10
-709.2763999999999
 20
829.417862
 30
0.0
 11
-695.7534389999999
 21
833.041329
 31
0.0
  0
LINE
  5
8C
330
86
100
AcDbEntity
  8
5
 62
     2
100
AcDbLine
 10
-695.7534389999999
 20
825.7943949999999
 30
0.0
 11
-695.7534389999999
 21
833.041329
 31
0.0
  0
LINE
  5
8D
330
86
100
AcDbEntity
  8
5
 62
     2
100
AcDbLine
 10
-709.2763999999999
 20
829.417862
 30
0.0
 11
-378.2764
 21
829.417862
 31
0.0
  0
LINE
  5
8E
330
86
100
AcDbEntity
  8
5
 62
     2
100
AcDbLine
 10
-378.2764
 20
829.417862
 30
0.0
 11
-391.799362
 21
833.041329
 31
0.0
  0
LINE
  5
8F
330
86
100
AcDbEntity
  8
5
 62
     2
100
AcDbLine
 10
-378.2764
 20
829.417862
 30
0.0
 11
-391.799362
 21
825.7943949999999
 31
0.0
  0
LINE
  5
90
330
86
100
AcDbEntity
  8
5
 62
     2
100
AcDbLine
 10
-391.799362
 20
833.041329
 30
0.0
 11
-391.799362
 21
825.7943949999999
 31
0.0
  0
LINE
  5
91
330
86
100
AcDbEntity
  8
5
 62
     2
100
AcDbLine
 10
-378.2764
 20
787.391308
 30
0.0
 11
-378.2764
 21
836.417862
 31
0.0
  0
ENDBLK
  5
92
330
86
100
AcDbEntity
  8
5
100
AcDbBlockEnd
  0
BLOCK
  5
94
330
93
100
AcDbEntity
  8
5
100
AcDbBlockBegin
  2
*D1
 70
     1
 10
0.0
 20
0.0
 30
0.0
  3
*D1
  1

  0
TEXT
  5
95
330
93
100
AcDbEntity
  8
5
 62
     2
100
AcDbText
 10
-277.746136
 20
12.452624
 30
0.0
 40
23.1
  1
%%c355
 50
90.0
 41
1.399999999999999
100
AcDbText
  0
LINE
  5
96
330
93
100
AcDbEntity
  8
5
 62
     2
100
AcDbLine
 10
-384.2764
 20
222.292624
 30
0.0
 11
-267.246136
 21
222.292624
 31
0.0
  0
LINE
  5
97
330
93
100
AcDbEntity
  8
5
 62
     2
100
AcDbLine
 10
-274.246136
 20
222.292624
 30
0.0
 11
-277.869602
 21
208.769663
 31
0.0
  0
LINE
  5
98
330
93
100
AcDbEntity
  8
5
 62
     2
100
AcDbLine
 10
-274.246136
 20
222.292624
 30
0.0
 11
-270.622669
 21
208.769663
 31
0.0
  0
LINE
  5
99
330
93
100
AcDbEntity
  8
5
 62
     2
100
AcDbLine
 10
-277.869602
 20
208.769663
 30
0.0
 11
-270.622669
 21
208.769663
 31
0.0
  0
LINE
  5
9A
330
93
100
AcDbEntity
  8
5
 62
     2
100
AcDbLine
 10
-274.246136
 20
222.292624
 30
0.0
 11
-274.246136
 21
-132.707376
 31
0.0
  0
LINE
  5
9B
330
93
100
AcDbEntity
  8
5
 62
     2
100
AcDbLine
 10
-274.246136
 20
-132.707376
 30
0.0
 11
-270.622669
 21
-119.184414
 31
0.0
  0
LINE
  5
9C
330
93
100
AcDbEntity
  8
5
 62
     2
100
AcDbLine
 10
-274.246136
 20
-132.707376
 30
0.0
 11
-277.869602
 21
-119.184414
 31
0.0
  0
LINE
  5
9D
330
93
100
AcDbEntity
  8
5
 62
     2
100
AcDbLine
 10
-270.622669
 20
-119.184414
 30
0.0
 11
-277.869602
 21
-119.184414
 31
0.0
  0
LINE
  5
9E
330
93
100
AcDbEntity
  8
5
 62
     2
100
AcDbLine
 10
-384.2764
 20
-132.707376
 30
0.0
 11
-267.246136
 21
-132.707376
 31
0.0
  0
ENDBLK
  5
9F
330
93
100
AcDbEntity
  8
5
100
AcDbBlockEnd
  0
BLOCK
  5
A1
330
A0
100
AcDbEntity
  8
5
100
AcDbBlockBegin
  2
*D2
 70
     1
 10
0.0
 20
0.0
 30
0.0
  3
*D2
  1

  0
TEXT
  5
A2
330
A0
100
AcDbEntity
  8
5
 62
     2
100
AcDbText
 10
-277.746136
 20
524.937624
 30
0.0
 40
23.1
  1
117
 50
90.0
 41
1.399999999999999
100
AcDbText
  0
LINE
  5
A3
330
A0
100
AcDbEntity
  8
5
 62
     2
100
AcDbLine
 10
-380.475831
 20
490.692624
 30
0.0
 11
-267.246136
 21
490.692624
 31
0.0
  0
LINE
  5
A4
330
A0
100
AcDbEntity
  8
5
 62
     2
100
AcDbLine
 10
-274.246136
 20
490.692624
 30
0.0
 11
-270.622669
 21
504.215586
 31
0.0
  0
LINE
  5
A5
330
A0
100
AcDbEntity
  8
5
 62
     2
100
AcDbLine
 10
-274.246136
 20
490.692624
 30
0.0
 11
-277.869602
 21
504.215586
 31
0.0
  0
LINE
  5
A6
330
A0
100
AcDbEntity
  8
5
 62
     2
100
AcDbLine
 10
-270.622669
 20
504.215586
 30
0.0
 11
-277.869602
 21
504.215586
 31
0.0
  0
LINE
  5
A7
330
A0
100
AcDbEntity
  8
5
 62
     2
100
AcDbLine
 10
-274.246136
 20
490.692624
 30
0.0
 11
-274.246136
 21
607.692624
 31
0.0
  0
LINE
  5
A8
330
A0
100
AcDbEntity
  8
5
 62
     2
100
AcDbLine
 10
-274.246136
 20
607.692624
 30
0.0
 11
-277.869602
 21
594.169663
 31
0.0
  0
LINE
  5
A9
330
A0
100
AcDbEntity
  8
5
 62
     2
100
AcDbLine
 10
-274.246136
 20
607.692624
 30
0.0
 11
-270.622669
 21
594.169663
 31
0.0
  0
LINE
  5
AA
330
A0
100
AcDbEntity
  8
5
 62
     2
100
AcDbLine
 10
-277.869602
 20
594.169663
 30
0.0
 11
-270.622669
 21
594.169663
 31
0.0
  0
LINE
  5
AB
330
A0
100
AcDbEntity
  8
5
 62
     2
100
AcDbLine
 10
-350.048339
 20
607.692624
 30
0.0
 11
-267.246136
 21
607.692624
 31
0.0
  0
ENDBLK
  5
AC
330
A0
100
AcDbEntity
  8
5
100
AcDbBlockEnd
  0
BLOCK
  5
AE
330
AD
100
AcDbEntity
  8
5
100
AcDbBlockBegin
  2
*D3
 70
     1
 10
0.0
 20
0.0
 30
0.0
  3
*D3
  1

  0
TEXT
  5
AF
330
AD
100
AcDbEntity
  8
5
 62
     2
100
AcDbText
 10
-277.746136
 20
384.437624
 30
0.0
 40
23.1
  1
164
 50
90.0
 41
1.399999999999999
100
AcDbText
  0
LINE
  5
B0
330
AD
100
AcDbEntity
  8
5
 62
     2
100
AcDbLine
 10
-640.7764
 20
326.692624
 30
0.0
 11
-267.246136
 21
326.692624
 31
0.0
  0
LINE
  5
B1
330
AD
100
AcDbEntity
  8
5
 62
     2
100
AcDbLine
 10
-274.246136
 20
326.692624
 30
0.0
 11
-270.622669
 21
340.215586
 31
0.0
  0
LINE
  5
B2
330
AD
100
AcDbEntity
  8
5
 62
     2
100
AcDbLine
 10
-274.246136
 20
326.692624
 30
0.0
 11
-277.869602
 21
340.215586
 31
0.0
  0
LINE
  5
B3
330
AD
100
AcDbEntity
  8
5
 62
     2
100
AcDbLine
 10
-270.622669
 20
340.215586
 30
0.0
 11
-277.869602
 21
340.215586
 31
0.0
  0
LINE
  5
B4
330
AD
100
AcDbEntity
  8
5
 62
     2
100
AcDbLine
 10
-274.246136
 20
326.692624
 30
0.0
 11
-274.246136
 21
490.692624
 31
0.0
  0
LINE
  5
B5
330
AD
100
AcDbEntity
  8
5
 62
     2
100
AcDbLine
 10
-274.246136
 20
490.692624
 30
0.0
 11
-277.869602
 21
477.169663
 31
0.0
  0
LINE
  5
B6
330
AD
100
AcDbEntity
  8
5
 62
     2
100
AcDbLine
 10
-274.246136
 20
490.692624
 30
0.0
 11
-270.622669
 21
477.169663
 31
0.0
  0
LINE
  5
B7
330
AD
100
AcDbEntity
  8
5
 62
     2
100
AcDbLine
 10
-277.869602
 20
477.169663
 30
0.0
 11
-270.622669
 21
477.169663
 31
0.0
  0
LINE
  5
B8
330
AD
100
AcDbEntity
  8
5
 62
     2
100
AcDbLine
 10
-380.475831
 20
490.692624
 30
0.0
 11
-267.246136
 21
490.692624
 31
0.0
  0
ENDBLK
  5
B9
330
AD
100
AcDbEntity
  8
5
100
AcDbBlockEnd
  0
BLOCK
  5
BB
330
BA
100
AcDbEntity
  8
5
100
AcDbBlockBegin
  2
*D4
 70
     1
 10
0.0
 20
0.0
 30
0.0
  3
*D4
  1

  0
TEXT
  5
BC
330
BA
100
AcDbEntity
  8
5
 62
     2
100
AcDbText
 10
40.422701
 20
62.29262399999999
 30
0.0
 40
23.1
  1
55
 50
90.0
 41
1.399999999999999
100
AcDbText
  0
LINE
  5
BD
330
BA
100
AcDbEntity
  8
5
 62
     2
100
AcDbLine
 10
169.9236
 20
-10.207376
 30
0.0
 11
36.922701
 21
-10.207376
 31
0.0
  0
LINE
  5
BE
330
BA
100
AcDbEntity
  8
5
 62
     2
100
AcDbLine
 10
43.922701
 20
-10.207376
 30
0.0
 11
40.299234
 21
-23.730337
 31
0.0
  0
LINE
  5
BF
330
BA
100
AcDbEntity
  8
5
 62
     2
100
AcDbLine
 10
43.922701
 20
-10.207376
 30
0.0
 11
47.54616799999999
 21
-23.730337
 31
0.0
  0
LINE
  5
C0
330
BA
100
AcDbEntity
  8
5
 62
     2
100
AcDbLine
 10
40.299234
 20
-23.730337
 30
0.0
 11
47.54616799999999
 21
-23.730337
 31
0.0
  0
LINE
  5
C1
330
BA
100
AcDbEntity
  8
5
 62
     2
100
AcDbLine
 10
43.922701
 20
-45.207376
 30
0.0
 11
43.922701
 21
98.13262399999999
 31
0.0
  0
LINE
  5
C2
330
BA
100
AcDbEntity
  8
5
 62
     2
100
AcDbLine
 10
43.922701
 20
44.79262399999999
 30
0.0
 11
47.54616799999999
 21
58.315586
 31
0.0
  0
LINE
  5
C3
330
BA
100
AcDbEntity
  8
5
 62
     2
100
AcDbLine
 10
43.922701
 20
44.79262399999999
 30
0.0
 11
40.299234
 21
58.315586
 31
0.0
  0
LINE
  5
C4
330
BA
100
AcDbEntity
  8
5
 62
     2
100
AcDbLine
 10
47.54616799999999
 20
58.315586
 30
0.0
 11
40.299234
 21
58.315586
 31
0.0
  0
LINE
  5
C5
330
BA
100
AcDbEntity
  8
5
 62
     2
100
AcDbLine
 10
91.333333
 20
44.79262399999999
 30
0.0
 11
36.922701
 21
44.79262399999999
 31
0.0
  0
ENDBLK
  5
C6
330
BA
100
AcDbEntity
  8
5
100
AcDbBlockEnd
  0
BLOCK
  5
C8
330
C7
100
AcDbEntity
  8
5
100
AcDbBlockBegin
  2
*D5
 70
     1
 10
0.0
 20
0.0
 30
0.0
  3
*D5
  1

  0
TEXT
  5
C9
330
C7
100
AcDbEntity
  8
5
 62
     2
100
AcDbText
 10
40.422701
 20
-244.462376
 30
0.0
 40
23.1
  1
420
 50
90.0
 41
1.399999999999999
100
AcDbText
  0
LINE
  5
CA
330
C7
100
AcDbEntity
  8
5
 62
     2
100
AcDbLine
 10
164.022742
 20
-430.2073759999999
 30
0.0
 11
36.922701
 21
-430.2073759999999
 31
0.0
  0
LINE
  5
CB
330
C7
100
AcDbEntity
  8
5
 62
     2
100
AcDbLine
 10
43.922701
 20
-430.2073759999999
 30
0.0
 11
47.54616799999999
 21
-416.684414
 31
0.0
  0
LINE
  5
CC
330
C7
100
AcDbEntity
  8
5
 62
     2
100
AcDbLine
 10
43.922701
 20
-430.2073759999999
 30
0.0
 11
40.299234
 21
-416.684414
 31
0.0
  0
LINE
  5
CD
330
C7
100
AcDbEntity
  8
5
 62
     2
100
AcDbLine
 10
47.54616799999999
 20
-416.684414
 30
0.0
 11
40.299234
 21
-416.684414
 31
0.0
  0
LINE
  5
CE
330
C7
100
AcDbEntity
  8
5
 62
     2
100
AcDbLine
 10
43.922701
 20
-430.2073759999999
 30
0.0
 11
43.922701
 21
-10.207376
 31
0.0
  0
LINE
  5
CF
330
C7
100
AcDbEntity
  8
5
 62
     2
100
AcDbLine
 10
43.922701
 20
-10.207376
 30
0.0
 11
40.299234
 21
-23.730337
 31
0.0
  0
LINE
  5
D0
330
C7
100
AcDbEntity
  8
5
 62
     2
100
AcDbLine
 10
43.922701
 20
-10.207376
 30
0.0
 11
47.54616799999999
 21
-23.730337
 31
0.0
  0
LINE
  5
D1
330
C7
100
AcDbEntity
  8
5
 62
     2
100
AcDbLine
 10
40.299234
 20
-23.730337
 30
0.0
 11
47.54616799999999
 21
-23.730337
 31
0.0
  0
LINE
  5
D2
330
C7
100
AcDbEntity
  8
5
 62
     2
100
AcDbLine
 10
169.9236
 20
-10.207376
 30
0.0
 11
36.922701
 21
-10.207376
 31
0.0
  0
ENDBLK
  5
D3
330
C7
100
AcDbEntity
  8
5
100
AcDbBlockEnd
  0
BLOCK
  5
D5
330
D4
100
AcDbEntity
  8
5
100
AcDbBlockBegin
  2
*D6
 70
     1
 10
0.0
 20
0.0
 30
0.0
  3
*D6
  1

  0
TEXT
  5
D6
330
D4
100
AcDbEntity
  8
5
 62
     2
100
AcDbText
 10
40.422701
 20
-643.9623759999999
 30
0.0
 40
23.1
  1
379
 50
90.0
 41
1.399999999999999
100
AcDbText
  0
LINE
  5
D7
330
D4
100
AcDbEntity
  8
5
 62
     2
100
AcDbLine
 10
261.2766
 20
-809.2073759999999
 30
0.0
 11
36.922701
 21
-809.2073759999999
 31
0.0
  0
LINE
  5
D8
330
D4
100
AcDbEntity
  8
5
 62
     2
100
AcDbLine
 10
43.922701
 20
-809.2073759999999
 30
0.0
 11
47.54616799999999
 21
-795.6844139999999
 31
0.0
  0
LINE
  5
D9
330
D4
100
AcDbEntity
  8
5
 62
     2
100
AcDbLine
 10
43.922701
 20
-809.2073759999999
 30
0.0
 11
40.299234
 21
-795.6844139999999
 31
0.0
  0
LINE
  5
DA
330
D4
100
AcDbEntity
  8
5
 62
     2
100
AcDbLine
 10
47.54616799999999
 20
-795.6844139999999
 30
0.0
 11
40.299234
 21
-795.6844139999999
 31
0.0
  0
LINE
  5
DB
330
D4
100
AcDbEntity
  8
5
 62
     2
100
AcDbLine
 10
43.922701
 20
-809.2073759999999
 30
0.0
 11
43.922701
 21
-430.2073759999999
 31
0.0
  0
LINE
  5
DC
330
D4
100
AcDbEntity
  8
5
 62
     2
100
AcDbLine
 10
43.922701
 20
-430.2073759999999
 30
0.0
 11
40.299234
 21
-443.730337
 31
0.0
  0
LINE
  5
DD
330
D4
100
AcDbEntity
  8
5
 62
     2
100
AcDbLine
 10
43.922701
 20
-430.2073759999999
 30
0.0
 11
47.54616799999999
 21
-443.730337
 31
0.0
  0
LINE
  5
DE
330
D4
100
AcDbEntity
  8
5
 62
     2
100
AcDbLine
 10
40.299234
 20
-443.730337
 30
0.0
 11
47.54616799999999
 21
-443.730337
 31
0.0
  0
LINE
  5
DF
330
D4
100
AcDbEntity
  8
5
 62
     2
100
AcDbLine
 10
164.022742
 20
-430.2073759999999
 30
0.0
 11
36.922701
 21
-430.2073759999999
 31
0.0
  0
ENDBLK
  5
E0
330
D4
100
AcDbEntity
  8
5
100
AcDbBlockEnd
  0
BLOCK
  5
E2
330
E1
100
AcDbEntity
  8
5
100
AcDbBlockBegin
  2
*D7
 70
     1
 10
0.0
 20
0.0
 30
0.0
  3
*D7
  1

  0
TEXT
  5
E3
330
E1
100
AcDbEntity
  8
5
 62
     2
100
AcDbText
 10
252.6686
 20
-893.054459
 30
0.0
 40
23.1
  1
113
 41
1.399999999999999
100
AcDbText
  0
LINE
  5
E4
330
E1
100
AcDbEntity
  8
5
 62
     2
100
AcDbLine
 10
220.4236
 20
-700.7471429999999
 30
0.0
 11
220.4236
 21
-903.5544589999998
 31
0.0
  0
LINE
  5
E5
330
E1
100
AcDbEntity
  8
5
 62
     2
100
AcDbLine
 10
220.4236
 20
-896.554459
 30
0.0
 11
233.946561
 21
-900.177925
 31
0.0
  0
LINE
  5
E6
330
E1
100
AcDbEntity
  8
5
 62
     2
100
AcDbLine
 10
220.4236
 20
-896.554459
 30
0.0
 11
233.946561
 21
-892.9309919999999
 31
0.0
  0
LINE
  5
E7
330
E1
100
AcDbEntity
  8
5
 62
     2
100
AcDbLine
 10
233.946561
 20
-900.177925
 30
0.0
 11
233.946561
 21
-892.9309919999999
 31
0.0
  0
LINE
  5
E8
330
E1
100
AcDbEntity
  8
5
 62
     2
100
AcDbLine
 10
220.4236
 20
-896.554459
 30
0.0
 11
333.4236
 21
-896.554459
 31
0.0
  0
LINE
  5
E9
330
E1
100
AcDbEntity
  8
5
 62
     2
100
AcDbLine
 10
333.4236
 20
-896.554459
 30
0.0
 11
319.900638
 21
-892.9309919999999
 31
0.0
  0
LINE
  5
EA
330
E1
100
AcDbEntity
  8
5
 62
     2
100
AcDbLine
 10
333.4236
 20
-896.554459
 30
0.0
 11
319.900638
 21
-900.177925
 31
0.0
  0
LINE
  5
EB
330
E1
100
AcDbEntity
  8
5
 62
     2
100
AcDbLine
 10
319.900638
 20
-892.9309919999999
 30
0.0
 11
319.900638
 21
-900.177925
 31
0.0
  0
LINE
  5
EC
330
E1
100
AcDbEntity
  8
5
 62
     2
100
AcDbLine
 10
333.4236
 20
-700.7471429999999
 30
0.0
 11
333.4236
 21
-903.5544589999998
 31
0.0
  0
ENDBLK
  5
ED
330
E1
100
AcDbEntity
  8
5
100
AcDbBlockEnd
  0
ENDSEC
  0
SECTION
  2
ENTITIES
  0
CIRCLE
  5
EE
330
74
100
AcDbEntity
  8
1
  6
DASHED
100
AcDbCircle
 10
-709.2763999999999
 20
490.692624
 30
0.0
 40
100.0
  0
CIRCLE
  5
EF
330
74
100
AcDbEntity
  8
1
  6
DASHED
100
AcDbCircle
 10
-649.1723239999999
 20
550.7966999999999
 30
0.0
 40
9.5
  0
CIRCLE
  5
F0
330
74
100
AcDbEntity
  8
1
  6
DASHED
100
AcDbCircle
 10
-769.3804769999999
 20
550.7966999999999
 30
0.0
 40
9.5
  0
CIRCLE
  5
F1
330
74
100
AcDbEntity
  8
1
  6
DASHED
100
AcDbCircle
 10
-769.3804769999999
 20
430.588548
 30
0.0
 40
9.5
  0
CIRCLE
  5
F2
330
74
100
AcDbEntity
  8
1
  6
DASHED
100
AcDbCircle
 10
-649.1723239999999
 20
430.588548
 30
0.0
 40
9.5
  0
LINE
  5
F3
330
74
100
AcDbEntity
  8
1
  6
CENTER
 62
     2
100
AcDbLine
 10
-784.531881
 20
415.437143
 30
0.0
 11
-754.136495
 21
445.832529
 31
0.0
  0
LINE
  5
F4
330
74
100
AcDbEntity
  8
1
  6
CENTER
 62
     2
100
AcDbLine
 10
-663.9931309999999
 20
535.9758929999999
 30
0.0
 11
-634.4919949999999
 21
565.47703
 31
0.0
  0
LINE
  5
F5
330
74
100
AcDbEntity
  8
1
  6
CENTER
 62
     2
100
AcDbLine
 10
-784.17687
 20
565.5930940000001
 30
0.0
 11
-753.334387
 21
534.750611
 31
0.0
  0
LINE
  5
F6
330
74
100
AcDbEntity
  8
1
  6
CENTER
 62
     2
100
AcDbLine
 10
-662.74423
 20
444.160454
 30
0.0
 11
-634.4349039999999
 21
415.8511279999999
 31
0.0
  0
ARC
  5
F7
330
74
100
AcDbEntity
  8
1
  6
CENTER
 62
     2
100
AcDbCircle
 10
-709.2763999999999
 20
490.692624
 30
0.0
 40
85.0
100
AcDbArc
 50
29.066858
 51
59.802121
  0
ARC
  5
F8
330
74
100
AcDbEntity
  8
1
  6
CENTER
 62
     2
100
AcDbCircle
 10
-709.2763999999999
 20
490.692624
 30
0.0
 40
85.0
100
AcDbArc
 50
299.4662990000001
 51
331.578515
  0
ARC
  5
F9
330
74
100
AcDbEntity
  8
1
  6
CENTER
 62
     2
100
AcDbCircle
 10
-709.2763999999999
 20
490.692624
 30
0.0
 40
85.0
100
AcDbArc
 50
120.05961
 51
149.898998
  0
ARC
  5
FA
330
74
100
AcDbEntity
  8
1
  6
CENTER
 62
     2
100
AcDbCircle
 10
-709.2763999999999
 20
490.692624
 30
0.0
 40
85.0
100
AcDbArc
 50
209.174631
 51
241.8226549999999
  0
LINE
  5
FB
330
74
100
AcDbEntity
  8
1
  6
CENTER
 62
     2
100
AcDbLine
 10
-649.1723239999999
 20
5.557217999999999
 30
0.0
 11
-649.1723239999999
 21
-50.49914099999999
 31
0.0
  0
LINE
  5
FC
330
74
100
AcDbEntity
  8
1
  6
CENTER
 62
     2
100
AcDbLine
 10
-769.3804769999999
 20
5.557217999999999
 30
0.0
 11
-769.3804769999999
 21
-50.49914099999999
 31
0.0
  0
LINE
  5
FD
330
74
100
AcDbEntity
  8
1
  6
CENTER
 62
     2
100
AcDbLine
 10
337.027676
 20
5.557217999999999
 30
0.0
 11
337.027676
 21
-50.49914099999999
 31
0.0
  0
LINE
  5
FE
330
74
100
AcDbEntity
  8
1
  6
CENTER
 62
     2
100
AcDbLine
 10
216.819523
 20
5.557217999999999
 30
0.0
 11
216.819523
 21
-50.49914099999999
 31
0.0
  0
LINE
  5
FF
330
74
100
AcDbEntity
  8
1
  6
CENTER
 62
     2
100
AcDbLine
 10
-1037.373868
 20
-430.2073759999999
 30
0.0
 11
-387.475831
 21
-430.2073759999999
 31
0.0
  0
LINE
  5
100
330
74
100
AcDbEntity
  8
1
  6
CENTER
 62
     2
100
AcDbLine
 10
171.022742
 20
-430.2073759999999
 30
0.0
 11
382.787512
 21
-430.2073759999999
 31
0.0
  0
LINE
  5
101
330
74
100
AcDbEntity
  8
1
100
AcDbLine
 10
220.4236
 20
-166.667609
 30
0.0
 11
220.4236
 21
-693.7471429999999
 31
0.0
  0
LINE
  5
102
330
74
100
AcDbEntity
  8
1
100
AcDbLine
 10
333.4236
 20
-166.667609
 30
0.0
 11
333.4236
 21
-693.7471429999999
 31
0.0
  0
CIRCLE
  5
103
330
74
100
AcDbEntity
  8
1
100
AcDbCircle
 10
-709.2763999999999
 20
-430.2073759999999
 30
0.0
 40
263.539767
  0
LINE
  5
104
330
74
100
AcDbEntity
  8
1
100
AcDbLine
 10
-762.2764
 20
-780.2073759999999
 30
0.0
 11
-656.2763999999999
 21
-780.2073759999999
 31
0.0
  0
LINE
  5
105
330
74
100
AcDbEntity
  8
1
100
AcDbLine
 10
-806.2763999999999
 20
-30.207376
 30
0.0
 11
-612.2764
 21
-30.207376
 31
0.0
  0
LINE
  5
106
330
74
100
AcDbEntity
  8
1
100
AcDbLine
 10
-809.2763999999998
 20
-27.207376
 30
0.0
 11
-809.2763999999998
 21
-10.207376
 31
0.0
  0
LINE
  5
107
330
74
100
AcDbEntity
  8
1
100
AcDbLine
 10
-609.2763999999999
 20
-27.207376
 30
0.0
 11
-609.2763999999999
 21
-10.207376
 31
0.0
  0
ARC
  5
108
330
74
100
AcDbEntity
  8
1
100
AcDbCircle
 10
-612.2764
 20
-27.207376
 30
0.0
 40
3.0
100
AcDbArc
 50
270.0
 51
0.0
  0
ARC
  5
109
330
74
100
AcDbEntity
  8
1
100
AcDbCircle
 10
-806.2763999999999
 20
-27.207376
 30
0.0
 40
3.0
100
AcDbArc
 50
180.0
 51
270.0
  0
LINE
  5
10A
330
74
100
AcDbEntity
  8
1
100
AcDbLine
 10
-762.2764
 20
-80.897907
 30
0.0
 11
-762.2764
 21
-40.207376
 31
0.0
  0
LINE
  5
10B
330
74
100
AcDbEntity
  8
1
100
AcDbLine
 10
-656.2763999999999
 20
-80.897907
 30
0.0
 11
-656.2763999999999
 21
-40.207376
 31
0.0
  0
LINE
  5
10C
330
74
100
AcDbEntity
  8
1
100
AcDbLine
 10
-762.2764
 20
-794.2073759999999
 30
0.0
 11
-762.2764
 21
-771.9380969999999
 31
0.0
  0
LINE
  5
10D
330
74
100
AcDbEntity
  8
1
100
AcDbLine
 10
-656.2763999999999
 20
-794.2073759999999
 30
0.0
 11
-656.2763999999999
 21
-771.9380969999999
 31
0.0
  0
LINE
  5
10E
330
74
100
AcDbEntity
  8
1
100
AcDbLine
 10
-616.2764
 20
-722.9483019999999
 30
0.0
 11
-616.2764
 21
-690.2569859999999
 31
0.0
  0
LINE
  5
10F
330
74
100
AcDbEntity
  8
1
100
AcDbLine
 10
-616.2764
 20
-170.157766
 30
0.0
 11
-616.2764
 21
-137.466449
 31
0.0
  0
LINE
  5
110
330
74
100
AcDbEntity
  8
1
100
AcDbLine
 10
-802.2764
 20
-722.9483019999999
 30
0.0
 11
-802.2764
 21
-690.2569859999999
 31
0.0
  0
LINE
  5
111
330
74
100
AcDbEntity
  8
1
100
AcDbLine
 10
-802.2764
 20
-170.157766
 30
0.0
 11
-802.2764
 21
-137.466449
 31
0.0
  0
ARC
  5
112
330
74
100
AcDbEntity
  8
1
100
AcDbCircle
 10
-762.2764
 20
-137.466449
 30
0.0
 40
40.0
100
AcDbArc
 50
100.2620939999999
 51
180.0
  0
ARC
  5
113
330
74
100
AcDbEntity
  8
1
100
AcDbCircle
 10
-656.2763999999999
 20
-137.466449
 30
0.0
 40
40.0
100
AcDbArc
 50
0.0
 51
79.737906
  0
ARC
  5
114
330
74
100
AcDbEntity
  8
1
100
AcDbCircle
 10
-656.2763999999999
 20
-722.9483019999999
 30
0.0
 40
40.0
100
AcDbArc
 50
280.262094
 51
0.0
  0
ARC
  5
115
330
74
100
AcDbEntity
  8
1
100
AcDbCircle
 10
-762.2764
 20
-722.9483019999999
 30
0.0
 40
40.0
100
AcDbArc
 50
180.0
 51
259.737906
  0
ARC
  5
116
330
74
100
AcDbEntity
  8
1
100
AcDbCircle
 10
-596.2763999999999
 20
-167.477477
 30
0.0
 40
20.0
100
AcDbArc
 50
180.0
 51
246.727484
  0
ARC
  5
117
330
74
100
AcDbEntity
  8
1
100
AcDbCircle
 10
-822.2763999999999
 20
-167.477477
 30
0.0
 40
20.0
100
AcDbArc
 50
293.272516
 51
0.0
  0
ARC
  5
118
330
74
100
AcDbEntity
  8
1
100
AcDbCircle
 10
-709.2763999999999
 20
-430.2073759999999
 30
0.0
 40
337.5
100
AcDbArc
 50
79.737906
 51
84.51911
  0
ARC
  5
119
330
74
100
AcDbEntity
  8
1
100
AcDbCircle
 10
-709.2763999999999
 20
-430.2073759999999
 30
0.0
 40
337.5
100
AcDbArc
 50
95.48089000000002
 51
100.2620939999999
  0
ARC
  5
11A
330
74
100
AcDbEntity
  8
1
100
AcDbCircle
 10
-596.2763999999999
 20
-170.157766
 30
0.0
 40
20.0
100
AcDbArc
 50
180.0
 51
246.513489
  0
ARC
  5
11B
330
74
100
AcDbEntity
  8
1
100
AcDbCircle
 10
-822.2763999999999
 20
-170.157766
 30
0.0
 40
20.0
100
AcDbArc
 50
293.486511
 51
0.0
  0
ARC
  5
11C
330
74
100
AcDbEntity
  8
1
100
AcDbCircle
 10
-646.2763999999999
 20
-40.207376
 30
0.0
 40
10.0
100
AcDbArc
 50
90.0
 51
180.0
  0
ARC
  5
11D
330
74
100
AcDbEntity
  8
1
100
AcDbCircle
 10
-772.2763999999999
 20
-40.207376
 30
0.0
 40
10.0
100
AcDbArc
 50
0.0
 51
90.0
  0
LINE
  5
11E
330
74
100
AcDbEntity
  8
1
100
AcDbLine
 10
-734.2763999999999
 20
-86.286964
 30
0.0
 11
-734.2763999999999
 21
-46.207376
 31
0.0
  0
LINE
  5
11F
330
74
100
AcDbEntity
  8
1
100
AcDbLine
 10
-684.2763999999999
 20
-86.286964
 30
0.0
 11
-684.2763999999999
 21
-46.207376
 31
0.0
  0
ARC
  5
120
330
74
100
AcDbEntity
  8
1
100
AcDbCircle
 10
-676.2763999999999
 20
-86.286964
 30
0.0
 40
8.0
100
AcDbArc
 50
180.0
 51
264.51911
  0
ARC
  5
121
330
74
100
AcDbEntity
  8
1
100
AcDbCircle
 10
-742.2763999999999
 20
-86.286964
 30
0.0
 40
8.0
100
AcDbArc
 50
275.48089
 51
0.0
  0
LINE
  5
122
330
74
100
AcDbEntity
  8
1
100
AcDbLine
 10
-730.2763999999999
 20
-42.207376
 30
0.0
 11
-723.6986049999999
 21
-42.207376
 31
0.0
  0
LINE
  5
123
330
74
100
AcDbEntity
  8
1
100
AcDbLine
 10
-694.854195
 20
-42.207376
 30
0.0
 11
-688.2763999999999
 21
-42.207376
 31
0.0
  0
ARC
  5
124
330
74
100
AcDbEntity
  8
1
100
AcDbCircle
 10
-688.2763999999999
 20
-46.207376
 30
0.0
 40
4.0
100
AcDbArc
 50
0.0
 51
90.0
  0
ARC
  5
125
330
74
100
AcDbEntity
  8
1
100
AcDbCircle
 10
-730.2763999999999
 20
-46.207376
 30
0.0
 40
4.0
100
AcDbArc
 50
90.0
 51
180.0
  0
ARC
  5
126
330
74
100
AcDbEntity
  8
1
100
AcDbCircle
 10
-709.2763999999999
 20
-430.2073759999999
 30
0.0
 40
337.5
100
AcDbArc
 50
259.737906
 51
262.083607
  0
ARC
  5
127
330
74
100
AcDbEntity
  8
1
100
AcDbCircle
 10
-709.2763999999999
 20
-430.2073759999999
 30
0.0
 40
337.5
100
AcDbArc
 50
277.916393
 51
280.262094
  0
ARC
  5
128
330
74
100
AcDbEntity
  8
1
100
AcDbCircle
 10
-596.2763999999999
 20
-692.9372749999999
 30
0.0
 40
20.0
100
AcDbArc
 50
113.272516
 51
180.0
  0
ARC
  5
129
330
74
100
AcDbEntity
  8
1
100
AcDbCircle
 10
-822.2763999999999
 20
-692.9372749999999
 30
0.0
 40
20.0
100
AcDbArc
 50
0.0
 51
66.72748399999999
  0
ARC
  5
12A
330
74
100
AcDbEntity
  8
1
100
AcDbCircle
 10
-822.2763999999999
 20
-690.2569859999999
 30
0.0
 40
20.0
100
AcDbArc
 50
0.0
 51
66.51348900000001
  0
ARC
  5
12B
330
74
100
AcDbEntity
  8
1
100
AcDbCircle
 10
-596.2763999999999
 20
-690.2569859999999
 30
0.0
 40
20.0
100
AcDbArc
 50
113.486511
 51
180.0
  0
ARC
  5
12C
330
74
100
AcDbEntity
  8
1
100
AcDbCircle
 10
-709.2763999999999
 20
-430.2073759999999
 30
0.0
 40
266.0
100
AcDbArc
 50
113.272516
 51
246.727484
  0
ARC
  5
12D
330
74
100
AcDbEntity
  8
1
100
AcDbCircle
 10
-709.2763999999999
 20
-430.2073759999999
 30
0.0
 40
266.0
100
AcDbArc
 50
293.272516
 51
66.72748399999999
  0
ARC
  5
12E
330
74
100
AcDbEntity
  8
1
100
AcDbCircle
 10
-646.2763999999999
 20
-771.9380969999999
 30
0.0
 40
10.0
100
AcDbArc
 50
101.536959
 51
180.0
  0
ARC
  5
12F
330
74
100
AcDbEntity
  8
1
100
AcDbCircle
 10
-772.2763999999999
 20
-771.9380969999999
 30
0.0
 40
10.0
100
AcDbArc
 50
0.0
 51
78.46304100000001
  0
ARC
  5
130
330
74
100
AcDbEntity
  8
1
100
AcDbCircle
 10
-661.757684
 20
-771.9380969999999
 30
0.0
 40
7.518716
100
AcDbArc
 50
97.91639299999999
 51
180.0
  0
ARC
  5
131
330
74
100
AcDbEntity
  8
1
100
AcDbCircle
 10
-756.7951159999999
 20
-771.9380969999999
 30
0.0
 40
7.518716
100
AcDbArc
 50
0.0
 51
82.083607
  0
LINE
  5
132
330
74
100
AcDbEntity
  8
1
  6
CENTER
 62
     2
100
AcDbLine
 10
-749.2764
 20
-820.017877
 30
0.0
 11
-749.2764
 21
-764.954523
 31
0.0
  0
LINE
  5
133
330
74
100
AcDbEntity
  8
1
  6
CENTER
 62
     2
100
AcDbLine
 10
-669.2763999999999
 20
-820.017877
 30
0.0
 11
-669.2763999999999
 21
-764.954523
 31
0.0
  0
LINE
  5
134
330
74
100
AcDbEntity
  8
1
100
AcDbLine
 10
179.9236
 20
-30.207376
 30
0.0
 11
373.9236
 21
-30.207376
 31
0.0
  0
LINE
  5
135
330
74
100
AcDbEntity
  8
1
100
AcDbLine
 10
176.9236
 20
-27.207376
 30
0.0
 11
176.9236
 21
-10.207376
 31
0.0
  0
LINE
  5
136
330
74
100
AcDbEntity
  8
1
100
AcDbLine
 10
376.9236
 20
-27.207376
 30
0.0
 11
376.9236
 21
-10.207376
 31
0.0
  0
ARC
  5
137
330
74
100
AcDbEntity
  8
1
100
AcDbCircle
 10
373.9236
 20
-27.207376
 30
0.0
 40
3.0
100
AcDbArc
 50
270.0
 51
0.0
  0
ARC
  5
138
330
74
100
AcDbEntity
  8
1
100
AcDbCircle
 10
179.9236
 20
-27.207376
 30
0.0
 40
3.0
100
AcDbArc
 50
180.0
 51
270.0
  0
LINE
  5
139
330
74
100
AcDbEntity
  8
1
100
AcDbLine
 10
-428.2764
 20
-442.7073759999999
 30
0.0
 11
-428.2764
 21
-417.7073759999999
 31
0.0
  0
LINE
  5
13A
330
74
100
AcDbEntity
  8
1
100
AcDbLine
 10
-440.723333
 20
-417.7073759999999
 30
0.0
 11
-428.2764
 21
-417.7073759999999
 31
0.0
  0
LINE
  5
13B
330
74
100
AcDbEntity
  8
1
100
AcDbLine
 10
-440.723333
 20
-442.7073759999999
 30
0.0
 11
-428.2764
 21
-442.7073759999999
 31
0.0
  0
ARC
  5
13C
330
74
100
AcDbEntity
  8
1
100
AcDbCircle
 10
-440.723333
 20
-414.7073759999999
 30
0.0
 40
3.0
100
AcDbArc
 50
183.303259
 51
270.0
  0
ARC
  5
13D
330
74
100
AcDbEntity
  8
1
100
AcDbCircle
 10
-440.723333
 20
-445.7073759999999
 30
0.0
 40
3.0
100
AcDbArc
 50
90.0
 51
176.696741
  0
LINE
  5
13E
330
74
100
AcDbEntity
  8
1
100
AcDbLine
 10
-990.2763999999999
 20
-442.7073759999999
 30
0.0
 11
-990.2763999999999
 21
-417.7073759999999
 31
0.0
  0
LINE
  5
13F
330
74
100
AcDbEntity
  8
1
100
AcDbLine
 10
-977.829468
 20
-417.7073759999999
 30
0.0
 11
-990.2763999999999
 21
-417.7073759999999
 31
0.0
  0
LINE
  5
140
330
74
100
AcDbEntity
  8
1
100
AcDbLine
 10
-977.829468
 20
-442.7073759999999
 30
0.0
 11
-990.2763999999999
 21
-442.7073759999999
 31
0.0
  0
ARC
  5
141
330
74
100
AcDbEntity
  8
1
100
AcDbCircle
 10
-977.829468
 20
-414.7073759999999
 30
0.0
 40
3.0
100
AcDbArc
 50
270.0
 51
356.696741
  0
ARC
  5
142
330
74
100
AcDbEntity
  8
1
100
AcDbCircle
 10
-977.829468
 20
-445.7073759999999
 30
0.0
 40
3.0
100
AcDbArc
 50
3.303258999999999
 51
90.0
  0
LINE
  5
143
330
74
100
AcDbEntity
  8
1
100
AcDbLine
 10
269.4236
 20
-417.7073759999999
 30
0.0
 11
284.4236
 21
-417.7073759999999
 31
0.0
  0
LINE
  5
144
330
74
100
AcDbEntity
  8
1
100
AcDbLine
 10
269.4236
 20
-442.7073759999999
 30
0.0
 11
284.4236
 21
-442.7073759999999
 31
0.0
  0
LINE
  5
145
330
74
100
AcDbEntity
  8
1
100
AcDbLine
 10
269.4236
 20
-417.7073759999999
 30
0.0
 11
269.4236
 21
-442.7073759999999
 31
0.0
  0
LINE
  5
146
330
74
100
AcDbEntity
  8
1
100
AcDbLine
 10
284.4236
 20
-417.7073759999999
 30
0.0
 11
284.4236
 21
-442.7073759999999
 31
0.0
  0
LINE
  5
147
330
74
100
AcDbEntity
  8
1
100
AcDbLine
 10
-990.2763999999999
 20
483.192624
 30
0.0
 11
-990.2763999999999
 21
498.1926239999999
 31
0.0
  0
LINE
  5
148
330
74
100
AcDbEntity
  8
1
100
AcDbLine
 10
-990.2763999999999
 20
498.1926239999999
 30
0.0
 11
-978.191977
 21
498.1926239999999
 31
0.0
  0
LINE
  5
149
330
74
100
AcDbEntity
  8
1
100
AcDbLine
 10
-990.2763999999999
 20
483.192624
 30
0.0
 11
-978.191977
 21
483.192624
 31
0.0
  0
ARC
  5
14A
330
74
100
AcDbEntity
  8
1
100
AcDbCircle
 10
-325.2764
 20
490.692624
 30
0.0
 40
650.0
100
AcDbArc
 50
175.013382
 51
184.986618
  0
ARC
  5
14B
330
74
100
AcDbEntity
  8
1
100
AcDbCircle
 10
-978.191977
 20
501.192624
 30
0.0
 40
3.0
100
AcDbArc
 50
270.0
 51
359.078665
  0
ARC
  5
14C
330
74
100
AcDbEntity
  8
1
100
AcDbCircle
 10
-978.191977
 20
480.192624
 30
0.0
 40
3.0
100
AcDbArc
 50
0.9213350000000001
 51
90.0
  0
LINE
  5
14D
330
74
100
AcDbEntity
  8
1
100
AcDbLine
 10
-428.2764
 20
483.192624
 30
0.0
 11
-428.2764
 21
498.1926239999999
 31
0.0
  0
LINE
  5
14E
330
74
100
AcDbEntity
  8
1
100
AcDbLine
 10
-428.2764
 20
498.1926239999999
 30
0.0
 11
-440.360824
 21
498.1926239999999
 31
0.0
  0
LINE
  5
14F
330
74
100
AcDbEntity
  8
1
100
AcDbLine
 10
-428.2764
 20
483.192624
 30
0.0
 11
-440.360824
 21
483.192624
 31
0.0
  0
ARC
  5
150
330
74
100
AcDbEntity
  8
1
100
AcDbCircle
 10
-1093.2764
 20
490.692624
 30
0.0
 40
650.0
100
AcDbArc
 50
355.013382
 51
4.986617999999999
  0
ARC
  5
151
330
74
100
AcDbEntity
  8
1
100
AcDbCircle
 10
-440.360824
 20
501.192624
 30
0.0
 40
3.0
100
AcDbArc
 50
180.921335
 51
270.0
  0
ARC
  5
152
330
74
100
AcDbEntity
  8
1
100
AcDbCircle
 10
-440.360824
 20
480.192624
 30
0.0
 40
3.0
100
AcDbArc
 50
90.0
 51
179.078665
  0
ARC
  5
153
330
74
100
AcDbEntity
  8
1
100
AcDbCircle
 10
-636.2763999999999
 20
-80.897907
 30
0.0
 40
20.0
100
AcDbArc
 50
180.0
 51
250.528779
  0
ARC
  5
154
330
74
100
AcDbEntity
  8
1
100
AcDbCircle
 10
-782.2764
 20
-80.897907
 30
0.0
 40
20.0
100
AcDbArc
 50
289.471221
 51
0.0
  0
LINE
  5
155
330
74
100
AcDbEntity
  8
1
100
AcDbLine
 10
225.9236
 20
-40.207376
 30
0.0
 11
225.9236
 21
-182.131089
 31
0.0
  0
LINE
  5
156
330
74
100
AcDbEntity
  8
1
100
AcDbLine
 10
327.9236
 20
-40.207376
 30
0.0
 11
327.9236
 21
-182.131125
 31
0.0
  0
ARC
  5
157
330
74
100
AcDbEntity
  8
1
100
AcDbCircle
 10
215.9236
 20
-40.207376
 30
0.0
 40
10.0
100
AcDbArc
 50
0.0
 51
90.0
  0
ARC
  5
158
330
74
100
AcDbEntity
  8
1
100
AcDbCircle
 10
337.9236
 20
-40.207376
 30
0.0
 40
10.0
100
AcDbArc
 50
90.0
 51
180.0
  0
ARC
  5
159
330
74
100
AcDbEntity
  8
1
100
AcDbCircle
 10
276.9236
 20
32.797187
 30
0.0
 40
707.361742
100
AcDbArc
 50
265.703012
 51
274.296988
  0
ARC
  5
15A
330
74
100
AcDbEntity
  8
1
100
AcDbCircle
 10
219.9236
 20
-160.68844
 30
0.0
 40
6.0
100
AcDbArc
 50
274.9847299999999
 51
0.0
  0
ARC
  5
15B
330
74
100
AcDbEntity
  8
1
100
AcDbCircle
 10
333.9236
 20
-160.68844
 30
0.0
 40
6.0
100
AcDbArc
 50
180.0
 51
265.01527
  0
ARC
  5
15C
330
74
100
AcDbEntity
  8
1
100
AcDbCircle
 10
276.9236
 20
-814.2073759999998
 30
0.0
 40
650.0
100
AcDbArc
 50
94.98473000000002
 51
94.986618
  0
ARC
  5
15D
330
74
100
AcDbEntity
  8
1
100
AcDbCircle
 10
276.9236
 20
-814.2073759999998
 30
0.0
 40
650.0
100
AcDbArc
 50
85.01338199999999
 51
85.01527000000001
  0
ARC
  5
15E
330
74
100
AcDbEntity
  8
1
100
AcDbCircle
 10
276.9236
 20
-893.2119380000001
 30
0.0
 40
707.361742
100
AcDbArc
 50
85.86544999999999
 51
94.13455
  0
ARC
  5
15F
330
74
100
AcDbEntity
  8
1
100
AcDbCircle
 10
333.9236
 20
-182.131125
 30
0.0
 40
6.0
100
AcDbArc
 50
180.0
 51
265.219808
  0
ARC
  5
160
330
74
100
AcDbEntity
  8
1
100
AcDbCircle
 10
219.9236
 20
-182.131089
 30
0.0
 40
6.0
100
AcDbArc
 50
274.780192
 51
0.0
  0
ARC
  5
161
330
74
100
AcDbEntity
  8
1
100
AcDbCircle
 10
-709.2763999999999
 20
-430.2073759999999
 30
0.0
 40
269.518936
100
AcDbArc
 50
70.31023499999999
 51
109.689765
  0
ARC
  5
162
330
74
100
AcDbEntity
  8
1
100
AcDbCircle
 10
-709.2763999999999
 20
-430.2073759999999
 30
0.0
 40
269.518936
100
AcDbArc
 50
250.310235
 51
289.689765
  0
ARC
  5
163
330
74
100
AcDbEntity
  8
1
100
AcDbCircle
 10
-621.8374459999999
 20
-185.862318
 30
0.0
 40
10.0
100
AcDbArc
 50
31.56631300000001
 51
70.31023499999999
  0
ARC
  5
164
330
74
100
AcDbEntity
  8
1
100
AcDbCircle
 10
-796.715354
 20
-185.862318
 30
0.0
 40
10.0
100
AcDbArc
 50
109.689765
 51
148.433687
  0
ARC
  5
165
330
74
100
AcDbEntity
  8
1
100
AcDbCircle
 10
-621.8374459999999
 20
-674.5524339999999
 30
0.0
 40
10.0
100
AcDbArc
 50
289.689765
 51
328.433687
  0
ARC
  5
166
330
74
100
AcDbEntity
  8
1
100
AcDbCircle
 10
-796.715354
 20
-674.5524339999999
 30
0.0
 40
10.0
100
AcDbArc
 50
211.566313
 51
250.310235
  0
LINE
  5
167
330
74
100
AcDbEntity
  8
1
100
AcDbLine
 10
238.9236
 20
-137.466449
 30
0.0
 11
314.9236
 21
-137.466449
 31
0.0
  0
ARC
  5
168
330
74
100
AcDbEntity
  8
1
100
AcDbCircle
 10
276.9236
 20
96.612804
 30
0.0
 40
196.366892
100
AcDbArc
 50
254.946675
 51
285.053325
  0
ARC
  5
169
330
74
100
AcDbEntity
  8
1
100
AcDbCircle
 10
314.9236
 20
-111.106325
 30
0.0
 40
13.0
100
AcDbArc
 50
0.0
 51
90.0
  0
ARC
  5
16A
330
74
100
AcDbEntity
  8
1
100
AcDbCircle
 10
238.9236
 20
-111.106325
 30
0.0
 40
13.0
100
AcDbArc
 50
90.0
 51
180.0
  0
LINE
  5
16B
330
74
100
AcDbEntity
  8
1
100
AcDbLine
 10
314.9236
 20
-98.106325
 30
0.0
 11
302.30897
 21
-98.106325
 31
0.0
  0
LINE
  5
16C
330
74
100
AcDbEntity
  8
1
100
AcDbLine
 10
238.9236
 20
-98.106325
 30
0.0
 11
251.538229
 21
-98.106325
 31
0.0
  0
LINE
  5
16D
330
74
100
AcDbEntity
  8
1
100
AcDbLine
 10
223.9236
 20
-677.758853
 30
0.0
 11
223.9236
 21
-794.2073759999999
 31
0.0
  0
LINE
  5
16E
330
74
100
AcDbEntity
  8
1
100
AcDbLine
 10
329.9236
 20
-677.758853
 30
0.0
 11
329.9236
 21
-794.2073759999999
 31
0.0
  0
LINE
  5
16F
330
74
100
AcDbEntity
  8
1
100
AcDbLine
 10
223.9236
 20
-780.2073759999999
 30
0.0
 11
329.9236
 21
-780.2073759999999
 31
0.0
  0
ARC
  5
170
330
74
100
AcDbEntity
  8
1
100
AcDbCircle
 10
335.9236
 20
-677.758853
 30
0.0
 40
6.0
100
AcDbArc
 50
114.624318
 51
180.0
  0
ARC
  5
171
330
74
100
AcDbEntity
  8
1
100
AcDbCircle
 10
217.9236
 20
-677.758853
 30
0.0
 40
6.0
100
AcDbArc
 50
0.0
 51
65.37568199999999
  0
ARC
  5
172
330
74
100
AcDbEntity
  8
1
100
AcDbCircle
 10
217.9236
 20
-699.201499
 30
0.0
 40
6.0
100
AcDbArc
 50
0.0
 51
65.37568199999999
  0
ARC
  5
173
330
74
100
AcDbEntity
  8
1
100
AcDbCircle
 10
335.9236
 20
-699.201499
 30
0.0
 40
6.0
100
AcDbArc
 50
114.624318
 51
180.0
  0
LINE
  5
174
330
74
100
AcDbEntity
  8
1
100
AcDbLine
 10
236.9236
 20
-722.9483019999999
 30
0.0
 11
316.9236
 21
-722.9483019999999
 31
0.0
  0
LINE
  5
175
330
74
100
AcDbEntity
  8
1
100
AcDbLine
 10
236.9236
 20
-762.140138
 30
0.0
 11
316.9236
 21
-762.140138
 31
0.0
  0
ARC
  5
176
330
74
100
AcDbEntity
  8
1
100
AcDbCircle
 10
316.9236
 20
-775.663363
 30
0.0
 40
13.523225
100
AcDbArc
 50
15.990126
 51
90.0
  0
ARC
  5
177
330
74
100
AcDbEntity
  8
1
100
AcDbCircle
 10
236.9236
 20
-775.663363
 30
0.0
 40
13.523225
100
AcDbArc
 50
90.0
 51
164.009874
  0
ARC
  5
178
330
74
100
AcDbEntity
  8
1
100
AcDbCircle
 10
316.9236
 20
-749.3084269999999
 30
0.0
 40
13.0
100
AcDbArc
 50
276.586981
 51
0.0
  0
ARC
  5
179
330
74
100
AcDbEntity
  8
1
100
AcDbCircle
 10
236.9236
 20
-749.3084269999999
 30
0.0
 40
13.0
100
AcDbArc
 50
180.0
 51
263.413019
  0
LINE
  5
17A
330
74
100
AcDbEntity
  8
1
100
AcDbLine
 10
230.190314
 20
-42.207376
 30
0.0
 11
230.190314
 21
-94.11201400000001
 31
0.0
  0
LINE
  5
17B
330
74
100
AcDbEntity
  8
1
100
AcDbLine
 10
225.9236
 20
-42.207376
 30
0.0
 11
227.190314
 21
-42.207376
 31
0.0
  0
ARC
  5
17C
330
74
100
AcDbEntity
  8
1
100
AcDbCircle
 10
227.190314
 20
-39.20737600000001
 30
0.0
 40
3.0
100
AcDbArc
 50
270.0
 51
0.0
  0
LINE
  5
17D
330
74
100
AcDbEntity
  8
1
  6
CENTER
 62
     2
100
AcDbLine
 10
-752.312225
 20
-158.489871
 30
0.0
 11
-760.950647
 21
-103.949023
 31
0.0
  0
LINE
  5
17E
330
74
100
AcDbEntity
  8
1
  6
CENTER
 62
     2
100
AcDbLine
 10
-666.376874
 20
-159.350427
 30
0.0
 11
-657.7727499999999
 21
-105.026127
 31
0.0
  0
CIRCLE
  5
17F
330
74
100
AcDbEntity
  8
1
100
AcDbCircle
 10
-661.954975
 20
-131.431653
 30
0.0
 40
16.5
  0
CIRCLE
  5
180
330
74
100
AcDbEntity
  8
1
100
AcDbCircle
 10
-756.5978259999999
 20
-131.431653
 30
0.0
 40
16.5
  0
ARC
  5
181
330
74
100
AcDbEntity
  8
1
  6
CENTER
 62
     2
100
AcDbCircle
 10
-709.2763999999999
 20
-430.2073759999999
 30
0.0
 40
302.5
100
AcDbArc
 50
93.75345100000002
 51
104.363737
  0
ARC
  5
182
330
74
100
AcDbEntity
  8
1
  6
CENTER
 62
     2
100
AcDbCircle
 10
-709.2763999999999
 20
-430.2073759999999
 30
0.0
 40
302.5
100
AcDbArc
 50
75.50073600000001
 51
86.497366
  0
CIRCLE
  5
183
330
74
100
AcDbEntity
  8
1
100
AcDbCircle
 10
-661.954975
 20
-728.983099
 30
0.0
 40
16.5
  0
ARC
  5
184
330
74
100
AcDbEntity
  8
1
  6
CENTER
 62
     2
100
AcDbCircle
 10
-709.2763999999999
 20
-430.2073759999999
 30
0.0
 40
302.5
100
AcDbArc
 50
273.502634
 51
284.499264
  0
LINE
  5
185
330
74
100
AcDbEntity
  8
1
  6
CENTER
 62
     2
100
AcDbLine
 10
-666.376874
 20
-701.0643250000001
 30
0.0
 11
-657.7727499999999
 21
-755.388624
 31
0.0
  0
LINE
  5
186
330
74
100
AcDbEntity
  8
1
  6
CENTER
 62
     2
100
AcDbLine
 10
-752.312225
 20
-701.9248809999999
 30
0.0
 11
-760.950647
 21
-756.465729
 31
0.0
  0
ARC
  5
187
330
74
100
AcDbEntity
  8
1
  6
CENTER
 62
     2
100
AcDbCircle
 10
-709.2763999999999
 20
-430.2073759999999
 30
0.0
 40
302.5
100
AcDbArc
 50
255.636263
 51
266.246549
  0
CIRCLE
  5
188
330
74
100
AcDbEntity
  8
1
100
AcDbCircle
 10
-756.5978259999999
 20
-728.983099
 30
0.0
 40
16.5
  0
LINE
  5
189
330
74
100
AcDbEntity
  8
1
100
AcDbLine
 10
-762.2764
 20
-781.2073759999999
 30
0.0
 11
-656.2763999999999
 21
-781.2073759999999
 31
0.0
  0
LINE
  5
18A
330
74
100
AcDbEntity
  8
1
100
AcDbLine
 10
-760.2763999999999
 20
-796.207376
 30
0.0
 11
-658.2764
 21
-796.207376
 31
0.0
  0
ARC
  5
18B
330
74
100
AcDbEntity
  8
1
100
AcDbCircle
 10
-658.2764
 20
-794.2073759999999
 30
0.0
 40
2.0
100
AcDbArc
 50
270.0
 51
0.0
  0
ARC
  5
18C
330
74
100
AcDbEntity
  8
1
100
AcDbCircle
 10
-760.2763999999999
 20
-794.2073759999999
 30
0.0
 40
2.0
100
AcDbArc
 50
180.0
 51
270.0
  0
LINE
  5
18D
330
74
100
AcDbEntity
  8
1
100
AcDbLine
 10
-694.2763999999999
 20
-796.207376
 30
0.0
 11
-694.2763999999999
 21
-808.207376
 31
0.0
  0
LINE
  5
18E
330
74
100
AcDbEntity
  8
1
100
AcDbLine
 10
-709.2763999999999
 20
-797.823957
 30
0.0
 11
-709.2763999999999
 21
-806.5907950000001
 31
0.0
  0
ARC
  5
18F
330
74
100
AcDbEntity
  8
1
100
AcDbCircle
 10
-701.7763999999999
 20
-790.001254
 30
0.0
 40
18.206122
100
AcDbArc
 50
245.672652
 51
294.327348
  0
LINE
  5
190
330
74
100
AcDbEntity
  8
1
100
AcDbLine
 10
-724.2764
 20
-796.207376
 30
0.0
 11
-724.2764
 21
-808.207376
 31
0.0
  0
LINE
  5
191
330
74
100
AcDbEntity
  8
1
100
AcDbLine
 10
-724.2764
 20
-808.207376
 30
0.0
 11
-694.2763999999999
 21
-808.207376
 31
0.0
  0
ARC
  5
192
330
74
100
AcDbEntity
  8
1
100
AcDbCircle
 10
-716.7764
 20
-790.001254
 30
0.0
 40
18.206122
100
AcDbArc
 50
245.672652
 51
294.327348
  0
ARC
  5
193
330
74
100
AcDbEntity
  8
1
100
AcDbCircle
 10
-701.7763999999999
 20
-814.413498
 30
0.0
 40
18.206122
100
AcDbArc
 50
65.672652
 51
114.327348
  0
ARC
  5
194
330
74
100
AcDbEntity
  8
1
100
AcDbCircle
 10
-716.7764
 20
-814.413498
 30
0.0
 40
18.206122
100
AcDbArc
 50
65.672652
 51
114.327348
  0
LINE
  5
195
330
74
100
AcDbEntity
  8
1
100
AcDbLine
 10
-717.9234
 20
-809.2073759999999
 30
0.0
 11
-700.6294
 21
-809.2073759999999
 31
0.0
  0
LINE
  5
196
330
74
100
AcDbEntity
  8
1
100
AcDbLine
 10
-717.9234
 20
-809.2073759999999
 30
0.0
 11
-718.9233999999999
 21
-808.207376
 31
0.0
  0
LINE
  5
197
330
74
100
AcDbEntity
  8
1
 62
     2
100
AcDbLine
 10
-717.9234
 20
-809.2073759999999
 30
0.0
 11
-717.9234
 21
-808.207376
 31
0.0
  0
LINE
  5
198
330
74
100
AcDbEntity
  8
1
100
AcDbLine
 10
-700.6294
 20
-809.2073759999999
 30
0.0
 11
-699.6294
 21
-808.207376
 31
0.0
  0
LINE
  5
199
330
74
100
AcDbEntity
  8
1
 62
     2
100
AcDbLine
 10
-700.6294
 20
-809.2073759999999
 30
0.0
 11
-700.6294
 21
-808.207376
 31
0.0
  0
LINE
  5
19A
330
74
100
AcDbEntity
  8
1
100
AcDbLine
 10
294.2236
 20
-797.823957
 30
0.0
 11
294.2236
 21
-806.5907950000001
 31
0.0
  0
LINE
  5
19B
330
74
100
AcDbEntity
  8
1
100
AcDbLine
 10
294.2236
 20
-806.5907950000001
 30
0.0
 11
291.4236
 21
-808.207376
 31
0.0
  0
LINE
  5
19C
330
74
100
AcDbEntity
  8
1
100
AcDbLine
 10
291.4236
 20
-808.207376
 30
0.0
 11
262.4236
 21
-808.207376
 31
0.0
  0
LINE
  5
19D
330
74
100
AcDbEntity
  8
1
100
AcDbLine
 10
285.5736
 20
-797.823957
 30
0.0
 11
285.5736
 21
-806.5907950000001
 31
0.0
  0
ARC
  5
19E
330
74
100
AcDbEntity
  8
1
100
AcDbCircle
 10
289.8986
 20
-801.030861
 30
0.0
 40
7.044039999999999
100
AcDbArc
 50
232.121121
 51
307.878879
  0
LINE
  5
19F
330
74
100
AcDbEntity
  8
1
100
AcDbLine
 10
259.6236
 20
-797.823957
 30
0.0
 11
259.6236
 21
-806.5907950000001
 31
0.0
  0
LINE
  5
1A0
330
74
100
AcDbEntity
  8
1
100
AcDbLine
 10
259.6236
 20
-806.5907950000001
 30
0.0
 11
262.4236
 21
-808.207376
 31
0.0
  0
LINE
  5
1A1
330
74
100
AcDbEntity
  8
1
100
AcDbLine
 10
268.2736
 20
-797.823957
 30
0.0
 11
268.2736
 21
-806.5907950000001
 31
0.0
  0
ARC
  5
1A2
330
74
100
AcDbEntity
  8
1
100
AcDbCircle
 10
263.9486
 20
-801.030861
 30
0.0
 40
7.044039999999999
100
AcDbArc
 50
232.121121
 51
307.878879
  0
ARC
  5
1A3
330
74
100
AcDbEntity
  8
1
100
AcDbCircle
 10
276.9236
 20
-782.124901
 30
0.0
 40
25.95
100
AcDbArc
 50
250.528777
 51
289.471219
  0
ARC
  5
1A4
330
74
100
AcDbEntity
  8
1
100
AcDbCircle
 10
289.8986
 20
-803.383891
 30
0.0
 40
7.044039999999999
100
AcDbArc
 50
52.121121
 51
127.878879
  0
ARC
  5
1A5
330
74
100
AcDbEntity
  8
1
100
AcDbCircle
 10
276.9236
 20
-822.289851
 30
0.0
 40
25.95
100
AcDbArc
 50
70.528781
 51
109.471223
  0
ARC
  5
1A6
330
74
100
AcDbEntity
  8
1
100
AcDbCircle
 10
263.9486
 20
-803.383891
 30
0.0
 40
7.044039999999999
100
AcDbArc
 50
52.121121
 51
127.878879
  0
LINE
  5
1A7
330
74
100
AcDbEntity
  8
1
100
AcDbLine
 10
268.2766
 20
-809.2073759999999
 30
0.0
 11
285.5706
 21
-809.2073759999999
 31
0.0
  0
LINE
  5
1A8
330
74
100
AcDbEntity
  8
1
100
AcDbLine
 10
268.2766
 20
-809.2073759999999
 30
0.0
 11
267.2766
 21
-808.207376
 31
0.0
  0
LINE
  5
1A9
330
74
100
AcDbEntity
  8
1
 62
     2
100
AcDbLine
 10
268.2766
 20
-809.2073759999999
 30
0.0
 11
268.2766
 21
-808.207376
 31
0.0
  0
LINE
  5
1AA
330
74
100
AcDbEntity
  8
1
100
AcDbLine
 10
285.5706
 20
-809.2073759999999
 30
0.0
 11
286.5706
 21
-808.207376
 31
0.0
  0
LINE
  5
1AB
330
74
100
AcDbEntity
  8
1
 62
     2
100
AcDbLine
 10
285.5706
 20
-809.2073759999999
 30
0.0
 11
285.5706
 21
-808.207376
 31
0.0
  0
LINE
  5
1AC
330
74
100
AcDbEntity
  8
1
100
AcDbLine
 10
294.2236
 20
-797.823957
 30
0.0
 11
291.4236
 21
-796.207376
 31
0.0
  0
LINE
  5
1AD
330
74
100
AcDbEntity
  8
1
100
AcDbLine
 10
259.6236
 20
-797.823957
 30
0.0
 11
262.4236
 21
-796.207376
 31
0.0
  0
LINE
  5
1AE
330
74
100
AcDbEntity
  8
1
100
AcDbLine
 10
223.9236
 20
-781.2073759999999
 30
0.0
 11
329.9236
 21
-781.2073759999999
 31
0.0
  0
LINE
  5
1AF
330
74
100
AcDbEntity
  8
1
100
AcDbLine
 10
225.9236
 20
-796.207376
 30
0.0
 11
327.9236
 21
-796.207376
 31
0.0
  0
ARC
  5
1B0
330
74
100
AcDbEntity
  8
1
100
AcDbCircle
 10
327.9236
 20
-794.2073759999999
 30
0.0
 40
2.0
100
AcDbArc
 50
270.0
 51
0.0
  0
ARC
  5
1B1
330
74
100
AcDbEntity
  8
1
100
AcDbCircle
 10
225.9236
 20
-794.2073759999999
 30
0.0
 40
2.0
100
AcDbArc
 50
180.0
 51
270.0
  0
LINE
  5
1B2
330
74
100
AcDbEntity
  8
1
100
AcDbLine
 10
-658.3264
 20
-799.2073759999999
 30
0.0
 11
-658.3264
 21
-806.0815429999999
 31
0.0
  0
LINE
  5
1B3
330
74
100
AcDbEntity
  8
1
100
AcDbLine
 10
-658.3264
 20
-806.0815429999999
 30
0.0
 11
-660.2763999999999
 21
-807.207376
 31
0.0
  0
LINE
  5
1B4
330
74
100
AcDbEntity
  8
1
100
AcDbLine
 10
-663.8013999999999
 20
-799.2073759999999
 30
0.0
 11
-663.8013999999999
 21
-806.0815429999999
 31
0.0
  0
ARC
  5
1B5
330
74
100
AcDbEntity
  8
1
100
AcDbCircle
 10
-661.0638999999999
 20
-802.562394
 30
0.0
 40
4.458510999999999
100
AcDbArc
 50
232.121121
 51
307.878879
  0
ARC
  5
1B6
330
74
100
AcDbEntity
  8
1
100
AcDbCircle
 10
-669.2763999999999
 20
-790.5959039999999
 30
0.0
 40
16.425
100
AcDbArc
 50
250.528777
 51
289.471219
  0
LINE
  5
1B7
330
74
100
AcDbEntity
  8
1
100
AcDbLine
 10
-680.2264
 20
-799.2073759999999
 30
0.0
 11
-680.2264
 21
-806.0815429999999
 31
0.0
  0
LINE
  5
1B8
330
74
100
AcDbEntity
  8
1
100
AcDbLine
 10
-680.2264
 20
-806.0815429999999
 30
0.0
 11
-678.2764
 21
-807.207376
 31
0.0
  0
LINE
  5
1B9
330
74
100
AcDbEntity
  8
1
100
AcDbLine
 10
-678.2764
 20
-807.207376
 30
0.0
 11
-660.2763999999999
 21
-807.207376
 31
0.0
  0
LINE
  5
1BA
330
74
100
AcDbEntity
  8
1
100
AcDbLine
 10
-674.7513999999999
 20
-799.2073759999999
 30
0.0
 11
-674.7513999999999
 21
-806.0815429999999
 31
0.0
  0
ARC
  5
1BB
330
74
100
AcDbEntity
  8
1
100
AcDbCircle
 10
-677.4888999999999
 20
-802.562394
 30
0.0
 40
4.458510999999999
100
AcDbArc
 50
232.121121
 51
307.878879
  0
LINE
  5
1BC
330
74
100
AcDbEntity
  8
1
100
AcDbLine
 10
-658.5263999999999
 20
-796.207376
 30
0.0
 11
-658.5263999999999
 21
-799.2073759999999
 31
0.0
  0
LINE
  5
1BD
330
74
100
AcDbEntity
  8
1
100
AcDbLine
 10
-658.3264
 20
-799.2073759999999
 30
0.0
 11
-680.2264
 21
-799.2073759999999
 31
0.0
  0
LINE
  5
1BE
330
74
100
AcDbEntity
  8
1
100
AcDbLine
 10
-680.0263999999999
 20
-799.2073759999999
 30
0.0
 11
-680.0263999999999
 21
-796.207376
 31
0.0
  0
LINE
  5
1BF
330
74
100
AcDbEntity
  8
1
100
AcDbLine
 10
-669.2763999999999
 20
-799.2073759999999
 30
0.0
 11
-669.7763999999999
 21
-796.207376
 31
0.0
  0
LINE
  5
1C0
330
74
100
AcDbEntity
  8
1
100
AcDbLine
 10
-669.2763999999999
 20
-796.207376
 30
0.0
 11
-668.7763999999999
 21
-799.2073759999999
 31
0.0
  0
LINE
  5
1C1
330
74
100
AcDbEntity
  8
1
  6
CENTER
 62
     2
100
AcDbLine
 10
316.9236
 20
-820.017877
 30
0.0
 11
316.9236
 21
-764.954523
 31
0.0
  0
LINE
  5
1C2
330
74
100
AcDbEntity
  8
1
  6
CENTER
 62
     2
100
AcDbLine
 10
236.9236
 20
-820.017877
 30
0.0
 11
236.9236
 21
-764.954523
 31
0.0
  0
LINE
  5
1C3
330
74
100
AcDbEntity
  8
1
100
AcDbLine
 10
-738.3264
 20
-799.2073759999999
 30
0.0
 11
-738.3264
 21
-806.0815429999999
 31
0.0
  0
LINE
  5
1C4
330
74
100
AcDbEntity
  8
1
100
AcDbLine
 10
-738.3264
 20
-806.0815429999999
 30
0.0
 11
-740.2763999999999
 21
-807.207376
 31
0.0
  0
LINE
  5
1C5
330
74
100
AcDbEntity
  8
1
100
AcDbLine
 10
-743.8013999999999
 20
-799.2073759999999
 30
0.0
 11
-743.8013999999999
 21
-806.0815429999999
 31
0.0
  0
ARC
  5
1C6
330
74
100
AcDbEntity
  8
1
100
AcDbCircle
 10
-741.0638999999999
 20
-802.562394
 30
0.0
 40
4.458510999999999
100
AcDbArc
 50
232.121121
 51
307.878879
  0
ARC
  5
1C7
330
74
100
AcDbEntity
  8
1
100
AcDbCircle
 10
-749.2764
 20
-790.5959039999999
 30
0.0
 40
16.425
100
AcDbArc
 50
250.528777
 51
289.471219
  0
LINE
  5
1C8
330
74
100
AcDbEntity
  8
1
100
AcDbLine
 10
-760.2263999999999
 20
-799.2073759999999
 30
0.0
 11
-760.2263999999999
 21
-806.0815429999999
 31
0.0
  0
LINE
  5
1C9
330
74
100
AcDbEntity
  8
1
100
AcDbLine
 10
-760.2263999999999
 20
-806.0815429999999
 30
0.0
 11
-758.2764
 21
-807.207376
 31
0.0
  0
LINE
  5
1CA
330
74
100
AcDbEntity
  8
1
100
AcDbLine
 10
-758.2764
 20
-807.207376
 30
0.0
 11
-740.2763999999999
 21
-807.207376
 31
0.0
  0
LINE
  5
1CB
330
74
100
AcDbEntity
  8
1
100
AcDbLine
 10
-754.7513999999999
 20
-799.2073759999999
 30
0.0
 11
-754.7513999999999
 21
-806.0815429999999
 31
0.0
  0
ARC
  5
1CC
330
74
100
AcDbEntity
  8
1
100
AcDbCircle
 10
-757.4888999999999
 20
-802.562394
 30
0.0
 40
4.458510999999999
100
AcDbArc
 50
232.121121
 51
307.878879
  0
LINE
  5
1CD
330
74
100
AcDbEntity
  8
1
100
AcDbLine
 10
-738.5263999999999
 20
-796.207376
 30
0.0
 11
-738.5263999999999
 21
-799.2073759999999
 31
0.0
  0
LINE
  5
1CE
330
74
100
AcDbEntity
  8
1
100
AcDbLine
 10
-738.3264
 20
-799.2073759999999
 30
0.0
 11
-760.2263999999999
 21
-799.2073759999999
 31
0.0
  0
LINE
  5
1CF
330
74
100
AcDbEntity
  8
1
100
AcDbLine
 10
-760.0264
 20
-799.2073759999999
 30
0.0
 11
-760.0264
 21
-796.207376
 31
0.0
  0
LINE
  5
1D0
330
74
100
AcDbEntity
  8
1
100
AcDbLine
 10
-749.2764
 20
-799.2073759999999
 30
0.0
 11
-749.7764
 21
-796.207376
 31
0.0
  0
LINE
  5
1D1
330
74
100
AcDbEntity
  8
1
100
AcDbLine
 10
-749.2764
 20
-796.207376
 30
0.0
 11
-748.7763999999999
 21
-799.2073759999999
 31
0.0
  0
LINE
  5
1D2
330
74
100
AcDbEntity
  8
1
100
AcDbLine
 10
326.4236
 20
-799.2073759999999
 30
0.0
 11
326.4236
 21
-807.207376
 31
0.0
  0
LINE
  5
1D3
330
74
100
AcDbEntity
  8
1
100
AcDbLine
 10
316.9236
 20
-799.2073759999999
 30
0.0
 11
316.9236
 21
-806.0815429999999
 31
0.0
  0
ARC
  5
1D4
330
74
100
AcDbEntity
  8
1
100
AcDbCircle
 10
321.6736
 20
-796.624101
 30
0.0
 40
10.583275
100
AcDbArc
 50
243.331909
 51
296.668091
  0
LINE
  5
1D5
330
74
100
AcDbEntity
  8
1
100
AcDbLine
 10
307.4236
 20
-799.2073759999999
 30
0.0
 11
307.4236
 21
-807.207376
 31
0.0
  0
LINE
  5
1D6
330
74
100
AcDbEntity
  8
1
100
AcDbLine
 10
307.4236
 20
-807.207376
 30
0.0
 11
326.4236
 21
-807.207376
 31
0.0
  0
ARC
  5
1D7
330
74
100
AcDbEntity
  8
1
100
AcDbCircle
 10
312.1736
 20
-796.624101
 30
0.0
 40
10.583275
100
AcDbArc
 50
243.331909
 51
296.668091
  0
LINE
  5
1D8
330
74
100
AcDbEntity
  8
1
100
AcDbLine
 10
327.6736
 20
-796.207376
 30
0.0
 11
327.6736
 21
-799.2073759999999
 31
0.0
  0
LINE
  5
1D9
330
74
100
AcDbEntity
  8
1
100
AcDbLine
 10
327.6736
 20
-799.2073759999999
 30
0.0
 11
306.1736
 21
-799.2073759999999
 31
0.0
  0
LINE
  5
1DA
330
74
100
AcDbEntity
  8
1
100
AcDbLine
 10
306.1736
 20
-799.2073759999999
 30
0.0
 11
306.1736
 21
-796.207376
 31
0.0
  0
LINE
  5
1DB
330
74
100
AcDbEntity
  8
1
100
AcDbLine
 10
246.4236
 20
-799.2073759999999
 30
0.0
 11
246.4236
 21
-807.207376
 31
0.0
  0
LINE
  5
1DC
330
74
100
AcDbEntity
  8
1
100
AcDbLine
 10
236.9236
 20
-799.2073759999999
 30
0.0
 11
236.9236
 21
-806.0815429999999
 31
0.0
  0
ARC
  5
1DD
330
74
100
AcDbEntity
  8
1
100
AcDbCircle
 10
241.6736
 20
-796.624101
 30
0.0
 40
10.583275
100
AcDbArc
 50
243.331909
 51
296.668091
  0
LINE
  5
1DE
330
74
100
AcDbEntity
  8
1
100
AcDbLine
 10
227.4236
 20
-799.2073759999999
 30
0.0
 11
227.4236
 21
-807.207376
 31
0.0
  0
LINE
  5
1DF
330
74
100
AcDbEntity
  8
1
100
AcDbLine
 10
227.4236
 20
-807.207376
 30
0.0
 11
246.4236
 21
-807.207376
 31
0.0
  0
ARC
  5
1E0
330
74
100
AcDbEntity
  8
1
100
AcDbCircle
 10
232.1736
 20
-796.624101
 30
0.0
 40
10.583275
100
AcDbArc
 50
243.331909
 51
296.668091
  0
LINE
  5
1E1
330
74
100
AcDbEntity
  8
1
100
AcDbLine
 10
247.6736
 20
-796.207376
 30
0.0
 11
247.6736
 21
-799.2073759999999
 31
0.0
  0
LINE
  5
1E2
330
74
100
AcDbEntity
  8
1
100
AcDbLine
 10
247.6736
 20
-799.2073759999999
 30
0.0
 11
226.1736
 21
-799.2073759999999
 31
0.0
  0
LINE
  5
1E3
330
74
100
AcDbEntity
  8
1
100
AcDbLine
 10
226.1736
 20
-799.2073759999999
 30
0.0
 11
226.1736
 21
-796.207376
 31
0.0
  0
LINE
  5
1E4
330
74
100
AcDbEntity
  8
1
100
AcDbLine
 10
217.9236
 20
-187.707376
 30
0.0
 11
217.9236
 21
-672.7073759999999
 31
0.0
  0
LINE
  5
1E5
330
74
100
AcDbEntity
  8
1
100
AcDbLine
 10
335.9236
 20
-187.707376
 30
0.0
 11
335.9236
 21
-672.7073759999999
 31
0.0
  0
ARC
  5
1E6
330
74
100
AcDbEntity
  8
1
100
AcDbCircle
 10
330.9236
 20
-187.707376
 30
0.0
 40
5.0
100
AcDbArc
 50
0.0
 51
60.0
  0
ARC
  5
1E7
330
74
100
AcDbEntity
  8
1
100
AcDbCircle
 10
222.9236
 20
-187.707376
 30
0.0
 40
5.0
100
AcDbArc
 50
120.0
 51
180.0
  0
ARC
  5
1E8
330
74
100
AcDbEntity
  8
1
100
AcDbCircle
 10
222.9236
 20
-672.7073759999999
 30
0.0
 40
5.0
100
AcDbArc
 50
180.0
 51
240.0
  0
ARC
  5
1E9
330
74
100
AcDbEntity
  8
1
100
AcDbCircle
 10
330.9236
 20
-672.7073759999999
 30
0.0
 40
5.0
100
AcDbArc
 50
300.0
 51
0.0
  0
ARC
  5
1EA
330
74
100
AcDbEntity
  8
1
100
AcDbCircle
 10
-951.7763999999999
 20
544.692624
 30
0.0
 40
5.0
100
AcDbArc
 50
90.0
 51
150.0
  0
ARC
  5
1EB
330
74
100
AcDbEntity
  8
1
100
AcDbCircle
 10
-951.7763999999999
 20
436.692624
 30
0.0
 40
5.0
100
AcDbArc
 50
210.0
 51
270.0
  0
ARC
  5
1EC
330
74
100
AcDbEntity
  8
1
100
AcDbCircle
 10
-466.7764
 20
436.692624
 30
0.0
 40
5.0
100
AcDbArc
 50
270.0
 51
330.0
  0
ARC
  5
1ED
330
74
100
AcDbEntity
  8
1
100
AcDbCircle
 10
-466.7764
 20
544.692624
 30
0.0
 40
5.0
100
AcDbArc
 50
30.0
 51
90.0
  0
LINE
  5
1EE
330
74
100
AcDbEntity
  8
1
100
AcDbLine
 10
-951.7763999999999
 20
549.692624
 30
0.0
 11
-819.476219
 21
549.692624
 31
0.0
  0
LINE
  5
1EF
330
74
100
AcDbEntity
  8
1
  6
DASHED
100
AcDbLine
 10
-819.476219
 20
549.692624
 30
0.0
 11
-790.0167249999999
 21
549.692624
 31
0.0
  0
LINE
  5
1F0
330
74
100
AcDbEntity
  8
1
100
AcDbLine
 10
-972.816167
 20
547.192624
 30
0.0
 11
-820.7786419999999
 21
547.192624
 31
0.0
  0
LINE
  5
1F1
330
74
100
AcDbEntity
  8
1
  6
DASHED
100
AcDbLine
 10
-820.7786419999999
 20
547.192624
 30
0.0
 11
-791.7854909999999
 21
547.192624
 31
0.0
  0
LINE
  5
1F2
330
74
100
AcDbEntity
  8
1
100
AcDbLine
 10
-972.816167
 20
434.192624
 30
0.0
 11
-820.7786419999999
 21
434.192624
 31
0.0
  0
LINE
  5
1F3
330
74
100
AcDbEntity
  8
1
  6
DASHED
100
AcDbLine
 10
-820.7786419999999
 20
434.192624
 30
0.0
 11
-791.7854909999999
 21
434.192624
 31
0.0
  0
LINE
  5
1F4
330
74
100
AcDbEntity
  8
1
100
AcDbLine
 10
-951.7763999999999
 20
431.6926239999999
 30
0.0
 11
-819.476219
 21
431.6926239999999
 31
0.0
  0
LINE
  5
1F5
330
74
100
AcDbEntity
  8
1
  6
DASHED
100
AcDbLine
 10
-819.476219
 20
431.6926239999999
 30
0.0
 11
-790.0167249999999
 21
431.6926239999999
 31
0.0
  0
LINE
  5
1F6
330
74
100
AcDbEntity
  8
1
  6
DASHED
100
AcDbLine
 10
-628.5360759999999
 20
549.692624
 30
0.0
 11
-599.076582
 21
549.692624
 31
0.0
  0
LINE
  5
1F7
330
74
100
AcDbEntity
  8
1
100
AcDbLine
 10
-599.076582
 20
549.692624
 30
0.0
 11
-466.7764
 21
549.692624
 31
0.0
  0
LINE
  5
1F8
330
74
100
AcDbEntity
  8
1
100
AcDbLine
 10
-445.736633
 20
547.192624
 30
0.0
 11
-597.774158
 21
547.192624
 31
0.0
  0
LINE
  5
1F9
330
74
100
AcDbEntity
  8
1
  6
DASHED
100
AcDbLine
 10
-597.774158
 20
547.192624
 30
0.0
 11
-626.7673099999999
 21
547.192624
 31
0.0
  0
LINE
  5
1FA
330
74
100
AcDbEntity
  8
1
100
AcDbLine
 10
-445.736633
 20
434.192624
 30
0.0
 11
-597.774158
 21
434.192624
 31
0.0
  0
LINE
  5
1FB
330
74
100
AcDbEntity
  8
1
  6
DASHED
100
AcDbLine
 10
-597.774158
 20
434.192624
 30
0.0
 11
-626.7673099999999
 21
434.192624
 31
0.0
  0
LINE
  5
1FC
330
74
100
AcDbEntity
  8
1
  6
DASHED
100
AcDbLine
 10
-628.5360759999999
 20
431.6926239999999
 30
0.0
 11
-599.076582
 21
431.6926239999999
 31
0.0
  0
LINE
  5
1FD
330
74
100
AcDbEntity
  8
1
100
AcDbLine
 10
-599.076582
 20
431.6926239999999
 30
0.0
 11
-466.7764
 21
431.6926239999999
 31
0.0
  0
LINE
  5
1FE
330
74
100
AcDbEntity
  8
1
  6
CENTER
 62
     2
100
AcDbLine
 10
-709.2763999999999
 20
123.346896
 30
0.0
 11
-709.2763999999999
 21
-844.494073
 31
0.0
  0
LINE
  5
1FF
330
74
100
AcDbEntity
  8
1
  6
CENTER
 62
     2
100
AcDbLine
 10
276.9236
 20
123.346896
 30
0.0
 11
276.9236
 21
-844.494073
 31
0.0
  0
LINE
  5
200
330
74
100
AcDbEntity
  8
1
  6
CENTER
 62
     2
100
AcDbLine
 10
-1037.373868
 20
490.692624
 30
0.0
 11
-387.475831
 21
490.692624
 31
0.0
  0
TEXT
  5
201
330
74
100
AcDbEntity
  8
1
100
AcDbText
 10
-734.2763999999999
 20
-77.20737599999999
 30
0.0
 40
10.0
  1
ＴＯＭＯＥ
100
AcDbText
  0
TEXT
  5
202
330
74
100
AcDbEntity
  8
1
100
AcDbText
 10
-734.2763999999999
 20
-60.207376
 30
0.0
 40
12.5
  1
４５０
100
AcDbText
  0
TEXT
  5
203
330
74
100
AcDbEntity
  8
1
100
AcDbText
 10
-696.7763999999999
 20
-57.707376
 30
0.0
 40
10.0
  1
Ａ
100
AcDbText
  0
CIRCLE
  5
204
330
74
100
AcDbEntity
  8
1
100
AcDbCircle
 10
-709.2763999999999
 20
-430.2073759999999
 30
0.0
 40
247.5
  0
LINE
  5
205
330
74
100
AcDbEntity
  8
1
100
AcDbLine
 10
-776.6872959999999
 20
-219.357376
 30
0.0
 11
-656.51941
 21
-219.357376
 31
0.0
  0
LINE
  5
206
330
74
100
AcDbEntity
  8
1
100
AcDbLine
 10
-776.6872959999999
 20
-641.057376
 30
0.0
 11
-656.51941
 21
-641.057376
 31
0.0
  0
CIRCLE
  5
207
330
74
100
AcDbEntity
  8
1
100
AcDbCircle
 10
-709.2763999999999
 20
-430.2073759999999
 30
0.0
 40
226.428203
  0
ARC
  5
208
330
74
100
AcDbEntity
  8
1
100
AcDbCircle
 10
-709.2763999999999
 20
-430.2073759999999
 30
0.0
 40
217.35
100
AcDbArc
 50
284.04762
 51
75.952379
  0
ARC
  5
209
330
74
100
AcDbEntity
  8
1
100
AcDbCircle
 10
-709.2763999999999
 20
-430.2073759999999
 30
0.0
 40
219.5
100
AcDbArc
 50
253.86143
 51
106.13857
  0
ARC
  5
20A
330
74
100
AcDbEntity
  8
1
100
AcDbCircle
 10
-708.149261
 20
-430.2073759999999
 30
0.0
 40
222.0
100
AcDbArc
 50
146.054618
 51
213.945382
  0
ARC
  5
20B
330
74
100
AcDbEntity
  8
1
100
AcDbCircle
 10
-706.753685
 20
-430.2073759999999
 30
0.0
 40
220.0
100
AcDbArc
 50
163.773892
 51
196.226108
  0
ARC
  5
20C
330
74
100
AcDbEntity
  8
1
100
AcDbCircle
 10
-708.648592
 20
-430.7838819999999
 30
0.0
 40
196.246494
100
AcDbArc
 50
199.194339
 51
254.439184
  0
ARC
  5
20D
330
74
100
AcDbEntity
  8
1
100
AcDbCircle
 10
-706.992565
 20
-430.2073759999999
 30
0.0
 40
198.0
100
AcDbArc
 50
160.805661
 51
199.194339
  0
ARC
  5
20E
330
74
100
AcDbEntity
  8
1
100
AcDbCircle
 10
-709.2763999999999
 20
-429.448673
 30
0.0
 40
220.641297
100
AcDbArc
 50
107.789606
 51
146.054618
  0
ARC
  5
20F
330
74
100
AcDbEntity
  8
1
100
AcDbCircle
 10
-708.8856969999999
 20
-429.586916
 30
0.0
 40
217.77954
100
AcDbArc
 50
105.130919
 51
163.773892
  0
ARC
  5
210
330
74
100
AcDbEntity
  8
1
100
AcDbCircle
 10
-709.2763999999999
 20
-430.9660789999999
 30
0.0
 40
220.641297
100
AcDbArc
 50
213.945382
 51
252.210394
  0
ARC
  5
211
330
74
100
AcDbEntity
  8
1
100
AcDbCircle
 10
-708.8856969999999
 20
-430.827836
 30
0.0
 40
217.77954
100
AcDbArc
 50
196.226108
 51
254.869081
  0
LINE
  5
212
330
74
100
AcDbEntity
  8
1
100
AcDbLine
 10
-761.2938839999999
 20
-219.357376
 30
0.0
 11
-761.2938839999999
 21
-243.707376
 31
0.0
  0
LINE
  5
213
330
74
100
AcDbEntity
  8
1
100
AcDbLine
 10
-656.4775089999999
 20
-219.367864
 30
0.0
 11
-656.4775089999999
 21
-226.383532
 31
0.0
  0
LINE
  5
214
330
74
100
AcDbEntity
  8
1
100
AcDbLine
 10
-761.2938839999999
 20
-243.707376
 30
0.0
 11
-705.7885759999999
 21
-243.707376
 31
0.0
  0
LINE
  5
215
330
74
100
AcDbEntity
  8
1
100
AcDbLine
 10
-761.2938839999999
 20
-243.707376
 30
0.0
 11
-754.4411669999999
 21
-275.6826660000001
 31
0.0
  0
ARC
  5
216
330
74
100
AcDbEntity
  8
1
100
AcDbCircle
 10
-705.7885759999999
 20
-296.709143
 30
0.0
 40
53.001767
100
AcDbArc
 50
90.0
 51
156.627162
  0
LINE
  5
217
330
74
100
AcDbEntity
  8
1
100
AcDbLine
 10
-590.468837
 20
-300.207376
 30
0.0
 11
-644.91873
 21
-300.207376
 31
0.0
  0
ARC
  5
218
330
74
100
AcDbEntity
  8
1
100
AcDbCircle
 10
-644.91873
 20
-315.2073759999999
 30
0.0
 40
15.0
100
AcDbArc
 50
90.0
 51
180.0
  0
ARC
  5
219
330
74
100
AcDbEntity
  8
1
100
AcDbCircle
 10
-644.91873
 20
-545.2073759999999
 30
0.0
 40
15.0
100
AcDbArc
 50
180.0
 51
270.0
  0
LINE
  5
21A
330
74
100
AcDbEntity
  8
1
100
AcDbLine
 10
-769.441167
 20
-300.207376
 30
0.0
 11
-791.8968639999999
 21
-300.207376
 31
0.0
  0
LINE
  5
21B
330
74
100
AcDbEntity
  8
1
100
AcDbLine
 10
-769.441167
 20
-560.2073759999999
 30
0.0
 11
-791.8968639999999
 21
-560.2073759999999
 31
0.0
  0
ARC
  5
21C
330
74
100
AcDbEntity
  8
1
100
AcDbCircle
 10
-791.8968639999999
 20
-315.2073759999999
 30
0.0
 40
15.0
100
AcDbArc
 50
90.0
 51
125.917827
  0
ARC
  5
21D
330
74
100
AcDbEntity
  8
1
100
AcDbCircle
 10
-791.8968639999999
 20
-545.2073759999999
 30
0.0
 40
15.0
100
AcDbArc
 50
234.082173
 51
270.0
  0
ARC
  5
21E
330
74
100
AcDbEntity
  8
1
100
AcDbCircle
 10
-769.441167
 20
-315.2073759999999
 30
0.0
 40
15.0
100
AcDbArc
 50
0.0
 51
90.0
  0
ARC
  5
21F
330
74
100
AcDbEntity
  8
1
100
AcDbCircle
 10
-769.441167
 20
-545.2073759999999
 30
0.0
 40
15.0
100
AcDbArc
 50
270.0
 51
0.0
  0
ARC
  5
220
330
74
100
AcDbEntity
  8
1
100
AcDbCircle
 10
-708.648592
 20
-429.6308699999999
 30
0.0
 40
196.246494
100
AcDbArc
 50
105.560816
 51
160.805661
  0
ARC
  5
221
330
74
100
AcDbEntity
  8
1
100
AcDbCircle
 10
-705.7885759999999
 20
-147.949774
 30
0.0
 40
89.537533
100
AcDbArc
 50
232.893534
 51
270.0
  0
ARC
  5
222
330
74
100
AcDbEntity
  8
1
100
AcDbCircle
 10
-705.7885759999999
 20
-164.787433
 30
0.0
 40
72.69987399999999
100
AcDbArc
 50
270.0
 51
311.355931
  0
ARC
  5
223
330
74
100
AcDbEntity
  8
1
100
AcDbCircle
 10
-510.7499629999999
 20
-399.506485
 30
0.0
 40
2.0
100
AcDbArc
 50
5.484612999999999
 51
101.03029
  0
ARC
  5
224
330
74
100
AcDbEntity
  8
1
100
AcDbCircle
 10
-521.4353459999999
 20
-401.5893759999999
 30
0.0
 40
2.0
100
AcDbArc
 50
101.03029
 51
185.484613
  0
ARC
  5
225
330
74
100
AcDbEntity
  8
1
100
AcDbCircle
 10
-519.503656
 20
-421.7073759999999
 30
0.0
 40
2.0
100
AcDbArc
 50
185.484613
 51
270.0
  0
ARC
  5
226
330
74
100
AcDbEntity
  8
1
100
AcDbCircle
 10
-508.6182769999999
 20
-421.7073759999999
 30
0.0
 40
2.0
100
AcDbArc
 50
270.0
 51
5.484612999999999
  0
ARC
  5
227
330
74
100
AcDbEntity
  8
1
100
AcDbCircle
 10
-524.670443
 20
-384.901387
 30
0.0
 40
2.0
100
AcDbArc
 50
196.45607
 51
281.03029
  0
ARC
  5
228
330
74
100
AcDbEntity
  8
1
100
AcDbCircle
 10
-513.984267
 20
-382.818341
 30
0.0
 40
2.0
100
AcDbArc
 50
281.03029
 51
16.45607
  0
ARC
  5
229
330
74
100
AcDbEntity
  8
1
100
AcDbCircle
 10
-520.300789
 20
-361.433926
 30
0.0
 40
2.0
100
AcDbArc
 50
16.45607
 51
112.056153
  0
ARC
  5
22A
330
74
100
AcDbEntity
  8
1
100
AcDbCircle
 10
-530.3942849999999
 20
-365.523474
 30
0.0
 40
2.0
100
AcDbArc
 50
112.056153
 51
196.45607
  0
ARC
  5
22B
330
74
100
AcDbEntity
  8
1
100
AcDbCircle
 10
-526.651073
 20
-345.670048
 30
0.0
 40
2.0
100
AcDbArc
 50
292.056153
 51
27.433904
  0
ARC
  5
22C
330
74
100
AcDbEntity
  8
1
100
AcDbCircle
 10
-536.745958
 20
-349.760159
 30
0.0
 40
2.0
100
AcDbArc
 50
207.433904
 51
292.056153
  0
ARC
  5
22D
330
74
100
AcDbEntity
  8
1
100
AcDbCircle
 10
-555.286411
 20
-317.575282
 30
0.0
 40
2.0
100
AcDbArc
 50
218.421341
 51
303.073814
  0
ARC
  5
22E
330
74
100
AcDbEntity
  8
1
100
AcDbCircle
 10
-546.153578
 20
-311.627609
 30
0.0
 40
2.0
100
AcDbArc
 50
303.073814
 51
38.421341
  0
ARC
  5
22F
330
74
100
AcDbEntity
  8
1
100
AcDbCircle
 10
-536.919783
 20
-325.888358
 30
0.0
 40
2.0
100
AcDbArc
 50
27.433904
 51
123.073814
  0
ARC
  5
230
330
74
100
AcDbEntity
  8
1
100
AcDbCircle
 10
-546.050962
 20
-331.834955
 30
0.0
 40
2.0
100
AcDbArc
 50
123.073814
 51
207.433904
  0
ARC
  5
231
330
74
100
AcDbEntity
  8
1
100
AcDbCircle
 10
-567.829795
 20
-301.761572
 30
0.0
 40
2.0
100
AcDbArc
 50
134.080708
 51
218.421341
  0
ARC
  5
232
330
74
100
AcDbEntity
  8
1
100
AcDbCircle
 10
-559.996434
 20
-294.175629
 30
0.0
 40
2.0
100
AcDbArc
 50
38.421341
 51
134.080708
  0
ARC
  5
233
330
74
100
AcDbEntity
  8
1
100
AcDbCircle
 10
-579.610299
 20
-289.529625
 30
0.0
 40
2.0
100
AcDbArc
 50
229.420223
 51
314.080708
  0
ARC
  5
234
330
74
100
AcDbEntity
  8
1
100
AcDbCircle
 10
-571.775386
 20
-281.942179
 30
0.0
 40
2.0
100
AcDbArc
 50
314.080708
 51
49.420223
  0
ARC
  5
235
330
74
100
AcDbEntity
  8
1
100
AcDbCircle
 10
-602.577575
 20
-257.708485
 30
0.0
 40
2.0
100
AcDbArc
 50
325.075847
 51
60.54409
  0
ARC
  5
236
330
74
100
AcDbEntity
  8
1
100
AcDbCircle
 10
-608.823524
 20
-266.653804
 30
0.0
 40
2.0
100
AcDbArc
 50
240.43073
 51
325.075847
  0
ARC
  5
237
330
74
100
AcDbEntity
  8
1
100
AcDbCircle
 10
-622.0186719999999
 20
-246.728982
 30
0.0
 40
2.0
100
AcDbArc
 50
60.54409
 51
156.436925
  0
ARC
  5
238
330
74
100
AcDbEntity
  8
1
100
AcDbCircle
 10
-626.3672599999999
 20
-256.700017
 30
0.0
 40
2.0
100
AcDbArc
 50
156.436925
 51
240.43073
  0
ARC
  5
239
330
74
100
AcDbEntity
  8
1
100
AcDbCircle
 10
-594.9303639999999
 20
-276.408118
 30
0.0
 40
2.0
100
AcDbArc
 50
145.075847
 51
229.420223
  0
ARC
  5
23A
330
74
100
AcDbEntity
  8
1
100
AcDbCircle
 10
-588.683078
 20
-267.460883
 30
0.0
 40
2.0
100
AcDbArc
 50
49.420223
 51
145.075847
  0
ARC
  5
23B
330
74
100
AcDbEntity
  8
1
100
AcDbCircle
 10
-633.281417
 20
-240.340894
 30
0.0
 40
2.0
100
AcDbArc
 50
102.645913
 51
156.059955
  0
ARC
  5
23C
330
74
100
AcDbEntity
  8
1
100
AcDbCircle
 10
-637.750765
 20
-252.871936
 30
0.0
 40
3.0
100
AcDbArc
 50
156.059955
 51
181.0974209999999
  0
ARC
  5
23D
330
74
100
AcDbEntity
  8
1
100
AcDbCircle
 10
-503.284625
 20
-393.582466
 30
0.0
 40
2.0
100
AcDbArc
 50
284.5285350000001
 51
9.99892
  0
ARC
  5
23E
330
74
100
AcDbEntity
  8
1
100
AcDbCircle
 10
-504.5363389999999
 20
-387.081257
 30
0.0
 40
2.0
100
AcDbArc
 50
11.797318
 51
84.13049599999999
  0
ARC
  5
23F
330
74
100
AcDbEntity
  8
1
100
AcDbCircle
 10
-500.106899
 20
-426.8834179999999
 30
0.0
 40
2.0
100
AcDbArc
 50
0.902908
 51
79.72881
  0
ARC
  5
240
330
74
100
AcDbEntity
  8
1
100
AcDbCircle
 10
-531.296424
 20
-426.968096
 30
0.0
 40
2.0
100
AcDbArc
 50
97.11511299999999
 51
181.035587
  0
ARC
  5
241
330
74
100
AcDbEntity
  8
1
100
AcDbCircle
 10
-533.9273229999999
 20
-399.442393
 30
0.0
 40
2.0
100
AcDbArc
 50
189.883873
 51
278.206656
  0
ARC
  5
242
330
74
100
AcDbEntity
  8
1
100
AcDbCircle
 10
-535.1508259999999
 20
-393.098724
 30
0.0
 40
2.0
100
AcDbArc
 50
112.307891
 51
191.949298
  0
ARC
  5
243
330
74
100
AcDbEntity
  8
1
100
AcDbCircle
 10
-516.3993709999999
 20
-348.892378
 30
0.0
 40
2.0
100
AcDbArc
 50
22.744512
 51
88.51828199999999
  0
ARC
  5
244
330
74
100
AcDbEntity
  8
1
100
AcDbCircle
 10
-513.9668329999999
 20
-354.959637
 30
0.0
 40
2.0
100
AcDbArc
 50
288.47095
 51
20.950009
  0
ARC
  5
245
330
74
100
AcDbEntity
  8
1
100
AcDbCircle
 10
-542.9551259999999
 20
-366.568268
 30
0.0
 40
2.0
100
AcDbArc
 50
200.857362
 51
293.469448
  0
ARC
  5
246
330
74
100
AcDbEntity
  8
1
100
AcDbCircle
 10
-545.345932
 20
-360.618954
 30
0.0
 40
2.0
100
AcDbArc
 50
127.173676
 51
202.929323
  0
ARC
  5
247
330
74
100
AcDbEntity
  8
1
100
AcDbCircle
 10
-558.0810799999999
 20
-336.054856
 30
0.0
 40
2.0
100
AcDbArc
 50
211.879241
 51
308.368213
  0
ARC
  5
248
330
74
100
AcDbEntity
  8
1
100
AcDbCircle
 10
-561.5255639999999
 20
-330.7312589999999
 30
0.0
 40
2.0
100
AcDbArc
 50
141.428581
 51
213.928262
  0
ARC
  5
249
330
74
100
AcDbEntity
  8
1
100
AcDbCircle
 10
-535.281384
 20
-313.724339
 30
0.0
 40
2.0
100
AcDbArc
 50
33.718931
 51
92.762568
  0
ARC
  5
24A
330
74
100
AcDbEntity
  8
1
100
AcDbCircle
 10
-531.816182
 20
-319.092658
 30
0.0
 40
2.0
100
AcDbArc
 50
292.02406
 51
31.964834
  0
ARC
  5
24B
330
74
100
AcDbEntity
  8
1
100
AcDbCircle
 10
-578.720978
 20
-309.039955
 30
0.0
 40
2.0
100
AcDbArc
 50
222.881788
 51
322.6783549999999
  0
ARC
  5
24C
330
74
100
AcDbEntity
  8
1
100
AcDbCircle
 10
-583.0562099999999
 20
-304.533742
 30
0.0
 40
2.0
100
AcDbArc
 50
155.001201
 51
224.902454
  0
ARC
  5
24D
330
74
100
AcDbEntity
  8
1
100
AcDbCircle
 10
-556.1784929999999
 20
-287.308653
 30
0.0
 40
2.0
100
AcDbArc
 50
294.978534
 51
42.97520399999999
  0
ARC
  5
24E
330
74
100
AcDbEntity
  8
1
100
AcDbCircle
 10
-560.8020179999999
 20
-283.92503
 30
0.0
 40
3.0
100
AcDbArc
 50
44.527634
 51
96.749553
  0
ARC
  5
24F
330
74
100
AcDbEntity
  8
1
100
AcDbCircle
 10
-591.037381
 20
-258.537404
 30
0.0
 40
3.0
100
AcDbArc
 50
55.434248
 51
100.236011
  0
ARC
  5
250
330
74
100
AcDbEntity
  8
1
100
AcDbCircle
 10
-607.9625019999999
 20
-282.533392
 30
0.0
 40
3.0
100
AcDbArc
 50
168.049458
 51
235.621329
  0
ARC
  5
251
330
74
100
AcDbEntity
  8
1
100
AcDbCircle
 10
-604.0556239999999
 20
-286.520468
 30
0.0
 40
2.0
100
AcDbArc
 50
233.851637
 51
336.41606
  0
ARC
  5
252
330
74
100
AcDbEntity
  8
1
100
AcDbCircle
 10
-585.18078
 20
-260.86035
 30
0.0
 40
1.5
100
AcDbArc
 50
296.858205
 51
53.752323
  0
ARC
  5
253
330
74
100
AcDbEntity
  8
1
100
AcDbCircle
 10
-633.039001
 20
-269.3152
 30
0.0
 40
2.0
100
AcDbArc
 50
244.759474
 51
349.938135
  0
ARC
  5
254
330
74
100
AcDbEntity
  8
1
100
AcDbCircle
 10
-637.495495
 20
-266.197823
 30
0.0
 40
3.0
100
AcDbArc
 50
181.0974209999999
 51
246.4821220000001
  0
ARC
  5
255
330
74
100
AcDbEntity
  8
1
100
AcDbCircle
 10
-619.412323
 20
-240.467705
 30
0.0
 40
1.5
100
AcDbArc
 50
296.302331
 51
64.680903
  0
ARC
  5
256
330
74
100
AcDbEntity
  8
1
100
AcDbCircle
 10
-625.28834
 20
-241.622087
 30
0.0
 40
5.0
100
AcDbArc
 50
66.022894
 51
102.645913
  0
ARC
  5
257
330
74
100
AcDbEntity
  8
1
100
AcDbCircle
 10
-620.6538619999999
 20
-246.101072
 30
0.0
 40
3.0
100
AcDbArc
 50
116.302331
 51
156.436925
  0
ARC
  5
258
330
74
100
AcDbEntity
  8
1
100
AcDbCircle
 10
-587.030875
 20
-266.841384
 30
0.0
 40
3.0
100
AcDbArc
 50
116.858205
 51
145.075847
  0
ARC
  5
259
330
74
100
AcDbEntity
  8
1
100
AcDbCircle
 10
-708.648592
 20
-429.6308699999999
 30
0.0
 40
196.246494
100
AcDbArc
 50
65.18426600000001
 51
66.898416
  0
ARC
  5
25A
330
74
100
AcDbEntity
  8
1
100
AcDbCircle
 10
-708.648592
 20
-429.6308699999999
 30
0.0
 40
196.246494
100
AcDbArc
 50
54.048084
 51
56.076954
  0
ARC
  5
25B
330
74
100
AcDbEntity
  8
1
100
AcDbCircle
 10
-708.648592
 20
-429.6308699999999
 30
0.0
 40
196.246494
100
AcDbArc
 50
42.881465
 51
45.167105
  0
ARC
  5
25C
330
74
100
AcDbEntity
  8
1
100
AcDbCircle
 10
-708.648592
 20
-429.6308699999999
 30
0.0
 40
196.246494
100
AcDbArc
 50
20.44392
 51
23.254511
  0
ARC
  5
25D
330
74
100
AcDbEntity
  8
1
100
AcDbCircle
 10
-708.648592
 20
-429.6308699999999
 30
0.0
 40
196.246494
100
AcDbArc
 50
31.677311
 51
34.220382
  0
ARC
  5
25E
330
74
100
AcDbEntity
  8
1
100
AcDbCircle
 10
-710.304619
 20
-430.2073759999999
 30
0.0
 40
198.0
100
AcDbArc
 50
358.552983
 51
1.447016999999999
  0
ARC
  5
25F
330
74
100
AcDbEntity
  8
1
100
AcDbCircle
 10
-710.304619
 20
-430.2073759999999
 30
0.0
 40
198.0
100
AcDbArc
 50
9.444402
 51
12.337369
  0
ARC
  5
260
330
74
100
AcDbEntity
  8
1
100
AcDbCircle
 10
-708.648592
 20
-429.699207
 30
0.0
 40
180.083831
100
AcDbArc
 50
42.387904
 51
45.334068
  0
ARC
  5
261
330
74
100
AcDbEntity
  8
1
100
AcDbCircle
 10
-708.648592
 20
-429.699207
 30
0.0
 40
180.083831
100
AcDbArc
 50
20.260445
 51
23.403815
  0
ARC
  5
262
330
74
100
AcDbEntity
  8
1
100
AcDbCircle
 10
-708.648592
 20
-429.699207
 30
0.0
 40
180.083831
100
AcDbArc
 50
31.338794
 51
34.377237
  0
ARC
  5
263
330
74
100
AcDbEntity
  8
1
100
AcDbCircle
 10
-710.496149
 20
-430.2073759999999
 30
0.0
 40
182.0
100
AcDbArc
 50
9.303935
 51
12.45115
  0
LINE
  5
264
330
74
100
AcDbEntity
  8
1
100
AcDbLine
 10
-761.2938839999999
 20
-641.057376
 30
0.0
 11
-761.2938839999999
 21
-616.707376
 31
0.0
  0
LINE
  5
265
330
74
100
AcDbEntity
  8
1
100
AcDbLine
 10
-656.4775089999999
 20
-641.0468869999999
 30
0.0
 11
-656.4775089999999
 21
-634.0312199999999
 31
0.0
  0
LINE
  5
266
330
74
100
AcDbEntity
  8
1
100
AcDbLine
 10
-761.2938839999999
 20
-616.707376
 30
0.0
 11
-705.7885759999999
 21
-616.707376
 31
0.0
  0
LINE
  5
267
330
74
100
AcDbEntity
  8
1
100
AcDbLine
 10
-761.2938839999999
 20
-616.707376
 30
0.0
 11
-754.4411669999999
 21
-584.7320859999999
 31
0.0
  0
ARC
  5
268
330
74
100
AcDbEntity
  8
1
100
AcDbCircle
 10
-705.7885759999999
 20
-563.7056089999999
 30
0.0
 40
53.001767
100
AcDbArc
 50
203.372838
 51
270.0
  0
LINE
  5
269
330
74
100
AcDbEntity
  8
1
100
AcDbLine
 10
-590.468837
 20
-560.2073759999999
 30
0.0
 11
-644.91873
 21
-560.2073759999999
 31
0.0
  0
ARC
  5
26A
330
74
100
AcDbEntity
  8
1
100
AcDbCircle
 10
-705.7885759999999
 20
-712.4649779999999
 30
0.0
 40
89.537533
100
AcDbArc
 50
90.0
 51
127.106466
  0
ARC
  5
26B
330
74
100
AcDbEntity
  8
1
100
AcDbCircle
 10
-705.7885759999999
 20
-695.627319
 30
0.0
 40
72.69987399999999
100
AcDbArc
 50
48.644069
 51
90.0
  0
ARC
  5
26C
330
74
100
AcDbEntity
  8
1
100
AcDbCircle
 10
-510.7499629999999
 20
-460.9082669999999
 30
0.0
 40
2.0
100
AcDbArc
 50
258.96971
 51
354.515387
  0
ARC
  5
26D
330
74
100
AcDbEntity
  8
1
100
AcDbCircle
 10
-521.4353459999999
 20
-458.8253759999999
 30
0.0
 40
2.0
100
AcDbArc
 50
174.515387
 51
258.96971
  0
ARC
  5
26E
330
74
100
AcDbEntity
  8
1
100
AcDbCircle
 10
-519.503656
 20
-438.7073759999999
 30
0.0
 40
2.0
100
AcDbArc
 50
90.0
 51
174.515387
  0
ARC
  5
26F
330
74
100
AcDbEntity
  8
1
100
AcDbCircle
 10
-508.6182769999999
 20
-438.7073759999999
 30
0.0
 40
2.0
100
AcDbArc
 50
354.515387
 51
90.0
  0
ARC
  5
270
330
74
100
AcDbEntity
  8
1
100
AcDbCircle
 10
-524.670443
 20
-475.513365
 30
0.0
 40
2.0
100
AcDbArc
 50
78.96970999999999
 51
163.54393
  0
ARC
  5
271
330
74
100
AcDbEntity
  8
1
100
AcDbCircle
 10
-513.984267
 20
-477.5964099999999
 30
0.0
 40
2.0
100
AcDbArc
 50
343.54393
 51
78.96970999999999
  0
ARC
  5
272
330
74
100
AcDbEntity
  8
1
100
AcDbCircle
 10
-520.300789
 20
-498.980826
 30
0.0
 40
2.0
100
AcDbArc
 50
247.943847
 51
343.54393
  0
ARC
  5
273
330
74
100
AcDbEntity
  8
1
100
AcDbCircle
 10
-530.3942849999999
 20
-494.8912779999999
 30
0.0
 40
2.0
100
AcDbArc
 50
163.54393
 51
247.943847
  0
ARC
  5
274
330
74
100
AcDbEntity
  8
1
100
AcDbCircle
 10
-526.651073
 20
-514.7447039999999
 30
0.0
 40
2.0
100
AcDbArc
 50
332.566096
 51
67.94384699999999
  0
ARC
  5
275
330
74
100
AcDbEntity
  8
1
100
AcDbCircle
 10
-536.745958
 20
-510.654593
 30
0.0
 40
2.0
100
AcDbArc
 50
67.94384699999999
 51
152.566096
  0
ARC
  5
276
330
74
100
AcDbEntity
  8
1
100
AcDbCircle
 10
-555.286411
 20
-542.83947
 30
0.0
 40
2.0
100
AcDbArc
 50
56.926186
 51
141.578659
  0
ARC
  5
277
330
74
100
AcDbEntity
  8
1
100
AcDbCircle
 10
-546.153578
 20
-548.787143
 30
0.0
 40
2.0
100
AcDbArc
 50
321.578659
 51
56.926186
  0
ARC
  5
278
330
74
100
AcDbEntity
  8
1
100
AcDbCircle
 10
-536.919783
 20
-534.5263929999999
 30
0.0
 40
2.0
100
AcDbArc
 50
236.9261859999999
 51
332.566096
  0
ARC
  5
279
330
74
100
AcDbEntity
  8
1
100
AcDbCircle
 10
-546.050962
 20
-528.5797969999999
 30
0.0
 40
2.0
100
AcDbArc
 50
152.566096
 51
236.9261859999999
  0
ARC
  5
27A
330
74
100
AcDbEntity
  8
1
100
AcDbCircle
 10
-567.829795
 20
-558.65318
 30
0.0
 40
2.0
100
AcDbArc
 50
141.578659
 51
225.919292
  0
ARC
  5
27B
330
74
100
AcDbEntity
  8
1
100
AcDbCircle
 10
-559.996434
 20
-566.239123
 30
0.0
 40
2.0
100
AcDbArc
 50
225.919292
 51
321.578659
  0
ARC
  5
27C
330
74
100
AcDbEntity
  8
1
100
AcDbCircle
 10
-579.610299
 20
-570.885127
 30
0.0
 40
2.0
100
AcDbArc
 50
45.91929199999999
 51
130.579777
  0
ARC
  5
27D
330
74
100
AcDbEntity
  8
1
100
AcDbCircle
 10
-571.775386
 20
-578.4725729999999
 30
0.0
 40
2.0
100
AcDbArc
 50
310.579777
 51
45.91929199999999
  0
ARC
  5
27E
330
74
100
AcDbEntity
  8
1
100
AcDbCircle
 10
-602.577575
 20
-602.706267
 30
0.0
 40
2.0
100
AcDbArc
 50
299.45591
 51
34.92415300000001
  0
ARC
  5
27F
330
74
100
AcDbEntity
  8
1
100
AcDbCircle
 10
-608.823524
 20
-593.760948
 30
0.0
 40
2.0
100
AcDbArc
 50
34.92415300000001
 51
119.5692699999999
  0
ARC
  5
280
330
74
100
AcDbEntity
  8
1
100
AcDbCircle
 10
-622.0186719999999
 20
-613.68577
 30
0.0
 40
2.0
100
AcDbArc
 50
203.563075
 51
299.45591
  0
ARC
  5
281
330
74
100
AcDbEntity
  8
1
100
AcDbCircle
 10
-626.3672599999999
 20
-603.714734
 30
0.0
 40
2.0
100
AcDbArc
 50
119.5692699999999
 51
203.563075
  0
ARC
  5
282
330
74
100
AcDbEntity
  8
1
100
AcDbCircle
 10
-594.9303639999999
 20
-584.0066339999999
 30
0.0
 40
2.0
100
AcDbArc
 50
130.579777
 51
214.924153
  0
ARC
  5
283
330
74
100
AcDbEntity
  8
1
100
AcDbCircle
 10
-588.683078
 20
-592.9538679999999
 30
0.0
 40
2.0
100
AcDbArc
 50
214.924153
 51
310.579777
  0
ARC
  5
284
330
74
100
AcDbEntity
  8
1
100
AcDbCircle
 10
-633.281417
 20
-620.0738579999999
 30
0.0
 40
2.0
100
AcDbArc
 50
203.940045
 51
257.354087
  0
ARC
  5
285
330
74
100
AcDbEntity
  8
1
100
AcDbCircle
 10
-637.750765
 20
-607.542816
 30
0.0
 40
3.0
100
AcDbArc
 50
178.902579
 51
203.940045
  0
ARC
  5
286
330
74
100
AcDbEntity
  8
1
100
AcDbCircle
 10
-503.284625
 20
-466.8322859999999
 30
0.0
 40
2.0
100
AcDbArc
 50
350.00108
 51
75.47146500000001
  0
ARC
  5
287
330
74
100
AcDbEntity
  8
1
100
AcDbCircle
 10
-504.5363389999999
 20
-473.333494
 30
0.0
 40
2.0
100
AcDbArc
 50
275.869504
 51
348.202682
  0
ARC
  5
288
330
74
100
AcDbEntity
  8
1
100
AcDbCircle
 10
-500.106899
 20
-433.5313329999999
 30
0.0
 40
2.0
100
AcDbArc
 50
280.27119
 51
359.097092
  0
ARC
  5
289
330
74
100
AcDbEntity
  8
1
100
AcDbCircle
 10
-531.296424
 20
-433.446655
 30
0.0
 40
2.0
100
AcDbArc
 50
178.964413
 51
262.884887
  0
ARC
  5
28A
330
74
100
AcDbEntity
  8
1
100
AcDbCircle
 10
-533.9273229999999
 20
-460.9723589999999
 30
0.0
 40
2.0
100
AcDbArc
 50
81.793344
 51
170.116127
  0
ARC
  5
28B
330
74
100
AcDbEntity
  8
1
100
AcDbCircle
 10
-535.1508259999999
 20
-467.3160269999999
 30
0.0
 40
2.0
100
AcDbArc
 50
168.050702
 51
247.692109
  0
ARC
  5
28C
330
74
100
AcDbEntity
  8
1
100
AcDbCircle
 10
-516.3993709999999
 20
-511.522374
 30
0.0
 40
2.0
100
AcDbArc
 50
271.481718
 51
337.255488
  0
ARC
  5
28D
330
74
100
AcDbEntity
  8
1
100
AcDbCircle
 10
-513.9668329999999
 20
-505.455115
 30
0.0
 40
2.0
100
AcDbArc
 50
339.049991
 51
71.52905
  0
ARC
  5
28E
330
74
100
AcDbEntity
  8
1
100
AcDbCircle
 10
-542.9551259999999
 20
-493.846483
 30
0.0
 40
2.0
100
AcDbArc
 50
66.530552
 51
159.1426379999999
  0
ARC
  5
28F
330
74
100
AcDbEntity
  8
1
100
AcDbCircle
 10
-545.345932
 20
-499.7957969999999
 30
0.0
 40
2.0
100
AcDbArc
 50
157.070677
 51
232.826324
  0
ARC
  5
290
330
74
100
AcDbEntity
  8
1
100
AcDbCircle
 10
-558.0810799999999
 20
-524.359896
 30
0.0
 40
2.0
100
AcDbArc
 50
51.631787
 51
148.120759
  0
ARC
  5
291
330
74
100
AcDbEntity
  8
1
100
AcDbCircle
 10
-561.5255639999999
 20
-529.683493
 30
0.0
 40
2.0
100
AcDbArc
 50
146.071738
 51
218.571419
  0
ARC
  5
292
330
74
100
AcDbEntity
  8
1
100
AcDbCircle
 10
-535.281384
 20
-546.690413
 30
0.0
 40
2.0
100
AcDbArc
 50
267.2374319999999
 51
326.281069
  0
ARC
  5
293
330
74
100
AcDbEntity
  8
1
100
AcDbCircle
 10
-531.816182
 20
-541.322093
 30
0.0
 40
2.0
100
AcDbArc
 50
328.035166
 51
67.97594000000001
  0
ARC
  5
294
330
74
100
AcDbEntity
  8
1
100
AcDbCircle
 10
-578.720978
 20
-551.3747969999999
 30
0.0
 40
2.0
100
AcDbArc
 50
37.321645
 51
137.118212
  0
ARC
  5
295
330
74
100
AcDbEntity
  8
1
100
AcDbCircle
 10
-583.0562099999999
 20
-555.8810099999999
 30
0.0
 40
2.0
100
AcDbArc
 50
135.097546
 51
204.998799
  0
ARC
  5
296
330
74
100
AcDbEntity
  8
1
100
AcDbCircle
 10
-556.1784929999999
 20
-573.1060989999999
 30
0.0
 40
2.0
100
AcDbArc
 50
317.024796
 51
65.021466
  0
ARC
  5
297
330
74
100
AcDbEntity
  8
1
100
AcDbCircle
 10
-560.8020179999999
 20
-576.489722
 30
0.0
 40
3.0
100
AcDbArc
 50
263.250447
 51
315.472366
  0
ARC
  5
298
330
74
100
AcDbEntity
  8
1
100
AcDbCircle
 10
-591.037381
 20
-601.8773480000001
 30
0.0
 40
3.0
100
AcDbArc
 50
259.763989
 51
304.565752
  0
ARC
  5
299
330
74
100
AcDbEntity
  8
1
100
AcDbCircle
 10
-607.9625019999999
 20
-577.8813599999999
 30
0.0
 40
3.0
100
AcDbArc
 50
124.378671
 51
191.950542
  0
ARC
  5
29A
330
74
100
AcDbEntity
  8
1
100
AcDbCircle
 10
-604.0556239999999
 20
-573.8942839999999
 30
0.0
 40
2.0
100
AcDbArc
 50
23.58394
 51
126.148363
  0
ARC
  5
29B
330
74
100
AcDbEntity
  8
1
100
AcDbCircle
 10
-585.18078
 20
-599.5544019999999
 30
0.0
 40
1.5
100
AcDbArc
 50
306.247677
 51
63.14179499999998
  0
ARC
  5
29C
330
74
100
AcDbEntity
  8
1
100
AcDbCircle
 10
-633.039001
 20
-591.0995519999999
 30
0.0
 40
2.0
100
AcDbArc
 50
10.061865
 51
115.240526
  0
ARC
  5
29D
330
74
100
AcDbEntity
  8
1
100
AcDbCircle
 10
-637.495495
 20
-594.216928
 30
0.0
 40
3.0
100
AcDbArc
 50
113.517878
 51
178.902579
  0
ARC
  5
29E
330
74
100
AcDbEntity
  8
1
100
AcDbCircle
 10
-619.412323
 20
-619.947047
 30
0.0
 40
1.5
100
AcDbArc
 50
295.319097
 51
63.697669
  0
ARC
  5
29F
330
74
100
AcDbEntity
  8
1
100
AcDbCircle
 10
-625.28834
 20
-618.792665
 30
0.0
 40
5.0
100
AcDbArc
 50
257.354087
 51
293.977106
  0
ARC
  5
2A0
330
74
100
AcDbEntity
  8
1
100
AcDbCircle
 10
-620.6538619999999
 20
-614.3136799999999
 30
0.0
 40
3.0
100
AcDbArc
 50
203.563075
 51
243.697669
  0
ARC
  5
2A1
330
74
100
AcDbEntity
  8
1
100
AcDbCircle
 10
-587.030875
 20
-593.5733679999999
 30
0.0
 40
3.0
100
AcDbArc
 50
214.924153
 51
243.141795
  0
ARC
  5
2A2
330
74
100
AcDbEntity
  8
1
100
AcDbCircle
 10
-708.648592
 20
-430.7838819999999
 30
0.0
 40
196.246494
100
AcDbArc
 50
293.101584
 51
294.815734
  0
ARC
  5
2A3
330
74
100
AcDbEntity
  8
1
100
AcDbCircle
 10
-708.648592
 20
-430.7838819999999
 30
0.0
 40
196.246494
100
AcDbArc
 50
303.923046
 51
305.9519160000001
  0
ARC
  5
2A4
330
74
100
AcDbEntity
  8
1
100
AcDbCircle
 10
-708.648592
 20
-430.7838819999999
 30
0.0
 40
196.246494
100
AcDbArc
 50
314.832895
 51
317.118535
  0
ARC
  5
2A5
330
74
100
AcDbEntity
  8
1
100
AcDbCircle
 10
-708.648592
 20
-430.7838819999999
 30
0.0
 40
196.246494
100
AcDbArc
 50
336.745489
 51
339.55608
  0
ARC
  5
2A6
330
74
100
AcDbEntity
  8
1
100
AcDbCircle
 10
-708.648592
 20
-430.7838819999999
 30
0.0
 40
196.246494
100
AcDbArc
 50
325.779618
 51
328.322689
  0
ARC
  5
2A7
330
74
100
AcDbEntity
  8
1
100
AcDbCircle
 10
-710.304619
 20
-430.2073759999999
 30
0.0
 40
198.0
100
AcDbArc
 50
347.662631
 51
350.555598
  0
ARC
  5
2A8
330
74
100
AcDbEntity
  8
1
100
AcDbCircle
 10
-708.648592
 20
-430.715545
 30
0.0
 40
180.083831
100
AcDbArc
 50
314.665932
 51
317.612096
  0
ARC
  5
2A9
330
74
100
AcDbEntity
  8
1
100
AcDbCircle
 10
-708.648592
 20
-430.715545
 30
0.0
 40
180.083831
100
AcDbArc
 50
336.596185
 51
339.739555
  0
ARC
  5
2AA
330
74
100
AcDbEntity
  8
1
100
AcDbCircle
 10
-708.648592
 20
-430.715545
 30
0.0
 40
180.083831
100
AcDbArc
 50
325.622763
 51
328.661206
  0
ARC
  5
2AB
330
74
100
AcDbEntity
  8
1
100
AcDbCircle
 10
-710.496149
 20
-430.2073759999999
 30
0.0
 40
182.0
100
AcDbArc
 50
358.425742
 51
1.574258
  0
ARC
  5
2AC
330
74
100
AcDbEntity
  8
1
100
AcDbCircle
 10
-710.496149
 20
-430.2073759999999
 30
0.0
 40
182.0
100
AcDbArc
 50
347.54885
 51
350.696065
  0
LINE
  5
2AD
330
74
100
AcDbEntity
  8
1
100
AcDbLine
 10
-539.216544
 20
-417.7073759999999
 30
0.0
 11
-539.216544
 21
-442.7073759999999
 31
0.0
  0
LINE
  5
2AE
330
74
100
AcDbEntity
  8
1
100
AcDbLine
 10
-693.161649
 20
-417.7073759999999
 30
0.0
 11
-693.161649
 21
-442.7073759999999
 31
0.0
  0
LINE
  5
2AF
330
74
100
AcDbEntity
  8
1
100
AcDbLine
 10
-688.1616489999999
 20
-417.7073759999999
 30
0.0
 11
-544.216544
 21
-417.7073759999999
 31
0.0
  0
LINE
  5
2B0
330
74
100
AcDbEntity
  8
1
100
AcDbLine
 10
-688.1616489999999
 20
-442.7073759999999
 30
0.0
 11
-544.216544
 21
-442.7073759999999
 31
0.0
  0
LINE
  5
2B1
330
74
100
AcDbEntity
  8
1
100
AcDbLine
 10
-546.270304
 20
-417.5612769999999
 30
0.0
 11
-659.9187299999999
 21
-415.2073759999999
 31
0.0
  0
LINE
  5
2B2
330
74
100
AcDbEntity
  8
1
100
AcDbLine
 10
-659.9187299999999
 20
-415.2073759999999
 30
0.0
 11
-688.179874
 21
-417.3327269999999
 31
0.0
  0
LINE
  5
2B3
330
74
100
AcDbEntity
  8
1
100
AcDbLine
 10
-688.2044409999999
 20
-443.080178
 30
0.0
 11
-659.9187299999999
 21
-445.2073759999999
 31
0.0
  0
LINE
  5
2B4
330
74
100
AcDbEntity
  8
1
100
AcDbLine
 10
-659.9187299999999
 20
-445.2073759999999
 30
0.0
 11
-544.358778
 21
-442.813883
 31
0.0
  0
LINE
  5
2B5
330
74
100
AcDbEntity
  8
1
100
AcDbLine
 10
-659.9187299999999
 20
-577.2228539999999
 30
0.0
 11
-659.9187299999999
 21
-474.592446
 31
0.0
  0
LINE
  5
2B6
330
74
100
AcDbEntity
  8
1
100
AcDbLine
 10
-659.9187299999999
 20
-385.822306
 30
0.0
 11
-659.9187299999999
 21
-283.191898
 31
0.0
  0
ARC
  5
2B7
330
74
100
AcDbEntity
  8
1
100
AcDbCircle
 10
-544.216544
 20
-412.707376
 30
0.0
 40
5.0
100
AcDbArc
 50
270.0
 51
0.0
  0
ARC
  5
2B8
330
74
100
AcDbEntity
  8
1
100
AcDbCircle
 10
-544.216544
 20
-447.7073759999999
 30
0.0
 40
5.0
100
AcDbArc
 50
0.0
 51
90.0
  0
ARC
  5
2B9
330
74
100
AcDbEntity
  8
1
100
AcDbCircle
 10
-688.1616489999999
 20
-412.707376
 30
0.0
 40
5.0
100
AcDbArc
 50
180.0
 51
270.0
  0
ARC
  5
2BA
330
74
100
AcDbEntity
  8
1
100
AcDbCircle
 10
-688.1616489999999
 20
-447.7073759999999
 30
0.0
 40
5.0
100
AcDbArc
 50
90.0
 51
180.0
  0
ARC
  5
2BB
330
74
100
AcDbEntity
  8
1
100
AcDbCircle
 10
-629.9187299999999
 20
-385.822306
 30
0.0
 40
30.0
100
AcDbArc
 50
180.0
 51
268.813452
  0
ARC
  5
2BC
330
74
100
AcDbEntity
  8
1
100
AcDbCircle
 10
-629.9187299999999
 20
-474.592446
 30
0.0
 40
30.0
100
AcDbArc
 50
91.18654800000001
 51
180.0
  0
LINE
  5
2BD
330
74
100
AcDbEntity
  8
1
100
AcDbLine
 10
-716.331907
 20
-417.7073759999999
 30
0.0
 11
-716.331907
 21
-442.7073759999999
 31
0.0
  0
LINE
  5
2BE
330
74
100
AcDbEntity
  8
1
100
AcDbLine
 10
-899.1975339999999
 20
-417.7073759999999
 30
0.0
 11
-721.3319069999999
 21
-417.7073759999999
 31
0.0
  0
LINE
  5
2BF
330
74
100
AcDbEntity
  8
1
100
AcDbLine
 10
-899.1975339999999
 20
-442.7073759999999
 30
0.0
 11
-721.3319069999999
 21
-442.7073759999999
 31
0.0
  0
LINE
  5
2C0
330
74
100
AcDbEntity
  8
1
100
AcDbLine
 10
-754.4411669999999
 20
-415.2073759999999
 30
0.0
 11
-722.475774
 21
-417.3043329999999
 31
0.0
  0
LINE
  5
2C1
330
74
100
AcDbEntity
  8
1
100
AcDbLine
 10
-754.4411669999999
 20
-445.2073759999999
 30
0.0
 11
-722.140971
 21
-443.088455
 31
0.0
  0
LINE
  5
2C2
330
74
100
AcDbEntity
  8
1
100
AcDbLine
 10
-754.4411669999999
 20
-445.2073759999999
 30
0.0
 11
-897.472214
 21
-442.826009
 31
0.0
  0
LINE
  5
2C3
330
74
100
AcDbEntity
  8
1
100
AcDbLine
 10
-897.181641
 20
-417.5839049999999
 30
0.0
 11
-754.4411669999999
 21
-415.2073759999999
 31
0.0
  0
ARC
  5
2C4
330
74
100
AcDbEntity
  8
1
100
AcDbCircle
 10
-721.3319069999999
 20
-412.707376
 30
0.0
 40
5.0
100
AcDbArc
 50
270.0
 51
0.0
  0
ARC
  5
2C5
330
74
100
AcDbEntity
  8
1
100
AcDbCircle
 10
-721.3319069999999
 20
-447.7073759999999
 30
0.0
 40
5.0
100
AcDbArc
 50
0.0
 51
90.0
  0
ARC
  5
2C6
330
74
100
AcDbEntity
  8
1
100
AcDbCircle
 10
-899.1975339999999
 20
-447.7073759999999
 30
0.0
 40
5.0
100
AcDbArc
 50
90.0
 51
185.202359
  0
ARC
  5
2C7
330
74
100
AcDbEntity
  8
1
100
AcDbCircle
 10
-899.1975339999999
 20
-412.707376
 30
0.0
 40
5.0
100
AcDbArc
 50
174.797641
 51
270.0
  0
LINE
  5
2C8
330
74
100
AcDbEntity
  8
1
100
AcDbLine
 10
-754.4411669999999
 20
-584.7320859999999
 30
0.0
 11
-754.4411669999999
 21
-474.7120549999999
 31
0.0
  0
LINE
  5
2C9
330
74
100
AcDbEntity
  8
1
100
AcDbLine
 10
-754.4411669999999
 20
-385.702697
 30
0.0
 11
-754.4411669999999
 21
-275.6826660000001
 31
0.0
  0
ARC
  5
2CA
330
74
100
AcDbEntity
  8
1
100
AcDbCircle
 10
-708.5962030000001
 20
-430.2073759999999
 30
0.0
 40
157.0
100
AcDbArc
 50
125.917827
 51
168.442821
  0
ARC
  5
2CB
330
74
100
AcDbEntity
  8
1
100
AcDbCircle
 10
-708.5962030000001
 20
-430.2073759999999
 30
0.0
 40
157.0
100
AcDbArc
 50
191.557179
 51
234.082173
  0
ARC
  5
2CC
330
74
100
AcDbEntity
  8
1
100
AcDbCircle
 10
-847.71719
 20
-401.7582779999999
 30
0.0
 40
15.0
100
AcDbArc
 50
168.442821
 51
270.953847
  0
ARC
  5
2CD
330
74
100
AcDbEntity
  8
1
100
AcDbCircle
 10
-847.71719
 20
-458.656474
 30
0.0
 40
15.0
100
AcDbArc
 50
89.04615300000001
 51
191.557179
  0
ARC
  5
2CE
330
74
100
AcDbEntity
  8
1
100
AcDbCircle
 10
-784.4411669999999
 20
-474.7120549999999
 30
0.0
 40
30.0
100
AcDbArc
 50
0.0
 51
89.04615300000001
  0
ARC
  5
2CF
330
74
100
AcDbEntity
  8
1
100
AcDbCircle
 10
-784.4411669999999
 20
-385.702697
 30
0.0
 40
30.0
100
AcDbArc
 50
270.953847
 51
0.0
  0
LINE
  5
2D0
330
74
100
AcDbEntity
  8
1
100
AcDbLine
 10
-695.076004
 20
-270.207376
 30
0.0
 11
-695.076004
 21
-324.207376
 31
0.0
  0
LINE
  5
2D1
330
74
100
AcDbEntity
  8
1
100
AcDbLine
 10
-730.974669
 20
-270.207376
 30
0.0
 11
-730.974669
 21
-324.207376
 31
0.0
  0
ARC
  5
2D2
330
74
100
AcDbEntity
  8
1
100
AcDbCircle
 10
-713.025337
 20
-270.207376
 30
0.0
 40
17.949332
100
AcDbArc
 50
0.0
 51
180.0
  0
ARC
  5
2D3
330
74
100
AcDbEntity
  8
1
100
AcDbCircle
 10
-713.025337
 20
-324.207376
 30
0.0
 40
17.949332
100
AcDbArc
 50
180.0
 51
0.0
  0
LINE
  5
2D4
330
74
100
AcDbEntity
  8
1
100
AcDbLine
 10
-694.824647
 20
-270.458733
 30
0.0
 11
-694.824647
 21
-323.956018
 31
0.0
  0
ARC
  5
2D5
330
74
100
AcDbEntity
  8
1
100
AcDbCircle
 10
-713.025337
 20
-270.458733
 30
0.0
 40
18.20069
100
AcDbArc
 50
0.0
 51
90.0
  0
ARC
  5
2D6
330
74
100
AcDbEntity
  8
1
100
AcDbCircle
 10
-713.025337
 20
-323.956018
 30
0.0
 40
18.20069
100
AcDbArc
 50
270.0
 51
0.0
  0
LINE
  5
2D7
330
74
100
AcDbEntity
  8
1
100
AcDbLine
 10
-695.076004
 20
-590.2073759999999
 30
0.0
 11
-695.076004
 21
-536.2073759999999
 31
0.0
  0
LINE
  5
2D8
330
74
100
AcDbEntity
  8
1
100
AcDbLine
 10
-730.974669
 20
-590.2073759999999
 30
0.0
 11
-730.974669
 21
-536.2073759999999
 31
0.0
  0
ARC
  5
2D9
330
74
100
AcDbEntity
  8
1
100
AcDbCircle
 10
-713.025337
 20
-590.2073759999999
 30
0.0
 40
17.949332
100
AcDbArc
 50
180.0
 51
0.0
  0
ARC
  5
2DA
330
74
100
AcDbEntity
  8
1
100
AcDbCircle
 10
-713.025337
 20
-536.2073759999999
 30
0.0
 40
17.949332
100
AcDbArc
 50
0.0
 51
180.0
  0
LINE
  5
2DB
330
74
100
AcDbEntity
  8
1
100
AcDbLine
 10
-694.824647
 20
-589.9560179999999
 30
0.0
 11
-694.824647
 21
-536.458733
 31
0.0
  0
ARC
  5
2DC
330
74
100
AcDbEntity
  8
1
100
AcDbCircle
 10
-713.025337
 20
-589.9560179999999
 30
0.0
 40
18.20069
100
AcDbArc
 50
270.0
 51
0.0
  0
ARC
  5
2DD
330
74
100
AcDbEntity
  8
1
100
AcDbCircle
 10
-713.025337
 20
-536.458733
 30
0.0
 40
18.20069
100
AcDbArc
 50
0.0
 51
90.0
  0
CIRCLE
  5
2DE
330
74
100
AcDbEntity
  8
1
100
AcDbCircle
 10
-713.100315
 20
-270.207376
 30
0.0
 40
9.16
  0
CIRCLE
  5
2DF
330
74
100
AcDbEntity
  8
1
100
AcDbCircle
 10
-713.100315
 20
-324.207376
 30
0.0
 40
9.16
  0
ARC
  5
2E0
330
74
100
AcDbEntity
  8
1
100
AcDbCircle
 10
-711.0177079999999
 20
-430.2073759999999
 30
0.0
 40
212.937
100
AcDbArc
 50
1.345493
 51
9.501542
  0
ARC
  5
2E1
330
74
100
AcDbEntity
  8
1
100
AcDbCircle
 10
-711.0177079999999
 20
-430.2073759999999
 30
0.0
 40
212.937
100
AcDbArc
 50
12.191135
 51
16.226108
  0
ARC
  5
2E2
330
74
100
AcDbEntity
  8
1
100
AcDbCircle
 10
-710.496149
 20
-430.2073759999999
 30
0.0
 40
177.229
100
AcDbArc
 50
1.616647999999999
 51
9.256043
  0
ARC
  5
2E3
330
74
100
AcDbEntity
  8
1
100
AcDbCircle
 10
-710.496149
 20
-430.2073759999999
 30
0.0
 40
177.229
100
AcDbArc
 50
12.487943
 51
15.378868
  0
ARC
  5
2E4
330
74
100
AcDbEntity
  8
1
100
AcDbCircle
 10
-708.648592
 20
-429.699207
 30
0.0
 40
175.312831
100
AcDbArc
 50
15.378868
 51
20.17302
  0
ARC
  5
2E5
330
74
100
AcDbEntity
  8
1
100
AcDbCircle
 10
-708.648592
 20
-429.699207
 30
0.0
 40
175.312831
100
AcDbArc
 50
23.437197
 51
31.146488
  0
ARC
  5
2E6
330
74
100
AcDbEntity
  8
1
100
AcDbCircle
 10
-708.8856969999999
 20
-429.586916
 30
0.0
 40
210.71654
100
AcDbArc
 50
16.226108
 51
20.382249
  0
ARC
  5
2E7
330
74
100
AcDbEntity
  8
1
100
AcDbCircle
 10
-708.8856969999999
 20
-429.586916
 30
0.0
 40
210.71654
100
AcDbArc
 50
23.096637
 51
31.318042
  0
ARC
  5
2E8
330
74
100
AcDbEntity
  8
1
100
AcDbCircle
 10
-708.8856969999999
 20
-429.586916
 30
0.0
 40
210.71654
100
AcDbArc
 50
55.771483
 51
63.842427
  0
ARC
  5
2E9
330
74
100
AcDbEntity
  8
1
100
AcDbCircle
 10
-708.8856969999999
 20
-429.586916
 30
0.0
 40
210.71654
100
AcDbArc
 50
34.027382
 51
42.22830799999999
  0
ARC
  5
2EA
330
74
100
AcDbEntity
  8
1
100
AcDbCircle
 10
-708.8856969999999
 20
-429.586916
 30
0.0
 40
210.71654
100
AcDbArc
 50
44.928539
 51
53.09005500000001
  0
ARC
  5
2EB
330
74
100
AcDbEntity
  8
1
100
AcDbCircle
 10
-708.648592
 20
-429.699207
 30
0.0
 40
175.312831
100
AcDbArc
 50
33.928262
 51
42.10467799999999
  0
ARC
  5
2EC
330
74
100
AcDbEntity
  8
1
100
AcDbCircle
 10
-708.648592
 20
-429.699207
 30
0.0
 40
175.312831
100
AcDbArc
 50
45.358639
 51
53.034954
  0
ARC
  5
2ED
330
74
100
AcDbEntity
  8
1
100
AcDbCircle
 10
-708.648592
 20
-429.699207
 30
0.0
 40
175.312831
100
AcDbArc
 50
56.27581300000001
 51
63.90311
  0
ARC
  5
2EE
330
74
100
AcDbEntity
  8
1
100
AcDbCircle
 10
-711.0177079999999
 20
-430.2073759999999
 30
0.0
 40
212.937
100
AcDbArc
 50
350.498458
 51
358.654507
  0
ARC
  5
2EF
330
74
100
AcDbEntity
  8
1
100
AcDbCircle
 10
-711.0177079999999
 20
-430.2073759999999
 30
0.0
 40
212.937
100
AcDbArc
 50
343.773892
 51
347.808865
  0
ARC
  5
2F0
330
74
100
AcDbEntity
  8
1
100
AcDbCircle
 10
-710.496149
 20
-430.2073759999999
 30
0.0
 40
177.229
100
AcDbArc
 50
350.743957
 51
358.383352
  0
ARC
  5
2F1
330
74
100
AcDbEntity
  8
1
100
AcDbCircle
 10
-710.496149
 20
-430.2073759999999
 30
0.0
 40
177.229
100
AcDbArc
 50
344.621132
 51
347.512057
  0
ARC
  5
2F2
330
74
100
AcDbEntity
  8
1
100
AcDbCircle
 10
-708.648592
 20
-430.715545
 30
0.0
 40
175.312831
100
AcDbArc
 50
339.82698
 51
344.621132
  0
ARC
  5
2F3
330
74
100
AcDbEntity
  8
1
100
AcDbCircle
 10
-708.648592
 20
-430.715545
 30
0.0
 40
175.312831
100
AcDbArc
 50
328.853512
 51
336.562803
  0
ARC
  5
2F4
330
74
100
AcDbEntity
  8
1
100
AcDbCircle
 10
-708.8856969999999
 20
-430.827836
 30
0.0
 40
210.71654
100
AcDbArc
 50
339.617751
 51
343.773892
  0
ARC
  5
2F5
330
74
100
AcDbEntity
  8
1
100
AcDbCircle
 10
-708.8856969999999
 20
-430.827836
 30
0.0
 40
210.71654
100
AcDbArc
 50
328.681958
 51
336.903363
  0
ARC
  5
2F6
330
74
100
AcDbEntity
  8
1
100
AcDbCircle
 10
-708.8856969999999
 20
-430.827836
 30
0.0
 40
210.71654
100
AcDbArc
 50
296.157573
 51
304.228517
  0
ARC
  5
2F7
330
74
100
AcDbEntity
  8
1
100
AcDbCircle
 10
-708.8856969999999
 20
-430.827836
 30
0.0
 40
210.71654
100
AcDbArc
 50
317.771692
 51
325.972618
  0
ARC
  5
2F8
330
74
100
AcDbEntity
  8
1
100
AcDbCircle
 10
-708.8856969999999
 20
-430.827836
 30
0.0
 40
210.71654
100
AcDbArc
 50
306.909945
 51
315.071461
  0
ARC
  5
2F9
330
74
100
AcDbEntity
  8
1
100
AcDbCircle
 10
-708.648592
 20
-430.715545
 30
0.0
 40
175.312831
100
AcDbArc
 50
317.895322
 51
326.071738
  0
ARC
  5
2FA
330
74
100
AcDbEntity
  8
1
100
AcDbCircle
 10
-708.648592
 20
-430.715545
 30
0.0
 40
175.312831
100
AcDbArc
 50
306.965046
 51
314.641361
  0
ARC
  5
2FB
330
74
100
AcDbEntity
  8
1
100
AcDbCircle
 10
-708.648592
 20
-430.715545
 30
0.0
 40
175.312831
100
AcDbArc
 50
296.09689
 51
303.724187
  0
LINE
  5
2FC
330
74
100
AcDbEntity
  8
1
100
AcDbLine
 10
-519.503656
 20
-423.7073759999999
 30
0.0
 11
-508.6182769999999
 21
-423.7073759999999
 31
0.0
  0
LINE
  5
2FD
330
74
100
AcDbEntity
  8
1
100
AcDbLine
 10
-531.4659599999999
 20
-425.207376
 30
0.0
 11
-499.7101769999999
 21
-425.207376
 31
0.0
  0
LINE
  5
2FE
330
74
100
AcDbEntity
  8
1
100
AcDbLine
 10
-508.759119
 20
-399.3153279999999
 30
0.0
 11
-506.6274339999999
 21
-421.516219
 31
0.0
  0
LINE
  5
2FF
330
74
100
AcDbEntity
  8
1
100
AcDbLine
 10
-508.9697349999999
 20
-397.121824
 30
0.0
 11
-502.7828999999999
 21
-395.518512
 31
0.0
  0
LINE
  5
300
330
74
100
AcDbEntity
  8
1
100
AcDbLine
 10
-506.4170429999999
 20
-423.7073759999999
 30
0.0
 11
-499.750284
 21
-424.915469
 31
0.0
  0
LINE
  5
301
330
74
100
AcDbEntity
  8
1
100
AcDbLine
 10
-503.591828
 20
-395.728145
 30
0.0
 11
-500.696847
 21
-424.743941
 31
0.0
  0
LINE
  5
302
330
74
100
AcDbEntity
  8
1
100
AcDbLine
 10
-523.4261899999999
 20
-401.7805329999999
 30
0.0
 11
-521.494499
 21
-421.8985329999999
 31
0.0
  0
LINE
  5
303
330
74
100
AcDbEntity
  8
1
100
AcDbLine
 10
-521.818002
 20
-399.626324
 30
0.0
 11
-511.132619
 21
-397.543433
 31
0.0
  0
LINE
  5
304
330
74
100
AcDbEntity
  8
1
100
AcDbLine
 10
-521.3208179999999
 20
-423.7073759999999
 30
0.0
 11
-531.5441499999999
 21
-424.9834980000001
 31
0.0
  0
LINE
  5
305
330
74
100
AcDbEntity
  8
1
100
AcDbLine
 10
-523.5996849999999
 20
-399.973625
 30
0.0
 11
-533.641836
 21
-401.4219119999999
 31
0.0
  0
LINE
  5
306
330
74
100
AcDbEntity
  8
1
100
AcDbLine
 10
-503.3316469999999
 20
-395.500131
 30
0.0
 11
-514.9884499999999
 21
-397.717465
 31
0.0
  0
LINE
  5
307
330
74
100
AcDbEntity
  8
1
100
AcDbLine
 10
-514.9884499999999
 20
-397.717465
 30
0.0
 11
-530.890429
 21
-400.783146
 31
0.0
  0
LINE
  5
308
330
74
100
AcDbEntity
  8
1
100
AcDbLine
 10
-530.890429
 20
-400.783146
 30
0.0
 11
-532.918172
 21
-401.1803259999999
 31
0.0
  0
LINE
  5
309
330
74
100
AcDbEntity
  8
1
100
AcDbLine
 10
-519.503656
 20
-436.7073759999999
 30
0.0
 11
-508.6182769999999
 21
-436.7073759999999
 31
0.0
  0
LINE
  5
30A
330
74
100
AcDbEntity
  8
1
100
AcDbLine
 10
-531.4659599999999
 20
-435.2073759999999
 30
0.0
 11
-499.7101769999999
 21
-435.2073759999999
 31
0.0
  0
LINE
  5
30B
330
74
100
AcDbEntity
  8
1
100
AcDbLine
 10
-508.759119
 20
-461.099424
 30
0.0
 11
-506.6274339999999
 21
-438.8985329999999
 31
0.0
  0
LINE
  5
30C
330
74
100
AcDbEntity
  8
1
100
AcDbLine
 10
-508.9697349999999
 20
-463.2929279999999
 30
0.0
 11
-502.7828999999999
 21
-464.89624
 31
0.0
  0
LINE
  5
30D
330
74
100
AcDbEntity
  8
1
100
AcDbLine
 10
-506.4170429999999
 20
-436.7073759999999
 30
0.0
 11
-499.750284
 21
-435.4992829999999
 31
0.0
  0
LINE
  5
30E
330
74
100
AcDbEntity
  8
1
100
AcDbLine
 10
-503.591828
 20
-464.686607
 30
0.0
 11
-500.696847
 21
-435.670811
 31
0.0
  0
LINE
  5
30F
330
74
100
AcDbEntity
  8
1
100
AcDbLine
 10
-523.4261899999999
 20
-458.634219
 30
0.0
 11
-521.494499
 21
-438.516219
 31
0.0
  0
LINE
  5
310
330
74
100
AcDbEntity
  8
1
100
AcDbLine
 10
-521.818002
 20
-460.788428
 30
0.0
 11
-511.132619
 21
-462.871319
 31
0.0
  0
LINE
  5
311
330
74
100
AcDbEntity
  8
1
100
AcDbLine
 10
-521.3208179999999
 20
-436.7073759999999
 30
0.0
 11
-531.5441499999999
 21
-435.431254
 31
0.0
  0
LINE
  5
312
330
74
100
AcDbEntity
  8
1
100
AcDbLine
 10
-523.5996849999999
 20
-460.441126
 30
0.0
 11
-533.641836
 21
-458.99284
 31
0.0
  0
LINE
  5
313
330
74
100
AcDbEntity
  8
1
100
AcDbLine
 10
-503.3316469999999
 20
-464.914621
 30
0.0
 11
-514.9884499999999
 21
-462.697287
 31
0.0
  0
LINE
  5
314
330
74
100
AcDbEntity
  8
1
100
AcDbLine
 10
-514.9884499999999
 20
-462.697287
 30
0.0
 11
-530.890429
 21
-459.6316059999999
 31
0.0
  0
LINE
  5
315
330
74
100
AcDbEntity
  8
1
100
AcDbLine
 10
-530.890429
 20
-459.6316059999999
 30
0.0
 11
-532.918172
 21
-459.2344259999999
 31
0.0
  0
LINE
  5
316
330
74
100
AcDbEntity
  8
1
100
AcDbLine
 10
-518.382715
 20
-360.867366
 30
0.0
 11
-512.0661919999999
 21
-382.251781
 31
0.0
  0
LINE
  5
317
330
74
100
AcDbEntity
  8
1
100
AcDbLine
 10
-519.007544
 20
-358.752021
 30
0.0
 11
-513.3331860000001
 21
-356.856606
 31
0.0
  0
LINE
  5
318
330
74
100
AcDbEntity
  8
1
100
AcDbLine
 10
-511.443269
 20
-384.36067
 30
0.0
 11
-504.331812
 21
-385.091743
 31
0.0
  0
LINE
  5
319
330
74
100
AcDbEntity
  8
1
100
AcDbLine
 10
-514.073111
 20
-357.103764
 30
0.0
 11
-505.4945469999999
 21
-384.972211
 31
0.0
  0
LINE
  5
31A
330
74
100
AcDbEntity
  8
1
100
AcDbLine
 10
-532.312359
 20
-366.090034
 30
0.0
 11
-526.588517
 21
-385.4679470000001
 31
0.0
  0
LINE
  5
31B
330
74
100
AcDbEntity
  8
1
100
AcDbLine
 10
-524.287787
 20
-386.864439
 30
0.0
 11
-513.601611
 21
-384.781394
 31
0.0
  0
LINE
  5
31C
330
74
100
AcDbEntity
  8
1
100
AcDbLine
 10
-532.826084
 20
-364.350833
 30
0.0
 11
-519.007544
 21
-358.752021
 31
0.0
  0
LINE
  5
31D
330
74
100
AcDbEntity
  8
1
100
AcDbLine
 10
-532.826084
 20
-364.350833
 30
0.0
 11
-542.158606
 21
-368.4028140000001
 31
0.0
  0
LINE
  5
31E
330
74
100
AcDbEntity
  8
1
100
AcDbLine
 10
-526.0732199999999
 20
-387.212472
 30
0.0
 11
-535.909993
 21
-391.248409
 31
0.0
  0
LINE
  5
31F
330
74
100
AcDbEntity
  8
1
100
AcDbLine
 10
-504.645861
 20
-385.575898
 30
0.0
 11
-516.8771469999999
 21
-387.901193
 31
0.0
  0
LINE
  5
320
330
74
100
AcDbEntity
  8
1
100
AcDbLine
 10
-516.8771469999999
 20
-387.901193
 30
0.0
 11
-532.7767549999999
 21
-390.966874
 31
0.0
  0
LINE
  5
321
330
74
100
AcDbEntity
  8
1
100
AcDbLine
 10
-532.7767549999999
 20
-390.966874
 30
0.0
 11
-535.59726
 21
-391.519451
 31
0.0
  0
LINE
  5
322
330
74
100
AcDbEntity
  8
1
100
AcDbLine
 10
-518.382715
 20
-499.547386
 30
0.0
 11
-512.0661919999999
 21
-478.1629709999999
 31
0.0
  0
LINE
  5
323
330
74
100
AcDbEntity
  8
1
100
AcDbLine
 10
-519.007544
 20
-501.6627309999999
 30
0.0
 11
-513.3331860000001
 21
-503.558146
 31
0.0
  0
LINE
  5
324
330
74
100
AcDbEntity
  8
1
100
AcDbLine
 10
-511.443269
 20
-476.0540809999999
 30
0.0
 11
-504.331812
 21
-475.323009
 31
0.0
  0
LINE
  5
325
330
74
100
AcDbEntity
  8
1
100
AcDbLine
 10
-514.073111
 20
-503.310988
 30
0.0
 11
-505.4945469999999
 21
-475.442541
 31
0.0
  0
LINE
  5
326
330
74
100
AcDbEntity
  8
1
100
AcDbLine
 10
-532.312359
 20
-494.3247169999999
 30
0.0
 11
-526.588517
 21
-474.9468049999999
 31
0.0
  0
LINE
  5
327
330
74
100
AcDbEntity
  8
1
100
AcDbLine
 10
-524.287787
 20
-473.550312
 30
0.0
 11
-513.601611
 21
-475.6333579999999
 31
0.0
  0
LINE
  5
328
330
74
100
AcDbEntity
  8
1
100
AcDbLine
 10
-532.826084
 20
-496.0639179999999
 30
0.0
 11
-519.007544
 21
-501.6627309999999
 31
0.0
  0
LINE
  5
329
330
74
100
AcDbEntity
  8
1
100
AcDbLine
 10
-532.826084
 20
-496.0639179999999
 30
0.0
 11
-542.158606
 21
-492.011938
 31
0.0
  0
LINE
  5
32A
330
74
100
AcDbEntity
  8
1
100
AcDbLine
 10
-526.0732199999999
 20
-473.20228
 30
0.0
 11
-535.909993
 21
-469.166342
 31
0.0
  0
LINE
  5
32B
330
74
100
AcDbEntity
  8
1
100
AcDbLine
 10
-504.645861
 20
-474.838854
 30
0.0
 11
-516.8771469999999
 21
-472.5135589999999
 31
0.0
  0
LINE
  5
32C
330
74
100
AcDbEntity
  8
1
100
AcDbLine
 10
-516.8771469999999
 20
-472.5135589999999
 30
0.0
 11
-532.7767549999999
 21
-469.4478779999999
 31
0.0
  0
LINE
  5
32D
330
74
100
AcDbEntity
  8
1
100
AcDbLine
 10
-532.7767549999999
 20
-469.4478779999999
 30
0.0
 11
-535.59726
 21
-468.8953009999999
 31
0.0
  0
LINE
  5
32E
330
74
100
AcDbEntity
  8
1
100
AcDbLine
 10
-535.1446969999999
 20
-324.966908
 30
0.0
 11
-524.875988
 21
-344.748598
 31
0.0
  0
LINE
  5
32F
330
74
100
AcDbEntity
  8
1
100
AcDbLine
 10
-536.1616259999999
 20
-323.007891
 30
0.0
 11
-531.06619
 21
-320.946711
 31
0.0
  0
LINE
  5
330
330
74
100
AcDbEntity
  8
1
100
AcDbLine
 10
-523.8637219999999
 20
-346.698631
 30
0.0
 11
-516.347655
 21
-346.893046
 31
0.0
  0
LINE
  5
331
330
74
100
AcDbEntity
  8
1
100
AcDbLine
 10
-531.7555549999999
 20
-321.22557
 30
0.0
 11
-517.808632
 21
-346.855256
 31
0.0
  0
LINE
  5
332
330
74
100
AcDbEntity
  8
1
100
AcDbLine
 10
-547.826048
 20
-332.756405
 30
0.0
 11
-538.521044
 21
-350.681609
 31
0.0
  0
LINE
  5
333
330
74
100
AcDbEntity
  8
1
100
AcDbLine
 10
-535.9949280000001
 20
-351.613792
 30
0.0
 11
-525.9000429999999
 21
-347.523681
 31
0.0
  0
LINE
  5
334
330
74
100
AcDbEntity
  8
1
100
AcDbLine
 10
-548.6609829999999
 20
-331.147982
 30
0.0
 11
-536.1616259999999
 21
-323.007891
 31
0.0
  0
LINE
  5
335
330
74
100
AcDbEntity
  8
1
100
AcDbLine
 10
-537.682261
 20
-352.297443
 30
0.0
 11
-546.5543979999999
 21
-359.025339
 31
0.0
  0
LINE
  5
336
330
74
100
AcDbEntity
  8
1
100
AcDbLine
 10
-548.6609829999999
 20
-331.147982
 30
0.0
 11
-556.839655
 21
-337.622932
 31
0.0
  0
LINE
  5
337
330
74
100
AcDbEntity
  8
1
100
AcDbLine
 10
-516.320859
 20
-347.422364
 30
0.0
 11
-528.345137
 21
-352.1495779999999
 31
0.0
  0
LINE
  5
338
330
74
100
AcDbEntity
  8
1
100
AcDbLine
 10
-543.3805849999999
 20
-358.168289
 30
0.0
 11
-528.345137
 21
-352.1495779999999
 31
0.0
  0
LINE
  5
339
330
74
100
AcDbEntity
  8
1
100
AcDbLine
 10
-543.3805849999999
 20
-358.168289
 30
0.0
 11
-546.170151
 21
-359.305405
 31
0.0
  0
LINE
  5
33A
330
74
100
AcDbEntity
  8
1
100
AcDbLine
 10
-535.1446969999999
 20
-535.4478429999999
 30
0.0
 11
-524.875988
 21
-515.6661539999999
 31
0.0
  0
LINE
  5
33B
330
74
100
AcDbEntity
  8
1
100
AcDbLine
 10
-536.1616259999999
 20
-537.4068610000001
 30
0.0
 11
-531.06619
 21
-539.4680400000001
 31
0.0
  0
LINE
  5
33C
330
74
100
AcDbEntity
  8
1
100
AcDbLine
 10
-523.8637219999999
 20
-513.716121
 30
0.0
 11
-516.347655
 21
-513.521706
 31
0.0
  0
LINE
  5
33D
330
74
100
AcDbEntity
  8
1
100
AcDbLine
 10
-531.7555549999999
 20
-539.189182
 30
0.0
 11
-517.808632
 21
-513.5594959999999
 31
0.0
  0
LINE
  5
33E
330
74
100
AcDbEntity
  8
1
100
AcDbLine
 10
-547.826048
 20
-527.6583469999999
 30
0.0
 11
-538.521044
 21
-509.7331429999999
 31
0.0
  0
LINE
  5
33F
330
74
100
AcDbEntity
  8
1
100
AcDbLine
 10
-535.9949280000001
 20
-508.8009599999999
 30
0.0
 11
-525.9000429999999
 21
-512.891071
 31
0.0
  0
LINE
  5
340
330
74
100
AcDbEntity
  8
1
100
AcDbLine
 10
-548.6609829999999
 20
-529.26677
 30
0.0
 11
-536.1616259999999
 21
-537.4068610000001
 31
0.0
  0
LINE
  5
341
330
74
100
AcDbEntity
  8
1
100
AcDbLine
 10
-537.682261
 20
-508.117309
 30
0.0
 11
-546.5543979999999
 21
-501.3894129999999
 31
0.0
  0
LINE
  5
342
330
74
100
AcDbEntity
  8
1
100
AcDbLine
 10
-548.6609829999999
 20
-529.26677
 30
0.0
 11
-556.839655
 21
-522.79182
 31
0.0
  0
LINE
  5
343
330
74
100
AcDbEntity
  8
1
100
AcDbLine
 10
-516.320859
 20
-512.9923869999999
 30
0.0
 11
-528.345137
 21
-508.265174
 31
0.0
  0
LINE
  5
344
330
74
100
AcDbEntity
  8
1
100
AcDbLine
 10
-543.3805849999999
 20
-502.2464629999999
 30
0.0
 11
-528.345137
 21
-508.265174
 31
0.0
  0
LINE
  5
345
330
74
100
AcDbEntity
  8
1
100
AcDbLine
 10
-543.3805849999999
 20
-502.2464629999999
 30
0.0
 11
-546.170151
 21
-501.1093469999999
 31
0.0
  0
LINE
  5
346
330
74
100
AcDbEntity
  8
1
100
AcDbLine
 10
-558.4295099999999
 20
-292.93275
 30
0.0
 11
-544.5866539999999
 21
-310.38473
 31
0.0
  0
LINE
  5
347
330
74
100
AcDbEntity
  8
1
100
AcDbLine
 10
-559.801642
 20
-291.202873
 30
0.0
 11
-555.3339359999999
 21
-289.121585
 31
0.0
  0
LINE
  5
348
330
74
100
AcDbEntity
  8
1
100
AcDbLine
 10
-543.2220029999999
 20
-312.105173
 30
0.0
 11
-535.377778
 21
-311.726664
 31
0.0
  0
LINE
  5
349
330
74
100
AcDbEntity
  8
1
100
AcDbLine
 10
-555.989408
 20
-289.426938
 30
0.0
 11
-537.186615
 21
-311.813946
 31
0.0
  0
LINE
  5
34A
330
74
100
AcDbEntity
  8
1
100
AcDbLine
 10
-569.3967200000001
 20
-303.004451
 30
0.0
 11
-556.853335
 21
-318.818161
 31
0.0
  0
LINE
  5
34B
330
74
100
AcDbEntity
  8
1
100
AcDbLine
 10
-554.1949729999999
 20
-319.251218
 30
0.0
 11
-545.06214
 21
-313.303545
 31
0.0
  0
LINE
  5
34C
330
74
100
AcDbEntity
  8
1
100
AcDbLine
 10
-570.522521
 20
-301.58513
 30
0.0
 11
-559.801642
 21
-291.202873
 31
0.0
  0
LINE
  5
34D
330
74
100
AcDbEntity
  8
1
100
AcDbLine
 10
-570.522521
 20
-301.58513
 30
0.0
 11
-577.130489
 21
-310.252533
 31
0.0
  0
LINE
  5
34E
330
74
100
AcDbEntity
  8
1
100
AcDbLine
 10
-563.0892269999999
 20
-329.48428
 30
0.0
 11
-555.7213609999999
 21
-320.245264
 31
0.0
  0
LINE
  5
34F
330
74
100
AcDbEntity
  8
1
100
AcDbLine
 10
-535.189082
 20
-312.26029
 30
0.0
 11
-546.3761789999999
 21
-319.266245
 31
0.0
  0
LINE
  5
350
330
74
100
AcDbEntity
  8
1
100
AcDbLine
 10
-546.3761789999999
 20
-319.266245
 30
0.0
 11
-560.018583
 21
-328.016826
 31
0.0
  0
LINE
  5
351
330
74
100
AcDbEntity
  8
1
100
AcDbLine
 10
-560.018583
 20
-328.016826
 30
0.0
 11
-562.715771
 21
-329.787688
 31
0.0
  0
LINE
  5
352
330
74
100
AcDbEntity
  8
1
100
AcDbLine
 10
-558.4295099999999
 20
-567.4820019999999
 30
0.0
 11
-544.5866539999999
 21
-550.0300219999998
 31
0.0
  0
LINE
  5
353
330
74
100
AcDbEntity
  8
1
100
AcDbLine
 10
-559.801642
 20
-569.2118789999999
 30
0.0
 11
-555.3339359999999
 21
-571.293167
 31
0.0
  0
LINE
  5
354
330
74
100
AcDbEntity
  8
1
100
AcDbLine
 10
-543.2220029999999
 20
-548.309578
 30
0.0
 11
-535.377778
 21
-548.688088
 31
0.0
  0
LINE
  5
355
330
74
100
AcDbEntity
  8
1
100
AcDbLine
 10
-555.989408
 20
-570.9878139999999
 30
0.0
 11
-537.186615
 21
-548.6008059999999
 31
0.0
  0
LINE
  5
356
330
74
100
AcDbEntity
  8
1
100
AcDbLine
 10
-569.3967200000001
 20
-557.4103
 30
0.0
 11
-556.853335
 21
-541.5965909999999
 31
0.0
  0
LINE
  5
357
330
74
100
AcDbEntity
  8
1
100
AcDbLine
 10
-554.1949729999999
 20
-541.163534
 30
0.0
 11
-545.06214
 21
-547.111207
 31
0.0
  0
LINE
  5
358
330
74
100
AcDbEntity
  8
1
100
AcDbLine
 10
-570.522521
 20
-558.829622
 30
0.0
 11
-559.801642
 21
-569.2118789999999
 31
0.0
  0
LINE
  5
359
330
74
100
AcDbEntity
  8
1
100
AcDbLine
 10
-570.522521
 20
-558.829622
 30
0.0
 11
-577.130489
 21
-550.162219
 31
0.0
  0
LINE
  5
35A
330
74
100
AcDbEntity
  8
1
100
AcDbLine
 10
-563.0892269999999
 20
-530.930472
 30
0.0
 11
-555.7213609999999
 21
-540.1694879999999
 31
0.0
  0
LINE
  5
35B
330
74
100
AcDbEntity
  8
1
100
AcDbLine
 10
-535.189082
 20
-548.154462
 30
0.0
 11
-546.3761789999999
 21
-541.148506
 31
0.0
  0
LINE
  5
35C
330
74
100
AcDbEntity
  8
1
100
AcDbLine
 10
-546.3761789999999
 20
-541.148506
 30
0.0
 11
-560.018583
 21
-532.3979259999999
 31
0.0
  0
LINE
  5
35D
330
74
100
AcDbEntity
  8
1
100
AcDbLine
 10
-560.018583
 20
-532.3979259999999
 30
0.0
 11
-562.715771
 21
-530.627064
 31
0.0
  0
LINE
  5
35E
330
74
100
AcDbEntity
  8
1
100
AcDbLine
 10
-587.3820649999999
 20
-265.941881
 30
0.0
 11
-570.474374
 21
-280.423177
 31
0.0
  0
LINE
  5
35F
330
74
100
AcDbEntity
  8
1
100
AcDbLine
 10
-568.8067809999999
 20
-281.851456
 30
0.0
 11
-561.1546070000001
 21
-280.945822
 31
0.0
  0
LINE
  5
360
330
74
100
AcDbEntity
  8
1
100
AcDbLine
 10
-584.503103
 20
-262.198541
 30
0.0
 11
-588.3862269999999
 21
-264.165002
 31
0.0
  0
LINE
  5
361
330
74
100
AcDbEntity
  8
1
100
AcDbLine
 10
-562.9164379999999
 20
-281.154334
 30
0.0
 11
-585.884181
 21
-262.897935
 31
0.0
  0
LINE
  5
362
330
74
100
AcDbEntity
  8
1
100
AcDbLine
 10
-596.2313759999999
 20
-277.92712
 30
0.0
 11
-580.9113120000001
 21
-291.0486259999999
 31
0.0
  0
LINE
  5
363
330
74
100
AcDbEntity
  8
1
100
AcDbLine
 10
-578.218957
 20
-290.966346
 30
0.0
 11
-570.384044
 21
-283.3789
 31
0.0
  0
LINE
  5
364
330
74
100
AcDbEntity
  8
1
100
AcDbLine
 10
-589.4906070000001
 20
-265.123909
 30
0.0
 11
-597.60738
 21
-276.748584
 31
0.0
  0
LINE
  5
365
330
74
100
AcDbEntity
  8
1
100
AcDbLine
 10
-597.60738
 20
-276.748584
 30
0.0
 11
-602.2226749999999
 21
-287.320653
 31
0.0
  0
LINE
  5
366
330
74
100
AcDbEntity
  8
1
100
AcDbLine
 10
-584.868843
 20
-303.688544
 30
0.0
 11
-579.52766
 21
-292.233713
 31
0.0
  0
LINE
  5
367
330
74
100
AcDbEntity
  8
1
100
AcDbLine
 10
-560.562666
 20
-281.562285
 30
0.0
 11
-570.2866740000001
 21
-290.459515
 31
0.0
  0
LINE
  5
368
330
74
100
AcDbEntity
  8
1
100
AcDbLine
 10
-570.2866740000001
 20
-290.459515
 30
0.0
 11
-582.0547119999999
 21
-301.62042
 31
0.0
  0
LINE
  5
369
330
74
100
AcDbEntity
  8
1
100
AcDbLine
 10
-582.0547119999999
 20
-301.62042
 30
0.0
 11
-584.483422
 21
-304.001387
 31
0.0
  0
LINE
  5
36A
330
74
100
AcDbEntity
  8
1
100
AcDbLine
 10
-587.3820649999999
 20
-594.47287
 30
0.0
 11
-570.474374
 21
-579.991575
 31
0.0
  0
LINE
  5
36B
330
74
100
AcDbEntity
  8
1
100
AcDbLine
 10
-568.8067809999999
 20
-578.563296
 30
0.0
 11
-561.1546070000001
 21
-579.4689299999999
 31
0.0
  0
LINE
  5
36C
330
74
100
AcDbEntity
  8
1
100
AcDbLine
 10
-584.503103
 20
-598.216211
 30
0.0
 11
-588.3862269999999
 21
-596.2497499999999
 31
0.0
  0
LINE
  5
36D
330
74
100
AcDbEntity
  8
1
100
AcDbLine
 10
-562.9164379999999
 20
-579.2604169999999
 30
0.0
 11
-585.884181
 21
-597.5168169999999
 31
0.0
  0
LINE
  5
36E
330
74
100
AcDbEntity
  8
1
100
AcDbLine
 10
-596.2313759999999
 20
-582.487632
 30
0.0
 11
-580.9113120000001
 21
-569.3661249999999
 31
0.0
  0
LINE
  5
36F
330
74
100
AcDbEntity
  8
1
100
AcDbLine
 10
-578.218957
 20
-569.4484059999999
 30
0.0
 11
-570.384044
 21
-577.035852
 31
0.0
  0
LINE
  5
370
330
74
100
AcDbEntity
  8
1
100
AcDbLine
 10
-589.4906070000001
 20
-595.2908429999999
 30
0.0
 11
-597.60738
 21
-583.6661679999999
 31
0.0
  0
LINE
  5
371
330
74
100
AcDbEntity
  8
1
100
AcDbLine
 10
-597.60738
 20
-583.6661679999999
 30
0.0
 11
-602.2226749999999
 21
-573.094099
 31
0.0
  0
LINE
  5
372
330
74
100
AcDbEntity
  8
1
100
AcDbLine
 10
-584.868843
 20
-556.726208
 30
0.0
 11
-579.52766
 21
-568.1810389999999
 31
0.0
  0
LINE
  5
373
330
74
100
AcDbEntity
  8
1
100
AcDbLine
 10
-560.562666
 20
-578.852467
 30
0.0
 11
-570.2866740000001
 21
-569.955237
 31
0.0
  0
LINE
  5
374
330
74
100
AcDbEntity
  8
1
100
AcDbLine
 10
-570.2866740000001
 20
-569.955237
 30
0.0
 11
-582.0547119999999
 21
-558.794332
 31
0.0
  0
LINE
  5
375
330
74
100
AcDbEntity
  8
1
100
AcDbLine
 10
-582.0547119999999
 20
-558.794332
 30
0.0
 11
-584.483422
 21
-556.413365
 31
0.0
  0
LINE
  5
376
330
74
100
AcDbEntity
  8
1
100
AcDbLine
 10
-621.0351639999999
 20
-244.987513
 30
0.0
 11
-601.5940669999999
 21
-255.967016
 31
0.0
  0
LINE
  5
377
330
74
100
AcDbEntity
  8
1
100
AcDbLine
 10
-599.6779269999999
 20
-257.049171
 30
0.0
 11
-591.570491
 21
-255.585152
 31
0.0
  0
LINE
  5
378
330
74
100
AcDbEntity
  8
1
100
AcDbLine
 10
-621.9831849999999
 20
-243.411667
 30
0.0
 11
-618.747661
 21
-241.812407
 31
0.0
  0
LINE
  5
379
330
74
100
AcDbEntity
  8
1
100
AcDbLine
 10
-620.234144
 20
-242.547148
 30
0.0
 11
-594.052644
 21
-256.033372
 31
0.0
  0
LINE
  5
37A
330
74
100
AcDbEntity
  8
1
100
AcDbLine
 10
-627.3542110000001
 20
-258.439537
 30
0.0
 11
-609.810474
 21
-268.393324
 31
0.0
  0
LINE
  5
37B
330
74
100
AcDbEntity
  8
1
100
AcDbLine
 10
-628.920311
 20
-257.550979
 30
0.0
 11
-623.403724
 21
-244.901797
 31
0.0
  0
LINE
  5
37C
330
74
100
AcDbEntity
  8
1
100
AcDbLine
 10
-607.1837019999999
 20
-267.798787
 30
0.0
 11
-600.937753
 21
-258.853468
 31
0.0
  0
LINE
  5
37D
330
74
100
AcDbEntity
  8
1
100
AcDbLine
 10
-608.2263809999999
 20
-269.29209
 30
0.0
 11
-610.8974820000001
 21
-281.91219
 31
0.0
  0
LINE
  5
37E
330
74
100
AcDbEntity
  8
1
100
AcDbLine
 10
-631.069762
 20
-269.664622
 30
0.0
 11
-628.920311
 21
-257.550979
 31
0.0
  0
LINE
  5
37F
330
74
100
AcDbEntity
  8
1
100
AcDbLine
 10
-590.986709
 20
-256.1843169999999
 30
0.0
 11
-599.12756
 21
-266.787909
 31
0.0
  0
LINE
  5
380
330
74
100
AcDbEntity
  8
1
100
AcDbLine
 10
-599.12756
 20
-266.787909
 30
0.0
 11
-610.2892099999999
 21
-282.447893
 31
0.0
  0
LINE
  5
381
330
74
100
AcDbEntity
  8
1
100
AcDbLine
 10
-621.0351639999999
 20
-615.427239
 30
0.0
 11
-601.5940669999999
 21
-604.4477360000001
 31
0.0
  0
LINE
  5
382
330
74
100
AcDbEntity
  8
1
100
AcDbLine
 10
-599.6779269999999
 20
-603.3655809999999
 30
0.0
 11
-591.570491
 21
-604.8296
 31
0.0
  0
LINE
  5
383
330
74
100
AcDbEntity
  8
1
100
AcDbLine
 10
-621.9831849999999
 20
-617.0030849999999
 30
0.0
 11
-618.747661
 21
-618.602344
 31
0.0
  0
LINE
  5
384
330
74
100
AcDbEntity
  8
1
100
AcDbLine
 10
-620.234144
 20
-617.867604
 30
0.0
 11
-594.052644
 21
-604.38138
 31
0.0
  0
LINE
  5
385
330
74
100
AcDbEntity
  8
1
100
AcDbLine
 10
-627.3542110000001
 20
-601.975215
 30
0.0
 11
-609.810474
 21
-592.021428
 31
0.0
  0
LINE
  5
386
330
74
100
AcDbEntity
  8
1
100
AcDbLine
 10
-628.920311
 20
-602.863773
 30
0.0
 11
-623.403724
 21
-615.512955
 31
0.0
  0
LINE
  5
387
330
74
100
AcDbEntity
  8
1
100
AcDbLine
 10
-607.1837019999999
 20
-592.6159639999999
 30
0.0
 11
-600.937753
 21
-601.561284
 31
0.0
  0
LINE
  5
388
330
74
100
AcDbEntity
  8
1
100
AcDbLine
 10
-608.2263809999999
 20
-591.1226609999999
 30
0.0
 11
-610.8974820000001
 21
-578.5025619999999
 31
0.0
  0
LINE
  5
389
330
74
100
AcDbEntity
  8
1
100
AcDbLine
 10
-631.069762
 20
-590.7501289999999
 30
0.0
 11
-628.920311
 21
-602.863773
 31
0.0
  0
LINE
  5
38A
330
74
100
AcDbEntity
  8
1
100
AcDbLine
 10
-590.986709
 20
-604.2304349999999
 30
0.0
 11
-599.12756
 21
-593.626843
 31
0.0
  0
LINE
  5
38B
330
74
100
AcDbEntity
  8
1
100
AcDbLine
 10
-599.12756
 20
-593.626843
 30
0.0
 11
-610.2892099999999
 21
-577.9668589999999
 31
0.0
  0
LINE
  5
38C
330
74
100
AcDbEntity
  8
1
100
AcDbLine
 10
-646.4775089999999
 20
-236.383532
 30
0.0
 11
-624.7791409999999
 21
-236.383532
 31
0.0
  0
LINE
  5
38D
330
74
100
AcDbEntity
  8
1
100
AcDbLine
 10
-685.500365
 20
-238.609693
 30
0.0
 11
-634.7010609999999
 21
-238.609693
 31
0.0
  0
LINE
  5
38E
330
74
100
AcDbEntity
  8
1
100
AcDbLine
 10
-685.500365
 20
-252.263402
 30
0.0
 11
-640.762972
 21
-252.263402
 31
0.0
  0
LINE
  5
38F
330
74
100
AcDbEntity
  8
1
100
AcDbLine
 10
-634.7010609999999
 20
-238.609693
 30
0.0
 11
-640.4926759999999
 21
-251.654595
 31
0.0
  0
LINE
  5
390
330
74
100
AcDbEntity
  8
1
100
AcDbLine
 10
-633.7192669999999
 20
-238.38941
 30
0.0
 11
-626.3829659999999
 21
-236.743379
 31
0.0
  0
LINE
  5
391
330
74
100
AcDbEntity
  8
1
100
AcDbLine
 10
-640.762972
 20
-252.263402
 30
0.0
 11
-640.494944
 21
-266.255281
 31
0.0
  0
LINE
  5
392
330
74
100
AcDbEntity
  8
1
100
AcDbLine
 10
-640.457847
 20
-268.191898
 30
0.0
 11
-644.91873
 21
-268.191898
 31
0.0
  0
ARC
  5
393
330
74
100
AcDbEntity
  8
1
100
AcDbCircle
 10
-644.91873
 20
-283.191898
 30
0.0
 40
15.0
100
AcDbArc
 50
90.0
 51
180.0
  0
ARC
  5
394
330
74
100
AcDbEntity
  8
1
100
AcDbCircle
 10
-646.4775089999999
 20
-226.383532
 30
0.0
 40
10.0
100
AcDbArc
 50
180.0
 51
270.0
  0
LINE
  5
395
330
74
100
AcDbEntity
  8
1
100
AcDbLine
 10
-691.500365
 20
-238.609693
 30
0.0
 11
-691.500365
 21
-252.263402
 31
0.0
  0
ARC
  5
396
330
74
100
AcDbEntity
  8
1
100
AcDbCircle
 10
-685.500365
 20
-258.263402
 30
0.0
 40
6.0
100
AcDbArc
 50
90.0
 51
180.0
  0
ARC
  5
397
330
74
100
AcDbEntity
  8
1
100
AcDbCircle
 10
-685.500365
 20
-232.609693
 30
0.0
 40
6.0
100
AcDbArc
 50
212.909971
 51
270.0
  0
LINE
  5
398
330
74
100
AcDbEntity
  8
1
100
AcDbLine
 10
-686.04085
 20
-255.01696
 30
0.0
 11
-659.9187299999999
 21
-268.191898
 31
0.0
  0
LINE
  5
399
330
74
100
AcDbEntity
  8
1
100
AcDbLine
 10
-656.4775089999999
 20
-236.383532
 30
0.0
 11
-683.691669
 21
-238.113348
 31
0.0
  0
LINE
  5
39A
330
74
100
AcDbEntity
  8
1
100
AcDbLine
 10
-625.2437079999999
 20
-237.24493
 30
0.0
 11
-631.648819
 21
-249.121254
 31
0.0
  0
LINE
  5
39B
330
74
100
AcDbEntity
  8
1
100
AcDbLine
 10
-631.648819
 20
-249.121254
 30
0.0
 11
-639.619138
 21
-266.376179
 31
0.0
  0
LINE
  5
39C
330
74
100
AcDbEntity
  8
1
100
AcDbLine
 10
-646.4775089999999
 20
-624.0312199999999
 30
0.0
 11
-624.7791409999999
 21
-624.0312199999999
 31
0.0
  0
LINE
  5
39D
330
74
100
AcDbEntity
  8
1
100
AcDbLine
 10
-685.500365
 20
-621.805059
 30
0.0
 11
-634.7010609999999
 21
-621.805059
 31
0.0
  0
LINE
  5
39E
330
74
100
AcDbEntity
  8
1
100
AcDbLine
 10
-685.500365
 20
-608.1513489999999
 30
0.0
 11
-640.762972
 21
-608.1513489999999
 31
0.0
  0
LINE
  5
39F
330
74
100
AcDbEntity
  8
1
100
AcDbLine
 10
-634.7010609999999
 20
-621.805059
 30
0.0
 11
-640.4926759999999
 21
-608.760157
 31
0.0
  0
LINE
  5
3A0
330
74
100
AcDbEntity
  8
1
100
AcDbLine
 10
-633.7192669999999
 20
-622.025342
 30
0.0
 11
-626.3829659999999
 21
-623.6713729999999
 31
0.0
  0
LINE
  5
3A1
330
74
100
AcDbEntity
  8
1
100
AcDbLine
 10
-640.762972
 20
-608.1513489999999
 30
0.0
 11
-640.494944
 21
-594.1594709999999
 31
0.0
  0
LINE
  5
3A2
330
74
100
AcDbEntity
  8
1
100
AcDbLine
 10
-640.457847
 20
-592.2228539999999
 30
0.0
 11
-644.91873
 21
-592.2228539999999
 31
0.0
  0
ARC
  5
3A3
330
74
100
AcDbEntity
  8
1
100
AcDbCircle
 10
-644.91873
 20
-577.2228539999999
 30
0.0
 40
15.0
100
AcDbArc
 50
180.0
 51
270.0
  0
ARC
  5
3A4
330
74
100
AcDbEntity
  8
1
100
AcDbCircle
 10
-646.4775089999999
 20
-634.0312199999999
 30
0.0
 40
10.0
100
AcDbArc
 50
90.0
 51
180.0
  0
LINE
  5
3A5
330
74
100
AcDbEntity
  8
1
100
AcDbLine
 10
-691.500365
 20
-621.805059
 30
0.0
 11
-691.500365
 21
-608.1513489999999
 31
0.0
  0
ARC
  5
3A6
330
74
100
AcDbEntity
  8
1
100
AcDbCircle
 10
-685.500365
 20
-602.151349
 30
0.0
 40
6.0
100
AcDbArc
 50
180.0
 51
270.0
  0
ARC
  5
3A7
330
74
100
AcDbEntity
  8
1
100
AcDbCircle
 10
-685.500365
 20
-627.805059
 30
0.0
 40
6.0
100
AcDbArc
 50
90.0
 51
147.090029
  0
LINE
  5
3A8
330
74
100
AcDbEntity
  8
1
100
AcDbLine
 10
-686.04085
 20
-605.397792
 30
0.0
 11
-659.9187299999999
 21
-592.2228539999999
 31
0.0
  0
LINE
  5
3A9
330
74
100
AcDbEntity
  8
1
100
AcDbLine
 10
-656.4775089999999
 20
-624.0312199999999
 30
0.0
 11
-683.691669
 21
-622.301403
 31
0.0
  0
LINE
  5
3AA
330
74
100
AcDbEntity
  8
1
100
AcDbLine
 10
-625.2437079999999
 20
-623.1698219999999
 30
0.0
 11
-631.648819
 21
-611.293498
 31
0.0
  0
LINE
  5
3AB
330
74
100
AcDbEntity
  8
1
100
AcDbLine
 10
-631.648819
 20
-611.293498
 30
0.0
 11
-639.619138
 21
-594.038573
 31
0.0
  0
LINE
  5
3AC
330
74
100
AcDbEntity
  8
1
  6
CENTER
 62
     2
100
AcDbLine
 10
-713.100315
 20
-253.754812
 30
0.0
 11
-713.100315
 21
-287.768224
 31
0.0
  0
LINE
  5
3AD
330
74
100
AcDbEntity
  8
1
  6
CENTER
 62
     2
100
AcDbLine
 10
-697.734728
 20
-270.207376
 30
0.0
 11
-729.148913
 21
-270.207376
 31
0.0
  0
LINE
  5
3AE
330
74
100
AcDbEntity
  8
1
  6
CENTER
 62
     2
100
AcDbLine
 10
-713.100315
 20
-307.754812
 30
0.0
 11
-713.100315
 21
-341.768224
 31
0.0
  0
LINE
  5
3AF
330
74
100
AcDbEntity
  8
1
  6
CENTER
 62
     2
100
AcDbLine
 10
-697.734728
 20
-324.207376
 30
0.0
 11
-729.148913
 21
-324.207376
 31
0.0
  0
LINE
  5
3B0
330
74
100
AcDbEntity
  8
2
  6
CENTER
 62
     2
100
AcDbLine
 10
-709.2763999999999
 20
665.892624
 30
0.0
 11
-709.2763999999999
 21
336.2926240000001
 31
0.0
  0
LINE
  5
3B1
330
74
100
AcDbEntity
  8
2
100
AcDbLine
 10
-809.2763999999998
 20
-10.207376
 30
0.0
 11
-609.2763999999999
 21
-10.207376
 31
0.0
  0
LINE
  5
3B2
330
74
100
AcDbEntity
  8
2
100
AcDbLine
 10
376.9236
 20
-10.207376
 30
0.0
 11
176.9236
 21
-10.207376
 31
0.0
  0
LINE
  5
3B3
330
74
100
AcDbEntity
  8
2
  6
CENTER
 62
     2
100
AcDbLine
 10
-859.6764
 20
607.692624
 30
0.0
 11
-357.048339
 21
607.692624
 31
0.0
  0
CIRCLE
  5
3B4
330
74
100
AcDbEntity
  8
2
100
AcDbCircle
 10
-709.2763999999999
 20
490.692624
 30
0.0
 40
125.0
  0
LINE
  5
3B5
330
74
100
AcDbEntity
  8
2
100
AcDbLine
 10
-779.2764
 20
364.692624
 30
0.0
 11
-639.2763999999999
 21
364.692624
 31
0.0
  0
LINE
  5
3B6
330
74
100
AcDbEntity
  8
2
100
AcDbLine
 10
-779.2764
 20
385.549864
 30
0.0
 11
-779.2764
 21
364.692624
 31
0.0
  0
LINE
  5
3B7
330
74
100
AcDbEntity
  8
2
100
AcDbLine
 10
-639.2763999999999
 20
385.549864
 30
0.0
 11
-639.2763999999999
 21
364.692624
 31
0.0
  0
ARC
  5
3B8
330
74
100
AcDbEntity
  8
2
100
AcDbCircle
 10
-636.2763999999999
 20
385.549864
 30
0.0
 40
3.0
100
AcDbArc
 50
124.77202
 51
180.0
  0
ARC
  5
3B9
330
74
100
AcDbEntity
  8
2
100
AcDbCircle
 10
-782.2764
 20
385.549864
 30
0.0
 40
3.0
100
AcDbArc
 50
0.0
 51
55.22798
  0
LINE
  5
3BA
330
74
100
AcDbEntity
  8
2
100
AcDbLine
 10
-583.2764
 20
520.692624
 30
0.0
 11
-583.2764
 21
460.6926239999999
 31
0.0
  0
LINE
  5
3BB
330
74
100
AcDbEntity
  8
2
100
AcDbLine
 10
-585.6034440000001
 20
520.692624
 30
0.0
 11
-583.2764
 21
520.692624
 31
0.0
  0
LINE
  5
3BC
330
74
100
AcDbEntity
  8
2
100
AcDbLine
 10
-585.6034440000001
 20
460.6926239999999
 30
0.0
 11
-583.2764
 21
460.6926239999999
 31
0.0
  0
ARC
  5
3BD
330
74
100
AcDbEntity
  8
2
100
AcDbCircle
 10
-585.6034440000001
 20
523.692624
 30
0.0
 40
3.0
100
AcDbArc
 50
194.940303
 51
270.0
  0
ARC
  5
3BE
330
74
100
AcDbEntity
  8
2
100
AcDbCircle
 10
-585.6034440000001
 20
457.692624
 30
0.0
 40
3.0
100
AcDbArc
 50
90.0
 51
165.059697
  0
LINE
  5
3BF
330
74
100
AcDbEntity
  8
2
  6
CENTER
 62
     2
100
AcDbLine
 10
-659.2763999999999
 20
370.963584
 30
0.0
 11
-659.2763999999999
 21
317.877017
 31
0.0
  0
LINE
  5
3C0
330
74
100
AcDbEntity
  8
2
  6
CENTER
 62
     2
100
AcDbLine
 10
-759.2763999999999
 20
370.963584
 30
0.0
 11
-759.2763999999999
 21
317.877017
 31
0.0
  0
LINE
  5
3C1
330
74
100
AcDbEntity
  8
2
100
AcDbLine
 10
-599.2764
 20
652.692624
 30
0.0
 11
-599.2764
 21
562.692624
 31
0.0
  0
LINE
  5
3C2
330
74
100
AcDbEntity
  8
2
100
AcDbLine
 10
-819.2764
 20
652.692624
 30
0.0
 11
-819.2764
 21
562.692624
 31
0.0
  0
LINE
  5
3C3
330
74
100
AcDbEntity
  8
2
100
AcDbLine
 10
-829.7763999999999
 20
652.692624
 30
0.0
 11
-795.7536049999999
 21
652.692624
 31
0.0
  0
LINE
  5
3C4
330
74
100
AcDbEntity
  8
2
100
AcDbLine
 10
-622.799196
 20
652.692624
 30
0.0
 11
-582.7764
 21
652.692624
 31
0.0
  0
LINE
  5
3C5
330
74
100
AcDbEntity
  8
2
100
AcDbLine
 10
-829.7763999999999
 20
562.692624
 30
0.0
 11
-817.086418
 21
562.692624
 31
0.0
  0
LINE
  5
3C6
330
74
100
AcDbEntity
  8
2
100
AcDbLine
 10
-601.466382
 20
562.692624
 30
0.0
 11
-558.7763999999999
 21
562.692624
 31
0.0
  0
ARC
  5
3C7
330
74
100
AcDbEntity
  8
2
100
AcDbCircle
 10
-601.466382
 20
559.692624
 30
0.0
 40
3.0
100
AcDbArc
 50
90.0
 51
212.619842
  0
ARC
  5
3C8
330
74
100
AcDbEntity
  8
2
100
AcDbCircle
 10
-817.086418
 20
559.692624
 30
0.0
 40
3.0
100
AcDbArc
 50
327.380158
 51
90.0
  0
LINE
  5
3C9
330
74
100
AcDbEntity
  8
2
100
AcDbLine
 10
-624.2764
 20
646.555209
 30
0.0
 11
-624.2764
 21
586.668765
 31
0.0
  0
LINE
  5
3CA
330
74
100
AcDbEntity
  8
2
100
AcDbLine
 10
-794.2763999999999
 20
646.555209
 30
0.0
 11
-794.2763999999999
 21
586.668765
 31
0.0
  0
LINE
  5
3CB
330
74
100
AcDbEntity
  8
2
100
AcDbLine
 10
-784.2763999999999
 20
634.5325339999999
 30
0.0
 11
-784.2763999999999
 21
594.154574
 31
0.0
  0
LINE
  5
3CC
330
74
100
AcDbEntity
  8
2
100
AcDbLine
 10
-634.2763999999999
 20
634.5325339999999
 30
0.0
 11
-634.2763999999999
 21
594.154574
 31
0.0
  0
LINE
  5
3CD
330
74
100
AcDbEntity
  8
2
100
AcDbLine
 10
-782.799196
 20
639.6926239999999
 30
0.0
 11
-635.753605
 21
639.6926239999999
 31
0.0
  0
LINE
  5
3CE
330
74
100
AcDbEntity
  8
2
100
AcDbLine
 10
-625.1770679999999
 20
651.5217559999999
 30
0.0
 11
-633.375733
 21
640.8634919999999
 31
0.0
  0
LINE
  5
3CF
330
74
100
AcDbEntity
  8
2
100
AcDbLine
 10
-793.3757329999999
 20
651.5217559999999
 30
0.0
 11
-785.1770679999999
 21
640.8634919999999
 31
0.0
  0
ARC
  5
3D0
330
74
100
AcDbEntity
  8
2
100
AcDbCircle
 10
-622.799196
 20
649.692624
 30
0.0
 40
3.0
100
AcDbArc
 50
90.0
 51
142.431408
  0
ARC
  5
3D1
330
74
100
AcDbEntity
  8
2
100
AcDbCircle
 10
-635.753605
 20
642.692624
 30
0.0
 40
3.0
100
AcDbArc
 50
270.0
 51
322.431408
  0
ARC
  5
3D2
330
74
100
AcDbEntity
  8
2
100
AcDbCircle
 10
-782.799196
 20
642.692624
 30
0.0
 40
3.0
100
AcDbArc
 50
217.568592
 51
270.0
  0
ARC
  5
3D3
330
74
100
AcDbEntity
  8
2
100
AcDbCircle
 10
-795.7536049999999
 20
649.692624
 30
0.0
 40
3.0
100
AcDbArc
 50
37.568592
 51
90.0
  0
LINE
  5
3D4
330
74
100
AcDbEntity
  8
2
100
AcDbLine
 10
-598.7763999999999
 20
652.692624
 30
0.0
 11
-598.7763999999999
 21
562.692624
 31
0.0
  0
LINE
  5
3D5
330
74
100
AcDbEntity
  8
2
100
AcDbLine
 10
-582.7764
 20
655.692624
 30
0.0
 11
-582.7764
 21
562.692624
 31
0.0
  0
LINE
  5
3D6
330
74
100
AcDbEntity
  8
2
100
AcDbLine
 10
-819.7763999999999
 20
652.692624
 30
0.0
 11
-819.7763999999999
 21
562.692624
 31
0.0
  0
LINE
  5
3D7
330
74
100
AcDbEntity
  8
2
100
AcDbLine
 10
-829.7763999999999
 20
652.692624
 30
0.0
 11
-829.7763999999999
 21
562.692624
 31
0.0
  0
LINE
  5
3D8
330
74
100
AcDbEntity
  8
2
  6
CENTER
 62
     2
100
AcDbLine
 10
-539.955623
 20
632.441361
 30
0.0
 11
-605.29446
 21
632.441361
 31
0.0
  0
LINE
  5
3D9
330
74
100
AcDbEntity
  8
2
  6
CENTER
 62
     2
100
AcDbLine
 10
-539.955623
 20
582.943887
 30
0.0
 11
-605.29446
 21
582.943887
 31
0.0
  0
LINE
  5
3DA
330
74
100
AcDbEntity
  8
2
100
AcDbLine
 10
-558.7763999999999
 20
622.692624
 30
0.0
 11
-556.2763999999999
 21
622.692624
 31
0.0
  0
LINE
  5
3DB
330
74
100
AcDbEntity
  8
2
100
AcDbLine
 10
-550.141697
 20
622.692624
 30
0.0
 11
-450.2763999999999
 21
622.692624
 31
0.0
  0
LINE
  5
3DC
330
74
100
AcDbEntity
  8
2
100
AcDbLine
 10
-558.7763999999999
 20
592.692624
 30
0.0
 11
-556.2763999999999
 21
592.692624
 31
0.0
  0
LINE
  5
3DD
330
74
100
AcDbEntity
  8
2
100
AcDbLine
 10
-550.141697
 20
592.692624
 30
0.0
 11
-450.2763999999999
 21
592.692624
 31
0.0
  0
LINE
  5
3DE
330
74
100
AcDbEntity
  8
2
  6
CENTER
 62
     2
100
AcDbLine
 10
-848.597177
 20
582.943887
 30
0.0
 11
-812.5356099999999
 21
582.943887
 31
0.0
  0
LINE
  5
3DF
330
74
100
AcDbEntity
  8
2
  6
CENTER
 62
     2
100
AcDbLine
 10
-848.597177
 20
632.441361
 30
0.0
 11
-812.5356099999999
 21
632.441361
 31
0.0
  0
ARC
  5
3E0
330
74
100
AcDbEntity
  8
2
  6
CENTER
 62
     2
100
AcDbCircle
 10
-709.2763999999999
 20
490.692624
 30
0.0
 40
117.5
100
AcDbArc
 50
332.356707
 51
342.274051
  0
ARC
  5
3E1
330
74
100
AcDbEntity
  8
2
  6
CENTER
 62
     2
100
AcDbCircle
 10
-709.2763999999999
 20
490.692624
 30
0.0
 40
117.5
100
AcDbArc
 50
286.978214
 51
297.411126
  0
ARC
  5
3E2
330
74
100
AcDbEntity
  8
2
  6
CENTER
 62
     2
100
AcDbCircle
 10
-709.2763999999999
 20
490.692624
 30
0.0
 40
117.5
100
AcDbArc
 50
242.562567
 51
251.960583
  0
ARC
  5
3E3
330
74
100
AcDbEntity
  8
2
  6
CENTER
 62
     2
100
AcDbCircle
 10
-709.2763999999999
 20
490.692624
 30
0.0
 40
117.5
100
AcDbArc
 50
197.490456
 51
207.42439
  0
ARC
  5
3E4
330
74
100
AcDbEntity
  8
2
  6
CENTER
 62
     2
100
AcDbCircle
 10
-709.2763999999999
 20
490.692624
 30
0.0
 40
117.5
100
AcDbArc
 50
152.326755
 51
163.171389
  0
ARC
  5
3E5
330
74
100
AcDbEntity
  8
2
  6
CENTER
 62
     2
100
AcDbCircle
 10
-709.2763999999999
 20
490.692624
 30
0.0
 40
117.5
100
AcDbArc
 50
106.880303
 51
117.464823
  0
ARC
  5
3E6
330
74
100
AcDbEntity
  8
2
  6
CENTER
 62
     2
100
AcDbCircle
 10
-709.2763999999999
 20
490.692624
 30
0.0
 40
117.5
100
AcDbArc
 50
17.998394
 51
27.657702
  0
ARC
  5
3E7
330
74
100
AcDbEntity
  8
2
  6
CENTER
 62
     2
100
AcDbCircle
 10
-709.2763999999999
 20
490.692624
 30
0.0
 40
117.5
100
AcDbArc
 50
62.07878
 51
72.54881999999999
  0
LINE
  5
3E8
330
74
100
AcDbEntity
  8
2
  6
CENTER
 62
     2
100
AcDbLine
 10
-828.2742480000001
 20
441.4021009999999
 30
0.0
 11
-808.9332070000001
 21
449.413423
 31
0.0
  0
LINE
  5
3E9
330
74
100
AcDbEntity
  8
2
  6
CENTER
 62
     2
100
AcDbLine
 10
-610.2274839999999
 20
531.720028
 30
0.0
 11
-590.2078389999998
 21
540.0124369999999
 31
0.0
  0
LINE
  5
3EA
330
74
100
AcDbEntity
  8
2
  6
CENTER
 62
     2
100
AcDbLine
 10
-828.329892
 20
540.006195
 30
0.0
 11
-807.671468
 21
531.449196
 31
0.0
  0
LINE
  5
3EB
330
74
100
AcDbEntity
  8
2
  6
CENTER
 62
     2
100
AcDbLine
 10
-610.377113
 20
449.727198
 30
0.0
 11
-589.486853
 21
441.074169
 31
0.0
  0
LINE
  5
3EC
330
74
100
AcDbEntity
  8
2
  6
CENTER
 62
     2
100
AcDbLine
 10
-758.6305549999999
 20
609.844095
 30
0.0
 11
-750.2907
 21
589.709903
 31
0.0
  0
LINE
  5
3ED
330
74
100
AcDbEntity
  8
2
  6
CENTER
 62
     2
100
AcDbLine
 10
-668.2871309999999
 20
391.735773
 30
0.0
 11
-660.275853
 21
372.39484
 31
0.0
  0
LINE
  5
3EE
330
74
100
AcDbEntity
  8
2
  6
CENTER
 62
     2
100
AcDbLine
 10
-758.411323
 20
372.070426
 30
0.0
 11
-750.199843
 21
391.894693
 31
0.0
  0
LINE
  5
3EF
330
74
100
AcDbEntity
  8
2
  6
CENTER
 62
     2
100
AcDbLine
 10
-668.3700469999999
 20
589.4492979999999
 30
0.0
 11
-659.9651399999999
 21
609.740537
 31
0.0
  0
LINE
  5
3F0
330
74
100
AcDbEntity
  8
2
100
AcDbLine
 10
-752.823186
 20
502.036233
 30
0.0
 11
-770.8693819999999
 21
432.7590019999999
 31
0.0
  0
LINE
  5
3F1
330
74
100
AcDbEntity
  8
2
100
AcDbLine
 10
-767.2100219999999
 20
429.0996419999999
 30
0.0
 11
-697.9327910000001
 21
447.1458389999999
 31
0.0
  0
ARC
  5
3F2
330
74
100
AcDbEntity
  8
2
100
AcDbCircle
 10
-709.2763999999999
 20
490.692624
 30
0.0
 40
45.0
100
AcDbArc
 50
284.600642
 51
165.399358
  0
ARC
  5
3F3
330
74
100
AcDbEntity
  8
2
100
AcDbCircle
 10
-767.966263
 20
432.002761
 30
0.0
 40
3.0
100
AcDbArc
 50
165.399358
 51
284.600642
  0
ARC
  5
3F4
330
74
100
AcDbEntity
  8
2
100
AcDbCircle
 10
-687.8256979999999
 20
473.4845629999999
 30
0.0
 40
4.0
100
AcDbArc
 50
353.85973
 51
102.403183
  0
ARC
  5
3F5
330
74
100
AcDbEntity
  8
2
100
AcDbCircle
 10
-692.0683389999999
 20
469.2419219999999
 30
0.0
 40
4.0
100
AcDbArc
 50
167.596817
 51
276.14027
  0
ARC
  5
3F6
330
74
100
AcDbEntity
  8
2
100
AcDbCircle
 10
-730.7271019999999
 20
507.9006859999999
 30
0.0
 40
4.0
100
AcDbArc
 50
173.85973
 51
282.403183
  0
ARC
  5
3F7
330
74
100
AcDbEntity
  8
2
100
AcDbCircle
 10
-726.4844619999999
 20
512.1433259999999
 30
0.0
 40
4.0
100
AcDbArc
 50
347.596817
 51
96.14027
  0
LINE
  5
3F8
330
74
100
AcDbEntity
  8
2
100
AcDbLine
 10
-556.2763999999999
 20
642.2413609999999
 30
0.0
 11
-550.171293
 21
642.2413609999999
 31
0.0
  0
LINE
  5
3F9
330
74
100
AcDbEntity
  8
2
100
AcDbLine
 10
-550.171293
 20
642.2413609999999
 30
0.0
 11
-549.2764
 21
640.691361
 31
0.0
  0
LINE
  5
3FA
330
74
100
AcDbEntity
  8
2
100
AcDbLine
 10
-549.2764
 20
640.691361
 30
0.0
 11
-549.2764
 21
624.191361
 31
0.0
  0
LINE
  5
3FB
330
74
100
AcDbEntity
  8
2
100
AcDbLine
 10
-556.2763999999999
 20
637.341361
 30
0.0
 11
-550.171293
 21
637.341361
 31
0.0
  0
ARC
  5
3FC
330
74
100
AcDbEntity
  8
2
100
AcDbCircle
 10
-553.3208509999999
 20
639.791361
 30
0.0
 40
3.990264999999999
100
AcDbArc
 50
322.121121
 51
37.878879
  0
LINE
  5
3FD
330
74
100
AcDbEntity
  8
2
100
AcDbLine
 10
-556.2763999999999
 20
622.641361
 30
0.0
 11
-550.171293
 21
622.641361
 31
0.0
  0
LINE
  5
3FE
330
74
100
AcDbEntity
  8
2
100
AcDbLine
 10
-550.171293
 20
622.641361
 30
0.0
 11
-549.2764
 21
624.191361
 31
0.0
  0
LINE
  5
3FF
330
74
100
AcDbEntity
  8
2
100
AcDbLine
 10
-556.2763999999999
 20
627.5413610000001
 30
0.0
 11
-550.171293
 21
627.5413610000001
 31
0.0
  0
ARC
  5
400
330
74
100
AcDbEntity
  8
2
100
AcDbCircle
 10
-553.3208509999999
 20
625.091361
 30
0.0
 40
3.990264999999999
100
AcDbArc
 50
322.121121
 51
37.878879
  0
ARC
  5
401
330
74
100
AcDbEntity
  8
2
100
AcDbCircle
 10
-564.030586
 20
632.441361
 30
0.0
 40
14.7
100
AcDbArc
 50
340.528779
 51
19.471221
  0
LINE
  5
402
330
74
100
AcDbEntity
  8
2
100
AcDbLine
 10
-558.7763999999999
 20
641.6413610000001
 30
0.0
 11
-556.2763999999999
 21
641.6413610000001
 31
0.0
  0
LINE
  5
403
330
74
100
AcDbEntity
  8
2
100
AcDbLine
 10
-556.2763999999999
 20
642.2413609999999
 30
0.0
 11
-556.2763999999999
 21
622.641361
 31
0.0
  0
LINE
  5
404
330
74
100
AcDbEntity
  8
2
100
AcDbLine
 10
-556.2763999999999
 20
623.241361
 30
0.0
 11
-558.7763999999999
 21
623.241361
 31
0.0
  0
LINE
  5
405
330
74
100
AcDbEntity
  8
2
100
AcDbLine
 10
-556.2763999999999
 20
632.441361
 30
0.0
 11
-558.7763999999999
 21
631.941361
 31
0.0
  0
LINE
  5
406
330
74
100
AcDbEntity
  8
2
100
AcDbLine
 10
-558.7763999999999
 20
632.441361
 30
0.0
 11
-556.2763999999999
 21
632.941361
 31
0.0
  0
LINE
  5
407
330
74
100
AcDbEntity
  8
2
100
AcDbLine
 10
-556.2763999999999
 20
592.7438869999999
 30
0.0
 11
-550.171293
 21
592.7438869999999
 31
0.0
  0
LINE
  5
408
330
74
100
AcDbEntity
  8
2
100
AcDbLine
 10
-550.171293
 20
592.7438869999999
 30
0.0
 11
-549.2764
 21
591.193887
 31
0.0
  0
LINE
  5
409
330
74
100
AcDbEntity
  8
2
100
AcDbLine
 10
-549.2764
 20
591.193887
 30
0.0
 11
-549.2764
 21
574.693887
 31
0.0
  0
LINE
  5
40A
330
74
100
AcDbEntity
  8
2
100
AcDbLine
 10
-556.2763999999999
 20
587.843887
 30
0.0
 11
-550.171293
 21
587.843887
 31
0.0
  0
ARC
  5
40B
330
74
100
AcDbEntity
  8
2
100
AcDbCircle
 10
-553.3208509999999
 20
590.293887
 30
0.0
 40
3.990264999999999
100
AcDbArc
 50
322.121121
 51
37.878879
  0
LINE
  5
40C
330
74
100
AcDbEntity
  8
2
100
AcDbLine
 10
-556.2763999999999
 20
573.143887
 30
0.0
 11
-550.171293
 21
573.143887
 31
0.0
  0
LINE
  5
40D
330
74
100
AcDbEntity
  8
2
100
AcDbLine
 10
-550.171293
 20
573.143887
 30
0.0
 11
-549.2764
 21
574.693887
 31
0.0
  0
LINE
  5
40E
330
74
100
AcDbEntity
  8
2
100
AcDbLine
 10
-556.2763999999999
 20
578.043887
 30
0.0
 11
-550.171293
 21
578.043887
 31
0.0
  0
ARC
  5
40F
330
74
100
AcDbEntity
  8
2
100
AcDbCircle
 10
-553.3208509999999
 20
575.593887
 30
0.0
 40
3.990264999999999
100
AcDbArc
 50
322.121121
 51
37.878879
  0
ARC
  5
410
330
74
100
AcDbEntity
  8
2
100
AcDbCircle
 10
-564.030586
 20
582.943887
 30
0.0
 40
14.7
100
AcDbArc
 50
340.528779
 51
19.471221
  0
LINE
  5
411
330
74
100
AcDbEntity
  8
2
100
AcDbLine
 10
-558.7763999999999
 20
592.1438870000001
 30
0.0
 11
-556.2763999999999
 21
592.1438870000001
 31
0.0
  0
LINE
  5
412
330
74
100
AcDbEntity
  8
2
100
AcDbLine
 10
-556.2763999999999
 20
592.7438869999999
 30
0.0
 11
-556.2763999999999
 21
573.143887
 31
0.0
  0
LINE
  5
413
330
74
100
AcDbEntity
  8
2
100
AcDbLine
 10
-556.2763999999999
 20
573.743887
 30
0.0
 11
-558.7763999999999
 21
573.743887
 31
0.0
  0
LINE
  5
414
330
74
100
AcDbEntity
  8
2
100
AcDbLine
 10
-556.2763999999999
 20
582.943887
 30
0.0
 11
-558.7763999999999
 21
582.443887
 31
0.0
  0
LINE
  5
415
330
74
100
AcDbEntity
  8
2
100
AcDbLine
 10
-558.7763999999999
 20
582.943887
 30
0.0
 11
-556.2763999999999
 21
583.443887
 31
0.0
  0
LINE
  5
416
330
74
100
AcDbEntity
  8
2
100
AcDbLine
 10
-832.2763999999999
 20
573.143887
 30
0.0
 11
-838.381507
 21
573.143887
 31
0.0
  0
LINE
  5
417
330
74
100
AcDbEntity
  8
2
100
AcDbLine
 10
-838.381507
 20
573.143887
 30
0.0
 11
-839.2763999999999
 21
574.693887
 31
0.0
  0
LINE
  5
418
330
74
100
AcDbEntity
  8
2
100
AcDbLine
 10
-832.2763999999999
 20
578.043887
 30
0.0
 11
-838.381507
 21
578.043887
 31
0.0
  0
ARC
  5
419
330
74
100
AcDbEntity
  8
2
100
AcDbCircle
 10
-835.2319489999999
 20
575.593887
 30
0.0
 40
3.990264999999999
100
AcDbArc
 50
142.121121
 51
217.878879
  0
ARC
  5
41A
330
74
100
AcDbEntity
  8
2
100
AcDbCircle
 10
-824.5222139999999
 20
582.943887
 30
0.0
 40
14.7
100
AcDbArc
 50
160.528782
 51
199.471218
  0
LINE
  5
41B
330
74
100
AcDbEntity
  8
2
100
AcDbLine
 10
-832.2763999999999
 20
592.7438869999999
 30
0.0
 11
-838.381507
 21
592.7438869999999
 31
0.0
  0
LINE
  5
41C
330
74
100
AcDbEntity
  8
2
100
AcDbLine
 10
-838.381507
 20
592.7438869999999
 30
0.0
 11
-839.2763999999999
 21
591.193887
 31
0.0
  0
LINE
  5
41D
330
74
100
AcDbEntity
  8
2
100
AcDbLine
 10
-839.2763999999999
 20
591.193887
 30
0.0
 11
-839.2763999999999
 21
574.693887
 31
0.0
  0
LINE
  5
41E
330
74
100
AcDbEntity
  8
2
100
AcDbLine
 10
-832.2763999999999
 20
587.843887
 30
0.0
 11
-838.381507
 21
587.843887
 31
0.0
  0
ARC
  5
41F
330
74
100
AcDbEntity
  8
2
100
AcDbCircle
 10
-835.2319489999999
 20
590.293887
 30
0.0
 40
3.990264999999999
100
AcDbArc
 50
142.121121
 51
217.878879
  0
LINE
  5
420
330
74
100
AcDbEntity
  8
2
100
AcDbLine
 10
-829.7763999999999
 20
573.743887
 30
0.0
 11
-832.2763999999999
 21
573.743887
 31
0.0
  0
LINE
  5
421
330
74
100
AcDbEntity
  8
2
100
AcDbLine
 10
-832.2763999999999
 20
573.143887
 30
0.0
 11
-832.2763999999999
 21
592.7438869999999
 31
0.0
  0
LINE
  5
422
330
74
100
AcDbEntity
  8
2
100
AcDbLine
 10
-832.2763999999999
 20
592.1438870000001
 30
0.0
 11
-829.7763999999999
 21
592.1438870000001
 31
0.0
  0
LINE
  5
423
330
74
100
AcDbEntity
  8
2
100
AcDbLine
 10
-832.2763999999999
 20
582.943887
 30
0.0
 11
-829.7763999999999
 21
583.443887
 31
0.0
  0
LINE
  5
424
330
74
100
AcDbEntity
  8
2
100
AcDbLine
 10
-829.7763999999999
 20
582.943887
 30
0.0
 11
-832.2763999999999
 21
582.443887
 31
0.0
  0
LINE
  5
425
330
74
100
AcDbEntity
  8
2
100
AcDbLine
 10
-832.2763999999999
 20
622.641361
 30
0.0
 11
-838.381507
 21
622.641361
 31
0.0
  0
LINE
  5
426
330
74
100
AcDbEntity
  8
2
100
AcDbLine
 10
-838.381507
 20
622.641361
 30
0.0
 11
-839.2763999999999
 21
624.191361
 31
0.0
  0
LINE
  5
427
330
74
100
AcDbEntity
  8
2
100
AcDbLine
 10
-839.2763999999999
 20
624.191361
 30
0.0
 11
-839.2763999999999
 21
640.691361
 31
0.0
  0
LINE
  5
428
330
74
100
AcDbEntity
  8
2
100
AcDbLine
 10
-832.2763999999999
 20
627.5413610000001
 30
0.0
 11
-838.381507
 21
627.5413610000001
 31
0.0
  0
ARC
  5
429
330
74
100
AcDbEntity
  8
2
100
AcDbCircle
 10
-835.2319489999999
 20
625.091361
 30
0.0
 40
3.990264999999999
100
AcDbArc
 50
142.121121
 51
217.878879
  0
LINE
  5
42A
330
74
100
AcDbEntity
  8
2
100
AcDbLine
 10
-832.2763999999999
 20
642.2413609999999
 30
0.0
 11
-838.381507
 21
642.2413609999999
 31
0.0
  0
LINE
  5
42B
330
74
100
AcDbEntity
  8
2
100
AcDbLine
 10
-838.381507
 20
642.2413609999999
 30
0.0
 11
-839.2763999999999
 21
640.691361
 31
0.0
  0
LINE
  5
42C
330
74
100
AcDbEntity
  8
2
100
AcDbLine
 10
-832.2763999999999
 20
637.341361
 30
0.0
 11
-838.381507
 21
637.341361
 31
0.0
  0
ARC
  5
42D
330
74
100
AcDbEntity
  8
2
100
AcDbCircle
 10
-835.2319489999999
 20
639.791361
 30
0.0
 40
3.990264999999999
100
AcDbArc
 50
142.121121
 51
217.878879
  0
ARC
  5
42E
330
74
100
AcDbEntity
  8
2
100
AcDbCircle
 10
-824.5222139999999
 20
632.441361
 30
0.0
 40
14.7
100
AcDbArc
 50
160.528782
 51
199.471218
  0
LINE
  5
42F
330
74
100
AcDbEntity
  8
2
100
AcDbLine
 10
-829.7763999999999
 20
623.241361
 30
0.0
 11
-832.2763999999999
 21
623.241361
 31
0.0
  0
LINE
  5
430
330
74
100
AcDbEntity
  8
2
100
AcDbLine
 10
-832.2763999999999
 20
622.641361
 30
0.0
 11
-832.2763999999999
 21
642.2413609999999
 31
0.0
  0
LINE
  5
431
330
74
100
AcDbEntity
  8
2
100
AcDbLine
 10
-832.2763999999999
 20
641.6413610000001
 30
0.0
 11
-829.7763999999999
 21
641.6413610000001
 31
0.0
  0
LINE
  5
432
330
74
100
AcDbEntity
  8
2
100
AcDbLine
 10
-832.2763999999999
 20
632.441361
 30
0.0
 11
-829.7763999999999
 21
632.941361
 31
0.0
  0
LINE
  5
433
330
74
100
AcDbEntity
  8
2
100
AcDbLine
 10
-829.7763999999999
 20
632.441361
 30
0.0
 11
-832.2763999999999
 21
631.941361
 31
0.0
  0
CIRCLE
  5
434
330
74
100
AcDbEntity
  8
2
100
AcDbCircle
 10
-689.8309639999999
 20
471.2471879999999
 30
0.0
 40
6.25
  0
CIRCLE
  5
435
330
74
100
AcDbEntity
  8
2
100
AcDbCircle
 10
-728.721837
 20
510.138061
 30
0.0
 40
6.25
  0
CIRCLE
  5
436
330
74
100
AcDbEntity
  8
2
100
AcDbCircle
 10
-664.311097
 20
599.248469
 30
0.0
 40
4.9
  0
CIRCLE
  5
437
330
74
100
AcDbEntity
  8
2
100
AcDbCircle
 10
-664.311097
 20
599.248469
 30
0.0
 40
6.099999999999999
  0
LINE
  5
438
330
74
100
AcDbEntity
  8
2
100
AcDbLine
 10
-644.2763999999999
 20
364.692624
 30
0.0
 11
-644.2763999999999
 21
361.692624
 31
0.0
  0
LINE
  5
439
330
74
100
AcDbEntity
  8
2
100
AcDbLine
 10
-674.2764
 20
364.692624
 30
0.0
 11
-674.2764
 21
361.692624
 31
0.0
  0
LINE
  5
43A
330
74
100
AcDbEntity
  8
2
100
AcDbLine
 10
-744.2763999999999
 20
364.692624
 30
0.0
 11
-744.2763999999999
 21
361.692624
 31
0.0
  0
LINE
  5
43B
330
74
100
AcDbEntity
  8
2
100
AcDbLine
 10
-774.2764
 20
364.692624
 30
0.0
 11
-774.2764
 21
361.692624
 31
0.0
  0
LINE
  5
43C
330
74
100
AcDbEntity
  8
2
100
AcDbLine
 10
-774.2764
 20
361.692624
 30
0.0
 11
-744.2763999999999
 21
361.692624
 31
0.0
  0
LINE
  5
43D
330
74
100
AcDbEntity
  8
2
100
AcDbLine
 10
-674.2764
 20
361.692624
 30
0.0
 11
-644.2763999999999
 21
361.692624
 31
0.0
  0
LINE
  5
43E
330
74
100
AcDbEntity
  8
2
100
AcDbLine
 10
-645.4263999999999
 20
361.692624
 30
0.0
 11
-645.4263999999999
 21
350.049397
 31
0.0
  0
LINE
  5
43F
330
74
100
AcDbEntity
  8
2
100
AcDbLine
 10
-645.4263999999999
 20
350.049397
 30
0.0
 11
-647.7763999999999
 21
348.692624
 31
0.0
  0
LINE
  5
440
330
74
100
AcDbEntity
  8
2
100
AcDbLine
 10
-647.7763999999999
 20
348.692624
 30
0.0
 11
-670.7764
 21
348.692624
 31
0.0
  0
LINE
  5
441
330
74
100
AcDbEntity
  8
2
100
AcDbLine
 10
-652.3514
 20
361.692624
 30
0.0
 11
-652.3514
 21
350.049397
 31
0.0
  0
ARC
  5
442
330
74
100
AcDbEntity
  8
2
100
AcDbCircle
 10
-648.8889
 20
354.500558
 30
0.0
 40
5.639302999999999
100
AcDbArc
 50
232.121121
 51
307.878879
  0
LINE
  5
443
330
74
100
AcDbEntity
  8
2
100
AcDbLine
 10
-673.1264
 20
361.692624
 30
0.0
 11
-673.1264
 21
350.049397
 31
0.0
  0
LINE
  5
444
330
74
100
AcDbEntity
  8
2
100
AcDbLine
 10
-673.1264
 20
350.049397
 30
0.0
 11
-670.7764
 21
348.692624
 31
0.0
  0
LINE
  5
445
330
74
100
AcDbEntity
  8
2
100
AcDbLine
 10
-666.2014
 20
361.692624
 30
0.0
 11
-666.2014
 21
350.049397
 31
0.0
  0
ARC
  5
446
330
74
100
AcDbEntity
  8
2
100
AcDbCircle
 10
-669.6639
 20
354.500558
 30
0.0
 40
5.639302999999999
100
AcDbArc
 50
232.121121
 51
307.878879
  0
ARC
  5
447
330
74
100
AcDbEntity
  8
2
100
AcDbCircle
 10
-659.2763999999999
 20
369.636255
 30
0.0
 40
20.775
100
AcDbArc
 50
250.528777
 51
289.471219
  0
LINE
  5
448
330
74
100
AcDbEntity
  8
2
100
AcDbLine
 10
-745.4263999999999
 20
361.692624
 30
0.0
 11
-745.4263999999999
 21
350.049397
 31
0.0
  0
LINE
  5
449
330
74
100
AcDbEntity
  8
2
100
AcDbLine
 10
-745.4263999999999
 20
350.049397
 30
0.0
 11
-747.7763999999999
 21
348.692624
 31
0.0
  0
LINE
  5
44A
330
74
100
AcDbEntity
  8
2
100
AcDbLine
 10
-747.7763999999999
 20
348.692624
 30
0.0
 11
-770.7764
 21
348.692624
 31
0.0
  0
LINE
  5
44B
330
74
100
AcDbEntity
  8
2
100
AcDbLine
 10
-752.3514
 20
361.692624
 30
0.0
 11
-752.3514
 21
350.049397
 31
0.0
  0
ARC
  5
44C
330
74
100
AcDbEntity
  8
2
100
AcDbCircle
 10
-748.8889
 20
354.500558
 30
0.0
 40
5.639302999999999
100
AcDbArc
 50
232.121121
 51
307.878879
  0
ARC
  5
44D
330
74
100
AcDbEntity
  8
2
100
AcDbCircle
 10
-759.2763999999999
 20
369.636255
 30
0.0
 40
20.775
100
AcDbArc
 50
250.528777
 51
289.471219
  0
LINE
  5
44E
330
74
100
AcDbEntity
  8
2
100
AcDbLine
 10
-773.1264
 20
361.692624
 30
0.0
 11
-773.1264
 21
350.049397
 31
0.0
  0
LINE
  5
44F
330
74
100
AcDbEntity
  8
2
100
AcDbLine
 10
-773.1264
 20
350.049397
 30
0.0
 11
-770.7764
 21
348.692624
 31
0.0
  0
LINE
  5
450
330
74
100
AcDbEntity
  8
2
100
AcDbLine
 10
-766.2014
 20
361.692624
 30
0.0
 11
-766.2014
 21
350.049397
 31
0.0
  0
ARC
  5
451
330
74
100
AcDbEntity
  8
2
100
AcDbCircle
 10
-769.6639
 20
354.500558
 30
0.0
 40
5.639302999999999
100
AcDbArc
 50
232.121121
 51
307.878879
  0
LINE
  5
452
330
74
100
AcDbEntity
  8
2
100
AcDbLine
 10
-645.4263999999999
 20
336.692624
 30
0.0
 11
-645.4263999999999
 21
328.049397
 31
0.0
  0
LINE
  5
453
330
74
100
AcDbEntity
  8
2
100
AcDbLine
 10
-645.4263999999999
 20
328.049397
 30
0.0
 11
-647.7763999999999
 21
326.692624
 31
0.0
  0
LINE
  5
454
330
74
100
AcDbEntity
  8
2
100
AcDbLine
 10
-652.3514
 20
336.692624
 30
0.0
 11
-652.3514
 21
328.049397
 31
0.0
  0
ARC
  5
455
330
74
100
AcDbEntity
  8
2
100
AcDbCircle
 10
-648.8889
 20
332.500558
 30
0.0
 40
5.639302999999999
100
AcDbArc
 50
232.121121
 51
307.878879
  0
ARC
  5
456
330
74
100
AcDbEntity
  8
2
100
AcDbCircle
 10
-659.2763999999999
 20
347.636255
 30
0.0
 40
20.775
100
AcDbArc
 50
250.528777
 51
289.471219
  0
LINE
  5
457
330
74
100
AcDbEntity
  8
2
100
AcDbLine
 10
-651.2763999999999
 20
348.692624
 30
0.0
 11
-651.2763999999999
 21
336.692624
 31
0.0
  0
LINE
  5
458
330
74
100
AcDbEntity
  8
2
 62
     2
100
AcDbLine
 10
-652.3588999999999
 20
348.692624
 30
0.0
 11
-652.3588999999999
 21
343.6101240000001
 31
0.0
  0
LINE
  5
459
330
74
100
AcDbEntity
  8
2
 62
     2
100
AcDbLine
 10
-652.3588999999999
 20
343.6101240000001
 30
0.0
 11
-651.2763999999999
 21
336.692624
 31
0.0
  0
LINE
  5
45A
330
74
100
AcDbEntity
  8
2
100
AcDbLine
 10
-645.4263999999999
 20
336.692624
 30
0.0
 11
-673.1264
 21
336.692624
 31
0.0
  0
LINE
  5
45B
330
74
100
AcDbEntity
  8
2
100
AcDbLine
 10
-673.1264
 20
336.692624
 30
0.0
 11
-673.1264
 21
328.049397
 31
0.0
  0
LINE
  5
45C
330
74
100
AcDbEntity
  8
2
100
AcDbLine
 10
-673.1264
 20
328.049397
 30
0.0
 11
-670.7764
 21
326.692624
 31
0.0
  0
LINE
  5
45D
330
74
100
AcDbEntity
  8
2
100
AcDbLine
 10
-670.7764
 20
326.692624
 30
0.0
 11
-647.7763999999999
 21
326.692624
 31
0.0
  0
LINE
  5
45E
330
74
100
AcDbEntity
  8
2
100
AcDbLine
 10
-666.2014
 20
336.692624
 30
0.0
 11
-666.2014
 21
328.049397
 31
0.0
  0
ARC
  5
45F
330
74
100
AcDbEntity
  8
2
100
AcDbCircle
 10
-669.6639
 20
332.500558
 30
0.0
 40
5.639302999999999
100
AcDbArc
 50
232.121121
 51
307.878879
  0
LINE
  5
460
330
74
100
AcDbEntity
  8
2
100
AcDbLine
 10
-667.2763999999999
 20
348.692624
 30
0.0
 11
-667.2763999999999
 21
336.692624
 31
0.0
  0
LINE
  5
461
330
74
100
AcDbEntity
  8
2
100
AcDbLine
 10
-651.2763999999999
 20
343.6101240000001
 30
0.0
 11
-667.2763999999999
 21
343.6101240000001
 31
0.0
  0
LINE
  5
462
330
74
100
AcDbEntity
  8
2
 62
     2
100
AcDbLine
 10
-666.1939
 20
348.692624
 30
0.0
 11
-666.1939
 21
343.6101240000001
 31
0.0
  0
LINE
  5
463
330
74
100
AcDbEntity
  8
2
 62
     2
100
AcDbLine
 10
-666.1939
 20
343.6101240000001
 30
0.0
 11
-667.2763999999999
 21
336.692624
 31
0.0
  0
LINE
  5
464
330
74
100
AcDbEntity
  8
2
100
AcDbLine
 10
-745.4263999999999
 20
336.692624
 30
0.0
 11
-745.4263999999999
 21
328.049397
 31
0.0
  0
LINE
  5
465
330
74
100
AcDbEntity
  8
2
100
AcDbLine
 10
-745.4263999999999
 20
328.049397
 30
0.0
 11
-747.7763999999999
 21
326.692624
 31
0.0
  0
LINE
  5
466
330
74
100
AcDbEntity
  8
2
100
AcDbLine
 10
-752.3514
 20
336.692624
 30
0.0
 11
-752.3514
 21
328.049397
 31
0.0
  0
ARC
  5
467
330
74
100
AcDbEntity
  8
2
100
AcDbCircle
 10
-748.8889
 20
332.500558
 30
0.0
 40
5.639302999999999
100
AcDbArc
 50
232.121121
 51
307.878879
  0
ARC
  5
468
330
74
100
AcDbEntity
  8
2
100
AcDbCircle
 10
-759.2763999999999
 20
347.636255
 30
0.0
 40
20.775
100
AcDbArc
 50
250.528777
 51
289.471219
  0
LINE
  5
469
330
74
100
AcDbEntity
  8
2
100
AcDbLine
 10
-751.2763999999999
 20
348.692624
 30
0.0
 11
-751.2763999999999
 21
336.692624
 31
0.0
  0
LINE
  5
46A
330
74
100
AcDbEntity
  8
2
 62
     2
100
AcDbLine
 10
-752.3588999999999
 20
348.692624
 30
0.0
 11
-752.3588999999999
 21
343.6101240000001
 31
0.0
  0
LINE
  5
46B
330
74
100
AcDbEntity
  8
2
 62
     2
100
AcDbLine
 10
-752.3588999999999
 20
343.6101240000001
 30
0.0
 11
-751.2763999999999
 21
336.692624
 31
0.0
  0
LINE
  5
46C
330
74
100
AcDbEntity
  8
2
100
AcDbLine
 10
-745.4263999999999
 20
336.692624
 30
0.0
 11
-773.1264
 21
336.692624
 31
0.0
  0
LINE
  5
46D
330
74
100
AcDbEntity
  8
2
100
AcDbLine
 10
-773.1264
 20
336.692624
 30
0.0
 11
-773.1264
 21
328.049397
 31
0.0
  0
LINE
  5
46E
330
74
100
AcDbEntity
  8
2
100
AcDbLine
 10
-773.1264
 20
328.049397
 30
0.0
 11
-770.7764
 21
326.692624
 31
0.0
  0
LINE
  5
46F
330
74
100
AcDbEntity
  8
2
100
AcDbLine
 10
-770.7764
 20
326.692624
 30
0.0
 11
-747.7763999999999
 21
326.692624
 31
0.0
  0
LINE
  5
470
330
74
100
AcDbEntity
  8
2
100
AcDbLine
 10
-766.2014
 20
336.692624
 30
0.0
 11
-766.2014
 21
328.049397
 31
0.0
  0
ARC
  5
471
330
74
100
AcDbEntity
  8
2
100
AcDbCircle
 10
-769.6639
 20
332.500558
 30
0.0
 40
5.639302999999999
100
AcDbArc
 50
232.121121
 51
307.878879
  0
LINE
  5
472
330
74
100
AcDbEntity
  8
2
100
AcDbLine
 10
-767.2763999999999
 20
348.692624
 30
0.0
 11
-767.2763999999999
 21
336.692624
 31
0.0
  0
LINE
  5
473
330
74
100
AcDbEntity
  8
2
100
AcDbLine
 10
-751.2763999999999
 20
343.6101240000001
 30
0.0
 11
-767.2763999999999
 21
343.6101240000001
 31
0.0
  0
LINE
  5
474
330
74
100
AcDbEntity
  8
2
 62
     2
100
AcDbLine
 10
-766.1939
 20
348.692624
 30
0.0
 11
-766.1939
 21
343.6101240000001
 31
0.0
  0
LINE
  5
475
330
74
100
AcDbEntity
  8
2
 62
     2
100
AcDbLine
 10
-766.1939
 20
343.6101240000001
 30
0.0
 11
-767.2763999999999
 21
336.692624
 31
0.0
  0
LINE
  5
476
330
74
100
AcDbEntity
  8
2
100
AcDbLine
 10
-661.4243459999999
 20
604.248469
 30
0.0
 11
-667.1978479999999
 21
604.248469
 31
0.0
  0
LINE
  5
477
330
74
100
AcDbEntity
  8
2
100
AcDbLine
 10
-661.4243459999999
 20
594.2484689999999
 30
0.0
 11
-667.1978479999999
 21
594.2484689999999
 31
0.0
  0
LINE
  5
478
330
74
100
AcDbEntity
  8
2
100
AcDbLine
 10
-667.1978479999999
 20
604.248469
 30
0.0
 11
-670.0846
 21
599.248469
 31
0.0
  0
LINE
  5
479
330
74
100
AcDbEntity
  8
2
100
AcDbLine
 10
-658.537594
 20
599.248469
 30
0.0
 11
-661.4243459999999
 21
594.2484689999999
 31
0.0
  0
LINE
  5
47A
330
74
100
AcDbEntity
  8
2
100
AcDbLine
 10
-670.0846
 20
599.248469
 30
0.0
 11
-667.1978479999999
 21
594.2484689999999
 31
0.0
  0
LINE
  5
47B
330
74
100
AcDbEntity
  8
2
100
AcDbLine
 10
-661.4243459999999
 20
604.248469
 30
0.0
 11
-658.537594
 21
599.248469
 31
0.0
  0
CIRCLE
  5
47C
330
74
100
AcDbEntity
  8
2
100
AcDbCircle
 10
-754.241703
 20
599.248469
 30
0.0
 40
4.9
  0
CIRCLE
  5
47D
330
74
100
AcDbEntity
  8
2
100
AcDbCircle
 10
-754.241703
 20
599.248469
 30
0.0
 40
6.099999999999999
  0
LINE
  5
47E
330
74
100
AcDbEntity
  8
2
100
AcDbLine
 10
-751.3549519999998
 20
604.248469
 30
0.0
 11
-757.128455
 21
604.248469
 31
0.0
  0
LINE
  5
47F
330
74
100
AcDbEntity
  8
2
100
AcDbLine
 10
-751.3549519999998
 20
594.2484689999999
 30
0.0
 11
-757.128455
 21
594.2484689999999
 31
0.0
  0
LINE
  5
480
330
74
100
AcDbEntity
  8
2
100
AcDbLine
 10
-757.128455
 20
604.248469
 30
0.0
 11
-760.0152059999999
 21
599.248469
 31
0.0
  0
LINE
  5
481
330
74
100
AcDbEntity
  8
2
100
AcDbLine
 10
-748.468201
 20
599.248469
 30
0.0
 11
-751.3549519999998
 21
594.2484689999999
 31
0.0
  0
LINE
  5
482
330
74
100
AcDbEntity
  8
2
100
AcDbLine
 10
-760.0152059999999
 20
599.248469
 30
0.0
 11
-757.128455
 21
594.2484689999999
 31
0.0
  0
LINE
  5
483
330
74
100
AcDbEntity
  8
2
100
AcDbLine
 10
-751.3549519999998
 20
604.248469
 30
0.0
 11
-748.468201
 21
599.248469
 31
0.0
  0
CIRCLE
  5
484
330
74
100
AcDbEntity
  8
2
100
AcDbCircle
 10
-600.720555
 20
535.657927
 30
0.0
 40
4.9
  0
CIRCLE
  5
485
330
74
100
AcDbEntity
  8
2
100
AcDbCircle
 10
-600.720555
 20
535.657927
 30
0.0
 40
6.099999999999999
  0
LINE
  5
486
330
74
100
AcDbEntity
  8
2
100
AcDbLine
 10
-597.8338039999999
 20
540.6579269999999
 30
0.0
 11
-603.6073059999999
 21
540.6579269999999
 31
0.0
  0
LINE
  5
487
330
74
100
AcDbEntity
  8
2
100
AcDbLine
 10
-597.8338039999999
 20
530.6579269999999
 30
0.0
 11
-603.6073059999999
 21
530.6579269999999
 31
0.0
  0
LINE
  5
488
330
74
100
AcDbEntity
  8
2
100
AcDbLine
 10
-603.6073059999999
 20
540.6579269999999
 30
0.0
 11
-606.494058
 21
535.657927
 31
0.0
  0
LINE
  5
489
330
74
100
AcDbEntity
  8
2
100
AcDbLine
 10
-594.947052
 20
535.657927
 30
0.0
 11
-597.8338039999999
 21
530.6579269999999
 31
0.0
  0
LINE
  5
48A
330
74
100
AcDbEntity
  8
2
100
AcDbLine
 10
-606.494058
 20
535.657927
 30
0.0
 11
-603.6073059999999
 21
530.6579269999999
 31
0.0
  0
LINE
  5
48B
330
74
100
AcDbEntity
  8
2
100
AcDbLine
 10
-597.8338039999999
 20
540.6579269999999
 30
0.0
 11
-594.947052
 21
535.657927
 31
0.0
  0
CIRCLE
  5
48C
330
74
100
AcDbEntity
  8
2
100
AcDbCircle
 10
-600.720555
 20
445.727321
 30
0.0
 40
4.9
  0
CIRCLE
  5
48D
330
74
100
AcDbEntity
  8
2
100
AcDbCircle
 10
-600.720555
 20
445.727321
 30
0.0
 40
6.099999999999999
  0
LINE
  5
48E
330
74
100
AcDbEntity
  8
2
100
AcDbLine
 10
-597.8338039999999
 20
450.727321
 30
0.0
 11
-603.6073059999999
 21
450.727321
 31
0.0
  0
LINE
  5
48F
330
74
100
AcDbEntity
  8
2
100
AcDbLine
 10
-597.8338039999999
 20
440.727321
 30
0.0
 11
-603.6073059999999
 21
440.727321
 31
0.0
  0
LINE
  5
490
330
74
100
AcDbEntity
  8
2
100
AcDbLine
 10
-603.6073059999999
 20
450.727321
 30
0.0
 11
-606.494058
 21
445.727321
 31
0.0
  0
LINE
  5
491
330
74
100
AcDbEntity
  8
2
100
AcDbLine
 10
-594.947052
 20
445.727321
 30
0.0
 11
-597.8338039999999
 21
440.727321
 31
0.0
  0
LINE
  5
492
330
74
100
AcDbEntity
  8
2
100
AcDbLine
 10
-606.494058
 20
445.727321
 30
0.0
 11
-603.6073059999999
 21
440.727321
 31
0.0
  0
LINE
  5
493
330
74
100
AcDbEntity
  8
2
100
AcDbLine
 10
-597.8338039999999
 20
450.727321
 30
0.0
 11
-594.947052
 21
445.727321
 31
0.0
  0
CIRCLE
  5
494
330
74
100
AcDbEntity
  8
2
100
AcDbCircle
 10
-664.311097
 20
382.136779
 30
0.0
 40
4.9
  0
CIRCLE
  5
495
330
74
100
AcDbEntity
  8
2
100
AcDbCircle
 10
-664.311097
 20
382.136779
 30
0.0
 40
6.099999999999999
  0
LINE
  5
496
330
74
100
AcDbEntity
  8
2
100
AcDbLine
 10
-661.4243459999999
 20
387.136779
 30
0.0
 11
-667.1978479999999
 21
387.136779
 31
0.0
  0
LINE
  5
497
330
74
100
AcDbEntity
  8
2
100
AcDbLine
 10
-661.4243459999999
 20
377.136779
 30
0.0
 11
-667.1978479999999
 21
377.136779
 31
0.0
  0
LINE
  5
498
330
74
100
AcDbEntity
  8
2
100
AcDbLine
 10
-667.1978479999999
 20
387.136779
 30
0.0
 11
-670.0846
 21
382.136779
 31
0.0
  0
LINE
  5
499
330
74
100
AcDbEntity
  8
2
100
AcDbLine
 10
-658.537594
 20
382.136779
 30
0.0
 11
-661.4243459999999
 21
377.136779
 31
0.0
  0
LINE
  5
49A
330
74
100
AcDbEntity
  8
2
100
AcDbLine
 10
-670.0846
 20
382.136779
 30
0.0
 11
-667.1978479999999
 21
377.136779
 31
0.0
  0
LINE
  5
49B
330
74
100
AcDbEntity
  8
2
100
AcDbLine
 10
-661.4243459999999
 20
387.136779
 30
0.0
 11
-658.537594
 21
382.136779
 31
0.0
  0
CIRCLE
  5
49C
330
74
100
AcDbEntity
  8
2
100
AcDbCircle
 10
-817.8322450000001
 20
535.657927
 30
0.0
 40
4.9
  0
CIRCLE
  5
49D
330
74
100
AcDbEntity
  8
2
100
AcDbCircle
 10
-817.8322450000001
 20
535.657927
 30
0.0
 40
6.099999999999999
  0
LINE
  5
49E
330
74
100
AcDbEntity
  8
2
100
AcDbLine
 10
-814.945494
 20
540.6579269999999
 30
0.0
 11
-820.7189969999999
 21
540.6579269999999
 31
0.0
  0
LINE
  5
49F
330
74
100
AcDbEntity
  8
2
100
AcDbLine
 10
-814.945494
 20
530.6579269999999
 30
0.0
 11
-820.7189969999999
 21
530.6579269999999
 31
0.0
  0
LINE
  5
4A0
330
74
100
AcDbEntity
  8
2
100
AcDbLine
 10
-820.7189969999999
 20
540.6579269999999
 30
0.0
 11
-823.6057480000001
 21
535.657927
 31
0.0
  0
LINE
  5
4A1
330
74
100
AcDbEntity
  8
2
100
AcDbLine
 10
-812.0587429999998
 20
535.657927
 30
0.0
 11
-814.945494
 21
530.6579269999999
 31
0.0
  0
LINE
  5
4A2
330
74
100
AcDbEntity
  8
2
100
AcDbLine
 10
-823.6057480000001
 20
535.657927
 30
0.0
 11
-820.7189969999999
 21
530.6579269999999
 31
0.0
  0
LINE
  5
4A3
330
74
100
AcDbEntity
  8
2
100
AcDbLine
 10
-814.945494
 20
540.6579269999999
 30
0.0
 11
-812.0587429999998
 21
535.657927
 31
0.0
  0
CIRCLE
  5
4A4
330
74
100
AcDbEntity
  8
2
100
AcDbCircle
 10
-817.8322450000001
 20
445.727321
 30
0.0
 40
4.9
  0
CIRCLE
  5
4A5
330
74
100
AcDbEntity
  8
2
100
AcDbCircle
 10
-817.8322450000001
 20
445.727321
 30
0.0
 40
6.099999999999999
  0
LINE
  5
4A6
330
74
100
AcDbEntity
  8
2
100
AcDbLine
 10
-814.945494
 20
450.727321
 30
0.0
 11
-820.7189969999999
 21
450.727321
 31
0.0
  0
LINE
  5
4A7
330
74
100
AcDbEntity
  8
2
100
AcDbLine
 10
-814.945494
 20
440.727321
 30
0.0
 11
-820.7189969999999
 21
440.727321
 31
0.0
  0
LINE
  5
4A8
330
74
100
AcDbEntity
  8
2
100
AcDbLine
 10
-820.7189969999999
 20
450.727321
 30
0.0
 11
-823.6057480000001
 21
445.727321
 31
0.0
  0
LINE
  5
4A9
330
74
100
AcDbEntity
  8
2
100
AcDbLine
 10
-812.0587429999998
 20
445.727321
 30
0.0
 11
-814.945494
 21
440.727321
 31
0.0
  0
LINE
  5
4AA
330
74
100
AcDbEntity
  8
2
100
AcDbLine
 10
-823.6057480000001
 20
445.727321
 30
0.0
 11
-820.7189969999999
 21
440.727321
 31
0.0
  0
LINE
  5
4AB
330
74
100
AcDbEntity
  8
2
100
AcDbLine
 10
-814.945494
 20
450.727321
 30
0.0
 11
-812.0587429999998
 21
445.727321
 31
0.0
  0
CIRCLE
  5
4AC
330
74
100
AcDbEntity
  8
2
100
AcDbCircle
 10
-754.241703
 20
382.136779
 30
0.0
 40
4.9
  0
CIRCLE
  5
4AD
330
74
100
AcDbEntity
  8
2
100
AcDbCircle
 10
-754.241703
 20
382.136779
 30
0.0
 40
6.099999999999999
  0
LINE
  5
4AE
330
74
100
AcDbEntity
  8
2
100
AcDbLine
 10
-751.3549519999998
 20
387.136779
 30
0.0
 11
-757.128455
 21
387.136779
 31
0.0
  0
LINE
  5
4AF
330
74
100
AcDbEntity
  8
2
100
AcDbLine
 10
-751.3549519999998
 20
377.136779
 30
0.0
 11
-757.128455
 21
377.136779
 31
0.0
  0
LINE
  5
4B0
330
74
100
AcDbEntity
  8
2
100
AcDbLine
 10
-757.128455
 20
387.136779
 30
0.0
 11
-760.0152059999999
 21
382.136779
 31
0.0
  0
LINE
  5
4B1
330
74
100
AcDbEntity
  8
2
100
AcDbLine
 10
-748.468201
 20
382.136779
 30
0.0
 11
-751.3549519999998
 21
377.136779
 31
0.0
  0
LINE
  5
4B2
330
74
100
AcDbEntity
  8
2
100
AcDbLine
 10
-760.0152059999999
 20
382.136779
 30
0.0
 11
-757.128455
 21
377.136779
 31
0.0
  0
LINE
  5
4B3
330
74
100
AcDbEntity
  8
2
100
AcDbLine
 10
-751.3549519999998
 20
387.136779
 30
0.0
 11
-748.468201
 21
382.136779
 31
0.0
  0
CIRCLE
  5
4B4
330
74
100
AcDbEntity
  8
2
100
AcDbCircle
 10
-689.8309639999999
 20
471.2471879999999
 30
0.0
 40
4.9
  0
LINE
  5
4B5
330
74
100
AcDbEntity
  8
2
100
AcDbLine
 10
-686.944212
 20
476.2471879999999
 30
0.0
 11
-692.717715
 21
476.2471879999999
 31
0.0
  0
LINE
  5
4B6
330
74
100
AcDbEntity
  8
2
100
AcDbLine
 10
-686.944212
 20
466.247188
 30
0.0
 11
-692.717715
 21
466.247188
 31
0.0
  0
LINE
  5
4B7
330
74
100
AcDbEntity
  8
2
100
AcDbLine
 10
-692.717715
 20
476.2471879999999
 30
0.0
 11
-695.6044659999999
 21
471.2471879999999
 31
0.0
  0
LINE
  5
4B8
330
74
100
AcDbEntity
  8
2
100
AcDbLine
 10
-684.0574609999999
 20
471.2471879999999
 30
0.0
 11
-686.944212
 21
466.247188
 31
0.0
  0
LINE
  5
4B9
330
74
100
AcDbEntity
  8
2
100
AcDbLine
 10
-695.6044659999999
 20
471.2471879999999
 30
0.0
 11
-692.717715
 21
466.247188
 31
0.0
  0
LINE
  5
4BA
330
74
100
AcDbEntity
  8
2
100
AcDbLine
 10
-686.944212
 20
476.2471879999999
 30
0.0
 11
-684.0574609999999
 21
471.2471879999999
 31
0.0
  0
CIRCLE
  5
4BB
330
74
100
AcDbEntity
  8
2
100
AcDbCircle
 10
-728.721837
 20
510.138061
 30
0.0
 40
4.9
  0
LINE
  5
4BC
330
74
100
AcDbEntity
  8
2
100
AcDbLine
 10
-725.8350849999999
 20
515.138061
 30
0.0
 11
-731.6085879999999
 21
515.138061
 31
0.0
  0
LINE
  5
4BD
330
74
100
AcDbEntity
  8
2
100
AcDbLine
 10
-725.8350849999999
 20
505.138061
 30
0.0
 11
-731.6085879999999
 21
505.138061
 31
0.0
  0
LINE
  5
4BE
330
74
100
AcDbEntity
  8
2
100
AcDbLine
 10
-731.6085879999999
 20
515.138061
 30
0.0
 11
-734.4953389999999
 21
510.138061
 31
0.0
  0
LINE
  5
4BF
330
74
100
AcDbEntity
  8
2
100
AcDbLine
 10
-722.9483339999999
 20
510.138061
 30
0.0
 11
-725.8350849999999
 21
505.138061
 31
0.0
  0
LINE
  5
4C0
330
74
100
AcDbEntity
  8
2
100
AcDbLine
 10
-734.4953389999999
 20
510.138061
 30
0.0
 11
-731.6085879999999
 21
505.138061
 31
0.0
  0
LINE
  5
4C1
330
74
100
AcDbEntity
  8
2
100
AcDbLine
 10
-725.8350849999999
 20
515.138061
 30
0.0
 11
-722.9483339999999
 21
510.138061
 31
0.0
  0
TEXT
  5
4C2
330
74
100
AcDbEntity
  8
2
100
AcDbText
 10
-729.521995
 20
578.38593
 30
0.0
 40
14.0
  1
Ｅ
 50
13.0
100
AcDbText
  0
TEXT
  5
4C3
330
74
100
AcDbEntity
  8
2
100
AcDbText
 10
-725.0229739999999
 20
558.898529
 30
0.0
 40
10.0
  1
Ａ
 50
13.0
100
AcDbText
  0
TEXT
  5
4C4
330
74
100
AcDbEntity
  8
2
100
AcDbText
 10
-734.362157
 20
556.043254
 30
0.0
 40
10.0
  1
Ｋ
 50
21.0
100
AcDbText
  0
TEXT
  5
4C5
330
74
100
AcDbEntity
  8
2
100
AcDbText
 10
-743.2130739999999
 20
551.916004
 30
0.0
 40
10.0
  1
Ａ
 50
29.0
100
AcDbText
  0
TEXT
  5
4C6
330
74
100
AcDbEntity
  8
2
100
AcDbText
 10
-751.4034519999999
 20
546.5971099999999
 30
0.0
 40
10.0
  1
Ｓ
 50
37.0
100
AcDbText
  0
TEXT
  5
4C7
330
74
100
AcDbEntity
  8
2
100
AcDbText
 10
-758.7738749999999
 20
540.190099
 30
0.0
 40
10.0
  1
Ｏ
 50
45.0
100
AcDbText
  0
TEXT
  5
4C8
330
74
100
AcDbEntity
  8
2
100
AcDbText
 10
-703.2735269999999
 20
561.1480389999999
 30
0.0
 40
10.0
  1
Ｊ
 50
347.0
100
AcDbText
  0
TEXT
  5
4C9
330
74
100
AcDbEntity
  8
2
100
AcDbText
 10
-693.526448
 20
559.626933
 30
0.0
 40
10.0
  1
Ａ
 50
339.0
100
AcDbText
  0
TEXT
  5
4CA
330
74
100
AcDbEntity
  8
2
100
AcDbText
 10
-684.085924
 20
556.7641
 30
0.0
 40
10.0
  1
Ｐ
 50
331.0
100
AcDbText
  0
TEXT
  5
4CB
330
74
100
AcDbEntity
  8
2
100
AcDbText
 10
-675.135704
 20
552.6152599999999
 30
0.0
 40
10.0
  1
Ａ
 50
323.0
100
AcDbText
  0
TEXT
  5
4CC
330
74
100
AcDbEntity
  8
2
100
AcDbText
 10
-666.8499929999999
 20
547.261167
 30
0.0
 40
10.0
  1
Ｎ
 50
315.0
100
AcDbText
  0
TEXT
  5
4CD
330
74
100
AcDbEntity
  8
2
100
AcDbText
 10
-741.529516
 20
574.714862
 30
0.0
 40
14.0
  1
Ｏ
 50
21.0
100
AcDbText
  0
TEXT
  5
4CE
330
74
100
AcDbEntity
  8
2
100
AcDbText
 10
-752.9092659999999
 20
569.408398
 30
0.0
 40
14.0
  1
Ｍ
 50
29.0
100
AcDbText
  0
TEXT
  5
4CF
330
74
100
AcDbEntity
  8
2
100
AcDbText
 10
-763.439752
 20
562.56982
 30
0.0
 40
14.0
  1
Ｏ
 50
37.0
100
AcDbText
  0
TEXT
  5
4D0
330
74
100
AcDbEntity
  8
2
100
AcDbText
 10
-772.9160099999999
 20
554.3322339999999
 30
0.0
 40
14.0
  1
Ｔ
 50
45.0
100
AcDbText
  0
TEXT
  5
4D1
330
74
100
AcDbEntity
  8
2
100
AcDbText
 10
-702.671986
 20
581.535245
 30
0.0
 40
14.0
  1
Ｖ
 50
347.0
100
AcDbText
  0
TEXT
  5
4D2
330
74
100
AcDbEntity
  8
2
100
AcDbText
 10
-690.093411
 20
579.7320139999999
 30
0.0
 40
14.0
  1
Ａ
 50
339.0
100
AcDbText
  0
TEXT
  5
4D3
330
74
100
AcDbEntity
  8
2
100
AcDbText
 10
-677.8882099999999
 20
576.195732
 30
0.0
 40
14.0
  1
Ｌ
 50
331.0
100
AcDbText
  0
TEXT
  5
4D4
330
74
100
AcDbEntity
  8
2
100
AcDbText
 10
-666.293945
 20
570.99523
 30
0.0
 40
14.0
  1
Ｖ
 50
323.0
100
AcDbText
  0
TEXT
  5
4D5
330
74
100
AcDbEntity
  8
2
100
AcDbText
 10
-655.5362849999998
 20
564.231729
 30
0.0
 40
14.0
  1
Ｅ
 50
315.0
100
AcDbText
  0
LINE
  5
4D6
330
74
100
AcDbEntity
  8
2
100
AcDbLine
 10
-409.1764
 20
624.9926239999999
 30
0.0
 11
-404.2764
 21
624.9926239999999
 31
0.0
  0
LINE
  5
4D7
330
74
100
AcDbEntity
  8
2
100
AcDbLine
 10
-409.1764
 20
616.3426239999999
 30
0.0
 11
-404.2764
 21
616.3426239999999
 31
0.0
  0
LINE
  5
4D8
330
74
100
AcDbEntity
  8
2
100
AcDbLine
 10
-409.1764
 20
590.392624
 30
0.0
 11
-404.2764
 21
590.392624
 31
0.0
  0
LINE
  5
4D9
330
74
100
AcDbEntity
  8
2
100
AcDbLine
 10
-409.1764
 20
599.042624
 30
0.0
 11
-404.2764
 21
599.042624
 31
0.0
  0
LINE
  5
4DA
330
74
100
AcDbEntity
  8
2
100
AcDbLine
 10
-413.9801289999999
 20
624.592624
 30
0.0
 11
-409.1764
 21
624.592624
 31
0.0
  0
LINE
  5
4DB
330
74
100
AcDbEntity
  8
2
100
AcDbLine
 10
-409.1764
 20
624.9926239999999
 30
0.0
 11
-409.1764
 21
590.392624
 31
0.0
  0
LINE
  5
4DC
330
74
100
AcDbEntity
  8
2
100
AcDbLine
 10
-409.1764
 20
590.792624
 30
0.0
 11
-413.9801289999999
 21
590.792624
 31
0.0
  0
LINE
  5
4DD
330
74
100
AcDbEntity
  8
2
100
AcDbLine
 10
-409.1764
 20
607.692624
 30
0.0
 11
-414.2764
 21
606.692624
 31
0.0
  0
LINE
  5
4DE
330
74
100
AcDbEntity
  8
2
100
AcDbLine
 10
-414.2764
 20
607.692624
 30
0.0
 11
-409.1764
 21
608.692624
 31
0.0
  0
LINE
  5
4DF
330
74
100
AcDbEntity
  8
2
100
AcDbLine
 10
-378.2764
 20
780.391308
 30
0.0
 11
-378.2764
 21
434.99394
 31
0.0
  0
LINE
  5
4E0
330
74
100
AcDbEntity
  8
2
100
AcDbLine
 10
-404.2764
 20
780.391308
 30
0.0
 11
-404.2764
 21
434.99394
 31
0.0
  0
ARC
  5
4E1
330
74
100
AcDbEntity
  8
2
100
AcDbCircle
 10
-391.2764
 20
450.192624
 30
0.0
 40
20.0
100
AcDbArc
 50
229.458398
 51
310.541602
  0
ARC
  5
4E2
330
74
100
AcDbEntity
  8
2
100
AcDbCircle
 10
-391.2764
 20
765.192624
 30
0.0
 40
20.0
100
AcDbArc
 50
49.45839799999999
 51
130.541602
  0
LINE
  5
4E3
330
74
100
AcDbEntity
  8
2
100
AcDbLine
 10
-450.2763999999999
 20
635.1512569999999
 30
0.0
 11
-450.2763999999999
 21
580.233991
 31
0.0
  0
ARC
  5
4E4
330
74
100
AcDbEntity
  8
2
100
AcDbCircle
 10
-432.2764
 20
607.8926240000001
 30
0.0
 40
33.0
100
AcDbArc
 50
236.944269
 51
257.609396
  0
LINE
  5
4E5
330
74
100
AcDbEntity
  8
2
100
AcDbLine
 10
-414.2764
 20
624.130269
 30
0.0
 11
-414.2764
 21
591.254979
 31
0.0
  0
LINE
  5
4E6
330
74
100
AcDbEntity
  8
2
100
AcDbLine
 10
-437.325728
 20
599.1348649999999
 30
0.0
 11
-404.2764
 21
547.558703
 31
0.0
  0
LINE
  5
4E7
330
74
100
AcDbEntity
  8
2
100
AcDbLine
 10
-404.2764
 20
524.3178509999999
 30
0.0
 11
-437.3042769999999
 21
573.431436
 31
0.0
  0
LINE
  5
4E8
330
74
100
AcDbEntity
  8
2
100
AcDbLine
 10
-420.3033869999999
 20
600.6605819999999
 30
0.0
 11
-404.2764
 21
575.649166
 31
0.0
  0
ARC
  5
4E9
330
74
100
AcDbEntity
  8
2
100
AcDbCircle
 10
-445.6024509999999
 20
567.851085
 30
0.0
 40
10.0
100
AcDbArc
 50
33.92002100000001
 51
90.0
  0
ARC
  5
4EA
330
74
100
AcDbEntity
  8
2
100
AcDbCircle
 10
-445.745433
 20
593.739629
 30
0.0
 40
10.0
100
AcDbArc
 50
32.651215
 51
90.0
  0
ARC
  5
4EB
330
74
100
AcDbEntity
  8
2
100
AcDbCircle
 10
-418.619446
 20
601.739629
 30
0.0
 40
2.0
100
AcDbArc
 50
90.0
 51
212.6512149999999
  0
LINE
  5
4EC
330
74
100
AcDbEntity
  8
2
100
AcDbLine
 10
-438.742783
 20
571.6482959999999
 30
0.0
 11
-404.2764
 21
487.1530439999999
 31
0.0
  0
LINE
  5
4ED
330
74
100
AcDbEntity
  8
2
100
AcDbLine
 10
-404.2764
 20
496.030259
 30
0.0
 11
-432.775319
 21
566.696721
 31
0.0
  0
ARC
  5
4EE
330
74
100
AcDbEntity
  8
2
100
AcDbCircle
 10
-448.002082
 20
567.871343
 30
0.0
 40
10.0
100
AcDbArc
 50
22.190995
 51
68.548498
  0
ARC
  5
4EF
330
74
100
AcDbEntity
  8
2
100
AcDbCircle
 10
-432.2764
 20
607.4926239999999
 30
0.0
 40
33.0
100
AcDbArc
 50
102.390604
 51
123.055731
  0
LINE
  5
4F0
330
74
100
AcDbEntity
  8
2
100
AcDbLine
 10
-437.325728
 20
616.250383
 30
0.0
 11
-404.2764
 21
667.826546
 31
0.0
  0
LINE
  5
4F1
330
74
100
AcDbEntity
  8
2
100
AcDbLine
 10
-404.2764
 20
691.067397
 30
0.0
 11
-437.3042769999999
 21
641.9538119999999
 31
0.0
  0
LINE
  5
4F2
330
74
100
AcDbEntity
  8
2
100
AcDbLine
 10
-420.3033869999999
 20
614.724666
 30
0.0
 11
-404.2764
 21
639.736082
 31
0.0
  0
ARC
  5
4F3
330
74
100
AcDbEntity
  8
2
100
AcDbCircle
 10
-445.6024509999999
 20
647.534163
 30
0.0
 40
10.0
100
AcDbArc
 50
270.0
 51
326.079979
  0
ARC
  5
4F4
330
74
100
AcDbEntity
  8
2
100
AcDbCircle
 10
-445.745433
 20
621.645619
 30
0.0
 40
10.0
100
AcDbArc
 50
270.0
 51
327.348785
  0
ARC
  5
4F5
330
74
100
AcDbEntity
  8
2
100
AcDbCircle
 10
-418.619446
 20
613.645619
 30
0.0
 40
2.0
100
AcDbArc
 50
147.348785
 51
270.0
  0
LINE
  5
4F6
330
74
100
AcDbEntity
  8
2
100
AcDbLine
 10
-438.742783
 20
643.7369519999999
 30
0.0
 11
-404.2764
 21
728.232205
 31
0.0
  0
LINE
  5
4F7
330
74
100
AcDbEntity
  8
2
100
AcDbLine
 10
-404.2764
 20
719.3549889999999
 30
0.0
 11
-432.775319
 21
648.688528
 31
0.0
  0
ARC
  5
4F8
330
74
100
AcDbEntity
  8
2
100
AcDbCircle
 10
-448.002082
 20
647.513905
 30
0.0
 40
10.0
100
AcDbArc
 50
291.451502
 51
337.8090049999999
  0
LINE
  5
4F9
330
74
100
AcDbEntity
  8
2
100
AcDbLine
 10
-558.7763999999999
 20
655.692624
 30
0.0
 11
-558.7763999999999
 21
562.692624
 31
0.0
  0
LINE
  5
4FA
330
74
100
AcDbEntity
  8
2
100
AcDbLine
 10
-582.7764
 20
649.692624
 30
0.0
 11
-558.7763999999999
 21
649.692624
 31
0.0
  0
LINE
  5
4FB
330
74
100
AcDbEntity
  8
2
100
AcDbLine
 10
-588.7763999999999
 20
655.692624
 30
0.0
 11
-494.7764
 21
655.692624
 31
0.0
  0
LINE
  5
4FC
330
74
100
AcDbEntity
  8
2
100
AcDbLine
 10
-588.7763999999999
 20
664.6926239999999
 30
0.0
 11
-494.7764
 21
664.6926239999999
 31
0.0
  0
LINE
  5
4FD
330
74
100
AcDbEntity
  8
2
100
AcDbLine
 10
-588.7763999999999
 20
664.6926239999999
 30
0.0
 11
-588.7763999999999
 21
655.692624
 31
0.0
  0
LINE
  5
4FE
330
74
100
AcDbEntity
  8
2
100
AcDbLine
 10
-494.7764
 20
664.6926239999999
 30
0.0
 11
-494.7764
 21
655.692624
 31
0.0
  0
LINE
  5
4FF
330
74
100
AcDbEntity
  8
2
  6
CENTER
 62
     2
100
AcDbLine
 10
-570.7764
 20
697.577075
 30
0.0
 11
-570.7764
 21
640.022021
 31
0.0
  0
LINE
  5
500
330
74
100
AcDbEntity
  8
2
100
AcDbLine
 10
-581.7763999999999
 20
677.692624
 30
0.0
 11
-559.7763999999999
 21
677.692624
 31
0.0
  0
LINE
  5
501
330
74
100
AcDbEntity
  8
2
100
AcDbLine
 10
-576.7763999999999
 20
664.6926239999999
 30
0.0
 11
-576.7763999999999
 21
677.692624
 31
0.0
  0
LINE
  5
502
330
74
100
AcDbEntity
  8
2
 62
     2
100
AcDbLine
 10
-575.8293999999999
 20
664.6926239999999
 30
0.0
 11
-575.8293999999999
 21
674.192624
 31
0.0
  0
LINE
  5
503
330
74
100
AcDbEntity
  8
2
 62
     2
100
AcDbLine
 10
-575.8293999999999
 20
674.192624
 30
0.0
 11
-576.7763999999999
 21
677.692624
 31
0.0
  0
LINE
  5
504
330
74
100
AcDbEntity
  8
2
100
AcDbLine
 10
-564.7763999999999
 20
664.6926239999999
 30
0.0
 11
-564.7763999999999
 21
677.692624
 31
0.0
  0
LINE
  5
505
330
74
100
AcDbEntity
  8
2
100
AcDbLine
 10
-564.7763999999999
 20
674.192624
 30
0.0
 11
-576.7763999999999
 21
674.192624
 31
0.0
  0
LINE
  5
506
330
74
100
AcDbEntity
  8
2
 62
     2
100
AcDbLine
 10
-565.7233999999999
 20
664.6926239999999
 30
0.0
 11
-565.7233999999999
 21
674.192624
 31
0.0
  0
LINE
  5
507
330
74
100
AcDbEntity
  8
2
 62
     2
100
AcDbLine
 10
-565.7233999999999
 20
674.192624
 30
0.0
 11
-564.7763999999999
 21
677.692624
 31
0.0
  0
LINE
  5
508
330
74
100
AcDbEntity
  8
2
100
AcDbLine
 10
-579.7763999999999
 20
689.6926239999999
 30
0.0
 11
-561.7764
 21
689.6926239999999
 31
0.0
  0
LINE
  5
509
330
74
100
AcDbEntity
  8
2
100
AcDbLine
 10
-561.7764
 20
689.6926239999999
 30
0.0
 11
-559.7763999999999
 21
677.692624
 31
0.0
  0
LINE
  5
50A
330
74
100
AcDbEntity
  8
2
100
AcDbLine
 10
-579.7763999999999
 20
689.6926239999999
 30
0.0
 11
-581.7763999999999
 21
677.692624
 31
0.0
  0
LINE
  5
50B
330
74
100
AcDbEntity
  8
2
100
AcDbLine
 10
-556.127425
 20
702.8489559999999
 30
0.0
 11
-561.7764
 21
689.6926239999999
 31
0.0
  0
LINE
  5
50C
330
74
100
AcDbEntity
  8
2
100
AcDbLine
 10
-543.1736639999999
 20
693.9821649999999
 30
0.0
 11
-559.7763999999999
 21
677.692624
 31
0.0
  0
ARC
  5
50D
330
74
100
AcDbEntity
  8
2
100
AcDbCircle
 10
-548.7763999999999
 20
699.692624
 30
0.0
 40
8.0
100
AcDbArc
 50
314.454454
 51
156.762616
  0
LINE
  5
50E
330
74
100
AcDbEntity
  8
2
100
AcDbLine
 10
-585.425375
 20
702.8489559999999
 30
0.0
 11
-579.7763999999999
 21
689.6926239999999
 31
0.0
  0
ARC
  5
50F
330
74
100
AcDbEntity
  8
2
100
AcDbCircle
 10
-592.7763999999999
 20
699.692624
 30
0.0
 40
8.0
100
AcDbArc
 50
23.237384
 51
225.545546
  0
LINE
  5
510
330
74
100
AcDbEntity
  8
2
100
AcDbLine
 10
-598.379137
 20
693.9821649999999
 30
0.0
 11
-581.7763999999999
 21
677.692624
 31
0.0
  0
LINE
  5
511
330
74
100
AcDbEntity
  8
2
100
AcDbLine
 10
-774.3145089999999
 20
428.482943
 30
0.0
 11
-784.923356
 21
417.8740959999999
 31
0.0
  0
LINE
  5
512
330
74
100
AcDbEntity
  8
2
100
AcDbLine
 10
-771.486082
 20
425.6545159999999
 30
0.0
 11
-782.0949289999999
 21
415.045668
 31
0.0
  0
ARC
  5
513
330
74
100
AcDbEntity
  8
2
100
AcDbCircle
 10
-709.2763999999999
 20
490.692624
 30
0.0
 40
90.0
100
AcDbArc
 50
223.726656
 51
226.273344
  0
LINE
  5
514
330
74
100
AcDbEntity
  8
2
100
AcDbLine
 10
-749.0494909999999
 20
409.957866
 30
0.0
 11
-755.9771869999999
 21
396.649886
 31
0.0
  0
LINE
  5
515
330
74
100
AcDbEntity
  8
2
100
AcDbLine
 10
-752.597535
 20
411.8048599999999
 30
0.0
 11
-759.5252299999999
 21
398.496881
 31
0.0
  0
ARC
  5
516
330
74
100
AcDbEntity
  8
2
100
AcDbCircle
 10
-709.2763999999999
 20
490.692624
 30
0.0
 40
90.0
100
AcDbArc
 50
241.226656
 51
243.773344
  0
LINE
  5
517
330
74
100
AcDbEntity
  8
2
100
AcDbLine
 10
-726.870492
 20
402.42911
 30
0.0
 11
-729.475766
 21
387.653866
 31
0.0
  0
LINE
  5
518
330
74
100
AcDbEntity
  8
2
100
AcDbLine
 10
-722.931261
 20
401.7345169999999
 30
0.0
 11
-725.5365349999999
 21
386.9592740000001
 31
0.0
  0
ARC
  5
519
330
74
100
AcDbEntity
  8
2
100
AcDbCircle
 10
-709.2763999999999
 20
490.692624
 30
0.0
 40
90.0
100
AcDbArc
 50
258.726656
 51
261.273344
  0
LINE
  5
51A
330
74
100
AcDbEntity
  8
2
100
AcDbLine
 10
-699.514834
 20
401.2235689999999
 30
0.0
 11
-697.5565259999999
 21
386.348748
 31
0.0
  0
LINE
  5
51B
330
74
100
AcDbEntity
  8
2
100
AcDbLine
 10
-695.5490539999999
 20
401.745674
 30
0.0
 11
-693.590747
 21
386.870852
 31
0.0
  0
ARC
  5
51C
330
74
100
AcDbEntity
  8
2
100
AcDbCircle
 10
-709.2763999999999
 20
490.692624
 30
0.0
 40
90.0
100
AcDbArc
 50
276.226656
 51
278.773344
  0
LINE
  5
51D
330
74
100
AcDbEntity
  8
2
100
AcDbLine
 10
-673.062765
 20
408.2998289999999
 30
0.0
 11
-666.7221490000001
 21
394.702335
 31
0.0
  0
LINE
  5
51E
330
74
100
AcDbEntity
  8
2
100
AcDbLine
 10
-669.437534
 20
409.990302
 30
0.0
 11
-663.096918
 21
396.392808
 31
0.0
  0
ARC
  5
51F
330
74
100
AcDbEntity
  8
2
100
AcDbCircle
 10
-709.2763999999999
 20
490.692624
 30
0.0
 40
90.0
100
AcDbArc
 50
293.726656
 51
296.273344
  0
LINE
  5
520
330
74
100
AcDbEntity
  8
2
100
AcDbLine
 10
-651.3108929999999
 20
432.7271169999999
 30
0.0
 11
-636.458133
 21
417.8743569999999
 31
0.0
  0
LINE
  5
521
330
74
100
AcDbEntity
  8
2
100
AcDbLine
 10
-783.5715299999999
 20
456.048236
 30
0.0
 11
-802.608502
 21
447.17115
 31
0.0
  0
ARC
  5
522
330
74
100
AcDbEntity
  8
2
100
AcDbCircle
 10
-709.2763999999999
 20
490.692624
 30
0.0
 40
105.0
100
AcDbArc
 50
206.1126090000001
 51
313.887391
  0
ARC
  5
523
330
74
100
AcDbEntity
  8
2
100
AcDbCircle
 10
-709.2763999999999
 20
490.692624
 30
0.0
 40
80.0
100
AcDbArc
 50
206.3975969999999
 51
221.170491
  0
ARC
  5
524
330
74
100
AcDbEntity
  8
2
100
AcDbCircle
 10
-709.2763999999999
 20
490.692624
 30
0.0
 40
80.0
100
AcDbArc
 50
228.829509
 51
313.602403
  0
TEXT
  5
525
330
74
100
AcDbEntity
  8
2
100
AcDbText
 10
-658.0623969999999
 20
404.4755959999999
 30
0.0
 40
15.0
  1
Ｏ
 50
35.0
100
AcDbText
  0
TEXT
  5
526
330
74
100
AcDbEntity
  8
2
100
AcDbText
 10
-795.4934279999999
 20
439.4786209999999
 30
0.0
 40
15.0
  1
Ｓ
 50
305.0
100
AcDbText
  0
CIRCLE
  5
527
330
74
100
AcDbEntity
  8
2
100
AcDbCircle
 10
-791.390526
 20
447.031769
 30
0.0
 40
1.5
  0
LINE
  5
528
330
74
100
AcDbEntity
  8
2
  6
CENTER
 62
     2
100
AcDbLine
 10
-795.36379
 20
444.9191469999999
 30
0.0
 11
-787.417262
 21
449.144391
 31
0.0
  0
ARC
  5
529
330
74
100
AcDbEntity
  8
2
  6
CENTER
 62
     2
100
AcDbCircle
 10
-709.2763999999999
 20
490.692624
 30
0.0
 40
93.0
100
AcDbArc
 50
205.227353
 51
210.772647
  0
LINE
  5
52A
330
74
100
AcDbEntity
  8
2
  6
CENTER
 62
     2
100
AcDbLine
 10
-644.0361659999999
 20
418.2360039999999
 30
0.0
 11
-650.058342
 21
424.924307
 31
0.0
  0
ARC
  5
52B
330
74
100
AcDbEntity
  8
2
  6
CENTER
 62
     2
100
AcDbCircle
 10
-709.2763999999999
 20
490.692624
 30
0.0
 40
93.0
100
AcDbArc
 50
309.227353
 51
314.772647
  0
CIRCLE
  5
52C
330
74
100
AcDbEntity
  8
2
100
AcDbCircle
 10
-647.0472539999999
 20
421.580155
 30
0.0
 40
1.5
  0
ARC
  5
52D
330
74
100
AcDbEntity
  8
2
100
AcDbCircle
 10
-782.726294
 20
454.23562
 30
0.0
 40
2.0
100
AcDbArc
 50
26.39759699999999
 51
115.0
  0
ARC
  5
52E
330
74
100
AcDbEntity
  8
2
100
AcDbCircle
 10
-801.763266
 20
445.3585349999999
 30
0.0
 40
2.0
100
AcDbArc
 50
115.0
 51
206.1126090000001
  0
ARC
  5
52F
330
74
100
AcDbEntity
  8
2
100
AcDbCircle
 10
-652.725107
 20
431.3129039999999
 30
0.0
 40
2.0
100
AcDbArc
 50
45.0
 51
133.602403
  0
ARC
  5
530
330
74
100
AcDbEntity
  8
2
100
AcDbCircle
 10
-637.8723469999999
 20
416.460144
 30
0.0
 40
2.0
100
AcDbArc
 50
313.887391
 51
45.0
  0
LINE
  5
531
330
74
100
AcDbEntity
  8
2
100
AcDbLine
 10
-834.2763999999998
 20
85.79262400000001
 30
0.0
 11
-584.2763999999999
 21
85.79262400000001
 31
0.0
  0
LINE
  5
532
330
74
100
AcDbEntity
  8
2
100
AcDbLine
 10
-834.2763999999998
 20
92.29262400000001
 30
0.0
 11
-834.2763999999998
 21
-3.207376
 31
0.0
  0
LINE
  5
533
330
74
100
AcDbEntity
  8
2
100
AcDbLine
 10
-831.2763999999999
 20
-6.207376
 30
0.0
 11
-587.2764
 21
-6.207376
 31
0.0
  0
LINE
  5
534
330
74
100
AcDbEntity
  8
2
100
AcDbLine
 10
-809.2763999999998
 20
-9.207376
 30
0.0
 11
-809.2763999999998
 21
-10.207376
 31
0.0
  0
LINE
  5
535
330
74
100
AcDbEntity
  8
2
100
AcDbLine
 10
-609.2763999999999
 20
-9.207376
 30
0.0
 11
-609.2763999999999
 21
-10.207376
 31
0.0
  0
ARC
  5
536
330
74
100
AcDbEntity
  8
2
100
AcDbCircle
 10
-587.2764
 20
-3.207376
 30
0.0
 40
3.0
100
AcDbArc
 50
270.0
 51
0.0
  0
ARC
  5
537
330
74
100
AcDbEntity
  8
2
100
AcDbCircle
 10
-831.2763999999999
 20
-3.207376
 30
0.0
 40
3.0
100
AcDbArc
 50
180.0
 51
270.0
  0
ARC
  5
538
330
74
100
AcDbEntity
  8
2
100
AcDbCircle
 10
-606.2763999999999
 20
-9.207376
 30
0.0
 40
3.0
100
AcDbArc
 50
90.0
 51
180.0
  0
ARC
  5
539
330
74
100
AcDbEntity
  8
2
100
AcDbCircle
 10
-812.2764
 20
-9.207376
 30
0.0
 40
3.0
100
AcDbArc
 50
0.0
 51
90.0
  0
LINE
  5
53A
330
74
100
AcDbEntity
  8
2
100
AcDbLine
 10
-779.2764
 20
59.79262399999999
 30
0.0
 11
-639.2763999999999
 21
59.79262399999999
 31
0.0
  0
LINE
  5
53B
330
74
100
AcDbEntity
  8
2
100
AcDbLine
 10
-779.2764
 20
29.792624
 30
0.0
 11
-639.2763999999999
 21
29.792624
 31
0.0
  0
LINE
  5
53C
330
74
100
AcDbEntity
  8
2
100
AcDbLine
 10
-639.2763999999999
 20
59.79262399999999
 30
0.0
 11
-639.2763999999999
 21
29.792624
 31
0.0
  0
LINE
  5
53D
330
74
100
AcDbEntity
  8
2
100
AcDbLine
 10
-779.2764
 20
59.79262399999999
 30
0.0
 11
-779.2764
 21
29.792624
 31
0.0
  0
LINE
  5
53E
330
74
100
AcDbEntity
  8
2
  6
CENTER
 62
     2
100
AcDbLine
 10
-659.2763999999999
 20
65.887393
 30
0.0
 11
-659.2763999999999
 21
24.067874
 31
0.0
  0
LINE
  5
53F
330
74
100
AcDbEntity
  8
2
  6
CENTER
 62
     2
100
AcDbLine
 10
-759.2763999999999
 20
65.887393
 30
0.0
 11
-759.2763999999999
 21
24.067874
 31
0.0
  0
LINE
  5
540
330
74
100
AcDbEntity
  8
2
100
AcDbLine
 10
-834.2763999999998
 20
86.29262399999999
 30
0.0
 11
-584.2763999999999
 21
86.29262399999999
 31
0.0
  0
LINE
  5
541
330
74
100
AcDbEntity
  8
2
100
AcDbLine
 10
-831.2763999999999
 20
95.292624
 30
0.0
 11
-587.2764
 21
95.292624
 31
0.0
  0
ARC
  5
542
330
74
100
AcDbEntity
  8
2
100
AcDbCircle
 10
-587.2764
 20
92.29262400000001
 30
0.0
 40
3.0
100
AcDbArc
 50
0.0
 51
90.0
  0
ARC
  5
543
330
74
100
AcDbEntity
  8
2
100
AcDbCircle
 10
-831.2763999999999
 20
92.29262400000001
 30
0.0
 40
3.0
100
AcDbArc
 50
90.0
 51
180.0
  0
LINE
  5
544
330
74
100
AcDbEntity
  8
2
100
AcDbLine
 10
-671.7763999999999
 20
98.79262400000001
 30
0.0
 11
-671.7763999999999
 21
95.292624
 31
0.0
  0
LINE
  5
545
330
74
100
AcDbEntity
  8
2
100
AcDbLine
 10
-746.7763999999999
 20
98.79262400000001
 30
0.0
 11
-746.7763999999999
 21
95.292624
 31
0.0
  0
LINE
  5
546
330
74
100
AcDbEntity
  8
2
100
AcDbLine
 10
-746.7763999999999
 20
97.792624
 30
0.0
 11
-671.7763999999999
 21
97.792624
 31
0.0
  0
LINE
  5
547
330
74
100
AcDbEntity
  8
2
100
AcDbLine
 10
-770.966263
 20
103.792624
 30
0.0
 11
-664.2763999999999
 21
103.792624
 31
0.0
  0
LINE
  5
548
330
74
100
AcDbEntity
  8
2
100
AcDbLine
 10
-664.2763999999999
 20
103.792624
 30
0.0
 11
-664.2763999999999
 21
100.792624
 31
0.0
  0
LINE
  5
549
330
74
100
AcDbEntity
  8
2
100
AcDbLine
 10
-770.966263
 20
103.792624
 30
0.0
 11
-770.966263
 21
98.79262400000001
 31
0.0
  0
LINE
  5
54A
330
74
100
AcDbEntity
  8
2
100
AcDbLine
 10
-583.2764
 20
67.292624
 30
0.0
 11
-583.2764
 21
22.292624
 31
0.0
  0
LINE
  5
54B
330
74
100
AcDbEntity
  8
2
100
AcDbLine
 10
-585.5020289999999
 20
67.292624
 30
0.0
 11
-583.2764
 21
67.292624
 31
0.0
  0
LINE
  5
54C
330
74
100
AcDbEntity
  8
2
100
AcDbLine
 10
-585.5020289999999
 20
22.292624
 30
0.0
 11
-583.2764
 21
22.292624
 31
0.0
  0
LINE
  5
54D
330
74
100
AcDbEntity
  8
2
100
AcDbLine
 10
-584.2763999999999
 20
-3.207376
 30
0.0
 11
-584.2763999999999
 21
22.292624
 31
0.0
  0
LINE
  5
54E
330
74
100
AcDbEntity
  8
2
100
AcDbLine
 10
-584.2763999999999
 20
67.292624
 30
0.0
 11
-584.2763999999999
 21
92.29262400000001
 31
0.0
  0
LINE
  5
54F
330
74
100
AcDbEntity
  8
2
100
AcDbLine
 10
-582.7764
 20
89.79262400000001
 30
0.0
 11
-582.7764
 21
-0.207376
 31
0.0
  0
LINE
  5
550
330
74
100
AcDbEntity
  8
2
100
AcDbLine
 10
-584.2763999999999
 20
89.79262400000001
 30
0.0
 11
-558.7763999999999
 21
89.79262400000001
 31
0.0
  0
LINE
  5
551
330
74
100
AcDbEntity
  8
2
100
AcDbLine
 10
-584.2763999999999
 20
-0.207376
 30
0.0
 11
-558.7763999999999
 21
-0.207376
 31
0.0
  0
LINE
  5
552
330
74
100
AcDbEntity
  8
2
100
AcDbLine
 10
-558.7763999999999
 20
59.79262399999999
 30
0.0
 11
-450.2763999999999
 21
59.79262399999999
 31
0.0
  0
LINE
  5
553
330
74
100
AcDbEntity
  8
2
100
AcDbLine
 10
-558.7763999999999
 20
29.792624
 30
0.0
 11
-450.2763999999999
 21
29.792624
 31
0.0
  0
LINE
  5
554
330
74
100
AcDbEntity
  8
2
  6
CENTER
 62
     2
100
AcDbLine
 10
-824.3881179999998
 20
69.54136099999999
 30
0.0
 11
-848.597177
 21
69.54136099999999
 31
0.0
  0
LINE
  5
555
330
74
100
AcDbEntity
  8
2
  6
CENTER
 62
     2
100
AcDbLine
 10
-824.3881179999998
 20
20.043887
 30
0.0
 11
-848.597177
 21
20.043887
 31
0.0
  0
LINE
  5
556
330
74
100
AcDbEntity
  8
2
  6
CENTER
 62
     2
100
AcDbLine
 10
-539.955623
 20
69.54136099999999
 30
0.0
 11
-593.6793629999999
 21
69.54136099999999
 31
0.0
  0
LINE
  5
557
330
74
100
AcDbEntity
  8
2
  6
CENTER
 62
     2
100
AcDbLine
 10
-539.955623
 20
20.043887
 30
0.0
 11
-593.6793629999999
 21
20.043887
 31
0.0
  0
LINE
  5
558
330
74
100
AcDbEntity
  8
2
  6
CENTER
 62
     2
100
AcDbLine
 10
-689.8309639999999
 20
115.252887
 30
0.0
 11
-689.8309639999999
 21
89.98367599999999
 31
0.0
  0
LINE
  5
559
330
74
100
AcDbEntity
  8
2
  6
CENTER
 62
     2
100
AcDbLine
 10
-728.721837
 20
115.252887
 30
0.0
 11
-728.721837
 21
89.98367599999999
 31
0.0
  0
LINE
  5
55A
330
74
100
AcDbEntity
  8
2
  6
CENTER
 62
     2
100
AcDbLine
 10
-664.311097
 20
107.722064
 30
0.0
 11
-664.311097
 21
80.61636599999999
 31
0.0
  0
LINE
  5
55B
330
74
100
AcDbEntity
  8
2
  6
CENTER
 62
     2
100
AcDbLine
 10
-600.720555
 20
107.722064
 30
0.0
 11
-600.720555
 21
80.61636599999999
 31
0.0
  0
LINE
  5
55C
330
74
100
AcDbEntity
  8
2
  6
CENTER
 62
     2
100
AcDbLine
 10
-754.241703
 20
107.722064
 30
0.0
 11
-754.241703
 21
80.61636599999999
 31
0.0
  0
LINE
  5
55D
330
74
100
AcDbEntity
  8
2
  6
CENTER
 62
     2
100
AcDbLine
 10
-817.8322450000001
 20
107.722064
 30
0.0
 11
-817.8322450000001
 21
80.61636599999999
 31
0.0
  0
LINE
  5
55E
330
74
100
AcDbEntity
  8
2
100
AcDbLine
 10
-770.966263
 20
98.79262400000001
 30
0.0
 11
-759.991703
 21
98.79262400000001
 31
0.0
  0
LINE
  5
55F
330
74
100
AcDbEntity
  8
2
100
AcDbLine
 10
-748.491703
 20
98.79262400000001
 30
0.0
 11
-670.061097
 21
98.79262400000001
 31
0.0
  0
CIRCLE
  5
560
330
74
100
AcDbEntity
  8
2
100
AcDbCircle
 10
-759.2763999999999
 20
44.79262399999999
 30
0.0
 40
15.0
  0
CIRCLE
  5
561
330
74
100
AcDbEntity
  8
2
100
AcDbCircle
 10
-659.2763999999999
 20
44.79262399999999
 30
0.0
 40
15.0
  0
CIRCLE
  5
562
330
74
100
AcDbEntity
  8
2
100
AcDbCircle
 10
-659.2763999999999
 20
44.79262399999999
 30
0.0
 40
11.5
  0
CIRCLE
  5
563
330
74
100
AcDbEntity
  8
2
100
AcDbCircle
 10
-759.2763999999999
 20
44.79262399999999
 30
0.0
 40
11.5
  0
LINE
  5
564
330
74
100
AcDbEntity
  8
2
100
AcDbLine
 10
-834.2763999999998
 20
61.041361
 30
0.0
 11
-839.2763999999999
 21
61.041361
 31
0.0
  0
ARC
  5
565
330
74
100
AcDbEntity
  8
2
100
AcDbCircle
 10
-828.7369639999999
 20
65.29136099999999
 30
0.0
 40
10.539436
100
AcDbArc
 50
156.218654
 51
203.781346
  0
LINE
  5
566
330
74
100
AcDbEntity
  8
2
100
AcDbLine
 10
-834.2763999999998
 20
78.041361
 30
0.0
 11
-839.2763999999999
 21
78.041361
 31
0.0
  0
LINE
  5
567
330
74
100
AcDbEntity
  8
2
100
AcDbLine
 10
-839.2763999999999
 20
78.041361
 30
0.0
 11
-839.2763999999999
 21
61.041361
 31
0.0
  0
LINE
  5
568
330
74
100
AcDbEntity
  8
2
100
AcDbLine
 10
-834.2763999999998
 20
69.54136099999999
 30
0.0
 11
-838.381507
 21
69.54136099999999
 31
0.0
  0
ARC
  5
569
330
74
100
AcDbEntity
  8
2
100
AcDbCircle
 10
-828.7369639999999
 20
73.791361
 30
0.0
 40
10.539436
100
AcDbArc
 50
156.218654
 51
203.781346
  0
LINE
  5
56A
330
74
100
AcDbEntity
  8
2
100
AcDbLine
 10
-834.2763999999998
 20
11.543887
 30
0.0
 11
-839.2763999999999
 21
11.543887
 31
0.0
  0
ARC
  5
56B
330
74
100
AcDbEntity
  8
2
100
AcDbCircle
 10
-828.7369639999999
 20
15.793887
 30
0.0
 40
10.539436
100
AcDbArc
 50
156.218654
 51
203.781346
  0
LINE
  5
56C
330
74
100
AcDbEntity
  8
2
100
AcDbLine
 10
-834.2763999999998
 20
28.543887
 30
0.0
 11
-839.2763999999999
 21
28.543887
 31
0.0
  0
LINE
  5
56D
330
74
100
AcDbEntity
  8
2
100
AcDbLine
 10
-839.2763999999999
 20
28.543887
 30
0.0
 11
-839.2763999999999
 21
11.543887
 31
0.0
  0
LINE
  5
56E
330
74
100
AcDbEntity
  8
2
100
AcDbLine
 10
-834.2763999999998
 20
20.043887
 30
0.0
 11
-838.381507
 21
20.043887
 31
0.0
  0
ARC
  5
56F
330
74
100
AcDbEntity
  8
2
100
AcDbCircle
 10
-828.7369639999999
 20
24.293887
 30
0.0
 40
10.539436
100
AcDbArc
 50
156.218654
 51
203.781346
  0
LINE
  5
570
330
74
100
AcDbEntity
  8
2
100
AcDbLine
 10
-556.2763999999999
 20
78.041361
 30
0.0
 11
-549.2764
 21
78.041361
 31
0.0
  0
ARC
  5
571
330
74
100
AcDbEntity
  8
2
100
AcDbCircle
 10
-559.815836
 20
73.791361
 30
0.0
 40
10.539436
100
AcDbArc
 50
336.218654
 51
23.781346
  0
LINE
  5
572
330
74
100
AcDbEntity
  8
2
100
AcDbLine
 10
-556.2763999999999
 20
61.041361
 30
0.0
 11
-549.2764
 21
61.041361
 31
0.0
  0
LINE
  5
573
330
74
100
AcDbEntity
  8
2
100
AcDbLine
 10
-549.2764
 20
61.041361
 30
0.0
 11
-549.2764
 21
78.041361
 31
0.0
  0
LINE
  5
574
330
74
100
AcDbEntity
  8
2
100
AcDbLine
 10
-556.2763999999999
 20
69.54136099999999
 30
0.0
 11
-550.171293
 21
69.54136099999999
 31
0.0
  0
ARC
  5
575
330
74
100
AcDbEntity
  8
2
100
AcDbCircle
 10
-559.815836
 20
65.29136099999999
 30
0.0
 40
10.539436
100
AcDbArc
 50
336.218654
 51
23.781346
  0
LINE
  5
576
330
74
100
AcDbEntity
  8
2
100
AcDbLine
 10
-558.7763999999999
 20
78.741361
 30
0.0
 11
-556.2763999999999
 21
78.741361
 31
0.0
  0
LINE
  5
577
330
74
100
AcDbEntity
  8
2
100
AcDbLine
 10
-556.2763999999999
 20
78.741361
 30
0.0
 11
-556.2763999999999
 21
60.341361
 31
0.0
  0
LINE
  5
578
330
74
100
AcDbEntity
  8
2
100
AcDbLine
 10
-556.2763999999999
 20
60.341361
 30
0.0
 11
-558.7763999999999
 21
60.341361
 31
0.0
  0
LINE
  5
579
330
74
100
AcDbEntity
  8
2
100
AcDbLine
 10
-556.2763999999999
 20
28.543887
 30
0.0
 11
-549.2764
 21
28.543887
 31
0.0
  0
ARC
  5
57A
330
74
100
AcDbEntity
  8
2
100
AcDbCircle
 10
-559.815836
 20
24.293887
 30
0.0
 40
10.539436
100
AcDbArc
 50
336.218654
 51
23.781346
  0
LINE
  5
57B
330
74
100
AcDbEntity
  8
2
100
AcDbLine
 10
-556.2763999999999
 20
11.543887
 30
0.0
 11
-549.2764
 21
11.543887
 31
0.0
  0
LINE
  5
57C
330
74
100
AcDbEntity
  8
2
100
AcDbLine
 10
-549.2764
 20
11.543887
 30
0.0
 11
-549.2764
 21
28.543887
 31
0.0
  0
LINE
  5
57D
330
74
100
AcDbEntity
  8
2
100
AcDbLine
 10
-556.2763999999999
 20
20.043887
 30
0.0
 11
-550.171293
 21
20.043887
 31
0.0
  0
ARC
  5
57E
330
74
100
AcDbEntity
  8
2
100
AcDbCircle
 10
-559.815836
 20
15.793887
 30
0.0
 40
10.539436
100
AcDbArc
 50
336.218654
 51
23.781346
  0
LINE
  5
57F
330
74
100
AcDbEntity
  8
2
100
AcDbLine
 10
-558.7763999999999
 20
29.243887
 30
0.0
 11
-556.2763999999999
 21
29.243887
 31
0.0
  0
LINE
  5
580
330
74
100
AcDbEntity
  8
2
100
AcDbLine
 10
-556.2763999999999
 20
29.243887
 30
0.0
 11
-556.2763999999999
 21
10.843887
 31
0.0
  0
LINE
  5
581
330
74
100
AcDbEntity
  8
2
100
AcDbLine
 10
-556.2763999999999
 20
10.843887
 30
0.0
 11
-558.7763999999999
 21
10.843887
 31
0.0
  0
LINE
  5
582
330
74
100
AcDbEntity
  8
2
100
AcDbLine
 10
-696.0809639999999
 20
105.392624
 30
0.0
 11
-696.0809639999999
 21
103.792624
 31
0.0
  0
LINE
  5
583
330
74
100
AcDbEntity
  8
2
100
AcDbLine
 10
-683.5809639999999
 20
105.392624
 30
0.0
 11
-683.5809639999999
 21
103.792624
 31
0.0
  0
LINE
  5
584
330
74
100
AcDbEntity
  8
2
100
AcDbLine
 10
-722.471837
 20
105.392624
 30
0.0
 11
-722.471837
 21
103.792624
 31
0.0
  0
LINE
  5
585
330
74
100
AcDbEntity
  8
2
100
AcDbLine
 10
-734.971837
 20
105.392624
 30
0.0
 11
-734.971837
 21
103.792624
 31
0.0
  0
LINE
  5
586
330
74
100
AcDbEntity
  8
2
100
AcDbLine
 10
-734.971837
 20
105.392624
 30
0.0
 11
-722.471837
 21
105.392624
 31
0.0
  0
LINE
  5
587
330
74
100
AcDbEntity
  8
2
100
AcDbLine
 10
-696.0809639999999
 20
105.392624
 30
0.0
 11
-683.5809639999999
 21
105.392624
 31
0.0
  0
LINE
  5
588
330
74
100
AcDbEntity
  8
2
100
AcDbLine
 10
-695.580964
 20
105.392624
 30
0.0
 11
-695.580964
 21
108.901876
 31
0.0
  0
LINE
  5
589
330
74
100
AcDbEntity
  8
2
100
AcDbLine
 10
-695.580964
 20
108.901876
 30
0.0
 11
-694.730964
 21
109.392624
 31
0.0
  0
LINE
  5
58A
330
74
100
AcDbEntity
  8
2
100
AcDbLine
 10
-692.705964
 20
105.392624
 30
0.0
 11
-692.705964
 21
108.901876
 31
0.0
  0
ARC
  5
58B
330
74
100
AcDbEntity
  8
2
100
AcDbCircle
 10
-694.1434639999999
 20
107.053921
 30
0.0
 40
2.341226999999999
100
AcDbArc
 50
52.121121
 51
127.878879
  0
LINE
  5
58C
330
74
100
AcDbEntity
  8
2
100
AcDbLine
 10
-684.0809639999999
 20
105.392624
 30
0.0
 11
-684.0809639999999
 21
108.901876
 31
0.0
  0
LINE
  5
58D
330
74
100
AcDbEntity
  8
2
100
AcDbLine
 10
-684.0809639999999
 20
108.901876
 30
0.0
 11
-684.930964
 21
109.392624
 31
0.0
  0
LINE
  5
58E
330
74
100
AcDbEntity
  8
2
100
AcDbLine
 10
-684.930964
 20
109.392624
 30
0.0
 11
-694.730964
 21
109.392624
 31
0.0
  0
LINE
  5
58F
330
74
100
AcDbEntity
  8
2
100
AcDbLine
 10
-686.955964
 20
105.392624
 30
0.0
 11
-686.955964
 21
108.901876
 31
0.0
  0
ARC
  5
590
330
74
100
AcDbEntity
  8
2
100
AcDbCircle
 10
-685.518464
 20
107.053921
 30
0.0
 40
2.341226999999999
100
AcDbArc
 50
52.121121
 51
127.878879
  0
ARC
  5
591
330
74
100
AcDbEntity
  8
2
100
AcDbCircle
 10
-689.8309639999999
 20
100.770148
 30
0.0
 40
8.625
100
AcDbArc
 50
70.528781
 51
109.471223
  0
LINE
  5
592
330
74
100
AcDbEntity
  8
2
100
AcDbLine
 10
-734.471837
 20
105.392624
 30
0.0
 11
-734.471837
 21
108.901876
 31
0.0
  0
LINE
  5
593
330
74
100
AcDbEntity
  8
2
100
AcDbLine
 10
-734.471837
 20
108.901876
 30
0.0
 11
-733.621837
 21
109.392624
 31
0.0
  0
LINE
  5
594
330
74
100
AcDbEntity
  8
2
100
AcDbLine
 10
-731.596837
 20
105.392624
 30
0.0
 11
-731.596837
 21
108.901876
 31
0.0
  0
ARC
  5
595
330
74
100
AcDbEntity
  8
2
100
AcDbCircle
 10
-733.034337
 20
107.053921
 30
0.0
 40
2.341226999999999
100
AcDbArc
 50
52.121121
 51
127.878879
  0
ARC
  5
596
330
74
100
AcDbEntity
  8
2
100
AcDbCircle
 10
-728.721837
 20
100.770148
 30
0.0
 40
8.625
100
AcDbArc
 50
70.528781
 51
109.471223
  0
LINE
  5
597
330
74
100
AcDbEntity
  8
2
100
AcDbLine
 10
-722.971837
 20
105.392624
 30
0.0
 11
-722.971837
 21
108.901876
 31
0.0
  0
LINE
  5
598
330
74
100
AcDbEntity
  8
2
100
AcDbLine
 10
-722.971837
 20
108.901876
 30
0.0
 11
-723.8218369999999
 21
109.392624
 31
0.0
  0
LINE
  5
599
330
74
100
AcDbEntity
  8
2
100
AcDbLine
 10
-723.8218369999999
 20
109.392624
 30
0.0
 11
-733.621837
 21
109.392624
 31
0.0
  0
LINE
  5
59A
330
74
100
AcDbEntity
  8
2
100
AcDbLine
 10
-725.8468370000001
 20
105.392624
 30
0.0
 11
-725.8468370000001
 21
108.901876
 31
0.0
  0
ARC
  5
59B
330
74
100
AcDbEntity
  8
2
100
AcDbCircle
 10
-724.409337
 20
107.053921
 30
0.0
 40
2.341226999999999
100
AcDbArc
 50
52.121121
 51
127.878879
  0
LINE
  5
59C
330
74
100
AcDbEntity
  8
2
100
AcDbLine
 10
-606.470555
 20
96.792624
 30
0.0
 11
-606.470555
 21
100.301876
 31
0.0
  0
LINE
  5
59D
330
74
100
AcDbEntity
  8
2
100
AcDbLine
 10
-606.470555
 20
100.301876
 30
0.0
 11
-605.6205549999999
 21
100.792624
 31
0.0
  0
LINE
  5
59E
330
74
100
AcDbEntity
  8
2
100
AcDbLine
 10
-603.5955549999999
 20
96.792624
 30
0.0
 11
-603.5955549999999
 21
100.301876
 31
0.0
  0
ARC
  5
59F
330
74
100
AcDbEntity
  8
2
100
AcDbCircle
 10
-605.0330549999999
 20
98.45392099999999
 30
0.0
 40
2.341226999999999
100
AcDbArc
 50
52.121121
 51
127.878879
  0
ARC
  5
5A0
330
74
100
AcDbEntity
  8
2
100
AcDbCircle
 10
-600.720555
 20
92.17014799999999
 30
0.0
 40
8.625
100
AcDbArc
 50
70.528781
 51
109.471223
  0
LINE
  5
5A1
330
74
100
AcDbEntity
  8
2
100
AcDbLine
 10
-594.970555
 20
96.792624
 30
0.0
 11
-594.970555
 21
100.301876
 31
0.0
  0
LINE
  5
5A2
330
74
100
AcDbEntity
  8
2
100
AcDbLine
 10
-594.970555
 20
100.301876
 30
0.0
 11
-595.820555
 21
100.792624
 31
0.0
  0
LINE
  5
5A3
330
74
100
AcDbEntity
  8
2
100
AcDbLine
 10
-595.820555
 20
100.792624
 30
0.0
 11
-605.6205549999999
 21
100.792624
 31
0.0
  0
LINE
  5
5A4
330
74
100
AcDbEntity
  8
2
100
AcDbLine
 10
-597.8455549999999
 20
96.792624
 30
0.0
 11
-597.8455549999999
 21
100.301876
 31
0.0
  0
ARC
  5
5A5
330
74
100
AcDbEntity
  8
2
100
AcDbCircle
 10
-596.408055
 20
98.45392099999999
 30
0.0
 40
2.341226999999999
100
AcDbArc
 50
52.121121
 51
127.878879
  0
LINE
  5
5A6
330
74
100
AcDbEntity
  8
2
100
AcDbLine
 10
-606.820555
 20
95.292624
 30
0.0
 11
-606.820555
 21
96.792624
 31
0.0
  0
LINE
  5
5A7
330
74
100
AcDbEntity
  8
2
100
AcDbLine
 10
-606.820555
 20
96.792624
 30
0.0
 11
-594.620555
 21
96.792624
 31
0.0
  0
LINE
  5
5A8
330
74
100
AcDbEntity
  8
2
100
AcDbLine
 10
-594.620555
 20
96.792624
 30
0.0
 11
-594.620555
 21
95.292624
 31
0.0
  0
LINE
  5
5A9
330
74
100
AcDbEntity
  8
2
100
AcDbLine
 10
-600.720555
 20
96.792624
 30
0.0
 11
-600.220555
 21
95.292624
 31
0.0
  0
LINE
  5
5AA
330
74
100
AcDbEntity
  8
2
100
AcDbLine
 10
-600.720555
 20
95.292624
 30
0.0
 11
-601.220555
 21
96.792624
 31
0.0
  0
LINE
  5
5AB
330
74
100
AcDbEntity
  8
2
100
AcDbLine
 10
-670.061097
 20
96.792624
 30
0.0
 11
-670.061097
 21
100.301876
 31
0.0
  0
LINE
  5
5AC
330
74
100
AcDbEntity
  8
2
100
AcDbLine
 10
-670.061097
 20
100.301876
 30
0.0
 11
-669.2110969999999
 21
100.792624
 31
0.0
  0
LINE
  5
5AD
330
74
100
AcDbEntity
  8
2
100
AcDbLine
 10
-667.186097
 20
96.792624
 30
0.0
 11
-667.186097
 21
100.301876
 31
0.0
  0
ARC
  5
5AE
330
74
100
AcDbEntity
  8
2
100
AcDbCircle
 10
-668.623597
 20
98.45392099999999
 30
0.0
 40
2.341226999999999
100
AcDbArc
 50
52.121121
 51
127.878879
  0
ARC
  5
5AF
330
74
100
AcDbEntity
  8
2
100
AcDbCircle
 10
-664.311097
 20
92.17014799999999
 30
0.0
 40
8.625
100
AcDbArc
 50
70.528781
 51
109.471223
  0
LINE
  5
5B0
330
74
100
AcDbEntity
  8
2
100
AcDbLine
 10
-658.561097
 20
96.792624
 30
0.0
 11
-658.561097
 21
100.301876
 31
0.0
  0
LINE
  5
5B1
330
74
100
AcDbEntity
  8
2
100
AcDbLine
 10
-658.561097
 20
100.301876
 30
0.0
 11
-659.4110969999999
 21
100.792624
 31
0.0
  0
LINE
  5
5B2
330
74
100
AcDbEntity
  8
2
100
AcDbLine
 10
-659.4110969999999
 20
100.792624
 30
0.0
 11
-669.2110969999999
 21
100.792624
 31
0.0
  0
LINE
  5
5B3
330
74
100
AcDbEntity
  8
2
100
AcDbLine
 10
-661.4360969999999
 20
96.792624
 30
0.0
 11
-661.4360969999999
 21
100.301876
 31
0.0
  0
ARC
  5
5B4
330
74
100
AcDbEntity
  8
2
100
AcDbCircle
 10
-659.998597
 20
98.45392099999999
 30
0.0
 40
2.341226999999999
100
AcDbArc
 50
52.121121
 51
127.878879
  0
LINE
  5
5B5
330
74
100
AcDbEntity
  8
2
100
AcDbLine
 10
-670.4110969999999
 20
95.292624
 30
0.0
 11
-670.4110969999999
 21
96.792624
 31
0.0
  0
LINE
  5
5B6
330
74
100
AcDbEntity
  8
2
100
AcDbLine
 10
-670.4110969999999
 20
96.792624
 30
0.0
 11
-658.211097
 21
96.792624
 31
0.0
  0
LINE
  5
5B7
330
74
100
AcDbEntity
  8
2
100
AcDbLine
 10
-658.211097
 20
96.792624
 30
0.0
 11
-658.211097
 21
95.292624
 31
0.0
  0
LINE
  5
5B8
330
74
100
AcDbEntity
  8
2
100
AcDbLine
 10
-664.311097
 20
96.792624
 30
0.0
 11
-663.811097
 21
95.292624
 31
0.0
  0
LINE
  5
5B9
330
74
100
AcDbEntity
  8
2
100
AcDbLine
 10
-664.311097
 20
95.292624
 30
0.0
 11
-664.811097
 21
96.792624
 31
0.0
  0
LINE
  5
5BA
330
74
100
AcDbEntity
  8
2
100
AcDbLine
 10
-759.991703
 20
96.792624
 30
0.0
 11
-759.991703
 21
100.301876
 31
0.0
  0
LINE
  5
5BB
330
74
100
AcDbEntity
  8
2
100
AcDbLine
 10
-759.991703
 20
100.301876
 30
0.0
 11
-759.141703
 21
100.792624
 31
0.0
  0
LINE
  5
5BC
330
74
100
AcDbEntity
  8
2
100
AcDbLine
 10
-757.116703
 20
96.792624
 30
0.0
 11
-757.116703
 21
100.301876
 31
0.0
  0
ARC
  5
5BD
330
74
100
AcDbEntity
  8
2
100
AcDbCircle
 10
-758.554203
 20
98.45392099999999
 30
0.0
 40
2.341226999999999
100
AcDbArc
 50
52.121121
 51
127.878879
  0
ARC
  5
5BE
330
74
100
AcDbEntity
  8
2
100
AcDbCircle
 10
-754.241703
 20
92.17014799999999
 30
0.0
 40
8.625
100
AcDbArc
 50
70.528781
 51
109.471223
  0
LINE
  5
5BF
330
74
100
AcDbEntity
  8
2
100
AcDbLine
 10
-748.491703
 20
96.792624
 30
0.0
 11
-748.491703
 21
100.301876
 31
0.0
  0
LINE
  5
5C0
330
74
100
AcDbEntity
  8
2
100
AcDbLine
 10
-748.491703
 20
100.301876
 30
0.0
 11
-749.341703
 21
100.792624
 31
0.0
  0
LINE
  5
5C1
330
74
100
AcDbEntity
  8
2
100
AcDbLine
 10
-749.341703
 20
100.792624
 30
0.0
 11
-759.141703
 21
100.792624
 31
0.0
  0
LINE
  5
5C2
330
74
100
AcDbEntity
  8
2
100
AcDbLine
 10
-751.366703
 20
96.792624
 30
0.0
 11
-751.366703
 21
100.301876
 31
0.0
  0
ARC
  5
5C3
330
74
100
AcDbEntity
  8
2
100
AcDbCircle
 10
-749.929203
 20
98.45392099999999
 30
0.0
 40
2.341226999999999
100
AcDbArc
 50
52.121121
 51
127.878879
  0
LINE
  5
5C4
330
74
100
AcDbEntity
  8
2
100
AcDbLine
 10
-760.3417030000001
 20
95.292624
 30
0.0
 11
-760.3417030000001
 21
96.792624
 31
0.0
  0
LINE
  5
5C5
330
74
100
AcDbEntity
  8
2
100
AcDbLine
 10
-760.3417030000001
 20
96.792624
 30
0.0
 11
-748.141703
 21
96.792624
 31
0.0
  0
LINE
  5
5C6
330
74
100
AcDbEntity
  8
2
100
AcDbLine
 10
-748.141703
 20
96.792624
 30
0.0
 11
-748.141703
 21
95.292624
 31
0.0
  0
LINE
  5
5C7
330
74
100
AcDbEntity
  8
2
100
AcDbLine
 10
-754.241703
 20
96.792624
 30
0.0
 11
-753.741703
 21
95.292624
 31
0.0
  0
LINE
  5
5C8
330
74
100
AcDbEntity
  8
2
100
AcDbLine
 10
-754.241703
 20
95.292624
 30
0.0
 11
-754.741703
 21
96.792624
 31
0.0
  0
LINE
  5
5C9
330
74
100
AcDbEntity
  8
2
100
AcDbLine
 10
-823.582245
 20
96.792624
 30
0.0
 11
-823.582245
 21
100.301876
 31
0.0
  0
LINE
  5
5CA
330
74
100
AcDbEntity
  8
2
100
AcDbLine
 10
-823.582245
 20
100.301876
 30
0.0
 11
-822.732245
 21
100.792624
 31
0.0
  0
LINE
  5
5CB
330
74
100
AcDbEntity
  8
2
100
AcDbLine
 10
-822.732245
 20
100.792624
 30
0.0
 11
-812.932245
 21
100.792624
 31
0.0
  0
LINE
  5
5CC
330
74
100
AcDbEntity
  8
2
100
AcDbLine
 10
-820.707245
 20
96.792624
 30
0.0
 11
-820.707245
 21
100.301876
 31
0.0
  0
ARC
  5
5CD
330
74
100
AcDbEntity
  8
2
100
AcDbCircle
 10
-822.1447450000001
 20
98.45392099999999
 30
0.0
 40
2.341226999999999
100
AcDbArc
 50
52.121121
 51
127.878879
  0
LINE
  5
5CE
330
74
100
AcDbEntity
  8
2
100
AcDbLine
 10
-812.082245
 20
96.792624
 30
0.0
 11
-812.082245
 21
100.301876
 31
0.0
  0
LINE
  5
5CF
330
74
100
AcDbEntity
  8
2
100
AcDbLine
 10
-812.082245
 20
100.301876
 30
0.0
 11
-812.932245
 21
100.792624
 31
0.0
  0
LINE
  5
5D0
330
74
100
AcDbEntity
  8
2
100
AcDbLine
 10
-814.957245
 20
96.792624
 30
0.0
 11
-814.957245
 21
100.301876
 31
0.0
  0
ARC
  5
5D1
330
74
100
AcDbEntity
  8
2
100
AcDbCircle
 10
-813.5197450000001
 20
98.45392099999999
 30
0.0
 40
2.341226999999999
100
AcDbArc
 50
52.121121
 51
127.878879
  0
ARC
  5
5D2
330
74
100
AcDbEntity
  8
2
100
AcDbCircle
 10
-817.8322450000001
 20
92.17014799999999
 30
0.0
 40
8.625
100
AcDbArc
 50
70.528781
 51
109.471223
  0
LINE
  5
5D3
330
74
100
AcDbEntity
  8
2
100
AcDbLine
 10
-823.9322449999999
 20
95.292624
 30
0.0
 11
-823.9322449999999
 21
96.792624
 31
0.0
  0
LINE
  5
5D4
330
74
100
AcDbEntity
  8
2
100
AcDbLine
 10
-823.9322449999999
 20
96.792624
 30
0.0
 11
-811.7322449999999
 21
96.792624
 31
0.0
  0
LINE
  5
5D5
330
74
100
AcDbEntity
  8
2
100
AcDbLine
 10
-811.7322449999999
 20
96.792624
 30
0.0
 11
-811.7322449999999
 21
95.292624
 31
0.0
  0
LINE
  5
5D6
330
74
100
AcDbEntity
  8
2
100
AcDbLine
 10
-817.8322450000001
 20
96.792624
 30
0.0
 11
-817.332245
 21
95.292624
 31
0.0
  0
LINE
  5
5D7
330
74
100
AcDbEntity
  8
2
100
AcDbLine
 10
-817.8322450000001
 20
95.292624
 30
0.0
 11
-818.332245
 21
96.792624
 31
0.0
  0
LINE
  5
5D8
330
74
100
AcDbEntity
  8
2
  6
CENTER
 62
     2
100
AcDbLine
 10
-854.3355059999999
 20
44.79262399999999
 30
0.0
 11
-357.048339
 21
44.79262399999999
 31
0.0
  0
LINE
  5
5D9
330
74
100
AcDbEntity
  8
2
100
AcDbLine
 10
-588.5020289999999
 20
67.292624
 30
0.0
 11
-588.5020289999999
 21
22.292624
 31
0.0
  0
ARC
  5
5DA
330
74
100
AcDbEntity
  8
2
100
AcDbCircle
 10
-585.5020289999999
 20
70.292624
 30
0.0
 40
3.0
100
AcDbArc
 50
180.0
 51
270.0
  0
ARC
  5
5DB
330
74
100
AcDbEntity
  8
2
100
AcDbCircle
 10
-585.5020289999999
 20
19.292624
 30
0.0
 40
3.0
100
AcDbArc
 50
90.0
 51
180.0
  0
LINE
  5
5DC
330
74
100
AcDbEntity
  8
2
100
AcDbLine
 10
-766.2046029999999
 20
56.79262399999999
 30
0.0
 11
-752.348197
 21
56.79262399999999
 31
0.0
  0
LINE
  5
5DD
330
74
100
AcDbEntity
  8
2
100
AcDbLine
 10
-766.2046029999999
 20
32.792624
 30
0.0
 11
-752.348197
 21
32.792624
 31
0.0
  0
LINE
  5
5DE
330
74
100
AcDbEntity
  8
2
100
AcDbLine
 10
-773.132807
 20
44.79262399999999
 30
0.0
 11
-766.2046029999999
 21
56.79262399999999
 31
0.0
  0
LINE
  5
5DF
330
74
100
AcDbEntity
  8
2
100
AcDbLine
 10
-752.348197
 20
32.792624
 30
0.0
 11
-745.4199940000001
 21
44.79262399999999
 31
0.0
  0
LINE
  5
5E0
330
74
100
AcDbEntity
  8
2
100
AcDbLine
 10
-766.2046029999999
 20
32.792624
 30
0.0
 11
-773.132807
 21
44.79262399999999
 31
0.0
  0
LINE
  5
5E1
330
74
100
AcDbEntity
  8
2
100
AcDbLine
 10
-745.4199940000001
 20
44.79262399999999
 30
0.0
 11
-752.348197
 21
56.79262399999999
 31
0.0
  0
LINE
  5
5E2
330
74
100
AcDbEntity
  8
2
100
AcDbLine
 10
-666.2046029999999
 20
56.79262399999999
 30
0.0
 11
-652.348197
 21
56.79262399999999
 31
0.0
  0
LINE
  5
5E3
330
74
100
AcDbEntity
  8
2
100
AcDbLine
 10
-666.2046029999999
 20
32.792624
 30
0.0
 11
-652.348197
 21
32.792624
 31
0.0
  0
LINE
  5
5E4
330
74
100
AcDbEntity
  8
2
100
AcDbLine
 10
-673.132807
 20
44.79262399999999
 30
0.0
 11
-666.2046029999999
 21
56.79262399999999
 31
0.0
  0
LINE
  5
5E5
330
74
100
AcDbEntity
  8
2
100
AcDbLine
 10
-652.348197
 20
32.792624
 30
0.0
 11
-645.4199940000001
 21
44.79262399999999
 31
0.0
  0
LINE
  5
5E6
330
74
100
AcDbEntity
  8
2
100
AcDbLine
 10
-666.2046029999999
 20
32.792624
 30
0.0
 11
-673.132807
 21
44.79262399999999
 31
0.0
  0
LINE
  5
5E7
330
74
100
AcDbEntity
  8
2
100
AcDbLine
 10
-645.4199940000001
 20
44.79262399999999
 30
0.0
 11
-652.348197
 21
56.79262399999999
 31
0.0
  0
LINE
  5
5E8
330
74
100
AcDbEntity
  8
2
100
AcDbLine
 10
-409.1764
 20
59.79262399999999
 30
0.0
 11
-404.2764
 21
59.79262399999999
 31
0.0
  0
LINE
  5
5E9
330
74
100
AcDbEntity
  8
2
100
AcDbLine
 10
-409.1764
 20
44.79262399999999
 30
0.0
 11
-404.2764
 21
44.79262399999999
 31
0.0
  0
LINE
  5
5EA
330
74
100
AcDbEntity
  8
2
100
AcDbLine
 10
-414.2764
 20
61.692624
 30
0.0
 11
-409.1764
 21
61.692624
 31
0.0
  0
LINE
  5
5EB
330
74
100
AcDbEntity
  8
2
100
AcDbLine
 10
-409.1764
 20
61.692624
 30
0.0
 11
-409.1764
 21
40.065216
 31
0.0
  0
LINE
  5
5EC
330
74
100
AcDbEntity
  8
2
100
AcDbLine
 10
-378.2764
 20
217.491308
 30
0.0
 11
-378.2764
 21
-127.90606
 31
0.0
  0
LINE
  5
5ED
330
74
100
AcDbEntity
  8
2
100
AcDbLine
 10
-404.2764
 20
217.491308
 30
0.0
 11
-404.2764
 21
-127.90606
 31
0.0
  0
ARC
  5
5EE
330
74
100
AcDbEntity
  8
2
100
AcDbCircle
 10
-391.2764
 20
-112.707376
 30
0.0
 40
20.0
100
AcDbArc
 50
229.458398
 51
310.541602
  0
ARC
  5
5EF
330
74
100
AcDbEntity
  8
2
100
AcDbCircle
 10
-391.2764
 20
202.292624
 30
0.0
 40
20.0
100
AcDbArc
 50
49.45839799999999
 51
130.541602
  0
LINE
  5
5F0
330
74
100
AcDbEntity
  8
2
100
AcDbLine
 10
-450.2763999999999
 20
72.35125699999999
 30
0.0
 11
-450.2763999999999
 21
17.333991
 31
0.0
  0
ARC
  5
5F1
330
74
100
AcDbEntity
  8
2
100
AcDbCircle
 10
-432.2764
 20
44.992624
 30
0.0
 40
33.0
100
AcDbArc
 50
236.944269
 51
275.678517
  0
ARC
  5
5F2
330
74
100
AcDbEntity
  8
2
100
AcDbCircle
 10
-450.2763999999999
 20
5.892623999999999
 30
0.0
 40
10.0
100
AcDbArc
 50
5.464286
 51
65.3
  0
LINE
  5
5F3
330
74
100
AcDbEntity
  8
2
100
AcDbLine
 10
-414.2764
 20
72.35125699999999
 30
0.0
 11
-414.2764
 21
44.371365
 31
0.0
  0
LINE
  5
5F4
330
74
100
AcDbEntity
  8
2
100
AcDbLine
 10
-404.2764
 20
-33.674055
 30
0.0
 11
-414.8387229999999
 21
-15.379575
 31
0.0
  0
LINE
  5
5F5
330
74
100
AcDbEntity
  8
2
100
AcDbLine
 10
-404.2764
 20
-69.67405500000001
 30
0.0
 11
-430.2262759999999
 21
-24.727552
 31
0.0
  0
ARC
  5
5F6
330
74
100
AcDbEntity
  8
2
100
AcDbCircle
 10
-362.676294
 20
14.272448
 30
0.0
 40
78.0
100
AcDbArc
 50
185.464286
 51
210.0
  0
ARC
  5
5F7
330
74
100
AcDbEntity
  8
2
100
AcDbCircle
 10
-362.877199
 20
14.620425
 30
0.0
 40
60.0
100
AcDbArc
 50
188.891048
 51
210.0
  0
ARC
  5
5F8
330
74
100
AcDbEntity
  8
2
100
AcDbCircle
 10
-412.2764
 20
6.892624
 30
0.0
 40
10.0
100
AcDbArc
 50
179.101309
 51
188.891048
  0
LINE
  5
5F9
330
74
100
AcDbEntity
  8
2
100
AcDbLine
 10
-437.4821339999999
 20
48.766791
 30
0.0
 11
-404.2764
 21
20.729761
 31
0.0
  0
LINE
  5
5FA
330
74
100
AcDbEntity
  8
2
100
AcDbLine
 10
-404.2764
 20
-6.591499
 30
0.0
 11
-437.5975469999999
 21
18.662042
 31
0.0
  0
LINE
  5
5FB
330
74
100
AcDbEntity
  8
2
100
AcDbLine
 10
-418.097842
 20
47.59797299999999
 30
0.0
 11
-404.2764
 21
35.927935
 31
0.0
  0
ARC
  5
5FC
330
74
100
AcDbEntity
  8
2
100
AcDbCircle
 10
-443.6376809999999
 20
10.692301
 30
0.0
 40
10.0
100
AcDbArc
 50
52.84211899999999
 51
90.0
  0
ARC
  5
5FD
330
74
100
AcDbEntity
  8
2
100
AcDbCircle
 10
-443.93349
 20
41.12610899999999
 30
0.0
 40
10.0
100
AcDbArc
 50
49.82415900000001
 51
90.0
  0
ARC
  5
5FE
330
74
100
AcDbEntity
  8
2
100
AcDbCircle
 10
-416.807571
 20
49.126109
 30
0.0
 40
2.0
100
AcDbArc
 50
90.0
 51
229.824159
  0
LINE
  5
5FF
330
74
100
AcDbEntity
  8
2
100
AcDbLine
 10
-404.2764
 20
135.111277
 30
0.0
 11
-437.5737980000001
 21
64.385638
 31
0.0
  0
LINE
  5
600
330
74
100
AcDbEntity
  8
2
100
AcDbLine
 10
-404.2764
 20
151.996744
 30
0.0
 11
-438.8412230000001
 21
80.425993
 31
0.0
  0
LINE
  5
601
330
74
100
AcDbEntity
  8
2
100
AcDbLine
 10
-420.9337339999999
 20
61.497056
 30
0.0
 11
-404.2764
 21
96.878215
 31
0.0
  0
ARC
  5
602
330
74
100
AcDbEntity
  8
2
100
AcDbCircle
 10
-447.846078
 20
84.774854
 30
0.0
 40
10.0
100
AcDbArc
 50
291.228331
 51
334.221956
  0
ARC
  5
603
330
74
100
AcDbEntity
  8
2
100
AcDbCircle
 10
-446.621259
 20
68.645153
 30
0.0
 40
10.0
100
AcDbArc
 50
270.0
 51
334.789098
  0
ARC
  5
604
330
74
100
AcDbEntity
  8
2
100
AcDbCircle
 10
-419.124242
 20
60.645153
 30
0.0
 40
2.0
100
AcDbArc
 50
154.789098
 51
270.0
  0
ARC
  5
605
330
74
100
AcDbEntity
  8
2
100
AcDbCircle
 10
-432.2764
 20
44.692624
 30
0.0
 40
33.0
100
AcDbArc
 50
56.94426899999999
 51
59.391215
  0
ARC
  5
606
330
74
100
AcDbEntity
  8
2
100
AcDbCircle
 10
-432.2764
 20
44.692624
 30
0.0
 40
33.0
100
AcDbArc
 50
111.228331
 51
123.055731
  0
LINE
  5
607
330
74
100
AcDbEntity
  8
2
100
AcDbLine
 10
-558.7763999999999
 20
89.79262400000001
 30
0.0
 11
-558.7763999999999
 21
-0.207376
 31
0.0
  0
LINE
  5
608
330
74
100
AcDbEntity
  8
2
100
AcDbLine
 10
-551.981098
 20
59.79262399999999
 30
0.0
 11
-556.2763999999999
 21
60.540026
 31
0.0
  0
LINE
  5
609
330
74
100
AcDbEntity
  8
2
100
AcDbLine
 10
-551.981098
 20
29.792624
 30
0.0
 11
-556.2763999999999
 21
29.045223
 31
0.0
  0
LINE
  5
60A
330
74
100
AcDbEntity
  8
2
  6
CENTER
 62
     2
100
AcDbLine
 10
393.9236
 20
103.992624
 30
0.0
 11
393.9236
 21
-17.007376
 31
0.0
  0
LINE
  5
60B
330
74
100
AcDbEntity
  8
2
100
AcDbLine
 10
375.376363
 20
85.79262400000001
 30
0.0
 11
151.9236
 21
85.79262400000001
 31
0.0
  0
LINE
  5
60C
330
74
100
AcDbEntity
  8
2
100
AcDbLine
 10
398.9236
 20
-6.207376
 30
0.0
 11
154.9236
 21
-6.207376
 31
0.0
  0
ARC
  5
60D
330
74
100
AcDbEntity
  8
2
100
AcDbCircle
 10
154.9236
 20
-3.207376
 30
0.0
 40
3.0
100
AcDbArc
 50
180.0
 51
270.0
  0
ARC
  5
60E
330
74
100
AcDbEntity
  8
2
100
AcDbCircle
 10
398.9236
 20
-3.207376
 30
0.0
 40
3.0
100
AcDbArc
 50
270.0
 51
0.0
  0
LINE
  5
60F
330
74
100
AcDbEntity
  8
2
100
AcDbLine
 10
376.9236
 20
-9.207376
 30
0.0
 11
376.9236
 21
-10.207376
 31
0.0
  0
LINE
  5
610
330
74
100
AcDbEntity
  8
2
100
AcDbLine
 10
176.9236
 20
-9.207376
 30
0.0
 11
176.9236
 21
-10.207376
 31
0.0
  0
ARC
  5
611
330
74
100
AcDbEntity
  8
2
100
AcDbCircle
 10
173.9236
 20
-9.207376
 30
0.0
 40
3.0
100
AcDbArc
 50
0.0
 51
90.0
  0
ARC
  5
612
330
74
100
AcDbEntity
  8
2
100
AcDbCircle
 10
379.9236
 20
-9.207376
 30
0.0
 40
3.0
100
AcDbArc
 50
90.0
 51
180.0
  0
LINE
  5
613
330
74
100
AcDbEntity
  8
2
100
AcDbLine
 10
376.523887
 20
86.29262399999999
 30
0.0
 11
151.9236
 21
86.29262399999999
 31
0.0
  0
LINE
  5
614
330
74
100
AcDbEntity
  8
2
100
AcDbLine
 10
398.9236
 20
95.292624
 30
0.0
 11
154.9236
 21
95.292624
 31
0.0
  0
ARC
  5
615
330
74
100
AcDbEntity
  8
2
100
AcDbCircle
 10
398.9236
 20
92.29262400000001
 30
0.0
 40
3.0
100
AcDbArc
 50
0.0
 51
90.0
  0
ARC
  5
616
330
74
100
AcDbEntity
  8
2
100
AcDbCircle
 10
154.9236
 20
92.29262400000001
 30
0.0
 40
3.0
100
AcDbArc
 50
90.0
 51
180.0
  0
LINE
  5
617
330
74
100
AcDbEntity
  8
2
100
AcDbLine
 10
306.9236
 20
67.292624
 30
0.0
 11
306.9236
 21
22.292624
 31
0.0
  0
LINE
  5
618
330
74
100
AcDbEntity
  8
2
100
AcDbLine
 10
246.9236
 20
67.292624
 30
0.0
 11
246.9236
 21
22.292624
 31
0.0
  0
LINE
  5
619
330
74
100
AcDbEntity
  8
2
100
AcDbLine
 10
306.9236
 20
67.292624
 30
0.0
 11
246.9236
 21
67.292624
 31
0.0
  0
LINE
  5
61A
330
74
100
AcDbEntity
  8
2
100
AcDbLine
 10
306.9236
 20
22.292624
 30
0.0
 11
246.9236
 21
22.292624
 31
0.0
  0
LINE
  5
61B
330
74
100
AcDbEntity
  8
2
100
AcDbLine
 10
171.2456
 20
59.79262399999999
 30
0.0
 11
147.9236
 21
59.79262399999999
 31
0.0
  0
LINE
  5
61C
330
74
100
AcDbEntity
  8
2
100
AcDbLine
 10
171.2456
 20
29.792624
 30
0.0
 11
147.9236
 21
29.792624
 31
0.0
  0
LINE
  5
61D
330
74
100
AcDbEntity
  8
2
100
AcDbLine
 10
150.9236
 20
59.79262399999999
 30
0.0
 11
150.9236
 21
29.792624
 31
0.0
  0
LINE
  5
61E
330
74
100
AcDbEntity
  8
2
100
AcDbLine
 10
151.9236
 20
-3.207376
 30
0.0
 11
151.9236
 21
29.792624
 31
0.0
  0
LINE
  5
61F
330
74
100
AcDbEntity
  8
2
100
AcDbLine
 10
151.9236
 20
59.79262399999999
 30
0.0
 11
151.9236
 21
92.29262400000001
 31
0.0
  0
LINE
  5
620
330
74
100
AcDbEntity
  8
2
100
AcDbLine
 10
314.4236
 20
98.79262400000001
 30
0.0
 11
314.4236
 21
95.292624
 31
0.0
  0
LINE
  5
621
330
74
100
AcDbEntity
  8
2
100
AcDbLine
 10
239.4236
 20
98.79262400000001
 30
0.0
 11
239.4236
 21
95.292624
 31
0.0
  0
LINE
  5
622
330
74
100
AcDbEntity
  8
2
100
AcDbLine
 10
239.4236
 20
97.792624
 30
0.0
 11
314.4236
 21
97.792624
 31
0.0
  0
LINE
  5
623
330
74
100
AcDbEntity
  8
2
100
AcDbLine
 10
215.233737
 20
103.792624
 30
0.0
 11
321.9236
 21
103.792624
 31
0.0
  0
LINE
  5
624
330
74
100
AcDbEntity
  8
2
100
AcDbLine
 10
321.9236
 20
103.792624
 30
0.0
 11
321.9236
 21
100.792624
 31
0.0
  0
LINE
  5
625
330
74
100
AcDbEntity
  8
2
100
AcDbLine
 10
215.233737
 20
103.792624
 30
0.0
 11
215.233737
 21
98.79262400000001
 31
0.0
  0
LINE
  5
626
330
74
100
AcDbEntity
  8
2
100
AcDbLine
 10
215.233737
 20
98.79262400000001
 30
0.0
 11
226.958297
 21
98.79262400000001
 31
0.0
  0
LINE
  5
627
330
74
100
AcDbEntity
  8
2
100
AcDbLine
 10
236.958297
 20
98.79262400000001
 30
0.0
 11
316.888903
 21
98.79262400000001
 31
0.0
  0
LINE
  5
628
330
74
100
AcDbEntity
  8
2
100
AcDbLine
 10
401.9236
 20
-3.207376
 30
0.0
 11
401.9236
 21
0.5094440000000001
 31
0.0
  0
LINE
  5
629
330
74
100
AcDbEntity
  8
2
100
AcDbLine
 10
401.9236
 20
89.075804
 30
0.0
 11
401.9236
 21
92.29262400000001
 31
0.0
  0
CIRCLE
  5
62A
330
74
100
AcDbEntity
  8
2
100
AcDbCircle
 10
393.9236
 20
44.79262399999999
 30
0.0
 40
15.0
  0
LINE
  5
62B
330
74
100
AcDbEntity
  8
2
  6
CENTER
 62
     2
100
AcDbLine
 10
296.369036
 20
89.98367599999999
 30
0.0
 11
296.369036
 21
115.252887
 31
0.0
  0
LINE
  5
62C
330
74
100
AcDbEntity
  8
2
  6
CENTER
 62
     2
100
AcDbLine
 10
257.478163
 20
89.98367599999999
 30
0.0
 11
257.478163
 21
115.252887
 31
0.0
  0
LINE
  5
62D
330
74
100
AcDbEntity
  8
2
  6
CENTER
 62
     2
100
AcDbLine
 10
168.367755
 20
107.722064
 30
0.0
 11
168.367755
 21
80.61636599999999
 31
0.0
  0
LINE
  5
62E
330
74
100
AcDbEntity
  8
2
  6
CENTER
 62
     2
100
AcDbLine
 10
385.479445
 20
107.722064
 30
0.0
 11
385.479445
 21
89.879397
 31
0.0
  0
LINE
  5
62F
330
74
100
AcDbEntity
  8
2
  6
CENTER
 62
     2
100
AcDbLine
 10
321.888903
 20
107.722064
 30
0.0
 11
321.888903
 21
80.61636599999999
 31
0.0
  0
LINE
  5
630
330
74
100
AcDbEntity
  8
2
  6
CENTER
 62
     2
100
AcDbLine
 10
231.958297
 20
107.722064
 30
0.0
 11
231.958297
 21
80.61636599999999
 31
0.0
  0
LINE
  5
631
330
74
100
AcDbEntity
  8
2
  6
CENTER
 62
     2
100
AcDbLine
 10
503.5017619999999
 20
44.79262399999999
 30
0.0
 11
98.33333299999999
 21
44.79262399999999
 31
0.0
  0
LINE
  5
632
330
74
100
AcDbEntity
  8
2
100
AcDbLine
 10
263.728163
 20
105.392624
 30
0.0
 11
263.728163
 21
103.792624
 31
0.0
  0
LINE
  5
633
330
74
100
AcDbEntity
  8
2
100
AcDbLine
 10
251.228163
 20
105.392624
 30
0.0
 11
251.228163
 21
103.792624
 31
0.0
  0
LINE
  5
634
330
74
100
AcDbEntity
  8
2
100
AcDbLine
 10
302.619036
 20
105.392624
 30
0.0
 11
302.619036
 21
103.792624
 31
0.0
  0
LINE
  5
635
330
74
100
AcDbEntity
  8
2
100
AcDbLine
 10
290.119036
 20
105.392624
 30
0.0
 11
290.119036
 21
103.792624
 31
0.0
  0
LINE
  5
636
330
74
100
AcDbEntity
  8
2
100
AcDbLine
 10
251.228163
 20
105.392624
 30
0.0
 11
263.728163
 21
105.392624
 31
0.0
  0
LINE
  5
637
330
74
100
AcDbEntity
  8
2
100
AcDbLine
 10
290.119036
 20
105.392624
 30
0.0
 11
302.619036
 21
105.392624
 31
0.0
  0
LINE
  5
638
330
74
100
AcDbEntity
  8
2
  6
CENTER
 62
     2
100
AcDbLine
 10
358.461137
 20
9.330161
 30
0.0
 11
379.601945
 21
30.470969
 31
0.0
  0
LINE
  5
639
330
74
100
AcDbEntity
  8
2
  6
CENTER
 62
     2
100
AcDbLine
 10
408.9263009999999
 20
59.795325
 30
0.0
 11
429.271485
 21
80.14050899999999
 31
0.0
  0
LINE
  5
63A
330
74
100
AcDbEntity
  8
2
  6
CENTER
 62
     2
100
AcDbLine
 10
359.67133
 20
79.044894
 30
0.0
 11
379.183201
 21
59.533023
 31
0.0
  0
LINE
  5
63B
330
74
100
AcDbEntity
  8
2
  6
CENTER
 62
     2
100
AcDbLine
 10
409.0874069999999
 20
29.628817
 30
0.0
 11
429.307408
 21
9.408815999999999
 31
0.0
  0
ARC
  5
63C
330
74
100
AcDbEntity
  8
2
  6
CENTER
 62
     2
100
AcDbCircle
 10
393.9236
 20
44.79262399999999
 30
0.0
 40
35.0
100
AcDbArc
 50
19.862835
 51
68.497047
  0
ARC
  5
63D
330
74
100
AcDbEntity
  8
2
  6
CENTER
 62
     2
100
AcDbCircle
 10
393.9236
 20
44.79262399999999
 30
0.0
 40
35.0
100
AcDbArc
 50
292.550725
 51
339.559649
  0
ARC
  5
63E
330
74
100
AcDbEntity
  8
2
  6
CENTER
 62
     2
100
AcDbCircle
 10
393.9236
 20
44.79262399999999
 30
0.0
 40
35.0
100
AcDbArc
 50
112.688748
 51
158.889894
  0
ARC
  5
63F
330
74
100
AcDbEntity
  8
2
  6
CENTER
 62
     2
100
AcDbCircle
 10
393.9236
 20
44.79262399999999
 30
0.0
 40
35.0
100
AcDbArc
 50
199.589463
 51
248.659218
  0
LINE
  5
640
330
74
100
AcDbEntity
  8
2
100
AcDbLine
 10
291.369036
 20
105.392624
 30
0.0
 11
291.369036
 21
109.392624
 31
0.0
  0
LINE
  5
641
330
74
100
AcDbEntity
  8
2
100
AcDbLine
 10
291.369036
 20
109.392624
 30
0.0
 11
301.369036
 21
109.392624
 31
0.0
  0
ARC
  5
642
330
74
100
AcDbEntity
  8
2
100
AcDbCircle
 10
293.869036
 20
102.779416
 30
0.0
 40
6.613208
100
AcDbArc
 50
67.78820500000001
 51
112.211795
  0
LINE
  5
643
330
74
100
AcDbEntity
  8
2
100
AcDbLine
 10
301.369036
 20
105.392624
 30
0.0
 11
301.369036
 21
109.392624
 31
0.0
  0
LINE
  5
644
330
74
100
AcDbEntity
  8
2
100
AcDbLine
 10
296.369036
 20
105.392624
 30
0.0
 11
296.369036
 21
108.901876
 31
0.0
  0
ARC
  5
645
330
74
100
AcDbEntity
  8
2
100
AcDbCircle
 10
298.869036
 20
102.779416
 30
0.0
 40
6.613208
100
AcDbArc
 50
67.78820500000001
 51
112.211795
  0
LINE
  5
646
330
74
100
AcDbEntity
  8
2
100
AcDbLine
 10
252.478163
 20
105.392624
 30
0.0
 11
252.478163
 21
109.392624
 31
0.0
  0
LINE
  5
647
330
74
100
AcDbEntity
  8
2
100
AcDbLine
 10
252.478163
 20
109.392624
 30
0.0
 11
262.478163
 21
109.392624
 31
0.0
  0
LINE
  5
648
330
74
100
AcDbEntity
  8
2
100
AcDbLine
 10
257.478163
 20
105.392624
 30
0.0
 11
257.478163
 21
108.901876
 31
0.0
  0
ARC
  5
649
330
74
100
AcDbEntity
  8
2
100
AcDbCircle
 10
254.978163
 20
102.779416
 30
0.0
 40
6.613208
100
AcDbArc
 50
67.78820500000001
 51
112.211795
  0
LINE
  5
64A
330
74
100
AcDbEntity
  8
2
100
AcDbLine
 10
262.478163
 20
105.392624
 30
0.0
 11
262.478163
 21
109.392624
 31
0.0
  0
ARC
  5
64B
330
74
100
AcDbEntity
  8
2
100
AcDbCircle
 10
259.978163
 20
102.779416
 30
0.0
 40
6.613208
100
AcDbArc
 50
67.78820500000001
 51
112.211795
  0
LINE
  5
64C
330
74
100
AcDbEntity
  8
2
100
AcDbLine
 10
163.367755
 20
96.792624
 30
0.0
 11
163.367755
 21
100.792624
 31
0.0
  0
LINE
  5
64D
330
74
100
AcDbEntity
  8
2
100
AcDbLine
 10
163.367755
 20
100.792624
 30
0.0
 11
173.367755
 21
100.792624
 31
0.0
  0
LINE
  5
64E
330
74
100
AcDbEntity
  8
2
100
AcDbLine
 10
168.367755
 20
96.792624
 30
0.0
 11
168.367755
 21
100.301876
 31
0.0
  0
ARC
  5
64F
330
74
100
AcDbEntity
  8
2
100
AcDbCircle
 10
165.867755
 20
94.179416
 30
0.0
 40
6.613208
100
AcDbArc
 50
67.78820500000001
 51
112.211795
  0
LINE
  5
650
330
74
100
AcDbEntity
  8
2
100
AcDbLine
 10
173.367755
 20
96.792624
 30
0.0
 11
173.367755
 21
100.792624
 31
0.0
  0
ARC
  5
651
330
74
100
AcDbEntity
  8
2
100
AcDbCircle
 10
170.867755
 20
94.179416
 30
0.0
 40
6.613208
100
AcDbArc
 50
67.78820500000001
 51
112.211795
  0
LINE
  5
652
330
74
100
AcDbEntity
  8
2
100
AcDbLine
 10
162.267755
 20
95.292624
 30
0.0
 11
162.267755
 21
96.792624
 31
0.0
  0
LINE
  5
653
330
74
100
AcDbEntity
  8
2
100
AcDbLine
 10
162.267755
 20
96.792624
 30
0.0
 11
174.467755
 21
96.792624
 31
0.0
  0
LINE
  5
654
330
74
100
AcDbEntity
  8
2
100
AcDbLine
 10
174.467755
 20
96.792624
 30
0.0
 11
174.467755
 21
95.292624
 31
0.0
  0
LINE
  5
655
330
74
100
AcDbEntity
  8
2
100
AcDbLine
 10
226.958297
 20
96.792624
 30
0.0
 11
226.958297
 21
100.792624
 31
0.0
  0
LINE
  5
656
330
74
100
AcDbEntity
  8
2
100
AcDbLine
 10
226.958297
 20
100.792624
 30
0.0
 11
236.958297
 21
100.792624
 31
0.0
  0
LINE
  5
657
330
74
100
AcDbEntity
  8
2
100
AcDbLine
 10
231.958297
 20
96.792624
 30
0.0
 11
231.958297
 21
100.301876
 31
0.0
  0
ARC
  5
658
330
74
100
AcDbEntity
  8
2
100
AcDbCircle
 10
229.458297
 20
94.179416
 30
0.0
 40
6.613208
100
AcDbArc
 50
67.78820500000001
 51
112.211795
  0
LINE
  5
659
330
74
100
AcDbEntity
  8
2
100
AcDbLine
 10
236.958297
 20
96.792624
 30
0.0
 11
236.958297
 21
100.792624
 31
0.0
  0
ARC
  5
65A
330
74
100
AcDbEntity
  8
2
100
AcDbCircle
 10
234.458297
 20
94.179416
 30
0.0
 40
6.613208
100
AcDbArc
 50
67.78820500000001
 51
112.211795
  0
LINE
  5
65B
330
74
100
AcDbEntity
  8
2
100
AcDbLine
 10
225.858297
 20
95.292624
 30
0.0
 11
225.858297
 21
96.792624
 31
0.0
  0
LINE
  5
65C
330
74
100
AcDbEntity
  8
2
100
AcDbLine
 10
225.858297
 20
96.792624
 30
0.0
 11
238.058297
 21
96.792624
 31
0.0
  0
LINE
  5
65D
330
74
100
AcDbEntity
  8
2
100
AcDbLine
 10
238.058297
 20
96.792624
 30
0.0
 11
238.058297
 21
95.292624
 31
0.0
  0
LINE
  5
65E
330
74
100
AcDbEntity
  8
2
100
AcDbLine
 10
316.888903
 20
96.792624
 30
0.0
 11
316.888903
 21
100.792624
 31
0.0
  0
LINE
  5
65F
330
74
100
AcDbEntity
  8
2
100
AcDbLine
 10
316.888903
 20
100.792624
 30
0.0
 11
326.888903
 21
100.792624
 31
0.0
  0
LINE
  5
660
330
74
100
AcDbEntity
  8
2
100
AcDbLine
 10
321.888903
 20
96.792624
 30
0.0
 11
321.888903
 21
100.301876
 31
0.0
  0
ARC
  5
661
330
74
100
AcDbEntity
  8
2
100
AcDbCircle
 10
319.388903
 20
94.179416
 30
0.0
 40
6.613208
100
AcDbArc
 50
67.78820500000001
 51
112.211795
  0
LINE
  5
662
330
74
100
AcDbEntity
  8
2
100
AcDbLine
 10
326.888903
 20
96.792624
 30
0.0
 11
326.888903
 21
100.792624
 31
0.0
  0
ARC
  5
663
330
74
100
AcDbEntity
  8
2
100
AcDbCircle
 10
324.388903
 20
94.179416
 30
0.0
 40
6.613208
100
AcDbArc
 50
67.78820500000001
 51
112.211795
  0
LINE
  5
664
330
74
100
AcDbEntity
  8
2
100
AcDbLine
 10
315.788903
 20
95.292624
 30
0.0
 11
315.788903
 21
96.792624
 31
0.0
  0
LINE
  5
665
330
74
100
AcDbEntity
  8
2
100
AcDbLine
 10
315.788903
 20
96.792624
 30
0.0
 11
327.988903
 21
96.792624
 31
0.0
  0
LINE
  5
666
330
74
100
AcDbEntity
  8
2
100
AcDbLine
 10
327.988903
 20
96.792624
 30
0.0
 11
327.988903
 21
95.292624
 31
0.0
  0
LINE
  5
667
330
74
100
AcDbEntity
  8
2
100
AcDbLine
 10
380.479445
 20
96.792624
 30
0.0
 11
380.479445
 21
100.792624
 31
0.0
  0
LINE
  5
668
330
74
100
AcDbEntity
  8
2
100
AcDbLine
 10
380.479445
 20
100.792624
 30
0.0
 11
390.479445
 21
100.792624
 31
0.0
  0
LINE
  5
669
330
74
100
AcDbEntity
  8
2
100
AcDbLine
 10
385.479445
 20
96.792624
 30
0.0
 11
385.479445
 21
100.301876
 31
0.0
  0
ARC
  5
66A
330
74
100
AcDbEntity
  8
2
100
AcDbCircle
 10
382.979445
 20
94.179416
 30
0.0
 40
6.613208
100
AcDbArc
 50
67.78820500000001
 51
112.211795
  0
LINE
  5
66B
330
74
100
AcDbEntity
  8
2
100
AcDbLine
 10
390.479445
 20
96.792624
 30
0.0
 11
390.479445
 21
100.792624
 31
0.0
  0
ARC
  5
66C
330
74
100
AcDbEntity
  8
2
100
AcDbCircle
 10
387.979445
 20
94.179416
 30
0.0
 40
6.613208
100
AcDbArc
 50
67.78820500000001
 51
112.211795
  0
LINE
  5
66D
330
74
100
AcDbEntity
  8
2
100
AcDbLine
 10
379.379445
 20
95.292624
 30
0.0
 11
379.379445
 21
96.792624
 31
0.0
  0
LINE
  5
66E
330
74
100
AcDbEntity
  8
2
100
AcDbLine
 10
379.379445
 20
96.792624
 30
0.0
 11
391.579445
 21
96.792624
 31
0.0
  0
LINE
  5
66F
330
74
100
AcDbEntity
  8
2
100
AcDbLine
 10
391.579445
 20
96.792624
 30
0.0
 11
391.579445
 21
95.292624
 31
0.0
  0
CIRCLE
  5
670
330
74
100
AcDbEntity
  8
2
100
AcDbCircle
 10
369.174862
 20
69.54136099999999
 30
0.0
 40
8.25
  0
ARC
  5
671
330
74
100
AcDbEntity
  8
2
100
AcDbCircle
 10
369.174862
 20
69.54136099999999
 30
0.0
 40
9.199999999999999
100
AcDbArc
 50
127.505018
 51
172.494982
  0
ARC
  5
672
330
74
100
AcDbEntity
  8
2
100
AcDbCircle
 10
369.174862
 20
69.54136099999999
 30
0.0
 40
9.199999999999999
100
AcDbArc
 50
67.50501800000001
 51
112.494982
  0
ARC
  5
673
330
74
100
AcDbEntity
  8
2
100
AcDbCircle
 10
369.174862
 20
69.54136099999999
 30
0.0
 40
9.199999999999999
100
AcDbArc
 50
7.505018
 51
52.49498199999999
  0
ARC
  5
674
330
74
100
AcDbEntity
  8
2
100
AcDbCircle
 10
369.174862
 20
69.54136099999999
 30
0.0
 40
9.199999999999999
100
AcDbArc
 50
307.505018
 51
352.494982
  0
ARC
  5
675
330
74
100
AcDbEntity
  8
2
100
AcDbCircle
 10
369.174862
 20
69.54136099999999
 30
0.0
 40
9.199999999999999
100
AcDbArc
 50
247.505018
 51
292.494982
  0
ARC
  5
676
330
74
100
AcDbEntity
  8
2
100
AcDbCircle
 10
369.174862
 20
69.54136099999999
 30
0.0
 40
9.199999999999999
100
AcDbArc
 50
187.505018
 51
232.494982
  0
LINE
  5
677
330
74
100
AcDbEntity
  8
2
100
AcDbLine
 10
147.9236
 20
59.79262399999999
 30
0.0
 11
147.9236
 21
29.792624
 31
0.0
  0
LINE
  5
678
330
74
100
AcDbEntity
  8
2
100
AcDbLine
 10
147.9236
 20
32.792624
 30
0.0
 11
134.9236
 21
32.792624
 31
0.0
  0
LINE
  5
679
330
74
100
AcDbEntity
  8
2
100
AcDbLine
 10
134.9236
 20
32.792624
 30
0.0
 11
134.9236
 21
56.79262399999999
 31
0.0
  0
ARC
  5
67A
330
74
100
AcDbEntity
  8
2
100
AcDbCircle
 10
148.868759
 20
38.792624
 30
0.0
 40
13.945159
100
AcDbArc
 50
154.516139
 51
205.483861
  0
LINE
  5
67B
330
74
100
AcDbEntity
  8
2
100
AcDbLine
 10
147.9236
 20
56.79262399999999
 30
0.0
 11
134.9236
 21
56.79262399999999
 31
0.0
  0
LINE
  5
67C
330
74
100
AcDbEntity
  8
2
100
AcDbLine
 10
147.9236
 20
44.79262399999999
 30
0.0
 11
136.280373
 21
44.79262399999999
 31
0.0
  0
ARC
  5
67D
330
74
100
AcDbEntity
  8
2
100
AcDbCircle
 10
148.868759
 20
50.792624
 30
0.0
 40
13.945159
100
AcDbArc
 50
154.516139
 51
205.483861
  0
LINE
  5
67E
330
74
100
AcDbEntity
  8
2
100
AcDbLine
 10
122.9236
 20
56.79262399999999
 30
0.0
 11
122.9236
 21
32.792624
 31
0.0
  0
LINE
  5
67F
330
74
100
AcDbEntity
  8
2
100
AcDbLine
 10
122.9236
 20
32.792624
 30
0.0
 11
112.9236
 21
32.792624
 31
0.0
  0
LINE
  5
680
330
74
100
AcDbEntity
  8
2
100
AcDbLine
 10
112.9236
 20
32.792624
 30
0.0
 11
112.9236
 21
56.79262399999999
 31
0.0
  0
ARC
  5
681
330
74
100
AcDbEntity
  8
2
100
AcDbCircle
 10
126.868759
 20
38.792624
 30
0.0
 40
13.945159
100
AcDbArc
 50
154.516139
 51
205.483861
  0
LINE
  5
682
330
74
100
AcDbEntity
  8
2
100
AcDbLine
 10
134.9236
 20
36.792624
 30
0.0
 11
122.9236
 21
36.792624
 31
0.0
  0
LINE
  5
683
330
74
100
AcDbEntity
  8
2
100
AcDbLine
 10
129.8411
 20
52.792624
 30
0.0
 11
129.8411
 21
36.792624
 31
0.0
  0
LINE
  5
684
330
74
100
AcDbEntity
  8
2
 62
     2
100
AcDbLine
 10
134.9236
 20
37.875124
 30
0.0
 11
129.8411
 21
37.875124
 31
0.0
  0
LINE
  5
685
330
74
100
AcDbEntity
  8
2
 62
     2
100
AcDbLine
 10
129.8411
 20
37.875124
 30
0.0
 11
122.9236
 21
36.792624
 31
0.0
  0
LINE
  5
686
330
74
100
AcDbEntity
  8
2
100
AcDbLine
 10
122.9236
 20
56.79262399999999
 30
0.0
 11
112.9236
 21
56.79262399999999
 31
0.0
  0
LINE
  5
687
330
74
100
AcDbEntity
  8
2
100
AcDbLine
 10
122.9236
 20
44.79262399999999
 30
0.0
 11
114.280373
 21
44.79262399999999
 31
0.0
  0
ARC
  5
688
330
74
100
AcDbEntity
  8
2
100
AcDbCircle
 10
126.868759
 20
50.792624
 30
0.0
 40
13.945159
100
AcDbArc
 50
154.516139
 51
205.483861
  0
LINE
  5
689
330
74
100
AcDbEntity
  8
2
100
AcDbLine
 10
134.9236
 20
52.792624
 30
0.0
 11
122.9236
 21
52.792624
 31
0.0
  0
LINE
  5
68A
330
74
100
AcDbEntity
  8
2
 62
     2
100
AcDbLine
 10
134.9236
 20
51.710124
 30
0.0
 11
129.8411
 21
51.710124
 31
0.0
  0
LINE
  5
68B
330
74
100
AcDbEntity
  8
2
 62
     2
100
AcDbLine
 10
129.8411
 20
51.710124
 30
0.0
 11
122.9236
 21
52.792624
 31
0.0
  0
LINE
  5
68C
330
74
100
AcDbEntity
  8
2
100
AcDbLine
 10
174.2456
 20
59.79262399999999
 30
0.0
 11
174.2456
 21
29.792624
 31
0.0
  0
ARC
  5
68D
330
74
100
AcDbEntity
  8
2
100
AcDbCircle
 10
171.2456
 20
62.792624
 30
0.0
 40
3.0
100
AcDbArc
 50
270.0
 51
0.0
  0
ARC
  5
68E
330
74
100
AcDbEntity
  8
2
100
AcDbCircle
 10
171.2456
 20
26.792624
 30
0.0
 40
3.0
100
AcDbArc
 50
0.0
 51
90.0
  0
LINE
  5
68F
330
74
100
AcDbEntity
  8
2
100
AcDbLine
 10
364.267385
 20
78.041361
 30
0.0
 11
374.08234
 21
78.041361
 31
0.0
  0
LINE
  5
690
330
74
100
AcDbEntity
  8
2
100
AcDbLine
 10
364.267385
 20
61.041361
 30
0.0
 11
374.08234
 21
61.041361
 31
0.0
  0
LINE
  5
691
330
74
100
AcDbEntity
  8
2
100
AcDbLine
 10
359.359908
 20
69.54136099999999
 30
0.0
 11
364.267385
 21
78.041361
 31
0.0
  0
LINE
  5
692
330
74
100
AcDbEntity
  8
2
100
AcDbLine
 10
374.08234
 20
61.041361
 30
0.0
 11
378.989817
 21
69.54136099999999
 31
0.0
  0
LINE
  5
693
330
74
100
AcDbEntity
  8
2
100
AcDbLine
 10
364.267385
 20
61.041361
 30
0.0
 11
359.359908
 21
69.54136099999999
 31
0.0
  0
LINE
  5
694
330
74
100
AcDbEntity
  8
2
100
AcDbLine
 10
378.989817
 20
69.54136099999999
 30
0.0
 11
374.08234
 21
78.041361
 31
0.0
  0
CIRCLE
  5
695
330
74
100
AcDbEntity
  8
2
100
AcDbCircle
 10
418.672337
 20
69.54136099999999
 30
0.0
 40
8.25
  0
ARC
  5
696
330
74
100
AcDbEntity
  8
2
100
AcDbCircle
 10
418.672337
 20
69.54136099999999
 30
0.0
 40
9.199999999999999
100
AcDbArc
 50
127.505018
 51
172.494982
  0
ARC
  5
697
330
74
100
AcDbEntity
  8
2
100
AcDbCircle
 10
418.672337
 20
69.54136099999999
 30
0.0
 40
9.199999999999999
100
AcDbArc
 50
67.50501800000001
 51
112.494982
  0
ARC
  5
698
330
74
100
AcDbEntity
  8
2
100
AcDbCircle
 10
418.672337
 20
69.54136099999999
 30
0.0
 40
9.199999999999999
100
AcDbArc
 50
7.505018
 51
52.49498199999999
  0
ARC
  5
699
330
74
100
AcDbEntity
  8
2
100
AcDbCircle
 10
418.672337
 20
69.54136099999999
 30
0.0
 40
9.199999999999999
100
AcDbArc
 50
307.505018
 51
352.494982
  0
ARC
  5
69A
330
74
100
AcDbEntity
  8
2
100
AcDbCircle
 10
418.672337
 20
69.54136099999999
 30
0.0
 40
9.199999999999999
100
AcDbArc
 50
247.505018
 51
292.494982
  0
ARC
  5
69B
330
74
100
AcDbEntity
  8
2
100
AcDbCircle
 10
418.672337
 20
69.54136099999999
 30
0.0
 40
9.199999999999999
100
AcDbArc
 50
187.505018
 51
232.494982
  0
LINE
  5
69C
330
74
100
AcDbEntity
  8
2
100
AcDbLine
 10
413.76486
 20
78.041361
 30
0.0
 11
423.5798139999999
 21
78.041361
 31
0.0
  0
LINE
  5
69D
330
74
100
AcDbEntity
  8
2
100
AcDbLine
 10
413.76486
 20
61.041361
 30
0.0
 11
423.5798139999999
 21
61.041361
 31
0.0
  0
LINE
  5
69E
330
74
100
AcDbEntity
  8
2
100
AcDbLine
 10
408.857383
 20
69.54136099999999
 30
0.0
 11
413.76486
 21
78.041361
 31
0.0
  0
LINE
  5
69F
330
74
100
AcDbEntity
  8
2
100
AcDbLine
 10
423.5798139999999
 20
61.041361
 30
0.0
 11
428.4872919999999
 21
69.54136099999999
 31
0.0
  0
LINE
  5
6A0
330
74
100
AcDbEntity
  8
2
100
AcDbLine
 10
413.76486
 20
61.041361
 30
0.0
 11
408.857383
 21
69.54136099999999
 31
0.0
  0
LINE
  5
6A1
330
74
100
AcDbEntity
  8
2
100
AcDbLine
 10
428.4872919999999
 20
69.54136099999999
 30
0.0
 11
423.5798139999999
 21
78.041361
 31
0.0
  0
CIRCLE
  5
6A2
330
74
100
AcDbEntity
  8
2
100
AcDbCircle
 10
369.174862
 20
20.043887
 30
0.0
 40
8.25
  0
ARC
  5
6A3
330
74
100
AcDbEntity
  8
2
100
AcDbCircle
 10
369.174862
 20
20.043887
 30
0.0
 40
9.199999999999999
100
AcDbArc
 50
127.505018
 51
172.494982
  0
ARC
  5
6A4
330
74
100
AcDbEntity
  8
2
100
AcDbCircle
 10
369.174862
 20
20.043887
 30
0.0
 40
9.199999999999999
100
AcDbArc
 50
67.50501800000001
 51
112.494982
  0
ARC
  5
6A5
330
74
100
AcDbEntity
  8
2
100
AcDbCircle
 10
369.174862
 20
20.043887
 30
0.0
 40
9.199999999999999
100
AcDbArc
 50
7.505018
 51
52.49498199999999
  0
ARC
  5
6A6
330
74
100
AcDbEntity
  8
2
100
AcDbCircle
 10
369.174862
 20
20.043887
 30
0.0
 40
9.199999999999999
100
AcDbArc
 50
307.505018
 51
352.494982
  0
ARC
  5
6A7
330
74
100
AcDbEntity
  8
2
100
AcDbCircle
 10
369.174862
 20
20.043887
 30
0.0
 40
9.199999999999999
100
AcDbArc
 50
247.505018
 51
292.494982
  0
ARC
  5
6A8
330
74
100
AcDbEntity
  8
2
100
AcDbCircle
 10
369.174862
 20
20.043887
 30
0.0
 40
9.199999999999999
100
AcDbArc
 50
187.505018
 51
232.494982
  0
LINE
  5
6A9
330
74
100
AcDbEntity
  8
2
100
AcDbLine
 10
364.267385
 20
28.543887
 30
0.0
 11
374.08234
 21
28.543887
 31
0.0
  0
LINE
  5
6AA
330
74
100
AcDbEntity
  8
2
100
AcDbLine
 10
364.267385
 20
11.543887
 30
0.0
 11
374.08234
 21
11.543887
 31
0.0
  0
LINE
  5
6AB
330
74
100
AcDbEntity
  8
2
100
AcDbLine
 10
359.359908
 20
20.043887
 30
0.0
 11
364.267385
 21
28.543887
 31
0.0
  0
LINE
  5
6AC
330
74
100
AcDbEntity
  8
2
100
AcDbLine
 10
374.08234
 20
11.543887
 30
0.0
 11
378.989817
 21
20.043887
 31
0.0
  0
LINE
  5
6AD
330
74
100
AcDbEntity
  8
2
100
AcDbLine
 10
364.267385
 20
11.543887
 30
0.0
 11
359.359908
 21
20.043887
 31
0.0
  0
LINE
  5
6AE
330
74
100
AcDbEntity
  8
2
100
AcDbLine
 10
378.989817
 20
20.043887
 30
0.0
 11
374.08234
 21
28.543887
 31
0.0
  0
CIRCLE
  5
6AF
330
74
100
AcDbEntity
  8
2
100
AcDbCircle
 10
418.672337
 20
20.043887
 30
0.0
 40
8.25
  0
ARC
  5
6B0
330
74
100
AcDbEntity
  8
2
100
AcDbCircle
 10
418.672337
 20
20.043887
 30
0.0
 40
9.199999999999999
100
AcDbArc
 50
127.505018
 51
172.494982
  0
ARC
  5
6B1
330
74
100
AcDbEntity
  8
2
100
AcDbCircle
 10
418.672337
 20
20.043887
 30
0.0
 40
9.199999999999999
100
AcDbArc
 50
67.50501800000001
 51
112.494982
  0
ARC
  5
6B2
330
74
100
AcDbEntity
  8
2
100
AcDbCircle
 10
418.672337
 20
20.043887
 30
0.0
 40
9.199999999999999
100
AcDbArc
 50
7.505018
 51
52.49498199999999
  0
ARC
  5
6B3
330
74
100
AcDbEntity
  8
2
100
AcDbCircle
 10
418.672337
 20
20.043887
 30
0.0
 40
9.199999999999999
100
AcDbArc
 50
307.505018
 51
352.494982
  0
ARC
  5
6B4
330
74
100
AcDbEntity
  8
2
100
AcDbCircle
 10
418.672337
 20
20.043887
 30
0.0
 40
9.199999999999999
100
AcDbArc
 50
247.505018
 51
292.494982
  0
ARC
  5
6B5
330
74
100
AcDbEntity
  8
2
100
AcDbCircle
 10
418.672337
 20
20.043887
 30
0.0
 40
9.199999999999999
100
AcDbArc
 50
187.505018
 51
232.494982
  0
LINE
  5
6B6
330
74
100
AcDbEntity
  8
2
100
AcDbLine
 10
413.76486
 20
28.543887
 30
0.0
 11
423.5798139999999
 21
28.543887
 31
0.0
  0
LINE
  5
6B7
330
74
100
AcDbEntity
  8
2
100
AcDbLine
 10
413.76486
 20
11.543887
 30
0.0
 11
423.5798139999999
 21
11.543887
 31
0.0
  0
LINE
  5
6B8
330
74
100
AcDbEntity
  8
2
100
AcDbLine
 10
408.857383
 20
20.043887
 30
0.0
 11
413.76486
 21
28.543887
 31
0.0
  0
LINE
  5
6B9
330
74
100
AcDbEntity
  8
2
100
AcDbLine
 10
423.5798139999999
 20
11.543887
 30
0.0
 11
428.4872919999999
 21
20.043887
 31
0.0
  0
LINE
  5
6BA
330
74
100
AcDbEntity
  8
2
100
AcDbLine
 10
413.76486
 20
11.543887
 30
0.0
 11
408.857383
 21
20.043887
 31
0.0
  0
LINE
  5
6BB
330
74
100
AcDbEntity
  8
2
100
AcDbLine
 10
428.4872919999999
 20
20.043887
 30
0.0
 11
423.5798139999999
 21
28.543887
 31
0.0
  0
CIRCLE
  5
6BC
330
74
100
AcDbEntity
  8
2
  6
PHANTOM
 62
     2
100
AcDbCircle
 10
393.9236
 20
44.79262399999999
 30
0.0
 40
177.5
  0
LINE
  5
6BD
330
74
100
AcDbEntity
  8
2
100
AcDbLine
 10
435.9236
 20
60.94811899999999
 30
0.0
 11
435.9236
 21
28.63713
 31
0.0
  0
ARC
  5
6BE
330
74
100
AcDbEntity
  8
2
100
AcDbCircle
 10
393.9236
 20
44.79262399999999
 30
0.0
 40
45.0
100
AcDbArc
 50
15.46601
 51
344.53399
  0
LINE
  5
6BF
330
74
100
AcDbEntity
  8
2
100
AcDbLine
 10
441.9236
 20
62.792624
 30
0.0
 11
441.9236
 21
26.792624
 31
0.0
  0
LINE
  5
6C0
330
74
100
AcDbEntity
  8
2
100
AcDbLine
 10
441.9236
 20
56.79262399999999
 30
0.0
 11
435.9236
 21
56.79262399999999
 31
0.0
  0
LINE
  5
6C1
330
74
100
AcDbEntity
  8
2
100
AcDbLine
 10
441.9236
 20
32.792624
 30
0.0
 11
435.9236
 21
32.792624
 31
0.0
  0
LINE
  5
6C2
330
74
100
AcDbEntity
  8
2
100
AcDbLine
 10
450.9236
 20
62.792624
 30
0.0
 11
450.9236
 21
26.792624
 31
0.0
  0
LINE
  5
6C3
330
74
100
AcDbEntity
  8
2
100
AcDbLine
 10
450.9236
 20
62.792624
 30
0.0
 11
441.9236
 21
62.792624
 31
0.0
  0
LINE
  5
6C4
330
74
100
AcDbEntity
  8
2
100
AcDbLine
 10
450.9236
 20
26.792624
 30
0.0
 11
441.9236
 21
26.792624
 31
0.0
  0
LINE
  5
6C5
330
74
100
AcDbEntity
  8
2
100
AcDbLine
 10
463.9236
 20
54.612164
 30
0.0
 11
463.9236
 21
34.973085
 31
0.0
  0
LINE
  5
6C6
330
74
100
AcDbEntity
  8
2
100
AcDbLine
 10
450.9236
 20
50.792624
 30
0.0
 11
463.9236
 21
50.792624
 31
0.0
  0
LINE
  5
6C7
330
74
100
AcDbEntity
  8
2
 62
     2
100
AcDbLine
 10
450.9236
 20
49.845624
 30
0.0
 11
460.4236
 21
49.845624
 31
0.0
  0
LINE
  5
6C8
330
74
100
AcDbEntity
  8
2
 62
     2
100
AcDbLine
 10
460.4236
 20
49.845624
 30
0.0
 11
463.9236
 21
50.792624
 31
0.0
  0
LINE
  5
6C9
330
74
100
AcDbEntity
  8
2
100
AcDbLine
 10
450.9236
 20
38.792624
 30
0.0
 11
463.9236
 21
38.792624
 31
0.0
  0
LINE
  5
6CA
330
74
100
AcDbEntity
  8
2
100
AcDbLine
 10
460.4236
 20
38.792624
 30
0.0
 11
460.4236
 21
50.792624
 31
0.0
  0
LINE
  5
6CB
330
74
100
AcDbEntity
  8
2
 62
     2
100
AcDbLine
 10
450.9236
 20
39.739624
 30
0.0
 11
460.4236
 21
39.739624
 31
0.0
  0
LINE
  5
6CC
330
74
100
AcDbEntity
  8
2
 62
     2
100
AcDbLine
 10
460.4236
 20
39.739624
 30
0.0
 11
463.9236
 21
38.792624
 31
0.0
  0
LINE
  5
6CD
330
74
100
AcDbEntity
  8
2
100
AcDbLine
 10
475.087999
 20
53.931891
 30
0.0
 11
465.0879989999999
 21
55.598558
 31
0.0
  0
LINE
  5
6CE
330
74
100
AcDbEntity
  8
2
100
AcDbLine
 10
475.087999
 20
35.653357
 30
0.0
 11
465.0879989999999
 21
33.986691
 31
0.0
  0
LINE
  5
6CF
330
74
100
AcDbEntity
  8
2
100
AcDbLine
 10
490.489544
 20
48.292003
 30
0.0
 11
463.9236
 21
48.79262399999999
 31
0.0
  0
LINE
  5
6D0
330
74
100
AcDbEntity
  8
2
100
AcDbLine
 10
490.489544
 20
41.293245
 30
0.0
 11
463.9236
 21
40.792624
 31
0.0
  0
ARC
  5
6D1
330
74
100
AcDbEntity
  8
2
100
AcDbCircle
 10
490.4236
 20
44.79262399999999
 30
0.0
 40
3.5
100
AcDbArc
 50
271.079581
 51
88.920419
  0
LINE
  5
6D2
330
74
100
AcDbEntity
  8
2
100
AcDbLine
 10
475.9236
 20
36.639751
 30
0.0
 11
475.9236
 21
41.018758
 31
0.0
  0
LINE
  5
6D3
330
74
100
AcDbEntity
  8
2
100
AcDbLine
 10
475.9236
 20
48.56649
 30
0.0
 11
475.9236
 21
52.945497
 31
0.0
  0
ARC
  5
6D4
330
74
100
AcDbEntity
  8
2
100
AcDbCircle
 10
474.9236
 20
36.639751
 30
0.0
 40
1.0
100
AcDbArc
 50
279.462322
 51
0.0
  0
ARC
  5
6D5
330
74
100
AcDbEntity
  8
2
100
AcDbCircle
 10
474.9236
 20
52.945497
 30
0.0
 40
1.0
100
AcDbArc
 50
0.0
 51
80.53767800000001
  0
ARC
  5
6D6
330
74
100
AcDbEntity
  8
2
100
AcDbCircle
 10
464.9236
 20
54.612164
 30
0.0
 40
1.0
100
AcDbArc
 50
80.53767800000001
 51
180.0
  0
ARC
  5
6D7
330
74
100
AcDbEntity
  8
2
100
AcDbCircle
 10
464.9236
 20
34.973085
 30
0.0
 40
1.0
100
AcDbArc
 50
180.0
 51
279.462322
  0
DIMENSION
  5
6D8
330
74
100
AcDbEntity
  8
5
100
AcDbDimension
  2
*D0
 10
-378.2764
 20
829.417862
 30
0.0
 11
-543.7763999999999
 21
844.4678619999999
 31
0.0
  1
331
 71
     5
 42
-1.0
  3
Standard
100
AcDbAlignedDimension
 13
-709.2763999999999
 23
665.892624
 33
0.0
 14
-378.2764
 24
780.391308
 34
0.0
100
AcDbRotatedDimension
  0
DIMENSION
  5
6D9
330
74
100
AcDbEntity
  8
5
100
AcDbDimension
  2
*D1
 10
-274.246136
 20
-132.707376
 30
0.0
 11
-310.086136
 21
35.552624
 31
0.0
 70
     1
  1
%%c355
 71
     5
 42
-1.0
  3
Standard
100
AcDbAlignedDimension
 13
-391.2764
 23
222.292624
 33
0.0
 14
-391.2764
 24
-132.707376
 34
0.0
  0
DIMENSION
  5
6DA
330
74
100
AcDbEntity
  8
5
100
AcDbDimension
  2
*D2
 10
-274.246136
 20
607.692624
 30
0.0
 11
-302.001136
 21
548.037624
 31
0.0
  1
117
 71
     5
 42
-1.0
  3
Standard
100
AcDbAlignedDimension
 13
-387.475831
 23
490.692624
 33
0.0
 14
-357.048339
 24
607.692624
 34
0.0
 50
90.0
100
AcDbRotatedDimension
  0
DIMENSION
  5
6DB
330
74
100
AcDbEntity
  8
5
100
AcDbDimension
  2
*D3
 10
-274.246136
 20
490.692624
 30
0.0
 11
-302.001136
 21
407.537624
 31
0.0
  1
164
 71
     5
 42
-1.0
  3
Standard
100
AcDbAlignedDimension
 13
-647.7763999999999
 23
326.692624
 33
0.0
 14
-387.475831
 24
490.692624
 34
0.0
 50
90.0
100
AcDbRotatedDimension
  0
DIMENSION
  5
6DC
330
74
100
AcDbEntity
  8
5
100
AcDbDimension
  2
*D4
 10
43.922701
 20
44.79262399999999
 30
0.0
 11
24.252701
 21
85.392624
 31
0.0
  1
55
 71
     5
 42
-1.0
  3
Standard
100
AcDbAlignedDimension
 13
176.9236
 23
-10.207376
 33
0.0
 14
98.33333299999999
 24
44.79262399999999
 34
0.0
 50
90.0
100
AcDbRotatedDimension
  0
DIMENSION
  5
6DD
330
74
100
AcDbEntity
  8
5
100
AcDbDimension
  2
*D5
 10
43.922701
 20
-10.207376
 30
0.0
 11
16.167701
 21
-221.362376
 31
0.0
  1
420
 71
     5
 42
-1.0
  3
Standard
100
AcDbAlignedDimension
 13
171.022742
 23
-430.2073759999999
 33
0.0
 14
176.9236
 24
-10.207376
 34
0.0
 50
90.0
100
AcDbRotatedDimension
  0
DIMENSION
  5
6DE
330
74
100
AcDbEntity
  8
5
100
AcDbDimension
  2
*D6
 10
43.922701
 20
-430.2073759999999
 30
0.0
 11
16.167701
 21
-620.8623759999999
 31
0.0
  1
379
 71
     5
 42
-1.0
  3
Standard
100
AcDbAlignedDimension
 13
268.2766
 23
-809.2073759999999
 33
0.0
 14
171.022742
 24
-430.2073759999999
 34
0.0
 50
90.0
100
AcDbRotatedDimension
  0
DIMENSION
  5
6DF
330
74
100
AcDbEntity
  8
5
100
AcDbDimension
  2
*D7
 10
333.4236
 20
-896.554459
 30
0.0
 11
276.9236
 21
-881.5044589999999
 31
0.0
  1
113
 71
     5
 42
-1.0
  3
Standard
100
AcDbAlignedDimension
 13
220.4236
 23
-693.7471429999999
 33
0.0
 14
333.4236
 24
-693.7471429999999
 34
0.0
100
AcDbRotatedDimension
  0
TEXT
  5
6E0
330
74
100
AcDbEntity
  8
18
100
AcDbText
 10
855.012413
 20
-932.847946
 30
0.0
 40
21.0
  1
１
100
AcDbText
  0
TEXT
  5
6E1
330
74
100
AcDbEntity
  8
18
100
AcDbText
 10
885.7886050000001
 20
-959.707092
 30
0.0
 40
21.0
  1
７
100
AcDbText
  0
LINE
  5
6E2
330
74
100
AcDbEntity
  8
18
100
AcDbLine
 10
3.627730999999999
 20
-430.2073759999999
 30
0.0
 11
-206.372269
 21
-430.2073759999999
 31
0.0
  0
LINE
  5
6E3
330
74
100
AcDbEntity
  8
18
100
AcDbLine
 10
3.627730999999999
 20
-430.2073759999999
 30
0.0
 11
-66.37226899999999
 21
-411.4509319999999
 31
0.0
  0
LINE
  5
6E4
330
74
100
AcDbEntity
  8
18
100
AcDbLine
 10
-66.37226899999999
 20
-411.4509319999999
 30
0.0
 11
-66.37226899999999
 21
-448.963819
 31
0.0
  0
LINE
  5
6E5
330
74
100
AcDbEntity
  8
18
100
AcDbLine
 10
3.627730999999999
 20
-430.2073759999999
 30
0.0
 11
-66.37226899999999
 21
-448.963819
 31
0.0
  0
TEXT
  5
6E6
330
74
100
AcDbEntity
  8
18
100
AcDbText
 10
-190.807663
 20
-424.2263939999999
 30
0.0
 40
28.0
  1
流れ方向
100
AcDbText
  0
LINE
  5
6E7
330
74
100
AcDbEntity
  8
18
100
AcDbLine
 10
480.7156749999999
 20
805.6481859999999
 30
0.0
 11
480.7156749999999
 21
560.648186
 31
0.0
  0
LINE
  5
6E8
330
74
100
AcDbEntity
  8
18
100
AcDbLine
 10
1264.715675
 20
630.6481859999999
 30
0.0
 11
480.7156749999999
 21
630.6481859999999
 31
0.0
  0
LINE
  5
6E9
330
74
100
AcDbEntity
  8
18
100
AcDbLine
 10
1264.715675
 20
595.648186
 30
0.0
 11
480.7156749999999
 21
595.648186
 31
0.0
  0
LINE
  5
6EA
330
74
100
AcDbEntity
  8
18
100
AcDbLine
 10
1264.715675
 20
560.648186
 30
0.0
 11
480.7156749999999
 21
560.648186
 31
0.0
  0
LINE
  5
6EB
330
74
100
AcDbEntity
  8
18
100
AcDbLine
 10
676.715675
 20
805.6481859999999
 30
0.0
 11
676.715675
 21
595.648186
 31
0.0
  0
LINE
  5
6EC
330
74
100
AcDbEntity
  8
18
100
AcDbLine
 10
872.715675
 20
805.6481859999999
 30
0.0
 11
872.715675
 21
595.648186
 31
0.0
  0
LINE
  5
6ED
330
74
100
AcDbEntity
  8
18
100
AcDbLine
 10
1068.715675
 20
805.6481859999999
 30
0.0
 11
1068.715675
 21
595.648186
 31
0.0
  0
LINE
  5
6EE
330
74
100
AcDbEntity
  8
18
100
AcDbLine
 10
1264.715675
 20
805.6481859999999
 30
0.0
 11
1264.715675
 21
560.648186
 31
0.0
  0
LINE
  5
6EF
330
74
100
AcDbEntity
  8
18
100
AcDbLine
 10
480.7156749999999
 20
805.6481859999999
 30
0.0
 11
1264.715675
 21
805.6481859999999
 31
0.0
  0
LWPOLYLINE
  5
6F0
330
74
100
AcDbEntity
  8
18
 62
     2
100
AcDbPolyline
 90
        2
 70
     0
 43
0.0
 10
571.504469
 20
692.756324
 10
571.504469
 20
660.9901429999999
  0
LINE
  5
6F4
330
74
100
AcDbEntity
  8
18
 62
     2
100
AcDbLine
 10
571.504469
 20
679.2333629999999
 30
0.0
 11
575.1279359999999
 21
679.2333629999999
 31
0.0
  0
LINE
  5
6F5
330
74
100
AcDbEntity
  8
18
 62
     2
100
AcDbLine
 10
575.1279359999999
 20
679.2333629999999
 30
0.0
 11
571.504469
 21
692.756324
 31
0.0
  0
LINE
  5
6F6
330
74
100
AcDbEntity
  8
18
 62
     2
100
AcDbLine
 10
571.504469
 20
692.756324
 30
0.0
 11
567.8810019999999
 21
679.2333629999999
 31
0.0
  0
LINE
  5
6F7
330
74
100
AcDbEntity
  8
18
 62
     2
100
AcDbLine
 10
567.8810019999999
 20
679.2333629999999
 30
0.0
 11
571.504469
 21
679.2333629999999
 31
0.0
  0
TEXT
  5
6F8
330
74
100
AcDbEntity
  8
18
100
AcDbText
 10
565.630836
 20
603.8933409999999
 30
0.0
 40
21.0
  1
Ａ
100
AcDbText
  0
TEXT
  5
6F9
330
74
100
AcDbEntity
  8
18
100
AcDbText
 10
761.5472030000001
 20
603.3322599999999
 30
0.0
 40
21.0
  1
Ｂ
100
AcDbText
  0
TEXT
  5
6FA
330
74
100
AcDbEntity
  8
18
100
AcDbText
 10
957.6308359999998
 20
603.8933409999999
 30
0.0
 40
21.0
  1
Ｃ
100
AcDbText
  0
TEXT
  5
6FB
330
74
100
AcDbEntity
  8
18
100
AcDbText
 10
760.425095
 20
568.1449859999999
 30
0.0
 40
21.0
  1
アクチュエ－タ取付方向
100
AcDbText
  0
TEXT
  5
6FC
330
74
100
AcDbEntity
  8
18
100
AcDbText
 10
1153.630836
 20
603.8933409999999
 30
0.0
 40
21.0
  1
Ｄ
100
AcDbText
  0
TEXT
  5
6FD
330
74
100
AcDbEntity
  8
18
100
AcDbText
 10
539.1124369999999
 20
633.9674989999999
 30
0.0
 40
21.0
  1
一次側
100
AcDbText
  0
TEXT
  5
6FE
330
74
100
AcDbEntity
  8
18
100
AcDbText
 10
539.1124369999999
 20
777.967499
 30
0.0
 40
21.0
  1
二次側
100
AcDbText
  0
LINE
  5
6FF
330
74
100
AcDbEntity
  8
18
  6
CENTER
 62
     2
100
AcDbLine
 10
529.127486
 20
732.253844
 30
0.0
 11
612.627608
 21
732.253844
 31
0.0
  0
LINE
  5
700
330
74
100
AcDbEntity
  8
18
  6
CENTER
 62
     2
100
AcDbLine
 10
571.255659
 20
771.098012
 30
0.0
 11
571.255659
 21
702.6255449999999
 31
0.0
  0
LINE
  5
701
330
74
100
AcDbEntity
  8
18
100
AcDbLine
 10
607.655659
 20
742.333844
 30
0.0
 11
607.655659
 21
722.173844
 31
0.0
  0
LINE
  5
702
330
74
100
AcDbEntity
  8
18
100
AcDbLine
 10
534.8556589999999
 20
742.333844
 30
0.0
 11
534.8556589999999
 21
722.173844
 31
0.0
  0
LINE
  5
703
330
74
100
AcDbEntity
  8
18
100
AcDbLine
 10
619.220891
 20
771.9438219999999
 30
0.0
 11
619.220891
 21
739.4638219999999
 31
0.0
  0
LINE
  5
704
330
74
100
AcDbEntity
  8
18
100
AcDbLine
 10
625.9408909999999
 20
771.9438219999999
 30
0.0
 11
625.9408909999999
 21
739.4638219999999
 31
0.0
  0
LINE
  5
705
330
74
100
AcDbEntity
  8
18
100
AcDbLine
 10
535.9756589999999
 20
743.4538439999999
 30
0.0
 11
551.85669
 21
743.4538439999999
 31
0.0
  0
LINE
  5
706
330
74
100
AcDbEntity
  8
18
100
AcDbLine
 10
590.654629
 20
743.4538439999999
 30
0.0
 11
606.535659
 21
743.4538439999999
 31
0.0
  0
LINE
  5
707
330
74
100
AcDbEntity
  8
18
100
AcDbLine
 10
535.9756589999999
 20
721.053844
 30
0.0
 11
551.85669
 21
721.053844
 31
0.0
  0
LINE
  5
708
330
74
100
AcDbEntity
  8
18
100
AcDbLine
 10
590.654629
 20
721.053844
 30
0.0
 11
606.535659
 21
721.053844
 31
0.0
  0
ARC
  5
709
330
74
100
AcDbEntity
  8
18
100
AcDbCircle
 10
622.580891
 20
771.9438219999999
 30
0.0
 40
3.359999999999999
100
AcDbArc
 50
0.0
 51
180.0
  0
ARC
  5
70A
330
74
100
AcDbEntity
  8
18
100
AcDbCircle
 10
622.580891
 20
739.4638219999999
 30
0.0
 40
3.359999999999999
100
AcDbArc
 50
180.0
 51
0.0
  0
ARC
  5
70B
330
74
100
AcDbEntity
  8
18
100
AcDbCircle
 10
535.9756589999999
 20
742.333844
 30
0.0
 40
1.12
100
AcDbArc
 50
90.0
 51
180.0
  0
ARC
  5
70C
330
74
100
AcDbEntity
  8
18
100
AcDbCircle
 10
535.9756589999999
 20
722.173844
 30
0.0
 40
1.12
100
AcDbArc
 50
180.0
 51
270.0
  0
ARC
  5
70D
330
74
100
AcDbEntity
  8
18
100
AcDbCircle
 10
606.535659
 20
742.333844
 30
0.0
 40
1.12
100
AcDbArc
 50
0.0
 51
90.0
  0
ARC
  5
70E
330
74
100
AcDbEntity
  8
18
100
AcDbCircle
 10
606.535659
 20
722.173844
 30
0.0
 40
1.12
100
AcDbArc
 50
270.0
 51
0.0
  0
LINE
  5
70F
330
74
100
AcDbEntity
  8
18
100
AcDbLine
 10
554.455659
 20
760.253844
 30
0.0
 11
554.455659
 21
747.0700509999999
 31
0.0
  0
LINE
  5
710
330
74
100
AcDbEntity
  8
18
100
AcDbLine
 10
588.055659
 20
760.253844
 30
0.0
 11
588.055659
 21
747.0700509999999
 31
0.0
  0
LINE
  5
711
330
74
100
AcDbEntity
  8
18
100
AcDbLine
 10
554.455659
 20
760.253844
 30
0.0
 11
588.055659
 21
760.253844
 31
0.0
  0
CIRCLE
  5
712
330
74
100
AcDbEntity
  8
18
100
AcDbCircle
 10
571.255659
 20
732.253844
 30
0.0
 40
22.4
  0
LINE
  5
713
330
74
100
AcDbEntity
  8
18
100
AcDbLine
 10
588.055659
 20
757.453844
 30
0.0
 11
619.2658159999999
 21
757.453844
 31
0.0
  0
LINE
  5
714
330
74
100
AcDbEntity
  8
18
100
AcDbLine
 10
588.055659
 20
753.8138439999999
 30
0.0
 11
619.2658159999999
 21
753.8138439999999
 31
0.0
  0
LINE
  5
715
330
74
100
AcDbEntity
  8
18
100
AcDbLine
 10
559.185594
 20
720.183778
 30
0.0
 11
556.2153469999999
 21
717.2135309999999
 31
0.0
  0
LINE
  5
716
330
74
100
AcDbEntity
  8
18
100
AcDbLine
 10
574.022816
 20
725.824004
 30
0.0
 11
561.832428
 21
720.5777279999999
 31
0.0
  0
LINE
  5
717
330
74
100
AcDbEntity
  8
18
100
AcDbLine
 10
564.813403
 20
734.9919679999999
 30
0.0
 11
559.622169
 21
722.77804
 31
0.0
  0
ARC
  5
718
330
74
100
AcDbEntity
  8
18
100
AcDbCircle
 10
561.168311
 20
722.12089
 30
0.0
 40
1.679999999999999
100
AcDbArc
 50
156.973261
 51
293.28519
  0
ARC
  5
719
330
74
100
AcDbEntity
  8
18
100
AcDbCircle
 10
571.255659
 20
732.253844
 30
0.0
 40
7.0
100
AcDbArc
 50
293.28519
 51
156.973261
  0
LINE
  5
71A
330
74
100
AcDbEntity
  8
18
100
AcDbLine
 10
583.325725
 20
720.183778
 30
0.0
 11
586.295972
 21
717.2135309999999
 31
0.0
  0
TEXT
  5
71B
330
74
100
AcDbEntity
  8
18
100
AcDbText
 10
559.1239339999999
 20
728.910199
 30
0.0
 40
8.4
  1
Ｓ
 50
180.0
100
AcDbText
  0
TEXT
  5
71C
330
74
100
AcDbEntity
  8
18
100
AcDbText
 10
590.3264209999999
 20
728.433268
 30
0.0
 40
8.4
  1
Ｏ
 50
180.0
100
AcDbText
  0
LINE
  5
71D
330
74
100
AcDbEntity
  8
18
  6
CENTER
 62
     2
100
AcDbLine
 10
726.971221
 20
718.432346
 30
0.0
 11
810.471343
 21
718.432346
 31
0.0
  0
LINE
  5
71E
330
74
100
AcDbEntity
  8
18
  6
CENTER
 62
     2
100
AcDbLine
 10
769.0993950000001
 20
752.038391
 30
0.0
 11
769.0993950000001
 21
688.8040469999999
 31
0.0
  0
LINE
  5
71F
330
74
100
AcDbEntity
  8
18
100
AcDbLine
 10
805.499395
 20
728.512346
 30
0.0
 11
805.499395
 21
708.352346
 31
0.0
  0
LINE
  5
720
330
74
100
AcDbEntity
  8
18
100
AcDbLine
 10
732.699395
 20
728.512346
 30
0.0
 11
732.699395
 21
708.352346
 31
0.0
  0
LINE
  5
721
330
74
100
AcDbEntity
  8
18
100
AcDbLine
 10
808.7893730000001
 20
670.4671139999999
 30
0.0
 11
776.309373
 21
670.4671139999999
 31
0.0
  0
LINE
  5
722
330
74
100
AcDbEntity
  8
18
100
AcDbLine
 10
808.7893730000001
 20
663.747114
 30
0.0
 11
776.309373
 21
663.747114
 31
0.0
  0
LINE
  5
723
330
74
100
AcDbEntity
  8
18
100
AcDbLine
 10
733.8193949999999
 20
729.6323459999999
 30
0.0
 11
749.7004259999999
 21
729.6323459999999
 31
0.0
  0
LINE
  5
724
330
74
100
AcDbEntity
  8
18
100
AcDbLine
 10
797.0993950000001
 20
729.6323459999999
 30
0.0
 11
804.3793950000001
 21
729.6323459999999
 31
0.0
  0
LINE
  5
725
330
74
100
AcDbEntity
  8
18
100
AcDbLine
 10
733.8193949999999
 20
707.2323459999999
 30
0.0
 11
749.7004259999999
 21
707.2323459999999
 31
0.0
  0
LINE
  5
726
330
74
100
AcDbEntity
  8
18
100
AcDbLine
 10
797.0993950000001
 20
707.2323459999999
 30
0.0
 11
804.3793950000001
 21
707.2323459999999
 31
0.0
  0
ARC
  5
727
330
74
100
AcDbEntity
  8
18
100
AcDbCircle
 10
808.7893730000001
 20
667.1071139999999
 30
0.0
 40
3.359999999999999
100
AcDbArc
 50
270.0
 51
90.0
  0
ARC
  5
728
330
74
100
AcDbEntity
  8
18
100
AcDbCircle
 10
776.309373
 20
667.1071139999999
 30
0.0
 40
3.359999999999999
100
AcDbArc
 50
90.0
 51
270.0
  0
ARC
  5
729
330
74
100
AcDbEntity
  8
18
100
AcDbCircle
 10
733.8193949999999
 20
728.512346
 30
0.0
 40
1.12
100
AcDbArc
 50
90.0
 51
180.0
  0
ARC
  5
72A
330
74
100
AcDbEntity
  8
18
100
AcDbCircle
 10
733.8193949999999
 20
708.352346
 30
0.0
 40
1.12
100
AcDbArc
 50
180.0
 51
270.0
  0
ARC
  5
72B
330
74
100
AcDbEntity
  8
18
100
AcDbCircle
 10
804.3793950000001
 20
728.512346
 30
0.0
 40
1.12
100
AcDbArc
 50
0.0
 51
90.0
  0
ARC
  5
72C
330
74
100
AcDbEntity
  8
18
100
AcDbCircle
 10
804.3793950000001
 20
708.352346
 30
0.0
 40
1.12
100
AcDbArc
 50
270.0
 51
0.0
  0
LINE
  5
72D
330
74
100
AcDbEntity
  8
18
100
AcDbLine
 10
797.0993950000001
 20
735.232346
 30
0.0
 11
783.9156019999999
 21
735.232346
 31
0.0
  0
LINE
  5
72E
330
74
100
AcDbEntity
  8
18
100
AcDbLine
 10
797.0993950000001
 20
701.6323459999999
 30
0.0
 11
783.9156019999999
 21
701.6323459999999
 31
0.0
  0
LINE
  5
72F
330
74
100
AcDbEntity
  8
18
100
AcDbLine
 10
797.0993950000001
 20
735.232346
 30
0.0
 11
797.0993950000001
 21
701.6323459999999
 31
0.0
  0
CIRCLE
  5
730
330
74
100
AcDbEntity
  8
18
100
AcDbCircle
 10
769.0993950000001
 20
718.432346
 30
0.0
 40
22.4
  0
LINE
  5
731
330
74
100
AcDbEntity
  8
18
100
AcDbLine
 10
794.2993949999999
 20
701.6323459999999
 30
0.0
 11
794.2993949999999
 21
670.422189
 31
0.0
  0
LINE
  5
732
330
74
100
AcDbEntity
  8
18
100
AcDbLine
 10
790.659395
 20
701.6323459999999
 30
0.0
 11
790.659395
 21
670.422189
 31
0.0
  0
LINE
  5
733
330
74
100
AcDbEntity
  8
18
100
AcDbLine
 10
757.0293289999999
 20
730.502411
 30
0.0
 11
754.059083
 21
733.472658
 31
0.0
  0
LINE
  5
734
330
74
100
AcDbEntity
  8
18
100
AcDbLine
 10
762.6695549999999
 20
715.6651889999999
 30
0.0
 11
757.4232789999999
 21
727.8555769999999
 31
0.0
  0
LINE
  5
735
330
74
100
AcDbEntity
  8
18
100
AcDbLine
 10
771.837519
 20
724.8746019999999
 30
0.0
 11
759.623591
 21
730.0658359999999
 31
0.0
  0
ARC
  5
736
330
74
100
AcDbEntity
  8
18
100
AcDbCircle
 10
758.966441
 20
728.519694
 30
0.0
 40
1.679999999999999
100
AcDbArc
 50
66.97326099999999
 51
203.28519
  0
ARC
  5
737
330
74
100
AcDbEntity
  8
18
100
AcDbCircle
 10
769.0993950000001
 20
718.432346
 30
0.0
 40
7.0
100
AcDbArc
 50
203.28519
 51
66.97326099999999
  0
LINE
  5
738
330
74
100
AcDbEntity
  8
18
100
AcDbLine
 10
757.0293289999999
 20
706.3622799999999
 30
0.0
 11
754.059083
 21
703.3920329999999
 31
0.0
  0
TEXT
  5
739
330
74
100
AcDbEntity
  8
18
100
AcDbText
 10
765.75575
 20
730.844071
 30
0.0
 40
8.4
  1
Ｓ
 50
90.0
100
AcDbText
  0
TEXT
  5
73A
330
74
100
AcDbEntity
  8
18
100
AcDbText
 10
765.2788189999999
 20
699.361584
 30
0.0
 40
8.4
  1
Ｏ
 50
90.0
100
AcDbText
  0
LINE
  5
73B
330
74
100
AcDbEntity
  8
18
  6
CENTER
 62
     2
100
AcDbLine
 10
1007.227569
 20
718.432346
 30
0.0
 11
923.727447
 21
718.432346
 31
0.0
  0
LINE
  5
73C
330
74
100
AcDbEntity
  8
18
  6
CENTER
 62
     2
100
AcDbLine
 10
965.099395
 20
679.588177
 30
0.0
 11
965.099395
 21
748.060645
 31
0.0
  0
LINE
  5
73D
330
74
100
AcDbEntity
  8
18
100
AcDbLine
 10
928.6993949999999
 20
708.352346
 30
0.0
 11
928.6993949999999
 21
728.512346
 31
0.0
  0
LINE
  5
73E
330
74
100
AcDbEntity
  8
18
100
AcDbLine
 10
1001.499395
 20
708.352346
 30
0.0
 11
1001.499395
 21
728.512346
 31
0.0
  0
LINE
  5
73F
330
74
100
AcDbEntity
  8
18
100
AcDbLine
 10
917.134163
 20
678.7423669999999
 30
0.0
 11
917.134163
 21
711.2223669999999
 31
0.0
  0
LINE
  5
740
330
74
100
AcDbEntity
  8
18
100
AcDbLine
 10
910.414163
 20
678.7423669999999
 30
0.0
 11
910.414163
 21
711.2223669999999
 31
0.0
  0
LINE
  5
741
330
74
100
AcDbEntity
  8
18
100
AcDbLine
 10
1000.379395
 20
707.2323459999999
 30
0.0
 11
984.498364
 21
707.2323459999999
 31
0.0
  0
LINE
  5
742
330
74
100
AcDbEntity
  8
18
100
AcDbLine
 10
945.7004259999999
 20
707.2323459999999
 30
0.0
 11
929.8193949999998
 21
707.2323459999999
 31
0.0
  0
LINE
  5
743
330
74
100
AcDbEntity
  8
18
100
AcDbLine
 10
1000.379395
 20
729.6323459999999
 30
0.0
 11
984.498364
 21
729.6323459999999
 31
0.0
  0
LINE
  5
744
330
74
100
AcDbEntity
  8
18
100
AcDbLine
 10
945.7004259999999
 20
729.6323459999999
 30
0.0
 11
929.8193949999998
 21
729.6323459999999
 31
0.0
  0
ARC
  5
745
330
74
100
AcDbEntity
  8
18
100
AcDbCircle
 10
913.774163
 20
678.7423669999999
 30
0.0
 40
3.359999999999999
100
AcDbArc
 50
180.0
 51
0.0
  0
ARC
  5
746
330
74
100
AcDbEntity
  8
18
100
AcDbCircle
 10
913.774163
 20
711.2223669999999
 30
0.0
 40
3.359999999999999
100
AcDbArc
 50
0.0
 51
180.0
  0
ARC
  5
747
330
74
100
AcDbEntity
  8
18
100
AcDbCircle
 10
1000.379395
 20
708.352346
 30
0.0
 40
1.12
100
AcDbArc
 50
270.0
 51
0.0
  0
ARC
  5
748
330
74
100
AcDbEntity
  8
18
100
AcDbCircle
 10
1000.379395
 20
728.512346
 30
0.0
 40
1.12
100
AcDbArc
 50
0.0
 51
90.0
  0
ARC
  5
749
330
74
100
AcDbEntity
  8
18
100
AcDbCircle
 10
929.8193949999998
 20
708.352346
 30
0.0
 40
1.12
100
AcDbArc
 50
180.0
 51
270.0
  0
ARC
  5
74A
330
74
100
AcDbEntity
  8
18
100
AcDbCircle
 10
929.8193949999998
 20
728.512346
 30
0.0
 40
1.12
100
AcDbArc
 50
90.0
 51
180.0
  0
LINE
  5
74B
330
74
100
AcDbEntity
  8
18
100
AcDbLine
 10
981.8993949999999
 20
690.432346
 30
0.0
 11
981.8993949999999
 21
703.616138
 31
0.0
  0
LINE
  5
74C
330
74
100
AcDbEntity
  8
18
100
AcDbLine
 10
948.2993949999999
 20
690.432346
 30
0.0
 11
948.2993949999999
 21
703.616138
 31
0.0
  0
LINE
  5
74D
330
74
100
AcDbEntity
  8
18
100
AcDbLine
 10
981.8993949999999
 20
690.432346
 30
0.0
 11
948.2993949999999
 21
690.432346
 31
0.0
  0
CIRCLE
  5
74E
330
74
100
AcDbEntity
  8
18
100
AcDbCircle
 10
965.099395
 20
718.432346
 30
0.0
 40
22.4
  0
LINE
  5
74F
330
74
100
AcDbEntity
  8
18
100
AcDbLine
 10
948.2993949999999
 20
693.232346
 30
0.0
 11
917.089239
 21
693.232346
 31
0.0
  0
LINE
  5
750
330
74
100
AcDbEntity
  8
18
100
AcDbLine
 10
948.2993949999999
 20
696.8723459999999
 30
0.0
 11
917.089239
 21
696.8723459999999
 31
0.0
  0
LINE
  5
751
330
74
100
AcDbEntity
  8
18
100
AcDbLine
 10
977.16946
 20
730.502411
 30
0.0
 11
980.139707
 21
733.472658
 31
0.0
  0
LINE
  5
752
330
74
100
AcDbEntity
  8
18
100
AcDbLine
 10
962.3322380000001
 20
724.862186
 30
0.0
 11
974.5226259999999
 21
730.108461
 31
0.0
  0
LINE
  5
753
330
74
100
AcDbEntity
  8
18
100
AcDbLine
 10
971.5416519999999
 20
715.6942209999999
 30
0.0
 11
976.732885
 21
727.908149
 31
0.0
  0
ARC
  5
754
330
74
100
AcDbEntity
  8
18
100
AcDbCircle
 10
975.186743
 20
728.5652989999999
 30
0.0
 40
1.679999999999999
100
AcDbArc
 50
336.973261
 51
113.2851899999999
  0
ARC
  5
755
330
74
100
AcDbEntity
  8
18
100
AcDbCircle
 10
965.099395
 20
718.432346
 30
0.0
 40
7.0
100
AcDbArc
 50
113.2851899999999
 51
336.973261
  0
LINE
  5
756
330
74
100
AcDbEntity
  8
18
100
AcDbLine
 10
953.0293289999999
 20
730.502411
 30
0.0
 11
950.059083
 21
733.472658
 31
0.0
  0
TEXT
  5
757
330
74
100
AcDbEntity
  8
18
100
AcDbText
 10
977.2311199999998
 20
721.7759909999999
 30
0.0
 40
8.4
  1
Ｓ
100
AcDbText
  0
TEXT
  5
758
330
74
100
AcDbEntity
  8
18
100
AcDbText
 10
946.028633
 20
722.252921
 30
0.0
 40
8.4
  1
Ｏ
100
AcDbText
  0
LINE
  5
759
330
74
100
AcDbEntity
  8
18
  6
CENTER
 62
     2
100
AcDbLine
 10
1203.227569
 20
718.432346
 30
0.0
 11
1119.727447
 21
718.432346
 31
0.0
  0
LINE
  5
75A
330
74
100
AcDbEntity
  8
18
  6
CENTER
 62
     2
100
AcDbLine
 10
1161.099395
 20
684.8262999999999
 30
0.0
 11
1161.099395
 21
748.060645
 31
0.0
  0
LINE
  5
75B
330
74
100
AcDbEntity
  8
18
100
AcDbLine
 10
1124.699395
 20
708.352346
 30
0.0
 11
1124.699395
 21
728.512346
 31
0.0
  0
LINE
  5
75C
330
74
100
AcDbEntity
  8
18
100
AcDbLine
 10
1197.499395
 20
708.352346
 30
0.0
 11
1197.499395
 21
728.512346
 31
0.0
  0
LINE
  5
75D
330
74
100
AcDbEntity
  8
18
100
AcDbLine
 10
1121.409416
 20
766.3975769999999
 30
0.0
 11
1153.889416
 21
766.3975769999999
 31
0.0
  0
LINE
  5
75E
330
74
100
AcDbEntity
  8
18
100
AcDbLine
 10
1121.409416
 20
773.117577
 30
0.0
 11
1153.889416
 21
773.117577
 31
0.0
  0
LINE
  5
75F
330
74
100
AcDbEntity
  8
18
100
AcDbLine
 10
1196.379395
 20
707.2323459999999
 30
0.0
 11
1180.498364
 21
707.2323459999999
 31
0.0
  0
LINE
  5
760
330
74
100
AcDbEntity
  8
18
100
AcDbLine
 10
1133.099395
 20
707.2323459999999
 30
0.0
 11
1125.819395
 21
707.2323459999999
 31
0.0
  0
LINE
  5
761
330
74
100
AcDbEntity
  8
18
100
AcDbLine
 10
1196.379395
 20
729.6323459999999
 30
0.0
 11
1180.498364
 21
729.6323459999999
 31
0.0
  0
LINE
  5
762
330
74
100
AcDbEntity
  8
18
100
AcDbLine
 10
1133.099395
 20
729.6323459999999
 30
0.0
 11
1125.819395
 21
729.6323459999999
 31
0.0
  0
ARC
  5
763
330
74
100
AcDbEntity
  8
18
100
AcDbCircle
 10
1121.409416
 20
769.757577
 30
0.0
 40
3.359999999999999
100
AcDbArc
 50
90.0
 51
270.0
  0
ARC
  5
764
330
74
100
AcDbEntity
  8
18
100
AcDbCircle
 10
1153.889416
 20
769.757577
 30
0.0
 40
3.359999999999999
100
AcDbArc
 50
270.0
 51
90.0
  0
ARC
  5
765
330
74
100
AcDbEntity
  8
18
100
AcDbCircle
 10
1196.379395
 20
708.352346
 30
0.0
 40
1.12
100
AcDbArc
 50
270.0
 51
0.0
  0
ARC
  5
766
330
74
100
AcDbEntity
  8
18
100
AcDbCircle
 10
1196.379395
 20
728.512346
 30
0.0
 40
1.12
100
AcDbArc
 50
0.0
 51
90.0
  0
ARC
  5
767
330
74
100
AcDbEntity
  8
18
100
AcDbCircle
 10
1125.819395
 20
708.352346
 30
0.0
 40
1.12
100
AcDbArc
 50
180.0
 51
270.0
  0
ARC
  5
768
330
74
100
AcDbEntity
  8
18
100
AcDbCircle
 10
1125.819395
 20
728.512346
 30
0.0
 40
1.12
100
AcDbArc
 50
90.0
 51
180.0
  0
LINE
  5
769
330
74
100
AcDbEntity
  8
18
100
AcDbLine
 10
1133.099395
 20
701.6323459999999
 30
0.0
 11
1146.283187
 21
701.6323459999999
 31
0.0
  0
LINE
  5
76A
330
74
100
AcDbEntity
  8
18
100
AcDbLine
 10
1133.099395
 20
735.232346
 30
0.0
 11
1146.283187
 21
735.232346
 31
0.0
  0
LINE
  5
76B
330
74
100
AcDbEntity
  8
18
100
AcDbLine
 10
1133.099395
 20
701.6323459999999
 30
0.0
 11
1133.099395
 21
735.232346
 31
0.0
  0
CIRCLE
  5
76C
330
74
100
AcDbEntity
  8
18
100
AcDbCircle
 10
1161.099395
 20
718.432346
 30
0.0
 40
22.4
  0
LINE
  5
76D
330
74
100
AcDbEntity
  8
18
100
AcDbLine
 10
1135.899395
 20
735.232346
 30
0.0
 11
1135.899395
 21
766.442502
 31
0.0
  0
LINE
  5
76E
330
74
100
AcDbEntity
  8
18
100
AcDbLine
 10
1139.539395
 20
735.232346
 30
0.0
 11
1139.539395
 21
766.442502
 31
0.0
  0
LINE
  5
76F
330
74
100
AcDbEntity
  8
18
100
AcDbLine
 10
1173.16946
 20
706.3622799999999
 30
0.0
 11
1176.139707
 21
703.3920329999999
 31
0.0
  0
LINE
  5
770
330
74
100
AcDbEntity
  8
18
100
AcDbLine
 10
1167.529235
 20
721.1995019999999
 30
0.0
 11
1172.77551
 21
709.0091150000001
 31
0.0
  0
LINE
  5
771
330
74
100
AcDbEntity
  8
18
100
AcDbLine
 10
1158.36127
 20
711.990089
 30
0.0
 11
1170.575199
 21
706.7988549999999
 31
0.0
  0
ARC
  5
772
330
74
100
AcDbEntity
  8
18
100
AcDbCircle
 10
1171.232349
 20
708.3449969999999
 30
0.0
 40
1.679999999999999
100
AcDbArc
 50
246.973261
 51
23.28519
  0
ARC
  5
773
330
74
100
AcDbEntity
  8
18
100
AcDbCircle
 10
1161.099395
 20
718.432346
 30
0.0
 40
7.0
100
AcDbArc
 50
23.28519
 51
246.973261
  0
LINE
  5
774
330
74
100
AcDbEntity
  8
18
100
AcDbLine
 10
1173.16946
 20
730.502411
 30
0.0
 11
1176.139707
 21
733.472658
 31
0.0
  0
TEXT
  5
775
330
74
100
AcDbEntity
  8
18
100
AcDbText
 10
1164.44304
 20
706.02062
 30
0.0
 40
8.4
  1
Ｓ
 50
270.0
100
AcDbText
  0
TEXT
  5
776
330
74
100
AcDbEntity
  8
18
100
AcDbText
 10
1164.91997
 20
737.503107
 30
0.0
 40
8.4
  1
Ｏ
 50
270.0
100
AcDbText
  0
TEXT
  5
777
330
74
100
AcDbEntity
  8
18
100
AcDbText
 10
1075.2
 20
-952.0
 30
0.0
 40
35.0
  1
Ｄ３－０３１０３
100
AcDbText
  0
TEXT
  5
778
330
74
100
AcDbEntity
  8
18
100
AcDbText
 10
859.979683
 20
-889.2468410000001
 30
0.0
 40
21.0
  1
標準仕様　ＪＩＳ　１０，１６Ｋ
100
AcDbText
  0
TEXT
  5
779
330
74
100
AcDbEntity
  8
18
100
AcDbText
 10
1261.106781
 20
-888.200623
 30
0.0
 40
14.0
  1
２００２．１１．１８
100
AcDbText
  0
TEXT
  5
77A
330
74
100
AcDbEntity
  8
18
100
AcDbText
 10
859.979683
 20
-861.2468409999999
 30
0.0
 40
21.0
  1
５０８Ｖ－２ＳＡＳ　４５０Ａ
100
AcDbText
  0
LINE
  5
77B
330
74
100
AcDbEntity
  8
20
 62
     3
100
AcDbLine
 10
-1260.0
 20
-969.5
 30
0.0
 11
1400.0
 21
-969.5
 31
0.0
  0
LINE
  5
77C
330
74
100
AcDbEntity
  8
20
 62
     3
100
AcDbLine
 10
-1260.0
 20
924.0
 30
0.0
 11
1400.0
 21
924.0
 31
0.0
  0
LINE
  5
77D
330
74
100
AcDbEntity
  8
20
 62
     3
100
AcDbLine
 10
-1260.0
 20
924.0
 30
0.0
 11
-1260.0
 21
-969.5
 31
0.0
  0
LINE
  5
77E
330
74
100
AcDbEntity
  8
20
 62
     3
100
AcDbLine
 10
1400.0
 20
924.0
 30
0.0
 11
1400.0
 21
-969.5
 31
0.0
  0
LINE
  5
77F
330
74
100
AcDbEntity
  8
20
 62
     3
100
AcDbLine
 10
420.0
 20
-969.5
 30
0.0
 11
420.0
 21
-829.4999999999999
 31
0.0
  0
LINE
  5
780
330
74
100
AcDbEntity
  8
20
 62
     3
100
AcDbLine
 10
749.0
 20
-969.5
 30
0.0
 11
749.0
 21
-829.4999999999999
 31
0.0
  0
LINE
  5
781
330
74
100
AcDbEntity
  8
20
100
AcDbLine
 10
749.0
 20
-899.5
 30
0.0
 11
1400.0
 21
-899.5
 31
0.0
  0
LINE
  5
782
330
74
100
AcDbEntity
  8
20
 62
     3
100
AcDbLine
 10
420.0
 20
-829.4999999999999
 30
0.0
 11
1400.0
 21
-829.4999999999999
 31
0.0
  0
LINE
  5
783
330
74
100
AcDbEntity
  8
20
100
AcDbLine
 10
1260.0
 20
-899.5
 30
0.0
 11
1260.0
 21
-829.4999999999999
 31
0.0
  0
LINE
  5
784
330
74
100
AcDbEntity
  8
20
100
AcDbLine
 10
1260.0
 20
-864.4999999999999
 30
0.0
 11
1400.0
 21
-864.4999999999999
 31
0.0
  0
LINE
  5
785
330
74
100
AcDbEntity
  8
20
100
AcDbLine
 10
847.0
 20
-969.5
 30
0.0
 11
847.0
 21
-829.4999999999999
 31
0.0
  0
LINE
  5
786
330
74
100
AcDbEntity
  8
20
100
AcDbLine
 10
917.0
 20
-969.5
 30
0.0
 11
917.0
 21
-899.5
 31
0.0
  0
LINE
  5
787
330
74
100
AcDbEntity
  8
20
100
AcDbLine
 10
1057.0
 20
-969.5
 30
0.0
 11
1057.0
 21
-899.5
 31
0.0
  0
LINE
  5
788
330
74
100
AcDbEntity
  8
20
100
AcDbLine
 10
866.098902
 20
-950.401098
 30
0.0
 11
895.288034
 21
-921.2119659999999
 31
0.0
  0
TEXT
  5
789
330
74
100
AcDbEntity
  8
20
100
AcDbText
 10
920.7333029999999
 20
-927.478424
 30
0.0
 40
12.6
  1
ＤＲＡＷＩＮＧ　ＮＯ．
100
AcDbText
  0
TEXT
  5
78A
330
74
100
AcDbEntity
  8
20
100
AcDbText
 10
934.5
 20
-955.4999999999999
 30
0.0
 40
21.0
  1
図　　　番
100
AcDbText
  0
TEXT
  5
78B
330
74
100
AcDbEntity
  8
20
100
AcDbText
 10
1302.0
 20
-854.0
 30
0.0
 40
14.0
  1
ＤＡＴＥ
100
AcDbText
  0
TEXT
  5
78C
330
74
100
AcDbEntity
  8
20
100
AcDbText
 10
763.0074969999999
 20
-930.727203
 30
0.0
 40
14.0
  1
ＳＣＡＬＥ
100
AcDbText
  0
TEXT
  5
78D
330
74
100
AcDbEntity
  8
20
100
AcDbText
 10
756.0
 20
-955.4999999999999
 30
0.0
 40
21.0
  1
尺　　度
100
AcDbText
  0
TEXT
  5
78E
330
74
100
AcDbEntity
  8
20
100
AcDbText
 10
752.5074969999999
 20
-857.4711929999999
 30
0.0
 40
14.0
  1
ＦＩＧ．ＮＯ．
100
AcDbText
  0
TEXT
  5
78F
330
74
100
AcDbEntity
  8
20
100
AcDbText
 10
756.0
 20
-885.5
 30
0.0
 40
21.0
  1
名　　称
100
AcDbText
  0
TEXT
  5
790
330
74
100
AcDbEntity
  8
20
100
AcDbText
 10
423.9586749999999
 20
-885.2917709999999
 30
0.0
 40
16.1
  1
ＴＯＭＯＥ　ＶＡＬＶＥ　ＣＯ．，ＬＴＤ．
100
AcDbText
  0
TEXT
  5
791
330
74
100
AcDbEntity
  8
20
100
AcDbText
 10
472.5
 20
-933.0286710000001
 30
0.0
 40
28.0
  1
巴バルブ株式会社
100
AcDbText
  0
ENDSEC
  0
SECTION
  2
OBJECTS
  0
DICTIONARY
  5
C
330
0
100
AcDbDictionary
281
     1
  3
ACAD_COLOR
350
6A
  3
ACAD_GROUP
350
D
  3
ACAD_LAYOUT
350
69
  3
ACAD_MATERIAL
350
10
  3
ACAD_MLEADERSTYLE
350
6D
  3
ACAD_MLINESTYLE
350
66
  3
ACAD_PLOTSETTINGS
350
68
  3
ACAD_PLOTSTYLENAME
350
E
  3
ACAD_SCALELIST
350
3A
  3
ACAD_TABLESTYLE
350
6B
  3
ACAD_VISUALSTYLE
350
29
  3
ACDB_RECOMPOSE_DATA
350
7B1
  3
AcDbVariableDictionary
350
7A8
  3
DWGPROPS
350
7B2
  0
DICTIONARY
  5
793
330
5C
100
AcDbDictionary
280
     1
281
     1
  3
ADSK_XREC_LAYER_RECONCILED
360
794
  0
DICTIONARY
  5
795
330
7E
100
AcDbDictionary
280
     1
281
     1
  3
ADSK_XREC_LAYER_RECONCILED
360
796
  0
DICTIONARY
  5
797
330
7F
100
AcDbDictionary
280
     1
281
     1
  3
ADSK_XREC_LAYER_RECONCILED
360
798
  0
DICTIONARY
  5
799
330
80
100
AcDbDictionary
280
     1
281
     1
  3
ADSK_XREC_LAYER_RECONCILED
360
79A
  0
DICTIONARY
  5
79B
330
81
100
AcDbDictionary
280
     1
281
     1
  3
ADSK_XREC_LAYER_RECONCILED
360
79C
  0
DICTIONARY
  5
79D
330
82
100
AcDbDictionary
280
     1
281
     1
  3
ADSK_XREC_LAYER_RECONCILED
360
79E
  0
DICTIONARY
  5
6A
102
{ACAD_REACTORS
330
C
102
}
330
C
100
AcDbDictionary
281
     1
  0
DICTIONARY
  5
D
102
{ACAD_REACTORS
330
C
102
}
330
C
100
AcDbDictionary
281
     1
  0
DICTIONARY
  5
69
102
{ACAD_REACTORS
330
C
102
}
330
C
100
AcDbDictionary
281
     1
  3
Model
350
77
  3
レイアウト1
350
73
  0
DICTIONARY
  5
10
102
{ACAD_REACTORS
330
C
102
}
330
C
100
AcDbDictionary
281
     1
  3
ByBlock
350
19
  3
ByLayer
350
11
  3
Global
350
21
  0
DICTIONARY
  5
6D
102
{ACAD_REACTORS
330
C
102
}
330
C
100
AcDbDictionary
281
     1
  3
Standard
350
6E
  0
DICTIONARY
  5
66
102
{ACAD_REACTORS
330
C
102
}
330
C
100
AcDbDictionary
281
     1
  3
Standard
350
67
  0
DICTIONARY
  5
68
102
{ACAD_REACTORS
330
C
102
}
330
C
100
AcDbDictionary
281
     1
  0
ACDBDICTIONARYWDFLT
  5
E
102
{ACAD_REACTORS
330
C
102
}
330
C
100
AcDbDictionary
281
     1
  3
Normal
350
F
100
AcDbDictionaryWithDefault
340
F
  0
DICTIONARY
  5
3A
102
{ACAD_REACTORS
330
C
102
}
330
C
100
AcDbDictionary
281
     1
  3
A0
350
3B
  3
A1
350
3C
  3
A2
350
3D
  3
A3
350
3E
  3
A4
350
3F
  3
A5
350
40
  3
A6
350
41
  3
A7
350
42
  3
A8
350
43
  3
A9
350
44
  3
B0
350
45
  3
B1
350
46
  3
B2
350
47
  3
B3
350
48
  3
B4
350
49
  3
B5
350
4A
  3
B6
350
4B
  3
B7
350
4C
  3
B8
350
4D
  3
B9
350
4E
  3
C0
350
4F
  3
C1
350
50
  3
C2
350
51
  3
C3
350
52
  3
C4
350
53
  3
C5
350
54
  3
C6
350
55
  3
C7
350
56
  3
C8
350
57
  3
C9
350
58
  3
D0
350
59
  3
D1
350
5A
  3
D2
350
5B
  0
DICTIONARY
  5
6B
102
{ACAD_REACTORS
330
C
102
}
330
C
100
AcDbDictionary
281
     1
  3
Standard
350
6C
  0
DICTIONARY
  5
29
102
{ACAD_REACTORS
330
C
102
}
330
C
100
AcDbDictionary
281
     1
  3
2dWireframe
350
2F
  3
3D Hidden
350
31
  3
3dWireframe
350
30
  3
Basic
350
2E
  3
Brighten
350
35
  3
ColorChange
350
39
  3
Conceptual
350
32
  3
Dim
350
34
  3
Facepattern
350
38
  3
Flat
350
2A
  3
FlatWithEdges
350
2B
  3
Gouraud
350
2C
  3
GouraudWithEdges
350
2D
  3
Linepattern
350
37
  3
Realistic
350
33
  3
Thicken
350
36
  0
XRECORD
  5
7B1
102
{ACAD_REACTORS
330
C
102
}
330
C
100
AcDbXrecord
280
     1
 90
        1
330
6C
  0
DICTIONARY
  5
7A8
102
{ACAD_REACTORS
330
C
102
}
330
C
100
AcDbDictionary
281
     1
  3
CANNOSCALE
350
7AB
  3
CMLEADERSTYLE
350
7AA
  3
CTABLESTYLE
350
7A9
  3
DIMASSOC
350
7AE
  3
INDEXCTL
350
7AD
  3
SORTENTS
350
7AC
  0
XRECORD
  5
7B2
102
{ACAD_REACTORS
330
C
102
}
330
C
100
AcDbXrecord
280
     1
  1
DWGPROPS COOKIE
  2

  3

  4

  6

  7

  8
matsubara-akiko
  9

300
=
301
=
302
=
303
=
304
=
305
=
306
=
307
=
308
=
309
=
 40
0.0004940046296296
 41
2450288.0
 42
2455267.581754352
  1

 90
        0
  0
XRECORD
  5
794
102
{ACAD_REACTORS
330
793
102
}
330
793
100
AcDbXrecord
280
     1
290
     1
  0
XRECORD
  5
796
102
{ACAD_REACTORS
330
795
102
}
330
795
100
AcDbXrecord
280
     1
290
     1
  0
XRECORD
  5
798
102
{ACAD_REACTORS
330
797
102
}
330
797
100
AcDbXrecord
280
     1
290
     1
  0
XRECORD
  5
79A
102
{ACAD_REACTORS
330
799
102
}
330
799
100
AcDbXrecord
280
     1
290
     1
  0
XRECORD
  5
79C
102
{ACAD_REACTORS
330
79B
102
}
330
79B
100
AcDbXrecord
280
     1
290
     1
  0
XRECORD
  5
79E
102
{ACAD_REACTORS
330
79D
102
}
330
79D
100
AcDbXrecord
280
     1
290
     1
  0
LAYOUT
  5
77
102
{ACAD_XDICTIONARY
360
7B9
102
}
102
{ACAD_REACTORS
330
69
102
}
330
69
100
AcDbPlotSettings
  1

  2
EMP01
  4
A4
  6

 40
5.873749732971191
 41
5.873747825622558
 42
5.873748779296875
 43
5.873748779296875
 44
209.9733276367187
 45
296.9259948730469
 46
0.0
 47
0.0
 48
0.0
 49
0.0
140
0.0
141
0.0
142
1.0
143
278.000456535267
 70
 11952
 72
     0
 73
     1
 74
     0
  7
monochrome.ctb
 75
     0
147
0.0035971163949263
148
37563.2006123775
149
24824.52713849356
100
AcDbLayout
  1
Model
 70
     1
 71
     0
 10
0.0
 20
0.0
 11
12.0
 21
9.0
 12
0.0
 22
0.0
 32
0.0
 14
0.0
 24
0.0
 34
0.0
 15
0.0
 25
0.0
 35
0.0
146
0.0
 13
0.0
 23
0.0
 33
0.0
 16
1.0
 26
0.0
 36
0.0
 17
0.0
 27
1.0
 37
0.0
 76
     0
330
74
331
85
1001
ACAD_PSEXT
1000
EMP01
1000
RICOH imagio MP C4500 RPCS
1000
エンジニアリングセンタ
1000

1070
     0
  0
LAYOUT
  5
73
102
{ACAD_XDICTIONARY
360
7B7
102
}
102
{ACAD_REACTORS
330
69
102
}
330
69
100
AcDbPlotSettings
  1

  2
EMP01
  4

  6

 40
0.0
 41
0.0
 42
0.0
 43
0.0
 44
0.0
 45
0.0
 46
0.0
 47
0.0
 48
0.0
 49
0.0
140
0.0
141
0.0
142
1.0
143
1.0
 70
   688
 72
     0
 73
     0
 74
     5
  7
monochrome.ctb
 75
    16
147
1.0
148
0.0
149
0.0
100
AcDbLayout
  1
レイアウト1
 70
     1
 71
     1
 10
0.0
 20
0.0
 11
12.0
 21
9.0
 12
0.0
 22
0.0
 32
0.0
 14
1.000000000000000E+20
 24
1.000000000000000E+20
 34
1.000000000000000E+20
 15
-1.000000000000000E+20
 25
-1.000000000000000E+20
 35
-1.000000000000000E+20
146
0.0
 13
0.0
 23
0.0
 33
0.0
 16
1.0
 26
0.0
 36
0.0
 17
0.0
 27
1.0
 37
0.0
 76
     0
330
70
  0
MATERIAL
  5
19
102
{ACAD_XDICTIONARY
360
1A
102
}
102
{ACAD_REACTORS
330
10
102
}
330
10
100
AcDbMaterial
  1
ByBlock
 72
     0
 43
0.0208333333333333
 43
0.0
 43
0.0
 43
0.0
 43
0.0
 43
0.0208333333333333
 43
0.0
 43
0.0
 43
0.0
 43
0.0
 43
1.0
 43
0.0
 43
0.0
 43
0.0
 43
0.0
 43
1.0
 77
     0
 47
0.0208333333333333
 47
0.0
 47
0.0
 47
0.0
 47
0.0
 47
0.0208333333333333
 47
0.0
 47
0.0
 47
0.0
 47
0.0
 47
1.0
 47
0.0
 47
0.0
 47
0.0
 47
0.0
 47
1.0
171
     0
 49
0.0208333333333333
 49
0.0
 49
0.0
 49
0.0
 49
0.0
 49
0.0208333333333333
 49
0.0
 49
0.0
 49
0.0
 49
0.0
 49
1.0
 49
0.0
 49
0.0
 49
0.0
 49
0.0
 49
1.0
175
     0
142
0.0208333333333333
142
0.0
142
0.0
142
0.0
142
0.0
142
0.0208333333333333
142
0.0
142
0.0
142
0.0
142
0.0
142
1.0
142
0.0
142
0.0
142
0.0
142
0.0
142
1.0
179
     0
144
0.0208333333333333
144
0.0
144
0.0
144
0.0
144
0.0
144
0.0208333333333333
144
0.0
144
0.0
144
0.0
144
0.0
144
1.0
144
0.0
144
0.0
144
0.0
144
0.0
144
1.0
147
0.0208333333333333
147
0.0
147
0.0
147
0.0
147
0.0
147
0.0208333333333333
147
0.0
147
0.0
147
0.0
147
0.0
147
1.0
147
0.0
147
0.0
147
0.0
147
0.0
147
1.0
  0
MATERIAL
  5
11
102
{ACAD_XDICTIONARY
360
12
102
}
102
{ACAD_REACTORS
330
10
102
}
330
10
100
AcDbMaterial
  1
ByLayer
 72
     0
 43
0.0208333333333333
 43
0.0
 43
0.0
 43
0.0
 43
0.0
 43
0.0208333333333333
 43
0.0
 43
0.0
 43
0.0
 43
0.0
 43
1.0
 43
0.0
 43
0.0
 43
0.0
 43
0.0
 43
1.0
 77
     0
 47
0.0208333333333333
 47
0.0
 47
0.0
 47
0.0
 47
0.0
 47
0.0208333333333333
 47
0.0
 47
0.0
 47
0.0
 47
0.0
 47
1.0
 47
0.0
 47
0.0
 47
0.0
 47
0.0
 47
1.0
171
     0
 49
0.0208333333333333
 49
0.0
 49
0.0
 49
0.0
 49
0.0
 49
0.0208333333333333
 49
0.0
 49
0.0
 49
0.0
 49
0.0
 49
1.0
 49
0.0
 49
0.0
 49
0.0
 49
0.0
 49
1.0
175
     0
142
0.0208333333333333
142
0.0
142
0.0
142
0.0
142
0.0
142
0.0208333333333333
142
0.0
142
0.0
142
0.0
142
0.0
142
1.0
142
0.0
142
0.0
142
0.0
142
0.0
142
1.0
179
     0
144
0.0208333333333333
144
0.0
144
0.0
144
0.0
144
0.0
144
0.0208333333333333
144
0.0
144
0.0
144
0.0
144
0.0
144
1.0
144
0.0
144
0.0
144
0.0
144
0.0
144
1.0
147
0.0208333333333333
147
0.0
147
0.0
147
0.0
147
0.0
147
0.0208333333333333
147
0.0
147
0.0
147
0.0
147
0.0
147
1.0
147
0.0
147
0.0
147
0.0
147
0.0
147
1.0
  0
MATERIAL
  5
21
102
{ACAD_XDICTIONARY
360
22
102
}
102
{ACAD_REACTORS
330
10
102
}
330
10
100
AcDbMaterial
  1
Global
 72
     0
 43
0.0208333333333333
 43
0.0
 43
0.0
 43
0.0
 43
0.0
 43
0.0208333333333333
 43
0.0
 43
0.0
 43
0.0
 43
0.0
 43
1.0
 43
0.0
 43
0.0
 43
0.0
 43
0.0
 43
1.0
 77
     0
 47
0.0208333333333333
 47
0.0
 47
0.0
 47
0.0
 47
0.0
 47
0.0208333333333333
 47
0.0
 47
0.0
 47
0.0
 47
0.0
 47
1.0
 47
0.0
 47
0.0
 47
0.0
 47
0.0
 47
1.0
171
     0
 49
0.0208333333333333
 49
0.0
 49
0.0
 49
0.0
 49
0.0
 49
0.0208333333333333
 49
0.0
 49
0.0
 49
0.0
 49
0.0
 49
1.0
 49
0.0
 49
0.0
 49
0.0
 49
0.0
 49
1.0
175
     0
142
0.0208333333333333
142
0.0
142
0.0
142
0.0
142
0.0
142
0.0208333333333333
142
0.0
142
0.0
142
0.0
142
0.0
142
1.0
142
0.0
142
0.0
142
0.0
142
0.0
142
1.0
179
     0
144
0.0208333333333333
144
0.0
144
0.0
144
0.0
144
0.0
144
0.0208333333333333
144
0.0
144
0.0
144
0.0
144
0.0
144
1.0
144
0.0
144
0.0
144
0.0
144
0.0
144
1.0
147
0.0208333333333333
147
0.0
147
0.0
147
0.0
147
0.0
147
0.0208333333333333
147
0.0
147
0.0
147
0.0
147
0.0
147
1.0
147
0.0
147
0.0
147
0.0
147
0.0
147
1.0
  0
MLEADERSTYLE
  5
6E
102
{ACAD_REACTORS
330
6D
102
}
330
6D
100
AcDbMLeaderStyle
170
     2
171
     1
172
     0
 90
        2
 40
0.0
 41
0.0
173
     1
 91
-1056964608
340
62
 92
       -2
290
     1
 42
0.09
291
     1
 43
0.36
  3
Standard
 44
0.18
300

342
5D
174
     1
178
     6
175
     1
176
     0
 93
-1056964608
 45
0.18
292
     0
297
     0
 46
0.18
 94
-1056964608
 47
1.0
 49
1.0
140
1.0
293
     1
141
0.0
294
     1
177
     0
142
1.0
295
     0
296
     0
143
0.125
1001
ACAD_MLEADERVER
1070
     2
  0
MLINESTYLE
  5
67
102
{ACAD_REACTORS
330
66
102
}
330
66
100
AcDbMlineStyle
  2
STANDARD
 70
     0
  3

 62
   256
 51
90.0
 52
90.0
 71
     2
 49
0.5
 62
   256
  6
BYLAYER
 49
-0.5
 62
   256
  6
BYLAYER
  0
ACDBPLACEHOLDER
  5
F
102
{ACAD_REACTORS
330
E
102
}
330
E
  0
SCALE
  5
3B
102
{ACAD_REACTORS
330
3A
102
}
330
3A
100
AcDbScale
 70
     0
300
1:1
140
1.0
141
1.0
290
     1
  0
SCALE
  5
3C
102
{ACAD_REACTORS
330
3A
102
}
330
3A
100
AcDbScale
 70
     0
300
1:2
140
1.0
141
2.0
290
     0
  0
SCALE
  5
3D
102
{ACAD_REACTORS
330
3A
102
}
330
3A
100
AcDbScale
 70
     0
300
1:4
140
1.0
141
4.0
290
     0
  0
SCALE
  5
3E
102
{ACAD_REACTORS
330
3A
102
}
330
3A
100
AcDbScale
 70
     0
300
1:5
140
1.0
141
5.0
290
     0
  0
SCALE
  5
3F
102
{ACAD_REACTORS
330
3A
102
}
330
3A
100
AcDbScale
 70
     0
300
1:8
140
1.0
141
8.0
290
     0
  0
SCALE
  5
40
102
{ACAD_REACTORS
330
3A
102
}
330
3A
100
AcDbScale
 70
     0
300
1:10
140
1.0
141
10.0
290
     0
  0
SCALE
  5
41
102
{ACAD_REACTORS
330
3A
102
}
330
3A
100
AcDbScale
 70
     0
300
1:16
140
1.0
141
16.0
290
     0
  0
SCALE
  5
42
102
{ACAD_REACTORS
330
3A
102
}
330
3A
100
AcDbScale
 70
     0
300
1:20
140
1.0
141
20.0
290
     0
  0
SCALE
  5
43
102
{ACAD_REACTORS
330
3A
102
}
330
3A
100
AcDbScale
 70
     0
300
1:30
140
1.0
141
30.0
290
     0
  0
SCALE
  5
44
102
{ACAD_REACTORS
330
3A
102
}
330
3A
100
AcDbScale
 70
     0
300
1:40
140
1.0
141
40.0
290
     0
  0
SCALE
  5
45
102
{ACAD_REACTORS
330
3A
102
}
330
3A
100
AcDbScale
 70
     0
300
1:50
140
1.0
141
50.0
290
     0
  0
SCALE
  5
46
102
{ACAD_REACTORS
330
3A
102
}
330
3A
100
AcDbScale
 70
     0
300
1:100
140
1.0
141
100.0
290
     0
  0
SCALE
  5
47
102
{ACAD_REACTORS
330
3A
102
}
330
3A
100
AcDbScale
 70
     0
300
2:1
140
2.0
141
1.0
290
     0
  0
SCALE
  5
48
102
{ACAD_REACTORS
330
3A
102
}
330
3A
100
AcDbScale
 70
     0
300
4:1
140
4.0
141
1.0
290
     0
  0
SCALE
  5
49
102
{ACAD_REACTORS
330
3A
102
}
330
3A
100
AcDbScale
 70
     0
300
8:1
140
8.0
141
1.0
290
     0
  0
SCALE
  5
4A
102
{ACAD_REACTORS
330
3A
102
}
330
3A
100
AcDbScale
 70
     0
300
10:1
140
10.0
141
1.0
290
     0
  0
SCALE
  5
4B
102
{ACAD_REACTORS
330
3A
102
}
330
3A
100
AcDbScale
 70
     0
300
100:1
140
100.0
141
1.0
290
     0
  0
SCALE
  5
4C
102
{ACAD_REACTORS
330
3A
102
}
330
3A
100
AcDbScale
 70
     0
300
1/128" = 1'-0"
140
0.0078125
141
12.0
290
     0
  0
SCALE
  5
4D
102
{ACAD_REACTORS
330
3A
102
}
330
3A
100
AcDbScale
 70
     0
300
1/64" = 1'-0"
140
0.015625
141
12.0
290
     0
  0
SCALE
  5
4E
102
{ACAD_REACTORS
330
3A
102
}
330
3A
100
AcDbScale
 70
     0
300
1/32" = 1'-0"
140
0.03125
141
12.0
290
     0
  0
SCALE
  5
4F
102
{ACAD_REACTORS
330
3A
102
}
330
3A
100
AcDbScale
 70
     0
300
1/16" = 1'-0"
140
0.0625
141
12.0
290
     0
  0
SCALE
  5
50
102
{ACAD_REACTORS
330
3A
102
}
330
3A
100
AcDbScale
 70
     0
300
3/32" = 1'-0"
140
0.09375
141
12.0
290
     0
  0
SCALE
  5
51
102
{ACAD_REACTORS
330
3A
102
}
330
3A
100
AcDbScale
 70
     0
300
1/8" = 1'-0"
140
0.125
141
12.0
290
     0
  0
SCALE
  5
52
102
{ACAD_REACTORS
330
3A
102
}
330
3A
100
AcDbScale
 70
     0
300
3/16" = 1'-0"
140
0.1875
141
12.0
290
     0
  0
SCALE
  5
53
102
{ACAD_REACTORS
330
3A
102
}
330
3A
100
AcDbScale
 70
     0
300
1/4" = 1'-0"
140
0.25
141
12.0
290
     0
  0
SCALE
  5
54
102
{ACAD_REACTORS
330
3A
102
}
330
3A
100
AcDbScale
 70
     0
300
3/8" = 1'-0"
140
0.375
141
12.0
290
     0
  0
SCALE
  5
55
102
{ACAD_REACTORS
330
3A
102
}
330
3A
100
AcDbScale
 70
     0
300
1/2" = 1'-0"
140
0.5
141
12.0
290
     0
  0
SCALE
  5
56
102
{ACAD_REACTORS
330
3A
102
}
330
3A
100
AcDbScale
 70
     0
300
3/4" = 1'-0"
140
0.75
141
12.0
290
     0
  0
SCALE
  5
57
102
{ACAD_REACTORS
330
3A
102
}
330
3A
100
AcDbScale
 70
     0
300
1" = 1'-0"
140
1.0
141
12.0
290
     0
  0
SCALE
  5
58
102
{ACAD_REACTORS
330
3A
102
}
330
3A
100
AcDbScale
 70
     0
300
1-1/2" = 1'-0"
140
1.5
141
12.0
290
     0
  0
SCALE
  5
59
102
{ACAD_REACTORS
330
3A
102
}
330
3A
100
AcDbScale
 70
     0
300
3" = 1'-0"
140
3.0
141
12.0
290
     0
  0
SCALE
  5
5A
102
{ACAD_REACTORS
330
3A
102
}
330
3A
100
AcDbScale
 70
     0
300
6" = 1'-0"
140
6.0
141
12.0
290
     0
  0
SCALE
  5
5B
102
{ACAD_REACTORS
330
3A
102
}
330
3A
100
AcDbScale
 70
     0
300
1'-0" = 1'-0"
140
12.0
141
12.0
290
     0
  0
TABLESTYLE
  5
6C
102
{ACAD_XDICTIONARY
360
7AF
102
}
102
{ACAD_REACTORS
330
6B
102
}
330
6B
100
AcDbTableStyle
  3
Standard
 70
     0
 71
     0
 40
0.06
 41
0.06
280
     0
281
     0
  7
STANDARD
140
0.18
170
     2
 62
     0
 63
     7
283
     0
274
    -2
284
     1
 64
     0
275
    -2
285
     1
 65
     0
276
    -2
286
     1
 66
     0
277
    -2
287
     1
 67
     0
278
    -2
288
     1
 68
     0
279
    -2
289
     1
 69
     0
  7
STANDARD
140
0.25
170
     5
 62
     0
 63
     7
283
     0
274
    -2
284
     1
 64
     0
275
    -2
285
     1
 65
     0
276
    -2
286
     1
 66
     0
277
    -2
287
     1
 67
     0
278
    -2
288
     1
 68
     0
279
    -2
289
     1
 69
     0
  7
STANDARD
140
0.18
170
     5
 62
     0
 63
     7
283
     0
274
    -2
284
     1
 64
     0
275
    -2
285
     1
 65
     0
276
    -2
286
     1
 66
     0
277
    -2
287
     1
 67
     0
278
    -2
288
     1
 68
     0
279
    -2
289
     1
 69
     0
  0
VISUALSTYLE
  5
2F
102
{ACAD_REACTORS
330
29
102
}
330
29
100
AcDbVisualStyle
  2
2dWireframe
 70
     4
 71
     0
 72
     2
 73
     0
 90
        0
 40
-0.6
 41
-30.0
 62
     5
 63
     7
 74
     1
 91
        4
 64
     7
 65
   257
 75
     1
175
     1
 42
1.0
 92
        0
 66
   257
 43
1.0
 76
     1
 77
     6
 78
     2
 67
     7
 79
     5
170
     0
171
     0
290
     0
174
     0
 93
        1
 44
0.0
173
     0
291
     0
 45
0.0
1001
ACAD
1000
AcDbSavedByObjectVersion
1070
     0
  0
VISUALSTYLE
  5
31
102
{ACAD_REACTORS
330
29
102
}
330
29
100
AcDbVisualStyle
  2
3D Hidden
 70
     6
 71
     1
 72
     2
 73
     2
 90
        0
 40
-0.6
 41
-30.0
 62
     5
 63
     7
 74
     2
 91
        2
 64
     7
 65
   257
 75
     2
175
     1
 42
40.0
 92
        0
 66
   257
 43
1.0
 76
     1
 77
     6
 78
     2
 67
     7
 79
     3
170
     0
171
     0
290
     0
174
     0
 93
        1
 44
0.0
173
     0
291
     0
 45
0.0
1001
ACAD
1000
AcDbSavedByObjectVersion
1070
     0
  0
VISUALSTYLE
  5
30
102
{ACAD_REACTORS
330
29
102
}
330
29
100
AcDbVisualStyle
  2
3dWireframe
 70
     5
 71
     0
 72
     2
 73
     0
 90
        0
 40
-0.6
 41
-30.0
 62
     5
 63
     7
 74
     1
 91
        4
 64
     7
 65
   257
 75
     1
175
     1
 42
1.0
 92
        0
 66
   257
 43
1.0
 76
     1
 77
     6
 78
     2
 67
     7
 79
     5
170
     0
171
     0
290
     0
174
     0
 93
        1
 44
0.0
173
     0
291
     0
 45
0.0
1001
ACAD
1000
AcDbSavedByObjectVersion
1070
     0
  0
VISUALSTYLE
  5
2E
102
{ACAD_REACTORS
330
29
102
}
330
29
100
AcDbVisualStyle
  2
Basic
 70
     7
 71
     1
 72
     0
 73
     1
 90
        0
 40
-0.6
 41
-30.0
 62
     5
 63
     7
 74
     0
 91
        4
 64
     7
 65
   257
 75
     1
175
     1
 42
1.0
 92
        8
 66
     7
 43
1.0
 76
     1
 77
     6
 78
     2
 67
     7
 79
     5
170
     0
171
     0
290
     0
174
     0
 93
        1
 44
0.0
173
     0
291
     1
 45
0.0
1001
ACAD
1000
AcDbSavedByObjectVersion
1070
     0
  0
VISUALSTYLE
  5
35
102
{ACAD_REACTORS
330
29
102
}
330
29
100
AcDbVisualStyle
  2
Brighten
 70
    12
 71
     2
 72
     2
 73
     0
 90
        0
 40
-0.6
 41
-30.0
 62
     5
 63
     7
 74
     1
 91
        4
 64
     7
 65
   257
 75
     1
175
     1
 42
1.0
 92
        8
 66
     7
 43
1.0
 76
     1
 77
     6
 78
     2
 67
     7
 79
     5
170
     0
171
     0
290
     0
174
     0
 93
        1
 44
50.0
173
     0
291
     1
 45
0.0
1001
ACAD
1000
AcDbSavedByObjectVersion
1070
     0
  0
VISUALSTYLE
  5
39
102
{ACAD_REACTORS
330
29
102
}
330
29
100
AcDbVisualStyle
  2
ColorChange
 70
    16
 71
     2
 72
     2
 73
     3
 90
        0
 40
-0.6
 41
-30.0
 62
     5
 63
     8
 74
     1
 91
        4
 64
     7
 65
   257
 75
     1
175
     1
 42
1.0
 92
        8
 66
     8
 43
1.0
 76
     1
 77
     6
 78
     2
 67
     7
 79
     5
170
     0
171
     0
290
     0
174
     0
 93
        1
 44
0.0
173
     0
291
     1
 45
0.0
1001
ACAD
1000
AcDbSavedByObjectVersion
1070
     0
  0
VISUALSTYLE
  5
32
102
{ACAD_REACTORS
330
29
102
}
330
29
100
AcDbVisualStyle
  2
Conceptual
 70
     9
 71
     3
 72
     2
 73
     0
 90
        0
 40
-0.6
 41
-30.0
 62
     5
 63
     7
 74
     2
 91
        2
 64
     7
 65
   257
 75
     1
175
     1
 42
40.0
 92
        8
 66
     7
 43
1.0
 76
     1
 77
     6
 78
     2
 67
     7
 79
     3
170
     0
171
     0
290
     0
174
     0
 93
        1
 44
0.0
173
     0
291
     0
 45
0.0
1001
ACAD
1000
AcDbSavedByObjectVersion
1070
     0
  0
VISUALSTYLE
  5
34
102
{ACAD_REACTORS
330
29
102
}
330
29
100
AcDbVisualStyle
  2
Dim
 70
    11
 71
     2
 72
     2
 73
     0
 90
        0
 40
-0.6
 41
-30.0
 62
     5
 63
     7
 74
     1
 91
        4
 64
     7
 65
   257
 75
     1
175
     1
 42
1.0
 92
        8
 66
     7
 43
1.0
 76
     1
 77
     6
 78
     2
 67
     7
 79
     5
170
     0
171
     0
290
     0
174
     0
 93
        1
 44
-50.0
173
     0
291
     1
 45
0.0
1001
ACAD
1000
AcDbSavedByObjectVersion
1070
     0
  0
VISUALSTYLE
  5
38
102
{ACAD_REACTORS
330
29
102
}
330
29
100
AcDbVisualStyle
  2
Facepattern
 70
    15
 71
     2
 72
     2
 73
     0
 90
        0
 40
-0.6
 41
-30.0
 62
     5
 63
     7
 74
     1
 91
        4
 64
     7
 65
   257
 75
     1
175
     1
 42
1.0
 92
        8
 66
     7
 43
1.0
 76
     1
 77
     6
 78
     2
 67
     7
 79
     5
170
     0
171
     0
290
     0
174
     0
 93
        1
 44
0.0
173
     0
291
     1
 45
0.0
1001
ACAD
1000
AcDbSavedByObjectVersion
1070
     0
  0
VISUALSTYLE
  5
2A
102
{ACAD_REACTORS
330
29
102
}
330
29
100
AcDbVisualStyle
  2
Flat
 70
     0
 71
     2
 72
     1
 73
     1
 90
        2
 40
-0.6
 41
30.0
 62
     5
 63
     7
 74
     0
 91
        4
 64
     7
 65
   257
 75
     1
175
     1
 42
1.0
 92
        8
 66
     7
 43
1.0
 76
     1
 77
     6
 78
     2
 67
     7
 79
     5
170
     0
171
     0
290
     0
174
     0
 93
       13
 44
0.0
173
     0
291
     1
 45
0.0
1001
ACAD
1000
AcDbSavedByObjectVersion
1070
     0
  0
VISUALSTYLE
  5
2B
102
{ACAD_REACTORS
330
29
102
}
330
29
100
AcDbVisualStyle
  2
FlatWithEdges
 70
     1
 71
     2
 72
     1
 73
     1
 90
        2
 40
-0.6
 41
30.0
 62
     5
 63
     7
 74
     1
 91
        4
 64
     7
 65
   257
 75
     1
175
     1
 42
1.0
 92
        0
 66
   257
 43
1.0
 76
     1
 77
     6
 78
     2
 67
     7
 79
     5
170
     0
171
     0
290
     0
174
     0
 93
       13
 44
0.0
173
     0
291
     1
 45
0.0
1001
ACAD
1000
AcDbSavedByObjectVersion
1070
     0
  0
VISUALSTYLE
  5
2C
102
{ACAD_REACTORS
330
29
102
}
330
29
100
AcDbVisualStyle
  2
Gouraud
 70
     2
 71
     2
 72
     2
 73
     1
 90
        2
 40
-0.6
 41
30.0
 62
     5
 63
     7
 74
     0
 91
        4
 64
     7
 65
   257
 75
     1
175
     1
 42
1.0
 92
        0
 66
     7
 43
1.0
 76
     1
 77
     6
 78
     2
 67
     7
 79
     5
170
     0
171
     0
290
     0
174
     0
 93
       13
 44
0.0
173
     0
291
     1
 45
0.0
1001
ACAD
1000
AcDbSavedByObjectVersion
1070
     0
  0
VISUALSTYLE
  5
2D
102
{ACAD_REACTORS
330
29
102
}
330
29
100
AcDbVisualStyle
  2
GouraudWithEdges
 70
     3
 71
     2
 72
     2
 73
     1
 90
        2
 40
-0.6
 41
30.0
 62
     5
 63
     7
 74
     1
 91
        4
 64
     7
 65
   257
 75
     1
175
     1
 42
1.0
 92
        0
 66
   257
 43
1.0
 76
     1
 77
     6
 78
     2
 67
     7
 79
     5
170
     0
171
     0
290
     0
174
     0
 93
       13
 44
0.0
173
     0
291
     1
 45
0.0
1001
ACAD
1000
AcDbSavedByObjectVersion
1070
     0
  0
VISUALSTYLE
  5
37
102
{ACAD_REACTORS
330
29
102
}
330
29
100
AcDbVisualStyle
  2
Linepattern
 70
    14
 71
     2
 72
     2
 73
     0
 90
        0
 40
-0.6
 41
-30.0
 62
     5
 63
     7
 74
     1
 91
        4
 64
     7
 65
   257
 75
     7
175
     7
 42
1.0
 92
        8
 66
     7
 43
1.0
 76
     1
 77
     6
 78
     2
 67
     7
 79
     5
170
     0
171
     0
290
     0
174
     0
 93
        1
 44
0.0
173
     0
291
     1
 45
0.0
1001
ACAD
1000
AcDbSavedByObjectVersion
1070
     0
  0
VISUALSTYLE
  5
33
102
{ACAD_REACTORS
330
29
102
}
330
29
100
AcDbVisualStyle
  2
Realistic
 70
     8
 71
     2
 72
     2
 73
     0
 90
        0
 40
-0.6
 41
-30.0
 62
     5
 63
     7
 74
     1
 91
        0
 64
     7
 65
   257
 75
     1
175
     1
 42
1.0
 92
        8
 66
     8
 43
1.0
 76
     1
 77
     6
 78
     2
 67
     7
 79
     5
170
     0
171
     0
290
     0
174
     0
 93
       13
 44
0.0
173
     0
291
     0
 45
0.0
1001
ACAD
1000
AcDbSavedByObjectVersion
1070
     0
  0
VISUALSTYLE
  5
36
102
{ACAD_REACTORS
330
29
102
}
330
29
100
AcDbVisualStyle
  2
Thicken
 70
    13
 71
     2
 72
     2
 73
     0
 90
        0
 40
-0.6
 41
-30.0
 62
     5
 63
     7
 74
     1
 91
        4
 64
     7
 65
   257
 75
     1
175
     1
 42
1.0
 92
       12
 66
     7
 43
1.0
 76
     1
 77
     6
 78
     2
 67
     7
 79
     5
170
     0
171
     0
290
     0
174
     0
 93
        1
 44
0.0
173
     0
291
     1
 45
0.0
1001
ACAD
1000
AcDbSavedByObjectVersion
1070
     0
  0
DICTIONARYVAR
  5
7AB
102
{ACAD_REACTORS
330
7A8
102
}
330
7A8
100
DictionaryVariables
280
     0
  1
1:1
  0
DICTIONARYVAR
  5
7AA
102
{ACAD_REACTORS
330
7A8
102
}
330
7A8
100
DictionaryVariables
280
     0
  1
STANDARD
  0
DICTIONARYVAR
  5
7A9
102
{ACAD_REACTORS
330
7A8
102
}
330
7A8
100
DictionaryVariables
280
     0
  1
STANDARD
  0
DICTIONARYVAR
  5
7AE
102
{ACAD_REACTORS
330
7A8
102
}
330
7A8
100
DictionaryVariables
280
     0
  1
1
  0
DICTIONARYVAR
  5
7AD
102
{ACAD_REACTORS
330
7A8
102
}
330
7A8
100
DictionaryVariables
280
     0
  1
0
  0
DICTIONARYVAR
  5
7AC
102
{ACAD_REACTORS
330
7A8
102
}
330
7A8
100
DictionaryVariables
280
     0
  1
127
  0
DICTIONARY
  5
7B9
330
77
100
AcDbDictionary
280
     1
281
     1
  3
ACAD_XREC_ROUNDTRIP
360
7BA
  0
DICTIONARY
  5
7B7
330
73
100
AcDbDictionary
280
     1
281
     1
  3
ACAD_XREC_ROUNDTRIP
360
7B8
  0
DICTIONARY
  5
1A
330
19
100
AcDbDictionary
280
     1
281
     1
  3
ACAD_XREC_ROUNDTRIP
360
7B4
  3
BUMPTILE
360
1C
  3
DIFFUSETILE
360
1B
  3
OPACITYTILE
360
1F
  3
REFLECTIONTILE
360
1E
  3
REFRACTIONTILE
360
20
  3
SPECULARTILE
360
1D
  0
DICTIONARY
  5
12
330
11
100
AcDbDictionary
280
     1
281
     1
  3
ACAD_XREC_ROUNDTRIP
360
7B3
  3
BUMPTILE
360
14
  3
DIFFUSETILE
360
13
  3
OPACITYTILE
360
17
  3
REFLECTIONTILE
360
16
  3
REFRACTIONTILE
360
18
  3
SPECULARTILE
360
15
  0
DICTIONARY
  5
22
330
21
100
AcDbDictionary
280
     1
281
     1
  3
ACAD_XREC_ROUNDTRIP
360
7B5
  3
BUMPTILE
360
24
  3
DIFFUSETILE
360
23
  3
OPACITYTILE
360
27
  3
REFLECTIONTILE
360
26
  3
REFRACTIONTILE
360
28
  3
SPECULARTILE
360
25
  0
DICTIONARY
  5
7AF
330
6C
100
AcDbDictionary
280
     1
281
     1
  3
ACAD_ROUNDTRIP_2008_TABLESTYLE_CELLSTYLEMAP
360
7B0
  3
ACAD_XREC_ROUNDTRIP
360
7B6
  0
XRECORD
  5
7BA
102
{ACAD_REACTORS
330
7B9
102
}
330
7B9
100
AcDbXrecord
280
     1
102
SHADEPLOT
 70
     0
102
SHADEPLOTRESLEVEL
 70
     2
102
SHADEPLOTCUSTOMDPI
 70
   300
  0
XRECORD
  5
7B8
102
{ACAD_REACTORS
330
7B7
102
}
330
7B7
100
AcDbXrecord
280
     1
102
SHADEPLOT
 70
     0
102
SHADEPLOTRESLEVEL
 70
     2
102
SHADEPLOTCUSTOMDPI
 70
   300
  0
XRECORD
  5
7B4
102
{ACAD_REACTORS
330
1A
102
}
330
1A
100
AcDbXrecord
280
     1
102
MATERIAL
148
0.0
149
0.0
149
0.0
 93
        0
 94
      127
282
     0
 72
     0
 77
     0
171
     0
175
     0
179
     0
273
     0
  0
XRECORD
  5
1C
102
{ACAD_REACTORS
330
1A
102
}
330
1A
100
AcDbXrecord
280
     1
270
     1
271
     1
  0
XRECORD
  5
1B
102
{ACAD_REACTORS
330
1A
102
}
330
1A
100
AcDbXrecord
280
     1
270
     1
271
     1
  0
XRECORD
  5
1F
102
{ACAD_REACTORS
330
1A
102
}
330
1A
100
AcDbXrecord
280
     1
270
     1
271
     1
  0
XRECORD
  5
1E
102
{ACAD_REACTORS
330
1A
102
}
330
1A
100
AcDbXrecord
280
     1
270
     1
271
     1
  0
XRECORD
  5
20
102
{ACAD_REACTORS
330
1A
102
}
330
1A
100
AcDbXrecord
280
     1
270
     1
271
     1
  0
XRECORD
  5
1D
102
{ACAD_REACTORS
330
1A
102
}
330
1A
100
AcDbXrecord
280
     1
270
     1
271
     1
  0
XRECORD
  5
7B3
102
{ACAD_REACTORS
330
12
102
}
330
12
100
AcDbXrecord
280
     1
102
MATERIAL
148
0.0
149
0.0
149
0.0
 93
        0
 94
      127
282
     0
 72
     0
 77
     0
171
     0
175
     0
179
     0
273
     0
  0
XRECORD
  5
14
102
{ACAD_REACTORS
330
12
102
}
330
12
100
AcDbXrecord
280
     1
270
     1
271
     1
  0
XRECORD
  5
13
102
{ACAD_REACTORS
330
12
102
}
330
12
100
AcDbXrecord
280
     1
270
     1
271
     1
  0
XRECORD
  5
17
102
{ACAD_REACTORS
330
12
102
}
330
12
100
AcDbXrecord
280
     1
270
     1
271
     1
  0
XRECORD
  5
16
102
{ACAD_REACTORS
330
12
102
}
330
12
100
AcDbXrecord
280
     1
270
     1
271
     1
  0
XRECORD
  5
18
102
{ACAD_REACTORS
330
12
102
}
330
12
100
AcDbXrecord
280
     1
270
     1
271
     1
  0
XRECORD
  5
15
102
{ACAD_REACTORS
330
12
102
}
330
12
100
AcDbXrecord
280
     1
270
     1
271
     1
  0
XRECORD
  5
7B5
102
{ACAD_REACTORS
330
22
102
}
330
22
100
AcDbXrecord
280
     1
102
MATERIAL
148
0.0
149
0.0
149
0.0
 93
        0
 94
      127
282
     0
 72
     0
 77
     0
171
     0
175
     0
179
     0
273
     0
  0
XRECORD
  5
24
102
{ACAD_REACTORS
330
22
102
}
330
22
100
AcDbXrecord
280
     1
270
     1
271
     1
  0
XRECORD
  5
23
102
{ACAD_REACTORS
330
22
102
}
330
22
100
AcDbXrecord
280
     1
270
     1
271
     1
  0
XRECORD
  5
27
102
{ACAD_REACTORS
330
22
102
}
330
22
100
AcDbXrecord
280
     1
270
     1
271
     1
  0
XRECORD
  5
26
102
{ACAD_REACTORS
330
22
102
}
330
22
100
AcDbXrecord
280
     1
270
     1
271
     1
  0
XRECORD
  5
28
102
{ACAD_REACTORS
330
22
102
}
330
22
100
AcDbXrecord
280
     1
270
     1
271
     1
  0
XRECORD
  5
25
102
{ACAD_REACTORS
330
22
102
}
330
22
100
AcDbXrecord
280
     1
270
     1
271
     1
  0
CELLSTYLEMAP
  5
7B0
102
{ACAD_REACTORS
330
7AF
102
}
330
7AF
100
AcDbCellStyleMap
 90
        3
300
CELLSTYLE
  1
TABLEFORMAT_BEGIN
 90
        5
170
     1
 91
        0
 92
    32768
 62
   257
 93
        1
300
CONTENTFORMAT
  1
CONTENTFORMAT_BEGIN
 90
        0
 91
        0
 92
      512
 93
        0
300

 40
0.0
140
1.0
 94
        5
 62
     0
340
5D
144
0.25
309
CONTENTFORMAT_END
171
     0
 94
        0
309
TABLEFORMAT_END
  1
CELLSTYLE_BEGIN
 90
        1
 91
        1
300
_TITLE
309
CELLSTYLE_END
300
CELLSTYLE
  1
TABLEFORMAT_BEGIN
 90
        5
170
     1
 91
        0
 92
        0
 62
   257
 93
        1
300
CONTENTFORMAT
  1
CONTENTFORMAT_BEGIN
 90
        0
 91
        0
 92
      512
 93
        0
300

 40
0.0
140
1.0
 94
        5
 62
     0
340
5D
144
0.18
309
CONTENTFORMAT_END
171
     0
 94
        0
309
TABLEFORMAT_END
  1
CELLSTYLE_BEGIN
 90
        2
 91
        1
300
_HEADER
309
CELLSTYLE_END
300
CELLSTYLE
  1
TABLEFORMAT_BEGIN
 90
        5
170
     1
 91
        0
 92
        0
 62
   257
 93
        1
300
CONTENTFORMAT
  1
CONTENTFORMAT_BEGIN
 90
        0
 91
        0
 92
      512
 93
        0
300

 40
0.0
140
1.0
 94
        2
 62
     0
340
5D
144
0.18
309
CONTENTFORMAT_END
171
     0
 94
        0
309
TABLEFORMAT_END
  1
CELLSTYLE_BEGIN
 90
        3
 91
        2
300
_DATA
309
CELLSTYLE_END
  0
XRECORD
  5
7B6
102
{ACAD_REACTORS
330
7AF
102
}
330
7AF
100
AcDbXrecord
280
     1
102
ACAD_ROUNDTRIP_PRE2007_TABLESTYLE
 90
      512
 91
        0
  1

 92
      512
 93
        0
  2

 94
      512
 95
        0
  3

  0
ENDSEC
  0
EOF
