  0
SECTION
  2
HEADER
  9
$LIMMAX
 10
1680.000000
 20
1188.000000
  9
$LIMMIN
 10
-1680.000000
 20
-1188.000000
  9
$EXTMAX
 10
1680.000000
 20
1188.000000
  9
$EXTMIN
 10
-1680.000000
 20
-1188.000000
  9
$DIMLFAC
 40
1.000000
  9
$DIMALTF
 40
25.400000
  9
$DIMSCALE
 40
8.000000
  9
$DIMTAD
 70
1
  9
$DIMTIH
 70
1
  9
$DIMTOH
 70
1
  9
$TDCREATE
 40
2450288.000000
  9
$TDUPDATE
 40
2452597.000000
999
3106
  0
ENDSEC
  0
SECTION
  2
TABLES
  0
TABLE
  2
LTYPE
 70
7
  0
LTYPE
  2
CONTINUOUS
 70
0
  3
Solid line
 72
65
 73
0
 40
0.000000
  0
LTYPE
  2
DASHED
 70
0
  3
__ __ __ __ __ __ __ __ __ __ __ __ __ __ __
 72
65
 73
2
 40
2.000000
 49
1.200000
 49
-0.800000
  0
LTYPE
  2
CENTER
 70
0
  3
____ _ ____ _ ____ _ ____ _ ____ _ ____ _ ____
 72
65
 73
4
 40
12.000000
 49
9.000000
 49
-1.000000
 49
1.000000
 49
-1.000000
  0
LTYPE
  2
HIDDEN
 70
0
  3
_ _ _ _ _ _ _ _ _ _ _ _ _ _ _ _ _ _ _ _ _ _ _
 72
65
 73
2
 40
3.200000
 49
2.400000
 49
-0.800000
  0
LTYPE
  2
PHANTOM
 70
0
  3
_____ _ _ _____ _ _ _____ _ _ _____ _ _ _____
 72
65
 73
6
 40
13.500000
 49
9.000000
 49
-1.000000
 49
1.000000
 49
-0.500000
 49
1.000000
 49
-1.000000
  0
LTYPE
  2
DOT
 70
0
  3
...............................................
 72
65
 73
2
 40
1.000000
 49
0.500000
 49
-0.500000
  0
LTYPE
  2
DASHDOT
 70
0
  3
__ . __ . __ . __ . __ . __ . __ . __ . __ . __
 72
65
 73
4
 40
8.000000
 49
5.000000
 49
-1.000000
 49
1.000000
 49
-1.000000
  0
ENDTAB
  0
TABLE
  2
LAYER
 70
6
  0
LAYER
  2
0
 70
0
 62
7
  6
CONTINUOUS
  0
LAYER
  2
1
 70
0
 62
7
  6
CONTINUOUS
  0
LAYER
  2
2
 70
0
 62
7
  6
CONTINUOUS
  0
LAYER
  2
5
 70
0
 62
7
  6
CONTINUOUS
  0
LAYER
  2
18
 70
0
 62
7
  6
CONTINUOUS
  0
LAYER
  2
20
 70
0
 62
7
  6
CONTINUOUS
  0
ENDTAB
  0
TABLE
  2
STYLE
 70
1
  0
STYLE
  2
STANDARD
 70
64
 40
0.000000
 41
1.000000
 50
0.000000
 71
0
 42
1.000000
  3
txt
  4
BIGFONT
  0
ENDTAB
  0
ENDSEC
  0
SECTION
  2
BLOCKS
  0
BLOCK
  8
5
  2
*D0
 70
1
 10
0.000000
 20
0.000000
  0
TEXT
  8
5
 10
-638.990253
 20
1004.321411
 40
26.400000
  1
400
 50
0.000000
 62
2
 41
1.400000
  0
LINE
  8
5
 62
2
 10
-811.270253
 20
817.660824
 11
-811.270253
 21
1008.321411
  0
LINE
  8
5
 62
2
 10
-811.270253
 20
1000.321411
 11
-795.815440
 21
996.180306
  0
LINE
  8
5
 62
2
 10
-811.270253
 20
1000.321411
 11
-795.815440
 21
1004.462516
  0
LINE
  8
5
 62
2
 10
-795.815440
 20
996.180306
 11
-795.815440
 21
1004.462516
  0
LINE
  8
5
 62
2
 10
-811.270253
 20
1000.321411
 11
-411.270253
 21
1000.321411
  0
LINE
  8
5
 62
2
 10
-411.270253
 20
1000.321411
 11
-426.725066
 21
1004.462516
  0
LINE
  8
5
 62
2
 10
-411.270253
 20
1000.321411
 11
-426.725066
 21
996.180306
  0
LINE
  8
5
 62
2
 10
-426.725066
 20
1004.462516
 11
-426.725066
 21
996.180306
  0
LINE
  8
5
 62
2
 10
-411.270253
 20
963.198897
 11
-411.270253
 21
1008.321411
  0
ENDBLK
  8
5
  0
BLOCK
  8
5
  2
*D1
 70
1
 10
0.000000
 20
0.000000
  0
TEXT
  8
5
 10
-287.579559
 20
54.716121
 40
26.400000
  1
%%c450
 50
90.000000
 62
2
 41
1.400000
  0
LINE
  8
5
 62
2
 10
-418.270253
 20
316.676121
 11
-275.579559
 21
316.676121
  0
LINE
  8
5
 62
2
 10
-283.579559
 20
316.676121
 11
-287.720664
 21
301.221308
  0
LINE
  8
5
 62
2
 10
-283.579559
 20
316.676121
 11
-279.438455
 21
301.221308
  0
LINE
  8
5
 62
2
 10
-287.720664
 20
301.221308
 11
-279.438455
 21
301.221308
  0
LINE
  8
5
 62
2
 10
-283.579559
 20
316.676121
 11
-283.579559
 21
-133.323879
  0
LINE
  8
5
 62
2
 10
-283.579559
 20
-133.323879
 11
-279.438455
 21
-117.869066
  0
LINE
  8
5
 62
2
 10
-283.579559
 20
-133.323879
 11
-287.720664
 21
-117.869066
  0
LINE
  8
5
 62
2
 10
-279.438455
 20
-117.869066
 11
-287.720664
 21
-117.869066
  0
LINE
  8
5
 62
2
 10
-418.270253
 20
-133.323879
 11
-275.579559
 21
-133.323879
  0
ENDBLK
  8
5
  0
BLOCK
  8
5
  2
*D2
 70
1
 10
0.000000
 20
0.000000
  0
TEXT
  8
5
 10
20.288155
 20
111.676121
 40
26.400000
  1
65
 50
90.000000
 62
2
 41
1.400000
  0
LINE
  8
5
 62
2
 10
163.629747
 20
26.676121
 11
16.288155
 21
26.676121
  0
LINE
  8
5
 62
2
 10
24.288155
 20
26.676121
 11
20.147050
 21
11.221308
  0
LINE
  8
5
 62
2
 10
24.288155
 20
26.676121
 11
28.429259
 21
11.221308
  0
LINE
  8
5
 62
2
 10
20.147050
 20
11.221308
 11
28.429259
 21
11.221308
  0
LINE
  8
5
 62
2
 10
24.288155
 20
-13.323879
 11
24.288155
 21
152.636121
  0
LINE
  8
5
 62
2
 10
24.288155
 20
91.676121
 11
28.429259
 21
107.130934
  0
LINE
  8
5
 62
2
 10
24.288155
 20
91.676121
 11
20.147050
 21
107.130934
  0
LINE
  8
5
 62
2
 10
28.429259
 20
107.130934
 11
20.147050
 21
107.130934
  0
LINE
  8
5
 62
2
 10
77.239431
 20
91.676121
 11
16.288155
 21
91.676121
  0
ENDBLK
  8
5
  0
BLOCK
  8
5
  2
*D3
 70
1
 10
0.000000
 20
0.000000
  0
TEXT
  8
5
 10
273.909747
 20
-1073.926636
 40
26.400000
  1
153
 50
0.000000
 62
2
 41
1.400000
  0
LINE
  8
5
 62
2
 10
225.129747
 20
-924.323879
 11
225.129747
 21
-1085.926636
  0
LINE
  8
5
 62
2
 10
225.129747
 20
-1077.926636
 11
240.584560
 21
-1082.067740
  0
LINE
  8
5
 62
2
 10
225.129747
 20
-1077.926636
 11
240.584560
 21
-1073.785531
  0
LINE
  8
5
 62
2
 10
240.584560
 20
-1082.067740
 11
240.584560
 21
-1073.785531
  0
LINE
  8
5
 62
2
 10
225.129747
 20
-1077.926636
 11
378.129747
 21
-1077.926636
  0
LINE
  8
5
 62
2
 10
378.129747
 20
-1077.926636
 11
362.674934
 21
-1073.785531
  0
LINE
  8
5
 62
2
 10
378.129747
 20
-1077.926636
 11
362.674934
 21
-1082.067740
  0
LINE
  8
5
 62
2
 10
362.674934
 20
-1073.785531
 11
362.674934
 21
-1082.067740
  0
LINE
  8
5
 62
2
 10
378.129747
 20
-924.323879
 11
378.129747
 21
-1085.926636
  0
ENDBLK
  8
5
  0
BLOCK
  8
5
  2
*D4
 70
1
 10
0.000000
 20
0.000000
  0
TEXT
  8
5
 10
20.288155
 20
-778.043879
 40
26.400000
  1
494
 50
90.000000
 62
2
 41
1.400000
  0
LINE
  8
5
 62
2
 10
284.982747
 20
-997.323879
 11
16.288155
 21
-997.323879
  0
LINE
  8
5
 62
2
 10
24.288155
 20
-997.323879
 11
28.429259
 21
-981.869066
  0
LINE
  8
5
 62
2
 10
24.288155
 20
-997.323879
 11
20.147050
 21
-981.869066
  0
LINE
  8
5
 62
2
 10
28.429259
 20
-981.869066
 11
20.147050
 21
-981.869066
  0
LINE
  8
5
 62
2
 10
24.288155
 20
-997.323879
 11
24.288155
 21
-503.323879
  0
LINE
  8
5
 62
2
 10
24.288155
 20
-503.323879
 11
20.147050
 21
-518.778692
  0
LINE
  8
5
 62
2
 10
24.288155
 20
-503.323879
 11
28.429259
 21
-518.778692
  0
LINE
  8
5
 62
2
 10
20.147050
 20
-518.778692
 11
28.429259
 21
-518.778692
  0
LINE
  8
5
 62
2
 10
157.760803
 20
-503.323879
 11
16.288155
 21
-503.323879
  0
ENDBLK
  8
5
  0
BLOCK
  8
5
  2
*D5
 70
1
 10
0.000000
 20
0.000000
  0
TEXT
  8
5
 10
20.288155
 20
-266.043879
 40
26.400000
  1
530
 50
90.000000
 62
2
 41
1.400000
  0
LINE
  8
5
 62
2
 10
157.760803
 20
-503.323879
 11
16.288155
 21
-503.323879
  0
LINE
  8
5
 62
2
 10
24.288155
 20
-503.323879
 11
28.429259
 21
-487.869066
  0
LINE
  8
5
 62
2
 10
24.288155
 20
-503.323879
 11
20.147050
 21
-487.869066
  0
LINE
  8
5
 62
2
 10
28.429259
 20
-487.869066
 11
20.147050
 21
-487.869066
  0
LINE
  8
5
 62
2
 10
24.288155
 20
-503.323879
 11
24.288155
 21
26.676121
  0
LINE
  8
5
 62
2
 10
24.288155
 20
26.676121
 11
20.147050
 21
11.221308
  0
LINE
  8
5
 62
2
 10
24.288155
 20
26.676121
 11
28.429259
 21
11.221308
  0
LINE
  8
5
 62
2
 10
20.147050
 20
11.221308
 11
28.429259
 21
11.221308
  0
LINE
  8
5
 62
2
 10
163.629747
 20
26.676121
 11
16.288155
 21
26.676121
  0
ENDBLK
  8
5
  0
BLOCK
  8
5
  2
*D6
 70
1
 10
0.000000
 20
0.000000
  0
TEXT
  8
5
 10
-287.579559
 20
635.856121
 40
26.400000
  1
140
 50
90.000000
 62
2
 41
1.400000
  0
LINE
  8
5
 62
2
 10
-345.665680
 20
593.576121
 11
-275.579559
 21
593.576121
  0
LINE
  8
5
 62
2
 10
-283.579559
 20
593.576121
 11
-279.438455
 21
609.030934
  0
LINE
  8
5
 62
2
 10
-283.579559
 20
593.576121
 11
-287.720664
 21
609.030934
  0
LINE
  8
5
 62
2
 10
-279.438455
 20
609.030934
 11
-287.720664
 21
609.030934
  0
LINE
  8
5
 62
2
 10
-283.579559
 20
593.576121
 11
-283.579559
 21
733.576121
  0
LINE
  8
5
 62
2
 10
-283.579559
 20
733.576121
 11
-287.720664
 21
718.121308
  0
LINE
  8
5
 62
2
 10
-283.579559
 20
733.576121
 11
-279.438455
 21
718.121308
  0
LINE
  8
5
 62
2
 10
-287.720664
 20
718.121308
 11
-279.438455
 21
718.121308
  0
LINE
  8
5
 62
2
 10
-373.273012
 20
733.576121
 11
-275.579559
 21
733.576121
  0
ENDBLK
  8
5
  0
BLOCK
  8
5
  2
*D7
 70
1
 10
0.000000
 20
0.000000
  0
TEXT
  8
5
 10
-287.579559
 20
466.856121
 40
26.400000
  1
198
 50
90.000000
 62
2
 41
1.400000
  0
LINE
  8
5
 62
2
 10
-718.770253
 20
395.576121
 11
-275.579559
 21
395.576121
  0
LINE
  8
5
 62
2
 10
-283.579559
 20
395.576121
 11
-279.438455
 21
411.030934
  0
LINE
  8
5
 62
2
 10
-283.579559
 20
395.576121
 11
-287.720664
 21
411.030934
  0
LINE
  8
5
 62
2
 10
-279.438455
 20
411.030934
 11
-287.720664
 21
411.030934
  0
LINE
  8
5
 62
2
 10
-283.579559
 20
395.576121
 11
-283.579559
 21
593.576121
  0
LINE
  8
5
 62
2
 10
-283.579559
 20
593.576121
 11
-287.720664
 21
578.121308
  0
LINE
  8
5
 62
2
 10
-283.579559
 20
593.576121
 11
-279.438455
 21
578.121308
  0
LINE
  8
5
 62
2
 10
-287.720664
 20
578.121308
 11
-279.438455
 21
578.121308
  0
LINE
  8
5
 62
2
 10
-345.665680
 20
593.576121
 11
-275.579559
 21
593.576121
  0
ENDBLK
  8
5
  0
ENDSEC
  0
SECTION
  2
ENTITIES
  0
CIRCLE
  8
1
  6
DASHED
 10
-811.270253
 20
593.576121
 40
130.000000
  0
CIRCLE
  8
1
  6
DASHED
 10
-733.488507
 20
671.357867
 40
11.500000
  0
CIRCLE
  8
1
  6
DASHED
 10
-889.051999
 20
671.357867
 40
11.500000
  0
CIRCLE
  8
1
  6
DASHED
 10
-889.051999
 20
515.794375
 40
11.500000
  0
CIRCLE
  8
1
  6
DASHED
 10
-733.488507
 20
515.794375
 40
11.500000
  0
LINE
  8
1
  6
CENTER
 62
2
 10
-907.394079
 20
497.452295
 11
-871.888479
 21
532.957895
  0
LINE
  8
1
  6
CENTER
 62
2
 10
-750.181875
 20
654.664499
 11
-716.384847
 21
688.461526
  0
LINE
  8
1
  6
CENTER
 62
2
 10
-906.645065
 20
688.950932
 11
-872.847900
 21
655.153767
  0
LINE
  8
1
  6
CENTER
 62
2
 10
-749.053390
 20
531.359258
 11
-715.256103
 21
497.561971
  0
ARC
  8
1
  6
CENTER
 62
2
 10
-811.270253
 20
593.576121
 40
110.000000
 50
30.914878
 51
58.602770
  0
ARC
  8
1
  6
CENTER
 62
2
 10
-811.270253
 20
593.576121
 40
110.000000
 50
302.316860
 51
328.013138
  0
ARC
  8
1
  6
CENTER
 62
2
 10
-811.270253
 20
593.576121
 40
110.000000
 50
122.362480
 51
149.110359
  0
ARC
  8
1
  6
CENTER
 62
2
 10
-811.270253
 20
593.576121
 40
110.000000
 50
212.622527
 51
238.359548
  0
LINE
  8
1
  6
CENTER
 62
2
 10
-733.488507
 20
44.475533
 11
-733.488507
 21
-21.194965
  0
LINE
  8
1
  6
CENTER
 62
2
 10
-889.051999
 20
44.475533
 11
-889.051999
 21
-21.194965
  0
LINE
  8
1
  6
CENTER
 62
2
 10
379.411493
 20
44.475533
 11
379.411493
 21
-21.194965
  0
LINE
  8
1
  6
CENTER
 62
2
 10
223.848001
 20
44.475533
 11
223.848001
 21
-21.194965
  0
LINE
  8
1
  6
CENTER
 62
2
 10
-1272.140747
 20
593.576121
 11
-353.665680
 21
593.576121
  0
LINE
  8
1
  6
CENTER
 62
2
 10
301.629747
 20
-1022.193493
 11
301.629747
 21
186.676121
  0
LINE
  8
1
  6
CENTER
 62
2
 10
165.760803
 20
-503.323879
 11
443.257416
 21
-503.323879
  0
LINE
  8
1
  6
CENTER
 62
2
 10
-1272.140747
 20
-503.323879
 11
-353.665680
 21
-503.323879
  0
LINE
  8
1
  6
CENTER
 62
2
 10
-811.270253
 20
-1022.193493
 11
-811.270253
 21
186.676121
  0
LINE
  8
1
 10
225.129747
 20
-90.323879
 11
225.129747
 21
-916.323879
  0
LINE
  8
1
 10
378.129747
 20
-90.323879
 11
378.129747
 21
-916.323879
  0
LINE
  8
1
 10
-884.270253
 20
-963.323879
 11
-738.270253
 21
-963.323879
  0
LINE
  8
1
 10
-937.270253
 20
1.676121
 11
-685.270253
 21
1.676121
  0
LINE
  8
1
 10
-941.270253
 20
26.676121
 11
-941.270253
 21
5.676121
  0
LINE
  8
1
 10
-681.270253
 20
26.676121
 11
-681.270253
 21
5.676121
  0
ARC
  8
1
 10
-685.270253
 20
5.676121
 40
4.000000
 50
270.000000
 51
360.000000
  0
ARC
  8
1
 10
-937.270253
 20
5.676121
 40
4.000000
 50
180.000000
 51
270.000000
  0
LINE
  8
1
 10
-883.270253
 20
-8.323879
 11
-883.270253
 21
-80.210419
  0
LINE
  8
1
 10
-739.270253
 20
-8.323879
 11
-739.270253
 21
-80.210419
  0
LINE
  8
1
 10
-884.270253
 20
-926.218665
 11
-884.270253
 21
-976.323879
  0
LINE
  8
1
 10
-738.270253
 20
-926.218665
 11
-738.270253
 21
-976.323879
  0
ARC
  8
1
 10
-729.270253
 20
-8.323879
 40
10.000000
 50
90.000000
 51
180.000000
  0
ARC
  8
1
 10
-893.270253
 20
-8.323879
 40
10.000000
 50
0.000000
 51
90.000000
  0
LINE
  8
1
 10
-837.270253
 20
-10.323879
 11
-823.228514
 21
-10.323879
  0
LINE
  8
1
 10
-799.311992
 20
-10.323879
 11
-785.270253
 21
-10.323879
  0
LINE
  8
1
 10
171.629747
 20
26.676121
 11
171.629747
 21
5.676121
  0
LINE
  8
1
 10
431.629747
 20
26.676121
 11
431.629747
 21
5.676121
  0
ARC
  8
1
 10
427.629747
 20
5.676121
 40
4.000000
 50
270.000000
 51
360.000000
  0
ARC
  8
1
 10
175.629747
 20
5.676121
 40
4.000000
 50
180.000000
 51
270.000000
  0
LINE
  8
1
 10
230.629747
 20
-8.323879
 11
230.629747
 21
-86.030565
  0
LINE
  8
1
 10
372.629747
 20
-8.323879
 11
372.629747
 21
-84.344749
  0
ARC
  8
1
 10
382.629747
 20
-8.323879
 40
10.000000
 50
90.000000
 51
180.000000
  0
ARC
  8
1
 10
220.629747
 20
-8.323879
 40
10.000000
 50
360.000000
 51
90.000000
  0
LINE
  8
1
 10
230.629747
 20
-10.323879
 11
233.279145
 21
-10.323879
  0
LINE
  8
1
  6
CENTER
 62
2
 10
-671.270253
 20
-2.262432
 11
-671.270253
 21
-57.496769
  0
LINE
  8
1
  6
CENTER
 62
2
 10
-697.010559
 20
-30.323879
 11
-644.526581
 21
-30.323879
  0
CIRCLE
  8
1
 10
-671.270253
 20
-30.323879
 40
15.000000
  0
ARC
  8
1
 10
-671.270253
 20
-30.323879
 40
32.000000
 50
333.096936
 51
83.893148
  0
ARC
  8
1
 10
-666.270253
 20
16.409407
 40
15.000000
 50
180.000000
 51
263.893148
  0
LINE
  8
1
  6
CENTER
 62
2
 10
-951.270253
 20
-2.262432
 11
-951.270253
 21
-57.496769
  0
LINE
  8
1
  6
CENTER
 62
2
 10
-925.529947
 20
-30.323879
 11
-978.013925
 21
-30.323879
  0
CIRCLE
  8
1
 10
-951.270253
 20
-30.323879
 40
15.000000
  0
ARC
  8
1
 10
-951.270253
 20
-30.323879
 40
32.000000
 50
96.106852
 51
206.903064
  0
ARC
  8
1
 10
-956.270253
 20
16.409407
 40
15.000000
 50
276.106852
 51
360.000000
  0
LINE
  8
1
 10
287.629747
 20
16.409407
 11
315.629747
 21
16.409407
  0
LINE
  8
1
 10
287.629747
 20
11.409407
 11
287.629747
 21
-152.491550
  0
LINE
  8
1
 10
315.629747
 20
11.409407
 11
315.629747
 21
-152.491550
  0
ARC
  8
1
 10
320.629747
 20
11.409407
 40
5.000000
 50
90.000000
 51
180.000000
  0
ARC
  8
1
 10
282.629747
 20
11.409407
 40
5.000000
 50
0.000000
 51
90.000000
  0
LINE
  8
1
 10
175.629747
 20
1.676121
 11
277.629747
 21
1.676121
  0
LINE
  8
1
 10
325.629747
 20
1.676121
 11
427.629747
 21
1.676121
  0
ARC
  8
1
 10
325.629747
 20
-8.323879
 40
10.000000
 50
90.000000
 51
180.000000
  0
ARC
  8
1
 10
277.629747
 20
-8.323879
 40
10.000000
 50
360.000000
 51
90.000000
  0
LINE
  8
1
 10
292.629747
 20
1.494528
 11
310.629747
 21
1.494528
  0
ARC
  8
1
 10
310.629747
 20
-3.505472
 40
5.000000
 50
0.000000
 51
90.000000
  0
ARC
  8
1
 10
292.629747
 20
-3.505472
 40
5.000000
 50
90.000000
 51
180.000000
  0
LINE
  8
1
 10
228.629747
 20
-963.323879
 11
374.629747
 21
-963.323879
  0
LINE
  8
1
 10
-983.270253
 20
584.576121
 11
-983.270253
 21
602.576121
  0
ARC
  8
1
 10
-978.270253
 20
602.576121
 40
5.000000
 50
90.000000
 51
180.000000
  0
ARC
  8
1
 10
-978.270253
 20
584.576121
 40
5.000000
 50
180.000000
 51
270.000000
  0
ARC
  8
1
  6
DASHED
 10
-944.926529
 20
612.576121
 40
5.000000
 50
270.000000
 51
351.909288
  0
ARC
  8
1
  6
DASHED
 10
-944.926529
 20
574.576121
 40
5.000000
 50
8.090712
 51
90.000000
  0
LINE
  8
1
  6
DASHED
 10
-954.674508
 20
584.576121
 11
-954.674508
 21
602.576121
  0
LINE
  8
1
 10
-639.270253
 20
584.576121
 11
-639.270253
 21
602.576121
  0
ARC
  8
1
 10
-644.270253
 20
602.576121
 40
5.000000
 50
0.000000
 51
90.000000
  0
ARC
  8
1
 10
-644.270253
 20
584.576121
 40
5.000000
 50
270.000000
 51
360.000000
  0
ARC
  8
1
  6
DASHED
 10
-677.613977
 20
612.576121
 40
5.000000
 50
188.090712
 51
270.000000
  0
ARC
  8
1
  6
DASHED
 10
-677.613977
 20
574.576121
 40
5.000000
 50
90.000000
 51
171.909288
  0
LINE
  8
1
  6
DASHED
 10
-667.865998
 20
584.576121
 11
-667.865998
 21
602.576121
  0
LINE
  8
1
 10
228.629747
 20
-912.139775
 11
228.629747
 21
-976.323879
  0
LINE
  8
1
 10
374.629747
 20
-912.139775
 11
374.629747
 21
-976.323879
  0
LINE
  8
1
 10
-884.270253
 20
-964.323879
 11
-738.270253
 21
-964.323879
  0
LINE
  8
1
 10
-881.270253
 20
-979.323879
 11
-741.270253
 21
-979.323879
  0
ARC
  8
1
 10
-741.270253
 20
-976.323879
 40
3.000000
 50
270.000000
 51
360.000000
  0
ARC
  8
1
 10
-881.270253
 20
-976.323879
 40
3.000000
 50
180.000000
 51
270.000000
  0
LINE
  8
1
 10
228.629747
 20
-964.323879
 11
374.629747
 21
-964.323879
  0
LINE
  8
1
 10
231.629747
 20
-979.323879
 11
371.629747
 21
-979.323879
  0
ARC
  8
1
 10
371.629747
 20
-976.323879
 40
3.000000
 50
270.000000
 51
360.000000
  0
ARC
  8
1
 10
231.629747
 20
-976.323879
 40
3.000000
 50
180.000000
 51
270.000000
  0
LINE
  8
1
  6
CENTER
 62
2
 10
-866.270253
 20
-1003.476099
 11
-866.270253
 21
-946.490137
  0
LINE
  8
1
  6
CENTER
 62
2
 10
-756.270253
 20
-1003.476099
 11
-756.270253
 21
-946.490137
  0
LINE
  8
1
 10
-796.270253
 20
-979.323879
 11
-796.270253
 21
-991.323879
  0
LINE
  8
1
 10
-811.270253
 20
-980.940460
 11
-811.270253
 21
-989.707298
  0
ARC
  8
1
 10
-803.770253
 20
-973.117757
 40
18.206122
 50
245.672652
 51
294.327348
  0
LINE
  8
1
 10
-826.270253
 20
-979.323879
 11
-826.270253
 21
-991.323879
  0
LINE
  8
1
 10
-826.270253
 20
-991.323879
 11
-796.270253
 21
-991.323879
  0
ARC
  8
1
 10
-818.770253
 20
-973.117757
 40
18.206122
 50
245.672652
 51
294.327348
  0
ARC
  8
1
 10
-803.770253
 20
-997.530001
 40
18.206122
 50
65.672652
 51
114.327348
  0
ARC
  8
1
 10
-818.770253
 20
-997.530001
 40
18.206122
 50
65.672652
 51
114.327348
  0
LINE
  8
1
 10
-819.917253
 20
-997.323879
 11
-802.623253
 21
-997.323879
  0
LINE
  8
1
 10
-819.917253
 20
-997.323879
 11
-821.270253
 21
-995.970879
  0
LINE
  8
1
 10
-821.270253
 20
-995.970879
 11
-821.270253
 21
-991.323879
  0
LINE
  8
1
 62
2
 10
-819.917253
 20
-997.323879
 11
-819.917253
 21
-991.323879
  0
LINE
  8
1
 10
-802.623253
 20
-997.323879
 11
-801.270253
 21
-995.970879
  0
LINE
  8
1
 10
-801.270253
 20
-995.970879
 11
-801.270253
 21
-991.323879
  0
LINE
  8
1
 10
-801.270253
 20
-995.970879
 11
-821.270253
 21
-995.970879
  0
LINE
  8
1
 62
2
 10
-802.623253
 20
-997.323879
 11
-802.623253
 21
-991.323879
  0
LINE
  8
1
 10
-745.320253
 20
-982.323879
 11
-745.320253
 21
-989.198046
  0
LINE
  8
1
 10
-745.320253
 20
-989.198046
 11
-747.270253
 21
-990.323879
  0
LINE
  8
1
 10
-750.795253
 20
-982.323879
 11
-750.795253
 21
-989.198046
  0
ARC
  8
1
 10
-748.057753
 20
-985.678897
 40
4.458511
 50
232.121121
 51
307.878879
  0
ARC
  8
1
 10
-756.270253
 20
-973.712408
 40
16.425000
 50
250.528777
 51
289.471219
  0
LINE
  8
1
 10
-767.220253
 20
-982.323879
 11
-767.220253
 21
-989.198046
  0
LINE
  8
1
 10
-767.220253
 20
-989.198046
 11
-765.270253
 21
-990.323879
  0
LINE
  8
1
 10
-765.270253
 20
-990.323879
 11
-747.270253
 21
-990.323879
  0
LINE
  8
1
 10
-761.745253
 20
-982.323879
 11
-761.745253
 21
-989.198046
  0
ARC
  8
1
 10
-764.482753
 20
-985.678897
 40
4.458511
 50
232.121121
 51
307.878879
  0
LINE
  8
1
 10
-745.520253
 20
-979.323879
 11
-745.520253
 21
-982.323879
  0
LINE
  8
1
 10
-745.320253
 20
-982.323879
 11
-767.220253
 21
-982.323879
  0
LINE
  8
1
 10
-767.020253
 20
-982.323879
 11
-767.020253
 21
-979.323879
  0
LINE
  8
1
 10
-756.270253
 20
-982.323879
 11
-756.770253
 21
-979.323879
  0
LINE
  8
1
 10
-756.270253
 20
-979.323879
 11
-755.770253
 21
-982.323879
  0
LINE
  8
1
 10
-855.320253
 20
-982.323879
 11
-855.320253
 21
-989.198046
  0
LINE
  8
1
 10
-855.320253
 20
-989.198046
 11
-857.270253
 21
-990.323879
  0
LINE
  8
1
 10
-860.795253
 20
-982.323879
 11
-860.795253
 21
-989.198046
  0
ARC
  8
1
 10
-858.057753
 20
-985.678897
 40
4.458511
 50
232.121121
 51
307.878879
  0
ARC
  8
1
 10
-866.270253
 20
-973.712408
 40
16.425000
 50
250.528777
 51
289.471219
  0
LINE
  8
1
 10
-877.220253
 20
-982.323879
 11
-877.220253
 21
-989.198046
  0
LINE
  8
1
 10
-877.220253
 20
-989.198046
 11
-875.270253
 21
-990.323879
  0
LINE
  8
1
 10
-875.270253
 20
-990.323879
 11
-857.270253
 21
-990.323879
  0
LINE
  8
1
 10
-871.745253
 20
-982.323879
 11
-871.745253
 21
-989.198046
  0
ARC
  8
1
 10
-874.482753
 20
-985.678897
 40
4.458511
 50
232.121121
 51
307.878879
  0
LINE
  8
1
 10
-855.520253
 20
-979.323879
 11
-855.520253
 21
-982.323879
  0
LINE
  8
1
 10
-855.320253
 20
-982.323879
 11
-877.220253
 21
-982.323879
  0
LINE
  8
1
 10
-877.020253
 20
-982.323879
 11
-877.020253
 21
-979.323879
  0
LINE
  8
1
 10
-866.270253
 20
-982.323879
 11
-866.770253
 21
-979.323879
  0
LINE
  8
1
 10
-866.270253
 20
-979.323879
 11
-865.770253
 21
-982.323879
  0
LINE
  8
1
 10
318.929747
 20
-980.940460
 11
318.929747
 21
-989.707298
  0
LINE
  8
1
 10
318.929747
 20
-989.707298
 11
316.129747
 21
-991.323879
  0
LINE
  8
1
 10
316.129747
 20
-991.323879
 11
287.129747
 21
-991.323879
  0
LINE
  8
1
 10
310.279747
 20
-980.940460
 11
310.279747
 21
-989.707298
  0
ARC
  8
1
 10
314.604747
 20
-984.147364
 40
7.044040
 50
232.121121
 51
307.878879
  0
LINE
  8
1
 10
284.329747
 20
-980.940460
 11
284.329747
 21
-989.707298
  0
LINE
  8
1
 10
284.329747
 20
-989.707298
 11
287.129747
 21
-991.323879
  0
LINE
  8
1
 10
292.979747
 20
-980.940460
 11
292.979747
 21
-989.707298
  0
ARC
  8
1
 10
288.654747
 20
-984.147364
 40
7.044040
 50
232.121121
 51
307.878879
  0
ARC
  8
1
 10
301.629747
 20
-965.241404
 40
25.950000
 50
250.528777
 51
289.471219
  0
ARC
  8
1
 10
314.604747
 20
-986.500394
 40
7.044040
 50
52.121121
 51
127.878879
  0
ARC
  8
1
 10
301.629747
 20
-1005.406355
 40
25.950000
 50
70.528781
 51
109.471223
  0
ARC
  8
1
 10
288.654747
 20
-986.500394
 40
7.044040
 50
52.121121
 51
127.878879
  0
LINE
  8
1
 10
292.982747
 20
-997.323879
 11
310.276747
 21
-997.323879
  0
LINE
  8
1
 10
292.982747
 20
-997.323879
 11
291.629747
 21
-995.970879
  0
LINE
  8
1
 10
291.629747
 20
-995.970879
 11
291.629747
 21
-991.323879
  0
LINE
  8
1
 62
2
 10
292.982747
 20
-997.323879
 11
292.982747
 21
-991.323879
  0
LINE
  8
1
 10
310.276747
 20
-997.323879
 11
311.629747
 21
-995.970879
  0
LINE
  8
1
 10
311.629747
 20
-995.970879
 11
311.629747
 21
-991.323879
  0
LINE
  8
1
 10
311.629747
 20
-995.970879
 11
291.629747
 21
-995.970879
  0
LINE
  8
1
 62
2
 10
310.276747
 20
-997.323879
 11
310.276747
 21
-991.323879
  0
LINE
  8
1
 10
318.929747
 20
-980.940460
 11
316.129747
 21
-979.323879
  0
LINE
  8
1
 10
284.329747
 20
-980.940460
 11
287.129747
 21
-979.323879
  0
LINE
  8
1
  6
CENTER
 62
2
 10
356.629747
 20
-1003.476099
 11
356.629747
 21
-946.490137
  0
LINE
  8
1
 10
366.129747
 20
-982.323879
 11
366.129747
 21
-990.323879
  0
LINE
  8
1
 10
356.629747
 20
-982.323879
 11
356.629747
 21
-989.198046
  0
ARC
  8
1
 10
361.379747
 20
-979.740605
 40
10.583275
 50
243.331909
 51
296.668091
  0
LINE
  8
1
 10
347.129747
 20
-982.323879
 11
347.129747
 21
-990.323879
  0
LINE
  8
1
 10
347.129747
 20
-990.323879
 11
366.129747
 21
-990.323879
  0
ARC
  8
1
 10
351.879747
 20
-979.740605
 40
10.583275
 50
243.331909
 51
296.668091
  0
LINE
  8
1
 10
367.379747
 20
-979.323879
 11
367.379747
 21
-982.323879
  0
LINE
  8
1
 10
367.379747
 20
-982.323879
 11
345.879747
 21
-982.323879
  0
LINE
  8
1
 10
345.879747
 20
-982.323879
 11
345.879747
 21
-979.323879
  0
LINE
  8
1
 10
256.129747
 20
-982.323879
 11
256.129747
 21
-990.323879
  0
LINE
  8
1
 10
246.629747
 20
-982.323879
 11
246.629747
 21
-989.198046
  0
ARC
  8
1
 10
251.379747
 20
-979.740605
 40
10.583275
 50
243.331909
 51
296.668091
  0
LINE
  8
1
 10
237.129747
 20
-982.323879
 11
237.129747
 21
-990.323879
  0
LINE
  8
1
 10
237.129747
 20
-990.323879
 11
256.129747
 21
-990.323879
  0
ARC
  8
1
 10
241.879747
 20
-979.740605
 40
10.583275
 50
243.331909
 51
296.668091
  0
LINE
  8
1
 10
257.379747
 20
-979.323879
 11
257.379747
 21
-982.323879
  0
LINE
  8
1
 10
257.379747
 20
-982.323879
 11
235.879747
 21
-982.323879
  0
LINE
  8
1
 10
235.879747
 20
-982.323879
 11
235.879747
 21
-979.323879
  0
LINE
  8
1
  6
CENTER
 62
2
 10
246.629747
 20
-1003.476099
 11
246.629747
 21
-946.490137
  0
CIRCLE
  8
1
 10
-811.270253
 20
-503.323879
 40
325.500000
  0
LINE
  8
1
 10
-903.071546
 20
-224.223879
 11
-738.226157
 21
-224.223879
  0
LINE
  8
1
 10
-903.071546
 20
-782.423879
 11
-738.226157
 21
-782.423879
  0
ARC
  8
1
 10
-811.270253
 20
-503.323879
 40
288.500000
 50
284.666110
 51
75.333890
  0
LINE
  8
1
 10
222.629747
 20
-182.823879
 11
222.629747
 21
-823.823879
  0
LINE
  8
1
 10
380.629747
 20
-182.823879
 11
380.629747
 21
-823.823879
  0
ARC
  8
1
 10
375.629747
 20
-182.823879
 40
5.000000
 50
0.000000
 51
60.000000
  0
ARC
  8
1
 10
227.629747
 20
-182.823879
 40
5.000000
 50
120.000000
 51
180.000000
  0
ARC
  8
1
 10
227.629747
 20
-823.823879
 40
5.000000
 50
180.000000
 51
240.000000
  0
ARC
  8
1
 10
375.629747
 20
-823.823879
 40
5.000000
 50
300.000000
 51
360.000000
  0
ARC
  8
1
 10
-1131.770253
 20
667.576121
 40
5.000000
 50
90.000000
 51
150.000000
  0
ARC
  8
1
 10
-1131.770253
 20
519.576121
 40
5.000000
 50
210.000000
 51
270.000000
  0
ARC
  8
1
 10
-490.770253
 20
519.576121
 40
5.000000
 50
270.000000
 51
330.000000
  0
ARC
  8
1
 10
-490.770253
 20
667.576121
 40
5.000000
 50
30.000000
 51
90.000000
  0
CIRCLE
  8
1
 10
-811.270253
 20
-503.323879
 40
298.947818
  0
CIRCLE
  8
1
 10
-811.270253
 20
-503.323879
 40
413.000000
  0
LINE
  8
1
 10
-642.733506
 20
-44.803316
 11
-677.182439
 21
-112.696873
  0
LINE
  8
1
 10
-979.807000
 20
-44.803316
 11
-945.358067
 21
-112.696873
  0
ARC
  8
1
 10
-719.270253
 20
-80.210419
 40
20.000000
 50
180.000000
 51
257.732794
  0
ARC
  8
1
 10
-903.270253
 20
-80.210419
 40
20.000000
 50
282.267206
 51
360.000000
  0
LINE
  8
1
 10
-841.270253
 20
-14.323879
 11
-841.270253
 21
-84.042351
  0
LINE
  8
1
 10
-781.270253
 20
-14.323879
 11
-781.270253
 21
-84.042351
  0
ARC
  8
1
 10
-773.270253
 20
-84.042351
 40
8.000000
 50
180.000000
 51
264.821361
  0
ARC
  8
1
 10
-849.270253
 20
-84.042351
 40
8.000000
 50
275.178639
 51
360.000000
  0
ARC
  8
1
 10
-785.270253
 20
-14.323879
 40
4.000000
 50
0.000000
 51
90.000000
  0
ARC
  8
1
 10
-837.270253
 20
-14.323879
 40
4.000000
 50
90.000000
 51
180.000000
  0
ARC
  8
1
 10
-718.270253
 20
-926.218665
 40
20.000000
 50
102.402656
 51
180.000000
  0
ARC
  8
1
 10
-904.270253
 20
-926.218665
 40
20.000000
 50
0.000000
 51
77.597344
  0
ARC
  8
1
 10
378.629747
 20
-84.344749
 40
6.000000
 50
180.000000
 51
265.219808
  0
ARC
  8
1
 10
224.629747
 20
-84.344749
 40
6.000000
 50
274.780192
 51
0.000000
  0
ARC
  8
1
 10
356.629747
 20
-110.623224
 40
10.000000
 50
90.000000
 51
180.000000
  0
ARC
  8
1
 10
246.629747
 20
-110.623224
 40
10.000000
 50
360.000000
 51
90.000000
  0
ARC
  8
1
 10
301.629747
 20
172.249642
 40
272.003408
 50
256.315216
 51
267.049686
  0
ARC
  8
1
 10
301.629747
 20
172.249642
 40
272.003408
 50
272.950314
 51
285.130958
  0
LINE
  8
1
 10
225.129747
 20
-100.623224
 11
287.629747
 21
-100.623224
  0
LINE
  8
1
 10
315.629747
 20
-100.623224
 11
378.129747
 21
-100.623224
  0
LINE
  8
1
 10
287.629747
 20
-157.491550
 11
315.629747
 21
-157.491550
  0
ARC
  8
1
 10
320.629747
 20
-152.491550
 40
5.000000
 50
180.000000
 51
270.000000
  0
ARC
  8
1
 10
282.629747
 20
-152.491550
 40
5.000000
 50
270.000000
 51
0.000000
  0
LINE
  8
1
 10
276.629747
 20
-178.054760
 11
326.629747
 21
-178.054760
  0
ARC
  8
1
 10
326.629747
 20
-198.054760
 40
20.000000
 50
0.000000
 51
90.000000
  0
ARC
  8
1
 10
276.629747
 20
-198.054760
 40
20.000000
 50
90.000000
 51
180.000000
  0
LINE
  8
1
 10
276.629747
 20
-490.823879
 11
326.629747
 21
-490.823879
  0
LINE
  8
1
 10
276.629747
 20
-515.823879
 11
326.629747
 21
-515.823879
  0
ARC
  8
1
 10
326.629747
 20
-470.823879
 40
20.000000
 50
270.000000
 51
360.000000
  0
ARC
  8
1
 10
276.629747
 20
-470.823879
 40
20.000000
 50
180.000000
 51
270.000000
  0
ARC
  8
1
 10
276.629747
 20
-535.823879
 40
20.000000
 50
90.000000
 51
180.000000
  0
ARC
  8
1
 10
326.629747
 20
-535.823879
 40
20.000000
 50
0.000000
 51
90.000000
  0
LINE
  8
1
 10
346.629747
 20
-896.024534
 11
346.629747
 21
-535.823879
  0
LINE
  8
1
 10
346.629747
 20
-470.823879
 11
346.629747
 21
-110.623224
  0
LINE
  8
1
 10
256.629747
 20
-896.024534
 11
256.629747
 21
-535.823879
  0
LINE
  8
1
 10
256.629747
 20
-470.823879
 11
256.629747
 21
-110.623224
  0
LINE
  8
1
 10
237.279145
 20
-10.323879
 11
237.279145
 21
-79.860298
  0
ARC
  8
1
 10
233.279145
 20
-6.323879
 40
4.000000
 50
270.000000
 51
360.000000
  0
ARC
  8
1
 10
224.629747
 20
-86.030565
 40
6.000000
 50
274.780192
 51
0.000000
  0
ARC
  8
1
 10
225.129747
 20
-79.860298
 40
12.149398
 50
270.000000
 51
360.000000
  0
LINE
  8
1
 10
292.629747
 20
-44.803316
 11
310.629747
 21
-44.803316
  0
LINE
  8
1
 10
276.629747
 20
-828.592999
 11
326.629747
 21
-828.592999
  0
ARC
  8
1
 10
326.629747
 20
-808.592999
 40
20.000000
 50
270.000000
 51
360.000000
  0
ARC
  8
1
 10
276.629747
 20
-808.592999
 40
20.000000
 50
180.000000
 51
270.000000
  0
ARC
  8
1
 10
380.629747
 20
-921.778235
 40
6.000000
 50
114.624318
 51
180.000000
  0
ARC
  8
1
 10
222.629747
 20
-921.778235
 40
6.000000
 50
0.000000
 51
65.375682
  0
LINE
  8
1
 10
225.129747
 20
-906.024534
 11
378.129747
 21
-906.024534
  0
ARC
  8
1
 10
356.629747
 20
-896.024534
 40
10.000000
 50
180.000000
 51
270.000000
  0
ARC
  8
1
 10
246.629747
 20
-896.024534
 40
10.000000
 50
270.000000
 51
360.000000
  0
LINE
  8
1
 10
228.629747
 20
-906.685419
 11
374.629747
 21
-906.685419
  0
ARC
  8
1
 10
380.629747
 20
-912.139775
 40
6.000000
 50
114.624318
 51
180.000000
  0
ARC
  8
1
 10
222.629747
 20
-912.139775
 40
6.000000
 50
0.000000
 51
65.375682
  0
LINE
  8
1
 10
-1224.270253
 20
670.076121
 11
-1224.270253
 21
517.076121
  0
LINE
  8
1
 10
-398.270253
 20
670.076121
 11
-398.270253
 21
517.076121
  0
ARC
  8
1
 10
-1214.270253
 20
648.576121
 40
10.000000
 50
180.000000
 51
270.000000
  0
ARC
  8
1
 10
-1214.270253
 20
538.576121
 40
10.000000
 50
90.000000
 51
180.000000
  0
ARC
  8
1
 10
-408.270253
 20
648.576121
 40
10.000000
 50
270.000000
 51
360.000000
  0
ARC
  8
1
 10
-408.270253
 20
538.576121
 40
10.000000
 50
0.000000
 51
90.000000
  0
LINE
  8
1
 10
-466.496777
 20
568.576121
 11
-466.496777
 21
618.576121
  0
ARC
  8
1
 10
-486.496777
 20
618.576121
 40
20.000000
 50
0.000000
 51
90.000000
  0
ARC
  8
1
 10
-486.496777
 20
568.576121
 40
20.000000
 50
270.000000
 51
360.000000
  0
ARC
  8
1
  6
DASHED
 10
-676.270253
 20
618.576121
 40
20.000000
 50
90.000000
 51
125.826458
  0
ARC
  8
1
  6
DASHED
 10
-676.270253
 20
568.576121
 40
20.000000
 50
234.173542
 51
270.000000
  0
LINE
  8
1
 10
-1156.043729
 20
568.576121
 11
-1156.043729
 21
618.576121
  0
ARC
  8
1
 10
-1136.043729
 20
618.576121
 40
20.000000
 50
90.000000
 51
180.000000
  0
ARC
  8
1
 10
-1136.043729
 20
568.576121
 40
20.000000
 50
180.000000
 51
270.000000
  0
ARC
  8
1
  6
DASHED
 10
-946.270253
 20
618.576121
 40
20.000000
 50
54.173542
 51
90.000000
  0
ARC
  8
1
  6
DASHED
 10
-946.270253
 20
568.576121
 40
20.000000
 50
270.000000
 51
305.826458
  0
LINE
  8
1
  6
CENTER
 62
2
 10
-481.362877
 20
-459.890749
 11
-415.321580
 21
-451.196248
  0
CIRCLE
  8
1
 10
-449.392879
 20
-455.681819
 40
16.500000
  0
ARC
  8
1
  6
CENTER
 62
2
 10
-811.270253
 20
-503.323879
 40
365.000000
 50
2.195975
 51
12.484028
  0
LINE
  8
1
  6
CENTER
 62
2
 10
-503.845520
 20
-375.984385
 11
-442.304828
 21
-350.493396
  0
CIRCLE
  8
1
 10
-474.054224
 20
-363.644426
 40
16.500000
  0
ARC
  8
1
  6
CENTER
 62
2
 10
-811.270253
 20
-503.323879
 40
365.000000
 50
17.195975
 51
27.484028
  0
LINE
  8
1
  6
CENTER
 62
2
 10
-547.278650
 20
-300.755997
 11
-494.432460
 21
-260.205690
  0
CIRCLE
  8
1
 10
-521.696284
 20
-281.125958
 40
16.500000
  0
ARC
  8
1
  6
CENTER
 62
2
 10
-811.270253
 20
-503.323879
 40
365.000000
 50
32.195975
 51
42.484028
  0
LINE
  8
1
  6
CENTER
 62
2
 10
-608.702371
 20
-239.332276
 11
-568.152063
 21
-186.486086
  0
CIRCLE
  8
1
 10
-589.072331
 20
-213.749910
 40
16.500000
  0
ARC
  8
1
  6
CENTER
 62
2
 10
-811.270253
 20
-503.323879
 40
365.000000
 50
47.195975
 51
57.484028
  0
LINE
  8
1
  6
CENTER
 62
2
 10
-683.930759
 20
-195.899146
 11
-658.439770
 21
-134.358454
  0
CIRCLE
  8
1
 10
-671.590800
 20
-166.107850
 40
16.500000
  0
ARC
  8
1
  6
CENTER
 62
2
 10
-811.270253
 20
-503.323879
 40
365.000000
 50
62.195975
 51
72.484028
  0
LINE
  8
1
  6
CENTER
 62
2
 10
-767.837123
 20
-173.416504
 11
-759.142621
 21
-107.375207
  0
ARC
  8
1
  6
CENTER
 62
2
 10
-811.270253
 20
-503.323879
 40
365.000000
 50
77.195975
 51
87.484028
  0
LINE
  8
1
  6
CENTER
 62
2
 10
-854.703383
 20
-173.416504
 11
-863.397885
 21
-107.375207
  0
ARC
  8
1
  6
CENTER
 62
2
 10
-811.270253
 20
-503.323879
 40
365.000000
 50
92.195975
 51
102.484028
  0
LINE
  8
1
  6
CENTER
 62
2
 10
-938.609747
 20
-195.899146
 11
-964.100736
 21
-134.358454
  0
CIRCLE
  8
1
 10
-950.949706
 20
-166.107850
 40
16.500000
  0
ARC
  8
1
  6
CENTER
 62
2
 10
-811.270253
 20
-503.323879
 40
365.000000
 50
107.195975
 51
117.484028
  0
LINE
  8
1
  6
CENTER
 62
2
 10
-1013.838135
 20
-239.332276
 11
-1054.388443
 21
-186.486086
  0
CIRCLE
  8
1
 10
-1033.468175
 20
-213.749910
 40
16.500000
  0
ARC
  8
1
  6
CENTER
 62
2
 10
-811.270253
 20
-503.323879
 40
365.000000
 50
122.195975
 51
132.484028
  0
LINE
  8
1
  6
CENTER
 62
2
 10
-1075.261856
 20
-300.755997
 11
-1128.108046
 21
-260.205690
  0
CIRCLE
  8
1
 10
-1100.844222
 20
-281.125958
 40
16.500000
  0
ARC
  8
1
  6
CENTER
 62
2
 10
-811.270253
 20
-503.323879
 40
365.000000
 50
137.195975
 51
147.484028
  0
LINE
  8
1
  6
CENTER
 62
2
 10
-1118.694986
 20
-375.984385
 11
-1180.235678
 21
-350.493396
  0
CIRCLE
  8
1
 10
-1148.486282
 20
-363.644426
 40
16.500000
  0
ARC
  8
1
  6
CENTER
 62
2
 10
-811.270253
 20
-503.323879
 40
365.000000
 50
152.195975
 51
162.484028
  0
LINE
  8
1
  6
CENTER
 62
2
 10
-1141.177629
 20
-459.890749
 11
-1207.218926
 21
-451.196248
  0
CIRCLE
  8
1
 10
-1173.147627
 20
-455.681819
 40
16.500000
  0
ARC
  8
1
  6
CENTER
 62
2
 10
-811.270253
 20
-503.323879
 40
365.000000
 50
167.195975
 51
177.484028
  0
LINE
  8
1
  6
CENTER
 62
2
 10
-1141.177629
 20
-546.757009
 11
-1207.218926
 21
-555.451511
  0
CIRCLE
  8
1
 10
-1173.147627
 20
-550.965939
 40
16.500000
  0
ARC
  8
1
  6
CENTER
 62
2
 10
-811.270253
 20
-503.323879
 40
365.000000
 50
182.195975
 51
192.484028
  0
LINE
  8
1
  6
CENTER
 62
2
 10
-1118.694986
 20
-630.663373
 11
-1180.235678
 21
-656.154362
  0
CIRCLE
  8
1
 10
-1148.486282
 20
-643.003332
 40
16.500000
  0
ARC
  8
1
  6
CENTER
 62
2
 10
-811.270253
 20
-503.323879
 40
365.000000
 50
197.195975
 51
207.484028
  0
LINE
  8
1
  6
CENTER
 62
2
 10
-1075.261856
 20
-705.891761
 11
-1128.108046
 21
-746.442069
  0
CIRCLE
  8
1
 10
-1100.844222
 20
-725.521801
 40
16.500000
  0
ARC
  8
1
  6
CENTER
 62
2
 10
-811.270253
 20
-503.323879
 40
365.000000
 50
212.195975
 51
222.484028
  0
LINE
  8
1
  6
CENTER
 62
2
 10
-1013.838135
 20
-767.315482
 11
-1054.388443
 21
-820.161672
  0
CIRCLE
  8
1
 10
-1033.468175
 20
-792.897848
 40
16.500000
  0
ARC
  8
1
  6
CENTER
 62
2
 10
-811.270253
 20
-503.323879
 40
365.000000
 50
227.195975
 51
237.484028
  0
LINE
  8
1
  6
CENTER
 62
2
 10
-938.609747
 20
-810.748612
 11
-964.100736
 21
-872.289304
  0
CIRCLE
  8
1
 10
-950.949706
 20
-840.539909
 40
16.500000
  0
ARC
  8
1
  6
CENTER
 62
2
 10
-811.270253
 20
-503.323879
 40
365.000000
 50
242.195975
 51
252.484028
  0
LINE
  8
1
  6
CENTER
 62
2
 10
-854.703383
 20
-833.231255
 11
-863.397885
 21
-899.272552
  0
ARC
  8
1
  6
CENTER
 62
2
 10
-811.270253
 20
-503.323879
 40
365.000000
 50
257.195975
 51
267.484028
  0
LINE
  8
1
  6
CENTER
 62
2
 10
-767.837123
 20
-833.231255
 11
-759.142621
 21
-899.272552
  0
ARC
  8
1
  6
CENTER
 62
2
 10
-811.270253
 20
-503.323879
 40
365.000000
 50
272.195975
 51
282.484028
  0
LINE
  8
1
  6
CENTER
 62
2
 10
-683.930759
 20
-810.748612
 11
-658.439770
 21
-872.289304
  0
CIRCLE
  8
1
 10
-671.590800
 20
-840.539909
 40
16.500000
  0
ARC
  8
1
  6
CENTER
 62
2
 10
-811.270253
 20
-503.323879
 40
365.000000
 50
287.195975
 51
297.484028
  0
LINE
  8
1
  6
CENTER
 62
2
 10
-608.702371
 20
-767.315482
 11
-568.152063
 21
-820.161672
  0
CIRCLE
  8
1
 10
-589.072331
 20
-792.897848
 40
16.500000
  0
ARC
  8
1
  6
CENTER
 62
2
 10
-811.270253
 20
-503.323879
 40
365.000000
 50
302.195975
 51
312.484028
  0
LINE
  8
1
  6
CENTER
 62
2
 10
-547.278650
 20
-705.891761
 11
-494.432460
 21
-746.442069
  0
CIRCLE
  8
1
 10
-521.696284
 20
-725.521801
 40
16.500000
  0
ARC
  8
1
  6
CENTER
 62
2
 10
-811.270253
 20
-503.323879
 40
365.000000
 50
317.195975
 51
327.484028
  0
LINE
  8
1
  6
CENTER
 62
2
 10
-503.845520
 20
-630.663373
 11
-442.304828
 21
-656.154362
  0
CIRCLE
  8
1
 10
-474.054224
 20
-643.003332
 40
16.500000
  0
ARC
  8
1
  6
CENTER
 62
2
 10
-811.270253
 20
-503.323879
 40
365.000000
 50
332.195975
 51
342.484028
  0
LINE
  8
1
  6
CENTER
 62
2
 10
-481.362877
 20
-546.757009
 11
-415.321580
 21
-555.451511
  0
CIRCLE
  8
1
 10
-449.392879
 20
-550.965939
 40
16.500000
  0
ARC
  8
1
  6
CENTER
 62
2
 10
-811.270253
 20
-503.323879
 40
365.000000
 50
347.195975
 51
357.484028
  0
CIRCLE
  8
1
 62
2
 10
-763.628193
 20
-141.446505
 40
15.000000
  0
CIRCLE
  8
1
 10
-763.628193
 20
-141.446505
 40
13.105500
  0
CIRCLE
  8
1
 62
2
 10
-858.912313
 20
-141.446505
 40
15.000000
  0
CIRCLE
  8
1
 10
-858.912313
 20
-141.446505
 40
13.105500
  0
CIRCLE
  8
1
 62
2
 10
-858.912313
 20
-865.201254
 40
15.000000
  0
CIRCLE
  8
1
 10
-858.912313
 20
-865.201254
 40
13.105500
  0
CIRCLE
  8
1
 62
2
 10
-763.628193
 20
-865.201254
 40
15.000000
  0
CIRCLE
  8
1
 10
-763.628193
 20
-865.201254
 40
13.105500
  0
TEXT
  8
1
 10
-841.270253
 20
-49.323879
 40
12.000000
  1
ＴＯＭＯＥ
 50
0.000000
  0
TEXT
  8
1
 10
-839.270253
 20
-30.323879
 40
14.000000
  1
６００
 50
0.000000
  0
TEXT
  8
1
 10
-797.270253
 20
-28.323879
 40
12.000000
  1
Ａ
 50
0.000000
  0
ARC
  8
1
 10
-811.270253
 20
-503.323879
 40
291.500000
 50
253.228154
 51
106.771846
  0
ARC
  8
1
 10
-804.909377
 20
-503.323879
 40
294.000000
 50
161.568335
 51
198.431665
  0
ARC
  8
1
 10
-803.587629
 20
-503.323879
 40
300.000000
 50
166.899116
 51
193.100884
  0
ARC
  8
1
 10
-809.911383
 20
-504.945800
 40
259.106079
 50
193.607438
 51
253.644005
  0
ARC
  8
1
 10
-803.210971
 20
-503.323879
 40
266.000000
 50
166.392562
 51
193.607438
  0
ARC
  8
1
 10
-809.911383
 20
-504.754275
 40
229.683604
 50
318.029358
 51
346.911396
  0
ARC
  8
1
 10
-809.911383
 20
-501.893484
 40
229.683604
 50
13.088604
 51
41.970642
  0
ARC
  8
1
 10
-816.063685
 20
-503.323879
 40
236.000000
 50
346.911396
 51
13.088604
  0
ARC
  8
1
 10
-809.911383
 20
-504.788779
 40
206.542100
 50
205.064521
 51
228.535472
  0
ARC
  8
1
 10
-809.911383
 20
-501.858979
 40
206.542100
 50
131.464528
 51
154.935479
  0
LINE
  8
1
 10
-936.742180
 20
-343.323879
 11
-883.165243
 21
-343.323879
  0
LINE
  8
1
 10
-736.657523
 20
-343.323879
 11
-650.296789
 21
-343.323879
  0
LINE
  8
1
 10
-936.742180
 20
-663.323879
 11
-883.165243
 21
-663.323879
  0
LINE
  8
1
 10
-736.657523
 20
-663.323879
 11
-650.296789
 21
-663.323879
  0
ARC
  8
1
 10
-736.657523
 20
-358.323879
 40
15.000000
 50
90.000000
 51
180.000000
  0
ARC
  8
1
 10
-650.296789
 20
-358.323879
 40
15.000000
 50
41.970642
 51
90.000000
  0
ARC
  8
1
 10
-650.296789
 20
-648.323879
 40
15.000000
 50
270.000000
 51
318.029358
  0
ARC
  8
1
 10
-936.742180
 20
-648.323879
 40
15.000000
 50
228.535472
 51
270.000000
  0
ARC
  8
1
 10
-936.742180
 20
-358.323879
 40
15.000000
 50
90.000000
 51
131.464528
  0
ARC
  8
1
 10
-883.165243
 20
-358.323879
 40
15.000000
 50
0.000000
 51
90.000000
  0
ARC
  8
1
 10
-883.165243
 20
-648.323879
 40
15.000000
 50
270.000000
 51
360.000000
  0
ARC
  8
1
 10
-736.657523
 20
-648.323879
 40
15.000000
 50
180.000000
 51
270.000000
  0
LINE
  8
1
 10
-815.943203
 20
-488.323879
 11
-815.943203
 21
-518.323879
  0
LINE
  8
1
 10
-1063.443559
 20
-488.323879
 11
-820.943203
 21
-488.323879
  0
LINE
  8
1
 10
-821.390727
 20
-488.063093
 11
-868.165243
 21
-485.823879
  0
LINE
  8
1
 10
-868.165243
 20
-485.823879
 11
-1061.688623
 21
-488.235416
  0
ARC
  8
1
 10
-820.943203
 20
-483.323879
 40
5.000000
 50
270.000000
 51
360.000000
  0
ARC
  8
1
 10
-1063.443559
 20
-483.323879
 40
5.000000
 50
175.605211
 51
270.000000
  0
LINE
  8
1
 10
-1063.443559
 20
-518.323879
 11
-820.943203
 21
-518.323879
  0
LINE
  8
1
 10
-821.390727
 20
-518.584666
 11
-868.165243
 21
-520.823879
  0
LINE
  8
1
 10
-868.165243
 20
-520.823879
 11
-1061.688623
 21
-518.412342
  0
ARC
  8
1
 10
-820.943203
 20
-523.323879
 40
5.000000
 50
0.000000
 51
90.000000
  0
ARC
  8
1
 10
-1063.443559
 20
-523.323879
 40
5.000000
 50
90.000000
 51
184.394789
  0
LINE
  8
1
 10
-868.165243
 20
-726.474364
 11
-868.165243
 21
-550.452372
  0
LINE
  8
1
 10
-868.165243
 20
-456.195387
 11
-868.165243
 21
-280.173394
  0
ARC
  8
1
 10
-806.779109
 20
-503.323879
 40
210.000000
 50
154.935479
 51
170.892267
  0
ARC
  8
1
 10
-806.779109
 20
-503.323879
 40
210.000000
 50
189.107733
 51
205.064521
  0
ARC
  8
1
 10
-999.320637
 20
-472.457071
 40
15.000000
 50
170.892267
 51
270.713938
  0
ARC
  8
1
 10
-999.320637
 20
-534.190688
 40
15.000000
 50
89.286062
 51
189.107733
  0
ARC
  8
1
 10
-898.165243
 20
-456.195387
 40
30.000000
 50
270.713938
 51
0.000000
  0
ARC
  8
1
 10
-898.165243
 20
-550.452372
 40
30.000000
 50
0.000000
 51
89.286062
  0
LINE
  8
1
 10
-590.015044
 20
-488.323879
 11
-590.015044
 21
-518.323879
  0
LINE
  8
1
 10
-791.842510
 20
-488.323879
 11
-791.842510
 21
-518.323879
  0
LINE
  8
1
 10
-786.842510
 20
-488.323879
 11
-595.015044
 21
-488.323879
  0
LINE
  8
1
 10
-596.049243
 20
-488.230553
 11
-751.657523
 21
-485.823879
  0
LINE
  8
1
 10
-751.657523
 20
-485.823879
 11
-787.311870
 21
-488.042018
  0
ARC
  8
1
 10
-595.015044
 20
-483.323879
 40
5.000000
 50
270.000000
 51
360.000000
  0
ARC
  8
1
 10
-786.842510
 20
-483.323879
 40
5.000000
 50
180.000000
 51
270.000000
  0
LINE
  8
1
 10
-786.842510
 20
-518.323879
 11
-595.015044
 21
-518.323879
  0
LINE
  8
1
 10
-595.149512
 20
-518.403290
 11
-751.657523
 21
-520.823879
  0
LINE
  8
1
 10
-751.657523
 20
-520.823879
 11
-786.802446
 21
-518.637433
  0
ARC
  8
1
 10
-786.842510
 20
-523.323879
 40
5.000000
 50
90.000000
 51
180.000000
  0
ARC
  8
1
 10
-595.015044
 20
-523.323879
 40
5.000000
 50
0.000000
 51
90.000000
  0
LINE
  8
1
 10
-751.657523
 20
-712.553852
 11
-751.657523
 21
-550.363480
  0
LINE
  8
1
 10
-751.657523
 20
-456.284278
 11
-751.657523
 21
-294.093906
  0
ARC
  8
1
 10
-721.657523
 20
-456.284278
 40
30.000000
 50
180.000000
 51
269.113921
  0
ARC
  8
1
 10
-721.657523
 20
-550.363480
 40
30.000000
 50
90.886079
 51
180.000000
  0
ARC
  8
1
 10
-810.597479
 20
-501.428207
 40
288.004328
 50
105.740430
 51
161.568335
  0
ARC
  8
1
 10
-811.270253
 20
-501.535952
 40
292.112072
 50
108.316591
 51
166.899116
  0
ARC
  8
1
 10
-811.270253
 20
-505.111807
 40
292.112072
 50
193.100884
 51
251.683409
  0
ARC
  8
1
 10
-810.597479
 20
-505.219551
 40
288.004328
 50
198.431665
 51
254.259570
  0
LINE
  8
1
 10
-885.460525
 20
-224.223879
 11
-885.460525
 21
-248.323879
  0
LINE
  8
1
 10
-735.734433
 20
-224.887908
 11
-735.734433
 21
-232.323879
  0
LINE
  8
1
 10
-885.460525
 20
-248.323879
 11
-804.998545
 21
-248.323879
  0
LINE
  8
1
 10
-885.460525
 20
-248.323879
 11
-868.165243
 21
-280.173394
  0
ARC
  8
1
 10
-809.911383
 20
-501.701958
 40
259.106079
 50
106.355995
 51
166.392562
  0
ARC
  8
1
 10
-804.998545
 20
-53.011503
 40
183.858159
 50
270.000000
 51
291.342519
  0
ARC
  8
1
 10
-804.998545
 20
8.875396
 40
245.745059
 50
251.539295
 51
270.000000
  0
ARC
  8
1
 10
-804.998545
 20
-326.887451
 40
78.563572
 50
90.000000
 51
143.515735
  0
ARC
  8
1
 10
-543.158993
 20
-465.966577
 40
3.000000
 50
4.989631
 51
100.020464
  0
ARC
  8
1
 10
-556.952428
 20
-468.403812
 40
3.000000
 50
100.020464
 51
184.989631
  0
ARC
  8
1
 10
-540.814181
 20
-492.823879
 40
3.000000
 50
270.000000
 51
4.989631
  0
ARC
  8
1
 10
-554.820403
 20
-492.823879
 40
3.000000
 50
184.989631
 51
270.000000
  0
ARC
  8
1
 10
-546.797703
 20
-445.285177
 40
3.000000
 50
280.020464
 51
14.970139
  0
ARC
  8
1
 10
-560.591872
 20
-447.722541
 40
3.000000
 50
194.970139
 51
280.020464
  0
ARC
  8
1
 10
-574.091572
 20
-404.310556
 40
3.000000
 50
204.954240
 51
290.038454
  0
ARC
  8
1
 10
-560.928014
 20
-399.509405
 40
3.000000
 50
290.038454
 51
24.954240
  0
ARC
  8
1
 10
-572.297193
 20
-375.077196
 40
3.000000
 50
24.954240
 51
120.051794
  0
ARC
  8
1
 10
-584.428794
 20
-382.096009
 40
3.000000
 50
120.051794
 51
204.954240
  0
ARC
  8
1
 10
-566.922961
 20
-424.045240
 40
3.000000
 50
110.038454
 51
194.970139
  0
ARC
  8
1
 10
-553.760719
 20
-419.244569
 40
3.000000
 50
14.970139
 51
110.038454
  0
ARC
  8
1
 10
-582.776054
 20
-356.887474
 40
3.000000
 50
300.051794
 51
34.943850
  0
ARC
  8
1
 10
-594.909289
 20
-363.907233
 40
3.000000
 50
214.943850
 51
300.051794
  0
ARC
  8
1
 10
-622.412328
 20
-327.740415
 40
3.000000
 50
224.940225
 51
310.058878
  0
ARC
  8
1
 10
-611.678207
 20
-318.714605
 40
3.000000
 50
310.058878
 51
44.940225
  0
ARC
  8
1
 10
-646.756405
 20
-286.150923
 40
3.000000
 50
320.058857
 51
54.943809
  0
ARC
  8
1
 10
-655.764782
 20
-296.909113
 40
3.000000
 50
234.943809
 51
320.058857
  0
ARC
  8
1
 10
-667.633140
 20
-268.686344
 40
3.000000
 50
114.362009
 51
150.051740
  0
ARC
  8
1
 10
-598.205302
 20
-334.806199
 40
3.000000
 50
34.943850
 51
130.058878
  0
ARC
  8
1
 10
-608.937779
 20
-343.830626
 40
3.000000
 50
130.058878
 51
214.943850
  0
ARC
  8
1
 10
-639.705066
 20
-310.411558
 40
3.000000
 50
140.058857
 51
224.940225
  0
ARC
  8
1
 10
-630.698069
 20
-299.655016
 40
3.000000
 50
44.940225
 51
140.058857
  0
ARC
  8
1
 10
-675.795771
 20
-282.853967
 40
3.000000
 50
150.051740
 51
234.943809
  0
ARC
  8
1
 10
-668.788498
 20
-270.691662
 40
3.000000
 50
54.943809
 51
150.051740
  0
ARC
  8
1
 10
-629.023688
 20
-297.655399
 40
3.000000
 50
114.782842
 51
140.058857
  0
ARC
  8
1
 10
-686.944777
 20
-260.186142
 40
3.000000
 50
330.051740
 51
64.954179
  0
ARC
  8
1
 10
-693.952995
 20
-272.350086
 40
3.000000
 50
244.954179
 51
330.051740
  0
ARC
  8
1
 10
-710.663003
 20
-246.988821
 40
3.000000
 50
111.399857
 51
160.038392
  0
ARC
  8
1
 10
-711.319494
 20
-248.796283
 40
3.000000
 50
64.954179
 51
160.038392
  0
ARC
  8
1
 10
-716.113398
 20
-261.994936
 40
3.000000
 50
160.038392
 51
244.954179
  0
ARC
  8
1
 10
-724.938950
 20
-242.436522
 40
3.000000
 50
93.436169
 51
160.038392
  0
ARC
  8
1
 10
-729.845046
 20
-258.873264
 40
4.000000
 50
160.038392
 51
187.331242
  0
ARC
  8
1
 10
-571.454024
 20
-500.484864
 40
3.000000
 50
96.737099
 51
180.669413
  0
ARC
  8
1
 10
-530.259891
 20
-500.301921
 40
3.000000
 50
0.603305
 51
78.953499
  0
ARC
  8
1
 10
-533.912644
 20
-457.581626
 40
3.000000
 50
285.013323
 51
9.170950
  0
ARC
  8
1
 10
-534.931517
 20
-451.664677
 40
3.000000
 50
10.369598
 51
83.169644
  0
ARC
  8
1
 10
-575.521307
 20
-458.960813
 40
3.000000
 50
109.908249
 51
190.519145
  0
ARC
  8
1
 10
-574.552636
 20
-464.538815
 40
3.000000
 50
189.184220
 51
276.471912
  0
ARC
  8
1
 10
-584.720119
 20
-424.084041
 40
3.000000
 50
199.032454
 51
289.785604
  0
ARC
  8
1
 10
-586.612100
 20
-418.802037
 40
3.000000
 50
123.107996
 51
200.381970
  0
ARC
  8
1
 10
-547.779609
 20
-404.629446
 40
3.000000
 50
20.247235
 51
87.351480
  0
ARC
  8
1
 10
-545.801992
 20
-410.169349
 40
3.000000
 50
288.452314
 51
19.043528
  0
ARC
  8
1
 10
-565.706719
 20
-365.562323
 40
3.000000
 50
291.357706
 51
29.051625
  0
ARC
  8
1
 10
-568.514515
 20
-360.626260
 40
3.000000
 50
30.213681
 51
91.282107
  0
ARC
  8
1
 10
-604.441101
 20
-381.235802
 40
3.000000
 50
136.194636
 51
210.396227
  0
ARC
  8
1
 10
-601.695228
 20
-386.043915
 40
3.000000
 50
209.064436
 51
303.180357
  0
ARC
  8
1
 10
-591.435443
 20
-325.514191
 40
2.000000
 50
293.585044
 51
38.784258
  0
ARC
  8
1
 10
-625.055942
 20
-353.110066
 40
2.000000
 50
218.805395
 51
316.443113
  0
ARC
  8
1
 10
-628.468618
 20
-347.415532
 40
3.000000
 50
148.995782
 51
220.387341
  0
ARC
  8
1
 10
-596.447794
 20
-320.999453
 40
3.000000
 50
40.146999
 51
94.866868
  0
ARC
  8
1
 10
-816.611795
 20
-503.323879
 40
266.000000
 50
358.815228
 51
1.184772
  0
ARC
  8
1
 10
-816.611795
 20
-503.323879
 40
266.000000
 50
8.557527
 51
10.925209
  0
ARC
  8
1
 10
-809.911383
 20
-501.701958
 40
259.106079
 50
18.422993
 51
20.838919
  0
ARC
  8
1
 10
-809.911383
 20
-501.701958
 40
259.106079
 50
28.638620
 51
30.808751
  0
ARC
  8
1
 10
-809.911383
 20
-501.701958
 40
259.106079
 50
38.840507
 51
40.757119
  0
ARC
  8
1
 10
-809.911383
 20
-501.701958
 40
259.106079
 50
49.021836
 51
50.669855
  0
ARC
  8
1
 10
-625.111371
 20
-290.341880
 40
2.000000
 50
294.782842
 51
48.725541
  0
ARC
  8
1
 10
-653.596301
 20
-323.340393
 40
2.000000
 50
228.779101
 51
329.507686
  0
ARC
  8
1
 10
-630.891972
 20
-288.011697
 40
4.000000
 50
49.933485
 51
97.937790
  0
ARC
  8
1
 10
-656.723617
 20
-318.036686
 40
4.000000
 50
161.531324
 51
230.179756
  0
ARC
  8
1
 10
-690.604414
 20
-294.428631
 40
4.000000
 50
174.045173
 51
240.082867
  0
ARC
  8
1
 10
-669.791382
 20
-260.597501
 40
4.000000
 50
59.718301
 51
100.170433
  0
ARC
  8
1
 10
-663.098508
 20
-261.693111
 40
1.500000
 50
294.362009
 51
58.429363
  0
ARC
  8
1
 10
-686.406509
 20
-299.826233
 40
1.500000
 50
238.550391
 51
342.516317
  0
ARC
  8
1
 10
-809.911383
 20
-501.701958
 40
259.106079
 50
59.177091
 51
60.512958
  0
ARC
  8
1
 10
-809.911383
 20
-501.701958
 40
259.106079
 50
69.302218
 51
70.184370
  0
ARC
  8
1
 10
-723.073253
 20
-281.019054
 40
2.000000
 50
248.526188
 51
356.075752
  0
ARC
  8
1
 10
-704.404252
 20
-240.239867
 40
1.000000
 50
291.399857
 51
67.904807
  0
ARC
  8
1
 10
-707.454852
 20
-243.323879
 40
5.000000
 50
68.248280
 51
90.000000
  0
ARC
  8
1
 10
-728.401225
 20
-277.932146
 40
3.000000
 50
187.331242
 51
249.990692
  0
LINE
  8
1
 10
-885.460525
 20
-782.423879
 11
-885.460525
 21
-758.323879
  0
LINE
  8
1
 10
-735.734433
 20
-781.759850
 11
-735.734433
 21
-774.323879
  0
LINE
  8
1
 10
-885.460525
 20
-758.323879
 11
-804.998545
 21
-758.323879
  0
LINE
  8
1
 10
-885.460525
 20
-758.323879
 11
-868.165243
 21
-726.474364
  0
ARC
  8
1
 10
-804.998545
 20
-953.636256
 40
183.858159
 50
68.657481
 51
90.000000
  0
ARC
  8
1
 10
-804.998545
 20
-1015.523155
 40
245.745059
 50
90.000000
 51
108.460705
  0
ARC
  8
1
 10
-804.998545
 20
-679.760307
 40
78.563572
 50
216.484265
 51
270.000000
  0
ARC
  8
1
 10
-543.158993
 20
-540.681181
 40
3.000000
 50
259.979536
 51
355.010369
  0
ARC
  8
1
 10
-556.952428
 20
-538.243947
 40
3.000000
 50
175.010369
 51
259.979536
  0
ARC
  8
1
 10
-540.814181
 20
-513.823879
 40
3.000000
 50
355.010369
 51
90.000000
  0
ARC
  8
1
 10
-554.820403
 20
-513.823879
 40
3.000000
 50
90.000000
 51
175.010369
  0
ARC
  8
1
 10
-546.797703
 20
-561.362582
 40
3.000000
 50
345.029861
 51
79.979536
  0
ARC
  8
1
 10
-560.591872
 20
-558.925217
 40
3.000000
 50
79.979536
 51
165.029861
  0
ARC
  8
1
 10
-574.091572
 20
-602.337203
 40
3.000000
 50
69.961546
 51
155.045760
  0
ARC
  8
1
 10
-560.928014
 20
-607.138354
 40
3.000000
 50
335.045760
 51
69.961546
  0
ARC
  8
1
 10
-572.297193
 20
-631.570562
 40
3.000000
 50
239.948206
 51
335.045760
  0
ARC
  8
1
 10
-584.428794
 20
-624.551749
 40
3.000000
 50
155.045760
 51
239.948206
  0
ARC
  8
1
 10
-566.922961
 20
-582.602519
 40
3.000000
 50
165.029861
 51
249.961546
  0
ARC
  8
1
 10
-553.760719
 20
-587.403190
 40
3.000000
 50
249.961546
 51
345.029861
  0
ARC
  8
1
 10
-582.776054
 20
-649.760284
 40
3.000000
 50
325.056150
 51
59.948206
  0
ARC
  8
1
 10
-594.909289
 20
-642.740526
 40
3.000000
 50
59.948206
 51
145.056150
  0
ARC
  8
1
 10
-622.412328
 20
-678.907344
 40
3.000000
 50
49.941122
 51
135.059775
  0
ARC
  8
1
 10
-611.678207
 20
-687.933154
 40
3.000000
 50
315.059775
 51
49.941122
  0
ARC
  8
1
 10
-646.756405
 20
-720.496836
 40
3.000000
 50
305.056191
 51
39.941143
  0
ARC
  8
1
 10
-655.764782
 20
-709.738646
 40
3.000000
 50
39.941143
 51
125.056191
  0
ARC
  8
1
 10
-667.633140
 20
-737.961414
 40
3.000000
 50
209.948260
 51
245.637991
  0
ARC
  8
1
 10
-598.205302
 20
-671.841560
 40
3.000000
 50
229.941122
 51
325.056150
  0
ARC
  8
1
 10
-608.937779
 20
-662.817132
 40
3.000000
 50
145.056150
 51
229.941122
  0
ARC
  8
1
 10
-639.705066
 20
-696.236201
 40
3.000000
 50
135.059775
 51
219.941143
  0
ARC
  8
1
 10
-630.698069
 20
-706.992742
 40
3.000000
 50
219.941143
 51
315.059775
  0
ARC
  8
1
 10
-675.795771
 20
-723.793792
 40
3.000000
 50
125.056191
 51
209.948260
  0
ARC
  8
1
 10
-668.788498
 20
-735.956096
 40
3.000000
 50
209.948260
 51
305.056191
  0
ARC
  8
1
 10
-629.023688
 20
-708.992360
 40
3.000000
 50
219.941143
 51
245.217158
  0
ARC
  8
1
 10
-686.944777
 20
-746.461617
 40
3.000000
 50
295.045821
 51
29.948260
  0
ARC
  8
1
 10
-693.952995
 20
-734.297673
 40
3.000000
 50
29.948260
 51
115.045821
  0
ARC
  8
1
 10
-710.663003
 20
-759.658938
 40
3.000000
 50
199.961608
 51
248.600143
  0
ARC
  8
1
 10
-711.319494
 20
-757.851475
 40
3.000000
 50
199.961608
 51
295.045821
  0
ARC
  8
1
 10
-716.113398
 20
-744.652823
 40
3.000000
 50
115.045821
 51
199.961608
  0
ARC
  8
1
 10
-724.938950
 20
-764.211237
 40
3.000000
 50
199.961608
 51
266.563831
  0
ARC
  8
1
 10
-729.845046
 20
-747.774495
 40
4.000000
 50
172.668758
 51
199.961608
  0
ARC
  8
1
 10
-571.454024
 20
-506.162895
 40
3.000000
 50
179.330587
 51
263.262901
  0
ARC
  8
1
 10
-530.259891
 20
-506.345837
 40
3.000000
 50
281.046501
 51
359.396695
  0
ARC
  8
1
 10
-533.912644
 20
-549.066132
 40
3.000000
 50
350.829050
 51
74.986677
  0
ARC
  8
1
 10
-534.931517
 20
-554.983082
 40
3.000000
 50
276.830356
 51
349.630402
  0
ARC
  8
1
 10
-575.521307
 20
-547.686946
 40
3.000000
 50
169.480855
 51
250.091751
  0
ARC
  8
1
 10
-574.552636
 20
-542.108943
 40
3.000000
 50
83.528088
 51
170.815780
  0
ARC
  8
1
 10
-584.720119
 20
-582.563718
 40
3.000000
 50
70.214396
 51
160.967546
  0
ARC
  8
1
 10
-586.612100
 20
-587.845722
 40
3.000000
 50
159.618030
 51
236.892004
  0
ARC
  8
1
 10
-547.779609
 20
-602.018312
 40
3.000000
 50
272.648520
 51
339.752765
  0
ARC
  8
1
 10
-545.801992
 20
-596.478410
 40
3.000000
 50
340.956472
 51
71.547686
  0
ARC
  8
1
 10
-565.706719
 20
-641.085436
 40
3.000000
 50
330.948375
 51
68.642294
  0
ARC
  8
1
 10
-568.514515
 20
-646.021498
 40
3.000000
 50
268.717893
 51
329.786319
  0
ARC
  8
1
 10
-604.441101
 20
-625.411956
 40
3.000000
 50
149.603773
 51
223.805364
  0
ARC
  8
1
 10
-601.695228
 20
-620.603844
 40
3.000000
 50
56.819643
 51
150.935564
  0
ARC
  8
1
 10
-591.435443
 20
-681.133567
 40
2.000000
 50
321.215742
 51
66.414956
  0
ARC
  8
1
 10
-625.055942
 20
-653.537692
 40
2.000000
 50
43.556887
 51
141.194605
  0
ARC
  8
1
 10
-628.468618
 20
-659.232227
 40
3.000000
 50
139.612659
 51
211.004218
  0
ARC
  8
1
 10
-596.447794
 20
-685.648305
 40
3.000000
 50
265.133132
 51
319.853001
  0
ARC
  8
1
 10
-816.611795
 20
-503.323879
 40
266.000000
 50
349.074791
 51
351.442473
  0
ARC
  8
1
 10
-809.911383
 20
-504.945800
 40
259.106079
 50
339.161081
 51
341.577007
  0
ARC
  8
1
 10
-809.911383
 20
-504.945800
 40
259.106079
 50
329.191249
 51
331.361380
  0
ARC
  8
1
 10
-809.911383
 20
-504.945800
 40
259.106079
 50
319.242881
 51
321.159493
  0
ARC
  8
1
 10
-809.911383
 20
-504.945800
 40
259.106079
 50
309.330145
 51
310.978164
  0
ARC
  8
1
 10
-625.111371
 20
-716.305879
 40
2.000000
 50
311.274459
 51
65.217158
  0
ARC
  8
1
 10
-653.596301
 20
-683.307365
 40
2.000000
 50
30.492314
 51
131.220899
  0
ARC
  8
1
 10
-630.891972
 20
-718.636061
 40
4.000000
 50
262.062210
 51
310.066515
  0
ARC
  8
1
 10
-656.723617
 20
-688.611072
 40
4.000000
 50
129.820244
 51
198.468676
  0
ARC
  8
1
 10
-690.604414
 20
-712.219127
 40
4.000000
 50
119.917133
 51
185.954827
  0
ARC
  8
1
 10
-669.791382
 20
-746.050258
 40
4.000000
 50
259.829567
 51
300.281699
  0
ARC
  8
1
 10
-663.098508
 20
-744.954648
 40
1.500000
 50
301.570637
 51
65.637991
  0
ARC
  8
1
 10
-686.406509
 20
-706.821526
 40
1.500000
 50
17.483683
 51
121.449609
  0
ARC
  8
1
 10
-809.911383
 20
-504.945800
 40
259.106079
 50
299.487042
 51
300.822909
  0
ARC
  8
1
 10
-809.911383
 20
-504.945800
 40
259.106079
 50
289.815630
 51
290.697782
  0
ARC
  8
1
 10
-723.073253
 20
-725.628705
 40
2.000000
 50
3.924248
 51
111.473812
  0
ARC
  8
1
 10
-704.404252
 20
-766.407891
 40
1.000000
 50
292.095193
 51
68.600143
  0
ARC
  8
1
 10
-707.454852
 20
-763.323879
 40
5.000000
 50
270.000000
 51
291.751720
  0
ARC
  8
1
 10
-728.401225
 20
-728.715613
 40
3.000000
 50
110.009308
 51
172.668758
  0
LINE
  8
1
 10
-797.179710
 20
-289.323879
 11
-797.179710
 21
-359.323879
  0
LINE
  8
1
 10
-833.104673
 20
-289.323879
 11
-833.104673
 21
-359.323879
  0
ARC
  8
1
 10
-815.142191
 20
-289.323879
 40
17.962481
 50
0.000000
 51
180.000000
  0
ARC
  8
1
 10
-815.142191
 20
-359.323879
 40
17.962481
 50
180.000000
 51
360.000000
  0
LINE
  8
1
 10
-797.001366
 20
-289.502224
 11
-797.001366
 21
-359.145535
  0
ARC
  8
1
 10
-815.142191
 20
-289.502224
 40
18.140826
 50
360.000000
 51
90.000000
  0
ARC
  8
1
 10
-815.142191
 20
-359.145535
 40
18.140826
 50
270.000000
 51
0.000000
  0
LINE
  8
1
 10
-797.179710
 20
-717.323879
 11
-797.179710
 21
-647.323879
  0
LINE
  8
1
 10
-833.104673
 20
-717.323879
 11
-833.104673
 21
-647.323879
  0
ARC
  8
1
 10
-815.142191
 20
-717.323879
 40
17.962481
 50
180.000000
 51
360.000000
  0
ARC
  8
1
 10
-815.142191
 20
-647.323879
 40
17.962481
 50
0.000000
 51
180.000000
  0
LINE
  8
1
 10
-797.001366
 20
-717.145535
 11
-797.001366
 21
-647.502224
  0
ARC
  8
1
 10
-815.142191
 20
-717.145535
 40
18.140826
 50
270.000000
 51
0.000000
  0
ARC
  8
1
 10
-815.142191
 20
-647.502224
 40
18.140826
 50
360.000000
 51
90.000000
  0
CIRCLE
  8
1
 10
-815.335788
 20
-289.323879
 40
11.406176
  0
CIRCLE
  8
1
 10
-815.335788
 20
-359.323879
 40
11.406176
  0
ARC
  8
1
 10
-817.243980
 20
-503.323879
 40
290.000000
 50
1.086709
 51
8.635525
  0
ARC
  8
1
 10
-817.243980
 20
-503.323879
 40
290.000000
 50
10.807107
 51
14.852995
  0
ARC
  8
1
 10
-814.437439
 20
-503.323879
 40
240.000000
 50
1.313143
 51
8.501326
  0
ARC
  8
1
 10
-814.437439
 20
-503.323879
 40
240.000000
 50
11.126121
 51
18.305853
  0
ARC
  8
1
 10
-810.477381
 20
-501.529369
 40
282.999490
 50
14.852995
 51
18.429874
  0
ARC
  8
1
 10
-809.911383
 20
-501.766316
 40
235.213437
 50
18.990009
 51
19.032454
  0
ARC
  8
1
 10
-810.477381
 20
-501.529369
 40
282.999490
 50
20.650647
 51
28.357227
  0
ARC
  8
1
 10
-810.477381
 20
-501.529369
 40
282.999490
 50
30.572566
 51
38.255311
  0
ARC
  8
1
 10
-809.911383
 20
-501.766316
 40
235.213437
 50
20.965449
 51
28.278775
  0
ARC
  8
1
 10
-809.911383
 20
-501.766316
 40
235.213437
 50
30.948178
 51
38.248150
  0
ARC
  8
1
 10
-810.477381
 20
-501.529369
 40
282.999490
 50
60.017599
 51
67.399617
  0
ARC
  8
1
 10
-810.477381
 20
-501.529369
 40
282.999490
 50
40.461909
 51
48.104188
  0
ARC
  8
1
 10
-810.477381
 20
-501.529369
 40
282.999490
 50
50.295114
 51
57.859306
  0
ARC
  8
1
 10
-809.911383
 20
-501.766316
 40
235.213437
 50
40.911572
 51
48.190364
  0
ARC
  8
1
 10
-809.911383
 20
-501.766316
 40
235.213437
 50
50.843537
 51
58.082525
  0
ARC
  8
1
 10
-809.911383
 20
-501.766316
 40
235.213437
 50
60.714547
 51
67.859913
  0
ARC
  8
1
 10
-817.243980
 20
-503.323879
 40
290.000000
 50
351.364475
 51
358.913291
  0
ARC
  8
1
 10
-817.243980
 20
-503.323879
 40
290.000000
 50
345.147005
 51
349.192893
  0
ARC
  8
1
 10
-814.437439
 20
-503.323879
 40
240.000000
 50
351.498674
 51
358.686857
  0
ARC
  8
1
 10
-814.437439
 20
-503.323879
 40
240.000000
 50
341.694147
 51
348.873879
  0
ARC
  8
1
 10
-810.477381
 20
-505.118389
 40
282.999490
 50
341.570126
 51
345.147005
  0
ARC
  8
1
 10
-809.911383
 20
-504.881443
 40
235.213437
 50
340.967546
 51
341.009991
  0
ARC
  8
1
 10
-810.477381
 20
-505.118389
 40
282.999490
 50
331.642773
 51
339.349353
  0
ARC
  8
1
 10
-810.477381
 20
-505.118389
 40
282.999490
 50
321.744689
 51
329.427434
  0
ARC
  8
1
 10
-809.911383
 20
-504.881443
 40
235.213437
 50
331.721225
 51
339.034551
  0
ARC
  8
1
 10
-809.911383
 20
-504.881443
 40
235.213437
 50
321.751850
 51
329.051822
  0
ARC
  8
1
 10
-810.477381
 20
-505.118389
 40
282.999490
 50
292.600383
 51
299.982401
  0
ARC
  8
1
 10
-810.477381
 20
-505.118389
 40
282.999490
 50
311.895812
 51
319.538091
  0
ARC
  8
1
 10
-810.477381
 20
-505.118389
 40
282.999490
 50
302.140694
 51
309.704886
  0
ARC
  8
1
 10
-809.911383
 20
-504.881443
 40
235.213437
 50
311.809636
 51
319.088428
  0
ARC
  8
1
 10
-809.911383
 20
-504.881443
 40
235.213437
 50
301.917475
 51
309.156463
  0
ARC
  8
1
 10
-809.911383
 20
-504.881443
 40
235.213437
 50
292.140087
 51
299.285453
  0
LINE
  8
1
 10
-571.405080
 20
-497.823879
 11
-530.819615
 21
-497.823879
  0
LINE
  8
1
 10
-540.170362
 20
-465.705651
 11
-537.825550
 21
-492.562953
  0
LINE
  8
1
 10
-533.903137
 20
-460.685098
 11
-530.719028
 21
-497.155654
  0
LINE
  8
1
 10
-540.814181
 20
-495.823879
 11
-554.820403
 21
-495.823879
  0
LINE
  8
1
 10
-557.809034
 20
-493.084806
 11
-559.941060
 21
-468.664738
  0
LINE
  8
1
 10
-557.474428
 20
-465.449575
 11
-543.680993
 21
-463.012340
  0
LINE
  8
1
 10
-560.180026
 20
-465.927641
 11
-574.214488
 21
-467.519697
  0
LINE
  8
1
 10
-557.569896
 20
-495.823879
 11
-571.805966
 21
-497.505579
  0
LINE
  8
1
 10
-573.927325
 20
-467.294861
 11
-553.573184
 21
-463.742456
  0
LINE
  8
1
 10
-553.573184
 20
-463.742456
 11
-534.297383
 21
-460.428316
  0
LINE
  8
1
 10
-533.135513
 20
-460.479223
 11
-540.455267
 21
-462.442369
  0
LINE
  8
1
 10
-529.685074
 20
-497.357505
 11
-537.540851
 21
-495.823879
  0
LINE
  8
1
 10
-571.405080
 20
-508.823879
 11
-530.819615
 21
-508.823879
  0
LINE
  8
1
 10
-540.170362
 20
-540.942108
 11
-537.825550
 21
-514.084806
  0
LINE
  8
1
 10
-533.903137
 20
-545.962660
 11
-530.719028
 21
-509.492105
  0
LINE
  8
1
 10
-540.814181
 20
-510.823879
 11
-554.820403
 21
-510.823879
  0
LINE
  8
1
 10
-557.809034
 20
-513.562953
 11
-559.941060
 21
-537.983020
  0
LINE
  8
1
 10
-557.474428
 20
-541.198184
 11
-543.680993
 21
-543.635418
  0
LINE
  8
1
 10
-560.180026
 20
-540.720117
 11
-574.214488
 21
-539.128061
  0
LINE
  8
1
 10
-557.569896
 20
-510.823879
 11
-571.805966
 21
-509.142179
  0
LINE
  8
1
 10
-573.927325
 20
-539.352897
 11
-553.573184
 21
-542.905302
  0
LINE
  8
1
 10
-553.573184
 20
-542.905302
 11
-534.297383
 21
-546.219442
  0
LINE
  8
1
 10
-533.135513
 20
-546.168536
 11
-540.455267
 21
-544.205389
  0
LINE
  8
1
 10
-529.685074
 20
-509.290253
 11
-537.540851
 21
-510.823879
  0
LINE
  8
1
 10
-550.862537
 20
-418.469622
 11
-543.899521
 21
-444.510230
  0
LINE
  8
1
 10
-545.443600
 20
-413.212361
 11
-536.004067
 21
-448.514762
  0
LINE
  8
1
 10
-569.821143
 20
-424.820186
 11
-563.490053
 21
-448.497488
  0
LINE
  8
1
 10
-560.069872
 20
-450.676778
 11
-546.275703
 21
-448.239414
  0
LINE
  8
1
 10
-570.530402
 20
-422.167669
 11
-551.709256
 21
-415.303024
  0
LINE
  8
1
 10
-551.709256
 20
-415.303024
 11
-544.852447
 21
-413.015111
  0
LINE
  8
1
 10
-543.054560
 20
-447.670253
 11
-534.574727
 21
-448.685969
  0
LINE
  8
1
 10
-570.530402
 20
-422.167669
 11
-583.704614
 21
-426.906938
  0
LINE
  8
1
 10
-576.542852
 20
-456.140096
 11
-562.779319
 21
-451.155525
  0
LINE
  8
1
 10
-534.609286
 20
-449.329912
 11
-555.432934
 21
-452.909571
  0
LINE
  8
1
 10
-555.432934
 20
-452.909571
 11
-575.948150
 21
-456.487943
  0
LINE
  8
1
 10
-550.862537
 20
-588.178137
 11
-543.899521
 21
-562.137528
  0
LINE
  8
1
 10
-545.443600
 20
-593.435397
 11
-536.004067
 21
-558.132996
  0
LINE
  8
1
 10
-569.821143
 20
-581.827572
 11
-563.490053
 21
-558.150270
  0
LINE
  8
1
 10
-560.069872
 20
-555.970980
 11
-546.275703
 21
-558.408345
  0
LINE
  8
1
 10
-570.530402
 20
-584.480090
 11
-551.709256
 21
-591.344735
  0
LINE
  8
1
 10
-551.709256
 20
-591.344735
 11
-544.852447
 21
-593.632647
  0
LINE
  8
1
 10
-543.054560
 20
-558.977505
 11
-534.574727
 21
-557.961790
  0
LINE
  8
1
 10
-570.530402
 20
-584.480090
 11
-583.704614
 21
-579.740820
  0
LINE
  8
1
 10
-576.542852
 20
-550.507663
 11
-562.779319
 21
-555.492234
  0
LINE
  8
1
 10
-534.609286
 20
-557.317847
 11
-555.432934
 21
-553.738187
  0
LINE
  8
1
 10
-555.432934
 20
-553.738187
 11
-575.948150
 21
-550.159815
  0
LINE
  8
1
 10
-569.577258
 20
-373.811513
 11
-558.208079
 21
-398.243722
  0
LINE
  8
1
 10
-564.614151
 20
-368.356297
 11
-570.960871
 21
-370.838147
  0
LINE
  8
1
 10
-556.828865
 20
-401.207634
 11
-547.640982
 21
-401.632651
  0
LINE
  8
1
 10
-565.611335
 20
-368.746241
 11
-549.505882
 21
-401.546383
  0
LINE
  8
1
 10
-587.148729
 20
-383.361692
 11
-576.811507
 21
-405.576239
  0
LINE
  8
1
 10
-573.063620
 20
-407.128944
 11
-559.900062
 21
-402.327793
  0
LINE
  8
1
 10
-588.306533
 20
-380.873587
 11
-570.960871
 21
-370.838147
  0
LINE
  8
1
 10
-588.306533
 20
-380.873587
 11
-600.053399
 21
-388.554770
  0
LINE
  8
1
 10
-547.547384
 20
-402.390401
 11
-567.754923
 21
-409.527076
  0
LINE
  8
1
 10
-575.650010
 20
-408.072280
 11
-588.250757
 21
-416.289109
  0
LINE
  8
1
 10
-588.074710
 20
-416.818116
 11
-567.754923
 21
-409.527076
  0
LINE
  8
1
 10
-569.577258
 20
-632.836245
 11
-558.208079
 21
-608.404036
  0
LINE
  8
1
 10
-564.614151
 20
-638.291461
 11
-570.960871
 21
-635.809612
  0
LINE
  8
1
 10
-556.828865
 20
-605.440124
 11
-547.640982
 21
-605.015108
  0
LINE
  8
1
 10
-565.611335
 20
-637.901518
 11
-549.505882
 21
-605.101375
  0
LINE
  8
1
 10
-587.148729
 20
-623.286067
 11
-576.811507
 21
-601.071520
  0
LINE
  8
1
 10
-573.063620
 20
-599.518814
 11
-559.900062
 21
-604.319965
  0
LINE
  8
1
 10
-588.306533
 20
-625.774171
 11
-570.960871
 21
-635.809612
  0
LINE
  8
1
 10
-588.306533
 20
-625.774171
 11
-600.053399
 21
-618.092988
  0
LINE
  8
1
 10
-547.547384
 20
-604.257357
 11
-567.754923
 21
-597.120682
  0
LINE
  8
1
 10
-575.650010
 20
-598.575479
 11
-588.250757
 21
-590.358649
  0
LINE
  8
1
 10
-588.074710
 20
-589.829642
 11
-567.754923
 21
-597.120682
  0
LINE
  8
1
 10
-595.746161
 20
-333.087878
 11
-580.316913
 21
-355.169154
  0
LINE
  8
1
 10
-590.635223
 20
-327.347126
 11
-597.625162
 21
-330.398782
  0
LINE
  8
1
 10
-568.581640
 20
-357.627011
 11
-578.445238
 21
-357.847766
  0
LINE
  8
1
 10
-592.958150
 20
-328.361266
 11
-571.099871
 21
-357.683371
  0
LINE
  8
1
 10
-611.396920
 20
-345.548946
 11
-597.368431
 21
-365.625553
  0
LINE
  8
1
 10
-581.273706
 20
-359.484194
 11
-593.406941
 21
-366.503952
  0
LINE
  8
1
 10
-612.968300
 20
-343.300095
 11
-597.625162
 21
-330.398782
  0
LINE
  8
1
 10
-612.968300
 20
-343.300095
 11
-623.606561
 21
-354.488215
  0
LINE
  8
1
 10
-595.790900
 20
-367.883206
 11
-606.606187
 21
-379.159170
  0
LINE
  8
1
 10
-606.533533
 20
-379.868011
 11
-587.369917
 21
-368.994550
  0
LINE
  8
1
 10
-587.369917
 20
-368.994550
 11
-568.010052
 21
-358.248730
  0
LINE
  8
1
 10
-595.746161
 20
-673.559880
 11
-580.316913
 21
-651.478604
  0
LINE
  8
1
 10
-590.635223
 20
-679.300633
 11
-597.625162
 21
-676.248976
  0
LINE
  8
1
 10
-568.581640
 20
-649.020747
 11
-578.445238
 21
-648.799993
  0
LINE
  8
1
 10
-592.958150
 20
-678.286493
 11
-571.099871
 21
-648.964387
  0
LINE
  8
1
 10
-611.396920
 20
-661.098812
 11
-597.368431
 21
-641.022206
  0
LINE
  8
1
 10
-581.273706
 20
-647.163565
 11
-593.406941
 21
-640.143806
  0
LINE
  8
1
 10
-612.968300
 20
-663.347663
 11
-597.625162
 21
-676.248976
  0
LINE
  8
1
 10
-612.968300
 20
-663.347663
 11
-623.606561
 21
-652.159543
  0
LINE
  8
1
 10
-595.790900
 20
-638.764552
 11
-606.606187
 21
-627.488588
  0
LINE
  8
1
 10
-606.533533
 20
-626.779747
 11
-587.369917
 21
-637.653209
  0
LINE
  8
1
 10
-587.369917
 20
-637.653209
 11
-568.010052
 21
-648.399029
  0
LINE
  8
1
 10
-628.574536
 20
-297.535910
 11
-609.554675
 21
-316.595499
  0
LINE
  8
1
 10
-624.273010
 20
-292.157686
 11
-630.281228
 21
-294.931689
  0
LINE
  8
1
 10
-596.702316
 20
-318.010270
 11
-607.246879
 21
-318.908116
  0
LINE
  8
1
 10
-626.961030
 20
-293.398749
 11
-600.014076
 21
-318.292259
  0
LINE
  8
1
 10
-641.828598
 20
-312.530664
 11
-624.535861
 21
-329.859521
  0
LINE
  8
1
 10
-620.481605
 20
-330.036565
 11
-609.747484
 21
-321.010755
  0
LINE
  8
1
 10
-643.766369
 20
-310.588845
 11
-630.891947
 21
-295.213659
  0
LINE
  8
1
 10
-643.766369
 20
-310.588845
 11
-651.872907
 21
-324.355239
  0
LINE
  8
1
 10
-622.590017
 20
-331.809429
 11
-631.040007
 21
-345.870228
  0
LINE
  8
1
 10
-630.634353
 20
-346.478952
 11
-613.642705
 21
-332.543552
  0
LINE
  8
1
 10
-613.642705
 20
-332.543552
 11
-596.360771
 21
-318.831175
  0
LINE
  8
1
 10
-628.574536
 20
-709.111848
 11
-609.554675
 21
-690.052260
  0
LINE
  8
1
 10
-624.273010
 20
-714.490073
 11
-630.281228
 21
-711.716069
  0
LINE
  8
1
 10
-596.702316
 20
-688.637489
 11
-607.246879
 21
-687.739643
  0
LINE
  8
1
 10
-626.961030
 20
-713.249010
 11
-600.014076
 21
-688.355500
  0
LINE
  8
1
 10
-641.828598
 20
-694.117095
 11
-624.535861
 21
-676.788237
  0
LINE
  8
1
 10
-620.481605
 20
-676.611193
 11
-609.747484
 21
-685.637003
  0
LINE
  8
1
 10
-643.766369
 20
-696.058913
 11
-630.891947
 21
-711.434099
  0
LINE
  8
1
 10
-643.766369
 20
-696.058913
 11
-651.872907
 21
-682.292520
  0
LINE
  8
1
 10
-622.590017
 20
-674.838330
 11
-631.040007
 21
-660.777530
  0
LINE
  8
1
 10
-630.634353
 20
-660.168806
 11
-613.642705
 21
-674.104206
  0
LINE
  8
1
 10
-613.642705
 20
-674.104206
 11
-596.360771
 21
-687.816583
  0
LINE
  8
1
 10
-667.065359
 20
-268.235895
 11
-645.033267
 21
-283.695155
  0
LINE
  8
1
 10
-662.479758
 20
-263.059547
 11
-668.870642
 21
-265.953472
  0
LINE
  8
1
 10
-631.444363
 20
-284.050023
 11
-642.358663
 21
-285.571845
  0
LINE
  8
1
 10
-666.586814
 20
-264.919308
 11
-635.369955
 21
-284.597383
  0
LINE
  8
1
 10
-677.518910
 20
-285.309734
 11
-657.487921
 21
-299.364880
  0
LINE
  8
1
 10
-653.464669
 20
-298.835114
 11
-644.456292
 21
-288.076924
  0
LINE
  8
1
 10
-670.232570
 20
-267.188691
 11
-679.764955
 21
-283.733752
  0
LINE
  8
1
 10
-679.764955
 20
-283.733752
 11
-684.975805
 21
-300.276884
  0
LINE
  8
1
 10
-655.233084
 20
-300.947031
 11
-660.517605
 21
-316.769542
  0
LINE
  8
1
 10
-660.224795
 20
-318.034854
 11
-645.693079
 21
-301.281628
  0
LINE
  8
1
 10
-645.693079
 20
-301.281628
 11
-630.327892
 21
-284.503988
  0
LINE
  8
1
 10
-667.065359
 20
-738.411864
 11
-645.033267
 21
-722.952603
  0
LINE
  8
1
 10
-662.479758
 20
-743.588212
 11
-668.870642
 21
-740.694286
  0
LINE
  8
1
 10
-631.444363
 20
-722.597736
 11
-642.358663
 21
-721.075914
  0
LINE
  8
1
 10
-666.586814
 20
-741.728451
 11
-635.369955
 21
-722.050375
  0
LINE
  8
1
 10
-677.518910
 20
-721.338024
 11
-657.487921
 21
-707.282878
  0
LINE
  8
1
 10
-653.464669
 20
-707.812645
 11
-644.456292
 21
-718.570835
  0
LINE
  8
1
 10
-670.232570
 20
-739.459067
 11
-679.764955
 21
-722.914007
  0
LINE
  8
1
 10
-679.764955
 20
-722.914007
 11
-684.975805
 21
-706.370874
  0
LINE
  8
1
 10
-655.233084
 20
-705.700727
 11
-660.517605
 21
-689.878217
  0
LINE
  8
1
 10
-660.224795
 20
-688.612905
 11
-645.693079
 21
-705.366130
  0
LINE
  8
1
 10
-645.693079
 20
-705.366130
 11
-630.327892
 21
-722.143770
  0
LINE
  8
1
 10
-710.049466
 20
-246.078375
 11
-685.674748
 21
-257.468233
  0
LINE
  8
1
 10
-704.039378
 20
-241.170924
 11
-711.757626
 21
-244.195651
  0
LINE
  8
1
 10
-670.497689
 20
-256.660353
 11
-682.713736
 21
-258.851860
  0
LINE
  8
1
 10
-676.093237
 20
-257.664171
 11
-710.631492
 21
-243.754327
  0
LINE
  8
1
 10
-717.383427
 20
-264.712844
 11
-695.223023
 21
-275.067994
  0
LINE
  8
1
 10
-684.345347
 20
-261.683795
 11
-691.353565
 21
-273.847739
  0
LINE
  8
1
 10
-719.870259
 20
-263.550793
 11
-713.482768
 21
-245.964649
  0
LINE
  8
1
 10
-719.870259
 20
-263.550793
 11
-721.077942
 21
-281.155929
  0
LINE
  8
1
 10
-692.728259
 20
-276.233752
 11
-694.582830
 21
-294.013654
  0
LINE
  8
1
 10
-669.765082
 20
-257.457546
 11
-682.372452
 21
-276.158656
  0
LINE
  8
1
 10
-682.372452
 20
-276.158656
 11
-693.924836
 21
-295.091672
  0
LINE
  8
1
 10
-710.049466
 20
-760.569384
 11
-685.674748
 21
-749.179525
  0
LINE
  8
1
 10
-704.039378
 20
-765.476834
 11
-711.757626
 21
-762.452108
  0
LINE
  8
1
 10
-670.497689
 20
-749.987405
 11
-682.713736
 21
-747.795899
  0
LINE
  8
1
 10
-676.093237
 20
-748.983588
 11
-710.631492
 21
-762.893432
  0
LINE
  8
1
 10
-717.383427
 20
-741.934914
 11
-695.223023
 21
-731.579764
  0
LINE
  8
1
 10
-684.345347
 20
-744.963963
 11
-691.353565
 21
-732.800020
  0
LINE
  8
1
 10
-719.870259
 20
-743.096965
 11
-713.482768
 21
-760.683109
  0
LINE
  8
1
 10
-719.870259
 20
-743.096965
 11
-721.077942
 21
-725.491830
  0
LINE
  8
1
 10
-692.728259
 20
-730.414007
 11
-694.582830
 21
-712.634104
  0
LINE
  8
1
 10
-669.765082
 20
-749.190213
 11
-682.372452
 21
-730.489103
  0
LINE
  8
1
 10
-682.372452
 20
-730.489103
 11
-693.924836
 21
-711.556087
  0
LINE
  8
1
 10
-727.758714
 20
-241.412351
 11
-733.604732
 21
-257.507702
  0
LINE
  8
1
 10
-733.812346
 20
-259.383685
 11
-731.376700
 21
-278.314962
  0
LINE
  8
1
 10
-707.379696
 20
-238.376783
 11
-725.118759
 21
-239.441915
  0
LINE
  8
1
 10
-722.075827
 20
-257.937984
 11
-730.573516
 21
-278.740788
  0
LINE
  8
1
 10
-722.075827
 20
-257.937984
 11
-714.254720
 21
-248.090001
  0
LINE
  8
1
 10
-710.892693
 20
-243.856690
 11
-706.940924
 21
-238.880801
  0
LINE
  8
1
 10
-707.454852
 20
-238.323879
 11
-729.734433
 21
-238.323879
  0
LINE
  8
1
 10
-727.085931
 20
-239.560033
 11
-792.119366
 21
-239.560033
  0
LINE
  8
1
 10
-733.936268
 20
-258.420491
 11
-789.077598
 21
-258.420491
  0
LINE
  8
1
 10
-795.077598
 20
-239.560033
 11
-795.077598
 21
-258.420491
  0
ARC
  8
1
 10
-789.077598
 20
-264.420491
 40
6.000000
 50
90.000000
 51
180.000000
  0
LINE
  8
1
 10
-751.657523
 20
-273.880712
 11
-789.052989
 21
-260.565623
  0
ARC
  8
1
 10
-736.657523
 20
-294.093906
 40
15.000000
 50
70.570340
 51
180.000000
  0
ARC
  8
1
 10
-792.119366
 20
-236.601801
 40
2.958232
 50
180.000000
 51
270.000000
  0
ARC
  8
1
 10
-729.734433
 20
-232.323879
 40
6.000000
 50
180.000000
 51
270.000000
  0
LINE
  8
1
 10
-735.734433
 20
-238.323879
 11
-788.776768
 21
-239.428783
  0
LINE
  8
1
 10
-727.758714
 20
-765.235408
 11
-733.604732
 21
-749.140057
  0
LINE
  8
1
 10
-733.812346
 20
-747.264073
 11
-731.376700
 21
-728.332796
  0
LINE
  8
1
 10
-707.379696
 20
-768.270976
 11
-725.118759
 21
-767.205843
  0
LINE
  8
1
 10
-722.075827
 20
-748.709775
 11
-730.573516
 21
-727.906970
  0
LINE
  8
1
 10
-722.075827
 20
-748.709775
 11
-714.254720
 21
-758.557757
  0
LINE
  8
1
 10
-710.892693
 20
-762.791069
 11
-706.940924
 21
-767.766957
  0
LINE
  8
1
 10
-707.454852
 20
-768.323879
 11
-729.734433
 21
-768.323879
  0
LINE
  8
1
 10
-727.085931
 20
-767.087725
 11
-792.119366
 21
-767.087725
  0
LINE
  8
1
 10
-733.936268
 20
-748.227267
 11
-789.077598
 21
-748.227267
  0
LINE
  8
1
 10
-795.077598
 20
-767.087725
 11
-795.077598
 21
-748.227267
  0
ARC
  8
1
 10
-789.077598
 20
-742.227267
 40
6.000000
 50
180.000000
 51
270.000000
  0
LINE
  8
1
 10
-751.657523
 20
-732.767047
 11
-789.052989
 21
-746.082135
  0
ARC
  8
1
 10
-736.657523
 20
-712.553852
 40
15.000000
 50
180.000000
 51
289.429660
  0
ARC
  8
1
 10
-792.119366
 20
-770.045957
 40
2.958232
 50
90.000000
 51
180.000000
  0
ARC
  8
1
 10
-729.734433
 20
-774.323879
 40
6.000000
 50
90.000000
 51
180.000000
  0
LINE
  8
1
 10
-735.734433
 20
-768.323879
 11
-788.776768
 21
-767.218976
  0
LINE
  8
1
  6
CENTER
 62
2
 10
-788.066762
 20
-289.323879
 11
-844.986378
 21
-289.323879
  0
LINE
  8
1
  6
CENTER
 62
2
 10
-788.066762
 20
-359.323879
 11
-844.986378
 21
-359.323879
  0
LINE
  8
1
  6
CENTER
 62
2
 10
-815.335788
 20
-263.939510
 11
-815.335788
 21
-312.879883
  0
LINE
  8
1
  6
CENTER
 62
2
 10
-815.335788
 20
-333.939510
 11
-815.335788
 21
-382.879883
  0
LINE
  8
1
 10
-1131.770253
 20
672.576121
 11
-934.050545
 21
672.576121
  0
LINE
  8
1
  6
DASHED
 10
-934.050545
 20
672.576121
 11
-914.512686
 21
672.576121
  0
LINE
  8
1
 10
-1224.270253
 20
670.076121
 11
-935.623580
 21
670.076121
  0
LINE
  8
1
  6
DASHED
 10
-935.623580
 20
670.076121
 11
-916.378530
 21
670.076121
  0
LINE
  8
1
 10
-1214.270253
 20
638.576121
 11
-950.162297
 21
638.576121
  0
LINE
  8
1
  6
DASHED
 10
-950.162297
 20
638.576121
 11
-946.270253
 21
638.576121
  0
LINE
  8
1
 10
-978.270253
 20
607.576121
 11
-956.597470
 21
607.576121
  0
LINE
  8
1
  6
DASHED
 10
-956.597470
 20
607.576121
 11
-944.926529
 21
607.576121
  0
LINE
  8
1
 10
-978.270253
 20
579.576121
 11
-956.597470
 21
579.576121
  0
LINE
  8
1
  6
DASHED
 10
-956.597470
 20
579.576121
 11
-944.926529
 21
579.576121
  0
LINE
  8
1
 10
-1214.270253
 20
548.576121
 11
-950.162297
 21
548.576121
  0
LINE
  8
1
  6
DASHED
 10
-950.162297
 20
548.576121
 11
-946.270253
 21
548.576121
  0
LINE
  8
1
 10
-1224.270253
 20
517.076121
 11
-935.623580
 21
517.076121
  0
LINE
  8
1
  6
DASHED
 10
-935.623580
 20
517.076121
 11
-916.378530
 21
517.076121
  0
LINE
  8
1
 10
-1131.770253
 20
514.576121
 11
-934.050545
 21
514.576121
  0
LINE
  8
1
  6
DASHED
 10
-934.050545
 20
514.576121
 11
-914.512686
 21
514.576121
  0
LINE
  8
1
  6
DASHED
 10
-708.027820
 20
672.576121
 11
-688.489961
 21
672.576121
  0
LINE
  8
1
 10
-688.489961
 20
672.576121
 11
-490.770253
 21
672.576121
  0
LINE
  8
1
  6
DASHED
 10
-706.161975
 20
670.076121
 11
-686.916926
 21
670.076121
  0
LINE
  8
1
  6
DASHED
 10
-676.270253
 20
638.576121
 11
-672.378209
 21
638.576121
  0
LINE
  8
1
 10
-644.270253
 20
607.576121
 11
-664.270253
 21
607.576121
  0
LINE
  8
1
  6
DASHED
 10
-664.270253
 20
607.576121
 11
-677.613977
 21
607.576121
  0
LINE
  8
1
 10
-644.270253
 20
579.576121
 11
-664.270253
 21
579.576121
  0
LINE
  8
1
  6
DASHED
 10
-664.270253
 20
579.576121
 11
-677.613977
 21
579.576121
  0
LINE
  8
1
  6
DASHED
 10
-676.270253
 20
548.576121
 11
-672.378209
 21
548.576121
  0
LINE
  8
1
  6
DASHED
 10
-706.161975
 20
517.076121
 11
-686.916926
 21
517.076121
  0
LINE
  8
1
  6
DASHED
 10
-708.027820
 20
514.576121
 11
-688.489961
 21
514.576121
  0
LINE
  8
1
 10
-688.489961
 20
514.576121
 11
-490.770253
 21
514.576121
  0
LINE
  8
1
 10
-411.270253
 20
670.076121
 11
-398.270253
 21
670.076121
  0
LINE
  8
1
 10
-411.270253
 20
638.576121
 11
-408.270253
 21
638.576121
  0
LINE
  8
1
 10
-411.270253
 20
548.576121
 11
-408.270253
 21
548.576121
  0
LINE
  8
1
 10
-411.270253
 20
517.076121
 11
-398.270253
 21
517.076121
  0
LINE
  8
1
 10
-672.378209
 20
548.576121
 11
-441.270253
 21
548.576121
  0
LINE
  8
1
  6
DASHED
 10
-441.270253
 20
548.576121
 11
-411.270253
 21
548.576121
  0
LINE
  8
1
 10
-686.916926
 20
517.076121
 11
-441.270253
 21
517.076121
  0
LINE
  8
1
  6
DASHED
 10
-441.270253
 20
517.076121
 11
-411.270253
 21
517.076121
  0
LINE
  8
1
 10
-672.378209
 20
638.576121
 11
-462.772412
 21
638.576121
  0
LINE
  8
1
  6
DASHED
 10
-462.772412
 20
638.576121
 11
-411.270253
 21
638.576121
  0
LINE
  8
1
 10
-686.916926
 20
670.076121
 11
-473.097806
 21
670.076121
  0
LINE
  8
1
  6
DASHED
 10
-473.097806
 20
670.076121
 11
-411.270253
 21
670.076121
  0
LINE
  8
2
  6
CENTER
 62
2
 10
-811.270253
 20
809.660824
 11
-811.270253
 21
391.532633
  0
LINE
  8
2
 10
-941.270253
 20
26.676121
 11
-681.270253
 21
26.676121
  0
LINE
  8
2
 10
171.629747
 20
26.676121
 11
431.629747
 21
26.676121
  0
LINE
  8
2
  6
CENTER
 62
2
 10
-980.441653
 20
733.576121
 11
-381.273012
 21
733.576121
  0
CIRCLE
  8
2
 10
-811.270253
 20
593.576121
 40
146.000000
  0
LINE
  8
2
 10
-716.270253
 20
481.339763
 11
-716.270253
 21
446.576121
  0
LINE
  8
2
 10
-906.270253
 20
481.339763
 11
-906.270253
 21
446.576121
  0
LINE
  8
2
 10
-906.270253
 20
446.576121
 11
-716.270253
 21
446.576121
  0
ARC
  8
2
 10
-713.270253
 20
481.339763
 40
3.000000
 50
131.126075
 51
180.000000
  0
ARC
  8
2
 10
-909.270253
 20
481.339763
 40
3.000000
 50
0.000000
 51
48.873925
  0
LINE
  8
2
 10
-665.970563
 20
623.576121
 11
-664.270253
 21
623.576121
  0
LINE
  8
2
 10
-665.970563
 20
563.576121
 11
-664.270253
 21
563.576121
  0
LINE
  8
2
 10
-664.270253
 20
623.576121
 11
-664.270253
 21
563.576121
  0
ARC
  8
2
 10
-665.970563
 20
626.576121
 40
3.000000
 50
192.795770
 51
270.000000
  0
ARC
  8
2
 10
-665.970563
 20
560.576121
 40
3.000000
 50
90.000000
 51
167.204230
  0
LINE
  8
2
  6
CENTER
 62
2
 10
-741.270253
 20
458.899281
 11
-741.270253
 21
382.980106
  0
LINE
  8
2
  6
CENTER
 62
2
 10
-881.270253
 20
458.899281
 11
-881.270253
 21
382.980106
  0
LINE
  8
2
 10
-686.270253
 20
781.076121
 11
-686.270253
 21
686.076121
  0
LINE
  8
2
 10
-936.270253
 20
781.076121
 11
-936.270253
 21
686.076121
  0
LINE
  8
2
 10
-711.270253
 20
775.662869
 11
-711.270253
 21
705.204312
  0
LINE
  8
2
 10
-911.270253
 20
775.662869
 11
-911.270253
 21
705.204312
  0
LINE
  8
2
 10
-901.270253
 20
770.507443
 11
-901.270253
 21
714.083218
  0
LINE
  8
2
 10
-721.270253
 20
770.507443
 11
-721.270253
 21
714.083218
  0
LINE
  8
2
 10
-900.089913
 20
776.076121
 11
-722.450593
 21
776.076121
  0
LINE
  8
2
 10
-712.325981
 20
780.548257
 11
-720.214525
 21
776.603985
  0
LINE
  8
2
 10
-902.325981
 20
776.603985
 11
-910.214525
 21
780.548257
  0
LINE
  8
2
 10
-946.770253
 20
781.076121
 11
-912.450593
 21
781.076121
  0
LINE
  8
2
 10
-710.089913
 20
781.076121
 11
-668.770253
 21
781.076121
  0
LINE
  8
2
 10
-946.770253
 20
686.076121
 11
-934.334261
 21
686.076121
  0
LINE
  8
2
 10
-688.206245
 20
686.076121
 11
-636.770253
 21
686.076121
  0
ARC
  8
2
 10
-710.089913
 20
776.076121
 40
5.000000
 50
90.000000
 51
116.565051
  0
ARC
  8
2
 10
-722.450593
 20
781.076121
 40
5.000000
 50
270.000000
 51
296.565051
  0
ARC
  8
2
 10
-900.089913
 20
781.076121
 40
5.000000
 50
243.434949
 51
270.000000
  0
ARC
  8
2
 10
-912.450593
 20
776.076121
 40
5.000000
 50
63.434949
 51
90.000000
  0
ARC
  8
2
 10
-688.206245
 20
681.076121
 40
5.000000
 50
90.000000
 51
215.413288
  0
ARC
  8
2
 10
-934.334261
 20
681.076121
 40
5.000000
 50
324.586712
 51
90.000000
  0
LINE
  8
2
 10
-685.770253
 20
781.076121
 11
-685.770253
 21
686.076121
  0
LINE
  8
2
 10
-668.770253
 20
793.076121
 11
-668.770253
 21
686.076121
  0
LINE
  8
2
 10
-936.770253
 20
781.076121
 11
-936.770253
 21
686.076121
  0
LINE
  8
2
 10
-946.770253
 20
781.076121
 11
-946.770253
 21
686.076121
  0
LINE
  8
2
  6
CENTER
 62
2
 10
-617.672671
 20
760.092625
 11
-693.920321
 21
760.092625
  0
LINE
  8
2
  6
CENTER
 62
2
 10
-617.672671
 20
707.059616
 11
-693.920321
 21
707.059616
  0
LINE
  8
2
  6
CENTER
 62
2
 10
-965.867835
 20
707.059616
 11
-927.506167
 21
707.059616
  0
LINE
  8
2
  6
CENTER
 62
2
 10
-965.867835
 20
760.092625
 11
-927.506167
 21
760.092625
  0
LINE
  8
2
 10
-627.424119
 20
751.576121
 11
-491.270253
 21
751.576121
  0
LINE
  8
2
 10
-627.424119
 20
715.576121
 11
-491.270253
 21
715.576121
  0
LINE
  8
2
  6
CENTER
 62
2
 10
-949.577937
 20
536.287202
 11
-930.239074
 21
544.297622
  0
LINE
  8
2
  6
CENTER
 62
2
 10
-692.367978
 20
642.827056
 11
-673.002282
 21
650.848590
  0
LINE
  8
2
  6
CENTER
 62
2
 10
-868.584889
 20
455.206350
 11
-860.736759
 21
474.153410
  0
LINE
  8
2
  6
CENTER
 62
2
 10
-761.996890
 20
712.532543
 11
-754.370863
 21
730.943399
  0
LINE
  8
2
  6
CENTER
 62
2
 10
-868.456528
 20
731.636000
 11
-860.721150
 21
712.961146
  0
LINE
  8
2
  6
CENTER
 62
2
 10
-762.146907
 20
474.981873
 11
-753.981359
 21
455.268496
  0
LINE
  8
2
  6
CENTER
 62
2
 10
-950.057552
 20
651.063702
 11
-929.773189
 21
642.661644
  0
LINE
  8
2
  6
CENTER
 62
2
 10
-692.077493
 20
544.204863
 11
-673.243193
 21
536.403441
  0
ARC
  8
2
  6
CENTER
 62
2
 10
-811.270253
 20
593.576121
 40
139.000000
 50
198.266265
 51
207.138706
  0
ARC
  8
2
  6
CENTER
 62
2
 10
-811.270253
 20
593.576121
 40
139.000000
 50
243.246947
 51
251.688156
  0
ARC
  8
2
  6
CENTER
 62
2
 10
-811.270253
 20
593.576121
 40
139.000000
 50
288.271426
 51
296.920016
  0
ARC
  8
2
  6
CENTER
 62
2
 10
-811.270253
 20
593.576121
 40
139.000000
 50
333.725054
 51
341.571040
  0
ARC
  8
2
  6
CENTER
 62
2
 10
-811.270253
 20
593.576121
 40
139.000000
 50
18.406307
 51
26.637190
  0
ARC
  8
2
  6
CENTER
 62
2
 10
-811.270253
 20
593.576121
 40
139.000000
 50
63.188913
 51
71.733205
  0
ARC
  8
2
  6
CENTER
 62
2
 10
-811.270253
 20
593.576121
 40
139.000000
 50
108.257770
 51
116.858882
  0
ARC
  8
2
  6
CENTER
 62
2
 10
-811.270253
 20
593.576121
 40
139.000000
 50
153.017244
 51
162.237093
  0
LINE
  8
2
 10
-875.768459
 20
532.404384
 11
-867.888662
 21
600.160629
  0
LINE
  8
2
 10
-872.441990
 20
529.077915
 11
-804.685744
 21
536.957712
  0
ARC
  8
2
 10
-872.788543
 20
532.057831
 40
3.000000
 50
173.366514
 51
276.633486
  0
ARC
  8
2
 10
-811.270253
 20
593.576121
 40
57.000000
 50
276.633486
 51
173.366514
  0
ARC
  8
2
 10
-780.944323
 20
567.492832
 40
4.000000
 50
352.953342
 51
101.347881
  0
ARC
  8
2
 10
-785.186964
 20
563.250191
 40
4.000000
 50
168.652119
 51
277.046658
  0
ARC
  8
2
 10
-837.353542
 20
623.902051
 40
4.000000
 50
348.652119
 51
97.046658
  0
ARC
  8
2
 10
-841.596183
 20
619.659410
 40
4.000000
 50
172.953342
 51
281.347881
  0
LINE
  8
2
 10
-634.270253
 20
769.892625
 11
-628.165146
 21
769.892625
  0
LINE
  8
2
 10
-628.165146
 20
769.892625
 11
-627.270253
 21
768.342625
  0
LINE
  8
2
 10
-627.270253
 20
768.342625
 11
-627.270253
 21
751.842625
  0
LINE
  8
2
 10
-634.270253
 20
764.992625
 11
-628.165146
 21
764.992625
  0
ARC
  8
2
 10
-631.314704
 20
767.442625
 40
3.990265
 50
322.121121
 51
37.878879
  0
LINE
  8
2
 10
-634.270253
 20
750.292625
 11
-628.165146
 21
750.292625
  0
LINE
  8
2
 10
-628.165146
 20
750.292625
 11
-627.270253
 21
751.842625
  0
LINE
  8
2
 10
-634.270253
 20
755.192625
 11
-628.165146
 21
755.192625
  0
ARC
  8
2
 10
-631.314704
 20
752.742625
 40
3.990265
 50
322.121121
 51
37.878879
  0
ARC
  8
2
 10
-642.024439
 20
760.092625
 40
14.700000
 50
340.528779
 51
19.471221
  0
LINE
  8
2
 10
-636.770253
 20
769.292625
 11
-634.270253
 21
769.292625
  0
LINE
  8
2
 10
-634.270253
 20
769.892625
 11
-634.270253
 21
750.292625
  0
LINE
  8
2
 10
-634.270253
 20
750.892625
 11
-636.770253
 21
750.892625
  0
LINE
  8
2
 10
-634.270253
 20
760.092625
 11
-636.770253
 21
759.592625
  0
LINE
  8
2
 10
-636.770253
 20
760.092625
 11
-634.270253
 21
760.592625
  0
LINE
  8
2
 10
-634.270253
 20
716.859616
 11
-628.165146
 21
716.859616
  0
LINE
  8
2
 10
-628.165146
 20
716.859616
 11
-627.270253
 21
715.309616
  0
LINE
  8
2
 10
-627.270253
 20
715.309616
 11
-627.270253
 21
698.809616
  0
LINE
  8
2
 10
-634.270253
 20
711.959616
 11
-628.165146
 21
711.959616
  0
ARC
  8
2
 10
-631.314704
 20
714.409616
 40
3.990265
 50
322.121121
 51
37.878879
  0
LINE
  8
2
 10
-634.270253
 20
697.259616
 11
-628.165146
 21
697.259616
  0
LINE
  8
2
 10
-628.165146
 20
697.259616
 11
-627.270253
 21
698.809616
  0
LINE
  8
2
 10
-634.270253
 20
702.159616
 11
-628.165146
 21
702.159616
  0
ARC
  8
2
 10
-631.314704
 20
699.709616
 40
3.990265
 50
322.121121
 51
37.878879
  0
ARC
  8
2
 10
-642.024439
 20
707.059616
 40
14.700000
 50
340.528779
 51
19.471221
  0
LINE
  8
2
 10
-636.770253
 20
716.259616
 11
-634.270253
 21
716.259616
  0
LINE
  8
2
 10
-634.270253
 20
716.859616
 11
-634.270253
 21
697.259616
  0
LINE
  8
2
 10
-634.270253
 20
697.859616
 11
-636.770253
 21
697.859616
  0
LINE
  8
2
 10
-634.270253
 20
707.059616
 11
-636.770253
 21
706.559616
  0
LINE
  8
2
 10
-636.770253
 20
707.059616
 11
-634.270253
 21
707.559616
  0
LINE
  8
2
 10
-949.270253
 20
697.259616
 11
-955.375360
 21
697.259616
  0
LINE
  8
2
 10
-955.375360
 20
697.259616
 11
-956.270253
 21
698.809616
  0
LINE
  8
2
 10
-949.270253
 20
702.159616
 11
-955.375360
 21
702.159616
  0
ARC
  8
2
 10
-952.225802
 20
699.709616
 40
3.990265
 50
142.121121
 51
217.878879
  0
ARC
  8
2
 10
-941.516067
 20
707.059616
 40
14.700000
 50
160.528782
 51
199.471218
  0
LINE
  8
2
 10
-949.270253
 20
716.859616
 11
-955.375360
 21
716.859616
  0
LINE
  8
2
 10
-955.375360
 20
716.859616
 11
-956.270253
 21
715.309616
  0
LINE
  8
2
 10
-956.270253
 20
715.309616
 11
-956.270253
 21
698.809616
  0
LINE
  8
2
 10
-949.270253
 20
711.959616
 11
-955.375360
 21
711.959616
  0
ARC
  8
2
 10
-952.225802
 20
714.409616
 40
3.990265
 50
142.121121
 51
217.878879
  0
LINE
  8
2
 10
-946.770253
 20
697.859616
 11
-949.270253
 21
697.859616
  0
LINE
  8
2
 10
-949.270253
 20
697.259616
 11
-949.270253
 21
716.859616
  0
LINE
  8
2
 10
-949.270253
 20
716.259616
 11
-946.770253
 21
716.259616
  0
LINE
  8
2
 10
-949.270253
 20
707.059616
 11
-946.770253
 21
707.559616
  0
LINE
  8
2
 10
-946.770253
 20
707.059616
 11
-949.270253
 21
706.559616
  0
LINE
  8
2
 10
-949.270253
 20
750.292625
 11
-955.375360
 21
750.292625
  0
LINE
  8
2
 10
-955.375360
 20
750.292625
 11
-956.270253
 21
751.842625
  0
LINE
  8
2
 10
-949.270253
 20
755.192625
 11
-955.375360
 21
755.192625
  0
ARC
  8
2
 10
-952.225802
 20
752.742625
 40
3.990265
 50
142.121121
 51
217.878879
  0
ARC
  8
2
 10
-941.516067
 20
760.092625
 40
14.700000
 50
160.528782
 51
199.471218
  0
LINE
  8
2
 10
-949.270253
 20
769.892625
 11
-955.375360
 21
769.892625
  0
LINE
  8
2
 10
-955.375360
 20
769.892625
 11
-956.270253
 21
768.342625
  0
LINE
  8
2
 10
-956.270253
 20
768.342625
 11
-956.270253
 21
751.842625
  0
LINE
  8
2
 10
-949.270253
 20
764.992625
 11
-955.375360
 21
764.992625
  0
ARC
  8
2
 10
-952.225802
 20
767.442625
 40
3.990265
 50
142.121121
 51
217.878879
  0
LINE
  8
2
 10
-946.770253
 20
750.892625
 11
-949.270253
 21
750.892625
  0
LINE
  8
2
 10
-949.270253
 20
750.292625
 11
-949.270253
 21
769.892625
  0
LINE
  8
2
 10
-949.270253
 20
769.292625
 11
-946.770253
 21
769.292625
  0
LINE
  8
2
 10
-949.270253
 20
760.092625
 11
-946.770253
 21
760.592625
  0
LINE
  8
2
 10
-946.770253
 20
760.092625
 11
-949.270253
 21
759.592625
  0
CIRCLE
  8
2
 10
-758.077256
 20
721.995376
 40
4.900000
  0
CIRCLE
  8
2
 10
-758.077256
 20
721.995376
 40
6.100000
  0
CIRCLE
  8
2
 10
-839.554524
 20
621.860392
 40
6.250000
  0
CIRCLE
  8
2
 10
-782.985982
 20
565.291850
 40
6.250000
  0
LINE
  8
2
 10
-759.770253
 20
446.576121
 11
-759.770253
 21
443.576121
  0
LINE
  8
2
 10
-722.770253
 20
446.576121
 11
-722.770253
 21
443.576121
  0
LINE
  8
2
 10
-862.770253
 20
446.576121
 11
-862.770253
 21
443.576121
  0
LINE
  8
2
 10
-899.770253
 20
446.576121
 11
-899.770253
 21
443.576121
  0
LINE
  8
2
 10
-899.770253
 20
443.576121
 11
-862.770253
 21
443.576121
  0
LINE
  8
2
 10
-759.770253
 20
443.576121
 11
-722.770253
 21
443.576121
  0
LINE
  8
2
 10
-723.970253
 20
443.576121
 11
-723.970253
 21
429.192702
  0
LINE
  8
2
 10
-723.970253
 20
429.192702
 11
-726.770253
 21
427.576121
  0
LINE
  8
2
 10
-726.770253
 20
427.576121
 11
-755.770253
 21
427.576121
  0
LINE
  8
2
 10
-732.620253
 20
443.576121
 11
-732.620253
 21
429.192702
  0
ARC
  8
2
 10
-728.295253
 20
434.752636
 40
7.044040
 50
232.121121
 51
307.878879
  0
LINE
  8
2
 10
-758.570253
 20
443.576121
 11
-758.570253
 21
429.192702
  0
LINE
  8
2
 10
-758.570253
 20
429.192702
 11
-755.770253
 21
427.576121
  0
LINE
  8
2
 10
-749.920253
 20
443.576121
 11
-749.920253
 21
429.192702
  0
ARC
  8
2
 10
-754.245253
 20
434.752636
 40
7.044040
 50
232.121121
 51
307.878879
  0
ARC
  8
2
 10
-741.270253
 20
453.658596
 40
25.950000
 50
250.528777
 51
289.471219
  0
LINE
  8
2
 10
-863.970253
 20
443.576121
 11
-863.970253
 21
429.192702
  0
LINE
  8
2
 10
-863.970253
 20
429.192702
 11
-866.770253
 21
427.576121
  0
LINE
  8
2
 10
-866.770253
 20
427.576121
 11
-895.770253
 21
427.576121
  0
LINE
  8
2
 10
-872.620253
 20
443.576121
 11
-872.620253
 21
429.192702
  0
ARC
  8
2
 10
-868.295253
 20
434.752636
 40
7.044040
 50
232.121121
 51
307.878879
  0
LINE
  8
2
 10
-898.570253
 20
443.576121
 11
-898.570253
 21
429.192702
  0
LINE
  8
2
 10
-898.570253
 20
429.192702
 11
-895.770253
 21
427.576121
  0
LINE
  8
2
 10
-889.920253
 20
443.576121
 11
-889.920253
 21
429.192702
  0
ARC
  8
2
 10
-894.245253
 20
434.752636
 40
7.044040
 50
232.121121
 51
307.878879
  0
ARC
  8
2
 10
-881.270253
 20
453.658596
 40
25.950000
 50
250.528777
 51
289.471219
  0
LINE
  8
2
 10
-723.970253
 20
408.576121
 11
-723.970253
 21
397.192702
  0
LINE
  8
2
 10
-723.970253
 20
397.192702
 11
-726.770253
 21
395.576121
  0
LINE
  8
2
 10
-732.620253
 20
408.576121
 11
-732.620253
 21
397.192702
  0
ARC
  8
2
 10
-728.295253
 20
402.752636
 40
7.044040
 50
232.121121
 51
307.878879
  0
ARC
  8
2
 10
-741.270253
 20
421.658596
 40
25.950000
 50
250.528777
 51
289.471219
  0
LINE
  8
2
 10
-731.270253
 20
427.576121
 11
-731.270253
 21
408.576121
  0
LINE
  8
2
 62
2
 10
-732.623253
 20
427.576121
 11
-732.623253
 21
417.223121
  0
LINE
  8
2
 62
2
 10
-732.623253
 20
417.223121
 11
-731.270253
 21
408.576121
  0
LINE
  8
2
 10
-723.970253
 20
408.576121
 11
-758.570253
 21
408.576121
  0
LINE
  8
2
 10
-758.570253
 20
408.576121
 11
-758.570253
 21
397.192702
  0
LINE
  8
2
 10
-758.570253
 20
397.192702
 11
-755.770253
 21
395.576121
  0
LINE
  8
2
 10
-755.770253
 20
395.576121
 11
-726.770253
 21
395.576121
  0
LINE
  8
2
 10
-749.920253
 20
408.576121
 11
-749.920253
 21
397.192702
  0
ARC
  8
2
 10
-754.245253
 20
402.752636
 40
7.044040
 50
232.121121
 51
307.878879
  0
LINE
  8
2
 10
-751.270253
 20
427.576121
 11
-751.270253
 21
408.576121
  0
LINE
  8
2
 10
-731.270253
 20
417.223121
 11
-751.270253
 21
417.223121
  0
LINE
  8
2
 62
2
 10
-749.917253
 20
417.223121
 11
-749.917253
 21
427.576121
  0
LINE
  8
2
 62
2
 10
-749.917253
 20
417.223121
 11
-751.270253
 21
408.576121
  0
LINE
  8
2
 10
-863.970253
 20
408.576121
 11
-863.970253
 21
397.192702
  0
LINE
  8
2
 10
-863.970253
 20
397.192702
 11
-866.770253
 21
395.576121
  0
LINE
  8
2
 10
-872.620253
 20
408.576121
 11
-872.620253
 21
397.192702
  0
ARC
  8
2
 10
-868.295253
 20
402.752636
 40
7.044040
 50
232.121121
 51
307.878879
  0
ARC
  8
2
 10
-881.270253
 20
421.658596
 40
25.950000
 50
250.528777
 51
289.471219
  0
LINE
  8
2
 10
-871.270253
 20
427.576121
 11
-871.270253
 21
408.576121
  0
LINE
  8
2
 62
2
 10
-872.623253
 20
427.576121
 11
-872.623253
 21
417.223121
  0
LINE
  8
2
 62
2
 10
-872.623253
 20
417.223121
 11
-871.270253
 21
408.576121
  0
LINE
  8
2
 10
-863.970253
 20
408.576121
 11
-898.570253
 21
408.576121
  0
LINE
  8
2
 10
-898.570253
 20
408.576121
 11
-898.570253
 21
397.192702
  0
LINE
  8
2
 10
-898.570253
 20
397.192702
 11
-895.770253
 21
395.576121
  0
LINE
  8
2
 10
-895.770253
 20
395.576121
 11
-866.770253
 21
395.576121
  0
LINE
  8
2
 10
-889.920253
 20
408.576121
 11
-889.920253
 21
397.192702
  0
ARC
  8
2
 10
-894.245253
 20
402.752636
 40
7.044040
 50
232.121121
 51
307.878879
  0
LINE
  8
2
 10
-891.270253
 20
427.576121
 11
-891.270253
 21
408.576121
  0
LINE
  8
2
 10
-871.270253
 20
417.223121
 11
-891.270253
 21
417.223121
  0
LINE
  8
2
 62
2
 10
-889.917253
 20
417.223121
 11
-889.917253
 21
427.576121
  0
LINE
  8
2
 62
2
 10
-889.917253
 20
417.223121
 11
-891.270253
 21
408.576121
  0
LINE
  8
2
 10
-445.670253
 20
714.726121
 11
-445.670253
 21
752.426121
  0
LINE
  8
2
 10
-445.670253
 20
752.076121
 11
-441.270253
 21
752.076121
  0
LINE
  8
2
 10
-445.670253
 20
742.826121
 11
-441.270253
 21
742.826121
  0
LINE
  8
2
 10
-445.670253
 20
715.076121
 11
-441.270253
 21
715.076121
  0
LINE
  8
2
 10
-445.670253
 20
724.326121
 11
-441.270253
 21
724.326121
  0
LINE
  8
2
 10
-451.270253
 20
752.426121
 11
-445.670253
 21
752.426121
  0
LINE
  8
2
 10
-445.670253
 20
714.726121
 11
-451.270253
 21
714.726121
  0
LINE
  8
2
 10
-445.670253
 20
733.576121
 11
-451.270253
 21
732.576121
  0
LINE
  8
2
 10
-451.270253
 20
733.576121
 11
-445.670253
 21
734.576121
  0
LINE
  8
2
 10
-411.270253
 20
955.198897
 11
-411.270253
 21
511.953344
  0
LINE
  8
2
 10
-441.270253
 20
955.198897
 11
-441.270253
 21
511.953344
  0
ARC
  8
2
 10
-426.270253
 20
923.576121
 40
35.000000
 50
64.623066
 51
115.376934
  0
ARC
  8
2
 10
-426.270253
 20
543.576121
 40
35.000000
 50
244.623066
 51
295.376934
  0
LINE
  8
2
 10
-451.270253
 20
754.863485
 11
-451.270253
 21
712.288757
  0
LINE
  8
2
 10
-491.270253
 20
763.576121
 11
-491.270253
 21
703.576121
  0
ARC
  8
2
 10
-471.270253
 20
734.853308
 40
35.000000
 50
108.157627
 51
124.849905
  0
ARC
  8
2
 10
-471.270253
 20
732.298934
 40
35.000000
 50
235.150095
 51
251.842373
  0
LINE
  8
2
 10
-481.619698
 20
771.078120
 11
-441.270253
 21
894.173429
  0
ARC
  8
2
 10
-488.271459
 20
773.258502
 40
7.000000
 50
293.878007
 51
341.851360
  0
LINE
  8
2
 10
-481.619698
 20
696.074122
 11
-441.270253
 21
572.978812
  0
ARC
  8
2
 10
-488.271459
 20
693.893739
 40
7.000000
 50
18.148640
 51
66.121993
  0
LINE
  8
2
 10
-457.995263
 20
741.909288
 11
-441.270253
 21
774.126204
  0
LINE
  8
2
 10
-480.310639
 20
741.301787
 11
-441.270253
 21
816.504185
  0
LINE
  8
2
 10
-480.289007
 20
770.337222
 11
-441.270253
 21
842.921067
  0
ARC
  8
2
 10
-486.454603
 20
773.651649
 40
7.000000
 50
275.083250
 51
331.738947
  0
ARC
  8
2
 10
-486.523348
 20
744.527038
 40
7.000000
 50
270.000000
 51
332.564481
  0
ARC
  8
2
 10
-455.332673
 20
740.527038
 40
3.000000
 50
152.564481
 51
270.000000
  0
LINE
  8
2
 10
-457.995263
 20
725.242954
 11
-441.270253
 21
693.026038
  0
LINE
  8
2
 10
-480.310639
 20
725.850455
 11
-441.270253
 21
650.648056
  0
LINE
  8
2
 10
-480.289007
 20
696.815019
 11
-441.270253
 21
624.231175
  0
ARC
  8
2
 10
-486.454603
 20
693.500592
 40
7.000000
 50
28.261053
 51
84.916750
  0
ARC
  8
2
 10
-486.523348
 20
722.625204
 40
7.000000
 50
27.435519
 51
90.000000
  0
ARC
  8
2
 10
-455.332673
 20
726.625204
 40
3.000000
 50
90.000000
 51
207.435519
  0
LINE
  8
2
 10
-760.964007
 20
726.995376
 11
-755.190505
 21
726.995376
  0
LINE
  8
2
 10
-760.964007
 20
716.995376
 11
-755.190505
 21
716.995376
  0
LINE
  8
2
 10
-763.850759
 20
721.995376
 11
-760.964007
 21
726.995376
  0
LINE
  8
2
 10
-755.190505
 20
716.995376
 11
-752.303753
 21
721.995376
  0
LINE
  8
2
 10
-760.964007
 20
716.995376
 11
-763.850759
 21
721.995376
  0
LINE
  8
2
 10
-752.303753
 20
721.995376
 11
-755.190505
 21
726.995376
  0
CIRCLE
  8
2
 10
-864.463250
 20
721.995376
 40
4.900000
  0
CIRCLE
  8
2
 10
-864.463250
 20
721.995376
 40
6.100000
  0
LINE
  8
2
 10
-867.350001
 20
726.995376
 11
-861.576499
 21
726.995376
  0
LINE
  8
2
 10
-867.350001
 20
716.995376
 11
-861.576499
 21
716.995376
  0
LINE
  8
2
 10
-870.236753
 20
721.995376
 11
-867.350001
 21
726.995376
  0
LINE
  8
2
 10
-861.576499
 20
716.995376
 11
-858.689747
 21
721.995376
  0
LINE
  8
2
 10
-867.350001
 20
716.995376
 11
-870.236753
 21
721.995376
  0
LINE
  8
2
 10
-858.689747
 20
721.995376
 11
-861.576499
 21
726.995376
  0
CIRCLE
  8
2
 10
-939.689508
 20
646.769118
 40
4.900000
  0
CIRCLE
  8
2
 10
-939.689508
 20
646.769118
 40
6.100000
  0
LINE
  8
2
 10
-942.576259
 20
651.769118
 11
-936.802757
 21
651.769118
  0
LINE
  8
2
 10
-942.576259
 20
641.769118
 11
-936.802757
 21
641.769118
  0
LINE
  8
2
 10
-945.463011
 20
646.769118
 11
-942.576259
 21
651.769118
  0
LINE
  8
2
 10
-936.802757
 20
641.769118
 11
-933.916005
 21
646.769118
  0
LINE
  8
2
 10
-942.576259
 20
641.769118
 11
-945.463011
 21
646.769118
  0
LINE
  8
2
 10
-933.916005
 20
646.769118
 11
-936.802757
 21
651.769118
  0
CIRCLE
  8
2
 10
-682.850998
 20
646.769118
 40
4.900000
  0
CIRCLE
  8
2
 10
-682.850998
 20
646.769118
 40
6.100000
  0
LINE
  8
2
 10
-685.737749
 20
651.769118
 11
-679.964247
 21
651.769118
  0
LINE
  8
2
 10
-685.737749
 20
641.769118
 11
-679.964247
 21
641.769118
  0
LINE
  8
2
 10
-688.624501
 20
646.769118
 11
-685.737749
 21
651.769118
  0
LINE
  8
2
 10
-679.964247
 20
641.769118
 11
-677.077495
 21
646.769118
  0
LINE
  8
2
 10
-685.737749
 20
641.769118
 11
-688.624501
 21
646.769118
  0
LINE
  8
2
 10
-677.077495
 20
646.769118
 11
-679.964247
 21
651.769118
  0
CIRCLE
  8
2
 10
-682.850998
 20
540.383124
 40
4.900000
  0
CIRCLE
  8
2
 10
-682.850998
 20
540.383124
 40
6.100000
  0
LINE
  8
2
 10
-685.737749
 20
545.383124
 11
-679.964247
 21
545.383124
  0
LINE
  8
2
 10
-685.737749
 20
535.383124
 11
-679.964247
 21
535.383124
  0
LINE
  8
2
 10
-688.624501
 20
540.383124
 11
-685.737749
 21
545.383124
  0
LINE
  8
2
 10
-679.964247
 20
535.383124
 11
-677.077495
 21
540.383124
  0
LINE
  8
2
 10
-685.737749
 20
535.383124
 11
-688.624501
 21
540.383124
  0
LINE
  8
2
 10
-677.077495
 20
540.383124
 11
-679.964247
 21
545.383124
  0
CIRCLE
  8
2
 10
-758.077256
 20
465.156866
 40
4.900000
  0
CIRCLE
  8
2
 10
-758.077256
 20
465.156866
 40
6.100000
  0
LINE
  8
2
 10
-760.964007
 20
470.156866
 11
-755.190505
 21
470.156866
  0
LINE
  8
2
 10
-760.964007
 20
460.156866
 11
-755.190505
 21
460.156866
  0
LINE
  8
2
 10
-763.850759
 20
465.156866
 11
-760.964007
 21
470.156866
  0
LINE
  8
2
 10
-755.190505
 20
460.156866
 11
-752.303753
 21
465.156866
  0
LINE
  8
2
 10
-760.964007
 20
460.156866
 11
-763.850759
 21
465.156866
  0
LINE
  8
2
 10
-752.303753
 20
465.156866
 11
-755.190505
 21
470.156866
  0
CIRCLE
  8
2
 10
-939.689508
 20
540.383124
 40
4.900000
  0
CIRCLE
  8
2
 10
-939.689508
 20
540.383124
 40
6.100000
  0
LINE
  8
2
 10
-942.576259
 20
545.383124
 11
-936.802757
 21
545.383124
  0
LINE
  8
2
 10
-942.576259
 20
535.383124
 11
-936.802757
 21
535.383124
  0
LINE
  8
2
 10
-945.463011
 20
540.383124
 11
-942.576259
 21
545.383124
  0
LINE
  8
2
 10
-936.802757
 20
535.383124
 11
-933.916005
 21
540.383124
  0
LINE
  8
2
 10
-942.576259
 20
535.383124
 11
-945.463011
 21
540.383124
  0
LINE
  8
2
 10
-933.916005
 20
540.383124
 11
-936.802757
 21
545.383124
  0
CIRCLE
  8
2
 10
-864.463250
 20
465.156866
 40
4.900000
  0
CIRCLE
  8
2
 10
-864.463250
 20
465.156866
 40
6.100000
  0
LINE
  8
2
 10
-867.350001
 20
470.156866
 11
-861.576499
 21
470.156866
  0
LINE
  8
2
 10
-867.350001
 20
460.156866
 11
-861.576499
 21
460.156866
  0
LINE
  8
2
 10
-870.236753
 20
465.156866
 11
-867.350001
 21
470.156866
  0
LINE
  8
2
 10
-861.576499
 20
460.156866
 11
-858.689747
 21
465.156866
  0
LINE
  8
2
 10
-867.350001
 20
460.156866
 11
-870.236753
 21
465.156866
  0
LINE
  8
2
 10
-858.689747
 20
465.156866
 11
-861.576499
 21
470.156866
  0
CIRCLE
  8
2
 10
-839.554524
 20
621.860392
 40
4.900000
  0
LINE
  8
2
 10
-842.441276
 20
626.860392
 11
-836.667773
 21
626.860392
  0
LINE
  8
2
 10
-842.441276
 20
616.860392
 11
-836.667773
 21
616.860392
  0
LINE
  8
2
 10
-845.328027
 20
621.860392
 11
-842.441276
 21
626.860392
  0
LINE
  8
2
 10
-836.667773
 20
616.860392
 11
-833.781022
 21
621.860392
  0
LINE
  8
2
 10
-842.441276
 20
616.860392
 11
-845.328027
 21
621.860392
  0
LINE
  8
2
 10
-833.781022
 20
621.860392
 11
-836.667773
 21
626.860392
  0
CIRCLE
  8
2
 10
-782.985982
 20
565.291850
 40
4.900000
  0
LINE
  8
2
 10
-785.872733
 20
570.291850
 11
-780.099230
 21
570.291850
  0
LINE
  8
2
 10
-785.872733
 20
560.291850
 11
-780.099230
 21
560.291850
  0
LINE
  8
2
 10
-788.759484
 20
565.291850
 11
-785.872733
 21
570.291850
  0
LINE
  8
2
 10
-780.099230
 20
560.291850
 11
-777.212479
 21
565.291850
  0
LINE
  8
2
 10
-785.872733
 20
560.291850
 11
-788.759484
 21
565.291850
  0
LINE
  8
2
 10
-777.212479
 20
565.291850
 11
-780.099230
 21
570.291850
  0
TEXT
  8
2
 10
-881.980931
 20
664.286799
 40
14.000000
  1
Ｔ
 50
45.000000
  0
TEXT
  8
2
 10
-871.451755
 20
673.439672
 40
14.000000
  1
Ｏ
 50
37.000000
  0
TEXT
  8
2
 10
-859.751215
 20
681.038091
 40
14.000000
  1
Ｍ
 50
29.000000
  0
TEXT
  8
2
 10
-847.107048
 20
686.934163
 40
14.000000
  1
Ｏ
 50
21.000000
  0
TEXT
  8
2
 10
-833.765358
 20
691.013127
 40
14.000000
  1
Ｅ
 50
13.000000
  0
TEXT
  8
2
 10
-802.416328
 20
694.162442
 40
14.000000
  1
Ｖ
 50
347.000000
  0
TEXT
  8
2
 10
-788.503584
 20
691.951315
 40
14.000000
  1
Ａ
 50
339.000000
  0
TEXT
  8
2
 10
-775.033967
 20
687.825426
 40
14.000000
  1
Ｌ
 50
331.000000
  0
TEXT
  8
2
 10
-762.269648
 20
681.865082
 40
14.000000
  1
Ｖ
 50
323.000000
  0
TEXT
  8
2
 10
-750.459070
 20
674.186294
 40
14.000000
  1
Ｅ
 50
315.000000
  0
TEXT
  8
2
 10
-761.772778
 20
657.215731
 40
10.000000
  1
Ｎ
 50
315.000000
  0
TEXT
  8
2
 10
-771.111406
 20
663.485112
 40
10.000000
  1
Ａ
 50
323.000000
  0
TEXT
  8
2
 10
-781.231680
 20
668.393794
 40
10.000000
  1
Ｐ
 50
331.000000
  0
TEXT
  8
2
 10
-791.936621
 20
671.846234
 40
10.000000
  1
Ａ
 50
339.000000
  0
TEXT
  8
2
 10
-803.017869
 20
673.775236
 40
10.000000
  1
Ｊ
 50
347.000000
  0
TEXT
  8
2
 10
-829.266337
 20
671.525726
 40
10.000000
  1
Ａ
 50
13.000000
  0
TEXT
  8
2
 10
-839.939689
 20
668.262555
 40
10.000000
  1
Ｋ
 50
21.000000
  0
TEXT
  8
2
 10
-859.415455
 20
657.466962
 40
10.000000
  1
Ｓ
 50
37.000000
  0
TEXT
  8
2
 10
-867.838795
 20
650.144663
 40
10.000000
  1
Ｏ
 50
45.000000
  0
TEXT
  8
2
 10
-850.055023
 20
663.545697
 40
10.000000
  1
Ａ
 50
29.000000
  0
LINE
  8
2
 10
-636.770253
 20
784.076121
 11
-636.770253
 21
686.076121
  0
LINE
  8
2
 10
-668.770253
 20
778.076121
 11
-636.770253
 21
778.076121
  0
LINE
  8
2
  6
CENTER
 62
2
 10
-652.770253
 20
841.903805
 11
-652.770253
 21
765.034390
  0
LINE
  8
2
 10
-668.770253
 20
784.076121
 11
-569.770253
 21
784.076121
  0
LINE
  8
2
 10
-668.770253
 20
793.076121
 11
-569.770253
 21
793.076121
  0
LINE
  8
2
 10
-569.770253
 20
793.076121
 11
-569.770253
 21
784.076121
  0
LINE
  8
2
 10
-665.770253
 20
811.576121
 11
-639.770253
 21
811.576121
  0
LINE
  8
2
 10
-663.770253
 20
825.576121
 11
-641.770253
 21
825.576121
  0
LINE
  8
2
 10
-641.770253
 20
825.576121
 11
-639.770253
 21
811.576121
  0
LINE
  8
2
 10
-663.770253
 20
825.576121
 11
-665.770253
 21
811.576121
  0
LINE
  8
2
 10
-635.029930
 20
841.150717
 11
-641.770253
 21
825.576121
  0
LINE
  8
2
 10
-620.362101
 20
831.256660
 11
-639.770253
 21
811.576121
  0
ARC
  8
2
 10
-626.770253
 20
837.576121
 40
9.000000
 50
315.399255
 51
156.598161
  0
LINE
  8
2
 10
-670.510576
 20
841.150717
 11
-663.770253
 21
825.576121
  0
ARC
  8
2
 10
-678.770253
 20
837.576121
 40
9.000000
 50
23.401839
 51
224.600745
  0
LINE
  8
2
 10
-685.178405
 20
831.256660
 11
-665.770253
 21
811.576121
  0
LINE
  8
2
 10
-660.770253
 20
793.076121
 11
-660.770253
 21
811.576121
  0
LINE
  8
2
 62
2
 10
-659.687753
 20
793.076121
 11
-659.687753
 21
807.576121
  0
LINE
  8
2
 62
2
 10
-659.687753
 20
807.576121
 11
-660.770253
 21
811.576121
  0
LINE
  8
2
 10
-644.770253
 20
793.076121
 11
-644.770253
 21
811.576121
  0
LINE
  8
2
 10
-644.770253
 20
807.576121
 11
-660.770253
 21
807.576121
  0
LINE
  8
2
 62
2
 10
-645.852753
 20
793.076121
 11
-645.852753
 21
807.576121
  0
LINE
  8
2
 62
2
 10
-645.852753
 20
807.576121
 11
-644.770253
 21
811.576121
  0
LINE
  8
2
 10
-883.381001
 20
524.293800
 11
-893.989448
 21
513.685353
  0
LINE
  8
2
 10
-880.552574
 20
521.465373
 11
-891.161021
 21
510.856926
  0
ARC
  8
2
 10
-811.270253
 20
593.576121
 40
100.000000
 50
223.854008
 51
226.145992
  0
LINE
  8
2
 10
-859.209900
 20
505.816277
 11
-866.137334
 21
492.508800
  0
LINE
  8
2
 10
-855.661857
 20
503.969282
 11
-862.589291
 21
490.661805
  0
ARC
  8
2
 10
-811.270253
 20
593.576121
 40
100.000000
 50
241.354008
 51
243.645992
  0
LINE
  8
2
 10
-830.601213
 20
495.462340
 11
-833.206389
 21
480.687654
  0
LINE
  8
2
 10
-826.661982
 20
494.767747
 11
-829.267158
 21
479.993061
  0
ARC
  8
2
 10
-811.270253
 20
593.576121
 40
100.000000
 50
258.854008
 51
261.145992
  0
LINE
  8
2
 10
-800.203134
 20
494.190413
 11
-798.244901
 21
479.316153
  0
LINE
  8
2
 10
-796.237355
 20
494.712518
 11
-794.279121
 21
479.838258
  0
ARC
  8
2
 10
-811.270253
 20
593.576121
 40
100.000000
 50
276.354008
 51
278.645992
  0
LINE
  8
2
 10
-770.829496
 20
502.118234
 11
-764.489119
 21
488.521252
  0
LINE
  8
2
 10
-767.204264
 20
503.808707
 11
-760.863888
 21
490.211725
  0
ARC
  8
2
 10
-811.270253
 20
593.576121
 40
100.000000
 50
293.854008
 51
296.145992
  0
LINE
  8
2
 10
-746.231803
 20
528.537671
 11
-731.379703
 21
513.685571
  0
LINE
  8
2
 10
-894.630865
 20
554.704429
 11
-913.666991
 21
545.827738
  0
ARC
  8
2
 10
-811.270253
 20
593.576121
 40
90.000000
 50
206.245659
 51
313.754341
  0
ARC
  8
2
 10
-811.270253
 20
593.576121
 40
115.000000
 50
206.014138
 51
313.985862
  0
ARC
  8
2
 10
-747.646016
 20
527.123457
 40
2.000000
 50
45.000000
 51
133.754341
  0
ARC
  8
2
 10
-732.793916
 20
512.271357
 40
2.000000
 50
313.985862
 51
45.000000
  0
ARC
  8
2
 10
-912.821754
 20
544.015122
 40
2.000000
 50
115.000000
 51
206.014138
  0
ARC
  8
2
 10
-893.785628
 20
552.891814
 40
2.000000
 50
26.245659
 51
115.000000
  0
TEXT
  8
2
 10
-754.320485
 20
499.167573
 40
15.000000
  1
Ｏ
 50
35.000000
  0
TEXT
  8
2
 10
-905.678801
 20
536.626353
 40
15.000000
  1
Ｓ
 50
305.000000
  0
CIRCLE
  8
2
 10
-902.213855
 20
545.220550
 40
1.500000
  0
LINE
  8
2
  6
CENTER
 62
2
 10
-906.187119
 20
543.107928
 11
-898.240591
 21
547.333172
  0
ARC
  8
2
  6
CENTER
 62
2
 10
-811.270253
 20
593.576121
 40
103.000000
 50
205.496587
 51
210.503413
  0
ARC
  8
2
  6
CENTER
 62
2
 10
-811.270253
 20
593.576121
 40
103.000000
 50
309.496587
 51
314.503413
  0
LINE
  8
2
  6
CENTER
 62
2
 10
-739.338713
 20
513.688052
 11
-745.360888
 21
520.376355
  0
CIRCLE
  8
2
 10
-742.349801
 20
517.032204
 40
1.500000
  0
LINE
  8
2
 10
-957.270253
 20
138.676121
 11
-665.270253
 21
138.676121
  0
LINE
  8
2
 10
-957.270253
 20
146.176121
 11
-957.270253
 21
36.676121
  0
LINE
  8
2
 10
-952.270253
 20
31.676121
 11
-670.270253
 21
31.676121
  0
LINE
  8
2
 10
-681.270253
 20
28.676121
 11
-681.270253
 21
26.676121
  0
LINE
  8
2
 10
-941.270253
 20
28.676121
 11
-941.270253
 21
26.676121
  0
ARC
  8
2
 10
-678.270253
 20
28.676121
 40
3.000000
 50
90.000000
 51
180.000000
  0
ARC
  8
2
 10
-944.270253
 20
28.676121
 40
3.000000
 50
0.000000
 51
90.000000
  0
ARC
  8
2
 10
-670.270253
 20
36.676121
 40
5.000000
 50
270.000000
 51
360.000000
  0
ARC
  8
2
 10
-952.270253
 20
36.676121
 40
5.000000
 50
180.000000
 51
270.000000
  0
LINE
  8
2
  6
CENTER
 62
2
 10
-741.270253
 20
120.026880
 11
-741.270253
 21
64.435419
  0
LINE
  8
2
  6
CENTER
 62
2
 10
-881.270253
 20
120.026880
 11
-881.270253
 21
64.435419
  0
LINE
  8
2
 10
-906.270253
 20
111.676121
 11
-906.270253
 21
71.676121
  0
LINE
  8
2
 10
-716.270253
 20
111.676121
 11
-716.270253
 21
71.676121
  0
LINE
  8
2
 10
-906.270253
 20
111.676121
 11
-716.270253
 21
111.676121
  0
LINE
  8
2
 10
-906.270253
 20
71.676121
 11
-716.270253
 21
71.676121
  0
LINE
  8
2
 10
-954.270253
 20
149.176121
 11
-668.270253
 21
149.176121
  0
ARC
  8
2
 10
-668.270253
 20
146.176121
 40
3.000000
 50
0.000000
 51
90.000000
  0
ARC
  8
2
 10
-954.270253
 20
146.176121
 40
3.000000
 50
90.000000
 51
180.000000
  0
LINE
  8
2
 10
-665.896060
 20
111.676121
 11
-664.270253
 21
111.676121
  0
LINE
  8
2
 10
-665.896060
 20
71.676121
 11
-664.270253
 21
71.676121
  0
LINE
  8
2
 10
-664.270253
 20
111.676121
 11
-664.270253
 21
71.676121
  0
LINE
  8
2
 10
-665.270253
 20
36.676121
 11
-665.270253
 21
71.676121
  0
LINE
  8
2
 10
-665.270253
 20
111.676121
 11
-665.270253
 21
146.176121
  0
LINE
  8
2
  6
CENTER
 62
2
 10
-617.672671
 20
118.192625
 11
-680.270083
 21
118.192625
  0
LINE
  8
2
  6
CENTER
 62
2
 10
-617.672671
 20
65.159616
 11
-680.270083
 21
65.159616
  0
LINE
  8
2
 10
-634.270253
 20
109.676121
 11
-491.270253
 21
109.676121
  0
LINE
  8
2
 10
-634.270253
 20
73.676121
 11
-491.270253
 21
73.676121
  0
LINE
  8
2
 10
-858.713250
 20
151.676121
 11
-763.827256
 21
151.676121
  0
LINE
  8
2
 10
-875.788543
 20
157.676121
 11
-754.270253
 21
157.676121
  0
LINE
  8
2
 10
-754.270253
 20
157.676121
 11
-754.270253
 21
154.676121
  0
LINE
  8
2
 10
-875.788543
 20
157.676121
 11
-875.788543
 21
152.676121
  0
LINE
  8
2
  6
CENTER
 62
2
 10
-782.985982
 20
169.288049
 11
-782.985982
 21
143.804407
  0
LINE
  8
2
  6
CENTER
 62
2
 10
-839.554524
 20
169.288049
 11
-839.554524
 21
143.804407
  0
LINE
  8
2
  6
CENTER
 62
2
 10
-682.850998
 20
161.883874
 11
-682.850998
 21
134.015283
  0
LINE
  8
2
  6
CENTER
 62
2
 10
-758.077256
 20
161.883874
 11
-758.077256
 21
134.015283
  0
LINE
  8
2
  6
CENTER
 62
2
 10
-864.463250
 20
161.883874
 11
-864.463250
 21
134.015283
  0
LINE
  8
2
  6
CENTER
 62
2
 10
-939.689508
 20
161.883874
 11
-939.689508
 21
134.015283
  0
LINE
  8
2
 10
-875.788543
 20
152.676121
 11
-870.213250
 21
152.676121
  0
LINE
  8
2
 10
-858.713250
 20
152.676121
 11
-763.827256
 21
152.676121
  0
CIRCLE
  8
2
 10
-741.270253
 20
91.676121
 40
18.500000
  0
CIRCLE
  8
2
 10
-881.270253
 20
91.676121
 40
18.500000
  0
CIRCLE
  8
2
 10
-741.270253
 20
91.676121
 40
14.500000
  0
CIRCLE
  8
2
 10
-881.270253
 20
91.676121
 40
14.500000
  0
LINE
  8
2
 10
-634.270253
 20
126.692625
 11
-627.270253
 21
126.692625
  0
LINE
  8
2
 10
-627.270253
 20
126.692625
 11
-627.270253
 21
109.692625
  0
ARC
  8
2
 10
-637.809689
 20
122.442625
 40
10.539436
 50
336.218654
 51
23.781346
  0
LINE
  8
2
 10
-634.270253
 20
109.692625
 11
-627.270253
 21
109.692625
  0
LINE
  8
2
 10
-634.270253
 20
118.192625
 11
-628.165146
 21
118.192625
  0
ARC
  8
2
 10
-637.809689
 20
113.942625
 40
10.539436
 50
336.218654
 51
23.781346
  0
LINE
  8
2
 10
-634.270253
 20
73.659616
 11
-627.270253
 21
73.659616
  0
LINE
  8
2
 10
-627.270253
 20
73.659616
 11
-627.270253
 21
56.659616
  0
ARC
  8
2
 10
-637.809689
 20
69.409616
 40
10.539436
 50
336.218654
 51
23.781346
  0
LINE
  8
2
 10
-634.270253
 20
56.659616
 11
-627.270253
 21
56.659616
  0
LINE
  8
2
 10
-634.270253
 20
65.159616
 11
-628.165146
 21
65.159616
  0
ARC
  8
2
 10
-637.809689
 20
60.909616
 40
10.539436
 50
336.218654
 51
23.781346
  0
LINE
  8
2
 10
-776.735982
 20
159.276121
 11
-776.735982
 21
157.676121
  0
LINE
  8
2
 10
-789.235982
 20
159.276121
 11
-789.235982
 21
157.676121
  0
LINE
  8
2
 10
-833.304524
 20
159.276121
 11
-833.304524
 21
157.676121
  0
LINE
  8
2
 10
-845.804524
 20
159.276121
 11
-845.804524
 21
157.676121
  0
LINE
  8
2
 10
-845.804524
 20
159.276121
 11
-833.304524
 21
159.276121
  0
LINE
  8
2
 10
-789.235982
 20
159.276121
 11
-776.735982
 21
159.276121
  0
LINE
  8
2
 10
-788.735982
 20
159.276121
 11
-788.735982
 21
162.785373
  0
LINE
  8
2
 10
-788.735982
 20
162.785373
 11
-787.885982
 21
163.276121
  0
LINE
  8
2
 10
-785.860982
 20
159.276121
 11
-785.860982
 21
162.785373
  0
ARC
  8
2
 10
-787.298482
 20
160.937418
 40
2.341227
 50
52.121121
 51
127.878879
  0
ARC
  8
2
 10
-782.985982
 20
154.653645
 40
8.625000
 50
70.528781
 51
109.471223
  0
LINE
  8
2
 10
-777.235982
 20
159.276121
 11
-777.235982
 21
162.785373
  0
LINE
  8
2
 10
-777.235982
 20
162.785373
 11
-778.085982
 21
163.276121
  0
LINE
  8
2
 10
-778.085982
 20
163.276121
 11
-787.885982
 21
163.276121
  0
LINE
  8
2
 10
-780.110982
 20
159.276121
 11
-780.110982
 21
162.785373
  0
ARC
  8
2
 10
-778.673482
 20
160.937418
 40
2.341227
 50
52.121121
 51
127.878879
  0
LINE
  8
2
 10
-845.304524
 20
159.276121
 11
-845.304524
 21
162.785373
  0
LINE
  8
2
 10
-845.304524
 20
162.785373
 11
-844.454524
 21
163.276121
  0
LINE
  8
2
 10
-842.429524
 20
159.276121
 11
-842.429524
 21
162.785373
  0
ARC
  8
2
 10
-843.867024
 20
160.937418
 40
2.341227
 50
52.121121
 51
127.878879
  0
ARC
  8
2
 10
-839.554524
 20
154.653645
 40
8.625000
 50
70.528781
 51
109.471223
  0
LINE
  8
2
 10
-833.804524
 20
159.276121
 11
-833.804524
 21
162.785373
  0
LINE
  8
2
 10
-833.804524
 20
162.785373
 11
-834.654524
 21
163.276121
  0
LINE
  8
2
 10
-834.654524
 20
163.276121
 11
-844.454524
 21
163.276121
  0
LINE
  8
2
 10
-836.679524
 20
159.276121
 11
-836.679524
 21
162.785373
  0
ARC
  8
2
 10
-835.242024
 20
160.937418
 40
2.341227
 50
52.121121
 51
127.878879
  0
LINE
  8
2
 10
-945.439508
 20
150.676121
 11
-945.439508
 21
154.185373
  0
LINE
  8
2
 10
-945.439508
 20
154.185373
 11
-944.589508
 21
154.676121
  0
LINE
  8
2
 10
-942.564508
 20
150.676121
 11
-942.564508
 21
154.185373
  0
ARC
  8
2
 10
-944.002008
 20
152.337418
 40
2.341227
 50
52.121121
 51
127.878879
  0
ARC
  8
2
 10
-939.689508
 20
146.053645
 40
8.625000
 50
70.528781
 51
109.471223
  0
LINE
  8
2
 10
-933.939508
 20
150.676121
 11
-933.939508
 21
154.185373
  0
LINE
  8
2
 10
-933.939508
 20
154.185373
 11
-934.789508
 21
154.676121
  0
LINE
  8
2
 10
-934.789508
 20
154.676121
 11
-944.589508
 21
154.676121
  0
LINE
  8
2
 10
-936.814508
 20
150.676121
 11
-936.814508
 21
154.185373
  0
ARC
  8
2
 10
-935.377008
 20
152.337418
 40
2.341227
 50
52.121121
 51
127.878879
  0
LINE
  8
2
 10
-945.789508
 20
149.176121
 11
-945.789508
 21
150.676121
  0
LINE
  8
2
 10
-945.789508
 20
150.676121
 11
-933.589508
 21
150.676121
  0
LINE
  8
2
 10
-933.589508
 20
150.676121
 11
-933.589508
 21
149.176121
  0
LINE
  8
2
 10
-939.689508
 20
150.676121
 11
-939.189508
 21
149.176121
  0
LINE
  8
2
 10
-939.689508
 20
149.176121
 11
-940.189508
 21
150.676121
  0
LINE
  8
2
 10
-870.213250
 20
150.676121
 11
-870.213250
 21
154.185373
  0
LINE
  8
2
 10
-870.213250
 20
154.185373
 11
-869.363250
 21
154.676121
  0
LINE
  8
2
 10
-867.338250
 20
150.676121
 11
-867.338250
 21
154.185373
  0
ARC
  8
2
 10
-868.775750
 20
152.337418
 40
2.341227
 50
52.121121
 51
127.878879
  0
ARC
  8
2
 10
-864.463250
 20
146.053645
 40
8.625000
 50
70.528781
 51
109.471223
  0
LINE
  8
2
 10
-858.713250
 20
150.676121
 11
-858.713250
 21
154.185373
  0
LINE
  8
2
 10
-858.713250
 20
154.185373
 11
-859.563250
 21
154.676121
  0
LINE
  8
2
 10
-859.563250
 20
154.676121
 11
-869.363250
 21
154.676121
  0
LINE
  8
2
 10
-861.588250
 20
150.676121
 11
-861.588250
 21
154.185373
  0
ARC
  8
2
 10
-860.150750
 20
152.337418
 40
2.341227
 50
52.121121
 51
127.878879
  0
LINE
  8
2
 10
-870.563250
 20
149.176121
 11
-870.563250
 21
150.676121
  0
LINE
  8
2
 10
-870.563250
 20
150.676121
 11
-858.363250
 21
150.676121
  0
LINE
  8
2
 10
-858.363250
 20
150.676121
 11
-858.363250
 21
149.176121
  0
LINE
  8
2
 10
-864.463250
 20
150.676121
 11
-863.963250
 21
149.176121
  0
LINE
  8
2
 10
-864.463250
 20
149.176121
 11
-864.963250
 21
150.676121
  0
LINE
  8
2
 10
-763.827256
 20
150.676121
 11
-763.827256
 21
154.185373
  0
LINE
  8
2
 10
-763.827256
 20
154.185373
 11
-762.977256
 21
154.676121
  0
LINE
  8
2
 10
-762.977256
 20
154.676121
 11
-753.177256
 21
154.676121
  0
LINE
  8
2
 10
-760.952256
 20
150.676121
 11
-760.952256
 21
154.185373
  0
ARC
  8
2
 10
-762.389756
 20
152.337418
 40
2.341227
 50
52.121121
 51
127.878879
  0
LINE
  8
2
 10
-752.327256
 20
150.676121
 11
-752.327256
 21
154.185373
  0
LINE
  8
2
 10
-752.327256
 20
154.185373
 11
-753.177256
 21
154.676121
  0
LINE
  8
2
 10
-755.202256
 20
150.676121
 11
-755.202256
 21
154.185373
  0
ARC
  8
2
 10
-753.764756
 20
152.337418
 40
2.341227
 50
52.121121
 51
127.878879
  0
ARC
  8
2
 10
-758.077256
 20
146.053645
 40
8.625000
 50
70.528781
 51
109.471223
  0
LINE
  8
2
 10
-764.177256
 20
149.176121
 11
-764.177256
 21
150.676121
  0
LINE
  8
2
 10
-764.177256
 20
150.676121
 11
-751.977256
 21
150.676121
  0
LINE
  8
2
 10
-751.977256
 20
150.676121
 11
-751.977256
 21
149.176121
  0
LINE
  8
2
 10
-758.077256
 20
150.676121
 11
-757.577256
 21
149.176121
  0
LINE
  8
2
 10
-758.077256
 20
149.176121
 11
-758.577256
 21
150.676121
  0
LINE
  8
2
 10
-688.600998
 20
150.676121
 11
-688.600998
 21
154.185373
  0
LINE
  8
2
 10
-688.600998
 20
154.185373
 11
-687.750998
 21
154.676121
  0
LINE
  8
2
 10
-685.725998
 20
150.676121
 11
-685.725998
 21
154.185373
  0
ARC
  8
2
 10
-687.163498
 20
152.337418
 40
2.341227
 50
52.121121
 51
127.878879
  0
ARC
  8
2
 10
-682.850998
 20
146.053645
 40
8.625000
 50
70.528781
 51
109.471223
  0
LINE
  8
2
 10
-677.100998
 20
150.676121
 11
-677.100998
 21
154.185373
  0
LINE
  8
2
 10
-677.100998
 20
154.185373
 11
-677.950998
 21
154.676121
  0
LINE
  8
2
 10
-677.950998
 20
154.676121
 11
-687.750998
 21
154.676121
  0
LINE
  8
2
 10
-679.975998
 20
150.676121
 11
-679.975998
 21
154.185373
  0
ARC
  8
2
 10
-678.538498
 20
152.337418
 40
2.341227
 50
52.121121
 51
127.878879
  0
LINE
  8
2
 10
-688.950998
 20
149.176121
 11
-688.950998
 21
150.676121
  0
LINE
  8
2
 10
-688.950998
 20
150.676121
 11
-676.750998
 21
150.676121
  0
LINE
  8
2
 10
-676.750998
 20
150.676121
 11
-676.750998
 21
149.176121
  0
LINE
  8
2
 10
-682.850998
 20
150.676121
 11
-682.350998
 21
149.176121
  0
LINE
  8
2
 10
-682.850998
 20
149.176121
 11
-683.350998
 21
150.676121
  0
LINE
  8
2
 10
-445.670253
 20
107.676121
 11
-441.270253
 21
107.676121
  0
LINE
  8
2
 10
-445.670253
 20
91.676121
 11
-441.270253
 21
91.676121
  0
LINE
  8
2
 10
-451.270253
 20
110.526121
 11
-445.670253
 21
110.526121
  0
LINE
  8
2
 10
-445.670253
 20
110.526121
 11
-445.670253
 21
83.963432
  0
LINE
  8
2
  6
CENTER
 62
2
 10
-381.273012
 20
91.676121
 11
-995.508669
 21
91.676121
  0
LINE
  8
2
 10
-411.270253
 20
313.298897
 11
-411.270253
 21
-129.946656
  0
LINE
  8
2
 10
-441.270253
 20
313.298897
 11
-441.270253
 21
-129.946656
  0
ARC
  8
2
 10
-426.270253
 20
281.676121
 40
35.000000
 50
64.623066
 51
115.376934
  0
ARC
  8
2
 10
-426.270253
 20
-98.323879
 40
35.000000
 50
244.623066
 51
295.376934
  0
LINE
  8
2
 10
-451.270253
 20
121.676121
 11
-451.270253
 21
89.754726
  0
LINE
  8
2
 10
-491.270253
 20
121.676121
 11
-491.270253
 21
61.676121
  0
ARC
  8
2
 10
-471.270253
 20
90.398934
 40
35.000000
 50
235.150095
 51
268.089682
  0
LINE
  8
2
 10
-482.270253
 20
52.451602
 11
-482.270253
 21
40.662038
  0
LINE
  8
2
 10
-460.270253
 20
43.780638
 11
-460.270253
 21
40.662038
  0
LINE
  8
2
 10
-441.270253
 20
-16.362355
 11
-448.212539
 21
-4.337962
  0
ARC
  8
2
 10
-370.270253
 20
40.662038
 40
90.000000
 50
180.000000
 51
210.000000
  0
LINE
  8
2
 10
-442.380526
 20
-58.439307
 11
-467.265098
 21
-15.337962
  0
ARC
  8
2
 10
-489.270253
 20
52.451602
 40
7.000000
 50
0.000000
 51
64.623066
  0
ARC
  8
2
 10
-370.270253
 20
40.662038
 40
112.000000
 50
180.000000
 51
210.000000
  0
ARC
  8
2
 10
-501.270253
 20
-92.439307
 40
68.000000
 50
28.072487
 51
30.000000
  0
LINE
  8
2
 10
-458.724040
 20
110.643525
 11
-441.270253
 21
156.543972
  0
LINE
  8
2
 10
-480.554540
 20
111.089280
 11
-441.270253
 21
214.400175
  0
LINE
  8
2
 10
-481.868441
 20
128.774936
 11
-441.270253
 21
233.593163
  0
ARC
  8
2
 10
-488.395928
 20
131.303161
 40
7.000000
 50
294.063832
 51
338.827621
  0
ARC
  8
2
 10
-487.097475
 20
113.577251
 40
7.000000
 50
270.000000
 51
339.180539
  0
ARC
  8
2
 10
-455.919925
 20
109.577251
 40
3.000000
 50
159.180539
 51
270.000000
  0
ARC
  8
2
 10
-471.270253
 20
92.953308
 40
35.000000
 50
55.150095
 51
60.239761
  0
ARC
  8
2
 10
-471.270253
 20
92.953308
 40
35.000000
 50
114.063832
 51
124.849905
  0
LINE
  8
2
 10
-456.991969
 20
95.671892
 11
-441.270253
 21
79.413131
  0
LINE
  8
2
 10
-480.206684
 20
96.928102
 11
-441.270253
 21
56.661622
  0
LINE
  8
2
 10
-480.240495
 20
62.882618
 11
-441.270253
 21
25.606716
  0
ARC
  8
2
 10
-485.079055
 20
57.824126
 40
7.000000
 50
46.273016
 51
90.000000
  0
ARC
  8
2
 10
-485.238843
 20
92.062161
 40
7.000000
 50
44.037927
 51
90.000000
  0
ARC
  8
2
 10
-455.554209
 20
97.062161
 40
2.000000
 50
90.000000
 51
224.037927
  0
LINE
  8
2
 10
-668.896060
 20
111.676121
 11
-668.896060
 21
71.676121
  0
ARC
  8
2
 10
-665.896060
 20
114.676121
 40
3.000000
 50
180.000000
 51
270.000000
  0
ARC
  8
2
 10
-665.896060
 20
68.676121
 40
3.000000
 50
90.000000
 51
180.000000
  0
LINE
  8
2
 10
-872.609999
 20
106.676121
 11
-889.930507
 21
106.676121
  0
LINE
  8
2
 10
-872.609999
 20
76.676121
 11
-889.930507
 21
76.676121
  0
LINE
  8
2
 10
-889.930507
 20
106.676121
 11
-898.590761
 21
91.676121
  0
LINE
  8
2
 10
-863.949745
 20
91.676121
 11
-872.609999
 21
76.676121
  0
LINE
  8
2
 10
-898.590761
 20
91.676121
 11
-889.930507
 21
76.676121
  0
LINE
  8
2
 10
-872.609999
 20
106.676121
 11
-863.949745
 21
91.676121
  0
LINE
  8
2
 10
-732.609999
 20
106.676121
 11
-749.930507
 21
106.676121
  0
LINE
  8
2
 10
-732.609999
 20
76.676121
 11
-749.930507
 21
76.676121
  0
LINE
  8
2
 10
-749.930507
 20
106.676121
 11
-758.590761
 21
91.676121
  0
LINE
  8
2
 10
-723.949745
 20
91.676121
 11
-732.609999
 21
76.676121
  0
LINE
  8
2
 10
-758.590761
 20
91.676121
 11
-749.930507
 21
76.676121
  0
LINE
  8
2
 10
-732.609999
 20
106.676121
 11
-723.949745
 21
91.676121
  0
LINE
  8
2
 10
-636.770253
 20
139.176121
 11
-636.770253
 21
44.176121
  0
LINE
  8
2
 10
-636.770253
 20
139.176121
 11
-957.270253
 21
139.176121
  0
LINE
  8
2
 10
-636.770253
 20
44.176121
 11
-665.270253
 21
44.176121
  0
LINE
  8
2
 10
-634.270253
 20
74.359616
 11
-634.270253
 21
55.959616
  0
LINE
  8
2
 10
-634.270253
 20
55.959616
 11
-636.770253
 21
55.959616
  0
LINE
  8
2
 10
-634.270253
 20
108.992625
 11
-634.270253
 21
127.392625
  0
LINE
  8
2
 10
-634.270253
 20
127.392625
 11
-636.770253
 21
127.392625
  0
LINE
  8
2
 10
-634.270253
 20
74.359616
 11
-636.770253
 21
74.359616
  0
LINE
  8
2
 10
-634.270253
 20
108.992625
 11
-636.770253
 21
108.992625
  0
LINE
  8
2
  6
CENTER
 62
2
 10
441.629747
 20
151.634027
 11
441.629747
 21
28.158136
  0
LINE
  8
2
 10
155.629747
 20
138.676121
 11
434.755883
 21
138.676121
  0
LINE
  8
2
 10
160.629747
 20
31.676121
 11
442.629747
 21
31.676121
  0
LINE
  8
2
 10
431.629747
 20
28.676121
 11
431.629747
 21
26.676121
  0
LINE
  8
2
 10
171.629747
 20
28.676121
 11
171.629747
 21
26.676121
  0
ARC
  8
2
 10
434.629747
 20
28.676121
 40
3.000000
 50
90.000000
 51
180.000000
  0
ARC
  8
2
 10
168.629747
 20
28.676121
 40
3.000000
 50
0.000000
 51
90.000000
  0
ARC
  8
2
 10
442.629747
 20
36.676121
 40
5.000000
 50
270.000000
 51
360.000000
  0
ARC
  8
2
 10
160.629747
 20
36.676121
 40
5.000000
 50
180.000000
 51
270.000000
  0
LINE
  8
2
 10
155.629747
 20
139.176121
 11
447.629747
 21
139.176121
  0
LINE
  8
2
 10
158.629747
 20
149.176121
 11
444.629747
 21
149.176121
  0
ARC
  8
2
 10
444.629747
 20
146.176121
 40
3.000000
 50
0.000000
 51
90.000000
  0
ARC
  8
2
 10
158.629747
 20
146.176121
 40
3.000000
 50
90.000000
 51
180.000000
  0
LINE
  8
2
 10
447.629747
 20
36.676121
 11
447.629747
 21
44.556592
  0
LINE
  8
2
 10
447.629747
 20
138.795650
 11
447.629747
 21
146.176121
  0
CIRCLE
  8
2
 10
441.629747
 20
91.676121
 40
18.000000
  0
LINE
  8
2
 10
154.629747
 20
111.676121
 11
154.629747
 21
71.676121
  0
LINE
  8
2
 10
154.629747
 20
111.676121
 11
188.652747
 21
111.676121
  0
LINE
  8
2
 10
154.629747
 20
71.676121
 11
188.652747
 21
71.676121
  0
LINE
  8
2
 10
155.629747
 20
36.676121
 11
155.629747
 21
71.676121
  0
LINE
  8
2
 10
155.629747
 20
111.676121
 11
155.629747
 21
146.176121
  0
LINE
  8
2
 10
271.629747
 20
111.676121
 11
331.629747
 21
111.676121
  0
LINE
  8
2
 10
271.629747
 20
71.676121
 11
331.629747
 21
71.676121
  0
LINE
  8
2
 10
331.629747
 20
111.676121
 11
331.629747
 21
71.676121
  0
LINE
  8
2
 10
271.629747
 20
111.676121
 11
271.629747
 21
71.676121
  0
LINE
  8
2
  6
CENTER
 62
2
 10
404.845381
 20
54.891755
 11
424.703749
 21
74.750123
  0
LINE
  8
2
  6
CENTER
 62
2
 10
459.046477
 20
109.092851
 11
477.659682
 21
127.706056
  0
LINE
  8
2
  6
CENTER
 62
2
 10
404.872903
 20
128.432965
 11
424.862435
 21
108.443432
  0
LINE
  8
2
  6
CENTER
 62
2
 10
458.942956
 20
74.362912
 11
478.604760
 21
54.701108
  0
ARC
  8
2
  6
CENTER
 62
2
 10
441.629747
 20
91.676121
 40
37.500000
 50
23.555798
 51
65.957967
  0
ARC
  8
2
  6
CENTER
 62
2
 10
441.629747
 20
91.676121
 40
37.500000
 50
295.074991
 51
335.513736
  0
ARC
  8
2
  6
CENTER
 62
2
 10
441.629747
 20
91.676121
 40
37.500000
 50
115.221785
 51
155.827674
  0
ARC
  8
2
  6
CENTER
 62
2
 10
441.629747
 20
91.676121
 40
37.500000
 50
203.268920
 51
246.258966
  0
LINE
  8
2
 10
253.436750
 20
151.676121
 11
349.822744
 21
151.676121
  0
LINE
  8
2
 10
237.111457
 20
157.676121
 11
358.629747
 21
157.676121
  0
LINE
  8
2
 10
358.629747
 20
157.676121
 11
358.629747
 21
154.676121
  0
LINE
  8
2
 10
237.111457
 20
157.676121
 11
237.111457
 21
152.676121
  0
LINE
  8
2
 10
237.111457
 20
152.676121
 11
243.436750
 21
152.676121
  0
LINE
  8
2
 10
253.436750
 20
152.676121
 11
349.822744
 21
152.676121
  0
LINE
  8
2
  6
CENTER
 62
2
 10
329.914018
 20
169.288049
 11
329.914018
 21
143.804407
  0
LINE
  8
2
  6
CENTER
 62
2
 10
273.345476
 20
143.804407
 11
273.345476
 21
169.288049
  0
LINE
  8
2
  6
CENTER
 62
2
 10
173.210492
 20
161.883874
 11
173.210492
 21
134.015283
  0
LINE
  8
2
  6
CENTER
 62
2
 10
430.049002
 20
134.015283
 11
430.049002
 21
161.883874
  0
LINE
  8
2
  6
CENTER
 62
2
 10
354.822744
 20
161.883874
 11
354.822744
 21
134.015283
  0
LINE
  8
2
  6
CENTER
 62
2
 10
248.436750
 20
134.015283
 11
248.436750
 21
161.883874
  0
LINE
  8
2
  6
CENTER
 62
2
 10
569.785070
 20
91.676121
 11
85.239431
 21
91.676121
  0
LINE
  8
2
 10
336.164018
 20
159.276121
 11
336.164018
 21
157.676121
  0
LINE
  8
2
 10
323.664018
 20
159.276121
 11
323.664018
 21
157.676121
  0
LINE
  8
2
 10
323.664018
 20
159.276121
 11
336.164018
 21
159.276121
  0
LINE
  8
2
 10
324.914018
 20
159.276121
 11
324.914018
 21
163.276121
  0
LINE
  8
2
 10
324.914018
 20
163.276121
 11
334.914018
 21
163.276121
  0
ARC
  8
2
 10
327.414018
 20
156.662913
 40
6.613208
 50
67.788205
 51
112.211795
  0
LINE
  8
2
 10
334.914018
 20
159.276121
 11
334.914018
 21
163.276121
  0
LINE
  8
2
 10
329.914018
 20
159.276121
 11
329.914018
 21
162.785373
  0
ARC
  8
2
 10
332.414018
 20
156.662913
 40
6.613208
 50
67.788205
 51
112.211795
  0
LINE
  8
2
 10
279.595476
 20
159.276121
 11
279.595476
 21
157.676121
  0
LINE
  8
2
 10
267.095476
 20
159.276121
 11
267.095476
 21
157.676121
  0
LINE
  8
2
 10
267.095476
 20
159.276121
 11
279.595476
 21
159.276121
  0
LINE
  8
2
 10
268.345476
 20
159.276121
 11
268.345476
 21
163.276121
  0
LINE
  8
2
 10
268.345476
 20
163.276121
 11
278.345476
 21
163.276121
  0
ARC
  8
2
 10
270.845476
 20
156.662913
 40
6.613208
 50
67.788205
 51
112.211795
  0
LINE
  8
2
 10
278.345476
 20
159.276121
 11
278.345476
 21
163.276121
  0
LINE
  8
2
 10
273.345476
 20
159.276121
 11
273.345476
 21
162.785373
  0
ARC
  8
2
 10
275.845476
 20
156.662913
 40
6.613208
 50
67.788205
 51
112.211795
  0
LINE
  8
2
 10
168.210492
 20
150.676121
 11
168.210492
 21
154.676121
  0
ARC
  8
2
 10
170.710492
 20
148.062913
 40
6.613208
 50
67.788205
 51
112.211795
  0
LINE
  8
2
 10
178.210492
 20
150.676121
 11
178.210492
 21
154.676121
  0
LINE
  8
2
 10
178.210492
 20
154.676121
 11
168.210492
 21
154.676121
  0
LINE
  8
2
 10
173.210492
 20
150.676121
 11
173.210492
 21
154.185373
  0
ARC
  8
2
 10
175.710492
 20
148.062913
 40
6.613208
 50
67.788205
 51
112.211795
  0
LINE
  8
2
 10
167.110492
 20
149.176121
 11
167.110492
 21
150.676121
  0
LINE
  8
2
 10
167.110492
 20
150.676121
 11
179.310492
 21
150.676121
  0
LINE
  8
2
 10
179.310492
 20
150.676121
 11
179.310492
 21
149.176121
  0
LINE
  8
2
 10
243.436750
 20
150.676121
 11
243.436750
 21
154.676121
  0
ARC
  8
2
 10
245.936750
 20
148.062913
 40
6.613208
 50
67.788205
 51
112.211795
  0
LINE
  8
2
 10
253.436750
 20
150.676121
 11
253.436750
 21
154.676121
  0
LINE
  8
2
 10
253.436750
 20
154.676121
 11
243.436750
 21
154.676121
  0
LINE
  8
2
 10
248.436750
 20
150.676121
 11
248.436750
 21
154.185373
  0
ARC
  8
2
 10
250.936750
 20
148.062913
 40
6.613208
 50
67.788205
 51
112.211795
  0
LINE
  8
2
 10
242.336750
 20
149.176121
 11
242.336750
 21
150.676121
  0
LINE
  8
2
 10
242.336750
 20
150.676121
 11
254.536750
 21
150.676121
  0
LINE
  8
2
 10
254.536750
 20
150.676121
 11
254.536750
 21
149.176121
  0
LINE
  8
2
 10
349.822744
 20
150.676121
 11
349.822744
 21
154.676121
  0
ARC
  8
2
 10
352.322744
 20
148.062913
 40
6.613208
 50
67.788205
 51
112.211795
  0
LINE
  8
2
 10
359.822744
 20
150.676121
 11
359.822744
 21
154.676121
  0
LINE
  8
2
 10
359.822744
 20
154.676121
 11
349.822744
 21
154.676121
  0
LINE
  8
2
 10
354.822744
 20
150.676121
 11
354.822744
 21
154.185373
  0
ARC
  8
2
 10
357.322744
 20
148.062913
 40
6.613208
 50
67.788205
 51
112.211795
  0
LINE
  8
2
 10
348.722744
 20
149.176121
 11
348.722744
 21
150.676121
  0
LINE
  8
2
 10
348.722744
 20
150.676121
 11
360.922744
 21
150.676121
  0
LINE
  8
2
 10
360.922744
 20
150.676121
 11
360.922744
 21
149.176121
  0
LINE
  8
2
 10
425.049002
 20
150.676121
 11
425.049002
 21
154.676121
  0
ARC
  8
2
 10
427.549002
 20
148.062913
 40
6.613208
 50
67.788205
 51
112.211795
  0
LINE
  8
2
 10
435.049002
 20
150.676121
 11
435.049002
 21
154.676121
  0
LINE
  8
2
 10
435.049002
 20
154.676121
 11
425.049002
 21
154.676121
  0
LINE
  8
2
 10
430.049002
 20
150.676121
 11
430.049002
 21
154.185373
  0
ARC
  8
2
 10
432.549002
 20
148.062913
 40
6.613208
 50
67.788205
 51
112.211795
  0
LINE
  8
2
 10
423.949002
 20
149.176121
 11
423.949002
 21
150.676121
  0
LINE
  8
2
 10
423.949002
 20
150.676121
 11
436.149002
 21
150.676121
  0
LINE
  8
2
 10
436.149002
 20
150.676121
 11
436.149002
 21
149.176121
  0
ARC
  8
2
 10
468.146251
 20
118.192625
 40
9.200000
 50
127.505018
 51
172.494982
  0
ARC
  8
2
 10
468.146251
 20
118.192625
 40
9.200000
 50
67.505018
 51
112.494982
  0
ARC
  8
2
 10
468.146251
 20
118.192625
 40
9.200000
 50
7.505018
 51
52.494982
  0
ARC
  8
2
 10
468.146251
 20
118.192625
 40
9.200000
 50
307.505018
 51
352.494982
  0
ARC
  8
2
 10
468.146251
 20
118.192625
 40
9.200000
 50
247.505018
 51
292.494982
  0
ARC
  8
2
 10
468.146251
 20
118.192625
 40
9.200000
 50
187.505018
 51
232.494982
  0
LINE
  8
2
 10
151.629747
 20
110.176121
 11
151.629747
 21
73.176121
  0
LINE
  8
2
 10
151.629747
 20
110.176121
 11
154.629747
 21
110.176121
  0
LINE
  8
2
 10
151.629747
 20
73.176121
 11
154.629747
 21
73.176121
  0
LINE
  8
2
 10
116.629747
 20
106.676121
 11
116.629747
 21
76.676121
  0
LINE
  8
2
 10
116.629747
 20
76.676121
 11
103.629747
 21
76.676121
  0
LINE
  8
2
 10
103.629747
 20
76.676121
 11
103.629747
 21
106.676121
  0
ARC
  8
2
 10
121.835869
 20
84.176121
 40
18.206122
 50
155.672652
 51
204.327348
  0
LINE
  8
2
 10
135.629747
 20
81.676121
 11
116.629747
 21
81.676121
  0
LINE
  8
2
 10
125.276747
 20
101.676121
 11
125.276747
 21
81.676121
  0
LINE
  8
2
 62
2
 10
135.629747
 20
83.029121
 11
125.276747
 21
83.029121
  0
LINE
  8
2
 62
2
 10
125.276747
 20
83.029121
 11
116.629747
 21
81.676121
  0
LINE
  8
2
 10
116.629747
 20
106.676121
 11
103.629747
 21
106.676121
  0
LINE
  8
2
 10
116.629747
 20
91.676121
 11
105.246328
 21
91.676121
  0
ARC
  8
2
 10
121.835869
 20
99.176121
 40
18.206122
 50
155.672652
 51
204.327348
  0
LINE
  8
2
 10
135.629747
 20
101.676121
 11
116.629747
 21
101.676121
  0
LINE
  8
2
 62
2
 10
135.629747
 20
100.323121
 11
125.276747
 21
100.323121
  0
LINE
  8
2
 62
2
 10
125.276747
 20
100.323121
 11
116.629747
 21
101.676121
  0
LINE
  8
2
 10
151.629747
 20
76.676121
 11
135.629747
 21
76.676121
  0
LINE
  8
2
 10
135.629747
 20
76.676121
 11
135.629747
 21
106.676121
  0
ARC
  8
2
 10
153.835869
 20
84.176121
 40
18.206122
 50
155.672652
 51
204.327348
  0
LINE
  8
2
 10
151.629747
 20
106.676121
 11
135.629747
 21
106.676121
  0
LINE
  8
2
 10
151.629747
 20
91.676121
 11
137.246328
 21
91.676121
  0
ARC
  8
2
 10
153.835869
 20
99.176121
 40
18.206122
 50
155.672652
 51
204.327348
  0
CIRCLE
  8
2
  6
PHANTOM
 62
2
 10
441.629747
 20
91.676121
 40
225.000000
  0
LINE
  8
2
 10
191.652747
 20
111.676121
 11
191.652747
 21
71.676121
  0
ARC
  8
2
 10
188.652747
 20
114.676121
 40
3.000000
 50
270.000000
 51
360.000000
  0
ARC
  8
2
 10
188.652747
 20
68.676121
 40
3.000000
 50
0.000000
 51
90.000000
  0
LINE
  8
2
 10
463.238774
 20
126.692625
 11
473.053729
 21
126.692625
  0
LINE
  8
2
 10
463.238774
 20
109.692625
 11
473.053729
 21
109.692625
  0
LINE
  8
2
 10
458.331297
 20
118.192625
 11
463.238774
 21
126.692625
  0
LINE
  8
2
 10
473.053729
 20
109.692625
 11
477.961206
 21
118.192625
  0
LINE
  8
2
 10
463.238774
 20
109.692625
 11
458.331297
 21
118.192625
  0
LINE
  8
2
 10
477.961206
 20
118.192625
 11
473.053729
 21
126.692625
  0
CIRCLE
  8
2
 10
468.146251
 20
118.192625
 40
8.250000
  0
ARC
  8
2
 10
415.113243
 20
118.192625
 40
9.200000
 50
127.505018
 51
172.494982
  0
ARC
  8
2
 10
415.113243
 20
118.192625
 40
9.200000
 50
67.505018
 51
112.494982
  0
ARC
  8
2
 10
415.113243
 20
118.192625
 40
9.200000
 50
7.505018
 51
52.494982
  0
ARC
  8
2
 10
415.113243
 20
118.192625
 40
9.200000
 50
307.505018
 51
352.494982
  0
ARC
  8
2
 10
415.113243
 20
118.192625
 40
9.200000
 50
247.505018
 51
292.494982
  0
ARC
  8
2
 10
415.113243
 20
118.192625
 40
9.200000
 50
187.505018
 51
232.494982
  0
LINE
  8
2
 10
410.205765
 20
126.692625
 11
420.020720
 21
126.692625
  0
LINE
  8
2
 10
410.205765
 20
109.692625
 11
420.020720
 21
109.692625
  0
LINE
  8
2
 10
405.298288
 20
118.192625
 11
410.205765
 21
126.692625
  0
LINE
  8
2
 10
420.020720
 20
109.692625
 11
424.928197
 21
118.192625
  0
LINE
  8
2
 10
410.205765
 20
109.692625
 11
405.298288
 21
118.192625
  0
LINE
  8
2
 10
424.928197
 20
118.192625
 11
420.020720
 21
126.692625
  0
CIRCLE
  8
2
 10
415.113243
 20
118.192625
 40
8.250000
  0
ARC
  8
2
 10
415.113243
 20
65.159616
 40
9.200000
 50
127.505018
 51
172.494982
  0
ARC
  8
2
 10
415.113243
 20
65.159616
 40
9.200000
 50
67.505018
 51
112.494982
  0
ARC
  8
2
 10
415.113243
 20
65.159616
 40
9.200000
 50
7.505018
 51
52.494982
  0
ARC
  8
2
 10
415.113243
 20
65.159616
 40
9.200000
 50
307.505018
 51
352.494982
  0
ARC
  8
2
 10
415.113243
 20
65.159616
 40
9.200000
 50
247.505018
 51
292.494982
  0
ARC
  8
2
 10
415.113243
 20
65.159616
 40
9.200000
 50
187.505018
 51
232.494982
  0
LINE
  8
2
 10
410.205765
 20
73.659616
 11
420.020720
 21
73.659616
  0
LINE
  8
2
 10
410.205765
 20
56.659616
 11
420.020720
 21
56.659616
  0
LINE
  8
2
 10
405.298288
 20
65.159616
 11
410.205765
 21
73.659616
  0
LINE
  8
2
 10
420.020720
 20
56.659616
 11
424.928197
 21
65.159616
  0
LINE
  8
2
 10
410.205765
 20
56.659616
 11
405.298288
 21
65.159616
  0
LINE
  8
2
 10
424.928197
 20
65.159616
 11
420.020720
 21
73.659616
  0
CIRCLE
  8
2
 10
415.113243
 20
65.159616
 40
8.250000
  0
ARC
  8
2
 10
468.146251
 20
65.159616
 40
9.200000
 50
127.505018
 51
172.494982
  0
ARC
  8
2
 10
468.146251
 20
65.159616
 40
9.200000
 50
67.505018
 51
112.494982
  0
ARC
  8
2
 10
468.146251
 20
65.159616
 40
9.200000
 50
7.505018
 51
52.494982
  0
ARC
  8
2
 10
468.146251
 20
65.159616
 40
9.200000
 50
307.505018
 51
352.494982
  0
ARC
  8
2
 10
468.146251
 20
65.159616
 40
9.200000
 50
247.505018
 51
292.494982
  0
ARC
  8
2
 10
468.146251
 20
65.159616
 40
9.200000
 50
187.505018
 51
232.494982
  0
LINE
  8
2
 10
463.238774
 20
73.659616
 11
473.053729
 21
73.659616
  0
LINE
  8
2
 10
463.238774
 20
56.659616
 11
473.053729
 21
56.659616
  0
LINE
  8
2
 10
458.331297
 20
65.159616
 11
463.238774
 21
73.659616
  0
LINE
  8
2
 10
473.053729
 20
56.659616
 11
477.961206
 21
65.159616
  0
LINE
  8
2
 10
463.238774
 20
56.659616
 11
458.331297
 21
65.159616
  0
LINE
  8
2
 10
477.961206
 20
65.159616
 11
473.053729
 21
73.659616
  0
CIRCLE
  8
2
 10
468.146251
 20
65.159616
 40
8.250000
  0
LINE
  8
2
 10
486.129747
 20
75.062873
 11
486.129747
 21
108.289368
  0
ARC
  8
2
 10
441.629747
 20
91.676121
 40
47.500000
 50
19.684594
 51
340.315406
  0
LINE
  8
2
 10
519.629747
 20
103.523111
 11
519.629747
 21
79.829130
  0
LINE
  8
2
 10
492.129747
 20
75.676121
 11
492.129747
 21
107.676121
  0
LINE
  8
2
 10
501.129747
 20
107.676121
 11
486.129747
 21
107.676121
  0
LINE
  8
2
 10
501.129747
 20
75.676121
 11
486.129747
 21
75.676121
  0
LINE
  8
2
 10
501.129747
 20
75.676121
 11
501.129747
 21
107.676121
  0
LINE
  8
2
 10
532.771168
 20
102.798775
 11
520.771168
 21
104.513061
  0
LINE
  8
2
 10
532.771168
 20
80.553467
 11
520.771168
 21
78.839181
  0
LINE
  8
2
 10
550.694188
 20
95.675602
 11
519.629747
 21
96.176121
  0
LINE
  8
2
 10
550.694188
 20
87.676640
 11
519.629747
 21
87.176121
  0
ARC
  8
2
 10
550.629747
 20
91.676121
 40
4.000000
 50
270.923086
 51
89.076914
  0
LINE
  8
2
 10
533.629747
 20
81.543416
 11
533.629747
 21
87.401693
  0
LINE
  8
2
 10
533.629747
 20
95.950549
 11
533.629747
 21
101.808825
  0
ARC
  8
2
 10
532.629747
 20
101.808825
 40
1.000000
 50
0.000000
 51
81.869898
  0
ARC
  8
2
 10
520.629747
 20
103.523111
 40
1.000000
 50
81.869898
 51
180.000000
  0
ARC
  8
2
 10
520.629747
 20
79.829130
 40
1.000000
 50
180.000000
 51
278.130102
  0
ARC
  8
2
 10
532.629747
 20
81.543416
 40
1.000000
 50
278.130102
 51
360.000000
  0
LINE
  8
2
 10
501.129747
 20
99.676121
 11
519.629747
 21
99.676121
  0
LINE
  8
2
 62
2
 10
501.129747
 20
98.593621
 11
515.629747
 21
98.593621
  0
LINE
  8
2
 62
2
 10
515.629747
 20
98.593621
 11
519.629747
 21
99.676121
  0
LINE
  8
2
 10
501.129747
 20
83.676121
 11
519.629747
 21
83.676121
  0
LINE
  8
2
 10
515.629747
 20
83.676121
 11
515.629747
 21
99.676121
  0
LINE
  8
2
 62
2
 10
501.129747
 20
84.758621
 11
515.629747
 21
84.758621
  0
LINE
  8
2
 62
2
 10
515.629747
 20
84.758621
 11
519.629747
 21
83.676121
  0
DIMENSION
  8
5
  2
*D0
 10
-411.270253
 20
1000.321411
 11
-611.270253
 21
1017.521411
 70
0
  1
400
 13
-811.270253
 23
809.660824
 14
-411.270253
 24
955.198897
 50
0.000000
  0
DIMENSION
  8
5
  2
*D1
 10
-283.579559
 20
-133.323879
 11
-324.539559
 21
81.116121
 70
1
  1
%%c450
 13
-426.270253
 23
316.676121
 14
-426.270253
 24
-133.323879
 50
270.000000
  0
DIMENSION
  8
5
  2
*D2
 10
24.288155
 20
91.676121
 11
1.808155
 21
138.076121
 70
0
  1
65
 13
171.629747
 23
26.676121
 14
85.239431
 24
91.676121
 50
90.000000
  0
DIMENSION
  8
5
  2
*D3
 10
378.129747
 20
-1077.926636
 11
301.629747
 21
-1060.726636
 70
0
  1
153
 13
225.129747
 23
-916.323879
 14
378.129747
 24
-916.323879
 50
0.000000
  0
DIMENSION
  8
5
  2
*D4
 10
24.288155
 20
-503.323879
 11
-7.431845
 21
-751.643879
 70
0
  1
494
 13
292.982747
 23
-997.323879
 14
165.760803
 24
-503.323879
 50
90.000000
  0
DIMENSION
  8
5
  2
*D5
 10
24.288155
 20
26.676121
 11
-7.431845
 21
-239.643879
 70
0
  1
530
 13
165.760803
 23
-503.323879
 14
171.629747
 24
26.676121
 50
90.000000
  0
DIMENSION
  8
5
  2
*D6
 10
-283.579559
 20
733.576121
 11
-315.299559
 21
662.256121
 70
0
  1
140
 13
-353.665680
 23
593.576121
 14
-381.273012
 24
733.576121
 50
90.000000
  0
DIMENSION
  8
5
  2
*D7
 10
-283.579559
 20
593.576121
 11
-315.299559
 21
493.256121
 70
0
  1
198
 13
-726.770253
 23
395.576121
 14
-353.665680
 24
593.576121
 50
90.000000
  0
TEXT
  8
18
 10
977.157043
 20
-1066.111938
 40
24.000000
  1
１
 50
0.000000
  0
TEXT
  8
18
 10
1012.329834
 20
-1096.808105
 40
24.000000
  1
８
 50
0.000000
  0
LINE
  8
18
 10
549.389343
 20
920.740784
 11
549.389343
 21
640.740784
  0
LINE
  8
18
 10
1445.389343
 20
720.740784
 11
549.389343
 21
720.740784
  0
LINE
  8
18
 10
1445.389343
 20
680.740784
 11
549.389343
 21
680.740784
  0
LINE
  8
18
 10
1445.389343
 20
640.740784
 11
549.389343
 21
640.740784
  0
LINE
  8
18
 10
773.389343
 20
920.740784
 11
773.389343
 21
680.740784
  0
LINE
  8
18
 10
997.389343
 20
920.740784
 11
997.389343
 21
680.740784
  0
LINE
  8
18
 10
1221.389343
 20
920.740784
 11
1221.389343
 21
680.740784
  0
LINE
  8
18
 10
1445.389343
 20
920.740784
 11
1445.389343
 21
640.740784
  0
LINE
  8
18
 10
549.389343
 20
920.740784
 11
1445.389343
 21
920.740784
  0
POLYLINE
  8
18
 62
2
 66
1
 70
0
 40
0.000000
 41
0.000000
  0
VERTEX
  8
18
 62
2
 10
653.147964
 20
791.721513
 40
0.000000
 41
0.000000
 42
0.000000
 70
0
  0
VERTEX
  8
18
 62
2
 10
653.147964
 20
755.417306
 40
0.000000
 41
0.000000
 42
0.000000
 70
0
  0
SEQEND
  8
18
 62
2
  0
LINE
  8
18
 62
2
 10
653.147964
 20
776.266700
 11
657.289069
 21
776.266700
  0
LINE
  8
18
 62
2
 10
657.289069
 20
776.266700
 11
653.147964
 21
791.721513
  0
LINE
  8
18
 62
2
 10
653.147964
 20
791.721513
 11
649.006860
 21
776.266700
  0
LINE
  8
18
 62
2
 10
649.006860
 20
776.266700
 11
653.147964
 21
776.266700
  0
TEXT
  8
18
 10
646.435242
 20
690.163818
 40
24.000000
  1
Ａ
 50
0.000000
  0
TEXT
  8
18
 10
870.339661
 20
689.522583
 40
24.000000
  1
Ｂ
 50
0.000000
  0
TEXT
  8
18
 10
1094.435242
 20
690.163818
 40
24.000000
  1
Ｃ
 50
0.000000
  0
TEXT
  8
18
 10
869.057251
 20
649.308556
 40
24.000000
  1
アクチュエ－タ取付方向
 50
0.000000
  0
TEXT
  8
18
 10
1318.435242
 20
690.163818
 40
24.000000
  1
Ｄ
 50
0.000000
  0
TEXT
  8
18
 10
616.128499
 20
724.534284
 40
24.000000
  1
一次側
 50
0.000000
  0
TEXT
  8
18
 10
616.128499
 20
889.105713
 40
24.000000
  1
二次側
 50
0.000000
  0
LINE
  8
18
  6
CENTER
 62
2
 10
604.717126
 20
836.861536
 11
700.145837
 21
836.861536
  0
LINE
  8
18
  6
CENTER
 62
2
 10
652.863611
 20
881.254871
 11
652.863611
 21
803.000623
  0
LINE
  8
18
 10
694.463611
 20
848.381536
 11
694.463611
 21
825.341536
  0
LINE
  8
18
 10
611.263611
 20
848.381536
 11
611.263611
 21
825.341536
  0
LINE
  8
18
 10
707.681018
 20
882.221511
 11
707.681018
 21
845.101511
  0
LINE
  8
18
 10
715.361018
 20
882.221511
 11
715.361018
 21
845.101511
  0
LINE
  8
18
 10
612.543611
 20
849.661536
 11
630.693361
 21
849.661536
  0
LINE
  8
18
 10
675.033861
 20
849.661536
 11
693.183611
 21
849.661536
  0
LINE
  8
18
 10
612.543611
 20
824.061536
 11
630.693361
 21
824.061536
  0
LINE
  8
18
 10
675.033861
 20
824.061536
 11
693.183611
 21
824.061536
  0
ARC
  8
18
 10
711.521018
 20
882.221511
 40
3.840000
 50
0.000000
 51
180.000000
  0
ARC
  8
18
 10
711.521018
 20
845.101511
 40
3.840000
 50
180.000000
 51
360.000000
  0
ARC
  8
18
 10
612.543611
 20
848.381536
 40
1.280000
 50
90.000000
 51
180.000000
  0
ARC
  8
18
 10
612.543611
 20
825.341536
 40
1.280000
 50
180.000000
 51
270.000000
  0
ARC
  8
18
 10
693.183611
 20
848.381536
 40
1.280000
 50
0.000000
 51
90.000000
  0
ARC
  8
18
 10
693.183611
 20
825.341536
 40
1.280000
 50
270.000000
 51
360.000000
  0
LINE
  8
18
 10
633.663611
 20
868.861536
 11
633.663611
 21
853.794344
  0
LINE
  8
18
 10
672.063611
 20
868.861536
 11
672.063611
 21
853.794344
  0
LINE
  8
18
 10
633.663611
 20
868.861536
 11
672.063611
 21
868.861536
  0
CIRCLE
  8
18
 10
652.863611
 20
836.861536
 40
25.600000
  0
LINE
  8
18
 10
672.063611
 20
865.661536
 11
707.732361
 21
865.661536
  0
LINE
  8
18
 10
672.063611
 20
861.501536
 11
707.732361
 21
861.501536
  0
LINE
  8
18
 10
639.069250
 20
823.067175
 11
635.674683
 21
819.672607
  0
LINE
  8
18
 10
656.026075
 20
829.513147
 11
642.094204
 21
823.517404
  0
LINE
  8
18
 10
645.501032
 20
839.990821
 11
639.568193
 21
826.032046
  0
ARC
  8
18
 10
641.335212
 20
825.281017
 40
1.920000
 50
156.973261
 51
293.285190
  0
ARC
  8
18
 10
652.863611
 20
836.861536
 40
8.000000
 50
293.285190
 51
156.973261
  0
LINE
  8
18
 10
666.657971
 20
823.067175
 11
670.052539
 21
819.672607
  0
TEXT
  8
18
 10
638.998782
 20
833.040227
 40
9.600000
  1
Ｓ
 50
180.000000
  0
TEXT
  8
18
 10
674.658767
 20
832.495164
 40
9.600000
  1
Ｏ
 50
180.000000
  0
LINE
  8
18
  6
CENTER
 62
2
 10
830.824252
 20
821.065538
 11
926.252963
 21
821.065538
  0
LINE
  8
18
  6
CENTER
 62
2
 10
878.970737
 20
859.472447
 11
878.970737
 21
787.204625
  0
LINE
  8
18
 10
920.570737
 20
832.585538
 11
920.570737
 21
809.545538
  0
LINE
  8
18
 10
837.370737
 20
832.585538
 11
837.370737
 21
809.545538
  0
LINE
  8
18
 10
924.330712
 20
766.248131
 11
887.210712
 21
766.248131
  0
LINE
  8
18
 10
924.330712
 20
758.568131
 11
887.210712
 21
758.568131
  0
LINE
  8
18
 10
838.650737
 20
833.865538
 11
856.800487
 21
833.865538
  0
LINE
  8
18
 10
910.970737
 20
833.865538
 11
919.290737
 21
833.865538
  0
LINE
  8
18
 10
838.650737
 20
808.265538
 11
856.800487
 21
808.265538
  0
LINE
  8
18
 10
910.970737
 20
808.265538
 11
919.290737
 21
808.265538
  0
ARC
  8
18
 10
924.330712
 20
762.408131
 40
3.840000
 50
270.000000
 51
90.000000
  0
ARC
  8
18
 10
887.210712
 20
762.408131
 40
3.840000
 50
90.000000
 51
270.000000
  0
ARC
  8
18
 10
838.650737
 20
832.585538
 40
1.280000
 50
90.000000
 51
180.000000
  0
ARC
  8
18
 10
838.650737
 20
809.545538
 40
1.280000
 50
180.000000
 51
270.000000
  0
ARC
  8
18
 10
919.290737
 20
832.585538
 40
1.280000
 50
0.000000
 51
90.000000
  0
ARC
  8
18
 10
919.290737
 20
809.545538
 40
1.280000
 50
270.000000
 51
360.000000
  0
LINE
  8
18
 10
910.970737
 20
840.265538
 11
895.903545
 21
840.265538
  0
LINE
  8
18
 10
910.970737
 20
801.865538
 11
895.903545
 21
801.865538
  0
LINE
  8
18
 10
910.970737
 20
840.265538
 11
910.970737
 21
801.865538
  0
CIRCLE
  8
18
 10
878.970737
 20
821.065538
 40
25.600000
  0
LINE
  8
18
 10
907.770737
 20
801.865538
 11
907.770737
 21
766.196788
  0
LINE
  8
18
 10
903.610737
 20
801.865538
 11
903.610737
 21
766.196788
  0
LINE
  8
18
 10
865.176377
 20
834.859898
 11
861.781809
 21
838.254466
  0
LINE
  8
18
 10
871.622348
 20
817.903073
 11
865.626605
 21
831.834945
  0
LINE
  8
18
 10
882.100022
 20
828.428117
 11
868.141247
 21
834.360955
  0
ARC
  8
18
 10
867.390218
 20
832.593936
 40
1.920000
 50
66.973261
 51
203.285190
  0
ARC
  8
18
 10
878.970737
 20
821.065538
 40
8.000000
 50
203.285190
 51
66.973261
  0
LINE
  8
18
 10
865.176377
 20
807.271177
 11
861.781809
 21
803.876610
  0
TEXT
  8
18
 10
875.149428
 20
835.250367
 40
9.600000
  1
Ｓ
 50
90.000000
  0
TEXT
  8
18
 10
874.604365
 20
799.270382
 40
9.600000
  1
Ｏ
 50
90.000000
  0
LINE
  8
18
  6
CENTER
 62
2
 10
1151.117221
 20
821.065538
 11
1055.688510
 21
821.065538
  0
LINE
  8
18
  6
CENTER
 62
2
 10
1102.970737
 20
776.672203
 11
1102.970737
 21
854.926451
  0
LINE
  8
18
 10
1061.370737
 20
809.545538
 11
1061.370737
 21
832.585538
  0
LINE
  8
18
 10
1144.570737
 20
809.545538
 11
1144.570737
 21
832.585538
  0
LINE
  8
18
 10
1048.153330
 20
775.705562
 11
1048.153330
 21
812.825562
  0
LINE
  8
18
 10
1040.473330
 20
775.705562
 11
1040.473330
 21
812.825562
  0
LINE
  8
18
 10
1143.290737
 20
808.265538
 11
1125.140987
 21
808.265538
  0
LINE
  8
18
 10
1080.800487
 20
808.265538
 11
1062.650737
 21
808.265538
  0
LINE
  8
18
 10
1143.290737
 20
833.865538
 11
1125.140987
 21
833.865538
  0
LINE
  8
18
 10
1080.800487
 20
833.865538
 11
1062.650737
 21
833.865538
  0
ARC
  8
18
 10
1044.313330
 20
775.705562
 40
3.840000
 50
180.000000
 51
360.000000
  0
ARC
  8
18
 10
1044.313330
 20
812.825562
 40
3.840000
 50
0.000000
 51
180.000000
  0
ARC
  8
18
 10
1143.290737
 20
809.545538
 40
1.280000
 50
270.000000
 51
360.000000
  0
ARC
  8
18
 10
1143.290737
 20
832.585538
 40
1.280000
 50
0.000000
 51
90.000000
  0
ARC
  8
18
 10
1062.650737
 20
809.545538
 40
1.280000
 50
180.000000
 51
270.000000
  0
ARC
  8
18
 10
1062.650737
 20
832.585538
 40
1.280000
 50
90.000000
 51
180.000000
  0
LINE
  8
18
 10
1122.170737
 20
789.065538
 11
1122.170737
 21
804.132729
  0
LINE
  8
18
 10
1083.770737
 20
789.065538
 11
1083.770737
 21
804.132729
  0
LINE
  8
18
 10
1122.170737
 20
789.065538
 11
1083.770737
 21
789.065538
  0
CIRCLE
  8
18
 10
1102.970737
 20
821.065538
 40
25.600000
  0
LINE
  8
18
 10
1083.770737
 20
792.265538
 11
1048.101987
 21
792.265538
  0
LINE
  8
18
 10
1083.770737
 20
796.425538
 11
1048.101987
 21
796.425538
  0
LINE
  8
18
 10
1116.765097
 20
834.859898
 11
1120.159665
 21
838.254466
  0
LINE
  8
18
 10
1099.808272
 20
828.413927
 11
1113.740144
 21
834.409670
  0
LINE
  8
18
 10
1110.333316
 20
817.936252
 11
1116.266154
 21
831.895028
  0
ARC
  8
18
 10
1114.499135
 20
832.646056
 40
1.920000
 50
336.973261
 51
113.285190
  0
ARC
  8
18
 10
1102.970737
 20
821.065538
 40
8.000000
 50
113.285190
 51
336.973261
  0
LINE
  8
18
 10
1089.176377
 20
834.859898
 11
1085.781809
 21
838.254466
  0
TEXT
  8
18
 10
1116.835566
 20
824.886846
 40
9.600000
  1
Ｓ
 50
0.000000
  0
TEXT
  8
18
 10
1081.175581
 20
825.431910
 40
9.600000
  1
Ｏ
 50
0.000000
  0
LINE
  8
18
  6
CENTER
 62
2
 10
1375.117221
 20
821.065538
 11
1279.688510
 21
821.065538
  0
LINE
  8
18
  6
CENTER
 62
2
 10
1326.970737
 20
782.658629
 11
1326.970737
 21
854.926451
  0
LINE
  8
18
 10
1285.370737
 20
809.545538
 11
1285.370737
 21
832.585538
  0
LINE
  8
18
 10
1368.570737
 20
809.545538
 11
1368.570737
 21
832.585538
  0
LINE
  8
18
 10
1281.610761
 20
875.882945
 11
1318.730761
 21
875.882945
  0
LINE
  8
18
 10
1281.610761
 20
883.562945
 11
1318.730761
 21
883.562945
  0
LINE
  8
18
 10
1367.290737
 20
808.265538
 11
1349.140987
 21
808.265538
  0
LINE
  8
18
 10
1294.970737
 20
808.265538
 11
1286.650737
 21
808.265538
  0
LINE
  8
18
 10
1367.290737
 20
833.865538
 11
1349.140987
 21
833.865538
  0
LINE
  8
18
 10
1294.970737
 20
833.865538
 11
1286.650737
 21
833.865538
  0
ARC
  8
18
 10
1281.610761
 20
879.722945
 40
3.840000
 50
90.000000
 51
270.000000
  0
ARC
  8
18
 10
1318.730761
 20
879.722945
 40
3.840000
 50
270.000000
 51
90.000000
  0
ARC
  8
18
 10
1367.290737
 20
809.545538
 40
1.280000
 50
270.000000
 51
360.000000
  0
ARC
  8
18
 10
1367.290737
 20
832.585538
 40
1.280000
 50
0.000000
 51
90.000000
  0
ARC
  8
18
 10
1286.650737
 20
809.545538
 40
1.280000
 50
180.000000
 51
270.000000
  0
ARC
  8
18
 10
1286.650737
 20
832.585538
 40
1.280000
 50
90.000000
 51
180.000000
  0
LINE
  8
18
 10
1294.970737
 20
801.865538
 11
1310.037928
 21
801.865538
  0
LINE
  8
18
 10
1294.970737
 20
840.265538
 11
1310.037928
 21
840.265538
  0
LINE
  8
18
 10
1294.970737
 20
801.865538
 11
1294.970737
 21
840.265538
  0
CIRCLE
  8
18
 10
1326.970737
 20
821.065538
 40
25.600000
  0
LINE
  8
18
 10
1298.170737
 20
840.265538
 11
1298.170737
 21
875.934288
  0
LINE
  8
18
 10
1302.330737
 20
840.265538
 11
1302.330737
 21
875.934288
  0
LINE
  8
18
 10
1340.765097
 20
807.271177
 11
1344.159665
 21
803.876610
  0
LINE
  8
18
 10
1334.319126
 20
824.228002
 11
1340.314869
 21
810.296131
  0
LINE
  8
18
 10
1323.841452
 20
813.702959
 11
1337.800227
 21
807.770120
  0
ARC
  8
18
 10
1338.551255
 20
809.537139
 40
1.920000
 50
246.973261
 51
23.285190
  0
ARC
  8
18
 10
1326.970737
 20
821.065538
 40
8.000000
 50
23.285190
 51
246.973261
  0
LINE
  8
18
 10
1340.765097
 20
834.859898
 11
1344.159665
 21
838.254466
  0
TEXT
  8
18
 10
1330.792045
 20
806.880709
 40
9.600000
  1
Ｓ
 50
270.000000
  0
TEXT
  8
18
 10
1331.337109
 20
842.860694
 40
9.600000
  1
Ｏ
 50
270.000000
  0
TEXT
  8
18
 10
1441.264893
 20
-1015.086426
 40
16.000000
  1
２００２．１１．１８
 50
0.000000
  0
TEXT
  8
18
 10
982.833923
 20
-984.282104
 40
24.000000
  1
５０８Ｖ－２ＳＡＳ　６００Ａ
 50
0.000000
  0
LINE
  8
18
 10
-10.708388
 20
-503.323879
 11
-250.708388
 21
-503.323879
  0
LINE
  8
18
 10
-10.708388
 20
-503.323879
 11
-90.708388
 21
-481.887944
  0
LINE
  8
18
 10
-90.708388
 20
-481.887944
 11
-90.708388
 21
-524.759815
  0
LINE
  8
18
 10
-10.708388
 20
-503.323879
 11
-90.708388
 21
-524.759815
  0
TEXT
  8
18
 10
-232.920267
 20
-496.488471
 40
32.000000
  1
流れ方向
 50
0.000000
  0
TEXT
  8
18
 10
1228.800000
 20
-1088.000000
 40
40.000000
  1
Ｄ３－０３１０６
 50
0.000000
  0
TEXT
  8
18
 10
982.833923
 20
-1016.282104
 40
24.000000
  1
標準仕様　ＪＩＳ　１０Ｋ
 50
0.000000
  0
LINE
  8
20
 62
3
 10
-1440.000000
 20
-1108.000000
 11
1600.000000
 21
-1108.000000
  0
LINE
  8
20
 62
3
 10
-1440.000000
 20
1056.000000
 11
1600.000000
 21
1056.000000
  0
LINE
  8
20
 62
3
 10
-1440.000000
 20
1056.000000
 11
-1440.000000
 21
-1108.000000
  0
LINE
  8
20
 62
3
 10
1600.000000
 20
1056.000000
 11
1600.000000
 21
-1108.000000
  0
LINE
  8
20
 62
3
 10
480.000000
 20
-1108.000000
 11
480.000000
 21
-948.000000
  0
LINE
  8
20
 62
3
 10
856.000000
 20
-1108.000000
 11
856.000000
 21
-948.000000
  0
LINE
  8
20
 10
856.000000
 20
-1028.000000
 11
1600.000000
 21
-1028.000000
  0
LINE
  8
20
 62
3
 10
480.000000
 20
-948.000000
 11
1600.000000
 21
-948.000000
  0
LINE
  8
20
 10
1440.000000
 20
-1028.000000
 11
1440.000000
 21
-948.000000
  0
LINE
  8
20
 10
1440.000000
 20
-988.000000
 11
1600.000000
 21
-988.000000
  0
LINE
  8
20
 10
968.000000
 20
-1108.000000
 11
968.000000
 21
-948.000000
  0
LINE
  8
20
 10
1048.000000
 20
-1108.000000
 11
1048.000000
 21
-1028.000000
  0
LINE
  8
20
 10
1208.000000
 20
-1108.000000
 11
1208.000000
 21
-1028.000000
  0
LINE
  8
20
 10
989.827316
 20
-1086.172684
 11
1023.186325
 21
-1052.813675
  0
TEXT
  8
20
 10
1052.266632
 20
-1059.975342
 40
14.400000
  1
ＤＲＡＷＩＮＧ　ＮＯ．
 50
0.000000
  0
TEXT
  8
20
 10
1068.000000
 20
-1092.000000
 40
24.000000
  1
図　　　番
 50
0.000000
  0
TEXT
  8
20
 10
1488.000000
 20
-976.000000
 40
16.000000
  1
ＤＡＴＥ
 50
0.000000
  0
TEXT
  8
20
 10
872.008568
 20
-1063.688232
 40
16.000000
  1
ＳＣＡＬＥ
 50
0.000000
  0
TEXT
  8
20
 10
864.000000
 20
-1092.000000
 40
24.000000
  1
尺　　度
 50
0.000000
  0
TEXT
  8
20
 10
860.008568
 20
-979.967078
 40
16.000000
  1
ＦＩＧ．ＮＯ．
 50
0.000000
  0
TEXT
  8
20
 10
864.000000
 20
-1012.000000
 40
24.000000
  1
名　　称
 50
0.000000
  0
TEXT
  8
20
 10
484.524200
 20
-1011.762024
 40
18.400000
  1
ＴＯＭＯＥ　ＶＡＬＶＥ　ＣＯ．，ＬＴＤ．
 50
0.000000
  0
TEXT
  8
20
 10
540.000000
 20
-1066.318481
 40
32.000000
  1
巴バルブ株式会社
 50
0.000000
  0
ENDSEC
  0
EOF
