  0
SECTION
  2
HEADER
  9
$ACADVER
  1
AC1012
  9
$DWGCODEPAGE
  3
ansi_932
  9
$INSBASE
 10
0.0
 20
0.0
 30
0.0
  9
$EXTMIN
 10
-630.0
 20
-445.5
 30
1.000000E+20
  9
$EXTMAX
 10
630.0
 20
445.5
 30
-1.000000E+20
  9
$LIMMIN
 10
-630.0
 20
-445.5
  9
$LIMMAX
 10
630.0
 20
445.5
  9
$ORTHOMODE
 70
     0
  9
$REGENMODE
 70
     1
  9
$FILLMODE
 70
     1
  9
$QTEXTMODE
 70
     0
  9
$MIRRTEXT
 70
     1
  9
$DRAGMODE
 70
     2
  9
$LTSCALE
 40
1.0
  9
$OSMODE
 70
     0
  9
$ATTMODE
 70
     1
  9
$TEXTSIZE
 40
0.2
  9
$TRACEWID
 40
0.05
  9
$TEXTSTYLE
  7
STANDARD
  9
$CLAYER
  8
0
  9
$CELTYPE
  6
CONTINUOUS
  9
$CECOLOR
 62
   256
  9
$CELTSCALE
 40
1.0
  9
$DELOBJ
 70
     1
  9
$DISPSILH
 70
     0
  9
$DIMSCALE
 40
3.0
  9
$DIMASZ
 40
0.18
  9
$DIMEXO
 40
0.0625
  9
$DIMDLI
 40
0.38
  9
$DIMRND
 40
0.0
  9
$DIMDLE
 40
0.0
  9
$DIMEXE
 40
0.18
  9
$DIMTP
 40
0.0
  9
$DIMTM
 40
0.0
  9
$DIMTXT
 40
0.18
  9
$DIMCEN
 40
0.09
  9
$DIMTSZ
 40
0.0
  9
$DIMTOL
 70
     0
  9
$DIMLIM
 70
     0
  9
$DIMTIH
 70
     1
  9
$DIMTOH
 70
     1
  9
$DIMSE1
 70
     0
  9
$DIMSE2
 70
     0
  9
$DIMTAD
 70
     1
  9
$DIMZIN
 70
     0
  9
$DIMBLK
  1

  9
$DIMASO
 70
     1
  9
$DIMSHO
 70
     1
  9
$DIMPOST
  1

  9
$DIMAPOST
  1

  9
$DIMALT
 70
     0
  9
$DIMALTD
 70
     2
  9
$DIMALTF
 40
25.4
  9
$DIMLFAC
 40
1.0
  9
$DIMTOFL
 70
     0
  9
$DIMTVP
 40
0.0
  9
$DIMTIX
 70
     0
  9
$DIMSOXD
 70
     0
  9
$DIMSAH
 70
     0
  9
$DIMBLK1
  1

  9
$DIMBLK2
  1

  9
$DIMSTYLE
  2
STANDARD
  9
$DIMCLRD
 70
     0
  9
$DIMCLRE
 70
     0
  9
$DIMCLRT
 70
     0
  9
$DIMTFAC
 40
1.0
  9
$DIMGAP
 40
0.09
  9
$DIMJUST
 70
     0
  9
$DIMSD1
 70
     0
  9
$DIMSD2
 70
     0
  9
$DIMTOLJ
 70
     1
  9
$DIMTZIN
 70
     0
  9
$DIMALTZ
 70
     0
  9
$DIMALTTZ
 70
     0
  9
$DIMFIT
 70
     3
  9
$DIMUPT
 70
     0
  9
$DIMUNIT
 70
     2
  9
$DIMDEC
 70
     4
  9
$DIMTDEC
 70
     4
  9
$DIMALTU
 70
     2
  9
$DIMALTTD
 70
     2
  9
$DIMTXSTY
  7
STANDARD
  9
$DIMAUNIT
 70
     0
  9
$LUNITS
 70
     2
  9
$LUPREC
 70
     4
  9
$SKETCHINC
 40
0.1
  9
$FILLETRAD
 40
0.0
  9
$AUNITS
 70
     0
  9
$AUPREC
 70
     0
  9
$MENU
  1
acad
  9
$ELEVATION
 40
0.0
  9
$PELEVATION
 40
0.0
  9
$THICKNESS
 40
0.0
  9
$LIMCHECK
 70
     0
  9
$BLIPMODE
 70
     1
  9
$CHAMFERA
 40
0.0
  9
$CHAMFERB
 40
0.0
  9
$CHAMFERC
 40
0.0
  9
$CHAMFERD
 40
0.0
  9
$SKPOLY
 70
     0
  9
$TDCREATE
 40
2450242.000000000
  9
$TDUPDATE
 40
0.000000000
  9
$TDINDWG
 40
0.0000000000
  9
$TDUSRTIMER
 40
0.0000000000
  9
$USRTIMER
 70
     1
  9
$ANGBASE
 50
0.0
  9
$ANGDIR
 70
     0
  9
$PDMODE
 70
     0
  9
$PDSIZE
 40
0.0
  9
$PLINEWID
 40
0.0
  9
$COORDS
 70
     0
  9
$SPLFRAME
 70
     0
  9
$SPLINETYPE
 70
     6
  9
$SPLINESEGS
 70
     8
  9
$ATTDIA
 70
     0
  9
$ATTREQ
 70
     1
  9
$HANDLING
 70
     1
  9
$HANDSEED
  5
853
  9
$SURFTAB1
 70
     6
  9
$SURFTAB2
 70
     6
  9
$SURFTYPE
 70
     6
  9
$SURFU
 70
     6
  9
$SURFV
 70
     6
  9
$UCSNAME
  2

  9
$UCSORG
 10
0.0
 20
0.0
 30
0.0
  9
$UCSXDIR
 10
1.0
 20
0.0
 30
0.0
  9
$UCSYDIR
 10
0.0
 20
1.0
 30
0.0
  9
$PUCSNAME
  2

  9
$PUCSORG
 10
0.0
 20
0.0
 30
0.0
  9
$PUCSXDIR
 10
1.0
 20
0.0
 30
0.0
  9
$PUCSYDIR
 10
0.0
 20
1.0
 30
0.0
  9
$USERI1
 70
     0
  9
$USERI2
 70
     0
  9
$USERI3
 70
     0
  9
$USERI4
 70
     0
  9
$USERI5
 70
     0
  9
$USERR1
 40
0.0
  9
$USERR2
 40
0.0
  9
$USERR3
 40
0.0
  9
$USERR4
 40
0.0
  9
$USERR5
 40
0.0
  9
$WORLDVIEW
 70
     1
  9
$SHADEDGE
 70
     3
  9
$SHADEDIF
 70
    70
  9
$TILEMODE
 70
     1
  9
$MAXACTVP
 70
    16
  9
$PINSBASE
 10
0.0
 20
0.0
 30
0.0
  9
$PLIMCHECK
 70
     0
  9
$PEXTMIN
 10
1.000000E+20
 20
1.000000E+20
 30
1.000000E+20
  9
$PEXTMAX
 10
-1.000000E+20
 20
-1.000000E+20
 30
-1.000000E+20
  9
$PLIMMIN
 10
0.0
 20
0.0
  9
$PLIMMAX
 10
12.0
 20
9.0
  9
$UNITMODE
 70
     0
  9
$VISRETAIN
 70
     0
  9
$PLINEGEN
 70
     1
  9
$PSLTSCALE
 70
     0
  9
$TREEDEPTH
 70
  3020
  9
$PICKSTYLE
 70
     1
  9
$CMLSTYLE
  2
STANDARD
  9
$CMLJUST
 70
     0
  9
$CMLSCALE
 40
1.0
  9
$SAVEIMAGES
 70
     0
  0
ENDSEC
  0
SECTION
  2
CLASSES
  0
CLASS
  1
LWPOLYLINE
  2
AcDbPolyline
  3
"AutoCAD"
 90
    32768
280
     0
281
     1
  0
CLASS
  1
IMAGE
  2
AcDbRasterImage
  3
ISM
 90
    32895
280
     0
281
     1
  0
CLASS
  1
OLE2FRAME
  2
AcDbOle2Frame
  3
""
 90
    32768
280
     0
281
     1
  0
CLASS
  1
HATCH
  2
AcDbHatch
  3
"ACAD_SEDONA"
 90
    32768
280
     0
281
     1
  0
CLASS
  1
DICTIONARYVAR
  2
AcDbDictionaryVar
  3
"AutoCAD"
 90
    32768
280
     0
281
     0
  0
CLASS
  1
RASTERVARIABLES
  2
AcDbRasterVariables
  3
ISM
 90
    32768
280
     0
281
     0
  0
CLASS
  1
IMAGEDEF
  2
AcDbRasterImageDef
  3
ISM
 90
    32768
280
     0
281
     0
  0
CLASS
  1
IMAGEDEF_REACTOR
  2
AcDbRasterImageDefReactor
  3
ISM
 90
    32769
280
     0
281
     0
  0
CLASS
  1
IDBUFFER
  2
AcDbIdBuffer
  3
"Acad"
 90
    32768
280
     0
281
     0
  0
CLASS
  1
SPATIAL_FILTER
  2
AcDbSpatialFilter
  3
"Acad"
 90
    32768
280
     0
281
     0
  0
CLASS
  1
XRECORD
  2
AcDbXrecord
  3
"<Built In>"
 90
    32768
280
     0
281
     0
  0
CLASS
  1
SORTENTSTABLE
  2
AcDbSortentsTable
  3
"AutoCAD"
 90
    32768
280
     0
281
     0
  0
CLASS
  1
LAYER_INDEX
  2
AcDbLayerIndex
  3
"Acad"
 90
    32768
280
     0
281
     0
  0
CLASS
  1
SPATIAL_INDEX
  2
AcDbSpatialIndex
  3
"Acad"
 90
    32768
280
     0
281
     0
  0
CLASS
  1
OBJECT_PTR
  2
CAseDLPNTableRecord
  3
"ASE-LPNTableRecord"
 90
    32769
280
     0
281
     0
  0
CLASS
  1
LAYOUT
  2
AcDbLayout
  3
"AutoCAD 2000"
 90
    32768
280
     0
281
     0
  0
CLASS
  1
PLOTSETTINGS
  2
AcDbPlotSettings
  3
"AutoCAD 2000"
 90
    32768
280
     0
281
     0
  0
CLASS
  1
ACDBDICTIONARYWDFLT
  2
AcDbDictionaryWithDefault
  3
"AutoCAD 2000"
 90
    32768
280
     0
281
     0
  0
CLASS
  1
ACDBPLACEHOLDER
  2
AcDbPlaceHolder
  3
"AutoCAD 2000"
 90
    32768
280
     0
281
     0
  0
CLASS
  1
VBA_PROJECT
  2
AcDbVbaProject
  3
"acadvba"
 90
    32768
280
     0
281
     0
  0
CLASS
  1
WIPEOUT
  2
AcDbWipeout
  3
WipeOut|AutoCAD Express Tool|expresstools@autodesk.com
 90
    32895
280
     0
281
     1
  0
CLASS
  1
WIPEOUTVARIABLES
  2
AcDbWipeoutVariables
  3
WipeOut|AutoCAD Express Tool|expresstools@autodesk.com
 90
    32768
280
     0
281
     0
  0
CLASS
  1
RTEXT
  2
RText
  3
RText|AutoCAD Express Tool|expresstools@autodesk.com
 90
    32768
280
     0
281
     1
  0
CLASS
  1
ARCALIGNEDTEXT
  2
AcDbArcAlignedText
  3
ATEXT|AutoCAD Express Tool|expresstools@autodesk.com
 90
    32768
280
     0
281
     1
  0
ENDSEC
  0
SECTION
  2
TABLES
  0
TABLE
  2
VPORT
  5
6
100
AcDbSymbolTable
 70
     1
  0
VPORT
  5
1C
100
AcDbSymbolTableRecord
100
AcDbViewportTableRecord
  2
*ACTIVE
 70
     0
 10
0.0
 20
0.0
 11
1.0
 21
1.0
 12
0.0
 22
0.0
 13
0.0
 23
0.0
 14
1.0
 24
1.0
 15
0.0
 25
0.0
 16
0.0
 26
0.0
 36
1.0
 17
0.0
 27
0.0
 37
0.0
 40
891.0
 41
1.414141
 42
50.0
 43
0.0
 44
0.0
 50
0.0
 51
0.0
 71
     0
 72
   500
 73
     1
 74
     1
 75
     0
 76
     0
 77
     0
 78
     0
  0
ENDTAB
  0
TABLE
  2
LTYPE
  5
3
100
AcDbSymbolTable
 70
     9
  0
LTYPE
  5
C
100
AcDbSymbolTableRecord
100
AcDbLinetypeTableRecord
  2
BYBLOCK
 70
    64
  3

 72
    65
 73
     0
 40
0.0
  0
LTYPE
  5
D
100
AcDbSymbolTableRecord
100
AcDbLinetypeTableRecord
  2
BYLAYER
 70
    64
  3

 72
    65
 73
     0
 40
0.0
  0
LTYPE
  5
E
100
AcDbSymbolTableRecord
100
AcDbLinetypeTableRecord
  2
CONTINUOUS
 70
     0
  3
Solid line
 72
    65
 73
     0
 40
0.0
  0
LTYPE
  5
F
100
AcDbSymbolTableRecord
100
AcDbLinetypeTableRecord
  2
DASHED
 70
     0
  3
__ __ __ __ __ __ __ __ __ __ __ __ __ __ __
 72
    65
 73
     2
 40
2.0
 49
1.2
 74
     0
 49
-0.8
 74
     0
  0
LTYPE
  5
10
100
AcDbSymbolTableRecord
100
AcDbLinetypeTableRecord
  2
CENTER
 70
     0
  3
____ _ ____ _ ____ _ ____ _ ____ _ ____ _ ____
 72
    65
 73
     4
 40
12.0
 49
9.0
 74
     0
 49
-1.0
 74
     0
 49
1.0
 74
     0
 49
-1.0
 74
     0
  0
LTYPE
  5
11
100
AcDbSymbolTableRecord
100
AcDbLinetypeTableRecord
  2
HIDDEN
 70
     0
  3
_ _ _ _ _ _ _ _ _ _ _ _ _ _ _ _ _ _ _ _ _ _ _
 72
    65
 73
     2
 40
3.2
 49
2.4
 74
     0
 49
-0.8
 74
     0
  0
LTYPE
  5
12
100
AcDbSymbolTableRecord
100
AcDbLinetypeTableRecord
  2
PHANTOM
 70
     0
  3
_____ _ _ _____ _ _ _____ _ _ _____ _ _ _____
 72
    65
 73
     6
 40
13.5
 49
9.0
 74
     0
 49
-1.0
 74
     0
 49
1.0
 74
     0
 49
-0.5
 74
     0
 49
1.0
 74
     0
 49
-1.0
 74
     0
  0
LTYPE
  5
13
100
AcDbSymbolTableRecord
100
AcDbLinetypeTableRecord
  2
DOT
 70
     0
  3
...............................................
 72
    65
 73
     2
 40
1.0
 49
0.5
 74
     0
 49
-0.5
 74
     0
  0
LTYPE
  5
14
100
AcDbSymbolTableRecord
100
AcDbLinetypeTableRecord
  2
DASHDOT
 70
     0
  3
__ . __ . __ . __ . __ . __ . __ . __ . __ . __
 72
    65
 73
     4
 40
8.0
 49
5.0
 74
     0
 49
-1.0
 74
     0
 49
1.0
 74
     0
 49
-1.0
 74
     0
  0
ENDTAB
  0
TABLE
  2
LAYER
  5
1
100
AcDbSymbolTable
 70
     7
  0
LAYER
  5
15
100
AcDbSymbolTableRecord
100
AcDbLayerTableRecord
  2
0
 70
     0
 62
     7
  6
CONTINUOUS
  0
LAYER
  5
16
100
AcDbSymbolTableRecord
100
AcDbLayerTableRecord
  2
1
 70
     0
 62
     7
  6
CONTINUOUS
  0
LAYER
  5
17
100
AcDbSymbolTableRecord
100
AcDbLayerTableRecord
  2
2
 70
     0
 62
     7
  6
CONTINUOUS
  0
LAYER
  5
18
100
AcDbSymbolTableRecord
100
AcDbLayerTableRecord
  2
3
 70
     0
 62
     7
  6
CONTINUOUS
  0
LAYER
  5
19
100
AcDbSymbolTableRecord
100
AcDbLayerTableRecord
  2
5
 70
     0
 62
     7
  6
CONTINUOUS
  0
LAYER
  5
1A
100
AcDbSymbolTableRecord
100
AcDbLayerTableRecord
  2
18
 70
     0
 62
     7
  6
CONTINUOUS
  0
LAYER
  5
1B
100
AcDbSymbolTableRecord
100
AcDbLayerTableRecord
  2
20
 70
     0
 62
     7
  6
CONTINUOUS
  0
ENDTAB
  0
TABLE
  2
STYLE
  5
2
100
AcDbSymbolTable
 70
     1
  0
STYLE
  5
1E
100
AcDbSymbolTableRecord
100
AcDbTextStyleTableRecord
  2
STANDARD
 70
    64
 40
0.0
 41
1.0
 50
0.0
 71
     0
 42
1.0
  3
txt
  4
BIGFONT
  0
ENDTAB
  0
TABLE
  2
VIEW
  5
4
100
AcDbSymbolTable
 70
     0
  0
ENDTAB
  0
TABLE
  2
UCS
  5
5
100
AcDbSymbolTable
 70
     0
  0
ENDTAB
  0
TABLE
  2
APPID
  5
7
100
AcDbSymbolTable
 70
     1
  0
APPID
  5
1D
100
AcDbSymbolTableRecord
100
AcDbRegAppTableRecord
  2
ACAD
 70
     0
  0
ENDTAB
  0
TABLE
  2
DIMSTYLE
  5
8
100
AcDbSymbolTable
 70
     1
  0
DIMSTYLE
105
2E
100
AcDbSymbolTableRecord
100
AcDbDimStyleTableRecord
  2
STANDARD
 70
     0
  3

  4

  5

  6

  7

 40
3.0
 41
0.18
 42
0.0625
 43
0.38
 44
0.18
 45
0.0
 46
0.0
 47
0.0
 48
0.0
 71
     0
 72
     0
 73
     1
 74
     1
 75
     0
 76
     0
 77
     1
 78
     0
140
0.18
141
0.09
142
0.0
143
25.4
144
1.0
145
0.0
146
1.0
147
0.09
170
     0
171
     2
172
     0
173
     0
174
     0
175
     0
176
     0
177
     0
178
     0
270
     2
271
     4
272
     4
273
     2
274
     2
275
     0
280
     0
281
     0
282
     0
283
     1
284
     0
285
     0
286
     0
287
     3
288
     0
340
1E
  0
ENDTAB
  0
TABLE
  2
BLOCK_RECORD
  5
29
100
AcDbSymbolTable
 70
     8
  0
BLOCK_RECORD
  5
27
100
AcDbSymbolTableRecord
100
AcDbBlockTableRecord
  2
*MODEL_SPACE
  0
BLOCK_RECORD
  5
28
100
AcDbSymbolTableRecord
100
AcDbBlockTableRecord
  2
*PAPER_SPACE
  0
BLOCK_RECORD
  5
1F
100
AcDbSymbolTableRecord
100
AcDbBlockTableRecord
  2
*D0
  0
BLOCK_RECORD
  5
20
100
AcDbSymbolTableRecord
100
AcDbBlockTableRecord
  2
*D1
  0
BLOCK_RECORD
  5
21
100
AcDbSymbolTableRecord
100
AcDbBlockTableRecord
  2
*D2
  0
BLOCK_RECORD
  5
22
100
AcDbSymbolTableRecord
100
AcDbBlockTableRecord
  2
*D3
  0
BLOCK_RECORD
  5
23
100
AcDbSymbolTableRecord
100
AcDbBlockTableRecord
  2
*D4
  0
BLOCK_RECORD
  5
24
100
AcDbSymbolTableRecord
100
AcDbBlockTableRecord
  2
*D5
  0
BLOCK_RECORD
  5
25
100
AcDbSymbolTableRecord
100
AcDbBlockTableRecord
  2
*D6
  0
BLOCK_RECORD
  5
26
100
AcDbSymbolTableRecord
100
AcDbBlockTableRecord
  2
*D7
  0
ENDTAB
  0
ENDSEC
  0
SECTION
  2
BLOCKS
  0
BLOCK
  5
2A
100
AcDbEntity
  8
0
100
AcDbBlockBegin
  2
*MODEL_SPACE
 70
     0
 10
0.0
 20
0.0
 30
0.0
  3
*MODEL_SPACE
  1

  0
ENDBLK
  5
2B
100
AcDbEntity
  8
0
100
AcDbBlockEnd
  0
BLOCK
  5
2C
100
AcDbEntity
 67
     1
  8
0
100
AcDbBlockBegin
  2
*PAPER_SPACE
 70
     0
 10
0.0
 20
0.0
 30
0.0
  3
*PAPER_SPACE
  1

  0
ENDBLK
  5
2D
100
AcDbEntity
 67
     1
  8
0
100
AcDbBlockEnd
  0
BLOCK
  5
76A
100
AcDbEntity
  8
5
100
AcDbBlockBegin
  2
*D0
 70
     1
 10
0.0
 20
0.0
 30
0.0
  3
*D0
  1

  0
TEXT
  5
76B
100
AcDbEntity
  8
5
 62
     2
100
AcDbText
 10
-50.558516
 20
-223.151662
 30
0.0
 40
9.9
  1
132
 50
90.0
 41
1.4
 72
     5
 11
-50.558516
 21
-205.133662
 31
0.0
100
AcDbText
  0
LINE
  5
76C
100
AcDbEntity
  8
5
 62
     2
100
AcDbLine
 10
75.029685
 20
-278.756662
 30
0.0
 11
-52.058516
 21
-278.756662
 31
0.0
  0
LINE
  5
76D
100
AcDbEntity
  8
5
 62
     2
100
AcDbLine
 10
-49.058516
 20
-278.756662
 30
0.0
 11
-47.505601
 21
-272.961107
 31
0.0
  0
LINE
  5
76E
100
AcDbEntity
  8
5
 62
     2
100
AcDbLine
 10
-49.058516
 20
-278.756662
 30
0.0
 11
-50.61143
 21
-272.961107
 31
0.0
  0
LINE
  5
76F
100
AcDbEntity
  8
5
 62
     2
100
AcDbLine
 10
-47.505601
 20
-272.961107
 30
0.0
 11
-50.61143
 21
-272.961107
 31
0.0
  0
LINE
  5
770
100
AcDbEntity
  8
5
 62
     2
100
AcDbLine
 10
-49.058516
 20
-278.756662
 30
0.0
 11
-49.058516
 21
-146.756662
 31
0.0
  0
LINE
  5
771
100
AcDbEntity
  8
5
 62
     2
100
AcDbLine
 10
-49.058516
 20
-146.756662
 30
0.0
 11
-50.61143
 21
-152.552217
 31
0.0
  0
LINE
  5
772
100
AcDbEntity
  8
5
 62
     2
100
AcDbLine
 10
-49.058516
 20
-146.756662
 30
0.0
 11
-47.505601
 21
-152.552217
 31
0.0
  0
LINE
  5
773
100
AcDbEntity
  8
5
 62
     2
100
AcDbLine
 10
-50.61143
 20
-152.552217
 30
0.0
 11
-47.505601
 21
-152.552217
 31
0.0
  0
LINE
  5
774
100
AcDbEntity
  8
5
 62
     2
100
AcDbLine
 10
73.503242
 20
-146.756662
 30
0.0
 11
-52.058516
 21
-146.756662
 31
0.0
  0
ENDBLK
  5
775
100
AcDbEntity
  8
5
100
AcDbBlockEnd
  0
BLOCK
  5
776
100
AcDbEntity
  8
5
100
AcDbBlockBegin
  2
*D1
 70
     1
 10
0.0
 20
0.0
 30
0.0
  3
*D1
  1

  0
TEXT
  5
777
100
AcDbEntity
  8
5
 62
     2
100
AcDbText
 10
-50.558516
 20
-315.636662
 30
0.0
 40
9.9
  1
60
 50
90.0
 41
1.4
 72
     5
 11
-50.558516
 21
-304.548662
 31
0.0
100
AcDbText
  0
LINE
  5
778
100
AcDbEntity
  8
5
 62
     2
100
AcDbLine
 10
103.503242
 20
-338.656662
 30
0.0
 11
-52.058516
 21
-338.656662
 31
0.0
  0
LINE
  5
779
100
AcDbEntity
  8
5
 62
     2
100
AcDbLine
 10
-49.058516
 20
-338.656662
 30
0.0
 11
-47.505601
 21
-332.861107
 31
0.0
  0
LINE
  5
77A
100
AcDbEntity
  8
5
 62
     2
100
AcDbLine
 10
-49.058516
 20
-338.656662
 30
0.0
 11
-50.61143
 21
-332.861107
 31
0.0
  0
LINE
  5
77B
100
AcDbEntity
  8
5
 62
     2
100
AcDbLine
 10
-47.505601
 20
-332.861107
 30
0.0
 11
-50.61143
 21
-332.861107
 31
0.0
  0
LINE
  5
77C
100
AcDbEntity
  8
5
 62
     2
100
AcDbLine
 10
-49.058516
 20
-338.656662
 30
0.0
 11
-49.058516
 21
-278.756662
 31
0.0
  0
LINE
  5
77D
100
AcDbEntity
  8
5
 62
     2
100
AcDbLine
 10
-49.058516
 20
-278.756662
 30
0.0
 11
-50.61143
 21
-284.552217
 31
0.0
  0
LINE
  5
77E
100
AcDbEntity
  8
5
 62
     2
100
AcDbLine
 10
-49.058516
 20
-278.756662
 30
0.0
 11
-47.505601
 21
-284.552217
 31
0.0
  0
LINE
  5
77F
100
AcDbEntity
  8
5
 62
     2
100
AcDbLine
 10
-50.61143
 20
-284.552217
 30
0.0
 11
-47.505601
 21
-284.552217
 31
0.0
  0
LINE
  5
780
100
AcDbEntity
  8
5
 62
     2
100
AcDbLine
 10
75.029685
 20
-278.756662
 30
0.0
 11
-52.058516
 21
-278.756662
 31
0.0
  0
ENDBLK
  5
781
100
AcDbEntity
  8
5
100
AcDbBlockEnd
  0
BLOCK
  5
782
100
AcDbEntity
  8
5
100
AcDbBlockBegin
  2
*D2
 70
     1
 10
0.0
 20
0.0
 30
0.0
  3
*D2
  1

  0
TEXT
  5
783
100
AcDbEntity
  8
5
 62
     2
100
AcDbText
 10
104.573242
 20
-370.050339
 30
0.0
 40
9.9
  1
35
 41
1.4
 72
     5
 11
115.661242
 21
-370.050339
 31
0.0
100
AcDbText
  0
LINE
  5
784
100
AcDbEntity
  8
5
 62
     2
100
AcDbLine
 10
94.003242
 20
-320.756662
 30
0.0
 11
94.003242
 21
-374.550339
 31
0.0
  0
LINE
  5
785
100
AcDbEntity
  8
5
 62
     2
100
AcDbLine
 10
94.003242
 20
-371.550339
 30
0.0
 11
99.798797
 21
-373.103253
 31
0.0
  0
LINE
  5
786
100
AcDbEntity
  8
5
 62
     2
100
AcDbLine
 10
94.003242
 20
-371.550339
 30
0.0
 11
99.798797
 21
-369.997424
 31
0.0
  0
LINE
  5
787
100
AcDbEntity
  8
5
 62
     2
100
AcDbLine
 10
99.798797
 20
-373.103253
 30
0.0
 11
99.798797
 21
-369.997424
 31
0.0
  0
LINE
  5
788
100
AcDbEntity
  8
5
 62
     2
100
AcDbLine
 10
94.003242
 20
-371.550339
 30
0.0
 11
129.003242
 21
-371.550339
 31
0.0
  0
LINE
  5
789
100
AcDbEntity
  8
5
 62
     2
100
AcDbLine
 10
129.003242
 20
-371.550339
 30
0.0
 11
123.207687
 21
-369.997424
 31
0.0
  0
LINE
  5
78A
100
AcDbEntity
  8
5
 62
     2
100
AcDbLine
 10
129.003242
 20
-371.550339
 30
0.0
 11
123.207687
 21
-373.103253
 31
0.0
  0
LINE
  5
78B
100
AcDbEntity
  8
5
 62
     2
100
AcDbLine
 10
123.207687
 20
-369.997424
 30
0.0
 11
123.207687
 21
-373.103253
 31
0.0
  0
LINE
  5
78C
100
AcDbEntity
  8
5
 62
     2
100
AcDbLine
 10
129.003242
 20
-320.756662
 30
0.0
 11
129.003242
 21
-374.550339
 31
0.0
  0
ENDBLK
  5
78D
100
AcDbEntity
  8
5
100
AcDbBlockEnd
  0
BLOCK
  5
78E
100
AcDbEntity
  8
5
100
AcDbBlockBegin
  2
*D3
 70
     1
 10
0.0
 20
0.0
 30
0.0
  3
*D3
  1

  0
TEXT
  5
78F
100
AcDbEntity
  8
5
 62
     2
100
AcDbText
 10
-335.541758
 20
346.117722
 30
0.0
 40
9.9
  1
100
 41
1.4
 72
     5
 11
-317.523758
 21
346.117722
 31
0.0
100
AcDbText
  0
LINE
  5
790
100
AcDbEntity
  8
5
 62
     2
100
AcDbLine
 10
-375.146758
 20
220.243338
 30
0.0
 11
-375.146758
 21
347.617722
 31
0.0
  0
LINE
  5
791
100
AcDbEntity
  8
5
 62
     2
100
AcDbLine
 10
-375.146758
 20
344.617722
 30
0.0
 11
-369.351203
 21
343.064807
 31
0.0
  0
LINE
  5
792
100
AcDbEntity
  8
5
 62
     2
100
AcDbLine
 10
-375.146758
 20
344.617722
 30
0.0
 11
-369.351203
 21
346.170636
 31
0.0
  0
LINE
  5
793
100
AcDbEntity
  8
5
 62
     2
100
AcDbLine
 10
-369.351203
 20
343.064807
 30
0.0
 11
-369.351203
 21
346.170636
 31
0.0
  0
LINE
  5
794
100
AcDbEntity
  8
5
 62
     2
100
AcDbLine
 10
-375.146758
 20
344.617722
 30
0.0
 11
-275.146758
 21
344.617722
 31
0.0
  0
LINE
  5
795
100
AcDbEntity
  8
5
 62
     2
100
AcDbLine
 10
-275.146758
 20
344.617722
 30
0.0
 11
-280.942313
 21
346.170636
 31
0.0
  0
LINE
  5
796
100
AcDbEntity
  8
5
 62
     2
100
AcDbLine
 10
-275.146758
 20
344.617722
 30
0.0
 11
-280.942313
 21
343.064807
 31
0.0
  0
LINE
  5
797
100
AcDbEntity
  8
5
 62
     2
100
AcDbLine
 10
-280.942313
 20
346.170636
 30
0.0
 11
-280.942313
 21
343.064807
 31
0.0
  0
LINE
  5
798
100
AcDbEntity
  8
5
 62
     2
100
AcDbLine
 10
-275.146758
 20
314.912382
 30
0.0
 11
-275.146758
 21
347.617722
 31
0.0
  0
ENDBLK
  5
799
100
AcDbEntity
  8
5
100
AcDbBlockEnd
  0
BLOCK
  5
79A
100
AcDbEntity
  8
5
100
AcDbBlockBegin
  2
*D4
 70
     1
 10
0.0
 20
0.0
 30
0.0
  3
*D4
  1

  0
TEXT
  5
79B
100
AcDbEntity
  8
5
 62
     2
100
AcDbText
 10
-234.541758
 20
346.117722
 30
0.0
 40
9.9
  1
102
 41
1.4
 72
     5
 11
-216.523758
 21
346.117722
 31
0.0
100
AcDbText
  0
LINE
  5
79C
100
AcDbEntity
  8
5
 62
     2
100
AcDbLine
 10
-275.146758
 20
344.617722
 30
0.0
 11
-269.351203
 21
343.064807
 31
0.0
  0
LINE
  5
79D
100
AcDbEntity
  8
5
 62
     2
100
AcDbLine
 10
-275.146758
 20
344.617722
 30
0.0
 11
-269.351203
 21
346.170636
 31
0.0
  0
LINE
  5
79E
100
AcDbEntity
  8
5
 62
     2
100
AcDbLine
 10
-269.351203
 20
343.064807
 30
0.0
 11
-269.351203
 21
346.170636
 31
0.0
  0
LINE
  5
79F
100
AcDbEntity
  8
5
 62
     2
100
AcDbLine
 10
-275.146758
 20
344.617722
 30
0.0
 11
-173.146758
 21
344.617722
 31
0.0
  0
LINE
  5
7A0
100
AcDbEntity
  8
5
 62
     2
100
AcDbLine
 10
-173.146758
 20
344.617722
 30
0.0
 11
-178.942313
 21
346.170636
 31
0.0
  0
LINE
  5
7A1
100
AcDbEntity
  8
5
 62
     2
100
AcDbLine
 10
-173.146758
 20
344.617722
 30
0.0
 11
-178.942313
 21
343.064807
 31
0.0
  0
LINE
  5
7A2
100
AcDbEntity
  8
5
 62
     2
100
AcDbLine
 10
-178.942313
 20
346.170636
 30
0.0
 11
-178.942313
 21
343.064807
 31
0.0
  0
LINE
  5
7A3
100
AcDbEntity
  8
5
 62
     2
100
AcDbLine
 10
-173.146758
 20
288.743338
 30
0.0
 11
-173.146758
 21
347.617722
 31
0.0
  0
ENDBLK
  5
7A4
100
AcDbEntity
  8
5
100
AcDbBlockEnd
  0
BLOCK
  5
7A5
100
AcDbEntity
  8
5
100
AcDbBlockBegin
  2
*D5
 70
     1
 10
0.0
 20
0.0
 30
0.0
  3
*D5
  1

  0
TEXT
  5
7A6
100
AcDbEntity
  8
5
 62
     2
100
AcDbText
 10
-131.078899
 20
260.784838
 30
0.0
 40
9.9
  1
53.8
 50
90.0
 41
1.4
 72
     5
 11
-131.078899
 21
285.732838
 31
0.0
100
AcDbText
  0
LINE
  5
7A7
100
AcDbEntity
  8
5
 62
     2
100
AcDbLine
 10
-166.641205
 20
247.743338
 30
0.0
 11
-126.578899
 21
247.743338
 31
0.0
  0
LINE
  5
7A8
100
AcDbEntity
  8
5
 62
     2
100
AcDbLine
 10
-129.578899
 20
247.743338
 30
0.0
 11
-128.025985
 21
253.538893
 31
0.0
  0
LINE
  5
7A9
100
AcDbEntity
  8
5
 62
     2
100
AcDbLine
 10
-129.578899
 20
247.743338
 30
0.0
 11
-131.131814
 21
253.538893
 31
0.0
  0
LINE
  5
7AA
100
AcDbEntity
  8
5
 62
     2
100
AcDbLine
 10
-128.025985
 20
253.538893
 30
0.0
 11
-131.131814
 21
253.538893
 31
0.0
  0
LINE
  5
7AB
100
AcDbEntity
  8
5
 62
     2
100
AcDbLine
 10
-129.578899
 20
247.743338
 30
0.0
 11
-129.578899
 21
301.546338
 31
0.0
  0
LINE
  5
7AC
100
AcDbEntity
  8
5
 62
     2
100
AcDbLine
 10
-129.578899
 20
301.546338
 30
0.0
 11
-131.131814
 21
295.750783
 31
0.0
  0
LINE
  5
7AD
100
AcDbEntity
  8
5
 62
     2
100
AcDbLine
 10
-129.578899
 20
301.546338
 30
0.0
 11
-128.025985
 21
295.750783
 31
0.0
  0
LINE
  5
7AE
100
AcDbEntity
  8
5
 62
     2
100
AcDbLine
 10
-131.131814
 20
295.750783
 30
0.0
 11
-128.025985
 21
295.750783
 31
0.0
  0
LINE
  5
7AF
100
AcDbEntity
  8
5
 62
     2
100
AcDbLine
 10
-188.343758
 20
301.546338
 30
0.0
 11
-126.578899
 21
301.546338
 31
0.0
  0
ENDBLK
  5
7B0
100
AcDbEntity
  8
5
100
AcDbBlockEnd
  0
BLOCK
  5
7B1
100
AcDbEntity
  8
5
100
AcDbBlockBegin
  2
*D6
 70
     1
 10
0.0
 20
0.0
 30
0.0
  3
*D6
  1

  0
TEXT
  5
7B2
100
AcDbEntity
  8
5
 62
     2
100
AcDbText
 10
-131.078899
 20
198.313338
 30
0.0
 40
9.9
  1
85
 50
90.0
 41
1.4
 72
     5
 11
-131.078899
 21
209.401338
 31
0.0
100
AcDbText
  0
LINE
  5
7B3
100
AcDbEntity
  8
5
 62
     2
100
AcDbLine
 10
-231.446758
 20
162.743338
 30
0.0
 11
-126.578899
 21
162.743338
 31
0.0
  0
LINE
  5
7B4
100
AcDbEntity
  8
5
 62
     2
100
AcDbLine
 10
-129.578899
 20
162.743338
 30
0.0
 11
-128.025985
 21
168.538893
 31
0.0
  0
LINE
  5
7B5
100
AcDbEntity
  8
5
 62
     2
100
AcDbLine
 10
-129.578899
 20
162.743338
 30
0.0
 11
-131.131814
 21
168.538893
 31
0.0
  0
LINE
  5
7B6
100
AcDbEntity
  8
5
 62
     2
100
AcDbLine
 10
-128.025985
 20
168.538893
 30
0.0
 11
-131.131814
 21
168.538893
 31
0.0
  0
LINE
  5
7B7
100
AcDbEntity
  8
5
 62
     2
100
AcDbLine
 10
-129.578899
 20
162.743338
 30
0.0
 11
-129.578899
 21
247.743338
 31
0.0
  0
LINE
  5
7B8
100
AcDbEntity
  8
5
 62
     2
100
AcDbLine
 10
-129.578899
 20
247.743338
 30
0.0
 11
-131.131814
 21
241.947783
 31
0.0
  0
LINE
  5
7B9
100
AcDbEntity
  8
5
 62
     2
100
AcDbLine
 10
-129.578899
 20
247.743338
 30
0.0
 11
-128.025985
 21
241.947783
 31
0.0
  0
LINE
  5
7BA
100
AcDbEntity
  8
5
 62
     2
100
AcDbLine
 10
-131.131814
 20
241.947783
 30
0.0
 11
-128.025985
 21
241.947783
 31
0.0
  0
ENDBLK
  5
7BB
100
AcDbEntity
  8
5
100
AcDbBlockEnd
  0
BLOCK
  5
7BC
100
AcDbEntity
  8
5
100
AcDbBlockBegin
  2
*D7
 70
     1
 10
0.0
 20
0.0
 30
0.0
  3
*D7
  1

  0
TEXT
  5
7BD
100
AcDbEntity
  8
5
 62
     2
100
AcDbText
 10
-50.558516
 20
-82.151662
 30
0.0
 40
9.9
  1
150
 50
90.0
 41
1.4
 72
     5
 11
-50.558516
 21
-64.133662
 31
0.0
100
AcDbText
  0
LINE
  5
7BE
100
AcDbEntity
  8
5
 62
     2
100
AcDbLine
 10
73.503242
 20
-146.756662
 30
0.0
 11
-52.058516
 21
-146.756662
 31
0.0
  0
LINE
  5
7BF
100
AcDbEntity
  8
5
 62
     2
100
AcDbLine
 10
-49.058516
 20
-146.756662
 30
0.0
 11
-47.505601
 21
-140.961107
 31
0.0
  0
LINE
  5
7C0
100
AcDbEntity
  8
5
 62
     2
100
AcDbLine
 10
-49.058516
 20
-146.756662
 30
0.0
 11
-50.61143
 21
-140.961107
 31
0.0
  0
LINE
  5
7C1
100
AcDbEntity
  8
5
 62
     2
100
AcDbLine
 10
-47.505601
 20
-140.961107
 30
0.0
 11
-50.61143
 21
-140.961107
 31
0.0
  0
LINE
  5
7C2
100
AcDbEntity
  8
5
 62
     2
100
AcDbLine
 10
-49.058516
 20
-146.756662
 30
0.0
 11
-49.058516
 21
3.243338
 31
0.0
  0
LINE
  5
7C3
100
AcDbEntity
  8
5
 62
     2
100
AcDbLine
 10
-49.058516
 20
3.243338
 30
0.0
 11
-50.61143
 21
-2.552217
 31
0.0
  0
LINE
  5
7C4
100
AcDbEntity
  8
5
 62
     2
100
AcDbLine
 10
-49.058516
 20
3.243338
 30
0.0
 11
-47.505601
 21
-2.552217
 31
0.0
  0
LINE
  5
7C5
100
AcDbEntity
  8
5
 62
     2
100
AcDbLine
 10
-50.61143
 20
-2.552217
 30
0.0
 11
-47.505601
 21
-2.552217
 31
0.0
  0
LINE
  5
7C6
100
AcDbEntity
  8
5
 62
     2
100
AcDbLine
 10
108.503242
 20
3.243338
 30
0.0
 11
-52.058516
 21
3.243338
 31
0.0
  0
ENDBLK
  5
7C7
100
AcDbEntity
  8
5
100
AcDbBlockEnd
  0
ENDSEC
  0
SECTION
  2
ENTITIES
  0
LINE
  5
2F
100
AcDbEntity
  8
1
  6
CENTER
 62
     2
100
AcDbLine
 10
78.029685
 20
-278.756662
 30
0.0
 11
142.783279
 21
-278.756662
 31
0.0
  0
LINE
  5
30
100
AcDbEntity
  8
1
  6
CENTER
 62
     2
100
AcDbLine
 10
-327.337356
 20
-278.756662
 30
0.0
 11
-221.391879
 21
-278.756662
 31
0.0
  0
LINE
  5
31
100
AcDbEntity
  8
1
100
AcDbLine
 10
-268.246758
 20
-334.656662
 30
0.0
 11
-256.046758
 21
-334.656662
 31
0.0
  0
LINE
  5
32
100
AcDbEntity
  8
1
100
AcDbLine
 10
-256.396758
 20
-334.656662
 30
0.0
 11
-256.396758
 21
-338.165914
 31
0.0
  0
LINE
  5
33
100
AcDbEntity
  8
1
100
AcDbLine
 10
-256.396758
 20
-338.165914
 30
0.0
 11
-257.246758
 21
-338.656662
 31
0.0
  0
LINE
  5
34
100
AcDbEntity
  8
1
100
AcDbLine
 10
-259.271758
 20
-334.656662
 30
0.0
 11
-259.271758
 21
-338.165914
 31
0.0
  0
ARC
  5
35
100
AcDbEntity
  8
1
100
AcDbCircle
 10
-257.834258
 20
-336.317959
 30
0.0
 40
2.341227
100
AcDbArc
 50
232.121121
 51
307.878879
  0
ARC
  5
36
100
AcDbEntity
  8
1
100
AcDbCircle
 10
-262.146758
 20
-330.034186
 30
0.0
 40
8.625
100
AcDbArc
 50
250.528777
 51
289.471219
  0
LINE
  5
37
100
AcDbEntity
  8
1
100
AcDbLine
 10
-267.896758
 20
-334.656662
 30
0.0
 11
-267.896758
 21
-338.165914
 31
0.0
  0
LINE
  5
38
100
AcDbEntity
  8
1
100
AcDbLine
 10
-267.896758
 20
-338.165914
 30
0.0
 11
-267.046758
 21
-338.656662
 31
0.0
  0
LINE
  5
39
100
AcDbEntity
  8
1
100
AcDbLine
 10
-267.046758
 20
-338.656662
 30
0.0
 11
-257.246758
 21
-338.656662
 31
0.0
  0
LINE
  5
3A
100
AcDbEntity
  8
1
100
AcDbLine
 10
-265.021758
 20
-334.656662
 30
0.0
 11
-265.021758
 21
-338.165914
 31
0.0
  0
ARC
  5
3B
100
AcDbEntity
  8
1
100
AcDbCircle
 10
-266.459258
 20
-336.317959
 30
0.0
 40
2.341227
100
AcDbArc
 50
232.121121
 51
307.878879
  0
LINE
  5
3C
100
AcDbEntity
  8
1
100
AcDbLine
 10
-256.046758
 20
-333.156662
 30
0.0
 11
-256.046758
 21
-334.656662
 31
0.0
  0
LINE
  5
3D
100
AcDbEntity
  8
1
100
AcDbLine
 10
-268.246758
 20
-334.656662
 30
0.0
 11
-268.246758
 21
-333.156662
 31
0.0
  0
LINE
  5
3E
100
AcDbEntity
  8
1
100
AcDbLine
 10
-262.146758
 20
-334.656662
 30
0.0
 11
-262.646758
 21
-333.156662
 31
0.0
  0
LINE
  5
3F
100
AcDbEntity
  8
1
100
AcDbLine
 10
-262.146758
 20
-333.156662
 30
0.0
 11
-261.646758
 21
-334.656662
 31
0.0
  0
LINE
  5
40
100
AcDbEntity
  8
1
100
AcDbLine
 10
-294.246758
 20
-334.656662
 30
0.0
 11
-282.046758
 21
-334.656662
 31
0.0
  0
LINE
  5
41
100
AcDbEntity
  8
1
100
AcDbLine
 10
-282.396758
 20
-334.656662
 30
0.0
 11
-282.396758
 21
-338.165914
 31
0.0
  0
LINE
  5
42
100
AcDbEntity
  8
1
100
AcDbLine
 10
-282.396758
 20
-338.165914
 30
0.0
 11
-283.246758
 21
-338.656662
 31
0.0
  0
LINE
  5
43
100
AcDbEntity
  8
1
100
AcDbLine
 10
-285.271758
 20
-334.656662
 30
0.0
 11
-285.271758
 21
-338.165914
 31
0.0
  0
ARC
  5
44
100
AcDbEntity
  8
1
100
AcDbCircle
 10
-283.834258
 20
-336.317959
 30
0.0
 40
2.341227
100
AcDbArc
 50
232.121121
 51
307.878879
  0
ARC
  5
45
100
AcDbEntity
  8
1
100
AcDbCircle
 10
-288.146758
 20
-330.034186
 30
0.0
 40
8.625
100
AcDbArc
 50
250.528777
 51
289.471219
  0
LINE
  5
46
100
AcDbEntity
  8
1
100
AcDbLine
 10
-293.896758
 20
-334.656662
 30
0.0
 11
-293.896758
 21
-338.165914
 31
0.0
  0
LINE
  5
47
100
AcDbEntity
  8
1
100
AcDbLine
 10
-293.896758
 20
-338.165914
 30
0.0
 11
-293.046758
 21
-338.656662
 31
0.0
  0
LINE
  5
48
100
AcDbEntity
  8
1
100
AcDbLine
 10
-293.046758
 20
-338.656662
 30
0.0
 11
-283.246758
 21
-338.656662
 31
0.0
  0
LINE
  5
49
100
AcDbEntity
  8
1
100
AcDbLine
 10
-291.021758
 20
-334.656662
 30
0.0
 11
-291.021758
 21
-338.165914
 31
0.0
  0
ARC
  5
4A
100
AcDbEntity
  8
1
100
AcDbCircle
 10
-292.459258
 20
-336.317959
 30
0.0
 40
2.341227
100
AcDbArc
 50
232.121121
 51
307.878879
  0
LINE
  5
4B
100
AcDbEntity
  8
1
100
AcDbLine
 10
-282.046758
 20
-333.156662
 30
0.0
 11
-282.046758
 21
-334.656662
 31
0.0
  0
LINE
  5
4C
100
AcDbEntity
  8
1
100
AcDbLine
 10
-294.246758
 20
-334.656662
 30
0.0
 11
-294.246758
 21
-333.156662
 31
0.0
  0
LINE
  5
4D
100
AcDbEntity
  8
1
100
AcDbLine
 10
-288.146758
 20
-334.656662
 30
0.0
 11
-288.646758
 21
-333.156662
 31
0.0
  0
LINE
  5
4E
100
AcDbEntity
  8
1
100
AcDbLine
 10
-288.146758
 20
-333.156662
 30
0.0
 11
-287.646758
 21
-334.656662
 31
0.0
  0
LINE
  5
4F
100
AcDbEntity
  8
1
  6
CENTER
 62
     2
100
AcDbLine
 10
-262.146758
 20
-323.736507
 30
0.0
 11
-262.146758
 21
-342.738963
 31
0.0
  0
ARC
  5
50
100
AcDbEntity
  8
1
100
AcDbCircle
 10
-253.950606
 20
-330.274033
 30
0.0
 40
3.0
100
AcDbArc
 50
105.0
 51
180.0
  0
ARC
  5
51
100
AcDbEntity
  8
1
100
AcDbCircle
 10
-296.342911
 20
-330.274033
 30
0.0
 40
3.0
100
AcDbArc
 50
360.0
 51
75.0
  0
LINE
  5
52
100
AcDbEntity
  8
1
100
AcDbLine
 10
-294.146758
 20
-331.556662
 30
0.0
 11
-256.146758
 21
-331.556662
 31
0.0
  0
LINE
  5
53
100
AcDbEntity
  8
1
100
AcDbLine
 10
-294.246758
 20
-333.156662
 30
0.0
 11
-256.046758
 21
-333.156662
 31
0.0
  0
LINE
  5
54
100
AcDbEntity
  8
1
  6
CENTER
 62
     2
100
AcDbLine
 10
-288.146758
 20
-323.736507
 30
0.0
 11
-288.146758
 21
-342.738963
 31
0.0
  0
LINE
  5
55
100
AcDbEntity
  8
1
100
AcDbLine
 10
116.503242
 20
-334.656662
 30
0.0
 11
116.503242
 21
-338.656662
 31
0.0
  0
LINE
  5
56
100
AcDbEntity
  8
1
100
AcDbLine
 10
111.503242
 20
-334.656662
 30
0.0
 11
111.503242
 21
-338.165914
 31
0.0
  0
ARC
  5
57
100
AcDbEntity
  8
1
100
AcDbCircle
 10
114.003242
 20
-332.043454
 30
0.0
 40
6.613208
100
AcDbArc
 50
247.788205
 51
292.211795
  0
LINE
  5
58
100
AcDbEntity
  8
1
100
AcDbLine
 10
106.503242
 20
-334.656662
 30
0.0
 11
106.503242
 21
-338.656662
 31
0.0
  0
LINE
  5
59
100
AcDbEntity
  8
1
100
AcDbLine
 10
106.503242
 20
-338.656662
 30
0.0
 11
116.503242
 21
-338.656662
 31
0.0
  0
ARC
  5
5A
100
AcDbEntity
  8
1
100
AcDbCircle
 10
109.003242
 20
-332.043454
 30
0.0
 40
6.613208
100
AcDbArc
 50
247.788205
 51
292.211795
  0
LINE
  5
5B
100
AcDbEntity
  8
1
100
AcDbLine
 10
117.603242
 20
-333.156662
 30
0.0
 11
117.603242
 21
-334.656662
 31
0.0
  0
LINE
  5
5C
100
AcDbEntity
  8
1
100
AcDbLine
 10
117.603242
 20
-334.656662
 30
0.0
 11
105.403242
 21
-334.656662
 31
0.0
  0
LINE
  5
5D
100
AcDbEntity
  8
1
100
AcDbLine
 10
105.403242
 20
-334.656662
 30
0.0
 11
105.403242
 21
-333.156662
 31
0.0
  0
LINE
  5
5E
100
AcDbEntity
  8
1
100
AcDbLine
 10
98.503242
 20
-331.556662
 30
0.0
 11
124.503242
 21
-331.556662
 31
0.0
  0
LINE
  5
5F
100
AcDbEntity
  8
1
100
AcDbLine
 10
98.503242
 20
-333.156662
 30
0.0
 11
124.503242
 21
-333.156662
 31
0.0
  0
LINE
  5
60
100
AcDbEntity
  8
1
  6
DASHED
100
AcDbLine
 10
-300.146758
 20
282.743338
 30
0.0
 11
-250.146758
 21
282.743338
 31
0.0
  0
LINE
  5
61
100
AcDbEntity
  8
1
  6
DASHED
100
AcDbLine
 10
-300.146758
 20
212.743338
 30
0.0
 11
-250.146758
 21
212.743338
 31
0.0
  0
LINE
  5
62
100
AcDbEntity
  8
1
  6
DASHED
100
AcDbLine
 10
-310.146758
 20
222.743338
 30
0.0
 11
-310.146758
 21
272.743338
 31
0.0
  0
LINE
  5
63
100
AcDbEntity
  8
1
  6
DASHED
100
AcDbLine
 10
-240.146758
 20
222.743338
 30
0.0
 11
-240.146758
 21
272.743338
 31
0.0
  0
ARC
  5
64
100
AcDbEntity
  8
1
  6
DASHED
100
AcDbCircle
 10
-300.146758
 20
222.743338
 30
0.0
 40
10.0
100
AcDbArc
 50
180.0
 51
270.0
  0
ARC
  5
65
100
AcDbEntity
  8
1
  6
DASHED
100
AcDbCircle
 10
-250.146758
 20
222.743338
 30
0.0
 40
10.0
100
AcDbArc
 50
270.0
 51
0.0
  0
ARC
  5
66
100
AcDbEntity
  8
1
  6
DASHED
100
AcDbCircle
 10
-250.146758
 20
272.743338
 30
0.0
 40
10.0
100
AcDbArc
 50
0.0
 51
90.0
  0
ARC
  5
67
100
AcDbEntity
  8
1
  6
DASHED
100
AcDbCircle
 10
-300.146758
 20
272.743338
 30
0.0
 40
10.0
100
AcDbArc
 50
90.0
 51
180.0
  0
CIRCLE
  5
68
100
AcDbEntity
  8
1
  6
DASHED
100
AcDbCircle
 10
-250.396758
 20
272.493338
 30
0.0
 40
4.5
  0
CIRCLE
  5
69
100
AcDbEntity
  8
1
  6
DASHED
100
AcDbCircle
 10
-250.396758
 20
222.993338
 30
0.0
 40
4.5
  0
CIRCLE
  5
6A
100
AcDbEntity
  8
1
  6
DASHED
100
AcDbCircle
 10
-299.896758
 20
222.993338
 30
0.0
 40
4.5
  0
CIRCLE
  5
6B
100
AcDbEntity
  8
1
  6
DASHED
100
AcDbCircle
 10
-299.896758
 20
272.493338
 30
0.0
 40
4.5
  0
LINE
  5
6C
100
AcDbEntity
  8
1
  6
CENTER
 62
     2
100
AcDbLine
 10
-309.277417
 20
272.493338
 30
0.0
 11
-288.943364
 21
272.493338
 31
0.0
  0
LINE
  5
6D
100
AcDbEntity
  8
1
  6
CENTER
 62
     2
100
AcDbLine
 10
-260.984037
 20
272.493338
 30
0.0
 11
-241.497213
 21
272.493338
 31
0.0
  0
LINE
  5
6E
100
AcDbEntity
  8
1
  6
CENTER
 62
     2
100
AcDbLine
 10
-309.277417
 20
222.993338
 30
0.0
 11
-288.943364
 21
222.993338
 31
0.0
  0
LINE
  5
6F
100
AcDbEntity
  8
1
  6
CENTER
 62
     2
100
AcDbLine
 10
-260.984037
 20
222.993338
 30
0.0
 11
-241.497213
 21
222.993338
 31
0.0
  0
LINE
  5
70
100
AcDbEntity
  8
1
  6
CENTER
 62
     2
100
AcDbLine
 10
-250.396758
 20
214.016293
 30
0.0
 11
-250.396758
 21
234.08241
 31
0.0
  0
LINE
  5
71
100
AcDbEntity
  8
1
  6
CENTER
 62
     2
100
AcDbLine
 10
-250.396758
 20
261.214108
 30
0.0
 11
-250.396758
 21
281.845486
 31
0.0
  0
LINE
  5
72
100
AcDbEntity
  8
1
  6
CENTER
 62
     2
100
AcDbLine
 10
-299.896758
 20
214.016293
 30
0.0
 11
-299.896758
 21
234.08241
 31
0.0
  0
LINE
  5
73
100
AcDbEntity
  8
1
  6
CENTER
 62
     2
100
AcDbLine
 10
-299.896758
 20
261.214108
 30
0.0
 11
-299.896758
 21
281.845486
 31
0.0
  0
LINE
  5
74
100
AcDbEntity
  8
1
100
AcDbLine
 10
116.859742
 20
-250.400162
 30
0.0
 11
116.859742
 21
-248.18423
 31
0.0
  0
LINE
  5
75
100
AcDbEntity
  8
1
100
AcDbLine
 10
116.859742
 20
-311.400162
 30
0.0
 11
116.859742
 21
-307.113162
 31
0.0
  0
LINE
  5
76
100
AcDbEntity
  8
1
100
AcDbLine
 10
106.146742
 20
-311.400162
 30
0.0
 11
106.146742
 21
-307.113162
 31
0.0
  0
ARC
  5
77
100
AcDbEntity
  8
1
100
AcDbCircle
 10
113.023242
 20
-264.752627
 30
0.0
 40
3.8365
100
AcDbArc
 50
0.0
 51
90.0
  0
ARC
  5
78
100
AcDbEntity
  8
1
100
AcDbCircle
 10
109.983242
 20
-264.752627
 30
0.0
 40
3.8365
100
AcDbArc
 50
90.0
 51
180.0
  0
ARC
  5
79
100
AcDbEntity
  8
1
100
AcDbCircle
 10
109.983242
 20
-292.760696
 30
0.0
 40
3.8365
100
AcDbArc
 50
180.0
 51
270.0
  0
ARC
  5
7A
100
AcDbEntity
  8
1
100
AcDbCircle
 10
113.023242
 20
-292.760696
 30
0.0
 40
3.8365
100
AcDbArc
 50
270.0
 51
360.0
  0
LINE
  5
7B
100
AcDbEntity
  8
1
100
AcDbLine
 10
109.983242
 20
-296.597196
 30
0.0
 11
113.023242
 21
-296.597196
 31
0.0
  0
LINE
  5
7C
100
AcDbEntity
  8
1
100
AcDbLine
 10
109.983242
 20
-260.916127
 30
0.0
 11
113.023242
 21
-260.916127
 31
0.0
  0
LINE
  5
7D
100
AcDbEntity
  8
1
100
AcDbLine
 10
116.859742
 20
-292.760696
 30
0.0
 11
116.859742
 21
-264.752627
 31
0.0
  0
LINE
  5
7E
100
AcDbEntity
  8
1
100
AcDbLine
 10
106.146742
 20
-292.760696
 30
0.0
 11
106.146742
 21
-264.752627
 31
0.0
  0
LINE
  5
7F
100
AcDbEntity
  8
1
100
AcDbLine
 10
118.281187
 20
-256.168384
 30
0.0
 11
116.859742
 21
-260.916127
 31
0.0
  0
LINE
  5
80
100
AcDbEntity
  8
1
100
AcDbLine
 10
104.725296
 20
-256.168384
 30
0.0
 11
106.146742
 21
-260.916127
 31
0.0
  0
LINE
  5
81
100
AcDbEntity
  8
1
100
AcDbLine
 10
116.859742
 20
-296.597196
 30
0.0
 11
118.281187
 21
-301.34494
 31
0.0
  0
LINE
  5
82
100
AcDbEntity
  8
1
100
AcDbLine
 10
106.146742
 20
-296.597196
 30
0.0
 11
104.725296
 21
-301.34494
 31
0.0
  0
ARC
  5
83
100
AcDbEntity
  8
1
100
AcDbCircle
 10
116.503242
 20
-250.400162
 30
0.0
 40
0.3565
100
AcDbArc
 50
270.0
 51
360.0
  0
ARC
  5
84
100
AcDbEntity
  8
1
100
AcDbCircle
 10
116.503242
 20
-245.82773
 30
0.0
 40
2.0
100
AcDbArc
 50
180.0
 51
270.0
  0
ARC
  5
85
100
AcDbEntity
  8
1
100
AcDbCircle
 10
106.503242
 20
-245.82773
 30
0.0
 40
2.0
100
AcDbArc
 50
270.0
 51
0.0
  0
LINE
  5
86
100
AcDbEntity
  8
1
100
AcDbLine
 10
119.066824
 20
-237.278866
 30
0.0
 11
116.859742
 21
-247.82773
 31
0.0
  0
LINE
  5
87
100
AcDbEntity
  8
1
100
AcDbLine
 10
103.939659
 20
-237.278866
 30
0.0
 11
106.146742
 21
-247.82773
 31
0.0
  0
ARC
  5
88
100
AcDbEntity
  8
1
100
AcDbCircle
 10
116.503242
 20
-248.18423
 30
0.0
 40
0.3565
100
AcDbArc
 50
0.0
 51
90.0
  0
ARC
  5
89
100
AcDbEntity
  8
1
100
AcDbCircle
 10
106.503242
 20
-248.18423
 30
0.0
 40
0.3565
100
AcDbArc
 50
90.0
 51
180.0
  0
ARC
  5
8A
100
AcDbEntity
  8
1
100
AcDbCircle
 10
106.503242
 20
-250.400162
 30
0.0
 40
0.3565
100
AcDbArc
 50
180.0
 51
270.0
  0
LINE
  5
8B
100
AcDbEntity
  8
1
100
AcDbLine
 10
106.146742
 20
-250.400162
 30
0.0
 11
106.146742
 21
-248.18423
 31
0.0
  0
ARC
  5
8C
100
AcDbEntity
  8
1
100
AcDbCircle
 10
116.503242
 20
-313.756662
 30
0.0
 40
2.0
100
AcDbArc
 50
90.0
 51
180.0
  0
ARC
  5
8D
100
AcDbEntity
  8
1
100
AcDbCircle
 10
106.503242
 20
-313.756662
 30
0.0
 40
2.0
100
AcDbArc
 50
0.0
 51
90.0
  0
LINE
  5
8E
100
AcDbEntity
  8
1
100
AcDbLine
 10
119.556357
 20
-315.558123
 30
0.0
 11
116.859742
 21
-311.756662
 31
0.0
  0
LINE
  5
8F
100
AcDbEntity
  8
1
100
AcDbLine
 10
103.450127
 20
-315.558123
 30
0.0
 11
106.146742
 21
-311.756662
 31
0.0
  0
ARC
  5
90
100
AcDbEntity
  8
1
100
AcDbCircle
 10
116.503242
 20
-307.113162
 30
0.0
 40
0.3565
100
AcDbArc
 50
0.0
 51
90.0
  0
ARC
  5
91
100
AcDbEntity
  8
1
100
AcDbCircle
 10
116.503242
 20
-311.400162
 30
0.0
 40
0.3565
100
AcDbArc
 50
270.0
 51
360.0
  0
ARC
  5
92
100
AcDbEntity
  8
1
100
AcDbCircle
 10
106.503242
 20
-311.400162
 30
0.0
 40
0.3565
100
AcDbArc
 50
180.0
 51
270.0
  0
ARC
  5
93
100
AcDbEntity
  8
1
100
AcDbCircle
 10
106.503242
 20
-307.113162
 30
0.0
 40
0.3565
100
AcDbArc
 50
90.0
 51
180.0
  0
LINE
  5
94
100
AcDbEntity
  8
1
100
AcDbLine
 10
129.803242
 20
-310.256662
 30
0.0
 11
129.803242
 21
-247.256662
 31
0.0
  0
LINE
  5
95
100
AcDbEntity
  8
1
100
AcDbLine
 10
93.203242
 20
-310.256662
 30
0.0
 11
93.203242
 21
-247.256662
 31
0.0
  0
LINE
  5
96
100
AcDbEntity
  8
1
100
AcDbLine
 10
129.803242
 20
-247.256662
 30
0.0
 11
129.201198
 21
-244.998999
 31
0.0
  0
LINE
  5
97
100
AcDbEntity
  8
1
100
AcDbLine
 10
93.203242
 20
-247.256662
 30
0.0
 11
93.805285
 21
-244.998999
 31
0.0
  0
ARC
  5
98
100
AcDbEntity
  8
1
100
AcDbCircle
 10
128.234963
 20
-245.256662
 30
0.0
 40
1.0
100
AcDbArc
 50
14.931417
 51
39.800466
  0
ARC
  5
99
100
AcDbEntity
  8
1
100
AcDbCircle
 10
94.77152
 20
-245.256662
 30
0.0
 40
1.0
100
AcDbArc
 50
140.199534
 51
165.068583
  0
LINE
  5
9A
100
AcDbEntity
  8
1
100
AcDbLine
 10
129.803242
 20
-310.256662
 30
0.0
 11
129.201198
 21
-312.514324
 31
0.0
  0
LINE
  5
9B
100
AcDbEntity
  8
1
100
AcDbLine
 10
93.203242
 20
-310.256662
 30
0.0
 11
93.805285
 21
-312.514324
 31
0.0
  0
ARC
  5
9C
100
AcDbEntity
  8
1
100
AcDbCircle
 10
128.234963
 20
-312.256662
 30
0.0
 40
1.0
100
AcDbArc
 50
320.199534
 51
345.068583
  0
ARC
  5
9D
100
AcDbEntity
  8
1
100
AcDbCircle
 10
94.77152
 20
-312.256662
 30
0.0
 40
1.0
100
AcDbArc
 50
194.931417
 51
219.800466
  0
LINE
  5
9E
100
AcDbEntity
  8
1
100
AcDbLine
 10
-306.146758
 20
-158.756662
 30
0.0
 11
-244.146758
 21
-158.756662
 31
0.0
  0
LINE
  5
9F
100
AcDbEntity
  8
1
100
AcDbLine
 10
-310.146758
 20
-154.756662
 30
0.0
 11
-310.146758
 21
-146.756662
 31
0.0
  0
LINE
  5
A0
100
AcDbEntity
  8
1
100
AcDbLine
 10
-240.146758
 20
-154.756662
 30
0.0
 11
-240.146758
 21
-146.756662
 31
0.0
  0
LINE
  5
A1
100
AcDbEntity
  8
1
100
AcDbLine
 10
-261.146758
 20
-234.893237
 30
0.0
 11
-261.146758
 21
-163.756662
 31
0.0
  0
LINE
  5
A2
100
AcDbEntity
  8
1
100
AcDbLine
 10
-289.146758
 20
-234.893237
 30
0.0
 11
-289.146758
 21
-163.756662
 31
0.0
  0
ARC
  5
A3
100
AcDbEntity
  8
1
100
AcDbCircle
 10
-306.146758
 20
-154.756662
 30
0.0
 40
4.0
100
AcDbArc
 50
180.0
 51
270.0
  0
ARC
  5
A4
100
AcDbEntity
  8
1
100
AcDbCircle
 10
-244.146758
 20
-154.756662
 30
0.0
 40
4.0
100
AcDbArc
 50
270.0
 51
360.0
  0
ARC
  5
A5
100
AcDbEntity
  8
1
100
AcDbCircle
 10
-256.146758
 20
-163.756662
 30
0.0
 40
5.0
100
AcDbArc
 50
90.0
 51
180.0
  0
ARC
  5
A6
100
AcDbEntity
  8
1
100
AcDbCircle
 10
-294.146758
 20
-163.756662
 30
0.0
 40
5.0
100
AcDbArc
 50
0.0
 51
90.0
  0
CIRCLE
  5
A7
100
AcDbEntity
  8
1
100
AcDbCircle
 10
-275.146758
 20
-278.756662
 30
0.0
 40
40.0
  0
ARC
  5
A8
100
AcDbEntity
  8
1
100
AcDbCircle
 10
-299.146758
 20
-234.893237
 30
0.0
 40
10.0
100
AcDbArc
 50
298.685402
 51
360.0
  0
ARC
  5
A9
100
AcDbEntity
  8
1
100
AcDbCircle
 10
-251.146758
 20
-234.893237
 30
0.0
 40
10.0
100
AcDbArc
 50
180.0
 51
241.314598
  0
ARC
  5
AA
100
AcDbEntity
  8
1
100
AcDbCircle
 10
-243.146758
 20
-176.733923
 30
0.0
 40
18.0
100
AcDbArc
 50
92.605251
 51
180.0
  0
ARC
  5
AB
100
AcDbEntity
  8
1
100
AcDbCircle
 10
-307.146758
 20
-176.733923
 30
0.0
 40
18.0
100
AcDbArc
 50
0.0
 51
87.394749
  0
LINE
  5
AC
100
AcDbEntity
  8
1
100
AcDbLine
 10
-272.146758
 20
-176.733923
 30
0.0
 11
-278.146758
 21
-176.733923
 31
0.0
  0
LINE
  5
AD
100
AcDbEntity
  8
1
100
AcDbLine
 10
-278.146758
 20
-174.733923
 30
0.0
 11
-278.146758
 21
-160.756662
 31
0.0
  0
LINE
  5
AE
100
AcDbEntity
  8
1
100
AcDbLine
 10
-272.146758
 20
-174.733923
 30
0.0
 11
-272.146758
 21
-160.756662
 31
0.0
  0
ARC
  5
AF
100
AcDbEntity
  8
1
100
AcDbCircle
 10
-270.146758
 20
-160.756662
 30
0.0
 40
2.0
100
AcDbArc
 50
90.0
 51
180.0
  0
ARC
  5
B0
100
AcDbEntity
  8
1
100
AcDbCircle
 10
-280.146758
 20
-160.756662
 30
0.0
 40
2.0
100
AcDbArc
 50
0.0
 51
90.0
  0
ARC
  5
B1
100
AcDbEntity
  8
1
100
AcDbCircle
 10
-280.146758
 20
-174.733923
 30
0.0
 40
2.0
100
AcDbArc
 50
270.0
 51
360.0
  0
ARC
  5
B2
100
AcDbEntity
  8
1
100
AcDbCircle
 10
-270.146758
 20
-174.733923
 30
0.0
 40
2.0
100
AcDbArc
 50
180.0
 51
270.0
  0
ARC
  5
B3
100
AcDbEntity
  8
1
100
AcDbCircle
 10
-275.146758
 20
-288.756662
 30
0.0
 40
75.0
100
AcDbArc
 50
60.464828
 51
73.599314
  0
ARC
  5
B4
100
AcDbEntity
  8
1
100
AcDbCircle
 10
-275.146758
 20
-288.756662
 30
0.0
 40
75.0
100
AcDbArc
 50
106.400686
 51
119.535172
  0
LINE
  5
B5
100
AcDbEntity
  8
1
100
AcDbLine
 10
-314.146758
 20
-227.461713
 30
0.0
 11
-314.146758
 21
-226.982881
 31
0.0
  0
LINE
  5
B6
100
AcDbEntity
  8
1
100
AcDbLine
 10
-236.146758
 20
-227.461713
 30
0.0
 11
-236.146758
 21
-226.982881
 31
0.0
  0
ARC
  5
B7
100
AcDbEntity
  8
1
100
AcDbCircle
 10
-299.146758
 20
-207.215261
 30
0.0
 40
10.0
100
AcDbArc
 50
286.400686
 51
360.0
  0
ARC
  5
B8
100
AcDbEntity
  8
1
100
AcDbCircle
 10
-251.146758
 20
-207.215261
 30
0.0
 40
10.0
100
AcDbArc
 50
180.0
 51
253.599314
  0
LINE
  5
B9
100
AcDbEntity
  8
1
100
AcDbLine
 10
-241.218476
 20
-232.357614
 30
0.0
 11
-243.261942
 21
-233.70826
 31
0.0
  0
LINE
  5
BA
100
AcDbEntity
  8
1
100
AcDbLine
 10
-246.867362
 20
-238.163858
 30
0.0
 11
-248.541062
 21
-242.429854
 31
0.0
  0
LINE
  5
BB
100
AcDbEntity
  8
1
100
AcDbLine
 10
-303.426155
 20
-238.163858
 30
0.0
 11
-301.752455
 21
-242.429854
 31
0.0
  0
LINE
  5
BC
100
AcDbEntity
  8
1
100
AcDbLine
 10
-309.075041
 20
-232.357614
 30
0.0
 11
-307.031574
 21
-233.70826
 31
0.0
  0
ARC
  5
BD
100
AcDbEntity
  8
1
100
AcDbCircle
 10
-241.559186
 20
-245.16909
 30
0.0
 40
7.5
100
AcDbArc
 50
158.578178
 51
225.0
  0
ARC
  5
BE
100
AcDbEntity
  8
1
100
AcDbCircle
 10
-308.73433
 20
-245.16909
 30
0.0
 40
7.5
100
AcDbArc
 50
315.0
 51
21.421822
  0
ARC
  5
BF
100
AcDbEntity
  8
1
100
AcDbCircle
 10
-238.023652
 20
-241.633556
 30
0.0
 40
9.5
100
AcDbArc
 50
123.463041
 51
158.578178
  0
ARC
  5
C0
100
AcDbEntity
  8
1
100
AcDbCircle
 10
-236.255885
 20
-239.865789
 30
0.0
 40
9.0
100
AcDbArc
 50
107.415439
 51
123.463041
  0
ARC
  5
C1
100
AcDbEntity
  8
1
100
AcDbCircle
 10
-312.269864
 20
-241.633556
 30
0.0
 40
9.5
100
AcDbArc
 50
21.421822
 51
56.536959
  0
ARC
  5
C2
100
AcDbEntity
  8
1
100
AcDbCircle
 10
-314.037631
 20
-239.865789
 30
0.0
 40
9.0
100
AcDbArc
 50
56.536959
 51
72.584561
  0
ARC
  5
C3
100
AcDbEntity
  8
1
100
AcDbCircle
 10
-240.146758
 20
-227.461713
 30
0.0
 40
4.0
100
AcDbArc
 50
287.415439
 51
360.0
  0
ARC
  5
C4
100
AcDbEntity
  8
1
100
AcDbCircle
 10
-310.146758
 20
-227.461713
 30
0.0
 40
4.0
100
AcDbArc
 50
180.0
 51
252.584561
  0
ARC
  5
C5
100
AcDbEntity
  8
1
100
AcDbCircle
 10
-310.146758
 20
-226.982881
 30
0.0
 40
4.0
100
AcDbArc
 50
119.535172
 51
180.0
  0
ARC
  5
C6
100
AcDbEntity
  8
1
100
AcDbCircle
 10
-240.146758
 20
-226.982881
 30
0.0
 40
4.0
100
AcDbArc
 50
0.0
 51
60.464828
  0
LINE
  5
C7
100
AcDbEntity
  8
1
  6
CENTER
 62
     2
100
AcDbLine
 10
-299.896758
 20
-171.24381
 30
0.0
 11
-299.896758
 21
-136.793483
 31
0.0
  0
LINE
  5
C8
100
AcDbEntity
  8
1
  6
CENTER
 62
     2
100
AcDbLine
 10
-250.396758
 20
-171.24381
 30
0.0
 11
-250.396758
 21
-136.793483
 31
0.0
  0
LINE
  5
C9
100
AcDbEntity
  8
1
100
AcDbLine
 10
-294.146758
 20
-330.756662
 30
0.0
 11
-256.146758
 21
-330.756662
 31
0.0
  0
ARC
  5
CA
100
AcDbEntity
  8
1
100
AcDbCircle
 10
-251.146758
 20
-316.822394
 30
0.0
 40
5.0
100
AcDbArc
 50
122.230953
 51
180.0
  0
ARC
  5
CB
100
AcDbEntity
  8
1
100
AcDbCircle
 10
-299.146758
 20
-316.822394
 30
0.0
 40
5.0
100
AcDbArc
 50
0.0
 51
57.769047
  0
LINE
  5
CC
100
AcDbEntity
  8
1
100
AcDbLine
 10
-291.146758
 20
-327.756662
 30
0.0
 11
-259.146758
 21
-327.756662
 31
0.0
  0
ARC
  5
CD
100
AcDbEntity
  8
1
100
AcDbCircle
 10
-259.146758
 20
-324.756662
 30
0.0
 40
3.0
100
AcDbArc
 50
270.0
 51
360.0
  0
ARC
  5
CE
100
AcDbEntity
  8
1
100
AcDbCircle
 10
-291.146758
 20
-324.756662
 30
0.0
 40
3.0
100
AcDbArc
 50
180.0
 51
270.0
  0
LINE
  5
CF
100
AcDbEntity
  8
1
100
AcDbLine
 10
-254.727063
 20
-327.376256
 30
0.0
 11
-247.768505
 21
-325.511716
 31
0.0
  0
LINE
  5
D0
100
AcDbEntity
  8
1
100
AcDbLine
 10
-295.566454
 20
-327.376256
 30
0.0
 11
-302.525012
 21
-325.511716
 31
0.0
  0
ARC
  5
D1
100
AcDbEntity
  8
1
100
AcDbCircle
 10
-253.146758
 20
-330.058643
 30
0.0
 40
3.0
100
AcDbArc
 50
105.0
 51
180.0
  0
ARC
  5
D2
100
AcDbEntity
  8
1
100
AcDbCircle
 10
-297.146758
 20
-330.058643
 30
0.0
 40
3.0
100
AcDbArc
 50
360.0
 51
75.0
  0
LINE
  5
D3
100
AcDbEntity
  8
1
100
AcDbLine
 10
-248.541062
 20
-315.083469
 30
0.0
 11
-246.867362
 21
-319.349466
 31
0.0
  0
LINE
  5
D4
100
AcDbEntity
  8
1
100
AcDbLine
 10
-301.752455
 20
-315.083469
 30
0.0
 11
-303.426155
 21
-319.349466
 31
0.0
  0
ARC
  5
D5
100
AcDbEntity
  8
1
100
AcDbCircle
 10
-241.559186
 20
-312.344234
 30
0.0
 40
7.5
100
AcDbArc
 50
135.0
 51
201.421822
  0
ARC
  5
D6
100
AcDbEntity
  8
1
100
AcDbCircle
 10
-308.73433
 20
-312.344234
 30
0.0
 40
7.5
100
AcDbArc
 50
338.578178
 51
45.0
  0
ARC
  5
D7
100
AcDbEntity
  8
1
100
AcDbCircle
 10
-238.023652
 20
-315.879768
 30
0.0
 40
9.5
100
AcDbArc
 50
201.421822
 51
210.574239
  0
ARC
  5
D8
100
AcDbEntity
  8
1
100
AcDbCircle
 10
-312.269864
 20
-315.879768
 30
0.0
 40
9.5
100
AcDbArc
 50
329.425761
 51
338.578178
  0
ARC
  5
D9
100
AcDbEntity
  8
1
100
AcDbCircle
 10
-249.646758
 20
-322.746602
 30
0.0
 40
4.0
100
AcDbArc
 50
0.0
 51
30.574239
  0
ARC
  5
DA
100
AcDbEntity
  8
1
100
AcDbCircle
 10
-300.646758
 20
-322.746602
 30
0.0
 40
4.0
100
AcDbArc
 50
149.425761
 51
180.0
  0
ARC
  5
DB
100
AcDbEntity
  8
1
100
AcDbCircle
 10
-248.509415
 20
-322.746602
 30
0.0
 40
2.862657
100
AcDbArc
 50
285.0
 51
360.0
  0
ARC
  5
DC
100
AcDbEntity
  8
1
100
AcDbCircle
 10
-301.784102
 20
-322.746602
 30
0.0
 40
2.862657
100
AcDbArc
 50
180.0
 51
255.0
  0
LINE
  5
DD
100
AcDbEntity
  8
1
100
AcDbLine
 10
-256.146758
 20
-333.156662
 30
0.0
 11
-256.146758
 21
-330.058643
 31
0.0
  0
LINE
  5
DE
100
AcDbEntity
  8
1
100
AcDbLine
 10
-256.146758
 20
-324.756662
 30
0.0
 11
-256.146758
 21
-316.822394
 31
0.0
  0
LINE
  5
DF
100
AcDbEntity
  8
1
100
AcDbLine
 10
-294.146758
 20
-333.156662
 30
0.0
 11
-294.146758
 21
-330.058643
 31
0.0
  0
LINE
  5
E0
100
AcDbEntity
  8
1
100
AcDbLine
 10
-294.146758
 20
-324.756662
 30
0.0
 11
-294.146758
 21
-316.822394
 31
0.0
  0
LINE
  5
E1
100
AcDbEntity
  8
1
100
AcDbLine
 10
80.503242
 20
-158.756662
 30
0.0
 11
142.503242
 21
-158.756662
 31
0.0
  0
LINE
  5
E2
100
AcDbEntity
  8
1
100
AcDbLine
 10
76.503242
 20
-154.756662
 30
0.0
 11
76.503242
 21
-146.756662
 31
0.0
  0
LINE
  5
E3
100
AcDbEntity
  8
1
100
AcDbLine
 10
146.503242
 20
-154.756662
 30
0.0
 11
146.503242
 21
-146.756662
 31
0.0
  0
LINE
  5
E4
100
AcDbEntity
  8
1
100
AcDbLine
 10
125.503242
 20
-240.707882
 30
0.0
 11
125.503242
 21
-163.756662
 31
0.0
  0
LINE
  5
E5
100
AcDbEntity
  8
1
100
AcDbLine
 10
97.503242
 20
-240.707882
 30
0.0
 11
97.503242
 21
-163.756662
 31
0.0
  0
ARC
  5
E6
100
AcDbEntity
  8
1
100
AcDbCircle
 10
80.503242
 20
-154.756662
 30
0.0
 40
4.0
100
AcDbArc
 50
180.0
 51
270.0
  0
ARC
  5
E7
100
AcDbEntity
  8
1
100
AcDbCircle
 10
142.503242
 20
-154.756662
 30
0.0
 40
4.0
100
AcDbArc
 50
270.0
 51
360.0
  0
ARC
  5
E8
100
AcDbEntity
  8
1
100
AcDbCircle
 10
130.503242
 20
-163.756662
 30
0.0
 40
5.0
100
AcDbArc
 50
90.0
 51
180.0
  0
ARC
  5
E9
100
AcDbEntity
  8
1
100
AcDbCircle
 10
92.503242
 20
-163.756662
 30
0.0
 40
5.0
100
AcDbArc
 50
0.0
 51
90.0
  0
ARC
  5
EA
100
AcDbEntity
  8
1
100
AcDbCircle
 10
143.503242
 20
-176.733923
 30
0.0
 40
18.0
100
AcDbArc
 50
92.605251
 51
180.0
  0
ARC
  5
EB
100
AcDbEntity
  8
1
100
AcDbCircle
 10
79.503242
 20
-176.733923
 30
0.0
 40
18.0
100
AcDbArc
 50
0.0
 51
87.394749
  0
LINE
  5
EC
100
AcDbEntity
  8
1
100
AcDbLine
 10
114.503242
 20
-176.733923
 30
0.0
 11
108.503242
 21
-176.733923
 31
0.0
  0
LINE
  5
ED
100
AcDbEntity
  8
1
100
AcDbLine
 10
108.503242
 20
-174.733923
 30
0.0
 11
108.503242
 21
-160.756662
 31
0.0
  0
LINE
  5
EE
100
AcDbEntity
  8
1
100
AcDbLine
 10
114.503242
 20
-174.733923
 30
0.0
 11
114.503242
 21
-160.756662
 31
0.0
  0
ARC
  5
EF
100
AcDbEntity
  8
1
100
AcDbCircle
 10
116.503242
 20
-160.756662
 30
0.0
 40
2.0
100
AcDbArc
 50
90.0
 51
180.0
  0
ARC
  5
F0
100
AcDbEntity
  8
1
100
AcDbCircle
 10
106.503242
 20
-160.756662
 30
0.0
 40
2.0
100
AcDbArc
 50
0.0
 51
90.0
  0
ARC
  5
F1
100
AcDbEntity
  8
1
100
AcDbCircle
 10
106.503242
 20
-174.733923
 30
0.0
 40
2.0
100
AcDbArc
 50
270.0
 51
360.0
  0
ARC
  5
F2
100
AcDbEntity
  8
1
100
AcDbCircle
 10
116.503242
 20
-174.733923
 30
0.0
 40
2.0
100
AcDbArc
 50
180.0
 51
270.0
  0
LINE
  5
F3
100
AcDbEntity
  8
1
  6
CENTER
 62
     2
100
AcDbLine
 10
86.753242
 20
-171.24381
 30
0.0
 11
86.753242
 21
-136.793483
 31
0.0
  0
LINE
  5
F4
100
AcDbEntity
  8
1
  6
CENTER
 62
     2
100
AcDbLine
 10
136.253242
 20
-171.24381
 30
0.0
 11
136.253242
 21
-136.793483
 31
0.0
  0
LINE
  5
F5
100
AcDbEntity
  8
1
100
AcDbLine
 10
94.003242
 20
-317.756662
 30
0.0
 11
94.003242
 21
-239.756662
 31
0.0
  0
LINE
  5
F6
100
AcDbEntity
  8
1
100
AcDbLine
 10
129.003242
 20
-317.756662
 30
0.0
 11
129.003242
 21
-239.756662
 31
0.0
  0
LINE
  5
F7
100
AcDbEntity
  8
1
100
AcDbLine
 10
94.003242
 20
-239.756662
 30
0.0
 11
95.003242
 21
-238.756662
 31
0.0
  0
LINE
  5
F8
100
AcDbEntity
  8
1
100
AcDbLine
 10
129.003242
 20
-239.756662
 30
0.0
 11
128.003242
 21
-238.756662
 31
0.0
  0
LINE
  5
F9
100
AcDbEntity
  8
1
100
AcDbLine
 10
129.003242
 20
-317.756662
 30
0.0
 11
128.003242
 21
-318.756662
 31
0.0
  0
LINE
  5
FA
100
AcDbEntity
  8
1
100
AcDbLine
 10
95.003242
 20
-318.756662
 30
0.0
 11
94.003242
 21
-317.756662
 31
0.0
  0
LINE
  5
FB
100
AcDbEntity
  8
1
100
AcDbLine
 10
128.003242
 20
-238.756662
 30
0.0
 11
128.003242
 21
-318.756662
 31
0.0
  0
LINE
  5
FC
100
AcDbEntity
  8
1
100
AcDbLine
 10
95.003242
 20
-238.756662
 30
0.0
 11
95.003242
 21
-318.756662
 31
0.0
  0
ARC
  5
FD
100
AcDbEntity
  8
1
100
AcDbCircle
 10
128.503242
 20
-235.798622
 30
0.0
 40
3.0
100
AcDbArc
 50
180.0
 51
260.405932
  0
ARC
  5
FE
100
AcDbEntity
  8
1
100
AcDbCircle
 10
94.503242
 20
-235.798622
 30
0.0
 40
3.0
100
AcDbArc
 50
279.594068
 51
360.0
  0
ARC
  5
FF
100
AcDbEntity
  8
1
100
AcDbCircle
 10
128.503242
 20
-240.707882
 30
0.0
 40
3.0
100
AcDbArc
 50
180.0
 51
260.405932
  0
ARC
  5
100
100
AcDbEntity
  8
1
100
AcDbCircle
 10
94.503242
 20
-240.707882
 30
0.0
 40
3.0
100
AcDbArc
 50
279.594068
 51
360.0
  0
LINE
  5
101
100
AcDbEntity
  8
1
100
AcDbLine
 10
98.503242
 20
-330.756662
 30
0.0
 11
124.503242
 21
-330.756662
 31
0.0
  0
LINE
  5
102
100
AcDbEntity
  8
1
100
AcDbLine
 10
98.503242
 20
-333.156662
 30
0.0
 11
98.503242
 21
-315.592869
 31
0.0
  0
LINE
  5
103
100
AcDbEntity
  8
1
100
AcDbLine
 10
124.503242
 20
-333.156662
 30
0.0
 11
124.503242
 21
-315.592869
 31
0.0
  0
ARC
  5
104
100
AcDbEntity
  8
1
100
AcDbCircle
 10
127.503242
 20
-321.756662
 30
0.0
 40
3.0
100
AcDbArc
 50
90.0
 51
180.0
  0
ARC
  5
105
100
AcDbEntity
  8
1
100
AcDbCircle
 10
95.503242
 20
-321.756662
 30
0.0
 40
3.0
100
AcDbArc
 50
0.0
 51
90.0
  0
ARC
  5
106
100
AcDbEntity
  8
1
100
AcDbCircle
 10
127.503242
 20
-315.592869
 30
0.0
 40
3.0
100
AcDbArc
 50
90.0
 51
180.0
  0
ARC
  5
107
100
AcDbEntity
  8
1
100
AcDbCircle
 10
95.503242
 20
-315.592869
 30
0.0
 40
3.0
100
AcDbArc
 50
0.0
 51
90.0
  0
LINE
  5
108
100
AcDbEntity
  8
1
100
AcDbLine
 10
95.003242
 20
-318.756662
 30
0.0
 11
95.503242
 21
-318.756662
 31
0.0
  0
LINE
  5
109
100
AcDbEntity
  8
1
100
AcDbLine
 10
127.503242
 20
-318.756662
 30
0.0
 11
128.003242
 21
-318.756662
 31
0.0
  0
LINE
  5
10A
100
AcDbEntity
  8
1
100
AcDbLine
 10
108.503242
 20
-330.274033
 30
0.0
 11
114.503242
 21
-330.274033
 31
0.0
  0
LINE
  5
10B
100
AcDbEntity
  8
1
100
AcDbLine
 10
108.503242
 20
-327.274033
 30
0.0
 11
108.503242
 21
-308.756662
 31
0.0
  0
LINE
  5
10C
100
AcDbEntity
  8
1
100
AcDbLine
 10
114.503242
 20
-327.274033
 30
0.0
 11
114.503242
 21
-308.756662
 31
0.0
  0
ARC
  5
10D
100
AcDbEntity
  8
1
100
AcDbCircle
 10
117.503242
 20
-327.274033
 30
0.0
 40
3.0
100
AcDbArc
 50
180.0
 51
270.0
  0
ARC
  5
10E
100
AcDbEntity
  8
1
100
AcDbCircle
 10
105.503242
 20
-327.274033
 30
0.0
 40
3.0
100
AcDbArc
 50
270.0
 51
360.0
  0
LINE
  5
10F
100
AcDbEntity
  8
1
100
AcDbLine
 10
108.503242
 20
-207.215261
 30
0.0
 11
114.503242
 21
-207.215261
 31
0.0
  0
LINE
  5
110
100
AcDbEntity
  8
1
100
AcDbLine
 10
108.503242
 20
-248.756662
 30
0.0
 11
108.503242
 21
-210.215261
 31
0.0
  0
LINE
  5
111
100
AcDbEntity
  8
1
100
AcDbLine
 10
114.503242
 20
-248.756662
 30
0.0
 11
114.503242
 21
-210.215261
 31
0.0
  0
ARC
  5
112
100
AcDbEntity
  8
1
100
AcDbCircle
 10
117.503242
 20
-210.215261
 30
0.0
 40
3.0
100
AcDbArc
 50
90.0
 51
180.0
  0
ARC
  5
113
100
AcDbEntity
  8
1
100
AcDbCircle
 10
105.503242
 20
-210.215261
 30
0.0
 40
3.0
100
AcDbArc
 50
0.0
 51
90.0
  0
LINE
  5
114
100
AcDbEntity
  8
1
100
AcDbLine
 10
110.503242
 20
-223.502668
 30
0.0
 11
112.503242
 21
-223.502668
 31
0.0
  0
LINE
  5
115
100
AcDbEntity
  8
1
100
AcDbLine
 10
110.503242
 20
-231.278351
 30
0.0
 11
112.503242
 21
-231.278351
 31
0.0
  0
ARC
  5
116
100
AcDbEntity
  8
1
100
AcDbCircle
 10
112.503242
 20
-225.502668
 30
0.0
 40
2.0
100
AcDbArc
 50
0.0
 51
90.0
  0
ARC
  5
117
100
AcDbEntity
  8
1
100
AcDbCircle
 10
112.503242
 20
-229.278351
 30
0.0
 40
2.0
100
AcDbArc
 50
270.0
 51
360.0
  0
ARC
  5
118
100
AcDbEntity
  8
1
100
AcDbCircle
 10
110.503242
 20
-225.502668
 30
0.0
 40
2.0
100
AcDbArc
 50
90.0
 51
180.0
  0
ARC
  5
119
100
AcDbEntity
  8
1
100
AcDbCircle
 10
110.503242
 20
-229.278351
 30
0.0
 40
2.0
100
AcDbArc
 50
180.0
 51
270.0
  0
LINE
  5
11A
100
AcDbEntity
  8
1
100
AcDbLine
 10
110.503242
 20
-325.511716
 30
0.0
 11
112.503242
 21
-325.511716
 31
0.0
  0
ARC
  5
11B
100
AcDbEntity
  8
1
100
AcDbCircle
 10
112.503242
 20
-323.511716
 30
0.0
 40
2.0
100
AcDbArc
 50
270.0
 51
360.0
  0
ARC
  5
11C
100
AcDbEntity
  8
1
100
AcDbCircle
 10
110.503242
 20
-323.511716
 30
0.0
 40
2.0
100
AcDbArc
 50
180.0
 51
270.0
  0
LINE
  5
11D
100
AcDbEntity
  8
1
100
AcDbLine
 10
109.003242
 20
-253.756662
 30
0.0
 11
114.003242
 21
-253.756662
 31
0.0
  0
LINE
  5
11E
100
AcDbEntity
  8
1
100
AcDbLine
 10
109.003242
 20
-303.756662
 30
0.0
 11
114.003242
 21
-303.756662
 31
0.0
  0
LINE
  5
11F
100
AcDbEntity
  8
1
100
AcDbLine
 10
108.503242
 20
-250.756662
 30
0.0
 11
114.503242
 21
-250.756662
 31
0.0
  0
LINE
  5
120
100
AcDbEntity
  8
1
100
AcDbLine
 10
108.503242
 20
-306.756662
 30
0.0
 11
114.503242
 21
-306.756662
 31
0.0
  0
LINE
  5
121
100
AcDbEntity
  8
1
100
AcDbLine
 10
104.003242
 20
-298.756662
 30
0.0
 11
104.003242
 21
-258.756662
 31
0.0
  0
LINE
  5
122
100
AcDbEntity
  8
1
100
AcDbLine
 10
119.003242
 20
-298.756662
 30
0.0
 11
119.003242
 21
-258.756662
 31
0.0
  0
ARC
  5
123
100
AcDbEntity
  8
1
100
AcDbCircle
 10
114.003242
 20
-258.756662
 30
0.0
 40
5.0
100
AcDbArc
 50
0.0
 51
90.0
  0
ARC
  5
124
100
AcDbEntity
  8
1
100
AcDbCircle
 10
109.003242
 20
-258.756662
 30
0.0
 40
5.0
100
AcDbArc
 50
90.0
 51
180.0
  0
ARC
  5
125
100
AcDbEntity
  8
1
100
AcDbCircle
 10
109.003242
 20
-298.756662
 30
0.0
 40
5.0
100
AcDbArc
 50
180.0
 51
270.0
  0
ARC
  5
126
100
AcDbEntity
  8
1
100
AcDbCircle
 10
114.003242
 20
-298.756662
 30
0.0
 40
5.0
100
AcDbArc
 50
270.0
 51
360.0
  0
LINE
  5
127
100
AcDbEntity
  8
1
100
AcDbLine
 10
119.003242
 20
-313.822394
 30
0.0
 11
119.003242
 21
-309.256662
 31
0.0
  0
LINE
  5
128
100
AcDbEntity
  8
1
100
AcDbLine
 10
119.003242
 20
-248.256662
 30
0.0
 11
119.003242
 21
-237.893237
 31
0.0
  0
LINE
  5
129
100
AcDbEntity
  8
1
100
AcDbLine
 10
104.003242
 20
-313.822394
 30
0.0
 11
104.003242
 21
-309.256662
 31
0.0
  0
LINE
  5
12A
100
AcDbEntity
  8
1
100
AcDbLine
 10
104.003242
 20
-248.256662
 30
0.0
 11
104.003242
 21
-237.893237
 31
0.0
  0
ARC
  5
12B
100
AcDbEntity
  8
1
100
AcDbCircle
 10
116.503242
 20
-248.756662
 30
0.0
 40
2.0
100
AcDbArc
 50
180.0
 51
270.0
  0
ARC
  5
12C
100
AcDbEntity
  8
1
100
AcDbCircle
 10
106.503242
 20
-248.756662
 30
0.0
 40
2.0
100
AcDbArc
 50
270.0
 51
360.0
  0
ARC
  5
12D
100
AcDbEntity
  8
1
100
AcDbCircle
 10
116.503242
 20
-248.256662
 30
0.0
 40
2.5
100
AcDbArc
 50
270.0
 51
360.0
  0
ARC
  5
12E
100
AcDbEntity
  8
1
100
AcDbCircle
 10
106.503242
 20
-248.256662
 30
0.0
 40
2.5
100
AcDbArc
 50
180.0
 51
270.0
  0
ARC
  5
12F
100
AcDbEntity
  8
1
100
AcDbCircle
 10
116.503242
 20
-309.256662
 30
0.0
 40
2.5
100
AcDbArc
 50
0.0
 51
90.0
  0
ARC
  5
130
100
AcDbEntity
  8
1
100
AcDbCircle
 10
106.503242
 20
-309.256662
 30
0.0
 40
2.5
100
AcDbArc
 50
90.0
 51
180.0
  0
ARC
  5
131
100
AcDbEntity
  8
1
100
AcDbCircle
 10
116.503242
 20
-308.756662
 30
0.0
 40
2.0
100
AcDbArc
 50
90.0
 51
180.0
  0
ARC
  5
132
100
AcDbEntity
  8
1
100
AcDbCircle
 10
106.503242
 20
-308.756662
 30
0.0
 40
2.0
100
AcDbArc
 50
0.0
 51
90.0
  0
LINE
  5
133
100
AcDbEntity
  8
1
100
AcDbLine
 10
97.503242
 20
-243.665922
 30
0.0
 11
101.003242
 21
-243.665922
 31
0.0
  0
LINE
  5
134
100
AcDbEntity
  8
1
100
AcDbLine
 10
122.003242
 20
-243.665922
 30
0.0
 11
125.503242
 21
-243.665922
 31
0.0
  0
LINE
  5
135
100
AcDbEntity
  8
1
100
AcDbLine
 10
98.503242
 20
-312.592869
 30
0.0
 11
101.003242
 21
-312.592869
 31
0.0
  0
LINE
  5
136
100
AcDbEntity
  8
1
100
AcDbLine
 10
122.003242
 20
-312.592869
 30
0.0
 11
124.503242
 21
-312.592869
 31
0.0
  0
ARC
  5
137
100
AcDbEntity
  8
1
100
AcDbCircle
 10
122.003242
 20
-309.592869
 30
0.0
 40
3.0
100
AcDbArc
 50
180.0
 51
270.0
  0
ARC
  5
138
100
AcDbEntity
  8
1
100
AcDbCircle
 10
101.003242
 20
-309.592869
 30
0.0
 40
3.0
100
AcDbArc
 50
270.0
 51
360.0
  0
ARC
  5
139
100
AcDbEntity
  8
1
100
AcDbCircle
 10
122.003242
 20
-313.822394
 30
0.0
 40
3.0
100
AcDbArc
 50
180.0
 51
270.0
  0
ARC
  5
13A
100
AcDbEntity
  8
1
100
AcDbCircle
 10
101.003242
 20
-313.822394
 30
0.0
 40
3.0
100
AcDbArc
 50
270.0
 51
360.0
  0
ARC
  5
13B
100
AcDbEntity
  8
1
100
AcDbCircle
 10
122.003242
 20
-237.893237
 30
0.0
 40
3.0
100
AcDbArc
 50
90.0
 51
180.0
  0
ARC
  5
13C
100
AcDbEntity
  8
1
100
AcDbCircle
 10
101.003242
 20
-237.893237
 30
0.0
 40
3.0
100
AcDbArc
 50
0.0
 51
90.0
  0
ARC
  5
13D
100
AcDbEntity
  8
1
100
AcDbCircle
 10
101.003242
 20
-246.665922
 30
0.0
 40
3.0
100
AcDbArc
 50
0.0
 51
90.0
  0
ARC
  5
13E
100
AcDbEntity
  8
1
100
AcDbCircle
 10
122.003242
 20
-246.665922
 30
0.0
 40
3.0
100
AcDbArc
 50
90.0
 51
180.0
  0
LINE
  5
13F
100
AcDbEntity
  8
1
  6
DASHED
100
AcDbLine
 10
-236.146758
 20
265.243338
 30
0.0
 11
-240.146758
 21
265.243338
 31
0.0
  0
LINE
  5
140
100
AcDbEntity
  8
1
  6
DASHED
100
AcDbLine
 10
-236.146758
 20
230.243338
 30
0.0
 11
-240.146758
 21
230.243338
 31
0.0
  0
LINE
  5
141
100
AcDbEntity
  8
1
  6
DASHED
100
AcDbLine
 10
-235.146758
 20
264.243338
 30
0.0
 11
-236.146758
 21
265.243338
 31
0.0
  0
LINE
  5
142
100
AcDbEntity
  8
1
  6
DASHED
100
AcDbLine
 10
-235.146758
 20
231.243338
 30
0.0
 11
-236.146758
 21
230.243338
 31
0.0
  0
LINE
  5
143
100
AcDbEntity
  8
1
  6
DASHED
100
AcDbLine
 10
-235.146758
 20
264.243338
 30
0.0
 11
-240.146758
 21
264.243338
 31
0.0
  0
LINE
  5
144
100
AcDbEntity
  8
1
  6
DASHED
100
AcDbLine
 10
-235.146758
 20
231.243338
 30
0.0
 11
-240.146758
 21
231.243338
 31
0.0
  0
LINE
  5
145
100
AcDbEntity
  8
1
  6
DASHED
100
AcDbLine
 10
-236.940478
 20
255.243338
 30
0.0
 11
-240.146758
 21
255.243338
 31
0.0
  0
LINE
  5
146
100
AcDbEntity
  8
1
  6
DASHED
100
AcDbLine
 10
-236.940478
 20
240.243338
 30
0.0
 11
-240.146758
 21
240.243338
 31
0.0
  0
LINE
  5
147
100
AcDbEntity
  8
1
  6
DASHED
100
AcDbLine
 10
-235.146758
 20
231.243338
 30
0.0
 11
-235.146758
 21
236.406703
 31
0.0
  0
LINE
  5
148
100
AcDbEntity
  8
1
  6
DASHED
100
AcDbLine
 10
-235.146758
 20
259.079973
 30
0.0
 11
-235.146758
 21
264.243338
 31
0.0
  0
LINE
  5
149
100
AcDbEntity
  8
1
  6
DASHED
100
AcDbLine
 10
-238.852663
 20
254.250344
 30
0.0
 11
-239.440853
 21
254.092739
 31
0.0
  0
LINE
  5
14A
100
AcDbEntity
  8
1
  6
DASHED
100
AcDbLine
 10
-238.852663
 20
241.236332
 30
0.0
 11
-239.440853
 21
241.393938
 31
0.0
  0
ARC
  5
14B
100
AcDbEntity
  8
1
  6
DASHED
100
AcDbCircle
 10
-240.146758
 20
259.079973
 30
0.0
 40
5.0
100
AcDbArc
 50
285.0
 51
0.0
  0
ARC
  5
14C
100
AcDbEntity
  8
1
  6
DASHED
100
AcDbCircle
 10
-240.146758
 20
236.406703
 30
0.0
 40
5.0
100
AcDbArc
 50
0.0
 51
75.0
  0
ARC
  5
14D
100
AcDbEntity
  8
1
  6
DASHED
100
AcDbCircle
 10
-238.146758
 20
246.223567
 30
0.0
 40
5.0
100
AcDbArc
 50
246.421822
 51
255.0
  0
ARC
  5
14E
100
AcDbEntity
  8
1
  6
DASHED
100
AcDbCircle
 10
-238.146758
 20
249.26311
 30
0.0
 40
5.0
100
AcDbArc
 50
105.0
 51
113.578178
  0
CIRCLE
  5
14F
100
AcDbEntity
  8
1
100
AcDbCircle
 10
-275.146758
 20
-278.756662
 30
0.0
 40
39.0
  0
LINE
  5
150
100
AcDbEntity
  8
1
  6
DASHED
100
AcDbLine
 10
-236.146758
 20
246.743338
 30
0.0
 11
-236.146758
 21
248.743338
 31
0.0
  0
LINE
  5
151
100
AcDbEntity
  8
1
  6
DASHED
100
AcDbLine
 10
-238.146758
 20
250.743338
 30
0.0
 11
-240.146758
 21
250.743338
 31
0.0
  0
LINE
  5
152
100
AcDbEntity
  8
1
  6
DASHED
100
AcDbLine
 10
-238.146758
 20
244.743338
 30
0.0
 11
-240.146758
 21
244.743338
 31
0.0
  0
ARC
  5
153
100
AcDbEntity
  8
1
  6
DASHED
100
AcDbCircle
 10
-238.146758
 20
248.743338
 30
0.0
 40
2.0
100
AcDbArc
 50
0.0
 51
90.0
  0
ARC
  5
154
100
AcDbEntity
  8
1
  6
DASHED
100
AcDbCircle
 10
-238.146758
 20
246.743338
 30
0.0
 40
2.0
100
AcDbArc
 50
270.0
 51
360.0
  0
LINE
  5
155
100
AcDbEntity
  8
1
  6
DASHED
100
AcDbLine
 10
-314.146758
 20
265.243338
 30
0.0
 11
-310.146758
 21
265.243338
 31
0.0
  0
LINE
  5
156
100
AcDbEntity
  8
1
  6
DASHED
100
AcDbLine
 10
-314.146758
 20
230.243338
 30
0.0
 11
-310.146758
 21
230.243338
 31
0.0
  0
LINE
  5
157
100
AcDbEntity
  8
1
  6
DASHED
100
AcDbLine
 10
-315.146758
 20
264.243338
 30
0.0
 11
-314.146758
 21
265.243338
 31
0.0
  0
LINE
  5
158
100
AcDbEntity
  8
1
  6
DASHED
100
AcDbLine
 10
-315.146758
 20
231.243338
 30
0.0
 11
-314.146758
 21
230.243338
 31
0.0
  0
LINE
  5
159
100
AcDbEntity
  8
1
  6
DASHED
100
AcDbLine
 10
-315.146758
 20
264.243338
 30
0.0
 11
-310.146758
 21
264.243338
 31
0.0
  0
LINE
  5
15A
100
AcDbEntity
  8
1
  6
DASHED
100
AcDbLine
 10
-315.146758
 20
231.243338
 30
0.0
 11
-310.146758
 21
231.243338
 31
0.0
  0
LINE
  5
15B
100
AcDbEntity
  8
1
  6
DASHED
100
AcDbLine
 10
-313.353038
 20
255.243338
 30
0.0
 11
-310.146758
 21
255.243338
 31
0.0
  0
LINE
  5
15C
100
AcDbEntity
  8
1
  6
DASHED
100
AcDbLine
 10
-313.353038
 20
240.243338
 30
0.0
 11
-310.146758
 21
240.243338
 31
0.0
  0
LINE
  5
15D
100
AcDbEntity
  8
1
  6
DASHED
100
AcDbLine
 10
-315.146758
 20
231.243338
 30
0.0
 11
-315.146758
 21
236.406703
 31
0.0
  0
LINE
  5
15E
100
AcDbEntity
  8
1
  6
DASHED
100
AcDbLine
 10
-315.146758
 20
259.079973
 30
0.0
 11
-315.146758
 21
264.243338
 31
0.0
  0
LINE
  5
15F
100
AcDbEntity
  8
1
  6
DASHED
100
AcDbLine
 10
-311.440853
 20
254.250344
 30
0.0
 11
-310.852663
 21
254.092739
 31
0.0
  0
LINE
  5
160
100
AcDbEntity
  8
1
  6
DASHED
100
AcDbLine
 10
-311.440853
 20
241.236332
 30
0.0
 11
-310.852663
 21
241.393938
 31
0.0
  0
ARC
  5
161
100
AcDbEntity
  8
1
  6
DASHED
100
AcDbCircle
 10
-310.146758
 20
259.079973
 30
0.0
 40
5.0
100
AcDbArc
 50
180.0
 51
255.0
  0
ARC
  5
162
100
AcDbEntity
  8
1
  6
DASHED
100
AcDbCircle
 10
-310.146758
 20
236.406703
 30
0.0
 40
5.0
100
AcDbArc
 50
105.0
 51
180.0
  0
ARC
  5
163
100
AcDbEntity
  8
1
  6
DASHED
100
AcDbCircle
 10
-312.146758
 20
246.223567
 30
0.0
 40
5.0
100
AcDbArc
 50
285.0
 51
293.578178
  0
ARC
  5
164
100
AcDbEntity
  8
1
  6
DASHED
100
AcDbCircle
 10
-312.146758
 20
249.26311
 30
0.0
 40
5.0
100
AcDbArc
 50
66.421822
 51
75.0
  0
LINE
  5
165
100
AcDbEntity
  8
1
  6
DASHED
100
AcDbLine
 10
-314.146758
 20
246.743338
 30
0.0
 11
-314.146758
 21
248.743338
 31
0.0
  0
LINE
  5
166
100
AcDbEntity
  8
1
  6
DASHED
100
AcDbLine
 10
-312.146758
 20
250.743338
 30
0.0
 11
-310.146758
 21
250.743338
 31
0.0
  0
LINE
  5
167
100
AcDbEntity
  8
1
  6
DASHED
100
AcDbLine
 10
-312.146758
 20
244.743338
 30
0.0
 11
-310.146758
 21
244.743338
 31
0.0
  0
ARC
  5
168
100
AcDbEntity
  8
1
  6
DASHED
100
AcDbCircle
 10
-312.146758
 20
248.743338
 30
0.0
 40
2.0
100
AcDbArc
 50
90.0
 51
180.0
  0
ARC
  5
169
100
AcDbEntity
  8
1
  6
DASHED
100
AcDbCircle
 10
-312.146758
 20
246.743338
 30
0.0
 40
2.0
100
AcDbArc
 50
180.0
 51
270.0
  0
ARC
  5
16A
100
AcDbEntity
  8
1
100
AcDbCircle
 10
-275.146758
 20
-278.756662
 30
0.0
 40
18.847539
100
AcDbArc
 50
129.545285
 51
230.454715
  0
ARC
  5
16B
100
AcDbEntity
  8
1
100
AcDbCircle
 10
-275.146758
 20
-278.756662
 30
0.0
 40
18.847539
100
AcDbArc
 50
309.545285
 51
50.454715
  0
ARC
  5
16C
100
AcDbEntity
  8
1
100
AcDbCircle
 10
-272.462482
 20
-292.858804
 30
0.0
 40
8.0
100
AcDbArc
 50
336.328807
 51
341.536959
  0
ARC
  5
16D
100
AcDbEntity
  8
1
100
AcDbCircle
 10
-277.831035
 20
-292.858804
 30
0.0
 40
8.0
100
AcDbArc
 50
198.463041
 51
203.671193
  0
LINE
  5
16E
100
AcDbEntity
  8
1
100
AcDbLine
 10
-266.219841
 20
-291.844192
 30
0.0
 11
-270.50028
 21
-289.37288
 31
0.0
  0
LINE
  5
16F
100
AcDbEntity
  8
1
100
AcDbLine
 10
-284.073675
 20
-291.844192
 30
0.0
 11
-279.793237
 21
-289.37288
 31
0.0
  0
ARC
  5
170
100
AcDbEntity
  8
1
100
AcDbCircle
 10
-275.146758
 20
-297.420817
 30
0.0
 40
9.292957
100
AcDbArc
 50
60.0
 51
120.0
  0
ARC
  5
171
100
AcDbEntity
  8
1
100
AcDbCircle
 10
-267.719841
 20
-294.442268
 30
0.0
 40
3.0
100
AcDbArc
 50
341.536959
 51
60.0
  0
ARC
  5
172
100
AcDbEntity
  8
1
100
AcDbCircle
 10
-282.573675
 20
-294.442268
 30
0.0
 40
3.0
100
AcDbArc
 50
120.0
 51
198.463041
  0
LINE
  5
173
100
AcDbEntity
  8
1
100
AcDbLine
 10
-266.219841
 20
-292.746204
 30
0.0
 11
-284.073675
 21
-292.746204
 31
0.0
  0
LINE
  5
174
100
AcDbEntity
  8
1
100
AcDbLine
 10
-264.874257
 20
-295.241111
 30
0.0
 11
-285.41926
 21
-295.241111
 31
0.0
  0
LINE
  5
175
100
AcDbEntity
  8
1
100
AcDbLine
 10
-264.989802
 20
-264.65452
 30
0.0
 11
-285.303715
 21
-264.65452
 31
0.0
  0
ARC
  5
176
100
AcDbEntity
  8
1
100
AcDbCircle
 10
-272.462482
 20
-264.65452
 30
0.0
 40
8.0
100
AcDbArc
 50
21.457743
 51
23.671193
  0
ARC
  5
177
100
AcDbEntity
  8
1
100
AcDbCircle
 10
-277.831035
 20
-264.65452
 30
0.0
 40
8.0
100
AcDbArc
 50
156.328807
 51
158.542257
  0
LINE
  5
178
100
AcDbEntity
  8
1
100
AcDbLine
 10
-266.083752
 20
-268.936789
 30
0.0
 11
-284.209765
 21
-268.936789
 31
0.0
  0
LINE
  5
179
100
AcDbEntity
  8
1
100
AcDbLine
 10
-266.083752
 20
-270.034569
 30
0.0
 11
-266.083752
 21
-273.212538
 31
0.0
  0
LINE
  5
17A
100
AcDbEntity
  8
1
100
AcDbLine
 10
-284.209765
 20
-270.034569
 30
0.0
 11
-284.209765
 21
-273.212538
 31
0.0
  0
LINE
  5
17B
100
AcDbEntity
  8
1
100
AcDbLine
 10
-264.989802
 20
-266.047333
 30
0.0
 11
-265.695056
 21
-267.910126
 31
0.0
  0
LINE
  5
17C
100
AcDbEntity
  8
1
100
AcDbLine
 10
-285.303715
 20
-266.047333
 30
0.0
 11
-284.59846
 21
-267.910126
 31
0.0
  0
ARC
  5
17D
100
AcDbEntity
  8
1
100
AcDbCircle
 10
-260.083752
 20
-270.034569
 30
0.0
 40
6.0
100
AcDbArc
 50
159.263303
 51
180.0
  0
ARC
  5
17E
100
AcDbEntity
  8
1
100
AcDbCircle
 10
-279.69241
 20
-263.92289
 30
0.0
 40
6.0
100
AcDbArc
 50
158.542257
 51
200.736697
  0
ARC
  5
17F
100
AcDbEntity
  8
1
100
AcDbCircle
 10
-290.209765
 20
-270.034569
 30
0.0
 40
6.0
100
AcDbArc
 50
0.0
 51
20.736697
  0
LINE
  5
180
100
AcDbEntity
  8
1
100
AcDbLine
 10
-267.136033
 20
-276.606662
 30
0.0
 11
-283.157484
 21
-276.606662
 31
0.0
  0
ARC
  5
181
100
AcDbEntity
  8
1
100
AcDbCircle
 10
-275.146758
 20
-265.26098
 30
0.0
 40
14.521108
100
AcDbArc
 50
248.932898
 51
291.067102
  0
ARC
  5
182
100
AcDbEntity
  8
1
100
AcDbCircle
 10
-272.083752
 20
-273.212538
 30
0.0
 40
6.0
100
AcDbArc
 50
291.067102
 51
360.0
  0
ARC
  5
183
100
AcDbEntity
  8
1
100
AcDbCircle
 10
-278.209765
 20
-273.212538
 30
0.0
 40
6.0
100
AcDbArc
 50
180.0
 51
248.932898
  0
LINE
  5
184
100
AcDbEntity
  8
1
100
AcDbLine
 10
-267.146758
 20
-260.426359
 30
0.0
 11
-283.146758
 21
-260.426359
 31
0.0
  0
ARC
  5
185
100
AcDbEntity
  8
1
100
AcDbCircle
 10
-270.601107
 20
-263.92289
 30
0.0
 40
6.0
100
AcDbArc
 50
339.263303
 51
21.457743
  0
ARC
  5
186
100
AcDbEntity
  8
1
100
AcDbCircle
 10
-275.146758
 20
-278.756662
 30
0.0
 40
20.0
100
AcDbArc
 50
113.578178
 51
246.421822
  0
ARC
  5
187
100
AcDbEntity
  8
1
100
AcDbCircle
 10
-275.146758
 20
-278.756662
 30
0.0
 40
20.0
100
AcDbArc
 50
293.578178
 51
66.421822
  0
LINE
  5
188
100
AcDbEntity
  8
1
100
AcDbLine
 10
-283.146758
 20
-297.086965
 30
0.0
 11
-267.146758
 21
-297.086965
 31
0.0
  0
CIRCLE
  5
189
100
AcDbEntity
  8
1
100
AcDbCircle
 10
-275.146758
 20
-278.756662
 30
0.0
 40
34.5
  0
CIRCLE
  5
18A
100
AcDbEntity
  8
1
100
AcDbCircle
 10
-275.146758
 20
-278.756662
 30
0.0
 40
31.5
  0
CIRCLE
  5
18B
100
AcDbEntity
  8
1
100
AcDbCircle
 10
-275.146758
 20
-278.756662
 30
0.0
 40
25.0
  0
CIRCLE
  5
18C
100
AcDbEntity
  8
1
100
AcDbCircle
 10
-275.146758
 20
-278.756662
 30
0.0
 40
22.55
  0
ARC
  5
18D
100
AcDbEntity
  8
1
100
AcDbCircle
 10
121.503242
 20
-324.756662
 30
0.0
 40
3.0
100
AcDbArc
 50
270.0
 51
360.0
  0
ARC
  5
18E
100
AcDbEntity
  8
1
100
AcDbCircle
 10
101.503242
 20
-324.756662
 30
0.0
 40
3.0
100
AcDbArc
 50
180.0
 51
270.0
  0
LINE
  5
18F
100
AcDbEntity
  8
1
100
AcDbLine
 10
101.503242
 20
-327.756662
 30
0.0
 11
105.503242
 21
-327.756662
 31
0.0
  0
LINE
  5
190
100
AcDbEntity
  8
1
100
AcDbLine
 10
117.503242
 20
-327.756662
 30
0.0
 11
121.503242
 21
-327.756662
 31
0.0
  0
ARC
  5
191
100
AcDbEntity
  8
1
100
AcDbCircle
 10
117.503242
 20
-324.756662
 30
0.0
 40
3.0
100
AcDbArc
 50
180.0
 51
270.0
  0
ARC
  5
192
100
AcDbEntity
  8
1
100
AcDbCircle
 10
105.503242
 20
-324.756662
 30
0.0
 40
3.0
100
AcDbArc
 50
270.0
 51
360.0
  0
LINE
  5
193
100
AcDbEntity
  8
1
  6
CENTER
 62
     2
100
AcDbLine
 10
-275.146758
 20
14.686945
 30
0.0
 11
-275.146758
 21
-346.608035
 31
0.0
  0
LINE
  5
194
100
AcDbEntity
  8
1
  6
CENTER
 62
     2
100
AcDbLine
 10
111.503242
 20
16.382129
 30
0.0
 11
111.503242
 21
-346.608035
 31
0.0
  0
POINT
  5
195
100
AcDbEntity
  8
2
100
AcDbPoint
 10
111.503242
 20
3.243338
 30
0.0
  0
ARC
  5
196
100
AcDbEntity
  8
2
100
AcDbCircle
 10
86.503242
 20
-63.756662
 30
0.0
 40
18.0
100
AcDbArc
 50
90.0
 51
270.0
  0
LINE
  5
197
100
AcDbEntity
  8
2
100
AcDbLine
 10
65.303232
 20
-123.606373
 30
0.0
 11
72.504246
 21
-123.606373
 31
0.0
  0
LINE
  5
198
100
AcDbEntity
  8
2
100
AcDbLine
 10
146.503242
 20
-146.756662
 30
0.0
 11
76.503242
 21
-146.756662
 31
0.0
  0
LINE
  5
199
100
AcDbEntity
  8
2
100
AcDbLine
 10
59.503242
 20
-62.756662
 30
0.0
 11
59.503242
 21
-142.756662
 31
0.0
  0
LINE
  5
19A
100
AcDbEntity
  8
2
100
AcDbLine
 10
59.503242
 20
-142.756662
 30
0.0
 11
81.174798
 21
-142.756662
 31
0.0
  0
LINE
  5
19B
100
AcDbEntity
  8
2
100
AcDbLine
 10
59.503242
 20
-62.756662
 30
0.0
 11
63.734985
 21
-62.756662
 31
0.0
  0
LINE
  5
19C
100
AcDbEntity
  8
2
100
AcDbLine
 10
164.503242
 20
-40.756662
 30
0.0
 11
64.503242
 21
-40.756662
 31
0.0
  0
LINE
  5
19D
100
AcDbEntity
  8
2
100
AcDbLine
 10
86.503242
 20
-81.756662
 30
0.0
 11
136.503242
 21
-81.756662
 31
0.0
  0
LINE
  5
19E
100
AcDbEntity
  8
2
100
AcDbLine
 10
86.503242
 20
-45.756662
 30
0.0
 11
136.503242
 21
-45.756662
 31
0.0
  0
ARC
  5
19F
100
AcDbEntity
  8
2
100
AcDbCircle
 10
136.503242
 20
-63.756662
 30
0.0
 40
18.0
100
AcDbArc
 50
270.0
 51
90.0
  0
LINE
  5
1A0
100
AcDbEntity
  8
2
100
AcDbLine
 10
141.209345
 20
-91.756662
 30
0.0
 11
86.797139
 21
-91.756662
 31
0.0
  0
ARC
  5
1A1
100
AcDbEntity
  8
2
100
AcDbCircle
 10
102.503242
 20
-132.756662
 30
0.0
 40
1.0
100
AcDbArc
 50
0.0
 51
90.0
  0
LINE
  5
1A2
100
AcDbEntity
  8
2
100
AcDbLine
 10
103.503242
 20
-132.756662
 30
0.0
 11
103.503242
 21
-138.756662
 31
0.0
  0
ARC
  5
1A3
100
AcDbEntity
  8
2
100
AcDbCircle
 10
104.503242
 20
-138.756662
 30
0.0
 40
1.0
100
AcDbArc
 50
180.0
 51
270.0
  0
LINE
  5
1A4
100
AcDbEntity
  8
2
100
AcDbLine
 10
104.503242
 20
-139.756662
 30
0.0
 11
110.503242
 21
-139.756662
 31
0.0
  0
ARC
  5
1A5
100
AcDbEntity
  8
2
100
AcDbCircle
 10
110.503242
 20
-138.756662
 30
0.0
 40
1.0
100
AcDbArc
 50
270.0
 51
360.0
  0
LINE
  5
1A6
100
AcDbEntity
  8
2
100
AcDbLine
 10
111.503242
 20
-132.756662
 30
0.0
 11
111.503242
 21
-138.756662
 31
0.0
  0
ARC
  5
1A7
100
AcDbEntity
  8
2
100
AcDbCircle
 10
112.503242
 20
-132.756662
 30
0.0
 40
1.0
100
AcDbArc
 50
90.0
 51
180.0
  0
LINE
  5
1A8
100
AcDbEntity
  8
2
100
AcDbLine
 10
106.503242
 20
-140.756662
 30
0.0
 11
108.503242
 21
-140.756662
 31
0.0
  0
ARC
  5
1A9
100
AcDbEntity
  8
2
100
AcDbCircle
 10
108.503242
 20
-139.756662
 30
0.0
 40
1.0
100
AcDbArc
 50
270.0
 51
360.0
  0
ARC
  5
1AA
100
AcDbEntity
  8
2
100
AcDbCircle
 10
106.503242
 20
-139.756662
 30
0.0
 40
1.0
100
AcDbArc
 50
180.0
 51
270.0
  0
LINE
  5
1AB
100
AcDbEntity
  8
2
100
AcDbLine
 10
64.503242
 20
-40.756662
 30
0.0
 11
62.303232
 21
-103.756685
 31
0.0
  0
LINE
  5
1AC
100
AcDbEntity
  8
2
100
AcDbLine
 10
164.503242
 20
-40.756662
 30
0.0
 11
166.004748
 21
-83.75419
 31
0.0
  0
ARC
  5
1AD
100
AcDbEntity
  8
2
100
AcDbCircle
 10
82.331686
 20
-126.756662
 30
0.0
 40
5.0
100
AcDbArc
 50
182.0
 51
270.0
  0
ARC
  5
1AE
100
AcDbEntity
  8
2
100
AcDbCircle
 10
147.606175
 20
-128.756662
 30
0.0
 40
3.0
100
AcDbArc
 50
270.0
 51
358.0
  0
LINE
  5
1AF
100
AcDbEntity
  8
2
100
AcDbLine
 10
76.145246
 20
-92.868758
 30
0.0
 11
77.334731
 21
-126.931159
 31
0.0
  0
LINE
  5
1B0
100
AcDbEntity
  8
2
100
AcDbLine
 10
150.604348
 20
-128.86136
 30
0.0
 11
151.861237
 21
-92.868758
 31
0.0
  0
LINE
  5
1B1
100
AcDbEntity
  8
2
100
AcDbLine
 10
76.503242
 20
-146.756662
 30
0.0
 11
76.430963
 21
-144.686863
 31
0.0
  0
ARC
  5
1B2
100
AcDbEntity
  8
2
100
AcDbCircle
 10
74.432181
 20
-144.756662
 30
0.0
 40
2.0
100
AcDbArc
 50
2.0
 51
90.0
  0
LINE
  5
1B3
100
AcDbEntity
  8
2
100
AcDbLine
 10
146.503242
 20
-146.756662
 30
0.0
 11
147.027053
 21
-131.756662
 31
0.0
  0
LINE
  5
1B4
100
AcDbEntity
  8
2
100
AcDbLine
 10
101.36234
 20
-140.756662
 30
0.0
 11
96.895407
 21
-140.756662
 31
0.0
  0
LINE
  5
1B5
100
AcDbEntity
  8
2
100
AcDbLine
 10
121.644144
 20
-140.756662
 30
0.0
 11
126.111077
 21
-140.756662
 31
0.0
  0
LINE
  5
1B6
100
AcDbEntity
  8
2
 62
     2
100
AcDbLine
 10
119.503242
 20
-146.756662
 30
0.0
 11
119.959649
 21
-133.686863
 31
0.0
  0
LINE
  5
1B7
100
AcDbEntity
  8
2
 62
     2
100
AcDbLine
 10
103.503242
 20
-146.756662
 30
0.0
 11
103.046834
 21
-133.686863
 31
0.0
  0
ARC
  5
1B8
100
AcDbEntity
  8
2
 62
     2
100
AcDbCircle
 10
121.958431
 20
-133.756662
 30
0.0
 40
2.0
100
AcDbArc
 50
90.0
 51
178.0
  0
ARC
  5
1B9
100
AcDbEntity
  8
2
 62
     2
100
AcDbCircle
 10
101.048053
 20
-133.756662
 30
0.0
 40
2.0
100
AcDbArc
 50
2.0
 51
90.0
  0
ARC
  5
1BA
100
AcDbEntity
  8
2
100
AcDbCircle
 10
121.644144
 20
-142.756662
 30
0.0
 40
2.0
100
AcDbArc
 50
90.0
 51
178.0
  0
ARC
  5
1BB
100
AcDbEntity
  8
2
100
AcDbCircle
 10
101.36234
 20
-142.756662
 30
0.0
 40
2.0
100
AcDbArc
 50
2.0
 51
90.0
  0
LINE
  5
1BC
100
AcDbEntity
  8
2
100
AcDbLine
 10
119.645362
 20
-142.686863
 30
0.0
 11
119.503242
 21
-146.756662
 31
0.0
  0
LINE
  5
1BD
100
AcDbEntity
  8
2
100
AcDbLine
 10
103.361121
 20
-142.686863
 30
0.0
 11
103.503242
 21
-146.756662
 31
0.0
  0
ARC
  5
1BE
100
AcDbEntity
  8
2
100
AcDbCircle
 10
72.504246
 20
-128.606373
 30
0.0
 40
5.0
100
AcDbArc
 50
10.659447
 51
90.0
  0
ARC
  5
1BF
100
AcDbEntity
  8
2
 62
     2
100
AcDbCircle
 10
136.503242
 20
-63.756662
 30
0.0
 40
17.0
100
AcDbArc
 50
270.0
 51
90.0
  0
LINE
  5
1C0
100
AcDbEntity
  8
2
 62
     2
100
AcDbLine
 10
86.503242
 20
-46.756662
 30
0.0
 11
136.503242
 21
-46.756662
 31
0.0
  0
ARC
  5
1C1
100
AcDbEntity
  8
2
 62
     2
100
AcDbCircle
 10
86.503242
 20
-63.756662
 30
0.0
 40
17.0
100
AcDbArc
 50
90.0
 51
270.0
  0
LINE
  5
1C2
100
AcDbEntity
  8
2
 62
     2
100
AcDbLine
 10
86.503242
 20
-80.756662
 30
0.0
 11
136.503242
 21
-80.756662
 31
0.0
  0
LINE
  5
1C3
100
AcDbEntity
  8
2
 62
     2
100
AcDbLine
 10
159.964614
 20
-82.709604
 30
0.0
 11
66.040041
 21
-82.709604
 31
0.0
  0
LINE
  5
1C4
100
AcDbEntity
  8
2
100
AcDbLine
 10
146.864284
 20
-87.694261
 30
0.0
 11
81.142201
 21
-87.694261
 31
0.0
  0
ARC
  5
1C5
100
AcDbEntity
  8
2
100
AcDbCircle
 10
146.864284
 20
-92.694261
 30
0.0
 40
5.0
100
AcDbArc
 50
357.999999
 51
90.0
  0
ARC
  5
1C6
100
AcDbEntity
  8
2
100
AcDbCircle
 10
81.142201
 20
-92.694261
 30
0.0
 40
5.0
100
AcDbArc
 50
90.0
 51
182.0
  0
LINE
  5
1C7
100
AcDbEntity
  8
2
100
AcDbLine
 10
83.798966
 20
-94.651963
 30
0.0
 11
82.539705
 21
-130.712496
 31
0.0
  0
ARC
  5
1C8
100
AcDbEntity
  8
2
100
AcDbCircle
 10
86.797139
 20
-94.756662
 30
0.0
 40
3.0
100
AcDbArc
 50
90.0
 51
178.0
  0
LINE
  5
1C9
100
AcDbEntity
  8
2
100
AcDbLine
 10
144.207517
 20
-94.651963
 30
0.0
 11
145.46954
 21
-130.791561
 31
0.0
  0
ARC
  5
1CA
100
AcDbEntity
  8
2
100
AcDbCircle
 10
141.209345
 20
-94.756662
 30
0.0
 40
3.0
100
AcDbArc
 50
2.0
 51
90.0
  0
ARC
  5
1CB
100
AcDbEntity
  8
2
100
AcDbCircle
 10
81.540314
 20
-130.677597
 30
0.0
 40
1.0
100
AcDbArc
 50
258.589152
 51
358.0
  0
ARC
  5
1CC
100
AcDbEntity
  8
2
100
AcDbCircle
 10
146.468931
 20
-130.756662
 30
0.0
 40
1.0
100
AcDbArc
 50
182.0
 51
270.0
  0
LINE
  5
1CD
100
AcDbEntity
  8
2
100
AcDbLine
 10
62.303232
 20
-103.756662
 30
0.0
 11
62.303232
 21
-120.606373
 31
0.0
  0
ARC
  5
1CE
100
AcDbEntity
  8
2
100
AcDbCircle
 10
65.303232
 20
-120.606373
 30
0.0
 40
3.0
100
AcDbArc
 50
180.0
 51
270.0
  0
ARC
  5
1CF
100
AcDbEntity
  8
2
100
AcDbCircle
 10
161.007795
 20
-83.928687
 30
0.0
 40
5.0
100
AcDbArc
 50
299.999995
 51
2.000001
  0
LINE
  5
1D0
100
AcDbEntity
  8
2
100
AcDbLine
 10
154.186118
 20
-93.640686
 30
0.0
 11
163.507795
 21
-88.258814
 31
0.0
  0
ARC
  5
1D1
100
AcDbEntity
  8
2
100
AcDbCircle
 10
156.686118
 20
-97.970813
 30
0.0
 40
5.0
100
AcDbArc
 50
119.999995
 51
177.999999
  0
ARC
  5
1D2
100
AcDbEntity
  8
2
100
AcDbCircle
 10
88.318748
 20
-133.756662
 30
0.0
 40
2.0
100
AcDbArc
 50
90.0
 51
178.0
  0
LINE
  5
1D3
100
AcDbEntity
  8
2
100
AcDbLine
 10
86.319966
 20
-133.686863
 30
0.0
 11
86.171752
 21
-137.931159
 31
0.0
  0
ARC
  5
1D4
100
AcDbEntity
  8
2
100
AcDbCircle
 10
81.174798
 20
-137.756662
 30
0.0
 40
5.0
100
AcDbArc
 50
270.0
 51
358.0
  0
ARC
  5
1D5
100
AcDbEntity
  8
2
100
AcDbCircle
 10
96.895407
 20
-142.756662
 30
0.0
 40
2.0
100
AcDbArc
 50
90.0
 51
177.999998
  0
LINE
  5
1D6
100
AcDbEntity
  8
2
100
AcDbLine
 10
94.754505
 20
-146.756662
 30
0.0
 11
94.896625
 21
-142.686863
 31
0.0
  0
ARC
  5
1D7
100
AcDbEntity
  8
2
100
AcDbCircle
 10
126.111077
 20
-142.756662
 30
0.0
 40
2.0
100
AcDbArc
 50
2.000002
 51
90.0
  0
LINE
  5
1D8
100
AcDbEntity
  8
2
100
AcDbLine
 10
128.25198
 20
-146.756662
 30
0.0
 11
128.109859
 21
-142.686863
 31
0.0
  0
LINE
  5
1D9
100
AcDbEntity
  8
2
100
AcDbLine
 10
82.331686
 20
-131.756662
 30
0.0
 11
147.503242
 21
-131.756662
 31
0.0
  0
CIRCLE
  5
1DA
100
AcDbEntity
  8
2
100
AcDbCircle
 10
136.503242
 20
-63.756662
 30
0.0
 40
13.0
  0
LINE
  5
1DB
100
AcDbEntity
  8
2
100
AcDbLine
 10
128.997688
 20
-50.756662
 30
0.0
 11
121.492135
 21
-63.756662
 31
0.0
  0
LINE
  5
1DC
100
AcDbEntity
  8
2
100
AcDbLine
 10
144.008795
 20
-50.756662
 30
0.0
 11
128.997688
 21
-50.756662
 31
0.0
  0
LINE
  5
1DD
100
AcDbEntity
  8
2
100
AcDbLine
 10
151.514349
 20
-63.756662
 30
0.0
 11
144.008795
 21
-50.756662
 31
0.0
  0
LINE
  5
1DE
100
AcDbEntity
  8
2
100
AcDbLine
 10
144.008795
 20
-76.756662
 30
0.0
 11
151.514349
 21
-63.756662
 31
0.0
  0
LINE
  5
1DF
100
AcDbEntity
  8
2
100
AcDbLine
 10
128.997688
 20
-76.756662
 30
0.0
 11
144.008795
 21
-76.756662
 31
0.0
  0
LINE
  5
1E0
100
AcDbEntity
  8
2
100
AcDbLine
 10
121.492135
 20
-63.756662
 30
0.0
 11
128.997688
 21
-76.756662
 31
0.0
  0
CIRCLE
  5
1E1
100
AcDbEntity
  8
2
100
AcDbCircle
 10
86.503242
 20
-63.756662
 30
0.0
 40
13.0
  0
LINE
  5
1E2
100
AcDbEntity
  8
2
100
AcDbLine
 10
78.997688
 20
-50.756662
 30
0.0
 11
71.492135
 21
-63.756662
 31
0.0
  0
LINE
  5
1E3
100
AcDbEntity
  8
2
100
AcDbLine
 10
94.008795
 20
-50.756662
 30
0.0
 11
78.997688
 21
-50.756662
 31
0.0
  0
LINE
  5
1E4
100
AcDbEntity
  8
2
100
AcDbLine
 10
101.514349
 20
-63.756662
 30
0.0
 11
94.008795
 21
-50.756662
 31
0.0
  0
LINE
  5
1E5
100
AcDbEntity
  8
2
100
AcDbLine
 10
94.008795
 20
-76.756662
 30
0.0
 11
101.514349
 21
-63.756662
 31
0.0
  0
LINE
  5
1E6
100
AcDbEntity
  8
2
100
AcDbLine
 10
78.997688
 20
-76.756662
 30
0.0
 11
94.008795
 21
-76.756662
 31
0.0
  0
LINE
  5
1E7
100
AcDbEntity
  8
2
100
AcDbLine
 10
71.492135
 20
-63.756662
 30
0.0
 11
78.997688
 21
-76.756662
 31
0.0
  0
LINE
  5
1E8
100
AcDbEntity
  8
2
100
AcDbLine
 10
157.517947
 20
-23.756662
 30
0.0
 11
71.488536
 21
-23.756662
 31
0.0
  0
LINE
  5
1E9
100
AcDbEntity
  8
2
100
AcDbLine
 10
69.003242
 20
-17.556662
 30
0.0
 11
69.003242
 21
-22.621429
 31
0.0
  0
LINE
  5
1EA
100
AcDbEntity
  8
2
100
AcDbLine
 10
154.003242
 20
-17.556662
 30
0.0
 11
154.003242
 21
-20.756662
 31
0.0
  0
LINE
  5
1EB
100
AcDbEntity
  8
2
100
AcDbLine
 10
69.003242
 20
-18.756662
 30
0.0
 11
154.003242
 21
-18.756662
 31
0.0
  0
LINE
  5
1EC
100
AcDbEntity
  8
2
100
AcDbLine
 10
164.503242
 20
-40.756662
 30
0.0
 11
163.495116
 21
-29.233727
 31
0.0
  0
LINE
  5
1ED
100
AcDbEntity
  8
2
100
AcDbLine
 10
64.503242
 20
-40.756662
 30
0.0
 11
65.511368
 21
-29.233727
 31
0.0
  0
ARC
  5
1EE
100
AcDbEntity
  8
2
100
AcDbCircle
 10
157.517947
 20
-29.756662
 30
0.0
 40
6.0
100
AcDbArc
 50
5.0
 51
90.0
  0
ARC
  5
1EF
100
AcDbEntity
  8
2
100
AcDbCircle
 10
71.488536
 20
-29.756662
 30
0.0
 40
6.0
100
AcDbArc
 50
90.0
 51
175.0
  0
ARC
  5
1F0
100
AcDbEntity
  8
2
100
AcDbCircle
 10
157.003242
 20
-20.756662
 30
0.0
 40
3.0
100
AcDbArc
 50
180.0
 51
270.0
  0
ARC
  5
1F1
100
AcDbEntity
  8
2
100
AcDbCircle
 10
66.003242
 20
-22.621429
 30
0.0
 40
3.0
100
AcDbArc
 50
307.551707
 51
360.0
  0
ARC
  5
1F2
100
AcDbEntity
  8
2
100
AcDbCircle
 10
111.503242
 20
-30.756662
 30
0.0
 40
34.0
100
AcDbArc
 50
45.099128
 51
134.900872
  0
LINE
  5
1F3
100
AcDbEntity
  8
2
100
AcDbLine
 10
119.003237
 20
0.848824
 30
0.0
 11
119.003242
 21
-17.556662
 31
0.0
  0
LINE
  5
1F4
100
AcDbEntity
  8
2
100
AcDbLine
 10
104.003242
 20
0.848824
 30
0.0
 11
104.003242
 21
-17.556662
 31
0.0
  0
LINE
  5
1F5
100
AcDbEntity
  8
2
100
AcDbLine
 10
87.503242
 20
-6.673473
 30
0.0
 11
87.503242
 21
-8.39956
 31
0.0
  0
LINE
  5
1F6
100
AcDbEntity
  8
2
100
AcDbLine
 10
135.503242
 20
-6.673473
 30
0.0
 11
135.503242
 21
-8.39956
 31
0.0
  0
ARC
  5
1F7
100
AcDbEntity
  8
2
100
AcDbCircle
 10
111.503242
 20
-28.756662
 30
0.0
 40
31.0
100
AcDbArc
 50
28.453097
 51
48.922243
  0
ARC
  5
1F8
100
AcDbEntity
  8
2
100
AcDbCircle
 10
111.503242
 20
-28.756662
 30
0.0
 40
31.0
100
AcDbArc
 50
131.077757
 51
151.546903
  0
ARC
  5
1F9
100
AcDbEntity
  8
2
100
AcDbCircle
 10
111.503242
 20
-32.256662
 30
0.0
 40
28.0
100
AcDbArc
 50
105.536794
 51
145.287318
  0
ARC
  5
1FA
100
AcDbEntity
  8
2
100
AcDbCircle
 10
111.503242
 20
-32.256662
 30
0.0
 40
28.0
100
AcDbArc
 50
34.712682
 51
74.463206
  0
ARC
  5
1FB
100
AcDbEntity
  8
2
100
AcDbCircle
 10
76.102847
 20
-27.991032
 30
0.0
 40
45.274917
100
AcDbArc
 50
13.324563
 51
18.638604
  0
ARC
  5
1FC
100
AcDbEntity
  8
2
100
AcDbCircle
 10
77.026726
 20
-27.991032
 30
0.0
 40
45.274917
100
AcDbArc
 50
13.324563
 51
21.318921
  0
ARC
  5
1FD
100
AcDbEntity
  8
2
100
AcDbCircle
 10
118.802079
 20
-11.687609
 30
0.0
 40
0.430947
100
AcDbArc
 50
21.318921
 51
62.173379
  0
ARC
  5
1FE
100
AcDbEntity
  8
2
100
AcDbCircle
 10
100.073313
 20
-29.757914
 30
0.0
 40
30.472934
100
AcDbArc
 50
23.60296
 51
36.322403
  0
ARC
  5
1FF
100
AcDbEntity
  8
2
100
AcDbCircle
 10
100.78042
 20
-29.757914
 30
0.0
 40
30.472934
100
AcDbArc
 50
23.60296
 51
37.117331
  0
ARC
  5
200
100
AcDbEntity
  8
2
100
AcDbCircle
 10
124.853594
 20
-11.540066
 30
0.0
 40
0.283404
100
AcDbArc
 50
37.117331
 51
216.322403
  0
ARC
  5
201
100
AcDbEntity
  8
2
100
AcDbCircle
 10
108.8289
 20
-31.524795
 30
0.0
 40
28.197761
100
AcDbArc
 50
29.693704
 51
45.288518
  0
ARC
  5
202
100
AcDbEntity
  8
2
100
AcDbCircle
 10
109.211584
 20
-31.524795
 30
0.0
 40
28.197761
100
AcDbArc
 50
29.693704
 51
45.843762
  0
ARC
  5
203
100
AcDbEntity
  8
2
100
AcDbCircle
 10
128.761316
 20
-11.390619
 30
0.0
 40
0.133957
100
AcDbArc
 50
45.843762
 51
225.288518
  0
LINE
  5
204
100
AcDbEntity
  8
2
 62
     2
100
AcDbLine
 10
120.728817
 20
-16.161178
 30
0.0
 11
119.6279
 21
-15.525563
 31
0.0
  0
LINE
  5
205
100
AcDbEntity
  8
2
 62
     2
100
AcDbLine
 10
120.496531
 20
-15.334248
 30
0.0
 11
119.379698
 21
-14.689444
 31
0.0
  0
LINE
  5
206
100
AcDbEntity
  8
2
 62
     2
100
AcDbLine
 10
120.243428
 20
-14.495298
 30
0.0
 11
119.10967
 21
-13.840723
 31
0.0
  0
LINE
  5
207
100
AcDbEntity
  8
2
 62
     2
100
AcDbLine
 10
119.968178
 20
-13.643562
 30
0.0
 11
119.003244
 21
-13.086457
 31
0.0
  0
LINE
  5
208
100
AcDbEntity
  8
2
 62
     2
100
AcDbLine
 10
119.669275
 20
-12.77817
 30
0.0
 11
119.003244
 21
-12.393637
 31
0.0
  0
LINE
  5
209
100
AcDbEntity
  8
2
 62
     2
100
AcDbLine
 10
119.345005
 20
-11.898133
 30
0.0
 11
119.003244
 21
-11.700816
 31
0.0
  0
LINE
  5
20A
100
AcDbEntity
  8
2
 62
     2
100
AcDbLine
 10
120.941464
 20
-16.97677
 30
0.0
 11
119.855567
 21
-16.349827
 31
0.0
  0
LINE
  5
20B
100
AcDbEntity
  8
2
 62
     2
100
AcDbLine
 10
120.745865
 20
-17.556662
 30
0.0
 11
120.063849
 21
-17.162899
 31
0.0
  0
LINE
  5
20C
100
AcDbEntity
  8
2
 62
     2
100
AcDbLine
 10
127.875505
 20
-17.282425
 30
0.0
 11
128.350497
 21
-17.556662
 31
0.0
  0
LINE
  5
20D
100
AcDbEntity
  8
2
 62
     2
100
AcDbLine
 10
128.405882
 20
-16.895818
 30
0.0
 11
127.429152
 21
-16.331903
 31
0.0
  0
LINE
  5
20E
100
AcDbEntity
  8
2
 62
     2
100
AcDbLine
 10
127.936268
 20
-15.931866
 30
0.0
 11
126.923415
 21
-15.347095
 31
0.0
  0
LINE
  5
20F
100
AcDbEntity
  8
2
 62
     2
100
AcDbLine
 10
127.403149
 20
-14.931249
 30
0.0
 11
126.347277
 21
-14.321641
 31
0.0
  0
LINE
  5
210
100
AcDbEntity
  8
2
 62
     2
100
AcDbLine
 10
126.793972
 20
-13.886721
 30
0.0
 11
125.685401
 21
-13.246687
 31
0.0
  0
LINE
  5
211
100
AcDbEntity
  8
2
 62
     2
100
AcDbLine
 10
126.090921
 20
-12.787994
 30
0.0
 11
124.915299
 21
-12.109248
 31
0.0
  0
LINE
  5
212
100
AcDbEntity
  8
2
 62
     2
100
AcDbLine
 10
125.267156
 20
-11.619572
 30
0.0
 11
124.70815
 21
-11.29683
 31
0.0
  0
LINE
  5
213
100
AcDbEntity
  8
2
100
AcDbLine
 10
69.003242
 20
-17.556662
 30
0.0
 11
154.003242
 21
-17.556662
 31
0.0
  0
LINE
  5
214
100
AcDbEntity
  8
2
 62
     2
100
AcDbLine
 10
131.879625
 20
-14.753581
 30
0.0
 11
131.202351
 21
-14.362557
 31
0.0
  0
LINE
  5
215
100
AcDbEntity
  8
2
 62
     2
100
AcDbLine
 10
130.884874
 20
-13.486441
 30
0.0
 11
130.133832
 21
-13.052826
 31
0.0
  0
LINE
  5
216
100
AcDbEntity
  8
2
 62
     2
100
AcDbLine
 10
129.612486
 20
-12.059007
 30
0.0
 11
128.732848
 21
-11.551148
 31
0.0
  0
LINE
  5
217
100
AcDbEntity
  8
2
 62
     2
100
AcDbLine
 10
132.69654
 20
-15.918047
 30
0.0
 11
132.069024
 21
-15.555751
 31
0.0
  0
LINE
  5
218
100
AcDbEntity
  8
2
 62
     2
100
AcDbLine
 10
133.386029
 20
-17.008945
 30
0.0
 11
132.795225
 21
-16.667844
 31
0.0
  0
LINE
  5
219
100
AcDbEntity
  8
2
100
AcDbLine
 10
152.503242
 20
-26.756662
 30
0.0
 11
152.503242
 21
-35.256662
 31
0.0
  0
LINE
  5
21A
100
AcDbEntity
  8
2
100
AcDbLine
 10
76.503242
 20
-26.756662
 30
0.0
 11
76.503242
 21
-35.256662
 31
0.0
  0
LINE
  5
21B
100
AcDbEntity
  8
2
100
AcDbLine
 10
65.398851
 20
-35.756662
 30
0.0
 11
76.003242
 21
-35.756662
 31
0.0
  0
LINE
  5
21C
100
AcDbEntity
  8
2
100
AcDbLine
 10
153.003242
 20
-35.756662
 30
0.0
 11
163.607633
 21
-35.756662
 31
0.0
  0
ARC
  5
21D
100
AcDbEntity
  8
2
100
AcDbCircle
 10
153.003242
 20
-35.256662
 30
0.0
 40
0.5
100
AcDbArc
 50
180.0
 51
270.0
  0
ARC
  5
21E
100
AcDbEntity
  8
2
100
AcDbCircle
 10
76.003242
 20
-35.256662
 30
0.0
 40
0.5
100
AcDbArc
 50
270.0
 51
360.0
  0
ARC
  5
21F
100
AcDbEntity
  8
2
100
AcDbCircle
 10
163.607633
 20
-36.256662
 30
0.0
 40
0.5
100
AcDbArc
 50
5.0
 51
90.0
  0
ARC
  5
220
100
AcDbEntity
  8
2
100
AcDbCircle
 10
65.398851
 20
-36.256662
 30
0.0
 40
0.5
100
AcDbArc
 50
90.0
 51
175.0
  0
ARC
  5
221
100
AcDbEntity
  8
2
100
AcDbCircle
 10
149.503242
 20
-26.756662
 30
0.0
 40
3.0
100
AcDbArc
 50
0.0
 51
90.0
  0
ARC
  5
222
100
AcDbEntity
  8
2
100
AcDbCircle
 10
79.503242
 20
-26.756662
 30
0.0
 40
3.0
100
AcDbArc
 50
90.0
 51
180.0
  0
ARC
  5
223
100
AcDbEntity
  8
2
100
AcDbCircle
 10
103.219454
 20
-10.07763
 30
0.0
 40
11.430139
100
AcDbArc
 50
88.512215
 51
112.714662
  0
ARC
  5
224
100
AcDbEntity
  8
2
100
AcDbCircle
 10
103.503242
 20
0.848824
 30
0.0
 40
0.5
100
AcDbArc
 50
0.0
 51
88.512215
  0
ARC
  5
225
100
AcDbEntity
  8
2
100
AcDbCircle
 10
114.339615
 20
-36.642135
 30
0.0
 40
40.228245
100
AcDbArc
 50
112.714662
 51
131.843847
  0
ARC
  5
226
100
AcDbEntity
  8
2
100
AcDbCircle
 10
104.709456
 20
-16.973607
 30
0.0
 40
17.127052
100
AcDbArc
 50
93.791923
 51
118.737001
  0
ARC
  5
227
100
AcDbEntity
  8
2
100
AcDbCircle
 10
103.603242
 20
-0.283174
 30
0.0
 40
0.4
100
AcDbArc
 50
0.0
 51
93.791923
  0
ARC
  5
228
100
AcDbEntity
  8
2
100
AcDbCircle
 10
118.421805
 20
-41.981372
 30
0.0
 40
45.647515
100
AcDbArc
 50
118.737001
 51
132.635576
  0
ARC
  5
229
100
AcDbEntity
  8
2
100
AcDbCircle
 10
118.297028
 20
-16.973607
 30
0.0
 40
17.127052
100
AcDbArc
 50
61.262999
 51
86.208077
  0
ARC
  5
22A
100
AcDbEntity
  8
2
100
AcDbCircle
 10
104.584678
 20
-41.981372
 30
0.0
 40
45.647515
100
AcDbArc
 50
47.364424
 51
61.262999
  0
ARC
  5
22B
100
AcDbEntity
  8
2
100
AcDbCircle
 10
119.403242
 20
-0.283174
 30
0.0
 40
0.4
100
AcDbArc
 50
86.208077
 51
180.0
  0
ARC
  5
22C
100
AcDbEntity
  8
2
100
AcDbCircle
 10
119.503242
 20
0.848824
 30
0.0
 40
0.5
100
AcDbArc
 50
91.487785
 51
180.0
  0
ARC
  5
22D
100
AcDbEntity
  8
2
100
AcDbCircle
 10
119.78703
 20
-10.07763
 30
0.0
 40
11.430139
100
AcDbArc
 50
67.285338
 51
91.487785
  0
ARC
  5
22E
100
AcDbEntity
  8
2
100
AcDbCircle
 10
108.666868
 20
-36.642135
 30
0.0
 40
40.228245
100
AcDbArc
 50
48.156153
 51
67.285338
  0
LINE
  5
22F
100
AcDbEntity
  8
2
  6
CENTER
 62
     2
100
AcDbLine
 10
158.503242
 20
-26.629213
 30
0.0
 11
158.503242
 21
-43.104055
 31
0.0
  0
LINE
  5
230
100
AcDbEntity
  8
2
  6
CENTER
 62
     2
100
AcDbLine
 10
70.503242
 20
-26.629213
 30
0.0
 11
70.503242
 21
-43.104055
 31
0.0
  0
LINE
  5
231
100
AcDbEntity
  8
2
  6
CENTER
 62
     2
100
AcDbLine
 10
138.019746
 20
-26.411844
 30
0.0
 11
138.019746
 21
-10.800386
 31
0.0
  0
LINE
  5
232
100
AcDbEntity
  8
2
  6
CENTER
 62
     2
100
AcDbLine
 10
84.986737
 20
-26.411844
 30
0.0
 11
84.986737
 21
-9.406496
 31
0.0
  0
LINE
  5
233
100
AcDbEntity
  8
2
100
AcDbLine
 10
65.903242
 20
-34.456662
 30
0.0
 11
65.903242
 21
-35.756662
 31
0.0
  0
LINE
  5
234
100
AcDbEntity
  8
2
100
AcDbLine
 10
75.103242
 20
-34.456662
 30
0.0
 11
75.103242
 21
-35.756662
 31
0.0
  0
LINE
  5
235
100
AcDbEntity
  8
2
100
AcDbLine
 10
65.903242
 20
-34.456662
 30
0.0
 11
75.103242
 21
-34.456662
 31
0.0
  0
LINE
  5
236
100
AcDbEntity
  8
2
100
AcDbLine
 10
66.003242
 20
-33.16917
 30
0.0
 11
66.003242
 21
-34.456662
 31
0.0
  0
LINE
  5
237
100
AcDbEntity
  8
2
100
AcDbLine
 10
75.003242
 20
-33.16917
 30
0.0
 11
75.003242
 21
-34.456662
 31
0.0
  0
ARC
  5
238
100
AcDbEntity
  8
2
100
AcDbCircle
 10
70.503242
 20
-43.156662
 30
0.0
 40
12.0
100
AcDbArc
 50
73.808648
 51
106.191352
  0
ARC
  5
239
100
AcDbEntity
  8
2
100
AcDbCircle
 10
67.603242
 20
-33.16917
 30
0.0
 40
1.6
100
AcDbArc
 50
106.191352
 51
180.0
  0
ARC
  5
23A
100
AcDbEntity
  8
2
100
AcDbCircle
 10
73.403242
 20
-33.16917
 30
0.0
 40
1.6
100
AcDbArc
 50
0.0
 51
73.808648
  0
LINE
  5
23B
100
AcDbEntity
  8
2
100
AcDbLine
 10
153.903242
 20
-34.456662
 30
0.0
 11
153.903242
 21
-35.756662
 31
0.0
  0
LINE
  5
23C
100
AcDbEntity
  8
2
100
AcDbLine
 10
163.103242
 20
-34.456662
 30
0.0
 11
163.103242
 21
-35.756662
 31
0.0
  0
LINE
  5
23D
100
AcDbEntity
  8
2
100
AcDbLine
 10
153.903242
 20
-34.456662
 30
0.0
 11
163.103242
 21
-34.456662
 31
0.0
  0
LINE
  5
23E
100
AcDbEntity
  8
2
100
AcDbLine
 10
154.003242
 20
-33.16917
 30
0.0
 11
154.003242
 21
-34.456662
 31
0.0
  0
LINE
  5
23F
100
AcDbEntity
  8
2
100
AcDbLine
 10
163.003242
 20
-33.16917
 30
0.0
 11
163.003242
 21
-34.456662
 31
0.0
  0
ARC
  5
240
100
AcDbEntity
  8
2
100
AcDbCircle
 10
158.503242
 20
-43.156662
 30
0.0
 40
12.0
100
AcDbArc
 50
73.808648
 51
106.191352
  0
ARC
  5
241
100
AcDbEntity
  8
2
100
AcDbCircle
 10
155.603242
 20
-33.16917
 30
0.0
 40
1.6
100
AcDbArc
 50
106.191352
 51
180.0
  0
ARC
  5
242
100
AcDbEntity
  8
2
100
AcDbCircle
 10
161.403242
 20
-33.16917
 30
0.0
 40
1.6
100
AcDbArc
 50
0.0
 51
73.808648
  0
LINE
  5
243
100
AcDbEntity
  8
2
100
AcDbLine
 10
88.786737
 20
-16.556662
 30
0.0
 11
81.186737
 21
-16.556662
 31
0.0
  0
LINE
  5
244
100
AcDbEntity
  8
2
100
AcDbLine
 10
88.786737
 20
-16.556662
 30
0.0
 11
88.786737
 21
-17.556662
 31
0.0
  0
LINE
  5
245
100
AcDbEntity
  8
2
100
AcDbLine
 10
81.186737
 20
-16.556662
 30
0.0
 11
81.186737
 21
-17.556662
 31
0.0
  0
LINE
  5
246
100
AcDbEntity
  8
2
100
AcDbLine
 10
88.486737
 20
-15.577637
 30
0.0
 11
88.486737
 21
-16.556662
 31
0.0
  0
LINE
  5
247
100
AcDbEntity
  8
2
100
AcDbLine
 10
81.486737
 20
-15.577637
 30
0.0
 11
81.486737
 21
-16.556662
 31
0.0
  0
ARC
  5
248
100
AcDbEntity
  8
2
100
AcDbCircle
 10
84.986737
 20
-22.956662
 30
0.0
 40
9.0
100
AcDbArc
 50
73.39845
 51
106.60155
  0
ARC
  5
249
100
AcDbEntity
  8
2
100
AcDbCircle
 10
87.186737
 20
-15.577637
 30
0.0
 40
1.3
100
AcDbArc
 50
0.0
 51
73.39845
  0
ARC
  5
24A
100
AcDbEntity
  8
2
100
AcDbCircle
 10
82.786737
 20
-15.577637
 30
0.0
 40
1.3
100
AcDbArc
 50
106.60155
 51
180.0
  0
LINE
  5
24B
100
AcDbEntity
  8
2
100
AcDbLine
 10
141.819746
 20
-16.556662
 30
0.0
 11
134.219746
 21
-16.556662
 31
0.0
  0
LINE
  5
24C
100
AcDbEntity
  8
2
100
AcDbLine
 10
141.819746
 20
-16.556662
 30
0.0
 11
141.819746
 21
-17.556662
 31
0.0
  0
LINE
  5
24D
100
AcDbEntity
  8
2
100
AcDbLine
 10
134.219746
 20
-16.556662
 30
0.0
 11
134.219746
 21
-17.556662
 31
0.0
  0
LINE
  5
24E
100
AcDbEntity
  8
2
100
AcDbLine
 10
141.519746
 20
-15.577637
 30
0.0
 11
141.519746
 21
-16.556662
 31
0.0
  0
LINE
  5
24F
100
AcDbEntity
  8
2
100
AcDbLine
 10
134.519746
 20
-15.577637
 30
0.0
 11
134.519746
 21
-16.556662
 31
0.0
  0
ARC
  5
250
100
AcDbEntity
  8
2
100
AcDbCircle
 10
138.019746
 20
-22.956662
 30
0.0
 40
9.0
100
AcDbArc
 50
73.39845
 51
106.60155
  0
ARC
  5
251
100
AcDbEntity
  8
2
100
AcDbCircle
 10
140.219746
 20
-15.577637
 30
0.0
 40
1.3
100
AcDbArc
 50
0.0
 51
73.39845
  0
ARC
  5
252
100
AcDbEntity
  8
2
100
AcDbCircle
 10
135.819746
 20
-15.577637
 30
0.0
 40
1.3
100
AcDbArc
 50
106.60155
 51
180.0
  0
LINE
  5
253
100
AcDbEntity
  8
2
100
AcDbLine
 10
59.503242
 20
-62.756662
 30
0.0
 11
59.503242
 21
-142.756662
 31
0.0
  0
LINE
  5
254
100
AcDbEntity
  8
2
100
AcDbLine
 10
148.003242
 20
-134.006662
 30
0.0
 11
150.42467
 21
-134.006662
 31
0.0
  0
LINE
  5
255
100
AcDbEntity
  8
2
100
AcDbLine
 10
148.003242
 20
-136.881662
 30
0.0
 11
150.324273
 21
-136.881662
 31
0.0
  0
LINE
  5
256
100
AcDbEntity
  8
2
100
AcDbLine
 10
148.003242
 20
-142.631662
 30
0.0
 11
150.123478
 21
-142.631662
 31
0.0
  0
LINE
  5
257
100
AcDbEntity
  8
2
100
AcDbLine
 10
148.003242
 20
-145.506662
 30
0.0
 11
150.023081
 21
-145.506662
 31
0.0
  0
LINE
  5
258
100
AcDbEntity
  8
2
100
AcDbLine
 10
148.003242
 20
-133.656662
 30
0.0
 11
146.960704
 21
-133.656662
 31
0.0
  0
LINE
  5
259
100
AcDbEntity
  8
2
100
AcDbLine
 10
146.53467
 20
-145.856662
 30
0.0
 11
148.003242
 21
-145.856662
 31
0.0
  0
LINE
  5
25A
100
AcDbEntity
  8
2
100
AcDbLine
 10
148.003242
 20
-145.856662
 30
0.0
 11
148.003242
 21
-133.656662
 31
0.0
  0
LINE
  5
25B
100
AcDbEntity
  8
2
100
AcDbLine
 10
59.503242
 20
-142.756662
 30
0.0
 11
59.503242
 21
-63.423328
 31
0.0
  0
LINE
  5
25C
100
AcDbEntity
  8
2
100
AcDbLine
 10
46.592447
 20
-140.506662
 30
0.0
 11
48.203242
 21
-140.506662
 31
0.0
  0
ARC
  5
25D
100
AcDbEntity
  8
2
100
AcDbCircle
 10
46.592447
 20
-139.506662
 30
0.0
 40
1.0
100
AcDbArc
 50
212.392365
 51
270.0
  0
LINE
  5
25E
100
AcDbEntity
  8
2
100
AcDbLine
 10
48.203242
 20
-131.006662
 30
0.0
 11
48.203242
 21
-140.506662
 31
0.0
  0
LINE
  5
25F
100
AcDbEntity
  8
2
100
AcDbLine
 10
48.203242
 20
-140.356662
 30
0.0
 11
49.503242
 21
-140.356662
 31
0.0
  0
LINE
  5
260
100
AcDbEntity
  8
2
100
AcDbLine
 10
46.592447
 20
-131.006662
 30
0.0
 11
48.203242
 21
-131.006662
 31
0.0
  0
LINE
  5
261
100
AcDbEntity
  8
2
100
AcDbLine
 10
48.203242
 20
-131.156662
 30
0.0
 11
49.503242
 21
-131.156662
 31
0.0
  0
LINE
  5
262
100
AcDbEntity
  8
2
100
AcDbLine
 10
44.518882
 20
-136.256662
 30
0.0
 11
44.703242
 21
-136.256662
 31
0.0
  0
LINE
  5
263
100
AcDbEntity
  8
2
100
AcDbLine
 10
44.518882
 20
-135.256662
 30
0.0
 11
44.703242
 21
-135.256662
 31
0.0
  0
LINE
  5
264
100
AcDbEntity
  8
2
100
AcDbLine
 10
44.703242
 20
-136.256662
 30
0.0
 11
44.703242
 21
-135.256662
 31
0.0
  0
ARC
  5
265
100
AcDbEntity
  8
2
100
AcDbCircle
 10
52.503242
 20
-135.756662
 30
0.0
 40
8.0
100
AcDbArc
 50
183.583322
 51
212.392365
  0
ARC
  5
266
100
AcDbEntity
  8
2
100
AcDbCircle
 10
52.503242
 20
-135.756662
 30
0.0
 40
8.0
100
AcDbArc
 50
147.607635
 51
176.416678
  0
ARC
  5
267
100
AcDbEntity
  8
2
100
AcDbCircle
 10
46.592447
 20
-132.006662
 30
0.0
 40
1.0
100
AcDbArc
 50
90.0
 51
147.607635
  0
LINE
  5
268
100
AcDbEntity
  8
2
100
AcDbLine
 10
46.592447
 20
-74.006662
 30
0.0
 11
48.203242
 21
-74.006662
 31
0.0
  0
ARC
  5
269
100
AcDbEntity
  8
2
100
AcDbCircle
 10
46.592447
 20
-73.006662
 30
0.0
 40
1.0
100
AcDbArc
 50
212.392365
 51
270.0
  0
LINE
  5
26A
100
AcDbEntity
  8
2
100
AcDbLine
 10
48.203242
 20
-64.506662
 30
0.0
 11
48.203242
 21
-74.006662
 31
0.0
  0
LINE
  5
26B
100
AcDbEntity
  8
2
100
AcDbLine
 10
48.203242
 20
-73.856662
 30
0.0
 11
49.503242
 21
-73.856662
 31
0.0
  0
LINE
  5
26C
100
AcDbEntity
  8
2
100
AcDbLine
 10
46.592447
 20
-64.506662
 30
0.0
 11
48.203242
 21
-64.506662
 31
0.0
  0
LINE
  5
26D
100
AcDbEntity
  8
2
100
AcDbLine
 10
48.203242
 20
-64.656662
 30
0.0
 11
49.503242
 21
-64.656662
 31
0.0
  0
LINE
  5
26E
100
AcDbEntity
  8
2
100
AcDbLine
 10
44.518882
 20
-69.756662
 30
0.0
 11
44.703242
 21
-69.756662
 31
0.0
  0
LINE
  5
26F
100
AcDbEntity
  8
2
100
AcDbLine
 10
44.518882
 20
-68.756662
 30
0.0
 11
44.703242
 21
-68.756662
 31
0.0
  0
LINE
  5
270
100
AcDbEntity
  8
2
100
AcDbLine
 10
44.703242
 20
-69.756662
 30
0.0
 11
44.703242
 21
-68.756662
 31
0.0
  0
ARC
  5
271
100
AcDbEntity
  8
2
100
AcDbCircle
 10
52.503242
 20
-69.256662
 30
0.0
 40
8.0
100
AcDbArc
 50
183.583322
 51
212.392365
  0
ARC
  5
272
100
AcDbEntity
  8
2
100
AcDbCircle
 10
52.503242
 20
-69.256662
 30
0.0
 40
8.0
100
AcDbArc
 50
147.607635
 51
176.416678
  0
ARC
  5
273
100
AcDbEntity
  8
2
100
AcDbCircle
 10
46.592447
 20
-65.506662
 30
0.0
 40
1.0
100
AcDbArc
 50
90.0
 51
147.607635
  0
LINE
  5
274
100
AcDbEntity
  8
2
100
AcDbLine
 10
30.503242
 20
-116.256662
 30
0.0
 11
30.503242
 21
-91.256662
 31
0.0
  0
LINE
  5
275
100
AcDbEntity
  8
2
100
AcDbLine
 10
26.803242
 20
-91.256662
 30
0.0
 11
30.503242
 21
-91.256662
 31
0.0
  0
LINE
  5
276
100
AcDbEntity
  8
2
100
AcDbLine
 10
26.503242
 20
-91.556662
 30
0.0
 11
26.803242
 21
-91.256662
 31
0.0
  0
LINE
  5
277
100
AcDbEntity
  8
2
100
AcDbLine
 10
26.503242
 20
-91.556662
 30
0.0
 11
26.503242
 21
-115.956662
 31
0.0
  0
LINE
  5
278
100
AcDbEntity
  8
2
100
AcDbLine
 10
26.503242
 20
-115.956662
 30
0.0
 11
26.803242
 21
-116.256662
 31
0.0
  0
LINE
  5
279
100
AcDbEntity
  8
2
100
AcDbLine
 10
26.803242
 20
-116.256662
 30
0.0
 11
30.503242
 21
-116.256662
 31
0.0
  0
LINE
  5
27A
100
AcDbEntity
  8
2
100
AcDbLine
 10
30.503242
 20
-115.756662
 30
0.0
 11
30.503242
 21
-91.756662
 31
0.0
  0
LINE
  5
27B
100
AcDbEntity
  8
2
100
AcDbLine
 10
31.003242
 20
-116.256662
 30
0.0
 11
31.503242
 21
-116.256662
 31
0.0
  0
LINE
  5
27C
100
AcDbEntity
  8
2
100
AcDbLine
 10
31.003242
 20
-91.256662
 30
0.0
 11
31.503242
 21
-91.256662
 31
0.0
  0
ARC
  5
27D
100
AcDbEntity
  8
2
100
AcDbCircle
 10
31.003242
 20
-115.756662
 30
0.0
 40
0.5
100
AcDbArc
 50
180.0
 51
270.0
  0
ARC
  5
27E
100
AcDbEntity
  8
2
100
AcDbCircle
 10
31.003242
 20
-91.756662
 30
0.0
 40
0.5
100
AcDbArc
 50
90.0
 51
180.0
  0
ARC
  5
27F
100
AcDbEntity
  8
2
100
AcDbCircle
 10
31.503242
 20
-117.256662
 30
0.0
 40
1.0
100
AcDbArc
 50
0.0
 51
90.0
  0
ARC
  5
280
100
AcDbEntity
  8
2
100
AcDbCircle
 10
31.503242
 20
-90.256662
 30
0.0
 40
1.0
100
AcDbArc
 50
270.0
 51
360.0
  0
LINE
  5
281
100
AcDbEntity
  8
2
100
AcDbLine
 10
32.503242
 20
-131.740153
 30
0.0
 11
32.503242
 21
-75.77317
 31
0.0
  0
LINE
  5
282
100
AcDbEntity
  8
2
100
AcDbLine
 10
49.503242
 20
-141.756662
 30
0.0
 11
49.503242
 21
-63.756662
 31
0.0
  0
LINE
  5
283
100
AcDbEntity
  8
2
100
AcDbLine
 10
59.503242
 20
-142.756662
 30
0.0
 11
50.503242
 21
-142.756662
 31
0.0
  0
LINE
  5
284
100
AcDbEntity
  8
2
100
AcDbLine
 10
59.503242
 20
-62.756662
 30
0.0
 11
50.503242
 21
-62.756662
 31
0.0
  0
ARC
  5
285
100
AcDbEntity
  8
2
100
AcDbCircle
 10
50.503242
 20
-141.756662
 30
0.0
 40
1.0
100
AcDbArc
 50
180.0
 51
270.0
  0
ARC
  5
286
100
AcDbEntity
  8
2
100
AcDbCircle
 10
50.503242
 20
-63.756662
 30
0.0
 40
1.0
100
AcDbArc
 50
90.0
 51
180.0
  0
LINE
  5
287
100
AcDbEntity
  8
2
100
AcDbLine
 10
36.725756
 20
-136.679335
 30
0.0
 11
44.81034
 21
-137.951944
 31
0.0
  0
ARC
  5
288
100
AcDbEntity
  8
2
100
AcDbCircle
 10
46.503242
 20
-141.255367
 30
0.0
 40
3.0
100
AcDbArc
 50
0.0
 51
17.431677
  0
ARC
  5
289
100
AcDbEntity
  8
2
100
AcDbCircle
 10
37.503242
 20
-131.740153
 30
0.0
 40
5.0
100
AcDbArc
 50
180.0
 51
261.054375
  0
LINE
  5
28A
100
AcDbEntity
  8
2
100
AcDbLine
 10
36.725756
 20
-70.833988
 30
0.0
 11
44.703242
 21
-69.578238
 31
0.0
  0
ARC
  5
28B
100
AcDbEntity
  8
2
100
AcDbCircle
 10
37.503242
 20
-75.77317
 30
0.0
 40
5.0
100
AcDbArc
 50
98.945625
 51
180.0
  0
LINE
  5
28C
100
AcDbEntity
  8
2
100
AcDbLine
 10
152.010277
 20
-117.25453
 30
0.0
 11
157.782789
 21
-123.444791
 31
0.0
  0
LINE
  5
28D
100
AcDbEntity
  8
2
100
AcDbLine
 10
156.02529
 20
-116.894432
 30
0.0
 11
156.234687
 21
-110.898087
 31
0.0
  0
LINE
  5
28E
100
AcDbEntity
  8
2
100
AcDbLine
 10
152.010277
 20
-117.25453
 30
0.0
 11
156.02529
 21
-116.894432
 31
0.0
  0
LINE
  5
28F
100
AcDbEntity
  8
2
100
AcDbLine
 10
156.234687
 20
-110.898087
 30
0.0
 11
152.254573
 21
-110.258794
 31
0.0
  0
LINE
  5
290
100
AcDbEntity
  8
2
100
AcDbLine
 10
152.254573
 20
-110.258794
 30
0.0
 11
158.444835
 21
-104.486281
 31
0.0
  0
LINE
  5
291
100
AcDbEntity
  8
2
100
AcDbLine
 10
156.234687
 20
-110.898087
 30
0.0
 11
161.152992
 21
-108.282978
 31
0.0
  0
ARC
  5
292
100
AcDbEntity
  8
2
100
AcDbCircle
 10
160.048836
 20
-106.206362
 30
0.0
 40
2.351913
100
AcDbArc
 50
298.0
 51
133.0
  0
LINE
  5
293
100
AcDbEntity
  8
2
100
AcDbLine
 10
156.02529
 20
-116.894432
 30
0.0
 11
160.749194
 21
-119.846255
 31
0.0
  0
ARC
  5
294
100
AcDbEntity
  8
2
100
AcDbCircle
 10
159.50287
 20
-121.840791
 30
0.0
 40
2.351913
100
AcDbArc
 50
223.0
 51
58.0
  0
LINE
  5
295
100
AcDbEntity
  8
2
100
AcDbLine
 10
152.027727
 20
-116.754834
 30
0.0
 11
152.237124
 21
-110.758489
 31
0.0
  0
LINE
  5
296
100
AcDbEntity
  8
2
100
AcDbLine
 10
154.804181
 20
-107.881246
 30
0.0
 11
151.341213
 21
-107.760317
 31
0.0
  0
LINE
  5
297
100
AcDbEntity
  8
2
100
AcDbLine
 10
155.177915
 20
-158.925384
 30
0.0
 11
149.561338
 21
-158.729249
 31
0.0
  0
LINE
  5
298
100
AcDbEntity
  8
2
100
AcDbLine
 10
155.177915
 20
-158.925384
 30
0.0
 11
156.264244
 21
-127.816971
 31
0.0
  0
LINE
  5
299
100
AcDbEntity
  8
2
100
AcDbLine
 10
153.735794
 20
-158.875024
 30
0.0
 11
154.880539
 21
-126.093817
 31
0.0
  0
LINE
  5
29A
100
AcDbEntity
  8
2
100
AcDbLine
 10
154.917521
 20
-125.034778
 30
0.0
 11
155.074466
 21
-120.54047
 31
0.0
  0
LINE
  5
29B
100
AcDbEntity
  8
2
100
AcDbLine
 10
151.003459
 20
-158.779609
 30
0.0
 11
152.155143
 21
-125.799712
 31
0.0
  0
LINE
  5
29C
100
AcDbEntity
  8
2
100
AcDbLine
 10
149.561338
 20
-158.729249
 30
0.0
 11
150.713022
 21
-125.749352
 31
0.0
  0
LINE
  5
29D
100
AcDbEntity
  8
2
100
AcDbLine
 10
151.306313
 20
-108.759708
 30
0.0
 11
151.341213
 21
-107.760317
 31
0.0
  0
LINE
  5
29E
100
AcDbEntity
  8
2
100
AcDbLine
 10
152.190042
 20
-124.800321
 30
0.0
 11
152.437547
 21
-117.71272
 31
0.0
  0
LINE
  5
29F
100
AcDbEntity
  8
2
100
AcDbLine
 10
152.712764
 20
-109.831524
 30
0.0
 11
152.783334
 21
-107.810677
 31
0.0
  0
LINE
  5
2A0
100
AcDbEntity
  8
2
100
AcDbLine
 10
156.330595
 20
-125.916947
 30
0.0
 11
156.466227
 21
-122.032951
 31
0.0
  0
LINE
  5
2A1
100
AcDbEntity
  8
2
100
AcDbLine
 10
156.63242
 20
-117.273809
 30
0.0
 11
156.866802
 21
-110.561986
 31
0.0
  0
LINE
  5
2A2
100
AcDbEntity
  8
2
100
AcDbLine
 10
152.305704
 20
-108.794607
 30
0.0
 11
151.306313
 21
-108.759708
 31
0.0
  0
LINE
  5
2A3
100
AcDbEntity
  8
2
100
AcDbLine
 10
153.945972
 20
-124.861639
 30
0.0
 11
151.747312
 21
-124.78486
 31
0.0
  0
LINE
  5
2A4
100
AcDbEntity
  8
2
100
AcDbLine
 10
152.305704
 20
-108.794607
 30
0.0
 11
151.747312
 21
-124.78486
 31
0.0
  0
LINE
  5
2A5
100
AcDbEntity
  8
2
100
AcDbLine
 10
153.911072
 20
-125.86103
 30
0.0
 11
150.713022
 21
-125.749352
 31
0.0
  0
LINE
  5
2A6
100
AcDbEntity
  8
2
100
AcDbLine
 10
150.713022
 20
-125.749352
 30
0.0
 11
151.306313
 21
-108.759708
 31
0.0
  0
ARC
  5
2A7
100
AcDbEntity
  8
2
100
AcDbCircle
 10
153.823824
 20
-128.359507
 30
0.0
 40
3.5
100
AcDbArc
 50
311.743299
 51
88.0
  0
ARC
  5
2A8
100
AcDbEntity
  8
2
100
AcDbCircle
 10
153.823824
 20
-128.359507
 30
0.0
 40
2.5
100
AcDbArc
 50
343.466253
 51
88.0
  0
LINE
  5
2A9
100
AcDbEntity
  8
2
  6
CENTER
 62
     2
100
AcDbLine
 10
15.630019
 20
-103.756662
 30
0.0
 11
169.919526
 21
-103.756662
 31
0.0
  0
LINE
  5
2AA
100
AcDbEntity
  8
2
  6
CENTER
 62
     2
100
AcDbLine
 10
67.025742
 20
-63.756662
 30
0.0
 11
105.980742
 21
-63.756662
 31
0.0
  0
LINE
  5
2AB
100
AcDbEntity
  8
2
  6
CENTER
 62
     2
100
AcDbLine
 10
86.503242
 20
-83.234162
 30
0.0
 11
86.503242
 21
-44.279162
 31
0.0
  0
LINE
  5
2AC
100
AcDbEntity
  8
2
  6
CENTER
 62
     2
100
AcDbLine
 10
117.025742
 20
-63.756662
 30
0.0
 11
155.980742
 21
-63.756662
 31
0.0
  0
LINE
  5
2AD
100
AcDbEntity
  8
2
  6
CENTER
 62
     2
100
AcDbLine
 10
136.503242
 20
-83.234162
 30
0.0
 11
136.503242
 21
-44.279162
 31
0.0
  0
LINE
  5
2AE
100
AcDbEntity
  8
2
  6
CENTER
 62
     2
100
AcDbLine
 10
159.49702
 20
-139.756662
 30
0.0
 11
137.131969
 21
-139.756662
 31
0.0
  0
LINE
  5
2AF
100
AcDbEntity
  8
2
  6
CENTER
 62
     2
100
AcDbLine
 10
38.07463
 20
-69.256662
 30
0.0
 11
56.773223
 21
-69.256662
 31
0.0
  0
LINE
  5
2B0
100
AcDbEntity
  8
2
  6
CENTER
 62
     2
100
AcDbLine
 10
38.07463
 20
-135.756662
 30
0.0
 11
56.773223
 21
-135.756662
 31
0.0
  0
LINE
  5
2B1
100
AcDbEntity
  8
2
  6
CENTER
 62
     2
100
AcDbLine
 10
138.820863
 20
-113.756662
 30
0.0
 11
164.876497
 21
-113.756662
 31
0.0
  0
LINE
  5
2B2
100
AcDbEntity
  8
2
100
AcDbLine
 10
94.782441
 20
-145.956662
 30
0.0
 11
103.475305
 21
-145.956662
 31
0.0
  0
LINE
  5
2B3
100
AcDbEntity
  8
2
100
AcDbLine
 10
119.531178
 20
-145.956662
 30
0.0
 11
128.224043
 21
-145.956662
 31
0.0
  0
LINE
  5
2B4
100
AcDbEntity
  8
2
100
AcDbLine
 10
-318.146758
 20
-146.756662
 30
0.0
 11
-232.146758
 21
-146.756662
 31
0.0
  0
ARC
  5
2B5
100
AcDbEntity
  8
2
100
AcDbCircle
 10
-149.74926
 20
-130.256662
 30
0.0
 40
59.0
100
AcDbArc
 50
130.817217
 51
173.528051
  0
LINE
  5
2B6
100
AcDbEntity
  8
2
100
AcDbLine
 10
-185.972155
 20
-45.756662
 30
0.0
 11
-182.146758
 21
-45.756662
 31
0.0
  0
LINE
  5
2B7
100
AcDbEntity
  8
2
100
AcDbLine
 10
-182.146758
 20
-45.756662
 30
0.0
 11
-182.146758
 21
-81.756662
 31
0.0
  0
LINE
  5
2B8
100
AcDbEntity
  8
2
100
AcDbLine
 10
-182.146758
 20
-45.756662
 30
0.0
 11
-181.146758
 21
-46.756662
 31
0.0
  0
LINE
  5
2B9
100
AcDbEntity
  8
2
100
AcDbLine
 10
-181.146758
 20
-46.756662
 30
0.0
 11
-181.146758
 21
-80.756662
 31
0.0
  0
LINE
  5
2BA
100
AcDbEntity
  8
2
100
AcDbLine
 10
-181.146758
 20
-80.756662
 30
0.0
 11
-182.146758
 21
-81.756662
 31
0.0
  0
LINE
  5
2BB
100
AcDbEntity
  8
2
100
AcDbLine
 10
-182.146758
 20
-81.756662
 30
0.0
 11
-184.914678
 21
-81.756662
 31
0.0
  0
ARC
  5
2BC
100
AcDbEntity
  8
2
100
AcDbCircle
 10
-201.803646
 20
-121.756662
 30
0.0
 40
10.0
100
AcDbArc
 50
270.0
 51
358.0
  0
LINE
  5
2BD
100
AcDbEntity
  8
2
100
AcDbLine
 10
-201.803646
 20
-131.756662
 30
0.0
 11
-209.597662
 21
-131.756662
 31
0.0
  0
ARC
  5
2BE
100
AcDbEntity
  8
2
100
AcDbCircle
 10
-321.646758
 20
-110.756662
 30
0.0
 40
114.0
100
AcDbArc
 50
347.787475
 51
360.0
  0
ARC
  5
2BF
100
AcDbEntity
  8
2
100
AcDbCircle
 10
-220.000312
 20
-132.756662
 30
0.0
 40
10.0
100
AcDbArc
 50
270.0
 51
347.787475
  0
ARC
  5
2C0
100
AcDbEntity
  8
2
100
AcDbCircle
 10
-321.646758
 20
-96.756662
 30
0.0
 40
114.0
100
AcDbArc
 50
0.0
 51
13.342364
  0
LINE
  5
2C1
100
AcDbEntity
  8
2
100
AcDbLine
 10
-207.646758
 20
-96.756662
 30
0.0
 11
-207.646758
 21
-110.756662
 31
0.0
  0
ARC
  5
2C2
100
AcDbEntity
  8
2
100
AcDbCircle
 10
-261.146758
 20
-91.756662
 30
0.0
 40
114.0
100
AcDbArc
 50
169.473381
 51
180.0
  0
ARC
  5
2C3
100
AcDbEntity
  8
2
100
AcDbCircle
 10
-350.146758
 20
-50.756662
 30
0.0
 40
10.0
100
AcDbArc
 50
90.0
 51
169.993627
  0
LINE
  5
2C4
100
AcDbEntity
  8
2
100
AcDbLine
 10
-375.146758
 20
-91.756662
 30
0.0
 11
-375.146758
 21
-115.756662
 31
0.0
  0
ARC
  5
2C5
100
AcDbEntity
  8
2
100
AcDbCircle
 10
-261.146758
 20
-115.756662
 30
0.0
 40
114.0
100
AcDbArc
 50
180.0
 51
189.407874
  0
ARC
  5
2C6
100
AcDbEntity
  8
2
100
AcDbCircle
 10
-363.747928
 20
-132.756662
 30
0.0
 40
10.0
100
AcDbArc
 50
189.407874
 51
270.0
  0
LINE
  5
2C7
100
AcDbEntity
  8
2
100
AcDbLine
 10
-363.747928
 20
-142.756662
 30
0.0
 11
-220.000312
 21
-142.756662
 31
0.0
  0
ARC
  5
2C8
100
AcDbEntity
  8
2
100
AcDbCircle
 10
-220.453873
 20
-72.756662
 30
0.0
 40
10.0
100
AcDbArc
 50
13.342364
 51
90.0
  0
LINE
  5
2C9
100
AcDbEntity
  8
2
100
AcDbLine
 10
-363.396453
 20
-62.756662
 30
0.0
 11
-220.453873
 21
-62.756662
 31
0.0
  0
ARC
  5
2CA
100
AcDbEntity
  8
2
100
AcDbCircle
 10
-363.396453
 20
-72.756662
 30
0.0
 40
10.0
100
AcDbArc
 50
90.0
 51
169.473381
  0
LINE
  5
2CB
100
AcDbEntity
  8
2
100
AcDbLine
 10
-191.809738
 20
-122.105657
 30
0.0
 11
-190.608065
 21
-87.69426
 31
0.0
  0
LINE
  5
2CC
100
AcDbEntity
  8
2
100
AcDbLine
 10
-362.418524
 20
-62.756662
 30
0.0
 11
-359.994643
 21
-49.019085
 31
0.0
  0
LINE
  5
2CD
100
AcDbEntity
  8
2
100
AcDbLine
 10
-350.146758
 20
-40.756662
 30
0.0
 11
-190.009513
 21
-40.756662
 31
0.0
  0
ARC
  5
2CE
100
AcDbEntity
  8
2
100
AcDbCircle
 10
-190.009513
 20
-44.756662
 30
0.0
 40
4.0
100
AcDbArc
 50
2.0
 51
90.0
  0
LINE
  5
2CF
100
AcDbEntity
  8
2
100
AcDbLine
 10
-232.146758
 20
-146.756662
 30
0.0
 11
-232.007075
 21
-142.756662
 31
0.0
  0
LINE
  5
2D0
100
AcDbEntity
  8
2
100
AcDbLine
 10
-310.146758
 20
-146.756662
 30
0.0
 11
-310.286441
 21
-142.756662
 31
0.0
  0
LINE
  5
2D1
100
AcDbEntity
  8
2
100
AcDbLine
 10
-240.146758
 20
-146.756662
 30
0.0
 11
-240.007075
 21
-142.756662
 31
0.0
  0
LINE
  5
2D2
100
AcDbEntity
  8
2
100
AcDbLine
 10
-318.146758
 20
-146.756662
 30
0.0
 11
-318.286441
 21
-142.756662
 31
0.0
  0
LINE
  5
2D3
100
AcDbEntity
  8
2
100
AcDbLine
 10
-186.01195
 20
-44.617064
 30
0.0
 11
-184.857067
 21
-77.688558
 31
0.0
  0
ARC
  5
2D4
100
AcDbEntity
  8
2
100
AcDbCircle
 10
-194.850976
 20
-78.037553
 30
0.0
 40
10.0
100
AcDbArc
 50
310.817217
 51
2.000002
  0
ARC
  5
2D5
100
AcDbEntity
  8
2
100
AcDbCircle
 10
-184.914678
 20
-82.756662
 30
0.0
 40
1.0
100
AcDbArc
 50
90.0
 51
154.595261
  0
LINE
  5
2D6
100
AcDbEntity
  8
2
100
AcDbLine
 10
-317.646758
 20
-18.756662
 30
0.0
 11
-232.646758
 21
-18.756662
 31
0.0
  0
LINE
  5
2D7
100
AcDbEntity
  8
2
100
AcDbLine
 10
-232.646758
 20
-17.556662
 30
0.0
 11
-232.646758
 21
-20.756662
 31
0.0
  0
LINE
  5
2D8
100
AcDbEntity
  8
2
100
AcDbLine
 10
-317.646758
 20
-17.556662
 30
0.0
 11
-317.646758
 21
-20.756662
 31
0.0
  0
LINE
  5
2D9
100
AcDbEntity
  8
2
100
AcDbLine
 10
-277.146758
 20
-9.256662
 30
0.0
 11
-277.146758
 21
-17.556662
 31
0.0
  0
LINE
  5
2DA
100
AcDbEntity
  8
2
100
AcDbLine
 10
-273.146758
 20
-9.256662
 30
0.0
 11
-273.146758
 21
-17.556662
 31
0.0
  0
LINE
  5
2DB
100
AcDbEntity
  8
2
100
AcDbLine
 10
-345.875145
 20
-29.020501
 30
0.0
 11
-350.146758
 21
-40.756662
 31
0.0
  0
ARC
  5
2DC
100
AcDbEntity
  8
2
100
AcDbCircle
 10
-338.357604
 20
-31.756662
 30
0.0
 40
8.0
100
AcDbArc
 50
90.0
 51
160.0
  0
LINE
  5
2DD
100
AcDbEntity
  8
2
100
AcDbLine
 10
-190.146758
 20
-40.756662
 30
0.0
 11
-191.154884
 21
-29.233727
 31
0.0
  0
ARC
  5
2DE
100
AcDbEntity
  8
2
100
AcDbCircle
 10
-197.132053
 20
-29.756662
 30
0.0
 40
6.0
100
AcDbArc
 50
5.0
 51
90.0
  0
LINE
  5
2DF
100
AcDbEntity
  8
2
100
AcDbLine
 10
-197.132053
 20
-23.756662
 30
0.0
 11
-338.357604
 21
-23.756662
 31
0.0
  0
LINE
  5
2E0
100
AcDbEntity
  8
2
100
AcDbLine
 10
-202.146758
 20
-26.756662
 30
0.0
 11
-202.146758
 21
-35.256662
 31
0.0
  0
LINE
  5
2E1
100
AcDbEntity
  8
2
100
AcDbLine
 10
-336.146758
 20
-26.756662
 30
0.0
 11
-336.146758
 21
-35.256662
 31
0.0
  0
LINE
  5
2E2
100
AcDbEntity
  8
2
100
AcDbLine
 10
-347.976803
 20
-35.756662
 30
0.0
 11
-336.646758
 21
-35.756662
 31
0.0
  0
LINE
  5
2E3
100
AcDbEntity
  8
2
100
AcDbLine
 10
-201.646758
 20
-35.756662
 30
0.0
 11
-191.042367
 21
-35.756662
 31
0.0
  0
ARC
  5
2E4
100
AcDbEntity
  8
2
100
AcDbCircle
 10
-336.646758
 20
-35.256662
 30
0.0
 40
0.5
100
AcDbArc
 50
270.0
 51
360.0
  0
ARC
  5
2E5
100
AcDbEntity
  8
2
100
AcDbCircle
 10
-201.646758
 20
-35.256662
 30
0.0
 40
0.5
100
AcDbArc
 50
180.0
 51
270.0
  0
ARC
  5
2E6
100
AcDbEntity
  8
2
100
AcDbCircle
 10
-191.042367
 20
-36.256662
 30
0.0
 40
0.5
100
AcDbArc
 50
5.0
 51
90.0
  0
ARC
  5
2E7
100
AcDbEntity
  8
2
100
AcDbCircle
 10
-347.976803
 20
-36.256662
 30
0.0
 40
0.5
100
AcDbArc
 50
90.0
 51
160.0
  0
ARC
  5
2E8
100
AcDbEntity
  8
2
100
AcDbCircle
 10
-205.146758
 20
-26.756662
 30
0.0
 40
3.0
100
AcDbArc
 50
0.0
 51
90.0
  0
ARC
  5
2E9
100
AcDbEntity
  8
2
100
AcDbCircle
 10
-333.146758
 20
-26.756662
 30
0.0
 40
3.0
100
AcDbArc
 50
90.0
 51
180.0
  0
ARC
  5
2EA
100
AcDbEntity
  8
2
100
AcDbCircle
 10
-229.646758
 20
-20.756662
 30
0.0
 40
3.0
100
AcDbArc
 50
180.0
 51
270.0
  0
ARC
  5
2EB
100
AcDbEntity
  8
2
100
AcDbCircle
 10
-320.646758
 20
-20.756662
 30
0.0
 40
3.0
100
AcDbArc
 50
270.0
 51
360.0
  0
ARC
  5
2EC
100
AcDbEntity
  8
2
100
AcDbCircle
 10
-275.146758
 20
-30.756662
 30
0.0
 40
34.0
100
AcDbArc
 50
22.844739
 51
157.155261
  0
ARC
  5
2ED
100
AcDbEntity
  8
2
100
AcDbCircle
 10
-275.146758
 20
-32.256662
 30
0.0
 40
28.0
100
AcDbArc
 50
34.712682
 51
81.884254
  0
ARC
  5
2EE
100
AcDbEntity
  8
2
100
AcDbCircle
 10
-275.146758
 20
-32.256662
 30
0.0
 40
28.0
100
AcDbArc
 50
98.115746
 51
145.287318
  0
ARC
  5
2EF
100
AcDbEntity
  8
2
100
AcDbCircle
 10
-276.146758
 20
-9.256662
 30
0.0
 40
1.0
100
AcDbArc
 50
90.0
 51
180.0
  0
ARC
  5
2F0
100
AcDbEntity
  8
2
100
AcDbCircle
 10
-274.146758
 20
-9.256662
 30
0.0
 40
1.0
100
AcDbArc
 50
0.0
 51
90.0
  0
LINE
  5
2F1
100
AcDbEntity
  8
2
100
AcDbLine
 10
-276.146758
 20
-8.256662
 30
0.0
 11
-275.781992
 21
-8.256657
 31
0.0
  0
LINE
  5
2F2
100
AcDbEntity
  8
2
100
AcDbLine
 10
-274.511292
 20
-8.256548
 30
0.0
 11
-274.146758
 21
-8.256662
 31
0.0
  0
ARC
  5
2F3
100
AcDbEntity
  8
2
100
AcDbCircle
 10
-239.746363
 20
-27.991032
 30
0.0
 40
45.274917
100
AcDbArc
 50
159.10214
 51
166.675437
  0
ARC
  5
2F4
100
AcDbEntity
  8
2
100
AcDbCircle
 10
-240.670243
 20
-27.991032
 30
0.0
 40
45.274917
100
AcDbArc
 50
158.681079
 51
166.675437
  0
ARC
  5
2F5
100
AcDbEntity
  8
2
100
AcDbCircle
 10
-282.445595
 20
-11.687609
 30
0.0
 40
0.430947
100
AcDbArc
 50
339.10214
 51
158.681079
  0
ARC
  5
2F6
100
AcDbEntity
  8
2
100
AcDbCircle
 10
-263.716829
 20
-29.757914
 30
0.0
 40
30.472934
100
AcDbArc
 50
143.677597
 51
156.39704
  0
ARC
  5
2F7
100
AcDbEntity
  8
2
100
AcDbCircle
 10
-264.423936
 20
-29.757914
 30
0.0
 40
30.472934
100
AcDbArc
 50
142.882669
 51
156.39704
  0
ARC
  5
2F8
100
AcDbEntity
  8
2
100
AcDbCircle
 10
-288.49711
 20
-11.540066
 30
0.0
 40
0.283404
100
AcDbArc
 50
323.677597
 51
142.882669
  0
ARC
  5
2F9
100
AcDbEntity
  8
2
100
AcDbCircle
 10
-272.472417
 20
-31.524795
 30
0.0
 40
28.197761
100
AcDbArc
 50
134.711482
 51
150.306296
  0
ARC
  5
2FA
100
AcDbEntity
  8
2
100
AcDbCircle
 10
-272.8551
 20
-31.524795
 30
0.0
 40
28.197761
100
AcDbArc
 50
134.156238
 51
150.306296
  0
ARC
  5
2FB
100
AcDbEntity
  8
2
100
AcDbCircle
 10
-292.404833
 20
-11.390619
 30
0.0
 40
0.133957
100
AcDbArc
 50
314.711482
 51
134.156238
  0
LINE
  5
2FC
100
AcDbEntity
  8
2
 62
     2
100
AcDbLine
 10
-284.670219
 20
-17.322377
 30
0.0
 11
-284.264427
 21
-17.556662
 31
0.0
  0
LINE
  5
2FD
100
AcDbEntity
  8
2
 62
     2
100
AcDbLine
 10
-283.712226
 20
-17.182655
 30
0.0
 11
-284.518978
 21
-16.716876
 31
0.0
  0
LINE
  5
2FE
100
AcDbEntity
  8
2
 62
     2
100
AcDbLine
 10
-283.559204
 20
-16.578182
 30
0.0
 11
-284.360031
 21
-16.115824
 31
0.0
  0
LINE
  5
2FF
100
AcDbEntity
  8
2
 62
     2
100
AcDbLine
 10
-283.398496
 20
-15.978146
 30
0.0
 11
-284.193464
 21
-15.519171
 31
0.0
  0
LINE
  5
300
100
AcDbEntity
  8
2
 62
     2
100
AcDbLine
 10
-283.230188
 20
-15.382499
 30
0.0
 11
-284.019358
 21
-14.926871
 31
0.0
  0
LINE
  5
301
100
AcDbEntity
  8
2
 62
     2
100
AcDbLine
 10
-283.054358
 20
-14.791194
 30
0.0
 11
-283.837787
 21
-14.338881
 31
0.0
  0
LINE
  5
302
100
AcDbEntity
  8
2
 62
     2
100
AcDbLine
 10
-282.871079
 20
-14.20419
 30
0.0
 11
-283.64882
 21
-13.755161
 31
0.0
  0
LINE
  5
303
100
AcDbEntity
  8
2
 62
     2
100
AcDbLine
 10
-282.680419
 20
-13.621447
 30
0.0
 11
-283.452521
 21
-13.175674
 31
0.0
  0
LINE
  5
304
100
AcDbEntity
  8
2
 62
     2
100
AcDbLine
 10
-282.482441
 20
-13.042929
 30
0.0
 11
-283.248948
 21
-12.600386
 31
0.0
  0
LINE
  5
305
100
AcDbEntity
  8
2
 62
     2
100
AcDbLine
 10
-282.277203
 20
-12.468603
 30
0.0
 11
-283.038157
 21
-12.029266
 31
0.0
  0
LINE
  5
306
100
AcDbEntity
  8
2
 62
     2
100
AcDbLine
 10
-282.064758
 20
-11.898438
 30
0.0
 11
-282.814827
 21
-11.465386
 31
0.0
  0
LINE
  5
307
100
AcDbEntity
  8
2
 62
     2
100
AcDbLine
 10
-290.645836
 20
-14.233363
 30
0.0
 11
-290.117082
 21
-14.538639
 31
0.0
  0
LINE
  5
308
100
AcDbEntity
  8
2
 62
     2
100
AcDbLine
 10
-290.335027
 20
-13.719988
 30
0.0
 11
-289.812305
 21
-14.021782
 31
0.0
  0
LINE
  5
309
100
AcDbEntity
  8
2
 62
     2
100
AcDbLine
 10
-290.013972
 20
-13.212529
 30
0.0
 11
-289.49729
 21
-13.510836
 31
0.0
  0
LINE
  5
30A
100
AcDbEntity
  8
2
 62
     2
100
AcDbLine
 10
-289.682646
 20
-12.711
 30
0.0
 11
-289.17202
 21
-13.00581
 31
0.0
  0
LINE
  5
30B
100
AcDbEntity
  8
2
 62
     2
100
AcDbLine
 10
-289.341012
 20
-12.215422
 30
0.0
 11
-288.836465
 21
-12.506723
 31
0.0
  0
LINE
  5
30C
100
AcDbEntity
  8
2
 62
     2
100
AcDbLine
 10
-288.989021
 20
-11.725824
 30
0.0
 11
-288.490584
 21
-12.013597
 31
0.0
  0
LINE
  5
30D
100
AcDbEntity
  8
2
 62
     2
100
AcDbLine
 10
-288.58011
 20
-11.269088
 30
0.0
 11
-288.220937
 21
-11.476457
 31
0.0
  0
LINE
  5
30E
100
AcDbEntity
  8
2
 62
     2
100
AcDbLine
 10
-290.94641
 20
-14.752647
 30
0.0
 11
-290.411628
 21
-15.061403
 31
0.0
  0
LINE
  5
30F
100
AcDbEntity
  8
2
 62
     2
100
AcDbLine
 10
-291.236752
 20
-15.277838
 30
0.0
 11
-290.695935
 21
-15.590079
 31
0.0
  0
LINE
  5
310
100
AcDbEntity
  8
2
 62
     2
100
AcDbLine
 10
-291.516849
 20
-15.808944
 30
0.0
 11
-290.969986
 21
-16.124676
 31
0.0
  0
LINE
  5
311
100
AcDbEntity
  8
2
 62
     2
100
AcDbLine
 10
-291.786679
 20
-16.345978
 30
0.0
 11
-291.233749
 21
-16.665213
 31
0.0
  0
LINE
  5
312
100
AcDbEntity
  8
2
 62
     2
100
AcDbLine
 10
-292.046205
 20
-16.888961
 30
0.0
 11
-291.487183
 21
-17.211713
 31
0.0
  0
LINE
  5
313
100
AcDbEntity
  8
2
 62
     2
100
AcDbLine
 10
-292.089714
 20
-17.556662
 30
0.0
 11
-292.295381
 21
-17.43792
 31
0.0
  0
LINE
  5
314
100
AcDbEntity
  8
2
100
AcDbLine
 10
-232.646758
 20
-17.556662
 30
0.0
 11
-317.646758
 21
-17.556662
 31
0.0
  0
LINE
  5
315
100
AcDbEntity
  8
2
 62
     2
100
AcDbLine
 10
-295.110513
 20
-14.209764
 30
0.0
 11
-294.845868
 21
-14.362557
 31
0.0
  0
LINE
  5
316
100
AcDbEntity
  8
2
 62
     2
100
AcDbLine
 10
-294.732858
 20
-13.734983
 30
0.0
 11
-294.471852
 21
-13.885675
 31
0.0
  0
LINE
  5
317
100
AcDbEntity
  8
2
 62
     2
100
AcDbLine
 10
-294.343715
 20
-13.266834
 30
0.0
 11
-294.086386
 21
-13.415403
 31
0.0
  0
LINE
  5
318
100
AcDbEntity
  8
2
 62
     2
100
AcDbLine
 10
-293.942956
 20
-12.805392
 30
0.0
 11
-293.689346
 21
-12.951814
 31
0.0
  0
LINE
  5
319
100
AcDbEntity
  8
2
 62
     2
100
AcDbLine
 10
-293.530434
 20
-12.350742
 30
0.0
 11
-293.280592
 21
-12.494988
 31
0.0
  0
LINE
  5
31A
100
AcDbEntity
  8
2
 62
     2
100
AcDbLine
 10
-293.105979
 20
-11.90298
 30
0.0
 11
-292.859962
 21
-12.045018
 31
0.0
  0
LINE
  5
31B
100
AcDbEntity
  8
2
 62
     2
100
AcDbLine
 10
-292.669405
 20
-11.462216
 30
0.0
 11
-292.427275
 21
-11.60201
 31
0.0
  0
LINE
  5
31C
100
AcDbEntity
  8
2
 62
     2
100
AcDbLine
 10
-295.476791
 20
-14.691113
 30
0.0
 11
-295.208537
 21
-14.84599
 31
0.0
  0
LINE
  5
31D
100
AcDbEntity
  8
2
 62
     2
100
AcDbLine
 10
-295.831784
 20
-15.178978
 30
0.0
 11
-295.559949
 21
-15.335923
 31
0.0
  0
LINE
  5
31E
100
AcDbEntity
  8
2
 62
     2
100
AcDbLine
 10
-296.175569
 20
-15.673314
 30
0.0
 11
-295.900173
 21
-15.832314
 31
0.0
  0
LINE
  5
31F
100
AcDbEntity
  8
2
 62
     2
100
AcDbLine
 10
-296.508207
 20
-16.174086
 30
0.0
 11
-296.229266
 21
-16.335133
 31
0.0
  0
LINE
  5
320
100
AcDbEntity
  8
2
 62
     2
100
AcDbLine
 10
-296.829742
 20
-16.681268
 30
0.0
 11
-296.547267
 21
-16.844355
 31
0.0
  0
LINE
  5
321
100
AcDbEntity
  8
2
 62
     2
100
AcDbLine
 10
-297.140203
 20
-17.194844
 30
0.0
 11
-296.854201
 21
-17.359967
 31
0.0
  0
ARC
  5
322
100
AcDbEntity
  8
2
100
AcDbCircle
 10
-275.146758
 20
-30.756662
 30
0.0
 40
33.162479
100
AcDbArc
 50
104.962752
 51
150.128593
  0
ARC
  5
323
100
AcDbEntity
  8
2
100
AcDbCircle
 10
-269.592209
 20
1.233201
 30
0.0
 40
10.0
100
AcDbArc
 50
202.238154
 51
227.992896
  0
ARC
  5
324
100
AcDbEntity
  8
2
100
AcDbCircle
 10
-282.93444
 20
-1.616876
 30
0.0
 40
3.0
100
AcDbArc
 50
42.388379
 51
104.962752
  0
ARC
  5
325
100
AcDbEntity
  8
2
100
AcDbCircle
 10
-288.104585
 20
-6.335944
 30
0.0
 40
10.0
100
AcDbArc
 50
22.238154
 51
42.388379
  0
ARC
  5
326
100
AcDbEntity
  8
2
100
AcDbCircle
 10
-280.701307
 20
1.233201
 30
0.0
 40
10.0
100
AcDbArc
 50
312.007104
 51
337.761846
  0
ARC
  5
327
100
AcDbEntity
  8
2
100
AcDbCircle
 10
-262.188932
 20
-6.335944
 30
0.0
 40
10.0
100
AcDbArc
 50
137.611621
 51
157.761846
  0
ARC
  5
328
100
AcDbEntity
  8
2
100
AcDbCircle
 10
-267.359076
 20
-1.616876
 30
0.0
 40
3.0
100
AcDbArc
 50
75.037248
 51
137.611621
  0
ARC
  5
329
100
AcDbEntity
  8
2
100
AcDbCircle
 10
-275.146758
 20
-30.756662
 30
0.0
 40
33.162479
100
AcDbArc
 50
29.871407
 51
75.037248
  0
ARC
  5
32A
100
AcDbEntity
  8
2
100
AcDbCircle
 10
-275.146758
 20
-4.934212
 30
0.0
 40
1.7
100
AcDbArc
 50
227.992896
 51
312.007104
  0
ARC
  5
32B
100
AcDbEntity
  8
2
100
AcDbCircle
 10
-274.671867
 20
-31.579197
 30
0.0
 40
32.849358
100
AcDbArc
 50
105.470231
 51
147.621493
  0
ARC
  5
32C
100
AcDbEntity
  8
2
100
AcDbCircle
 10
-268.638258
 20
1.341699
 30
0.0
 40
12.0
100
AcDbArc
 50
200.135943
 51
231.694293
  0
ARC
  5
32D
100
AcDbEntity
  8
2
100
AcDbCircle
 10
-285.53807
 20
-4.854779
 30
0.0
 40
6.0
100
AcDbArc
 50
20.135943
 51
48.747449
  0
ARC
  5
32E
100
AcDbEntity
  8
2
100
AcDbCircle
 10
-282.900553
 20
-1.847537
 30
0.0
 40
2.0
100
AcDbArc
 50
48.747449
 51
105.470231
  0
ARC
  5
32F
100
AcDbEntity
  8
2
100
AcDbCircle
 10
-281.655259
 20
1.341699
 30
0.0
 40
12.0
100
AcDbArc
 50
308.305707
 51
339.864057
  0
ARC
  5
330
100
AcDbEntity
  8
2
100
AcDbCircle
 10
-264.755446
 20
-4.854779
 30
0.0
 40
6.0
100
AcDbArc
 50
131.252551
 51
159.864057
  0
ARC
  5
331
100
AcDbEntity
  8
2
100
AcDbCircle
 10
-267.392963
 20
-1.847537
 30
0.0
 40
2.0
100
AcDbArc
 50
74.529769
 51
131.252551
  0
ARC
  5
332
100
AcDbEntity
  8
2
100
AcDbCircle
 10
-275.621649
 20
-31.579197
 30
0.0
 40
32.849358
100
AcDbArc
 50
32.378507
 51
74.529769
  0
ARC
  5
333
100
AcDbEntity
  8
2
100
AcDbCircle
 10
-275.146758
 20
-6.897805
 30
0.0
 40
1.5
100
AcDbArc
 50
231.694293
 51
308.305707
  0
LINE
  5
334
100
AcDbEntity
  8
2
 62
     2
100
AcDbLine
 10
-277.146758
 20
-11.097261
 30
0.0
 11
-273.146758
 21
-13.406662
 31
0.0
  0
LINE
  5
335
100
AcDbEntity
  8
2
 62
     2
100
AcDbLine
 10
-273.146758
 20
-13.406662
 30
0.0
 11
-273.146758
 21
-13.406662
 31
0.0
  0
LINE
  5
336
100
AcDbEntity
  8
2
 62
     2
100
AcDbLine
 10
-277.146758
 20
-10.40444
 30
0.0
 11
-273.146758
 21
-12.713841
 31
0.0
  0
LINE
  5
337
100
AcDbEntity
  8
2
 62
     2
100
AcDbLine
 10
-273.146758
 20
-12.713841
 30
0.0
 11
-273.146758
 21
-12.713841
 31
0.0
  0
LINE
  5
338
100
AcDbEntity
  8
2
 62
     2
100
AcDbLine
 10
-277.146758
 20
-9.71162
 30
0.0
 11
-273.146758
 21
-12.021021
 31
0.0
  0
LINE
  5
339
100
AcDbEntity
  8
2
 62
     2
100
AcDbLine
 10
-273.146758
 20
-12.021021
 30
0.0
 11
-273.146758
 21
-12.021021
 31
0.0
  0
LINE
  5
33A
100
AcDbEntity
  8
2
 62
     2
100
AcDbLine
 10
-277.121511
 20
-9.033376
 30
0.0
 11
-273.146758
 21
-11.328201
 31
0.0
  0
LINE
  5
33B
100
AcDbEntity
  8
2
 62
     2
100
AcDbLine
 10
-273.146758
 20
-11.328201
 30
0.0
 11
-273.146758
 21
-11.328201
 31
0.0
  0
LINE
  5
33C
100
AcDbEntity
  8
2
 62
     2
100
AcDbLine
 10
-276.818246
 20
-8.515646
 30
0.0
 11
-273.146758
 21
-10.63538
 31
0.0
  0
LINE
  5
33D
100
AcDbEntity
  8
2
 62
     2
100
AcDbLine
 10
-273.146758
 20
-10.63538
 30
0.0
 11
-273.146758
 21
-10.63538
 31
0.0
  0
LINE
  5
33E
100
AcDbEntity
  8
2
 62
     2
100
AcDbLine
 10
-276.06682
 20
-8.256662
 30
0.0
 11
-273.146758
 21
-9.94256
 31
0.0
  0
LINE
  5
33F
100
AcDbEntity
  8
2
 62
     2
100
AcDbLine
 10
-273.146758
 20
-9.94256
 30
0.0
 11
-273.146758
 21
-9.94256
 31
0.0
  0
LINE
  5
340
100
AcDbEntity
  8
2
 62
     2
100
AcDbLine
 10
-274.726438
 20
-8.337711
 30
0.0
 11
-273.146782
 21
-9.249726
 31
0.0
  0
LINE
  5
341
100
AcDbEntity
  8
2
 62
     2
100
AcDbLine
 10
-273.146758
 20
-9.24974
 30
0.0
 11
-273.146758
 21
-9.24974
 31
0.0
  0
LINE
  5
342
100
AcDbEntity
  8
2
 62
     2
100
AcDbLine
 10
-277.146758
 20
-11.790081
 30
0.0
 11
-273.146758
 21
-14.099482
 31
0.0
  0
LINE
  5
343
100
AcDbEntity
  8
2
 62
     2
100
AcDbLine
 10
-273.146758
 20
-14.099482
 30
0.0
 11
-273.146758
 21
-14.099482
 31
0.0
  0
LINE
  5
344
100
AcDbEntity
  8
2
 62
     2
100
AcDbLine
 10
-277.146758
 20
-12.482901
 30
0.0
 11
-273.146758
 21
-14.792302
 31
0.0
  0
LINE
  5
345
100
AcDbEntity
  8
2
 62
     2
100
AcDbLine
 10
-273.146758
 20
-14.792302
 30
0.0
 11
-273.146758
 21
-14.792302
 31
0.0
  0
LINE
  5
346
100
AcDbEntity
  8
2
 62
     2
100
AcDbLine
 10
-277.146758
 20
-13.175722
 30
0.0
 11
-273.146758
 21
-15.485123
 31
0.0
  0
LINE
  5
347
100
AcDbEntity
  8
2
 62
     2
100
AcDbLine
 10
-273.146758
 20
-15.485123
 30
0.0
 11
-273.146758
 21
-15.485123
 31
0.0
  0
LINE
  5
348
100
AcDbEntity
  8
2
 62
     2
100
AcDbLine
 10
-277.146758
 20
-13.868542
 30
0.0
 11
-273.146758
 21
-16.177943
 31
0.0
  0
LINE
  5
349
100
AcDbEntity
  8
2
 62
     2
100
AcDbLine
 10
-273.146758
 20
-16.177943
 30
0.0
 11
-273.146758
 21
-16.177943
 31
0.0
  0
LINE
  5
34A
100
AcDbEntity
  8
2
 62
     2
100
AcDbLine
 10
-277.146758
 20
-14.561362
 30
0.0
 11
-273.146758
 21
-16.870763
 31
0.0
  0
LINE
  5
34B
100
AcDbEntity
  8
2
 62
     2
100
AcDbLine
 10
-273.146758
 20
-16.870763
 30
0.0
 11
-273.146758
 21
-16.870763
 31
0.0
  0
LINE
  5
34C
100
AcDbEntity
  8
2
 62
     2
100
AcDbLine
 10
-277.146758
 20
-15.254183
 30
0.0
 11
-273.158747
 21
-17.556662
 31
0.0
  0
LINE
  5
34D
100
AcDbEntity
  8
2
 62
     2
100
AcDbLine
 10
-273.146758
 20
-17.563584
 30
0.0
 11
-273.146758
 21
-17.563584
 31
0.0
  0
LINE
  5
34E
100
AcDbEntity
  8
2
 62
     2
100
AcDbLine
 10
-274.358747
 20
-17.556662
 30
0.0
 11
-277.146758
 21
-15.947003
 31
0.0
  0
LINE
  5
34F
100
AcDbEntity
  8
2
 62
     2
100
AcDbLine
 10
-275.558747
 20
-17.556662
 30
0.0
 11
-277.146758
 21
-16.639823
 31
0.0
  0
LINE
  5
350
100
AcDbEntity
  8
2
 62
     2
100
AcDbLine
 10
-276.758747
 20
-17.556662
 30
0.0
 11
-277.146758
 21
-17.332644
 31
0.0
  0
LINE
  5
351
100
AcDbEntity
  8
2
  6
CENTER
 62
     2
100
AcDbLine
 10
-342.146758
 20
-26.629213
 30
0.0
 11
-342.146758
 21
-43.545225
 31
0.0
  0
LINE
  5
352
100
AcDbEntity
  8
2
  6
CENTER
 62
     2
100
AcDbLine
 10
-196.146758
 20
-26.629213
 30
0.0
 11
-196.146758
 21
-43.545225
 31
0.0
  0
LINE
  5
353
100
AcDbEntity
  8
2
  6
CENTER
 62
     2
100
AcDbLine
 10
-301.663263
 20
-10.841216
 30
0.0
 11
-301.663263
 21
-27.26164
 31
0.0
  0
LINE
  5
354
100
AcDbEntity
  8
2
  6
CENTER
 62
     2
100
AcDbLine
 10
-248.630254
 20
-10.41136
 30
0.0
 11
-248.630254
 21
-27.26164
 31
0.0
  0
LINE
  5
355
100
AcDbEntity
  8
2
100
AcDbLine
 10
-346.746758
 20
-34.456662
 30
0.0
 11
-346.746758
 21
-35.756662
 31
0.0
  0
LINE
  5
356
100
AcDbEntity
  8
2
100
AcDbLine
 10
-337.546758
 20
-34.456662
 30
0.0
 11
-337.546758
 21
-35.756662
 31
0.0
  0
LINE
  5
357
100
AcDbEntity
  8
2
100
AcDbLine
 10
-346.746758
 20
-34.456662
 30
0.0
 11
-337.546758
 21
-34.456662
 31
0.0
  0
LINE
  5
358
100
AcDbEntity
  8
2
100
AcDbLine
 10
-346.646758
 20
-33.16917
 30
0.0
 11
-346.646758
 21
-34.456662
 31
0.0
  0
LINE
  5
359
100
AcDbEntity
  8
2
100
AcDbLine
 10
-337.646758
 20
-33.16917
 30
0.0
 11
-337.646758
 21
-34.456662
 31
0.0
  0
ARC
  5
35A
100
AcDbEntity
  8
2
100
AcDbCircle
 10
-342.146758
 20
-43.156662
 30
0.0
 40
12.0
100
AcDbArc
 50
73.808648
 51
106.191352
  0
ARC
  5
35B
100
AcDbEntity
  8
2
100
AcDbCircle
 10
-345.046758
 20
-33.16917
 30
0.0
 40
1.6
100
AcDbArc
 50
106.191352
 51
180.0
  0
ARC
  5
35C
100
AcDbEntity
  8
2
100
AcDbCircle
 10
-339.246758
 20
-33.16917
 30
0.0
 40
1.6
100
AcDbArc
 50
0.0
 51
73.808648
  0
LINE
  5
35D
100
AcDbEntity
  8
2
100
AcDbLine
 10
-200.746758
 20
-34.456662
 30
0.0
 11
-200.746758
 21
-35.756662
 31
0.0
  0
LINE
  5
35E
100
AcDbEntity
  8
2
100
AcDbLine
 10
-191.546758
 20
-34.456662
 30
0.0
 11
-191.546758
 21
-35.756662
 31
0.0
  0
LINE
  5
35F
100
AcDbEntity
  8
2
100
AcDbLine
 10
-200.746758
 20
-34.456662
 30
0.0
 11
-191.546758
 21
-34.456662
 31
0.0
  0
LINE
  5
360
100
AcDbEntity
  8
2
100
AcDbLine
 10
-200.646758
 20
-33.16917
 30
0.0
 11
-200.646758
 21
-34.456662
 31
0.0
  0
LINE
  5
361
100
AcDbEntity
  8
2
100
AcDbLine
 10
-191.646758
 20
-33.16917
 30
0.0
 11
-191.646758
 21
-34.456662
 31
0.0
  0
ARC
  5
362
100
AcDbEntity
  8
2
100
AcDbCircle
 10
-196.146758
 20
-43.156662
 30
0.0
 40
12.0
100
AcDbArc
 50
73.808648
 51
106.191352
  0
ARC
  5
363
100
AcDbEntity
  8
2
100
AcDbCircle
 10
-199.046758
 20
-33.16917
 30
0.0
 40
1.6
100
AcDbArc
 50
106.191352
 51
180.0
  0
ARC
  5
364
100
AcDbEntity
  8
2
100
AcDbCircle
 10
-193.246758
 20
-33.16917
 30
0.0
 40
1.6
100
AcDbArc
 50
0.0
 51
73.808648
  0
LINE
  5
365
100
AcDbEntity
  8
2
100
AcDbLine
 10
-244.830254
 20
-16.556662
 30
0.0
 11
-252.430254
 21
-16.556662
 31
0.0
  0
LINE
  5
366
100
AcDbEntity
  8
2
100
AcDbLine
 10
-244.830254
 20
-16.556662
 30
0.0
 11
-244.830254
 21
-17.556662
 31
0.0
  0
LINE
  5
367
100
AcDbEntity
  8
2
100
AcDbLine
 10
-252.430254
 20
-16.556662
 30
0.0
 11
-252.430254
 21
-17.556662
 31
0.0
  0
LINE
  5
368
100
AcDbEntity
  8
2
100
AcDbLine
 10
-245.130254
 20
-15.577637
 30
0.0
 11
-245.130254
 21
-16.556662
 31
0.0
  0
LINE
  5
369
100
AcDbEntity
  8
2
100
AcDbLine
 10
-252.130254
 20
-15.577637
 30
0.0
 11
-252.130254
 21
-16.556662
 31
0.0
  0
ARC
  5
36A
100
AcDbEntity
  8
2
100
AcDbCircle
 10
-248.630254
 20
-22.956662
 30
0.0
 40
9.0
100
AcDbArc
 50
73.39845
 51
106.60155
  0
ARC
  5
36B
100
AcDbEntity
  8
2
100
AcDbCircle
 10
-246.430254
 20
-15.577637
 30
0.0
 40
1.3
100
AcDbArc
 50
0.0
 51
73.39845
  0
ARC
  5
36C
100
AcDbEntity
  8
2
100
AcDbCircle
 10
-250.830254
 20
-15.577637
 30
0.0
 40
1.3
100
AcDbArc
 50
106.60155
 51
180.0
  0
LINE
  5
36D
100
AcDbEntity
  8
2
100
AcDbLine
 10
-297.863263
 20
-16.556662
 30
0.0
 11
-305.463263
 21
-16.556662
 31
0.0
  0
LINE
  5
36E
100
AcDbEntity
  8
2
100
AcDbLine
 10
-297.863263
 20
-16.556662
 30
0.0
 11
-297.863263
 21
-17.556662
 31
0.0
  0
LINE
  5
36F
100
AcDbEntity
  8
2
100
AcDbLine
 10
-305.463263
 20
-16.556662
 30
0.0
 11
-305.463263
 21
-17.556662
 31
0.0
  0
LINE
  5
370
100
AcDbEntity
  8
2
100
AcDbLine
 10
-298.163263
 20
-15.577637
 30
0.0
 11
-298.163263
 21
-16.556662
 31
0.0
  0
LINE
  5
371
100
AcDbEntity
  8
2
100
AcDbLine
 10
-305.163263
 20
-15.577637
 30
0.0
 11
-305.163263
 21
-16.556662
 31
0.0
  0
ARC
  5
372
100
AcDbEntity
  8
2
100
AcDbCircle
 10
-301.663263
 20
-22.956662
 30
0.0
 40
9.0
100
AcDbArc
 50
73.39845
 51
106.60155
  0
ARC
  5
373
100
AcDbEntity
  8
2
100
AcDbCircle
 10
-299.463263
 20
-15.577637
 30
0.0
 40
1.3
100
AcDbArc
 50
0.0
 51
73.39845
  0
ARC
  5
374
100
AcDbEntity
  8
2
100
AcDbCircle
 10
-303.863263
 20
-15.577637
 30
0.0
 40
1.3
100
AcDbArc
 50
106.60155
 51
180.0
  0
TEXT
  5
375
100
AcDbEntity
  8
2
100
AcDbText
 10
-268.475054
 20
-18.088732
 30
0.0
 40
7.6
  1
Ｓ
 50
31.641
 72
     5
 11
-263.298836
 21
-14.899193
 31
0.0
100
AcDbText
  0
TEXT
  5
376
100
AcDbEntity
  8
2
100
AcDbText
 10
-268.901825
 20
-18.349245
 30
0.0
 40
7.6
  1
Ｓ
 50
31.641
 72
     5
 11
-263.725607
 21
-15.159705
 31
0.0
100
AcDbText
  0
TEXT
  5
377
100
AcDbEntity
  8
2
100
AcDbText
 10
-269.328596
 20
-18.609757
 30
0.0
 40
7.6
  1
Ｓ
 50
31.641
 72
     5
 11
-264.152377
 21
-15.420218
 31
0.0
100
AcDbText
  0
LINE
  5
378
100
AcDbEntity
  8
2
100
AcDbLine
 10
-173.146758
 20
-50.756662
 30
0.0
 11
-173.146758
 21
-76.756662
 31
0.0
  0
LINE
  5
379
100
AcDbEntity
  8
2
100
AcDbLine
 10
-178.146758
 20
-50.756662
 30
0.0
 11
-178.146758
 21
-76.756662
 31
0.0
  0
LINE
  5
37A
100
AcDbEntity
  8
2
100
AcDbLine
 10
-173.146758
 20
-50.756662
 30
0.0
 11
-178.146758
 21
-50.756662
 31
0.0
  0
LINE
  5
37B
100
AcDbEntity
  8
2
100
AcDbLine
 10
-178.146758
 20
-54.756662
 30
0.0
 11
-181.146758
 21
-54.756662
 31
0.0
  0
ARC
  5
37C
100
AcDbEntity
  8
2
100
AcDbCircle
 10
-191.350925
 20
-57.256662
 30
0.0
 40
18.204167
100
AcDbArc
 50
339.080182
 51
20.919818
  0
LINE
  5
37D
100
AcDbEntity
  8
2
100
AcDbLine
 10
-173.146758
 20
-76.756662
 30
0.0
 11
-178.146758
 21
-76.756662
 31
0.0
  0
LINE
  5
37E
100
AcDbEntity
  8
2
100
AcDbLine
 10
-181.146758
 20
-72.756662
 30
0.0
 11
-178.146758
 21
-72.756662
 31
0.0
  0
ARC
  5
37F
100
AcDbEntity
  8
2
100
AcDbCircle
 10
-191.350925
 20
-70.256662
 30
0.0
 40
18.204167
100
AcDbArc
 50
339.080182
 51
20.919818
  0
LINE
  5
380
100
AcDbEntity
  8
2
100
AcDbLine
 10
-174.346758
 20
-63.756662
 30
0.0
 11
-178.146758
 21
-63.756662
 31
0.0
  0
POLYLINE
  5
381
100
AcDbEntity
  8
2
100
AcDb2dPolyline
 66
     1
 10
0.0
 20
0.0
 30
0.0
 70
     1
  0
VERTEX
  5
7CE
100
AcDbEntity
  8
2
100
AcDbVertex
100
AcDb2dVertex
 10
-178.246758
 20
-53.756662
 30
0.0
  0
VERTEX
  5
7CF
100
AcDbEntity
  8
2
100
AcDbVertex
100
AcDb2dVertex
 10
-178.275044
 20
-53.556662
 30
0.0
  0
VERTEX
  5
7D0
100
AcDbEntity
  8
2
100
AcDbVertex
100
AcDb2dVertex
 10
-178.363637
 20
-53.356662
 30
0.0
  0
VERTEX
  5
7D1
100
AcDbEntity
  8
2
100
AcDbVertex
100
AcDb2dVertex
 10
-178.526758
 20
-53.156662
 30
0.0
  0
VERTEX
  5
7D2
100
AcDbEntity
  8
2
100
AcDbVertex
100
AcDb2dVertex
 10
-178.806758
 20
-52.956662
 30
0.0
  0
VERTEX
  5
7D3
100
AcDbEntity
  8
2
100
AcDbVertex
100
AcDb2dVertex
 10
-179.646758
 20
-52.756662
 30
0.0
  0
VERTEX
  5
7D4
100
AcDbEntity
  8
2
100
AcDbVertex
100
AcDb2dVertex
 10
-180.486758
 20
-52.956662
 30
0.0
  0
VERTEX
  5
7D5
100
AcDbEntity
  8
2
100
AcDbVertex
100
AcDb2dVertex
 10
-180.766758
 20
-53.156662
 30
0.0
  0
VERTEX
  5
7D6
100
AcDbEntity
  8
2
100
AcDbVertex
100
AcDb2dVertex
 10
-180.929879
 20
-53.356662
 30
0.0
  0
VERTEX
  5
7D7
100
AcDbEntity
  8
2
100
AcDbVertex
100
AcDb2dVertex
 10
-181.018473
 20
-53.556662
 30
0.0
  0
VERTEX
  5
7D8
100
AcDbEntity
  8
2
100
AcDbVertex
100
AcDb2dVertex
 10
-181.046758
 20
-53.756662
 30
0.0
  0
VERTEX
  5
7D9
100
AcDbEntity
  8
2
100
AcDbVertex
100
AcDb2dVertex
 10
-181.018473
 20
-53.956662
 30
0.0
  0
VERTEX
  5
7DA
100
AcDbEntity
  8
2
100
AcDbVertex
100
AcDb2dVertex
 10
-180.929879
 20
-54.156662
 30
0.0
  0
VERTEX
  5
7DB
100
AcDbEntity
  8
2
100
AcDbVertex
100
AcDb2dVertex
 10
-180.766758
 20
-54.356662
 30
0.0
  0
VERTEX
  5
7DC
100
AcDbEntity
  8
2
100
AcDbVertex
100
AcDb2dVertex
 10
-180.486758
 20
-54.556662
 30
0.0
  0
VERTEX
  5
7DD
100
AcDbEntity
  8
2
100
AcDbVertex
100
AcDb2dVertex
 10
-179.646758
 20
-54.756662
 30
0.0
  0
VERTEX
  5
7DE
100
AcDbEntity
  8
2
100
AcDbVertex
100
AcDb2dVertex
 10
-178.806758
 20
-54.556662
 30
0.0
  0
VERTEX
  5
7DF
100
AcDbEntity
  8
2
100
AcDbVertex
100
AcDb2dVertex
 10
-178.526758
 20
-54.356662
 30
0.0
  0
VERTEX
  5
7E0
100
AcDbEntity
  8
2
100
AcDbVertex
100
AcDb2dVertex
 10
-178.363637
 20
-54.156662
 30
0.0
  0
VERTEX
  5
7E1
100
AcDbEntity
  8
2
100
AcDbVertex
100
AcDb2dVertex
 10
-178.275044
 20
-53.956662
 30
0.0
  0
VERTEX
  5
7E2
100
AcDbEntity
  8
2
100
AcDbVertex
100
AcDb2dVertex
 10
-178.246758
 20
-53.756662
 30
0.0
  0
SEQEND
  5
7E3
100
AcDbEntity
  8
2
  0
POLYLINE
  5
398
100
AcDbEntity
  8
2
100
AcDb2dPolyline
 66
     1
 10
0.0
 20
0.0
 30
0.0
 70
     1
  0
VERTEX
  5
7E4
100
AcDbEntity
  8
2
100
AcDbVertex
100
AcDb2dVertex
 10
-178.246758
 20
-73.756662
 30
0.0
  0
VERTEX
  5
7E5
100
AcDbEntity
  8
2
100
AcDbVertex
100
AcDb2dVertex
 10
-178.275044
 20
-73.556662
 30
0.0
  0
VERTEX
  5
7E6
100
AcDbEntity
  8
2
100
AcDbVertex
100
AcDb2dVertex
 10
-178.363637
 20
-73.356662
 30
0.0
  0
VERTEX
  5
7E7
100
AcDbEntity
  8
2
100
AcDbVertex
100
AcDb2dVertex
 10
-178.526758
 20
-73.156662
 30
0.0
  0
VERTEX
  5
7E8
100
AcDbEntity
  8
2
100
AcDbVertex
100
AcDb2dVertex
 10
-178.806758
 20
-72.956662
 30
0.0
  0
VERTEX
  5
7E9
100
AcDbEntity
  8
2
100
AcDbVertex
100
AcDb2dVertex
 10
-179.646758
 20
-72.756662
 30
0.0
  0
VERTEX
  5
7EA
100
AcDbEntity
  8
2
100
AcDbVertex
100
AcDb2dVertex
 10
-180.486758
 20
-72.956662
 30
0.0
  0
VERTEX
  5
7EB
100
AcDbEntity
  8
2
100
AcDbVertex
100
AcDb2dVertex
 10
-180.766758
 20
-73.156662
 30
0.0
  0
VERTEX
  5
7EC
100
AcDbEntity
  8
2
100
AcDbVertex
100
AcDb2dVertex
 10
-180.929879
 20
-73.356662
 30
0.0
  0
VERTEX
  5
7ED
100
AcDbEntity
  8
2
100
AcDbVertex
100
AcDb2dVertex
 10
-181.018473
 20
-73.556662
 30
0.0
  0
VERTEX
  5
7EE
100
AcDbEntity
  8
2
100
AcDbVertex
100
AcDb2dVertex
 10
-181.046758
 20
-73.756662
 30
0.0
  0
VERTEX
  5
7EF
100
AcDbEntity
  8
2
100
AcDbVertex
100
AcDb2dVertex
 10
-181.018473
 20
-73.956662
 30
0.0
  0
VERTEX
  5
7F0
100
AcDbEntity
  8
2
100
AcDbVertex
100
AcDb2dVertex
 10
-180.929879
 20
-74.156662
 30
0.0
  0
VERTEX
  5
7F1
100
AcDbEntity
  8
2
100
AcDbVertex
100
AcDb2dVertex
 10
-180.766758
 20
-74.356662
 30
0.0
  0
VERTEX
  5
7F2
100
AcDbEntity
  8
2
100
AcDbVertex
100
AcDb2dVertex
 10
-180.486758
 20
-74.556662
 30
0.0
  0
VERTEX
  5
7F3
100
AcDbEntity
  8
2
100
AcDbVertex
100
AcDb2dVertex
 10
-179.646758
 20
-74.756662
 30
0.0
  0
VERTEX
  5
7F4
100
AcDbEntity
  8
2
100
AcDbVertex
100
AcDb2dVertex
 10
-178.806758
 20
-74.556662
 30
0.0
  0
VERTEX
  5
7F5
100
AcDbEntity
  8
2
100
AcDbVertex
100
AcDb2dVertex
 10
-178.526758
 20
-74.356662
 30
0.0
  0
VERTEX
  5
7F6
100
AcDbEntity
  8
2
100
AcDbVertex
100
AcDb2dVertex
 10
-178.363637
 20
-74.156662
 30
0.0
  0
VERTEX
  5
7F7
100
AcDbEntity
  8
2
100
AcDbVertex
100
AcDb2dVertex
 10
-178.275044
 20
-73.956662
 30
0.0
  0
VERTEX
  5
7F8
100
AcDbEntity
  8
2
100
AcDbVertex
100
AcDb2dVertex
 10
-178.246758
 20
-73.756662
 30
0.0
  0
SEQEND
  5
7F9
100
AcDbEntity
  8
2
  0
CIRCLE
  5
3AF
100
AcDbEntity
  8
2
100
AcDbCircle
 10
-361.146758
 20
-69.256662
 30
0.0
 40
4.75
  0
LINE
  5
3B0
100
AcDbEntity
  8
2
100
AcDbLine
 10
-358.696758
 20
-69.756662
 30
0.0
 11
-358.696758
 21
-68.756662
 31
0.0
  0
LINE
  5
3B1
100
AcDbEntity
  8
2
100
AcDbLine
 10
-363.596758
 20
-69.756662
 30
0.0
 11
-363.596758
 21
-68.756662
 31
0.0
  0
LINE
  5
3B2
100
AcDbEntity
  8
2
100
AcDbLine
 10
-361.646758
 20
-66.806662
 30
0.0
 11
-360.646758
 21
-66.806662
 31
0.0
  0
LINE
  5
3B3
100
AcDbEntity
  8
2
100
AcDbLine
 10
-360.646758
 20
-71.706662
 30
0.0
 11
-360.646758
 21
-70.756662
 31
0.0
  0
LINE
  5
3B4
100
AcDbEntity
  8
2
100
AcDbLine
 10
-360.646758
 20
-67.756662
 30
0.0
 11
-360.646758
 21
-66.806662
 31
0.0
  0
LINE
  5
3B5
100
AcDbEntity
  8
2
100
AcDbLine
 10
-363.596758
 20
-69.756662
 30
0.0
 11
-362.646758
 21
-69.756662
 31
0.0
  0
LINE
  5
3B6
100
AcDbEntity
  8
2
100
AcDbLine
 10
-359.646758
 20
-69.756662
 30
0.0
 11
-358.696758
 21
-69.756662
 31
0.0
  0
LINE
  5
3B7
100
AcDbEntity
  8
2
100
AcDbLine
 10
-361.646758
 20
-71.706662
 30
0.0
 11
-361.646758
 21
-70.756662
 31
0.0
  0
LINE
  5
3B8
100
AcDbEntity
  8
2
100
AcDbLine
 10
-361.646758
 20
-67.756662
 30
0.0
 11
-361.646758
 21
-66.806662
 31
0.0
  0
LINE
  5
3B9
100
AcDbEntity
  8
2
100
AcDbLine
 10
-363.596758
 20
-68.756662
 30
0.0
 11
-362.646758
 21
-68.756662
 31
0.0
  0
LINE
  5
3BA
100
AcDbEntity
  8
2
100
AcDbLine
 10
-359.646758
 20
-68.756662
 30
0.0
 11
-358.696758
 21
-68.756662
 31
0.0
  0
ARC
  5
3BB
100
AcDbEntity
  8
2
100
AcDbCircle
 10
-359.646758
 20
-67.756662
 30
0.0
 40
1.0
100
AcDbArc
 50
180.0
 51
270.0
  0
ARC
  5
3BC
100
AcDbEntity
  8
2
100
AcDbCircle
 10
-362.646758
 20
-67.756662
 30
0.0
 40
1.0
100
AcDbArc
 50
270.0
 51
0.0
  0
ARC
  5
3BD
100
AcDbEntity
  8
2
100
AcDbCircle
 10
-362.646758
 20
-70.756662
 30
0.0
 40
1.0
100
AcDbArc
 50
0.0
 51
90.0
  0
ARC
  5
3BE
100
AcDbEntity
  8
2
100
AcDbCircle
 10
-359.646758
 20
-70.756662
 30
0.0
 40
1.0
100
AcDbArc
 50
90.0
 51
180.0
  0
LINE
  5
3BF
100
AcDbEntity
  8
2
100
AcDbLine
 10
-361.646758
 20
-71.706662
 30
0.0
 11
-360.646758
 21
-71.706662
 31
0.0
  0
CIRCLE
  5
3C0
100
AcDbEntity
  8
2
100
AcDbCircle
 10
-363.146758
 20
-135.756662
 30
0.0
 40
4.75
  0
LINE
  5
3C1
100
AcDbEntity
  8
2
100
AcDbLine
 10
-360.696758
 20
-136.256662
 30
0.0
 11
-360.696758
 21
-135.256662
 31
0.0
  0
LINE
  5
3C2
100
AcDbEntity
  8
2
100
AcDbLine
 10
-365.596758
 20
-136.256662
 30
0.0
 11
-365.596758
 21
-135.256662
 31
0.0
  0
LINE
  5
3C3
100
AcDbEntity
  8
2
100
AcDbLine
 10
-363.646758
 20
-133.306662
 30
0.0
 11
-362.646758
 21
-133.306662
 31
0.0
  0
LINE
  5
3C4
100
AcDbEntity
  8
2
100
AcDbLine
 10
-362.646758
 20
-138.206662
 30
0.0
 11
-362.646758
 21
-137.256662
 31
0.0
  0
LINE
  5
3C5
100
AcDbEntity
  8
2
100
AcDbLine
 10
-362.646758
 20
-134.256662
 30
0.0
 11
-362.646758
 21
-133.306662
 31
0.0
  0
LINE
  5
3C6
100
AcDbEntity
  8
2
100
AcDbLine
 10
-365.596758
 20
-136.256662
 30
0.0
 11
-364.646758
 21
-136.256662
 31
0.0
  0
LINE
  5
3C7
100
AcDbEntity
  8
2
100
AcDbLine
 10
-361.646758
 20
-136.256662
 30
0.0
 11
-360.696758
 21
-136.256662
 31
0.0
  0
LINE
  5
3C8
100
AcDbEntity
  8
2
100
AcDbLine
 10
-363.646758
 20
-138.206662
 30
0.0
 11
-363.646758
 21
-137.256662
 31
0.0
  0
LINE
  5
3C9
100
AcDbEntity
  8
2
100
AcDbLine
 10
-363.646758
 20
-134.256662
 30
0.0
 11
-363.646758
 21
-133.306662
 31
0.0
  0
LINE
  5
3CA
100
AcDbEntity
  8
2
100
AcDbLine
 10
-365.596758
 20
-135.256662
 30
0.0
 11
-364.646758
 21
-135.256662
 31
0.0
  0
LINE
  5
3CB
100
AcDbEntity
  8
2
100
AcDbLine
 10
-361.646758
 20
-135.256662
 30
0.0
 11
-360.696758
 21
-135.256662
 31
0.0
  0
ARC
  5
3CC
100
AcDbEntity
  8
2
100
AcDbCircle
 10
-361.646758
 20
-134.256662
 30
0.0
 40
1.0
100
AcDbArc
 50
180.0
 51
270.0
  0
ARC
  5
3CD
100
AcDbEntity
  8
2
100
AcDbCircle
 10
-364.646758
 20
-134.256662
 30
0.0
 40
1.0
100
AcDbArc
 50
270.0
 51
0.0
  0
ARC
  5
3CE
100
AcDbEntity
  8
2
100
AcDbCircle
 10
-364.646758
 20
-137.256662
 30
0.0
 40
1.0
100
AcDbArc
 50
0.0
 51
90.0
  0
ARC
  5
3CF
100
AcDbEntity
  8
2
100
AcDbCircle
 10
-361.646758
 20
-137.256662
 30
0.0
 40
1.0
100
AcDbArc
 50
90.0
 51
180.0
  0
LINE
  5
3D0
100
AcDbEntity
  8
2
100
AcDbLine
 10
-363.646758
 20
-138.206662
 30
0.0
 11
-362.646758
 21
-138.206662
 31
0.0
  0
CIRCLE
  5
3D1
100
AcDbEntity
  8
2
100
AcDbCircle
 10
-303.646758
 20
-137.756662
 30
0.0
 40
4.75
  0
LINE
  5
3D2
100
AcDbEntity
  8
2
100
AcDbLine
 10
-301.196758
 20
-138.256662
 30
0.0
 11
-301.196758
 21
-137.256662
 31
0.0
  0
LINE
  5
3D3
100
AcDbEntity
  8
2
100
AcDbLine
 10
-306.096758
 20
-138.256662
 30
0.0
 11
-306.096758
 21
-137.256662
 31
0.0
  0
LINE
  5
3D4
100
AcDbEntity
  8
2
100
AcDbLine
 10
-304.146758
 20
-135.306662
 30
0.0
 11
-303.146758
 21
-135.306662
 31
0.0
  0
LINE
  5
3D5
100
AcDbEntity
  8
2
100
AcDbLine
 10
-303.146758
 20
-140.206662
 30
0.0
 11
-303.146758
 21
-139.256662
 31
0.0
  0
LINE
  5
3D6
100
AcDbEntity
  8
2
100
AcDbLine
 10
-303.146758
 20
-136.256662
 30
0.0
 11
-303.146758
 21
-135.306662
 31
0.0
  0
LINE
  5
3D7
100
AcDbEntity
  8
2
100
AcDbLine
 10
-306.096758
 20
-138.256662
 30
0.0
 11
-305.146758
 21
-138.256662
 31
0.0
  0
LINE
  5
3D8
100
AcDbEntity
  8
2
100
AcDbLine
 10
-302.146758
 20
-138.256662
 30
0.0
 11
-301.196758
 21
-138.256662
 31
0.0
  0
LINE
  5
3D9
100
AcDbEntity
  8
2
100
AcDbLine
 10
-304.146758
 20
-140.206662
 30
0.0
 11
-304.146758
 21
-139.256662
 31
0.0
  0
LINE
  5
3DA
100
AcDbEntity
  8
2
100
AcDbLine
 10
-304.146758
 20
-136.256662
 30
0.0
 11
-304.146758
 21
-135.306662
 31
0.0
  0
LINE
  5
3DB
100
AcDbEntity
  8
2
100
AcDbLine
 10
-306.096758
 20
-137.256662
 30
0.0
 11
-305.146758
 21
-137.256662
 31
0.0
  0
LINE
  5
3DC
100
AcDbEntity
  8
2
100
AcDbLine
 10
-302.146758
 20
-137.256662
 30
0.0
 11
-301.196758
 21
-137.256662
 31
0.0
  0
ARC
  5
3DD
100
AcDbEntity
  8
2
100
AcDbCircle
 10
-302.146758
 20
-136.256662
 30
0.0
 40
1.0
100
AcDbArc
 50
180.0
 51
270.0
  0
ARC
  5
3DE
100
AcDbEntity
  8
2
100
AcDbCircle
 10
-305.146758
 20
-136.256662
 30
0.0
 40
1.0
100
AcDbArc
 50
270.0
 51
0.0
  0
ARC
  5
3DF
100
AcDbEntity
  8
2
100
AcDbCircle
 10
-305.146758
 20
-139.256662
 30
0.0
 40
1.0
100
AcDbArc
 50
0.0
 51
90.0
  0
ARC
  5
3E0
100
AcDbEntity
  8
2
100
AcDbCircle
 10
-302.146758
 20
-139.256662
 30
0.0
 40
1.0
100
AcDbArc
 50
90.0
 51
180.0
  0
LINE
  5
3E1
100
AcDbEntity
  8
2
100
AcDbLine
 10
-304.146758
 20
-140.206662
 30
0.0
 11
-303.146758
 21
-140.206662
 31
0.0
  0
CIRCLE
  5
3E2
100
AcDbEntity
  8
2
100
AcDbCircle
 10
-220.146758
 20
-135.756662
 30
0.0
 40
4.75
  0
LINE
  5
3E3
100
AcDbEntity
  8
2
100
AcDbLine
 10
-217.696758
 20
-136.256662
 30
0.0
 11
-217.696758
 21
-135.256662
 31
0.0
  0
LINE
  5
3E4
100
AcDbEntity
  8
2
100
AcDbLine
 10
-222.596758
 20
-136.256662
 30
0.0
 11
-222.596758
 21
-135.256662
 31
0.0
  0
LINE
  5
3E5
100
AcDbEntity
  8
2
100
AcDbLine
 10
-220.646758
 20
-133.306662
 30
0.0
 11
-219.646758
 21
-133.306662
 31
0.0
  0
LINE
  5
3E6
100
AcDbEntity
  8
2
100
AcDbLine
 10
-219.646758
 20
-138.206662
 30
0.0
 11
-219.646758
 21
-137.256662
 31
0.0
  0
LINE
  5
3E7
100
AcDbEntity
  8
2
100
AcDbLine
 10
-219.646758
 20
-134.256662
 30
0.0
 11
-219.646758
 21
-133.306662
 31
0.0
  0
LINE
  5
3E8
100
AcDbEntity
  8
2
100
AcDbLine
 10
-222.596758
 20
-136.256662
 30
0.0
 11
-221.646758
 21
-136.256662
 31
0.0
  0
LINE
  5
3E9
100
AcDbEntity
  8
2
100
AcDbLine
 10
-218.646758
 20
-136.256662
 30
0.0
 11
-217.696758
 21
-136.256662
 31
0.0
  0
LINE
  5
3EA
100
AcDbEntity
  8
2
100
AcDbLine
 10
-220.646758
 20
-138.206662
 30
0.0
 11
-220.646758
 21
-137.256662
 31
0.0
  0
LINE
  5
3EB
100
AcDbEntity
  8
2
100
AcDbLine
 10
-220.646758
 20
-134.256662
 30
0.0
 11
-220.646758
 21
-133.306662
 31
0.0
  0
LINE
  5
3EC
100
AcDbEntity
  8
2
100
AcDbLine
 10
-222.596758
 20
-135.256662
 30
0.0
 11
-221.646758
 21
-135.256662
 31
0.0
  0
LINE
  5
3ED
100
AcDbEntity
  8
2
100
AcDbLine
 10
-218.646758
 20
-135.256662
 30
0.0
 11
-217.696758
 21
-135.256662
 31
0.0
  0
ARC
  5
3EE
100
AcDbEntity
  8
2
100
AcDbCircle
 10
-218.646758
 20
-134.256662
 30
0.0
 40
1.0
100
AcDbArc
 50
180.0
 51
270.0
  0
ARC
  5
3EF
100
AcDbEntity
  8
2
100
AcDbCircle
 10
-221.646758
 20
-134.256662
 30
0.0
 40
1.0
100
AcDbArc
 50
270.0
 51
0.0
  0
ARC
  5
3F0
100
AcDbEntity
  8
2
100
AcDbCircle
 10
-221.646758
 20
-137.256662
 30
0.0
 40
1.0
100
AcDbArc
 50
0.0
 51
90.0
  0
ARC
  5
3F1
100
AcDbEntity
  8
2
100
AcDbCircle
 10
-218.646758
 20
-137.256662
 30
0.0
 40
1.0
100
AcDbArc
 50
90.0
 51
180.0
  0
LINE
  5
3F2
100
AcDbEntity
  8
2
100
AcDbLine
 10
-220.646758
 20
-138.206662
 30
0.0
 11
-219.646758
 21
-138.206662
 31
0.0
  0
CIRCLE
  5
3F3
100
AcDbEntity
  8
2
100
AcDbCircle
 10
-222.146758
 20
-69.256662
 30
0.0
 40
4.75
  0
LINE
  5
3F4
100
AcDbEntity
  8
2
100
AcDbLine
 10
-219.696758
 20
-69.756662
 30
0.0
 11
-219.696758
 21
-68.756662
 31
0.0
  0
LINE
  5
3F5
100
AcDbEntity
  8
2
100
AcDbLine
 10
-224.596758
 20
-69.756662
 30
0.0
 11
-224.596758
 21
-68.756662
 31
0.0
  0
LINE
  5
3F6
100
AcDbEntity
  8
2
100
AcDbLine
 10
-222.646758
 20
-66.806662
 30
0.0
 11
-221.646758
 21
-66.806662
 31
0.0
  0
LINE
  5
3F7
100
AcDbEntity
  8
2
100
AcDbLine
 10
-221.646758
 20
-71.706662
 30
0.0
 11
-221.646758
 21
-70.756662
 31
0.0
  0
LINE
  5
3F8
100
AcDbEntity
  8
2
100
AcDbLine
 10
-221.646758
 20
-67.756662
 30
0.0
 11
-221.646758
 21
-66.806662
 31
0.0
  0
LINE
  5
3F9
100
AcDbEntity
  8
2
100
AcDbLine
 10
-224.596758
 20
-69.756662
 30
0.0
 11
-223.646758
 21
-69.756662
 31
0.0
  0
LINE
  5
3FA
100
AcDbEntity
  8
2
100
AcDbLine
 10
-220.646758
 20
-69.756662
 30
0.0
 11
-219.696758
 21
-69.756662
 31
0.0
  0
LINE
  5
3FB
100
AcDbEntity
  8
2
100
AcDbLine
 10
-222.646758
 20
-71.706662
 30
0.0
 11
-222.646758
 21
-70.756662
 31
0.0
  0
LINE
  5
3FC
100
AcDbEntity
  8
2
100
AcDbLine
 10
-222.646758
 20
-67.756662
 30
0.0
 11
-222.646758
 21
-66.806662
 31
0.0
  0
LINE
  5
3FD
100
AcDbEntity
  8
2
100
AcDbLine
 10
-224.596758
 20
-68.756662
 30
0.0
 11
-223.646758
 21
-68.756662
 31
0.0
  0
LINE
  5
3FE
100
AcDbEntity
  8
2
100
AcDbLine
 10
-220.646758
 20
-68.756662
 30
0.0
 11
-219.696758
 21
-68.756662
 31
0.0
  0
ARC
  5
3FF
100
AcDbEntity
  8
2
100
AcDbCircle
 10
-220.646758
 20
-67.756662
 30
0.0
 40
1.0
100
AcDbArc
 50
180.0
 51
270.0
  0
ARC
  5
400
100
AcDbEntity
  8
2
100
AcDbCircle
 10
-223.646758
 20
-67.756662
 30
0.0
 40
1.0
100
AcDbArc
 50
270.0
 51
0.0
  0
ARC
  5
401
100
AcDbEntity
  8
2
100
AcDbCircle
 10
-223.646758
 20
-70.756662
 30
0.0
 40
1.0
100
AcDbArc
 50
0.0
 51
90.0
  0
ARC
  5
402
100
AcDbEntity
  8
2
100
AcDbCircle
 10
-220.646758
 20
-70.756662
 30
0.0
 40
1.0
100
AcDbArc
 50
90.0
 51
180.0
  0
LINE
  5
403
100
AcDbEntity
  8
2
100
AcDbLine
 10
-222.646758
 20
-71.706662
 30
0.0
 11
-221.646758
 21
-71.706662
 31
0.0
  0
CIRCLE
  5
404
100
AcDbEntity
  8
2
100
AcDbCircle
 10
-303.646758
 20
-69.756662
 30
0.0
 40
4.75
  0
LINE
  5
405
100
AcDbEntity
  8
2
100
AcDbLine
 10
-301.196758
 20
-70.256662
 30
0.0
 11
-301.196758
 21
-69.256662
 31
0.0
  0
LINE
  5
406
100
AcDbEntity
  8
2
100
AcDbLine
 10
-306.096758
 20
-70.256662
 30
0.0
 11
-306.096758
 21
-69.256662
 31
0.0
  0
LINE
  5
407
100
AcDbEntity
  8
2
100
AcDbLine
 10
-304.146758
 20
-67.306662
 30
0.0
 11
-303.146758
 21
-67.306662
 31
0.0
  0
LINE
  5
408
100
AcDbEntity
  8
2
100
AcDbLine
 10
-303.146758
 20
-72.206662
 30
0.0
 11
-303.146758
 21
-71.256662
 31
0.0
  0
LINE
  5
409
100
AcDbEntity
  8
2
100
AcDbLine
 10
-303.146758
 20
-68.256662
 30
0.0
 11
-303.146758
 21
-67.306662
 31
0.0
  0
LINE
  5
40A
100
AcDbEntity
  8
2
100
AcDbLine
 10
-306.096758
 20
-70.256662
 30
0.0
 11
-305.146758
 21
-70.256662
 31
0.0
  0
LINE
  5
40B
100
AcDbEntity
  8
2
100
AcDbLine
 10
-302.146758
 20
-70.256662
 30
0.0
 11
-301.196758
 21
-70.256662
 31
0.0
  0
LINE
  5
40C
100
AcDbEntity
  8
2
100
AcDbLine
 10
-304.146758
 20
-72.206662
 30
0.0
 11
-304.146758
 21
-71.256662
 31
0.0
  0
LINE
  5
40D
100
AcDbEntity
  8
2
100
AcDbLine
 10
-304.146758
 20
-68.256662
 30
0.0
 11
-304.146758
 21
-67.306662
 31
0.0
  0
LINE
  5
40E
100
AcDbEntity
  8
2
100
AcDbLine
 10
-306.096758
 20
-69.256662
 30
0.0
 11
-305.146758
 21
-69.256662
 31
0.0
  0
LINE
  5
40F
100
AcDbEntity
  8
2
100
AcDbLine
 10
-302.146758
 20
-69.256662
 30
0.0
 11
-301.196758
 21
-69.256662
 31
0.0
  0
ARC
  5
410
100
AcDbEntity
  8
2
100
AcDbCircle
 10
-302.146758
 20
-68.256662
 30
0.0
 40
1.0
100
AcDbArc
 50
180.0
 51
270.0
  0
ARC
  5
411
100
AcDbEntity
  8
2
100
AcDbCircle
 10
-305.146758
 20
-68.256662
 30
0.0
 40
1.0
100
AcDbArc
 50
270.0
 51
0.0
  0
ARC
  5
412
100
AcDbEntity
  8
2
100
AcDbCircle
 10
-305.146758
 20
-71.256662
 30
0.0
 40
1.0
100
AcDbArc
 50
0.0
 51
90.0
  0
ARC
  5
413
100
AcDbEntity
  8
2
100
AcDbCircle
 10
-302.146758
 20
-71.256662
 30
0.0
 40
1.0
100
AcDbArc
 50
90.0
 51
180.0
  0
LINE
  5
414
100
AcDbEntity
  8
2
100
AcDbLine
 10
-304.146758
 20
-72.206662
 30
0.0
 11
-303.146758
 21
-72.206662
 31
0.0
  0
LINE
  5
415
100
AcDbEntity
  8
2
100
AcDbLine
 10
-245.230134
 20
-101.256662
 30
0.0
 11
-248.063383
 21
-101.256662
 31
0.0
  0
LINE
  5
416
100
AcDbEntity
  8
2
100
AcDbLine
 10
-245.230134
 20
-106.256662
 30
0.0
 11
-248.063383
 21
-106.256662
 31
0.0
  0
LINE
  5
417
100
AcDbEntity
  8
2
100
AcDbLine
 10
-249.506758
 20
-103.756662
 30
0.0
 11
-248.063383
 21
-101.256662
 31
0.0
  0
LINE
  5
418
100
AcDbEntity
  8
2
100
AcDbLine
 10
-249.506758
 20
-103.756662
 30
0.0
 11
-248.063383
 21
-106.256662
 31
0.0
  0
LINE
  5
419
100
AcDbEntity
  8
2
100
AcDbLine
 10
-243.786758
 20
-103.756662
 30
0.0
 11
-245.230134
 21
-101.256662
 31
0.0
  0
LINE
  5
41A
100
AcDbEntity
  8
2
100
AcDbLine
 10
-243.786758
 20
-103.756662
 30
0.0
 11
-245.230134
 21
-106.256662
 31
0.0
  0
CIRCLE
  5
41B
100
AcDbEntity
  8
2
100
AcDbCircle
 10
-246.646758
 20
-103.756662
 30
0.0
 40
12.5
  0
CIRCLE
  5
41C
100
AcDbEntity
  8
2
100
AcDbCircle
 10
-246.646758
 20
-103.756662
 30
0.0
 40
12.2
  0
LINE
  5
41D
100
AcDbEntity
  8
2
100
AcDbLine
 10
-293.146758
 20
-94.756662
 30
0.0
 11
-293.146758
 21
-89.756662
 31
0.0
  0
LINE
  5
41E
100
AcDbEntity
  8
2
100
AcDbLine
 10
-313.146758
 20
-89.756662
 30
0.0
 11
-313.146758
 21
-104.756662
 31
0.0
  0
LINE
  5
41F
100
AcDbEntity
  8
2
100
AcDbLine
 10
-303.146758
 20
-89.756662
 30
0.0
 11
-303.146758
 21
-119.756662
 31
0.0
  0
LINE
  5
420
100
AcDbEntity
  8
2
100
AcDbLine
 10
-313.146758
 20
-94.756662
 30
0.0
 11
-293.146758
 21
-94.756662
 31
0.0
  0
LINE
  5
421
100
AcDbEntity
  8
2
100
AcDbLine
 10
-303.146758
 20
-89.756662
 30
0.0
 11
-313.146758
 21
-94.756662
 31
0.0
  0
LINE
  5
422
100
AcDbEntity
  8
2
100
AcDbLine
 10
-313.146758
 20
-89.756662
 30
0.0
 11
-283.146758
 21
-89.756662
 31
0.0
  0
LINE
  5
423
100
AcDbEntity
  8
2
100
AcDbLine
 10
-293.146758
 20
-119.756662
 30
0.0
 11
-293.146758
 21
-99.756662
 31
0.0
  0
LINE
  5
424
100
AcDbEntity
  8
2
100
AcDbLine
 10
-303.146758
 20
-119.756662
 30
0.0
 11
-293.146758
 21
-119.756662
 31
0.0
  0
LINE
  5
425
100
AcDbEntity
  8
2
100
AcDbLine
 10
-313.146758
 20
-104.756662
 30
0.0
 11
-283.146758
 21
-89.756662
 31
0.0
  0
LINE
  5
426
100
AcDbEntity
  8
2
100
AcDbLine
 10
-313.146758
 20
-99.756662
 30
0.0
 11
-293.146758
 21
-99.756662
 31
0.0
  0
LINE
  5
427
100
AcDbEntity
  8
2
100
AcDbLine
 10
-293.146758
 20
-89.756662
 30
0.0
 11
-313.146758
 21
-99.756662
 31
0.0
  0
ARC
  5
428
100
AcDbEntity
  8
2
100
AcDbCircle
 10
-248.146758
 20
-103.756662
 30
0.0
 40
83.0
100
AcDbArc
 50
176.553145
 51
183.446855
  0
ARC
  5
429
100
AcDbEntity
  8
2
 62
     2
100
AcDbCircle
 10
-305.146758
 20
-101.556662
 30
0.0
 40
32.187
100
AcDbArc
 50
101.806726
 51
173.839455
  0
ARC
  5
42A
100
AcDbEntity
  8
2
100
AcDbCircle
 10
-305.146758
 20
-101.556662
 30
0.0
 40
26.0
100
AcDbArc
 50
94.86353
 51
173.839455
  0
ARC
  5
42B
100
AcDbEntity
  8
2
100
AcDbCircle
 10
-305.146758
 20
-105.956662
 30
0.0
 40
26.0
100
AcDbArc
 50
186.160545
 51
265.13647
  0
ARC
  5
42C
100
AcDbEntity
  8
2
 62
     2
100
AcDbCircle
 10
-372.646758
 20
-103.756662
 30
0.0
 40
162.47
100
AcDbArc
 50
359.375245
 51
0.624755
  0
ARC
  5
42D
100
AcDbEntity
  8
2
 62
     2
100
AcDbCircle
 10
-305.146758
 20
-105.956662
 30
0.0
 40
32.187
100
AcDbArc
 50
186.160545
 51
258.193274
  0
ARC
  5
42E
100
AcDbEntity
  8
2
 62
     2
100
AcDbCircle
 10
-248.146758
 20
-103.756662
 30
0.0
 40
89.187
100
AcDbArc
 50
176.553145
 51
183.446855
  0
ARC
  5
42F
100
AcDbEntity
  8
2
 62
     2
100
AcDbCircle
 10
-242.646758
 20
-106.256662
 30
0.0
 40
32.47
100
AcDbArc
 50
269.465549
 51
299.701491
  0
ARC
  5
430
100
AcDbEntity
  8
2
 62
     2
100
AcDbCircle
 10
-242.646758
 20
-106.256662
 30
0.0
 40
32.47
100
AcDbArc
 50
314.964901
 51
1.442841
  0
ARC
  5
431
100
AcDbEntity
  8
2
 62
     2
100
AcDbCircle
 10
-220.146758
 20
-135.756662
 30
0.0
 40
6.0
100
AcDbArc
 50
96.94736
 51
157.719031
  0
ARC
  5
432
100
AcDbEntity
  8
2
 62
     2
100
AcDbCircle
 10
-222.146758
 20
-69.256662
 30
0.0
 40
6.0
100
AcDbArc
 50
216.425439
 51
254.880724
  0
ARC
  5
433
100
AcDbEntity
  8
2
 62
     2
100
AcDbCircle
 10
-242.646758
 20
-101.256662
 30
0.0
 40
32.47
100
AcDbArc
 50
358.557159
 51
52.8207
  0
ARC
  5
434
100
AcDbEntity
  8
2
 62
     2
100
AcDbCircle
 10
-242.646758
 20
-101.256662
 30
0.0
 40
32.47
100
AcDbArc
 50
61.140224
 51
90.534451
  0
ARC
  5
435
100
AcDbEntity
  8
2
 62
     2
100
AcDbCircle
 10
-311.323349
 20
-72.008317
 30
0.0
 40
2.0
100
AcDbArc
 50
16.347175
 51
101.806726
  0
ARC
  5
436
100
AcDbEntity
  8
2
 62
     2
100
AcDbCircle
 10
-311.323349
 20
-135.505007
 30
0.0
 40
2.0
100
AcDbArc
 50
258.193274
 51
343.652825
  0
ARC
  5
437
100
AcDbEntity
  8
2
 62
     2
100
AcDbCircle
 10
-227.549444
 20
-132.723471
 30
0.0
 40
2.0
100
AcDbArc
 50
299.701491
 51
337.719031
  0
ARC
  5
438
100
AcDbEntity
  8
2
 62
     2
100
AcDbCircle
 10
-221.114418
 20
-127.8154
 30
0.0
 40
2.0
100
AcDbArc
 50
276.94736
 51
314.964901
  0
ARC
  5
439
100
AcDbEntity
  8
2
 62
     2
100
AcDbCircle
 10
-224.233393
 20
-76.979741
 30
0.0
 40
2.0
100
AcDbArc
 50
52.8207
 51
74.880724
  0
LINE
  5
43A
100
AcDbEntity
  8
2
100
AcDbLine
 10
-363.396453
 20
-62.756662
 30
0.0
 11
-220.453873
 21
-62.756662
 31
0.0
  0
ARC
  5
43B
100
AcDbEntity
  8
2
100
AcDbCircle
 10
-363.396453
 20
-72.756662
 30
0.0
 40
10.0
100
AcDbArc
 50
90.0
 51
169.473381
  0
ARC
  5
43C
100
AcDbEntity
  8
2
100
AcDbCircle
 10
-220.453873
 20
-72.756662
 30
0.0
 40
10.0
100
AcDbArc
 50
13.342364
 51
90.0
  0
ARC
  5
43D
100
AcDbEntity
  8
2
100
AcDbCircle
 10
-321.646758
 20
-96.756662
 30
0.0
 40
114.0
100
AcDbArc
 50
0.0
 51
13.342364
  0
LINE
  5
43E
100
AcDbEntity
  8
2
100
AcDbLine
 10
-363.747928
 20
-142.756662
 30
0.0
 11
-220.000312
 21
-142.756662
 31
0.0
  0
ARC
  5
43F
100
AcDbEntity
  8
2
100
AcDbCircle
 10
-220.000312
 20
-132.756662
 30
0.0
 40
10.0
100
AcDbArc
 50
270.0
 51
347.787475
  0
ARC
  5
440
100
AcDbEntity
  8
2
100
AcDbCircle
 10
-321.646758
 20
-110.756662
 30
0.0
 40
114.0
100
AcDbArc
 50
347.787475
 51
360.0
  0
LINE
  5
441
100
AcDbEntity
  8
2
100
AcDbLine
 10
-207.646758
 20
-96.756662
 30
0.0
 11
-207.646758
 21
-110.756662
 31
0.0
  0
ARC
  5
442
100
AcDbEntity
  8
2
100
AcDbCircle
 10
-261.146758
 20
-91.756662
 30
0.0
 40
114.0
100
AcDbArc
 50
169.473381
 51
180.0
  0
LINE
  5
443
100
AcDbEntity
  8
2
100
AcDbLine
 10
-375.146758
 20
-91.756662
 30
0.0
 11
-375.146758
 21
-115.756662
 31
0.0
  0
ARC
  5
444
100
AcDbEntity
  8
2
100
AcDbCircle
 10
-261.146758
 20
-115.756662
 30
0.0
 40
114.0
100
AcDbArc
 50
180.0
 51
189.407874
  0
ARC
  5
445
100
AcDbEntity
  8
2
100
AcDbCircle
 10
-363.747928
 20
-132.756662
 30
0.0
 40
10.0
100
AcDbArc
 50
189.407874
 51
270.0
  0
LINE
  5
446
100
AcDbEntity
  8
2
 62
     2
100
AcDbLine
 10
-242.949632
 20
-68.788074
 30
0.0
 11
-295.812001
 21
-69.281185
 31
0.0
  0
LINE
  5
447
100
AcDbEntity
  8
2
 62
     2
100
AcDbLine
 10
-242.949632
 20
-138.725249
 30
0.0
 11
-295.812001
 21
-138.232139
 31
0.0
  0
ARC
  5
448
100
AcDbEntity
  8
2
 62
     2
100
AcDbCircle
 10
-295.793345
 20
-71.281098
 30
0.0
 40
2.0
100
AcDbArc
 50
90.534451
 51
169.014853
  0
ARC
  5
449
100
AcDbEntity
  8
2
 62
     2
100
AcDbCircle
 10
-295.793345
 20
-136.232226
 30
0.0
 40
2.0
100
AcDbArc
 50
190.985147
 51
269.465549
  0
ARC
  5
44A
100
AcDbEntity
  8
2
 62
     2
100
AcDbCircle
 10
-303.646758
 20
-69.756662
 30
0.0
 40
6.0
100
AcDbArc
 50
196.347175
 51
252.742145
  0
ARC
  5
44B
100
AcDbEntity
  8
2
 62
     2
100
AcDbCircle
 10
-303.646758
 20
-69.756662
 30
0.0
 40
6.0
100
AcDbArc
 50
296.984916
 51
349.014853
  0
ARC
  5
44C
100
AcDbEntity
  8
2
 62
     2
100
AcDbCircle
 10
-303.646758
 20
-137.756662
 30
0.0
 40
6.0
100
AcDbArc
 50
10.985147
 51
63.015084
  0
ARC
  5
44D
100
AcDbEntity
  8
2
 62
     2
100
AcDbCircle
 10
-303.646758
 20
-137.756662
 30
0.0
 40
6.0
100
AcDbArc
 50
107.257855
 51
163.652825
  0
CIRCLE
  5
44E
100
AcDbEntity
  8
2
100
AcDbCircle
 10
-246.646758
 20
-103.756662
 30
0.0
 40
12.5
  0
LINE
  5
44F
100
AcDbEntity
  8
2
100
AcDbLine
 10
-245.275023
 20
-137.145045
 30
0.0
 11
-307.351109
 21
-131.863048
 31
0.0
  0
LINE
  5
450
100
AcDbEntity
  8
2
100
AcDbLine
 10
-245.275023
 20
-70.368278
 30
0.0
 11
-307.351109
 21
-75.650276
 31
0.0
  0
ARC
  5
451
100
AcDbEntity
  8
2
100
AcDbCircle
 10
-242.646758
 20
-101.256662
 30
0.0
 40
31.0
100
AcDbArc
 50
3.61268
 51
94.86353
  0
ARC
  5
452
100
AcDbEntity
  8
2
100
AcDbCircle
 10
-372.646758
 20
-103.756662
 30
0.0
 40
161.0
100
AcDbArc
 50
358.414964
 51
1.585036
  0
ARC
  5
453
100
AcDbEntity
  8
2
100
AcDbCircle
 10
-242.646758
 20
-106.256662
 30
0.0
 40
31.0
100
AcDbArc
 50
265.13647
 51
356.38732
  0
ARC
  5
454
100
AcDbEntity
  8
2
100
AcDbCircle
 10
-246.146758
 20
-103.756662
 30
0.0
 40
15.0
100
AcDbArc
 50
23.267823
 51
154.780192
  0
LINE
  5
455
100
AcDbEntity
  8
2
100
AcDbLine
 10
-259.716955
 20
-97.365281
 30
0.0
 11
-264.235216
 21
-94.756662
 31
0.0
  0
LINE
  5
456
100
AcDbEntity
  8
2
100
AcDbLine
 10
-233.928823
 20
-98.399771
 30
0.0
 11
-230.170052
 21
-97.031691
 31
0.0
  0
ARC
  5
457
100
AcDbEntity
  8
2
100
AcDbCircle
 10
-248.646758
 20
-103.756662
 30
0.0
 40
18.0
100
AcDbArc
 50
20.0
 51
150.0
  0
LINE
  5
458
100
AcDbEntity
  8
2
100
AcDbLine
 10
-230.170052
 20
-97.031691
 30
0.0
 11
-230.646758
 21
-103.756662
 31
0.0
  0
LINE
  5
459
100
AcDbEntity
  8
2
100
AcDbLine
 10
-230.646758
 20
-103.756662
 30
0.0
 11
-233.928823
 21
-98.399771
 31
0.0
  0
TEXT
  5
45A
100
AcDbEntity
  8
2
100
AcDbText
 10
-235.162196
 20
-110.724906
 30
0.0
 40
6.0
  1
Ｓ
 41
1.4
 72
     5
 11
-228.442196
 21
-110.724906
 31
0.0
100
AcDbText
  0
LINE
  5
45B
100
AcDbEntity
  8
2
  6
CENTER
 62
     2
100
AcDbLine
 10
-246.646758
 20
-146.174266
 30
0.0
 11
-246.646758
 21
-54.92242
 31
0.0
  0
LINE
  5
45C
100
AcDbEntity
  8
2
  6
CENTER
 62
     2
100
AcDbLine
 10
-336.396758
 20
-146.174266
 30
0.0
 11
-336.396758
 21
-54.92242
 31
0.0
  0
LINE
  5
45D
100
AcDbEntity
  8
2
  6
CENTER
 62
     2
100
AcDbLine
 10
-199.788232
 20
-63.756662
 30
0.0
 11
-162.931699
 21
-63.756662
 31
0.0
  0
LINE
  5
45E
100
AcDbEntity
  8
2
  6
CENTER
 62
     2
100
AcDbLine
 10
-361.146758
 20
-78.006662
 30
0.0
 11
-361.146758
 21
-60.506662
 31
0.0
  0
LINE
  5
45F
100
AcDbEntity
  8
2
  6
CENTER
 62
     2
100
AcDbLine
 10
-363.146758
 20
-127.006662
 30
0.0
 11
-363.146758
 21
-144.506662
 31
0.0
  0
LINE
  5
460
100
AcDbEntity
  8
2
  6
CENTER
 62
     2
100
AcDbLine
 10
-371.896758
 20
-135.756662
 30
0.0
 11
-354.396758
 21
-135.756662
 31
0.0
  0
LINE
  5
461
100
AcDbEntity
  8
2
  6
CENTER
 62
     2
100
AcDbLine
 10
-312.396758
 20
-137.756662
 30
0.0
 11
-294.896758
 21
-137.756662
 31
0.0
  0
LINE
  5
462
100
AcDbEntity
  8
2
  6
CENTER
 62
     2
100
AcDbLine
 10
-303.646758
 20
-61.006662
 30
0.0
 11
-303.646758
 21
-78.506662
 31
0.0
  0
LINE
  5
463
100
AcDbEntity
  8
2
  6
CENTER
 62
     2
100
AcDbLine
 10
-312.396758
 20
-69.756662
 30
0.0
 11
-294.896758
 21
-69.756662
 31
0.0
  0
LINE
  5
464
100
AcDbEntity
  8
2
  6
CENTER
 62
     2
100
AcDbLine
 10
-222.146758
 20
-78.006662
 30
0.0
 11
-222.146758
 21
-60.506662
 31
0.0
  0
LINE
  5
465
100
AcDbEntity
  8
2
  6
CENTER
 62
     2
100
AcDbLine
 10
-352.396758
 20
-69.256662
 30
0.0
 11
-369.896758
 21
-69.256662
 31
0.0
  0
LINE
  5
466
100
AcDbEntity
  8
2
  6
CENTER
 62
     2
100
AcDbLine
 10
-384.102512
 20
-103.756662
 30
0.0
 11
-177.500019
 21
-103.756662
 31
0.0
  0
LINE
  5
467
100
AcDbEntity
  8
2
  6
CENTER
 62
     2
100
AcDbLine
 10
-230.896758
 20
-69.256662
 30
0.0
 11
-213.396758
 21
-69.256662
 31
0.0
  0
LINE
  5
468
100
AcDbEntity
  8
2
  6
CENTER
 62
     2
100
AcDbLine
 10
-228.896758
 20
-135.756662
 30
0.0
 11
-211.396758
 21
-135.756662
 31
0.0
  0
LINE
  5
469
100
AcDbEntity
  8
2
  6
CENTER
 62
     2
100
AcDbLine
 10
-303.646758
 20
-146.506662
 30
0.0
 11
-303.646758
 21
-129.006662
 31
0.0
  0
LINE
  5
46A
100
AcDbEntity
  8
2
  6
CENTER
 62
     2
100
AcDbLine
 10
-220.146758
 20
-127.006662
 30
0.0
 11
-220.146758
 21
-144.506662
 31
0.0
  0
LINE
  5
46B
100
AcDbEntity
  8
2
100
AcDbLine
 10
-182.146758
 20
290.743338
 30
0.0
 11
-181.146758
 21
289.743338
 31
0.0
  0
LINE
  5
46C
100
AcDbEntity
  8
2
100
AcDbLine
 10
-186.146758
 20
206.743338
 30
0.0
 11
-186.146758
 21
294.743338
 31
0.0
  0
ARC
  5
46D
100
AcDbEntity
  8
2
100
AcDbCircle
 10
-205.646758
 20
198.743338
 30
0.0
 40
2.0
100
AcDbArc
 50
143.237457
 51
180.0
  0
LINE
  5
46E
100
AcDbEntity
  8
2
100
AcDbLine
 10
-192.146758
 20
200.743338
 30
0.0
 11
-344.146758
 21
200.743338
 31
0.0
  0
ARC
  5
46F
100
AcDbEntity
  8
2
100
AcDbCircle
 10
-195.146758
 20
205.743338
 30
0.0
 40
5.0
100
AcDbArc
 50
270.0
 51
360.0
  0
LINE
  5
470
100
AcDbEntity
  8
2
100
AcDbLine
 10
-190.146758
 20
294.743338
 30
0.0
 11
-190.146758
 21
205.743338
 31
0.0
  0
LINE
  5
471
100
AcDbEntity
  8
2
100
AcDbLine
 10
-350.146758
 20
294.743338
 30
0.0
 11
-350.146758
 21
206.743338
 31
0.0
  0
ARC
  5
472
100
AcDbEntity
  8
2
100
AcDbCircle
 10
-344.146758
 20
206.743338
 30
0.0
 40
6.0
100
AcDbArc
 50
180.0
 51
270.0
  0
LINE
  5
473
100
AcDbEntity
  8
2
100
AcDbLine
 10
-350.146758
 20
206.743338
 30
0.0
 11
-350.146758
 21
209.743338
 31
0.0
  0
LINE
  5
474
100
AcDbEntity
  8
2
100
AcDbLine
 10
-348.264758
 20
300.743338
 30
0.0
 11
-192.146758
 21
300.743338
 31
0.0
  0
ARC
  5
475
100
AcDbEntity
  8
2
100
AcDbCircle
 10
-196.146758
 20
294.743338
 30
0.0
 40
6.0
100
AcDbArc
 50
0.0
 51
90.0
  0
ARC
  5
476
100
AcDbEntity
  8
2
100
AcDbCircle
 10
-344.146758
 20
294.743338
 30
0.0
 40
6.0
100
AcDbArc
 50
90.0
 51
180.0
  0
LINE
  5
477
100
AcDbEntity
  8
2
100
AcDbLine
 10
-207.646758
 20
198.743338
 30
0.0
 11
-207.646758
 21
195.743338
 31
0.0
  0
ARC
  5
478
100
AcDbEntity
  8
2
100
AcDbCircle
 10
-191.343758
 20
295.546338
 30
0.0
 40
6.0
100
AcDbArc
 50
0.0
 51
90.0
  0
ARC
  5
479
100
AcDbEntity
  8
2
100
AcDbCircle
 10
-356.946758
 20
257.743338
 30
0.0
 40
3.0
100
AcDbArc
 50
270.0
 51
333.38027
  0
ARC
  5
47A
100
AcDbEntity
  8
2
100
AcDbCircle
 10
-356.946758
 20
273.743338
 30
0.0
 40
3.0
100
AcDbArc
 50
270.0
 51
333.38027
  0
ARC
  5
47B
100
AcDbEntity
  8
2
100
AcDbCircle
 10
-356.946758
 20
261.743338
 30
0.0
 40
3.0
100
AcDbArc
 50
26.61973
 51
90.0
  0
ARC
  5
47C
100
AcDbEntity
  8
2
100
AcDbCircle
 10
-356.946758
 20
277.743338
 30
0.0
 40
3.0
100
AcDbArc
 50
26.61973
 51
90.0
  0
LINE
  5
47D
100
AcDbEntity
  8
2
 62
     2
100
AcDbLine
 10
-357.827758
 20
254.743338
 30
0.0
 11
-357.827758
 21
264.743338
 31
0.0
  0
LINE
  5
47E
100
AcDbEntity
  8
2
 62
     2
100
AcDbLine
 10
-357.827758
 20
270.743338
 30
0.0
 11
-357.827758
 21
280.743338
 31
0.0
  0
LINE
  5
47F
100
AcDbEntity
  8
2
 62
     2
100
AcDbLine
 10
-360.797758
 20
264.743338
 30
0.0
 11
-360.797758
 21
270.743338
 31
0.0
  0
LINE
  5
480
100
AcDbEntity
  8
2
 62
     2
100
AcDbLine
 10
-360.797758
 20
248.743338
 30
0.0
 11
-360.797758
 21
254.743338
 31
0.0
  0
LINE
  5
481
100
AcDbEntity
  8
2
100
AcDbLine
 10
-354.264758
 20
225.107729
 30
0.0
 11
-354.264758
 21
294.743338
 31
0.0
  0
ARC
  5
482
100
AcDbEntity
  8
2
100
AcDbCircle
 10
-348.264758
 20
294.743338
 30
0.0
 40
6.0
100
AcDbArc
 50
90.0
 51
180.0
  0
LINE
  5
483
100
AcDbEntity
  8
2
100
AcDbLine
 10
-369.146758
 20
280.743338
 30
0.0
 11
-356.946758
 21
280.743338
 31
0.0
  0
LINE
  5
484
100
AcDbEntity
  8
2
100
AcDbLine
 10
-368.146758
 20
270.743338
 30
0.0
 11
-356.946758
 21
270.743338
 31
0.0
  0
LINE
  5
485
100
AcDbEntity
  8
2
100
AcDbLine
 10
-368.146758
 20
264.743338
 30
0.0
 11
-356.946758
 21
264.743338
 31
0.0
  0
LINE
  5
486
100
AcDbEntity
  8
2
100
AcDbLine
 10
-368.146758
 20
254.743338
 30
0.0
 11
-356.946758
 21
254.743338
 31
0.0
  0
LINE
  5
487
100
AcDbEntity
  8
2
100
AcDbLine
 10
-366.396758
 20
279.743338
 30
0.0
 11
-366.396758
 21
271.743338
 31
0.0
  0
LINE
  5
488
100
AcDbEntity
  8
2
100
AcDbLine
 10
-366.396758
 20
263.743338
 30
0.0
 11
-366.396758
 21
255.743338
 31
0.0
  0
ARC
  5
489
100
AcDbEntity
  8
2
100
AcDbCircle
 10
-367.396758
 20
255.743338
 30
0.0
 40
1.0
100
AcDbArc
 50
270.0
 51
360.0
  0
ARC
  5
48A
100
AcDbEntity
  8
2
100
AcDbCircle
 10
-367.396758
 20
263.743338
 30
0.0
 40
1.0
100
AcDbArc
 50
0.0
 51
90.0
  0
ARC
  5
48B
100
AcDbEntity
  8
2
100
AcDbCircle
 10
-367.396758
 20
271.743338
 30
0.0
 40
1.0
100
AcDbArc
 50
270.0
 51
360.0
  0
ARC
  5
48C
100
AcDbEntity
  8
2
100
AcDbCircle
 10
-367.396758
 20
279.743338
 30
0.0
 40
1.0
100
AcDbArc
 50
0.0
 51
90.0
  0
ARC
  5
48D
100
AcDbEntity
  8
2
100
AcDbCircle
 10
-356.946758
 20
241.743338
 30
0.0
 40
3.0
100
AcDbArc
 50
270.0
 51
333.38027
  0
ARC
  5
48E
100
AcDbEntity
  8
2
100
AcDbCircle
 10
-356.946758
 20
229.743338
 30
0.0
 40
3.0
100
AcDbArc
 50
26.61973
 51
90.0
  0
ARC
  5
48F
100
AcDbEntity
  8
2
100
AcDbCircle
 10
-356.946758
 20
245.743338
 30
0.0
 40
3.0
100
AcDbArc
 50
26.61973
 51
90.0
  0
LINE
  5
490
100
AcDbEntity
  8
2
 62
     2
100
AcDbLine
 10
-357.827758
 20
222.243338
 30
0.0
 11
-357.827758
 21
232.743338
 31
0.0
  0
LINE
  5
491
100
AcDbEntity
  8
2
 62
     2
100
AcDbLine
 10
-357.827758
 20
238.743338
 30
0.0
 11
-357.827758
 21
248.743338
 31
0.0
  0
LINE
  5
492
100
AcDbEntity
  8
2
 62
     2
100
AcDbLine
 10
-360.797758
 20
232.743338
 30
0.0
 11
-360.797758
 21
238.743338
 31
0.0
  0
LINE
  5
493
100
AcDbEntity
  8
2
100
AcDbLine
 10
-356.372981
 20
222.243338
 30
0.0
 11
-370.146758
 21
222.243338
 31
0.0
  0
ARC
  5
494
100
AcDbEntity
  8
2
100
AcDbCircle
 10
-367.396758
 20
223.243338
 30
0.0
 40
1.0
100
AcDbArc
 50
270.0
 51
0.0
  0
LINE
  5
495
100
AcDbEntity
  8
2
100
AcDbLine
 10
-368.146758
 20
248.743338
 30
0.0
 11
-356.946758
 21
248.743338
 31
0.0
  0
LINE
  5
496
100
AcDbEntity
  8
2
100
AcDbLine
 10
-368.146758
 20
238.743338
 30
0.0
 11
-356.946758
 21
238.743338
 31
0.0
  0
LINE
  5
497
100
AcDbEntity
  8
2
100
AcDbLine
 10
-368.146758
 20
232.743338
 30
0.0
 11
-356.946758
 21
232.743338
 31
0.0
  0
LINE
  5
498
100
AcDbEntity
  8
2
100
AcDbLine
 10
-366.396758
 20
231.743338
 30
0.0
 11
-366.396758
 21
223.243338
 31
0.0
  0
LINE
  5
499
100
AcDbEntity
  8
2
100
AcDbLine
 10
-366.396758
 20
247.743338
 30
0.0
 11
-366.396758
 21
239.743338
 31
0.0
  0
ARC
  5
49A
100
AcDbEntity
  8
2
100
AcDbCircle
 10
-367.396758
 20
231.743338
 30
0.0
 40
1.0
100
AcDbArc
 50
360.0
 51
90.0
  0
ARC
  5
49B
100
AcDbEntity
  8
2
100
AcDbCircle
 10
-367.396758
 20
239.743338
 30
0.0
 40
1.0
100
AcDbArc
 50
270.0
 51
360.0
  0
ARC
  5
49C
100
AcDbEntity
  8
2
100
AcDbCircle
 10
-367.396758
 20
247.743338
 30
0.0
 40
1.0
100
AcDbArc
 50
0.0
 51
90.0
  0
LINE
  5
49D
100
AcDbEntity
  8
2
100
AcDbLine
 10
-191.343758
 20
199.940338
 30
0.0
 11
-375.146758
 21
199.940338
 31
0.0
  0
LINE
  5
49E
100
AcDbEntity
  8
2
100
AcDbLine
 10
-182.146758
 20
290.743338
 30
0.0
 11
-182.146758
 21
204.743338
 31
0.0
  0
LINE
  5
49F
100
AcDbEntity
  8
2
100
AcDbLine
 10
-181.146758
 20
205.743338
 30
0.0
 11
-182.146758
 21
204.743338
 31
0.0
  0
LINE
  5
4A0
100
AcDbEntity
  8
2
100
AcDbLine
 10
-181.146758
 20
205.743338
 30
0.0
 11
-181.146758
 21
289.743338
 31
0.0
  0
LINE
  5
4A1
100
AcDbEntity
  8
2
100
AcDbLine
 10
-186.146758
 20
290.743338
 30
0.0
 11
-182.146758
 21
290.743338
 31
0.0
  0
LINE
  5
4A2
100
AcDbEntity
  8
2
100
AcDbLine
 10
-186.489904
 20
204.743338
 30
0.0
 11
-182.146758
 21
204.743338
 31
0.0
  0
ARC
  5
4A3
100
AcDbEntity
  8
2
100
AcDbCircle
 10
-192.146758
 20
294.743338
 30
0.0
 40
6.0
100
AcDbArc
 50
0.0
 51
90.0
  0
ARC
  5
4A4
100
AcDbEntity
  8
2
100
AcDbCircle
 10
-191.343758
 20
205.940338
 30
0.0
 40
6.0
100
AcDbArc
 50
270.0
 51
348.492278
  0
ARC
  5
4A5
100
AcDbEntity
  8
2
100
AcDbCircle
 10
-192.146758
 20
206.743338
 30
0.0
 40
6.0
100
AcDbArc
 50
270.0
 51
360.0
  0
LINE
  5
4A6
100
AcDbEntity
  8
2
100
AcDbLine
 10
-354.798007
 20
301.546338
 30
0.0
 11
-191.343758
 21
301.546338
 31
0.0
  0
LINE
  5
4A7
100
AcDbEntity
  8
2
100
AcDbLine
 10
-185.343758
 20
295.546338
 30
0.0
 11
-185.343758
 21
290.743338
 31
0.0
  0
ARC
  5
4A8
100
AcDbEntity
  8
2
100
AcDbCircle
 10
-354.798007
 20
295.546338
 30
0.0
 40
6.0
100
AcDbArc
 50
90.0
 51
151.295513
  0
LINE
  5
4A9
100
AcDbEntity
  8
2
100
AcDbLine
 10
-365.121718
 20
289.185595
 30
0.0
 11
-360.060658
 21
298.428091
 31
0.0
  0
ARC
  5
4AA
100
AcDbEntity
  8
2
100
AcDbCircle
 10
-369.507261
 20
291.587056
 30
0.0
 40
5.0
100
AcDbArc
 50
283.105828
 51
331.295513
  0
LINE
  5
4AB
100
AcDbEntity
  8
2
 62
     2
100
AcDbLine
 10
-360.798007
 20
281.743338
 30
0.0
 11
-360.798007
 21
295.546338
 31
0.0
  0
ARC
  5
4AC
100
AcDbEntity
  8
2
100
AcDbCircle
 10
-354.798007
 20
205.940338
 30
0.0
 40
6.0
100
AcDbArc
 50
180.0
 51
270.0
  0
LINE
  5
4AD
100
AcDbEntity
  8
2
100
AcDbLine
 10
-360.798007
 20
205.940338
 30
0.0
 11
-360.798007
 21
217.243338
 31
0.0
  0
ARC
  5
4AE
100
AcDbEntity
  8
2
100
AcDbCircle
 10
-355.798007
 20
217.243338
 30
0.0
 40
5.0
100
AcDbArc
 50
100.564597
 51
180.0
  0
ARC
  5
4AF
100
AcDbEntity
  8
2
100
AcDbCircle
 10
-357.264758
 20
225.107729
 30
0.0
 40
3.0
100
AcDbArc
 50
280.564597
 51
360.0
  0
ARC
  5
4B0
100
AcDbEntity
  8
2
100
AcDbCircle
 10
-368.146758
 20
253.743338
 30
0.0
 40
1.0
100
AcDbArc
 50
90.0
 51
180.0
  0
ARC
  5
4B1
100
AcDbEntity
  8
2
100
AcDbCircle
 10
-368.146758
 20
265.743338
 30
0.0
 40
1.0
100
AcDbArc
 50
180.0
 51
270.0
  0
ARC
  5
4B2
100
AcDbEntity
  8
2
100
AcDbCircle
 10
-368.146758
 20
269.743338
 30
0.0
 40
1.0
100
AcDbArc
 50
90.0
 51
180.0
  0
ARC
  5
4B3
100
AcDbEntity
  8
2
100
AcDbCircle
 10
-368.146758
 20
281.743338
 30
0.0
 40
1.0
100
AcDbArc
 50
180.0
 51
270.0
  0
ARC
  5
4B4
100
AcDbEntity
  8
2
100
AcDbCircle
 10
-370.146758
 20
217.243338
 30
0.0
 40
5.0
100
AcDbArc
 50
90.0
 51
180.0
  0
ARC
  5
4B5
100
AcDbEntity
  8
2
100
AcDbCircle
 10
-368.146758
 20
233.743338
 30
0.0
 40
1.0
100
AcDbArc
 50
180.0
 51
270.0
  0
ARC
  5
4B6
100
AcDbEntity
  8
2
100
AcDbCircle
 10
-368.146758
 20
237.743338
 30
0.0
 40
1.0
100
AcDbArc
 50
90.0
 51
180.0
  0
ARC
  5
4B7
100
AcDbEntity
  8
2
100
AcDbCircle
 10
-368.146758
 20
249.743338
 30
0.0
 40
1.0
100
AcDbArc
 50
180.0
 51
270.0
  0
LINE
  5
4B8
100
AcDbEntity
  8
2
100
AcDbLine
 10
-375.146758
 20
217.243338
 30
0.0
 11
-375.146758
 21
195.743338
 31
0.0
  0
LINE
  5
4B9
100
AcDbEntity
  8
2
100
AcDbLine
 10
-375.146758
 20
195.743338
 30
0.0
 11
-207.646758
 21
195.743338
 31
0.0
  0
LINE
  5
4BA
100
AcDbEntity
  8
2
100
AcDbLine
 10
-207.646758
 20
195.743338
 30
0.0
 11
-375.146758
 21
195.743338
 31
0.0
  0
LINE
  5
4BB
100
AcDbEntity
  8
2
100
AcDbLine
 10
-369.146758
 20
222.243338
 30
0.0
 11
-369.146758
 21
285.743338
 31
0.0
  0
ARC
  5
4BC
100
AcDbEntity
  8
2
100
AcDbCircle
 10
-368.146758
 20
285.743338
 30
0.0
 40
1.0
100
AcDbArc
 50
103.105828
 51
180.0
  0
LINE
  5
4BD
100
AcDbEntity
  8
2
100
AcDbLine
 10
-344.146758
 20
300.743338
 30
0.0
 11
-196.146758
 21
300.743338
 31
0.0
  0
ARC
  5
4BE
100
AcDbEntity
  8
2
100
AcDbCircle
 10
-196.146758
 20
294.743338
 30
0.0
 40
6.0
100
AcDbArc
 50
0.0
 51
90.0
  0
ARC
  5
4BF
100
AcDbEntity
  8
2
100
AcDbCircle
 10
-344.146758
 20
294.743338
 30
0.0
 40
6.0
100
AcDbArc
 50
90.0
 51
180.0
  0
LINE
  5
4C0
100
AcDbEntity
  8
2
100
AcDbLine
 10
-190.146758
 20
294.743338
 30
0.0
 11
-190.146758
 21
206.743338
 31
0.0
  0
LINE
  5
4C1
100
AcDbEntity
  8
2
100
AcDbLine
 10
-350.146758
 20
206.743338
 30
0.0
 11
-350.146758
 21
294.743338
 31
0.0
  0
ARC
  5
4C2
100
AcDbEntity
  8
2
100
AcDbCircle
 10
-196.146758
 20
206.743338
 30
0.0
 40
6.0
100
AcDbArc
 50
270.0
 51
360.0
  0
ARC
  5
4C3
100
AcDbEntity
  8
2
100
AcDbCircle
 10
-344.146758
 20
206.743338
 30
0.0
 40
6.0
100
AcDbArc
 50
180.0
 51
270.0
  0
CIRCLE
  5
4C4
100
AcDbEntity
  8
2
100
AcDbCircle
 10
-275.146758
 20
247.743338
 30
0.0
 40
42.5
  0
LINE
  5
4C5
100
AcDbEntity
  8
2
100
AcDbLine
 10
-305.568954
 20
255.243338
 30
0.0
 11
-284.631711
 21
255.243338
 31
0.0
  0
LINE
  5
4C6
100
AcDbEntity
  8
2
100
AcDbLine
 10
-305.568954
 20
240.243338
 30
0.0
 11
-284.631711
 21
240.243338
 31
0.0
  0
LINE
  5
4C7
100
AcDbEntity
  8
2
100
AcDbLine
 10
-265.661806
 20
240.243338
 30
0.0
 11
-244.724562
 21
240.243338
 31
0.0
  0
LINE
  5
4C8
100
AcDbEntity
  8
2
100
AcDbLine
 10
-273.146758
 20
225.720863
 30
0.0
 11
-273.146758
 21
223.577246
 31
0.0
  0
LINE
  5
4C9
100
AcDbEntity
  8
2
100
AcDbLine
 10
-277.146758
 20
225.720863
 30
0.0
 11
-277.146758
 21
223.577246
 31
0.0
  0
LINE
  5
4CA
100
AcDbEntity
  8
2
100
AcDbLine
 10
-273.146758
 20
269.765813
 30
0.0
 11
-273.146758
 21
271.90943
 31
0.0
  0
LINE
  5
4CB
100
AcDbEntity
  8
2
100
AcDbLine
 10
-277.146758
 20
269.765813
 30
0.0
 11
-277.146758
 21
271.90943
 31
0.0
  0
LINE
  5
4CC
100
AcDbEntity
  8
2
100
AcDbLine
 10
-265.661806
 20
255.243338
 30
0.0
 11
-244.724562
 21
255.243338
 31
0.0
  0
LINE
  5
4CD
100
AcDbEntity
  8
2
100
AcDbLine
 10
-344.146758
 20
200.743338
 30
0.0
 11
-196.146758
 21
200.743338
 31
0.0
  0
LINE
  5
4CE
100
AcDbEntity
  8
2
100
AcDbLine
 10
-191.634066
 20
214.743338
 30
0.0
 11
-191.634066
 21
286.743338
 31
0.0
  0
LINE
  5
4CF
100
AcDbEntity
  8
2
100
AcDbLine
 10
-343.959264
 20
214.743338
 30
0.0
 11
-343.959264
 21
286.743338
 31
0.0
  0
LINE
  5
4D0
100
AcDbEntity
  8
2
100
AcDbLine
 10
-348.146758
 20
288.743338
 30
0.0
 11
-342.146758
 21
288.743338
 31
0.0
  0
LINE
  5
4D1
100
AcDbEntity
  8
2
100
AcDbLine
 10
-196.146758
 20
288.743338
 30
0.0
 11
-192.146758
 21
288.743338
 31
0.0
  0
LINE
  5
4D2
100
AcDbEntity
  8
2
100
AcDbLine
 10
-336.146758
 20
202.743338
 30
0.0
 11
-336.146758
 21
206.743338
 31
0.0
  0
LINE
  5
4D3
100
AcDbEntity
  8
2
100
AcDbLine
 10
-336.146758
 20
294.743338
 30
0.0
 11
-336.146758
 21
298.743338
 31
0.0
  0
LINE
  5
4D4
100
AcDbEntity
  8
2
100
AcDbLine
 10
-348.146758
 20
212.743338
 30
0.0
 11
-342.146758
 21
212.743338
 31
0.0
  0
LINE
  5
4D5
100
AcDbEntity
  8
2
100
AcDbLine
 10
-196.146758
 20
212.743338
 30
0.0
 11
-192.146758
 21
212.743338
 31
0.0
  0
LINE
  5
4D6
100
AcDbEntity
  8
2
100
AcDbLine
 10
-202.146758
 20
202.743338
 30
0.0
 11
-202.146758
 21
206.743338
 31
0.0
  0
LINE
  5
4D7
100
AcDbEntity
  8
2
100
AcDbLine
 10
-202.146758
 20
294.743338
 30
0.0
 11
-202.146758
 21
298.743338
 31
0.0
  0
ARC
  5
4D8
100
AcDbEntity
  8
2
100
AcDbCircle
 10
-196.146758
 20
294.743338
 30
0.0
 40
6.0
100
AcDbArc
 50
180.0
 51
270.0
  0
ARC
  5
4D9
100
AcDbEntity
  8
2
100
AcDbCircle
 10
-342.146758
 20
294.743338
 30
0.0
 40
6.0
100
AcDbArc
 50
270.0
 51
360.0
  0
ARC
  5
4DA
100
AcDbEntity
  8
2
100
AcDbCircle
 10
-342.146758
 20
206.743338
 30
0.0
 40
6.0
100
AcDbArc
 50
0.0
 51
90.0
  0
ARC
  5
4DB
100
AcDbEntity
  8
2
100
AcDbCircle
 10
-196.146758
 20
206.743338
 30
0.0
 40
6.0
100
AcDbArc
 50
90.0
 51
180.0
  0
LINE
  5
4DC
100
AcDbEntity
  8
2
100
AcDbLine
 10
-334.146758
 20
299.256338
 30
0.0
 11
-204.146758
 21
299.256338
 31
0.0
  0
LINE
  5
4DD
100
AcDbEntity
  8
2
100
AcDbLine
 10
-334.146758
 20
202.230338
 30
0.0
 11
-204.146758
 21
202.230338
 31
0.0
  0
CIRCLE
  5
4DE
100
AcDbEntity
  8
2
100
AcDbCircle
 10
-275.146758
 20
247.743338
 30
0.0
 40
31.33305
  0
ARC
  5
4DF
100
AcDbEntity
  8
2
100
AcDbCircle
 10
-312.571367
 20
248.070187
 30
0.0
 40
45.0
100
AcDbArc
 50
12.236103
 51
30.645688
  0
ARC
  5
4E0
100
AcDbEntity
  8
2
100
AcDbCircle
 10
-237.722149
 20
248.070187
 30
0.0
 40
45.0
100
AcDbArc
 50
149.354312
 51
167.763897
  0
ARC
  5
4E1
100
AcDbEntity
  8
2
100
AcDbCircle
 10
-275.146758
 20
270.243338
 30
0.0
 40
1.5
100
AcDbArc
 50
30.645688
 51
149.354312
  0
ARC
  5
4E2
100
AcDbEntity
  8
2
100
AcDbCircle
 10
-265.661806
 20
258.243338
 30
0.0
 40
3.0
100
AcDbArc
 50
192.236103
 51
270.0
  0
ARC
  5
4E3
100
AcDbEntity
  8
2
100
AcDbCircle
 10
-284.631711
 20
258.243338
 30
0.0
 40
3.0
100
AcDbArc
 50
270.0
 51
347.763897
  0
ARC
  5
4E4
100
AcDbEntity
  8
2
100
AcDbCircle
 10
-312.571367
 20
247.416489
 30
0.0
 40
45.0
100
AcDbArc
 50
329.354312
 51
347.763897
  0
ARC
  5
4E5
100
AcDbEntity
  8
2
100
AcDbCircle
 10
-237.722149
 20
247.416489
 30
0.0
 40
45.0
100
AcDbArc
 50
192.236103
 51
210.645688
  0
ARC
  5
4E6
100
AcDbEntity
  8
2
100
AcDbCircle
 10
-275.146758
 20
225.243338
 30
0.0
 40
1.5
100
AcDbArc
 50
210.645688
 51
329.354312
  0
ARC
  5
4E7
100
AcDbEntity
  8
2
100
AcDbCircle
 10
-265.661806
 20
237.243338
 30
0.0
 40
3.0
100
AcDbArc
 50
90.0
 51
167.763897
  0
ARC
  5
4E8
100
AcDbEntity
  8
2
100
AcDbCircle
 10
-284.631711
 20
237.243338
 30
0.0
 40
3.0
100
AcDbArc
 50
12.236103
 51
90.0
  0
ARC
  5
4E9
100
AcDbEntity
  8
2
100
AcDbCircle
 10
-275.146758
 20
247.743338
 30
0.0
 40
24.248711
100
AcDbArc
 50
18.016736
 51
161.983264
  0
ARC
  5
4EA
100
AcDbEntity
  8
2
100
AcDbCircle
 10
-275.146758
 20
247.743338
 30
0.0
 40
24.248711
100
AcDbArc
 50
198.016736
 51
341.983264
  0
ARC
  5
4EB
100
AcDbEntity
  8
2
100
AcDbCircle
 10
-192.146758
 20
286.743338
 30
0.0
 40
2.0
100
AcDbArc
 50
0.0
 51
90.0
  0
ARC
  5
4EC
100
AcDbEntity
  8
2
100
AcDbCircle
 10
-204.146758
 20
298.743338
 30
0.0
 40
2.0
100
AcDbArc
 50
0.0
 51
90.0
  0
ARC
  5
4ED
100
AcDbEntity
  8
2
100
AcDbCircle
 10
-192.146758
 20
214.743338
 30
0.0
 40
2.0
100
AcDbArc
 50
270.0
 51
360.0
  0
ARC
  5
4EE
100
AcDbEntity
  8
2
100
AcDbCircle
 10
-204.146758
 20
202.743338
 30
0.0
 40
2.0
100
AcDbArc
 50
270.0
 51
360.0
  0
ARC
  5
4EF
100
AcDbEntity
  8
2
100
AcDbCircle
 10
-334.146758
 20
202.743338
 30
0.0
 40
2.0
100
AcDbArc
 50
180.0
 51
270.0
  0
ARC
  5
4F0
100
AcDbEntity
  8
2
100
AcDbCircle
 10
-348.146758
 20
214.743338
 30
0.0
 40
2.0
100
AcDbArc
 50
180.0
 51
270.0
  0
ARC
  5
4F1
100
AcDbEntity
  8
2
100
AcDbCircle
 10
-334.146758
 20
298.743338
 30
0.0
 40
2.0
100
AcDbArc
 50
90.0
 51
180.0
  0
ARC
  5
4F2
100
AcDbEntity
  8
2
100
AcDbCircle
 10
-348.146758
 20
286.743338
 30
0.0
 40
2.0
100
AcDbArc
 50
90.0
 51
180.0
  0
LINE
  5
4F3
100
AcDbEntity
  8
2
 62
     2
100
AcDbLine
 10
-276.007616
 20
271.976764
 30
0.0
 11
-277.146758
 21
270.837622
 31
0.0
  0
LINE
  5
4F4
100
AcDbEntity
  8
2
 62
     2
100
AcDbLine
 10
-277.146758
 20
270.837622
 30
0.0
 11
-277.146758
 21
270.837622
 31
0.0
  0
LINE
  5
4F5
100
AcDbEntity
  8
2
 62
     2
100
AcDbLine
 10
-275.143802
 20
271.992049
 30
0.0
 11
-275.417071
 21
271.718781
 31
0.0
  0
LINE
  5
4F6
100
AcDbEntity
  8
2
 62
     2
100
AcDbLine
 10
-276.864047
 20
270.271805
 30
0.0
 11
-277.146758
 21
269.989094
 31
0.0
  0
LINE
  5
4F7
100
AcDbEntity
  8
2
 62
     2
100
AcDbLine
 10
-277.146758
 20
269.989094
 30
0.0
 11
-277.146758
 21
269.989094
 31
0.0
  0
LINE
  5
4F8
100
AcDbEntity
  8
2
 62
     2
100
AcDbLine
 10
-274.309725
 20
271.977599
 30
0.0
 11
-274.634255
 21
271.653069
 31
0.0
  0
LINE
  5
4F9
100
AcDbEntity
  8
2
 62
     2
100
AcDbLine
 10
-273.502554
 20
271.936242
 30
0.0
 11
-274.110727
 21
271.328068
 31
0.0
  0
LINE
  5
4FA
100
AcDbEntity
  8
2
 62
     2
100
AcDbLine
 10
-273.146758
 20
271.443509
 30
0.0
 11
-273.754669
 21
270.835598
 31
0.0
  0
LINE
  5
4FB
100
AcDbEntity
  8
2
 62
     2
100
AcDbLine
 10
-273.146758
 20
270.594981
 30
0.0
 11
-273.444122
 21
270.297617
 31
0.0
  0
LINE
  5
4FC
100
AcDbEntity
  8
2
 62
     2
100
AcDbLine
 10
-276.904662
 20
271.928246
 30
0.0
 11
-277.146758
 21
271.68615
 31
0.0
  0
LINE
  5
4FD
100
AcDbEntity
  8
2
 62
     2
100
AcDbLine
 10
-277.146758
 20
271.68615
 30
0.0
 11
-277.146758
 21
271.68615
 31
0.0
  0
LINE
  5
4FE
100
AcDbEntity
  8
2
 62
     2
100
AcDbLine
 10
-276.761234
 20
225.034579
 30
0.0
 11
-277.146758
 21
224.649055
 31
0.0
  0
LINE
  5
4FF
100
AcDbEntity
  8
2
 62
     2
100
AcDbLine
 10
-277.146758
 20
224.649055
 30
0.0
 11
-277.146758
 21
224.649055
 31
0.0
  0
LINE
  5
500
100
AcDbEntity
  8
2
 62
     2
100
AcDbLine
 10
-276.448894
 20
224.498391
 30
0.0
 11
-277.146758
 21
223.800527
 31
0.0
  0
LINE
  5
501
100
AcDbEntity
  8
2
 62
     2
100
AcDbLine
 10
-277.146758
 20
223.800527
 30
0.0
 11
-277.146758
 21
223.800527
 31
0.0
  0
LINE
  5
502
100
AcDbEntity
  8
2
 62
     2
100
AcDbLine
 10
-276.562751
 20
223.536005
 30
0.0
 11
-276.051698
 21
224.047059
 31
0.0
  0
LINE
  5
503
100
AcDbEntity
  8
2
 62
     2
100
AcDbLine
 10
-275.748143
 20
223.502085
 30
0.0
 11
-275.47135
 21
223.778879
 31
0.0
  0
LINE
  5
504
100
AcDbEntity
  8
2
 62
     2
100
AcDbLine
 10
-273.146758
 20
225.254942
 30
0.0
 11
-273.760413
 21
224.641287
 31
0.0
  0
LINE
  5
505
100
AcDbEntity
  8
2
 62
     2
100
AcDbLine
 10
-274.522114
 20
223.879586
 30
0.0
 11
-274.905877
 21
223.495823
 31
0.0
  0
LINE
  5
506
100
AcDbEntity
  8
2
 62
     2
100
AcDbLine
 10
-274.032952
 20
223.52022
 30
0.0
 11
-273.146758
 21
224.406414
 31
0.0
  0
LINE
  5
507
100
AcDbEntity
  8
2
 62
     2
100
AcDbLine
 10
-277.06728
 20
225.577061
 30
0.0
 11
-277.146758
 21
225.497583
 31
0.0
  0
LINE
  5
508
100
AcDbEntity
  8
2
 62
     2
100
AcDbLine
 10
-277.146758
 20
225.497583
 30
0.0
 11
-277.146758
 21
225.497583
 31
0.0
  0
LINE
  5
509
100
AcDbEntity
  8
2
100
AcDbLine
 10
-283.962426
 20
225.153871
 30
0.0
 11
-281.963557
 21
229.979568
 31
0.0
  0
LINE
  5
50A
100
AcDbEntity
  8
2
100
AcDbLine
 10
-267.40608
 20
265.124425
 30
0.0
 11
-265.407211
 21
269.950122
 31
0.0
  0
LINE
  5
50B
100
AcDbEntity
  8
2
100
AcDbLine
 10
-284.886305
 20
225.536555
 30
0.0
 11
-282.887436
 21
230.362252
 31
0.0
  0
LINE
  5
50C
100
AcDbEntity
  8
2
100
AcDbLine
 10
-268.32996
 20
265.507108
 30
0.0
 11
-266.331091
 21
270.332805
 31
0.0
  0
LINE
  5
50D
100
AcDbEntity
  8
2
100
AcDbLine
 10
-291.935988
 20
230.247002
 30
0.0
 11
-288.242559
 21
233.940431
 31
0.0
  0
LINE
  5
50E
100
AcDbEntity
  8
2
100
AcDbLine
 10
-261.343851
 20
260.839139
 30
0.0
 11
-257.650422
 21
264.532568
 31
0.0
  0
LINE
  5
50F
100
AcDbEntity
  8
2
100
AcDbLine
 10
-292.643094
 20
230.954109
 30
0.0
 11
-288.949666
 21
234.647537
 31
0.0
  0
LINE
  5
510
100
AcDbEntity
  8
2
100
AcDbLine
 10
-262.050957
 20
261.546246
 30
0.0
 11
-258.357529
 21
265.239674
 31
0.0
  0
LINE
  5
511
100
AcDbEntity
  8
2
100
AcDbLine
 10
-297.353542
 20
238.003791
 30
0.0
 11
-292.527845
 21
240.00266
 31
0.0
  0
LINE
  5
512
100
AcDbEntity
  8
2
100
AcDbLine
 10
-255.733594
 20
255.243338
 30
0.0
 11
-252.557292
 21
256.559006
 31
0.0
  0
LINE
  5
513
100
AcDbEntity
  8
2
100
AcDbLine
 10
-297.736225
 20
238.927671
 30
0.0
 11
-294.559923
 21
240.243338
 31
0.0
  0
LINE
  5
514
100
AcDbEntity
  8
2
100
AcDbLine
 10
-257.765672
 20
255.484016
 30
0.0
 11
-252.939975
 21
257.482885
 31
0.0
  0
ARC
  5
515
100
AcDbEntity
  8
2
100
AcDbCircle
 10
-282.425496
 20
230.17091
 30
0.0
 40
0.5
100
AcDbArc
 50
337.5
 51
157.5
  0
ARC
  5
516
100
AcDbEntity
  8
2
100
AcDbCircle
 10
-288.596113
 20
234.293984
 30
0.0
 40
0.5
100
AcDbArc
 50
315.0
 51
135.0
  0
ARC
  5
517
100
AcDbEntity
  8
2
100
AcDbCircle
 10
-292.719186
 20
240.4646
 30
0.0
 40
0.5
100
AcDbArc
 50
292.5
 51
333.734975
  0
ARC
  5
518
100
AcDbEntity
  8
2
100
AcDbCircle
 10
-267.86802
 20
265.315766
 30
0.0
 40
0.5
100
AcDbArc
 50
157.5
 51
337.5
  0
ARC
  5
519
100
AcDbEntity
  8
2
100
AcDbCircle
 10
-261.697404
 20
261.192692
 30
0.0
 40
0.5
100
AcDbArc
 50
135.0
 51
315.0
  0
ARC
  5
51A
100
AcDbEntity
  8
2
100
AcDbCircle
 10
-257.57433
 20
255.022076
 30
0.0
 40
0.5
100
AcDbArc
 50
112.5
 51
153.734975
  0
LINE
  5
51B
100
AcDbEntity
  8
2
 62
     2
100
AcDbLine
 10
-267.280144
 20
268.041588
 30
0.0
 11
-266.406646
 21
267.537273
 31
0.0
  0
LINE
  5
51C
100
AcDbEntity
  8
2
 62
     2
100
AcDbLine
 10
-266.406646
 20
267.537273
 30
0.0
 11
-266.406646
 21
267.537273
 31
0.0
  0
LINE
  5
51D
100
AcDbEntity
  8
2
 62
     2
100
AcDbLine
 10
-267.048553
 20
268.600699
 30
0.0
 11
-266.175055
 21
268.096384
 31
0.0
  0
LINE
  5
51E
100
AcDbEntity
  8
2
 62
     2
100
AcDbLine
 10
-266.175055
 20
268.096384
 30
0.0
 11
-266.175055
 21
268.096384
 31
0.0
  0
LINE
  5
51F
100
AcDbEntity
  8
2
 62
     2
100
AcDbLine
 10
-266.816961
 20
269.15981
 30
0.0
 11
-265.943463
 21
268.655495
 31
0.0
  0
LINE
  5
520
100
AcDbEntity
  8
2
 62
     2
100
AcDbLine
 10
-265.943463
 20
268.655495
 30
0.0
 11
-265.943463
 21
268.655495
 31
0.0
  0
LINE
  5
521
100
AcDbEntity
  8
2
 62
     2
100
AcDbLine
 10
-266.58537
 20
269.718921
 30
0.0
 11
-265.711872
 21
269.214606
 31
0.0
  0
LINE
  5
522
100
AcDbEntity
  8
2
 62
     2
100
AcDbLine
 10
-265.711872
 20
269.214606
 30
0.0
 11
-265.711872
 21
269.214606
 31
0.0
  0
LINE
  5
523
100
AcDbEntity
  8
2
 62
     2
100
AcDbLine
 10
-266.353779
 20
270.278032
 30
0.0
 11
-265.48028
 21
269.773717
 31
0.0
  0
LINE
  5
524
100
AcDbEntity
  8
2
 62
     2
100
AcDbLine
 10
-265.48028
 20
269.773717
 30
0.0
 11
-265.48028
 21
269.773717
 31
0.0
  0
LINE
  5
525
100
AcDbEntity
  8
2
 62
     2
100
AcDbLine
 10
-267.511736
 20
267.482477
 30
0.0
 11
-266.638237
 21
266.978162
 31
0.0
  0
LINE
  5
526
100
AcDbEntity
  8
2
 62
     2
100
AcDbLine
 10
-266.638237
 20
266.978162
 30
0.0
 11
-266.638237
 21
266.978162
 31
0.0
  0
LINE
  5
527
100
AcDbEntity
  8
2
 62
     2
100
AcDbLine
 10
-267.743327
 20
266.923366
 30
0.0
 11
-266.869829
 21
266.419051
 31
0.0
  0
LINE
  5
528
100
AcDbEntity
  8
2
 62
     2
100
AcDbLine
 10
-266.869829
 20
266.419051
 30
0.0
 11
-266.869829
 21
266.419051
 31
0.0
  0
LINE
  5
529
100
AcDbEntity
  8
2
 62
     2
100
AcDbLine
 10
-267.974918
 20
266.364255
 30
0.0
 11
-267.10142
 21
265.85994
 31
0.0
  0
LINE
  5
52A
100
AcDbEntity
  8
2
 62
     2
100
AcDbLine
 10
-267.10142
 20
265.85994
 30
0.0
 11
-267.10142
 21
265.85994
 31
0.0
  0
LINE
  5
52B
100
AcDbEntity
  8
2
 62
     2
100
AcDbLine
 10
-268.20651
 20
265.805144
 30
0.0
 11
-267.333011
 21
265.300829
 31
0.0
  0
LINE
  5
52C
100
AcDbEntity
  8
2
 62
     2
100
AcDbLine
 10
-267.333011
 20
265.300829
 30
0.0
 11
-267.333011
 21
265.300829
 31
0.0
  0
LINE
  5
52D
100
AcDbEntity
  8
2
 62
     2
100
AcDbLine
 10
-268.353798
 20
265.19736
 30
0.0
 11
-267.727674
 21
264.835867
 31
0.0
  0
LINE
  5
52E
100
AcDbEntity
  8
2
 62
     2
100
AcDbLine
 10
-260.393712
 20
263.203491
 30
0.0
 11
-259.497136
 21
262.685853
 31
0.0
  0
LINE
  5
52F
100
AcDbEntity
  8
2
 62
     2
100
AcDbLine
 10
-259.497136
 20
262.685853
 30
0.0
 11
-259.497136
 21
262.685853
 31
0.0
  0
LINE
  5
530
100
AcDbEntity
  8
2
 62
     2
100
AcDbLine
 10
-259.954481
 20
263.642722
 30
0.0
 11
-259.057906
 21
263.125084
 31
0.0
  0
LINE
  5
531
100
AcDbEntity
  8
2
 62
     2
100
AcDbLine
 10
-259.057906
 20
263.125084
 30
0.0
 11
-259.057906
 21
263.125084
 31
0.0
  0
LINE
  5
532
100
AcDbEntity
  8
2
 62
     2
100
AcDbLine
 10
-259.515251
 20
264.081952
 30
0.0
 11
-258.618675
 21
263.564314
 31
0.0
  0
LINE
  5
533
100
AcDbEntity
  8
2
 62
     2
100
AcDbLine
 10
-258.618675
 20
263.564314
 30
0.0
 11
-258.618675
 21
263.564314
 31
0.0
  0
LINE
  5
534
100
AcDbEntity
  8
2
 62
     2
100
AcDbLine
 10
-259.07602
 20
264.521183
 30
0.0
 11
-258.179445
 21
264.003545
 31
0.0
  0
LINE
  5
535
100
AcDbEntity
  8
2
 62
     2
100
AcDbLine
 10
-258.179445
 20
264.003545
 30
0.0
 11
-258.179445
 21
264.003545
 31
0.0
  0
LINE
  5
536
100
AcDbEntity
  8
2
 62
     2
100
AcDbLine
 10
-258.63679
 20
264.960413
 30
0.0
 11
-257.740214
 21
264.442775
 31
0.0
  0
LINE
  5
537
100
AcDbEntity
  8
2
 62
     2
100
AcDbLine
 10
-257.740214
 20
264.442775
 30
0.0
 11
-257.740214
 21
264.442775
 31
0.0
  0
LINE
  5
538
100
AcDbEntity
  8
2
 62
     2
100
AcDbLine
 10
-260.832942
 20
262.764261
 30
0.0
 11
-259.936367
 21
262.246623
 31
0.0
  0
LINE
  5
539
100
AcDbEntity
  8
2
 62
     2
100
AcDbLine
 10
-259.936367
 20
262.246623
 30
0.0
 11
-259.936367
 21
262.246623
 31
0.0
  0
LINE
  5
53A
100
AcDbEntity
  8
2
 62
     2
100
AcDbLine
 10
-261.272173
 20
262.32503
 30
0.0
 11
-260.375597
 21
261.807392
 31
0.0
  0
LINE
  5
53B
100
AcDbEntity
  8
2
 62
     2
100
AcDbLine
 10
-260.375597
 20
261.807392
 30
0.0
 11
-260.375597
 21
261.807392
 31
0.0
  0
LINE
  5
53C
100
AcDbEntity
  8
2
 62
     2
100
AcDbLine
 10
-261.711403
 20
261.8858
 30
0.0
 11
-260.814828
 21
261.368162
 31
0.0
  0
LINE
  5
53D
100
AcDbEntity
  8
2
 62
     2
100
AcDbLine
 10
-260.814828
 20
261.368162
 30
0.0
 11
-260.814828
 21
261.368162
 31
0.0
  0
LINE
  5
53E
100
AcDbEntity
  8
2
 62
     2
100
AcDbLine
 10
-262.133753
 20
261.436823
 30
0.0
 11
-261.254058
 21
260.928931
 31
0.0
  0
LINE
  5
53F
100
AcDbEntity
  8
2
 62
     2
100
AcDbLine
 10
-261.254058
 20
260.928931
 30
0.0
 11
-261.254058
 21
260.928931
 31
0.0
  0
LINE
  5
540
100
AcDbEntity
  8
2
 62
     2
100
AcDbLine
 10
-255.237044
 20
256.531408
 30
0.0
 11
-254.145443
 21
255.901172
 31
0.0
  0
LINE
  5
541
100
AcDbEntity
  8
2
 62
     2
100
AcDbLine
 10
-254.145443
 20
255.901172
 30
0.0
 11
-254.145443
 21
255.901172
 31
0.0
  0
LINE
  5
542
100
AcDbEntity
  8
2
 62
     2
100
AcDbLine
 10
-254.538329
 20
256.820825
 30
0.0
 11
-253.446728
 21
256.190589
 31
0.0
  0
LINE
  5
543
100
AcDbEntity
  8
2
 62
     2
100
AcDbLine
 10
-253.446728
 20
256.190589
 30
0.0
 11
-253.446728
 21
256.190589
 31
0.0
  0
LINE
  5
544
100
AcDbEntity
  8
2
 62
     2
100
AcDbLine
 10
-253.839614
 20
257.110242
 30
0.0
 11
-252.748013
 21
256.480006
 31
0.0
  0
LINE
  5
545
100
AcDbEntity
  8
2
 62
     2
100
AcDbLine
 10
-252.748013
 20
256.480006
 30
0.0
 11
-252.748013
 21
256.480006
 31
0.0
  0
LINE
  5
546
100
AcDbEntity
  8
2
 62
     2
100
AcDbLine
 10
-252.825486
 20
257.217555
 30
0.0
 11
-253.140899
 21
257.39966
 31
0.0
  0
LINE
  5
547
100
AcDbEntity
  8
2
 62
     2
100
AcDbLine
 10
-255.935758
 20
256.241991
 30
0.0
 11
-254.844157
 21
255.611755
 31
0.0
  0
LINE
  5
548
100
AcDbEntity
  8
2
 62
     2
100
AcDbLine
 10
-254.844157
 20
255.611755
 30
0.0
 11
-254.844157
 21
255.611755
 31
0.0
  0
LINE
  5
549
100
AcDbEntity
  8
2
 62
     2
100
AcDbLine
 10
-256.634473
 20
255.952574
 30
0.0
 11
-255.542872
 21
255.322338
 31
0.0
  0
LINE
  5
54A
100
AcDbEntity
  8
2
 62
     2
100
AcDbLine
 10
-255.542872
 20
255.322338
 30
0.0
 11
-255.542872
 21
255.322338
 31
0.0
  0
LINE
  5
54B
100
AcDbEntity
  8
2
 62
     2
100
AcDbLine
 10
-257.333188
 20
255.663157
 30
0.0
 11
-256.606041
 21
255.243338
 31
0.0
  0
LINE
  5
54C
100
AcDbEntity
  8
2
 62
     2
100
AcDbLine
 10
-257.964461
 20
255.334802
 30
0.0
 11
-257.806041
 21
255.243338
 31
0.0
  0
LINE
  5
54D
100
AcDbEntity
  8
2
100
AcDbLine
 10
-258.345394
 20
238.889644
 30
0.0
 11
-256.323348
 21
238.052085
 31
0.0
  0
ARC
  5
54E
100
AcDbEntity
  8
2
100
AcDbCircle
 10
-257.675643
 20
240.506565
 30
0.0
 40
1.750143
100
AcDbArc
 50
188.650293
 51
247.5
  0
ARC
  5
54F
100
AcDbEntity
  8
2
100
AcDbCircle
 10
-255.653598
 20
239.669007
 30
0.0
 40
1.750143
100
AcDbArc
 50
247.5
 51
19.157293
  0
LINE
  5
550
100
AcDbEntity
  8
2
100
AcDbLine
 10
-258.193434
 20
239.184217
 30
0.0
 11
-256.15708
 21
238.382075
 31
0.0
  0
ARC
  5
551
100
AcDbEntity
  8
2
100
AcDbCircle
 10
-257.552005
 20
240.812581
 30
0.0
 40
1.750143
100
AcDbArc
 50
198.98101
 51
248.5
  0
ARC
  5
552
100
AcDbEntity
  8
2
100
AcDbCircle
 10
-255.51565
 20
240.010439
 30
0.0
 40
1.750143
100
AcDbArc
 50
248.5
 51
7.647286
  0
LINE
  5
553
100
AcDbEntity
  8
2
100
AcDbLine
 10
-258.502471
 20
238.597768
 30
0.0
 11
-256.495351
 21
237.725048
 31
0.0
  0
ARC
  5
554
100
AcDbEntity
  8
2
100
AcDbCircle
 10
-257.804603
 20
240.202755
 30
0.0
 40
1.750143
100
AcDbArc
 50
178.671261
 51
246.5
  0
ARC
  5
555
100
AcDbEntity
  8
2
100
AcDbCircle
 10
-255.797483
 20
239.330034
 30
0.0
 40
1.750143
100
AcDbArc
 50
246.5
 51
31.45613
  0
LINE
  5
556
100
AcDbEntity
  8
2
100
AcDbLine
 10
-291.948123
 20
256.597032
 30
0.0
 11
-293.970168
 21
257.434591
 31
0.0
  0
ARC
  5
557
100
AcDbEntity
  8
2
100
AcDbCircle
 10
-292.617874
 20
254.980111
 30
0.0
 40
1.750143
100
AcDbArc
 50
8.650293
 51
67.5
  0
ARC
  5
558
100
AcDbEntity
  8
2
100
AcDbCircle
 10
-294.639919
 20
255.81767
 30
0.0
 40
1.750143
100
AcDbArc
 50
67.5
 51
199.157293
  0
LINE
  5
559
100
AcDbEntity
  8
2
100
AcDbLine
 10
-292.100082
 20
256.30246
 30
0.0
 11
-294.136437
 21
257.104601
 31
0.0
  0
ARC
  5
55A
100
AcDbEntity
  8
2
100
AcDbCircle
 10
-292.741512
 20
254.674096
 30
0.0
 40
1.750143
100
AcDbArc
 50
18.98101
 51
68.5
  0
ARC
  5
55B
100
AcDbEntity
  8
2
100
AcDbCircle
 10
-294.777867
 20
255.476237
 30
0.0
 40
1.750143
100
AcDbArc
 50
68.5
 51
187.647286
  0
LINE
  5
55C
100
AcDbEntity
  8
2
100
AcDbLine
 10
-291.791046
 20
256.888908
 30
0.0
 11
-293.798166
 21
257.761629
 31
0.0
  0
ARC
  5
55D
100
AcDbEntity
  8
2
100
AcDbCircle
 10
-292.488914
 20
255.283922
 30
0.0
 40
1.750143
100
AcDbArc
 50
358.671261
 51
66.5
  0
ARC
  5
55E
100
AcDbEntity
  8
2
100
AcDbCircle
 10
-294.496034
 20
256.156643
 30
0.0
 40
1.750143
100
AcDbArc
 50
66.5
 51
211.45613
  0
LINE
  5
55F
100
AcDbEntity
  8
2
 62
     2
100
AcDbLine
 10
-283.836489
 20
228.071034
 30
0.0
 11
-282.962991
 21
227.56672
 31
0.0
  0
LINE
  5
560
100
AcDbEntity
  8
2
 62
     2
100
AcDbLine
 10
-282.962991
 20
227.56672
 30
0.0
 11
-282.962991
 21
227.56672
 31
0.0
  0
LINE
  5
561
100
AcDbEntity
  8
2
 62
     2
100
AcDbLine
 10
-283.604898
 20
228.630145
 30
0.0
 11
-282.7314
 21
228.125831
 31
0.0
  0
LINE
  5
562
100
AcDbEntity
  8
2
 62
     2
100
AcDbLine
 10
-282.7314
 20
228.125831
 30
0.0
 11
-282.7314
 21
228.125831
 31
0.0
  0
LINE
  5
563
100
AcDbEntity
  8
2
 62
     2
100
AcDbLine
 10
-283.373307
 20
229.189256
 30
0.0
 11
-282.499808
 21
228.684942
 31
0.0
  0
LINE
  5
564
100
AcDbEntity
  8
2
 62
     2
100
AcDbLine
 10
-282.499808
 20
228.684942
 30
0.0
 11
-282.499808
 21
228.684942
 31
0.0
  0
LINE
  5
565
100
AcDbEntity
  8
2
 62
     2
100
AcDbLine
 10
-283.141715
 20
229.748367
 30
0.0
 11
-282.268217
 21
229.244053
 31
0.0
  0
LINE
  5
566
100
AcDbEntity
  8
2
 62
     2
100
AcDbLine
 10
-282.268217
 20
229.244053
 30
0.0
 11
-282.268217
 21
229.244053
 31
0.0
  0
LINE
  5
567
100
AcDbEntity
  8
2
 62
     2
100
AcDbLine
 10
-282.910124
 20
230.307478
 30
0.0
 11
-282.036626
 21
229.803164
 31
0.0
  0
LINE
  5
568
100
AcDbEntity
  8
2
 62
     2
100
AcDbLine
 10
-282.036626
 20
229.803164
 30
0.0
 11
-282.036626
 21
229.803164
 31
0.0
  0
LINE
  5
569
100
AcDbEntity
  8
2
 62
     2
100
AcDbLine
 10
-282.320175
 20
230.659692
 30
0.0
 11
-282.054859
 21
230.506511
 31
0.0
  0
LINE
  5
56A
100
AcDbEntity
  8
2
 62
     2
100
AcDbLine
 10
-284.068081
 20
227.511923
 30
0.0
 11
-283.194582
 21
227.007609
 31
0.0
  0
LINE
  5
56B
100
AcDbEntity
  8
2
 62
     2
100
AcDbLine
 10
-283.194582
 20
227.007609
 30
0.0
 11
-283.194582
 21
227.007609
 31
0.0
  0
LINE
  5
56C
100
AcDbEntity
  8
2
 62
     2
100
AcDbLine
 10
-284.299672
 20
226.952812
 30
0.0
 11
-283.426174
 21
226.448498
 31
0.0
  0
LINE
  5
56D
100
AcDbEntity
  8
2
 62
     2
100
AcDbLine
 10
-283.426174
 20
226.448498
 30
0.0
 11
-283.426174
 21
226.448498
 31
0.0
  0
LINE
  5
56E
100
AcDbEntity
  8
2
 62
     2
100
AcDbLine
 10
-284.531263
 20
226.393701
 30
0.0
 11
-283.657765
 21
225.889387
 31
0.0
  0
LINE
  5
56F
100
AcDbEntity
  8
2
 62
     2
100
AcDbLine
 10
-283.657765
 20
225.889387
 30
0.0
 11
-283.657765
 21
225.889387
 31
0.0
  0
LINE
  5
570
100
AcDbEntity
  8
2
 62
     2
100
AcDbLine
 10
-284.762855
 20
225.83459
 30
0.0
 11
-283.889357
 21
225.330276
 31
0.0
  0
LINE
  5
571
100
AcDbEntity
  8
2
 62
     2
100
AcDbLine
 10
-283.889357
 20
225.330276
 30
0.0
 11
-283.889357
 21
225.330276
 31
0.0
  0
LINE
  5
572
100
AcDbEntity
  8
2
 62
     2
100
AcDbLine
 10
-290.985849
 20
232.611354
 30
0.0
 11
-290.089273
 21
232.093716
 31
0.0
  0
LINE
  5
573
100
AcDbEntity
  8
2
 62
     2
100
AcDbLine
 10
-290.089273
 20
232.093716
 30
0.0
 11
-290.089273
 21
232.093716
 31
0.0
  0
LINE
  5
574
100
AcDbEntity
  8
2
 62
     2
100
AcDbLine
 10
-290.546618
 20
233.050585
 30
0.0
 11
-289.650043
 21
232.532947
 31
0.0
  0
LINE
  5
575
100
AcDbEntity
  8
2
 62
     2
100
AcDbLine
 10
-289.650043
 20
232.532947
 30
0.0
 11
-289.650043
 21
232.532947
 31
0.0
  0
LINE
  5
576
100
AcDbEntity
  8
2
 62
     2
100
AcDbLine
 10
-290.107388
 20
233.489815
 30
0.0
 11
-289.210812
 21
232.972177
 31
0.0
  0
LINE
  5
577
100
AcDbEntity
  8
2
 62
     2
100
AcDbLine
 10
-289.210812
 20
232.972177
 30
0.0
 11
-289.210812
 21
232.972177
 31
0.0
  0
LINE
  5
578
100
AcDbEntity
  8
2
 62
     2
100
AcDbLine
 10
-289.668157
 20
233.929046
 30
0.0
 11
-288.771582
 21
233.411408
 31
0.0
  0
LINE
  5
579
100
AcDbEntity
  8
2
 62
     2
100
AcDbLine
 10
-288.771582
 20
233.411408
 30
0.0
 11
-288.771582
 21
233.411408
 31
0.0
  0
LINE
  5
57A
100
AcDbEntity
  8
2
 62
     2
100
AcDbLine
 10
-289.228927
 20
234.368276
 30
0.0
 11
-288.332351
 21
233.850638
 31
0.0
  0
LINE
  5
57B
100
AcDbEntity
  8
2
 62
     2
100
AcDbLine
 10
-288.332351
 20
233.850638
 30
0.0
 11
-288.332351
 21
233.850638
 31
0.0
  0
LINE
  5
57C
100
AcDbEntity
  8
2
 62
     2
100
AcDbLine
 10
-288.733125
 20
234.774845
 30
0.0
 11
-288.111168
 21
234.415758
 31
0.0
  0
LINE
  5
57D
100
AcDbEntity
  8
2
 62
     2
100
AcDbLine
 10
-291.425079
 20
232.172124
 30
0.0
 11
-290.528504
 21
231.654486
 31
0.0
  0
LINE
  5
57E
100
AcDbEntity
  8
2
 62
     2
100
AcDbLine
 10
-290.528504
 20
231.654486
 30
0.0
 11
-290.528504
 21
231.654486
 31
0.0
  0
LINE
  5
57F
100
AcDbEntity
  8
2
 62
     2
100
AcDbLine
 10
-291.86431
 20
231.732893
 30
0.0
 11
-290.967734
 21
231.215255
 31
0.0
  0
LINE
  5
580
100
AcDbEntity
  8
2
 62
     2
100
AcDbLine
 10
-290.967734
 20
231.215255
 30
0.0
 11
-290.967734
 21
231.215255
 31
0.0
  0
LINE
  5
581
100
AcDbEntity
  8
2
 62
     2
100
AcDbLine
 10
-292.30354
 20
231.293663
 30
0.0
 11
-291.406965
 21
230.776025
 31
0.0
  0
LINE
  5
582
100
AcDbEntity
  8
2
 62
     2
100
AcDbLine
 10
-291.406965
 20
230.776025
 30
0.0
 11
-291.406965
 21
230.776025
 31
0.0
  0
LINE
  5
583
100
AcDbEntity
  8
2
 62
     2
100
AcDbLine
 10
-292.288344
 20
230.592069
 30
0.0
 11
-291.846195
 21
230.336794
 31
0.0
  0
LINE
  5
584
100
AcDbEntity
  8
2
 62
     2
100
AcDbLine
 10
-291.846195
 20
230.336794
 30
0.0
 11
-291.846195
 21
230.336794
 31
0.0
  0
LINE
  5
585
100
AcDbEntity
  8
2
 62
     2
100
AcDbLine
 10
-296.032294
 20
239.633462
 30
0.0
 11
-294.940693
 21
239.003226
 31
0.0
  0
LINE
  5
586
100
AcDbEntity
  8
2
 62
     2
100
AcDbLine
 10
-294.940693
 20
239.003226
 30
0.0
 11
-294.940693
 21
239.003226
 31
0.0
  0
LINE
  5
587
100
AcDbEntity
  8
2
 62
     2
100
AcDbLine
 10
-295.333579
 20
239.922879
 30
0.0
 11
-294.241978
 21
239.292643
 31
0.0
  0
LINE
  5
588
100
AcDbEntity
  8
2
 62
     2
100
AcDbLine
 10
-294.241978
 20
239.292643
 30
0.0
 11
-294.241978
 21
239.292643
 31
0.0
  0
LINE
  5
589
100
AcDbEntity
  8
2
 62
     2
100
AcDbLine
 10
-294.634865
 20
240.212296
 30
0.0
 11
-293.543264
 21
239.58206
 31
0.0
  0
LINE
  5
58A
100
AcDbEntity
  8
2
 62
     2
100
AcDbLine
 10
-293.543264
 20
239.58206
 30
0.0
 11
-293.543264
 21
239.58206
 31
0.0
  0
LINE
  5
58B
100
AcDbEntity
  8
2
 62
     2
100
AcDbLine
 10
-293.488631
 20
240.243338
 30
0.0
 11
-292.844549
 21
239.871477
 31
0.0
  0
LINE
  5
58C
100
AcDbEntity
  8
2
 62
     2
100
AcDbLine
 10
-292.844549
 20
239.871477
 30
0.0
 11
-292.844549
 21
239.871477
 31
0.0
  0
LINE
  5
58D
100
AcDbEntity
  8
2
 62
     2
100
AcDbLine
 10
-292.288631
 20
240.243338
 30
0.0
 11
-292.274829
 21
240.23537
 31
0.0
  0
LINE
  5
58E
100
AcDbEntity
  8
2
 62
     2
100
AcDbLine
 10
-296.731009
 20
239.344045
 30
0.0
 11
-295.639408
 21
238.713809
 31
0.0
  0
LINE
  5
58F
100
AcDbEntity
  8
2
 62
     2
100
AcDbLine
 10
-295.639408
 20
238.713809
 30
0.0
 11
-295.639408
 21
238.713809
 31
0.0
  0
LINE
  5
590
100
AcDbEntity
  8
2
 62
     2
100
AcDbLine
 10
-297.429724
 20
239.054628
 30
0.0
 11
-296.338123
 21
238.424392
 31
0.0
  0
LINE
  5
591
100
AcDbEntity
  8
2
 62
     2
100
AcDbLine
 10
-296.338123
 20
238.424392
 30
0.0
 11
-296.338123
 21
238.424392
 31
0.0
  0
LINE
  5
592
100
AcDbEntity
  8
2
 62
     2
100
AcDbLine
 10
-297.531773
 20
238.420726
 30
0.0
 11
-297.036838
 21
238.134974
 31
0.0
  0
LINE
  5
593
100
AcDbEntity
  8
2
 62
     2
100
AcDbLine
 10
-297.036838
 20
238.134974
 30
0.0
 11
-297.036838
 21
238.134974
 31
0.0
  0
LINE
  5
594
100
AcDbEntity
  8
2
  6
CENTER
 62
     2
100
AcDbLine
 10
-349.620411
 20
294.743338
 30
0.0
 11
-332.970864
 21
294.743338
 31
0.0
  0
LINE
  5
595
100
AcDbEntity
  8
2
  6
CENTER
 62
     2
100
AcDbLine
 10
-342.146758
 20
199.649234
 30
0.0
 11
-342.146758
 21
214.666385
 31
0.0
  0
LINE
  5
596
100
AcDbEntity
  8
2
  6
CENTER
 62
     2
100
AcDbLine
 10
-342.146758
 20
287.303759
 30
0.0
 11
-342.146758
 21
302.647357
 31
0.0
  0
LINE
  5
597
100
AcDbEntity
  8
2
  6
CENTER
 62
     2
100
AcDbLine
 10
-348.804234
 20
206.743338
 30
0.0
 11
-334.929627
 21
206.743338
 31
0.0
  0
LINE
  5
598
100
AcDbEntity
  8
2
  6
CENTER
 62
     2
100
AcDbLine
 10
-205.495236
 20
206.743338
 30
0.0
 11
-187.302487
 21
206.743338
 31
0.0
  0
LINE
  5
599
100
AcDbEntity
  8
2
  6
CENTER
 62
     2
100
AcDbLine
 10
-196.146758
 20
197.975177
 30
0.0
 11
-196.146758
 21
215.440234
 31
0.0
  0
ARC
  5
59A
100
AcDbEntity
  8
2
  6
CENTER
 62
     2
100
AcDbCircle
 10
-275.146758
 20
247.743338
 30
0.0
 40
37.5
100
AcDbArc
 50
126.361503
 51
143.885033
  0
ARC
  5
59B
100
AcDbEntity
  8
2
  6
CENTER
 62
     2
100
AcDbCircle
 10
-275.146758
 20
247.743338
 30
0.0
 40
37.5
100
AcDbArc
 50
216.93331
 51
233.416879
  0
ARC
  5
59C
100
AcDbEntity
  8
2
  6
CENTER
 62
     2
100
AcDbCircle
 10
-275.146758
 20
247.743338
 30
0.0
 40
37.5
100
AcDbArc
 50
306.278748
 51
323.822644
  0
ARC
  5
59D
100
AcDbEntity
  8
2
  6
CENTER
 62
     2
100
AcDbCircle
 10
-275.146758
 20
247.743338
 30
0.0
 40
37.5
100
AcDbArc
 50
36.280641
 51
53.737219
  0
LINE
  5
59E
100
AcDbEntity
  8
2
  6
CENTER
 62
     2
100
AcDbLine
 10
-305.986045
 20
216.904052
 30
0.0
 11
-297.935445
 21
224.954652
 31
0.0
  0
LINE
  5
59F
100
AcDbEntity
  8
2
  6
CENTER
 62
     2
100
AcDbLine
 10
-252.755905
 20
270.134192
 30
0.0
 11
-244.209531
 21
278.680565
 31
0.0
  0
LINE
  5
5A0
100
AcDbEntity
  8
2
  6
CENTER
 62
     2
100
AcDbLine
 10
-306.040378
 20
278.636957
 30
0.0
 11
-297.689385
 21
270.285965
 31
0.0
  0
LINE
  5
5A1
100
AcDbEntity
  8
2
  6
CENTER
 62
     2
100
AcDbLine
 10
-252.574675
 20
225.171254
 30
0.0
 11
-244.443611
 21
217.040191
 31
0.0
  0
CIRCLE
  5
5A2
100
AcDbEntity
  8
2
100
AcDbCircle
 10
-196.146758
 20
206.743338
 30
0.0
 40
4.5
  0
LINE
  5
5A3
100
AcDbEntity
  8
2
100
AcDbLine
 10
-193.696758
 20
207.243338
 30
0.0
 11
-193.696758
 21
206.243338
 31
0.0
  0
LINE
  5
5A4
100
AcDbEntity
  8
2
100
AcDbLine
 10
-198.596758
 20
207.243338
 30
0.0
 11
-198.596758
 21
206.243338
 31
0.0
  0
LINE
  5
5A5
100
AcDbEntity
  8
2
100
AcDbLine
 10
-196.646758
 20
209.193338
 30
0.0
 11
-195.646758
 21
209.193338
 31
0.0
  0
LINE
  5
5A6
100
AcDbEntity
  8
2
100
AcDbLine
 10
-196.646758
 20
204.293338
 30
0.0
 11
-195.646758
 21
204.293338
 31
0.0
  0
LINE
  5
5A7
100
AcDbEntity
  8
2
100
AcDbLine
 10
-198.596758
 20
207.243338
 30
0.0
 11
-197.446758
 21
207.243338
 31
0.0
  0
LINE
  5
5A8
100
AcDbEntity
  8
2
100
AcDbLine
 10
-194.846758
 20
207.243338
 30
0.0
 11
-193.696758
 21
207.243338
 31
0.0
  0
LINE
  5
5A9
100
AcDbEntity
  8
2
100
AcDbLine
 10
-198.596758
 20
206.243338
 30
0.0
 11
-197.446758
 21
206.243338
 31
0.0
  0
LINE
  5
5AA
100
AcDbEntity
  8
2
100
AcDbLine
 10
-194.846758
 20
206.243338
 30
0.0
 11
-193.696758
 21
206.243338
 31
0.0
  0
LINE
  5
5AB
100
AcDbEntity
  8
2
100
AcDbLine
 10
-195.646758
 20
204.293338
 30
0.0
 11
-195.646758
 21
205.443338
 31
0.0
  0
LINE
  5
5AC
100
AcDbEntity
  8
2
100
AcDbLine
 10
-195.646758
 20
208.043338
 30
0.0
 11
-195.646758
 21
209.193338
 31
0.0
  0
LINE
  5
5AD
100
AcDbEntity
  8
2
100
AcDbLine
 10
-196.646758
 20
204.293338
 30
0.0
 11
-196.646758
 21
205.443338
 31
0.0
  0
LINE
  5
5AE
100
AcDbEntity
  8
2
100
AcDbLine
 10
-196.646758
 20
208.043338
 30
0.0
 11
-196.646758
 21
209.193338
 31
0.0
  0
ARC
  5
5AF
100
AcDbEntity
  8
2
100
AcDbCircle
 10
-197.446758
 20
208.043338
 30
0.0
 40
0.8
100
AcDbArc
 50
270.0
 51
360.0
  0
ARC
  5
5B0
100
AcDbEntity
  8
2
100
AcDbCircle
 10
-194.846758
 20
208.043338
 30
0.0
 40
0.8
100
AcDbArc
 50
180.0
 51
270.0
  0
ARC
  5
5B1
100
AcDbEntity
  8
2
100
AcDbCircle
 10
-194.846758
 20
205.443338
 30
0.0
 40
0.8
100
AcDbArc
 50
90.0
 51
180.0
  0
ARC
  5
5B2
100
AcDbEntity
  8
2
100
AcDbCircle
 10
-197.446758
 20
205.443338
 30
0.0
 40
0.8
100
AcDbArc
 50
0.0
 51
90.0
  0
CIRCLE
  5
5B3
100
AcDbEntity
  8
2
100
AcDbCircle
 10
-196.146758
 20
294.743338
 30
0.0
 40
4.5
  0
LINE
  5
5B4
100
AcDbEntity
  8
2
100
AcDbLine
 10
-193.696758
 20
295.243338
 30
0.0
 11
-193.696758
 21
294.243338
 31
0.0
  0
LINE
  5
5B5
100
AcDbEntity
  8
2
100
AcDbLine
 10
-198.596758
 20
295.243338
 30
0.0
 11
-198.596758
 21
294.243338
 31
0.0
  0
LINE
  5
5B6
100
AcDbEntity
  8
2
100
AcDbLine
 10
-196.646758
 20
297.193338
 30
0.0
 11
-195.646758
 21
297.193338
 31
0.0
  0
LINE
  5
5B7
100
AcDbEntity
  8
2
100
AcDbLine
 10
-196.646758
 20
292.293338
 30
0.0
 11
-195.646758
 21
292.293338
 31
0.0
  0
LINE
  5
5B8
100
AcDbEntity
  8
2
100
AcDbLine
 10
-198.596758
 20
295.243338
 30
0.0
 11
-197.446758
 21
295.243338
 31
0.0
  0
LINE
  5
5B9
100
AcDbEntity
  8
2
100
AcDbLine
 10
-194.846758
 20
295.243338
 30
0.0
 11
-193.696758
 21
295.243338
 31
0.0
  0
LINE
  5
5BA
100
AcDbEntity
  8
2
100
AcDbLine
 10
-198.596758
 20
294.243338
 30
0.0
 11
-197.446758
 21
294.243338
 31
0.0
  0
LINE
  5
5BB
100
AcDbEntity
  8
2
100
AcDbLine
 10
-194.846758
 20
294.243338
 30
0.0
 11
-193.696758
 21
294.243338
 31
0.0
  0
LINE
  5
5BC
100
AcDbEntity
  8
2
100
AcDbLine
 10
-195.646758
 20
292.293338
 30
0.0
 11
-195.646758
 21
293.443338
 31
0.0
  0
LINE
  5
5BD
100
AcDbEntity
  8
2
100
AcDbLine
 10
-195.646758
 20
296.043338
 30
0.0
 11
-195.646758
 21
297.193338
 31
0.0
  0
LINE
  5
5BE
100
AcDbEntity
  8
2
100
AcDbLine
 10
-196.646758
 20
292.293338
 30
0.0
 11
-196.646758
 21
293.443338
 31
0.0
  0
LINE
  5
5BF
100
AcDbEntity
  8
2
100
AcDbLine
 10
-196.646758
 20
296.043338
 30
0.0
 11
-196.646758
 21
297.193338
 31
0.0
  0
ARC
  5
5C0
100
AcDbEntity
  8
2
100
AcDbCircle
 10
-197.446758
 20
296.043338
 30
0.0
 40
0.8
100
AcDbArc
 50
270.0
 51
360.0
  0
ARC
  5
5C1
100
AcDbEntity
  8
2
100
AcDbCircle
 10
-194.846758
 20
296.043338
 30
0.0
 40
0.8
100
AcDbArc
 50
180.0
 51
270.0
  0
ARC
  5
5C2
100
AcDbEntity
  8
2
100
AcDbCircle
 10
-194.846758
 20
293.443338
 30
0.0
 40
0.8
100
AcDbArc
 50
90.0
 51
180.0
  0
ARC
  5
5C3
100
AcDbEntity
  8
2
100
AcDbCircle
 10
-197.446758
 20
293.443338
 30
0.0
 40
0.8
100
AcDbArc
 50
0.0
 51
90.0
  0
CIRCLE
  5
5C4
100
AcDbEntity
  8
2
100
AcDbCircle
 10
-342.146758
 20
206.743338
 30
0.0
 40
4.5
  0
LINE
  5
5C5
100
AcDbEntity
  8
2
100
AcDbLine
 10
-339.696758
 20
207.243338
 30
0.0
 11
-339.696758
 21
206.243338
 31
0.0
  0
LINE
  5
5C6
100
AcDbEntity
  8
2
100
AcDbLine
 10
-344.596758
 20
207.243338
 30
0.0
 11
-344.596758
 21
206.243338
 31
0.0
  0
LINE
  5
5C7
100
AcDbEntity
  8
2
100
AcDbLine
 10
-342.646758
 20
209.193338
 30
0.0
 11
-341.646758
 21
209.193338
 31
0.0
  0
LINE
  5
5C8
100
AcDbEntity
  8
2
100
AcDbLine
 10
-342.646758
 20
204.293338
 30
0.0
 11
-341.646758
 21
204.293338
 31
0.0
  0
LINE
  5
5C9
100
AcDbEntity
  8
2
100
AcDbLine
 10
-344.596758
 20
207.243338
 30
0.0
 11
-343.446758
 21
207.243338
 31
0.0
  0
LINE
  5
5CA
100
AcDbEntity
  8
2
100
AcDbLine
 10
-340.846758
 20
207.243338
 30
0.0
 11
-339.696758
 21
207.243338
 31
0.0
  0
LINE
  5
5CB
100
AcDbEntity
  8
2
100
AcDbLine
 10
-344.596758
 20
206.243338
 30
0.0
 11
-343.446758
 21
206.243338
 31
0.0
  0
LINE
  5
5CC
100
AcDbEntity
  8
2
100
AcDbLine
 10
-340.846758
 20
206.243338
 30
0.0
 11
-339.696758
 21
206.243338
 31
0.0
  0
LINE
  5
5CD
100
AcDbEntity
  8
2
100
AcDbLine
 10
-341.646758
 20
204.293338
 30
0.0
 11
-341.646758
 21
205.443338
 31
0.0
  0
LINE
  5
5CE
100
AcDbEntity
  8
2
100
AcDbLine
 10
-341.646758
 20
208.043338
 30
0.0
 11
-341.646758
 21
209.193338
 31
0.0
  0
LINE
  5
5CF
100
AcDbEntity
  8
2
100
AcDbLine
 10
-342.646758
 20
204.293338
 30
0.0
 11
-342.646758
 21
205.443338
 31
0.0
  0
LINE
  5
5D0
100
AcDbEntity
  8
2
100
AcDbLine
 10
-342.646758
 20
208.043338
 30
0.0
 11
-342.646758
 21
209.193338
 31
0.0
  0
ARC
  5
5D1
100
AcDbEntity
  8
2
100
AcDbCircle
 10
-343.446758
 20
208.043338
 30
0.0
 40
0.8
100
AcDbArc
 50
270.0
 51
360.0
  0
ARC
  5
5D2
100
AcDbEntity
  8
2
100
AcDbCircle
 10
-340.846758
 20
208.043338
 30
0.0
 40
0.8
100
AcDbArc
 50
180.0
 51
270.0
  0
ARC
  5
5D3
100
AcDbEntity
  8
2
100
AcDbCircle
 10
-340.846758
 20
205.443338
 30
0.0
 40
0.8
100
AcDbArc
 50
90.0
 51
180.0
  0
ARC
  5
5D4
100
AcDbEntity
  8
2
100
AcDbCircle
 10
-343.446758
 20
205.443338
 30
0.0
 40
0.8
100
AcDbArc
 50
0.0
 51
90.0
  0
CIRCLE
  5
5D5
100
AcDbEntity
  8
2
100
AcDbCircle
 10
-342.146758
 20
294.743338
 30
0.0
 40
4.5
  0
LINE
  5
5D6
100
AcDbEntity
  8
2
100
AcDbLine
 10
-339.696758
 20
295.243338
 30
0.0
 11
-339.696758
 21
294.243338
 31
0.0
  0
LINE
  5
5D7
100
AcDbEntity
  8
2
100
AcDbLine
 10
-344.596758
 20
295.243338
 30
0.0
 11
-344.596758
 21
294.243338
 31
0.0
  0
LINE
  5
5D8
100
AcDbEntity
  8
2
100
AcDbLine
 10
-342.646758
 20
297.193338
 30
0.0
 11
-341.646758
 21
297.193338
 31
0.0
  0
LINE
  5
5D9
100
AcDbEntity
  8
2
100
AcDbLine
 10
-342.646758
 20
292.293338
 30
0.0
 11
-341.646758
 21
292.293338
 31
0.0
  0
LINE
  5
5DA
100
AcDbEntity
  8
2
100
AcDbLine
 10
-344.596758
 20
295.243338
 30
0.0
 11
-343.446758
 21
295.243338
 31
0.0
  0
LINE
  5
5DB
100
AcDbEntity
  8
2
100
AcDbLine
 10
-340.846758
 20
295.243338
 30
0.0
 11
-339.696758
 21
295.243338
 31
0.0
  0
LINE
  5
5DC
100
AcDbEntity
  8
2
100
AcDbLine
 10
-344.596758
 20
294.243338
 30
0.0
 11
-343.446758
 21
294.243338
 31
0.0
  0
LINE
  5
5DD
100
AcDbEntity
  8
2
100
AcDbLine
 10
-340.846758
 20
294.243338
 30
0.0
 11
-339.696758
 21
294.243338
 31
0.0
  0
LINE
  5
5DE
100
AcDbEntity
  8
2
100
AcDbLine
 10
-341.646758
 20
292.293338
 30
0.0
 11
-341.646758
 21
293.443338
 31
0.0
  0
LINE
  5
5DF
100
AcDbEntity
  8
2
100
AcDbLine
 10
-341.646758
 20
296.043338
 30
0.0
 11
-341.646758
 21
297.193338
 31
0.0
  0
LINE
  5
5E0
100
AcDbEntity
  8
2
100
AcDbLine
 10
-342.646758
 20
292.293338
 30
0.0
 11
-342.646758
 21
293.443338
 31
0.0
  0
LINE
  5
5E1
100
AcDbEntity
  8
2
100
AcDbLine
 10
-342.646758
 20
296.043338
 30
0.0
 11
-342.646758
 21
297.193338
 31
0.0
  0
ARC
  5
5E2
100
AcDbEntity
  8
2
100
AcDbCircle
 10
-343.446758
 20
296.043338
 30
0.0
 40
0.8
100
AcDbArc
 50
270.0
 51
360.0
  0
ARC
  5
5E3
100
AcDbEntity
  8
2
100
AcDbCircle
 10
-340.846758
 20
296.043338
 30
0.0
 40
0.8
100
AcDbArc
 50
180.0
 51
270.0
  0
ARC
  5
5E4
100
AcDbEntity
  8
2
100
AcDbCircle
 10
-340.846758
 20
293.443338
 30
0.0
 40
0.8
100
AcDbArc
 50
90.0
 51
180.0
  0
ARC
  5
5E5
100
AcDbEntity
  8
2
100
AcDbCircle
 10
-343.446758
 20
293.443338
 30
0.0
 40
0.8
100
AcDbArc
 50
0.0
 51
90.0
  0
CIRCLE
  5
5E6
100
AcDbEntity
  8
2
100
AcDbCircle
 10
-248.630254
 20
221.226834
 30
0.0
 40
3.5
  0
LINE
  5
5E7
100
AcDbEntity
  8
2
100
AcDbLine
 10
-247.498883
 20
223.065312
 30
0.0
 11
-246.791776
 21
222.358205
 31
0.0
  0
LINE
  5
5E8
100
AcDbEntity
  8
2
100
AcDbLine
 10
-250.468732
 20
220.095463
 30
0.0
 11
-249.761625
 21
219.388356
 31
0.0
  0
LINE
  5
5E9
100
AcDbEntity
  8
2
100
AcDbLine
 10
-249.761625
 20
223.065312
 30
0.0
 11
-250.468732
 21
222.358205
 31
0.0
  0
LINE
  5
5EA
100
AcDbEntity
  8
2
100
AcDbLine
 10
-246.791776
 20
220.095463
 30
0.0
 11
-247.498883
 21
219.388356
 31
0.0
  0
LINE
  5
5EB
100
AcDbEntity
  8
2
100
AcDbLine
 10
-249.761625
 20
219.388356
 30
0.0
 11
-249.195939
 21
219.954042
 31
0.0
  0
LINE
  5
5EC
100
AcDbEntity
  8
2
100
AcDbLine
 10
-247.357462
 20
221.792519
 30
0.0
 11
-246.791776
 21
222.358205
 31
0.0
  0
LINE
  5
5ED
100
AcDbEntity
  8
2
100
AcDbLine
 10
-250.468732
 20
220.095463
 30
0.0
 11
-249.903046
 21
220.661149
 31
0.0
  0
LINE
  5
5EE
100
AcDbEntity
  8
2
100
AcDbLine
 10
-248.064569
 20
222.499626
 30
0.0
 11
-247.498883
 21
223.065312
 31
0.0
  0
LINE
  5
5EF
100
AcDbEntity
  8
2
100
AcDbLine
 10
-250.468732
 20
222.358205
 30
0.0
 11
-249.903046
 21
221.792519
 31
0.0
  0
LINE
  5
5F0
100
AcDbEntity
  8
2
100
AcDbLine
 10
-248.064569
 20
219.954042
 30
0.0
 11
-247.498883
 21
219.388356
 31
0.0
  0
LINE
  5
5F1
100
AcDbEntity
  8
2
100
AcDbLine
 10
-249.761625
 20
223.065312
 30
0.0
 11
-249.195939
 21
222.499626
 31
0.0
  0
LINE
  5
5F2
100
AcDbEntity
  8
2
100
AcDbLine
 10
-247.357462
 20
220.661149
 30
0.0
 11
-246.791776
 21
220.095463
 31
0.0
  0
ARC
  5
5F3
100
AcDbEntity
  8
2
100
AcDbCircle
 10
-248.630254
 20
223.065312
 30
0.0
 40
0.8
100
AcDbArc
 50
225.0
 51
315.0
  0
ARC
  5
5F4
100
AcDbEntity
  8
2
100
AcDbCircle
 10
-250.468732
 20
221.226834
 30
0.0
 40
0.8
100
AcDbArc
 50
315.0
 51
45.0
  0
ARC
  5
5F5
100
AcDbEntity
  8
2
100
AcDbCircle
 10
-248.630254
 20
219.388356
 30
0.0
 40
0.8
100
AcDbArc
 50
45.0
 51
135.0
  0
ARC
  5
5F6
100
AcDbEntity
  8
2
100
AcDbCircle
 10
-246.791776
 20
221.226834
 30
0.0
 40
0.8
100
AcDbArc
 50
135.0
 51
225.0
  0
CIRCLE
  5
5F7
100
AcDbEntity
  8
2
100
AcDbCircle
 10
-248.630254
 20
274.259843
 30
0.0
 40
3.5
  0
LINE
  5
5F8
100
AcDbEntity
  8
2
100
AcDbLine
 10
-247.498883
 20
276.09832
 30
0.0
 11
-246.791776
 21
275.391213
 31
0.0
  0
LINE
  5
5F9
100
AcDbEntity
  8
2
100
AcDbLine
 10
-250.468732
 20
273.128472
 30
0.0
 11
-249.761625
 21
272.421365
 31
0.0
  0
LINE
  5
5FA
100
AcDbEntity
  8
2
100
AcDbLine
 10
-249.761625
 20
276.09832
 30
0.0
 11
-250.468732
 21
275.391213
 31
0.0
  0
LINE
  5
5FB
100
AcDbEntity
  8
2
100
AcDbLine
 10
-246.791776
 20
273.128472
 30
0.0
 11
-247.498883
 21
272.421365
 31
0.0
  0
LINE
  5
5FC
100
AcDbEntity
  8
2
100
AcDbLine
 10
-249.761625
 20
272.421365
 30
0.0
 11
-249.195939
 21
272.98705
 31
0.0
  0
LINE
  5
5FD
100
AcDbEntity
  8
2
100
AcDbLine
 10
-247.357462
 20
274.825528
 30
0.0
 11
-246.791776
 21
275.391213
 31
0.0
  0
LINE
  5
5FE
100
AcDbEntity
  8
2
100
AcDbLine
 10
-250.468732
 20
273.128472
 30
0.0
 11
-249.903046
 21
273.694157
 31
0.0
  0
LINE
  5
5FF
100
AcDbEntity
  8
2
100
AcDbLine
 10
-248.064569
 20
275.532635
 30
0.0
 11
-247.498883
 21
276.09832
 31
0.0
  0
LINE
  5
600
100
AcDbEntity
  8
2
100
AcDbLine
 10
-250.468732
 20
275.391213
 30
0.0
 11
-249.903046
 21
274.825528
 31
0.0
  0
LINE
  5
601
100
AcDbEntity
  8
2
100
AcDbLine
 10
-248.064569
 20
272.98705
 30
0.0
 11
-247.498883
 21
272.421365
 31
0.0
  0
LINE
  5
602
100
AcDbEntity
  8
2
100
AcDbLine
 10
-249.761625
 20
276.09832
 30
0.0
 11
-249.195939
 21
275.532635
 31
0.0
  0
LINE
  5
603
100
AcDbEntity
  8
2
100
AcDbLine
 10
-247.357462
 20
273.694157
 30
0.0
 11
-246.791776
 21
273.128472
 31
0.0
  0
ARC
  5
604
100
AcDbEntity
  8
2
100
AcDbCircle
 10
-248.630254
 20
276.09832
 30
0.0
 40
0.8
100
AcDbArc
 50
225.0
 51
315.0
  0
ARC
  5
605
100
AcDbEntity
  8
2
100
AcDbCircle
 10
-250.468732
 20
274.259843
 30
0.0
 40
0.8
100
AcDbArc
 50
315.0
 51
45.0
  0
ARC
  5
606
100
AcDbEntity
  8
2
100
AcDbCircle
 10
-248.630254
 20
272.421365
 30
0.0
 40
0.8
100
AcDbArc
 50
45.0
 51
135.0
  0
ARC
  5
607
100
AcDbEntity
  8
2
100
AcDbCircle
 10
-246.791776
 20
274.259843
 30
0.0
 40
0.8
100
AcDbArc
 50
135.0
 51
225.0
  0
CIRCLE
  5
608
100
AcDbEntity
  8
2
100
AcDbCircle
 10
-301.663263
 20
221.226834
 30
0.0
 40
3.5
  0
LINE
  5
609
100
AcDbEntity
  8
2
100
AcDbLine
 10
-300.531892
 20
223.065312
 30
0.0
 11
-299.824785
 21
222.358205
 31
0.0
  0
LINE
  5
60A
100
AcDbEntity
  8
2
100
AcDbLine
 10
-303.50174
 20
220.095463
 30
0.0
 11
-302.794633
 21
219.388356
 31
0.0
  0
LINE
  5
60B
100
AcDbEntity
  8
2
100
AcDbLine
 10
-302.794633
 20
223.065312
 30
0.0
 11
-303.50174
 21
222.358205
 31
0.0
  0
LINE
  5
60C
100
AcDbEntity
  8
2
100
AcDbLine
 10
-299.824785
 20
220.095463
 30
0.0
 11
-300.531892
 21
219.388356
 31
0.0
  0
LINE
  5
60D
100
AcDbEntity
  8
2
100
AcDbLine
 10
-302.794633
 20
219.388356
 30
0.0
 11
-302.228948
 21
219.954042
 31
0.0
  0
LINE
  5
60E
100
AcDbEntity
  8
2
100
AcDbLine
 10
-300.39047
 20
221.792519
 30
0.0
 11
-299.824785
 21
222.358205
 31
0.0
  0
LINE
  5
60F
100
AcDbEntity
  8
2
100
AcDbLine
 10
-303.50174
 20
220.095463
 30
0.0
 11
-302.936055
 21
220.661149
 31
0.0
  0
LINE
  5
610
100
AcDbEntity
  8
2
100
AcDbLine
 10
-301.097577
 20
222.499626
 30
0.0
 11
-300.531892
 21
223.065312
 31
0.0
  0
LINE
  5
611
100
AcDbEntity
  8
2
100
AcDbLine
 10
-303.50174
 20
222.358205
 30
0.0
 11
-302.936055
 21
221.792519
 31
0.0
  0
LINE
  5
612
100
AcDbEntity
  8
2
100
AcDbLine
 10
-301.097577
 20
219.954042
 30
0.0
 11
-300.531892
 21
219.388356
 31
0.0
  0
LINE
  5
613
100
AcDbEntity
  8
2
100
AcDbLine
 10
-302.794633
 20
223.065312
 30
0.0
 11
-302.228948
 21
222.499626
 31
0.0
  0
LINE
  5
614
100
AcDbEntity
  8
2
100
AcDbLine
 10
-300.39047
 20
220.661149
 30
0.0
 11
-299.824785
 21
220.095463
 31
0.0
  0
ARC
  5
615
100
AcDbEntity
  8
2
100
AcDbCircle
 10
-301.663263
 20
223.065312
 30
0.0
 40
0.8
100
AcDbArc
 50
225.0
 51
315.0
  0
ARC
  5
616
100
AcDbEntity
  8
2
100
AcDbCircle
 10
-303.50174
 20
221.226834
 30
0.0
 40
0.8
100
AcDbArc
 50
315.0
 51
45.0
  0
ARC
  5
617
100
AcDbEntity
  8
2
100
AcDbCircle
 10
-301.663263
 20
219.388356
 30
0.0
 40
0.8
100
AcDbArc
 50
45.0
 51
135.0
  0
ARC
  5
618
100
AcDbEntity
  8
2
100
AcDbCircle
 10
-299.824785
 20
221.226834
 30
0.0
 40
0.8
100
AcDbArc
 50
135.0
 51
225.0
  0
CIRCLE
  5
619
100
AcDbEntity
  8
2
100
AcDbCircle
 10
-301.663263
 20
274.259843
 30
0.0
 40
3.5
  0
LINE
  5
61A
100
AcDbEntity
  8
2
100
AcDbLine
 10
-300.531892
 20
276.09832
 30
0.0
 11
-299.824785
 21
275.391213
 31
0.0
  0
LINE
  5
61B
100
AcDbEntity
  8
2
100
AcDbLine
 10
-303.50174
 20
273.128472
 30
0.0
 11
-302.794633
 21
272.421365
 31
0.0
  0
LINE
  5
61C
100
AcDbEntity
  8
2
100
AcDbLine
 10
-302.794633
 20
276.09832
 30
0.0
 11
-303.50174
 21
275.391213
 31
0.0
  0
LINE
  5
61D
100
AcDbEntity
  8
2
100
AcDbLine
 10
-299.824785
 20
273.128472
 30
0.0
 11
-300.531892
 21
272.421365
 31
0.0
  0
LINE
  5
61E
100
AcDbEntity
  8
2
100
AcDbLine
 10
-302.794633
 20
272.421365
 30
0.0
 11
-302.228948
 21
272.98705
 31
0.0
  0
LINE
  5
61F
100
AcDbEntity
  8
2
100
AcDbLine
 10
-300.39047
 20
274.825528
 30
0.0
 11
-299.824785
 21
275.391213
 31
0.0
  0
LINE
  5
620
100
AcDbEntity
  8
2
100
AcDbLine
 10
-303.50174
 20
273.128472
 30
0.0
 11
-302.936055
 21
273.694157
 31
0.0
  0
LINE
  5
621
100
AcDbEntity
  8
2
100
AcDbLine
 10
-301.097577
 20
275.532635
 30
0.0
 11
-300.531892
 21
276.09832
 31
0.0
  0
LINE
  5
622
100
AcDbEntity
  8
2
100
AcDbLine
 10
-303.50174
 20
275.391213
 30
0.0
 11
-302.936055
 21
274.825528
 31
0.0
  0
LINE
  5
623
100
AcDbEntity
  8
2
100
AcDbLine
 10
-301.097577
 20
272.98705
 30
0.0
 11
-300.531892
 21
272.421365
 31
0.0
  0
LINE
  5
624
100
AcDbEntity
  8
2
100
AcDbLine
 10
-302.794633
 20
276.09832
 30
0.0
 11
-302.228948
 21
275.532635
 31
0.0
  0
LINE
  5
625
100
AcDbEntity
  8
2
100
AcDbLine
 10
-300.39047
 20
273.694157
 30
0.0
 11
-299.824785
 21
273.128472
 31
0.0
  0
ARC
  5
626
100
AcDbEntity
  8
2
100
AcDbCircle
 10
-301.663263
 20
276.09832
 30
0.0
 40
0.8
100
AcDbArc
 50
225.0
 51
315.0
  0
ARC
  5
627
100
AcDbEntity
  8
2
100
AcDbCircle
 10
-303.50174
 20
274.259843
 30
0.0
 40
0.8
100
AcDbArc
 50
315.0
 51
45.0
  0
ARC
  5
628
100
AcDbEntity
  8
2
100
AcDbCircle
 10
-301.663263
 20
272.421365
 30
0.0
 40
0.8
100
AcDbArc
 50
45.0
 51
135.0
  0
ARC
  5
629
100
AcDbEntity
  8
2
100
AcDbCircle
 10
-299.824785
 20
274.259843
 30
0.0
 40
0.8
100
AcDbArc
 50
135.0
 51
225.0
  0
TEXT
  5
62A
100
AcDbEntity
  8
2
100
AcDbText
 10
-269.727273
 20
224.729665
 30
0.0
 40
7.6
  1
Ｓ
 50
22.5
 72
     5
 11
-264.110085
 21
227.05638
 31
0.0
100
AcDbText
  0
TEXT
  5
62B
100
AcDbEntity
  8
2
100
AcDbText
 10
-269.326454
 20
224.827753
 30
0.0
 40
7.6
  1
Ｓ
 50
23.5
 72
     5
 11
-263.750729
 21
227.252147
 31
0.0
100
AcDbText
  0
TEXT
  5
62C
100
AcDbEntity
  8
2
100
AcDbText
 10
-270.129742
 20
224.638587
 30
0.0
 40
7.6
  1
Ｓ
 50
21.5
 72
     5
 11
-264.472803
 21
226.866914
 31
0.0
100
AcDbText
  0
TEXT
  5
62D
100
AcDbEntity
  8
2
100
AcDbText
 10
-280.566244
 20
270.757012
 30
0.0
 40
7.6
  1
Ｓ
 50
202.5
 72
     5
 11
-286.183431
 21
268.430297
 31
0.0
100
AcDbText
  0
TEXT
  5
62E
100
AcDbEntity
  8
2
100
AcDbText
 10
-280.967062
 20
270.658924
 30
0.0
 40
7.6
  1
Ｓ
 50
203.5
 72
     5
 11
-286.542788
 21
268.234529
 31
0.0
100
AcDbText
  0
TEXT
  5
62F
100
AcDbEntity
  8
2
100
AcDbText
 10
-280.163774
 20
270.84809
 30
0.0
 40
7.6
  1
Ｓ
 50
201.5
 72
     5
 11
-285.820713
 21
268.619762
 31
0.0
100
AcDbText
  0
LINE
  5
630
100
AcDbEntity
  8
2
  6
CENTER
 62
     2
100
AcDbLine
 10
-205.495236
 20
294.743338
 30
0.0
 11
-187.302487
 21
294.743338
 31
0.0
  0
LINE
  5
631
100
AcDbEntity
  8
2
  6
CENTER
 62
     2
100
AcDbLine
 10
-196.146758
 20
285.975177
 30
0.0
 11
-196.146758
 21
303.440234
 31
0.0
  0
LINE
  5
632
100
AcDbEntity
  8
2
100
AcDbLine
 10
-173.146758
 20
259.743338
 30
0.0
 11
-173.146758
 21
285.743338
 31
0.0
  0
LINE
  5
633
100
AcDbEntity
  8
2
100
AcDbLine
 10
-178.146758
 20
257.732231
 30
0.0
 11
-178.146758
 21
287.754445
 31
0.0
  0
LINE
  5
634
100
AcDbEntity
  8
2
100
AcDbLine
 10
-174.307871
 20
287.754445
 30
0.0
 11
-178.146758
 21
287.754445
 31
0.0
  0
LINE
  5
635
100
AcDbEntity
  8
2
100
AcDbLine
 10
-174.307871
 20
280.248892
 30
0.0
 11
-178.146758
 21
280.248892
 31
0.0
  0
LINE
  5
636
100
AcDbEntity
  8
2
100
AcDbLine
 10
-174.307871
 20
265.237785
 30
0.0
 11
-178.146758
 21
265.237785
 31
0.0
  0
LINE
  5
637
100
AcDbEntity
  8
2
100
AcDbLine
 10
-174.307871
 20
257.732231
 30
0.0
 11
-178.146758
 21
257.732231
 31
0.0
  0
LINE
  5
638
100
AcDbEntity
  8
2
100
AcDbLine
 10
-173.146758
 20
285.743338
 30
0.0
 11
-174.307871
 21
287.754445
 31
0.0
  0
LINE
  5
639
100
AcDbEntity
  8
2
100
AcDbLine
 10
-173.146758
 20
259.743338
 30
0.0
 11
-174.307871
 21
257.732231
 31
0.0
  0
ARC
  5
63A
100
AcDbEntity
  8
2
100
AcDbCircle
 10
-179.791894
 20
284.001668
 30
0.0
 40
6.645136
100
AcDbArc
 50
325.615736
 51
34.384264
  0
ARC
  5
63B
100
AcDbEntity
  8
2
100
AcDbCircle
 10
-179.791894
 20
261.485008
 30
0.0
 40
6.645136
100
AcDbArc
 50
325.615736
 51
34.384264
  0
LINE
  5
63C
100
AcDbEntity
  8
2
100
AcDbLine
 10
-178.146758
 20
263.743338
 30
0.0
 11
-181.146758
 21
263.743338
 31
0.0
  0
LINE
  5
63D
100
AcDbEntity
  8
2
100
AcDbLine
 10
-181.146758
 20
281.743338
 30
0.0
 11
-178.146758
 21
281.743338
 31
0.0
  0
ARC
  5
63E
100
AcDbEntity
  8
2
100
AcDbCircle
 10
-197.985645
 20
272.743338
 30
0.0
 40
24.838887
100
AcDbArc
 50
342.412046
 51
17.587954
  0
LINE
  5
63F
100
AcDbEntity
  8
2
100
AcDbLine
 10
-173.146758
 20
209.743338
 30
0.0
 11
-173.146758
 21
235.743338
 31
0.0
  0
LINE
  5
640
100
AcDbEntity
  8
2
100
AcDbLine
 10
-178.146758
 20
207.732231
 30
0.0
 11
-178.146758
 21
237.754445
 31
0.0
  0
LINE
  5
641
100
AcDbEntity
  8
2
100
AcDbLine
 10
-174.307871
 20
237.754445
 30
0.0
 11
-178.146758
 21
237.754445
 31
0.0
  0
LINE
  5
642
100
AcDbEntity
  8
2
100
AcDbLine
 10
-174.307871
 20
230.248892
 30
0.0
 11
-178.146758
 21
230.248892
 31
0.0
  0
LINE
  5
643
100
AcDbEntity
  8
2
100
AcDbLine
 10
-174.307871
 20
215.237785
 30
0.0
 11
-178.146758
 21
215.237785
 31
0.0
  0
LINE
  5
644
100
AcDbEntity
  8
2
100
AcDbLine
 10
-174.307871
 20
207.732231
 30
0.0
 11
-178.146758
 21
207.732231
 31
0.0
  0
LINE
  5
645
100
AcDbEntity
  8
2
100
AcDbLine
 10
-173.146758
 20
235.743338
 30
0.0
 11
-174.307871
 21
237.754445
 31
0.0
  0
LINE
  5
646
100
AcDbEntity
  8
2
100
AcDbLine
 10
-173.146758
 20
209.743338
 30
0.0
 11
-174.307871
 21
207.732231
 31
0.0
  0
ARC
  5
647
100
AcDbEntity
  8
2
100
AcDbCircle
 10
-179.791894
 20
234.001668
 30
0.0
 40
6.645136
100
AcDbArc
 50
325.615736
 51
34.384264
  0
ARC
  5
648
100
AcDbEntity
  8
2
100
AcDbCircle
 10
-179.791894
 20
211.485008
 30
0.0
 40
6.645136
100
AcDbArc
 50
325.615736
 51
34.384264
  0
LINE
  5
649
100
AcDbEntity
  8
2
100
AcDbLine
 10
-178.146758
 20
213.743338
 30
0.0
 11
-181.146758
 21
213.743338
 31
0.0
  0
LINE
  5
64A
100
AcDbEntity
  8
2
100
AcDbLine
 10
-181.146758
 20
231.743338
 30
0.0
 11
-178.146758
 21
231.743338
 31
0.0
  0
ARC
  5
64B
100
AcDbEntity
  8
2
100
AcDbCircle
 10
-197.985645
 20
222.743338
 30
0.0
 40
24.838887
100
AcDbArc
 50
342.412046
 51
17.587954
  0
POLYLINE
  5
64C
100
AcDbEntity
  8
2
100
AcDb2dPolyline
 66
     1
 10
0.0
 20
0.0
 30
0.0
 70
     1
  0
VERTEX
  5
7FA
100
AcDbEntity
  8
2
100
AcDbVertex
100
AcDb2dVertex
 10
-178.246758
 20
282.743338
 30
0.0
  0
VERTEX
  5
7FB
100
AcDbEntity
  8
2
100
AcDbVertex
100
AcDb2dVertex
 10
-178.275044
 20
282.943338
 30
0.0
  0
VERTEX
  5
7FC
100
AcDbEntity
  8
2
100
AcDbVertex
100
AcDb2dVertex
 10
-178.363637
 20
283.143338
 30
0.0
  0
VERTEX
  5
7FD
100
AcDbEntity
  8
2
100
AcDbVertex
100
AcDb2dVertex
 10
-178.526758
 20
283.343338
 30
0.0
  0
VERTEX
  5
7FE
100
AcDbEntity
  8
2
100
AcDbVertex
100
AcDb2dVertex
 10
-178.806758
 20
283.543338
 30
0.0
  0
VERTEX
  5
7FF
100
AcDbEntity
  8
2
100
AcDbVertex
100
AcDb2dVertex
 10
-179.646758
 20
283.743338
 30
0.0
  0
VERTEX
  5
800
100
AcDbEntity
  8
2
100
AcDbVertex
100
AcDb2dVertex
 10
-180.486758
 20
283.543338
 30
0.0
  0
VERTEX
  5
801
100
AcDbEntity
  8
2
100
AcDbVertex
100
AcDb2dVertex
 10
-180.766758
 20
283.343338
 30
0.0
  0
VERTEX
  5
802
100
AcDbEntity
  8
2
100
AcDbVertex
100
AcDb2dVertex
 10
-180.929879
 20
283.143338
 30
0.0
  0
VERTEX
  5
803
100
AcDbEntity
  8
2
100
AcDbVertex
100
AcDb2dVertex
 10
-181.018473
 20
282.943338
 30
0.0
  0
VERTEX
  5
804
100
AcDbEntity
  8
2
100
AcDbVertex
100
AcDb2dVertex
 10
-181.046758
 20
282.743338
 30
0.0
  0
VERTEX
  5
805
100
AcDbEntity
  8
2
100
AcDbVertex
100
AcDb2dVertex
 10
-181.018473
 20
282.543338
 30
0.0
  0
VERTEX
  5
806
100
AcDbEntity
  8
2
100
AcDbVertex
100
AcDb2dVertex
 10
-180.929879
 20
282.343338
 30
0.0
  0
VERTEX
  5
807
100
AcDbEntity
  8
2
100
AcDbVertex
100
AcDb2dVertex
 10
-180.766758
 20
282.143338
 30
0.0
  0
VERTEX
  5
808
100
AcDbEntity
  8
2
100
AcDbVertex
100
AcDb2dVertex
 10
-180.486758
 20
281.943338
 30
0.0
  0
VERTEX
  5
809
100
AcDbEntity
  8
2
100
AcDbVertex
100
AcDb2dVertex
 10
-179.646758
 20
281.743338
 30
0.0
  0
VERTEX
  5
80A
100
AcDbEntity
  8
2
100
AcDbVertex
100
AcDb2dVertex
 10
-178.806758
 20
281.943338
 30
0.0
  0
VERTEX
  5
80B
100
AcDbEntity
  8
2
100
AcDbVertex
100
AcDb2dVertex
 10
-178.526758
 20
282.143338
 30
0.0
  0
VERTEX
  5
80C
100
AcDbEntity
  8
2
100
AcDbVertex
100
AcDb2dVertex
 10
-178.363637
 20
282.343338
 30
0.0
  0
VERTEX
  5
80D
100
AcDbEntity
  8
2
100
AcDbVertex
100
AcDb2dVertex
 10
-178.275044
 20
282.543338
 30
0.0
  0
VERTEX
  5
80E
100
AcDbEntity
  8
2
100
AcDbVertex
100
AcDb2dVertex
 10
-178.246758
 20
282.743338
 30
0.0
  0
SEQEND
  5
80F
100
AcDbEntity
  8
2
  0
POLYLINE
  5
663
100
AcDbEntity
  8
2
100
AcDb2dPolyline
 66
     1
 10
0.0
 20
0.0
 30
0.0
 70
     1
  0
VERTEX
  5
810
100
AcDbEntity
  8
2
100
AcDbVertex
100
AcDb2dVertex
 10
-178.246758
 20
262.743338
 30
0.0
  0
VERTEX
  5
811
100
AcDbEntity
  8
2
100
AcDbVertex
100
AcDb2dVertex
 10
-178.275044
 20
262.943338
 30
0.0
  0
VERTEX
  5
812
100
AcDbEntity
  8
2
100
AcDbVertex
100
AcDb2dVertex
 10
-178.363637
 20
263.143338
 30
0.0
  0
VERTEX
  5
813
100
AcDbEntity
  8
2
100
AcDbVertex
100
AcDb2dVertex
 10
-178.526758
 20
263.343338
 30
0.0
  0
VERTEX
  5
814
100
AcDbEntity
  8
2
100
AcDbVertex
100
AcDb2dVertex
 10
-178.806758
 20
263.543338
 30
0.0
  0
VERTEX
  5
815
100
AcDbEntity
  8
2
100
AcDbVertex
100
AcDb2dVertex
 10
-179.646758
 20
263.743338
 30
0.0
  0
VERTEX
  5
816
100
AcDbEntity
  8
2
100
AcDbVertex
100
AcDb2dVertex
 10
-180.486758
 20
263.543338
 30
0.0
  0
VERTEX
  5
817
100
AcDbEntity
  8
2
100
AcDbVertex
100
AcDb2dVertex
 10
-180.766758
 20
263.343338
 30
0.0
  0
VERTEX
  5
818
100
AcDbEntity
  8
2
100
AcDbVertex
100
AcDb2dVertex
 10
-180.929879
 20
263.143338
 30
0.0
  0
VERTEX
  5
819
100
AcDbEntity
  8
2
100
AcDbVertex
100
AcDb2dVertex
 10
-181.018473
 20
262.943338
 30
0.0
  0
VERTEX
  5
81A
100
AcDbEntity
  8
2
100
AcDbVertex
100
AcDb2dVertex
 10
-181.046758
 20
262.743338
 30
0.0
  0
VERTEX
  5
81B
100
AcDbEntity
  8
2
100
AcDbVertex
100
AcDb2dVertex
 10
-181.018473
 20
262.543338
 30
0.0
  0
VERTEX
  5
81C
100
AcDbEntity
  8
2
100
AcDbVertex
100
AcDb2dVertex
 10
-180.929879
 20
262.343338
 30
0.0
  0
VERTEX
  5
81D
100
AcDbEntity
  8
2
100
AcDbVertex
100
AcDb2dVertex
 10
-180.766758
 20
262.143338
 30
0.0
  0
VERTEX
  5
81E
100
AcDbEntity
  8
2
100
AcDbVertex
100
AcDb2dVertex
 10
-180.486758
 20
261.943338
 30
0.0
  0
VERTEX
  5
81F
100
AcDbEntity
  8
2
100
AcDbVertex
100
AcDb2dVertex
 10
-179.646758
 20
261.743338
 30
0.0
  0
VERTEX
  5
820
100
AcDbEntity
  8
2
100
AcDbVertex
100
AcDb2dVertex
 10
-178.806758
 20
261.943338
 30
0.0
  0
VERTEX
  5
821
100
AcDbEntity
  8
2
100
AcDbVertex
100
AcDb2dVertex
 10
-178.526758
 20
262.143338
 30
0.0
  0
VERTEX
  5
822
100
AcDbEntity
  8
2
100
AcDbVertex
100
AcDb2dVertex
 10
-178.363637
 20
262.343338
 30
0.0
  0
VERTEX
  5
823
100
AcDbEntity
  8
2
100
AcDbVertex
100
AcDb2dVertex
 10
-178.275044
 20
262.543338
 30
0.0
  0
VERTEX
  5
824
100
AcDbEntity
  8
2
100
AcDbVertex
100
AcDb2dVertex
 10
-178.246758
 20
262.743338
 30
0.0
  0
SEQEND
  5
825
100
AcDbEntity
  8
2
  0
POLYLINE
  5
67A
100
AcDbEntity
  8
2
100
AcDb2dPolyline
 66
     1
 10
0.0
 20
0.0
 30
0.0
 70
     1
  0
VERTEX
  5
826
100
AcDbEntity
  8
2
100
AcDbVertex
100
AcDb2dVertex
 10
-178.246758
 20
232.743338
 30
0.0
  0
VERTEX
  5
827
100
AcDbEntity
  8
2
100
AcDbVertex
100
AcDb2dVertex
 10
-178.275044
 20
232.943338
 30
0.0
  0
VERTEX
  5
828
100
AcDbEntity
  8
2
100
AcDbVertex
100
AcDb2dVertex
 10
-178.363637
 20
233.143338
 30
0.0
  0
VERTEX
  5
829
100
AcDbEntity
  8
2
100
AcDbVertex
100
AcDb2dVertex
 10
-178.526758
 20
233.343338
 30
0.0
  0
VERTEX
  5
82A
100
AcDbEntity
  8
2
100
AcDbVertex
100
AcDb2dVertex
 10
-178.806758
 20
233.543338
 30
0.0
  0
VERTEX
  5
82B
100
AcDbEntity
  8
2
100
AcDbVertex
100
AcDb2dVertex
 10
-179.646758
 20
233.743338
 30
0.0
  0
VERTEX
  5
82C
100
AcDbEntity
  8
2
100
AcDbVertex
100
AcDb2dVertex
 10
-180.486758
 20
233.543338
 30
0.0
  0
VERTEX
  5
82D
100
AcDbEntity
  8
2
100
AcDbVertex
100
AcDb2dVertex
 10
-180.766758
 20
233.343338
 30
0.0
  0
VERTEX
  5
82E
100
AcDbEntity
  8
2
100
AcDbVertex
100
AcDb2dVertex
 10
-180.929879
 20
233.143338
 30
0.0
  0
VERTEX
  5
82F
100
AcDbEntity
  8
2
100
AcDbVertex
100
AcDb2dVertex
 10
-181.018473
 20
232.943338
 30
0.0
  0
VERTEX
  5
830
100
AcDbEntity
  8
2
100
AcDbVertex
100
AcDb2dVertex
 10
-181.046758
 20
232.743338
 30
0.0
  0
VERTEX
  5
831
100
AcDbEntity
  8
2
100
AcDbVertex
100
AcDb2dVertex
 10
-181.018473
 20
232.543338
 30
0.0
  0
VERTEX
  5
832
100
AcDbEntity
  8
2
100
AcDbVertex
100
AcDb2dVertex
 10
-180.929879
 20
232.343338
 30
0.0
  0
VERTEX
  5
833
100
AcDbEntity
  8
2
100
AcDbVertex
100
AcDb2dVertex
 10
-180.766758
 20
232.143338
 30
0.0
  0
VERTEX
  5
834
100
AcDbEntity
  8
2
100
AcDbVertex
100
AcDb2dVertex
 10
-180.486758
 20
231.943338
 30
0.0
  0
VERTEX
  5
835
100
AcDbEntity
  8
2
100
AcDbVertex
100
AcDb2dVertex
 10
-179.646758
 20
231.743338
 30
0.0
  0
VERTEX
  5
836
100
AcDbEntity
  8
2
100
AcDbVertex
100
AcDb2dVertex
 10
-178.806758
 20
231.943338
 30
0.0
  0
VERTEX
  5
837
100
AcDbEntity
  8
2
100
AcDbVertex
100
AcDb2dVertex
 10
-178.526758
 20
232.143338
 30
0.0
  0
VERTEX
  5
838
100
AcDbEntity
  8
2
100
AcDbVertex
100
AcDb2dVertex
 10
-178.363637
 20
232.343338
 30
0.0
  0
VERTEX
  5
839
100
AcDbEntity
  8
2
100
AcDbVertex
100
AcDb2dVertex
 10
-178.275044
 20
232.543338
 30
0.0
  0
VERTEX
  5
83A
100
AcDbEntity
  8
2
100
AcDbVertex
100
AcDb2dVertex
 10
-178.246758
 20
232.743338
 30
0.0
  0
SEQEND
  5
83B
100
AcDbEntity
  8
2
  0
POLYLINE
  5
691
100
AcDbEntity
  8
2
100
AcDb2dPolyline
 66
     1
 10
0.0
 20
0.0
 30
0.0
 70
     1
  0
VERTEX
  5
83C
100
AcDbEntity
  8
2
100
AcDbVertex
100
AcDb2dVertex
 10
-178.246758
 20
212.743338
 30
0.0
  0
VERTEX
  5
83D
100
AcDbEntity
  8
2
100
AcDbVertex
100
AcDb2dVertex
 10
-178.275044
 20
212.943338
 30
0.0
  0
VERTEX
  5
83E
100
AcDbEntity
  8
2
100
AcDbVertex
100
AcDb2dVertex
 10
-178.363637
 20
213.143338
 30
0.0
  0
VERTEX
  5
83F
100
AcDbEntity
  8
2
100
AcDbVertex
100
AcDb2dVertex
 10
-178.526758
 20
213.343338
 30
0.0
  0
VERTEX
  5
840
100
AcDbEntity
  8
2
100
AcDbVertex
100
AcDb2dVertex
 10
-178.806758
 20
213.543338
 30
0.0
  0
VERTEX
  5
841
100
AcDbEntity
  8
2
100
AcDbVertex
100
AcDb2dVertex
 10
-179.646758
 20
213.743338
 30
0.0
  0
VERTEX
  5
842
100
AcDbEntity
  8
2
100
AcDbVertex
100
AcDb2dVertex
 10
-180.486758
 20
213.543338
 30
0.0
  0
VERTEX
  5
843
100
AcDbEntity
  8
2
100
AcDbVertex
100
AcDb2dVertex
 10
-180.766758
 20
213.343338
 30
0.0
  0
VERTEX
  5
844
100
AcDbEntity
  8
2
100
AcDbVertex
100
AcDb2dVertex
 10
-180.929879
 20
213.143338
 30
0.0
  0
VERTEX
  5
845
100
AcDbEntity
  8
2
100
AcDbVertex
100
AcDb2dVertex
 10
-181.018473
 20
212.943338
 30
0.0
  0
VERTEX
  5
846
100
AcDbEntity
  8
2
100
AcDbVertex
100
AcDb2dVertex
 10
-181.046758
 20
212.743338
 30
0.0
  0
VERTEX
  5
847
100
AcDbEntity
  8
2
100
AcDbVertex
100
AcDb2dVertex
 10
-181.018473
 20
212.543338
 30
0.0
  0
VERTEX
  5
848
100
AcDbEntity
  8
2
100
AcDbVertex
100
AcDb2dVertex
 10
-180.929879
 20
212.343338
 30
0.0
  0
VERTEX
  5
849
100
AcDbEntity
  8
2
100
AcDbVertex
100
AcDb2dVertex
 10
-180.766758
 20
212.143338
 30
0.0
  0
VERTEX
  5
84A
100
AcDbEntity
  8
2
100
AcDbVertex
100
AcDb2dVertex
 10
-180.486758
 20
211.943338
 30
0.0
  0
VERTEX
  5
84B
100
AcDbEntity
  8
2
100
AcDbVertex
100
AcDb2dVertex
 10
-179.646758
 20
211.743338
 30
0.0
  0
VERTEX
  5
84C
100
AcDbEntity
  8
2
100
AcDbVertex
100
AcDb2dVertex
 10
-178.806758
 20
211.943338
 30
0.0
  0
VERTEX
  5
84D
100
AcDbEntity
  8
2
100
AcDbVertex
100
AcDb2dVertex
 10
-178.526758
 20
212.143338
 30
0.0
  0
VERTEX
  5
84E
100
AcDbEntity
  8
2
100
AcDbVertex
100
AcDb2dVertex
 10
-178.363637
 20
212.343338
 30
0.0
  0
VERTEX
  5
84F
100
AcDbEntity
  8
2
100
AcDbVertex
100
AcDb2dVertex
 10
-178.275044
 20
212.543338
 30
0.0
  0
VERTEX
  5
850
100
AcDbEntity
  8
2
100
AcDbVertex
100
AcDb2dVertex
 10
-178.246758
 20
212.743338
 30
0.0
  0
SEQEND
  5
851
100
AcDbEntity
  8
2
  0
LINE
  5
6A8
100
AcDbEntity
  8
2
100
AcDbLine
 10
-356.396758
 20
182.832543
 30
0.0
 11
-356.396758
 21
184.443338
 31
0.0
  0
ARC
  5
6A9
100
AcDbEntity
  8
2
100
AcDbCircle
 10
-357.396758
 20
182.832543
 30
0.0
 40
1.0
100
AcDbArc
 50
302.392365
 51
360.0
  0
LINE
  5
6AA
100
AcDbEntity
  8
2
100
AcDbLine
 10
-365.896758
 20
184.443338
 30
0.0
 11
-356.396758
 21
184.443338
 31
0.0
  0
LINE
  5
6AB
100
AcDbEntity
  8
2
100
AcDbLine
 10
-356.546758
 20
184.443338
 30
0.0
 11
-356.546758
 21
185.743338
 31
0.0
  0
LINE
  5
6AC
100
AcDbEntity
  8
2
100
AcDbLine
 10
-365.896758
 20
182.832543
 30
0.0
 11
-365.896758
 21
184.443338
 31
0.0
  0
LINE
  5
6AD
100
AcDbEntity
  8
2
100
AcDbLine
 10
-365.746758
 20
184.443338
 30
0.0
 11
-365.746758
 21
185.743338
 31
0.0
  0
LINE
  5
6AE
100
AcDbEntity
  8
2
100
AcDbLine
 10
-360.646758
 20
180.758979
 30
0.0
 11
-360.646758
 21
180.943338
 31
0.0
  0
LINE
  5
6AF
100
AcDbEntity
  8
2
100
AcDbLine
 10
-361.646758
 20
180.758979
 30
0.0
 11
-361.646758
 21
180.943338
 31
0.0
  0
LINE
  5
6B0
100
AcDbEntity
  8
2
100
AcDbLine
 10
-360.646758
 20
180.943338
 30
0.0
 11
-361.646758
 21
180.943338
 31
0.0
  0
ARC
  5
6B1
100
AcDbEntity
  8
2
100
AcDbCircle
 10
-361.146758
 20
188.743338
 30
0.0
 40
8.0
100
AcDbArc
 50
273.583322
 51
302.392365
  0
ARC
  5
6B2
100
AcDbEntity
  8
2
100
AcDbCircle
 10
-361.146758
 20
188.743338
 30
0.0
 40
8.0
100
AcDbArc
 50
237.607635
 51
266.416678
  0
ARC
  5
6B3
100
AcDbEntity
  8
2
100
AcDbCircle
 10
-364.896758
 20
182.832543
 30
0.0
 40
1.0
100
AcDbArc
 50
180.0
 51
237.607635
  0
LINE
  5
6B4
100
AcDbEntity
  8
2
100
AcDbLine
 10
-217.396758
 20
182.832543
 30
0.0
 11
-217.396758
 21
184.443338
 31
0.0
  0
ARC
  5
6B5
100
AcDbEntity
  8
2
100
AcDbCircle
 10
-218.396758
 20
182.832543
 30
0.0
 40
1.0
100
AcDbArc
 50
302.392365
 51
360.0
  0
LINE
  5
6B6
100
AcDbEntity
  8
2
100
AcDbLine
 10
-226.896758
 20
184.443338
 30
0.0
 11
-217.396758
 21
184.443338
 31
0.0
  0
LINE
  5
6B7
100
AcDbEntity
  8
2
100
AcDbLine
 10
-217.546758
 20
184.443338
 30
0.0
 11
-217.546758
 21
185.743338
 31
0.0
  0
LINE
  5
6B8
100
AcDbEntity
  8
2
100
AcDbLine
 10
-226.896758
 20
182.832543
 30
0.0
 11
-226.896758
 21
184.443338
 31
0.0
  0
LINE
  5
6B9
100
AcDbEntity
  8
2
100
AcDbLine
 10
-226.746758
 20
184.443338
 30
0.0
 11
-226.746758
 21
185.743338
 31
0.0
  0
LINE
  5
6BA
100
AcDbEntity
  8
2
100
AcDbLine
 10
-221.646758
 20
180.758979
 30
0.0
 11
-221.646758
 21
180.943338
 31
0.0
  0
LINE
  5
6BB
100
AcDbEntity
  8
2
100
AcDbLine
 10
-222.646758
 20
180.758979
 30
0.0
 11
-222.646758
 21
180.943338
 31
0.0
  0
LINE
  5
6BC
100
AcDbEntity
  8
2
100
AcDbLine
 10
-221.646758
 20
180.943338
 30
0.0
 11
-222.646758
 21
180.943338
 31
0.0
  0
ARC
  5
6BD
100
AcDbEntity
  8
2
100
AcDbCircle
 10
-222.146758
 20
188.743338
 30
0.0
 40
8.0
100
AcDbArc
 50
273.583322
 51
302.392365
  0
ARC
  5
6BE
100
AcDbEntity
  8
2
100
AcDbCircle
 10
-222.146758
 20
188.743338
 30
0.0
 40
8.0
100
AcDbArc
 50
237.607635
 51
266.416678
  0
ARC
  5
6BF
100
AcDbEntity
  8
2
100
AcDbCircle
 10
-225.896758
 20
182.832543
 30
0.0
 40
1.0
100
AcDbArc
 50
180.0
 51
237.607635
  0
LINE
  5
6C0
100
AcDbEntity
  8
2
100
AcDbLine
 10
-367.896758
 20
184.443338
 30
0.0
 11
-365.746758
 21
184.443338
 31
0.0
  0
LINE
  5
6C1
100
AcDbEntity
  8
2
100
AcDbLine
 10
-367.896758
 20
182.832543
 30
0.0
 11
-367.896758
 21
184.443338
 31
0.0
  0
LINE
  5
6C2
100
AcDbEntity
  8
2
100
AcDbLine
 10
-367.746758
 20
184.443338
 30
0.0
 11
-367.746758
 21
185.743338
 31
0.0
  0
LINE
  5
6C3
100
AcDbEntity
  8
2
100
AcDbLine
 10
-362.646758
 20
180.758979
 30
0.0
 11
-362.646758
 21
180.885221
 31
0.0
  0
LINE
  5
6C4
100
AcDbEntity
  8
2
100
AcDbLine
 10
-363.646758
 20
180.758979
 30
0.0
 11
-363.646758
 21
180.943338
 31
0.0
  0
LINE
  5
6C5
100
AcDbEntity
  8
2
100
AcDbLine
 10
-362.924397
 20
180.943338
 30
0.0
 11
-363.646758
 21
180.943338
 31
0.0
  0
ARC
  5
6C6
100
AcDbEntity
  8
2
100
AcDbCircle
 10
-363.146758
 20
188.743338
 30
0.0
 40
8.0
100
AcDbArc
 50
273.583322
 51
277.180756
  0
ARC
  5
6C7
100
AcDbEntity
  8
2
100
AcDbCircle
 10
-363.146758
 20
188.743338
 30
0.0
 40
8.0
100
AcDbArc
 50
237.607635
 51
266.416678
  0
ARC
  5
6C8
100
AcDbEntity
  8
2
100
AcDbCircle
 10
-366.896758
 20
182.832543
 30
0.0
 40
1.0
100
AcDbArc
 50
180.0
 51
237.607635
  0
LINE
  5
6C9
100
AcDbEntity
  8
2
100
AcDbLine
 10
-298.896758
 20
182.832543
 30
0.0
 11
-298.896758
 21
184.443338
 31
0.0
  0
ARC
  5
6CA
100
AcDbEntity
  8
2
100
AcDbCircle
 10
-299.896758
 20
182.832543
 30
0.0
 40
1.0
100
AcDbArc
 50
302.392365
 51
360.0
  0
LINE
  5
6CB
100
AcDbEntity
  8
2
100
AcDbLine
 10
-308.396758
 20
184.443338
 30
0.0
 11
-298.896758
 21
184.443338
 31
0.0
  0
LINE
  5
6CC
100
AcDbEntity
  8
2
100
AcDbLine
 10
-299.046758
 20
184.443338
 30
0.0
 11
-299.046758
 21
185.743338
 31
0.0
  0
LINE
  5
6CD
100
AcDbEntity
  8
2
100
AcDbLine
 10
-308.396758
 20
182.832543
 30
0.0
 11
-308.396758
 21
184.443338
 31
0.0
  0
LINE
  5
6CE
100
AcDbEntity
  8
2
100
AcDbLine
 10
-308.246758
 20
184.443338
 30
0.0
 11
-308.246758
 21
185.743338
 31
0.0
  0
LINE
  5
6CF
100
AcDbEntity
  8
2
100
AcDbLine
 10
-303.146758
 20
180.758979
 30
0.0
 11
-303.146758
 21
180.943338
 31
0.0
  0
LINE
  5
6D0
100
AcDbEntity
  8
2
100
AcDbLine
 10
-304.146758
 20
180.758979
 30
0.0
 11
-304.146758
 21
180.943338
 31
0.0
  0
LINE
  5
6D1
100
AcDbEntity
  8
2
100
AcDbLine
 10
-303.146758
 20
180.943338
 30
0.0
 11
-304.146758
 21
180.943338
 31
0.0
  0
ARC
  5
6D2
100
AcDbEntity
  8
2
100
AcDbCircle
 10
-303.646758
 20
188.743338
 30
0.0
 40
8.0
100
AcDbArc
 50
273.583322
 51
302.392365
  0
ARC
  5
6D3
100
AcDbEntity
  8
2
100
AcDbCircle
 10
-303.646758
 20
188.743338
 30
0.0
 40
8.0
100
AcDbArc
 50
237.607635
 51
266.416678
  0
ARC
  5
6D4
100
AcDbEntity
  8
2
100
AcDbCircle
 10
-307.396758
 20
182.832543
 30
0.0
 40
1.0
100
AcDbArc
 50
180.0
 51
237.607635
  0
LINE
  5
6D5
100
AcDbEntity
  8
2
100
AcDbLine
 10
-234.146758
 20
166.743338
 30
0.0
 11
-259.146758
 21
166.743338
 31
0.0
  0
LINE
  5
6D6
100
AcDbEntity
  8
2
100
AcDbLine
 10
-259.146758
 20
163.043338
 30
0.0
 11
-259.146758
 21
166.743338
 31
0.0
  0
LINE
  5
6D7
100
AcDbEntity
  8
2
100
AcDbLine
 10
-258.846758
 20
162.743338
 30
0.0
 11
-259.146758
 21
163.043338
 31
0.0
  0
LINE
  5
6D8
100
AcDbEntity
  8
2
100
AcDbLine
 10
-258.846758
 20
162.743338
 30
0.0
 11
-234.446758
 21
162.743338
 31
0.0
  0
LINE
  5
6D9
100
AcDbEntity
  8
2
100
AcDbLine
 10
-234.446758
 20
162.743338
 30
0.0
 11
-234.146758
 21
163.043338
 31
0.0
  0
LINE
  5
6DA
100
AcDbEntity
  8
2
100
AcDbLine
 10
-234.146758
 20
163.043338
 30
0.0
 11
-234.146758
 21
166.743338
 31
0.0
  0
LINE
  5
6DB
100
AcDbEntity
  8
2
100
AcDbLine
 10
-375.146758
 20
195.743338
 30
0.0
 11
-207.646758
 21
195.743338
 31
0.0
  0
LINE
  5
6DC
100
AcDbEntity
  8
2
100
AcDbLine
 10
-209.16106
 20
185.743338
 30
0.0
 11
-372.146758
 21
185.743338
 31
0.0
  0
LINE
  5
6DD
100
AcDbEntity
  8
2
100
AcDbLine
 10
-216.972788
 20
168.743338
 30
0.0
 11
-327.645625
 21
168.743338
 31
0.0
  0
LINE
  5
6DE
100
AcDbEntity
  8
2
100
AcDbLine
 10
-208.441781
 20
186.656182
 30
0.0
 11
-207.646758
 21
195.743338
 31
0.0
  0
LINE
  5
6DF
100
AcDbEntity
  8
2
100
AcDbLine
 10
-336.615334
 20
183.769326
 30
0.0
 11
-332.344132
 21
172.033358
 31
0.0
  0
ARC
  5
6E0
100
AcDbEntity
  8
2
100
AcDbCircle
 10
-339.434438
 20
182.743338
 30
0.0
 40
3.0
100
AcDbArc
 50
19.99853
 51
90.0
  0
ARC
  5
6E1
100
AcDbEntity
  8
2
100
AcDbCircle
 10
-327.645625
 20
173.743338
 30
0.0
 40
5.0
100
AcDbArc
 50
199.99853
 51
270.0
  0
LINE
  5
6E2
100
AcDbEntity
  8
2
100
AcDbLine
 10
-212.024743
 20
173.024416
 30
0.0
 11
-210.477931
 21
183.670486
 31
0.0
  0
ARC
  5
6E3
100
AcDbEntity
  8
2
100
AcDbCircle
 10
-216.972788
 20
173.743338
 30
0.0
 40
5.0
100
AcDbArc
 50
270.0
 51
351.733109
  0
LINE
  5
6E4
100
AcDbEntity
  8
2
100
AcDbLine
 10
-375.146758
 20
195.743338
 30
0.0
 11
-375.146758
 21
188.743338
 31
0.0
  0
ARC
  5
6E5
100
AcDbEntity
  8
2
100
AcDbCircle
 10
-372.146758
 20
188.743338
 30
0.0
 40
3.0
100
AcDbArc
 50
180.0
 51
270.0
  0
ARC
  5
6E6
100
AcDbEntity
  8
2
100
AcDbCircle
 10
-209.437976
 20
186.743338
 30
0.0
 40
1.0
100
AcDbArc
 50
298.830359
 51
355.0
  0
ARC
  5
6E7
100
AcDbEntity
  8
2
100
AcDbCircle
 10
-207.509104
 20
183.239133
 30
0.0
 40
3.0
100
AcDbArc
 50
118.830359
 51
171.733109
  0
LINE
  5
6E8
100
AcDbEntity
  8
2
 62
     2
100
AcDbLine
 10
-309.248242
 20
184.262599
 30
0.0
 11
-305.753194
 21
171.262599
 31
0.0
  0
LINE
  5
6E9
100
AcDbEntity
  8
2
 62
     2
100
AcDbLine
 10
-300.883274
 20
171.174842
 30
0.0
 11
-298.010848
 21
184.174842
 31
0.0
  0
ARC
  5
6EA
100
AcDbEntity
  8
2
 62
     2
100
AcDbCircle
 10
-296.057951
 20
183.743338
 30
0.0
 40
2.0
100
AcDbArc
 50
131.409622
 51
167.540354
  0
ARC
  5
6EB
100
AcDbEntity
  8
2
 62
     2
100
AcDbCircle
 10
-311.179658
 20
183.743338
 30
0.0
 40
2.0
100
AcDbArc
 50
15.048138
 51
48.590378
  0
LINE
  5
6EC
100
AcDbEntity
  8
2
100
AcDbLine
 10
-234.646758
 20
166.743338
 30
0.0
 11
-258.646758
 21
166.743338
 31
0.0
  0
LINE
  5
6ED
100
AcDbEntity
  8
2
100
AcDbLine
 10
-234.146758
 20
167.243338
 30
0.0
 11
-234.146758
 21
167.743338
 31
0.0
  0
LINE
  5
6EE
100
AcDbEntity
  8
2
100
AcDbLine
 10
-259.146758
 20
167.243338
 30
0.0
 11
-259.146758
 21
167.743338
 31
0.0
  0
ARC
  5
6EF
100
AcDbEntity
  8
2
100
AcDbCircle
 10
-234.646758
 20
167.243338
 30
0.0
 40
0.5
100
AcDbArc
 50
270.0
 51
360.0
  0
ARC
  5
6F0
100
AcDbEntity
  8
2
100
AcDbCircle
 10
-258.646758
 20
167.243338
 30
0.0
 40
0.5
100
AcDbArc
 50
180.0
 51
270.0
  0
ARC
  5
6F1
100
AcDbEntity
  8
2
100
AcDbCircle
 10
-233.146758
 20
167.743338
 30
0.0
 40
1.0
100
AcDbArc
 50
90.0
 51
180.0
  0
ARC
  5
6F2
100
AcDbEntity
  8
2
100
AcDbCircle
 10
-260.146758
 20
167.743338
 30
0.0
 40
1.0
100
AcDbArc
 50
360.0
 51
90.0
  0
LINE
  5
6F3
100
AcDbEntity
  8
2
  6
CENTER
 62
     2
100
AcDbLine
 10
-383.052274
 20
247.743338
 30
0.0
 11
-169.641205
 21
247.743338
 31
0.0
  0
LINE
  5
6F4
100
AcDbEntity
  8
2
  6
CENTER
 62
     2
100
AcDbLine
 10
-201.57885
 20
222.743338
 30
0.0
 11
-167.722118
 21
222.743338
 31
0.0
  0
LINE
  5
6F5
100
AcDbEntity
  8
2
  6
CENTER
 62
     2
100
AcDbLine
 10
-201.57885
 20
272.743338
 30
0.0
 11
-167.722118
 21
272.743338
 31
0.0
  0
LINE
  5
6F6
100
AcDbEntity
  8
2
  6
CENTER
 62
     2
100
AcDbLine
 10
-275.146758
 20
311.912382
 30
0.0
 11
-275.146758
 21
154.226573
 31
0.0
  0
LINE
  5
6F7
100
AcDbEntity
  8
2
  6
CENTER
 62
     2
100
AcDbLine
 10
-336.396758
 20
171.292716
 30
0.0
 11
-336.396758
 21
308.310789
 31
0.0
  0
LINE
  5
6F8
100
AcDbEntity
  8
2
  6
CENTER
 62
     2
100
AcDbLine
 10
-246.646758
 20
157.773902
 30
0.0
 11
-246.646758
 21
308.310789
 31
0.0
  0
LINE
  5
6F9
100
AcDbEntity
  8
2
  6
CENTER
 62
     2
100
AcDbLine
 10
-361.146758
 20
172.513663
 30
0.0
 11
-361.146758
 21
198.057288
 31
0.0
  0
LINE
  5
6FA
100
AcDbEntity
  8
2
  6
CENTER
 62
     2
100
AcDbLine
 10
-303.646758
 20
198.057288
 30
0.0
 11
-303.646758
 21
172.513663
 31
0.0
  0
LINE
  5
6FB
100
AcDbEntity
  8
2
  6
CENTER
 62
     2
100
AcDbLine
 10
-222.146758
 20
172.513663
 30
0.0
 11
-222.146758
 21
198.057288
 31
0.0
  0
DIMENSION
  5
6FC
100
AcDbEntity
  8
5
100
AcDbDimension
  2
*D0
 10
-49.058516
 20
-146.756662
 30
0.0
 11
-60.953516
 21
-213.251662
 31
0.0
  1
132
100
AcDbAlignedDimension
 13
78.029685
 23
-278.756662
 33
0.0
 14
76.503242
 24
-146.756662
 34
0.0
 50
90.0
100
AcDbRotatedDimension
  0
DIMENSION
  5
6FD
100
AcDbEntity
  8
5
100
AcDbDimension
  2
*D1
 10
-49.058516
 20
-278.756662
 30
0.0
 11
-57.488516
 21
-305.736662
 31
0.0
  1
60
100
AcDbAlignedDimension
 13
106.503242
 23
-338.656662
 33
0.0
 14
78.029685
 24
-278.756662
 34
0.0
 50
90.0
100
AcDbRotatedDimension
  0
DIMENSION
  5
6FE
100
AcDbEntity
  8
5
100
AcDbDimension
  2
*D2
 10
129.003242
 20
-371.550339
 30
0.0
 11
111.503242
 21
-365.100339
 31
0.0
  1
35
100
AcDbAlignedDimension
 13
94.003242
 23
-317.756662
 33
0.0
 14
129.003242
 24
-317.756662
 34
0.0
100
AcDbRotatedDimension
  0
TEXT
  5
6FF
100
AcDbEntity
  8
5
100
AcDbText
 10
324.389557
 20
-159.884914
 30
0.0
 40
18.0
  1
駆動部・・・４Ｉ－０型 
 72
     5
 11
518.789557
 21
-159.884914
 31
0.0
100
AcDbText
  0
DIMENSION
  5
700
100
AcDbEntity
  8
5
100
AcDbDimension
  2
*D3
 10
-275.146758
 20
344.617722
 30
0.0
 11
-325.146758
 21
351.067721
 31
0.0
  1
100
100
AcDbAlignedDimension
 13
-375.146758
 23
217.243338
 33
0.0
 14
-275.146758
 24
311.912382
 34
0.0
100
AcDbRotatedDimension
  0
DIMENSION
  5
701
100
AcDbEntity
  8
5
100
AcDbDimension
  2
*D4
 10
-173.146758
 20
344.617722
 30
0.0
 11
-224.146758
 21
351.067721
 31
0.0
  1
102
100
AcDbAlignedDimension
 13
-275.146758
 23
344.617722
 33
0.0
 14
-173.146758
 24
285.743338
 34
0.0
100
AcDbRotatedDimension
  0
DIMENSION
  5
702
100
AcDbEntity
  8
5
100
AcDbDimension
  2
*D5
 10
-129.578899
 20
301.546338
 30
0.0
 11
-144.938899
 21
270.684838
 31
0.0
  1
53.8
100
AcDbAlignedDimension
 13
-169.641205
 23
247.743338
 33
0.0
 14
-191.343758
 24
301.546338
 34
0.0
 50
90.0
100
AcDbRotatedDimension
  0
DIMENSION
  5
703
100
AcDbEntity
  8
5
100
AcDbDimension
  2
*D6
 10
-129.578899
 20
247.743338
 30
0.0
 11
-138.008899
 21
208.213338
 31
0.0
  1
85
100
AcDbAlignedDimension
 13
-234.446758
 23
162.743338
 33
0.0
 14
-129.578899
 24
247.743338
 34
0.0
 50
90.0
100
AcDbRotatedDimension
  0
DIMENSION
  5
704
100
AcDbEntity
  8
5
100
AcDbDimension
  2
*D7
 10
-49.058516
 20
3.243338
 30
0.0
 11
-60.953515
 21
-72.251662
 31
0.0
  1
150
100
AcDbAlignedDimension
 13
76.503242
 23
-146.756662
 33
0.0
 14
111.503242
 24
3.243338
 34
0.0
 50
90.0
100
AcDbRotatedDimension
  0
LINE
  5
705
100
AcDbEntity
  8
18
100
AcDbLine
 10
364.647228
 20
-204.646854
 30
0.0
 11
514.647228
 21
-204.646854
 31
0.0
  0
LINE
  5
706
100
AcDbEntity
  8
18
100
AcDbLine
 10
364.647228
 20
-264.646854
 30
0.0
 11
514.647228
 21
-264.646854
 31
0.0
  0
LINE
  5
707
100
AcDbEntity
  8
18
100
AcDbLine
 10
364.647228
 20
-279.646854
 30
0.0
 11
514.647228
 21
-279.646854
 31
0.0
  0
LINE
  5
708
100
AcDbEntity
  8
18
100
AcDbLine
 10
364.647228
 20
-294.646854
 30
0.0
 11
514.647228
 21
-294.646854
 31
0.0
  0
LINE
  5
709
100
AcDbEntity
  8
18
100
AcDbLine
 10
364.647228
 20
-204.646854
 30
0.0
 11
364.647228
 21
-294.646854
 31
0.0
  0
LINE
  5
70A
100
AcDbEntity
  8
18
100
AcDbLine
 10
439.647228
 20
-204.646854
 30
0.0
 11
439.647228
 21
-279.646854
 31
0.0
  0
LINE
  5
70B
100
AcDbEntity
  8
18
100
AcDbLine
 10
514.647228
 20
-204.646854
 30
0.0
 11
514.647228
 21
-294.646854
 31
0.0
  0
LINE
  5
70C
100
AcDbEntity
  8
18
  6
CENTER
 62
     2
100
AcDbLine
 10
371.828773
 20
-232.822311
 30
0.0
 11
431.835594
 21
-232.822311
 31
0.0
  0
LINE
  5
70D
100
AcDbEntity
  8
18
  6
CENTER
 62
     2
100
AcDbLine
 10
401.144234
 20
-217.324265
 30
0.0
 11
401.144234
 21
-250.189419
 31
0.0
  0
LINE
  5
70E
100
AcDbEntity
  8
18
100
AcDbLine
 10
377.144234
 20
-222.322311
 30
0.0
 11
422.144234
 21
-222.322311
 31
0.0
  0
LINE
  5
70F
100
AcDbEntity
  8
18
100
AcDbLine
 10
377.144234
 20
-243.322311
 30
0.0
 11
422.144234
 21
-243.322311
 31
0.0
  0
LINE
  5
710
100
AcDbEntity
  8
18
100
AcDbLine
 10
377.144234
 20
-222.322311
 30
0.0
 11
377.144234
 21
-246.322311
 31
0.0
  0
LINE
  5
711
100
AcDbEntity
  8
18
100
AcDbLine
 10
419.144234
 20
-222.322311
 30
0.0
 11
419.144234
 21
-243.322311
 31
0.0
  0
LINE
  5
712
100
AcDbEntity
  8
18
100
AcDbLine
 10
377.144234
 20
-246.322311
 30
0.0
 11
417.144234
 21
-246.322311
 31
0.0
  0
LINE
  5
713
100
AcDbEntity
  8
18
100
AcDbLine
 10
422.144234
 20
-222.322311
 30
0.0
 11
422.144234
 21
-243.322311
 31
0.0
  0
LINE
  5
714
100
AcDbEntity
  8
18
100
AcDbLine
 10
417.144234
 20
-243.322311
 30
0.0
 11
417.144234
 21
-246.322311
 31
0.0
  0
LINE
  5
715
100
AcDbEntity
  8
18
100
AcDbLine
 10
390.644234
 20
-223.822311
 30
0.0
 11
390.644234
 21
-241.822311
 31
0.0
  0
LINE
  5
716
100
AcDbEntity
  8
18
100
AcDbLine
 10
416.144234
 20
-223.822311
 30
0.0
 11
416.144234
 21
-241.822311
 31
0.0
  0
LINE
  5
717
100
AcDbEntity
  8
18
100
AcDbLine
 10
390.644234
 20
-223.822311
 30
0.0
 11
416.144234
 21
-223.822311
 31
0.0
  0
LINE
  5
718
100
AcDbEntity
  8
18
100
AcDbLine
 10
390.644234
 20
-241.822311
 30
0.0
 11
416.144234
 21
-241.822311
 31
0.0
  0
CIRCLE
  5
719
100
AcDbEntity
  8
18
100
AcDbCircle
 10
401.144234
 20
-232.822311
 30
0.0
 40
3.6
  0
LINE
  5
71A
100
AcDbEntity
  8
18
  6
DASHED
100
AcDbLine
 10
384.644234
 20
-226.822311
 30
0.0
 11
417.644234
 21
-226.822311
 31
0.0
  0
LINE
  5
71B
100
AcDbEntity
  8
18
  6
DASHED
100
AcDbLine
 10
384.644234
 20
-238.822311
 30
0.0
 11
417.644234
 21
-238.822311
 31
0.0
  0
LINE
  5
71C
100
AcDbEntity
  8
18
  6
DASHED
100
AcDbLine
 10
417.644234
 20
-226.822311
 30
0.0
 11
417.644234
 21
-238.822311
 31
0.0
  0
LINE
  5
71D
100
AcDbEntity
  8
18
  6
DASHED
100
AcDbLine
 10
384.644234
 20
-226.822311
 30
0.0
 11
384.644234
 21
-238.822311
 31
0.0
  0
LINE
  5
71E
100
AcDbEntity
  8
18
  6
CENTER
 62
     2
100
AcDbLine
 10
456.122978
 20
-232.918785
 30
0.0
 11
498.500055
 21
-232.918785
 31
0.0
  0
LINE
  5
71F
100
AcDbEntity
  8
18
  6
CENTER
 62
     2
100
AcDbLine
 10
409.144234
 20
-244.750105
 30
0.0
 11
409.144234
 21
-257.684772
 31
0.0
  0
LINE
  5
720
100
AcDbEntity
  8
18
100
AcDbLine
 10
493.954262
 20
-224.918606
 30
0.0
 11
493.954262
 21
-219.047785
 31
0.0
  0
LINE
  5
721
100
AcDbEntity
  8
18
100
AcDbLine
 10
493.954262
 20
-219.047785
 30
0.0
 11
495.454262
 21
-219.047785
 31
0.0
  0
LINE
  5
722
100
AcDbEntity
  8
18
100
AcDbLine
 10
495.454262
 20
-224.918606
 30
0.0
 11
495.454262
 21
-219.047785
 31
0.0
  0
LINE
  5
723
100
AcDbEntity
  8
18
100
AcDbLine
 10
493.954262
 20
-230.789427
 30
0.0
 11
495.454262
 21
-230.789427
 31
0.0
  0
LINE
  5
724
100
AcDbEntity
  8
18
  6
CENTER
 62
     2
100
AcDbLine
 10
475.954262
 20
-207.68655
 30
0.0
 11
475.954262
 21
-260.49115
 31
0.0
  0
LINE
  5
725
100
AcDbEntity
  8
18
100
AcDbLine
 10
465.454262
 20
-256.918785
 30
0.0
 11
465.454262
 21
-211.918785
 31
0.0
  0
LINE
  5
726
100
AcDbEntity
  8
18
100
AcDbLine
 10
486.454262
 20
-256.918785
 30
0.0
 11
486.454262
 21
-211.918785
 31
0.0
  0
LINE
  5
727
100
AcDbEntity
  8
18
100
AcDbLine
 10
465.454262
 20
-256.918785
 30
0.0
 11
489.454262
 21
-256.918785
 31
0.0
  0
LINE
  5
728
100
AcDbEntity
  8
18
100
AcDbLine
 10
465.454262
 20
-214.918785
 30
0.0
 11
486.454262
 21
-214.918785
 31
0.0
  0
LINE
  5
729
100
AcDbEntity
  8
18
100
AcDbLine
 10
489.454262
 20
-256.918785
 30
0.0
 11
489.454262
 21
-216.918785
 31
0.0
  0
LINE
  5
72A
100
AcDbEntity
  8
18
100
AcDbLine
 10
465.454262
 20
-211.918785
 30
0.0
 11
486.454262
 21
-211.918785
 31
0.0
  0
LINE
  5
72B
100
AcDbEntity
  8
18
100
AcDbLine
 10
486.454262
 20
-216.918785
 30
0.0
 11
489.454262
 21
-216.918785
 31
0.0
  0
LINE
  5
72C
100
AcDbEntity
  8
18
100
AcDbLine
 10
466.954262
 20
-243.418785
 30
0.0
 11
484.954262
 21
-243.418785
 31
0.0
  0
LINE
  5
72D
100
AcDbEntity
  8
18
100
AcDbLine
 10
466.954262
 20
-217.918785
 30
0.0
 11
484.954262
 21
-217.918785
 31
0.0
  0
LINE
  5
72E
100
AcDbEntity
  8
18
100
AcDbLine
 10
466.954262
 20
-243.418785
 30
0.0
 11
466.954262
 21
-217.918785
 31
0.0
  0
LINE
  5
72F
100
AcDbEntity
  8
18
100
AcDbLine
 10
484.954262
 20
-243.418785
 30
0.0
 11
484.954262
 21
-217.918785
 31
0.0
  0
CIRCLE
  5
730
100
AcDbEntity
  8
18
100
AcDbCircle
 10
475.954262
 20
-232.918785
 30
0.0
 40
3.6
  0
LINE
  5
731
100
AcDbEntity
  8
18
100
AcDbLine
 10
459.454262
 20
-226.918785
 30
0.0
 11
459.454262
 21
-238.918785
 31
0.0
  0
LINE
  5
732
100
AcDbEntity
  8
18
  6
CENTER
 62
     2
100
AcDbLine
 10
487.882055
 20
-224.918785
 30
0.0
 11
501.689066
 21
-224.918785
 31
0.0
  0
LINE
  5
733
100
AcDbEntity
  8
18
100
AcDbLine
 10
459.454262
 20
-226.918785
 30
0.0
 11
465.454262
 21
-226.918785
 31
0.0
  0
LINE
  5
734
100
AcDbEntity
  8
18
100
AcDbLine
 10
489.454262
 20
-238.918785
 30
0.0
 11
492.454262
 21
-238.918785
 31
0.0
  0
LINE
  5
735
100
AcDbEntity
  8
18
100
AcDbLine
 10
459.454262
 20
-238.918785
 30
0.0
 11
465.454262
 21
-238.918785
 31
0.0
  0
LINE
  5
736
100
AcDbEntity
  8
18
  6
DASHED
100
AcDbLine
 10
465.454262
 20
-238.918785
 30
0.0
 11
489.454262
 21
-238.918785
 31
0.0
  0
LINE
  5
737
100
AcDbEntity
  8
18
100
AcDbLine
 10
492.454262
 20
-232.289606
 30
0.0
 11
492.454262
 21
-238.918785
 31
0.0
  0
LINE
  5
738
100
AcDbEntity
  8
18
  6
DASHED
100
AcDbLine
 10
465.454262
 20
-226.918785
 30
0.0
 11
489.454262
 21
-226.918785
 31
0.0
  0
LINE
  5
739
100
AcDbEntity
  8
18
  6
DASHED
100
AcDbLine
 10
489.454262
 20
-226.918785
 30
0.0
 11
492.049722
 21
-226.918785
 31
0.0
  0
LINE
  5
73A
100
AcDbEntity
  8
18
  6
DASHED
100
AcDbLine
 10
492.049722
 20
-226.918785
 30
0.0
 11
492.454262
 21
-226.918785
 31
0.0
  0
LINE
  5
73B
100
AcDbEntity
  8
18
100
AcDbLine
 10
489.454262
 20
-220.121066
 30
0.0
 11
493.954262
 21
-222.219451
 31
0.0
  0
LINE
  5
73C
100
AcDbEntity
  8
18
100
AcDbLine
 10
489.454262
 20
-229.716146
 30
0.0
 11
493.954262
 21
-227.617762
 31
0.0
  0
LINE
  5
73D
100
AcDbEntity
  8
18
100
AcDbLine
 10
493.954262
 20
-224.918606
 30
0.0
 11
493.954262
 21
-230.789427
 31
0.0
  0
LINE
  5
73E
100
AcDbEntity
  8
18
100
AcDbLine
 10
495.454262
 20
-224.918606
 30
0.0
 11
495.454262
 21
-230.789427
 31
0.0
  0
LINE
  5
73F
100
AcDbEntity
  8
18
100
AcDbLine
 10
409.144055
 20
-250.822311
 30
0.0
 11
403.273234
 21
-250.822311
 31
0.0
  0
LINE
  5
740
100
AcDbEntity
  8
18
100
AcDbLine
 10
403.273234
 20
-250.822311
 30
0.0
 11
403.273234
 21
-252.322311
 31
0.0
  0
LINE
  5
741
100
AcDbEntity
  8
18
100
AcDbLine
 10
409.144055
 20
-252.322311
 30
0.0
 11
403.273234
 21
-252.322311
 31
0.0
  0
LINE
  5
742
100
AcDbEntity
  8
18
100
AcDbLine
 10
415.014876
 20
-250.822311
 30
0.0
 11
415.014876
 21
-252.322311
 31
0.0
  0
LINE
  5
743
100
AcDbEntity
  8
18
100
AcDbLine
 10
404.346515
 20
-246.322311
 30
0.0
 11
406.444899
 21
-250.822311
 31
0.0
  0
LINE
  5
744
100
AcDbEntity
  8
18
100
AcDbLine
 10
413.941595
 20
-246.322311
 30
0.0
 11
411.84321
 21
-250.822311
 31
0.0
  0
LINE
  5
745
100
AcDbEntity
  8
18
100
AcDbLine
 10
409.144055
 20
-250.822311
 30
0.0
 11
415.014876
 21
-250.822311
 31
0.0
  0
LINE
  5
746
100
AcDbEntity
  8
18
100
AcDbLine
 10
409.144055
 20
-252.322311
 30
0.0
 11
415.014876
 21
-252.322311
 31
0.0
  0
LINE
  5
747
100
AcDbEntity
  8
18
  6
DASHED
100
AcDbLine
 10
492.454262
 20
-226.918785
 30
0.0
 11
492.454262
 21
-228.317223
 31
0.0
  0
LINE
  5
748
100
AcDbEntity
  8
18
100
AcDbLine
 10
492.454262
 20
-227.817223
 30
0.0
 11
492.454262
 21
-227.853458
 31
0.0
  0
LINE
  5
749
100
AcDbEntity
  8
18
100
AcDbLine
 10
492.454262
 20
-228.317223
 30
0.0
 11
492.454262
 21
-232.695717
 31
0.0
  0
TEXT
  5
74A
100
AcDbEntity
  8
18
100
AcDbText
 10
367.650238
 20
-399.871262
 30
0.0
 40
9.0
  1
１
 72
     5
 11
374.850238
 21
-399.871262
 31
0.0
100
AcDbText
  0
TEXT
  5
74B
100
AcDbEntity
  8
18
100
AcDbText
 10
379.338043
 20
-410.836578
 30
0.0
 40
9.0
  1
３
 72
     5
 11
386.538043
 21
-410.836578
 31
0.0
100
AcDbText
  0
TEXT
  5
74C
100
AcDbEntity
  8
18
100
AcDbText
 10
395.03944
 20
-276.113216
 30
0.0
 40
9.0
  1
Ａ
 72
     5
 11
402.23944
 21
-276.113216
 31
0.0
100
AcDbText
  0
TEXT
  5
74D
100
AcDbEntity
  8
18
100
AcDbText
 10
470.003597
 20
-276.35368
 30
0.0
 40
9.0
  1
Ｂ
 72
     5
 11
477.203597
 21
-276.35368
 31
0.0
100
AcDbText
  0
TEXT
  5
74E
100
AcDbEntity
  8
18
100
AcDbText
 10
368.562721
 20
-369.105789
 30
0.0
 40
9.0
  1
７００Ｇ－４ＩＡＳ　４０Ａ
 72
     5
 11
483.762721
 21
-369.105789
 31
0.0
100
AcDbText
  0
TEXT
  5
74F
100
AcDbEntity
  8
18
100
AcDbText
 10
368.562721
 20
-381.105789
 30
0.0
 40
9.0
  1
標準仕様　ＪＩＳ　５，１０Ｋ
 72
     5
 11
492.762721
 21
-381.105789
 31
0.0
100
AcDbText
  0
TEXT
  5
750
100
AcDbEntity
  8
18
100
AcDbText
 10
460.8
 20
-408.0
 30
0.0
 40
15.0
  1
Ｄ３－０３３２８
 72
     5
 11
577.8
 21
-408.0
 31
0.0
100
AcDbText
  0
TEXT
  5
751
100
AcDbEntity
  8
18
100
AcDbText
 10
541.497299
 20
-381.312515
 30
0.0
 40
6.75
  1
′０３．７．３１
 72
     5
 11
594.147299
 21
-381.312515
 31
0.0
100
AcDbText
  0
TEXT
  5
752
100
AcDbEntity
  8
18
100
AcDbText
 10
410.623608
 20
-292.247757
 30
0.0
 40
9.0
  1
駆動部取付方向
 72
     5
 11
471.823608
 21
-292.247757
 31
0.0
100
AcDbText
  0
LINE
  5
753
100
AcDbEntity
  8
20
 62
     3
100
AcDbLine
 10
-540.0
 20
-415.5
 30
0.0
 11
600.0
 21
-415.5
 31
0.0
  0
LINE
  5
754
100
AcDbEntity
  8
20
 62
     3
100
AcDbLine
 10
-540.0
 20
396.0
 30
0.0
 11
600.0
 21
396.0
 31
0.0
  0
LINE
  5
755
100
AcDbEntity
  8
20
 62
     3
100
AcDbLine
 10
-540.0
 20
396.0
 30
0.0
 11
-540.0
 21
-415.5
 31
0.0
  0
LINE
  5
756
100
AcDbEntity
  8
20
 62
     3
100
AcDbLine
 10
600.0
 20
396.0
 30
0.0
 11
600.0
 21
-415.5
 31
0.0
  0
LINE
  5
757
100
AcDbEntity
  8
20
 62
     3
100
AcDbLine
 10
180.0
 20
-415.5
 30
0.0
 11
180.0
 21
-355.5
 31
0.0
  0
LINE
  5
758
100
AcDbEntity
  8
20
 62
     3
100
AcDbLine
 10
321.0
 20
-415.5
 30
0.0
 11
321.0
 21
-355.5
 31
0.0
  0
LINE
  5
759
100
AcDbEntity
  8
20
100
AcDbLine
 10
321.0
 20
-385.5
 30
0.0
 11
600.0
 21
-385.5
 31
0.0
  0
LINE
  5
75A
100
AcDbEntity
  8
20
 62
     3
100
AcDbLine
 10
180.0
 20
-355.5
 30
0.0
 11
600.0
 21
-355.5
 31
0.0
  0
LINE
  5
75B
100
AcDbEntity
  8
20
100
AcDbLine
 10
540.0
 20
-385.5
 30
0.0
 11
540.0
 21
-355.5
 31
0.0
  0
LINE
  5
75C
100
AcDbEntity
  8
20
100
AcDbLine
 10
540.0
 20
-370.5
 30
0.0
 11
600.0
 21
-370.5
 31
0.0
  0
LINE
  5
75D
100
AcDbEntity
  8
20
100
AcDbLine
 10
363.0
 20
-415.5
 30
0.0
 11
363.0
 21
-355.5
 31
0.0
  0
LINE
  5
75E
100
AcDbEntity
  8
20
100
AcDbLine
 10
393.0
 20
-415.5
 30
0.0
 11
393.0
 21
-385.5
 31
0.0
  0
LINE
  5
75F
100
AcDbEntity
  8
20
100
AcDbLine
 10
453.0
 20
-415.5
 30
0.0
 11
453.0
 21
-385.5
 31
0.0
  0
LINE
  5
760
100
AcDbEntity
  8
20
100
AcDbLine
 10
371.185244
 20
-407.314756
 30
0.0
 11
383.694872
 21
-394.805128
 31
0.0
  0
TEXT
  5
761
100
AcDbEntity
  8
20
100
AcDbText
 10
394.599987
 20
-397.490753
 30
0.0
 40
5.4
  1
ＤＲＡＷＩＮＧ　ＮＯ．
 72
     5
 11
452.919987
 21
-397.490753
 31
0.0
100
AcDbText
  0
TEXT
  5
762
100
AcDbEntity
  8
20
100
AcDbText
 10
400.5
 20
-409.5
 30
0.0
 40
9.0
  1
図　　　番
 72
     5
 11
443.7
 21
-409.5
 31
0.0
100
AcDbText
  0
TEXT
  5
763
100
AcDbEntity
  8
20
100
AcDbText
 10
558.0
 20
-366.0
 30
0.0
 40
6.0
  1
ＤＡＴＥ
 72
     5
 11
580.8
 21
-366.0
 31
0.0
100
AcDbText
  0
TEXT
  5
764
100
AcDbEntity
  8
20
100
AcDbText
 10
327.003213
 20
-398.883087
 30
0.0
 40
6.0
  1
ＳＣＡＬＥ
 72
     5
 11
355.803213
 21
-398.883087
 31
0.0
100
AcDbText
  0
TEXT
  5
765
100
AcDbEntity
  8
20
100
AcDbText
 10
324.0
 20
-409.5
 30
0.0
 40
9.0
  1
尺　　度
 72
     5
 11
358.2
 21
-409.5
 31
0.0
100
AcDbText
  0
TEXT
  5
766
100
AcDbEntity
  8
20
100
AcDbText
 10
322.503213
 20
-367.487654
 30
0.0
 40
6.0
  1
ＦＩＧ．ＮＯ．
 72
     5
 11
363.303213
 21
-367.487654
 31
0.0
100
AcDbText
  0
TEXT
  5
767
100
AcDbEntity
  8
20
100
AcDbText
 10
324.0
 20
-379.5
 30
0.0
 40
9.0
  1
名　　称
 72
     5
 11
358.2
 21
-379.5
 31
0.0
100
AcDbText
  0
TEXT
  5
768
100
AcDbEntity
  8
20
100
AcDbText
 10
181.696575
 20
-379.410759
 30
0.0
 40
6.9
  1
ＴＯＭＯＥ　ＶＡＬＶＥ　ＣＯ．，ＬＴＤ．
 72
     5
 11
318.316575
 21
-379.410759
 31
0.0
100
AcDbText
  0
TEXT
  5
769
100
AcDbEntity
  8
20
100
AcDbText
 10
202.5
 20
-399.869431
 30
0.0
 40
12.0
  1
巴バルブ株式会社
 72
     5
 11
296.1
 21
-399.869431
 31
0.0
100
AcDbText
  0
ENDSEC
  0
SECTION
  2
OBJECTS
  0
DICTIONARY
  5
7C8
100
AcDbDictionary
  3
ACAD_GROUP
350
7C9
  3
ACAD_MLINESTYLE
350
7CA
  0
DICTIONARY
  5
7C9
102
{ACAD_REACTORS
330
7C8
102
}
100
AcDbDictionary
  0
DICTIONARY
  5
7CA
102
{ACAD_REACTORS
330
7C8
102
}
100
AcDbDictionary
  3
STANDARD
350
7CB
  0
MLINESTYLE
  5
7CB
102
{ACAD_REACTORS
330
7CA
102
}
100
AcDbMlineStyle
  2
STANDARD
 70
     0
  3

 62
     0
 51
90.0
 52
90.0
 71
     2
 49
0.5
 62
   256
  6
BYLAYER
 49
-0.5
 62
   256
  6
BYLAYER
  0
ENDSEC
  0
EOF
