  0
SECTION
  2
HEADER
  9
$LIMMAX
 10
1260.000000
 20
891.000000
  9
$LIMMIN
 10
-1260.000000
 20
-891.000000
  9
$EXTMAX
 10
1260.000000
 20
891.000000
  9
$EXTMIN
 10
-1260.000000
 20
-891.000000
  9
$DIMLFAC
 40
1.000000
  9
$DIMALTF
 40
25.400000
  9
$DIMSCALE
 40
6.000000
  9
$DIMTAD
 70
1
  9
$DIMTIH
 70
1
  9
$DIMTOH
 70
1
  9
$TDCREATE
 40
2450416.000000
  9
$TDUPDATE
 40
2452674.000000
999
3106
  0
ENDSEC
  0
SECTION
  2
TABLES
  0
TABLE
  2
LTYPE
 70
7
  0
LTYPE
  2
CONTINUOUS
 70
0
  3
Solid line
 72
65
 73
0
 40
0.000000
  0
LTYPE
  2
DASHED
 70
0
  3
__ __ __ __ __ __ __ __ __ __ __ __ __ __ __
 72
65
 73
2
 40
2.000000
 49
1.200000
 49
-0.800000
  0
LTYPE
  2
CENTER
 70
0
  3
____ _ ____ _ ____ _ ____ _ ____ _ ____ _ ____
 72
65
 73
4
 40
12.000000
 49
9.000000
 49
-1.000000
 49
1.000000
 49
-1.000000
  0
LTYPE
  2
HIDDEN
 70
0
  3
_ _ _ _ _ _ _ _ _ _ _ _ _ _ _ _ _ _ _ _ _ _ _
 72
65
 73
2
 40
3.200000
 49
2.400000
 49
-0.800000
  0
LTYPE
  2
PHANTOM
 70
0
  3
_____ _ _ _____ _ _ _____ _ _ _____ _ _ _____
 72
65
 73
6
 40
13.500000
 49
9.000000
 49
-1.000000
 49
1.000000
 49
-0.500000
 49
1.000000
 49
-1.000000
  0
LTYPE
  2
DOT
 70
0
  3
...............................................
 72
65
 73
2
 40
1.000000
 49
0.500000
 49
-0.500000
  0
LTYPE
  2
DASHDOT
 70
0
  3
__ . __ . __ . __ . __ . __ . __ . __ . __ . __
 72
65
 73
4
 40
8.000000
 49
5.000000
 49
-1.000000
 49
1.000000
 49
-1.000000
  0
ENDTAB
  0
TABLE
  2
LAYER
 70
7
  0
LAYER
  2
0
 70
0
 62
7
  6
CONTINUOUS
  0
LAYER
  2
1
 70
0
 62
7
  6
CONTINUOUS
  0
LAYER
  2
2
 70
0
 62
7
  6
CONTINUOUS
  0
LAYER
  2
3
 70
0
 62
7
  6
CONTINUOUS
  0
LAYER
  2
5
 70
0
 62
7
  6
CONTINUOUS
  0
LAYER
  2
18
 70
0
 62
7
  6
CONTINUOUS
  0
LAYER
  2
20
 70
0
 62
7
  6
CONTINUOUS
  0
ENDTAB
  0
TABLE
  2
STYLE
 70
1
  0
STYLE
  2
STANDARD
 70
64
 40
0.000000
 41
1.000000
 50
0.000000
 71
0
 42
1.000000
  3
txt
  4
BIGFONT
  0
ENDTAB
  0
ENDSEC
  0
SECTION
  2
BLOCKS
  0
BLOCK
  8
5
  2
*D0
 70
1
 10
0.000000
 20
0.000000
  0
TEXT
  8
5
 10
12.788964
 20
76.851471
 40
19.800000
  1
234
 50
90.000000
 62
2
 41
1.400000
  0
LINE
  8
5
 62
2
 10
137.919793
 20
-19.358529
 11
9.788964
 21
-19.358529
  0
LINE
  8
5
 62
2
 10
15.788964
 20
-19.358529
 11
18.894793
 21
-7.767419
  0
LINE
  8
5
 62
2
 10
15.788964
 20
-19.358529
 11
12.683136
 21
-7.767419
  0
LINE
  8
5
 62
2
 10
18.894793
 20
-7.767419
 11
12.683136
 21
-7.767419
  0
LINE
  8
5
 62
2
 10
15.788964
 20
-19.358529
 11
15.788964
 21
214.641471
  0
LINE
  8
5
 62
2
 10
15.788964
 20
214.641471
 11
12.683136
 21
203.050361
  0
LINE
  8
5
 62
2
 10
15.788964
 20
214.641471
 11
18.894793
 21
203.050361
  0
LINE
  8
5
 62
2
 10
12.683136
 20
203.050361
 11
18.894793
 21
203.050361
  0
LINE
  8
5
 62
2
 10
220.919793
 20
214.641471
 11
9.788964
 21
214.641471
  0
ENDBLK
  8
5
  0
BLOCK
  8
5
  2
*D1
 70
1
 10
0.000000
 20
0.000000
  0
TEXT
  8
5
 10
199.059793
 20
270.713608
 40
19.800000
  1
62
 50
0.000000
 62
2
 41
1.400000
  0
LINE
  8
5
 62
2
 10
181.919793
 20
186.141471
 11
181.919793
 21
273.713608
  0
LINE
  8
5
 62
2
 10
181.919793
 20
267.713608
 11
193.510903
 21
264.607779
  0
LINE
  8
5
 62
2
 10
181.919793
 20
267.713608
 11
193.510903
 21
270.819436
  0
LINE
  8
5
 62
2
 10
193.510903
 20
264.607779
 11
193.510903
 21
270.819436
  0
LINE
  8
5
 62
2
 10
181.919793
 20
267.713608
 11
243.919793
 21
267.713608
  0
LINE
  8
5
 62
2
 10
243.919793
 20
267.713608
 11
232.328684
 21
270.819436
  0
LINE
  8
5
 62
2
 10
243.919793
 20
267.713608
 11
232.328684
 21
264.607779
  0
LINE
  8
5
 62
2
 10
232.328684
 20
270.819436
 11
232.328684
 21
264.607779
  0
LINE
  8
5
 62
2
 10
243.919793
 20
244.563934
 11
243.919793
 21
273.713608
  0
ENDBLK
  8
5
  0
BLOCK
  8
5
  2
*D2
 70
1
 10
0.000000
 20
0.000000
  0
TEXT
  8
5
 10
139.629793
 20
317.864273
 40
19.800000
  1
167
 50
0.000000
 62
2
 41
1.400000
  0
LINE
  8
5
 62
2
 10
76.919793
 20
85.641471
 11
76.919793
 21
320.864273
  0
LINE
  8
5
 62
2
 10
76.919793
 20
314.864273
 11
88.510903
 21
311.758445
  0
LINE
  8
5
 62
2
 10
76.919793
 20
314.864273
 11
88.510903
 21
317.970102
  0
LINE
  8
5
 62
2
 10
88.510903
 20
311.758445
 11
88.510903
 21
317.970102
  0
LINE
  8
5
 62
2
 10
76.919793
 20
314.864273
 11
243.919793
 21
314.864273
  0
LINE
  8
5
 62
2
 10
243.919793
 20
314.864273
 11
232.328684
 21
317.970102
  0
LINE
  8
5
 62
2
 10
243.919793
 20
314.864273
 11
232.328684
 21
311.758445
  0
LINE
  8
5
 62
2
 10
232.328684
 20
317.970102
 11
232.328684
 21
311.758445
  0
LINE
  8
5
 62
2
 10
243.919793
 20
244.563934
 11
243.919793
 21
320.864273
  0
ENDBLK
  8
5
  0
BLOCK
  8
5
  2
*D3
 70
1
 10
0.000000
 20
0.000000
  0
TEXT
  8
5
 10
273.129793
 20
317.864273
 40
19.800000
  1
100
 50
0.000000
 62
2
 41
1.400000
  0
LINE
  8
5
 62
2
 10
243.919793
 20
244.563934
 11
243.919793
 21
320.864273
  0
LINE
  8
5
 62
2
 10
243.919793
 20
314.864273
 11
255.510903
 21
311.758445
  0
LINE
  8
5
 62
2
 10
243.919793
 20
314.864273
 11
255.510903
 21
317.970102
  0
LINE
  8
5
 62
2
 10
255.510903
 20
311.758445
 11
255.510903
 21
317.970102
  0
LINE
  8
5
 62
2
 10
243.919793
 20
314.864273
 11
343.919793
 21
314.864273
  0
LINE
  8
5
 62
2
 10
343.919793
 20
314.864273
 11
332.328684
 21
317.970102
  0
LINE
  8
5
 62
2
 10
343.919793
 20
314.864273
 11
332.328684
 21
311.758445
  0
LINE
  8
5
 62
2
 10
332.328684
 20
317.970102
 11
332.328684
 21
311.758445
  0
LINE
  8
5
 62
2
 10
343.919793
 20
9.641471
 11
343.919793
 21
320.864273
  0
ENDBLK
  8
5
  0
BLOCK
  8
5
  2
*D4
 70
1
 10
0.000000
 20
0.000000
  0
TEXT
  8
5
 10
-348.370018
 20
656.538254
 40
19.800000
  1
373
 50
0.000000
 62
2
 41
1.400000
  0
LINE
  8
5
 62
2
 10
-514.080018
 20
635.695129
 11
-514.080018
 21
659.538254
  0
LINE
  8
5
 62
2
 10
-514.080018
 20
653.538254
 11
-502.488908
 21
650.432425
  0
LINE
  8
5
 62
2
 10
-514.080018
 20
653.538254
 11
-502.488908
 21
656.644082
  0
LINE
  8
5
 62
2
 10
-502.488908
 20
650.432425
 11
-502.488908
 21
656.644082
  0
LINE
  8
5
 62
2
 10
-514.080018
 20
653.538254
 11
-141.080018
 21
653.538254
  0
LINE
  8
5
 62
2
 10
-141.080018
 20
653.538254
 11
-152.671128
 21
656.644082
  0
LINE
  8
5
 62
2
 10
-141.080018
 20
653.538254
 11
-152.671128
 21
650.432425
  0
LINE
  8
5
 62
2
 10
-152.671128
 20
656.644082
 11
-152.671128
 21
650.432425
  0
LINE
  8
5
 62
2
 10
-141.080018
 20
519.136987
 11
-141.080018
 21
659.538254
  0
ENDBLK
  8
5
  0
BLOCK
  8
5
  2
*D5
 70
1
 10
0.000000
 20
0.000000
  0
TEXT
  8
5
 10
-538.620018
 20
705.826401
 40
19.800000
  1
754
 50
0.000000
 62
2
 41
1.400000
  0
LINE
  8
5
 62
2
 10
-894.580018
 20
464.595987
 11
-894.580018
 21
708.826401
  0
LINE
  8
5
 62
2
 10
-894.580018
 20
702.826401
 11
-882.988908
 21
699.720572
  0
LINE
  8
5
 62
2
 10
-894.580018
 20
702.826401
 11
-882.988908
 21
705.932229
  0
LINE
  8
5
 62
2
 10
-882.988908
 20
699.720572
 11
-882.988908
 21
705.932229
  0
LINE
  8
5
 62
2
 10
-894.580018
 20
702.826401
 11
-141.080018
 21
702.826401
  0
LINE
  8
5
 62
2
 10
-141.080018
 20
702.826401
 11
-152.671128
 21
705.932229
  0
LINE
  8
5
 62
2
 10
-141.080018
 20
702.826401
 11
-152.671128
 21
699.720572
  0
LINE
  8
5
 62
2
 10
-152.671128
 20
705.932229
 11
-152.671128
 21
699.720572
  0
LINE
  8
5
 62
2
 10
-141.080018
 20
519.136987
 11
-141.080018
 21
708.826401
  0
ENDBLK
  8
5
  0
BLOCK
  8
5
  2
*D6
 70
1
 10
0.000000
 20
0.000000
  0
TEXT
  8
5
 10
12.788964
 20
-311.758529
 40
18.000000
  1
297
 50
90.000000
 62
2
 41
1.400000
  0
LINE
  8
5
 62
2
 10
143.784891
 20
-441.358529
 11
9.788964
 21
-441.358529
  0
LINE
  8
5
 62
2
 10
15.788964
 20
-441.358529
 11
18.894793
 21
-429.767419
  0
LINE
  8
5
 62
2
 10
15.788964
 20
-441.358529
 11
12.683136
 21
-429.767419
  0
LINE
  8
5
 62
2
 10
18.894793
 20
-429.767419
 11
12.683136
 21
-429.767419
  0
LINE
  8
5
 62
2
 10
15.788964
 20
-441.358529
 11
15.788964
 21
-144.358529
  0
LINE
  8
5
 62
2
 10
15.788964
 20
-144.358529
 11
12.683136
 21
-155.949639
  0
LINE
  8
5
 62
2
 10
15.788964
 20
-144.358529
 11
18.894793
 21
-155.949639
  0
LINE
  8
5
 62
2
 10
12.683136
 20
-155.949639
 11
18.894793
 21
-155.949639
  0
LINE
  8
5
 62
2
 10
160.419793
 20
-144.358529
 11
9.788964
 21
-144.358529
  0
ENDBLK
  8
5
  0
BLOCK
  8
5
  2
*D7
 70
1
 10
0.000000
 20
0.000000
  0
TEXT
  8
5
 10
12.788964
 20
-608.758529
 40
18.000000
  1
297
 50
90.000000
 62
2
 41
1.400000
  0
LINE
  8
5
 62
2
 10
192.919793
 20
-738.358529
 11
9.788964
 21
-738.358529
  0
LINE
  8
5
 62
2
 10
15.788964
 20
-738.358529
 11
18.894793
 21
-726.767419
  0
LINE
  8
5
 62
2
 10
15.788964
 20
-738.358529
 11
12.683136
 21
-726.767419
  0
LINE
  8
5
 62
2
 10
18.894793
 20
-726.767419
 11
12.683136
 21
-726.767419
  0
LINE
  8
5
 62
2
 10
15.788964
 20
-738.358529
 11
15.788964
 21
-441.358529
  0
LINE
  8
5
 62
2
 10
15.788964
 20
-441.358529
 11
12.683136
 21
-452.949639
  0
LINE
  8
5
 62
2
 10
15.788964
 20
-441.358529
 11
18.894793
 21
-452.949639
  0
LINE
  8
5
 62
2
 10
12.683136
 20
-452.949639
 11
18.894793
 21
-452.949639
  0
LINE
  8
5
 62
2
 10
143.784891
 20
-441.358529
 11
9.788964
 21
-441.358529
  0
ENDBLK
  8
5
  0
BLOCK
  8
5
  2
*D8
 70
1
 10
0.000000
 20
0.000000
  0
TEXT
  8
5
 10
12.788964
 20
-100.758529
 40
18.000000
  1
125
 50
90.000000
 62
2
 41
1.400000
  0
LINE
  8
5
 62
2
 10
160.419793
 20
-144.358529
 11
9.788964
 21
-144.358529
  0
LINE
  8
5
 62
2
 10
15.788964
 20
-144.358529
 11
18.894793
 21
-132.767419
  0
LINE
  8
5
 62
2
 10
15.788964
 20
-144.358529
 11
12.683136
 21
-132.767419
  0
LINE
  8
5
 62
2
 10
18.894793
 20
-132.767419
 11
12.683136
 21
-132.767419
  0
LINE
  8
5
 62
2
 10
15.788964
 20
-144.358529
 11
15.788964
 21
-19.358529
  0
LINE
  8
5
 62
2
 10
15.788964
 20
-19.358529
 11
12.683136
 21
-30.949639
  0
LINE
  8
5
 62
2
 10
15.788964
 20
-19.358529
 11
18.894793
 21
-30.949639
  0
LINE
  8
5
 62
2
 10
12.683136
 20
-30.949639
 11
18.894793
 21
-30.949639
  0
LINE
  8
5
 62
2
 10
137.919793
 20
-19.358529
 11
9.788964
 21
-19.358529
  0
ENDBLK
  8
5
  0
BLOCK
  8
5
  2
*D9
 70
1
 10
0.000000
 20
0.000000
  0
TEXT
  8
5
 10
164.719793
 20
-670.870102
 40
18.000000
  1
78
 50
0.000000
 62
2
 41
1.400000
  0
LINE
  8
5
 62
2
 10
204.919793
 20
-628.858529
 11
204.919793
 21
-679.870102
  0
LINE
  8
5
 62
2
 10
204.919793
 20
-673.870102
 11
193.328684
 21
-670.764273
  0
LINE
  8
5
 62
2
 10
204.919793
 20
-673.870102
 11
193.328684
 21
-676.975930
  0
LINE
  8
5
 62
2
 10
193.328684
 20
-670.764273
 11
193.328684
 21
-676.975930
  0
LINE
  8
5
 62
2
 10
161.719793
 20
-673.870102
 11
312.919793
 21
-673.870102
  0
LINE
  8
5
 62
2
 10
282.919793
 20
-673.870102
 11
294.510903
 21
-676.975930
  0
LINE
  8
5
 62
2
 10
282.919793
 20
-673.870102
 11
294.510903
 21
-670.764273
  0
LINE
  8
5
 62
2
 10
294.510903
 20
-676.975930
 11
294.510903
 21
-670.764273
  0
LINE
  8
5
 62
2
 10
282.919793
 20
-628.858529
 11
282.919793
 21
-679.870102
  0
ENDBLK
  8
5
  0
ENDSEC
  0
SECTION
  2
ENTITIES
  0
LINE
  8
1
  6
DASHED
 10
-576.580018
 20
481.448987
 11
-576.580018
 21
542.448987
  0
LINE
  8
1
  6
DASHED
 10
-451.580018
 20
481.448987
 11
-451.580018
 21
542.448987
  0
LINE
  8
1
  6
DASHED
 10
-544.580018
 20
574.448987
 11
-483.580018
 21
574.448987
  0
LINE
  8
1
  6
DASHED
 10
-544.580018
 20
449.448987
 11
-483.580018
 21
449.448987
  0
ARC
  8
1
  6
DASHED
 10
-483.580018
 20
542.448987
 40
32.000000
 50
0.000000
 51
90.000000
  0
ARC
  8
1
  6
DASHED
 10
-544.580018
 20
542.448987
 40
32.000000
 50
90.000000
 51
180.000000
  0
ARC
  8
1
  6
DASHED
 10
-544.580018
 20
481.448987
 40
32.000000
 50
180.000000
 51
270.000000
  0
ARC
  8
1
  6
DASHED
 10
-483.580018
 20
481.448987
 40
32.000000
 50
270.000000
 51
360.000000
  0
CIRCLE
  8
1
  6
DASHED
 10
-469.885844
 20
556.143161
 40
6.500000
  0
CIRCLE
  8
1
  6
DASHED
 10
-558.274192
 20
556.143161
 40
6.500000
  0
CIRCLE
  8
1
  6
DASHED
 10
-469.885844
 20
467.754813
 40
6.500000
  0
CIRCLE
  8
1
  6
DASHED
 10
-558.274192
 20
467.754813
 40
6.500000
  0
LINE
  8
1
 10
-572.580018
 20
-160.358529
 11
-455.580018
 21
-160.358529
  0
LINE
  8
1
 10
-576.580018
 20
-156.358529
 11
-576.580018
 21
-144.358529
  0
LINE
  8
1
 10
-451.580018
 20
-156.358529
 11
-451.580018
 21
-144.358529
  0
ARC
  8
1
 10
-572.580018
 20
-156.358529
 40
4.000000
 50
180.000000
 51
270.000000
  0
ARC
  8
1
 10
-455.580018
 20
-156.358529
 40
4.000000
 50
270.000000
 51
360.000000
  0
ARC
  8
1
 10
-325.724482
 20
-390.888815
 40
11.500000
 50
157.196334
 51
232.803666
  0
ARC
  8
1
 10
-376.194196
 20
-303.472707
 40
11.500000
 50
187.196334
 51
262.803666
  0
ARC
  8
1
 10
-463.610304
 20
-253.002993
 40
11.500000
 50
217.196334
 51
292.803666
  0
ARC
  8
1
 10
-564.549732
 20
-253.002993
 40
11.500000
 50
247.196334
 51
322.803666
  0
ARC
  8
1
 10
-651.965840
 20
-303.472707
 40
11.500000
 50
277.196334
 51
352.803666
  0
ARC
  8
1
 10
-702.435554
 20
-390.888815
 40
11.500000
 50
307.196334
 51
22.803666
  0
ARC
  8
1
 10
-702.435554
 20
-491.828243
 40
11.500000
 50
337.196334
 51
52.803666
  0
ARC
  8
1
 10
-651.965840
 20
-579.244351
 40
11.500000
 50
7.196334
 51
82.803666
  0
ARC
  8
1
 10
-564.549732
 20
-629.714065
 40
11.500000
 50
37.196334
 51
112.803666
  0
ARC
  8
1
 10
-463.610304
 20
-629.714065
 40
11.500000
 50
67.196334
 51
142.803666
  0
ARC
  8
1
 10
-376.194196
 20
-579.244351
 40
11.500000
 50
97.196334
 51
172.803666
  0
ARC
  8
1
 10
-325.724482
 20
-491.828243
 40
11.500000
 50
127.196334
 51
202.803666
  0
ARC
  8
1
 10
-514.080018
 20
-441.358529
 40
187.000000
 50
17.975973
 51
42.024027
  0
ARC
  8
1
 10
-378.135877
 20
-318.850609
 40
4.000000
 50
42.024027
 51
82.803666
  0
ARC
  8
1
 10
-391.572098
 20
-305.414388
 40
4.000000
 50
7.196334
 51
47.975973
  0
ARC
  8
1
 10
-340.012976
 20
-384.881409
 40
4.000000
 50
337.196334
 51
17.975973
  0
ARC
  8
1
 10
-335.094978
 20
-403.235628
 40
4.000000
 50
12.024027
 51
52.803666
  0
ARC
  8
1
 10
-514.080018
 20
-441.358529
 40
187.000000
 50
47.975973
 51
72.024027
  0
ARC
  8
1
 10
-514.080018
 20
-441.358529
 40
187.000000
 50
77.975973
 51
102.024027
  0
ARC
  8
1
 10
-457.602898
 20
-267.291487
 40
4.000000
 50
72.024027
 51
112.803666
  0
ARC
  8
1
 10
-475.957117
 20
-262.373489
 40
4.000000
 50
37.196334
 51
77.975973
  0
ARC
  8
1
 10
-552.202918
 20
-262.373489
 40
4.000000
 50
102.024027
 51
142.803666
  0
ARC
  8
1
 10
-570.557137
 20
-267.291487
 40
4.000000
 50
67.196334
 51
107.975973
  0
ARC
  8
1
 10
-514.080018
 20
-441.358529
 40
187.000000
 50
107.975973
 51
132.024027
  0
ARC
  8
1
 10
-514.080018
 20
-441.358529
 40
187.000000
 50
137.975973
 51
162.024027
  0
ARC
  8
1
 10
-693.065058
 20
-403.235628
 40
4.000000
 50
127.196334
 51
167.975973
  0
ARC
  8
1
 10
-688.147059
 20
-384.881409
 40
4.000000
 50
162.024027
 51
202.803666
  0
ARC
  8
1
 10
-650.024159
 20
-318.850609
 40
4.000000
 50
97.196334
 51
137.975973
  0
ARC
  8
1
 10
-636.587938
 20
-305.414388
 40
4.000000
 50
132.024027
 51
172.803666
  0
ARC
  8
1
 10
-514.080018
 20
-441.358529
 40
187.000000
 50
167.975973
 51
192.024027
  0
ARC
  8
1
 10
-514.080018
 20
-441.358529
 40
187.000000
 50
197.975973
 51
222.024027
  0
ARC
  8
1
 10
-688.147059
 20
-497.835648
 40
4.000000
 50
157.196334
 51
197.975973
  0
ARC
  8
1
 10
-693.065058
 20
-479.481429
 40
4.000000
 50
192.024027
 51
232.803666
  0
ARC
  8
1
 10
-650.024159
 20
-563.866449
 40
4.000000
 50
222.024027
 51
262.803666
  0
ARC
  8
1
 10
-636.587938
 20
-577.302670
 40
4.000000
 50
187.196334
 51
227.975973
  0
ARC
  8
1
 10
-514.080018
 20
-441.358529
 40
187.000000
 50
227.975973
 51
252.024027
  0
ARC
  8
1
 10
-514.080018
 20
-441.358529
 40
187.000000
 50
257.975973
 51
282.024027
  0
ARC
  8
1
 10
-475.957117
 20
-620.343569
 40
4.000000
 50
282.024027
 51
322.803666
  0
ARC
  8
1
 10
-457.602898
 20
-615.425570
 40
4.000000
 50
247.196334
 51
287.975973
  0
ARC
  8
1
 10
-552.202918
 20
-620.343569
 40
4.000000
 50
217.196334
 51
257.975973
  0
ARC
  8
1
 10
-570.557137
 20
-615.425570
 40
4.000000
 50
252.024027
 51
292.803666
  0
ARC
  8
1
 10
-514.080018
 20
-441.358529
 40
187.000000
 50
347.975973
 51
12.024027
  0
ARC
  8
1
 10
-514.080018
 20
-441.358529
 40
187.000000
 50
287.975973
 51
312.024027
  0
ARC
  8
1
 10
-514.080018
 20
-441.358529
 40
187.000000
 50
317.975973
 51
342.024027
  0
ARC
  8
1
 10
-335.094978
 20
-479.481429
 40
4.000000
 50
307.196334
 51
347.975973
  0
ARC
  8
1
 10
-340.012976
 20
-497.835648
 40
4.000000
 50
342.024027
 51
22.803666
  0
ARC
  8
1
 10
-378.135877
 20
-563.866449
 40
4.000000
 50
277.196334
 51
317.975973
  0
ARC
  8
1
 10
-391.572098
 20
-577.302670
 40
4.000000
 50
312.024027
 51
352.803666
  0
LINE
  8
1
 10
-549.080018
 20
-195.358529
 11
-479.080018
 21
-195.358529
  0
LINE
  8
1
 10
-549.080018
 20
-224.197880
 11
-549.080018
 21
-197.639725
  0
LINE
  8
1
 10
-479.080018
 20
-224.197880
 11
-479.080018
 21
-197.639725
  0
LINE
  8
1
 10
-557.080018
 20
-184.077333
 11
-557.080018
 21
-165.358529
  0
LINE
  8
1
 10
-471.080018
 20
-184.077333
 11
-471.080018
 21
-165.358529
  0
LINE
  8
1
 10
-472.595562
 20
-188.063516
 11
-477.564474
 21
-193.653542
  0
LINE
  8
1
 10
-555.564474
 20
-188.063516
 11
-550.595562
 21
-193.653542
  0
ARC
  8
1
 10
-473.080018
 20
-197.639725
 40
6.000000
 50
138.366461
 51
180.000000
  0
ARC
  8
1
 10
-555.080018
 20
-197.639725
 40
6.000000
 50
360.000000
 51
41.633539
  0
ARC
  8
1
 10
-551.080018
 20
-184.077333
 40
6.000000
 50
180.000000
 51
221.633539
  0
ARC
  8
1
 10
-477.080018
 20
-184.077333
 40
6.000000
 50
318.366461
 51
0.000000
  0
ARC
  8
1
 10
-455.080018
 20
-176.352278
 40
16.000000
 50
91.432544
 51
180.000000
  0
ARC
  8
1
 10
-573.080018
 20
-176.352278
 40
16.000000
 50
0.000000
 51
88.567456
  0
ARC
  8
1
 10
-466.080018
 20
-165.358529
 40
5.000000
 50
90.000000
 51
180.000000
  0
ARC
  8
1
 10
-562.080018
 20
-165.358529
 40
5.000000
 50
360.000000
 51
90.000000
  0
LINE
  8
1
 10
-509.080018
 20
-176.352278
 11
-519.080018
 21
-176.352278
  0
LINE
  8
1
 10
-519.080018
 20
-173.352278
 11
-519.080018
 21
-163.358529
  0
LINE
  8
1
 10
-509.080018
 20
-173.352278
 11
-509.080018
 21
-163.358529
  0
ARC
  8
1
 10
-506.080018
 20
-173.352278
 40
3.000000
 50
180.000000
 51
270.000000
  0
ARC
  8
1
 10
-506.080018
 20
-163.358529
 40
3.000000
 50
90.000000
 51
180.000000
  0
ARC
  8
1
 10
-522.080018
 20
-163.358529
 40
3.000000
 50
0.000000
 51
90.000000
  0
ARC
  8
1
 10
-522.080018
 20
-173.352278
 40
3.000000
 50
270.000000
 51
360.000000
  0
LINE
  8
1
 10
-496.268835
 20
-165.358529
 11
-496.268835
 21
-182.727403
  0
LINE
  8
1
 10
-531.891201
 20
-165.358529
 11
-531.891201
 21
-182.727403
  0
ARC
  8
1
 10
-491.268835
 20
-165.358529
 40
5.000000
 50
90.000000
 51
180.000000
  0
ARC
  8
1
 10
-536.891201
 20
-165.358529
 40
5.000000
 50
0.000000
 51
90.000000
  0
LINE
  8
1
 10
-493.051987
 20
-188.042858
 11
-482.336319
 21
-193.653542
  0
LINE
  8
1
 10
-535.108049
 20
-188.042858
 11
-545.823717
 21
-193.653542
  0
ARC
  8
1
 10
-490.268835
 20
-182.727403
 40
6.000000
 50
180.000000
 51
242.363614
  0
ARC
  8
1
 10
-537.891201
 20
-182.727403
 40
6.000000
 50
297.636386
 51
0.000000
  0
LINE
  8
1
 10
-493.051987
 20
-186.358529
 11
-472.595562
 21
-186.358529
  0
LINE
  8
1
 10
-555.564474
 20
-186.358529
 11
-535.108049
 21
-186.358529
  0
LINE
  8
1
 10
-531.891201
 20
-186.358529
 11
-496.268835
 21
-186.358529
  0
ARC
  8
1
 10
-475.080018
 20
-245.197880
 40
13.000000
 50
133.602819
 51
258.755276
  0
ARC
  8
1
 10
-553.080018
 20
-245.197880
 40
13.000000
 50
281.244724
 51
46.397181
  0
ARC
  8
1
 10
-495.080018
 20
-224.197880
 40
16.000000
 50
313.602819
 51
360.000000
  0
ARC
  8
1
 10
-533.080018
 20
-224.197880
 40
16.000000
 50
180.000000
 51
226.397181
  0
LINE
  8
1
 10
-583.791207
 20
-258.466894
 11
-589.277566
 21
-237.991524
  0
LINE
  8
1
 10
-569.959050
 20
-212.815143
 11
-555.080018
 21
-212.815143
  0
ARC
  8
1
 10
-569.959050
 20
-232.815143
 40
20.000000
 50
90.000000
 51
195.000000
  0
ARC
  8
1
 10
-555.080018
 20
-206.815143
 40
6.000000
 50
270.000000
 51
0.000000
  0
ARC
  8
1
 10
-593.450466
 20
-261.055085
 40
10.000000
 50
293.759326
 51
15.000000
  0
ARC
  8
1
 10
-473.080018
 20
-206.815143
 40
6.000000
 50
180.000000
 51
270.000000
  0
LINE
  8
1
 10
-458.200986
 20
-212.815143
 11
-473.080018
 21
-212.815143
  0
ARC
  8
1
 10
-458.200986
 20
-232.815143
 40
20.000000
 50
345.000000
 51
90.000000
  0
LINE
  8
1
 10
-444.368828
 20
-258.466894
 11
-438.882470
 21
-237.991524
  0
ARC
  8
1
 10
-434.709570
 20
-261.055085
 40
10.000000
 50
165.000000
 51
246.240674
  0
CIRCLE
  8
1
 10
-553.098082
 20
-245.201473
 40
12.000000
  0
CIRCLE
  8
1
 10
-475.061954
 20
-245.201473
 40
12.000000
  0
LINE
  8
1
 10
-559.080018
 20
-738.358529
 11
-469.080018
 21
-738.358529
  0
LINE
  8
1
 10
-549.080018
 20
-658.519177
 11
-549.080018
 21
-685.077333
  0
LINE
  8
1
 10
-479.080018
 20
-658.519177
 11
-479.080018
 21
-685.077333
  0
ARC
  8
1
 10
-475.080018
 20
-637.519177
 40
13.000000
 50
101.244724
 51
226.397181
  0
ARC
  8
1
 10
-553.080018
 20
-637.519177
 40
13.000000
 50
313.602819
 51
78.755276
  0
ARC
  8
1
 10
-495.080018
 20
-658.519177
 40
16.000000
 50
0.000000
 51
46.397181
  0
ARC
  8
1
 10
-533.080018
 20
-658.519177
 40
16.000000
 50
133.602819
 51
180.000000
  0
LINE
  8
1
 10
-555.564474
 20
-696.358529
 11
-472.595562
 21
-696.358529
  0
LINE
  8
1
 10
-549.080018
 20
-687.358529
 11
-479.080018
 21
-687.358529
  0
LINE
  8
1
 10
-557.080018
 20
-714.715888
 11
-557.080018
 21
-698.639725
  0
LINE
  8
1
 10
-471.080018
 20
-714.715888
 11
-471.080018
 21
-698.639725
  0
LINE
  8
1
 10
-477.564474
 20
-689.063516
 11
-472.595562
 21
-694.653542
  0
LINE
  8
1
 10
-550.595562
 20
-689.063516
 11
-555.564474
 21
-694.653542
  0
ARC
  8
1
 10
-473.080018
 20
-685.077333
 40
6.000000
 50
180.000000
 51
221.633539
  0
ARC
  8
1
 10
-477.080018
 20
-698.639725
 40
6.000000
 50
0.000000
 51
41.633539
  0
ARC
  8
1
 10
-555.080018
 20
-685.077333
 40
6.000000
 50
318.366461
 51
360.000000
  0
ARC
  8
1
 10
-551.080018
 20
-698.639725
 40
6.000000
 50
138.366461
 51
180.000000
  0
LINE
  8
1
 10
-559.080018
 20
-738.358529
 11
-559.080018
 21
-719.201170
  0
LINE
  8
1
 10
-469.080018
 20
-738.358529
 11
-469.080018
 21
-719.201170
  0
LINE
  8
1
 10
-558.201338
 20
-717.958529
 11
-469.958698
 21
-717.958529
  0
LINE
  8
1
 10
-557.080018
 20
-715.958529
 11
-471.080018
 21
-715.958529
  0
LINE
  8
1
 10
-470.201338
 20
-716.837209
 11
-469.958698
 21
-717.079849
  0
LINE
  8
1
 10
-557.958698
 20
-716.837209
 11
-558.201338
 21
-717.079849
  0
ARC
  8
1
 10
-468.080018
 20
-714.715888
 40
3.000000
 50
180.000000
 51
225.000000
  0
ARC
  8
1
 10
-472.080018
 20
-719.201170
 40
3.000000
 50
0.000000
 51
45.000000
  0
ARC
  8
1
 10
-560.080018
 20
-714.715888
 40
3.000000
 50
315.000000
 51
0.000000
  0
ARC
  8
1
 10
-556.080018
 20
-719.201170
 40
3.000000
 50
135.000000
 51
180.000000
  0
LINE
  8
1
 10
-737.580018
 20
-463.358529
 11
-737.580018
 21
-419.358529
  0
LINE
  8
1
 10
-734.580018
 20
-416.358529
 11
-702.005535
 21
-416.358529
  0
LINE
  8
1
 10
-734.580018
 20
-466.358529
 11
-702.005535
 21
-466.358529
  0
ARC
  8
1
 10
-734.580018
 20
-419.358529
 40
3.000000
 50
90.000000
 51
180.000000
  0
ARC
  8
1
 10
-734.580018
 20
-463.358529
 40
3.000000
 50
180.000000
 51
270.000000
  0
LINE
  8
1
 10
-737.580018
 20
-441.358529
 11
-695.580018
 21
-441.358529
  0
LINE
  8
1
 10
-290.580018
 20
-463.358529
 11
-290.580018
 21
-419.358529
  0
LINE
  8
1
 10
-293.580018
 20
-416.358529
 11
-326.154501
 21
-416.358529
  0
LINE
  8
1
 10
-293.580018
 20
-466.358529
 11
-326.154501
 21
-466.358529
  0
ARC
  8
1
 10
-293.580018
 20
-419.358529
 40
3.000000
 50
0.000000
 51
90.000000
  0
ARC
  8
1
 10
-293.580018
 20
-463.358529
 40
3.000000
 50
270.000000
 51
360.000000
  0
LINE
  8
1
 10
-290.580018
 20
-441.358529
 11
-332.580018
 21
-441.358529
  0
LINE
  8
1
  6
DASHED
 10
-452.056217
 20
475.948987
 11
-327.080018
 21
475.948987
  0
LINE
  8
1
 10
-325.758675
 20
544.948987
 11
-302.580018
 21
544.948987
  0
LINE
  8
1
  6
DASHED
 10
-325.758675
 20
478.948987
 11
-302.580018
 21
478.948987
  0
ARC
  8
1
 10
-302.580018
 20
532.948987
 40
12.000000
 50
0.000000
 51
90.000000
  0
ARC
  8
1
  6
DASHED
 10
-302.580018
 20
490.948987
 40
12.000000
 50
270.000000
 51
360.000000
  0
ARC
  8
1
 10
-324.080018
 20
547.948987
 40
3.000000
 50
180.000000
 51
270.000000
  0
ARC
  8
1
  6
DASHED
 10
-324.080018
 20
475.948987
 40
3.000000
 50
90.000000
 51
180.000000
  0
ARC
  8
1
 10
-325.758675
 20
547.948987
 40
3.000000
 50
180.000000
 51
270.000000
  0
ARC
  8
1
  6
DASHED
 10
-325.758675
 20
475.948987
 40
3.000000
 50
90.000000
 51
180.000000
  0
LINE
  8
1
 10
-363.801898
 20
526.134033
 11
-345.928301
 21
526.134033
  0
LINE
  8
1
  6
DASHED
 10
-451.580018
 20
497.763942
 11
-398.664072
 21
497.763942
  0
LINE
  8
1
  6
DASHED
 10
-363.801898
 20
497.763942
 11
-345.928301
 21
497.763942
  0
ARC
  8
1
 10
-398.664072
 20
521.134033
 40
5.000000
 50
0.000000
 51
90.000000
  0
ARC
  8
1
  6
DASHED
 10
-398.664072
 20
502.763942
 40
5.000000
 50
270.000000
 51
360.000000
  0
LINE
  8
1
 10
-358.801898
 20
535.948987
 11
-336.012976
 21
535.948987
  0
LINE
  8
1
  6
DASHED
 10
-358.801898
 20
487.948987
 11
-336.012976
 21
487.948987
  0
ARC
  8
1
 10
-375.661051
 20
530.948987
 40
5.000000
 50
0.000000
 51
90.000000
  0
ARC
  8
1
  6
DASHED
 10
-375.661051
 20
492.948987
 40
5.000000
 50
270.000000
 51
360.000000
  0
ARC
  8
1
  6
DASHED
 10
-358.801898
 20
492.948987
 40
5.000000
 50
180.000000
 51
270.000000
  0
ARC
  8
1
 10
-358.801898
 20
530.948987
 40
5.000000
 50
90.000000
 51
180.000000
  0
LINE
  8
1
  6
DASHED
 10
-328.758675
 20
478.948987
 11
-328.758675
 21
485.047923
  0
LINE
  8
1
 10
-328.758675
 20
538.850051
 11
-328.758675
 21
544.948987
  0
LINE
  8
1
 10
-331.277268
 20
534.509243
 11
-340.891116
 21
529.013521
  0
LINE
  8
1
  6
DASHED
 10
-340.891116
 20
494.884453
 11
-331.277268
 21
489.388732
  0
ARC
  8
1
 10
-333.758675
 20
538.850051
 40
5.000000
 50
299.754289
 51
360.000000
  0
ARC
  8
1
  6
DASHED
 10
-333.758675
 20
485.047923
 40
5.000000
 50
360.000000
 51
60.245711
  0
ARC
  8
1
 10
-335.928301
 20
520.331905
 40
10.000000
 50
119.754289
 51
180.000000
  0
ARC
  8
1
  6
DASHED
 10
-335.928301
 20
503.566070
 40
10.000000
 50
180.000000
 51
240.245711
  0
LINE
  8
1
 10
-375.661051
 20
533.815582
 11
-393.664072
 21
526.134033
  0
LINE
  8
1
  6
DASHED
 10
-375.661051
 20
490.082393
 11
-393.664072
 21
497.763942
  0
ARC
  8
1
 10
-384.325924
 20
537.745574
 40
3.817313
 50
220.740630
 51
270.000000
  0
ARC
  8
1
 10
-384.325924
 20
551.054329
 40
17.126068
 50
270.000000
 51
296.254529
  0
ARC
  8
1
  6
DASHED
 10
-384.325924
 20
486.152400
 40
3.817313
 50
90.000000
 51
139.259370
  0
LINE
  8
1
  6
DASHED
 10
-451.580018
 20
487.948987
 11
-388.733537
 21
487.948987
  0
ARC
  8
1
 10
-388.733537
 20
533.948987
 40
2.000000
 50
40.740630
 51
90.000000
  0
ARC
  8
1
 10
-375.661051
 20
533.487207
 40
2.461780
 50
90.000000
 51
116.254529
  0
ARC
  8
1
  6
DASHED
 10
-388.733537
 20
489.948987
 40
2.000000
 50
270.000000
 51
319.259370
  0
ARC
  8
1
  6
DASHED
 10
-375.661051
 20
490.410767
 40
2.461780
 50
243.745471
 51
270.000000
  0
ARC
  8
1
  6
DASHED
 10
-384.325924
 20
472.843645
 40
17.126068
 50
63.745471
 51
90.000000
  0
LINE
  8
1
 10
-387.694032
 20
535.948987
 11
-387.694032
 21
547.948987
  0
LINE
  8
1
 10
-376.255555
 20
535.948987
 11
-376.255555
 21
547.948987
  0
LINE
  8
1
  6
DASHED
 10
-387.694032
 20
487.948987
 11
-387.694032
 21
475.948987
  0
LINE
  8
1
  6
DASHED
 10
-376.255555
 20
487.948987
 11
-376.255555
 21
475.948987
  0
LINE
  8
1
 10
-336.012976
 20
535.948987
 11
-336.012976
 21
547.948987
  0
LINE
  8
1
 10
-331.527539
 20
535.948987
 11
-331.527539
 21
547.948987
  0
ARC
  8
1
 10
-336.832629
 20
541.902453
 40
7.974192
 50
270.000000
 51
311.703999
  0
ARC
  8
1
 10
-335.523717
 20
534.320114
 40
1.700765
 50
106.718534
 51
180.000000
  0
ARC
  8
1
 10
-336.832629
 20
534.320114
 40
0.391853
 50
180.000000
 51
270.000000
  0
ARC
  8
1
  6
DASHED
 10
-335.523717
 20
489.577860
 40
1.700765
 50
180.000000
 51
253.281466
  0
ARC
  8
1
  6
DASHED
 10
-336.832629
 20
489.577860
 40
0.391853
 50
90.000000
 51
180.000000
  0
ARC
  8
1
  6
DASHED
 10
-336.832629
 20
481.995521
 40
7.974192
 50
48.296001
 51
90.000000
  0
LINE
  8
1
  6
DASHED
 10
-331.527539
 20
487.948987
 11
-331.527539
 21
475.948987
  0
LINE
  8
1
  6
DASHED
 10
-336.012976
 20
487.948987
 11
-336.012976
 21
475.948987
  0
CIRCLE
  8
1
 62
2
 10
-310.080018
 20
528.448987
 40
8.000000
  0
CIRCLE
  8
1
 10
-310.080018
 20
528.448987
 40
6.917500
  0
CIRCLE
  8
1
  6
DASHED
 62
2
 10
-310.080018
 20
495.448987
 40
8.000000
  0
CIRCLE
  8
1
  6
DASHED
 10
-310.080018
 20
495.448987
 40
6.917500
  0
LINE
  8
1
  6
DASHED
 10
-438.200986
 20
535.948987
 11
-438.200986
 21
541.948987
  0
LINE
  8
1
  6
DASHED
 10
-451.677824
 20
544.948987
 11
-441.200986
 21
544.948987
  0
LINE
  8
1
  6
DASHED
 10
-451.580018
 20
532.948987
 11
-441.200986
 21
532.948987
  0
ARC
  8
1
  6
DASHED
 10
-441.200986
 20
541.948987
 40
3.000000
 50
0.000000
 51
90.000000
  0
ARC
  8
1
  6
DASHED
 10
-441.200986
 20
535.948987
 40
3.000000
 50
270.000000
 51
360.000000
  0
LINE
  8
1
 10
279.919793
 20
-254.358529
 11
279.919793
 21
-628.358529
  0
LINE
  8
1
 10
258.104839
 20
-403.302973
 11
258.104839
 21
-348.543308
  0
LINE
  8
1
 10
258.104839
 20
-313.061826
 11
258.104839
 21
-281.131412
  0
LINE
  8
1
 10
229.734748
 20
-403.302973
 11
229.734748
 21
-348.543308
  0
LINE
  8
1
 10
229.734748
 20
-313.061826
 11
229.734748
 21
-281.131412
  0
LINE
  8
1
 10
267.919793
 20
-302.939562
 11
267.919793
 21
-273.148979
  0
LINE
  8
1
 10
219.919793
 20
-302.939562
 11
219.919793
 21
-263.291487
  0
ARC
  8
1
 10
269.716381
 20
-311.604435
 40
3.817313
 50
180.000000
 51
226.055799
  0
ARC
  8
1
 10
283.025136
 20
-311.604435
 40
17.126068
 50
153.745471
 51
180.000000
  0
ARC
  8
1
 10
265.458013
 20
-302.939562
 40
2.461780
 50
333.745471
 51
360.000000
  0
ARC
  8
1
 10
222.381574
 20
-302.939562
 40
2.461780
 50
180.000000
 51
206.254529
  0
ARC
  8
1
 10
204.814451
 20
-311.604435
 40
17.126068
 50
0.000000
 51
26.254529
  0
LINE
  8
1
 10
267.919793
 20
-314.972543
 11
279.919793
 21
-314.972543
  0
LINE
  8
1
 10
267.919793
 20
-303.534066
 11
279.919793
 21
-303.534066
  0
LINE
  8
1
 10
219.919793
 20
-314.972543
 11
207.919793
 21
-314.972543
  0
LINE
  8
1
 10
219.919793
 20
-303.534066
 11
207.919793
 21
-303.534066
  0
ARC
  8
1
 10
221.548666
 20
-262.802228
 40
1.700765
 50
196.718534
 51
270.000000
  0
ARC
  8
1
 10
221.548666
 20
-264.111140
 40
0.391853
 50
270.000000
 51
360.000000
  0
ARC
  8
1
 10
213.966328
 20
-264.111140
 40
7.974192
 50
0.000000
 51
41.703999
  0
LINE
  8
1
 10
219.919793
 20
-258.806050
 11
207.919793
 21
-258.806050
  0
LINE
  8
1
 10
219.919793
 20
-263.291487
 11
207.919793
 21
-263.291487
  0
LINE
  8
1
  6
DASHED
 10
-576.103818
 20
475.948987
 11
-701.080018
 21
475.948987
  0
LINE
  8
1
 10
-702.401360
 20
544.948987
 11
-725.580018
 21
544.948987
  0
LINE
  8
1
  6
DASHED
 10
-702.401360
 20
478.948987
 11
-725.580018
 21
478.948987
  0
ARC
  8
1
 10
-725.580018
 20
532.948987
 40
12.000000
 50
90.000000
 51
180.000000
  0
ARC
  8
1
  6
DASHED
 10
-725.580018
 20
490.948987
 40
12.000000
 50
180.000000
 51
270.000000
  0
ARC
  8
1
 10
-704.080018
 20
547.948987
 40
3.000000
 50
270.000000
 51
360.000000
  0
ARC
  8
1
  6
DASHED
 10
-704.080018
 20
475.948987
 40
3.000000
 50
0.000000
 51
90.000000
  0
ARC
  8
1
 10
-702.401360
 20
547.948987
 40
3.000000
 50
270.000000
 51
360.000000
  0
ARC
  8
1
  6
DASHED
 10
-702.401360
 20
475.948987
 40
3.000000
 50
0.000000
 51
90.000000
  0
LINE
  8
1
 10
-664.358138
 20
526.134033
 11
-682.231735
 21
526.134033
  0
LINE
  8
1
  6
DASHED
 10
-576.580018
 20
497.763942
 11
-629.495964
 21
497.763942
  0
LINE
  8
1
  6
DASHED
 10
-664.358138
 20
497.763942
 11
-682.231735
 21
497.763942
  0
ARC
  8
1
 10
-629.495964
 20
521.134033
 40
5.000000
 50
90.000000
 51
180.000000
  0
ARC
  8
1
  6
DASHED
 10
-629.495964
 20
502.763942
 40
5.000000
 50
180.000000
 51
270.000000
  0
LINE
  8
1
 10
-669.358138
 20
535.948987
 11
-692.147059
 21
535.948987
  0
LINE
  8
1
  6
DASHED
 10
-669.358138
 20
487.948987
 11
-692.147059
 21
487.948987
  0
ARC
  8
1
 10
-652.498985
 20
530.948987
 40
5.000000
 50
90.000000
 51
180.000000
  0
ARC
  8
1
  6
DASHED
 10
-652.498985
 20
492.948987
 40
5.000000
 50
180.000000
 51
270.000000
  0
ARC
  8
1
  6
DASHED
 10
-669.358138
 20
492.948987
 40
5.000000
 50
270.000000
 51
0.000000
  0
ARC
  8
1
 10
-669.358138
 20
530.948987
 40
5.000000
 50
360.000000
 51
90.000000
  0
LINE
  8
1
  6
DASHED
 10
-699.401360
 20
478.948987
 11
-699.401360
 21
485.047923
  0
LINE
  8
1
 10
-699.401360
 20
538.850051
 11
-699.401360
 21
544.948987
  0
LINE
  8
1
 10
-696.882768
 20
534.509243
 11
-687.268920
 21
529.013521
  0
LINE
  8
1
  6
DASHED
 10
-687.268920
 20
494.884453
 11
-696.882768
 21
489.388732
  0
ARC
  8
1
 10
-694.401360
 20
538.850051
 40
5.000000
 50
180.000000
 51
240.245711
  0
ARC
  8
1
  6
DASHED
 10
-694.401360
 20
485.047923
 40
5.000000
 50
119.754289
 51
180.000000
  0
ARC
  8
1
 10
-692.231735
 20
520.331905
 40
10.000000
 50
0.000000
 51
60.245711
  0
ARC
  8
1
  6
DASHED
 10
-692.231735
 20
503.566070
 40
10.000000
 50
299.754289
 51
360.000000
  0
LINE
  8
1
 10
-652.498985
 20
533.815582
 11
-634.495964
 21
526.134033
  0
LINE
  8
1
  6
DASHED
 10
-652.498985
 20
490.082393
 11
-634.495964
 21
497.763942
  0
ARC
  8
1
 10
-643.834112
 20
537.745574
 40
3.817313
 50
270.000000
 51
319.259370
  0
ARC
  8
1
 10
-643.834112
 20
551.054329
 40
17.126068
 50
243.745471
 51
270.000000
  0
ARC
  8
1
  6
DASHED
 10
-643.834112
 20
486.152400
 40
3.817313
 50
40.740630
 51
90.000000
  0
LINE
  8
1
  6
DASHED
 10
-576.580018
 20
487.948987
 11
-639.426499
 21
487.948987
  0
ARC
  8
1
 10
-639.426499
 20
533.948987
 40
2.000000
 50
90.000000
 51
139.259370
  0
ARC
  8
1
 10
-652.498985
 20
533.487207
 40
2.461780
 50
63.745471
 51
90.000000
  0
ARC
  8
1
  6
DASHED
 10
-639.426499
 20
489.948987
 40
2.000000
 50
220.740630
 51
270.000000
  0
ARC
  8
1
  6
DASHED
 10
-652.498985
 20
490.410767
 40
2.461780
 50
270.000000
 51
296.254529
  0
ARC
  8
1
  6
DASHED
 10
-643.834112
 20
472.843645
 40
17.126068
 50
90.000000
 51
116.254529
  0
LINE
  8
1
 10
-640.466004
 20
535.948987
 11
-640.466004
 21
547.948987
  0
LINE
  8
1
 10
-651.904481
 20
535.948987
 11
-651.904481
 21
547.948987
  0
LINE
  8
1
  6
DASHED
 10
-640.466004
 20
487.948987
 11
-640.466004
 21
475.948987
  0
LINE
  8
1
  6
DASHED
 10
-651.904481
 20
487.948987
 11
-651.904481
 21
475.948987
  0
LINE
  8
1
 10
-692.147059
 20
535.948987
 11
-692.147059
 21
547.948987
  0
LINE
  8
1
 10
-696.632497
 20
535.948987
 11
-696.632497
 21
547.948987
  0
ARC
  8
1
 10
-691.327407
 20
541.902453
 40
7.974192
 50
228.296001
 51
270.000000
  0
ARC
  8
1
 10
-692.636319
 20
534.320114
 40
1.700765
 50
0.000000
 51
73.281466
  0
ARC
  8
1
 10
-691.327407
 20
534.320114
 40
0.391853
 50
270.000000
 51
360.000000
  0
ARC
  8
1
  6
DASHED
 10
-692.636319
 20
489.577860
 40
1.700765
 50
286.718534
 51
360.000000
  0
ARC
  8
1
  6
DASHED
 10
-691.327407
 20
489.577860
 40
0.391853
 50
0.000000
 51
90.000000
  0
ARC
  8
1
  6
DASHED
 10
-691.327407
 20
481.995521
 40
7.974192
 50
90.000000
 51
131.703999
  0
LINE
  8
1
  6
DASHED
 10
-696.632497
 20
487.948987
 11
-696.632497
 21
475.948987
  0
LINE
  8
1
  6
DASHED
 10
-692.147059
 20
487.948987
 11
-692.147059
 21
475.948987
  0
CIRCLE
  8
1
 62
2
 10
-718.080018
 20
528.448987
 40
8.000000
  0
CIRCLE
  8
1
 10
-718.080018
 20
528.448987
 40
6.917500
  0
CIRCLE
  8
1
  6
DASHED
 62
2
 10
-718.080018
 20
495.448987
 40
8.000000
  0
CIRCLE
  8
1
  6
DASHED
 10
-718.080018
 20
495.448987
 40
6.917500
  0
LINE
  8
1
  6
DASHED
 10
-589.959050
 20
535.948987
 11
-589.959050
 21
541.948987
  0
LINE
  8
1
  6
DASHED
 10
-576.482212
 20
544.948987
 11
-586.959050
 21
544.948987
  0
LINE
  8
1
  6
DASHED
 10
-576.580018
 20
532.948987
 11
-586.959050
 21
532.948987
  0
ARC
  8
1
  6
DASHED
 10
-586.959050
 20
541.948987
 40
3.000000
 50
90.000000
 51
180.000000
  0
ARC
  8
1
  6
DASHED
 10
-586.959050
 20
535.948987
 40
3.000000
 50
180.000000
 51
270.000000
  0
LINE
  8
1
 10
234.734748
 20
-343.543308
 11
253.104839
 21
-343.543308
  0
ARC
  8
1
 10
253.104839
 20
-348.543308
 40
5.000000
 50
360.000000
 51
90.000000
  0
ARC
  8
1
 10
234.734748
 20
-348.543308
 40
5.000000
 50
90.000000
 51
180.000000
  0
LINE
  8
1
 10
224.919793
 20
-331.358529
 11
262.919793
 21
-331.358529
  0
ARC
  8
1
 10
262.919793
 20
-336.358529
 40
5.000000
 50
0.000000
 51
90.000000
  0
ARC
  8
1
 10
224.919793
 20
-336.358529
 40
5.000000
 50
90.000000
 51
180.000000
  0
LINE
  8
1
 10
224.919793
 20
-321.358529
 11
262.919793
 21
-321.358529
  0
ARC
  8
1
 10
262.919793
 20
-316.358529
 40
5.000000
 50
270.000000
 51
360.000000
  0
ARC
  8
1
 10
224.919793
 20
-316.358529
 40
5.000000
 50
180.000000
 51
270.000000
  0
ARC
  8
1
 10
265.134344
 20
-316.358529
 40
2.785449
 50
0.000000
 51
46.055799
  0
ARC
  8
1
 10
222.705243
 20
-316.358529
 40
2.785449
 50
133.944201
 51
180.000000
  0
ARC
  8
1
 10
218.123206
 20
-311.604435
 40
3.817313
 50
313.944201
 51
360.000000
  0
LINE
  8
1
 10
234.734748
 20
-318.061826
 11
253.104839
 21
-318.061826
  0
ARC
  8
1
 10
253.104839
 20
-313.061826
 40
5.000000
 50
270.000000
 51
360.000000
  0
ARC
  8
1
 10
234.734748
 20
-313.061826
 40
5.000000
 50
180.000000
 51
270.000000
  0
LINE
  8
1
 10
263.892246
 20
-336.358529
 11
258.104839
 21
-343.543308
  0
LINE
  8
1
 10
262.919793
 20
-319.679100
 11
258.104839
 21
-318.061826
  0
LINE
  8
1
 10
224.919793
 20
-319.679100
 11
229.734748
 21
-318.061826
  0
LINE
  8
1
 10
223.947341
 20
-336.358529
 11
229.734748
 21
-343.543308
  0
LINE
  8
1
 10
207.919793
 20
-385.192036
 11
219.919793
 21
-385.192036
  0
LINE
  8
1
 10
207.919793
 20
-400.817286
 11
219.919793
 21
-400.817286
  0
ARC
  8
1
 10
202.316953
 20
-393.865234
 40
19.623567
 50
0.000000
 51
26.230197
  0
ARC
  8
1
 10
208.971330
 20
-393.865234
 40
12.969189
 50
327.585283
 51
360.000000
  0
LINE
  8
1
 10
219.919793
 20
-411.358529
 11
219.919793
 21
-400.817286
  0
LINE
  8
1
 10
219.919793
 20
-385.192036
 11
219.919793
 21
-336.358529
  0
ARC
  8
1
 10
285.522634
 20
-393.865234
 40
19.623567
 50
153.769803
 51
180.000000
  0
ARC
  8
1
 10
278.868257
 20
-393.865234
 40
12.969189
 50
180.000000
 51
212.414717
  0
LINE
  8
1
 10
279.919793
 20
-385.192036
 11
267.919793
 21
-385.192036
  0
LINE
  8
1
 10
279.919793
 20
-400.817286
 11
267.919793
 21
-400.817286
  0
LINE
  8
1
 10
267.919793
 20
-411.358529
 11
267.919793
 21
-400.817286
  0
LINE
  8
1
 10
267.919793
 20
-385.192036
 11
267.919793
 21
-336.358529
  0
LINE
  8
1
 10
234.734748
 20
-408.302973
 11
253.104839
 21
-408.302973
  0
ARC
  8
1
 10
234.734748
 20
-403.302973
 40
5.000000
 50
180.000000
 51
270.000000
  0
ARC
  8
1
 10
253.104839
 20
-403.302973
 40
5.000000
 50
270.000000
 51
0.000000
  0
LINE
  8
1
 10
213.919793
 20
-416.358529
 11
273.919793
 21
-416.358529
  0
LINE
  8
1
 10
210.919793
 20
-419.358529
 11
210.919793
 21
-463.358529
  0
LINE
  8
1
 10
276.919793
 20
-419.358529
 11
276.919793
 21
-463.358529
  0
ARC
  8
1
 10
273.919793
 20
-419.358529
 40
3.000000
 50
0.000000
 51
90.000000
  0
ARC
  8
1
 10
213.919793
 20
-419.358529
 40
3.000000
 50
90.000000
 51
180.000000
  0
ARC
  8
1
 10
262.919793
 20
-411.358529
 40
5.000000
 50
270.000000
 51
360.000000
  0
ARC
  8
1
 10
224.919793
 20
-411.358529
 40
5.000000
 50
180.000000
 51
270.000000
  0
LINE
  8
1
 10
258.104839
 20
-408.302973
 11
262.919793
 21
-412.254814
  0
LINE
  8
1
 10
229.734748
 20
-408.302973
 11
224.919793
 21
-412.254814
  0
LINE
  8
1
 10
185.419793
 20
-160.358529
 11
302.419793
 21
-160.358529
  0
LINE
  8
1
 10
181.419793
 20
-156.358529
 11
181.419793
 21
-144.358529
  0
LINE
  8
1
 10
306.419793
 20
-156.358529
 11
306.419793
 21
-144.358529
  0
ARC
  8
1
 10
185.419793
 20
-156.358529
 40
4.000000
 50
180.000000
 51
270.000000
  0
ARC
  8
1
 10
302.419793
 20
-156.358529
 40
4.000000
 50
270.000000
 51
360.000000
  0
LINE
  8
1
 10
200.919793
 20
-183.686354
 11
200.919793
 21
-165.358529
  0
LINE
  8
1
 10
286.919793
 20
-183.686354
 11
286.919793
 21
-165.358529
  0
ARC
  8
1
 10
302.919793
 20
-176.352278
 40
16.000000
 50
91.432544
 51
180.000000
  0
ARC
  8
1
 10
184.919793
 20
-176.352278
 40
16.000000
 50
0.000000
 51
88.567456
  0
ARC
  8
1
 10
291.919793
 20
-165.358529
 40
5.000000
 50
90.000000
 51
180.000000
  0
ARC
  8
1
 10
195.919793
 20
-165.358529
 40
5.000000
 50
360.000000
 51
90.000000
  0
LINE
  8
1
 10
248.919793
 20
-176.352278
 11
238.919793
 21
-176.352278
  0
LINE
  8
1
 10
238.919793
 20
-173.352278
 11
238.919793
 21
-163.358529
  0
LINE
  8
1
 10
248.919793
 20
-173.352278
 11
248.919793
 21
-163.358529
  0
ARC
  8
1
 10
251.919793
 20
-173.352278
 40
3.000000
 50
180.000000
 51
270.000000
  0
ARC
  8
1
 10
251.919793
 20
-163.358529
 40
3.000000
 50
90.000000
 51
180.000000
  0
ARC
  8
1
 10
235.919793
 20
-163.358529
 40
3.000000
 50
0.000000
 51
90.000000
  0
ARC
  8
1
 10
235.919793
 20
-173.352278
 40
3.000000
 50
270.000000
 51
360.000000
  0
LINE
  8
1
 10
261.730977
 20
-165.358529
 11
261.730977
 21
-182.939553
  0
LINE
  8
1
 10
226.108610
 20
-165.358529
 11
226.108610
 21
-182.939553
  0
ARC
  8
1
 10
266.730977
 20
-165.358529
 40
5.000000
 50
90.000000
 51
180.000000
  0
ARC
  8
1
 10
221.108610
 20
-165.358529
 40
5.000000
 50
0.000000
 51
90.000000
  0
LINE
  8
1
 10
264.672359
 20
-186.358529
 11
284.933582
 21
-186.358529
  0
LINE
  8
1
 10
202.906005
 20
-186.358529
 11
223.167228
 21
-186.358529
  0
LINE
  8
1
 10
226.108610
 20
-186.358529
 11
261.730977
 21
-186.358529
  0
LINE
  8
1
 10
210.919793
 20
-198.030703
 11
210.919793
 21
-254.948323
  0
LINE
  8
1
 10
276.919793
 20
-198.030703
 11
276.919793
 21
-267.207544
  0
LINE
  8
1
 10
210.919793
 20
-195.358529
 11
276.919793
 21
-195.358529
  0
LINE
  8
1
 10
284.933582
 20
-188.146119
 11
278.906005
 21
-193.570938
  0
LINE
  8
1
 10
202.906005
 20
-188.146119
 11
208.933582
 21
-193.570938
  0
ARC
  8
1
 10
282.919793
 20
-198.030703
 40
6.000000
 50
131.987212
 51
180.000000
  0
ARC
  8
1
 10
280.919793
 20
-183.686354
 40
6.000000
 50
311.987212
 51
360.000000
  0
ARC
  8
1
 10
204.919793
 20
-198.030703
 40
6.000000
 50
0.000000
 51
48.012788
  0
ARC
  8
1
 10
206.919793
 20
-183.686354
 40
6.000000
 50
180.000000
 51
228.012788
  0
LINE
  8
1
 10
264.672359
 20
-188.101419
 11
273.902973
 21
-193.570938
  0
LINE
  8
1
 10
223.167228
 20
-188.101419
 11
213.936614
 21
-193.570938
  0
ARC
  8
1
 10
267.730977
 20
-182.939553
 40
6.000000
 50
180.000000
 51
239.351511
  0
ARC
  8
1
 10
220.108610
 20
-182.939553
 40
6.000000
 50
300.648489
 51
360.000000
  0
ARC
  8
1
 10
279.919793
 20
-251.358529
 40
3.000000
 50
180.000000
 51
270.000000
  0
ARC
  8
1
 10
207.919793
 20
-251.358529
 40
3.000000
 50
270.000000
 51
0.000000
  0
ARC
  8
1
 10
207.919793
 20
-254.948323
 40
3.000000
 50
270.000000
 51
0.000000
  0
LINE
  8
1
 10
234.734748
 20
-276.131412
 11
253.104839
 21
-276.131412
  0
LINE
  8
1
 10
220.769951
 20
-259.523316
 11
229.734748
 21
-276.131412
  0
LINE
  8
1
 10
261.919793
 20
-257.948323
 11
210.919793
 21
-257.948323
  0
ARC
  8
1
 10
253.104839
 20
-281.131412
 40
5.000000
 50
0.000000
 51
90.000000
  0
ARC
  8
1
 10
234.734748
 20
-281.131412
 40
5.000000
 50
90.000000
 51
180.000000
  0
ARC
  8
1
 10
279.919793
 20
-267.207544
 40
3.000000
 50
180.000000
 51
270.000000
  0
ARC
  8
1
 10
279.919793
 20
-255.806050
 40
3.000000
 50
180.000000
 51
270.000000
  0
ARC
  8
1
 10
279.919793
 20
-260.291487
 40
3.000000
 50
180.000000
 51
270.000000
  0
LINE
  8
1
 10
264.919793
 20
-209.815143
 11
264.919793
 21
-273.626493
  0
LINE
  8
1
 10
267.919793
 20
-212.815143
 11
273.919793
 21
-212.815143
  0
ARC
  8
1
 10
273.919793
 20
-215.815143
 40
3.000000
 50
0.000000
 51
90.000000
  0
ARC
  8
1
 10
267.919793
 20
-215.815143
 40
3.000000
 50
90.000000
 51
180.000000
  0
LINE
  8
1
 10
264.919793
 20
-206.815143
 11
276.919793
 21
-206.815143
  0
ARC
  8
1
 10
261.919793
 20
-209.815143
 40
3.000000
 50
0.000000
 51
90.000000
  0
LINE
  8
1
 10
271.338810
 20
-270.207544
 11
279.919793
 21
-270.207544
  0
LINE
  8
1
 10
266.176913
 20
-273.148979
 11
264.919793
 21
-275.270603
  0
ARC
  8
1
 10
271.338810
 20
-276.207544
 40
6.000000
 50
90.000000
 51
149.352106
  0
ARC
  8
1
 10
261.919793
 20
-254.948323
 40
3.000000
 50
270.000000
 51
0.000000
  0
LINE
  8
1
 10
263.156014
 20
-262.654290
 11
258.104839
 21
-276.131412
  0
ARC
  8
1
 10
258.919793
 20
-273.626493
 40
6.000000
 50
329.352106
 51
360.000000
  0
LINE
  8
1
 10
207.919793
 20
-628.358529
 11
207.919793
 21
-254.358529
  0
LINE
  8
1
 10
258.104839
 20
-479.414084
 11
258.104839
 21
-534.173750
  0
LINE
  8
1
 10
258.104839
 20
-569.655232
 11
258.104839
 21
-601.585645
  0
LINE
  8
1
 10
229.734748
 20
-479.414084
 11
229.734748
 21
-534.173750
  0
LINE
  8
1
 10
229.734748
 20
-569.655232
 11
229.734748
 21
-601.585645
  0
LINE
  8
1
 10
219.919793
 20
-579.777496
 11
219.919793
 21
-619.425570
  0
ARC
  8
1
 10
269.716381
 20
-571.112623
 40
3.817313
 50
133.944201
 51
180.000000
  0
ARC
  8
1
 10
283.025136
 20
-571.112623
 40
17.126068
 50
180.000000
 51
206.254529
  0
ARC
  8
1
 10
265.458013
 20
-579.777496
 40
2.461780
 50
0.000000
 51
26.254529
  0
ARC
  8
1
 10
222.381574
 20
-579.777496
 40
2.461780
 50
153.745471
 51
180.000000
  0
ARC
  8
1
 10
204.814451
 20
-571.112623
 40
17.126068
 50
333.745471
 51
360.000000
  0
LINE
  8
1
 10
267.919793
 20
-567.744515
 11
279.919793
 21
-567.744515
  0
LINE
  8
1
 10
267.919793
 20
-579.182992
 11
279.919793
 21
-579.182992
  0
LINE
  8
1
 10
219.919793
 20
-567.744515
 11
207.919793
 21
-567.744515
  0
LINE
  8
1
 10
219.919793
 20
-579.182992
 11
207.919793
 21
-579.182992
  0
ARC
  8
1
 10
221.548666
 20
-619.914830
 40
1.700765
 50
90.000000
 51
163.281466
  0
ARC
  8
1
 10
221.548666
 20
-618.605918
 40
0.391853
 50
0.000000
 51
90.000000
  0
ARC
  8
1
 10
213.966328
 20
-618.605918
 40
7.974192
 50
318.296001
 51
360.000000
  0
LINE
  8
1
 10
219.919793
 20
-623.911008
 11
207.919793
 21
-623.911008
  0
LINE
  8
1
 10
219.919793
 20
-619.425570
 11
207.919793
 21
-619.425570
  0
LINE
  8
1
 10
234.734748
 20
-539.173750
 11
253.104839
 21
-539.173750
  0
ARC
  8
1
 10
253.104839
 20
-534.173750
 40
5.000000
 50
270.000000
 51
0.000000
  0
ARC
  8
1
 10
234.734748
 20
-534.173750
 40
5.000000
 50
180.000000
 51
270.000000
  0
LINE
  8
1
 10
224.919793
 20
-551.358529
 11
262.919793
 21
-551.358529
  0
ARC
  8
1
 10
262.919793
 20
-546.358529
 40
5.000000
 50
270.000000
 51
360.000000
  0
ARC
  8
1
 10
224.919793
 20
-546.358529
 40
5.000000
 50
180.000000
 51
270.000000
  0
LINE
  8
1
 10
224.919793
 20
-561.358529
 11
262.919793
 21
-561.358529
  0
ARC
  8
1
 10
262.919793
 20
-566.358529
 40
5.000000
 50
0.000000
 51
90.000000
  0
ARC
  8
1
 10
224.919793
 20
-566.358529
 40
5.000000
 50
90.000000
 51
180.000000
  0
ARC
  8
1
 10
265.134344
 20
-566.358529
 40
2.785449
 50
313.944201
 51
360.000000
  0
ARC
  8
1
 10
222.705243
 20
-566.358529
 40
2.785449
 50
180.000000
 51
226.055799
  0
ARC
  8
1
 10
218.123206
 20
-571.112623
 40
3.817313
 50
0.000000
 51
46.055799
  0
LINE
  8
1
 10
234.734748
 20
-564.655232
 11
253.104839
 21
-564.655232
  0
ARC
  8
1
 10
253.104839
 20
-569.655232
 40
5.000000
 50
0.000000
 51
90.000000
  0
ARC
  8
1
 10
234.734748
 20
-569.655232
 40
5.000000
 50
90.000000
 51
180.000000
  0
LINE
  8
1
 10
263.892246
 20
-546.358529
 11
258.104839
 21
-539.173750
  0
LINE
  8
1
 10
262.919793
 20
-563.037958
 11
258.104839
 21
-564.655232
  0
LINE
  8
1
 10
224.919793
 20
-563.037958
 11
229.734748
 21
-564.655232
  0
LINE
  8
1
 10
223.947341
 20
-546.358529
 11
229.734748
 21
-539.173750
  0
LINE
  8
1
 10
207.919793
 20
-497.525022
 11
219.919793
 21
-497.525022
  0
LINE
  8
1
 10
207.919793
 20
-481.899772
 11
219.919793
 21
-481.899772
  0
ARC
  8
1
 10
202.316953
 20
-488.851824
 40
19.623567
 50
333.769803
 51
360.000000
  0
ARC
  8
1
 10
208.971330
 20
-488.851824
 40
12.969189
 50
0.000000
 51
32.414717
  0
LINE
  8
1
 10
219.919793
 20
-471.358529
 11
219.919793
 21
-481.899772
  0
LINE
  8
1
 10
219.919793
 20
-497.525022
 11
219.919793
 21
-546.358529
  0
ARC
  8
1
 10
285.522634
 20
-488.851824
 40
19.623567
 50
180.000000
 51
206.230197
  0
ARC
  8
1
 10
278.868257
 20
-488.851824
 40
12.969189
 50
147.585283
 51
180.000000
  0
LINE
  8
1
 10
279.919793
 20
-497.525022
 11
267.919793
 21
-497.525022
  0
LINE
  8
1
 10
279.919793
 20
-481.899772
 11
267.919793
 21
-481.899772
  0
LINE
  8
1
 10
267.919793
 20
-471.358529
 11
267.919793
 21
-481.899772
  0
LINE
  8
1
 10
267.919793
 20
-497.525022
 11
267.919793
 21
-546.358529
  0
LINE
  8
1
 10
234.734748
 20
-474.414084
 11
253.104839
 21
-474.414084
  0
ARC
  8
1
 10
234.734748
 20
-479.414084
 40
5.000000
 50
90.000000
 51
180.000000
  0
ARC
  8
1
 10
253.104839
 20
-479.414084
 40
5.000000
 50
360.000000
 51
90.000000
  0
LINE
  8
1
 10
213.919793
 20
-466.358529
 11
273.919793
 21
-466.358529
  0
ARC
  8
1
 10
273.919793
 20
-463.358529
 40
3.000000
 50
270.000000
 51
360.000000
  0
ARC
  8
1
 10
213.919793
 20
-463.358529
 40
3.000000
 50
180.000000
 51
270.000000
  0
ARC
  8
1
 10
262.919793
 20
-471.358529
 40
5.000000
 50
0.000000
 51
90.000000
  0
ARC
  8
1
 10
224.919793
 20
-471.358529
 40
5.000000
 50
90.000000
 51
180.000000
  0
LINE
  8
1
 10
258.104839
 20
-474.414084
 11
262.919793
 21
-470.462244
  0
LINE
  8
1
 10
229.734748
 20
-474.414084
 11
224.919793
 21
-470.462244
  0
LINE
  8
1
 10
210.919793
 20
-684.686354
 11
210.919793
 21
-627.768735
  0
LINE
  8
1
 10
276.919793
 20
-684.686354
 11
276.919793
 21
-627.768735
  0
ARC
  8
1
 10
279.919793
 20
-631.358529
 40
3.000000
 50
90.000000
 51
180.000000
  0
ARC
  8
1
 10
207.919793
 20
-631.358529
 40
3.000000
 50
360.000000
 51
90.000000
  0
ARC
  8
1
 10
207.919793
 20
-627.768735
 40
3.000000
 50
360.000000
 51
90.000000
  0
LINE
  8
1
 10
234.734748
 20
-606.585645
 11
253.104839
 21
-606.585645
  0
LINE
  8
1
 10
220.769951
 20
-623.193742
 11
229.734748
 21
-606.585645
  0
LINE
  8
1
 10
276.919793
 20
-624.768735
 11
210.919793
 21
-624.768735
  0
ARC
  8
1
 10
253.104839
 20
-601.585645
 40
5.000000
 50
270.000000
 51
360.000000
  0
ARC
  8
1
 10
234.734748
 20
-601.585645
 40
5.000000
 50
180.000000
 51
270.000000
  0
ARC
  8
1
 10
279.919793
 20
-627.768735
 40
3.000000
 50
90.000000
 51
180.000000
  0
LINE
  8
1
 10
279.919793
 20
-441.358529
 11
207.919793
 21
-441.358529
  0
LINE
  8
1
 10
267.919793
 20
-579.777496
 11
267.919793
 21
-619.425570
  0
ARC
  8
1
 10
266.290921
 20
-619.914830
 40
1.700765
 50
16.718534
 51
90.000000
  0
ARC
  8
1
 10
266.290921
 20
-618.605918
 40
0.391853
 50
90.000000
 51
180.000000
  0
ARC
  8
1
 10
273.873259
 20
-618.605918
 40
7.974192
 50
180.000000
 51
221.703999
  0
LINE
  8
1
 10
267.919793
 20
-623.911008
 11
279.919793
 21
-623.911008
  0
LINE
  8
1
 10
267.919793
 20
-619.425570
 11
279.919793
 21
-619.425570
  0
LINE
  8
1
 10
267.069636
 20
-623.193742
 11
258.104839
 21
-606.585645
  0
LINE
  8
1
 10
222.919793
 20
-232.828564
 11
264.919793
 21
-232.828564
  0
ARC
  8
1
 10
223.694390
 20
-245.197880
 40
12.393547
 50
93.583322
 51
180.000000
  0
ARC
  8
1
 10
224.051286
 20
-245.197880
 40
12.750442
 50
180.000000
 51
270.000000
  0
LINE
  8
1
 10
222.919793
 20
-649.888494
 11
264.919793
 21
-649.888494
  0
ARC
  8
1
 10
223.694390
 20
-637.519177
 40
12.393547
 50
180.000000
 51
266.416678
  0
ARC
  8
1
 10
224.051286
 20
-637.519177
 40
12.750442
 50
90.000000
 51
180.000000
  0
LINE
  8
1
 10
261.919793
 20
-624.768735
 11
210.919793
 21
-624.768735
  0
ARC
  8
1
 10
264.145197
 20
-637.519177
 40
12.393547
 50
273.583322
 51
360.000000
  0
ARC
  8
1
 10
263.788301
 20
-637.519177
 40
12.750442
 50
0.000000
 51
90.000000
  0
LINE
  8
1
 10
198.919793
 20
-738.358529
 11
288.919793
 21
-738.358529
  0
LINE
  8
1
 10
198.919793
 20
-719.201170
 11
198.919793
 21
-738.358529
  0
LINE
  8
1
 10
288.919793
 20
-719.201170
 11
288.919793
 21
-738.358529
  0
LINE
  8
1
 10
199.798473
 20
-717.958529
 11
288.041114
 21
-717.958529
  0
LINE
  8
1
 10
200.919793
 20
-715.958529
 11
286.919793
 21
-715.958529
  0
LINE
  8
1
 10
200.919793
 20
-699.030703
 11
200.919793
 21
-714.715888
  0
LINE
  8
1
 10
286.919793
 20
-699.030703
 11
286.919793
 21
-714.715888
  0
LINE
  8
1
 10
287.798473
 20
-716.837209
 11
288.041114
 21
-717.079849
  0
LINE
  8
1
 10
200.041114
 20
-716.837209
 11
199.798473
 21
-717.079849
  0
ARC
  8
1
 10
289.919793
 20
-714.715888
 40
3.000000
 50
180.000000
 51
225.000000
  0
ARC
  8
1
 10
285.919793
 20
-719.201170
 40
3.000000
 50
0.000000
 51
45.000000
  0
ARC
  8
1
 10
197.919793
 20
-714.715888
 40
3.000000
 50
315.000000
 51
360.000000
  0
ARC
  8
1
 10
201.919793
 20
-719.201170
 40
3.000000
 50
135.000000
 51
180.000000
  0
LINE
  8
1
 10
202.906005
 20
-696.358529
 11
284.933582
 21
-696.358529
  0
LINE
  8
1
 10
210.919793
 20
-687.358529
 11
276.919793
 21
-687.358529
  0
LINE
  8
1
 10
278.906005
 20
-689.146119
 11
284.933582
 21
-694.570938
  0
LINE
  8
1
 10
208.933582
 20
-689.146119
 11
202.906005
 21
-694.570938
  0
ARC
  8
1
 10
282.919793
 20
-684.686354
 40
6.000000
 50
180.000000
 51
228.012788
  0
ARC
  8
1
 10
280.919793
 20
-699.030703
 40
6.000000
 50
360.000000
 51
48.012788
  0
ARC
  8
1
 10
204.919793
 20
-684.686354
 40
6.000000
 50
311.987212
 51
0.000000
  0
ARC
  8
1
 10
206.919793
 20
-699.030703
 40
6.000000
 50
131.987212
 51
180.000000
  0
ARC
  8
1
 10
-702.005535
 20
-413.358529
 40
3.000000
 50
270.000000
 51
351.525547
  0
ARC
  8
1
 10
-702.005535
 20
-469.358529
 40
3.000000
 50
8.474453
 51
90.000000
  0
ARC
  8
1
 10
-326.154501
 20
-413.358529
 40
3.000000
 50
188.474453
 51
270.000000
  0
ARC
  8
1
 10
-326.154501
 20
-469.358529
 40
3.000000
 50
90.000000
 51
171.525547
  0
LINE
  8
1
  6
CENTER
 62
2
 10
-776.836579
 20
511.948987
 11
-256.015565
 21
511.948987
  0
LINE
  8
1
  6
CENTER
 62
2
 10
243.919793
 20
-770.304978
 11
243.919793
 21
238.563934
  0
LINE
  8
1
  6
CENTER
 62
2
 10
-514.080018
 20
-770.304978
 11
-514.080018
 21
236.741471
  0
LINE
  8
1
  6
CENTER
 62
2
 10
-776.836579
 20
-441.358529
 11
-256.015565
 21
-441.358529
  0
LINE
  8
1
  6
CENTER
 62
2
 10
149.784891
 20
-441.358529
 11
328.955522
 21
-441.358529
  0
LINE
  8
1
  6
CENTER
 62
2
 10
-480.138892
 20
545.890113
 11
-459.632796
 21
566.396209
  0
ARC
  8
1
  6
CENTER
 62
2
 10
-514.080018
 20
511.948987
 40
62.500000
 50
31.677386
 51
58.322614
  0
LINE
  8
1
  6
CENTER
 62
2
 10
-548.021143
 20
545.890113
 11
-568.527240
 21
566.396209
  0
ARC
  8
1
  6
CENTER
 62
2
 10
-514.080018
 20
511.948987
 40
62.500000
 50
121.677386
 51
148.322614
  0
LINE
  8
1
  6
CENTER
 62
2
 10
-480.138892
 20
478.007862
 11
-459.632796
 21
457.501765
  0
ARC
  8
1
  6
CENTER
 62
2
 10
-514.080018
 20
511.948987
 40
62.500000
 50
301.677386
 51
328.322614
  0
LINE
  8
1
  6
CENTER
 62
2
 10
-548.021143
 20
478.007862
 11
-568.527240
 21
457.501765
  0
ARC
  8
1
  6
CENTER
 62
2
 10
-514.080018
 20
511.948987
 40
62.500000
 50
211.677386
 51
238.322614
  0
LINE
  8
1
  6
CENTER
 62
2
 10
-558.274192
 20
-108.970402
 11
-558.274192
 21
-177.476842
  0
LINE
  8
1
  6
CENTER
 62
2
 10
-469.885844
 20
-108.970402
 11
-469.885844
 21
-177.476842
  0
LINE
  8
1
  6
CENTER
 62
2
 10
-557.780250
 20
-221.662626
 11
-548.415915
 21
-268.740320
  0
ARC
  8
1
  6
CENTER
 62
2
 10
-514.080018
 20
-441.358529
 40
200.000000
 50
94.370374
 51
108.129626
  0
ARC
  8
1
  6
CENTER
 62
2
 10
-514.080018
 20
-441.358529
 40
200.000000
 50
71.870374
 51
85.629626
  0
LINE
  8
1
  6
CENTER
 62
2
 10
-470.379786
 20
-221.662626
 11
-479.744121
 21
-268.740320
  0
LINE
  8
1
  6
CENTER
 62
2
 10
-310.080018
 20
514.448987
 11
-310.080018
 21
542.448987
  0
LINE
  8
1
  6
CENTER
 62
2
 10
-324.080018
 20
528.448987
 11
-296.080018
 21
528.448987
  0
LINE
  8
1
  6
CENTER
 62
2
 10
-310.080018
 20
509.448987
 11
-310.080018
 21
481.448987
  0
LINE
  8
1
  6
CENTER
 62
2
 10
-324.080018
 20
495.448987
 11
-296.080018
 21
495.448987
  0
LINE
  8
1
  6
CENTER
 62
2
 10
-718.080018
 20
514.448987
 11
-718.080018
 21
542.448987
  0
LINE
  8
1
  6
CENTER
 62
2
 10
-704.080018
 20
528.448987
 11
-732.080018
 21
528.448987
  0
LINE
  8
1
  6
CENTER
 62
2
 10
-718.080018
 20
509.448987
 11
-718.080018
 21
481.448987
  0
LINE
  8
1
  6
CENTER
 62
2
 10
-704.080018
 20
495.448987
 11
-732.080018
 21
495.448987
  0
LINE
  8
1
  6
CENTER
 62
2
 10
199.725620
 20
-108.970402
 11
199.725620
 21
-177.476842
  0
LINE
  8
1
  6
CENTER
 62
2
 10
288.113967
 20
-108.970402
 11
288.113967
 21
-177.476842
  0
LINE
  8
1
  6
CENTER
 62
2
 10
-310.080018
 20
-409.450944
 11
-310.080018
 21
-474.231446
  0
LINE
  8
1
  6
CENTER
 62
2
 10
-718.080018
 20
-409.450944
 11
-718.080018
 21
-474.231446
  0
LINE
  8
1
  6
CENTER
 62
2
 10
260.419793
 20
-409.450944
 11
260.419793
 21
-474.231446
  0
LINE
  8
1
  6
CENTER
 62
2
 10
227.419793
 20
-409.450944
 11
227.419793
 21
-474.231446
  0
CIRCLE
  8
1
 10
-514.080018
 20
-441.358529
 40
181.500000
  0
CIRCLE
  8
1
 10
-514.080018
 20
-441.358529
 40
154.204653
  0
LINE
  8
1
 10
-486.144909
 20
-295.815169
 11
-542.015127
 21
-295.815169
  0
ARC
  8
1
 10
-514.080018
 20
-336.533822
 40
49.379945
 50
55.547856
 51
124.452144
  0
LINE
  8
1
 10
-486.144909
 20
-586.901889
 11
-542.015127
 21
-586.901889
  0
ARC
  8
1
 10
-514.080018
 20
-546.183236
 40
49.379945
 50
235.547856
 51
304.452144
  0
ARC
  8
1
 10
-514.080018
 20
-441.358529
 40
148.200000
 50
100.865026
 51
259.134974
  0
ARC
  8
1
 10
-514.080018
 20
-441.358529
 40
148.200000
 50
280.865026
 51
79.134974
  0
LINE
  8
1
 10
282.919793
 20
-259.858529
 11
282.919793
 21
-622.858529
  0
LINE
  8
1
 10
204.919793
 20
-622.858529
 11
204.919793
 21
-259.858529
  0
LINE
  8
1
 10
204.919793
 20
-259.858529
 11
207.919793
 21
-259.858529
  0
LINE
  8
1
 10
279.919793
 20
-259.858529
 11
282.919793
 21
-259.858529
  0
LINE
  8
1
 10
279.919793
 20
-622.858529
 11
282.919793
 21
-622.858529
  0
LINE
  8
1
 10
204.919793
 20
-622.858529
 11
207.919793
 21
-622.858529
  0
LINE
  8
1
  6
DASHED
 10
-452.729572
 20
472.948987
 11
-332.580018
 21
472.948987
  0
LINE
  8
1
  6
DASHED
 10
-332.580018
 20
472.948987
 11
-332.580018
 21
475.948987
  0
LINE
  8
1
 10
-332.580018
 20
547.948987
 11
-332.580018
 21
550.948987
  0
LINE
  8
1
 10
-695.580018
 20
547.948987
 11
-695.580018
 21
550.948987
  0
LINE
  8
1
  6
DASHED
 10
-575.430464
 20
472.948987
 11
-695.580018
 21
472.948987
  0
LINE
  8
1
  6
DASHED
 10
-695.580018
 20
472.948987
 11
-695.580018
 21
475.948987
  0
LINE
  8
1
 10
-485.541667
 20
-298.556042
 11
-493.131644
 21
-441.358529
  0
LINE
  8
1
 10
-542.618369
 20
-298.556042
 11
-535.028392
 21
-441.358529
  0
LINE
  8
1
 10
-485.541667
 20
-584.161015
 11
-493.131644
 21
-441.358529
  0
LINE
  8
1
 10
-542.618369
 20
-584.161015
 11
-535.028392
 21
-441.358529
  0
LINE
  8
1
 10
-493.354034
 20
-297.214777
 11
-534.806002
 21
-297.214777
  0
LINE
  8
1
 10
-493.354034
 20
-585.502281
 11
-534.806002
 21
-585.502281
  0
ARC
  8
1
 10
-514.080018
 20
-441.358529
 40
145.626192
 50
98.182302
 51
261.817698
  0
ARC
  8
1
 10
-514.080018
 20
-441.358529
 40
145.626192
 50
278.182302
 51
81.817698
  0
LINE
  8
1
 10
-486.282566
 20
-295.815169
 11
-485.541667
 21
-298.556042
  0
LINE
  8
1
 10
-541.877470
 20
-295.815169
 11
-542.618369
 21
-298.556042
  0
LINE
  8
1
 10
-486.282566
 20
-586.901889
 11
-485.541667
 21
-584.161015
  0
LINE
  8
1
 10
-541.877470
 20
-586.901889
 11
-542.618369
 21
-584.161015
  0
ARC
  8
1
 10
-514.080018
 20
-441.358529
 40
147.406270
 50
100.958016
 51
259.041984
  0
ARC
  8
1
 10
-514.080018
 20
-441.358529
 40
147.406270
 50
280.958016
 51
79.041984
  0
LINE
  8
1
  6
DASHED
 10
-575.430464
 20
550.948987
 11
-606.161504
 21
550.948987
  0
LINE
  8
1
 10
-606.161504
 20
550.948987
 11
-695.580018
 21
550.948987
  0
LINE
  8
1
  6
DASHED
 10
-576.103818
 20
547.948987
 11
-607.375248
 21
547.948987
  0
LINE
  8
1
 10
-607.375248
 20
547.948987
 11
-701.080018
 21
547.948987
  0
LINE
  8
1
  6
DASHED
 10
-589.959050
 20
535.948987
 11
-611.157307
 21
535.948987
  0
LINE
  8
1
 10
-611.157307
 20
535.948987
 11
-639.426499
 21
535.948987
  0
LINE
  8
1
  6
DASHED
 10
-576.580018
 20
526.134033
 11
-613.068828
 21
526.134033
  0
LINE
  8
1
 10
-613.068828
 20
526.134033
 11
-629.495964
 21
526.134033
  0
LINE
  8
1
  6
DASHED
 10
-634.495964
 20
502.763942
 11
-634.495964
 21
519.448987
  0
LINE
  8
1
 10
-634.495964
 20
519.448987
 11
-634.495964
 21
521.134033
  0
LINE
  8
1
  6
DASHED
 10
-657.498985
 20
492.948987
 11
-657.498985
 21
516.948987
  0
LINE
  8
1
 10
-657.498985
 20
516.948987
 11
-657.498985
 21
530.948987
  0
LINE
  8
1
  6
DASHED
 10
-664.358138
 20
492.948987
 11
-664.358138
 21
516.948987
  0
LINE
  8
1
 10
-664.358138
 20
516.948987
 11
-664.358138
 21
530.948987
  0
LINE
  8
1
  6
DASHED
 10
-682.231735
 20
503.566070
 11
-682.231735
 21
516.948987
  0
LINE
  8
1
 10
-682.231735
 20
516.948987
 11
-682.231735
 21
520.331905
  0
LINE
  8
1
  6
DASHED
 10
-737.580018
 20
490.948987
 11
-737.580018
 21
516.948987
  0
LINE
  8
1
 10
-737.580018
 20
516.948987
 11
-737.580018
 21
532.948987
  0
LINE
  8
1
  6
DASHED
 10
-452.729572
 20
550.948987
 11
-421.998532
 21
550.948987
  0
LINE
  8
1
 10
-421.998532
 20
550.948987
 11
-332.580018
 21
550.948987
  0
LINE
  8
1
  6
DASHED
 10
-452.056217
 20
547.948987
 11
-420.784788
 21
547.948987
  0
LINE
  8
1
 10
-420.784788
 20
547.948987
 11
-327.080018
 21
547.948987
  0
LINE
  8
1
  6
DASHED
 10
-438.200986
 20
535.948987
 11
-417.002729
 21
535.948987
  0
LINE
  8
1
 10
-417.002729
 20
535.948987
 11
-388.733537
 21
535.948987
  0
LINE
  8
1
  6
DASHED
 10
-451.580018
 20
526.134033
 11
-415.091208
 21
526.134033
  0
LINE
  8
1
 10
-415.091208
 20
526.134033
 11
-398.664072
 21
526.134033
  0
LINE
  8
1
  6
DASHED
 10
-393.664072
 20
502.763942
 11
-393.664072
 21
519.448987
  0
LINE
  8
1
 10
-393.664072
 20
519.448987
 11
-393.664072
 21
521.134033
  0
LINE
  8
1
  6
DASHED
 10
-370.661051
 20
492.948987
 11
-370.661051
 21
516.948987
  0
LINE
  8
1
 10
-370.661051
 20
516.948987
 11
-370.661051
 21
530.948987
  0
LINE
  8
1
  6
DASHED
 10
-363.801898
 20
492.948987
 11
-363.801898
 21
516.948987
  0
LINE
  8
1
 10
-363.801898
 20
516.948987
 11
-363.801898
 21
530.948987
  0
LINE
  8
1
  6
DASHED
 10
-345.928301
 20
503.566070
 11
-345.928301
 21
516.948987
  0
LINE
  8
1
 10
-345.928301
 20
516.948987
 11
-345.928301
 21
520.331905
  0
LINE
  8
1
  6
DASHED
 10
-290.580018
 20
490.948987
 11
-290.580018
 21
516.948987
  0
LINE
  8
1
 10
-290.580018
 20
516.948987
 11
-290.580018
 21
532.948987
  0
LINE
  8
2
  6
CENTER
 62
2
 10
-514.080018
 20
629.695129
 11
-514.080018
 21
363.763670
  0
ARC
  8
2
 10
-514.080018
 20
511.948987
 40
100.000000
 50
5.744445
 51
174.255556
  0
LINE
  8
2
 10
-489.080018
 20
564.948987
 11
-539.080018
 21
564.948987
  0
LINE
  8
2
 10
-624.080018
 20
521.948987
 11
-624.080018
 21
377.948987
  0
LINE
  8
2
 10
-598.080018
 20
377.948987
 11
-624.080018
 21
377.948987
  0
LINE
  8
2
 10
-624.080018
 20
521.948987
 11
-598.080018
 21
521.948987
  0
LINE
  8
2
 10
-539.080018
 20
569.148987
 11
-539.080018
 21
555.250257
  0
LINE
  8
2
 10
-404.080018
 20
521.948987
 11
-404.080018
 21
377.948987
  0
LINE
  8
2
 10
-430.080018
 20
377.948987
 11
-404.080018
 21
377.948987
  0
LINE
  8
2
 10
-404.080018
 20
521.948987
 11
-430.080018
 21
521.948987
  0
LINE
  8
2
 10
-489.080018
 20
569.148987
 11
-489.080018
 21
555.250257
  0
LINE
  8
2
  6
CENTER
 62
2
 10
-598.080018
 20
489.748987
 11
-598.080018
 21
469.348987
  0
LINE
  8
2
  6
CENTER
 62
2
 10
-598.080018
 20
452.848987
 11
-598.080018
 21
434.848987
  0
LINE
  8
2
  6
CENTER
 62
2
 10
-430.080018
 20
434.848987
 11
-430.080018
 21
452.848987
  0
LINE
  8
2
  6
CENTER
 62
2
 10
-430.080018
 20
468.848987
 11
-430.080018
 21
489.748987
  0
LINE
  8
2
  6
CENTER
 62
2
 10
-421.480018
 20
479.948987
 11
-440.680018
 21
479.948987
  0
LINE
  8
2
  6
CENTER
 62
2
 10
-421.480018
 20
443.948987
 11
-440.680018
 21
443.948987
  0
LINE
  8
2
  6
CENTER
 62
2
 10
-587.680018
 20
479.948987
 11
-608.580018
 21
479.948987
  0
LINE
  8
2
  6
CENTER
 62
2
 10
-587.680018
 20
443.948987
 11
-608.580018
 21
443.948987
  0
CIRCLE
  8
2
 10
-430.080018
 20
479.948987
 40
2.400000
  0
CIRCLE
  8
2
 62
2
 10
-430.080018
 20
479.948987
 40
3.000000
  0
CIRCLE
  8
2
 10
-430.080018
 20
443.948987
 40
2.400000
  0
CIRCLE
  8
2
 62
2
 10
-430.080018
 20
443.948987
 40
3.000000
  0
CIRCLE
  8
2
 10
-598.080018
 20
443.948987
 40
2.400000
  0
CIRCLE
  8
2
 62
2
 10
-598.080018
 20
443.948987
 40
3.000000
  0
CIRCLE
  8
2
 10
-598.080018
 20
479.948987
 40
2.400000
  0
CIRCLE
  8
2
 62
2
 10
-598.080018
 20
479.948987
 40
3.000000
  0
LINE
  8
2
 10
-489.080018
 20
565.948987
 11
-539.080018
 21
565.948987
  0
LINE
  8
2
 10
-539.080018
 20
569.148987
 11
-489.080018
 21
569.148987
  0
LINE
  8
2
  6
CENTER
 62
2
 10
-532.080018
 20
578.148987
 11
-532.080018
 21
561.348987
  0
LINE
  8
2
  6
CENTER
 62
2
 10
-496.080018
 20
578.148987
 11
-496.080018
 21
561.348987
  0
LINE
  8
2
 10
-596.080018
 20
379.948987
 11
-596.080018
 21
437.240783
  0
LINE
  8
2
 10
-596.080018
 20
450.657191
 11
-596.080018
 21
473.248987
  0
LINE
  8
2
 10
-596.080018
 20
486.648987
 11
-596.080018
 21
519.948987
  0
LINE
  8
2
 10
-432.080018
 20
519.948987
 11
-432.080018
 21
486.648987
  0
LINE
  8
2
 10
-432.080018
 20
473.248987
 11
-432.080018
 21
450.657191
  0
LINE
  8
2
 10
-432.080018
 20
437.240783
 11
-432.080018
 21
379.948987
  0
CIRCLE
  8
2
 10
-430.080018
 20
479.948987
 40
7.000000
  0
CIRCLE
  8
2
 10
-430.080018
 20
443.948987
 40
7.000000
  0
CIRCLE
  8
2
 10
-598.080018
 20
443.948987
 40
7.000000
  0
CIRCLE
  8
2
 10
-598.080018
 20
479.948987
 40
7.000000
  0
CIRCLE
  8
2
 10
-514.080018
 20
511.948987
 40
3.300000
  0
CIRCLE
  8
2
 62
2
 10
-514.080018
 20
511.948987
 40
4.000000
  0
LINE
  8
2
  6
CENTER
 62
2
 10
-612.280018
 20
506.948987
 11
-898.196940
 21
506.948987
  0
LINE
  8
2
  6
CENTER
 62
2
 10
-612.280018
 20
392.948987
 11
-898.654704
 21
392.948987
  0
LINE
  8
2
 10
-649.080018
 20
516.948987
 11
-844.080018
 21
516.948987
  0
LINE
  8
2
 10
-649.080018
 20
382.948987
 11
-844.080018
 21
382.948987
  0
LINE
  8
2
 10
-649.080018
 20
380.448987
 11
-649.080018
 21
385.948987
  0
LINE
  8
2
 10
-649.080018
 20
399.948987
 11
-649.080018
 21
499.948987
  0
LINE
  8
2
 10
-649.080018
 20
513.948987
 11
-649.080018
 21
519.448987
  0
LINE
  8
2
 10
-649.080018
 20
519.448987
 11
-624.080018
 21
519.448987
  0
LINE
  8
2
  6
CENTER
 62
2
 10
-636.580018
 20
387.448987
 11
-636.580018
 21
342.048987
  0
LINE
  8
2
 10
-844.080018
 20
519.448987
 11
-844.080018
 21
380.448987
  0
LINE
  8
2
 10
-879.080018
 20
377.948987
 11
-845.080018
 21
377.948987
  0
LINE
  8
2
 10
-860.080018
 20
379.948987
 11
-860.080018
 21
519.948987
  0
LINE
  8
2
 10
-879.080018
 20
377.948987
 11
-879.080018
 21
385.948987
  0
LINE
  8
2
 10
-864.080018
 20
469.948987
 11
-864.080018
 21
429.948987
  0
LINE
  8
2
 10
-879.080018
 20
521.948987
 11
-845.080018
 21
521.948987
  0
LINE
  8
2
 10
-879.080018
 20
521.948987
 11
-879.080018
 21
513.948987
  0
LINE
  8
2
 10
-624.080018
 20
513.948987
 11
-844.080018
 21
513.948987
  0
LINE
  8
2
 10
-624.080018
 20
499.948987
 11
-844.080018
 21
499.948987
  0
LINE
  8
2
 10
-624.080018
 20
385.948987
 11
-844.080018
 21
385.948987
  0
LINE
  8
2
 10
-624.080018
 20
399.948987
 11
-844.080018
 21
399.948987
  0
ARC
  8
2
 10
-514.080018
 20
511.948987
 40
16.100000
 50
98.847864
 51
171.152136
  0
ARC
  8
2
 10
-514.080018
 20
511.948987
 40
16.100000
 50
48.560856
 51
81.152136
  0
ARC
  8
2
 10
-514.080018
 20
511.948987
 40
16.100000
 50
8.847864
 51
41.439144
  0
ARC
  8
2
 10
-514.080018
 20
511.948987
 40
16.100000
 50
278.847864
 51
351.152136
  0
ARC
  8
2
 10
-514.080018
 20
511.948987
 40
16.100000
 50
188.847864
 51
261.152136
  0
LINE
  8
2
  6
CENTER
 62
2
 10
-861.080018
 20
342.048987
 11
-861.080018
 21
384.948987
  0
LINE
  8
2
  6
CENTER
 62
2
 10
-861.080018
 20
516.985460
 11
-861.080018
 21
609.381761
  0
LINE
  8
2
 10
-503.424649
 20
524.018499
 11
-499.606272
 21
527.836875
  0
LINE
  8
2
 10
-502.010506
 20
522.604356
 11
-498.192130
 21
526.422733
  0
LINE
  8
2
 10
-504.924767
 20
528.175234
 11
-503.141806
 21
529.958196
  0
LINE
  8
2
 10
-497.853771
 20
521.104238
 11
-496.070810
 21
522.887199
  0
LINE
  8
2
 10
-496.070810
 20
524.301413
 11
-498.192130
 21
526.422733
  0
LINE
  8
2
 10
-499.606272
 20
527.836875
 11
-501.727592
 21
529.958196
  0
ARC
  8
2
 10
-514.880018
 20
511.148987
 40
19.000000
 50
62.457451
 51
27.542549
  0
ARC
  8
2
 10
-505.631874
 20
528.882341
 40
1.000000
 50
242.457451
 51
315.000000
  0
ARC
  8
2
 10
-502.434699
 20
529.251089
 40
1.000000
 50
45.000000
 51
135.000000
  0
ARC
  8
2
 10
-496.777916
 20
523.594306
 40
1.000000
 50
315.000000
 51
45.000000
  0
ARC
  8
2
 10
-497.146664
 20
520.397131
 40
1.000000
 50
135.000000
 51
207.542549
  0
CIRCLE
  8
2
 10
-502.858963
 20
527.412611
 40
1.250000
  0
CIRCLE
  8
2
 10
-498.616394
 20
523.170042
 40
1.250000
  0
LINE
  8
2
 10
-496.084221
 20
511.560007
 11
-513.691038
 21
493.953191
  0
LINE
  8
2
 10
-514.468998
 20
529.944784
 11
-532.075814
 21
512.337967
  0
LINE
  8
2
 10
-514.468998
 20
493.953191
 11
-532.075814
 21
511.560007
  0
LINE
  8
2
 10
-496.084221
 20
512.337967
 11
-513.691038
 21
529.944784
  0
ARC
  8
2
 10
-514.080018
 20
511.948987
 40
18.000000
 50
178.761743
 51
181.238257
  0
ARC
  8
2
 10
-514.080018
 20
511.948987
 40
18.000000
 50
88.761743
 51
91.238257
  0
ARC
  8
2
 10
-514.080018
 20
511.948987
 40
18.000000
 50
268.761743
 51
271.238257
  0
ARC
  8
2
 10
-514.080018
 20
511.948987
 40
18.000000
 50
358.761743
 51
1.238257
  0
LINE
  8
2
 10
-514.080018
 20
494.978424
 11
-531.050581
 21
511.948987
  0
LINE
  8
2
 10
-497.109455
 20
511.948987
 11
-514.080018
 21
494.978424
  0
LINE
  8
2
 10
-497.109455
 20
511.948987
 11
-514.080018
 21
528.919550
  0
LINE
  8
2
 10
-514.080018
 20
528.919550
 11
-531.050581
 21
511.948987
  0
ARC
  8
2
 10
-514.080018
 20
511.948987
 40
45.000000
 50
60.000000
 51
120.000000
  0
LINE
  8
2
 10
-536.580018
 20
550.920130
 11
-589.424075
 21
520.410600
  0
ARC
  8
2
 10
-549.080018
 20
555.250257
 40
10.000000
 50
300.000000
 51
360.000000
  0
ARC
  8
2
 10
-479.080018
 20
555.250257
 40
10.000000
 50
180.000000
 51
240.000000
  0
LINE
  8
2
  6
CENTER
 62
2
 10
-479.773739
 20
529.968610
 11
-495.871784
 21
546.066655
  0
LINE
  8
2
 10
-475.896252
 20
535.990618
 11
-490.038387
 21
550.132753
  0
ARC
  8
2
 10
-598.080018
 20
379.948987
 40
2.000000
 50
270.000000
 51
360.000000
  0
ARC
  8
2
 10
-430.080018
 20
379.948987
 40
2.000000
 50
180.000000
 51
270.000000
  0
ARC
  8
2
 10
-430.080018
 20
519.948987
 40
2.000000
 50
90.000000
 51
180.000000
  0
ARC
  8
2
 10
-598.080018
 20
519.948987
 40
2.000000
 50
0.000000
 51
90.000000
  0
ARC
  8
2
 10
-514.080018
 20
511.948987
 40
130.000000
 50
247.668355
 51
292.331645
  0
ARC
  8
2
 10
-435.735961
 20
525.606752
 40
6.000000
 50
240.000000
 51
314.990773
  0
ARC
  8
2
 10
-592.424075
 20
525.606752
 40
6.000000
 50
225.009227
 51
300.000000
  0
LINE
  8
2
 10
-447.050581
 20
393.948987
 11
-453.285281
 21
393.948987
  0
LINE
  8
2
 10
-574.874755
 20
393.948987
 11
-581.109455
 21
393.948987
  0
ARC
  8
2
 10
-574.874755
 20
363.948987
 40
30.000000
 50
67.668355
 51
90.000000
  0
ARC
  8
2
 10
-453.285281
 20
363.948987
 40
30.000000
 50
90.000000
 51
112.331645
  0
ARC
  8
2
 10
-581.109455
 20
378.948987
 40
15.000000
 50
90.000000
 51
176.627713
  0
ARC
  8
2
 10
-447.050581
 20
378.948987
 40
15.000000
 50
3.372287
 51
90.000000
  0
LINE
  8
2
 10
-475.896252
 20
535.990618
 11
-485.783965
 21
526.102905
  0
LINE
  8
2
 10
-490.038387
 20
550.132753
 11
-499.926100
 21
540.245040
  0
ARC
  8
2
 10
-514.080018
 20
511.948987
 40
27.000000
 50
75.949723
 51
165.328066
  0
ARC
  8
2
 10
-514.080018
 20
511.948987
 40
27.000000
 50
284.671934
 51
14.050277
  0
ARC
  8
2
 10
-480.127111
 20
520.446050
 40
8.000000
 50
135.000000
 51
194.050277
  0
ARC
  8
2
 10
-505.582955
 20
545.901894
 40
8.000000
 50
255.949723
 51
315.000000
  0
LINE
  8
2
  6
CENTER
 62
2
 10
-480.655542
 20
538.302395
 11
-488.172128
 21
530.785809
  0
LINE
  8
2
  6
CENTER
 62
2
 10
-487.851922
 20
545.248150
 11
-494.804742
 21
538.295331
  0
LINE
  8
2
 10
-549.408984
 20
474.789007
 11
-507.241347
 21
485.829405
  0
LINE
  8
2
 10
-551.239998
 20
476.620021
 11
-540.199600
 21
518.787658
  0
ARC
  8
2
 10
-549.788910
 20
476.240095
 40
1.500000
 50
165.328066
 51
284.671934
  0
CIRCLE
  8
2
 10
-484.381533
 20
534.576404
 40
2.750000
  0
CIRCLE
  8
2
 10
-491.452601
 20
541.647472
 40
2.750000
  0
ARC
  8
2
 10
-514.080018
 20
511.948987
 40
32.500000
 50
250.849772
 51
27.079787
  0
ARC
  8
2
 10
-514.080018
 20
511.948987
 40
32.500000
 50
62.920213
 51
199.150228
  0
ARC
  8
2
 10
-514.080018
 20
511.948987
 40
30.000000
 50
258.830001
 51
25.109757
  0
ARC
  8
2
 10
-514.080018
 20
511.948987
 40
30.000000
 50
64.890243
 51
191.169999
  0
LINE
  8
2
 10
-438.735961
 20
520.410600
 11
-489.795435
 21
549.889801
  0
LINE
  8
2
 10
-490.103486
 20
550.067654
 11
-491.580018
 21
550.920130
  0
LINE
  8
2
 10
-478.221372
 20
484.927560
 11
-463.823059
 21
474.077652
  0
LINE
  8
2
 10
-549.938663
 20
484.927560
 11
-564.336977
 21
474.077652
  0
ARC
  8
2
 10
-514.080018
 20
511.948987
 40
66.000000
 50
219.729403
 51
320.270597
  0
ARC
  8
2
 10
-514.080018
 20
511.948987
 40
42.000000
 50
234.677135
 51
319.177446
  0
ARC
  8
2
 10
-562.531532
 20
471.681745
 40
3.000000
 50
127.000000
 51
219.729403
  0
ARC
  8
2
 10
-465.628504
 20
471.681745
 40
3.000000
 50
320.270597
 51
53.000000
  0
ARC
  8
2
 10
-480.026818
 20
482.531653
 40
3.000000
 50
53.000000
 51
139.177446
  0
ARC
  8
2
 10
-548.133218
 20
482.531653
 40
3.000000
 50
105.507994
 51
127.000000
  0
LINE
  8
2
 10
-547.099895
 20
475.393576
 11
-555.092211
 21
467.401260
  0
LINE
  8
2
 10
-550.635429
 20
478.929110
 11
-558.627745
 21
470.936794
  0
LINE
  8
2
 10
-482.260213
 20
476.593648
 11
-473.067825
 21
467.401260
  0
LINE
  8
2
 10
-478.724679
 20
480.129182
 11
-469.532291
 21
470.936794
  0
ARC
  8
2
 10
-556.859978
 20
469.169027
 40
2.500000
 50
135.000000
 51
315.000000
  0
ARC
  8
2
 10
-480.492446
 20
478.361415
 40
2.500000
 50
45.000000
 51
225.000000
  0
ARC
  8
2
 10
-471.300058
 20
469.169027
 40
2.500000
 50
225.000000
 51
45.000000
  0
LINE
  8
2
 10
-539.129056
 20
471.562780
 11
-545.629056
 21
460.304450
  0
LINE
  8
2
 10
-536.530980
 20
470.062780
 11
-543.030980
 21
458.804450
  0
LINE
  8
2
 10
-524.925034
 20
465.679282
 11
-528.289681
 21
453.122246
  0
LINE
  8
2
 10
-527.822811
 20
466.455739
 11
-531.187459
 21
453.898703
  0
LINE
  8
2
 10
-512.580018
 20
464.448987
 11
-512.580018
 21
451.448987
  0
LINE
  8
2
 10
-515.580018
 20
464.448987
 11
-515.580018
 21
451.448987
  0
LINE
  8
2
 10
-500.337225
 20
466.455739
 11
-496.972577
 21
453.898703
  0
LINE
  8
2
 10
-503.235002
 20
465.679282
 11
-499.870354
 21
453.122246
  0
LINE
  8
2
 10
-489.030980
 20
471.562780
 11
-482.530980
 21
460.304450
  0
LINE
  8
2
 10
-491.629056
 20
470.062780
 11
-485.129056
 21
458.804450
  0
ARC
  8
2
 10
-490.330018
 20
470.812780
 40
1.500000
 50
30.000000
 51
210.000000
  0
ARC
  8
2
 10
-483.830018
 20
459.554450
 40
1.500000
 50
210.000000
 51
30.000000
  0
ARC
  8
2
 10
-501.786113
 20
466.067510
 40
1.500000
 50
15.000000
 51
195.000000
  0
ARC
  8
2
 10
-498.421466
 20
453.510475
 40
1.500000
 50
195.000000
 51
15.000000
  0
ARC
  8
2
 10
-514.080018
 20
464.448987
 40
1.500000
 50
0.000000
 51
180.000000
  0
ARC
  8
2
 10
-526.373923
 20
466.067510
 40
1.500000
 50
345.000000
 51
165.000000
  0
ARC
  8
2
 10
-537.830018
 20
470.812780
 40
1.500000
 50
330.000000
 51
150.000000
  0
ARC
  8
2
 10
-544.330018
 20
459.554450
 40
1.500000
 50
150.000000
 51
330.000000
  0
ARC
  8
2
 10
-529.738570
 20
453.510475
 40
1.500000
 50
165.000000
 51
345.000000
  0
ARC
  8
2
 10
-514.080018
 20
451.448987
 40
1.500000
 50
180.000000
 51
360.000000
  0
LINE
  8
2
 10
-624.080018
 20
380.448987
 11
-649.080018
 21
380.448987
  0
LINE
  8
2
 10
-625.080018
 20
377.948987
 11
-648.080018
 21
377.948987
  0
LINE
  8
2
 10
-625.080018
 20
380.448987
 11
-625.080018
 21
377.948987
  0
LINE
  8
2
 10
-648.080018
 20
380.448987
 11
-648.080018
 21
377.948987
  0
LINE
  8
2
 10
-845.080018
 20
521.948987
 11
-845.080018
 21
377.948987
  0
LINE
  8
2
 10
-844.080018
 20
380.448987
 11
-845.080018
 21
380.448987
  0
LINE
  8
2
 10
-844.080018
 20
519.448987
 11
-845.080018
 21
519.448987
  0
ARC
  8
2
 10
-858.080018
 20
379.948987
 40
2.000000
 50
180.000000
 51
270.000000
  0
ARC
  8
2
 10
-858.080018
 20
519.948987
 40
2.000000
 50
90.000000
 51
180.000000
  0
ARC
  8
2
 10
-863.080018
 20
485.706346
 40
3.000000
 50
0.000000
 51
45.000000
  0
ARC
  8
2
 10
-863.080018
 20
414.191628
 40
3.000000
 50
315.000000
 51
360.000000
  0
LINE
  8
2
 10
-863.080018
 20
429.948987
 11
-864.080018
 21
429.948987
  0
LINE
  8
2
 10
-863.080018
 20
469.948987
 11
-864.080018
 21
469.948987
  0
ARC
  8
2
 10
-863.080018
 20
426.948987
 40
3.000000
 50
0.000000
 51
90.000000
  0
ARC
  8
2
 10
-863.080018
 20
472.948987
 40
3.000000
 50
270.000000
 51
360.000000
  0
LINE
  8
2
 10
-860.080018
 20
380.248987
 11
-869.809847
 21
380.248987
  0
LINE
  8
2
 10
-869.809847
 20
380.248987
 11
-871.080018
 21
382.448987
  0
LINE
  8
2
 10
-871.080018
 20
382.448987
 11
-871.080018
 21
403.448987
  0
LINE
  8
2
 10
-860.080018
 20
386.598987
 11
-869.809847
 21
386.598987
  0
ARC
  8
2
 10
-865.728277
 20
383.423987
 40
5.171058
 50
142.121121
 51
217.878879
  0
LINE
  8
2
 10
-860.080018
 20
405.648987
 11
-869.809847
 21
405.648987
  0
LINE
  8
2
 10
-869.809847
 20
405.648987
 11
-871.080018
 21
403.448987
  0
LINE
  8
2
 10
-860.080018
 20
399.298987
 11
-869.809847
 21
399.298987
  0
ARC
  8
2
 10
-865.728277
 20
402.473987
 40
5.171058
 50
142.121121
 51
217.878879
  0
ARC
  8
2
 10
-851.849335
 20
392.948987
 40
19.050000
 50
160.528779
 51
199.471221
  0
LINE
  8
2
 10
-860.080018
 20
494.248987
 11
-869.809847
 21
494.248987
  0
LINE
  8
2
 10
-869.809847
 20
494.248987
 11
-871.080018
 21
496.448987
  0
LINE
  8
2
 10
-871.080018
 20
496.448987
 11
-871.080018
 21
517.448987
  0
LINE
  8
2
 10
-860.080018
 20
500.598987
 11
-869.809847
 21
500.598987
  0
ARC
  8
2
 10
-865.728277
 20
497.423987
 40
5.171058
 50
142.121121
 51
217.878879
  0
LINE
  8
2
 10
-860.080018
 20
519.648987
 11
-869.809847
 21
519.648987
  0
LINE
  8
2
 10
-869.809847
 20
519.648987
 11
-871.080018
 21
517.448987
  0
LINE
  8
2
 10
-860.080018
 20
513.298987
 11
-869.809847
 21
513.298987
  0
ARC
  8
2
 10
-865.728277
 20
516.473987
 40
5.171058
 50
142.121121
 51
217.878879
  0
ARC
  8
2
 10
-851.849335
 20
506.948987
 40
19.050000
 50
160.528779
 51
199.471221
  0
LINE
  8
2
 10
-860.958698
 20
412.070307
 11
-867.380018
 21
405.648987
  0
LINE
  8
2
 10
-871.080018
 20
401.948987
 11
-873.080018
 21
399.948987
  0
LINE
  8
2
 10
-860.958698
 20
487.827667
 11
-867.380018
 21
494.248987
  0
LINE
  8
2
 10
-871.080018
 20
497.948987
 11
-873.080018
 21
499.948987
  0
LINE
  8
2
 10
-871.080018
 20
385.948987
 11
-886.268018
 21
385.948987
  0
LINE
  8
2
 10
-871.080018
 20
399.948987
 11
-886.268018
 21
399.948987
  0
LINE
  8
2
 10
-887.080018
 20
386.760987
 11
-887.080018
 21
399.136987
  0
LINE
  8
2
 62
2
 10
-871.080018
 20
386.760987
 11
-887.080018
 21
386.760987
  0
LINE
  8
2
 62
2
 10
-871.080018
 20
399.136987
 11
-887.080018
 21
399.136987
  0
LINE
  8
2
 10
-887.080018
 20
386.760987
 11
-886.268018
 21
385.948987
  0
LINE
  8
2
 10
-887.080018
 20
399.136987
 11
-886.268018
 21
399.948987
  0
LINE
  8
2
 10
-886.268018
 20
385.948987
 11
-886.268018
 21
399.948987
  0
LINE
  8
2
 10
-871.080018
 20
499.948987
 11
-886.268018
 21
499.948987
  0
LINE
  8
2
 10
-871.080018
 20
513.948987
 11
-886.268018
 21
513.948987
  0
LINE
  8
2
 10
-887.080018
 20
500.760987
 11
-887.080018
 21
513.136987
  0
LINE
  8
2
 62
2
 10
-871.080018
 20
500.760987
 11
-887.080018
 21
500.760987
  0
LINE
  8
2
 62
2
 10
-871.080018
 20
513.136987
 11
-887.080018
 21
513.136987
  0
LINE
  8
2
 10
-887.080018
 20
500.760987
 11
-886.268018
 21
499.948987
  0
LINE
  8
2
 10
-887.080018
 20
513.136987
 11
-886.268018
 21
513.948987
  0
LINE
  8
2
 10
-886.268018
 20
499.948987
 11
-886.268018
 21
513.948987
  0
LINE
  8
2
 10
-868.080018
 20
430.948987
 11
-868.080018
 21
468.948987
  0
LINE
  8
2
 10
-864.080018
 20
430.948987
 11
-868.080018
 21
430.948987
  0
LINE
  8
2
 10
-864.080018
 20
468.948987
 11
-868.080018
 21
468.948987
  0
LINE
  8
2
 10
-894.580018
 20
458.595987
 11
-894.580018
 21
441.301987
  0
LINE
  8
2
 10
-884.080018
 20
439.948987
 11
-893.227018
 21
439.948987
  0
LINE
  8
2
 10
-884.080018
 20
459.948987
 11
-893.227018
 21
459.948987
  0
LINE
  8
2
 62
2
 10
-884.080018
 20
458.595987
 11
-894.580018
 21
458.595987
  0
LINE
  8
2
 62
2
 10
-884.080018
 20
441.301987
 11
-894.580018
 21
441.301987
  0
LINE
  8
2
 10
-894.580018
 20
441.301987
 11
-893.227018
 21
439.948987
  0
LINE
  8
2
 10
-894.580018
 20
458.595987
 11
-893.227018
 21
459.948987
  0
LINE
  8
2
 10
-893.227018
 20
439.948987
 11
-893.227018
 21
459.948987
  0
LINE
  8
2
 10
-852.584409
 20
527.066465
 11
-852.744330
 21
521.948987
  0
LINE
  8
2
 62
2
 10
-852.584409
 20
527.066465
 11
-853.489393
 21
525.498987
  0
LINE
  8
2
 62
2
 10
-853.489393
 20
525.498987
 11
-853.600330
 21
521.948987
  0
LINE
  8
2
 10
-869.575627
 20
527.066465
 11
-869.415705
 21
521.948987
  0
LINE
  8
2
 10
-869.526643
 20
525.498987
 11
-852.633393
 21
525.498987
  0
LINE
  8
2
 62
2
 10
-869.575627
 20
527.066465
 11
-868.670643
 21
525.498987
  0
LINE
  8
2
 62
2
 10
-868.670643
 20
525.498987
 11
-868.559705
 21
521.948987
  0
LINE
  8
2
 10
-852.584409
 20
531.831509
 11
-852.744330
 21
536.948987
  0
LINE
  8
2
 62
2
 10
-852.584409
 20
531.831509
 11
-853.489393
 21
533.398987
  0
LINE
  8
2
 62
2
 10
-853.489393
 20
533.398987
 11
-853.600330
 21
536.948987
  0
LINE
  8
2
 10
-869.575627
 20
531.831509
 11
-869.415705
 21
536.948987
  0
LINE
  8
2
 10
-869.526643
 20
533.398987
 11
-852.633393
 21
533.398987
  0
LINE
  8
2
 62
2
 10
-869.575627
 20
531.831509
 11
-868.670643
 21
533.398987
  0
LINE
  8
2
 62
2
 10
-868.670643
 20
533.398987
 11
-868.559705
 21
536.948987
  0
LINE
  8
2
 10
-852.584409
 20
531.831509
 11
-852.584409
 21
527.066465
  0
LINE
  8
2
 10
-869.575627
 20
531.831509
 11
-869.575627
 21
527.066465
  0
LINE
  8
2
 10
-852.584409
 20
370.573509
 11
-852.814893
 21
377.948987
  0
LINE
  8
2
 10
-852.633393
 20
372.140987
 11
-869.526643
 21
372.140987
  0
LINE
  8
2
 62
2
 10
-852.584409
 20
370.573509
 11
-853.489393
 21
372.140987
  0
LINE
  8
2
 62
2
 10
-853.489393
 20
372.140987
 11
-853.670893
 21
377.948987
  0
LINE
  8
2
 10
-869.575627
 20
370.573509
 11
-869.345143
 21
377.948987
  0
LINE
  8
2
 62
2
 10
-869.575627
 20
370.573509
 11
-868.670643
 21
372.140987
  0
LINE
  8
2
 62
2
 10
-868.670643
 20
372.140987
 11
-868.489143
 21
377.948987
  0
LINE
  8
2
 10
-852.580018
 20
370.573509
 11
-869.580018
 21
370.573509
  0
LINE
  8
2
 10
-869.580018
 20
351.573509
 11
-869.580018
 21
370.573509
  0
LINE
  8
2
 10
-852.580018
 20
367.073509
 11
-852.580018
 21
370.573509
  0
LINE
  8
2
 10
-847.580018
 20
348.573509
 11
-866.580018
 21
348.573509
  0
LINE
  8
2
 10
-847.580018
 20
365.573509
 11
-851.080018
 21
365.573509
  0
LINE
  8
2
  6
CENTER
 62
2
 10
-767.600739
 20
357.073509
 11
-877.918177
 21
357.073509
  0
ARC
  8
2
 10
-866.580018
 20
351.573509
 40
3.000000
 50
180.000000
 51
270.000000
  0
ARC
  8
2
 10
-851.080018
 20
367.073509
 40
1.500000
 50
180.000000
 51
270.000000
  0
LINE
  8
2
 10
-847.580018
 20
348.573509
 11
-847.580018
 21
365.573509
  0
LINE
  8
2
 10
-854.580018
 20
350.573509
 11
-864.580018
 21
350.573509
  0
LINE
  8
2
 10
-866.580018
 20
352.573509
 11
-866.580018
 21
362.573509
  0
LINE
  8
2
 10
-855.580018
 20
364.573509
 11
-864.580018
 21
364.573509
  0
LINE
  8
2
 10
-852.580018
 20
352.573509
 11
-852.580018
 21
361.573509
  0
ARC
  8
2
 10
-864.580018
 20
352.573509
 40
2.000000
 50
180.000000
 51
270.000000
  0
ARC
  8
2
 10
-864.580018
 20
362.573509
 40
2.000000
 50
90.000000
 51
180.000000
  0
ARC
  8
2
 10
-854.580018
 20
352.573509
 40
2.000000
 50
270.000000
 51
360.000000
  0
ARC
  8
2
 10
-852.580018
 20
364.573509
 40
3.000000
 50
180.000000
 51
270.000000
  0
LINE
  8
2
 10
-842.580018
 20
347.980243
 11
-842.580018
 21
366.166776
  0
LINE
  8
2
 10
-826.580018
 20
347.980243
 11
-826.580018
 21
366.166776
  0
LINE
  8
2
 10
-842.580018
 20
348.742509
 11
-847.580018
 21
348.742509
  0
LINE
  8
2
 10
-842.580018
 20
365.404509
 11
-847.580018
 21
365.404509
  0
LINE
  8
2
 62
2
 10
-842.580018
 20
349.598509
 11
-846.097382
 21
349.598509
  0
LINE
  8
2
 62
2
 10
-842.580018
 20
364.548509
 11
-846.097382
 21
364.548509
  0
LINE
  8
2
 62
2
 10
-847.580018
 20
348.742509
 11
-846.097382
 21
349.598509
  0
LINE
  8
2
 62
2
 10
-847.580018
 20
365.404509
 11
-846.097382
 21
364.548509
  0
LINE
  8
2
 10
-846.097382
 20
348.742509
 11
-846.097382
 21
365.404509
  0
LINE
  8
2
 10
-828.080018
 20
344.949154
 11
-841.080018
 21
344.949154
  0
LINE
  8
2
 10
-828.080018
 20
351.011332
 11
-841.080018
 21
351.011332
  0
LINE
  8
2
 10
-828.080018
 20
363.135687
 11
-841.080018
 21
363.135687
  0
LINE
  8
2
 10
-828.080018
 20
369.197865
 11
-841.080018
 21
369.197865
  0
ARC
  8
2
 10
-830.392518
 20
347.980243
 40
3.812500
 50
307.340993
 51
52.659007
  0
ARC
  8
2
 10
-830.392518
 20
366.166776
 40
3.812500
 50
307.340993
 51
52.659007
  0
ARC
  8
2
 10
-838.767518
 20
347.980243
 40
3.812500
 50
127.340993
 51
232.659007
  0
ARC
  8
2
 10
-838.767518
 20
366.166776
 40
3.812500
 50
127.340993
 51
232.659007
  0
ARC
  8
2
 10
-839.580018
 20
357.073509
 40
13.000000
 50
332.204228
 51
27.795772
  0
ARC
  8
2
 10
-829.580018
 20
357.073509
 40
13.000000
 50
152.204228
 51
207.795772
  0
LINE
  8
2
 10
-780.347229
 20
352.073509
 11
-826.580018
 21
352.073509
  0
LINE
  8
2
 10
-780.347230
 20
362.073510
 11
-826.580018
 21
362.073509
  0
LINE
  8
2
 10
-628.084409
 20
370.573509
 11
-628.314893
 21
377.948987
  0
LINE
  8
2
 10
-628.133393
 20
372.140987
 11
-645.026643
 21
372.140987
  0
LINE
  8
2
 62
2
 10
-628.084409
 20
370.573509
 11
-628.989393
 21
372.140987
  0
LINE
  8
2
 62
2
 10
-628.989393
 20
372.140987
 11
-629.170893
 21
377.948987
  0
LINE
  8
2
 10
-645.075627
 20
370.573509
 11
-644.845143
 21
377.948987
  0
LINE
  8
2
 62
2
 10
-645.075627
 20
370.573509
 11
-644.170643
 21
372.140987
  0
LINE
  8
2
 62
2
 10
-644.170643
 20
372.140987
 11
-643.989143
 21
377.948987
  0
LINE
  8
2
 10
-628.080018
 20
370.573509
 11
-645.080018
 21
370.573509
  0
LINE
  8
2
 10
-645.080018
 20
351.573509
 11
-645.080018
 21
370.573509
  0
LINE
  8
2
 10
-628.080018
 20
367.073509
 11
-628.080018
 21
370.573509
  0
LINE
  8
2
 10
-623.080018
 20
348.573509
 11
-642.080018
 21
348.573509
  0
LINE
  8
2
 10
-623.080018
 20
365.573509
 11
-626.580018
 21
365.573509
  0
LINE
  8
2
  6
CENTER
 62
2
 10
-544.061508
 20
357.073509
 11
-653.418177
 21
357.073509
  0
ARC
  8
2
 10
-642.080018
 20
351.573509
 40
3.000000
 50
180.000000
 51
270.000000
  0
ARC
  8
2
 10
-626.580018
 20
367.073509
 40
1.500000
 50
180.000000
 51
270.000000
  0
LINE
  8
2
 10
-623.080018
 20
348.573509
 11
-623.080018
 21
365.573509
  0
LINE
  8
2
 10
-630.080018
 20
350.573509
 11
-640.080018
 21
350.573509
  0
LINE
  8
2
 10
-642.080018
 20
352.573509
 11
-642.080018
 21
362.573509
  0
LINE
  8
2
 10
-631.080018
 20
364.573509
 11
-640.080018
 21
364.573509
  0
LINE
  8
2
 10
-628.080018
 20
352.573509
 11
-628.080018
 21
361.573509
  0
ARC
  8
2
 10
-640.080018
 20
352.573509
 40
2.000000
 50
180.000000
 51
270.000000
  0
ARC
  8
2
 10
-640.080018
 20
362.573509
 40
2.000000
 50
90.000000
 51
180.000000
  0
ARC
  8
2
 10
-630.080018
 20
352.573509
 40
2.000000
 50
270.000000
 51
360.000000
  0
ARC
  8
2
 10
-628.080018
 20
364.573509
 40
3.000000
 50
180.000000
 51
270.000000
  0
LINE
  8
2
 10
-618.080018
 20
347.980243
 11
-618.080018
 21
366.166776
  0
LINE
  8
2
 10
-602.080018
 20
347.980243
 11
-602.080018
 21
366.166776
  0
LINE
  8
2
 10
-618.080018
 20
348.742509
 11
-623.080018
 21
348.742509
  0
LINE
  8
2
 10
-618.080018
 20
365.404509
 11
-623.080018
 21
365.404509
  0
LINE
  8
2
 62
2
 10
-618.080018
 20
349.598509
 11
-621.597382
 21
349.598509
  0
LINE
  8
2
 62
2
 10
-618.080018
 20
364.548509
 11
-621.597382
 21
364.548509
  0
LINE
  8
2
 62
2
 10
-623.080018
 20
348.742509
 11
-621.597382
 21
349.598509
  0
LINE
  8
2
 62
2
 10
-623.080018
 20
365.404509
 11
-621.597382
 21
364.548509
  0
LINE
  8
2
 10
-621.597382
 20
348.742509
 11
-621.597382
 21
365.404509
  0
LINE
  8
2
 10
-603.580018
 20
344.949154
 11
-616.580018
 21
344.949154
  0
LINE
  8
2
 10
-603.580018
 20
351.011332
 11
-616.580018
 21
351.011332
  0
LINE
  8
2
 10
-603.580018
 20
363.135687
 11
-616.580018
 21
363.135687
  0
LINE
  8
2
 10
-603.580018
 20
369.197865
 11
-616.580018
 21
369.197865
  0
ARC
  8
2
 10
-605.892518
 20
347.980243
 40
3.812500
 50
307.340993
 51
52.659007
  0
ARC
  8
2
 10
-605.892518
 20
366.166776
 40
3.812500
 50
307.340993
 51
52.659007
  0
ARC
  8
2
 10
-614.267518
 20
347.980243
 40
3.812500
 50
127.340993
 51
232.659007
  0
ARC
  8
2
 10
-614.267518
 20
366.166776
 40
3.812500
 50
127.340993
 51
232.659007
  0
ARC
  8
2
 10
-615.080018
 20
357.073509
 40
13.000000
 50
332.204228
 51
27.795772
  0
ARC
  8
2
 10
-605.080018
 20
357.073509
 40
13.000000
 50
152.204228
 51
207.795772
  0
LINE
  8
2
 10
-555.847229
 20
352.073509
 11
-602.080018
 21
352.073509
  0
LINE
  8
2
 10
-555.847229
 20
362.073510
 11
-602.080018
 21
362.073509
  0
LINE
  8
2
  6
CENTER
 62
2
 10
-415.880018
 20
506.948987
 11
-129.963095
 21
506.948987
  0
LINE
  8
2
  6
CENTER
 62
2
 10
-415.880018
 20
392.948987
 11
-129.505332
 21
392.948987
  0
LINE
  8
2
 10
-379.080018
 20
516.948987
 11
-184.080018
 21
516.948987
  0
LINE
  8
2
 10
-379.080018
 20
382.948987
 11
-184.080018
 21
382.948987
  0
LINE
  8
2
 10
-379.080018
 20
380.448987
 11
-379.080018
 21
385.948987
  0
LINE
  8
2
 10
-379.080018
 20
399.948987
 11
-379.080018
 21
499.948987
  0
LINE
  8
2
 10
-379.080018
 20
513.948987
 11
-379.080018
 21
519.448987
  0
LINE
  8
2
 10
-379.080018
 20
519.448987
 11
-404.080018
 21
519.448987
  0
LINE
  8
2
  6
CENTER
 62
2
 10
-391.580018
 20
387.448987
 11
-391.580018
 21
342.048987
  0
LINE
  8
2
 10
-184.080018
 20
519.448987
 11
-184.080018
 21
380.448987
  0
LINE
  8
2
 10
-149.080018
 20
377.948987
 11
-183.080018
 21
377.948987
  0
LINE
  8
2
 10
-168.080018
 20
379.948987
 11
-168.080018
 21
519.948987
  0
LINE
  8
2
 10
-149.080018
 20
377.948987
 11
-149.080018
 21
385.948987
  0
LINE
  8
2
 10
-164.080018
 20
469.948987
 11
-164.080018
 21
429.948987
  0
LINE
  8
2
 10
-149.080018
 20
521.948987
 11
-183.080018
 21
521.948987
  0
LINE
  8
2
 10
-149.080018
 20
521.948987
 11
-149.080018
 21
513.948987
  0
LINE
  8
2
 10
-404.080018
 20
513.948987
 11
-184.080018
 21
513.948987
  0
LINE
  8
2
 10
-404.080018
 20
499.948987
 11
-184.080018
 21
499.948987
  0
LINE
  8
2
 10
-404.080018
 20
385.948987
 11
-184.080018
 21
385.948987
  0
LINE
  8
2
 10
-404.080018
 20
399.948987
 11
-184.080018
 21
399.948987
  0
LINE
  8
2
  6
CENTER
 62
2
 10
-167.080018
 20
342.048987
 11
-167.080018
 21
384.948987
  0
LINE
  8
2
  6
CENTER
 62
2
 10
-167.080018
 20
516.985460
 11
-167.080018
 21
609.381761
  0
LINE
  8
2
 10
-404.080018
 20
380.448987
 11
-379.080018
 21
380.448987
  0
LINE
  8
2
 10
-403.080018
 20
377.948987
 11
-380.080018
 21
377.948987
  0
LINE
  8
2
 10
-380.080018
 20
380.448987
 11
-380.080018
 21
377.948987
  0
LINE
  8
2
 10
-183.080018
 20
521.948987
 11
-183.080018
 21
377.948987
  0
LINE
  8
2
 10
-184.080018
 20
380.448987
 11
-183.080018
 21
380.448987
  0
LINE
  8
2
 10
-184.080018
 20
519.448987
 11
-183.080018
 21
519.448987
  0
ARC
  8
2
 10
-170.080018
 20
379.948987
 40
2.000000
 50
270.000000
 51
360.000000
  0
ARC
  8
2
 10
-170.080018
 20
519.948987
 40
2.000000
 50
0.000000
 51
90.000000
  0
ARC
  8
2
 10
-165.080018
 20
485.706346
 40
3.000000
 50
135.000000
 51
180.000000
  0
ARC
  8
2
 10
-165.080018
 20
414.191628
 40
3.000000
 50
180.000000
 51
225.000000
  0
LINE
  8
2
 10
-165.080018
 20
429.948987
 11
-164.080018
 21
429.948987
  0
LINE
  8
2
 10
-165.080018
 20
469.948987
 11
-164.080018
 21
469.948987
  0
ARC
  8
2
 10
-165.080018
 20
426.948987
 40
3.000000
 50
90.000000
 51
180.000000
  0
ARC
  8
2
 10
-165.080018
 20
472.948987
 40
3.000000
 50
180.000000
 51
270.000000
  0
LINE
  8
2
 10
-168.080018
 20
380.248987
 11
-158.350189
 21
380.248987
  0
LINE
  8
2
 10
-158.350189
 20
380.248987
 11
-157.080018
 21
382.448987
  0
LINE
  8
2
 10
-157.080018
 20
382.448987
 11
-157.080018
 21
403.448987
  0
LINE
  8
2
 10
-168.080018
 20
386.598987
 11
-158.350189
 21
386.598987
  0
ARC
  8
2
 10
-162.431759
 20
383.423987
 40
5.171058
 50
322.121121
 51
37.878879
  0
LINE
  8
2
 10
-168.080018
 20
405.648987
 11
-158.350189
 21
405.648987
  0
LINE
  8
2
 10
-158.350189
 20
405.648987
 11
-157.080018
 21
403.448987
  0
LINE
  8
2
 10
-168.080018
 20
399.298987
 11
-158.350189
 21
399.298987
  0
ARC
  8
2
 10
-162.431759
 20
402.473987
 40
5.171058
 50
322.121121
 51
37.878879
  0
ARC
  8
2
 10
-176.310701
 20
392.948987
 40
19.050000
 50
340.528782
 51
19.471218
  0
LINE
  8
2
 10
-168.080018
 20
494.248987
 11
-158.350189
 21
494.248987
  0
LINE
  8
2
 10
-158.350189
 20
494.248987
 11
-157.080018
 21
496.448987
  0
LINE
  8
2
 10
-168.080018
 20
500.598987
 11
-158.350189
 21
500.598987
  0
ARC
  8
2
 10
-162.431759
 20
497.423987
 40
5.171058
 50
322.121121
 51
37.878879
  0
ARC
  8
2
 10
-176.310701
 20
506.948987
 40
19.050000
 50
340.528782
 51
19.471218
  0
LINE
  8
2
 10
-168.080018
 20
519.648987
 11
-158.350189
 21
519.648987
  0
LINE
  8
2
 10
-158.350189
 20
519.648987
 11
-157.080018
 21
517.448987
  0
LINE
  8
2
 10
-157.080018
 20
517.448987
 11
-157.080018
 21
496.448987
  0
LINE
  8
2
 10
-168.080018
 20
513.298987
 11
-158.350189
 21
513.298987
  0
ARC
  8
2
 10
-162.431759
 20
516.473987
 40
5.171058
 50
322.121121
 51
37.878879
  0
LINE
  8
2
 10
-167.201338
 20
412.070307
 11
-160.780018
 21
405.648987
  0
LINE
  8
2
 10
-157.080018
 20
401.948987
 11
-155.080018
 21
399.948987
  0
LINE
  8
2
 10
-167.201338
 20
487.827667
 11
-160.780018
 21
494.248987
  0
LINE
  8
2
 10
-157.080018
 20
497.948987
 11
-155.080018
 21
499.948987
  0
LINE
  8
2
 10
-157.080018
 20
385.948987
 11
-141.892018
 21
385.948987
  0
LINE
  8
2
 10
-157.080018
 20
399.948987
 11
-141.892018
 21
399.948987
  0
LINE
  8
2
 10
-141.080018
 20
386.760987
 11
-141.080018
 21
399.136987
  0
LINE
  8
2
 62
2
 10
-157.080018
 20
386.760987
 11
-141.080018
 21
386.760987
  0
LINE
  8
2
 62
2
 10
-157.080018
 20
399.136987
 11
-141.080018
 21
399.136987
  0
LINE
  8
2
 10
-141.080018
 20
386.760987
 11
-141.892018
 21
385.948987
  0
LINE
  8
2
 10
-141.080018
 20
399.136987
 11
-141.892018
 21
399.948987
  0
LINE
  8
2
 10
-141.892018
 20
385.948987
 11
-141.892018
 21
399.948987
  0
LINE
  8
2
 10
-157.080018
 20
499.948987
 11
-141.892018
 21
499.948987
  0
LINE
  8
2
 10
-157.080018
 20
513.948987
 11
-141.892018
 21
513.948987
  0
LINE
  8
2
 10
-141.080018
 20
500.760987
 11
-141.080018
 21
513.136987
  0
LINE
  8
2
 62
2
 10
-157.080018
 20
500.760987
 11
-141.080018
 21
500.760987
  0
LINE
  8
2
 62
2
 10
-157.080018
 20
513.136987
 11
-141.080018
 21
513.136987
  0
LINE
  8
2
 10
-141.080018
 20
500.760987
 11
-141.892018
 21
499.948987
  0
LINE
  8
2
 10
-141.080018
 20
513.136987
 11
-141.892018
 21
513.948987
  0
LINE
  8
2
 10
-141.892018
 20
499.948987
 11
-141.892018
 21
513.948987
  0
LINE
  8
2
 10
-175.575627
 20
527.066465
 11
-175.415705
 21
521.948987
  0
LINE
  8
2
 62
2
 10
-175.575627
 20
527.066465
 11
-174.670643
 21
525.498987
  0
LINE
  8
2
 62
2
 10
-174.670643
 20
525.498987
 11
-174.559705
 21
521.948987
  0
LINE
  8
2
 10
-158.584409
 20
527.066465
 11
-158.744330
 21
521.948987
  0
LINE
  8
2
 10
-158.633393
 20
525.498987
 11
-175.526643
 21
525.498987
  0
LINE
  8
2
 62
2
 10
-158.584409
 20
527.066465
 11
-159.489393
 21
525.498987
  0
LINE
  8
2
 62
2
 10
-159.489393
 20
525.498987
 11
-159.600330
 21
521.948987
  0
LINE
  8
2
 10
-175.575627
 20
531.831509
 11
-175.415705
 21
536.948987
  0
LINE
  8
2
 62
2
 10
-175.575627
 20
531.831509
 11
-174.670643
 21
533.398987
  0
LINE
  8
2
 62
2
 10
-174.670643
 20
533.398987
 11
-174.559705
 21
536.948987
  0
LINE
  8
2
 10
-158.584409
 20
531.831509
 11
-158.744330
 21
536.948987
  0
LINE
  8
2
 10
-158.633393
 20
533.398987
 11
-175.526643
 21
533.398987
  0
LINE
  8
2
 62
2
 10
-158.584409
 20
531.831509
 11
-159.489393
 21
533.398987
  0
LINE
  8
2
 62
2
 10
-159.489393
 20
533.398987
 11
-159.600330
 21
536.948987
  0
LINE
  8
2
 10
-175.575627
 20
531.831509
 11
-175.575627
 21
527.066465
  0
LINE
  8
2
 10
-158.584409
 20
531.831509
 11
-158.584409
 21
527.066465
  0
LINE
  8
2
 10
-175.575627
 20
370.573509
 11
-175.345143
 21
377.948987
  0
LINE
  8
2
 10
-175.526643
 20
372.140987
 11
-158.633393
 21
372.140987
  0
LINE
  8
2
 62
2
 10
-175.575627
 20
370.573509
 11
-174.670643
 21
372.140987
  0
LINE
  8
2
 62
2
 10
-174.670643
 20
372.140987
 11
-174.489143
 21
377.948987
  0
LINE
  8
2
 10
-158.584409
 20
370.573509
 11
-158.814893
 21
377.948987
  0
LINE
  8
2
 62
2
 10
-158.584409
 20
370.573509
 11
-159.489393
 21
372.140987
  0
LINE
  8
2
 62
2
 10
-159.489393
 20
372.140987
 11
-159.670893
 21
377.948987
  0
LINE
  8
2
 10
-175.580018
 20
370.573509
 11
-158.580018
 21
370.573509
  0
LINE
  8
2
 10
-158.580018
 20
351.573509
 11
-158.580018
 21
370.573509
  0
LINE
  8
2
 10
-175.580018
 20
367.073509
 11
-175.580018
 21
370.573509
  0
LINE
  8
2
 10
-180.580018
 20
348.573509
 11
-161.580018
 21
348.573509
  0
LINE
  8
2
 10
-180.580018
 20
365.573509
 11
-177.080018
 21
365.573509
  0
LINE
  8
2
  6
CENTER
 62
2
 10
-263.737523
 20
357.073509
 11
-150.241858
 21
357.073509
  0
ARC
  8
2
 10
-161.580018
 20
351.573509
 40
3.000000
 50
270.000000
 51
360.000000
  0
ARC
  8
2
 10
-177.080018
 20
367.073509
 40
1.500000
 50
270.000000
 51
360.000000
  0
LINE
  8
2
 10
-180.580018
 20
348.573509
 11
-180.580018
 21
365.573509
  0
LINE
  8
2
 10
-173.580018
 20
350.573509
 11
-163.580018
 21
350.573509
  0
LINE
  8
2
 10
-161.580018
 20
352.573509
 11
-161.580018
 21
362.573509
  0
LINE
  8
2
 10
-172.580018
 20
364.573509
 11
-163.580018
 21
364.573509
  0
LINE
  8
2
 10
-175.580018
 20
352.573509
 11
-175.580018
 21
361.573509
  0
ARC
  8
2
 10
-163.580018
 20
352.573509
 40
2.000000
 50
270.000000
 51
360.000000
  0
ARC
  8
2
 10
-163.580018
 20
362.573509
 40
2.000000
 50
0.000000
 51
90.000000
  0
ARC
  8
2
 10
-173.580018
 20
352.573509
 40
2.000000
 50
180.000000
 51
270.000000
  0
ARC
  8
2
 10
-175.580018
 20
364.573509
 40
3.000000
 50
270.000000
 51
360.000000
  0
LINE
  8
2
 10
-185.580018
 20
347.980243
 11
-185.580018
 21
366.166776
  0
LINE
  8
2
 10
-201.580018
 20
347.980243
 11
-201.580018
 21
366.166776
  0
LINE
  8
2
 10
-185.580018
 20
348.742509
 11
-180.580018
 21
348.742509
  0
LINE
  8
2
 10
-185.580018
 20
365.404509
 11
-180.580018
 21
365.404509
  0
LINE
  8
2
 62
2
 10
-185.580018
 20
349.598509
 11
-182.062653
 21
349.598509
  0
LINE
  8
2
 62
2
 10
-185.580018
 20
364.548509
 11
-182.062653
 21
364.548509
  0
LINE
  8
2
 62
2
 10
-180.580018
 20
348.742509
 11
-182.062653
 21
349.598509
  0
LINE
  8
2
 62
2
 10
-180.580018
 20
365.404509
 11
-182.062653
 21
364.548509
  0
LINE
  8
2
 10
-182.062653
 20
348.742509
 11
-182.062653
 21
365.404509
  0
LINE
  8
2
 10
-200.080018
 20
344.949154
 11
-187.080018
 21
344.949154
  0
LINE
  8
2
 10
-200.080018
 20
351.011332
 11
-187.080018
 21
351.011332
  0
LINE
  8
2
 10
-200.080018
 20
363.135687
 11
-187.080018
 21
363.135687
  0
LINE
  8
2
 10
-200.080018
 20
369.197865
 11
-187.080018
 21
369.197865
  0
ARC
  8
2
 10
-197.767518
 20
347.980243
 40
3.812500
 50
127.340993
 51
232.659007
  0
ARC
  8
2
 10
-197.767518
 20
366.166776
 40
3.812500
 50
127.340993
 51
232.659007
  0
ARC
  8
2
 10
-189.392518
 20
347.980243
 40
3.812500
 50
307.340993
 51
52.659007
  0
ARC
  8
2
 10
-189.392518
 20
366.166776
 40
3.812500
 50
307.340993
 51
52.659007
  0
ARC
  8
2
 10
-188.580018
 20
357.073509
 40
13.000000
 50
152.204228
 51
207.795772
  0
ARC
  8
2
 10
-198.580018
 20
357.073509
 40
13.000000
 50
332.204228
 51
27.795772
  0
LINE
  8
2
 10
-247.812807
 20
352.073509
 11
-201.580018
 21
352.073509
  0
LINE
  8
2
 10
-247.812807
 20
362.073509
 11
-201.580018
 21
362.073509
  0
LINE
  8
2
 10
-400.075627
 20
370.573509
 11
-399.845143
 21
377.948987
  0
LINE
  8
2
 10
-400.026643
 20
372.140987
 11
-383.133393
 21
372.140987
  0
LINE
  8
2
 62
2
 10
-400.075627
 20
370.573509
 11
-399.170643
 21
372.140987
  0
LINE
  8
2
 10
-383.084409
 20
370.573509
 11
-383.314893
 21
377.948987
  0
LINE
  8
2
 62
2
 10
-383.084409
 20
370.573509
 11
-383.989393
 21
372.140987
  0
LINE
  8
2
 62
2
 10
-383.989393
 20
372.140987
 11
-384.170893
 21
377.948987
  0
LINE
  8
2
 10
-400.080018
 20
370.573509
 11
-383.080018
 21
370.573509
  0
LINE
  8
2
 10
-383.080018
 20
351.573509
 11
-383.080018
 21
370.573509
  0
LINE
  8
2
 10
-400.080018
 20
367.073509
 11
-400.080018
 21
370.573509
  0
LINE
  8
2
 10
-405.080018
 20
348.573509
 11
-386.080018
 21
348.573509
  0
LINE
  8
2
 10
-405.080018
 20
365.573509
 11
-401.580018
 21
365.573509
  0
LINE
  8
2
  6
CENTER
 62
2
 10
-483.704178
 20
357.073509
 11
-374.741858
 21
357.073509
  0
ARC
  8
2
 10
-386.080018
 20
351.573509
 40
3.000000
 50
270.000000
 51
360.000000
  0
ARC
  8
2
 10
-401.580018
 20
367.073509
 40
1.500000
 50
270.000000
 51
360.000000
  0
LINE
  8
2
 10
-405.080018
 20
348.573509
 11
-405.080018
 21
365.573509
  0
LINE
  8
2
 10
-398.080018
 20
350.573509
 11
-388.080018
 21
350.573509
  0
LINE
  8
2
 10
-386.080018
 20
352.573509
 11
-386.080018
 21
362.573509
  0
LINE
  8
2
 10
-397.080018
 20
364.573509
 11
-388.080018
 21
364.573509
  0
LINE
  8
2
 10
-400.080018
 20
352.573509
 11
-400.080018
 21
361.573509
  0
ARC
  8
2
 10
-388.080018
 20
352.573509
 40
2.000000
 50
270.000000
 51
360.000000
  0
ARC
  8
2
 10
-388.080018
 20
362.573509
 40
2.000000
 50
0.000000
 51
90.000000
  0
ARC
  8
2
 10
-398.080018
 20
352.573509
 40
2.000000
 50
180.000000
 51
270.000000
  0
ARC
  8
2
 10
-400.080018
 20
364.573509
 40
3.000000
 50
270.000000
 51
360.000000
  0
LINE
  8
2
 10
-410.080018
 20
347.980243
 11
-410.080018
 21
366.166776
  0
LINE
  8
2
 10
-426.080018
 20
347.980243
 11
-426.080018
 21
366.166776
  0
LINE
  8
2
 10
-410.080018
 20
348.742509
 11
-405.080018
 21
348.742509
  0
LINE
  8
2
 10
-410.080018
 20
365.404509
 11
-405.080018
 21
365.404509
  0
LINE
  8
2
 62
2
 10
-410.080018
 20
349.598509
 11
-406.562653
 21
349.598509
  0
LINE
  8
2
 62
2
 10
-410.080018
 20
364.548509
 11
-406.562653
 21
364.548509
  0
LINE
  8
2
 62
2
 10
-405.080018
 20
348.742509
 11
-406.562653
 21
349.598509
  0
LINE
  8
2
 62
2
 10
-405.080018
 20
365.404509
 11
-406.562653
 21
364.548509
  0
LINE
  8
2
 10
-406.562653
 20
348.742509
 11
-406.562653
 21
365.404509
  0
LINE
  8
2
 10
-424.580018
 20
344.949154
 11
-411.580018
 21
344.949154
  0
LINE
  8
2
 10
-424.580018
 20
351.011332
 11
-411.580018
 21
351.011332
  0
LINE
  8
2
 10
-424.580018
 20
363.135687
 11
-411.580018
 21
363.135687
  0
LINE
  8
2
 10
-424.580018
 20
369.197865
 11
-411.580018
 21
369.197865
  0
ARC
  8
2
 10
-422.267518
 20
347.980243
 40
3.812500
 50
127.340993
 51
232.659007
  0
ARC
  8
2
 10
-422.267518
 20
366.166776
 40
3.812500
 50
127.340993
 51
232.659007
  0
ARC
  8
2
 10
-413.892518
 20
347.980243
 40
3.812500
 50
307.340993
 51
52.659007
  0
ARC
  8
2
 10
-413.892518
 20
366.166776
 40
3.812500
 50
307.340993
 51
52.659007
  0
ARC
  8
2
 10
-413.080018
 20
357.073509
 40
13.000000
 50
152.204228
 51
207.795772
  0
ARC
  8
2
 10
-423.080018
 20
357.073509
 40
13.000000
 50
332.204228
 51
27.795772
  0
LINE
  8
2
 10
-472.312807
 20
352.073510
 11
-426.080018
 21
352.073509
  0
LINE
  8
2
 10
-472.312807
 20
362.073509
 11
-426.080018
 21
362.073509
  0
LINE
  8
2
 10
-403.080018
 20
380.448987
 11
-403.080018
 21
377.948987
  0
LINE
  8
2
 10
-868.080018
 20
434.948987
 11
-884.080018
 21
434.948987
  0
ARC
  8
2
 10
-865.873896
 20
442.448987
 40
18.206122
 50
155.672652
 51
204.327348
  0
LINE
  8
2
 10
-868.080018
 20
464.948987
 11
-884.080018
 21
464.948987
  0
LINE
  8
2
 10
-884.080018
 20
464.948987
 11
-884.080018
 21
434.948987
  0
LINE
  8
2
 10
-868.080018
 20
449.948987
 11
-882.463437
 21
449.948987
  0
ARC
  8
2
 10
-865.873896
 20
457.448987
 40
18.206122
 50
155.672652
 51
204.327348
  0
LINE
  8
2
  6
CENTER
 62
2
 10
-122.781611
 20
449.948987
 11
-911.931987
 21
449.948987
  0
LINE
  8
2
 62
2
 10
-399.170643
 20
372.140987
 11
-398.989143
 21
377.948987
  0
LINE
  8
2
 10
-537.830018
 20
570.648987
 11
-537.830018
 21
574.158239
  0
LINE
  8
2
 10
-537.830018
 20
574.158239
 11
-536.980018
 21
574.648987
  0
LINE
  8
2
 10
-534.955018
 20
570.648987
 11
-534.955018
 21
574.158239
  0
ARC
  8
2
 10
-536.392518
 20
572.310284
 40
2.341227
 50
52.121121
 51
127.878879
  0
ARC
  8
2
 10
-532.080018
 20
566.026511
 40
8.625000
 50
70.528777
 51
109.471219
  0
LINE
  8
2
 10
-526.330018
 20
570.648987
 11
-526.330018
 21
574.158239
  0
LINE
  8
2
 10
-526.330018
 20
574.158239
 11
-527.180018
 21
574.648987
  0
LINE
  8
2
 10
-527.180018
 20
574.648987
 11
-536.980018
 21
574.648987
  0
LINE
  8
2
 10
-529.205018
 20
570.648987
 11
-529.205018
 21
574.158239
  0
ARC
  8
2
 10
-527.767518
 20
572.310284
 40
2.341227
 50
52.121121
 51
127.878879
  0
LINE
  8
2
 10
-538.180018
 20
569.148987
 11
-538.180018
 21
570.648987
  0
LINE
  8
2
 10
-538.180018
 20
570.648987
 11
-525.980018
 21
570.648987
  0
LINE
  8
2
 10
-525.980018
 20
570.648987
 11
-525.980018
 21
569.148987
  0
LINE
  8
2
 10
-532.080018
 20
570.648987
 11
-531.580018
 21
569.148987
  0
LINE
  8
2
 10
-532.080018
 20
569.148987
 11
-532.580018
 21
570.648987
  0
LINE
  8
2
 10
-501.830018
 20
570.648987
 11
-501.830018
 21
574.158239
  0
LINE
  8
2
 10
-501.830018
 20
574.158239
 11
-500.980018
 21
574.648987
  0
LINE
  8
2
 10
-498.955018
 20
570.648987
 11
-498.955018
 21
574.158239
  0
ARC
  8
2
 10
-500.392518
 20
572.310284
 40
2.341227
 50
52.121121
 51
127.878879
  0
ARC
  8
2
 10
-496.080018
 20
566.026511
 40
8.625000
 50
70.528777
 51
109.471219
  0
LINE
  8
2
 10
-490.330018
 20
570.648987
 11
-490.330018
 21
574.158239
  0
LINE
  8
2
 10
-490.330018
 20
574.158239
 11
-491.180018
 21
574.648987
  0
LINE
  8
2
 10
-491.180018
 20
574.648987
 11
-500.980018
 21
574.648987
  0
LINE
  8
2
 10
-493.205018
 20
570.648987
 11
-493.205018
 21
574.158239
  0
ARC
  8
2
 10
-491.767518
 20
572.310284
 40
2.341227
 50
52.121121
 51
127.878879
  0
LINE
  8
2
 10
-502.180018
 20
569.148987
 11
-502.180018
 21
570.648987
  0
LINE
  8
2
 10
-502.180018
 20
570.648987
 11
-489.980018
 21
570.648987
  0
LINE
  8
2
 10
-489.980018
 20
570.648987
 11
-489.980018
 21
569.148987
  0
LINE
  8
2
 10
-496.080018
 20
570.648987
 11
-495.580018
 21
569.148987
  0
LINE
  8
2
 10
-496.080018
 20
569.148987
 11
-496.580018
 21
570.648987
  0
LINE
  8
2
  6
CENTER
 62
2
 10
-879.307645
 20
567.948987
 11
-843.261248
 21
567.948987
  0
LINE
  8
2
 10
-855.080018
 20
564.484886
 11
-855.080018
 21
571.413089
  0
LINE
  8
2
 10
-867.080018
 20
564.484886
 11
-867.080018
 21
571.413089
  0
LINE
  8
2
 10
-861.080018
 20
574.877190
 11
-855.080018
 21
571.413089
  0
LINE
  8
2
 10
-867.080018
 20
564.484886
 11
-861.080018
 21
561.020784
  0
LINE
  8
2
 10
-861.080018
 20
561.020784
 11
-855.080018
 21
564.484886
  0
LINE
  8
2
 10
-861.080018
 20
574.877190
 11
-867.080018
 21
571.413089
  0
CIRCLE
  8
2
 10
-861.080018
 20
567.948987
 40
6.000000
  0
LINE
  8
2
 10
-848.080018
 20
537.948987
 11
-848.080018
 21
591.948987
  0
LINE
  8
2
 10
-874.080018
 20
537.948987
 11
-874.080018
 21
591.948987
  0
LINE
  8
2
 10
-873.080018
 20
592.948987
 11
-849.080018
 21
592.948987
  0
LINE
  8
2
 10
-873.080018
 20
536.948987
 11
-849.080018
 21
536.948987
  0
LINE
  8
2
 10
-849.580018
 20
537.948987
 11
-849.580018
 21
591.948987
  0
LINE
  8
2
 10
-872.580018
 20
537.948987
 11
-872.580018
 21
591.948987
  0
LINE
  8
2
 10
-874.080018
 20
537.948987
 11
-848.080018
 21
537.948987
  0
LINE
  8
2
 10
-874.080018
 20
591.948987
 11
-848.080018
 21
591.948987
  0
LINE
  8
2
 10
-848.080018
 20
537.948987
 11
-849.080018
 21
536.948987
  0
LINE
  8
2
 10
-848.080018
 20
591.948987
 11
-849.080018
 21
592.948987
  0
LINE
  8
2
 10
-873.080018
 20
592.948987
 11
-874.080018
 21
591.948987
  0
LINE
  8
2
 10
-874.080018
 20
537.948987
 11
-873.080018
 21
536.948987
  0
LINE
  8
2
 10
-849.580018
 20
537.948987
 11
-849.080018
 21
536.948987
  0
LINE
  8
2
 10
-849.580018
 20
591.948987
 11
-849.080018
 21
592.948987
  0
LINE
  8
2
 10
-872.580018
 20
591.948987
 11
-873.080018
 21
592.948987
  0
LINE
  8
2
 10
-873.080018
 20
536.948987
 11
-872.580018
 21
537.948987
  0
CIRCLE
  8
2
 10
-861.080018
 20
567.948987
 40
8.000000
  0
LINE
  8
2
 10
-865.849714
 20
569.448987
 11
-856.310322
 21
569.448987
  0
LINE
  8
2
 10
-865.849714
 20
566.448987
 11
-856.310322
 21
566.448987
  0
CIRCLE
  8
2
 10
-861.080018
 20
567.948987
 40
5.000000
  0
ARC
  8
2
 10
-861.080018
 20
567.948987
 40
4.500000
 50
19.471221
 51
160.528779
  0
ARC
  8
2
 10
-861.080018
 20
567.948987
 40
4.500000
 50
199.471221
 51
340.528779
  0
LINE
  8
2
  6
CENTER
 62
2
 10
-185.307645
 20
567.948987
 11
-149.261248
 21
567.948987
  0
LINE
  8
2
 10
-161.080018
 20
564.484886
 11
-161.080018
 21
571.413089
  0
LINE
  8
2
 10
-173.080018
 20
564.484886
 11
-173.080018
 21
571.413089
  0
LINE
  8
2
 10
-167.080018
 20
574.877190
 11
-161.080018
 21
571.413089
  0
LINE
  8
2
 10
-173.080018
 20
564.484886
 11
-167.080018
 21
561.020784
  0
LINE
  8
2
 10
-167.080018
 20
561.020784
 11
-161.080018
 21
564.484886
  0
LINE
  8
2
 10
-167.080018
 20
574.877190
 11
-173.080018
 21
571.413089
  0
CIRCLE
  8
2
 10
-167.080018
 20
567.948987
 40
6.000000
  0
LINE
  8
2
 10
-154.080018
 20
537.948987
 11
-154.080018
 21
591.948987
  0
LINE
  8
2
 10
-180.080018
 20
537.948987
 11
-180.080018
 21
591.948987
  0
LINE
  8
2
 10
-179.080018
 20
592.948987
 11
-155.080018
 21
592.948987
  0
LINE
  8
2
 10
-179.080018
 20
536.948987
 11
-155.080018
 21
536.948987
  0
LINE
  8
2
 10
-155.580018
 20
537.948987
 11
-155.580018
 21
591.948987
  0
LINE
  8
2
 10
-178.580018
 20
537.948987
 11
-178.580018
 21
591.948987
  0
LINE
  8
2
 10
-180.080018
 20
537.948987
 11
-154.080018
 21
537.948987
  0
LINE
  8
2
 10
-180.080018
 20
591.948987
 11
-154.080018
 21
591.948987
  0
LINE
  8
2
 10
-154.080018
 20
537.948987
 11
-155.080018
 21
536.948987
  0
LINE
  8
2
 10
-154.080018
 20
591.948987
 11
-155.080018
 21
592.948987
  0
LINE
  8
2
 10
-179.080018
 20
592.948987
 11
-180.080018
 21
591.948987
  0
LINE
  8
2
 10
-180.080018
 20
537.948987
 11
-179.080018
 21
536.948987
  0
LINE
  8
2
 10
-155.580018
 20
537.948987
 11
-155.080018
 21
536.948987
  0
LINE
  8
2
 10
-155.580018
 20
591.948987
 11
-155.080018
 21
592.948987
  0
LINE
  8
2
 10
-178.580018
 20
591.948987
 11
-179.080018
 21
592.948987
  0
LINE
  8
2
 10
-179.080018
 20
536.948987
 11
-178.580018
 21
537.948987
  0
CIRCLE
  8
2
 10
-167.080018
 20
567.948987
 40
8.000000
  0
LINE
  8
2
 10
-171.849714
 20
569.448987
 11
-162.310322
 21
569.448987
  0
LINE
  8
2
 10
-171.849714
 20
566.448987
 11
-162.310322
 21
566.448987
  0
CIRCLE
  8
2
 10
-167.080018
 20
567.948987
 40
5.000000
  0
ARC
  8
2
 10
-167.080018
 20
567.948987
 40
4.500000
 50
19.471221
 51
160.528779
  0
ARC
  8
2
 10
-167.080018
 20
567.948987
 40
4.500000
 50
199.471221
 51
340.528779
  0
LINE
  8
2
  6
CENTER
 62
2
 10
-122.781611
 20
69.641471
 11
-914.159587
 21
69.641471
  0
LINE
  8
2
 10
-404.080018
 20
141.641471
 11
-430.080018
 21
141.641471
  0
LINE
  8
2
 10
-598.080018
 20
141.641471
 11
-624.080018
 21
141.641471
  0
ARC
  8
2
 10
-610.080018
 20
146.641471
 40
5.000000
 50
270.000000
 51
360.000000
  0
LINE
  8
2
 10
-404.080018
 20
-2.358529
 11
-430.080018
 21
-2.358529
  0
LINE
  8
2
 10
-484.080018
 20
150.641471
 11
-544.080018
 21
150.641471
  0
LINE
  8
2
 10
-437.496216
 20
136.641471
 11
-590.663819
 21
136.641471
  0
ARC
  8
2
 10
-586.080018
 20
141.641471
 40
5.000000
 50
180.000000
 51
270.000000
  0
LINE
  8
2
  6
CENTER
 62
2
 10
-598.080018
 20
169.951240
 11
-598.080018
 21
131.766311
  0
LINE
  8
2
  6
CENTER
 62
2
 10
-430.080018
 20
170.841471
 11
-430.080018
 21
129.863663
  0
LINE
  8
2
 10
-484.080018
 20
150.641471
 11
-482.490742
 21
141.602464
  0
LINE
  8
2
 10
-544.080018
 20
150.641471
 11
-545.669294
 21
141.602464
  0
LINE
  8
2
 10
-591.080018
 20
157.641471
 11
-605.080018
 21
157.641471
  0
LINE
  8
2
 10
-591.080018
 20
157.641471
 11
-591.080018
 21
141.641471
  0
LINE
  8
2
 10
-605.080018
 20
157.641471
 11
-605.080018
 21
146.641471
  0
ARC
  8
2
 10
-418.080018
 20
146.641471
 40
5.000000
 50
180.000000
 51
270.000000
  0
ARC
  8
2
 10
-442.080018
 20
141.641471
 40
5.000000
 50
270.000000
 51
360.000000
  0
LINE
  8
2
 10
-437.080018
 20
157.641471
 11
-423.080018
 21
157.641471
  0
LINE
  8
2
 10
-437.080018
 20
157.641471
 11
-437.080018
 21
141.641471
  0
LINE
  8
2
 10
-423.080018
 20
157.641471
 11
-423.080018
 21
146.641471
  0
LINE
  8
2
 10
-475.896252
 20
164.641471
 11
-551.288910
 21
164.641471
  0
LINE
  8
2
 10
-494.080018
 20
164.641471
 11
-494.080018
 21
150.641471
  0
LINE
  8
2
 10
-534.080018
 20
164.641471
 11
-534.080018
 21
150.641471
  0
LINE
  8
2
 10
-379.080018
 20
0.141471
 11
-379.080018
 21
5.641471
  0
LINE
  8
2
 10
-379.080018
 20
133.641471
 11
-379.080018
 21
139.141471
  0
LINE
  8
2
 10
-379.080018
 20
139.141471
 11
-404.080018
 21
139.141471
  0
LINE
  8
2
 10
-649.080018
 20
136.641471
 11
-844.080018
 21
136.641471
  0
LINE
  8
2
 10
-624.080018
 20
133.641471
 11
-624.080018
 21
139.141471
  0
LINE
  8
2
 10
-598.080018
 20
-2.358529
 11
-624.080018
 21
-2.358529
  0
LINE
  8
2
 10
-860.080018
 20
-2.358529
 11
-845.080018
 21
-2.358529
  0
LINE
  8
2
 10
-860.080018
 20
141.641471
 11
-845.080018
 21
141.641471
  0
LINE
  8
2
 10
-624.080018
 20
133.641471
 11
-844.080018
 21
133.641471
  0
LINE
  8
2
 10
-624.080018
 20
119.641471
 11
-844.080018
 21
119.641471
  0
LINE
  8
2
 10
-624.080018
 20
5.641471
 11
-844.080018
 21
5.641471
  0
LINE
  8
2
 10
-624.080018
 20
19.641471
 11
-844.080018
 21
19.641471
  0
LINE
  8
2
 10
-475.896252
 20
167.841471
 11
-551.288910
 21
167.841471
  0
LINE
  8
2
 10
-414.080018
 20
-19.358529
 11
-614.080018
 21
-19.358529
  0
LINE
  8
2
 10
-624.080018
 20
139.141471
 11
-649.080018
 21
139.141471
  0
LINE
  8
2
 10
-649.080018
 20
139.141471
 11
-649.080018
 21
136.641471
  0
LINE
  8
2
 10
-649.080018
 20
139.141471
 11
-649.080018
 21
133.641471
  0
LINE
  8
2
 10
-649.080018
 20
5.641471
 11
-649.080018
 21
0.141471
  0
LINE
  8
2
 10
-844.080018
 20
2.641471
 11
-649.080018
 21
2.641471
  0
LINE
  8
2
  6
CENTER
 62
2
 10
-861.080018
 20
44.846222
 11
-861.080018
 21
74.609512
  0
ARC
  8
2
 10
-598.080018
 20
139.641471
 40
2.000000
 50
0.000000
 51
90.000000
  0
ARC
  8
2
 10
-590.663819
 20
142.641471
 40
6.000000
 50
202.024313
 51
270.000000
  0
ARC
  8
2
 10
-430.080018
 20
139.641471
 40
2.000000
 50
90.000000
 51
180.000000
  0
ARC
  8
2
 10
-437.496216
 20
142.641471
 40
6.000000
 50
270.000000
 51
337.975687
  0
LINE
  8
2
 10
-379.080018
 20
0.141471
 11
-404.080018
 21
0.141471
  0
LINE
  8
2
 10
-624.080018
 20
0.141471
 11
-649.080018
 21
0.141471
  0
LINE
  8
2
 10
-844.080018
 20
139.141471
 11
-845.080018
 21
139.141471
  0
LINE
  8
2
 10
-844.080018
 20
0.141471
 11
-845.080018
 21
0.141471
  0
LINE
  8
2
 10
-860.080018
 20
137.641471
 11
-871.080018
 21
137.641471
  0
ARC
  8
2
 10
-858.537083
 20
132.141471
 40
12.542935
 50
153.992176
 51
206.007824
  0
LINE
  8
2
 10
-860.080018
 20
115.641471
 11
-871.080018
 21
115.641471
  0
LINE
  8
2
 10
-871.080018
 20
115.641471
 11
-871.080018
 21
137.641471
  0
LINE
  8
2
 10
-860.080018
 20
126.641471
 11
-869.809847
 21
126.641471
  0
ARC
  8
2
 10
-858.537083
 20
121.141471
 40
12.542935
 50
153.992176
 51
206.007824
  0
LINE
  8
2
 10
-860.080018
 20
23.641471
 11
-871.080018
 21
23.641471
  0
ARC
  8
2
 10
-858.537083
 20
18.141471
 40
12.542935
 50
153.992176
 51
206.007824
  0
LINE
  8
2
 10
-860.080018
 20
1.641471
 11
-871.080018
 21
1.641471
  0
LINE
  8
2
 10
-871.080018
 20
1.641471
 11
-871.080018
 21
23.641471
  0
LINE
  8
2
 10
-860.080018
 20
12.641471
 11
-869.809847
 21
12.641471
  0
ARC
  8
2
 10
-858.537083
 20
7.141471
 40
12.542935
 50
153.992176
 51
206.007824
  0
LINE
  8
2
  6
CENTER
 62
2
 10
-612.880018
 20
126.641471
 11
-900.880855
 21
126.641471
  0
LINE
  8
2
  6
CENTER
 62
2
 10
-612.880018
 20
12.641471
 11
-902.145579
 21
12.641471
  0
LINE
  8
2
 10
-871.080018
 20
133.641471
 11
-886.268018
 21
133.641471
  0
LINE
  8
2
 10
-871.080018
 20
119.641471
 11
-886.268018
 21
119.641471
  0
LINE
  8
2
 10
-887.080018
 20
132.829471
 11
-887.080018
 21
120.453471
  0
LINE
  8
2
 62
2
 10
-871.080018
 20
132.829471
 11
-887.080018
 21
132.829471
  0
LINE
  8
2
 62
2
 10
-871.080018
 20
120.453471
 11
-887.080018
 21
120.453471
  0
LINE
  8
2
 10
-887.080018
 20
132.829471
 11
-886.268018
 21
133.641471
  0
LINE
  8
2
 10
-887.080018
 20
120.453471
 11
-886.268018
 21
119.641471
  0
LINE
  8
2
 10
-886.268018
 20
133.641471
 11
-886.268018
 21
119.641471
  0
LINE
  8
2
 10
-871.080018
 20
19.641471
 11
-886.268018
 21
19.641471
  0
LINE
  8
2
 10
-871.080018
 20
5.641471
 11
-886.268018
 21
5.641471
  0
LINE
  8
2
 10
-887.080018
 20
18.829471
 11
-887.080018
 21
6.453471
  0
LINE
  8
2
 62
2
 10
-871.080018
 20
18.829471
 11
-887.080018
 21
18.829471
  0
LINE
  8
2
 62
2
 10
-871.080018
 20
6.453471
 11
-887.080018
 21
6.453471
  0
LINE
  8
2
 10
-887.080018
 20
18.829471
 11
-886.268018
 21
19.641471
  0
LINE
  8
2
 10
-887.080018
 20
6.453471
 11
-886.268018
 21
5.641471
  0
LINE
  8
2
 10
-886.268018
 20
19.641471
 11
-886.268018
 21
5.641471
  0
LINE
  8
2
 10
-868.080018
 20
86.941471
 11
-882.463437
 21
86.941471
  0
LINE
  8
2
 10
-882.463437
 20
86.941471
 11
-884.080018
 21
84.141471
  0
LINE
  8
2
 10
-884.080018
 20
84.141471
 11
-884.080018
 21
55.141471
  0
LINE
  8
2
 10
-868.080018
 20
78.291471
 11
-882.463437
 21
78.291471
  0
ARC
  8
2
 10
-876.903503
 20
82.616471
 40
7.044040
 50
142.121121
 51
217.878879
  0
LINE
  8
2
 10
-877.533285
 20
52.341471
 11
-882.463437
 21
52.341471
  0
LINE
  8
2
 10
-882.463437
 20
52.341471
 11
-884.080018
 21
55.141471
  0
LINE
  8
2
 10
-879.029322
 20
60.991471
 11
-882.463437
 21
60.991471
  0
ARC
  8
2
 10
-876.903503
 20
56.666471
 40
7.044040
 50
142.121121
 51
217.878879
  0
ARC
  8
2
 10
-857.997543
 20
69.641471
 40
25.950000
 50
160.528782
 51
199.471218
  0
LINE
  8
2
 10
-894.580018
 20
60.994471
 11
-894.580018
 21
78.288471
  0
LINE
  8
2
 10
-884.080018
 20
79.641471
 11
-893.227018
 21
79.641471
  0
LINE
  8
2
 10
-884.080018
 20
59.641471
 11
-893.227018
 21
59.641471
  0
LINE
  8
2
 62
2
 10
-884.080018
 20
60.994471
 11
-894.580018
 21
60.994471
  0
LINE
  8
2
 62
2
 10
-884.080018
 20
78.288471
 11
-894.580018
 21
78.288471
  0
LINE
  8
2
 10
-894.580018
 20
78.288471
 11
-893.227018
 21
79.641471
  0
LINE
  8
2
 10
-894.580018
 20
60.994471
 11
-893.227018
 21
59.641471
  0
LINE
  8
2
 10
-893.227018
 20
79.641471
 11
-893.227018
 21
59.641471
  0
LINE
  8
2
 10
-860.080018
 20
-2.358529
 11
-860.080018
 21
34.601503
  0
LINE
  8
2
 10
-860.080018
 20
84.681439
 11
-860.080018
 21
141.641471
  0
LINE
  8
2
 10
-864.080018
 20
77.753236
 11
-864.080018
 21
89.641471
  0
LINE
  8
2
 10
-868.080018
 20
76.224595
 11
-868.080018
 21
88.641471
  0
ARC
  8
2
 10
-868.080018
 20
34.601503
 40
8.000000
 50
0.000000
 51
74.381502
  0
ARC
  8
2
 10
-861.080018
 20
59.641471
 40
18.000000
 50
105.618498
 51
254.381502
  0
LINE
  8
2
 10
-379.080018
 20
136.641471
 11
-184.080018
 21
136.641471
  0
LINE
  8
2
 10
-168.080018
 20
-2.358529
 11
-183.080018
 21
-2.358529
  0
LINE
  8
2
 10
-168.080018
 20
141.641471
 11
-183.080018
 21
141.641471
  0
LINE
  8
2
 10
-404.080018
 20
133.641471
 11
-184.080018
 21
133.641471
  0
LINE
  8
2
 10
-404.080018
 20
119.641471
 11
-184.080018
 21
119.641471
  0
LINE
  8
2
 10
-404.080018
 20
5.641471
 11
-184.080018
 21
5.641471
  0
LINE
  8
2
 10
-404.080018
 20
19.641471
 11
-184.080018
 21
19.641471
  0
LINE
  8
2
 10
-184.080018
 20
2.641471
 11
-379.080018
 21
2.641471
  0
LINE
  8
2
 10
-184.080018
 20
139.141471
 11
-183.080018
 21
139.141471
  0
LINE
  8
2
 10
-184.080018
 20
0.141471
 11
-183.080018
 21
0.141471
  0
LINE
  8
2
 10
-168.080018
 20
137.641471
 11
-157.080018
 21
137.641471
  0
ARC
  8
2
 10
-169.622953
 20
132.141471
 40
12.542935
 50
333.992176
 51
26.007824
  0
LINE
  8
2
 10
-168.080018
 20
115.641471
 11
-157.080018
 21
115.641471
  0
LINE
  8
2
 10
-157.080018
 20
115.641471
 11
-157.080018
 21
137.641471
  0
LINE
  8
2
 10
-168.080018
 20
126.641471
 11
-158.350189
 21
126.641471
  0
ARC
  8
2
 10
-169.622953
 20
121.141471
 40
12.542935
 50
333.992176
 51
26.007824
  0
LINE
  8
2
 10
-168.080018
 20
23.641471
 11
-157.080018
 21
23.641471
  0
ARC
  8
2
 10
-169.622953
 20
18.141471
 40
12.542935
 50
333.992176
 51
26.007824
  0
LINE
  8
2
 10
-168.080018
 20
1.641471
 11
-157.080018
 21
1.641471
  0
LINE
  8
2
 10
-157.080018
 20
1.641471
 11
-157.080018
 21
23.641471
  0
LINE
  8
2
 10
-168.080018
 20
12.641471
 11
-158.350189
 21
12.641471
  0
ARC
  8
2
 10
-169.622953
 20
7.141471
 40
12.542935
 50
333.992176
 51
26.007824
  0
LINE
  8
2
  6
CENTER
 62
2
 10
-127.279181
 20
126.641471
 11
-415.280018
 21
126.641471
  0
LINE
  8
2
  6
CENTER
 62
2
 10
-126.014457
 20
12.641471
 11
-415.280018
 21
12.641471
  0
LINE
  8
2
 10
-157.170033
 20
133.641471
 11
-141.892018
 21
133.641471
  0
LINE
  8
2
 10
-157.170033
 20
119.641471
 11
-141.892018
 21
119.641471
  0
LINE
  8
2
 10
-141.080018
 20
132.829471
 11
-141.080018
 21
120.453471
  0
LINE
  8
2
 62
2
 10
-157.080018
 20
132.829471
 11
-141.080018
 21
132.829471
  0
LINE
  8
2
 62
2
 10
-157.080018
 20
120.453471
 11
-141.080018
 21
120.453471
  0
LINE
  8
2
 10
-141.080018
 20
132.829471
 11
-141.892018
 21
133.641471
  0
LINE
  8
2
 10
-141.080018
 20
120.453471
 11
-141.892018
 21
119.641471
  0
LINE
  8
2
 10
-141.892018
 20
133.641471
 11
-141.892018
 21
119.641471
  0
LINE
  8
2
 10
-157.170033
 20
19.641471
 11
-141.892018
 21
19.641471
  0
LINE
  8
2
 10
-157.170033
 20
5.641471
 11
-141.892018
 21
5.641471
  0
LINE
  8
2
 10
-141.080018
 20
18.829471
 11
-141.080018
 21
6.453471
  0
LINE
  8
2
 62
2
 10
-157.080018
 20
18.829471
 11
-141.080018
 21
18.829471
  0
LINE
  8
2
 62
2
 10
-157.080018
 20
6.453471
 11
-141.080018
 21
6.453471
  0
LINE
  8
2
 10
-141.080018
 20
18.829471
 11
-141.892018
 21
19.641471
  0
LINE
  8
2
 10
-141.080018
 20
6.453471
 11
-141.892018
 21
5.641471
  0
LINE
  8
2
 10
-141.892018
 20
19.641471
 11
-141.892018
 21
5.641471
  0
LINE
  8
2
 10
-165.080018
 20
49.641471
 11
-164.080018
 21
49.641471
  0
ARC
  8
2
 10
-167.080018
 20
69.641471
 40
18.000000
 50
285.618498
 51
16.127620
  0
LINE
  8
2
 10
-168.080018
 20
-2.358529
 11
-168.080018
 21
54.601503
  0
LINE
  8
2
 10
-168.080018
 20
104.681439
 11
-168.080018
 21
141.641471
  0
LINE
  8
2
 10
-164.080018
 20
49.641471
 11
-164.080018
 21
61.529706
  0
ARC
  8
2
 10
-167.080018
 20
79.641471
 40
18.000000
 50
285.618498
 51
74.381502
  0
LINE
  8
2
  6
CENTER
 62
2
 10
-167.080018
 20
63.267700
 11
-167.080018
 21
94.383118
  0
LINE
  8
2
 10
-495.777916
 20
169.441471
 11
-533.880018
 21
169.441471
  0
LINE
  8
2
 10
-551.288910
 20
167.841471
 11
-551.288910
 21
164.641471
  0
LINE
  8
2
 10
-475.896252
 20
167.841471
 11
-475.896252
 21
164.641471
  0
LINE
  8
2
 10
-533.880018
 20
169.441471
 11
-533.880018
 21
167.841471
  0
LINE
  8
2
 10
-495.777916
 20
169.441471
 11
-495.777916
 21
167.841471
  0
LINE
  8
2
 10
-497.080018
 20
214.641471
 11
-531.080018
 21
214.641471
  0
LINE
  8
2
 10
-496.080018
 20
213.641471
 11
-496.080018
 21
169.441471
  0
LINE
  8
2
 10
-532.080018
 20
213.641471
 11
-532.080018
 21
169.441471
  0
LINE
  8
2
 10
-497.080018
 20
214.641471
 11
-496.080018
 21
213.641471
  0
LINE
  8
2
 10
-532.080018
 20
213.641471
 11
-531.080018
 21
214.641471
  0
LINE
  8
2
 10
-532.080018
 20
213.641471
 11
-496.080018
 21
213.641471
  0
LINE
  8
2
 10
-532.075814
 20
213.641471
 11
-532.075814
 21
169.441471
  0
LINE
  8
2
 10
-514.468998
 20
213.641471
 11
-514.468998
 21
169.441471
  0
LINE
  8
2
 10
-513.691038
 20
213.641471
 11
-513.691038
 21
169.441471
  0
LINE
  8
2
 10
-496.084221
 20
213.641471
 11
-496.084221
 21
169.441471
  0
LINE
  8
2
 10
-530.351065
 20
169.441471
 11
-514.468998
 21
213.641471
  0
LINE
  8
2
 10
-516.193747
 20
169.441471
 11
-532.075814
 21
213.641471
  0
LINE
  8
2
 10
-513.691038
 20
213.641471
 11
-497.808971
 21
169.441471
  0
LINE
  8
2
 10
-496.084221
 20
213.641471
 11
-511.966289
 21
169.441471
  0
ARC
  8
2
 10
-598.080018
 20
-0.358529
 40
2.000000
 50
270.000000
 51
360.000000
  0
ARC
  8
2
 10
-430.080018
 20
-0.358529
 40
2.000000
 50
180.000000
 51
270.000000
  0
LINE
  8
2
 10
-437.496216
 20
2.641471
 11
-590.663819
 21
2.641471
  0
ARC
  8
2
 10
-590.663819
 20
-3.358529
 40
6.000000
 50
90.000000
 51
157.975687
  0
ARC
  8
2
 10
-437.496216
 20
-3.358529
 40
6.000000
 50
22.024313
 51
90.000000
  0
ARC
  8
2
 10
-160.080018
 20
54.601503
 40
8.000000
 50
105.618498
 51
180.000000
  0
ARC
  8
2
 10
-165.080018
 20
46.641471
 40
3.000000
 50
90.000000
 51
180.000000
  0
ARC
  8
2
 10
-160.080018
 20
44.601503
 40
8.000000
 50
105.618498
 51
120.000000
  0
ARC
  8
2
 10
-160.080018
 20
44.601503
 40
8.000000
 50
144.727770
 51
180.000000
  0
ARC
  8
2
 10
-160.080018
 20
104.681439
 40
8.000000
 50
180.000000
 51
254.381502
  0
LINE
  8
2
  6
CENTER
 62
2
 10
-636.580018
 20
96.591675
 11
-636.580018
 21
62.679901
  0
ARC
  8
2
 10
-868.080018
 20
84.681439
 40
8.000000
 50
285.618498
 51
360.000000
  0
LINE
  8
2
 10
-864.080018
 20
88.641471
 11
-868.080018
 21
88.641471
  0
LINE
  8
2
 10
-863.080018
 20
89.641471
 11
-864.080018
 21
89.641471
  0
ARC
  8
2
 10
-868.080018
 20
94.681439
 40
8.000000
 50
324.727770
 51
360.000000
  0
ARC
  8
2
 10
-863.080018
 20
92.641471
 40
3.000000
 50
270.000000
 51
360.000000
  0
LINE
  8
2
 10
-864.080018
 20
88.641471
 11
-868.080018
 21
88.641471
  0
LINE
  8
2
  6
CENTER
 62
2
 10
-391.580018
 20
41.968307
 11
-391.580018
 21
77.471603
  0
LINE
  8
2
 10
-866.580018
 20
68.141471
 11
-847.580018
 21
68.141471
  0
LINE
  8
2
 10
-866.580018
 20
51.141471
 11
-847.580018
 21
51.141471
  0
ARC
  8
2
 10
-861.080018
 20
59.641471
 40
8.500000
 50
130.320215
 51
229.679785
  0
LINE
  8
2
 10
-866.580018
 20
51.141471
 11
-866.580018
 21
53.160730
  0
LINE
  8
2
 10
-866.580018
 20
66.122212
 11
-866.580018
 21
68.141471
  0
LINE
  8
2
 10
-847.580018
 20
51.141471
 11
-847.580018
 21
68.141471
  0
LINE
  8
2
 10
-866.580018
 20
66.122212
 11
-852.580018
 21
66.122212
  0
LINE
  8
2
 10
-866.580018
 20
53.160730
 11
-852.580018
 21
53.160730
  0
LINE
  8
2
 10
-852.580018
 20
51.141471
 11
-852.580018
 21
53.160730
  0
LINE
  8
2
 10
-852.580018
 20
66.122212
 11
-852.580018
 21
68.141471
  0
LINE
  8
2
 10
-842.580018
 20
49.141471
 11
-842.580018
 21
70.141471
  0
LINE
  8
2
 10
-842.580018
 20
67.972471
 11
-847.580018
 21
67.972471
  0
LINE
  8
2
 10
-842.580018
 20
51.310471
 11
-847.580018
 21
51.310471
  0
LINE
  8
2
 62
2
 10
-842.580018
 20
67.116471
 11
-846.097382
 21
67.116471
  0
LINE
  8
2
 62
2
 10
-842.580018
 20
52.166471
 11
-846.097382
 21
52.166471
  0
LINE
  8
2
 62
2
 10
-847.580018
 20
67.972471
 11
-846.097382
 21
67.116471
  0
LINE
  8
2
 62
2
 10
-847.580018
 20
51.310471
 11
-846.097382
 21
52.166471
  0
LINE
  8
2
 10
-846.097382
 20
67.972471
 11
-846.097382
 21
51.310471
  0
LINE
  8
2
 10
-826.580018
 20
49.141471
 11
-826.580018
 21
70.141471
  0
LINE
  8
2
 10
-842.580018
 20
70.141471
 11
-826.580018
 21
70.141471
  0
LINE
  8
2
 10
-842.580018
 20
49.141471
 11
-826.580018
 21
49.141471
  0
ARC
  8
2
 10
-836.517518
 20
64.891471
 40
9.937500
 50
328.109208
 51
31.890792
  0
ARC
  8
2
 10
-832.642518
 20
54.391471
 40
9.937500
 50
148.109208
 51
211.890792
  0
ARC
  8
2
 10
-832.642518
 20
64.891471
 40
9.937500
 50
148.109208
 51
211.890792
  0
ARC
  8
2
 10
-836.517518
 20
54.391471
 40
9.937500
 50
328.109208
 51
31.890792
  0
LINE
  8
2
 10
-828.080018
 20
59.641471
 11
-841.080018
 21
59.641471
  0
LINE
  8
2
 10
-161.580018
 20
88.141471
 11
-180.580018
 21
88.141471
  0
LINE
  8
2
 10
-161.580018
 20
71.141471
 11
-180.580018
 21
71.141471
  0
ARC
  8
2
 10
-167.080018
 20
79.641471
 40
8.500000
 50
310.320215
 51
49.679785
  0
LINE
  8
2
 10
-161.580018
 20
71.141471
 11
-161.580018
 21
73.160730
  0
LINE
  8
2
 10
-161.580018
 20
86.122212
 11
-161.580018
 21
88.141471
  0
LINE
  8
2
 10
-180.580018
 20
71.141471
 11
-180.580018
 21
88.141471
  0
LINE
  8
2
 10
-161.580018
 20
86.122212
 11
-175.580018
 21
86.122212
  0
LINE
  8
2
 10
-161.580018
 20
73.160730
 11
-175.580018
 21
73.160730
  0
LINE
  8
2
 10
-175.580018
 20
71.141471
 11
-175.580018
 21
73.160730
  0
LINE
  8
2
 10
-175.580018
 20
86.122212
 11
-175.580018
 21
88.141471
  0
LINE
  8
2
 10
-185.580018
 20
69.141471
 11
-185.580018
 21
90.141471
  0
LINE
  8
2
 10
-185.580018
 20
87.972471
 11
-180.580018
 21
87.972471
  0
LINE
  8
2
 10
-185.580018
 20
71.310471
 11
-180.580018
 21
71.310471
  0
LINE
  8
2
 62
2
 10
-185.580018
 20
87.116471
 11
-182.062653
 21
87.116471
  0
LINE
  8
2
 62
2
 10
-185.580018
 20
72.166471
 11
-182.062653
 21
72.166471
  0
LINE
  8
2
 62
2
 10
-180.580018
 20
87.972471
 11
-182.062653
 21
87.116471
  0
LINE
  8
2
 62
2
 10
-180.580018
 20
71.310471
 11
-182.062653
 21
72.166471
  0
LINE
  8
2
 10
-182.062653
 20
87.972471
 11
-182.062653
 21
71.310471
  0
LINE
  8
2
 10
-201.580018
 20
69.141471
 11
-201.580018
 21
90.141471
  0
LINE
  8
2
 10
-185.580018
 20
90.141471
 11
-201.580018
 21
90.141471
  0
LINE
  8
2
 10
-185.580018
 20
69.141471
 11
-201.580018
 21
69.141471
  0
ARC
  8
2
 10
-191.642518
 20
84.891471
 40
9.937500
 50
148.109208
 51
211.890792
  0
ARC
  8
2
 10
-195.517518
 20
74.391471
 40
9.937500
 50
328.109208
 51
31.890792
  0
ARC
  8
2
 10
-195.517518
 20
84.891471
 40
9.937500
 50
328.109208
 51
31.890792
  0
ARC
  8
2
 10
-191.642518
 20
74.391471
 40
9.937500
 50
148.109208
 51
211.890792
  0
LINE
  8
2
 10
-200.080018
 20
79.641471
 11
-187.080018
 21
79.641471
  0
LINE
  8
2
 10
-386.080018
 20
68.141471
 11
-405.080018
 21
68.141471
  0
LINE
  8
2
 10
-386.080018
 20
51.141471
 11
-405.080018
 21
51.141471
  0
ARC
  8
2
 10
-391.580018
 20
59.641471
 40
8.500000
 50
310.320215
 51
49.679785
  0
LINE
  8
2
 10
-386.080018
 20
51.141471
 11
-386.080018
 21
53.160730
  0
LINE
  8
2
 10
-386.080018
 20
66.122212
 11
-386.080018
 21
68.141471
  0
LINE
  8
2
 10
-405.080018
 20
51.141471
 11
-405.080018
 21
68.141471
  0
LINE
  8
2
 10
-386.080018
 20
66.122212
 11
-400.080018
 21
66.122212
  0
LINE
  8
2
 10
-386.080018
 20
53.160730
 11
-400.080018
 21
53.160730
  0
LINE
  8
2
 10
-400.080018
 20
51.141471
 11
-400.080018
 21
53.160730
  0
LINE
  8
2
 10
-400.080018
 20
66.122212
 11
-400.080018
 21
68.141471
  0
LINE
  8
2
 10
-410.080018
 20
49.141471
 11
-410.080018
 21
70.141471
  0
LINE
  8
2
 10
-410.080018
 20
67.972471
 11
-405.080018
 21
67.972471
  0
LINE
  8
2
 10
-410.080018
 20
51.310471
 11
-405.080018
 21
51.310471
  0
LINE
  8
2
 62
2
 10
-410.080018
 20
67.116471
 11
-406.562653
 21
67.116471
  0
LINE
  8
2
 62
2
 10
-410.080018
 20
52.166471
 11
-406.562653
 21
52.166471
  0
LINE
  8
2
 62
2
 10
-405.080018
 20
67.972471
 11
-406.562653
 21
67.116471
  0
LINE
  8
2
 62
2
 10
-405.080018
 20
51.310471
 11
-406.562653
 21
52.166471
  0
LINE
  8
2
 10
-406.562653
 20
67.972471
 11
-406.562653
 21
51.310471
  0
LINE
  8
2
 10
-426.080018
 20
49.141471
 11
-426.080018
 21
70.141471
  0
LINE
  8
2
 10
-410.080018
 20
70.141471
 11
-426.080018
 21
70.141471
  0
LINE
  8
2
 10
-410.080018
 20
49.141471
 11
-426.080018
 21
49.141471
  0
ARC
  8
2
 10
-416.142518
 20
64.891471
 40
9.937500
 50
148.109208
 51
211.890792
  0
ARC
  8
2
 10
-420.017518
 20
54.391471
 40
9.937500
 50
328.109208
 51
31.890792
  0
ARC
  8
2
 10
-420.017518
 20
64.891471
 40
9.937500
 50
328.109208
 51
31.890792
  0
ARC
  8
2
 10
-416.142518
 20
54.391471
 40
9.937500
 50
148.109208
 51
211.890792
  0
LINE
  8
2
 10
-424.580018
 20
59.641471
 11
-411.580018
 21
59.641471
  0
LINE
  8
2
 10
-183.080018
 20
-2.358529
 11
-183.080018
 21
71.310471
  0
LINE
  8
2
 10
-183.080018
 20
87.972471
 11
-183.080018
 21
141.641471
  0
LINE
  8
2
 10
-184.080018
 20
0.141471
 11
-184.080018
 21
71.310471
  0
LINE
  8
2
 10
-184.080018
 20
87.972471
 11
-184.080018
 21
139.141471
  0
LINE
  8
2
  6
CENTER
 62
2
 10
-151.797004
 20
79.641471
 11
-655.650946
 21
79.641471
  0
LINE
  8
2
 10
-404.080018
 20
-2.358529
 11
-404.080018
 21
51.141471
  0
ARC
  8
2
 10
-391.580018
 20
59.641471
 40
11.500000
 50
227.657395
 51
132.342605
  0
LINE
  8
2
  6
CENTER
 62
2
 10
-372.844565
 20
59.641471
 11
-874.465094
 21
59.641471
  0
LINE
  8
2
 10
-642.080018
 20
88.141471
 11
-623.080018
 21
88.141471
  0
LINE
  8
2
 10
-642.080018
 20
71.141471
 11
-623.080018
 21
71.141471
  0
ARC
  8
2
 10
-636.580018
 20
79.641471
 40
8.500000
 50
130.320215
 51
229.679785
  0
LINE
  8
2
 10
-642.080018
 20
71.141471
 11
-642.080018
 21
73.160730
  0
LINE
  8
2
 10
-642.080018
 20
86.122212
 11
-642.080018
 21
88.141471
  0
LINE
  8
2
 10
-623.080018
 20
71.141471
 11
-623.080018
 21
88.141471
  0
LINE
  8
2
 10
-642.080018
 20
86.122212
 11
-628.080018
 21
86.122212
  0
LINE
  8
2
 10
-642.080018
 20
73.160730
 11
-628.080018
 21
73.160730
  0
LINE
  8
2
 10
-628.080018
 20
71.141471
 11
-628.080018
 21
73.160730
  0
LINE
  8
2
 10
-628.080018
 20
86.122212
 11
-628.080018
 21
88.141471
  0
LINE
  8
2
 10
-618.080018
 20
69.141471
 11
-618.080018
 21
90.141471
  0
LINE
  8
2
 10
-618.080018
 20
87.972471
 11
-623.080018
 21
87.972471
  0
LINE
  8
2
 10
-618.080018
 20
71.310471
 11
-623.080018
 21
71.310471
  0
LINE
  8
2
 62
2
 10
-618.080018
 20
87.116471
 11
-621.597382
 21
87.116471
  0
LINE
  8
2
 62
2
 10
-618.080018
 20
72.166471
 11
-621.597382
 21
72.166471
  0
LINE
  8
2
 62
2
 10
-623.080018
 20
87.972471
 11
-621.597382
 21
87.116471
  0
LINE
  8
2
 62
2
 10
-623.080018
 20
71.310471
 11
-621.597382
 21
72.166471
  0
LINE
  8
2
 10
-621.597382
 20
87.972471
 11
-621.597382
 21
71.310471
  0
LINE
  8
2
 10
-602.080018
 20
69.141471
 11
-602.080018
 21
90.141471
  0
LINE
  8
2
 10
-618.080018
 20
90.141471
 11
-602.080018
 21
90.141471
  0
LINE
  8
2
 10
-618.080018
 20
69.141471
 11
-602.080018
 21
69.141471
  0
ARC
  8
2
 10
-612.017518
 20
84.891471
 40
9.937500
 50
328.109208
 51
31.890792
  0
ARC
  8
2
 10
-608.142518
 20
74.391471
 40
9.937500
 50
148.109208
 51
211.890792
  0
ARC
  8
2
 10
-608.142518
 20
84.891471
 40
9.937500
 50
148.109208
 51
211.890792
  0
ARC
  8
2
 10
-612.017518
 20
74.391471
 40
9.937500
 50
328.109208
 51
31.890792
  0
LINE
  8
2
 10
-603.580018
 20
79.641471
 11
-616.580018
 21
79.641471
  0
LINE
  8
2
 10
-845.080018
 20
-2.358529
 11
-845.080018
 21
51.310471
  0
LINE
  8
2
 10
-845.080018
 20
67.972471
 11
-845.080018
 21
141.641471
  0
LINE
  8
2
 10
-844.080018
 20
0.141471
 11
-844.080018
 21
51.310471
  0
LINE
  8
2
 10
-844.080018
 20
67.972471
 11
-844.080018
 21
139.141471
  0
LINE
  8
2
 10
-624.080018
 20
88.141471
 11
-624.080018
 21
141.641471
  0
ARC
  8
2
 10
-636.580018
 20
79.641471
 40
11.500000
 50
47.657395
 51
312.342605
  0
LINE
  8
2
 10
-602.080018
 20
84.641471
 11
-201.580018
 21
84.641471
  0
LINE
  8
2
 10
-602.080018
 20
74.641471
 11
-201.580018
 21
74.641471
  0
LINE
  8
2
 10
-826.580018
 20
64.641471
 11
-426.080018
 21
64.641471
  0
LINE
  8
2
 10
-826.580018
 20
54.641471
 11
-426.080018
 21
54.641471
  0
LINE
  8
2
 10
-596.080018
 20
84.641471
 11
-596.080018
 21
139.641471
  0
LINE
  8
2
 10
-596.080018
 20
-0.358529
 11
-596.080018
 21
54.641471
  0
LINE
  8
2
 10
-596.080018
 20
64.641471
 11
-596.080018
 21
74.641471
  0
LINE
  8
2
 10
-624.080018
 20
-2.358529
 11
-624.080018
 21
54.641471
  0
LINE
  8
2
 10
-624.080018
 20
64.641471
 11
-624.080018
 21
71.141471
  0
LINE
  8
2
 10
-649.080018
 20
19.641471
 11
-649.080018
 21
54.641471
  0
LINE
  8
2
 10
-649.080018
 20
64.641471
 11
-649.080018
 21
118.141471
  0
LINE
  8
2
 10
-379.080018
 20
19.641471
 11
-379.080018
 21
74.641471
  0
LINE
  8
2
 10
-379.080018
 20
84.641471
 11
-379.080018
 21
119.641471
  0
LINE
  8
2
 10
-404.080018
 20
68.141471
 11
-404.080018
 21
74.641471
  0
LINE
  8
2
 10
-404.080018
 20
84.641471
 11
-404.080018
 21
141.641471
  0
LINE
  8
2
 10
-432.080018
 20
84.641471
 11
-432.080018
 21
139.641471
  0
LINE
  8
2
 10
-432.080018
 20
-0.358529
 11
-432.080018
 21
54.641471
  0
LINE
  8
2
 10
-432.080018
 20
64.641471
 11
-432.080018
 21
74.641471
  0
LINE
  8
2
 10
-487.080018
 20
167.841471
 11
-487.080018
 21
164.641471
  0
LINE
  8
2
 10
-495.880018
 20
169.441471
 11
-495.880018
 21
167.841471
  0
LINE
  8
2
 10
-414.080018
 20
-19.358529
 11
-414.080018
 21
-8.358529
  0
LINE
  8
2
 10
-614.080018
 20
-19.358529
 11
-614.080018
 21
-8.358529
  0
ARC
  8
2
 10
-408.080018
 20
-8.358529
 40
6.000000
 50
90.000000
 51
180.000000
  0
ARC
  8
2
 10
-620.080018
 20
-8.358529
 40
6.000000
 50
360.000000
 51
90.000000
  0
ARC
  8
2
 10
-476.581388
 20
142.641471
 40
6.000000
 50
189.972058
 51
270.000000
  0
ARC
  8
2
 10
-551.578648
 20
142.641471
 40
6.000000
 50
270.000000
 51
350.027942
  0
LINE
  8
2
 10
-161.080018
 20
102.641471
 11
-167.815555
 21
102.641471
  0
LINE
  8
2
 10
-161.080018
 20
102.641471
 11
-161.080018
 21
99.641471
  0
ARC
  8
2
 10
-164.080018
 20
95.862900
 40
6.778571
 50
63.731955
 51
116.268045
  0
ARC
  8
2
 10
-164.080018
 20
106.420043
 40
6.778571
 50
247.449461
 51
296.268045
  0
LINE
  8
2
 10
-167.080018
 20
101.941471
 11
-167.080018
 21
100.808456
  0
LINE
  8
2
 10
-163.680018
 20
103.041471
 11
-163.680018
 21
102.641471
  0
LINE
  8
2
 10
-154.080018
 20
51.641471
 11
-163.879867
 21
51.641471
  0
LINE
  8
2
 10
-154.080018
 20
57.191572
 11
-154.080018
 21
50.662447
  0
LINE
  8
2
 10
-155.080018
 20
56.225063
 11
-155.080018
 21
51.641471
  0
LINE
  8
2
 10
-161.080018
 20
99.641471
 11
-166.292805
 21
99.641471
  0
LINE
  8
2
 10
-161.080018
 20
99.641471
 11
-160.424923
 21
96.365995
  0
LINE
  8
2
 10
-162.080018
 20
109.541471
 11
-162.080018
 21
103.041471
  0
LINE
  8
2
 10
-162.080018
 20
103.041471
 11
-167.910120
 21
103.041471
  0
LINE
  8
2
 10
-162.080018
 20
109.541471
 11
-162.580018
 21
110.041471
  0
LINE
  8
2
 10
-162.580018
 20
110.041471
 11
-168.080018
 21
110.041471
  0
LINE
  8
2
 10
-168.080018
 20
109.541471
 11
-162.080018
 21
109.541471
  0
LINE
  8
2
 10
-161.080018
 20
50.662447
 11
-161.080018
 21
51.641471
  0
ARC
  8
2
 10
-157.580018
 20
58.041471
 40
9.000000
 50
253.398450
 51
286.601550
  0
ARC
  8
2
 10
-159.780018
 20
50.662447
 40
1.300000
 50
180.000000
 51
253.398450
  0
ARC
  8
2
 10
-155.380018
 20
50.662447
 40
1.300000
 50
286.601550
 51
360.000000
  0
LINE
  8
2
 10
-860.080018
 20
102.641471
 11
-867.080018
 21
102.641471
  0
LINE
  8
2
 10
-867.080018
 20
102.641471
 11
-867.080018
 21
99.641471
  0
ARC
  8
2
 10
-864.080018
 20
106.420043
 40
6.778571
 50
243.731955
 51
296.268045
  0
ARC
  8
2
 10
-864.080018
 20
95.862900
 40
6.778571
 50
63.731955
 51
116.268045
  0
ARC
  8
2
 10
-858.080018
 20
95.862900
 40
6.778571
 50
107.160381
 51
116.268045
  0
ARC
  8
2
 10
-858.080018
 20
106.420043
 40
6.778571
 50
243.731955
 51
252.839619
  0
LINE
  8
2
 10
-861.080018
 20
101.941471
 11
-861.080018
 21
100.341471
  0
LINE
  8
2
 10
-864.480018
 20
103.041471
 11
-864.480018
 21
102.641471
  0
LINE
  8
2
 10
-860.080018
 20
99.641471
 11
-867.080018
 21
99.641471
  0
LINE
  8
2
 10
-867.080018
 20
99.641471
 11
-869.080018
 21
89.641471
  0
LINE
  8
2
 10
-866.080018
 20
109.541471
 11
-866.080018
 21
103.041471
  0
LINE
  8
2
 10
-860.080018
 20
103.041471
 11
-866.080018
 21
103.041471
  0
LINE
  8
2
 10
-866.080018
 20
109.541471
 11
-865.580018
 21
110.041471
  0
LINE
  8
2
 10
-860.080018
 20
110.041471
 11
-865.580018
 21
110.041471
  0
LINE
  8
2
 10
-866.080018
 20
109.541471
 11
-860.080018
 21
109.541471
  0
LINE
  8
2
  6
CENTER
 62
2
 10
-574.184094
 20
-6.316742
 11
-574.184094
 21
-51.808296
  0
LINE
  8
2
  6
CENTER
 62
2
 10
-453.975942
 20
-4.897171
 11
-453.975942
 21
-51.808296
  0
ARC
  8
2
 10
-170.080018
 20
95.862900
 40
6.778571
 50
63.731955
 51
69.328230
  0
LINE
  8
2
 10
-869.080018
 20
89.641471
 11
-869.080018
 21
86.941471
  0
LINE
  8
2
 10
-869.080018
 20
89.641471
 11
-864.080018
 21
89.641471
  0
LINE
  8
2
 10
267.961424
 20
167.841471
 11
267.961424
 21
164.641471
  0
LINE
  8
2
 10
258.393539
 20
169.441471
 11
258.393539
 21
167.841471
  0
LINE
  8
2
 10
259.807682
 20
169.441471
 11
259.807682
 21
167.841471
  0
LINE
  8
2
  6
CENTER
 62
2
 10
60.494665
 20
69.641471
 11
337.650213
 21
69.641471
  0
LINE
  8
2
  6
CENTER
 62
2
 10
181.919793
 20
180.141471
 11
181.919793
 21
-13.158529
  0
LINE
  8
2
 10
124.919793
 20
141.641471
 11
238.919793
 21
141.641471
  0
ARC
  8
2
 10
187.919793
 20
146.641471
 40
5.000000
 50
180.000000
 51
270.000000
  0
ARC
  8
2
 10
163.919793
 20
146.641471
 40
5.000000
 50
270.000000
 51
360.000000
  0
ARC
  8
2
 10
124.919793
 20
126.641471
 40
15.000000
 50
90.000000
 51
180.000000
  0
LINE
  8
2
 10
253.919793
 20
126.641471
 11
253.919793
 21
11.641471
  0
ARC
  8
2
 10
238.919793
 20
12.641471
 40
15.000000
 50
270.000000
 51
360.000000
  0
ARC
  8
2
 10
238.919793
 20
126.641471
 40
15.000000
 50
0.000000
 51
90.000000
  0
LINE
  8
2
 10
238.919793
 20
-2.358529
 11
124.919793
 21
-2.358529
  0
ARC
  8
2
 10
124.919793
 20
12.641471
 40
15.000000
 50
180.000000
 51
270.000000
  0
LINE
  8
2
 10
109.919793
 20
12.641471
 11
109.919793
 21
126.641471
  0
LINE
  8
2
 10
206.710901
 20
164.641471
 11
282.103560
 21
164.641471
  0
LINE
  8
2
 10
223.919793
 20
164.641471
 11
223.919793
 21
150.641471
  0
LINE
  8
2
 10
263.919793
 20
164.641471
 11
263.919793
 21
150.641471
  0
LINE
  8
2
 10
288.919793
 20
106.641471
 11
288.919793
 21
120.641471
  0
LINE
  8
2
 10
218.919793
 20
150.641471
 11
273.919793
 21
150.641471
  0
LINE
  8
2
 10
250.119793
 20
136.641471
 11
272.919793
 21
136.641471
  0
LINE
  8
2
 10
341.919793
 20
5.641471
 11
259.919793
 21
5.641471
  0
LINE
  8
2
  6
CENTER
 62
2
 10
211.919793
 20
164.641471
 11
211.919793
 21
130.341471
  0
LINE
  8
2
  6
CENTER
 62
2
 10
175.919793
 20
130.341471
 11
175.919793
 21
166.741471
  0
LINE
  8
2
 10
168.919793
 20
157.641471
 11
182.919793
 21
157.641471
  0
LINE
  8
2
 10
168.919793
 20
157.641471
 11
168.919793
 21
146.641471
  0
LINE
  8
2
 10
182.919793
 20
157.641471
 11
182.919793
 21
146.641471
  0
ARC
  8
2
 10
223.919793
 20
146.641471
 40
5.000000
 50
180.000000
 51
270.000000
  0
ARC
  8
2
 10
199.919793
 20
146.641471
 40
5.000000
 50
270.000000
 51
360.000000
  0
LINE
  8
2
 10
204.919793
 20
157.641471
 11
218.919793
 21
157.641471
  0
LINE
  8
2
 10
204.919793
 20
157.641471
 11
204.919793
 21
146.641471
  0
LINE
  8
2
 10
218.919793
 20
157.641471
 11
218.919793
 21
146.641471
  0
LINE
  8
2
 10
343.919793
 20
3.641471
 11
343.919793
 21
-19.358529
  0
LINE
  8
2
 10
143.919793
 20
-19.358529
 11
143.919793
 21
-2.358529
  0
LINE
  8
2
  6
CENTER
 62
2
 10
109.919793
 20
126.641471
 11
142.019793
 21
126.641471
  0
LINE
  8
2
  6
CENTER
 62
2
 10
222.819793
 20
126.641471
 11
259.019793
 21
126.641471
  0
LINE
  8
2
  6
CENTER
 62
2
 10
109.719793
 20
12.641471
 11
141.519793
 21
12.641471
  0
LINE
  8
2
  6
CENTER
 62
2
 10
219.819793
 20
12.641471
 11
259.019793
 21
12.641471
  0
LINE
  8
2
  6
CENTER
 62
2
 10
124.919793
 20
142.141471
 11
124.919793
 21
108.441471
  0
LINE
  8
2
  6
CENTER
 62
2
 10
124.919793
 20
29.441471
 11
124.919793
 21
-1.458529
  0
LINE
  8
2
  6
CENTER
 62
2
 10
238.919793
 20
139.341471
 11
238.919793
 21
109.541471
  0
LINE
  8
2
  6
CENTER
 62
2
 10
238.919793
 20
31.141471
 11
238.919793
 21
-2.358529
  0
CIRCLE
  8
2
 10
124.919793
 20
126.641471
 40
10.500000
  0
CIRCLE
  8
2
 10
124.919793
 20
126.641471
 40
7.000000
  0
CIRCLE
  8
2
 62
2
 10
124.919793
 20
126.641471
 40
6.000000
  0
CIRCLE
  8
2
 10
124.919793
 20
12.641471
 40
10.500000
  0
CIRCLE
  8
2
 10
124.919793
 20
12.641471
 40
7.000000
  0
CIRCLE
  8
2
 62
2
 10
124.919793
 20
12.641471
 40
6.000000
  0
CIRCLE
  8
2
 10
238.919793
 20
12.641471
 40
10.500000
  0
CIRCLE
  8
2
 10
238.919793
 20
12.641471
 40
7.000000
  0
CIRCLE
  8
2
 62
2
 10
238.919793
 20
12.641471
 40
6.000000
  0
CIRCLE
  8
2
 10
238.919793
 20
126.641471
 40
10.500000
  0
CIRCLE
  8
2
 10
238.919793
 20
126.641471
 40
7.000000
  0
CIRCLE
  8
2
 62
2
 10
238.919793
 20
126.641471
 40
6.000000
  0
CIRCLE
  8
2
 10
181.919793
 20
69.641471
 40
20.000000
  0
LINE
  8
2
 10
253.919793
 20
87.641471
 11
239.162434
 21
87.641471
  0
LINE
  8
2
 10
237.919793
 20
86.762791
 11
237.919793
 21
52.520151
  0
LINE
  8
2
 10
239.162434
 20
51.641471
 11
253.919793
 21
51.641471
  0
LINE
  8
2
 10
222.041114
 20
71.762791
 11
237.041114
 21
86.762791
  0
LINE
  8
2
 10
222.041114
 20
67.520151
 11
237.041114
 21
52.520151
  0
LINE
  8
2
 10
109.919793
 20
97.641471
 11
124.677153
 21
97.641471
  0
LINE
  8
2
 10
125.919793
 20
96.762791
 11
125.919793
 21
62.520151
  0
LINE
  8
2
 10
124.677153
 20
61.641471
 11
109.919793
 21
61.641471
  0
LINE
  8
2
 10
141.798473
 20
81.762791
 11
126.798473
 21
96.762791
  0
LINE
  8
2
 10
141.798473
 20
77.520151
 11
126.798473
 21
62.520151
  0
LINE
  8
2
  6
CENTER
 62
2
 10
70.743566
 20
59.641471
 11
116.719793
 21
59.641471
  0
LINE
  8
2
 10
282.103560
 20
167.841471
 11
206.710901
 21
167.841471
  0
LINE
  8
2
 10
143.919793
 20
-19.358529
 11
343.919793
 21
-19.358529
  0
LINE
  8
2
  6
CENTER
 62
2
 10
153.319982
 20
79.641471
 11
71.392675
 21
79.641471
  0
LINE
  8
2
  6
CENTER
 62
2
 10
89.044149
 20
41.712516
 11
89.044149
 21
96.557770
  0
LINE
  8
2
 10
82.981971
 20
90.141471
 11
95.106327
 21
90.141471
  0
LINE
  8
2
 10
82.981971
 20
69.141471
 11
95.106327
 21
69.141471
  0
LINE
  8
2
 10
82.981971
 20
90.141471
 11
76.919793
 21
79.641471
  0
LINE
  8
2
 10
96.261028
 20
71.141471
 11
95.106327
 21
69.141471
  0
LINE
  8
2
 10
76.919793
 20
79.641471
 11
82.981971
 21
69.141471
  0
LINE
  8
2
 10
96.261028
 20
88.141471
 11
95.106327
 21
90.141471
  0
LINE
  8
2
 10
102.544149
 20
71.145862
 11
109.919793
 21
71.376351
  0
LINE
  8
2
 10
104.111627
 20
71.194846
 11
104.111627
 21
88.088096
  0
LINE
  8
2
 62
2
 10
102.544149
 20
71.145862
 11
104.111627
 21
72.050846
  0
LINE
  8
2
 62
2
 10
104.111627
 20
72.050846
 11
109.919793
 21
72.232351
  0
LINE
  8
2
 10
102.544149
 20
88.137080
 11
109.919793
 21
87.906591
  0
LINE
  8
2
 62
2
 10
102.544149
 20
88.137080
 11
104.111627
 21
87.232096
  0
LINE
  8
2
 62
2
 10
104.111627
 20
87.232096
 11
109.919793
 21
87.050591
  0
LINE
  8
2
 10
82.544149
 20
88.141471
 11
102.544149
 21
88.141471
  0
LINE
  8
2
 10
82.544149
 20
71.141471
 11
102.544149
 21
71.141471
  0
LINE
  8
2
 10
102.544149
 20
71.141471
 11
102.544149
 21
88.141471
  0
LINE
  8
2
 10
96.544149
 20
88.141471
 11
96.544149
 21
85.118697
  0
LINE
  8
2
 10
96.544149
 20
74.164246
 11
96.544149
 21
71.141471
  0
ARC
  8
2
 10
89.044149
 20
79.641471
 40
8.500000
 50
139.880833
 51
220.119167
  0
LINE
  8
2
 10
82.544149
 20
71.141471
 11
82.544149
 21
74.164246
  0
LINE
  8
2
 10
82.544149
 20
85.118697
 11
82.544149
 21
88.141471
  0
LINE
  8
2
 10
82.544149
 20
85.118697
 11
96.544149
 21
85.118697
  0
LINE
  8
2
 10
82.544149
 20
74.164246
 11
96.544149
 21
74.164246
  0
ARC
  8
2
 10
89.044149
 20
79.641471
 40
10.500000
 50
54.049432
 51
125.950568
  0
ARC
  8
2
 10
89.044149
 20
79.641471
 40
10.500000
 50
128.246620
 51
231.753380
  0
ARC
  8
2
 10
89.044149
 20
79.641471
 40
10.500000
 50
234.049432
 51
305.950568
  0
LINE
  8
2
 10
259.037271
 20
78.137080
 11
253.919793
 21
77.977159
  0
LINE
  8
2
 62
2
 10
259.037271
 20
78.137080
 11
257.469793
 21
77.232096
  0
LINE
  8
2
 62
2
 10
257.469793
 20
77.232096
 11
253.919793
 21
77.121159
  0
LINE
  8
2
 10
259.037271
 20
61.145862
 11
253.919793
 21
61.305784
  0
LINE
  8
2
 10
257.469793
 20
61.194846
 11
257.469793
 21
78.088096
  0
LINE
  8
2
 62
2
 10
259.037271
 20
61.145862
 11
257.469793
 21
62.050846
  0
LINE
  8
2
 62
2
 10
257.469793
 20
62.050846
 11
253.919793
 21
62.161784
  0
LINE
  8
2
 10
263.802316
 20
78.137080
 11
268.919793
 21
77.977159
  0
LINE
  8
2
 62
2
 10
263.802316
 20
78.137080
 11
265.369793
 21
77.232096
  0
LINE
  8
2
 62
2
 10
265.369793
 20
77.232096
 11
268.919793
 21
77.121159
  0
LINE
  8
2
 10
263.802316
 20
61.145862
 11
268.919793
 21
61.305784
  0
LINE
  8
2
 10
265.369793
 20
61.194846
 11
265.369793
 21
78.088096
  0
LINE
  8
2
 62
2
 10
263.802316
 20
61.145862
 11
265.369793
 21
62.050846
  0
LINE
  8
2
 62
2
 10
265.369793
 20
62.050846
 11
268.919793
 21
62.161784
  0
LINE
  8
2
 10
263.802316
 20
78.137080
 11
259.037271
 21
78.137080
  0
LINE
  8
2
 10
263.802316
 20
61.145862
 11
259.037271
 21
61.145862
  0
LINE
  8
2
  6
CENTER
 62
2
 10
304.023870
 20
-4.897171
 11
304.023870
 21
-51.808296
  0
LINE
  8
2
  6
CENTER
 62
2
 10
183.815717
 20
-6.316742
 11
183.815717
 21
-51.808296
  0
LINE
  8
2
 10
260.919793
 20
214.641471
 11
226.919793
 21
214.641471
  0
LINE
  8
2
 10
261.919793
 20
213.641471
 11
261.919793
 21
169.441471
  0
LINE
  8
2
 10
225.919793
 20
213.641471
 11
225.919793
 21
169.441471
  0
LINE
  8
2
 10
260.919793
 20
214.641471
 11
261.919793
 21
213.641471
  0
LINE
  8
2
 10
225.919793
 20
213.641471
 11
226.919793
 21
214.641471
  0
LINE
  8
2
 10
225.919793
 20
213.641471
 11
261.919793
 21
213.641471
  0
LINE
  8
2
 10
225.923997
 20
213.641471
 11
225.923997
 21
169.441471
  0
LINE
  8
2
 10
243.530814
 20
213.641471
 11
243.530814
 21
169.441471
  0
LINE
  8
2
 10
244.308773
 20
213.641471
 11
244.308773
 21
169.441471
  0
LINE
  8
2
 10
261.915590
 20
213.641471
 11
261.915590
 21
169.441471
  0
LINE
  8
2
 10
227.648746
 20
169.441471
 11
243.530814
 21
213.641471
  0
LINE
  8
2
 10
241.806064
 20
169.441471
 11
225.923997
 21
213.641471
  0
LINE
  8
2
 10
244.308773
 20
213.641471
 11
260.190841
 21
169.441471
  0
LINE
  8
2
 10
261.915590
 20
213.641471
 11
246.033523
 21
169.441471
  0
ARC
  8
2
 10
224.162434
 20
69.641471
 40
3.000000
 50
135.000000
 51
225.000000
  0
ARC
  8
2
 10
139.677153
 20
79.641471
 40
3.000000
 50
315.000000
 51
45.000000
  0
ARC
  8
2
 10
124.677153
 20
64.641471
 40
3.000000
 50
270.000000
 51
315.000000
  0
ARC
  8
2
 10
124.677153
 20
94.641471
 40
3.000000
 50
45.000000
 51
90.000000
  0
ARC
  8
2
 10
239.162434
 20
54.641471
 40
3.000000
 50
225.000000
 51
270.000000
  0
ARC
  8
2
 10
239.162434
 20
84.641471
 40
3.000000
 50
90.000000
 51
135.000000
  0
LINE
  8
2
 10
273.919793
 20
150.641471
 11
275.513743
 21
141.715353
  0
LINE
  8
2
 10
296.919793
 20
51.641471
 11
296.919793
 21
11.641471
  0
ARC
  8
2
 10
302.919793
 20
11.641471
 40
6.000000
 50
180.000000
 51
270.000000
  0
ARC
  8
2
 10
259.919793
 20
11.641471
 40
6.000000
 50
180.000000
 51
270.000000
  0
LINE
  8
2
 10
292.991590
 20
100.641471
 11
284.560810
 21
100.641471
  0
ARC
  8
2
 10
294.919793
 20
106.641471
 40
6.000000
 50
180.000000
 51
251.254372
  0
LINE
  8
2
 10
297.919793
 20
51.641471
 11
297.919793
 21
38.641471
  0
LINE
  8
2
 10
301.119793
 20
51.641471
 11
301.119793
 21
38.641471
  0
LINE
  8
2
 10
296.919793
 20
38.641471
 11
301.119793
 21
38.641471
  0
ARC
  8
2
 10
284.560810
 20
106.641471
 40
6.000000
 50
180.000000
 51
270.000000
  0
LINE
  8
2
 10
302.619793
 20
39.541471
 11
302.619793
 21
51.641471
  0
LINE
  8
2
 10
302.619793
 20
40.641471
 11
306.619793
 21
40.641471
  0
LINE
  8
2
 10
306.619793
 20
40.641471
 11
306.619793
 21
49.135855
  0
ARC
  8
2
 10
300.006586
 20
43.141471
 40
6.613208
 50
337.788205
 51
22.211795
  0
LINE
  8
2
 10
302.619793
 20
50.641471
 11
304.419793
 21
50.641471
  0
LINE
  8
2
 10
302.619793
 20
45.641471
 11
306.129046
 21
45.641471
  0
ARC
  8
2
 10
300.006586
 20
48.141471
 40
6.613208
 50
337.788205
 51
8.749423
  0
LINE
  8
2
 10
301.119793
 20
39.541471
 11
302.619793
 21
39.541471
  0
LINE
  8
2
  6
CENTER
 62
2
 10
313.898443
 20
45.641471
 11
288.183569
 21
45.641471
  0
LINE
  8
2
 10
262.221895
 20
169.441471
 11
224.119793
 21
169.441471
  0
ARC
  8
2
 10
341.919793
 20
3.641471
 40
2.000000
 50
0.000000
 51
90.000000
  0
LINE
  8
2
 10
82.981971
 20
49.141471
 11
95.106327
 21
49.141471
  0
LINE
  8
2
 10
82.693296
 20
69.641471
 11
76.919793
 21
59.641471
  0
LINE
  8
2
 10
96.261028
 20
51.141471
 11
95.106327
 21
49.141471
  0
LINE
  8
2
 10
76.919793
 20
59.641471
 11
82.981971
 21
49.141471
  0
LINE
  8
2
 10
96.261028
 20
68.141471
 11
95.395002
 21
69.641471
  0
LINE
  8
2
 10
102.544149
 20
51.145862
 11
109.919793
 21
51.376351
  0
LINE
  8
2
 10
104.111627
 20
51.194846
 11
104.111627
 21
68.088096
  0
LINE
  8
2
 62
2
 10
102.544149
 20
51.145862
 11
104.111627
 21
52.050846
  0
LINE
  8
2
 62
2
 10
104.111627
 20
52.050846
 11
109.919793
 21
52.232351
  0
LINE
  8
2
 10
102.544149
 20
68.137080
 11
109.919793
 21
67.906591
  0
LINE
  8
2
 62
2
 10
102.544149
 20
68.137080
 11
104.111627
 21
67.232096
  0
LINE
  8
2
 62
2
 10
104.111627
 20
67.232096
 11
109.919793
 21
67.050591
  0
LINE
  8
2
 10
82.544149
 20
68.141471
 11
102.544149
 21
68.141471
  0
LINE
  8
2
 10
82.544149
 20
51.141471
 11
102.544149
 21
51.141471
  0
LINE
  8
2
 10
102.544149
 20
51.141471
 11
102.544149
 21
68.141471
  0
LINE
  8
2
 10
96.544149
 20
68.141471
 11
96.544149
 21
65.118697
  0
LINE
  8
2
 10
96.544149
 20
54.164246
 11
96.544149
 21
51.141471
  0
ARC
  8
2
 10
89.044149
 20
59.641471
 40
8.500000
 50
139.880833
 51
220.119167
  0
LINE
  8
2
 10
82.544149
 20
51.141471
 11
82.544149
 21
54.164246
  0
LINE
  8
2
 10
82.544149
 20
65.118697
 11
82.544149
 21
68.141471
  0
LINE
  8
2
 10
82.544149
 20
65.118697
 11
96.544149
 21
65.118697
  0
LINE
  8
2
 10
82.544149
 20
54.164246
 11
96.544149
 21
54.164246
  0
ARC
  8
2
 10
89.044149
 20
59.641471
 40
10.500000
 50
128.246620
 51
231.753380
  0
ARC
  8
2
 10
89.044149
 20
59.641471
 40
10.500000
 50
234.049432
 51
305.950568
  0
ARC
  8
2
 10
89.044149
 20
59.641471
 40
10.500000
 50
54.049432
 51
64.791235
  0
ARC
  8
2
 10
89.044149
 20
59.641471
 40
10.500000
 50
115.208765
 51
125.950568
  0
LINE
  8
2
 10
206.710901
 20
167.841471
 11
206.710901
 21
164.641471
  0
LINE
  8
2
 10
282.103560
 20
167.841471
 11
282.103560
 21
164.641471
  0
LINE
  8
2
 10
224.119793
 20
169.441471
 11
224.119793
 21
167.841471
  0
LINE
  8
2
 10
262.221895
 20
169.441471
 11
262.221895
 21
167.841471
  0
LINE
  8
2
 10
118.568941
 20
137.641471
 11
131.270646
 21
137.641471
  0
LINE
  8
2
 10
118.568941
 20
115.641471
 11
131.270646
 21
115.641471
  0
LINE
  8
2
 10
131.270646
 20
137.641471
 11
137.621499
 21
126.641471
  0
LINE
  8
2
 10
112.218088
 20
126.641471
 11
118.568941
 21
115.641471
  0
LINE
  8
2
 10
137.621499
 20
126.641471
 11
131.270646
 21
115.641471
  0
LINE
  8
2
 10
118.568941
 20
137.641471
 11
112.218088
 21
126.641471
  0
LINE
  8
2
 10
232.568941
 20
137.641471
 11
245.270646
 21
137.641471
  0
LINE
  8
2
 10
232.568941
 20
115.641471
 11
245.270646
 21
115.641471
  0
LINE
  8
2
 10
245.270646
 20
137.641471
 11
251.621499
 21
126.641471
  0
LINE
  8
2
 10
226.218088
 20
126.641471
 11
232.568941
 21
115.641471
  0
LINE
  8
2
 10
251.621499
 20
126.641471
 11
245.270646
 21
115.641471
  0
LINE
  8
2
 10
232.568941
 20
137.641471
 11
226.218088
 21
126.641471
  0
LINE
  8
2
 10
232.568941
 20
23.641471
 11
245.270646
 21
23.641471
  0
LINE
  8
2
 10
232.568941
 20
1.641471
 11
245.270646
 21
1.641471
  0
LINE
  8
2
 10
245.270646
 20
23.641471
 11
251.621499
 21
12.641471
  0
LINE
  8
2
 10
226.218088
 20
12.641471
 11
232.568941
 21
1.641471
  0
LINE
  8
2
 10
251.621499
 20
12.641471
 11
245.270646
 21
1.641471
  0
LINE
  8
2
 10
232.568941
 20
23.641471
 11
226.218088
 21
12.641471
  0
LINE
  8
2
 10
118.568941
 20
23.641471
 11
131.270646
 21
23.641471
  0
LINE
  8
2
 10
118.568941
 20
1.641471
 11
131.270646
 21
1.641471
  0
LINE
  8
2
 10
131.270646
 20
23.641471
 11
137.621499
 21
12.641471
  0
LINE
  8
2
 10
112.218088
 20
12.641471
 11
118.568941
 21
1.641471
  0
LINE
  8
2
 10
137.621499
 20
12.641471
 11
131.270646
 21
1.641471
  0
LINE
  8
2
 10
118.568941
 20
23.641471
 11
112.218088
 21
12.641471
  0
ARC
  8
2
 10
272.919793
 20
120.641471
 40
16.000000
 50
360.000000
 51
90.000000
  0
ARC
  8
2
 10
285.358019
 20
143.473259
 40
10.000000
 50
190.124672
 51
241.419482
  0
LINE
  8
2
  6
CENTER
 62
2
 10
299.919793
 20
118.368116
 11
299.919793
 21
42.765214
  0
LINE
  8
2
 10
292.991590
 20
101.941471
 11
292.991590
 21
100.341471
  0
LINE
  8
2
 10
303.383895
 20
101.941471
 11
303.383895
 21
100.341471
  0
LINE
  8
2
 10
296.455692
 20
101.941471
 11
296.455692
 21
100.341471
  0
LINE
  8
2
 10
306.847997
 20
101.941471
 11
306.847997
 21
100.341471
  0
LINE
  8
2
 10
305.115946
 20
102.641471
 11
294.723641
 21
102.641471
  0
ARC
  8
2
 10
299.919793
 20
108.562900
 40
8.921429
 50
247.151859
 51
292.848141
  0
ARC
  8
2
 10
299.919793
 20
93.720043
 40
8.921429
 50
67.151859
 51
112.848141
  0
ARC
  8
2
 10
294.723641
 20
102.134328
 40
2.492857
 50
225.988281
 51
314.011719
  0
ARC
  8
2
 10
294.723641
 20
100.148614
 40
2.492857
 50
45.988281
 51
134.011719
  0
ARC
  8
2
 10
305.115946
 20
102.134328
 40
2.492857
 50
225.988281
 51
314.011719
  0
ARC
  8
2
 10
305.115946
 20
100.148614
 40
2.492857
 50
45.988281
 51
134.011719
  0
LINE
  8
2
 10
296.519793
 20
103.041471
 11
296.519793
 21
102.641471
  0
LINE
  8
2
 10
303.319793
 20
103.041471
 11
303.319793
 21
102.641471
  0
LINE
  8
2
 10
324.919793
 20
51.641471
 11
268.919793
 21
51.641471
  0
LINE
  8
2
 10
323.919793
 20
82.641471
 11
269.919793
 21
82.641471
  0
LINE
  8
2
 10
324.919793
 20
81.641471
 11
324.919793
 21
51.641471
  0
LINE
  8
2
 10
268.919793
 20
81.641471
 11
268.919793
 21
51.641471
  0
LINE
  8
2
 10
269.919793
 20
82.641471
 11
269.919793
 21
51.641471
  0
LINE
  8
2
 10
323.919793
 20
82.641471
 11
323.919793
 21
51.641471
  0
LINE
  8
2
 10
323.919793
 20
81.141471
 11
269.919793
 21
81.141471
  0
LINE
  8
2
 10
269.919793
 20
82.641471
 11
268.919793
 21
81.641471
  0
LINE
  8
2
 10
324.919793
 20
81.641471
 11
323.919793
 21
82.641471
  0
LINE
  8
2
 10
269.919793
 20
81.141471
 11
268.919793
 21
81.641471
  0
LINE
  8
2
 10
323.919793
 20
81.141471
 11
324.919793
 21
81.641471
  0
LINE
  8
2
 10
322.419793
 20
53.641471
 11
271.419793
 21
53.641471
  0
LINE
  8
2
 10
271.419793
 20
56.441471
 11
271.419793
 21
51.641471
  0
LINE
  8
2
 10
276.919793
 20
56.441471
 11
276.919793
 21
53.641471
  0
LINE
  8
2
 10
316.919793
 20
56.441471
 11
316.919793
 21
53.641471
  0
LINE
  8
2
 10
322.419793
 20
56.441471
 11
322.419793
 21
51.641471
  0
ARC
  8
2
 10
274.169793
 20
56.441471
 40
2.750000
 50
0.000000
 51
180.000000
  0
ARC
  8
2
 10
319.669793
 20
56.441471
 40
2.750000
 50
0.000000
 51
180.000000
  0
LINE
  8
2
 10
283.419793
 20
53.641471
 11
283.419793
 21
51.641471
  0
LINE
  8
2
 10
310.419793
 20
53.641471
 11
310.419793
 21
51.641471
  0
LINE
  8
2
 10
288.419793
 20
53.641471
 11
288.419793
 21
51.641471
  0
LINE
  8
2
 10
305.419793
 20
53.641471
 11
305.419793
 21
51.641471
  0
LINE
  8
2
 10
289.419793
 20
50.662447
 11
289.419793
 21
51.641471
  0
LINE
  8
2
 10
282.419793
 20
50.662447
 11
282.419793
 21
51.641471
  0
ARC
  8
2
 10
285.919793
 20
58.041471
 40
9.000000
 50
253.398450
 51
286.601550
  0
ARC
  8
2
 10
283.719793
 20
50.662447
 40
1.300000
 50
180.000000
 51
253.398450
  0
ARC
  8
2
 10
288.119793
 20
50.662447
 40
1.300000
 50
286.601550
 51
360.000000
  0
LINE
  8
2
 10
283.919793
 20
53.641471
 11
283.919793
 21
51.641471
  0
LINE
  8
2
 10
283.919793
 20
53.041471
 11
287.919793
 21
53.041471
  0
LINE
  8
2
 62
2
 10
284.298793
 20
53.641471
 11
284.298793
 21
53.041471
  0
LINE
  8
2
 62
2
 10
284.298793
 20
53.041471
 11
283.919793
 21
51.641471
  0
LINE
  8
2
 10
287.919793
 20
53.641471
 11
287.919793
 21
51.641471
  0
LINE
  8
2
 62
2
 10
287.540793
 20
53.641471
 11
287.540793
 21
53.041471
  0
LINE
  8
2
 62
2
 10
287.540793
 20
53.041471
 11
287.919793
 21
51.641471
  0
LINE
  8
2
 10
311.419793
 20
50.662447
 11
311.419793
 21
51.641471
  0
LINE
  8
2
 10
304.419793
 20
50.662447
 11
304.419793
 21
51.641471
  0
ARC
  8
2
 10
307.919793
 20
58.041471
 40
9.000000
 50
253.398450
 51
286.601550
  0
ARC
  8
2
 10
305.719793
 20
50.662447
 40
1.300000
 50
180.000000
 51
253.398450
  0
ARC
  8
2
 10
310.119793
 20
50.662447
 40
1.300000
 50
286.601550
 51
360.000000
  0
LINE
  8
2
 10
305.919793
 20
53.641471
 11
305.919793
 21
51.641471
  0
LINE
  8
2
 10
305.919793
 20
53.041471
 11
309.919793
 21
53.041471
  0
LINE
  8
2
 62
2
 10
306.298793
 20
53.641471
 11
306.298793
 21
53.041471
  0
LINE
  8
2
 62
2
 10
306.298793
 20
53.041471
 11
305.919793
 21
51.641471
  0
LINE
  8
2
 10
309.919793
 20
53.641471
 11
309.919793
 21
51.641471
  0
LINE
  8
2
 62
2
 10
309.540793
 20
53.641471
 11
309.540793
 21
53.041471
  0
LINE
  8
2
 62
2
 10
309.540793
 20
53.041471
 11
309.919793
 21
51.641471
  0
LINE
  8
2
 10
307.919793
 20
89.641471
 11
307.919793
 21
82.641471
  0
LINE
  8
2
 10
291.919793
 20
89.641471
 11
291.919793
 21
82.641471
  0
LINE
  8
2
 10
307.919793
 20
89.641471
 11
291.919793
 21
89.641471
  0
LINE
  8
2
 10
305.919793
 20
99.641471
 11
293.919793
 21
99.641471
  0
LINE
  8
2
 10
293.919793
 20
99.641471
 11
291.919793
 21
89.641471
  0
LINE
  8
2
 10
305.919793
 20
99.641471
 11
307.919793
 21
89.641471
  0
LINE
  8
2
 10
304.919793
 20
109.541471
 11
304.919793
 21
103.041471
  0
LINE
  8
2
 10
294.919793
 20
109.541471
 11
294.919793
 21
103.041471
  0
LINE
  8
2
 10
304.919793
 20
103.041471
 11
294.919793
 21
103.041471
  0
LINE
  8
2
 10
294.919793
 20
109.541471
 11
295.419793
 21
110.041471
  0
LINE
  8
2
 10
304.919793
 20
109.541471
 11
304.419793
 21
110.041471
  0
LINE
  8
2
 10
300.669793
 20
110.041471
 11
300.669793
 21
108.541471
  0
LINE
  8
2
 10
299.169793
 20
110.041471
 11
299.169793
 21
108.541471
  0
LINE
  8
2
 10
300.669793
 20
108.541471
 11
299.169793
 21
108.541471
  0
LINE
  8
2
 10
304.419793
 20
110.041471
 11
300.669793
 21
110.041471
  0
LINE
  8
2
 10
299.169793
 20
110.041471
 11
295.419793
 21
110.041471
  0
LINE
  8
2
 10
294.919793
 20
109.541471
 11
299.169793
 21
109.541471
  0
LINE
  8
2
 10
304.919793
 20
109.541471
 11
300.669793
 21
109.541471
  0
ARC
  8
2
 10
284.560810
 20
11.641471
 40
6.000000
 50
180.000000
 51
270.000000
  0
LINE
  8
2
 10
278.560810
 20
11.641471
 11
278.560810
 21
51.641471
  0
LINE
  8
2
 10
278.560810
 20
82.641471
 11
278.560810
 21
100.641471
  0
TEXT
  8
2
 10
-584.080018
 20
426.948987
 40
14.000000
  1
ＴＯＭＯＥＶＡＬＶＥ
 50
0.000000
  0
TEXT
  8
2
 10
-539.080018
 20
409.948987
 40
10.000000
  1
ＴＧ－１２
 50
0.000000
  0
TEXT
  8
2
 10
-559.041959
 20
457.915979
 40
12.000000
  1
Ｓ
 50
135.000000
  0
TEXT
  8
2
 10
-460.047009
 20
466.987046
 40
12.000000
  1
Ｏ
 50
225.000000
  0
ARC
  8
2
 10
-558.969728
 20
359.573509
 40
4.000000
 50
321.317812
 51
38.682188
  0
ARC
  8
2
 10
-552.724730
 20
354.573509
 40
4.000000
 50
141.317812
 51
218.682188
  0
ARC
  8
2
 10
-469.190308
 20
359.573509
 40
4.000000
 50
141.317812
 51
218.682188
  0
ARC
  8
2
 10
-475.435306
 20
354.573509
 40
4.000000
 50
321.317812
 51
38.682188
  0
ARC
  8
2
 10
-783.469728
 20
359.573509
 40
4.000000
 50
321.317812
 51
38.682188
  0
ARC
  8
2
 10
-777.224730
 20
354.573509
 40
4.000000
 50
141.317812
 51
218.682188
  0
ARC
  8
2
 10
-250.935306
 20
354.573509
 40
4.000000
 50
321.317812
 51
38.682188
  0
ARC
  8
2
 10
-244.690308
 20
359.573509
 40
4.000000
 50
141.317812
 51
218.682188
  0
LINE
  8
3
 10
-417.080018
 20
-35.358529
 11
-611.080018
 21
-35.358529
  0
LINE
  8
3
 10
-414.080018
 20
-19.358529
 11
-414.080018
 21
-32.358529
  0
LINE
  8
3
 10
-614.080018
 20
-19.358529
 11
-614.080018
 21
-32.358529
  0
ARC
  8
3
 10
-417.080018
 20
-32.358529
 40
3.000000
 50
270.000000
 51
360.000000
  0
ARC
  8
3
 10
-611.080018
 20
-32.358529
 40
3.000000
 50
180.000000
 51
270.000000
  0
LINE
  8
3
 10
-436.580018
 20
-144.358529
 11
-591.580018
 21
-144.358529
  0
LINE
  8
3
 10
-438.580018
 20
-128.358529
 11
-589.580018
 21
-128.358529
  0
LINE
  8
3
 10
-591.580018
 20
-130.358529
 11
-591.580018
 21
-144.358529
  0
LINE
  8
3
 10
-436.580018
 20
-130.358529
 11
-436.580018
 21
-144.358529
  0
ARC
  8
3
 10
-438.580018
 20
-130.358529
 40
2.000000
 50
0.000000
 51
90.000000
  0
ARC
  8
3
 10
-589.580018
 20
-130.358529
 40
2.000000
 50
90.000000
 51
180.000000
  0
LINE
  8
3
 10
-559.080018
 20
-43.358529
 11
-559.080018
 21
-123.358529
  0
LINE
  8
3
 10
-469.080018
 20
-43.358529
 11
-469.080018
 21
-123.358529
  0
ARC
  8
3
 10
-464.080018
 20
-123.358529
 40
5.000000
 50
180.000000
 51
270.000000
  0
ARC
  8
3
 10
-564.080018
 20
-123.358529
 40
5.000000
 50
270.000000
 51
360.000000
  0
ARC
  8
3
 10
-461.080018
 20
-43.358529
 40
8.000000
 50
90.000000
 51
180.000000
  0
ARC
  8
3
 10
-567.080018
 20
-43.358529
 40
8.000000
 50
0.000000
 51
90.000000
  0
LINE
  8
3
 10
340.919793
 20
-35.358529
 11
146.919793
 21
-35.358529
  0
LINE
  8
3
 10
343.919793
 20
-19.358529
 11
343.919793
 21
-32.358529
  0
LINE
  8
3
 10
143.919793
 20
-19.358529
 11
143.919793
 21
-32.358529
  0
ARC
  8
3
 10
340.919793
 20
-32.358529
 40
3.000000
 50
270.000000
 51
360.000000
  0
ARC
  8
3
 10
146.919793
 20
-32.358529
 40
3.000000
 50
180.000000
 51
270.000000
  0
LINE
  8
3
 10
321.419793
 20
-144.358529
 11
166.419793
 21
-144.358529
  0
LINE
  8
3
 10
319.419793
 20
-128.358529
 11
168.419793
 21
-128.358529
  0
LINE
  8
3
 10
166.419793
 20
-130.358529
 11
166.419793
 21
-144.358529
  0
LINE
  8
3
 10
321.419793
 20
-130.358529
 11
321.419793
 21
-144.358529
  0
ARC
  8
3
 10
319.419793
 20
-130.358529
 40
2.000000
 50
0.000000
 51
90.000000
  0
ARC
  8
3
 10
168.419793
 20
-130.358529
 40
2.000000
 50
90.000000
 51
180.000000
  0
LINE
  8
3
 10
198.919793
 20
-43.358529
 11
198.919793
 21
-123.358529
  0
LINE
  8
3
 10
288.919793
 20
-43.358529
 11
288.919793
 21
-123.358529
  0
ARC
  8
3
 10
293.919793
 20
-123.358529
 40
5.000000
 50
180.000000
 51
270.000000
  0
ARC
  8
3
 10
193.919793
 20
-123.358529
 40
5.000000
 50
270.000000
 51
360.000000
  0
ARC
  8
3
 10
296.919793
 20
-43.358529
 40
8.000000
 50
90.000000
 51
180.000000
  0
ARC
  8
3
 10
190.919793
 20
-43.358529
 40
8.000000
 50
0.000000
 51
90.000000
  0
TEXT
  8
5
 10
639.882385
 20
-329.273529
 40
36.000000
  1
駆動部・・・ＴＧＡ－１２５
 50
0.000000
  0
DIMENSION
  8
5
  2
*D0
 10
15.788964
 20
214.641471
 11
-8.001036
 21
96.651471
 70
0
  1
234
 13
143.919793
 23
-19.358529
 14
226.919793
 24
214.641471
 50
90.000000
  0
DIMENSION
  8
5
  2
*D1
 10
243.919793
 20
267.713608
 11
212.919793
 21
280.613608
 70
0
  1
62
 13
181.919793
 23
180.141471
 14
243.919793
 24
238.563934
 50
0.000000
  0
DIMENSION
  8
5
  2
*D2
 10
243.919793
 20
314.864273
 11
160.419793
 21
327.764273
 70
0
  1
167
 13
76.919793
 23
79.641471
 14
243.919793
 24
238.563934
 50
0.000000
  0
DIMENSION
  8
5
  2
*D3
 10
343.919793
 20
314.864273
 11
293.919793
 21
327.764273
 70
0
  1
100
 13
243.919793
 23
238.563934
 14
343.919793
 24
3.641471
 50
0.000000
  0
DIMENSION
  8
5
  2
*D4
 10
-141.080018
 20
653.538254
 11
-327.580018
 21
666.438254
 70
0
  1
373
 13
-514.080018
 23
629.695129
 14
-141.080018
 24
513.136987
 50
0.000000
  0
DIMENSION
  8
5
  2
*D5
 10
-141.080018
 20
702.826401
 11
-517.830018
 21
715.726401
 70
0
  1
754
 13
-894.580018
 23
458.595987
 14
-141.080018
 24
513.136987
 50
0.000000
  0
DIMENSION
  8
5
  2
*D6
 10
15.788964
 20
-144.358529
 11
-6.111036
 21
-293.758529
 70
0
  1
297
 13
149.784891
 23
-441.358529
 14
166.419793
 24
-144.358529
 50
90.000000
  0
DIMENSION
  8
5
  2
*D7
 10
15.788964
 20
-441.358529
 11
-6.111036
 21
-590.758529
 70
0
  1
297
 13
198.919793
 23
-738.358529
 14
149.784891
 24
-441.358529
 50
90.000000
  0
DIMENSION
  8
5
  2
*D8
 10
15.788964
 20
-19.358529
 11
-6.111036
 21
-82.758529
 70
0
  1
125
 13
166.419793
 23
-144.358529
 14
143.919793
 24
-19.358529
 50
90.000000
  0
DIMENSION
  8
5
  2
*D9
 10
282.919793
 20
-673.870102
 11
177.319793
 21
-661.870102
 70
0
  1
78
 13
204.919793
 23
-622.858529
 14
282.919793
 24
-622.858529
 50
0.000000
  0
LINE
  8
18
 10
729.294456
 20
-409.293709
 11
1029.294456
 21
-409.293709
  0
LINE
  8
18
 10
729.294456
 20
-529.293709
 11
1029.294456
 21
-529.293709
  0
LINE
  8
18
 10
729.294456
 20
-559.293709
 11
1029.294456
 21
-559.293709
  0
LINE
  8
18
 10
729.294456
 20
-589.293709
 11
1029.294456
 21
-589.293709
  0
LINE
  8
18
 10
729.294456
 20
-409.293709
 11
729.294456
 21
-589.293709
  0
LINE
  8
18
 10
879.294456
 20
-409.293709
 11
879.294456
 21
-559.293709
  0
LINE
  8
18
 10
1029.294456
 20
-409.293709
 11
1029.294456
 21
-589.293709
  0
LINE
  8
18
  6
CENTER
 62
2
 10
792.568299
 20
-473.473721
 11
810.772355
 21
-473.473719
  0
LINE
  8
18
  6
CENTER
 62
2
 10
802.319853
 20
-450.503721
 11
802.319853
 21
-500.705529
  0
LINE
  8
18
 10
830.098803
 20
-464.214071
 11
830.098803
 21
-469.872746
  0
LINE
  8
18
 10
774.540903
 20
-464.214071
 11
774.540903
 21
-469.872746
  0
LINE
  8
18
  6
CENTER
 62
2
 10
746.870830
 20
-481.190096
 11
859.126154
 21
-481.190096
  0
LINE
  8
18
 10
750.877353
 20
-492.507446
 11
853.762353
 21
-492.507446
  0
LINE
  8
18
 10
853.762353
 20
-469.872746
 11
853.762353
 21
-492.507446
  0
LINE
  8
18
 10
750.877353
 20
-469.872746
 11
750.877353
 21
-492.507446
  0
LINE
  8
18
 10
817.752603
 20
-469.872746
 11
817.752603
 21
-492.507446
  0
LINE
  8
18
 10
786.887103
 20
-469.872746
 11
786.887103
 21
-492.507446
  0
LINE
  8
18
 10
786.887103
 20
-469.872746
 11
798.777989
 21
-465.512754
  0
LINE
  8
18
 10
805.861717
 20
-465.512754
 11
817.752603
 21
-469.872746
  0
ARC
  8
18
 10
802.319853
 20
-475.172383
 40
10.288500
 50
69.863697
 51
110.136303
  0
LINE
  8
18
 10
750.877353
 20
-469.872746
 11
786.887103
 21
-469.872746
  0
LINE
  8
18
 10
817.752603
 20
-469.872746
 11
853.762353
 21
-469.872746
  0
ARC
  8
18
 10
802.319853
 20
-473.473721
 40
15.432750
 50
14.149808
 51
165.850192
  0
LINE
  8
18
 10
774.540903
 20
-464.214071
 11
789.973653
 21
-464.214071
  0
LINE
  8
18
 10
814.666053
 20
-464.214071
 11
830.098803
 21
-464.214071
  0
LINE
  8
18
 10
796.863552
 20
-478.930022
 11
795.772292
 21
-480.021282
  0
LINE
  8
18
 10
807.776154
 20
-478.930022
 11
808.867415
 21
-480.021282
  0
ARC
  8
18
 10
802.319853
 20
-473.473721
 40
7.716375
 50
225.000000
 51
315.000000
  0
ARC
  8
18
 10
802.319853
 20
-473.473721
 40
9.259650
 50
225.000000
 51
315.000000
  0
LINE
  8
18
 10
797.276308
 20
-478.055923
 11
799.999595
 21
-472.363664
  0
LINE
  8
18
 10
797.757849
 20
-478.535543
 11
803.439176
 21
-475.789524
  0
ARC
  8
18
 10
802.319853
 20
-473.473721
 40
2.572125
 50
295.796392
 51
154.432646
  0
ARC
  8
18
 10
797.601144
 20
-478.211331
 40
0.360098
 50
154.432646
 51
295.796392
  0
LINE
  8
18
 10
804.316998
 20
-480.927167
 11
804.716427
 21
-482.417856
  0
LINE
  8
18
 10
800.322709
 20
-480.927167
 11
799.923280
 21
-482.417856
  0
LINE
  8
18
  6
CENTER
 62
2
 10
920.463369
 20
-469.095974
 11
986.850183
 21
-469.096494
  0
LINE
  8
18
  6
CENTER
 62
2
 10
954.488863
 20
-459.741755
 11
954.488863
 21
-479.581255
  0
LINE
  8
18
 10
982.267813
 20
-459.836278
 11
982.267813
 21
-478.356109
  0
LINE
  8
18
 10
926.709913
 20
-459.836278
 11
926.709913
 21
-478.355673
  0
LINE
  8
18
  6
CENTER
 62
2
 10
962.205239
 20
-524.544951
 11
962.205239
 21
-412.289627
  0
LINE
  8
18
 10
973.522589
 20
-520.538427
 11
973.522589
 21
-417.653427
  0
LINE
  8
18
 10
950.887889
 20
-417.653427
 11
973.522589
 21
-417.653427
  0
LINE
  8
18
 10
950.887889
 20
-520.538427
 11
973.522589
 21
-520.538427
  0
LINE
  8
18
 10
950.887889
 20
-453.663177
 11
973.522589
 21
-453.663177
  0
LINE
  8
18
 10
950.887889
 20
-484.528677
 11
973.522589
 21
-484.528677
  0
LINE
  8
18
 10
950.887889
 20
-484.528677
 11
946.527897
 21
-472.637791
  0
LINE
  8
18
 10
946.527897
 20
-465.554063
 11
950.887889
 21
-453.663177
  0
ARC
  8
18
 10
956.187526
 20
-469.095927
 40
10.288500
 50
159.863697
 51
200.136303
  0
LINE
  8
18
 10
950.887889
 20
-520.538427
 11
950.887889
 21
-484.528677
  0
LINE
  8
18
 10
950.887889
 20
-453.663177
 11
950.887889
 21
-417.653427
  0
ARC
  8
18
 10
954.488864
 20
-469.095927
 40
15.432750
 50
104.149808
 51
255.850192
  0
LINE
  8
18
 10
926.709913
 20
-459.836278
 11
942.142663
 21
-459.836278
  0
LINE
  8
18
 10
973.522589
 20
-459.836278
 11
982.267813
 21
-459.836278
  0
LINE
  8
18
 10
959.945164
 20
-474.552229
 11
961.036424
 21
-475.643490
  0
ARC
  8
18
 10
954.488550
 20
-469.096241
 40
7.716375
 50
315.000000
 51
45.000000
  0
ARC
  8
18
 10
954.488550
 20
-469.096241
 40
9.259650
 50
315.000000
 51
45.000000
  0
LINE
  8
18
 10
959.070752
 20
-474.139787
 11
953.378493
 21
-471.416500
  0
LINE
  8
18
 10
959.550372
 20
-473.658245
 11
956.804353
 21
-467.976918
  0
ARC
  8
18
 10
954.488550
 20
-469.096241
 40
2.572125
 50
25.796392
 51
244.432646
  0
ARC
  8
18
 10
959.226160
 20
-473.814950
 40
0.360098
 50
244.432646
 51
25.796392
  0
LINE
  8
18
 10
961.941996
 20
-467.099096
 11
963.432685
 21
-466.699667
  0
LINE
  8
18
 10
961.941996
 20
-471.093386
 11
963.432685
 21
-471.492815
  0
LINE
  8
18
 10
926.709913
 20
-478.355673
 11
942.142826
 21
-478.355794
  0
LINE
  8
18
 10
973.522589
 20
-478.356040
 11
982.267813
 21
-478.356109
  0
LINE
  8
18
 10
959.944851
 20
-463.639407
 11
961.036111
 21
-462.548147
  0
TEXT
  8
18
 10
733.985962
 20
-798.632172
 40
18.000000
  1
１
 50
0.000000
  0
TEXT
  8
18
 10
757.700821
 20
-820.334564
 40
18.000000
  1
６
 50
0.000000
  0
TEXT
  8
18
 10
753.247215
 20
-580.495514
 40
15.000000
  1
ＡＣＴＵＡＴＯＲ　ＰＯＳＩＴＩＯＮ
 50
0.000000
  0
TEXT
  8
18
 10
790.078880
 20
-552.226433
 40
18.000000
  1
Ａ
 50
0.000000
  0
TEXT
  8
18
 10
940.007195
 20
-552.707359
 40
18.000000
  1
Ｂ
 50
0.000000
  0
TEXT
  8
18
 10
789.604649
 20
-483.989110
 40
7.200000
  1
Ｓ
 50
315.000000
  0
TEXT
  8
18
 10
810.688784
 20
-488.335384
 40
7.200000
  1
Ｏ
 50
45.000000
  0
TEXT
  8
18
 10
965.603939
 20
-482.411445
 40
7.200000
  1
Ｓ
 50
45.000000
  0
TEXT
  8
18
 10
969.950213
 20
-460.727311
 40
7.200000
  1
Ｏ
 50
135.000000
  0
TEXT
  8
18
 10
921.600000
 20
-816.000000
 40
30.000000
  1
Ｄ３－０３２４７
 50
0.000000
  0
TEXT
  8
18
 10
737.125443
 20
-762.211578
 40
18.000000
  1
重負荷仕様
 50
0.000000
  0
TEXT
  8
18
 10
1080.948669
 20
-761.314819
 40
12.000000
  1
２００３．　２．　３
 50
0.000000
  0
TEXT
  8
18
 10
737.125443
 20
-738.211578
 40
18.000000
  1
８４７Ｔ－３ＡＡＳ　３００Ａ
 50
0.000000
  0
LINE
  8
20
 62
3
 10
-1080.000000
 20
-831.000000
 11
1200.000000
 21
-831.000000
  0
LINE
  8
20
 62
3
 10
-1080.000000
 20
792.000000
 11
1200.000000
 21
792.000000
  0
LINE
  8
20
 62
3
 10
-1080.000000
 20
792.000000
 11
-1080.000000
 21
-831.000000
  0
LINE
  8
20
 62
3
 10
1200.000000
 20
792.000000
 11
1200.000000
 21
-831.000000
  0
LINE
  8
20
 62
3
 10
360.000000
 20
-831.000000
 11
360.000000
 21
-711.000000
  0
LINE
  8
20
 62
3
 10
642.000000
 20
-831.000000
 11
642.000000
 21
-711.000000
  0
LINE
  8
20
 10
642.000000
 20
-771.000000
 11
1200.000000
 21
-771.000000
  0
LINE
  8
20
 62
3
 10
360.000000
 20
-711.000000
 11
1200.000000
 21
-711.000000
  0
LINE
  8
20
 10
1080.000000
 20
-771.000000
 11
1080.000000
 21
-711.000000
  0
LINE
  8
20
 10
1080.000000
 20
-741.000000
 11
1200.000000
 21
-741.000000
  0
LINE
  8
20
 10
726.000000
 20
-831.000000
 11
726.000000
 21
-711.000000
  0
LINE
  8
20
 10
786.000000
 20
-831.000000
 11
786.000000
 21
-771.000000
  0
LINE
  8
20
 10
906.000000
 20
-831.000000
 11
906.000000
 21
-771.000000
  0
LINE
  8
20
 10
742.370487
 20
-814.629513
 11
767.389744
 21
-789.610256
  0
TEXT
  8
20
 10
789.199974
 20
-794.981506
 40
10.800000
  1
ＤＲＡＷＩＮＧ　ＮＯ．
 50
0.000000
  0
TEXT
  8
20
 10
801.000000
 20
-819.000000
 40
18.000000
  1
図　　　番
 50
0.000000
  0
TEXT
  8
20
 10
1116.000000
 20
-732.000000
 40
12.000000
  1
ＤＡＴＥ
 50
0.000000
  0
TEXT
  8
20
 10
654.006426
 20
-797.766174
 40
12.000000
  1
ＳＣＡＬＥ
 50
0.000000
  0
TEXT
  8
20
 10
648.000000
 20
-819.000000
 40
18.000000
  1
尺　　度
 50
0.000000
  0
TEXT
  8
20
 10
645.006426
 20
-734.975308
 40
12.000000
  1
ＦＩＧ．ＮＯ．
 50
0.000000
  0
TEXT
  8
20
 10
648.000000
 20
-759.000000
 40
18.000000
  1
名　　称
 50
0.000000
  0
TEXT
  8
20
 10
363.393150
 20
-758.821518
 40
13.800000
  1
ＴＯＭＯＥ　ＶＡＬＶＥ　ＣＯ．，ＬＴＤ．
 50
0.000000
  0
TEXT
  8
20
 10
405.000000
 20
-799.738861
 40
24.000000
  1
巴バルブ株式会社
 50
0.000000
  0
ENDSEC
  0
EOF
