  0
SECTION
  2
HEADER
  9
$ACADVER
  1
AC1012
  9
$DWGCODEPAGE
  3
ansi_932
  9
$INSBASE
 10
0.0
 20
0.0
 30
0.0
  9
$EXTMIN
 10
-1470.0
 20
-1039.5
 30
1.000000E+20
  9
$EXTMAX
 10
1470.0
 20
1039.5
 30
-1.000000E+20
  9
$LIMMIN
 10
-1470.0
 20
-1039.5
  9
$LIMMAX
 10
1470.0
 20
1039.5
  9
$ORTHOMODE
 70
     0
  9
$REGENMODE
 70
     1
  9
$FILLMODE
 70
     1
  9
$QTEXTMODE
 70
     0
  9
$MIRRTEXT
 70
     1
  9
$DRAGMODE
 70
     2
  9
$LTSCALE
 40
1.0
  9
$OSMODE
 70
     0
  9
$ATTMODE
 70
     1
  9
$TEXTSIZE
 40
0.2
  9
$TRACEWID
 40
0.05
  9
$TEXTSTYLE
  7
STANDARD
  9
$CLAYER
  8
0
  9
$CELTYPE
  6
CONTINUOUS
  9
$CECOLOR
 62
   256
  9
$CELTSCALE
 40
1.0
  9
$DELOBJ
 70
     1
  9
$DISPSILH
 70
     0
  9
$DIMSCALE
 40
7.0
  9
$DIMASZ
 40
2.0
  9
$DIMEXO
 40
1.0
  9
$DIMDLI
 40
0.38
  9
$DIMRND
 40
0.0
  9
$DIMDLE
 40
0.0
  9
$DIMEXE
 40
2.0
  9
$DIMTP
 40
0.0
  9
$DIMTM
 40
0.0
  9
$DIMTXT
 40
3.3
  9
$DIMCEN
 40
0.09
  9
$DIMTSZ
 40
0.0
  9
$DIMTOL
 70
     0
  9
$DIMLIM
 70
     0
  9
$DIMTIH
 70
     0
  9
$DIMTOH
 70
     0
  9
$DIMSE1
 70
     0
  9
$DIMSE2
 70
     0
  9
$DIMTAD
 70
     1
  9
$DIMZIN
 70
     0
  9
$DIMBLK
  1

  9
$DIMASO
 70
     1
  9
$DIMSHO
 70
     1
  9
$DIMPOST
  1

  9
$DIMAPOST
  1

  9
$DIMALT
 70
     0
  9
$DIMALTD
 70
     2
  9
$DIMALTF
 40
25.4
  9
$DIMLFAC
 40
1.0
  9
$DIMTOFL
 70
     0
  9
$DIMTVP
 40
0.0
  9
$DIMTIX
 70
     0
  9
$DIMSOXD
 70
     0
  9
$DIMSAH
 70
     0
  9
$DIMBLK1
  1

  9
$DIMBLK2
  1

  9
$DIMSTYLE
  2
STANDARD
  9
$DIMCLRD
 70
     0
  9
$DIMCLRE
 70
     0
  9
$DIMCLRT
 70
     0
  9
$DIMTFAC
 40
1.0
  9
$DIMGAP
 40
0.5
  9
$DIMJUST
 70
     0
  9
$DIMSD1
 70
     0
  9
$DIMSD2
 70
     0
  9
$DIMTOLJ
 70
     1
  9
$DIMTZIN
 70
     0
  9
$DIMALTZ
 70
     0
  9
$DIMALTTZ
 70
     0
  9
$DIMFIT
 70
     3
  9
$DIMUPT
 70
     0
  9
$DIMUNIT
 70
     2
  9
$DIMDEC
 70
     2
  9
$DIMTDEC
 70
     4
  9
$DIMALTU
 70
     2
  9
$DIMALTTD
 70
     2
  9
$DIMTXSTY
  7
STANDARD
  9
$DIMAUNIT
 70
     0
  9
$LUNITS
 70
     2
  9
$LUPREC
 70
     4
  9
$SKETCHINC
 40
0.1
  9
$FILLETRAD
 40
0.0
  9
$AUNITS
 70
     0
  9
$AUPREC
 70
     0
  9
$MENU
  1
acad
  9
$ELEVATION
 40
0.0
  9
$PELEVATION
 40
0.0
  9
$THICKNESS
 40
0.0
  9
$LIMCHECK
 70
     0
  9
$BLIPMODE
 70
     1
  9
$CHAMFERA
 40
0.0
  9
$CHAMFERB
 40
0.0
  9
$CHAMFERC
 40
0.0
  9
$CHAMFERD
 40
0.0
  9
$SKPOLY
 70
     0
  9
$TDCREATE
 40
2452114.000000000
  9
$TDUPDATE
 40
0.000000000
  9
$TDINDWG
 40
0.0000000000
  9
$TDUSRTIMER
 40
0.0000000000
  9
$USRTIMER
 70
     1
  9
$ANGBASE
 50
0.0
  9
$ANGDIR
 70
     0
  9
$PDMODE
 70
     0
  9
$PDSIZE
 40
0.0
  9
$PLINEWID
 40
0.0
  9
$COORDS
 70
     0
  9
$SPLFRAME
 70
     0
  9
$SPLINETYPE
 70
     6
  9
$SPLINESEGS
 70
     8
  9
$ATTDIA
 70
     0
  9
$ATTREQ
 70
     1
  9
$HANDLING
 70
     1
  9
$HANDSEED
  5
950
  9
$SURFTAB1
 70
     6
  9
$SURFTAB2
 70
     6
  9
$SURFTYPE
 70
     6
  9
$SURFU
 70
     6
  9
$SURFV
 70
     6
  9
$UCSNAME
  2

  9
$UCSORG
 10
0.0
 20
0.0
 30
0.0
  9
$UCSXDIR
 10
1.0
 20
0.0
 30
0.0
  9
$UCSYDIR
 10
0.0
 20
1.0
 30
0.0
  9
$PUCSNAME
  2

  9
$PUCSORG
 10
0.0
 20
0.0
 30
0.0
  9
$PUCSXDIR
 10
1.0
 20
0.0
 30
0.0
  9
$PUCSYDIR
 10
0.0
 20
1.0
 30
0.0
  9
$USERI1
 70
     0
  9
$USERI2
 70
     0
  9
$USERI3
 70
     0
  9
$USERI4
 70
     0
  9
$USERI5
 70
     0
  9
$USERR1
 40
0.0
  9
$USERR2
 40
0.0
  9
$USERR3
 40
0.0
  9
$USERR4
 40
0.0
  9
$USERR5
 40
0.0
  9
$WORLDVIEW
 70
     1
  9
$SHADEDGE
 70
     3
  9
$SHADEDIF
 70
    70
  9
$TILEMODE
 70
     1
  9
$MAXACTVP
 70
    16
  9
$PINSBASE
 10
0.0
 20
0.0
 30
0.0
  9
$PLIMCHECK
 70
     0
  9
$PEXTMIN
 10
1.000000E+20
 20
1.000000E+20
 30
1.000000E+20
  9
$PEXTMAX
 10
-1.000000E+20
 20
-1.000000E+20
 30
-1.000000E+20
  9
$PLIMMIN
 10
0.0
 20
0.0
  9
$PLIMMAX
 10
12.0
 20
9.0
  9
$UNITMODE
 70
     0
  9
$VISRETAIN
 70
     0
  9
$PLINEGEN
 70
     1
  9
$PSLTSCALE
 70
     0
  9
$TREEDEPTH
 70
  3020
  9
$PICKSTYLE
 70
     1
  9
$CMLSTYLE
  2
STANDARD
  9
$CMLJUST
 70
     0
  9
$CMLSCALE
 40
1.0
  9
$SAVEIMAGES
 70
     0
  0
ENDSEC
  0
SECTION
  2
CLASSES
  0
CLASS
  1
LWPOLYLINE
  2
AcDbPolyline
  3
"AutoCAD"
 90
    32768
280
     0
281
     1
  0
CLASS
  1
IMAGE
  2
AcDbRasterImage
  3
ISM
 90
    32895
280
     0
281
     1
  0
CLASS
  1
OLE2FRAME
  2
AcDbOle2Frame
  3
""
 90
    32768
280
     0
281
     1
  0
CLASS
  1
HATCH
  2
AcDbHatch
  3
"ACAD_SEDONA"
 90
    32768
280
     0
281
     1
  0
CLASS
  1
DICTIONARYVAR
  2
AcDbDictionaryVar
  3
"AutoCAD"
 90
    32768
280
     0
281
     0
  0
CLASS
  1
RASTERVARIABLES
  2
AcDbRasterVariables
  3
ISM
 90
    32768
280
     0
281
     0
  0
CLASS
  1
IMAGEDEF
  2
AcDbRasterImageDef
  3
ISM
 90
    32768
280
     0
281
     0
  0
CLASS
  1
IMAGEDEF_REACTOR
  2
AcDbRasterImageDefReactor
  3
ISM
 90
    32769
280
     0
281
     0
  0
CLASS
  1
IDBUFFER
  2
AcDbIdBuffer
  3
"Acad"
 90
    32768
280
     0
281
     0
  0
CLASS
  1
SPATIAL_FILTER
  2
AcDbSpatialFilter
  3
"Acad"
 90
    32768
280
     0
281
     0
  0
CLASS
  1
XRECORD
  2
AcDbXrecord
  3
"<Built In>"
 90
    32768
280
     0
281
     0
  0
CLASS
  1
SORTENTSTABLE
  2
AcDbSortentsTable
  3
"AutoCAD"
 90
    32768
280
     0
281
     0
  0
CLASS
  1
LAYER_INDEX
  2
AcDbLayerIndex
  3
"Acad"
 90
    32768
280
     0
281
     0
  0
CLASS
  1
SPATIAL_INDEX
  2
AcDbSpatialIndex
  3
"Acad"
 90
    32768
280
     0
281
     0
  0
CLASS
  1
OBJECT_PTR
  2
CAseDLPNTableRecord
  3
"ASE-LPNTableRecord"
 90
    32769
280
     0
281
     0
  0
CLASS
  1
LAYOUT
  2
AcDbLayout
  3
"AutoCAD 2000"
 90
    32768
280
     0
281
     0
  0
CLASS
  1
PLOTSETTINGS
  2
AcDbPlotSettings
  3
"AutoCAD 2000"
 90
    32768
280
     0
281
     0
  0
CLASS
  1
ACDBDICTIONARYWDFLT
  2
AcDbDictionaryWithDefault
  3
"AutoCAD 2000"
 90
    32768
280
     0
281
     0
  0
CLASS
  1
ACDBPLACEHOLDER
  2
AcDbPlaceHolder
  3
"AutoCAD 2000"
 90
    32768
280
     0
281
     0
  0
CLASS
  1
VBA_PROJECT
  2
AcDbVbaProject
  3
"acadvba"
 90
    32768
280
     0
281
     0
  0
CLASS
  1
WIPEOUT
  2
AcDbWipeout
  3
WipeOut|AutoCAD Express Tool|expresstools@autodesk.com
 90
    32895
280
     0
281
     1
  0
CLASS
  1
WIPEOUTVARIABLES
  2
AcDbWipeoutVariables
  3
WipeOut|AutoCAD Express Tool|expresstools@autodesk.com
 90
    32768
280
     0
281
     0
  0
CLASS
  1
RTEXT
  2
RText
  3
RText|AutoCAD Express Tool|expresstools@autodesk.com
 90
    32768
280
     0
281
     1
  0
CLASS
  1
ARCALIGNEDTEXT
  2
AcDbArcAlignedText
  3
ATEXT|AutoCAD Express Tool|expresstools@autodesk.com
 90
    32768
280
     0
281
     1
  0
ENDSEC
  0
SECTION
  2
TABLES
  0
TABLE
  2
VPORT
  5
6
100
AcDbSymbolTable
 70
     1
  0
VPORT
  5
22
100
AcDbSymbolTableRecord
100
AcDbViewportTableRecord
  2
*ACTIVE
 70
     0
 10
0.0
 20
0.0
 11
1.0
 21
1.0
 12
0.0
 22
0.0
 13
0.0
 23
0.0
 14
1.0
 24
1.0
 15
0.0
 25
0.0
 16
0.0
 26
0.0
 36
1.0
 17
0.0
 27
0.0
 37
0.0
 40
2079.0
 41
1.414141
 42
50.0
 43
0.0
 44
0.0
 50
0.0
 51
0.0
 71
     0
 72
   500
 73
     1
 74
     1
 75
     0
 76
     0
 77
     0
 78
     0
  0
ENDTAB
  0
TABLE
  2
LTYPE
  5
3
100
AcDbSymbolTable
 70
     9
  0
LTYPE
  5
C
100
AcDbSymbolTableRecord
100
AcDbLinetypeTableRecord
  2
BYBLOCK
 70
    64
  3

 72
    65
 73
     0
 40
0.0
  0
LTYPE
  5
D
100
AcDbSymbolTableRecord
100
AcDbLinetypeTableRecord
  2
BYLAYER
 70
    64
  3

 72
    65
 73
     0
 40
0.0
  0
LTYPE
  5
E
100
AcDbSymbolTableRecord
100
AcDbLinetypeTableRecord
  2
CONTINUOUS
 70
     0
  3
Solid line
 72
    65
 73
     0
 40
0.0
  0
LTYPE
  5
F
100
AcDbSymbolTableRecord
100
AcDbLinetypeTableRecord
  2
DASHED
 70
     0
  3
__ __ __ __ __ __ __ __ __ __ __ __ __ __ __
 72
    65
 73
     2
 40
2.0
 49
1.2
 74
     0
 49
-0.8
 74
     0
  0
LTYPE
  5
10
100
AcDbSymbolTableRecord
100
AcDbLinetypeTableRecord
  2
CENTER
 70
     0
  3
____ _ ____ _ ____ _ ____ _ ____ _ ____ _ ____
 72
    65
 73
     4
 40
12.0
 49
9.0
 74
     0
 49
-1.0
 74
     0
 49
1.0
 74
     0
 49
-1.0
 74
     0
  0
LTYPE
  5
11
100
AcDbSymbolTableRecord
100
AcDbLinetypeTableRecord
  2
HIDDEN
 70
     0
  3
_ _ _ _ _ _ _ _ _ _ _ _ _ _ _ _ _ _ _ _ _ _ _
 72
    65
 73
     2
 40
3.2
 49
2.4
 74
     0
 49
-0.8
 74
     0
  0
LTYPE
  5
12
100
AcDbSymbolTableRecord
100
AcDbLinetypeTableRecord
  2
PHANTOM
 70
     0
  3
_____ _ _ _____ _ _ _____ _ _ _____ _ _ _____
 72
    65
 73
     6
 40
13.5
 49
9.0
 74
     0
 49
-1.0
 74
     0
 49
1.0
 74
     0
 49
-0.5
 74
     0
 49
1.0
 74
     0
 49
-1.0
 74
     0
  0
LTYPE
  5
13
100
AcDbSymbolTableRecord
100
AcDbLinetypeTableRecord
  2
DOT
 70
     0
  3
...............................................
 72
    65
 73
     2
 40
1.0
 49
0.5
 74
     0
 49
-0.5
 74
     0
  0
LTYPE
  5
14
100
AcDbSymbolTableRecord
100
AcDbLinetypeTableRecord
  2
DASHDOT
 70
     0
  3
__ . __ . __ . __ . __ . __ . __ . __ . __ . __
 72
    65
 73
     4
 40
8.0
 49
5.0
 74
     0
 49
-1.0
 74
     0
 49
1.0
 74
     0
 49
-1.0
 74
     0
  0
ENDTAB
  0
TABLE
  2
LAYER
  5
1
100
AcDbSymbolTable
 70
    13
  0
LAYER
  5
15
100
AcDbSymbolTableRecord
100
AcDbLayerTableRecord
  2
0
 70
     0
 62
     7
  6
CONTINUOUS
  0
LAYER
  5
16
100
AcDbSymbolTableRecord
100
AcDbLayerTableRecord
  2
1
 70
     0
 62
     7
  6
CONTINUOUS
  0
LAYER
  5
17
100
AcDbSymbolTableRecord
100
AcDbLayerTableRecord
  2
2
 70
     0
 62
     7
  6
CONTINUOUS
  0
LAYER
  5
18
100
AcDbSymbolTableRecord
100
AcDbLayerTableRecord
  2
3
 70
     0
 62
     7
  6
CONTINUOUS
  0
LAYER
  5
19
100
AcDbSymbolTableRecord
100
AcDbLayerTableRecord
  2
4
 70
     0
 62
     7
  6
CONTINUOUS
  0
LAYER
  5
1A
100
AcDbSymbolTableRecord
100
AcDbLayerTableRecord
  2
5
 70
     0
 62
     7
  6
CONTINUOUS
  0
LAYER
  5
1B
100
AcDbSymbolTableRecord
100
AcDbLayerTableRecord
  2
14
 70
     0
 62
     7
  6
CONTINUOUS
  0
LAYER
  5
1C
100
AcDbSymbolTableRecord
100
AcDbLayerTableRecord
  2
15
 70
     0
 62
     7
  6
CONTINUOUS
  0
LAYER
  5
1D
100
AcDbSymbolTableRecord
100
AcDbLayerTableRecord
  2
17
 70
     0
 62
     7
  6
CONTINUOUS
  0
LAYER
  5
1E
100
AcDbSymbolTableRecord
100
AcDbLayerTableRecord
  2
18
 70
     0
 62
     7
  6
CONTINUOUS
  0
LAYER
  5
1F
100
AcDbSymbolTableRecord
100
AcDbLayerTableRecord
  2
19
 70
     0
 62
     7
  6
CONTINUOUS
  0
LAYER
  5
20
100
AcDbSymbolTableRecord
100
AcDbLayerTableRecord
  2
20
 70
     0
 62
     7
  6
CONTINUOUS
  0
LAYER
  5
21
100
AcDbSymbolTableRecord
100
AcDbLayerTableRecord
  2
21
 70
     0
 62
     7
  6
CONTINUOUS
  0
ENDTAB
  0
TABLE
  2
STYLE
  5
2
100
AcDbSymbolTable
 70
     1
  0
STYLE
  5
24
100
AcDbSymbolTableRecord
100
AcDbTextStyleTableRecord
  2
STANDARD
 70
    64
 40
0.0
 41
1.0
 50
0.0
 71
     0
 42
1.0
  3
txt
  4
BIGFONT
  0
ENDTAB
  0
TABLE
  2
VIEW
  5
4
100
AcDbSymbolTable
 70
     0
  0
ENDTAB
  0
TABLE
  2
UCS
  5
5
100
AcDbSymbolTable
 70
     0
  0
ENDTAB
  0
TABLE
  2
APPID
  5
7
100
AcDbSymbolTable
 70
     1
  0
APPID
  5
23
100
AcDbSymbolTableRecord
100
AcDbRegAppTableRecord
  2
ACAD
 70
     0
  0
ENDTAB
  0
TABLE
  2
DIMSTYLE
  5
8
100
AcDbSymbolTable
 70
     1
  0
DIMSTYLE
105
35
100
AcDbSymbolTableRecord
100
AcDbDimStyleTableRecord
  2
STANDARD
 70
     0
  3

  4

  5

  6

  7

 40
7.0
 41
2.0
 42
1.0
 43
0.38
 44
2.0
 45
0.0
 46
0.0
 47
0.0
 48
0.0
 71
     0
 72
     0
 73
     0
 74
     0
 75
     0
 76
     0
 77
     1
 78
     0
140
3.3
141
0.09
142
0.0
143
25.4
144
1.0
145
0.0
146
1.0
147
0.5
170
     0
171
     2
172
     0
173
     0
174
     0
175
     0
176
     0
177
     0
178
     0
270
     2
271
     2
272
     4
273
     2
274
     2
275
     0
280
     0
281
     0
282
     0
283
     1
284
     0
285
     0
286
     0
287
     3
288
     0
340
24
  0
ENDTAB
  0
TABLE
  2
BLOCK_RECORD
  5
30
100
AcDbSymbolTable
 70
     9
  0
BLOCK_RECORD
  5
2E
100
AcDbSymbolTableRecord
100
AcDbBlockTableRecord
  2
*MODEL_SPACE
  0
BLOCK_RECORD
  5
2F
100
AcDbSymbolTableRecord
100
AcDbBlockTableRecord
  2
*PAPER_SPACE
  0
BLOCK_RECORD
  5
25
100
AcDbSymbolTableRecord
100
AcDbBlockTableRecord
  2
*D0
  0
BLOCK_RECORD
  5
26
100
AcDbSymbolTableRecord
100
AcDbBlockTableRecord
  2
*D1
  0
BLOCK_RECORD
  5
27
100
AcDbSymbolTableRecord
100
AcDbBlockTableRecord
  2
*D2
  0
BLOCK_RECORD
  5
28
100
AcDbSymbolTableRecord
100
AcDbBlockTableRecord
  2
*D3
  0
BLOCK_RECORD
  5
29
100
AcDbSymbolTableRecord
100
AcDbBlockTableRecord
  2
*D4
  0
BLOCK_RECORD
  5
2A
100
AcDbSymbolTableRecord
100
AcDbBlockTableRecord
  2
*D5
  0
BLOCK_RECORD
  5
2B
100
AcDbSymbolTableRecord
100
AcDbBlockTableRecord
  2
*D6
  0
BLOCK_RECORD
  5
2C
100
AcDbSymbolTableRecord
100
AcDbBlockTableRecord
  2
*D7
  0
BLOCK_RECORD
  5
2D
100
AcDbSymbolTableRecord
100
AcDbBlockTableRecord
  2
*D8
  0
ENDTAB
  0
ENDSEC
  0
SECTION
  2
BLOCKS
  0
BLOCK
  5
31
100
AcDbEntity
  8
0
100
AcDbBlockBegin
  2
*MODEL_SPACE
 70
     0
 10
0.0
 20
0.0
 30
0.0
  3
*MODEL_SPACE
  1

  0
ENDBLK
  5
32
100
AcDbEntity
  8
0
100
AcDbBlockEnd
  0
BLOCK
  5
33
100
AcDbEntity
 67
     1
  8
0
100
AcDbBlockBegin
  2
*PAPER_SPACE
 70
     0
 10
0.0
 20
0.0
 30
0.0
  3
*PAPER_SPACE
  1

  0
ENDBLK
  5
34
100
AcDbEntity
 67
     1
  8
0
100
AcDbBlockEnd
  0
BLOCK
  5
8E2
100
AcDbEntity
  8
5
100
AcDbBlockBegin
  2
*D0
 70
     1
 10
0.0
 20
0.0
 30
0.0
  3
*D0
  1

  0
LINE
  5
8E3
100
AcDbEntity
  8
5
 62
     2
100
AcDbLine
 10
-1176.73958
 20
560.260388
 30
0.0
 11
-1176.73958
 21
774.369125
 31
0.0
  0
LINE
  5
8E4
100
AcDbEntity
  8
5
 62
     2
100
AcDbLine
 10
-1176.73958
 20
767.369125
 30
0.0
 11
-1163.216618
 21
763.745659
 31
0.0
  0
LINE
  5
8E5
100
AcDbEntity
  8
5
 62
     2
100
AcDbLine
 10
-1176.73958
 20
767.369125
 30
0.0
 11
-1163.216618
 21
770.992592
 31
0.0
  0
LINE
  5
8E6
100
AcDbEntity
  8
5
 62
     2
100
AcDbLine
 10
-1163.216618
 20
763.745659
 30
0.0
 11
-1163.216618
 21
770.992592
 31
0.0
  0
LINE
  5
8E7
100
AcDbEntity
  8
5
 62
     2
100
AcDbLine
 10
-1176.73958
 20
767.369125
 30
0.0
 11
-816.73958
 21
767.369125
 31
0.0
  0
LINE
  5
8E8
100
AcDbEntity
  8
5
 62
     2
100
AcDbLine
 10
-816.73958
 20
767.369125
 30
0.0
 11
-830.262541
 21
770.992592
 31
0.0
  0
LINE
  5
8E9
100
AcDbEntity
  8
5
 62
     2
100
AcDbLine
 10
-816.73958
 20
767.369125
 30
0.0
 11
-830.262541
 21
763.745659
 31
0.0
  0
LINE
  5
8EA
100
AcDbEntity
  8
5
 62
     2
100
AcDbLine
 10
-830.262541
 20
770.992592
 30
0.0
 11
-830.262541
 21
763.745659
 31
0.0
  0
LINE
  5
8EB
100
AcDbEntity
  8
5
 62
     2
100
AcDbLine
 10
-816.73958
 20
714.837375
 30
0.0
 11
-816.73958
 21
774.369125
 31
0.0
  0
ENDBLK
  5
8EC
100
AcDbEntity
  8
5
100
AcDbBlockEnd
  0
BLOCK
  5
8ED
100
AcDbEntity
  8
5
100
AcDbBlockBegin
  2
*D1
 70
     1
 10
0.0
 20
0.0
 30
0.0
  3
*D1
  1

  0
LINE
  5
8EE
100
AcDbEntity
  8
5
 62
     2
100
AcDbLine
 10
-816.73958
 20
714.837375
 30
0.0
 11
-816.73958
 21
774.369125
 31
0.0
  0
LINE
  5
8EF
100
AcDbEntity
  8
5
 62
     2
100
AcDbLine
 10
-816.73958
 20
767.369125
 30
0.0
 11
-803.216618
 21
763.745659
 31
0.0
  0
LINE
  5
8F0
100
AcDbEntity
  8
5
 62
     2
100
AcDbLine
 10
-816.73958
 20
767.369125
 30
0.0
 11
-803.216618
 21
770.992592
 31
0.0
  0
LINE
  5
8F1
100
AcDbEntity
  8
5
 62
     2
100
AcDbLine
 10
-803.216618
 20
763.745659
 30
0.0
 11
-803.216618
 21
770.992592
 31
0.0
  0
LINE
  5
8F2
100
AcDbEntity
  8
5
 62
     2
100
AcDbLine
 10
-816.73958
 20
767.369125
 30
0.0
 11
-96.73958
 21
767.369125
 31
0.0
  0
LINE
  5
8F3
100
AcDbEntity
  8
5
 62
     2
100
AcDbLine
 10
-96.73958
 20
767.369125
 30
0.0
 11
-110.262541
 21
770.992592
 31
0.0
  0
LINE
  5
8F4
100
AcDbEntity
  8
5
 62
     2
100
AcDbLine
 10
-96.73958
 20
767.369125
 30
0.0
 11
-110.262541
 21
763.745659
 31
0.0
  0
LINE
  5
8F5
100
AcDbEntity
  8
5
 62
     2
100
AcDbLine
 10
-110.262541
 20
770.992592
 30
0.0
 11
-110.262541
 21
763.745659
 31
0.0
  0
LINE
  5
8F6
100
AcDbEntity
  8
5
 62
     2
100
AcDbLine
 10
-96.73958
 20
565.530888
 30
0.0
 11
-96.73958
 21
774.369125
 31
0.0
  0
ENDBLK
  5
8F7
100
AcDbEntity
  8
5
100
AcDbBlockEnd
  0
BLOCK
  5
8F8
100
AcDbEntity
  8
5
100
AcDbBlockBegin
  2
*D2
 70
     1
 10
0.0
 20
0.0
 30
0.0
  3
*D2
  1

  0
TEXT
  5
8F9
100
AcDbEntity
  8
5
 62
     2
100
AcDbText
 10
237.090421
 20
178.465166
 30
0.0
 40
23.1
  1
60
 41
1.4
 72
     5
 11
262.96242
 21
178.465166
 31
0.0
100
AcDbText
  0
LINE
  5
8FA
100
AcDbEntity
  8
5
 62
     2
100
AcDbLine
 10
223.26042
 20
92.139084
 30
0.0
 11
223.26042
 21
181.965166
 31
0.0
  0
LINE
  5
8FB
100
AcDbEntity
  8
5
 62
     2
100
AcDbLine
 10
223.26042
 20
174.965166
 30
0.0
 11
236.783382
 21
171.341699
 31
0.0
  0
LINE
  5
8FC
100
AcDbEntity
  8
5
 62
     2
100
AcDbLine
 10
223.26042
 20
174.965166
 30
0.0
 11
236.783382
 21
178.588633
 31
0.0
  0
LINE
  5
8FD
100
AcDbEntity
  8
5
 62
     2
100
AcDbLine
 10
236.783382
 20
171.341699
 30
0.0
 11
236.783382
 21
178.588633
 31
0.0
  0
LINE
  5
8FE
100
AcDbEntity
  8
5
 62
     2
100
AcDbLine
 10
223.26042
 20
174.965166
 30
0.0
 11
283.26042
 21
174.965166
 31
0.0
  0
LINE
  5
8FF
100
AcDbEntity
  8
5
 62
     2
100
AcDbLine
 10
283.26042
 20
174.965166
 30
0.0
 11
269.737459
 21
178.588633
 31
0.0
  0
LINE
  5
900
100
AcDbEntity
  8
5
 62
     2
100
AcDbLine
 10
283.26042
 20
174.965166
 30
0.0
 11
269.737459
 21
171.341699
 31
0.0
  0
LINE
  5
901
100
AcDbEntity
  8
5
 62
     2
100
AcDbLine
 10
269.737459
 20
178.588633
 30
0.0
 11
269.737459
 21
171.341699
 31
0.0
  0
LINE
  5
902
100
AcDbEntity
  8
5
 62
     2
100
AcDbLine
 10
283.26042
 20
103.403181
 30
0.0
 11
283.26042
 21
181.965166
 31
0.0
  0
ENDBLK
  5
903
100
AcDbEntity
  8
5
100
AcDbBlockEnd
  0
BLOCK
  5
904
100
AcDbEntity
  8
5
100
AcDbBlockBegin
  2
*D3
 70
     1
 10
0.0
 20
0.0
 30
0.0
  3
*D3
  1

  0
LINE
  5
905
100
AcDbEntity
  8
5
 62
     2
100
AcDbLine
 10
283.26042
 20
103.403181
 30
0.0
 11
283.26042
 21
255.470173
 31
0.0
  0
LINE
  5
906
100
AcDbEntity
  8
5
 62
     2
100
AcDbLine
 10
283.26042
 20
248.470173
 30
0.0
 11
269.737459
 21
252.09364
 31
0.0
  0
LINE
  5
907
100
AcDbEntity
  8
5
 62
     2
100
AcDbLine
 10
283.26042
 20
248.470173
 30
0.0
 11
269.737459
 21
244.846706
 31
0.0
  0
LINE
  5
908
100
AcDbEntity
  8
5
 62
     2
100
AcDbLine
 10
269.737459
 20
252.09364
 30
0.0
 11
269.737459
 21
244.846706
 31
0.0
  0
LINE
  5
909
100
AcDbEntity
  8
5
 62
     2
100
AcDbLine
 10
248.26042
 20
248.470173
 30
0.0
 11
534.620419
 21
248.470173
 31
0.0
  0
LINE
  5
90A
100
AcDbEntity
  8
5
 62
     2
100
AcDbLine
 10
377.26042
 20
248.470173
 30
0.0
 11
390.783382
 21
244.846706
 31
0.0
  0
LINE
  5
90B
100
AcDbEntity
  8
5
 62
     2
100
AcDbLine
 10
377.26042
 20
248.470173
 30
0.0
 11
390.783382
 21
252.09364
 31
0.0
  0
LINE
  5
90C
100
AcDbEntity
  8
5
 62
     2
100
AcDbLine
 10
390.783382
 20
244.846706
 30
0.0
 11
390.783382
 21
252.09364
 31
0.0
  0
LINE
  5
90D
100
AcDbEntity
  8
5
 62
     2
100
AcDbLine
 10
377.26042
 20
-67.323104
 30
0.0
 11
377.26042
 21
255.470173
 31
0.0
  0
ENDBLK
  5
90E
100
AcDbEntity
  8
5
100
AcDbBlockEnd
  0
BLOCK
  5
90F
100
AcDbEntity
  8
5
100
AcDbBlockBegin
  2
*D4
 70
     1
 10
0.0
 20
0.0
 30
0.0
  3
*D4
  1

  0
LINE
  5
910
100
AcDbEntity
  8
5
 62
     2
100
AcDbLine
 10
77.26042
 20
-33.386612
 30
0.0
 11
77.26042
 21
255.470173
 31
0.0
  0
LINE
  5
911
100
AcDbEntity
  8
5
 62
     2
100
AcDbLine
 10
77.26042
 20
248.470173
 30
0.0
 11
90.783382
 21
244.846706
 31
0.0
  0
LINE
  5
912
100
AcDbEntity
  8
5
 62
     2
100
AcDbLine
 10
77.26042
 20
248.470173
 30
0.0
 11
90.783382
 21
252.09364
 31
0.0
  0
LINE
  5
913
100
AcDbEntity
  8
5
 62
     2
100
AcDbLine
 10
90.783382
 20
244.846706
 30
0.0
 11
90.783382
 21
252.09364
 31
0.0
  0
LINE
  5
914
100
AcDbEntity
  8
5
 62
     2
100
AcDbLine
 10
77.26042
 20
248.470173
 30
0.0
 11
283.26042
 21
248.470173
 31
0.0
  0
LINE
  5
915
100
AcDbEntity
  8
5
 62
     2
100
AcDbLine
 10
283.26042
 20
248.470173
 30
0.0
 11
269.737459
 21
252.09364
 31
0.0
  0
LINE
  5
916
100
AcDbEntity
  8
5
 62
     2
100
AcDbLine
 10
283.26042
 20
248.470173
 30
0.0
 11
269.737459
 21
244.846706
 31
0.0
  0
LINE
  5
917
100
AcDbEntity
  8
5
 62
     2
100
AcDbLine
 10
269.737459
 20
252.09364
 30
0.0
 11
269.737459
 21
244.846706
 31
0.0
  0
LINE
  5
918
100
AcDbEntity
  8
5
 62
     2
100
AcDbLine
 10
283.26042
 20
103.403181
 30
0.0
 11
283.26042
 21
255.470173
 31
0.0
  0
ENDBLK
  5
919
100
AcDbEntity
  8
5
100
AcDbBlockEnd
  0
BLOCK
  5
91A
100
AcDbEntity
  8
5
100
AcDbBlockBegin
  2
*D5
 70
     1
 10
0.0
 20
0.0
 30
0.0
  3
*D5
  1

  0
TEXT
  5
91B
100
AcDbEntity
  8
5
 62
     2
100
AcDbText
 10
18.830221
 20
-88.141612
 30
0.0
 40
23.1
  1
307
 50
90.0
 41
1.4
 72
     5
 11
18.830221
 21
-46.099613
 31
0.0
100
AcDbText
  0
LINE
  5
91C
100
AcDbEntity
  8
5
 62
     2
100
AcDbLine
 10
206.26042
 20
-217.386612
 30
0.0
 11
15.330221
 21
-217.386612
 31
0.0
  0
LINE
  5
91D
100
AcDbEntity
  8
5
 62
     2
100
AcDbLine
 10
22.330221
 20
-217.386612
 30
0.0
 11
25.953687
 21
-203.863651
 31
0.0
  0
LINE
  5
91E
100
AcDbEntity
  8
5
 62
     2
100
AcDbLine
 10
22.330221
 20
-217.386612
 30
0.0
 11
18.706754
 21
-203.863651
 31
0.0
  0
LINE
  5
91F
100
AcDbEntity
  8
5
 62
     2
100
AcDbLine
 10
25.953687
 20
-203.863651
 30
0.0
 11
18.706754
 21
-203.863651
 31
0.0
  0
LINE
  5
920
100
AcDbEntity
  8
5
 62
     2
100
AcDbLine
 10
22.330221
 20
-217.386612
 30
0.0
 11
22.330221
 21
89.613388
 31
0.0
  0
LINE
  5
921
100
AcDbEntity
  8
5
 62
     2
100
AcDbLine
 10
22.330221
 20
89.613388
 30
0.0
 11
18.706754
 21
76.090426
 31
0.0
  0
LINE
  5
922
100
AcDbEntity
  8
5
 62
     2
100
AcDbLine
 10
22.330221
 20
89.613388
 30
0.0
 11
25.953687
 21
76.090426
 31
0.0
  0
LINE
  5
923
100
AcDbEntity
  8
5
 62
     2
100
AcDbLine
 10
18.706754
 20
76.090426
 30
0.0
 11
25.953687
 21
76.090426
 31
0.0
  0
LINE
  5
924
100
AcDbEntity
  8
5
 62
     2
100
AcDbLine
 10
259.289858
 20
89.613388
 30
0.0
 11
15.330221
 21
89.613388
 31
0.0
  0
ENDBLK
  5
925
100
AcDbEntity
  8
5
100
AcDbBlockEnd
  0
BLOCK
  5
926
100
AcDbEntity
  8
5
100
AcDbBlockBegin
  2
*D6
 70
     1
 10
0.0
 20
0.0
 30
0.0
  3
*D6
  1

  0
TEXT
  5
927
100
AcDbEntity
  8
5
 62
     2
100
AcDbText
 10
18.830221
 20
-397.641612
 30
0.0
 40
23.1
  1
312
 50
90.0
 41
1.4
 72
     5
 11
18.830221
 21
-355.599613
 31
0.0
100
AcDbText
  0
LINE
  5
928
100
AcDbEntity
  8
5
 62
     2
100
AcDbLine
 10
213.56042
 20
-529.386612
 30
0.0
 11
15.330221
 21
-529.386612
 31
0.0
  0
LINE
  5
929
100
AcDbEntity
  8
5
 62
     2
100
AcDbLine
 10
22.330221
 20
-529.386612
 30
0.0
 11
25.953687
 21
-515.863651
 31
0.0
  0
LINE
  5
92A
100
AcDbEntity
  8
5
 62
     2
100
AcDbLine
 10
22.330221
 20
-529.386612
 30
0.0
 11
18.706754
 21
-515.863651
 31
0.0
  0
LINE
  5
92B
100
AcDbEntity
  8
5
 62
     2
100
AcDbLine
 10
25.953687
 20
-515.863651
 30
0.0
 11
18.706754
 21
-515.863651
 31
0.0
  0
LINE
  5
92C
100
AcDbEntity
  8
5
 62
     2
100
AcDbLine
 10
22.330221
 20
-529.386612
 30
0.0
 11
22.330221
 21
-217.386612
 31
0.0
  0
LINE
  5
92D
100
AcDbEntity
  8
5
 62
     2
100
AcDbLine
 10
22.330221
 20
-217.386612
 30
0.0
 11
18.706754
 21
-230.909574
 31
0.0
  0
LINE
  5
92E
100
AcDbEntity
  8
5
 62
     2
100
AcDbLine
 10
22.330221
 20
-217.386612
 30
0.0
 11
25.953687
 21
-230.909574
 31
0.0
  0
LINE
  5
92F
100
AcDbEntity
  8
5
 62
     2
100
AcDbLine
 10
18.706754
 20
-230.909574
 30
0.0
 11
25.953687
 21
-230.909574
 31
0.0
  0
ENDBLK
  5
930
100
AcDbEntity
  8
5
100
AcDbBlockEnd
  0
BLOCK
  5
931
100
AcDbEntity
  8
5
100
AcDbBlockBegin
  2
*D7
 70
     1
 10
0.0
 20
0.0
 30
0.0
  3
*D7
  1

  0
TEXT
  5
932
100
AcDbEntity
  8
5
 62
     2
100
AcDbText
 10
18.83022
 20
-728.301611
 30
0.0
 40
23.1
  1
253(概略)
 50
90.0
 41
1.4
 72
     5
 11
18.83022
 21
-589.239613
 31
0.0
100
AcDbText
  0
LINE
  5
933
100
AcDbEntity
  8
5
 62
     2
100
AcDbLine
 10
269.76042
 20
-781.686612
 30
0.0
 11
15.330221
 21
-781.686612
 31
0.0
  0
LINE
  5
934
100
AcDbEntity
  8
5
 62
     2
100
AcDbLine
 10
22.330221
 20
-781.686612
 30
0.0
 11
25.953687
 21
-768.163651
 31
0.0
  0
LINE
  5
935
100
AcDbEntity
  8
5
 62
     2
100
AcDbLine
 10
22.330221
 20
-781.686612
 30
0.0
 11
18.706754
 21
-768.163651
 31
0.0
  0
LINE
  5
936
100
AcDbEntity
  8
5
 62
     2
100
AcDbLine
 10
25.953687
 20
-768.163651
 30
0.0
 11
18.706754
 21
-768.163651
 31
0.0
  0
LINE
  5
937
100
AcDbEntity
  8
5
 62
     2
100
AcDbLine
 10
22.330221
 20
-781.686612
 30
0.0
 11
22.330221
 21
-529.386612
 31
0.0
  0
LINE
  5
938
100
AcDbEntity
  8
5
 62
     2
100
AcDbLine
 10
22.330221
 20
-529.386612
 30
0.0
 11
18.706754
 21
-542.909574
 31
0.0
  0
LINE
  5
939
100
AcDbEntity
  8
5
 62
     2
100
AcDbLine
 10
22.330221
 20
-529.386612
 30
0.0
 11
25.953687
 21
-542.909574
 31
0.0
  0
LINE
  5
93A
100
AcDbEntity
  8
5
 62
     2
100
AcDbLine
 10
18.706754
 20
-542.909574
 30
0.0
 11
25.953687
 21
-542.909574
 31
0.0
  0
LINE
  5
93B
100
AcDbEntity
  8
5
 62
     2
100
AcDbLine
 10
213.56042
 20
-529.386612
 30
0.0
 11
15.330221
 21
-529.386612
 31
0.0
  0
ENDBLK
  5
93C
100
AcDbEntity
  8
5
100
AcDbBlockEnd
  0
BLOCK
  5
93D
100
AcDbEntity
  8
5
100
AcDbBlockBegin
  2
*D8
 70
     1
 10
0.0
 20
0.0
 30
0.0
  3
*D8
  1

  0
TEXT
  5
93E
100
AcDbEntity
  8
5
 62
     2
100
AcDbText
 10
267.090421
 20
-838.045776
 30
0.0
 40
23.1
  1
78
 41
1.4
 72
     5
 11
292.96242
 21
-838.045776
 31
0.0
100
AcDbText
  0
LINE
  5
93F
100
AcDbEntity
  8
5
 62
     2
100
AcDbLine
 10
244.26042
 20
-718.886612
 30
0.0
 11
244.26042
 21
-848.545776
 31
0.0
  0
LINE
  5
940
100
AcDbEntity
  8
5
 62
     2
100
AcDbLine
 10
244.26042
 20
-841.545776
 30
0.0
 11
257.783382
 21
-845.169243
 31
0.0
  0
LINE
  5
941
100
AcDbEntity
  8
5
 62
     2
100
AcDbLine
 10
244.26042
 20
-841.545776
 30
0.0
 11
257.783382
 21
-837.92231
 31
0.0
  0
LINE
  5
942
100
AcDbEntity
  8
5
 62
     2
100
AcDbLine
 10
257.783382
 20
-845.169243
 30
0.0
 11
257.783382
 21
-837.92231
 31
0.0
  0
LINE
  5
943
100
AcDbEntity
  8
5
 62
     2
100
AcDbLine
 10
244.26042
 20
-841.545776
 30
0.0
 11
322.26042
 21
-841.545776
 31
0.0
  0
LINE
  5
944
100
AcDbEntity
  8
5
 62
     2
100
AcDbLine
 10
322.26042
 20
-841.545776
 30
0.0
 11
308.737459
 21
-837.92231
 31
0.0
  0
LINE
  5
945
100
AcDbEntity
  8
5
 62
     2
100
AcDbLine
 10
322.26042
 20
-841.545776
 30
0.0
 11
308.737459
 21
-845.169243
 31
0.0
  0
LINE
  5
946
100
AcDbEntity
  8
5
 62
     2
100
AcDbLine
 10
308.737459
 20
-837.92231
 30
0.0
 11
308.737459
 21
-845.169243
 31
0.0
  0
LINE
  5
947
100
AcDbEntity
  8
5
 62
     2
100
AcDbLine
 10
322.26042
 20
-718.886612
 30
0.0
 11
322.26042
 21
-848.545776
 31
0.0
  0
ENDBLK
  5
948
100
AcDbEntity
  8
5
100
AcDbBlockEnd
  0
ENDSEC
  0
SECTION
  2
ENTITIES
  0
LINE
  5
36
100
AcDbEntity
  8
1
  6
CENTER
 62
     2
100
AcDbLine
 10
-1034.974857
 20
-529.386612
 30
0.0
 11
-599.966327
 21
-529.386612
 31
0.0
  0
LINE
  5
37
100
AcDbEntity
  8
1
  6
CENTER
 62
     2
100
AcDbLine
 10
220.56042
 20
-529.386612
 30
0.0
 11
344.978689
 21
-529.386612
 31
0.0
  0
LINE
  5
38
100
AcDbEntity
  8
1
100
AcDbLine
 10
-879.23958
 20
-217.386612
 30
0.0
 11
-754.23958
 21
-217.386612
 31
0.0
  0
LINE
  5
39
100
AcDbEntity
  8
1
100
AcDbLine
 10
-876.23958
 20
-233.386612
 30
0.0
 11
-757.23958
 21
-233.386612
 31
0.0
  0
LINE
  5
3A
100
AcDbEntity
  8
1
100
AcDbLine
 10
-754.23958
 20
-217.386612
 30
0.0
 11
-754.23958
 21
-230.386612
 31
0.0
  0
LINE
  5
3B
100
AcDbEntity
  8
1
100
AcDbLine
 10
-879.23958
 20
-217.386612
 30
0.0
 11
-879.23958
 21
-230.386612
 31
0.0
  0
LINE
  5
3C
100
AcDbEntity
  8
1
100
AcDbLine
 10
-850.73958
 20
-770.386612
 30
0.0
 11
-782.73958
 21
-770.386612
 31
0.0
  0
LINE
  5
3D
100
AcDbEntity
  8
1
  6
CENTER
 62
     2
100
AcDbLine
 10
-791.73958
 20
-757.854678
 30
0.0
 11
-791.73958
 21
-788.455264
 31
0.0
  0
LINE
  5
3E
100
AcDbEntity
  8
1
  6
CENTER
 62
     2
100
AcDbLine
 10
-841.73958
 20
-757.854678
 30
0.0
 11
-841.73958
 21
-788.455264
 31
0.0
  0
LINE
  5
3F
100
AcDbEntity
  8
1
100
AcDbLine
 10
-789.73958
 20
-329.394489
 30
0.0
 11
-789.73958
 21
-247.386612
 31
0.0
  0
LINE
  5
40
100
AcDbEntity
  8
1
100
AcDbLine
 10
-843.73958
 20
-329.394489
 30
0.0
 11
-843.73958
 21
-247.386612
 31
0.0
  0
ARC
  5
41
100
AcDbEntity
  8
1
100
AcDbCircle
 10
-792.73958
 20
-329.394489
 30
0.0
 40
3.0
100
AcDbArc
 50
345.674888
 51
360.0
  0
ARC
  5
42
100
AcDbEntity
  8
1
100
AcDbCircle
 10
-840.73958
 20
-329.394489
 30
0.0
 40
3.0
100
AcDbArc
 50
180.0
 51
194.325112
  0
LINE
  5
43
100
AcDbEntity
  8
1
100
AcDbLine
 10
-849.222894
 20
-755.565931
 30
0.0
 11
-849.222894
 21
-745.386612
 31
0.0
  0
LINE
  5
44
100
AcDbEntity
  8
1
100
AcDbLine
 10
-784.256265
 20
-755.565931
 30
0.0
 11
-784.256265
 21
-745.386612
 31
0.0
  0
LINE
  5
45
100
AcDbEntity
  8
1
100
AcDbLine
 10
-784.23958
 20
-776.186612
 30
0.0
 11
-784.23958
 21
-780.964925
 31
0.0
  0
LINE
  5
46
100
AcDbEntity
  8
1
100
AcDbLine
 10
-784.23958
 20
-780.964925
 30
0.0
 11
-785.48958
 21
-781.686612
 31
0.0
  0
LINE
  5
47
100
AcDbEntity
  8
1
100
AcDbLine
 10
-785.48958
 20
-781.686612
 30
0.0
 11
-797.98958
 21
-781.686612
 31
0.0
  0
LINE
  5
48
100
AcDbEntity
  8
1
100
AcDbLine
 10
-787.98958
 20
-776.186612
 30
0.0
 11
-787.98958
 21
-780.964925
 31
0.0
  0
ARC
  5
49
100
AcDbEntity
  8
1
100
AcDbCircle
 10
-786.11458
 20
-778.554549
 30
0.0
 40
3.053774
100
AcDbArc
 50
232.121121
 51
307.878879
  0
LINE
  5
4A
100
AcDbEntity
  8
1
100
AcDbLine
 10
-799.23958
 20
-776.186612
 30
0.0
 11
-799.23958
 21
-780.964925
 31
0.0
  0
LINE
  5
4B
100
AcDbEntity
  8
1
100
AcDbLine
 10
-799.23958
 20
-780.964925
 30
0.0
 11
-797.98958
 21
-781.686612
 31
0.0
  0
LINE
  5
4C
100
AcDbEntity
  8
1
100
AcDbLine
 10
-795.48958
 20
-776.186612
 30
0.0
 11
-795.48958
 21
-780.964925
 31
0.0
  0
ARC
  5
4D
100
AcDbEntity
  8
1
100
AcDbCircle
 10
-797.36458
 20
-778.554549
 30
0.0
 40
3.053774
100
AcDbArc
 50
232.121121
 51
307.878879
  0
ARC
  5
4E
100
AcDbEntity
  8
1
100
AcDbCircle
 10
-791.73958
 20
-770.358323
 30
0.0
 40
11.25
100
AcDbArc
 50
250.528777
 51
289.471219
  0
LINE
  5
4F
100
AcDbEntity
  8
1
100
AcDbLine
 10
-784.03958
 20
-774.186612
 30
0.0
 11
-784.03958
 21
-776.186612
 31
0.0
  0
LINE
  5
50
100
AcDbEntity
  8
1
100
AcDbLine
 10
-784.03958
 20
-776.186612
 30
0.0
 11
-799.43958
 21
-776.186612
 31
0.0
  0
LINE
  5
51
100
AcDbEntity
  8
1
100
AcDbLine
 10
-799.43958
 20
-776.186612
 30
0.0
 11
-799.43958
 21
-774.186612
 31
0.0
  0
LINE
  5
52
100
AcDbEntity
  8
1
100
AcDbLine
 10
-791.73958
 20
-776.186612
 30
0.0
 11
-792.23958
 21
-774.186612
 31
0.0
  0
LINE
  5
53
100
AcDbEntity
  8
1
100
AcDbLine
 10
-791.73958
 20
-774.186612
 30
0.0
 11
-791.23958
 21
-776.186612
 31
0.0
  0
LINE
  5
54
100
AcDbEntity
  8
1
100
AcDbLine
 10
-834.23958
 20
-776.186612
 30
0.0
 11
-834.23958
 21
-780.964925
 31
0.0
  0
LINE
  5
55
100
AcDbEntity
  8
1
100
AcDbLine
 10
-834.23958
 20
-780.964925
 30
0.0
 11
-835.48958
 21
-781.686612
 31
0.0
  0
LINE
  5
56
100
AcDbEntity
  8
1
100
AcDbLine
 10
-835.48958
 20
-781.686612
 30
0.0
 11
-847.98958
 21
-781.686612
 31
0.0
  0
LINE
  5
57
100
AcDbEntity
  8
1
100
AcDbLine
 10
-837.98958
 20
-776.186612
 30
0.0
 11
-837.98958
 21
-780.964925
 31
0.0
  0
ARC
  5
58
100
AcDbEntity
  8
1
100
AcDbCircle
 10
-836.11458
 20
-778.554549
 30
0.0
 40
3.053774
100
AcDbArc
 50
232.121121
 51
307.878879
  0
ARC
  5
59
100
AcDbEntity
  8
1
100
AcDbCircle
 10
-841.73958
 20
-770.358323
 30
0.0
 40
11.25
100
AcDbArc
 50
250.528777
 51
289.471219
  0
LINE
  5
5A
100
AcDbEntity
  8
1
100
AcDbLine
 10
-849.23958
 20
-776.186612
 30
0.0
 11
-849.23958
 21
-780.964925
 31
0.0
  0
LINE
  5
5B
100
AcDbEntity
  8
1
100
AcDbLine
 10
-849.23958
 20
-780.964925
 30
0.0
 11
-847.98958
 21
-781.686612
 31
0.0
  0
LINE
  5
5C
100
AcDbEntity
  8
1
100
AcDbLine
 10
-845.48958
 20
-776.186612
 30
0.0
 11
-845.48958
 21
-780.964925
 31
0.0
  0
ARC
  5
5D
100
AcDbEntity
  8
1
100
AcDbCircle
 10
-847.36458
 20
-778.554549
 30
0.0
 40
3.053774
100
AcDbArc
 50
232.121121
 51
307.878879
  0
LINE
  5
5E
100
AcDbEntity
  8
1
100
AcDbLine
 10
-834.03958
 20
-774.186612
 30
0.0
 11
-834.03958
 21
-776.186612
 31
0.0
  0
LINE
  5
5F
100
AcDbEntity
  8
1
100
AcDbLine
 10
-834.03958
 20
-776.186612
 30
0.0
 11
-849.43958
 21
-776.186612
 31
0.0
  0
LINE
  5
60
100
AcDbEntity
  8
1
100
AcDbLine
 10
-849.43958
 20
-776.186612
 30
0.0
 11
-849.43958
 21
-774.186612
 31
0.0
  0
LINE
  5
61
100
AcDbEntity
  8
1
100
AcDbLine
 10
-841.73958
 20
-776.186612
 30
0.0
 11
-842.23958
 21
-774.186612
 31
0.0
  0
LINE
  5
62
100
AcDbEntity
  8
1
100
AcDbLine
 10
-841.73958
 20
-774.186612
 30
0.0
 11
-841.23958
 21
-776.186612
 31
0.0
  0
LINE
  5
63
100
AcDbEntity
  8
1
  6
CENTER
 62
     2
100
AcDbLine
 10
-860.93458
 20
-202.008126
 30
0.0
 11
-860.93458
 21
-250.21715
 31
0.0
  0
LINE
  5
64
100
AcDbEntity
  8
1
  6
CENTER
 62
     2
100
AcDbLine
 10
-772.54458
 20
-202.008126
 30
0.0
 11
-772.54458
 21
-250.21715
 31
0.0
  0
LINE
  5
65
100
AcDbEntity
  8
1
100
AcDbLine
 10
220.76042
 20
-217.386612
 30
0.0
 11
345.76042
 21
-217.386612
 31
0.0
  0
LINE
  5
66
100
AcDbEntity
  8
1
100
AcDbLine
 10
223.76042
 20
-233.386612
 30
0.0
 11
342.76042
 21
-233.386612
 31
0.0
  0
LINE
  5
67
100
AcDbEntity
  8
1
100
AcDbLine
 10
345.76042
 20
-217.386612
 30
0.0
 11
345.76042
 21
-230.386612
 31
0.0
  0
LINE
  5
68
100
AcDbEntity
  8
1
100
AcDbLine
 10
220.76042
 20
-217.386612
 30
0.0
 11
220.76042
 21
-230.386612
 31
0.0
  0
LINE
  5
69
100
AcDbEntity
  8
1
100
AcDbLine
 10
310.26042
 20
-340.922623
 30
0.0
 11
310.26042
 21
-247.386612
 31
0.0
  0
LINE
  5
6A
100
AcDbEntity
  8
1
100
AcDbLine
 10
256.26042
 20
-340.922623
 30
0.0
 11
256.26042
 21
-247.386612
 31
0.0
  0
LINE
  5
6B
100
AcDbEntity
  8
1
  6
CENTER
 62
     2
100
AcDbLine
 10
239.06542
 20
-202.008126
 30
0.0
 11
239.06542
 21
-250.21715
 31
0.0
  0
LINE
  5
6C
100
AcDbEntity
  8
1
  6
CENTER
 62
     2
100
AcDbLine
 10
327.45542
 20
-202.008126
 30
0.0
 11
327.45542
 21
-250.21715
 31
0.0
  0
ARC
  5
6D
100
AcDbEntity
  8
1
100
AcDbCircle
 10
246.26042
 20
-340.922623
 30
0.0
 40
10.0
100
AcDbArc
 50
270.0
 51
360.0
  0
ARC
  5
6E
100
AcDbEntity
  8
1
100
AcDbCircle
 10
320.26042
 20
-340.922623
 30
0.0
 40
10.0
100
AcDbArc
 50
180.0
 51
270.0
  0
ARC
  5
6F
100
AcDbEntity
  8
1
100
AcDbCircle
 10
309.710535
 20
-348.51867
 30
0.0
 40
3.0
100
AcDbArc
 50
35.754351
 51
90.0
  0
ARC
  5
70
100
AcDbEntity
  8
1
100
AcDbCircle
 10
256.810305
 20
-348.51867
 30
0.0
 40
3.0
100
AcDbArc
 50
90.0
 51
144.245649
  0
ARC
  5
71
100
AcDbEntity
  8
1
100
AcDbCircle
 10
319.26042
 20
-713.850602
 30
0.0
 40
6.0
100
AcDbArc
 50
90.0
 51
180.0
  0
ARC
  5
72
100
AcDbEntity
  8
1
100
AcDbCircle
 10
247.26042
 20
-713.850602
 30
0.0
 40
6.0
100
AcDbArc
 50
0.0
 51
90.0
  0
LINE
  5
73
100
AcDbEntity
  8
1
100
AcDbLine
 10
255.510781
 20
-713.254555
 30
0.0
 11
311.01006
 21
-713.254555
 31
0.0
  0
ARC
  5
74
100
AcDbEntity
  8
1
100
AcDbCircle
 10
311.01006
 20
-710.254555
 30
0.0
 40
3.0
100
AcDbArc
 50
270.0
 51
336.449277
  0
ARC
  5
75
100
AcDbEntity
  8
1
100
AcDbCircle
 10
255.510781
 20
-710.254555
 30
0.0
 40
3.0
100
AcDbArc
 50
203.550723
 51
270.0
  0
LINE
  5
76
100
AcDbEntity
  8
1
100
AcDbLine
 10
256.26042
 20
-350.922623
 30
0.0
 11
258.26042
 21
-350.922623
 31
0.0
  0
LINE
  5
77
100
AcDbEntity
  8
1
100
AcDbLine
 10
308.26042
 20
-350.922623
 30
0.0
 11
310.26042
 21
-350.922623
 31
0.0
  0
LINE
  5
78
100
AcDbEntity
  8
1
100
AcDbLine
 10
253.26042
 20
-707.850602
 30
0.0
 11
258.26042
 21
-707.850602
 31
0.0
  0
LINE
  5
79
100
AcDbEntity
  8
1
100
AcDbLine
 10
308.26042
 20
-707.850602
 30
0.0
 11
313.26042
 21
-707.850602
 31
0.0
  0
LINE
  5
7A
100
AcDbEntity
  8
1
100
AcDbLine
 10
275.56042
 20
-776.186612
 30
0.0
 11
290.96042
 21
-776.186612
 31
0.0
  0
LINE
  5
7B
100
AcDbEntity
  8
1
100
AcDbLine
 10
289.76042
 20
-776.186612
 30
0.0
 11
289.76042
 21
-781.686612
 31
0.0
  0
LINE
  5
7C
100
AcDbEntity
  8
1
100
AcDbLine
 10
283.26042
 20
-776.186612
 30
0.0
 11
283.26042
 21
-780.964925
 31
0.0
  0
ARC
  5
7D
100
AcDbEntity
  8
1
100
AcDbCircle
 10
286.51042
 20
-774.007854
 30
0.0
 40
7.678759
100
AcDbArc
 50
244.96034
 51
295.03966
  0
LINE
  5
7E
100
AcDbEntity
  8
1
100
AcDbLine
 10
276.76042
 20
-776.186612
 30
0.0
 11
276.76042
 21
-781.686612
 31
0.0
  0
LINE
  5
7F
100
AcDbEntity
  8
1
100
AcDbLine
 10
276.76042
 20
-781.686612
 30
0.0
 11
289.76042
 21
-781.686612
 31
0.0
  0
ARC
  5
80
100
AcDbEntity
  8
1
100
AcDbCircle
 10
280.01042
 20
-774.007854
 30
0.0
 40
7.678759
100
AcDbArc
 50
244.96034
 51
295.03966
  0
LINE
  5
81
100
AcDbEntity
  8
1
100
AcDbLine
 10
290.96042
 20
-774.186612
 30
0.0
 11
290.96042
 21
-776.186612
 31
0.0
  0
LINE
  5
82
100
AcDbEntity
  8
1
100
AcDbLine
 10
275.56042
 20
-776.186612
 30
0.0
 11
275.56042
 21
-774.186612
 31
0.0
  0
ARC
  5
83
100
AcDbEntity
  8
1
100
AcDbCircle
 10
292.78142
 20
-504.944045
 30
0.0
 40
4.2015
100
AcDbArc
 50
0.0
 51
90.0
  0
ARC
  5
84
100
AcDbEntity
  8
1
100
AcDbCircle
 10
273.73942
 20
-504.944045
 30
0.0
 40
4.2015
100
AcDbArc
 50
90.0
 51
180.0
  0
ARC
  5
85
100
AcDbEntity
  8
1
100
AcDbCircle
 10
273.73942
 20
-553.82918
 30
0.0
 40
4.2015
100
AcDbArc
 50
180.0
 51
270.0
  0
ARC
  5
86
100
AcDbEntity
  8
1
100
AcDbCircle
 10
292.78142
 20
-553.82918
 30
0.0
 40
4.2015
100
AcDbArc
 50
270.0
 51
360.0
  0
LINE
  5
87
100
AcDbEntity
  8
1
100
AcDbLine
 10
273.73942
 20
-558.03068
 30
0.0
 11
292.78142
 21
-558.03068
 31
0.0
  0
LINE
  5
88
100
AcDbEntity
  8
1
100
AcDbLine
 10
273.73942
 20
-500.742545
 30
0.0
 11
292.78142
 21
-500.742545
 31
0.0
  0
LINE
  5
89
100
AcDbEntity
  8
1
100
AcDbLine
 10
296.98292
 20
-553.82918
 30
0.0
 11
296.98292
 21
-504.944045
 31
0.0
  0
LINE
  5
8A
100
AcDbEntity
  8
1
100
AcDbLine
 10
269.53792
 20
-553.82918
 30
0.0
 11
269.53792
 21
-504.944045
 31
0.0
  0
LINE
  5
8B
100
AcDbEntity
  8
1
100
AcDbLine
 10
296.98292
 20
-500.742545
 30
0.0
 11
300.971697
 21
-493.671256
 31
0.0
  0
LINE
  5
8C
100
AcDbEntity
  8
1
100
AcDbLine
 10
265.549144
 20
-493.671256
 30
0.0
 11
269.53792
 21
-500.742545
 31
0.0
  0
LINE
  5
8D
100
AcDbEntity
  8
1
100
AcDbLine
 10
269.53792
 20
-558.03068
 30
0.0
 11
265.549144
 21
-565.101969
 31
0.0
  0
LINE
  5
8E
100
AcDbEntity
  8
1
100
AcDbLine
 10
296.98292
 20
-558.03068
 30
0.0
 11
300.971697
 21
-565.101969
 31
0.0
  0
LINE
  5
8F
100
AcDbEntity
  8
1
100
AcDbLine
 10
296.98292
 20
-476.490197
 30
0.0
 11
296.98292
 21
-421.876248
 31
0.0
  0
ARC
  5
90
100
AcDbEntity
  8
1
100
AcDbCircle
 10
292.78142
 20
-421.876248
 30
0.0
 40
4.2015
100
AcDbArc
 50
0.0
 51
90.0
  0
LINE
  5
91
100
AcDbEntity
  8
1
100
AcDbLine
 10
273.73942
 20
-417.674748
 30
0.0
 11
292.78142
 21
-417.674748
 31
0.0
  0
ARC
  5
92
100
AcDbEntity
  8
1
100
AcDbCircle
 10
273.73942
 20
-421.876248
 30
0.0
 40
4.2015
100
AcDbArc
 50
90.0
 51
180.0
  0
LINE
  5
93
100
AcDbEntity
  8
1
100
AcDbLine
 10
269.53792
 20
-476.490197
 30
0.0
 11
269.53792
 21
-421.876248
 31
0.0
  0
ARC
  5
94
100
AcDbEntity
  8
1
100
AcDbCircle
 10
273.73942
 20
-476.490197
 30
0.0
 40
4.2015
100
AcDbArc
 50
180.0
 51
270.0
  0
ARC
  5
95
100
AcDbEntity
  8
1
100
AcDbCircle
 10
292.78142
 20
-476.490197
 30
0.0
 40
4.2015
100
AcDbArc
 50
270.0
 51
360.0
  0
LINE
  5
96
100
AcDbEntity
  8
1
100
AcDbLine
 10
273.73942
 20
-480.691697
 30
0.0
 11
292.78142
 21
-480.691697
 31
0.0
  0
LINE
  5
97
100
AcDbEntity
  8
1
100
AcDbLine
 10
301.219104
 20
-407.008527
 30
0.0
 11
296.98292
 21
-417.674748
 31
0.0
  0
LINE
  5
98
100
AcDbEntity
  8
1
100
AcDbLine
 10
265.301737
 20
-407.008527
 30
0.0
 11
269.53792
 21
-417.674748
 31
0.0
  0
LINE
  5
99
100
AcDbEntity
  8
1
100
AcDbLine
 10
269.53792
 20
-480.691697
 30
0.0
 11
265.951433
 21
-484.561852
 31
0.0
  0
LINE
  5
9A
100
AcDbEntity
  8
1
100
AcDbLine
 10
300.569408
 20
-484.561852
 30
0.0
 11
296.98292
 21
-480.691697
 31
0.0
  0
LINE
  5
9B
100
AcDbEntity
  8
1
100
AcDbLine
 10
296.98292
 20
-393.006341
 30
0.0
 11
296.98292
 21
-371.315111
 31
0.0
  0
LINE
  5
9C
100
AcDbEntity
  8
1
100
AcDbLine
 10
273.73942
 20
-397.207841
 30
0.0
 11
292.78142
 21
-397.207841
 31
0.0
  0
LINE
  5
9D
100
AcDbEntity
  8
1
100
AcDbLine
 10
269.53792
 20
-393.006341
 30
0.0
 11
269.53792
 21
-371.315111
 31
0.0
  0
LINE
  5
9E
100
AcDbEntity
  8
1
100
AcDbLine
 10
273.73942
 20
-367.113611
 30
0.0
 11
292.78142
 21
-367.113611
 31
0.0
  0
ARC
  5
9F
100
AcDbEntity
  8
1
100
AcDbCircle
 10
292.78142
 20
-371.315111
 30
0.0
 40
4.2015
100
AcDbArc
 50
0.0
 51
90.0
  0
ARC
  5
A0
100
AcDbEntity
  8
1
100
AcDbCircle
 10
292.78142
 20
-393.006341
 30
0.0
 40
4.2015
100
AcDbArc
 50
270.0
 51
360.0
  0
ARC
  5
A1
100
AcDbEntity
  8
1
100
AcDbCircle
 10
273.73942
 20
-393.006341
 30
0.0
 40
4.2015
100
AcDbArc
 50
180.0
 51
270.0
  0
ARC
  5
A2
100
AcDbEntity
  8
1
100
AcDbCircle
 10
273.73942
 20
-371.315111
 30
0.0
 40
4.2015
100
AcDbArc
 50
90.0
 51
180.0
  0
LINE
  5
A3
100
AcDbEntity
  8
1
100
AcDbLine
 10
302.80708
 20
-354.420408
 30
0.0
 11
296.98292
 21
-367.113611
 31
0.0
  0
LINE
  5
A4
100
AcDbEntity
  8
1
100
AcDbLine
 10
263.713761
 20
-354.420408
 30
0.0
 11
269.53792
 21
-367.113611
 31
0.0
  0
LINE
  5
A5
100
AcDbEntity
  8
1
100
AcDbLine
 10
296.98292
 20
-397.207841
 30
0.0
 11
299.675898
 21
-398.319615
 31
0.0
  0
LINE
  5
A6
100
AcDbEntity
  8
1
100
AcDbLine
 10
269.53792
 20
-397.207841
 30
0.0
 11
266.844942
 21
-398.319615
 31
0.0
  0
LINE
  5
A7
100
AcDbEntity
  8
1
100
AcDbLine
 10
296.98292
 20
-636.896977
 30
0.0
 11
296.98292
 21
-582.283028
 31
0.0
  0
LINE
  5
A8
100
AcDbEntity
  8
1
100
AcDbLine
 10
273.73942
 20
-641.098477
 30
0.0
 11
292.78142
 21
-641.098477
 31
0.0
  0
LINE
  5
A9
100
AcDbEntity
  8
1
100
AcDbLine
 10
269.53792
 20
-636.896977
 30
0.0
 11
269.53792
 21
-582.283028
 31
0.0
  0
LINE
  5
AA
100
AcDbEntity
  8
1
100
AcDbLine
 10
273.73942
 20
-578.081528
 30
0.0
 11
292.78142
 21
-578.081528
 31
0.0
  0
ARC
  5
AB
100
AcDbEntity
  8
1
100
AcDbCircle
 10
292.78142
 20
-582.283028
 30
0.0
 40
4.2015
100
AcDbArc
 50
0.0
 51
90.0
  0
ARC
  5
AC
100
AcDbEntity
  8
1
100
AcDbCircle
 10
273.73942
 20
-582.283028
 30
0.0
 40
4.2015
100
AcDbArc
 50
90.0
 51
180.0
  0
ARC
  5
AD
100
AcDbEntity
  8
1
100
AcDbCircle
 10
273.73942
 20
-636.896977
 30
0.0
 40
4.2015
100
AcDbArc
 50
180.0
 51
270.0
  0
ARC
  5
AE
100
AcDbEntity
  8
1
100
AcDbCircle
 10
292.78142
 20
-636.896977
 30
0.0
 40
4.2015
100
AcDbArc
 50
270.0
 51
360.0
  0
LINE
  5
AF
100
AcDbEntity
  8
1
100
AcDbLine
 10
300.569408
 20
-574.211373
 30
0.0
 11
296.98292
 21
-578.081528
 31
0.0
  0
LINE
  5
B0
100
AcDbEntity
  8
1
100
AcDbLine
 10
265.951433
 20
-574.211373
 30
0.0
 11
269.53792
 21
-578.081528
 31
0.0
  0
LINE
  5
B1
100
AcDbEntity
  8
1
100
AcDbLine
 10
269.53792
 20
-641.098477
 30
0.0
 11
265.301737
 21
-651.764697
 31
0.0
  0
LINE
  5
B2
100
AcDbEntity
  8
1
100
AcDbLine
 10
296.98292
 20
-641.098477
 30
0.0
 11
301.219104
 21
-651.764697
 31
0.0
  0
LINE
  5
B3
100
AcDbEntity
  8
1
100
AcDbLine
 10
296.98292
 20
-687.458114
 30
0.0
 11
296.98292
 21
-665.766883
 31
0.0
  0
LINE
  5
B4
100
AcDbEntity
  8
1
100
AcDbLine
 10
273.73942
 20
-661.565383
 30
0.0
 11
292.78142
 21
-661.565383
 31
0.0
  0
LINE
  5
B5
100
AcDbEntity
  8
1
100
AcDbLine
 10
269.53792
 20
-687.458114
 30
0.0
 11
269.53792
 21
-665.766883
 31
0.0
  0
LINE
  5
B6
100
AcDbEntity
  8
1
100
AcDbLine
 10
273.73942
 20
-691.659614
 30
0.0
 11
292.78142
 21
-691.659614
 31
0.0
  0
ARC
  5
B7
100
AcDbEntity
  8
1
100
AcDbCircle
 10
273.73942
 20
-687.458114
 30
0.0
 40
4.2015
100
AcDbArc
 50
180.0
 51
270.0
  0
ARC
  5
B8
100
AcDbEntity
  8
1
100
AcDbCircle
 10
273.73942
 20
-665.766883
 30
0.0
 40
4.2015
100
AcDbArc
 50
90.0
 51
180.0
  0
ARC
  5
B9
100
AcDbEntity
  8
1
100
AcDbCircle
 10
292.78142
 20
-665.766883
 30
0.0
 40
4.2015
100
AcDbArc
 50
0.0
 51
90.0
  0
ARC
  5
BA
100
AcDbEntity
  8
1
100
AcDbCircle
 10
292.78142
 20
-687.458114
 30
0.0
 40
4.2015
100
AcDbArc
 50
270.0
 51
360.0
  0
LINE
  5
BB
100
AcDbEntity
  8
1
100
AcDbLine
 10
263.713761
 20
-704.352817
 30
0.0
 11
269.53792
 21
-691.659614
 31
0.0
  0
LINE
  5
BC
100
AcDbEntity
  8
1
100
AcDbLine
 10
302.80708
 20
-704.352817
 30
0.0
 11
296.98292
 21
-691.659614
 31
0.0
  0
LINE
  5
BD
100
AcDbEntity
  8
1
100
AcDbLine
 10
242.26042
 20
-702.855484
 30
0.0
 11
242.26042
 21
-355.917741
 31
0.0
  0
LINE
  5
BE
100
AcDbEntity
  8
1
100
AcDbLine
 10
324.26042
 20
-702.855484
 30
0.0
 11
324.26042
 21
-355.917741
 31
0.0
  0
LINE
  5
BF
100
AcDbEntity
  8
1
100
AcDbLine
 10
323.996907
 20
-354.925463
 30
0.0
 11
322.836262
 21
-352.894335
 31
0.0
  0
LINE
  5
C0
100
AcDbEntity
  8
1
100
AcDbLine
 10
242.523934
 20
-354.925463
 30
0.0
 11
243.684579
 21
-352.894335
 31
0.0
  0
ARC
  5
C1
100
AcDbEntity
  8
1
100
AcDbCircle
 10
322.26042
 20
-355.917741
 30
0.0
 40
2.0
100
AcDbArc
 50
0.0
 51
29.744881
  0
ARC
  5
C2
100
AcDbEntity
  8
1
100
AcDbCircle
 10
244.26042
 20
-355.917741
 30
0.0
 40
2.0
100
AcDbArc
 50
150.255119
 51
180.0
  0
ARC
  5
C3
100
AcDbEntity
  8
1
100
AcDbCircle
 10
245.421065
 20
-353.886612
 30
0.0
 40
2.0
100
AcDbArc
 50
125.473231
 51
150.255119
  0
ARC
  5
C4
100
AcDbEntity
  8
1
100
AcDbCircle
 10
321.099775
 20
-353.886612
 30
0.0
 40
2.0
100
AcDbArc
 50
29.744881
 51
54.526769
  0
LINE
  5
C5
100
AcDbEntity
  8
1
100
AcDbLine
 10
323.996907
 20
-703.847761
 30
0.0
 11
322.836262
 21
-705.87889
 31
0.0
  0
LINE
  5
C6
100
AcDbEntity
  8
1
100
AcDbLine
 10
242.523934
 20
-703.847761
 30
0.0
 11
243.684579
 21
-705.87889
 31
0.0
  0
ARC
  5
C7
100
AcDbEntity
  8
1
100
AcDbCircle
 10
322.26042
 20
-702.855484
 30
0.0
 40
2.0
100
AcDbArc
 50
330.255119
 51
360.0
  0
ARC
  5
C8
100
AcDbEntity
  8
1
100
AcDbCircle
 10
244.26042
 20
-702.855484
 30
0.0
 40
2.0
100
AcDbArc
 50
180.0
 51
209.744881
  0
ARC
  5
C9
100
AcDbEntity
  8
1
100
AcDbCircle
 10
245.421065
 20
-704.886612
 30
0.0
 40
2.0
100
AcDbArc
 50
209.744881
 51
234.526769
  0
ARC
  5
CA
100
AcDbEntity
  8
1
100
AcDbCircle
 10
321.099775
 20
-704.886612
 30
0.0
 40
2.0
100
AcDbArc
 50
305.473231
 51
330.255119
  0
CIRCLE
  5
CB
100
AcDbEntity
  8
1
100
AcDbCircle
 10
-816.73958
 20
-529.386612
 30
0.0
 40
182.5
  0
CIRCLE
  5
CC
100
AcDbEntity
  8
1
100
AcDbCircle
 10
-816.73958
 20
-529.386612
 30
0.0
 40
177.5
  0
CIRCLE
  5
CD
100
AcDbEntity
  8
1
100
AcDbCircle
 10
-816.73958
 20
-529.386612
 30
0.0
 40
174.0
  0
ARC
  5
CE
100
AcDbEntity
  8
1
100
AcDbCircle
 10
-757.23958
 20
-230.386612
 30
0.0
 40
3.0
100
AcDbArc
 50
270.0
 51
360.0
  0
ARC
  5
CF
100
AcDbEntity
  8
1
100
AcDbCircle
 10
-876.23958
 20
-230.386612
 30
0.0
 40
3.0
100
AcDbArc
 50
180.0
 51
270.0
  0
ARC
  5
D0
100
AcDbEntity
  8
1
100
AcDbCircle
 10
-873.73958
 20
-263.386612
 30
0.0
 40
30.0
100
AcDbArc
 50
0.0
 51
90.0
  0
ARC
  5
D1
100
AcDbEntity
  8
1
100
AcDbCircle
 10
-759.73958
 20
-263.386612
 30
0.0
 40
30.0
100
AcDbArc
 50
90.0
 51
180.0
  0
ARC
  5
D2
100
AcDbEntity
  8
1
100
AcDbCircle
 10
-775.73958
 20
-247.386612
 30
0.0
 40
14.0
100
AcDbArc
 50
90.0
 51
180.0
  0
ARC
  5
D3
100
AcDbEntity
  8
1
100
AcDbCircle
 10
-857.73958
 20
-247.386612
 30
0.0
 40
14.0
100
AcDbArc
 50
0.0
 51
90.0
  0
LINE
  5
D4
100
AcDbEntity
  8
1
100
AcDbLine
 10
-812.73958
 20
-263.386612
 30
0.0
 11
-820.73958
 21
-263.386612
 31
0.0
  0
LINE
  5
D5
100
AcDbEntity
  8
1
100
AcDbLine
 10
-820.73958
 20
-239.386612
 30
0.0
 11
-820.73958
 21
-257.386612
 31
0.0
  0
LINE
  5
D6
100
AcDbEntity
  8
1
100
AcDbLine
 10
-812.73958
 20
-239.386612
 30
0.0
 11
-812.73958
 21
-257.386612
 31
0.0
  0
ARC
  5
D7
100
AcDbEntity
  8
1
100
AcDbCircle
 10
-806.73958
 20
-239.386612
 30
0.0
 40
6.0
100
AcDbArc
 50
90.0
 51
180.0
  0
ARC
  5
D8
100
AcDbEntity
  8
1
100
AcDbCircle
 10
-826.73958
 20
-239.386612
 30
0.0
 40
6.0
100
AcDbArc
 50
360.0
 51
90.0
  0
ARC
  5
D9
100
AcDbEntity
  8
1
100
AcDbCircle
 10
-826.73958
 20
-257.386612
 30
0.0
 40
6.0
100
AcDbArc
 50
270.0
 51
360.0
  0
ARC
  5
DA
100
AcDbEntity
  8
1
100
AcDbCircle
 10
-806.73958
 20
-257.386612
 30
0.0
 40
6.0
100
AcDbArc
 50
180.0
 51
270.0
  0
LINE
  5
DB
100
AcDbEntity
  8
1
100
AcDbLine
 10
-858.724364
 20
-318.314846
 30
0.0
 11
-860.728554
 21
-308.239105
 31
0.0
  0
LINE
  5
DC
100
AcDbEntity
  8
1
100
AcDbLine
 10
-774.754795
 20
-318.314846
 30
0.0
 11
-772.750605
 21
-308.239105
 31
0.0
  0
ARC
  5
DD
100
AcDbEntity
  8
1
100
AcDbCircle
 10
-816.73958
 20
-529.386612
 30
0.0
 40
228.5
100
AcDbArc
 50
79.512272
 51
81.075301
  0
ARC
  5
DE
100
AcDbEntity
  8
1
100
AcDbCircle
 10
-816.73958
 20
-529.386612
 30
0.0
 40
228.5
100
AcDbArc
 50
98.924699
 51
100.487728
  0
ARC
  5
DF
100
AcDbEntity
  8
1
100
AcDbCircle
 10
-779.73958
 20
-293.774113
 30
0.0
 40
10.0
100
AcDbArc
 50
180.0
 51
261.075301
  0
ARC
  5
E0
100
AcDbEntity
  8
1
100
AcDbCircle
 10
-853.73958
 20
-293.774113
 30
0.0
 40
10.0
100
AcDbArc
 50
278.924699
 51
360.0
  0
ARC
  5
E1
100
AcDbEntity
  8
1
100
AcDbCircle
 10
-775.692961
 20
-307.653834
 30
0.0
 40
3.0
100
AcDbArc
 50
348.75
 51
79.512272
  0
ARC
  5
E2
100
AcDbEntity
  8
1
100
AcDbCircle
 10
-857.786198
 20
-307.653834
 30
0.0
 40
3.0
100
AcDbArc
 50
100.487728
 51
191.25
  0
ARC
  5
E3
100
AcDbEntity
  8
1
100
AcDbCircle
 10
-777.721515
 20
-333.229556
 30
0.0
 40
12.5
100
AcDbArc
 50
89.909937
 51
259.46052
  0
ARC
  5
E4
100
AcDbEntity
  8
1
100
AcDbCircle
 10
-855.757644
 20
-333.229556
 30
0.0
 40
12.5
100
AcDbArc
 50
280.53948
 51
90.090063
  0
ARC
  5
E5
100
AcDbEntity
  8
1
100
AcDbCircle
 10
-777.697151
 20
-317.729575
 30
0.0
 40
3.0
100
AcDbArc
 50
269.909937
 51
348.75
  0
ARC
  5
E6
100
AcDbEntity
  8
1
100
AcDbCircle
 10
-855.782008
 20
-317.729575
 30
0.0
 40
3.0
100
AcDbArc
 50
191.25
 51
270.090063
  0
ARC
  5
E7
100
AcDbEntity
  8
1
100
AcDbCircle
 10
-780.73958
 20
-349.451187
 30
0.0
 40
4.0
100
AcDbArc
 50
17.598703
 51
79.46052
  0
ARC
  5
E8
100
AcDbEntity
  8
1
100
AcDbCircle
 10
-852.73958
 20
-349.451187
 30
0.0
 40
4.0
100
AcDbArc
 50
100.53948
 51
162.401297
  0
LINE
  5
E9
100
AcDbEntity
  8
1
100
AcDbLine
 10
-850.73958
 20
-757.910681
 30
0.0
 11
-850.73958
 21
-774.186612
 31
0.0
  0
LINE
  5
EA
100
AcDbEntity
  8
1
100
AcDbLine
 10
-782.73958
 20
-757.910681
 30
0.0
 11
-782.73958
 21
-774.186612
 31
0.0
  0
LINE
  5
EB
100
AcDbEntity
  8
1
100
AcDbLine
 10
-843.73958
 20
-729.378736
 30
0.0
 11
-843.73958
 21
-764.386612
 31
0.0
  0
LINE
  5
EC
100
AcDbEntity
  8
1
100
AcDbLine
 10
-789.73958
 20
-729.378736
 30
0.0
 11
-789.73958
 21
-764.386612
 31
0.0
  0
LINE
  5
ED
100
AcDbEntity
  8
1
100
AcDbLine
 10
-840.73958
 20
-767.386612
 30
0.0
 11
-792.73958
 21
-767.386612
 31
0.0
  0
ARC
  5
EE
100
AcDbEntity
  8
1
100
AcDbCircle
 10
-792.73958
 20
-764.386612
 30
0.0
 40
3.0
100
AcDbArc
 50
270.0
 51
360.0
  0
ARC
  5
EF
100
AcDbEntity
  8
1
100
AcDbCircle
 10
-840.73958
 20
-764.386612
 30
0.0
 40
3.0
100
AcDbArc
 50
180.0
 51
270.0
  0
ARC
  5
F0
100
AcDbEntity
  8
1
100
AcDbCircle
 10
-816.73958
 20
-529.386612
 30
0.0
 40
228.5
100
AcDbArc
 50
259.512272
 51
261.183196
  0
ARC
  5
F1
100
AcDbEntity
  8
1
100
AcDbCircle
 10
-816.73958
 20
-529.386612
 30
0.0
 40
228.5
100
AcDbArc
 50
278.816804
 51
280.487728
  0
LINE
  5
F2
100
AcDbEntity
  8
1
100
AcDbLine
 10
-774.754795
 20
-740.458378
 30
0.0
 11
-772.750605
 21
-750.53412
 31
0.0
  0
LINE
  5
F3
100
AcDbEntity
  8
1
100
AcDbLine
 10
-858.724364
 20
-740.458378
 30
0.0
 11
-860.728554
 21
-750.53412
 31
0.0
  0
ARC
  5
F4
100
AcDbEntity
  8
1
100
AcDbCircle
 10
-857.786198
 20
-751.119391
 30
0.0
 40
3.0
100
AcDbArc
 50
168.75
 51
259.512272
  0
ARC
  5
F5
100
AcDbEntity
  8
1
100
AcDbCircle
 10
-775.692961
 20
-751.119391
 30
0.0
 40
3.0
100
AcDbArc
 50
280.487728
 51
11.25
  0
ARC
  5
F6
100
AcDbEntity
  8
1
100
AcDbCircle
 10
-779.73958
 20
-757.910681
 30
0.0
 40
3.0
100
AcDbArc
 50
99.196867
 51
180.0
  0
ARC
  5
F7
100
AcDbEntity
  8
1
100
AcDbCircle
 10
-853.73958
 20
-757.910681
 30
0.0
 40
3.0
100
AcDbArc
 50
0.0
 51
80.803133
  0
ARC
  5
F8
100
AcDbEntity
  8
1
100
AcDbCircle
 10
-781.256265
 20
-758.151086
 30
0.0
 40
3.0
100
AcDbArc
 50
98.816804
 51
180.0
  0
ARC
  5
F9
100
AcDbEntity
  8
1
100
AcDbCircle
 10
-852.222894
 20
-758.151086
 30
0.0
 40
3.0
100
AcDbArc
 50
0.0
 51
81.183196
  0
ARC
  5
FA
100
AcDbEntity
  8
1
100
AcDbCircle
 10
-787.256265
 20
-745.386612
 30
0.0
 40
3.0
100
AcDbArc
 50
0.0
 51
85.059901
  0
ARC
  5
FB
100
AcDbEntity
  8
1
100
AcDbCircle
 10
-846.222894
 20
-745.386612
 30
0.0
 40
3.0
100
AcDbArc
 50
94.940099
 51
180.0
  0
ARC
  5
FC
100
AcDbEntity
  8
1
100
AcDbCircle
 10
-786.73958
 20
-739.408901
 30
0.0
 40
3.0
100
AcDbArc
 50
180.0
 51
265.059901
  0
ARC
  5
FD
100
AcDbEntity
  8
1
100
AcDbCircle
 10
-846.73958
 20
-739.408901
 30
0.0
 40
3.0
100
AcDbArc
 50
274.940099
 51
360.0
  0
ARC
  5
FE
100
AcDbEntity
  8
1
100
AcDbCircle
 10
-777.721515
 20
-725.543668
 30
0.0
 40
12.5
100
AcDbArc
 50
100.53948
 51
270.090063
  0
ARC
  5
FF
100
AcDbEntity
  8
1
100
AcDbCircle
 10
-855.757644
 20
-725.543668
 30
0.0
 40
12.5
100
AcDbArc
 50
269.909937
 51
79.46052
  0
ARC
  5
100
100
AcDbEntity
  8
1
100
AcDbCircle
 10
-777.697151
 20
-741.043649
 30
0.0
 40
3.0
100
AcDbArc
 50
11.25
 51
90.090063
  0
ARC
  5
101
100
AcDbEntity
  8
1
100
AcDbCircle
 10
-855.782008
 20
-741.043649
 30
0.0
 40
3.0
100
AcDbArc
 50
89.909937
 51
168.75
  0
ARC
  5
102
100
AcDbEntity
  8
1
100
AcDbCircle
 10
-792.73958
 20
-729.378736
 30
0.0
 40
3.0
100
AcDbArc
 50
0.0
 51
14.325112
  0
ARC
  5
103
100
AcDbEntity
  8
1
100
AcDbCircle
 10
-840.73958
 20
-729.378736
 30
0.0
 40
3.0
100
AcDbArc
 50
165.674888
 51
180.0
  0
ARC
  5
104
100
AcDbEntity
  8
1
100
AcDbCircle
 10
-780.73958
 20
-709.322038
 30
0.0
 40
4.0
100
AcDbArc
 50
280.53948
 51
342.401297
  0
ARC
  5
105
100
AcDbEntity
  8
1
100
AcDbCircle
 10
-852.73958
 20
-709.322038
 30
0.0
 40
4.0
100
AcDbArc
 50
197.598703
 51
259.46052
  0
LINE
  5
106
100
AcDbEntity
  8
1
100
AcDbLine
 10
-850.73958
 20
-771.186612
 30
0.0
 11
-782.73958
 21
-771.186612
 31
0.0
  0
LINE
  5
107
100
AcDbEntity
  8
1
100
AcDbLine
 10
-850.73958
 20
-774.186612
 30
0.0
 11
-782.73958
 21
-774.186612
 31
0.0
  0
ARC
  5
108
100
AcDbEntity
  8
1
100
AcDbCircle
 10
342.76042
 20
-230.386612
 30
0.0
 40
3.0
100
AcDbArc
 50
270.0
 51
360.0
  0
ARC
  5
109
100
AcDbEntity
  8
1
100
AcDbCircle
 10
223.76042
 20
-230.386612
 30
0.0
 40
3.0
100
AcDbArc
 50
180.0
 51
270.0
  0
ARC
  5
10A
100
AcDbEntity
  8
1
100
AcDbCircle
 10
226.26042
 20
-263.386612
 30
0.0
 40
30.0
100
AcDbArc
 50
0.0
 51
90.0
  0
ARC
  5
10B
100
AcDbEntity
  8
1
100
AcDbCircle
 10
340.26042
 20
-263.386612
 30
0.0
 40
30.0
100
AcDbArc
 50
90.0
 51
180.0
  0
ARC
  5
10C
100
AcDbEntity
  8
1
100
AcDbCircle
 10
324.26042
 20
-247.386612
 30
0.0
 40
14.0
100
AcDbArc
 50
90.0
 51
180.0
  0
ARC
  5
10D
100
AcDbEntity
  8
1
100
AcDbCircle
 10
242.26042
 20
-247.386612
 30
0.0
 40
14.0
100
AcDbArc
 50
0.0
 51
90.0
  0
LINE
  5
10E
100
AcDbEntity
  8
1
100
AcDbLine
 10
287.26042
 20
-263.386612
 30
0.0
 11
279.26042
 21
-263.386612
 31
0.0
  0
LINE
  5
10F
100
AcDbEntity
  8
1
100
AcDbLine
 10
279.26042
 20
-239.386612
 30
0.0
 11
279.26042
 21
-257.386612
 31
0.0
  0
LINE
  5
110
100
AcDbEntity
  8
1
100
AcDbLine
 10
287.26042
 20
-239.386612
 30
0.0
 11
287.26042
 21
-257.386612
 31
0.0
  0
ARC
  5
111
100
AcDbEntity
  8
1
100
AcDbCircle
 10
293.26042
 20
-239.386612
 30
0.0
 40
6.0
100
AcDbArc
 50
90.0
 51
180.0
  0
ARC
  5
112
100
AcDbEntity
  8
1
100
AcDbCircle
 10
273.26042
 20
-239.386612
 30
0.0
 40
6.0
100
AcDbArc
 50
360.0
 51
90.0
  0
ARC
  5
113
100
AcDbEntity
  8
1
100
AcDbCircle
 10
273.26042
 20
-257.386612
 30
0.0
 40
6.0
100
AcDbArc
 50
270.0
 51
360.0
  0
ARC
  5
114
100
AcDbEntity
  8
1
100
AcDbCircle
 10
293.26042
 20
-257.386612
 30
0.0
 40
6.0
100
AcDbArc
 50
180.0
 51
270.0
  0
LINE
  5
115
100
AcDbEntity
  8
1
100
AcDbLine
 10
244.26042
 20
-711.886612
 30
0.0
 11
244.26042
 21
-346.886612
 31
0.0
  0
LINE
  5
116
100
AcDbEntity
  8
1
100
AcDbLine
 10
322.26042
 20
-711.886612
 30
0.0
 11
322.26042
 21
-346.886612
 31
0.0
  0
LINE
  5
117
100
AcDbEntity
  8
1
100
AcDbLine
 10
245.26042
 20
-345.886612
 30
0.0
 11
244.26042
 21
-346.886612
 31
0.0
  0
LINE
  5
118
100
AcDbEntity
  8
1
100
AcDbLine
 10
321.26042
 20
-345.886612
 30
0.0
 11
322.26042
 21
-346.886612
 31
0.0
  0
LINE
  5
119
100
AcDbEntity
  8
1
100
AcDbLine
 10
322.26042
 20
-711.886612
 30
0.0
 11
321.26042
 21
-712.886612
 31
0.0
  0
LINE
  5
11A
100
AcDbEntity
  8
1
100
AcDbLine
 10
244.26042
 20
-711.886612
 30
0.0
 11
245.26042
 21
-712.886612
 31
0.0
  0
LINE
  5
11B
100
AcDbEntity
  8
1
100
AcDbLine
 10
321.26042
 20
-345.886612
 30
0.0
 11
321.26042
 21
-712.886612
 31
0.0
  0
LINE
  5
11C
100
AcDbEntity
  8
1
100
AcDbLine
 10
245.26042
 20
-345.886612
 30
0.0
 11
245.26042
 21
-712.886612
 31
0.0
  0
ARC
  5
11D
100
AcDbEntity
  8
1
100
AcDbCircle
 10
320.26042
 20
-335.886612
 30
0.0
 40
10.0
100
AcDbArc
 50
180.0
 51
270.0
  0
ARC
  5
11E
100
AcDbEntity
  8
1
100
AcDbCircle
 10
246.26042
 20
-335.886612
 30
0.0
 40
10.0
100
AcDbArc
 50
270.0
 51
0.0
  0
LINE
  5
11F
100
AcDbEntity
  8
1
100
AcDbLine
 10
256.810305
 20
-345.51867
 30
0.0
 11
309.710535
 21
-345.51867
 31
0.0
  0
LINE
  5
120
100
AcDbEntity
  8
1
100
AcDbLine
 10
245.26042
 20
-345.886612
 30
0.0
 11
246.26042
 21
-345.886612
 31
0.0
  0
LINE
  5
121
100
AcDbEntity
  8
1
100
AcDbLine
 10
320.26042
 20
-345.886612
 30
0.0
 11
321.26042
 21
-345.886612
 31
0.0
  0
LINE
  5
122
100
AcDbEntity
  8
1
100
AcDbLine
 10
256.26042
 20
-329.792097
 30
0.0
 11
310.26042
 21
-329.792097
 31
0.0
  0
LINE
  5
123
100
AcDbEntity
  8
1
100
AcDbLine
 10
278.26042
 20
-293.774113
 30
0.0
 11
288.26042
 21
-293.774113
 31
0.0
  0
LINE
  5
124
100
AcDbEntity
  8
1
100
AcDbLine
 10
278.26042
 20
-323.792097
 30
0.0
 11
278.26042
 21
-299.774113
 31
0.0
  0
LINE
  5
125
100
AcDbEntity
  8
1
100
AcDbLine
 10
288.26042
 20
-323.792097
 30
0.0
 11
288.26042
 21
-299.774113
 31
0.0
  0
ARC
  5
126
100
AcDbEntity
  8
1
100
AcDbCircle
 10
294.26042
 20
-299.774113
 30
0.0
 40
6.0
100
AcDbArc
 50
90.0
 51
180.0
  0
ARC
  5
127
100
AcDbEntity
  8
1
100
AcDbCircle
 10
272.26042
 20
-299.774113
 30
0.0
 40
6.0
100
AcDbArc
 50
0.0
 51
90.0
  0
ARC
  5
128
100
AcDbEntity
  8
1
100
AcDbCircle
 10
272.26042
 20
-323.792097
 30
0.0
 40
6.0
100
AcDbArc
 50
270.0
 51
360.0
  0
ARC
  5
129
100
AcDbEntity
  8
1
100
AcDbCircle
 10
294.26042
 20
-323.792097
 30
0.0
 40
6.0
100
AcDbArc
 50
180.0
 51
270.0
  0
LINE
  5
12A
100
AcDbEntity
  8
1
100
AcDbLine
 10
281.26042
 20
-304.703952
 30
0.0
 11
285.26042
 21
-304.703952
 31
0.0
  0
LINE
  5
12B
100
AcDbEntity
  8
1
100
AcDbLine
 10
281.26042
 20
-320.729575
 30
0.0
 11
285.26042
 21
-320.729575
 31
0.0
  0
ARC
  5
12C
100
AcDbEntity
  8
1
100
AcDbCircle
 10
285.26042
 20
-307.703952
 30
0.0
 40
3.0
100
AcDbArc
 50
0.0
 51
90.0
  0
ARC
  5
12D
100
AcDbEntity
  8
1
100
AcDbCircle
 10
281.26042
 20
-307.703952
 30
0.0
 40
3.0
100
AcDbArc
 50
90.0
 51
180.0
  0
ARC
  5
12E
100
AcDbEntity
  8
1
100
AcDbCircle
 10
281.26042
 20
-317.729575
 30
0.0
 40
3.0
100
AcDbArc
 50
180.0
 51
270.0
  0
ARC
  5
12F
100
AcDbEntity
  8
1
100
AcDbCircle
 10
285.26042
 20
-317.729575
 30
0.0
 40
3.0
100
AcDbArc
 50
270.0
 51
360.0
  0
LINE
  5
130
100
AcDbEntity
  8
1
100
AcDbLine
 10
260.26042
 20
-770.386612
 30
0.0
 11
306.26042
 21
-770.386612
 31
0.0
  0
LINE
  5
131
100
AcDbEntity
  8
1
100
AcDbLine
 10
253.26042
 20
-764.386612
 30
0.0
 11
253.26042
 21
-713.850602
 31
0.0
  0
LINE
  5
132
100
AcDbEntity
  8
1
100
AcDbLine
 10
313.26042
 20
-764.386612
 30
0.0
 11
313.26042
 21
-713.850602
 31
0.0
  0
ARC
  5
133
100
AcDbEntity
  8
1
100
AcDbCircle
 10
309.26042
 20
-770.386612
 30
0.0
 40
3.0
100
AcDbArc
 50
90.0
 51
180.0
  0
ARC
  5
134
100
AcDbEntity
  8
1
100
AcDbCircle
 10
257.26042
 20
-770.386612
 30
0.0
 40
3.0
100
AcDbArc
 50
0.0
 51
90.0
  0
ARC
  5
135
100
AcDbEntity
  8
1
100
AcDbCircle
 10
310.26042
 20
-764.386612
 30
0.0
 40
3.0
100
AcDbArc
 50
270.0
 51
360.0
  0
ARC
  5
136
100
AcDbEntity
  8
1
100
AcDbCircle
 10
256.26042
 20
-764.386612
 30
0.0
 40
3.0
100
AcDbArc
 50
180.0
 51
270.0
  0
ARC
  5
137
100
AcDbEntity
  8
1
100
AcDbCircle
 10
319.26042
 20
-718.886612
 30
0.0
 40
6.0
100
AcDbArc
 50
90.0
 51
180.0
  0
ARC
  5
138
100
AcDbEntity
  8
1
100
AcDbCircle
 10
247.26042
 20
-718.886612
 30
0.0
 40
6.0
100
AcDbArc
 50
0.0
 51
90.0
  0
LINE
  5
139
100
AcDbEntity
  8
1
100
AcDbLine
 10
245.26042
 20
-712.886612
 30
0.0
 11
247.26042
 21
-712.886612
 31
0.0
  0
LINE
  5
13A
100
AcDbEntity
  8
1
100
AcDbLine
 10
319.26042
 20
-712.886612
 30
0.0
 11
321.26042
 21
-712.886612
 31
0.0
  0
LINE
  5
13B
100
AcDbEntity
  8
1
100
AcDbLine
 10
253.26042
 20
-728.981128
 30
0.0
 11
313.26042
 21
-728.981128
 31
0.0
  0
ARC
  5
13C
100
AcDbEntity
  8
1
100
AcDbCircle
 10
-773.114
 20
-711.740825
 30
0.0
 40
4.0
100
AcDbArc
 50
103.454303
 51
162.401297
  0
ARC
  5
13D
100
AcDbEntity
  8
1
100
AcDbCircle
 10
-860.36516
 20
-711.740825
 30
0.0
 40
4.0
100
AcDbArc
 50
17.598703
 51
76.545697
  0
ARC
  5
13E
100
AcDbEntity
  8
1
100
AcDbCircle
 10
-773.114
 20
-347.0324
 30
0.0
 40
4.0
100
AcDbArc
 50
197.598703
 51
256.545697
  0
ARC
  5
13F
100
AcDbEntity
  8
1
100
AcDbCircle
 10
-860.36516
 20
-347.0324
 30
0.0
 40
4.0
100
AcDbArc
 50
283.454303
 51
342.401297
  0
LINE
  5
140
100
AcDbEntity
  8
1
100
AcDbLine
 10
278.26042
 20
-752.151086
 30
0.0
 11
278.26042
 21
-734.981128
 31
0.0
  0
LINE
  5
141
100
AcDbEntity
  8
1
100
AcDbLine
 10
288.26042
 20
-752.151086
 30
0.0
 11
288.26042
 21
-734.981128
 31
0.0
  0
ARC
  5
142
100
AcDbEntity
  8
1
100
AcDbCircle
 10
294.26042
 20
-734.981128
 30
0.0
 40
6.0
100
AcDbArc
 50
90.0
 51
180.0
  0
ARC
  5
143
100
AcDbEntity
  8
1
100
AcDbCircle
 10
272.26042
 20
-734.981128
 30
0.0
 40
6.0
100
AcDbArc
 50
0.0
 51
90.0
  0
LINE
  5
144
100
AcDbEntity
  8
1
100
AcDbLine
 10
278.26042
 20
-758.151086
 30
0.0
 11
288.26042
 21
-758.151086
 31
0.0
  0
ARC
  5
145
100
AcDbEntity
  8
1
100
AcDbCircle
 10
294.26042
 20
-752.151086
 30
0.0
 40
6.0
100
AcDbArc
 50
180.0
 51
255.633409
  0
ARC
  5
146
100
AcDbEntity
  8
1
100
AcDbCircle
 10
272.26042
 20
-752.151086
 30
0.0
 40
6.0
100
AcDbArc
 50
284.366591
 51
360.0
  0
LINE
  5
147
100
AcDbEntity
  8
1
100
AcDbLine
 10
281.26042
 20
-738.043653
 30
0.0
 11
285.26042
 21
-738.043653
 31
0.0
  0
LINE
  5
148
100
AcDbEntity
  8
1
100
AcDbLine
 10
281.26042
 20
-754.069273
 30
0.0
 11
285.26042
 21
-754.069273
 31
0.0
  0
ARC
  5
149
100
AcDbEntity
  8
1
100
AcDbCircle
 10
285.26042
 20
-741.043653
 30
0.0
 40
3.0
100
AcDbArc
 50
0.0
 51
90.0
  0
ARC
  5
14A
100
AcDbEntity
  8
1
100
AcDbCircle
 10
281.26042
 20
-741.043653
 30
0.0
 40
3.0
100
AcDbArc
 50
90.0
 51
180.0
  0
ARC
  5
14B
100
AcDbEntity
  8
1
100
AcDbCircle
 10
281.26042
 20
-751.069273
 30
0.0
 40
3.0
100
AcDbArc
 50
180.0
 51
270.0
  0
ARC
  5
14C
100
AcDbEntity
  8
1
100
AcDbCircle
 10
285.26042
 20
-751.069273
 30
0.0
 40
3.0
100
AcDbArc
 50
270.0
 51
360.0
  0
LINE
  5
14D
100
AcDbEntity
  8
1
100
AcDbLine
 10
292.77167
 20
-764.386612
 30
0.0
 11
292.77167
 21
-745.386612
 31
0.0
  0
LINE
  5
14E
100
AcDbEntity
  8
1
100
AcDbLine
 10
273.749171
 20
-764.386612
 30
0.0
 11
273.749171
 21
-745.386612
 31
0.0
  0
LINE
  5
14F
100
AcDbEntity
  8
1
100
AcDbLine
 10
256.26042
 20
-767.386612
 30
0.0
 11
270.749171
 21
-767.386612
 31
0.0
  0
LINE
  5
150
100
AcDbEntity
  8
1
100
AcDbLine
 10
295.77167
 20
-767.386612
 30
0.0
 11
310.26042
 21
-767.386612
 31
0.0
  0
ARC
  5
151
100
AcDbEntity
  8
1
100
AcDbCircle
 10
295.77167
 20
-764.386612
 30
0.0
 40
3.0
100
AcDbArc
 50
180.0
 51
270.0
  0
ARC
  5
152
100
AcDbEntity
  8
1
100
AcDbCircle
 10
270.749171
 20
-764.386612
 30
0.0
 40
3.0
100
AcDbArc
 50
270.0
 51
0.0
  0
ARC
  5
153
100
AcDbEntity
  8
1
100
AcDbCircle
 10
289.77167
 20
-745.386612
 30
0.0
 40
3.0
100
AcDbArc
 50
0.0
 51
75.633409
  0
ARC
  5
154
100
AcDbEntity
  8
1
100
AcDbCircle
 10
276.749171
 20
-745.386612
 30
0.0
 40
3.0
100
AcDbArc
 50
104.366591
 51
180.0
  0
ARC
  5
155
100
AcDbEntity
  8
1
100
AcDbCircle
 10
291.26042
 20
-739.574244
 30
0.0
 40
3.0
100
AcDbArc
 50
180.0
 51
255.633409
  0
ARC
  5
156
100
AcDbEntity
  8
1
100
AcDbCircle
 10
275.26042
 20
-739.574244
 30
0.0
 40
3.0
100
AcDbArc
 50
284.366591
 51
360.0
  0
LINE
  5
157
100
AcDbEntity
  8
1
100
AcDbLine
 10
270.26042
 20
-399.386612
 30
0.0
 11
296.26042
 21
-399.386612
 31
0.0
  0
LINE
  5
158
100
AcDbEntity
  8
1
100
AcDbLine
 10
270.26042
 20
-404.386612
 30
0.0
 11
296.26042
 21
-404.386612
 31
0.0
  0
LINE
  5
159
100
AcDbEntity
  8
1
100
AcDbLine
 10
270.26042
 20
-486.386612
 30
0.0
 11
296.26042
 21
-486.386612
 31
0.0
  0
LINE
  5
15A
100
AcDbEntity
  8
1
100
AcDbLine
 10
270.26042
 20
-491.386612
 30
0.0
 11
296.26042
 21
-491.386612
 31
0.0
  0
LINE
  5
15B
100
AcDbEntity
  8
1
100
AcDbLine
 10
270.26042
 20
-567.386612
 30
0.0
 11
296.26042
 21
-567.386612
 31
0.0
  0
LINE
  5
15C
100
AcDbEntity
  8
1
100
AcDbLine
 10
270.26042
 20
-572.386612
 30
0.0
 11
296.26042
 21
-572.386612
 31
0.0
  0
LINE
  5
15D
100
AcDbEntity
  8
1
100
AcDbLine
 10
270.26042
 20
-654.386612
 30
0.0
 11
296.26042
 21
-654.386612
 31
0.0
  0
LINE
  5
15E
100
AcDbEntity
  8
1
100
AcDbLine
 10
270.26042
 20
-659.386612
 30
0.0
 11
296.26042
 21
-659.386612
 31
0.0
  0
LINE
  5
15F
100
AcDbEntity
  8
1
100
AcDbLine
 10
302.26042
 20
-393.386612
 30
0.0
 11
302.26042
 21
-356.922623
 31
0.0
  0
LINE
  5
160
100
AcDbEntity
  8
1
100
AcDbLine
 10
264.26042
 20
-393.386612
 30
0.0
 11
264.26042
 21
-356.922623
 31
0.0
  0
LINE
  5
161
100
AcDbEntity
  8
1
100
AcDbLine
 10
264.26042
 20
-480.386612
 30
0.0
 11
264.26042
 21
-410.386612
 31
0.0
  0
LINE
  5
162
100
AcDbEntity
  8
1
100
AcDbLine
 10
302.26042
 20
-480.386612
 30
0.0
 11
302.26042
 21
-410.386612
 31
0.0
  0
LINE
  5
163
100
AcDbEntity
  8
1
100
AcDbLine
 10
302.26042
 20
-561.386612
 30
0.0
 11
302.26042
 21
-497.386612
 31
0.0
  0
LINE
  5
164
100
AcDbEntity
  8
1
100
AcDbLine
 10
264.26042
 20
-561.386612
 30
0.0
 11
264.26042
 21
-497.386612
 31
0.0
  0
LINE
  5
165
100
AcDbEntity
  8
1
100
AcDbLine
 10
264.26042
 20
-701.850602
 30
0.0
 11
264.26042
 21
-665.386612
 31
0.0
  0
LINE
  5
166
100
AcDbEntity
  8
1
100
AcDbLine
 10
264.26042
 20
-648.386612
 30
0.0
 11
264.26042
 21
-578.386612
 31
0.0
  0
LINE
  5
167
100
AcDbEntity
  8
1
100
AcDbLine
 10
302.26042
 20
-701.850602
 30
0.0
 11
302.26042
 21
-665.386612
 31
0.0
  0
LINE
  5
168
100
AcDbEntity
  8
1
100
AcDbLine
 10
302.26042
 20
-648.386612
 30
0.0
 11
302.26042
 21
-578.386612
 31
0.0
  0
ARC
  5
169
100
AcDbEntity
  8
1
100
AcDbCircle
 10
296.26042
 20
-480.386612
 30
0.0
 40
6.0
100
AcDbArc
 50
270.0
 51
360.0
  0
ARC
  5
16A
100
AcDbEntity
  8
1
100
AcDbCircle
 10
270.26042
 20
-480.386612
 30
0.0
 40
6.0
100
AcDbArc
 50
180.0
 51
270.0
  0
ARC
  5
16B
100
AcDbEntity
  8
1
100
AcDbCircle
 10
270.26042
 20
-410.386612
 30
0.0
 40
6.0
100
AcDbArc
 50
90.0
 51
180.0
  0
ARC
  5
16C
100
AcDbEntity
  8
1
100
AcDbCircle
 10
296.26042
 20
-410.386612
 30
0.0
 40
6.0
100
AcDbArc
 50
0.0
 51
90.0
  0
ARC
  5
16D
100
AcDbEntity
  8
1
100
AcDbCircle
 10
296.26042
 20
-497.386612
 30
0.0
 40
6.0
100
AcDbArc
 50
0.0
 51
90.0
  0
ARC
  5
16E
100
AcDbEntity
  8
1
100
AcDbCircle
 10
270.26042
 20
-497.386612
 30
0.0
 40
6.0
100
AcDbArc
 50
90.0
 51
180.0
  0
ARC
  5
16F
100
AcDbEntity
  8
1
100
AcDbCircle
 10
270.26042
 20
-561.386612
 30
0.0
 40
6.0
100
AcDbArc
 50
180.0
 51
270.0
  0
ARC
  5
170
100
AcDbEntity
  8
1
100
AcDbCircle
 10
296.26042
 20
-561.386612
 30
0.0
 40
6.0
100
AcDbArc
 50
270.0
 51
360.0
  0
ARC
  5
171
100
AcDbEntity
  8
1
100
AcDbCircle
 10
296.26042
 20
-578.386612
 30
0.0
 40
6.0
100
AcDbArc
 50
0.0
 51
90.0
  0
ARC
  5
172
100
AcDbEntity
  8
1
100
AcDbCircle
 10
270.26042
 20
-578.386612
 30
0.0
 40
6.0
100
AcDbArc
 50
90.0
 51
180.0
  0
ARC
  5
173
100
AcDbEntity
  8
1
100
AcDbCircle
 10
270.26042
 20
-648.386612
 30
0.0
 40
6.0
100
AcDbArc
 50
180.0
 51
270.0
  0
ARC
  5
174
100
AcDbEntity
  8
1
100
AcDbCircle
 10
296.26042
 20
-648.386612
 30
0.0
 40
6.0
100
AcDbArc
 50
270.0
 51
0.0
  0
ARC
  5
175
100
AcDbEntity
  8
1
100
AcDbCircle
 10
296.26042
 20
-665.386612
 30
0.0
 40
6.0
100
AcDbArc
 50
0.0
 51
90.0
  0
ARC
  5
176
100
AcDbEntity
  8
1
100
AcDbCircle
 10
270.26042
 20
-665.386612
 30
0.0
 40
6.0
100
AcDbArc
 50
90.0
 51
180.0
  0
ARC
  5
177
100
AcDbEntity
  8
1
100
AcDbCircle
 10
270.26042
 20
-393.386612
 30
0.0
 40
6.0
100
AcDbArc
 50
180.0
 51
270.0
  0
ARC
  5
178
100
AcDbEntity
  8
1
100
AcDbCircle
 10
296.26042
 20
-393.386612
 30
0.0
 40
6.0
100
AcDbArc
 50
270.0
 51
360.0
  0
ARC
  5
179
100
AcDbEntity
  8
1
100
AcDbCircle
 10
308.26042
 20
-356.922623
 30
0.0
 40
6.0
100
AcDbArc
 50
90.0
 51
180.0
  0
ARC
  5
17A
100
AcDbEntity
  8
1
100
AcDbCircle
 10
258.26042
 20
-356.922623
 30
0.0
 40
6.0
100
AcDbArc
 50
0.0
 51
90.0
  0
ARC
  5
17B
100
AcDbEntity
  8
1
100
AcDbCircle
 10
308.26042
 20
-701.850602
 30
0.0
 40
6.0
100
AcDbArc
 50
180.0
 51
270.0
  0
ARC
  5
17C
100
AcDbEntity
  8
1
100
AcDbCircle
 10
258.26042
 20
-701.850602
 30
0.0
 40
6.0
100
AcDbArc
 50
270.0
 51
0.0
  0
LINE
  5
17D
100
AcDbEntity
  8
1
100
AcDbLine
 10
260.26042
 20
-771.186612
 30
0.0
 11
306.26042
 21
-771.186612
 31
0.0
  0
LINE
  5
17E
100
AcDbEntity
  8
1
100
AcDbLine
 10
260.26042
 20
-774.186612
 30
0.0
 11
306.26042
 21
-774.186612
 31
0.0
  0
LINE
  5
17F
100
AcDbEntity
  8
1
100
AcDbLine
 10
306.26042
 20
-770.386612
 30
0.0
 11
306.26042
 21
-774.186612
 31
0.0
  0
LINE
  5
180
100
AcDbEntity
  8
1
100
AcDbLine
 10
260.26042
 20
-770.386612
 30
0.0
 11
260.26042
 21
-774.186612
 31
0.0
  0
CIRCLE
  5
181
100
AcDbEntity
  8
1
100
AcDbCircle
 10
-816.73958
 20
-529.386612
 30
0.0
 40
183.5
  0
CIRCLE
  5
182
100
AcDbEntity
  8
1
100
AcDbCircle
 10
-816.73958
 20
-529.386612
 30
0.0
 40
157.0
  0
CIRCLE
  5
183
100
AcDbEntity
  8
1
100
AcDbCircle
 10
-816.73958
 20
-529.386612
 30
0.0
 40
151.0
  0
LINE
  5
184
100
AcDbEntity
  8
1
100
AcDbLine
 10
-849.23958
 20
604.113388
 30
0.0
 11
-849.23958
 21
605.113388
 31
0.0
  0
LINE
  5
185
100
AcDbEntity
  8
1
  6
DASHED
100
AcDbLine
 10
-754.23958
 20
634.713388
 30
0.0
 11
-754.23958
 21
574.513388
 31
0.0
  0
LINE
  5
186
100
AcDbEntity
  8
1
  6
DASHED
100
AcDbLine
 10
-879.23958
 20
634.713388
 30
0.0
 11
-879.23958
 21
574.513388
 31
0.0
  0
LINE
  5
187
100
AcDbEntity
  8
1
  6
DASHED
100
AcDbLine
 10
-846.83958
 20
667.113388
 30
0.0
 11
-786.63958
 21
667.113388
 31
0.0
  0
LINE
  5
188
100
AcDbEntity
  8
1
  6
DASHED
100
AcDbLine
 10
-846.83958
 20
542.113388
 30
0.0
 11
-786.63958
 21
542.113388
 31
0.0
  0
ARC
  5
189
100
AcDbEntity
  8
1
  6
DASHED
100
AcDbCircle
 10
-786.63958
 20
634.713388
 30
0.0
 40
32.4
100
AcDbArc
 50
0.0
 51
90.0
  0
ARC
  5
18A
100
AcDbEntity
  8
1
  6
DASHED
100
AcDbCircle
 10
-846.83958
 20
634.713388
 30
0.0
 40
32.4
100
AcDbArc
 50
90.0
 51
180.0
  0
ARC
  5
18B
100
AcDbEntity
  8
1
  6
DASHED
100
AcDbCircle
 10
-846.83958
 20
574.513388
 30
0.0
 40
32.4
100
AcDbArc
 50
180.0
 51
270.0
  0
ARC
  5
18C
100
AcDbEntity
  8
1
  6
DASHED
100
AcDbCircle
 10
-786.63958
 20
574.513388
 30
0.0
 40
32.4
100
AcDbArc
 50
270.0
 51
360.0
  0
CIRCLE
  5
18D
100
AcDbEntity
  8
1
  6
DASHED
100
AcDbCircle
 10
-772.54458
 20
648.808388
 30
0.0
 40
6.5
  0
CIRCLE
  5
18E
100
AcDbEntity
  8
1
  6
DASHED
100
AcDbCircle
 10
-860.93458
 20
648.808388
 30
0.0
 40
6.5
  0
CIRCLE
  5
18F
100
AcDbEntity
  8
1
  6
DASHED
100
AcDbCircle
 10
-860.93458
 20
560.418388
 30
0.0
 40
6.5
  0
CIRCLE
  5
190
100
AcDbEntity
  8
1
  6
DASHED
100
AcDbCircle
 10
-772.54458
 20
560.418388
 30
0.0
 40
6.5
  0
LINE
  5
191
100
AcDbEntity
  8
1
  6
CENTER
 62
     2
100
AcDbLine
 10
-772.54458
 20
541.788755
 30
0.0
 11
-772.54458
 21
578.537046
 31
0.0
  0
LINE
  5
192
100
AcDbEntity
  8
1
  6
CENTER
 62
     2
100
AcDbLine
 10
-772.54458
 20
633.317197
 30
0.0
 11
-772.54458
 21
665.728849
 31
0.0
  0
LINE
  5
193
100
AcDbEntity
  8
1
  6
CENTER
 62
     2
100
AcDbLine
 10
-860.93458
 20
541.788755
 30
0.0
 11
-860.93458
 21
578.537046
 31
0.0
  0
LINE
  5
194
100
AcDbEntity
  8
1
  6
CENTER
 62
     2
100
AcDbLine
 10
-860.93458
 20
633.317197
 30
0.0
 11
-860.93458
 21
665.728849
 31
0.0
  0
LINE
  5
195
100
AcDbEntity
  8
1
  6
CENTER
 62
     2
100
AcDbLine
 10
-879.263462
 20
648.808388
 30
0.0
 11
-842.997837
 21
648.808388
 31
0.0
  0
LINE
  5
196
100
AcDbEntity
  8
1
  6
CENTER
 62
     2
100
AcDbLine
 10
-789.625751
 20
648.808388
 30
0.0
 11
-754.044361
 21
648.808388
 31
0.0
  0
LINE
  5
197
100
AcDbEntity
  8
1
  6
CENTER
 62
     2
100
AcDbLine
 10
-879.263462
 20
560.418388
 30
0.0
 11
-842.997837
 21
560.418388
 31
0.0
  0
LINE
  5
198
100
AcDbEntity
  8
1
  6
CENTER
 62
     2
100
AcDbLine
 10
-789.625751
 20
560.418388
 30
0.0
 11
-754.044361
 21
560.418388
 31
0.0
  0
LINE
  5
199
100
AcDbEntity
  8
1
  6
DASHED
100
AcDbLine
 10
-634.23958
 20
565.613388
 30
0.0
 11
-633.23958
 21
566.613388
 31
0.0
  0
LINE
  5
19A
100
AcDbEntity
  8
1
100
AcDbLine
 10
-633.23958
 20
642.613388
 30
0.0
 11
-634.23958
 21
643.613388
 31
0.0
  0
LINE
  5
19B
100
AcDbEntity
  8
1
  6
DASHED
100
AcDbLine
 10
-755.485928
 20
565.613388
 30
0.0
 11
-634.23958
 21
565.613388
 31
0.0
  0
LINE
  5
19C
100
AcDbEntity
  8
1
  6
DASHED
100
AcDbLine
 10
-755.217454
 20
566.613388
 30
0.0
 11
-633.23958
 21
566.613388
 31
0.0
  0
LINE
  5
19D
100
AcDbEntity
  8
1
  6
DASHED
100
AcDbLine
 10
-633.23958
 20
566.613388
 30
0.0
 11
-633.23958
 21
581.412142
 31
0.0
  0
LINE
  5
19E
100
AcDbEntity
  8
1
  6
DASHED
100
AcDbLine
 10
-633.23958
 20
627.814633
 30
0.0
 11
-633.23958
 21
642.613388
 31
0.0
  0
LINE
  5
19F
100
AcDbEntity
  8
1
  6
DASHED
100
AcDbLine
 10
-641.08467
 20
622.647778
 30
0.0
 11
-653.301518
 21
618.335819
 31
0.0
  0
LINE
  5
1A0
100
AcDbEntity
  8
1
  6
DASHED
100
AcDbLine
 10
-653.301518
 20
590.890956
 30
0.0
 11
-641.08467
 21
586.578998
 31
0.0
  0
LINE
  5
1A1
100
AcDbEntity
  8
1
  6
DASHED
100
AcDbLine
 10
-708.753469
 20
618.335819
 30
0.0
 11
-691.306037
 21
622.830881
 31
0.0
  0
LINE
  5
1A2
100
AcDbEntity
  8
1
  6
DASHED
100
AcDbLine
 10
-708.753469
 20
590.890956
 30
0.0
 11
-691.306037
 21
586.395894
 31
0.0
  0
LINE
  5
1A3
100
AcDbEntity
  8
1
  6
DASHED
100
AcDbLine
 10
-999.23958
 20
565.613388
 30
0.0
 11
-1000.23958
 21
566.613388
 31
0.0
  0
LINE
  5
1A4
100
AcDbEntity
  8
1
  6
DASHED
100
AcDbLine
 10
-1000.23958
 20
642.613388
 30
0.0
 11
-999.23958
 21
643.613388
 31
0.0
  0
LINE
  5
1A5
100
AcDbEntity
  8
1
  6
DASHED
100
AcDbLine
 10
-877.993231
 20
565.613388
 30
0.0
 11
-999.23958
 21
565.613388
 31
0.0
  0
LINE
  5
1A6
100
AcDbEntity
  8
1
  6
DASHED
100
AcDbLine
 10
-878.261706
 20
566.613388
 30
0.0
 11
-1000.23958
 21
566.613388
 31
0.0
  0
LINE
  5
1A7
100
AcDbEntity
  8
1
  6
DASHED
100
AcDbLine
 10
-1000.23958
 20
566.613388
 30
0.0
 11
-1000.23958
 21
581.412142
 31
0.0
  0
LINE
  5
1A8
100
AcDbEntity
  8
1
100
AcDbLine
 10
-992.39449
 20
622.647778
 30
0.0
 11
-980.177641
 21
618.335819
 31
0.0
  0
LINE
  5
1A9
100
AcDbEntity
  8
1
  6
DASHED
100
AcDbLine
 10
-980.177641
 20
590.890956
 30
0.0
 11
-992.39449
 21
586.578998
 31
0.0
  0
LINE
  5
1AA
100
AcDbEntity
  8
1
100
AcDbLine
 10
-924.72569
 20
618.335819
 30
0.0
 11
-942.173122
 21
622.830881
 31
0.0
  0
LINE
  5
1AB
100
AcDbEntity
  8
1
  6
DASHED
100
AcDbLine
 10
-924.72569
 20
590.890956
 30
0.0
 11
-942.173122
 21
586.395894
 31
0.0
  0
LINE
  5
1AC
100
AcDbEntity
  8
1
  6
DASHED
100
AcDbLine
 10
-991.200729
 20
645.349874
 30
0.0
 11
-993.231857
 21
644.189229
 31
0.0
  0
LINE
  5
1AD
100
AcDbEntity
  8
1
  6
DASHED
100
AcDbLine
 10
-991.200729
 20
563.876901
 30
0.0
 11
-993.231857
 21
565.037546
 31
0.0
  0
ARC
  5
1AE
100
AcDbEntity
  8
1
  6
DASHED
100
AcDbCircle
 10
-990.208451
 20
643.613388
 30
0.0
 40
2.0
100
AcDbArc
 50
90.0
 51
119.744881
  0
ARC
  5
1AF
100
AcDbEntity
  8
1
  6
DASHED
100
AcDbCircle
 10
-990.208451
 20
565.613388
 30
0.0
 40
2.0
100
AcDbArc
 50
240.255119
 51
270.0
  0
ARC
  5
1B0
100
AcDbEntity
  8
1
  6
DASHED
100
AcDbCircle
 10
-992.23958
 20
566.774033
 30
0.0
 40
2.0
100
AcDbArc
 50
215.473231
 51
240.255119
  0
ARC
  5
1B1
100
AcDbEntity
  8
1
  6
DASHED
100
AcDbCircle
 10
-992.23958
 20
642.452743
 30
0.0
 40
2.0
100
AcDbArc
 50
119.744881
 51
144.526769
  0
LINE
  5
1B2
100
AcDbEntity
  8
1
100
AcDbLine
 10
-642.278431
 20
645.349874
 30
0.0
 11
-640.247302
 21
644.189229
 31
0.0
  0
LINE
  5
1B3
100
AcDbEntity
  8
1
  6
DASHED
100
AcDbLine
 10
-642.278431
 20
563.876901
 30
0.0
 11
-640.247302
 21
565.037546
 31
0.0
  0
ARC
  5
1B4
100
AcDbEntity
  8
1
100
AcDbCircle
 10
-643.270708
 20
643.613388
 30
0.0
 40
2.0
100
AcDbArc
 50
60.255119
 51
90.0
  0
ARC
  5
1B5
100
AcDbEntity
  8
1
  6
DASHED
100
AcDbCircle
 10
-643.270708
 20
565.613388
 30
0.0
 40
2.0
100
AcDbArc
 50
270.0
 51
299.744881
  0
ARC
  5
1B6
100
AcDbEntity
  8
1
  6
DASHED
100
AcDbCircle
 10
-641.23958
 20
566.774033
 30
0.0
 40
2.0
100
AcDbArc
 50
299.744881
 51
324.526769
  0
ARC
  5
1B7
100
AcDbEntity
  8
1
100
AcDbCircle
 10
-641.23958
 20
642.452743
 30
0.0
 40
2.0
100
AcDbArc
 50
35.473231
 51
60.255119
  0
LINE
  5
1B8
100
AcDbEntity
  8
1
  6
DASHED
100
AcDbLine
 10
-990.208451
 20
563.613388
 30
0.0
 11
-877.351053
 21
563.613388
 31
0.0
  0
LINE
  5
1B9
100
AcDbEntity
  8
1
  6
DASHED
100
AcDbLine
 10
-756.128106
 20
563.613388
 30
0.0
 11
-643.270708
 21
563.613388
 31
0.0
  0
LINE
  5
1BA
100
AcDbEntity
  8
1
  6
DASHED
100
AcDbLine
 10
-638.348857
 20
591.613388
 30
0.0
 11
-638.348857
 21
617.613388
 31
0.0
  0
LINE
  5
1BB
100
AcDbEntity
  8
1
  6
DASHED
100
AcDbLine
 10
-637.217297
 20
590.336434
 30
0.0
 11
-637.217297
 21
618.890341
 31
0.0
  0
LINE
  5
1BC
100
AcDbEntity
  8
1
  6
DASHED
100
AcDbLine
 10
-682.399526
 20
591.613388
 30
0.0
 11
-682.399526
 21
617.613388
 31
0.0
  0
LINE
  5
1BD
100
AcDbEntity
  8
1
  6
DASHED
100
AcDbLine
 10
-688.268766
 20
591.613388
 30
0.0
 11
-688.268766
 21
617.613388
 31
0.0
  0
LINE
  5
1BE
100
AcDbEntity
  8
1
  6
DASHED
100
AcDbLine
 10
-676.399526
 20
623.613388
 30
0.0
 11
-644.348857
 21
623.613388
 31
0.0
  0
LINE
  5
1BF
100
AcDbEntity
  8
1
  6
DASHED
100
AcDbLine
 10
-754.23958
 20
585.613388
 30
0.0
 11
-694.268766
 21
585.613388
 31
0.0
  0
LINE
  5
1C0
100
AcDbEntity
  8
1
  6
DASHED
100
AcDbLine
 10
-676.399526
 20
585.613388
 30
0.0
 11
-644.348857
 21
585.613388
 31
0.0
  0
ARC
  5
1C1
100
AcDbEntity
  8
1
  6
DASHED
100
AcDbCircle
 10
-694.268766
 20
617.613388
 30
0.0
 40
6.0
100
AcDbArc
 50
0.0
 51
90.0
  0
ARC
  5
1C2
100
AcDbEntity
  8
1
  6
DASHED
100
AcDbCircle
 10
-694.268766
 20
591.613388
 30
0.0
 40
6.0
100
AcDbArc
 50
270.0
 51
360.0
  0
ARC
  5
1C3
100
AcDbEntity
  8
1
  6
DASHED
100
AcDbCircle
 10
-676.399526
 20
591.613388
 30
0.0
 40
6.0
100
AcDbArc
 50
180.0
 51
270.0
  0
ARC
  5
1C4
100
AcDbEntity
  8
1
  6
DASHED
100
AcDbCircle
 10
-676.399526
 20
617.613388
 30
0.0
 40
6.0
100
AcDbArc
 50
90.0
 51
180.0
  0
ARC
  5
1C5
100
AcDbEntity
  8
1
  6
DASHED
100
AcDbCircle
 10
-644.348857
 20
617.613388
 30
0.0
 40
6.0
100
AcDbArc
 50
0.0
 51
90.0
  0
ARC
  5
1C6
100
AcDbEntity
  8
1
  6
DASHED
100
AcDbCircle
 10
-644.348857
 20
591.613388
 30
0.0
 40
6.0
100
AcDbArc
 50
270.0
 51
360.0
  0
ARC
  5
1C7
100
AcDbEntity
  8
1
  6
DASHED
100
AcDbCircle
 10
-639.23958
 20
627.814633
 30
0.0
 40
6.0
100
AcDbArc
 50
311.953215
 51
360.0
  0
ARC
  5
1C8
100
AcDbEntity
  8
1
  6
DASHED
100
AcDbCircle
 10
-639.23958
 20
581.412142
 30
0.0
 40
6.0
100
AcDbArc
 50
0.0
 51
48.046785
  0
ARC
  5
1C9
100
AcDbEntity
  8
1
  6
DASHED
100
AcDbCircle
 10
-631.217297
 20
590.336434
 30
0.0
 40
6.0
100
AcDbArc
 50
180.0
 51
228.046785
  0
ARC
  5
1CA
100
AcDbEntity
  8
1
  6
DASHED
100
AcDbCircle
 10
-631.217297
 20
618.890341
 30
0.0
 40
6.0
100
AcDbArc
 50
131.953215
 51
180.0
  0
LINE
  5
1CB
100
AcDbEntity
  8
1
  6
DASHED
100
AcDbLine
 10
-708.753469
 20
595.092201
 30
0.0
 11
-708.753469
 21
614.134574
 31
0.0
  0
LINE
  5
1CC
100
AcDbEntity
  8
1
  6
DASHED
100
AcDbLine
 10
-682.355875
 20
618.335819
 30
0.0
 11
-657.502763
 21
618.335819
 31
0.0
  0
LINE
  5
1CD
100
AcDbEntity
  8
1
  6
DASHED
100
AcDbLine
 10
-754.23958
 20
590.890956
 30
0.0
 11
-712.954715
 21
590.890956
 31
0.0
  0
LINE
  5
1CE
100
AcDbEntity
  8
1
  6
DASHED
100
AcDbLine
 10
-682.355875
 20
590.890956
 30
0.0
 11
-657.502763
 21
590.890956
 31
0.0
  0
ARC
  5
1CF
100
AcDbEntity
  8
1
  6
DASHED
100
AcDbCircle
 10
-712.954715
 20
595.092201
 30
0.0
 40
4.201245
100
AcDbArc
 50
270.0
 51
0.0
  0
LINE
  5
1D0
100
AcDbEntity
  8
1
  6
DASHED
100
AcDbLine
 10
-653.301518
 20
595.092201
 30
0.0
 11
-653.301518
 21
614.134574
 31
0.0
  0
ARC
  5
1D1
100
AcDbEntity
  8
1
  6
DASHED
100
AcDbCircle
 10
-657.502763
 20
614.134574
 30
0.0
 40
4.201245
100
AcDbArc
 50
0.0
 51
90.0
  0
ARC
  5
1D2
100
AcDbEntity
  8
1
  6
DASHED
100
AcDbCircle
 10
-657.502763
 20
595.092201
 30
0.0
 40
4.201245
100
AcDbArc
 50
270.0
 51
360.0
  0
LINE
  5
1D3
100
AcDbEntity
  8
1
100
AcDbLine
 10
-957.079633
 20
623.613388
 30
0.0
 11
-989.130302
 21
623.613388
 31
0.0
  0
LINE
  5
1D4
100
AcDbEntity
  8
1
  6
DASHED
100
AcDbLine
 10
-879.23958
 20
585.613388
 30
0.0
 11
-939.210393
 21
585.613388
 31
0.0
  0
LINE
  5
1D5
100
AcDbEntity
  8
1
  6
DASHED
100
AcDbLine
 10
-957.079633
 20
585.613388
 30
0.0
 11
-989.130302
 21
585.613388
 31
0.0
  0
ARC
  5
1D6
100
AcDbEntity
  8
1
100
AcDbCircle
 10
-939.210393
 20
617.613388
 30
0.0
 40
6.0
100
AcDbArc
 50
90.0
 51
180.0
  0
ARC
  5
1D7
100
AcDbEntity
  8
1
  6
DASHED
100
AcDbCircle
 10
-939.210393
 20
591.613388
 30
0.0
 40
6.0
100
AcDbArc
 50
180.0
 51
270.0
  0
ARC
  5
1D8
100
AcDbEntity
  8
1
  6
DASHED
100
AcDbCircle
 10
-957.079633
 20
591.613388
 30
0.0
 40
6.0
100
AcDbArc
 50
270.0
 51
360.0
  0
ARC
  5
1D9
100
AcDbEntity
  8
1
100
AcDbCircle
 10
-957.079633
 20
617.613388
 30
0.0
 40
6.0
100
AcDbArc
 50
0.0
 51
90.0
  0
ARC
  5
1DA
100
AcDbEntity
  8
1
100
AcDbCircle
 10
-989.130302
 20
617.613388
 30
0.0
 40
6.0
100
AcDbArc
 50
90.0
 51
180.0
  0
ARC
  5
1DB
100
AcDbEntity
  8
1
  6
DASHED
100
AcDbCircle
 10
-989.130302
 20
591.613388
 30
0.0
 40
6.0
100
AcDbArc
 50
180.0
 51
270.0
  0
ARC
  5
1DC
100
AcDbEntity
  8
1
100
AcDbCircle
 10
-994.23958
 20
627.814633
 30
0.0
 40
6.0
100
AcDbArc
 50
180.0
 51
228.046785
  0
ARC
  5
1DD
100
AcDbEntity
  8
1
  6
DASHED
100
AcDbCircle
 10
-994.23958
 20
581.412142
 30
0.0
 40
6.0
100
AcDbArc
 50
131.953215
 51
180.0
  0
ARC
  5
1DE
100
AcDbEntity
  8
1
  6
DASHED
100
AcDbCircle
 10
-1002.261862
 20
590.336434
 30
0.0
 40
6.0
100
AcDbArc
 50
311.953215
 51
360.0
  0
ARC
  5
1DF
100
AcDbEntity
  8
1
100
AcDbCircle
 10
-1002.261862
 20
618.890341
 30
0.0
 40
6.0
100
AcDbArc
 50
0.0
 51
48.046785
  0
LINE
  5
1E0
100
AcDbEntity
  8
1
100
AcDbLine
 10
-951.123284
 20
618.335819
 30
0.0
 11
-975.976396
 21
618.335819
 31
0.0
  0
LINE
  5
1E1
100
AcDbEntity
  8
1
  6
DASHED
100
AcDbLine
 10
-879.23958
 20
590.890956
 30
0.0
 11
-920.524445
 21
590.890956
 31
0.0
  0
LINE
  5
1E2
100
AcDbEntity
  8
1
  6
DASHED
100
AcDbLine
 10
-951.123284
 20
590.890956
 30
0.0
 11
-975.976396
 21
590.890956
 31
0.0
  0
ARC
  5
1E3
100
AcDbEntity
  8
1
100
AcDbCircle
 10
-920.524445
 20
614.134574
 30
0.0
 40
4.201245
100
AcDbArc
 50
90.0
 51
180.0
  0
ARC
  5
1E4
100
AcDbEntity
  8
1
  6
DASHED
100
AcDbCircle
 10
-920.524445
 20
595.092201
 30
0.0
 40
4.201245
100
AcDbArc
 50
180.0
 51
270.0
  0
ARC
  5
1E5
100
AcDbEntity
  8
1
100
AcDbCircle
 10
-975.976396
 20
614.134574
 30
0.0
 40
4.201245
100
AcDbArc
 50
90.0
 51
180.0
  0
ARC
  5
1E6
100
AcDbEntity
  8
1
  6
DASHED
100
AcDbCircle
 10
-975.976396
 20
595.092201
 30
0.0
 40
4.201245
100
AcDbArc
 50
180.0
 51
270.0
  0
LINE
  5
1E7
100
AcDbEntity
  8
1
  6
DASHED
100
AcDbLine
 10
-976.73958
 20
642.613388
 30
0.0
 11
-1000.23958
 21
642.613388
 31
0.0
  0
LINE
  5
1E8
100
AcDbEntity
  8
1
  6
DASHED
100
AcDbLine
 10
-976.73958
 20
643.613388
 30
0.0
 11
-999.23958
 21
643.613388
 31
0.0
  0
LINE
  5
1E9
100
AcDbEntity
  8
1
  6
DASHED
100
AcDbLine
 10
-990.208451
 20
645.613388
 30
0.0
 11
-976.73958
 21
645.613388
 31
0.0
  0
LINE
  5
1EA
100
AcDbEntity
  8
1
100
AcDbLine
 10
-1000.23958
 20
627.814633
 30
0.0
 11
-1000.23958
 21
631.613388
 31
0.0
  0
LINE
  5
1EB
100
AcDbEntity
  8
1
  6
DASHED
100
AcDbLine
 10
-1000.23958
 20
631.613388
 30
0.0
 11
-1000.23958
 21
642.613388
 31
0.0
  0
LINE
  5
1EC
100
AcDbEntity
  8
1
  6
DASHED
100
AcDbLine
 10
-951.079633
 20
591.613388
 30
0.0
 11
-951.079633
 21
611.613388
 31
0.0
  0
LINE
  5
1ED
100
AcDbEntity
  8
1
100
AcDbLine
 10
-951.079633
 20
611.613388
 30
0.0
 11
-951.079633
 21
617.613388
 31
0.0
  0
LINE
  5
1EE
100
AcDbEntity
  8
1
  6
DASHED
100
AcDbLine
 10
-945.210393
 20
591.613388
 30
0.0
 11
-945.210393
 21
614.113388
 31
0.0
  0
LINE
  5
1EF
100
AcDbEntity
  8
1
100
AcDbLine
 10
-945.210393
 20
614.113388
 30
0.0
 11
-945.210393
 21
617.613388
 31
0.0
  0
LINE
  5
1F0
100
AcDbEntity
  8
1
  6
DASHED
100
AcDbLine
 10
-980.177641
 20
595.092201
 30
0.0
 11
-980.177641
 21
611.613388
 31
0.0
  0
LINE
  5
1F1
100
AcDbEntity
  8
1
100
AcDbLine
 10
-980.177641
 20
611.613388
 30
0.0
 11
-980.177641
 21
614.134574
 31
0.0
  0
LINE
  5
1F2
100
AcDbEntity
  8
1
  6
DASHED
100
AcDbLine
 10
-995.130302
 20
591.613388
 30
0.0
 11
-995.130302
 21
611.613388
 31
0.0
  0
LINE
  5
1F3
100
AcDbEntity
  8
1
100
AcDbLine
 10
-995.130302
 20
611.613388
 30
0.0
 11
-995.130302
 21
617.613388
 31
0.0
  0
LINE
  5
1F4
100
AcDbEntity
  8
1
  6
DASHED
100
AcDbLine
 10
-996.261862
 20
590.336434
 30
0.0
 11
-996.261862
 21
611.613388
 31
0.0
  0
LINE
  5
1F5
100
AcDbEntity
  8
1
100
AcDbLine
 10
-996.261862
 20
611.613388
 30
0.0
 11
-996.261862
 21
618.890341
 31
0.0
  0
LINE
  5
1F6
100
AcDbEntity
  8
1
  6
DASHED
100
AcDbLine
 10
-879.23958
 20
623.613388
 30
0.0
 11
-886.73958
 21
623.613388
 31
0.0
  0
LINE
  5
1F7
100
AcDbEntity
  8
1
100
AcDbLine
 10
-886.73958
 20
623.613388
 30
0.0
 11
-939.210393
 21
623.613388
 31
0.0
  0
LINE
  5
1F8
100
AcDbEntity
  8
1
  6
DASHED
100
AcDbLine
 10
-879.23958
 20
618.335819
 30
0.0
 11
-891.4325
 21
618.335819
 31
0.0
  0
LINE
  5
1F9
100
AcDbEntity
  8
1
100
AcDbLine
 10
-891.4325
 20
618.335819
 30
0.0
 11
-920.524445
 21
618.335819
 31
0.0
  0
LINE
  5
1FA
100
AcDbEntity
  8
1
  6
DASHED
100
AcDbLine
 10
-924.72569
 20
595.092201
 30
0.0
 11
-924.72569
 21
614.113388
 31
0.0
  0
LINE
  5
1FB
100
AcDbEntity
  8
1
100
AcDbLine
 10
-924.72569
 20
614.113388
 30
0.0
 11
-924.72569
 21
614.134574
 31
0.0
  0
LINE
  5
1FC
100
AcDbEntity
  8
1
100
AcDbLine
 10
-976.73958
 20
645.613388
 30
0.0
 11
-886.73958
 21
645.613388
 31
0.0
  0
LINE
  5
1FD
100
AcDbEntity
  8
1
  6
DASHED
100
AcDbLine
 10
-886.73958
 20
645.613388
 30
0.0
 11
-877.351053
 21
645.613388
 31
0.0
  0
LINE
  5
1FE
100
AcDbEntity
  8
1
  6
DASHED
100
AcDbLine
 10
-877.993231
 20
643.613388
 30
0.0
 11
-886.73958
 21
643.613388
 31
0.0
  0
LINE
  5
1FF
100
AcDbEntity
  8
1
100
AcDbLine
 10
-886.73958
 20
643.613388
 30
0.0
 11
-976.73958
 21
643.613388
 31
0.0
  0
LINE
  5
200
100
AcDbEntity
  8
1
  6
DASHED
100
AcDbLine
 10
-878.261706
 20
642.613388
 30
0.0
 11
-886.73958
 21
642.613388
 31
0.0
  0
LINE
  5
201
100
AcDbEntity
  8
1
100
AcDbLine
 10
-886.73958
 20
642.613388
 30
0.0
 11
-976.73958
 21
642.613388
 31
0.0
  0
LINE
  5
202
100
AcDbEntity
  8
1
  6
DASHED
100
AcDbLine
 10
-756.128106
 20
645.613388
 30
0.0
 11
-746.73958
 21
645.613388
 31
0.0
  0
LINE
  5
203
100
AcDbEntity
  8
1
  6
DASHED
100
AcDbLine
 10
-755.485928
 20
643.613388
 30
0.0
 11
-746.73958
 21
643.613388
 31
0.0
  0
LINE
  5
204
100
AcDbEntity
  8
1
  6
DASHED
100
AcDbLine
 10
-755.217454
 20
642.613388
 30
0.0
 11
-746.73958
 21
642.613388
 31
0.0
  0
LINE
  5
205
100
AcDbEntity
  8
1
  6
DASHED
100
AcDbLine
 10
-754.23958
 20
623.613388
 30
0.0
 11
-746.73958
 21
623.613388
 31
0.0
  0
LINE
  5
206
100
AcDbEntity
  8
1
100
AcDbLine
 10
-746.73958
 20
645.613388
 30
0.0
 11
-709.73958
 21
645.613388
 31
0.0
  0
LINE
  5
207
100
AcDbEntity
  8
1
  6
DASHED
100
AcDbLine
 10
-709.73958
 20
645.613388
 30
0.0
 11
-643.270708
 21
645.613388
 31
0.0
  0
LINE
  5
208
100
AcDbEntity
  8
1
100
AcDbLine
 10
-746.73958
 20
643.613388
 30
0.0
 11
-709.73958
 21
643.613388
 31
0.0
  0
LINE
  5
209
100
AcDbEntity
  8
1
  6
DASHED
100
AcDbLine
 10
-709.73958
 20
643.613388
 30
0.0
 11
-634.23958
 21
643.613388
 31
0.0
  0
LINE
  5
20A
100
AcDbEntity
  8
1
100
AcDbLine
 10
-746.73958
 20
642.613388
 30
0.0
 11
-709.73958
 21
642.613388
 31
0.0
  0
LINE
  5
20B
100
AcDbEntity
  8
1
  6
DASHED
100
AcDbLine
 10
-709.73958
 20
642.613388
 30
0.0
 11
-633.23958
 21
642.613388
 31
0.0
  0
LINE
  5
20C
100
AcDbEntity
  8
1
100
AcDbLine
 10
-746.73958
 20
623.613388
 30
0.0
 11
-709.73958
 21
623.613388
 31
0.0
  0
LINE
  5
20D
100
AcDbEntity
  8
1
  6
DASHED
100
AcDbLine
 10
-709.73958
 20
623.613388
 30
0.0
 11
-694.268766
 21
623.613388
 31
0.0
  0
ARC
  5
20E
100
AcDbEntity
  8
1
  6
DASHED
100
AcDbCircle
 10
-712.954715
 20
614.134574
 30
0.0
 40
4.201245
100
AcDbArc
 50
0.0
 51
60.691219
  0
ARC
  5
20F
100
AcDbEntity
  8
1
100
AcDbCircle
 10
-712.954715
 20
614.134574
 30
0.0
 40
4.201245
100
AcDbArc
 50
60.691219
 51
90.0
  0
LINE
  5
210
100
AcDbEntity
  8
1
  6
DASHED
100
AcDbLine
 10
-754.23958
 20
618.335819
 30
0.0
 11
-742.046659
 21
618.335819
 31
0.0
  0
LINE
  5
211
100
AcDbEntity
  8
1
100
AcDbLine
 10
-742.046659
 20
618.335819
 30
0.0
 11
-712.954715
 21
618.335819
 31
0.0
  0
POINT
  5
212
100
AcDbEntity
  8
1
100
AcDbPoint
 10
-816.73958
 20
604.613388
 30
0.0
  0
POINT
  5
213
100
AcDbEntity
  8
1
100
AcDbPoint
 10
-816.73958
 20
-217.386612
 30
0.0
  0
POINT
  5
214
100
AcDbEntity
  8
1
100
AcDbPoint
 10
283.26042
 20
-217.386612
 30
0.0
  0
LINE
  5
215
100
AcDbEntity
  8
1
  6
CENTER
 62
     2
100
AcDbLine
 10
283.26042
 20
-788.514122
 30
0.0
 11
283.26042
 21
-217.386612
 31
0.0
  0
LINE
  5
216
100
AcDbEntity
  8
1
  6
CENTER
 62
     2
100
AcDbLine
 10
-816.73958
 20
-217.386612
 30
0.0
 11
-816.73958
 21
-796.13898
 31
0.0
  0
LINE
  5
217
100
AcDbEntity
  8
2
100
AcDbLine
 10
-919.73958
 20
616.613388
 30
0.0
 11
-919.73958
 21
472.613388
 31
0.0
  0
LINE
  5
218
100
AcDbEntity
  8
2
100
AcDbLine
 10
-713.73958
 20
616.613388
 30
0.0
 11
-713.73958
 21
472.613388
 31
0.0
  0
LINE
  5
219
100
AcDbEntity
  8
2
100
AcDbLine
 10
-741.73958
 20
613.613388
 30
0.0
 11
-741.73958
 21
475.613388
 31
0.0
  0
LINE
  5
21A
100
AcDbEntity
  8
2
100
AcDbLine
 10
-891.73958
 20
613.613388
 30
0.0
 11
-891.73958
 21
475.613388
 31
0.0
  0
LINE
  5
21B
100
AcDbEntity
  8
2
100
AcDbLine
 10
-835.334783
 20
644.49093
 30
0.0
 11
-891.099894
 21
618.487232
 31
0.0
  0
LINE
  5
21C
100
AcDbEntity
  8
2
100
AcDbLine
 10
-713.73958
 20
616.613388
 30
0.0
 11
-738.73958
 21
616.613388
 31
0.0
  0
LINE
  5
21D
100
AcDbEntity
  8
2
100
AcDbLine
 10
-894.73958
 20
616.613388
 30
0.0
 11
-919.73958
 21
616.613388
 31
0.0
  0
ARC
  5
21E
100
AcDbEntity
  8
2
100
AcDbCircle
 10
-899.552259
 20
636.613388
 30
0.0
 40
20.0
100
AcDbArc
 50
270.0
 51
295.0
  0
ARC
  5
21F
100
AcDbEntity
  8
2
100
AcDbCircle
 10
-733.9269
 20
636.613388
 30
0.0
 40
20.0
100
AcDbArc
 50
245.0
 51
270.0
  0
ARC
  5
220
100
AcDbEntity
  8
2
100
AcDbCircle
 10
-894.73958
 20
613.613388
 30
0.0
 40
3.0
100
AcDbArc
 50
0.0
 51
90.0
  0
ARC
  5
221
100
AcDbEntity
  8
2
100
AcDbCircle
 10
-738.73958
 20
613.613388
 30
0.0
 40
3.0
100
AcDbArc
 50
90.0
 51
180.0
  0
ARC
  5
222
100
AcDbEntity
  8
2
100
AcDbCircle
 10
-816.73958
 20
604.613388
 30
0.0
 40
44.0
100
AcDbArc
 50
65.0
 51
115.0
  0
LINE
  5
223
100
AcDbEntity
  8
2
100
AcDbLine
 10
-791.73958
 20
657.613388
 30
0.0
 11
-841.73958
 21
657.613388
 31
0.0
  0
LINE
  5
224
100
AcDbEntity
  8
2
100
AcDbLine
 10
-791.73958
 20
647.875027
 30
0.0
 11
-791.73958
 21
661.813388
 31
0.0
  0
LINE
  5
225
100
AcDbEntity
  8
2
100
AcDbLine
 10
-841.73958
 20
647.875027
 30
0.0
 11
-841.73958
 21
661.813388
 31
0.0
  0
ARC
  5
226
100
AcDbEntity
  8
2
100
AcDbCircle
 10
-851.73958
 20
647.875027
 30
0.0
 40
10.0
100
AcDbArc
 50
295.0
 51
360.0
  0
ARC
  5
227
100
AcDbEntity
  8
2
100
AcDbCircle
 10
-781.73958
 20
647.875027
 30
0.0
 40
10.0
100
AcDbArc
 50
180.0
 51
245.0
  0
CIRCLE
  5
228
100
AcDbEntity
  8
2
 62
     2
100
AcDbCircle
 10
-902.73958
 20
572.613388
 30
0.0
 40
3.0
  0
CIRCLE
  5
229
100
AcDbEntity
  8
2
100
AcDbCircle
 10
-902.73958
 20
572.613388
 30
0.0
 40
2.459
  0
CIRCLE
  5
22A
100
AcDbEntity
  8
2
100
AcDbCircle
 10
-902.73958
 20
572.613388
 30
0.0
 40
7.0
  0
CIRCLE
  5
22B
100
AcDbEntity
  8
2
 62
     2
100
AcDbCircle
 10
-902.73958
 20
536.613388
 30
0.0
 40
3.0
  0
CIRCLE
  5
22C
100
AcDbEntity
  8
2
100
AcDbCircle
 10
-902.73958
 20
536.613388
 30
0.0
 40
2.459
  0
CIRCLE
  5
22D
100
AcDbEntity
  8
2
100
AcDbCircle
 10
-902.73958
 20
536.613388
 30
0.0
 40
7.0
  0
CIRCLE
  5
22E
100
AcDbEntity
  8
2
 62
     2
100
AcDbCircle
 10
-730.73958
 20
572.613388
 30
0.0
 40
3.0
  0
CIRCLE
  5
22F
100
AcDbEntity
  8
2
100
AcDbCircle
 10
-730.73958
 20
572.613388
 30
0.0
 40
2.459
  0
CIRCLE
  5
230
100
AcDbEntity
  8
2
100
AcDbCircle
 10
-730.73958
 20
572.613388
 30
0.0
 40
7.0
  0
CIRCLE
  5
231
100
AcDbEntity
  8
2
 62
     2
100
AcDbCircle
 10
-730.73958
 20
536.613388
 30
0.0
 40
3.0
  0
CIRCLE
  5
232
100
AcDbEntity
  8
2
100
AcDbCircle
 10
-730.73958
 20
536.613388
 30
0.0
 40
2.459
  0
CIRCLE
  5
233
100
AcDbEntity
  8
2
100
AcDbCircle
 10
-730.73958
 20
536.613388
 30
0.0
 40
7.0
  0
LINE
  5
234
100
AcDbEntity
  8
2
100
AcDbLine
 10
-774.73958
 20
674.613388
 30
0.0
 11
-858.73958
 21
674.613388
 31
0.0
  0
LINE
  5
235
100
AcDbEntity
  8
2
100
AcDbLine
 10
-746.73958
 20
620.52048
 30
0.0
 11
-746.73958
 21
646.613388
 31
0.0
  0
LINE
  5
236
100
AcDbEntity
  8
2
100
AcDbLine
 10
-886.73958
 20
620.52048
 30
0.0
 11
-886.73958
 21
646.613388
 31
0.0
  0
ARC
  5
237
100
AcDbEntity
  8
2
100
AcDbCircle
 10
-858.73958
 20
646.613388
 30
0.0
 40
28.0
100
AcDbArc
 50
90.0
 51
180.0
  0
ARC
  5
238
100
AcDbEntity
  8
2
100
AcDbCircle
 10
-774.73958
 20
646.613388
 30
0.0
 40
28.0
100
AcDbArc
 50
0.0
 51
90.0
  0
TEXT
  5
239
100
AcDbEntity
  8
2
100
AcDbText
 10
-879.23958
 20
521.613388
 30
0.0
 40
11.4
  1
ＴＯＭＯＥ　ＶＡＬＶＥ
 72
     5
 11
-756.11958
 21
521.613388
 31
0.0
100
AcDbText
  0
LINE
  5
23A
100
AcDbEntity
  8
2
100
AcDbLine
 10
-713.73958
 20
472.613388
 30
0.0
 11
-738.73958
 21
472.613388
 31
0.0
  0
LINE
  5
23B
100
AcDbEntity
  8
2
100
AcDbLine
 10
-894.73958
 20
472.613388
 30
0.0
 11
-919.73958
 21
472.613388
 31
0.0
  0
ARC
  5
23C
100
AcDbEntity
  8
2
100
AcDbCircle
 10
-894.73958
 20
475.613388
 30
0.0
 40
3.0
100
AcDbArc
 50
270.0
 51
360.0
  0
ARC
  5
23D
100
AcDbEntity
  8
2
100
AcDbCircle
 10
-738.73958
 20
475.613388
 30
0.0
 40
3.0
100
AcDbArc
 50
180.0
 51
270.0
  0
LINE
  5
23E
100
AcDbEntity
  8
2
100
AcDbLine
 10
-756.71178
 20
489.613388
 30
0.0
 11
-876.767379
 21
489.613388
 31
0.0
  0
ARC
  5
23F
100
AcDbEntity
  8
2
100
AcDbCircle
 10
-756.71178
 20
474.613388
 30
0.0
 40
15.0
100
AcDbArc
 50
3.184739
 51
90.0
  0
ARC
  5
240
100
AcDbEntity
  8
2
100
AcDbCircle
 10
-876.767379
 20
474.613388
 30
0.0
 40
15.0
100
AcDbArc
 50
90.0
 51
176.815261
  0
LINE
  5
241
100
AcDbEntity
  8
2
100
AcDbLine
 10
-780.880934
 20
577.59196
 30
0.0
 11
-768.081765
 21
567.947094
 31
0.0
  0
LINE
  5
242
100
AcDbEntity
  8
2
100
AcDbLine
 10
-852.598225
 20
577.59196
 30
0.0
 11
-865.397394
 21
567.947094
 31
0.0
  0
ARC
  5
243
100
AcDbEntity
  8
2
100
AcDbCircle
 10
-816.73958
 20
604.613388
 30
0.0
 40
42.0
100
AcDbArc
 50
234.677135
 51
319.177446
  0
ARC
  5
244
100
AcDbEntity
  8
2
100
AcDbCircle
 10
-816.73958
 20
604.613388
 30
0.0
 40
64.0
100
AcDbArc
 50
219.818962
 51
320.181038
  0
ARC
  5
245
100
AcDbEntity
  8
2
100
AcDbCircle
 10
-863.591949
 20
565.551188
 30
0.0
 40
3.0
100
AcDbArc
 50
127.0
 51
219.818962
  0
ARC
  5
246
100
AcDbEntity
  8
2
100
AcDbCircle
 10
-850.79278
 20
575.196054
 30
0.0
 40
3.0
100
AcDbArc
 50
105.507994
 51
127.0
  0
ARC
  5
247
100
AcDbEntity
  8
2
100
AcDbCircle
 10
-782.686379
 20
575.196054
 30
0.0
 40
3.0
100
AcDbArc
 50
53.0
 51
139.177446
  0
ARC
  5
248
100
AcDbEntity
  8
2
100
AcDbCircle
 10
-769.88721
 20
565.551188
 30
0.0
 40
3.0
100
AcDbArc
 50
320.181038
 51
53.0
  0
LINE
  5
249
100
AcDbEntity
  8
2
100
AcDbLine
 10
-818.23958
 20
556.113388
 30
0.0
 11
-818.23958
 21
545.113388
 31
0.0
  0
LINE
  5
24A
100
AcDbEntity
  8
2
100
AcDbLine
 10
-815.23958
 20
556.113388
 30
0.0
 11
-815.23958
 21
545.113388
 31
0.0
  0
ARC
  5
24B
100
AcDbEntity
  8
2
100
AcDbCircle
 10
-816.73958
 20
545.113388
 30
0.0
 40
1.5
100
AcDbArc
 50
180.0
 51
360.0
  0
ARC
  5
24C
100
AcDbEntity
  8
2
100
AcDbCircle
 10
-816.73958
 20
556.113388
 30
0.0
 40
1.5
100
AcDbArc
 50
0.0
 51
180.0
  0
LINE
  5
24D
100
AcDbEntity
  8
2
100
AcDbLine
 10
-805.635745
 20
557.377756
 30
0.0
 11
-802.788735
 21
546.752572
 31
0.0
  0
LINE
  5
24E
100
AcDbEntity
  8
2
100
AcDbLine
 10
-802.737967
 20
558.154214
 30
0.0
 11
-799.890958
 21
547.529029
 31
0.0
  0
ARC
  5
24F
100
AcDbEntity
  8
2
100
AcDbCircle
 10
-801.339846
 20
547.140801
 30
0.0
 40
1.5
100
AcDbArc
 50
195.0
 51
15.0
  0
ARC
  5
250
100
AcDbEntity
  8
2
100
AcDbCircle
 10
-804.186856
 20
557.765985
 30
0.0
 40
1.5
100
AcDbArc
 50
15.0
 51
195.0
  0
LINE
  5
251
100
AcDbEntity
  8
2
100
AcDbLine
 10
-793.788618
 20
561.861156
 30
0.0
 11
-788.288618
 21
552.334876
 31
0.0
  0
LINE
  5
252
100
AcDbEntity
  8
2
100
AcDbLine
 10
-791.190542
 20
563.361156
 30
0.0
 11
-785.690542
 21
553.834876
 31
0.0
  0
ARC
  5
253
100
AcDbEntity
  8
2
100
AcDbCircle
 10
-786.98958
 20
553.084876
 30
0.0
 40
1.5
100
AcDbArc
 50
210.0
 51
30.0
  0
ARC
  5
254
100
AcDbEntity
  8
2
100
AcDbCircle
 10
-792.48958
 20
562.611156
 30
0.0
 40
1.5
100
AcDbArc
 50
30.0
 51
210.0
  0
LINE
  5
255
100
AcDbEntity
  8
2
100
AcDbLine
 10
-830.741192
 20
558.154214
 30
0.0
 11
-833.588202
 21
547.529029
 31
0.0
  0
LINE
  5
256
100
AcDbEntity
  8
2
100
AcDbLine
 10
-827.843415
 20
557.377756
 30
0.0
 11
-830.690424
 21
546.752572
 31
0.0
  0
ARC
  5
257
100
AcDbEntity
  8
2
100
AcDbCircle
 10
-832.139313
 20
547.140801
 30
0.0
 40
1.5
100
AcDbArc
 50
165.0
 51
345.0
  0
ARC
  5
258
100
AcDbEntity
  8
2
100
AcDbCircle
 10
-829.292303
 20
557.765985
 30
0.0
 40
1.5
100
AcDbArc
 50
345.0
 51
165.0
  0
LINE
  5
259
100
AcDbEntity
  8
2
100
AcDbLine
 10
-842.288618
 20
563.361156
 30
0.0
 11
-847.788618
 21
553.834876
 31
0.0
  0
LINE
  5
25A
100
AcDbEntity
  8
2
100
AcDbLine
 10
-839.690542
 20
561.861156
 30
0.0
 11
-845.190542
 21
552.334876
 31
0.0
  0
ARC
  5
25B
100
AcDbEntity
  8
2
100
AcDbCircle
 10
-846.48958
 20
553.084876
 30
0.0
 40
1.5
100
AcDbArc
 50
150.0
 51
330.0
  0
ARC
  5
25C
100
AcDbEntity
  8
2
100
AcDbCircle
 10
-840.98958
 20
562.611156
 30
0.0
 40
1.5
100
AcDbArc
 50
330.0
 51
150.0
  0
LINE
  5
25D
100
AcDbEntity
  8
2
100
AcDbLine
 10
-849.759457
 20
568.057977
 30
0.0
 11
-856.337559
 21
561.479874
 31
0.0
  0
LINE
  5
25E
100
AcDbEntity
  8
2
100
AcDbLine
 10
-853.294991
 20
571.593511
 30
0.0
 11
-859.873093
 21
565.015408
 31
0.0
  0
ARC
  5
25F
100
AcDbEntity
  8
2
100
AcDbCircle
 10
-858.105326
 20
563.247641
 30
0.0
 40
2.5
100
AcDbArc
 50
135.0
 51
315.0
  0
LINE
  5
260
100
AcDbEntity
  8
2
100
AcDbLine
 10
-784.919774
 20
569.258049
 30
0.0
 11
-777.1416
 21
561.479874
 31
0.0
  0
LINE
  5
261
100
AcDbEntity
  8
2
100
AcDbLine
 10
-781.384241
 20
572.793582
 30
0.0
 11
-773.606066
 21
565.015408
 31
0.0
  0
ARC
  5
262
100
AcDbEntity
  8
2
100
AcDbCircle
 10
-775.373833
 20
563.247641
 30
0.0
 40
2.5
100
AcDbArc
 50
225.0
 51
45.0
  0
ARC
  5
263
100
AcDbEntity
  8
2
100
AcDbCircle
 10
-783.152008
 20
571.025815
 30
0.0
 40
2.5
100
AcDbArc
 50
45.0
 51
225.0
  0
TEXT
  5
264
100
AcDbEntity
  8
2
100
AcDbText
 10
-860.226647
 20
551.933932
 30
0.0
 40
13.0
  1
Ｓ
 50
135.0
 72
     5
 11
-867.580557
 21
559.287843
 31
0.0
100
AcDbText
  0
TEXT
  5
265
100
AcDbEntity
  8
2
100
AcDbText
 10
-764.060124
 20
561.126321
 30
0.0
 40
13.0
  1
Ｏ
 50
225.0
 72
     5
 11
-771.414035
 21
553.77241
 31
0.0
100
AcDbText
  0
LINE
  5
266
100
AcDbEntity
  8
2
100
AcDbLine
 10
-919.73958
 20
614.113388
 30
0.0
 11
-949.73958
 21
614.113388
 31
0.0
  0
LINE
  5
267
100
AcDbEntity
  8
2
100
AcDbLine
 10
-920.23958
 20
472.613388
 30
0.0
 11
-947.23958
 21
472.613388
 31
0.0
  0
LINE
  5
268
100
AcDbEntity
  8
2
100
AcDbLine
 10
-920.23958
 20
475.336388
 30
0.0
 11
-920.23958
 21
472.613388
 31
0.0
  0
LINE
  5
269
100
AcDbEntity
  8
2
100
AcDbLine
 10
-947.23958
 20
474.836388
 30
0.0
 11
-947.23958
 21
472.613388
 31
0.0
  0
ARC
  5
26A
100
AcDbEntity
  8
2
100
AcDbCircle
 10
-933.73958
 20
450.48985
 30
0.0
 40
28.717538
100
AcDbArc
 50
61.959471
 51
118.040529
  0
ARC
  5
26B
100
AcDbEntity
  8
2
100
AcDbCircle
 10
-948.23958
 20
474.836388
 30
0.0
 40
1.0
100
AcDbArc
 50
0.0
 51
90.0
  0
LINE
  5
26C
100
AcDbEntity
  8
2
100
AcDbLine
 10
-919.73958
 20
475.113388
 30
0.0
 11
-920.23958
 21
475.113388
 31
0.0
  0
LINE
  5
26D
100
AcDbEntity
  8
2
100
AcDbLine
 10
-947.27871
 20
475.113388
 30
0.0
 11
-949.73958
 21
475.113388
 31
0.0
  0
ARC
  5
26E
100
AcDbEntity
  8
2
100
AcDbCircle
 10
-919.73958
 20
475.336388
 30
0.0
 40
0.5
100
AcDbArc
 50
90.0
 51
180.0
  0
LINE
  5
26F
100
AcDbEntity
  8
2
100
AcDbLine
 10
-949.73958
 20
477.613388
 30
0.0
 11
-1124.73958
 21
477.613388
 31
0.0
  0
LINE
  5
270
100
AcDbEntity
  8
2
100
AcDbLine
 10
-949.73958
 20
611.613388
 30
0.0
 11
-1124.73958
 21
611.613388
 31
0.0
  0
LINE
  5
271
100
AcDbEntity
  8
2
100
AcDbLine
 10
-1125.23958
 20
472.613388
 30
0.0
 11
-1125.23958
 21
616.613388
 31
0.0
  0
LINE
  5
272
100
AcDbEntity
  8
2
100
AcDbLine
 10
-1124.73958
 20
475.113388
 30
0.0
 11
-1125.23958
 21
475.113388
 31
0.0
  0
LINE
  5
273
100
AcDbEntity
  8
2
100
AcDbLine
 10
-1124.73958
 20
614.113388
 30
0.0
 11
-1125.23958
 21
614.113388
 31
0.0
  0
LINE
  5
274
100
AcDbEntity
  8
2
100
AcDbLine
 10
-1125.23958
 20
472.613388
 30
0.0
 11
-1159.73958
 21
472.613388
 31
0.0
  0
LINE
  5
275
100
AcDbEntity
  8
2
100
AcDbLine
 10
-1125.23958
 20
616.613388
 30
0.0
 11
-1159.73958
 21
616.613388
 31
0.0
  0
LINE
  5
276
100
AcDbEntity
  8
2
100
AcDbLine
 10
-1140.73958
 20
474.613388
 30
0.0
 11
-1140.73958
 21
614.613388
 31
0.0
  0
ARC
  5
277
100
AcDbEntity
  8
2
100
AcDbCircle
 10
-1138.73958
 20
474.613388
 30
0.0
 40
2.0
100
AcDbArc
 50
180.0
 51
270.0
  0
ARC
  5
278
100
AcDbEntity
  8
2
100
AcDbCircle
 10
-1138.73958
 20
614.613388
 30
0.0
 40
2.0
100
AcDbArc
 50
90.0
 51
180.0
  0
LINE
  5
279
100
AcDbEntity
  8
2
100
AcDbLine
 10
-1144.73958
 20
524.613388
 30
0.0
 11
-1144.73958
 21
564.613388
 31
0.0
  0
LINE
  5
27A
100
AcDbEntity
  8
2
100
AcDbLine
 10
-1143.73958
 20
524.613388
 30
0.0
 11
-1144.73958
 21
524.613388
 31
0.0
  0
LINE
  5
27B
100
AcDbEntity
  8
2
100
AcDbLine
 10
-1143.73958
 20
564.613388
 30
0.0
 11
-1144.73958
 21
564.613388
 31
0.0
  0
ARC
  5
27C
100
AcDbEntity
  8
2
100
AcDbCircle
 10
-1143.73958
 20
521.613388
 30
0.0
 40
3.0
100
AcDbArc
 50
0.0
 51
90.0
  0
ARC
  5
27D
100
AcDbEntity
  8
2
100
AcDbCircle
 10
-1143.73958
 20
567.613388
 30
0.0
 40
3.0
100
AcDbArc
 50
270.0
 51
360.0
  0
LINE
  5
27E
100
AcDbEntity
  8
2
100
AcDbLine
 10
-1159.73958
 20
608.613388
 30
0.0
 11
-1159.73958
 21
616.613388
 31
0.0
  0
LINE
  5
27F
100
AcDbEntity
  8
2
100
AcDbLine
 10
-1158.275114
 20
594.148921
 30
0.0
 11
-1142.204046
 21
578.077854
 31
0.0
  0
ARC
  5
280
100
AcDbEntity
  8
2
100
AcDbCircle
 10
-1154.73958
 20
597.684455
 30
0.0
 40
5.0
100
AcDbArc
 50
217.894799
 51
225.0
  0
ARC
  5
281
100
AcDbEntity
  8
2
100
AcDbCircle
 10
-1145.73958
 20
574.54232
 30
0.0
 40
5.0
100
AcDbArc
 50
360.0
 51
45.0
  0
LINE
  5
282
100
AcDbEntity
  8
2
100
AcDbLine
 10
-1159.73958
 20
480.613388
 30
0.0
 11
-1159.73958
 21
472.613388
 31
0.0
  0
LINE
  5
283
100
AcDbEntity
  8
2
100
AcDbLine
 10
-1158.275114
 20
495.077854
 30
0.0
 11
-1142.204046
 21
511.148921
 31
0.0
  0
ARC
  5
284
100
AcDbEntity
  8
2
100
AcDbCircle
 10
-1154.73958
 20
491.54232
 30
0.0
 40
5.0
100
AcDbArc
 50
135.0
 51
142.105201
  0
ARC
  5
285
100
AcDbEntity
  8
2
100
AcDbCircle
 10
-1145.73958
 20
514.684455
 30
0.0
 40
5.0
100
AcDbArc
 50
315.0
 51
0.0
  0
LINE
  5
286
100
AcDbEntity
  8
2
100
AcDbLine
 10
-1167.73958
 20
481.425388
 30
0.0
 11
-1167.73958
 21
493.801388
 31
0.0
  0
LINE
  5
287
100
AcDbEntity
  8
2
100
AcDbLine
 10
-919.73958
 20
480.613388
 30
0.0
 11
-1125.23958
 21
480.613388
 31
0.0
  0
LINE
  5
288
100
AcDbEntity
  8
2
100
AcDbLine
 10
-1151.73958
 20
480.613388
 30
0.0
 11
-1166.92758
 21
480.613388
 31
0.0
  0
LINE
  5
289
100
AcDbEntity
  8
2
100
AcDbLine
 10
-919.73958
 20
494.613388
 30
0.0
 11
-1125.23958
 21
494.613388
 31
0.0
  0
LINE
  5
28A
100
AcDbEntity
  8
2
100
AcDbLine
 10
-1151.73958
 20
494.613388
 30
0.0
 11
-1166.92758
 21
494.613388
 31
0.0
  0
LINE
  5
28B
100
AcDbEntity
  8
2
 62
     2
100
AcDbLine
 10
-1151.73958
 20
481.425388
 30
0.0
 11
-1167.73958
 21
481.425388
 31
0.0
  0
LINE
  5
28C
100
AcDbEntity
  8
2
 62
     2
100
AcDbLine
 10
-1151.73958
 20
493.801388
 30
0.0
 11
-1167.73958
 21
493.801388
 31
0.0
  0
LINE
  5
28D
100
AcDbEntity
  8
2
100
AcDbLine
 10
-1167.73958
 20
481.425388
 30
0.0
 11
-1166.92758
 21
480.613388
 31
0.0
  0
LINE
  5
28E
100
AcDbEntity
  8
2
100
AcDbLine
 10
-1166.92758
 20
480.613388
 30
0.0
 11
-1166.92758
 21
494.613388
 31
0.0
  0
LINE
  5
28F
100
AcDbEntity
  8
2
100
AcDbLine
 10
-1166.92758
 20
494.613388
 30
0.0
 11
-1167.73958
 21
493.801388
 31
0.0
  0
LINE
  5
290
100
AcDbEntity
  8
2
100
AcDbLine
 10
-1167.73958
 20
607.801388
 30
0.0
 11
-1167.73958
 21
595.425388
 31
0.0
  0
LINE
  5
291
100
AcDbEntity
  8
2
100
AcDbLine
 10
-919.73958
 20
608.613388
 30
0.0
 11
-1125.23958
 21
608.613388
 31
0.0
  0
LINE
  5
292
100
AcDbEntity
  8
2
100
AcDbLine
 10
-1151.73958
 20
608.613388
 30
0.0
 11
-1166.92758
 21
608.613388
 31
0.0
  0
LINE
  5
293
100
AcDbEntity
  8
2
100
AcDbLine
 10
-919.73958
 20
594.613388
 30
0.0
 11
-1125.23958
 21
594.613388
 31
0.0
  0
LINE
  5
294
100
AcDbEntity
  8
2
100
AcDbLine
 10
-1151.73958
 20
594.613388
 30
0.0
 11
-1166.92758
 21
594.613388
 31
0.0
  0
LINE
  5
295
100
AcDbEntity
  8
2
 62
     2
100
AcDbLine
 10
-1151.73958
 20
607.801388
 30
0.0
 11
-1167.73958
 21
607.801388
 31
0.0
  0
LINE
  5
296
100
AcDbEntity
  8
2
 62
     2
100
AcDbLine
 10
-1151.73958
 20
595.425388
 30
0.0
 11
-1167.73958
 21
595.425388
 31
0.0
  0
LINE
  5
297
100
AcDbEntity
  8
2
100
AcDbLine
 10
-1167.73958
 20
607.801388
 30
0.0
 11
-1166.92758
 21
608.613388
 31
0.0
  0
LINE
  5
298
100
AcDbEntity
  8
2
100
AcDbLine
 10
-1166.92758
 20
608.613388
 30
0.0
 11
-1166.92758
 21
594.613388
 31
0.0
  0
LINE
  5
299
100
AcDbEntity
  8
2
100
AcDbLine
 10
-1166.92758
 20
594.613388
 30
0.0
 11
-1167.73958
 21
595.425388
 31
0.0
  0
LINE
  5
29A
100
AcDbEntity
  8
2
100
AcDbLine
 10
-1124.73958
 20
480.613388
 30
0.0
 11
-1124.73958
 21
475.113388
 31
0.0
  0
LINE
  5
29B
100
AcDbEntity
  8
2
100
AcDbLine
 10
-949.73958
 20
480.613388
 30
0.0
 11
-949.73958
 21
475.113388
 31
0.0
  0
LINE
  5
29C
100
AcDbEntity
  8
2
100
AcDbLine
 10
-949.73958
 20
614.113388
 30
0.0
 11
-949.73958
 21
608.613388
 31
0.0
  0
LINE
  5
29D
100
AcDbEntity
  8
2
100
AcDbLine
 10
-949.73958
 20
594.613388
 30
0.0
 11
-949.73958
 21
494.613388
 31
0.0
  0
LINE
  5
29E
100
AcDbEntity
  8
2
100
AcDbLine
 10
-1124.73958
 20
614.113388
 30
0.0
 11
-1124.73958
 21
608.613388
 31
0.0
  0
LINE
  5
29F
100
AcDbEntity
  8
2
100
AcDbLine
 10
-1124.73958
 20
594.613388
 30
0.0
 11
-1124.73958
 21
494.613388
 31
0.0
  0
LINE
  5
2A0
100
AcDbEntity
  8
2
100
AcDbLine
 10
-1176.73958
 20
535.966388
 30
0.0
 11
-1176.73958
 21
553.260388
 31
0.0
  0
LINE
  5
2A1
100
AcDbEntity
  8
2
100
AcDbLine
 10
-1176.73958
 20
535.966388
 30
0.0
 11
-1175.38658
 21
534.613388
 31
0.0
  0
LINE
  5
2A2
100
AcDbEntity
  8
2
100
AcDbLine
 10
-1175.38658
 20
534.613388
 30
0.0
 11
-1163.73958
 21
534.613388
 31
0.0
  0
LINE
  5
2A3
100
AcDbEntity
  8
2
100
AcDbLine
 10
-1175.38658
 20
534.613388
 30
0.0
 11
-1175.38658
 21
554.613388
 31
0.0
  0
LINE
  5
2A4
100
AcDbEntity
  8
2
 62
     2
100
AcDbLine
 10
-1176.73958
 20
535.966388
 30
0.0
 11
-1163.73958
 21
535.966388
 31
0.0
  0
LINE
  5
2A5
100
AcDbEntity
  8
2
100
AcDbLine
 10
-1176.73958
 20
553.260388
 30
0.0
 11
-1175.38658
 21
554.613388
 31
0.0
  0
LINE
  5
2A6
100
AcDbEntity
  8
2
100
AcDbLine
 10
-1175.38658
 20
554.613388
 30
0.0
 11
-1163.73958
 21
554.613388
 31
0.0
  0
LINE
  5
2A7
100
AcDbEntity
  8
2
 62
     2
100
AcDbLine
 10
-1176.73958
 20
553.260388
 30
0.0
 11
-1163.73958
 21
553.260388
 31
0.0
  0
LINE
  5
2A8
100
AcDbEntity
  8
2
100
AcDbLine
 10
-791.73958
 20
658.613388
 30
0.0
 11
-841.73958
 21
658.613388
 31
0.0
  0
LINE
  5
2A9
100
AcDbEntity
  8
2
100
AcDbLine
 10
-791.73958
 20
661.813388
 30
0.0
 11
-841.73958
 21
661.813388
 31
0.0
  0
LINE
  5
2AA
100
AcDbEntity
  8
2
100
AcDbLine
 10
-817.128559
 20
586.617591
 30
0.0
 11
-834.735376
 21
604.224408
 31
0.0
  0
LINE
  5
2AB
100
AcDbEntity
  8
2
100
AcDbLine
 10
-798.743783
 20
604.224408
 30
0.0
 11
-816.3506
 21
586.617591
 31
0.0
  0
LINE
  5
2AC
100
AcDbEntity
  8
2
100
AcDbLine
 10
-798.743783
 20
605.002367
 30
0.0
 11
-816.3506
 21
622.609184
 31
0.0
  0
LINE
  5
2AD
100
AcDbEntity
  8
2
100
AcDbLine
 10
-817.128559
 20
622.609184
 30
0.0
 11
-834.735376
 21
605.002367
 31
0.0
  0
LINE
  5
2AE
100
AcDbEntity
  8
2
100
AcDbLine
 10
-816.73958
 20
621.58395
 30
0.0
 11
-833.710142
 21
604.613388
 31
0.0
  0
LINE
  5
2AF
100
AcDbEntity
  8
2
100
AcDbLine
 10
-799.769017
 20
604.613388
 30
0.0
 11
-816.73958
 21
621.58395
 31
0.0
  0
LINE
  5
2B0
100
AcDbEntity
  8
2
100
AcDbLine
 10
-799.769017
 20
604.613388
 30
0.0
 11
-816.73958
 21
587.642825
 31
0.0
  0
LINE
  5
2B1
100
AcDbEntity
  8
2
100
AcDbLine
 10
-816.73958
 20
587.642825
 30
0.0
 11
-833.710142
 21
604.613388
 31
0.0
  0
ARC
  5
2B2
100
AcDbEntity
  8
2
100
AcDbCircle
 10
-816.73958
 20
604.613388
 30
0.0
 40
18.0
100
AcDbArc
 50
268.761743
 51
271.238257
  0
ARC
  5
2B3
100
AcDbEntity
  8
2
100
AcDbCircle
 10
-816.73958
 20
604.613388
 30
0.0
 40
18.0
100
AcDbArc
 50
358.761743
 51
1.238257
  0
ARC
  5
2B4
100
AcDbEntity
  8
2
100
AcDbCircle
 10
-816.73958
 20
604.613388
 30
0.0
 40
18.0
100
AcDbArc
 50
88.761743
 51
91.238257
  0
ARC
  5
2B5
100
AcDbEntity
  8
2
100
AcDbCircle
 10
-816.73958
 20
604.613388
 30
0.0
 40
18.0
100
AcDbArc
 50
178.761743
 51
181.238257
  0
LINE
  5
2B6
100
AcDbEntity
  8
2
100
AcDbLine
 10
-817.128559
 20
586.617591
 30
0.0
 11
-816.73958
 21
587.642825
 31
0.0
  0
LINE
  5
2B7
100
AcDbEntity
  8
2
100
AcDbLine
 10
-816.73958
 20
587.642825
 30
0.0
 11
-816.3506
 21
586.617591
 31
0.0
  0
LINE
  5
2B8
100
AcDbEntity
  8
2
100
AcDbLine
 10
-798.743783
 20
604.224408
 30
0.0
 11
-799.769017
 21
604.613388
 31
0.0
  0
LINE
  5
2B9
100
AcDbEntity
  8
2
100
AcDbLine
 10
-799.769017
 20
604.613388
 30
0.0
 11
-798.743783
 21
605.002367
 31
0.0
  0
LINE
  5
2BA
100
AcDbEntity
  8
2
100
AcDbLine
 10
-816.73958
 20
621.58395
 30
0.0
 11
-816.3506
 21
622.609184
 31
0.0
  0
LINE
  5
2BB
100
AcDbEntity
  8
2
100
AcDbLine
 10
-817.128559
 20
622.609184
 30
0.0
 11
-816.73958
 21
621.58395
 31
0.0
  0
LINE
  5
2BC
100
AcDbEntity
  8
2
100
AcDbLine
 10
-834.735376
 20
605.002367
 30
0.0
 11
-833.710142
 21
604.613388
 31
0.0
  0
LINE
  5
2BD
100
AcDbEntity
  8
2
100
AcDbLine
 10
-833.710142
 20
604.613388
 30
0.0
 11
-834.735376
 21
604.224408
 31
0.0
  0
CIRCLE
  5
2BE
100
AcDbEntity
  8
2
100
AcDbCircle
 10
-816.73958
 20
604.613388
 30
0.0
 40
5.5
  0
CIRCLE
  5
2BF
100
AcDbEntity
  8
2
 62
     2
100
AcDbCircle
 10
-816.73958
 20
604.613388
 30
0.0
 40
4.0
  0
CIRCLE
  5
2C0
100
AcDbEntity
  8
2
100
AcDbCircle
 10
-816.73958
 20
604.613388
 30
0.0
 40
3.3235
  0
CIRCLE
  5
2C1
100
AcDbEntity
  8
2
100
AcDbCircle
 10
-816.73958
 20
612.613388
 30
0.0
 40
1.0
  0
LINE
  5
2C2
100
AcDbEntity
  8
2
  6
CENTER
 62
     2
100
AcDbLine
 10
-812.73958
 20
612.613388
 30
0.0
 11
-820.73958
 21
612.613388
 31
0.0
  0
ARC
  5
2C3
100
AcDbEntity
  8
2
100
AcDbCircle
 10
-816.73958
 20
604.613388
 30
0.0
 40
16.1
100
AcDbArc
 50
98.847864
 51
171.152136
  0
ARC
  5
2C4
100
AcDbEntity
  8
2
100
AcDbCircle
 10
-816.73958
 20
604.613388
 30
0.0
 40
16.1
100
AcDbArc
 50
48.560856
 51
81.152136
  0
ARC
  5
2C5
100
AcDbEntity
  8
2
100
AcDbCircle
 10
-816.73958
 20
604.613388
 30
0.0
 40
16.1
100
AcDbArc
 50
8.847864
 51
41.439144
  0
ARC
  5
2C6
100
AcDbEntity
  8
2
100
AcDbCircle
 10
-816.73958
 20
604.613388
 30
0.0
 40
16.1
100
AcDbArc
 50
278.847864
 51
351.152136
  0
ARC
  5
2C7
100
AcDbEntity
  8
2
100
AcDbCircle
 10
-816.73958
 20
604.613388
 30
0.0
 40
16.1
100
AcDbArc
 50
188.847864
 51
261.152136
  0
LINE
  5
2C8
100
AcDbEntity
  8
2
100
AcDbLine
 10
-806.08421
 20
616.682899
 30
0.0
 11
-802.265834
 21
620.501276
 31
0.0
  0
LINE
  5
2C9
100
AcDbEntity
  8
2
100
AcDbLine
 10
-804.670068
 20
615.268757
 30
0.0
 11
-800.851692
 21
619.087133
 31
0.0
  0
LINE
  5
2CA
100
AcDbEntity
  8
2
100
AcDbLine
 10
-807.584329
 20
620.839635
 30
0.0
 11
-805.801368
 21
622.622596
 31
0.0
  0
LINE
  5
2CB
100
AcDbEntity
  8
2
100
AcDbLine
 10
-800.513333
 20
613.768638
 30
0.0
 11
-798.730371
 21
615.5516
 31
0.0
  0
LINE
  5
2CC
100
AcDbEntity
  8
2
100
AcDbLine
 10
-798.730371
 20
616.965813
 30
0.0
 11
-800.851692
 21
619.087133
 31
0.0
  0
LINE
  5
2CD
100
AcDbEntity
  8
2
100
AcDbLine
 10
-802.265834
 20
620.501276
 30
0.0
 11
-804.387154
 21
622.622596
 31
0.0
  0
ARC
  5
2CE
100
AcDbEntity
  8
2
100
AcDbCircle
 10
-817.53958
 20
603.813388
 30
0.0
 40
19.0
100
AcDbArc
 50
62.457451
 51
27.542549
  0
ARC
  5
2CF
100
AcDbEntity
  8
2
100
AcDbCircle
 10
-808.291436
 20
621.546741
 30
0.0
 40
1.0
100
AcDbArc
 50
242.457451
 51
315.0
  0
ARC
  5
2D0
100
AcDbEntity
  8
2
100
AcDbCircle
 10
-805.094261
 20
621.915489
 30
0.0
 40
1.0
100
AcDbArc
 50
45.0
 51
135.0
  0
ARC
  5
2D1
100
AcDbEntity
  8
2
100
AcDbCircle
 10
-799.437478
 20
616.258706
 30
0.0
 40
1.0
100
AcDbArc
 50
315.0
 51
45.0
  0
ARC
  5
2D2
100
AcDbEntity
  8
2
100
AcDbCircle
 10
-799.806226
 20
613.061531
 30
0.0
 40
1.0
100
AcDbArc
 50
135.0
 51
207.542549
  0
CIRCLE
  5
2D3
100
AcDbEntity
  8
2
100
AcDbCircle
 10
-805.518525
 20
620.077012
 30
0.0
 40
1.25
  0
CIRCLE
  5
2D4
100
AcDbEntity
  8
2
100
AcDbCircle
 10
-801.275956
 20
615.834442
 30
0.0
 40
1.25
  0
LINE
  5
2D5
100
AcDbEntity
  8
2
  6
CENTER
 62
     2
100
AcDbLine
 10
-782.800942
 20
623.000652
 30
0.0
 11
-798.531346
 21
638.731056
 31
0.0
  0
LINE
  5
2D6
100
AcDbEntity
  8
2
100
AcDbLine
 10
-778.555813
 20
628.655018
 30
0.0
 11
-792.697949
 21
642.797154
 31
0.0
  0
LINE
  5
2D7
100
AcDbEntity
  8
2
100
AcDbLine
 10
-778.555813
 20
628.655018
 30
0.0
 11
-788.443527
 21
618.767305
 31
0.0
  0
LINE
  5
2D8
100
AcDbEntity
  8
2
100
AcDbLine
 10
-792.697949
 20
642.797154
 30
0.0
 11
-802.585662
 21
632.909441
 31
0.0
  0
ARC
  5
2D9
100
AcDbEntity
  8
2
100
AcDbCircle
 10
-816.73958
 20
604.613388
 30
0.0
 40
27.0
100
AcDbArc
 50
75.949723
 51
165.328066
  0
ARC
  5
2DA
100
AcDbEntity
  8
2
100
AcDbCircle
 10
-816.73958
 20
604.613388
 30
0.0
 40
27.0
100
AcDbArc
 50
284.671934
 51
14.050277
  0
ARC
  5
2DB
100
AcDbEntity
  8
2
100
AcDbCircle
 10
-782.786672
 20
613.110451
 30
0.0
 40
8.0
100
AcDbArc
 50
135.0
 51
194.050277
  0
ARC
  5
2DC
100
AcDbEntity
  8
2
100
AcDbCircle
 10
-808.242516
 20
638.566295
 30
0.0
 40
8.0
100
AcDbArc
 50
255.949723
 51
315.0
  0
LINE
  5
2DD
100
AcDbEntity
  8
2
  6
CENTER
 62
     2
100
AcDbLine
 10
-783.315104
 20
630.966796
 30
0.0
 11
-790.83169
 21
623.45021
 31
0.0
  0
LINE
  5
2DE
100
AcDbEntity
  8
2
  6
CENTER
 62
     2
100
AcDbLine
 10
-790.511484
 20
637.912551
 30
0.0
 11
-797.464304
 21
630.959731
 31
0.0
  0
LINE
  5
2DF
100
AcDbEntity
  8
2
100
AcDbLine
 10
-852.068546
 20
567.453407
 30
0.0
 11
-809.900909
 21
578.493805
 31
0.0
  0
LINE
  5
2E0
100
AcDbEntity
  8
2
100
AcDbLine
 10
-853.89956
 20
569.284421
 30
0.0
 11
-842.859162
 21
611.452058
 31
0.0
  0
ARC
  5
2E1
100
AcDbEntity
  8
2
100
AcDbCircle
 10
-852.448472
 20
568.904495
 30
0.0
 40
1.5
100
AcDbArc
 50
165.328066
 51
284.671934
  0
CIRCLE
  5
2E2
100
AcDbEntity
  8
2
100
AcDbCircle
 10
-787.041095
 20
627.240805
 30
0.0
 40
2.75
  0
CIRCLE
  5
2E3
100
AcDbEntity
  8
2
100
AcDbCircle
 10
-794.112163
 20
634.311872
 30
0.0
 40
2.75
  0
LINE
  5
2E4
100
AcDbEntity
  8
2
100
AcDbLine
 10
-742.379265
 20
618.487232
 30
0.0
 11
-791.112889
 21
641.212094
 31
0.0
  0
LINE
  5
2E5
100
AcDbEntity
  8
2
100
AcDbLine
 10
-793.274864
 20
642.220239
 30
0.0
 11
-798.144376
 21
644.49093
 31
0.0
  0
ARC
  5
2E6
100
AcDbEntity
  8
2
100
AcDbCircle
 10
-816.73958
 20
604.613388
 30
0.0
 40
32.5
100
AcDbArc
 50
62.920213
 51
199.150228
  0
ARC
  5
2E7
100
AcDbEntity
  8
2
100
AcDbCircle
 10
-816.73958
 20
604.613388
 30
0.0
 40
32.5
100
AcDbArc
 50
250.849772
 51
27.079787
  0
LINE
  5
2E8
100
AcDbEntity
  8
2
100
AcDbLine
 10
348.26042
 20
-115.386612
 30
0.0
 11
336.26042
 21
-115.386612
 31
0.0
  0
LINE
  5
2E9
100
AcDbEntity
  8
2
100
AcDbLine
 10
353.26042
 20
-187.386612
 30
0.0
 11
213.26042
 21
-187.386612
 31
0.0
  0
LINE
  5
2EA
100
AcDbEntity
  8
2
100
AcDbLine
 10
213.26042
 20
-168.386612
 30
0.0
 11
213.26042
 21
-217.386612
 31
0.0
  0
ARC
  5
2EB
100
AcDbEntity
  8
2
100
AcDbCircle
 10
348.26042
 20
-120.386612
 30
0.0
 40
5.0
100
AcDbArc
 50
30.0
 51
90.0
  0
ARC
  5
2EC
100
AcDbEntity
  8
2
100
AcDbCircle
 10
342.26042
 20
-109.386612
 30
0.0
 40
6.0
100
AcDbArc
 50
180.0
 51
270.0
  0
LINE
  5
2ED
100
AcDbEntity
  8
2
100
AcDbLine
 10
340.46042
 20
-86.386612
 30
0.0
 11
336.26042
 21
-86.386612
 31
0.0
  0
LINE
  5
2EE
100
AcDbEntity
  8
2
100
AcDbLine
 10
340.46042
 20
-24.386612
 30
0.0
 11
336.26042
 21
-24.386612
 31
0.0
  0
LINE
  5
2EF
100
AcDbEntity
  8
2
100
AcDbLine
 10
300.230983
 20
89.613388
 30
0.0
 11
266.289858
 21
89.613388
 31
0.0
  0
LINE
  5
2F0
100
AcDbEntity
  8
2
100
AcDbLine
 10
282.871441
 20
88.613388
 30
0.0
 11
282.871441
 21
57.613388
 31
0.0
  0
LINE
  5
2F1
100
AcDbEntity
  8
2
100
AcDbLine
 10
283.6494
 20
88.613388
 30
0.0
 11
283.6494
 21
57.613388
 31
0.0
  0
LINE
  5
2F2
100
AcDbEntity
  8
2
100
AcDbLine
 10
301.26042
 20
88.613388
 30
0.0
 11
265.26042
 21
88.613388
 31
0.0
  0
LINE
  5
2F3
100
AcDbEntity
  8
2
100
AcDbLine
 10
266.289858
 20
89.613388
 30
0.0
 11
265.26042
 21
88.613388
 31
0.0
  0
LINE
  5
2F4
100
AcDbEntity
  8
2
100
AcDbLine
 10
265.26042
 20
88.613388
 30
0.0
 11
265.26042
 21
57.613388
 31
0.0
  0
LINE
  5
2F5
100
AcDbEntity
  8
2
100
AcDbLine
 10
301.26042
 20
57.613388
 30
0.0
 11
301.26042
 21
88.613388
 31
0.0
  0
LINE
  5
2F6
100
AcDbEntity
  8
2
100
AcDbLine
 10
300.230983
 20
89.613388
 30
0.0
 11
301.26042
 21
88.613388
 31
0.0
  0
LINE
  5
2F7
100
AcDbEntity
  8
2
100
AcDbLine
 10
282.871441
 20
88.613388
 30
0.0
 11
283.26042
 21
89.613388
 31
0.0
  0
LINE
  5
2F8
100
AcDbEntity
  8
2
100
AcDbLine
 10
283.26042
 20
89.613388
 30
0.0
 11
283.6494
 21
88.613388
 31
0.0
  0
LINE
  5
2F9
100
AcDbEntity
  8
2
100
AcDbLine
 10
265.26042
 20
88.613388
 30
0.0
 11
276.402086
 21
57.613388
 31
0.0
  0
LINE
  5
2FA
100
AcDbEntity
  8
2
100
AcDbLine
 10
271.729775
 20
57.613388
 30
0.0
 11
282.871441
 21
88.613388
 31
0.0
  0
LINE
  5
2FB
100
AcDbEntity
  8
2
100
AcDbLine
 10
283.6494
 20
88.613388
 30
0.0
 11
294.791066
 21
57.613388
 31
0.0
  0
LINE
  5
2FC
100
AcDbEntity
  8
2
100
AcDbLine
 10
301.26042
 20
88.613388
 30
0.0
 11
290.118754
 21
57.613388
 31
0.0
  0
LINE
  5
2FD
100
AcDbEntity
  8
2
100
AcDbLine
 10
-713.73958
 20
16.613388
 30
0.0
 11
-738.73958
 21
16.613388
 31
0.0
  0
LINE
  5
2FE
100
AcDbEntity
  8
2
100
AcDbLine
 10
-894.73958
 20
16.613388
 30
0.0
 11
-919.73958
 21
16.613388
 31
0.0
  0
ARC
  5
2FF
100
AcDbEntity
  8
2
100
AcDbCircle
 10
-894.73958
 20
13.613388
 30
0.0
 40
3.0
100
AcDbArc
 50
0.0
 51
90.0
  0
ARC
  5
300
100
AcDbEntity
  8
2
100
AcDbCircle
 10
-738.73958
 20
13.613388
 30
0.0
 40
3.0
100
AcDbArc
 50
90.0
 51
180.0
  0
ARC
  5
301
100
AcDbEntity
  8
2
100
AcDbCircle
 10
-886.993613
 20
15.613388
 30
0.0
 40
5.0
100
AcDbArc
 50
194.477512
 51
270.0
  0
ARC
  5
302
100
AcDbEntity
  8
2
100
AcDbCircle
 10
-746.485546
 20
15.613388
 30
0.0
 40
5.0
100
AcDbArc
 50
270.0
 51
345.522488
  0
LINE
  5
303
100
AcDbEntity
  8
2
100
AcDbLine
 10
-784.23958
 20
25.613388
 30
0.0
 11
-849.23958
 21
25.613388
 31
0.0
  0
LINE
  5
304
100
AcDbEntity
  8
2
100
AcDbLine
 10
-849.23958
 20
25.613388
 30
0.0
 11
-850.019183
 21
17.817358
 31
0.0
  0
LINE
  5
305
100
AcDbEntity
  8
2
100
AcDbLine
 10
-784.23958
 20
25.613388
 30
0.0
 11
-783.459977
 21
17.817358
 31
0.0
  0
ARC
  5
306
100
AcDbEntity
  8
2
100
AcDbCircle
 10
-857.97948
 20
18.613388
 30
0.0
 40
8.0
100
AcDbArc
 50
270.0
 51
354.289407
  0
ARC
  5
307
100
AcDbEntity
  8
2
100
AcDbCircle
 10
-775.499679
 20
18.613388
 30
0.0
 40
8.0
100
AcDbArc
 50
185.710593
 51
270.0
  0
LINE
  5
308
100
AcDbEntity
  8
2
100
AcDbLine
 10
-746.73958
 20
-187.386612
 30
0.0
 11
-886.73958
 21
-187.386612
 31
0.0
  0
LINE
  5
309
100
AcDbEntity
  8
2
100
AcDbLine
 10
-746.73958
 20
-133.386612
 30
0.0
 11
-746.73958
 21
-217.386612
 31
0.0
  0
LINE
  5
30A
100
AcDbEntity
  8
2
100
AcDbLine
 10
-886.73958
 20
-133.386612
 30
0.0
 11
-886.73958
 21
-217.386612
 31
0.0
  0
LINE
  5
30B
100
AcDbEntity
  8
2
100
AcDbLine
 10
-919.73958
 20
-127.386612
 30
0.0
 11
-713.73958
 21
-127.386612
 31
0.0
  0
ARC
  5
30C
100
AcDbEntity
  8
2
100
AcDbCircle
 10
-892.73958
 20
-133.386612
 30
0.0
 40
6.0
100
AcDbArc
 50
0.0
 51
90.0
  0
ARC
  5
30D
100
AcDbEntity
  8
2
100
AcDbCircle
 10
-740.73958
 20
-133.386612
 30
0.0
 40
6.0
100
AcDbArc
 50
90.0
 51
180.0
  0
LINE
  5
30E
100
AcDbEntity
  8
2
100
AcDbLine
 10
-895.73958
 20
32.613388
 30
0.0
 11
-909.73958
 21
32.613388
 31
0.0
  0
LINE
  5
30F
100
AcDbEntity
  8
2
100
AcDbLine
 10
-895.73958
 20
32.613388
 30
0.0
 11
-895.73958
 21
20.541591
 31
0.0
  0
LINE
  5
310
100
AcDbEntity
  8
2
100
AcDbLine
 10
-909.73958
 20
32.613388
 30
0.0
 11
-909.73958
 21
21.613388
 31
0.0
  0
ARC
  5
311
100
AcDbEntity
  8
2
100
AcDbCircle
 10
-914.73958
 20
21.613388
 30
0.0
 40
5.0
100
AcDbArc
 50
270.0
 51
360.0
  0
ARC
  5
312
100
AcDbEntity
  8
2
100
AcDbCircle
 10
-890.73958
 20
20.541591
 30
0.0
 40
5.0
100
AcDbArc
 50
180.0
 51
240.0
  0
LINE
  5
313
100
AcDbEntity
  8
2
100
AcDbLine
 10
-737.73958
 20
32.613388
 30
0.0
 11
-723.73958
 21
32.613388
 31
0.0
  0
LINE
  5
314
100
AcDbEntity
  8
2
100
AcDbLine
 10
-737.73958
 20
32.613388
 30
0.0
 11
-737.73958
 21
20.541591
 31
0.0
  0
LINE
  5
315
100
AcDbEntity
  8
2
100
AcDbLine
 10
-723.73958
 20
32.613388
 30
0.0
 11
-723.73958
 21
21.613388
 31
0.0
  0
ARC
  5
316
100
AcDbEntity
  8
2
100
AcDbCircle
 10
-718.73958
 20
21.613388
 30
0.0
 40
5.0
100
AcDbArc
 50
180.0
 51
270.0
  0
ARC
  5
317
100
AcDbEntity
  8
2
100
AcDbCircle
 10
-742.73958
 20
20.541591
 30
0.0
 40
5.0
100
AcDbArc
 50
300.0
 51
360.0
  0
LINE
  5
318
100
AcDbEntity
  8
2
100
AcDbLine
 10
-746.485546
 20
10.613388
 30
0.0
 11
-886.993613
 21
10.613388
 31
0.0
  0
LINE
  5
319
100
AcDbEntity
  8
2
100
AcDbLine
 10
-919.73958
 20
14.113388
 30
0.0
 11
-949.73958
 21
14.113388
 31
0.0
  0
LINE
  5
31A
100
AcDbEntity
  8
2
100
AcDbLine
 10
-919.73958
 20
-124.886612
 30
0.0
 11
-949.73958
 21
-124.886612
 31
0.0
  0
LINE
  5
31B
100
AcDbEntity
  8
2
100
AcDbLine
 10
-949.73958
 20
11.613388
 30
0.0
 11
-1124.73958
 21
11.613388
 31
0.0
  0
LINE
  5
31C
100
AcDbEntity
  8
2
100
AcDbLine
 10
-949.73958
 20
-122.386612
 30
0.0
 11
-1124.73958
 21
-122.386612
 31
0.0
  0
LINE
  5
31D
100
AcDbEntity
  8
2
100
AcDbLine
 10
-1124.73958
 20
14.113388
 30
0.0
 11
-1125.23958
 21
14.113388
 31
0.0
  0
LINE
  5
31E
100
AcDbEntity
  8
2
100
AcDbLine
 10
-1124.73958
 20
-124.886612
 30
0.0
 11
-1125.23958
 21
-124.886612
 31
0.0
  0
LINE
  5
31F
100
AcDbEntity
  8
2
100
AcDbLine
 10
-1125.23958
 20
16.613388
 30
0.0
 11
-1138.73958
 21
16.613388
 31
0.0
  0
LINE
  5
320
100
AcDbEntity
  8
2
100
AcDbLine
 10
-1125.23958
 20
-127.386612
 30
0.0
 11
-1138.73958
 21
-127.386612
 31
0.0
  0
ARC
  5
321
100
AcDbEntity
  8
2
100
AcDbCircle
 10
-1138.73958
 20
14.613388
 30
0.0
 40
2.0
100
AcDbArc
 50
90.0
 51
180.0
  0
ARC
  5
322
100
AcDbEntity
  8
2
100
AcDbCircle
 10
-1138.73958
 20
-125.386612
 30
0.0
 40
2.0
100
AcDbArc
 50
180.0
 51
270.0
  0
LINE
  5
323
100
AcDbEntity
  8
2
100
AcDbLine
 10
-1143.73958
 20
-35.386612
 30
0.0
 11
-1144.73958
 21
-35.386612
 31
0.0
  0
ARC
  5
324
100
AcDbEntity
  8
2
100
AcDbCircle
 10
-1143.73958
 20
-32.386612
 30
0.0
 40
3.0
100
AcDbArc
 50
270.0
 51
360.0
  0
ARC
  5
325
100
AcDbEntity
  8
2
100
AcDbCircle
 10
-1148.73958
 20
-30.346644
 30
0.0
 40
8.0
100
AcDbArc
 50
324.72777
 51
360.0
  0
ARC
  5
326
100
AcDbEntity
  8
2
100
AcDbCircle
 10
-1141.73958
 20
-65.386612
 30
0.0
 40
18.0
100
AcDbArc
 50
105.618498
 51
254.381502
  0
ARC
  5
327
100
AcDbEntity
  8
2
100
AcDbCircle
 10
-1148.73958
 20
-90.42658
 30
0.0
 40
8.0
100
AcDbArc
 50
0.0
 51
74.381502
  0
LINE
  5
328
100
AcDbEntity
  8
2
100
AcDbLine
 10
-1144.73958
 20
-47.274848
 30
0.0
 11
-1144.73958
 21
-35.386612
 31
0.0
  0
LINE
  5
329
100
AcDbEntity
  8
2
100
AcDbLine
 10
-1140.73958
 20
-125.386612
 30
0.0
 11
-1140.73958
 21
-90.42658
 31
0.0
  0
LINE
  5
32A
100
AcDbEntity
  8
2
100
AcDbLine
 10
-1140.73958
 20
-40.346644
 30
0.0
 11
-1140.73958
 21
14.613388
 31
0.0
  0
LINE
  5
32B
100
AcDbEntity
  8
2
100
AcDbLine
 10
-1167.73958
 20
7.801388
 30
0.0
 11
-1167.73958
 21
-4.574612
 31
0.0
  0
LINE
  5
32C
100
AcDbEntity
  8
2
100
AcDbLine
 10
-919.73958
 20
8.613388
 30
0.0
 11
-1125.23958
 21
8.613388
 31
0.0
  0
LINE
  5
32D
100
AcDbEntity
  8
2
100
AcDbLine
 10
-1151.73958
 20
8.613388
 30
0.0
 11
-1166.92758
 21
8.613388
 31
0.0
  0
LINE
  5
32E
100
AcDbEntity
  8
2
100
AcDbLine
 10
-919.73958
 20
-5.386612
 30
0.0
 11
-1125.23958
 21
-5.386612
 31
0.0
  0
LINE
  5
32F
100
AcDbEntity
  8
2
100
AcDbLine
 10
-1151.73958
 20
-5.386612
 30
0.0
 11
-1166.92758
 21
-5.386612
 31
0.0
  0
LINE
  5
330
100
AcDbEntity
  8
2
 62
     2
100
AcDbLine
 10
-1151.73958
 20
7.801388
 30
0.0
 11
-1167.73958
 21
7.801388
 31
0.0
  0
LINE
  5
331
100
AcDbEntity
  8
2
 62
     2
100
AcDbLine
 10
-1151.73958
 20
-4.574612
 30
0.0
 11
-1167.73958
 21
-4.574612
 31
0.0
  0
LINE
  5
332
100
AcDbEntity
  8
2
100
AcDbLine
 10
-1167.73958
 20
7.801388
 30
0.0
 11
-1166.92758
 21
8.613388
 31
0.0
  0
LINE
  5
333
100
AcDbEntity
  8
2
100
AcDbLine
 10
-1166.92758
 20
8.613388
 30
0.0
 11
-1166.92758
 21
-5.386612
 31
0.0
  0
LINE
  5
334
100
AcDbEntity
  8
2
100
AcDbLine
 10
-1166.92758
 20
-5.386612
 30
0.0
 11
-1167.73958
 21
-4.574612
 31
0.0
  0
LINE
  5
335
100
AcDbEntity
  8
2
100
AcDbLine
 10
-1167.73958
 20
-118.574612
 30
0.0
 11
-1167.73958
 21
-106.198612
 31
0.0
  0
LINE
  5
336
100
AcDbEntity
  8
2
100
AcDbLine
 10
-919.73958
 20
-119.386612
 30
0.0
 11
-1125.23958
 21
-119.386612
 31
0.0
  0
LINE
  5
337
100
AcDbEntity
  8
2
100
AcDbLine
 10
-1151.73958
 20
-119.386612
 30
0.0
 11
-1166.92758
 21
-119.386612
 31
0.0
  0
LINE
  5
338
100
AcDbEntity
  8
2
100
AcDbLine
 10
-919.73958
 20
-105.386612
 30
0.0
 11
-1125.23958
 21
-105.386612
 31
0.0
  0
LINE
  5
339
100
AcDbEntity
  8
2
100
AcDbLine
 10
-1151.73958
 20
-105.386612
 30
0.0
 11
-1166.92758
 21
-105.386612
 31
0.0
  0
LINE
  5
33A
100
AcDbEntity
  8
2
 62
     2
100
AcDbLine
 10
-1151.73958
 20
-118.574612
 30
0.0
 11
-1167.73958
 21
-118.574612
 31
0.0
  0
LINE
  5
33B
100
AcDbEntity
  8
2
 62
     2
100
AcDbLine
 10
-1151.73958
 20
-106.198612
 30
0.0
 11
-1167.73958
 21
-106.198612
 31
0.0
  0
LINE
  5
33C
100
AcDbEntity
  8
2
100
AcDbLine
 10
-1167.73958
 20
-118.574612
 30
0.0
 11
-1166.92758
 21
-119.386612
 31
0.0
  0
LINE
  5
33D
100
AcDbEntity
  8
2
100
AcDbLine
 10
-1166.92758
 20
-119.386612
 30
0.0
 11
-1166.92758
 21
-105.386612
 31
0.0
  0
LINE
  5
33E
100
AcDbEntity
  8
2
100
AcDbLine
 10
-1166.92758
 20
-105.386612
 30
0.0
 11
-1167.73958
 21
-106.198612
 31
0.0
  0
LINE
  5
33F
100
AcDbEntity
  8
2
100
AcDbLine
 10
-1124.73958
 20
8.613388
 30
0.0
 11
-1124.73958
 21
14.113388
 31
0.0
  0
LINE
  5
340
100
AcDbEntity
  8
2
100
AcDbLine
 10
-1124.73958
 20
-124.886612
 30
0.0
 11
-1124.73958
 21
-119.386612
 31
0.0
  0
LINE
  5
341
100
AcDbEntity
  8
2
100
AcDbLine
 10
-949.73958
 20
8.613388
 30
0.0
 11
-949.73958
 21
14.113388
 31
0.0
  0
LINE
  5
342
100
AcDbEntity
  8
2
100
AcDbLine
 10
-949.73958
 20
-124.886612
 30
0.0
 11
-949.73958
 21
-119.386612
 31
0.0
  0
LINE
  5
343
100
AcDbEntity
  8
2
100
AcDbLine
 10
-1176.73958
 20
-46.739612
 30
0.0
 11
-1176.73958
 21
-64.033612
 31
0.0
  0
LINE
  5
344
100
AcDbEntity
  8
2
100
AcDbLine
 10
-1176.73958
 20
-46.739612
 30
0.0
 11
-1175.38658
 21
-45.386612
 31
0.0
  0
LINE
  5
345
100
AcDbEntity
  8
2
100
AcDbLine
 10
-1175.38658
 20
-45.386612
 30
0.0
 11
-1163.73958
 21
-45.386612
 31
0.0
  0
LINE
  5
346
100
AcDbEntity
  8
2
100
AcDbLine
 10
-1175.38658
 20
-45.386612
 30
0.0
 11
-1175.38658
 21
-65.386612
 31
0.0
  0
LINE
  5
347
100
AcDbEntity
  8
2
 62
     2
100
AcDbLine
 10
-1176.73958
 20
-46.739612
 30
0.0
 11
-1163.73958
 21
-46.739612
 31
0.0
  0
LINE
  5
348
100
AcDbEntity
  8
2
100
AcDbLine
 10
-1176.73958
 20
-64.033612
 30
0.0
 11
-1175.38658
 21
-65.386612
 31
0.0
  0
LINE
  5
349
100
AcDbEntity
  8
2
100
AcDbLine
 10
-1175.38658
 20
-65.386612
 30
0.0
 11
-1163.73958
 21
-65.386612
 31
0.0
  0
LINE
  5
34A
100
AcDbEntity
  8
2
 62
     2
100
AcDbLine
 10
-1176.73958
 20
-64.033612
 30
0.0
 11
-1163.73958
 21
-64.033612
 31
0.0
  0
LINE
  5
34B
100
AcDbEntity
  8
2
100
AcDbLine
 10
-799.769017
 20
89.613388
 30
0.0
 11
-833.710142
 21
89.613388
 31
0.0
  0
LINE
  5
34C
100
AcDbEntity
  8
2
100
AcDbLine
 10
-796.73958
 20
36.613388
 30
0.0
 11
-796.73958
 21
39.613388
 31
0.0
  0
LINE
  5
34D
100
AcDbEntity
  8
2
100
AcDbLine
 10
-836.73958
 20
36.613388
 30
0.0
 11
-836.73958
 21
39.613388
 31
0.0
  0
LINE
  5
34E
100
AcDbEntity
  8
2
100
AcDbLine
 10
-817.128559
 20
88.613388
 30
0.0
 11
-817.128559
 21
44.413388
 31
0.0
  0
LINE
  5
34F
100
AcDbEntity
  8
2
100
AcDbLine
 10
-816.3506
 20
88.613388
 30
0.0
 11
-816.3506
 21
44.413388
 31
0.0
  0
LINE
  5
350
100
AcDbEntity
  8
2
100
AcDbLine
 10
-798.73958
 20
88.613388
 30
0.0
 11
-834.73958
 21
88.613388
 31
0.0
  0
LINE
  5
351
100
AcDbEntity
  8
2
100
AcDbLine
 10
-833.710142
 20
89.613388
 30
0.0
 11
-834.73958
 21
88.613388
 31
0.0
  0
LINE
  5
352
100
AcDbEntity
  8
2
100
AcDbLine
 10
-834.73958
 20
88.613388
 30
0.0
 11
-834.73958
 21
44.413388
 31
0.0
  0
LINE
  5
353
100
AcDbEntity
  8
2
100
AcDbLine
 10
-798.73958
 20
44.413388
 30
0.0
 11
-798.73958
 21
88.613388
 31
0.0
  0
LINE
  5
354
100
AcDbEntity
  8
2
100
AcDbLine
 10
-799.769017
 20
89.613388
 30
0.0
 11
-798.73958
 21
88.613388
 31
0.0
  0
LINE
  5
355
100
AcDbEntity
  8
2
100
AcDbLine
 10
-817.128559
 20
88.613388
 30
0.0
 11
-816.73958
 21
89.613388
 31
0.0
  0
LINE
  5
356
100
AcDbEntity
  8
2
100
AcDbLine
 10
-816.73958
 20
89.613388
 30
0.0
 11
-816.3506
 21
88.613388
 31
0.0
  0
LINE
  5
357
100
AcDbEntity
  8
2
100
AcDbLine
 10
-834.73958
 20
88.613388
 30
0.0
 11
-818.853721
 21
44.413388
 31
0.0
  0
LINE
  5
358
100
AcDbEntity
  8
2
100
AcDbLine
 10
-833.014418
 20
44.413388
 30
0.0
 11
-817.128559
 21
88.613388
 31
0.0
  0
LINE
  5
359
100
AcDbEntity
  8
2
100
AcDbLine
 10
-816.3506
 20
88.613388
 30
0.0
 11
-800.464741
 21
44.413388
 31
0.0
  0
LINE
  5
35A
100
AcDbEntity
  8
2
100
AcDbLine
 10
-798.73958
 20
88.613388
 30
0.0
 11
-814.625439
 21
44.413388
 31
0.0
  0
LINE
  5
35B
100
AcDbEntity
  8
2
100
AcDbLine
 10
-778.555813
 20
39.613388
 30
0.0
 11
-853.948472
 21
39.613388
 31
0.0
  0
LINE
  5
35C
100
AcDbEntity
  8
2
100
AcDbLine
 10
-778.555813
 20
42.813388
 30
0.0
 11
-853.948472
 21
42.813388
 31
0.0
  0
LINE
  5
35D
100
AcDbEntity
  8
2
100
AcDbLine
 10
-798.437478
 20
44.413388
 30
0.0
 11
-836.53958
 21
44.413388
 31
0.0
  0
LINE
  5
35E
100
AcDbEntity
  8
2
100
AcDbLine
 10
-853.948472
 20
42.813388
 30
0.0
 11
-853.948472
 21
39.613388
 31
0.0
  0
LINE
  5
35F
100
AcDbEntity
  8
2
100
AcDbLine
 10
-778.555813
 20
42.813388
 30
0.0
 11
-778.555813
 21
39.613388
 31
0.0
  0
LINE
  5
360
100
AcDbEntity
  8
2
100
AcDbLine
 10
-836.53958
 20
44.413388
 30
0.0
 11
-836.53958
 21
42.813388
 31
0.0
  0
LINE
  5
361
100
AcDbEntity
  8
2
100
AcDbLine
 10
-798.437478
 20
44.413388
 30
0.0
 11
-798.437478
 21
42.813388
 31
0.0
  0
LINE
  5
362
100
AcDbEntity
  8
2
100
AcDbLine
 10
-789.73958
 20
42.813388
 30
0.0
 11
-789.73958
 21
39.613388
 31
0.0
  0
LINE
  5
363
100
AcDbEntity
  8
2
100
AcDbLine
 10
-798.53958
 20
44.413388
 30
0.0
 11
-798.53958
 21
42.813388
 31
0.0
  0
ARC
  5
364
100
AcDbEntity
  8
2
100
AcDbCircle
 10
-1148.73958
 20
-40.346644
 30
0.0
 40
8.0
100
AcDbArc
 50
285.618498
 51
360.0
  0
LINE
  5
365
100
AcDbEntity
  8
2
100
AcDbLine
 10
353.26042
 20
-217.386612
 30
0.0
 11
213.26042
 21
-217.386612
 31
0.0
  0
LINE
  5
366
100
AcDbEntity
  8
2
100
AcDbLine
 10
-746.73958
 20
-217.386612
 30
0.0
 11
-886.73958
 21
-217.386612
 31
0.0
  0
LINE
  5
367
100
AcDbEntity
  8
2
100
AcDbLine
 10
-713.73958
 20
-38.970807
 30
0.0
 11
-713.73958
 21
16.613388
 31
0.0
  0
LINE
  5
368
100
AcDbEntity
  8
2
100
AcDbLine
 10
-741.73958
 20
-39.150988
 30
0.0
 11
-741.73958
 21
13.613388
 31
0.0
  0
LINE
  5
369
100
AcDbEntity
  8
2
100
AcDbLine
 10
-741.73958
 20
-124.386612
 30
0.0
 11
-741.73958
 21
-70.386612
 31
0.0
  0
LINE
  5
36A
100
AcDbEntity
  8
2
100
AcDbLine
 10
-741.73958
 20
-60.386612
 30
0.0
 11
-741.73958
 21
-49.151195
 31
0.0
  0
LINE
  5
36B
100
AcDbEntity
  8
2
100
AcDbLine
 10
-713.73958
 20
-127.386612
 30
0.0
 11
-713.73958
 21
-75.886612
 31
0.0
  0
LINE
  5
36C
100
AcDbEntity
  8
2
100
AcDbLine
 10
-713.73958
 20
-54.886612
 30
0.0
 11
-713.73958
 21
-48.971015
 31
0.0
  0
LINE
  5
36D
100
AcDbEntity
  8
2
100
AcDbLine
 10
-891.73958
 20
-40.116239
 30
0.0
 11
-891.73958
 21
13.613388
 31
0.0
  0
LINE
  5
36E
100
AcDbEntity
  8
2
100
AcDbLine
 10
-891.73958
 20
-124.386612
 30
0.0
 11
-891.73958
 21
-70.386612
 31
0.0
  0
LINE
  5
36F
100
AcDbEntity
  8
2
100
AcDbLine
 10
-891.73958
 20
-60.386612
 30
0.0
 11
-891.73958
 21
-50.116446
 31
0.0
  0
LINE
  5
370
100
AcDbEntity
  8
2
100
AcDbLine
 10
-919.73958
 20
-127.386612
 30
0.0
 11
-919.73958
 21
-70.386612
 31
0.0
  0
LINE
  5
371
100
AcDbEntity
  8
2
100
AcDbLine
 10
-949.73958
 20
-105.386612
 30
0.0
 11
-949.73958
 21
-70.386612
 31
0.0
  0
LINE
  5
372
100
AcDbEntity
  8
2
100
AcDbLine
 10
-949.73958
 20
-60.386612
 30
0.0
 11
-949.73958
 21
-5.386612
 31
0.0
  0
ARC
  5
373
100
AcDbEntity
  8
2
100
AcDbCircle
 10
-933.73958
 20
-45.386612
 30
0.0
 40
13.5
100
AcDbArc
 50
39.391496
 51
321.345891
  0
LINE
  5
374
100
AcDbEntity
  8
2
100
AcDbLine
 10
-919.73958
 20
-60.386612
 30
0.0
 11
-919.73958
 21
-53.627695
 31
0.0
  0
LINE
  5
375
100
AcDbEntity
  8
2
100
AcDbLine
 10
-919.73958
 20
-36.96535
 30
0.0
 11
-919.73958
 21
16.613388
 31
0.0
  0
LINE
  5
376
100
AcDbEntity
  8
2
100
AcDbLine
 10
-1124.73958
 20
-105.386612
 30
0.0
 11
-1124.73958
 21
-73.717612
 31
0.0
  0
LINE
  5
377
100
AcDbEntity
  8
2
100
AcDbLine
 10
-1124.73958
 20
-57.055612
 30
0.0
 11
-1124.73958
 21
-5.386612
 31
0.0
  0
LINE
  5
378
100
AcDbEntity
  8
2
100
AcDbLine
 10
-1125.23958
 20
-127.386612
 30
0.0
 11
-1125.23958
 21
-73.717612
 31
0.0
  0
LINE
  5
379
100
AcDbEntity
  8
2
100
AcDbLine
 10
-1125.23958
 20
-57.055612
 30
0.0
 11
-1125.23958
 21
16.613388
 31
0.0
  0
TEXT
  5
37A
100
AcDbEntity
  8
2
100
AcDbText
 10
-854.73958
 20
505.613388
 30
0.0
 40
9.5
  1
ＴＧ－　　１２Ｓ
 72
     5
 11
-780.63958
 21
505.613388
 31
0.0
100
AcDbText
  0
LINE
  5
37B
100
AcDbEntity
  8
2
100
AcDbLine
 10
-709.73958
 20
436.613388
 30
0.0
 11
-709.73958
 21
652.613388
 31
0.0
  0
LINE
  5
37C
100
AcDbEntity
  8
2
100
AcDbLine
 10
-677.73958
 20
431.613388
 30
0.0
 11
-704.73958
 21
431.613388
 31
0.0
  0
LINE
  5
37D
100
AcDbEntity
  8
2
100
AcDbLine
 10
-677.73958
 20
657.613388
 30
0.0
 11
-704.73958
 21
657.613388
 31
0.0
  0
ARC
  5
37E
100
AcDbEntity
  8
2
100
AcDbCircle
 10
-704.73958
 20
436.613388
 30
0.0
 40
5.0
100
AcDbArc
 50
180.0
 51
270.0
  0
ARC
  5
37F
100
AcDbEntity
  8
2
100
AcDbCircle
 10
-704.73958
 20
652.613388
 30
0.0
 40
5.0
100
AcDbArc
 50
90.0
 51
180.0
  0
LINE
  5
380
100
AcDbEntity
  8
2
100
AcDbLine
 10
-677.73958
 20
431.613388
 30
0.0
 11
-677.73958
 21
657.613388
 31
0.0
  0
LINE
  5
381
100
AcDbEntity
  8
2
100
AcDbLine
 10
-176.73958
 20
438.113388
 30
0.0
 11
-677.73958
 21
438.113388
 31
0.0
  0
LINE
  5
382
100
AcDbEntity
  8
2
100
AcDbLine
 10
-176.73958
 20
651.113388
 30
0.0
 11
-677.73958
 21
651.113388
 31
0.0
  0
LINE
  5
383
100
AcDbEntity
  8
2
100
AcDbLine
 10
-175.73958
 20
434.613388
 30
0.0
 11
-176.73958
 21
434.613388
 31
0.0
  0
LINE
  5
384
100
AcDbEntity
  8
2
100
AcDbLine
 10
-175.73958
 20
654.613388
 30
0.0
 11
-176.73958
 21
654.613388
 31
0.0
  0
LINE
  5
385
100
AcDbEntity
  8
2
100
AcDbLine
 10
-175.73958
 20
431.613388
 30
0.0
 11
-175.73958
 21
657.613388
 31
0.0
  0
LINE
  5
386
100
AcDbEntity
  8
2
100
AcDbLine
 10
-152.73958
 20
434.613388
 30
0.0
 11
-152.73958
 21
654.613388
 31
0.0
  0
LINE
  5
387
100
AcDbEntity
  8
2
100
AcDbLine
 10
-134.73958
 20
431.613388
 30
0.0
 11
-175.73958
 21
431.613388
 31
0.0
  0
LINE
  5
388
100
AcDbEntity
  8
2
100
AcDbLine
 10
-134.73958
 20
657.613388
 30
0.0
 11
-175.73958
 21
657.613388
 31
0.0
  0
ARC
  5
389
100
AcDbEntity
  8
2
100
AcDbCircle
 10
-155.73958
 20
434.613388
 30
0.0
 40
3.0
100
AcDbArc
 50
270.0
 51
360.0
  0
ARC
  5
38A
100
AcDbEntity
  8
2
100
AcDbCircle
 10
-155.73958
 20
654.613388
 30
0.0
 40
3.0
100
AcDbArc
 50
0.0
 51
90.0
  0
LINE
  5
38B
100
AcDbEntity
  8
2
100
AcDbLine
 10
-143.73958
 20
509.613388
 30
0.0
 11
-149.73958
 21
509.613388
 31
0.0
  0
LINE
  5
38C
100
AcDbEntity
  8
2
100
AcDbLine
 10
-143.73958
 20
579.613388
 30
0.0
 11
-149.73958
 21
579.613388
 31
0.0
  0
LINE
  5
38D
100
AcDbEntity
  8
2
100
AcDbLine
 10
-143.73958
 20
509.613388
 30
0.0
 11
-143.73958
 21
579.613388
 31
0.0
  0
ARC
  5
38E
100
AcDbEntity
  8
2
100
AcDbCircle
 10
-149.73958
 20
506.613388
 30
0.0
 40
3.0
100
AcDbArc
 50
90.0
 51
180.0
  0
ARC
  5
38F
100
AcDbEntity
  8
2
100
AcDbCircle
 10
-149.73958
 20
582.613388
 30
0.0
 40
3.0
100
AcDbArc
 50
180.0
 51
270.0
  0
ARC
  5
390
100
AcDbEntity
  8
2
100
AcDbCircle
 10
-713.73958
 20
468.613388
 30
0.0
 40
4.0
100
AcDbArc
 50
0.0
 51
90.0
  0
ARC
  5
391
100
AcDbEntity
  8
2
100
AcDbCircle
 10
-713.73958
 20
620.613388
 30
0.0
 40
4.0
100
AcDbArc
 50
270.0
 51
360.0
  0
LINE
  5
392
100
AcDbEntity
  8
2
100
AcDbLine
 10
-134.73958
 20
647.113388
 30
0.0
 11
-134.73958
 21
657.613388
 31
0.0
  0
ARC
  5
393
100
AcDbEntity
  8
2
100
AcDbCircle
 10
-140.73958
 20
630.098669
 30
0.0
 40
6.0
100
AcDbArc
 50
315.0
 51
330.162164
  0
ARC
  5
394
100
AcDbEntity
  8
2
100
AcDbCircle
 10
-146.73958
 20
607.128106
 30
0.0
 40
6.0
100
AcDbArc
 50
135.0
 51
180.0
  0
LINE
  5
395
100
AcDbEntity
  8
2
100
AcDbLine
 10
-134.73958
 20
442.113388
 30
0.0
 11
-134.73958
 21
431.613388
 31
0.0
  0
ARC
  5
396
100
AcDbEntity
  8
2
100
AcDbCircle
 10
-146.73958
 20
482.098669
 30
0.0
 40
6.0
100
AcDbArc
 50
180.0
 51
225.0
  0
LINE
  5
397
100
AcDbEntity
  8
2
100
AcDbLine
 10
-96.73958
 20
558.530888
 30
0.0
 11
-96.73958
 21
546.113388
 31
0.0
  0
LINE
  5
398
100
AcDbEntity
  8
2
100
AcDbLine
 10
-96.73958
 20
543.113388
 30
0.0
 11
-96.73958
 21
530.695888
 31
0.0
  0
LINE
  5
399
100
AcDbEntity
  8
2
100
AcDbLine
 10
-114.73958
 20
442.925388
 30
0.0
 11
-114.73958
 21
461.301388
 31
0.0
  0
LINE
  5
39A
100
AcDbEntity
  8
2
 62
     2
100
AcDbLine
 10
-114.73958
 20
442.925388
 30
0.0
 11
-136.73958
 21
442.925388
 31
0.0
  0
LINE
  5
39B
100
AcDbEntity
  8
2
 62
     2
100
AcDbLine
 10
-114.73958
 20
461.301388
 30
0.0
 11
-136.73958
 21
461.301388
 31
0.0
  0
LINE
  5
39C
100
AcDbEntity
  8
2
100
AcDbLine
 10
-114.73958
 20
442.925388
 30
0.0
 11
-115.55158
 21
442.113388
 31
0.0
  0
LINE
  5
39D
100
AcDbEntity
  8
2
100
AcDbLine
 10
-114.73958
 20
461.301388
 30
0.0
 11
-115.55158
 21
462.113388
 31
0.0
  0
LINE
  5
39E
100
AcDbEntity
  8
2
100
AcDbLine
 10
-115.55158
 20
442.113388
 30
0.0
 11
-115.55158
 21
462.113388
 31
0.0
  0
LINE
  5
39F
100
AcDbEntity
  8
2
100
AcDbLine
 10
-115.55158
 20
442.113388
 30
0.0
 11
-136.73958
 21
442.113388
 31
0.0
  0
LINE
  5
3A0
100
AcDbEntity
  8
2
100
AcDbLine
 10
-175.73958
 20
442.113388
 30
0.0
 11
-677.73958
 21
442.113388
 31
0.0
  0
LINE
  5
3A1
100
AcDbEntity
  8
2
100
AcDbLine
 10
-115.55158
 20
462.113388
 30
0.0
 11
-136.73958
 21
462.113388
 31
0.0
  0
LINE
  5
3A2
100
AcDbEntity
  8
2
100
AcDbLine
 10
-175.73958
 20
462.113388
 30
0.0
 11
-677.73958
 21
462.113388
 31
0.0
  0
LINE
  5
3A3
100
AcDbEntity
  8
2
100
AcDbLine
 10
-114.73958
 20
646.301388
 30
0.0
 11
-114.73958
 21
627.925388
 31
0.0
  0
LINE
  5
3A4
100
AcDbEntity
  8
2
 62
     2
100
AcDbLine
 10
-114.73958
 20
646.301388
 30
0.0
 11
-136.73958
 21
646.301388
 31
0.0
  0
LINE
  5
3A5
100
AcDbEntity
  8
2
 62
     2
100
AcDbLine
 10
-114.73958
 20
627.925388
 30
0.0
 11
-136.73958
 21
627.925388
 31
0.0
  0
LINE
  5
3A6
100
AcDbEntity
  8
2
100
AcDbLine
 10
-114.73958
 20
646.301388
 30
0.0
 11
-115.55158
 21
647.113388
 31
0.0
  0
LINE
  5
3A7
100
AcDbEntity
  8
2
100
AcDbLine
 10
-114.73958
 20
627.925388
 30
0.0
 11
-115.55158
 21
627.113388
 31
0.0
  0
LINE
  5
3A8
100
AcDbEntity
  8
2
100
AcDbLine
 10
-115.55158
 20
647.113388
 30
0.0
 11
-115.55158
 21
627.113388
 31
0.0
  0
LINE
  5
3A9
100
AcDbEntity
  8
2
100
AcDbLine
 10
-115.55158
 20
647.113388
 30
0.0
 11
-136.73958
 21
647.113388
 31
0.0
  0
LINE
  5
3AA
100
AcDbEntity
  8
2
100
AcDbLine
 10
-175.73958
 20
647.113388
 30
0.0
 11
-677.73958
 21
647.113388
 31
0.0
  0
LINE
  5
3AB
100
AcDbEntity
  8
2
100
AcDbLine
 10
-115.55158
 20
627.113388
 30
0.0
 11
-136.73958
 21
627.113388
 31
0.0
  0
LINE
  5
3AC
100
AcDbEntity
  8
2
100
AcDbLine
 10
-175.73958
 20
627.113388
 30
0.0
 11
-677.73958
 21
627.113388
 31
0.0
  0
LINE
  5
3AD
100
AcDbEntity
  8
2
100
AcDbLine
 10
-176.73958
 20
654.613388
 30
0.0
 11
-176.73958
 21
647.113388
 31
0.0
  0
LINE
  5
3AE
100
AcDbEntity
  8
2
100
AcDbLine
 10
-176.73958
 20
627.113388
 30
0.0
 11
-176.73958
 21
462.113388
 31
0.0
  0
LINE
  5
3AF
100
AcDbEntity
  8
2
100
AcDbLine
 10
-176.73958
 20
442.113388
 30
0.0
 11
-176.73958
 21
434.613388
 31
0.0
  0
ARC
  5
3B0
100
AcDbEntity
  8
2
100
AcDbCircle
 10
-140.73958
 20
459.128106
 30
0.0
 40
6.0
100
AcDbArc
 50
29.837836
 51
45.0
  0
LINE
  5
3B1
100
AcDbEntity
  8
2
100
AcDbLine
 10
-136.496939
 20
463.370747
 30
0.0
 11
-136.73958
 21
463.613388
 31
0.0
  0
LINE
  5
3B2
100
AcDbEntity
  8
2
100
AcDbLine
 10
-142.53958
 20
469.413388
 30
0.0
 11
-150.98222
 21
477.856028
 31
0.0
  0
LINE
  5
3B3
100
AcDbEntity
  8
2
100
AcDbLine
 10
-136.496939
 20
625.856028
 30
0.0
 11
-136.73958
 21
625.613388
 31
0.0
  0
LINE
  5
3B4
100
AcDbEntity
  8
2
100
AcDbLine
 10
-142.53958
 20
619.813388
 30
0.0
 11
-150.98222
 21
611.370747
 31
0.0
  0
CIRCLE
  5
3B5
100
AcDbEntity
  8
2
 62
     2
100
AcDbCircle
 10
-695.73958
 20
559.613388
 30
0.0
 40
6.0
  0
CIRCLE
  5
3B6
100
AcDbEntity
  8
2
100
AcDbCircle
 10
-695.73958
 20
559.613388
 30
0.0
 40
5.053
  0
LINE
  5
3B7
100
AcDbEntity
  8
2
100
AcDbLine
 10
-677.73958
 20
57.613388
 30
0.0
 11
-704.73958
 21
57.613388
 31
0.0
  0
LINE
  5
3B8
100
AcDbEntity
  8
2
100
AcDbLine
 10
-677.73958
 20
-168.386612
 30
0.0
 11
-704.73958
 21
-168.386612
 31
0.0
  0
ARC
  5
3B9
100
AcDbEntity
  8
2
100
AcDbCircle
 10
-704.73958
 20
52.613388
 30
0.0
 40
5.0
100
AcDbArc
 50
90.0
 51
180.0
  0
ARC
  5
3BA
100
AcDbEntity
  8
2
100
AcDbCircle
 10
-704.73958
 20
-163.386612
 30
0.0
 40
5.0
100
AcDbArc
 50
180.0
 51
270.0
  0
LINE
  5
3BB
100
AcDbEntity
  8
2
100
AcDbLine
 10
-176.73958
 20
51.113388
 30
0.0
 11
-677.73958
 21
51.113388
 31
0.0
  0
LINE
  5
3BC
100
AcDbEntity
  8
2
100
AcDbLine
 10
-176.73958
 20
-161.886612
 30
0.0
 11
-677.73958
 21
-161.886612
 31
0.0
  0
LINE
  5
3BD
100
AcDbEntity
  8
2
100
AcDbLine
 10
-175.73958
 20
54.613388
 30
0.0
 11
-176.73958
 21
54.613388
 31
0.0
  0
LINE
  5
3BE
100
AcDbEntity
  8
2
100
AcDbLine
 10
-175.73958
 20
-165.386612
 30
0.0
 11
-176.73958
 21
-165.386612
 31
0.0
  0
LINE
  5
3BF
100
AcDbEntity
  8
2
100
AcDbLine
 10
-155.73958
 20
57.613388
 30
0.0
 11
-175.73958
 21
57.613388
 31
0.0
  0
LINE
  5
3C0
100
AcDbEntity
  8
2
100
AcDbLine
 10
-155.73958
 20
-168.386612
 30
0.0
 11
-175.73958
 21
-168.386612
 31
0.0
  0
ARC
  5
3C1
100
AcDbEntity
  8
2
100
AcDbCircle
 10
-155.73958
 20
54.613388
 30
0.0
 40
3.0
100
AcDbArc
 50
0.0
 51
90.0
  0
ARC
  5
3C2
100
AcDbEntity
  8
2
100
AcDbCircle
 10
-155.73958
 20
-165.386612
 30
0.0
 40
3.0
100
AcDbArc
 50
270.0
 51
360.0
  0
LINE
  5
3C3
100
AcDbEntity
  8
2
100
AcDbLine
 10
-143.73958
 20
-20.386612
 30
0.0
 11
-147.574428
 21
-20.386612
 31
0.0
  0
LINE
  5
3C4
100
AcDbEntity
  8
2
100
AcDbLine
 10
-143.73958
 20
-90.386612
 30
0.0
 11
-149.73958
 21
-90.386612
 31
0.0
  0
ARC
  5
3C5
100
AcDbEntity
  8
2
100
AcDbCircle
 10
-149.73958
 20
-93.386612
 30
0.0
 40
3.0
100
AcDbArc
 50
90.0
 51
180.0
  0
ARC
  5
3C6
100
AcDbEntity
  8
2
100
AcDbCircle
 10
-713.73958
 20
20.613388
 30
0.0
 40
4.0
100
AcDbArc
 50
270.0
 51
360.0
  0
ARC
  5
3C7
100
AcDbEntity
  8
2
100
AcDbCircle
 10
-713.73958
 20
-131.386612
 30
0.0
 40
4.0
100
AcDbArc
 50
0.0
 51
90.0
  0
LINE
  5
3C8
100
AcDbEntity
  8
2
100
AcDbLine
 10
-152.73958
 20
-165.386612
 30
0.0
 11
-152.73958
 21
-66.540006
 31
0.0
  0
LINE
  5
3C9
100
AcDbEntity
  8
2
100
AcDbLine
 10
-152.73958
 20
-14.233219
 30
0.0
 11
-152.73958
 21
54.613388
 31
0.0
  0
ARC
  5
3CA
100
AcDbEntity
  8
2
100
AcDbCircle
 10
-146.73958
 20
-14.233219
 30
0.0
 40
6.0
100
AcDbArc
 50
180.0
 51
249.075168
  0
ARC
  5
3CB
100
AcDbEntity
  8
2
100
AcDbCircle
 10
-156.73958
 20
-40.386612
 30
0.0
 40
22.0
100
AcDbArc
 50
290.924831
 51
69.075169
  0
LINE
  5
3CC
100
AcDbEntity
  8
2
100
AcDbLine
 10
-143.73958
 20
-90.386612
 30
0.0
 11
-143.73958
 21
-58.134852
 31
0.0
  0
LINE
  5
3CD
100
AcDbEntity
  8
2
100
AcDbLine
 10
-143.73958
 20
-22.638373
 30
0.0
 11
-143.73958
 21
-20.386612
 31
0.0
  0
LINE
  5
3CE
100
AcDbEntity
  8
2
100
AcDbLine
 10
-96.73958
 20
-69.304112
 30
0.0
 11
-96.73958
 21
-41.469112
 31
0.0
  0
LINE
  5
3CF
100
AcDbEntity
  8
2
100
AcDbLine
 10
-114.73958
 20
46.301388
 30
0.0
 11
-114.73958
 21
27.925388
 31
0.0
  0
LINE
  5
3D0
100
AcDbEntity
  8
2
 62
     2
100
AcDbLine
 10
-114.73958
 20
46.301388
 30
0.0
 11
-136.73958
 21
46.301388
 31
0.0
  0
LINE
  5
3D1
100
AcDbEntity
  8
2
 62
     2
100
AcDbLine
 10
-114.73958
 20
27.925388
 30
0.0
 11
-136.73958
 21
27.925388
 31
0.0
  0
LINE
  5
3D2
100
AcDbEntity
  8
2
100
AcDbLine
 10
-114.73958
 20
46.301388
 30
0.0
 11
-115.55158
 21
47.113388
 31
0.0
  0
LINE
  5
3D3
100
AcDbEntity
  8
2
100
AcDbLine
 10
-114.73958
 20
27.925388
 30
0.0
 11
-115.55158
 21
27.113388
 31
0.0
  0
LINE
  5
3D4
100
AcDbEntity
  8
2
100
AcDbLine
 10
-115.55158
 20
47.113388
 30
0.0
 11
-115.55158
 21
27.113388
 31
0.0
  0
LINE
  5
3D5
100
AcDbEntity
  8
2
100
AcDbLine
 10
-115.55158
 20
47.113388
 30
0.0
 11
-136.73958
 21
47.113388
 31
0.0
  0
LINE
  5
3D6
100
AcDbEntity
  8
2
100
AcDbLine
 10
-175.73958
 20
47.113388
 30
0.0
 11
-677.73958
 21
47.113388
 31
0.0
  0
LINE
  5
3D7
100
AcDbEntity
  8
2
100
AcDbLine
 10
-115.55158
 20
27.113388
 30
0.0
 11
-136.73958
 21
27.113388
 31
0.0
  0
LINE
  5
3D8
100
AcDbEntity
  8
2
100
AcDbLine
 10
-175.73958
 20
27.113388
 30
0.0
 11
-677.73958
 21
27.113388
 31
0.0
  0
LINE
  5
3D9
100
AcDbEntity
  8
2
100
AcDbLine
 10
-114.73958
 20
-157.074612
 30
0.0
 11
-114.73958
 21
-138.698612
 31
0.0
  0
LINE
  5
3DA
100
AcDbEntity
  8
2
 62
     2
100
AcDbLine
 10
-114.73958
 20
-157.074612
 30
0.0
 11
-136.73958
 21
-157.074612
 31
0.0
  0
LINE
  5
3DB
100
AcDbEntity
  8
2
 62
     2
100
AcDbLine
 10
-114.73958
 20
-138.698612
 30
0.0
 11
-136.73958
 21
-138.698612
 31
0.0
  0
LINE
  5
3DC
100
AcDbEntity
  8
2
100
AcDbLine
 10
-114.73958
 20
-157.074612
 30
0.0
 11
-115.55158
 21
-157.886612
 31
0.0
  0
LINE
  5
3DD
100
AcDbEntity
  8
2
100
AcDbLine
 10
-114.73958
 20
-138.698612
 30
0.0
 11
-115.55158
 21
-137.886612
 31
0.0
  0
LINE
  5
3DE
100
AcDbEntity
  8
2
100
AcDbLine
 10
-115.55158
 20
-157.886612
 30
0.0
 11
-115.55158
 21
-137.886612
 31
0.0
  0
LINE
  5
3DF
100
AcDbEntity
  8
2
100
AcDbLine
 10
-115.55158
 20
-157.886612
 30
0.0
 11
-136.73958
 21
-157.886612
 31
0.0
  0
LINE
  5
3E0
100
AcDbEntity
  8
2
100
AcDbLine
 10
-175.73958
 20
-157.886612
 30
0.0
 11
-677.73958
 21
-157.886612
 31
0.0
  0
LINE
  5
3E1
100
AcDbEntity
  8
2
100
AcDbLine
 10
-115.55158
 20
-137.886612
 30
0.0
 11
-136.73958
 21
-137.886612
 31
0.0
  0
LINE
  5
3E2
100
AcDbEntity
  8
2
100
AcDbLine
 10
-175.73958
 20
-137.886612
 30
0.0
 11
-677.73958
 21
-137.886612
 31
0.0
  0
LINE
  5
3E3
100
AcDbEntity
  8
2
100
AcDbLine
 10
-176.73958
 20
47.113388
 30
0.0
 11
-176.73958
 21
54.613388
 31
0.0
  0
LINE
  5
3E4
100
AcDbEntity
  8
2
100
AcDbLine
 10
-176.73958
 20
-165.386612
 30
0.0
 11
-176.73958
 21
-157.886612
 31
0.0
  0
LINE
  5
3E5
100
AcDbEntity
  8
2
100
AcDbLine
 10
-709.73958
 20
-163.386612
 30
0.0
 11
-709.73958
 21
-73.717612
 31
0.0
  0
ARC
  5
3E6
100
AcDbEntity
  8
2
100
AcDbCircle
 10
-146.73958
 20
-66.540006
 30
0.0
 40
6.0
100
AcDbArc
 50
110.924832
 51
180.0
  0
LINE
  5
3E7
100
AcDbEntity
  8
2
100
AcDbLine
 10
-175.73958
 20
-168.386612
 30
0.0
 11
-175.73958
 21
-51.009095
 31
0.0
  0
LINE
  5
3E8
100
AcDbEntity
  8
2
100
AcDbLine
 10
-175.73958
 20
-30.00866
 30
0.0
 11
-175.73958
 21
57.613388
 31
0.0
  0
LINE
  5
3E9
100
AcDbEntity
  8
2
100
AcDbLine
 10
-176.73958
 20
-137.886612
 30
0.0
 11
-176.73958
 21
-51.01553
 31
0.0
  0
LINE
  5
3EA
100
AcDbEntity
  8
2
100
AcDbLine
 10
-176.73958
 20
-30.015095
 30
0.0
 11
-176.73958
 21
27.113388
 31
0.0
  0
LINE
  5
3EB
100
AcDbEntity
  8
2
100
AcDbLine
 10
-677.73958
 20
-168.386612
 30
0.0
 11
-677.73958
 21
-48.739354
 31
0.0
  0
LINE
  5
3EC
100
AcDbEntity
  8
2
100
AcDbLine
 10
-677.73958
 20
-38.739147
 30
0.0
 11
-677.73958
 21
57.613388
 31
0.0
  0
LINE
  5
3ED
100
AcDbEntity
  8
2
100
AcDbLine
 10
-709.73958
 20
-57.055612
 30
0.0
 11
-709.73958
 21
-48.945274
 31
0.0
  0
LINE
  5
3EE
100
AcDbEntity
  8
2
100
AcDbLine
 10
-709.73958
 20
-38.945067
 30
0.0
 11
-709.73958
 21
52.613388
 31
0.0
  0
LINE
  5
3EF
100
AcDbEntity
  8
2
100
AcDbLine
 10
340.46042
 20
-86.386612
 30
0.0
 11
340.46042
 21
-63.869175
 31
0.0
  0
LINE
  5
3F0
100
AcDbEntity
  8
2
100
AcDbLine
 10
340.46042
 20
-46.90405
 30
0.0
 11
340.46042
 21
-24.386612
 31
0.0
  0
LINE
  5
3F1
100
AcDbEntity
  8
2
100
AcDbLine
 10
337.26042
 20
-86.386612
 30
0.0
 11
337.26042
 21
-63.769175
 31
0.0
  0
LINE
  5
3F2
100
AcDbEntity
  8
2
100
AcDbLine
 10
337.26042
 20
-47.00405
 30
0.0
 11
337.26042
 21
-24.386612
 31
0.0
  0
LINE
  5
3F3
100
AcDbEntity
  8
2
100
AcDbLine
 10
353.26042
 20
-124.886612
 30
0.0
 11
353.26042
 21
-120.886612
 31
0.0
  0
LINE
  5
3F4
100
AcDbEntity
  8
2
100
AcDbLine
 10
353.26042
 20
-131.886612
 30
0.0
 11
353.26042
 21
-127.886612
 31
0.0
  0
LINE
  5
3F5
100
AcDbEntity
  8
2
100
AcDbLine
 10
353.26042
 20
-138.886612
 30
0.0
 11
353.26042
 21
-134.886612
 31
0.0
  0
LINE
  5
3F6
100
AcDbEntity
  8
2
100
AcDbLine
 10
353.26042
 20
-217.386612
 30
0.0
 11
353.26042
 21
-153.386612
 31
0.0
  0
LINE
  5
3F7
100
AcDbEntity
  8
2
100
AcDbLine
 10
353.26042
 20
-145.886612
 30
0.0
 11
353.26042
 21
-141.886612
 31
0.0
  0
LINE
  5
3F8
100
AcDbEntity
  8
2
  6
CENTER
 62
     2
100
AcDbLine
 10
-1141.73958
 20
603.478663
 30
0.0
 11
-1141.73958
 21
666.895342
 31
0.0
  0
LINE
  5
3F9
100
AcDbEntity
  8
2
100
AcDbLine
 10
-1142.00975
 20
474.913388
 30
0.0
 11
-1150.469409
 21
474.913388
 31
0.0
  0
LINE
  5
3FA
100
AcDbEntity
  8
2
100
AcDbLine
 10
-1150.469409
 20
474.913388
 30
0.0
 11
-1151.73958
 21
477.113388
 31
0.0
  0
LINE
  5
3FB
100
AcDbEntity
  8
2
100
AcDbLine
 10
-1142.00975
 20
481.263388
 30
0.0
 11
-1150.469409
 21
481.263388
 31
0.0
  0
ARC
  5
3FC
100
AcDbEntity
  8
2
100
AcDbCircle
 10
-1146.387839
 20
478.088388
 30
0.0
 40
5.171058
100
AcDbArc
 50
142.121121
 51
217.878879
  0
ARC
  5
3FD
100
AcDbEntity
  8
2
100
AcDbCircle
 10
-1132.508897
 20
487.613388
 30
0.0
 40
19.05
100
AcDbArc
 50
160.528779
 51
199.471221
  0
LINE
  5
3FE
100
AcDbEntity
  8
2
100
AcDbLine
 10
-1142.00975
 20
500.313388
 30
0.0
 11
-1150.469409
 21
500.313388
 31
0.0
  0
LINE
  5
3FF
100
AcDbEntity
  8
2
100
AcDbLine
 10
-1150.469409
 20
500.313388
 30
0.0
 11
-1151.73958
 21
498.113388
 31
0.0
  0
LINE
  5
400
100
AcDbEntity
  8
2
100
AcDbLine
 10
-1151.73958
 20
498.113388
 30
0.0
 11
-1151.73958
 21
477.113388
 31
0.0
  0
LINE
  5
401
100
AcDbEntity
  8
2
100
AcDbLine
 10
-1142.00975
 20
493.963388
 30
0.0
 11
-1150.469409
 21
493.963388
 31
0.0
  0
ARC
  5
402
100
AcDbEntity
  8
2
100
AcDbCircle
 10
-1146.387839
 20
497.138388
 30
0.0
 40
5.171058
100
AcDbArc
 50
142.121121
 51
217.878879
  0
ARC
  5
403
100
AcDbEntity
  8
2
100
AcDbCircle
 10
-1159.970262
 20
487.613388
 30
0.0
 40
19.05
100
AcDbArc
 50
340.528779
 51
19.471221
  0
ARC
  5
404
100
AcDbEntity
  8
2
100
AcDbCircle
 10
-1146.09132
 20
478.088388
 30
0.0
 40
5.171058
100
AcDbArc
 50
322.121121
 51
37.878879
  0
ARC
  5
405
100
AcDbEntity
  8
2
100
AcDbCircle
 10
-1146.09132
 20
497.138388
 30
0.0
 40
5.171058
100
AcDbArc
 50
322.121121
 51
37.878879
  0
LINE
  5
406
100
AcDbEntity
  8
2
100
AcDbLine
 10
-1142.00975
 20
500.313388
 30
0.0
 11
-1140.73958
 21
498.113388
 31
0.0
  0
LINE
  5
407
100
AcDbEntity
  8
2
100
AcDbLine
 10
-1142.00975
 20
474.913388
 30
0.0
 11
-1140.73958
 21
477.113388
 31
0.0
  0
LINE
  5
408
100
AcDbEntity
  8
2
100
AcDbLine
 10
-1142.00975
 20
614.313388
 30
0.0
 11
-1150.469409
 21
614.313388
 31
0.0
  0
LINE
  5
409
100
AcDbEntity
  8
2
100
AcDbLine
 10
-1150.469409
 20
614.313388
 30
0.0
 11
-1151.73958
 21
612.113388
 31
0.0
  0
LINE
  5
40A
100
AcDbEntity
  8
2
100
AcDbLine
 10
-1142.00975
 20
607.963388
 30
0.0
 11
-1150.469409
 21
607.963388
 31
0.0
  0
ARC
  5
40B
100
AcDbEntity
  8
2
100
AcDbCircle
 10
-1146.387839
 20
611.138388
 30
0.0
 40
5.171058
100
AcDbArc
 50
142.121121
 51
217.878879
  0
ARC
  5
40C
100
AcDbEntity
  8
2
100
AcDbCircle
 10
-1132.508897
 20
601.613388
 30
0.0
 40
19.05
100
AcDbArc
 50
160.528779
 51
199.471221
  0
LINE
  5
40D
100
AcDbEntity
  8
2
100
AcDbLine
 10
-1142.00975
 20
588.913388
 30
0.0
 11
-1150.469409
 21
588.913388
 31
0.0
  0
LINE
  5
40E
100
AcDbEntity
  8
2
100
AcDbLine
 10
-1150.469409
 20
588.913388
 30
0.0
 11
-1151.73958
 21
591.113388
 31
0.0
  0
LINE
  5
40F
100
AcDbEntity
  8
2
100
AcDbLine
 10
-1151.73958
 20
591.113388
 30
0.0
 11
-1151.73958
 21
612.113388
 31
0.0
  0
LINE
  5
410
100
AcDbEntity
  8
2
100
AcDbLine
 10
-1142.00975
 20
595.263388
 30
0.0
 11
-1150.469409
 21
595.263388
 31
0.0
  0
ARC
  5
411
100
AcDbEntity
  8
2
100
AcDbCircle
 10
-1146.387839
 20
592.088388
 30
0.0
 40
5.171058
100
AcDbArc
 50
142.121121
 51
217.878879
  0
ARC
  5
412
100
AcDbEntity
  8
2
100
AcDbCircle
 10
-1159.970262
 20
601.613388
 30
0.0
 40
19.05
100
AcDbArc
 50
340.528779
 51
19.471221
  0
ARC
  5
413
100
AcDbEntity
  8
2
100
AcDbCircle
 10
-1146.09132
 20
611.138388
 30
0.0
 40
5.171058
100
AcDbArc
 50
322.121121
 51
37.878879
  0
ARC
  5
414
100
AcDbEntity
  8
2
100
AcDbCircle
 10
-1146.09132
 20
592.088388
 30
0.0
 40
5.171058
100
AcDbArc
 50
322.121121
 51
37.878879
  0
LINE
  5
415
100
AcDbEntity
  8
2
100
AcDbLine
 10
-1142.00975
 20
588.913388
 30
0.0
 11
-1140.73958
 21
591.113388
 31
0.0
  0
LINE
  5
416
100
AcDbEntity
  8
2
100
AcDbLine
 10
-1142.00975
 20
614.313388
 30
0.0
 11
-1140.73958
 21
612.113388
 31
0.0
  0
LINE
  5
417
100
AcDbEntity
  8
2
100
AcDbLine
 10
-1147.73958
 20
526.363388
 30
0.0
 11
-1147.73958
 21
562.863388
 31
0.0
  0
LINE
  5
418
100
AcDbEntity
  8
2
100
AcDbLine
 10
-1144.73958
 20
526.363388
 30
0.0
 11
-1147.73958
 21
526.363388
 31
0.0
  0
LINE
  5
419
100
AcDbEntity
  8
2
100
AcDbLine
 10
-1144.73958
 20
562.863388
 30
0.0
 11
-1147.73958
 21
562.863388
 31
0.0
  0
LINE
  5
41A
100
AcDbEntity
  8
2
100
AcDbLine
 10
-1147.73958
 20
529.613388
 30
0.0
 11
-1163.73958
 21
529.613388
 31
0.0
  0
ARC
  5
41B
100
AcDbEntity
  8
2
100
AcDbCircle
 10
-1145.533457
 20
537.113388
 30
0.0
 40
18.206122
100
AcDbArc
 50
155.672652
 51
204.327348
  0
LINE
  5
41C
100
AcDbEntity
  8
2
100
AcDbLine
 10
-1163.73958
 20
559.613388
 30
0.0
 11
-1163.73958
 21
529.613388
 31
0.0
  0
ARC
  5
41D
100
AcDbEntity
  8
2
100
AcDbCircle
 10
-1145.533457
 20
552.113388
 30
0.0
 40
18.206122
100
AcDbArc
 50
155.672652
 51
204.327348
  0
LINE
  5
41E
100
AcDbEntity
  8
2
100
AcDbLine
 10
-1147.73958
 20
559.613388
 30
0.0
 11
-1163.73958
 21
559.613388
 31
0.0
  0
LINE
  5
41F
100
AcDbEntity
  8
2
100
AcDbLine
 10
-1162.122999
 20
544.613388
 30
0.0
 11
-1147.73958
 21
544.613388
 31
0.0
  0
LINE
  5
420
100
AcDbEntity
  8
2
100
AcDbLine
 10
-840.48958
 20
663.313388
 30
0.0
 11
-840.48958
 21
666.82264
 31
0.0
  0
LINE
  5
421
100
AcDbEntity
  8
2
100
AcDbLine
 10
-840.48958
 20
666.82264
 30
0.0
 11
-839.63958
 21
667.313388
 31
0.0
  0
LINE
  5
422
100
AcDbEntity
  8
2
100
AcDbLine
 10
-837.61458
 20
663.313388
 30
0.0
 11
-837.61458
 21
666.82264
 31
0.0
  0
ARC
  5
423
100
AcDbEntity
  8
2
100
AcDbCircle
 10
-839.05208
 20
664.974685
 30
0.0
 40
2.341227
100
AcDbArc
 50
52.121121
 51
127.878879
  0
ARC
  5
424
100
AcDbEntity
  8
2
100
AcDbCircle
 10
-834.73958
 20
658.690912
 30
0.0
 40
8.625
100
AcDbArc
 50
70.528777
 51
109.471219
  0
LINE
  5
425
100
AcDbEntity
  8
2
100
AcDbLine
 10
-828.98958
 20
663.313388
 30
0.0
 11
-828.98958
 21
666.82264
 31
0.0
  0
LINE
  5
426
100
AcDbEntity
  8
2
100
AcDbLine
 10
-828.98958
 20
666.82264
 30
0.0
 11
-829.83958
 21
667.313388
 31
0.0
  0
LINE
  5
427
100
AcDbEntity
  8
2
100
AcDbLine
 10
-829.83958
 20
667.313388
 30
0.0
 11
-839.63958
 21
667.313388
 31
0.0
  0
LINE
  5
428
100
AcDbEntity
  8
2
100
AcDbLine
 10
-831.86458
 20
663.313388
 30
0.0
 11
-831.86458
 21
666.82264
 31
0.0
  0
ARC
  5
429
100
AcDbEntity
  8
2
100
AcDbCircle
 10
-830.42708
 20
664.974685
 30
0.0
 40
2.341227
100
AcDbArc
 50
52.121121
 51
127.878879
  0
LINE
  5
42A
100
AcDbEntity
  8
2
100
AcDbLine
 10
-840.83958
 20
661.813388
 30
0.0
 11
-840.83958
 21
663.313388
 31
0.0
  0
LINE
  5
42B
100
AcDbEntity
  8
2
100
AcDbLine
 10
-840.83958
 20
663.313388
 30
0.0
 11
-828.63958
 21
663.313388
 31
0.0
  0
LINE
  5
42C
100
AcDbEntity
  8
2
100
AcDbLine
 10
-828.63958
 20
663.313388
 30
0.0
 11
-828.63958
 21
661.813388
 31
0.0
  0
LINE
  5
42D
100
AcDbEntity
  8
2
100
AcDbLine
 10
-834.73958
 20
663.313388
 30
0.0
 11
-834.23958
 21
661.813388
 31
0.0
  0
LINE
  5
42E
100
AcDbEntity
  8
2
100
AcDbLine
 10
-834.73958
 20
661.813388
 30
0.0
 11
-835.23958
 21
663.313388
 31
0.0
  0
LINE
  5
42F
100
AcDbEntity
  8
2
100
AcDbLine
 10
-804.48958
 20
663.313388
 30
0.0
 11
-804.48958
 21
666.82264
 31
0.0
  0
LINE
  5
430
100
AcDbEntity
  8
2
100
AcDbLine
 10
-804.48958
 20
666.82264
 30
0.0
 11
-803.63958
 21
667.313388
 31
0.0
  0
LINE
  5
431
100
AcDbEntity
  8
2
100
AcDbLine
 10
-801.61458
 20
663.313388
 30
0.0
 11
-801.61458
 21
666.82264
 31
0.0
  0
ARC
  5
432
100
AcDbEntity
  8
2
100
AcDbCircle
 10
-803.05208
 20
664.974685
 30
0.0
 40
2.341227
100
AcDbArc
 50
52.121121
 51
127.878879
  0
ARC
  5
433
100
AcDbEntity
  8
2
100
AcDbCircle
 10
-798.73958
 20
658.690912
 30
0.0
 40
8.625
100
AcDbArc
 50
70.528777
 51
109.471219
  0
LINE
  5
434
100
AcDbEntity
  8
2
100
AcDbLine
 10
-792.98958
 20
663.313388
 30
0.0
 11
-792.98958
 21
666.82264
 31
0.0
  0
LINE
  5
435
100
AcDbEntity
  8
2
100
AcDbLine
 10
-792.98958
 20
666.82264
 30
0.0
 11
-793.83958
 21
667.313388
 31
0.0
  0
LINE
  5
436
100
AcDbEntity
  8
2
100
AcDbLine
 10
-793.83958
 20
667.313388
 30
0.0
 11
-803.63958
 21
667.313388
 31
0.0
  0
LINE
  5
437
100
AcDbEntity
  8
2
100
AcDbLine
 10
-795.86458
 20
663.313388
 30
0.0
 11
-795.86458
 21
666.82264
 31
0.0
  0
ARC
  5
438
100
AcDbEntity
  8
2
100
AcDbCircle
 10
-794.42708
 20
664.974685
 30
0.0
 40
2.341227
100
AcDbArc
 50
52.121121
 51
127.878879
  0
LINE
  5
439
100
AcDbEntity
  8
2
100
AcDbLine
 10
-804.83958
 20
661.813388
 30
0.0
 11
-804.83958
 21
663.313388
 31
0.0
  0
LINE
  5
43A
100
AcDbEntity
  8
2
100
AcDbLine
 10
-804.83958
 20
663.313388
 30
0.0
 11
-792.63958
 21
663.313388
 31
0.0
  0
LINE
  5
43B
100
AcDbEntity
  8
2
100
AcDbLine
 10
-792.63958
 20
663.313388
 30
0.0
 11
-792.63958
 21
661.813388
 31
0.0
  0
LINE
  5
43C
100
AcDbEntity
  8
2
100
AcDbLine
 10
-798.73958
 20
663.313388
 30
0.0
 11
-798.23958
 21
661.813388
 31
0.0
  0
LINE
  5
43D
100
AcDbEntity
  8
2
100
AcDbLine
 10
-798.73958
 20
661.813388
 30
0.0
 11
-799.23958
 21
663.313388
 31
0.0
  0
LINE
  5
43E
100
AcDbEntity
  8
2
100
AcDbLine
 10
341.96042
 20
-84.386612
 30
0.0
 11
345.96042
 21
-84.386612
 31
0.0
  0
LINE
  5
43F
100
AcDbEntity
  8
2
100
AcDbLine
 10
345.96042
 20
-84.386612
 30
0.0
 11
345.96042
 21
-74.386612
 31
0.0
  0
ARC
  5
440
100
AcDbEntity
  8
2
100
AcDbCircle
 10
339.347213
 20
-81.886612
 30
0.0
 40
6.613208
100
AcDbArc
 50
337.788205
 51
22.211795
  0
LINE
  5
441
100
AcDbEntity
  8
2
100
AcDbLine
 10
341.96042
 20
-74.386612
 30
0.0
 11
345.96042
 21
-74.386612
 31
0.0
  0
LINE
  5
442
100
AcDbEntity
  8
2
100
AcDbLine
 10
341.96042
 20
-79.386612
 30
0.0
 11
345.469673
 21
-79.386612
 31
0.0
  0
ARC
  5
443
100
AcDbEntity
  8
2
100
AcDbCircle
 10
339.347213
 20
-76.886612
 30
0.0
 40
6.613208
100
AcDbArc
 50
337.788205
 51
22.211795
  0
LINE
  5
444
100
AcDbEntity
  8
2
100
AcDbLine
 10
340.46042
 20
-85.486612
 30
0.0
 11
341.96042
 21
-85.486612
 31
0.0
  0
LINE
  5
445
100
AcDbEntity
  8
2
100
AcDbLine
 10
341.96042
 20
-85.486612
 30
0.0
 11
341.96042
 21
-73.286612
 31
0.0
  0
LINE
  5
446
100
AcDbEntity
  8
2
100
AcDbLine
 10
341.96042
 20
-73.286612
 30
0.0
 11
340.46042
 21
-73.286612
 31
0.0
  0
LINE
  5
447
100
AcDbEntity
  8
2
100
AcDbLine
 10
341.96042
 20
-26.386612
 30
0.0
 11
345.96042
 21
-26.386612
 31
0.0
  0
LINE
  5
448
100
AcDbEntity
  8
2
100
AcDbLine
 10
345.96042
 20
-26.386612
 30
0.0
 11
345.96042
 21
-36.386612
 31
0.0
  0
ARC
  5
449
100
AcDbEntity
  8
2
100
AcDbCircle
 10
339.347213
 20
-28.886612
 30
0.0
 40
6.613208
100
AcDbArc
 50
337.788205
 51
22.211795
  0
LINE
  5
44A
100
AcDbEntity
  8
2
100
AcDbLine
 10
341.96042
 20
-36.386612
 30
0.0
 11
345.96042
 21
-36.386612
 31
0.0
  0
LINE
  5
44B
100
AcDbEntity
  8
2
100
AcDbLine
 10
341.96042
 20
-31.386612
 30
0.0
 11
345.469673
 21
-31.386612
 31
0.0
  0
ARC
  5
44C
100
AcDbEntity
  8
2
100
AcDbCircle
 10
339.347213
 20
-33.886612
 30
0.0
 40
6.613208
100
AcDbArc
 50
337.788205
 51
22.211795
  0
LINE
  5
44D
100
AcDbEntity
  8
2
100
AcDbLine
 10
340.46042
 20
-25.286612
 30
0.0
 11
341.96042
 21
-25.286612
 31
0.0
  0
LINE
  5
44E
100
AcDbEntity
  8
2
100
AcDbLine
 10
341.96042
 20
-25.286612
 30
0.0
 11
341.96042
 21
-37.486612
 31
0.0
  0
LINE
  5
44F
100
AcDbEntity
  8
2
100
AcDbLine
 10
341.96042
 20
-37.486612
 30
0.0
 11
340.46042
 21
-37.486612
 31
0.0
  0
LINE
  5
450
100
AcDbEntity
  8
2
100
AcDbLine
 10
-1140.73958
 20
12.613388
 30
0.0
 11
-1151.73958
 21
12.613388
 31
0.0
  0
LINE
  5
451
100
AcDbEntity
  8
2
100
AcDbLine
 10
-1151.73958
 20
12.613388
 30
0.0
 11
-1151.73958
 21
-9.386612
 31
0.0
  0
ARC
  5
452
100
AcDbEntity
  8
2
100
AcDbCircle
 10
-1139.196645
 20
7.113388
 30
0.0
 40
12.542935
100
AcDbArc
 50
153.992176
 51
206.007824
  0
LINE
  5
453
100
AcDbEntity
  8
2
100
AcDbLine
 10
-1140.73958
 20
-9.386612
 30
0.0
 11
-1151.73958
 21
-9.386612
 31
0.0
  0
ARC
  5
454
100
AcDbEntity
  8
2
100
AcDbCircle
 10
-1139.196645
 20
-3.886612
 30
0.0
 40
12.542935
100
AcDbArc
 50
153.992176
 51
206.007824
  0
LINE
  5
455
100
AcDbEntity
  8
2
100
AcDbLine
 10
-1150.469409
 20
1.613388
 30
0.0
 11
-1142.00975
 21
1.613388
 31
0.0
  0
ARC
  5
456
100
AcDbEntity
  8
2
100
AcDbCircle
 10
-1153.282514
 20
7.113388
 30
0.0
 40
12.542935
100
AcDbArc
 50
333.992176
 51
26.007824
  0
ARC
  5
457
100
AcDbEntity
  8
2
100
AcDbCircle
 10
-1153.282514
 20
-3.886612
 30
0.0
 40
12.542935
100
AcDbArc
 50
333.992176
 51
26.007824
  0
LINE
  5
458
100
AcDbEntity
  8
2
100
AcDbLine
 10
-1140.73958
 20
-123.386612
 30
0.0
 11
-1151.73958
 21
-123.386612
 31
0.0
  0
LINE
  5
459
100
AcDbEntity
  8
2
100
AcDbLine
 10
-1151.73958
 20
-123.386612
 30
0.0
 11
-1151.73958
 21
-101.386612
 31
0.0
  0
ARC
  5
45A
100
AcDbEntity
  8
2
100
AcDbCircle
 10
-1139.196645
 20
-117.886612
 30
0.0
 40
12.542935
100
AcDbArc
 50
153.992176
 51
206.007824
  0
LINE
  5
45B
100
AcDbEntity
  8
2
100
AcDbLine
 10
-1140.73958
 20
-101.386612
 30
0.0
 11
-1151.73958
 21
-101.386612
 31
0.0
  0
ARC
  5
45C
100
AcDbEntity
  8
2
100
AcDbCircle
 10
-1139.196645
 20
-106.886612
 30
0.0
 40
12.542935
100
AcDbArc
 50
153.992176
 51
206.007824
  0
LINE
  5
45D
100
AcDbEntity
  8
2
100
AcDbLine
 10
-1150.469409
 20
-112.386612
 30
0.0
 11
-1142.00975
 21
-112.386612
 31
0.0
  0
ARC
  5
45E
100
AcDbEntity
  8
2
100
AcDbCircle
 10
-1153.282514
 20
-117.886612
 30
0.0
 40
12.542935
100
AcDbArc
 50
333.992176
 51
26.007824
  0
ARC
  5
45F
100
AcDbEntity
  8
2
100
AcDbCircle
 10
-1153.282514
 20
-106.886612
 30
0.0
 40
12.542935
100
AcDbArc
 50
333.992176
 51
26.007824
  0
LINE
  5
460
100
AcDbEntity
  8
2
100
AcDbLine
 10
-1144.73958
 20
-37.136612
 30
0.0
 11
-1147.73958
 21
-37.136612
 31
0.0
  0
LINE
  5
461
100
AcDbEntity
  8
2
100
AcDbLine
 10
-1147.73958
 20
-38.086612
 30
0.0
 11
-1162.122999
 21
-38.086612
 31
0.0
  0
LINE
  5
462
100
AcDbEntity
  8
2
100
AcDbLine
 10
-1162.122999
 20
-38.086612
 30
0.0
 11
-1163.73958
 21
-40.886612
 31
0.0
  0
LINE
  5
463
100
AcDbEntity
  8
2
100
AcDbLine
 10
-1163.73958
 20
-40.886612
 30
0.0
 11
-1163.73958
 21
-69.886612
 31
0.0
  0
LINE
  5
464
100
AcDbEntity
  8
2
100
AcDbLine
 10
-1147.73958
 20
-46.736612
 30
0.0
 11
-1162.122999
 21
-46.736612
 31
0.0
  0
ARC
  5
465
100
AcDbEntity
  8
2
100
AcDbCircle
 10
-1156.563065
 20
-42.411612
 30
0.0
 40
7.04404
100
AcDbArc
 50
142.121121
 51
217.878879
  0
LINE
  5
466
100
AcDbEntity
  8
2
100
AcDbLine
 10
-1158.192847
 20
-72.686612
 30
0.0
 11
-1162.122999
 21
-72.686612
 31
0.0
  0
LINE
  5
467
100
AcDbEntity
  8
2
100
AcDbLine
 10
-1162.122999
 20
-72.686612
 30
0.0
 11
-1163.73958
 21
-69.886612
 31
0.0
  0
LINE
  5
468
100
AcDbEntity
  8
2
100
AcDbLine
 10
-1159.688883
 20
-64.036612
 30
0.0
 11
-1162.122999
 21
-64.036612
 31
0.0
  0
ARC
  5
469
100
AcDbEntity
  8
2
100
AcDbCircle
 10
-1156.563065
 20
-68.361612
 30
0.0
 40
7.04404
100
AcDbArc
 50
142.121121
 51
217.878879
  0
ARC
  5
46A
100
AcDbEntity
  8
2
100
AcDbCircle
 10
-1137.657104
 20
-55.386612
 30
0.0
 40
25.95
100
AcDbArc
 50
160.528779
 51
199.471221
  0
LINE
  5
46B
100
AcDbEntity
  8
2
100
AcDbLine
 10
-1147.73958
 20
-48.41605
 30
0.0
 11
-1147.73958
 21
-37.136612
 31
0.0
  0
LINE
  5
46C
100
AcDbEntity
  8
2
100
AcDbLine
 10
-841.73958
 20
29.953134
 30
0.0
 11
-841.73958
 21
33.726636
 31
0.0
  0
LINE
  5
46D
100
AcDbEntity
  8
2
100
AcDbLine
 10
-796.73958
 20
36.613388
 30
0.0
 11
-836.73958
 21
36.613388
 31
0.0
  0
LINE
  5
46E
100
AcDbEntity
  8
2
100
AcDbLine
 10
-836.73958
 20
36.613388
 30
0.0
 11
-841.73958
 21
33.726636
 31
0.0
  0
LINE
  5
46F
100
AcDbEntity
  8
2
100
AcDbLine
 10
-836.73958
 20
28.613388
 30
0.0
 11
-841.73958
 21
25.613388
 31
0.0
  0
LINE
  5
470
100
AcDbEntity
  8
2
100
AcDbLine
 10
-836.73958
 20
28.613388
 30
0.0
 11
-841.73958
 21
29.953134
 31
0.0
  0
LINE
  5
471
100
AcDbEntity
  8
2
100
AcDbLine
 10
-791.73958
 20
29.953134
 30
0.0
 11
-791.73958
 21
33.726636
 31
0.0
  0
LINE
  5
472
100
AcDbEntity
  8
2
100
AcDbLine
 10
-796.73958
 20
36.613388
 30
0.0
 11
-791.73958
 21
33.726636
 31
0.0
  0
LINE
  5
473
100
AcDbEntity
  8
2
100
AcDbLine
 10
-796.73958
 20
28.613388
 30
0.0
 11
-791.73958
 21
25.613388
 31
0.0
  0
LINE
  5
474
100
AcDbEntity
  8
2
100
AcDbLine
 10
-796.73958
 20
28.613388
 30
0.0
 11
-791.73958
 21
29.953134
 31
0.0
  0
LINE
  5
475
100
AcDbEntity
  8
2
100
AcDbLine
 10
-841.73958
 20
33.726636
 30
0.0
 11
-791.73958
 21
33.726636
 31
0.0
  0
LINE
  5
476
100
AcDbEntity
  8
2
100
AcDbLine
 10
-841.73958
 20
29.953134
 30
0.0
 11
-791.73958
 21
29.953134
 31
0.0
  0
LINE
  5
477
100
AcDbEntity
  8
2
100
AcDbLine
 10
-796.73958
 20
28.613388
 30
0.0
 11
-836.73958
 21
28.613388
 31
0.0
  0
LINE
  5
478
100
AcDbEntity
  8
2
100
AcDbLine
 10
-142.13958
 20
567.613388
 30
0.0
 11
-118.13958
 21
567.613388
 31
0.0
  0
LINE
  5
479
100
AcDbEntity
  8
2
100
AcDbLine
 10
-118.13958
 20
567.613388
 30
0.0
 11
-118.13958
 21
521.613388
 31
0.0
  0
ARC
  5
47A
100
AcDbEntity
  8
2
100
AcDbCircle
 10
-144.624889
 20
556.113388
 30
0.0
 40
26.485309
100
AcDbArc
 50
334.265411
 51
25.734589
  0
LINE
  5
47B
100
AcDbEntity
  8
2
100
AcDbLine
 10
-142.13958
 20
521.613388
 30
0.0
 11
-118.13958
 21
521.613388
 31
0.0
  0
ARC
  5
47C
100
AcDbEntity
  8
2
100
AcDbCircle
 10
-144.624889
 20
533.113388
 30
0.0
 40
26.485309
100
AcDbArc
 50
334.265411
 51
25.734589
  0
LINE
  5
47D
100
AcDbEntity
  8
2
100
AcDbLine
 10
-120.766523
 20
544.613388
 30
0.0
 11
-142.13958
 21
544.613388
 31
0.0
  0
LINE
  5
47E
100
AcDbEntity
  8
2
100
AcDbLine
 10
-97.82208
 20
529.613388
 30
0.0
 11
-118.13958
 21
529.613388
 31
0.0
  0
LINE
  5
47F
100
AcDbEntity
  8
2
100
AcDbLine
 10
-97.82208
 20
559.613388
 30
0.0
 11
-118.13958
 21
559.613388
 31
0.0
  0
LINE
  5
480
100
AcDbEntity
  8
2
 62
     2
100
AcDbLine
 10
-96.73958
 20
530.695888
 30
0.0
 11
-118.13958
 21
530.695888
 31
0.0
  0
LINE
  5
481
100
AcDbEntity
  8
2
 62
     2
100
AcDbLine
 10
-96.73958
 20
558.530888
 30
0.0
 11
-118.13958
 21
558.530888
 31
0.0
  0
LINE
  5
482
100
AcDbEntity
  8
2
100
AcDbLine
 10
-96.73958
 20
530.695888
 30
0.0
 11
-97.82208
 21
529.613388
 31
0.0
  0
LINE
  5
483
100
AcDbEntity
  8
2
100
AcDbLine
 10
-96.73958
 20
558.530888
 30
0.0
 11
-97.82208
 21
559.613388
 31
0.0
  0
LINE
  5
484
100
AcDbEntity
  8
2
100
AcDbLine
 10
-102.73958
 20
546.113388
 30
0.0
 11
-102.73958
 21
543.113388
 31
0.0
  0
LINE
  5
485
100
AcDbEntity
  8
2
100
AcDbLine
 10
-96.73958
 20
543.113388
 30
0.0
 11
-102.73958
 21
543.113388
 31
0.0
  0
LINE
  5
486
100
AcDbEntity
  8
2
100
AcDbLine
 10
-96.73958
 20
546.113388
 30
0.0
 11
-102.73958
 21
546.113388
 31
0.0
  0
LINE
  5
487
100
AcDbEntity
  8
2
100
AcDbLine
 10
-97.82208
 20
559.613388
 30
0.0
 11
-97.82208
 21
546.113388
 31
0.0
  0
LINE
  5
488
100
AcDbEntity
  8
2
100
AcDbLine
 10
-97.82208
 20
543.113388
 30
0.0
 11
-97.82208
 21
529.613388
 31
0.0
  0
LINE
  5
489
100
AcDbEntity
  8
2
100
AcDbLine
 10
-151.122999
 20
469.413388
 30
0.0
 11
-138.35616
 21
469.413388
 31
0.0
  0
LINE
  5
48A
100
AcDbEntity
  8
2
100
AcDbLine
 10
-138.35616
 20
469.413388
 30
0.0
 11
-136.73958
 21
466.613388
 31
0.0
  0
LINE
  5
48B
100
AcDbEntity
  8
2
100
AcDbLine
 10
-151.122999
 20
460.763388
 30
0.0
 11
-138.35616
 21
460.763388
 31
0.0
  0
ARC
  5
48C
100
AcDbEntity
  8
2
100
AcDbCircle
 10
-143.916095
 20
465.088388
 30
0.0
 40
7.04404
100
AcDbArc
 50
322.121121
 51
37.878879
  0
LINE
  5
48D
100
AcDbEntity
  8
2
100
AcDbLine
 10
-151.122999
 20
434.813388
 30
0.0
 11
-138.35616
 21
434.813388
 31
0.0
  0
LINE
  5
48E
100
AcDbEntity
  8
2
100
AcDbLine
 10
-138.35616
 20
434.813388
 30
0.0
 11
-136.73958
 21
437.613388
 31
0.0
  0
LINE
  5
48F
100
AcDbEntity
  8
2
100
AcDbLine
 10
-136.73958
 20
437.613388
 30
0.0
 11
-136.73958
 21
466.613388
 31
0.0
  0
LINE
  5
490
100
AcDbEntity
  8
2
100
AcDbLine
 10
-151.122999
 20
443.463388
 30
0.0
 11
-138.35616
 21
443.463388
 31
0.0
  0
ARC
  5
491
100
AcDbEntity
  8
2
100
AcDbCircle
 10
-143.916095
 20
439.138388
 30
0.0
 40
7.04404
100
AcDbArc
 50
322.121121
 51
37.878879
  0
ARC
  5
492
100
AcDbEntity
  8
2
100
AcDbCircle
 10
-162.822055
 20
452.113388
 30
0.0
 40
25.95
100
AcDbArc
 50
340.528782
 51
19.471218
  0
ARC
  5
493
100
AcDbEntity
  8
2
100
AcDbCircle
 10
-126.657104
 20
452.113388
 30
0.0
 40
25.95
100
AcDbArc
 50
160.528782
 51
199.471218
  0
ARC
  5
494
100
AcDbEntity
  8
2
100
AcDbCircle
 10
-145.563065
 20
439.138388
 30
0.0
 40
7.04404
100
AcDbArc
 50
142.121121
 51
217.878879
  0
LINE
  5
495
100
AcDbEntity
  8
2
100
AcDbLine
 10
-151.122999
 20
434.813388
 30
0.0
 11
-152.73958
 21
437.613388
 31
0.0
  0
ARC
  5
496
100
AcDbEntity
  8
2
100
AcDbCircle
 10
-145.563065
 20
465.088388
 30
0.0
 40
7.04404
100
AcDbArc
 50
142.121121
 51
217.878879
  0
LINE
  5
497
100
AcDbEntity
  8
2
100
AcDbLine
 10
-151.122999
 20
469.413388
 30
0.0
 11
-152.73958
 21
466.613388
 31
0.0
  0
LINE
  5
498
100
AcDbEntity
  8
2
100
AcDbLine
 10
-151.122999
 20
654.413388
 30
0.0
 11
-138.35616
 21
654.413388
 31
0.0
  0
LINE
  5
499
100
AcDbEntity
  8
2
100
AcDbLine
 10
-138.35616
 20
654.413388
 30
0.0
 11
-136.73958
 21
651.613388
 31
0.0
  0
LINE
  5
49A
100
AcDbEntity
  8
2
100
AcDbLine
 10
-151.122999
 20
645.763388
 30
0.0
 11
-138.35616
 21
645.763388
 31
0.0
  0
ARC
  5
49B
100
AcDbEntity
  8
2
100
AcDbCircle
 10
-143.916095
 20
650.088388
 30
0.0
 40
7.04404
100
AcDbArc
 50
322.121121
 51
37.878879
  0
LINE
  5
49C
100
AcDbEntity
  8
2
100
AcDbLine
 10
-151.122999
 20
619.813388
 30
0.0
 11
-138.35616
 21
619.813388
 31
0.0
  0
LINE
  5
49D
100
AcDbEntity
  8
2
100
AcDbLine
 10
-138.35616
 20
619.813388
 30
0.0
 11
-136.73958
 21
622.613388
 31
0.0
  0
LINE
  5
49E
100
AcDbEntity
  8
2
100
AcDbLine
 10
-136.73958
 20
622.613388
 30
0.0
 11
-136.73958
 21
651.613388
 31
0.0
  0
LINE
  5
49F
100
AcDbEntity
  8
2
100
AcDbLine
 10
-151.122999
 20
628.463388
 30
0.0
 11
-138.35616
 21
628.463388
 31
0.0
  0
ARC
  5
4A0
100
AcDbEntity
  8
2
100
AcDbCircle
 10
-143.916095
 20
624.138388
 30
0.0
 40
7.04404
100
AcDbArc
 50
322.121121
 51
37.878879
  0
ARC
  5
4A1
100
AcDbEntity
  8
2
100
AcDbCircle
 10
-162.822055
 20
637.113388
 30
0.0
 40
25.95
100
AcDbArc
 50
340.528782
 51
19.471218
  0
ARC
  5
4A2
100
AcDbEntity
  8
2
100
AcDbCircle
 10
-126.657104
 20
637.113388
 30
0.0
 40
25.95
100
AcDbArc
 50
160.528782
 51
199.471218
  0
ARC
  5
4A3
100
AcDbEntity
  8
2
100
AcDbCircle
 10
-145.563065
 20
624.138388
 30
0.0
 40
7.04404
100
AcDbArc
 50
142.121121
 51
217.878879
  0
LINE
  5
4A4
100
AcDbEntity
  8
2
100
AcDbLine
 10
-151.122999
 20
619.813388
 30
0.0
 11
-152.73958
 21
622.613388
 31
0.0
  0
ARC
  5
4A5
100
AcDbEntity
  8
2
100
AcDbCircle
 10
-145.563065
 20
650.088388
 30
0.0
 40
7.04404
100
AcDbArc
 50
142.121121
 51
217.878879
  0
LINE
  5
4A6
100
AcDbEntity
  8
2
100
AcDbLine
 10
-151.122999
 20
654.413388
 30
0.0
 11
-152.73958
 21
651.613388
 31
0.0
  0
LINE
  5
4A7
100
AcDbEntity
  8
2
100
AcDbLine
 10
-142.13958
 20
520.613388
 30
0.0
 11
-142.13958
 21
568.613388
 31
0.0
  0
LINE
  5
4A8
100
AcDbEntity
  8
2
100
AcDbLine
 10
-142.13958
 20
520.613388
 30
0.0
 11
-143.73958
 21
520.613388
 31
0.0
  0
LINE
  5
4A9
100
AcDbEntity
  8
2
100
AcDbLine
 10
-142.13958
 20
568.613388
 30
0.0
 11
-143.73958
 21
568.613388
 31
0.0
  0
CIRCLE
  5
4AA
100
AcDbEntity
  8
2
100
AcDbCircle
 10
130.76042
 20
37.113388
 30
0.0
 40
14.5
  0
CIRCLE
  5
4AB
100
AcDbEntity
  8
2
100
AcDbCircle
 10
130.76042
 20
37.113388
 30
0.0
 40
10.0
  0
LINE
  5
4AC
100
AcDbEntity
  8
2
100
AcDbLine
 10
139.420674
 20
52.113388
 30
0.0
 11
122.100166
 21
52.113388
 31
0.0
  0
LINE
  5
4AD
100
AcDbEntity
  8
2
100
AcDbLine
 10
139.420674
 20
22.113388
 30
0.0
 11
122.100166
 21
22.113388
 31
0.0
  0
LINE
  5
4AE
100
AcDbEntity
  8
2
100
AcDbLine
 10
122.100166
 20
52.113388
 30
0.0
 11
113.439912
 21
37.113388
 31
0.0
  0
LINE
  5
4AF
100
AcDbEntity
  8
2
100
AcDbLine
 10
148.080928
 20
37.113388
 30
0.0
 11
139.420674
 21
22.113388
 31
0.0
  0
LINE
  5
4B0
100
AcDbEntity
  8
2
100
AcDbLine
 10
113.439912
 20
37.113388
 30
0.0
 11
122.100166
 21
22.113388
 31
0.0
  0
LINE
  5
4B1
100
AcDbEntity
  8
2
100
AcDbLine
 10
139.420674
 20
52.113388
 30
0.0
 11
148.080928
 21
37.113388
 31
0.0
  0
CIRCLE
  5
4B2
100
AcDbEntity
  8
2
 62
     2
100
AcDbCircle
 10
130.76042
 20
37.113388
 30
0.0
 40
9.188
  0
CIRCLE
  5
4B3
100
AcDbEntity
  8
2
100
AcDbCircle
 10
315.76042
 20
37.113388
 30
0.0
 40
14.5
  0
CIRCLE
  5
4B4
100
AcDbEntity
  8
2
100
AcDbCircle
 10
315.76042
 20
37.113388
 30
0.0
 40
10.0
  0
LINE
  5
4B5
100
AcDbEntity
  8
2
100
AcDbLine
 10
307.100166
 20
52.113388
 30
0.0
 11
324.420674
 21
52.113388
 31
0.0
  0
LINE
  5
4B6
100
AcDbEntity
  8
2
100
AcDbLine
 10
307.100166
 20
22.113388
 30
0.0
 11
324.420674
 21
22.113388
 31
0.0
  0
LINE
  5
4B7
100
AcDbEntity
  8
2
100
AcDbLine
 10
324.420674
 20
52.113388
 30
0.0
 11
333.080928
 21
37.113388
 31
0.0
  0
LINE
  5
4B8
100
AcDbEntity
  8
2
100
AcDbLine
 10
298.439912
 20
37.113388
 30
0.0
 11
307.100166
 21
22.113388
 31
0.0
  0
LINE
  5
4B9
100
AcDbEntity
  8
2
100
AcDbLine
 10
333.080928
 20
37.113388
 30
0.0
 11
324.420674
 21
22.113388
 31
0.0
  0
LINE
  5
4BA
100
AcDbEntity
  8
2
100
AcDbLine
 10
307.100166
 20
52.113388
 30
0.0
 11
298.439912
 21
37.113388
 31
0.0
  0
CIRCLE
  5
4BB
100
AcDbEntity
  8
2
 62
     2
100
AcDbCircle
 10
315.76042
 20
37.113388
 30
0.0
 40
9.188
  0
CIRCLE
  5
4BC
100
AcDbEntity
  8
2
100
AcDbCircle
 10
130.76042
 20
-147.886612
 30
0.0
 40
14.5
  0
CIRCLE
  5
4BD
100
AcDbEntity
  8
2
100
AcDbCircle
 10
130.76042
 20
-147.886612
 30
0.0
 40
10.0
  0
LINE
  5
4BE
100
AcDbEntity
  8
2
100
AcDbLine
 10
139.420674
 20
-162.886612
 30
0.0
 11
122.100166
 21
-162.886612
 31
0.0
  0
LINE
  5
4BF
100
AcDbEntity
  8
2
100
AcDbLine
 10
139.420674
 20
-132.886612
 30
0.0
 11
122.100166
 21
-132.886612
 31
0.0
  0
LINE
  5
4C0
100
AcDbEntity
  8
2
100
AcDbLine
 10
122.100166
 20
-162.886612
 30
0.0
 11
113.439912
 21
-147.886612
 31
0.0
  0
LINE
  5
4C1
100
AcDbEntity
  8
2
100
AcDbLine
 10
148.080928
 20
-147.886612
 30
0.0
 11
139.420674
 21
-132.886612
 31
0.0
  0
LINE
  5
4C2
100
AcDbEntity
  8
2
100
AcDbLine
 10
113.439912
 20
-147.886612
 30
0.0
 11
122.100166
 21
-132.886612
 31
0.0
  0
LINE
  5
4C3
100
AcDbEntity
  8
2
100
AcDbLine
 10
139.420674
 20
-162.886612
 30
0.0
 11
148.080928
 21
-147.886612
 31
0.0
  0
CIRCLE
  5
4C4
100
AcDbEntity
  8
2
 62
     2
100
AcDbCircle
 10
130.76042
 20
-147.886612
 30
0.0
 40
9.188
  0
CIRCLE
  5
4C5
100
AcDbEntity
  8
2
100
AcDbCircle
 10
315.76042
 20
-147.886612
 30
0.0
 40
14.5
  0
CIRCLE
  5
4C6
100
AcDbEntity
  8
2
100
AcDbCircle
 10
315.76042
 20
-147.886612
 30
0.0
 40
10.0
  0
LINE
  5
4C7
100
AcDbEntity
  8
2
100
AcDbLine
 10
307.100166
 20
-162.886612
 30
0.0
 11
324.420674
 21
-162.886612
 31
0.0
  0
LINE
  5
4C8
100
AcDbEntity
  8
2
100
AcDbLine
 10
307.100166
 20
-132.886612
 30
0.0
 11
324.420674
 21
-132.886612
 31
0.0
  0
LINE
  5
4C9
100
AcDbEntity
  8
2
100
AcDbLine
 10
324.420674
 20
-162.886612
 30
0.0
 11
333.080928
 21
-147.886612
 31
0.0
  0
LINE
  5
4CA
100
AcDbEntity
  8
2
100
AcDbLine
 10
298.439912
 20
-147.886612
 30
0.0
 11
307.100166
 21
-132.886612
 31
0.0
  0
LINE
  5
4CB
100
AcDbEntity
  8
2
100
AcDbLine
 10
333.080928
 20
-147.886612
 30
0.0
 11
324.420674
 21
-132.886612
 31
0.0
  0
LINE
  5
4CC
100
AcDbEntity
  8
2
100
AcDbLine
 10
307.100166
 20
-162.886612
 30
0.0
 11
298.439912
 21
-147.886612
 31
0.0
  0
CIRCLE
  5
4CD
100
AcDbEntity
  8
2
 62
     2
100
AcDbCircle
 10
315.76042
 20
-147.886612
 30
0.0
 40
9.188
  0
CIRCLE
  5
4CE
100
AcDbEntity
  8
2
100
AcDbCircle
 10
223.26042
 20
-55.386612
 30
0.0
 40
22.0
  0
CIRCLE
  5
4CF
100
AcDbEntity
  8
2
100
AcDbCircle
 10
223.26042
 20
-55.386612
 30
0.0
 40
15.0
  0
LINE
  5
4D0
100
AcDbEntity
  8
2
100
AcDbLine
 10
200.26042
 20
-42.107556
 30
0.0
 11
200.26042
 21
-68.665669
 31
0.0
  0
LINE
  5
4D1
100
AcDbEntity
  8
2
100
AcDbLine
 10
246.26042
 20
-42.107556
 30
0.0
 11
246.26042
 21
-68.665669
 31
0.0
  0
LINE
  5
4D2
100
AcDbEntity
  8
2
100
AcDbLine
 10
223.26042
 20
-28.8285
 30
0.0
 11
246.26042
 21
-42.107556
 31
0.0
  0
LINE
  5
4D3
100
AcDbEntity
  8
2
100
AcDbLine
 10
200.26042
 20
-68.665669
 30
0.0
 11
223.26042
 21
-81.944725
 31
0.0
  0
LINE
  5
4D4
100
AcDbEntity
  8
2
100
AcDbLine
 10
223.26042
 20
-81.944725
 30
0.0
 11
246.26042
 21
-68.665669
 31
0.0
  0
LINE
  5
4D5
100
AcDbEntity
  8
2
100
AcDbLine
 10
200.26042
 20
-42.107556
 30
0.0
 11
223.26042
 21
-28.8285
 31
0.0
  0
LINE
  5
4D6
100
AcDbEntity
  8
2
100
AcDbLine
 10
224.76042
 20
-70.311424
 30
0.0
 11
224.76042
 21
-40.461801
 31
0.0
  0
LINE
  5
4D7
100
AcDbEntity
  8
2
100
AcDbLine
 10
221.76042
 20
-70.311424
 30
0.0
 11
221.76042
 21
-40.461801
 31
0.0
  0
ARC
  5
4D8
100
AcDbEntity
  8
2
 62
     2
100
AcDbCircle
 10
223.26042
 20
-55.386612
 30
0.0
 40
13.9175
100
AcDbArc
 50
96.187241
 51
263.812759
  0
ARC
  5
4D9
100
AcDbEntity
  8
2
 62
     2
100
AcDbCircle
 10
223.26042
 20
-55.386612
 30
0.0
 40
13.9175
100
AcDbArc
 50
276.187241
 51
83.812759
  0
LINE
  5
4DA
100
AcDbEntity
  8
2
100
AcDbLine
 10
-142.13958
 20
-81.936612
 30
0.0
 11
-120.766523
 21
-81.936612
 31
0.0
  0
LINE
  5
4DB
100
AcDbEntity
  8
2
100
AcDbLine
 10
-120.766523
 20
-81.936612
 30
0.0
 11
-118.13958
 21
-77.386612
 31
0.0
  0
LINE
  5
4DC
100
AcDbEntity
  8
2
100
AcDbLine
 10
-118.13958
 20
-77.386612
 30
0.0
 11
-118.13958
 21
-33.386612
 31
0.0
  0
LINE
  5
4DD
100
AcDbEntity
  8
2
100
AcDbLine
 10
-142.13958
 20
-68.661612
 30
0.0
 11
-120.766523
 21
-68.661612
 31
0.0
  0
ARC
  5
4DE
100
AcDbEntity
  8
2
100
AcDbCircle
 10
-129.299255
 20
-75.299112
 30
0.0
 40
10.810361
100
AcDbArc
 50
322.121121
 51
37.878879
  0
LINE
  5
4DF
100
AcDbEntity
  8
2
100
AcDbLine
 10
-138.015331
 20
-28.836612
 30
0.0
 11
-120.766523
 21
-28.836612
 31
0.0
  0
LINE
  5
4E0
100
AcDbEntity
  8
2
100
AcDbLine
 10
-120.766523
 20
-28.836612
 30
0.0
 11
-118.13958
 21
-33.386612
 31
0.0
  0
LINE
  5
4E1
100
AcDbEntity
  8
2
100
AcDbLine
 10
-134.807312
 20
-42.111612
 30
0.0
 11
-120.766523
 21
-42.111612
 31
0.0
  0
ARC
  5
4E2
100
AcDbEntity
  8
2
100
AcDbCircle
 10
-129.299255
 20
-35.474112
 30
0.0
 40
10.810361
100
AcDbArc
 50
322.121121
 51
37.878879
  0
ARC
  5
4E3
100
AcDbEntity
  8
2
100
AcDbCircle
 10
-158.313893
 20
-55.386612
 30
0.0
 40
39.825
100
AcDbArc
 50
340.528782
 51
19.471218
  0
LINE
  5
4E4
100
AcDbEntity
  8
2
100
AcDbLine
 10
-97.82208
 20
-40.386612
 30
0.0
 11
-118.13958
 21
-40.386612
 31
0.0
  0
LINE
  5
4E5
100
AcDbEntity
  8
2
100
AcDbLine
 10
-97.82208
 20
-70.386612
 30
0.0
 11
-118.13958
 21
-70.386612
 31
0.0
  0
LINE
  5
4E6
100
AcDbEntity
  8
2
 62
     2
100
AcDbLine
 10
-96.73958
 20
-41.469112
 30
0.0
 11
-118.13958
 21
-41.469112
 31
0.0
  0
LINE
  5
4E7
100
AcDbEntity
  8
2
 62
     2
100
AcDbLine
 10
-96.73958
 20
-69.304112
 30
0.0
 11
-118.13958
 21
-69.304112
 31
0.0
  0
LINE
  5
4E8
100
AcDbEntity
  8
2
100
AcDbLine
 10
-96.73958
 20
-41.469112
 30
0.0
 11
-97.82208
 21
-40.386612
 31
0.0
  0
LINE
  5
4E9
100
AcDbEntity
  8
2
100
AcDbLine
 10
-96.73958
 20
-69.304112
 30
0.0
 11
-97.82208
 21
-70.386612
 31
0.0
  0
LINE
  5
4EA
100
AcDbEntity
  8
2
100
AcDbLine
 10
-97.82208
 20
-40.386612
 30
0.0
 11
-97.82208
 21
-70.386612
 31
0.0
  0
LINE
  5
4EB
100
AcDbEntity
  8
2
100
AcDbLine
 10
-152.73958
 20
22.113388
 30
0.0
 11
-136.73958
 21
22.113388
 31
0.0
  0
LINE
  5
4EC
100
AcDbEntity
  8
2
100
AcDbLine
 10
-136.73958
 20
22.113388
 30
0.0
 11
-136.73958
 21
52.113388
 31
0.0
  0
ARC
  5
4ED
100
AcDbEntity
  8
2
100
AcDbCircle
 10
-154.945702
 20
29.613388
 30
0.0
 40
18.206122
100
AcDbArc
 50
335.672652
 51
24.327348
  0
LINE
  5
4EE
100
AcDbEntity
  8
2
100
AcDbLine
 10
-152.73958
 20
52.113388
 30
0.0
 11
-136.73958
 21
52.113388
 31
0.0
  0
ARC
  5
4EF
100
AcDbEntity
  8
2
100
AcDbCircle
 10
-154.945702
 20
44.613388
 30
0.0
 40
18.206122
100
AcDbArc
 50
335.672652
 51
24.327348
  0
ARC
  5
4F0
100
AcDbEntity
  8
2
100
AcDbCircle
 10
-134.533457
 20
44.613388
 30
0.0
 40
18.206122
100
AcDbArc
 50
155.672652
 51
204.327348
  0
ARC
  5
4F1
100
AcDbEntity
  8
2
100
AcDbCircle
 10
-134.533457
 20
29.613388
 30
0.0
 40
18.206122
100
AcDbArc
 50
155.672652
 51
204.327348
  0
LINE
  5
4F2
100
AcDbEntity
  8
2
100
AcDbLine
 10
-151.122999
 20
37.113388
 30
0.0
 11
-138.35616
 21
37.113388
 31
0.0
  0
LINE
  5
4F3
100
AcDbEntity
  8
2
100
AcDbLine
 10
-152.73958
 20
-132.886612
 30
0.0
 11
-136.73958
 21
-132.886612
 31
0.0
  0
LINE
  5
4F4
100
AcDbEntity
  8
2
100
AcDbLine
 10
-136.73958
 20
-132.886612
 30
0.0
 11
-136.73958
 21
-162.886612
 31
0.0
  0
ARC
  5
4F5
100
AcDbEntity
  8
2
100
AcDbCircle
 10
-154.945702
 20
-140.386612
 30
0.0
 40
18.206122
100
AcDbArc
 50
335.672652
 51
24.327348
  0
LINE
  5
4F6
100
AcDbEntity
  8
2
100
AcDbLine
 10
-152.73958
 20
-162.886612
 30
0.0
 11
-136.73958
 21
-162.886612
 31
0.0
  0
ARC
  5
4F7
100
AcDbEntity
  8
2
100
AcDbCircle
 10
-154.945702
 20
-155.386612
 30
0.0
 40
18.206122
100
AcDbArc
 50
335.672652
 51
24.327348
  0
ARC
  5
4F8
100
AcDbEntity
  8
2
100
AcDbCircle
 10
-134.533457
 20
-155.386612
 30
0.0
 40
18.206122
100
AcDbArc
 50
155.672652
 51
204.327348
  0
ARC
  5
4F9
100
AcDbEntity
  8
2
100
AcDbCircle
 10
-134.533457
 20
-140.386612
 30
0.0
 40
18.206122
100
AcDbArc
 50
155.672652
 51
204.327348
  0
LINE
  5
4FA
100
AcDbEntity
  8
2
100
AcDbLine
 10
-151.122999
 20
-147.886612
 30
0.0
 11
-138.35616
 21
-147.886612
 31
0.0
  0
LINE
  5
4FB
100
AcDbEntity
  8
2
100
AcDbLine
 10
-142.13958
 20
-56.84383
 30
0.0
 11
-142.13958
 21
-81.936612
 31
0.0
  0
LINE
  5
4FC
100
AcDbEntity
  8
2
100
AcDbLine
 10
-142.13958
 20
-79.386612
 30
0.0
 11
-143.73958
 21
-79.386612
 31
0.0
  0
ARC
  5
4FD
100
AcDbEntity
  8
2
100
AcDbCircle
 10
223.26042
 20
-55.386612
 30
0.0
 40
24.0
100
AcDbArc
 50
103.402158
 51
136.597842
  0
ARC
  5
4FE
100
AcDbEntity
  8
2
100
AcDbCircle
 10
223.26042
 20
-55.386612
 30
0.0
 40
24.0
100
AcDbArc
 50
163.402158
 51
196.597842
  0
ARC
  5
4FF
100
AcDbEntity
  8
2
100
AcDbCircle
 10
223.26042
 20
-55.386612
 30
0.0
 40
24.0
100
AcDbArc
 50
223.402158
 51
256.597842
  0
ARC
  5
500
100
AcDbEntity
  8
2
100
AcDbCircle
 10
223.26042
 20
-55.386612
 30
0.0
 40
24.0
100
AcDbArc
 50
283.402158
 51
316.597842
  0
ARC
  5
501
100
AcDbEntity
  8
2
100
AcDbCircle
 10
223.26042
 20
-55.386612
 30
0.0
 40
24.0
100
AcDbArc
 50
343.402158
 51
16.597842
  0
ARC
  5
502
100
AcDbEntity
  8
2
100
AcDbCircle
 10
223.26042
 20
-55.386612
 30
0.0
 40
24.0
100
AcDbArc
 50
43.402158
 51
76.597842
  0
LINE
  5
503
100
AcDbEntity
  8
2
  6
CENTER
 62
     2
100
AcDbLine
 10
-71.049333
 20
544.613388
 30
0.0
 11
-1192.317186
 21
544.613388
 31
0.0
  0
LINE
  5
504
100
AcDbEntity
  8
2
  6
CENTER
 62
     2
100
AcDbLine
 10
-890.73958
 20
572.613388
 30
0.0
 11
-914.73958
 21
572.613388
 31
0.0
  0
LINE
  5
505
100
AcDbEntity
  8
2
  6
CENTER
 62
     2
100
AcDbLine
 10
-902.73958
 20
584.613388
 30
0.0
 11
-902.73958
 21
560.613388
 31
0.0
  0
LINE
  5
506
100
AcDbEntity
  8
2
  6
CENTER
 62
     2
100
AcDbLine
 10
-890.73958
 20
536.613388
 30
0.0
 11
-914.73958
 21
536.613388
 31
0.0
  0
LINE
  5
507
100
AcDbEntity
  8
2
  6
CENTER
 62
     2
100
AcDbLine
 10
-902.73958
 20
548.613388
 30
0.0
 11
-902.73958
 21
524.613388
 31
0.0
  0
LINE
  5
508
100
AcDbEntity
  8
2
  6
CENTER
 62
     2
100
AcDbLine
 10
-742.73958
 20
572.613388
 30
0.0
 11
-718.73958
 21
572.613388
 31
0.0
  0
LINE
  5
509
100
AcDbEntity
  8
2
  6
CENTER
 62
     2
100
AcDbLine
 10
-730.73958
 20
584.613388
 30
0.0
 11
-730.73958
 21
560.613388
 31
0.0
  0
LINE
  5
50A
100
AcDbEntity
  8
2
  6
CENTER
 62
     2
100
AcDbLine
 10
-742.73958
 20
536.613388
 30
0.0
 11
-718.73958
 21
536.613388
 31
0.0
  0
LINE
  5
50B
100
AcDbEntity
  8
2
  6
CENTER
 62
     2
100
AcDbLine
 10
-730.73958
 20
548.613388
 30
0.0
 11
-730.73958
 21
524.613388
 31
0.0
  0
LINE
  5
50C
100
AcDbEntity
  8
2
  6
CENTER
 62
     2
100
AcDbLine
 10
-834.73958
 20
672.827281
 30
0.0
 11
-834.73958
 21
651.245296
 31
0.0
  0
LINE
  5
50D
100
AcDbEntity
  8
2
  6
CENTER
 62
     2
100
AcDbLine
 10
-798.73958
 20
672.827281
 30
0.0
 11
-798.73958
 21
651.245296
 31
0.0
  0
LINE
  5
50E
100
AcDbEntity
  8
2
  6
CENTER
 62
     2
100
AcDbLine
 10
-816.73958
 20
707.837375
 30
0.0
 11
-816.73958
 21
473.214355
 31
0.0
  0
LINE
  5
50F
100
AcDbEntity
  8
2
  6
CENTER
 62
     2
100
AcDbLine
 10
-933.73958
 20
491.566737
 30
0.0
 11
-933.73958
 21
434.372908
 31
0.0
  0
LINE
  5
510
100
AcDbEntity
  8
2
  6
CENTER
 62
     2
100
AcDbLine
 10
-1141.73958
 20
485.748112
 30
0.0
 11
-1141.73958
 21
434.372908
 31
0.0
  0
LINE
  5
511
100
AcDbEntity
  8
2
  6
CENTER
 62
     2
100
AcDbLine
 10
-905.783174
 20
487.613388
 30
0.0
 11
-1180.403184
 21
487.613388
 31
0.0
  0
LINE
  5
512
100
AcDbEntity
  8
2
  6
CENTER
 62
     2
100
AcDbLine
 10
-905.783174
 20
601.613388
 30
0.0
 11
-1180.403184
 21
601.613388
 31
0.0
  0
LINE
  5
513
100
AcDbEntity
  8
2
  6
CENTER
 62
     2
100
AcDbLine
 10
-780.00692
 20
641.346048
 30
0.0
 11
-863.523761
 21
557.829206
 31
0.0
  0
LINE
  5
514
100
AcDbEntity
  8
2
  6
CENTER
 62
     2
100
AcDbLine
 10
223.26042
 20
85.139084
 30
0.0
 11
223.26042
 21
-192.256104
 31
0.0
  0
LINE
  5
515
100
AcDbEntity
  8
2
  6
CENTER
 62
     2
100
AcDbLine
 10
351.183089
 20
-31.386612
 30
0.0
 11
325.977324
 21
-31.386612
 31
0.0
  0
LINE
  5
516
100
AcDbEntity
  8
2
  6
CENTER
 62
     2
100
AcDbLine
 10
351.183089
 20
-79.386612
 30
0.0
 11
325.977324
 21
-79.386612
 31
0.0
  0
LINE
  5
517
100
AcDbEntity
  8
2
  6
CENTER
 62
     2
100
AcDbLine
 10
52.405285
 20
-55.386612
 30
0.0
 11
386.542375
 21
-55.386612
 31
0.0
  0
LINE
  5
518
100
AcDbEntity
  8
2
  6
CENTER
 62
     2
100
AcDbLine
 10
122.781539
 20
-65.386612
 30
0.0
 11
69.231374
 21
-65.386612
 31
0.0
  0
LINE
  5
519
100
AcDbEntity
  8
2
  6
CENTER
 62
     2
100
AcDbLine
 10
171.930798
 20
-40.386612
 30
0.0
 11
69.231374
 21
-40.386612
 31
0.0
  0
LINE
  5
51A
100
AcDbEntity
  8
2
  6
CENTER
 62
     2
100
AcDbLine
 10
-902.73958
 20
44.132351
 30
0.0
 11
-902.73958
 21
8.882114
 31
0.0
  0
LINE
  5
51B
100
AcDbEntity
  8
2
  6
CENTER
 62
     2
100
AcDbLine
 10
-730.73958
 20
44.132351
 30
0.0
 11
-730.73958
 21
8.882114
 31
0.0
  0
LINE
  5
51C
100
AcDbEntity
  8
2
  6
CENTER
 62
     2
100
AcDbLine
 10
-905.783174
 20
1.613388
 30
0.0
 11
-1180.403184
 21
1.613388
 31
0.0
  0
LINE
  5
51D
100
AcDbEntity
  8
2
  6
CENTER
 62
     2
100
AcDbLine
 10
-905.783174
 20
-112.386612
 30
0.0
 11
-1180.403184
 21
-112.386612
 31
0.0
  0
LINE
  5
51E
100
AcDbEntity
  8
2
  6
CENTER
 62
     2
100
AcDbLine
 10
-96.185808
 20
452.113388
 30
0.0
 11
-701.078996
 21
452.113388
 31
0.0
  0
LINE
  5
51F
100
AcDbEntity
  8
2
  6
CENTER
 62
     2
100
AcDbLine
 10
-96.185808
 20
637.113388
 30
0.0
 11
-701.078996
 21
637.113388
 31
0.0
  0
LINE
  5
520
100
AcDbEntity
  8
2
  6
CENTER
 62
     2
100
AcDbLine
 10
-156.73958
 20
640.35379
 30
0.0
 11
-156.73958
 21
707.895342
 31
0.0
  0
LINE
  5
521
100
AcDbEntity
  8
2
  6
CENTER
 62
     2
100
AcDbLine
 10
-693.73958
 20
450.566737
 30
0.0
 11
-693.73958
 21
393.372908
 31
0.0
  0
LINE
  5
522
100
AcDbEntity
  8
2
  6
CENTER
 62
     2
100
AcDbLine
 10
-156.73958
 20
450.566737
 30
0.0
 11
-156.73958
 21
393.372908
 31
0.0
  0
LINE
  5
523
100
AcDbEntity
  8
2
  6
CENTER
 62
     2
100
AcDbLine
 10
-681.73958
 20
559.613388
 30
0.0
 11
-709.73958
 21
559.613388
 31
0.0
  0
LINE
  5
524
100
AcDbEntity
  8
2
  6
CENTER
 62
     2
100
AcDbLine
 10
-695.73958
 20
573.613388
 30
0.0
 11
-695.73958
 21
545.613388
 31
0.0
  0
LINE
  5
525
100
AcDbEntity
  8
2
  6
CENTER
 62
     2
100
AcDbLine
 10
130.76042
 20
11.113388
 30
0.0
 11
130.76042
 21
63.113388
 31
0.0
  0
LINE
  5
526
100
AcDbEntity
  8
2
  6
CENTER
 62
     2
100
AcDbLine
 10
104.76042
 20
37.113388
 30
0.0
 11
156.76042
 21
37.113388
 31
0.0
  0
LINE
  5
527
100
AcDbEntity
  8
2
  6
CENTER
 62
     2
100
AcDbLine
 10
315.76042
 20
11.113388
 30
0.0
 11
315.76042
 21
63.113388
 31
0.0
  0
LINE
  5
528
100
AcDbEntity
  8
2
  6
CENTER
 62
     2
100
AcDbLine
 10
341.76042
 20
37.113388
 30
0.0
 11
289.76042
 21
37.113388
 31
0.0
  0
LINE
  5
529
100
AcDbEntity
  8
2
  6
CENTER
 62
     2
100
AcDbLine
 10
130.76042
 20
-121.886612
 30
0.0
 11
130.76042
 21
-173.886612
 31
0.0
  0
LINE
  5
52A
100
AcDbEntity
  8
2
  6
CENTER
 62
     2
100
AcDbLine
 10
104.76042
 20
-147.886612
 30
0.0
 11
156.76042
 21
-147.886612
 31
0.0
  0
LINE
  5
52B
100
AcDbEntity
  8
2
  6
CENTER
 62
     2
100
AcDbLine
 10
315.76042
 20
-121.886612
 30
0.0
 11
315.76042
 21
-173.886612
 31
0.0
  0
LINE
  5
52C
100
AcDbEntity
  8
2
  6
CENTER
 62
     2
100
AcDbLine
 10
341.76042
 20
-147.886612
 30
0.0
 11
289.76042
 21
-147.886612
 31
0.0
  0
LINE
  5
52D
100
AcDbEntity
  8
2
  6
CENTER
 62
     2
100
AcDbLine
 10
238.26042
 20
75.344948
 30
0.0
 11
238.26042
 21
42.428314
 31
0.0
  0
LINE
  5
52E
100
AcDbEntity
  8
2
  6
CENTER
 62
     2
100
AcDbLine
 10
-88.137751
 20
-55.386612
 30
0.0
 11
-1192.317186
 21
-55.386612
 31
0.0
  0
LINE
  5
52F
100
AcDbEntity
  8
2
  6
CENTER
 62
     2
100
AcDbLine
 10
-96.185808
 20
37.113388
 30
0.0
 11
-701.078996
 21
37.113388
 31
0.0
  0
LINE
  5
530
100
AcDbEntity
  8
2
  6
CENTER
 62
     2
100
AcDbLine
 10
-96.185808
 20
-147.886612
 30
0.0
 11
-701.078996
 21
-147.886612
 31
0.0
  0
LINE
  5
531
100
AcDbEntity
  8
2
  6
CENTER
 62
     2
100
AcDbLine
 10
-156.73958
 20
-56.717612
 30
0.0
 11
-156.73958
 21
-24.055612
 31
0.0
  0
LINE
  5
532
100
AcDbEntity
  8
2
  6
CENTER
 62
     2
100
AcDbLine
 10
-695.73958
 20
75.344948
 30
0.0
 11
-695.73958
 21
42.428314
 31
0.0
  0
LINE
  5
533
100
AcDbEntity
  8
2
  6
CENTER
 62
     2
100
AcDbLine
 10
-1141.73958
 20
-81.803742
 30
0.0
 11
-1141.73958
 21
-48.969506
 31
0.0
  0
LINE
  5
534
100
AcDbEntity
  8
2
100
AcDbLine
 10
-1147.23958
 20
-56.886612
 30
0.0
 11
-1128.23958
 21
-56.886612
 31
0.0
  0
LINE
  5
535
100
AcDbEntity
  8
2
100
AcDbLine
 10
-1147.23958
 20
-73.886612
 30
0.0
 11
-1128.23958
 21
-73.886612
 31
0.0
  0
ARC
  5
536
100
AcDbEntity
  8
2
100
AcDbCircle
 10
-1141.73958
 20
-65.386612
 30
0.0
 40
8.5
100
AcDbArc
 50
130.320215
 51
229.679785
  0
LINE
  5
537
100
AcDbEntity
  8
2
100
AcDbLine
 10
-1147.23958
 20
-73.886612
 30
0.0
 11
-1147.23958
 21
-71.867353
 31
0.0
  0
LINE
  5
538
100
AcDbEntity
  8
2
100
AcDbLine
 10
-1147.23958
 20
-58.905872
 30
0.0
 11
-1147.23958
 21
-56.886612
 31
0.0
  0
LINE
  5
539
100
AcDbEntity
  8
2
100
AcDbLine
 10
-1128.23958
 20
-73.886612
 30
0.0
 11
-1128.23958
 21
-56.886612
 31
0.0
  0
LINE
  5
53A
100
AcDbEntity
  8
2
100
AcDbLine
 10
-1147.23958
 20
-58.905872
 30
0.0
 11
-1133.23958
 21
-58.905872
 31
0.0
  0
LINE
  5
53B
100
AcDbEntity
  8
2
100
AcDbLine
 10
-1147.23958
 20
-71.867353
 30
0.0
 11
-1133.23958
 21
-71.867353
 31
0.0
  0
LINE
  5
53C
100
AcDbEntity
  8
2
100
AcDbLine
 10
-1133.23958
 20
-73.886612
 30
0.0
 11
-1133.23958
 21
-71.867353
 31
0.0
  0
LINE
  5
53D
100
AcDbEntity
  8
2
100
AcDbLine
 10
-1133.23958
 20
-58.905872
 30
0.0
 11
-1133.23958
 21
-56.886612
 31
0.0
  0
LINE
  5
53E
100
AcDbEntity
  8
2
100
AcDbLine
 10
-1123.23958
 20
-75.886612
 30
0.0
 11
-1123.23958
 21
-54.886612
 31
0.0
  0
LINE
  5
53F
100
AcDbEntity
  8
2
100
AcDbLine
 10
-1123.23958
 20
-57.055612
 30
0.0
 11
-1128.23958
 21
-57.055612
 31
0.0
  0
LINE
  5
540
100
AcDbEntity
  8
2
100
AcDbLine
 10
-1123.23958
 20
-73.717612
 30
0.0
 11
-1128.23958
 21
-73.717612
 31
0.0
  0
LINE
  5
541
100
AcDbEntity
  8
2
 62
     2
100
AcDbLine
 10
-1123.23958
 20
-57.911612
 30
0.0
 11
-1126.756944
 21
-57.911612
 31
0.0
  0
LINE
  5
542
100
AcDbEntity
  8
2
 62
     2
100
AcDbLine
 10
-1123.23958
 20
-72.861612
 30
0.0
 11
-1126.756944
 21
-72.861612
 31
0.0
  0
LINE
  5
543
100
AcDbEntity
  8
2
 62
     2
100
AcDbLine
 10
-1128.23958
 20
-57.055612
 30
0.0
 11
-1126.756944
 21
-57.911612
 31
0.0
  0
LINE
  5
544
100
AcDbEntity
  8
2
 62
     2
100
AcDbLine
 10
-1128.23958
 20
-73.717612
 30
0.0
 11
-1126.756944
 21
-72.861612
 31
0.0
  0
LINE
  5
545
100
AcDbEntity
  8
2
100
AcDbLine
 10
-1126.756944
 20
-57.055612
 30
0.0
 11
-1126.756944
 21
-73.717612
 31
0.0
  0
LINE
  5
546
100
AcDbEntity
  8
2
100
AcDbLine
 10
-1107.23958
 20
-75.886612
 30
0.0
 11
-1107.23958
 21
-54.886612
 31
0.0
  0
LINE
  5
547
100
AcDbEntity
  8
2
100
AcDbLine
 10
-1123.23958
 20
-54.886612
 30
0.0
 11
-1107.23958
 21
-54.886612
 31
0.0
  0
LINE
  5
548
100
AcDbEntity
  8
2
100
AcDbLine
 10
-1123.23958
 20
-75.886612
 30
0.0
 11
-1107.23958
 21
-75.886612
 31
0.0
  0
ARC
  5
549
100
AcDbEntity
  8
2
100
AcDbCircle
 10
-1117.17708
 20
-60.136612
 30
0.0
 40
9.9375
100
AcDbArc
 50
328.109208
 51
31.890792
  0
ARC
  5
54A
100
AcDbEntity
  8
2
100
AcDbCircle
 10
-1113.30208
 20
-70.636612
 30
0.0
 40
9.9375
100
AcDbArc
 50
148.109208
 51
211.890792
  0
ARC
  5
54B
100
AcDbEntity
  8
2
100
AcDbCircle
 10
-1113.30208
 20
-60.136612
 30
0.0
 40
9.9375
100
AcDbArc
 50
148.109208
 51
211.890792
  0
ARC
  5
54C
100
AcDbEntity
  8
2
100
AcDbCircle
 10
-1117.17708
 20
-70.636612
 30
0.0
 40
9.9375
100
AcDbArc
 50
328.109208
 51
31.890792
  0
LINE
  5
54D
100
AcDbEntity
  8
2
100
AcDbLine
 10
-1108.73958
 20
-65.386612
 30
0.0
 11
-1121.73958
 21
-65.386612
 31
0.0
  0
LINE
  5
54E
100
AcDbEntity
  8
2
  6
CENTER
 62
     2
100
AcDbLine
 10
-933.73958
 20
-61.803742
 30
0.0
 11
-933.73958
 21
-28.969506
 31
0.0
  0
LINE
  5
54F
100
AcDbEntity
  8
2
100
AcDbLine
 10
-939.294162
 20
-36.92218
 30
0.0
 11
-920.294556
 21
-36.799918
 31
0.0
  0
LINE
  5
550
100
AcDbEntity
  8
2
100
AcDbLine
 10
-939.184769
 20
-53.921828
 30
0.0
 11
-920.185163
 21
-53.799566
 31
0.0
  0
ARC
  5
551
100
AcDbEntity
  8
2
100
AcDbCircle
 10
-933.73958
 20
-45.386612
 30
0.0
 40
8.5
100
AcDbArc
 50
130.688909
 51
230.048479
  0
LINE
  5
552
100
AcDbEntity
  8
2
100
AcDbLine
 10
-939.184769
 20
-53.921828
 30
0.0
 11
-939.197763
 21
-51.902611
 31
0.0
  0
LINE
  5
553
100
AcDbEntity
  8
2
100
AcDbLine
 10
-939.281168
 20
-38.941398
 30
0.0
 11
-939.294162
 21
-36.92218
 31
0.0
  0
LINE
  5
554
100
AcDbEntity
  8
2
100
AcDbLine
 10
-920.185163
 20
-53.799566
 30
0.0
 11
-920.294556
 21
-36.799918
 31
0.0
  0
LINE
  5
555
100
AcDbEntity
  8
2
100
AcDbLine
 10
-939.281168
 20
-38.941398
 30
0.0
 11
-925.281458
 21
-38.851309
 31
0.0
  0
LINE
  5
556
100
AcDbEntity
  8
2
100
AcDbLine
 10
-939.197763
 20
-51.902611
 30
0.0
 11
-925.198053
 21
-51.812523
 31
0.0
  0
LINE
  5
557
100
AcDbEntity
  8
2
100
AcDbLine
 10
-925.185059
 20
-53.83174
 30
0.0
 11
-925.198053
 21
-51.812523
 31
0.0
  0
LINE
  5
558
100
AcDbEntity
  8
2
100
AcDbLine
 10
-925.281458
 20
-38.851309
 30
0.0
 11
-925.294452
 21
-36.832092
 31
0.0
  0
LINE
  5
559
100
AcDbEntity
  8
2
100
AcDbLine
 10
-915.172396
 20
-55.76735
 30
0.0
 11
-915.307529
 21
-34.767785
 31
0.0
  0
LINE
  5
55A
100
AcDbEntity
  8
2
100
AcDbLine
 10
-915.293572
 20
-36.93674
 30
0.0
 11
-920.293468
 21
-36.968914
 31
0.0
  0
LINE
  5
55B
100
AcDbEntity
  8
2
100
AcDbLine
 10
-915.186354
 20
-53.598395
 30
0.0
 11
-920.18625
 21
-53.630569
 31
0.0
  0
LINE
  5
55C
100
AcDbEntity
  8
2
 62
     2
100
AcDbLine
 10
-915.288063
 20
-37.792722
 30
0.0
 11
-918.805355
 21
-37.815356
 31
0.0
  0
LINE
  5
55D
100
AcDbEntity
  8
2
 62
     2
100
AcDbLine
 10
-915.191862
 20
-52.742412
 30
0.0
 11
-918.709154
 21
-52.765046
 31
0.0
  0
LINE
  5
55E
100
AcDbEntity
  8
2
 62
     2
100
AcDbLine
 10
-920.293468
 20
-36.968914
 30
0.0
 11
-918.805355
 21
-37.815356
 31
0.0
  0
LINE
  5
55F
100
AcDbEntity
  8
2
 62
     2
100
AcDbLine
 10
-920.18625
 20
-53.630569
 30
0.0
 11
-918.709154
 21
-52.765046
 31
0.0
  0
LINE
  5
560
100
AcDbEntity
  8
2
100
AcDbLine
 10
-918.810863
 20
-36.959374
 30
0.0
 11
-918.703645
 21
-53.621029
 31
0.0
  0
LINE
  5
561
100
AcDbEntity
  8
2
100
AcDbLine
 10
-899.172728
 20
-55.664392
 30
0.0
 11
-899.30786
 21
-34.664827
 31
0.0
  0
LINE
  5
562
100
AcDbEntity
  8
2
100
AcDbLine
 10
-915.307529
 20
-34.767785
 30
0.0
 11
-899.30786
 21
-34.664827
 31
0.0
  0
LINE
  5
563
100
AcDbEntity
  8
2
100
AcDbLine
 10
-915.172396
 20
-55.76735
 30
0.0
 11
-899.172728
 21
-55.664392
 31
0.0
  0
ARC
  5
564
100
AcDbEntity
  8
2
100
AcDbCircle
 10
-909.211371
 20
-39.978665
 30
0.0
 40
9.9375
100
AcDbArc
 50
328.477902
 51
32.259485
  0
ARC
  5
565
100
AcDbEntity
  8
2
100
AcDbCircle
 10
-905.268885
 20
-50.453512
 30
0.0
 40
9.9375
100
AcDbArc
 50
148.477902
 51
212.259485
  0
ARC
  5
566
100
AcDbEntity
  8
2
100
AcDbCircle
 10
-905.336451
 20
-39.953729
 30
0.0
 40
9.9375
100
AcDbArc
 50
148.477902
 51
212.259485
  0
ARC
  5
567
100
AcDbEntity
  8
2
100
AcDbCircle
 10
-909.143805
 20
-50.478447
 30
0.0
 40
9.9375
100
AcDbArc
 50
328.477902
 51
32.259485
  0
LINE
  5
568
100
AcDbEntity
  8
2
100
AcDbLine
 10
-900.740263
 20
-45.174262
 30
0.0
 11
-913.739994
 21
-45.257915
 31
0.0
  0
LINE
  5
569
100
AcDbEntity
  8
2
  6
CENTER
 62
     2
100
AcDbLine
 10
-693.73958
 20
-81.803742
 30
0.0
 11
-693.73958
 21
-48.969506
 31
0.0
  0
LINE
  5
56A
100
AcDbEntity
  8
2
100
AcDbLine
 10
-688.23958
 20
-56.886612
 30
0.0
 11
-707.23958
 21
-56.886612
 31
0.0
  0
LINE
  5
56B
100
AcDbEntity
  8
2
100
AcDbLine
 10
-688.23958
 20
-73.886612
 30
0.0
 11
-707.23958
 21
-73.886612
 31
0.0
  0
ARC
  5
56C
100
AcDbEntity
  8
2
100
AcDbCircle
 10
-693.73958
 20
-65.386612
 30
0.0
 40
8.5
100
AcDbArc
 50
310.320215
 51
49.679785
  0
LINE
  5
56D
100
AcDbEntity
  8
2
100
AcDbLine
 10
-688.23958
 20
-73.886612
 30
0.0
 11
-688.23958
 21
-71.867353
 31
0.0
  0
LINE
  5
56E
100
AcDbEntity
  8
2
100
AcDbLine
 10
-688.23958
 20
-58.905872
 30
0.0
 11
-688.23958
 21
-56.886612
 31
0.0
  0
LINE
  5
56F
100
AcDbEntity
  8
2
100
AcDbLine
 10
-707.23958
 20
-73.886612
 30
0.0
 11
-707.23958
 21
-56.886612
 31
0.0
  0
LINE
  5
570
100
AcDbEntity
  8
2
100
AcDbLine
 10
-688.23958
 20
-58.905872
 30
0.0
 11
-702.23958
 21
-58.905872
 31
0.0
  0
LINE
  5
571
100
AcDbEntity
  8
2
100
AcDbLine
 10
-688.23958
 20
-71.867353
 30
0.0
 11
-702.23958
 21
-71.867353
 31
0.0
  0
LINE
  5
572
100
AcDbEntity
  8
2
100
AcDbLine
 10
-702.23958
 20
-73.886612
 30
0.0
 11
-702.23958
 21
-71.867353
 31
0.0
  0
LINE
  5
573
100
AcDbEntity
  8
2
100
AcDbLine
 10
-702.23958
 20
-58.905872
 30
0.0
 11
-702.23958
 21
-56.886612
 31
0.0
  0
LINE
  5
574
100
AcDbEntity
  8
2
100
AcDbLine
 10
-712.23958
 20
-75.886612
 30
0.0
 11
-712.23958
 21
-54.886612
 31
0.0
  0
LINE
  5
575
100
AcDbEntity
  8
2
100
AcDbLine
 10
-712.23958
 20
-57.055612
 30
0.0
 11
-707.23958
 21
-57.055612
 31
0.0
  0
LINE
  5
576
100
AcDbEntity
  8
2
100
AcDbLine
 10
-712.23958
 20
-73.717612
 30
0.0
 11
-707.23958
 21
-73.717612
 31
0.0
  0
LINE
  5
577
100
AcDbEntity
  8
2
 62
     2
100
AcDbLine
 10
-712.23958
 20
-57.911612
 30
0.0
 11
-708.722215
 21
-57.911612
 31
0.0
  0
LINE
  5
578
100
AcDbEntity
  8
2
 62
     2
100
AcDbLine
 10
-712.23958
 20
-72.861612
 30
0.0
 11
-708.722215
 21
-72.861612
 31
0.0
  0
LINE
  5
579
100
AcDbEntity
  8
2
 62
     2
100
AcDbLine
 10
-707.23958
 20
-57.055612
 30
0.0
 11
-708.722215
 21
-57.911612
 31
0.0
  0
LINE
  5
57A
100
AcDbEntity
  8
2
 62
     2
100
AcDbLine
 10
-707.23958
 20
-73.717612
 30
0.0
 11
-708.722215
 21
-72.861612
 31
0.0
  0
LINE
  5
57B
100
AcDbEntity
  8
2
100
AcDbLine
 10
-708.722215
 20
-57.055612
 30
0.0
 11
-708.722215
 21
-73.717612
 31
0.0
  0
LINE
  5
57C
100
AcDbEntity
  8
2
100
AcDbLine
 10
-728.23958
 20
-75.886612
 30
0.0
 11
-728.23958
 21
-54.886612
 31
0.0
  0
LINE
  5
57D
100
AcDbEntity
  8
2
100
AcDbLine
 10
-712.23958
 20
-54.886612
 30
0.0
 11
-728.23958
 21
-54.886612
 31
0.0
  0
LINE
  5
57E
100
AcDbEntity
  8
2
100
AcDbLine
 10
-712.23958
 20
-75.886612
 30
0.0
 11
-728.23958
 21
-75.886612
 31
0.0
  0
ARC
  5
57F
100
AcDbEntity
  8
2
100
AcDbCircle
 10
-718.30208
 20
-60.136612
 30
0.0
 40
9.9375
100
AcDbArc
 50
148.109208
 51
211.890792
  0
ARC
  5
580
100
AcDbEntity
  8
2
100
AcDbCircle
 10
-722.17708
 20
-70.636612
 30
0.0
 40
9.9375
100
AcDbArc
 50
328.109208
 51
31.890792
  0
ARC
  5
581
100
AcDbEntity
  8
2
100
AcDbCircle
 10
-722.17708
 20
-60.136612
 30
0.0
 40
9.9375
100
AcDbArc
 50
328.109208
 51
31.890792
  0
ARC
  5
582
100
AcDbEntity
  8
2
100
AcDbCircle
 10
-718.30208
 20
-70.636612
 30
0.0
 40
9.9375
100
AcDbArc
 50
148.109208
 51
211.890792
  0
LINE
  5
583
100
AcDbEntity
  8
2
  6
CENTER
 62
     2
100
AcDbLine
 10
-678.164272
 20
-65.386612
 30
0.0
 11
-1157.314887
 21
-65.386612
 31
0.0
  0
LINE
  5
584
100
AcDbEntity
  8
2
100
AcDbLine
 10
-726.73958
 20
-65.386612
 30
0.0
 11
-713.73958
 21
-65.386612
 31
0.0
  0
LINE
  5
585
100
AcDbEntity
  8
2
100
AcDbLine
 10
-728.23958
 20
-60.386612
 30
0.0
 11
-1107.23958
 21
-60.386612
 31
0.0
  0
LINE
  5
586
100
AcDbEntity
  8
2
100
AcDbLine
 10
-728.23958
 20
-70.386612
 30
0.0
 11
-1107.23958
 21
-70.386612
 31
0.0
  0
LINE
  5
587
100
AcDbEntity
  8
2
100
AcDbLine
 10
-1133.243971
 20
465.237743
 30
0.0
 11
-1133.476805
 21
472.613388
 31
0.0
  0
LINE
  5
588
100
AcDbEntity
  8
2
100
AcDbLine
 10
-1133.292955
 20
466.805221
 30
0.0
 11
-1150.186205
 21
466.805221
 31
0.0
  0
LINE
  5
589
100
AcDbEntity
  8
2
 62
     2
100
AcDbLine
 10
-1133.243971
 20
465.237743
 30
0.0
 11
-1134.148955
 21
466.805221
 31
0.0
  0
LINE
  5
58A
100
AcDbEntity
  8
2
 62
     2
100
AcDbLine
 10
-1134.148955
 20
466.805221
 30
0.0
 11
-1134.332598
 21
472.613388
 31
0.0
  0
LINE
  5
58B
100
AcDbEntity
  8
2
100
AcDbLine
 10
-1150.235188
 20
465.237743
 30
0.0
 11
-1150.002355
 21
472.613388
 31
0.0
  0
LINE
  5
58C
100
AcDbEntity
  8
2
 62
     2
100
AcDbLine
 10
-1150.235188
 20
465.237743
 30
0.0
 11
-1149.330205
 21
466.805221
 31
0.0
  0
LINE
  5
58D
100
AcDbEntity
  8
2
 62
     2
100
AcDbLine
 10
-1149.330205
 20
466.805221
 30
0.0
 11
-1149.146561
 21
472.613388
 31
0.0
  0
LINE
  5
58E
100
AcDbEntity
  8
2
100
AcDbLine
 10
-1133.23958
 20
465.237743
 30
0.0
 11
-1150.23958
 21
465.237743
 31
0.0
  0
LINE
  5
58F
100
AcDbEntity
  8
2
100
AcDbLine
 10
-1150.23958
 20
446.237743
 30
0.0
 11
-1150.23958
 21
465.237743
 31
0.0
  0
LINE
  5
590
100
AcDbEntity
  8
2
100
AcDbLine
 10
-1133.23958
 20
461.737743
 30
0.0
 11
-1133.23958
 21
465.237743
 31
0.0
  0
LINE
  5
591
100
AcDbEntity
  8
2
100
AcDbLine
 10
-1128.23958
 20
443.237743
 30
0.0
 11
-1147.23958
 21
443.237743
 31
0.0
  0
LINE
  5
592
100
AcDbEntity
  8
2
100
AcDbLine
 10
-1128.23958
 20
460.237743
 30
0.0
 11
-1131.73958
 21
460.237743
 31
0.0
  0
LINE
  5
593
100
AcDbEntity
  8
2
  6
CENTER
 62
     2
100
AcDbLine
 10
-1046.233324
 20
451.737743
 30
0.0
 11
-1158.577739
 21
451.737743
 31
0.0
  0
ARC
  5
594
100
AcDbEntity
  8
2
100
AcDbCircle
 10
-1147.23958
 20
446.237743
 30
0.0
 40
3.0
100
AcDbArc
 50
180.0
 51
270.0
  0
ARC
  5
595
100
AcDbEntity
  8
2
100
AcDbCircle
 10
-1131.73958
 20
461.737743
 30
0.0
 40
1.5
100
AcDbArc
 50
180.0
 51
270.0
  0
LINE
  5
596
100
AcDbEntity
  8
2
100
AcDbLine
 10
-1128.23958
 20
443.237743
 30
0.0
 11
-1128.23958
 21
460.237743
 31
0.0
  0
LINE
  5
597
100
AcDbEntity
  8
2
100
AcDbLine
 10
-1135.23958
 20
445.237743
 30
0.0
 11
-1145.23958
 21
445.237743
 31
0.0
  0
LINE
  5
598
100
AcDbEntity
  8
2
100
AcDbLine
 10
-1147.23958
 20
447.237743
 30
0.0
 11
-1147.23958
 21
457.237743
 31
0.0
  0
LINE
  5
599
100
AcDbEntity
  8
2
100
AcDbLine
 10
-1136.23958
 20
459.237743
 30
0.0
 11
-1145.23958
 21
459.237743
 31
0.0
  0
LINE
  5
59A
100
AcDbEntity
  8
2
100
AcDbLine
 10
-1133.23958
 20
447.237743
 30
0.0
 11
-1133.23958
 21
456.237743
 31
0.0
  0
ARC
  5
59B
100
AcDbEntity
  8
2
100
AcDbCircle
 10
-1145.23958
 20
447.237743
 30
0.0
 40
2.0
100
AcDbArc
 50
180.0
 51
270.0
  0
ARC
  5
59C
100
AcDbEntity
  8
2
100
AcDbCircle
 10
-1145.23958
 20
457.237743
 30
0.0
 40
2.0
100
AcDbArc
 50
90.0
 51
180.0
  0
ARC
  5
59D
100
AcDbEntity
  8
2
100
AcDbCircle
 10
-1135.23958
 20
447.237743
 30
0.0
 40
2.0
100
AcDbArc
 50
270.0
 51
360.0
  0
ARC
  5
59E
100
AcDbEntity
  8
2
100
AcDbCircle
 10
-1133.23958
 20
459.237743
 30
0.0
 40
3.0
100
AcDbArc
 50
180.0
 51
270.0
  0
LINE
  5
59F
100
AcDbEntity
  8
2
100
AcDbLine
 10
-1123.23958
 20
442.644476
 30
0.0
 11
-1123.23958
 21
460.83101
 31
0.0
  0
LINE
  5
5A0
100
AcDbEntity
  8
2
100
AcDbLine
 10
-1107.23958
 20
442.644476
 30
0.0
 11
-1107.23958
 21
460.83101
 31
0.0
  0
LINE
  5
5A1
100
AcDbEntity
  8
2
100
AcDbLine
 10
-1123.23958
 20
443.406743
 30
0.0
 11
-1128.23958
 21
443.406743
 31
0.0
  0
LINE
  5
5A2
100
AcDbEntity
  8
2
100
AcDbLine
 10
-1123.23958
 20
460.068743
 30
0.0
 11
-1128.23958
 21
460.068743
 31
0.0
  0
LINE
  5
5A3
100
AcDbEntity
  8
2
 62
     2
100
AcDbLine
 10
-1123.23958
 20
444.262743
 30
0.0
 11
-1126.756944
 21
444.262743
 31
0.0
  0
LINE
  5
5A4
100
AcDbEntity
  8
2
 62
     2
100
AcDbLine
 10
-1123.23958
 20
459.212743
 30
0.0
 11
-1126.756944
 21
459.212743
 31
0.0
  0
LINE
  5
5A5
100
AcDbEntity
  8
2
 62
     2
100
AcDbLine
 10
-1128.23958
 20
443.406743
 30
0.0
 11
-1126.756944
 21
444.262743
 31
0.0
  0
LINE
  5
5A6
100
AcDbEntity
  8
2
 62
     2
100
AcDbLine
 10
-1128.23958
 20
460.068743
 30
0.0
 11
-1126.756944
 21
459.212743
 31
0.0
  0
LINE
  5
5A7
100
AcDbEntity
  8
2
100
AcDbLine
 10
-1126.756944
 20
443.406743
 30
0.0
 11
-1126.756944
 21
460.068743
 31
0.0
  0
LINE
  5
5A8
100
AcDbEntity
  8
2
100
AcDbLine
 10
-1108.73958
 20
439.613388
 30
0.0
 11
-1121.73958
 21
439.613388
 31
0.0
  0
LINE
  5
5A9
100
AcDbEntity
  8
2
100
AcDbLine
 10
-1108.73958
 20
445.675565
 30
0.0
 11
-1121.73958
 21
445.675565
 31
0.0
  0
LINE
  5
5AA
100
AcDbEntity
  8
2
100
AcDbLine
 10
-1108.73958
 20
457.799921
 30
0.0
 11
-1121.73958
 21
457.799921
 31
0.0
  0
LINE
  5
5AB
100
AcDbEntity
  8
2
100
AcDbLine
 10
-1108.73958
 20
463.862099
 30
0.0
 11
-1121.73958
 21
463.862099
 31
0.0
  0
ARC
  5
5AC
100
AcDbEntity
  8
2
100
AcDbCircle
 10
-1111.05208
 20
442.644476
 30
0.0
 40
3.8125
100
AcDbArc
 50
307.340993
 51
52.659007
  0
ARC
  5
5AD
100
AcDbEntity
  8
2
100
AcDbCircle
 10
-1111.05208
 20
460.83101
 30
0.0
 40
3.8125
100
AcDbArc
 50
307.340993
 51
52.659007
  0
ARC
  5
5AE
100
AcDbEntity
  8
2
100
AcDbCircle
 10
-1119.42708
 20
442.644476
 30
0.0
 40
3.8125
100
AcDbArc
 50
127.340993
 51
232.659007
  0
ARC
  5
5AF
100
AcDbEntity
  8
2
100
AcDbCircle
 10
-1119.42708
 20
460.83101
 30
0.0
 40
3.8125
100
AcDbArc
 50
127.340993
 51
232.659007
  0
ARC
  5
5B0
100
AcDbEntity
  8
2
100
AcDbCircle
 10
-1120.23958
 20
451.737743
 30
0.0
 40
13.0
100
AcDbArc
 50
332.204228
 51
27.795772
  0
ARC
  5
5B1
100
AcDbEntity
  8
2
100
AcDbCircle
 10
-1110.23958
 20
451.737743
 30
0.0
 40
13.0
100
AcDbArc
 50
152.204228
 51
207.795772
  0
LINE
  5
5B2
100
AcDbEntity
  8
2
100
AcDbLine
 10
-925.243971
 20
465.237743
 30
0.0
 11
-925.476805
 21
472.613388
 31
0.0
  0
LINE
  5
5B3
100
AcDbEntity
  8
2
100
AcDbLine
 10
-925.292955
 20
466.805221
 30
0.0
 11
-942.186205
 21
466.805221
 31
0.0
  0
LINE
  5
5B4
100
AcDbEntity
  8
2
 62
     2
100
AcDbLine
 10
-925.243971
 20
465.237743
 30
0.0
 11
-926.148955
 21
466.805221
 31
0.0
  0
LINE
  5
5B5
100
AcDbEntity
  8
2
 62
     2
100
AcDbLine
 10
-926.148955
 20
466.805221
 30
0.0
 11
-926.332598
 21
472.613388
 31
0.0
  0
LINE
  5
5B6
100
AcDbEntity
  8
2
100
AcDbLine
 10
-942.235188
 20
465.237743
 30
0.0
 11
-942.002355
 21
472.613388
 31
0.0
  0
LINE
  5
5B7
100
AcDbEntity
  8
2
 62
     2
100
AcDbLine
 10
-942.235188
 20
465.237743
 30
0.0
 11
-941.330205
 21
466.805221
 31
0.0
  0
LINE
  5
5B8
100
AcDbEntity
  8
2
 62
     2
100
AcDbLine
 10
-941.330205
 20
466.805221
 30
0.0
 11
-941.146561
 21
472.613388
 31
0.0
  0
LINE
  5
5B9
100
AcDbEntity
  8
2
100
AcDbLine
 10
-925.23958
 20
465.237743
 30
0.0
 11
-942.23958
 21
465.237743
 31
0.0
  0
LINE
  5
5BA
100
AcDbEntity
  8
2
100
AcDbLine
 10
-942.23958
 20
446.237743
 30
0.0
 11
-942.23958
 21
465.237743
 31
0.0
  0
LINE
  5
5BB
100
AcDbEntity
  8
2
100
AcDbLine
 10
-925.23958
 20
461.737743
 30
0.0
 11
-925.23958
 21
465.237743
 31
0.0
  0
LINE
  5
5BC
100
AcDbEntity
  8
2
100
AcDbLine
 10
-920.23958
 20
443.237743
 30
0.0
 11
-939.23958
 21
443.237743
 31
0.0
  0
LINE
  5
5BD
100
AcDbEntity
  8
2
100
AcDbLine
 10
-920.23958
 20
460.237743
 30
0.0
 11
-923.73958
 21
460.237743
 31
0.0
  0
ARC
  5
5BE
100
AcDbEntity
  8
2
100
AcDbCircle
 10
-939.23958
 20
446.237743
 30
0.0
 40
3.0
100
AcDbArc
 50
180.0
 51
270.0
  0
ARC
  5
5BF
100
AcDbEntity
  8
2
100
AcDbCircle
 10
-923.73958
 20
461.737743
 30
0.0
 40
1.5
100
AcDbArc
 50
180.0
 51
270.0
  0
LINE
  5
5C0
100
AcDbEntity
  8
2
100
AcDbLine
 10
-920.23958
 20
443.237743
 30
0.0
 11
-920.23958
 21
460.237743
 31
0.0
  0
LINE
  5
5C1
100
AcDbEntity
  8
2
100
AcDbLine
 10
-927.23958
 20
445.237743
 30
0.0
 11
-937.23958
 21
445.237743
 31
0.0
  0
LINE
  5
5C2
100
AcDbEntity
  8
2
100
AcDbLine
 10
-939.23958
 20
447.237743
 30
0.0
 11
-939.23958
 21
457.237743
 31
0.0
  0
LINE
  5
5C3
100
AcDbEntity
  8
2
100
AcDbLine
 10
-928.23958
 20
459.237743
 30
0.0
 11
-937.23958
 21
459.237743
 31
0.0
  0
LINE
  5
5C4
100
AcDbEntity
  8
2
100
AcDbLine
 10
-925.23958
 20
447.237743
 30
0.0
 11
-925.23958
 21
456.237743
 31
0.0
  0
ARC
  5
5C5
100
AcDbEntity
  8
2
100
AcDbCircle
 10
-937.23958
 20
447.237743
 30
0.0
 40
2.0
100
AcDbArc
 50
180.0
 51
270.0
  0
ARC
  5
5C6
100
AcDbEntity
  8
2
100
AcDbCircle
 10
-937.23958
 20
457.237743
 30
0.0
 40
2.0
100
AcDbArc
 50
90.0
 51
180.0
  0
ARC
  5
5C7
100
AcDbEntity
  8
2
100
AcDbCircle
 10
-927.23958
 20
447.237743
 30
0.0
 40
2.0
100
AcDbArc
 50
270.0
 51
360.0
  0
ARC
  5
5C8
100
AcDbEntity
  8
2
100
AcDbCircle
 10
-925.23958
 20
459.237743
 30
0.0
 40
3.0
100
AcDbArc
 50
180.0
 51
270.0
  0
LINE
  5
5C9
100
AcDbEntity
  8
2
100
AcDbLine
 10
-915.23958
 20
442.644476
 30
0.0
 11
-915.23958
 21
460.83101
 31
0.0
  0
LINE
  5
5CA
100
AcDbEntity
  8
2
100
AcDbLine
 10
-899.23958
 20
442.644476
 30
0.0
 11
-899.23958
 21
460.83101
 31
0.0
  0
LINE
  5
5CB
100
AcDbEntity
  8
2
100
AcDbLine
 10
-915.23958
 20
443.406743
 30
0.0
 11
-920.23958
 21
443.406743
 31
0.0
  0
LINE
  5
5CC
100
AcDbEntity
  8
2
100
AcDbLine
 10
-915.23958
 20
460.068743
 30
0.0
 11
-920.23958
 21
460.068743
 31
0.0
  0
LINE
  5
5CD
100
AcDbEntity
  8
2
 62
     2
100
AcDbLine
 10
-915.23958
 20
444.262743
 30
0.0
 11
-918.756944
 21
444.262743
 31
0.0
  0
LINE
  5
5CE
100
AcDbEntity
  8
2
 62
     2
100
AcDbLine
 10
-915.23958
 20
459.212743
 30
0.0
 11
-918.756944
 21
459.212743
 31
0.0
  0
LINE
  5
5CF
100
AcDbEntity
  8
2
 62
     2
100
AcDbLine
 10
-920.23958
 20
443.406743
 30
0.0
 11
-918.756944
 21
444.262743
 31
0.0
  0
LINE
  5
5D0
100
AcDbEntity
  8
2
 62
     2
100
AcDbLine
 10
-920.23958
 20
460.068743
 30
0.0
 11
-918.756944
 21
459.212743
 31
0.0
  0
LINE
  5
5D1
100
AcDbEntity
  8
2
100
AcDbLine
 10
-918.756944
 20
443.406743
 30
0.0
 11
-918.756944
 21
460.068743
 31
0.0
  0
LINE
  5
5D2
100
AcDbEntity
  8
2
100
AcDbLine
 10
-900.73958
 20
439.613388
 30
0.0
 11
-913.73958
 21
439.613388
 31
0.0
  0
LINE
  5
5D3
100
AcDbEntity
  8
2
100
AcDbLine
 10
-900.73958
 20
445.675565
 30
0.0
 11
-913.73958
 21
445.675565
 31
0.0
  0
LINE
  5
5D4
100
AcDbEntity
  8
2
100
AcDbLine
 10
-900.73958
 20
457.799921
 30
0.0
 11
-913.73958
 21
457.799921
 31
0.0
  0
LINE
  5
5D5
100
AcDbEntity
  8
2
100
AcDbLine
 10
-900.73958
 20
463.862099
 30
0.0
 11
-913.73958
 21
463.862099
 31
0.0
  0
ARC
  5
5D6
100
AcDbEntity
  8
2
100
AcDbCircle
 10
-903.05208
 20
442.644476
 30
0.0
 40
3.8125
100
AcDbArc
 50
307.340993
 51
52.659007
  0
ARC
  5
5D7
100
AcDbEntity
  8
2
100
AcDbCircle
 10
-903.05208
 20
460.83101
 30
0.0
 40
3.8125
100
AcDbArc
 50
307.340993
 51
52.659007
  0
ARC
  5
5D8
100
AcDbEntity
  8
2
100
AcDbCircle
 10
-911.42708
 20
442.644476
 30
0.0
 40
3.8125
100
AcDbArc
 50
127.340993
 51
232.659007
  0
ARC
  5
5D9
100
AcDbEntity
  8
2
100
AcDbCircle
 10
-911.42708
 20
460.83101
 30
0.0
 40
3.8125
100
AcDbArc
 50
127.340993
 51
232.659007
  0
ARC
  5
5DA
100
AcDbEntity
  8
2
100
AcDbCircle
 10
-912.23958
 20
451.737743
 30
0.0
 40
13.0
100
AcDbArc
 50
332.204228
 51
27.795772
  0
ARC
  5
5DB
100
AcDbEntity
  8
2
100
AcDbCircle
 10
-902.23958
 20
451.737743
 30
0.0
 40
13.0
100
AcDbArc
 50
152.204228
 51
207.795772
  0
LINE
  5
5DC
100
AcDbEntity
  8
2
100
AcDbLine
 10
-1057.23958
 20
446.737743
 30
0.0
 11
-1107.23958
 21
446.737743
 31
0.0
  0
LINE
  5
5DD
100
AcDbEntity
  8
2
100
AcDbLine
 10
-1057.23958
 20
456.737743
 30
0.0
 11
-1107.23958
 21
456.737743
 31
0.0
  0
ARC
  5
5DE
100
AcDbEntity
  8
2
100
AcDbCircle
 10
-1061.569707
 20
449.237743
 30
0.0
 40
5.0
100
AcDbArc
 50
330.0
 51
30.0
  0
ARC
  5
5DF
100
AcDbEntity
  8
2
100
AcDbCircle
 10
-1052.909453
 20
454.237743
 30
0.0
 40
5.0
100
AcDbArc
 50
150.0
 51
210.0
  0
LINE
  5
5E0
100
AcDbEntity
  8
2
  6
CENTER
 62
     2
100
AcDbLine
 10
-838.233324
 20
451.737743
 30
0.0
 11
-950.577739
 21
451.737743
 31
0.0
  0
LINE
  5
5E1
100
AcDbEntity
  8
2
100
AcDbLine
 10
-849.23958
 20
446.737743
 30
0.0
 11
-899.23958
 21
446.737743
 31
0.0
  0
LINE
  5
5E2
100
AcDbEntity
  8
2
100
AcDbLine
 10
-849.23958
 20
456.737743
 30
0.0
 11
-899.23958
 21
456.737743
 31
0.0
  0
ARC
  5
5E3
100
AcDbEntity
  8
2
100
AcDbCircle
 10
-853.569707
 20
449.237743
 30
0.0
 40
5.0
100
AcDbArc
 50
330.0
 51
30.0
  0
ARC
  5
5E4
100
AcDbEntity
  8
2
100
AcDbCircle
 10
-844.909453
 20
454.237743
 30
0.0
 40
5.0
100
AcDbArc
 50
150.0
 51
210.0
  0
LINE
  5
5E5
100
AcDbEntity
  8
2
100
AcDbLine
 10
83.322598
 20
-29.886612
 30
0.0
 11
95.446954
 21
-29.886612
 31
0.0
  0
LINE
  5
5E6
100
AcDbEntity
  8
2
100
AcDbLine
 10
83.322598
 20
-50.886612
 30
0.0
 11
95.446954
 21
-50.886612
 31
0.0
  0
LINE
  5
5E7
100
AcDbEntity
  8
2
100
AcDbLine
 10
83.322598
 20
-29.886612
 30
0.0
 11
77.26042
 21
-40.386612
 31
0.0
  0
LINE
  5
5E8
100
AcDbEntity
  8
2
100
AcDbLine
 10
96.601654
 20
-48.886612
 30
0.0
 11
95.446954
 21
-50.886612
 31
0.0
  0
LINE
  5
5E9
100
AcDbEntity
  8
2
100
AcDbLine
 10
77.26042
 20
-40.386612
 30
0.0
 11
83.322598
 21
-50.886612
 31
0.0
  0
LINE
  5
5EA
100
AcDbEntity
  8
2
100
AcDbLine
 10
96.601654
 20
-31.886612
 30
0.0
 11
95.446954
 21
-29.886612
 31
0.0
  0
LINE
  5
5EB
100
AcDbEntity
  8
2
100
AcDbLine
 10
102.884776
 20
-48.882221
 30
0.0
 11
110.26042
 21
-48.649387
 31
0.0
  0
LINE
  5
5EC
100
AcDbEntity
  8
2
100
AcDbLine
 10
104.452254
 20
-48.833237
 30
0.0
 11
104.452254
 21
-31.939987
 31
0.0
  0
LINE
  5
5ED
100
AcDbEntity
  8
2
 62
     2
100
AcDbLine
 10
102.884776
 20
-48.882221
 30
0.0
 11
104.452254
 21
-47.977237
 31
0.0
  0
LINE
  5
5EE
100
AcDbEntity
  8
2
 62
     2
100
AcDbLine
 10
104.452254
 20
-47.977237
 30
0.0
 11
110.26042
 21
-47.793594
 31
0.0
  0
LINE
  5
5EF
100
AcDbEntity
  8
2
100
AcDbLine
 10
102.884776
 20
-31.891004
 30
0.0
 11
110.26042
 21
-32.123838
 31
0.0
  0
LINE
  5
5F0
100
AcDbEntity
  8
2
 62
     2
100
AcDbLine
 10
102.884776
 20
-31.891004
 30
0.0
 11
104.452254
 21
-32.795987
 31
0.0
  0
LINE
  5
5F1
100
AcDbEntity
  8
2
 62
     2
100
AcDbLine
 10
104.452254
 20
-32.795987
 30
0.0
 11
110.26042
 21
-32.979631
 31
0.0
  0
LINE
  5
5F2
100
AcDbEntity
  8
2
100
AcDbLine
 10
82.884776
 20
-31.886612
 30
0.0
 11
102.884776
 21
-31.886612
 31
0.0
  0
LINE
  5
5F3
100
AcDbEntity
  8
2
100
AcDbLine
 10
82.884776
 20
-48.886612
 30
0.0
 11
102.884776
 21
-48.886612
 31
0.0
  0
LINE
  5
5F4
100
AcDbEntity
  8
2
100
AcDbLine
 10
102.884776
 20
-48.886612
 30
0.0
 11
102.884776
 21
-31.886612
 31
0.0
  0
LINE
  5
5F5
100
AcDbEntity
  8
2
100
AcDbLine
 10
96.884776
 20
-31.886612
 30
0.0
 11
96.884776
 21
-34.909387
 31
0.0
  0
LINE
  5
5F6
100
AcDbEntity
  8
2
100
AcDbLine
 10
96.884776
 20
-45.863838
 30
0.0
 11
96.884776
 21
-48.886612
 31
0.0
  0
ARC
  5
5F7
100
AcDbEntity
  8
2
100
AcDbCircle
 10
89.384776
 20
-40.386612
 30
0.0
 40
8.5
100
AcDbArc
 50
139.880833
 51
220.119167
  0
LINE
  5
5F8
100
AcDbEntity
  8
2
100
AcDbLine
 10
82.884776
 20
-48.886612
 30
0.0
 11
82.884776
 21
-45.863838
 31
0.0
  0
LINE
  5
5F9
100
AcDbEntity
  8
2
100
AcDbLine
 10
82.884776
 20
-34.909387
 30
0.0
 11
82.884776
 21
-31.886612
 31
0.0
  0
LINE
  5
5FA
100
AcDbEntity
  8
2
100
AcDbLine
 10
82.884776
 20
-34.909387
 30
0.0
 11
96.884776
 21
-34.909387
 31
0.0
  0
LINE
  5
5FB
100
AcDbEntity
  8
2
100
AcDbLine
 10
82.884776
 20
-45.863838
 30
0.0
 11
96.884776
 21
-45.863838
 31
0.0
  0
ARC
  5
5FC
100
AcDbEntity
  8
2
100
AcDbCircle
 10
89.384776
 20
-40.386612
 30
0.0
 40
10.5
100
AcDbArc
 50
54.049432
 51
125.950568
  0
ARC
  5
5FD
100
AcDbEntity
  8
2
100
AcDbCircle
 10
89.384776
 20
-40.386612
 30
0.0
 40
10.5
100
AcDbArc
 50
128.24662
 51
231.75338
  0
ARC
  5
5FE
100
AcDbEntity
  8
2
100
AcDbCircle
 10
89.384776
 20
-40.386612
 30
0.0
 40
10.5
100
AcDbArc
 50
234.049432
 51
305.950568
  0
LINE
  5
5FF
100
AcDbEntity
  8
2
  6
CENTER
 62
     2
100
AcDbLine
 10
89.384776
 20
-83.315567
 30
0.0
 11
89.384776
 21
-22.457657
 31
0.0
  0
LINE
  5
600
100
AcDbEntity
  8
2
100
AcDbLine
 10
83.322598
 20
-75.886612
 30
0.0
 11
95.446954
 21
-75.886612
 31
0.0
  0
LINE
  5
601
100
AcDbEntity
  8
2
100
AcDbLine
 10
83.322598
 20
-75.886612
 30
0.0
 11
77.26042
 21
-65.386612
 31
0.0
  0
LINE
  5
602
100
AcDbEntity
  8
2
100
AcDbLine
 10
96.601654
 20
-56.886612
 30
0.0
 11
95.446954
 21
-54.886612
 31
0.0
  0
LINE
  5
603
100
AcDbEntity
  8
2
100
AcDbLine
 10
77.26042
 20
-65.386612
 30
0.0
 11
83.322598
 21
-54.886612
 31
0.0
  0
LINE
  5
604
100
AcDbEntity
  8
2
100
AcDbLine
 10
96.601654
 20
-73.886612
 30
0.0
 11
95.446954
 21
-75.886612
 31
0.0
  0
LINE
  5
605
100
AcDbEntity
  8
2
100
AcDbLine
 10
102.884776
 20
-56.891004
 30
0.0
 11
110.26042
 21
-57.123838
 31
0.0
  0
LINE
  5
606
100
AcDbEntity
  8
2
100
AcDbLine
 10
104.452254
 20
-56.939987
 30
0.0
 11
104.452254
 21
-73.833237
 31
0.0
  0
LINE
  5
607
100
AcDbEntity
  8
2
 62
     2
100
AcDbLine
 10
102.884776
 20
-56.891004
 30
0.0
 11
104.452254
 21
-57.795987
 31
0.0
  0
LINE
  5
608
100
AcDbEntity
  8
2
 62
     2
100
AcDbLine
 10
104.452254
 20
-57.795987
 30
0.0
 11
110.26042
 21
-57.979631
 31
0.0
  0
LINE
  5
609
100
AcDbEntity
  8
2
100
AcDbLine
 10
102.884776
 20
-73.882221
 30
0.0
 11
110.26042
 21
-73.649387
 31
0.0
  0
LINE
  5
60A
100
AcDbEntity
  8
2
 62
     2
100
AcDbLine
 10
102.884776
 20
-73.882221
 30
0.0
 11
104.452254
 21
-72.977237
 31
0.0
  0
LINE
  5
60B
100
AcDbEntity
  8
2
 62
     2
100
AcDbLine
 10
104.452254
 20
-72.977237
 30
0.0
 11
110.26042
 21
-72.793594
 31
0.0
  0
LINE
  5
60C
100
AcDbEntity
  8
2
100
AcDbLine
 10
82.884776
 20
-73.886612
 30
0.0
 11
102.884776
 21
-73.886612
 31
0.0
  0
LINE
  5
60D
100
AcDbEntity
  8
2
100
AcDbLine
 10
82.884776
 20
-56.886612
 30
0.0
 11
102.884776
 21
-56.886612
 31
0.0
  0
LINE
  5
60E
100
AcDbEntity
  8
2
100
AcDbLine
 10
102.884776
 20
-56.886612
 30
0.0
 11
102.884776
 21
-73.886612
 31
0.0
  0
LINE
  5
60F
100
AcDbEntity
  8
2
100
AcDbLine
 10
96.884776
 20
-73.886612
 30
0.0
 11
96.884776
 21
-70.863838
 31
0.0
  0
LINE
  5
610
100
AcDbEntity
  8
2
100
AcDbLine
 10
96.884776
 20
-59.909387
 30
0.0
 11
96.884776
 21
-56.886612
 31
0.0
  0
ARC
  5
611
100
AcDbEntity
  8
2
100
AcDbCircle
 10
89.384776
 20
-65.386612
 30
0.0
 40
8.5
100
AcDbArc
 50
139.880833
 51
220.119167
  0
LINE
  5
612
100
AcDbEntity
  8
2
100
AcDbLine
 10
82.884776
 20
-56.886612
 30
0.0
 11
82.884776
 21
-59.909387
 31
0.0
  0
LINE
  5
613
100
AcDbEntity
  8
2
100
AcDbLine
 10
82.884776
 20
-70.863838
 30
0.0
 11
82.884776
 21
-73.886612
 31
0.0
  0
LINE
  5
614
100
AcDbEntity
  8
2
100
AcDbLine
 10
82.884776
 20
-70.863838
 30
0.0
 11
96.884776
 21
-70.863838
 31
0.0
  0
LINE
  5
615
100
AcDbEntity
  8
2
100
AcDbLine
 10
82.884776
 20
-59.909387
 30
0.0
 11
96.884776
 21
-59.909387
 31
0.0
  0
ARC
  5
616
100
AcDbEntity
  8
2
100
AcDbCircle
 10
89.384776
 20
-65.386612
 30
0.0
 40
10.5
100
AcDbArc
 50
234.049432
 51
305.950568
  0
ARC
  5
617
100
AcDbEntity
  8
2
100
AcDbCircle
 10
89.384776
 20
-65.386612
 30
0.0
 40
10.5
100
AcDbArc
 50
128.24662
 51
231.75338
  0
ARC
  5
618
100
AcDbEntity
  8
2
100
AcDbCircle
 10
89.384776
 20
-65.386612
 30
0.0
 40
10.5
100
AcDbArc
 50
54.049433
 51
125.95057
  0
LINE
  5
619
100
AcDbEntity
  8
2
100
AcDbLine
 10
-702.235188
 20
424.237743
 30
0.0
 11
-702.002355
 21
431.613388
 31
0.0
  0
LINE
  5
61A
100
AcDbEntity
  8
2
100
AcDbLine
 10
-702.186205
 20
425.805221
 30
0.0
 11
-685.292955
 21
425.805221
 31
0.0
  0
LINE
  5
61B
100
AcDbEntity
  8
2
 62
     2
100
AcDbLine
 10
-702.235188
 20
424.237743
 30
0.0
 11
-701.330205
 21
425.805221
 31
0.0
  0
LINE
  5
61C
100
AcDbEntity
  8
2
 62
     2
100
AcDbLine
 10
-701.330205
 20
425.805221
 30
0.0
 11
-701.146561
 21
431.613388
 31
0.0
  0
LINE
  5
61D
100
AcDbEntity
  8
2
100
AcDbLine
 10
-685.243971
 20
424.237743
 30
0.0
 11
-685.476805
 21
431.613388
 31
0.0
  0
LINE
  5
61E
100
AcDbEntity
  8
2
 62
     2
100
AcDbLine
 10
-685.243971
 20
424.237743
 30
0.0
 11
-686.148955
 21
425.805221
 31
0.0
  0
LINE
  5
61F
100
AcDbEntity
  8
2
 62
     2
100
AcDbLine
 10
-686.148955
 20
425.805221
 30
0.0
 11
-686.332598
 21
431.613388
 31
0.0
  0
LINE
  5
620
100
AcDbEntity
  8
2
100
AcDbLine
 10
-702.23958
 20
424.237743
 30
0.0
 11
-685.23958
 21
424.237743
 31
0.0
  0
LINE
  5
621
100
AcDbEntity
  8
2
100
AcDbLine
 10
-685.23958
 20
405.237743
 30
0.0
 11
-685.23958
 21
424.237743
 31
0.0
  0
LINE
  5
622
100
AcDbEntity
  8
2
100
AcDbLine
 10
-702.23958
 20
420.737743
 30
0.0
 11
-702.23958
 21
424.237743
 31
0.0
  0
LINE
  5
623
100
AcDbEntity
  8
2
100
AcDbLine
 10
-707.23958
 20
402.237743
 30
0.0
 11
-688.23958
 21
402.237743
 31
0.0
  0
LINE
  5
624
100
AcDbEntity
  8
2
100
AcDbLine
 10
-707.23958
 20
419.237743
 30
0.0
 11
-703.73958
 21
419.237743
 31
0.0
  0
ARC
  5
625
100
AcDbEntity
  8
2
100
AcDbCircle
 10
-688.23958
 20
405.237743
 30
0.0
 40
3.0
100
AcDbArc
 50
270.0
 51
360.0
  0
ARC
  5
626
100
AcDbEntity
  8
2
100
AcDbCircle
 10
-703.73958
 20
420.737743
 30
0.0
 40
1.5
100
AcDbArc
 50
270.0
 51
360.0
  0
LINE
  5
627
100
AcDbEntity
  8
2
100
AcDbLine
 10
-707.23958
 20
402.237743
 30
0.0
 11
-707.23958
 21
419.237743
 31
0.0
  0
LINE
  5
628
100
AcDbEntity
  8
2
100
AcDbLine
 10
-700.23958
 20
404.237743
 30
0.0
 11
-690.23958
 21
404.237743
 31
0.0
  0
LINE
  5
629
100
AcDbEntity
  8
2
100
AcDbLine
 10
-688.23958
 20
406.237743
 30
0.0
 11
-688.23958
 21
416.237743
 31
0.0
  0
LINE
  5
62A
100
AcDbEntity
  8
2
100
AcDbLine
 10
-699.23958
 20
418.237743
 30
0.0
 11
-690.23958
 21
418.237743
 31
0.0
  0
LINE
  5
62B
100
AcDbEntity
  8
2
100
AcDbLine
 10
-702.23958
 20
406.237743
 30
0.0
 11
-702.23958
 21
415.237743
 31
0.0
  0
ARC
  5
62C
100
AcDbEntity
  8
2
100
AcDbCircle
 10
-690.23958
 20
406.237743
 30
0.0
 40
2.0
100
AcDbArc
 50
270.0
 51
360.0
  0
ARC
  5
62D
100
AcDbEntity
  8
2
100
AcDbCircle
 10
-690.23958
 20
416.237743
 30
0.0
 40
2.0
100
AcDbArc
 50
0.0
 51
90.0
  0
ARC
  5
62E
100
AcDbEntity
  8
2
100
AcDbCircle
 10
-700.23958
 20
406.237743
 30
0.0
 40
2.0
100
AcDbArc
 50
180.0
 51
270.0
  0
ARC
  5
62F
100
AcDbEntity
  8
2
100
AcDbCircle
 10
-702.23958
 20
418.237743
 30
0.0
 40
3.0
100
AcDbArc
 50
270.0
 51
360.0
  0
LINE
  5
630
100
AcDbEntity
  8
2
100
AcDbLine
 10
-712.23958
 20
401.644476
 30
0.0
 11
-712.23958
 21
419.83101
 31
0.0
  0
LINE
  5
631
100
AcDbEntity
  8
2
100
AcDbLine
 10
-728.23958
 20
401.644476
 30
0.0
 11
-728.23958
 21
419.83101
 31
0.0
  0
LINE
  5
632
100
AcDbEntity
  8
2
100
AcDbLine
 10
-712.23958
 20
402.406743
 30
0.0
 11
-707.23958
 21
402.406743
 31
0.0
  0
LINE
  5
633
100
AcDbEntity
  8
2
100
AcDbLine
 10
-712.23958
 20
419.068743
 30
0.0
 11
-707.23958
 21
419.068743
 31
0.0
  0
LINE
  5
634
100
AcDbEntity
  8
2
 62
     2
100
AcDbLine
 10
-712.23958
 20
403.262743
 30
0.0
 11
-708.722215
 21
403.262743
 31
0.0
  0
LINE
  5
635
100
AcDbEntity
  8
2
 62
     2
100
AcDbLine
 10
-712.23958
 20
418.212743
 30
0.0
 11
-708.722215
 21
418.212743
 31
0.0
  0
LINE
  5
636
100
AcDbEntity
  8
2
 62
     2
100
AcDbLine
 10
-707.23958
 20
402.406743
 30
0.0
 11
-708.722215
 21
403.262743
 31
0.0
  0
LINE
  5
637
100
AcDbEntity
  8
2
 62
     2
100
AcDbLine
 10
-707.23958
 20
419.068743
 30
0.0
 11
-708.722215
 21
418.212743
 31
0.0
  0
LINE
  5
638
100
AcDbEntity
  8
2
100
AcDbLine
 10
-708.722215
 20
402.406743
 30
0.0
 11
-708.722215
 21
419.068743
 31
0.0
  0
LINE
  5
639
100
AcDbEntity
  8
2
100
AcDbLine
 10
-726.73958
 20
398.613388
 30
0.0
 11
-713.73958
 21
398.613388
 31
0.0
  0
LINE
  5
63A
100
AcDbEntity
  8
2
100
AcDbLine
 10
-726.73958
 20
404.675565
 30
0.0
 11
-713.73958
 21
404.675565
 31
0.0
  0
LINE
  5
63B
100
AcDbEntity
  8
2
100
AcDbLine
 10
-726.73958
 20
416.799921
 30
0.0
 11
-713.73958
 21
416.799921
 31
0.0
  0
LINE
  5
63C
100
AcDbEntity
  8
2
100
AcDbLine
 10
-726.73958
 20
422.862099
 30
0.0
 11
-713.73958
 21
422.862099
 31
0.0
  0
ARC
  5
63D
100
AcDbEntity
  8
2
100
AcDbCircle
 10
-724.42708
 20
401.644476
 30
0.0
 40
3.8125
100
AcDbArc
 50
127.340993
 51
232.659007
  0
ARC
  5
63E
100
AcDbEntity
  8
2
100
AcDbCircle
 10
-724.42708
 20
419.83101
 30
0.0
 40
3.8125
100
AcDbArc
 50
127.340993
 51
232.659007
  0
ARC
  5
63F
100
AcDbEntity
  8
2
100
AcDbCircle
 10
-716.05208
 20
401.644476
 30
0.0
 40
3.8125
100
AcDbArc
 50
307.340993
 51
52.659007
  0
ARC
  5
640
100
AcDbEntity
  8
2
100
AcDbCircle
 10
-716.05208
 20
419.83101
 30
0.0
 40
3.8125
100
AcDbArc
 50
307.340993
 51
52.659007
  0
ARC
  5
641
100
AcDbEntity
  8
2
100
AcDbCircle
 10
-715.23958
 20
410.737743
 30
0.0
 40
13.0
100
AcDbArc
 50
152.204228
 51
207.795772
  0
ARC
  5
642
100
AcDbEntity
  8
2
100
AcDbCircle
 10
-725.23958
 20
410.737743
 30
0.0
 40
13.0
100
AcDbArc
 50
332.204228
 51
27.795772
  0
LINE
  5
643
100
AcDbEntity
  8
2
  6
CENTER
 62
     2
100
AcDbLine
 10
-789.245836
 20
410.737743
 30
0.0
 11
-676.90142
 21
410.737743
 31
0.0
  0
LINE
  5
644
100
AcDbEntity
  8
2
100
AcDbLine
 10
-778.23958
 20
405.737743
 30
0.0
 11
-728.23958
 21
405.737743
 31
0.0
  0
LINE
  5
645
100
AcDbEntity
  8
2
100
AcDbLine
 10
-778.23958
 20
415.737743
 30
0.0
 11
-728.23958
 21
415.737743
 31
0.0
  0
ARC
  5
646
100
AcDbEntity
  8
2
100
AcDbCircle
 10
-773.909453
 20
408.237743
 30
0.0
 40
5.0
100
AcDbArc
 50
150.0
 51
210.0
  0
ARC
  5
647
100
AcDbEntity
  8
2
100
AcDbCircle
 10
-782.569707
 20
413.237743
 30
0.0
 40
5.0
100
AcDbArc
 50
330.0
 51
30.0
  0
LINE
  5
648
100
AcDbEntity
  8
2
100
AcDbLine
 10
-165.235188
 20
424.237743
 30
0.0
 11
-165.002355
 21
431.613388
 31
0.0
  0
LINE
  5
649
100
AcDbEntity
  8
2
100
AcDbLine
 10
-165.186205
 20
425.805221
 30
0.0
 11
-148.292955
 21
425.805221
 31
0.0
  0
LINE
  5
64A
100
AcDbEntity
  8
2
 62
     2
100
AcDbLine
 10
-165.235188
 20
424.237743
 30
0.0
 11
-164.330205
 21
425.805221
 31
0.0
  0
LINE
  5
64B
100
AcDbEntity
  8
2
 62
     2
100
AcDbLine
 10
-164.330205
 20
425.805221
 30
0.0
 11
-164.146561
 21
431.613388
 31
0.0
  0
LINE
  5
64C
100
AcDbEntity
  8
2
100
AcDbLine
 10
-148.243971
 20
424.237743
 30
0.0
 11
-148.476805
 21
431.613388
 31
0.0
  0
LINE
  5
64D
100
AcDbEntity
  8
2
 62
     2
100
AcDbLine
 10
-148.243971
 20
424.237743
 30
0.0
 11
-149.148955
 21
425.805221
 31
0.0
  0
LINE
  5
64E
100
AcDbEntity
  8
2
 62
     2
100
AcDbLine
 10
-149.148955
 20
425.805221
 30
0.0
 11
-149.332598
 21
431.613388
 31
0.0
  0
LINE
  5
64F
100
AcDbEntity
  8
2
100
AcDbLine
 10
-165.23958
 20
424.237743
 30
0.0
 11
-148.23958
 21
424.237743
 31
0.0
  0
LINE
  5
650
100
AcDbEntity
  8
2
100
AcDbLine
 10
-148.23958
 20
405.237743
 30
0.0
 11
-148.23958
 21
424.237743
 31
0.0
  0
LINE
  5
651
100
AcDbEntity
  8
2
100
AcDbLine
 10
-165.23958
 20
420.737743
 30
0.0
 11
-165.23958
 21
424.237743
 31
0.0
  0
LINE
  5
652
100
AcDbEntity
  8
2
100
AcDbLine
 10
-170.23958
 20
402.237743
 30
0.0
 11
-151.23958
 21
402.237743
 31
0.0
  0
LINE
  5
653
100
AcDbEntity
  8
2
100
AcDbLine
 10
-170.23958
 20
419.237743
 30
0.0
 11
-166.73958
 21
419.237743
 31
0.0
  0
ARC
  5
654
100
AcDbEntity
  8
2
100
AcDbCircle
 10
-151.23958
 20
405.237743
 30
0.0
 40
3.0
100
AcDbArc
 50
270.0
 51
360.0
  0
ARC
  5
655
100
AcDbEntity
  8
2
100
AcDbCircle
 10
-166.73958
 20
420.737743
 30
0.0
 40
1.5
100
AcDbArc
 50
270.0
 51
360.0
  0
LINE
  5
656
100
AcDbEntity
  8
2
100
AcDbLine
 10
-170.23958
 20
402.237743
 30
0.0
 11
-170.23958
 21
419.237743
 31
0.0
  0
LINE
  5
657
100
AcDbEntity
  8
2
100
AcDbLine
 10
-163.23958
 20
404.237743
 30
0.0
 11
-153.23958
 21
404.237743
 31
0.0
  0
LINE
  5
658
100
AcDbEntity
  8
2
100
AcDbLine
 10
-151.23958
 20
406.237743
 30
0.0
 11
-151.23958
 21
416.237743
 31
0.0
  0
LINE
  5
659
100
AcDbEntity
  8
2
100
AcDbLine
 10
-162.23958
 20
418.237743
 30
0.0
 11
-153.23958
 21
418.237743
 31
0.0
  0
LINE
  5
65A
100
AcDbEntity
  8
2
100
AcDbLine
 10
-165.23958
 20
406.237743
 30
0.0
 11
-165.23958
 21
415.237743
 31
0.0
  0
ARC
  5
65B
100
AcDbEntity
  8
2
100
AcDbCircle
 10
-153.23958
 20
406.237743
 30
0.0
 40
2.0
100
AcDbArc
 50
270.0
 51
360.0
  0
ARC
  5
65C
100
AcDbEntity
  8
2
100
AcDbCircle
 10
-153.23958
 20
416.237743
 30
0.0
 40
2.0
100
AcDbArc
 50
0.0
 51
90.0
  0
ARC
  5
65D
100
AcDbEntity
  8
2
100
AcDbCircle
 10
-163.23958
 20
406.237743
 30
0.0
 40
2.0
100
AcDbArc
 50
180.0
 51
270.0
  0
ARC
  5
65E
100
AcDbEntity
  8
2
100
AcDbCircle
 10
-165.23958
 20
418.237743
 30
0.0
 40
3.0
100
AcDbArc
 50
270.0
 51
360.0
  0
LINE
  5
65F
100
AcDbEntity
  8
2
100
AcDbLine
 10
-175.23958
 20
401.644476
 30
0.0
 11
-175.23958
 21
419.83101
 31
0.0
  0
LINE
  5
660
100
AcDbEntity
  8
2
100
AcDbLine
 10
-191.23958
 20
401.644476
 30
0.0
 11
-191.23958
 21
419.83101
 31
0.0
  0
LINE
  5
661
100
AcDbEntity
  8
2
100
AcDbLine
 10
-175.23958
 20
402.406743
 30
0.0
 11
-170.23958
 21
402.406743
 31
0.0
  0
LINE
  5
662
100
AcDbEntity
  8
2
100
AcDbLine
 10
-175.23958
 20
419.068743
 30
0.0
 11
-170.23958
 21
419.068743
 31
0.0
  0
LINE
  5
663
100
AcDbEntity
  8
2
 62
     2
100
AcDbLine
 10
-175.23958
 20
403.262743
 30
0.0
 11
-171.722215
 21
403.262743
 31
0.0
  0
LINE
  5
664
100
AcDbEntity
  8
2
 62
     2
100
AcDbLine
 10
-175.23958
 20
418.212743
 30
0.0
 11
-171.722215
 21
418.212743
 31
0.0
  0
LINE
  5
665
100
AcDbEntity
  8
2
 62
     2
100
AcDbLine
 10
-170.23958
 20
402.406743
 30
0.0
 11
-171.722215
 21
403.262743
 31
0.0
  0
LINE
  5
666
100
AcDbEntity
  8
2
 62
     2
100
AcDbLine
 10
-170.23958
 20
419.068743
 30
0.0
 11
-171.722215
 21
418.212743
 31
0.0
  0
LINE
  5
667
100
AcDbEntity
  8
2
100
AcDbLine
 10
-171.722215
 20
402.406743
 30
0.0
 11
-171.722215
 21
419.068743
 31
0.0
  0
LINE
  5
668
100
AcDbEntity
  8
2
100
AcDbLine
 10
-189.73958
 20
398.613388
 30
0.0
 11
-176.73958
 21
398.613388
 31
0.0
  0
LINE
  5
669
100
AcDbEntity
  8
2
100
AcDbLine
 10
-189.73958
 20
404.675565
 30
0.0
 11
-176.73958
 21
404.675565
 31
0.0
  0
LINE
  5
66A
100
AcDbEntity
  8
2
100
AcDbLine
 10
-189.73958
 20
416.799921
 30
0.0
 11
-176.73958
 21
416.799921
 31
0.0
  0
LINE
  5
66B
100
AcDbEntity
  8
2
100
AcDbLine
 10
-189.73958
 20
422.862099
 30
0.0
 11
-176.73958
 21
422.862099
 31
0.0
  0
ARC
  5
66C
100
AcDbEntity
  8
2
100
AcDbCircle
 10
-187.42708
 20
401.644476
 30
0.0
 40
3.8125
100
AcDbArc
 50
127.340993
 51
232.659007
  0
ARC
  5
66D
100
AcDbEntity
  8
2
100
AcDbCircle
 10
-187.42708
 20
419.83101
 30
0.0
 40
3.8125
100
AcDbArc
 50
127.340993
 51
232.659007
  0
ARC
  5
66E
100
AcDbEntity
  8
2
100
AcDbCircle
 10
-179.05208
 20
401.644476
 30
0.0
 40
3.8125
100
AcDbArc
 50
307.340993
 51
52.659007
  0
ARC
  5
66F
100
AcDbEntity
  8
2
100
AcDbCircle
 10
-179.05208
 20
419.83101
 30
0.0
 40
3.8125
100
AcDbArc
 50
307.340993
 51
52.659007
  0
ARC
  5
670
100
AcDbEntity
  8
2
100
AcDbCircle
 10
-178.23958
 20
410.737743
 30
0.0
 40
13.0
100
AcDbArc
 50
152.204228
 51
207.795772
  0
ARC
  5
671
100
AcDbEntity
  8
2
100
AcDbCircle
 10
-188.23958
 20
410.737743
 30
0.0
 40
13.0
100
AcDbArc
 50
332.204228
 51
27.795772
  0
LINE
  5
672
100
AcDbEntity
  8
2
  6
CENTER
 62
     2
100
AcDbLine
 10
-252.245836
 20
410.737743
 30
0.0
 11
-139.90142
 21
410.737743
 31
0.0
  0
LINE
  5
673
100
AcDbEntity
  8
2
100
AcDbLine
 10
-241.23958
 20
405.737743
 30
0.0
 11
-191.23958
 21
405.737743
 31
0.0
  0
LINE
  5
674
100
AcDbEntity
  8
2
100
AcDbLine
 10
-241.23958
 20
415.737743
 30
0.0
 11
-191.23958
 21
415.737743
 31
0.0
  0
ARC
  5
675
100
AcDbEntity
  8
2
100
AcDbCircle
 10
-236.909453
 20
408.237743
 30
0.0
 40
5.0
100
AcDbArc
 50
150.0
 51
210.0
  0
ARC
  5
676
100
AcDbEntity
  8
2
100
AcDbCircle
 10
-245.569707
 20
413.237743
 30
0.0
 40
5.0
100
AcDbArc
 50
330.0
 51
30.0
  0
LINE
  5
677
100
AcDbEntity
  8
2
100
AcDbLine
 10
83.322598
 20
-54.886612
 30
0.0
 11
95.446954
 21
-54.886612
 31
0.0
  0
LINE
  5
678
100
AcDbEntity
  8
2
100
AcDbLine
 10
-151.184997
 20
-48.851045
 30
0.0
 11
-170.184604
 21
-48.973307
 31
0.0
  0
LINE
  5
679
100
AcDbEntity
  8
2
100
AcDbLine
 10
-151.29439
 20
-31.851397
 30
0.0
 11
-170.293997
 21
-31.973659
 31
0.0
  0
ARC
  5
67A
100
AcDbEntity
  8
2
100
AcDbCircle
 10
-156.73958
 20
-40.386612
 30
0.0
 40
8.5
100
AcDbArc
 50
310.688909
 51
50.048479
  0
LINE
  5
67B
100
AcDbEntity
  8
2
100
AcDbLine
 10
-151.29439
 20
-31.851397
 30
0.0
 11
-151.281396
 21
-33.870614
 31
0.0
  0
LINE
  5
67C
100
AcDbEntity
  8
2
100
AcDbLine
 10
-151.197991
 20
-46.831827
 30
0.0
 11
-151.184997
 21
-48.851045
 31
0.0
  0
LINE
  5
67D
100
AcDbEntity
  8
2
100
AcDbLine
 10
-170.293997
 20
-31.973659
 30
0.0
 11
-170.184604
 21
-48.973307
 31
0.0
  0
LINE
  5
67E
100
AcDbEntity
  8
2
100
AcDbLine
 10
-151.197991
 20
-46.831827
 30
0.0
 11
-165.197701
 21
-46.921915
 31
0.0
  0
LINE
  5
67F
100
AcDbEntity
  8
2
100
AcDbLine
 10
-151.281396
 20
-33.870614
 30
0.0
 11
-165.281106
 21
-33.960702
 31
0.0
  0
LINE
  5
680
100
AcDbEntity
  8
2
100
AcDbLine
 10
-165.2941
 20
-31.941485
 30
0.0
 11
-165.281106
 21
-33.960702
 31
0.0
  0
LINE
  5
681
100
AcDbEntity
  8
2
100
AcDbLine
 10
-165.197701
 20
-46.921915
 30
0.0
 11
-165.184707
 21
-48.941133
 31
0.0
  0
LINE
  5
682
100
AcDbEntity
  8
2
100
AcDbLine
 10
-175.306763
 20
-30.005875
 30
0.0
 11
-175.17163
 21
-51.00544
 31
0.0
  0
LINE
  5
683
100
AcDbEntity
  8
2
100
AcDbLine
 10
-175.185588
 20
-48.836485
 30
0.0
 11
-170.185691
 21
-48.804311
 31
0.0
  0
LINE
  5
684
100
AcDbEntity
  8
2
100
AcDbLine
 10
-175.292806
 20
-32.17483
 30
0.0
 11
-170.292909
 21
-32.142656
 31
0.0
  0
LINE
  5
685
100
AcDbEntity
  8
2
 62
     2
100
AcDbLine
 10
-175.191096
 20
-47.980503
 30
0.0
 11
-171.673804
 21
-47.957869
 31
0.0
  0
LINE
  5
686
100
AcDbEntity
  8
2
 62
     2
100
AcDbLine
 10
-175.287297
 20
-33.030812
 30
0.0
 11
-171.770006
 21
-33.008179
 31
0.0
  0
LINE
  5
687
100
AcDbEntity
  8
2
 62
     2
100
AcDbLine
 10
-170.185691
 20
-48.804311
 30
0.0
 11
-171.673804
 21
-47.957869
 31
0.0
  0
LINE
  5
688
100
AcDbEntity
  8
2
 62
     2
100
AcDbLine
 10
-170.292909
 20
-32.142656
 30
0.0
 11
-171.770006
 21
-33.008179
 31
0.0
  0
LINE
  5
689
100
AcDbEntity
  8
2
100
AcDbLine
 10
-171.668296
 20
-48.813851
 30
0.0
 11
-171.775514
 21
-32.152196
 31
0.0
  0
LINE
  5
68A
100
AcDbEntity
  8
2
100
AcDbLine
 10
-191.306432
 20
-30.108833
 30
0.0
 11
-191.171299
 21
-51.108398
 31
0.0
  0
LINE
  5
68B
100
AcDbEntity
  8
2
100
AcDbLine
 10
-175.17163
 20
-51.00544
 30
0.0
 11
-191.171299
 21
-51.108398
 31
0.0
  0
LINE
  5
68C
100
AcDbEntity
  8
2
100
AcDbLine
 10
-175.306763
 20
-30.005875
 30
0.0
 11
-191.306432
 21
-30.108833
 31
0.0
  0
ARC
  5
68D
100
AcDbEntity
  8
2
100
AcDbCircle
 10
-181.267788
 20
-45.79456
 30
0.0
 40
9.9375
100
AcDbArc
 50
148.477902
 51
212.259485
  0
ARC
  5
68E
100
AcDbEntity
  8
2
100
AcDbCircle
 10
-185.210274
 20
-35.319713
 30
0.0
 40
9.9375
100
AcDbArc
 50
328.477902
 51
32.259485
  0
ARC
  5
68F
100
AcDbEntity
  8
2
100
AcDbCircle
 10
-185.142708
 20
-45.819495
 30
0.0
 40
9.9375
100
AcDbArc
 50
328.477902
 51
32.259485
  0
ARC
  5
690
100
AcDbEntity
  8
2
100
AcDbCircle
 10
-181.335354
 20
-35.294778
 30
0.0
 40
9.9375
100
AcDbArc
 50
148.477902
 51
212.259485
  0
LINE
  5
691
100
AcDbEntity
  8
2
100
AcDbLine
 10
-189.738896
 20
-40.598963
 30
0.0
 11
-176.739166
 21
-40.51531
 31
0.0
  0
LINE
  5
692
100
AcDbEntity
  8
2
100
AcDbLine
 10
110.26042
 20
37.613388
 30
0.0
 11
110.26042
 21
-148.386612
 31
0.0
  0
LINE
  5
693
100
AcDbEntity
  8
2
100
AcDbLine
 10
336.26042
 20
37.613388
 30
0.0
 11
336.26042
 21
-148.386612
 31
0.0
  0
LINE
  5
694
100
AcDbEntity
  8
2
100
AcDbLine
 10
316.26042
 20
57.613388
 30
0.0
 11
130.26042
 21
57.613388
 31
0.0
  0
LINE
  5
695
100
AcDbEntity
  8
2
100
AcDbLine
 10
316.26042
 20
-168.386612
 30
0.0
 11
130.26042
 21
-168.386612
 31
0.0
  0
ARC
  5
696
100
AcDbEntity
  8
2
100
AcDbCircle
 10
130.26042
 20
37.613388
 30
0.0
 40
20.0
100
AcDbArc
 50
90.0
 51
180.0
  0
ARC
  5
697
100
AcDbEntity
  8
2
100
AcDbCircle
 10
130.26042
 20
-148.386612
 30
0.0
 40
20.0
100
AcDbArc
 50
180.0
 51
270.0
  0
ARC
  5
698
100
AcDbEntity
  8
2
100
AcDbCircle
 10
316.26042
 20
-148.386612
 30
0.0
 40
20.0
100
AcDbArc
 50
270.0
 51
360.0
  0
ARC
  5
699
100
AcDbEntity
  8
2
100
AcDbCircle
 10
316.26042
 20
37.613388
 30
0.0
 40
20.0
100
AcDbArc
 50
0.0
 51
90.0
  0
LINE
  5
69A
100
AcDbEntity
  8
2
100
AcDbLine
 10
157.240505
 20
-37.718449
 30
0.0
 11
142.049073
 21
-20.75106
 31
0.0
  0
LINE
  5
69B
100
AcDbEntity
  8
2
100
AcDbLine
 10
157.240505
 20
-43.054775
 30
0.0
 11
142.049073
 21
-60.022164
 31
0.0
  0
ARC
  5
69C
100
AcDbEntity
  8
2
100
AcDbCircle
 10
137.578946
 20
-24.753305
 30
0.0
 40
6.0
100
AcDbArc
 50
41.839076
 51
90.0
  0
ARC
  5
69D
100
AcDbEntity
  8
2
100
AcDbCircle
 10
137.578946
 20
-56.01992
 30
0.0
 40
6.0
100
AcDbArc
 50
270.0
 51
318.160924
  0
ARC
  5
69E
100
AcDbEntity
  8
2
100
AcDbCircle
 10
154.26042
 20
-40.386612
 30
0.0
 40
4.0
100
AcDbArc
 50
318.160924
 51
41.839076
  0
LINE
  5
69F
100
AcDbEntity
  8
2
100
AcDbLine
 10
289.280335
 20
-52.718449
 30
0.0
 11
304.471768
 21
-35.75106
 31
0.0
  0
LINE
  5
6A0
100
AcDbEntity
  8
2
100
AcDbLine
 10
289.280335
 20
-58.054775
 30
0.0
 11
304.471768
 21
-75.022164
 31
0.0
  0
ARC
  5
6A1
100
AcDbEntity
  8
2
100
AcDbCircle
 10
308.941895
 20
-39.753305
 30
0.0
 40
6.0
100
AcDbArc
 50
90.0
 51
138.160924
  0
ARC
  5
6A2
100
AcDbEntity
  8
2
100
AcDbCircle
 10
308.941895
 20
-71.01992
 30
0.0
 40
6.0
100
AcDbArc
 50
221.839076
 51
270.0
  0
ARC
  5
6A3
100
AcDbEntity
  8
2
100
AcDbCircle
 10
292.26042
 20
-55.386612
 30
0.0
 40
4.0
100
AcDbArc
 50
138.160924
 51
221.839076
  0
LINE
  5
6A4
100
AcDbEntity
  8
2
100
AcDbLine
 10
110.26042
 20
-18.753305
 30
0.0
 11
137.578946
 21
-18.753305
 31
0.0
  0
LINE
  5
6A5
100
AcDbEntity
  8
2
100
AcDbLine
 10
110.26042
 20
-62.01992
 30
0.0
 11
137.578946
 21
-62.01992
 31
0.0
  0
LINE
  5
6A6
100
AcDbEntity
  8
2
100
AcDbLine
 10
140.26042
 20
-20.75106
 30
0.0
 11
140.26042
 21
-60.022164
 31
0.0
  0
LINE
  5
6A7
100
AcDbEntity
  8
2
100
AcDbLine
 10
336.26042
 20
-33.753305
 30
0.0
 11
308.941895
 21
-33.753305
 31
0.0
  0
LINE
  5
6A8
100
AcDbEntity
  8
2
100
AcDbLine
 10
336.26042
 20
-77.01992
 30
0.0
 11
308.941895
 21
-77.01992
 31
0.0
  0
LINE
  5
6A9
100
AcDbEntity
  8
2
100
AcDbLine
 10
306.26042
 20
-35.75106
 30
0.0
 11
306.26042
 21
-75.022164
 31
0.0
  0
CIRCLE
  5
6AA
100
AcDbEntity
  8
2
100
AcDbCircle
 10
223.26042
 20
-55.386612
 30
0.0
 40
35.0
  0
ARC
  5
6AB
100
AcDbEntity
  8
2
100
AcDbCircle
 10
-894.73958
 20
-124.386612
 30
0.0
 40
3.0
100
AcDbArc
 50
270.0
 51
360.0
  0
ARC
  5
6AC
100
AcDbEntity
  8
2
100
AcDbCircle
 10
-738.73958
 20
-124.386612
 30
0.0
 40
3.0
100
AcDbArc
 50
180.0
 51
270.0
  0
LINE
  5
6AD
100
AcDbEntity
  8
2
  6
CENTER
 62
     2
100
AcDbLine
 10
-949.273132
 20
-45.486571
 30
0.0
 11
-139.463673
 21
-40.275442
 31
0.0
  0
LINE
  5
6AE
100
AcDbEntity
  8
2
100
AcDbLine
 10
-899.272468
 20
-40.164713
 30
0.0
 11
-191.27104
 21
-35.608719
 31
0.0
  0
LINE
  5
6AF
100
AcDbEntity
  8
2
100
AcDbLine
 10
-899.20812
 20
-50.164506
 30
0.0
 11
-191.206691
 21
-45.608512
 31
0.0
  0
LINE
  5
6B0
100
AcDbEntity
  8
2
  6
CENTER
 62
     2
100
AcDbLine
 10
-135.509965
 20
685.613388
 30
0.0
 11
-178.62433
 21
685.613388
 31
0.0
  0
LINE
  5
6B1
100
AcDbEntity
  8
2
100
AcDbLine
 10
-149.73958
 20
665.213388
 30
0.0
 11
-149.73958
 21
670.113388
 31
0.0
  0
LINE
  5
6B2
100
AcDbEntity
  8
2
100
AcDbLine
 10
-163.73958
 20
665.213388
 30
0.0
 11
-163.73958
 21
670.113388
 31
0.0
  0
LINE
  5
6B3
100
AcDbEntity
  8
2
100
AcDbLine
 10
-149.025517
 20
664.613388
 30
0.0
 11
-164.453642
 21
664.613388
 31
0.0
  0
LINE
  5
6B4
100
AcDbEntity
  8
2
100
AcDbLine
 10
-165.283703
 20
663.783327
 30
0.0
 11
-165.090892
 21
657.613388
 31
0.0
  0
LINE
  5
6B5
100
AcDbEntity
  8
2
 62
     2
100
AcDbLine
 10
-164.453642
 20
664.613388
 30
0.0
 11
-164.234892
 21
657.613388
 31
0.0
  0
LINE
  5
6B6
100
AcDbEntity
  8
2
100
AcDbLine
 10
-148.195457
 20
663.783327
 30
0.0
 11
-148.388267
 21
657.613388
 31
0.0
  0
LINE
  5
6B7
100
AcDbEntity
  8
2
 62
     2
100
AcDbLine
 10
-149.025517
 20
664.613388
 30
0.0
 11
-149.244267
 21
657.613388
 31
0.0
  0
LINE
  5
6B8
100
AcDbEntity
  8
2
100
AcDbLine
 10
-149.025517
 20
664.613388
 30
0.0
 11
-148.195457
 21
663.783327
 31
0.0
  0
LINE
  5
6B9
100
AcDbEntity
  8
2
100
AcDbLine
 10
-164.453642
 20
664.613388
 30
0.0
 11
-165.283703
 21
663.783327
 31
0.0
  0
LINE
  5
6BA
100
AcDbEntity
  8
2
100
AcDbLine
 10
-148.195457
 20
663.783327
 30
0.0
 11
-165.283703
 21
663.783327
 31
0.0
  0
ARC
  5
6BB
100
AcDbEntity
  8
2
100
AcDbCircle
 10
-149.13958
 20
665.213388
 30
0.0
 40
0.6
100
AcDbArc
 50
180.0
 51
270.0
  0
ARC
  5
6BC
100
AcDbEntity
  8
2
100
AcDbCircle
 10
-164.33958
 20
665.213388
 30
0.0
 40
0.6
100
AcDbArc
 50
270.0
 51
360.0
  0
ARC
  5
6BD
100
AcDbEntity
  8
2
100
AcDbCircle
 10
-132.295135
 20
670.113388
 30
0.0
 40
17.444444
100
AcDbArc
 50
147.621587
 51
180.0
  0
ARC
  5
6BE
100
AcDbEntity
  8
2
100
AcDbCircle
 10
-181.184024
 20
670.113388
 30
0.0
 40
17.444444
100
AcDbArc
 50
0.0
 51
32.378413
  0
ARC
  5
6BF
100
AcDbEntity
  8
2
100
AcDbCircle
 10
-156.73958
 20
685.613388
 30
0.0
 40
11.5
100
AcDbArc
 50
327.621587
 51
212.378413
  0
ARC
  5
6C0
100
AcDbEntity
  8
2
100
AcDbCircle
 10
-156.73958
 20
685.613388
 30
0.0
 40
13.0
100
AcDbArc
 50
306.600583
 51
233.399417
  0
LINE
  5
6C1
100
AcDbEntity
  8
2
100
AcDbLine
 10
351.26042
 20
-78.386612
 30
0.0
 11
377.26042
 21
-78.386612
 31
0.0
  0
LINE
  5
6C2
100
AcDbEntity
  8
2
100
AcDbLine
 10
343.86042
 20
-62.386612
 30
0.0
 11
348.76042
 21
-62.386612
 31
0.0
  0
LINE
  5
6C3
100
AcDbEntity
  8
2
100
AcDbLine
 10
343.86042
 20
-48.386612
 30
0.0
 11
357.76042
 21
-48.386612
 31
0.0
  0
LINE
  5
6C4
100
AcDbEntity
  8
2
100
AcDbLine
 10
351.26042
 20
-78.386612
 30
0.0
 11
351.26042
 21
-74.323104
 31
0.0
  0
LINE
  5
6C5
100
AcDbEntity
  8
2
100
AcDbLine
 10
377.26042
 20
-78.386612
 30
0.0
 11
377.26042
 21
-74.323104
 31
0.0
  0
LINE
  5
6C6
100
AcDbEntity
  8
2
100
AcDbLine
 10
352.76042
 20
-73.386612
 30
0.0
 11
375.76042
 21
-73.386612
 31
0.0
  0
LINE
  5
6C7
100
AcDbEntity
  8
2
100
AcDbLine
 10
352.76042
 20
-72.386612
 30
0.0
 11
352.76042
 21
-66.386612
 31
0.0
  0
LINE
  5
6C8
100
AcDbEntity
  8
2
100
AcDbLine
 10
375.76042
 20
-72.386612
 30
0.0
 11
375.76042
 21
-66.386612
 31
0.0
  0
ARC
  5
6C9
100
AcDbEntity
  8
2
100
AcDbCircle
 10
376.76042
 20
-72.386612
 30
0.0
 40
1.0
100
AcDbArc
 50
180.0
 51
255.522488
  0
ARC
  5
6CA
100
AcDbEntity
  8
2
100
AcDbCircle
 10
351.76042
 20
-72.386612
 30
0.0
 40
1.0
100
AcDbArc
 50
284.477512
 51
360.0
  0
ARC
  5
6CB
100
AcDbEntity
  8
2
100
AcDbCircle
 10
376.26042
 20
-74.323104
 30
0.0
 40
1.0
100
AcDbArc
 50
0.0
 51
75.522488
  0
ARC
  5
6CC
100
AcDbEntity
  8
2
100
AcDbCircle
 10
352.26042
 20
-74.323104
 30
0.0
 40
1.0
100
AcDbArc
 50
104.477512
 51
180.0
  0
LINE
  5
6CD
100
AcDbEntity
  8
2
100
AcDbLine
 10
343.26042
 20
-63.100675
 30
0.0
 11
343.26042
 21
-47.67255
 31
0.0
  0
ARC
  5
6CE
100
AcDbEntity
  8
2
100
AcDbCircle
 10
348.76042
 20
-66.386612
 30
0.0
 40
4.0
100
AcDbArc
 50
0.0
 51
90.0
  0
ARC
  5
6CF
100
AcDbEntity
  8
2
100
AcDbCircle
 10
357.76042
 20
-66.386612
 30
0.0
 40
18.0
100
AcDbArc
 50
0.0
 51
90.0
  0
LINE
  5
6D0
100
AcDbEntity
  8
2
100
AcDbLine
 10
342.43036
 20
-46.842489
 30
0.0
 11
336.26042
 21
-47.0353
 31
0.0
  0
LINE
  5
6D1
100
AcDbEntity
  8
2
 62
     2
100
AcDbLine
 10
343.26042
 20
-47.67255
 30
0.0
 11
336.26042
 21
-47.8913
 31
0.0
  0
LINE
  5
6D2
100
AcDbEntity
  8
2
100
AcDbLine
 10
342.43036
 20
-63.930736
 30
0.0
 11
336.26042
 21
-63.737925
 31
0.0
  0
LINE
  5
6D3
100
AcDbEntity
  8
2
 62
     2
100
AcDbLine
 10
343.26042
 20
-63.100675
 30
0.0
 11
336.26042
 21
-62.881925
 31
0.0
  0
LINE
  5
6D4
100
AcDbEntity
  8
2
100
AcDbLine
 10
343.26042
 20
-63.100675
 30
0.0
 11
342.43036
 21
-63.930736
 31
0.0
  0
LINE
  5
6D5
100
AcDbEntity
  8
2
100
AcDbLine
 10
343.26042
 20
-47.67255
 30
0.0
 11
342.43036
 21
-46.842489
 31
0.0
  0
LINE
  5
6D6
100
AcDbEntity
  8
2
100
AcDbLine
 10
342.43036
 20
-63.930736
 30
0.0
 11
342.43036
 21
-46.842489
 31
0.0
  0
ARC
  5
6D7
100
AcDbEntity
  8
2
100
AcDbCircle
 10
343.86042
 20
-62.986612
 30
0.0
 40
0.6
100
AcDbArc
 50
90.0
 51
180.0
  0
ARC
  5
6D8
100
AcDbEntity
  8
2
100
AcDbCircle
 10
343.86042
 20
-47.786612
 30
0.0
 40
0.6
100
AcDbArc
 50
180.0
 51
270.0
  0
LINE
  5
6D9
100
AcDbEntity
  8
2
100
AcDbLine
 10
375.26042
 20
-83.386612
 30
0.0
 11
375.26042
 21
-93.386612
 31
0.0
  0
LINE
  5
6DA
100
AcDbEntity
  8
2
100
AcDbLine
 10
353.26042
 20
-83.386612
 30
0.0
 11
353.26042
 21
-93.386612
 31
0.0
  0
LINE
  5
6DB
100
AcDbEntity
  8
2
  6
CENTER
 62
     2
100
AcDbLine
 10
364.26042
 20
-161.292135
 30
0.0
 11
364.26042
 21
-39.468815
 31
0.0
  0
LINE
  5
6DC
100
AcDbEntity
  8
2
100
AcDbLine
 10
375.26042
 20
-153.386612
 30
0.0
 11
353.26042
 21
-153.386612
 31
0.0
  0
LINE
  5
6DD
100
AcDbEntity
  8
2
100
AcDbLine
 10
375.26042
 20
-153.386612
 30
0.0
 11
376.76042
 21
-151.886612
 31
0.0
  0
LINE
  5
6DE
100
AcDbEntity
  8
2
100
AcDbLine
 10
351.76042
 20
-151.886612
 30
0.0
 11
353.26042
 21
-153.386612
 31
0.0
  0
LINE
  5
6DF
100
AcDbEntity
  8
2
100
AcDbLine
 10
351.76042
 20
-151.886612
 30
0.0
 11
376.76042
 21
-151.886612
 31
0.0
  0
LINE
  5
6E0
100
AcDbEntity
  8
2
100
AcDbLine
 10
375.26042
 20
-83.386612
 30
0.0
 11
353.26042
 21
-83.386612
 31
0.0
  0
LINE
  5
6E1
100
AcDbEntity
  8
2
100
AcDbLine
 10
355.764812
 20
-83.386612
 30
0.0
 11
355.894471
 21
-78.386612
 31
0.0
  0
LINE
  5
6E2
100
AcDbEntity
  8
2
100
AcDbLine
 10
355.813795
 20
-81.819135
 30
0.0
 11
372.707045
 21
-81.819135
 31
0.0
  0
LINE
  5
6E3
100
AcDbEntity
  8
2
 62
     2
100
AcDbLine
 10
355.764812
 20
-83.386612
 30
0.0
 11
356.669795
 21
-81.819135
 31
0.0
  0
LINE
  5
6E4
100
AcDbEntity
  8
2
 62
     2
100
AcDbLine
 10
356.669795
 20
-81.819135
 30
0.0
 11
356.756506
 21
-78.386612
 31
0.0
  0
LINE
  5
6E5
100
AcDbEntity
  8
2
100
AcDbLine
 10
372.756029
 20
-83.386612
 30
0.0
 11
372.62637
 21
-78.386612
 31
0.0
  0
LINE
  5
6E6
100
AcDbEntity
  8
2
 62
     2
100
AcDbLine
 10
372.756029
 20
-83.386612
 30
0.0
 11
371.851045
 21
-81.819135
 31
0.0
  0
LINE
  5
6E7
100
AcDbEntity
  8
2
 62
     2
100
AcDbLine
 10
371.851045
 20
-81.819135
 30
0.0
 11
371.764335
 21
-78.386612
 31
0.0
  0
LINE
  5
6E8
100
AcDbEntity
  8
2
100
AcDbLine
 10
351.76042
 20
-145.886612
 30
0.0
 11
351.76042
 21
-151.886612
 31
0.0
  0
LINE
  5
6E9
100
AcDbEntity
  8
2
100
AcDbLine
 10
351.76042
 20
-93.386612
 30
0.0
 11
351.76042
 21
-99.886612
 31
0.0
  0
LINE
  5
6EA
100
AcDbEntity
  8
2
100
AcDbLine
 10
351.76042
 20
-103.886612
 30
0.0
 11
351.76042
 21
-106.886612
 31
0.0
  0
LINE
  5
6EB
100
AcDbEntity
  8
2
100
AcDbLine
 10
351.76042
 20
-110.886612
 30
0.0
 11
351.76042
 21
-113.886612
 31
0.0
  0
LINE
  5
6EC
100
AcDbEntity
  8
2
100
AcDbLine
 10
351.76042
 20
-117.886612
 30
0.0
 11
351.76042
 21
-120.886612
 31
0.0
  0
LINE
  5
6ED
100
AcDbEntity
  8
2
100
AcDbLine
 10
351.76042
 20
-124.886612
 30
0.0
 11
351.76042
 21
-127.886612
 31
0.0
  0
LINE
  5
6EE
100
AcDbEntity
  8
2
100
AcDbLine
 10
351.76042
 20
-131.886612
 30
0.0
 11
351.76042
 21
-134.886612
 31
0.0
  0
LINE
  5
6EF
100
AcDbEntity
  8
2
100
AcDbLine
 10
351.76042
 20
-138.886612
 30
0.0
 11
351.76042
 21
-141.886612
 31
0.0
  0
LINE
  5
6F0
100
AcDbEntity
  8
2
100
AcDbLine
 10
376.76042
 20
-145.886612
 30
0.0
 11
376.76042
 21
-151.886612
 31
0.0
  0
LINE
  5
6F1
100
AcDbEntity
  8
2
100
AcDbLine
 10
376.76042
 20
-93.386612
 30
0.0
 11
376.76042
 21
-99.886612
 31
0.0
  0
LINE
  5
6F2
100
AcDbEntity
  8
2
100
AcDbLine
 10
376.76042
 20
-103.886612
 30
0.0
 11
376.76042
 21
-106.886612
 31
0.0
  0
LINE
  5
6F3
100
AcDbEntity
  8
2
100
AcDbLine
 10
376.76042
 20
-110.886612
 30
0.0
 11
376.76042
 21
-113.886612
 31
0.0
  0
LINE
  5
6F4
100
AcDbEntity
  8
2
100
AcDbLine
 10
376.76042
 20
-117.886612
 30
0.0
 11
376.76042
 21
-120.886612
 31
0.0
  0
LINE
  5
6F5
100
AcDbEntity
  8
2
100
AcDbLine
 10
376.76042
 20
-124.886612
 30
0.0
 11
376.76042
 21
-127.886612
 31
0.0
  0
LINE
  5
6F6
100
AcDbEntity
  8
2
100
AcDbLine
 10
376.76042
 20
-131.886612
 30
0.0
 11
376.76042
 21
-134.886612
 31
0.0
  0
LINE
  5
6F7
100
AcDbEntity
  8
2
100
AcDbLine
 10
376.76042
 20
-138.886612
 30
0.0
 11
376.76042
 21
-141.886612
 31
0.0
  0
LINE
  5
6F8
100
AcDbEntity
  8
2
100
AcDbLine
 10
363.902161
 20
-93.386612
 30
0.0
 11
353.618679
 21
-93.386612
 31
0.0
  0
LINE
  5
6F9
100
AcDbEntity
  8
2
100
AcDbLine
 10
353.26042
 20
-93.386612
 30
0.0
 11
351.76042
 21
-93.386612
 31
0.0
  0
LINE
  5
6FA
100
AcDbEntity
  8
2
100
AcDbLine
 10
376.76042
 20
-93.386612
 30
0.0
 11
375.26042
 21
-93.386612
 31
0.0
  0
LINE
  5
6FB
100
AcDbEntity
  8
2
100
AcDbLine
 10
374.902161
 20
-93.386612
 30
0.0
 11
364.618679
 21
-93.386612
 31
0.0
  0
LINE
  5
6FC
100
AcDbEntity
  8
2
100
AcDbLine
 10
371.152907
 20
-99.886612
 30
0.0
 11
357.367933
 21
-99.886612
 31
0.0
  0
LINE
  5
6FD
100
AcDbEntity
  8
2
100
AcDbLine
 10
371.152907
 20
-103.886612
 30
0.0
 11
357.367933
 21
-103.886612
 31
0.0
  0
LINE
  5
6FE
100
AcDbEntity
  8
2
100
AcDbLine
 10
371.152907
 20
-106.886612
 30
0.0
 11
357.367933
 21
-106.886612
 31
0.0
  0
LINE
  5
6FF
100
AcDbEntity
  8
2
100
AcDbLine
 10
371.152907
 20
-110.886612
 30
0.0
 11
357.367933
 21
-110.886612
 31
0.0
  0
LINE
  5
700
100
AcDbEntity
  8
2
100
AcDbLine
 10
371.152907
 20
-113.886612
 30
0.0
 11
357.367933
 21
-113.886612
 31
0.0
  0
LINE
  5
701
100
AcDbEntity
  8
2
100
AcDbLine
 10
371.152907
 20
-117.886612
 30
0.0
 11
357.367933
 21
-117.886612
 31
0.0
  0
LINE
  5
702
100
AcDbEntity
  8
2
100
AcDbLine
 10
371.152907
 20
-120.886612
 30
0.0
 11
357.367933
 21
-120.886612
 31
0.0
  0
LINE
  5
703
100
AcDbEntity
  8
2
100
AcDbLine
 10
371.152907
 20
-124.886612
 30
0.0
 11
357.367933
 21
-124.886612
 31
0.0
  0
LINE
  5
704
100
AcDbEntity
  8
2
100
AcDbLine
 10
371.152907
 20
-127.886612
 30
0.0
 11
357.367933
 21
-127.886612
 31
0.0
  0
LINE
  5
705
100
AcDbEntity
  8
2
100
AcDbLine
 10
371.152907
 20
-131.886612
 30
0.0
 11
357.367933
 21
-131.886612
 31
0.0
  0
LINE
  5
706
100
AcDbEntity
  8
2
100
AcDbLine
 10
371.152907
 20
-134.886612
 30
0.0
 11
357.367933
 21
-134.886612
 31
0.0
  0
LINE
  5
707
100
AcDbEntity
  8
2
100
AcDbLine
 10
371.152907
 20
-138.886612
 30
0.0
 11
357.367933
 21
-138.886612
 31
0.0
  0
LINE
  5
708
100
AcDbEntity
  8
2
100
AcDbLine
 10
371.152907
 20
-141.886612
 30
0.0
 11
357.367933
 21
-141.886612
 31
0.0
  0
LINE
  5
709
100
AcDbEntity
  8
2
100
AcDbLine
 10
371.152907
 20
-145.886612
 30
0.0
 11
357.367933
 21
-145.886612
 31
0.0
  0
LINE
  5
70A
100
AcDbEntity
  8
2
100
AcDbLine
 10
353.832399
 20
-145.886612
 30
0.0
 11
351.76042
 21
-145.886612
 31
0.0
  0
LINE
  5
70B
100
AcDbEntity
  8
2
100
AcDbLine
 10
353.832399
 20
-141.886612
 30
0.0
 11
351.76042
 21
-141.886612
 31
0.0
  0
LINE
  5
70C
100
AcDbEntity
  8
2
100
AcDbLine
 10
353.832399
 20
-138.886612
 30
0.0
 11
351.76042
 21
-138.886612
 31
0.0
  0
LINE
  5
70D
100
AcDbEntity
  8
2
100
AcDbLine
 10
353.832399
 20
-134.886612
 30
0.0
 11
351.76042
 21
-134.886612
 31
0.0
  0
LINE
  5
70E
100
AcDbEntity
  8
2
100
AcDbLine
 10
353.832399
 20
-131.886612
 30
0.0
 11
351.76042
 21
-131.886612
 31
0.0
  0
LINE
  5
70F
100
AcDbEntity
  8
2
100
AcDbLine
 10
353.832399
 20
-127.886612
 30
0.0
 11
351.76042
 21
-127.886612
 31
0.0
  0
LINE
  5
710
100
AcDbEntity
  8
2
100
AcDbLine
 10
353.832399
 20
-124.886612
 30
0.0
 11
351.76042
 21
-124.886612
 31
0.0
  0
LINE
  5
711
100
AcDbEntity
  8
2
100
AcDbLine
 10
353.832399
 20
-120.886612
 30
0.0
 11
351.76042
 21
-120.886612
 31
0.0
  0
LINE
  5
712
100
AcDbEntity
  8
2
100
AcDbLine
 10
353.832399
 20
-117.886612
 30
0.0
 11
351.76042
 21
-117.886612
 31
0.0
  0
LINE
  5
713
100
AcDbEntity
  8
2
100
AcDbLine
 10
353.832399
 20
-113.886612
 30
0.0
 11
351.76042
 21
-113.886612
 31
0.0
  0
LINE
  5
714
100
AcDbEntity
  8
2
100
AcDbLine
 10
353.832399
 20
-110.886612
 30
0.0
 11
351.76042
 21
-110.886612
 31
0.0
  0
LINE
  5
715
100
AcDbEntity
  8
2
100
AcDbLine
 10
353.832399
 20
-106.886612
 30
0.0
 11
351.76042
 21
-106.886612
 31
0.0
  0
LINE
  5
716
100
AcDbEntity
  8
2
100
AcDbLine
 10
353.832399
 20
-103.886612
 30
0.0
 11
351.76042
 21
-103.886612
 31
0.0
  0
LINE
  5
717
100
AcDbEntity
  8
2
100
AcDbLine
 10
353.832399
 20
-99.886612
 30
0.0
 11
351.76042
 21
-99.886612
 31
0.0
  0
LINE
  5
718
100
AcDbEntity
  8
2
100
AcDbLine
 10
353.832399
 20
-141.886612
 30
0.0
 11
353.832399
 21
-145.886612
 31
0.0
  0
LINE
  5
719
100
AcDbEntity
  8
2
100
AcDbLine
 10
357.367933
 20
-141.886612
 30
0.0
 11
357.367933
 21
-145.886612
 31
0.0
  0
LINE
  5
71A
100
AcDbEntity
  8
2
100
AcDbLine
 10
353.832399
 20
-134.886612
 30
0.0
 11
353.832399
 21
-138.886612
 31
0.0
  0
LINE
  5
71B
100
AcDbEntity
  8
2
100
AcDbLine
 10
353.832399
 20
-127.886612
 30
0.0
 11
353.832399
 21
-131.886612
 31
0.0
  0
LINE
  5
71C
100
AcDbEntity
  8
2
100
AcDbLine
 10
353.832399
 20
-120.886612
 30
0.0
 11
353.832399
 21
-124.886612
 31
0.0
  0
LINE
  5
71D
100
AcDbEntity
  8
2
100
AcDbLine
 10
353.832399
 20
-113.886612
 30
0.0
 11
353.832399
 21
-117.886612
 31
0.0
  0
LINE
  5
71E
100
AcDbEntity
  8
2
100
AcDbLine
 10
353.832399
 20
-99.886612
 30
0.0
 11
353.832399
 21
-103.886612
 31
0.0
  0
LINE
  5
71F
100
AcDbEntity
  8
2
100
AcDbLine
 10
353.832399
 20
-106.886612
 30
0.0
 11
353.832399
 21
-110.886612
 31
0.0
  0
LINE
  5
720
100
AcDbEntity
  8
2
100
AcDbLine
 10
374.688441
 20
-145.886612
 30
0.0
 11
376.76042
 21
-145.886612
 31
0.0
  0
LINE
  5
721
100
AcDbEntity
  8
2
100
AcDbLine
 10
374.688441
 20
-141.886612
 30
0.0
 11
376.76042
 21
-141.886612
 31
0.0
  0
LINE
  5
722
100
AcDbEntity
  8
2
100
AcDbLine
 10
374.688441
 20
-138.886612
 30
0.0
 11
376.76042
 21
-138.886612
 31
0.0
  0
LINE
  5
723
100
AcDbEntity
  8
2
100
AcDbLine
 10
374.688441
 20
-134.886612
 30
0.0
 11
376.76042
 21
-134.886612
 31
0.0
  0
LINE
  5
724
100
AcDbEntity
  8
2
100
AcDbLine
 10
374.688441
 20
-131.886612
 30
0.0
 11
376.76042
 21
-131.886612
 31
0.0
  0
LINE
  5
725
100
AcDbEntity
  8
2
100
AcDbLine
 10
374.688441
 20
-127.886612
 30
0.0
 11
376.76042
 21
-127.886612
 31
0.0
  0
LINE
  5
726
100
AcDbEntity
  8
2
100
AcDbLine
 10
374.688441
 20
-124.886612
 30
0.0
 11
376.76042
 21
-124.886612
 31
0.0
  0
LINE
  5
727
100
AcDbEntity
  8
2
100
AcDbLine
 10
374.688441
 20
-120.886612
 30
0.0
 11
376.76042
 21
-120.886612
 31
0.0
  0
LINE
  5
728
100
AcDbEntity
  8
2
100
AcDbLine
 10
374.688441
 20
-117.886612
 30
0.0
 11
376.76042
 21
-117.886612
 31
0.0
  0
LINE
  5
729
100
AcDbEntity
  8
2
100
AcDbLine
 10
374.688441
 20
-113.886612
 30
0.0
 11
376.76042
 21
-113.886612
 31
0.0
  0
LINE
  5
72A
100
AcDbEntity
  8
2
100
AcDbLine
 10
374.688441
 20
-110.886612
 30
0.0
 11
376.76042
 21
-110.886612
 31
0.0
  0
LINE
  5
72B
100
AcDbEntity
  8
2
100
AcDbLine
 10
374.688441
 20
-106.886612
 30
0.0
 11
376.76042
 21
-106.886612
 31
0.0
  0
LINE
  5
72C
100
AcDbEntity
  8
2
100
AcDbLine
 10
374.688441
 20
-103.886612
 30
0.0
 11
376.76042
 21
-103.886612
 31
0.0
  0
LINE
  5
72D
100
AcDbEntity
  8
2
100
AcDbLine
 10
374.688441
 20
-99.886612
 30
0.0
 11
376.76042
 21
-99.886612
 31
0.0
  0
LINE
  5
72E
100
AcDbEntity
  8
2
100
AcDbLine
 10
374.688441
 20
-141.886612
 30
0.0
 11
374.688441
 21
-145.886612
 31
0.0
  0
LINE
  5
72F
100
AcDbEntity
  8
2
100
AcDbLine
 10
374.688441
 20
-134.886612
 30
0.0
 11
374.688441
 21
-138.886612
 31
0.0
  0
LINE
  5
730
100
AcDbEntity
  8
2
100
AcDbLine
 10
374.688441
 20
-127.886612
 30
0.0
 11
374.688441
 21
-131.886612
 31
0.0
  0
LINE
  5
731
100
AcDbEntity
  8
2
100
AcDbLine
 10
374.688441
 20
-120.886612
 30
0.0
 11
374.688441
 21
-124.886612
 31
0.0
  0
LINE
  5
732
100
AcDbEntity
  8
2
100
AcDbLine
 10
374.688441
 20
-113.886612
 30
0.0
 11
374.688441
 21
-117.886612
 31
0.0
  0
LINE
  5
733
100
AcDbEntity
  8
2
100
AcDbLine
 10
374.688441
 20
-99.886612
 30
0.0
 11
374.688441
 21
-103.886612
 31
0.0
  0
LINE
  5
734
100
AcDbEntity
  8
2
100
AcDbLine
 10
374.688441
 20
-106.886612
 30
0.0
 11
374.688441
 21
-110.886612
 31
0.0
  0
LINE
  5
735
100
AcDbEntity
  8
2
100
AcDbLine
 10
359.181655
 20
-141.886612
 30
0.0
 11
359.181655
 21
-145.886612
 31
0.0
  0
LINE
  5
736
100
AcDbEntity
  8
2
100
AcDbLine
 10
369.339185
 20
-141.886612
 30
0.0
 11
369.339185
 21
-145.886612
 31
0.0
  0
LINE
  5
737
100
AcDbEntity
  8
2
100
AcDbLine
 10
371.152907
 20
-141.886612
 30
0.0
 11
371.152907
 21
-145.886612
 31
0.0
  0
LINE
  5
738
100
AcDbEntity
  8
2
100
AcDbLine
 10
359.181655
 20
-134.886612
 30
0.0
 11
359.181655
 21
-138.886612
 31
0.0
  0
LINE
  5
739
100
AcDbEntity
  8
2
100
AcDbLine
 10
357.367933
 20
-134.886612
 30
0.0
 11
357.367933
 21
-138.886612
 31
0.0
  0
LINE
  5
73A
100
AcDbEntity
  8
2
100
AcDbLine
 10
369.339185
 20
-134.886612
 30
0.0
 11
369.339185
 21
-138.886612
 31
0.0
  0
LINE
  5
73B
100
AcDbEntity
  8
2
100
AcDbLine
 10
371.152907
 20
-134.886612
 30
0.0
 11
371.152907
 21
-138.886612
 31
0.0
  0
LINE
  5
73C
100
AcDbEntity
  8
2
100
AcDbLine
 10
357.367933
 20
-127.886612
 30
0.0
 11
357.367933
 21
-131.886612
 31
0.0
  0
LINE
  5
73D
100
AcDbEntity
  8
2
100
AcDbLine
 10
359.181655
 20
-127.886612
 30
0.0
 11
359.181655
 21
-131.886612
 31
0.0
  0
LINE
  5
73E
100
AcDbEntity
  8
2
100
AcDbLine
 10
369.339185
 20
-127.886612
 30
0.0
 11
369.339185
 21
-131.886612
 31
0.0
  0
LINE
  5
73F
100
AcDbEntity
  8
2
100
AcDbLine
 10
371.152907
 20
-127.886612
 30
0.0
 11
371.152907
 21
-131.886612
 31
0.0
  0
LINE
  5
740
100
AcDbEntity
  8
2
100
AcDbLine
 10
357.367933
 20
-120.886612
 30
0.0
 11
357.367933
 21
-124.886612
 31
0.0
  0
LINE
  5
741
100
AcDbEntity
  8
2
100
AcDbLine
 10
359.181655
 20
-120.886612
 30
0.0
 11
359.181655
 21
-124.886612
 31
0.0
  0
LINE
  5
742
100
AcDbEntity
  8
2
100
AcDbLine
 10
369.339185
 20
-120.886612
 30
0.0
 11
369.339185
 21
-124.886612
 31
0.0
  0
LINE
  5
743
100
AcDbEntity
  8
2
100
AcDbLine
 10
371.152907
 20
-120.886612
 30
0.0
 11
371.152907
 21
-124.886612
 31
0.0
  0
LINE
  5
744
100
AcDbEntity
  8
2
100
AcDbLine
 10
357.367933
 20
-113.886612
 30
0.0
 11
357.367933
 21
-117.886612
 31
0.0
  0
LINE
  5
745
100
AcDbEntity
  8
2
100
AcDbLine
 10
359.181655
 20
-113.886612
 30
0.0
 11
359.181655
 21
-117.886612
 31
0.0
  0
LINE
  5
746
100
AcDbEntity
  8
2
100
AcDbLine
 10
369.339185
 20
-113.886612
 30
0.0
 11
369.339185
 21
-117.886612
 31
0.0
  0
LINE
  5
747
100
AcDbEntity
  8
2
100
AcDbLine
 10
371.152907
 20
-113.886612
 30
0.0
 11
371.152907
 21
-117.886612
 31
0.0
  0
LINE
  5
748
100
AcDbEntity
  8
2
100
AcDbLine
 10
357.367933
 20
-99.886612
 30
0.0
 11
357.367933
 21
-103.886612
 31
0.0
  0
LINE
  5
749
100
AcDbEntity
  8
2
100
AcDbLine
 10
357.367933
 20
-106.886612
 30
0.0
 11
357.367933
 21
-110.886612
 31
0.0
  0
LINE
  5
74A
100
AcDbEntity
  8
2
100
AcDbLine
 10
359.181655
 20
-99.886612
 30
0.0
 11
359.181655
 21
-103.886612
 31
0.0
  0
LINE
  5
74B
100
AcDbEntity
  8
2
100
AcDbLine
 10
359.181655
 20
-106.886612
 30
0.0
 11
359.181655
 21
-110.886612
 31
0.0
  0
LINE
  5
74C
100
AcDbEntity
  8
2
100
AcDbLine
 10
369.339185
 20
-99.886612
 30
0.0
 11
369.339185
 21
-103.886612
 31
0.0
  0
LINE
  5
74D
100
AcDbEntity
  8
2
100
AcDbLine
 10
369.339185
 20
-106.886612
 30
0.0
 11
369.339185
 21
-110.886612
 31
0.0
  0
LINE
  5
74E
100
AcDbEntity
  8
2
100
AcDbLine
 10
371.152907
 20
-99.886612
 30
0.0
 11
371.152907
 21
-103.886612
 31
0.0
  0
LINE
  5
74F
100
AcDbEntity
  8
2
100
AcDbLine
 10
371.152907
 20
-106.886612
 30
0.0
 11
371.152907
 21
-110.886612
 31
0.0
  0
LINE
  5
750
100
AcDbEntity
  8
2
100
AcDbLine
 10
363.902161
 20
-83.386612
 30
0.0
 11
363.902161
 21
-93.386612
 31
0.0
  0
LINE
  5
751
100
AcDbEntity
  8
2
100
AcDbLine
 10
364.618679
 20
-83.386612
 30
0.0
 11
364.618679
 21
-93.386612
 31
0.0
  0
LINE
  5
752
100
AcDbEntity
  8
2
100
AcDbLine
 10
353.618679
 20
-83.386612
 30
0.0
 11
353.618679
 21
-93.386612
 31
0.0
  0
LINE
  5
753
100
AcDbEntity
  8
2
100
AcDbLine
 10
374.902161
 20
-83.386612
 30
0.0
 11
374.902161
 21
-93.386612
 31
0.0
  0
LINE
  5
754
100
AcDbEntity
  8
2
100
AcDbLine
 10
-1118.73958
 20
631.613388
 30
0.0
 11
-1118.73958
 21
657.613388
 31
0.0
  0
LINE
  5
755
100
AcDbEntity
  8
2
100
AcDbLine
 10
-1134.73958
 20
624.213388
 30
0.0
 11
-1134.73958
 21
629.113388
 31
0.0
  0
LINE
  5
756
100
AcDbEntity
  8
2
100
AcDbLine
 10
-1148.73958
 20
624.213388
 30
0.0
 11
-1148.73958
 21
638.113388
 31
0.0
  0
LINE
  5
757
100
AcDbEntity
  8
2
100
AcDbLine
 10
-1118.73958
 20
631.613388
 30
0.0
 11
-1122.803088
 21
631.613388
 31
0.0
  0
LINE
  5
758
100
AcDbEntity
  8
2
100
AcDbLine
 10
-1118.73958
 20
657.613388
 30
0.0
 11
-1122.803088
 21
657.613388
 31
0.0
  0
LINE
  5
759
100
AcDbEntity
  8
2
100
AcDbLine
 10
-1123.73958
 20
633.113388
 30
0.0
 11
-1123.73958
 21
656.113388
 31
0.0
  0
LINE
  5
75A
100
AcDbEntity
  8
2
100
AcDbLine
 10
-1124.73958
 20
633.113388
 30
0.0
 11
-1130.73958
 21
633.113388
 31
0.0
  0
LINE
  5
75B
100
AcDbEntity
  8
2
100
AcDbLine
 10
-1124.73958
 20
656.113388
 30
0.0
 11
-1130.73958
 21
656.113388
 31
0.0
  0
ARC
  5
75C
100
AcDbEntity
  8
2
100
AcDbCircle
 10
-1124.73958
 20
657.113388
 30
0.0
 40
1.0
100
AcDbArc
 50
270.0
 51
345.522488
  0
ARC
  5
75D
100
AcDbEntity
  8
2
100
AcDbCircle
 10
-1124.73958
 20
632.113388
 30
0.0
 40
1.0
100
AcDbArc
 50
14.477512
 51
90.0
  0
ARC
  5
75E
100
AcDbEntity
  8
2
100
AcDbCircle
 10
-1122.803088
 20
656.613388
 30
0.0
 40
1.0
100
AcDbArc
 50
90.0
 51
165.522488
  0
ARC
  5
75F
100
AcDbEntity
  8
2
100
AcDbCircle
 10
-1122.803088
 20
632.613388
 30
0.0
 40
1.0
100
AcDbArc
 50
194.477512
 51
270.0
  0
LINE
  5
760
100
AcDbEntity
  8
2
100
AcDbLine
 10
-1134.025517
 20
623.613388
 30
0.0
 11
-1149.453642
 21
623.613388
 31
0.0
  0
ARC
  5
761
100
AcDbEntity
  8
2
100
AcDbCircle
 10
-1130.73958
 20
629.113388
 30
0.0
 40
4.0
100
AcDbArc
 50
90.0
 51
180.0
  0
ARC
  5
762
100
AcDbEntity
  8
2
100
AcDbCircle
 10
-1130.73958
 20
638.113388
 30
0.0
 40
18.0
100
AcDbArc
 50
90.0
 51
180.0
  0
LINE
  5
763
100
AcDbEntity
  8
2
100
AcDbLine
 10
-1150.283703
 20
622.783327
 30
0.0
 11
-1150.090892
 21
616.613388
 31
0.0
  0
LINE
  5
764
100
AcDbEntity
  8
2
 62
     2
100
AcDbLine
 10
-1149.453642
 20
623.613388
 30
0.0
 11
-1149.234892
 21
616.613388
 31
0.0
  0
LINE
  5
765
100
AcDbEntity
  8
2
100
AcDbLine
 10
-1133.195457
 20
622.783327
 30
0.0
 11
-1133.388267
 21
616.613388
 31
0.0
  0
LINE
  5
766
100
AcDbEntity
  8
2
 62
     2
100
AcDbLine
 10
-1134.025517
 20
623.613388
 30
0.0
 11
-1134.244267
 21
616.613388
 31
0.0
  0
LINE
  5
767
100
AcDbEntity
  8
2
100
AcDbLine
 10
-1134.025517
 20
623.613388
 30
0.0
 11
-1133.195457
 21
622.783327
 31
0.0
  0
LINE
  5
768
100
AcDbEntity
  8
2
100
AcDbLine
 10
-1149.453642
 20
623.613388
 30
0.0
 11
-1150.283703
 21
622.783327
 31
0.0
  0
LINE
  5
769
100
AcDbEntity
  8
2
100
AcDbLine
 10
-1133.195457
 20
622.783327
 30
0.0
 11
-1150.283703
 21
622.783327
 31
0.0
  0
ARC
  5
76A
100
AcDbEntity
  8
2
100
AcDbCircle
 10
-1134.13958
 20
624.213388
 30
0.0
 40
0.6
100
AcDbArc
 50
180.0
 51
270.0
  0
ARC
  5
76B
100
AcDbEntity
  8
2
100
AcDbCircle
 10
-1149.33958
 20
624.213388
 30
0.0
 40
0.6
100
AcDbArc
 50
270.0
 51
360.0
  0
LINE
  5
76C
100
AcDbEntity
  8
2
  6
CENTER
 62
     2
100
AcDbLine
 10
-1072.73958
 20
662.841014
 30
0.0
 11
-1072.73958
 21
626.794618
 31
0.0
  0
LINE
  5
76D
100
AcDbEntity
  8
2
  6
CENTER
 62
     2
100
AcDbLine
 10
-967.770663
 20
644.613388
 30
0.0
 11
-1157.657377
 21
644.613388
 31
0.0
  0
LINE
  5
76E
100
AcDbEntity
  8
2
100
AcDbLine
 10
-1076.203681
 20
638.613388
 30
0.0
 11
-1069.275478
 21
638.613388
 31
0.0
  0
LINE
  5
76F
100
AcDbEntity
  8
2
100
AcDbLine
 10
-1076.203681
 20
650.613388
 30
0.0
 11
-1069.275478
 21
650.613388
 31
0.0
  0
LINE
  5
770
100
AcDbEntity
  8
2
100
AcDbLine
 10
-1065.811376
 20
644.613388
 30
0.0
 11
-1069.275478
 21
638.613388
 31
0.0
  0
LINE
  5
771
100
AcDbEntity
  8
2
100
AcDbLine
 10
-1076.203681
 20
650.613388
 30
0.0
 11
-1079.667783
 21
644.613388
 31
0.0
  0
LINE
  5
772
100
AcDbEntity
  8
2
100
AcDbLine
 10
-1079.667783
 20
644.613388
 30
0.0
 11
-1076.203681
 21
638.613388
 31
0.0
  0
LINE
  5
773
100
AcDbEntity
  8
2
100
AcDbLine
 10
-1065.811376
 20
644.613388
 30
0.0
 11
-1069.275478
 21
650.613388
 31
0.0
  0
CIRCLE
  5
774
100
AcDbEntity
  8
2
100
AcDbCircle
 10
-1072.73958
 20
644.613388
 30
0.0
 40
6.0
  0
LINE
  5
775
100
AcDbEntity
  8
2
100
AcDbLine
 10
-1102.73958
 20
631.613388
 30
0.0
 11
-1048.73958
 21
631.613388
 31
0.0
  0
LINE
  5
776
100
AcDbEntity
  8
2
100
AcDbLine
 10
-1102.73958
 20
657.613388
 30
0.0
 11
-1048.73958
 21
657.613388
 31
0.0
  0
LINE
  5
777
100
AcDbEntity
  8
2
100
AcDbLine
 10
-1047.73958
 20
656.613388
 30
0.0
 11
-1047.73958
 21
632.613388
 31
0.0
  0
LINE
  5
778
100
AcDbEntity
  8
2
100
AcDbLine
 10
-1103.73958
 20
656.613388
 30
0.0
 11
-1103.73958
 21
632.613388
 31
0.0
  0
LINE
  5
779
100
AcDbEntity
  8
2
100
AcDbLine
 10
-1102.73958
 20
633.113388
 30
0.0
 11
-1048.73958
 21
633.113388
 31
0.0
  0
LINE
  5
77A
100
AcDbEntity
  8
2
100
AcDbLine
 10
-1102.73958
 20
656.113388
 30
0.0
 11
-1048.73958
 21
656.113388
 31
0.0
  0
LINE
  5
77B
100
AcDbEntity
  8
2
100
AcDbLine
 10
-1102.73958
 20
657.613388
 30
0.0
 11
-1102.73958
 21
631.613388
 31
0.0
  0
LINE
  5
77C
100
AcDbEntity
  8
2
100
AcDbLine
 10
-1048.73958
 20
657.613388
 30
0.0
 11
-1048.73958
 21
631.613388
 31
0.0
  0
LINE
  5
77D
100
AcDbEntity
  8
2
100
AcDbLine
 10
-1102.73958
 20
631.613388
 30
0.0
 11
-1103.73958
 21
632.613388
 31
0.0
  0
LINE
  5
77E
100
AcDbEntity
  8
2
100
AcDbLine
 10
-1048.73958
 20
631.613388
 30
0.0
 11
-1047.73958
 21
632.613388
 31
0.0
  0
LINE
  5
77F
100
AcDbEntity
  8
2
100
AcDbLine
 10
-1047.73958
 20
656.613388
 30
0.0
 11
-1048.73958
 21
657.613388
 31
0.0
  0
LINE
  5
780
100
AcDbEntity
  8
2
100
AcDbLine
 10
-1102.73958
 20
657.613388
 30
0.0
 11
-1103.73958
 21
656.613388
 31
0.0
  0
LINE
  5
781
100
AcDbEntity
  8
2
100
AcDbLine
 10
-1102.73958
 20
633.113388
 30
0.0
 11
-1103.73958
 21
632.613388
 31
0.0
  0
LINE
  5
782
100
AcDbEntity
  8
2
100
AcDbLine
 10
-1048.73958
 20
633.113388
 30
0.0
 11
-1047.73958
 21
632.613388
 31
0.0
  0
LINE
  5
783
100
AcDbEntity
  8
2
100
AcDbLine
 10
-1048.73958
 20
656.113388
 30
0.0
 11
-1047.73958
 21
656.613388
 31
0.0
  0
LINE
  5
784
100
AcDbEntity
  8
2
100
AcDbLine
 10
-1103.73958
 20
656.613388
 30
0.0
 11
-1102.73958
 21
656.113388
 31
0.0
  0
CIRCLE
  5
785
100
AcDbEntity
  8
2
100
AcDbCircle
 10
-1072.73958
 20
644.613388
 30
0.0
 40
8.0
  0
LINE
  5
786
100
AcDbEntity
  8
2
100
AcDbLine
 10
-1071.23958
 20
649.383084
 30
0.0
 11
-1071.23958
 21
639.843692
 31
0.0
  0
LINE
  5
787
100
AcDbEntity
  8
2
100
AcDbLine
 10
-1074.23958
 20
649.383084
 30
0.0
 11
-1074.23958
 21
639.843692
 31
0.0
  0
CIRCLE
  5
788
100
AcDbEntity
  8
2
100
AcDbCircle
 10
-1072.73958
 20
644.613388
 30
0.0
 40
5.0
  0
ARC
  5
789
100
AcDbEntity
  8
2
100
AcDbCircle
 10
-1072.73958
 20
644.613388
 30
0.0
 40
4.5
100
AcDbArc
 50
289.471221
 51
70.528779
  0
ARC
  5
78A
100
AcDbEntity
  8
2
100
AcDbCircle
 10
-1072.73958
 20
644.613388
 30
0.0
 40
4.5
100
AcDbArc
 50
109.471221
 51
250.528779
  0
LINE
  5
78B
100
AcDbEntity
  8
2
  6
CENTER
 62
     2
100
AcDbLine
 10
-1007.73958
 20
662.841014
 30
0.0
 11
-1007.73958
 21
626.794618
 31
0.0
  0
LINE
  5
78C
100
AcDbEntity
  8
2
100
AcDbLine
 10
-1004.275478
 20
638.613388
 30
0.0
 11
-1011.203681
 21
638.613388
 31
0.0
  0
LINE
  5
78D
100
AcDbEntity
  8
2
100
AcDbLine
 10
-1004.275478
 20
650.613388
 30
0.0
 11
-1011.203681
 21
650.613388
 31
0.0
  0
LINE
  5
78E
100
AcDbEntity
  8
2
100
AcDbLine
 10
-1014.667783
 20
644.613388
 30
0.0
 11
-1011.203681
 21
638.613388
 31
0.0
  0
LINE
  5
78F
100
AcDbEntity
  8
2
100
AcDbLine
 10
-1004.275478
 20
650.613388
 30
0.0
 11
-1000.811376
 21
644.613388
 31
0.0
  0
LINE
  5
790
100
AcDbEntity
  8
2
100
AcDbLine
 10
-1000.811376
 20
644.613388
 30
0.0
 11
-1004.275478
 21
638.613388
 31
0.0
  0
LINE
  5
791
100
AcDbEntity
  8
2
100
AcDbLine
 10
-1014.667783
 20
644.613388
 30
0.0
 11
-1011.203681
 21
650.613388
 31
0.0
  0
CIRCLE
  5
792
100
AcDbEntity
  8
2
100
AcDbCircle
 10
-1007.73958
 20
644.613388
 30
0.0
 40
6.0
  0
LINE
  5
793
100
AcDbEntity
  8
2
100
AcDbLine
 10
-977.73958
 20
631.613388
 30
0.0
 11
-1031.73958
 21
631.613388
 31
0.0
  0
LINE
  5
794
100
AcDbEntity
  8
2
100
AcDbLine
 10
-977.73958
 20
657.613388
 30
0.0
 11
-1031.73958
 21
657.613388
 31
0.0
  0
LINE
  5
795
100
AcDbEntity
  8
2
100
AcDbLine
 10
-1032.73958
 20
656.613388
 30
0.0
 11
-1032.73958
 21
632.613388
 31
0.0
  0
LINE
  5
796
100
AcDbEntity
  8
2
100
AcDbLine
 10
-976.73958
 20
656.613388
 30
0.0
 11
-976.73958
 21
632.613388
 31
0.0
  0
LINE
  5
797
100
AcDbEntity
  8
2
100
AcDbLine
 10
-977.73958
 20
633.113388
 30
0.0
 11
-1031.73958
 21
633.113388
 31
0.0
  0
LINE
  5
798
100
AcDbEntity
  8
2
100
AcDbLine
 10
-977.73958
 20
656.113388
 30
0.0
 11
-1031.73958
 21
656.113388
 31
0.0
  0
LINE
  5
799
100
AcDbEntity
  8
2
100
AcDbLine
 10
-977.73958
 20
657.613388
 30
0.0
 11
-977.73958
 21
631.613388
 31
0.0
  0
LINE
  5
79A
100
AcDbEntity
  8
2
100
AcDbLine
 10
-1031.73958
 20
657.613388
 30
0.0
 11
-1031.73958
 21
631.613388
 31
0.0
  0
LINE
  5
79B
100
AcDbEntity
  8
2
100
AcDbLine
 10
-977.73958
 20
631.613388
 30
0.0
 11
-976.73958
 21
632.613388
 31
0.0
  0
LINE
  5
79C
100
AcDbEntity
  8
2
100
AcDbLine
 10
-1031.73958
 20
631.613388
 30
0.0
 11
-1032.73958
 21
632.613388
 31
0.0
  0
LINE
  5
79D
100
AcDbEntity
  8
2
100
AcDbLine
 10
-1032.73958
 20
656.613388
 30
0.0
 11
-1031.73958
 21
657.613388
 31
0.0
  0
LINE
  5
79E
100
AcDbEntity
  8
2
100
AcDbLine
 10
-977.73958
 20
657.613388
 30
0.0
 11
-976.73958
 21
656.613388
 31
0.0
  0
LINE
  5
79F
100
AcDbEntity
  8
2
100
AcDbLine
 10
-977.73958
 20
633.113388
 30
0.0
 11
-976.73958
 21
632.613388
 31
0.0
  0
LINE
  5
7A0
100
AcDbEntity
  8
2
100
AcDbLine
 10
-1031.73958
 20
633.113388
 30
0.0
 11
-1032.73958
 21
632.613388
 31
0.0
  0
LINE
  5
7A1
100
AcDbEntity
  8
2
100
AcDbLine
 10
-1031.73958
 20
656.113388
 30
0.0
 11
-1032.73958
 21
656.613388
 31
0.0
  0
LINE
  5
7A2
100
AcDbEntity
  8
2
100
AcDbLine
 10
-976.73958
 20
656.613388
 30
0.0
 11
-977.73958
 21
656.113388
 31
0.0
  0
CIRCLE
  5
7A3
100
AcDbEntity
  8
2
100
AcDbCircle
 10
-1007.73958
 20
644.613388
 30
0.0
 40
8.0
  0
LINE
  5
7A4
100
AcDbEntity
  8
2
100
AcDbLine
 10
-1009.23958
 20
649.383084
 30
0.0
 11
-1009.23958
 21
639.843692
 31
0.0
  0
LINE
  5
7A5
100
AcDbEntity
  8
2
100
AcDbLine
 10
-1006.23958
 20
649.383084
 30
0.0
 11
-1006.23958
 21
639.843692
 31
0.0
  0
CIRCLE
  5
7A6
100
AcDbEntity
  8
2
100
AcDbCircle
 10
-1007.73958
 20
644.613388
 30
0.0
 40
5.0
  0
ARC
  5
7A7
100
AcDbEntity
  8
2
100
AcDbCircle
 10
-1007.73958
 20
644.613388
 30
0.0
 40
4.5
100
AcDbArc
 50
109.471221
 51
250.528779
  0
ARC
  5
7A8
100
AcDbEntity
  8
2
100
AcDbCircle
 10
-1007.73958
 20
644.613388
 30
0.0
 40
4.5
100
AcDbArc
 50
289.471221
 51
70.528779
  0
LINE
  5
7A9
100
AcDbEntity
  8
2
100
AcDbLine
 10
-1111.23958
 20
636.043325
 30
0.0
 11
-1118.73958
 21
636.2777
 31
0.0
  0
LINE
  5
7AA
100
AcDbEntity
  8
2
 62
     2
100
AcDbLine
 10
-1111.23958
 20
636.043325
 30
0.0
 11
-1112.807057
 21
636.948309
 31
0.0
  0
LINE
  5
7AB
100
AcDbEntity
  8
2
 62
     2
100
AcDbLine
 10
-1112.807057
 20
636.948309
 30
0.0
 11
-1118.73958
 21
637.1337
 31
0.0
  0
LINE
  5
7AC
100
AcDbEntity
  8
2
100
AcDbLine
 10
-1111.23958
 20
653.18345
 30
0.0
 11
-1118.73958
 21
652.949075
 31
0.0
  0
LINE
  5
7AD
100
AcDbEntity
  8
2
 62
     2
100
AcDbLine
 10
-1111.23958
 20
653.18345
 30
0.0
 11
-1112.807057
 21
652.278466
 31
0.0
  0
LINE
  5
7AE
100
AcDbEntity
  8
2
 62
     2
100
AcDbLine
 10
-1112.807057
 20
652.278466
 30
0.0
 11
-1118.73958
 21
652.093075
 31
0.0
  0
LINE
  5
7AF
100
AcDbEntity
  8
2
100
AcDbLine
 10
-1112.807057
 20
636.092309
 30
0.0
 11
-1112.807057
 21
653.134466
 31
0.0
  0
LINE
  5
7B0
100
AcDbEntity
  8
2
100
AcDbLine
 10
-1111.23958
 20
636.043325
 30
0.0
 11
-1103.73958
 21
636.2777
 31
0.0
  0
LINE
  5
7B1
100
AcDbEntity
  8
2
 62
     2
100
AcDbLine
 10
-1111.23958
 20
636.043325
 30
0.0
 11
-1109.672102
 21
636.948309
 31
0.0
  0
LINE
  5
7B2
100
AcDbEntity
  8
2
 62
     2
100
AcDbLine
 10
-1109.672102
 20
636.948309
 30
0.0
 11
-1103.73958
 21
637.1337
 31
0.0
  0
LINE
  5
7B3
100
AcDbEntity
  8
2
100
AcDbLine
 10
-1111.23958
 20
653.18345
 30
0.0
 11
-1103.73958
 21
652.949075
 31
0.0
  0
LINE
  5
7B4
100
AcDbEntity
  8
2
 62
     2
100
AcDbLine
 10
-1111.23958
 20
653.18345
 30
0.0
 11
-1109.672102
 21
652.278466
 31
0.0
  0
LINE
  5
7B5
100
AcDbEntity
  8
2
 62
     2
100
AcDbLine
 10
-1109.672102
 20
652.278466
 30
0.0
 11
-1103.73958
 21
652.093075
 31
0.0
  0
LINE
  5
7B6
100
AcDbEntity
  8
2
100
AcDbLine
 10
-1109.672102
 20
636.092309
 30
0.0
 11
-1109.672102
 21
653.134466
 31
0.0
  0
LINE
  5
7B7
100
AcDbEntity
  8
2
100
AcDbLine
 10
-1040.23958
 20
636.043325
 30
0.0
 11
-1047.73958
 21
636.2777
 31
0.0
  0
LINE
  5
7B8
100
AcDbEntity
  8
2
 62
     2
100
AcDbLine
 10
-1040.23958
 20
636.043325
 30
0.0
 11
-1041.807057
 21
636.948309
 31
0.0
  0
LINE
  5
7B9
100
AcDbEntity
  8
2
 62
     2
100
AcDbLine
 10
-1041.807057
 20
636.948309
 30
0.0
 11
-1047.73958
 21
637.1337
 31
0.0
  0
LINE
  5
7BA
100
AcDbEntity
  8
2
100
AcDbLine
 10
-1040.23958
 20
653.18345
 30
0.0
 11
-1047.73958
 21
652.949075
 31
0.0
  0
LINE
  5
7BB
100
AcDbEntity
  8
2
 62
     2
100
AcDbLine
 10
-1040.23958
 20
653.18345
 30
0.0
 11
-1041.807057
 21
652.278466
 31
0.0
  0
LINE
  5
7BC
100
AcDbEntity
  8
2
 62
     2
100
AcDbLine
 10
-1041.807057
 20
652.278466
 30
0.0
 11
-1047.73958
 21
652.093075
 31
0.0
  0
LINE
  5
7BD
100
AcDbEntity
  8
2
100
AcDbLine
 10
-1041.807057
 20
636.092309
 30
0.0
 11
-1041.807057
 21
653.134466
 31
0.0
  0
LINE
  5
7BE
100
AcDbEntity
  8
2
100
AcDbLine
 10
-1040.23958
 20
636.043325
 30
0.0
 11
-1032.73958
 21
636.2777
 31
0.0
  0
LINE
  5
7BF
100
AcDbEntity
  8
2
 62
     2
100
AcDbLine
 10
-1040.23958
 20
636.043325
 30
0.0
 11
-1038.672102
 21
636.948309
 31
0.0
  0
LINE
  5
7C0
100
AcDbEntity
  8
2
 62
     2
100
AcDbLine
 10
-1038.672102
 20
636.948309
 30
0.0
 11
-1032.73958
 21
637.1337
 31
0.0
  0
LINE
  5
7C1
100
AcDbEntity
  8
2
100
AcDbLine
 10
-1040.23958
 20
653.18345
 30
0.0
 11
-1032.73958
 21
652.949075
 31
0.0
  0
LINE
  5
7C2
100
AcDbEntity
  8
2
 62
     2
100
AcDbLine
 10
-1040.23958
 20
653.18345
 30
0.0
 11
-1038.672102
 21
652.278466
 31
0.0
  0
LINE
  5
7C3
100
AcDbEntity
  8
2
 62
     2
100
AcDbLine
 10
-1038.672102
 20
652.278466
 30
0.0
 11
-1032.73958
 21
652.093075
 31
0.0
  0
LINE
  5
7C4
100
AcDbEntity
  8
2
100
AcDbLine
 10
-1038.672102
 20
636.092309
 30
0.0
 11
-1038.672102
 21
653.134466
 31
0.0
  0
LINE
  5
7C5
100
AcDbEntity
  8
2
100
AcDbLine
 10
-150.802409
 20
-90.58119
 30
0.0
 11
-150.802409
 21
-93.386612
 31
0.0
  0
LINE
  5
7C6
100
AcDbEntity
  8
2
100
AcDbLine
 10
-150.181886
 20
-90.419397
 30
0.0
 11
-150.181886
 21
-93.386612
 31
0.0
  0
LINE
  5
7C7
100
AcDbEntity
  8
2
100
AcDbLine
 10
-144.23958
 20
-93.386612
 30
0.0
 11
-150.181886
 21
-93.386612
 31
0.0
  0
LINE
  5
7C8
100
AcDbEntity
  8
2
100
AcDbLine
 10
-150.802409
 20
-93.386612
 30
0.0
 11
-152.73958
 21
-93.386612
 31
0.0
  0
LINE
  5
7C9
100
AcDbEntity
  8
2
100
AcDbLine
 10
-144.23958
 20
-90.386612
 30
0.0
 11
-144.23958
 21
-99.886612
 31
0.0
  0
LINE
  5
7CA
100
AcDbEntity
  8
2
100
AcDbLine
 10
-144.23958
 20
-103.886612
 30
0.0
 11
-144.23958
 21
-106.886612
 31
0.0
  0
LINE
  5
7CB
100
AcDbEntity
  8
2
100
AcDbLine
 10
-144.23958
 20
-110.886612
 30
0.0
 11
-144.23958
 21
-113.886612
 31
0.0
  0
LINE
  5
7CC
100
AcDbEntity
  8
2
100
AcDbLine
 10
-144.23958
 20
-117.886612
 30
0.0
 11
-144.23958
 21
-120.886612
 31
0.0
  0
LINE
  5
7CD
100
AcDbEntity
  8
2
100
AcDbLine
 10
-144.23958
 20
-124.886612
 30
0.0
 11
-144.23958
 21
-127.886612
 31
0.0
  0
LINE
  5
7CE
100
AcDbEntity
  8
2
100
AcDbLine
 10
-144.23958
 20
-131.886612
 30
0.0
 11
-144.23958
 21
-132.886612
 31
0.0
  0
LINE
  5
7CF
100
AcDbEntity
  8
2
100
AcDbLine
 10
-149.847093
 20
-99.886612
 30
0.0
 11
-152.73958
 21
-99.886612
 31
0.0
  0
LINE
  5
7D0
100
AcDbEntity
  8
2
100
AcDbLine
 10
-149.847093
 20
-103.886612
 30
0.0
 11
-152.73958
 21
-103.886612
 31
0.0
  0
LINE
  5
7D1
100
AcDbEntity
  8
2
100
AcDbLine
 10
-149.847093
 20
-106.886612
 30
0.0
 11
-152.73958
 21
-106.886612
 31
0.0
  0
LINE
  5
7D2
100
AcDbEntity
  8
2
100
AcDbLine
 10
-149.847093
 20
-110.886612
 30
0.0
 11
-152.73958
 21
-110.886612
 31
0.0
  0
LINE
  5
7D3
100
AcDbEntity
  8
2
100
AcDbLine
 10
-149.847093
 20
-113.886612
 30
0.0
 11
-152.73958
 21
-113.886612
 31
0.0
  0
LINE
  5
7D4
100
AcDbEntity
  8
2
100
AcDbLine
 10
-149.847093
 20
-117.886612
 30
0.0
 11
-152.73958
 21
-117.886612
 31
0.0
  0
LINE
  5
7D5
100
AcDbEntity
  8
2
100
AcDbLine
 10
-149.847093
 20
-120.886612
 30
0.0
 11
-152.73958
 21
-120.886612
 31
0.0
  0
LINE
  5
7D6
100
AcDbEntity
  8
2
100
AcDbLine
 10
-149.847093
 20
-124.886612
 30
0.0
 11
-152.73958
 21
-124.886612
 31
0.0
  0
LINE
  5
7D7
100
AcDbEntity
  8
2
100
AcDbLine
 10
-149.847093
 20
-127.886612
 30
0.0
 11
-152.73958
 21
-127.886612
 31
0.0
  0
LINE
  5
7D8
100
AcDbEntity
  8
2
100
AcDbLine
 10
-149.847093
 20
-131.886612
 30
0.0
 11
-152.73958
 21
-131.886612
 31
0.0
  0
LINE
  5
7D9
100
AcDbEntity
  8
2
100
AcDbLine
 10
-146.311559
 20
-131.886612
 30
0.0
 11
-144.23958
 21
-131.886612
 31
0.0
  0
LINE
  5
7DA
100
AcDbEntity
  8
2
100
AcDbLine
 10
-146.311559
 20
-127.886612
 30
0.0
 11
-144.23958
 21
-127.886612
 31
0.0
  0
LINE
  5
7DB
100
AcDbEntity
  8
2
100
AcDbLine
 10
-146.311559
 20
-124.886612
 30
0.0
 11
-144.23958
 21
-124.886612
 31
0.0
  0
LINE
  5
7DC
100
AcDbEntity
  8
2
100
AcDbLine
 10
-146.311559
 20
-120.886612
 30
0.0
 11
-144.23958
 21
-120.886612
 31
0.0
  0
LINE
  5
7DD
100
AcDbEntity
  8
2
100
AcDbLine
 10
-146.311559
 20
-117.886612
 30
0.0
 11
-144.23958
 21
-117.886612
 31
0.0
  0
LINE
  5
7DE
100
AcDbEntity
  8
2
100
AcDbLine
 10
-146.311559
 20
-113.886612
 30
0.0
 11
-144.23958
 21
-113.886612
 31
0.0
  0
LINE
  5
7DF
100
AcDbEntity
  8
2
100
AcDbLine
 10
-146.311559
 20
-110.886612
 30
0.0
 11
-144.23958
 21
-110.886612
 31
0.0
  0
LINE
  5
7E0
100
AcDbEntity
  8
2
100
AcDbLine
 10
-146.311559
 20
-106.886612
 30
0.0
 11
-144.23958
 21
-106.886612
 31
0.0
  0
LINE
  5
7E1
100
AcDbEntity
  8
2
100
AcDbLine
 10
-146.311559
 20
-103.886612
 30
0.0
 11
-144.23958
 21
-103.886612
 31
0.0
  0
LINE
  5
7E2
100
AcDbEntity
  8
2
100
AcDbLine
 10
-146.311559
 20
-99.886612
 30
0.0
 11
-144.23958
 21
-99.886612
 31
0.0
  0
LINE
  5
7E3
100
AcDbEntity
  8
2
100
AcDbLine
 10
-146.311559
 20
-127.886612
 30
0.0
 11
-146.311559
 21
-131.886612
 31
0.0
  0
LINE
  5
7E4
100
AcDbEntity
  8
2
100
AcDbLine
 10
-146.311559
 20
-120.886612
 30
0.0
 11
-146.311559
 21
-124.886612
 31
0.0
  0
LINE
  5
7E5
100
AcDbEntity
  8
2
100
AcDbLine
 10
-146.311559
 20
-113.886612
 30
0.0
 11
-146.311559
 21
-117.886612
 31
0.0
  0
LINE
  5
7E6
100
AcDbEntity
  8
2
100
AcDbLine
 10
-146.311559
 20
-99.886612
 30
0.0
 11
-146.311559
 21
-103.886612
 31
0.0
  0
LINE
  5
7E7
100
AcDbEntity
  8
2
100
AcDbLine
 10
-146.311559
 20
-106.886612
 30
0.0
 11
-146.311559
 21
-110.886612
 31
0.0
  0
LINE
  5
7E8
100
AcDbEntity
  8
2
100
AcDbLine
 10
-151.660815
 20
-127.886612
 30
0.0
 11
-151.660815
 21
-131.886612
 31
0.0
  0
LINE
  5
7E9
100
AcDbEntity
  8
2
100
AcDbLine
 10
-149.847093
 20
-127.886612
 30
0.0
 11
-149.847093
 21
-131.886612
 31
0.0
  0
LINE
  5
7EA
100
AcDbEntity
  8
2
100
AcDbLine
 10
-151.660815
 20
-120.886612
 30
0.0
 11
-151.660815
 21
-124.886612
 31
0.0
  0
LINE
  5
7EB
100
AcDbEntity
  8
2
100
AcDbLine
 10
-149.847093
 20
-120.886612
 30
0.0
 11
-149.847093
 21
-124.886612
 31
0.0
  0
LINE
  5
7EC
100
AcDbEntity
  8
2
100
AcDbLine
 10
-151.660815
 20
-113.886612
 30
0.0
 11
-151.660815
 21
-117.886612
 31
0.0
  0
LINE
  5
7ED
100
AcDbEntity
  8
2
100
AcDbLine
 10
-149.847093
 20
-113.886612
 30
0.0
 11
-149.847093
 21
-117.886612
 31
0.0
  0
LINE
  5
7EE
100
AcDbEntity
  8
2
100
AcDbLine
 10
-151.660815
 20
-99.886612
 30
0.0
 11
-151.660815
 21
-103.886612
 31
0.0
  0
LINE
  5
7EF
100
AcDbEntity
  8
2
100
AcDbLine
 10
-151.660815
 20
-106.886612
 30
0.0
 11
-151.660815
 21
-110.886612
 31
0.0
  0
LINE
  5
7F0
100
AcDbEntity
  8
2
100
AcDbLine
 10
-149.847093
 20
-99.886612
 30
0.0
 11
-149.847093
 21
-103.886612
 31
0.0
  0
LINE
  5
7F1
100
AcDbEntity
  8
2
100
AcDbLine
 10
-149.847093
 20
-106.886612
 30
0.0
 11
-149.847093
 21
-110.886612
 31
0.0
  0
LINE
  5
7F2
100
AcDbEntity
  8
2
  6
CENTER
 62
     2
100
AcDbLine
 10
-1034.974857
 20
604.613388
 30
0.0
 11
-599.966327
 21
604.613388
 31
0.0
  0
LINE
  5
7F3
100
AcDbEntity
  8
2
  6
CENTER
 62
     2
100
AcDbLine
 10
-816.73958
 20
94.615376
 30
0.0
 11
-816.73958
 21
-217.386612
 31
0.0
  0
LINE
  5
7F4
100
AcDbEntity
  8
2
  6
CENTER
 62
     2
100
AcDbLine
 10
283.26042
 20
-217.386612
 30
0.0
 11
283.26042
 21
96.403181
 31
0.0
  0
POINT
  5
7F5
100
AcDbEntity
  8
5
100
AcDbPoint
 10
77.26042
 20
-40.386612
 30
0.0
  0
TEXT
  5
7F6
100
AcDbEntity
  8
5
100
AcDbText
 10
791.908966
 20
-373.0648
 30
0.0
 40
42.0
  1
駆動部・・・ＴＧ－１２Ｓ
 72
     5
 11
1287.508966
 21
-373.0648
 31
0.0
100
AcDbText
  0
TEXT
  5
7F7
100
AcDbEntity
  8
5
100
AcDbText
 10
-1069.504579
 20
770.869125
 30
0.0
 40
23.1
  1
360(概略)
 41
1.4
 72
     5
 11
-930.442581
 21
770.869125
 31
0.0
100
AcDbText
  0
DIMENSION
  5
7F8
100
AcDbEntity
  8
5
 62
     2
100
AcDbDimension
  2
*D0
 10
-816.73958
 20
767.369125
 30
0.0
 11
-996.73958
 21
769.369125
 31
0.0
  3
STANDARD
100
AcDbAlignedDimension
 13
-1176.73958
 23
553.260388
 33
0.0
 14
-816.73958
 24
707.837375
 34
0.0
100
AcDbRotatedDimension
  0
TEXT
  5
7F9
100
AcDbEntity
  8
5
100
AcDbText
 10
-529.504579
 20
770.869125
 30
0.0
 40
23.1
  1
720(概略)
 41
1.4
 72
     5
 11
-390.442581
 21
770.869125
 31
0.0
100
AcDbText
  0
DIMENSION
  5
7FA
100
AcDbEntity
  8
5
 62
     2
100
AcDbDimension
  2
*D1
 10
-96.73958
 20
767.369125
 30
0.0
 11
-456.73958
 21
769.369125
 31
0.0
  3
STANDARD
100
AcDbAlignedDimension
 13
-816.73958
 23
707.837375
 33
0.0
 14
-96.73958
 24
558.530888
 34
0.0
100
AcDbRotatedDimension
  0
DIMENSION
  5
7FB
100
AcDbEntity
  8
5
 62
     2
100
AcDbDimension
  2
*D2
 10
283.26042
 20
174.965166
 30
0.0
 11
253.26042
 21
190.015166
 31
0.0
  3
STANDARD
100
AcDbAlignedDimension
 13
223.26042
 23
85.139084
 33
0.0
 14
283.26042
 24
96.403181
 34
0.0
100
AcDbRotatedDimension
  0
TEXT
  5
7FC
100
AcDbEntity
  8
5
100
AcDbText
 10
405.26042
 20
251.970173
 30
0.0
 40
23.1
  1
94(概略)
 41
1.4
 72
     5
 11
528.152419
 21
251.970173
 31
0.0
100
AcDbText
  0
DIMENSION
  5
7FD
100
AcDbEntity
  8
5
 62
     2
100
AcDbDimension
  2
*D3
 10
377.26042
 20
248.470173
 30
0.0
 11
330.26042
 21
250.470173
 31
0.0
  3
STANDARD
100
AcDbAlignedDimension
 13
283.26042
 23
96.403181
 33
0.0
 14
377.26042
 24
-74.323104
 34
0.0
100
AcDbRotatedDimension
  0
TEXT
  5
7FE
100
AcDbEntity
  8
5
100
AcDbText
 10
107.495421
 20
251.970173
 30
0.0
 40
23.1
  1
206(概略)
 41
1.4
 72
     5
 11
246.557419
 21
251.970173
 31
0.0
100
AcDbText
  0
DIMENSION
  5
7FF
100
AcDbEntity
  8
5
 62
     2
100
AcDbDimension
  2
*D4
 10
283.26042
 20
248.470173
 30
0.0
 11
180.26042
 21
250.470173
 31
0.0
  3
STANDARD
100
AcDbAlignedDimension
 13
77.26042
 23
-40.386612
 33
0.0
 14
283.26042
 24
96.403181
 34
0.0
100
AcDbRotatedDimension
  0
DIMENSION
  5
800
100
AcDbEntity
  8
5
 62
     2
100
AcDbDimension
  2
*D5
 10
22.330221
 20
89.613388
 30
0.0
 11
-5.424779
 21
-65.041612
 31
0.0
  3
STANDARD
100
AcDbAlignedDimension
 13
213.26042
 23
-217.386612
 33
0.0
 14
266.289858
 24
89.613388
 34
0.0
 50
90.0
100
AcDbRotatedDimension
  0
DIMENSION
  5
801
100
AcDbEntity
  8
5
 62
     2
100
AcDbDimension
  2
*D6
 10
22.330221
 20
-217.386612
 30
0.0
 11
-5.424779
 21
-374.541612
 31
0.0
  3
STANDARD
100
AcDbAlignedDimension
 13
220.56042
 23
-529.386612
 33
0.0
 14
22.330221
 24
-217.386612
 34
0.0
 50
90.0
100
AcDbRotatedDimension
  0
DIMENSION
  5
802
100
AcDbEntity
  8
5
 62
     2
100
AcDbDimension
  2
*D7
 10
22.330221
 20
-529.386612
 30
0.0
 11
-53.934778
 21
-705.201612
 31
0.0
  3
STANDARD
100
AcDbAlignedDimension
 13
276.76042
 23
-781.686612
 33
0.0
 14
220.56042
 24
-529.386612
 34
0.0
 50
90.0
100
AcDbRotatedDimension
  0
DIMENSION
  5
803
100
AcDbEntity
  8
5
 62
     2
100
AcDbDimension
  2
*D8
 10
322.26042
 20
-841.545776
 30
0.0
 11
283.26042
 21
-826.495777
 31
0.0
  3
STANDARD
100
AcDbAlignedDimension
 13
244.26042
 23
-711.886612
 33
0.0
 14
322.26042
 24
-711.886612
 34
0.0
100
AcDbRotatedDimension
  0
TEXT
  5
804
100
AcDbEntity
  8
18
100
AcDbText
 10
855.012413
 20
-932.847946
 30
0.0
 40
21.0
  1
１
 72
     5
 11
871.812413
 21
-932.847946
 31
0.0
100
AcDbText
  0
TEXT
  5
805
100
AcDbEntity
  8
18
100
AcDbText
 10
1274.494537
 20
-889.820953
 30
0.0
 40
14.0
  1
′０９．４．２２
 72
     5
 11
1383.694537
 21
-889.820953
 31
0.0
100
AcDbText
  0
TEXT
  5
806
100
AcDbEntity
  8
18
100
AcDbText
 10
1075.2
 20
-952.0
 30
0.0
 40
35.0
  1
Ｄ３－０４７１９
 72
     5
 11
1348.2
 21
-952.0
 31
0.0
100
AcDbText
  0
TEXT
  5
807
100
AcDbEntity
  8
18
100
AcDbText
 10
859.979683
 20
-889.246841
 30
0.0
 40
21.0
  1
標準仕様，重負荷仕様
 72
     5
 11
1065.779683
 21
-889.246841
 31
0.0
100
AcDbText
  0
LINE
  5
808
100
AcDbEntity
  8
18
100
AcDbLine
 10
850.843533
 20
-463.509327
 30
0.0
 11
1200.843533
 21
-463.509327
 31
0.0
  0
LINE
  5
809
100
AcDbEntity
  8
18
100
AcDbLine
 10
850.843533
 20
-463.509327
 30
0.0
 11
850.843533
 21
-673.509327
 31
0.0
  0
LINE
  5
80A
100
AcDbEntity
  8
18
100
AcDbLine
 10
850.843533
 20
-603.509327
 30
0.0
 11
1200.843533
 21
-603.509327
 31
0.0
  0
LINE
  5
80B
100
AcDbEntity
  8
18
100
AcDbLine
 10
850.843533
 20
-638.509327
 30
0.0
 11
1200.843533
 21
-638.509327
 31
0.0
  0
LINE
  5
80C
100
AcDbEntity
  8
18
100
AcDbLine
 10
850.843533
 20
-673.509327
 30
0.0
 11
1200.843533
 21
-673.509327
 31
0.0
  0
LINE
  5
80D
100
AcDbEntity
  8
18
100
AcDbLine
 10
1025.843533
 20
-463.509327
 30
0.0
 11
1025.843533
 21
-638.509327
 31
0.0
  0
LINE
  5
80E
100
AcDbEntity
  8
18
100
AcDbLine
 10
1200.843533
 20
-463.509327
 30
0.0
 11
1200.843533
 21
-673.509327
 31
0.0
  0
TEXT
  5
80F
100
AcDbEntity
  8
18
100
AcDbText
 10
921.758694
 20
-630.264172
 30
0.0
 40
21.0
  1
A
 72
     5
 11
938.558694
 21
-630.264172
 31
0.0
100
AcDbText
  0
TEXT
  5
810
100
AcDbEntity
  8
18
100
AcDbText
 10
1096.67506
 20
-630.825253
 30
0.0
 40
21.0
  1
B
 72
     5
 11
1113.47506
 21
-630.825253
 31
0.0
100
AcDbText
  0
LINE
  5
811
100
AcDbEntity
  8
18
  6
CENTER
 62
     2
100
AcDbLine
 10
1106.517132
 20
-566.498386
 30
0.0
 11
1106.517128
 21
-524.799395
 31
0.0
  0
LINE
  5
812
100
AcDbEntity
  8
18
  6
CENTER
 62
     2
100
AcDbLine
 10
1068.318844
 20
-546.15054
 30
0.0
 11
1143.972698
 21
-546.15054
 31
0.0
  0
LINE
  5
813
100
AcDbEntity
  8
18
100
AcDbLine
 10
1077.349233
 20
-555.873172
 30
0.0
 11
1077.349233
 21
-536.427908
 31
0.0
  0
LINE
  5
814
100
AcDbEntity
  8
18
  6
CENTER
 62
     2
100
AcDbLine
 10
1114.619324
 20
-598.911772
 30
0.0
 11
1114.619324
 21
-468.464167
 31
0.0
  0
LINE
  5
815
100
AcDbEntity
  8
18
100
AcDbLine
 10
1126.502542
 20
-593.165165
 30
0.0
 11
1126.502542
 21
-529.946153
 31
0.0
  0
LINE
  5
816
100
AcDbEntity
  8
18
100
AcDbLine
 10
1093.619324
 20
-475.510915
 30
0.0
 11
1135.619324
 21
-475.510915
 31
0.0
  0
LINE
  5
817
100
AcDbEntity
  8
18
100
AcDbLine
 10
1102.736107
 20
-593.165165
 30
0.0
 11
1126.502542
 21
-593.165165
 31
0.0
  0
LINE
  5
818
100
AcDbEntity
  8
18
100
AcDbLine
 10
1093.619324
 20
-529.946153
 30
0.0
 11
1135.619324
 21
-529.946153
 31
0.0
  0
LINE
  5
819
100
AcDbEntity
  8
18
100
AcDbLine
 10
1102.736107
 20
-562.354928
 30
0.0
 11
1126.502542
 21
-562.354928
 31
0.0
  0
LINE
  5
81A
100
AcDbEntity
  8
18
100
AcDbLine
 10
1102.736107
 20
-562.354928
 30
0.0
 11
1098.158116
 21
-549.869497
 31
0.0
  0
LINE
  5
81B
100
AcDbEntity
  8
18
100
AcDbLine
 10
1098.158116
 20
-542.431583
 30
0.0
 11
1102.736107
 21
-529.946153
 31
0.0
  0
ARC
  5
81C
100
AcDbEntity
  8
18
100
AcDbCircle
 10
1108.300726
 20
-546.15054
 30
0.0
 40
10.802925
100
AcDbArc
 50
159.863697
 51
200.136303
  0
LINE
  5
81D
100
AcDbEntity
  8
18
100
AcDbLine
 10
1102.736107
 20
-593.165165
 30
0.0
 11
1102.736107
 21
-562.354928
 31
0.0
  0
ARC
  5
81E
100
AcDbEntity
  8
18
100
AcDbCircle
 10
1106.517131
 20
-546.15054
 30
0.0
 40
16.204388
100
AcDbArc
 50
104.149808
 51
255.850192
  0
LINE
  5
81F
100
AcDbEntity
  8
18
100
AcDbLine
 10
1135.685028
 20
-555.873172
 30
0.0
 11
1126.502542
 21
-555.873172
 31
0.0
  0
LINE
  5
820
100
AcDbEntity
  8
18
100
AcDbLine
 10
1093.553621
 20
-555.873172
 30
0.0
 11
1077.349233
 21
-555.873172
 31
0.0
  0
LINE
  5
821
100
AcDbEntity
  8
18
100
AcDbLine
 10
1112.246247
 20
-551.879656
 30
0.0
 11
1113.39207
 21
-553.025479
 31
0.0
  0
LINE
  5
822
100
AcDbEntity
  8
18
100
AcDbLine
 10
1112.246247
 20
-540.421424
 30
0.0
 11
1113.39207
 21
-539.275601
 31
0.0
  0
ARC
  5
823
100
AcDbEntity
  8
18
100
AcDbCircle
 10
1106.517131
 20
-546.15054
 30
0.0
 40
8.102194
100
AcDbArc
 50
315.0
 51
45.0
  0
ARC
  5
824
100
AcDbEntity
  8
18
100
AcDbCircle
 10
1106.517131
 20
-546.15054
 30
0.0
 40
9.722633
100
AcDbArc
 50
315.0
 51
45.0
  0
LINE
  5
825
100
AcDbEntity
  8
18
100
AcDbLine
 10
1111.328443
 20
-551.446263
 30
0.0
 11
1105.351571
 21
-548.586812
 31
0.0
  0
LINE
  5
826
100
AcDbEntity
  8
18
100
AcDbLine
 10
1111.832044
 20
-550.940644
 30
0.0
 11
1108.948724
 21
-544.975251
 31
0.0
  0
ARC
  5
827
100
AcDbEntity
  8
18
100
AcDbCircle
 10
1106.517131
 20
-546.15054
 30
0.0
 40
2.700731
100
AcDbArc
 50
25.796392
 51
244.432646
  0
ARC
  5
828
100
AcDbEntity
  8
18
100
AcDbCircle
 10
1111.491621
 20
-551.105185
 30
0.0
 40
0.378102
100
AcDbArc
 50
244.432646
 51
25.796392
  0
LINE
  5
829
100
AcDbEntity
  8
18
100
AcDbLine
 10
1114.343249
 20
-544.053538
 30
0.0
 11
1115.908472
 21
-543.634138
 31
0.0
  0
LINE
  5
82A
100
AcDbEntity
  8
18
100
AcDbLine
 10
1114.343249
 20
-548.247542
 30
0.0
 11
1115.908472
 21
-548.666942
 31
0.0
  0
TEXT
  5
82B
100
AcDbEntity
  8
18
100
AcDbText
 10
1117.558289
 20
-559.501505
 30
0.0
 40
7.56
  1
S
 50
45.0
 72
     5
 11
1121.834871
 21
-555.224923
 31
0.0
100
AcDbText
  0
TEXT
  5
82C
100
AcDbEntity
  8
18
100
AcDbText
 10
1122.121877
 20
-537.363163
 30
0.0
 40
7.56
  1
O
 50
135.0
 72
     5
 11
1117.845295
 21
-533.086581
 31
0.0
100
AcDbText
  0
LINE
  5
82D
100
AcDbEntity
  8
18
  6
CENTER
 62
     2
100
AcDbLine
 10
907.733433
 20
-532.665813
 30
0.0
 11
952.972172
 21
-532.665809
 31
0.0
  0
LINE
  5
82E
100
AcDbEntity
  8
18
  6
CENTER
 62
     2
100
AcDbLine
 10
929.590731
 20
-508.547313
 30
0.0
 11
929.590731
 21
-561.259211
 31
0.0
  0
LINE
  5
82F
100
AcDbEntity
  8
18
100
AcDbLine
 10
900.422834
 20
-522.94318
 30
0.0
 11
900.422834
 21
-528.884788
 31
0.0
  0
LINE
  5
830
100
AcDbEntity
  8
18
  6
CENTER
 62
     2
100
AcDbLine
 10
876.8295
 20
-540.768006
 30
0.0
 11
1007.277105
 21
-540.768006
 31
0.0
  0
LINE
  5
831
100
AcDbEntity
  8
18
100
AcDbLine
 10
882.576106
 20
-552.651223
 30
0.0
 11
945.795119
 21
-552.651223
 31
0.0
  0
LINE
  5
832
100
AcDbEntity
  8
18
100
AcDbLine
 10
1000.230356
 20
-519.768006
 30
0.0
 11
1000.230356
 21
-561.768006
 31
0.0
  0
LINE
  5
833
100
AcDbEntity
  8
18
100
AcDbLine
 10
882.576106
 20
-528.884788
 30
0.0
 11
882.576106
 21
-552.651223
 31
0.0
  0
LINE
  5
834
100
AcDbEntity
  8
18
100
AcDbLine
 10
945.795119
 20
-519.768006
 30
0.0
 11
945.795119
 21
-561.768006
 31
0.0
  0
LINE
  5
835
100
AcDbEntity
  8
18
100
AcDbLine
 10
913.386344
 20
-528.884788
 30
0.0
 11
913.386344
 21
-552.651223
 31
0.0
  0
LINE
  5
836
100
AcDbEntity
  8
18
100
AcDbLine
 10
913.386344
 20
-528.884788
 30
0.0
 11
925.871774
 21
-524.306797
 31
0.0
  0
LINE
  5
837
100
AcDbEntity
  8
18
100
AcDbLine
 10
933.309689
 20
-524.306797
 30
0.0
 11
945.795119
 21
-528.884788
 31
0.0
  0
ARC
  5
838
100
AcDbEntity
  8
18
100
AcDbCircle
 10
929.590731
 20
-534.449408
 30
0.0
 40
10.802925
100
AcDbArc
 50
69.863697
 51
110.136303
  0
LINE
  5
839
100
AcDbEntity
  8
18
100
AcDbLine
 10
882.576106
 20
-528.884788
 30
0.0
 11
913.386344
 21
-528.884788
 31
0.0
  0
ARC
  5
83A
100
AcDbEntity
  8
18
100
AcDbCircle
 10
929.590731
 20
-532.665812
 30
0.0
 40
16.204388
100
AcDbArc
 50
14.149808
 51
165.850192
  0
LINE
  5
83B
100
AcDbEntity
  8
18
100
AcDbLine
 10
900.422834
 20
-522.94318
 30
0.0
 11
916.627221
 21
-522.94318
 31
0.0
  0
LINE
  5
83C
100
AcDbEntity
  8
18
100
AcDbLine
 10
942.554241
 20
-522.94318
 30
0.0
 11
945.795119
 21
-522.94318
 31
0.0
  0
LINE
  5
83D
100
AcDbEntity
  8
18
100
AcDbLine
 10
923.861615
 20
-538.394928
 30
0.0
 11
922.715792
 21
-539.540752
 31
0.0
  0
LINE
  5
83E
100
AcDbEntity
  8
18
100
AcDbLine
 10
935.319847
 20
-538.394928
 30
0.0
 11
936.465671
 21
-539.540752
 31
0.0
  0
ARC
  5
83F
100
AcDbEntity
  8
18
100
AcDbCircle
 10
929.590731
 20
-532.665812
 30
0.0
 40
8.102194
100
AcDbArc
 50
225.0
 51
315.0
  0
ARC
  5
840
100
AcDbEntity
  8
18
100
AcDbCircle
 10
929.590731
 20
-532.665812
 30
0.0
 40
9.722633
100
AcDbArc
 50
225.0
 51
315.0
  0
LINE
  5
841
100
AcDbEntity
  8
18
100
AcDbLine
 10
924.295009
 20
-537.477124
 30
0.0
 11
927.15446
 21
-531.500253
 31
0.0
  0
LINE
  5
842
100
AcDbEntity
  8
18
100
AcDbLine
 10
924.800627
 20
-537.980726
 30
0.0
 11
930.76602
 21
-535.097405
 31
0.0
  0
ARC
  5
843
100
AcDbEntity
  8
18
100
AcDbCircle
 10
929.590731
 20
-532.665812
 30
0.0
 40
2.700731
100
AcDbArc
 50
295.796392
 51
154.432646
  0
ARC
  5
844
100
AcDbEntity
  8
18
100
AcDbCircle
 10
924.636087
 20
-537.640303
 30
0.0
 40
0.378102
100
AcDbArc
 50
154.432646
 51
295.796392
  0
LINE
  5
845
100
AcDbEntity
  8
18
100
AcDbLine
 10
931.687733
 20
-540.49193
 30
0.0
 11
932.107134
 21
-542.057154
 31
0.0
  0
LINE
  5
846
100
AcDbEntity
  8
18
100
AcDbLine
 10
927.493729
 20
-540.49193
 30
0.0
 11
927.074329
 21
-542.057154
 31
0.0
  0
TEXT
  5
847
100
AcDbEntity
  8
18
100
AcDbText
 10
916.239767
 20
-543.706971
 30
0.0
 40
7.56
  1
S
 50
315.0
 72
     5
 11
920.516349
 21
-547.983553
 31
0.0
100
AcDbText
  0
TEXT
  5
848
100
AcDbEntity
  8
18
100
AcDbText
 10
938.378108
 20
-548.270558
 30
0.0
 40
7.56
  1
O
 50
45.0
 72
     5
 11
942.65469
 21
-543.993976
 31
0.0
100
AcDbText
  0
LINE
  5
849
100
AcDbEntity
  8
18
100
AcDbLine
 10
1135.685028
 20
-536.427908
 30
0.0
 11
1135.685028
 21
-555.873172
 31
0.0
  0
LINE
  5
84A
100
AcDbEntity
  8
18
100
AcDbLine
 10
1135.685028
 20
-536.427908
 30
0.0
 11
1126.502542
 21
-536.427908
 31
0.0
  0
LINE
  5
84B
100
AcDbEntity
  8
18
100
AcDbLine
 10
1093.553621
 20
-536.427908
 30
0.0
 11
1077.349233
 21
-536.427908
 31
0.0
  0
LINE
  5
84C
100
AcDbEntity
  8
18
100
AcDbLine
 10
945.795119
 20
-519.768006
 30
0.0
 11
1000.230356
 21
-519.768006
 31
0.0
  0
LINE
  5
84D
100
AcDbEntity
  8
18
100
AcDbLine
 10
945.795119
 20
-561.768006
 30
0.0
 11
1000.230356
 21
-561.768006
 31
0.0
  0
LINE
  5
84E
100
AcDbEntity
  8
18
100
AcDbLine
 10
1093.619324
 20
-529.946153
 30
0.0
 11
1093.619324
 21
-475.510915
 31
0.0
  0
LINE
  5
84F
100
AcDbEntity
  8
18
100
AcDbLine
 10
1135.619324
 20
-529.946153
 30
0.0
 11
1135.619324
 21
-475.510915
 31
0.0
  0
TEXT
  5
850
100
AcDbEntity
  8
18
100
AcDbText
 10
876.455084
 20
-663.244766
 30
0.0
 40
17.5
  1
ＡＣＴＵＡＴＯＲ　ＰＯＳＩＴＩＯＮ
 72
     5
 11
1170.455084
 21
-663.244766
 31
0.0
100
AcDbText
  0
TEXT
  5
851
100
AcDbEntity
  8
18
100
AcDbText
 10
883.572159
 20
-956.674606
 30
0.0
 40
21.0
  1
７
 72
     5
 11
900.372159
 21
-956.674606
 31
0.0
100
AcDbText
  0
TEXT
  5
852
100
AcDbEntity
  8
18
100
AcDbText
 10
859.979683
 20
-861.246841
 30
0.0
 40
21.0
  1
７００Ｇ－３Ｕ　３００Ａ
 72
     5
 11
1107.779683
 21
-861.246841
 31
0.0
100
AcDbText
  0
LINE
  5
853
100
AcDbEntity
  8
20
 62
     3
100
AcDbLine
 10
-1260.0
 20
-969.5
 30
0.0
 11
1400.0
 21
-969.5
 31
0.0
  0
LINE
  5
854
100
AcDbEntity
  8
20
 62
     3
100
AcDbLine
 10
-1260.0
 20
924.0
 30
0.0
 11
1400.0
 21
924.0
 31
0.0
  0
LINE
  5
855
100
AcDbEntity
  8
20
 62
     3
100
AcDbLine
 10
-1260.0
 20
924.0
 30
0.0
 11
-1260.0
 21
-969.5
 31
0.0
  0
LINE
  5
856
100
AcDbEntity
  8
20
 62
     3
100
AcDbLine
 10
1400.0
 20
924.0
 30
0.0
 11
1400.0
 21
-969.5
 31
0.0
  0
LINE
  5
857
100
AcDbEntity
  8
20
 62
     3
100
AcDbLine
 10
420.0
 20
-969.5
 30
0.0
 11
420.0
 21
-829.5
 31
0.0
  0
LINE
  5
858
100
AcDbEntity
  8
20
 62
     3
100
AcDbLine
 10
749.0
 20
-969.5
 30
0.0
 11
749.0
 21
-829.5
 31
0.0
  0
LINE
  5
859
100
AcDbEntity
  8
20
100
AcDbLine
 10
749.0
 20
-899.5
 30
0.0
 11
1400.0
 21
-899.5
 31
0.0
  0
LINE
  5
85A
100
AcDbEntity
  8
20
 62
     3
100
AcDbLine
 10
420.0
 20
-829.5
 30
0.0
 11
1400.0
 21
-829.5
 31
0.0
  0
LINE
  5
85B
100
AcDbEntity
  8
20
100
AcDbLine
 10
1260.0
 20
-899.5
 30
0.0
 11
1260.0
 21
-829.5
 31
0.0
  0
LINE
  5
85C
100
AcDbEntity
  8
20
100
AcDbLine
 10
1260.0
 20
-864.5
 30
0.0
 11
1400.0
 21
-864.5
 31
0.0
  0
LINE
  5
85D
100
AcDbEntity
  8
20
100
AcDbLine
 10
847.0
 20
-969.5
 30
0.0
 11
847.0
 21
-829.5
 31
0.0
  0
LINE
  5
85E
100
AcDbEntity
  8
20
100
AcDbLine
 10
917.0
 20
-969.5
 30
0.0
 11
917.0
 21
-899.5
 31
0.0
  0
LINE
  5
85F
100
AcDbEntity
  8
20
100
AcDbLine
 10
1057.0
 20
-969.5
 30
0.0
 11
1057.0
 21
-899.5
 31
0.0
  0
LINE
  5
860
100
AcDbEntity
  8
20
100
AcDbLine
 10
866.098902
 20
-950.401098
 30
0.0
 11
895.288034
 21
-921.211966
 31
0.0
  0
TEXT
  5
861
100
AcDbEntity
  8
20
100
AcDbText
 10
920.733303
 20
-927.478424
 30
0.0
 40
12.6
  1
ＤＲＡＷＩＮＧ　ＮＯ．
 72
     5
 11
1056.813303
 21
-927.478424
 31
0.0
100
AcDbText
  0
TEXT
  5
862
100
AcDbEntity
  8
20
100
AcDbText
 10
934.5
 20
-955.5
 30
0.0
 40
21.0
  1
図　　　番
 72
     5
 11
1035.3
 21
-955.5
 31
0.0
100
AcDbText
  0
TEXT
  5
863
100
AcDbEntity
  8
20
100
AcDbText
 10
1302.0
 20
-854.0
 30
0.0
 40
14.0
  1
ＤＡＴＥ
 72
     5
 11
1355.2
 21
-854.0
 31
0.0
100
AcDbText
  0
TEXT
  5
864
100
AcDbEntity
  8
20
100
AcDbText
 10
763.007497
 20
-930.727203
 30
0.0
 40
14.0
  1
ＳＣＡＬＥ
 72
     5
 11
830.207497
 21
-930.727203
 31
0.0
100
AcDbText
  0
TEXT
  5
865
100
AcDbEntity
  8
20
100
AcDbText
 10
756.0
 20
-955.5
 30
0.0
 40
21.0
  1
尺　　度
 72
     5
 11
835.8
 21
-955.5
 31
0.0
100
AcDbText
  0
TEXT
  5
866
100
AcDbEntity
  8
20
100
AcDbText
 10
752.507497
 20
-857.471193
 30
0.0
 40
14.0
  1
ＦＩＧ．ＮＯ．
 72
     5
 11
847.707497
 21
-857.471193
 31
0.0
100
AcDbText
  0
TEXT
  5
867
100
AcDbEntity
  8
20
100
AcDbText
 10
756.0
 20
-885.5
 30
0.0
 40
21.0
  1
名　　称
 72
     5
 11
835.8
 21
-885.5
 31
0.0
100
AcDbText
  0
TEXT
  5
868
100
AcDbEntity
  8
20
100
AcDbText
 10
423.958675
 20
-885.291771
 30
0.0
 40
16.1
  1
ＴＯＭＯＥ　ＶＡＬＶＥ　ＣＯ．，ＬＴＤ．
 72
     5
 11
742.738675
 21
-885.291771
 31
0.0
100
AcDbText
  0
TEXT
  5
869
100
AcDbEntity
  8
20
100
AcDbText
 10
472.5
 20
-933.028671
 30
0.0
 40
28.0
  1
巴バルブ株式会社
 72
     5
 11
690.9
 21
-933.028671
 31
0.0
100
AcDbText
  0
ARC
  5
86A
100
AcDbEntity
  8
21
100
AcDbCircle
 10
-816.73958
 20
-529.386612
 30
0.0
 40
148.6
100
AcDbArc
 50
120.006915
 51
180.0
  0
ARC
  5
86B
100
AcDbEntity
  8
21
100
AcDbCircle
 10
-816.73958
 20
-529.386612
 30
0.0
 40
148.6
100
AcDbArc
 50
0.0
 51
59.993085
  0
ARC
  5
86C
100
AcDbEntity
  8
21
100
AcDbCircle
 10
-816.73958
 20
-523.986612
 30
0.0
 40
153.3
100
AcDbArc
 50
241.002472
 51
258.837729
  0
ARC
  5
86D
100
AcDbEntity
  8
21
100
AcDbCircle
 10
-816.73958
 20
-529.386612
 30
0.0
 40
148.6
100
AcDbArc
 50
180.0
 51
239.993085
  0
LINE
  5
86E
100
AcDbEntity
  8
21
100
AcDbLine
 10
-816.73958
 20
-674.386612
 30
0.0
 11
-846.41668
 21
-674.386612
 31
0.0
  0
LINE
  5
86F
100
AcDbEntity
  8
21
100
AcDbLine
 10
-816.73958
 20
-674.386612
 30
0.0
 11
-787.062485
 21
-674.386612
 31
0.0
  0
ARC
  5
870
100
AcDbEntity
  8
21
100
AcDbCircle
 10
-816.73958
 20
-523.986612
 30
0.0
 40
153.3
100
AcDbArc
 50
281.162271
 51
298.997528
  0
ARC
  5
871
100
AcDbEntity
  8
21
100
AcDbCircle
 10
-816.73958
 20
-529.386612
 30
0.0
 40
148.6
100
AcDbArc
 50
300.006915
 51
360.0
  0
LINE
  5
872
100
AcDbEntity
  8
21
100
AcDbLine
 10
-825.739575
 20
-522.886612
 30
0.0
 11
-685.040086
 21
-522.886612
 31
0.0
  0
LINE
  5
873
100
AcDbEntity
  8
21
100
AcDbLine
 10
-825.739575
 20
-535.886612
 30
0.0
 11
-685.040086
 21
-535.886612
 31
0.0
  0
ARC
  5
874
100
AcDbEntity
  8
21
100
AcDbCircle
 10
-685.040086
 20
-524.886612
 30
0.0
 40
2.0
100
AcDbArc
 50
1.956961
 51
90.0
  0
ARC
  5
875
100
AcDbEntity
  8
21
100
AcDbCircle
 10
-816.73958
 20
-529.386612
 30
0.0
 40
133.776351
100
AcDbArc
 50
358.043039
 51
1.956961
  0
ARC
  5
876
100
AcDbEntity
  8
21
100
AcDbCircle
 10
-685.040086
 20
-533.886612
 30
0.0
 40
2.0
100
AcDbArc
 50
270.0
 51
358.043039
  0
ARC
  5
877
100
AcDbEntity
  8
21
100
AcDbCircle
 10
-816.73958
 20
-529.386612
 30
0.0
 40
138.0
100
AcDbArc
 50
357.05011
 51
2.95306
  0
LINE
  5
878
100
AcDbEntity
  8
21
100
AcDbLine
 10
-816.785448
 20
-466.907428
 30
0.0
 11
-696.69413
 21
-477.414054
 31
0.0
  0
LINE
  5
879
100
AcDbEntity
  8
21
100
AcDbLine
 10
-801.600403
 20
-455.186289
 30
0.0
 11
-701.048704
 21
-463.98342
 31
0.0
  0
LINE
  5
87A
100
AcDbEntity
  8
21
100
AcDbLine
 10
-697.444141
 20
-461.760606
 30
0.0
 11
-785.511319
 21
-453.73808
 31
0.0
  0
LINE
  5
87B
100
AcDbEntity
  8
21
100
AcDbLine
 10
-828.52794
 20
-468.701569
 30
0.0
 11
-690.871863
 21
-480.280763
 31
0.0
  0
ARC
  5
87C
100
AcDbEntity
  8
21
100
AcDbCircle
 10
-701.223015
 20
-465.975809
 30
0.0
 40
2.0
100
AcDbArc
 50
28.763817
 51
85.000002
  0
ARC
  5
87D
100
AcDbEntity
  8
21
100
AcDbCircle
 10
-816.73958
 20
-529.386612
 30
0.0
 40
133.776351
100
AcDbArc
 50
24.174636
 51
28.763817
  0
ARC
  5
87E
100
AcDbEntity
  8
21
100
AcDbCircle
 10
-696.519819
 20
-475.421664
 30
0.0
 40
2.0
100
AcDbArc
 50
265.000002
 51
24.174636
  0
ARC
  5
87F
100
AcDbEntity
  8
21
100
AcDbCircle
 10
-697.62558
 20
-463.752359
 30
0.0
 40
2.0
100
AcDbArc
 50
28.855665
 51
84.794977
  0
ARC
  5
880
100
AcDbEntity
  8
21
100
AcDbCircle
 10
-816.73958
 20
-529.386612
 30
0.0
 40
138.0
100
AcDbArc
 50
22.069225
 51
28.855665
  0
ARC
  5
881
100
AcDbEntity
  8
21
100
AcDbCircle
 10
-690.704222
 20
-478.287801
 30
0.0
 40
2.0
100
AcDbArc
 50
265.191779
 51
22.069225
  0
LINE
  5
882
100
AcDbEntity
  8
21
100
AcDbLine
 10
-699.989201
 20
-464.076114
 30
0.0
 11
-697.496122
 21
-462.538048
 31
0.0
  0
LINE
  5
883
100
AcDbEntity
  8
21
100
AcDbLine
 10
-694.05586
 20
-477.352683
 30
0.0
 11
-689.769824
 21
-479.498666
 31
0.0
  0
ARC
  5
884
100
AcDbEntity
  8
21
100
AcDbCircle
 10
-800.554535
 20
-443.231953
 30
0.0
 40
12.0
100
AcDbArc
 50
180.0
 51
265.000002
  0
LINE
  5
885
100
AcDbEntity
  8
21
100
AcDbLine
 10
-827.739579
 20
-401.386612
 30
0.0
 11
-827.739579
 21
-454.953092
 31
0.0
  0
ARC
  5
886
100
AcDbEntity
  8
21
100
AcDbCircle
 10
-815.739579
 20
-454.953092
 30
0.0
 40
12.0
100
AcDbArc
 50
180.0
 51
265.000002
  0
LINE
  5
887
100
AcDbEntity
  8
21
100
AcDbLine
 10
-839.522091
 20
-401.386612
 30
0.0
 11
-839.522091
 21
-456.743799
 31
0.0
  0
ARC
  5
888
100
AcDbEntity
  8
21
100
AcDbCircle
 10
-827.522091
 20
-456.743799
 30
0.0
 40
12.0
100
AcDbArc
 50
180.0
 51
265.191779
  0
LINE
  5
889
100
AcDbEntity
  8
21
100
AcDbLine
 10
-796.42268
 20
-401.386612
 30
0.0
 11
-796.42268
 21
-441.787563
 31
0.0
  0
ARC
  5
88A
100
AcDbEntity
  8
21
100
AcDbCircle
 10
-784.42268
 20
-441.787563
 30
0.0
 40
12.0
100
AcDbArc
 50
180.0
 51
264.794977
  0
LINE
  5
88B
100
AcDbEntity
  8
21
100
AcDbLine
 10
-833.654879
 20
-469.126311
 30
0.0
 11
-833.654879
 21
-517.280738
 31
0.0
  0
LINE
  5
88C
100
AcDbEntity
  8
21
100
AcDbLine
 10
-824.23958
 20
-470.901122
 30
0.0
 11
-824.23958
 21
-519.370283
 31
0.0
  0
LINE
  5
88D
100
AcDbEntity
  8
21
100
AcDbLine
 10
-809.23958
 20
-472.499342
 30
0.0
 11
-809.23958
 21
-519.370283
 31
0.0
  0
LINE
  5
88E
100
AcDbEntity
  8
21
100
AcDbLine
 10
-799.82428
 20
-475.466624
 30
0.0
 11
-799.82428
 21
-517.280738
 31
0.0
  0
ARC
  5
88F
100
AcDbEntity
  8
21
100
AcDbCircle
 10
-795.82428
 20
-475.466624
 30
0.0
 40
4.0
100
AcDbArc
 50
85.191779
 51
180.0
  0
ARC
  5
890
100
AcDbEntity
  8
21
100
AcDbCircle
 10
-837.654879
 20
-469.126311
 30
0.0
 40
4.0
100
AcDbArc
 50
0.0
 51
50.706041
  0
ARC
  5
891
100
AcDbEntity
  8
21
100
AcDbCircle
 10
-807.23958
 20
-472.499342
 30
0.0
 40
2.0
100
AcDbArc
 50
85.191779
 51
180.0
  0
ARC
  5
892
100
AcDbEntity
  8
21
100
AcDbCircle
 10
-826.23958
 20
-470.901122
 30
0.0
 40
2.0
100
AcDbArc
 50
0.0
 51
85.191779
  0
LINE
  5
893
100
AcDbEntity
  8
21
100
AcDbLine
 10
-811.812294
 20
-535.886612
 30
0.0
 11
-811.812294
 21
-522.886612
 31
0.0
  0
LINE
  5
894
100
AcDbEntity
  8
21
100
AcDbLine
 10
-827.739575
 20
-533.886612
 30
0.0
 11
-827.739575
 21
-524.886612
 31
0.0
  0
LINE
  5
895
100
AcDbEntity
  8
21
100
AcDbLine
 10
-839.522079
 20
-535.491262
 30
0.0
 11
-839.522079
 21
-523.281963
 31
0.0
  0
ARC
  5
896
100
AcDbEntity
  8
21
100
AcDbCircle
 10
-825.739575
 20
-524.886612
 30
0.0
 40
2.0
100
AcDbArc
 50
90.0
 51
180.0
  0
ARC
  5
897
100
AcDbEntity
  8
21
100
AcDbCircle
 10
-825.739575
 20
-533.886612
 30
0.0
 40
2.0
100
AcDbArc
 50
180.0
 51
270.0
  0
LINE
  5
898
100
AcDbEntity
  8
21
100
AcDbLine
 10
-680.935855
 20
-520.380253
 30
0.0
 11
-816.73958
 21
-521.444815
 31
0.0
  0
ARC
  5
899
100
AcDbEntity
  8
21
100
AcDbCircle
 10
-680.920177
 20
-522.380192
 30
0.0
 40
2.0
100
AcDbArc
 50
2.95306
 51
90.449131
  0
LINE
  5
89A
100
AcDbEntity
  8
21
100
AcDbLine
 10
-680.935855
 20
-538.392972
 30
0.0
 11
-816.73958
 21
-537.32841
 31
0.0
  0
ARC
  5
89B
100
AcDbEntity
  8
21
100
AcDbCircle
 10
-680.920177
 20
-536.393033
 30
0.0
 40
2.0
100
AcDbArc
 50
269.550869
 51
357.04694
  0
LINE
  5
89C
100
AcDbEntity
  8
21
100
AcDbLine
 10
-683.121235
 20
-522.886612
 30
0.0
 11
-680.401021
 21
-521.208302
 31
0.0
  0
LINE
  5
89D
100
AcDbEntity
  8
21
100
AcDbLine
 10
-683.121235
 20
-535.886612
 30
0.0
 11
-680.401021
 21
-537.564923
 31
0.0
  0
LINE
  5
89E
100
AcDbEntity
  8
21
100
AcDbLine
 10
-816.73958
 20
-521.444815
 30
0.0
 11
-837.686234
 21
-521.280615
 31
0.0
  0
LINE
  5
89F
100
AcDbEntity
  8
21
100
AcDbLine
 10
-837.506402
 20
-537.4912
 30
0.0
 11
-816.73958
 21
-537.32841
 31
0.0
  0
ARC
  5
8A0
100
AcDbEntity
  8
21
100
AcDbCircle
 10
-837.522079
 20
-523.281963
 30
0.0
 40
2.0
100
AcDbArc
 50
89.550869
 51
180.0
  0
ARC
  5
8A1
100
AcDbEntity
  8
21
100
AcDbCircle
 10
-837.522079
 20
-535.491262
 30
0.0
 40
2.0
100
AcDbArc
 50
180.0
 51
270.449131
  0
LINE
  5
8A2
100
AcDbEntity
  8
21
100
AcDbLine
 10
-837.247521
 20
-521.579032
 30
0.0
 11
-827.739575
 21
-522.886612
 31
0.0
  0
LINE
  5
8A3
100
AcDbEntity
  8
21
100
AcDbLine
 10
-827.739575
 20
-535.886612
 30
0.0
 11
-837.245813
 21
-537.193958
 31
0.0
  0
ARC
  5
8A4
100
AcDbEntity
  8
21
100
AcDbCircle
 10
-795.82428
 20
-517.280738
 30
0.0
 40
4.0
100
AcDbArc
 50
180.0
 51
270.449131
  0
ARC
  5
8A5
100
AcDbEntity
  8
21
100
AcDbCircle
 10
-837.654879
 20
-517.280738
 30
0.0
 40
4.0
100
AcDbArc
 50
269.550869
 51
360.0
  0
ARC
  5
8A6
100
AcDbEntity
  8
21
100
AcDbCircle
 10
-826.23958
 20
-519.370283
 30
0.0
 40
2.0
100
AcDbArc
 50
269.550869
 51
360.0
  0
ARC
  5
8A7
100
AcDbEntity
  8
21
100
AcDbCircle
 10
-807.23958
 20
-519.370283
 30
0.0
 40
2.0
100
AcDbArc
 50
180.0
 51
270.449131
  0
LINE
  5
8A8
100
AcDbEntity
  8
21
100
AcDbLine
 10
-816.785448
 20
-591.865796
 30
0.0
 11
-696.69413
 21
-581.359171
 31
0.0
  0
LINE
  5
8A9
100
AcDbEntity
  8
21
100
AcDbLine
 10
-801.600403
 20
-603.586935
 30
0.0
 11
-701.048704
 21
-594.789805
 31
0.0
  0
LINE
  5
8AA
100
AcDbEntity
  8
21
100
AcDbLine
 10
-697.444141
 20
-597.012619
 30
0.0
 11
-785.511319
 21
-605.035144
 31
0.0
  0
LINE
  5
8AB
100
AcDbEntity
  8
21
100
AcDbLine
 10
-828.52794
 20
-590.071656
 30
0.0
 11
-690.871863
 21
-578.492462
 31
0.0
  0
ARC
  5
8AC
100
AcDbEntity
  8
21
100
AcDbCircle
 10
-701.223015
 20
-592.797415
 30
0.0
 40
2.0
100
AcDbArc
 50
274.999998
 51
331.236183
  0
ARC
  5
8AD
100
AcDbEntity
  8
21
100
AcDbCircle
 10
-816.73958
 20
-529.386612
 30
0.0
 40
133.776351
100
AcDbArc
 50
331.236183
 51
335.825364
  0
ARC
  5
8AE
100
AcDbEntity
  8
21
100
AcDbCircle
 10
-696.519819
 20
-583.351561
 30
0.0
 40
2.0
100
AcDbArc
 50
335.825364
 51
94.999998
  0
ARC
  5
8AF
100
AcDbEntity
  8
21
100
AcDbCircle
 10
-697.62558
 20
-595.020866
 30
0.0
 40
2.0
100
AcDbArc
 50
275.205023
 51
331.144335
  0
ARC
  5
8B0
100
AcDbEntity
  8
21
100
AcDbCircle
 10
-816.73958
 20
-529.386612
 30
0.0
 40
138.0
100
AcDbArc
 50
331.144335
 51
337.930775
  0
ARC
  5
8B1
100
AcDbEntity
  8
21
100
AcDbCircle
 10
-690.704222
 20
-580.485424
 30
0.0
 40
2.0
100
AcDbArc
 50
337.930775
 51
94.808221
  0
LINE
  5
8B2
100
AcDbEntity
  8
21
100
AcDbLine
 10
-699.989201
 20
-594.69711
 30
0.0
 11
-697.496122
 21
-596.235177
 31
0.0
  0
LINE
  5
8B3
100
AcDbEntity
  8
21
100
AcDbLine
 10
-694.05586
 20
-581.420542
 30
0.0
 11
-689.769824
 21
-579.274559
 31
0.0
  0
ARC
  5
8B4
100
AcDbEntity
  8
21
100
AcDbCircle
 10
-800.554535
 20
-615.541272
 30
0.0
 40
12.0
100
AcDbArc
 50
94.999998
 51
180.0
  0
LINE
  5
8B5
100
AcDbEntity
  8
21
100
AcDbLine
 10
-827.739579
 20
-657.386612
 30
0.0
 11
-827.739579
 21
-603.820133
 31
0.0
  0
ARC
  5
8B6
100
AcDbEntity
  8
21
100
AcDbCircle
 10
-815.739579
 20
-603.820133
 30
0.0
 40
12.0
100
AcDbArc
 50
94.999998
 51
180.0
  0
LINE
  5
8B7
100
AcDbEntity
  8
21
100
AcDbLine
 10
-839.522091
 20
-657.386612
 30
0.0
 11
-839.522091
 21
-602.029426
 31
0.0
  0
ARC
  5
8B8
100
AcDbEntity
  8
21
100
AcDbCircle
 10
-827.522091
 20
-602.029426
 30
0.0
 40
12.0
100
AcDbArc
 50
94.808221
 51
180.0
  0
LINE
  5
8B9
100
AcDbEntity
  8
21
100
AcDbLine
 10
-796.42268
 20
-657.386612
 30
0.0
 11
-796.42268
 21
-616.985662
 31
0.0
  0
ARC
  5
8BA
100
AcDbEntity
  8
21
100
AcDbCircle
 10
-784.42268
 20
-616.985662
 30
0.0
 40
12.0
100
AcDbArc
 50
95.205023
 51
180.0
  0
LINE
  5
8BB
100
AcDbEntity
  8
21
100
AcDbLine
 10
-833.654879
 20
-589.646914
 30
0.0
 11
-833.654879
 21
-541.492487
 31
0.0
  0
LINE
  5
8BC
100
AcDbEntity
  8
21
100
AcDbLine
 10
-824.23958
 20
-587.872103
 30
0.0
 11
-824.23958
 21
-539.402941
 31
0.0
  0
LINE
  5
8BD
100
AcDbEntity
  8
21
100
AcDbLine
 10
-809.23958
 20
-586.273883
 30
0.0
 11
-809.23958
 21
-539.402941
 31
0.0
  0
LINE
  5
8BE
100
AcDbEntity
  8
21
100
AcDbLine
 10
-799.82428
 20
-583.306601
 30
0.0
 11
-799.82428
 21
-541.492487
 31
0.0
  0
ARC
  5
8BF
100
AcDbEntity
  8
21
100
AcDbCircle
 10
-795.82428
 20
-583.306601
 30
0.0
 40
4.0
100
AcDbArc
 50
180.0
 51
274.808221
  0
ARC
  5
8C0
100
AcDbEntity
  8
21
100
AcDbCircle
 10
-837.654879
 20
-589.646914
 30
0.0
 40
4.0
100
AcDbArc
 50
309.293959
 51
360.0
  0
ARC
  5
8C1
100
AcDbEntity
  8
21
100
AcDbCircle
 10
-807.23958
 20
-586.273883
 30
0.0
 40
2.0
100
AcDbArc
 50
180.0
 51
274.808221
  0
ARC
  5
8C2
100
AcDbEntity
  8
21
100
AcDbCircle
 10
-826.23958
 20
-587.872103
 30
0.0
 40
2.0
100
AcDbArc
 50
274.808221
 51
360.0
  0
ARC
  5
8C3
100
AcDbEntity
  8
21
100
AcDbCircle
 10
-795.82428
 20
-541.492487
 30
0.0
 40
4.0
100
AcDbArc
 50
89.550869
 51
180.0
  0
ARC
  5
8C4
100
AcDbEntity
  8
21
100
AcDbCircle
 10
-837.654879
 20
-541.492487
 30
0.0
 40
4.0
100
AcDbArc
 50
0.0
 51
90.449131
  0
ARC
  5
8C5
100
AcDbEntity
  8
21
100
AcDbCircle
 10
-826.23958
 20
-539.402941
 30
0.0
 40
2.0
100
AcDbArc
 50
0.0
 51
90.449131
  0
ARC
  5
8C6
100
AcDbEntity
  8
21
100
AcDbCircle
 10
-807.23958
 20
-539.402941
 30
0.0
 40
2.0
100
AcDbArc
 50
89.550869
 51
180.0
  0
LINE
  5
8C7
100
AcDbEntity
  8
21
100
AcDbLine
 10
-786.145992
 20
-659.386612
 30
0.0
 11
-847.157833
 21
-659.386612
 31
0.0
  0
ARC
  5
8C8
100
AcDbEntity
  8
21
100
AcDbCircle
 10
-794.42268
 20
-657.386612
 30
0.0
 40
2.0
100
AcDbArc
 50
180.0
 51
270.0
  0
ARC
  5
8C9
100
AcDbEntity
  8
21
100
AcDbCircle
 10
-841.522091
 20
-657.386612
 30
0.0
 40
2.0
100
AcDbArc
 50
270.0
 51
360.0
  0
ARC
  5
8CA
100
AcDbEntity
  8
21
100
AcDbCircle
 10
-829.739579
 20
-657.386612
 30
0.0
 40
2.0
100
AcDbArc
 50
270.0
 51
0.0
  0
LINE
  5
8CB
100
AcDbEntity
  8
21
100
AcDbLine
 10
-852.14212
 20
-670.982028
 30
0.0
 11
-852.14212
 21
-661.386612
 31
0.0
  0
LINE
  5
8CC
100
AcDbEntity
  8
21
100
AcDbLine
 10
-841.085665
 20
-673.722816
 30
0.0
 11
-841.085665
 21
-663.949284
 31
0.0
  0
LINE
  5
8CD
100
AcDbEntity
  8
21
100
AcDbLine
 10
-781.337045
 20
-671.402545
 30
0.0
 11
-781.337045
 21
-661.386612
 31
0.0
  0
LINE
  5
8CE
100
AcDbEntity
  8
21
100
AcDbLine
 10
-792.393494
 20
-673.722816
 30
0.0
 11
-792.393494
 21
-663.949284
 31
0.0
  0
ARC
  5
8CF
100
AcDbEntity
  8
21
100
AcDbCircle
 10
-816.739582
 20
-512.27951
 30
0.0
 40
151.307103
100
AcDbArc
 50
256.468611
 51
283.531389
  0
ARC
  5
8D0
100
AcDbEntity
  8
21
100
AcDbCircle
 10
-839.085665
 20
-663.949284
 30
0.0
 40
2.0
100
AcDbArc
 50
81.618693
 51
180.0
  0
ARC
  5
8D1
100
AcDbEntity
  8
21
100
AcDbCircle
 10
-794.393494
 20
-663.949284
 30
0.0
 40
2.0
100
AcDbArc
 50
0.0
 51
98.381307
  0
POINT
  5
8D2
100
AcDbEntity
  8
21
100
AcDbPoint
 10
-816.73958
 20
-529.386612
 30
0.0
  0
ARC
  5
8D3
100
AcDbEntity
  8
21
100
AcDbCircle
 10
-816.73958
 20
-534.786612
 30
0.0
 40
153.3
100
AcDbArc
 50
101.162271
 51
118.997528
  0
ARC
  5
8D4
100
AcDbEntity
  8
21
100
AcDbCircle
 10
-816.73958
 20
-534.786612
 30
0.0
 40
153.3
100
AcDbArc
 50
61.002472
 51
78.837729
  0
LINE
  5
8D5
100
AcDbEntity
  8
21
100
AcDbLine
 10
-786.145992
 20
-399.386612
 30
0.0
 11
-847.157833
 21
-399.386612
 31
0.0
  0
ARC
  5
8D6
100
AcDbEntity
  8
21
100
AcDbCircle
 10
-794.42268
 20
-401.386612
 30
0.0
 40
2.0
100
AcDbArc
 50
90.0
 51
180.0
  0
ARC
  5
8D7
100
AcDbEntity
  8
21
100
AcDbCircle
 10
-841.522091
 20
-401.386612
 30
0.0
 40
2.0
100
AcDbArc
 50
0.0
 51
90.0
  0
ARC
  5
8D8
100
AcDbEntity
  8
21
100
AcDbCircle
 10
-829.739579
 20
-401.386612
 30
0.0
 40
2.0
100
AcDbArc
 50
360.0
 51
90.0
  0
LINE
  5
8D9
100
AcDbEntity
  8
21
100
AcDbLine
 10
-852.14212
 20
-387.791197
 30
0.0
 11
-852.14212
 21
-397.386612
 31
0.0
  0
LINE
  5
8DA
100
AcDbEntity
  8
21
100
AcDbLine
 10
-841.085665
 20
-385.050409
 30
0.0
 11
-841.085665
 21
-394.823941
 31
0.0
  0
LINE
  5
8DB
100
AcDbEntity
  8
21
100
AcDbLine
 10
-781.337045
 20
-387.37068
 30
0.0
 11
-781.337045
 21
-397.386612
 31
0.0
  0
LINE
  5
8DC
100
AcDbEntity
  8
21
100
AcDbLine
 10
-792.393494
 20
-385.050409
 30
0.0
 11
-792.393494
 21
-394.823941
 31
0.0
  0
ARC
  5
8DD
100
AcDbEntity
  8
21
100
AcDbCircle
 10
-816.739582
 20
-546.493715
 30
0.0
 40
151.307103
100
AcDbArc
 50
76.468611
 51
103.531389
  0
ARC
  5
8DE
100
AcDbEntity
  8
21
100
AcDbCircle
 10
-839.085665
 20
-394.823941
 30
0.0
 40
2.0
100
AcDbArc
 50
180.0
 51
278.381307
  0
ARC
  5
8DF
100
AcDbEntity
  8
21
100
AcDbCircle
 10
-794.393494
 20
-394.823941
 30
0.0
 40
2.0
100
AcDbArc
 50
261.618693
 51
360.0
  0
LINE
  5
8E0
100
AcDbEntity
  8
21
100
AcDbLine
 10
-816.73958
 20
-384.386612
 30
0.0
 11
-846.41668
 21
-384.386612
 31
0.0
  0
LINE
  5
8E1
100
AcDbEntity
  8
21
100
AcDbLine
 10
-816.73958
 20
-384.386612
 30
0.0
 11
-787.062485
 21
-384.386612
 31
0.0
  0
ENDSEC
  0
SECTION
  2
OBJECTS
  0
DICTIONARY
  5
949
100
AcDbDictionary
  3
ACAD_GROUP
350
94A
  3
ACAD_MLINESTYLE
350
94B
  0
DICTIONARY
  5
94A
102
{ACAD_REACTORS
330
949
102
}
100
AcDbDictionary
  0
DICTIONARY
  5
94B
102
{ACAD_REACTORS
330
949
102
}
100
AcDbDictionary
  3
STANDARD
350
94C
  0
MLINESTYLE
  5
94C
102
{ACAD_REACTORS
330
94B
102
}
100
AcDbMlineStyle
  2
STANDARD
 70
     0
  3

 62
     0
 51
90.0
 52
90.0
 71
     2
 49
0.5
 62
   256
  6
BYLAYER
 49
-0.5
 62
   256
  6
BYLAYER
  0
ENDSEC
  0
EOF
