  0
SECTION
  2
HEADER
  9
$ACADVER
  1
AC1012
  9
$DWGCODEPAGE
  3
ansi_932
  9
$INSBASE
 10
0.0
 20
0.0
 30
0.0
  9
$EXTMIN
 10
-1470.0
 20
-1039.5
 30
1.000000E+20
  9
$EXTMAX
 10
1470.0
 20
1039.5
 30
-1.000000E+20
  9
$LIMMIN
 10
-1470.0
 20
-1039.5
  9
$LIMMAX
 10
1470.0
 20
1039.5
  9
$ORTHOMODE
 70
     0
  9
$REGENMODE
 70
     1
  9
$FILLMODE
 70
     1
  9
$QTEXTMODE
 70
     0
  9
$MIRRTEXT
 70
     1
  9
$DRAGMODE
 70
     2
  9
$LTSCALE
 40
1.0
  9
$OSMODE
 70
     0
  9
$ATTMODE
 70
     1
  9
$TEXTSIZE
 40
0.2
  9
$TRACEWID
 40
0.05
  9
$TEXTSTYLE
  7
STANDARD
  9
$CLAYER
  8
0
  9
$CELTYPE
  6
CONTINUOUS
  9
$CECOLOR
 62
   256
  9
$CELTSCALE
 40
1.0
  9
$DELOBJ
 70
     1
  9
$DISPSILH
 70
     0
  9
$DIMSCALE
 40
7.0
  9
$DIMASZ
 40
2.0
  9
$DIMEXO
 40
1.0
  9
$DIMDLI
 40
0.38
  9
$DIMRND
 40
0.0
  9
$DIMDLE
 40
0.0
  9
$DIMEXE
 40
2.0
  9
$DIMTP
 40
0.0
  9
$DIMTM
 40
0.0
  9
$DIMTXT
 40
3.3
  9
$DIMCEN
 40
0.09
  9
$DIMTSZ
 40
0.0
  9
$DIMTOL
 70
     0
  9
$DIMLIM
 70
     0
  9
$DIMTIH
 70
     0
  9
$DIMTOH
 70
     0
  9
$DIMSE1
 70
     0
  9
$DIMSE2
 70
     0
  9
$DIMTAD
 70
     1
  9
$DIMZIN
 70
     0
  9
$DIMBLK
  1

  9
$DIMASO
 70
     1
  9
$DIMSHO
 70
     1
  9
$DIMPOST
  1

  9
$DIMAPOST
  1

  9
$DIMALT
 70
     0
  9
$DIMALTD
 70
     2
  9
$DIMALTF
 40
25.4
  9
$DIMLFAC
 40
1.0
  9
$DIMTOFL
 70
     0
  9
$DIMTVP
 40
0.0
  9
$DIMTIX
 70
     0
  9
$DIMSOXD
 70
     0
  9
$DIMSAH
 70
     0
  9
$DIMBLK1
  1

  9
$DIMBLK2
  1

  9
$DIMSTYLE
  2
STANDARD
  9
$DIMCLRD
 70
     0
  9
$DIMCLRE
 70
     0
  9
$DIMCLRT
 70
     0
  9
$DIMTFAC
 40
1.0
  9
$DIMGAP
 40
0.5
  9
$DIMJUST
 70
     0
  9
$DIMSD1
 70
     0
  9
$DIMSD2
 70
     0
  9
$DIMTOLJ
 70
     1
  9
$DIMTZIN
 70
     0
  9
$DIMALTZ
 70
     0
  9
$DIMALTTZ
 70
     0
  9
$DIMFIT
 70
     3
  9
$DIMUPT
 70
     0
  9
$DIMUNIT
 70
     2
  9
$DIMDEC
 70
     2
  9
$DIMTDEC
 70
     4
  9
$DIMALTU
 70
     2
  9
$DIMALTTD
 70
     2
  9
$DIMTXSTY
  7
STANDARD
  9
$DIMAUNIT
 70
     0
  9
$LUNITS
 70
     2
  9
$LUPREC
 70
     4
  9
$SKETCHINC
 40
0.1
  9
$FILLETRAD
 40
0.0
  9
$AUNITS
 70
     0
  9
$AUPREC
 70
     0
  9
$MENU
  1
acad
  9
$ELEVATION
 40
0.0
  9
$PELEVATION
 40
0.0
  9
$THICKNESS
 40
0.0
  9
$LIMCHECK
 70
     0
  9
$BLIPMODE
 70
     1
  9
$CHAMFERA
 40
0.0
  9
$CHAMFERB
 40
0.0
  9
$CHAMFERC
 40
0.0
  9
$CHAMFERD
 40
0.0
  9
$SKPOLY
 70
     0
  9
$TDCREATE
 40
2452114.000000000
  9
$TDUPDATE
 40
0.000000000
  9
$TDINDWG
 40
0.0000000000
  9
$TDUSRTIMER
 40
0.0000000000
  9
$USRTIMER
 70
     1
  9
$ANGBASE
 50
0.0
  9
$ANGDIR
 70
     0
  9
$PDMODE
 70
     0
  9
$PDSIZE
 40
0.0
  9
$PLINEWID
 40
0.0
  9
$COORDS
 70
     0
  9
$SPLFRAME
 70
     0
  9
$SPLINETYPE
 70
     6
  9
$SPLINESEGS
 70
     8
  9
$ATTDIA
 70
     0
  9
$ATTREQ
 70
     1
  9
$HANDLING
 70
     1
  9
$HANDSEED
  5
9A2
  9
$SURFTAB1
 70
     6
  9
$SURFTAB2
 70
     6
  9
$SURFTYPE
 70
     6
  9
$SURFU
 70
     6
  9
$SURFV
 70
     6
  9
$UCSNAME
  2

  9
$UCSORG
 10
0.0
 20
0.0
 30
0.0
  9
$UCSXDIR
 10
1.0
 20
0.0
 30
0.0
  9
$UCSYDIR
 10
0.0
 20
1.0
 30
0.0
  9
$PUCSNAME
  2

  9
$PUCSORG
 10
0.0
 20
0.0
 30
0.0
  9
$PUCSXDIR
 10
1.0
 20
0.0
 30
0.0
  9
$PUCSYDIR
 10
0.0
 20
1.0
 30
0.0
  9
$USERI1
 70
     0
  9
$USERI2
 70
     0
  9
$USERI3
 70
     0
  9
$USERI4
 70
     0
  9
$USERI5
 70
     0
  9
$USERR1
 40
0.0
  9
$USERR2
 40
0.0
  9
$USERR3
 40
0.0
  9
$USERR4
 40
0.0
  9
$USERR5
 40
0.0
  9
$WORLDVIEW
 70
     1
  9
$SHADEDGE
 70
     3
  9
$SHADEDIF
 70
    70
  9
$TILEMODE
 70
     1
  9
$MAXACTVP
 70
    16
  9
$PINSBASE
 10
0.0
 20
0.0
 30
0.0
  9
$PLIMCHECK
 70
     0
  9
$PEXTMIN
 10
1.000000E+20
 20
1.000000E+20
 30
1.000000E+20
  9
$PEXTMAX
 10
-1.000000E+20
 20
-1.000000E+20
 30
-1.000000E+20
  9
$PLIMMIN
 10
0.0
 20
0.0
  9
$PLIMMAX
 10
12.0
 20
9.0
  9
$UNITMODE
 70
     0
  9
$VISRETAIN
 70
     0
  9
$PLINEGEN
 70
     1
  9
$PSLTSCALE
 70
     0
  9
$TREEDEPTH
 70
  3020
  9
$PICKSTYLE
 70
     1
  9
$CMLSTYLE
  2
STANDARD
  9
$CMLJUST
 70
     0
  9
$CMLSCALE
 40
1.0
  9
$SAVEIMAGES
 70
     0
  0
ENDSEC
  0
SECTION
  2
CLASSES
  0
CLASS
  1
LWPOLYLINE
  2
AcDbPolyline
  3
"AutoCAD"
 90
    32768
280
     0
281
     1
  0
CLASS
  1
IMAGE
  2
AcDbRasterImage
  3
ISM
 90
    32895
280
     0
281
     1
  0
CLASS
  1
OLE2FRAME
  2
AcDbOle2Frame
  3
""
 90
    32768
280
     0
281
     1
  0
CLASS
  1
HATCH
  2
AcDbHatch
  3
"ACAD_SEDONA"
 90
    32768
280
     0
281
     1
  0
CLASS
  1
DICTIONARYVAR
  2
AcDbDictionaryVar
  3
"AutoCAD"
 90
    32768
280
     0
281
     0
  0
CLASS
  1
RASTERVARIABLES
  2
AcDbRasterVariables
  3
ISM
 90
    32768
280
     0
281
     0
  0
CLASS
  1
IMAGEDEF
  2
AcDbRasterImageDef
  3
ISM
 90
    32768
280
     0
281
     0
  0
CLASS
  1
IMAGEDEF_REACTOR
  2
AcDbRasterImageDefReactor
  3
ISM
 90
    32769
280
     0
281
     0
  0
CLASS
  1
IDBUFFER
  2
AcDbIdBuffer
  3
"Acad"
 90
    32768
280
     0
281
     0
  0
CLASS
  1
SPATIAL_FILTER
  2
AcDbSpatialFilter
  3
"Acad"
 90
    32768
280
     0
281
     0
  0
CLASS
  1
XRECORD
  2
AcDbXrecord
  3
"<Built In>"
 90
    32768
280
     0
281
     0
  0
CLASS
  1
SORTENTSTABLE
  2
AcDbSortentsTable
  3
"AutoCAD"
 90
    32768
280
     0
281
     0
  0
CLASS
  1
LAYER_INDEX
  2
AcDbLayerIndex
  3
"Acad"
 90
    32768
280
     0
281
     0
  0
CLASS
  1
SPATIAL_INDEX
  2
AcDbSpatialIndex
  3
"Acad"
 90
    32768
280
     0
281
     0
  0
CLASS
  1
OBJECT_PTR
  2
CAseDLPNTableRecord
  3
"ASE-LPNTableRecord"
 90
    32769
280
     0
281
     0
  0
CLASS
  1
LAYOUT
  2
AcDbLayout
  3
"AutoCAD 2000"
 90
    32768
280
     0
281
     0
  0
CLASS
  1
PLOTSETTINGS
  2
AcDbPlotSettings
  3
"AutoCAD 2000"
 90
    32768
280
     0
281
     0
  0
CLASS
  1
ACDBDICTIONARYWDFLT
  2
AcDbDictionaryWithDefault
  3
"AutoCAD 2000"
 90
    32768
280
     0
281
     0
  0
CLASS
  1
ACDBPLACEHOLDER
  2
AcDbPlaceHolder
  3
"AutoCAD 2000"
 90
    32768
280
     0
281
     0
  0
CLASS
  1
VBA_PROJECT
  2
AcDbVbaProject
  3
"acadvba"
 90
    32768
280
     0
281
     0
  0
CLASS
  1
WIPEOUT
  2
AcDbWipeout
  3
WipeOut|AutoCAD Express Tool|expresstools@autodesk.com
 90
    32895
280
     0
281
     1
  0
CLASS
  1
WIPEOUTVARIABLES
  2
AcDbWipeoutVariables
  3
WipeOut|AutoCAD Express Tool|expresstools@autodesk.com
 90
    32768
280
     0
281
     0
  0
CLASS
  1
RTEXT
  2
RText
  3
RText|AutoCAD Express Tool|expresstools@autodesk.com
 90
    32768
280
     0
281
     1
  0
CLASS
  1
ARCALIGNEDTEXT
  2
AcDbArcAlignedText
  3
ATEXT|AutoCAD Express Tool|expresstools@autodesk.com
 90
    32768
280
     0
281
     1
  0
ENDSEC
  0
SECTION
  2
TABLES
  0
TABLE
  2
VPORT
  5
6
100
AcDbSymbolTable
 70
     1
  0
VPORT
  5
21
100
AcDbSymbolTableRecord
100
AcDbViewportTableRecord
  2
*ACTIVE
 70
     0
 10
0.0
 20
0.0
 11
1.0
 21
1.0
 12
0.0
 22
0.0
 13
0.0
 23
0.0
 14
1.0
 24
1.0
 15
0.0
 25
0.0
 16
0.0
 26
0.0
 36
1.0
 17
0.0
 27
0.0
 37
0.0
 40
2079.0
 41
1.414141
 42
50.0
 43
0.0
 44
0.0
 50
0.0
 51
0.0
 71
     0
 72
   500
 73
     1
 74
     1
 75
     0
 76
     0
 77
     0
 78
     0
  0
ENDTAB
  0
TABLE
  2
LTYPE
  5
3
100
AcDbSymbolTable
 70
     9
  0
LTYPE
  5
C
100
AcDbSymbolTableRecord
100
AcDbLinetypeTableRecord
  2
BYBLOCK
 70
    64
  3

 72
    65
 73
     0
 40
0.0
  0
LTYPE
  5
D
100
AcDbSymbolTableRecord
100
AcDbLinetypeTableRecord
  2
BYLAYER
 70
    64
  3

 72
    65
 73
     0
 40
0.0
  0
LTYPE
  5
E
100
AcDbSymbolTableRecord
100
AcDbLinetypeTableRecord
  2
CONTINUOUS
 70
     0
  3
Solid line
 72
    65
 73
     0
 40
0.0
  0
LTYPE
  5
F
100
AcDbSymbolTableRecord
100
AcDbLinetypeTableRecord
  2
DASHED
 70
     0
  3
__ __ __ __ __ __ __ __ __ __ __ __ __ __ __
 72
    65
 73
     2
 40
2.0
 49
1.2
 74
     0
 49
-0.8
 74
     0
  0
LTYPE
  5
10
100
AcDbSymbolTableRecord
100
AcDbLinetypeTableRecord
  2
CENTER
 70
     0
  3
____ _ ____ _ ____ _ ____ _ ____ _ ____ _ ____
 72
    65
 73
     4
 40
12.0
 49
9.0
 74
     0
 49
-1.0
 74
     0
 49
1.0
 74
     0
 49
-1.0
 74
     0
  0
LTYPE
  5
11
100
AcDbSymbolTableRecord
100
AcDbLinetypeTableRecord
  2
HIDDEN
 70
     0
  3
_ _ _ _ _ _ _ _ _ _ _ _ _ _ _ _ _ _ _ _ _ _ _
 72
    65
 73
     2
 40
3.2
 49
2.4
 74
     0
 49
-0.8
 74
     0
  0
LTYPE
  5
12
100
AcDbSymbolTableRecord
100
AcDbLinetypeTableRecord
  2
PHANTOM
 70
     0
  3
_____ _ _ _____ _ _ _____ _ _ _____ _ _ _____
 72
    65
 73
     6
 40
13.5
 49
9.0
 74
     0
 49
-1.0
 74
     0
 49
1.0
 74
     0
 49
-0.5
 74
     0
 49
1.0
 74
     0
 49
-1.0
 74
     0
  0
LTYPE
  5
13
100
AcDbSymbolTableRecord
100
AcDbLinetypeTableRecord
  2
DOT
 70
     0
  3
...............................................
 72
    65
 73
     2
 40
1.0
 49
0.5
 74
     0
 49
-0.5
 74
     0
  0
LTYPE
  5
14
100
AcDbSymbolTableRecord
100
AcDbLinetypeTableRecord
  2
DASHDOT
 70
     0
  3
__ . __ . __ . __ . __ . __ . __ . __ . __ . __
 72
    65
 73
     4
 40
8.0
 49
5.0
 74
     0
 49
-1.0
 74
     0
 49
1.0
 74
     0
 49
-1.0
 74
     0
  0
ENDTAB
  0
TABLE
  2
LAYER
  5
1
100
AcDbSymbolTable
 70
    12
  0
LAYER
  5
15
100
AcDbSymbolTableRecord
100
AcDbLayerTableRecord
  2
0
 70
     0
 62
     7
  6
CONTINUOUS
  0
LAYER
  5
16
100
AcDbSymbolTableRecord
100
AcDbLayerTableRecord
  2
1
 70
     0
 62
     7
  6
CONTINUOUS
  0
LAYER
  5
17
100
AcDbSymbolTableRecord
100
AcDbLayerTableRecord
  2
2
 70
     0
 62
     7
  6
CONTINUOUS
  0
LAYER
  5
18
100
AcDbSymbolTableRecord
100
AcDbLayerTableRecord
  2
3
 70
     0
 62
     7
  6
CONTINUOUS
  0
LAYER
  5
19
100
AcDbSymbolTableRecord
100
AcDbLayerTableRecord
  2
4
 70
     0
 62
     7
  6
CONTINUOUS
  0
LAYER
  5
1A
100
AcDbSymbolTableRecord
100
AcDbLayerTableRecord
  2
5
 70
     0
 62
     7
  6
CONTINUOUS
  0
LAYER
  5
1B
100
AcDbSymbolTableRecord
100
AcDbLayerTableRecord
  2
14
 70
     0
 62
     7
  6
CONTINUOUS
  0
LAYER
  5
1C
100
AcDbSymbolTableRecord
100
AcDbLayerTableRecord
  2
15
 70
     0
 62
     7
  6
CONTINUOUS
  0
LAYER
  5
1D
100
AcDbSymbolTableRecord
100
AcDbLayerTableRecord
  2
17
 70
     0
 62
     7
  6
CONTINUOUS
  0
LAYER
  5
1E
100
AcDbSymbolTableRecord
100
AcDbLayerTableRecord
  2
18
 70
     0
 62
     7
  6
CONTINUOUS
  0
LAYER
  5
1F
100
AcDbSymbolTableRecord
100
AcDbLayerTableRecord
  2
19
 70
     0
 62
     7
  6
CONTINUOUS
  0
LAYER
  5
20
100
AcDbSymbolTableRecord
100
AcDbLayerTableRecord
  2
20
 70
     0
 62
     7
  6
CONTINUOUS
  0
ENDTAB
  0
TABLE
  2
STYLE
  5
2
100
AcDbSymbolTable
 70
     1
  0
STYLE
  5
23
100
AcDbSymbolTableRecord
100
AcDbTextStyleTableRecord
  2
STANDARD
 70
    64
 40
0.0
 41
1.0
 50
0.0
 71
     0
 42
1.0
  3
txt
  4
BIGFONT
  0
ENDTAB
  0
TABLE
  2
VIEW
  5
4
100
AcDbSymbolTable
 70
     0
  0
ENDTAB
  0
TABLE
  2
UCS
  5
5
100
AcDbSymbolTable
 70
     0
  0
ENDTAB
  0
TABLE
  2
APPID
  5
7
100
AcDbSymbolTable
 70
     1
  0
APPID
  5
22
100
AcDbSymbolTableRecord
100
AcDbRegAppTableRecord
  2
ACAD
 70
     0
  0
ENDTAB
  0
TABLE
  2
DIMSTYLE
  5
8
100
AcDbSymbolTable
 70
     1
  0
DIMSTYLE
105
34
100
AcDbSymbolTableRecord
100
AcDbDimStyleTableRecord
  2
STANDARD
 70
     0
  3

  4

  5

  6

  7

 40
7.0
 41
2.0
 42
1.0
 43
0.38
 44
2.0
 45
0.0
 46
0.0
 47
0.0
 48
0.0
 71
     0
 72
     0
 73
     0
 74
     0
 75
     0
 76
     0
 77
     1
 78
     0
140
3.3
141
0.09
142
0.0
143
25.4
144
1.0
145
0.0
146
1.0
147
0.5
170
     0
171
     2
172
     0
173
     0
174
     0
175
     0
176
     0
177
     0
178
     0
270
     2
271
     2
272
     4
273
     2
274
     2
275
     0
280
     0
281
     0
282
     0
283
     1
284
     0
285
     0
286
     0
287
     3
288
     0
340
23
  0
ENDTAB
  0
TABLE
  2
BLOCK_RECORD
  5
2F
100
AcDbSymbolTable
 70
     9
  0
BLOCK_RECORD
  5
2D
100
AcDbSymbolTableRecord
100
AcDbBlockTableRecord
  2
*MODEL_SPACE
  0
BLOCK_RECORD
  5
2E
100
AcDbSymbolTableRecord
100
AcDbBlockTableRecord
  2
*PAPER_SPACE
  0
BLOCK_RECORD
  5
24
100
AcDbSymbolTableRecord
100
AcDbBlockTableRecord
  2
*D0
  0
BLOCK_RECORD
  5
25
100
AcDbSymbolTableRecord
100
AcDbBlockTableRecord
  2
*D1
  0
BLOCK_RECORD
  5
26
100
AcDbSymbolTableRecord
100
AcDbBlockTableRecord
  2
*D2
  0
BLOCK_RECORD
  5
27
100
AcDbSymbolTableRecord
100
AcDbBlockTableRecord
  2
*D3
  0
BLOCK_RECORD
  5
28
100
AcDbSymbolTableRecord
100
AcDbBlockTableRecord
  2
*D4
  0
BLOCK_RECORD
  5
29
100
AcDbSymbolTableRecord
100
AcDbBlockTableRecord
  2
*D5
  0
BLOCK_RECORD
  5
2A
100
AcDbSymbolTableRecord
100
AcDbBlockTableRecord
  2
*D6
  0
BLOCK_RECORD
  5
2B
100
AcDbSymbolTableRecord
100
AcDbBlockTableRecord
  2
*D7
  0
BLOCK_RECORD
  5
2C
100
AcDbSymbolTableRecord
100
AcDbBlockTableRecord
  2
*D8
  0
ENDTAB
  0
ENDSEC
  0
SECTION
  2
BLOCKS
  0
BLOCK
  5
30
100
AcDbEntity
  8
0
100
AcDbBlockBegin
  2
*MODEL_SPACE
 70
     0
 10
0.0
 20
0.0
 30
0.0
  3
*MODEL_SPACE
  1

  0
ENDBLK
  5
31
100
AcDbEntity
  8
0
100
AcDbBlockEnd
  0
BLOCK
  5
32
100
AcDbEntity
 67
     1
  8
0
100
AcDbBlockBegin
  2
*PAPER_SPACE
 70
     0
 10
0.0
 20
0.0
 30
0.0
  3
*PAPER_SPACE
  1

  0
ENDBLK
  5
33
100
AcDbEntity
 67
     1
  8
0
100
AcDbBlockEnd
  0
BLOCK
  5
931
100
AcDbEntity
  8
5
100
AcDbBlockBegin
  2
*D0
 70
     1
 10
0.0
 20
0.0
 30
0.0
  3
*D0
  1

  0
LINE
  5
932
100
AcDbEntity
  8
5
 62
     2
100
AcDbLine
 10
-1206.73958
 20
525.260388
 30
0.0
 11
-1206.73958
 21
791.337944
 31
0.0
  0
LINE
  5
933
100
AcDbEntity
  8
5
 62
     2
100
AcDbLine
 10
-1206.73958
 20
784.337944
 30
0.0
 11
-1193.216618
 21
780.714477
 31
0.0
  0
LINE
  5
934
100
AcDbEntity
  8
5
 62
     2
100
AcDbLine
 10
-1206.73958
 20
784.337944
 30
0.0
 11
-1193.216618
 21
787.961411
 31
0.0
  0
LINE
  5
935
100
AcDbEntity
  8
5
 62
     2
100
AcDbLine
 10
-1193.216618
 20
780.714477
 30
0.0
 11
-1193.216618
 21
787.961411
 31
0.0
  0
LINE
  5
936
100
AcDbEntity
  8
5
 62
     2
100
AcDbLine
 10
-1206.73958
 20
784.337944
 30
0.0
 11
-846.73958
 21
784.337944
 31
0.0
  0
LINE
  5
937
100
AcDbEntity
  8
5
 62
     2
100
AcDbLine
 10
-846.73958
 20
784.337944
 30
0.0
 11
-860.262541
 21
787.961411
 31
0.0
  0
LINE
  5
938
100
AcDbEntity
  8
5
 62
     2
100
AcDbLine
 10
-846.73958
 20
784.337944
 30
0.0
 11
-860.262541
 21
780.714477
 31
0.0
  0
LINE
  5
939
100
AcDbEntity
  8
5
 62
     2
100
AcDbLine
 10
-860.262541
 20
787.961411
 30
0.0
 11
-860.262541
 21
780.714477
 31
0.0
  0
LINE
  5
93A
100
AcDbEntity
  8
5
 62
     2
100
AcDbLine
 10
-846.73958
 20
679.837375
 30
0.0
 11
-846.73958
 21
791.337944
 31
0.0
  0
ENDBLK
  5
93B
100
AcDbEntity
  8
5
100
AcDbBlockEnd
  0
BLOCK
  5
93C
100
AcDbEntity
  8
5
100
AcDbBlockBegin
  2
*D1
 70
     1
 10
0.0
 20
0.0
 30
0.0
  3
*D1
  1

  0
LINE
  5
93D
100
AcDbEntity
  8
5
 62
     2
100
AcDbLine
 10
-846.73958
 20
679.837375
 30
0.0
 11
-846.73958
 21
791.337944
 31
0.0
  0
LINE
  5
93E
100
AcDbEntity
  8
5
 62
     2
100
AcDbLine
 10
-846.73958
 20
784.337944
 30
0.0
 11
-833.216618
 21
780.714477
 31
0.0
  0
LINE
  5
93F
100
AcDbEntity
  8
5
 62
     2
100
AcDbLine
 10
-846.73958
 20
784.337944
 30
0.0
 11
-833.216618
 21
787.961411
 31
0.0
  0
LINE
  5
940
100
AcDbEntity
  8
5
 62
     2
100
AcDbLine
 10
-833.216618
 20
780.714477
 30
0.0
 11
-833.216618
 21
787.961411
 31
0.0
  0
LINE
  5
941
100
AcDbEntity
  8
5
 62
     2
100
AcDbLine
 10
-846.73958
 20
784.337944
 30
0.0
 11
-126.73958
 21
784.337944
 31
0.0
  0
LINE
  5
942
100
AcDbEntity
  8
5
 62
     2
100
AcDbLine
 10
-126.73958
 20
784.337944
 30
0.0
 11
-140.262541
 21
787.961411
 31
0.0
  0
LINE
  5
943
100
AcDbEntity
  8
5
 62
     2
100
AcDbLine
 10
-126.73958
 20
784.337944
 30
0.0
 11
-140.262541
 21
780.714477
 31
0.0
  0
LINE
  5
944
100
AcDbEntity
  8
5
 62
     2
100
AcDbLine
 10
-140.262541
 20
787.961411
 30
0.0
 11
-140.262541
 21
780.714477
 31
0.0
  0
LINE
  5
945
100
AcDbEntity
  8
5
 62
     2
100
AcDbLine
 10
-126.73958
 20
530.530888
 30
0.0
 11
-126.73958
 21
791.337944
 31
0.0
  0
ENDBLK
  5
946
100
AcDbEntity
  8
5
100
AcDbBlockEnd
  0
BLOCK
  5
947
100
AcDbEntity
  8
5
100
AcDbBlockBegin
  2
*D2
 70
     1
 10
0.0
 20
0.0
 30
0.0
  3
*D2
  1

  0
TEXT
  5
948
100
AcDbEntity
  8
5
 62
     2
100
AcDbText
 10
267.090421
 20
-833.467468
 30
0.0
 40
23.1
  1
78
 41
1.4
 72
     5
 11
292.96242
 21
-833.467468
 31
0.0
100
AcDbText
  0
LINE
  5
949
100
AcDbEntity
  8
5
 62
     2
100
AcDbLine
 10
243.91042
 20
-700.086612
 30
0.0
 11
243.91042
 21
-843.967468
 31
0.0
  0
LINE
  5
94A
100
AcDbEntity
  8
5
 62
     2
100
AcDbLine
 10
243.91042
 20
-836.967468
 30
0.0
 11
257.433382
 21
-840.590935
 31
0.0
  0
LINE
  5
94B
100
AcDbEntity
  8
5
 62
     2
100
AcDbLine
 10
243.91042
 20
-836.967468
 30
0.0
 11
257.433382
 21
-833.344002
 31
0.0
  0
LINE
  5
94C
100
AcDbEntity
  8
5
 62
     2
100
AcDbLine
 10
257.433382
 20
-840.590935
 30
0.0
 11
257.433382
 21
-833.344002
 31
0.0
  0
LINE
  5
94D
100
AcDbEntity
  8
5
 62
     2
100
AcDbLine
 10
243.91042
 20
-836.967468
 30
0.0
 11
322.61042
 21
-836.967468
 31
0.0
  0
LINE
  5
94E
100
AcDbEntity
  8
5
 62
     2
100
AcDbLine
 10
322.61042
 20
-836.967468
 30
0.0
 11
309.087459
 21
-833.344002
 31
0.0
  0
LINE
  5
94F
100
AcDbEntity
  8
5
 62
     2
100
AcDbLine
 10
322.61042
 20
-836.967468
 30
0.0
 11
309.087459
 21
-840.590935
 31
0.0
  0
LINE
  5
950
100
AcDbEntity
  8
5
 62
     2
100
AcDbLine
 10
309.087459
 20
-833.344002
 30
0.0
 11
309.087459
 21
-840.590935
 31
0.0
  0
LINE
  5
951
100
AcDbEntity
  8
5
 62
     2
100
AcDbLine
 10
322.61042
 20
-700.086612
 30
0.0
 11
322.61042
 21
-843.967468
 31
0.0
  0
ENDBLK
  5
952
100
AcDbEntity
  8
5
100
AcDbBlockEnd
  0
BLOCK
  5
953
100
AcDbEntity
  8
5
100
AcDbBlockBegin
  2
*D3
 70
     1
 10
0.0
 20
0.0
 30
0.0
  3
*D3
  1

  0
TEXT
  5
954
100
AcDbEntity
  8
5
 62
     2
100
AcDbText
 10
-7.602251
 20
-13.141612
 30
0.0
 40
23.1
  1
307
 50
90.0
 41
1.4
 72
     5
 11
-7.602251
 21
28.900387
 31
0.0
100
AcDbText
  0
LINE
  5
955
100
AcDbEntity
  8
5
 62
     2
100
AcDbLine
 10
206.26042
 20
-142.386612
 30
0.0
 11
-11.102251
 21
-142.386612
 31
0.0
  0
LINE
  5
956
100
AcDbEntity
  8
5
 62
     2
100
AcDbLine
 10
-4.102251
 20
-142.386612
 30
0.0
 11
-0.478784
 21
-128.863651
 31
0.0
  0
LINE
  5
957
100
AcDbEntity
  8
5
 62
     2
100
AcDbLine
 10
-4.102251
 20
-142.386612
 30
0.0
 11
-7.725718
 21
-128.863651
 31
0.0
  0
LINE
  5
958
100
AcDbEntity
  8
5
 62
     2
100
AcDbLine
 10
-0.478784
 20
-128.863651
 30
0.0
 11
-7.725718
 21
-128.863651
 31
0.0
  0
LINE
  5
959
100
AcDbEntity
  8
5
 62
     2
100
AcDbLine
 10
-4.102251
 20
-142.386612
 30
0.0
 11
-4.102251
 21
164.613388
 31
0.0
  0
LINE
  5
95A
100
AcDbEntity
  8
5
 62
     2
100
AcDbLine
 10
-4.102251
 20
164.613388
 30
0.0
 11
-7.725718
 21
151.090426
 31
0.0
  0
LINE
  5
95B
100
AcDbEntity
  8
5
 62
     2
100
AcDbLine
 10
-4.102251
 20
164.613388
 30
0.0
 11
-0.478784
 21
151.090426
 31
0.0
  0
LINE
  5
95C
100
AcDbEntity
  8
5
 62
     2
100
AcDbLine
 10
-7.725718
 20
151.090426
 30
0.0
 11
-0.478784
 21
151.090426
 31
0.0
  0
LINE
  5
95D
100
AcDbEntity
  8
5
 62
     2
100
AcDbLine
 10
259.289858
 20
164.613388
 30
0.0
 11
-11.102251
 21
164.613388
 31
0.0
  0
ENDBLK
  5
95E
100
AcDbEntity
  8
5
100
AcDbBlockEnd
  0
BLOCK
  5
95F
100
AcDbEntity
  8
5
100
AcDbBlockBegin
  2
*D4
 70
     1
 10
0.0
 20
0.0
 30
0.0
  3
*D4
  1

  0
TEXT
  5
960
100
AcDbEntity
  8
5
 62
     2
100
AcDbText
 10
-7.602251
 20
-340.741612
 30
0.0
 40
23.1
  1
348
 50
90.0
 41
1.4
 72
     5
 11
-7.602251
 21
-298.699613
 31
0.0
100
AcDbText
  0
LINE
  5
961
100
AcDbEntity
  8
5
 62
     2
100
AcDbLine
 10
213.885213
 20
-490.586612
 30
0.0
 11
-11.102251
 21
-490.586612
 31
0.0
  0
LINE
  5
962
100
AcDbEntity
  8
5
 62
     2
100
AcDbLine
 10
-4.102251
 20
-490.586612
 30
0.0
 11
-0.478784
 21
-477.063651
 31
0.0
  0
LINE
  5
963
100
AcDbEntity
  8
5
 62
     2
100
AcDbLine
 10
-4.102251
 20
-490.586612
 30
0.0
 11
-7.725718
 21
-477.063651
 31
0.0
  0
LINE
  5
964
100
AcDbEntity
  8
5
 62
     2
100
AcDbLine
 10
-0.478784
 20
-477.063651
 30
0.0
 11
-7.725718
 21
-477.063651
 31
0.0
  0
LINE
  5
965
100
AcDbEntity
  8
5
 62
     2
100
AcDbLine
 10
-4.102251
 20
-490.586612
 30
0.0
 11
-4.102251
 21
-142.386612
 31
0.0
  0
LINE
  5
966
100
AcDbEntity
  8
5
 62
     2
100
AcDbLine
 10
-4.102251
 20
-142.386612
 30
0.0
 11
-7.725718
 21
-155.909574
 31
0.0
  0
LINE
  5
967
100
AcDbEntity
  8
5
 62
     2
100
AcDbLine
 10
-4.102251
 20
-142.386612
 30
0.0
 11
-0.478784
 21
-155.909574
 31
0.0
  0
LINE
  5
968
100
AcDbEntity
  8
5
 62
     2
100
AcDbLine
 10
-7.725718
 20
-155.909574
 30
0.0
 11
-0.478784
 21
-155.909574
 31
0.0
  0
LINE
  5
969
100
AcDbEntity
  8
5
 62
     2
100
AcDbLine
 10
206.26042
 20
-142.386612
 30
0.0
 11
-11.102251
 21
-142.386612
 31
0.0
  0
ENDBLK
  5
96A
100
AcDbEntity
  8
5
100
AcDbBlockEnd
  0
BLOCK
  5
96B
100
AcDbEntity
  8
5
100
AcDbBlockBegin
  2
*D5
 70
     1
 10
0.0
 20
0.0
 30
0.0
  3
*D5
  1

  0
TEXT
  5
96C
100
AcDbEntity
  8
5
 62
     2
100
AcDbText
 10
-7.602251
 20
-701.501611
 30
0.0
 40
23.1
  1
276(概略)
 50
90.0
 41
1.4
 72
     5
 11
-7.602251
 21
-562.439613
 31
0.0
100
AcDbText
  0
LINE
  5
96D
100
AcDbEntity
  8
5
 62
     2
100
AcDbLine
 10
252.082751
 20
-766.886612
 30
0.0
 11
-11.102251
 21
-766.886612
 31
0.0
  0
LINE
  5
96E
100
AcDbEntity
  8
5
 62
     2
100
AcDbLine
 10
-4.102251
 20
-766.886612
 30
0.0
 11
-0.478784
 21
-753.363651
 31
0.0
  0
LINE
  5
96F
100
AcDbEntity
  8
5
 62
     2
100
AcDbLine
 10
-4.102251
 20
-766.886612
 30
0.0
 11
-7.725718
 21
-753.363651
 31
0.0
  0
LINE
  5
970
100
AcDbEntity
  8
5
 62
     2
100
AcDbLine
 10
-0.478784
 20
-753.363651
 30
0.0
 11
-7.725718
 21
-753.363651
 31
0.0
  0
LINE
  5
971
100
AcDbEntity
  8
5
 62
     2
100
AcDbLine
 10
-4.102251
 20
-766.886612
 30
0.0
 11
-4.102251
 21
-490.586612
 31
0.0
  0
LINE
  5
972
100
AcDbEntity
  8
5
 62
     2
100
AcDbLine
 10
-4.102251
 20
-490.586612
 30
0.0
 11
-7.725718
 21
-504.109574
 31
0.0
  0
LINE
  5
973
100
AcDbEntity
  8
5
 62
     2
100
AcDbLine
 10
-4.102251
 20
-490.586612
 30
0.0
 11
-0.478784
 21
-504.109574
 31
0.0
  0
LINE
  5
974
100
AcDbEntity
  8
5
 62
     2
100
AcDbLine
 10
-7.725718
 20
-504.109574
 30
0.0
 11
-0.478784
 21
-504.109574
 31
0.0
  0
LINE
  5
975
100
AcDbEntity
  8
5
 62
     2
100
AcDbLine
 10
213.885213
 20
-490.586612
 30
0.0
 11
-11.102251
 21
-490.586612
 31
0.0
  0
ENDBLK
  5
976
100
AcDbEntity
  8
5
100
AcDbBlockEnd
  0
BLOCK
  5
977
100
AcDbEntity
  8
5
100
AcDbBlockBegin
  2
*D6
 70
     1
 10
0.0
 20
0.0
 30
0.0
  3
*D6
  1

  0
TEXT
  5
978
100
AcDbEntity
  8
5
 62
     2
100
AcDbText
 10
405.26042
 20
346.762882
 30
0.0
 40
23.1
  1
94(概略)
 41
1.4
 72
     5
 11
528.152419
 21
346.762882
 31
0.0
100
AcDbText
  0
LINE
  5
979
100
AcDbEntity
  8
5
 62
     2
100
AcDbLine
 10
283.26042
 20
176.114264
 30
0.0
 11
283.26042
 21
350.262882
 31
0.0
  0
LINE
  5
97A
100
AcDbEntity
  8
5
 62
     2
100
AcDbLine
 10
283.26042
 20
343.262882
 30
0.0
 11
269.737459
 21
346.886349
 31
0.0
  0
LINE
  5
97B
100
AcDbEntity
  8
5
 62
     2
100
AcDbLine
 10
283.26042
 20
343.262882
 30
0.0
 11
269.737459
 21
339.639416
 31
0.0
  0
LINE
  5
97C
100
AcDbEntity
  8
5
 62
     2
100
AcDbLine
 10
269.737459
 20
346.886349
 30
0.0
 11
269.737459
 21
339.639416
 31
0.0
  0
LINE
  5
97D
100
AcDbEntity
  8
5
 62
     2
100
AcDbLine
 10
248.26042
 20
343.262882
 30
0.0
 11
534.620419
 21
343.262882
 31
0.0
  0
LINE
  5
97E
100
AcDbEntity
  8
5
 62
     2
100
AcDbLine
 10
377.26042
 20
343.262882
 30
0.0
 11
390.783382
 21
339.639416
 31
0.0
  0
LINE
  5
97F
100
AcDbEntity
  8
5
 62
     2
100
AcDbLine
 10
377.26042
 20
343.262882
 30
0.0
 11
390.783382
 21
346.886349
 31
0.0
  0
LINE
  5
980
100
AcDbEntity
  8
5
 62
     2
100
AcDbLine
 10
390.783382
 20
339.639416
 30
0.0
 11
390.783382
 21
346.886349
 31
0.0
  0
LINE
  5
981
100
AcDbEntity
  8
5
 62
     2
100
AcDbLine
 10
377.26042
 20
7.676896
 30
0.0
 11
377.26042
 21
350.262882
 31
0.0
  0
ENDBLK
  5
982
100
AcDbEntity
  8
5
100
AcDbBlockEnd
  0
BLOCK
  5
983
100
AcDbEntity
  8
5
100
AcDbBlockBegin
  2
*D7
 70
     1
 10
0.0
 20
0.0
 30
0.0
  3
*D7
  1

  0
TEXT
  5
984
100
AcDbEntity
  8
5
 62
     2
100
AcDbText
 10
107.495421
 20
346.762882
 30
0.0
 40
23.1
  1
206(概略)
 41
1.4
 72
     5
 11
246.557419
 21
346.762882
 31
0.0
100
AcDbText
  0
LINE
  5
985
100
AcDbEntity
  8
5
 62
     2
100
AcDbLine
 10
77.26042
 20
41.613388
 30
0.0
 11
77.26042
 21
350.262882
 31
0.0
  0
LINE
  5
986
100
AcDbEntity
  8
5
 62
     2
100
AcDbLine
 10
77.26042
 20
343.262882
 30
0.0
 11
90.783382
 21
339.639416
 31
0.0
  0
LINE
  5
987
100
AcDbEntity
  8
5
 62
     2
100
AcDbLine
 10
77.26042
 20
343.262882
 30
0.0
 11
90.783382
 21
346.886349
 31
0.0
  0
LINE
  5
988
100
AcDbEntity
  8
5
 62
     2
100
AcDbLine
 10
90.783382
 20
339.639416
 30
0.0
 11
90.783382
 21
346.886349
 31
0.0
  0
LINE
  5
989
100
AcDbEntity
  8
5
 62
     2
100
AcDbLine
 10
77.26042
 20
343.262882
 30
0.0
 11
283.26042
 21
343.262882
 31
0.0
  0
LINE
  5
98A
100
AcDbEntity
  8
5
 62
     2
100
AcDbLine
 10
283.26042
 20
343.262882
 30
0.0
 11
269.737459
 21
346.886349
 31
0.0
  0
LINE
  5
98B
100
AcDbEntity
  8
5
 62
     2
100
AcDbLine
 10
283.26042
 20
343.262882
 30
0.0
 11
269.737459
 21
339.639416
 31
0.0
  0
LINE
  5
98C
100
AcDbEntity
  8
5
 62
     2
100
AcDbLine
 10
269.737459
 20
346.886349
 30
0.0
 11
269.737459
 21
339.639416
 31
0.0
  0
LINE
  5
98D
100
AcDbEntity
  8
5
 62
     2
100
AcDbLine
 10
283.26042
 20
176.114264
 30
0.0
 11
283.26042
 21
350.262882
 31
0.0
  0
ENDBLK
  5
98E
100
AcDbEntity
  8
5
100
AcDbBlockEnd
  0
BLOCK
  5
98F
100
AcDbEntity
  8
5
100
AcDbBlockBegin
  2
*D8
 70
     1
 10
0.0
 20
0.0
 30
0.0
  3
*D8
  1

  0
TEXT
  5
990
100
AcDbEntity
  8
5
 62
     2
100
AcDbText
 10
237.090421
 20
261.536539
 30
0.0
 40
23.1
  1
60
 41
1.4
 72
     5
 11
262.96242
 21
261.536539
 31
0.0
100
AcDbText
  0
LINE
  5
991
100
AcDbEntity
  8
5
 62
     2
100
AcDbLine
 10
223.26042
 20
167.139084
 30
0.0
 11
223.26042
 21
265.036539
 31
0.0
  0
LINE
  5
992
100
AcDbEntity
  8
5
 62
     2
100
AcDbLine
 10
223.26042
 20
258.036539
 30
0.0
 11
236.783382
 21
254.413072
 31
0.0
  0
LINE
  5
993
100
AcDbEntity
  8
5
 62
     2
100
AcDbLine
 10
223.26042
 20
258.036539
 30
0.0
 11
236.783382
 21
261.660006
 31
0.0
  0
LINE
  5
994
100
AcDbEntity
  8
5
 62
     2
100
AcDbLine
 10
236.783382
 20
254.413072
 30
0.0
 11
236.783382
 21
261.660006
 31
0.0
  0
LINE
  5
995
100
AcDbEntity
  8
5
 62
     2
100
AcDbLine
 10
223.26042
 20
258.036539
 30
0.0
 11
283.26042
 21
258.036539
 31
0.0
  0
LINE
  5
996
100
AcDbEntity
  8
5
 62
     2
100
AcDbLine
 10
283.26042
 20
258.036539
 30
0.0
 11
269.737459
 21
261.660006
 31
0.0
  0
LINE
  5
997
100
AcDbEntity
  8
5
 62
     2
100
AcDbLine
 10
283.26042
 20
258.036539
 30
0.0
 11
269.737459
 21
254.413072
 31
0.0
  0
LINE
  5
998
100
AcDbEntity
  8
5
 62
     2
100
AcDbLine
 10
269.737459
 20
261.660006
 30
0.0
 11
269.737459
 21
254.413072
 31
0.0
  0
LINE
  5
999
100
AcDbEntity
  8
5
 62
     2
100
AcDbLine
 10
283.26042
 20
176.114264
 30
0.0
 11
283.26042
 21
265.036539
 31
0.0
  0
ENDBLK
  5
99A
100
AcDbEntity
  8
5
100
AcDbBlockEnd
  0
ENDSEC
  0
SECTION
  2
ENTITIES
  0
LINE
  5
35
100
AcDbEntity
  8
1
  6
CENTER
 62
     2
100
AcDbLine
 10
-1106.037974
 20
-490.586612
 30
0.0
 11
-595.366465
 21
-490.586612
 31
0.0
  0
CIRCLE
  5
36
100
AcDbEntity
  8
1
100
AcDbCircle
 10
-846.73958
 20
-490.586612
 30
0.0
 40
194.75
  0
LINE
  5
37
100
AcDbEntity
  8
1
100
AcDbLine
 10
-916.73958
 20
-145.586612
 30
0.0
 11
-776.73958
 21
-145.586612
 31
0.0
  0
LINE
  5
38
100
AcDbEntity
  8
1
100
AcDbLine
 10
-776.73958
 20
-142.386612
 30
0.0
 11
-776.73958
 21
-162.586612
 31
0.0
  0
LINE
  5
39
100
AcDbEntity
  8
1
100
AcDbLine
 10
-779.73958
 20
-165.586612
 30
0.0
 11
-913.73958
 21
-165.586612
 31
0.0
  0
LINE
  5
3A
100
AcDbEntity
  8
1
100
AcDbLine
 10
-916.73958
 20
-162.586612
 30
0.0
 11
-916.73958
 21
-142.386612
 31
0.0
  0
LINE
  5
3B
100
AcDbEntity
  8
1
100
AcDbLine
 10
-855.73958
 20
-170.586612
 30
0.0
 11
-855.73958
 21
-190.586612
 31
0.0
  0
LINE
  5
3C
100
AcDbEntity
  8
1
100
AcDbLine
 10
-837.73958
 20
-170.586612
 30
0.0
 11
-837.73958
 21
-190.586612
 31
0.0
  0
LINE
  5
3D
100
AcDbEntity
  8
1
100
AcDbLine
 10
-876.73958
 20
-755.586612
 30
0.0
 11
-816.73958
 21
-755.586612
 31
0.0
  0
LINE
  5
3E
100
AcDbEntity
  8
1
100
AcDbLine
 10
-876.73958
 20
-755.586612
 30
0.0
 11
-876.73958
 21
-701.832914
 31
0.0
  0
LINE
  5
3F
100
AcDbEntity
  8
1
100
AcDbLine
 10
-816.73958
 20
-755.586612
 30
0.0
 11
-816.73958
 21
-701.832914
 31
0.0
  0
LINE
  5
40
100
AcDbEntity
  8
1
  6
CENTER
 62
     2
100
AcDbLine
 10
220.885213
 20
-490.586612
 30
0.0
 11
339.90862
 21
-490.586612
 31
0.0
  0
LINE
  5
41
100
AcDbEntity
  8
1
100
AcDbLine
 10
-876.73958
 20
-279.340311
 30
0.0
 11
-876.73958
 21
-175.586612
 31
0.0
  0
LINE
  5
42
100
AcDbEntity
  8
1
100
AcDbLine
 10
-816.73958
 20
-279.340311
 30
0.0
 11
-816.73958
 21
-175.586612
 31
0.0
  0
LINE
  5
43
100
AcDbEntity
  8
1
100
AcDbLine
 10
-746.73958
 20
-441.941132
 30
0.0
 11
-746.73958
 21
-479.086612
 31
0.0
  0
LINE
  5
44
100
AcDbEntity
  8
1
100
AcDbLine
 10
-746.73958
 20
-502.086612
 30
0.0
 11
-746.73958
 21
-539.232093
 31
0.0
  0
LINE
  5
45
100
AcDbEntity
  8
1
100
AcDbLine
 10
-806.621865
 20
-425.895722
 30
0.0
 11
-746.73958
 21
-441.941132
 31
0.0
  0
LINE
  5
46
100
AcDbEntity
  8
1
100
AcDbLine
 10
-746.73958
 20
-441.941132
 30
0.0
 11
-808.600547
 21
-415.68271
 31
0.0
  0
LINE
  5
47
100
AcDbEntity
  8
1
100
AcDbLine
 10
-806.621865
 20
-555.277503
 30
0.0
 11
-746.73958
 21
-539.232093
 31
0.0
  0
LINE
  5
48
100
AcDbEntity
  8
1
100
AcDbLine
 10
-746.73958
 20
-539.232093
 30
0.0
 11
-808.600547
 21
-565.490515
 31
0.0
  0
LINE
  5
49
100
AcDbEntity
  8
1
100
AcDbLine
 10
-946.73958
 20
-441.941132
 30
0.0
 11
-946.73958
 21
-479.086612
 31
0.0
  0
LINE
  5
4A
100
AcDbEntity
  8
1
100
AcDbLine
 10
-946.73958
 20
-502.086612
 30
0.0
 11
-946.73958
 21
-539.232093
 31
0.0
  0
LINE
  5
4B
100
AcDbEntity
  8
1
100
AcDbLine
 10
-886.857294
 20
-425.895722
 30
0.0
 11
-946.73958
 21
-441.941132
 31
0.0
  0
LINE
  5
4C
100
AcDbEntity
  8
1
100
AcDbLine
 10
-946.73958
 20
-441.941132
 30
0.0
 11
-884.878613
 21
-415.68271
 31
0.0
  0
LINE
  5
4D
100
AcDbEntity
  8
1
100
AcDbLine
 10
-886.857294
 20
-555.277503
 30
0.0
 11
-946.73958
 21
-539.232093
 31
0.0
  0
LINE
  5
4E
100
AcDbEntity
  8
1
100
AcDbLine
 10
-946.73958
 20
-539.232093
 30
0.0
 11
-884.878613
 21
-565.490515
 31
0.0
  0
LINE
  5
4F
100
AcDbEntity
  8
1
100
AcDbLine
 10
-856.73958
 20
-334.586612
 30
0.0
 11
-836.73958
 21
-334.586612
 31
0.0
  0
LINE
  5
50
100
AcDbEntity
  8
1
100
AcDbLine
 10
-831.73958
 20
-339.586612
 30
0.0
 11
-831.73958
 21
-362.586612
 31
0.0
  0
ARC
  5
51
100
AcDbEntity
  8
1
100
AcDbCircle
 10
-836.73958
 20
-339.586612
 30
0.0
 40
5.0
100
AcDbArc
 50
0.0
 51
90.0
  0
LINE
  5
52
100
AcDbEntity
  8
1
100
AcDbLine
 10
-861.73958
 20
-362.586612
 30
0.0
 11
-861.73958
 21
-339.586612
 31
0.0
  0
ARC
  5
53
100
AcDbEntity
  8
1
100
AcDbCircle
 10
-856.73958
 20
-339.586612
 30
0.0
 40
5.0
100
AcDbArc
 50
90.0
 51
180.0
  0
LINE
  5
54
100
AcDbEntity
  8
1
100
AcDbLine
 10
-872.798465
 20
-325.935999
 30
0.0
 11
-871.941129
 21
-326.75292
 31
0.0
  0
ARC
  5
55
100
AcDbEntity
  8
1
100
AcDbCircle
 10
-877.459828
 20
-332.544636
 30
0.0
 40
8.0
100
AcDbArc
 50
327.878931
 51
46.382769
  0
ARC
  5
56
100
AcDbEntity
  8
1
100
AcDbCircle
 10
-866.449784
 20
-339.456867
 30
0.0
 40
5.0
100
AcDbArc
 50
147.878931
 51
193.829176
  0
ARC
  5
57
100
AcDbEntity
  8
1
100
AcDbCircle
 10
-846.73958
 20
-490.586612
 30
0.0
 40
161.0
100
AcDbArc
 50
278.152712
 51
81.847288
  0
ARC
  5
58
100
AcDbEntity
  8
1
100
AcDbCircle
 10
-846.73958
 20
-490.586612
 30
0.0
 40
152.180169
100
AcDbArc
 50
279.309707
 51
80.690293
  0
LINE
  5
59
100
AcDbEntity
  8
1
100
AcDbLine
 10
-820.680694
 20
-325.935999
 30
0.0
 11
-821.53803
 21
-326.75292
 31
0.0
  0
ARC
  5
5A
100
AcDbEntity
  8
1
100
AcDbCircle
 10
-816.019331
 20
-332.544636
 30
0.0
 40
8.0
100
AcDbArc
 50
133.617231
 51
212.121069
  0
ARC
  5
5B
100
AcDbEntity
  8
1
100
AcDbCircle
 10
-827.029375
 20
-339.456867
 30
0.0
 40
5.0
100
AcDbArc
 50
346.170824
 51
32.121069
  0
ARC
  5
5C
100
AcDbEntity
  8
1
100
AcDbCircle
 10
-846.73958
 20
-490.586612
 30
0.0
 40
161.0
100
AcDbArc
 50
98.152712
 51
261.847288
  0
ARC
  5
5D
100
AcDbEntity
  8
1
100
AcDbCircle
 10
-846.73958
 20
-490.586612
 30
0.0
 40
152.180169
100
AcDbArc
 50
99.309707
 51
260.690293
  0
LINE
  5
5E
100
AcDbEntity
  8
1
100
AcDbLine
 10
-856.73958
 20
-646.586612
 30
0.0
 11
-836.73958
 21
-646.586612
 31
0.0
  0
LINE
  5
5F
100
AcDbEntity
  8
1
100
AcDbLine
 10
-831.73958
 20
-641.586612
 30
0.0
 11
-831.73958
 21
-618.586612
 31
0.0
  0
ARC
  5
60
100
AcDbEntity
  8
1
100
AcDbCircle
 10
-836.73958
 20
-641.586612
 30
0.0
 40
5.0
100
AcDbArc
 50
270.0
 51
360.0
  0
LINE
  5
61
100
AcDbEntity
  8
1
100
AcDbLine
 10
-861.73958
 20
-618.586612
 30
0.0
 11
-861.73958
 21
-641.586612
 31
0.0
  0
ARC
  5
62
100
AcDbEntity
  8
1
100
AcDbCircle
 10
-856.73958
 20
-641.586612
 30
0.0
 40
5.0
100
AcDbArc
 50
180.0
 51
270.0
  0
LINE
  5
63
100
AcDbEntity
  8
1
100
AcDbLine
 10
-872.798465
 20
-655.237226
 30
0.0
 11
-871.941129
 21
-654.420304
 31
0.0
  0
ARC
  5
64
100
AcDbEntity
  8
1
100
AcDbCircle
 10
-877.459828
 20
-648.628589
 30
0.0
 40
8.0
100
AcDbArc
 50
313.617231
 51
32.121069
  0
ARC
  5
65
100
AcDbEntity
  8
1
100
AcDbCircle
 10
-866.449784
 20
-641.716358
 30
0.0
 40
5.0
100
AcDbArc
 50
166.170824
 51
212.121069
  0
LINE
  5
66
100
AcDbEntity
  8
1
100
AcDbLine
 10
-820.680694
 20
-655.237226
 30
0.0
 11
-821.53803
 21
-654.420304
 31
0.0
  0
ARC
  5
67
100
AcDbEntity
  8
1
100
AcDbCircle
 10
-827.029375
 20
-641.716358
 30
0.0
 40
5.0
100
AcDbArc
 50
327.878931
 51
13.829176
  0
ARC
  5
68
100
AcDbEntity
  8
1
100
AcDbCircle
 10
-890.73958
 20
-411.406835
 30
0.0
 40
15.0
100
AcDbArc
 50
285.0
 51
347.5338
  0
ARC
  5
69
100
AcDbEntity
  8
1
100
AcDbCircle
 10
-890.73958
 20
-401.875137
 30
0.0
 40
15.0
100
AcDbArc
 50
293.0
 51
325.101536
  0
LINE
  5
6A
100
AcDbEntity
  8
1
100
AcDbLine
 10
-1029.35688
 20
-490.886612
 30
0.0
 11
-1029.35688
 21
-490.286612
 31
0.0
  0
ARC
  5
6B
100
AcDbEntity
  8
1
100
AcDbCircle
 10
-897.137298
 20
-362.586612
 30
0.0
 40
3.0
100
AcDbArc
 50
180.0
 51
270.0
  0
ARC
  5
6C
100
AcDbEntity
  8
1
100
AcDbCircle
 10
-741.73958
 20
-502.086612
 30
0.0
 40
5.0
100
AcDbArc
 50
90.0
 51
180.0
  0
ARC
  5
6D
100
AcDbEntity
  8
1
100
AcDbCircle
 10
-741.73958
 20
-479.086612
 30
0.0
 40
5.0
100
AcDbArc
 50
180.0
 51
270.0
  0
ARC
  5
6E
100
AcDbEntity
  8
1
100
AcDbCircle
 10
-951.73958
 20
-502.086612
 30
0.0
 40
5.0
100
AcDbArc
 50
0.0
 51
90.0
  0
ARC
  5
6F
100
AcDbEntity
  8
1
100
AcDbCircle
 10
-951.73958
 20
-479.086612
 30
0.0
 40
5.0
100
AcDbArc
 50
270.0
 51
0.0
  0
LINE
  5
70
100
AcDbEntity
  8
1
100
AcDbLine
 10
-856.73958
 20
-374.586612
 30
0.0
 11
-836.73958
 21
-374.586612
 31
0.0
  0
ARC
  5
71
100
AcDbEntity
  8
1
100
AcDbCircle
 10
-836.73958
 20
-369.586612
 30
0.0
 40
5.0
100
AcDbArc
 50
270.0
 51
360.0
  0
ARC
  5
72
100
AcDbEntity
  8
1
100
AcDbCircle
 10
-856.73958
 20
-369.586612
 30
0.0
 40
5.0
100
AcDbArc
 50
180.0
 51
270.0
  0
ARC
  5
73
100
AcDbEntity
  8
1
100
AcDbCircle
 10
-802.73958
 20
-411.406835
 30
0.0
 40
15.0
100
AcDbArc
 50
194.059896
 51
255.0
  0
ARC
  5
74
100
AcDbEntity
  8
1
100
AcDbCircle
 10
-802.73958
 20
-401.875137
 30
0.0
 40
15.0
100
AcDbArc
 50
215.532727
 51
247.0
  0
LINE
  5
75
100
AcDbEntity
  8
1
100
AcDbLine
 10
-868.494899
 20
-388.586612
 30
0.0
 11
-824.98426
 21
-388.586612
 31
0.0
  0
LINE
  5
76
100
AcDbEntity
  8
1
100
AcDbLine
 10
-826.909792
 20
-386.586612
 30
0.0
 11
-866.569367
 21
-386.586612
 31
0.0
  0
LINE
  5
77
100
AcDbEntity
  8
1
100
AcDbLine
 10
-861.73958
 20
-368.586612
 30
0.0
 11
-861.73958
 21
-369.586612
 31
0.0
  0
LINE
  5
78
100
AcDbEntity
  8
1
100
AcDbLine
 10
-831.73958
 20
-369.586612
 30
0.0
 11
-831.73958
 21
-368.586612
 31
0.0
  0
LINE
  5
79
100
AcDbEntity
  8
1
100
AcDbLine
 10
-872.605469
 20
-341.325133
 30
0.0
 11
-872.605469
 21
-365.586612
 31
0.0
  0
ARC
  5
7A
100
AcDbEntity
  8
1
100
AcDbCircle
 10
-862.310725
 20
-371.586612
 30
0.0
 40
3.0
100
AcDbArc
 50
90.0
 51
167.988522
  0
ARC
  5
7B
100
AcDbEntity
  8
1
100
AcDbCircle
 10
-899.030889
 20
-371.586612
 30
0.0
 40
3.0
100
AcDbArc
 50
25.480004
 51
90.0
  0
LINE
  5
7C
100
AcDbEntity
  8
1
100
AcDbLine
 10
-896.322683
 20
-370.296024
 30
0.0
 11
-874.73958
 21
-415.586612
 31
0.0
  0
LINE
  5
7D
100
AcDbEntity
  8
1
100
AcDbLine
 10
-874.73958
 20
-415.586612
 30
0.0
 11
-869.994899
 21
-388.586612
 31
0.0
  0
LINE
  5
7E
100
AcDbEntity
  8
1
100
AcDbLine
 10
-867.569367
 20
-386.586612
 30
0.0
 11
-865.245043
 21
-370.962289
 31
0.0
  0
LINE
  5
7F
100
AcDbEntity
  8
1
100
AcDbLine
 10
-869.994899
 20
-388.586612
 30
0.0
 11
-867.569367
 21
-386.586612
 31
0.0
  0
LINE
  5
80
100
AcDbEntity
  8
1
100
AcDbLine
 10
-820.873691
 20
-341.325133
 30
0.0
 11
-820.873691
 21
-365.586612
 31
0.0
  0
ARC
  5
81
100
AcDbEntity
  8
1
100
AcDbCircle
 10
-831.168434
 20
-371.586612
 30
0.0
 40
3.0
100
AcDbArc
 50
12.011478
 51
90.0
  0
ARC
  5
82
100
AcDbEntity
  8
1
100
AcDbCircle
 10
-794.44827
 20
-371.586612
 30
0.0
 40
3.0
100
AcDbArc
 50
90.0
 51
154.519996
  0
LINE
  5
83
100
AcDbEntity
  8
1
100
AcDbLine
 10
-797.156477
 20
-370.296024
 30
0.0
 11
-818.73958
 21
-415.586612
 31
0.0
  0
LINE
  5
84
100
AcDbEntity
  8
1
100
AcDbLine
 10
-818.73958
 20
-415.586612
 30
0.0
 11
-823.48426
 21
-388.586612
 31
0.0
  0
LINE
  5
85
100
AcDbEntity
  8
1
100
AcDbLine
 10
-825.909792
 20
-386.586612
 30
0.0
 11
-828.234116
 21
-370.962289
 31
0.0
  0
LINE
  5
86
100
AcDbEntity
  8
1
100
AcDbLine
 10
-823.48426
 20
-388.586612
 30
0.0
 11
-825.909792
 21
-386.586612
 31
0.0
  0
ARC
  5
87
100
AcDbEntity
  8
1
100
AcDbCircle
 10
-796.341861
 20
-362.586612
 30
0.0
 40
3.0
100
AcDbArc
 50
270.0
 51
0.0
  0
ARC
  5
88
100
AcDbEntity
  8
1
100
AcDbCircle
 10
-890.73958
 20
-569.76639
 30
0.0
 40
15.0
100
AcDbArc
 50
12.4662
 51
75.0
  0
ARC
  5
89
100
AcDbEntity
  8
1
100
AcDbCircle
 10
-890.73958
 20
-579.298088
 30
0.0
 40
15.0
100
AcDbArc
 50
34.898464
 51
67.0
  0
ARC
  5
8A
100
AcDbEntity
  8
1
100
AcDbCircle
 10
-897.137298
 20
-618.586612
 30
0.0
 40
3.0
100
AcDbArc
 50
90.0
 51
180.0
  0
LINE
  5
8B
100
AcDbEntity
  8
1
100
AcDbLine
 10
-856.73958
 20
-606.586612
 30
0.0
 11
-836.73958
 21
-606.586612
 31
0.0
  0
ARC
  5
8C
100
AcDbEntity
  8
1
100
AcDbCircle
 10
-836.73958
 20
-611.586612
 30
0.0
 40
5.0
100
AcDbArc
 50
0.0
 51
90.0
  0
ARC
  5
8D
100
AcDbEntity
  8
1
100
AcDbCircle
 10
-856.73958
 20
-611.586612
 30
0.0
 40
5.0
100
AcDbArc
 50
90.0
 51
180.0
  0
ARC
  5
8E
100
AcDbEntity
  8
1
100
AcDbCircle
 10
-802.73958
 20
-569.76639
 30
0.0
 40
15.0
100
AcDbArc
 50
105.0
 51
165.940104
  0
ARC
  5
8F
100
AcDbEntity
  8
1
100
AcDbCircle
 10
-802.73958
 20
-579.298088
 30
0.0
 40
15.0
100
AcDbArc
 50
113.0
 51
144.467273
  0
LINE
  5
90
100
AcDbEntity
  8
1
100
AcDbLine
 10
-861.73958
 20
-612.586612
 30
0.0
 11
-861.73958
 21
-611.586612
 31
0.0
  0
LINE
  5
91
100
AcDbEntity
  8
1
100
AcDbLine
 10
-831.73958
 20
-611.586612
 30
0.0
 11
-831.73958
 21
-612.586612
 31
0.0
  0
ARC
  5
92
100
AcDbEntity
  8
1
100
AcDbCircle
 10
-796.341861
 20
-618.586612
 30
0.0
 40
3.0
100
AcDbArc
 50
0.0
 51
90.0
  0
LINE
  5
93
100
AcDbEntity
  8
1
100
AcDbLine
 10
-868.494899
 20
-592.586612
 30
0.0
 11
-824.98426
 21
-592.586612
 31
0.0
  0
LINE
  5
94
100
AcDbEntity
  8
1
100
AcDbLine
 10
-826.909792
 20
-594.586612
 30
0.0
 11
-866.569367
 21
-594.586612
 31
0.0
  0
LINE
  5
95
100
AcDbEntity
  8
1
100
AcDbLine
 10
-872.605469
 20
-639.848092
 30
0.0
 11
-872.605469
 21
-615.586612
 31
0.0
  0
ARC
  5
96
100
AcDbEntity
  8
1
100
AcDbCircle
 10
-862.310725
 20
-609.586612
 30
0.0
 40
3.0
100
AcDbArc
 50
192.011478
 51
270.0
  0
ARC
  5
97
100
AcDbEntity
  8
1
100
AcDbCircle
 10
-899.030889
 20
-609.586612
 30
0.0
 40
3.0
100
AcDbArc
 50
270.0
 51
334.519996
  0
LINE
  5
98
100
AcDbEntity
  8
1
100
AcDbLine
 10
-896.322683
 20
-610.877201
 30
0.0
 11
-874.73958
 21
-565.586612
 31
0.0
  0
LINE
  5
99
100
AcDbEntity
  8
1
100
AcDbLine
 10
-874.73958
 20
-565.586612
 30
0.0
 11
-869.994899
 21
-592.586612
 31
0.0
  0
LINE
  5
9A
100
AcDbEntity
  8
1
100
AcDbLine
 10
-867.569367
 20
-594.586612
 30
0.0
 11
-865.245043
 21
-610.210935
 31
0.0
  0
LINE
  5
9B
100
AcDbEntity
  8
1
100
AcDbLine
 10
-869.994899
 20
-592.586612
 30
0.0
 11
-867.569367
 21
-594.586612
 31
0.0
  0
LINE
  5
9C
100
AcDbEntity
  8
1
100
AcDbLine
 10
-820.873691
 20
-639.848092
 30
0.0
 11
-820.873691
 21
-615.586612
 31
0.0
  0
ARC
  5
9D
100
AcDbEntity
  8
1
100
AcDbCircle
 10
-831.168434
 20
-609.586612
 30
0.0
 40
3.0
100
AcDbArc
 50
270.0
 51
347.988522
  0
ARC
  5
9E
100
AcDbEntity
  8
1
100
AcDbCircle
 10
-794.44827
 20
-609.586612
 30
0.0
 40
3.0
100
AcDbArc
 50
205.480004
 51
270.0
  0
LINE
  5
9F
100
AcDbEntity
  8
1
100
AcDbLine
 10
-797.156477
 20
-610.877201
 30
0.0
 11
-818.73958
 21
-565.586612
 31
0.0
  0
LINE
  5
A0
100
AcDbEntity
  8
1
100
AcDbLine
 10
-818.73958
 20
-565.586612
 30
0.0
 11
-823.48426
 21
-592.586612
 31
0.0
  0
LINE
  5
A1
100
AcDbEntity
  8
1
100
AcDbLine
 10
-825.909792
 20
-594.586612
 30
0.0
 11
-828.234116
 21
-610.210935
 31
0.0
  0
LINE
  5
A2
100
AcDbEntity
  8
1
100
AcDbLine
 10
-823.48426
 20
-592.586612
 30
0.0
 11
-825.909792
 21
-594.586612
 31
0.0
  0
LINE
  5
A3
100
AcDbEntity
  8
1
  6
CENTER
 62
     2
100
AcDbLine
 10
-857.573405
 20
-354.586612
 30
0.0
 11
-836.915653
 21
-354.586612
 31
0.0
  0
LINE
  5
A4
100
AcDbEntity
  8
1
  6
CENTER
 62
     2
100
AcDbLine
 10
-857.573405
 20
-626.586612
 30
0.0
 11
-835.465511
 21
-626.586612
 31
0.0
  0
ARC
  5
A5
100
AcDbEntity
  8
1
100
AcDbCircle
 10
-828.73958
 20
-362.586612
 30
0.0
 40
3.0
100
AcDbArc
 50
180.0
 51
270.0
  0
ARC
  5
A6
100
AcDbEntity
  8
1
100
AcDbCircle
 10
-864.73958
 20
-362.586612
 30
0.0
 40
3.0
100
AcDbArc
 50
270.0
 51
360.0
  0
LINE
  5
A7
100
AcDbEntity
  8
1
100
AcDbLine
 10
-796.341861
 20
-365.586612
 30
0.0
 11
-828.73958
 21
-365.586612
 31
0.0
  0
LINE
  5
A8
100
AcDbEntity
  8
1
100
AcDbLine
 10
-864.73958
 20
-365.586612
 30
0.0
 11
-897.137298
 21
-365.586612
 31
0.0
  0
LINE
  5
A9
100
AcDbEntity
  8
1
100
AcDbLine
 10
-718.23958
 20
-486.086612
 30
0.0
 11
-718.23958
 21
-495.086612
 31
0.0
  0
LINE
  5
AA
100
AcDbEntity
  8
1
100
AcDbLine
 10
-720.23958
 20
-497.086612
 30
0.0
 11
-769.296582
 21
-497.086612
 31
0.0
  0
ARC
  5
AB
100
AcDbEntity
  8
1
100
AcDbCircle
 10
-720.23958
 20
-495.086612
 30
0.0
 40
2.0
100
AcDbArc
 50
270.0
 51
360.0
  0
LINE
  5
AC
100
AcDbEntity
  8
1
100
AcDbLine
 10
-769.296582
 20
-484.086612
 30
0.0
 11
-720.23958
 21
-484.086612
 31
0.0
  0
ARC
  5
AD
100
AcDbEntity
  8
1
100
AcDbCircle
 10
-720.23958
 20
-486.086612
 30
0.0
 40
2.0
100
AcDbArc
 50
0.0
 51
90.0
  0
LINE
  5
AE
100
AcDbEntity
  8
1
100
AcDbLine
 10
-775.296582
 20
-484.086612
 30
0.0
 11
-775.296582
 21
-497.086612
 31
0.0
  0
ARC
  5
AF
100
AcDbEntity
  8
1
100
AcDbCircle
 10
-769.296582
 20
-503.086612
 30
0.0
 40
6.0
100
AcDbArc
 50
90.0
 51
180.0
  0
ARC
  5
B0
100
AcDbEntity
  8
1
100
AcDbCircle
 10
-769.296582
 20
-478.086612
 30
0.0
 40
6.0
100
AcDbArc
 50
180.0
 51
270.0
  0
LINE
  5
B1
100
AcDbEntity
  8
1
100
AcDbLine
 10
-728.23958
 20
-485.973183
 30
0.0
 11
-728.23958
 21
-495.812833
 31
0.0
  0
LINE
  5
B2
100
AcDbEntity
  8
1
100
AcDbLine
 10
-975.23958
 20
-486.086612
 30
0.0
 11
-975.23958
 21
-495.086612
 31
0.0
  0
LINE
  5
B3
100
AcDbEntity
  8
1
100
AcDbLine
 10
-973.23958
 20
-497.086612
 30
0.0
 11
-924.182577
 21
-497.086612
 31
0.0
  0
ARC
  5
B4
100
AcDbEntity
  8
1
100
AcDbCircle
 10
-973.23958
 20
-495.086612
 30
0.0
 40
2.0
100
AcDbArc
 50
180.0
 51
270.0
  0
LINE
  5
B5
100
AcDbEntity
  8
1
100
AcDbLine
 10
-924.182577
 20
-484.086612
 30
0.0
 11
-973.23958
 21
-484.086612
 31
0.0
  0
ARC
  5
B6
100
AcDbEntity
  8
1
100
AcDbCircle
 10
-973.23958
 20
-486.086612
 30
0.0
 40
2.0
100
AcDbArc
 50
90.0
 51
180.0
  0
LINE
  5
B7
100
AcDbEntity
  8
1
100
AcDbLine
 10
-918.182577
 20
-484.086612
 30
0.0
 11
-918.182577
 21
-497.086612
 31
0.0
  0
ARC
  5
B8
100
AcDbEntity
  8
1
100
AcDbCircle
 10
-924.182577
 20
-503.086612
 30
0.0
 40
6.0
100
AcDbArc
 50
0.0
 51
90.0
  0
ARC
  5
B9
100
AcDbEntity
  8
1
100
AcDbCircle
 10
-924.182577
 20
-478.086612
 30
0.0
 40
6.0
100
AcDbArc
 50
270.0
 51
0.0
  0
LINE
  5
BA
100
AcDbEntity
  8
1
100
AcDbLine
 10
-965.23958
 20
-485.973183
 30
0.0
 11
-965.23958
 21
-495.812833
 31
0.0
  0
LINE
  5
BB
100
AcDbEntity
  8
1
100
AcDbLine
 10
-874.73958
 20
-415.586612
 30
0.0
 11
-874.73958
 21
-565.586612
 31
0.0
  0
LINE
  5
BC
100
AcDbEntity
  8
1
100
AcDbLine
 10
-818.73958
 20
-415.586612
 30
0.0
 11
-818.73958
 21
-565.586612
 31
0.0
  0
ARC
  5
BD
100
AcDbEntity
  8
1
100
AcDbCircle
 10
-828.73958
 20
-618.586612
 30
0.0
 40
3.0
100
AcDbArc
 50
90.0
 51
180.0
  0
ARC
  5
BE
100
AcDbEntity
  8
1
100
AcDbCircle
 10
-864.73958
 20
-618.586612
 30
0.0
 40
3.0
100
AcDbArc
 50
0.0
 51
90.0
  0
LINE
  5
BF
100
AcDbEntity
  8
1
100
AcDbLine
 10
-796.341861
 20
-615.586612
 30
0.0
 11
-828.73958
 21
-615.586612
 31
0.0
  0
LINE
  5
C0
100
AcDbEntity
  8
1
100
AcDbLine
 10
-864.73958
 20
-615.586612
 30
0.0
 11
-897.137298
 21
-615.586612
 31
0.0
  0
CIRCLE
  5
C1
100
AcDbEntity
  8
1
100
AcDbCircle
 10
-846.73958
 20
-490.586612
 30
0.0
 40
194.75
  0
CIRCLE
  5
C2
100
AcDbEntity
  8
1
100
AcDbCircle
 10
-846.73958
 20
-490.586612
 30
0.0
 40
191.25
  0
CIRCLE
  5
C3
100
AcDbEntity
  8
1
100
AcDbCircle
 10
-846.73958
 20
-490.586612
 30
0.0
 40
173.7
  0
CIRCLE
  5
C4
100
AcDbEntity
  8
1
100
AcDbCircle
 10
-846.73958
 20
-490.586612
 30
0.0
 40
168.7
  0
LINE
  5
C5
100
AcDbEntity
  8
1
100
AcDbLine
 10
213.26042
 20
-145.586612
 30
0.0
 11
353.26042
 21
-145.586612
 31
0.0
  0
LINE
  5
C6
100
AcDbEntity
  8
1
100
AcDbLine
 10
353.26042
 20
-142.386612
 30
0.0
 11
353.26042
 21
-162.586612
 31
0.0
  0
LINE
  5
C7
100
AcDbEntity
  8
1
100
AcDbLine
 10
350.26042
 20
-165.586612
 30
0.0
 11
216.26042
 21
-165.586612
 31
0.0
  0
LINE
  5
C8
100
AcDbEntity
  8
1
100
AcDbLine
 10
213.26042
 20
-162.586612
 30
0.0
 11
213.26042
 21
-142.386612
 31
0.0
  0
LINE
  5
C9
100
AcDbEntity
  8
1
100
AcDbLine
 10
274.26042
 20
-170.586612
 30
0.0
 11
274.26042
 21
-190.586612
 31
0.0
  0
LINE
  5
CA
100
AcDbEntity
  8
1
100
AcDbLine
 10
292.26042
 20
-170.586612
 30
0.0
 11
292.26042
 21
-190.586612
 31
0.0
  0
LINE
  5
CB
100
AcDbEntity
  8
1
100
AcDbLine
 10
253.26042
 20
-282.620175
 30
0.0
 11
253.26042
 21
-175.586612
 31
0.0
  0
LINE
  5
CC
100
AcDbEntity
  8
1
100
AcDbLine
 10
313.26042
 20
-282.620175
 30
0.0
 11
313.26042
 21
-175.586612
 31
0.0
  0
LINE
  5
CD
100
AcDbEntity
  8
1
100
AcDbLine
 10
242.26042
 20
-299.336612
 30
0.0
 11
242.26042
 21
-681.836612
 31
0.0
  0
LINE
  5
CE
100
AcDbEntity
  8
1
100
AcDbLine
 10
242.26042
 20
-299.336612
 30
0.0
 11
243.684579
 21
-296.844335
 31
0.0
  0
LINE
  5
CF
100
AcDbEntity
  8
1
100
AcDbLine
 10
242.26042
 20
-681.836612
 30
0.0
 11
243.684579
 21
-684.32889
 31
0.0
  0
LINE
  5
D0
100
AcDbEntity
  8
1
100
AcDbLine
 10
324.26042
 20
-299.336612
 30
0.0
 11
324.26042
 21
-681.836612
 31
0.0
  0
LINE
  5
D1
100
AcDbEntity
  8
1
100
AcDbLine
 10
324.26042
 20
-299.336612
 30
0.0
 11
322.836262
 21
-296.844335
 31
0.0
  0
LINE
  5
D2
100
AcDbEntity
  8
1
100
AcDbLine
 10
324.26042
 20
-681.836612
 30
0.0
 11
322.836262
 21
-684.32889
 31
0.0
  0
ARC
  5
D3
100
AcDbEntity
  8
1
100
AcDbCircle
 10
-816.019331
 20
-648.628589
 30
0.0
 40
8.0
100
AcDbArc
 50
147.878931
 51
226.382769
  0
ARC
  5
D4
100
AcDbEntity
  8
1
100
AcDbCircle
 10
-905.879731
 20
-269.872561
 30
0.0
 40
25.0
100
AcDbArc
 50
270.682783
 51
299.317217
  0
ARC
  5
D5
100
AcDbEntity
  8
1
100
AcDbCircle
 10
-1008.313479
 20
-329.012713
 30
0.0
 40
25.0
100
AcDbArc
 50
300.682783
 51
329.317217
  0
ARC
  5
D6
100
AcDbEntity
  8
1
100
AcDbCircle
 10
-1067.453631
 20
-431.446461
 30
0.0
 40
25.0
100
AcDbArc
 50
330.682783
 51
359.317217
  0
ARC
  5
D7
100
AcDbEntity
  8
1
100
AcDbCircle
 10
-1067.453631
 20
-549.726764
 30
0.0
 40
25.0
100
AcDbArc
 50
0.682783
 51
29.317217
  0
ARC
  5
D8
100
AcDbEntity
  8
1
100
AcDbCircle
 10
-1008.313479
 20
-652.160512
 30
0.0
 40
25.0
100
AcDbArc
 50
30.682783
 51
59.317217
  0
ARC
  5
D9
100
AcDbEntity
  8
1
100
AcDbCircle
 10
-905.879731
 20
-711.300664
 30
0.0
 40
25.0
100
AcDbArc
 50
60.682783
 51
89.317217
  0
ARC
  5
DA
100
AcDbEntity
  8
1
100
AcDbCircle
 10
-787.599428
 20
-711.300664
 30
0.0
 40
25.0
100
AcDbArc
 50
90.682783
 51
119.317217
  0
ARC
  5
DB
100
AcDbEntity
  8
1
100
AcDbCircle
 10
-685.16568
 20
-652.160512
 30
0.0
 40
25.0
100
AcDbArc
 50
120.682783
 51
149.317217
  0
ARC
  5
DC
100
AcDbEntity
  8
1
100
AcDbCircle
 10
-626.025528
 20
-549.726764
 30
0.0
 40
25.0
100
AcDbArc
 50
150.682783
 51
179.317217
  0
ARC
  5
DD
100
AcDbEntity
  8
1
100
AcDbCircle
 10
-626.025528
 20
-431.446461
 30
0.0
 40
25.0
100
AcDbArc
 50
180.682783
 51
209.317217
  0
ARC
  5
DE
100
AcDbEntity
  8
1
100
AcDbCircle
 10
-685.16568
 20
-329.012713
 30
0.0
 40
25.0
100
AcDbArc
 50
210.682783
 51
239.317217
  0
ARC
  5
DF
100
AcDbEntity
  8
1
100
AcDbCircle
 10
-787.599428
 20
-269.872561
 30
0.0
 40
25.0
100
AcDbArc
 50
240.682783
 51
269.317217
  0
ARC
  5
E0
100
AcDbEntity
  8
1
100
AcDbCircle
 10
-846.73958
 20
-490.586612
 30
0.0
 40
205.0
100
AcDbArc
 50
77.98423
 51
102.01577
  0
ARC
  5
E1
100
AcDbEntity
  8
1
100
AcDbCircle
 10
-886.293952
 20
-304.749448
 30
0.0
 40
15.0
100
AcDbArc
 50
102.01577
 51
119.317217
  0
ARC
  5
E2
100
AcDbEntity
  8
1
100
AcDbCircle
 10
-905.40307
 20
-309.869721
 30
0.0
 40
15.0
100
AcDbArc
 50
90.682783
 51
107.98423
  0
ARC
  5
E3
100
AcDbEntity
  8
1
100
AcDbCircle
 10
-807.185207
 20
-304.749448
 30
0.0
 40
15.0
100
AcDbArc
 50
60.682783
 51
77.98423
  0
ARC
  5
E4
100
AcDbEntity
  8
1
100
AcDbCircle
 10
-788.076089
 20
-309.869721
 30
0.0
 40
15.0
100
AcDbArc
 50
72.01577
 51
89.317217
  0
ARC
  5
E5
100
AcDbEntity
  8
1
100
AcDbCircle
 10
-846.73958
 20
-490.586612
 30
0.0
 40
205.0
100
AcDbArc
 50
107.98423
 51
132.01577
  0
ARC
  5
E6
100
AcDbEntity
  8
1
100
AcDbCircle
 10
-846.73958
 20
-490.586612
 30
0.0
 40
205.0
100
AcDbArc
 50
137.98423
 51
162.01577
  0
ARC
  5
E7
100
AcDbEntity
  8
1
100
AcDbCircle
 10
-973.913253
 20
-349.424094
 30
0.0
 40
15.0
100
AcDbArc
 50
132.01577
 51
149.317217
  0
ARC
  5
E8
100
AcDbEntity
  8
1
100
AcDbCircle
 10
-987.902099
 20
-363.412939
 30
0.0
 40
15.0
100
AcDbArc
 50
120.682783
 51
137.98423
  0
ARC
  5
E9
100
AcDbEntity
  8
1
100
AcDbCircle
 10
-1027.456471
 20
-431.923122
 30
0.0
 40
15.0
100
AcDbArc
 50
162.01577
 51
179.317217
  0
ARC
  5
EA
100
AcDbEntity
  8
1
100
AcDbCircle
 10
-1032.576744
 20
-451.03224
 30
0.0
 40
15.0
100
AcDbArc
 50
150.682783
 51
167.98423
  0
ARC
  5
EB
100
AcDbEntity
  8
1
100
AcDbCircle
 10
-846.73958
 20
-490.586612
 30
0.0
 40
205.0
100
AcDbArc
 50
167.98423
 51
192.01577
  0
ARC
  5
EC
100
AcDbEntity
  8
1
100
AcDbCircle
 10
-846.73958
 20
-490.586612
 30
0.0
 40
205.0
100
AcDbArc
 50
197.98423
 51
222.01577
  0
ARC
  5
ED
100
AcDbEntity
  8
1
100
AcDbCircle
 10
-1032.576744
 20
-530.140985
 30
0.0
 40
15.0
100
AcDbArc
 50
192.01577
 51
209.317217
  0
ARC
  5
EE
100
AcDbEntity
  8
1
100
AcDbCircle
 10
-1027.456471
 20
-549.250103
 30
0.0
 40
15.0
100
AcDbArc
 50
180.682783
 51
197.98423
  0
ARC
  5
EF
100
AcDbEntity
  8
1
100
AcDbCircle
 10
-987.902099
 20
-617.760286
 30
0.0
 40
15.0
100
AcDbArc
 50
222.01577
 51
239.317217
  0
ARC
  5
F0
100
AcDbEntity
  8
1
100
AcDbCircle
 10
-973.913253
 20
-631.749131
 30
0.0
 40
15.0
100
AcDbArc
 50
210.682783
 51
227.98423
  0
ARC
  5
F1
100
AcDbEntity
  8
1
100
AcDbCircle
 10
-846.73958
 20
-490.586612
 30
0.0
 40
205.0
100
AcDbArc
 50
227.98423
 51
252.01577
  0
ARC
  5
F2
100
AcDbEntity
  8
1
100
AcDbCircle
 10
-846.73958
 20
-490.586612
 30
0.0
 40
205.0
100
AcDbArc
 50
257.98423
 51
282.01577
  0
ARC
  5
F3
100
AcDbEntity
  8
1
100
AcDbCircle
 10
-905.40307
 20
-671.303504
 30
0.0
 40
15.0
100
AcDbArc
 50
252.01577
 51
269.317217
  0
ARC
  5
F4
100
AcDbEntity
  8
1
100
AcDbCircle
 10
-886.293952
 20
-676.423777
 30
0.0
 40
15.0
100
AcDbArc
 50
240.682783
 51
257.98423
  0
ARC
  5
F5
100
AcDbEntity
  8
1
100
AcDbCircle
 10
-807.185207
 20
-676.423777
 30
0.0
 40
15.0
100
AcDbArc
 50
282.01577
 51
299.317217
  0
ARC
  5
F6
100
AcDbEntity
  8
1
100
AcDbCircle
 10
-788.076089
 20
-671.303504
 30
0.0
 40
15.0
100
AcDbArc
 50
270.682783
 51
287.98423
  0
ARC
  5
F7
100
AcDbEntity
  8
1
100
AcDbCircle
 10
-846.73958
 20
-490.586612
 30
0.0
 40
205.0
100
AcDbArc
 50
287.98423
 51
312.01577
  0
ARC
  5
F8
100
AcDbEntity
  8
1
100
AcDbCircle
 10
-846.73958
 20
-490.586612
 30
0.0
 40
205.0
100
AcDbArc
 50
317.98423
 51
342.01577
  0
ARC
  5
F9
100
AcDbEntity
  8
1
100
AcDbCircle
 10
-660.902415
 20
-530.140985
 30
0.0
 40
15.0
100
AcDbArc
 50
330.682783
 51
347.98423
  0
ARC
  5
FA
100
AcDbEntity
  8
1
100
AcDbCircle
 10
-666.022688
 20
-549.250103
 30
0.0
 40
15.0
100
AcDbArc
 50
342.01577
 51
359.317217
  0
ARC
  5
FB
100
AcDbEntity
  8
1
100
AcDbCircle
 10
-705.577061
 20
-617.760286
 30
0.0
 40
15.0
100
AcDbArc
 50
300.682783
 51
317.98423
  0
ARC
  5
FC
100
AcDbEntity
  8
1
100
AcDbCircle
 10
-719.565906
 20
-631.749131
 30
0.0
 40
15.0
100
AcDbArc
 50
312.01577
 51
329.317217
  0
ARC
  5
FD
100
AcDbEntity
  8
1
100
AcDbCircle
 10
-846.73958
 20
-490.586612
 30
0.0
 40
205.0
100
AcDbArc
 50
347.98423
 51
12.01577
  0
ARC
  5
FE
100
AcDbEntity
  8
1
100
AcDbCircle
 10
-846.73958
 20
-490.586612
 30
0.0
 40
205.0
100
AcDbArc
 50
17.98423
 51
42.01577
  0
ARC
  5
FF
100
AcDbEntity
  8
1
100
AcDbCircle
 10
-846.73958
 20
-490.586612
 30
0.0
 40
205.0
100
AcDbArc
 50
47.98423
 51
72.01577
  0
ARC
  5
100
100
AcDbEntity
  8
1
100
AcDbCircle
 10
-719.565906
 20
-349.424094
 30
0.0
 40
15.0
100
AcDbArc
 50
30.682783
 51
47.98423
  0
ARC
  5
101
100
AcDbEntity
  8
1
100
AcDbCircle
 10
-705.577061
 20
-363.412939
 30
0.0
 40
15.0
100
AcDbArc
 50
42.01577
 51
59.317217
  0
ARC
  5
102
100
AcDbEntity
  8
1
100
AcDbCircle
 10
-666.022688
 20
-431.923122
 30
0.0
 40
15.0
100
AcDbArc
 50
0.682783
 51
17.98423
  0
ARC
  5
103
100
AcDbEntity
  8
1
100
AcDbCircle
 10
-660.902415
 20
-451.03224
 30
0.0
 40
15.0
100
AcDbArc
 50
12.01577
 51
29.317217
  0
ARC
  5
104
100
AcDbEntity
  8
1
100
AcDbCircle
 10
-846.73958
 20
-490.586612
 30
0.0
 40
254.0
100
AcDbArc
 50
74.735561
 51
80.369927
  0
ARC
  5
105
100
AcDbEntity
  8
1
100
AcDbCircle
 10
-846.73958
 20
-490.586612
 30
0.0
 40
254.0
100
AcDbArc
 50
99.630073
 51
105.264439
  0
ARC
  5
106
100
AcDbEntity
  8
1
100
AcDbCircle
 10
-846.73958
 20
-490.586612
 30
0.0
 40
254.0
100
AcDbArc
 50
254.735561
 51
260.91528
  0
ARC
  5
107
100
AcDbEntity
  8
1
100
AcDbCircle
 10
-846.73958
 20
-490.586612
 30
0.0
 40
254.0
100
AcDbArc
 50
279.08472
 51
285.264439
  0
LINE
  5
108
100
AcDbEntity
  8
1
100
AcDbLine
 10
-759.23958
 20
-708.61356
 30
0.0
 11
-759.23958
 21
-685.249783
 31
0.0
  0
LINE
  5
109
100
AcDbEntity
  8
1
100
AcDbLine
 10
-759.23958
 20
-295.923442
 30
0.0
 11
-759.23958
 21
-272.559665
 31
0.0
  0
LINE
  5
10A
100
AcDbEntity
  8
1
100
AcDbLine
 10
-934.23958
 20
-708.61356
 30
0.0
 11
-934.23958
 21
-685.249783
 31
0.0
  0
LINE
  5
10B
100
AcDbEntity
  8
1
100
AcDbLine
 10
-934.23958
 20
-295.923442
 30
0.0
 11
-934.23958
 21
-272.559665
 31
0.0
  0
ARC
  5
10C
100
AcDbEntity
  8
1
100
AcDbCircle
 10
-906.23958
 20
-272.559665
 30
0.0
 40
28.0
100
AcDbArc
 50
105.264439
 51
180.0
  0
ARC
  5
10D
100
AcDbEntity
  8
1
100
AcDbCircle
 10
-787.23958
 20
-272.559665
 30
0.0
 40
28.0
100
AcDbArc
 50
0.0
 51
74.735561
  0
ARC
  5
10E
100
AcDbEntity
  8
1
100
AcDbCircle
 10
-787.23958
 20
-708.61356
 30
0.0
 40
28.0
100
AcDbArc
 50
285.264439
 51
360.0
  0
ARC
  5
10F
100
AcDbEntity
  8
1
100
AcDbCircle
 10
-906.23958
 20
-708.61356
 30
0.0
 40
28.0
100
AcDbArc
 50
180.0
 51
254.735561
  0
ARC
  5
110
100
AcDbEntity
  8
1
100
AcDbCircle
 10
-801.73958
 20
-225.377261
 30
0.0
 40
15.0
100
AcDbArc
 50
180.0
 51
260.369927
  0
ARC
  5
111
100
AcDbEntity
  8
1
100
AcDbCircle
 10
-891.73958
 20
-225.377261
 30
0.0
 40
15.0
100
AcDbArc
 50
279.630073
 51
360.0
  0
ARC
  5
112
100
AcDbEntity
  8
1
100
AcDbCircle
 10
-804.73958
 20
-753.249895
 30
0.0
 40
12.0
100
AcDbArc
 50
99.08472
 51
180.0
  0
ARC
  5
113
100
AcDbEntity
  8
1
100
AcDbCircle
 10
-888.73958
 20
-753.249895
 30
0.0
 40
12.0
100
AcDbArc
 50
0.0
 51
80.91528
  0
ARC
  5
114
100
AcDbEntity
  8
1
100
AcDbCircle
 10
-949.23958
 20
-685.249783
 30
0.0
 40
15.0
100
AcDbArc
 50
0.0
 51
62.230927
  0
ARC
  5
115
100
AcDbEntity
  8
1
100
AcDbCircle
 10
-744.23958
 20
-685.249783
 30
0.0
 40
15.0
100
AcDbArc
 50
117.769073
 51
180.0
  0
ARC
  5
116
100
AcDbEntity
  8
1
100
AcDbCircle
 10
-744.23958
 20
-295.923442
 30
0.0
 40
15.0
100
AcDbArc
 50
180.0
 51
242.230927
  0
ARC
  5
117
100
AcDbEntity
  8
1
100
AcDbCircle
 10
-949.23958
 20
-295.923442
 30
0.0
 40
15.0
100
AcDbArc
 50
297.769073
 51
360.0
  0
LINE
  5
118
100
AcDbEntity
  8
1
100
AcDbLine
 10
-1066.73958
 20
-478.086612
 30
0.0
 11
-1066.73958
 21
-503.086612
 31
0.0
  0
LINE
  5
119
100
AcDbEntity
  8
1
100
AcDbLine
 10
-626.73958
 20
-478.086612
 30
0.0
 11
-626.73958
 21
-503.086612
 31
0.0
  0
LINE
  5
11A
100
AcDbEntity
  8
1
100
AcDbLine
 10
-1066.73958
 20
-478.086612
 30
0.0
 11
-1054.161252
 21
-478.086612
 31
0.0
  0
LINE
  5
11B
100
AcDbEntity
  8
1
100
AcDbLine
 10
-639.317908
 20
-478.086612
 30
0.0
 11
-626.73958
 21
-478.086612
 31
0.0
  0
LINE
  5
11C
100
AcDbEntity
  8
1
100
AcDbLine
 10
-1066.73958
 20
-503.086612
 30
0.0
 11
-1054.161252
 21
-503.086612
 31
0.0
  0
LINE
  5
11D
100
AcDbEntity
  8
1
100
AcDbLine
 10
-639.317908
 20
-503.086612
 30
0.0
 11
-626.73958
 21
-503.086612
 31
0.0
  0
ARC
  5
11E
100
AcDbEntity
  8
1
100
AcDbCircle
 10
-639.317908
 20
-475.086612
 30
0.0
 40
3.0
100
AcDbArc
 50
184.273599
 51
270.0
  0
ARC
  5
11F
100
AcDbEntity
  8
1
100
AcDbCircle
 10
-639.317908
 20
-506.086612
 30
0.0
 40
3.0
100
AcDbArc
 50
90.0
 51
175.726401
  0
ARC
  5
120
100
AcDbEntity
  8
1
100
AcDbCircle
 10
-1054.161252
 20
-475.086612
 30
0.0
 40
3.0
100
AcDbArc
 50
270.0
 51
355.726401
  0
ARC
  5
121
100
AcDbEntity
  8
1
100
AcDbCircle
 10
-1054.161252
 20
-506.086612
 30
0.0
 40
3.0
100
AcDbArc
 50
4.273599
 51
90.0
  0
LINE
  5
122
100
AcDbEntity
  8
1
100
AcDbLine
 10
-796.391527
 20
-261.369615
 30
0.0
 11
-783.505981
 21
-269.505472
 31
0.0
  0
LINE
  5
123
100
AcDbEntity
  8
1
100
AcDbLine
 10
-810.272439
 20
-283.35416
 30
0.0
 11
-797.386894
 21
-291.490018
 31
0.0
  0
LINE
  5
124
100
AcDbEntity
  8
1
100
AcDbLine
 10
-897.087633
 20
-261.369615
 30
0.0
 11
-909.973178
 21
-269.505472
 31
0.0
  0
LINE
  5
125
100
AcDbEntity
  8
1
100
AcDbLine
 10
-896.092266
 20
-291.490018
 30
0.0
 11
-883.20672
 21
-283.35416
 31
0.0
  0
ARC
  5
126
100
AcDbEntity
  8
1
100
AcDbCircle
 10
-803.331983
 20
-272.361888
 30
0.0
 40
13.0
100
AcDbArc
 50
57.731927
 51
237.731927
  0
ARC
  5
127
100
AcDbEntity
  8
1
100
AcDbCircle
 10
-790.446437
 20
-280.497745
 30
0.0
 40
13.0
100
AcDbArc
 50
237.731927
 51
57.731927
  0
ARC
  5
128
100
AcDbEntity
  8
1
100
AcDbCircle
 10
-903.032722
 20
-280.497745
 30
0.0
 40
13.0
100
AcDbArc
 50
122.268073
 51
302.268073
  0
ARC
  5
129
100
AcDbEntity
  8
1
100
AcDbCircle
 10
-890.147176
 20
-272.361888
 30
0.0
 40
13.0
100
AcDbArc
 50
302.268073
 51
122.268073
  0
ARC
  5
12A
100
AcDbEntity
  8
1
100
AcDbCircle
 10
-886.73958
 20
-279.340311
 30
0.0
 40
10.0
100
AcDbArc
 50
280.722152
 51
360.0
  0
ARC
  5
12B
100
AcDbEntity
  8
1
100
AcDbCircle
 10
-806.73958
 20
-279.340311
 30
0.0
 40
10.0
100
AcDbArc
 50
180.0
 51
259.277848
  0
ARC
  5
12C
100
AcDbEntity
  8
1
100
AcDbCircle
 10
-806.73958
 20
-701.832914
 30
0.0
 40
10.0
100
AcDbArc
 50
100.722152
 51
180.0
  0
ARC
  5
12D
100
AcDbEntity
  8
1
100
AcDbCircle
 10
-886.73958
 20
-701.832914
 30
0.0
 40
10.0
100
AcDbArc
 50
0.0
 51
79.277848
  0
LINE
  5
12E
100
AcDbEntity
  8
1
100
AcDbLine
 10
-810.272439
 20
-697.819064
 30
0.0
 11
-797.386894
 21
-689.683207
 31
0.0
  0
LINE
  5
12F
100
AcDbEntity
  8
1
100
AcDbLine
 10
-796.391527
 20
-719.80361
 30
0.0
 11
-783.505981
 21
-711.667753
 31
0.0
  0
LINE
  5
130
100
AcDbEntity
  8
1
100
AcDbLine
 10
-883.20672
 20
-697.819064
 30
0.0
 11
-896.092266
 21
-689.683207
 31
0.0
  0
LINE
  5
131
100
AcDbEntity
  8
1
100
AcDbLine
 10
-909.973178
 20
-711.667753
 30
0.0
 11
-897.087633
 21
-719.80361
 31
0.0
  0
ARC
  5
132
100
AcDbEntity
  8
1
100
AcDbCircle
 10
-803.331983
 20
-708.811337
 30
0.0
 40
13.0
100
AcDbArc
 50
122.268073
 51
302.268073
  0
ARC
  5
133
100
AcDbEntity
  8
1
100
AcDbCircle
 10
-790.446437
 20
-700.67548
 30
0.0
 40
13.0
100
AcDbArc
 50
302.268073
 51
122.268073
  0
ARC
  5
134
100
AcDbEntity
  8
1
100
AcDbCircle
 10
-903.032722
 20
-700.67548
 30
0.0
 40
13.0
100
AcDbArc
 50
57.731927
 51
237.731927
  0
ARC
  5
135
100
AcDbEntity
  8
1
100
AcDbCircle
 10
-890.147176
 20
-708.811337
 30
0.0
 40
13.0
100
AcDbArc
 50
237.731927
 51
57.731927
  0
ARC
  5
136
100
AcDbEntity
  8
1
100
AcDbCircle
 10
-913.73958
 20
-162.586612
 30
0.0
 40
3.0
100
AcDbArc
 50
180.0
 51
270.0
  0
ARC
  5
137
100
AcDbEntity
  8
1
100
AcDbCircle
 10
-779.73958
 20
-162.586612
 30
0.0
 40
3.0
100
AcDbArc
 50
270.0
 51
360.0
  0
LINE
  5
138
100
AcDbEntity
  8
1
100
AcDbLine
 10
-906.73958
 20
-175.586612
 30
0.0
 11
-906.73958
 21
-175.235723
 31
0.0
  0
LINE
  5
139
100
AcDbEntity
  8
1
100
AcDbLine
 10
-786.73958
 20
-175.586612
 30
0.0
 11
-786.73958
 21
-175.235723
 31
0.0
  0
ARC
  5
13A
100
AcDbEntity
  8
1
100
AcDbCircle
 10
-791.73958
 20
-175.586612
 30
0.0
 40
5.0
100
AcDbArc
 50
270.0
 51
360.0
  0
ARC
  5
13B
100
AcDbEntity
  8
1
100
AcDbCircle
 10
-901.73958
 20
-175.586612
 30
0.0
 40
5.0
100
AcDbArc
 50
180.0
 51
270.0
  0
ARC
  5
13C
100
AcDbEntity
  8
1
100
AcDbCircle
 10
-776.73958
 20
-175.235723
 30
0.0
 40
10.0
100
AcDbArc
 50
103.342364
 51
180.0
  0
ARC
  5
13D
100
AcDbEntity
  8
1
100
AcDbCircle
 10
-916.73958
 20
-175.235723
 30
0.0
 40
10.0
100
AcDbArc
 50
0.0
 51
76.657636
  0
LINE
  5
13E
100
AcDbEntity
  8
1
100
AcDbLine
 10
-901.73958
 20
-180.586612
 30
0.0
 11
-891.73958
 21
-180.586612
 31
0.0
  0
LINE
  5
13F
100
AcDbEntity
  8
1
100
AcDbLine
 10
-801.73958
 20
-180.586612
 30
0.0
 11
-791.73958
 21
-180.586612
 31
0.0
  0
ARC
  5
140
100
AcDbEntity
  8
1
100
AcDbCircle
 10
-801.73958
 20
-195.586612
 30
0.0
 40
15.0
100
AcDbArc
 50
90.0
 51
180.0
  0
ARC
  5
141
100
AcDbEntity
  8
1
100
AcDbCircle
 10
-891.73958
 20
-195.586612
 30
0.0
 40
15.0
100
AcDbArc
 50
0.0
 51
90.0
  0
ARC
  5
142
100
AcDbEntity
  8
1
100
AcDbCircle
 10
-886.73958
 20
-175.586612
 30
0.0
 40
10.0
100
AcDbArc
 50
0.0
 51
90.0
  0
ARC
  5
143
100
AcDbEntity
  8
1
100
AcDbCircle
 10
-806.73958
 20
-175.586612
 30
0.0
 40
10.0
100
AcDbArc
 50
90.0
 51
180.0
  0
ARC
  5
144
100
AcDbEntity
  8
1
100
AcDbCircle
 10
-832.73958
 20
-170.586612
 30
0.0
 40
5.0
100
AcDbArc
 50
90.0
 51
180.0
  0
ARC
  5
145
100
AcDbEntity
  8
1
100
AcDbCircle
 10
-860.73958
 20
-170.586612
 30
0.0
 40
5.0
100
AcDbArc
 50
0.0
 51
90.0
  0
LINE
  5
146
100
AcDbEntity
  8
1
100
AcDbLine
 10
-837.73958
 20
-195.586612
 30
0.0
 11
-855.73958
 21
-195.586612
 31
0.0
  0
ARC
  5
147
100
AcDbEntity
  8
1
100
AcDbCircle
 10
-832.73958
 20
-190.586612
 30
0.0
 40
5.0
100
AcDbArc
 50
180.0
 51
270.0
  0
ARC
  5
148
100
AcDbEntity
  8
1
100
AcDbCircle
 10
-860.73958
 20
-190.586612
 30
0.0
 40
5.0
100
AcDbArc
 50
270.0
 51
360.0
  0
LINE
  5
149
100
AcDbEntity
  8
1
100
AcDbLine
 10
-840.73958
 20
-180.586612
 30
0.0
 11
-852.73958
 21
-180.586612
 31
0.0
  0
ARC
  5
14A
100
AcDbEntity
  8
1
100
AcDbCircle
 10
-840.73958
 20
-177.586612
 30
0.0
 40
3.0
100
AcDbArc
 50
270.0
 51
360.0
  0
ARC
  5
14B
100
AcDbEntity
  8
1
100
AcDbCircle
 10
-852.73958
 20
-177.586612
 30
0.0
 40
3.0
100
AcDbArc
 50
180.0
 51
270.0
  0
LINE
  5
14C
100
AcDbEntity
  8
1
  6
CENTER
 62
     2
100
AcDbLine
 10
-797.242105
 20
-124.692283
 30
0.0
 11
-797.242105
 21
-176.764621
 31
0.0
  0
LINE
  5
14D
100
AcDbEntity
  8
1
  6
CENTER
 62
     2
100
AcDbLine
 10
-896.237054
 20
-124.692283
 30
0.0
 11
-896.237054
 21
-176.764621
 31
0.0
  0
ARC
  5
14E
100
AcDbEntity
  8
1
100
AcDbCircle
 10
-1008.313479
 20
-329.012713
 30
0.0
 40
26.5
100
AcDbArc
 50
301.001329
 51
328.998671
  0
ARC
  5
14F
100
AcDbEntity
  8
1
100
AcDbCircle
 10
-972.741532
 20
-350.387618
 30
0.0
 40
15.0
100
AcDbArc
 50
131.947191
 51
148.998671
  0
ARC
  5
150
100
AcDbEntity
  8
1
100
AcDbCircle
 10
-986.938574
 20
-364.58466
 30
0.0
 40
15.0
100
AcDbArc
 50
121.001329
 51
138.052809
  0
ARC
  5
151
100
AcDbEntity
  8
1
100
AcDbCircle
 10
-905.879731
 20
-269.872561
 30
0.0
 40
26.5
100
AcDbArc
 50
271.001329
 51
298.998671
  0
ARC
  5
152
100
AcDbEntity
  8
1
100
AcDbCircle
 10
-846.73958
 20
-490.586612
 30
0.0
 40
203.5
100
AcDbArc
 50
108.052809
 51
131.947191
  0
ARC
  5
153
100
AcDbEntity
  8
1
100
AcDbCircle
 10
-885.760974
 20
-306.169746
 30
0.0
 40
15.0
100
AcDbArc
 50
101.947191
 51
118.998671
  0
ARC
  5
154
100
AcDbEntity
  8
1
100
AcDbCircle
 10
-905.154494
 20
-311.366224
 30
0.0
 40
15.0
100
AcDbArc
 50
91.001329
 51
108.052809
  0
ARC
  5
155
100
AcDbEntity
  8
1
100
AcDbCircle
 10
-787.599428
 20
-269.872561
 30
0.0
 40
26.5
100
AcDbArc
 50
241.001329
 51
268.998671
  0
ARC
  5
156
100
AcDbEntity
  8
1
100
AcDbCircle
 10
-846.73958
 20
-490.586612
 30
0.0
 40
203.5
100
AcDbArc
 50
78.052809
 51
101.947191
  0
ARC
  5
157
100
AcDbEntity
  8
1
100
AcDbCircle
 10
-788.324665
 20
-311.366224
 30
0.0
 40
15.0
100
AcDbArc
 50
71.947191
 51
88.998671
  0
ARC
  5
158
100
AcDbEntity
  8
1
100
AcDbCircle
 10
-807.718185
 20
-306.169746
 30
0.0
 40
15.0
100
AcDbArc
 50
61.001329
 51
78.052809
  0
ARC
  5
159
100
AcDbEntity
  8
1
100
AcDbCircle
 10
-685.16568
 20
-329.012713
 30
0.0
 40
26.5
100
AcDbArc
 50
211.001329
 51
238.998671
  0
ARC
  5
15A
100
AcDbEntity
  8
1
100
AcDbCircle
 10
-846.73958
 20
-490.586612
 30
0.0
 40
203.5
100
AcDbArc
 50
48.052809
 51
71.947191
  0
ARC
  5
15B
100
AcDbEntity
  8
1
100
AcDbCircle
 10
-720.737627
 20
-350.387618
 30
0.0
 40
15.0
100
AcDbArc
 50
31.001329
 51
48.052809
  0
ARC
  5
15C
100
AcDbEntity
  8
1
100
AcDbCircle
 10
-706.540585
 20
-364.58466
 30
0.0
 40
15.0
100
AcDbArc
 50
41.947191
 51
58.998671
  0
ARC
  5
15D
100
AcDbEntity
  8
1
100
AcDbCircle
 10
-626.025528
 20
-431.446461
 30
0.0
 40
26.5
100
AcDbArc
 50
181.001329
 51
208.998671
  0
ARC
  5
15E
100
AcDbEntity
  8
1
100
AcDbCircle
 10
-846.73958
 20
-490.586612
 30
0.0
 40
203.5
100
AcDbArc
 50
18.052809
 51
41.947191
  0
ARC
  5
15F
100
AcDbEntity
  8
1
100
AcDbCircle
 10
-667.519191
 20
-432.171698
 30
0.0
 40
15.0
100
AcDbArc
 50
1.001329
 51
18.052809
  0
ARC
  5
160
100
AcDbEntity
  8
1
100
AcDbCircle
 10
-662.322713
 20
-451.565218
 30
0.0
 40
15.0
100
AcDbArc
 50
11.947191
 51
28.998671
  0
ARC
  5
161
100
AcDbEntity
  8
1
100
AcDbCircle
 10
-626.025528
 20
-549.726764
 30
0.0
 40
26.5
100
AcDbArc
 50
151.001329
 51
178.998671
  0
ARC
  5
162
100
AcDbEntity
  8
1
100
AcDbCircle
 10
-846.73958
 20
-490.586612
 30
0.0
 40
203.5
100
AcDbArc
 50
348.052809
 51
11.947191
  0
ARC
  5
163
100
AcDbEntity
  8
1
100
AcDbCircle
 10
-662.322713
 20
-529.608007
 30
0.0
 40
15.0
100
AcDbArc
 50
331.001329
 51
348.052809
  0
ARC
  5
164
100
AcDbEntity
  8
1
100
AcDbCircle
 10
-667.519191
 20
-549.001527
 30
0.0
 40
15.0
100
AcDbArc
 50
341.947191
 51
358.998671
  0
ARC
  5
165
100
AcDbEntity
  8
1
100
AcDbCircle
 10
-685.16568
 20
-652.160512
 30
0.0
 40
26.5
100
AcDbArc
 50
121.001329
 51
148.998671
  0
ARC
  5
166
100
AcDbEntity
  8
1
100
AcDbCircle
 10
-846.73958
 20
-490.586612
 30
0.0
 40
203.5
100
AcDbArc
 50
318.052809
 51
341.947191
  0
ARC
  5
167
100
AcDbEntity
  8
1
100
AcDbCircle
 10
-706.540585
 20
-616.588565
 30
0.0
 40
15.0
100
AcDbArc
 50
301.001329
 51
318.052809
  0
ARC
  5
168
100
AcDbEntity
  8
1
100
AcDbCircle
 10
-720.737627
 20
-630.785607
 30
0.0
 40
15.0
100
AcDbArc
 50
311.947191
 51
328.998671
  0
ARC
  5
169
100
AcDbEntity
  8
1
100
AcDbCircle
 10
-787.599428
 20
-711.300664
 30
0.0
 40
26.5
100
AcDbArc
 50
91.001329
 51
118.998671
  0
ARC
  5
16A
100
AcDbEntity
  8
1
100
AcDbCircle
 10
-846.73958
 20
-490.586612
 30
0.0
 40
203.5
100
AcDbArc
 50
288.052809
 51
311.947191
  0
ARC
  5
16B
100
AcDbEntity
  8
1
100
AcDbCircle
 10
-788.324665
 20
-669.807001
 30
0.0
 40
15.0
100
AcDbArc
 50
271.001329
 51
288.052809
  0
ARC
  5
16C
100
AcDbEntity
  8
1
100
AcDbCircle
 10
-807.718185
 20
-675.003479
 30
0.0
 40
15.0
100
AcDbArc
 50
281.947191
 51
298.998671
  0
ARC
  5
16D
100
AcDbEntity
  8
1
100
AcDbCircle
 10
-905.879731
 20
-711.300664
 30
0.0
 40
26.5
100
AcDbArc
 50
61.001329
 51
88.998671
  0
ARC
  5
16E
100
AcDbEntity
  8
1
100
AcDbCircle
 10
-846.73958
 20
-490.586612
 30
0.0
 40
203.5
100
AcDbArc
 50
258.052809
 51
281.947191
  0
ARC
  5
16F
100
AcDbEntity
  8
1
100
AcDbCircle
 10
-885.760974
 20
-675.003479
 30
0.0
 40
15.0
100
AcDbArc
 50
241.001329
 51
258.052809
  0
ARC
  5
170
100
AcDbEntity
  8
1
100
AcDbCircle
 10
-905.154494
 20
-669.807001
 30
0.0
 40
15.0
100
AcDbArc
 50
251.947191
 51
268.998671
  0
ARC
  5
171
100
AcDbEntity
  8
1
100
AcDbCircle
 10
-1008.313479
 20
-652.160512
 30
0.0
 40
26.5
100
AcDbArc
 50
31.001329
 51
58.998671
  0
ARC
  5
172
100
AcDbEntity
  8
1
100
AcDbCircle
 10
-846.73958
 20
-490.586612
 30
0.0
 40
203.5
100
AcDbArc
 50
228.052809
 51
251.947191
  0
ARC
  5
173
100
AcDbEntity
  8
1
100
AcDbCircle
 10
-986.938574
 20
-616.588565
 30
0.0
 40
15.0
100
AcDbArc
 50
221.947191
 51
238.998671
  0
ARC
  5
174
100
AcDbEntity
  8
1
100
AcDbCircle
 10
-972.741532
 20
-630.785607
 30
0.0
 40
15.0
100
AcDbArc
 50
211.001329
 51
228.052809
  0
ARC
  5
175
100
AcDbEntity
  8
1
100
AcDbCircle
 10
-1067.453631
 20
-549.726764
 30
0.0
 40
26.5
100
AcDbArc
 50
1.001329
 51
28.998671
  0
ARC
  5
176
100
AcDbEntity
  8
1
100
AcDbCircle
 10
-846.73958
 20
-490.586612
 30
0.0
 40
203.5
100
AcDbArc
 50
198.052809
 51
221.947191
  0
ARC
  5
177
100
AcDbEntity
  8
1
100
AcDbCircle
 10
-1025.959968
 20
-549.001527
 30
0.0
 40
15.0
100
AcDbArc
 50
181.001329
 51
198.052809
  0
ARC
  5
178
100
AcDbEntity
  8
1
100
AcDbCircle
 10
-1031.156446
 20
-529.608007
 30
0.0
 40
15.0
100
AcDbArc
 50
191.947191
 51
208.998671
  0
ARC
  5
179
100
AcDbEntity
  8
1
100
AcDbCircle
 10
-1067.453631
 20
-431.446461
 30
0.0
 40
26.5
100
AcDbArc
 50
331.001329
 51
358.998671
  0
ARC
  5
17A
100
AcDbEntity
  8
1
100
AcDbCircle
 10
-846.73958
 20
-490.586612
 30
0.0
 40
203.5
100
AcDbArc
 50
138.052809
 51
161.947191
  0
ARC
  5
17B
100
AcDbEntity
  8
1
100
AcDbCircle
 10
-846.73958
 20
-490.586612
 30
0.0
 40
203.5
100
AcDbArc
 50
168.052809
 51
191.947191
  0
ARC
  5
17C
100
AcDbEntity
  8
1
100
AcDbCircle
 10
-1025.959968
 20
-432.171698
 30
0.0
 40
15.0
100
AcDbArc
 50
161.947191
 51
178.998671
  0
ARC
  5
17D
100
AcDbEntity
  8
1
100
AcDbCircle
 10
-1031.156446
 20
-451.565218
 30
0.0
 40
15.0
100
AcDbArc
 50
151.001329
 51
168.052809
  0
LINE
  5
17E
100
AcDbEntity
  8
1
100
AcDbLine
 10
253.26042
 20
-696.628434
 30
0.0
 11
253.26042
 21
-755.586612
 31
0.0
  0
LINE
  5
17F
100
AcDbEntity
  8
1
100
AcDbLine
 10
313.26042
 20
-696.628434
 30
0.0
 11
313.26042
 21
-755.586612
 31
0.0
  0
LINE
  5
180
100
AcDbEntity
  8
1
100
AcDbLine
 10
253.26042
 20
-755.586612
 30
0.0
 11
313.26042
 21
-755.586612
 31
0.0
  0
ARC
  5
181
100
AcDbEntity
  8
1
100
AcDbCircle
 10
247.26042
 20
-700.183117
 30
0.0
 40
6.0
100
AcDbArc
 50
0.0
 51
87.760107
  0
ARC
  5
182
100
AcDbEntity
  8
1
100
AcDbCircle
 10
319.26042
 20
-700.183117
 30
0.0
 40
6.0
100
AcDbArc
 50
92.239893
 51
180.0
  0
LINE
  5
183
100
AcDbEntity
  8
1
100
AcDbLine
 10
293.26042
 20
-691.623199
 30
0.0
 11
313.26042
 21
-690.854588
 31
0.0
  0
LINE
  5
184
100
AcDbEntity
  8
1
100
AcDbLine
 10
273.26042
 20
-691.623199
 30
0.0
 11
253.26042
 21
-690.854588
 31
0.0
  0
ARC
  5
185
100
AcDbEntity
  8
1
100
AcDbCircle
 10
319.26042
 20
-696.628434
 30
0.0
 40
6.0
100
AcDbArc
 50
92.200825
 51
180.0
  0
ARC
  5
186
100
AcDbEntity
  8
1
100
AcDbCircle
 10
247.26042
 20
-696.628434
 30
0.0
 40
6.0
100
AcDbArc
 50
0.0
 51
87.799175
  0
LINE
  5
187
100
AcDbEntity
  8
1
100
AcDbLine
 10
273.26042
 20
-676.977294
 30
0.0
 11
273.26042
 21
-748.249895
 31
0.0
  0
LINE
  5
188
100
AcDbEntity
  8
1
100
AcDbLine
 10
293.26042
 20
-676.977294
 30
0.0
 11
293.26042
 21
-748.249895
 31
0.0
  0
LINE
  5
189
100
AcDbEntity
  8
1
100
AcDbLine
 10
273.26042
 20
-753.249895
 30
0.0
 11
293.26042
 21
-753.249895
 31
0.0
  0
LINE
  5
18A
100
AcDbEntity
  8
1
100
AcDbLine
 10
273.26042
 20
-671.977294
 30
0.0
 11
293.26042
 21
-671.977294
 31
0.0
  0
ARC
  5
18B
100
AcDbEntity
  8
1
100
AcDbCircle
 10
216.26042
 20
-162.586612
 30
0.0
 40
3.0
100
AcDbArc
 50
180.0
 51
270.0
  0
ARC
  5
18C
100
AcDbEntity
  8
1
100
AcDbCircle
 10
350.26042
 20
-162.586612
 30
0.0
 40
3.0
100
AcDbArc
 50
270.0
 51
360.0
  0
LINE
  5
18D
100
AcDbEntity
  8
1
100
AcDbLine
 10
223.26042
 20
-175.586612
 30
0.0
 11
223.26042
 21
-175.235723
 31
0.0
  0
LINE
  5
18E
100
AcDbEntity
  8
1
100
AcDbLine
 10
343.26042
 20
-175.586612
 30
0.0
 11
343.26042
 21
-175.235723
 31
0.0
  0
ARC
  5
18F
100
AcDbEntity
  8
1
100
AcDbCircle
 10
338.26042
 20
-175.586612
 30
0.0
 40
5.0
100
AcDbArc
 50
270.0
 51
360.0
  0
ARC
  5
190
100
AcDbEntity
  8
1
100
AcDbCircle
 10
228.26042
 20
-175.586612
 30
0.0
 40
5.0
100
AcDbArc
 50
180.0
 51
270.0
  0
ARC
  5
191
100
AcDbEntity
  8
1
100
AcDbCircle
 10
353.26042
 20
-175.235723
 30
0.0
 40
10.0
100
AcDbArc
 50
103.342364
 51
180.0
  0
ARC
  5
192
100
AcDbEntity
  8
1
100
AcDbCircle
 10
213.26042
 20
-175.235723
 30
0.0
 40
10.0
100
AcDbArc
 50
0.0
 51
76.657636
  0
LINE
  5
193
100
AcDbEntity
  8
1
100
AcDbLine
 10
228.26042
 20
-180.586612
 30
0.0
 11
238.26042
 21
-180.586612
 31
0.0
  0
LINE
  5
194
100
AcDbEntity
  8
1
100
AcDbLine
 10
328.26042
 20
-180.586612
 30
0.0
 11
338.26042
 21
-180.586612
 31
0.0
  0
ARC
  5
195
100
AcDbEntity
  8
1
100
AcDbCircle
 10
328.26042
 20
-195.586612
 30
0.0
 40
15.0
100
AcDbArc
 50
90.0
 51
180.0
  0
ARC
  5
196
100
AcDbEntity
  8
1
100
AcDbCircle
 10
238.26042
 20
-195.586612
 30
0.0
 40
15.0
100
AcDbArc
 50
0.0
 51
90.0
  0
ARC
  5
197
100
AcDbEntity
  8
1
100
AcDbCircle
 10
243.26042
 20
-175.586612
 30
0.0
 40
10.0
100
AcDbArc
 50
0.0
 51
90.0
  0
ARC
  5
198
100
AcDbEntity
  8
1
100
AcDbCircle
 10
323.26042
 20
-175.586612
 30
0.0
 40
10.0
100
AcDbArc
 50
90.0
 51
180.0
  0
ARC
  5
199
100
AcDbEntity
  8
1
100
AcDbCircle
 10
297.26042
 20
-170.586612
 30
0.0
 40
5.0
100
AcDbArc
 50
90.0
 51
180.0
  0
ARC
  5
19A
100
AcDbEntity
  8
1
100
AcDbCircle
 10
269.26042
 20
-170.586612
 30
0.0
 40
5.0
100
AcDbArc
 50
0.0
 51
90.0
  0
LINE
  5
19B
100
AcDbEntity
  8
1
100
AcDbLine
 10
292.26042
 20
-195.586612
 30
0.0
 11
274.26042
 21
-195.586612
 31
0.0
  0
ARC
  5
19C
100
AcDbEntity
  8
1
100
AcDbCircle
 10
297.26042
 20
-190.586612
 30
0.0
 40
5.0
100
AcDbArc
 50
180.0
 51
270.0
  0
ARC
  5
19D
100
AcDbEntity
  8
1
100
AcDbCircle
 10
269.26042
 20
-190.586612
 30
0.0
 40
5.0
100
AcDbArc
 50
270.0
 51
360.0
  0
LINE
  5
19E
100
AcDbEntity
  8
1
100
AcDbLine
 10
289.26042
 20
-180.586612
 30
0.0
 11
277.26042
 21
-180.586612
 31
0.0
  0
ARC
  5
19F
100
AcDbEntity
  8
1
100
AcDbCircle
 10
289.26042
 20
-177.586612
 30
0.0
 40
3.0
100
AcDbArc
 50
270.0
 51
360.0
  0
ARC
  5
1A0
100
AcDbEntity
  8
1
100
AcDbCircle
 10
277.26042
 20
-177.586612
 30
0.0
 40
3.0
100
AcDbArc
 50
180.0
 51
270.0
  0
LINE
  5
1A1
100
AcDbEntity
  8
1
  6
CENTER
 62
     2
100
AcDbLine
 10
332.757895
 20
-124.692283
 30
0.0
 11
332.757895
 21
-176.764621
 31
0.0
  0
LINE
  5
1A2
100
AcDbEntity
  8
1
  6
CENTER
 62
     2
100
AcDbLine
 10
233.762946
 20
-124.692283
 30
0.0
 11
233.762946
 21
-176.764621
 31
0.0
  0
ARC
  5
1A3
100
AcDbEntity
  8
1
100
AcDbCircle
 10
321.26042
 20
-279.066806
 30
0.0
 40
8.0
100
AcDbArc
 50
180.0
 51
267.760107
  0
ARC
  5
1A4
100
AcDbEntity
  8
1
100
AcDbCircle
 10
245.26042
 20
-279.066806
 30
0.0
 40
8.0
100
AcDbArc
 50
272.239893
 51
360.0
  0
LINE
  5
1A5
100
AcDbEntity
  8
1
100
AcDbLine
 10
273.26042
 20
-289.550026
 30
0.0
 11
253.26042
 21
-290.318636
 31
0.0
  0
LINE
  5
1A6
100
AcDbEntity
  8
1
100
AcDbLine
 10
293.26042
 20
-289.550026
 30
0.0
 11
313.26042
 21
-290.318636
 31
0.0
  0
ARC
  5
1A7
100
AcDbEntity
  8
1
100
AcDbCircle
 10
321.26042
 20
-282.620175
 30
0.0
 40
8.0
100
AcDbArc
 50
180.0
 51
267.799175
  0
ARC
  5
1A8
100
AcDbEntity
  8
1
100
AcDbCircle
 10
245.26042
 20
-282.620175
 30
0.0
 40
8.0
100
AcDbArc
 50
272.200825
 51
360.0
  0
LINE
  5
1A9
100
AcDbEntity
  8
1
100
AcDbLine
 10
273.26042
 20
-225.377261
 30
0.0
 11
293.26042
 21
-225.377261
 31
0.0
  0
LINE
  5
1AA
100
AcDbEntity
  8
1
100
AcDbLine
 10
273.26042
 20
-230.377261
 30
0.0
 11
273.26042
 21
-304.195931
 31
0.0
  0
LINE
  5
1AB
100
AcDbEntity
  8
1
100
AcDbLine
 10
293.26042
 20
-230.377261
 30
0.0
 11
293.26042
 21
-304.195931
 31
0.0
  0
LINE
  5
1AC
100
AcDbEntity
  8
1
100
AcDbLine
 10
273.26042
 20
-309.195931
 30
0.0
 11
293.26042
 21
-309.195931
 31
0.0
  0
LINE
  5
1AD
100
AcDbEntity
  8
1
100
AcDbLine
 10
281.26042
 20
-245.547476
 30
0.0
 11
285.26042
 21
-245.547476
 31
0.0
  0
ARC
  5
1AE
100
AcDbEntity
  8
1
100
AcDbCircle
 10
285.26042
 20
-253.547476
 30
0.0
 40
8.0
100
AcDbArc
 50
0.0
 51
90.0
  0
ARC
  5
1AF
100
AcDbEntity
  8
1
100
AcDbCircle
 10
281.26042
 20
-253.547476
 30
0.0
 40
8.0
100
AcDbArc
 50
90.0
 51
180.0
  0
LINE
  5
1B0
100
AcDbEntity
  8
1
100
AcDbLine
 10
281.26042
 20
-735.625749
 30
0.0
 11
285.26042
 21
-735.625749
 31
0.0
  0
ARC
  5
1B1
100
AcDbEntity
  8
1
100
AcDbCircle
 10
285.26042
 20
-727.625749
 30
0.0
 40
8.0
100
AcDbArc
 50
270.0
 51
360.0
  0
ARC
  5
1B2
100
AcDbEntity
  8
1
100
AcDbCircle
 10
281.26042
 20
-727.625749
 30
0.0
 40
8.0
100
AcDbArc
 50
180.0
 51
270.0
  0
LINE
  5
1B3
100
AcDbEntity
  8
1
100
AcDbLine
 10
275.76042
 20
-478.086612
 30
0.0
 11
275.76042
 21
-503.086612
 31
0.0
  0
LINE
  5
1B4
100
AcDbEntity
  8
1
100
AcDbLine
 10
290.76042
 20
-478.086612
 30
0.0
 11
290.76042
 21
-503.086612
 31
0.0
  0
LINE
  5
1B5
100
AcDbEntity
  8
1
100
AcDbLine
 10
275.76042
 20
-478.086612
 30
0.0
 11
290.76042
 21
-478.086612
 31
0.0
  0
LINE
  5
1B6
100
AcDbEntity
  8
1
100
AcDbLine
 10
275.76042
 20
-503.086612
 30
0.0
 11
290.76042
 21
-503.086612
 31
0.0
  0
ARC
  5
1B7
100
AcDbEntity
  8
1
100
AcDbCircle
 10
-846.73958
 20
-490.586612
 30
0.0
 40
202.5
100
AcDbArc
 50
46.364715
 51
73.635285
  0
ARC
  5
1B8
100
AcDbEntity
  8
1
100
AcDbCircle
 10
-846.73958
 20
-490.586612
 30
0.0
 40
202.5
100
AcDbArc
 50
16.364715
 51
43.635285
  0
ARC
  5
1B9
100
AcDbEntity
  8
1
100
AcDbCircle
 10
-846.73958
 20
-490.586612
 30
0.0
 40
202.5
100
AcDbArc
 50
346.364715
 51
13.635285
  0
ARC
  5
1BA
100
AcDbEntity
  8
1
100
AcDbCircle
 10
-846.73958
 20
-490.586612
 30
0.0
 40
202.5
100
AcDbArc
 50
316.364715
 51
343.635285
  0
ARC
  5
1BB
100
AcDbEntity
  8
1
100
AcDbCircle
 10
-846.73958
 20
-490.586612
 30
0.0
 40
202.5
100
AcDbArc
 50
286.364715
 51
313.635285
  0
ARC
  5
1BC
100
AcDbEntity
  8
1
100
AcDbCircle
 10
-846.73958
 20
-490.586612
 30
0.0
 40
202.5
100
AcDbArc
 50
256.364715
 51
283.635285
  0
ARC
  5
1BD
100
AcDbEntity
  8
1
100
AcDbCircle
 10
-846.73958
 20
-490.586612
 30
0.0
 40
202.5
100
AcDbArc
 50
226.364715
 51
253.635285
  0
ARC
  5
1BE
100
AcDbEntity
  8
1
100
AcDbCircle
 10
-846.73958
 20
-490.586612
 30
0.0
 40
202.5
100
AcDbArc
 50
196.364715
 51
223.635285
  0
ARC
  5
1BF
100
AcDbEntity
  8
1
100
AcDbCircle
 10
-846.73958
 20
-490.586612
 30
0.0
 40
202.5
100
AcDbArc
 50
166.364715
 51
193.635285
  0
ARC
  5
1C0
100
AcDbEntity
  8
1
100
AcDbCircle
 10
-846.73958
 20
-490.586612
 30
0.0
 40
202.5
100
AcDbArc
 50
136.364715
 51
163.635285
  0
ARC
  5
1C1
100
AcDbEntity
  8
1
100
AcDbCircle
 10
-846.73958
 20
-490.586612
 30
0.0
 40
202.5
100
AcDbArc
 50
76.364715
 51
103.635285
  0
ARC
  5
1C2
100
AcDbEntity
  8
1
100
AcDbCircle
 10
-846.73958
 20
-490.586612
 30
0.0
 40
202.5
100
AcDbArc
 50
106.364715
 51
133.635285
  0
LINE
  5
1C3
100
AcDbEntity
  8
1
100
AcDbLine
 10
322.61042
 20
-288.086612
 30
0.0
 11
322.61042
 21
-693.086612
 31
0.0
  0
LINE
  5
1C4
100
AcDbEntity
  8
1
100
AcDbLine
 10
245.573089
 20
-287.060693
 30
0.0
 11
244.91042
 21
-287.086612
 31
0.0
  0
LINE
  5
1C5
100
AcDbEntity
  8
1
100
AcDbLine
 10
320.947752
 20
-287.060693
 30
0.0
 11
321.61042
 21
-287.086612
 31
0.0
  0
LINE
  5
1C6
100
AcDbEntity
  8
1
100
AcDbLine
 10
321.61042
 20
-287.086612
 30
0.0
 11
322.61042
 21
-288.086612
 31
0.0
  0
LINE
  5
1C7
100
AcDbEntity
  8
1
100
AcDbLine
 10
244.91042
 20
-287.086612
 30
0.0
 11
243.91042
 21
-288.086612
 31
0.0
  0
LINE
  5
1C8
100
AcDbEntity
  8
1
100
AcDbLine
 10
243.91042
 20
-693.086612
 30
0.0
 11
243.91042
 21
-288.086612
 31
0.0
  0
LINE
  5
1C9
100
AcDbEntity
  8
1
100
AcDbLine
 10
247.494922
 20
-694.187701
 30
0.0
 11
244.91042
 21
-694.086612
 31
0.0
  0
LINE
  5
1CA
100
AcDbEntity
  8
1
100
AcDbLine
 10
319.025919
 20
-694.187701
 30
0.0
 11
321.61042
 21
-694.086612
 31
0.0
  0
LINE
  5
1CB
100
AcDbEntity
  8
1
100
AcDbLine
 10
321.61042
 20
-694.086612
 30
0.0
 11
322.61042
 21
-693.086612
 31
0.0
  0
LINE
  5
1CC
100
AcDbEntity
  8
1
100
AcDbLine
 10
244.91042
 20
-694.086612
 30
0.0
 11
243.91042
 21
-693.086612
 31
0.0
  0
LINE
  5
1CD
100
AcDbEntity
  8
1
100
AcDbLine
 10
283.26042
 20
-445.371978
 30
0.0
 11
244.91042
 21
-445.97086
 31
0.0
  0
LINE
  5
1CE
100
AcDbEntity
  8
1
100
AcDbLine
 10
283.26042
 20
-445.371978
 30
0.0
 11
321.61042
 21
-445.97086
 31
0.0
  0
LINE
  5
1CF
100
AcDbEntity
  8
1
100
AcDbLine
 10
321.61042
 20
-429.950513
 30
0.0
 11
283.26042
 21
-429.767841
 31
0.0
  0
LINE
  5
1D0
100
AcDbEntity
  8
1
100
AcDbLine
 10
244.91042
 20
-429.950513
 30
0.0
 11
283.26042
 21
-429.767841
 31
0.0
  0
LINE
  5
1D1
100
AcDbEntity
  8
1
100
AcDbLine
 10
283.26042
 20
-340.030776
 30
0.0
 11
244.91042
 21
-340.946056
 31
0.0
  0
LINE
  5
1D2
100
AcDbEntity
  8
1
100
AcDbLine
 10
283.26042
 20
-340.030776
 30
0.0
 11
321.61042
 21
-340.946056
 31
0.0
  0
LINE
  5
1D3
100
AcDbEntity
  8
1
100
AcDbLine
 10
283.26042
 20
-351.453798
 30
0.0
 11
244.91042
 21
-352.673764
 31
0.0
  0
LINE
  5
1D4
100
AcDbEntity
  8
1
100
AcDbLine
 10
283.26042
 20
-351.453798
 30
0.0
 11
321.61042
 21
-352.673764
 31
0.0
  0
LINE
  5
1D5
100
AcDbEntity
  8
1
100
AcDbLine
 10
273.26042
 20
-295.210969
 30
0.0
 11
244.91042
 21
-296.330304
 31
0.0
  0
LINE
  5
1D6
100
AcDbEntity
  8
1
100
AcDbLine
 10
293.26042
 20
-295.210969
 30
0.0
 11
321.61042
 21
-296.330304
 31
0.0
  0
LINE
  5
1D7
100
AcDbEntity
  8
1
100
AcDbLine
 10
273.26042
 20
-291.000773
 30
0.0
 11
244.91042
 21
-292.037665
 31
0.0
  0
LINE
  5
1D8
100
AcDbEntity
  8
1
100
AcDbLine
 10
293.26042
 20
-291.000773
 30
0.0
 11
321.61042
 21
-292.037665
 31
0.0
  0
ARC
  5
1D9
100
AcDbEntity
  8
1
100
AcDbCircle
 10
250.824346
 20
-433.532112
 30
0.0
 40
6.913925
100
AcDbArc
 50
148.800011
 51
180.0
  0
ARC
  5
1DA
100
AcDbEntity
  8
1
100
AcDbCircle
 10
249.283013
 20
-442.849132
 30
0.0
 40
5.372592
100
AcDbArc
 50
180.0
 51
215.524206
  0
LINE
  5
1DB
100
AcDbEntity
  8
1
100
AcDbLine
 10
244.91042
 20
-445.97086
 30
0.0
 11
244.91042
 21
-535.202365
 31
0.0
  0
ARC
  5
1DC
100
AcDbEntity
  8
1
100
AcDbCircle
 10
315.696495
 20
-433.532112
 30
0.0
 40
6.913925
100
AcDbArc
 50
0.0
 51
31.199989
  0
ARC
  5
1DD
100
AcDbEntity
  8
1
100
AcDbCircle
 10
317.237828
 20
-442.849132
 30
0.0
 40
5.372592
100
AcDbArc
 50
324.475794
 51
360.0
  0
LINE
  5
1DE
100
AcDbEntity
  8
1
100
AcDbLine
 10
321.61042
 20
-445.97086
 30
0.0
 11
321.61042
 21
-535.202365
 31
0.0
  0
ARC
  5
1DF
100
AcDbEntity
  8
1
100
AcDbCircle
 10
246.076449
 20
-350.848371
 30
0.0
 40
2.166029
100
AcDbArc
 50
180.0
 51
237.430274
  0
ARC
  5
1E0
100
AcDbEntity
  8
1
100
AcDbCircle
 10
249.159115
 20
-344.027839
 30
0.0
 40
5.248694
100
AcDbArc
 50
144.044809
 51
180.0
  0
LINE
  5
1E1
100
AcDbEntity
  8
1
100
AcDbLine
 10
244.91042
 20
-429.950513
 30
0.0
 11
244.91042
 21
-352.673764
 31
0.0
  0
ARC
  5
1E2
100
AcDbEntity
  8
1
100
AcDbCircle
 10
320.444392
 20
-350.848371
 30
0.0
 40
2.166029
100
AcDbArc
 50
302.569726
 51
0.0
  0
ARC
  5
1E3
100
AcDbEntity
  8
1
100
AcDbCircle
 10
317.361726
 20
-344.027839
 30
0.0
 40
5.248694
100
AcDbArc
 50
0.0
 51
35.955191
  0
LINE
  5
1E4
100
AcDbEntity
  8
1
100
AcDbLine
 10
321.61042
 20
-429.950513
 30
0.0
 11
321.61042
 21
-352.673764
 31
0.0
  0
ARC
  5
1E5
100
AcDbEntity
  8
1
100
AcDbCircle
 10
245.952551
 20
-293.793871
 30
0.0
 40
2.042131
100
AcDbArc
 50
120.684839
 51
180.0
  0
LINE
  5
1E6
100
AcDbEntity
  8
1
100
AcDbLine
 10
243.91042
 20
-296.290359
 30
0.0
 11
244.91042
 21
-296.330304
 31
0.0
  0
LINE
  5
1E7
100
AcDbEntity
  8
1
100
AcDbLine
 10
244.91042
 20
-340.946056
 30
0.0
 11
244.91042
 21
-296.330304
 31
0.0
  0
LINE
  5
1E8
100
AcDbEntity
  8
1
100
AcDbLine
 10
244.91042
 20
-292.037665
 30
0.0
 11
244.91042
 21
-287.086612
 31
0.0
  0
ARC
  5
1E9
100
AcDbEntity
  8
1
100
AcDbCircle
 10
320.56829
 20
-293.793871
 30
0.0
 40
2.042131
100
AcDbArc
 50
0.0
 51
59.315161
  0
LINE
  5
1EA
100
AcDbEntity
  8
1
100
AcDbLine
 10
322.61042
 20
-296.290359
 30
0.0
 11
321.61042
 21
-296.330304
 31
0.0
  0
LINE
  5
1EB
100
AcDbEntity
  8
1
100
AcDbLine
 10
321.61042
 20
-340.946056
 30
0.0
 11
321.61042
 21
-296.330304
 31
0.0
  0
LINE
  5
1EC
100
AcDbEntity
  8
1
100
AcDbLine
 10
321.61042
 20
-292.037665
 30
0.0
 11
321.61042
 21
-287.086612
 31
0.0
  0
LINE
  5
1ED
100
AcDbEntity
  8
1
100
AcDbLine
 10
283.26042
 20
-535.801246
 30
0.0
 11
244.91042
 21
-535.202365
 31
0.0
  0
LINE
  5
1EE
100
AcDbEntity
  8
1
100
AcDbLine
 10
283.26042
 20
-535.801246
 30
0.0
 11
321.61042
 21
-535.202365
 31
0.0
  0
LINE
  5
1EF
100
AcDbEntity
  8
1
100
AcDbLine
 10
321.61042
 20
-551.222712
 30
0.0
 11
283.26042
 21
-551.405384
 31
0.0
  0
LINE
  5
1F0
100
AcDbEntity
  8
1
100
AcDbLine
 10
244.91042
 20
-551.222712
 30
0.0
 11
283.26042
 21
-551.405384
 31
0.0
  0
LINE
  5
1F1
100
AcDbEntity
  8
1
100
AcDbLine
 10
283.26042
 20
-641.142449
 30
0.0
 11
244.91042
 21
-640.227169
 31
0.0
  0
LINE
  5
1F2
100
AcDbEntity
  8
1
100
AcDbLine
 10
283.26042
 20
-641.142449
 30
0.0
 11
321.61042
 21
-640.227169
 31
0.0
  0
LINE
  5
1F3
100
AcDbEntity
  8
1
100
AcDbLine
 10
283.26042
 20
-629.719427
 30
0.0
 11
244.91042
 21
-628.499461
 31
0.0
  0
LINE
  5
1F4
100
AcDbEntity
  8
1
100
AcDbLine
 10
283.26042
 20
-629.719427
 30
0.0
 11
321.61042
 21
-628.499461
 31
0.0
  0
LINE
  5
1F5
100
AcDbEntity
  8
1
100
AcDbLine
 10
273.26042
 20
-685.962256
 30
0.0
 11
244.91042
 21
-684.842921
 31
0.0
  0
LINE
  5
1F6
100
AcDbEntity
  8
1
100
AcDbLine
 10
293.26042
 20
-685.962256
 30
0.0
 11
321.61042
 21
-684.842921
 31
0.0
  0
LINE
  5
1F7
100
AcDbEntity
  8
1
100
AcDbLine
 10
273.26042
 20
-690.172452
 30
0.0
 11
244.91042
 21
-689.13556
 31
0.0
  0
LINE
  5
1F8
100
AcDbEntity
  8
1
100
AcDbLine
 10
293.26042
 20
-690.172452
 30
0.0
 11
321.61042
 21
-689.13556
 31
0.0
  0
ARC
  5
1F9
100
AcDbEntity
  8
1
100
AcDbCircle
 10
250.824346
 20
-547.641113
 30
0.0
 40
6.913925
100
AcDbArc
 50
180.0
 51
211.199989
  0
ARC
  5
1FA
100
AcDbEntity
  8
1
100
AcDbCircle
 10
249.283013
 20
-538.324092
 30
0.0
 40
5.372592
100
AcDbArc
 50
144.475794
 51
180.0
  0
ARC
  5
1FB
100
AcDbEntity
  8
1
100
AcDbCircle
 10
315.696495
 20
-547.641113
 30
0.0
 40
6.913925
100
AcDbArc
 50
328.800011
 51
360.0
  0
ARC
  5
1FC
100
AcDbEntity
  8
1
100
AcDbCircle
 10
317.237828
 20
-538.324092
 30
0.0
 40
5.372592
100
AcDbArc
 50
0.0
 51
35.524206
  0
ARC
  5
1FD
100
AcDbEntity
  8
1
100
AcDbCircle
 10
246.076449
 20
-630.324853
 30
0.0
 40
2.166029
100
AcDbArc
 50
122.569726
 51
180.0
  0
ARC
  5
1FE
100
AcDbEntity
  8
1
100
AcDbCircle
 10
249.159115
 20
-637.145386
 30
0.0
 40
5.248694
100
AcDbArc
 50
180.0
 51
215.955191
  0
LINE
  5
1FF
100
AcDbEntity
  8
1
100
AcDbLine
 10
244.91042
 20
-551.222712
 30
0.0
 11
244.91042
 21
-628.499461
 31
0.0
  0
ARC
  5
200
100
AcDbEntity
  8
1
100
AcDbCircle
 10
320.444392
 20
-630.324853
 30
0.0
 40
2.166029
100
AcDbArc
 50
360.0
 51
57.430274
  0
ARC
  5
201
100
AcDbEntity
  8
1
100
AcDbCircle
 10
317.361726
 20
-637.145386
 30
0.0
 40
5.248694
100
AcDbArc
 50
324.044809
 51
360.0
  0
LINE
  5
202
100
AcDbEntity
  8
1
100
AcDbLine
 10
321.61042
 20
-551.222712
 30
0.0
 11
321.61042
 21
-628.499461
 31
0.0
  0
ARC
  5
203
100
AcDbEntity
  8
1
100
AcDbCircle
 10
245.952551
 20
-687.379354
 30
0.0
 40
2.042131
100
AcDbArc
 50
180.0
 51
239.315161
  0
LINE
  5
204
100
AcDbEntity
  8
1
100
AcDbLine
 10
243.91042
 20
-684.882866
 30
0.0
 11
244.91042
 21
-684.842921
 31
0.0
  0
LINE
  5
205
100
AcDbEntity
  8
1
100
AcDbLine
 10
244.91042
 20
-640.227169
 30
0.0
 11
244.91042
 21
-684.842921
 31
0.0
  0
LINE
  5
206
100
AcDbEntity
  8
1
100
AcDbLine
 10
244.91042
 20
-689.13556
 30
0.0
 11
244.91042
 21
-694.086612
 31
0.0
  0
ARC
  5
207
100
AcDbEntity
  8
1
100
AcDbCircle
 10
320.56829
 20
-687.379354
 30
0.0
 40
2.042131
100
AcDbArc
 50
300.684839
 51
360.0
  0
LINE
  5
208
100
AcDbEntity
  8
1
100
AcDbLine
 10
322.61042
 20
-684.882866
 30
0.0
 11
321.61042
 21
-684.842921
 31
0.0
  0
LINE
  5
209
100
AcDbEntity
  8
1
100
AcDbLine
 10
321.61042
 20
-640.227169
 30
0.0
 11
321.61042
 21
-684.842921
 31
0.0
  0
LINE
  5
20A
100
AcDbEntity
  8
1
100
AcDbLine
 10
321.61042
 20
-689.13556
 30
0.0
 11
321.61042
 21
-694.086612
 31
0.0
  0
ARC
  5
20B
100
AcDbEntity
  8
1
100
AcDbCircle
 10
298.26042
 20
-304.195931
 30
0.0
 40
5.0
100
AcDbArc
 50
180.0
 51
270.0
  0
ARC
  5
20C
100
AcDbEntity
  8
1
100
AcDbCircle
 10
268.26042
 20
-304.195931
 30
0.0
 40
5.0
100
AcDbArc
 50
270.0
 51
360.0
  0
ARC
  5
20D
100
AcDbEntity
  8
1
100
AcDbCircle
 10
268.26042
 20
-230.377261
 30
0.0
 40
5.0
100
AcDbArc
 50
360.0
 51
90.0
  0
ARC
  5
20E
100
AcDbEntity
  8
1
100
AcDbCircle
 10
298.26042
 20
-230.377261
 30
0.0
 40
5.0
100
AcDbArc
 50
90.0
 51
180.0
  0
ARC
  5
20F
100
AcDbEntity
  8
1
100
AcDbCircle
 10
298.26042
 20
-676.977294
 30
0.0
 40
5.0
100
AcDbArc
 50
90.0
 51
180.0
  0
ARC
  5
210
100
AcDbEntity
  8
1
100
AcDbCircle
 10
268.26042
 20
-676.977294
 30
0.0
 40
5.0
100
AcDbArc
 50
0.0
 51
90.0
  0
ARC
  5
211
100
AcDbEntity
  8
1
100
AcDbCircle
 10
268.26042
 20
-748.249895
 30
0.0
 40
5.0
100
AcDbArc
 50
270.0
 51
360.0
  0
ARC
  5
212
100
AcDbEntity
  8
1
100
AcDbCircle
 10
298.26042
 20
-748.249895
 30
0.0
 40
5.0
100
AcDbArc
 50
180.0
 51
270.0
  0
LINE
  5
213
100
AcDbEntity
  8
1
  6
CENTER
 62
     2
100
AcDbLine
 10
-829.06191
 20
-748.004047
 30
0.0
 11
-829.06191
 21
-772.207355
 31
0.0
  0
LINE
  5
214
100
AcDbEntity
  8
1
  6
CENTER
 62
     2
100
AcDbLine
 10
-864.417249
 20
-772.207355
 30
0.0
 11
-864.417249
 21
-748.004047
 31
0.0
  0
LINE
  5
215
100
AcDbEntity
  8
1
  6
CENTER
 62
     2
100
AcDbLine
 10
300.93809
 20
-748.004047
 30
0.0
 11
300.93809
 21
-772.207355
 31
0.0
  0
LINE
  5
216
100
AcDbEntity
  8
1
  6
CENTER
 62
     2
100
AcDbLine
 10
265.582751
 20
-772.207355
 30
0.0
 11
265.582751
 21
-748.004047
 31
0.0
  0
LINE
  5
217
100
AcDbEntity
  8
1
100
AcDbLine
 10
-820.769017
 20
-759.386612
 30
0.0
 11
-820.769017
 21
-755.586612
 31
0.0
  0
LINE
  5
218
100
AcDbEntity
  8
1
100
AcDbLine
 10
-872.710142
 20
-759.386612
 30
0.0
 11
-872.710142
 21
-755.586612
 31
0.0
  0
LINE
  5
219
100
AcDbEntity
  8
1
100
AcDbLine
 10
-872.710142
 20
-756.386612
 30
0.0
 11
-820.769017
 21
-756.386612
 31
0.0
  0
LINE
  5
21A
100
AcDbEntity
  8
1
100
AcDbLine
 10
-872.710142
 20
-759.386612
 30
0.0
 11
-820.769017
 21
-759.386612
 31
0.0
  0
LINE
  5
21B
100
AcDbEntity
  8
1
100
AcDbLine
 10
-821.56191
 20
-761.386612
 30
0.0
 11
-821.56191
 21
-766.164925
 31
0.0
  0
LINE
  5
21C
100
AcDbEntity
  8
1
100
AcDbLine
 10
-821.56191
 20
-766.164925
 30
0.0
 11
-822.81191
 21
-766.886612
 31
0.0
  0
LINE
  5
21D
100
AcDbEntity
  8
1
100
AcDbLine
 10
-825.31191
 20
-761.386612
 30
0.0
 11
-825.31191
 21
-766.164925
 31
0.0
  0
ARC
  5
21E
100
AcDbEntity
  8
1
100
AcDbCircle
 10
-823.43691
 20
-763.754549
 30
0.0
 40
3.053774
100
AcDbArc
 50
232.121121
 51
307.878879
  0
ARC
  5
21F
100
AcDbEntity
  8
1
100
AcDbCircle
 10
-829.06191
 20
-755.558323
 30
0.0
 40
11.25
100
AcDbArc
 50
250.528777
 51
289.471219
  0
LINE
  5
220
100
AcDbEntity
  8
1
100
AcDbLine
 10
-836.56191
 20
-761.386612
 30
0.0
 11
-836.56191
 21
-766.164925
 31
0.0
  0
LINE
  5
221
100
AcDbEntity
  8
1
100
AcDbLine
 10
-836.56191
 20
-766.164925
 30
0.0
 11
-835.31191
 21
-766.886612
 31
0.0
  0
LINE
  5
222
100
AcDbEntity
  8
1
100
AcDbLine
 10
-835.31191
 20
-766.886612
 30
0.0
 11
-822.81191
 21
-766.886612
 31
0.0
  0
LINE
  5
223
100
AcDbEntity
  8
1
100
AcDbLine
 10
-832.81191
 20
-761.386612
 30
0.0
 11
-832.81191
 21
-766.164925
 31
0.0
  0
ARC
  5
224
100
AcDbEntity
  8
1
100
AcDbCircle
 10
-834.68691
 20
-763.754549
 30
0.0
 40
3.053774
100
AcDbArc
 50
232.121121
 51
307.878879
  0
LINE
  5
225
100
AcDbEntity
  8
1
100
AcDbLine
 10
-821.36191
 20
-759.386612
 30
0.0
 11
-821.36191
 21
-761.386612
 31
0.0
  0
LINE
  5
226
100
AcDbEntity
  8
1
100
AcDbLine
 10
-821.36191
 20
-761.386612
 30
0.0
 11
-836.76191
 21
-761.386612
 31
0.0
  0
LINE
  5
227
100
AcDbEntity
  8
1
100
AcDbLine
 10
-836.76191
 20
-761.386612
 30
0.0
 11
-836.76191
 21
-759.386612
 31
0.0
  0
LINE
  5
228
100
AcDbEntity
  8
1
100
AcDbLine
 10
-829.06191
 20
-761.386612
 30
0.0
 11
-829.56191
 21
-759.386612
 31
0.0
  0
LINE
  5
229
100
AcDbEntity
  8
1
100
AcDbLine
 10
-829.06191
 20
-759.386612
 30
0.0
 11
-828.56191
 21
-761.386612
 31
0.0
  0
LINE
  5
22A
100
AcDbEntity
  8
1
100
AcDbLine
 10
-856.917249
 20
-761.386612
 30
0.0
 11
-856.917249
 21
-766.164925
 31
0.0
  0
LINE
  5
22B
100
AcDbEntity
  8
1
100
AcDbLine
 10
-856.917249
 20
-766.164925
 30
0.0
 11
-858.167249
 21
-766.886612
 31
0.0
  0
LINE
  5
22C
100
AcDbEntity
  8
1
100
AcDbLine
 10
-860.667249
 20
-761.386612
 30
0.0
 11
-860.667249
 21
-766.164925
 31
0.0
  0
ARC
  5
22D
100
AcDbEntity
  8
1
100
AcDbCircle
 10
-858.792249
 20
-763.754549
 30
0.0
 40
3.053774
100
AcDbArc
 50
232.121121
 51
307.878879
  0
ARC
  5
22E
100
AcDbEntity
  8
1
100
AcDbCircle
 10
-864.417249
 20
-755.558323
 30
0.0
 40
11.25
100
AcDbArc
 50
250.528777
 51
289.471219
  0
LINE
  5
22F
100
AcDbEntity
  8
1
100
AcDbLine
 10
-871.917249
 20
-761.386612
 30
0.0
 11
-871.917249
 21
-766.164925
 31
0.0
  0
LINE
  5
230
100
AcDbEntity
  8
1
100
AcDbLine
 10
-871.917249
 20
-766.164925
 30
0.0
 11
-870.667249
 21
-766.886612
 31
0.0
  0
LINE
  5
231
100
AcDbEntity
  8
1
100
AcDbLine
 10
-870.667249
 20
-766.886612
 30
0.0
 11
-858.167249
 21
-766.886612
 31
0.0
  0
LINE
  5
232
100
AcDbEntity
  8
1
100
AcDbLine
 10
-868.167249
 20
-761.386612
 30
0.0
 11
-868.167249
 21
-766.164925
 31
0.0
  0
ARC
  5
233
100
AcDbEntity
  8
1
100
AcDbCircle
 10
-870.042249
 20
-763.754549
 30
0.0
 40
3.053774
100
AcDbArc
 50
232.121121
 51
307.878879
  0
LINE
  5
234
100
AcDbEntity
  8
1
100
AcDbLine
 10
-856.717249
 20
-759.386612
 30
0.0
 11
-856.717249
 21
-761.386612
 31
0.0
  0
LINE
  5
235
100
AcDbEntity
  8
1
100
AcDbLine
 10
-856.717249
 20
-761.386612
 30
0.0
 11
-872.117249
 21
-761.386612
 31
0.0
  0
LINE
  5
236
100
AcDbEntity
  8
1
100
AcDbLine
 10
-872.117249
 20
-761.386612
 30
0.0
 11
-872.117249
 21
-759.386612
 31
0.0
  0
LINE
  5
237
100
AcDbEntity
  8
1
100
AcDbLine
 10
-864.417249
 20
-761.386612
 30
0.0
 11
-864.917249
 21
-759.386612
 31
0.0
  0
LINE
  5
238
100
AcDbEntity
  8
1
100
AcDbLine
 10
-864.417249
 20
-759.386612
 30
0.0
 11
-863.917249
 21
-761.386612
 31
0.0
  0
LINE
  5
239
100
AcDbEntity
  8
1
100
AcDbLine
 10
309.230983
 20
-759.386612
 30
0.0
 11
309.230983
 21
-755.586612
 31
0.0
  0
LINE
  5
23A
100
AcDbEntity
  8
1
100
AcDbLine
 10
257.289858
 20
-759.386612
 30
0.0
 11
257.289858
 21
-755.586612
 31
0.0
  0
LINE
  5
23B
100
AcDbEntity
  8
1
100
AcDbLine
 10
257.289858
 20
-756.386612
 30
0.0
 11
309.230983
 21
-756.386612
 31
0.0
  0
LINE
  5
23C
100
AcDbEntity
  8
1
100
AcDbLine
 10
257.289858
 20
-759.386612
 30
0.0
 11
309.230983
 21
-759.386612
 31
0.0
  0
LINE
  5
23D
100
AcDbEntity
  8
1
100
AcDbLine
 10
307.43809
 20
-761.386612
 30
0.0
 11
307.43809
 21
-766.886612
 31
0.0
  0
LINE
  5
23E
100
AcDbEntity
  8
1
100
AcDbLine
 10
300.93809
 20
-761.386612
 30
0.0
 11
300.93809
 21
-766.164925
 31
0.0
  0
ARC
  5
23F
100
AcDbEntity
  8
1
100
AcDbCircle
 10
304.18809
 20
-759.207854
 30
0.0
 40
7.678759
100
AcDbArc
 50
244.96034
 51
295.03966
  0
LINE
  5
240
100
AcDbEntity
  8
1
100
AcDbLine
 10
294.43809
 20
-761.386612
 30
0.0
 11
294.43809
 21
-766.886612
 31
0.0
  0
LINE
  5
241
100
AcDbEntity
  8
1
100
AcDbLine
 10
294.43809
 20
-766.886612
 30
0.0
 11
307.43809
 21
-766.886612
 31
0.0
  0
ARC
  5
242
100
AcDbEntity
  8
1
100
AcDbCircle
 10
297.68809
 20
-759.207854
 30
0.0
 40
7.678759
100
AcDbArc
 50
244.96034
 51
295.03966
  0
LINE
  5
243
100
AcDbEntity
  8
1
100
AcDbLine
 10
308.63809
 20
-759.386612
 30
0.0
 11
308.63809
 21
-761.386612
 31
0.0
  0
LINE
  5
244
100
AcDbEntity
  8
1
100
AcDbLine
 10
308.63809
 20
-761.386612
 30
0.0
 11
293.23809
 21
-761.386612
 31
0.0
  0
LINE
  5
245
100
AcDbEntity
  8
1
100
AcDbLine
 10
293.23809
 20
-761.386612
 30
0.0
 11
293.23809
 21
-759.386612
 31
0.0
  0
LINE
  5
246
100
AcDbEntity
  8
1
100
AcDbLine
 10
272.082751
 20
-761.386612
 30
0.0
 11
272.082751
 21
-766.886612
 31
0.0
  0
LINE
  5
247
100
AcDbEntity
  8
1
100
AcDbLine
 10
265.582751
 20
-761.386612
 30
0.0
 11
265.582751
 21
-766.164925
 31
0.0
  0
ARC
  5
248
100
AcDbEntity
  8
1
100
AcDbCircle
 10
268.832751
 20
-759.207854
 30
0.0
 40
7.678759
100
AcDbArc
 50
244.96034
 51
295.03966
  0
LINE
  5
249
100
AcDbEntity
  8
1
100
AcDbLine
 10
259.082751
 20
-761.386612
 30
0.0
 11
259.082751
 21
-766.886612
 31
0.0
  0
LINE
  5
24A
100
AcDbEntity
  8
1
100
AcDbLine
 10
259.082751
 20
-766.886612
 30
0.0
 11
272.082751
 21
-766.886612
 31
0.0
  0
ARC
  5
24B
100
AcDbEntity
  8
1
100
AcDbCircle
 10
262.332751
 20
-759.207854
 30
0.0
 40
7.678759
100
AcDbArc
 50
244.96034
 51
295.03966
  0
LINE
  5
24C
100
AcDbEntity
  8
1
100
AcDbLine
 10
273.282751
 20
-759.386612
 30
0.0
 11
273.282751
 21
-761.386612
 31
0.0
  0
LINE
  5
24D
100
AcDbEntity
  8
1
100
AcDbLine
 10
273.282751
 20
-761.386612
 30
0.0
 11
257.882751
 21
-761.386612
 31
0.0
  0
LINE
  5
24E
100
AcDbEntity
  8
1
100
AcDbLine
 10
257.882751
 20
-761.386612
 30
0.0
 11
257.882751
 21
-759.386612
 31
0.0
  0
ARC
  5
24F
100
AcDbEntity
  8
1
100
AcDbCircle
 10
-846.73958
 20
-490.586612
 30
0.0
 40
166.7
100
AcDbArc
 50
97.930535
 51
262.069465
  0
ARC
  5
250
100
AcDbEntity
  8
1
100
AcDbCircle
 10
-846.73958
 20
-490.586612
 30
0.0
 40
166.7
100
AcDbArc
 50
277.930535
 51
82.069465
  0
LINE
  5
251
100
AcDbEntity
  8
1
100
AcDbLine
 10
213.26042
 20
-142.386612
 30
0.0
 11
353.26042
 21
-142.386612
 31
0.0
  0
LINE
  5
252
100
AcDbEntity
  8
1
100
AcDbLine
 10
-916.73958
 20
-142.386612
 30
0.0
 11
-776.73958
 21
-142.386612
 31
0.0
  0
CIRCLE
  5
253
100
AcDbEntity
  8
1
100
AcDbCircle
 10
-846.73958
 20
-354.586612
 30
0.0
 40
5.81
  0
CIRCLE
  5
254
100
AcDbEntity
  8
1
100
AcDbCircle
 10
-846.73958
 20
-626.586612
 30
0.0
 40
5.81
  0
LINE
  5
255
100
AcDbEntity
  8
1
100
AcDbLine
 10
-823.73958
 20
-325.480919
 30
0.0
 11
-869.73958
 21
-325.480919
 31
0.0
  0
LINE
  5
256
100
AcDbEntity
  8
1
100
AcDbLine
 10
-823.73958
 20
-655.692306
 30
0.0
 11
-869.73958
 21
-655.692306
 31
0.0
  0
ARC
  5
257
100
AcDbEntity
  8
1
100
AcDbCircle
 10
321.099775
 20
-683.336612
 30
0.0
 40
2.0
100
AcDbArc
 50
319.05356
 51
330.255119
  0
ARC
  5
258
100
AcDbEntity
  8
1
100
AcDbCircle
 10
245.421065
 20
-683.336612
 30
0.0
 40
2.0
100
AcDbArc
 50
209.744881
 51
220.94644
  0
ARC
  5
259
100
AcDbEntity
  8
1
100
AcDbCircle
 10
321.099775
 20
-297.836612
 30
0.0
 40
2.0
100
AcDbArc
 50
29.744881
 51
40.94644
  0
ARC
  5
25A
100
AcDbEntity
  8
1
100
AcDbCircle
 10
245.421065
 20
-297.836612
 30
0.0
 40
2.0
100
AcDbArc
 50
139.05356
 51
150.255119
  0
LINE
  5
25B
100
AcDbEntity
  8
1
  6
CENTER
 62
     2
100
AcDbLine
 10
283.26042
 20
-142.386612
 30
0.0
 11
283.26042
 21
-783.692096
 31
0.0
  0
LINE
  5
25C
100
AcDbEntity
  8
1
  6
CENTER
 62
     2
100
AcDbLine
 10
-846.73958
 20
-142.386612
 30
0.0
 11
-846.73958
 21
-783.692096
 31
0.0
  0
LINE
  5
25D
100
AcDbEntity
  8
1
  6
DASHED
100
AcDbLine
 10
-1051.73958
 20
569.613388
 30
0.0
 11
-1050.23958
 21
531.263388
 31
0.0
  0
LINE
  5
25E
100
AcDbEntity
  8
1
  6
DASHED
100
AcDbLine
 10
-1050.23958
 20
607.963388
 30
0.0
 11
-1049.23958
 21
608.963388
 31
0.0
  0
LINE
  5
25F
100
AcDbEntity
  8
1
  6
DASHED
100
AcDbLine
 10
-1050.23958
 20
531.263388
 30
0.0
 11
-1049.23958
 21
530.263388
 31
0.0
  0
LINE
  5
260
100
AcDbEntity
  8
1
  6
DASHED
100
AcDbLine
 10
-641.73958
 20
569.613388
 30
0.0
 11
-643.23958
 21
531.263388
 31
0.0
  0
LINE
  5
261
100
AcDbEntity
  8
1
  6
DASHED
100
AcDbLine
 10
-641.73958
 20
569.613388
 30
0.0
 11
-643.23958
 21
607.963388
 31
0.0
  0
LINE
  5
262
100
AcDbEntity
  8
1
  6
DASHED
100
AcDbLine
 10
-643.23958
 20
607.963388
 30
0.0
 11
-644.23958
 21
608.963388
 31
0.0
  0
LINE
  5
263
100
AcDbEntity
  8
1
  6
DASHED
100
AcDbLine
 10
-643.23958
 20
531.263388
 30
0.0
 11
-644.23958
 21
530.263388
 31
0.0
  0
LINE
  5
264
100
AcDbEntity
  8
1
  6
DASHED
100
AcDbLine
 10
-997.295416
 20
569.613388
 30
0.0
 11
-996.380136
 21
531.263388
 31
0.0
  0
LINE
  5
265
100
AcDbEntity
  8
1
  6
DASHED
100
AcDbLine
 10
-985.872394
 20
569.613388
 30
0.0
 11
-984.652428
 21
531.263388
 31
0.0
  0
LINE
  5
266
100
AcDbEntity
  8
1
  6
DASHED
100
AcDbLine
 10
-1042.51005
 20
569.613388
 30
0.0
 11
-1040.995888
 21
531.263388
 31
0.0
  0
LINE
  5
267
100
AcDbEntity
  8
1
  6
DASHED
100
AcDbLine
 10
-1046.691166
 20
569.613388
 30
0.0
 11
-1045.288527
 21
531.263388
 31
0.0
  0
ARC
  5
268
100
AcDbEntity
  8
1
  6
DASHED
100
AcDbCircle
 10
-986.477821
 20
532.429416
 30
0.0
 40
2.166029
100
AcDbArc
 50
270.0
 51
327.430274
  0
ARC
  5
269
100
AcDbEntity
  8
1
  6
DASHED
100
AcDbCircle
 10
-993.298353
 20
535.512082
 30
0.0
 40
5.248694
100
AcDbArc
 50
234.044809
 51
270.0
  0
LINE
  5
26A
100
AcDbEntity
  8
1
  6
DASHED
100
AcDbLine
 10
-916.73958
 20
531.263388
 30
0.0
 11
-984.652428
 21
531.263388
 31
0.0
  0
ARC
  5
26B
100
AcDbEntity
  8
1
100
AcDbCircle
 10
-986.477821
 20
606.797359
 30
0.0
 40
2.166029
100
AcDbArc
 50
32.569726
 51
90.0
  0
ARC
  5
26C
100
AcDbEntity
  8
1
100
AcDbCircle
 10
-993.298353
 20
603.714693
 30
0.0
 40
5.248694
100
AcDbArc
 50
90.0
 51
125.955191
  0
LINE
  5
26D
100
AcDbEntity
  8
1
100
AcDbLine
 10
-916.73958
 20
607.963388
 30
0.0
 11
-984.652428
 21
607.963388
 31
0.0
  0
ARC
  5
26E
100
AcDbEntity
  8
1
  6
DASHED
100
AcDbCircle
 10
-1043.532321
 20
532.305518
 30
0.0
 40
2.042131
100
AcDbArc
 50
210.684839
 51
270.0
  0
LINE
  5
26F
100
AcDbEntity
  8
1
  6
DASHED
100
AcDbLine
 10
-1041.035833
 20
530.263388
 30
0.0
 11
-1040.995888
 21
531.263388
 31
0.0
  0
LINE
  5
270
100
AcDbEntity
  8
1
  6
DASHED
100
AcDbLine
 10
-996.380136
 20
531.263388
 30
0.0
 11
-1040.995888
 21
531.263388
 31
0.0
  0
LINE
  5
271
100
AcDbEntity
  8
1
  6
DASHED
100
AcDbLine
 10
-1045.288527
 20
531.263388
 30
0.0
 11
-1050.23958
 21
531.263388
 31
0.0
  0
ARC
  5
272
100
AcDbEntity
  8
1
  6
DASHED
100
AcDbCircle
 10
-1043.532321
 20
606.921257
 30
0.0
 40
2.042131
100
AcDbArc
 50
90.0
 51
149.315161
  0
LINE
  5
273
100
AcDbEntity
  8
1
  6
DASHED
100
AcDbLine
 10
-1041.035833
 20
608.963388
 30
0.0
 11
-1040.995888
 21
607.963388
 31
0.0
  0
LINE
  5
274
100
AcDbEntity
  8
1
  6
DASHED
100
AcDbLine
 10
-1045.288527
 20
607.963388
 30
0.0
 11
-1050.23958
 21
607.963388
 31
0.0
  0
LINE
  5
275
100
AcDbEntity
  8
1
  6
DASHED
100
AcDbLine
 10
-696.183743
 20
569.613388
 30
0.0
 11
-697.099023
 21
531.263388
 31
0.0
  0
LINE
  5
276
100
AcDbEntity
  8
1
  6
DASHED
100
AcDbLine
 10
-696.183743
 20
569.613388
 30
0.0
 11
-697.099023
 21
607.963388
 31
0.0
  0
LINE
  5
277
100
AcDbEntity
  8
1
  6
DASHED
100
AcDbLine
 10
-707.606765
 20
569.613388
 30
0.0
 11
-708.826731
 21
531.263388
 31
0.0
  0
LINE
  5
278
100
AcDbEntity
  8
1
  6
DASHED
100
AcDbLine
 10
-707.606765
 20
569.613388
 30
0.0
 11
-708.826731
 21
607.963388
 31
0.0
  0
LINE
  5
279
100
AcDbEntity
  8
1
  6
DASHED
100
AcDbLine
 10
-650.969109
 20
569.613388
 30
0.0
 11
-652.483271
 21
531.263388
 31
0.0
  0
LINE
  5
27A
100
AcDbEntity
  8
1
  6
DASHED
100
AcDbLine
 10
-650.969109
 20
569.613388
 30
0.0
 11
-652.483271
 21
607.963388
 31
0.0
  0
LINE
  5
27B
100
AcDbEntity
  8
1
  6
DASHED
100
AcDbLine
 10
-646.787993
 20
569.613388
 30
0.0
 11
-648.190632
 21
531.263388
 31
0.0
  0
LINE
  5
27C
100
AcDbEntity
  8
1
  6
DASHED
100
AcDbLine
 10
-646.787993
 20
569.613388
 30
0.0
 11
-648.190632
 21
607.963388
 31
0.0
  0
ARC
  5
27D
100
AcDbEntity
  8
1
  6
DASHED
100
AcDbCircle
 10
-707.001339
 20
532.429416
 30
0.0
 40
2.166029
100
AcDbArc
 50
212.569726
 51
270.0
  0
ARC
  5
27E
100
AcDbEntity
  8
1
  6
DASHED
100
AcDbCircle
 10
-700.180806
 20
535.512082
 30
0.0
 40
5.248694
100
AcDbArc
 50
270.0
 51
305.955191
  0
LINE
  5
27F
100
AcDbEntity
  8
1
  6
DASHED
100
AcDbLine
 10
-776.73958
 20
531.263388
 30
0.0
 11
-708.826731
 21
531.263388
 31
0.0
  0
ARC
  5
280
100
AcDbEntity
  8
1
  6
DASHED
100
AcDbCircle
 10
-707.001339
 20
606.797359
 30
0.0
 40
2.166029
100
AcDbArc
 50
90.0
 51
147.430274
  0
ARC
  5
281
100
AcDbEntity
  8
1
  6
DASHED
100
AcDbCircle
 10
-700.180806
 20
603.714693
 30
0.0
 40
5.248694
100
AcDbArc
 50
54.044809
 51
90.0
  0
ARC
  5
282
100
AcDbEntity
  8
1
  6
DASHED
100
AcDbCircle
 10
-649.946838
 20
532.305518
 30
0.0
 40
2.042131
100
AcDbArc
 50
270.0
 51
329.315161
  0
LINE
  5
283
100
AcDbEntity
  8
1
  6
DASHED
100
AcDbLine
 10
-652.443326
 20
530.263388
 30
0.0
 11
-652.483271
 21
531.263388
 31
0.0
  0
LINE
  5
284
100
AcDbEntity
  8
1
  6
DASHED
100
AcDbLine
 10
-697.099023
 20
531.263388
 30
0.0
 11
-652.483271
 21
531.263388
 31
0.0
  0
LINE
  5
285
100
AcDbEntity
  8
1
  6
DASHED
100
AcDbLine
 10
-648.190632
 20
531.263388
 30
0.0
 11
-643.23958
 21
531.263388
 31
0.0
  0
ARC
  5
286
100
AcDbEntity
  8
1
  6
DASHED
100
AcDbCircle
 10
-649.946838
 20
606.921257
 30
0.0
 40
2.042131
100
AcDbArc
 50
30.684839
 51
90.0
  0
LINE
  5
287
100
AcDbEntity
  8
1
  6
DASHED
100
AcDbLine
 10
-652.443326
 20
608.963388
 30
0.0
 11
-652.483271
 21
607.963388
 31
0.0
  0
LINE
  5
288
100
AcDbEntity
  8
1
  6
DASHED
100
AcDbLine
 10
-697.099023
 20
607.963388
 30
0.0
 11
-652.483271
 21
607.963388
 31
0.0
  0
LINE
  5
289
100
AcDbEntity
  8
1
  6
DASHED
100
AcDbLine
 10
-648.190632
 20
607.963388
 30
0.0
 11
-643.23958
 21
607.963388
 31
0.0
  0
LINE
  5
28A
100
AcDbEntity
  8
1
  6
DASHED
100
AcDbLine
 10
-916.73958
 20
527.413388
 30
0.0
 11
-916.73958
 21
611.813388
 31
0.0
  0
LINE
  5
28B
100
AcDbEntity
  8
1
  6
DASHED
100
AcDbLine
 10
-776.73958
 20
527.413388
 30
0.0
 11
-776.73958
 21
611.813388
 31
0.0
  0
LINE
  5
28C
100
AcDbEntity
  8
1
  6
DASHED
100
AcDbLine
 10
-888.93958
 20
639.613388
 30
0.0
 11
-804.53958
 21
639.613388
 31
0.0
  0
LINE
  5
28D
100
AcDbEntity
  8
1
  6
DASHED
100
AcDbLine
 10
-888.93958
 20
499.613388
 30
0.0
 11
-804.53958
 21
499.613388
 31
0.0
  0
ARC
  5
28E
100
AcDbEntity
  8
1
  6
DASHED
100
AcDbCircle
 10
-888.93958
 20
527.413388
 30
0.0
 40
27.8
100
AcDbArc
 50
180.0
 51
270.0
  0
ARC
  5
28F
100
AcDbEntity
  8
1
  6
DASHED
100
AcDbCircle
 10
-804.53958
 20
527.413388
 30
0.0
 40
27.8
100
AcDbArc
 50
270.0
 51
360.0
  0
ARC
  5
290
100
AcDbEntity
  8
1
  6
DASHED
100
AcDbCircle
 10
-804.53958
 20
611.813388
 30
0.0
 40
27.8
100
AcDbArc
 50
0.0
 51
90.0
  0
ARC
  5
291
100
AcDbEntity
  8
1
  6
DASHED
100
AcDbCircle
 10
-888.93958
 20
611.813388
 30
0.0
 40
27.8
100
AcDbArc
 50
90.0
 51
180.0
  0
LINE
  5
292
100
AcDbEntity
  8
1
  6
DASHED
100
AcDbLine
 10
-1049.23958
 20
530.263388
 30
0.0
 11
-916.73958
 21
530.263388
 31
0.0
  0
LINE
  5
293
100
AcDbEntity
  8
1
  6
DASHED
100
AcDbLine
 10
-776.73958
 20
530.263388
 30
0.0
 11
-644.23958
 21
530.263388
 31
0.0
  0
CIRCLE
  5
294
100
AcDbEntity
  8
1
  6
DASHED
100
AcDbCircle
 10
-797.242105
 20
619.110862
 30
0.0
 40
9.5
  0
CIRCLE
  5
295
100
AcDbEntity
  8
1
  6
DASHED
100
AcDbCircle
 10
-896.237054
 20
619.110862
 30
0.0
 40
9.5
  0
CIRCLE
  5
296
100
AcDbEntity
  8
1
  6
DASHED
100
AcDbCircle
 10
-896.237054
 20
520.115913
 30
0.0
 40
9.5
  0
CIRCLE
  5
297
100
AcDbEntity
  8
1
  6
DASHED
100
AcDbCircle
 10
-797.242105
 20
520.115913
 30
0.0
 40
9.5
  0
LINE
  5
298
100
AcDbEntity
  8
1
  6
CENTER
 62
     2
100
AcDbLine
 10
-912.475053
 20
635.348861
 30
0.0
 11
-880.625215
 21
603.499023
 31
0.0
  0
LINE
  5
299
100
AcDbEntity
  8
1
  6
CENTER
 62
     2
100
AcDbLine
 10
-813.025787
 20
535.899595
 30
0.0
 11
-780.959087
 21
503.832895
 31
0.0
  0
LINE
  5
29A
100
AcDbEntity
  8
1
  6
CENTER
 62
     2
100
AcDbLine
 10
-912.853221
 20
503.499747
 30
0.0
 11
-879.919921
 21
536.433047
 31
0.0
  0
LINE
  5
29B
100
AcDbEntity
  8
1
  6
CENTER
 62
     2
100
AcDbLine
 10
-810.8039
 20
605.549067
 30
0.0
 11
-781.336786
 21
635.016181
 31
0.0
  0
ARC
  5
29C
100
AcDbEntity
  8
1
  6
CENTER
 62
     2
100
AcDbCircle
 10
-846.73958
 20
569.613388
 30
0.0
 40
70.0
100
AcDbArc
 50
296.322183
 51
334.381275
  0
ARC
  5
29D
100
AcDbEntity
  8
1
  6
CENTER
 62
     2
100
AcDbCircle
 10
-846.73958
 20
569.613388
 30
0.0
 40
70.0
100
AcDbArc
 50
27.777253
 51
61.171821
  0
ARC
  5
29E
100
AcDbEntity
  8
1
  6
CENTER
 62
     2
100
AcDbCircle
 10
-846.73958
 20
569.613388
 30
0.0
 40
70.0
100
AcDbArc
 50
115.527041
 51
153.420545
  0
ARC
  5
29F
100
AcDbEntity
  8
1
  6
CENTER
 62
     2
100
AcDbCircle
 10
-846.73958
 20
569.613388
 30
0.0
 40
70.0
100
AcDbArc
 50
207.940899
 51
241.58638
  0
LINE
  5
2A0
100
AcDbEntity
  8
1
  6
DASHED
100
AcDbLine
 10
-626.73958
 20
562.113388
 30
0.0
 11
-626.73958
 21
577.113388
 31
0.0
  0
LINE
  5
2A1
100
AcDbEntity
  8
1
100
AcDbLine
 10
-1066.73958
 20
577.113388
 30
0.0
 11
-1054.331183
 21
577.113388
 31
0.0
  0
LINE
  5
2A2
100
AcDbEntity
  8
1
  6
DASHED
100
AcDbLine
 10
-639.147977
 20
577.113388
 30
0.0
 11
-626.73958
 21
577.113388
 31
0.0
  0
LINE
  5
2A3
100
AcDbEntity
  8
1
  6
DASHED
100
AcDbLine
 10
-1066.73958
 20
562.113388
 30
0.0
 11
-1054.331183
 21
562.113388
 31
0.0
  0
LINE
  5
2A4
100
AcDbEntity
  8
1
  6
DASHED
100
AcDbLine
 10
-639.147977
 20
562.113388
 30
0.0
 11
-626.73958
 21
562.113388
 31
0.0
  0
ARC
  5
2A5
100
AcDbEntity
  8
1
  6
DASHED
100
AcDbCircle
 10
-639.147977
 20
580.113388
 30
0.0
 40
3.0
100
AcDbArc
 50
182.239893
 51
270.0
  0
ARC
  5
2A6
100
AcDbEntity
  8
1
  6
DASHED
100
AcDbCircle
 10
-639.147977
 20
559.113388
 30
0.0
 40
3.0
100
AcDbArc
 50
90.0
 51
177.760107
  0
ARC
  5
2A7
100
AcDbEntity
  8
1
100
AcDbCircle
 10
-1054.331183
 20
580.113388
 30
0.0
 40
3.0
100
AcDbArc
 50
270.0
 51
357.760107
  0
ARC
  5
2A8
100
AcDbEntity
  8
1
100
AcDbCircle
 10
-1054.331183
 20
559.113388
 30
0.0
 40
3.0
100
AcDbArc
 50
2.239893
 51
90.0
  0
LINE
  5
2A9
100
AcDbEntity
  8
1
  6
DASHED
100
AcDbLine
 10
-759.23958
 20
567.613388
 30
0.0
 11
-759.23958
 21
571.613388
 31
0.0
  0
LINE
  5
2AA
100
AcDbEntity
  8
1
  6
DASHED
100
AcDbLine
 10
-751.228216
 20
559.613388
 30
0.0
 11
-751.228216
 21
579.613388
 31
0.0
  0
LINE
  5
2AB
100
AcDbEntity
  8
1
  6
DASHED
100
AcDbLine
 10
-776.73958
 20
579.613388
 30
0.0
 11
-756.228216
 21
579.613388
 31
0.0
  0
LINE
  5
2AC
100
AcDbEntity
  8
1
  6
DASHED
100
AcDbLine
 10
-776.73958
 20
559.613388
 30
0.0
 11
-756.228216
 21
559.613388
 31
0.0
  0
ARC
  5
2AD
100
AcDbEntity
  8
1
  6
DASHED
100
AcDbCircle
 10
-756.228216
 20
554.613388
 30
0.0
 40
5.0
100
AcDbArc
 50
0.0
 51
90.0
  0
ARC
  5
2AE
100
AcDbEntity
  8
1
  6
DASHED
100
AcDbCircle
 10
-767.23958
 20
571.613388
 30
0.0
 40
8.0
100
AcDbArc
 50
0.0
 51
90.0
  0
ARC
  5
2AF
100
AcDbEntity
  8
1
  6
DASHED
100
AcDbCircle
 10
-767.23958
 20
567.613388
 30
0.0
 40
8.0
100
AcDbArc
 50
270.0
 51
360.0
  0
LINE
  5
2B0
100
AcDbEntity
  8
1
  6
DASHED
100
AcDbLine
 10
-934.23958
 20
567.613388
 30
0.0
 11
-934.23958
 21
571.613388
 31
0.0
  0
LINE
  5
2B1
100
AcDbEntity
  8
1
  6
DASHED
100
AcDbLine
 10
-942.250943
 20
559.613388
 30
0.0
 11
-942.250943
 21
579.613388
 31
0.0
  0
LINE
  5
2B2
100
AcDbEntity
  8
1
  6
DASHED
100
AcDbLine
 10
-916.73958
 20
579.613388
 30
0.0
 11
-937.250943
 21
579.613388
 31
0.0
  0
LINE
  5
2B3
100
AcDbEntity
  8
1
  6
DASHED
100
AcDbLine
 10
-916.73958
 20
559.613388
 30
0.0
 11
-937.250943
 21
559.613388
 31
0.0
  0
ARC
  5
2B4
100
AcDbEntity
  8
1
  6
DASHED
100
AcDbCircle
 10
-937.250943
 20
554.613388
 30
0.0
 40
5.0
100
AcDbArc
 50
90.0
 51
180.0
  0
ARC
  5
2B5
100
AcDbEntity
  8
1
  6
DASHED
100
AcDbCircle
 10
-926.23958
 20
571.613388
 30
0.0
 40
8.0
100
AcDbArc
 50
90.0
 51
180.0
  0
ARC
  5
2B6
100
AcDbEntity
  8
1
  6
DASHED
100
AcDbCircle
 10
-926.23958
 20
567.613388
 30
0.0
 40
8.0
100
AcDbArc
 50
180.0
 51
270.0
  0
LINE
  5
2B7
100
AcDbEntity
  8
1
  6
DASHED
100
AcDbLine
 10
-1037.98958
 20
528.613388
 30
0.0
 11
-1040.481857
 21
530.037546
 31
0.0
  0
LINE
  5
2B8
100
AcDbEntity
  8
1
  6
DASHED
100
AcDbLine
 10
-655.48958
 20
528.613388
 30
0.0
 11
-652.997302
 21
530.037546
 31
0.0
  0
LINE
  5
2B9
100
AcDbEntity
  8
1
  6
DASHED
100
AcDbLine
 10
-1037.98958
 20
610.613388
 30
0.0
 11
-1040.481857
 21
609.189229
 31
0.0
  0
LINE
  5
2BA
100
AcDbEntity
  8
1
  6
DASHED
100
AcDbLine
 10
-655.48958
 20
610.613388
 30
0.0
 11
-652.997302
 21
609.189229
 31
0.0
  0
ARC
  5
2BB
100
AcDbEntity
  8
1
  6
DASHED
100
AcDbCircle
 10
-653.98958
 20
607.452743
 30
0.0
 40
2.0
100
AcDbArc
 50
49.05356
 51
60.255119
  0
ARC
  5
2BC
100
AcDbEntity
  8
1
100
AcDbCircle
 10
-1039.48958
 20
607.452743
 30
0.0
 40
2.0
100
AcDbArc
 50
119.744881
 51
130.94644
  0
ARC
  5
2BD
100
AcDbEntity
  8
1
  6
DASHED
100
AcDbCircle
 10
-1039.48958
 20
531.774033
 30
0.0
 40
2.0
100
AcDbArc
 50
229.05356
 51
240.255119
  0
LINE
  5
2BE
100
AcDbEntity
  8
1
  6
DASHED
100
AcDbLine
 10
-1037.98958
 20
528.613388
 30
0.0
 11
-916.73958
 21
528.613388
 31
0.0
  0
LINE
  5
2BF
100
AcDbEntity
  8
1
  6
DASHED
100
AcDbLine
 10
-776.73958
 20
528.613388
 30
0.0
 11
-655.48958
 21
528.613388
 31
0.0
  0
LINE
  5
2C0
100
AcDbEntity
  8
1
100
AcDbLine
 10
-985.872394
 20
569.613388
 30
0.0
 11
-985.649715
 21
576.613388
 31
0.0
  0
LINE
  5
2C1
100
AcDbEntity
  8
1
100
AcDbLine
 10
-985.649715
 20
576.613388
 30
0.0
 11
-984.652428
 21
607.963388
 31
0.0
  0
LINE
  5
2C2
100
AcDbEntity
  8
1
100
AcDbLine
 10
-997.295416
 20
569.613388
 30
0.0
 11
-997.128351
 21
576.613388
 31
0.0
  0
LINE
  5
2C3
100
AcDbEntity
  8
1
100
AcDbLine
 10
-997.128351
 20
576.613388
 30
0.0
 11
-996.380136
 21
607.963388
 31
0.0
  0
LINE
  5
2C4
100
AcDbEntity
  8
1
  6
DASHED
100
AcDbLine
 10
-1042.51005
 20
569.613388
 30
0.0
 11
-1042.233671
 21
576.613388
 31
0.0
  0
LINE
  5
2C5
100
AcDbEntity
  8
1
  6
DASHED
100
AcDbLine
 10
-1046.691166
 20
569.613388
 30
0.0
 11
-1046.435143
 21
576.613388
 31
0.0
  0
LINE
  5
2C6
100
AcDbEntity
  8
1
  6
DASHED
100
AcDbLine
 10
-1051.73958
 20
569.613388
 30
0.0
 11
-1051.465786
 21
576.613388
 31
0.0
  0
LINE
  5
2C7
100
AcDbEntity
  8
1
  6
DASHED
100
AcDbLine
 10
-1066.73958
 20
562.113388
 30
0.0
 11
-1066.73958
 21
576.613388
 31
0.0
  0
LINE
  5
2C8
100
AcDbEntity
  8
1
100
AcDbLine
 10
-1066.73958
 20
576.613388
 30
0.0
 11
-1066.73958
 21
577.113388
 31
0.0
  0
ARC
  5
2C9
100
AcDbEntity
  8
1
100
AcDbCircle
 10
-937.250943
 20
584.613388
 30
0.0
 40
5.0
100
AcDbArc
 50
180.0
 51
216.869898
  0
ARC
  5
2CA
100
AcDbEntity
  8
1
  6
DASHED
100
AcDbCircle
 10
-937.250943
 20
584.613388
 30
0.0
 40
5.0
100
AcDbArc
 50
216.869898
 51
270.0
  0
LINE
  5
2CB
100
AcDbEntity
  8
1
100
AcDbLine
 10
-996.380136
 20
607.963388
 30
0.0
 11
-1006.73958
 21
607.963388
 31
0.0
  0
LINE
  5
2CC
100
AcDbEntity
  8
1
  6
DASHED
100
AcDbLine
 10
-1006.73958
 20
607.963388
 30
0.0
 11
-1040.995888
 21
607.963388
 31
0.0
  0
LINE
  5
2CD
100
AcDbEntity
  8
1
  6
DASHED
100
AcDbLine
 10
-1037.98958
 20
610.613388
 30
0.0
 11
-1006.73958
 21
610.613388
 31
0.0
  0
LINE
  5
2CE
100
AcDbEntity
  8
1
100
AcDbLine
 10
-1006.73958
 20
610.613388
 30
0.0
 11
-916.73958
 21
610.613388
 31
0.0
  0
LINE
  5
2CF
100
AcDbEntity
  8
1
100
AcDbLine
 10
-1042.233671
 20
576.613388
 30
0.0
 11
-1041.444017
 21
596.613388
 31
0.0
  0
LINE
  5
2D0
100
AcDbEntity
  8
1
  6
DASHED
100
AcDbLine
 10
-1041.444017
 20
596.613388
 30
0.0
 11
-1040.995888
 21
607.963388
 31
0.0
  0
LINE
  5
2D1
100
AcDbEntity
  8
1
100
AcDbLine
 10
-1046.435143
 20
576.613388
 30
0.0
 11
-1045.70365
 21
596.613388
 31
0.0
  0
LINE
  5
2D2
100
AcDbEntity
  8
1
  6
DASHED
100
AcDbLine
 10
-1045.70365
 20
596.613388
 30
0.0
 11
-1045.288527
 21
607.963388
 31
0.0
  0
LINE
  5
2D3
100
AcDbEntity
  8
1
100
AcDbLine
 10
-1051.465786
 20
576.613388
 30
0.0
 11
-1050.683517
 21
596.613388
 31
0.0
  0
LINE
  5
2D4
100
AcDbEntity
  8
1
  6
DASHED
100
AcDbLine
 10
-1050.683517
 20
596.613388
 30
0.0
 11
-1050.23958
 21
607.963388
 31
0.0
  0
LINE
  5
2D5
100
AcDbEntity
  8
1
  6
DASHED
100
AcDbLine
 10
-1049.23958
 20
608.963388
 30
0.0
 11
-1006.73958
 21
608.963388
 31
0.0
  0
LINE
  5
2D6
100
AcDbEntity
  8
1
100
AcDbLine
 10
-1006.73958
 20
608.963388
 30
0.0
 11
-916.73958
 21
608.963388
 31
0.0
  0
ARC
  5
2D7
100
AcDbEntity
  8
1
  6
DASHED
100
AcDbCircle
 10
-756.228216
 20
584.613388
 30
0.0
 40
5.0
100
AcDbArc
 50
270.0
 51
323.130102
  0
ARC
  5
2D8
100
AcDbEntity
  8
1
100
AcDbCircle
 10
-756.228216
 20
584.613388
 30
0.0
 40
5.0
100
AcDbArc
 50
323.130102
 51
360.0
  0
LINE
  5
2D9
100
AcDbEntity
  8
1
100
AcDbLine
 10
-776.73958
 20
610.613388
 30
0.0
 11
-739.73958
 21
610.613388
 31
0.0
  0
LINE
  5
2DA
100
AcDbEntity
  8
1
  6
DASHED
100
AcDbLine
 10
-739.73958
 20
610.613388
 30
0.0
 11
-655.48958
 21
610.613388
 31
0.0
  0
LINE
  5
2DB
100
AcDbEntity
  8
1
100
AcDbLine
 10
-776.73958
 20
608.963388
 30
0.0
 11
-739.73958
 21
608.963388
 31
0.0
  0
LINE
  5
2DC
100
AcDbEntity
  8
1
  6
DASHED
100
AcDbLine
 10
-739.73958
 20
608.963388
 30
0.0
 11
-644.23958
 21
608.963388
 31
0.0
  0
LINE
  5
2DD
100
AcDbEntity
  8
1
100
AcDbLine
 10
-776.73958
 20
607.963388
 30
0.0
 11
-739.73958
 21
607.963388
 31
0.0
  0
LINE
  5
2DE
100
AcDbEntity
  8
1
  6
DASHED
100
AcDbLine
 10
-739.73958
 20
607.963388
 30
0.0
 11
-708.826731
 21
607.963388
 31
0.0
  0
POINT
  5
2DF
100
AcDbEntity
  8
1
100
AcDbPoint
 10
-846.73958
 20
569.613388
 30
0.0
  0
LINE
  5
2E0
100
AcDbEntity
  8
2
100
AcDbLine
 10
-949.73958
 20
581.613388
 30
0.0
 11
-949.73958
 21
437.613388
 31
0.0
  0
LINE
  5
2E1
100
AcDbEntity
  8
2
100
AcDbLine
 10
-743.73958
 20
581.613388
 30
0.0
 11
-743.73958
 21
437.613388
 31
0.0
  0
LINE
  5
2E2
100
AcDbEntity
  8
2
100
AcDbLine
 10
-771.73958
 20
578.613388
 30
0.0
 11
-771.73958
 21
440.613388
 31
0.0
  0
LINE
  5
2E3
100
AcDbEntity
  8
2
100
AcDbLine
 10
-921.73958
 20
578.613388
 30
0.0
 11
-921.73958
 21
440.613388
 31
0.0
  0
LINE
  5
2E4
100
AcDbEntity
  8
2
100
AcDbLine
 10
-865.334783
 20
609.49093
 30
0.0
 11
-921.099894
 21
583.487232
 31
0.0
  0
LINE
  5
2E5
100
AcDbEntity
  8
2
100
AcDbLine
 10
-743.73958
 20
581.613388
 30
0.0
 11
-768.73958
 21
581.613388
 31
0.0
  0
LINE
  5
2E6
100
AcDbEntity
  8
2
100
AcDbLine
 10
-924.73958
 20
581.613388
 30
0.0
 11
-949.73958
 21
581.613388
 31
0.0
  0
ARC
  5
2E7
100
AcDbEntity
  8
2
100
AcDbCircle
 10
-929.552259
 20
601.613388
 30
0.0
 40
20.0
100
AcDbArc
 50
270.0
 51
295.0
  0
ARC
  5
2E8
100
AcDbEntity
  8
2
100
AcDbCircle
 10
-763.9269
 20
601.613388
 30
0.0
 40
20.0
100
AcDbArc
 50
245.0
 51
270.0
  0
ARC
  5
2E9
100
AcDbEntity
  8
2
100
AcDbCircle
 10
-924.73958
 20
578.613388
 30
0.0
 40
3.0
100
AcDbArc
 50
0.0
 51
90.0
  0
ARC
  5
2EA
100
AcDbEntity
  8
2
100
AcDbCircle
 10
-768.73958
 20
578.613388
 30
0.0
 40
3.0
100
AcDbArc
 50
90.0
 51
180.0
  0
ARC
  5
2EB
100
AcDbEntity
  8
2
100
AcDbCircle
 10
-846.73958
 20
569.613388
 30
0.0
 40
44.0
100
AcDbArc
 50
65.0
 51
115.0
  0
LINE
  5
2EC
100
AcDbEntity
  8
2
100
AcDbLine
 10
-821.73958
 20
622.613388
 30
0.0
 11
-871.73958
 21
622.613388
 31
0.0
  0
LINE
  5
2ED
100
AcDbEntity
  8
2
100
AcDbLine
 10
-821.73958
 20
612.875027
 30
0.0
 11
-821.73958
 21
626.813388
 31
0.0
  0
LINE
  5
2EE
100
AcDbEntity
  8
2
100
AcDbLine
 10
-871.73958
 20
612.875027
 30
0.0
 11
-871.73958
 21
626.813388
 31
0.0
  0
ARC
  5
2EF
100
AcDbEntity
  8
2
100
AcDbCircle
 10
-881.73958
 20
612.875027
 30
0.0
 40
10.0
100
AcDbArc
 50
295.0
 51
360.0
  0
ARC
  5
2F0
100
AcDbEntity
  8
2
100
AcDbCircle
 10
-811.73958
 20
612.875027
 30
0.0
 40
10.0
100
AcDbArc
 50
180.0
 51
245.0
  0
CIRCLE
  5
2F1
100
AcDbEntity
  8
2
 62
     2
100
AcDbCircle
 10
-932.73958
 20
537.613388
 30
0.0
 40
3.0
  0
CIRCLE
  5
2F2
100
AcDbEntity
  8
2
100
AcDbCircle
 10
-932.73958
 20
537.613388
 30
0.0
 40
2.459
  0
CIRCLE
  5
2F3
100
AcDbEntity
  8
2
100
AcDbCircle
 10
-932.73958
 20
537.613388
 30
0.0
 40
7.0
  0
CIRCLE
  5
2F4
100
AcDbEntity
  8
2
 62
     2
100
AcDbCircle
 10
-932.73958
 20
501.613388
 30
0.0
 40
3.0
  0
CIRCLE
  5
2F5
100
AcDbEntity
  8
2
100
AcDbCircle
 10
-932.73958
 20
501.613388
 30
0.0
 40
2.459
  0
CIRCLE
  5
2F6
100
AcDbEntity
  8
2
100
AcDbCircle
 10
-932.73958
 20
501.613388
 30
0.0
 40
7.0
  0
CIRCLE
  5
2F7
100
AcDbEntity
  8
2
 62
     2
100
AcDbCircle
 10
-760.73958
 20
537.613388
 30
0.0
 40
3.0
  0
CIRCLE
  5
2F8
100
AcDbEntity
  8
2
100
AcDbCircle
 10
-760.73958
 20
537.613388
 30
0.0
 40
2.459
  0
CIRCLE
  5
2F9
100
AcDbEntity
  8
2
100
AcDbCircle
 10
-760.73958
 20
537.613388
 30
0.0
 40
7.0
  0
CIRCLE
  5
2FA
100
AcDbEntity
  8
2
 62
     2
100
AcDbCircle
 10
-760.73958
 20
501.613388
 30
0.0
 40
3.0
  0
CIRCLE
  5
2FB
100
AcDbEntity
  8
2
100
AcDbCircle
 10
-760.73958
 20
501.613388
 30
0.0
 40
2.459
  0
CIRCLE
  5
2FC
100
AcDbEntity
  8
2
100
AcDbCircle
 10
-760.73958
 20
501.613388
 30
0.0
 40
7.0
  0
LINE
  5
2FD
100
AcDbEntity
  8
2
100
AcDbLine
 10
-804.73958
 20
639.613388
 30
0.0
 11
-888.73958
 21
639.613388
 31
0.0
  0
LINE
  5
2FE
100
AcDbEntity
  8
2
100
AcDbLine
 10
-776.73958
 20
585.52048
 30
0.0
 11
-776.73958
 21
611.613388
 31
0.0
  0
LINE
  5
2FF
100
AcDbEntity
  8
2
100
AcDbLine
 10
-916.73958
 20
585.52048
 30
0.0
 11
-916.73958
 21
611.613388
 31
0.0
  0
ARC
  5
300
100
AcDbEntity
  8
2
100
AcDbCircle
 10
-888.73958
 20
611.613388
 30
0.0
 40
28.0
100
AcDbArc
 50
90.0
 51
180.0
  0
ARC
  5
301
100
AcDbEntity
  8
2
100
AcDbCircle
 10
-804.73958
 20
611.613388
 30
0.0
 40
28.0
100
AcDbArc
 50
0.0
 51
90.0
  0
TEXT
  5
302
100
AcDbEntity
  8
2
100
AcDbText
 10
-909.23958
 20
486.613388
 30
0.0
 40
11.4
  1
ＴＯＭＯＥ　ＶＡＬＶＥ
 72
     5
 11
-786.11958
 21
486.613388
 31
0.0
100
AcDbText
  0
LINE
  5
303
100
AcDbEntity
  8
2
100
AcDbLine
 10
-743.73958
 20
437.613388
 30
0.0
 11
-768.73958
 21
437.613388
 31
0.0
  0
LINE
  5
304
100
AcDbEntity
  8
2
100
AcDbLine
 10
-924.73958
 20
437.613388
 30
0.0
 11
-949.73958
 21
437.613388
 31
0.0
  0
ARC
  5
305
100
AcDbEntity
  8
2
100
AcDbCircle
 10
-924.73958
 20
440.613388
 30
0.0
 40
3.0
100
AcDbArc
 50
270.0
 51
360.0
  0
ARC
  5
306
100
AcDbEntity
  8
2
100
AcDbCircle
 10
-768.73958
 20
440.613388
 30
0.0
 40
3.0
100
AcDbArc
 50
180.0
 51
270.0
  0
LINE
  5
307
100
AcDbEntity
  8
2
100
AcDbLine
 10
-786.71178
 20
454.613388
 30
0.0
 11
-906.767379
 21
454.613388
 31
0.0
  0
ARC
  5
308
100
AcDbEntity
  8
2
100
AcDbCircle
 10
-786.71178
 20
439.613388
 30
0.0
 40
15.0
100
AcDbArc
 50
3.184739
 51
90.0
  0
ARC
  5
309
100
AcDbEntity
  8
2
100
AcDbCircle
 10
-906.767379
 20
439.613388
 30
0.0
 40
15.0
100
AcDbArc
 50
90.0
 51
176.815261
  0
LINE
  5
30A
100
AcDbEntity
  8
2
100
AcDbLine
 10
-810.880934
 20
542.59196
 30
0.0
 11
-798.081765
 21
532.947094
 31
0.0
  0
LINE
  5
30B
100
AcDbEntity
  8
2
100
AcDbLine
 10
-882.598225
 20
542.59196
 30
0.0
 11
-895.397394
 21
532.947094
 31
0.0
  0
ARC
  5
30C
100
AcDbEntity
  8
2
100
AcDbCircle
 10
-846.73958
 20
569.613388
 30
0.0
 40
42.0
100
AcDbArc
 50
234.677135
 51
319.177446
  0
ARC
  5
30D
100
AcDbEntity
  8
2
100
AcDbCircle
 10
-846.73958
 20
569.613388
 30
0.0
 40
64.0
100
AcDbArc
 50
219.818962
 51
320.181038
  0
ARC
  5
30E
100
AcDbEntity
  8
2
100
AcDbCircle
 10
-893.591949
 20
530.551188
 30
0.0
 40
3.0
100
AcDbArc
 50
127.0
 51
219.818962
  0
ARC
  5
30F
100
AcDbEntity
  8
2
100
AcDbCircle
 10
-880.79278
 20
540.196054
 30
0.0
 40
3.0
100
AcDbArc
 50
105.507994
 51
127.0
  0
ARC
  5
310
100
AcDbEntity
  8
2
100
AcDbCircle
 10
-812.686379
 20
540.196054
 30
0.0
 40
3.0
100
AcDbArc
 50
53.0
 51
139.177446
  0
ARC
  5
311
100
AcDbEntity
  8
2
100
AcDbCircle
 10
-799.88721
 20
530.551188
 30
0.0
 40
3.0
100
AcDbArc
 50
320.181038
 51
53.0
  0
LINE
  5
312
100
AcDbEntity
  8
2
100
AcDbLine
 10
-848.23958
 20
521.113388
 30
0.0
 11
-848.23958
 21
510.113388
 31
0.0
  0
LINE
  5
313
100
AcDbEntity
  8
2
100
AcDbLine
 10
-845.23958
 20
521.113388
 30
0.0
 11
-845.23958
 21
510.113388
 31
0.0
  0
ARC
  5
314
100
AcDbEntity
  8
2
100
AcDbCircle
 10
-846.73958
 20
510.113388
 30
0.0
 40
1.5
100
AcDbArc
 50
180.0
 51
360.0
  0
ARC
  5
315
100
AcDbEntity
  8
2
100
AcDbCircle
 10
-846.73958
 20
521.113388
 30
0.0
 40
1.5
100
AcDbArc
 50
0.0
 51
180.0
  0
LINE
  5
316
100
AcDbEntity
  8
2
100
AcDbLine
 10
-835.635745
 20
522.377756
 30
0.0
 11
-832.788735
 21
511.752572
 31
0.0
  0
LINE
  5
317
100
AcDbEntity
  8
2
100
AcDbLine
 10
-832.737967
 20
523.154214
 30
0.0
 11
-829.890958
 21
512.529029
 31
0.0
  0
ARC
  5
318
100
AcDbEntity
  8
2
100
AcDbCircle
 10
-831.339846
 20
512.140801
 30
0.0
 40
1.5
100
AcDbArc
 50
195.0
 51
15.0
  0
ARC
  5
319
100
AcDbEntity
  8
2
100
AcDbCircle
 10
-834.186856
 20
522.765985
 30
0.0
 40
1.5
100
AcDbArc
 50
15.0
 51
195.0
  0
LINE
  5
31A
100
AcDbEntity
  8
2
100
AcDbLine
 10
-823.788618
 20
526.861156
 30
0.0
 11
-818.288618
 21
517.334876
 31
0.0
  0
LINE
  5
31B
100
AcDbEntity
  8
2
100
AcDbLine
 10
-821.190542
 20
528.361156
 30
0.0
 11
-815.690542
 21
518.834876
 31
0.0
  0
ARC
  5
31C
100
AcDbEntity
  8
2
100
AcDbCircle
 10
-816.98958
 20
518.084876
 30
0.0
 40
1.5
100
AcDbArc
 50
210.0
 51
30.0
  0
ARC
  5
31D
100
AcDbEntity
  8
2
100
AcDbCircle
 10
-822.48958
 20
527.611156
 30
0.0
 40
1.5
100
AcDbArc
 50
30.0
 51
210.0
  0
LINE
  5
31E
100
AcDbEntity
  8
2
100
AcDbLine
 10
-860.741192
 20
523.154214
 30
0.0
 11
-863.588202
 21
512.529029
 31
0.0
  0
LINE
  5
31F
100
AcDbEntity
  8
2
100
AcDbLine
 10
-857.843415
 20
522.377756
 30
0.0
 11
-860.690424
 21
511.752572
 31
0.0
  0
ARC
  5
320
100
AcDbEntity
  8
2
100
AcDbCircle
 10
-862.139313
 20
512.140801
 30
0.0
 40
1.5
100
AcDbArc
 50
165.0
 51
345.0
  0
ARC
  5
321
100
AcDbEntity
  8
2
100
AcDbCircle
 10
-859.292303
 20
522.765985
 30
0.0
 40
1.5
100
AcDbArc
 50
345.0
 51
165.0
  0
LINE
  5
322
100
AcDbEntity
  8
2
100
AcDbLine
 10
-872.288618
 20
528.361156
 30
0.0
 11
-877.788618
 21
518.834876
 31
0.0
  0
LINE
  5
323
100
AcDbEntity
  8
2
100
AcDbLine
 10
-869.690542
 20
526.861156
 30
0.0
 11
-875.190542
 21
517.334876
 31
0.0
  0
ARC
  5
324
100
AcDbEntity
  8
2
100
AcDbCircle
 10
-876.48958
 20
518.084876
 30
0.0
 40
1.5
100
AcDbArc
 50
150.0
 51
330.0
  0
ARC
  5
325
100
AcDbEntity
  8
2
100
AcDbCircle
 10
-870.98958
 20
527.611156
 30
0.0
 40
1.5
100
AcDbArc
 50
330.0
 51
150.0
  0
LINE
  5
326
100
AcDbEntity
  8
2
100
AcDbLine
 10
-879.759457
 20
533.057977
 30
0.0
 11
-886.337559
 21
526.479874
 31
0.0
  0
LINE
  5
327
100
AcDbEntity
  8
2
100
AcDbLine
 10
-883.294991
 20
536.593511
 30
0.0
 11
-889.873093
 21
530.015408
 31
0.0
  0
ARC
  5
328
100
AcDbEntity
  8
2
100
AcDbCircle
 10
-888.105326
 20
528.247641
 30
0.0
 40
2.5
100
AcDbArc
 50
135.0
 51
315.0
  0
LINE
  5
329
100
AcDbEntity
  8
2
100
AcDbLine
 10
-814.919774
 20
534.258049
 30
0.0
 11
-807.1416
 21
526.479874
 31
0.0
  0
LINE
  5
32A
100
AcDbEntity
  8
2
100
AcDbLine
 10
-811.384241
 20
537.793582
 30
0.0
 11
-803.606066
 21
530.015408
 31
0.0
  0
ARC
  5
32B
100
AcDbEntity
  8
2
100
AcDbCircle
 10
-805.373833
 20
528.247641
 30
0.0
 40
2.5
100
AcDbArc
 50
225.0
 51
45.0
  0
ARC
  5
32C
100
AcDbEntity
  8
2
100
AcDbCircle
 10
-813.152008
 20
536.025815
 30
0.0
 40
2.5
100
AcDbArc
 50
45.0
 51
225.0
  0
TEXT
  5
32D
100
AcDbEntity
  8
2
100
AcDbText
 10
-890.226647
 20
516.933932
 30
0.0
 40
13.0
  1
Ｓ
 50
135.0
 72
     5
 11
-897.580557
 21
524.287843
 31
0.0
100
AcDbText
  0
TEXT
  5
32E
100
AcDbEntity
  8
2
100
AcDbText
 10
-794.060124
 20
526.126321
 30
0.0
 40
13.0
  1
Ｏ
 50
225.0
 72
     5
 11
-801.414035
 21
518.77241
 31
0.0
100
AcDbText
  0
LINE
  5
32F
100
AcDbEntity
  8
2
100
AcDbLine
 10
-949.73958
 20
579.113388
 30
0.0
 11
-979.73958
 21
579.113388
 31
0.0
  0
LINE
  5
330
100
AcDbEntity
  8
2
100
AcDbLine
 10
-950.23958
 20
437.613388
 30
0.0
 11
-977.23958
 21
437.613388
 31
0.0
  0
LINE
  5
331
100
AcDbEntity
  8
2
100
AcDbLine
 10
-950.23958
 20
440.336388
 30
0.0
 11
-950.23958
 21
437.613388
 31
0.0
  0
LINE
  5
332
100
AcDbEntity
  8
2
100
AcDbLine
 10
-977.23958
 20
439.836388
 30
0.0
 11
-977.23958
 21
437.613388
 31
0.0
  0
ARC
  5
333
100
AcDbEntity
  8
2
100
AcDbCircle
 10
-963.73958
 20
415.48985
 30
0.0
 40
28.717538
100
AcDbArc
 50
61.959471
 51
118.040529
  0
ARC
  5
334
100
AcDbEntity
  8
2
100
AcDbCircle
 10
-978.23958
 20
439.836388
 30
0.0
 40
1.0
100
AcDbArc
 50
0.0
 51
90.0
  0
LINE
  5
335
100
AcDbEntity
  8
2
100
AcDbLine
 10
-949.73958
 20
440.113388
 30
0.0
 11
-950.23958
 21
440.113388
 31
0.0
  0
LINE
  5
336
100
AcDbEntity
  8
2
100
AcDbLine
 10
-977.27871
 20
440.113388
 30
0.0
 11
-979.73958
 21
440.113388
 31
0.0
  0
ARC
  5
337
100
AcDbEntity
  8
2
100
AcDbCircle
 10
-949.73958
 20
440.336388
 30
0.0
 40
0.5
100
AcDbArc
 50
90.0
 51
180.0
  0
LINE
  5
338
100
AcDbEntity
  8
2
100
AcDbLine
 10
-979.73958
 20
442.613388
 30
0.0
 11
-1154.73958
 21
442.613388
 31
0.0
  0
LINE
  5
339
100
AcDbEntity
  8
2
100
AcDbLine
 10
-979.73958
 20
576.613388
 30
0.0
 11
-1154.73958
 21
576.613388
 31
0.0
  0
LINE
  5
33A
100
AcDbEntity
  8
2
100
AcDbLine
 10
-1155.23958
 20
437.613388
 30
0.0
 11
-1155.23958
 21
581.613388
 31
0.0
  0
LINE
  5
33B
100
AcDbEntity
  8
2
100
AcDbLine
 10
-1154.73958
 20
440.113388
 30
0.0
 11
-1155.23958
 21
440.113388
 31
0.0
  0
LINE
  5
33C
100
AcDbEntity
  8
2
100
AcDbLine
 10
-1154.73958
 20
579.113388
 30
0.0
 11
-1155.23958
 21
579.113388
 31
0.0
  0
LINE
  5
33D
100
AcDbEntity
  8
2
100
AcDbLine
 10
-1155.23958
 20
437.613388
 30
0.0
 11
-1189.73958
 21
437.613388
 31
0.0
  0
LINE
  5
33E
100
AcDbEntity
  8
2
100
AcDbLine
 10
-1155.23958
 20
581.613388
 30
0.0
 11
-1189.73958
 21
581.613388
 31
0.0
  0
LINE
  5
33F
100
AcDbEntity
  8
2
100
AcDbLine
 10
-1170.73958
 20
439.613388
 30
0.0
 11
-1170.73958
 21
579.613388
 31
0.0
  0
ARC
  5
340
100
AcDbEntity
  8
2
100
AcDbCircle
 10
-1168.73958
 20
439.613388
 30
0.0
 40
2.0
100
AcDbArc
 50
180.0
 51
270.0
  0
ARC
  5
341
100
AcDbEntity
  8
2
100
AcDbCircle
 10
-1168.73958
 20
579.613388
 30
0.0
 40
2.0
100
AcDbArc
 50
90.0
 51
180.0
  0
LINE
  5
342
100
AcDbEntity
  8
2
100
AcDbLine
 10
-1174.73958
 20
489.613388
 30
0.0
 11
-1174.73958
 21
529.613388
 31
0.0
  0
LINE
  5
343
100
AcDbEntity
  8
2
100
AcDbLine
 10
-1173.73958
 20
489.613388
 30
0.0
 11
-1174.73958
 21
489.613388
 31
0.0
  0
LINE
  5
344
100
AcDbEntity
  8
2
100
AcDbLine
 10
-1173.73958
 20
529.613388
 30
0.0
 11
-1174.73958
 21
529.613388
 31
0.0
  0
ARC
  5
345
100
AcDbEntity
  8
2
100
AcDbCircle
 10
-1173.73958
 20
486.613388
 30
0.0
 40
3.0
100
AcDbArc
 50
0.0
 51
90.0
  0
ARC
  5
346
100
AcDbEntity
  8
2
100
AcDbCircle
 10
-1173.73958
 20
532.613388
 30
0.0
 40
3.0
100
AcDbArc
 50
270.0
 51
360.0
  0
LINE
  5
347
100
AcDbEntity
  8
2
100
AcDbLine
 10
-1189.73958
 20
573.613388
 30
0.0
 11
-1189.73958
 21
581.613388
 31
0.0
  0
LINE
  5
348
100
AcDbEntity
  8
2
100
AcDbLine
 10
-1188.275114
 20
559.148921
 30
0.0
 11
-1172.204046
 21
543.077854
 31
0.0
  0
ARC
  5
349
100
AcDbEntity
  8
2
100
AcDbCircle
 10
-1184.73958
 20
562.684455
 30
0.0
 40
5.0
100
AcDbArc
 50
217.894799
 51
225.0
  0
ARC
  5
34A
100
AcDbEntity
  8
2
100
AcDbCircle
 10
-1175.73958
 20
539.54232
 30
0.0
 40
5.0
100
AcDbArc
 50
360.0
 51
45.0
  0
LINE
  5
34B
100
AcDbEntity
  8
2
100
AcDbLine
 10
-1189.73958
 20
445.613388
 30
0.0
 11
-1189.73958
 21
437.613388
 31
0.0
  0
LINE
  5
34C
100
AcDbEntity
  8
2
100
AcDbLine
 10
-1188.275114
 20
460.077854
 30
0.0
 11
-1172.204046
 21
476.148921
 31
0.0
  0
ARC
  5
34D
100
AcDbEntity
  8
2
100
AcDbCircle
 10
-1184.73958
 20
456.54232
 30
0.0
 40
5.0
100
AcDbArc
 50
135.0
 51
142.105201
  0
ARC
  5
34E
100
AcDbEntity
  8
2
100
AcDbCircle
 10
-1175.73958
 20
479.684455
 30
0.0
 40
5.0
100
AcDbArc
 50
315.0
 51
0.0
  0
LINE
  5
34F
100
AcDbEntity
  8
2
100
AcDbLine
 10
-1197.73958
 20
446.425388
 30
0.0
 11
-1197.73958
 21
458.801388
 31
0.0
  0
LINE
  5
350
100
AcDbEntity
  8
2
100
AcDbLine
 10
-949.73958
 20
445.613388
 30
0.0
 11
-1155.23958
 21
445.613388
 31
0.0
  0
LINE
  5
351
100
AcDbEntity
  8
2
100
AcDbLine
 10
-1181.73958
 20
445.613388
 30
0.0
 11
-1196.92758
 21
445.613388
 31
0.0
  0
LINE
  5
352
100
AcDbEntity
  8
2
100
AcDbLine
 10
-949.73958
 20
459.613388
 30
0.0
 11
-1155.23958
 21
459.613388
 31
0.0
  0
LINE
  5
353
100
AcDbEntity
  8
2
100
AcDbLine
 10
-1181.73958
 20
459.613388
 30
0.0
 11
-1196.92758
 21
459.613388
 31
0.0
  0
LINE
  5
354
100
AcDbEntity
  8
2
 62
     2
100
AcDbLine
 10
-1181.73958
 20
446.425388
 30
0.0
 11
-1197.73958
 21
446.425388
 31
0.0
  0
LINE
  5
355
100
AcDbEntity
  8
2
 62
     2
100
AcDbLine
 10
-1181.73958
 20
458.801388
 30
0.0
 11
-1197.73958
 21
458.801388
 31
0.0
  0
LINE
  5
356
100
AcDbEntity
  8
2
100
AcDbLine
 10
-1197.73958
 20
446.425388
 30
0.0
 11
-1196.92758
 21
445.613388
 31
0.0
  0
LINE
  5
357
100
AcDbEntity
  8
2
100
AcDbLine
 10
-1196.92758
 20
445.613388
 30
0.0
 11
-1196.92758
 21
459.613388
 31
0.0
  0
LINE
  5
358
100
AcDbEntity
  8
2
100
AcDbLine
 10
-1196.92758
 20
459.613388
 30
0.0
 11
-1197.73958
 21
458.801388
 31
0.0
  0
LINE
  5
359
100
AcDbEntity
  8
2
100
AcDbLine
 10
-1197.73958
 20
572.801388
 30
0.0
 11
-1197.73958
 21
560.425388
 31
0.0
  0
LINE
  5
35A
100
AcDbEntity
  8
2
100
AcDbLine
 10
-949.73958
 20
573.613388
 30
0.0
 11
-1155.23958
 21
573.613388
 31
0.0
  0
LINE
  5
35B
100
AcDbEntity
  8
2
100
AcDbLine
 10
-1181.73958
 20
573.613388
 30
0.0
 11
-1196.92758
 21
573.613388
 31
0.0
  0
LINE
  5
35C
100
AcDbEntity
  8
2
100
AcDbLine
 10
-949.73958
 20
559.613388
 30
0.0
 11
-1155.23958
 21
559.613388
 31
0.0
  0
LINE
  5
35D
100
AcDbEntity
  8
2
100
AcDbLine
 10
-1181.73958
 20
559.613388
 30
0.0
 11
-1196.92758
 21
559.613388
 31
0.0
  0
LINE
  5
35E
100
AcDbEntity
  8
2
 62
     2
100
AcDbLine
 10
-1181.73958
 20
572.801388
 30
0.0
 11
-1197.73958
 21
572.801388
 31
0.0
  0
LINE
  5
35F
100
AcDbEntity
  8
2
 62
     2
100
AcDbLine
 10
-1181.73958
 20
560.425388
 30
0.0
 11
-1197.73958
 21
560.425388
 31
0.0
  0
LINE
  5
360
100
AcDbEntity
  8
2
100
AcDbLine
 10
-1197.73958
 20
572.801388
 30
0.0
 11
-1196.92758
 21
573.613388
 31
0.0
  0
LINE
  5
361
100
AcDbEntity
  8
2
100
AcDbLine
 10
-1196.92758
 20
573.613388
 30
0.0
 11
-1196.92758
 21
559.613388
 31
0.0
  0
LINE
  5
362
100
AcDbEntity
  8
2
100
AcDbLine
 10
-1196.92758
 20
559.613388
 30
0.0
 11
-1197.73958
 21
560.425388
 31
0.0
  0
LINE
  5
363
100
AcDbEntity
  8
2
100
AcDbLine
 10
-1154.73958
 20
445.613388
 30
0.0
 11
-1154.73958
 21
440.113388
 31
0.0
  0
LINE
  5
364
100
AcDbEntity
  8
2
100
AcDbLine
 10
-979.73958
 20
445.613388
 30
0.0
 11
-979.73958
 21
440.113388
 31
0.0
  0
LINE
  5
365
100
AcDbEntity
  8
2
100
AcDbLine
 10
-979.73958
 20
579.113388
 30
0.0
 11
-979.73958
 21
573.613388
 31
0.0
  0
LINE
  5
366
100
AcDbEntity
  8
2
100
AcDbLine
 10
-979.73958
 20
559.613388
 30
0.0
 11
-979.73958
 21
459.613388
 31
0.0
  0
LINE
  5
367
100
AcDbEntity
  8
2
100
AcDbLine
 10
-1154.73958
 20
579.113388
 30
0.0
 11
-1154.73958
 21
573.613388
 31
0.0
  0
LINE
  5
368
100
AcDbEntity
  8
2
100
AcDbLine
 10
-1154.73958
 20
559.613388
 30
0.0
 11
-1154.73958
 21
459.613388
 31
0.0
  0
LINE
  5
369
100
AcDbEntity
  8
2
100
AcDbLine
 10
-1206.73958
 20
500.966388
 30
0.0
 11
-1206.73958
 21
518.260388
 31
0.0
  0
LINE
  5
36A
100
AcDbEntity
  8
2
100
AcDbLine
 10
-1206.73958
 20
500.966388
 30
0.0
 11
-1205.38658
 21
499.613388
 31
0.0
  0
LINE
  5
36B
100
AcDbEntity
  8
2
100
AcDbLine
 10
-1205.38658
 20
499.613388
 30
0.0
 11
-1193.73958
 21
499.613388
 31
0.0
  0
LINE
  5
36C
100
AcDbEntity
  8
2
100
AcDbLine
 10
-1205.38658
 20
499.613388
 30
0.0
 11
-1205.38658
 21
519.613388
 31
0.0
  0
LINE
  5
36D
100
AcDbEntity
  8
2
 62
     2
100
AcDbLine
 10
-1206.73958
 20
500.966388
 30
0.0
 11
-1193.73958
 21
500.966388
 31
0.0
  0
LINE
  5
36E
100
AcDbEntity
  8
2
100
AcDbLine
 10
-1206.73958
 20
518.260388
 30
0.0
 11
-1205.38658
 21
519.613388
 31
0.0
  0
LINE
  5
36F
100
AcDbEntity
  8
2
100
AcDbLine
 10
-1205.38658
 20
519.613388
 30
0.0
 11
-1193.73958
 21
519.613388
 31
0.0
  0
LINE
  5
370
100
AcDbEntity
  8
2
 62
     2
100
AcDbLine
 10
-1206.73958
 20
518.260388
 30
0.0
 11
-1193.73958
 21
518.260388
 31
0.0
  0
LINE
  5
371
100
AcDbEntity
  8
2
100
AcDbLine
 10
-821.73958
 20
623.613388
 30
0.0
 11
-871.73958
 21
623.613388
 31
0.0
  0
LINE
  5
372
100
AcDbEntity
  8
2
100
AcDbLine
 10
-821.73958
 20
626.813388
 30
0.0
 11
-871.73958
 21
626.813388
 31
0.0
  0
LINE
  5
373
100
AcDbEntity
  8
2
100
AcDbLine
 10
-847.128559
 20
551.617591
 30
0.0
 11
-864.735376
 21
569.224408
 31
0.0
  0
LINE
  5
374
100
AcDbEntity
  8
2
100
AcDbLine
 10
-828.743783
 20
569.224408
 30
0.0
 11
-846.3506
 21
551.617591
 31
0.0
  0
LINE
  5
375
100
AcDbEntity
  8
2
100
AcDbLine
 10
-828.743783
 20
570.002367
 30
0.0
 11
-846.3506
 21
587.609184
 31
0.0
  0
LINE
  5
376
100
AcDbEntity
  8
2
100
AcDbLine
 10
-847.128559
 20
587.609184
 30
0.0
 11
-864.735376
 21
570.002367
 31
0.0
  0
LINE
  5
377
100
AcDbEntity
  8
2
100
AcDbLine
 10
-846.73958
 20
586.58395
 30
0.0
 11
-863.710142
 21
569.613388
 31
0.0
  0
LINE
  5
378
100
AcDbEntity
  8
2
100
AcDbLine
 10
-829.769017
 20
569.613388
 30
0.0
 11
-846.73958
 21
586.58395
 31
0.0
  0
LINE
  5
379
100
AcDbEntity
  8
2
100
AcDbLine
 10
-829.769017
 20
569.613388
 30
0.0
 11
-846.73958
 21
552.642825
 31
0.0
  0
LINE
  5
37A
100
AcDbEntity
  8
2
100
AcDbLine
 10
-846.73958
 20
552.642825
 30
0.0
 11
-863.710142
 21
569.613388
 31
0.0
  0
ARC
  5
37B
100
AcDbEntity
  8
2
100
AcDbCircle
 10
-846.73958
 20
569.613388
 30
0.0
 40
18.0
100
AcDbArc
 50
268.761743
 51
271.238257
  0
ARC
  5
37C
100
AcDbEntity
  8
2
100
AcDbCircle
 10
-846.73958
 20
569.613388
 30
0.0
 40
18.0
100
AcDbArc
 50
358.761743
 51
1.238257
  0
ARC
  5
37D
100
AcDbEntity
  8
2
100
AcDbCircle
 10
-846.73958
 20
569.613388
 30
0.0
 40
18.0
100
AcDbArc
 50
88.761743
 51
91.238257
  0
ARC
  5
37E
100
AcDbEntity
  8
2
100
AcDbCircle
 10
-846.73958
 20
569.613388
 30
0.0
 40
18.0
100
AcDbArc
 50
178.761743
 51
181.238257
  0
LINE
  5
37F
100
AcDbEntity
  8
2
100
AcDbLine
 10
-847.128559
 20
551.617591
 30
0.0
 11
-846.73958
 21
552.642825
 31
0.0
  0
LINE
  5
380
100
AcDbEntity
  8
2
100
AcDbLine
 10
-846.73958
 20
552.642825
 30
0.0
 11
-846.3506
 21
551.617591
 31
0.0
  0
LINE
  5
381
100
AcDbEntity
  8
2
100
AcDbLine
 10
-828.743783
 20
569.224408
 30
0.0
 11
-829.769017
 21
569.613388
 31
0.0
  0
LINE
  5
382
100
AcDbEntity
  8
2
100
AcDbLine
 10
-829.769017
 20
569.613388
 30
0.0
 11
-828.743783
 21
570.002367
 31
0.0
  0
LINE
  5
383
100
AcDbEntity
  8
2
100
AcDbLine
 10
-846.73958
 20
586.58395
 30
0.0
 11
-846.3506
 21
587.609184
 31
0.0
  0
LINE
  5
384
100
AcDbEntity
  8
2
100
AcDbLine
 10
-847.128559
 20
587.609184
 30
0.0
 11
-846.73958
 21
586.58395
 31
0.0
  0
LINE
  5
385
100
AcDbEntity
  8
2
100
AcDbLine
 10
-864.735376
 20
570.002367
 30
0.0
 11
-863.710142
 21
569.613388
 31
0.0
  0
LINE
  5
386
100
AcDbEntity
  8
2
100
AcDbLine
 10
-863.710142
 20
569.613388
 30
0.0
 11
-864.735376
 21
569.224408
 31
0.0
  0
CIRCLE
  5
387
100
AcDbEntity
  8
2
100
AcDbCircle
 10
-846.73958
 20
569.613388
 30
0.0
 40
5.5
  0
CIRCLE
  5
388
100
AcDbEntity
  8
2
 62
     2
100
AcDbCircle
 10
-846.73958
 20
569.613388
 30
0.0
 40
4.0
  0
CIRCLE
  5
389
100
AcDbEntity
  8
2
100
AcDbCircle
 10
-846.73958
 20
569.613388
 30
0.0
 40
3.3235
  0
CIRCLE
  5
38A
100
AcDbEntity
  8
2
100
AcDbCircle
 10
-846.73958
 20
577.613388
 30
0.0
 40
1.0
  0
LINE
  5
38B
100
AcDbEntity
  8
2
  6
CENTER
 62
     2
100
AcDbLine
 10
-842.73958
 20
577.613388
 30
0.0
 11
-850.73958
 21
577.613388
 31
0.0
  0
ARC
  5
38C
100
AcDbEntity
  8
2
100
AcDbCircle
 10
-846.73958
 20
569.613388
 30
0.0
 40
16.1
100
AcDbArc
 50
98.847864
 51
171.152136
  0
ARC
  5
38D
100
AcDbEntity
  8
2
100
AcDbCircle
 10
-846.73958
 20
569.613388
 30
0.0
 40
16.1
100
AcDbArc
 50
48.560856
 51
81.152136
  0
ARC
  5
38E
100
AcDbEntity
  8
2
100
AcDbCircle
 10
-846.73958
 20
569.613388
 30
0.0
 40
16.1
100
AcDbArc
 50
8.847864
 51
41.439144
  0
ARC
  5
38F
100
AcDbEntity
  8
2
100
AcDbCircle
 10
-846.73958
 20
569.613388
 30
0.0
 40
16.1
100
AcDbArc
 50
278.847864
 51
351.152136
  0
ARC
  5
390
100
AcDbEntity
  8
2
100
AcDbCircle
 10
-846.73958
 20
569.613388
 30
0.0
 40
16.1
100
AcDbArc
 50
188.847864
 51
261.152136
  0
LINE
  5
391
100
AcDbEntity
  8
2
100
AcDbLine
 10
-836.08421
 20
581.682899
 30
0.0
 11
-832.265834
 21
585.501276
 31
0.0
  0
LINE
  5
392
100
AcDbEntity
  8
2
100
AcDbLine
 10
-834.670068
 20
580.268757
 30
0.0
 11
-830.851692
 21
584.087133
 31
0.0
  0
LINE
  5
393
100
AcDbEntity
  8
2
100
AcDbLine
 10
-837.584329
 20
585.839635
 30
0.0
 11
-835.801368
 21
587.622596
 31
0.0
  0
LINE
  5
394
100
AcDbEntity
  8
2
100
AcDbLine
 10
-830.513333
 20
578.768638
 30
0.0
 11
-828.730371
 21
580.5516
 31
0.0
  0
LINE
  5
395
100
AcDbEntity
  8
2
100
AcDbLine
 10
-828.730371
 20
581.965813
 30
0.0
 11
-830.851692
 21
584.087133
 31
0.0
  0
LINE
  5
396
100
AcDbEntity
  8
2
100
AcDbLine
 10
-832.265834
 20
585.501276
 30
0.0
 11
-834.387154
 21
587.622596
 31
0.0
  0
ARC
  5
397
100
AcDbEntity
  8
2
100
AcDbCircle
 10
-847.53958
 20
568.813388
 30
0.0
 40
19.0
100
AcDbArc
 50
62.457451
 51
27.542549
  0
ARC
  5
398
100
AcDbEntity
  8
2
100
AcDbCircle
 10
-838.291436
 20
586.546741
 30
0.0
 40
1.0
100
AcDbArc
 50
242.457451
 51
315.0
  0
ARC
  5
399
100
AcDbEntity
  8
2
100
AcDbCircle
 10
-835.094261
 20
586.915489
 30
0.0
 40
1.0
100
AcDbArc
 50
45.0
 51
135.0
  0
ARC
  5
39A
100
AcDbEntity
  8
2
100
AcDbCircle
 10
-829.437478
 20
581.258706
 30
0.0
 40
1.0
100
AcDbArc
 50
315.0
 51
45.0
  0
ARC
  5
39B
100
AcDbEntity
  8
2
100
AcDbCircle
 10
-829.806226
 20
578.061531
 30
0.0
 40
1.0
100
AcDbArc
 50
135.0
 51
207.542549
  0
CIRCLE
  5
39C
100
AcDbEntity
  8
2
100
AcDbCircle
 10
-835.518525
 20
585.077012
 30
0.0
 40
1.25
  0
CIRCLE
  5
39D
100
AcDbEntity
  8
2
100
AcDbCircle
 10
-831.275956
 20
580.834442
 30
0.0
 40
1.25
  0
LINE
  5
39E
100
AcDbEntity
  8
2
  6
CENTER
 62
     2
100
AcDbLine
 10
-812.800942
 20
588.000652
 30
0.0
 11
-828.531346
 21
603.731056
 31
0.0
  0
LINE
  5
39F
100
AcDbEntity
  8
2
100
AcDbLine
 10
-808.555813
 20
593.655018
 30
0.0
 11
-822.697949
 21
607.797154
 31
0.0
  0
LINE
  5
3A0
100
AcDbEntity
  8
2
100
AcDbLine
 10
-808.555813
 20
593.655018
 30
0.0
 11
-818.443527
 21
583.767305
 31
0.0
  0
LINE
  5
3A1
100
AcDbEntity
  8
2
100
AcDbLine
 10
-822.697949
 20
607.797154
 30
0.0
 11
-832.585662
 21
597.909441
 31
0.0
  0
ARC
  5
3A2
100
AcDbEntity
  8
2
100
AcDbCircle
 10
-846.73958
 20
569.613388
 30
0.0
 40
27.0
100
AcDbArc
 50
75.949723
 51
165.328066
  0
ARC
  5
3A3
100
AcDbEntity
  8
2
100
AcDbCircle
 10
-846.73958
 20
569.613388
 30
0.0
 40
27.0
100
AcDbArc
 50
284.671934
 51
14.050277
  0
ARC
  5
3A4
100
AcDbEntity
  8
2
100
AcDbCircle
 10
-812.786672
 20
578.110451
 30
0.0
 40
8.0
100
AcDbArc
 50
135.0
 51
194.050277
  0
ARC
  5
3A5
100
AcDbEntity
  8
2
100
AcDbCircle
 10
-838.242516
 20
603.566295
 30
0.0
 40
8.0
100
AcDbArc
 50
255.949723
 51
315.0
  0
LINE
  5
3A6
100
AcDbEntity
  8
2
  6
CENTER
 62
     2
100
AcDbLine
 10
-813.315104
 20
595.966796
 30
0.0
 11
-820.83169
 21
588.45021
 31
0.0
  0
LINE
  5
3A7
100
AcDbEntity
  8
2
  6
CENTER
 62
     2
100
AcDbLine
 10
-820.511484
 20
602.912551
 30
0.0
 11
-827.464304
 21
595.959731
 31
0.0
  0
LINE
  5
3A8
100
AcDbEntity
  8
2
100
AcDbLine
 10
-882.068546
 20
532.453407
 30
0.0
 11
-839.900909
 21
543.493805
 31
0.0
  0
LINE
  5
3A9
100
AcDbEntity
  8
2
100
AcDbLine
 10
-883.89956
 20
534.284421
 30
0.0
 11
-872.859162
 21
576.452058
 31
0.0
  0
ARC
  5
3AA
100
AcDbEntity
  8
2
100
AcDbCircle
 10
-882.448472
 20
533.904495
 30
0.0
 40
1.5
100
AcDbArc
 50
165.328066
 51
284.671934
  0
CIRCLE
  5
3AB
100
AcDbEntity
  8
2
100
AcDbCircle
 10
-817.041095
 20
592.240805
 30
0.0
 40
2.75
  0
CIRCLE
  5
3AC
100
AcDbEntity
  8
2
100
AcDbCircle
 10
-824.112163
 20
599.311872
 30
0.0
 40
2.75
  0
LINE
  5
3AD
100
AcDbEntity
  8
2
100
AcDbLine
 10
-772.379265
 20
583.487232
 30
0.0
 11
-821.112889
 21
606.212094
 31
0.0
  0
LINE
  5
3AE
100
AcDbEntity
  8
2
100
AcDbLine
 10
-823.274864
 20
607.220239
 30
0.0
 11
-828.144376
 21
609.49093
 31
0.0
  0
ARC
  5
3AF
100
AcDbEntity
  8
2
100
AcDbCircle
 10
-846.73958
 20
569.613388
 30
0.0
 40
32.5
100
AcDbArc
 50
62.920213
 51
199.150228
  0
ARC
  5
3B0
100
AcDbEntity
  8
2
100
AcDbCircle
 10
-846.73958
 20
569.613388
 30
0.0
 40
32.5
100
AcDbArc
 50
250.849772
 51
27.079787
  0
LINE
  5
3B1
100
AcDbEntity
  8
2
100
AcDbLine
 10
348.26042
 20
-40.386612
 30
0.0
 11
336.26042
 21
-40.386612
 31
0.0
  0
LINE
  5
3B2
100
AcDbEntity
  8
2
100
AcDbLine
 10
353.26042
 20
-112.386612
 30
0.0
 11
213.26042
 21
-112.386612
 31
0.0
  0
LINE
  5
3B3
100
AcDbEntity
  8
2
100
AcDbLine
 10
213.26042
 20
-93.386612
 30
0.0
 11
213.26042
 21
-142.386612
 31
0.0
  0
ARC
  5
3B4
100
AcDbEntity
  8
2
100
AcDbCircle
 10
348.26042
 20
-45.386612
 30
0.0
 40
5.0
100
AcDbArc
 50
30.0
 51
90.0
  0
ARC
  5
3B5
100
AcDbEntity
  8
2
100
AcDbCircle
 10
342.26042
 20
-34.386612
 30
0.0
 40
6.0
100
AcDbArc
 50
180.0
 51
270.0
  0
LINE
  5
3B6
100
AcDbEntity
  8
2
100
AcDbLine
 10
340.46042
 20
-11.386612
 30
0.0
 11
336.26042
 21
-11.386612
 31
0.0
  0
LINE
  5
3B7
100
AcDbEntity
  8
2
100
AcDbLine
 10
340.46042
 20
50.613388
 30
0.0
 11
336.26042
 21
50.613388
 31
0.0
  0
LINE
  5
3B8
100
AcDbEntity
  8
2
100
AcDbLine
 10
300.230983
 20
164.613388
 30
0.0
 11
266.289858
 21
164.613388
 31
0.0
  0
LINE
  5
3B9
100
AcDbEntity
  8
2
100
AcDbLine
 10
282.871441
 20
163.613388
 30
0.0
 11
282.871441
 21
132.613388
 31
0.0
  0
LINE
  5
3BA
100
AcDbEntity
  8
2
100
AcDbLine
 10
283.6494
 20
163.613388
 30
0.0
 11
283.6494
 21
132.613388
 31
0.0
  0
LINE
  5
3BB
100
AcDbEntity
  8
2
100
AcDbLine
 10
301.26042
 20
163.613388
 30
0.0
 11
265.26042
 21
163.613388
 31
0.0
  0
LINE
  5
3BC
100
AcDbEntity
  8
2
100
AcDbLine
 10
266.289858
 20
164.613388
 30
0.0
 11
265.26042
 21
163.613388
 31
0.0
  0
LINE
  5
3BD
100
AcDbEntity
  8
2
100
AcDbLine
 10
265.26042
 20
163.613388
 30
0.0
 11
265.26042
 21
132.613388
 31
0.0
  0
LINE
  5
3BE
100
AcDbEntity
  8
2
100
AcDbLine
 10
301.26042
 20
132.613388
 30
0.0
 11
301.26042
 21
163.613388
 31
0.0
  0
LINE
  5
3BF
100
AcDbEntity
  8
2
100
AcDbLine
 10
300.230983
 20
164.613388
 30
0.0
 11
301.26042
 21
163.613388
 31
0.0
  0
LINE
  5
3C0
100
AcDbEntity
  8
2
100
AcDbLine
 10
282.871441
 20
163.613388
 30
0.0
 11
283.26042
 21
164.613388
 31
0.0
  0
LINE
  5
3C1
100
AcDbEntity
  8
2
100
AcDbLine
 10
283.26042
 20
164.613388
 30
0.0
 11
283.6494
 21
163.613388
 31
0.0
  0
LINE
  5
3C2
100
AcDbEntity
  8
2
100
AcDbLine
 10
265.26042
 20
163.613388
 30
0.0
 11
276.402086
 21
132.613388
 31
0.0
  0
LINE
  5
3C3
100
AcDbEntity
  8
2
100
AcDbLine
 10
271.729775
 20
132.613388
 30
0.0
 11
282.871441
 21
163.613388
 31
0.0
  0
LINE
  5
3C4
100
AcDbEntity
  8
2
100
AcDbLine
 10
283.6494
 20
163.613388
 30
0.0
 11
294.791066
 21
132.613388
 31
0.0
  0
LINE
  5
3C5
100
AcDbEntity
  8
2
100
AcDbLine
 10
301.26042
 20
163.613388
 30
0.0
 11
290.118754
 21
132.613388
 31
0.0
  0
LINE
  5
3C6
100
AcDbEntity
  8
2
100
AcDbLine
 10
-743.73958
 20
91.613388
 30
0.0
 11
-768.73958
 21
91.613388
 31
0.0
  0
LINE
  5
3C7
100
AcDbEntity
  8
2
100
AcDbLine
 10
-924.73958
 20
91.613388
 30
0.0
 11
-949.73958
 21
91.613388
 31
0.0
  0
ARC
  5
3C8
100
AcDbEntity
  8
2
100
AcDbCircle
 10
-924.73958
 20
88.613388
 30
0.0
 40
3.0
100
AcDbArc
 50
0.0
 51
90.0
  0
ARC
  5
3C9
100
AcDbEntity
  8
2
100
AcDbCircle
 10
-768.73958
 20
88.613388
 30
0.0
 40
3.0
100
AcDbArc
 50
90.0
 51
180.0
  0
ARC
  5
3CA
100
AcDbEntity
  8
2
100
AcDbCircle
 10
-916.993613
 20
90.613388
 30
0.0
 40
5.0
100
AcDbArc
 50
194.477512
 51
270.0
  0
ARC
  5
3CB
100
AcDbEntity
  8
2
100
AcDbCircle
 10
-776.485546
 20
90.613388
 30
0.0
 40
5.0
100
AcDbArc
 50
270.0
 51
345.522488
  0
LINE
  5
3CC
100
AcDbEntity
  8
2
100
AcDbLine
 10
-814.23958
 20
100.613388
 30
0.0
 11
-879.23958
 21
100.613388
 31
0.0
  0
LINE
  5
3CD
100
AcDbEntity
  8
2
100
AcDbLine
 10
-879.23958
 20
100.613388
 30
0.0
 11
-880.019183
 21
92.817358
 31
0.0
  0
LINE
  5
3CE
100
AcDbEntity
  8
2
100
AcDbLine
 10
-814.23958
 20
100.613388
 30
0.0
 11
-813.459977
 21
92.817358
 31
0.0
  0
ARC
  5
3CF
100
AcDbEntity
  8
2
100
AcDbCircle
 10
-887.97948
 20
93.613388
 30
0.0
 40
8.0
100
AcDbArc
 50
270.0
 51
354.289407
  0
ARC
  5
3D0
100
AcDbEntity
  8
2
100
AcDbCircle
 10
-805.499679
 20
93.613388
 30
0.0
 40
8.0
100
AcDbArc
 50
185.710593
 51
270.0
  0
LINE
  5
3D1
100
AcDbEntity
  8
2
100
AcDbLine
 10
-776.73958
 20
-112.386612
 30
0.0
 11
-916.73958
 21
-112.386612
 31
0.0
  0
LINE
  5
3D2
100
AcDbEntity
  8
2
100
AcDbLine
 10
-776.73958
 20
-58.386612
 30
0.0
 11
-776.73958
 21
-142.386612
 31
0.0
  0
LINE
  5
3D3
100
AcDbEntity
  8
2
100
AcDbLine
 10
-916.73958
 20
-58.386612
 30
0.0
 11
-916.73958
 21
-142.386612
 31
0.0
  0
LINE
  5
3D4
100
AcDbEntity
  8
2
100
AcDbLine
 10
-949.73958
 20
-52.386612
 30
0.0
 11
-743.73958
 21
-52.386612
 31
0.0
  0
ARC
  5
3D5
100
AcDbEntity
  8
2
100
AcDbCircle
 10
-922.73958
 20
-58.386612
 30
0.0
 40
6.0
100
AcDbArc
 50
0.0
 51
90.0
  0
ARC
  5
3D6
100
AcDbEntity
  8
2
100
AcDbCircle
 10
-770.73958
 20
-58.386612
 30
0.0
 40
6.0
100
AcDbArc
 50
90.0
 51
180.0
  0
LINE
  5
3D7
100
AcDbEntity
  8
2
100
AcDbLine
 10
-925.73958
 20
107.613388
 30
0.0
 11
-939.73958
 21
107.613388
 31
0.0
  0
LINE
  5
3D8
100
AcDbEntity
  8
2
100
AcDbLine
 10
-925.73958
 20
107.613388
 30
0.0
 11
-925.73958
 21
95.541591
 31
0.0
  0
LINE
  5
3D9
100
AcDbEntity
  8
2
100
AcDbLine
 10
-939.73958
 20
107.613388
 30
0.0
 11
-939.73958
 21
96.613388
 31
0.0
  0
ARC
  5
3DA
100
AcDbEntity
  8
2
100
AcDbCircle
 10
-944.73958
 20
96.613388
 30
0.0
 40
5.0
100
AcDbArc
 50
270.0
 51
360.0
  0
ARC
  5
3DB
100
AcDbEntity
  8
2
100
AcDbCircle
 10
-920.73958
 20
95.541591
 30
0.0
 40
5.0
100
AcDbArc
 50
180.0
 51
240.0
  0
LINE
  5
3DC
100
AcDbEntity
  8
2
100
AcDbLine
 10
-767.73958
 20
107.613388
 30
0.0
 11
-753.73958
 21
107.613388
 31
0.0
  0
LINE
  5
3DD
100
AcDbEntity
  8
2
100
AcDbLine
 10
-767.73958
 20
107.613388
 30
0.0
 11
-767.73958
 21
95.541591
 31
0.0
  0
LINE
  5
3DE
100
AcDbEntity
  8
2
100
AcDbLine
 10
-753.73958
 20
107.613388
 30
0.0
 11
-753.73958
 21
96.613388
 31
0.0
  0
ARC
  5
3DF
100
AcDbEntity
  8
2
100
AcDbCircle
 10
-748.73958
 20
96.613388
 30
0.0
 40
5.0
100
AcDbArc
 50
180.0
 51
270.0
  0
ARC
  5
3E0
100
AcDbEntity
  8
2
100
AcDbCircle
 10
-772.73958
 20
95.541591
 30
0.0
 40
5.0
100
AcDbArc
 50
300.0
 51
360.0
  0
LINE
  5
3E1
100
AcDbEntity
  8
2
100
AcDbLine
 10
-776.485546
 20
85.613388
 30
0.0
 11
-916.993613
 21
85.613388
 31
0.0
  0
LINE
  5
3E2
100
AcDbEntity
  8
2
100
AcDbLine
 10
-949.73958
 20
89.113388
 30
0.0
 11
-979.73958
 21
89.113388
 31
0.0
  0
LINE
  5
3E3
100
AcDbEntity
  8
2
100
AcDbLine
 10
-949.73958
 20
-49.886612
 30
0.0
 11
-979.73958
 21
-49.886612
 31
0.0
  0
LINE
  5
3E4
100
AcDbEntity
  8
2
100
AcDbLine
 10
-979.73958
 20
86.613388
 30
0.0
 11
-1154.73958
 21
86.613388
 31
0.0
  0
LINE
  5
3E5
100
AcDbEntity
  8
2
100
AcDbLine
 10
-979.73958
 20
-47.386612
 30
0.0
 11
-1154.73958
 21
-47.386612
 31
0.0
  0
LINE
  5
3E6
100
AcDbEntity
  8
2
100
AcDbLine
 10
-1154.73958
 20
89.113388
 30
0.0
 11
-1155.23958
 21
89.113388
 31
0.0
  0
LINE
  5
3E7
100
AcDbEntity
  8
2
100
AcDbLine
 10
-1154.73958
 20
-49.886612
 30
0.0
 11
-1155.23958
 21
-49.886612
 31
0.0
  0
LINE
  5
3E8
100
AcDbEntity
  8
2
100
AcDbLine
 10
-1155.23958
 20
91.613388
 30
0.0
 11
-1168.73958
 21
91.613388
 31
0.0
  0
LINE
  5
3E9
100
AcDbEntity
  8
2
100
AcDbLine
 10
-1155.23958
 20
-52.386612
 30
0.0
 11
-1168.73958
 21
-52.386612
 31
0.0
  0
ARC
  5
3EA
100
AcDbEntity
  8
2
100
AcDbCircle
 10
-1168.73958
 20
89.613388
 30
0.0
 40
2.0
100
AcDbArc
 50
90.0
 51
180.0
  0
ARC
  5
3EB
100
AcDbEntity
  8
2
100
AcDbCircle
 10
-1168.73958
 20
-50.386612
 30
0.0
 40
2.0
100
AcDbArc
 50
180.0
 51
270.0
  0
LINE
  5
3EC
100
AcDbEntity
  8
2
100
AcDbLine
 10
-1173.73958
 20
39.613388
 30
0.0
 11
-1174.73958
 21
39.613388
 31
0.0
  0
ARC
  5
3ED
100
AcDbEntity
  8
2
100
AcDbCircle
 10
-1173.73958
 20
42.613388
 30
0.0
 40
3.0
100
AcDbArc
 50
270.0
 51
360.0
  0
ARC
  5
3EE
100
AcDbEntity
  8
2
100
AcDbCircle
 10
-1178.73958
 20
44.653356
 30
0.0
 40
8.0
100
AcDbArc
 50
324.72777
 51
360.0
  0
ARC
  5
3EF
100
AcDbEntity
  8
2
100
AcDbCircle
 10
-1171.73958
 20
9.613388
 30
0.0
 40
18.0
100
AcDbArc
 50
105.618498
 51
254.381502
  0
ARC
  5
3F0
100
AcDbEntity
  8
2
100
AcDbCircle
 10
-1178.73958
 20
-15.42658
 30
0.0
 40
8.0
100
AcDbArc
 50
0.0
 51
74.381502
  0
LINE
  5
3F1
100
AcDbEntity
  8
2
100
AcDbLine
 10
-1174.73958
 20
27.725152
 30
0.0
 11
-1174.73958
 21
39.613388
 31
0.0
  0
LINE
  5
3F2
100
AcDbEntity
  8
2
100
AcDbLine
 10
-1170.73958
 20
-50.386612
 30
0.0
 11
-1170.73958
 21
-15.42658
 31
0.0
  0
LINE
  5
3F3
100
AcDbEntity
  8
2
100
AcDbLine
 10
-1170.73958
 20
34.653356
 30
0.0
 11
-1170.73958
 21
89.613388
 31
0.0
  0
LINE
  5
3F4
100
AcDbEntity
  8
2
100
AcDbLine
 10
-1197.73958
 20
82.801388
 30
0.0
 11
-1197.73958
 21
70.425388
 31
0.0
  0
LINE
  5
3F5
100
AcDbEntity
  8
2
100
AcDbLine
 10
-949.73958
 20
83.613388
 30
0.0
 11
-1155.23958
 21
83.613388
 31
0.0
  0
LINE
  5
3F6
100
AcDbEntity
  8
2
100
AcDbLine
 10
-1181.73958
 20
83.613388
 30
0.0
 11
-1196.92758
 21
83.613388
 31
0.0
  0
LINE
  5
3F7
100
AcDbEntity
  8
2
100
AcDbLine
 10
-949.73958
 20
69.613388
 30
0.0
 11
-1155.23958
 21
69.613388
 31
0.0
  0
LINE
  5
3F8
100
AcDbEntity
  8
2
100
AcDbLine
 10
-1181.73958
 20
69.613388
 30
0.0
 11
-1196.92758
 21
69.613388
 31
0.0
  0
LINE
  5
3F9
100
AcDbEntity
  8
2
 62
     2
100
AcDbLine
 10
-1181.73958
 20
82.801388
 30
0.0
 11
-1197.73958
 21
82.801388
 31
0.0
  0
LINE
  5
3FA
100
AcDbEntity
  8
2
 62
     2
100
AcDbLine
 10
-1181.73958
 20
70.425388
 30
0.0
 11
-1197.73958
 21
70.425388
 31
0.0
  0
LINE
  5
3FB
100
AcDbEntity
  8
2
100
AcDbLine
 10
-1197.73958
 20
82.801388
 30
0.0
 11
-1196.92758
 21
83.613388
 31
0.0
  0
LINE
  5
3FC
100
AcDbEntity
  8
2
100
AcDbLine
 10
-1196.92758
 20
83.613388
 30
0.0
 11
-1196.92758
 21
69.613388
 31
0.0
  0
LINE
  5
3FD
100
AcDbEntity
  8
2
100
AcDbLine
 10
-1196.92758
 20
69.613388
 30
0.0
 11
-1197.73958
 21
70.425388
 31
0.0
  0
LINE
  5
3FE
100
AcDbEntity
  8
2
100
AcDbLine
 10
-1197.73958
 20
-43.574612
 30
0.0
 11
-1197.73958
 21
-31.198612
 31
0.0
  0
LINE
  5
3FF
100
AcDbEntity
  8
2
100
AcDbLine
 10
-949.73958
 20
-44.386612
 30
0.0
 11
-1155.23958
 21
-44.386612
 31
0.0
  0
LINE
  5
400
100
AcDbEntity
  8
2
100
AcDbLine
 10
-1181.73958
 20
-44.386612
 30
0.0
 11
-1196.92758
 21
-44.386612
 31
0.0
  0
LINE
  5
401
100
AcDbEntity
  8
2
100
AcDbLine
 10
-949.73958
 20
-30.386612
 30
0.0
 11
-1155.23958
 21
-30.386612
 31
0.0
  0
LINE
  5
402
100
AcDbEntity
  8
2
100
AcDbLine
 10
-1181.73958
 20
-30.386612
 30
0.0
 11
-1196.92758
 21
-30.386612
 31
0.0
  0
LINE
  5
403
100
AcDbEntity
  8
2
 62
     2
100
AcDbLine
 10
-1181.73958
 20
-43.574612
 30
0.0
 11
-1197.73958
 21
-43.574612
 31
0.0
  0
LINE
  5
404
100
AcDbEntity
  8
2
 62
     2
100
AcDbLine
 10
-1181.73958
 20
-31.198612
 30
0.0
 11
-1197.73958
 21
-31.198612
 31
0.0
  0
LINE
  5
405
100
AcDbEntity
  8
2
100
AcDbLine
 10
-1197.73958
 20
-43.574612
 30
0.0
 11
-1196.92758
 21
-44.386612
 31
0.0
  0
LINE
  5
406
100
AcDbEntity
  8
2
100
AcDbLine
 10
-1196.92758
 20
-44.386612
 30
0.0
 11
-1196.92758
 21
-30.386612
 31
0.0
  0
LINE
  5
407
100
AcDbEntity
  8
2
100
AcDbLine
 10
-1196.92758
 20
-30.386612
 30
0.0
 11
-1197.73958
 21
-31.198612
 31
0.0
  0
LINE
  5
408
100
AcDbEntity
  8
2
100
AcDbLine
 10
-1154.73958
 20
83.613388
 30
0.0
 11
-1154.73958
 21
89.113388
 31
0.0
  0
LINE
  5
409
100
AcDbEntity
  8
2
100
AcDbLine
 10
-1154.73958
 20
-49.886612
 30
0.0
 11
-1154.73958
 21
-44.386612
 31
0.0
  0
LINE
  5
40A
100
AcDbEntity
  8
2
100
AcDbLine
 10
-979.73958
 20
83.613388
 30
0.0
 11
-979.73958
 21
89.113388
 31
0.0
  0
LINE
  5
40B
100
AcDbEntity
  8
2
100
AcDbLine
 10
-979.73958
 20
-49.886612
 30
0.0
 11
-979.73958
 21
-44.386612
 31
0.0
  0
LINE
  5
40C
100
AcDbEntity
  8
2
100
AcDbLine
 10
-1206.73958
 20
28.260388
 30
0.0
 11
-1206.73958
 21
10.966388
 31
0.0
  0
LINE
  5
40D
100
AcDbEntity
  8
2
100
AcDbLine
 10
-1206.73958
 20
28.260388
 30
0.0
 11
-1205.38658
 21
29.613388
 31
0.0
  0
LINE
  5
40E
100
AcDbEntity
  8
2
100
AcDbLine
 10
-1205.38658
 20
29.613388
 30
0.0
 11
-1193.73958
 21
29.613388
 31
0.0
  0
LINE
  5
40F
100
AcDbEntity
  8
2
100
AcDbLine
 10
-1205.38658
 20
29.613388
 30
0.0
 11
-1205.38658
 21
9.613388
 31
0.0
  0
LINE
  5
410
100
AcDbEntity
  8
2
 62
     2
100
AcDbLine
 10
-1206.73958
 20
28.260388
 30
0.0
 11
-1193.73958
 21
28.260388
 31
0.0
  0
LINE
  5
411
100
AcDbEntity
  8
2
100
AcDbLine
 10
-1206.73958
 20
10.966388
 30
0.0
 11
-1205.38658
 21
9.613388
 31
0.0
  0
LINE
  5
412
100
AcDbEntity
  8
2
100
AcDbLine
 10
-1205.38658
 20
9.613388
 30
0.0
 11
-1193.73958
 21
9.613388
 31
0.0
  0
LINE
  5
413
100
AcDbEntity
  8
2
 62
     2
100
AcDbLine
 10
-1206.73958
 20
10.966388
 30
0.0
 11
-1193.73958
 21
10.966388
 31
0.0
  0
LINE
  5
414
100
AcDbEntity
  8
2
100
AcDbLine
 10
-829.769017
 20
164.613388
 30
0.0
 11
-863.710142
 21
164.613388
 31
0.0
  0
LINE
  5
415
100
AcDbEntity
  8
2
100
AcDbLine
 10
-826.73958
 20
111.613388
 30
0.0
 11
-826.73958
 21
114.613388
 31
0.0
  0
LINE
  5
416
100
AcDbEntity
  8
2
100
AcDbLine
 10
-866.73958
 20
111.613388
 30
0.0
 11
-866.73958
 21
114.613388
 31
0.0
  0
LINE
  5
417
100
AcDbEntity
  8
2
100
AcDbLine
 10
-847.128559
 20
163.613388
 30
0.0
 11
-847.128559
 21
119.413388
 31
0.0
  0
LINE
  5
418
100
AcDbEntity
  8
2
100
AcDbLine
 10
-846.3506
 20
163.613388
 30
0.0
 11
-846.3506
 21
119.413388
 31
0.0
  0
LINE
  5
419
100
AcDbEntity
  8
2
100
AcDbLine
 10
-828.73958
 20
163.613388
 30
0.0
 11
-864.73958
 21
163.613388
 31
0.0
  0
LINE
  5
41A
100
AcDbEntity
  8
2
100
AcDbLine
 10
-863.710142
 20
164.613388
 30
0.0
 11
-864.73958
 21
163.613388
 31
0.0
  0
LINE
  5
41B
100
AcDbEntity
  8
2
100
AcDbLine
 10
-864.73958
 20
163.613388
 30
0.0
 11
-864.73958
 21
119.413388
 31
0.0
  0
LINE
  5
41C
100
AcDbEntity
  8
2
100
AcDbLine
 10
-828.73958
 20
119.413388
 30
0.0
 11
-828.73958
 21
163.613388
 31
0.0
  0
LINE
  5
41D
100
AcDbEntity
  8
2
100
AcDbLine
 10
-829.769017
 20
164.613388
 30
0.0
 11
-828.73958
 21
163.613388
 31
0.0
  0
LINE
  5
41E
100
AcDbEntity
  8
2
100
AcDbLine
 10
-847.128559
 20
163.613388
 30
0.0
 11
-846.73958
 21
164.613388
 31
0.0
  0
LINE
  5
41F
100
AcDbEntity
  8
2
100
AcDbLine
 10
-846.73958
 20
164.613388
 30
0.0
 11
-846.3506
 21
163.613388
 31
0.0
  0
LINE
  5
420
100
AcDbEntity
  8
2
100
AcDbLine
 10
-864.73958
 20
163.613388
 30
0.0
 11
-848.853721
 21
119.413388
 31
0.0
  0
LINE
  5
421
100
AcDbEntity
  8
2
100
AcDbLine
 10
-863.014418
 20
119.413388
 30
0.0
 11
-847.128559
 21
163.613388
 31
0.0
  0
LINE
  5
422
100
AcDbEntity
  8
2
100
AcDbLine
 10
-846.3506
 20
163.613388
 30
0.0
 11
-830.464741
 21
119.413388
 31
0.0
  0
LINE
  5
423
100
AcDbEntity
  8
2
100
AcDbLine
 10
-828.73958
 20
163.613388
 30
0.0
 11
-844.625439
 21
119.413388
 31
0.0
  0
LINE
  5
424
100
AcDbEntity
  8
2
100
AcDbLine
 10
-808.555813
 20
114.613388
 30
0.0
 11
-883.948472
 21
114.613388
 31
0.0
  0
LINE
  5
425
100
AcDbEntity
  8
2
100
AcDbLine
 10
-808.555813
 20
117.813388
 30
0.0
 11
-883.948472
 21
117.813388
 31
0.0
  0
LINE
  5
426
100
AcDbEntity
  8
2
100
AcDbLine
 10
-828.437478
 20
119.413388
 30
0.0
 11
-866.53958
 21
119.413388
 31
0.0
  0
LINE
  5
427
100
AcDbEntity
  8
2
100
AcDbLine
 10
-883.948472
 20
117.813388
 30
0.0
 11
-883.948472
 21
114.613388
 31
0.0
  0
LINE
  5
428
100
AcDbEntity
  8
2
100
AcDbLine
 10
-808.555813
 20
117.813388
 30
0.0
 11
-808.555813
 21
114.613388
 31
0.0
  0
LINE
  5
429
100
AcDbEntity
  8
2
100
AcDbLine
 10
-866.53958
 20
119.413388
 30
0.0
 11
-866.53958
 21
117.813388
 31
0.0
  0
LINE
  5
42A
100
AcDbEntity
  8
2
100
AcDbLine
 10
-828.437478
 20
119.413388
 30
0.0
 11
-828.437478
 21
117.813388
 31
0.0
  0
LINE
  5
42B
100
AcDbEntity
  8
2
100
AcDbLine
 10
-819.73958
 20
117.813388
 30
0.0
 11
-819.73958
 21
114.613388
 31
0.0
  0
LINE
  5
42C
100
AcDbEntity
  8
2
100
AcDbLine
 10
-828.53958
 20
119.413388
 30
0.0
 11
-828.53958
 21
117.813388
 31
0.0
  0
ARC
  5
42D
100
AcDbEntity
  8
2
100
AcDbCircle
 10
-1178.73958
 20
34.653356
 30
0.0
 40
8.0
100
AcDbArc
 50
285.618498
 51
360.0
  0
LINE
  5
42E
100
AcDbEntity
  8
2
100
AcDbLine
 10
353.26042
 20
-142.386612
 30
0.0
 11
213.26042
 21
-142.386612
 31
0.0
  0
LINE
  5
42F
100
AcDbEntity
  8
2
100
AcDbLine
 10
-776.73958
 20
-142.386612
 30
0.0
 11
-916.73958
 21
-142.386612
 31
0.0
  0
LINE
  5
430
100
AcDbEntity
  8
2
100
AcDbLine
 10
-743.73958
 20
36.029193
 30
0.0
 11
-743.73958
 21
91.613388
 31
0.0
  0
LINE
  5
431
100
AcDbEntity
  8
2
100
AcDbLine
 10
-771.73958
 20
35.849012
 30
0.0
 11
-771.73958
 21
88.613388
 31
0.0
  0
LINE
  5
432
100
AcDbEntity
  8
2
100
AcDbLine
 10
-771.73958
 20
-49.386612
 30
0.0
 11
-771.73958
 21
4.613388
 31
0.0
  0
LINE
  5
433
100
AcDbEntity
  8
2
100
AcDbLine
 10
-771.73958
 20
14.613388
 30
0.0
 11
-771.73958
 21
25.848805
 31
0.0
  0
LINE
  5
434
100
AcDbEntity
  8
2
100
AcDbLine
 10
-743.73958
 20
-52.386612
 30
0.0
 11
-743.73958
 21
-0.886612
 31
0.0
  0
LINE
  5
435
100
AcDbEntity
  8
2
100
AcDbLine
 10
-743.73958
 20
20.113388
 30
0.0
 11
-743.73958
 21
26.028985
 31
0.0
  0
LINE
  5
436
100
AcDbEntity
  8
2
100
AcDbLine
 10
-921.73958
 20
34.883761
 30
0.0
 11
-921.73958
 21
88.613388
 31
0.0
  0
LINE
  5
437
100
AcDbEntity
  8
2
100
AcDbLine
 10
-921.73958
 20
-49.386612
 30
0.0
 11
-921.73958
 21
4.613388
 31
0.0
  0
LINE
  5
438
100
AcDbEntity
  8
2
100
AcDbLine
 10
-921.73958
 20
14.613388
 30
0.0
 11
-921.73958
 21
24.883554
 31
0.0
  0
LINE
  5
439
100
AcDbEntity
  8
2
100
AcDbLine
 10
-949.73958
 20
-52.386612
 30
0.0
 11
-949.73958
 21
4.613388
 31
0.0
  0
LINE
  5
43A
100
AcDbEntity
  8
2
100
AcDbLine
 10
-979.73958
 20
-30.386612
 30
0.0
 11
-979.73958
 21
4.613388
 31
0.0
  0
LINE
  5
43B
100
AcDbEntity
  8
2
100
AcDbLine
 10
-979.73958
 20
14.613388
 30
0.0
 11
-979.73958
 21
69.613388
 31
0.0
  0
ARC
  5
43C
100
AcDbEntity
  8
2
100
AcDbCircle
 10
-963.73958
 20
29.613388
 30
0.0
 40
13.5
100
AcDbArc
 50
39.391496
 51
321.345891
  0
LINE
  5
43D
100
AcDbEntity
  8
2
100
AcDbLine
 10
-949.73958
 20
14.613388
 30
0.0
 11
-949.73958
 21
21.372305
 31
0.0
  0
LINE
  5
43E
100
AcDbEntity
  8
2
100
AcDbLine
 10
-949.73958
 20
38.03465
 30
0.0
 11
-949.73958
 21
91.613388
 31
0.0
  0
LINE
  5
43F
100
AcDbEntity
  8
2
100
AcDbLine
 10
-1154.73958
 20
-30.386612
 30
0.0
 11
-1154.73958
 21
1.282388
 31
0.0
  0
LINE
  5
440
100
AcDbEntity
  8
2
100
AcDbLine
 10
-1154.73958
 20
17.944388
 30
0.0
 11
-1154.73958
 21
69.613388
 31
0.0
  0
LINE
  5
441
100
AcDbEntity
  8
2
100
AcDbLine
 10
-1155.23958
 20
-52.386612
 30
0.0
 11
-1155.23958
 21
1.282388
 31
0.0
  0
LINE
  5
442
100
AcDbEntity
  8
2
100
AcDbLine
 10
-1155.23958
 20
17.944388
 30
0.0
 11
-1155.23958
 21
91.613388
 31
0.0
  0
TEXT
  5
443
100
AcDbEntity
  8
2
100
AcDbText
 10
-884.73958
 20
470.613388
 30
0.0
 40
9.5
  1
ＴＧ－　　１２Ｓ
 72
     5
 11
-810.63958
 21
470.613388
 31
0.0
100
AcDbText
  0
LINE
  5
444
100
AcDbEntity
  8
2
100
AcDbLine
 10
-739.73958
 20
401.613388
 30
0.0
 11
-739.73958
 21
617.613388
 31
0.0
  0
LINE
  5
445
100
AcDbEntity
  8
2
100
AcDbLine
 10
-707.73958
 20
396.613388
 30
0.0
 11
-734.73958
 21
396.613388
 31
0.0
  0
LINE
  5
446
100
AcDbEntity
  8
2
100
AcDbLine
 10
-707.73958
 20
622.613388
 30
0.0
 11
-734.73958
 21
622.613388
 31
0.0
  0
ARC
  5
447
100
AcDbEntity
  8
2
100
AcDbCircle
 10
-734.73958
 20
401.613388
 30
0.0
 40
5.0
100
AcDbArc
 50
180.0
 51
270.0
  0
ARC
  5
448
100
AcDbEntity
  8
2
100
AcDbCircle
 10
-734.73958
 20
617.613388
 30
0.0
 40
5.0
100
AcDbArc
 50
90.0
 51
180.0
  0
LINE
  5
449
100
AcDbEntity
  8
2
100
AcDbLine
 10
-707.73958
 20
396.613388
 30
0.0
 11
-707.73958
 21
622.613388
 31
0.0
  0
LINE
  5
44A
100
AcDbEntity
  8
2
100
AcDbLine
 10
-206.73958
 20
403.113388
 30
0.0
 11
-707.73958
 21
403.113388
 31
0.0
  0
LINE
  5
44B
100
AcDbEntity
  8
2
100
AcDbLine
 10
-206.73958
 20
616.113388
 30
0.0
 11
-707.73958
 21
616.113388
 31
0.0
  0
LINE
  5
44C
100
AcDbEntity
  8
2
100
AcDbLine
 10
-205.73958
 20
399.613388
 30
0.0
 11
-206.73958
 21
399.613388
 31
0.0
  0
LINE
  5
44D
100
AcDbEntity
  8
2
100
AcDbLine
 10
-205.73958
 20
619.613388
 30
0.0
 11
-206.73958
 21
619.613388
 31
0.0
  0
LINE
  5
44E
100
AcDbEntity
  8
2
100
AcDbLine
 10
-205.73958
 20
396.613388
 30
0.0
 11
-205.73958
 21
622.613388
 31
0.0
  0
LINE
  5
44F
100
AcDbEntity
  8
2
100
AcDbLine
 10
-182.73958
 20
399.613388
 30
0.0
 11
-182.73958
 21
619.613388
 31
0.0
  0
LINE
  5
450
100
AcDbEntity
  8
2
100
AcDbLine
 10
-164.73958
 20
396.613388
 30
0.0
 11
-205.73958
 21
396.613388
 31
0.0
  0
LINE
  5
451
100
AcDbEntity
  8
2
100
AcDbLine
 10
-164.73958
 20
622.613388
 30
0.0
 11
-205.73958
 21
622.613388
 31
0.0
  0
ARC
  5
452
100
AcDbEntity
  8
2
100
AcDbCircle
 10
-185.73958
 20
399.613388
 30
0.0
 40
3.0
100
AcDbArc
 50
270.0
 51
360.0
  0
ARC
  5
453
100
AcDbEntity
  8
2
100
AcDbCircle
 10
-185.73958
 20
619.613388
 30
0.0
 40
3.0
100
AcDbArc
 50
0.0
 51
90.0
  0
LINE
  5
454
100
AcDbEntity
  8
2
100
AcDbLine
 10
-173.73958
 20
474.613388
 30
0.0
 11
-179.73958
 21
474.613388
 31
0.0
  0
LINE
  5
455
100
AcDbEntity
  8
2
100
AcDbLine
 10
-173.73958
 20
544.613388
 30
0.0
 11
-179.73958
 21
544.613388
 31
0.0
  0
LINE
  5
456
100
AcDbEntity
  8
2
100
AcDbLine
 10
-173.73958
 20
474.613388
 30
0.0
 11
-173.73958
 21
544.613388
 31
0.0
  0
ARC
  5
457
100
AcDbEntity
  8
2
100
AcDbCircle
 10
-179.73958
 20
471.613388
 30
0.0
 40
3.0
100
AcDbArc
 50
90.0
 51
180.0
  0
ARC
  5
458
100
AcDbEntity
  8
2
100
AcDbCircle
 10
-179.73958
 20
547.613388
 30
0.0
 40
3.0
100
AcDbArc
 50
180.0
 51
270.0
  0
ARC
  5
459
100
AcDbEntity
  8
2
100
AcDbCircle
 10
-743.73958
 20
433.613388
 30
0.0
 40
4.0
100
AcDbArc
 50
0.0
 51
90.0
  0
ARC
  5
45A
100
AcDbEntity
  8
2
100
AcDbCircle
 10
-743.73958
 20
585.613388
 30
0.0
 40
4.0
100
AcDbArc
 50
270.0
 51
360.0
  0
LINE
  5
45B
100
AcDbEntity
  8
2
100
AcDbLine
 10
-164.73958
 20
612.113388
 30
0.0
 11
-164.73958
 21
622.613388
 31
0.0
  0
ARC
  5
45C
100
AcDbEntity
  8
2
100
AcDbCircle
 10
-170.73958
 20
595.098669
 30
0.0
 40
6.0
100
AcDbArc
 50
315.0
 51
330.162164
  0
ARC
  5
45D
100
AcDbEntity
  8
2
100
AcDbCircle
 10
-176.73958
 20
572.128106
 30
0.0
 40
6.0
100
AcDbArc
 50
135.0
 51
180.0
  0
LINE
  5
45E
100
AcDbEntity
  8
2
100
AcDbLine
 10
-164.73958
 20
407.113388
 30
0.0
 11
-164.73958
 21
396.613388
 31
0.0
  0
ARC
  5
45F
100
AcDbEntity
  8
2
100
AcDbCircle
 10
-176.73958
 20
447.098669
 30
0.0
 40
6.0
100
AcDbArc
 50
180.0
 51
225.0
  0
LINE
  5
460
100
AcDbEntity
  8
2
100
AcDbLine
 10
-126.73958
 20
523.530888
 30
0.0
 11
-126.73958
 21
511.113388
 31
0.0
  0
LINE
  5
461
100
AcDbEntity
  8
2
100
AcDbLine
 10
-126.73958
 20
508.113388
 30
0.0
 11
-126.73958
 21
495.695888
 31
0.0
  0
LINE
  5
462
100
AcDbEntity
  8
2
100
AcDbLine
 10
-144.73958
 20
407.925388
 30
0.0
 11
-144.73958
 21
426.301388
 31
0.0
  0
LINE
  5
463
100
AcDbEntity
  8
2
 62
     2
100
AcDbLine
 10
-144.73958
 20
407.925388
 30
0.0
 11
-166.73958
 21
407.925388
 31
0.0
  0
LINE
  5
464
100
AcDbEntity
  8
2
 62
     2
100
AcDbLine
 10
-144.73958
 20
426.301388
 30
0.0
 11
-166.73958
 21
426.301388
 31
0.0
  0
LINE
  5
465
100
AcDbEntity
  8
2
100
AcDbLine
 10
-144.73958
 20
407.925388
 30
0.0
 11
-145.55158
 21
407.113388
 31
0.0
  0
LINE
  5
466
100
AcDbEntity
  8
2
100
AcDbLine
 10
-144.73958
 20
426.301388
 30
0.0
 11
-145.55158
 21
427.113388
 31
0.0
  0
LINE
  5
467
100
AcDbEntity
  8
2
100
AcDbLine
 10
-145.55158
 20
407.113388
 30
0.0
 11
-145.55158
 21
427.113388
 31
0.0
  0
LINE
  5
468
100
AcDbEntity
  8
2
100
AcDbLine
 10
-145.55158
 20
407.113388
 30
0.0
 11
-166.73958
 21
407.113388
 31
0.0
  0
LINE
  5
469
100
AcDbEntity
  8
2
100
AcDbLine
 10
-205.73958
 20
407.113388
 30
0.0
 11
-707.73958
 21
407.113388
 31
0.0
  0
LINE
  5
46A
100
AcDbEntity
  8
2
100
AcDbLine
 10
-145.55158
 20
427.113388
 30
0.0
 11
-166.73958
 21
427.113388
 31
0.0
  0
LINE
  5
46B
100
AcDbEntity
  8
2
100
AcDbLine
 10
-205.73958
 20
427.113388
 30
0.0
 11
-707.73958
 21
427.113388
 31
0.0
  0
LINE
  5
46C
100
AcDbEntity
  8
2
100
AcDbLine
 10
-144.73958
 20
611.301388
 30
0.0
 11
-144.73958
 21
592.925388
 31
0.0
  0
LINE
  5
46D
100
AcDbEntity
  8
2
 62
     2
100
AcDbLine
 10
-144.73958
 20
611.301388
 30
0.0
 11
-166.73958
 21
611.301388
 31
0.0
  0
LINE
  5
46E
100
AcDbEntity
  8
2
 62
     2
100
AcDbLine
 10
-144.73958
 20
592.925388
 30
0.0
 11
-166.73958
 21
592.925388
 31
0.0
  0
LINE
  5
46F
100
AcDbEntity
  8
2
100
AcDbLine
 10
-144.73958
 20
611.301388
 30
0.0
 11
-145.55158
 21
612.113388
 31
0.0
  0
LINE
  5
470
100
AcDbEntity
  8
2
100
AcDbLine
 10
-144.73958
 20
592.925388
 30
0.0
 11
-145.55158
 21
592.113388
 31
0.0
  0
LINE
  5
471
100
AcDbEntity
  8
2
100
AcDbLine
 10
-145.55158
 20
612.113388
 30
0.0
 11
-145.55158
 21
592.113388
 31
0.0
  0
LINE
  5
472
100
AcDbEntity
  8
2
100
AcDbLine
 10
-145.55158
 20
612.113388
 30
0.0
 11
-166.73958
 21
612.113388
 31
0.0
  0
LINE
  5
473
100
AcDbEntity
  8
2
100
AcDbLine
 10
-205.73958
 20
612.113388
 30
0.0
 11
-707.73958
 21
612.113388
 31
0.0
  0
LINE
  5
474
100
AcDbEntity
  8
2
100
AcDbLine
 10
-145.55158
 20
592.113388
 30
0.0
 11
-166.73958
 21
592.113388
 31
0.0
  0
LINE
  5
475
100
AcDbEntity
  8
2
100
AcDbLine
 10
-205.73958
 20
592.113388
 30
0.0
 11
-707.73958
 21
592.113388
 31
0.0
  0
LINE
  5
476
100
AcDbEntity
  8
2
100
AcDbLine
 10
-206.73958
 20
619.613388
 30
0.0
 11
-206.73958
 21
612.113388
 31
0.0
  0
LINE
  5
477
100
AcDbEntity
  8
2
100
AcDbLine
 10
-206.73958
 20
592.113388
 30
0.0
 11
-206.73958
 21
427.113388
 31
0.0
  0
LINE
  5
478
100
AcDbEntity
  8
2
100
AcDbLine
 10
-206.73958
 20
407.113388
 30
0.0
 11
-206.73958
 21
399.613388
 31
0.0
  0
ARC
  5
479
100
AcDbEntity
  8
2
100
AcDbCircle
 10
-170.73958
 20
424.128106
 30
0.0
 40
6.0
100
AcDbArc
 50
29.837836
 51
45.0
  0
LINE
  5
47A
100
AcDbEntity
  8
2
100
AcDbLine
 10
-166.496939
 20
428.370747
 30
0.0
 11
-166.73958
 21
428.613388
 31
0.0
  0
LINE
  5
47B
100
AcDbEntity
  8
2
100
AcDbLine
 10
-172.53958
 20
434.413388
 30
0.0
 11
-180.98222
 21
442.856028
 31
0.0
  0
LINE
  5
47C
100
AcDbEntity
  8
2
100
AcDbLine
 10
-166.496939
 20
590.856028
 30
0.0
 11
-166.73958
 21
590.613388
 31
0.0
  0
LINE
  5
47D
100
AcDbEntity
  8
2
100
AcDbLine
 10
-172.53958
 20
584.813388
 30
0.0
 11
-180.98222
 21
576.370747
 31
0.0
  0
CIRCLE
  5
47E
100
AcDbEntity
  8
2
 62
     2
100
AcDbCircle
 10
-725.73958
 20
524.613388
 30
0.0
 40
6.0
  0
CIRCLE
  5
47F
100
AcDbEntity
  8
2
100
AcDbCircle
 10
-725.73958
 20
524.613388
 30
0.0
 40
5.053
  0
LINE
  5
480
100
AcDbEntity
  8
2
100
AcDbLine
 10
-707.73958
 20
132.613388
 30
0.0
 11
-734.73958
 21
132.613388
 31
0.0
  0
LINE
  5
481
100
AcDbEntity
  8
2
100
AcDbLine
 10
-707.73958
 20
-93.386612
 30
0.0
 11
-734.73958
 21
-93.386612
 31
0.0
  0
ARC
  5
482
100
AcDbEntity
  8
2
100
AcDbCircle
 10
-734.73958
 20
127.613388
 30
0.0
 40
5.0
100
AcDbArc
 50
90.0
 51
180.0
  0
ARC
  5
483
100
AcDbEntity
  8
2
100
AcDbCircle
 10
-734.73958
 20
-88.386612
 30
0.0
 40
5.0
100
AcDbArc
 50
180.0
 51
270.0
  0
LINE
  5
484
100
AcDbEntity
  8
2
100
AcDbLine
 10
-206.73958
 20
126.113388
 30
0.0
 11
-707.73958
 21
126.113388
 31
0.0
  0
LINE
  5
485
100
AcDbEntity
  8
2
100
AcDbLine
 10
-206.73958
 20
-86.886612
 30
0.0
 11
-707.73958
 21
-86.886612
 31
0.0
  0
LINE
  5
486
100
AcDbEntity
  8
2
100
AcDbLine
 10
-205.73958
 20
129.613388
 30
0.0
 11
-206.73958
 21
129.613388
 31
0.0
  0
LINE
  5
487
100
AcDbEntity
  8
2
100
AcDbLine
 10
-205.73958
 20
-90.386612
 30
0.0
 11
-206.73958
 21
-90.386612
 31
0.0
  0
LINE
  5
488
100
AcDbEntity
  8
2
100
AcDbLine
 10
-185.73958
 20
132.613388
 30
0.0
 11
-205.73958
 21
132.613388
 31
0.0
  0
LINE
  5
489
100
AcDbEntity
  8
2
100
AcDbLine
 10
-185.73958
 20
-93.386612
 30
0.0
 11
-205.73958
 21
-93.386612
 31
0.0
  0
ARC
  5
48A
100
AcDbEntity
  8
2
100
AcDbCircle
 10
-185.73958
 20
129.613388
 30
0.0
 40
3.0
100
AcDbArc
 50
0.0
 51
90.0
  0
ARC
  5
48B
100
AcDbEntity
  8
2
100
AcDbCircle
 10
-185.73958
 20
-90.386612
 30
0.0
 40
3.0
100
AcDbArc
 50
270.0
 51
360.0
  0
LINE
  5
48C
100
AcDbEntity
  8
2
100
AcDbLine
 10
-173.73958
 20
54.613388
 30
0.0
 11
-177.574428
 21
54.613388
 31
0.0
  0
LINE
  5
48D
100
AcDbEntity
  8
2
100
AcDbLine
 10
-173.73958
 20
-15.386612
 30
0.0
 11
-179.73958
 21
-15.386612
 31
0.0
  0
ARC
  5
48E
100
AcDbEntity
  8
2
100
AcDbCircle
 10
-179.73958
 20
-18.386612
 30
0.0
 40
3.0
100
AcDbArc
 50
90.0
 51
180.0
  0
ARC
  5
48F
100
AcDbEntity
  8
2
100
AcDbCircle
 10
-743.73958
 20
95.613388
 30
0.0
 40
4.0
100
AcDbArc
 50
270.0
 51
360.0
  0
ARC
  5
490
100
AcDbEntity
  8
2
100
AcDbCircle
 10
-743.73958
 20
-56.386612
 30
0.0
 40
4.0
100
AcDbArc
 50
0.0
 51
90.0
  0
LINE
  5
491
100
AcDbEntity
  8
2
100
AcDbLine
 10
-182.73958
 20
-90.386612
 30
0.0
 11
-182.73958
 21
8.459994
 31
0.0
  0
LINE
  5
492
100
AcDbEntity
  8
2
100
AcDbLine
 10
-182.73958
 20
60.766781
 30
0.0
 11
-182.73958
 21
129.613388
 31
0.0
  0
ARC
  5
493
100
AcDbEntity
  8
2
100
AcDbCircle
 10
-176.73958
 20
60.766781
 30
0.0
 40
6.0
100
AcDbArc
 50
180.0
 51
249.075168
  0
ARC
  5
494
100
AcDbEntity
  8
2
100
AcDbCircle
 10
-186.73958
 20
34.613388
 30
0.0
 40
22.0
100
AcDbArc
 50
290.924831
 51
69.075169
  0
LINE
  5
495
100
AcDbEntity
  8
2
100
AcDbLine
 10
-173.73958
 20
-15.386612
 30
0.0
 11
-173.73958
 21
16.865148
 31
0.0
  0
LINE
  5
496
100
AcDbEntity
  8
2
100
AcDbLine
 10
-173.73958
 20
52.361627
 30
0.0
 11
-173.73958
 21
54.613388
 31
0.0
  0
LINE
  5
497
100
AcDbEntity
  8
2
100
AcDbLine
 10
-126.73958
 20
5.695888
 30
0.0
 11
-126.73958
 21
33.530888
 31
0.0
  0
LINE
  5
498
100
AcDbEntity
  8
2
100
AcDbLine
 10
-144.73958
 20
121.301388
 30
0.0
 11
-144.73958
 21
102.925388
 31
0.0
  0
LINE
  5
499
100
AcDbEntity
  8
2
 62
     2
100
AcDbLine
 10
-144.73958
 20
121.301388
 30
0.0
 11
-166.73958
 21
121.301388
 31
0.0
  0
LINE
  5
49A
100
AcDbEntity
  8
2
 62
     2
100
AcDbLine
 10
-144.73958
 20
102.925388
 30
0.0
 11
-166.73958
 21
102.925388
 31
0.0
  0
LINE
  5
49B
100
AcDbEntity
  8
2
100
AcDbLine
 10
-144.73958
 20
121.301388
 30
0.0
 11
-145.55158
 21
122.113388
 31
0.0
  0
LINE
  5
49C
100
AcDbEntity
  8
2
100
AcDbLine
 10
-144.73958
 20
102.925388
 30
0.0
 11
-145.55158
 21
102.113388
 31
0.0
  0
LINE
  5
49D
100
AcDbEntity
  8
2
100
AcDbLine
 10
-145.55158
 20
122.113388
 30
0.0
 11
-145.55158
 21
102.113388
 31
0.0
  0
LINE
  5
49E
100
AcDbEntity
  8
2
100
AcDbLine
 10
-145.55158
 20
122.113388
 30
0.0
 11
-166.73958
 21
122.113388
 31
0.0
  0
LINE
  5
49F
100
AcDbEntity
  8
2
100
AcDbLine
 10
-205.73958
 20
122.113388
 30
0.0
 11
-707.73958
 21
122.113388
 31
0.0
  0
LINE
  5
4A0
100
AcDbEntity
  8
2
100
AcDbLine
 10
-145.55158
 20
102.113388
 30
0.0
 11
-166.73958
 21
102.113388
 31
0.0
  0
LINE
  5
4A1
100
AcDbEntity
  8
2
100
AcDbLine
 10
-205.73958
 20
102.113388
 30
0.0
 11
-707.73958
 21
102.113388
 31
0.0
  0
LINE
  5
4A2
100
AcDbEntity
  8
2
100
AcDbLine
 10
-144.73958
 20
-82.074612
 30
0.0
 11
-144.73958
 21
-63.698612
 31
0.0
  0
LINE
  5
4A3
100
AcDbEntity
  8
2
 62
     2
100
AcDbLine
 10
-144.73958
 20
-82.074612
 30
0.0
 11
-166.73958
 21
-82.074612
 31
0.0
  0
LINE
  5
4A4
100
AcDbEntity
  8
2
 62
     2
100
AcDbLine
 10
-144.73958
 20
-63.698612
 30
0.0
 11
-166.73958
 21
-63.698612
 31
0.0
  0
LINE
  5
4A5
100
AcDbEntity
  8
2
100
AcDbLine
 10
-144.73958
 20
-82.074612
 30
0.0
 11
-145.55158
 21
-82.886612
 31
0.0
  0
LINE
  5
4A6
100
AcDbEntity
  8
2
100
AcDbLine
 10
-144.73958
 20
-63.698612
 30
0.0
 11
-145.55158
 21
-62.886612
 31
0.0
  0
LINE
  5
4A7
100
AcDbEntity
  8
2
100
AcDbLine
 10
-145.55158
 20
-82.886612
 30
0.0
 11
-145.55158
 21
-62.886612
 31
0.0
  0
LINE
  5
4A8
100
AcDbEntity
  8
2
100
AcDbLine
 10
-145.55158
 20
-82.886612
 30
0.0
 11
-166.73958
 21
-82.886612
 31
0.0
  0
LINE
  5
4A9
100
AcDbEntity
  8
2
100
AcDbLine
 10
-205.73958
 20
-82.886612
 30
0.0
 11
-707.73958
 21
-82.886612
 31
0.0
  0
LINE
  5
4AA
100
AcDbEntity
  8
2
100
AcDbLine
 10
-145.55158
 20
-62.886612
 30
0.0
 11
-166.73958
 21
-62.886612
 31
0.0
  0
LINE
  5
4AB
100
AcDbEntity
  8
2
100
AcDbLine
 10
-205.73958
 20
-62.886612
 30
0.0
 11
-707.73958
 21
-62.886612
 31
0.0
  0
LINE
  5
4AC
100
AcDbEntity
  8
2
100
AcDbLine
 10
-206.73958
 20
122.113388
 30
0.0
 11
-206.73958
 21
129.613388
 31
0.0
  0
LINE
  5
4AD
100
AcDbEntity
  8
2
100
AcDbLine
 10
-206.73958
 20
-90.386612
 30
0.0
 11
-206.73958
 21
-82.886612
 31
0.0
  0
LINE
  5
4AE
100
AcDbEntity
  8
2
100
AcDbLine
 10
-739.73958
 20
-88.386612
 30
0.0
 11
-739.73958
 21
1.282388
 31
0.0
  0
ARC
  5
4AF
100
AcDbEntity
  8
2
100
AcDbCircle
 10
-176.73958
 20
8.459994
 30
0.0
 40
6.0
100
AcDbArc
 50
110.924832
 51
180.0
  0
LINE
  5
4B0
100
AcDbEntity
  8
2
100
AcDbLine
 10
-205.73958
 20
-93.386612
 30
0.0
 11
-205.73958
 21
23.990905
 31
0.0
  0
LINE
  5
4B1
100
AcDbEntity
  8
2
100
AcDbLine
 10
-205.73958
 20
44.99134
 30
0.0
 11
-205.73958
 21
132.613388
 31
0.0
  0
LINE
  5
4B2
100
AcDbEntity
  8
2
100
AcDbLine
 10
-206.73958
 20
-62.886612
 30
0.0
 11
-206.73958
 21
23.98447
 31
0.0
  0
LINE
  5
4B3
100
AcDbEntity
  8
2
100
AcDbLine
 10
-206.73958
 20
44.984905
 30
0.0
 11
-206.73958
 21
102.113388
 31
0.0
  0
LINE
  5
4B4
100
AcDbEntity
  8
2
100
AcDbLine
 10
-707.73958
 20
-93.386612
 30
0.0
 11
-707.73958
 21
26.260646
 31
0.0
  0
LINE
  5
4B5
100
AcDbEntity
  8
2
100
AcDbLine
 10
-707.73958
 20
36.260853
 30
0.0
 11
-707.73958
 21
132.613388
 31
0.0
  0
LINE
  5
4B6
100
AcDbEntity
  8
2
100
AcDbLine
 10
-739.73958
 20
17.944388
 30
0.0
 11
-739.73958
 21
26.054726
 31
0.0
  0
LINE
  5
4B7
100
AcDbEntity
  8
2
100
AcDbLine
 10
-739.73958
 20
36.054933
 30
0.0
 11
-739.73958
 21
127.613388
 31
0.0
  0
LINE
  5
4B8
100
AcDbEntity
  8
2
100
AcDbLine
 10
340.46042
 20
-11.386612
 30
0.0
 11
340.46042
 21
11.130825
 31
0.0
  0
LINE
  5
4B9
100
AcDbEntity
  8
2
100
AcDbLine
 10
340.46042
 20
28.09595
 30
0.0
 11
340.46042
 21
50.613388
 31
0.0
  0
LINE
  5
4BA
100
AcDbEntity
  8
2
100
AcDbLine
 10
337.26042
 20
-11.386612
 30
0.0
 11
337.26042
 21
11.230825
 31
0.0
  0
LINE
  5
4BB
100
AcDbEntity
  8
2
100
AcDbLine
 10
337.26042
 20
27.99595
 30
0.0
 11
337.26042
 21
50.613388
 31
0.0
  0
LINE
  5
4BC
100
AcDbEntity
  8
2
100
AcDbLine
 10
353.26042
 20
-49.886612
 30
0.0
 11
353.26042
 21
-45.886612
 31
0.0
  0
LINE
  5
4BD
100
AcDbEntity
  8
2
100
AcDbLine
 10
353.26042
 20
-56.886612
 30
0.0
 11
353.26042
 21
-52.886612
 31
0.0
  0
LINE
  5
4BE
100
AcDbEntity
  8
2
100
AcDbLine
 10
353.26042
 20
-63.886612
 30
0.0
 11
353.26042
 21
-59.886612
 31
0.0
  0
LINE
  5
4BF
100
AcDbEntity
  8
2
100
AcDbLine
 10
353.26042
 20
-142.386612
 30
0.0
 11
353.26042
 21
-78.386612
 31
0.0
  0
LINE
  5
4C0
100
AcDbEntity
  8
2
100
AcDbLine
 10
353.26042
 20
-70.886612
 30
0.0
 11
353.26042
 21
-66.886612
 31
0.0
  0
LINE
  5
4C1
100
AcDbEntity
  8
2
  6
CENTER
 62
     2
100
AcDbLine
 10
-1171.73958
 20
568.478663
 30
0.0
 11
-1171.73958
 21
631.895342
 31
0.0
  0
LINE
  5
4C2
100
AcDbEntity
  8
2
100
AcDbLine
 10
-1172.00975
 20
439.913388
 30
0.0
 11
-1180.469409
 21
439.913388
 31
0.0
  0
LINE
  5
4C3
100
AcDbEntity
  8
2
100
AcDbLine
 10
-1180.469409
 20
439.913388
 30
0.0
 11
-1181.73958
 21
442.113388
 31
0.0
  0
LINE
  5
4C4
100
AcDbEntity
  8
2
100
AcDbLine
 10
-1172.00975
 20
446.263388
 30
0.0
 11
-1180.469409
 21
446.263388
 31
0.0
  0
ARC
  5
4C5
100
AcDbEntity
  8
2
100
AcDbCircle
 10
-1176.387839
 20
443.088388
 30
0.0
 40
5.171058
100
AcDbArc
 50
142.121121
 51
217.878879
  0
ARC
  5
4C6
100
AcDbEntity
  8
2
100
AcDbCircle
 10
-1162.508897
 20
452.613388
 30
0.0
 40
19.05
100
AcDbArc
 50
160.528779
 51
199.471221
  0
LINE
  5
4C7
100
AcDbEntity
  8
2
100
AcDbLine
 10
-1172.00975
 20
465.313388
 30
0.0
 11
-1180.469409
 21
465.313388
 31
0.0
  0
LINE
  5
4C8
100
AcDbEntity
  8
2
100
AcDbLine
 10
-1180.469409
 20
465.313388
 30
0.0
 11
-1181.73958
 21
463.113388
 31
0.0
  0
LINE
  5
4C9
100
AcDbEntity
  8
2
100
AcDbLine
 10
-1181.73958
 20
463.113388
 30
0.0
 11
-1181.73958
 21
442.113388
 31
0.0
  0
LINE
  5
4CA
100
AcDbEntity
  8
2
100
AcDbLine
 10
-1172.00975
 20
458.963388
 30
0.0
 11
-1180.469409
 21
458.963388
 31
0.0
  0
ARC
  5
4CB
100
AcDbEntity
  8
2
100
AcDbCircle
 10
-1176.387839
 20
462.138388
 30
0.0
 40
5.171058
100
AcDbArc
 50
142.121121
 51
217.878879
  0
ARC
  5
4CC
100
AcDbEntity
  8
2
100
AcDbCircle
 10
-1189.970262
 20
452.613388
 30
0.0
 40
19.05
100
AcDbArc
 50
340.528779
 51
19.471221
  0
ARC
  5
4CD
100
AcDbEntity
  8
2
100
AcDbCircle
 10
-1176.09132
 20
443.088388
 30
0.0
 40
5.171058
100
AcDbArc
 50
322.121121
 51
37.878879
  0
ARC
  5
4CE
100
AcDbEntity
  8
2
100
AcDbCircle
 10
-1176.09132
 20
462.138388
 30
0.0
 40
5.171058
100
AcDbArc
 50
322.121121
 51
37.878879
  0
LINE
  5
4CF
100
AcDbEntity
  8
2
100
AcDbLine
 10
-1172.00975
 20
465.313388
 30
0.0
 11
-1170.73958
 21
463.113388
 31
0.0
  0
LINE
  5
4D0
100
AcDbEntity
  8
2
100
AcDbLine
 10
-1172.00975
 20
439.913388
 30
0.0
 11
-1170.73958
 21
442.113388
 31
0.0
  0
LINE
  5
4D1
100
AcDbEntity
  8
2
100
AcDbLine
 10
-1172.00975
 20
579.313388
 30
0.0
 11
-1180.469409
 21
579.313388
 31
0.0
  0
LINE
  5
4D2
100
AcDbEntity
  8
2
100
AcDbLine
 10
-1180.469409
 20
579.313388
 30
0.0
 11
-1181.73958
 21
577.113388
 31
0.0
  0
LINE
  5
4D3
100
AcDbEntity
  8
2
100
AcDbLine
 10
-1172.00975
 20
572.963388
 30
0.0
 11
-1180.469409
 21
572.963388
 31
0.0
  0
ARC
  5
4D4
100
AcDbEntity
  8
2
100
AcDbCircle
 10
-1176.387839
 20
576.138388
 30
0.0
 40
5.171058
100
AcDbArc
 50
142.121121
 51
217.878879
  0
ARC
  5
4D5
100
AcDbEntity
  8
2
100
AcDbCircle
 10
-1162.508897
 20
566.613388
 30
0.0
 40
19.05
100
AcDbArc
 50
160.528779
 51
199.471221
  0
LINE
  5
4D6
100
AcDbEntity
  8
2
100
AcDbLine
 10
-1172.00975
 20
553.913388
 30
0.0
 11
-1180.469409
 21
553.913388
 31
0.0
  0
LINE
  5
4D7
100
AcDbEntity
  8
2
100
AcDbLine
 10
-1180.469409
 20
553.913388
 30
0.0
 11
-1181.73958
 21
556.113388
 31
0.0
  0
LINE
  5
4D8
100
AcDbEntity
  8
2
100
AcDbLine
 10
-1181.73958
 20
556.113388
 30
0.0
 11
-1181.73958
 21
577.113388
 31
0.0
  0
LINE
  5
4D9
100
AcDbEntity
  8
2
100
AcDbLine
 10
-1172.00975
 20
560.263388
 30
0.0
 11
-1180.469409
 21
560.263388
 31
0.0
  0
ARC
  5
4DA
100
AcDbEntity
  8
2
100
AcDbCircle
 10
-1176.387839
 20
557.088388
 30
0.0
 40
5.171058
100
AcDbArc
 50
142.121121
 51
217.878879
  0
ARC
  5
4DB
100
AcDbEntity
  8
2
100
AcDbCircle
 10
-1189.970262
 20
566.613388
 30
0.0
 40
19.05
100
AcDbArc
 50
340.528779
 51
19.471221
  0
ARC
  5
4DC
100
AcDbEntity
  8
2
100
AcDbCircle
 10
-1176.09132
 20
576.138388
 30
0.0
 40
5.171058
100
AcDbArc
 50
322.121121
 51
37.878879
  0
ARC
  5
4DD
100
AcDbEntity
  8
2
100
AcDbCircle
 10
-1176.09132
 20
557.088388
 30
0.0
 40
5.171058
100
AcDbArc
 50
322.121121
 51
37.878879
  0
LINE
  5
4DE
100
AcDbEntity
  8
2
100
AcDbLine
 10
-1172.00975
 20
553.913388
 30
0.0
 11
-1170.73958
 21
556.113388
 31
0.0
  0
LINE
  5
4DF
100
AcDbEntity
  8
2
100
AcDbLine
 10
-1172.00975
 20
579.313388
 30
0.0
 11
-1170.73958
 21
577.113388
 31
0.0
  0
LINE
  5
4E0
100
AcDbEntity
  8
2
100
AcDbLine
 10
-1177.73958
 20
491.363388
 30
0.0
 11
-1177.73958
 21
527.863388
 31
0.0
  0
LINE
  5
4E1
100
AcDbEntity
  8
2
100
AcDbLine
 10
-1174.73958
 20
491.363388
 30
0.0
 11
-1177.73958
 21
491.363388
 31
0.0
  0
LINE
  5
4E2
100
AcDbEntity
  8
2
100
AcDbLine
 10
-1174.73958
 20
527.863388
 30
0.0
 11
-1177.73958
 21
527.863388
 31
0.0
  0
LINE
  5
4E3
100
AcDbEntity
  8
2
100
AcDbLine
 10
-1177.73958
 20
494.613388
 30
0.0
 11
-1193.73958
 21
494.613388
 31
0.0
  0
ARC
  5
4E4
100
AcDbEntity
  8
2
100
AcDbCircle
 10
-1175.533457
 20
502.113388
 30
0.0
 40
18.206122
100
AcDbArc
 50
155.672652
 51
204.327348
  0
LINE
  5
4E5
100
AcDbEntity
  8
2
100
AcDbLine
 10
-1193.73958
 20
524.613388
 30
0.0
 11
-1193.73958
 21
494.613388
 31
0.0
  0
ARC
  5
4E6
100
AcDbEntity
  8
2
100
AcDbCircle
 10
-1175.533457
 20
517.113388
 30
0.0
 40
18.206122
100
AcDbArc
 50
155.672652
 51
204.327348
  0
LINE
  5
4E7
100
AcDbEntity
  8
2
100
AcDbLine
 10
-1177.73958
 20
524.613388
 30
0.0
 11
-1193.73958
 21
524.613388
 31
0.0
  0
LINE
  5
4E8
100
AcDbEntity
  8
2
100
AcDbLine
 10
-1192.122999
 20
509.613388
 30
0.0
 11
-1177.73958
 21
509.613388
 31
0.0
  0
LINE
  5
4E9
100
AcDbEntity
  8
2
100
AcDbLine
 10
-870.48958
 20
628.313388
 30
0.0
 11
-870.48958
 21
631.82264
 31
0.0
  0
LINE
  5
4EA
100
AcDbEntity
  8
2
100
AcDbLine
 10
-870.48958
 20
631.82264
 30
0.0
 11
-869.63958
 21
632.313388
 31
0.0
  0
LINE
  5
4EB
100
AcDbEntity
  8
2
100
AcDbLine
 10
-867.61458
 20
628.313388
 30
0.0
 11
-867.61458
 21
631.82264
 31
0.0
  0
ARC
  5
4EC
100
AcDbEntity
  8
2
100
AcDbCircle
 10
-869.05208
 20
629.974685
 30
0.0
 40
2.341227
100
AcDbArc
 50
52.121121
 51
127.878879
  0
ARC
  5
4ED
100
AcDbEntity
  8
2
100
AcDbCircle
 10
-864.73958
 20
623.690912
 30
0.0
 40
8.625
100
AcDbArc
 50
70.528777
 51
109.471219
  0
LINE
  5
4EE
100
AcDbEntity
  8
2
100
AcDbLine
 10
-858.98958
 20
628.313388
 30
0.0
 11
-858.98958
 21
631.82264
 31
0.0
  0
LINE
  5
4EF
100
AcDbEntity
  8
2
100
AcDbLine
 10
-858.98958
 20
631.82264
 30
0.0
 11
-859.83958
 21
632.313388
 31
0.0
  0
LINE
  5
4F0
100
AcDbEntity
  8
2
100
AcDbLine
 10
-859.83958
 20
632.313388
 30
0.0
 11
-869.63958
 21
632.313388
 31
0.0
  0
LINE
  5
4F1
100
AcDbEntity
  8
2
100
AcDbLine
 10
-861.86458
 20
628.313388
 30
0.0
 11
-861.86458
 21
631.82264
 31
0.0
  0
ARC
  5
4F2
100
AcDbEntity
  8
2
100
AcDbCircle
 10
-860.42708
 20
629.974685
 30
0.0
 40
2.341227
100
AcDbArc
 50
52.121121
 51
127.878879
  0
LINE
  5
4F3
100
AcDbEntity
  8
2
100
AcDbLine
 10
-870.83958
 20
626.813388
 30
0.0
 11
-870.83958
 21
628.313388
 31
0.0
  0
LINE
  5
4F4
100
AcDbEntity
  8
2
100
AcDbLine
 10
-870.83958
 20
628.313388
 30
0.0
 11
-858.63958
 21
628.313388
 31
0.0
  0
LINE
  5
4F5
100
AcDbEntity
  8
2
100
AcDbLine
 10
-858.63958
 20
628.313388
 30
0.0
 11
-858.63958
 21
626.813388
 31
0.0
  0
LINE
  5
4F6
100
AcDbEntity
  8
2
100
AcDbLine
 10
-864.73958
 20
628.313388
 30
0.0
 11
-864.23958
 21
626.813388
 31
0.0
  0
LINE
  5
4F7
100
AcDbEntity
  8
2
100
AcDbLine
 10
-864.73958
 20
626.813388
 30
0.0
 11
-865.23958
 21
628.313388
 31
0.0
  0
LINE
  5
4F8
100
AcDbEntity
  8
2
100
AcDbLine
 10
-834.48958
 20
628.313388
 30
0.0
 11
-834.48958
 21
631.82264
 31
0.0
  0
LINE
  5
4F9
100
AcDbEntity
  8
2
100
AcDbLine
 10
-834.48958
 20
631.82264
 30
0.0
 11
-833.63958
 21
632.313388
 31
0.0
  0
LINE
  5
4FA
100
AcDbEntity
  8
2
100
AcDbLine
 10
-831.61458
 20
628.313388
 30
0.0
 11
-831.61458
 21
631.82264
 31
0.0
  0
ARC
  5
4FB
100
AcDbEntity
  8
2
100
AcDbCircle
 10
-833.05208
 20
629.974685
 30
0.0
 40
2.341227
100
AcDbArc
 50
52.121121
 51
127.878879
  0
ARC
  5
4FC
100
AcDbEntity
  8
2
100
AcDbCircle
 10
-828.73958
 20
623.690912
 30
0.0
 40
8.625
100
AcDbArc
 50
70.528777
 51
109.471219
  0
LINE
  5
4FD
100
AcDbEntity
  8
2
100
AcDbLine
 10
-822.98958
 20
628.313388
 30
0.0
 11
-822.98958
 21
631.82264
 31
0.0
  0
LINE
  5
4FE
100
AcDbEntity
  8
2
100
AcDbLine
 10
-822.98958
 20
631.82264
 30
0.0
 11
-823.83958
 21
632.313388
 31
0.0
  0
LINE
  5
4FF
100
AcDbEntity
  8
2
100
AcDbLine
 10
-823.83958
 20
632.313388
 30
0.0
 11
-833.63958
 21
632.313388
 31
0.0
  0
LINE
  5
500
100
AcDbEntity
  8
2
100
AcDbLine
 10
-825.86458
 20
628.313388
 30
0.0
 11
-825.86458
 21
631.82264
 31
0.0
  0
ARC
  5
501
100
AcDbEntity
  8
2
100
AcDbCircle
 10
-824.42708
 20
629.974685
 30
0.0
 40
2.341227
100
AcDbArc
 50
52.121121
 51
127.878879
  0
LINE
  5
502
100
AcDbEntity
  8
2
100
AcDbLine
 10
-834.83958
 20
626.813388
 30
0.0
 11
-834.83958
 21
628.313388
 31
0.0
  0
LINE
  5
503
100
AcDbEntity
  8
2
100
AcDbLine
 10
-834.83958
 20
628.313388
 30
0.0
 11
-822.63958
 21
628.313388
 31
0.0
  0
LINE
  5
504
100
AcDbEntity
  8
2
100
AcDbLine
 10
-822.63958
 20
628.313388
 30
0.0
 11
-822.63958
 21
626.813388
 31
0.0
  0
LINE
  5
505
100
AcDbEntity
  8
2
100
AcDbLine
 10
-828.73958
 20
628.313388
 30
0.0
 11
-828.23958
 21
626.813388
 31
0.0
  0
LINE
  5
506
100
AcDbEntity
  8
2
100
AcDbLine
 10
-828.73958
 20
626.813388
 30
0.0
 11
-829.23958
 21
628.313388
 31
0.0
  0
LINE
  5
507
100
AcDbEntity
  8
2
100
AcDbLine
 10
341.96042
 20
-9.386612
 30
0.0
 11
345.96042
 21
-9.386612
 31
0.0
  0
LINE
  5
508
100
AcDbEntity
  8
2
100
AcDbLine
 10
345.96042
 20
-9.386612
 30
0.0
 11
345.96042
 21
0.613388
 31
0.0
  0
ARC
  5
509
100
AcDbEntity
  8
2
100
AcDbCircle
 10
339.347213
 20
-6.886612
 30
0.0
 40
6.613208
100
AcDbArc
 50
337.788205
 51
22.211795
  0
LINE
  5
50A
100
AcDbEntity
  8
2
100
AcDbLine
 10
341.96042
 20
0.613388
 30
0.0
 11
345.96042
 21
0.613388
 31
0.0
  0
LINE
  5
50B
100
AcDbEntity
  8
2
100
AcDbLine
 10
341.96042
 20
-4.386612
 30
0.0
 11
345.469673
 21
-4.386612
 31
0.0
  0
ARC
  5
50C
100
AcDbEntity
  8
2
100
AcDbCircle
 10
339.347213
 20
-1.886612
 30
0.0
 40
6.613208
100
AcDbArc
 50
337.788205
 51
22.211795
  0
LINE
  5
50D
100
AcDbEntity
  8
2
100
AcDbLine
 10
340.46042
 20
-10.486612
 30
0.0
 11
341.96042
 21
-10.486612
 31
0.0
  0
LINE
  5
50E
100
AcDbEntity
  8
2
100
AcDbLine
 10
341.96042
 20
-10.486612
 30
0.0
 11
341.96042
 21
1.713388
 31
0.0
  0
LINE
  5
50F
100
AcDbEntity
  8
2
100
AcDbLine
 10
341.96042
 20
1.713388
 30
0.0
 11
340.46042
 21
1.713388
 31
0.0
  0
LINE
  5
510
100
AcDbEntity
  8
2
100
AcDbLine
 10
341.96042
 20
48.613388
 30
0.0
 11
345.96042
 21
48.613388
 31
0.0
  0
LINE
  5
511
100
AcDbEntity
  8
2
100
AcDbLine
 10
345.96042
 20
48.613388
 30
0.0
 11
345.96042
 21
38.613388
 31
0.0
  0
ARC
  5
512
100
AcDbEntity
  8
2
100
AcDbCircle
 10
339.347213
 20
46.113388
 30
0.0
 40
6.613208
100
AcDbArc
 50
337.788205
 51
22.211795
  0
LINE
  5
513
100
AcDbEntity
  8
2
100
AcDbLine
 10
341.96042
 20
38.613388
 30
0.0
 11
345.96042
 21
38.613388
 31
0.0
  0
LINE
  5
514
100
AcDbEntity
  8
2
100
AcDbLine
 10
341.96042
 20
43.613388
 30
0.0
 11
345.469673
 21
43.613388
 31
0.0
  0
ARC
  5
515
100
AcDbEntity
  8
2
100
AcDbCircle
 10
339.347213
 20
41.113388
 30
0.0
 40
6.613208
100
AcDbArc
 50
337.788205
 51
22.211795
  0
LINE
  5
516
100
AcDbEntity
  8
2
100
AcDbLine
 10
340.46042
 20
49.713388
 30
0.0
 11
341.96042
 21
49.713388
 31
0.0
  0
LINE
  5
517
100
AcDbEntity
  8
2
100
AcDbLine
 10
341.96042
 20
49.713388
 30
0.0
 11
341.96042
 21
37.513388
 31
0.0
  0
LINE
  5
518
100
AcDbEntity
  8
2
100
AcDbLine
 10
341.96042
 20
37.513388
 30
0.0
 11
340.46042
 21
37.513388
 31
0.0
  0
LINE
  5
519
100
AcDbEntity
  8
2
100
AcDbLine
 10
-1170.73958
 20
87.613388
 30
0.0
 11
-1181.73958
 21
87.613388
 31
0.0
  0
LINE
  5
51A
100
AcDbEntity
  8
2
100
AcDbLine
 10
-1181.73958
 20
87.613388
 30
0.0
 11
-1181.73958
 21
65.613388
 31
0.0
  0
ARC
  5
51B
100
AcDbEntity
  8
2
100
AcDbCircle
 10
-1169.196645
 20
82.113388
 30
0.0
 40
12.542935
100
AcDbArc
 50
153.992176
 51
206.007824
  0
LINE
  5
51C
100
AcDbEntity
  8
2
100
AcDbLine
 10
-1170.73958
 20
65.613388
 30
0.0
 11
-1181.73958
 21
65.613388
 31
0.0
  0
ARC
  5
51D
100
AcDbEntity
  8
2
100
AcDbCircle
 10
-1169.196645
 20
71.113388
 30
0.0
 40
12.542935
100
AcDbArc
 50
153.992176
 51
206.007824
  0
LINE
  5
51E
100
AcDbEntity
  8
2
100
AcDbLine
 10
-1180.469409
 20
76.613388
 30
0.0
 11
-1172.00975
 21
76.613388
 31
0.0
  0
ARC
  5
51F
100
AcDbEntity
  8
2
100
AcDbCircle
 10
-1183.282514
 20
82.113388
 30
0.0
 40
12.542935
100
AcDbArc
 50
333.992176
 51
26.007824
  0
ARC
  5
520
100
AcDbEntity
  8
2
100
AcDbCircle
 10
-1183.282514
 20
71.113388
 30
0.0
 40
12.542935
100
AcDbArc
 50
333.992176
 51
26.007824
  0
LINE
  5
521
100
AcDbEntity
  8
2
100
AcDbLine
 10
-1170.73958
 20
-48.386612
 30
0.0
 11
-1181.73958
 21
-48.386612
 31
0.0
  0
LINE
  5
522
100
AcDbEntity
  8
2
100
AcDbLine
 10
-1181.73958
 20
-48.386612
 30
0.0
 11
-1181.73958
 21
-26.386612
 31
0.0
  0
ARC
  5
523
100
AcDbEntity
  8
2
100
AcDbCircle
 10
-1169.196645
 20
-42.886612
 30
0.0
 40
12.542935
100
AcDbArc
 50
153.992176
 51
206.007824
  0
LINE
  5
524
100
AcDbEntity
  8
2
100
AcDbLine
 10
-1170.73958
 20
-26.386612
 30
0.0
 11
-1181.73958
 21
-26.386612
 31
0.0
  0
ARC
  5
525
100
AcDbEntity
  8
2
100
AcDbCircle
 10
-1169.196645
 20
-31.886612
 30
0.0
 40
12.542935
100
AcDbArc
 50
153.992176
 51
206.007824
  0
LINE
  5
526
100
AcDbEntity
  8
2
100
AcDbLine
 10
-1180.469409
 20
-37.386612
 30
0.0
 11
-1172.00975
 21
-37.386612
 31
0.0
  0
ARC
  5
527
100
AcDbEntity
  8
2
100
AcDbCircle
 10
-1183.282514
 20
-42.886612
 30
0.0
 40
12.542935
100
AcDbArc
 50
333.992176
 51
26.007824
  0
ARC
  5
528
100
AcDbEntity
  8
2
100
AcDbCircle
 10
-1183.282514
 20
-31.886612
 30
0.0
 40
12.542935
100
AcDbArc
 50
333.992176
 51
26.007824
  0
LINE
  5
529
100
AcDbEntity
  8
2
100
AcDbLine
 10
-1174.73958
 20
37.863388
 30
0.0
 11
-1177.73958
 21
37.863388
 31
0.0
  0
LINE
  5
52A
100
AcDbEntity
  8
2
100
AcDbLine
 10
-1177.73958
 20
36.913388
 30
0.0
 11
-1192.122999
 21
36.913388
 31
0.0
  0
LINE
  5
52B
100
AcDbEntity
  8
2
100
AcDbLine
 10
-1192.122999
 20
36.913388
 30
0.0
 11
-1193.73958
 21
34.113388
 31
0.0
  0
LINE
  5
52C
100
AcDbEntity
  8
2
100
AcDbLine
 10
-1193.73958
 20
34.113388
 30
0.0
 11
-1193.73958
 21
5.113388
 31
0.0
  0
LINE
  5
52D
100
AcDbEntity
  8
2
100
AcDbLine
 10
-1177.73958
 20
28.263388
 30
0.0
 11
-1192.122999
 21
28.263388
 31
0.0
  0
ARC
  5
52E
100
AcDbEntity
  8
2
100
AcDbCircle
 10
-1186.563065
 20
32.588388
 30
0.0
 40
7.04404
100
AcDbArc
 50
142.121121
 51
217.878879
  0
LINE
  5
52F
100
AcDbEntity
  8
2
100
AcDbLine
 10
-1188.192847
 20
2.313388
 30
0.0
 11
-1192.122999
 21
2.313388
 31
0.0
  0
LINE
  5
530
100
AcDbEntity
  8
2
100
AcDbLine
 10
-1192.122999
 20
2.313388
 30
0.0
 11
-1193.73958
 21
5.113388
 31
0.0
  0
LINE
  5
531
100
AcDbEntity
  8
2
100
AcDbLine
 10
-1189.688883
 20
10.963388
 30
0.0
 11
-1192.122999
 21
10.963388
 31
0.0
  0
ARC
  5
532
100
AcDbEntity
  8
2
100
AcDbCircle
 10
-1186.563065
 20
6.638388
 30
0.0
 40
7.04404
100
AcDbArc
 50
142.121121
 51
217.878879
  0
ARC
  5
533
100
AcDbEntity
  8
2
100
AcDbCircle
 10
-1167.657104
 20
19.613388
 30
0.0
 40
25.95
100
AcDbArc
 50
160.528779
 51
199.471221
  0
LINE
  5
534
100
AcDbEntity
  8
2
100
AcDbLine
 10
-1177.73958
 20
26.58395
 30
0.0
 11
-1177.73958
 21
37.863388
 31
0.0
  0
LINE
  5
535
100
AcDbEntity
  8
2
100
AcDbLine
 10
-871.73958
 20
104.953134
 30
0.0
 11
-871.73958
 21
108.726636
 31
0.0
  0
LINE
  5
536
100
AcDbEntity
  8
2
100
AcDbLine
 10
-826.73958
 20
111.613388
 30
0.0
 11
-866.73958
 21
111.613388
 31
0.0
  0
LINE
  5
537
100
AcDbEntity
  8
2
100
AcDbLine
 10
-866.73958
 20
111.613388
 30
0.0
 11
-871.73958
 21
108.726636
 31
0.0
  0
LINE
  5
538
100
AcDbEntity
  8
2
100
AcDbLine
 10
-866.73958
 20
103.613388
 30
0.0
 11
-871.73958
 21
100.613388
 31
0.0
  0
LINE
  5
539
100
AcDbEntity
  8
2
100
AcDbLine
 10
-866.73958
 20
103.613388
 30
0.0
 11
-871.73958
 21
104.953134
 31
0.0
  0
LINE
  5
53A
100
AcDbEntity
  8
2
100
AcDbLine
 10
-821.73958
 20
104.953134
 30
0.0
 11
-821.73958
 21
108.726636
 31
0.0
  0
LINE
  5
53B
100
AcDbEntity
  8
2
100
AcDbLine
 10
-826.73958
 20
111.613388
 30
0.0
 11
-821.73958
 21
108.726636
 31
0.0
  0
LINE
  5
53C
100
AcDbEntity
  8
2
100
AcDbLine
 10
-826.73958
 20
103.613388
 30
0.0
 11
-821.73958
 21
100.613388
 31
0.0
  0
LINE
  5
53D
100
AcDbEntity
  8
2
100
AcDbLine
 10
-826.73958
 20
103.613388
 30
0.0
 11
-821.73958
 21
104.953134
 31
0.0
  0
LINE
  5
53E
100
AcDbEntity
  8
2
100
AcDbLine
 10
-871.73958
 20
108.726636
 30
0.0
 11
-821.73958
 21
108.726636
 31
0.0
  0
LINE
  5
53F
100
AcDbEntity
  8
2
100
AcDbLine
 10
-871.73958
 20
104.953134
 30
0.0
 11
-821.73958
 21
104.953134
 31
0.0
  0
LINE
  5
540
100
AcDbEntity
  8
2
100
AcDbLine
 10
-826.73958
 20
103.613388
 30
0.0
 11
-866.73958
 21
103.613388
 31
0.0
  0
LINE
  5
541
100
AcDbEntity
  8
2
100
AcDbLine
 10
-172.13958
 20
532.613388
 30
0.0
 11
-148.13958
 21
532.613388
 31
0.0
  0
LINE
  5
542
100
AcDbEntity
  8
2
100
AcDbLine
 10
-148.13958
 20
532.613388
 30
0.0
 11
-148.13958
 21
486.613388
 31
0.0
  0
ARC
  5
543
100
AcDbEntity
  8
2
100
AcDbCircle
 10
-174.624889
 20
521.113388
 30
0.0
 40
26.485309
100
AcDbArc
 50
334.265411
 51
25.734589
  0
LINE
  5
544
100
AcDbEntity
  8
2
100
AcDbLine
 10
-172.13958
 20
486.613388
 30
0.0
 11
-148.13958
 21
486.613388
 31
0.0
  0
ARC
  5
545
100
AcDbEntity
  8
2
100
AcDbCircle
 10
-174.624889
 20
498.113388
 30
0.0
 40
26.485309
100
AcDbArc
 50
334.265411
 51
25.734589
  0
LINE
  5
546
100
AcDbEntity
  8
2
100
AcDbLine
 10
-150.766523
 20
509.613388
 30
0.0
 11
-172.13958
 21
509.613388
 31
0.0
  0
LINE
  5
547
100
AcDbEntity
  8
2
100
AcDbLine
 10
-127.82208
 20
494.613388
 30
0.0
 11
-148.13958
 21
494.613388
 31
0.0
  0
LINE
  5
548
100
AcDbEntity
  8
2
100
AcDbLine
 10
-127.82208
 20
524.613388
 30
0.0
 11
-148.13958
 21
524.613388
 31
0.0
  0
LINE
  5
549
100
AcDbEntity
  8
2
 62
     2
100
AcDbLine
 10
-126.73958
 20
495.695888
 30
0.0
 11
-148.13958
 21
495.695888
 31
0.0
  0
LINE
  5
54A
100
AcDbEntity
  8
2
 62
     2
100
AcDbLine
 10
-126.73958
 20
523.530888
 30
0.0
 11
-148.13958
 21
523.530888
 31
0.0
  0
LINE
  5
54B
100
AcDbEntity
  8
2
100
AcDbLine
 10
-126.73958
 20
495.695888
 30
0.0
 11
-127.82208
 21
494.613388
 31
0.0
  0
LINE
  5
54C
100
AcDbEntity
  8
2
100
AcDbLine
 10
-126.73958
 20
523.530888
 30
0.0
 11
-127.82208
 21
524.613388
 31
0.0
  0
LINE
  5
54D
100
AcDbEntity
  8
2
100
AcDbLine
 10
-132.73958
 20
511.113388
 30
0.0
 11
-132.73958
 21
508.113388
 31
0.0
  0
LINE
  5
54E
100
AcDbEntity
  8
2
100
AcDbLine
 10
-126.73958
 20
508.113388
 30
0.0
 11
-132.73958
 21
508.113388
 31
0.0
  0
LINE
  5
54F
100
AcDbEntity
  8
2
100
AcDbLine
 10
-126.73958
 20
511.113388
 30
0.0
 11
-132.73958
 21
511.113388
 31
0.0
  0
LINE
  5
550
100
AcDbEntity
  8
2
100
AcDbLine
 10
-127.82208
 20
524.613388
 30
0.0
 11
-127.82208
 21
511.113388
 31
0.0
  0
LINE
  5
551
100
AcDbEntity
  8
2
100
AcDbLine
 10
-127.82208
 20
508.113388
 30
0.0
 11
-127.82208
 21
494.613388
 31
0.0
  0
LINE
  5
552
100
AcDbEntity
  8
2
100
AcDbLine
 10
-181.122999
 20
434.413388
 30
0.0
 11
-168.35616
 21
434.413388
 31
0.0
  0
LINE
  5
553
100
AcDbEntity
  8
2
100
AcDbLine
 10
-168.35616
 20
434.413388
 30
0.0
 11
-166.73958
 21
431.613388
 31
0.0
  0
LINE
  5
554
100
AcDbEntity
  8
2
100
AcDbLine
 10
-181.122999
 20
425.763388
 30
0.0
 11
-168.35616
 21
425.763388
 31
0.0
  0
ARC
  5
555
100
AcDbEntity
  8
2
100
AcDbCircle
 10
-173.916095
 20
430.088388
 30
0.0
 40
7.04404
100
AcDbArc
 50
322.121121
 51
37.878879
  0
LINE
  5
556
100
AcDbEntity
  8
2
100
AcDbLine
 10
-181.122999
 20
399.813388
 30
0.0
 11
-168.35616
 21
399.813388
 31
0.0
  0
LINE
  5
557
100
AcDbEntity
  8
2
100
AcDbLine
 10
-168.35616
 20
399.813388
 30
0.0
 11
-166.73958
 21
402.613388
 31
0.0
  0
LINE
  5
558
100
AcDbEntity
  8
2
100
AcDbLine
 10
-166.73958
 20
402.613388
 30
0.0
 11
-166.73958
 21
431.613388
 31
0.0
  0
LINE
  5
559
100
AcDbEntity
  8
2
100
AcDbLine
 10
-181.122999
 20
408.463388
 30
0.0
 11
-168.35616
 21
408.463388
 31
0.0
  0
ARC
  5
55A
100
AcDbEntity
  8
2
100
AcDbCircle
 10
-173.916095
 20
404.138388
 30
0.0
 40
7.04404
100
AcDbArc
 50
322.121121
 51
37.878879
  0
ARC
  5
55B
100
AcDbEntity
  8
2
100
AcDbCircle
 10
-192.822055
 20
417.113388
 30
0.0
 40
25.95
100
AcDbArc
 50
340.528782
 51
19.471218
  0
ARC
  5
55C
100
AcDbEntity
  8
2
100
AcDbCircle
 10
-156.657104
 20
417.113388
 30
0.0
 40
25.95
100
AcDbArc
 50
160.528782
 51
199.471218
  0
ARC
  5
55D
100
AcDbEntity
  8
2
100
AcDbCircle
 10
-175.563065
 20
404.138388
 30
0.0
 40
7.04404
100
AcDbArc
 50
142.121121
 51
217.878879
  0
LINE
  5
55E
100
AcDbEntity
  8
2
100
AcDbLine
 10
-181.122999
 20
399.813388
 30
0.0
 11
-182.73958
 21
402.613388
 31
0.0
  0
ARC
  5
55F
100
AcDbEntity
  8
2
100
AcDbCircle
 10
-175.563065
 20
430.088388
 30
0.0
 40
7.04404
100
AcDbArc
 50
142.121121
 51
217.878879
  0
LINE
  5
560
100
AcDbEntity
  8
2
100
AcDbLine
 10
-181.122999
 20
434.413388
 30
0.0
 11
-182.73958
 21
431.613388
 31
0.0
  0
LINE
  5
561
100
AcDbEntity
  8
2
100
AcDbLine
 10
-181.122999
 20
619.413388
 30
0.0
 11
-168.35616
 21
619.413388
 31
0.0
  0
LINE
  5
562
100
AcDbEntity
  8
2
100
AcDbLine
 10
-168.35616
 20
619.413388
 30
0.0
 11
-166.73958
 21
616.613388
 31
0.0
  0
LINE
  5
563
100
AcDbEntity
  8
2
100
AcDbLine
 10
-181.122999
 20
610.763388
 30
0.0
 11
-168.35616
 21
610.763388
 31
0.0
  0
ARC
  5
564
100
AcDbEntity
  8
2
100
AcDbCircle
 10
-173.916095
 20
615.088388
 30
0.0
 40
7.04404
100
AcDbArc
 50
322.121121
 51
37.878879
  0
LINE
  5
565
100
AcDbEntity
  8
2
100
AcDbLine
 10
-181.122999
 20
584.813388
 30
0.0
 11
-168.35616
 21
584.813388
 31
0.0
  0
LINE
  5
566
100
AcDbEntity
  8
2
100
AcDbLine
 10
-168.35616
 20
584.813388
 30
0.0
 11
-166.73958
 21
587.613388
 31
0.0
  0
LINE
  5
567
100
AcDbEntity
  8
2
100
AcDbLine
 10
-166.73958
 20
587.613388
 30
0.0
 11
-166.73958
 21
616.613388
 31
0.0
  0
LINE
  5
568
100
AcDbEntity
  8
2
100
AcDbLine
 10
-181.122999
 20
593.463388
 30
0.0
 11
-168.35616
 21
593.463388
 31
0.0
  0
ARC
  5
569
100
AcDbEntity
  8
2
100
AcDbCircle
 10
-173.916095
 20
589.138388
 30
0.0
 40
7.04404
100
AcDbArc
 50
322.121121
 51
37.878879
  0
ARC
  5
56A
100
AcDbEntity
  8
2
100
AcDbCircle
 10
-192.822055
 20
602.113388
 30
0.0
 40
25.95
100
AcDbArc
 50
340.528782
 51
19.471218
  0
ARC
  5
56B
100
AcDbEntity
  8
2
100
AcDbCircle
 10
-156.657104
 20
602.113388
 30
0.0
 40
25.95
100
AcDbArc
 50
160.528782
 51
199.471218
  0
ARC
  5
56C
100
AcDbEntity
  8
2
100
AcDbCircle
 10
-175.563065
 20
589.138388
 30
0.0
 40
7.04404
100
AcDbArc
 50
142.121121
 51
217.878879
  0
LINE
  5
56D
100
AcDbEntity
  8
2
100
AcDbLine
 10
-181.122999
 20
584.813388
 30
0.0
 11
-182.73958
 21
587.613388
 31
0.0
  0
ARC
  5
56E
100
AcDbEntity
  8
2
100
AcDbCircle
 10
-175.563065
 20
615.088388
 30
0.0
 40
7.04404
100
AcDbArc
 50
142.121121
 51
217.878879
  0
LINE
  5
56F
100
AcDbEntity
  8
2
100
AcDbLine
 10
-181.122999
 20
619.413388
 30
0.0
 11
-182.73958
 21
616.613388
 31
0.0
  0
LINE
  5
570
100
AcDbEntity
  8
2
100
AcDbLine
 10
-172.13958
 20
485.613388
 30
0.0
 11
-172.13958
 21
533.613388
 31
0.0
  0
LINE
  5
571
100
AcDbEntity
  8
2
100
AcDbLine
 10
-172.13958
 20
485.613388
 30
0.0
 11
-173.73958
 21
485.613388
 31
0.0
  0
LINE
  5
572
100
AcDbEntity
  8
2
100
AcDbLine
 10
-172.13958
 20
533.613388
 30
0.0
 11
-173.73958
 21
533.613388
 31
0.0
  0
CIRCLE
  5
573
100
AcDbEntity
  8
2
100
AcDbCircle
 10
130.76042
 20
112.113388
 30
0.0
 40
14.5
  0
CIRCLE
  5
574
100
AcDbEntity
  8
2
100
AcDbCircle
 10
130.76042
 20
112.113388
 30
0.0
 40
10.0
  0
LINE
  5
575
100
AcDbEntity
  8
2
100
AcDbLine
 10
139.420674
 20
127.113388
 30
0.0
 11
122.100166
 21
127.113388
 31
0.0
  0
LINE
  5
576
100
AcDbEntity
  8
2
100
AcDbLine
 10
139.420674
 20
97.113388
 30
0.0
 11
122.100166
 21
97.113388
 31
0.0
  0
LINE
  5
577
100
AcDbEntity
  8
2
100
AcDbLine
 10
122.100166
 20
127.113388
 30
0.0
 11
113.439912
 21
112.113388
 31
0.0
  0
LINE
  5
578
100
AcDbEntity
  8
2
100
AcDbLine
 10
148.080928
 20
112.113388
 30
0.0
 11
139.420674
 21
97.113388
 31
0.0
  0
LINE
  5
579
100
AcDbEntity
  8
2
100
AcDbLine
 10
113.439912
 20
112.113388
 30
0.0
 11
122.100166
 21
97.113388
 31
0.0
  0
LINE
  5
57A
100
AcDbEntity
  8
2
100
AcDbLine
 10
139.420674
 20
127.113388
 30
0.0
 11
148.080928
 21
112.113388
 31
0.0
  0
CIRCLE
  5
57B
100
AcDbEntity
  8
2
 62
     2
100
AcDbCircle
 10
130.76042
 20
112.113388
 30
0.0
 40
9.188
  0
CIRCLE
  5
57C
100
AcDbEntity
  8
2
100
AcDbCircle
 10
315.76042
 20
112.113388
 30
0.0
 40
14.5
  0
CIRCLE
  5
57D
100
AcDbEntity
  8
2
100
AcDbCircle
 10
315.76042
 20
112.113388
 30
0.0
 40
10.0
  0
LINE
  5
57E
100
AcDbEntity
  8
2
100
AcDbLine
 10
307.100166
 20
127.113388
 30
0.0
 11
324.420674
 21
127.113388
 31
0.0
  0
LINE
  5
57F
100
AcDbEntity
  8
2
100
AcDbLine
 10
307.100166
 20
97.113388
 30
0.0
 11
324.420674
 21
97.113388
 31
0.0
  0
LINE
  5
580
100
AcDbEntity
  8
2
100
AcDbLine
 10
324.420674
 20
127.113388
 30
0.0
 11
333.080928
 21
112.113388
 31
0.0
  0
LINE
  5
581
100
AcDbEntity
  8
2
100
AcDbLine
 10
298.439912
 20
112.113388
 30
0.0
 11
307.100166
 21
97.113388
 31
0.0
  0
LINE
  5
582
100
AcDbEntity
  8
2
100
AcDbLine
 10
333.080928
 20
112.113388
 30
0.0
 11
324.420674
 21
97.113388
 31
0.0
  0
LINE
  5
583
100
AcDbEntity
  8
2
100
AcDbLine
 10
307.100166
 20
127.113388
 30
0.0
 11
298.439912
 21
112.113388
 31
0.0
  0
CIRCLE
  5
584
100
AcDbEntity
  8
2
 62
     2
100
AcDbCircle
 10
315.76042
 20
112.113388
 30
0.0
 40
9.188
  0
CIRCLE
  5
585
100
AcDbEntity
  8
2
100
AcDbCircle
 10
130.76042
 20
-72.886612
 30
0.0
 40
14.5
  0
CIRCLE
  5
586
100
AcDbEntity
  8
2
100
AcDbCircle
 10
130.76042
 20
-72.886612
 30
0.0
 40
10.0
  0
LINE
  5
587
100
AcDbEntity
  8
2
100
AcDbLine
 10
139.420674
 20
-87.886612
 30
0.0
 11
122.100166
 21
-87.886612
 31
0.0
  0
LINE
  5
588
100
AcDbEntity
  8
2
100
AcDbLine
 10
139.420674
 20
-57.886612
 30
0.0
 11
122.100166
 21
-57.886612
 31
0.0
  0
LINE
  5
589
100
AcDbEntity
  8
2
100
AcDbLine
 10
122.100166
 20
-87.886612
 30
0.0
 11
113.439912
 21
-72.886612
 31
0.0
  0
LINE
  5
58A
100
AcDbEntity
  8
2
100
AcDbLine
 10
148.080928
 20
-72.886612
 30
0.0
 11
139.420674
 21
-57.886612
 31
0.0
  0
LINE
  5
58B
100
AcDbEntity
  8
2
100
AcDbLine
 10
113.439912
 20
-72.886612
 30
0.0
 11
122.100166
 21
-57.886612
 31
0.0
  0
LINE
  5
58C
100
AcDbEntity
  8
2
100
AcDbLine
 10
139.420674
 20
-87.886612
 30
0.0
 11
148.080928
 21
-72.886612
 31
0.0
  0
CIRCLE
  5
58D
100
AcDbEntity
  8
2
 62
     2
100
AcDbCircle
 10
130.76042
 20
-72.886612
 30
0.0
 40
9.188
  0
CIRCLE
  5
58E
100
AcDbEntity
  8
2
100
AcDbCircle
 10
315.76042
 20
-72.886612
 30
0.0
 40
14.5
  0
CIRCLE
  5
58F
100
AcDbEntity
  8
2
100
AcDbCircle
 10
315.76042
 20
-72.886612
 30
0.0
 40
10.0
  0
LINE
  5
590
100
AcDbEntity
  8
2
100
AcDbLine
 10
307.100166
 20
-87.886612
 30
0.0
 11
324.420674
 21
-87.886612
 31
0.0
  0
LINE
  5
591
100
AcDbEntity
  8
2
100
AcDbLine
 10
307.100166
 20
-57.886612
 30
0.0
 11
324.420674
 21
-57.886612
 31
0.0
  0
LINE
  5
592
100
AcDbEntity
  8
2
100
AcDbLine
 10
324.420674
 20
-87.886612
 30
0.0
 11
333.080928
 21
-72.886612
 31
0.0
  0
LINE
  5
593
100
AcDbEntity
  8
2
100
AcDbLine
 10
298.439912
 20
-72.886612
 30
0.0
 11
307.100166
 21
-57.886612
 31
0.0
  0
LINE
  5
594
100
AcDbEntity
  8
2
100
AcDbLine
 10
333.080928
 20
-72.886612
 30
0.0
 11
324.420674
 21
-57.886612
 31
0.0
  0
LINE
  5
595
100
AcDbEntity
  8
2
100
AcDbLine
 10
307.100166
 20
-87.886612
 30
0.0
 11
298.439912
 21
-72.886612
 31
0.0
  0
CIRCLE
  5
596
100
AcDbEntity
  8
2
 62
     2
100
AcDbCircle
 10
315.76042
 20
-72.886612
 30
0.0
 40
9.188
  0
CIRCLE
  5
597
100
AcDbEntity
  8
2
100
AcDbCircle
 10
223.26042
 20
19.613388
 30
0.0
 40
22.0
  0
CIRCLE
  5
598
100
AcDbEntity
  8
2
100
AcDbCircle
 10
223.26042
 20
19.613388
 30
0.0
 40
15.0
  0
LINE
  5
599
100
AcDbEntity
  8
2
100
AcDbLine
 10
200.26042
 20
32.892444
 30
0.0
 11
200.26042
 21
6.334331
 31
0.0
  0
LINE
  5
59A
100
AcDbEntity
  8
2
100
AcDbLine
 10
246.26042
 20
32.892444
 30
0.0
 11
246.26042
 21
6.334331
 31
0.0
  0
LINE
  5
59B
100
AcDbEntity
  8
2
100
AcDbLine
 10
223.26042
 20
46.1715
 30
0.0
 11
246.26042
 21
32.892444
 31
0.0
  0
LINE
  5
59C
100
AcDbEntity
  8
2
100
AcDbLine
 10
200.26042
 20
6.334331
 30
0.0
 11
223.26042
 21
-6.944725
 31
0.0
  0
LINE
  5
59D
100
AcDbEntity
  8
2
100
AcDbLine
 10
223.26042
 20
-6.944725
 30
0.0
 11
246.26042
 21
6.334331
 31
0.0
  0
LINE
  5
59E
100
AcDbEntity
  8
2
100
AcDbLine
 10
200.26042
 20
32.892444
 30
0.0
 11
223.26042
 21
46.1715
 31
0.0
  0
LINE
  5
59F
100
AcDbEntity
  8
2
100
AcDbLine
 10
224.76042
 20
4.688576
 30
0.0
 11
224.76042
 21
34.538199
 31
0.0
  0
LINE
  5
5A0
100
AcDbEntity
  8
2
100
AcDbLine
 10
221.76042
 20
4.688576
 30
0.0
 11
221.76042
 21
34.538199
 31
0.0
  0
ARC
  5
5A1
100
AcDbEntity
  8
2
 62
     2
100
AcDbCircle
 10
223.26042
 20
19.613388
 30
0.0
 40
13.9175
100
AcDbArc
 50
96.187241
 51
263.812759
  0
ARC
  5
5A2
100
AcDbEntity
  8
2
 62
     2
100
AcDbCircle
 10
223.26042
 20
19.613388
 30
0.0
 40
13.9175
100
AcDbArc
 50
276.187241
 51
83.812759
  0
LINE
  5
5A3
100
AcDbEntity
  8
2
100
AcDbLine
 10
-172.13958
 20
-6.936612
 30
0.0
 11
-150.766523
 21
-6.936612
 31
0.0
  0
LINE
  5
5A4
100
AcDbEntity
  8
2
100
AcDbLine
 10
-150.766523
 20
-6.936612
 30
0.0
 11
-148.13958
 21
-2.386612
 31
0.0
  0
LINE
  5
5A5
100
AcDbEntity
  8
2
100
AcDbLine
 10
-148.13958
 20
-2.386612
 30
0.0
 11
-148.13958
 21
41.613388
 31
0.0
  0
LINE
  5
5A6
100
AcDbEntity
  8
2
100
AcDbLine
 10
-172.13958
 20
6.338388
 30
0.0
 11
-150.766523
 21
6.338388
 31
0.0
  0
ARC
  5
5A7
100
AcDbEntity
  8
2
100
AcDbCircle
 10
-159.299255
 20
-0.299112
 30
0.0
 40
10.810361
100
AcDbArc
 50
322.121121
 51
37.878879
  0
LINE
  5
5A8
100
AcDbEntity
  8
2
100
AcDbLine
 10
-168.015331
 20
46.163388
 30
0.0
 11
-150.766523
 21
46.163388
 31
0.0
  0
LINE
  5
5A9
100
AcDbEntity
  8
2
100
AcDbLine
 10
-150.766523
 20
46.163388
 30
0.0
 11
-148.13958
 21
41.613388
 31
0.0
  0
LINE
  5
5AA
100
AcDbEntity
  8
2
100
AcDbLine
 10
-164.807312
 20
32.888388
 30
0.0
 11
-150.766523
 21
32.888388
 31
0.0
  0
ARC
  5
5AB
100
AcDbEntity
  8
2
100
AcDbCircle
 10
-159.299255
 20
39.525888
 30
0.0
 40
10.810361
100
AcDbArc
 50
322.121121
 51
37.878879
  0
ARC
  5
5AC
100
AcDbEntity
  8
2
100
AcDbCircle
 10
-188.313893
 20
19.613388
 30
0.0
 40
39.825
100
AcDbArc
 50
340.528782
 51
19.471218
  0
LINE
  5
5AD
100
AcDbEntity
  8
2
100
AcDbLine
 10
-127.82208
 20
34.613388
 30
0.0
 11
-148.13958
 21
34.613388
 31
0.0
  0
LINE
  5
5AE
100
AcDbEntity
  8
2
100
AcDbLine
 10
-127.82208
 20
4.613388
 30
0.0
 11
-148.13958
 21
4.613388
 31
0.0
  0
LINE
  5
5AF
100
AcDbEntity
  8
2
 62
     2
100
AcDbLine
 10
-126.73958
 20
33.530888
 30
0.0
 11
-148.13958
 21
33.530888
 31
0.0
  0
LINE
  5
5B0
100
AcDbEntity
  8
2
 62
     2
100
AcDbLine
 10
-126.73958
 20
5.695888
 30
0.0
 11
-148.13958
 21
5.695888
 31
0.0
  0
LINE
  5
5B1
100
AcDbEntity
  8
2
100
AcDbLine
 10
-126.73958
 20
33.530888
 30
0.0
 11
-127.82208
 21
34.613388
 31
0.0
  0
LINE
  5
5B2
100
AcDbEntity
  8
2
100
AcDbLine
 10
-126.73958
 20
5.695888
 30
0.0
 11
-127.82208
 21
4.613388
 31
0.0
  0
LINE
  5
5B3
100
AcDbEntity
  8
2
100
AcDbLine
 10
-127.82208
 20
34.613388
 30
0.0
 11
-127.82208
 21
4.613388
 31
0.0
  0
LINE
  5
5B4
100
AcDbEntity
  8
2
100
AcDbLine
 10
-182.73958
 20
97.113388
 30
0.0
 11
-166.73958
 21
97.113388
 31
0.0
  0
LINE
  5
5B5
100
AcDbEntity
  8
2
100
AcDbLine
 10
-166.73958
 20
97.113388
 30
0.0
 11
-166.73958
 21
127.113388
 31
0.0
  0
ARC
  5
5B6
100
AcDbEntity
  8
2
100
AcDbCircle
 10
-184.945702
 20
104.613388
 30
0.0
 40
18.206122
100
AcDbArc
 50
335.672652
 51
24.327348
  0
LINE
  5
5B7
100
AcDbEntity
  8
2
100
AcDbLine
 10
-182.73958
 20
127.113388
 30
0.0
 11
-166.73958
 21
127.113388
 31
0.0
  0
ARC
  5
5B8
100
AcDbEntity
  8
2
100
AcDbCircle
 10
-184.945702
 20
119.613388
 30
0.0
 40
18.206122
100
AcDbArc
 50
335.672652
 51
24.327348
  0
ARC
  5
5B9
100
AcDbEntity
  8
2
100
AcDbCircle
 10
-164.533457
 20
119.613388
 30
0.0
 40
18.206122
100
AcDbArc
 50
155.672652
 51
204.327348
  0
ARC
  5
5BA
100
AcDbEntity
  8
2
100
AcDbCircle
 10
-164.533457
 20
104.613388
 30
0.0
 40
18.206122
100
AcDbArc
 50
155.672652
 51
204.327348
  0
LINE
  5
5BB
100
AcDbEntity
  8
2
100
AcDbLine
 10
-181.122999
 20
112.113388
 30
0.0
 11
-168.35616
 21
112.113388
 31
0.0
  0
LINE
  5
5BC
100
AcDbEntity
  8
2
100
AcDbLine
 10
-182.73958
 20
-57.886612
 30
0.0
 11
-166.73958
 21
-57.886612
 31
0.0
  0
LINE
  5
5BD
100
AcDbEntity
  8
2
100
AcDbLine
 10
-166.73958
 20
-57.886612
 30
0.0
 11
-166.73958
 21
-87.886612
 31
0.0
  0
ARC
  5
5BE
100
AcDbEntity
  8
2
100
AcDbCircle
 10
-184.945702
 20
-65.386612
 30
0.0
 40
18.206122
100
AcDbArc
 50
335.672652
 51
24.327348
  0
LINE
  5
5BF
100
AcDbEntity
  8
2
100
AcDbLine
 10
-182.73958
 20
-87.886612
 30
0.0
 11
-166.73958
 21
-87.886612
 31
0.0
  0
ARC
  5
5C0
100
AcDbEntity
  8
2
100
AcDbCircle
 10
-184.945702
 20
-80.386612
 30
0.0
 40
18.206122
100
AcDbArc
 50
335.672652
 51
24.327348
  0
ARC
  5
5C1
100
AcDbEntity
  8
2
100
AcDbCircle
 10
-164.533457
 20
-80.386612
 30
0.0
 40
18.206122
100
AcDbArc
 50
155.672652
 51
204.327348
  0
ARC
  5
5C2
100
AcDbEntity
  8
2
100
AcDbCircle
 10
-164.533457
 20
-65.386612
 30
0.0
 40
18.206122
100
AcDbArc
 50
155.672652
 51
204.327348
  0
LINE
  5
5C3
100
AcDbEntity
  8
2
100
AcDbLine
 10
-181.122999
 20
-72.886612
 30
0.0
 11
-168.35616
 21
-72.886612
 31
0.0
  0
LINE
  5
5C4
100
AcDbEntity
  8
2
100
AcDbLine
 10
-172.13958
 20
18.15617
 30
0.0
 11
-172.13958
 21
-6.936612
 31
0.0
  0
LINE
  5
5C5
100
AcDbEntity
  8
2
100
AcDbLine
 10
-172.13958
 20
-4.386612
 30
0.0
 11
-173.73958
 21
-4.386612
 31
0.0
  0
ARC
  5
5C6
100
AcDbEntity
  8
2
100
AcDbCircle
 10
223.26042
 20
19.613388
 30
0.0
 40
24.0
100
AcDbArc
 50
103.402158
 51
136.597842
  0
ARC
  5
5C7
100
AcDbEntity
  8
2
100
AcDbCircle
 10
223.26042
 20
19.613388
 30
0.0
 40
24.0
100
AcDbArc
 50
163.402158
 51
196.597842
  0
ARC
  5
5C8
100
AcDbEntity
  8
2
100
AcDbCircle
 10
223.26042
 20
19.613388
 30
0.0
 40
24.0
100
AcDbArc
 50
223.402158
 51
256.597842
  0
ARC
  5
5C9
100
AcDbEntity
  8
2
100
AcDbCircle
 10
223.26042
 20
19.613388
 30
0.0
 40
24.0
100
AcDbArc
 50
283.402158
 51
316.597842
  0
ARC
  5
5CA
100
AcDbEntity
  8
2
100
AcDbCircle
 10
223.26042
 20
19.613388
 30
0.0
 40
24.0
100
AcDbArc
 50
343.402158
 51
16.597842
  0
ARC
  5
5CB
100
AcDbEntity
  8
2
100
AcDbCircle
 10
223.26042
 20
19.613388
 30
0.0
 40
24.0
100
AcDbArc
 50
43.402158
 51
76.597842
  0
LINE
  5
5CC
100
AcDbEntity
  8
2
  6
CENTER
 62
     2
100
AcDbLine
 10
-101.049333
 20
509.613388
 30
0.0
 11
-1222.317186
 21
509.613388
 31
0.0
  0
LINE
  5
5CD
100
AcDbEntity
  8
2
  6
CENTER
 62
     2
100
AcDbLine
 10
-920.73958
 20
537.613388
 30
0.0
 11
-944.73958
 21
537.613388
 31
0.0
  0
LINE
  5
5CE
100
AcDbEntity
  8
2
  6
CENTER
 62
     2
100
AcDbLine
 10
-932.73958
 20
549.613388
 30
0.0
 11
-932.73958
 21
525.613388
 31
0.0
  0
LINE
  5
5CF
100
AcDbEntity
  8
2
  6
CENTER
 62
     2
100
AcDbLine
 10
-920.73958
 20
501.613388
 30
0.0
 11
-944.73958
 21
501.613388
 31
0.0
  0
LINE
  5
5D0
100
AcDbEntity
  8
2
  6
CENTER
 62
     2
100
AcDbLine
 10
-932.73958
 20
513.613388
 30
0.0
 11
-932.73958
 21
489.613388
 31
0.0
  0
LINE
  5
5D1
100
AcDbEntity
  8
2
  6
CENTER
 62
     2
100
AcDbLine
 10
-772.73958
 20
537.613388
 30
0.0
 11
-748.73958
 21
537.613388
 31
0.0
  0
LINE
  5
5D2
100
AcDbEntity
  8
2
  6
CENTER
 62
     2
100
AcDbLine
 10
-760.73958
 20
549.613388
 30
0.0
 11
-760.73958
 21
525.613388
 31
0.0
  0
LINE
  5
5D3
100
AcDbEntity
  8
2
  6
CENTER
 62
     2
100
AcDbLine
 10
-772.73958
 20
501.613388
 30
0.0
 11
-748.73958
 21
501.613388
 31
0.0
  0
LINE
  5
5D4
100
AcDbEntity
  8
2
  6
CENTER
 62
     2
100
AcDbLine
 10
-760.73958
 20
513.613388
 30
0.0
 11
-760.73958
 21
489.613388
 31
0.0
  0
LINE
  5
5D5
100
AcDbEntity
  8
2
  6
CENTER
 62
     2
100
AcDbLine
 10
-864.73958
 20
637.827281
 30
0.0
 11
-864.73958
 21
616.245296
 31
0.0
  0
LINE
  5
5D6
100
AcDbEntity
  8
2
  6
CENTER
 62
     2
100
AcDbLine
 10
-828.73958
 20
637.827281
 30
0.0
 11
-828.73958
 21
616.245296
 31
0.0
  0
LINE
  5
5D7
100
AcDbEntity
  8
2
  6
CENTER
 62
     2
100
AcDbLine
 10
-846.73958
 20
672.837375
 30
0.0
 11
-846.73958
 21
438.214355
 31
0.0
  0
LINE
  5
5D8
100
AcDbEntity
  8
2
  6
CENTER
 62
     2
100
AcDbLine
 10
-963.73958
 20
456.566737
 30
0.0
 11
-963.73958
 21
399.372908
 31
0.0
  0
LINE
  5
5D9
100
AcDbEntity
  8
2
  6
CENTER
 62
     2
100
AcDbLine
 10
-1171.73958
 20
450.748112
 30
0.0
 11
-1171.73958
 21
399.372908
 31
0.0
  0
LINE
  5
5DA
100
AcDbEntity
  8
2
  6
CENTER
 62
     2
100
AcDbLine
 10
-935.783174
 20
452.613388
 30
0.0
 11
-1210.403184
 21
452.613388
 31
0.0
  0
LINE
  5
5DB
100
AcDbEntity
  8
2
  6
CENTER
 62
     2
100
AcDbLine
 10
-935.783174
 20
566.613388
 30
0.0
 11
-1210.403184
 21
566.613388
 31
0.0
  0
LINE
  5
5DC
100
AcDbEntity
  8
2
  6
CENTER
 62
     2
100
AcDbLine
 10
-810.00692
 20
606.346048
 30
0.0
 11
-893.523761
 21
522.829206
 31
0.0
  0
LINE
  5
5DD
100
AcDbEntity
  8
2
  6
CENTER
 62
     2
100
AcDbLine
 10
223.26042
 20
160.139084
 30
0.0
 11
223.26042
 21
-117.256104
 31
0.0
  0
LINE
  5
5DE
100
AcDbEntity
  8
2
  6
CENTER
 62
     2
100
AcDbLine
 10
351.183089
 20
43.613388
 30
0.0
 11
325.977324
 21
43.613388
 31
0.0
  0
LINE
  5
5DF
100
AcDbEntity
  8
2
  6
CENTER
 62
     2
100
AcDbLine
 10
351.183089
 20
-4.386612
 30
0.0
 11
325.977324
 21
-4.386612
 31
0.0
  0
LINE
  5
5E0
100
AcDbEntity
  8
2
  6
CENTER
 62
     2
100
AcDbLine
 10
52.405285
 20
19.613388
 30
0.0
 11
386.542375
 21
19.613388
 31
0.0
  0
LINE
  5
5E1
100
AcDbEntity
  8
2
  6
CENTER
 62
     2
100
AcDbLine
 10
122.781539
 20
9.613388
 30
0.0
 11
69.231374
 21
9.613388
 31
0.0
  0
LINE
  5
5E2
100
AcDbEntity
  8
2
  6
CENTER
 62
     2
100
AcDbLine
 10
171.930798
 20
34.613388
 30
0.0
 11
69.231374
 21
34.613388
 31
0.0
  0
LINE
  5
5E3
100
AcDbEntity
  8
2
  6
CENTER
 62
     2
100
AcDbLine
 10
-932.73958
 20
119.132351
 30
0.0
 11
-932.73958
 21
83.882114
 31
0.0
  0
LINE
  5
5E4
100
AcDbEntity
  8
2
  6
CENTER
 62
     2
100
AcDbLine
 10
-760.73958
 20
119.132351
 30
0.0
 11
-760.73958
 21
83.882114
 31
0.0
  0
LINE
  5
5E5
100
AcDbEntity
  8
2
  6
CENTER
 62
     2
100
AcDbLine
 10
-935.783174
 20
76.613388
 30
0.0
 11
-1210.403184
 21
76.613388
 31
0.0
  0
LINE
  5
5E6
100
AcDbEntity
  8
2
  6
CENTER
 62
     2
100
AcDbLine
 10
-935.783174
 20
-37.386612
 30
0.0
 11
-1210.403184
 21
-37.386612
 31
0.0
  0
LINE
  5
5E7
100
AcDbEntity
  8
2
  6
CENTER
 62
     2
100
AcDbLine
 10
-126.185808
 20
417.113388
 30
0.0
 11
-731.078996
 21
417.113388
 31
0.0
  0
LINE
  5
5E8
100
AcDbEntity
  8
2
  6
CENTER
 62
     2
100
AcDbLine
 10
-126.185808
 20
602.113388
 30
0.0
 11
-731.078996
 21
602.113388
 31
0.0
  0
LINE
  5
5E9
100
AcDbEntity
  8
2
  6
CENTER
 62
     2
100
AcDbLine
 10
-186.73958
 20
605.35379
 30
0.0
 11
-186.73958
 21
672.895342
 31
0.0
  0
LINE
  5
5EA
100
AcDbEntity
  8
2
  6
CENTER
 62
     2
100
AcDbLine
 10
-723.73958
 20
415.566737
 30
0.0
 11
-723.73958
 21
358.372908
 31
0.0
  0
LINE
  5
5EB
100
AcDbEntity
  8
2
  6
CENTER
 62
     2
100
AcDbLine
 10
-186.73958
 20
415.566737
 30
0.0
 11
-186.73958
 21
358.372908
 31
0.0
  0
LINE
  5
5EC
100
AcDbEntity
  8
2
  6
CENTER
 62
     2
100
AcDbLine
 10
-711.73958
 20
524.613388
 30
0.0
 11
-739.73958
 21
524.613388
 31
0.0
  0
LINE
  5
5ED
100
AcDbEntity
  8
2
  6
CENTER
 62
     2
100
AcDbLine
 10
-725.73958
 20
538.613388
 30
0.0
 11
-725.73958
 21
510.613388
 31
0.0
  0
LINE
  5
5EE
100
AcDbEntity
  8
2
  6
CENTER
 62
     2
100
AcDbLine
 10
130.76042
 20
86.113388
 30
0.0
 11
130.76042
 21
138.113388
 31
0.0
  0
LINE
  5
5EF
100
AcDbEntity
  8
2
  6
CENTER
 62
     2
100
AcDbLine
 10
104.76042
 20
112.113388
 30
0.0
 11
156.76042
 21
112.113388
 31
0.0
  0
LINE
  5
5F0
100
AcDbEntity
  8
2
  6
CENTER
 62
     2
100
AcDbLine
 10
315.76042
 20
86.113388
 30
0.0
 11
315.76042
 21
138.113388
 31
0.0
  0
LINE
  5
5F1
100
AcDbEntity
  8
2
  6
CENTER
 62
     2
100
AcDbLine
 10
341.76042
 20
112.113388
 30
0.0
 11
289.76042
 21
112.113388
 31
0.0
  0
LINE
  5
5F2
100
AcDbEntity
  8
2
  6
CENTER
 62
     2
100
AcDbLine
 10
130.76042
 20
-46.886612
 30
0.0
 11
130.76042
 21
-98.886612
 31
0.0
  0
LINE
  5
5F3
100
AcDbEntity
  8
2
  6
CENTER
 62
     2
100
AcDbLine
 10
104.76042
 20
-72.886612
 30
0.0
 11
156.76042
 21
-72.886612
 31
0.0
  0
LINE
  5
5F4
100
AcDbEntity
  8
2
  6
CENTER
 62
     2
100
AcDbLine
 10
315.76042
 20
-46.886612
 30
0.0
 11
315.76042
 21
-98.886612
 31
0.0
  0
LINE
  5
5F5
100
AcDbEntity
  8
2
  6
CENTER
 62
     2
100
AcDbLine
 10
341.76042
 20
-72.886612
 30
0.0
 11
289.76042
 21
-72.886612
 31
0.0
  0
LINE
  5
5F6
100
AcDbEntity
  8
2
  6
CENTER
 62
     2
100
AcDbLine
 10
238.26042
 20
150.344948
 30
0.0
 11
238.26042
 21
117.428314
 31
0.0
  0
LINE
  5
5F7
100
AcDbEntity
  8
2
  6
CENTER
 62
     2
100
AcDbLine
 10
-101.049333
 20
19.613388
 30
0.0
 11
-1222.317186
 21
19.613388
 31
0.0
  0
LINE
  5
5F8
100
AcDbEntity
  8
2
  6
CENTER
 62
     2
100
AcDbLine
 10
-126.185808
 20
112.113388
 30
0.0
 11
-731.078996
 21
112.113388
 31
0.0
  0
LINE
  5
5F9
100
AcDbEntity
  8
2
  6
CENTER
 62
     2
100
AcDbLine
 10
-126.185808
 20
-72.886612
 30
0.0
 11
-731.078996
 21
-72.886612
 31
0.0
  0
LINE
  5
5FA
100
AcDbEntity
  8
2
  6
CENTER
 62
     2
100
AcDbLine
 10
-186.73958
 20
18.282388
 30
0.0
 11
-186.73958
 21
50.944388
 31
0.0
  0
LINE
  5
5FB
100
AcDbEntity
  8
2
  6
CENTER
 62
     2
100
AcDbLine
 10
-725.73958
 20
150.344948
 30
0.0
 11
-725.73958
 21
117.428314
 31
0.0
  0
LINE
  5
5FC
100
AcDbEntity
  8
2
  6
CENTER
 62
     2
100
AcDbLine
 10
-1171.73958
 20
-6.803742
 30
0.0
 11
-1171.73958
 21
26.030494
 31
0.0
  0
LINE
  5
5FD
100
AcDbEntity
  8
2
100
AcDbLine
 10
-1177.23958
 20
18.113388
 30
0.0
 11
-1158.23958
 21
18.113388
 31
0.0
  0
LINE
  5
5FE
100
AcDbEntity
  8
2
100
AcDbLine
 10
-1177.23958
 20
1.113388
 30
0.0
 11
-1158.23958
 21
1.113388
 31
0.0
  0
ARC
  5
5FF
100
AcDbEntity
  8
2
100
AcDbCircle
 10
-1171.73958
 20
9.613388
 30
0.0
 40
8.5
100
AcDbArc
 50
130.320215
 51
229.679785
  0
LINE
  5
600
100
AcDbEntity
  8
2
100
AcDbLine
 10
-1177.23958
 20
1.113388
 30
0.0
 11
-1177.23958
 21
3.132647
 31
0.0
  0
LINE
  5
601
100
AcDbEntity
  8
2
100
AcDbLine
 10
-1177.23958
 20
16.094128
 30
0.0
 11
-1177.23958
 21
18.113388
 31
0.0
  0
LINE
  5
602
100
AcDbEntity
  8
2
100
AcDbLine
 10
-1158.23958
 20
1.113388
 30
0.0
 11
-1158.23958
 21
18.113388
 31
0.0
  0
LINE
  5
603
100
AcDbEntity
  8
2
100
AcDbLine
 10
-1177.23958
 20
16.094128
 30
0.0
 11
-1163.23958
 21
16.094128
 31
0.0
  0
LINE
  5
604
100
AcDbEntity
  8
2
100
AcDbLine
 10
-1177.23958
 20
3.132647
 30
0.0
 11
-1163.23958
 21
3.132647
 31
0.0
  0
LINE
  5
605
100
AcDbEntity
  8
2
100
AcDbLine
 10
-1163.23958
 20
1.113388
 30
0.0
 11
-1163.23958
 21
3.132647
 31
0.0
  0
LINE
  5
606
100
AcDbEntity
  8
2
100
AcDbLine
 10
-1163.23958
 20
16.094128
 30
0.0
 11
-1163.23958
 21
18.113388
 31
0.0
  0
LINE
  5
607
100
AcDbEntity
  8
2
100
AcDbLine
 10
-1153.23958
 20
-0.886612
 30
0.0
 11
-1153.23958
 21
20.113388
 31
0.0
  0
LINE
  5
608
100
AcDbEntity
  8
2
100
AcDbLine
 10
-1153.23958
 20
17.944388
 30
0.0
 11
-1158.23958
 21
17.944388
 31
0.0
  0
LINE
  5
609
100
AcDbEntity
  8
2
100
AcDbLine
 10
-1153.23958
 20
1.282388
 30
0.0
 11
-1158.23958
 21
1.282388
 31
0.0
  0
LINE
  5
60A
100
AcDbEntity
  8
2
 62
     2
100
AcDbLine
 10
-1153.23958
 20
17.088388
 30
0.0
 11
-1156.756944
 21
17.088388
 31
0.0
  0
LINE
  5
60B
100
AcDbEntity
  8
2
 62
     2
100
AcDbLine
 10
-1153.23958
 20
2.138388
 30
0.0
 11
-1156.756944
 21
2.138388
 31
0.0
  0
LINE
  5
60C
100
AcDbEntity
  8
2
 62
     2
100
AcDbLine
 10
-1158.23958
 20
17.944388
 30
0.0
 11
-1156.756944
 21
17.088388
 31
0.0
  0
LINE
  5
60D
100
AcDbEntity
  8
2
 62
     2
100
AcDbLine
 10
-1158.23958
 20
1.282388
 30
0.0
 11
-1156.756944
 21
2.138388
 31
0.0
  0
LINE
  5
60E
100
AcDbEntity
  8
2
100
AcDbLine
 10
-1156.756944
 20
17.944388
 30
0.0
 11
-1156.756944
 21
1.282388
 31
0.0
  0
LINE
  5
60F
100
AcDbEntity
  8
2
100
AcDbLine
 10
-1137.23958
 20
-0.886612
 30
0.0
 11
-1137.23958
 21
20.113388
 31
0.0
  0
LINE
  5
610
100
AcDbEntity
  8
2
100
AcDbLine
 10
-1153.23958
 20
20.113388
 30
0.0
 11
-1137.23958
 21
20.113388
 31
0.0
  0
LINE
  5
611
100
AcDbEntity
  8
2
100
AcDbLine
 10
-1153.23958
 20
-0.886612
 30
0.0
 11
-1137.23958
 21
-0.886612
 31
0.0
  0
ARC
  5
612
100
AcDbEntity
  8
2
100
AcDbCircle
 10
-1147.17708
 20
14.863388
 30
0.0
 40
9.9375
100
AcDbArc
 50
328.109208
 51
31.890792
  0
ARC
  5
613
100
AcDbEntity
  8
2
100
AcDbCircle
 10
-1143.30208
 20
4.363388
 30
0.0
 40
9.9375
100
AcDbArc
 50
148.109208
 51
211.890792
  0
ARC
  5
614
100
AcDbEntity
  8
2
100
AcDbCircle
 10
-1143.30208
 20
14.863388
 30
0.0
 40
9.9375
100
AcDbArc
 50
148.109208
 51
211.890792
  0
ARC
  5
615
100
AcDbEntity
  8
2
100
AcDbCircle
 10
-1147.17708
 20
4.363388
 30
0.0
 40
9.9375
100
AcDbArc
 50
328.109208
 51
31.890792
  0
LINE
  5
616
100
AcDbEntity
  8
2
100
AcDbLine
 10
-1138.73958
 20
9.613388
 30
0.0
 11
-1151.73958
 21
9.613388
 31
0.0
  0
LINE
  5
617
100
AcDbEntity
  8
2
  6
CENTER
 62
     2
100
AcDbLine
 10
-963.73958
 20
13.196258
 30
0.0
 11
-963.73958
 21
46.030494
 31
0.0
  0
LINE
  5
618
100
AcDbEntity
  8
2
100
AcDbLine
 10
-969.294162
 20
38.07782
 30
0.0
 11
-950.294556
 21
38.200082
 31
0.0
  0
LINE
  5
619
100
AcDbEntity
  8
2
100
AcDbLine
 10
-969.184769
 20
21.078172
 30
0.0
 11
-950.185163
 21
21.200434
 31
0.0
  0
ARC
  5
61A
100
AcDbEntity
  8
2
100
AcDbCircle
 10
-963.73958
 20
29.613388
 30
0.0
 40
8.5
100
AcDbArc
 50
130.688909
 51
230.048479
  0
LINE
  5
61B
100
AcDbEntity
  8
2
100
AcDbLine
 10
-969.184769
 20
21.078172
 30
0.0
 11
-969.197763
 21
23.097389
 31
0.0
  0
LINE
  5
61C
100
AcDbEntity
  8
2
100
AcDbLine
 10
-969.281168
 20
36.058602
 30
0.0
 11
-969.294162
 21
38.07782
 31
0.0
  0
LINE
  5
61D
100
AcDbEntity
  8
2
100
AcDbLine
 10
-950.185163
 20
21.200434
 30
0.0
 11
-950.294556
 21
38.200082
 31
0.0
  0
LINE
  5
61E
100
AcDbEntity
  8
2
100
AcDbLine
 10
-969.281168
 20
36.058602
 30
0.0
 11
-955.281458
 21
36.148691
 31
0.0
  0
LINE
  5
61F
100
AcDbEntity
  8
2
100
AcDbLine
 10
-969.197763
 20
23.097389
 30
0.0
 11
-955.198053
 21
23.187477
 31
0.0
  0
LINE
  5
620
100
AcDbEntity
  8
2
100
AcDbLine
 10
-955.185059
 20
21.16826
 30
0.0
 11
-955.198053
 21
23.187477
 31
0.0
  0
LINE
  5
621
100
AcDbEntity
  8
2
100
AcDbLine
 10
-955.281458
 20
36.148691
 30
0.0
 11
-955.294452
 21
38.167908
 31
0.0
  0
LINE
  5
622
100
AcDbEntity
  8
2
100
AcDbLine
 10
-945.172396
 20
19.23265
 30
0.0
 11
-945.307529
 21
40.232215
 31
0.0
  0
LINE
  5
623
100
AcDbEntity
  8
2
100
AcDbLine
 10
-945.293572
 20
38.06326
 30
0.0
 11
-950.293468
 21
38.031086
 31
0.0
  0
LINE
  5
624
100
AcDbEntity
  8
2
100
AcDbLine
 10
-945.186354
 20
21.401605
 30
0.0
 11
-950.18625
 21
21.369431
 31
0.0
  0
LINE
  5
625
100
AcDbEntity
  8
2
 62
     2
100
AcDbLine
 10
-945.288063
 20
37.207278
 30
0.0
 11
-948.805355
 21
37.184644
 31
0.0
  0
LINE
  5
626
100
AcDbEntity
  8
2
 62
     2
100
AcDbLine
 10
-945.191862
 20
22.257588
 30
0.0
 11
-948.709154
 21
22.234954
 31
0.0
  0
LINE
  5
627
100
AcDbEntity
  8
2
 62
     2
100
AcDbLine
 10
-950.293468
 20
38.031086
 30
0.0
 11
-948.805355
 21
37.184644
 31
0.0
  0
LINE
  5
628
100
AcDbEntity
  8
2
 62
     2
100
AcDbLine
 10
-950.18625
 20
21.369431
 30
0.0
 11
-948.709154
 21
22.234954
 31
0.0
  0
LINE
  5
629
100
AcDbEntity
  8
2
100
AcDbLine
 10
-948.810863
 20
38.040626
 30
0.0
 11
-948.703645
 21
21.378971
 31
0.0
  0
LINE
  5
62A
100
AcDbEntity
  8
2
100
AcDbLine
 10
-929.172728
 20
19.335608
 30
0.0
 11
-929.30786
 21
40.335173
 31
0.0
  0
LINE
  5
62B
100
AcDbEntity
  8
2
100
AcDbLine
 10
-945.307529
 20
40.232215
 30
0.0
 11
-929.30786
 21
40.335173
 31
0.0
  0
LINE
  5
62C
100
AcDbEntity
  8
2
100
AcDbLine
 10
-945.172396
 20
19.23265
 30
0.0
 11
-929.172728
 21
19.335608
 31
0.0
  0
ARC
  5
62D
100
AcDbEntity
  8
2
100
AcDbCircle
 10
-939.211371
 20
35.021335
 30
0.0
 40
9.9375
100
AcDbArc
 50
328.477902
 51
32.259485
  0
ARC
  5
62E
100
AcDbEntity
  8
2
100
AcDbCircle
 10
-935.268885
 20
24.546488
 30
0.0
 40
9.9375
100
AcDbArc
 50
148.477902
 51
212.259485
  0
ARC
  5
62F
100
AcDbEntity
  8
2
100
AcDbCircle
 10
-935.336451
 20
35.046271
 30
0.0
 40
9.9375
100
AcDbArc
 50
148.477902
 51
212.259485
  0
ARC
  5
630
100
AcDbEntity
  8
2
100
AcDbCircle
 10
-939.143805
 20
24.521553
 30
0.0
 40
9.9375
100
AcDbArc
 50
328.477902
 51
32.259485
  0
LINE
  5
631
100
AcDbEntity
  8
2
100
AcDbLine
 10
-930.740263
 20
29.825738
 30
0.0
 11
-943.739994
 21
29.742085
 31
0.0
  0
LINE
  5
632
100
AcDbEntity
  8
2
  6
CENTER
 62
     2
100
AcDbLine
 10
-723.73958
 20
-6.803742
 30
0.0
 11
-723.73958
 21
26.030494
 31
0.0
  0
LINE
  5
633
100
AcDbEntity
  8
2
100
AcDbLine
 10
-718.23958
 20
18.113388
 30
0.0
 11
-737.23958
 21
18.113388
 31
0.0
  0
LINE
  5
634
100
AcDbEntity
  8
2
100
AcDbLine
 10
-718.23958
 20
1.113388
 30
0.0
 11
-737.23958
 21
1.113388
 31
0.0
  0
ARC
  5
635
100
AcDbEntity
  8
2
100
AcDbCircle
 10
-723.73958
 20
9.613388
 30
0.0
 40
8.5
100
AcDbArc
 50
310.320215
 51
49.679785
  0
LINE
  5
636
100
AcDbEntity
  8
2
100
AcDbLine
 10
-718.23958
 20
1.113388
 30
0.0
 11
-718.23958
 21
3.132647
 31
0.0
  0
LINE
  5
637
100
AcDbEntity
  8
2
100
AcDbLine
 10
-718.23958
 20
16.094128
 30
0.0
 11
-718.23958
 21
18.113388
 31
0.0
  0
LINE
  5
638
100
AcDbEntity
  8
2
100
AcDbLine
 10
-737.23958
 20
1.113388
 30
0.0
 11
-737.23958
 21
18.113388
 31
0.0
  0
LINE
  5
639
100
AcDbEntity
  8
2
100
AcDbLine
 10
-718.23958
 20
16.094128
 30
0.0
 11
-732.23958
 21
16.094128
 31
0.0
  0
LINE
  5
63A
100
AcDbEntity
  8
2
100
AcDbLine
 10
-718.23958
 20
3.132647
 30
0.0
 11
-732.23958
 21
3.132647
 31
0.0
  0
LINE
  5
63B
100
AcDbEntity
  8
2
100
AcDbLine
 10
-732.23958
 20
1.113388
 30
0.0
 11
-732.23958
 21
3.132647
 31
0.0
  0
LINE
  5
63C
100
AcDbEntity
  8
2
100
AcDbLine
 10
-732.23958
 20
16.094128
 30
0.0
 11
-732.23958
 21
18.113388
 31
0.0
  0
LINE
  5
63D
100
AcDbEntity
  8
2
100
AcDbLine
 10
-742.23958
 20
-0.886612
 30
0.0
 11
-742.23958
 21
20.113388
 31
0.0
  0
LINE
  5
63E
100
AcDbEntity
  8
2
100
AcDbLine
 10
-742.23958
 20
17.944388
 30
0.0
 11
-737.23958
 21
17.944388
 31
0.0
  0
LINE
  5
63F
100
AcDbEntity
  8
2
100
AcDbLine
 10
-742.23958
 20
1.282388
 30
0.0
 11
-737.23958
 21
1.282388
 31
0.0
  0
LINE
  5
640
100
AcDbEntity
  8
2
 62
     2
100
AcDbLine
 10
-742.23958
 20
17.088388
 30
0.0
 11
-738.722215
 21
17.088388
 31
0.0
  0
LINE
  5
641
100
AcDbEntity
  8
2
 62
     2
100
AcDbLine
 10
-742.23958
 20
2.138388
 30
0.0
 11
-738.722215
 21
2.138388
 31
0.0
  0
LINE
  5
642
100
AcDbEntity
  8
2
 62
     2
100
AcDbLine
 10
-737.23958
 20
17.944388
 30
0.0
 11
-738.722215
 21
17.088388
 31
0.0
  0
LINE
  5
643
100
AcDbEntity
  8
2
 62
     2
100
AcDbLine
 10
-737.23958
 20
1.282388
 30
0.0
 11
-738.722215
 21
2.138388
 31
0.0
  0
LINE
  5
644
100
AcDbEntity
  8
2
100
AcDbLine
 10
-738.722215
 20
17.944388
 30
0.0
 11
-738.722215
 21
1.282388
 31
0.0
  0
LINE
  5
645
100
AcDbEntity
  8
2
100
AcDbLine
 10
-758.23958
 20
-0.886612
 30
0.0
 11
-758.23958
 21
20.113388
 31
0.0
  0
LINE
  5
646
100
AcDbEntity
  8
2
100
AcDbLine
 10
-742.23958
 20
20.113388
 30
0.0
 11
-758.23958
 21
20.113388
 31
0.0
  0
LINE
  5
647
100
AcDbEntity
  8
2
100
AcDbLine
 10
-742.23958
 20
-0.886612
 30
0.0
 11
-758.23958
 21
-0.886612
 31
0.0
  0
ARC
  5
648
100
AcDbEntity
  8
2
100
AcDbCircle
 10
-748.30208
 20
14.863388
 30
0.0
 40
9.9375
100
AcDbArc
 50
148.109208
 51
211.890792
  0
ARC
  5
649
100
AcDbEntity
  8
2
100
AcDbCircle
 10
-752.17708
 20
4.363388
 30
0.0
 40
9.9375
100
AcDbArc
 50
328.109208
 51
31.890792
  0
ARC
  5
64A
100
AcDbEntity
  8
2
100
AcDbCircle
 10
-752.17708
 20
14.863388
 30
0.0
 40
9.9375
100
AcDbArc
 50
328.109208
 51
31.890792
  0
ARC
  5
64B
100
AcDbEntity
  8
2
100
AcDbCircle
 10
-748.30208
 20
4.363388
 30
0.0
 40
9.9375
100
AcDbArc
 50
148.109208
 51
211.890792
  0
LINE
  5
64C
100
AcDbEntity
  8
2
  6
CENTER
 62
     2
100
AcDbLine
 10
-708.164272
 20
9.613388
 30
0.0
 11
-1187.314887
 21
9.613388
 31
0.0
  0
LINE
  5
64D
100
AcDbEntity
  8
2
100
AcDbLine
 10
-756.73958
 20
9.613388
 30
0.0
 11
-743.73958
 21
9.613388
 31
0.0
  0
LINE
  5
64E
100
AcDbEntity
  8
2
100
AcDbLine
 10
-758.23958
 20
14.613388
 30
0.0
 11
-1137.23958
 21
14.613388
 31
0.0
  0
LINE
  5
64F
100
AcDbEntity
  8
2
100
AcDbLine
 10
-758.23958
 20
4.613388
 30
0.0
 11
-1137.23958
 21
4.613388
 31
0.0
  0
LINE
  5
650
100
AcDbEntity
  8
2
100
AcDbLine
 10
-1163.243971
 20
430.237743
 30
0.0
 11
-1163.476805
 21
437.613388
 31
0.0
  0
LINE
  5
651
100
AcDbEntity
  8
2
100
AcDbLine
 10
-1163.292955
 20
431.805221
 30
0.0
 11
-1180.186205
 21
431.805221
 31
0.0
  0
LINE
  5
652
100
AcDbEntity
  8
2
 62
     2
100
AcDbLine
 10
-1163.243971
 20
430.237743
 30
0.0
 11
-1164.148955
 21
431.805221
 31
0.0
  0
LINE
  5
653
100
AcDbEntity
  8
2
 62
     2
100
AcDbLine
 10
-1164.148955
 20
431.805221
 30
0.0
 11
-1164.332598
 21
437.613388
 31
0.0
  0
LINE
  5
654
100
AcDbEntity
  8
2
100
AcDbLine
 10
-1180.235188
 20
430.237743
 30
0.0
 11
-1180.002355
 21
437.613388
 31
0.0
  0
LINE
  5
655
100
AcDbEntity
  8
2
 62
     2
100
AcDbLine
 10
-1180.235188
 20
430.237743
 30
0.0
 11
-1179.330205
 21
431.805221
 31
0.0
  0
LINE
  5
656
100
AcDbEntity
  8
2
 62
     2
100
AcDbLine
 10
-1179.330205
 20
431.805221
 30
0.0
 11
-1179.146561
 21
437.613388
 31
0.0
  0
LINE
  5
657
100
AcDbEntity
  8
2
100
AcDbLine
 10
-1163.23958
 20
430.237743
 30
0.0
 11
-1180.23958
 21
430.237743
 31
0.0
  0
LINE
  5
658
100
AcDbEntity
  8
2
100
AcDbLine
 10
-1180.23958
 20
411.237743
 30
0.0
 11
-1180.23958
 21
430.237743
 31
0.0
  0
LINE
  5
659
100
AcDbEntity
  8
2
100
AcDbLine
 10
-1163.23958
 20
426.737743
 30
0.0
 11
-1163.23958
 21
430.237743
 31
0.0
  0
LINE
  5
65A
100
AcDbEntity
  8
2
100
AcDbLine
 10
-1158.23958
 20
408.237743
 30
0.0
 11
-1177.23958
 21
408.237743
 31
0.0
  0
LINE
  5
65B
100
AcDbEntity
  8
2
100
AcDbLine
 10
-1158.23958
 20
425.237743
 30
0.0
 11
-1161.73958
 21
425.237743
 31
0.0
  0
LINE
  5
65C
100
AcDbEntity
  8
2
  6
CENTER
 62
     2
100
AcDbLine
 10
-1076.233324
 20
416.737743
 30
0.0
 11
-1188.577739
 21
416.737743
 31
0.0
  0
ARC
  5
65D
100
AcDbEntity
  8
2
100
AcDbCircle
 10
-1177.23958
 20
411.237743
 30
0.0
 40
3.0
100
AcDbArc
 50
180.0
 51
270.0
  0
ARC
  5
65E
100
AcDbEntity
  8
2
100
AcDbCircle
 10
-1161.73958
 20
426.737743
 30
0.0
 40
1.5
100
AcDbArc
 50
180.0
 51
270.0
  0
LINE
  5
65F
100
AcDbEntity
  8
2
100
AcDbLine
 10
-1158.23958
 20
408.237743
 30
0.0
 11
-1158.23958
 21
425.237743
 31
0.0
  0
LINE
  5
660
100
AcDbEntity
  8
2
100
AcDbLine
 10
-1165.23958
 20
410.237743
 30
0.0
 11
-1175.23958
 21
410.237743
 31
0.0
  0
LINE
  5
661
100
AcDbEntity
  8
2
100
AcDbLine
 10
-1177.23958
 20
412.237743
 30
0.0
 11
-1177.23958
 21
422.237743
 31
0.0
  0
LINE
  5
662
100
AcDbEntity
  8
2
100
AcDbLine
 10
-1166.23958
 20
424.237743
 30
0.0
 11
-1175.23958
 21
424.237743
 31
0.0
  0
LINE
  5
663
100
AcDbEntity
  8
2
100
AcDbLine
 10
-1163.23958
 20
412.237743
 30
0.0
 11
-1163.23958
 21
421.237743
 31
0.0
  0
ARC
  5
664
100
AcDbEntity
  8
2
100
AcDbCircle
 10
-1175.23958
 20
412.237743
 30
0.0
 40
2.0
100
AcDbArc
 50
180.0
 51
270.0
  0
ARC
  5
665
100
AcDbEntity
  8
2
100
AcDbCircle
 10
-1175.23958
 20
422.237743
 30
0.0
 40
2.0
100
AcDbArc
 50
90.0
 51
180.0
  0
ARC
  5
666
100
AcDbEntity
  8
2
100
AcDbCircle
 10
-1165.23958
 20
412.237743
 30
0.0
 40
2.0
100
AcDbArc
 50
270.0
 51
360.0
  0
ARC
  5
667
100
AcDbEntity
  8
2
100
AcDbCircle
 10
-1163.23958
 20
424.237743
 30
0.0
 40
3.0
100
AcDbArc
 50
180.0
 51
270.0
  0
LINE
  5
668
100
AcDbEntity
  8
2
100
AcDbLine
 10
-1153.23958
 20
407.644476
 30
0.0
 11
-1153.23958
 21
425.83101
 31
0.0
  0
LINE
  5
669
100
AcDbEntity
  8
2
100
AcDbLine
 10
-1137.23958
 20
407.644476
 30
0.0
 11
-1137.23958
 21
425.83101
 31
0.0
  0
LINE
  5
66A
100
AcDbEntity
  8
2
100
AcDbLine
 10
-1153.23958
 20
408.406743
 30
0.0
 11
-1158.23958
 21
408.406743
 31
0.0
  0
LINE
  5
66B
100
AcDbEntity
  8
2
100
AcDbLine
 10
-1153.23958
 20
425.068743
 30
0.0
 11
-1158.23958
 21
425.068743
 31
0.0
  0
LINE
  5
66C
100
AcDbEntity
  8
2
 62
     2
100
AcDbLine
 10
-1153.23958
 20
409.262743
 30
0.0
 11
-1156.756944
 21
409.262743
 31
0.0
  0
LINE
  5
66D
100
AcDbEntity
  8
2
 62
     2
100
AcDbLine
 10
-1153.23958
 20
424.212743
 30
0.0
 11
-1156.756944
 21
424.212743
 31
0.0
  0
LINE
  5
66E
100
AcDbEntity
  8
2
 62
     2
100
AcDbLine
 10
-1158.23958
 20
408.406743
 30
0.0
 11
-1156.756944
 21
409.262743
 31
0.0
  0
LINE
  5
66F
100
AcDbEntity
  8
2
 62
     2
100
AcDbLine
 10
-1158.23958
 20
425.068743
 30
0.0
 11
-1156.756944
 21
424.212743
 31
0.0
  0
LINE
  5
670
100
AcDbEntity
  8
2
100
AcDbLine
 10
-1156.756944
 20
408.406743
 30
0.0
 11
-1156.756944
 21
425.068743
 31
0.0
  0
LINE
  5
671
100
AcDbEntity
  8
2
100
AcDbLine
 10
-1138.73958
 20
404.613388
 30
0.0
 11
-1151.73958
 21
404.613388
 31
0.0
  0
LINE
  5
672
100
AcDbEntity
  8
2
100
AcDbLine
 10
-1138.73958
 20
410.675565
 30
0.0
 11
-1151.73958
 21
410.675565
 31
0.0
  0
LINE
  5
673
100
AcDbEntity
  8
2
100
AcDbLine
 10
-1138.73958
 20
422.799921
 30
0.0
 11
-1151.73958
 21
422.799921
 31
0.0
  0
LINE
  5
674
100
AcDbEntity
  8
2
100
AcDbLine
 10
-1138.73958
 20
428.862099
 30
0.0
 11
-1151.73958
 21
428.862099
 31
0.0
  0
ARC
  5
675
100
AcDbEntity
  8
2
100
AcDbCircle
 10
-1141.05208
 20
407.644476
 30
0.0
 40
3.8125
100
AcDbArc
 50
307.340993
 51
52.659007
  0
ARC
  5
676
100
AcDbEntity
  8
2
100
AcDbCircle
 10
-1141.05208
 20
425.83101
 30
0.0
 40
3.8125
100
AcDbArc
 50
307.340993
 51
52.659007
  0
ARC
  5
677
100
AcDbEntity
  8
2
100
AcDbCircle
 10
-1149.42708
 20
407.644476
 30
0.0
 40
3.8125
100
AcDbArc
 50
127.340993
 51
232.659007
  0
ARC
  5
678
100
AcDbEntity
  8
2
100
AcDbCircle
 10
-1149.42708
 20
425.83101
 30
0.0
 40
3.8125
100
AcDbArc
 50
127.340993
 51
232.659007
  0
ARC
  5
679
100
AcDbEntity
  8
2
100
AcDbCircle
 10
-1150.23958
 20
416.737743
 30
0.0
 40
13.0
100
AcDbArc
 50
332.204228
 51
27.795772
  0
ARC
  5
67A
100
AcDbEntity
  8
2
100
AcDbCircle
 10
-1140.23958
 20
416.737743
 30
0.0
 40
13.0
100
AcDbArc
 50
152.204228
 51
207.795772
  0
LINE
  5
67B
100
AcDbEntity
  8
2
100
AcDbLine
 10
-955.243971
 20
430.237743
 30
0.0
 11
-955.476805
 21
437.613388
 31
0.0
  0
LINE
  5
67C
100
AcDbEntity
  8
2
100
AcDbLine
 10
-955.292955
 20
431.805221
 30
0.0
 11
-972.186205
 21
431.805221
 31
0.0
  0
LINE
  5
67D
100
AcDbEntity
  8
2
 62
     2
100
AcDbLine
 10
-955.243971
 20
430.237743
 30
0.0
 11
-956.148955
 21
431.805221
 31
0.0
  0
LINE
  5
67E
100
AcDbEntity
  8
2
 62
     2
100
AcDbLine
 10
-956.148955
 20
431.805221
 30
0.0
 11
-956.332598
 21
437.613388
 31
0.0
  0
LINE
  5
67F
100
AcDbEntity
  8
2
100
AcDbLine
 10
-972.235188
 20
430.237743
 30
0.0
 11
-972.002355
 21
437.613388
 31
0.0
  0
LINE
  5
680
100
AcDbEntity
  8
2
 62
     2
100
AcDbLine
 10
-972.235188
 20
430.237743
 30
0.0
 11
-971.330205
 21
431.805221
 31
0.0
  0
LINE
  5
681
100
AcDbEntity
  8
2
 62
     2
100
AcDbLine
 10
-971.330205
 20
431.805221
 30
0.0
 11
-971.146561
 21
437.613388
 31
0.0
  0
LINE
  5
682
100
AcDbEntity
  8
2
100
AcDbLine
 10
-955.23958
 20
430.237743
 30
0.0
 11
-972.23958
 21
430.237743
 31
0.0
  0
LINE
  5
683
100
AcDbEntity
  8
2
100
AcDbLine
 10
-972.23958
 20
411.237743
 30
0.0
 11
-972.23958
 21
430.237743
 31
0.0
  0
LINE
  5
684
100
AcDbEntity
  8
2
100
AcDbLine
 10
-955.23958
 20
426.737743
 30
0.0
 11
-955.23958
 21
430.237743
 31
0.0
  0
LINE
  5
685
100
AcDbEntity
  8
2
100
AcDbLine
 10
-950.23958
 20
408.237743
 30
0.0
 11
-969.23958
 21
408.237743
 31
0.0
  0
LINE
  5
686
100
AcDbEntity
  8
2
100
AcDbLine
 10
-950.23958
 20
425.237743
 30
0.0
 11
-953.73958
 21
425.237743
 31
0.0
  0
ARC
  5
687
100
AcDbEntity
  8
2
100
AcDbCircle
 10
-969.23958
 20
411.237743
 30
0.0
 40
3.0
100
AcDbArc
 50
180.0
 51
270.0
  0
ARC
  5
688
100
AcDbEntity
  8
2
100
AcDbCircle
 10
-953.73958
 20
426.737743
 30
0.0
 40
1.5
100
AcDbArc
 50
180.0
 51
270.0
  0
LINE
  5
689
100
AcDbEntity
  8
2
100
AcDbLine
 10
-950.23958
 20
408.237743
 30
0.0
 11
-950.23958
 21
425.237743
 31
0.0
  0
LINE
  5
68A
100
AcDbEntity
  8
2
100
AcDbLine
 10
-957.23958
 20
410.237743
 30
0.0
 11
-967.23958
 21
410.237743
 31
0.0
  0
LINE
  5
68B
100
AcDbEntity
  8
2
100
AcDbLine
 10
-969.23958
 20
412.237743
 30
0.0
 11
-969.23958
 21
422.237743
 31
0.0
  0
LINE
  5
68C
100
AcDbEntity
  8
2
100
AcDbLine
 10
-958.23958
 20
424.237743
 30
0.0
 11
-967.23958
 21
424.237743
 31
0.0
  0
LINE
  5
68D
100
AcDbEntity
  8
2
100
AcDbLine
 10
-955.23958
 20
412.237743
 30
0.0
 11
-955.23958
 21
421.237743
 31
0.0
  0
ARC
  5
68E
100
AcDbEntity
  8
2
100
AcDbCircle
 10
-967.23958
 20
412.237743
 30
0.0
 40
2.0
100
AcDbArc
 50
180.0
 51
270.0
  0
ARC
  5
68F
100
AcDbEntity
  8
2
100
AcDbCircle
 10
-967.23958
 20
422.237743
 30
0.0
 40
2.0
100
AcDbArc
 50
90.0
 51
180.0
  0
ARC
  5
690
100
AcDbEntity
  8
2
100
AcDbCircle
 10
-957.23958
 20
412.237743
 30
0.0
 40
2.0
100
AcDbArc
 50
270.0
 51
360.0
  0
ARC
  5
691
100
AcDbEntity
  8
2
100
AcDbCircle
 10
-955.23958
 20
424.237743
 30
0.0
 40
3.0
100
AcDbArc
 50
180.0
 51
270.0
  0
LINE
  5
692
100
AcDbEntity
  8
2
100
AcDbLine
 10
-945.23958
 20
407.644476
 30
0.0
 11
-945.23958
 21
425.83101
 31
0.0
  0
LINE
  5
693
100
AcDbEntity
  8
2
100
AcDbLine
 10
-929.23958
 20
407.644476
 30
0.0
 11
-929.23958
 21
425.83101
 31
0.0
  0
LINE
  5
694
100
AcDbEntity
  8
2
100
AcDbLine
 10
-945.23958
 20
408.406743
 30
0.0
 11
-950.23958
 21
408.406743
 31
0.0
  0
LINE
  5
695
100
AcDbEntity
  8
2
100
AcDbLine
 10
-945.23958
 20
425.068743
 30
0.0
 11
-950.23958
 21
425.068743
 31
0.0
  0
LINE
  5
696
100
AcDbEntity
  8
2
 62
     2
100
AcDbLine
 10
-945.23958
 20
409.262743
 30
0.0
 11
-948.756944
 21
409.262743
 31
0.0
  0
LINE
  5
697
100
AcDbEntity
  8
2
 62
     2
100
AcDbLine
 10
-945.23958
 20
424.212743
 30
0.0
 11
-948.756944
 21
424.212743
 31
0.0
  0
LINE
  5
698
100
AcDbEntity
  8
2
 62
     2
100
AcDbLine
 10
-950.23958
 20
408.406743
 30
0.0
 11
-948.756944
 21
409.262743
 31
0.0
  0
LINE
  5
699
100
AcDbEntity
  8
2
 62
     2
100
AcDbLine
 10
-950.23958
 20
425.068743
 30
0.0
 11
-948.756944
 21
424.212743
 31
0.0
  0
LINE
  5
69A
100
AcDbEntity
  8
2
100
AcDbLine
 10
-948.756944
 20
408.406743
 30
0.0
 11
-948.756944
 21
425.068743
 31
0.0
  0
LINE
  5
69B
100
AcDbEntity
  8
2
100
AcDbLine
 10
-930.73958
 20
404.613388
 30
0.0
 11
-943.73958
 21
404.613388
 31
0.0
  0
LINE
  5
69C
100
AcDbEntity
  8
2
100
AcDbLine
 10
-930.73958
 20
410.675565
 30
0.0
 11
-943.73958
 21
410.675565
 31
0.0
  0
LINE
  5
69D
100
AcDbEntity
  8
2
100
AcDbLine
 10
-930.73958
 20
422.799921
 30
0.0
 11
-943.73958
 21
422.799921
 31
0.0
  0
LINE
  5
69E
100
AcDbEntity
  8
2
100
AcDbLine
 10
-930.73958
 20
428.862099
 30
0.0
 11
-943.73958
 21
428.862099
 31
0.0
  0
ARC
  5
69F
100
AcDbEntity
  8
2
100
AcDbCircle
 10
-933.05208
 20
407.644476
 30
0.0
 40
3.8125
100
AcDbArc
 50
307.340993
 51
52.659007
  0
ARC
  5
6A0
100
AcDbEntity
  8
2
100
AcDbCircle
 10
-933.05208
 20
425.83101
 30
0.0
 40
3.8125
100
AcDbArc
 50
307.340993
 51
52.659007
  0
ARC
  5
6A1
100
AcDbEntity
  8
2
100
AcDbCircle
 10
-941.42708
 20
407.644476
 30
0.0
 40
3.8125
100
AcDbArc
 50
127.340993
 51
232.659007
  0
ARC
  5
6A2
100
AcDbEntity
  8
2
100
AcDbCircle
 10
-941.42708
 20
425.83101
 30
0.0
 40
3.8125
100
AcDbArc
 50
127.340993
 51
232.659007
  0
ARC
  5
6A3
100
AcDbEntity
  8
2
100
AcDbCircle
 10
-942.23958
 20
416.737743
 30
0.0
 40
13.0
100
AcDbArc
 50
332.204228
 51
27.795772
  0
ARC
  5
6A4
100
AcDbEntity
  8
2
100
AcDbCircle
 10
-932.23958
 20
416.737743
 30
0.0
 40
13.0
100
AcDbArc
 50
152.204228
 51
207.795772
  0
LINE
  5
6A5
100
AcDbEntity
  8
2
100
AcDbLine
 10
-1087.23958
 20
411.737743
 30
0.0
 11
-1137.23958
 21
411.737743
 31
0.0
  0
LINE
  5
6A6
100
AcDbEntity
  8
2
100
AcDbLine
 10
-1087.23958
 20
421.737743
 30
0.0
 11
-1137.23958
 21
421.737743
 31
0.0
  0
ARC
  5
6A7
100
AcDbEntity
  8
2
100
AcDbCircle
 10
-1091.569707
 20
414.237743
 30
0.0
 40
5.0
100
AcDbArc
 50
330.0
 51
30.0
  0
ARC
  5
6A8
100
AcDbEntity
  8
2
100
AcDbCircle
 10
-1082.909453
 20
419.237743
 30
0.0
 40
5.0
100
AcDbArc
 50
150.0
 51
210.0
  0
LINE
  5
6A9
100
AcDbEntity
  8
2
  6
CENTER
 62
     2
100
AcDbLine
 10
-868.233324
 20
416.737743
 30
0.0
 11
-980.577739
 21
416.737743
 31
0.0
  0
LINE
  5
6AA
100
AcDbEntity
  8
2
100
AcDbLine
 10
-879.23958
 20
411.737743
 30
0.0
 11
-929.23958
 21
411.737743
 31
0.0
  0
LINE
  5
6AB
100
AcDbEntity
  8
2
100
AcDbLine
 10
-879.23958
 20
421.737743
 30
0.0
 11
-929.23958
 21
421.737743
 31
0.0
  0
ARC
  5
6AC
100
AcDbEntity
  8
2
100
AcDbCircle
 10
-883.569707
 20
414.237743
 30
0.0
 40
5.0
100
AcDbArc
 50
330.0
 51
30.0
  0
ARC
  5
6AD
100
AcDbEntity
  8
2
100
AcDbCircle
 10
-874.909453
 20
419.237743
 30
0.0
 40
5.0
100
AcDbArc
 50
150.0
 51
210.0
  0
LINE
  5
6AE
100
AcDbEntity
  8
2
100
AcDbLine
 10
83.322598
 20
45.113388
 30
0.0
 11
95.446954
 21
45.113388
 31
0.0
  0
LINE
  5
6AF
100
AcDbEntity
  8
2
100
AcDbLine
 10
83.322598
 20
24.113388
 30
0.0
 11
95.446954
 21
24.113388
 31
0.0
  0
LINE
  5
6B0
100
AcDbEntity
  8
2
100
AcDbLine
 10
83.322598
 20
45.113388
 30
0.0
 11
77.26042
 21
34.613388
 31
0.0
  0
LINE
  5
6B1
100
AcDbEntity
  8
2
100
AcDbLine
 10
96.601654
 20
26.113388
 30
0.0
 11
95.446954
 21
24.113388
 31
0.0
  0
LINE
  5
6B2
100
AcDbEntity
  8
2
100
AcDbLine
 10
77.26042
 20
34.613388
 30
0.0
 11
83.322598
 21
24.113388
 31
0.0
  0
LINE
  5
6B3
100
AcDbEntity
  8
2
100
AcDbLine
 10
96.601654
 20
43.113388
 30
0.0
 11
95.446954
 21
45.113388
 31
0.0
  0
LINE
  5
6B4
100
AcDbEntity
  8
2
100
AcDbLine
 10
102.884776
 20
26.117779
 30
0.0
 11
110.26042
 21
26.350613
 31
0.0
  0
LINE
  5
6B5
100
AcDbEntity
  8
2
100
AcDbLine
 10
104.452254
 20
26.166763
 30
0.0
 11
104.452254
 21
43.060013
 31
0.0
  0
LINE
  5
6B6
100
AcDbEntity
  8
2
 62
     2
100
AcDbLine
 10
102.884776
 20
26.117779
 30
0.0
 11
104.452254
 21
27.022763
 31
0.0
  0
LINE
  5
6B7
100
AcDbEntity
  8
2
 62
     2
100
AcDbLine
 10
104.452254
 20
27.022763
 30
0.0
 11
110.26042
 21
27.206406
 31
0.0
  0
LINE
  5
6B8
100
AcDbEntity
  8
2
100
AcDbLine
 10
102.884776
 20
43.108996
 30
0.0
 11
110.26042
 21
42.876163
 31
0.0
  0
LINE
  5
6B9
100
AcDbEntity
  8
2
 62
     2
100
AcDbLine
 10
102.884776
 20
43.108996
 30
0.0
 11
104.452254
 21
42.204013
 31
0.0
  0
LINE
  5
6BA
100
AcDbEntity
  8
2
 62
     2
100
AcDbLine
 10
104.452254
 20
42.204013
 30
0.0
 11
110.26042
 21
42.020369
 31
0.0
  0
LINE
  5
6BB
100
AcDbEntity
  8
2
100
AcDbLine
 10
82.884776
 20
43.113388
 30
0.0
 11
102.884776
 21
43.113388
 31
0.0
  0
LINE
  5
6BC
100
AcDbEntity
  8
2
100
AcDbLine
 10
82.884776
 20
26.113388
 30
0.0
 11
102.884776
 21
26.113388
 31
0.0
  0
LINE
  5
6BD
100
AcDbEntity
  8
2
100
AcDbLine
 10
102.884776
 20
26.113388
 30
0.0
 11
102.884776
 21
43.113388
 31
0.0
  0
LINE
  5
6BE
100
AcDbEntity
  8
2
100
AcDbLine
 10
96.884776
 20
43.113388
 30
0.0
 11
96.884776
 21
40.090613
 31
0.0
  0
LINE
  5
6BF
100
AcDbEntity
  8
2
100
AcDbLine
 10
96.884776
 20
29.136162
 30
0.0
 11
96.884776
 21
26.113388
 31
0.0
  0
ARC
  5
6C0
100
AcDbEntity
  8
2
100
AcDbCircle
 10
89.384776
 20
34.613388
 30
0.0
 40
8.5
100
AcDbArc
 50
139.880833
 51
220.119167
  0
LINE
  5
6C1
100
AcDbEntity
  8
2
100
AcDbLine
 10
82.884776
 20
26.113388
 30
0.0
 11
82.884776
 21
29.136162
 31
0.0
  0
LINE
  5
6C2
100
AcDbEntity
  8
2
100
AcDbLine
 10
82.884776
 20
40.090613
 30
0.0
 11
82.884776
 21
43.113388
 31
0.0
  0
LINE
  5
6C3
100
AcDbEntity
  8
2
100
AcDbLine
 10
82.884776
 20
40.090613
 30
0.0
 11
96.884776
 21
40.090613
 31
0.0
  0
LINE
  5
6C4
100
AcDbEntity
  8
2
100
AcDbLine
 10
82.884776
 20
29.136162
 30
0.0
 11
96.884776
 21
29.136162
 31
0.0
  0
ARC
  5
6C5
100
AcDbEntity
  8
2
100
AcDbCircle
 10
89.384776
 20
34.613388
 30
0.0
 40
10.5
100
AcDbArc
 50
54.049432
 51
125.950568
  0
ARC
  5
6C6
100
AcDbEntity
  8
2
100
AcDbCircle
 10
89.384776
 20
34.613388
 30
0.0
 40
10.5
100
AcDbArc
 50
128.24662
 51
231.75338
  0
ARC
  5
6C7
100
AcDbEntity
  8
2
100
AcDbCircle
 10
89.384776
 20
34.613388
 30
0.0
 40
10.5
100
AcDbArc
 50
234.049432
 51
305.950568
  0
LINE
  5
6C8
100
AcDbEntity
  8
2
  6
CENTER
 62
     2
100
AcDbLine
 10
89.384776
 20
-8.315567
 30
0.0
 11
89.384776
 21
52.542343
 31
0.0
  0
LINE
  5
6C9
100
AcDbEntity
  8
2
100
AcDbLine
 10
83.322598
 20
-0.886612
 30
0.0
 11
95.446954
 21
-0.886612
 31
0.0
  0
LINE
  5
6CA
100
AcDbEntity
  8
2
100
AcDbLine
 10
83.322598
 20
-0.886612
 30
0.0
 11
77.26042
 21
9.613388
 31
0.0
  0
LINE
  5
6CB
100
AcDbEntity
  8
2
100
AcDbLine
 10
96.601654
 20
18.113388
 30
0.0
 11
95.446954
 21
20.113388
 31
0.0
  0
LINE
  5
6CC
100
AcDbEntity
  8
2
100
AcDbLine
 10
77.26042
 20
9.613388
 30
0.0
 11
83.322598
 21
20.113388
 31
0.0
  0
LINE
  5
6CD
100
AcDbEntity
  8
2
100
AcDbLine
 10
96.601654
 20
1.113388
 30
0.0
 11
95.446954
 21
-0.886612
 31
0.0
  0
LINE
  5
6CE
100
AcDbEntity
  8
2
100
AcDbLine
 10
102.884776
 20
18.108996
 30
0.0
 11
110.26042
 21
17.876163
 31
0.0
  0
LINE
  5
6CF
100
AcDbEntity
  8
2
100
AcDbLine
 10
104.452254
 20
18.060013
 30
0.0
 11
104.452254
 21
1.166763
 31
0.0
  0
LINE
  5
6D0
100
AcDbEntity
  8
2
 62
     2
100
AcDbLine
 10
102.884776
 20
18.108996
 30
0.0
 11
104.452254
 21
17.204013
 31
0.0
  0
LINE
  5
6D1
100
AcDbEntity
  8
2
 62
     2
100
AcDbLine
 10
104.452254
 20
17.204013
 30
0.0
 11
110.26042
 21
17.020369
 31
0.0
  0
LINE
  5
6D2
100
AcDbEntity
  8
2
100
AcDbLine
 10
102.884776
 20
1.117779
 30
0.0
 11
110.26042
 21
1.350613
 31
0.0
  0
LINE
  5
6D3
100
AcDbEntity
  8
2
 62
     2
100
AcDbLine
 10
102.884776
 20
1.117779
 30
0.0
 11
104.452254
 21
2.022763
 31
0.0
  0
LINE
  5
6D4
100
AcDbEntity
  8
2
 62
     2
100
AcDbLine
 10
104.452254
 20
2.022763
 30
0.0
 11
110.26042
 21
2.206406
 31
0.0
  0
LINE
  5
6D5
100
AcDbEntity
  8
2
100
AcDbLine
 10
82.884776
 20
1.113388
 30
0.0
 11
102.884776
 21
1.113388
 31
0.0
  0
LINE
  5
6D6
100
AcDbEntity
  8
2
100
AcDbLine
 10
82.884776
 20
18.113388
 30
0.0
 11
102.884776
 21
18.113388
 31
0.0
  0
LINE
  5
6D7
100
AcDbEntity
  8
2
100
AcDbLine
 10
102.884776
 20
18.113388
 30
0.0
 11
102.884776
 21
1.113388
 31
0.0
  0
LINE
  5
6D8
100
AcDbEntity
  8
2
100
AcDbLine
 10
96.884776
 20
1.113388
 30
0.0
 11
96.884776
 21
4.136162
 31
0.0
  0
LINE
  5
6D9
100
AcDbEntity
  8
2
100
AcDbLine
 10
96.884776
 20
15.090613
 30
0.0
 11
96.884776
 21
18.113388
 31
0.0
  0
ARC
  5
6DA
100
AcDbEntity
  8
2
100
AcDbCircle
 10
89.384776
 20
9.613388
 30
0.0
 40
8.5
100
AcDbArc
 50
139.880833
 51
220.119167
  0
LINE
  5
6DB
100
AcDbEntity
  8
2
100
AcDbLine
 10
82.884776
 20
18.113388
 30
0.0
 11
82.884776
 21
15.090613
 31
0.0
  0
LINE
  5
6DC
100
AcDbEntity
  8
2
100
AcDbLine
 10
82.884776
 20
4.136162
 30
0.0
 11
82.884776
 21
1.113388
 31
0.0
  0
LINE
  5
6DD
100
AcDbEntity
  8
2
100
AcDbLine
 10
82.884776
 20
4.136162
 30
0.0
 11
96.884776
 21
4.136162
 31
0.0
  0
LINE
  5
6DE
100
AcDbEntity
  8
2
100
AcDbLine
 10
82.884776
 20
15.090613
 30
0.0
 11
96.884776
 21
15.090613
 31
0.0
  0
ARC
  5
6DF
100
AcDbEntity
  8
2
100
AcDbCircle
 10
89.384776
 20
9.613388
 30
0.0
 40
10.5
100
AcDbArc
 50
234.049432
 51
305.950568
  0
ARC
  5
6E0
100
AcDbEntity
  8
2
100
AcDbCircle
 10
89.384776
 20
9.613388
 30
0.0
 40
10.5
100
AcDbArc
 50
128.24662
 51
231.75338
  0
ARC
  5
6E1
100
AcDbEntity
  8
2
100
AcDbCircle
 10
89.384776
 20
9.613388
 30
0.0
 40
10.5
100
AcDbArc
 50
54.049433
 51
125.95057
  0
LINE
  5
6E2
100
AcDbEntity
  8
2
100
AcDbLine
 10
-732.235188
 20
389.237743
 30
0.0
 11
-732.002355
 21
396.613388
 31
0.0
  0
LINE
  5
6E3
100
AcDbEntity
  8
2
100
AcDbLine
 10
-732.186205
 20
390.805221
 30
0.0
 11
-715.292955
 21
390.805221
 31
0.0
  0
LINE
  5
6E4
100
AcDbEntity
  8
2
 62
     2
100
AcDbLine
 10
-732.235188
 20
389.237743
 30
0.0
 11
-731.330205
 21
390.805221
 31
0.0
  0
LINE
  5
6E5
100
AcDbEntity
  8
2
 62
     2
100
AcDbLine
 10
-731.330205
 20
390.805221
 30
0.0
 11
-731.146561
 21
396.613388
 31
0.0
  0
LINE
  5
6E6
100
AcDbEntity
  8
2
100
AcDbLine
 10
-715.243971
 20
389.237743
 30
0.0
 11
-715.476805
 21
396.613388
 31
0.0
  0
LINE
  5
6E7
100
AcDbEntity
  8
2
 62
     2
100
AcDbLine
 10
-715.243971
 20
389.237743
 30
0.0
 11
-716.148955
 21
390.805221
 31
0.0
  0
LINE
  5
6E8
100
AcDbEntity
  8
2
 62
     2
100
AcDbLine
 10
-716.148955
 20
390.805221
 30
0.0
 11
-716.332598
 21
396.613388
 31
0.0
  0
LINE
  5
6E9
100
AcDbEntity
  8
2
100
AcDbLine
 10
-732.23958
 20
389.237743
 30
0.0
 11
-715.23958
 21
389.237743
 31
0.0
  0
LINE
  5
6EA
100
AcDbEntity
  8
2
100
AcDbLine
 10
-715.23958
 20
370.237743
 30
0.0
 11
-715.23958
 21
389.237743
 31
0.0
  0
LINE
  5
6EB
100
AcDbEntity
  8
2
100
AcDbLine
 10
-732.23958
 20
385.737743
 30
0.0
 11
-732.23958
 21
389.237743
 31
0.0
  0
LINE
  5
6EC
100
AcDbEntity
  8
2
100
AcDbLine
 10
-737.23958
 20
367.237743
 30
0.0
 11
-718.23958
 21
367.237743
 31
0.0
  0
LINE
  5
6ED
100
AcDbEntity
  8
2
100
AcDbLine
 10
-737.23958
 20
384.237743
 30
0.0
 11
-733.73958
 21
384.237743
 31
0.0
  0
ARC
  5
6EE
100
AcDbEntity
  8
2
100
AcDbCircle
 10
-718.23958
 20
370.237743
 30
0.0
 40
3.0
100
AcDbArc
 50
270.0
 51
360.0
  0
ARC
  5
6EF
100
AcDbEntity
  8
2
100
AcDbCircle
 10
-733.73958
 20
385.737743
 30
0.0
 40
1.5
100
AcDbArc
 50
270.0
 51
360.0
  0
LINE
  5
6F0
100
AcDbEntity
  8
2
100
AcDbLine
 10
-737.23958
 20
367.237743
 30
0.0
 11
-737.23958
 21
384.237743
 31
0.0
  0
LINE
  5
6F1
100
AcDbEntity
  8
2
100
AcDbLine
 10
-730.23958
 20
369.237743
 30
0.0
 11
-720.23958
 21
369.237743
 31
0.0
  0
LINE
  5
6F2
100
AcDbEntity
  8
2
100
AcDbLine
 10
-718.23958
 20
371.237743
 30
0.0
 11
-718.23958
 21
381.237743
 31
0.0
  0
LINE
  5
6F3
100
AcDbEntity
  8
2
100
AcDbLine
 10
-729.23958
 20
383.237743
 30
0.0
 11
-720.23958
 21
383.237743
 31
0.0
  0
LINE
  5
6F4
100
AcDbEntity
  8
2
100
AcDbLine
 10
-732.23958
 20
371.237743
 30
0.0
 11
-732.23958
 21
380.237743
 31
0.0
  0
ARC
  5
6F5
100
AcDbEntity
  8
2
100
AcDbCircle
 10
-720.23958
 20
371.237743
 30
0.0
 40
2.0
100
AcDbArc
 50
270.0
 51
360.0
  0
ARC
  5
6F6
100
AcDbEntity
  8
2
100
AcDbCircle
 10
-720.23958
 20
381.237743
 30
0.0
 40
2.0
100
AcDbArc
 50
0.0
 51
90.0
  0
ARC
  5
6F7
100
AcDbEntity
  8
2
100
AcDbCircle
 10
-730.23958
 20
371.237743
 30
0.0
 40
2.0
100
AcDbArc
 50
180.0
 51
270.0
  0
ARC
  5
6F8
100
AcDbEntity
  8
2
100
AcDbCircle
 10
-732.23958
 20
383.237743
 30
0.0
 40
3.0
100
AcDbArc
 50
270.0
 51
360.0
  0
LINE
  5
6F9
100
AcDbEntity
  8
2
100
AcDbLine
 10
-742.23958
 20
366.644476
 30
0.0
 11
-742.23958
 21
384.83101
 31
0.0
  0
LINE
  5
6FA
100
AcDbEntity
  8
2
100
AcDbLine
 10
-758.23958
 20
366.644476
 30
0.0
 11
-758.23958
 21
384.83101
 31
0.0
  0
LINE
  5
6FB
100
AcDbEntity
  8
2
100
AcDbLine
 10
-742.23958
 20
367.406743
 30
0.0
 11
-737.23958
 21
367.406743
 31
0.0
  0
LINE
  5
6FC
100
AcDbEntity
  8
2
100
AcDbLine
 10
-742.23958
 20
384.068743
 30
0.0
 11
-737.23958
 21
384.068743
 31
0.0
  0
LINE
  5
6FD
100
AcDbEntity
  8
2
 62
     2
100
AcDbLine
 10
-742.23958
 20
368.262743
 30
0.0
 11
-738.722215
 21
368.262743
 31
0.0
  0
LINE
  5
6FE
100
AcDbEntity
  8
2
 62
     2
100
AcDbLine
 10
-742.23958
 20
383.212743
 30
0.0
 11
-738.722215
 21
383.212743
 31
0.0
  0
LINE
  5
6FF
100
AcDbEntity
  8
2
 62
     2
100
AcDbLine
 10
-737.23958
 20
367.406743
 30
0.0
 11
-738.722215
 21
368.262743
 31
0.0
  0
LINE
  5
700
100
AcDbEntity
  8
2
 62
     2
100
AcDbLine
 10
-737.23958
 20
384.068743
 30
0.0
 11
-738.722215
 21
383.212743
 31
0.0
  0
LINE
  5
701
100
AcDbEntity
  8
2
100
AcDbLine
 10
-738.722215
 20
367.406743
 30
0.0
 11
-738.722215
 21
384.068743
 31
0.0
  0
LINE
  5
702
100
AcDbEntity
  8
2
100
AcDbLine
 10
-756.73958
 20
363.613388
 30
0.0
 11
-743.73958
 21
363.613388
 31
0.0
  0
LINE
  5
703
100
AcDbEntity
  8
2
100
AcDbLine
 10
-756.73958
 20
369.675565
 30
0.0
 11
-743.73958
 21
369.675565
 31
0.0
  0
LINE
  5
704
100
AcDbEntity
  8
2
100
AcDbLine
 10
-756.73958
 20
381.799921
 30
0.0
 11
-743.73958
 21
381.799921
 31
0.0
  0
LINE
  5
705
100
AcDbEntity
  8
2
100
AcDbLine
 10
-756.73958
 20
387.862099
 30
0.0
 11
-743.73958
 21
387.862099
 31
0.0
  0
ARC
  5
706
100
AcDbEntity
  8
2
100
AcDbCircle
 10
-754.42708
 20
366.644476
 30
0.0
 40
3.8125
100
AcDbArc
 50
127.340993
 51
232.659007
  0
ARC
  5
707
100
AcDbEntity
  8
2
100
AcDbCircle
 10
-754.42708
 20
384.83101
 30
0.0
 40
3.8125
100
AcDbArc
 50
127.340993
 51
232.659007
  0
ARC
  5
708
100
AcDbEntity
  8
2
100
AcDbCircle
 10
-746.05208
 20
366.644476
 30
0.0
 40
3.8125
100
AcDbArc
 50
307.340993
 51
52.659007
  0
ARC
  5
709
100
AcDbEntity
  8
2
100
AcDbCircle
 10
-746.05208
 20
384.83101
 30
0.0
 40
3.8125
100
AcDbArc
 50
307.340993
 51
52.659007
  0
ARC
  5
70A
100
AcDbEntity
  8
2
100
AcDbCircle
 10
-745.23958
 20
375.737743
 30
0.0
 40
13.0
100
AcDbArc
 50
152.204228
 51
207.795772
  0
ARC
  5
70B
100
AcDbEntity
  8
2
100
AcDbCircle
 10
-755.23958
 20
375.737743
 30
0.0
 40
13.0
100
AcDbArc
 50
332.204228
 51
27.795772
  0
LINE
  5
70C
100
AcDbEntity
  8
2
  6
CENTER
 62
     2
100
AcDbLine
 10
-819.245836
 20
375.737743
 30
0.0
 11
-706.90142
 21
375.737743
 31
0.0
  0
LINE
  5
70D
100
AcDbEntity
  8
2
100
AcDbLine
 10
-808.23958
 20
370.737743
 30
0.0
 11
-758.23958
 21
370.737743
 31
0.0
  0
LINE
  5
70E
100
AcDbEntity
  8
2
100
AcDbLine
 10
-808.23958
 20
380.737743
 30
0.0
 11
-758.23958
 21
380.737743
 31
0.0
  0
ARC
  5
70F
100
AcDbEntity
  8
2
100
AcDbCircle
 10
-803.909453
 20
373.237743
 30
0.0
 40
5.0
100
AcDbArc
 50
150.0
 51
210.0
  0
ARC
  5
710
100
AcDbEntity
  8
2
100
AcDbCircle
 10
-812.569707
 20
378.237743
 30
0.0
 40
5.0
100
AcDbArc
 50
330.0
 51
30.0
  0
LINE
  5
711
100
AcDbEntity
  8
2
100
AcDbLine
 10
-195.235188
 20
389.237743
 30
0.0
 11
-195.002355
 21
396.613388
 31
0.0
  0
LINE
  5
712
100
AcDbEntity
  8
2
100
AcDbLine
 10
-195.186205
 20
390.805221
 30
0.0
 11
-178.292955
 21
390.805221
 31
0.0
  0
LINE
  5
713
100
AcDbEntity
  8
2
 62
     2
100
AcDbLine
 10
-195.235188
 20
389.237743
 30
0.0
 11
-194.330205
 21
390.805221
 31
0.0
  0
LINE
  5
714
100
AcDbEntity
  8
2
 62
     2
100
AcDbLine
 10
-194.330205
 20
390.805221
 30
0.0
 11
-194.146561
 21
396.613388
 31
0.0
  0
LINE
  5
715
100
AcDbEntity
  8
2
100
AcDbLine
 10
-178.243971
 20
389.237743
 30
0.0
 11
-178.476805
 21
396.613388
 31
0.0
  0
LINE
  5
716
100
AcDbEntity
  8
2
 62
     2
100
AcDbLine
 10
-178.243971
 20
389.237743
 30
0.0
 11
-179.148955
 21
390.805221
 31
0.0
  0
LINE
  5
717
100
AcDbEntity
  8
2
 62
     2
100
AcDbLine
 10
-179.148955
 20
390.805221
 30
0.0
 11
-179.332598
 21
396.613388
 31
0.0
  0
LINE
  5
718
100
AcDbEntity
  8
2
100
AcDbLine
 10
-195.23958
 20
389.237743
 30
0.0
 11
-178.23958
 21
389.237743
 31
0.0
  0
LINE
  5
719
100
AcDbEntity
  8
2
100
AcDbLine
 10
-178.23958
 20
370.237743
 30
0.0
 11
-178.23958
 21
389.237743
 31
0.0
  0
LINE
  5
71A
100
AcDbEntity
  8
2
100
AcDbLine
 10
-195.23958
 20
385.737743
 30
0.0
 11
-195.23958
 21
389.237743
 31
0.0
  0
LINE
  5
71B
100
AcDbEntity
  8
2
100
AcDbLine
 10
-200.23958
 20
367.237743
 30
0.0
 11
-181.23958
 21
367.237743
 31
0.0
  0
LINE
  5
71C
100
AcDbEntity
  8
2
100
AcDbLine
 10
-200.23958
 20
384.237743
 30
0.0
 11
-196.73958
 21
384.237743
 31
0.0
  0
ARC
  5
71D
100
AcDbEntity
  8
2
100
AcDbCircle
 10
-181.23958
 20
370.237743
 30
0.0
 40
3.0
100
AcDbArc
 50
270.0
 51
360.0
  0
ARC
  5
71E
100
AcDbEntity
  8
2
100
AcDbCircle
 10
-196.73958
 20
385.737743
 30
0.0
 40
1.5
100
AcDbArc
 50
270.0
 51
360.0
  0
LINE
  5
71F
100
AcDbEntity
  8
2
100
AcDbLine
 10
-200.23958
 20
367.237743
 30
0.0
 11
-200.23958
 21
384.237743
 31
0.0
  0
LINE
  5
720
100
AcDbEntity
  8
2
100
AcDbLine
 10
-193.23958
 20
369.237743
 30
0.0
 11
-183.23958
 21
369.237743
 31
0.0
  0
LINE
  5
721
100
AcDbEntity
  8
2
100
AcDbLine
 10
-181.23958
 20
371.237743
 30
0.0
 11
-181.23958
 21
381.237743
 31
0.0
  0
LINE
  5
722
100
AcDbEntity
  8
2
100
AcDbLine
 10
-192.23958
 20
383.237743
 30
0.0
 11
-183.23958
 21
383.237743
 31
0.0
  0
LINE
  5
723
100
AcDbEntity
  8
2
100
AcDbLine
 10
-195.23958
 20
371.237743
 30
0.0
 11
-195.23958
 21
380.237743
 31
0.0
  0
ARC
  5
724
100
AcDbEntity
  8
2
100
AcDbCircle
 10
-183.23958
 20
371.237743
 30
0.0
 40
2.0
100
AcDbArc
 50
270.0
 51
360.0
  0
ARC
  5
725
100
AcDbEntity
  8
2
100
AcDbCircle
 10
-183.23958
 20
381.237743
 30
0.0
 40
2.0
100
AcDbArc
 50
0.0
 51
90.0
  0
ARC
  5
726
100
AcDbEntity
  8
2
100
AcDbCircle
 10
-193.23958
 20
371.237743
 30
0.0
 40
2.0
100
AcDbArc
 50
180.0
 51
270.0
  0
ARC
  5
727
100
AcDbEntity
  8
2
100
AcDbCircle
 10
-195.23958
 20
383.237743
 30
0.0
 40
3.0
100
AcDbArc
 50
270.0
 51
360.0
  0
LINE
  5
728
100
AcDbEntity
  8
2
100
AcDbLine
 10
-205.23958
 20
366.644476
 30
0.0
 11
-205.23958
 21
384.83101
 31
0.0
  0
LINE
  5
729
100
AcDbEntity
  8
2
100
AcDbLine
 10
-221.23958
 20
366.644476
 30
0.0
 11
-221.23958
 21
384.83101
 31
0.0
  0
LINE
  5
72A
100
AcDbEntity
  8
2
100
AcDbLine
 10
-205.23958
 20
367.406743
 30
0.0
 11
-200.23958
 21
367.406743
 31
0.0
  0
LINE
  5
72B
100
AcDbEntity
  8
2
100
AcDbLine
 10
-205.23958
 20
384.068743
 30
0.0
 11
-200.23958
 21
384.068743
 31
0.0
  0
LINE
  5
72C
100
AcDbEntity
  8
2
 62
     2
100
AcDbLine
 10
-205.23958
 20
368.262743
 30
0.0
 11
-201.722215
 21
368.262743
 31
0.0
  0
LINE
  5
72D
100
AcDbEntity
  8
2
 62
     2
100
AcDbLine
 10
-205.23958
 20
383.212743
 30
0.0
 11
-201.722215
 21
383.212743
 31
0.0
  0
LINE
  5
72E
100
AcDbEntity
  8
2
 62
     2
100
AcDbLine
 10
-200.23958
 20
367.406743
 30
0.0
 11
-201.722215
 21
368.262743
 31
0.0
  0
LINE
  5
72F
100
AcDbEntity
  8
2
 62
     2
100
AcDbLine
 10
-200.23958
 20
384.068743
 30
0.0
 11
-201.722215
 21
383.212743
 31
0.0
  0
LINE
  5
730
100
AcDbEntity
  8
2
100
AcDbLine
 10
-201.722215
 20
367.406743
 30
0.0
 11
-201.722215
 21
384.068743
 31
0.0
  0
LINE
  5
731
100
AcDbEntity
  8
2
100
AcDbLine
 10
-219.73958
 20
363.613388
 30
0.0
 11
-206.73958
 21
363.613388
 31
0.0
  0
LINE
  5
732
100
AcDbEntity
  8
2
100
AcDbLine
 10
-219.73958
 20
369.675565
 30
0.0
 11
-206.73958
 21
369.675565
 31
0.0
  0
LINE
  5
733
100
AcDbEntity
  8
2
100
AcDbLine
 10
-219.73958
 20
381.799921
 30
0.0
 11
-206.73958
 21
381.799921
 31
0.0
  0
LINE
  5
734
100
AcDbEntity
  8
2
100
AcDbLine
 10
-219.73958
 20
387.862099
 30
0.0
 11
-206.73958
 21
387.862099
 31
0.0
  0
ARC
  5
735
100
AcDbEntity
  8
2
100
AcDbCircle
 10
-217.42708
 20
366.644476
 30
0.0
 40
3.8125
100
AcDbArc
 50
127.340993
 51
232.659007
  0
ARC
  5
736
100
AcDbEntity
  8
2
100
AcDbCircle
 10
-217.42708
 20
384.83101
 30
0.0
 40
3.8125
100
AcDbArc
 50
127.340993
 51
232.659007
  0
ARC
  5
737
100
AcDbEntity
  8
2
100
AcDbCircle
 10
-209.05208
 20
366.644476
 30
0.0
 40
3.8125
100
AcDbArc
 50
307.340993
 51
52.659007
  0
ARC
  5
738
100
AcDbEntity
  8
2
100
AcDbCircle
 10
-209.05208
 20
384.83101
 30
0.0
 40
3.8125
100
AcDbArc
 50
307.340993
 51
52.659007
  0
ARC
  5
739
100
AcDbEntity
  8
2
100
AcDbCircle
 10
-208.23958
 20
375.737743
 30
0.0
 40
13.0
100
AcDbArc
 50
152.204228
 51
207.795772
  0
ARC
  5
73A
100
AcDbEntity
  8
2
100
AcDbCircle
 10
-218.23958
 20
375.737743
 30
0.0
 40
13.0
100
AcDbArc
 50
332.204228
 51
27.795772
  0
LINE
  5
73B
100
AcDbEntity
  8
2
  6
CENTER
 62
     2
100
AcDbLine
 10
-282.245836
 20
375.737743
 30
0.0
 11
-169.90142
 21
375.737743
 31
0.0
  0
LINE
  5
73C
100
AcDbEntity
  8
2
100
AcDbLine
 10
-271.23958
 20
370.737743
 30
0.0
 11
-221.23958
 21
370.737743
 31
0.0
  0
LINE
  5
73D
100
AcDbEntity
  8
2
100
AcDbLine
 10
-271.23958
 20
380.737743
 30
0.0
 11
-221.23958
 21
380.737743
 31
0.0
  0
ARC
  5
73E
100
AcDbEntity
  8
2
100
AcDbCircle
 10
-266.909453
 20
373.237743
 30
0.0
 40
5.0
100
AcDbArc
 50
150.0
 51
210.0
  0
ARC
  5
73F
100
AcDbEntity
  8
2
100
AcDbCircle
 10
-275.569707
 20
378.237743
 30
0.0
 40
5.0
100
AcDbArc
 50
330.0
 51
30.0
  0
LINE
  5
740
100
AcDbEntity
  8
2
100
AcDbLine
 10
83.322598
 20
20.113388
 30
0.0
 11
95.446954
 21
20.113388
 31
0.0
  0
LINE
  5
741
100
AcDbEntity
  8
2
100
AcDbLine
 10
-181.184997
 20
26.148955
 30
0.0
 11
-200.184604
 21
26.026693
 31
0.0
  0
LINE
  5
742
100
AcDbEntity
  8
2
100
AcDbLine
 10
-181.29439
 20
43.148603
 30
0.0
 11
-200.293997
 21
43.026341
 31
0.0
  0
ARC
  5
743
100
AcDbEntity
  8
2
100
AcDbCircle
 10
-186.73958
 20
34.613388
 30
0.0
 40
8.5
100
AcDbArc
 50
310.688909
 51
50.048479
  0
LINE
  5
744
100
AcDbEntity
  8
2
100
AcDbLine
 10
-181.29439
 20
43.148603
 30
0.0
 11
-181.281396
 21
41.129386
 31
0.0
  0
LINE
  5
745
100
AcDbEntity
  8
2
100
AcDbLine
 10
-181.197991
 20
28.168173
 30
0.0
 11
-181.184997
 21
26.148955
 31
0.0
  0
LINE
  5
746
100
AcDbEntity
  8
2
100
AcDbLine
 10
-200.293997
 20
43.026341
 30
0.0
 11
-200.184604
 21
26.026693
 31
0.0
  0
LINE
  5
747
100
AcDbEntity
  8
2
100
AcDbLine
 10
-181.197991
 20
28.168173
 30
0.0
 11
-195.197701
 21
28.078085
 31
0.0
  0
LINE
  5
748
100
AcDbEntity
  8
2
100
AcDbLine
 10
-181.281396
 20
41.129386
 30
0.0
 11
-195.281106
 21
41.039298
 31
0.0
  0
LINE
  5
749
100
AcDbEntity
  8
2
100
AcDbLine
 10
-195.2941
 20
43.058515
 30
0.0
 11
-195.281106
 21
41.039298
 31
0.0
  0
LINE
  5
74A
100
AcDbEntity
  8
2
100
AcDbLine
 10
-195.197701
 20
28.078085
 30
0.0
 11
-195.184707
 21
26.058867
 31
0.0
  0
LINE
  5
74B
100
AcDbEntity
  8
2
100
AcDbLine
 10
-205.306763
 20
44.994125
 30
0.0
 11
-205.17163
 21
23.99456
 31
0.0
  0
LINE
  5
74C
100
AcDbEntity
  8
2
100
AcDbLine
 10
-205.185588
 20
26.163515
 30
0.0
 11
-200.185691
 21
26.195689
 31
0.0
  0
LINE
  5
74D
100
AcDbEntity
  8
2
100
AcDbLine
 10
-205.292806
 20
42.82517
 30
0.0
 11
-200.292909
 21
42.857344
 31
0.0
  0
LINE
  5
74E
100
AcDbEntity
  8
2
 62
     2
100
AcDbLine
 10
-205.191096
 20
27.019497
 30
0.0
 11
-201.673804
 21
27.042131
 31
0.0
  0
LINE
  5
74F
100
AcDbEntity
  8
2
 62
     2
100
AcDbLine
 10
-205.287297
 20
41.969188
 30
0.0
 11
-201.770006
 21
41.991821
 31
0.0
  0
LINE
  5
750
100
AcDbEntity
  8
2
 62
     2
100
AcDbLine
 10
-200.185691
 20
26.195689
 30
0.0
 11
-201.673804
 21
27.042131
 31
0.0
  0
LINE
  5
751
100
AcDbEntity
  8
2
 62
     2
100
AcDbLine
 10
-200.292909
 20
42.857344
 30
0.0
 11
-201.770006
 21
41.991821
 31
0.0
  0
LINE
  5
752
100
AcDbEntity
  8
2
100
AcDbLine
 10
-201.668296
 20
26.186149
 30
0.0
 11
-201.775514
 21
42.847804
 31
0.0
  0
LINE
  5
753
100
AcDbEntity
  8
2
100
AcDbLine
 10
-221.306432
 20
44.891167
 30
0.0
 11
-221.171299
 21
23.891602
 31
0.0
  0
LINE
  5
754
100
AcDbEntity
  8
2
100
AcDbLine
 10
-205.17163
 20
23.99456
 30
0.0
 11
-221.171299
 21
23.891602
 31
0.0
  0
LINE
  5
755
100
AcDbEntity
  8
2
100
AcDbLine
 10
-205.306763
 20
44.994125
 30
0.0
 11
-221.306432
 21
44.891167
 31
0.0
  0
ARC
  5
756
100
AcDbEntity
  8
2
100
AcDbCircle
 10
-211.267788
 20
29.20544
 30
0.0
 40
9.9375
100
AcDbArc
 50
148.477902
 51
212.259485
  0
ARC
  5
757
100
AcDbEntity
  8
2
100
AcDbCircle
 10
-215.210274
 20
39.680287
 30
0.0
 40
9.9375
100
AcDbArc
 50
328.477902
 51
32.259485
  0
ARC
  5
758
100
AcDbEntity
  8
2
100
AcDbCircle
 10
-215.142708
 20
29.180505
 30
0.0
 40
9.9375
100
AcDbArc
 50
328.477902
 51
32.259485
  0
ARC
  5
759
100
AcDbEntity
  8
2
100
AcDbCircle
 10
-211.335354
 20
39.705222
 30
0.0
 40
9.9375
100
AcDbArc
 50
148.477902
 51
212.259485
  0
LINE
  5
75A
100
AcDbEntity
  8
2
100
AcDbLine
 10
-219.738896
 20
34.401037
 30
0.0
 11
-206.739166
 21
34.48469
 31
0.0
  0
LINE
  5
75B
100
AcDbEntity
  8
2
100
AcDbLine
 10
110.26042
 20
112.613388
 30
0.0
 11
110.26042
 21
-73.386612
 31
0.0
  0
LINE
  5
75C
100
AcDbEntity
  8
2
100
AcDbLine
 10
336.26042
 20
112.613388
 30
0.0
 11
336.26042
 21
-73.386612
 31
0.0
  0
LINE
  5
75D
100
AcDbEntity
  8
2
100
AcDbLine
 10
316.26042
 20
132.613388
 30
0.0
 11
130.26042
 21
132.613388
 31
0.0
  0
LINE
  5
75E
100
AcDbEntity
  8
2
100
AcDbLine
 10
316.26042
 20
-93.386612
 30
0.0
 11
130.26042
 21
-93.386612
 31
0.0
  0
ARC
  5
75F
100
AcDbEntity
  8
2
100
AcDbCircle
 10
130.26042
 20
112.613388
 30
0.0
 40
20.0
100
AcDbArc
 50
90.0
 51
180.0
  0
ARC
  5
760
100
AcDbEntity
  8
2
100
AcDbCircle
 10
130.26042
 20
-73.386612
 30
0.0
 40
20.0
100
AcDbArc
 50
180.0
 51
270.0
  0
ARC
  5
761
100
AcDbEntity
  8
2
100
AcDbCircle
 10
316.26042
 20
-73.386612
 30
0.0
 40
20.0
100
AcDbArc
 50
270.0
 51
360.0
  0
ARC
  5
762
100
AcDbEntity
  8
2
100
AcDbCircle
 10
316.26042
 20
112.613388
 30
0.0
 40
20.0
100
AcDbArc
 50
0.0
 51
90.0
  0
LINE
  5
763
100
AcDbEntity
  8
2
100
AcDbLine
 10
157.240505
 20
37.281551
 30
0.0
 11
142.049073
 21
54.24894
 31
0.0
  0
LINE
  5
764
100
AcDbEntity
  8
2
100
AcDbLine
 10
157.240505
 20
31.945225
 30
0.0
 11
142.049073
 21
14.977836
 31
0.0
  0
ARC
  5
765
100
AcDbEntity
  8
2
100
AcDbCircle
 10
137.578946
 20
50.246695
 30
0.0
 40
6.0
100
AcDbArc
 50
41.839076
 51
90.0
  0
ARC
  5
766
100
AcDbEntity
  8
2
100
AcDbCircle
 10
137.578946
 20
18.98008
 30
0.0
 40
6.0
100
AcDbArc
 50
270.0
 51
318.160924
  0
ARC
  5
767
100
AcDbEntity
  8
2
100
AcDbCircle
 10
154.26042
 20
34.613388
 30
0.0
 40
4.0
100
AcDbArc
 50
318.160924
 51
41.839076
  0
LINE
  5
768
100
AcDbEntity
  8
2
100
AcDbLine
 10
289.280335
 20
22.281551
 30
0.0
 11
304.471768
 21
39.24894
 31
0.0
  0
LINE
  5
769
100
AcDbEntity
  8
2
100
AcDbLine
 10
289.280335
 20
16.945225
 30
0.0
 11
304.471768
 21
-0.022164
 31
0.0
  0
ARC
  5
76A
100
AcDbEntity
  8
2
100
AcDbCircle
 10
308.941895
 20
35.246695
 30
0.0
 40
6.0
100
AcDbArc
 50
90.0
 51
138.160924
  0
ARC
  5
76B
100
AcDbEntity
  8
2
100
AcDbCircle
 10
308.941895
 20
3.98008
 30
0.0
 40
6.0
100
AcDbArc
 50
221.839076
 51
270.0
  0
ARC
  5
76C
100
AcDbEntity
  8
2
100
AcDbCircle
 10
292.26042
 20
19.613388
 30
0.0
 40
4.0
100
AcDbArc
 50
138.160924
 51
221.839076
  0
LINE
  5
76D
100
AcDbEntity
  8
2
100
AcDbLine
 10
110.26042
 20
56.246695
 30
0.0
 11
137.578946
 21
56.246695
 31
0.0
  0
LINE
  5
76E
100
AcDbEntity
  8
2
100
AcDbLine
 10
110.26042
 20
12.98008
 30
0.0
 11
137.578946
 21
12.98008
 31
0.0
  0
LINE
  5
76F
100
AcDbEntity
  8
2
100
AcDbLine
 10
140.26042
 20
54.24894
 30
0.0
 11
140.26042
 21
14.977836
 31
0.0
  0
LINE
  5
770
100
AcDbEntity
  8
2
100
AcDbLine
 10
336.26042
 20
41.246695
 30
0.0
 11
308.941895
 21
41.246695
 31
0.0
  0
LINE
  5
771
100
AcDbEntity
  8
2
100
AcDbLine
 10
336.26042
 20
-2.01992
 30
0.0
 11
308.941895
 21
-2.01992
 31
0.0
  0
LINE
  5
772
100
AcDbEntity
  8
2
100
AcDbLine
 10
306.26042
 20
39.24894
 30
0.0
 11
306.26042
 21
-0.022164
 31
0.0
  0
CIRCLE
  5
773
100
AcDbEntity
  8
2
100
AcDbCircle
 10
223.26042
 20
19.613388
 30
0.0
 40
35.0
  0
ARC
  5
774
100
AcDbEntity
  8
2
100
AcDbCircle
 10
-924.73958
 20
-49.386612
 30
0.0
 40
3.0
100
AcDbArc
 50
270.0
 51
360.0
  0
ARC
  5
775
100
AcDbEntity
  8
2
100
AcDbCircle
 10
-768.73958
 20
-49.386612
 30
0.0
 40
3.0
100
AcDbArc
 50
180.0
 51
270.0
  0
LINE
  5
776
100
AcDbEntity
  8
2
  6
CENTER
 62
     2
100
AcDbLine
 10
-979.273132
 20
29.513429
 30
0.0
 11
-169.463673
 21
34.724558
 31
0.0
  0
LINE
  5
777
100
AcDbEntity
  8
2
100
AcDbLine
 10
-929.272468
 20
34.835287
 30
0.0
 11
-221.27104
 21
39.391281
 31
0.0
  0
LINE
  5
778
100
AcDbEntity
  8
2
100
AcDbLine
 10
-929.20812
 20
24.835494
 30
0.0
 11
-221.206691
 21
29.391488
 31
0.0
  0
LINE
  5
779
100
AcDbEntity
  8
2
  6
CENTER
 62
     2
100
AcDbLine
 10
-165.509965
 20
650.613388
 30
0.0
 11
-208.62433
 21
650.613388
 31
0.0
  0
LINE
  5
77A
100
AcDbEntity
  8
2
100
AcDbLine
 10
-179.73958
 20
630.213388
 30
0.0
 11
-179.73958
 21
635.113388
 31
0.0
  0
LINE
  5
77B
100
AcDbEntity
  8
2
100
AcDbLine
 10
-193.73958
 20
630.213388
 30
0.0
 11
-193.73958
 21
635.113388
 31
0.0
  0
LINE
  5
77C
100
AcDbEntity
  8
2
100
AcDbLine
 10
-179.025517
 20
629.613388
 30
0.0
 11
-194.453642
 21
629.613388
 31
0.0
  0
LINE
  5
77D
100
AcDbEntity
  8
2
100
AcDbLine
 10
-195.283703
 20
628.783327
 30
0.0
 11
-195.090892
 21
622.613388
 31
0.0
  0
LINE
  5
77E
100
AcDbEntity
  8
2
 62
     2
100
AcDbLine
 10
-194.453642
 20
629.613388
 30
0.0
 11
-194.234892
 21
622.613388
 31
0.0
  0
LINE
  5
77F
100
AcDbEntity
  8
2
100
AcDbLine
 10
-178.195457
 20
628.783327
 30
0.0
 11
-178.388267
 21
622.613388
 31
0.0
  0
LINE
  5
780
100
AcDbEntity
  8
2
 62
     2
100
AcDbLine
 10
-179.025517
 20
629.613388
 30
0.0
 11
-179.244267
 21
622.613388
 31
0.0
  0
LINE
  5
781
100
AcDbEntity
  8
2
100
AcDbLine
 10
-179.025517
 20
629.613388
 30
0.0
 11
-178.195457
 21
628.783327
 31
0.0
  0
LINE
  5
782
100
AcDbEntity
  8
2
100
AcDbLine
 10
-194.453642
 20
629.613388
 30
0.0
 11
-195.283703
 21
628.783327
 31
0.0
  0
LINE
  5
783
100
AcDbEntity
  8
2
100
AcDbLine
 10
-178.195457
 20
628.783327
 30
0.0
 11
-195.283703
 21
628.783327
 31
0.0
  0
ARC
  5
784
100
AcDbEntity
  8
2
100
AcDbCircle
 10
-179.13958
 20
630.213388
 30
0.0
 40
0.6
100
AcDbArc
 50
180.0
 51
270.0
  0
ARC
  5
785
100
AcDbEntity
  8
2
100
AcDbCircle
 10
-194.33958
 20
630.213388
 30
0.0
 40
0.6
100
AcDbArc
 50
270.0
 51
360.0
  0
ARC
  5
786
100
AcDbEntity
  8
2
100
AcDbCircle
 10
-162.295135
 20
635.113388
 30
0.0
 40
17.444444
100
AcDbArc
 50
147.621587
 51
180.0
  0
ARC
  5
787
100
AcDbEntity
  8
2
100
AcDbCircle
 10
-211.184024
 20
635.113388
 30
0.0
 40
17.444444
100
AcDbArc
 50
0.0
 51
32.378413
  0
ARC
  5
788
100
AcDbEntity
  8
2
100
AcDbCircle
 10
-186.73958
 20
650.613388
 30
0.0
 40
11.5
100
AcDbArc
 50
327.621587
 51
212.378413
  0
ARC
  5
789
100
AcDbEntity
  8
2
100
AcDbCircle
 10
-186.73958
 20
650.613388
 30
0.0
 40
13.0
100
AcDbArc
 50
306.600583
 51
233.399417
  0
LINE
  5
78A
100
AcDbEntity
  8
2
100
AcDbLine
 10
351.26042
 20
-3.386612
 30
0.0
 11
377.26042
 21
-3.386612
 31
0.0
  0
LINE
  5
78B
100
AcDbEntity
  8
2
100
AcDbLine
 10
343.86042
 20
12.613388
 30
0.0
 11
348.76042
 21
12.613388
 31
0.0
  0
LINE
  5
78C
100
AcDbEntity
  8
2
100
AcDbLine
 10
343.86042
 20
26.613388
 30
0.0
 11
357.76042
 21
26.613388
 31
0.0
  0
LINE
  5
78D
100
AcDbEntity
  8
2
100
AcDbLine
 10
351.26042
 20
-3.386612
 30
0.0
 11
351.26042
 21
0.676896
 31
0.0
  0
LINE
  5
78E
100
AcDbEntity
  8
2
100
AcDbLine
 10
377.26042
 20
-3.386612
 30
0.0
 11
377.26042
 21
0.676896
 31
0.0
  0
LINE
  5
78F
100
AcDbEntity
  8
2
100
AcDbLine
 10
352.76042
 20
1.613388
 30
0.0
 11
375.76042
 21
1.613388
 31
0.0
  0
LINE
  5
790
100
AcDbEntity
  8
2
100
AcDbLine
 10
352.76042
 20
2.613388
 30
0.0
 11
352.76042
 21
8.613388
 31
0.0
  0
LINE
  5
791
100
AcDbEntity
  8
2
100
AcDbLine
 10
375.76042
 20
2.613388
 30
0.0
 11
375.76042
 21
8.613388
 31
0.0
  0
ARC
  5
792
100
AcDbEntity
  8
2
100
AcDbCircle
 10
376.76042
 20
2.613388
 30
0.0
 40
1.0
100
AcDbArc
 50
180.0
 51
255.522488
  0
ARC
  5
793
100
AcDbEntity
  8
2
100
AcDbCircle
 10
351.76042
 20
2.613388
 30
0.0
 40
1.0
100
AcDbArc
 50
284.477512
 51
360.0
  0
ARC
  5
794
100
AcDbEntity
  8
2
100
AcDbCircle
 10
376.26042
 20
0.676896
 30
0.0
 40
1.0
100
AcDbArc
 50
0.0
 51
75.522488
  0
ARC
  5
795
100
AcDbEntity
  8
2
100
AcDbCircle
 10
352.26042
 20
0.676896
 30
0.0
 40
1.0
100
AcDbArc
 50
104.477512
 51
180.0
  0
LINE
  5
796
100
AcDbEntity
  8
2
100
AcDbLine
 10
343.26042
 20
11.899325
 30
0.0
 11
343.26042
 21
27.32745
 31
0.0
  0
ARC
  5
797
100
AcDbEntity
  8
2
100
AcDbCircle
 10
348.76042
 20
8.613388
 30
0.0
 40
4.0
100
AcDbArc
 50
0.0
 51
90.0
  0
ARC
  5
798
100
AcDbEntity
  8
2
100
AcDbCircle
 10
357.76042
 20
8.613388
 30
0.0
 40
18.0
100
AcDbArc
 50
0.0
 51
90.0
  0
LINE
  5
799
100
AcDbEntity
  8
2
100
AcDbLine
 10
342.43036
 20
28.157511
 30
0.0
 11
336.26042
 21
27.9647
 31
0.0
  0
LINE
  5
79A
100
AcDbEntity
  8
2
 62
     2
100
AcDbLine
 10
343.26042
 20
27.32745
 30
0.0
 11
336.26042
 21
27.1087
 31
0.0
  0
LINE
  5
79B
100
AcDbEntity
  8
2
100
AcDbLine
 10
342.43036
 20
11.069264
 30
0.0
 11
336.26042
 21
11.262075
 31
0.0
  0
LINE
  5
79C
100
AcDbEntity
  8
2
 62
     2
100
AcDbLine
 10
343.26042
 20
11.899325
 30
0.0
 11
336.26042
 21
12.118075
 31
0.0
  0
LINE
  5
79D
100
AcDbEntity
  8
2
100
AcDbLine
 10
343.26042
 20
11.899325
 30
0.0
 11
342.43036
 21
11.069264
 31
0.0
  0
LINE
  5
79E
100
AcDbEntity
  8
2
100
AcDbLine
 10
343.26042
 20
27.32745
 30
0.0
 11
342.43036
 21
28.157511
 31
0.0
  0
LINE
  5
79F
100
AcDbEntity
  8
2
100
AcDbLine
 10
342.43036
 20
11.069264
 30
0.0
 11
342.43036
 21
28.157511
 31
0.0
  0
ARC
  5
7A0
100
AcDbEntity
  8
2
100
AcDbCircle
 10
343.86042
 20
12.013388
 30
0.0
 40
0.6
100
AcDbArc
 50
90.0
 51
180.0
  0
ARC
  5
7A1
100
AcDbEntity
  8
2
100
AcDbCircle
 10
343.86042
 20
27.213388
 30
0.0
 40
0.6
100
AcDbArc
 50
180.0
 51
270.0
  0
LINE
  5
7A2
100
AcDbEntity
  8
2
100
AcDbLine
 10
375.26042
 20
-8.386612
 30
0.0
 11
375.26042
 21
-18.386612
 31
0.0
  0
LINE
  5
7A3
100
AcDbEntity
  8
2
100
AcDbLine
 10
353.26042
 20
-8.386612
 30
0.0
 11
353.26042
 21
-18.386612
 31
0.0
  0
LINE
  5
7A4
100
AcDbEntity
  8
2
  6
CENTER
 62
     2
100
AcDbLine
 10
364.26042
 20
-86.292135
 30
0.0
 11
364.26042
 21
35.531185
 31
0.0
  0
LINE
  5
7A5
100
AcDbEntity
  8
2
100
AcDbLine
 10
375.26042
 20
-78.386612
 30
0.0
 11
353.26042
 21
-78.386612
 31
0.0
  0
LINE
  5
7A6
100
AcDbEntity
  8
2
100
AcDbLine
 10
375.26042
 20
-78.386612
 30
0.0
 11
376.76042
 21
-76.886612
 31
0.0
  0
LINE
  5
7A7
100
AcDbEntity
  8
2
100
AcDbLine
 10
351.76042
 20
-76.886612
 30
0.0
 11
353.26042
 21
-78.386612
 31
0.0
  0
LINE
  5
7A8
100
AcDbEntity
  8
2
100
AcDbLine
 10
351.76042
 20
-76.886612
 30
0.0
 11
376.76042
 21
-76.886612
 31
0.0
  0
LINE
  5
7A9
100
AcDbEntity
  8
2
100
AcDbLine
 10
375.26042
 20
-8.386612
 30
0.0
 11
353.26042
 21
-8.386612
 31
0.0
  0
LINE
  5
7AA
100
AcDbEntity
  8
2
100
AcDbLine
 10
355.764812
 20
-8.386612
 30
0.0
 11
355.894471
 21
-3.386612
 31
0.0
  0
LINE
  5
7AB
100
AcDbEntity
  8
2
100
AcDbLine
 10
355.813795
 20
-6.819135
 30
0.0
 11
372.707045
 21
-6.819135
 31
0.0
  0
LINE
  5
7AC
100
AcDbEntity
  8
2
 62
     2
100
AcDbLine
 10
355.764812
 20
-8.386612
 30
0.0
 11
356.669795
 21
-6.819135
 31
0.0
  0
LINE
  5
7AD
100
AcDbEntity
  8
2
 62
     2
100
AcDbLine
 10
356.669795
 20
-6.819135
 30
0.0
 11
356.756506
 21
-3.386612
 31
0.0
  0
LINE
  5
7AE
100
AcDbEntity
  8
2
100
AcDbLine
 10
372.756029
 20
-8.386612
 30
0.0
 11
372.62637
 21
-3.386612
 31
0.0
  0
LINE
  5
7AF
100
AcDbEntity
  8
2
 62
     2
100
AcDbLine
 10
372.756029
 20
-8.386612
 30
0.0
 11
371.851045
 21
-6.819135
 31
0.0
  0
LINE
  5
7B0
100
AcDbEntity
  8
2
 62
     2
100
AcDbLine
 10
371.851045
 20
-6.819135
 30
0.0
 11
371.764335
 21
-3.386612
 31
0.0
  0
LINE
  5
7B1
100
AcDbEntity
  8
2
100
AcDbLine
 10
351.76042
 20
-70.886612
 30
0.0
 11
351.76042
 21
-76.886612
 31
0.0
  0
LINE
  5
7B2
100
AcDbEntity
  8
2
100
AcDbLine
 10
351.76042
 20
-18.386612
 30
0.0
 11
351.76042
 21
-24.886612
 31
0.0
  0
LINE
  5
7B3
100
AcDbEntity
  8
2
100
AcDbLine
 10
351.76042
 20
-28.886612
 30
0.0
 11
351.76042
 21
-31.886612
 31
0.0
  0
LINE
  5
7B4
100
AcDbEntity
  8
2
100
AcDbLine
 10
351.76042
 20
-35.886612
 30
0.0
 11
351.76042
 21
-38.886612
 31
0.0
  0
LINE
  5
7B5
100
AcDbEntity
  8
2
100
AcDbLine
 10
351.76042
 20
-42.886612
 30
0.0
 11
351.76042
 21
-45.886612
 31
0.0
  0
LINE
  5
7B6
100
AcDbEntity
  8
2
100
AcDbLine
 10
351.76042
 20
-49.886612
 30
0.0
 11
351.76042
 21
-52.886612
 31
0.0
  0
LINE
  5
7B7
100
AcDbEntity
  8
2
100
AcDbLine
 10
351.76042
 20
-56.886612
 30
0.0
 11
351.76042
 21
-59.886612
 31
0.0
  0
LINE
  5
7B8
100
AcDbEntity
  8
2
100
AcDbLine
 10
351.76042
 20
-63.886612
 30
0.0
 11
351.76042
 21
-66.886612
 31
0.0
  0
LINE
  5
7B9
100
AcDbEntity
  8
2
100
AcDbLine
 10
376.76042
 20
-70.886612
 30
0.0
 11
376.76042
 21
-76.886612
 31
0.0
  0
LINE
  5
7BA
100
AcDbEntity
  8
2
100
AcDbLine
 10
376.76042
 20
-18.386612
 30
0.0
 11
376.76042
 21
-24.886612
 31
0.0
  0
LINE
  5
7BB
100
AcDbEntity
  8
2
100
AcDbLine
 10
376.76042
 20
-28.886612
 30
0.0
 11
376.76042
 21
-31.886612
 31
0.0
  0
LINE
  5
7BC
100
AcDbEntity
  8
2
100
AcDbLine
 10
376.76042
 20
-35.886612
 30
0.0
 11
376.76042
 21
-38.886612
 31
0.0
  0
LINE
  5
7BD
100
AcDbEntity
  8
2
100
AcDbLine
 10
376.76042
 20
-42.886612
 30
0.0
 11
376.76042
 21
-45.886612
 31
0.0
  0
LINE
  5
7BE
100
AcDbEntity
  8
2
100
AcDbLine
 10
376.76042
 20
-49.886612
 30
0.0
 11
376.76042
 21
-52.886612
 31
0.0
  0
LINE
  5
7BF
100
AcDbEntity
  8
2
100
AcDbLine
 10
376.76042
 20
-56.886612
 30
0.0
 11
376.76042
 21
-59.886612
 31
0.0
  0
LINE
  5
7C0
100
AcDbEntity
  8
2
100
AcDbLine
 10
376.76042
 20
-63.886612
 30
0.0
 11
376.76042
 21
-66.886612
 31
0.0
  0
LINE
  5
7C1
100
AcDbEntity
  8
2
100
AcDbLine
 10
363.902161
 20
-18.386612
 30
0.0
 11
353.618679
 21
-18.386612
 31
0.0
  0
LINE
  5
7C2
100
AcDbEntity
  8
2
100
AcDbLine
 10
353.26042
 20
-18.386612
 30
0.0
 11
351.76042
 21
-18.386612
 31
0.0
  0
LINE
  5
7C3
100
AcDbEntity
  8
2
100
AcDbLine
 10
376.76042
 20
-18.386612
 30
0.0
 11
375.26042
 21
-18.386612
 31
0.0
  0
LINE
  5
7C4
100
AcDbEntity
  8
2
100
AcDbLine
 10
374.902161
 20
-18.386612
 30
0.0
 11
364.618679
 21
-18.386612
 31
0.0
  0
LINE
  5
7C5
100
AcDbEntity
  8
2
100
AcDbLine
 10
371.152907
 20
-24.886612
 30
0.0
 11
357.367933
 21
-24.886612
 31
0.0
  0
LINE
  5
7C6
100
AcDbEntity
  8
2
100
AcDbLine
 10
371.152907
 20
-28.886612
 30
0.0
 11
357.367933
 21
-28.886612
 31
0.0
  0
LINE
  5
7C7
100
AcDbEntity
  8
2
100
AcDbLine
 10
371.152907
 20
-31.886612
 30
0.0
 11
357.367933
 21
-31.886612
 31
0.0
  0
LINE
  5
7C8
100
AcDbEntity
  8
2
100
AcDbLine
 10
371.152907
 20
-35.886612
 30
0.0
 11
357.367933
 21
-35.886612
 31
0.0
  0
LINE
  5
7C9
100
AcDbEntity
  8
2
100
AcDbLine
 10
371.152907
 20
-38.886612
 30
0.0
 11
357.367933
 21
-38.886612
 31
0.0
  0
LINE
  5
7CA
100
AcDbEntity
  8
2
100
AcDbLine
 10
371.152907
 20
-42.886612
 30
0.0
 11
357.367933
 21
-42.886612
 31
0.0
  0
LINE
  5
7CB
100
AcDbEntity
  8
2
100
AcDbLine
 10
371.152907
 20
-45.886612
 30
0.0
 11
357.367933
 21
-45.886612
 31
0.0
  0
LINE
  5
7CC
100
AcDbEntity
  8
2
100
AcDbLine
 10
371.152907
 20
-49.886612
 30
0.0
 11
357.367933
 21
-49.886612
 31
0.0
  0
LINE
  5
7CD
100
AcDbEntity
  8
2
100
AcDbLine
 10
371.152907
 20
-52.886612
 30
0.0
 11
357.367933
 21
-52.886612
 31
0.0
  0
LINE
  5
7CE
100
AcDbEntity
  8
2
100
AcDbLine
 10
371.152907
 20
-56.886612
 30
0.0
 11
357.367933
 21
-56.886612
 31
0.0
  0
LINE
  5
7CF
100
AcDbEntity
  8
2
100
AcDbLine
 10
371.152907
 20
-59.886612
 30
0.0
 11
357.367933
 21
-59.886612
 31
0.0
  0
LINE
  5
7D0
100
AcDbEntity
  8
2
100
AcDbLine
 10
371.152907
 20
-63.886612
 30
0.0
 11
357.367933
 21
-63.886612
 31
0.0
  0
LINE
  5
7D1
100
AcDbEntity
  8
2
100
AcDbLine
 10
371.152907
 20
-66.886612
 30
0.0
 11
357.367933
 21
-66.886612
 31
0.0
  0
LINE
  5
7D2
100
AcDbEntity
  8
2
100
AcDbLine
 10
371.152907
 20
-70.886612
 30
0.0
 11
357.367933
 21
-70.886612
 31
0.0
  0
LINE
  5
7D3
100
AcDbEntity
  8
2
100
AcDbLine
 10
353.832399
 20
-70.886612
 30
0.0
 11
351.76042
 21
-70.886612
 31
0.0
  0
LINE
  5
7D4
100
AcDbEntity
  8
2
100
AcDbLine
 10
353.832399
 20
-66.886612
 30
0.0
 11
351.76042
 21
-66.886612
 31
0.0
  0
LINE
  5
7D5
100
AcDbEntity
  8
2
100
AcDbLine
 10
353.832399
 20
-63.886612
 30
0.0
 11
351.76042
 21
-63.886612
 31
0.0
  0
LINE
  5
7D6
100
AcDbEntity
  8
2
100
AcDbLine
 10
353.832399
 20
-59.886612
 30
0.0
 11
351.76042
 21
-59.886612
 31
0.0
  0
LINE
  5
7D7
100
AcDbEntity
  8
2
100
AcDbLine
 10
353.832399
 20
-56.886612
 30
0.0
 11
351.76042
 21
-56.886612
 31
0.0
  0
LINE
  5
7D8
100
AcDbEntity
  8
2
100
AcDbLine
 10
353.832399
 20
-52.886612
 30
0.0
 11
351.76042
 21
-52.886612
 31
0.0
  0
LINE
  5
7D9
100
AcDbEntity
  8
2
100
AcDbLine
 10
353.832399
 20
-49.886612
 30
0.0
 11
351.76042
 21
-49.886612
 31
0.0
  0
LINE
  5
7DA
100
AcDbEntity
  8
2
100
AcDbLine
 10
353.832399
 20
-45.886612
 30
0.0
 11
351.76042
 21
-45.886612
 31
0.0
  0
LINE
  5
7DB
100
AcDbEntity
  8
2
100
AcDbLine
 10
353.832399
 20
-42.886612
 30
0.0
 11
351.76042
 21
-42.886612
 31
0.0
  0
LINE
  5
7DC
100
AcDbEntity
  8
2
100
AcDbLine
 10
353.832399
 20
-38.886612
 30
0.0
 11
351.76042
 21
-38.886612
 31
0.0
  0
LINE
  5
7DD
100
AcDbEntity
  8
2
100
AcDbLine
 10
353.832399
 20
-35.886612
 30
0.0
 11
351.76042
 21
-35.886612
 31
0.0
  0
LINE
  5
7DE
100
AcDbEntity
  8
2
100
AcDbLine
 10
353.832399
 20
-31.886612
 30
0.0
 11
351.76042
 21
-31.886612
 31
0.0
  0
LINE
  5
7DF
100
AcDbEntity
  8
2
100
AcDbLine
 10
353.832399
 20
-28.886612
 30
0.0
 11
351.76042
 21
-28.886612
 31
0.0
  0
LINE
  5
7E0
100
AcDbEntity
  8
2
100
AcDbLine
 10
353.832399
 20
-24.886612
 30
0.0
 11
351.76042
 21
-24.886612
 31
0.0
  0
LINE
  5
7E1
100
AcDbEntity
  8
2
100
AcDbLine
 10
353.832399
 20
-66.886612
 30
0.0
 11
353.832399
 21
-70.886612
 31
0.0
  0
LINE
  5
7E2
100
AcDbEntity
  8
2
100
AcDbLine
 10
357.367933
 20
-66.886612
 30
0.0
 11
357.367933
 21
-70.886612
 31
0.0
  0
LINE
  5
7E3
100
AcDbEntity
  8
2
100
AcDbLine
 10
353.832399
 20
-59.886612
 30
0.0
 11
353.832399
 21
-63.886612
 31
0.0
  0
LINE
  5
7E4
100
AcDbEntity
  8
2
100
AcDbLine
 10
353.832399
 20
-52.886612
 30
0.0
 11
353.832399
 21
-56.886612
 31
0.0
  0
LINE
  5
7E5
100
AcDbEntity
  8
2
100
AcDbLine
 10
353.832399
 20
-45.886612
 30
0.0
 11
353.832399
 21
-49.886612
 31
0.0
  0
LINE
  5
7E6
100
AcDbEntity
  8
2
100
AcDbLine
 10
353.832399
 20
-38.886612
 30
0.0
 11
353.832399
 21
-42.886612
 31
0.0
  0
LINE
  5
7E7
100
AcDbEntity
  8
2
100
AcDbLine
 10
353.832399
 20
-24.886612
 30
0.0
 11
353.832399
 21
-28.886612
 31
0.0
  0
LINE
  5
7E8
100
AcDbEntity
  8
2
100
AcDbLine
 10
353.832399
 20
-31.886612
 30
0.0
 11
353.832399
 21
-35.886612
 31
0.0
  0
LINE
  5
7E9
100
AcDbEntity
  8
2
100
AcDbLine
 10
374.688441
 20
-70.886612
 30
0.0
 11
376.76042
 21
-70.886612
 31
0.0
  0
LINE
  5
7EA
100
AcDbEntity
  8
2
100
AcDbLine
 10
374.688441
 20
-66.886612
 30
0.0
 11
376.76042
 21
-66.886612
 31
0.0
  0
LINE
  5
7EB
100
AcDbEntity
  8
2
100
AcDbLine
 10
374.688441
 20
-63.886612
 30
0.0
 11
376.76042
 21
-63.886612
 31
0.0
  0
LINE
  5
7EC
100
AcDbEntity
  8
2
100
AcDbLine
 10
374.688441
 20
-59.886612
 30
0.0
 11
376.76042
 21
-59.886612
 31
0.0
  0
LINE
  5
7ED
100
AcDbEntity
  8
2
100
AcDbLine
 10
374.688441
 20
-56.886612
 30
0.0
 11
376.76042
 21
-56.886612
 31
0.0
  0
LINE
  5
7EE
100
AcDbEntity
  8
2
100
AcDbLine
 10
374.688441
 20
-52.886612
 30
0.0
 11
376.76042
 21
-52.886612
 31
0.0
  0
LINE
  5
7EF
100
AcDbEntity
  8
2
100
AcDbLine
 10
374.688441
 20
-49.886612
 30
0.0
 11
376.76042
 21
-49.886612
 31
0.0
  0
LINE
  5
7F0
100
AcDbEntity
  8
2
100
AcDbLine
 10
374.688441
 20
-45.886612
 30
0.0
 11
376.76042
 21
-45.886612
 31
0.0
  0
LINE
  5
7F1
100
AcDbEntity
  8
2
100
AcDbLine
 10
374.688441
 20
-42.886612
 30
0.0
 11
376.76042
 21
-42.886612
 31
0.0
  0
LINE
  5
7F2
100
AcDbEntity
  8
2
100
AcDbLine
 10
374.688441
 20
-38.886612
 30
0.0
 11
376.76042
 21
-38.886612
 31
0.0
  0
LINE
  5
7F3
100
AcDbEntity
  8
2
100
AcDbLine
 10
374.688441
 20
-35.886612
 30
0.0
 11
376.76042
 21
-35.886612
 31
0.0
  0
LINE
  5
7F4
100
AcDbEntity
  8
2
100
AcDbLine
 10
374.688441
 20
-31.886612
 30
0.0
 11
376.76042
 21
-31.886612
 31
0.0
  0
LINE
  5
7F5
100
AcDbEntity
  8
2
100
AcDbLine
 10
374.688441
 20
-28.886612
 30
0.0
 11
376.76042
 21
-28.886612
 31
0.0
  0
LINE
  5
7F6
100
AcDbEntity
  8
2
100
AcDbLine
 10
374.688441
 20
-24.886612
 30
0.0
 11
376.76042
 21
-24.886612
 31
0.0
  0
LINE
  5
7F7
100
AcDbEntity
  8
2
100
AcDbLine
 10
374.688441
 20
-66.886612
 30
0.0
 11
374.688441
 21
-70.886612
 31
0.0
  0
LINE
  5
7F8
100
AcDbEntity
  8
2
100
AcDbLine
 10
374.688441
 20
-59.886612
 30
0.0
 11
374.688441
 21
-63.886612
 31
0.0
  0
LINE
  5
7F9
100
AcDbEntity
  8
2
100
AcDbLine
 10
374.688441
 20
-52.886612
 30
0.0
 11
374.688441
 21
-56.886612
 31
0.0
  0
LINE
  5
7FA
100
AcDbEntity
  8
2
100
AcDbLine
 10
374.688441
 20
-45.886612
 30
0.0
 11
374.688441
 21
-49.886612
 31
0.0
  0
LINE
  5
7FB
100
AcDbEntity
  8
2
100
AcDbLine
 10
374.688441
 20
-38.886612
 30
0.0
 11
374.688441
 21
-42.886612
 31
0.0
  0
LINE
  5
7FC
100
AcDbEntity
  8
2
100
AcDbLine
 10
374.688441
 20
-24.886612
 30
0.0
 11
374.688441
 21
-28.886612
 31
0.0
  0
LINE
  5
7FD
100
AcDbEntity
  8
2
100
AcDbLine
 10
374.688441
 20
-31.886612
 30
0.0
 11
374.688441
 21
-35.886612
 31
0.0
  0
LINE
  5
7FE
100
AcDbEntity
  8
2
100
AcDbLine
 10
359.181655
 20
-66.886612
 30
0.0
 11
359.181655
 21
-70.886612
 31
0.0
  0
LINE
  5
7FF
100
AcDbEntity
  8
2
100
AcDbLine
 10
369.339185
 20
-66.886612
 30
0.0
 11
369.339185
 21
-70.886612
 31
0.0
  0
LINE
  5
800
100
AcDbEntity
  8
2
100
AcDbLine
 10
371.152907
 20
-66.886612
 30
0.0
 11
371.152907
 21
-70.886612
 31
0.0
  0
LINE
  5
801
100
AcDbEntity
  8
2
100
AcDbLine
 10
359.181655
 20
-59.886612
 30
0.0
 11
359.181655
 21
-63.886612
 31
0.0
  0
LINE
  5
802
100
AcDbEntity
  8
2
100
AcDbLine
 10
357.367933
 20
-59.886612
 30
0.0
 11
357.367933
 21
-63.886612
 31
0.0
  0
LINE
  5
803
100
AcDbEntity
  8
2
100
AcDbLine
 10
369.339185
 20
-59.886612
 30
0.0
 11
369.339185
 21
-63.886612
 31
0.0
  0
LINE
  5
804
100
AcDbEntity
  8
2
100
AcDbLine
 10
371.152907
 20
-59.886612
 30
0.0
 11
371.152907
 21
-63.886612
 31
0.0
  0
LINE
  5
805
100
AcDbEntity
  8
2
100
AcDbLine
 10
357.367933
 20
-52.886612
 30
0.0
 11
357.367933
 21
-56.886612
 31
0.0
  0
LINE
  5
806
100
AcDbEntity
  8
2
100
AcDbLine
 10
359.181655
 20
-52.886612
 30
0.0
 11
359.181655
 21
-56.886612
 31
0.0
  0
LINE
  5
807
100
AcDbEntity
  8
2
100
AcDbLine
 10
369.339185
 20
-52.886612
 30
0.0
 11
369.339185
 21
-56.886612
 31
0.0
  0
LINE
  5
808
100
AcDbEntity
  8
2
100
AcDbLine
 10
371.152907
 20
-52.886612
 30
0.0
 11
371.152907
 21
-56.886612
 31
0.0
  0
LINE
  5
809
100
AcDbEntity
  8
2
100
AcDbLine
 10
357.367933
 20
-45.886612
 30
0.0
 11
357.367933
 21
-49.886612
 31
0.0
  0
LINE
  5
80A
100
AcDbEntity
  8
2
100
AcDbLine
 10
359.181655
 20
-45.886612
 30
0.0
 11
359.181655
 21
-49.886612
 31
0.0
  0
LINE
  5
80B
100
AcDbEntity
  8
2
100
AcDbLine
 10
369.339185
 20
-45.886612
 30
0.0
 11
369.339185
 21
-49.886612
 31
0.0
  0
LINE
  5
80C
100
AcDbEntity
  8
2
100
AcDbLine
 10
371.152907
 20
-45.886612
 30
0.0
 11
371.152907
 21
-49.886612
 31
0.0
  0
LINE
  5
80D
100
AcDbEntity
  8
2
100
AcDbLine
 10
357.367933
 20
-38.886612
 30
0.0
 11
357.367933
 21
-42.886612
 31
0.0
  0
LINE
  5
80E
100
AcDbEntity
  8
2
100
AcDbLine
 10
359.181655
 20
-38.886612
 30
0.0
 11
359.181655
 21
-42.886612
 31
0.0
  0
LINE
  5
80F
100
AcDbEntity
  8
2
100
AcDbLine
 10
369.339185
 20
-38.886612
 30
0.0
 11
369.339185
 21
-42.886612
 31
0.0
  0
LINE
  5
810
100
AcDbEntity
  8
2
100
AcDbLine
 10
371.152907
 20
-38.886612
 30
0.0
 11
371.152907
 21
-42.886612
 31
0.0
  0
LINE
  5
811
100
AcDbEntity
  8
2
100
AcDbLine
 10
357.367933
 20
-24.886612
 30
0.0
 11
357.367933
 21
-28.886612
 31
0.0
  0
LINE
  5
812
100
AcDbEntity
  8
2
100
AcDbLine
 10
357.367933
 20
-31.886612
 30
0.0
 11
357.367933
 21
-35.886612
 31
0.0
  0
LINE
  5
813
100
AcDbEntity
  8
2
100
AcDbLine
 10
359.181655
 20
-24.886612
 30
0.0
 11
359.181655
 21
-28.886612
 31
0.0
  0
LINE
  5
814
100
AcDbEntity
  8
2
100
AcDbLine
 10
359.181655
 20
-31.886612
 30
0.0
 11
359.181655
 21
-35.886612
 31
0.0
  0
LINE
  5
815
100
AcDbEntity
  8
2
100
AcDbLine
 10
369.339185
 20
-24.886612
 30
0.0
 11
369.339185
 21
-28.886612
 31
0.0
  0
LINE
  5
816
100
AcDbEntity
  8
2
100
AcDbLine
 10
369.339185
 20
-31.886612
 30
0.0
 11
369.339185
 21
-35.886612
 31
0.0
  0
LINE
  5
817
100
AcDbEntity
  8
2
100
AcDbLine
 10
371.152907
 20
-24.886612
 30
0.0
 11
371.152907
 21
-28.886612
 31
0.0
  0
LINE
  5
818
100
AcDbEntity
  8
2
100
AcDbLine
 10
371.152907
 20
-31.886612
 30
0.0
 11
371.152907
 21
-35.886612
 31
0.0
  0
LINE
  5
819
100
AcDbEntity
  8
2
100
AcDbLine
 10
363.902161
 20
-8.386612
 30
0.0
 11
363.902161
 21
-18.386612
 31
0.0
  0
LINE
  5
81A
100
AcDbEntity
  8
2
100
AcDbLine
 10
364.618679
 20
-8.386612
 30
0.0
 11
364.618679
 21
-18.386612
 31
0.0
  0
LINE
  5
81B
100
AcDbEntity
  8
2
100
AcDbLine
 10
353.618679
 20
-8.386612
 30
0.0
 11
353.618679
 21
-18.386612
 31
0.0
  0
LINE
  5
81C
100
AcDbEntity
  8
2
100
AcDbLine
 10
374.902161
 20
-8.386612
 30
0.0
 11
374.902161
 21
-18.386612
 31
0.0
  0
LINE
  5
81D
100
AcDbEntity
  8
2
100
AcDbLine
 10
-1148.73958
 20
596.613388
 30
0.0
 11
-1148.73958
 21
622.613388
 31
0.0
  0
LINE
  5
81E
100
AcDbEntity
  8
2
100
AcDbLine
 10
-1164.73958
 20
589.213388
 30
0.0
 11
-1164.73958
 21
594.113388
 31
0.0
  0
LINE
  5
81F
100
AcDbEntity
  8
2
100
AcDbLine
 10
-1178.73958
 20
589.213388
 30
0.0
 11
-1178.73958
 21
603.113388
 31
0.0
  0
LINE
  5
820
100
AcDbEntity
  8
2
100
AcDbLine
 10
-1148.73958
 20
596.613388
 30
0.0
 11
-1152.803088
 21
596.613388
 31
0.0
  0
LINE
  5
821
100
AcDbEntity
  8
2
100
AcDbLine
 10
-1148.73958
 20
622.613388
 30
0.0
 11
-1152.803088
 21
622.613388
 31
0.0
  0
LINE
  5
822
100
AcDbEntity
  8
2
100
AcDbLine
 10
-1153.73958
 20
598.113388
 30
0.0
 11
-1153.73958
 21
621.113388
 31
0.0
  0
LINE
  5
823
100
AcDbEntity
  8
2
100
AcDbLine
 10
-1154.73958
 20
598.113388
 30
0.0
 11
-1160.73958
 21
598.113388
 31
0.0
  0
LINE
  5
824
100
AcDbEntity
  8
2
100
AcDbLine
 10
-1154.73958
 20
621.113388
 30
0.0
 11
-1160.73958
 21
621.113388
 31
0.0
  0
ARC
  5
825
100
AcDbEntity
  8
2
100
AcDbCircle
 10
-1154.73958
 20
622.113388
 30
0.0
 40
1.0
100
AcDbArc
 50
270.0
 51
345.522488
  0
ARC
  5
826
100
AcDbEntity
  8
2
100
AcDbCircle
 10
-1154.73958
 20
597.113388
 30
0.0
 40
1.0
100
AcDbArc
 50
14.477512
 51
90.0
  0
ARC
  5
827
100
AcDbEntity
  8
2
100
AcDbCircle
 10
-1152.803088
 20
621.613388
 30
0.0
 40
1.0
100
AcDbArc
 50
90.0
 51
165.522488
  0
ARC
  5
828
100
AcDbEntity
  8
2
100
AcDbCircle
 10
-1152.803088
 20
597.613388
 30
0.0
 40
1.0
100
AcDbArc
 50
194.477512
 51
270.0
  0
LINE
  5
829
100
AcDbEntity
  8
2
100
AcDbLine
 10
-1164.025517
 20
588.613388
 30
0.0
 11
-1179.453642
 21
588.613388
 31
0.0
  0
ARC
  5
82A
100
AcDbEntity
  8
2
100
AcDbCircle
 10
-1160.73958
 20
594.113388
 30
0.0
 40
4.0
100
AcDbArc
 50
90.0
 51
180.0
  0
ARC
  5
82B
100
AcDbEntity
  8
2
100
AcDbCircle
 10
-1160.73958
 20
603.113388
 30
0.0
 40
18.0
100
AcDbArc
 50
90.0
 51
180.0
  0
LINE
  5
82C
100
AcDbEntity
  8
2
100
AcDbLine
 10
-1180.283703
 20
587.783327
 30
0.0
 11
-1180.090892
 21
581.613388
 31
0.0
  0
LINE
  5
82D
100
AcDbEntity
  8
2
 62
     2
100
AcDbLine
 10
-1179.453642
 20
588.613388
 30
0.0
 11
-1179.234892
 21
581.613388
 31
0.0
  0
LINE
  5
82E
100
AcDbEntity
  8
2
100
AcDbLine
 10
-1163.195457
 20
587.783327
 30
0.0
 11
-1163.388267
 21
581.613388
 31
0.0
  0
LINE
  5
82F
100
AcDbEntity
  8
2
 62
     2
100
AcDbLine
 10
-1164.025517
 20
588.613388
 30
0.0
 11
-1164.244267
 21
581.613388
 31
0.0
  0
LINE
  5
830
100
AcDbEntity
  8
2
100
AcDbLine
 10
-1164.025517
 20
588.613388
 30
0.0
 11
-1163.195457
 21
587.783327
 31
0.0
  0
LINE
  5
831
100
AcDbEntity
  8
2
100
AcDbLine
 10
-1179.453642
 20
588.613388
 30
0.0
 11
-1180.283703
 21
587.783327
 31
0.0
  0
LINE
  5
832
100
AcDbEntity
  8
2
100
AcDbLine
 10
-1163.195457
 20
587.783327
 30
0.0
 11
-1180.283703
 21
587.783327
 31
0.0
  0
ARC
  5
833
100
AcDbEntity
  8
2
100
AcDbCircle
 10
-1164.13958
 20
589.213388
 30
0.0
 40
0.6
100
AcDbArc
 50
180.0
 51
270.0
  0
ARC
  5
834
100
AcDbEntity
  8
2
100
AcDbCircle
 10
-1179.33958
 20
589.213388
 30
0.0
 40
0.6
100
AcDbArc
 50
270.0
 51
360.0
  0
LINE
  5
835
100
AcDbEntity
  8
2
  6
CENTER
 62
     2
100
AcDbLine
 10
-1102.73958
 20
627.841014
 30
0.0
 11
-1102.73958
 21
591.794618
 31
0.0
  0
LINE
  5
836
100
AcDbEntity
  8
2
  6
CENTER
 62
     2
100
AcDbLine
 10
-997.770663
 20
609.613388
 30
0.0
 11
-1187.657377
 21
609.613388
 31
0.0
  0
LINE
  5
837
100
AcDbEntity
  8
2
100
AcDbLine
 10
-1106.203681
 20
603.613388
 30
0.0
 11
-1099.275478
 21
603.613388
 31
0.0
  0
LINE
  5
838
100
AcDbEntity
  8
2
100
AcDbLine
 10
-1106.203681
 20
615.613388
 30
0.0
 11
-1099.275478
 21
615.613388
 31
0.0
  0
LINE
  5
839
100
AcDbEntity
  8
2
100
AcDbLine
 10
-1095.811376
 20
609.613388
 30
0.0
 11
-1099.275478
 21
603.613388
 31
0.0
  0
LINE
  5
83A
100
AcDbEntity
  8
2
100
AcDbLine
 10
-1106.203681
 20
615.613388
 30
0.0
 11
-1109.667783
 21
609.613388
 31
0.0
  0
LINE
  5
83B
100
AcDbEntity
  8
2
100
AcDbLine
 10
-1109.667783
 20
609.613388
 30
0.0
 11
-1106.203681
 21
603.613388
 31
0.0
  0
LINE
  5
83C
100
AcDbEntity
  8
2
100
AcDbLine
 10
-1095.811376
 20
609.613388
 30
0.0
 11
-1099.275478
 21
615.613388
 31
0.0
  0
CIRCLE
  5
83D
100
AcDbEntity
  8
2
100
AcDbCircle
 10
-1102.73958
 20
609.613388
 30
0.0
 40
6.0
  0
LINE
  5
83E
100
AcDbEntity
  8
2
100
AcDbLine
 10
-1132.73958
 20
596.613388
 30
0.0
 11
-1078.73958
 21
596.613388
 31
0.0
  0
LINE
  5
83F
100
AcDbEntity
  8
2
100
AcDbLine
 10
-1132.73958
 20
622.613388
 30
0.0
 11
-1078.73958
 21
622.613388
 31
0.0
  0
LINE
  5
840
100
AcDbEntity
  8
2
100
AcDbLine
 10
-1077.73958
 20
621.613388
 30
0.0
 11
-1077.73958
 21
597.613388
 31
0.0
  0
LINE
  5
841
100
AcDbEntity
  8
2
100
AcDbLine
 10
-1133.73958
 20
621.613388
 30
0.0
 11
-1133.73958
 21
597.613388
 31
0.0
  0
LINE
  5
842
100
AcDbEntity
  8
2
100
AcDbLine
 10
-1132.73958
 20
598.113388
 30
0.0
 11
-1078.73958
 21
598.113388
 31
0.0
  0
LINE
  5
843
100
AcDbEntity
  8
2
100
AcDbLine
 10
-1132.73958
 20
621.113388
 30
0.0
 11
-1078.73958
 21
621.113388
 31
0.0
  0
LINE
  5
844
100
AcDbEntity
  8
2
100
AcDbLine
 10
-1132.73958
 20
622.613388
 30
0.0
 11
-1132.73958
 21
596.613388
 31
0.0
  0
LINE
  5
845
100
AcDbEntity
  8
2
100
AcDbLine
 10
-1078.73958
 20
622.613388
 30
0.0
 11
-1078.73958
 21
596.613388
 31
0.0
  0
LINE
  5
846
100
AcDbEntity
  8
2
100
AcDbLine
 10
-1132.73958
 20
596.613388
 30
0.0
 11
-1133.73958
 21
597.613388
 31
0.0
  0
LINE
  5
847
100
AcDbEntity
  8
2
100
AcDbLine
 10
-1078.73958
 20
596.613388
 30
0.0
 11
-1077.73958
 21
597.613388
 31
0.0
  0
LINE
  5
848
100
AcDbEntity
  8
2
100
AcDbLine
 10
-1077.73958
 20
621.613388
 30
0.0
 11
-1078.73958
 21
622.613388
 31
0.0
  0
LINE
  5
849
100
AcDbEntity
  8
2
100
AcDbLine
 10
-1132.73958
 20
622.613388
 30
0.0
 11
-1133.73958
 21
621.613388
 31
0.0
  0
LINE
  5
84A
100
AcDbEntity
  8
2
100
AcDbLine
 10
-1132.73958
 20
598.113388
 30
0.0
 11
-1133.73958
 21
597.613388
 31
0.0
  0
LINE
  5
84B
100
AcDbEntity
  8
2
100
AcDbLine
 10
-1078.73958
 20
598.113388
 30
0.0
 11
-1077.73958
 21
597.613388
 31
0.0
  0
LINE
  5
84C
100
AcDbEntity
  8
2
100
AcDbLine
 10
-1078.73958
 20
621.113388
 30
0.0
 11
-1077.73958
 21
621.613388
 31
0.0
  0
LINE
  5
84D
100
AcDbEntity
  8
2
100
AcDbLine
 10
-1133.73958
 20
621.613388
 30
0.0
 11
-1132.73958
 21
621.113388
 31
0.0
  0
CIRCLE
  5
84E
100
AcDbEntity
  8
2
100
AcDbCircle
 10
-1102.73958
 20
609.613388
 30
0.0
 40
8.0
  0
LINE
  5
84F
100
AcDbEntity
  8
2
100
AcDbLine
 10
-1101.23958
 20
614.383084
 30
0.0
 11
-1101.23958
 21
604.843692
 31
0.0
  0
LINE
  5
850
100
AcDbEntity
  8
2
100
AcDbLine
 10
-1104.23958
 20
614.383084
 30
0.0
 11
-1104.23958
 21
604.843692
 31
0.0
  0
CIRCLE
  5
851
100
AcDbEntity
  8
2
100
AcDbCircle
 10
-1102.73958
 20
609.613388
 30
0.0
 40
5.0
  0
ARC
  5
852
100
AcDbEntity
  8
2
100
AcDbCircle
 10
-1102.73958
 20
609.613388
 30
0.0
 40
4.5
100
AcDbArc
 50
289.471221
 51
70.528779
  0
ARC
  5
853
100
AcDbEntity
  8
2
100
AcDbCircle
 10
-1102.73958
 20
609.613388
 30
0.0
 40
4.5
100
AcDbArc
 50
109.471221
 51
250.528779
  0
LINE
  5
854
100
AcDbEntity
  8
2
  6
CENTER
 62
     2
100
AcDbLine
 10
-1037.73958
 20
627.841014
 30
0.0
 11
-1037.73958
 21
591.794618
 31
0.0
  0
LINE
  5
855
100
AcDbEntity
  8
2
100
AcDbLine
 10
-1034.275478
 20
603.613388
 30
0.0
 11
-1041.203681
 21
603.613388
 31
0.0
  0
LINE
  5
856
100
AcDbEntity
  8
2
100
AcDbLine
 10
-1034.275478
 20
615.613388
 30
0.0
 11
-1041.203681
 21
615.613388
 31
0.0
  0
LINE
  5
857
100
AcDbEntity
  8
2
100
AcDbLine
 10
-1044.667783
 20
609.613388
 30
0.0
 11
-1041.203681
 21
603.613388
 31
0.0
  0
LINE
  5
858
100
AcDbEntity
  8
2
100
AcDbLine
 10
-1034.275478
 20
615.613388
 30
0.0
 11
-1030.811376
 21
609.613388
 31
0.0
  0
LINE
  5
859
100
AcDbEntity
  8
2
100
AcDbLine
 10
-1030.811376
 20
609.613388
 30
0.0
 11
-1034.275478
 21
603.613388
 31
0.0
  0
LINE
  5
85A
100
AcDbEntity
  8
2
100
AcDbLine
 10
-1044.667783
 20
609.613388
 30
0.0
 11
-1041.203681
 21
615.613388
 31
0.0
  0
CIRCLE
  5
85B
100
AcDbEntity
  8
2
100
AcDbCircle
 10
-1037.73958
 20
609.613388
 30
0.0
 40
6.0
  0
LINE
  5
85C
100
AcDbEntity
  8
2
100
AcDbLine
 10
-1007.73958
 20
596.613388
 30
0.0
 11
-1061.73958
 21
596.613388
 31
0.0
  0
LINE
  5
85D
100
AcDbEntity
  8
2
100
AcDbLine
 10
-1007.73958
 20
622.613388
 30
0.0
 11
-1061.73958
 21
622.613388
 31
0.0
  0
LINE
  5
85E
100
AcDbEntity
  8
2
100
AcDbLine
 10
-1062.73958
 20
621.613388
 30
0.0
 11
-1062.73958
 21
597.613388
 31
0.0
  0
LINE
  5
85F
100
AcDbEntity
  8
2
100
AcDbLine
 10
-1006.73958
 20
621.613388
 30
0.0
 11
-1006.73958
 21
597.613388
 31
0.0
  0
LINE
  5
860
100
AcDbEntity
  8
2
100
AcDbLine
 10
-1007.73958
 20
598.113388
 30
0.0
 11
-1061.73958
 21
598.113388
 31
0.0
  0
LINE
  5
861
100
AcDbEntity
  8
2
100
AcDbLine
 10
-1007.73958
 20
621.113388
 30
0.0
 11
-1061.73958
 21
621.113388
 31
0.0
  0
LINE
  5
862
100
AcDbEntity
  8
2
100
AcDbLine
 10
-1007.73958
 20
622.613388
 30
0.0
 11
-1007.73958
 21
596.613388
 31
0.0
  0
LINE
  5
863
100
AcDbEntity
  8
2
100
AcDbLine
 10
-1061.73958
 20
622.613388
 30
0.0
 11
-1061.73958
 21
596.613388
 31
0.0
  0
LINE
  5
864
100
AcDbEntity
  8
2
100
AcDbLine
 10
-1007.73958
 20
596.613388
 30
0.0
 11
-1006.73958
 21
597.613388
 31
0.0
  0
LINE
  5
865
100
AcDbEntity
  8
2
100
AcDbLine
 10
-1061.73958
 20
596.613388
 30
0.0
 11
-1062.73958
 21
597.613388
 31
0.0
  0
LINE
  5
866
100
AcDbEntity
  8
2
100
AcDbLine
 10
-1062.73958
 20
621.613388
 30
0.0
 11
-1061.73958
 21
622.613388
 31
0.0
  0
LINE
  5
867
100
AcDbEntity
  8
2
100
AcDbLine
 10
-1007.73958
 20
622.613388
 30
0.0
 11
-1006.73958
 21
621.613388
 31
0.0
  0
LINE
  5
868
100
AcDbEntity
  8
2
100
AcDbLine
 10
-1007.73958
 20
598.113388
 30
0.0
 11
-1006.73958
 21
597.613388
 31
0.0
  0
LINE
  5
869
100
AcDbEntity
  8
2
100
AcDbLine
 10
-1061.73958
 20
598.113388
 30
0.0
 11
-1062.73958
 21
597.613388
 31
0.0
  0
LINE
  5
86A
100
AcDbEntity
  8
2
100
AcDbLine
 10
-1061.73958
 20
621.113388
 30
0.0
 11
-1062.73958
 21
621.613388
 31
0.0
  0
LINE
  5
86B
100
AcDbEntity
  8
2
100
AcDbLine
 10
-1006.73958
 20
621.613388
 30
0.0
 11
-1007.73958
 21
621.113388
 31
0.0
  0
CIRCLE
  5
86C
100
AcDbEntity
  8
2
100
AcDbCircle
 10
-1037.73958
 20
609.613388
 30
0.0
 40
8.0
  0
LINE
  5
86D
100
AcDbEntity
  8
2
100
AcDbLine
 10
-1039.23958
 20
614.383084
 30
0.0
 11
-1039.23958
 21
604.843692
 31
0.0
  0
LINE
  5
86E
100
AcDbEntity
  8
2
100
AcDbLine
 10
-1036.23958
 20
614.383084
 30
0.0
 11
-1036.23958
 21
604.843692
 31
0.0
  0
CIRCLE
  5
86F
100
AcDbEntity
  8
2
100
AcDbCircle
 10
-1037.73958
 20
609.613388
 30
0.0
 40
5.0
  0
ARC
  5
870
100
AcDbEntity
  8
2
100
AcDbCircle
 10
-1037.73958
 20
609.613388
 30
0.0
 40
4.5
100
AcDbArc
 50
109.471221
 51
250.528779
  0
ARC
  5
871
100
AcDbEntity
  8
2
100
AcDbCircle
 10
-1037.73958
 20
609.613388
 30
0.0
 40
4.5
100
AcDbArc
 50
289.471221
 51
70.528779
  0
LINE
  5
872
100
AcDbEntity
  8
2
100
AcDbLine
 10
-1141.23958
 20
601.043325
 30
0.0
 11
-1148.73958
 21
601.2777
 31
0.0
  0
LINE
  5
873
100
AcDbEntity
  8
2
 62
     2
100
AcDbLine
 10
-1141.23958
 20
601.043325
 30
0.0
 11
-1142.807057
 21
601.948309
 31
0.0
  0
LINE
  5
874
100
AcDbEntity
  8
2
 62
     2
100
AcDbLine
 10
-1142.807057
 20
601.948309
 30
0.0
 11
-1148.73958
 21
602.1337
 31
0.0
  0
LINE
  5
875
100
AcDbEntity
  8
2
100
AcDbLine
 10
-1141.23958
 20
618.18345
 30
0.0
 11
-1148.73958
 21
617.949075
 31
0.0
  0
LINE
  5
876
100
AcDbEntity
  8
2
 62
     2
100
AcDbLine
 10
-1141.23958
 20
618.18345
 30
0.0
 11
-1142.807057
 21
617.278466
 31
0.0
  0
LINE
  5
877
100
AcDbEntity
  8
2
 62
     2
100
AcDbLine
 10
-1142.807057
 20
617.278466
 30
0.0
 11
-1148.73958
 21
617.093075
 31
0.0
  0
LINE
  5
878
100
AcDbEntity
  8
2
100
AcDbLine
 10
-1142.807057
 20
601.092309
 30
0.0
 11
-1142.807057
 21
618.134466
 31
0.0
  0
LINE
  5
879
100
AcDbEntity
  8
2
100
AcDbLine
 10
-1141.23958
 20
601.043325
 30
0.0
 11
-1133.73958
 21
601.2777
 31
0.0
  0
LINE
  5
87A
100
AcDbEntity
  8
2
 62
     2
100
AcDbLine
 10
-1141.23958
 20
601.043325
 30
0.0
 11
-1139.672102
 21
601.948309
 31
0.0
  0
LINE
  5
87B
100
AcDbEntity
  8
2
 62
     2
100
AcDbLine
 10
-1139.672102
 20
601.948309
 30
0.0
 11
-1133.73958
 21
602.1337
 31
0.0
  0
LINE
  5
87C
100
AcDbEntity
  8
2
100
AcDbLine
 10
-1141.23958
 20
618.18345
 30
0.0
 11
-1133.73958
 21
617.949075
 31
0.0
  0
LINE
  5
87D
100
AcDbEntity
  8
2
 62
     2
100
AcDbLine
 10
-1141.23958
 20
618.18345
 30
0.0
 11
-1139.672102
 21
617.278466
 31
0.0
  0
LINE
  5
87E
100
AcDbEntity
  8
2
 62
     2
100
AcDbLine
 10
-1139.672102
 20
617.278466
 30
0.0
 11
-1133.73958
 21
617.093075
 31
0.0
  0
LINE
  5
87F
100
AcDbEntity
  8
2
100
AcDbLine
 10
-1139.672102
 20
601.092309
 30
0.0
 11
-1139.672102
 21
618.134466
 31
0.0
  0
LINE
  5
880
100
AcDbEntity
  8
2
100
AcDbLine
 10
-1070.23958
 20
601.043325
 30
0.0
 11
-1077.73958
 21
601.2777
 31
0.0
  0
LINE
  5
881
100
AcDbEntity
  8
2
 62
     2
100
AcDbLine
 10
-1070.23958
 20
601.043325
 30
0.0
 11
-1071.807057
 21
601.948309
 31
0.0
  0
LINE
  5
882
100
AcDbEntity
  8
2
 62
     2
100
AcDbLine
 10
-1071.807057
 20
601.948309
 30
0.0
 11
-1077.73958
 21
602.1337
 31
0.0
  0
LINE
  5
883
100
AcDbEntity
  8
2
100
AcDbLine
 10
-1070.23958
 20
618.18345
 30
0.0
 11
-1077.73958
 21
617.949075
 31
0.0
  0
LINE
  5
884
100
AcDbEntity
  8
2
 62
     2
100
AcDbLine
 10
-1070.23958
 20
618.18345
 30
0.0
 11
-1071.807057
 21
617.278466
 31
0.0
  0
LINE
  5
885
100
AcDbEntity
  8
2
 62
     2
100
AcDbLine
 10
-1071.807057
 20
617.278466
 30
0.0
 11
-1077.73958
 21
617.093075
 31
0.0
  0
LINE
  5
886
100
AcDbEntity
  8
2
100
AcDbLine
 10
-1071.807057
 20
601.092309
 30
0.0
 11
-1071.807057
 21
618.134466
 31
0.0
  0
LINE
  5
887
100
AcDbEntity
  8
2
100
AcDbLine
 10
-1070.23958
 20
601.043325
 30
0.0
 11
-1062.73958
 21
601.2777
 31
0.0
  0
LINE
  5
888
100
AcDbEntity
  8
2
 62
     2
100
AcDbLine
 10
-1070.23958
 20
601.043325
 30
0.0
 11
-1068.672102
 21
601.948309
 31
0.0
  0
LINE
  5
889
100
AcDbEntity
  8
2
 62
     2
100
AcDbLine
 10
-1068.672102
 20
601.948309
 30
0.0
 11
-1062.73958
 21
602.1337
 31
0.0
  0
LINE
  5
88A
100
AcDbEntity
  8
2
100
AcDbLine
 10
-1070.23958
 20
618.18345
 30
0.0
 11
-1062.73958
 21
617.949075
 31
0.0
  0
LINE
  5
88B
100
AcDbEntity
  8
2
 62
     2
100
AcDbLine
 10
-1070.23958
 20
618.18345
 30
0.0
 11
-1068.672102
 21
617.278466
 31
0.0
  0
LINE
  5
88C
100
AcDbEntity
  8
2
 62
     2
100
AcDbLine
 10
-1068.672102
 20
617.278466
 30
0.0
 11
-1062.73958
 21
617.093075
 31
0.0
  0
LINE
  5
88D
100
AcDbEntity
  8
2
100
AcDbLine
 10
-1068.672102
 20
601.092309
 30
0.0
 11
-1068.672102
 21
618.134466
 31
0.0
  0
LINE
  5
88E
100
AcDbEntity
  8
2
100
AcDbLine
 10
-180.802409
 20
-15.58119
 30
0.0
 11
-180.802409
 21
-18.386612
 31
0.0
  0
LINE
  5
88F
100
AcDbEntity
  8
2
100
AcDbLine
 10
-180.181886
 20
-15.419397
 30
0.0
 11
-180.181886
 21
-18.386612
 31
0.0
  0
LINE
  5
890
100
AcDbEntity
  8
2
100
AcDbLine
 10
-174.23958
 20
-18.386612
 30
0.0
 11
-180.181886
 21
-18.386612
 31
0.0
  0
LINE
  5
891
100
AcDbEntity
  8
2
100
AcDbLine
 10
-180.802409
 20
-18.386612
 30
0.0
 11
-182.73958
 21
-18.386612
 31
0.0
  0
LINE
  5
892
100
AcDbEntity
  8
2
100
AcDbLine
 10
-174.23958
 20
-15.386612
 30
0.0
 11
-174.23958
 21
-24.886612
 31
0.0
  0
LINE
  5
893
100
AcDbEntity
  8
2
100
AcDbLine
 10
-174.23958
 20
-28.886612
 30
0.0
 11
-174.23958
 21
-31.886612
 31
0.0
  0
LINE
  5
894
100
AcDbEntity
  8
2
100
AcDbLine
 10
-174.23958
 20
-35.886612
 30
0.0
 11
-174.23958
 21
-38.886612
 31
0.0
  0
LINE
  5
895
100
AcDbEntity
  8
2
100
AcDbLine
 10
-174.23958
 20
-42.886612
 30
0.0
 11
-174.23958
 21
-45.886612
 31
0.0
  0
LINE
  5
896
100
AcDbEntity
  8
2
100
AcDbLine
 10
-174.23958
 20
-49.886612
 30
0.0
 11
-174.23958
 21
-52.886612
 31
0.0
  0
LINE
  5
897
100
AcDbEntity
  8
2
100
AcDbLine
 10
-174.23958
 20
-56.886612
 30
0.0
 11
-174.23958
 21
-57.886612
 31
0.0
  0
LINE
  5
898
100
AcDbEntity
  8
2
100
AcDbLine
 10
-179.847093
 20
-24.886612
 30
0.0
 11
-182.73958
 21
-24.886612
 31
0.0
  0
LINE
  5
899
100
AcDbEntity
  8
2
100
AcDbLine
 10
-179.847093
 20
-28.886612
 30
0.0
 11
-182.73958
 21
-28.886612
 31
0.0
  0
LINE
  5
89A
100
AcDbEntity
  8
2
100
AcDbLine
 10
-179.847093
 20
-31.886612
 30
0.0
 11
-182.73958
 21
-31.886612
 31
0.0
  0
LINE
  5
89B
100
AcDbEntity
  8
2
100
AcDbLine
 10
-179.847093
 20
-35.886612
 30
0.0
 11
-182.73958
 21
-35.886612
 31
0.0
  0
LINE
  5
89C
100
AcDbEntity
  8
2
100
AcDbLine
 10
-179.847093
 20
-38.886612
 30
0.0
 11
-182.73958
 21
-38.886612
 31
0.0
  0
LINE
  5
89D
100
AcDbEntity
  8
2
100
AcDbLine
 10
-179.847093
 20
-42.886612
 30
0.0
 11
-182.73958
 21
-42.886612
 31
0.0
  0
LINE
  5
89E
100
AcDbEntity
  8
2
100
AcDbLine
 10
-179.847093
 20
-45.886612
 30
0.0
 11
-182.73958
 21
-45.886612
 31
0.0
  0
LINE
  5
89F
100
AcDbEntity
  8
2
100
AcDbLine
 10
-179.847093
 20
-49.886612
 30
0.0
 11
-182.73958
 21
-49.886612
 31
0.0
  0
LINE
  5
8A0
100
AcDbEntity
  8
2
100
AcDbLine
 10
-179.847093
 20
-52.886612
 30
0.0
 11
-182.73958
 21
-52.886612
 31
0.0
  0
LINE
  5
8A1
100
AcDbEntity
  8
2
100
AcDbLine
 10
-179.847093
 20
-56.886612
 30
0.0
 11
-182.73958
 21
-56.886612
 31
0.0
  0
LINE
  5
8A2
100
AcDbEntity
  8
2
100
AcDbLine
 10
-176.311559
 20
-56.886612
 30
0.0
 11
-174.23958
 21
-56.886612
 31
0.0
  0
LINE
  5
8A3
100
AcDbEntity
  8
2
100
AcDbLine
 10
-176.311559
 20
-52.886612
 30
0.0
 11
-174.23958
 21
-52.886612
 31
0.0
  0
LINE
  5
8A4
100
AcDbEntity
  8
2
100
AcDbLine
 10
-176.311559
 20
-49.886612
 30
0.0
 11
-174.23958
 21
-49.886612
 31
0.0
  0
LINE
  5
8A5
100
AcDbEntity
  8
2
100
AcDbLine
 10
-176.311559
 20
-45.886612
 30
0.0
 11
-174.23958
 21
-45.886612
 31
0.0
  0
LINE
  5
8A6
100
AcDbEntity
  8
2
100
AcDbLine
 10
-176.311559
 20
-42.886612
 30
0.0
 11
-174.23958
 21
-42.886612
 31
0.0
  0
LINE
  5
8A7
100
AcDbEntity
  8
2
100
AcDbLine
 10
-176.311559
 20
-38.886612
 30
0.0
 11
-174.23958
 21
-38.886612
 31
0.0
  0
LINE
  5
8A8
100
AcDbEntity
  8
2
100
AcDbLine
 10
-176.311559
 20
-35.886612
 30
0.0
 11
-174.23958
 21
-35.886612
 31
0.0
  0
LINE
  5
8A9
100
AcDbEntity
  8
2
100
AcDbLine
 10
-176.311559
 20
-31.886612
 30
0.0
 11
-174.23958
 21
-31.886612
 31
0.0
  0
LINE
  5
8AA
100
AcDbEntity
  8
2
100
AcDbLine
 10
-176.311559
 20
-28.886612
 30
0.0
 11
-174.23958
 21
-28.886612
 31
0.0
  0
LINE
  5
8AB
100
AcDbEntity
  8
2
100
AcDbLine
 10
-176.311559
 20
-24.886612
 30
0.0
 11
-174.23958
 21
-24.886612
 31
0.0
  0
LINE
  5
8AC
100
AcDbEntity
  8
2
100
AcDbLine
 10
-176.311559
 20
-52.886612
 30
0.0
 11
-176.311559
 21
-56.886612
 31
0.0
  0
LINE
  5
8AD
100
AcDbEntity
  8
2
100
AcDbLine
 10
-176.311559
 20
-45.886612
 30
0.0
 11
-176.311559
 21
-49.886612
 31
0.0
  0
LINE
  5
8AE
100
AcDbEntity
  8
2
100
AcDbLine
 10
-176.311559
 20
-38.886612
 30
0.0
 11
-176.311559
 21
-42.886612
 31
0.0
  0
LINE
  5
8AF
100
AcDbEntity
  8
2
100
AcDbLine
 10
-176.311559
 20
-24.886612
 30
0.0
 11
-176.311559
 21
-28.886612
 31
0.0
  0
LINE
  5
8B0
100
AcDbEntity
  8
2
100
AcDbLine
 10
-176.311559
 20
-31.886612
 30
0.0
 11
-176.311559
 21
-35.886612
 31
0.0
  0
LINE
  5
8B1
100
AcDbEntity
  8
2
100
AcDbLine
 10
-181.660815
 20
-52.886612
 30
0.0
 11
-181.660815
 21
-56.886612
 31
0.0
  0
LINE
  5
8B2
100
AcDbEntity
  8
2
100
AcDbLine
 10
-179.847093
 20
-52.886612
 30
0.0
 11
-179.847093
 21
-56.886612
 31
0.0
  0
LINE
  5
8B3
100
AcDbEntity
  8
2
100
AcDbLine
 10
-181.660815
 20
-45.886612
 30
0.0
 11
-181.660815
 21
-49.886612
 31
0.0
  0
LINE
  5
8B4
100
AcDbEntity
  8
2
100
AcDbLine
 10
-179.847093
 20
-45.886612
 30
0.0
 11
-179.847093
 21
-49.886612
 31
0.0
  0
LINE
  5
8B5
100
AcDbEntity
  8
2
100
AcDbLine
 10
-181.660815
 20
-38.886612
 30
0.0
 11
-181.660815
 21
-42.886612
 31
0.0
  0
LINE
  5
8B6
100
AcDbEntity
  8
2
100
AcDbLine
 10
-179.847093
 20
-38.886612
 30
0.0
 11
-179.847093
 21
-42.886612
 31
0.0
  0
LINE
  5
8B7
100
AcDbEntity
  8
2
100
AcDbLine
 10
-181.660815
 20
-24.886612
 30
0.0
 11
-181.660815
 21
-28.886612
 31
0.0
  0
LINE
  5
8B8
100
AcDbEntity
  8
2
100
AcDbLine
 10
-181.660815
 20
-31.886612
 30
0.0
 11
-181.660815
 21
-35.886612
 31
0.0
  0
LINE
  5
8B9
100
AcDbEntity
  8
2
100
AcDbLine
 10
-179.847093
 20
-24.886612
 30
0.0
 11
-179.847093
 21
-28.886612
 31
0.0
  0
LINE
  5
8BA
100
AcDbEntity
  8
2
100
AcDbLine
 10
-179.847093
 20
-31.886612
 30
0.0
 11
-179.847093
 21
-35.886612
 31
0.0
  0
LINE
  5
8BB
100
AcDbEntity
  8
2
  6
CENTER
 62
     2
100
AcDbLine
 10
-846.73958
 20
172.642922
 30
0.0
 11
-846.73958
 21
-142.386612
 31
0.0
  0
LINE
  5
8BC
100
AcDbEntity
  8
2
  6
CENTER
 62
     2
100
AcDbLine
 10
283.26042
 20
169.114264
 30
0.0
 11
283.26042
 21
-142.386612
 31
0.0
  0
LINE
  5
8BD
100
AcDbEntity
  8
2
  6
CENTER
 62
     2
100
AcDbLine
 10
-1106.037974
 20
569.613388
 30
0.0
 11
-595.366465
 21
569.613388
 31
0.0
  0
POINT
  5
8BE
100
AcDbEntity
  8
5
100
AcDbPoint
 10
77.26042
 20
34.613388
 30
0.0
  0
TEXT
  5
8BF
100
AcDbEntity
  8
5
100
AcDbText
 10
791.908966
 20
-373.0648
 30
0.0
 40
42.0
  1
駆動部・・・ＴＧ－１２Ｓ
 72
     5
 11
1287.508966
 21
-373.0648
 31
0.0
100
AcDbText
  0
TEXT
  5
8C0
100
AcDbEntity
  8
5
100
AcDbText
 10
-1099.504579
 20
787.837944
 30
0.0
 40
23.1
  1
360(概略)
 41
1.4
 72
     5
 11
-960.442581
 21
787.837944
 31
0.0
100
AcDbText
  0
DIMENSION
  5
8C1
100
AcDbEntity
  8
5
 62
     2
100
AcDbDimension
  2
*D0
 10
-846.73958
 20
784.337944
 30
0.0
 11
-1026.73958
 21
786.337944
 31
0.0
  3
STANDARD
100
AcDbAlignedDimension
 13
-1206.73958
 23
518.260388
 33
0.0
 14
-846.73958
 24
672.837375
 34
0.0
100
AcDbRotatedDimension
  0
TEXT
  5
8C2
100
AcDbEntity
  8
5
100
AcDbText
 10
-559.504579
 20
787.837944
 30
0.0
 40
23.1
  1
720(概略)
 41
1.4
 72
     5
 11
-420.442581
 21
787.837944
 31
0.0
100
AcDbText
  0
DIMENSION
  5
8C3
100
AcDbEntity
  8
5
 62
     2
100
AcDbDimension
  2
*D1
 10
-126.73958
 20
784.337944
 30
0.0
 11
-486.73958
 21
786.337944
 31
0.0
  3
STANDARD
100
AcDbAlignedDimension
 13
-846.73958
 23
672.837375
 33
0.0
 14
-126.73958
 24
523.530888
 34
0.0
100
AcDbRotatedDimension
  0
DIMENSION
  5
8C4
100
AcDbEntity
  8
5
 62
     2
100
AcDbDimension
  2
*D2
 10
322.61042
 20
-836.967468
 30
0.0
 11
283.26042
 21
-821.917468
 31
0.0
  3
STANDARD
100
AcDbAlignedDimension
 13
243.91042
 23
-693.086612
 33
0.0
 14
322.61042
 24
-693.086612
 34
0.0
100
AcDbRotatedDimension
  0
DIMENSION
  5
8C5
100
AcDbEntity
  8
5
 62
     2
100
AcDbDimension
  2
*D3
 10
-4.102251
 20
164.613388
 30
0.0
 11
-31.857251
 21
9.958388
 31
0.0
  3
STANDARD
100
AcDbAlignedDimension
 13
213.26042
 23
-142.386612
 33
0.0
 14
266.289858
 24
164.613388
 34
0.0
 50
90.0
100
AcDbRotatedDimension
  0
DIMENSION
  5
8C6
100
AcDbEntity
  8
5
 62
     2
100
AcDbDimension
  2
*D4
 10
-4.102251
 20
-142.386612
 30
0.0
 11
-31.857251
 21
-317.641612
 31
0.0
  3
STANDARD
100
AcDbAlignedDimension
 13
220.885213
 23
-490.586612
 33
0.0
 14
213.26042
 24
-142.386612
 34
0.0
 50
90.0
100
AcDbRotatedDimension
  0
DIMENSION
  5
8C7
100
AcDbEntity
  8
5
 62
     2
100
AcDbDimension
  2
*D5
 10
-4.102251
 20
-490.586612
 30
0.0
 11
-80.36725
 21
-678.401612
 31
0.0
  3
STANDARD
100
AcDbAlignedDimension
 13
259.082751
 23
-766.886612
 33
0.0
 14
220.885213
 24
-490.586612
 34
0.0
 50
90.0
100
AcDbRotatedDimension
  0
DIMENSION
  5
8C8
100
AcDbEntity
  8
5
 62
     2
100
AcDbDimension
  2
*D6
 10
377.26042
 20
343.262882
 30
0.0
 11
469.940419
 21
358.312882
 31
0.0
  3
STANDARD
100
AcDbAlignedDimension
 13
283.26042
 23
169.114264
 33
0.0
 14
377.26042
 24
0.676896
 34
0.0
100
AcDbRotatedDimension
  0
DIMENSION
  5
8C9
100
AcDbEntity
  8
5
 62
     2
100
AcDbDimension
  2
*D7
 10
283.26042
 20
343.262882
 30
0.0
 11
180.26042
 21
358.312882
 31
0.0
  3
STANDARD
100
AcDbAlignedDimension
 13
77.26042
 23
34.613388
 33
0.0
 14
283.26042
 24
169.114264
 34
0.0
100
AcDbRotatedDimension
  0
DIMENSION
  5
8CA
100
AcDbEntity
  8
5
 62
     2
100
AcDbDimension
  2
*D8
 10
283.26042
 20
258.036539
 30
0.0
 11
253.26042
 21
273.086539
 31
0.0
  3
STANDARD
100
AcDbAlignedDimension
 13
223.26042
 23
160.139084
 33
0.0
 14
283.26042
 24
169.114264
 34
0.0
100
AcDbRotatedDimension
  0
TEXT
  5
8CB
100
AcDbEntity
  8
18
100
AcDbText
 10
855.012413
 20
-932.847946
 30
0.0
 40
21.0
  1
１
 72
     5
 11
871.812413
 21
-932.847946
 31
0.0
100
AcDbText
  0
TEXT
  5
8CC
100
AcDbEntity
  8
18
100
AcDbText
 10
1274.494537
 20
-889.820953
 30
0.0
 40
14.0
  1
′０９．４．２２
 72
     5
 11
1383.694537
 21
-889.820953
 31
0.0
100
AcDbText
  0
LINE
  5
8CD
100
AcDbEntity
  8
18
100
AcDbLine
 10
850.843533
 20
-463.509327
 30
0.0
 11
1200.843533
 21
-463.509327
 31
0.0
  0
LINE
  5
8CE
100
AcDbEntity
  8
18
100
AcDbLine
 10
850.843533
 20
-463.509327
 30
0.0
 11
850.843533
 21
-673.509327
 31
0.0
  0
LINE
  5
8CF
100
AcDbEntity
  8
18
100
AcDbLine
 10
850.843533
 20
-603.509327
 30
0.0
 11
1200.843533
 21
-603.509327
 31
0.0
  0
LINE
  5
8D0
100
AcDbEntity
  8
18
100
AcDbLine
 10
850.843533
 20
-638.509327
 30
0.0
 11
1200.843533
 21
-638.509327
 31
0.0
  0
LINE
  5
8D1
100
AcDbEntity
  8
18
100
AcDbLine
 10
850.843533
 20
-673.509327
 30
0.0
 11
1200.843533
 21
-673.509327
 31
0.0
  0
LINE
  5
8D2
100
AcDbEntity
  8
18
100
AcDbLine
 10
1025.843533
 20
-463.509327
 30
0.0
 11
1025.843533
 21
-638.509327
 31
0.0
  0
LINE
  5
8D3
100
AcDbEntity
  8
18
100
AcDbLine
 10
1200.843533
 20
-463.509327
 30
0.0
 11
1200.843533
 21
-673.509327
 31
0.0
  0
TEXT
  5
8D4
100
AcDbEntity
  8
18
100
AcDbText
 10
921.758694
 20
-630.264172
 30
0.0
 40
21.0
  1
A
 72
     5
 11
938.558694
 21
-630.264172
 31
0.0
100
AcDbText
  0
TEXT
  5
8D5
100
AcDbEntity
  8
18
100
AcDbText
 10
1096.67506
 20
-630.825253
 30
0.0
 40
21.0
  1
B
 72
     5
 11
1113.47506
 21
-630.825253
 31
0.0
100
AcDbText
  0
LINE
  5
8D6
100
AcDbEntity
  8
18
  6
CENTER
 62
     2
100
AcDbLine
 10
1106.517132
 20
-566.498386
 30
0.0
 11
1106.517128
 21
-524.799395
 31
0.0
  0
LINE
  5
8D7
100
AcDbEntity
  8
18
  6
CENTER
 62
     2
100
AcDbLine
 10
1068.318844
 20
-546.15054
 30
0.0
 11
1143.972698
 21
-546.15054
 31
0.0
  0
LINE
  5
8D8
100
AcDbEntity
  8
18
100
AcDbLine
 10
1077.349233
 20
-555.873172
 30
0.0
 11
1077.349233
 21
-536.427908
 31
0.0
  0
LINE
  5
8D9
100
AcDbEntity
  8
18
  6
CENTER
 62
     2
100
AcDbLine
 10
1114.619324
 20
-598.911772
 30
0.0
 11
1114.619324
 21
-468.464167
 31
0.0
  0
LINE
  5
8DA
100
AcDbEntity
  8
18
100
AcDbLine
 10
1126.502542
 20
-593.165165
 30
0.0
 11
1126.502542
 21
-529.946153
 31
0.0
  0
LINE
  5
8DB
100
AcDbEntity
  8
18
100
AcDbLine
 10
1093.619324
 20
-475.510915
 30
0.0
 11
1135.619324
 21
-475.510915
 31
0.0
  0
LINE
  5
8DC
100
AcDbEntity
  8
18
100
AcDbLine
 10
1102.736107
 20
-593.165165
 30
0.0
 11
1126.502542
 21
-593.165165
 31
0.0
  0
LINE
  5
8DD
100
AcDbEntity
  8
18
100
AcDbLine
 10
1093.619324
 20
-529.946153
 30
0.0
 11
1135.619324
 21
-529.946153
 31
0.0
  0
LINE
  5
8DE
100
AcDbEntity
  8
18
100
AcDbLine
 10
1102.736107
 20
-562.354928
 30
0.0
 11
1126.502542
 21
-562.354928
 31
0.0
  0
LINE
  5
8DF
100
AcDbEntity
  8
18
100
AcDbLine
 10
1102.736107
 20
-562.354928
 30
0.0
 11
1098.158116
 21
-549.869497
 31
0.0
  0
LINE
  5
8E0
100
AcDbEntity
  8
18
100
AcDbLine
 10
1098.158116
 20
-542.431583
 30
0.0
 11
1102.736107
 21
-529.946153
 31
0.0
  0
ARC
  5
8E1
100
AcDbEntity
  8
18
100
AcDbCircle
 10
1108.300726
 20
-546.15054
 30
0.0
 40
10.802925
100
AcDbArc
 50
159.863697
 51
200.136303
  0
LINE
  5
8E2
100
AcDbEntity
  8
18
100
AcDbLine
 10
1102.736107
 20
-593.165165
 30
0.0
 11
1102.736107
 21
-562.354928
 31
0.0
  0
ARC
  5
8E3
100
AcDbEntity
  8
18
100
AcDbCircle
 10
1106.517131
 20
-546.15054
 30
0.0
 40
16.204388
100
AcDbArc
 50
104.149808
 51
255.850192
  0
LINE
  5
8E4
100
AcDbEntity
  8
18
100
AcDbLine
 10
1135.685028
 20
-555.873172
 30
0.0
 11
1126.502542
 21
-555.873172
 31
0.0
  0
LINE
  5
8E5
100
AcDbEntity
  8
18
100
AcDbLine
 10
1093.553621
 20
-555.873172
 30
0.0
 11
1077.349233
 21
-555.873172
 31
0.0
  0
LINE
  5
8E6
100
AcDbEntity
  8
18
100
AcDbLine
 10
1112.246247
 20
-551.879656
 30
0.0
 11
1113.39207
 21
-553.025479
 31
0.0
  0
LINE
  5
8E7
100
AcDbEntity
  8
18
100
AcDbLine
 10
1112.246247
 20
-540.421424
 30
0.0
 11
1113.39207
 21
-539.275601
 31
0.0
  0
ARC
  5
8E8
100
AcDbEntity
  8
18
100
AcDbCircle
 10
1106.517131
 20
-546.15054
 30
0.0
 40
8.102194
100
AcDbArc
 50
315.0
 51
45.0
  0
ARC
  5
8E9
100
AcDbEntity
  8
18
100
AcDbCircle
 10
1106.517131
 20
-546.15054
 30
0.0
 40
9.722633
100
AcDbArc
 50
315.0
 51
45.0
  0
LINE
  5
8EA
100
AcDbEntity
  8
18
100
AcDbLine
 10
1111.328443
 20
-551.446263
 30
0.0
 11
1105.351571
 21
-548.586812
 31
0.0
  0
LINE
  5
8EB
100
AcDbEntity
  8
18
100
AcDbLine
 10
1111.832044
 20
-550.940644
 30
0.0
 11
1108.948724
 21
-544.975251
 31
0.0
  0
ARC
  5
8EC
100
AcDbEntity
  8
18
100
AcDbCircle
 10
1106.517131
 20
-546.15054
 30
0.0
 40
2.700731
100
AcDbArc
 50
25.796392
 51
244.432646
  0
ARC
  5
8ED
100
AcDbEntity
  8
18
100
AcDbCircle
 10
1111.491621
 20
-551.105185
 30
0.0
 40
0.378102
100
AcDbArc
 50
244.432646
 51
25.796392
  0
LINE
  5
8EE
100
AcDbEntity
  8
18
100
AcDbLine
 10
1114.343249
 20
-544.053538
 30
0.0
 11
1115.908472
 21
-543.634138
 31
0.0
  0
LINE
  5
8EF
100
AcDbEntity
  8
18
100
AcDbLine
 10
1114.343249
 20
-548.247542
 30
0.0
 11
1115.908472
 21
-548.666942
 31
0.0
  0
TEXT
  5
8F0
100
AcDbEntity
  8
18
100
AcDbText
 10
1117.558289
 20
-559.501505
 30
0.0
 40
7.56
  1
S
 50
45.0
 72
     5
 11
1121.834871
 21
-555.224923
 31
0.0
100
AcDbText
  0
TEXT
  5
8F1
100
AcDbEntity
  8
18
100
AcDbText
 10
1122.121877
 20
-537.363163
 30
0.0
 40
7.56
  1
O
 50
135.0
 72
     5
 11
1117.845295
 21
-533.086581
 31
0.0
100
AcDbText
  0
LINE
  5
8F2
100
AcDbEntity
  8
18
  6
CENTER
 62
     2
100
AcDbLine
 10
907.733433
 20
-532.665813
 30
0.0
 11
952.972172
 21
-532.665809
 31
0.0
  0
LINE
  5
8F3
100
AcDbEntity
  8
18
  6
CENTER
 62
     2
100
AcDbLine
 10
929.590731
 20
-508.547313
 30
0.0
 11
929.590731
 21
-561.259211
 31
0.0
  0
LINE
  5
8F4
100
AcDbEntity
  8
18
100
AcDbLine
 10
900.422834
 20
-522.94318
 30
0.0
 11
900.422834
 21
-528.884788
 31
0.0
  0
LINE
  5
8F5
100
AcDbEntity
  8
18
  6
CENTER
 62
     2
100
AcDbLine
 10
876.8295
 20
-540.768006
 30
0.0
 11
1007.277105
 21
-540.768006
 31
0.0
  0
LINE
  5
8F6
100
AcDbEntity
  8
18
100
AcDbLine
 10
882.576106
 20
-552.651223
 30
0.0
 11
945.795119
 21
-552.651223
 31
0.0
  0
LINE
  5
8F7
100
AcDbEntity
  8
18
100
AcDbLine
 10
1000.230356
 20
-519.768006
 30
0.0
 11
1000.230356
 21
-561.768006
 31
0.0
  0
LINE
  5
8F8
100
AcDbEntity
  8
18
100
AcDbLine
 10
882.576106
 20
-528.884788
 30
0.0
 11
882.576106
 21
-552.651223
 31
0.0
  0
LINE
  5
8F9
100
AcDbEntity
  8
18
100
AcDbLine
 10
945.795119
 20
-519.768006
 30
0.0
 11
945.795119
 21
-561.768006
 31
0.0
  0
LINE
  5
8FA
100
AcDbEntity
  8
18
100
AcDbLine
 10
913.386344
 20
-528.884788
 30
0.0
 11
913.386344
 21
-552.651223
 31
0.0
  0
LINE
  5
8FB
100
AcDbEntity
  8
18
100
AcDbLine
 10
913.386344
 20
-528.884788
 30
0.0
 11
925.871774
 21
-524.306797
 31
0.0
  0
LINE
  5
8FC
100
AcDbEntity
  8
18
100
AcDbLine
 10
933.309689
 20
-524.306797
 30
0.0
 11
945.795119
 21
-528.884788
 31
0.0
  0
ARC
  5
8FD
100
AcDbEntity
  8
18
100
AcDbCircle
 10
929.590731
 20
-534.449408
 30
0.0
 40
10.802925
100
AcDbArc
 50
69.863697
 51
110.136303
  0
LINE
  5
8FE
100
AcDbEntity
  8
18
100
AcDbLine
 10
882.576106
 20
-528.884788
 30
0.0
 11
913.386344
 21
-528.884788
 31
0.0
  0
ARC
  5
8FF
100
AcDbEntity
  8
18
100
AcDbCircle
 10
929.590731
 20
-532.665812
 30
0.0
 40
16.204388
100
AcDbArc
 50
14.149808
 51
165.850192
  0
LINE
  5
900
100
AcDbEntity
  8
18
100
AcDbLine
 10
900.422834
 20
-522.94318
 30
0.0
 11
916.627221
 21
-522.94318
 31
0.0
  0
LINE
  5
901
100
AcDbEntity
  8
18
100
AcDbLine
 10
942.554241
 20
-522.94318
 30
0.0
 11
945.795119
 21
-522.94318
 31
0.0
  0
LINE
  5
902
100
AcDbEntity
  8
18
100
AcDbLine
 10
923.861615
 20
-538.394928
 30
0.0
 11
922.715792
 21
-539.540752
 31
0.0
  0
LINE
  5
903
100
AcDbEntity
  8
18
100
AcDbLine
 10
935.319847
 20
-538.394928
 30
0.0
 11
936.465671
 21
-539.540752
 31
0.0
  0
ARC
  5
904
100
AcDbEntity
  8
18
100
AcDbCircle
 10
929.590731
 20
-532.665812
 30
0.0
 40
8.102194
100
AcDbArc
 50
225.0
 51
315.0
  0
ARC
  5
905
100
AcDbEntity
  8
18
100
AcDbCircle
 10
929.590731
 20
-532.665812
 30
0.0
 40
9.722633
100
AcDbArc
 50
225.0
 51
315.0
  0
LINE
  5
906
100
AcDbEntity
  8
18
100
AcDbLine
 10
924.295009
 20
-537.477124
 30
0.0
 11
927.15446
 21
-531.500253
 31
0.0
  0
LINE
  5
907
100
AcDbEntity
  8
18
100
AcDbLine
 10
924.800627
 20
-537.980726
 30
0.0
 11
930.76602
 21
-535.097405
 31
0.0
  0
ARC
  5
908
100
AcDbEntity
  8
18
100
AcDbCircle
 10
929.590731
 20
-532.665812
 30
0.0
 40
2.700731
100
AcDbArc
 50
295.796392
 51
154.432646
  0
ARC
  5
909
100
AcDbEntity
  8
18
100
AcDbCircle
 10
924.636087
 20
-537.640303
 30
0.0
 40
0.378102
100
AcDbArc
 50
154.432646
 51
295.796392
  0
LINE
  5
90A
100
AcDbEntity
  8
18
100
AcDbLine
 10
931.687733
 20
-540.49193
 30
0.0
 11
932.107134
 21
-542.057154
 31
0.0
  0
LINE
  5
90B
100
AcDbEntity
  8
18
100
AcDbLine
 10
927.493729
 20
-540.49193
 30
0.0
 11
927.074329
 21
-542.057154
 31
0.0
  0
TEXT
  5
90C
100
AcDbEntity
  8
18
100
AcDbText
 10
916.239767
 20
-543.706971
 30
0.0
 40
7.56
  1
S
 50
315.0
 72
     5
 11
920.516349
 21
-547.983553
 31
0.0
100
AcDbText
  0
TEXT
  5
90D
100
AcDbEntity
  8
18
100
AcDbText
 10
938.378108
 20
-548.270558
 30
0.0
 40
7.56
  1
O
 50
45.0
 72
     5
 11
942.65469
 21
-543.993976
 31
0.0
100
AcDbText
  0
LINE
  5
90E
100
AcDbEntity
  8
18
100
AcDbLine
 10
1135.685028
 20
-536.427908
 30
0.0
 11
1135.685028
 21
-555.873172
 31
0.0
  0
LINE
  5
90F
100
AcDbEntity
  8
18
100
AcDbLine
 10
1135.685028
 20
-536.427908
 30
0.0
 11
1126.502542
 21
-536.427908
 31
0.0
  0
LINE
  5
910
100
AcDbEntity
  8
18
100
AcDbLine
 10
1093.553621
 20
-536.427908
 30
0.0
 11
1077.349233
 21
-536.427908
 31
0.0
  0
LINE
  5
911
100
AcDbEntity
  8
18
100
AcDbLine
 10
945.795119
 20
-519.768006
 30
0.0
 11
1000.230356
 21
-519.768006
 31
0.0
  0
LINE
  5
912
100
AcDbEntity
  8
18
100
AcDbLine
 10
945.795119
 20
-561.768006
 30
0.0
 11
1000.230356
 21
-561.768006
 31
0.0
  0
LINE
  5
913
100
AcDbEntity
  8
18
100
AcDbLine
 10
1093.619324
 20
-529.946153
 30
0.0
 11
1093.619324
 21
-475.510915
 31
0.0
  0
LINE
  5
914
100
AcDbEntity
  8
18
100
AcDbLine
 10
1135.619324
 20
-529.946153
 30
0.0
 11
1135.619324
 21
-475.510915
 31
0.0
  0
TEXT
  5
915
100
AcDbEntity
  8
18
100
AcDbText
 10
876.455084
 20
-663.244766
 30
0.0
 40
17.5
  1
ＡＣＴＵＡＴＯＲ　ＰＯＳＩＴＩＯＮ
 72
     5
 11
1170.455084
 21
-663.244766
 31
0.0
100
AcDbText
  0
TEXT
  5
916
100
AcDbEntity
  8
18
100
AcDbText
 10
1075.2
 20
-952.0
 30
0.0
 40
35.0
  1
Ｄ３－０４７２０
 72
     5
 11
1348.2
 21
-952.0
 31
0.0
100
AcDbText
  0
TEXT
  5
917
100
AcDbEntity
  8
18
100
AcDbText
 10
859.979683
 20
-889.246841
 30
0.0
 40
21.0
  1
標準仕様
 72
     5
 11
939.779683
 21
-889.246841
 31
0.0
100
AcDbText
  0
TEXT
  5
918
100
AcDbEntity
  8
18
100
AcDbText
 10
883.572159
 20
-956.674606
 30
0.0
 40
21.0
  1
７
 72
     5
 11
900.372159
 21
-956.674606
 31
0.0
100
AcDbText
  0
TEXT
  5
919
100
AcDbEntity
  8
18
100
AcDbText
 10
859.979683
 20
-861.246841
 30
0.0
 40
21.0
  1
７００Ｇ－３Ｕ　３５０Ａ
 72
     5
 11
1107.779683
 21
-861.246841
 31
0.0
100
AcDbText
  0
LINE
  5
91A
100
AcDbEntity
  8
20
 62
     3
100
AcDbLine
 10
-1260.0
 20
-969.5
 30
0.0
 11
1400.0
 21
-969.5
 31
0.0
  0
LINE
  5
91B
100
AcDbEntity
  8
20
 62
     3
100
AcDbLine
 10
-1260.0
 20
924.0
 30
0.0
 11
1400.0
 21
924.0
 31
0.0
  0
LINE
  5
91C
100
AcDbEntity
  8
20
 62
     3
100
AcDbLine
 10
-1260.0
 20
924.0
 30
0.0
 11
-1260.0
 21
-969.5
 31
0.0
  0
LINE
  5
91D
100
AcDbEntity
  8
20
 62
     3
100
AcDbLine
 10
1400.0
 20
924.0
 30
0.0
 11
1400.0
 21
-969.5
 31
0.0
  0
LINE
  5
91E
100
AcDbEntity
  8
20
 62
     3
100
AcDbLine
 10
420.0
 20
-969.5
 30
0.0
 11
420.0
 21
-829.5
 31
0.0
  0
LINE
  5
91F
100
AcDbEntity
  8
20
 62
     3
100
AcDbLine
 10
749.0
 20
-969.5
 30
0.0
 11
749.0
 21
-829.5
 31
0.0
  0
LINE
  5
920
100
AcDbEntity
  8
20
100
AcDbLine
 10
749.0
 20
-899.5
 30
0.0
 11
1400.0
 21
-899.5
 31
0.0
  0
LINE
  5
921
100
AcDbEntity
  8
20
 62
     3
100
AcDbLine
 10
420.0
 20
-829.5
 30
0.0
 11
1400.0
 21
-829.5
 31
0.0
  0
LINE
  5
922
100
AcDbEntity
  8
20
100
AcDbLine
 10
1260.0
 20
-899.5
 30
0.0
 11
1260.0
 21
-829.5
 31
0.0
  0
LINE
  5
923
100
AcDbEntity
  8
20
100
AcDbLine
 10
1260.0
 20
-864.5
 30
0.0
 11
1400.0
 21
-864.5
 31
0.0
  0
LINE
  5
924
100
AcDbEntity
  8
20
100
AcDbLine
 10
847.0
 20
-969.5
 30
0.0
 11
847.0
 21
-829.5
 31
0.0
  0
LINE
  5
925
100
AcDbEntity
  8
20
100
AcDbLine
 10
917.0
 20
-969.5
 30
0.0
 11
917.0
 21
-899.5
 31
0.0
  0
LINE
  5
926
100
AcDbEntity
  8
20
100
AcDbLine
 10
1057.0
 20
-969.5
 30
0.0
 11
1057.0
 21
-899.5
 31
0.0
  0
LINE
  5
927
100
AcDbEntity
  8
20
100
AcDbLine
 10
866.098902
 20
-950.401098
 30
0.0
 11
895.288034
 21
-921.211966
 31
0.0
  0
TEXT
  5
928
100
AcDbEntity
  8
20
100
AcDbText
 10
920.733303
 20
-927.478424
 30
0.0
 40
12.6
  1
ＤＲＡＷＩＮＧ　ＮＯ．
 72
     5
 11
1056.813303
 21
-927.478424
 31
0.0
100
AcDbText
  0
TEXT
  5
929
100
AcDbEntity
  8
20
100
AcDbText
 10
934.5
 20
-955.5
 30
0.0
 40
21.0
  1
図　　　番
 72
     5
 11
1035.3
 21
-955.5
 31
0.0
100
AcDbText
  0
TEXT
  5
92A
100
AcDbEntity
  8
20
100
AcDbText
 10
1302.0
 20
-854.0
 30
0.0
 40
14.0
  1
ＤＡＴＥ
 72
     5
 11
1355.2
 21
-854.0
 31
0.0
100
AcDbText
  0
TEXT
  5
92B
100
AcDbEntity
  8
20
100
AcDbText
 10
763.007497
 20
-930.727203
 30
0.0
 40
14.0
  1
ＳＣＡＬＥ
 72
     5
 11
830.207497
 21
-930.727203
 31
0.0
100
AcDbText
  0
TEXT
  5
92C
100
AcDbEntity
  8
20
100
AcDbText
 10
756.0
 20
-955.5
 30
0.0
 40
21.0
  1
尺　　度
 72
     5
 11
835.8
 21
-955.5
 31
0.0
100
AcDbText
  0
TEXT
  5
92D
100
AcDbEntity
  8
20
100
AcDbText
 10
752.507497
 20
-857.471193
 30
0.0
 40
14.0
  1
ＦＩＧ．ＮＯ．
 72
     5
 11
847.707497
 21
-857.471193
 31
0.0
100
AcDbText
  0
TEXT
  5
92E
100
AcDbEntity
  8
20
100
AcDbText
 10
756.0
 20
-885.5
 30
0.0
 40
21.0
  1
名　　称
 72
     5
 11
835.8
 21
-885.5
 31
0.0
100
AcDbText
  0
TEXT
  5
92F
100
AcDbEntity
  8
20
100
AcDbText
 10
423.958675
 20
-885.291771
 30
0.0
 40
16.1
  1
ＴＯＭＯＥ　ＶＡＬＶＥ　ＣＯ．，ＬＴＤ．
 72
     5
 11
742.738675
 21
-885.291771
 31
0.0
100
AcDbText
  0
TEXT
  5
930
100
AcDbEntity
  8
20
100
AcDbText
 10
472.5
 20
-933.028671
 30
0.0
 40
28.0
  1
巴バルブ株式会社
 72
     5
 11
690.9
 21
-933.028671
 31
0.0
100
AcDbText
  0
ENDSEC
  0
SECTION
  2
OBJECTS
  0
DICTIONARY
  5
99B
100
AcDbDictionary
  3
ACAD_GROUP
350
99C
  3
ACAD_MLINESTYLE
350
99D
  0
DICTIONARY
  5
99C
102
{ACAD_REACTORS
330
99B
102
}
100
AcDbDictionary
  0
DICTIONARY
  5
99D
102
{ACAD_REACTORS
330
99B
102
}
100
AcDbDictionary
  3
STANDARD
350
99E
  0
MLINESTYLE
  5
99E
102
{ACAD_REACTORS
330
99D
102
}
100
AcDbMlineStyle
  2
STANDARD
 70
     0
  3

 62
     0
 51
90.0
 52
90.0
 71
     2
 49
0.5
 62
   256
  6
BYLAYER
 49
-0.5
 62
   256
  6
BYLAYER
  0
ENDSEC
  0
EOF
