  0
SECTION
  2
HEADER
  9
$ACADVER
  1
AC1012
  9
$DWGCODEPAGE
  3
ansi_932
  9
$INSBASE
 10
0.0
 20
0.0
 30
0.0
  9
$EXTMIN
 10
-1680.0
 20
-1188.0
 30
1.000000E+20
  9
$EXTMAX
 10
1680.0
 20
1188.0
 30
-1.000000E+20
  9
$LIMMIN
 10
-1680.0
 20
-1188.0
  9
$LIMMAX
 10
1680.0
 20
1188.0
  9
$ORTHOMODE
 70
     0
  9
$REGENMODE
 70
     1
  9
$FILLMODE
 70
     1
  9
$QTEXTMODE
 70
     0
  9
$MIRRTEXT
 70
     1
  9
$DRAGMODE
 70
     2
  9
$LTSCALE
 40
1.0
  9
$OSMODE
 70
     0
  9
$ATTMODE
 70
     1
  9
$TEXTSIZE
 40
0.2
  9
$TRACEWID
 40
0.05
  9
$TEXTSTYLE
  7
STANDARD
  9
$CLAYER
  8
0
  9
$CELTYPE
  6
CONTINUOUS
  9
$CECOLOR
 62
   256
  9
$CELTSCALE
 40
1.0
  9
$DELOBJ
 70
     1
  9
$DISPSILH
 70
     0
  9
$DIMSCALE
 40
8.0
  9
$DIMASZ
 40
2.0
  9
$DIMEXO
 40
1.0
  9
$DIMDLI
 40
0.38
  9
$DIMRND
 40
0.0
  9
$DIMDLE
 40
0.0
  9
$DIMEXE
 40
2.0
  9
$DIMTP
 40
0.0
  9
$DIMTM
 40
0.0
  9
$DIMTXT
 40
3.3
  9
$DIMCEN
 40
0.09
  9
$DIMTSZ
 40
0.0
  9
$DIMTOL
 70
     0
  9
$DIMLIM
 70
     0
  9
$DIMTIH
 70
     0
  9
$DIMTOH
 70
     0
  9
$DIMSE1
 70
     0
  9
$DIMSE2
 70
     0
  9
$DIMTAD
 70
     1
  9
$DIMZIN
 70
     0
  9
$DIMBLK
  1

  9
$DIMASO
 70
     1
  9
$DIMSHO
 70
     1
  9
$DIMPOST
  1

  9
$DIMAPOST
  1

  9
$DIMALT
 70
     0
  9
$DIMALTD
 70
     2
  9
$DIMALTF
 40
25.4
  9
$DIMLFAC
 40
1.0
  9
$DIMTOFL
 70
     0
  9
$DIMTVP
 40
0.0
  9
$DIMTIX
 70
     0
  9
$DIMSOXD
 70
     0
  9
$DIMSAH
 70
     0
  9
$DIMBLK1
  1

  9
$DIMBLK2
  1

  9
$DIMSTYLE
  2
STANDARD
  9
$DIMCLRD
 70
     0
  9
$DIMCLRE
 70
     0
  9
$DIMCLRT
 70
     0
  9
$DIMTFAC
 40
1.0
  9
$DIMGAP
 40
0.5
  9
$DIMJUST
 70
     0
  9
$DIMSD1
 70
     0
  9
$DIMSD2
 70
     0
  9
$DIMTOLJ
 70
     1
  9
$DIMTZIN
 70
     0
  9
$DIMALTZ
 70
     0
  9
$DIMALTTZ
 70
     0
  9
$DIMFIT
 70
     3
  9
$DIMUPT
 70
     0
  9
$DIMUNIT
 70
     2
  9
$DIMDEC
 70
     2
  9
$DIMTDEC
 70
     4
  9
$DIMALTU
 70
     2
  9
$DIMALTTD
 70
     2
  9
$DIMTXSTY
  7
STANDARD
  9
$DIMAUNIT
 70
     0
  9
$LUNITS
 70
     2
  9
$LUPREC
 70
     4
  9
$SKETCHINC
 40
0.1
  9
$FILLETRAD
 40
0.0
  9
$AUNITS
 70
     0
  9
$AUPREC
 70
     0
  9
$MENU
  1
acad
  9
$ELEVATION
 40
0.0
  9
$PELEVATION
 40
0.0
  9
$THICKNESS
 40
0.0
  9
$LIMCHECK
 70
     0
  9
$BLIPMODE
 70
     1
  9
$CHAMFERA
 40
0.0
  9
$CHAMFERB
 40
0.0
  9
$CHAMFERC
 40
0.0
  9
$CHAMFERD
 40
0.0
  9
$SKPOLY
 70
     0
  9
$TDCREATE
 40
2452114.000000000
  9
$TDUPDATE
 40
0.000000000
  9
$TDINDWG
 40
0.0000000000
  9
$TDUSRTIMER
 40
0.0000000000
  9
$USRTIMER
 70
     1
  9
$ANGBASE
 50
0.0
  9
$ANGDIR
 70
     0
  9
$PDMODE
 70
     0
  9
$PDSIZE
 40
0.0
  9
$PLINEWID
 40
0.0
  9
$COORDS
 70
     0
  9
$SPLFRAME
 70
     0
  9
$SPLINETYPE
 70
     6
  9
$SPLINESEGS
 70
     8
  9
$ATTDIA
 70
     0
  9
$ATTREQ
 70
     1
  9
$HANDLING
 70
     1
  9
$HANDSEED
  5
93B
  9
$SURFTAB1
 70
     6
  9
$SURFTAB2
 70
     6
  9
$SURFTYPE
 70
     6
  9
$SURFU
 70
     6
  9
$SURFV
 70
     6
  9
$UCSNAME
  2

  9
$UCSORG
 10
0.0
 20
0.0
 30
0.0
  9
$UCSXDIR
 10
1.0
 20
0.0
 30
0.0
  9
$UCSYDIR
 10
0.0
 20
1.0
 30
0.0
  9
$PUCSNAME
  2

  9
$PUCSORG
 10
0.0
 20
0.0
 30
0.0
  9
$PUCSXDIR
 10
1.0
 20
0.0
 30
0.0
  9
$PUCSYDIR
 10
0.0
 20
1.0
 30
0.0
  9
$USERI1
 70
     0
  9
$USERI2
 70
     0
  9
$USERI3
 70
     0
  9
$USERI4
 70
     0
  9
$USERI5
 70
     0
  9
$USERR1
 40
0.0
  9
$USERR2
 40
0.0
  9
$USERR3
 40
0.0
  9
$USERR4
 40
0.0
  9
$USERR5
 40
0.0
  9
$WORLDVIEW
 70
     1
  9
$SHADEDGE
 70
     3
  9
$SHADEDIF
 70
    70
  9
$TILEMODE
 70
     1
  9
$MAXACTVP
 70
    16
  9
$PINSBASE
 10
0.0
 20
0.0
 30
0.0
  9
$PLIMCHECK
 70
     0
  9
$PEXTMIN
 10
1.000000E+20
 20
1.000000E+20
 30
1.000000E+20
  9
$PEXTMAX
 10
-1.000000E+20
 20
-1.000000E+20
 30
-1.000000E+20
  9
$PLIMMIN
 10
0.0
 20
0.0
  9
$PLIMMAX
 10
12.0
 20
9.0
  9
$UNITMODE
 70
     0
  9
$VISRETAIN
 70
     0
  9
$PLINEGEN
 70
     1
  9
$PSLTSCALE
 70
     0
  9
$TREEDEPTH
 70
  3020
  9
$PICKSTYLE
 70
     1
  9
$CMLSTYLE
  2
STANDARD
  9
$CMLJUST
 70
     0
  9
$CMLSCALE
 40
1.0
  9
$SAVEIMAGES
 70
     0
  0
ENDSEC
  0
SECTION
  2
CLASSES
  0
CLASS
  1
LWPOLYLINE
  2
AcDbPolyline
  3
"AutoCAD"
 90
    32768
280
     0
281
     1
  0
CLASS
  1
IMAGE
  2
AcDbRasterImage
  3
ISM
 90
    32895
280
     0
281
     1
  0
CLASS
  1
OLE2FRAME
  2
AcDbOle2Frame
  3
""
 90
    32768
280
     0
281
     1
  0
CLASS
  1
HATCH
  2
AcDbHatch
  3
"ACAD_SEDONA"
 90
    32768
280
     0
281
     1
  0
CLASS
  1
DICTIONARYVAR
  2
AcDbDictionaryVar
  3
"AutoCAD"
 90
    32768
280
     0
281
     0
  0
CLASS
  1
RASTERVARIABLES
  2
AcDbRasterVariables
  3
ISM
 90
    32768
280
     0
281
     0
  0
CLASS
  1
IMAGEDEF
  2
AcDbRasterImageDef
  3
ISM
 90
    32768
280
     0
281
     0
  0
CLASS
  1
IMAGEDEF_REACTOR
  2
AcDbRasterImageDefReactor
  3
ISM
 90
    32769
280
     0
281
     0
  0
CLASS
  1
IDBUFFER
  2
AcDbIdBuffer
  3
"Acad"
 90
    32768
280
     0
281
     0
  0
CLASS
  1
SPATIAL_FILTER
  2
AcDbSpatialFilter
  3
"Acad"
 90
    32768
280
     0
281
     0
  0
CLASS
  1
XRECORD
  2
AcDbXrecord
  3
"<Built In>"
 90
    32768
280
     0
281
     0
  0
CLASS
  1
SORTENTSTABLE
  2
AcDbSortentsTable
  3
"AutoCAD"
 90
    32768
280
     0
281
     0
  0
CLASS
  1
LAYER_INDEX
  2
AcDbLayerIndex
  3
"Acad"
 90
    32768
280
     0
281
     0
  0
CLASS
  1
SPATIAL_INDEX
  2
AcDbSpatialIndex
  3
"Acad"
 90
    32768
280
     0
281
     0
  0
CLASS
  1
OBJECT_PTR
  2
CAseDLPNTableRecord
  3
"ASE-LPNTableRecord"
 90
    32769
280
     0
281
     0
  0
CLASS
  1
LAYOUT
  2
AcDbLayout
  3
"AutoCAD 2000"
 90
    32768
280
     0
281
     0
  0
CLASS
  1
PLOTSETTINGS
  2
AcDbPlotSettings
  3
"AutoCAD 2000"
 90
    32768
280
     0
281
     0
  0
CLASS
  1
ACDBDICTIONARYWDFLT
  2
AcDbDictionaryWithDefault
  3
"AutoCAD 2000"
 90
    32768
280
     0
281
     0
  0
CLASS
  1
ACDBPLACEHOLDER
  2
AcDbPlaceHolder
  3
"AutoCAD 2000"
 90
    32768
280
     0
281
     0
  0
CLASS
  1
VBA_PROJECT
  2
AcDbVbaProject
  3
"acadvba"
 90
    32768
280
     0
281
     0
  0
CLASS
  1
WIPEOUT
  2
AcDbWipeout
  3
WipeOut|AutoCAD Express Tool|expresstools@autodesk.com
 90
    32895
280
     0
281
     1
  0
CLASS
  1
WIPEOUTVARIABLES
  2
AcDbWipeoutVariables
  3
WipeOut|AutoCAD Express Tool|expresstools@autodesk.com
 90
    32768
280
     0
281
     0
  0
CLASS
  1
RTEXT
  2
RText
  3
RText|AutoCAD Express Tool|expresstools@autodesk.com
 90
    32768
280
     0
281
     1
  0
CLASS
  1
ARCALIGNEDTEXT
  2
AcDbArcAlignedText
  3
ATEXT|AutoCAD Express Tool|expresstools@autodesk.com
 90
    32768
280
     0
281
     1
  0
ENDSEC
  0
SECTION
  2
TABLES
  0
TABLE
  2
VPORT
  5
6
100
AcDbSymbolTable
 70
     1
  0
VPORT
  5
21
100
AcDbSymbolTableRecord
100
AcDbViewportTableRecord
  2
*ACTIVE
 70
     0
 10
0.0
 20
0.0
 11
1.0
 21
1.0
 12
0.0
 22
0.0
 13
0.0
 23
0.0
 14
1.0
 24
1.0
 15
0.0
 25
0.0
 16
0.0
 26
0.0
 36
1.0
 17
0.0
 27
0.0
 37
0.0
 40
2376.0
 41
1.414141
 42
50.0
 43
0.0
 44
0.0
 50
0.0
 51
0.0
 71
     0
 72
   500
 73
     1
 74
     1
 75
     0
 76
     0
 77
     0
 78
     0
  0
ENDTAB
  0
TABLE
  2
LTYPE
  5
3
100
AcDbSymbolTable
 70
     9
  0
LTYPE
  5
C
100
AcDbSymbolTableRecord
100
AcDbLinetypeTableRecord
  2
BYBLOCK
 70
    64
  3

 72
    65
 73
     0
 40
0.0
  0
LTYPE
  5
D
100
AcDbSymbolTableRecord
100
AcDbLinetypeTableRecord
  2
BYLAYER
 70
    64
  3

 72
    65
 73
     0
 40
0.0
  0
LTYPE
  5
E
100
AcDbSymbolTableRecord
100
AcDbLinetypeTableRecord
  2
CONTINUOUS
 70
     0
  3
Solid line
 72
    65
 73
     0
 40
0.0
  0
LTYPE
  5
F
100
AcDbSymbolTableRecord
100
AcDbLinetypeTableRecord
  2
DASHED
 70
     0
  3
__ __ __ __ __ __ __ __ __ __ __ __ __ __ __
 72
    65
 73
     2
 40
2.0
 49
1.2
 74
     0
 49
-0.8
 74
     0
  0
LTYPE
  5
10
100
AcDbSymbolTableRecord
100
AcDbLinetypeTableRecord
  2
CENTER
 70
     0
  3
____ _ ____ _ ____ _ ____ _ ____ _ ____ _ ____
 72
    65
 73
     4
 40
12.0
 49
9.0
 74
     0
 49
-1.0
 74
     0
 49
1.0
 74
     0
 49
-1.0
 74
     0
  0
LTYPE
  5
11
100
AcDbSymbolTableRecord
100
AcDbLinetypeTableRecord
  2
HIDDEN
 70
     0
  3
_ _ _ _ _ _ _ _ _ _ _ _ _ _ _ _ _ _ _ _ _ _ _
 72
    65
 73
     2
 40
3.2
 49
2.4
 74
     0
 49
-0.8
 74
     0
  0
LTYPE
  5
12
100
AcDbSymbolTableRecord
100
AcDbLinetypeTableRecord
  2
PHANTOM
 70
     0
  3
_____ _ _ _____ _ _ _____ _ _ _____ _ _ _____
 72
    65
 73
     6
 40
13.5
 49
9.0
 74
     0
 49
-1.0
 74
     0
 49
1.0
 74
     0
 49
-0.5
 74
     0
 49
1.0
 74
     0
 49
-1.0
 74
     0
  0
LTYPE
  5
13
100
AcDbSymbolTableRecord
100
AcDbLinetypeTableRecord
  2
DOT
 70
     0
  3
...............................................
 72
    65
 73
     2
 40
1.0
 49
0.5
 74
     0
 49
-0.5
 74
     0
  0
LTYPE
  5
14
100
AcDbSymbolTableRecord
100
AcDbLinetypeTableRecord
  2
DASHDOT
 70
     0
  3
__ . __ . __ . __ . __ . __ . __ . __ . __ . __
 72
    65
 73
     4
 40
8.0
 49
5.0
 74
     0
 49
-1.0
 74
     0
 49
1.0
 74
     0
 49
-1.0
 74
     0
  0
ENDTAB
  0
TABLE
  2
LAYER
  5
1
100
AcDbSymbolTable
 70
    12
  0
LAYER
  5
15
100
AcDbSymbolTableRecord
100
AcDbLayerTableRecord
  2
0
 70
     0
 62
     7
  6
CONTINUOUS
  0
LAYER
  5
16
100
AcDbSymbolTableRecord
100
AcDbLayerTableRecord
  2
1
 70
     0
 62
     7
  6
CONTINUOUS
  0
LAYER
  5
17
100
AcDbSymbolTableRecord
100
AcDbLayerTableRecord
  2
2
 70
     0
 62
     7
  6
CONTINUOUS
  0
LAYER
  5
18
100
AcDbSymbolTableRecord
100
AcDbLayerTableRecord
  2
3
 70
     0
 62
     7
  6
CONTINUOUS
  0
LAYER
  5
19
100
AcDbSymbolTableRecord
100
AcDbLayerTableRecord
  2
5
 70
     0
 62
     7
  6
CONTINUOUS
  0
LAYER
  5
1A
100
AcDbSymbolTableRecord
100
AcDbLayerTableRecord
  2
14
 70
     0
 62
     7
  6
CONTINUOUS
  0
LAYER
  5
1B
100
AcDbSymbolTableRecord
100
AcDbLayerTableRecord
  2
15
 70
     0
 62
     7
  6
CONTINUOUS
  0
LAYER
  5
1C
100
AcDbSymbolTableRecord
100
AcDbLayerTableRecord
  2
17
 70
     0
 62
     7
  6
CONTINUOUS
  0
LAYER
  5
1D
100
AcDbSymbolTableRecord
100
AcDbLayerTableRecord
  2
18
 70
     0
 62
     7
  6
CONTINUOUS
  0
LAYER
  5
1E
100
AcDbSymbolTableRecord
100
AcDbLayerTableRecord
  2
19
 70
     0
 62
     7
  6
CONTINUOUS
  0
LAYER
  5
1F
100
AcDbSymbolTableRecord
100
AcDbLayerTableRecord
  2
20
 70
     0
 62
     7
  6
CONTINUOUS
  0
LAYER
  5
20
100
AcDbSymbolTableRecord
100
AcDbLayerTableRecord
  2
21
 70
     0
 62
     7
  6
CONTINUOUS
  0
ENDTAB
  0
TABLE
  2
STYLE
  5
2
100
AcDbSymbolTable
 70
     1
  0
STYLE
  5
23
100
AcDbSymbolTableRecord
100
AcDbTextStyleTableRecord
  2
STANDARD
 70
    64
 40
0.0
 41
1.0
 50
0.0
 71
     0
 42
1.0
  3
txt
  4
BIGFONT
  0
ENDTAB
  0
TABLE
  2
VIEW
  5
4
100
AcDbSymbolTable
 70
     0
  0
ENDTAB
  0
TABLE
  2
UCS
  5
5
100
AcDbSymbolTable
 70
     0
  0
ENDTAB
  0
TABLE
  2
APPID
  5
7
100
AcDbSymbolTable
 70
     1
  0
APPID
  5
22
100
AcDbSymbolTableRecord
100
AcDbRegAppTableRecord
  2
ACAD
 70
     0
  0
ENDTAB
  0
TABLE
  2
DIMSTYLE
  5
8
100
AcDbSymbolTable
 70
     1
  0
DIMSTYLE
105
34
100
AcDbSymbolTableRecord
100
AcDbDimStyleTableRecord
  2
STANDARD
 70
     0
  3

  4

  5

  6

  7

 40
8.0
 41
2.0
 42
1.0
 43
0.38
 44
2.0
 45
0.0
 46
0.0
 47
0.0
 48
0.0
 71
     0
 72
     0
 73
     0
 74
     0
 75
     0
 76
     0
 77
     1
 78
     0
140
3.3
141
0.09
142
0.0
143
25.4
144
1.0
145
0.0
146
1.0
147
0.5
170
     0
171
     2
172
     0
173
     0
174
     0
175
     0
176
     0
177
     0
178
     0
270
     2
271
     2
272
     4
273
     2
274
     2
275
     0
280
     0
281
     0
282
     0
283
     1
284
     0
285
     0
286
     0
287
     3
288
     0
340
23
  0
ENDTAB
  0
TABLE
  2
BLOCK_RECORD
  5
2F
100
AcDbSymbolTable
 70
     9
  0
BLOCK_RECORD
  5
2D
100
AcDbSymbolTableRecord
100
AcDbBlockTableRecord
  2
*MODEL_SPACE
  0
BLOCK_RECORD
  5
2E
100
AcDbSymbolTableRecord
100
AcDbBlockTableRecord
  2
*PAPER_SPACE
  0
BLOCK_RECORD
  5
24
100
AcDbSymbolTableRecord
100
AcDbBlockTableRecord
  2
*D0
  0
BLOCK_RECORD
  5
25
100
AcDbSymbolTableRecord
100
AcDbBlockTableRecord
  2
*D1
  0
BLOCK_RECORD
  5
26
100
AcDbSymbolTableRecord
100
AcDbBlockTableRecord
  2
*D2
  0
BLOCK_RECORD
  5
27
100
AcDbSymbolTableRecord
100
AcDbBlockTableRecord
  2
*D3
  0
BLOCK_RECORD
  5
28
100
AcDbSymbolTableRecord
100
AcDbBlockTableRecord
  2
*D4
  0
BLOCK_RECORD
  5
29
100
AcDbSymbolTableRecord
100
AcDbBlockTableRecord
  2
*D5
  0
BLOCK_RECORD
  5
2A
100
AcDbSymbolTableRecord
100
AcDbBlockTableRecord
  2
*D6
  0
BLOCK_RECORD
  5
2B
100
AcDbSymbolTableRecord
100
AcDbBlockTableRecord
  2
*D7
  0
BLOCK_RECORD
  5
2C
100
AcDbSymbolTableRecord
100
AcDbBlockTableRecord
  2
*D8
  0
ENDTAB
  0
ENDSEC
  0
SECTION
  2
BLOCKS
  0
BLOCK
  5
30
100
AcDbEntity
  8
0
100
AcDbBlockBegin
  2
*MODEL_SPACE
 70
     0
 10
0.0
 20
0.0
 30
0.0
  3
*MODEL_SPACE
  1

  0
ENDBLK
  5
31
100
AcDbEntity
  8
0
100
AcDbBlockEnd
  0
BLOCK
  5
32
100
AcDbEntity
 67
     1
  8
0
100
AcDbBlockBegin
  2
*PAPER_SPACE
 70
     0
 10
0.0
 20
0.0
 30
0.0
  3
*PAPER_SPACE
  1

  0
ENDBLK
  5
33
100
AcDbEntity
 67
     1
  8
0
100
AcDbBlockEnd
  0
BLOCK
  5
8C8
100
AcDbEntity
  8
5
100
AcDbBlockBegin
  2
*D0
 70
     1
 10
0.0
 20
0.0
 30
0.0
  3
*D0
  1

  0
TEXT
  5
8C9
100
AcDbEntity
  8
5
 62
     2
100
AcDbText
 10
-611.098272
 20
939.041138
 30
0.0
 40
26.4
  1
865(概略)
 41
1.4
 72
     5
 11
-452.170274
 21
939.041138
 31
0.0
100
AcDbText
  0
LINE
  5
8CA
100
AcDbEntity
  8
5
 62
     2
100
AcDbLine
 10
-960.438273
 20
804.411339
 30
0.0
 11
-960.438273
 21
943.041138
 31
0.0
  0
LINE
  5
8CB
100
AcDbEntity
  8
5
 62
     2
100
AcDbLine
 10
-960.438273
 20
935.041138
 30
0.0
 11
-944.98346
 21
930.900033
 31
0.0
  0
LINE
  5
8CC
100
AcDbEntity
  8
5
 62
     2
100
AcDbLine
 10
-960.438273
 20
935.041138
 30
0.0
 11
-944.98346
 21
939.182242
 31
0.0
  0
LINE
  5
8CD
100
AcDbEntity
  8
5
 62
     2
100
AcDbLine
 10
-944.98346
 20
930.900033
 30
0.0
 11
-944.98346
 21
939.182242
 31
0.0
  0
LINE
  5
8CE
100
AcDbEntity
  8
5
 62
     2
100
AcDbLine
 10
-960.438273
 20
935.041138
 30
0.0
 11
-95.438273
 21
935.041138
 31
0.0
  0
LINE
  5
8CF
100
AcDbEntity
  8
5
 62
     2
100
AcDbLine
 10
-95.438273
 20
935.041138
 30
0.0
 11
-110.893086
 21
939.182242
 31
0.0
  0
LINE
  5
8D0
100
AcDbEntity
  8
5
 62
     2
100
AcDbLine
 10
-95.438273
 20
935.041138
 30
0.0
 11
-110.893086
 21
930.900033
 31
0.0
  0
LINE
  5
8D1
100
AcDbEntity
  8
5
 62
     2
100
AcDbLine
 10
-110.893086
 20
939.182242
 30
0.0
 11
-110.893086
 21
930.900033
 31
0.0
  0
LINE
  5
8D2
100
AcDbEntity
  8
5
 62
     2
100
AcDbLine
 10
-95.438273
 20
659.272659
 30
0.0
 11
-95.438273
 21
943.041138
 31
0.0
  0
ENDBLK
  5
8D3
100
AcDbEntity
  8
5
100
AcDbBlockEnd
  0
BLOCK
  5
8D4
100
AcDbEntity
  8
5
100
AcDbBlockBegin
  2
*D1
 70
     1
 10
0.0
 20
0.0
 30
0.0
  3
*D1
  1

  0
TEXT
  5
8D5
100
AcDbEntity
  8
5
 62
     2
100
AcDbText
 10
-1238.598272
 20
939.041138
 30
0.0
 40
26.4
  1
390(概略)
 41
1.4
 72
     5
 11
-1079.670274
 21
939.041138
 31
0.0
100
AcDbText
  0
LINE
  5
8D6
100
AcDbEntity
  8
5
 62
     2
100
AcDbLine
 10
-1350.438273
 20
652.648659
 30
0.0
 11
-1350.438273
 21
943.041138
 31
0.0
  0
LINE
  5
8D7
100
AcDbEntity
  8
5
 62
     2
100
AcDbLine
 10
-1350.438273
 20
935.041138
 30
0.0
 11
-1334.98346
 21
930.900033
 31
0.0
  0
LINE
  5
8D8
100
AcDbEntity
  8
5
 62
     2
100
AcDbLine
 10
-1350.438273
 20
935.041138
 30
0.0
 11
-1334.98346
 21
939.182242
 31
0.0
  0
LINE
  5
8D9
100
AcDbEntity
  8
5
 62
     2
100
AcDbLine
 10
-1334.98346
 20
930.900033
 30
0.0
 11
-1334.98346
 21
939.182242
 31
0.0
  0
LINE
  5
8DA
100
AcDbEntity
  8
5
 62
     2
100
AcDbLine
 10
-1350.438273
 20
935.041138
 30
0.0
 11
-960.438273
 21
935.041138
 31
0.0
  0
LINE
  5
8DB
100
AcDbEntity
  8
5
 62
     2
100
AcDbLine
 10
-960.438273
 20
935.041138
 30
0.0
 11
-975.893086
 21
939.182242
 31
0.0
  0
LINE
  5
8DC
100
AcDbEntity
  8
5
 62
     2
100
AcDbLine
 10
-960.438273
 20
935.041138
 30
0.0
 11
-975.893086
 21
930.900033
 31
0.0
  0
LINE
  5
8DD
100
AcDbEntity
  8
5
 62
     2
100
AcDbLine
 10
-975.893086
 20
939.182242
 30
0.0
 11
-975.893086
 21
930.900033
 31
0.0
  0
LINE
  5
8DE
100
AcDbEntity
  8
5
 62
     2
100
AcDbLine
 10
-960.438273
 20
804.411339
 30
0.0
 11
-960.438273
 21
943.041138
 31
0.0
  0
ENDBLK
  5
8DF
100
AcDbEntity
  8
5
100
AcDbBlockEnd
  0
BLOCK
  5
8E0
100
AcDbEntity
  8
5
100
AcDbBlockBegin
  2
*D2
 70
     1
 10
0.0
 20
0.0
 30
0.0
  3
*D2
  1

  0
TEXT
  5
8E1
100
AcDbEntity
  8
5
 62
     2
100
AcDbText
 10
464.072838
 20
400.749908
 30
0.0
 40
26.4
  1
131(概略)
 41
1.4
 72
     5
 11
623.000836
 21
400.749908
 31
0.0
100
AcDbText
  0
LINE
  5
8E2
100
AcDbEntity
  8
5
 62
     2
100
AcDbLine
 10
301.072838
 20
180.446842
 30
0.0
 11
301.072838
 21
404.749908
 31
0.0
  0
LINE
  5
8E3
100
AcDbEntity
  8
5
 62
     2
100
AcDbLine
 10
301.072838
 20
396.749908
 30
0.0
 11
285.618025
 21
400.891013
 31
0.0
  0
LINE
  5
8E4
100
AcDbEntity
  8
5
 62
     2
100
AcDbLine
 10
301.072838
 20
396.749908
 30
0.0
 11
285.618025
 21
392.608804
 31
0.0
  0
LINE
  5
8E5
100
AcDbEntity
  8
5
 62
     2
100
AcDbLine
 10
285.618025
 20
400.891013
 30
0.0
 11
285.618025
 21
392.608804
 31
0.0
  0
LINE
  5
8E6
100
AcDbEntity
  8
5
 62
     2
100
AcDbLine
 10
261.072838
 20
396.749908
 30
0.0
 11
630.392836
 21
396.749908
 31
0.0
  0
LINE
  5
8E7
100
AcDbEntity
  8
5
 62
     2
100
AcDbLine
 10
432.072838
 20
396.749908
 30
0.0
 11
447.527651
 21
392.608804
 31
0.0
  0
LINE
  5
8E8
100
AcDbEntity
  8
5
 62
     2
100
AcDbLine
 10
432.072838
 20
396.749908
 30
0.0
 11
447.527651
 21
400.891013
 31
0.0
  0
LINE
  5
8E9
100
AcDbEntity
  8
5
 62
     2
100
AcDbLine
 10
447.527651
 20
392.608804
 30
0.0
 11
447.527651
 21
400.891013
 31
0.0
  0
LINE
  5
8EA
100
AcDbEntity
  8
5
 62
     2
100
AcDbLine
 10
432.072838
 20
-3.201344
 30
0.0
 11
432.072838
 21
404.749908
 31
0.0
  0
ENDBLK
  5
8EB
100
AcDbEntity
  8
5
100
AcDbBlockEnd
  0
BLOCK
  5
8EC
100
AcDbEntity
  8
5
100
AcDbBlockBegin
  2
*D3
 70
     1
 10
0.0
 20
0.0
 30
0.0
  3
*D3
  1

  0
TEXT
  5
8ED
100
AcDbEntity
  8
5
 62
     2
100
AcDbText
 10
89.412839
 20
400.749908
 30
0.0
 40
26.4
  1
257(概略)
 41
1.4
 72
     5
 11
248.340837
 21
400.749908
 31
0.0
100
AcDbText
  0
LINE
  5
8EE
100
AcDbEntity
  8
5
 62
     2
100
AcDbLine
 10
44.072838
 20
30.735148
 30
0.0
 11
44.072838
 21
404.749908
 31
0.0
  0
LINE
  5
8EF
100
AcDbEntity
  8
5
 62
     2
100
AcDbLine
 10
44.072838
 20
396.749908
 30
0.0
 11
59.527651
 21
392.608804
 31
0.0
  0
LINE
  5
8F0
100
AcDbEntity
  8
5
 62
     2
100
AcDbLine
 10
44.072838
 20
396.749908
 30
0.0
 11
59.527651
 21
400.891013
 31
0.0
  0
LINE
  5
8F1
100
AcDbEntity
  8
5
 62
     2
100
AcDbLine
 10
59.527651
 20
392.608804
 30
0.0
 11
59.527651
 21
400.891013
 31
0.0
  0
LINE
  5
8F2
100
AcDbEntity
  8
5
 62
     2
100
AcDbLine
 10
44.072838
 20
396.749908
 30
0.0
 11
301.072838
 21
396.749908
 31
0.0
  0
LINE
  5
8F3
100
AcDbEntity
  8
5
 62
     2
100
AcDbLine
 10
301.072838
 20
396.749908
 30
0.0
 11
285.618025
 21
400.891013
 31
0.0
  0
LINE
  5
8F4
100
AcDbEntity
  8
5
 62
     2
100
AcDbLine
 10
301.072838
 20
396.749908
 30
0.0
 11
285.618025
 21
392.608804
 31
0.0
  0
LINE
  5
8F5
100
AcDbEntity
  8
5
 62
     2
100
AcDbLine
 10
285.618025
 20
400.891013
 30
0.0
 11
285.618025
 21
392.608804
 31
0.0
  0
LINE
  5
8F6
100
AcDbEntity
  8
5
 62
     2
100
AcDbLine
 10
301.072838
 20
180.446842
 30
0.0
 11
301.072838
 21
404.749908
 31
0.0
  0
ENDBLK
  5
8F7
100
AcDbEntity
  8
5
100
AcDbBlockEnd
  0
BLOCK
  5
8F8
100
AcDbEntity
  8
5
100
AcDbBlockBegin
  2
*D4
 70
     1
 10
0.0
 20
0.0
 30
0.0
  3
*D4
  1

  0
TEXT
  5
8F9
100
AcDbEntity
  8
5
 62
     2
100
AcDbText
 10
273.352838
 20
-992.952881
 30
0.0
 40
26.4
  1
102
 41
1.4
 72
     5
 11
321.400838
 21
-992.952881
 31
0.0
100
AcDbText
  0
LINE
  5
8FA
100
AcDbEntity
  8
5
 62
     2
100
AcDbLine
 10
250.072838
 20
-796.964852
 30
0.0
 11
250.072838
 21
-1004.952881
 31
0.0
  0
LINE
  5
8FB
100
AcDbEntity
  8
5
 62
     2
100
AcDbLine
 10
250.072838
 20
-996.952881
 30
0.0
 11
265.527651
 21
-1001.093986
 31
0.0
  0
LINE
  5
8FC
100
AcDbEntity
  8
5
 62
     2
100
AcDbLine
 10
250.072838
 20
-996.952881
 30
0.0
 11
265.527651
 21
-992.811776
 31
0.0
  0
LINE
  5
8FD
100
AcDbEntity
  8
5
 62
     2
100
AcDbLine
 10
265.527651
 20
-1001.093986
 30
0.0
 11
265.527651
 21
-992.811776
 31
0.0
  0
LINE
  5
8FE
100
AcDbEntity
  8
5
 62
     2
100
AcDbLine
 10
250.072838
 20
-996.952881
 30
0.0
 11
352.072838
 21
-996.952881
 31
0.0
  0
LINE
  5
8FF
100
AcDbEntity
  8
5
 62
     2
100
AcDbLine
 10
352.072838
 20
-996.952881
 30
0.0
 11
336.618025
 21
-992.811776
 31
0.0
  0
LINE
  5
900
100
AcDbEntity
  8
5
 62
     2
100
AcDbLine
 10
352.072838
 20
-996.952881
 30
0.0
 11
336.618025
 21
-1001.093986
 31
0.0
  0
LINE
  5
901
100
AcDbEntity
  8
5
 62
     2
100
AcDbLine
 10
336.618025
 20
-992.811776
 30
0.0
 11
336.618025
 21
-1001.093986
 31
0.0
  0
LINE
  5
902
100
AcDbEntity
  8
5
 62
     2
100
AcDbLine
 10
352.072838
 20
-796.964852
 30
0.0
 11
352.072838
 21
-1004.952881
 31
0.0
  0
ENDBLK
  5
903
100
AcDbEntity
  8
5
100
AcDbBlockEnd
  0
BLOCK
  5
904
100
AcDbEntity
  8
5
100
AcDbBlockBegin
  2
*D5
 70
     1
 10
0.0
 20
0.0
 30
0.0
  3
*D5
  1

  0
TEXT
  5
905
100
AcDbEntity
  8
5
 62
     2
100
AcDbText
 10
-16.898743
 20
-32.984851
 30
0.0
 40
26.4
  1
340
 50
90.0
 41
1.4
 72
     5
 11
-16.898743
 21
15.063148
 31
0.0
100
AcDbText
  0
LINE
  5
906
100
AcDbEntity
  8
5
 62
     2
100
AcDbLine
 10
223.072838
 20
-175.264852
 30
0.0
 11
-20.898743
 21
-175.264852
 31
0.0
  0
LINE
  5
907
100
AcDbEntity
  8
5
 62
     2
100
AcDbLine
 10
-12.898743
 20
-175.264852
 30
0.0
 11
-8.757638
 21
-159.810039
 31
0.0
  0
LINE
  5
908
100
AcDbEntity
  8
5
 62
     2
100
AcDbLine
 10
-12.898743
 20
-175.264852
 30
0.0
 11
-17.039847
 21
-159.810039
 31
0.0
  0
LINE
  5
909
100
AcDbEntity
  8
5
 62
     2
100
AcDbLine
 10
-8.757638
 20
-159.810039
 30
0.0
 11
-17.039847
 21
-159.810039
 31
0.0
  0
LINE
  5
90A
100
AcDbEntity
  8
5
 62
     2
100
AcDbLine
 10
-12.898743
 20
-175.264852
 30
0.0
 11
-12.898743
 21
164.735148
 31
0.0
  0
LINE
  5
90B
100
AcDbEntity
  8
5
 62
     2
100
AcDbLine
 10
-12.898743
 20
164.735148
 30
0.0
 11
-17.039847
 21
149.280335
 31
0.0
  0
LINE
  5
90C
100
AcDbEntity
  8
5
 62
     2
100
AcDbLine
 10
-12.898743
 20
164.735148
 30
0.0
 11
-8.757638
 21
149.280335
 31
0.0
  0
LINE
  5
90D
100
AcDbEntity
  8
5
 62
     2
100
AcDbLine
 10
-17.039847
 20
149.280335
 30
0.0
 11
-8.757638
 21
149.280335
 31
0.0
  0
LINE
  5
90E
100
AcDbEntity
  8
5
 62
     2
100
AcDbLine
 10
226.072838
 20
164.735148
 30
0.0
 11
-20.898743
 21
164.735148
 31
0.0
  0
ENDBLK
  5
90F
100
AcDbEntity
  8
5
100
AcDbBlockEnd
  0
BLOCK
  5
910
100
AcDbEntity
  8
5
100
AcDbBlockBegin
  2
*D6
 70
     1
 10
0.0
 20
0.0
 30
0.0
  3
*D6
  1

  0
TEXT
  5
911
100
AcDbEntity
  8
5
 62
     2
100
AcDbText
 10
-16.898743
 20
-394.584851
 30
0.0
 40
26.4
  1
383
 50
90.0
 41
1.4
 72
     5
 11
-16.898743
 21
-346.536852
 31
0.0
100
AcDbText
  0
LINE
  5
912
100
AcDbEntity
  8
5
 62
     2
100
AcDbLine
 10
205.926677
 20
-558.464852
 30
0.0
 11
-20.898743
 21
-558.464852
 31
0.0
  0
LINE
  5
913
100
AcDbEntity
  8
5
 62
     2
100
AcDbLine
 10
-12.898743
 20
-558.464852
 30
0.0
 11
-8.757638
 21
-543.010039
 31
0.0
  0
LINE
  5
914
100
AcDbEntity
  8
5
 62
     2
100
AcDbLine
 10
-12.898743
 20
-558.464852
 30
0.0
 11
-17.039847
 21
-543.010039
 31
0.0
  0
LINE
  5
915
100
AcDbEntity
  8
5
 62
     2
100
AcDbLine
 10
-8.757638
 20
-543.010039
 30
0.0
 11
-17.039847
 21
-543.010039
 31
0.0
  0
LINE
  5
916
100
AcDbEntity
  8
5
 62
     2
100
AcDbLine
 10
-12.898743
 20
-558.464852
 30
0.0
 11
-12.898743
 21
-175.264852
 31
0.0
  0
LINE
  5
917
100
AcDbEntity
  8
5
 62
     2
100
AcDbLine
 10
-12.898743
 20
-175.264852
 30
0.0
 11
-17.039847
 21
-190.719665
 31
0.0
  0
LINE
  5
918
100
AcDbEntity
  8
5
 62
     2
100
AcDbLine
 10
-12.898743
 20
-175.264852
 30
0.0
 11
-8.757638
 21
-190.719665
 31
0.0
  0
LINE
  5
919
100
AcDbEntity
  8
5
 62
     2
100
AcDbLine
 10
-17.039847
 20
-190.719665
 30
0.0
 11
-8.757638
 21
-190.719665
 31
0.0
  0
LINE
  5
91A
100
AcDbEntity
  8
5
 62
     2
100
AcDbLine
 10
223.072838
 20
-175.264852
 30
0.0
 11
-20.898743
 21
-175.264852
 31
0.0
  0
ENDBLK
  5
91B
100
AcDbEntity
  8
5
100
AcDbBlockEnd
  0
BLOCK
  5
91C
100
AcDbEntity
  8
5
100
AcDbBlockBegin
  2
*D7
 70
     1
 10
0.0
 20
0.0
 30
0.0
  3
*D7
  1

  0
TEXT
  5
91D
100
AcDbEntity
  8
5
 62
     2
100
AcDbText
 10
-16.898743
 20
-810.624851
 30
0.0
 40
26.4
  1
338(概略)
 50
90.0
 41
1.4
 72
     5
 11
-16.898743
 21
-651.696853
 31
0.0
100
AcDbText
  0
LINE
  5
91E
100
AcDbEntity
  8
5
 62
     2
100
AcDbLine
 10
284.425838
 20
-896.464852
 30
0.0
 11
-20.898743
 21
-896.464852
 31
0.0
  0
LINE
  5
91F
100
AcDbEntity
  8
5
 62
     2
100
AcDbLine
 10
-12.898743
 20
-896.464852
 30
0.0
 11
-8.757638
 21
-881.010039
 31
0.0
  0
LINE
  5
920
100
AcDbEntity
  8
5
 62
     2
100
AcDbLine
 10
-12.898743
 20
-896.464852
 30
0.0
 11
-17.039847
 21
-881.010039
 31
0.0
  0
LINE
  5
921
100
AcDbEntity
  8
5
 62
     2
100
AcDbLine
 10
-8.757638
 20
-881.010039
 30
0.0
 11
-17.039847
 21
-881.010039
 31
0.0
  0
LINE
  5
922
100
AcDbEntity
  8
5
 62
     2
100
AcDbLine
 10
-12.898743
 20
-896.464852
 30
0.0
 11
-12.898743
 21
-558.464852
 31
0.0
  0
LINE
  5
923
100
AcDbEntity
  8
5
 62
     2
100
AcDbLine
 10
-12.898743
 20
-558.464852
 30
0.0
 11
-17.039847
 21
-573.919665
 31
0.0
  0
LINE
  5
924
100
AcDbEntity
  8
5
 62
     2
100
AcDbLine
 10
-12.898743
 20
-558.464852
 30
0.0
 11
-8.757638
 21
-573.919665
 31
0.0
  0
LINE
  5
925
100
AcDbEntity
  8
5
 62
     2
100
AcDbLine
 10
-17.039847
 20
-573.919665
 30
0.0
 11
-8.757638
 21
-573.919665
 31
0.0
  0
LINE
  5
926
100
AcDbEntity
  8
5
 62
     2
100
AcDbLine
 10
205.926677
 20
-558.464852
 30
0.0
 11
-20.898743
 21
-558.464852
 31
0.0
  0
ENDBLK
  5
927
100
AcDbEntity
  8
5
100
AcDbBlockEnd
  0
BLOCK
  5
928
100
AcDbEntity
  8
5
100
AcDbBlockBegin
  2
*D8
 70
     1
 10
0.0
 20
0.0
 30
0.0
  3
*D8
  1

  0
TEXT
  5
929
100
AcDbEntity
  8
5
 62
     2
100
AcDbText
 10
249.092838
 20
303.261566
 30
0.0
 40
26.4
  1
67
 41
1.4
 72
     5
 11
278.660838
 21
303.261566
 31
0.0
100
AcDbText
  0
LINE
  5
92A
100
AcDbEntity
  8
5
 62
     2
100
AcDbLine
 10
234.072838
 20
205.735148
 30
0.0
 11
234.072838
 21
307.261566
 31
0.0
  0
LINE
  5
92B
100
AcDbEntity
  8
5
 62
     2
100
AcDbLine
 10
234.072838
 20
299.261566
 30
0.0
 11
249.527651
 21
295.120461
 31
0.0
  0
LINE
  5
92C
100
AcDbEntity
  8
5
 62
     2
100
AcDbLine
 10
234.072838
 20
299.261566
 30
0.0
 11
249.527651
 21
303.402671
 31
0.0
  0
LINE
  5
92D
100
AcDbEntity
  8
5
 62
     2
100
AcDbLine
 10
249.527651
 20
295.120461
 30
0.0
 11
249.527651
 21
303.402671
 31
0.0
  0
LINE
  5
92E
100
AcDbEntity
  8
5
 62
     2
100
AcDbLine
 10
234.072838
 20
299.261566
 30
0.0
 11
301.072838
 21
299.261566
 31
0.0
  0
LINE
  5
92F
100
AcDbEntity
  8
5
 62
     2
100
AcDbLine
 10
301.072838
 20
299.261566
 30
0.0
 11
285.618025
 21
303.402671
 31
0.0
  0
LINE
  5
930
100
AcDbEntity
  8
5
 62
     2
100
AcDbLine
 10
301.072838
 20
299.261566
 30
0.0
 11
285.618025
 21
295.120461
 31
0.0
  0
LINE
  5
931
100
AcDbEntity
  8
5
 62
     2
100
AcDbLine
 10
285.618025
 20
303.402671
 30
0.0
 11
285.618025
 21
295.120461
 31
0.0
  0
LINE
  5
932
100
AcDbEntity
  8
5
 62
     2
100
AcDbLine
 10
301.072838
 20
180.446842
 30
0.0
 11
301.072838
 21
307.261566
 31
0.0
  0
ENDBLK
  5
933
100
AcDbEntity
  8
5
100
AcDbBlockEnd
  0
ENDSEC
  0
SECTION
  2
ENTITIES
  0
LINE
  5
35
100
AcDbEntity
  8
1
  6
CENTER
 62
     2
100
AcDbLine
 10
-960.438273
 20
-175.264852
 30
0.0
 11
-960.438273
 21
-912.881856
 31
0.0
  0
LINE
  5
36
100
AcDbEntity
  8
1
  6
CENTER
 62
     2
100
AcDbLine
 10
-1241.220118
 20
-558.464852
 30
0.0
 11
-680.211344
 21
-558.464852
 31
0.0
  0
CIRCLE
  5
37
100
AcDbEntity
  8
1
100
AcDbCircle
 10
-960.438273
 20
-558.464852
 30
0.0
 40
224.05
  0
LINE
  5
38
100
AcDbEntity
  8
1
  6
CENTER
 62
     2
100
AcDbLine
 10
301.072838
 20
-175.264852
 30
0.0
 11
301.072838
 21
-912.881856
 31
0.0
  0
LINE
  5
39
100
AcDbEntity
  8
1
  6
CENTER
 62
     2
100
AcDbLine
 10
213.926677
 20
-558.464852
 30
0.0
 11
388.958629
 21
-558.464852
 31
0.0
  0
ARC
  5
3A
100
AcDbEntity
  8
1
100
AcDbCircle
 10
-1010.438273
 20
-461.888171
 30
0.0
 40
15.0
100
AcDbArc
 50
290.223572
 51
322.81757
  0
ARC
  5
3B
100
AcDbEntity
  8
1
100
AcDbCircle
 10
-1010.438273
 20
-471.348664
 30
0.0
 40
15.0
100
AcDbArc
 50
283.055444
 51
338.094104
  0
LINE
  5
3C
100
AcDbEntity
  8
1
100
AcDbLine
 10
-845.438273
 20
-501.819372
 30
0.0
 11
-845.438273
 21
-543.464852
 31
0.0
  0
LINE
  5
3D
100
AcDbEntity
  8
1
100
AcDbLine
 10
-845.438273
 20
-573.464852
 30
0.0
 11
-845.438273
 21
-615.110332
 31
0.0
  0
LINE
  5
3E
100
AcDbEntity
  8
1
100
AcDbLine
 10
-913.82668
 20
-485.960943
 30
0.0
 11
-845.438273
 21
-501.819372
 31
0.0
  0
ARC
  5
3F
100
AcDbEntity
  8
1
100
AcDbCircle
 10
-910.438273
 20
-471.348664
 30
0.0
 40
15.0
100
AcDbArc
 50
203.431043
 51
256.944556
  0
LINE
  5
40
100
AcDbEntity
  8
1
100
AcDbLine
 10
-845.438273
 20
-501.819372
 30
0.0
 11
-915.623537
 21
-475.963434
 31
0.0
  0
ARC
  5
41
100
AcDbEntity
  8
1
100
AcDbCircle
 10
-910.438273
 20
-461.888171
 30
0.0
 40
15.0
100
AcDbArc
 50
218.125609
 51
249.776428
  0
LINE
  5
42
100
AcDbEntity
  8
1
100
AcDbLine
 10
-913.82668
 20
-630.968761
 30
0.0
 11
-845.438273
 21
-615.110332
 31
0.0
  0
LINE
  5
43
100
AcDbEntity
  8
1
100
AcDbLine
 10
-845.438273
 20
-615.110332
 30
0.0
 11
-915.623537
 21
-640.96627
 31
0.0
  0
LINE
  5
44
100
AcDbEntity
  8
1
100
AcDbLine
 10
-1075.438273
 20
-501.819372
 30
0.0
 11
-1075.438273
 21
-543.464852
 31
0.0
  0
LINE
  5
45
100
AcDbEntity
  8
1
100
AcDbLine
 10
-1075.438273
 20
-573.464852
 30
0.0
 11
-1075.438273
 21
-615.110332
 31
0.0
  0
LINE
  5
46
100
AcDbEntity
  8
1
100
AcDbLine
 10
-1007.049866
 20
-485.960943
 30
0.0
 11
-1075.438273
 21
-501.819372
 31
0.0
  0
LINE
  5
47
100
AcDbEntity
  8
1
100
AcDbLine
 10
-1075.438273
 20
-501.819372
 30
0.0
 11
-1005.253009
 21
-475.963434
 31
0.0
  0
LINE
  5
48
100
AcDbEntity
  8
1
100
AcDbLine
 10
-1007.049866
 20
-630.968761
 30
0.0
 11
-1075.438273
 21
-615.110332
 31
0.0
  0
LINE
  5
49
100
AcDbEntity
  8
1
100
AcDbLine
 10
-1075.438273
 20
-615.110332
 30
0.0
 11
-1005.253009
 21
-640.96627
 31
0.0
  0
LINE
  5
4A
100
AcDbEntity
  8
1
100
AcDbLine
 10
-970.438273
 20
-383.464852
 30
0.0
 11
-950.438273
 21
-383.464852
 31
0.0
  0
LINE
  5
4B
100
AcDbEntity
  8
1
100
AcDbLine
 10
-945.438273
 20
-388.464852
 30
0.0
 11
-945.438273
 21
-405.464852
 31
0.0
  0
ARC
  5
4C
100
AcDbEntity
  8
1
100
AcDbCircle
 10
-950.438273
 20
-388.464852
 30
0.0
 40
5.0
100
AcDbArc
 50
0.0
 51
90.0
  0
LINE
  5
4D
100
AcDbEntity
  8
1
100
AcDbLine
 10
-975.438273
 20
-405.464852
 30
0.0
 11
-975.438273
 21
-388.464852
 31
0.0
  0
ARC
  5
4E
100
AcDbEntity
  8
1
100
AcDbCircle
 10
-970.438273
 20
-388.464852
 30
0.0
 40
5.0
100
AcDbArc
 50
90.0
 51
180.0
  0
ARC
  5
4F
100
AcDbEntity
  8
1
100
AcDbCircle
 10
-982.698698
 20
-381.721058
 30
0.0
 40
10.0
100
AcDbArc
 50
158.288215
 51
196.998861
  0
ARC
  5
50
100
AcDbEntity
  8
1
100
AcDbCircle
 10
-999.421715
 20
-375.062177
 30
0.0
 40
8.0
100
AcDbArc
 50
338.288215
 51
48.869898
  0
LINE
  5
51
100
AcDbEntity
  8
1
100
AcDbLine
 10
-995.262281
 20
-368.073437
 30
0.0
 11
-994.159547
 21
-369.036433
 31
0.0
  0
ARC
  5
52
100
AcDbEntity
  8
1
100
AcDbCircle
 10
-938.177848
 20
-381.721058
 30
0.0
 40
10.0
100
AcDbArc
 50
343.001139
 51
21.711785
  0
ARC
  5
53
100
AcDbEntity
  8
1
100
AcDbCircle
 10
-921.454831
 20
-375.062177
 30
0.0
 40
8.0
100
AcDbArc
 50
131.130102
 51
201.711785
  0
LINE
  5
54
100
AcDbEntity
  8
1
100
AcDbLine
 10
-925.614266
 20
-368.073437
 30
0.0
 11
-926.717
 21
-369.036433
 31
0.0
  0
ARC
  5
55
100
AcDbEntity
  8
1
100
AcDbCircle
 10
-1010.438273
 20
-655.041533
 30
0.0
 40
15.0
100
AcDbArc
 50
37.18243
 51
69.776428
  0
ARC
  5
56
100
AcDbEntity
  8
1
100
AcDbCircle
 10
-1010.438273
 20
-645.58104
 30
0.0
 40
15.0
100
AcDbArc
 50
21.905896
 51
76.944556
  0
ARC
  5
57
100
AcDbEntity
  8
1
100
AcDbCircle
 10
-910.438273
 20
-645.58104
 30
0.0
 40
15.0
100
AcDbArc
 50
103.055444
 51
156.568957
  0
ARC
  5
58
100
AcDbEntity
  8
1
100
AcDbCircle
 10
-910.438273
 20
-655.041533
 30
0.0
 40
15.0
100
AcDbArc
 50
110.223572
 51
141.874391
  0
LINE
  5
59
100
AcDbEntity
  8
1
100
AcDbLine
 10
-970.438273
 20
-733.464852
 30
0.0
 11
-950.438273
 21
-733.464852
 31
0.0
  0
LINE
  5
5A
100
AcDbEntity
  8
1
100
AcDbLine
 10
-945.438273
 20
-728.464852
 30
0.0
 11
-945.438273
 21
-711.464852
 31
0.0
  0
ARC
  5
5B
100
AcDbEntity
  8
1
100
AcDbCircle
 10
-950.438273
 20
-728.464852
 30
0.0
 40
5.0
100
AcDbArc
 50
270.0
 51
360.0
  0
LINE
  5
5C
100
AcDbEntity
  8
1
100
AcDbLine
 10
-975.438273
 20
-711.464852
 30
0.0
 11
-975.438273
 21
-728.464852
 31
0.0
  0
ARC
  5
5D
100
AcDbEntity
  8
1
100
AcDbCircle
 10
-970.438273
 20
-728.464852
 30
0.0
 40
5.0
100
AcDbArc
 50
180.0
 51
270.0
  0
ARC
  5
5E
100
AcDbEntity
  8
1
100
AcDbCircle
 10
-982.698698
 20
-735.208646
 30
0.0
 40
10.0
100
AcDbArc
 50
163.001139
 51
201.711785
  0
ARC
  5
5F
100
AcDbEntity
  8
1
100
AcDbCircle
 10
-999.421715
 20
-741.867527
 30
0.0
 40
8.0
100
AcDbArc
 50
311.130102
 51
21.711785
  0
LINE
  5
60
100
AcDbEntity
  8
1
100
AcDbLine
 10
-995.262281
 20
-748.856267
 30
0.0
 11
-994.159547
 21
-747.89327
 31
0.0
  0
ARC
  5
61
100
AcDbEntity
  8
1
100
AcDbCircle
 10
-938.177848
 20
-735.208646
 30
0.0
 40
10.0
100
AcDbArc
 50
338.288215
 51
16.998861
  0
ARC
  5
62
100
AcDbEntity
  8
1
100
AcDbCircle
 10
-921.454831
 20
-741.867527
 30
0.0
 40
8.0
100
AcDbArc
 50
158.288215
 51
228.869898
  0
LINE
  5
63
100
AcDbEntity
  8
1
100
AcDbLine
 10
-925.614266
 20
-748.856267
 30
0.0
 11
-926.717
 21
-747.89327
 31
0.0
  0
LINE
  5
64
100
AcDbEntity
  8
1
  6
CENTER
 62
     2
100
AcDbLine
 10
-974.485652
 20
-403.464852
 30
0.0
 11
-946.714778
 21
-403.464852
 31
0.0
  0
CIRCLE
  5
65
100
AcDbEntity
  8
1
100
AcDbCircle
 10
-960.438273
 20
-403.464852
 30
0.0
 40
6.65
  0
LINE
  5
66
100
AcDbEntity
  8
1
  6
CENTER
 62
     2
100
AcDbLine
 10
-974.594935
 20
-713.464852
 30
0.0
 11
-946.299922
 21
-713.464852
 31
0.0
  0
CIRCLE
  5
67
100
AcDbEntity
  8
1
100
AcDbCircle
 10
-960.438273
 20
-713.464852
 30
0.0
 40
6.65
  0
ARC
  5
68
100
AcDbEntity
  8
1
100
AcDbCircle
 10
-837.438273
 20
-543.464852
 30
0.0
 40
8.0
100
AcDbArc
 50
180.0
 51
270.0
  0
ARC
  5
69
100
AcDbEntity
  8
1
100
AcDbCircle
 10
-837.438273
 20
-573.464852
 30
0.0
 40
8.0
100
AcDbArc
 50
90.0
 51
180.0
  0
ARC
  5
6A
100
AcDbEntity
  8
1
100
AcDbCircle
 10
-960.438273
 20
-558.464852
 30
0.0
 40
187.670589
100
AcDbArc
 50
99.556862
 51
260.443138
  0
ARC
  5
6B
100
AcDbEntity
  8
1
100
AcDbCircle
 10
-960.438273
 20
-558.464852
 30
0.0
 40
177.57937
100
AcDbArc
 50
100.395219
 51
259.604781
  0
ARC
  5
6C
100
AcDbEntity
  8
1
100
AcDbCircle
 10
-960.438273
 20
-558.464852
 30
0.0
 40
177.57937
100
AcDbArc
 50
280.395219
 51
79.604781
  0
ARC
  5
6D
100
AcDbEntity
  8
1
100
AcDbCircle
 10
-960.438273
 20
-558.464852
 30
0.0
 40
187.670589
100
AcDbArc
 50
279.556862
 51
80.443138
  0
ARC
  5
6E
100
AcDbEntity
  8
1
100
AcDbCircle
 10
-942.438273
 20
-405.464852
 30
0.0
 40
3.0
100
AcDbArc
 50
180.0
 51
270.0
  0
ARC
  5
6F
100
AcDbEntity
  8
1
100
AcDbCircle
 10
-1015.429327
 20
-404.464852
 30
0.0
 40
4.0
100
AcDbArc
 50
180.0
 51
270.0
  0
ARC
  5
70
100
AcDbEntity
  8
1
100
AcDbCircle
 10
-978.438273
 20
-405.464852
 30
0.0
 40
3.0
100
AcDbArc
 50
270.0
 51
360.0
  0
LINE
  5
71
100
AcDbEntity
  8
1
100
AcDbLine
 10
-815.438273
 20
-553.464852
 30
0.0
 11
-815.438273
 21
-563.464852
 31
0.0
  0
ARC
  5
72
100
AcDbEntity
  8
1
100
AcDbCircle
 10
-1083.438273
 20
-543.464852
 30
0.0
 40
8.0
100
AcDbArc
 50
270.0
 51
360.0
  0
ARC
  5
73
100
AcDbEntity
  8
1
100
AcDbCircle
 10
-1083.438273
 20
-573.464852
 30
0.0
 40
8.0
100
AcDbArc
 50
0.0
 51
90.0
  0
LINE
  5
74
100
AcDbEntity
  8
1
100
AcDbLine
 10
-1105.438273
 20
-553.464852
 30
0.0
 11
-1105.438273
 21
-563.464852
 31
0.0
  0
LINE
  5
75
100
AcDbEntity
  8
1
100
AcDbLine
 10
-970.438273
 20
-423.464852
 30
0.0
 11
-950.438273
 21
-423.464852
 31
0.0
  0
ARC
  5
76
100
AcDbEntity
  8
1
100
AcDbCircle
 10
-950.438273
 20
-418.464852
 30
0.0
 40
5.0
100
AcDbArc
 50
270.0
 51
360.0
  0
ARC
  5
77
100
AcDbEntity
  8
1
100
AcDbCircle
 10
-970.438273
 20
-418.464852
 30
0.0
 40
5.0
100
AcDbArc
 50
180.0
 51
270.0
  0
LINE
  5
78
100
AcDbEntity
  8
1
100
AcDbLine
 10
-992.261804
 20
-384.644585
 30
0.0
 11
-992.261804
 21
-408.464852
 31
0.0
  0
LINE
  5
79
100
AcDbEntity
  8
1
100
AcDbLine
 10
-994.508118
 20
-638.464852
 30
0.0
 11
-994.508118
 21
-478.464852
 31
0.0
  0
LINE
  5
7A
100
AcDbEntity
  8
1
100
AcDbLine
 10
-975.438273
 20
-412.541305
 30
0.0
 11
-975.438273
 21
-418.464852
 31
0.0
  0
LINE
  5
7B
100
AcDbEntity
  8
1
100
AcDbLine
 10
-945.438273
 20
-418.464852
 30
0.0
 11
-945.438273
 21
-412.541305
 31
0.0
  0
ARC
  5
7C
100
AcDbEntity
  8
1
100
AcDbCircle
 10
-976.216594
 20
-416.464852
 30
0.0
 40
4.0
100
AcDbArc
 50
90.0
 51
167.110336
  0
ARC
  5
7D
100
AcDbEntity
  8
1
100
AcDbCircle
 10
-1018.357528
 20
-416.464852
 30
0.0
 40
4.0
100
AcDbArc
 50
17.587991
 51
90.0
  0
LINE
  5
7E
100
AcDbEntity
  8
1
100
AcDbLine
 10
-1014.544512
 20
-415.256171
 30
0.0
 11
-994.508118
 21
-478.464852
 31
0.0
  0
LINE
  5
7F
100
AcDbEntity
  8
1
100
AcDbLine
 10
-994.508118
 20
-478.464852
 30
0.0
 11
-987.841954
 21
-444.964852
 31
0.0
  0
LINE
  5
80
100
AcDbEntity
  8
1
100
AcDbLine
 10
-985.884272
 20
-442.964852
 30
0.0
 11
-980.115799
 21
-415.572555
 31
0.0
  0
LINE
  5
81
100
AcDbEntity
  8
1
100
AcDbLine
 10
-987.841954
 20
-444.964852
 30
0.0
 11
-985.884272
 21
-442.964852
 31
0.0
  0
LINE
  5
82
100
AcDbEntity
  8
1
100
AcDbLine
 10
-928.614742
 20
-384.644585
 30
0.0
 11
-928.614742
 21
-408.464852
 31
0.0
  0
LINE
  5
83
100
AcDbEntity
  8
1
100
AcDbLine
 10
-926.368428
 20
-638.464852
 30
0.0
 11
-926.368428
 21
-478.464852
 31
0.0
  0
ARC
  5
84
100
AcDbEntity
  8
1
100
AcDbCircle
 10
-944.659953
 20
-416.464852
 30
0.0
 40
4.0
100
AcDbArc
 50
12.889664
 51
90.0
  0
ARC
  5
85
100
AcDbEntity
  8
1
100
AcDbCircle
 10
-902.519018
 20
-416.464852
 30
0.0
 40
4.0
100
AcDbArc
 50
90.0
 51
162.412009
  0
LINE
  5
86
100
AcDbEntity
  8
1
100
AcDbLine
 10
-906.332034
 20
-415.256171
 30
0.0
 11
-926.368428
 21
-478.464852
 31
0.0
  0
LINE
  5
87
100
AcDbEntity
  8
1
100
AcDbLine
 10
-926.368428
 20
-478.464852
 30
0.0
 11
-933.034593
 21
-444.964852
 31
0.0
  0
LINE
  5
88
100
AcDbEntity
  8
1
100
AcDbLine
 10
-934.992274
 20
-442.964852
 30
0.0
 11
-940.760747
 21
-415.572555
 31
0.0
  0
LINE
  5
89
100
AcDbEntity
  8
1
100
AcDbLine
 10
-933.034593
 20
-444.964852
 30
0.0
 11
-934.992274
 21
-442.964852
 31
0.0
  0
ARC
  5
8A
100
AcDbEntity
  8
1
100
AcDbCircle
 10
-905.44722
 20
-404.464852
 30
0.0
 40
4.0
100
AcDbArc
 50
270.0
 51
0.0
  0
LINE
  5
8B
100
AcDbEntity
  8
1
100
AcDbLine
 10
-992.261804
 20
-732.285119
 30
0.0
 11
-992.261804
 21
-708.464852
 31
0.0
  0
ARC
  5
8C
100
AcDbEntity
  8
1
100
AcDbCircle
 10
-976.216594
 20
-700.464852
 30
0.0
 40
4.0
100
AcDbArc
 50
192.889664
 51
270.0
  0
ARC
  5
8D
100
AcDbEntity
  8
1
100
AcDbCircle
 10
-1018.357528
 20
-700.464852
 30
0.0
 40
4.0
100
AcDbArc
 50
270.0
 51
342.412009
  0
LINE
  5
8E
100
AcDbEntity
  8
1
100
AcDbLine
 10
-1014.544512
 20
-701.673532
 30
0.0
 11
-994.508118
 21
-638.464852
 31
0.0
  0
LINE
  5
8F
100
AcDbEntity
  8
1
100
AcDbLine
 10
-994.508118
 20
-638.464852
 30
0.0
 11
-987.841954
 21
-671.964852
 31
0.0
  0
LINE
  5
90
100
AcDbEntity
  8
1
100
AcDbLine
 10
-985.884272
 20
-673.964852
 30
0.0
 11
-980.115799
 21
-701.357149
 31
0.0
  0
LINE
  5
91
100
AcDbEntity
  8
1
100
AcDbLine
 10
-987.841954
 20
-671.964852
 30
0.0
 11
-985.884272
 21
-673.964852
 31
0.0
  0
LINE
  5
92
100
AcDbEntity
  8
1
100
AcDbLine
 10
-928.614742
 20
-732.285119
 30
0.0
 11
-928.614742
 21
-708.464852
 31
0.0
  0
ARC
  5
93
100
AcDbEntity
  8
1
100
AcDbCircle
 10
-944.659953
 20
-700.464852
 30
0.0
 40
4.0
100
AcDbArc
 50
270.0
 51
347.110336
  0
ARC
  5
94
100
AcDbEntity
  8
1
100
AcDbCircle
 10
-902.519018
 20
-700.464852
 30
0.0
 40
4.0
100
AcDbArc
 50
197.587991
 51
270.0
  0
LINE
  5
95
100
AcDbEntity
  8
1
100
AcDbLine
 10
-906.332034
 20
-701.673532
 30
0.0
 11
-926.368428
 21
-638.464852
 31
0.0
  0
LINE
  5
96
100
AcDbEntity
  8
1
100
AcDbLine
 10
-926.368428
 20
-638.464852
 30
0.0
 11
-933.034593
 21
-671.964852
 31
0.0
  0
LINE
  5
97
100
AcDbEntity
  8
1
100
AcDbLine
 10
-934.992274
 20
-673.964852
 30
0.0
 11
-940.760747
 21
-701.357149
 31
0.0
  0
LINE
  5
98
100
AcDbEntity
  8
1
100
AcDbLine
 10
-933.034593
 20
-671.964852
 30
0.0
 11
-934.992274
 21
-673.964852
 31
0.0
  0
ARC
  5
99
100
AcDbEntity
  8
1
100
AcDbCircle
 10
-942.438273
 20
-711.464852
 30
0.0
 40
3.0
100
AcDbArc
 50
90.0
 51
180.0
  0
ARC
  5
9A
100
AcDbEntity
  8
1
100
AcDbCircle
 10
-1015.429327
 20
-712.464852
 30
0.0
 40
4.0
100
AcDbArc
 50
90.0
 51
180.0
  0
ARC
  5
9B
100
AcDbEntity
  8
1
100
AcDbCircle
 10
-978.438273
 20
-711.464852
 30
0.0
 40
3.0
100
AcDbArc
 50
0.0
 51
90.0
  0
LINE
  5
9C
100
AcDbEntity
  8
1
100
AcDbLine
 10
-970.438273
 20
-693.464852
 30
0.0
 11
-950.438273
 21
-693.464852
 31
0.0
  0
ARC
  5
9D
100
AcDbEntity
  8
1
100
AcDbCircle
 10
-950.438273
 20
-698.464852
 30
0.0
 40
5.0
100
AcDbArc
 50
0.0
 51
90.0
  0
ARC
  5
9E
100
AcDbEntity
  8
1
100
AcDbCircle
 10
-970.438273
 20
-698.464852
 30
0.0
 40
5.0
100
AcDbArc
 50
90.0
 51
180.0
  0
LINE
  5
9F
100
AcDbEntity
  8
1
100
AcDbLine
 10
-975.438273
 20
-704.388398
 30
0.0
 11
-975.438273
 21
-698.464852
 31
0.0
  0
LINE
  5
A0
100
AcDbEntity
  8
1
100
AcDbLine
 10
-945.438273
 20
-698.464852
 30
0.0
 11
-945.438273
 21
-704.388398
 31
0.0
  0
ARC
  5
A1
100
AcDbEntity
  8
1
100
AcDbCircle
 10
-905.44722
 20
-712.464852
 30
0.0
 40
4.0
100
AcDbArc
 50
0.0
 51
90.0
  0
LINE
  5
A2
100
AcDbEntity
  8
1
100
AcDbLine
 10
-866.725039
 20
-553.464852
 30
0.0
 11
-866.725039
 21
-563.464852
 31
0.0
  0
ARC
  5
A3
100
AcDbEntity
  8
1
100
AcDbCircle
 10
-858.725039
 20
-573.464852
 30
0.0
 40
8.0
100
AcDbArc
 50
90.0
 51
180.0
  0
ARC
  5
A4
100
AcDbEntity
  8
1
100
AcDbCircle
 10
-858.725039
 20
-543.464852
 30
0.0
 40
8.0
100
AcDbArc
 50
180.0
 51
270.0
  0
LINE
  5
A5
100
AcDbEntity
  8
1
100
AcDbLine
 10
-805.438273
 20
-553.464852
 30
0.0
 11
-805.438273
 21
-563.464852
 31
0.0
  0
ARC
  5
A6
100
AcDbEntity
  8
1
100
AcDbCircle
 10
-807.438273
 20
-563.464852
 30
0.0
 40
2.0
100
AcDbArc
 50
270.0
 51
360.0
  0
ARC
  5
A7
100
AcDbEntity
  8
1
100
AcDbCircle
 10
-807.438273
 20
-553.464852
 30
0.0
 40
2.0
100
AcDbArc
 50
0.0
 51
90.0
  0
LINE
  5
A8
100
AcDbEntity
  8
1
100
AcDbLine
 10
-807.438273
 20
-565.464852
 30
0.0
 11
-858.725039
 21
-565.464852
 31
0.0
  0
LINE
  5
A9
100
AcDbEntity
  8
1
100
AcDbLine
 10
-858.725039
 20
-551.464852
 30
0.0
 11
-807.438273
 21
-551.464852
 31
0.0
  0
LINE
  5
AA
100
AcDbEntity
  8
1
100
AcDbLine
 10
-905.44722
 20
-408.464852
 30
0.0
 11
-942.438273
 21
-408.464852
 31
0.0
  0
LINE
  5
AB
100
AcDbEntity
  8
1
100
AcDbLine
 10
-978.438273
 20
-408.464852
 30
0.0
 11
-1015.429327
 21
-408.464852
 31
0.0
  0
LINE
  5
AC
100
AcDbEntity
  8
1
100
AcDbLine
 10
-1054.151507
 20
-553.464852
 30
0.0
 11
-1054.151507
 21
-563.464852
 31
0.0
  0
ARC
  5
AD
100
AcDbEntity
  8
1
100
AcDbCircle
 10
-1062.151507
 20
-573.464852
 30
0.0
 40
8.0
100
AcDbArc
 50
0.0
 51
90.0
  0
ARC
  5
AE
100
AcDbEntity
  8
1
100
AcDbCircle
 10
-1062.151507
 20
-543.464852
 30
0.0
 40
8.0
100
AcDbArc
 50
270.0
 51
360.0
  0
LINE
  5
AF
100
AcDbEntity
  8
1
100
AcDbLine
 10
-1115.438273
 20
-553.464852
 30
0.0
 11
-1115.438273
 21
-563.464852
 31
0.0
  0
ARC
  5
B0
100
AcDbEntity
  8
1
100
AcDbCircle
 10
-1113.438273
 20
-563.464852
 30
0.0
 40
2.0
100
AcDbArc
 50
180.0
 51
270.0
  0
ARC
  5
B1
100
AcDbEntity
  8
1
100
AcDbCircle
 10
-1113.438273
 20
-553.464852
 30
0.0
 40
2.0
100
AcDbArc
 50
90.0
 51
180.0
  0
LINE
  5
B2
100
AcDbEntity
  8
1
100
AcDbLine
 10
-1113.438273
 20
-565.464852
 30
0.0
 11
-1062.151507
 21
-565.464852
 31
0.0
  0
LINE
  5
B3
100
AcDbEntity
  8
1
100
AcDbLine
 10
-1062.151507
 20
-551.464852
 30
0.0
 11
-1113.438273
 21
-551.464852
 31
0.0
  0
LINE
  5
B4
100
AcDbEntity
  8
1
100
AcDbLine
 10
-934.534593
 20
-444.964852
 30
0.0
 11
-986.341954
 21
-444.964852
 31
0.0
  0
LINE
  5
B5
100
AcDbEntity
  8
1
100
AcDbLine
 10
-984.884272
 20
-442.964852
 30
0.0
 11
-935.992274
 21
-442.964852
 31
0.0
  0
LINE
  5
B6
100
AcDbEntity
  8
1
100
AcDbLine
 10
-934.534593
 20
-671.964852
 30
0.0
 11
-986.341954
 21
-671.964852
 31
0.0
  0
LINE
  5
B7
100
AcDbEntity
  8
1
100
AcDbLine
 10
-984.884272
 20
-673.964852
 30
0.0
 11
-935.992274
 21
-673.964852
 31
0.0
  0
LINE
  5
B8
100
AcDbEntity
  8
1
100
AcDbLine
 10
-905.44722
 20
-708.464852
 30
0.0
 11
-942.438273
 21
-708.464852
 31
0.0
  0
LINE
  5
B9
100
AcDbEntity
  8
1
100
AcDbLine
 10
-978.438273
 20
-708.464852
 30
0.0
 11
-1015.429327
 21
-708.464852
 31
0.0
  0
LINE
  5
BA
100
AcDbEntity
  8
1
100
AcDbLine
 10
248.472838
 20
-338.914852
 30
0.0
 11
248.472838
 21
-778.014852
 31
0.0
  0
LINE
  5
BB
100
AcDbEntity
  8
1
100
AcDbLine
 10
353.672838
 20
-338.914852
 30
0.0
 11
353.672838
 21
-778.014852
 31
0.0
  0
LINE
  5
BC
100
AcDbEntity
  8
1
100
AcDbLine
 10
250.072838
 20
-336.145621
 30
0.0
 11
248.472838
 21
-338.914852
 31
0.0
  0
LINE
  5
BD
100
AcDbEntity
  8
1
100
AcDbLine
 10
352.072838
 20
-336.145621
 30
0.0
 11
353.672838
 21
-338.914852
 31
0.0
  0
LINE
  5
BE
100
AcDbEntity
  8
1
100
AcDbLine
 10
250.072838
 20
-780.784083
 30
0.0
 11
248.472838
 21
-778.014852
 31
0.0
  0
LINE
  5
BF
100
AcDbEntity
  8
1
100
AcDbLine
 10
352.072838
 20
-780.784083
 30
0.0
 11
353.672838
 21
-778.014852
 31
0.0
  0
LINE
  5
C0
100
AcDbEntity
  8
1
  6
DASHED
100
AcDbLine
 10
-1182.757504
 20
650.272659
 30
0.0
 11
-1179.988273
 21
648.672659
 31
0.0
  0
LINE
  5
C1
100
AcDbEntity
  8
1
  6
DASHED
100
AcDbLine
 10
-1182.757504
 20
752.272659
 30
0.0
 11
-1179.988273
 21
753.872659
 31
0.0
  0
LINE
  5
C2
100
AcDbEntity
  8
1
  6
DASHED
100
AcDbLine
 10
-738.119042
 20
650.272659
 30
0.0
 11
-740.888273
 21
648.672659
 31
0.0
  0
LINE
  5
C3
100
AcDbEntity
  8
1
  6
DASHED
100
AcDbLine
 10
-738.119042
 20
752.272659
 30
0.0
 11
-740.888273
 21
753.872659
 31
0.0
  0
LINE
  5
C4
100
AcDbEntity
  8
1
  6
DASHED
100
AcDbLine
 10
-1179.988273
 20
648.672659
 30
0.0
 11
-1028.419662
 21
648.672659
 31
0.0
  0
LINE
  5
C5
100
AcDbEntity
  8
1
  6
DASHED
100
AcDbLine
 10
-892.456884
 20
648.672659
 30
0.0
 11
-740.888273
 21
648.672659
 31
0.0
  0
CIRCLE
  5
C6
100
AcDbEntity
  8
1
100
AcDbCircle
 10
-960.438273
 20
-558.464852
 30
0.0
 40
219.55
  0
LINE
  5
C7
100
AcDbEntity
  8
1
100
AcDbLine
 10
-969.085273
 20
-896.464852
 30
0.0
 11
-951.791273
 21
-896.464852
 31
0.0
  0
LINE
  5
C8
100
AcDbEntity
  8
1
100
AcDbLine
 10
-969.085273
 20
-896.464852
 30
0.0
 11
-970.438273
 21
-895.111852
 31
0.0
  0
LINE
  5
C9
100
AcDbEntity
  8
1
100
AcDbLine
 10
-970.438273
 20
-895.111852
 30
0.0
 11
-970.438273
 21
-891.464852
 31
0.0
  0
LINE
  5
CA
100
AcDbEntity
  8
1
 62
     2
100
AcDbLine
 10
-969.085273
 20
-896.464852
 30
0.0
 11
-969.085273
 21
-891.464852
 31
0.0
  0
LINE
  5
CB
100
AcDbEntity
  8
1
100
AcDbLine
 10
-951.791273
 20
-896.464852
 30
0.0
 11
-950.438273
 21
-895.111852
 31
0.0
  0
LINE
  5
CC
100
AcDbEntity
  8
1
100
AcDbLine
 10
-950.438273
 20
-895.111852
 30
0.0
 11
-950.438273
 21
-891.464852
 31
0.0
  0
LINE
  5
CD
100
AcDbEntity
  8
1
100
AcDbLine
 10
-950.438273
 20
-895.111852
 30
0.0
 11
-970.438273
 21
-895.111852
 31
0.0
  0
LINE
  5
CE
100
AcDbEntity
  8
1
 62
     2
100
AcDbLine
 10
-951.791273
 20
-896.464852
 30
0.0
 11
-951.791273
 21
-891.464852
 31
0.0
  0
LINE
  5
CF
100
AcDbEntity
  8
1
100
AcDbLine
 10
292.425838
 20
-896.464852
 30
0.0
 11
309.719838
 21
-896.464852
 31
0.0
  0
LINE
  5
D0
100
AcDbEntity
  8
1
100
AcDbLine
 10
292.425838
 20
-896.464852
 30
0.0
 11
291.072838
 21
-895.111852
 31
0.0
  0
LINE
  5
D1
100
AcDbEntity
  8
1
100
AcDbLine
 10
291.072838
 20
-895.111852
 30
0.0
 11
291.072838
 21
-891.464852
 31
0.0
  0
LINE
  5
D2
100
AcDbEntity
  8
1
 62
     2
100
AcDbLine
 10
292.425838
 20
-896.464852
 30
0.0
 11
292.425838
 21
-891.464852
 31
0.0
  0
LINE
  5
D3
100
AcDbEntity
  8
1
100
AcDbLine
 10
309.719838
 20
-896.464852
 30
0.0
 11
311.072838
 21
-895.111852
 31
0.0
  0
LINE
  5
D4
100
AcDbEntity
  8
1
100
AcDbLine
 10
311.072838
 20
-895.111852
 30
0.0
 11
311.072838
 21
-891.464852
 31
0.0
  0
LINE
  5
D5
100
AcDbEntity
  8
1
100
AcDbLine
 10
311.072838
 20
-895.111852
 30
0.0
 11
291.072838
 21
-895.111852
 31
0.0
  0
LINE
  5
D6
100
AcDbEntity
  8
1
 62
     2
100
AcDbLine
 10
309.719838
 20
-896.464852
 30
0.0
 11
309.719838
 21
-891.464852
 31
0.0
  0
LINE
  5
D7
100
AcDbEntity
  8
1
100
AcDbLine
 10
331.260915
 20
-881.464852
 30
0.0
 11
331.260915
 21
-886.964852
 31
0.0
  0
LINE
  5
D8
100
AcDbEntity
  8
1
100
AcDbLine
 10
324.760915
 20
-881.464852
 30
0.0
 11
324.760915
 21
-886.243164
 31
0.0
  0
ARC
  5
D9
100
AcDbEntity
  8
1
100
AcDbCircle
 10
328.010915
 20
-879.286093
 30
0.0
 40
7.678759
100
AcDbArc
 50
244.96034
 51
295.03966
  0
LINE
  5
DA
100
AcDbEntity
  8
1
100
AcDbLine
 10
318.260915
 20
-881.464852
 30
0.0
 11
318.260915
 21
-886.964852
 31
0.0
  0
LINE
  5
DB
100
AcDbEntity
  8
1
100
AcDbLine
 10
318.260915
 20
-886.964852
 30
0.0
 11
331.260915
 21
-886.964852
 31
0.0
  0
ARC
  5
DC
100
AcDbEntity
  8
1
100
AcDbCircle
 10
321.510915
 20
-879.286093
 30
0.0
 40
7.678759
100
AcDbArc
 50
244.96034
 51
295.03966
  0
LINE
  5
DD
100
AcDbEntity
  8
1
100
AcDbLine
 10
283.884761
 20
-881.464852
 30
0.0
 11
283.884761
 21
-886.964852
 31
0.0
  0
LINE
  5
DE
100
AcDbEntity
  8
1
100
AcDbLine
 10
277.384761
 20
-881.464852
 30
0.0
 11
277.384761
 21
-886.243164
 31
0.0
  0
ARC
  5
DF
100
AcDbEntity
  8
1
100
AcDbCircle
 10
280.634761
 20
-879.286093
 30
0.0
 40
7.678759
100
AcDbArc
 50
244.96034
 51
295.03966
  0
LINE
  5
E0
100
AcDbEntity
  8
1
100
AcDbLine
 10
270.884761
 20
-881.464852
 30
0.0
 11
270.884761
 21
-886.964852
 31
0.0
  0
LINE
  5
E1
100
AcDbEntity
  8
1
100
AcDbLine
 10
270.884761
 20
-886.964852
 30
0.0
 11
283.884761
 21
-886.964852
 31
0.0
  0
ARC
  5
E2
100
AcDbEntity
  8
1
100
AcDbCircle
 10
274.134761
 20
-879.286093
 30
0.0
 40
7.678759
100
AcDbArc
 50
244.96034
 51
295.03966
  0
LINE
  5
E3
100
AcDbEntity
  8
1
100
AcDbLine
 10
316.072838
 20
-879.464852
 30
0.0
 11
316.072838
 21
-891.464852
 31
0.0
  0
LINE
  5
E4
100
AcDbEntity
  8
1
100
AcDbLine
 10
316.072838
 20
-891.464852
 30
0.0
 11
286.072838
 21
-891.464852
 31
0.0
  0
LINE
  5
E5
100
AcDbEntity
  8
1
100
AcDbLine
 10
301.072838
 20
-881.081433
 30
0.0
 11
301.072838
 21
-889.848271
 31
0.0
  0
ARC
  5
E6
100
AcDbEntity
  8
1
100
AcDbCircle
 10
308.572838
 20
-873.25873
 30
0.0
 40
18.206122
100
AcDbArc
 50
245.672652
 51
294.327348
  0
LINE
  5
E7
100
AcDbEntity
  8
1
100
AcDbLine
 10
286.072838
 20
-879.464852
 30
0.0
 11
286.072838
 21
-891.464852
 31
0.0
  0
ARC
  5
E8
100
AcDbEntity
  8
1
100
AcDbCircle
 10
293.572838
 20
-873.25873
 30
0.0
 40
18.206122
100
AcDbArc
 50
245.672652
 51
294.327348
  0
ARC
  5
E9
100
AcDbEntity
  8
1
100
AcDbCircle
 10
308.572838
 20
-897.670974
 30
0.0
 40
18.206122
100
AcDbArc
 50
65.672652
 51
114.327348
  0
ARC
  5
EA
100
AcDbEntity
  8
1
100
AcDbCircle
 10
293.572838
 20
-897.670974
 30
0.0
 40
18.206122
100
AcDbArc
 50
65.672652
 51
114.327348
  0
CIRCLE
  5
EB
100
AcDbEntity
  8
1
100
AcDbCircle
 10
-960.438273
 20
-558.464852
 30
0.0
 40
233.5
  0
LINE
  5
EC
100
AcDbEntity
  8
1
100
AcDbLine
 10
-1208.938273
 20
-545.964852
 30
0.0
 11
-1208.938273
 21
-570.964852
 31
0.0
  0
LINE
  5
ED
100
AcDbEntity
  8
1
100
AcDbLine
 10
-711.938273
 20
-545.964852
 30
0.0
 11
-711.938273
 21
-570.964852
 31
0.0
  0
LINE
  5
EE
100
AcDbEntity
  8
1
100
AcDbLine
 10
-1208.938273
 20
-545.964852
 30
0.0
 11
-1196.429798
 21
-545.964852
 31
0.0
  0
LINE
  5
EF
100
AcDbEntity
  8
1
100
AcDbLine
 10
-724.446748
 20
-545.964852
 30
0.0
 11
-711.938273
 21
-545.964852
 31
0.0
  0
LINE
  5
F0
100
AcDbEntity
  8
1
100
AcDbLine
 10
-1208.938273
 20
-570.964852
 30
0.0
 11
-1196.429798
 21
-570.964852
 31
0.0
  0
LINE
  5
F1
100
AcDbEntity
  8
1
100
AcDbLine
 10
-724.446748
 20
-570.964852
 30
0.0
 11
-711.938273
 21
-570.964852
 31
0.0
  0
ARC
  5
F2
100
AcDbEntity
  8
1
100
AcDbCircle
 10
-724.446748
 20
-542.964852
 30
0.0
 40
3.0
100
AcDbArc
 50
183.757808
 51
270.0
  0
ARC
  5
F3
100
AcDbEntity
  8
1
100
AcDbCircle
 10
-724.446748
 20
-573.964852
 30
0.0
 40
3.0
100
AcDbArc
 50
90.0
 51
176.242192
  0
ARC
  5
F4
100
AcDbEntity
  8
1
100
AcDbCircle
 10
-1196.429798
 20
-542.964852
 30
0.0
 40
3.0
100
AcDbArc
 50
270.0
 51
356.242192
  0
ARC
  5
F5
100
AcDbEntity
  8
1
100
AcDbCircle
 10
-1196.429798
 20
-573.964852
 30
0.0
 40
3.0
100
AcDbArc
 50
3.757808
 51
90.0
  0
LINE
  5
F6
100
AcDbEntity
  8
1
100
AcDbLine
 10
-1002.938273
 20
-858.464852
 30
0.0
 11
-917.938273
 21
-858.464852
 31
0.0
  0
LINE
  5
F7
100
AcDbEntity
  8
1
100
AcDbLine
 10
-1030.438273
 20
-178.464852
 30
0.0
 11
-890.438273
 21
-178.464852
 31
0.0
  0
LINE
  5
F8
100
AcDbEntity
  8
1
100
AcDbLine
 10
-1030.438273
 20
-175.264852
 30
0.0
 11
-1030.438273
 21
-195.464852
 31
0.0
  0
LINE
  5
F9
100
AcDbEntity
  8
1
100
AcDbLine
 10
-890.438273
 20
-175.264852
 30
0.0
 11
-890.438273
 21
-195.464852
 31
0.0
  0
LINE
  5
FA
100
AcDbEntity
  8
1
100
AcDbLine
 10
-1027.438273
 20
-198.464852
 30
0.0
 11
-893.438273
 21
-198.464852
 31
0.0
  0
ARC
  5
FB
100
AcDbEntity
  8
1
100
AcDbCircle
 10
-1027.438273
 20
-195.464852
 30
0.0
 40
3.0
100
AcDbArc
 50
180.0
 51
270.0
  0
ARC
  5
FC
100
AcDbEntity
  8
1
100
AcDbCircle
 10
-893.438273
 20
-195.464852
 30
0.0
 40
3.0
100
AcDbArc
 50
270.0
 51
360.0
  0
LINE
  5
FD
100
AcDbEntity
  8
1
100
AcDbLine
 10
-997.438273
 20
-208.464852
 30
0.0
 11
-997.438273
 21
-302.577752
 31
0.0
  0
LINE
  5
FE
100
AcDbEntity
  8
1
100
AcDbLine
 10
-923.438273
 20
-208.464852
 30
0.0
 11
-923.438273
 21
-302.577752
 31
0.0
  0
LINE
  5
FF
100
AcDbEntity
  8
1
100
AcDbLine
 10
-940.438273
 20
-208.464852
 30
0.0
 11
-940.438273
 21
-316.819968
 31
0.0
  0
LINE
  5
100
100
AcDbEntity
  8
1
100
AcDbLine
 10
-980.438273
 20
-208.464852
 30
0.0
 11
-980.438273
 21
-316.819968
 31
0.0
  0
ARC
  5
101
100
AcDbEntity
  8
1
100
AcDbCircle
 10
-930.438273
 20
-316.819968
 30
0.0
 40
10.0
100
AcDbArc
 50
180.0
 51
262.92299
  0
ARC
  5
102
100
AcDbEntity
  8
1
100
AcDbCircle
 10
-913.438273
 20
-319.54384
 30
0.0
 40
10.0
100
AcDbArc
 50
202.243802
 51
258.871008
  0
ARC
  5
103
100
AcDbEntity
  8
1
100
AcDbCircle
 10
-990.438273
 20
-316.819968
 30
0.0
 40
10.0
100
AcDbArc
 50
277.07701
 51
360.0
  0
ARC
  5
104
100
AcDbEntity
  8
1
100
AcDbCircle
 10
-1007.438273
 20
-319.54384
 30
0.0
 40
10.0
100
AcDbArc
 50
281.128992
 51
337.756198
  0
ARC
  5
105
100
AcDbEntity
  8
1
100
AcDbCircle
 10
-913.438273
 20
-208.464852
 30
0.0
 40
10.0
100
AcDbArc
 50
90.0
 51
180.0
  0
ARC
  5
106
100
AcDbEntity
  8
1
100
AcDbCircle
 10
-1007.438273
 20
-208.464852
 30
0.0
 40
10.0
100
AcDbArc
 50
360.0
 51
90.0
  0
ARC
  5
107
100
AcDbEntity
  8
1
100
AcDbCircle
 10
-990.438273
 20
-208.464852
 30
0.0
 40
10.0
100
AcDbArc
 50
0.0
 51
90.0
  0
ARC
  5
108
100
AcDbEntity
  8
1
100
AcDbCircle
 10
-930.438273
 20
-208.464852
 30
0.0
 40
10.0
100
AcDbArc
 50
90.0
 51
180.0
  0
LINE
  5
109
100
AcDbEntity
  8
1
100
AcDbLine
 10
-1017.438273
 20
-213.464852
 30
0.0
 11
-1007.438273
 21
-213.464852
 31
0.0
  0
LINE
  5
10A
100
AcDbEntity
  8
1
100
AcDbLine
 10
-913.438273
 20
-213.464852
 30
0.0
 11
-903.438273
 21
-213.464852
 31
0.0
  0
ARC
  5
10B
100
AcDbEntity
  8
1
100
AcDbCircle
 10
-913.438273
 20
-223.464852
 30
0.0
 40
10.0
100
AcDbArc
 50
90.0
 51
180.0
  0
ARC
  5
10C
100
AcDbEntity
  8
1
100
AcDbCircle
 10
-1007.438273
 20
-223.464852
 30
0.0
 40
10.0
100
AcDbArc
 50
360.0
 51
90.0
  0
LINE
  5
10D
100
AcDbEntity
  8
1
100
AcDbLine
 10
-898.438273
 20
-207.464852
 30
0.0
 11
-898.438273
 21
-208.464852
 31
0.0
  0
LINE
  5
10E
100
AcDbEntity
  8
1
100
AcDbLine
 10
-1022.438273
 20
-207.464852
 30
0.0
 11
-1022.438273
 21
-208.464852
 31
0.0
  0
ARC
  5
10F
100
AcDbEntity
  8
1
100
AcDbCircle
 10
-888.438273
 20
-207.464852
 30
0.0
 40
10.0
100
AcDbArc
 50
112.619865
 51
180.0
  0
ARC
  5
110
100
AcDbEntity
  8
1
100
AcDbCircle
 10
-1032.438273
 20
-207.464852
 30
0.0
 40
10.0
100
AcDbArc
 50
0.0
 51
67.380135
  0
ARC
  5
111
100
AcDbEntity
  8
1
100
AcDbCircle
 10
-1017.438273
 20
-208.464852
 30
0.0
 40
5.0
100
AcDbArc
 50
180.0
 51
270.0
  0
ARC
  5
112
100
AcDbEntity
  8
1
100
AcDbCircle
 10
-903.438273
 20
-208.464852
 30
0.0
 40
5.0
100
AcDbArc
 50
270.0
 51
0.0
  0
LINE
  5
113
100
AcDbEntity
  8
1
100
AcDbLine
 10
-969.438273
 20
-203.464852
 30
0.0
 11
-969.438273
 21
-218.464852
 31
0.0
  0
LINE
  5
114
100
AcDbEntity
  8
1
100
AcDbLine
 10
-951.438273
 20
-203.464852
 30
0.0
 11
-951.438273
 21
-218.464852
 31
0.0
  0
ARC
  5
115
100
AcDbEntity
  8
1
100
AcDbCircle
 10
-946.438273
 20
-203.464852
 30
0.0
 40
5.0
100
AcDbArc
 50
90.0
 51
180.0
  0
ARC
  5
116
100
AcDbEntity
  8
1
100
AcDbCircle
 10
-974.438273
 20
-203.464852
 30
0.0
 40
5.0
100
AcDbArc
 50
0.0
 51
90.0
  0
LINE
  5
117
100
AcDbEntity
  8
1
100
AcDbLine
 10
-954.438273
 20
-213.464852
 30
0.0
 11
-966.438273
 21
-213.464852
 31
0.0
  0
LINE
  5
118
100
AcDbEntity
  8
1
100
AcDbLine
 10
-951.438273
 20
-223.464852
 30
0.0
 11
-969.438273
 21
-223.464852
 31
0.0
  0
ARC
  5
119
100
AcDbEntity
  8
1
100
AcDbCircle
 10
-946.438273
 20
-218.464852
 30
0.0
 40
5.0
100
AcDbArc
 50
180.0
 51
270.0
  0
ARC
  5
11A
100
AcDbEntity
  8
1
100
AcDbCircle
 10
-974.438273
 20
-218.464852
 30
0.0
 40
5.0
100
AcDbArc
 50
270.0
 51
360.0
  0
ARC
  5
11B
100
AcDbEntity
  8
1
100
AcDbCircle
 10
-954.438273
 20
-210.464852
 30
0.0
 40
3.0
100
AcDbArc
 50
270.0
 51
360.0
  0
ARC
  5
11C
100
AcDbEntity
  8
1
100
AcDbCircle
 10
-966.438273
 20
-210.464852
 30
0.0
 40
3.0
100
AcDbArc
 50
180.0
 51
270.0
  0
LINE
  5
11D
100
AcDbEntity
  8
1
  6
CENTER
 62
     2
100
AcDbLine
 10
-910.940798
 20
-155.699696
 30
0.0
 11
-910.940798
 21
-209.472905
 31
0.0
  0
LINE
  5
11E
100
AcDbEntity
  8
1
  6
CENTER
 62
     2
100
AcDbLine
 10
-1009.935748
 20
-155.699696
 30
0.0
 11
-1009.935748
 21
-209.472905
 31
0.0
  0
LINE
  5
11F
100
AcDbEntity
  8
1
100
AcDbLine
 10
-1002.938273
 20
-820.542829
 30
0.0
 11
-1002.938273
 21
-869.464852
 31
0.0
  0
LINE
  5
120
100
AcDbEntity
  8
1
100
AcDbLine
 10
-917.938273
 20
-820.542829
 30
0.0
 11
-917.938273
 21
-869.464852
 31
0.0
  0
LINE
  5
121
100
AcDbEntity
  8
1
100
AcDbLine
 10
-999.938273
 20
-853.464852
 30
0.0
 11
-920.938273
 21
-853.464852
 31
0.0
  0
ARC
  5
122
100
AcDbEntity
  8
1
100
AcDbCircle
 10
-920.938273
 20
-850.464852
 30
0.0
 40
3.0
100
AcDbArc
 50
270.0
 51
360.0
  0
ARC
  5
123
100
AcDbEntity
  8
1
100
AcDbCircle
 10
-999.938273
 20
-850.464852
 30
0.0
 40
3.0
100
AcDbArc
 50
180.0
 51
270.0
  0
ARC
  5
124
100
AcDbEntity
  8
1
100
AcDbCircle
 10
-960.438273
 20
-558.464852
 30
0.0
 40
287.5
100
AcDbArc
 50
78.34947
 51
80.101644
  0
ARC
  5
125
100
AcDbEntity
  8
1
100
AcDbCircle
 10
-960.438273
 20
-558.464852
 30
0.0
 40
287.5
100
AcDbArc
 50
99.898356
 51
101.65053
  0
ARC
  5
126
100
AcDbEntity
  8
1
100
AcDbCircle
 10
-960.438273
 20
-558.464852
 30
0.0
 40
287.5
100
AcDbArc
 50
258.34947
 51
259.042393
  0
ARC
  5
127
100
AcDbEntity
  8
1
100
AcDbCircle
 10
-960.438273
 20
-558.464852
 30
0.0
 40
287.5
100
AcDbArc
 50
280.957607
 51
281.65053
  0
LINE
  5
128
100
AcDbEntity
  8
1
100
AcDbLine
 10
-1042.438273
 20
-790.538655
 30
0.0
 11
-1042.438273
 21
-810.659717
 31
0.0
  0
LINE
  5
129
100
AcDbEntity
  8
1
100
AcDbLine
 10
-878.438273
 20
-790.538655
 30
0.0
 11
-878.438273
 21
-810.659717
 31
0.0
  0
ARC
  5
12A
100
AcDbEntity
  8
1
100
AcDbCircle
 10
-1012.438273
 20
-810.659717
 30
0.0
 40
30.0
100
AcDbArc
 50
180.0
 51
258.34947
  0
ARC
  5
12B
100
AcDbEntity
  8
1
100
AcDbCircle
 10
-908.438273
 20
-810.659717
 30
0.0
 40
30.0
100
AcDbArc
 50
281.65053
 51
360.0
  0
ARC
  5
12C
100
AcDbEntity
  8
1
100
AcDbCircle
 10
-858.438273
 20
-790.538655
 30
0.0
 40
20.0
100
AcDbArc
 50
113.726226
 51
180.0
  0
ARC
  5
12D
100
AcDbEntity
  8
1
100
AcDbCircle
 10
-1062.438273
 20
-790.538655
 30
0.0
 40
20.0
100
AcDbArc
 50
0.0
 51
66.273774
  0
ARC
  5
12E
100
AcDbEntity
  8
1
100
AcDbCircle
 10
-902.938273
 20
-855.4497
 30
0.0
 40
15.0
100
AcDbArc
 50
100.957607
 51
180.0
  0
ARC
  5
12F
100
AcDbEntity
  8
1
100
AcDbCircle
 10
-1017.938273
 20
-855.4497
 30
0.0
 40
15.0
100
AcDbArc
 50
0.0
 51
79.042393
  0
LINE
  5
130
100
AcDbEntity
  8
1
100
AcDbLine
 10
-1042.438273
 20
-306.269987
 30
0.0
 11
-1042.438273
 21
-326.391049
 31
0.0
  0
LINE
  5
131
100
AcDbEntity
  8
1
100
AcDbLine
 10
-878.438273
 20
-306.269987
 30
0.0
 11
-878.438273
 21
-326.391049
 31
0.0
  0
ARC
  5
132
100
AcDbEntity
  8
1
100
AcDbCircle
 10
-908.438273
 20
-260.467788
 30
0.0
 40
15.0
100
AcDbArc
 50
180.0
 51
260.101644
  0
ARC
  5
133
100
AcDbEntity
  8
1
100
AcDbCircle
 10
-1012.438273
 20
-260.467788
 30
0.0
 40
15.0
100
AcDbArc
 50
279.898356
 51
360.0
  0
ARC
  5
134
100
AcDbEntity
  8
1
100
AcDbCircle
 10
-858.438273
 20
-326.391049
 30
0.0
 40
20.0
100
AcDbArc
 50
180.0
 51
246.273774
  0
ARC
  5
135
100
AcDbEntity
  8
1
100
AcDbCircle
 10
-1062.438273
 20
-326.391049
 30
0.0
 40
20.0
100
AcDbArc
 50
293.726226
 51
360.0
  0
ARC
  5
136
100
AcDbEntity
  8
1
100
AcDbCircle
 10
-908.438273
 20
-306.269987
 30
0.0
 40
30.0
100
AcDbArc
 50
0.0
 51
78.34947
  0
ARC
  5
137
100
AcDbEntity
  8
1
100
AcDbCircle
 10
-1012.438273
 20
-306.269987
 30
0.0
 40
30.0
100
AcDbArc
 50
101.65053
 51
180.0
  0
LINE
  5
138
100
AcDbEntity
  8
1
100
AcDbLine
 10
-1023.43053
 20
-312.902282
 30
0.0
 11
-1021.021336
 21
-319.934052
 31
0.0
  0
LINE
  5
139
100
AcDbEntity
  8
1
100
AcDbLine
 10
-996.213743
 20
-307.488527
 30
0.0
 11
-995.748606
 21
-314.906993
 31
0.0
  0
LINE
  5
13A
100
AcDbEntity
  8
1
100
AcDbLine
 10
-924.662803
 20
-307.488527
 30
0.0
 11
-925.12794
 21
-314.906993
 31
0.0
  0
LINE
  5
13B
100
AcDbEntity
  8
1
100
AcDbLine
 10
-899.85521
 20
-319.934052
 30
0.0
 11
-897.446016
 21
-312.902282
 31
0.0
  0
ARC
  5
13C
100
AcDbEntity
  8
1
100
AcDbCircle
 10
-1010.186305
 20
-308.364605
 30
0.0
 40
14.0
100
AcDbArc
 50
3.587744
 51
198.912256
  0
ARC
  5
13D
100
AcDbEntity
  8
1
100
AcDbCircle
 10
-1008.723128
 20
-315.720495
 30
0.0
 40
13.0
100
AcDbArc
 50
198.912256
 51
3.587744
  0
ARC
  5
13E
100
AcDbEntity
  8
1
100
AcDbCircle
 10
-912.153418
 20
-315.720495
 30
0.0
 40
13.0
100
AcDbArc
 50
176.412256
 51
341.087744
  0
ARC
  5
13F
100
AcDbEntity
  8
1
100
AcDbCircle
 10
-910.690241
 20
-308.364605
 30
0.0
 40
14.0
100
AcDbArc
 50
341.087744
 51
176.412256
  0
LINE
  5
140
100
AcDbEntity
  8
1
100
AcDbLine
 10
-899.85521
 20
-796.995652
 30
0.0
 11
-897.446016
 21
-804.027421
 31
0.0
  0
LINE
  5
141
100
AcDbEntity
  8
1
100
AcDbLine
 10
-925.12794
 20
-802.02271
 30
0.0
 11
-924.662803
 21
-809.441177
 31
0.0
  0
LINE
  5
142
100
AcDbEntity
  8
1
100
AcDbLine
 10
-995.748606
 20
-802.02271
 30
0.0
 11
-996.213743
 21
-809.441177
 31
0.0
  0
LINE
  5
143
100
AcDbEntity
  8
1
100
AcDbLine
 10
-1021.021336
 20
-796.995652
 30
0.0
 11
-1023.43053
 21
-804.027421
 31
0.0
  0
ARC
  5
144
100
AcDbEntity
  8
1
100
AcDbCircle
 10
-912.153418
 20
-801.209209
 30
0.0
 40
13.0
100
AcDbArc
 50
18.912256
 51
183.587744
  0
ARC
  5
145
100
AcDbEntity
  8
1
100
AcDbCircle
 10
-910.690241
 20
-808.565098
 30
0.0
 40
14.0
100
AcDbArc
 50
183.587744
 51
18.912256
  0
ARC
  5
146
100
AcDbEntity
  8
1
100
AcDbCircle
 10
-1008.723128
 20
-801.209209
 30
0.0
 40
13.0
100
AcDbArc
 50
356.412256
 51
161.087744
  0
ARC
  5
147
100
AcDbEntity
  8
1
100
AcDbCircle
 10
-1010.186305
 20
-808.565098
 30
0.0
 40
14.0
100
AcDbArc
 50
161.087744
 51
356.412256
  0
ARC
  5
148
100
AcDbEntity
  8
1
100
AcDbCircle
 10
-907.938273
 20
-796.237853
 30
0.0
 40
10.0
100
AcDbArc
 50
102.451068
 51
127.968315
  0
ARC
  5
149
100
AcDbEntity
  8
1
100
AcDbCircle
 10
-1012.938273
 20
-796.237853
 30
0.0
 40
10.0
100
AcDbArc
 50
52.031685
 51
77.548932
  0
LINE
  5
14A
100
AcDbEntity
  8
1
  6
CENTER
 62
     2
100
AcDbLine
 10
-936.750196
 20
-846.998677
 30
0.0
 11
-936.750196
 21
-892.847004
 31
0.0
  0
LINE
  5
14B
100
AcDbEntity
  8
1
  6
CENTER
 62
     2
100
AcDbLine
 10
-984.12635
 20
-846.998677
 30
0.0
 11
-984.12635
 21
-892.847004
 31
0.0
  0
CIRCLE
  5
14C
100
AcDbEntity
  8
1
100
AcDbCircle
 10
-960.438273
 20
-558.464852
 30
0.0
 40
231.5
  0
LINE
  5
14D
100
AcDbEntity
  8
1
100
AcDbLine
 10
251.072838
 20
-326.964852
 30
0.0
 11
251.072838
 21
-789.964852
 31
0.0
  0
LINE
  5
14E
100
AcDbEntity
  8
1
100
AcDbLine
 10
351.072838
 20
-326.964852
 30
0.0
 11
351.072838
 21
-789.964852
 31
0.0
  0
LINE
  5
14F
100
AcDbEntity
  8
1
100
AcDbLine
 10
254.472518
 20
-326.828865
 30
0.0
 11
251.072838
 21
-326.964852
 31
0.0
  0
LINE
  5
150
100
AcDbEntity
  8
1
100
AcDbLine
 10
347.673158
 20
-326.828865
 30
0.0
 11
351.072838
 21
-326.964852
 31
0.0
  0
LINE
  5
151
100
AcDbEntity
  8
1
100
AcDbLine
 10
351.072838
 20
-326.964852
 30
0.0
 11
352.072838
 21
-327.964852
 31
0.0
  0
LINE
  5
152
100
AcDbEntity
  8
1
100
AcDbLine
 10
251.072838
 20
-326.964852
 30
0.0
 11
250.072838
 21
-327.964852
 31
0.0
  0
LINE
  5
153
100
AcDbEntity
  8
1
100
AcDbLine
 10
250.072838
 20
-788.964852
 30
0.0
 11
250.072838
 21
-327.964852
 31
0.0
  0
LINE
  5
154
100
AcDbEntity
  8
1
100
AcDbLine
 10
352.072838
 20
-788.964852
 30
0.0
 11
352.072838
 21
-327.964852
 31
0.0
  0
LINE
  5
155
100
AcDbEntity
  8
1
100
AcDbLine
 10
351.072838
 20
-789.964852
 30
0.0
 11
352.072838
 21
-788.964852
 31
0.0
  0
LINE
  5
156
100
AcDbEntity
  8
1
100
AcDbLine
 10
251.072838
 20
-789.964852
 30
0.0
 11
250.072838
 21
-788.964852
 31
0.0
  0
CIRCLE
  5
157
100
AcDbEntity
  8
1
100
AcDbCircle
 10
-960.438273
 20
-558.464852
 30
0.0
 40
230.5
  0
LINE
  5
158
100
AcDbEntity
  8
1
100
AcDbLine
 10
293.572838
 20
-545.964852
 30
0.0
 11
293.572838
 21
-570.964852
 31
0.0
  0
LINE
  5
159
100
AcDbEntity
  8
1
100
AcDbLine
 10
308.572838
 20
-545.964852
 30
0.0
 11
308.572838
 21
-570.964852
 31
0.0
  0
LINE
  5
15A
100
AcDbEntity
  8
1
100
AcDbLine
 10
293.572838
 20
-545.964852
 30
0.0
 11
308.572838
 21
-545.964852
 31
0.0
  0
LINE
  5
15B
100
AcDbEntity
  8
1
100
AcDbLine
 10
293.572838
 20
-570.964852
 30
0.0
 11
308.572838
 21
-570.964852
 31
0.0
  0
LINE
  5
15C
100
AcDbEntity
  8
1
100
AcDbLine
 10
-1030.438273
 20
-175.264852
 30
0.0
 11
-890.438273
 21
-175.264852
 31
0.0
  0
LINE
  5
15D
100
AcDbEntity
  8
1
100
AcDbLine
 10
231.072838
 20
-178.464852
 30
0.0
 11
371.072838
 21
-178.464852
 31
0.0
  0
LINE
  5
15E
100
AcDbEntity
  8
1
100
AcDbLine
 10
231.072838
 20
-175.264852
 30
0.0
 11
231.072838
 21
-195.464852
 31
0.0
  0
LINE
  5
15F
100
AcDbEntity
  8
1
100
AcDbLine
 10
371.072838
 20
-175.264852
 30
0.0
 11
371.072838
 21
-195.464852
 31
0.0
  0
LINE
  5
160
100
AcDbEntity
  8
1
100
AcDbLine
 10
234.072838
 20
-198.464852
 30
0.0
 11
368.072838
 21
-198.464852
 31
0.0
  0
ARC
  5
161
100
AcDbEntity
  8
1
100
AcDbCircle
 10
234.072838
 20
-195.464852
 30
0.0
 40
3.0
100
AcDbArc
 50
180.0
 51
270.0
  0
ARC
  5
162
100
AcDbEntity
  8
1
100
AcDbCircle
 10
368.072838
 20
-195.464852
 30
0.0
 40
3.0
100
AcDbArc
 50
270.0
 51
360.0
  0
LINE
  5
163
100
AcDbEntity
  8
1
100
AcDbLine
 10
264.072838
 20
-208.464852
 30
0.0
 11
264.072838
 21
-318.601584
 31
0.0
  0
LINE
  5
164
100
AcDbEntity
  8
1
100
AcDbLine
 10
338.072838
 20
-208.464852
 30
0.0
 11
338.072838
 21
-318.601584
 31
0.0
  0
LINE
  5
165
100
AcDbEntity
  8
1
100
AcDbLine
 10
321.072838
 20
-208.464852
 30
0.0
 11
321.072838
 21
-302.577752
 31
0.0
  0
LINE
  5
166
100
AcDbEntity
  8
1
100
AcDbLine
 10
281.072838
 20
-208.464852
 30
0.0
 11
281.072838
 21
-302.577752
 31
0.0
  0
ARC
  5
167
100
AcDbEntity
  8
1
100
AcDbCircle
 10
348.072838
 20
-208.464852
 30
0.0
 40
10.0
100
AcDbArc
 50
90.0
 51
180.0
  0
ARC
  5
168
100
AcDbEntity
  8
1
100
AcDbCircle
 10
254.072838
 20
-208.464852
 30
0.0
 40
10.0
100
AcDbArc
 50
360.0
 51
90.0
  0
ARC
  5
169
100
AcDbEntity
  8
1
100
AcDbCircle
 10
271.072838
 20
-208.464852
 30
0.0
 40
10.0
100
AcDbArc
 50
0.0
 51
90.0
  0
ARC
  5
16A
100
AcDbEntity
  8
1
100
AcDbCircle
 10
331.072838
 20
-208.464852
 30
0.0
 40
10.0
100
AcDbArc
 50
90.0
 51
180.0
  0
LINE
  5
16B
100
AcDbEntity
  8
1
100
AcDbLine
 10
244.072838
 20
-213.464852
 30
0.0
 11
254.072838
 21
-213.464852
 31
0.0
  0
LINE
  5
16C
100
AcDbEntity
  8
1
100
AcDbLine
 10
348.072838
 20
-213.464852
 30
0.0
 11
358.072838
 21
-213.464852
 31
0.0
  0
ARC
  5
16D
100
AcDbEntity
  8
1
100
AcDbCircle
 10
348.072838
 20
-223.464852
 30
0.0
 40
10.0
100
AcDbArc
 50
90.0
 51
180.0
  0
ARC
  5
16E
100
AcDbEntity
  8
1
100
AcDbCircle
 10
254.072838
 20
-223.464852
 30
0.0
 40
10.0
100
AcDbArc
 50
360.0
 51
90.0
  0
LINE
  5
16F
100
AcDbEntity
  8
1
100
AcDbLine
 10
363.072838
 20
-207.464852
 30
0.0
 11
363.072838
 21
-208.464852
 31
0.0
  0
LINE
  5
170
100
AcDbEntity
  8
1
100
AcDbLine
 10
239.072838
 20
-207.464852
 30
0.0
 11
239.072838
 21
-208.464852
 31
0.0
  0
ARC
  5
171
100
AcDbEntity
  8
1
100
AcDbCircle
 10
373.072838
 20
-207.464852
 30
0.0
 40
10.0
100
AcDbArc
 50
112.619865
 51
180.0
  0
ARC
  5
172
100
AcDbEntity
  8
1
100
AcDbCircle
 10
229.072838
 20
-207.464852
 30
0.0
 40
10.0
100
AcDbArc
 50
0.0
 51
67.380135
  0
ARC
  5
173
100
AcDbEntity
  8
1
100
AcDbCircle
 10
244.072838
 20
-208.464852
 30
0.0
 40
5.0
100
AcDbArc
 50
180.0
 51
270.0
  0
ARC
  5
174
100
AcDbEntity
  8
1
100
AcDbCircle
 10
358.072838
 20
-208.464852
 30
0.0
 40
5.0
100
AcDbArc
 50
270.0
 51
0.0
  0
LINE
  5
175
100
AcDbEntity
  8
1
100
AcDbLine
 10
292.072838
 20
-203.464852
 30
0.0
 11
292.072838
 21
-218.464852
 31
0.0
  0
LINE
  5
176
100
AcDbEntity
  8
1
100
AcDbLine
 10
310.072838
 20
-203.464852
 30
0.0
 11
310.072838
 21
-218.464852
 31
0.0
  0
ARC
  5
177
100
AcDbEntity
  8
1
100
AcDbCircle
 10
315.072838
 20
-203.464852
 30
0.0
 40
5.0
100
AcDbArc
 50
90.0
 51
180.0
  0
ARC
  5
178
100
AcDbEntity
  8
1
100
AcDbCircle
 10
287.072838
 20
-203.464852
 30
0.0
 40
5.0
100
AcDbArc
 50
0.0
 51
90.0
  0
LINE
  5
179
100
AcDbEntity
  8
1
100
AcDbLine
 10
307.072838
 20
-213.464852
 30
0.0
 11
295.072838
 21
-213.464852
 31
0.0
  0
LINE
  5
17A
100
AcDbEntity
  8
1
100
AcDbLine
 10
310.072838
 20
-223.464852
 30
0.0
 11
292.072838
 21
-223.464852
 31
0.0
  0
ARC
  5
17B
100
AcDbEntity
  8
1
100
AcDbCircle
 10
315.072838
 20
-218.464852
 30
0.0
 40
5.0
100
AcDbArc
 50
180.0
 51
270.0
  0
ARC
  5
17C
100
AcDbEntity
  8
1
100
AcDbCircle
 10
287.072838
 20
-218.464852
 30
0.0
 40
5.0
100
AcDbArc
 50
270.0
 51
360.0
  0
ARC
  5
17D
100
AcDbEntity
  8
1
100
AcDbCircle
 10
307.072838
 20
-210.464852
 30
0.0
 40
3.0
100
AcDbArc
 50
270.0
 51
360.0
  0
ARC
  5
17E
100
AcDbEntity
  8
1
100
AcDbCircle
 10
295.072838
 20
-210.464852
 30
0.0
 40
3.0
100
AcDbArc
 50
180.0
 51
270.0
  0
LINE
  5
17F
100
AcDbEntity
  8
1
  6
CENTER
 62
     2
100
AcDbLine
 10
350.570313
 20
-155.699696
 30
0.0
 11
350.570313
 21
-209.472905
 31
0.0
  0
LINE
  5
180
100
AcDbEntity
  8
1
  6
CENTER
 62
     2
100
AcDbLine
 10
251.575363
 20
-155.699696
 30
0.0
 11
251.575363
 21
-209.472905
 31
0.0
  0
LINE
  5
181
100
AcDbEntity
  8
1
100
AcDbLine
 10
231.072838
 20
-175.264852
 30
0.0
 11
371.072838
 21
-175.264852
 31
0.0
  0
ARC
  5
182
100
AcDbEntity
  8
1
100
AcDbCircle
 10
254.072838
 20
-316.836855
 30
0.0
 40
10.0
100
AcDbArc
 50
272.29061
 51
360.0
  0
ARC
  5
183
100
AcDbEntity
  8
1
100
AcDbCircle
 10
348.072838
 20
-316.836855
 30
0.0
 40
10.0
100
AcDbArc
 50
180.0
 51
267.70939
  0
ARC
  5
184
100
AcDbEntity
  8
1
100
AcDbCircle
 10
254.072838
 20
-318.601584
 30
0.0
 40
10.0
100
AcDbArc
 50
272.273177
 51
360.0
  0
ARC
  5
185
100
AcDbEntity
  8
1
100
AcDbCircle
 10
348.072838
 20
-318.601584
 30
0.0
 40
10.0
100
AcDbArc
 50
180.0
 51
267.726823
  0
LINE
  5
186
100
AcDbEntity
  8
1
100
AcDbLine
 10
311.072838
 20
-329.748269
 30
0.0
 11
321.072838
 21
-330.140747
 31
0.0
  0
LINE
  5
187
100
AcDbEntity
  8
1
100
AcDbLine
 10
291.072838
 20
-329.748269
 30
0.0
 11
281.072838
 21
-330.140747
 31
0.0
  0
ARC
  5
188
100
AcDbEntity
  8
1
100
AcDbCircle
 10
331.072838
 20
-320.525526
 30
0.0
 40
10.0
100
AcDbArc
 50
196.282877
 51
267.75242
  0
ARC
  5
189
100
AcDbEntity
  8
1
100
AcDbCircle
 10
271.072838
 20
-320.525526
 30
0.0
 40
10.0
100
AcDbArc
 50
272.24758
 51
343.717123
  0
LINE
  5
18A
100
AcDbEntity
  8
1
100
AcDbLine
 10
258.572838
 20
-858.464852
 30
0.0
 11
343.572838
 21
-858.464852
 31
0.0
  0
LINE
  5
18B
100
AcDbEntity
  8
1
100
AcDbLine
 10
258.572838
 20
-794.202545
 30
0.0
 11
258.572838
 21
-869.464852
 31
0.0
  0
LINE
  5
18C
100
AcDbEntity
  8
1
100
AcDbLine
 10
343.572838
 20
-794.202545
 30
0.0
 11
343.572838
 21
-869.464852
 31
0.0
  0
ARC
  5
18D
100
AcDbEntity
  8
1
100
AcDbCircle
 10
353.572838
 20
-799.64731
 30
0.0
 40
10.0
100
AcDbArc
 50
104.477512
 51
180.0
  0
ARC
  5
18E
100
AcDbEntity
  8
1
100
AcDbCircle
 10
248.572838
 20
-799.64731
 30
0.0
 40
10.0
100
AcDbArc
 50
0.0
 51
75.522488
  0
LINE
  5
18F
100
AcDbEntity
  8
1
100
AcDbLine
 10
291.072838
 20
-786.082456
 30
0.0
 11
258.572838
 21
-784.813031
 31
0.0
  0
LINE
  5
190
100
AcDbEntity
  8
1
100
AcDbLine
 10
311.072838
 20
-786.082456
 30
0.0
 11
343.572838
 21
-784.813031
 31
0.0
  0
ARC
  5
191
100
AcDbEntity
  8
1
100
AcDbCircle
 10
353.572838
 20
-794.202545
 30
0.0
 40
10.0
100
AcDbArc
 50
104.477512
 51
180.0
  0
ARC
  5
192
100
AcDbEntity
  8
1
100
AcDbCircle
 10
248.572838
 20
-794.202545
 30
0.0
 40
10.0
100
AcDbArc
 50
0.0
 51
75.522488
  0
ARC
  5
193
100
AcDbEntity
  8
1
100
AcDbCircle
 10
340.572838
 20
-850.464852
 30
0.0
 40
3.0
100
AcDbArc
 50
270.0
 51
360.0
  0
ARC
  5
194
100
AcDbEntity
  8
1
100
AcDbCircle
 10
261.572838
 20
-850.464852
 30
0.0
 40
3.0
100
AcDbArc
 50
180.0
 51
270.0
  0
LINE
  5
195
100
AcDbEntity
  8
1
100
AcDbLine
 10
291.072838
 20
-772.229085
 30
0.0
 11
311.072838
 21
-772.229085
 31
0.0
  0
LINE
  5
196
100
AcDbEntity
  8
1
100
AcDbLine
 10
291.072838
 20
-855.4497
 30
0.0
 11
311.072838
 21
-855.4497
 31
0.0
  0
LINE
  5
197
100
AcDbEntity
  8
1
100
AcDbLine
 10
291.072838
 20
-777.229085
 30
0.0
 11
291.072838
 21
-850.4497
 31
0.0
  0
LINE
  5
198
100
AcDbEntity
  8
1
100
AcDbLine
 10
311.072838
 20
-777.229085
 30
0.0
 11
311.072838
 21
-850.4497
 31
0.0
  0
ARC
  5
199
100
AcDbEntity
  8
1
100
AcDbCircle
 10
286.072838
 20
-777.229085
 30
0.0
 40
5.0
100
AcDbArc
 50
0.0
 51
90.0
  0
ARC
  5
19A
100
AcDbEntity
  8
1
100
AcDbCircle
 10
316.072838
 20
-777.229085
 30
0.0
 40
5.0
100
AcDbArc
 50
90.0
 51
180.0
  0
ARC
  5
19B
100
AcDbEntity
  8
1
100
AcDbCircle
 10
316.072838
 20
-850.4497
 30
0.0
 40
5.0
100
AcDbArc
 50
180.0
 51
270.0
  0
ARC
  5
19C
100
AcDbEntity
  8
1
100
AcDbCircle
 10
286.072838
 20
-850.4497
 30
0.0
 40
5.0
100
AcDbArc
 50
270.0
 51
360.0
  0
LINE
  5
19D
100
AcDbEntity
  8
1
100
AcDbLine
 10
261.572838
 20
-853.464852
 30
0.0
 11
290.061429
 21
-853.464852
 31
0.0
  0
LINE
  5
19E
100
AcDbEntity
  8
1
100
AcDbLine
 10
312.084247
 20
-853.464852
 30
0.0
 11
340.572838
 21
-853.464852
 31
0.0
  0
LINE
  5
19F
100
AcDbEntity
  8
1
100
AcDbLine
 10
299.072838
 20
-840.041643
 30
0.0
 11
303.072838
 21
-840.041643
 31
0.0
  0
ARC
  5
1A0
100
AcDbEntity
  8
1
100
AcDbCircle
 10
303.072838
 20
-832.041643
 30
0.0
 40
8.0
100
AcDbArc
 50
270.0
 51
360.0
  0
ARC
  5
1A1
100
AcDbEntity
  8
1
100
AcDbCircle
 10
299.072838
 20
-832.041643
 30
0.0
 40
8.0
100
AcDbArc
 50
180.0
 51
270.0
  0
LINE
  5
1A2
100
AcDbEntity
  8
1
100
AcDbLine
 10
258.572838
 20
-788.354342
 30
0.0
 11
291.072838
 21
-788.354342
 31
0.0
  0
LINE
  5
1A3
100
AcDbEntity
  8
1
100
AcDbLine
 10
311.072838
 20
-788.354342
 30
0.0
 11
343.572838
 21
-788.354342
 31
0.0
  0
LINE
  5
1A4
100
AcDbEntity
  8
1
100
AcDbLine
 10
258.572838
 20
-820.542829
 30
0.0
 11
291.072838
 21
-820.542829
 31
0.0
  0
LINE
  5
1A5
100
AcDbEntity
  8
1
100
AcDbLine
 10
311.072838
 20
-820.542829
 30
0.0
 11
343.572838
 21
-820.542829
 31
0.0
  0
ARC
  5
1A6
100
AcDbEntity
  8
1
100
AcDbCircle
 10
271.57124
 20
-315.720495
 30
0.0
 40
51.216598
100
AcDbArc
 50
0.0
 51
14.869067
  0
ARC
  5
1A7
100
AcDbEntity
  8
1
100
AcDbCircle
 10
330.574436
 20
-315.720495
 30
0.0
 40
51.216598
100
AcDbArc
 50
165.130933
 51
180.0
  0
ARC
  5
1A8
100
AcDbEntity
  8
1
100
AcDbCircle
 10
300.099278
 20
-315.720495
 30
0.0
 40
22.68856
100
AcDbArc
 50
340.405584
 51
360.0
  0
ARC
  5
1A9
100
AcDbEntity
  8
1
100
AcDbCircle
 10
302.046398
 20
-315.720495
 30
0.0
 40
22.68856
100
AcDbArc
 50
180.0
 51
199.594416
  0
LINE
  5
1AA
100
AcDbEntity
  8
1
100
AcDbLine
 10
291.072838
 20
-265.467788
 30
0.0
 11
291.072838
 21
-339.700619
 31
0.0
  0
LINE
  5
1AB
100
AcDbEntity
  8
1
100
AcDbLine
 10
311.072838
 20
-265.467788
 30
0.0
 11
311.072838
 21
-339.700619
 31
0.0
  0
LINE
  5
1AC
100
AcDbEntity
  8
1
100
AcDbLine
 10
291.072838
 20
-260.467788
 30
0.0
 11
311.072838
 21
-260.467788
 31
0.0
  0
LINE
  5
1AD
100
AcDbEntity
  8
1
100
AcDbLine
 10
299.072838
 20
-276.888061
 30
0.0
 11
303.072838
 21
-276.888061
 31
0.0
  0
LINE
  5
1AE
100
AcDbEntity
  8
1
100
AcDbLine
 10
291.072838
 20
-344.700619
 30
0.0
 11
311.072838
 21
-344.700619
 31
0.0
  0
ARC
  5
1AF
100
AcDbEntity
  8
1
100
AcDbCircle
 10
316.072838
 20
-265.467788
 30
0.0
 40
5.0
100
AcDbArc
 50
90.0
 51
180.0
  0
ARC
  5
1B0
100
AcDbEntity
  8
1
100
AcDbCircle
 10
286.072838
 20
-265.467788
 30
0.0
 40
5.0
100
AcDbArc
 50
0.0
 51
90.0
  0
ARC
  5
1B1
100
AcDbEntity
  8
1
100
AcDbCircle
 10
316.072838
 20
-339.700619
 30
0.0
 40
5.0
100
AcDbArc
 50
180.0
 51
270.0
  0
ARC
  5
1B2
100
AcDbEntity
  8
1
100
AcDbCircle
 10
286.072838
 20
-339.700619
 30
0.0
 40
5.0
100
AcDbArc
 50
270.0
 51
360.0
  0
ARC
  5
1B3
100
AcDbEntity
  8
1
100
AcDbCircle
 10
303.072838
 20
-284.888061
 30
0.0
 40
8.0
100
AcDbArc
 50
0.0
 51
90.0
  0
ARC
  5
1B4
100
AcDbEntity
  8
1
100
AcDbCircle
 10
299.072838
 20
-284.888061
 30
0.0
 40
8.0
100
AcDbArc
 50
90.0
 51
180.0
  0
LINE
  5
1B5
100
AcDbEntity
  8
1
100
AcDbLine
 10
281.072838
 20
-302.577752
 30
0.0
 11
291.072838
 21
-302.577752
 31
0.0
  0
LINE
  5
1B6
100
AcDbEntity
  8
1
100
AcDbLine
 10
311.072838
 20
-302.577752
 30
0.0
 11
321.072838
 21
-302.577752
 31
0.0
  0
LINE
  5
1B7
100
AcDbEntity
  8
1
100
AcDbLine
 10
280.671729
 20
-323.329325
 30
0.0
 11
291.072838
 21
-323.329325
 31
0.0
  0
LINE
  5
1B8
100
AcDbEntity
  8
1
100
AcDbLine
 10
311.072838
 20
-323.329325
 30
0.0
 11
321.473947
 21
-323.329325
 31
0.0
  0
LINE
  5
1B9
100
AcDbEntity
  8
1
100
AcDbLine
 10
342.178967
 20
-329.216074
 30
0.0
 11
333.816317
 21
-330.162836
 31
0.0
  0
LINE
  5
1BA
100
AcDbEntity
  8
1
100
AcDbLine
 10
259.966709
 20
-329.216074
 30
0.0
 11
268.329359
 21
-330.162836
 31
0.0
  0
LINE
  5
1BB
100
AcDbEntity
  8
1
  6
DASHED
100
AcDbLine
 10
-918.238273
 20
771.272659
 30
0.0
 11
-1002.638273
 21
771.272659
 31
0.0
  0
LINE
  5
1BC
100
AcDbEntity
  8
1
  6
DASHED
100
AcDbLine
 10
-918.238273
 20
631.272659
 30
0.0
 11
-1002.638273
 21
631.272659
 31
0.0
  0
LINE
  5
1BD
100
AcDbEntity
  8
1
  6
DASHED
100
AcDbLine
 10
-1030.438273
 20
659.072659
 30
0.0
 11
-1030.438273
 21
743.472659
 31
0.0
  0
LINE
  5
1BE
100
AcDbEntity
  8
1
  6
DASHED
100
AcDbLine
 10
-890.438273
 20
659.072659
 30
0.0
 11
-890.438273
 21
743.472659
 31
0.0
  0
ARC
  5
1BF
100
AcDbEntity
  8
1
  6
DASHED
100
AcDbCircle
 10
-1002.638273
 20
743.472659
 30
0.0
 40
27.8
100
AcDbArc
 50
90.0
 51
180.0
  0
ARC
  5
1C0
100
AcDbEntity
  8
1
  6
DASHED
100
AcDbCircle
 10
-918.238273
 20
743.472659
 30
0.0
 40
27.8
100
AcDbArc
 50
0.0
 51
90.0
  0
ARC
  5
1C1
100
AcDbEntity
  8
1
  6
DASHED
100
AcDbCircle
 10
-918.238273
 20
659.072659
 30
0.0
 40
27.8
100
AcDbArc
 50
270.0
 51
360.0
  0
ARC
  5
1C2
100
AcDbEntity
  8
1
  6
DASHED
100
AcDbCircle
 10
-1002.638273
 20
659.072659
 30
0.0
 40
27.8
100
AcDbArc
 50
180.0
 51
270.0
  0
CIRCLE
  5
1C3
100
AcDbEntity
  8
1
  6
DASHED
100
AcDbCircle
 10
-910.940798
 20
750.770134
 30
0.0
 40
9.5
  0
CIRCLE
  5
1C4
100
AcDbEntity
  8
1
  6
DASHED
100
AcDbCircle
 10
-1009.935748
 20
750.770134
 30
0.0
 40
9.5
  0
CIRCLE
  5
1C5
100
AcDbEntity
  8
1
  6
DASHED
100
AcDbCircle
 10
-1009.935748
 20
651.775185
 30
0.0
 40
9.5
  0
CIRCLE
  5
1C6
100
AcDbEntity
  8
1
  6
DASHED
100
AcDbCircle
 10
-910.940798
 20
651.775185
 30
0.0
 40
9.5
  0
LINE
  5
1C7
100
AcDbEntity
  8
1
  6
CENTER
 62
     2
100
AcDbLine
 10
-1026.669228
 20
635.041704
 30
0.0
 11
-995.230843
 21
666.480089
 31
0.0
  0
LINE
  5
1C8
100
AcDbEntity
  8
1
  6
CENTER
 62
     2
100
AcDbLine
 10
-925.556328
 20
736.154604
 30
0.0
 11
-895.675667
 21
766.035265
 31
0.0
  0
LINE
  5
1C9
100
AcDbEntity
  8
1
  6
CENTER
 62
     2
100
AcDbLine
 10
-1025.900204
 20
766.73459
 30
0.0
 11
-996.444241
 21
737.278627
 31
0.0
  0
LINE
  5
1CA
100
AcDbEntity
  8
1
  6
CENTER
 62
     2
100
AcDbLine
 10
-924.645428
 20
665.479814
 30
0.0
 11
-895.048154
 21
635.88254
 31
0.0
  0
ARC
  5
1CB
100
AcDbEntity
  8
1
  6
CENTER
 62
     2
100
AcDbCircle
 10
-960.438273
 20
701.272659
 30
0.0
 40
70.0
100
AcDbArc
 50
28.123434
 51
60.028184
  0
ARC
  5
1CC
100
AcDbEntity
  8
1
  6
CENTER
 62
     2
100
AcDbCircle
 10
-960.438273
 20
701.272659
 30
0.0
 40
70.0
100
AcDbArc
 50
299.807974
 51
331.571114
  0
ARC
  5
1CD
100
AcDbEntity
  8
1
  6
CENTER
 62
     2
100
AcDbCircle
 10
-960.438273
 20
701.272659
 30
0.0
 40
70.0
100
AcDbArc
 50
117.699247
 51
152.790531
  0
ARC
  5
1CE
100
AcDbEntity
  8
1
  6
CENTER
 62
     2
100
AcDbCircle
 10
-960.438273
 20
701.272659
 30
0.0
 40
70.0
100
AcDbArc
 50
210.180336
 51
242.239806
  0
LINE
  5
1CF
100
AcDbEntity
  8
1
  6
DASHED
100
AcDbLine
 10
-1029.008711
 20
650.272659
 30
0.0
 11
-1190.938273
 21
650.272659
 31
0.0
  0
LINE
  5
1D0
100
AcDbEntity
  8
1
  6
DASHED
100
AcDbLine
 10
-1029.321601
 20
651.272659
 30
0.0
 11
-1191.938273
 21
651.272659
 31
0.0
  0
LINE
  5
1D1
100
AcDbEntity
  8
1
  6
DASHED
100
AcDbLine
 10
-1193.938273
 20
701.272659
 30
0.0
 11
-1191.938273
 21
651.272659
 31
0.0
  0
LINE
  5
1D2
100
AcDbEntity
  8
1
  6
DASHED
100
AcDbLine
 10
-1208.938273
 20
693.772659
 30
0.0
 11
-1208.938273
 21
708.772659
 31
0.0
  0
LINE
  5
1D3
100
AcDbEntity
  8
1
  6
DASHED
100
AcDbLine
 10
-1196.520672
 20
708.772659
 30
0.0
 11
-1208.938273
 21
708.772659
 31
0.0
  0
LINE
  5
1D4
100
AcDbEntity
  8
1
  6
DASHED
100
AcDbLine
 10
-1196.520672
 20
693.772659
 30
0.0
 11
-1208.938273
 21
693.772659
 31
0.0
  0
ARC
  5
1D5
100
AcDbEntity
  8
1
100
AcDbCircle
 10
-1196.520672
 20
690.772659
 30
0.0
 40
3.0
100
AcDbArc
 50
2.29061
 51
90.0
  0
LINE
  5
1D6
100
AcDbEntity
  8
1
  6
DASHED
100
AcDbLine
 10
-1191.938273
 20
651.272659
 30
0.0
 11
-1190.938273
 21
650.272659
 31
0.0
  0
LINE
  5
1D7
100
AcDbEntity
  8
1
  6
DASHED
100
AcDbLine
 10
-1191.938273
 20
751.272659
 30
0.0
 11
-1190.938273
 21
752.272659
 31
0.0
  0
LINE
  5
1D8
100
AcDbEntity
  8
1
  6
DASHED
100
AcDbLine
 10
-1042.438273
 20
699.272659
 30
0.0
 11
-1042.438273
 21
703.272659
 31
0.0
  0
LINE
  5
1D9
100
AcDbEntity
  8
1
  6
DASHED
100
AcDbLine
 10
-1054.390936
 20
691.272659
 30
0.0
 11
-1054.390936
 21
711.272659
 31
0.0
  0
LINE
  5
1DA
100
AcDbEntity
  8
1
  6
DASHED
100
AcDbLine
 10
-1030.438273
 20
711.272659
 30
0.0
 11
-1049.390936
 21
711.272659
 31
0.0
  0
LINE
  5
1DB
100
AcDbEntity
  8
1
  6
DASHED
100
AcDbLine
 10
-1030.438273
 20
691.272659
 30
0.0
 11
-1049.390936
 21
691.272659
 31
0.0
  0
ARC
  5
1DC
100
AcDbEntity
  8
1
  6
DASHED
100
AcDbCircle
 10
-1049.390936
 20
686.272659
 30
0.0
 40
5.0
100
AcDbArc
 50
90.0
 51
180.0
  0
ARC
  5
1DD
100
AcDbEntity
  8
1
  6
DASHED
100
AcDbCircle
 10
-1034.438273
 20
703.272659
 30
0.0
 40
8.0
100
AcDbArc
 50
90.0
 51
180.0
  0
ARC
  5
1DE
100
AcDbEntity
  8
1
  6
DASHED
100
AcDbCircle
 10
-1034.438273
 20
699.272659
 30
0.0
 40
8.0
100
AcDbArc
 50
180.0
 51
270.0
  0
LINE
  5
1DF
100
AcDbEntity
  8
1
  6
DASHED
100
AcDbLine
 10
-891.867835
 20
650.272659
 30
0.0
 11
-729.938273
 21
650.272659
 31
0.0
  0
LINE
  5
1E0
100
AcDbEntity
  8
1
  6
DASHED
100
AcDbLine
 10
-891.554945
 20
651.272659
 30
0.0
 11
-728.938273
 21
651.272659
 31
0.0
  0
LINE
  5
1E1
100
AcDbEntity
  8
1
  6
DASHED
100
AcDbLine
 10
-726.938273
 20
701.272659
 30
0.0
 11
-728.938273
 21
751.272659
 31
0.0
  0
LINE
  5
1E2
100
AcDbEntity
  8
1
  6
DASHED
100
AcDbLine
 10
-726.938273
 20
701.272659
 30
0.0
 11
-728.938273
 21
651.272659
 31
0.0
  0
LINE
  5
1E3
100
AcDbEntity
  8
1
  6
DASHED
100
AcDbLine
 10
-711.938273
 20
693.772659
 30
0.0
 11
-711.938273
 21
708.772659
 31
0.0
  0
LINE
  5
1E4
100
AcDbEntity
  8
1
  6
DASHED
100
AcDbLine
 10
-724.355874
 20
708.772659
 30
0.0
 11
-711.938273
 21
708.772659
 31
0.0
  0
LINE
  5
1E5
100
AcDbEntity
  8
1
  6
DASHED
100
AcDbLine
 10
-724.355874
 20
693.772659
 30
0.0
 11
-711.938273
 21
693.772659
 31
0.0
  0
ARC
  5
1E6
100
AcDbEntity
  8
1
  6
DASHED
100
AcDbCircle
 10
-724.355874
 20
711.772659
 30
0.0
 40
3.0
100
AcDbArc
 50
182.29061
 51
270.0
  0
ARC
  5
1E7
100
AcDbEntity
  8
1
  6
DASHED
100
AcDbCircle
 10
-724.355874
 20
690.772659
 30
0.0
 40
3.0
100
AcDbArc
 50
90.0
 51
177.70939
  0
LINE
  5
1E8
100
AcDbEntity
  8
1
  6
DASHED
100
AcDbLine
 10
-728.938273
 20
651.272659
 30
0.0
 11
-729.938273
 21
650.272659
 31
0.0
  0
LINE
  5
1E9
100
AcDbEntity
  8
1
  6
DASHED
100
AcDbLine
 10
-728.938273
 20
751.272659
 30
0.0
 11
-729.938273
 21
752.272659
 31
0.0
  0
LINE
  5
1EA
100
AcDbEntity
  8
1
  6
DASHED
100
AcDbLine
 10
-878.438273
 20
699.272659
 30
0.0
 11
-878.438273
 21
703.272659
 31
0.0
  0
LINE
  5
1EB
100
AcDbEntity
  8
1
  6
DASHED
100
AcDbLine
 10
-866.48561
 20
691.272659
 30
0.0
 11
-866.48561
 21
711.272659
 31
0.0
  0
LINE
  5
1EC
100
AcDbEntity
  8
1
  6
DASHED
100
AcDbLine
 10
-890.438273
 20
711.272659
 30
0.0
 11
-871.48561
 21
711.272659
 31
0.0
  0
LINE
  5
1ED
100
AcDbEntity
  8
1
  6
DASHED
100
AcDbLine
 10
-890.438273
 20
691.272659
 30
0.0
 11
-871.48561
 21
691.272659
 31
0.0
  0
ARC
  5
1EE
100
AcDbEntity
  8
1
  6
DASHED
100
AcDbCircle
 10
-871.48561
 20
686.272659
 30
0.0
 40
5.0
100
AcDbArc
 50
0.0
 51
90.0
  0
ARC
  5
1EF
100
AcDbEntity
  8
1
  6
DASHED
100
AcDbCircle
 10
-886.438273
 20
703.272659
 30
0.0
 40
8.0
100
AcDbArc
 50
0.0
 51
90.0
  0
ARC
  5
1F0
100
AcDbEntity
  8
1
  6
DASHED
100
AcDbCircle
 10
-886.438273
 20
699.272659
 30
0.0
 40
8.0
100
AcDbArc
 50
270.0
 51
360.0
  0
CIRCLE
  5
1F1
100
AcDbEntity
  8
1
100
AcDbCircle
 10
-960.438273
 20
-558.464852
 30
0.0
 40
204.0
  0
CIRCLE
  5
1F2
100
AcDbEntity
  8
1
100
AcDbCircle
 10
-960.438273
 20
-558.464852
 30
0.0
 40
197.05
  0
LINE
  5
1F3
100
AcDbEntity
  8
1
100
AcDbLine
 10
-930.438273
 20
-367.253967
 30
0.0
 11
-990.438273
 21
-367.253967
 31
0.0
  0
LINE
  5
1F4
100
AcDbEntity
  8
1
100
AcDbLine
 10
-930.438273
 20
-749.675737
 30
0.0
 11
-990.438273
 21
-749.675737
 31
0.0
  0
ARC
  5
1F5
100
AcDbEntity
  8
1
100
AcDbCircle
 10
-960.438273
 20
-558.464852
 30
0.0
 40
193.55
100
AcDbArc
 50
98.916721
 51
261.083279
  0
ARC
  5
1F6
100
AcDbEntity
  8
1
100
AcDbCircle
 10
-960.438273
 20
-558.464852
 30
0.0
 40
193.55
100
AcDbArc
 50
278.916721
 51
81.083279
  0
LINE
  5
1F7
100
AcDbEntity
  8
1
100
AcDbLine
 10
-1002.938273
 20
-859.464852
 30
0.0
 11
-917.938273
 21
-859.464852
 31
0.0
  0
LINE
  5
1F8
100
AcDbEntity
  8
1
100
AcDbLine
 10
-976.857508
 20
-871.464852
 30
0.0
 11
-944.019038
 21
-871.464852
 31
0.0
  0
LINE
  5
1F9
100
AcDbEntity
  8
1
100
AcDbLine
 10
-996.242285
 20
-879.464852
 30
0.0
 11
-924.634261
 21
-879.464852
 31
0.0
  0
ARC
  5
1FA
100
AcDbEntity
  8
1
100
AcDbCircle
 10
-919.938273
 20
-869.464852
 30
0.0
 40
2.0
100
AcDbArc
 50
270.0
 51
360.0
  0
ARC
  5
1FB
100
AcDbEntity
  8
1
100
AcDbCircle
 10
-1000.938273
 20
-869.464852
 30
0.0
 40
2.0
100
AcDbArc
 50
180.0
 51
270.0
  0
LINE
  5
1FC
100
AcDbEntity
  8
1
100
AcDbLine
 10
-922.634261
 20
-877.464852
 30
0.0
 11
-922.634261
 21
-874.455601
 31
0.0
  0
LINE
  5
1FD
100
AcDbEntity
  8
1
100
AcDbLine
 10
-941.019038
 20
-877.464852
 30
0.0
 11
-941.019038
 21
-874.464852
 31
0.0
  0
LINE
  5
1FE
100
AcDbEntity
  8
1
100
AcDbLine
 10
-979.857508
 20
-877.464852
 30
0.0
 11
-979.857508
 21
-874.464852
 31
0.0
  0
LINE
  5
1FF
100
AcDbEntity
  8
1
100
AcDbLine
 10
-998.242285
 20
-877.464852
 30
0.0
 11
-998.242285
 21
-874.455601
 31
0.0
  0
ARC
  5
200
100
AcDbEntity
  8
1
100
AcDbCircle
 10
-924.634261
 20
-877.464852
 30
0.0
 40
2.0
100
AcDbArc
 50
270.0
 51
360.0
  0
ARC
  5
201
100
AcDbEntity
  8
1
100
AcDbCircle
 10
-996.242285
 20
-877.464852
 30
0.0
 40
2.0
100
AcDbArc
 50
180.0
 51
270.0
  0
ARC
  5
202
100
AcDbEntity
  8
1
100
AcDbCircle
 10
-939.019038
 20
-877.464852
 30
0.0
 40
2.0
100
AcDbArc
 50
180.0
 51
270.0
  0
ARC
  5
203
100
AcDbEntity
  8
1
100
AcDbCircle
 10
-981.857508
 20
-877.464852
 30
0.0
 40
2.0
100
AcDbArc
 50
270.0
 51
360.0
  0
ARC
  5
204
100
AcDbEntity
  8
1
100
AcDbCircle
 10
-944.019038
 20
-874.464852
 30
0.0
 40
3.0
100
AcDbArc
 50
0.0
 51
90.0
  0
ARC
  5
205
100
AcDbEntity
  8
1
100
AcDbCircle
 10
-976.857508
 20
-874.464852
 30
0.0
 40
3.0
100
AcDbArc
 50
90.0
 51
180.0
  0
ARC
  5
206
100
AcDbEntity
  8
1
100
AcDbCircle
 10
-919.634261
 20
-874.455601
 30
0.0
 40
3.0
100
AcDbArc
 50
93.485867
 51
180.0
  0
ARC
  5
207
100
AcDbEntity
  8
1
100
AcDbCircle
 10
-1001.242285
 20
-874.455601
 30
0.0
 40
3.0
100
AcDbArc
 50
0.0
 51
86.514133
  0
LINE
  5
208
100
AcDbEntity
  8
1
100
AcDbLine
 10
-929.250196
 20
-881.464852
 30
0.0
 11
-929.250196
 21
-886.243164
 31
0.0
  0
LINE
  5
209
100
AcDbEntity
  8
1
100
AcDbLine
 10
-929.250196
 20
-886.243164
 30
0.0
 11
-930.500196
 21
-886.964852
 31
0.0
  0
LINE
  5
20A
100
AcDbEntity
  8
1
100
AcDbLine
 10
-930.500196
 20
-886.964852
 30
0.0
 11
-943.000196
 21
-886.964852
 31
0.0
  0
LINE
  5
20B
100
AcDbEntity
  8
1
100
AcDbLine
 10
-933.000196
 20
-881.464852
 30
0.0
 11
-933.000196
 21
-886.243164
 31
0.0
  0
ARC
  5
20C
100
AcDbEntity
  8
1
100
AcDbCircle
 10
-931.125196
 20
-883.832788
 30
0.0
 40
3.053774
100
AcDbArc
 50
232.121121
 51
307.878879
  0
LINE
  5
20D
100
AcDbEntity
  8
1
100
AcDbLine
 10
-944.250196
 20
-881.464852
 30
0.0
 11
-944.250196
 21
-886.243164
 31
0.0
  0
LINE
  5
20E
100
AcDbEntity
  8
1
100
AcDbLine
 10
-944.250196
 20
-886.243164
 30
0.0
 11
-943.000196
 21
-886.964852
 31
0.0
  0
LINE
  5
20F
100
AcDbEntity
  8
1
100
AcDbLine
 10
-940.500196
 20
-881.464852
 30
0.0
 11
-940.500196
 21
-886.243164
 31
0.0
  0
ARC
  5
210
100
AcDbEntity
  8
1
100
AcDbCircle
 10
-942.375196
 20
-883.832788
 30
0.0
 40
3.053774
100
AcDbArc
 50
232.121121
 51
307.878879
  0
ARC
  5
211
100
AcDbEntity
  8
1
100
AcDbCircle
 10
-936.750196
 20
-875.636562
 30
0.0
 40
11.25
100
AcDbArc
 50
250.528777
 51
289.471219
  0
LINE
  5
212
100
AcDbEntity
  8
1
100
AcDbLine
 10
-929.050196
 20
-879.464852
 30
0.0
 11
-929.050196
 21
-881.464852
 31
0.0
  0
LINE
  5
213
100
AcDbEntity
  8
1
100
AcDbLine
 10
-929.050196
 20
-881.464852
 30
0.0
 11
-944.450196
 21
-881.464852
 31
0.0
  0
LINE
  5
214
100
AcDbEntity
  8
1
100
AcDbLine
 10
-944.450196
 20
-881.464852
 30
0.0
 11
-944.450196
 21
-879.464852
 31
0.0
  0
LINE
  5
215
100
AcDbEntity
  8
1
100
AcDbLine
 10
-936.750196
 20
-881.464852
 30
0.0
 11
-937.250196
 21
-879.464852
 31
0.0
  0
LINE
  5
216
100
AcDbEntity
  8
1
100
AcDbLine
 10
-936.750196
 20
-879.464852
 30
0.0
 11
-936.250196
 21
-881.464852
 31
0.0
  0
LINE
  5
217
100
AcDbEntity
  8
1
100
AcDbLine
 10
-976.62635
 20
-881.464852
 30
0.0
 11
-976.62635
 21
-886.243164
 31
0.0
  0
LINE
  5
218
100
AcDbEntity
  8
1
100
AcDbLine
 10
-976.62635
 20
-886.243164
 30
0.0
 11
-977.87635
 21
-886.964852
 31
0.0
  0
LINE
  5
219
100
AcDbEntity
  8
1
100
AcDbLine
 10
-977.87635
 20
-886.964852
 30
0.0
 11
-990.37635
 21
-886.964852
 31
0.0
  0
LINE
  5
21A
100
AcDbEntity
  8
1
100
AcDbLine
 10
-980.37635
 20
-881.464852
 30
0.0
 11
-980.37635
 21
-886.243164
 31
0.0
  0
ARC
  5
21B
100
AcDbEntity
  8
1
100
AcDbCircle
 10
-978.50135
 20
-883.832788
 30
0.0
 40
3.053774
100
AcDbArc
 50
232.121121
 51
307.878879
  0
LINE
  5
21C
100
AcDbEntity
  8
1
100
AcDbLine
 10
-991.62635
 20
-881.464852
 30
0.0
 11
-991.62635
 21
-886.243164
 31
0.0
  0
LINE
  5
21D
100
AcDbEntity
  8
1
100
AcDbLine
 10
-991.62635
 20
-886.243164
 30
0.0
 11
-990.37635
 21
-886.964852
 31
0.0
  0
LINE
  5
21E
100
AcDbEntity
  8
1
100
AcDbLine
 10
-987.87635
 20
-881.464852
 30
0.0
 11
-987.87635
 21
-886.243164
 31
0.0
  0
ARC
  5
21F
100
AcDbEntity
  8
1
100
AcDbCircle
 10
-989.75135
 20
-883.832788
 30
0.0
 40
3.053774
100
AcDbArc
 50
232.121121
 51
307.878879
  0
ARC
  5
220
100
AcDbEntity
  8
1
100
AcDbCircle
 10
-984.12635
 20
-875.636562
 30
0.0
 40
11.25
100
AcDbArc
 50
250.528777
 51
289.471219
  0
LINE
  5
221
100
AcDbEntity
  8
1
100
AcDbLine
 10
-976.42635
 20
-879.464852
 30
0.0
 11
-976.42635
 21
-881.464852
 31
0.0
  0
LINE
  5
222
100
AcDbEntity
  8
1
100
AcDbLine
 10
-976.42635
 20
-881.464852
 30
0.0
 11
-991.82635
 21
-881.464852
 31
0.0
  0
LINE
  5
223
100
AcDbEntity
  8
1
100
AcDbLine
 10
-991.82635
 20
-881.464852
 30
0.0
 11
-991.82635
 21
-879.464852
 31
0.0
  0
LINE
  5
224
100
AcDbEntity
  8
1
100
AcDbLine
 10
-984.12635
 20
-881.464852
 30
0.0
 11
-984.62635
 21
-879.464852
 31
0.0
  0
LINE
  5
225
100
AcDbEntity
  8
1
100
AcDbLine
 10
-984.12635
 20
-879.464852
 30
0.0
 11
-983.62635
 21
-881.464852
 31
0.0
  0
LINE
  5
226
100
AcDbEntity
  8
1
100
AcDbLine
 10
-943.138273
 20
-886.885133
 30
0.0
 11
-943.138273
 21
-889.848271
 31
0.0
  0
LINE
  5
227
100
AcDbEntity
  8
1
100
AcDbLine
 10
-943.138273
 20
-889.848271
 30
0.0
 11
-945.938273
 21
-891.464852
 31
0.0
  0
LINE
  5
228
100
AcDbEntity
  8
1
100
AcDbLine
 10
-951.788273
 20
-881.081433
 30
0.0
 11
-951.788273
 21
-889.848271
 31
0.0
  0
ARC
  5
229
100
AcDbEntity
  8
1
100
AcDbCircle
 10
-947.463273
 20
-884.288337
 30
0.0
 40
7.04404
100
AcDbArc
 50
232.121121
 51
307.878879
  0
ARC
  5
22A
100
AcDbEntity
  8
1
100
AcDbCircle
 10
-960.438273
 20
-865.382377
 30
0.0
 40
25.95
100
AcDbArc
 50
250.528777
 51
289.471219
  0
LINE
  5
22B
100
AcDbEntity
  8
1
100
AcDbLine
 10
-977.738273
 20
-886.885133
 30
0.0
 11
-977.738273
 21
-889.848271
 31
0.0
  0
LINE
  5
22C
100
AcDbEntity
  8
1
100
AcDbLine
 10
-977.738273
 20
-889.848271
 30
0.0
 11
-974.938273
 21
-891.464852
 31
0.0
  0
LINE
  5
22D
100
AcDbEntity
  8
1
100
AcDbLine
 10
-974.938273
 20
-891.464852
 30
0.0
 11
-945.938273
 21
-891.464852
 31
0.0
  0
LINE
  5
22E
100
AcDbEntity
  8
1
100
AcDbLine
 10
-969.088273
 20
-881.081433
 30
0.0
 11
-969.088273
 21
-889.848271
 31
0.0
  0
ARC
  5
22F
100
AcDbEntity
  8
1
100
AcDbCircle
 10
-973.413273
 20
-884.288337
 30
0.0
 40
7.04404
100
AcDbArc
 50
232.121121
 51
307.878879
  0
ARC
  5
230
100
AcDbEntity
  8
1
100
AcDbCircle
 10
-960.438273
 20
-905.547327
 30
0.0
 40
25.95
100
AcDbArc
 50
70.528781
 51
109.471223
  0
LINE
  5
231
100
AcDbEntity
  8
1
100
AcDbLine
 10
-944.450196
 20
-880.323994
 30
0.0
 11
-945.938273
 21
-879.464852
 31
0.0
  0
ARC
  5
232
100
AcDbEntity
  8
1
100
AcDbCircle
 10
-947.463273
 20
-886.641367
 30
0.0
 40
7.04404
100
AcDbArc
 50
64.675243
 51
127.878879
  0
LINE
  5
233
100
AcDbEntity
  8
1
100
AcDbLine
 10
-976.42635
 20
-880.323994
 30
0.0
 11
-974.938273
 21
-879.464852
 31
0.0
  0
ARC
  5
234
100
AcDbEntity
  8
1
100
AcDbCircle
 10
-973.413273
 20
-886.641367
 30
0.0
 40
7.04404
100
AcDbArc
 50
52.121121
 51
115.324757
  0
LINE
  5
235
100
AcDbEntity
  8
1
  6
CENTER
 62
     2
100
AcDbLine
 10
324.760915
 20
-846.998677
 30
0.0
 11
324.760915
 21
-892.847004
 31
0.0
  0
LINE
  5
236
100
AcDbEntity
  8
1
  6
CENTER
 62
     2
100
AcDbLine
 10
277.384761
 20
-846.998677
 30
0.0
 11
277.384761
 21
-892.847004
 31
0.0
  0
LINE
  5
237
100
AcDbEntity
  8
1
100
AcDbLine
 10
258.572838
 20
-859.464852
 30
0.0
 11
343.572838
 21
-859.464852
 31
0.0
  0
LINE
  5
238
100
AcDbEntity
  8
1
100
AcDbLine
 10
284.653603
 20
-871.464852
 30
0.0
 11
317.492073
 21
-871.464852
 31
0.0
  0
LINE
  5
239
100
AcDbEntity
  8
1
100
AcDbLine
 10
265.268826
 20
-879.464852
 30
0.0
 11
336.87685
 21
-879.464852
 31
0.0
  0
ARC
  5
23A
100
AcDbEntity
  8
1
100
AcDbCircle
 10
341.572838
 20
-869.464852
 30
0.0
 40
2.0
100
AcDbArc
 50
270.0
 51
360.0
  0
ARC
  5
23B
100
AcDbEntity
  8
1
100
AcDbCircle
 10
260.572838
 20
-869.464852
 30
0.0
 40
2.0
100
AcDbArc
 50
180.0
 51
270.0
  0
LINE
  5
23C
100
AcDbEntity
  8
1
100
AcDbLine
 10
338.87685
 20
-877.464852
 30
0.0
 11
338.87685
 21
-874.455601
 31
0.0
  0
LINE
  5
23D
100
AcDbEntity
  8
1
100
AcDbLine
 10
320.492073
 20
-877.464852
 30
0.0
 11
320.492073
 21
-874.464852
 31
0.0
  0
LINE
  5
23E
100
AcDbEntity
  8
1
100
AcDbLine
 10
281.653603
 20
-877.464852
 30
0.0
 11
281.653603
 21
-874.464852
 31
0.0
  0
LINE
  5
23F
100
AcDbEntity
  8
1
100
AcDbLine
 10
263.268826
 20
-877.464852
 30
0.0
 11
263.268826
 21
-874.455601
 31
0.0
  0
ARC
  5
240
100
AcDbEntity
  8
1
100
AcDbCircle
 10
336.87685
 20
-877.464852
 30
0.0
 40
2.0
100
AcDbArc
 50
270.0
 51
360.0
  0
ARC
  5
241
100
AcDbEntity
  8
1
100
AcDbCircle
 10
265.268826
 20
-877.464852
 30
0.0
 40
2.0
100
AcDbArc
 50
180.0
 51
270.0
  0
ARC
  5
242
100
AcDbEntity
  8
1
100
AcDbCircle
 10
322.492073
 20
-877.464852
 30
0.0
 40
2.0
100
AcDbArc
 50
180.0
 51
270.0
  0
ARC
  5
243
100
AcDbEntity
  8
1
100
AcDbCircle
 10
279.653603
 20
-877.464852
 30
0.0
 40
2.0
100
AcDbArc
 50
270.0
 51
360.0
  0
ARC
  5
244
100
AcDbEntity
  8
1
100
AcDbCircle
 10
317.492073
 20
-874.464852
 30
0.0
 40
3.0
100
AcDbArc
 50
0.0
 51
90.0
  0
ARC
  5
245
100
AcDbEntity
  8
1
100
AcDbCircle
 10
284.653603
 20
-874.464852
 30
0.0
 40
3.0
100
AcDbArc
 50
90.0
 51
180.0
  0
ARC
  5
246
100
AcDbEntity
  8
1
100
AcDbCircle
 10
341.87685
 20
-874.455601
 30
0.0
 40
3.0
100
AcDbArc
 50
93.485867
 51
180.0
  0
ARC
  5
247
100
AcDbEntity
  8
1
100
AcDbCircle
 10
260.268826
 20
-874.455601
 30
0.0
 40
3.0
100
AcDbArc
 50
0.0
 51
86.514133
  0
LINE
  5
248
100
AcDbEntity
  8
1
100
AcDbLine
 10
332.460915
 20
-879.464852
 30
0.0
 11
332.460915
 21
-881.464852
 31
0.0
  0
LINE
  5
249
100
AcDbEntity
  8
1
100
AcDbLine
 10
332.460915
 20
-881.464852
 30
0.0
 11
317.060915
 21
-881.464852
 31
0.0
  0
LINE
  5
24A
100
AcDbEntity
  8
1
100
AcDbLine
 10
317.060915
 20
-881.464852
 30
0.0
 11
317.060915
 21
-879.464852
 31
0.0
  0
LINE
  5
24B
100
AcDbEntity
  8
1
100
AcDbLine
 10
285.084761
 20
-879.464852
 30
0.0
 11
285.084761
 21
-881.464852
 31
0.0
  0
LINE
  5
24C
100
AcDbEntity
  8
1
100
AcDbLine
 10
285.084761
 20
-881.464852
 30
0.0
 11
269.684761
 21
-881.464852
 31
0.0
  0
LINE
  5
24D
100
AcDbEntity
  8
1
100
AcDbLine
 10
269.684761
 20
-881.464852
 30
0.0
 11
269.684761
 21
-879.464852
 31
0.0
  0
LINE
  5
24E
100
AcDbEntity
  8
1
  6
DASHED
100
AcDbLine
 10
-1179.988273
 20
753.872659
 30
0.0
 11
-1146.438273
 21
753.872659
 31
0.0
  0
LINE
  5
24F
100
AcDbEntity
  8
1
100
AcDbLine
 10
-1146.438273
 20
753.872659
 30
0.0
 11
-1028.419662
 21
753.872659
 31
0.0
  0
LINE
  5
250
100
AcDbEntity
  8
1
100
AcDbLine
 10
-1029.008711
 20
752.272659
 30
0.0
 11
-1146.438273
 21
752.272659
 31
0.0
  0
LINE
  5
251
100
AcDbEntity
  8
1
  6
DASHED
100
AcDbLine
 10
-1146.438273
 20
752.272659
 30
0.0
 11
-1190.938273
 21
752.272659
 31
0.0
  0
LINE
  5
252
100
AcDbEntity
  8
1
100
AcDbLine
 10
-1029.321601
 20
751.272659
 30
0.0
 11
-1146.438273
 21
751.272659
 31
0.0
  0
LINE
  5
253
100
AcDbEntity
  8
1
  6
DASHED
100
AcDbLine
 10
-1146.438273
 20
751.272659
 30
0.0
 11
-1191.938273
 21
751.272659
 31
0.0
  0
LINE
  5
254
100
AcDbEntity
  8
1
  6
DASHED
100
AcDbLine
 10
-1192.818273
 20
729.272659
 30
0.0
 11
-1191.938273
 21
751.272659
 31
0.0
  0
LINE
  5
255
100
AcDbEntity
  8
1
  6
DASHED
100
AcDbLine
 10
-1193.938273
 20
701.272659
 30
0.0
 11
-1193.618273
 21
709.272659
 31
0.0
  0
LINE
  5
256
100
AcDbEntity
  8
1
100
AcDbLine
 10
-1193.618273
 20
709.272659
 30
0.0
 11
-1192.818273
 21
729.272659
 31
0.0
  0
ARC
  5
257
100
AcDbEntity
  8
1
  6
DASHED
100
AcDbCircle
 10
-1196.520672
 20
711.772659
 30
0.0
 40
3.0
100
AcDbArc
 50
270.0
 51
303.55731
  0
ARC
  5
258
100
AcDbEntity
  8
1
100
AcDbCircle
 10
-1196.520672
 20
711.772659
 30
0.0
 40
3.0
100
AcDbArc
 50
303.55731
 51
357.70939
  0
ARC
  5
259
100
AcDbEntity
  8
1
100
AcDbCircle
 10
-1049.390936
 20
716.272659
 30
0.0
 40
5.0
100
AcDbArc
 50
180.0
 51
194.130306
  0
ARC
  5
25A
100
AcDbEntity
  8
1
  6
DASHED
100
AcDbCircle
 10
-1049.390936
 20
716.272659
 30
0.0
 40
5.0
100
AcDbArc
 50
194.130306
 51
270.0
  0
LINE
  5
25B
100
AcDbEntity
  8
1
100
AcDbLine
 10
-892.456884
 20
753.872659
 30
0.0
 11
-848.438273
 21
753.872659
 31
0.0
  0
LINE
  5
25C
100
AcDbEntity
  8
1
  6
DASHED
100
AcDbLine
 10
-848.438273
 20
753.872659
 30
0.0
 11
-740.888273
 21
753.872659
 31
0.0
  0
LINE
  5
25D
100
AcDbEntity
  8
1
100
AcDbLine
 10
-891.867835
 20
752.272659
 30
0.0
 11
-848.438273
 21
752.272659
 31
0.0
  0
LINE
  5
25E
100
AcDbEntity
  8
1
  6
DASHED
100
AcDbLine
 10
-848.438273
 20
752.272659
 30
0.0
 11
-729.938273
 21
752.272659
 31
0.0
  0
LINE
  5
25F
100
AcDbEntity
  8
1
100
AcDbLine
 10
-891.554945
 20
751.272659
 30
0.0
 11
-848.438273
 21
751.272659
 31
0.0
  0
LINE
  5
260
100
AcDbEntity
  8
1
  6
DASHED
100
AcDbLine
 10
-848.438273
 20
751.272659
 30
0.0
 11
-728.938273
 21
751.272659
 31
0.0
  0
ARC
  5
261
100
AcDbEntity
  8
1
100
AcDbCircle
 10
-871.48561
 20
716.272659
 30
0.0
 40
5.0
100
AcDbArc
 50
270.0
 51
345.869694
  0
ARC
  5
262
100
AcDbEntity
  8
1
100
AcDbCircle
 10
-871.48561
 20
716.272659
 30
0.0
 40
5.0
100
AcDbArc
 50
345.869694
 51
360.0
  0
LINE
  5
263
100
AcDbEntity
  8
2
100
AcDbLine
 10
-848.438273
 20
87.735148
 30
0.0
 11
-852.438273
 21
87.735148
 31
0.0
  0
LINE
  5
264
100
AcDbEntity
  8
2
100
AcDbLine
 10
-1068.438273
 20
87.735148
 30
0.0
 11
-1072.438273
 21
87.735148
 31
0.0
  0
ARC
  5
265
100
AcDbEntity
  8
2
100
AcDbCircle
 10
-877.438273
 20
84.735148
 30
0.0
 40
3.0
100
AcDbArc
 50
112.024313
 51
180.0
  0
ARC
  5
266
100
AcDbEntity
  8
2
100
AcDbCircle
 10
-1043.438273
 20
84.735148
 30
0.0
 40
3.0
100
AcDbArc
 50
0.0
 51
67.975687
  0
LINE
  5
267
100
AcDbEntity
  8
2
100
AcDbLine
 10
-886.438273
 20
77.735148
 30
0.0
 11
-1034.438273
 21
77.735148
 31
0.0
  0
ARC
  5
268
100
AcDbEntity
  8
2
100
AcDbCircle
 10
-1034.438273
 20
83.735148
 30
0.0
 40
6.0
100
AcDbArc
 50
180.0
 51
270.0
  0
ARC
  5
269
100
AcDbEntity
  8
2
100
AcDbCircle
 10
-886.438273
 20
83.735148
 30
0.0
 40
6.0
100
AcDbArc
 50
270.0
 51
360.0
  0
LINE
  5
26A
100
AcDbEntity
  8
2
100
AcDbLine
 10
-923.438273
 20
96.735148
 30
0.0
 11
-997.438273
 21
96.735148
 31
0.0
  0
LINE
  5
26B
100
AcDbEntity
  8
2
100
AcDbLine
 10
-997.438273
 20
96.735148
 30
0.0
 11
-998.872811
 21
83.107039
 31
0.0
  0
LINE
  5
26C
100
AcDbEntity
  8
2
100
AcDbLine
 10
-923.438273
 20
96.735148
 30
0.0
 11
-922.003735
 21
83.107039
 31
0.0
  0
ARC
  5
26D
100
AcDbEntity
  8
2
100
AcDbCircle
 10
-1004.839844
 20
83.735148
 30
0.0
 40
6.0
100
AcDbArc
 50
270.0
 51
353.990994
  0
ARC
  5
26E
100
AcDbEntity
  8
2
100
AcDbCircle
 10
-916.036703
 20
83.735148
 30
0.0
 40
6.0
100
AcDbArc
 50
186.009006
 51
270.0
  0
LINE
  5
26F
100
AcDbEntity
  8
2
100
AcDbLine
 10
-1045.438273
 20
100.735148
 30
0.0
 11
-1063.438273
 21
100.735148
 31
0.0
  0
LINE
  5
270
100
AcDbEntity
  8
2
100
AcDbLine
 10
-1045.438273
 20
100.735148
 30
0.0
 11
-1045.438273
 21
92.151347
 31
0.0
  0
LINE
  5
271
100
AcDbEntity
  8
2
100
AcDbLine
 10
-1063.438273
 20
100.735148
 30
0.0
 11
-1063.438273
 21
92.735148
 31
0.0
  0
ARC
  5
272
100
AcDbEntity
  8
2
100
AcDbCircle
 10
-1068.438273
 20
92.735148
 30
0.0
 40
5.0
100
AcDbArc
 50
270.0
 51
360.0
  0
ARC
  5
273
100
AcDbEntity
  8
2
100
AcDbCircle
 10
-1040.438273
 20
92.151347
 30
0.0
 40
5.0
100
AcDbArc
 50
180.0
 51
247.975687
  0
LINE
  5
274
100
AcDbEntity
  8
2
100
AcDbLine
 10
-875.438273
 20
100.735148
 30
0.0
 11
-857.438273
 21
100.735148
 31
0.0
  0
LINE
  5
275
100
AcDbEntity
  8
2
100
AcDbLine
 10
-875.438273
 20
100.735148
 30
0.0
 11
-875.438273
 21
92.151347
 31
0.0
  0
LINE
  5
276
100
AcDbEntity
  8
2
100
AcDbLine
 10
-857.438273
 20
100.735148
 30
0.0
 11
-857.438273
 21
92.735148
 31
0.0
  0
ARC
  5
277
100
AcDbEntity
  8
2
100
AcDbCircle
 10
-852.438273
 20
92.735148
 30
0.0
 40
5.0
100
AcDbArc
 50
180.0
 51
270.0
  0
ARC
  5
278
100
AcDbEntity
  8
2
100
AcDbCircle
 10
-880.438273
 20
92.151347
 30
0.0
 40
5.0
100
AcDbArc
 50
292.024313
 51
360.0
  0
LINE
  5
279
100
AcDbEntity
  8
2
100
AcDbLine
 10
-890.438273
 20
-145.264852
 30
0.0
 11
-1030.438273
 21
-145.264852
 31
0.0
  0
LINE
  5
27A
100
AcDbEntity
  8
2
100
AcDbLine
 10
-890.438273
 20
-145.264852
 30
0.0
 11
-890.438273
 21
-80.264852
 31
0.0
  0
LINE
  5
27B
100
AcDbEntity
  8
2
100
AcDbLine
 10
-1030.438273
 20
-145.264852
 30
0.0
 11
-1030.438273
 21
-80.264852
 31
0.0
  0
LINE
  5
27C
100
AcDbEntity
  8
2
100
AcDbLine
 10
-848.438273
 20
-72.264852
 30
0.0
 11
-1072.438273
 21
-72.264852
 31
0.0
  0
ARC
  5
27D
100
AcDbEntity
  8
2
100
AcDbCircle
 10
-1038.438273
 20
-80.264852
 30
0.0
 40
8.0
100
AcDbArc
 50
0.0
 51
90.0
  0
ARC
  5
27E
100
AcDbEntity
  8
2
100
AcDbCircle
 10
-882.438273
 20
-80.264852
 30
0.0
 40
8.0
100
AcDbArc
 50
90.0
 51
180.0
  0
LINE
  5
27F
100
AcDbEntity
  8
2
100
AcDbLine
 10
-943.46771
 20
162.735148
 30
0.0
 11
-977.408836
 21
162.735148
 31
0.0
  0
LINE
  5
280
100
AcDbEntity
  8
2
100
AcDbLine
 10
-937.938273
 20
107.735148
 30
0.0
 11
-937.938273
 21
109.735148
 31
0.0
  0
LINE
  5
281
100
AcDbEntity
  8
2
100
AcDbLine
 10
-982.938273
 20
107.735148
 30
0.0
 11
-982.938273
 21
109.735148
 31
0.0
  0
LINE
  5
282
100
AcDbEntity
  8
2
100
AcDbLine
 10
-937.938273
 20
109.735148
 30
0.0
 11
-982.938273
 21
109.735148
 31
0.0
  0
LINE
  5
283
100
AcDbEntity
  8
2
100
AcDbLine
 10
-937.938273
 20
109.735148
 30
0.0
 11
-938.742121
 21
112.735148
 31
0.0
  0
LINE
  5
284
100
AcDbEntity
  8
2
100
AcDbLine
 10
-982.938273
 20
109.735148
 30
0.0
 11
-982.134426
 21
112.735148
 31
0.0
  0
LINE
  5
285
100
AcDbEntity
  8
2
100
AcDbLine
 10
-960.827253
 20
161.735148
 30
0.0
 11
-960.827253
 21
117.535148
 31
0.0
  0
LINE
  5
286
100
AcDbEntity
  8
2
100
AcDbLine
 10
-960.049293
 20
161.735148
 30
0.0
 11
-960.049293
 21
117.535148
 31
0.0
  0
LINE
  5
287
100
AcDbEntity
  8
2
100
AcDbLine
 10
-942.438273
 20
117.535148
 30
0.0
 11
-942.438273
 21
161.735148
 31
0.0
  0
LINE
  5
288
100
AcDbEntity
  8
2
100
AcDbLine
 10
-978.438273
 20
117.535148
 30
0.0
 11
-978.438273
 21
161.735148
 31
0.0
  0
LINE
  5
289
100
AcDbEntity
  8
2
100
AcDbLine
 10
-978.438273
 20
161.735148
 30
0.0
 11
-942.438273
 21
161.735148
 31
0.0
  0
LINE
  5
28A
100
AcDbEntity
  8
2
100
AcDbLine
 10
-960.827253
 20
161.735148
 30
0.0
 11
-960.438273
 21
162.735148
 31
0.0
  0
LINE
  5
28B
100
AcDbEntity
  8
2
100
AcDbLine
 10
-960.438273
 20
162.735148
 30
0.0
 11
-960.049293
 21
161.735148
 31
0.0
  0
LINE
  5
28C
100
AcDbEntity
  8
2
100
AcDbLine
 10
-977.408836
 20
162.735148
 30
0.0
 11
-978.438273
 21
161.735148
 31
0.0
  0
LINE
  5
28D
100
AcDbEntity
  8
2
100
AcDbLine
 10
-943.46771
 20
162.735148
 30
0.0
 11
-942.438273
 21
161.735148
 31
0.0
  0
LINE
  5
28E
100
AcDbEntity
  8
2
100
AcDbLine
 10
-922.254507
 20
112.735148
 30
0.0
 11
-997.647166
 21
112.735148
 31
0.0
  0
LINE
  5
28F
100
AcDbEntity
  8
2
100
AcDbLine
 10
-942.136172
 20
117.535148
 30
0.0
 11
-980.238273
 21
117.535148
 31
0.0
  0
LINE
  5
290
100
AcDbEntity
  8
2
 62
     2
100
AcDbLine
 10
-978.438273
 20
161.735148
 30
0.0
 11
-960.827253
 21
117.535148
 31
0.0
  0
LINE
  5
291
100
AcDbEntity
  8
2
 62
     2
100
AcDbLine
 10
-978.438273
 20
117.535148
 30
0.0
 11
-960.827253
 21
161.735148
 31
0.0
  0
LINE
  5
292
100
AcDbEntity
  8
2
 62
     2
100
AcDbLine
 10
-960.049293
 20
161.735148
 30
0.0
 11
-942.438273
 21
117.535148
 31
0.0
  0
LINE
  5
293
100
AcDbEntity
  8
2
 62
     2
100
AcDbLine
 10
-942.438273
 20
161.735148
 30
0.0
 11
-960.049293
 21
117.535148
 31
0.0
  0
LINE
  5
294
100
AcDbEntity
  8
2
100
AcDbLine
 10
-937.938273
 20
107.735148
 30
0.0
 11
-982.938273
 21
107.735148
 31
0.0
  0
LINE
  5
295
100
AcDbEntity
  8
2
100
AcDbLine
 10
-987.938273
 20
101.074894
 30
0.0
 11
-987.938273
 21
104.848397
 31
0.0
  0
LINE
  5
296
100
AcDbEntity
  8
2
100
AcDbLine
 10
-982.938273
 20
107.735148
 30
0.0
 11
-987.938273
 21
104.848397
 31
0.0
  0
LINE
  5
297
100
AcDbEntity
  8
2
100
AcDbLine
 10
-982.938273
 20
99.735148
 30
0.0
 11
-987.938273
 21
96.735148
 31
0.0
  0
LINE
  5
298
100
AcDbEntity
  8
2
100
AcDbLine
 10
-982.938273
 20
99.735148
 30
0.0
 11
-987.938273
 21
101.074894
 31
0.0
  0
LINE
  5
299
100
AcDbEntity
  8
2
100
AcDbLine
 10
-987.938273
 20
104.848397
 30
0.0
 11
-932.938273
 21
104.848397
 31
0.0
  0
LINE
  5
29A
100
AcDbEntity
  8
2
100
AcDbLine
 10
-987.938273
 20
101.074894
 30
0.0
 11
-932.938273
 21
101.074894
 31
0.0
  0
LINE
  5
29B
100
AcDbEntity
  8
2
100
AcDbLine
 10
-937.938273
 20
99.735148
 30
0.0
 11
-982.938273
 21
99.735148
 31
0.0
  0
LINE
  5
29C
100
AcDbEntity
  8
2
100
AcDbLine
 10
-937.938273
 20
107.735148
 30
0.0
 11
-932.938273
 21
104.848397
 31
0.0
  0
LINE
  5
29D
100
AcDbEntity
  8
2
100
AcDbLine
 10
-932.938273
 20
101.074894
 30
0.0
 11
-932.938273
 21
104.848397
 31
0.0
  0
LINE
  5
29E
100
AcDbEntity
  8
2
100
AcDbLine
 10
-937.938273
 20
99.735148
 30
0.0
 11
-932.938273
 21
101.074894
 31
0.0
  0
LINE
  5
29F
100
AcDbEntity
  8
2
100
AcDbLine
 10
-937.938273
 20
99.735148
 30
0.0
 11
-932.938273
 21
96.735148
 31
0.0
  0
LINE
  5
2A0
100
AcDbEntity
  8
2
100
AcDbLine
 10
-1072.438273
 20
85.235148
 30
0.0
 11
-1102.438273
 21
85.235148
 31
0.0
  0
LINE
  5
2A1
100
AcDbEntity
  8
2
100
AcDbLine
 10
-1072.438273
 20
-69.764852
 30
0.0
 11
-1102.438273
 21
-69.764852
 31
0.0
  0
LINE
  5
2A2
100
AcDbEntity
  8
2
100
AcDbLine
 10
-1102.438273
 20
82.735148
 30
0.0
 11
-1294.438273
 21
82.735148
 31
0.0
  0
LINE
  5
2A3
100
AcDbEntity
  8
2
100
AcDbLine
 10
-1102.438273
 20
-67.264852
 30
0.0
 11
-1294.438273
 21
-67.264852
 31
0.0
  0
LINE
  5
2A4
100
AcDbEntity
  8
2
100
AcDbLine
 10
-1313.438273
 20
53.735148
 30
0.0
 11
-1313.438273
 21
89.735148
 31
0.0
  0
LINE
  5
2A5
100
AcDbEntity
  8
2
100
AcDbLine
 10
-1313.438273
 20
89.735148
 30
0.0
 11
-1294.438273
 21
89.735148
 31
0.0
  0
ARC
  5
2A6
100
AcDbEntity
  8
2
100
AcDbCircle
 10
-1321.438273
 20
47.735148
 30
0.0
 40
10.0
100
AcDbArc
 50
0.0
 51
36.869898
  0
ARC
  5
2A7
100
AcDbEntity
  8
2
100
AcDbCircle
 10
-1321.438273
 20
61.076405
 30
0.0
 40
10.0
100
AcDbArc
 50
0.0
 51
36.869898
  0
LINE
  5
2A8
100
AcDbEntity
  8
2
100
AcDbLine
 10
-1313.438273
 20
-74.264852
 30
0.0
 11
-1294.438273
 21
-74.264852
 31
0.0
  0
LINE
  5
2A9
100
AcDbEntity
  8
2
100
AcDbLine
 10
-1313.438273
 20
-38.264852
 30
0.0
 11
-1313.438273
 21
-74.264852
 31
0.0
  0
ARC
  5
2AA
100
AcDbEntity
  8
2
100
AcDbCircle
 10
-1321.438273
 20
-45.606109
 30
0.0
 40
10.0
100
AcDbArc
 50
323.130102
 51
360.0
  0
ARC
  5
2AB
100
AcDbEntity
  8
2
100
AcDbCircle
 10
-1321.438273
 20
-32.264852
 30
0.0
 40
10.0
100
AcDbArc
 50
323.130102
 51
360.0
  0
LINE
  5
2AC
100
AcDbEntity
  8
2
100
AcDbLine
 10
-1311.438273
 20
-45.606109
 30
0.0
 11
-1311.438273
 21
-25.502752
 31
0.0
  0
LINE
  5
2AD
100
AcDbEntity
  8
2
100
AcDbLine
 10
-1311.438273
 20
20.973048
 30
0.0
 11
-1311.438273
 21
61.076405
 31
0.0
  0
LINE
  5
2AE
100
AcDbEntity
  8
2
100
AcDbLine
 10
-1315.438273
 20
32.735148
 30
0.0
 11
-1312.938273
 21
34.178524
 31
0.0
  0
ARC
  5
2AF
100
AcDbEntity
  8
2
100
AcDbCircle
 10
-1314.438273
 20
36.7766
 30
0.0
 40
3.0
100
AcDbArc
 50
300.0
 51
360.0
  0
ARC
  5
2B0
100
AcDbEntity
  8
2
100
AcDbCircle
 10
-1311.438273
 20
-2.264852
 30
0.0
 40
18.0
100
AcDbArc
 50
90.0
 51
270.0
  0
ARC
  5
2B1
100
AcDbEntity
  8
2
100
AcDbCircle
 10
-1317.438273
 20
-25.502752
 30
0.0
 40
6.0
100
AcDbArc
 50
0.0
 51
75.522488
  0
LINE
  5
2B2
100
AcDbEntity
  8
2
100
AcDbLine
 10
-1344.438273
 20
78.923148
 30
0.0
 11
-1344.438273
 21
64.547148
 31
0.0
  0
LINE
  5
2B3
100
AcDbEntity
  8
2
 62
     2
100
AcDbLine
 10
-1326.438273
 20
78.923148
 30
0.0
 11
-1344.438273
 21
78.923148
 31
0.0
  0
LINE
  5
2B4
100
AcDbEntity
  8
2
 62
     2
100
AcDbLine
 10
-1326.438273
 20
64.547148
 30
0.0
 11
-1344.438273
 21
64.547148
 31
0.0
  0
LINE
  5
2B5
100
AcDbEntity
  8
2
100
AcDbLine
 10
-1344.438273
 20
64.547148
 30
0.0
 11
-1343.626273
 21
63.735148
 31
0.0
  0
LINE
  5
2B6
100
AcDbEntity
  8
2
100
AcDbLine
 10
-1344.438273
 20
78.923148
 30
0.0
 11
-1343.626273
 21
79.735148
 31
0.0
  0
LINE
  5
2B7
100
AcDbEntity
  8
2
100
AcDbLine
 10
-1343.626273
 20
79.735148
 30
0.0
 11
-1343.626273
 21
63.735148
 31
0.0
  0
LINE
  5
2B8
100
AcDbEntity
  8
2
100
AcDbLine
 10
-1072.438273
 20
79.735148
 30
0.0
 11
-1294.438273
 21
79.735148
 31
0.0
  0
LINE
  5
2B9
100
AcDbEntity
  8
2
100
AcDbLine
 10
-1326.438273
 20
79.735148
 30
0.0
 11
-1343.626273
 21
79.735148
 31
0.0
  0
LINE
  5
2BA
100
AcDbEntity
  8
2
100
AcDbLine
 10
-1072.438273
 20
63.735148
 30
0.0
 11
-1294.438273
 21
63.735148
 31
0.0
  0
LINE
  5
2BB
100
AcDbEntity
  8
2
100
AcDbLine
 10
-1326.438273
 20
63.735148
 30
0.0
 11
-1343.626273
 21
63.735148
 31
0.0
  0
LINE
  5
2BC
100
AcDbEntity
  8
2
100
AcDbLine
 10
-1344.438273
 20
-63.452852
 30
0.0
 11
-1344.438273
 21
-49.076852
 31
0.0
  0
LINE
  5
2BD
100
AcDbEntity
  8
2
 62
     2
100
AcDbLine
 10
-1326.438273
 20
-63.452852
 30
0.0
 11
-1344.438273
 21
-63.452852
 31
0.0
  0
LINE
  5
2BE
100
AcDbEntity
  8
2
 62
     2
100
AcDbLine
 10
-1326.438273
 20
-49.076852
 30
0.0
 11
-1344.438273
 21
-49.076852
 31
0.0
  0
LINE
  5
2BF
100
AcDbEntity
  8
2
100
AcDbLine
 10
-1344.438273
 20
-49.076852
 30
0.0
 11
-1343.626273
 21
-48.264852
 31
0.0
  0
LINE
  5
2C0
100
AcDbEntity
  8
2
100
AcDbLine
 10
-1344.438273
 20
-63.452852
 30
0.0
 11
-1343.626273
 21
-64.264852
 31
0.0
  0
LINE
  5
2C1
100
AcDbEntity
  8
2
100
AcDbLine
 10
-1343.626273
 20
-64.264852
 30
0.0
 11
-1343.626273
 21
-48.264852
 31
0.0
  0
LINE
  5
2C2
100
AcDbEntity
  8
2
100
AcDbLine
 10
-1072.438273
 20
-64.264852
 30
0.0
 11
-1294.438273
 21
-64.264852
 31
0.0
  0
LINE
  5
2C3
100
AcDbEntity
  8
2
100
AcDbLine
 10
-1326.438273
 20
-64.264852
 30
0.0
 11
-1343.626273
 21
-64.264852
 31
0.0
  0
LINE
  5
2C4
100
AcDbEntity
  8
2
100
AcDbLine
 10
-1072.438273
 20
-48.264852
 30
0.0
 11
-1294.438273
 21
-48.264852
 31
0.0
  0
LINE
  5
2C5
100
AcDbEntity
  8
2
100
AcDbLine
 10
-1326.438273
 20
-48.264852
 30
0.0
 11
-1343.626273
 21
-48.264852
 31
0.0
  0
LINE
  5
2C6
100
AcDbEntity
  8
2
100
AcDbLine
 10
-1102.438273
 20
79.735148
 30
0.0
 11
-1102.438273
 21
85.235148
 31
0.0
  0
LINE
  5
2C7
100
AcDbEntity
  8
2
100
AcDbLine
 10
-1102.438273
 20
-69.764852
 30
0.0
 11
-1102.438273
 21
-64.264852
 31
0.0
  0
LINE
  5
2C8
100
AcDbEntity
  8
2
100
AcDbLine
 10
-1315.438273
 20
29.135148
 30
0.0
 11
-1318.438273
 21
29.135148
 31
0.0
  0
LINE
  5
2C9
100
AcDbEntity
  8
2
100
AcDbLine
 10
-1318.438273
 20
14.318272
 30
0.0
 11
-1318.438273
 21
29.135148
 31
0.0
  0
LINE
  5
2CA
100
AcDbEntity
  8
2
100
AcDbLine
 10
-1315.438273
 20
15.316194
 30
0.0
 11
-1315.438273
 21
32.735148
 31
0.0
  0
LINE
  5
2CB
100
AcDbEntity
  8
2
100
AcDbLine
 10
-922.254507
 20
115.935148
 30
0.0
 11
-997.647166
 21
115.935148
 31
0.0
  0
LINE
  5
2CC
100
AcDbEntity
  8
2
100
AcDbLine
 10
-997.647166
 20
115.935148
 30
0.0
 11
-997.647166
 21
112.735148
 31
0.0
  0
LINE
  5
2CD
100
AcDbEntity
  8
2
100
AcDbLine
 10
-922.254507
 20
115.935148
 30
0.0
 11
-922.254507
 21
112.735148
 31
0.0
  0
LINE
  5
2CE
100
AcDbEntity
  8
2
100
AcDbLine
 10
-980.238273
 20
117.535148
 30
0.0
 11
-980.238273
 21
115.935148
 31
0.0
  0
LINE
  5
2CF
100
AcDbEntity
  8
2
100
AcDbLine
 10
-942.136172
 20
117.535148
 30
0.0
 11
-942.136172
 21
115.935148
 31
0.0
  0
LINE
  5
2D0
100
AcDbEntity
  8
2
100
AcDbLine
 10
-933.438273
 20
115.935148
 30
0.0
 11
-933.438273
 21
112.735148
 31
0.0
  0
LINE
  5
2D1
100
AcDbEntity
  8
2
100
AcDbLine
 10
-942.238273
 20
117.535148
 30
0.0
 11
-942.238273
 21
115.935148
 31
0.0
  0
ARC
  5
2D2
100
AcDbEntity
  8
2
100
AcDbCircle
 10
-1317.438273
 20
20.973048
 30
0.0
 40
6.0
100
AcDbArc
 50
284.477512
 51
0.0
  0
LINE
  5
2D3
100
AcDbEntity
  8
2
100
AcDbLine
 10
-1311.438273
 20
15.735148
 30
0.0
 11
-1294.438273
 21
15.735148
 31
0.0
  0
LINE
  5
2D4
100
AcDbEntity
  8
2
100
AcDbLine
 10
-1311.438273
 20
-20.264852
 30
0.0
 11
-1294.438273
 21
-20.264852
 31
0.0
  0
ARC
  5
2D5
100
AcDbEntity
  8
2
100
AcDbCircle
 10
-866.438273
 20
97.811975
 30
0.0
 40
13.510826
100
AcDbArc
 50
228.230737
 51
311.769263
  0
ARC
  5
2D6
100
AcDbEntity
  8
2
100
AcDbCircle
 10
-1054.438273
 20
97.811975
 30
0.0
 40
13.510826
100
AcDbArc
 50
228.230737
 51
311.769263
  0
LINE
  5
2D7
100
AcDbEntity
  8
2
100
AcDbLine
 10
-1313.438273
 20
67.076405
 30
0.0
 11
-1294.438273
 21
67.076405
 31
0.0
  0
LINE
  5
2D8
100
AcDbEntity
  8
2
100
AcDbLine
 10
-1313.438273
 20
-51.606109
 30
0.0
 11
-1294.438273
 21
-51.606109
 31
0.0
  0
LINE
  5
2D9
100
AcDbEntity
  8
2
100
AcDbLine
 10
-806.438273
 20
164.735148
 30
0.0
 11
-844.438273
 21
164.735148
 31
0.0
  0
LINE
  5
2DA
100
AcDbEntity
  8
2
100
AcDbLine
 10
-806.438273
 20
-149.264852
 30
0.0
 11
-844.438273
 21
-149.264852
 31
0.0
  0
ARC
  5
2DB
100
AcDbEntity
  8
2
100
AcDbCircle
 10
-848.438273
 20
136.735148
 30
0.0
 40
4.0
100
AcDbArc
 50
270.0
 51
360.0
  0
ARC
  5
2DC
100
AcDbEntity
  8
2
100
AcDbCircle
 10
-848.438273
 20
-121.264852
 30
0.0
 40
4.0
100
AcDbArc
 50
0.0
 51
90.0
  0
LINE
  5
2DD
100
AcDbEntity
  8
2
100
AcDbLine
 10
-806.438273
 20
117.209042
 30
0.0
 11
-844.438273
 21
117.209042
 31
0.0
  0
LINE
  5
2DE
100
AcDbEntity
  8
2
100
AcDbLine
 10
-806.438273
 20
-101.738746
 30
0.0
 11
-844.438273
 21
-101.738746
 31
0.0
  0
LINE
  5
2DF
100
AcDbEntity
  8
2
100
AcDbLine
 10
-806.438273
 20
150.735148
 30
0.0
 11
-844.438273
 21
150.735148
 31
0.0
  0
LINE
  5
2E0
100
AcDbEntity
  8
2
100
AcDbLine
 10
-806.438273
 20
-135.264852
 30
0.0
 11
-844.438273
 21
-135.264852
 31
0.0
  0
LINE
  5
2E1
100
AcDbEntity
  8
2
100
AcDbLine
 10
-191.438273
 20
156.985148
 30
0.0
 11
-806.438273
 21
156.985148
 31
0.0
  0
LINE
  5
2E2
100
AcDbEntity
  8
2
100
AcDbLine
 10
-191.438273
 20
-141.514852
 30
0.0
 11
-806.438273
 21
-141.514852
 31
0.0
  0
LINE
  5
2E3
100
AcDbEntity
  8
2
100
AcDbLine
 10
-160.438273
 20
164.735148
 30
0.0
 11
-191.438273
 21
164.735148
 31
0.0
  0
LINE
  5
2E4
100
AcDbEntity
  8
2
100
AcDbLine
 10
-160.438273
 20
-149.264852
 30
0.0
 11
-191.438273
 21
-149.264852
 31
0.0
  0
LINE
  5
2E5
100
AcDbEntity
  8
2
100
AcDbLine
 10
-156.438273
 20
151.735148
 30
0.0
 11
-158.438273
 21
151.735148
 31
0.0
  0
LINE
  5
2E6
100
AcDbEntity
  8
2
100
AcDbLine
 10
-156.438273
 20
99.735148
 30
0.0
 11
-158.438273
 21
99.735148
 31
0.0
  0
LINE
  5
2E7
100
AcDbEntity
  8
2
100
AcDbLine
 10
-156.438273
 20
151.735148
 30
0.0
 11
-156.438273
 21
99.735148
 31
0.0
  0
LINE
  5
2E8
100
AcDbEntity
  8
2
100
AcDbLine
 10
-156.438273
 20
-136.264852
 30
0.0
 11
-158.438273
 21
-136.264852
 31
0.0
  0
LINE
  5
2E9
100
AcDbEntity
  8
2
100
AcDbLine
 10
-156.438273
 20
-84.264852
 30
0.0
 11
-158.438273
 21
-84.264852
 31
0.0
  0
LINE
  5
2EA
100
AcDbEntity
  8
2
100
AcDbLine
 10
-156.438273
 20
-136.264852
 30
0.0
 11
-156.438273
 21
-84.264852
 31
0.0
  0
ARC
  5
2EB
100
AcDbEntity
  8
2
100
AcDbCircle
 10
-160.438273
 20
162.735148
 30
0.0
 40
2.0
100
AcDbArc
 50
0.0
 51
90.0
  0
ARC
  5
2EC
100
AcDbEntity
  8
2
100
AcDbCircle
 10
-160.438273
 20
-147.264852
 30
0.0
 40
2.0
100
AcDbArc
 50
270.0
 51
360.0
  0
ARC
  5
2ED
100
AcDbEntity
  8
2
100
AcDbCircle
 10
-155.438273
 20
50.563575
 30
0.0
 40
3.0
100
AcDbArc
 50
180.0
 51
250.528779
  0
ARC
  5
2EE
100
AcDbEntity
  8
2
100
AcDbCircle
 10
-155.438273
 20
-35.093279
 30
0.0
 40
3.0
100
AcDbArc
 50
109.471221
 51
180.0
  0
LINE
  5
2EF
100
AcDbEntity
  8
2
100
AcDbLine
 10
-112.438273
 20
136.923148
 30
0.0
 11
-112.438273
 21
114.547148
 31
0.0
  0
LINE
  5
2F0
100
AcDbEntity
  8
2
100
AcDbLine
 10
-113.250273
 20
137.735148
 30
0.0
 11
-137.438273
 21
137.735148
 31
0.0
  0
LINE
  5
2F1
100
AcDbEntity
  8
2
100
AcDbLine
 10
-191.438273
 20
137.735148
 30
0.0
 11
-806.438273
 21
137.735148
 31
0.0
  0
LINE
  5
2F2
100
AcDbEntity
  8
2
100
AcDbLine
 10
-113.250273
 20
113.735148
 30
0.0
 11
-137.438273
 21
113.735148
 31
0.0
  0
LINE
  5
2F3
100
AcDbEntity
  8
2
100
AcDbLine
 10
-191.438273
 20
113.735148
 30
0.0
 11
-806.438273
 21
113.735148
 31
0.0
  0
LINE
  5
2F4
100
AcDbEntity
  8
2
 62
     2
100
AcDbLine
 10
-112.438273
 20
136.923148
 30
0.0
 11
-137.438273
 21
136.923148
 31
0.0
  0
LINE
  5
2F5
100
AcDbEntity
  8
2
 62
     2
100
AcDbLine
 10
-112.438273
 20
114.547148
 30
0.0
 11
-137.438273
 21
114.547148
 31
0.0
  0
LINE
  5
2F6
100
AcDbEntity
  8
2
100
AcDbLine
 10
-112.438273
 20
136.923148
 30
0.0
 11
-113.250273
 21
137.735148
 31
0.0
  0
LINE
  5
2F7
100
AcDbEntity
  8
2
100
AcDbLine
 10
-112.438273
 20
114.547148
 30
0.0
 11
-113.250273
 21
113.735148
 31
0.0
  0
LINE
  5
2F8
100
AcDbEntity
  8
2
100
AcDbLine
 10
-113.250273
 20
137.735148
 30
0.0
 11
-113.250273
 21
113.735148
 31
0.0
  0
LINE
  5
2F9
100
AcDbEntity
  8
2
100
AcDbLine
 10
-112.438273
 20
-121.452852
 30
0.0
 11
-112.438273
 21
-99.076852
 31
0.0
  0
LINE
  5
2FA
100
AcDbEntity
  8
2
100
AcDbLine
 10
-113.250273
 20
-122.264852
 30
0.0
 11
-137.438273
 21
-122.264852
 31
0.0
  0
LINE
  5
2FB
100
AcDbEntity
  8
2
100
AcDbLine
 10
-191.438273
 20
-122.264852
 30
0.0
 11
-806.438273
 21
-122.264852
 31
0.0
  0
LINE
  5
2FC
100
AcDbEntity
  8
2
100
AcDbLine
 10
-113.250273
 20
-98.264852
 30
0.0
 11
-137.438273
 21
-98.264852
 31
0.0
  0
LINE
  5
2FD
100
AcDbEntity
  8
2
100
AcDbLine
 10
-191.438273
 20
-98.264852
 30
0.0
 11
-806.438273
 21
-98.264852
 31
0.0
  0
LINE
  5
2FE
100
AcDbEntity
  8
2
 62
     2
100
AcDbLine
 10
-112.438273
 20
-121.452852
 30
0.0
 11
-137.438273
 21
-121.452852
 31
0.0
  0
LINE
  5
2FF
100
AcDbEntity
  8
2
 62
     2
100
AcDbLine
 10
-112.438273
 20
-99.076852
 30
0.0
 11
-137.438273
 21
-99.076852
 31
0.0
  0
LINE
  5
300
100
AcDbEntity
  8
2
100
AcDbLine
 10
-112.438273
 20
-121.452852
 30
0.0
 11
-113.250273
 21
-122.264852
 31
0.0
  0
LINE
  5
301
100
AcDbEntity
  8
2
100
AcDbLine
 10
-112.438273
 20
-99.076852
 30
0.0
 11
-113.250273
 21
-98.264852
 31
0.0
  0
LINE
  5
302
100
AcDbEntity
  8
2
100
AcDbLine
 10
-113.250273
 20
-122.264852
 30
0.0
 11
-113.250273
 21
-98.264852
 31
0.0
  0
LINE
  5
303
100
AcDbEntity
  8
2
100
AcDbLine
 10
-158.438273
 20
155.735148
 30
0.0
 11
-191.438273
 21
155.735148
 31
0.0
  0
LINE
  5
304
100
AcDbEntity
  8
2
100
AcDbLine
 10
-158.438273
 20
110.75157
 30
0.0
 11
-191.438273
 21
110.75157
 31
0.0
  0
LINE
  5
305
100
AcDbEntity
  8
2
100
AcDbLine
 10
-158.438273
 20
-95.281274
 30
0.0
 11
-191.438273
 21
-95.281274
 31
0.0
  0
LINE
  5
306
100
AcDbEntity
  8
2
100
AcDbLine
 10
-158.438273
 20
-140.264852
 30
0.0
 11
-191.438273
 21
-140.264852
 31
0.0
  0
LINE
  5
307
100
AcDbEntity
  8
2
100
AcDbLine
 10
-158.438273
 20
-147.264852
 30
0.0
 11
-158.438273
 21
1.380992
 31
0.0
  0
LINE
  5
308
100
AcDbEntity
  8
2
100
AcDbLine
 10
-158.438273
 20
44.089305
 30
0.0
 11
-158.438273
 21
162.735148
 31
0.0
  0
ARC
  5
309
100
AcDbEntity
  8
2
100
AcDbCircle
 10
-155.438273
 20
44.089305
 30
0.0
 40
3.0
100
AcDbArc
 50
180.0
 51
238.667749
  0
ARC
  5
30A
100
AcDbEntity
  8
2
100
AcDbCircle
 10
-155.438273
 20
1.380992
 30
0.0
 40
3.0
100
AcDbArc
 50
121.332251
 51
180.0
  0
LINE
  5
30B
100
AcDbEntity
  8
2
100
AcDbLine
 10
-168.438273
 20
44.735148
 30
0.0
 11
-191.438273
 21
44.735148
 31
0.0
  0
LINE
  5
30C
100
AcDbEntity
  8
2
100
AcDbLine
 10
-168.438273
 20
0.735148
 30
0.0
 11
-191.438273
 21
0.735148
 31
0.0
  0
ARC
  5
30D
100
AcDbEntity
  8
2
100
AcDbCircle
 10
-168.438273
 20
22.735148
 30
0.0
 40
22.0
100
AcDbArc
 50
270.0
 51
90.0
  0
LINE
  5
30E
100
AcDbEntity
  8
2
100
AcDbLine
 10
-95.438273
 20
24.735148
 30
0.0
 11
-95.438273
 21
-9.264852
 31
0.0
  0
LINE
  5
30F
100
AcDbEntity
  8
2
100
AcDbLine
 10
-111.938273
 20
-11.764852
 30
0.0
 11
-124.438273
 21
-11.764852
 31
0.0
  0
LINE
  5
310
100
AcDbEntity
  8
2
100
AcDbLine
 10
-111.938273
 20
27.235148
 30
0.0
 11
-124.438273
 21
27.235148
 31
0.0
  0
LINE
  5
311
100
AcDbEntity
  8
2
100
AcDbLine
 10
-110.438273
 20
25.735148
 30
0.0
 11
-110.438273
 21
-10.264852
 31
0.0
  0
LINE
  5
312
100
AcDbEntity
  8
2
100
AcDbLine
 10
-111.938273
 20
-11.764852
 30
0.0
 11
-110.438273
 21
-10.264852
 31
0.0
  0
LINE
  5
313
100
AcDbEntity
  8
2
100
AcDbLine
 10
-111.938273
 20
27.235148
 30
0.0
 11
-110.438273
 21
25.735148
 31
0.0
  0
LINE
  5
314
100
AcDbEntity
  8
2
100
AcDbLine
 10
-111.938273
 20
-11.764852
 30
0.0
 11
-111.938273
 21
27.235148
 31
0.0
  0
LINE
  5
315
100
AcDbEntity
  8
2
 62
     2
100
AcDbLine
 10
-111.126273
 20
26.423148
 30
0.0
 11
-124.438273
 21
26.423148
 31
0.0
  0
LINE
  5
316
100
AcDbEntity
  8
2
 62
     2
100
AcDbLine
 10
-111.126273
 20
-10.952852
 30
0.0
 11
-124.438273
 21
-10.952852
 31
0.0
  0
LINE
  5
317
100
AcDbEntity
  8
2
100
AcDbLine
 10
-147.438273
 20
37.735148
 30
0.0
 11
-124.438273
 21
37.735148
 31
0.0
  0
LINE
  5
318
100
AcDbEntity
  8
2
100
AcDbLine
 10
-143.887569
 20
7.735148
 30
0.0
 11
-127.988977
 21
7.735148
 31
0.0
  0
ARC
  5
319
100
AcDbEntity
  8
2
100
AcDbCircle
 10
-157.897481
 20
22.735148
 30
0.0
 40
33.459208
100
AcDbArc
 50
333.36488
 51
26.63512
  0
LINE
  5
31A
100
AcDbEntity
  8
2
100
AcDbLine
 10
-147.438273
 20
-22.264852
 30
0.0
 11
-124.438273
 21
-22.264852
 31
0.0
  0
LINE
  5
31B
100
AcDbEntity
  8
2
100
AcDbLine
 10
-124.438273
 20
-22.264852
 30
0.0
 11
-124.438273
 21
37.735148
 31
0.0
  0
ARC
  5
31C
100
AcDbEntity
  8
2
100
AcDbCircle
 10
-157.897481
 20
-7.264852
 30
0.0
 40
33.459208
100
AcDbArc
 50
333.36488
 51
26.63512
  0
ARC
  5
31D
100
AcDbEntity
  8
2
100
AcDbCircle
 10
-113.979065
 20
-7.264852
 30
0.0
 40
33.459208
100
AcDbArc
 50
153.36488
 51
206.63512
  0
LINE
  5
31E
100
AcDbEntity
  8
2
100
AcDbLine
 10
-147.438273
 20
42.735148
 30
0.0
 11
-156.438273
 21
42.735148
 31
0.0
  0
LINE
  5
31F
100
AcDbEntity
  8
2
100
AcDbLine
 10
-147.438273
 20
-27.264852
 30
0.0
 11
-156.438273
 21
-27.264852
 31
0.0
  0
LINE
  5
320
100
AcDbEntity
  8
2
100
AcDbLine
 10
-156.438273
 20
-32.264852
 30
0.0
 11
-156.438273
 21
4.296059
 31
0.0
  0
LINE
  5
321
100
AcDbEntity
  8
2
100
AcDbLine
 10
-156.438273
 20
41.174237
 30
0.0
 11
-156.438273
 21
47.735148
 31
0.0
  0
LINE
  5
322
100
AcDbEntity
  8
2
100
AcDbLine
 10
-147.438273
 20
-27.264852
 30
0.0
 11
-147.438273
 21
16.17771
 31
0.0
  0
LINE
  5
323
100
AcDbEntity
  8
2
100
AcDbLine
 10
-147.438273
 20
29.292587
 30
0.0
 11
-147.438273
 21
42.735148
 31
0.0
  0
LINE
  5
324
100
AcDbEntity
  8
2
100
AcDbLine
 10
-96.438273
 20
-9.264852
 30
0.0
 11
-96.438273
 21
6.288727
 31
0.0
  0
LINE
  5
325
100
AcDbEntity
  8
2
100
AcDbLine
 10
-96.438273
 20
9.18157
 30
0.0
 11
-96.438273
 21
24.735148
 31
0.0
  0
ARC
  5
326
100
AcDbEntity
  8
2
100
AcDbCircle
 10
-113.979065
 20
22.735148
 30
0.0
 40
33.459208
100
AcDbArc
 50
153.36488
 51
171.189687
  0
ARC
  5
327
100
AcDbEntity
  8
2
100
AcDbCircle
 10
-113.979065
 20
22.735148
 30
0.0
 40
33.459208
100
AcDbArc
 50
188.810313
 51
206.63512
  0
LINE
  5
328
100
AcDbEntity
  8
2
100
AcDbLine
 10
-191.438273
 20
-149.264852
 30
0.0
 11
-191.438273
 21
12.10972
 31
0.0
  0
LINE
  5
329
100
AcDbEntity
  8
2
100
AcDbLine
 10
-191.438273
 20
33.110032
 30
0.0
 11
-191.438273
 21
164.735148
 31
0.0
  0
LINE
  5
32A
100
AcDbEntity
  8
2
100
AcDbLine
 10
-806.438273
 20
-149.264852
 30
0.0
 11
-806.438273
 21
14.260128
 31
0.0
  0
LINE
  5
32B
100
AcDbEntity
  8
2
100
AcDbLine
 10
-806.438273
 20
24.260277
 30
0.0
 11
-806.438273
 21
164.735148
 31
0.0
  0
LINE
  5
32C
100
AcDbEntity
  8
2
100
AcDbLine
 10
-844.438273
 20
-149.264852
 30
0.0
 11
-844.438273
 21
14.053157
 31
0.0
  0
LINE
  5
32D
100
AcDbEntity
  8
2
100
AcDbLine
 10
-844.438273
 20
24.053305
 30
0.0
 11
-844.438273
 21
164.735148
 31
0.0
  0
LINE
  5
32E
100
AcDbEntity
  8
2
100
AcDbLine
 10
-848.438273
 20
-117.264852
 30
0.0
 11
-848.438273
 21
14.03137
 31
0.0
  0
LINE
  5
32F
100
AcDbEntity
  8
2
100
AcDbLine
 10
-848.438273
 20
24.031519
 30
0.0
 11
-848.438273
 21
132.735148
 31
0.0
  0
LINE
  5
330
100
AcDbEntity
  8
2
100
AcDbLine
 10
-880.438273
 20
23.857227
 30
0.0
 11
-880.438273
 21
84.735148
 31
0.0
  0
LINE
  5
331
100
AcDbEntity
  8
2
100
AcDbLine
 10
-880.438273
 20
-69.264852
 30
0.0
 11
-880.438273
 21
-11.764852
 31
0.0
  0
LINE
  5
332
100
AcDbEntity
  8
2
100
AcDbLine
 10
-880.438273
 20
7.235148
 30
0.0
 11
-880.438273
 21
13.857078
 31
0.0
  0
LINE
  5
333
100
AcDbEntity
  8
2
100
AcDbLine
 10
-1040.438273
 20
22.985767
 30
0.0
 11
-1040.438273
 21
84.735148
 31
0.0
  0
LINE
  5
334
100
AcDbEntity
  8
2
100
AcDbLine
 10
-1040.438273
 20
-69.264852
 30
0.0
 11
-1040.438273
 21
-7.264852
 31
0.0
  0
LINE
  5
335
100
AcDbEntity
  8
2
100
AcDbLine
 10
-1040.438273
 20
2.735148
 30
0.0
 11
-1040.438273
 21
12.985619
 31
0.0
  0
LINE
  5
336
100
AcDbEntity
  8
2
100
AcDbLine
 10
-1072.438273
 20
-72.264852
 30
0.0
 11
-1072.438273
 21
-7.264852
 31
0.0
  0
LINE
  5
337
100
AcDbEntity
  8
2
100
AcDbLine
 10
-1102.438273
 20
-48.264852
 30
0.0
 11
-1102.438273
 21
-7.264852
 31
0.0
  0
LINE
  5
338
100
AcDbEntity
  8
2
100
AcDbLine
 10
-1102.438273
 20
2.735148
 30
0.0
 11
-1102.438273
 21
63.735148
 31
0.0
  0
LINE
  5
339
100
AcDbEntity
  8
2
100
AcDbLine
 10
-1072.438273
 20
2.735148
 30
0.0
 11
-1072.438273
 21
9.480277
 31
0.0
  0
LINE
  5
33A
100
AcDbEntity
  8
2
100
AcDbLine
 10
-1072.438273
 20
26.142524
 30
0.0
 11
-1072.438273
 21
87.735148
 31
0.0
  0
ARC
  5
33B
100
AcDbEntity
  8
2
100
AcDbCircle
 10
-1086.438273
 20
17.735148
 30
0.0
 40
13.5
100
AcDbArc
 50
39.334868
 51
321.289263
  0
LINE
  5
33C
100
AcDbEntity
  8
2
100
AcDbLine
 10
-1294.438273
 20
-74.264852
 30
0.0
 11
-1294.438273
 21
-10.595852
 31
0.0
  0
LINE
  5
33D
100
AcDbEntity
  8
2
100
AcDbLine
 10
-1294.438273
 20
6.066148
 30
0.0
 11
-1294.438273
 21
89.735148
 31
0.0
  0
LINE
  5
33E
100
AcDbEntity
  8
2
100
AcDbLine
 10
-1313.438273
 20
83.735148
 30
0.0
 11
-1326.438273
 21
83.735148
 31
0.0
  0
ARC
  5
33F
100
AcDbEntity
  8
2
100
AcDbCircle
 10
-1312.493114
 20
77.735148
 30
0.0
 40
13.945159
100
AcDbArc
 50
154.516139
 51
205.483861
  0
LINE
  5
340
100
AcDbEntity
  8
2
100
AcDbLine
 10
-1313.438273
 20
59.735148
 30
0.0
 11
-1326.438273
 21
59.735148
 31
0.0
  0
LINE
  5
341
100
AcDbEntity
  8
2
100
AcDbLine
 10
-1326.438273
 20
59.735148
 30
0.0
 11
-1326.438273
 21
83.735148
 31
0.0
  0
ARC
  5
342
100
AcDbEntity
  8
2
100
AcDbCircle
 10
-1312.493114
 20
65.735148
 30
0.0
 40
13.945159
100
AcDbArc
 50
154.516139
 51
205.483861
  0
LINE
  5
343
100
AcDbEntity
  8
2
100
AcDbLine
 10
-1325.0815
 20
71.735148
 30
0.0
 11
-1314.795046
 21
71.735148
 31
0.0
  0
ARC
  5
344
100
AcDbEntity
  8
2
100
AcDbCircle
 10
-1327.383432
 20
77.735148
 30
0.0
 40
13.945159
100
AcDbArc
 50
334.516139
 51
25.483861
  0
ARC
  5
345
100
AcDbEntity
  8
2
100
AcDbCircle
 10
-1327.383432
 20
65.735148
 30
0.0
 40
13.945159
100
AcDbArc
 50
334.516139
 51
25.483861
  0
LINE
  5
346
100
AcDbEntity
  8
2
100
AcDbLine
 10
-1313.438273
 20
-68.264852
 30
0.0
 11
-1326.438273
 21
-68.264852
 31
0.0
  0
ARC
  5
347
100
AcDbEntity
  8
2
100
AcDbCircle
 10
-1312.493114
 20
-62.264852
 30
0.0
 40
13.945159
100
AcDbArc
 50
154.516139
 51
205.483861
  0
LINE
  5
348
100
AcDbEntity
  8
2
100
AcDbLine
 10
-1313.438273
 20
-44.264852
 30
0.0
 11
-1326.438273
 21
-44.264852
 31
0.0
  0
LINE
  5
349
100
AcDbEntity
  8
2
100
AcDbLine
 10
-1326.438273
 20
-44.264852
 30
0.0
 11
-1326.438273
 21
-68.264852
 31
0.0
  0
ARC
  5
34A
100
AcDbEntity
  8
2
100
AcDbCircle
 10
-1312.493114
 20
-50.264852
 30
0.0
 40
13.945159
100
AcDbArc
 50
154.516139
 51
205.483861
  0
LINE
  5
34B
100
AcDbEntity
  8
2
100
AcDbLine
 10
-1325.0815
 20
-56.264852
 30
0.0
 11
-1314.795046
 21
-56.264852
 31
0.0
  0
ARC
  5
34C
100
AcDbEntity
  8
2
100
AcDbCircle
 10
-1327.383432
 20
-62.264852
 30
0.0
 40
13.945159
100
AcDbArc
 50
334.516139
 51
25.483861
  0
ARC
  5
34D
100
AcDbEntity
  8
2
100
AcDbCircle
 10
-1327.383432
 20
-50.264852
 30
0.0
 40
13.945159
100
AcDbArc
 50
334.516139
 51
25.483861
  0
LINE
  5
34E
100
AcDbEntity
  8
2
100
AcDbLine
 10
-1350.438273
 20
-2.640852
 30
0.0
 11
-1348.814273
 21
-4.264852
 31
0.0
  0
LINE
  5
34F
100
AcDbEntity
  8
2
100
AcDbLine
 10
-1348.814273
 20
-4.264852
 30
0.0
 11
-1337.438273
 21
-4.264852
 31
0.0
  0
LINE
  5
350
100
AcDbEntity
  8
2
 62
     2
100
AcDbLine
 10
-1350.438273
 20
-2.640852
 30
0.0
 11
-1337.438273
 21
-2.640852
 31
0.0
  0
LINE
  5
351
100
AcDbEntity
  8
2
100
AcDbLine
 10
-1350.438273
 20
-2.640852
 30
0.0
 11
-1350.438273
 21
18.111148
 31
0.0
  0
LINE
  5
352
100
AcDbEntity
  8
2
100
AcDbLine
 10
-1350.438273
 20
18.111148
 30
0.0
 11
-1348.814273
 21
19.735148
 31
0.0
  0
LINE
  5
353
100
AcDbEntity
  8
2
100
AcDbLine
 10
-1348.814273
 20
19.735148
 30
0.0
 11
-1337.438273
 21
19.735148
 31
0.0
  0
LINE
  5
354
100
AcDbEntity
  8
2
100
AcDbLine
 10
-1348.814273
 20
19.735148
 30
0.0
 11
-1348.814273
 21
-4.264852
 31
0.0
  0
LINE
  5
355
100
AcDbEntity
  8
2
 62
     2
100
AcDbLine
 10
-1350.438273
 20
18.111148
 30
0.0
 11
-1337.438273
 21
18.111148
 31
0.0
  0
LINE
  5
356
100
AcDbEntity
  8
2
100
AcDbLine
 10
-1318.438273
 20
28.535148
 30
0.0
 11
-1335.244342
 21
28.535148
 31
0.0
  0
LINE
  5
357
100
AcDbEntity
  8
2
100
AcDbLine
 10
-1335.244342
 20
28.535148
 30
0.0
 11
-1337.438273
 21
24.735148
 31
0.0
  0
LINE
  5
358
100
AcDbEntity
  8
2
100
AcDbLine
 10
-1318.438273
 20
18.135148
 30
0.0
 11
-1335.244342
 21
18.135148
 31
0.0
  0
ARC
  5
359
100
AcDbEntity
  8
2
100
AcDbCircle
 10
-1328.559566
 20
23.335148
 30
0.0
 40
8.469134
100
AcDbArc
 50
142.121121
 51
217.878879
  0
ARC
  5
35A
100
AcDbEntity
  8
2
100
AcDbCircle
 10
-1305.8287
 20
7.735148
 30
0.0
 40
31.2
100
AcDbArc
 50
160.528779
 51
199.471221
  0
LINE
  5
35B
100
AcDbEntity
  8
2
100
AcDbLine
 10
-1325.838273
 20
-13.064852
 30
0.0
 11
-1335.244342
 21
-13.064852
 31
0.0
  0
LINE
  5
35C
100
AcDbEntity
  8
2
100
AcDbLine
 10
-1335.244342
 20
-13.064852
 30
0.0
 11
-1337.438273
 21
-9.264852
 31
0.0
  0
LINE
  5
35D
100
AcDbEntity
  8
2
100
AcDbLine
 10
-1337.438273
 20
-9.264852
 30
0.0
 11
-1337.438273
 21
24.735148
 31
0.0
  0
LINE
  5
35E
100
AcDbEntity
  8
2
100
AcDbLine
 10
-1329.433828
 20
-2.664852
 30
0.0
 11
-1335.244342
 21
-2.664852
 31
0.0
  0
ARC
  5
35F
100
AcDbEntity
  8
2
100
AcDbCircle
 10
-1328.559566
 20
-7.864852
 30
0.0
 40
8.469134
100
AcDbArc
 50
142.121121
 51
217.878879
  0
LINE
  5
360
100
AcDbEntity
  8
2
100
AcDbLine
 10
-156.438273
 20
107.735148
 30
0.0
 11
-137.438273
 21
107.735148
 31
0.0
  0
ARC
  5
361
100
AcDbEntity
  8
2
100
AcDbCircle
 10
-156.995254
 20
116.735148
 30
0.0
 40
19.556981
100
AcDbArc
 50
332.60039
 51
27.39961
  0
LINE
  5
362
100
AcDbEntity
  8
2
100
AcDbLine
 10
-156.438273
 20
143.735148
 30
0.0
 11
-137.438273
 21
143.735148
 31
0.0
  0
LINE
  5
363
100
AcDbEntity
  8
2
100
AcDbLine
 10
-137.438273
 20
143.735148
 30
0.0
 11
-137.438273
 21
107.735148
 31
0.0
  0
ARC
  5
364
100
AcDbEntity
  8
2
100
AcDbCircle
 10
-156.995254
 20
134.735148
 30
0.0
 40
19.556981
100
AcDbArc
 50
332.60039
 51
27.39961
  0
ARC
  5
365
100
AcDbEntity
  8
2
100
AcDbCircle
 10
-136.881292
 20
134.735148
 30
0.0
 40
19.556981
100
AcDbArc
 50
152.60039
 51
207.39961
  0
ARC
  5
366
100
AcDbEntity
  8
2
100
AcDbCircle
 10
-136.881292
 20
116.735148
 30
0.0
 40
19.556981
100
AcDbArc
 50
152.60039
 51
207.39961
  0
LINE
  5
367
100
AcDbEntity
  8
2
100
AcDbLine
 10
-154.244342
 20
125.735148
 30
0.0
 11
-139.632204
 21
125.735148
 31
0.0
  0
LINE
  5
368
100
AcDbEntity
  8
2
100
AcDbLine
 10
-156.438273
 20
-92.264852
 30
0.0
 11
-137.438273
 21
-92.264852
 31
0.0
  0
ARC
  5
369
100
AcDbEntity
  8
2
100
AcDbCircle
 10
-156.995254
 20
-101.264852
 30
0.0
 40
19.556981
100
AcDbArc
 50
332.60039
 51
27.39961
  0
LINE
  5
36A
100
AcDbEntity
  8
2
100
AcDbLine
 10
-156.438273
 20
-128.264852
 30
0.0
 11
-137.438273
 21
-128.264852
 31
0.0
  0
LINE
  5
36B
100
AcDbEntity
  8
2
100
AcDbLine
 10
-137.438273
 20
-128.264852
 30
0.0
 11
-137.438273
 21
-92.264852
 31
0.0
  0
ARC
  5
36C
100
AcDbEntity
  8
2
100
AcDbCircle
 10
-156.995254
 20
-119.264852
 30
0.0
 40
19.556981
100
AcDbArc
 50
332.60039
 51
27.39961
  0
ARC
  5
36D
100
AcDbEntity
  8
2
100
AcDbCircle
 10
-136.881292
 20
-119.264852
 30
0.0
 40
19.556981
100
AcDbArc
 50
152.60039
 51
207.39961
  0
ARC
  5
36E
100
AcDbEntity
  8
2
100
AcDbCircle
 10
-136.881292
 20
-101.264852
 30
0.0
 40
19.556981
100
AcDbArc
 50
152.60039
 51
207.39961
  0
LINE
  5
36F
100
AcDbEntity
  8
2
100
AcDbLine
 10
-154.244342
 20
-110.264852
 30
0.0
 11
-139.632204
 21
-110.264852
 31
0.0
  0
LINE
  5
370
100
AcDbEntity
  8
2
100
AcDbLine
 10
-96.438273
 20
9.18157
 30
0.0
 11
-110.438273
 21
9.18157
 31
0.0
  0
LINE
  5
371
100
AcDbEntity
  8
2
100
AcDbLine
 10
-96.438273
 20
6.288727
 30
0.0
 11
-110.438273
 21
6.288727
 31
0.0
  0
LINE
  5
372
100
AcDbEntity
  8
2
100
AcDbLine
 10
-95.438273
 20
24.735148
 30
0.0
 11
-110.438273
 21
24.735148
 31
0.0
  0
LINE
  5
373
100
AcDbEntity
  8
2
100
AcDbLine
 10
-95.438273
 20
-9.264852
 30
0.0
 11
-110.438273
 21
-9.264852
 31
0.0
  0
LINE
  5
374
100
AcDbEntity
  8
2
100
AcDbLine
 10
-96.438273
 20
9.18157
 30
0.0
 11
-95.438273
 21
7.735148
 31
0.0
  0
LINE
  5
375
100
AcDbEntity
  8
2
100
AcDbLine
 10
-96.438273
 20
6.288727
 30
0.0
 11
-95.438273
 21
7.735148
 31
0.0
  0
LINE
  5
376
100
AcDbEntity
  8
2
 62
     2
100
AcDbLine
 10
-110.438273
 20
24.735148
 30
0.0
 11
-96.438273
 21
9.18157
 31
0.0
  0
LINE
  5
377
100
AcDbEntity
  8
2
 62
     2
100
AcDbLine
 10
-96.438273
 20
24.735148
 30
0.0
 11
-110.438273
 21
9.18157
 31
0.0
  0
LINE
  5
378
100
AcDbEntity
  8
2
 62
     2
100
AcDbLine
 10
-110.438273
 20
-9.264852
 30
0.0
 11
-96.438273
 21
6.288727
 31
0.0
  0
LINE
  5
379
100
AcDbEntity
  8
2
 62
     2
100
AcDbLine
 10
-110.438273
 20
6.288727
 30
0.0
 11
-96.438273
 21
-9.264852
 31
0.0
  0
LINE
  5
37A
100
AcDbEntity
  8
2
  6
CENTER
 62
     2
100
AcDbLine
 10
-1054.438273
 20
113.749747
 30
0.0
 11
-1054.438273
 21
75.115855
 31
0.0
  0
LINE
  5
37B
100
AcDbEntity
  8
2
  6
CENTER
 62
     2
100
AcDbLine
 10
-866.438273
 20
113.749747
 30
0.0
 11
-866.438273
 21
75.115855
 31
0.0
  0
LINE
  5
37C
100
AcDbEntity
  8
2
  6
CENTER
 62
     2
100
AcDbLine
 10
-1051.322646
 20
71.735148
 30
0.0
 11
-1357.629271
 21
71.735148
 31
0.0
  0
LINE
  5
37D
100
AcDbEntity
  8
2
  6
CENTER
 62
     2
100
AcDbLine
 10
-1051.322646
 20
-56.264852
 30
0.0
 11
-1357.629271
 21
-56.264852
 31
0.0
  0
LINE
  5
37E
100
AcDbEntity
  8
2
  6
CENTER
 62
     2
100
AcDbLine
 10
-1086.438273
 20
35.759577
 30
0.0
 11
-1086.438273
 21
0.365961
 31
0.0
  0
LINE
  5
37F
100
AcDbEntity
  8
2
  6
CENTER
 62
     2
100
AcDbLine
 10
-86.502632
 20
7.735148
 30
0.0
 11
-1374.302872
 21
7.735148
 31
0.0
  0
LINE
  5
380
100
AcDbEntity
  8
2
  6
CENTER
 62
     2
100
AcDbLine
 10
-826.438273
 20
200.806773
 30
0.0
 11
-826.438273
 21
131.616223
 31
0.0
  0
LINE
  5
381
100
AcDbEntity
  8
2
  6
CENTER
 62
     2
100
AcDbLine
 10
-92.737008
 20
125.735148
 30
0.0
 11
-859.863503
 21
125.735148
 31
0.0
  0
LINE
  5
382
100
AcDbEntity
  8
2
  6
CENTER
 62
     2
100
AcDbLine
 10
-92.737008
 20
-110.264852
 30
0.0
 11
-859.863503
 21
-110.264852
 31
0.0
  0
LINE
  5
383
100
AcDbEntity
  8
2
  6
CENTER
 62
     2
100
AcDbLine
 10
-822.83833
 20
-2.264852
 30
0.0
 11
-1327.85538
 21
-2.264852
 31
0.0
  0
LINE
  5
384
100
AcDbEntity
  8
2
100
AcDbLine
 10
-860.055751
 20
-9.264852
 30
0.0
 11
-862.055751
 21
-9.264852
 31
0.0
  0
LINE
  5
385
100
AcDbEntity
  8
2
100
AcDbLine
 10
-860.055751
 20
4.735148
 30
0.0
 11
-862.055751
 21
4.735148
 31
0.0
  0
LINE
  5
386
100
AcDbEntity
  8
2
100
AcDbLine
 10
-860.055751
 20
6.235148
 30
0.0
 11
-860.055751
 21
-10.764852
 31
0.0
  0
LINE
  5
387
100
AcDbEntity
  8
2
100
AcDbLine
 10
-853.055751
 20
6.235148
 30
0.0
 11
-853.055751
 21
-10.764852
 31
0.0
  0
LINE
  5
388
100
AcDbEntity
  8
2
100
AcDbLine
 10
-853.055751
 20
6.230757
 30
0.0
 11
-848.438273
 21
6.086461
 31
0.0
  0
LINE
  5
389
100
AcDbEntity
  8
2
 62
     2
100
AcDbLine
 10
-853.055751
 20
6.230757
 30
0.0
 11
-851.488273
 21
5.325773
 31
0.0
  0
LINE
  5
38A
100
AcDbEntity
  8
2
 62
     2
100
AcDbLine
 10
-851.488273
 20
5.325773
 30
0.0
 11
-848.438273
 21
5.230461
 31
0.0
  0
LINE
  5
38B
100
AcDbEntity
  8
2
100
AcDbLine
 10
-853.055751
 20
-10.760461
 30
0.0
 11
-848.438273
 21
-10.616164
 31
0.0
  0
LINE
  5
38C
100
AcDbEntity
  8
2
100
AcDbLine
 10
-851.488273
 20
-10.711477
 30
0.0
 11
-851.488273
 21
6.181773
 31
0.0
  0
LINE
  5
38D
100
AcDbEntity
  8
2
 62
     2
100
AcDbLine
 10
-853.055751
 20
-10.760461
 30
0.0
 11
-851.488273
 21
-9.855477
 31
0.0
  0
LINE
  5
38E
100
AcDbEntity
  8
2
 62
     2
100
AcDbLine
 10
-851.488273
 20
-9.855477
 30
0.0
 11
-848.438273
 21
-9.760164
 31
0.0
  0
LINE
  5
38F
100
AcDbEntity
  8
2
100
AcDbLine
 10
-866.438273
 20
-11.764852
 30
0.0
 11
-866.438273
 21
7.235148
 31
0.0
  0
LINE
  5
390
100
AcDbEntity
  8
2
100
AcDbLine
 10
-882.438273
 20
-11.764852
 30
0.0
 11
-882.438273
 21
7.235148
 31
0.0
  0
LINE
  5
391
100
AcDbEntity
  8
2
100
AcDbLine
 10
-866.438273
 20
-10.595852
 30
0.0
 11
-862.501356
 21
-10.595852
 31
0.0
  0
LINE
  5
392
100
AcDbEntity
  8
2
100
AcDbLine
 10
-866.438273
 20
6.066148
 30
0.0
 11
-862.501356
 21
6.066148
 31
0.0
  0
LINE
  5
393
100
AcDbEntity
  8
2
 62
     2
100
AcDbLine
 10
-866.438273
 20
-9.739852
 30
0.0
 11
-862.055751
 21
-9.739852
 31
0.0
  0
LINE
  5
394
100
AcDbEntity
  8
2
 62
     2
100
AcDbLine
 10
-866.438273
 20
5.210148
 30
0.0
 11
-862.055751
 21
5.210148
 31
0.0
  0
LINE
  5
395
100
AcDbEntity
  8
2
100
AcDbLine
 10
-862.055751
 20
5.210148
 30
0.0
 11
-862.055751
 21
-9.739852
 31
0.0
  0
LINE
  5
396
100
AcDbEntity
  8
2
100
AcDbLine
 10
-862.055751
 20
5.210148
 30
0.0
 11
-862.501356
 21
6.066148
 31
0.0
  0
LINE
  5
397
100
AcDbEntity
  8
2
100
AcDbLine
 10
-862.055751
 20
-9.739852
 30
0.0
 11
-862.501356
 21
-10.595852
 31
0.0
  0
LINE
  5
398
100
AcDbEntity
  8
2
100
AcDbLine
 10
-862.501356
 20
6.066148
 30
0.0
 11
-862.501356
 21
-10.595852
 31
0.0
  0
LINE
  5
399
100
AcDbEntity
  8
2
100
AcDbLine
 10
-853.055751
 20
-10.764852
 30
0.0
 11
-860.055751
 21
-10.764852
 31
0.0
  0
LINE
  5
39A
100
AcDbEntity
  8
2
100
AcDbLine
 10
-853.055751
 20
6.235148
 30
0.0
 11
-860.055751
 21
6.235148
 31
0.0
  0
ARC
  5
39B
100
AcDbEntity
  8
2
100
AcDbCircle
 10
-850.524501
 20
1.985148
 30
0.0
 40
9.53125
100
AcDbArc
 50
153.51896
 51
206.48104
  0
ARC
  5
39C
100
AcDbEntity
  8
2
100
AcDbCircle
 10
-850.524501
 20
-6.514852
 30
0.0
 40
9.53125
100
AcDbArc
 50
153.51896
 51
206.48104
  0
ARC
  5
39D
100
AcDbEntity
  8
2
100
AcDbCircle
 10
-862.587001
 20
1.985148
 30
0.0
 40
9.53125
100
AcDbArc
 50
333.51896
 51
26.48104
  0
ARC
  5
39E
100
AcDbEntity
  8
2
100
AcDbCircle
 10
-862.587001
 20
-6.514852
 30
0.0
 40
9.53125
100
AcDbArc
 50
333.51896
 51
26.48104
  0
LINE
  5
39F
100
AcDbEntity
  8
2
100
AcDbLine
 10
-859.055751
 20
-2.264852
 30
0.0
 11
-854.055751
 21
-2.264852
 31
0.0
  0
LINE
  5
3A0
100
AcDbEntity
  8
2
100
AcDbLine
 10
-866.438273
 20
7.235148
 30
0.0
 11
-882.438273
 21
7.235148
 31
0.0
  0
LINE
  5
3A1
100
AcDbEntity
  8
2
100
AcDbLine
 10
-866.438273
 20
-11.764852
 30
0.0
 11
-882.438273
 21
-11.764852
 31
0.0
  0
ARC
  5
3A2
100
AcDbEntity
  8
2
100
AcDbCircle
 10
-870.657023
 20
2.485148
 30
0.0
 40
11.78125
100
AcDbArc
 50
156.222684
 51
203.777316
  0
ARC
  5
3A3
100
AcDbEntity
  8
2
100
AcDbCircle
 10
-878.219523
 20
2.485148
 30
0.0
 40
11.78125
100
AcDbArc
 50
336.222684
 51
23.777316
  0
ARC
  5
3A4
100
AcDbEntity
  8
2
100
AcDbCircle
 10
-870.657023
 20
-7.014852
 30
0.0
 40
11.78125
100
AcDbArc
 50
156.222684
 51
203.777316
  0
ARC
  5
3A5
100
AcDbEntity
  8
2
100
AcDbCircle
 10
-878.219523
 20
-7.014852
 30
0.0
 40
11.78125
100
AcDbArc
 50
336.222684
 51
23.777316
  0
LINE
  5
3A6
100
AcDbEntity
  8
2
100
AcDbLine
 10
-881.438273
 20
-2.264852
 30
0.0
 11
-867.438273
 21
-2.264852
 31
0.0
  0
LINE
  5
3A7
100
AcDbEntity
  8
2
  6
CENTER
 62
     2
100
AcDbLine
 10
-1311.438273
 20
-18.681981
 30
0.0
 11
-1311.438273
 21
14.152255
 31
0.0
  0
LINE
  5
3A8
100
AcDbEntity
  8
2
100
AcDbLine
 10
-1316.938273
 20
6.235148
 30
0.0
 11
-1297.938273
 21
6.235148
 31
0.0
  0
LINE
  5
3A9
100
AcDbEntity
  8
2
100
AcDbLine
 10
-1316.938273
 20
-10.764852
 30
0.0
 11
-1297.938273
 21
-10.764852
 31
0.0
  0
ARC
  5
3AA
100
AcDbEntity
  8
2
100
AcDbCircle
 10
-1311.438273
 20
-2.264852
 30
0.0
 40
8.5
100
AcDbArc
 50
130.320215
 51
229.679785
  0
LINE
  5
3AB
100
AcDbEntity
  8
2
100
AcDbLine
 10
-1316.938273
 20
-10.764852
 30
0.0
 11
-1316.938273
 21
-8.745593
 31
0.0
  0
LINE
  5
3AC
100
AcDbEntity
  8
2
100
AcDbLine
 10
-1316.938273
 20
4.215889
 30
0.0
 11
-1316.938273
 21
6.235148
 31
0.0
  0
LINE
  5
3AD
100
AcDbEntity
  8
2
100
AcDbLine
 10
-1297.938273
 20
-10.764852
 30
0.0
 11
-1297.938273
 21
6.235148
 31
0.0
  0
LINE
  5
3AE
100
AcDbEntity
  8
2
100
AcDbLine
 10
-1316.938273
 20
4.215889
 30
0.0
 11
-1302.938273
 21
4.215889
 31
0.0
  0
LINE
  5
3AF
100
AcDbEntity
  8
2
100
AcDbLine
 10
-1316.938273
 20
-8.745593
 30
0.0
 11
-1302.938273
 21
-8.745593
 31
0.0
  0
LINE
  5
3B0
100
AcDbEntity
  8
2
100
AcDbLine
 10
-1302.938273
 20
-10.764852
 30
0.0
 11
-1302.938273
 21
-8.745593
 31
0.0
  0
LINE
  5
3B1
100
AcDbEntity
  8
2
100
AcDbLine
 10
-1302.938273
 20
4.215889
 30
0.0
 11
-1302.938273
 21
6.235148
 31
0.0
  0
LINE
  5
3B2
100
AcDbEntity
  8
2
100
AcDbLine
 10
-1292.938273
 20
-12.764852
 30
0.0
 11
-1292.938273
 21
8.235148
 31
0.0
  0
LINE
  5
3B3
100
AcDbEntity
  8
2
100
AcDbLine
 10
-1292.938273
 20
6.066148
 30
0.0
 11
-1297.938273
 21
6.066148
 31
0.0
  0
LINE
  5
3B4
100
AcDbEntity
  8
2
100
AcDbLine
 10
-1292.938273
 20
-10.595852
 30
0.0
 11
-1297.938273
 21
-10.595852
 31
0.0
  0
LINE
  5
3B5
100
AcDbEntity
  8
2
 62
     2
100
AcDbLine
 10
-1292.938273
 20
5.210148
 30
0.0
 11
-1296.455638
 21
5.210148
 31
0.0
  0
LINE
  5
3B6
100
AcDbEntity
  8
2
 62
     2
100
AcDbLine
 10
-1292.938273
 20
-9.739852
 30
0.0
 11
-1296.455638
 21
-9.739852
 31
0.0
  0
LINE
  5
3B7
100
AcDbEntity
  8
2
 62
     2
100
AcDbLine
 10
-1297.938273
 20
6.066148
 30
0.0
 11
-1296.455638
 21
5.210148
 31
0.0
  0
LINE
  5
3B8
100
AcDbEntity
  8
2
 62
     2
100
AcDbLine
 10
-1297.938273
 20
-10.595852
 30
0.0
 11
-1296.455638
 21
-9.739852
 31
0.0
  0
LINE
  5
3B9
100
AcDbEntity
  8
2
100
AcDbLine
 10
-1296.455638
 20
6.066148
 30
0.0
 11
-1296.455638
 21
-10.595852
 31
0.0
  0
LINE
  5
3BA
100
AcDbEntity
  8
2
100
AcDbLine
 10
-1276.938273
 20
-12.764852
 30
0.0
 11
-1276.938273
 21
8.235148
 31
0.0
  0
LINE
  5
3BB
100
AcDbEntity
  8
2
100
AcDbLine
 10
-1292.938273
 20
8.235148
 30
0.0
 11
-1276.938273
 21
8.235148
 31
0.0
  0
LINE
  5
3BC
100
AcDbEntity
  8
2
100
AcDbLine
 10
-1292.938273
 20
-12.764852
 30
0.0
 11
-1276.938273
 21
-12.764852
 31
0.0
  0
ARC
  5
3BD
100
AcDbEntity
  8
2
100
AcDbCircle
 10
-1286.875773
 20
2.985148
 30
0.0
 40
9.9375
100
AcDbArc
 50
328.109208
 51
31.890792
  0
ARC
  5
3BE
100
AcDbEntity
  8
2
100
AcDbCircle
 10
-1283.000773
 20
-7.514852
 30
0.0
 40
9.9375
100
AcDbArc
 50
148.109208
 51
211.890792
  0
ARC
  5
3BF
100
AcDbEntity
  8
2
100
AcDbCircle
 10
-1283.000773
 20
2.985148
 30
0.0
 40
9.9375
100
AcDbArc
 50
148.109208
 51
211.890792
  0
ARC
  5
3C0
100
AcDbEntity
  8
2
100
AcDbCircle
 10
-1286.875773
 20
-7.514852
 30
0.0
 40
9.9375
100
AcDbArc
 50
328.109208
 51
31.890792
  0
LINE
  5
3C1
100
AcDbEntity
  8
2
100
AcDbLine
 10
-1278.438273
 20
-2.264852
 30
0.0
 11
-1291.438273
 21
-2.264852
 31
0.0
  0
LINE
  5
3C2
100
AcDbEntity
  8
2
100
AcDbLine
 10
-882.438273
 20
-7.264852
 30
0.0
 11
-1276.938273
 21
-7.264852
 31
0.0
  0
LINE
  5
3C3
100
AcDbEntity
  8
2
100
AcDbLine
 10
-882.438273
 20
2.735148
 30
0.0
 11
-1276.938273
 21
2.735148
 31
0.0
  0
LINE
  5
3C4
100
AcDbEntity
  8
2
100
AcDbLine
 10
-1091.984487
 20
26.205066
 30
0.0
 11
-1072.984769
 21
26.30855
 31
0.0
  0
LINE
  5
3C5
100
AcDbEntity
  8
2
100
AcDbLine
 10
-1091.891896
 20
9.205318
 30
0.0
 11
-1072.892178
 21
9.308803
 31
0.0
  0
ARC
  5
3C6
100
AcDbEntity
  8
2
100
AcDbCircle
 10
-1086.438273
 20
17.735148
 30
0.0
 40
8.5
100
AcDbArc
 50
130.632281
 51
229.99185
  0
LINE
  5
3C7
100
AcDbEntity
  8
2
100
AcDbLine
 10
-1091.891896
 20
9.205318
 30
0.0
 11
-1091.902894
 21
11.224548
 31
0.0
  0
LINE
  5
3C8
100
AcDbEntity
  8
2
100
AcDbLine
 10
-1091.973489
 20
24.185837
 30
0.0
 11
-1091.984487
 21
26.205066
 31
0.0
  0
LINE
  5
3C9
100
AcDbEntity
  8
2
100
AcDbLine
 10
-1072.892178
 20
9.308803
 30
0.0
 11
-1072.984769
 21
26.30855
 31
0.0
  0
LINE
  5
3CA
100
AcDbEntity
  8
2
100
AcDbLine
 10
-1091.973489
 20
24.185837
 30
0.0
 11
-1077.973697
 21
24.262088
 31
0.0
  0
LINE
  5
3CB
100
AcDbEntity
  8
2
100
AcDbLine
 10
-1091.902894
 20
11.224548
 30
0.0
 11
-1077.903102
 21
11.300799
 31
0.0
  0
LINE
  5
3CC
100
AcDbEntity
  8
2
100
AcDbLine
 10
-1077.892104
 20
9.28157
 30
0.0
 11
-1077.903102
 21
11.300799
 31
0.0
  0
LINE
  5
3CD
100
AcDbEntity
  8
2
100
AcDbLine
 10
-1077.973697
 20
24.262088
 30
0.0
 11
-1077.984695
 21
26.281318
 31
0.0
  0
LINE
  5
3CE
100
AcDbEntity
  8
2
100
AcDbLine
 10
-1067.881359
 20
7.336065
 30
0.0
 11
-1067.995736
 21
28.335753
 31
0.0
  0
LINE
  5
3CF
100
AcDbEntity
  8
2
100
AcDbLine
 10
-1067.983923
 20
26.166786
 30
0.0
 11
-1072.983848
 21
26.139553
 31
0.0
  0
LINE
  5
3D0
100
AcDbEntity
  8
2
100
AcDbLine
 10
-1067.893172
 20
9.505033
 30
0.0
 11
-1072.893098
 21
9.4778
 31
0.0
  0
LINE
  5
3D1
100
AcDbEntity
  8
2
 62
     2
100
AcDbLine
 10
-1067.97926
 20
25.310798
 30
0.0
 11
-1071.496573
 21
25.291641
 31
0.0
  0
LINE
  5
3D2
100
AcDbEntity
  8
2
 62
     2
100
AcDbLine
 10
-1067.897835
 20
10.36102
 30
0.0
 11
-1071.415147
 21
10.341863
 31
0.0
  0
LINE
  5
3D3
100
AcDbEntity
  8
2
 62
     2
100
AcDbLine
 10
-1072.983848
 20
26.139553
 30
0.0
 11
-1071.496573
 21
25.291641
 31
0.0
  0
LINE
  5
3D4
100
AcDbEntity
  8
2
 62
     2
100
AcDbLine
 10
-1072.893098
 20
9.4778
 30
0.0
 11
-1071.415147
 21
10.341863
 31
0.0
  0
LINE
  5
3D5
100
AcDbEntity
  8
2
100
AcDbLine
 10
-1071.501235
 20
26.147628
 30
0.0
 11
-1071.410485
 21
9.485875
 31
0.0
  0
LINE
  5
3D6
100
AcDbEntity
  8
2
100
AcDbLine
 10
-1051.881596
 20
7.42321
 30
0.0
 11
-1051.995974
 21
28.422898
 31
0.0
  0
LINE
  5
3D7
100
AcDbEntity
  8
2
100
AcDbLine
 10
-1067.995736
 20
28.335753
 30
0.0
 11
-1051.995974
 21
28.422898
 31
0.0
  0
LINE
  5
3D8
100
AcDbEntity
  8
2
100
AcDbLine
 10
-1067.881359
 20
7.336065
 30
0.0
 11
-1051.881596
 21
7.42321
 31
0.0
  0
ARC
  5
3D9
100
AcDbEntity
  8
2
100
AcDbCircle
 10
-1061.904732
 20
23.118851
 30
0.0
 40
9.9375
100
AcDbArc
 50
328.421274
 51
32.202857
  0
ARC
  5
3DA
100
AcDbEntity
  8
2
100
AcDbCircle
 10
-1057.972601
 20
12.640112
 30
0.0
 40
9.9375
100
AcDbArc
 50
148.421274
 51
212.202857
  0
ARC
  5
3DB
100
AcDbEntity
  8
2
100
AcDbCircle
 10
-1058.029789
 20
23.139956
 30
0.0
 40
9.9375
100
AcDbArc
 50
148.421274
 51
212.202857
  0
ARC
  5
3DC
100
AcDbEntity
  8
2
100
AcDbCircle
 10
-1061.847543
 20
12.619007
 30
0.0
 40
9.9375
100
AcDbArc
 50
328.421274
 51
32.202857
  0
LINE
  5
3DD
100
AcDbEntity
  8
2
100
AcDbLine
 10
-1053.438763
 20
17.914884
 30
0.0
 11
-1066.43857
 21
17.844079
 31
0.0
  0
LINE
  5
3DE
100
AcDbEntity
  8
2
  6
CENTER
 62
     2
100
AcDbLine
 10
-168.438273
 20
2.735148
 30
0.0
 11
-168.438273
 21
42.735148
 31
0.0
  0
LINE
  5
3DF
100
AcDbEntity
  8
2
100
AcDbLine
 10
-162.98465
 20
31.264978
 30
0.0
 11
-181.984368
 21
31.161494
 31
0.0
  0
LINE
  5
3E0
100
AcDbEntity
  8
2
100
AcDbLine
 10
-162.892059
 20
14.26523
 30
0.0
 11
-181.891777
 21
14.161746
 31
0.0
  0
ARC
  5
3E1
100
AcDbEntity
  8
2
100
AcDbCircle
 10
-168.438273
 20
22.735148
 30
0.0
 40
8.5
100
AcDbArc
 50
310.632281
 51
49.99185
  0
LINE
  5
3E2
100
AcDbEntity
  8
2
100
AcDbLine
 10
-162.892059
 20
14.26523
 30
0.0
 11
-162.903057
 21
16.28446
 31
0.0
  0
LINE
  5
3E3
100
AcDbEntity
  8
2
100
AcDbLine
 10
-162.973652
 20
29.245749
 30
0.0
 11
-162.98465
 21
31.264978
 31
0.0
  0
LINE
  5
3E4
100
AcDbEntity
  8
2
100
AcDbLine
 10
-181.891777
 20
14.161746
 30
0.0
 11
-181.984368
 21
31.161494
 31
0.0
  0
LINE
  5
3E5
100
AcDbEntity
  8
2
100
AcDbLine
 10
-162.973652
 20
29.245749
 30
0.0
 11
-176.973445
 21
29.169497
 31
0.0
  0
LINE
  5
3E6
100
AcDbEntity
  8
2
100
AcDbLine
 10
-162.903057
 20
16.28446
 30
0.0
 11
-176.902849
 21
16.208208
 31
0.0
  0
LINE
  5
3E7
100
AcDbEntity
  8
2
100
AcDbLine
 10
-176.891851
 20
14.188979
 30
0.0
 11
-176.902849
 21
16.208208
 31
0.0
  0
LINE
  5
3E8
100
AcDbEntity
  8
2
100
AcDbLine
 10
-176.973445
 20
29.169497
 30
0.0
 11
-176.984443
 21
31.188726
 31
0.0
  0
LINE
  5
3E9
100
AcDbEntity
  8
2
100
AcDbLine
 10
-186.88081
 20
12.134543
 30
0.0
 11
-186.995187
 21
33.134231
 31
0.0
  0
LINE
  5
3EA
100
AcDbEntity
  8
2
100
AcDbLine
 10
-186.983374
 20
30.965264
 30
0.0
 11
-181.983448
 21
30.992496
 31
0.0
  0
LINE
  5
3EB
100
AcDbEntity
  8
2
100
AcDbLine
 10
-186.892624
 20
14.303511
 30
0.0
 11
-181.892698
 21
14.330743
 31
0.0
  0
LINE
  5
3EC
100
AcDbEntity
  8
2
 62
     2
100
AcDbLine
 10
-186.978712
 20
30.109276
 30
0.0
 11
-183.461399
 21
30.128434
 31
0.0
  0
LINE
  5
3ED
100
AcDbEntity
  8
2
 62
     2
100
AcDbLine
 10
-186.897286
 20
15.159498
 30
0.0
 11
-183.379973
 21
15.178655
 31
0.0
  0
LINE
  5
3EE
100
AcDbEntity
  8
2
 62
     2
100
AcDbLine
 10
-181.983448
 20
30.992496
 30
0.0
 11
-183.461399
 21
30.128434
 31
0.0
  0
LINE
  5
3EF
100
AcDbEntity
  8
2
 62
     2
100
AcDbLine
 10
-181.892698
 20
14.330743
 30
0.0
 11
-183.379973
 21
15.178655
 31
0.0
  0
LINE
  5
3F0
100
AcDbEntity
  8
2
100
AcDbLine
 10
-183.466062
 20
30.984421
 30
0.0
 11
-183.375311
 21
14.322668
 31
0.0
  0
LINE
  5
3F1
100
AcDbEntity
  8
2
100
AcDbLine
 10
-202.880573
 20
12.047398
 30
0.0
 11
-202.99495
 21
33.047087
 31
0.0
  0
LINE
  5
3F2
100
AcDbEntity
  8
2
100
AcDbLine
 10
-186.995187
 20
33.134231
 30
0.0
 11
-202.99495
 21
33.047087
 31
0.0
  0
LINE
  5
3F3
100
AcDbEntity
  8
2
100
AcDbLine
 10
-186.88081
 20
12.134543
 30
0.0
 11
-202.880573
 21
12.047398
 31
0.0
  0
ARC
  5
3F4
100
AcDbEntity
  8
2
100
AcDbCircle
 10
-193.029003
 20
27.85129
 30
0.0
 40
9.9375
100
AcDbArc
 50
148.421274
 51
212.202857
  0
ARC
  5
3F5
100
AcDbEntity
  8
2
100
AcDbCircle
 10
-196.846757
 20
17.33034
 30
0.0
 40
9.9375
100
AcDbArc
 50
328.421274
 51
32.202857
  0
ARC
  5
3F6
100
AcDbEntity
  8
2
100
AcDbCircle
 10
-196.903946
 20
27.830184
 30
0.0
 40
9.9375
100
AcDbArc
 50
328.421274
 51
32.202857
  0
ARC
  5
3F7
100
AcDbEntity
  8
2
100
AcDbCircle
 10
-192.971814
 20
17.351445
 30
0.0
 40
9.9375
100
AcDbArc
 50
148.421274
 51
212.202857
  0
LINE
  5
3F8
100
AcDbEntity
  8
2
100
AcDbLine
 10
-201.437784
 20
22.555412
 30
0.0
 11
-188.437976
 21
22.626217
 31
0.0
  0
ARC
  5
3F9
100
AcDbEntity
  8
2
100
AcDbCircle
 10
-1043.438273
 20
-69.264852
 30
0.0
 40
3.0
100
AcDbArc
 50
270.0
 51
360.0
  0
ARC
  5
3FA
100
AcDbEntity
  8
2
100
AcDbCircle
 10
-877.438273
 20
-69.264852
 30
0.0
 40
3.0
100
AcDbArc
 50
180.0
 51
270.0
  0
LINE
  5
3FB
100
AcDbEntity
  8
2
  6
CENTER
 62
     2
100
AcDbLine
 10
-1106.235661
 20
17.627319
 30
0.0
 11
-148.459141
 21
22.843967
 31
0.0
  0
LINE
  5
3FC
100
AcDbEntity
  8
2
100
AcDbLine
 10
-1051.966018
 20
22.92298
 30
0.0
 11
-202.964994
 21
27.547168
 31
0.0
  0
LINE
  5
3FD
100
AcDbEntity
  8
2
100
AcDbLine
 10
-1051.911552
 20
12.923128
 30
0.0
 11
-202.910529
 21
17.547317
 31
0.0
  0
LINE
  5
3FE
100
AcDbEntity
  8
2
100
AcDbLine
 10
-155.938273
 20
-88.764852
 30
0.0
 11
-156.438273
 21
-89.264852
 31
0.0
  0
LINE
  5
3FF
100
AcDbEntity
  8
2
100
AcDbLine
 10
-155.938273
 20
-88.764852
 30
0.0
 11
-156.438273
 21
-88.764852
 31
0.0
  0
LINE
  5
400
100
AcDbEntity
  8
2
100
AcDbLine
 10
-156.438273
 20
-30.264852
 30
0.0
 11
-155.938273
 21
-30.264852
 31
0.0
  0
LINE
  5
401
100
AcDbEntity
  8
2
100
AcDbLine
 10
-155.938273
 20
-82.764852
 30
0.0
 11
-155.938273
 21
-88.764852
 31
0.0
  0
LINE
  5
402
100
AcDbEntity
  8
2
100
AcDbLine
 10
-155.938273
 20
-27.264852
 30
0.0
 11
-155.938273
 21
-36.764852
 31
0.0
  0
LINE
  5
403
100
AcDbEntity
  8
2
100
AcDbLine
 10
-155.938273
 20
-40.764852
 30
0.0
 11
-155.938273
 21
-43.764852
 31
0.0
  0
LINE
  5
404
100
AcDbEntity
  8
2
100
AcDbLine
 10
-155.938273
 20
-47.764852
 30
0.0
 11
-155.938273
 21
-50.764852
 31
0.0
  0
LINE
  5
405
100
AcDbEntity
  8
2
100
AcDbLine
 10
-155.938273
 20
-54.764852
 30
0.0
 11
-155.938273
 21
-57.764852
 31
0.0
  0
LINE
  5
406
100
AcDbEntity
  8
2
100
AcDbLine
 10
-155.938273
 20
-61.764852
 30
0.0
 11
-155.938273
 21
-64.764852
 31
0.0
  0
LINE
  5
407
100
AcDbEntity
  8
2
100
AcDbLine
 10
-155.938273
 20
-68.764852
 30
0.0
 11
-155.938273
 21
-71.764852
 31
0.0
  0
LINE
  5
408
100
AcDbEntity
  8
2
100
AcDbLine
 10
-155.938273
 20
-75.764852
 30
0.0
 11
-155.938273
 21
-78.764852
 31
0.0
  0
LINE
  5
409
100
AcDbEntity
  8
2
100
AcDbLine
 10
-158.010252
 20
-82.764852
 30
0.0
 11
-155.938273
 21
-82.764852
 31
0.0
  0
LINE
  5
40A
100
AcDbEntity
  8
2
100
AcDbLine
 10
-158.010252
 20
-78.764852
 30
0.0
 11
-155.938273
 21
-78.764852
 31
0.0
  0
LINE
  5
40B
100
AcDbEntity
  8
2
100
AcDbLine
 10
-158.010252
 20
-75.764852
 30
0.0
 11
-155.938273
 21
-75.764852
 31
0.0
  0
LINE
  5
40C
100
AcDbEntity
  8
2
100
AcDbLine
 10
-158.010252
 20
-71.764852
 30
0.0
 11
-155.938273
 21
-71.764852
 31
0.0
  0
LINE
  5
40D
100
AcDbEntity
  8
2
100
AcDbLine
 10
-158.010252
 20
-68.764852
 30
0.0
 11
-155.938273
 21
-68.764852
 31
0.0
  0
LINE
  5
40E
100
AcDbEntity
  8
2
100
AcDbLine
 10
-158.010252
 20
-64.764852
 30
0.0
 11
-155.938273
 21
-64.764852
 31
0.0
  0
LINE
  5
40F
100
AcDbEntity
  8
2
100
AcDbLine
 10
-158.010252
 20
-61.764852
 30
0.0
 11
-155.938273
 21
-61.764852
 31
0.0
  0
LINE
  5
410
100
AcDbEntity
  8
2
100
AcDbLine
 10
-158.010252
 20
-57.764852
 30
0.0
 11
-155.938273
 21
-57.764852
 31
0.0
  0
LINE
  5
411
100
AcDbEntity
  8
2
100
AcDbLine
 10
-158.010252
 20
-54.764852
 30
0.0
 11
-155.938273
 21
-54.764852
 31
0.0
  0
LINE
  5
412
100
AcDbEntity
  8
2
100
AcDbLine
 10
-158.010252
 20
-50.764852
 30
0.0
 11
-155.938273
 21
-50.764852
 31
0.0
  0
LINE
  5
413
100
AcDbEntity
  8
2
100
AcDbLine
 10
-158.010252
 20
-47.764852
 30
0.0
 11
-155.938273
 21
-47.764852
 31
0.0
  0
LINE
  5
414
100
AcDbEntity
  8
2
100
AcDbLine
 10
-158.010252
 20
-43.764852
 30
0.0
 11
-155.938273
 21
-43.764852
 31
0.0
  0
LINE
  5
415
100
AcDbEntity
  8
2
100
AcDbLine
 10
-158.010252
 20
-40.764852
 30
0.0
 11
-155.938273
 21
-40.764852
 31
0.0
  0
LINE
  5
416
100
AcDbEntity
  8
2
100
AcDbLine
 10
-158.010252
 20
-36.764852
 30
0.0
 11
-155.938273
 21
-36.764852
 31
0.0
  0
LINE
  5
417
100
AcDbEntity
  8
2
100
AcDbLine
 10
-158.010252
 20
-78.764852
 30
0.0
 11
-158.010252
 21
-82.764852
 31
0.0
  0
LINE
  5
418
100
AcDbEntity
  8
2
100
AcDbLine
 10
-158.010252
 20
-71.764852
 30
0.0
 11
-158.010252
 21
-75.764852
 31
0.0
  0
LINE
  5
419
100
AcDbEntity
  8
2
100
AcDbLine
 10
-158.010252
 20
-64.764852
 30
0.0
 11
-158.010252
 21
-68.764852
 31
0.0
  0
LINE
  5
41A
100
AcDbEntity
  8
2
100
AcDbLine
 10
-158.010252
 20
-57.764852
 30
0.0
 11
-158.010252
 21
-61.764852
 31
0.0
  0
LINE
  5
41B
100
AcDbEntity
  8
2
100
AcDbLine
 10
-158.010252
 20
-50.764852
 30
0.0
 11
-158.010252
 21
-54.764852
 31
0.0
  0
LINE
  5
41C
100
AcDbEntity
  8
2
100
AcDbLine
 10
-158.010252
 20
-36.764852
 30
0.0
 11
-158.010252
 21
-40.764852
 31
0.0
  0
LINE
  5
41D
100
AcDbEntity
  8
2
100
AcDbLine
 10
-158.010252
 20
-43.764852
 30
0.0
 11
-158.010252
 21
-47.764852
 31
0.0
  0
LINE
  5
41E
100
AcDbEntity
  8
2
100
AcDbLine
 10
-1072.438273
 20
714.272659
 30
0.0
 11
-1072.438273
 21
554.272659
 31
0.0
  0
ARC
  5
41F
100
AcDbEntity
  8
2
100
AcDbCircle
 10
-960.438273
 20
701.272659
 30
0.0
 40
56.0
100
AcDbArc
 50
62.0
 51
118.0
  0
LINE
  5
420
100
AcDbEntity
  8
2
100
AcDbLine
 10
-986.728681
 20
750.717724
 30
0.0
 11
-1051.969726
 21
716.028445
 31
0.0
  0
LINE
  5
421
100
AcDbEntity
  8
2
100
AcDbLine
 10
-934.147866
 20
750.717724
 30
0.0
 11
-868.90682
 21
716.028445
 31
0.0
  0
LINE
  5
422
100
AcDbEntity
  8
2
100
AcDbLine
 10
-848.438273
 20
714.272659
 30
0.0
 11
-877.438273
 21
714.272659
 31
0.0
  0
LINE
  5
423
100
AcDbEntity
  8
2
100
AcDbLine
 10
-1043.438273
 20
714.272659
 30
0.0
 11
-1072.438273
 21
714.272659
 31
0.0
  0
ARC
  5
424
100
AcDbEntity
  8
2
100
AcDbCircle
 10
-1059.011799
 20
729.272659
 30
0.0
 40
15.0
100
AcDbArc
 50
270.0
 51
298.0
  0
ARC
  5
425
100
AcDbEntity
  8
2
100
AcDbCircle
 10
-861.864747
 20
729.272659
 30
0.0
 40
15.0
100
AcDbArc
 50
242.0
 51
270.0
  0
LINE
  5
426
100
AcDbEntity
  8
2
100
AcDbLine
 10
-1040.438273
 20
711.272659
 30
0.0
 11
-1040.438273
 21
557.272659
 31
0.0
  0
LINE
  5
427
100
AcDbEntity
  8
2
100
AcDbLine
 10
-880.438273
 20
711.272659
 30
0.0
 11
-880.438273
 21
557.272659
 31
0.0
  0
ARC
  5
428
100
AcDbEntity
  8
2
100
AcDbCircle
 10
-1043.438273
 20
711.272659
 30
0.0
 40
3.0
100
AcDbArc
 50
0.0
 51
90.0
  0
ARC
  5
429
100
AcDbEntity
  8
2
100
AcDbCircle
 10
-877.438273
 20
711.272659
 30
0.0
 40
3.0
100
AcDbArc
 50
90.0
 51
180.0
  0
CIRCLE
  5
42A
100
AcDbEntity
  8
2
100
AcDbCircle
 10
-1054.438273
 20
669.272659
 30
0.0
 40
9.0
  0
CIRCLE
  5
42B
100
AcDbEntity
  8
2
 62
     2
100
AcDbCircle
 10
-1054.438273
 20
669.272659
 30
0.0
 40
3.0
  0
CIRCLE
  5
42C
100
AcDbEntity
  8
2
100
AcDbCircle
 10
-1054.438273
 20
669.272659
 30
0.0
 40
2.459
  0
CIRCLE
  5
42D
100
AcDbEntity
  8
2
100
AcDbCircle
 10
-1054.438273
 20
633.272659
 30
0.0
 40
9.0
  0
CIRCLE
  5
42E
100
AcDbEntity
  8
2
 62
     2
100
AcDbCircle
 10
-1054.438273
 20
633.272659
 30
0.0
 40
3.0
  0
CIRCLE
  5
42F
100
AcDbEntity
  8
2
100
AcDbCircle
 10
-1054.438273
 20
633.272659
 30
0.0
 40
2.459
  0
CIRCLE
  5
430
100
AcDbEntity
  8
2
100
AcDbCircle
 10
-1054.438273
 20
607.272659
 30
0.0
 40
9.0
  0
CIRCLE
  5
431
100
AcDbEntity
  8
2
 62
     2
100
AcDbCircle
 10
-1054.438273
 20
607.272659
 30
0.0
 40
3.0
  0
CIRCLE
  5
432
100
AcDbEntity
  8
2
100
AcDbCircle
 10
-1054.438273
 20
607.272659
 30
0.0
 40
2.459
  0
CIRCLE
  5
433
100
AcDbEntity
  8
2
100
AcDbCircle
 10
-1054.438273
 20
571.272659
 30
0.0
 40
9.0
  0
CIRCLE
  5
434
100
AcDbEntity
  8
2
 62
     2
100
AcDbCircle
 10
-1054.438273
 20
571.272659
 30
0.0
 40
3.0
  0
CIRCLE
  5
435
100
AcDbEntity
  8
2
100
AcDbCircle
 10
-1054.438273
 20
571.272659
 30
0.0
 40
2.459
  0
CIRCLE
  5
436
100
AcDbEntity
  8
2
100
AcDbCircle
 10
-866.438273
 20
669.272659
 30
0.0
 40
9.0
  0
CIRCLE
  5
437
100
AcDbEntity
  8
2
 62
     2
100
AcDbCircle
 10
-866.438273
 20
669.272659
 30
0.0
 40
3.0
  0
CIRCLE
  5
438
100
AcDbEntity
  8
2
100
AcDbCircle
 10
-866.438273
 20
669.272659
 30
0.0
 40
2.459
  0
CIRCLE
  5
439
100
AcDbEntity
  8
2
100
AcDbCircle
 10
-866.438273
 20
633.272659
 30
0.0
 40
9.0
  0
CIRCLE
  5
43A
100
AcDbEntity
  8
2
 62
     2
100
AcDbCircle
 10
-866.438273
 20
633.272659
 30
0.0
 40
3.0
  0
CIRCLE
  5
43B
100
AcDbEntity
  8
2
100
AcDbCircle
 10
-866.438273
 20
633.272659
 30
0.0
 40
2.459
  0
CIRCLE
  5
43C
100
AcDbEntity
  8
2
100
AcDbCircle
 10
-866.438273
 20
607.272659
 30
0.0
 40
9.0
  0
CIRCLE
  5
43D
100
AcDbEntity
  8
2
 62
     2
100
AcDbCircle
 10
-866.438273
 20
607.272659
 30
0.0
 40
3.0
  0
CIRCLE
  5
43E
100
AcDbEntity
  8
2
100
AcDbCircle
 10
-866.438273
 20
607.272659
 30
0.0
 40
2.459
  0
CIRCLE
  5
43F
100
AcDbEntity
  8
2
100
AcDbCircle
 10
-866.438273
 20
571.272659
 30
0.0
 40
9.0
  0
CIRCLE
  5
440
100
AcDbEntity
  8
2
 62
     2
100
AcDbCircle
 10
-866.438273
 20
571.272659
 30
0.0
 40
3.0
  0
CIRCLE
  5
441
100
AcDbEntity
  8
2
100
AcDbCircle
 10
-866.438273
 20
571.272659
 30
0.0
 40
2.459
  0
LINE
  5
442
100
AcDbEntity
  8
2
100
AcDbLine
 10
-848.438273
 20
554.272659
 30
0.0
 11
-877.438273
 21
554.272659
 31
0.0
  0
LINE
  5
443
100
AcDbEntity
  8
2
100
AcDbLine
 10
-1043.438273
 20
554.272659
 30
0.0
 11
-1072.438273
 21
554.272659
 31
0.0
  0
ARC
  5
444
100
AcDbEntity
  8
2
100
AcDbCircle
 10
-1043.438273
 20
557.272659
 30
0.0
 40
3.0
100
AcDbArc
 50
270.0
 51
360.0
  0
ARC
  5
445
100
AcDbEntity
  8
2
100
AcDbCircle
 10
-877.438273
 20
557.272659
 30
0.0
 40
3.0
100
AcDbArc
 50
180.0
 51
270.0
  0
LINE
  5
446
100
AcDbEntity
  8
2
100
AcDbLine
 10
-895.438273
 20
572.272659
 30
0.0
 11
-1025.438273
 21
572.272659
 31
0.0
  0
ARC
  5
447
100
AcDbEntity
  8
2
100
AcDbCircle
 10
-1025.438273
 20
557.272659
 30
0.0
 40
15.0
100
AcDbArc
 50
90.0
 51
180.0
  0
ARC
  5
448
100
AcDbEntity
  8
2
100
AcDbCircle
 10
-895.438273
 20
557.272659
 30
0.0
 40
15.0
100
AcDbArc
 50
0.0
 51
90.0
  0
LINE
  5
449
100
AcDbEntity
  8
2
100
AcDbLine
 10
-890.438273
 20
743.272659
 30
0.0
 11
-890.438273
 21
727.476922
 31
0.0
  0
LINE
  5
44A
100
AcDbEntity
  8
2
100
AcDbLine
 10
-1030.438273
 20
743.272659
 30
0.0
 11
-1030.438273
 21
727.476922
 31
0.0
  0
ARC
  5
44B
100
AcDbEntity
  8
2
100
AcDbCircle
 10
-1002.438273
 20
743.272659
 30
0.0
 40
28.0
100
AcDbArc
 50
90.0
 51
180.0
  0
ARC
  5
44C
100
AcDbEntity
  8
2
100
AcDbCircle
 10
-918.438273
 20
743.272659
 30
0.0
 40
28.0
100
AcDbArc
 50
0.0
 51
90.0
  0
LINE
  5
44D
100
AcDbEntity
  8
2
100
AcDbLine
 10
-985.438273
 20
766.272659
 30
0.0
 11
-935.438273
 21
766.272659
 31
0.0
  0
LINE
  5
44E
100
AcDbEntity
  8
2
100
AcDbLine
 10
-935.438273
 20
770.472659
 30
0.0
 11
-935.438273
 21
757.412452
 31
0.0
  0
LINE
  5
44F
100
AcDbEntity
  8
2
100
AcDbLine
 10
-985.438273
 20
770.472659
 30
0.0
 11
-985.438273
 21
757.412452
 31
0.0
  0
ARC
  5
450
100
AcDbEntity
  8
2
100
AcDbCircle
 10
-995.438273
 20
757.412452
 30
0.0
 40
10.0
100
AcDbArc
 50
298.0
 51
360.0
  0
ARC
  5
451
100
AcDbEntity
  8
2
100
AcDbCircle
 10
-925.438273
 20
757.412452
 30
0.0
 40
10.0
100
AcDbArc
 50
180.0
 51
242.0
  0
LINE
  5
452
100
AcDbEntity
  8
2
100
AcDbLine
 10
-985.438273
 20
767.272659
 30
0.0
 11
-935.438273
 21
767.272659
 31
0.0
  0
LINE
  5
453
100
AcDbEntity
  8
2
100
AcDbLine
 10
-985.438273
 20
770.472659
 30
0.0
 11
-935.438273
 21
770.472659
 31
0.0
  0
LINE
  5
454
100
AcDbEntity
  8
2
100
AcDbLine
 10
-984.188273
 20
771.972659
 30
0.0
 11
-984.188273
 21
775.481912
 31
0.0
  0
LINE
  5
455
100
AcDbEntity
  8
2
100
AcDbLine
 10
-984.188273
 20
775.481912
 30
0.0
 11
-983.338273
 21
775.972659
 31
0.0
  0
LINE
  5
456
100
AcDbEntity
  8
2
100
AcDbLine
 10
-981.313273
 20
771.972659
 30
0.0
 11
-981.313273
 21
775.481912
 31
0.0
  0
ARC
  5
457
100
AcDbEntity
  8
2
100
AcDbCircle
 10
-982.750773
 20
773.633957
 30
0.0
 40
2.341227
100
AcDbArc
 50
52.121121
 51
127.878879
  0
ARC
  5
458
100
AcDbEntity
  8
2
100
AcDbCircle
 10
-978.438273
 20
767.350184
 30
0.0
 40
8.625
100
AcDbArc
 50
70.528777
 51
109.471219
  0
LINE
  5
459
100
AcDbEntity
  8
2
100
AcDbLine
 10
-972.688273
 20
771.972659
 30
0.0
 11
-972.688273
 21
775.481912
 31
0.0
  0
LINE
  5
45A
100
AcDbEntity
  8
2
100
AcDbLine
 10
-972.688273
 20
775.481912
 30
0.0
 11
-973.538273
 21
775.972659
 31
0.0
  0
LINE
  5
45B
100
AcDbEntity
  8
2
100
AcDbLine
 10
-973.538273
 20
775.972659
 30
0.0
 11
-983.338273
 21
775.972659
 31
0.0
  0
LINE
  5
45C
100
AcDbEntity
  8
2
100
AcDbLine
 10
-975.563273
 20
771.972659
 30
0.0
 11
-975.563273
 21
775.481912
 31
0.0
  0
ARC
  5
45D
100
AcDbEntity
  8
2
100
AcDbCircle
 10
-974.125773
 20
773.633957
 30
0.0
 40
2.341227
100
AcDbArc
 50
52.121121
 51
127.878879
  0
LINE
  5
45E
100
AcDbEntity
  8
2
100
AcDbLine
 10
-984.538273
 20
770.472659
 30
0.0
 11
-984.538273
 21
771.972659
 31
0.0
  0
LINE
  5
45F
100
AcDbEntity
  8
2
100
AcDbLine
 10
-984.538273
 20
771.972659
 30
0.0
 11
-972.338273
 21
771.972659
 31
0.0
  0
LINE
  5
460
100
AcDbEntity
  8
2
100
AcDbLine
 10
-972.338273
 20
771.972659
 30
0.0
 11
-972.338273
 21
770.472659
 31
0.0
  0
LINE
  5
461
100
AcDbEntity
  8
2
100
AcDbLine
 10
-978.438273
 20
771.972659
 30
0.0
 11
-977.938273
 21
770.472659
 31
0.0
  0
LINE
  5
462
100
AcDbEntity
  8
2
100
AcDbLine
 10
-978.438273
 20
770.472659
 30
0.0
 11
-978.938273
 21
771.972659
 31
0.0
  0
LINE
  5
463
100
AcDbEntity
  8
2
  6
CENTER
 62
     2
100
AcDbLine
 10
-978.438273
 20
781.486553
 30
0.0
 11
-978.438273
 21
759.904567
 31
0.0
  0
LINE
  5
464
100
AcDbEntity
  8
2
100
AcDbLine
 10
-936.688273
 20
771.972659
 30
0.0
 11
-936.688273
 21
775.481912
 31
0.0
  0
LINE
  5
465
100
AcDbEntity
  8
2
100
AcDbLine
 10
-936.688273
 20
775.481912
 30
0.0
 11
-937.538273
 21
775.972659
 31
0.0
  0
LINE
  5
466
100
AcDbEntity
  8
2
100
AcDbLine
 10
-939.563273
 20
771.972659
 30
0.0
 11
-939.563273
 21
775.481912
 31
0.0
  0
ARC
  5
467
100
AcDbEntity
  8
2
100
AcDbCircle
 10
-938.125773
 20
773.633957
 30
0.0
 40
2.341227
100
AcDbArc
 50
52.121121
 51
127.878879
  0
ARC
  5
468
100
AcDbEntity
  8
2
100
AcDbCircle
 10
-942.438273
 20
767.350184
 30
0.0
 40
8.625
100
AcDbArc
 50
70.528781
 51
109.471223
  0
LINE
  5
469
100
AcDbEntity
  8
2
100
AcDbLine
 10
-948.188273
 20
771.972659
 30
0.0
 11
-948.188273
 21
775.481912
 31
0.0
  0
LINE
  5
46A
100
AcDbEntity
  8
2
100
AcDbLine
 10
-948.188273
 20
775.481912
 30
0.0
 11
-947.338273
 21
775.972659
 31
0.0
  0
LINE
  5
46B
100
AcDbEntity
  8
2
100
AcDbLine
 10
-947.338273
 20
775.972659
 30
0.0
 11
-937.538273
 21
775.972659
 31
0.0
  0
LINE
  5
46C
100
AcDbEntity
  8
2
100
AcDbLine
 10
-945.313273
 20
771.972659
 30
0.0
 11
-945.313273
 21
775.481912
 31
0.0
  0
ARC
  5
46D
100
AcDbEntity
  8
2
100
AcDbCircle
 10
-946.750773
 20
773.633957
 30
0.0
 40
2.341227
100
AcDbArc
 50
52.121121
 51
127.878879
  0
LINE
  5
46E
100
AcDbEntity
  8
2
100
AcDbLine
 10
-936.338273
 20
770.472659
 30
0.0
 11
-936.338273
 21
771.972659
 31
0.0
  0
LINE
  5
46F
100
AcDbEntity
  8
2
100
AcDbLine
 10
-936.338273
 20
771.972659
 30
0.0
 11
-948.538273
 21
771.972659
 31
0.0
  0
LINE
  5
470
100
AcDbEntity
  8
2
100
AcDbLine
 10
-948.538273
 20
771.972659
 30
0.0
 11
-948.538273
 21
770.472659
 31
0.0
  0
LINE
  5
471
100
AcDbEntity
  8
2
100
AcDbLine
 10
-942.438273
 20
771.972659
 30
0.0
 11
-941.938273
 21
770.472659
 31
0.0
  0
LINE
  5
472
100
AcDbEntity
  8
2
100
AcDbLine
 10
-942.438273
 20
770.472659
 30
0.0
 11
-942.938273
 21
771.972659
 31
0.0
  0
LINE
  5
473
100
AcDbEntity
  8
2
  6
CENTER
 62
     2
100
AcDbLine
 10
-942.438273
 20
781.486553
 30
0.0
 11
-942.438273
 21
759.904567
 31
0.0
  0
LINE
  5
474
100
AcDbEntity
  8
2
100
AcDbLine
 10
-918.438273
 20
771.272659
 30
0.0
 11
-936.338273
 21
771.272659
 31
0.0
  0
LINE
  5
475
100
AcDbEntity
  8
2
100
AcDbLine
 10
-948.538273
 20
771.272659
 30
0.0
 11
-972.338273
 21
771.272659
 31
0.0
  0
LINE
  5
476
100
AcDbEntity
  8
2
100
AcDbLine
 10
-984.538273
 20
771.272659
 30
0.0
 11
-1002.438273
 21
771.272659
 31
0.0
  0
TEXT
  5
477
100
AcDbEntity
  8
2
100
AcDbText
 10
-998.438273
 20
594.272659
 30
0.0
 40
12.7
  1
ＴＧ－１４Ｓ
 72
     5
 11
-924.778273
 21
594.272659
 31
0.0
100
AcDbText
  0
TEXT
  5
478
100
AcDbEntity
  8
2
100
AcDbText
 10
-1015.438273
 20
611.272659
 30
0.0
 40
11.0
  1
ＴＯＭＯＥＶＡＬＶＥ
 72
     5
 11
-907.638273
 21
611.272659
 31
0.0
100
AcDbText
  0
LINE
  5
479
100
AcDbEntity
  8
2
100
AcDbLine
 10
-922.178714
 20
672.442014
 30
0.0
 11
-907.78281
 21
661.593922
 31
0.0
  0
LINE
  5
47A
100
AcDbEntity
  8
2
100
AcDbLine
 10
-998.697832
 20
672.442014
 30
0.0
 11
-1013.093736
 21
661.593922
 31
0.0
  0
ARC
  5
47B
100
AcDbEntity
  8
2
100
AcDbCircle
 10
-960.438273
 20
701.272659
 30
0.0
 40
45.0
100
AcDbArc
 50
231.541831
 51
319.416678
  0
ARC
  5
47C
100
AcDbEntity
  8
2
100
AcDbCircle
 10
-960.438273
 20
701.272659
 30
0.0
 40
69.0
100
AcDbArc
 50
219.605251
 51
320.394749
  0
ARC
  5
47D
100
AcDbEntity
  8
2
100
AcDbCircle
 10
-909.588255
 20
659.198015
 30
0.0
 40
3.0
100
AcDbArc
 50
320.394749
 51
53.0
  0
ARC
  5
47E
100
AcDbEntity
  8
2
100
AcDbCircle
 10
-923.984159
 20
670.046107
 30
0.0
 40
3.0
100
AcDbArc
 50
53.0
 51
139.416678
  0
ARC
  5
47F
100
AcDbEntity
  8
2
100
AcDbCircle
 10
-996.892387
 20
670.046107
 30
0.0
 40
3.0
100
AcDbArc
 50
68.508544
 51
127.0
  0
ARC
  5
480
100
AcDbEntity
  8
2
100
AcDbCircle
 10
-1011.288291
 20
659.198015
 30
0.0
 40
3.0
100
AcDbArc
 50
127.0
 51
219.605251
  0
LINE
  5
481
100
AcDbEntity
  8
2
100
AcDbLine
 10
-961.938273
 20
650.772659
 30
0.0
 11
-961.938273
 21
637.772659
 31
0.0
  0
LINE
  5
482
100
AcDbEntity
  8
2
100
AcDbLine
 10
-958.938273
 20
650.772659
 30
0.0
 11
-958.938273
 21
637.772659
 31
0.0
  0
ARC
  5
483
100
AcDbEntity
  8
2
100
AcDbCircle
 10
-960.438273
 20
637.772659
 30
0.0
 40
1.5
100
AcDbArc
 50
180.0
 51
360.0
  0
ARC
  5
484
100
AcDbEntity
  8
2
100
AcDbCircle
 10
-960.438273
 20
650.772659
 30
0.0
 40
1.5
100
AcDbArc
 50
0.0
 51
180.0
  0
LINE
  5
485
100
AcDbEntity
  8
2
100
AcDbLine
 10
-948.8168
 20
652.105176
 30
0.0
 11
-945.452152
 21
639.548141
 31
0.0
  0
LINE
  5
486
100
AcDbEntity
  8
2
100
AcDbLine
 10
-945.919023
 20
652.881634
 30
0.0
 11
-942.554375
 21
640.324598
 31
0.0
  0
ARC
  5
487
100
AcDbEntity
  8
2
100
AcDbCircle
 10
-944.003264
 20
639.936369
 30
0.0
 40
1.5
100
AcDbArc
 50
195.0
 51
15.0
  0
ARC
  5
488
100
AcDbEntity
  8
2
100
AcDbCircle
 10
-947.367911
 20
652.493405
 30
0.0
 40
1.5
100
AcDbArc
 50
15.0
 51
195.0
  0
LINE
  5
489
100
AcDbEntity
  8
2
100
AcDbLine
 10
-936.487311
 20
656.788376
 30
0.0
 11
-929.987311
 21
645.530046
 31
0.0
  0
LINE
  5
48A
100
AcDbEntity
  8
2
100
AcDbLine
 10
-933.889235
 20
658.288376
 30
0.0
 11
-927.389235
 21
647.030046
 31
0.0
  0
ARC
  5
48B
100
AcDbEntity
  8
2
100
AcDbCircle
 10
-928.688273
 20
646.280046
 30
0.0
 40
1.5
100
AcDbArc
 50
210.0
 51
30.0
  0
ARC
  5
48C
100
AcDbEntity
  8
2
100
AcDbCircle
 10
-935.188273
 20
657.538376
 30
0.0
 40
1.5
100
AcDbArc
 50
30.0
 51
210.0
  0
LINE
  5
48D
100
AcDbEntity
  8
2
100
AcDbLine
 10
-972.059746
 20
652.105176
 30
0.0
 11
-975.424394
 21
639.548141
 31
0.0
  0
LINE
  5
48E
100
AcDbEntity
  8
2
100
AcDbLine
 10
-974.957524
 20
652.881634
 30
0.0
 11
-978.322171
 21
640.324598
 31
0.0
  0
ARC
  5
48F
100
AcDbEntity
  8
2
100
AcDbCircle
 10
-976.873282
 20
639.936369
 30
0.0
 40
1.5
100
AcDbArc
 50
165.0
 51
345.0
  0
ARC
  5
490
100
AcDbEntity
  8
2
100
AcDbCircle
 10
-973.508635
 20
652.493405
 30
0.0
 40
1.5
100
AcDbArc
 50
345.0
 51
165.0
  0
LINE
  5
491
100
AcDbEntity
  8
2
100
AcDbLine
 10
-984.389235
 20
656.788376
 30
0.0
 11
-990.889235
 21
645.530046
 31
0.0
  0
LINE
  5
492
100
AcDbEntity
  8
2
100
AcDbLine
 10
-986.987311
 20
658.288376
 30
0.0
 11
-993.487311
 21
647.030046
 31
0.0
  0
ARC
  5
493
100
AcDbEntity
  8
2
100
AcDbCircle
 10
-992.188273
 20
646.280046
 30
0.0
 40
1.5
100
AcDbArc
 50
150.0
 51
330.0
  0
ARC
  5
494
100
AcDbEntity
  8
2
100
AcDbCircle
 10
-985.688273
 20
657.538376
 30
0.0
 40
1.5
100
AcDbArc
 50
330.0
 51
150.0
  0
LINE
  5
495
100
AcDbEntity
  8
2
100
AcDbLine
 10
-997.914933
 20
667.331534
 30
0.0
 11
-1007.107321
 21
658.139146
 31
0.0
  0
LINE
  5
496
100
AcDbEntity
  8
2
100
AcDbLine
 10
-994.379399
 20
663.796
 30
0.0
 11
-1003.571787
 21
654.603612
 31
0.0
  0
ARC
  5
497
100
AcDbEntity
  8
2
100
AcDbCircle
 10
-1005.339554
 20
656.371379
 30
0.0
 40
2.5
100
AcDbArc
 50
135.0
 51
315.0
  0
ARC
  5
498
100
AcDbEntity
  8
2
100
AcDbCircle
 10
-924.729381
 20
665.563767
 30
0.0
 40
2.5
100
AcDbArc
 50
45.0
 51
225.0
  0
LINE
  5
499
100
AcDbEntity
  8
2
100
AcDbLine
 10
-922.961614
 20
667.331534
 30
0.0
 11
-913.769226
 21
658.139146
 31
0.0
  0
LINE
  5
49A
100
AcDbEntity
  8
2
100
AcDbLine
 10
-926.497148
 20
663.796
 30
0.0
 11
-917.304759
 21
654.603612
 31
0.0
  0
ARC
  5
49B
100
AcDbEntity
  8
2
100
AcDbCircle
 10
-915.536993
 20
656.371379
 30
0.0
 40
2.5
100
AcDbArc
 50
225.0
 51
45.0
  0
TEXT
  5
49C
100
AcDbEntity
  8
2
100
AcDbText
 10
-903.162624
 20
653.896505
 30
0.0
 40
14.0
  1
Ｏ
 50
225.0
 72
     5
 11
-911.08222
 21
645.976909
 31
0.0
100
AcDbText
  0
TEXT
  5
49D
100
AcDbEntity
  8
2
100
AcDbText
 10
-1007.814427
 20
643.99701
 30
0.0
 40
14.0
  1
Ｓ
 50
135.0
 72
     5
 11
-1015.734023
 21
651.916606
 31
0.0
100
AcDbText
  0
LINE
  5
49E
100
AcDbEntity
  8
2
100
AcDbLine
 10
-960.827253
 20
683.276863
 30
0.0
 11
-978.43407
 21
700.88368
 31
0.0
  0
LINE
  5
49F
100
AcDbEntity
  8
2
100
AcDbLine
 10
-960.827253
 20
719.268456
 30
0.0
 11
-978.43407
 21
701.661639
 31
0.0
  0
LINE
  5
4A0
100
AcDbEntity
  8
2
100
AcDbLine
 10
-942.442477
 20
701.661639
 30
0.0
 11
-960.049293
 21
719.268456
 31
0.0
  0
LINE
  5
4A1
100
AcDbEntity
  8
2
100
AcDbLine
 10
-942.442477
 20
700.88368
 30
0.0
 11
-960.049293
 21
683.276863
 31
0.0
  0
ARC
  5
4A2
100
AcDbEntity
  8
2
100
AcDbCircle
 10
-960.438273
 20
701.272659
 30
0.0
 40
18.0
100
AcDbArc
 50
268.761743
 51
271.238257
  0
ARC
  5
4A3
100
AcDbEntity
  8
2
100
AcDbCircle
 10
-960.438273
 20
701.272659
 30
0.0
 40
18.0
100
AcDbArc
 50
358.761743
 51
1.238257
  0
ARC
  5
4A4
100
AcDbEntity
  8
2
100
AcDbCircle
 10
-960.438273
 20
701.272659
 30
0.0
 40
18.0
100
AcDbArc
 50
88.761743
 51
91.238257
  0
ARC
  5
4A5
100
AcDbEntity
  8
2
100
AcDbCircle
 10
-960.438273
 20
701.272659
 30
0.0
 40
18.0
100
AcDbArc
 50
178.761743
 51
181.238257
  0
LINE
  5
4A6
100
AcDbEntity
  8
2
100
AcDbLine
 10
-960.438273
 20
684.302097
 30
0.0
 11
-977.408836
 21
701.272659
 31
0.0
  0
LINE
  5
4A7
100
AcDbEntity
  8
2
100
AcDbLine
 10
-960.438273
 20
718.243222
 30
0.0
 11
-977.408836
 21
701.272659
 31
0.0
  0
LINE
  5
4A8
100
AcDbEntity
  8
2
100
AcDbLine
 10
-943.46771
 20
701.272659
 30
0.0
 11
-960.438273
 21
718.243222
 31
0.0
  0
LINE
  5
4A9
100
AcDbEntity
  8
2
100
AcDbLine
 10
-943.46771
 20
701.272659
 30
0.0
 11
-960.438273
 21
684.302097
 31
0.0
  0
LINE
  5
4AA
100
AcDbEntity
  8
2
100
AcDbLine
 10
-960.438273
 20
684.302097
 30
0.0
 11
-960.827253
 21
683.276863
 31
0.0
  0
LINE
  5
4AB
100
AcDbEntity
  8
2
100
AcDbLine
 10
-960.049293
 20
683.276863
 30
0.0
 11
-960.438273
 21
684.302097
 31
0.0
  0
LINE
  5
4AC
100
AcDbEntity
  8
2
100
AcDbLine
 10
-943.46771
 20
701.272659
 30
0.0
 11
-942.442477
 21
700.88368
 31
0.0
  0
LINE
  5
4AD
100
AcDbEntity
  8
2
100
AcDbLine
 10
-942.442477
 20
701.661639
 30
0.0
 11
-943.46771
 21
701.272659
 31
0.0
  0
LINE
  5
4AE
100
AcDbEntity
  8
2
100
AcDbLine
 10
-960.438273
 20
718.243222
 30
0.0
 11
-960.049293
 21
719.268456
 31
0.0
  0
LINE
  5
4AF
100
AcDbEntity
  8
2
100
AcDbLine
 10
-960.438273
 20
718.243222
 30
0.0
 11
-960.827253
 21
719.268456
 31
0.0
  0
LINE
  5
4B0
100
AcDbEntity
  8
2
100
AcDbLine
 10
-977.408836
 20
701.272659
 30
0.0
 11
-978.43407
 21
701.661639
 31
0.0
  0
LINE
  5
4B1
100
AcDbEntity
  8
2
100
AcDbLine
 10
-977.408836
 20
701.272659
 30
0.0
 11
-978.43407
 21
700.88368
 31
0.0
  0
CIRCLE
  5
4B2
100
AcDbEntity
  8
2
 62
     2
100
AcDbCircle
 10
-960.438273
 20
701.272659
 30
0.0
 40
4.0
  0
CIRCLE
  5
4B3
100
AcDbEntity
  8
2
100
AcDbCircle
 10
-960.438273
 20
701.272659
 30
0.0
 40
3.3235
  0
CIRCLE
  5
4B4
100
AcDbEntity
  8
2
100
AcDbCircle
 10
-960.438273
 20
701.272659
 30
0.0
 40
5.5
  0
CIRCLE
  5
4B5
100
AcDbEntity
  8
2
100
AcDbCircle
 10
-960.438273
 20
709.272659
 30
0.0
 40
1.0
  0
LINE
  5
4B6
100
AcDbEntity
  8
2
  6
CENTER
 62
     2
100
AcDbLine
 10
-956.438273
 20
709.272659
 30
0.0
 11
-964.438273
 21
709.272659
 31
0.0
  0
ARC
  5
4B7
100
AcDbEntity
  8
2
100
AcDbCircle
 10
-960.438273
 20
701.272659
 30
0.0
 40
16.1
100
AcDbArc
 50
98.847864
 51
171.152136
  0
ARC
  5
4B8
100
AcDbEntity
  8
2
100
AcDbCircle
 10
-960.438273
 20
701.272659
 30
0.0
 40
16.1
100
AcDbArc
 50
48.560856
 51
81.152136
  0
ARC
  5
4B9
100
AcDbEntity
  8
2
100
AcDbCircle
 10
-960.438273
 20
701.272659
 30
0.0
 40
16.1
100
AcDbArc
 50
8.847864
 51
41.439144
  0
ARC
  5
4BA
100
AcDbEntity
  8
2
100
AcDbCircle
 10
-960.438273
 20
701.272659
 30
0.0
 40
16.1
100
AcDbArc
 50
278.847864
 51
351.152136
  0
ARC
  5
4BB
100
AcDbEntity
  8
2
100
AcDbCircle
 10
-960.438273
 20
701.272659
 30
0.0
 40
16.1
100
AcDbArc
 50
188.847864
 51
261.152136
  0
LINE
  5
4BC
100
AcDbEntity
  8
2
100
AcDbLine
 10
-949.782904
 20
713.342171
 30
0.0
 11
-945.964527
 21
717.160547
 31
0.0
  0
LINE
  5
4BD
100
AcDbEntity
  8
2
100
AcDbLine
 10
-948.368762
 20
711.928029
 30
0.0
 11
-944.550385
 21
715.746405
 31
0.0
  0
LINE
  5
4BE
100
AcDbEntity
  8
2
100
AcDbLine
 10
-951.283023
 20
717.498906
 30
0.0
 11
-949.500061
 21
719.281868
 31
0.0
  0
LINE
  5
4BF
100
AcDbEntity
  8
2
100
AcDbLine
 10
-944.212026
 20
710.42791
 30
0.0
 11
-942.429065
 21
712.210871
 31
0.0
  0
LINE
  5
4C0
100
AcDbEntity
  8
2
100
AcDbLine
 10
-942.429065
 20
713.625085
 30
0.0
 11
-944.550385
 21
715.746405
 31
0.0
  0
LINE
  5
4C1
100
AcDbEntity
  8
2
100
AcDbLine
 10
-945.964527
 20
717.160547
 30
0.0
 11
-948.085848
 21
719.281868
 31
0.0
  0
ARC
  5
4C2
100
AcDbEntity
  8
2
100
AcDbCircle
 10
-961.238273
 20
700.472659
 30
0.0
 40
19.0
100
AcDbArc
 50
62.457451
 51
27.542549
  0
ARC
  5
4C3
100
AcDbEntity
  8
2
100
AcDbCircle
 10
-951.990129
 20
718.206013
 30
0.0
 40
1.0
100
AcDbArc
 50
242.457451
 51
315.0
  0
ARC
  5
4C4
100
AcDbEntity
  8
2
100
AcDbCircle
 10
-948.792954
 20
718.574761
 30
0.0
 40
1.0
100
AcDbArc
 50
45.0
 51
135.0
  0
ARC
  5
4C5
100
AcDbEntity
  8
2
100
AcDbCircle
 10
-943.136172
 20
712.917978
 30
0.0
 40
1.0
100
AcDbArc
 50
315.0
 51
45.0
  0
ARC
  5
4C6
100
AcDbEntity
  8
2
100
AcDbCircle
 10
-943.504919
 20
709.720803
 30
0.0
 40
1.0
100
AcDbArc
 50
135.0
 51
207.542549
  0
CIRCLE
  5
4C7
100
AcDbEntity
  8
2
100
AcDbCircle
 10
-949.217218
 20
716.736283
 30
0.0
 40
1.25
  0
CIRCLE
  5
4C8
100
AcDbEntity
  8
2
100
AcDbCircle
 10
-944.974649
 20
712.493714
 30
0.0
 40
1.25
  0
LINE
  5
4C9
100
AcDbEntity
  8
2
  6
CENTER
 62
     2
100
AcDbLine
 10
-926.499636
 20
719.659924
 30
0.0
 11
-942.230039
 21
735.390327
 31
0.0
  0
LINE
  5
4CA
100
AcDbEntity
  8
2
100
AcDbLine
 10
-922.254507
 20
725.31429
 30
0.0
 11
-936.396643
 21
739.456425
 31
0.0
  0
LINE
  5
4CB
100
AcDbEntity
  8
2
100
AcDbLine
 10
-922.254507
 20
725.31429
 30
0.0
 11
-932.14222
 21
715.426577
 31
0.0
  0
LINE
  5
4CC
100
AcDbEntity
  8
2
100
AcDbLine
 10
-936.396643
 20
739.456425
 30
0.0
 11
-946.284356
 21
729.568712
 31
0.0
  0
ARC
  5
4CD
100
AcDbEntity
  8
2
100
AcDbCircle
 10
-960.438273
 20
701.272659
 30
0.0
 40
27.0
100
AcDbArc
 50
75.949723
 51
165.328066
  0
ARC
  5
4CE
100
AcDbEntity
  8
2
100
AcDbCircle
 10
-960.438273
 20
701.272659
 30
0.0
 40
27.0
100
AcDbArc
 50
284.671934
 51
14.050277
  0
ARC
  5
4CF
100
AcDbEntity
  8
2
100
AcDbCircle
 10
-926.485366
 20
709.769722
 30
0.0
 40
8.0
100
AcDbArc
 50
135.0
 51
194.050277
  0
ARC
  5
4D0
100
AcDbEntity
  8
2
100
AcDbCircle
 10
-951.94121
 20
735.225567
 30
0.0
 40
8.0
100
AcDbArc
 50
255.949723
 51
315.0
  0
LINE
  5
4D1
100
AcDbEntity
  8
2
  6
CENTER
 62
     2
100
AcDbLine
 10
-927.013797
 20
727.626068
 30
0.0
 11
-934.530383
 21
720.109481
 31
0.0
  0
LINE
  5
4D2
100
AcDbEntity
  8
2
  6
CENTER
 62
     2
100
AcDbLine
 10
-934.210178
 20
734.571823
 30
0.0
 11
-941.162997
 21
727.619003
 31
0.0
  0
LINE
  5
4D3
100
AcDbEntity
  8
2
100
AcDbLine
 10
-995.767239
 20
664.112679
 30
0.0
 11
-953.599602
 21
675.153077
 31
0.0
  0
LINE
  5
4D4
100
AcDbEntity
  8
2
100
AcDbLine
 10
-997.598253
 20
665.943693
 30
0.0
 11
-986.557855
 21
708.11133
 31
0.0
  0
ARC
  5
4D5
100
AcDbEntity
  8
2
100
AcDbCircle
 10
-996.147166
 20
665.563767
 30
0.0
 40
1.5
100
AcDbArc
 50
165.328066
 51
284.671934
  0
CIRCLE
  5
4D6
100
AcDbEntity
  8
2
100
AcDbCircle
 10
-930.739788
 20
723.900076
 30
0.0
 40
2.75
  0
CIRCLE
  5
4D7
100
AcDbEntity
  8
2
100
AcDbCircle
 10
-937.810856
 20
730.971144
 30
0.0
 40
2.75
  0
LINE
  5
4D8
100
AcDbEntity
  8
2
  6
CENTER
 62
     2
100
AcDbLine
 10
-923.705613
 20
738.005319
 30
0.0
 11
-1001.817822
 21
659.89311
 31
0.0
  0
ARC
  5
4D9
100
AcDbEntity
  8
2
100
AcDbCircle
 10
-996.147166
 20
665.563767
 30
0.0
 40
2.5
100
AcDbArc
 50
315.0
 51
337.802036
  0
ARC
  5
4DA
100
AcDbEntity
  8
2
100
AcDbCircle
 10
-996.147166
 20
665.563767
 30
0.0
 40
2.5
100
AcDbArc
 50
112.197964
 51
135.0
  0
ARC
  5
4DB
100
AcDbEntity
  8
2
100
AcDbCircle
 10
-960.438273
 20
701.272659
 30
0.0
 40
37.0
100
AcDbArc
 50
241.535675
 51
29.31965
  0
ARC
  5
4DC
100
AcDbEntity
  8
2
100
AcDbCircle
 10
-960.438273
 20
701.272659
 30
0.0
 40
37.0
100
AcDbArc
 50
60.68035
 51
208.464325
  0
LINE
  5
4DD
100
AcDbEntity
  8
2
100
AcDbLine
 10
-1072.438273
 20
711.772659
 30
0.0
 11
-1102.438273
 21
711.772659
 31
0.0
  0
LINE
  5
4DE
100
AcDbEntity
  8
2
100
AcDbLine
 10
-1072.938273
 20
554.272659
 30
0.0
 11
-1099.938273
 21
554.272659
 31
0.0
  0
LINE
  5
4DF
100
AcDbEntity
  8
2
100
AcDbLine
 10
-1072.938273
 20
556.920529
 30
0.0
 11
-1072.938273
 21
554.272659
 31
0.0
  0
LINE
  5
4E0
100
AcDbEntity
  8
2
100
AcDbLine
 10
-1099.938273
 20
555.420529
 30
0.0
 11
-1099.938273
 21
554.272659
 31
0.0
  0
LINE
  5
4E1
100
AcDbEntity
  8
2
100
AcDbLine
 10
-1072.438273
 20
556.772659
 30
0.0
 11
-1072.938273
 21
556.772659
 31
0.0
  0
LINE
  5
4E2
100
AcDbEntity
  8
2
100
AcDbLine
 10
-1100.46459
 20
556.772659
 30
0.0
 11
-1102.438273
 21
556.772659
 31
0.0
  0
ARC
  5
4E3
100
AcDbEntity
  8
2
100
AcDbCircle
 10
-1086.438273
 20
528.555396
 30
0.0
 40
31.866061
100
AcDbArc
 50
64.93487
 51
115.06513
  0
ARC
  5
4E4
100
AcDbEntity
  8
2
100
AcDbCircle
 10
-1101.938273
 20
555.420529
 30
0.0
 40
2.0
100
AcDbArc
 50
0.0
 51
90.0
  0
ARC
  5
4E5
100
AcDbEntity
  8
2
100
AcDbCircle
 10
-1072.438273
 20
556.920529
 30
0.0
 40
0.5
100
AcDbArc
 50
90.0
 51
180.0
  0
LINE
  5
4E6
100
AcDbEntity
  8
2
100
AcDbLine
 10
-1294.438273
 20
716.272659
 30
0.0
 11
-1294.438273
 21
552.272659
 31
0.0
  0
LINE
  5
4E7
100
AcDbEntity
  8
2
100
AcDbLine
 10
-1102.438273
 20
559.272659
 30
0.0
 11
-1294.438273
 21
559.272659
 31
0.0
  0
LINE
  5
4E8
100
AcDbEntity
  8
2
100
AcDbLine
 10
-1102.438273
 20
709.272659
 30
0.0
 11
-1294.438273
 21
709.272659
 31
0.0
  0
LINE
  5
4E9
100
AcDbEntity
  8
2
100
AcDbLine
 10
-1313.438273
 20
588.272659
 30
0.0
 11
-1313.438273
 21
552.272659
 31
0.0
  0
LINE
  5
4EA
100
AcDbEntity
  8
2
100
AcDbLine
 10
-1313.438273
 20
552.272659
 30
0.0
 11
-1294.438273
 21
552.272659
 31
0.0
  0
ARC
  5
4EB
100
AcDbEntity
  8
2
100
AcDbCircle
 10
-1321.438273
 20
594.272659
 30
0.0
 40
10.0
100
AcDbArc
 50
323.130102
 51
360.0
  0
ARC
  5
4EC
100
AcDbEntity
  8
2
100
AcDbCircle
 10
-1321.438273
 20
580.931402
 30
0.0
 40
10.0
100
AcDbArc
 50
323.130102
 51
360.0
  0
LINE
  5
4ED
100
AcDbEntity
  8
2
100
AcDbLine
 10
-1313.438273
 20
716.272659
 30
0.0
 11
-1294.438273
 21
716.272659
 31
0.0
  0
LINE
  5
4EE
100
AcDbEntity
  8
2
100
AcDbLine
 10
-1313.438273
 20
680.272659
 30
0.0
 11
-1313.438273
 21
716.272659
 31
0.0
  0
ARC
  5
4EF
100
AcDbEntity
  8
2
100
AcDbCircle
 10
-1321.438273
 20
687.613916
 30
0.0
 40
10.0
100
AcDbArc
 50
0.0
 51
36.869898
  0
ARC
  5
4F0
100
AcDbEntity
  8
2
100
AcDbCircle
 10
-1321.438273
 20
674.272659
 30
0.0
 40
10.0
100
AcDbArc
 50
0.0
 51
36.869898
  0
LINE
  5
4F1
100
AcDbEntity
  8
2
100
AcDbLine
 10
-1311.438273
 20
580.931402
 30
0.0
 11
-1311.438273
 21
687.613916
 31
0.0
  0
LINE
  5
4F2
100
AcDbEntity
  8
2
100
AcDbLine
 10
-1329.438273
 20
712.272659
 30
0.0
 11
-1329.438273
 21
706.272659
 31
0.0
  0
LINE
  5
4F3
100
AcDbEntity
  8
2
100
AcDbLine
 10
-1313.438273
 20
714.272659
 30
0.0
 11
-1327.438273
 21
714.272659
 31
0.0
  0
ARC
  5
4F4
100
AcDbEntity
  8
2
100
AcDbCircle
 10
-1327.438273
 20
712.272659
 30
0.0
 40
2.0
100
AcDbArc
 50
90.0
 51
180.0
  0
LINE
  5
4F5
100
AcDbEntity
  8
2
100
AcDbLine
 10
-1316.588273
 20
684.422659
 30
0.0
 11
-1313.438273
 21
681.272659
 31
0.0
  0
LINE
  5
4F6
100
AcDbEntity
  8
2
100
AcDbLine
 10
-1329.438273
 20
556.272659
 30
0.0
 11
-1329.438273
 21
562.272659
 31
0.0
  0
LINE
  5
4F7
100
AcDbEntity
  8
2
100
AcDbLine
 10
-1313.438273
 20
554.272659
 30
0.0
 11
-1327.438273
 21
554.272659
 31
0.0
  0
ARC
  5
4F8
100
AcDbEntity
  8
2
100
AcDbCircle
 10
-1327.438273
 20
556.272659
 30
0.0
 40
2.0
100
AcDbArc
 50
180.0
 51
270.0
  0
LINE
  5
4F9
100
AcDbEntity
  8
2
100
AcDbLine
 10
-1316.588273
 20
584.122659
 30
0.0
 11
-1313.438273
 21
587.272659
 31
0.0
  0
LINE
  5
4FA
100
AcDbEntity
  8
2
100
AcDbLine
 10
-1344.438273
 20
563.084659
 30
0.0
 11
-1344.438273
 21
577.460659
 31
0.0
  0
LINE
  5
4FB
100
AcDbEntity
  8
2
 62
     2
100
AcDbLine
 10
-1326.438273
 20
563.084659
 30
0.0
 11
-1344.438273
 21
563.084659
 31
0.0
  0
LINE
  5
4FC
100
AcDbEntity
  8
2
 62
     2
100
AcDbLine
 10
-1326.438273
 20
577.460659
 30
0.0
 11
-1344.438273
 21
577.460659
 31
0.0
  0
LINE
  5
4FD
100
AcDbEntity
  8
2
100
AcDbLine
 10
-1344.438273
 20
577.460659
 30
0.0
 11
-1343.626273
 21
578.272659
 31
0.0
  0
LINE
  5
4FE
100
AcDbEntity
  8
2
100
AcDbLine
 10
-1344.438273
 20
563.084659
 30
0.0
 11
-1343.626273
 21
562.272659
 31
0.0
  0
LINE
  5
4FF
100
AcDbEntity
  8
2
100
AcDbLine
 10
-1343.626273
 20
562.272659
 30
0.0
 11
-1343.626273
 21
578.272659
 31
0.0
  0
LINE
  5
500
100
AcDbEntity
  8
2
100
AcDbLine
 10
-1072.438273
 20
562.272659
 30
0.0
 11
-1294.438273
 21
562.272659
 31
0.0
  0
LINE
  5
501
100
AcDbEntity
  8
2
100
AcDbLine
 10
-1326.438273
 20
562.272659
 30
0.0
 11
-1343.626273
 21
562.272659
 31
0.0
  0
LINE
  5
502
100
AcDbEntity
  8
2
100
AcDbLine
 10
-1072.438273
 20
578.272659
 30
0.0
 11
-1294.438273
 21
578.272659
 31
0.0
  0
LINE
  5
503
100
AcDbEntity
  8
2
100
AcDbLine
 10
-1326.438273
 20
578.272659
 30
0.0
 11
-1343.626273
 21
578.272659
 31
0.0
  0
LINE
  5
504
100
AcDbEntity
  8
2
100
AcDbLine
 10
-1344.438273
 20
705.460659
 30
0.0
 11
-1344.438273
 21
691.084659
 31
0.0
  0
LINE
  5
505
100
AcDbEntity
  8
2
 62
     2
100
AcDbLine
 10
-1326.438273
 20
705.460659
 30
0.0
 11
-1344.438273
 21
705.460659
 31
0.0
  0
LINE
  5
506
100
AcDbEntity
  8
2
 62
     2
100
AcDbLine
 10
-1326.438273
 20
691.084659
 30
0.0
 11
-1344.438273
 21
691.084659
 31
0.0
  0
LINE
  5
507
100
AcDbEntity
  8
2
100
AcDbLine
 10
-1344.438273
 20
691.084659
 30
0.0
 11
-1343.626273
 21
690.272659
 31
0.0
  0
LINE
  5
508
100
AcDbEntity
  8
2
100
AcDbLine
 10
-1344.438273
 20
705.460659
 30
0.0
 11
-1343.626273
 21
706.272659
 31
0.0
  0
LINE
  5
509
100
AcDbEntity
  8
2
100
AcDbLine
 10
-1343.626273
 20
706.272659
 30
0.0
 11
-1343.626273
 21
690.272659
 31
0.0
  0
LINE
  5
50A
100
AcDbEntity
  8
2
100
AcDbLine
 10
-1072.438273
 20
706.272659
 30
0.0
 11
-1294.438273
 21
706.272659
 31
0.0
  0
LINE
  5
50B
100
AcDbEntity
  8
2
100
AcDbLine
 10
-1326.438273
 20
706.272659
 30
0.0
 11
-1343.626273
 21
706.272659
 31
0.0
  0
LINE
  5
50C
100
AcDbEntity
  8
2
100
AcDbLine
 10
-1072.438273
 20
690.272659
 30
0.0
 11
-1294.438273
 21
690.272659
 31
0.0
  0
LINE
  5
50D
100
AcDbEntity
  8
2
100
AcDbLine
 10
-1326.438273
 20
690.272659
 30
0.0
 11
-1343.626273
 21
690.272659
 31
0.0
  0
LINE
  5
50E
100
AcDbEntity
  8
2
100
AcDbLine
 10
-1102.438273
 20
562.272659
 30
0.0
 11
-1102.438273
 21
556.772659
 31
0.0
  0
LINE
  5
50F
100
AcDbEntity
  8
2
100
AcDbLine
 10
-1102.438273
 20
711.772659
 30
0.0
 11
-1102.438273
 21
706.272659
 31
0.0
  0
LINE
  5
510
100
AcDbEntity
  8
2
100
AcDbLine
 10
-1102.438273
 20
690.272659
 30
0.0
 11
-1102.438273
 21
578.272659
 31
0.0
  0
LINE
  5
511
100
AcDbEntity
  8
2
100
AcDbLine
 10
-1313.438273
 20
574.931402
 30
0.0
 11
-1294.438273
 21
574.931402
 31
0.0
  0
LINE
  5
512
100
AcDbEntity
  8
2
100
AcDbLine
 10
-1313.438273
 20
716.272659
 30
0.0
 11
-1294.438273
 21
716.272659
 31
0.0
  0
LINE
  5
513
100
AcDbEntity
  8
2
100
AcDbLine
 10
-1313.438273
 20
693.613916
 30
0.0
 11
-1294.438273
 21
693.613916
 31
0.0
  0
LINE
  5
514
100
AcDbEntity
  8
2
100
AcDbLine
 10
-848.438273
 20
509.272659
 30
0.0
 11
-848.438273
 21
759.272659
 31
0.0
  0
LINE
  5
515
100
AcDbEntity
  8
2
100
AcDbLine
 10
-806.438273
 20
477.272659
 30
0.0
 11
-806.438273
 21
791.272659
 31
0.0
  0
LINE
  5
516
100
AcDbEntity
  8
2
100
AcDbLine
 10
-844.438273
 20
477.272659
 30
0.0
 11
-844.438273
 21
791.272659
 31
0.0
  0
LINE
  5
517
100
AcDbEntity
  8
2
100
AcDbLine
 10
-806.438273
 20
477.272659
 30
0.0
 11
-844.438273
 21
477.272659
 31
0.0
  0
LINE
  5
518
100
AcDbEntity
  8
2
100
AcDbLine
 10
-806.438273
 20
791.272659
 30
0.0
 11
-844.438273
 21
791.272659
 31
0.0
  0
ARC
  5
519
100
AcDbEntity
  8
2
100
AcDbCircle
 10
-848.438273
 20
505.272659
 30
0.0
 40
4.0
100
AcDbArc
 50
0.0
 51
90.0
  0
ARC
  5
51A
100
AcDbEntity
  8
2
100
AcDbCircle
 10
-848.438273
 20
763.272659
 30
0.0
 40
4.0
100
AcDbArc
 50
270.0
 51
360.0
  0
LINE
  5
51B
100
AcDbEntity
  8
2
100
AcDbLine
 10
-806.438273
 20
524.798766
 30
0.0
 11
-844.438273
 21
524.798766
 31
0.0
  0
LINE
  5
51C
100
AcDbEntity
  8
2
100
AcDbLine
 10
-806.438273
 20
743.746553
 30
0.0
 11
-844.438273
 21
743.746553
 31
0.0
  0
LINE
  5
51D
100
AcDbEntity
  8
2
100
AcDbLine
 10
-806.438273
 20
491.272659
 30
0.0
 11
-844.438273
 21
491.272659
 31
0.0
  0
LINE
  5
51E
100
AcDbEntity
  8
2
100
AcDbLine
 10
-806.438273
 20
777.272659
 30
0.0
 11
-844.438273
 21
777.272659
 31
0.0
  0
LINE
  5
51F
100
AcDbEntity
  8
2
100
AcDbLine
 10
-191.438273
 20
477.272659
 30
0.0
 11
-191.438273
 21
791.272659
 31
0.0
  0
LINE
  5
520
100
AcDbEntity
  8
2
100
AcDbLine
 10
-191.438273
 20
485.022659
 30
0.0
 11
-806.438273
 21
485.022659
 31
0.0
  0
LINE
  5
521
100
AcDbEntity
  8
2
100
AcDbLine
 10
-191.438273
 20
783.522659
 30
0.0
 11
-806.438273
 21
783.522659
 31
0.0
  0
LINE
  5
522
100
AcDbEntity
  8
2
100
AcDbLine
 10
-148.438273
 20
477.272659
 30
0.0
 11
-191.438273
 21
477.272659
 31
0.0
  0
LINE
  5
523
100
AcDbEntity
  8
2
100
AcDbLine
 10
-148.438273
 20
791.272659
 30
0.0
 11
-191.438273
 21
791.272659
 31
0.0
  0
LINE
  5
524
100
AcDbEntity
  8
2
100
AcDbLine
 10
-156.438273
 20
490.272659
 30
0.0
 11
-158.438273
 21
490.272659
 31
0.0
  0
LINE
  5
525
100
AcDbEntity
  8
2
100
AcDbLine
 10
-156.438273
 20
542.272659
 30
0.0
 11
-158.438273
 21
542.272659
 31
0.0
  0
LINE
  5
526
100
AcDbEntity
  8
2
100
AcDbLine
 10
-156.438273
 20
490.272659
 30
0.0
 11
-156.438273
 21
542.272659
 31
0.0
  0
LINE
  5
527
100
AcDbEntity
  8
2
100
AcDbLine
 10
-156.438273
 20
778.272659
 30
0.0
 11
-158.438273
 21
778.272659
 31
0.0
  0
LINE
  5
528
100
AcDbEntity
  8
2
100
AcDbLine
 10
-156.438273
 20
726.272659
 30
0.0
 11
-158.438273
 21
726.272659
 31
0.0
  0
LINE
  5
529
100
AcDbEntity
  8
2
100
AcDbLine
 10
-156.438273
 20
778.272659
 30
0.0
 11
-156.438273
 21
726.272659
 31
0.0
  0
ARC
  5
52A
100
AcDbEntity
  8
2
100
AcDbCircle
 10
-155.438273
 20
591.444232
 30
0.0
 40
3.0
100
AcDbArc
 50
109.471221
 51
180.0
  0
ARC
  5
52B
100
AcDbEntity
  8
2
100
AcDbCircle
 10
-155.438273
 20
677.101086
 30
0.0
 40
3.0
100
AcDbArc
 50
180.0
 51
250.528779
  0
LINE
  5
52C
100
AcDbEntity
  8
2
100
AcDbLine
 10
-156.438273
 20
674.272659
 30
0.0
 11
-156.438273
 21
594.272659
 31
0.0
  0
LINE
  5
52D
100
AcDbEntity
  8
2
100
AcDbLine
 10
-112.438273
 20
505.084659
 30
0.0
 11
-112.438273
 21
527.460659
 31
0.0
  0
LINE
  5
52E
100
AcDbEntity
  8
2
100
AcDbLine
 10
-113.250273
 20
504.272659
 30
0.0
 11
-137.438273
 21
504.272659
 31
0.0
  0
LINE
  5
52F
100
AcDbEntity
  8
2
100
AcDbLine
 10
-191.438273
 20
504.272659
 30
0.0
 11
-806.438273
 21
504.272659
 31
0.0
  0
LINE
  5
530
100
AcDbEntity
  8
2
100
AcDbLine
 10
-113.250273
 20
528.272659
 30
0.0
 11
-137.438273
 21
528.272659
 31
0.0
  0
LINE
  5
531
100
AcDbEntity
  8
2
100
AcDbLine
 10
-191.438273
 20
528.272659
 30
0.0
 11
-806.438273
 21
528.272659
 31
0.0
  0
LINE
  5
532
100
AcDbEntity
  8
2
 62
     2
100
AcDbLine
 10
-112.438273
 20
505.084659
 30
0.0
 11
-137.438273
 21
505.084659
 31
0.0
  0
LINE
  5
533
100
AcDbEntity
  8
2
 62
     2
100
AcDbLine
 10
-112.438273
 20
527.460659
 30
0.0
 11
-137.438273
 21
527.460659
 31
0.0
  0
LINE
  5
534
100
AcDbEntity
  8
2
100
AcDbLine
 10
-112.438273
 20
505.084659
 30
0.0
 11
-113.250273
 21
504.272659
 31
0.0
  0
LINE
  5
535
100
AcDbEntity
  8
2
100
AcDbLine
 10
-112.438273
 20
527.460659
 30
0.0
 11
-113.250273
 21
528.272659
 31
0.0
  0
LINE
  5
536
100
AcDbEntity
  8
2
100
AcDbLine
 10
-113.250273
 20
504.272659
 30
0.0
 11
-113.250273
 21
528.272659
 31
0.0
  0
LINE
  5
537
100
AcDbEntity
  8
2
100
AcDbLine
 10
-112.438273
 20
763.460659
 30
0.0
 11
-112.438273
 21
741.084659
 31
0.0
  0
LINE
  5
538
100
AcDbEntity
  8
2
100
AcDbLine
 10
-113.250273
 20
764.272659
 30
0.0
 11
-137.438273
 21
764.272659
 31
0.0
  0
LINE
  5
539
100
AcDbEntity
  8
2
100
AcDbLine
 10
-191.438273
 20
764.272659
 30
0.0
 11
-806.438273
 21
764.272659
 31
0.0
  0
LINE
  5
53A
100
AcDbEntity
  8
2
100
AcDbLine
 10
-113.250273
 20
740.272659
 30
0.0
 11
-137.438273
 21
740.272659
 31
0.0
  0
LINE
  5
53B
100
AcDbEntity
  8
2
100
AcDbLine
 10
-191.438273
 20
740.272659
 30
0.0
 11
-806.438273
 21
740.272659
 31
0.0
  0
LINE
  5
53C
100
AcDbEntity
  8
2
 62
     2
100
AcDbLine
 10
-112.438273
 20
763.460659
 30
0.0
 11
-137.438273
 21
763.460659
 31
0.0
  0
LINE
  5
53D
100
AcDbEntity
  8
2
 62
     2
100
AcDbLine
 10
-112.438273
 20
741.084659
 30
0.0
 11
-137.438273
 21
741.084659
 31
0.0
  0
LINE
  5
53E
100
AcDbEntity
  8
2
100
AcDbLine
 10
-112.438273
 20
763.460659
 30
0.0
 11
-113.250273
 21
764.272659
 31
0.0
  0
LINE
  5
53F
100
AcDbEntity
  8
2
100
AcDbLine
 10
-112.438273
 20
741.084659
 30
0.0
 11
-113.250273
 21
740.272659
 31
0.0
  0
LINE
  5
540
100
AcDbEntity
  8
2
100
AcDbLine
 10
-113.250273
 20
764.272659
 30
0.0
 11
-113.250273
 21
740.272659
 31
0.0
  0
LINE
  5
541
100
AcDbEntity
  8
2
100
AcDbLine
 10
-158.438273
 20
486.272659
 30
0.0
 11
-191.438273
 21
486.272659
 31
0.0
  0
LINE
  5
542
100
AcDbEntity
  8
2
100
AcDbLine
 10
-158.438273
 20
531.256237
 30
0.0
 11
-191.438273
 21
531.256237
 31
0.0
  0
LINE
  5
543
100
AcDbEntity
  8
2
100
AcDbLine
 10
-158.438273
 20
737.289081
 30
0.0
 11
-191.438273
 21
737.289081
 31
0.0
  0
LINE
  5
544
100
AcDbEntity
  8
2
100
AcDbLine
 10
-158.438273
 20
782.272659
 30
0.0
 11
-191.438273
 21
782.272659
 31
0.0
  0
LINE
  5
545
100
AcDbEntity
  8
2
100
AcDbLine
 10
-158.438273
 20
483.131659
 30
0.0
 11
-158.438273
 21
788.044659
 31
0.0
  0
LINE
  5
546
100
AcDbEntity
  8
2
100
AcDbLine
 10
-806.438273
 20
674.272659
 30
0.0
 11
-844.438273
 21
674.272659
 31
0.0
  0
CIRCLE
  5
547
100
AcDbEntity
  8
2
 62
     2
100
AcDbCircle
 10
-826.438273
 20
649.272659
 30
0.0
 40
8.0
  0
CIRCLE
  5
548
100
AcDbEntity
  8
2
100
AcDbCircle
 10
-826.438273
 20
649.272659
 30
0.0
 40
6.9175
  0
LINE
  5
549
100
AcDbEntity
  8
2
100
AcDbLine
 10
-806.438273
 20
680.995659
 30
0.0
 11
-844.438273
 21
680.995659
 31
0.0
  0
LINE
  5
54A
100
AcDbEntity
  8
2
100
AcDbLine
 10
-146.438273
 20
770.272659
 30
0.0
 11
-146.438273
 21
789.272659
 31
0.0
  0
LINE
  5
54B
100
AcDbEntity
  8
2
100
AcDbLine
 10
-151.438273
 20
734.272659
 30
0.0
 11
-156.438273
 21
729.272659
 31
0.0
  0
ARC
  5
54C
100
AcDbEntity
  8
2
100
AcDbCircle
 10
-152.438273
 20
724.787378
 30
0.0
 40
6.0
100
AcDbArc
 50
165.667603
 51
180.0
  0
ARC
  5
54D
100
AcDbEntity
  8
2
100
AcDbCircle
 10
-148.438273
 20
789.272659
 30
0.0
 40
2.0
100
AcDbArc
 50
0.0
 51
90.0
  0
LINE
  5
54E
100
AcDbEntity
  8
2
100
AcDbLine
 10
-160.438273
 20
790.044659
 30
0.0
 11
-191.438273
 21
790.044659
 31
0.0
  0
ARC
  5
54F
100
AcDbEntity
  8
2
100
AcDbCircle
 10
-160.438273
 20
788.044659
 30
0.0
 40
2.0
100
AcDbArc
 50
0.0
 51
90.0
  0
LINE
  5
550
100
AcDbEntity
  8
2
100
AcDbLine
 10
-146.438273
 20
498.272659
 30
0.0
 11
-146.438273
 21
479.272659
 31
0.0
  0
LINE
  5
551
100
AcDbEntity
  8
2
100
AcDbLine
 10
-151.438273
 20
534.272659
 30
0.0
 11
-156.438273
 21
539.272659
 31
0.0
  0
ARC
  5
552
100
AcDbEntity
  8
2
100
AcDbCircle
 10
-152.438273
 20
543.757941
 30
0.0
 40
6.0
100
AcDbArc
 50
180.0
 51
194.332397
  0
ARC
  5
553
100
AcDbEntity
  8
2
100
AcDbCircle
 10
-148.438273
 20
479.272659
 30
0.0
 40
2.0
100
AcDbArc
 50
270.0
 51
360.0
  0
LINE
  5
554
100
AcDbEntity
  8
2
100
AcDbLine
 10
-160.438273
 20
481.131659
 30
0.0
 11
-191.438273
 21
481.131659
 31
0.0
  0
ARC
  5
555
100
AcDbEntity
  8
2
100
AcDbCircle
 10
-160.438273
 20
483.131659
 30
0.0
 40
2.0
100
AcDbArc
 50
270.0
 51
360.0
  0
LINE
  5
556
100
AcDbEntity
  8
2
100
AcDbLine
 10
-111.938273
 20
614.772659
 30
0.0
 11
-124.438273
 21
614.772659
 31
0.0
  0
LINE
  5
557
100
AcDbEntity
  8
2
100
AcDbLine
 10
-111.938273
 20
653.772659
 30
0.0
 11
-124.438273
 21
653.772659
 31
0.0
  0
LINE
  5
558
100
AcDbEntity
  8
2
100
AcDbLine
 10
-110.438273
 20
652.272659
 30
0.0
 11
-110.438273
 21
616.272659
 31
0.0
  0
LINE
  5
559
100
AcDbEntity
  8
2
100
AcDbLine
 10
-111.938273
 20
614.772659
 30
0.0
 11
-110.438273
 21
616.272659
 31
0.0
  0
LINE
  5
55A
100
AcDbEntity
  8
2
100
AcDbLine
 10
-111.938273
 20
653.772659
 30
0.0
 11
-110.438273
 21
652.272659
 31
0.0
  0
LINE
  5
55B
100
AcDbEntity
  8
2
100
AcDbLine
 10
-111.938273
 20
614.772659
 30
0.0
 11
-111.938273
 21
653.772659
 31
0.0
  0
LINE
  5
55C
100
AcDbEntity
  8
2
100
AcDbLine
 10
-143.887569
 20
668.922659
 30
0.0
 11
-127.988977
 21
668.922659
 31
0.0
  0
LINE
  5
55D
100
AcDbEntity
  8
2
100
AcDbLine
 10
-127.988977
 20
668.922659
 30
0.0
 11
-124.438273
 21
662.772659
 31
0.0
  0
LINE
  5
55E
100
AcDbEntity
  8
2
100
AcDbLine
 10
-124.438273
 20
662.772659
 30
0.0
 11
-124.438273
 21
605.772659
 31
0.0
  0
LINE
  5
55F
100
AcDbEntity
  8
2
100
AcDbLine
 10
-143.887569
 20
651.597659
 30
0.0
 11
-127.988977
 21
651.597659
 31
0.0
  0
ARC
  5
560
100
AcDbEntity
  8
2
100
AcDbCircle
 10
-139.124915
 20
660.260159
 30
0.0
 40
14.108438
100
AcDbArc
 50
322.121121
 51
37.878879
  0
LINE
  5
561
100
AcDbEntity
  8
2
100
AcDbLine
 10
-143.887569
 20
599.622659
 30
0.0
 11
-127.988977
 21
599.622659
 31
0.0
  0
LINE
  5
562
100
AcDbEntity
  8
2
100
AcDbLine
 10
-127.988977
 20
599.622659
 30
0.0
 11
-124.438273
 21
605.772659
 31
0.0
  0
LINE
  5
563
100
AcDbEntity
  8
2
100
AcDbLine
 10
-143.887569
 20
616.947659
 30
0.0
 11
-127.988977
 21
616.947659
 31
0.0
  0
ARC
  5
564
100
AcDbEntity
  8
2
100
AcDbCircle
 10
-139.124915
 20
608.285159
 30
0.0
 40
14.108438
100
AcDbArc
 50
322.121121
 51
37.878879
  0
ARC
  5
565
100
AcDbEntity
  8
2
100
AcDbCircle
 10
-176.991477
 20
634.272659
 30
0.0
 40
51.975
100
AcDbArc
 50
340.528779
 51
19.471221
  0
LINE
  5
566
100
AcDbEntity
  8
2
100
AcDbLine
 10
-143.887569
 20
668.922659
 30
0.0
 11
-147.438273
 21
662.772659
 31
0.0
  0
ARC
  5
567
100
AcDbEntity
  8
2
100
AcDbCircle
 10
-132.751631
 20
660.260159
 30
0.0
 40
14.108438
100
AcDbArc
 50
142.121121
 51
217.878879
  0
ARC
  5
568
100
AcDbEntity
  8
2
100
AcDbCircle
 10
-94.885069
 20
634.272659
 30
0.0
 40
51.975
100
AcDbArc
 50
160.528779
 51
199.471221
  0
LINE
  5
569
100
AcDbEntity
  8
2
100
AcDbLine
 10
-143.887569
 20
599.622659
 30
0.0
 11
-147.438273
 21
605.772659
 31
0.0
  0
ARC
  5
56A
100
AcDbEntity
  8
2
100
AcDbCircle
 10
-132.751631
 20
608.285159
 30
0.0
 40
14.108438
100
AcDbArc
 50
142.121121
 51
217.878879
  0
LINE
  5
56B
100
AcDbEntity
  8
2
 62
     2
100
AcDbLine
 10
-111.126273
 20
652.960659
 30
0.0
 11
-124.438273
 21
652.960659
 31
0.0
  0
LINE
  5
56C
100
AcDbEntity
  8
2
 62
     2
100
AcDbLine
 10
-111.126273
 20
615.584659
 30
0.0
 11
-124.438273
 21
615.584659
 31
0.0
  0
LINE
  5
56D
100
AcDbEntity
  8
2
100
AcDbLine
 10
-147.438273
 20
669.272659
 30
0.0
 11
-147.438273
 21
599.272659
 31
0.0
  0
LINE
  5
56E
100
AcDbEntity
  8
2
100
AcDbLine
 10
-147.438273
 20
599.272659
 30
0.0
 11
-156.438273
 21
599.272659
 31
0.0
  0
LINE
  5
56F
100
AcDbEntity
  8
2
100
AcDbLine
 10
-147.438273
 20
669.272659
 30
0.0
 11
-156.438273
 21
669.272659
 31
0.0
  0
LINE
  5
570
100
AcDbEntity
  8
2
100
AcDbLine
 10
-95.438273
 20
617.272659
 30
0.0
 11
-95.438273
 21
651.272659
 31
0.0
  0
LINE
  5
571
100
AcDbEntity
  8
2
100
AcDbLine
 10
-96.438273
 20
651.272659
 30
0.0
 11
-96.438273
 21
635.719081
 31
0.0
  0
LINE
  5
572
100
AcDbEntity
  8
2
100
AcDbLine
 10
-96.438273
 20
632.826238
 30
0.0
 11
-96.438273
 21
617.272659
 31
0.0
  0
CIRCLE
  5
573
100
AcDbEntity
  8
2
100
AcDbCircle
 10
-826.438273
 20
649.272659
 30
0.0
 40
17.0
  0
LINE
  5
574
100
AcDbEntity
  8
2
100
AcDbLine
 10
-1313.438273
 20
556.422659
 30
0.0
 11
-1325.0815
 21
556.422659
 31
0.0
  0
LINE
  5
575
100
AcDbEntity
  8
2
100
AcDbLine
 10
-1325.0815
 20
556.422659
 30
0.0
 11
-1326.438273
 21
558.772659
 31
0.0
  0
LINE
  5
576
100
AcDbEntity
  8
2
100
AcDbLine
 10
-1313.438273
 20
563.347659
 30
0.0
 11
-1325.0815
 21
563.347659
 31
0.0
  0
ARC
  5
577
100
AcDbEntity
  8
2
100
AcDbCircle
 10
-1320.630339
 20
559.885159
 30
0.0
 40
5.639303
100
AcDbArc
 50
142.121121
 51
217.878879
  0
ARC
  5
578
100
AcDbEntity
  8
2
100
AcDbCircle
 10
-1305.494642
 20
570.272659
 30
0.0
 40
20.775
100
AcDbArc
 50
160.528779
 51
199.471221
  0
LINE
  5
579
100
AcDbEntity
  8
2
100
AcDbLine
 10
-1313.438273
 20
584.122659
 30
0.0
 11
-1325.0815
 21
584.122659
 31
0.0
  0
LINE
  5
57A
100
AcDbEntity
  8
2
100
AcDbLine
 10
-1325.0815
 20
584.122659
 30
0.0
 11
-1326.438273
 21
581.772659
 31
0.0
  0
LINE
  5
57B
100
AcDbEntity
  8
2
100
AcDbLine
 10
-1326.438273
 20
581.772659
 30
0.0
 11
-1326.438273
 21
558.772659
 31
0.0
  0
LINE
  5
57C
100
AcDbEntity
  8
2
100
AcDbLine
 10
-1313.438273
 20
577.197659
 30
0.0
 11
-1325.0815
 21
577.197659
 31
0.0
  0
ARC
  5
57D
100
AcDbEntity
  8
2
100
AcDbCircle
 10
-1320.630339
 20
580.660159
 30
0.0
 40
5.639303
100
AcDbArc
 50
142.121121
 51
217.878879
  0
LINE
  5
57E
100
AcDbEntity
  8
2
100
AcDbLine
 10
-1313.438273
 20
712.122659
 30
0.0
 11
-1325.0815
 21
712.122659
 31
0.0
  0
LINE
  5
57F
100
AcDbEntity
  8
2
100
AcDbLine
 10
-1325.0815
 20
712.122659
 30
0.0
 11
-1326.438273
 21
709.772659
 31
0.0
  0
LINE
  5
580
100
AcDbEntity
  8
2
100
AcDbLine
 10
-1313.438273
 20
705.197659
 30
0.0
 11
-1325.0815
 21
705.197659
 31
0.0
  0
ARC
  5
581
100
AcDbEntity
  8
2
100
AcDbCircle
 10
-1320.630339
 20
708.660159
 30
0.0
 40
5.639303
100
AcDbArc
 50
142.121121
 51
217.878879
  0
ARC
  5
582
100
AcDbEntity
  8
2
100
AcDbCircle
 10
-1305.494642
 20
698.272659
 30
0.0
 40
20.775
100
AcDbArc
 50
160.528779
 51
199.471221
  0
LINE
  5
583
100
AcDbEntity
  8
2
100
AcDbLine
 10
-1313.438273
 20
684.422659
 30
0.0
 11
-1325.0815
 21
684.422659
 31
0.0
  0
LINE
  5
584
100
AcDbEntity
  8
2
100
AcDbLine
 10
-1325.0815
 20
684.422659
 30
0.0
 11
-1326.438273
 21
686.772659
 31
0.0
  0
LINE
  5
585
100
AcDbEntity
  8
2
100
AcDbLine
 10
-1326.438273
 20
686.772659
 30
0.0
 11
-1326.438273
 21
709.772659
 31
0.0
  0
LINE
  5
586
100
AcDbEntity
  8
2
100
AcDbLine
 10
-1313.438273
 20
691.347659
 30
0.0
 11
-1325.0815
 21
691.347659
 31
0.0
  0
ARC
  5
587
100
AcDbEntity
  8
2
100
AcDbCircle
 10
-1320.630339
 20
687.885159
 30
0.0
 40
5.639303
100
AcDbArc
 50
142.121121
 51
217.878879
  0
LINE
  5
588
100
AcDbEntity
  8
2
100
AcDbLine
 10
-156.438273
 20
534.272659
 30
0.0
 11
-137.438273
 21
534.272659
 31
0.0
  0
ARC
  5
589
100
AcDbEntity
  8
2
100
AcDbCircle
 10
-156.995254
 20
525.272659
 30
0.0
 40
19.556981
100
AcDbArc
 50
332.60039
 51
27.39961
  0
LINE
  5
58A
100
AcDbEntity
  8
2
100
AcDbLine
 10
-156.438273
 20
498.272659
 30
0.0
 11
-137.438273
 21
498.272659
 31
0.0
  0
LINE
  5
58B
100
AcDbEntity
  8
2
100
AcDbLine
 10
-137.438273
 20
498.272659
 30
0.0
 11
-137.438273
 21
534.272659
 31
0.0
  0
ARC
  5
58C
100
AcDbEntity
  8
2
100
AcDbCircle
 10
-156.995254
 20
507.272659
 30
0.0
 40
19.556981
100
AcDbArc
 50
332.60039
 51
27.39961
  0
ARC
  5
58D
100
AcDbEntity
  8
2
100
AcDbCircle
 10
-136.881292
 20
507.272659
 30
0.0
 40
19.556981
100
AcDbArc
 50
152.60039
 51
207.39961
  0
ARC
  5
58E
100
AcDbEntity
  8
2
100
AcDbCircle
 10
-136.881292
 20
525.272659
 30
0.0
 40
19.556981
100
AcDbArc
 50
152.60039
 51
207.39961
  0
LINE
  5
58F
100
AcDbEntity
  8
2
100
AcDbLine
 10
-154.244342
 20
516.272659
 30
0.0
 11
-139.632204
 21
516.272659
 31
0.0
  0
LINE
  5
590
100
AcDbEntity
  8
2
100
AcDbLine
 10
-156.438273
 20
734.272659
 30
0.0
 11
-137.438273
 21
734.272659
 31
0.0
  0
ARC
  5
591
100
AcDbEntity
  8
2
100
AcDbCircle
 10
-156.995254
 20
743.272659
 30
0.0
 40
19.556981
100
AcDbArc
 50
332.60039
 51
27.39961
  0
LINE
  5
592
100
AcDbEntity
  8
2
100
AcDbLine
 10
-156.438273
 20
770.272659
 30
0.0
 11
-137.438273
 21
770.272659
 31
0.0
  0
LINE
  5
593
100
AcDbEntity
  8
2
100
AcDbLine
 10
-137.438273
 20
770.272659
 30
0.0
 11
-137.438273
 21
734.272659
 31
0.0
  0
ARC
  5
594
100
AcDbEntity
  8
2
100
AcDbCircle
 10
-156.995254
 20
761.272659
 30
0.0
 40
19.556981
100
AcDbArc
 50
332.60039
 51
27.39961
  0
ARC
  5
595
100
AcDbEntity
  8
2
100
AcDbCircle
 10
-136.881292
 20
761.272659
 30
0.0
 40
19.556981
100
AcDbArc
 50
152.60039
 51
207.39961
  0
ARC
  5
596
100
AcDbEntity
  8
2
100
AcDbCircle
 10
-136.881292
 20
743.272659
 30
0.0
 40
19.556981
100
AcDbArc
 50
152.60039
 51
207.39961
  0
LINE
  5
597
100
AcDbEntity
  8
2
100
AcDbLine
 10
-154.244342
 20
752.272659
 30
0.0
 11
-139.632204
 21
752.272659
 31
0.0
  0
LINE
  5
598
100
AcDbEntity
  8
2
100
AcDbLine
 10
-96.438273
 20
632.826238
 30
0.0
 11
-110.438273
 21
632.826238
 31
0.0
  0
LINE
  5
599
100
AcDbEntity
  8
2
100
AcDbLine
 10
-96.438273
 20
635.719081
 30
0.0
 11
-110.438273
 21
635.719081
 31
0.0
  0
LINE
  5
59A
100
AcDbEntity
  8
2
100
AcDbLine
 10
-95.438273
 20
617.272659
 30
0.0
 11
-110.438273
 21
617.272659
 31
0.0
  0
LINE
  5
59B
100
AcDbEntity
  8
2
100
AcDbLine
 10
-95.438273
 20
651.272659
 30
0.0
 11
-110.438273
 21
651.272659
 31
0.0
  0
LINE
  5
59C
100
AcDbEntity
  8
2
100
AcDbLine
 10
-96.438273
 20
632.826238
 30
0.0
 11
-95.438273
 21
634.272659
 31
0.0
  0
LINE
  5
59D
100
AcDbEntity
  8
2
100
AcDbLine
 10
-96.438273
 20
635.719081
 30
0.0
 11
-95.438273
 21
634.272659
 31
0.0
  0
LINE
  5
59E
100
AcDbEntity
  8
2
 62
     2
100
AcDbLine
 10
-110.438273
 20
617.272659
 30
0.0
 11
-96.438273
 21
632.826238
 31
0.0
  0
LINE
  5
59F
100
AcDbEntity
  8
2
 62
     2
100
AcDbLine
 10
-96.438273
 20
617.272659
 30
0.0
 11
-110.438273
 21
632.826238
 31
0.0
  0
LINE
  5
5A0
100
AcDbEntity
  8
2
 62
     2
100
AcDbLine
 10
-110.438273
 20
651.272659
 30
0.0
 11
-96.438273
 21
635.719081
 31
0.0
  0
LINE
  5
5A1
100
AcDbEntity
  8
2
 62
     2
100
AcDbLine
 10
-110.438273
 20
635.719081
 30
0.0
 11
-96.438273
 21
651.272659
 31
0.0
  0
LINE
  5
5A2
100
AcDbEntity
  8
2
  6
CENTER
 62
     2
100
AcDbLine
 10
-960.438273
 20
796.411339
 30
0.0
 11
-960.438273
 21
541.365356
 31
0.0
  0
LINE
  5
5A3
100
AcDbEntity
  8
2
  6
CENTER
 62
     2
100
AcDbLine
 10
-62.737038
 20
634.272659
 30
0.0
 11
-1374.302872
 21
634.272659
 31
0.0
  0
LINE
  5
5A4
100
AcDbEntity
  8
2
  6
CENTER
 62
     2
100
AcDbLine
 10
-1054.438273
 20
684.272659
 30
0.0
 11
-1054.438273
 21
654.272659
 31
0.0
  0
LINE
  5
5A5
100
AcDbEntity
  8
2
  6
CENTER
 62
     2
100
AcDbLine
 10
-1039.438273
 20
669.272659
 30
0.0
 11
-1069.438273
 21
669.272659
 31
0.0
  0
LINE
  5
5A6
100
AcDbEntity
  8
2
  6
CENTER
 62
     2
100
AcDbLine
 10
-1054.438273
 20
648.272659
 30
0.0
 11
-1054.438273
 21
592.272659
 31
0.0
  0
LINE
  5
5A7
100
AcDbEntity
  8
2
  6
CENTER
 62
     2
100
AcDbLine
 10
-1039.438273
 20
633.272659
 30
0.0
 11
-1069.438273
 21
633.272659
 31
0.0
  0
LINE
  5
5A8
100
AcDbEntity
  8
2
  6
CENTER
 62
     2
100
AcDbLine
 10
-1039.438273
 20
607.272659
 30
0.0
 11
-1069.438273
 21
607.272659
 31
0.0
  0
LINE
  5
5A9
100
AcDbEntity
  8
2
  6
CENTER
 62
     2
100
AcDbLine
 10
-1054.438273
 20
586.272659
 30
0.0
 11
-1054.438273
 21
556.272659
 31
0.0
  0
LINE
  5
5AA
100
AcDbEntity
  8
2
  6
CENTER
 62
     2
100
AcDbLine
 10
-1039.438273
 20
571.272659
 30
0.0
 11
-1069.438273
 21
571.272659
 31
0.0
  0
LINE
  5
5AB
100
AcDbEntity
  8
2
  6
CENTER
 62
     2
100
AcDbLine
 10
-866.438273
 20
684.272659
 30
0.0
 11
-866.438273
 21
654.272659
 31
0.0
  0
LINE
  5
5AC
100
AcDbEntity
  8
2
  6
CENTER
 62
     2
100
AcDbLine
 10
-881.438273
 20
669.272659
 30
0.0
 11
-851.438273
 21
669.272659
 31
0.0
  0
LINE
  5
5AD
100
AcDbEntity
  8
2
  6
CENTER
 62
     2
100
AcDbLine
 10
-866.438273
 20
648.272659
 30
0.0
 11
-866.438273
 21
592.272659
 31
0.0
  0
LINE
  5
5AE
100
AcDbEntity
  8
2
  6
CENTER
 62
     2
100
AcDbLine
 10
-881.438273
 20
633.272659
 30
0.0
 11
-851.438273
 21
633.272659
 31
0.0
  0
LINE
  5
5AF
100
AcDbEntity
  8
2
  6
CENTER
 62
     2
100
AcDbLine
 10
-881.438273
 20
607.272659
 30
0.0
 11
-851.438273
 21
607.272659
 31
0.0
  0
LINE
  5
5B0
100
AcDbEntity
  8
2
  6
CENTER
 62
     2
100
AcDbLine
 10
-866.438273
 20
586.272659
 30
0.0
 11
-866.438273
 21
556.272659
 31
0.0
  0
LINE
  5
5B1
100
AcDbEntity
  8
2
  6
CENTER
 62
     2
100
AcDbLine
 10
-881.438273
 20
571.272659
 30
0.0
 11
-851.438273
 21
571.272659
 31
0.0
  0
LINE
  5
5B2
100
AcDbEntity
  8
2
  6
CENTER
 62
     2
100
AcDbLine
 10
-1051.322646
 20
570.272659
 30
0.0
 11
-1357.629271
 21
570.272659
 31
0.0
  0
LINE
  5
5B3
100
AcDbEntity
  8
2
  6
CENTER
 62
     2
100
AcDbLine
 10
-1051.322646
 20
698.272659
 30
0.0
 11
-1357.629271
 21
698.272659
 31
0.0
  0
LINE
  5
5B4
100
AcDbEntity
  8
2
  6
CENTER
 62
     2
100
AcDbLine
 10
-92.737008
 20
516.272659
 30
0.0
 11
-859.863503
 21
516.272659
 31
0.0
  0
LINE
  5
5B5
100
AcDbEntity
  8
2
  6
CENTER
 62
     2
100
AcDbLine
 10
-92.737008
 20
752.272659
 30
0.0
 11
-859.863503
 21
752.272659
 31
0.0
  0
LINE
  5
5B6
100
AcDbEntity
  8
2
  6
CENTER
 62
     2
100
AcDbLine
 10
-806.438273
 20
649.272659
 30
0.0
 11
-846.438273
 21
649.272659
 31
0.0
  0
LINE
  5
5B7
100
AcDbEntity
  8
2
  6
CENTER
 62
     2
100
AcDbLine
 10
-826.438273
 20
669.272659
 30
0.0
 11
-826.438273
 21
629.272659
 31
0.0
  0
LINE
  5
5B8
100
AcDbEntity
  8
2
  6
CENTER
 62
     2
100
AcDbLine
 10
-837.081424
 20
539.272659
 30
0.0
 11
-943.444529
 21
539.272659
 31
0.0
  0
LINE
  5
5B9
100
AcDbEntity
  8
2
100
AcDbLine
 10
-860.055751
 20
532.272659
 30
0.0
 11
-862.055751
 21
532.272659
 31
0.0
  0
LINE
  5
5BA
100
AcDbEntity
  8
2
100
AcDbLine
 10
-860.055751
 20
546.272659
 30
0.0
 11
-862.055751
 21
546.272659
 31
0.0
  0
LINE
  5
5BB
100
AcDbEntity
  8
2
100
AcDbLine
 10
-860.055751
 20
546.633875
 30
0.0
 11
-860.055751
 21
531.911443
 31
0.0
  0
LINE
  5
5BC
100
AcDbEntity
  8
2
100
AcDbLine
 10
-853.055751
 20
546.633875
 30
0.0
 11
-853.055751
 21
531.911443
 31
0.0
  0
LINE
  5
5BD
100
AcDbEntity
  8
2
100
AcDbLine
 10
-853.246131
 20
547.774217
 30
0.0
 11
-848.438273
 21
547.623972
 31
0.0
  0
LINE
  5
5BE
100
AcDbEntity
  8
2
 62
     2
100
AcDbLine
 10
-853.055751
 20
547.768268
 30
0.0
 11
-851.488273
 21
546.863284
 31
0.0
  0
LINE
  5
5BF
100
AcDbEntity
  8
2
 62
     2
100
AcDbLine
 10
-851.488273
 20
546.863284
 30
0.0
 11
-848.438273
 21
546.767972
 31
0.0
  0
LINE
  5
5C0
100
AcDbEntity
  8
2
100
AcDbLine
 10
-853.246131
 20
530.771101
 30
0.0
 11
-848.438273
 21
530.921347
 31
0.0
  0
LINE
  5
5C1
100
AcDbEntity
  8
2
100
AcDbLine
 10
-851.488273
 20
530.826034
 30
0.0
 11
-851.488273
 21
547.719284
 31
0.0
  0
LINE
  5
5C2
100
AcDbEntity
  8
2
 62
     2
100
AcDbLine
 10
-853.055751
 20
530.777051
 30
0.0
 11
-851.488273
 21
531.682034
 31
0.0
  0
LINE
  5
5C3
100
AcDbEntity
  8
2
 62
     2
100
AcDbLine
 10
-851.488273
 20
531.682034
 30
0.0
 11
-848.438273
 21
531.777347
 31
0.0
  0
LINE
  5
5C4
100
AcDbEntity
  8
2
100
AcDbLine
 10
-859.055751
 20
529.457705
 30
0.0
 11
-854.055751
 21
529.457705
 31
0.0
  0
LINE
  5
5C5
100
AcDbEntity
  8
2
100
AcDbLine
 10
-859.055751
 20
549.087614
 30
0.0
 11
-854.055751
 21
549.087614
 31
0.0
  0
LINE
  5
5C6
100
AcDbEntity
  8
2
100
AcDbLine
 10
-859.055751
 20
544.180137
 30
0.0
 11
-854.055751
 21
544.180137
 31
0.0
  0
LINE
  5
5C7
100
AcDbEntity
  8
2
100
AcDbLine
 10
-859.055751
 20
534.365182
 30
0.0
 11
-854.055751
 21
534.365182
 31
0.0
  0
LINE
  5
5C8
100
AcDbEntity
  8
2
100
AcDbLine
 10
-866.438273
 20
531.045418
 30
0.0
 11
-866.438273
 21
547.499901
 31
0.0
  0
LINE
  5
5C9
100
AcDbEntity
  8
2
100
AcDbLine
 10
-882.438273
 20
531.045418
 30
0.0
 11
-882.438273
 21
547.499901
 31
0.0
  0
LINE
  5
5CA
100
AcDbEntity
  8
2
100
AcDbLine
 10
-866.438273
 20
530.941659
 30
0.0
 11
-862.501356
 21
530.941659
 31
0.0
  0
LINE
  5
5CB
100
AcDbEntity
  8
2
100
AcDbLine
 10
-866.438273
 20
547.603659
 30
0.0
 11
-862.501356
 21
547.603659
 31
0.0
  0
LINE
  5
5CC
100
AcDbEntity
  8
2
 62
     2
100
AcDbLine
 10
-866.438273
 20
531.797659
 30
0.0
 11
-862.055751
 21
531.797659
 31
0.0
  0
LINE
  5
5CD
100
AcDbEntity
  8
2
 62
     2
100
AcDbLine
 10
-866.438273
 20
546.747659
 30
0.0
 11
-862.055751
 21
546.747659
 31
0.0
  0
ARC
  5
5CE
100
AcDbEntity
  8
2
100
AcDbCircle
 10
-847.514084
 20
539.272659
 30
0.0
 40
12.541667
100
AcDbArc
 50
156.964968
 51
203.035032
  0
ARC
  5
5CF
100
AcDbEntity
  8
2
100
AcDbCircle
 10
-865.597417
 20
539.272659
 30
0.0
 40
12.541667
100
AcDbArc
 50
336.964968
 51
23.035032
  0
ARC
  5
5D0
100
AcDbEntity
  8
2
100
AcDbCircle
 10
-856.545334
 20
546.633875
 30
0.0
 40
3.510417
100
AcDbArc
 50
135.654144
 51
224.345856
  0
ARC
  5
5D1
100
AcDbEntity
  8
2
100
AcDbCircle
 10
-856.545334
 20
531.911443
 30
0.0
 40
3.510417
100
AcDbArc
 50
135.654144
 51
224.345856
  0
ARC
  5
5D2
100
AcDbEntity
  8
2
100
AcDbCircle
 10
-856.566167
 20
546.633875
 30
0.0
 40
3.510417
100
AcDbArc
 50
315.654144
 51
44.345856
  0
ARC
  5
5D3
100
AcDbEntity
  8
2
100
AcDbCircle
 10
-856.566167
 20
531.911443
 30
0.0
 40
3.510417
100
AcDbArc
 50
315.654144
 51
44.345856
  0
LINE
  5
5D4
100
AcDbEntity
  8
2
100
AcDbLine
 10
-862.055751
 20
546.747659
 30
0.0
 11
-862.055751
 21
531.797659
 31
0.0
  0
LINE
  5
5D5
100
AcDbEntity
  8
2
100
AcDbLine
 10
-862.055751
 20
546.747659
 30
0.0
 11
-862.501356
 21
547.603659
 31
0.0
  0
LINE
  5
5D6
100
AcDbEntity
  8
2
100
AcDbLine
 10
-862.055751
 20
531.797659
 30
0.0
 11
-862.501356
 21
530.941659
 31
0.0
  0
LINE
  5
5D7
100
AcDbEntity
  8
2
100
AcDbLine
 10
-881.438273
 20
550.242314
 30
0.0
 11
-867.438273
 21
550.242314
 31
0.0
  0
LINE
  5
5D8
100
AcDbEntity
  8
2
100
AcDbLine
 10
-881.438273
 20
528.303004
 30
0.0
 11
-867.438273
 21
528.303004
 31
0.0
  0
LINE
  5
5D9
100
AcDbEntity
  8
2
100
AcDbLine
 10
-881.438273
 20
533.787832
 30
0.0
 11
-867.438273
 21
533.787832
 31
0.0
  0
LINE
  5
5DA
100
AcDbEntity
  8
2
100
AcDbLine
 10
-881.438273
 20
544.757487
 30
0.0
 11
-867.438273
 21
544.757487
 31
0.0
  0
ARC
  5
5DB
100
AcDbEntity
  8
2
100
AcDbCircle
 10
-866.896606
 20
539.272659
 30
0.0
 40
15.541667
100
AcDbArc
 50
159.334522
 51
200.665478
  0
ARC
  5
5DC
100
AcDbEntity
  8
2
100
AcDbCircle
 10
-881.97994
 20
539.272659
 30
0.0
 40
15.541667
100
AcDbArc
 50
339.334522
 51
20.665478
  0
ARC
  5
5DD
100
AcDbEntity
  8
2
100
AcDbCircle
 10
-870.69869
 20
547.499901
 30
0.0
 40
4.260417
100
AcDbArc
 50
319.932013
 51
40.067987
  0
ARC
  5
5DE
100
AcDbEntity
  8
2
100
AcDbCircle
 10
-878.177856
 20
547.499901
 30
0.0
 40
4.260417
100
AcDbArc
 50
139.932013
 51
220.067987
  0
ARC
  5
5DF
100
AcDbEntity
  8
2
100
AcDbCircle
 10
-878.177856
 20
531.045418
 30
0.0
 40
4.260417
100
AcDbArc
 50
139.932013
 51
220.067987
  0
ARC
  5
5E0
100
AcDbEntity
  8
2
100
AcDbCircle
 10
-870.69869
 20
531.045418
 30
0.0
 40
4.260417
100
AcDbArc
 50
319.932013
 51
40.067987
  0
LINE
  5
5E1
100
AcDbEntity
  8
2
100
AcDbLine
 10
-862.501356
 20
547.603659
 30
0.0
 11
-862.501356
 21
530.941659
 31
0.0
  0
LINE
  5
5E2
100
AcDbEntity
  8
2
  6
CENTER
 62
     2
100
AcDbLine
 10
-168.438273
 20
775.901488
 30
0.0
 11
-168.438273
 21
841.554614
 31
0.0
  0
LINE
  5
5E3
100
AcDbEntity
  8
2
  6
CENTER
 62
     2
100
AcDbLine
 10
-1311.438273
 20
701.137935
 30
0.0
 11
-1311.438273
 21
764.554614
 31
0.0
  0
LINE
  5
5E4
100
AcDbEntity
  8
2
100
AcDbLine
 10
-176.933882
 20
469.897015
 30
0.0
 11
-176.701048
 21
477.272659
 31
0.0
  0
LINE
  5
5E5
100
AcDbEntity
  8
2
100
AcDbLine
 10
-176.884898
 20
471.464493
 30
0.0
 11
-159.991648
 21
471.464493
 31
0.0
  0
LINE
  5
5E6
100
AcDbEntity
  8
2
 62
     2
100
AcDbLine
 10
-176.933882
 20
469.897015
 30
0.0
 11
-176.028898
 21
471.464493
 31
0.0
  0
LINE
  5
5E7
100
AcDbEntity
  8
2
 62
     2
100
AcDbLine
 10
-176.028898
 20
471.464493
 30
0.0
 11
-175.845255
 21
477.272659
 31
0.0
  0
LINE
  5
5E8
100
AcDbEntity
  8
2
100
AcDbLine
 10
-159.942664
 20
469.897015
 30
0.0
 11
-160.175498
 21
477.272659
 31
0.0
  0
LINE
  5
5E9
100
AcDbEntity
  8
2
 62
     2
100
AcDbLine
 10
-159.942664
 20
469.897015
 30
0.0
 11
-160.847648
 21
471.464493
 31
0.0
  0
LINE
  5
5EA
100
AcDbEntity
  8
2
 62
     2
100
AcDbLine
 10
-160.847648
 20
471.464493
 30
0.0
 11
-161.031291
 21
477.272659
 31
0.0
  0
LINE
  5
5EB
100
AcDbEntity
  8
2
  6
CENTER
 62
     2
100
AcDbLine
 10
-168.438273
 20
439.032179
 30
0.0
 11
-168.438273
 21
487.02068
 31
0.0
  0
LINE
  5
5EC
100
AcDbEntity
  8
2
100
AcDbLine
 10
-176.938273
 20
469.897015
 30
0.0
 11
-159.938273
 21
469.897015
 31
0.0
  0
LINE
  5
5ED
100
AcDbEntity
  8
2
100
AcDbLine
 10
-159.938273
 20
450.897015
 30
0.0
 11
-159.938273
 21
469.897015
 31
0.0
  0
LINE
  5
5EE
100
AcDbEntity
  8
2
100
AcDbLine
 10
-176.938273
 20
466.397015
 30
0.0
 11
-176.938273
 21
469.897015
 31
0.0
  0
LINE
  5
5EF
100
AcDbEntity
  8
2
100
AcDbLine
 10
-181.938273
 20
447.897015
 30
0.0
 11
-162.938273
 21
447.897015
 31
0.0
  0
LINE
  5
5F0
100
AcDbEntity
  8
2
100
AcDbLine
 10
-181.938273
 20
464.897015
 30
0.0
 11
-178.438273
 21
464.897015
 31
0.0
  0
ARC
  5
5F1
100
AcDbEntity
  8
2
100
AcDbCircle
 10
-162.938273
 20
450.897015
 30
0.0
 40
3.0
100
AcDbArc
 50
270.0
 51
360.0
  0
ARC
  5
5F2
100
AcDbEntity
  8
2
100
AcDbCircle
 10
-178.438273
 20
466.397015
 30
0.0
 40
1.5
100
AcDbArc
 50
270.0
 51
360.0
  0
LINE
  5
5F3
100
AcDbEntity
  8
2
100
AcDbLine
 10
-181.938273
 20
447.897015
 30
0.0
 11
-181.938273
 21
464.897015
 31
0.0
  0
LINE
  5
5F4
100
AcDbEntity
  8
2
100
AcDbLine
 10
-174.938273
 20
449.897015
 30
0.0
 11
-164.938273
 21
449.897015
 31
0.0
  0
LINE
  5
5F5
100
AcDbEntity
  8
2
100
AcDbLine
 10
-162.938273
 20
451.897015
 30
0.0
 11
-162.938273
 21
461.897015
 31
0.0
  0
LINE
  5
5F6
100
AcDbEntity
  8
2
100
AcDbLine
 10
-173.938273
 20
463.897015
 30
0.0
 11
-164.938273
 21
463.897015
 31
0.0
  0
LINE
  5
5F7
100
AcDbEntity
  8
2
100
AcDbLine
 10
-176.938273
 20
451.897015
 30
0.0
 11
-176.938273
 21
460.897015
 31
0.0
  0
ARC
  5
5F8
100
AcDbEntity
  8
2
100
AcDbCircle
 10
-164.938273
 20
451.897015
 30
0.0
 40
2.0
100
AcDbArc
 50
270.0
 51
360.0
  0
ARC
  5
5F9
100
AcDbEntity
  8
2
100
AcDbCircle
 10
-164.938273
 20
461.897015
 30
0.0
 40
2.0
100
AcDbArc
 50
0.0
 51
90.0
  0
ARC
  5
5FA
100
AcDbEntity
  8
2
100
AcDbCircle
 10
-174.938273
 20
451.897015
 30
0.0
 40
2.0
100
AcDbArc
 50
180.0
 51
270.0
  0
ARC
  5
5FB
100
AcDbEntity
  8
2
100
AcDbCircle
 10
-176.938273
 20
463.897015
 30
0.0
 40
3.0
100
AcDbArc
 50
270.0
 51
360.0
  0
LINE
  5
5FC
100
AcDbEntity
  8
2
100
AcDbLine
 10
-186.938273
 20
447.303748
 30
0.0
 11
-186.938273
 21
465.490282
 31
0.0
  0
LINE
  5
5FD
100
AcDbEntity
  8
2
100
AcDbLine
 10
-202.938273
 20
447.303748
 30
0.0
 11
-202.938273
 21
465.490282
 31
0.0
  0
LINE
  5
5FE
100
AcDbEntity
  8
2
100
AcDbLine
 10
-186.938273
 20
448.066015
 30
0.0
 11
-181.938273
 21
448.066015
 31
0.0
  0
LINE
  5
5FF
100
AcDbEntity
  8
2
100
AcDbLine
 10
-186.938273
 20
464.728015
 30
0.0
 11
-181.938273
 21
464.728015
 31
0.0
  0
LINE
  5
600
100
AcDbEntity
  8
2
 62
     2
100
AcDbLine
 10
-186.938273
 20
448.922015
 30
0.0
 11
-183.420909
 21
448.922015
 31
0.0
  0
LINE
  5
601
100
AcDbEntity
  8
2
 62
     2
100
AcDbLine
 10
-186.938273
 20
463.872015
 30
0.0
 11
-183.420909
 21
463.872015
 31
0.0
  0
LINE
  5
602
100
AcDbEntity
  8
2
 62
     2
100
AcDbLine
 10
-181.938273
 20
448.066015
 30
0.0
 11
-183.420909
 21
448.922015
 31
0.0
  0
LINE
  5
603
100
AcDbEntity
  8
2
 62
     2
100
AcDbLine
 10
-181.938273
 20
464.728015
 30
0.0
 11
-183.420909
 21
463.872015
 31
0.0
  0
LINE
  5
604
100
AcDbEntity
  8
2
100
AcDbLine
 10
-183.420909
 20
448.066015
 30
0.0
 11
-183.420909
 21
464.728015
 31
0.0
  0
LINE
  5
605
100
AcDbEntity
  8
2
100
AcDbLine
 10
-201.438273
 20
444.272659
 30
0.0
 11
-188.438273
 21
444.272659
 31
0.0
  0
LINE
  5
606
100
AcDbEntity
  8
2
100
AcDbLine
 10
-201.438273
 20
450.334837
 30
0.0
 11
-188.438273
 21
450.334837
 31
0.0
  0
LINE
  5
607
100
AcDbEntity
  8
2
100
AcDbLine
 10
-201.438273
 20
462.459193
 30
0.0
 11
-188.438273
 21
462.459193
 31
0.0
  0
LINE
  5
608
100
AcDbEntity
  8
2
100
AcDbLine
 10
-201.438273
 20
468.521371
 30
0.0
 11
-188.438273
 21
468.521371
 31
0.0
  0
ARC
  5
609
100
AcDbEntity
  8
2
100
AcDbCircle
 10
-199.125773
 20
447.303748
 30
0.0
 40
3.8125
100
AcDbArc
 50
127.340993
 51
232.659007
  0
ARC
  5
60A
100
AcDbEntity
  8
2
100
AcDbCircle
 10
-199.125773
 20
465.490282
 30
0.0
 40
3.8125
100
AcDbArc
 50
127.340993
 51
232.659007
  0
ARC
  5
60B
100
AcDbEntity
  8
2
100
AcDbCircle
 10
-190.750773
 20
447.303748
 30
0.0
 40
3.8125
100
AcDbArc
 50
307.340993
 51
52.659007
  0
ARC
  5
60C
100
AcDbEntity
  8
2
100
AcDbCircle
 10
-190.750773
 20
465.490282
 30
0.0
 40
3.8125
100
AcDbArc
 50
307.340993
 51
52.659007
  0
ARC
  5
60D
100
AcDbEntity
  8
2
100
AcDbCircle
 10
-189.938273
 20
456.397015
 30
0.0
 40
13.0
100
AcDbArc
 50
152.204228
 51
207.795772
  0
ARC
  5
60E
100
AcDbEntity
  8
2
100
AcDbCircle
 10
-199.938273
 20
456.397015
 30
0.0
 40
13.0
100
AcDbArc
 50
332.204228
 51
27.795772
  0
LINE
  5
60F
100
AcDbEntity
  8
2
  6
CENTER
 62
     2
100
AcDbLine
 10
-263.944529
 20
456.397015
 30
0.0
 11
-151.600114
 21
456.397015
 31
0.0
  0
LINE
  5
610
100
AcDbEntity
  8
2
100
AcDbLine
 10
-252.938273
 20
451.397015
 30
0.0
 11
-202.938273
 21
451.397015
 31
0.0
  0
LINE
  5
611
100
AcDbEntity
  8
2
100
AcDbLine
 10
-252.938273
 20
461.397015
 30
0.0
 11
-202.938273
 21
461.397015
 31
0.0
  0
ARC
  5
612
100
AcDbEntity
  8
2
100
AcDbCircle
 10
-248.608146
 20
453.897015
 30
0.0
 40
5.0
100
AcDbArc
 50
150.0
 51
210.0
  0
ARC
  5
613
100
AcDbEntity
  8
2
100
AcDbCircle
 10
-257.2684
 20
458.897015
 30
0.0
 40
5.0
100
AcDbArc
 50
330.0
 51
30.0
  0
LINE
  5
614
100
AcDbEntity
  8
2
100
AcDbLine
 10
-932.438273
 20
534.272659
 30
0.0
 11
-882.438273
 21
534.272659
 31
0.0
  0
LINE
  5
615
100
AcDbEntity
  8
2
100
AcDbLine
 10
-932.438273
 20
544.272659
 30
0.0
 11
-882.438273
 21
544.272659
 31
0.0
  0
ARC
  5
616
100
AcDbEntity
  8
2
100
AcDbCircle
 10
-928.108146
 20
536.772659
 30
0.0
 40
5.0
100
AcDbArc
 50
150.0
 51
210.0
  0
ARC
  5
617
100
AcDbEntity
  8
2
100
AcDbCircle
 10
-936.7684
 20
541.772659
 30
0.0
 40
5.0
100
AcDbArc
 50
330.0
 51
30.0
  0
LINE
  5
618
100
AcDbEntity
  8
2
  6
CENTER
 62
     2
100
AcDbLine
 10
-1086.438273
 20
573.226009
 30
0.0
 11
-1086.438273
 21
516.032179
 31
0.0
  0
LINE
  5
619
100
AcDbEntity
  8
2
100
AcDbLine
 10
-1077.942664
 20
546.897015
 30
0.0
 11
-1078.175498
 21
554.272659
 31
0.0
  0
LINE
  5
61A
100
AcDbEntity
  8
2
100
AcDbLine
 10
-1077.991648
 20
548.464493
 30
0.0
 11
-1094.884898
 21
548.464493
 31
0.0
  0
LINE
  5
61B
100
AcDbEntity
  8
2
 62
     2
100
AcDbLine
 10
-1077.942664
 20
546.897015
 30
0.0
 11
-1078.847648
 21
548.464493
 31
0.0
  0
LINE
  5
61C
100
AcDbEntity
  8
2
 62
     2
100
AcDbLine
 10
-1078.847648
 20
548.464493
 30
0.0
 11
-1079.031291
 21
554.272659
 31
0.0
  0
LINE
  5
61D
100
AcDbEntity
  8
2
100
AcDbLine
 10
-1094.933882
 20
546.897015
 30
0.0
 11
-1094.701048
 21
554.272659
 31
0.0
  0
LINE
  5
61E
100
AcDbEntity
  8
2
 62
     2
100
AcDbLine
 10
-1094.933882
 20
546.897015
 30
0.0
 11
-1094.028898
 21
548.464493
 31
0.0
  0
LINE
  5
61F
100
AcDbEntity
  8
2
 62
     2
100
AcDbLine
 10
-1094.028898
 20
548.464493
 30
0.0
 11
-1093.845255
 21
554.272659
 31
0.0
  0
LINE
  5
620
100
AcDbEntity
  8
2
100
AcDbLine
 10
-1077.938273
 20
546.897015
 30
0.0
 11
-1094.938273
 21
546.897015
 31
0.0
  0
LINE
  5
621
100
AcDbEntity
  8
2
100
AcDbLine
 10
-1094.938273
 20
527.897015
 30
0.0
 11
-1094.938273
 21
546.897015
 31
0.0
  0
LINE
  5
622
100
AcDbEntity
  8
2
100
AcDbLine
 10
-1077.938273
 20
543.397015
 30
0.0
 11
-1077.938273
 21
546.897015
 31
0.0
  0
LINE
  5
623
100
AcDbEntity
  8
2
100
AcDbLine
 10
-1072.938273
 20
524.897015
 30
0.0
 11
-1091.938273
 21
524.897015
 31
0.0
  0
LINE
  5
624
100
AcDbEntity
  8
2
100
AcDbLine
 10
-1072.938273
 20
541.897015
 30
0.0
 11
-1076.438273
 21
541.897015
 31
0.0
  0
ARC
  5
625
100
AcDbEntity
  8
2
100
AcDbCircle
 10
-1091.938273
 20
527.897015
 30
0.0
 40
3.0
100
AcDbArc
 50
180.0
 51
270.0
  0
ARC
  5
626
100
AcDbEntity
  8
2
100
AcDbCircle
 10
-1076.438273
 20
543.397015
 30
0.0
 40
1.5
100
AcDbArc
 50
180.0
 51
270.0
  0
LINE
  5
627
100
AcDbEntity
  8
2
100
AcDbLine
 10
-1072.938273
 20
524.897015
 30
0.0
 11
-1072.938273
 21
541.897015
 31
0.0
  0
LINE
  5
628
100
AcDbEntity
  8
2
100
AcDbLine
 10
-1079.938273
 20
526.897015
 30
0.0
 11
-1089.938273
 21
526.897015
 31
0.0
  0
LINE
  5
629
100
AcDbEntity
  8
2
100
AcDbLine
 10
-1091.938273
 20
528.897015
 30
0.0
 11
-1091.938273
 21
538.897015
 31
0.0
  0
LINE
  5
62A
100
AcDbEntity
  8
2
100
AcDbLine
 10
-1080.938273
 20
540.897015
 30
0.0
 11
-1089.938273
 21
540.897015
 31
0.0
  0
LINE
  5
62B
100
AcDbEntity
  8
2
100
AcDbLine
 10
-1077.938273
 20
528.897015
 30
0.0
 11
-1077.938273
 21
537.897015
 31
0.0
  0
ARC
  5
62C
100
AcDbEntity
  8
2
100
AcDbCircle
 10
-1089.938273
 20
528.897015
 30
0.0
 40
2.0
100
AcDbArc
 50
180.0
 51
270.0
  0
ARC
  5
62D
100
AcDbEntity
  8
2
100
AcDbCircle
 10
-1089.938273
 20
538.897015
 30
0.0
 40
2.0
100
AcDbArc
 50
90.0
 51
180.0
  0
ARC
  5
62E
100
AcDbEntity
  8
2
100
AcDbCircle
 10
-1079.938273
 20
528.897015
 30
0.0
 40
2.0
100
AcDbArc
 50
270.0
 51
360.0
  0
ARC
  5
62F
100
AcDbEntity
  8
2
100
AcDbCircle
 10
-1077.938273
 20
540.897015
 30
0.0
 40
3.0
100
AcDbArc
 50
180.0
 51
270.0
  0
LINE
  5
630
100
AcDbEntity
  8
2
100
AcDbLine
 10
-1067.938273
 20
524.303748
 30
0.0
 11
-1067.938273
 21
542.490282
 31
0.0
  0
LINE
  5
631
100
AcDbEntity
  8
2
100
AcDbLine
 10
-1051.938273
 20
524.303748
 30
0.0
 11
-1051.938273
 21
542.490282
 31
0.0
  0
LINE
  5
632
100
AcDbEntity
  8
2
100
AcDbLine
 10
-1067.938273
 20
525.066015
 30
0.0
 11
-1072.938273
 21
525.066015
 31
0.0
  0
LINE
  5
633
100
AcDbEntity
  8
2
100
AcDbLine
 10
-1067.938273
 20
541.728015
 30
0.0
 11
-1072.938273
 21
541.728015
 31
0.0
  0
LINE
  5
634
100
AcDbEntity
  8
2
 62
     2
100
AcDbLine
 10
-1067.938273
 20
525.922015
 30
0.0
 11
-1071.455638
 21
525.922015
 31
0.0
  0
LINE
  5
635
100
AcDbEntity
  8
2
 62
     2
100
AcDbLine
 10
-1067.938273
 20
540.872015
 30
0.0
 11
-1071.455638
 21
540.872015
 31
0.0
  0
LINE
  5
636
100
AcDbEntity
  8
2
 62
     2
100
AcDbLine
 10
-1072.938273
 20
525.066015
 30
0.0
 11
-1071.455638
 21
525.922015
 31
0.0
  0
LINE
  5
637
100
AcDbEntity
  8
2
 62
     2
100
AcDbLine
 10
-1072.938273
 20
541.728015
 30
0.0
 11
-1071.455638
 21
540.872015
 31
0.0
  0
LINE
  5
638
100
AcDbEntity
  8
2
100
AcDbLine
 10
-1071.455638
 20
525.066015
 30
0.0
 11
-1071.455638
 21
541.728015
 31
0.0
  0
LINE
  5
639
100
AcDbEntity
  8
2
100
AcDbLine
 10
-1053.438273
 20
521.272659
 30
0.0
 11
-1066.438273
 21
521.272659
 31
0.0
  0
LINE
  5
63A
100
AcDbEntity
  8
2
100
AcDbLine
 10
-1053.438273
 20
527.334837
 30
0.0
 11
-1066.438273
 21
527.334837
 31
0.0
  0
LINE
  5
63B
100
AcDbEntity
  8
2
100
AcDbLine
 10
-1053.438273
 20
539.459193
 30
0.0
 11
-1066.438273
 21
539.459193
 31
0.0
  0
LINE
  5
63C
100
AcDbEntity
  8
2
100
AcDbLine
 10
-1053.438273
 20
545.521371
 30
0.0
 11
-1066.438273
 21
545.521371
 31
0.0
  0
ARC
  5
63D
100
AcDbEntity
  8
2
100
AcDbCircle
 10
-1055.750773
 20
524.303748
 30
0.0
 40
3.8125
100
AcDbArc
 50
307.340993
 51
52.659007
  0
ARC
  5
63E
100
AcDbEntity
  8
2
100
AcDbCircle
 10
-1055.750773
 20
542.490282
 30
0.0
 40
3.8125
100
AcDbArc
 50
307.340993
 51
52.659007
  0
ARC
  5
63F
100
AcDbEntity
  8
2
100
AcDbCircle
 10
-1064.125773
 20
524.303748
 30
0.0
 40
3.8125
100
AcDbArc
 50
127.340993
 51
232.659007
  0
ARC
  5
640
100
AcDbEntity
  8
2
100
AcDbCircle
 10
-1064.125773
 20
542.490282
 30
0.0
 40
3.8125
100
AcDbArc
 50
127.340993
 51
232.659007
  0
ARC
  5
641
100
AcDbEntity
  8
2
100
AcDbCircle
 10
-1064.938273
 20
533.397015
 30
0.0
 40
13.0
100
AcDbArc
 50
332.204228
 51
27.795772
  0
ARC
  5
642
100
AcDbEntity
  8
2
100
AcDbCircle
 10
-1054.938273
 20
533.397015
 30
0.0
 40
13.0
100
AcDbArc
 50
152.204228
 51
207.795772
  0
LINE
  5
643
100
AcDbEntity
  8
2
  6
CENTER
 62
     2
100
AcDbLine
 10
-990.932017
 20
533.397015
 30
0.0
 11
-1103.276433
 21
533.397015
 31
0.0
  0
LINE
  5
644
100
AcDbEntity
  8
2
100
AcDbLine
 10
-1001.938273
 20
528.397015
 30
0.0
 11
-1051.938273
 21
528.397015
 31
0.0
  0
LINE
  5
645
100
AcDbEntity
  8
2
100
AcDbLine
 10
-1001.938273
 20
538.397015
 30
0.0
 11
-1051.938273
 21
538.397015
 31
0.0
  0
ARC
  5
646
100
AcDbEntity
  8
2
100
AcDbCircle
 10
-1006.2684
 20
530.897015
 30
0.0
 40
5.0
100
AcDbArc
 50
330.0
 51
30.0
  0
ARC
  5
647
100
AcDbEntity
  8
2
100
AcDbCircle
 10
-997.608146
 20
535.897015
 30
0.0
 40
5.0
100
AcDbArc
 50
150.0
 51
210.0
  0
LINE
  5
648
100
AcDbEntity
  8
2
  6
CENTER
 62
     2
100
AcDbLine
 10
-1311.438273
 20
573.226009
 30
0.0
 11
-1311.438273
 21
516.032179
 31
0.0
  0
LINE
  5
649
100
AcDbEntity
  8
2
100
AcDbLine
 10
-1302.942664
 20
546.897015
 30
0.0
 11
-1303.112362
 21
552.272659
 31
0.0
  0
LINE
  5
64A
100
AcDbEntity
  8
2
100
AcDbLine
 10
-1302.991648
 20
548.464493
 30
0.0
 11
-1319.884898
 21
548.464493
 31
0.0
  0
LINE
  5
64B
100
AcDbEntity
  8
2
 62
     2
100
AcDbLine
 10
-1302.942664
 20
546.897015
 30
0.0
 11
-1303.847648
 21
548.464493
 31
0.0
  0
LINE
  5
64C
100
AcDbEntity
  8
2
 62
     2
100
AcDbLine
 10
-1303.847648
 20
548.464493
 30
0.0
 11
-1303.968055
 21
552.272659
 31
0.0
  0
LINE
  5
64D
100
AcDbEntity
  8
2
100
AcDbLine
 10
-1319.933882
 20
546.897015
 30
0.0
 11
-1319.701048
 21
554.272659
 31
0.0
  0
LINE
  5
64E
100
AcDbEntity
  8
2
 62
     2
100
AcDbLine
 10
-1319.933882
 20
546.897015
 30
0.0
 11
-1319.028898
 21
548.464493
 31
0.0
  0
LINE
  5
64F
100
AcDbEntity
  8
2
 62
     2
100
AcDbLine
 10
-1319.028898
 20
548.464493
 30
0.0
 11
-1318.845255
 21
554.272659
 31
0.0
  0
LINE
  5
650
100
AcDbEntity
  8
2
100
AcDbLine
 10
-1302.938273
 20
546.897015
 30
0.0
 11
-1319.938273
 21
546.897015
 31
0.0
  0
LINE
  5
651
100
AcDbEntity
  8
2
100
AcDbLine
 10
-1319.938273
 20
527.897015
 30
0.0
 11
-1319.938273
 21
546.897015
 31
0.0
  0
LINE
  5
652
100
AcDbEntity
  8
2
100
AcDbLine
 10
-1302.938273
 20
543.397015
 30
0.0
 11
-1302.938273
 21
546.897015
 31
0.0
  0
LINE
  5
653
100
AcDbEntity
  8
2
100
AcDbLine
 10
-1297.938273
 20
524.897015
 30
0.0
 11
-1316.938273
 21
524.897015
 31
0.0
  0
LINE
  5
654
100
AcDbEntity
  8
2
100
AcDbLine
 10
-1297.938273
 20
541.897015
 30
0.0
 11
-1301.438273
 21
541.897015
 31
0.0
  0
ARC
  5
655
100
AcDbEntity
  8
2
100
AcDbCircle
 10
-1316.938273
 20
527.897015
 30
0.0
 40
3.0
100
AcDbArc
 50
180.0
 51
270.0
  0
ARC
  5
656
100
AcDbEntity
  8
2
100
AcDbCircle
 10
-1301.438273
 20
543.397015
 30
0.0
 40
1.5
100
AcDbArc
 50
180.0
 51
270.0
  0
LINE
  5
657
100
AcDbEntity
  8
2
100
AcDbLine
 10
-1297.938273
 20
524.897015
 30
0.0
 11
-1297.938273
 21
541.897015
 31
0.0
  0
LINE
  5
658
100
AcDbEntity
  8
2
100
AcDbLine
 10
-1304.938273
 20
526.897015
 30
0.0
 11
-1314.938273
 21
526.897015
 31
0.0
  0
LINE
  5
659
100
AcDbEntity
  8
2
100
AcDbLine
 10
-1316.938273
 20
528.897015
 30
0.0
 11
-1316.938273
 21
538.897015
 31
0.0
  0
LINE
  5
65A
100
AcDbEntity
  8
2
100
AcDbLine
 10
-1305.938273
 20
540.897015
 30
0.0
 11
-1314.938273
 21
540.897015
 31
0.0
  0
LINE
  5
65B
100
AcDbEntity
  8
2
100
AcDbLine
 10
-1302.938273
 20
528.897015
 30
0.0
 11
-1302.938273
 21
537.897015
 31
0.0
  0
ARC
  5
65C
100
AcDbEntity
  8
2
100
AcDbCircle
 10
-1314.938273
 20
528.897015
 30
0.0
 40
2.0
100
AcDbArc
 50
180.0
 51
270.0
  0
ARC
  5
65D
100
AcDbEntity
  8
2
100
AcDbCircle
 10
-1314.938273
 20
538.897015
 30
0.0
 40
2.0
100
AcDbArc
 50
90.0
 51
180.0
  0
ARC
  5
65E
100
AcDbEntity
  8
2
100
AcDbCircle
 10
-1304.938273
 20
528.897015
 30
0.0
 40
2.0
100
AcDbArc
 50
270.0
 51
360.0
  0
ARC
  5
65F
100
AcDbEntity
  8
2
100
AcDbCircle
 10
-1302.938273
 20
540.897015
 30
0.0
 40
3.0
100
AcDbArc
 50
180.0
 51
270.0
  0
LINE
  5
660
100
AcDbEntity
  8
2
100
AcDbLine
 10
-1292.938273
 20
524.303748
 30
0.0
 11
-1292.938273
 21
542.490282
 31
0.0
  0
LINE
  5
661
100
AcDbEntity
  8
2
100
AcDbLine
 10
-1276.938273
 20
524.303748
 30
0.0
 11
-1276.938273
 21
542.490282
 31
0.0
  0
LINE
  5
662
100
AcDbEntity
  8
2
100
AcDbLine
 10
-1292.938273
 20
525.066015
 30
0.0
 11
-1297.938273
 21
525.066015
 31
0.0
  0
LINE
  5
663
100
AcDbEntity
  8
2
100
AcDbLine
 10
-1292.938273
 20
541.728015
 30
0.0
 11
-1297.938273
 21
541.728015
 31
0.0
  0
LINE
  5
664
100
AcDbEntity
  8
2
 62
     2
100
AcDbLine
 10
-1292.938273
 20
525.922015
 30
0.0
 11
-1296.455638
 21
525.922015
 31
0.0
  0
LINE
  5
665
100
AcDbEntity
  8
2
 62
     2
100
AcDbLine
 10
-1292.938273
 20
540.872015
 30
0.0
 11
-1296.455638
 21
540.872015
 31
0.0
  0
LINE
  5
666
100
AcDbEntity
  8
2
 62
     2
100
AcDbLine
 10
-1297.938273
 20
525.066015
 30
0.0
 11
-1296.455638
 21
525.922015
 31
0.0
  0
LINE
  5
667
100
AcDbEntity
  8
2
 62
     2
100
AcDbLine
 10
-1297.938273
 20
541.728015
 30
0.0
 11
-1296.455638
 21
540.872015
 31
0.0
  0
LINE
  5
668
100
AcDbEntity
  8
2
100
AcDbLine
 10
-1296.455638
 20
525.066015
 30
0.0
 11
-1296.455638
 21
541.728015
 31
0.0
  0
LINE
  5
669
100
AcDbEntity
  8
2
100
AcDbLine
 10
-1278.438273
 20
521.272659
 30
0.0
 11
-1291.438273
 21
521.272659
 31
0.0
  0
LINE
  5
66A
100
AcDbEntity
  8
2
100
AcDbLine
 10
-1278.438273
 20
527.334837
 30
0.0
 11
-1291.438273
 21
527.334837
 31
0.0
  0
LINE
  5
66B
100
AcDbEntity
  8
2
100
AcDbLine
 10
-1278.438273
 20
539.459193
 30
0.0
 11
-1291.438273
 21
539.459193
 31
0.0
  0
LINE
  5
66C
100
AcDbEntity
  8
2
100
AcDbLine
 10
-1278.438273
 20
545.521371
 30
0.0
 11
-1291.438273
 21
545.521371
 31
0.0
  0
ARC
  5
66D
100
AcDbEntity
  8
2
100
AcDbCircle
 10
-1280.750773
 20
524.303748
 30
0.0
 40
3.8125
100
AcDbArc
 50
307.340993
 51
52.659007
  0
ARC
  5
66E
100
AcDbEntity
  8
2
100
AcDbCircle
 10
-1280.750773
 20
542.490282
 30
0.0
 40
3.8125
100
AcDbArc
 50
307.340993
 51
52.659007
  0
ARC
  5
66F
100
AcDbEntity
  8
2
100
AcDbCircle
 10
-1289.125773
 20
524.303748
 30
0.0
 40
3.8125
100
AcDbArc
 50
127.340993
 51
232.659007
  0
ARC
  5
670
100
AcDbEntity
  8
2
100
AcDbCircle
 10
-1289.125773
 20
542.490282
 30
0.0
 40
3.8125
100
AcDbArc
 50
127.340993
 51
232.659007
  0
ARC
  5
671
100
AcDbEntity
  8
2
100
AcDbCircle
 10
-1289.938273
 20
533.397015
 30
0.0
 40
13.0
100
AcDbArc
 50
332.204228
 51
27.795772
  0
ARC
  5
672
100
AcDbEntity
  8
2
100
AcDbCircle
 10
-1279.938273
 20
533.397015
 30
0.0
 40
13.0
100
AcDbArc
 50
152.204228
 51
207.795772
  0
LINE
  5
673
100
AcDbEntity
  8
2
  6
CENTER
 62
     2
100
AcDbLine
 10
-1215.932017
 20
533.397015
 30
0.0
 11
-1328.276433
 21
533.397015
 31
0.0
  0
LINE
  5
674
100
AcDbEntity
  8
2
100
AcDbLine
 10
-1226.938273
 20
528.397015
 30
0.0
 11
-1276.938273
 21
528.397015
 31
0.0
  0
LINE
  5
675
100
AcDbEntity
  8
2
100
AcDbLine
 10
-1226.938273
 20
538.397015
 30
0.0
 11
-1276.938273
 21
538.397015
 31
0.0
  0
ARC
  5
676
100
AcDbEntity
  8
2
100
AcDbCircle
 10
-1231.2684
 20
530.897015
 30
0.0
 40
5.0
100
AcDbArc
 50
330.0
 51
30.0
  0
ARC
  5
677
100
AcDbEntity
  8
2
100
AcDbCircle
 10
-1222.608146
 20
535.897015
 30
0.0
 40
5.0
100
AcDbArc
 50
150.0
 51
210.0
  0
LINE
  5
678
100
AcDbEntity
  8
2
100
AcDbLine
 10
-1315.438273
 20
659.272659
 30
0.0
 11
-1315.438273
 21
609.272659
 31
0.0
  0
LINE
  5
679
100
AcDbEntity
  8
2
100
AcDbLine
 10
-1315.438273
 20
659.272659
 30
0.0
 11
-1312.938273
 21
660.716035
 31
0.0
  0
LINE
  5
67A
100
AcDbEntity
  8
2
100
AcDbLine
 10
-1315.438273
 20
609.272659
 30
0.0
 11
-1312.938273
 21
607.829284
 31
0.0
  0
ARC
  5
67B
100
AcDbEntity
  8
2
100
AcDbCircle
 10
-1314.438273
 20
605.231207
 30
0.0
 40
3.0
100
AcDbArc
 50
0.0
 51
60.0
  0
ARC
  5
67C
100
AcDbEntity
  8
2
100
AcDbCircle
 10
-1314.438273
 20
663.314111
 30
0.0
 40
3.0
100
AcDbArc
 50
300.0
 51
0.0
  0
LINE
  5
67D
100
AcDbEntity
  8
2
100
AcDbLine
 10
-1318.438273
 20
655.672659
 30
0.0
 11
-1318.438273
 21
612.872659
 31
0.0
  0
LINE
  5
67E
100
AcDbEntity
  8
2
100
AcDbLine
 10
-1315.438273
 20
612.872659
 30
0.0
 11
-1318.438273
 21
612.872659
 31
0.0
  0
LINE
  5
67F
100
AcDbEntity
  8
2
100
AcDbLine
 10
-1315.438273
 20
655.672659
 30
0.0
 11
-1318.438273
 21
655.672659
 31
0.0
  0
LINE
  5
680
100
AcDbEntity
  8
2
100
AcDbLine
 10
-1318.438273
 20
616.272659
 30
0.0
 11
-1337.438273
 21
616.272659
 31
0.0
  0
LINE
  5
681
100
AcDbEntity
  8
2
100
AcDbLine
 10
-1337.438273
 20
616.272659
 30
0.0
 11
-1337.438273
 21
652.272659
 31
0.0
  0
ARC
  5
682
100
AcDbEntity
  8
2
100
AcDbCircle
 10
-1317.881292
 20
625.272659
 30
0.0
 40
19.556981
100
AcDbArc
 50
152.60039
 51
207.39961
  0
LINE
  5
683
100
AcDbEntity
  8
2
100
AcDbLine
 10
-1318.438273
 20
652.272659
 30
0.0
 11
-1337.438273
 21
652.272659
 31
0.0
  0
ARC
  5
684
100
AcDbEntity
  8
2
100
AcDbCircle
 10
-1317.881292
 20
643.272659
 30
0.0
 40
19.556981
100
AcDbArc
 50
152.60039
 51
207.39961
  0
LINE
  5
685
100
AcDbEntity
  8
2
100
AcDbLine
 10
-1335.244342
 20
634.272659
 30
0.0
 11
-1318.438273
 21
634.272659
 31
0.0
  0
LINE
  5
686
100
AcDbEntity
  8
2
100
AcDbLine
 10
-1350.438273
 20
644.648659
 30
0.0
 11
-1348.814273
 21
646.272659
 31
0.0
  0
LINE
  5
687
100
AcDbEntity
  8
2
100
AcDbLine
 10
-1348.814273
 20
646.272659
 30
0.0
 11
-1337.438273
 21
646.272659
 31
0.0
  0
LINE
  5
688
100
AcDbEntity
  8
2
 62
     2
100
AcDbLine
 10
-1350.438273
 20
644.648659
 30
0.0
 11
-1337.438273
 21
644.648659
 31
0.0
  0
LINE
  5
689
100
AcDbEntity
  8
2
100
AcDbLine
 10
-1350.438273
 20
644.648659
 30
0.0
 11
-1350.438273
 21
623.896659
 31
0.0
  0
LINE
  5
68A
100
AcDbEntity
  8
2
100
AcDbLine
 10
-1350.438273
 20
623.896659
 30
0.0
 11
-1348.814273
 21
622.272659
 31
0.0
  0
LINE
  5
68B
100
AcDbEntity
  8
2
100
AcDbLine
 10
-1348.814273
 20
622.272659
 30
0.0
 11
-1337.438273
 21
622.272659
 31
0.0
  0
LINE
  5
68C
100
AcDbEntity
  8
2
100
AcDbLine
 10
-1348.814273
 20
622.272659
 30
0.0
 11
-1348.814273
 21
646.272659
 31
0.0
  0
LINE
  5
68D
100
AcDbEntity
  8
2
 62
     2
100
AcDbLine
 10
-1350.438273
 20
623.896659
 30
0.0
 11
-1337.438273
 21
623.896659
 31
0.0
  0
LINE
  5
68E
100
AcDbEntity
  8
2
  6
CENTER
 62
     2
100
AcDbLine
 10
-147.208659
 20
819.272659
 30
0.0
 11
-190.323023
 21
819.272659
 31
0.0
  0
LINE
  5
68F
100
AcDbEntity
  8
2
100
AcDbLine
 10
-161.438273
 20
798.872659
 30
0.0
 11
-161.438273
 21
803.772659
 31
0.0
  0
LINE
  5
690
100
AcDbEntity
  8
2
100
AcDbLine
 10
-175.438273
 20
798.872659
 30
0.0
 11
-175.438273
 21
803.772659
 31
0.0
  0
LINE
  5
691
100
AcDbEntity
  8
2
100
AcDbLine
 10
-160.724211
 20
798.272659
 30
0.0
 11
-176.152336
 21
798.272659
 31
0.0
  0
LINE
  5
692
100
AcDbEntity
  8
2
100
AcDbLine
 10
-176.982396
 20
797.442599
 30
0.0
 11
-176.789586
 21
791.272659
 31
0.0
  0
LINE
  5
693
100
AcDbEntity
  8
2
 62
     2
100
AcDbLine
 10
-176.152336
 20
798.272659
 30
0.0
 11
-175.933586
 21
791.272659
 31
0.0
  0
LINE
  5
694
100
AcDbEntity
  8
2
100
AcDbLine
 10
-159.89415
 20
797.442599
 30
0.0
 11
-160.086961
 21
791.272659
 31
0.0
  0
LINE
  5
695
100
AcDbEntity
  8
2
 62
     2
100
AcDbLine
 10
-160.724211
 20
798.272659
 30
0.0
 11
-160.942961
 21
791.272659
 31
0.0
  0
LINE
  5
696
100
AcDbEntity
  8
2
100
AcDbLine
 10
-160.724211
 20
798.272659
 30
0.0
 11
-159.89415
 21
797.442599
 31
0.0
  0
LINE
  5
697
100
AcDbEntity
  8
2
100
AcDbLine
 10
-176.152336
 20
798.272659
 30
0.0
 11
-176.982396
 21
797.442599
 31
0.0
  0
LINE
  5
698
100
AcDbEntity
  8
2
100
AcDbLine
 10
-159.89415
 20
797.442599
 30
0.0
 11
-176.982396
 21
797.442599
 31
0.0
  0
ARC
  5
699
100
AcDbEntity
  8
2
100
AcDbCircle
 10
-160.838273
 20
798.872659
 30
0.0
 40
0.6
100
AcDbArc
 50
180.0
 51
270.0
  0
ARC
  5
69A
100
AcDbEntity
  8
2
100
AcDbCircle
 10
-176.038273
 20
798.872659
 30
0.0
 40
0.6
100
AcDbArc
 50
270.0
 51
360.0
  0
ARC
  5
69B
100
AcDbEntity
  8
2
100
AcDbCircle
 10
-143.993829
 20
803.772659
 30
0.0
 40
17.444444
100
AcDbArc
 50
147.621587
 51
180.0
  0
ARC
  5
69C
100
AcDbEntity
  8
2
100
AcDbCircle
 10
-192.882718
 20
803.772659
 30
0.0
 40
17.444444
100
AcDbArc
 50
0.0
 51
32.378413
  0
ARC
  5
69D
100
AcDbEntity
  8
2
100
AcDbCircle
 10
-168.438273
 20
819.272659
 30
0.0
 40
11.5
100
AcDbArc
 50
327.621587
 51
212.378413
  0
ARC
  5
69E
100
AcDbEntity
  8
2
100
AcDbCircle
 10
-168.438273
 20
819.272659
 30
0.0
 40
13.0
100
AcDbArc
 50
306.600583
 51
233.399417
  0
LINE
  5
69F
100
AcDbEntity
  8
2
  6
CENTER
 62
     2
100
AcDbLine
 10
-1327.356071
 20
742.272659
 30
0.0
 11
-1137.469357
 21
742.272659
 31
0.0
  0
LINE
  5
6A0
100
AcDbEntity
  8
2
100
AcDbLine
 10
-1288.438273
 20
729.272659
 30
0.0
 11
-1288.438273
 21
755.272659
 31
0.0
  0
LINE
  5
6A1
100
AcDbEntity
  8
2
100
AcDbLine
 10
-1304.438273
 20
721.872659
 30
0.0
 11
-1304.438273
 21
726.772659
 31
0.0
  0
LINE
  5
6A2
100
AcDbEntity
  8
2
100
AcDbLine
 10
-1318.438273
 20
721.872659
 30
0.0
 11
-1318.438273
 21
735.772659
 31
0.0
  0
LINE
  5
6A3
100
AcDbEntity
  8
2
100
AcDbLine
 10
-1288.438273
 20
729.272659
 30
0.0
 11
-1292.501781
 21
729.272659
 31
0.0
  0
LINE
  5
6A4
100
AcDbEntity
  8
2
100
AcDbLine
 10
-1288.438273
 20
755.272659
 30
0.0
 11
-1292.501781
 21
755.272659
 31
0.0
  0
LINE
  5
6A5
100
AcDbEntity
  8
2
100
AcDbLine
 10
-1293.438273
 20
730.772659
 30
0.0
 11
-1293.438273
 21
753.772659
 31
0.0
  0
LINE
  5
6A6
100
AcDbEntity
  8
2
100
AcDbLine
 10
-1294.438273
 20
730.772659
 30
0.0
 11
-1300.438273
 21
730.772659
 31
0.0
  0
LINE
  5
6A7
100
AcDbEntity
  8
2
100
AcDbLine
 10
-1294.438273
 20
753.772659
 30
0.0
 11
-1300.438273
 21
753.772659
 31
0.0
  0
ARC
  5
6A8
100
AcDbEntity
  8
2
100
AcDbCircle
 10
-1294.438273
 20
754.772659
 30
0.0
 40
1.0
100
AcDbArc
 50
270.0
 51
345.522488
  0
ARC
  5
6A9
100
AcDbEntity
  8
2
100
AcDbCircle
 10
-1294.438273
 20
729.772659
 30
0.0
 40
1.0
100
AcDbArc
 50
14.477512
 51
90.0
  0
ARC
  5
6AA
100
AcDbEntity
  8
2
100
AcDbCircle
 10
-1292.501781
 20
754.272659
 30
0.0
 40
1.0
100
AcDbArc
 50
90.0
 51
165.522488
  0
ARC
  5
6AB
100
AcDbEntity
  8
2
100
AcDbCircle
 10
-1292.501781
 20
730.272659
 30
0.0
 40
1.0
100
AcDbArc
 50
194.477512
 51
270.0
  0
LINE
  5
6AC
100
AcDbEntity
  8
2
100
AcDbLine
 10
-1303.724211
 20
721.272659
 30
0.0
 11
-1319.152336
 21
721.272659
 31
0.0
  0
ARC
  5
6AD
100
AcDbEntity
  8
2
100
AcDbCircle
 10
-1300.438273
 20
726.772659
 30
0.0
 40
4.0
100
AcDbArc
 50
90.0
 51
180.0
  0
ARC
  5
6AE
100
AcDbEntity
  8
2
100
AcDbCircle
 10
-1300.438273
 20
735.772659
 30
0.0
 40
18.0
100
AcDbArc
 50
90.0
 51
180.0
  0
LINE
  5
6AF
100
AcDbEntity
  8
2
100
AcDbLine
 10
-1319.982396
 20
720.442599
 30
0.0
 11
-1319.789586
 21
714.272659
 31
0.0
  0
LINE
  5
6B0
100
AcDbEntity
  8
2
 62
     2
100
AcDbLine
 10
-1319.152336
 20
721.272659
 30
0.0
 11
-1318.933586
 21
714.272659
 31
0.0
  0
LINE
  5
6B1
100
AcDbEntity
  8
2
100
AcDbLine
 10
-1302.89415
 20
720.442599
 30
0.0
 11
-1303.024461
 21
716.272659
 31
0.0
  0
LINE
  5
6B2
100
AcDbEntity
  8
2
 62
     2
100
AcDbLine
 10
-1303.724211
 20
721.272659
 30
0.0
 11
-1303.880461
 21
716.272659
 31
0.0
  0
LINE
  5
6B3
100
AcDbEntity
  8
2
100
AcDbLine
 10
-1303.724211
 20
721.272659
 30
0.0
 11
-1302.89415
 21
720.442599
 31
0.0
  0
LINE
  5
6B4
100
AcDbEntity
  8
2
100
AcDbLine
 10
-1319.152336
 20
721.272659
 30
0.0
 11
-1319.982396
 21
720.442599
 31
0.0
  0
LINE
  5
6B5
100
AcDbEntity
  8
2
100
AcDbLine
 10
-1302.89415
 20
720.442599
 30
0.0
 11
-1319.982396
 21
720.442599
 31
0.0
  0
ARC
  5
6B6
100
AcDbEntity
  8
2
100
AcDbCircle
 10
-1303.838273
 20
721.872659
 30
0.0
 40
0.6
100
AcDbArc
 50
180.0
 51
270.0
  0
ARC
  5
6B7
100
AcDbEntity
  8
2
100
AcDbCircle
 10
-1319.038273
 20
721.872659
 30
0.0
 40
0.6
100
AcDbArc
 50
270.0
 51
360.0
  0
LINE
  5
6B8
100
AcDbEntity
  8
2
  6
CENTER
 62
     2
100
AcDbLine
 10
-1242.438273
 20
760.500286
 30
0.0
 11
-1242.438273
 21
724.45389
 31
0.0
  0
LINE
  5
6B9
100
AcDbEntity
  8
2
100
AcDbLine
 10
-1245.902375
 20
736.272659
 30
0.0
 11
-1238.974171
 21
736.272659
 31
0.0
  0
LINE
  5
6BA
100
AcDbEntity
  8
2
100
AcDbLine
 10
-1245.902375
 20
748.272659
 30
0.0
 11
-1238.974171
 21
748.272659
 31
0.0
  0
LINE
  5
6BB
100
AcDbEntity
  8
2
100
AcDbLine
 10
-1235.51007
 20
742.272659
 30
0.0
 11
-1238.974171
 21
736.272659
 31
0.0
  0
LINE
  5
6BC
100
AcDbEntity
  8
2
100
AcDbLine
 10
-1245.902375
 20
748.272659
 30
0.0
 11
-1249.366476
 21
742.272659
 31
0.0
  0
LINE
  5
6BD
100
AcDbEntity
  8
2
100
AcDbLine
 10
-1249.366476
 20
742.272659
 30
0.0
 11
-1245.902375
 21
736.272659
 31
0.0
  0
LINE
  5
6BE
100
AcDbEntity
  8
2
100
AcDbLine
 10
-1235.51007
 20
742.272659
 30
0.0
 11
-1238.974171
 21
748.272659
 31
0.0
  0
CIRCLE
  5
6BF
100
AcDbEntity
  8
2
100
AcDbCircle
 10
-1242.438273
 20
742.272659
 30
0.0
 40
6.0
  0
LINE
  5
6C0
100
AcDbEntity
  8
2
100
AcDbLine
 10
-1272.438273
 20
729.272659
 30
0.0
 11
-1218.438273
 21
729.272659
 31
0.0
  0
LINE
  5
6C1
100
AcDbEntity
  8
2
100
AcDbLine
 10
-1272.438273
 20
755.272659
 30
0.0
 11
-1218.438273
 21
755.272659
 31
0.0
  0
LINE
  5
6C2
100
AcDbEntity
  8
2
100
AcDbLine
 10
-1217.438273
 20
754.272659
 30
0.0
 11
-1217.438273
 21
730.272659
 31
0.0
  0
LINE
  5
6C3
100
AcDbEntity
  8
2
100
AcDbLine
 10
-1273.438273
 20
754.272659
 30
0.0
 11
-1273.438273
 21
730.272659
 31
0.0
  0
LINE
  5
6C4
100
AcDbEntity
  8
2
100
AcDbLine
 10
-1272.438273
 20
730.772659
 30
0.0
 11
-1218.438273
 21
730.772659
 31
0.0
  0
LINE
  5
6C5
100
AcDbEntity
  8
2
100
AcDbLine
 10
-1272.438273
 20
753.772659
 30
0.0
 11
-1218.438273
 21
753.772659
 31
0.0
  0
LINE
  5
6C6
100
AcDbEntity
  8
2
100
AcDbLine
 10
-1272.438273
 20
755.272659
 30
0.0
 11
-1272.438273
 21
729.272659
 31
0.0
  0
LINE
  5
6C7
100
AcDbEntity
  8
2
100
AcDbLine
 10
-1218.438273
 20
755.272659
 30
0.0
 11
-1218.438273
 21
729.272659
 31
0.0
  0
LINE
  5
6C8
100
AcDbEntity
  8
2
100
AcDbLine
 10
-1272.438273
 20
729.272659
 30
0.0
 11
-1273.438273
 21
730.272659
 31
0.0
  0
LINE
  5
6C9
100
AcDbEntity
  8
2
100
AcDbLine
 10
-1218.438273
 20
729.272659
 30
0.0
 11
-1217.438273
 21
730.272659
 31
0.0
  0
LINE
  5
6CA
100
AcDbEntity
  8
2
100
AcDbLine
 10
-1217.438273
 20
754.272659
 30
0.0
 11
-1218.438273
 21
755.272659
 31
0.0
  0
LINE
  5
6CB
100
AcDbEntity
  8
2
100
AcDbLine
 10
-1272.438273
 20
755.272659
 30
0.0
 11
-1273.438273
 21
754.272659
 31
0.0
  0
LINE
  5
6CC
100
AcDbEntity
  8
2
100
AcDbLine
 10
-1272.438273
 20
730.772659
 30
0.0
 11
-1273.438273
 21
730.272659
 31
0.0
  0
LINE
  5
6CD
100
AcDbEntity
  8
2
100
AcDbLine
 10
-1218.438273
 20
730.772659
 30
0.0
 11
-1217.438273
 21
730.272659
 31
0.0
  0
LINE
  5
6CE
100
AcDbEntity
  8
2
100
AcDbLine
 10
-1218.438273
 20
753.772659
 30
0.0
 11
-1217.438273
 21
754.272659
 31
0.0
  0
LINE
  5
6CF
100
AcDbEntity
  8
2
100
AcDbLine
 10
-1273.438273
 20
754.272659
 30
0.0
 11
-1272.438273
 21
753.772659
 31
0.0
  0
CIRCLE
  5
6D0
100
AcDbEntity
  8
2
100
AcDbCircle
 10
-1242.438273
 20
742.272659
 30
0.0
 40
8.0
  0
LINE
  5
6D1
100
AcDbEntity
  8
2
100
AcDbLine
 10
-1240.938273
 20
747.042355
 30
0.0
 11
-1240.938273
 21
737.502963
 31
0.0
  0
LINE
  5
6D2
100
AcDbEntity
  8
2
100
AcDbLine
 10
-1243.938273
 20
747.042355
 30
0.0
 11
-1243.938273
 21
737.502963
 31
0.0
  0
CIRCLE
  5
6D3
100
AcDbEntity
  8
2
100
AcDbCircle
 10
-1242.438273
 20
742.272659
 30
0.0
 40
5.0
  0
ARC
  5
6D4
100
AcDbEntity
  8
2
100
AcDbCircle
 10
-1242.438273
 20
742.272659
 30
0.0
 40
4.5
100
AcDbArc
 50
289.471221
 51
70.528779
  0
ARC
  5
6D5
100
AcDbEntity
  8
2
100
AcDbCircle
 10
-1242.438273
 20
742.272659
 30
0.0
 40
4.5
100
AcDbArc
 50
109.471221
 51
250.528779
  0
LINE
  5
6D6
100
AcDbEntity
  8
2
  6
CENTER
 62
     2
100
AcDbLine
 10
-1177.438273
 20
760.500286
 30
0.0
 11
-1177.438273
 21
724.45389
 31
0.0
  0
LINE
  5
6D7
100
AcDbEntity
  8
2
100
AcDbLine
 10
-1173.974171
 20
736.272659
 30
0.0
 11
-1180.902375
 21
736.272659
 31
0.0
  0
LINE
  5
6D8
100
AcDbEntity
  8
2
100
AcDbLine
 10
-1173.974171
 20
748.272659
 30
0.0
 11
-1180.902375
 21
748.272659
 31
0.0
  0
LINE
  5
6D9
100
AcDbEntity
  8
2
100
AcDbLine
 10
-1184.366476
 20
742.272659
 30
0.0
 11
-1180.902375
 21
736.272659
 31
0.0
  0
LINE
  5
6DA
100
AcDbEntity
  8
2
100
AcDbLine
 10
-1173.974171
 20
748.272659
 30
0.0
 11
-1170.51007
 21
742.272659
 31
0.0
  0
LINE
  5
6DB
100
AcDbEntity
  8
2
100
AcDbLine
 10
-1170.51007
 20
742.272659
 30
0.0
 11
-1173.974171
 21
736.272659
 31
0.0
  0
LINE
  5
6DC
100
AcDbEntity
  8
2
100
AcDbLine
 10
-1184.366476
 20
742.272659
 30
0.0
 11
-1180.902375
 21
748.272659
 31
0.0
  0
CIRCLE
  5
6DD
100
AcDbEntity
  8
2
100
AcDbCircle
 10
-1177.438273
 20
742.272659
 30
0.0
 40
6.0
  0
LINE
  5
6DE
100
AcDbEntity
  8
2
100
AcDbLine
 10
-1147.438273
 20
729.272659
 30
0.0
 11
-1201.438273
 21
729.272659
 31
0.0
  0
LINE
  5
6DF
100
AcDbEntity
  8
2
100
AcDbLine
 10
-1147.438273
 20
755.272659
 30
0.0
 11
-1201.438273
 21
755.272659
 31
0.0
  0
LINE
  5
6E0
100
AcDbEntity
  8
2
100
AcDbLine
 10
-1202.438273
 20
754.272659
 30
0.0
 11
-1202.438273
 21
730.272659
 31
0.0
  0
LINE
  5
6E1
100
AcDbEntity
  8
2
100
AcDbLine
 10
-1147.438273
 20
730.772659
 30
0.0
 11
-1201.438273
 21
730.772659
 31
0.0
  0
LINE
  5
6E2
100
AcDbEntity
  8
2
100
AcDbLine
 10
-1147.438273
 20
753.772659
 30
0.0
 11
-1201.438273
 21
753.772659
 31
0.0
  0
LINE
  5
6E3
100
AcDbEntity
  8
2
100
AcDbLine
 10
-1147.438273
 20
755.272659
 30
0.0
 11
-1147.438273
 21
729.272659
 31
0.0
  0
LINE
  5
6E4
100
AcDbEntity
  8
2
100
AcDbLine
 10
-1201.438273
 20
755.272659
 30
0.0
 11
-1201.438273
 21
729.272659
 31
0.0
  0
LINE
  5
6E5
100
AcDbEntity
  8
2
100
AcDbLine
 10
-1147.438273
 20
729.272659
 30
0.0
 11
-1146.438273
 21
730.272659
 31
0.0
  0
LINE
  5
6E6
100
AcDbEntity
  8
2
100
AcDbLine
 10
-1201.438273
 20
729.272659
 30
0.0
 11
-1202.438273
 21
730.272659
 31
0.0
  0
LINE
  5
6E7
100
AcDbEntity
  8
2
100
AcDbLine
 10
-1202.438273
 20
754.272659
 30
0.0
 11
-1201.438273
 21
755.272659
 31
0.0
  0
LINE
  5
6E8
100
AcDbEntity
  8
2
100
AcDbLine
 10
-1147.438273
 20
755.272659
 30
0.0
 11
-1146.438273
 21
754.272659
 31
0.0
  0
LINE
  5
6E9
100
AcDbEntity
  8
2
100
AcDbLine
 10
-1147.438273
 20
730.772659
 30
0.0
 11
-1146.438273
 21
730.272659
 31
0.0
  0
LINE
  5
6EA
100
AcDbEntity
  8
2
100
AcDbLine
 10
-1201.438273
 20
730.772659
 30
0.0
 11
-1202.438273
 21
730.272659
 31
0.0
  0
LINE
  5
6EB
100
AcDbEntity
  8
2
100
AcDbLine
 10
-1201.438273
 20
753.772659
 30
0.0
 11
-1202.438273
 21
754.272659
 31
0.0
  0
LINE
  5
6EC
100
AcDbEntity
  8
2
100
AcDbLine
 10
-1146.438273
 20
754.272659
 30
0.0
 11
-1147.438273
 21
753.772659
 31
0.0
  0
CIRCLE
  5
6ED
100
AcDbEntity
  8
2
100
AcDbCircle
 10
-1177.438273
 20
742.272659
 30
0.0
 40
8.0
  0
LINE
  5
6EE
100
AcDbEntity
  8
2
100
AcDbLine
 10
-1178.938273
 20
747.042355
 30
0.0
 11
-1178.938273
 21
737.502963
 31
0.0
  0
LINE
  5
6EF
100
AcDbEntity
  8
2
100
AcDbLine
 10
-1175.938273
 20
747.042355
 30
0.0
 11
-1175.938273
 21
737.502963
 31
0.0
  0
CIRCLE
  5
6F0
100
AcDbEntity
  8
2
100
AcDbCircle
 10
-1177.438273
 20
742.272659
 30
0.0
 40
5.0
  0
ARC
  5
6F1
100
AcDbEntity
  8
2
100
AcDbCircle
 10
-1177.438273
 20
742.272659
 30
0.0
 40
4.5
100
AcDbArc
 50
109.471221
 51
250.528779
  0
ARC
  5
6F2
100
AcDbEntity
  8
2
100
AcDbCircle
 10
-1177.438273
 20
742.272659
 30
0.0
 40
4.5
100
AcDbArc
 50
289.471221
 51
70.528779
  0
LINE
  5
6F3
100
AcDbEntity
  8
2
100
AcDbLine
 10
-1280.938273
 20
733.702597
 30
0.0
 11
-1288.438273
 21
733.936972
 31
0.0
  0
LINE
  5
6F4
100
AcDbEntity
  8
2
 62
     2
100
AcDbLine
 10
-1280.938273
 20
733.702597
 30
0.0
 11
-1282.505751
 21
734.60758
 31
0.0
  0
LINE
  5
6F5
100
AcDbEntity
  8
2
 62
     2
100
AcDbLine
 10
-1282.505751
 20
734.60758
 30
0.0
 11
-1288.438273
 21
734.792972
 31
0.0
  0
LINE
  5
6F6
100
AcDbEntity
  8
2
100
AcDbLine
 10
-1280.938273
 20
750.842722
 30
0.0
 11
-1288.438273
 21
750.608347
 31
0.0
  0
LINE
  5
6F7
100
AcDbEntity
  8
2
 62
     2
100
AcDbLine
 10
-1280.938273
 20
750.842722
 30
0.0
 11
-1282.505751
 21
749.937738
 31
0.0
  0
LINE
  5
6F8
100
AcDbEntity
  8
2
 62
     2
100
AcDbLine
 10
-1282.505751
 20
749.937738
 30
0.0
 11
-1288.438273
 21
749.752347
 31
0.0
  0
LINE
  5
6F9
100
AcDbEntity
  8
2
100
AcDbLine
 10
-1282.505751
 20
733.75158
 30
0.0
 11
-1282.505751
 21
750.793738
 31
0.0
  0
LINE
  5
6FA
100
AcDbEntity
  8
2
100
AcDbLine
 10
-1280.938273
 20
733.702597
 30
0.0
 11
-1273.438273
 21
733.936972
 31
0.0
  0
LINE
  5
6FB
100
AcDbEntity
  8
2
 62
     2
100
AcDbLine
 10
-1280.938273
 20
733.702597
 30
0.0
 11
-1279.370795
 21
734.60758
 31
0.0
  0
LINE
  5
6FC
100
AcDbEntity
  8
2
 62
     2
100
AcDbLine
 10
-1279.370795
 20
734.60758
 30
0.0
 11
-1273.438273
 21
734.792972
 31
0.0
  0
LINE
  5
6FD
100
AcDbEntity
  8
2
100
AcDbLine
 10
-1280.938273
 20
750.842722
 30
0.0
 11
-1273.438273
 21
750.608347
 31
0.0
  0
LINE
  5
6FE
100
AcDbEntity
  8
2
 62
     2
100
AcDbLine
 10
-1280.938273
 20
750.842722
 30
0.0
 11
-1279.370795
 21
749.937738
 31
0.0
  0
LINE
  5
6FF
100
AcDbEntity
  8
2
 62
     2
100
AcDbLine
 10
-1279.370795
 20
749.937738
 30
0.0
 11
-1273.438273
 21
749.752347
 31
0.0
  0
LINE
  5
700
100
AcDbEntity
  8
2
100
AcDbLine
 10
-1279.370795
 20
733.75158
 30
0.0
 11
-1279.370795
 21
750.793738
 31
0.0
  0
LINE
  5
701
100
AcDbEntity
  8
2
100
AcDbLine
 10
-1209.938273
 20
733.702597
 30
0.0
 11
-1217.438273
 21
733.936972
 31
0.0
  0
LINE
  5
702
100
AcDbEntity
  8
2
 62
     2
100
AcDbLine
 10
-1209.938273
 20
733.702597
 30
0.0
 11
-1211.505751
 21
734.60758
 31
0.0
  0
LINE
  5
703
100
AcDbEntity
  8
2
 62
     2
100
AcDbLine
 10
-1211.505751
 20
734.60758
 30
0.0
 11
-1217.438273
 21
734.792972
 31
0.0
  0
LINE
  5
704
100
AcDbEntity
  8
2
100
AcDbLine
 10
-1209.938273
 20
750.842722
 30
0.0
 11
-1217.438273
 21
750.608347
 31
0.0
  0
LINE
  5
705
100
AcDbEntity
  8
2
 62
     2
100
AcDbLine
 10
-1209.938273
 20
750.842722
 30
0.0
 11
-1211.505751
 21
749.937738
 31
0.0
  0
LINE
  5
706
100
AcDbEntity
  8
2
 62
     2
100
AcDbLine
 10
-1211.505751
 20
749.937738
 30
0.0
 11
-1217.438273
 21
749.752347
 31
0.0
  0
LINE
  5
707
100
AcDbEntity
  8
2
100
AcDbLine
 10
-1211.505751
 20
733.75158
 30
0.0
 11
-1211.505751
 21
750.793738
 31
0.0
  0
LINE
  5
708
100
AcDbEntity
  8
2
100
AcDbLine
 10
-1209.938273
 20
733.702597
 30
0.0
 11
-1202.438273
 21
733.936972
 31
0.0
  0
LINE
  5
709
100
AcDbEntity
  8
2
 62
     2
100
AcDbLine
 10
-1209.938273
 20
733.702597
 30
0.0
 11
-1208.370795
 21
734.60758
 31
0.0
  0
LINE
  5
70A
100
AcDbEntity
  8
2
 62
     2
100
AcDbLine
 10
-1208.370795
 20
734.60758
 30
0.0
 11
-1202.438273
 21
734.792972
 31
0.0
  0
LINE
  5
70B
100
AcDbEntity
  8
2
100
AcDbLine
 10
-1209.938273
 20
750.842722
 30
0.0
 11
-1202.438273
 21
750.608347
 31
0.0
  0
LINE
  5
70C
100
AcDbEntity
  8
2
 62
     2
100
AcDbLine
 10
-1209.938273
 20
750.842722
 30
0.0
 11
-1208.370795
 21
749.937738
 31
0.0
  0
LINE
  5
70D
100
AcDbEntity
  8
2
 62
     2
100
AcDbLine
 10
-1208.370795
 20
749.937738
 30
0.0
 11
-1202.438273
 21
749.752347
 31
0.0
  0
LINE
  5
70E
100
AcDbEntity
  8
2
100
AcDbLine
 10
-1208.370795
 20
733.75158
 30
0.0
 11
-1208.370795
 21
750.793738
 31
0.0
  0
LINE
  5
70F
100
AcDbEntity
  8
2
100
AcDbLine
 10
371.072838
 20
-145.264852
 30
0.0
 11
269.286472
 21
-145.264852
 31
0.0
  0
LINE
  5
710
100
AcDbEntity
  8
2
100
AcDbLine
 10
371.072838
 20
-145.264852
 30
0.0
 11
371.072838
 21
-133.481225
 31
0.0
  0
LINE
  5
711
100
AcDbEntity
  8
2
100
AcDbLine
 10
318.043401
 20
162.735148
 30
0.0
 11
284.102275
 21
162.735148
 31
0.0
  0
LINE
  5
712
100
AcDbEntity
  8
2
100
AcDbLine
 10
300.683858
 20
161.735148
 30
0.0
 11
300.683858
 21
149.977415
 31
0.0
  0
LINE
  5
713
100
AcDbEntity
  8
2
100
AcDbLine
 10
301.461818
 20
161.735148
 30
0.0
 11
301.461818
 21
149.67062
 31
0.0
  0
LINE
  5
714
100
AcDbEntity
  8
2
100
AcDbLine
 10
319.072838
 20
146.427165
 30
0.0
 11
319.072838
 21
161.735148
 31
0.0
  0
LINE
  5
715
100
AcDbEntity
  8
2
100
AcDbLine
 10
283.072838
 20
156.892783
 30
0.0
 11
283.072838
 21
161.735148
 31
0.0
  0
LINE
  5
716
100
AcDbEntity
  8
2
100
AcDbLine
 10
283.072838
 20
161.735148
 30
0.0
 11
319.072838
 21
161.735148
 31
0.0
  0
LINE
  5
717
100
AcDbEntity
  8
2
100
AcDbLine
 10
300.683858
 20
161.735148
 30
0.0
 11
301.072838
 21
162.735148
 31
0.0
  0
LINE
  5
718
100
AcDbEntity
  8
2
100
AcDbLine
 10
301.072838
 20
162.735148
 30
0.0
 11
301.461818
 21
161.735148
 31
0.0
  0
LINE
  5
719
100
AcDbEntity
  8
2
100
AcDbLine
 10
284.102275
 20
162.735148
 30
0.0
 11
283.072838
 21
161.735148
 31
0.0
  0
LINE
  5
71A
100
AcDbEntity
  8
2
100
AcDbLine
 10
318.043401
 20
162.735148
 30
0.0
 11
319.072838
 21
161.735148
 31
0.0
  0
LINE
  5
71B
100
AcDbEntity
  8
2
 62
     2
100
AcDbLine
 10
283.072838
 20
161.735148
 30
0.0
 11
285.3013
 21
156.142172
 31
0.0
  0
LINE
  5
71C
100
AcDbEntity
  8
2
 62
     2
100
AcDbLine
 10
296.68874
 20
151.708232
 30
0.0
 11
300.683858
 21
161.735148
 31
0.0
  0
LINE
  5
71D
100
AcDbEntity
  8
2
 62
     2
100
AcDbLine
 10
301.461818
 20
161.735148
 30
0.0
 11
307.000134
 21
147.835126
 31
0.0
  0
LINE
  5
71E
100
AcDbEntity
  8
2
 62
     2
100
AcDbLine
 10
319.072838
 20
161.735148
 30
0.0
 11
313.037233
 21
146.587035
 31
0.0
  0
LINE
  5
71F
100
AcDbEntity
  8
2
  6
CENTER
 62
     2
100
AcDbLine
 10
44.072838
 20
7.735148
 30
0.0
 11
441.354793
 21
7.735148
 31
0.0
  0
LINE
  5
720
100
AcDbEntity
  8
2
  6
CENTER
 62
     2
100
AcDbLine
 10
234.072838
 20
197.735148
 30
0.0
 11
234.072838
 21
-182.264852
 31
0.0
  0
LINE
  5
721
100
AcDbEntity
  8
2
  6
CENTER
 62
     2
100
AcDbLine
 10
56.197194
 20
40.664103
 30
0.0
 11
56.197194
 21
4.041087
 31
0.0
  0
LINE
  5
722
100
AcDbEntity
  8
2
100
AcDbLine
 10
50.135016
 20
33.235148
 30
0.0
 11
62.259371
 21
33.235148
 31
0.0
  0
LINE
  5
723
100
AcDbEntity
  8
2
100
AcDbLine
 10
50.135016
 20
12.235148
 30
0.0
 11
62.259371
 21
12.235148
 31
0.0
  0
LINE
  5
724
100
AcDbEntity
  8
2
100
AcDbLine
 10
50.135016
 20
33.235148
 30
0.0
 11
44.072838
 21
22.735148
 31
0.0
  0
LINE
  5
725
100
AcDbEntity
  8
2
100
AcDbLine
 10
63.414072
 20
14.235148
 30
0.0
 11
62.259371
 21
12.235148
 31
0.0
  0
LINE
  5
726
100
AcDbEntity
  8
2
100
AcDbLine
 10
44.072838
 20
22.735148
 30
0.0
 11
50.135016
 21
12.235148
 31
0.0
  0
LINE
  5
727
100
AcDbEntity
  8
2
100
AcDbLine
 10
63.414072
 20
31.235148
 30
0.0
 11
62.259371
 21
33.235148
 31
0.0
  0
LINE
  5
728
100
AcDbEntity
  8
2
100
AcDbLine
 10
69.697194
 20
14.239539
 30
0.0
 11
77.072838
 21
14.472373
 31
0.0
  0
LINE
  5
729
100
AcDbEntity
  8
2
100
AcDbLine
 10
71.264671
 20
14.288523
 30
0.0
 11
71.264671
 21
31.181773
 31
0.0
  0
LINE
  5
72A
100
AcDbEntity
  8
2
 62
     2
100
AcDbLine
 10
69.697194
 20
14.239539
 30
0.0
 11
71.264671
 21
15.144523
 31
0.0
  0
LINE
  5
72B
100
AcDbEntity
  8
2
 62
     2
100
AcDbLine
 10
71.264671
 20
15.144523
 30
0.0
 11
77.072838
 21
15.328166
 31
0.0
  0
LINE
  5
72C
100
AcDbEntity
  8
2
100
AcDbLine
 10
69.697194
 20
31.230757
 30
0.0
 11
77.072838
 21
30.997923
 31
0.0
  0
LINE
  5
72D
100
AcDbEntity
  8
2
 62
     2
100
AcDbLine
 10
69.697194
 20
31.230757
 30
0.0
 11
71.264671
 21
30.325773
 31
0.0
  0
LINE
  5
72E
100
AcDbEntity
  8
2
 62
     2
100
AcDbLine
 10
71.264671
 20
30.325773
 30
0.0
 11
77.072838
 21
30.14213
 31
0.0
  0
LINE
  5
72F
100
AcDbEntity
  8
2
100
AcDbLine
 10
49.697194
 20
31.235148
 30
0.0
 11
69.697194
 21
31.235148
 31
0.0
  0
LINE
  5
730
100
AcDbEntity
  8
2
100
AcDbLine
 10
49.697194
 20
14.235148
 30
0.0
 11
69.697194
 21
14.235148
 31
0.0
  0
LINE
  5
731
100
AcDbEntity
  8
2
100
AcDbLine
 10
69.697194
 20
14.235148
 30
0.0
 11
69.697194
 21
31.235148
 31
0.0
  0
LINE
  5
732
100
AcDbEntity
  8
2
100
AcDbLine
 10
63.697194
 20
31.235148
 30
0.0
 11
63.697194
 21
28.212374
 31
0.0
  0
LINE
  5
733
100
AcDbEntity
  8
2
100
AcDbLine
 10
63.697194
 20
17.257923
 30
0.0
 11
63.697194
 21
14.235148
 31
0.0
  0
ARC
  5
734
100
AcDbEntity
  8
2
100
AcDbCircle
 10
56.197194
 20
22.735148
 30
0.0
 40
8.5
100
AcDbArc
 50
139.880833
 51
220.119167
  0
LINE
  5
735
100
AcDbEntity
  8
2
100
AcDbLine
 10
49.697194
 20
14.235148
 30
0.0
 11
49.697194
 21
17.257923
 31
0.0
  0
LINE
  5
736
100
AcDbEntity
  8
2
100
AcDbLine
 10
49.697194
 20
28.212374
 30
0.0
 11
49.697194
 21
31.235148
 31
0.0
  0
LINE
  5
737
100
AcDbEntity
  8
2
100
AcDbLine
 10
49.697194
 20
28.212374
 30
0.0
 11
63.697194
 21
28.212374
 31
0.0
  0
LINE
  5
738
100
AcDbEntity
  8
2
100
AcDbLine
 10
49.697194
 20
17.257923
 30
0.0
 11
63.697194
 21
17.257923
 31
0.0
  0
ARC
  5
739
100
AcDbEntity
  8
2
100
AcDbCircle
 10
56.197194
 20
22.735148
 30
0.0
 40
10.5
100
AcDbArc
 50
54.049432
 51
125.950568
  0
ARC
  5
73A
100
AcDbEntity
  8
2
100
AcDbCircle
 10
56.197194
 20
22.735148
 30
0.0
 40
10.5
100
AcDbArc
 50
128.24662
 51
231.75338
  0
ARC
  5
73B
100
AcDbEntity
  8
2
100
AcDbCircle
 10
56.197194
 20
22.735148
 30
0.0
 40
10.5
100
AcDbArc
 50
234.049432
 51
305.950568
  0
ARC
  5
73C
100
AcDbEntity
  8
2
100
AcDbCircle
 10
234.072838
 20
7.735148
 30
0.0
 40
157.0
100
AcDbArc
 50
65.069771
 51
114.930229
  0
ARC
  5
73D
100
AcDbEntity
  8
2
100
AcDbCircle
 10
234.072838
 20
7.735148
 30
0.0
 40
157.0
100
AcDbArc
 50
245.069771
 51
294.930229
  0
ARC
  5
73E
100
AcDbEntity
  8
2
100
AcDbCircle
 10
145.061599
 20
205.639164
 30
0.0
 40
60.0
100
AcDbArc
 50
281.247962
 51
294.216773
  0
ARC
  5
73F
100
AcDbEntity
  8
2
100
AcDbCircle
 10
323.084077
 20
205.639164
 30
0.0
 40
60.0
100
AcDbArc
 50
245.783227
 51
258.752038
  0
ARC
  5
740
100
AcDbEntity
  8
2
100
AcDbCircle
 10
431.976854
 20
96.746387
 30
0.0
 40
60.0
100
AcDbArc
 50
191.247962
 51
204.216773
  0
ARC
  5
741
100
AcDbEntity
  8
2
100
AcDbCircle
 10
431.976854
 20
-81.276091
 30
0.0
 40
60.0
100
AcDbArc
 50
155.783227
 51
168.752038
  0
ARC
  5
742
100
AcDbEntity
  8
2
100
AcDbCircle
 10
323.084077
 20
-190.168868
 30
0.0
 40
60.0
100
AcDbArc
 50
101.247962
 51
114.216773
  0
ARC
  5
743
100
AcDbEntity
  8
2
100
AcDbCircle
 10
145.061599
 20
-190.168868
 30
0.0
 40
60.0
100
AcDbArc
 50
65.783227
 51
78.752038
  0
ARC
  5
744
100
AcDbEntity
  8
2
100
AcDbCircle
 10
36.168822
 20
-81.276091
 30
0.0
 40
60.0
100
AcDbArc
 50
11.247962
 51
24.216773
  0
ARC
  5
745
100
AcDbEntity
  8
2
100
AcDbCircle
 10
36.168822
 20
96.746387
 30
0.0
 40
60.0
100
AcDbArc
 50
335.783227
 51
348.752038
  0
LINE
  5
746
100
AcDbEntity
  8
2
100
AcDbLine
 10
234.072838
 20
164.735148
 30
0.0
 11
274.072838
 21
164.735148
 31
0.0
  0
ARC
  5
747
100
AcDbEntity
  8
2
100
AcDbCircle
 10
283.772283
 20
167.168411
 30
0.0
 40
10.0
100
AcDbArc
 50
194.082941
 51
252.686402
  0
ARC
  5
748
100
AcDbEntity
  8
2
100
AcDbCircle
 10
234.072838
 20
7.735148
 30
0.0
 40
157.0
100
AcDbArc
 50
335.069771
 51
351.991009
  0
ARC
  5
749
100
AcDbEntity
  8
2
100
AcDbCircle
 10
234.072838
 20
7.735148
 30
0.0
 40
157.0
100
AcDbArc
 50
8.008991
 51
24.930229
  0
ARC
  5
74A
100
AcDbEntity
  8
2
100
AcDbCircle
 10
234.072838
 20
7.735148
 30
0.0
 40
157.0
100
AcDbArc
 50
155.069771
 51
166.343368
  0
ARC
  5
74B
100
AcDbEntity
  8
2
100
AcDbCircle
 10
234.072838
 20
7.735148
 30
0.0
 40
157.0
100
AcDbArc
 50
182.438919
 51
204.930229
  0
LINE
  5
74C
100
AcDbEntity
  8
2
100
AcDbLine
 10
387.561001
 20
27.331066
 30
0.0
 11
341.756009
 21
27.331066
 31
0.0
  0
LINE
  5
74D
100
AcDbEntity
  8
2
100
AcDbLine
 10
387.561001
 20
-11.86077
 30
0.0
 11
341.756009
 21
-11.86077
 31
0.0
  0
LINE
  5
74E
100
AcDbEntity
  8
2
100
AcDbLine
 10
337.589518
 20
25.095185
 30
0.0
 11
327.906347
 21
10.499267
 31
0.0
  0
LINE
  5
74F
100
AcDbEntity
  8
2
100
AcDbLine
 10
327.906347
 20
4.97103
 30
0.0
 11
337.589518
 21
-9.624888
 31
0.0
  0
ARC
  5
750
100
AcDbEntity
  8
2
100
AcDbCircle
 10
387.561001
 20
29.331066
 30
0.0
 40
2.0
100
AcDbArc
 50
270.0
 51
8.008991
  0
ARC
  5
751
100
AcDbEntity
  8
2
100
AcDbCircle
 10
387.561001
 20
-13.86077
 30
0.0
 40
2.0
100
AcDbArc
 50
351.991009
 51
90.0
  0
ARC
  5
752
100
AcDbEntity
  8
2
100
AcDbCircle
 10
341.756009
 20
22.331066
 30
0.0
 40
5.0
100
AcDbArc
 50
90.0
 51
146.439053
  0
ARC
  5
753
100
AcDbEntity
  8
2
100
AcDbCircle
 10
341.756009
 20
-6.86077
 30
0.0
 40
5.0
100
AcDbArc
 50
213.560947
 51
270.0
  0
LINE
  5
754
100
AcDbEntity
  8
2
100
AcDbLine
 10
83.454981
 20
42.331066
 30
0.0
 11
126.389667
 21
42.331066
 31
0.0
  0
LINE
  5
755
100
AcDbEntity
  8
2
100
AcDbLine
 10
79.213244
 20
3.13923
 30
0.0
 11
126.389667
 21
3.13923
 31
0.0
  0
LINE
  5
756
100
AcDbEntity
  8
2
100
AcDbLine
 10
140.239329
 20
25.499267
 30
0.0
 11
130.556158
 21
40.095185
 31
0.0
  0
LINE
  5
757
100
AcDbEntity
  8
2
100
AcDbLine
 10
140.239329
 20
19.97103
 30
0.0
 11
130.556158
 21
5.375112
 31
0.0
  0
ARC
  5
758
100
AcDbEntity
  8
2
100
AcDbCircle
 10
126.389667
 20
37.331066
 30
0.0
 40
5.0
100
AcDbArc
 50
33.560947
 51
90.0
  0
ARC
  5
759
100
AcDbEntity
  8
2
100
AcDbCircle
 10
126.389667
 20
8.13923
 30
0.0
 40
5.0
100
AcDbArc
 50
270.0
 51
326.439053
  0
ARC
  5
75A
100
AcDbEntity
  8
2
100
AcDbCircle
 10
83.454981
 20
44.331066
 30
0.0
 40
2.0
100
AcDbArc
 50
166.343368
 51
270.0
  0
ARC
  5
75B
100
AcDbEntity
  8
2
100
AcDbCircle
 10
79.213244
 20
1.13923
 30
0.0
 40
2.0
100
AcDbArc
 50
90.0
 51
182.438919
  0
CIRCLE
  5
75C
100
AcDbEntity
  8
2
100
AcDbCircle
 10
116.072838
 20
-110.264852
 30
0.0
 40
17.0
  0
LINE
  5
75D
100
AcDbEntity
  8
2
100
AcDbLine
 10
126.465143
 20
-92.264852
 30
0.0
 11
105.680533
 21
-92.264852
 31
0.0
  0
LINE
  5
75E
100
AcDbEntity
  8
2
100
AcDbLine
 10
126.465143
 20
-128.264852
 30
0.0
 11
105.680533
 21
-128.264852
 31
0.0
  0
LINE
  5
75F
100
AcDbEntity
  8
2
100
AcDbLine
 10
105.680533
 20
-92.264852
 30
0.0
 11
95.288228
 21
-110.264852
 31
0.0
  0
LINE
  5
760
100
AcDbEntity
  8
2
100
AcDbLine
 10
136.857448
 20
-110.264852
 30
0.0
 11
126.465143
 21
-128.264852
 31
0.0
  0
LINE
  5
761
100
AcDbEntity
  8
2
100
AcDbLine
 10
95.288228
 20
-110.264852
 30
0.0
 11
105.680533
 21
-128.264852
 31
0.0
  0
LINE
  5
762
100
AcDbEntity
  8
2
100
AcDbLine
 10
126.465143
 20
-92.264852
 30
0.0
 11
136.857448
 21
-110.264852
 31
0.0
  0
CIRCLE
  5
763
100
AcDbEntity
  8
2
100
AcDbCircle
 10
116.072838
 20
-110.264852
 30
0.0
 40
12.0
  0
CIRCLE
  5
764
100
AcDbEntity
  8
2
 62
     2
100
AcDbCircle
 10
116.072838
 20
-110.264852
 30
0.0
 40
11.188
  0
CIRCLE
  5
765
100
AcDbEntity
  8
2
100
AcDbCircle
 10
116.072838
 20
125.735148
 30
0.0
 40
17.0
  0
LINE
  5
766
100
AcDbEntity
  8
2
100
AcDbLine
 10
126.465143
 20
107.735148
 30
0.0
 11
105.680533
 21
107.735148
 31
0.0
  0
LINE
  5
767
100
AcDbEntity
  8
2
100
AcDbLine
 10
126.465143
 20
143.735148
 30
0.0
 11
105.680533
 21
143.735148
 31
0.0
  0
LINE
  5
768
100
AcDbEntity
  8
2
100
AcDbLine
 10
105.680533
 20
107.735148
 30
0.0
 11
95.288228
 21
125.735148
 31
0.0
  0
LINE
  5
769
100
AcDbEntity
  8
2
100
AcDbLine
 10
136.857448
 20
125.735148
 30
0.0
 11
126.465143
 21
143.735148
 31
0.0
  0
LINE
  5
76A
100
AcDbEntity
  8
2
100
AcDbLine
 10
95.288228
 20
125.735148
 30
0.0
 11
105.680533
 21
143.735148
 31
0.0
  0
LINE
  5
76B
100
AcDbEntity
  8
2
100
AcDbLine
 10
126.465143
 20
107.735148
 30
0.0
 11
136.857448
 21
125.735148
 31
0.0
  0
CIRCLE
  5
76C
100
AcDbEntity
  8
2
100
AcDbCircle
 10
116.072838
 20
125.735148
 30
0.0
 40
12.0
  0
CIRCLE
  5
76D
100
AcDbEntity
  8
2
 62
     2
100
AcDbCircle
 10
116.072838
 20
125.735148
 30
0.0
 40
11.188
  0
CIRCLE
  5
76E
100
AcDbEntity
  8
2
100
AcDbCircle
 10
352.072838
 20
-110.264852
 30
0.0
 40
17.0
  0
LINE
  5
76F
100
AcDbEntity
  8
2
100
AcDbLine
 10
341.680533
 20
-92.264852
 30
0.0
 11
362.465143
 21
-92.264852
 31
0.0
  0
LINE
  5
770
100
AcDbEntity
  8
2
100
AcDbLine
 10
341.680533
 20
-128.264852
 30
0.0
 11
362.465143
 21
-128.264852
 31
0.0
  0
LINE
  5
771
100
AcDbEntity
  8
2
100
AcDbLine
 10
362.465143
 20
-92.264852
 30
0.0
 11
372.857448
 21
-110.264852
 31
0.0
  0
LINE
  5
772
100
AcDbEntity
  8
2
100
AcDbLine
 10
331.288228
 20
-110.264852
 30
0.0
 11
341.680533
 21
-128.264852
 31
0.0
  0
LINE
  5
773
100
AcDbEntity
  8
2
100
AcDbLine
 10
372.857448
 20
-110.264852
 30
0.0
 11
362.465143
 21
-128.264852
 31
0.0
  0
LINE
  5
774
100
AcDbEntity
  8
2
100
AcDbLine
 10
341.680533
 20
-92.264852
 30
0.0
 11
331.288228
 21
-110.264852
 31
0.0
  0
CIRCLE
  5
775
100
AcDbEntity
  8
2
100
AcDbCircle
 10
352.072838
 20
-110.264852
 30
0.0
 40
12.0
  0
CIRCLE
  5
776
100
AcDbEntity
  8
2
 62
     2
100
AcDbCircle
 10
352.072838
 20
-110.264852
 30
0.0
 40
11.188
  0
CIRCLE
  5
777
100
AcDbEntity
  8
2
100
AcDbCircle
 10
352.072838
 20
125.735148
 30
0.0
 40
17.0
  0
LINE
  5
778
100
AcDbEntity
  8
2
100
AcDbLine
 10
341.680533
 20
107.735148
 30
0.0
 11
362.465143
 21
107.735148
 31
0.0
  0
LINE
  5
779
100
AcDbEntity
  8
2
100
AcDbLine
 10
341.680533
 20
143.735148
 30
0.0
 11
362.465143
 21
143.735148
 31
0.0
  0
LINE
  5
77A
100
AcDbEntity
  8
2
100
AcDbLine
 10
362.465143
 20
107.735148
 30
0.0
 11
372.857448
 21
125.735148
 31
0.0
  0
LINE
  5
77B
100
AcDbEntity
  8
2
100
AcDbLine
 10
331.288228
 20
125.735148
 30
0.0
 11
341.680533
 21
143.735148
 31
0.0
  0
LINE
  5
77C
100
AcDbEntity
  8
2
100
AcDbLine
 10
372.857448
 20
125.735148
 30
0.0
 11
362.465143
 21
143.735148
 31
0.0
  0
LINE
  5
77D
100
AcDbEntity
  8
2
100
AcDbLine
 10
341.680533
 20
107.735148
 30
0.0
 11
331.288228
 21
125.735148
 31
0.0
  0
CIRCLE
  5
77E
100
AcDbEntity
  8
2
100
AcDbCircle
 10
352.072838
 20
125.735148
 30
0.0
 40
12.0
  0
CIRCLE
  5
77F
100
AcDbEntity
  8
2
 62
     2
100
AcDbCircle
 10
352.072838
 20
125.735148
 30
0.0
 40
11.188
  0
LINE
  5
780
100
AcDbEntity
  8
2
  6
CENTER
 62
     2
100
AcDbLine
 10
249.072838
 20
183.866084
 30
0.0
 11
249.072838
 21
144.931424
 31
0.0
  0
LINE
  5
781
100
AcDbEntity
  8
2
  6
CENTER
 62
     2
100
AcDbLine
 10
157.6213
 20
22.735148
 30
0.0
 11
36.043791
 21
22.735148
 31
0.0
  0
LINE
  5
782
100
AcDbEntity
  8
2
  6
CENTER
 62
     2
100
AcDbLine
 10
116.072838
 20
-148.264852
 30
0.0
 11
116.072838
 21
-72.264852
 31
0.0
  0
LINE
  5
783
100
AcDbEntity
  8
2
  6
CENTER
 62
     2
100
AcDbLine
 10
78.072838
 20
-110.264852
 30
0.0
 11
154.072838
 21
-110.264852
 31
0.0
  0
LINE
  5
784
100
AcDbEntity
  8
2
  6
CENTER
 62
     2
100
AcDbLine
 10
116.072838
 20
163.735148
 30
0.0
 11
116.072838
 21
87.735148
 31
0.0
  0
LINE
  5
785
100
AcDbEntity
  8
2
  6
CENTER
 62
     2
100
AcDbLine
 10
78.072838
 20
125.735148
 30
0.0
 11
154.072838
 21
125.735148
 31
0.0
  0
LINE
  5
786
100
AcDbEntity
  8
2
  6
CENTER
 62
     2
100
AcDbLine
 10
352.072838
 20
-148.264852
 30
0.0
 11
352.072838
 21
-72.264852
 31
0.0
  0
LINE
  5
787
100
AcDbEntity
  8
2
  6
CENTER
 62
     2
100
AcDbLine
 10
390.072838
 20
-110.264852
 30
0.0
 11
314.072838
 21
-110.264852
 31
0.0
  0
LINE
  5
788
100
AcDbEntity
  8
2
  6
CENTER
 62
     2
100
AcDbLine
 10
352.072838
 20
163.735148
 30
0.0
 11
352.072838
 21
87.735148
 31
0.0
  0
LINE
  5
789
100
AcDbEntity
  8
2
  6
CENTER
 62
     2
100
AcDbLine
 10
390.072838
 20
125.735148
 30
0.0
 11
314.072838
 21
125.735148
 31
0.0
  0
ARC
  5
78A
100
AcDbEntity
  8
2
100
AcDbCircle
 10
352.072838
 20
125.735148
 30
0.0
 40
30.0
100
AcDbArc
 50
330.036209
 51
119.963791
  0
ARC
  5
78B
100
AcDbEntity
  8
2
100
AcDbCircle
 10
116.072838
 20
125.735148
 30
0.0
 40
30.0
100
AcDbArc
 50
60.036209
 51
209.963791
  0
ARC
  5
78C
100
AcDbEntity
  8
2
100
AcDbCircle
 10
116.072838
 20
-110.264852
 30
0.0
 40
30.0
100
AcDbArc
 50
150.036209
 51
299.963791
  0
ARC
  5
78D
100
AcDbEntity
  8
2
100
AcDbCircle
 10
352.072838
 20
-110.264852
 30
0.0
 40
30.0
100
AcDbArc
 50
240.036209
 51
29.963791
  0
ARC
  5
78E
100
AcDbEntity
  8
2
100
AcDbCircle
 10
412.716723
 20
90.773466
 30
0.0
 40
40.0
100
AcDbArc
 50
150.036209
 51
204.930229
  0
ARC
  5
78F
100
AcDbEntity
  8
2
100
AcDbCircle
 10
317.111156
 20
186.379033
 30
0.0
 40
40.0
100
AcDbArc
 50
245.069771
 51
299.963791
  0
ARC
  5
790
100
AcDbEntity
  8
2
100
AcDbCircle
 10
151.03452
 20
186.379033
 30
0.0
 40
40.0
100
AcDbArc
 50
240.036209
 51
294.930229
  0
ARC
  5
791
100
AcDbEntity
  8
2
100
AcDbCircle
 10
55.428953
 20
90.773466
 30
0.0
 40
40.0
100
AcDbArc
 50
335.069771
 51
29.963791
  0
ARC
  5
792
100
AcDbEntity
  8
2
100
AcDbCircle
 10
55.428953
 20
-75.30317
 30
0.0
 40
40.0
100
AcDbArc
 50
330.036209
 51
24.930229
  0
ARC
  5
793
100
AcDbEntity
  8
2
100
AcDbCircle
 10
151.03452
 20
-170.908737
 30
0.0
 40
40.0
100
AcDbArc
 50
65.069771
 51
119.963791
  0
ARC
  5
794
100
AcDbEntity
  8
2
100
AcDbCircle
 10
317.111156
 20
-170.908737
 30
0.0
 40
40.0
100
AcDbArc
 50
60.036209
 51
114.930229
  0
ARC
  5
795
100
AcDbEntity
  8
2
100
AcDbCircle
 10
412.716723
 20
-75.30317
 30
0.0
 40
40.0
100
AcDbArc
 50
155.069771
 51
209.963791
  0
CIRCLE
  5
796
100
AcDbEntity
  8
2
100
AcDbCircle
 10
352.072838
 20
125.735148
 30
0.0
 40
26.0
  0
CIRCLE
  5
797
100
AcDbEntity
  8
2
100
AcDbCircle
 10
352.072838
 20
-110.264852
 30
0.0
 40
26.0
  0
CIRCLE
  5
798
100
AcDbEntity
  8
2
100
AcDbCircle
 10
116.072838
 20
-110.264852
 30
0.0
 40
26.0
  0
CIRCLE
  5
799
100
AcDbEntity
  8
2
100
AcDbCircle
 10
116.072838
 20
125.735148
 30
0.0
 40
26.0
  0
LINE
  5
79A
100
AcDbEntity
  8
2
100
AcDbLine
 10
391.072838
 20
29.735148
 30
0.0
 11
391.072838
 21
-14.264852
 31
0.0
  0
LINE
  5
79B
100
AcDbEntity
  8
2
100
AcDbLine
 10
391.072838
 20
29.735148
 30
0.0
 11
389.523795
 21
29.735148
 31
0.0
  0
LINE
  5
79C
100
AcDbEntity
  8
2
100
AcDbLine
 10
391.072838
 20
-14.264852
 30
0.0
 11
389.523795
 21
-14.264852
 31
0.0
  0
LINE
  5
79D
100
AcDbEntity
  8
2
100
AcDbLine
 10
339.072838
 20
25.095185
 30
0.0
 11
339.072838
 21
-9.624888
 31
0.0
  0
ARC
  5
79E
100
AcDbEntity
  8
2
100
AcDbCircle
 10
332.072838
 20
7.735148
 30
0.0
 40
5.0
100
AcDbArc
 50
146.439053
 51
213.560947
  0
LINE
  5
79F
100
AcDbEntity
  8
2
100
AcDbLine
 10
77.072838
 20
44.735148
 30
0.0
 11
77.072838
 21
0.735148
 31
0.0
  0
LINE
  5
7A0
100
AcDbEntity
  8
2
100
AcDbLine
 10
77.072838
 20
44.735148
 30
0.0
 11
81.496227
 21
44.735148
 31
0.0
  0
LINE
  5
7A1
100
AcDbEntity
  8
2
100
AcDbLine
 10
77.072838
 20
0.735148
 30
0.0
 11
77.228967
 21
0.735148
 31
0.0
  0
LINE
  5
7A2
100
AcDbEntity
  8
2
100
AcDbLine
 10
129.072838
 20
40.095185
 30
0.0
 11
129.072838
 21
5.375112
 31
0.0
  0
ARC
  5
7A3
100
AcDbEntity
  8
2
100
AcDbCircle
 10
136.072838
 20
22.735148
 30
0.0
 40
5.0
100
AcDbArc
 50
326.439053
 51
33.560947
  0
CIRCLE
  5
7A4
100
AcDbEntity
  8
2
100
AcDbCircle
 10
234.072838
 20
7.735148
 30
0.0
 40
40.0
  0
CIRCLE
  5
7A5
100
AcDbEntity
  8
2
100
AcDbCircle
 10
234.072838
 20
7.735148
 30
0.0
 40
28.5
  0
CIRCLE
  5
7A6
100
AcDbEntity
  8
2
100
AcDbCircle
 10
234.072838
 20
7.735148
 30
0.0
 40
19.5
  0
CIRCLE
  5
7A7
100
AcDbEntity
  8
2
 62
     2
100
AcDbCircle
 10
234.072838
 20
7.735148
 30
0.0
 40
18.688
  0
CIRCLE
  5
7A8
100
AcDbEntity
  8
2
100
AcDbCircle
 10
234.072838
 20
7.735148
 30
0.0
 40
18.0
  0
CIRCLE
  5
7A9
100
AcDbEntity
  8
2
100
AcDbCircle
 10
234.072838
 20
7.735148
 30
0.0
 40
35.0
  0
LINE
  5
7AA
100
AcDbEntity
  8
2
100
AcDbLine
 10
251.393346
 20
37.735148
 30
0.0
 11
216.75233
 21
37.735148
 31
0.0
  0
LINE
  5
7AB
100
AcDbEntity
  8
2
100
AcDbLine
 10
251.393346
 20
-22.264852
 30
0.0
 11
216.75233
 21
-22.264852
 31
0.0
  0
LINE
  5
7AC
100
AcDbEntity
  8
2
100
AcDbLine
 10
216.75233
 20
37.735148
 30
0.0
 11
199.431822
 21
7.735148
 31
0.0
  0
LINE
  5
7AD
100
AcDbEntity
  8
2
100
AcDbLine
 10
268.713854
 20
7.735148
 30
0.0
 11
251.393346
 21
-22.264852
 31
0.0
  0
LINE
  5
7AE
100
AcDbEntity
  8
2
100
AcDbLine
 10
199.431822
 20
7.735148
 30
0.0
 11
216.75233
 21
-22.264852
 31
0.0
  0
LINE
  5
7AF
100
AcDbEntity
  8
2
100
AcDbLine
 10
251.393346
 20
37.735148
 30
0.0
 11
268.713854
 21
7.735148
 31
0.0
  0
LINE
  5
7B0
100
AcDbEntity
  8
2
100
AcDbLine
 10
235.519259
 20
24.673503
 30
0.0
 11
251.011193
 21
9.18157
 31
0.0
  0
LINE
  5
7B1
100
AcDbEntity
  8
2
100
AcDbLine
 10
235.519259
 20
-9.203207
 30
0.0
 11
251.011193
 21
6.288727
 31
0.0
  0
LINE
  5
7B2
100
AcDbEntity
  8
2
100
AcDbLine
 10
217.134483
 20
6.288727
 30
0.0
 11
232.626417
 21
-9.203207
 31
0.0
  0
LINE
  5
7B3
100
AcDbEntity
  8
2
100
AcDbLine
 10
217.134483
 20
9.18157
 30
0.0
 11
232.626417
 21
24.673503
 31
0.0
  0
ARC
  5
7B4
100
AcDbEntity
  8
2
100
AcDbCircle
 10
234.072838
 20
7.735148
 30
0.0
 40
17.0
100
AcDbArc
 50
265.119167
 51
274.880833
  0
ARC
  5
7B5
100
AcDbEntity
  8
2
100
AcDbCircle
 10
234.072838
 20
7.735148
 30
0.0
 40
17.0
100
AcDbArc
 50
85.119167
 51
94.880833
  0
ARC
  5
7B6
100
AcDbEntity
  8
2
100
AcDbCircle
 10
234.072838
 20
7.735148
 30
0.0
 40
17.0
100
AcDbArc
 50
175.119167
 51
184.880833
  0
LINE
  5
7B7
100
AcDbEntity
  8
2
100
AcDbLine
 10
234.072838
 20
24.705711
 30
0.0
 11
251.043401
 21
7.735148
 31
0.0
  0
LINE
  5
7B8
100
AcDbEntity
  8
2
100
AcDbLine
 10
234.072838
 20
-9.235415
 30
0.0
 11
251.043401
 21
7.735148
 31
0.0
  0
LINE
  5
7B9
100
AcDbEntity
  8
2
100
AcDbLine
 10
217.102275
 20
7.735148
 30
0.0
 11
234.072838
 21
-9.235415
 31
0.0
  0
LINE
  5
7BA
100
AcDbEntity
  8
2
100
AcDbLine
 10
217.102275
 20
7.735148
 30
0.0
 11
234.072838
 21
24.705711
 31
0.0
  0
ARC
  5
7BB
100
AcDbEntity
  8
2
100
AcDbCircle
 10
234.072838
 20
7.735148
 30
0.0
 40
17.0
100
AcDbArc
 50
355.119167
 51
4.880833
  0
LINE
  5
7BC
100
AcDbEntity
  8
2
100
AcDbLine
 10
406.072838
 20
-15.264852
 30
0.0
 11
432.072838
 21
-15.264852
 31
0.0
  0
LINE
  5
7BD
100
AcDbEntity
  8
2
100
AcDbLine
 10
398.672838
 20
0.735148
 30
0.0
 11
403.572838
 21
0.735148
 31
0.0
  0
LINE
  5
7BE
100
AcDbEntity
  8
2
100
AcDbLine
 10
398.672838
 20
14.735148
 30
0.0
 11
412.572838
 21
14.735148
 31
0.0
  0
LINE
  5
7BF
100
AcDbEntity
  8
2
100
AcDbLine
 10
406.072838
 20
-15.264852
 30
0.0
 11
406.072838
 21
-11.201344
 31
0.0
  0
LINE
  5
7C0
100
AcDbEntity
  8
2
100
AcDbLine
 10
432.072838
 20
-15.264852
 30
0.0
 11
432.072838
 21
-11.201344
 31
0.0
  0
LINE
  5
7C1
100
AcDbEntity
  8
2
100
AcDbLine
 10
407.572838
 20
-10.264852
 30
0.0
 11
430.572838
 21
-10.264852
 31
0.0
  0
LINE
  5
7C2
100
AcDbEntity
  8
2
100
AcDbLine
 10
407.572838
 20
-9.264852
 30
0.0
 11
407.572838
 21
-3.264852
 31
0.0
  0
LINE
  5
7C3
100
AcDbEntity
  8
2
100
AcDbLine
 10
430.572838
 20
-9.264852
 30
0.0
 11
430.572838
 21
-3.264852
 31
0.0
  0
ARC
  5
7C4
100
AcDbEntity
  8
2
100
AcDbCircle
 10
431.572838
 20
-9.264852
 30
0.0
 40
1.0
100
AcDbArc
 50
180.0
 51
255.522488
  0
ARC
  5
7C5
100
AcDbEntity
  8
2
100
AcDbCircle
 10
406.572838
 20
-9.264852
 30
0.0
 40
1.0
100
AcDbArc
 50
284.477512
 51
360.0
  0
ARC
  5
7C6
100
AcDbEntity
  8
2
100
AcDbCircle
 10
431.072838
 20
-11.201344
 30
0.0
 40
1.0
100
AcDbArc
 50
0.0
 51
75.522488
  0
ARC
  5
7C7
100
AcDbEntity
  8
2
100
AcDbCircle
 10
407.072838
 20
-11.201344
 30
0.0
 40
1.0
100
AcDbArc
 50
104.477512
 51
180.0
  0
LINE
  5
7C8
100
AcDbEntity
  8
2
100
AcDbLine
 10
398.072838
 20
0.021086
 30
0.0
 11
398.072838
 21
15.449211
 31
0.0
  0
ARC
  5
7C9
100
AcDbEntity
  8
2
100
AcDbCircle
 10
403.572838
 20
-3.264852
 30
0.0
 40
4.0
100
AcDbArc
 50
0.0
 51
90.0
  0
ARC
  5
7CA
100
AcDbEntity
  8
2
100
AcDbCircle
 10
412.572838
 20
-3.264852
 30
0.0
 40
18.0
100
AcDbArc
 50
0.0
 51
90.0
  0
LINE
  5
7CB
100
AcDbEntity
  8
2
100
AcDbLine
 10
397.242777
 20
16.279271
 30
0.0
 11
391.072838
 21
16.086461
 31
0.0
  0
LINE
  5
7CC
100
AcDbEntity
  8
2
 62
     2
100
AcDbLine
 10
398.072838
 20
15.449211
 30
0.0
 11
391.072838
 21
15.230461
 31
0.0
  0
LINE
  5
7CD
100
AcDbEntity
  8
2
100
AcDbLine
 10
397.242777
 20
-0.808975
 30
0.0
 11
391.072838
 21
-0.616164
 31
0.0
  0
LINE
  5
7CE
100
AcDbEntity
  8
2
 62
     2
100
AcDbLine
 10
398.072838
 20
0.021086
 30
0.0
 11
391.072838
 21
0.239836
 31
0.0
  0
LINE
  5
7CF
100
AcDbEntity
  8
2
100
AcDbLine
 10
398.072838
 20
0.021086
 30
0.0
 11
397.242777
 21
-0.808975
 31
0.0
  0
LINE
  5
7D0
100
AcDbEntity
  8
2
100
AcDbLine
 10
398.072838
 20
15.449211
 30
0.0
 11
397.242777
 21
16.279271
 31
0.0
  0
LINE
  5
7D1
100
AcDbEntity
  8
2
100
AcDbLine
 10
397.242777
 20
-0.808975
 30
0.0
 11
397.242777
 21
16.279271
 31
0.0
  0
ARC
  5
7D2
100
AcDbEntity
  8
2
100
AcDbCircle
 10
398.672838
 20
0.135148
 30
0.0
 40
0.6
100
AcDbArc
 50
90.0
 51
180.0
  0
ARC
  5
7D3
100
AcDbEntity
  8
2
100
AcDbCircle
 10
398.672838
 20
15.335148
 30
0.0
 40
0.6
100
AcDbArc
 50
180.0
 51
270.0
  0
LINE
  5
7D4
100
AcDbEntity
  8
2
100
AcDbLine
 10
430.072838
 20
-20.264852
 30
0.0
 11
430.072838
 21
-30.264852
 31
0.0
  0
LINE
  5
7D5
100
AcDbEntity
  8
2
100
AcDbLine
 10
408.072838
 20
-20.264852
 30
0.0
 11
408.072838
 21
-30.264852
 31
0.0
  0
LINE
  5
7D6
100
AcDbEntity
  8
2
  6
CENTER
 62
     2
100
AcDbLine
 10
419.072838
 20
-98.170374
 30
0.0
 11
419.072838
 21
23.652946
 31
0.0
  0
LINE
  5
7D7
100
AcDbEntity
  8
2
100
AcDbLine
 10
430.072838
 20
-90.264852
 30
0.0
 11
408.072838
 21
-90.264852
 31
0.0
  0
LINE
  5
7D8
100
AcDbEntity
  8
2
100
AcDbLine
 10
430.072838
 20
-90.264852
 30
0.0
 11
431.572838
 21
-88.764852
 31
0.0
  0
LINE
  5
7D9
100
AcDbEntity
  8
2
100
AcDbLine
 10
406.572838
 20
-88.764852
 30
0.0
 11
408.072838
 21
-90.264852
 31
0.0
  0
LINE
  5
7DA
100
AcDbEntity
  8
2
100
AcDbLine
 10
406.572838
 20
-88.764852
 30
0.0
 11
431.572838
 21
-88.764852
 31
0.0
  0
LINE
  5
7DB
100
AcDbEntity
  8
2
100
AcDbLine
 10
430.072838
 20
-20.264852
 30
0.0
 11
408.072838
 21
-20.264852
 31
0.0
  0
LINE
  5
7DC
100
AcDbEntity
  8
2
100
AcDbLine
 10
410.577229
 20
-20.264852
 30
0.0
 11
410.706889
 21
-15.264852
 31
0.0
  0
LINE
  5
7DD
100
AcDbEntity
  8
2
100
AcDbLine
 10
410.626213
 20
-18.697374
 30
0.0
 11
427.519463
 21
-18.697374
 31
0.0
  0
LINE
  5
7DE
100
AcDbEntity
  8
2
 62
     2
100
AcDbLine
 10
410.577229
 20
-20.264852
 30
0.0
 11
411.482213
 21
-18.697374
 31
0.0
  0
LINE
  5
7DF
100
AcDbEntity
  8
2
 62
     2
100
AcDbLine
 10
411.482213
 20
-18.697374
 30
0.0
 11
411.568923
 21
-15.264852
 31
0.0
  0
LINE
  5
7E0
100
AcDbEntity
  8
2
100
AcDbLine
 10
427.568447
 20
-20.264852
 30
0.0
 11
427.438787
 21
-15.264852
 31
0.0
  0
LINE
  5
7E1
100
AcDbEntity
  8
2
 62
     2
100
AcDbLine
 10
427.568447
 20
-20.264852
 30
0.0
 11
426.663463
 21
-18.697374
 31
0.0
  0
LINE
  5
7E2
100
AcDbEntity
  8
2
 62
     2
100
AcDbLine
 10
426.663463
 20
-18.697374
 30
0.0
 11
426.576753
 21
-15.264852
 31
0.0
  0
LINE
  5
7E3
100
AcDbEntity
  8
2
100
AcDbLine
 10
406.572838
 20
-82.764852
 30
0.0
 11
406.572838
 21
-88.764852
 31
0.0
  0
LINE
  5
7E4
100
AcDbEntity
  8
2
100
AcDbLine
 10
406.572838
 20
-30.264852
 30
0.0
 11
406.572838
 21
-36.764852
 31
0.0
  0
LINE
  5
7E5
100
AcDbEntity
  8
2
100
AcDbLine
 10
406.572838
 20
-40.764852
 30
0.0
 11
406.572838
 21
-43.764852
 31
0.0
  0
LINE
  5
7E6
100
AcDbEntity
  8
2
100
AcDbLine
 10
406.572838
 20
-47.764852
 30
0.0
 11
406.572838
 21
-50.764852
 31
0.0
  0
LINE
  5
7E7
100
AcDbEntity
  8
2
100
AcDbLine
 10
406.572838
 20
-54.764852
 30
0.0
 11
406.572838
 21
-57.764852
 31
0.0
  0
LINE
  5
7E8
100
AcDbEntity
  8
2
100
AcDbLine
 10
406.572838
 20
-61.764852
 30
0.0
 11
406.572838
 21
-64.764852
 31
0.0
  0
LINE
  5
7E9
100
AcDbEntity
  8
2
100
AcDbLine
 10
406.572838
 20
-68.764852
 30
0.0
 11
406.572838
 21
-71.764852
 31
0.0
  0
LINE
  5
7EA
100
AcDbEntity
  8
2
100
AcDbLine
 10
406.572838
 20
-75.764852
 30
0.0
 11
406.572838
 21
-78.764852
 31
0.0
  0
LINE
  5
7EB
100
AcDbEntity
  8
2
100
AcDbLine
 10
431.572838
 20
-82.764852
 30
0.0
 11
431.572838
 21
-88.764852
 31
0.0
  0
LINE
  5
7EC
100
AcDbEntity
  8
2
100
AcDbLine
 10
431.572838
 20
-30.264852
 30
0.0
 11
431.572838
 21
-36.764852
 31
0.0
  0
LINE
  5
7ED
100
AcDbEntity
  8
2
100
AcDbLine
 10
431.572838
 20
-40.764852
 30
0.0
 11
431.572838
 21
-43.764852
 31
0.0
  0
LINE
  5
7EE
100
AcDbEntity
  8
2
100
AcDbLine
 10
431.572838
 20
-47.764852
 30
0.0
 11
431.572838
 21
-50.764852
 31
0.0
  0
LINE
  5
7EF
100
AcDbEntity
  8
2
100
AcDbLine
 10
431.572838
 20
-54.764852
 30
0.0
 11
431.572838
 21
-57.764852
 31
0.0
  0
LINE
  5
7F0
100
AcDbEntity
  8
2
100
AcDbLine
 10
431.572838
 20
-61.764852
 30
0.0
 11
431.572838
 21
-64.764852
 31
0.0
  0
LINE
  5
7F1
100
AcDbEntity
  8
2
100
AcDbLine
 10
431.572838
 20
-68.764852
 30
0.0
 11
431.572838
 21
-71.764852
 31
0.0
  0
LINE
  5
7F2
100
AcDbEntity
  8
2
100
AcDbLine
 10
431.572838
 20
-75.764852
 30
0.0
 11
431.572838
 21
-78.764852
 31
0.0
  0
LINE
  5
7F3
100
AcDbEntity
  8
2
100
AcDbLine
 10
418.714579
 20
-30.264852
 30
0.0
 11
408.431097
 21
-30.264852
 31
0.0
  0
LINE
  5
7F4
100
AcDbEntity
  8
2
100
AcDbLine
 10
408.072838
 20
-30.264852
 30
0.0
 11
406.572838
 21
-30.264852
 31
0.0
  0
LINE
  5
7F5
100
AcDbEntity
  8
2
100
AcDbLine
 10
431.572838
 20
-30.264852
 30
0.0
 11
430.072838
 21
-30.264852
 31
0.0
  0
LINE
  5
7F6
100
AcDbEntity
  8
2
100
AcDbLine
 10
429.714579
 20
-30.264852
 30
0.0
 11
419.431097
 21
-30.264852
 31
0.0
  0
LINE
  5
7F7
100
AcDbEntity
  8
2
100
AcDbLine
 10
425.965325
 20
-36.764852
 30
0.0
 11
412.180351
 21
-36.764852
 31
0.0
  0
LINE
  5
7F8
100
AcDbEntity
  8
2
100
AcDbLine
 10
425.965325
 20
-40.764852
 30
0.0
 11
412.180351
 21
-40.764852
 31
0.0
  0
LINE
  5
7F9
100
AcDbEntity
  8
2
100
AcDbLine
 10
425.965325
 20
-43.764852
 30
0.0
 11
412.180351
 21
-43.764852
 31
0.0
  0
LINE
  5
7FA
100
AcDbEntity
  8
2
100
AcDbLine
 10
425.965325
 20
-47.764852
 30
0.0
 11
412.180351
 21
-47.764852
 31
0.0
  0
LINE
  5
7FB
100
AcDbEntity
  8
2
100
AcDbLine
 10
425.965325
 20
-50.764852
 30
0.0
 11
412.180351
 21
-50.764852
 31
0.0
  0
LINE
  5
7FC
100
AcDbEntity
  8
2
100
AcDbLine
 10
425.965325
 20
-54.764852
 30
0.0
 11
412.180351
 21
-54.764852
 31
0.0
  0
LINE
  5
7FD
100
AcDbEntity
  8
2
100
AcDbLine
 10
425.965325
 20
-57.764852
 30
0.0
 11
412.180351
 21
-57.764852
 31
0.0
  0
LINE
  5
7FE
100
AcDbEntity
  8
2
100
AcDbLine
 10
425.965325
 20
-61.764852
 30
0.0
 11
412.180351
 21
-61.764852
 31
0.0
  0
LINE
  5
7FF
100
AcDbEntity
  8
2
100
AcDbLine
 10
425.965325
 20
-64.764852
 30
0.0
 11
412.180351
 21
-64.764852
 31
0.0
  0
LINE
  5
800
100
AcDbEntity
  8
2
100
AcDbLine
 10
425.965325
 20
-68.764852
 30
0.0
 11
412.180351
 21
-68.764852
 31
0.0
  0
LINE
  5
801
100
AcDbEntity
  8
2
100
AcDbLine
 10
425.965325
 20
-71.764852
 30
0.0
 11
412.180351
 21
-71.764852
 31
0.0
  0
LINE
  5
802
100
AcDbEntity
  8
2
100
AcDbLine
 10
425.965325
 20
-75.764852
 30
0.0
 11
412.180351
 21
-75.764852
 31
0.0
  0
LINE
  5
803
100
AcDbEntity
  8
2
100
AcDbLine
 10
425.965325
 20
-78.764852
 30
0.0
 11
412.180351
 21
-78.764852
 31
0.0
  0
LINE
  5
804
100
AcDbEntity
  8
2
100
AcDbLine
 10
425.965325
 20
-82.764852
 30
0.0
 11
412.180351
 21
-82.764852
 31
0.0
  0
LINE
  5
805
100
AcDbEntity
  8
2
100
AcDbLine
 10
408.644817
 20
-82.764852
 30
0.0
 11
406.572838
 21
-82.764852
 31
0.0
  0
LINE
  5
806
100
AcDbEntity
  8
2
100
AcDbLine
 10
408.644817
 20
-78.764852
 30
0.0
 11
406.572838
 21
-78.764852
 31
0.0
  0
LINE
  5
807
100
AcDbEntity
  8
2
100
AcDbLine
 10
408.644817
 20
-75.764852
 30
0.0
 11
406.572838
 21
-75.764852
 31
0.0
  0
LINE
  5
808
100
AcDbEntity
  8
2
100
AcDbLine
 10
408.644817
 20
-71.764852
 30
0.0
 11
406.572838
 21
-71.764852
 31
0.0
  0
LINE
  5
809
100
AcDbEntity
  8
2
100
AcDbLine
 10
408.644817
 20
-68.764852
 30
0.0
 11
406.572838
 21
-68.764852
 31
0.0
  0
LINE
  5
80A
100
AcDbEntity
  8
2
100
AcDbLine
 10
408.644817
 20
-64.764852
 30
0.0
 11
406.572838
 21
-64.764852
 31
0.0
  0
LINE
  5
80B
100
AcDbEntity
  8
2
100
AcDbLine
 10
408.644817
 20
-61.764852
 30
0.0
 11
406.572838
 21
-61.764852
 31
0.0
  0
LINE
  5
80C
100
AcDbEntity
  8
2
100
AcDbLine
 10
408.644817
 20
-57.764852
 30
0.0
 11
406.572838
 21
-57.764852
 31
0.0
  0
LINE
  5
80D
100
AcDbEntity
  8
2
100
AcDbLine
 10
408.644817
 20
-54.764852
 30
0.0
 11
406.572838
 21
-54.764852
 31
0.0
  0
LINE
  5
80E
100
AcDbEntity
  8
2
100
AcDbLine
 10
408.644817
 20
-50.764852
 30
0.0
 11
406.572838
 21
-50.764852
 31
0.0
  0
LINE
  5
80F
100
AcDbEntity
  8
2
100
AcDbLine
 10
408.644817
 20
-47.764852
 30
0.0
 11
406.572838
 21
-47.764852
 31
0.0
  0
LINE
  5
810
100
AcDbEntity
  8
2
100
AcDbLine
 10
408.644817
 20
-43.764852
 30
0.0
 11
406.572838
 21
-43.764852
 31
0.0
  0
LINE
  5
811
100
AcDbEntity
  8
2
100
AcDbLine
 10
408.644817
 20
-40.764852
 30
0.0
 11
406.572838
 21
-40.764852
 31
0.0
  0
LINE
  5
812
100
AcDbEntity
  8
2
100
AcDbLine
 10
408.644817
 20
-36.764852
 30
0.0
 11
406.572838
 21
-36.764852
 31
0.0
  0
LINE
  5
813
100
AcDbEntity
  8
2
100
AcDbLine
 10
408.644817
 20
-78.764852
 30
0.0
 11
408.644817
 21
-82.764852
 31
0.0
  0
LINE
  5
814
100
AcDbEntity
  8
2
100
AcDbLine
 10
412.180351
 20
-78.764852
 30
0.0
 11
412.180351
 21
-82.764852
 31
0.0
  0
LINE
  5
815
100
AcDbEntity
  8
2
100
AcDbLine
 10
408.644817
 20
-71.764852
 30
0.0
 11
408.644817
 21
-75.764852
 31
0.0
  0
LINE
  5
816
100
AcDbEntity
  8
2
100
AcDbLine
 10
408.644817
 20
-64.764852
 30
0.0
 11
408.644817
 21
-68.764852
 31
0.0
  0
LINE
  5
817
100
AcDbEntity
  8
2
100
AcDbLine
 10
408.644817
 20
-57.764852
 30
0.0
 11
408.644817
 21
-61.764852
 31
0.0
  0
LINE
  5
818
100
AcDbEntity
  8
2
100
AcDbLine
 10
408.644817
 20
-50.764852
 30
0.0
 11
408.644817
 21
-54.764852
 31
0.0
  0
LINE
  5
819
100
AcDbEntity
  8
2
100
AcDbLine
 10
408.644817
 20
-36.764852
 30
0.0
 11
408.644817
 21
-40.764852
 31
0.0
  0
LINE
  5
81A
100
AcDbEntity
  8
2
100
AcDbLine
 10
408.644817
 20
-43.764852
 30
0.0
 11
408.644817
 21
-47.764852
 31
0.0
  0
LINE
  5
81B
100
AcDbEntity
  8
2
100
AcDbLine
 10
429.500859
 20
-82.764852
 30
0.0
 11
431.572838
 21
-82.764852
 31
0.0
  0
LINE
  5
81C
100
AcDbEntity
  8
2
100
AcDbLine
 10
429.500859
 20
-78.764852
 30
0.0
 11
431.572838
 21
-78.764852
 31
0.0
  0
LINE
  5
81D
100
AcDbEntity
  8
2
100
AcDbLine
 10
429.500859
 20
-75.764852
 30
0.0
 11
431.572838
 21
-75.764852
 31
0.0
  0
LINE
  5
81E
100
AcDbEntity
  8
2
100
AcDbLine
 10
429.500859
 20
-71.764852
 30
0.0
 11
431.572838
 21
-71.764852
 31
0.0
  0
LINE
  5
81F
100
AcDbEntity
  8
2
100
AcDbLine
 10
429.500859
 20
-68.764852
 30
0.0
 11
431.572838
 21
-68.764852
 31
0.0
  0
LINE
  5
820
100
AcDbEntity
  8
2
100
AcDbLine
 10
429.500859
 20
-64.764852
 30
0.0
 11
431.572838
 21
-64.764852
 31
0.0
  0
LINE
  5
821
100
AcDbEntity
  8
2
100
AcDbLine
 10
429.500859
 20
-61.764852
 30
0.0
 11
431.572838
 21
-61.764852
 31
0.0
  0
LINE
  5
822
100
AcDbEntity
  8
2
100
AcDbLine
 10
429.500859
 20
-57.764852
 30
0.0
 11
431.572838
 21
-57.764852
 31
0.0
  0
LINE
  5
823
100
AcDbEntity
  8
2
100
AcDbLine
 10
429.500859
 20
-54.764852
 30
0.0
 11
431.572838
 21
-54.764852
 31
0.0
  0
LINE
  5
824
100
AcDbEntity
  8
2
100
AcDbLine
 10
429.500859
 20
-50.764852
 30
0.0
 11
431.572838
 21
-50.764852
 31
0.0
  0
LINE
  5
825
100
AcDbEntity
  8
2
100
AcDbLine
 10
429.500859
 20
-47.764852
 30
0.0
 11
431.572838
 21
-47.764852
 31
0.0
  0
LINE
  5
826
100
AcDbEntity
  8
2
100
AcDbLine
 10
429.500859
 20
-43.764852
 30
0.0
 11
431.572838
 21
-43.764852
 31
0.0
  0
LINE
  5
827
100
AcDbEntity
  8
2
100
AcDbLine
 10
429.500859
 20
-40.764852
 30
0.0
 11
431.572838
 21
-40.764852
 31
0.0
  0
LINE
  5
828
100
AcDbEntity
  8
2
100
AcDbLine
 10
429.500859
 20
-36.764852
 30
0.0
 11
431.572838
 21
-36.764852
 31
0.0
  0
LINE
  5
829
100
AcDbEntity
  8
2
100
AcDbLine
 10
429.500859
 20
-78.764852
 30
0.0
 11
429.500859
 21
-82.764852
 31
0.0
  0
LINE
  5
82A
100
AcDbEntity
  8
2
100
AcDbLine
 10
429.500859
 20
-71.764852
 30
0.0
 11
429.500859
 21
-75.764852
 31
0.0
  0
LINE
  5
82B
100
AcDbEntity
  8
2
100
AcDbLine
 10
429.500859
 20
-64.764852
 30
0.0
 11
429.500859
 21
-68.764852
 31
0.0
  0
LINE
  5
82C
100
AcDbEntity
  8
2
100
AcDbLine
 10
429.500859
 20
-57.764852
 30
0.0
 11
429.500859
 21
-61.764852
 31
0.0
  0
LINE
  5
82D
100
AcDbEntity
  8
2
100
AcDbLine
 10
429.500859
 20
-50.764852
 30
0.0
 11
429.500859
 21
-54.764852
 31
0.0
  0
LINE
  5
82E
100
AcDbEntity
  8
2
100
AcDbLine
 10
429.500859
 20
-36.764852
 30
0.0
 11
429.500859
 21
-40.764852
 31
0.0
  0
LINE
  5
82F
100
AcDbEntity
  8
2
100
AcDbLine
 10
429.500859
 20
-43.764852
 30
0.0
 11
429.500859
 21
-47.764852
 31
0.0
  0
LINE
  5
830
100
AcDbEntity
  8
2
100
AcDbLine
 10
413.994073
 20
-78.764852
 30
0.0
 11
413.994073
 21
-82.764852
 31
0.0
  0
LINE
  5
831
100
AcDbEntity
  8
2
100
AcDbLine
 10
424.151603
 20
-78.764852
 30
0.0
 11
424.151603
 21
-82.764852
 31
0.0
  0
LINE
  5
832
100
AcDbEntity
  8
2
100
AcDbLine
 10
425.965325
 20
-78.764852
 30
0.0
 11
425.965325
 21
-82.764852
 31
0.0
  0
LINE
  5
833
100
AcDbEntity
  8
2
100
AcDbLine
 10
413.994073
 20
-71.764852
 30
0.0
 11
413.994073
 21
-75.764852
 31
0.0
  0
LINE
  5
834
100
AcDbEntity
  8
2
100
AcDbLine
 10
412.180351
 20
-71.764852
 30
0.0
 11
412.180351
 21
-75.764852
 31
0.0
  0
LINE
  5
835
100
AcDbEntity
  8
2
100
AcDbLine
 10
424.151603
 20
-71.764852
 30
0.0
 11
424.151603
 21
-75.764852
 31
0.0
  0
LINE
  5
836
100
AcDbEntity
  8
2
100
AcDbLine
 10
425.965325
 20
-71.764852
 30
0.0
 11
425.965325
 21
-75.764852
 31
0.0
  0
LINE
  5
837
100
AcDbEntity
  8
2
100
AcDbLine
 10
412.180351
 20
-64.764852
 30
0.0
 11
412.180351
 21
-68.764852
 31
0.0
  0
LINE
  5
838
100
AcDbEntity
  8
2
100
AcDbLine
 10
413.994073
 20
-64.764852
 30
0.0
 11
413.994073
 21
-68.764852
 31
0.0
  0
LINE
  5
839
100
AcDbEntity
  8
2
100
AcDbLine
 10
424.151603
 20
-64.764852
 30
0.0
 11
424.151603
 21
-68.764852
 31
0.0
  0
LINE
  5
83A
100
AcDbEntity
  8
2
100
AcDbLine
 10
425.965325
 20
-64.764852
 30
0.0
 11
425.965325
 21
-68.764852
 31
0.0
  0
LINE
  5
83B
100
AcDbEntity
  8
2
100
AcDbLine
 10
412.180351
 20
-57.764852
 30
0.0
 11
412.180351
 21
-61.764852
 31
0.0
  0
LINE
  5
83C
100
AcDbEntity
  8
2
100
AcDbLine
 10
413.994073
 20
-57.764852
 30
0.0
 11
413.994073
 21
-61.764852
 31
0.0
  0
LINE
  5
83D
100
AcDbEntity
  8
2
100
AcDbLine
 10
424.151603
 20
-57.764852
 30
0.0
 11
424.151603
 21
-61.764852
 31
0.0
  0
LINE
  5
83E
100
AcDbEntity
  8
2
100
AcDbLine
 10
425.965325
 20
-57.764852
 30
0.0
 11
425.965325
 21
-61.764852
 31
0.0
  0
LINE
  5
83F
100
AcDbEntity
  8
2
100
AcDbLine
 10
412.180351
 20
-50.764852
 30
0.0
 11
412.180351
 21
-54.764852
 31
0.0
  0
LINE
  5
840
100
AcDbEntity
  8
2
100
AcDbLine
 10
413.994073
 20
-50.764852
 30
0.0
 11
413.994073
 21
-54.764852
 31
0.0
  0
LINE
  5
841
100
AcDbEntity
  8
2
100
AcDbLine
 10
424.151603
 20
-50.764852
 30
0.0
 11
424.151603
 21
-54.764852
 31
0.0
  0
LINE
  5
842
100
AcDbEntity
  8
2
100
AcDbLine
 10
425.965325
 20
-50.764852
 30
0.0
 11
425.965325
 21
-54.764852
 31
0.0
  0
LINE
  5
843
100
AcDbEntity
  8
2
100
AcDbLine
 10
412.180351
 20
-36.764852
 30
0.0
 11
412.180351
 21
-40.764852
 31
0.0
  0
LINE
  5
844
100
AcDbEntity
  8
2
100
AcDbLine
 10
412.180351
 20
-43.764852
 30
0.0
 11
412.180351
 21
-47.764852
 31
0.0
  0
LINE
  5
845
100
AcDbEntity
  8
2
100
AcDbLine
 10
413.994073
 20
-36.764852
 30
0.0
 11
413.994073
 21
-40.764852
 31
0.0
  0
LINE
  5
846
100
AcDbEntity
  8
2
100
AcDbLine
 10
413.994073
 20
-43.764852
 30
0.0
 11
413.994073
 21
-47.764852
 31
0.0
  0
LINE
  5
847
100
AcDbEntity
  8
2
100
AcDbLine
 10
424.151603
 20
-36.764852
 30
0.0
 11
424.151603
 21
-40.764852
 31
0.0
  0
LINE
  5
848
100
AcDbEntity
  8
2
100
AcDbLine
 10
424.151603
 20
-43.764852
 30
0.0
 11
424.151603
 21
-47.764852
 31
0.0
  0
LINE
  5
849
100
AcDbEntity
  8
2
100
AcDbLine
 10
425.965325
 20
-36.764852
 30
0.0
 11
425.965325
 21
-40.764852
 31
0.0
  0
LINE
  5
84A
100
AcDbEntity
  8
2
100
AcDbLine
 10
425.965325
 20
-43.764852
 30
0.0
 11
425.965325
 21
-47.764852
 31
0.0
  0
LINE
  5
84B
100
AcDbEntity
  8
2
100
AcDbLine
 10
418.714579
 20
-20.264852
 30
0.0
 11
418.714579
 21
-30.264852
 31
0.0
  0
LINE
  5
84C
100
AcDbEntity
  8
2
100
AcDbLine
 10
419.431097
 20
-20.264852
 30
0.0
 11
419.431097
 21
-30.264852
 31
0.0
  0
LINE
  5
84D
100
AcDbEntity
  8
2
100
AcDbLine
 10
408.431097
 20
-20.264852
 30
0.0
 11
408.431097
 21
-30.264852
 31
0.0
  0
LINE
  5
84E
100
AcDbEntity
  8
2
100
AcDbLine
 10
429.714579
 20
-20.264852
 30
0.0
 11
429.714579
 21
-30.264852
 31
0.0
  0
LINE
  5
84F
100
AcDbEntity
  8
2
100
AcDbLine
 10
-890.438273
 20
-175.264852
 30
0.0
 11
-890.438273
 21
-145.264852
 31
0.0
  0
LINE
  5
850
100
AcDbEntity
  8
2
100
AcDbLine
 10
-1030.438273
 20
-175.264852
 30
0.0
 11
-1030.438273
 21
-145.264852
 31
0.0
  0
LINE
  5
851
100
AcDbEntity
  8
2
100
AcDbLine
 10
371.072838
 20
-175.264852
 30
0.0
 11
371.072838
 21
-145.264852
 31
0.0
  0
LINE
  5
852
100
AcDbEntity
  8
2
100
AcDbLine
 10
231.072838
 20
-175.264852
 30
0.0
 11
231.072838
 21
-149.236187
 31
0.0
  0
LINE
  5
853
100
AcDbEntity
  8
2
  6
CENTER
 62
     2
100
AcDbLine
 10
-680.211344
 20
701.272659
 30
0.0
 11
-1241.220118
 21
701.272659
 31
0.0
  0
LINE
  5
854
100
AcDbEntity
  8
2
  6
CENTER
 62
     2
100
AcDbLine
 10
301.072838
 20
172.446842
 30
0.0
 11
301.072838
 21
-175.264852
 31
0.0
  0
LINE
  5
855
100
AcDbEntity
  8
2
  6
CENTER
 62
     2
100
AcDbLine
 10
-960.438273
 20
174.732086
 30
0.0
 11
-960.438273
 21
-175.264852
 31
0.0
  0
LINE
  5
856
100
AcDbEntity
  8
2
100
AcDbLine
 10
-1146.438273
 20
754.272659
 30
0.0
 11
-1146.438273
 21
730.272659
 31
0.0
  0
POINT
  5
857
100
AcDbEntity
  8
5
100
AcDbPoint
 10
44.072838
 20
22.735148
 30
0.0
  0
TEXT
  5
858
100
AcDbEntity
  8
5
100
AcDbText
 10
905.038818
 20
-426.359772
 30
0.0
 40
48.0
  1
駆動部・・・ＴＧ－１４Ｓ
 72
     5
 11
1471.438818
 21
-426.359772
 31
0.0
100
AcDbText
  0
DIMENSION
  5
859
100
AcDbEntity
  8
5
 62
     2
100
AcDbDimension
  2
*D0
 10
-95.438273
 20
935.041138
 30
0.0
 11
-527.938273
 21
952.241138
 31
0.0
  3
STANDARD
100
AcDbAlignedDimension
 13
-960.438273
 23
796.411339
 33
0.0
 14
-95.438273
 24
651.272659
 34
0.0
100
AcDbRotatedDimension
  0
DIMENSION
  5
85A
100
AcDbEntity
  8
5
 62
     2
100
AcDbDimension
  2
*D1
 10
-960.438273
 20
935.041138
 30
0.0
 11
-1155.438273
 21
952.241138
 31
0.0
  3
STANDARD
100
AcDbAlignedDimension
 13
-1350.438273
 23
644.648659
 33
0.0
 14
-960.438273
 24
796.411339
 34
0.0
100
AcDbRotatedDimension
  0
DIMENSION
  5
85B
100
AcDbEntity
  8
5
 62
     2
100
AcDbDimension
  2
*D2
 10
432.072838
 20
396.749908
 30
0.0
 11
547.232837
 21
413.949908
 31
0.0
  3
STANDARD
100
AcDbAlignedDimension
 13
301.072838
 23
172.446842
 33
0.0
 14
432.072838
 24
-11.201344
 34
0.0
100
AcDbRotatedDimension
  0
DIMENSION
  5
85C
100
AcDbEntity
  8
5
 62
     2
100
AcDbDimension
  2
*D3
 10
301.072838
 20
396.749908
 30
0.0
 11
172.572838
 21
413.949908
 31
0.0
  3
STANDARD
100
AcDbAlignedDimension
 13
44.072838
 23
22.735148
 33
0.0
 14
301.072838
 24
172.446842
 34
0.0
100
AcDbRotatedDimension
  0
DIMENSION
  5
85D
100
AcDbEntity
  8
5
 62
     2
100
AcDbDimension
  2
*D4
 10
352.072838
 20
-996.952881
 30
0.0
 11
301.072838
 21
-979.752881
 31
0.0
  3
STANDARD
100
AcDbAlignedDimension
 13
250.072838
 23
-788.964852
 33
0.0
 14
352.072838
 24
-788.964852
 34
0.0
100
AcDbRotatedDimension
  0
DIMENSION
  5
85E
100
AcDbEntity
  8
5
 62
     2
100
AcDbDimension
  2
*D5
 10
-12.898743
 20
164.735148
 30
0.0
 11
-44.618742
 21
-6.584852
 31
0.0
  3
STANDARD
100
AcDbAlignedDimension
 13
231.072838
 23
-175.264852
 33
0.0
 14
234.072838
 24
164.735148
 34
0.0
 50
90.0
100
AcDbRotatedDimension
  0
DIMENSION
  5
85F
100
AcDbEntity
  8
5
 62
     2
100
AcDbDimension
  2
*D6
 10
-12.898743
 20
-175.264852
 30
0.0
 11
-44.618742
 21
-368.184852
 31
0.0
  3
STANDARD
100
AcDbAlignedDimension
 13
213.926677
 23
-558.464852
 33
0.0
 14
231.072838
 24
-175.264852
 34
0.0
 50
90.0
100
AcDbRotatedDimension
  0
DIMENSION
  5
860
100
AcDbEntity
  8
5
 62
     2
100
AcDbDimension
  2
*D7
 10
-12.898743
 20
-558.464852
 30
0.0
 11
-100.058742
 21
-784.224851
 31
0.0
  3
STANDARD
100
AcDbAlignedDimension
 13
292.425838
 23
-896.464852
 33
0.0
 14
213.926677
 24
-558.464852
 34
0.0
 50
90.0
100
AcDbRotatedDimension
  0
DIMENSION
  5
861
100
AcDbEntity
  8
5
 62
     2
100
AcDbDimension
  2
*D8
 10
301.072838
 20
299.261566
 30
0.0
 11
267.572838
 21
316.461566
 31
0.0
  3
STANDARD
100
AcDbAlignedDimension
 13
234.072838
 23
197.735148
 33
0.0
 14
301.072838
 24
172.446842
 34
0.0
100
AcDbRotatedDimension
  0
TEXT
  5
862
100
AcDbEntity
  8
18
100
AcDbText
 10
977.157043
 20
-1066.111938
 30
0.0
 40
24.0
  1
１
 72
     5
 11
996.357043
 21
-1066.111938
 31
0.0
100
AcDbText
  0
TEXT
  5
863
100
AcDbEntity
  8
18
100
AcDbText
 10
1456.565186
 20
-1016.938232
 30
0.0
 40
16.0
  1
′０９．４．２２
 72
     5
 11
1581.365186
 21
-1016.938232
 31
0.0
100
AcDbText
  0
TEXT
  5
864
100
AcDbEntity
  8
18
100
AcDbText
 10
1228.8
 20
-1088.0
 30
0.0
 40
40.0
  1
Ｄ３－０４７２１
 72
     5
 11
1540.8
 21
-1088.0
 31
0.0
100
AcDbText
  0
TEXT
  5
865
100
AcDbEntity
  8
18
100
AcDbText
 10
982.833923
 20
-1016.282104
 30
0.0
 40
24.0
  1
標準仕様，重負荷仕様
 72
     5
 11
1218.033923
 21
-1016.282104
 31
0.0
100
AcDbText
  0
TEXT
  5
866
100
AcDbEntity
  8
18
100
AcDbText
 10
1009.796753
 20
-1093.342407
 30
0.0
 40
24.0
  1
８
 72
     5
 11
1028.996753
 21
-1093.342407
 31
0.0
100
AcDbText
  0
LINE
  5
867
100
AcDbEntity
  8
18
100
AcDbLine
 10
972.392609
 20
-529.724945
 30
0.0
 11
1372.392609
 21
-529.724945
 31
0.0
  0
LINE
  5
868
100
AcDbEntity
  8
18
100
AcDbLine
 10
972.392609
 20
-529.724945
 30
0.0
 11
972.392609
 21
-769.724945
 31
0.0
  0
LINE
  5
869
100
AcDbEntity
  8
18
100
AcDbLine
 10
972.392609
 20
-689.724945
 30
0.0
 11
1372.392609
 21
-689.724945
 31
0.0
  0
LINE
  5
86A
100
AcDbEntity
  8
18
100
AcDbLine
 10
972.392609
 20
-729.724945
 30
0.0
 11
1372.392609
 21
-729.724945
 31
0.0
  0
LINE
  5
86B
100
AcDbEntity
  8
18
100
AcDbLine
 10
972.392609
 20
-769.724945
 30
0.0
 11
1372.392609
 21
-769.724945
 31
0.0
  0
LINE
  5
86C
100
AcDbEntity
  8
18
100
AcDbLine
 10
1172.392609
 20
-529.724945
 30
0.0
 11
1172.392609
 21
-729.724945
 31
0.0
  0
LINE
  5
86D
100
AcDbEntity
  8
18
100
AcDbLine
 10
1372.392609
 20
-529.724945
 30
0.0
 11
1372.392609
 21
-769.724945
 31
0.0
  0
TEXT
  5
86E
100
AcDbEntity
  8
18
100
AcDbText
 10
1053.438507
 20
-720.30191
 30
0.0
 40
24.0
  1
A
 72
     5
 11
1072.638507
 21
-720.30191
 31
0.0
100
AcDbText
  0
TEXT
  5
86F
100
AcDbEntity
  8
18
100
AcDbText
 10
1253.342926
 20
-720.943146
 30
0.0
 40
24.0
  1
B
 72
     5
 11
1272.542926
 21
-720.943146
 31
0.0
100
AcDbText
  0
LINE
  5
870
100
AcDbEntity
  8
18
  6
CENTER
 62
     2
100
AcDbLine
 10
1264.591007
 20
-647.426727
 30
0.0
 11
1264.591003
 21
-599.770737
 31
0.0
  0
LINE
  5
871
100
AcDbEntity
  8
18
  6
CENTER
 62
     2
100
AcDbLine
 10
1220.935822
 20
-624.172046
 30
0.0
 11
1307.397369
 21
-624.172046
 31
0.0
  0
LINE
  5
872
100
AcDbEntity
  8
18
100
AcDbLine
 10
1231.256266
 20
-635.283626
 30
0.0
 11
1231.256266
 21
-613.060466
 31
0.0
  0
LINE
  5
873
100
AcDbEntity
  8
18
  6
CENTER
 62
     2
100
AcDbLine
 10
1273.850656
 20
-684.470596
 30
0.0
 11
1273.850656
 21
-535.387619
 31
0.0
  0
LINE
  5
874
100
AcDbEntity
  8
18
100
AcDbLine
 10
1287.431476
 20
-677.903046
 30
0.0
 11
1287.431476
 21
-605.652746
 31
0.0
  0
LINE
  5
875
100
AcDbEntity
  8
18
100
AcDbLine
 10
1249.850656
 20
-543.441046
 30
0.0
 11
1297.850656
 21
-543.441046
 31
0.0
  0
LINE
  5
876
100
AcDbEntity
  8
18
100
AcDbLine
 10
1260.269836
 20
-677.903046
 30
0.0
 11
1287.431476
 21
-677.903046
 31
0.0
  0
LINE
  5
877
100
AcDbEntity
  8
18
100
AcDbLine
 10
1249.850656
 20
-605.652746
 30
0.0
 11
1297.850656
 21
-605.652746
 31
0.0
  0
LINE
  5
878
100
AcDbEntity
  8
18
100
AcDbLine
 10
1260.269836
 20
-642.691346
 30
0.0
 11
1287.431476
 21
-642.691346
 31
0.0
  0
LINE
  5
879
100
AcDbEntity
  8
18
100
AcDbLine
 10
1260.269836
 20
-642.691346
 30
0.0
 11
1255.037847
 21
-628.422282
 31
0.0
  0
LINE
  5
87A
100
AcDbEntity
  8
18
100
AcDbLine
 10
1255.037847
 20
-619.921809
 30
0.0
 11
1260.269836
 21
-605.652746
 31
0.0
  0
ARC
  5
87B
100
AcDbEntity
  8
18
100
AcDbCircle
 10
1266.629401
 20
-624.172046
 30
0.0
 40
12.3462
100
AcDbArc
 50
159.863697
 51
200.136303
  0
LINE
  5
87C
100
AcDbEntity
  8
18
100
AcDbLine
 10
1260.269836
 20
-677.903046
 30
0.0
 11
1260.269836
 21
-642.691346
 31
0.0
  0
ARC
  5
87D
100
AcDbEntity
  8
18
100
AcDbCircle
 10
1264.591006
 20
-624.172046
 30
0.0
 40
18.5193
100
AcDbArc
 50
104.149808
 51
255.850192
  0
LINE
  5
87E
100
AcDbEntity
  8
18
100
AcDbLine
 10
1297.925746
 20
-635.283626
 30
0.0
 11
1287.431476
 21
-635.283626
 31
0.0
  0
LINE
  5
87F
100
AcDbEntity
  8
18
100
AcDbLine
 10
1249.775566
 20
-635.283626
 30
0.0
 11
1231.256266
 21
-635.283626
 31
0.0
  0
LINE
  5
880
100
AcDbEntity
  8
18
100
AcDbLine
 10
1271.138568
 20
-630.719607
 30
0.0
 11
1272.44808
 21
-632.029119
 31
0.0
  0
LINE
  5
881
100
AcDbEntity
  8
18
100
AcDbLine
 10
1271.138568
 20
-617.624484
 30
0.0
 11
1272.44808
 21
-616.314972
 31
0.0
  0
ARC
  5
882
100
AcDbEntity
  8
18
100
AcDbCircle
 10
1264.591006
 20
-624.172046
 30
0.0
 40
9.25965
100
AcDbArc
 50
315.0
 51
45.0
  0
ARC
  5
883
100
AcDbEntity
  8
18
100
AcDbCircle
 10
1264.591006
 20
-624.172046
 30
0.0
 40
11.11158
100
AcDbArc
 50
315.0
 51
45.0
  0
LINE
  5
884
100
AcDbEntity
  8
18
100
AcDbLine
 10
1270.089649
 20
-630.2243
 30
0.0
 11
1263.258938
 21
-626.956356
 31
0.0
  0
LINE
  5
885
100
AcDbEntity
  8
18
100
AcDbLine
 10
1270.665193
 20
-629.646451
 30
0.0
 11
1267.36997
 21
-622.828858
 31
0.0
  0
ARC
  5
886
100
AcDbEntity
  8
18
100
AcDbCircle
 10
1264.591006
 20
-624.172046
 30
0.0
 40
3.08655
100
AcDbArc
 50
25.796392
 51
244.432646
  0
ARC
  5
887
100
AcDbEntity
  8
18
100
AcDbCircle
 10
1270.276138
 20
-629.834497
 30
0.0
 40
0.432117
100
AcDbArc
 50
244.432646
 51
25.796392
  0
LINE
  5
888
100
AcDbEntity
  8
18
100
AcDbLine
 10
1273.535142
 20
-621.775472
 30
0.0
 11
1275.323969
 21
-621.296157
 31
0.0
  0
LINE
  5
889
100
AcDbEntity
  8
18
100
AcDbLine
 10
1273.535142
 20
-626.56862
 30
0.0
 11
1275.323969
 21
-627.047934
 31
0.0
  0
TEXT
  5
88A
100
AcDbEntity
  8
18
100
AcDbText
 10
1277.209473
 20
-639.430291
 30
0.0
 40
8.64
  1
S
 50
45.0
 72
     5
 11
1282.096995
 21
-634.542769
 31
0.0
100
AcDbText
  0
TEXT
  5
88B
100
AcDbEntity
  8
18
100
AcDbText
 10
1282.425002
 20
-614.129329
 30
0.0
 40
8.64
  1
O
 50
135.0
 72
     5
 11
1277.53748
 21
-609.241807
 31
0.0
100
AcDbText
  0
LINE
  5
88C
100
AcDbEntity
  8
18
  6
CENTER
 62
     2
100
AcDbLine
 10
1037.409638
 20
-608.760929
 30
0.0
 11
1089.111053
 21
-608.760925
 31
0.0
  0
LINE
  5
88D
100
AcDbEntity
  8
18
  6
CENTER
 62
     2
100
AcDbLine
 10
1062.389407
 20
-581.196929
 30
0.0
 11
1062.389407
 21
-641.439098
 31
0.0
  0
LINE
  5
88E
100
AcDbEntity
  8
18
100
AcDbLine
 10
1029.054667
 20
-597.649348
 30
0.0
 11
1029.054667
 21
-604.439758
 31
0.0
  0
LINE
  5
88F
100
AcDbEntity
  8
18
  6
CENTER
 62
     2
100
AcDbLine
 10
1002.090857
 20
-618.020578
 30
0.0
 11
1151.173834
 21
-618.020578
 31
0.0
  0
LINE
  5
890
100
AcDbEntity
  8
18
100
AcDbLine
 10
1008.658407
 20
-631.601398
 30
0.0
 11
1080.908707
 21
-631.601398
 31
0.0
  0
LINE
  5
891
100
AcDbEntity
  8
18
100
AcDbLine
 10
1143.120407
 20
-594.020578
 30
0.0
 11
1143.120407
 21
-642.020578
 31
0.0
  0
LINE
  5
892
100
AcDbEntity
  8
18
100
AcDbLine
 10
1008.658407
 20
-604.439758
 30
0.0
 11
1008.658407
 21
-631.601398
 31
0.0
  0
LINE
  5
893
100
AcDbEntity
  8
18
100
AcDbLine
 10
1080.908707
 20
-594.020578
 30
0.0
 11
1080.908707
 21
-642.020578
 31
0.0
  0
LINE
  5
894
100
AcDbEntity
  8
18
100
AcDbLine
 10
1043.870107
 20
-604.439758
 30
0.0
 11
1043.870107
 21
-631.601398
 31
0.0
  0
LINE
  5
895
100
AcDbEntity
  8
18
100
AcDbLine
 10
1043.870107
 20
-604.439758
 30
0.0
 11
1058.139171
 21
-599.207768
 31
0.0
  0
LINE
  5
896
100
AcDbEntity
  8
18
100
AcDbLine
 10
1066.639644
 20
-599.207768
 30
0.0
 11
1080.908707
 21
-604.439758
 31
0.0
  0
ARC
  5
897
100
AcDbEntity
  8
18
100
AcDbCircle
 10
1062.389407
 20
-610.799323
 30
0.0
 40
12.3462
100
AcDbArc
 50
69.863697
 51
110.136303
  0
LINE
  5
898
100
AcDbEntity
  8
18
100
AcDbLine
 10
1008.658407
 20
-604.439758
 30
0.0
 11
1043.870107
 21
-604.439758
 31
0.0
  0
ARC
  5
899
100
AcDbEntity
  8
18
100
AcDbCircle
 10
1062.389407
 20
-608.760928
 30
0.0
 40
18.5193
100
AcDbArc
 50
14.149808
 51
165.850192
  0
LINE
  5
89A
100
AcDbEntity
  8
18
100
AcDbLine
 10
1029.054667
 20
-597.649348
 30
0.0
 11
1047.573967
 21
-597.649348
 31
0.0
  0
LINE
  5
89B
100
AcDbEntity
  8
18
100
AcDbLine
 10
1077.204847
 20
-597.649348
 30
0.0
 11
1080.908707
 21
-597.649348
 31
0.0
  0
LINE
  5
89C
100
AcDbEntity
  8
18
100
AcDbLine
 10
1055.841846
 20
-615.30849
 30
0.0
 11
1054.532334
 21
-616.618002
 31
0.0
  0
LINE
  5
89D
100
AcDbEntity
  8
18
100
AcDbLine
 10
1068.936969
 20
-615.30849
 30
0.0
 11
1070.246481
 21
-616.618002
 31
0.0
  0
ARC
  5
89E
100
AcDbEntity
  8
18
100
AcDbCircle
 10
1062.389407
 20
-608.760928
 30
0.0
 40
9.25965
100
AcDbArc
 50
225.0
 51
315.0
  0
ARC
  5
89F
100
AcDbEntity
  8
18
100
AcDbCircle
 10
1062.389407
 20
-608.760928
 30
0.0
 40
11.11158
100
AcDbArc
 50
225.0
 51
315.0
  0
LINE
  5
8A0
100
AcDbEntity
  8
18
100
AcDbLine
 10
1056.337153
 20
-614.259571
 30
0.0
 11
1059.605097
 21
-607.42886
 31
0.0
  0
LINE
  5
8A1
100
AcDbEntity
  8
18
100
AcDbLine
 10
1056.915002
 20
-614.835115
 30
0.0
 11
1063.732595
 21
-611.539892
 31
0.0
  0
ARC
  5
8A2
100
AcDbEntity
  8
18
100
AcDbCircle
 10
1062.389407
 20
-608.760928
 30
0.0
 40
3.08655
100
AcDbArc
 50
295.796392
 51
154.432646
  0
ARC
  5
8A3
100
AcDbEntity
  8
18
100
AcDbCircle
 10
1056.726956
 20
-614.44606
 30
0.0
 40
0.432117
100
AcDbArc
 50
154.432646
 51
295.796392
  0
LINE
  5
8A4
100
AcDbEntity
  8
18
100
AcDbLine
 10
1064.785981
 20
-617.705063
 30
0.0
 11
1065.265296
 21
-619.49389
 31
0.0
  0
LINE
  5
8A5
100
AcDbEntity
  8
18
100
AcDbLine
 10
1059.992833
 20
-617.705063
 30
0.0
 11
1059.513519
 21
-619.49389
 31
0.0
  0
TEXT
  5
8A6
100
AcDbEntity
  8
18
100
AcDbText
 10
1047.131162
 20
-621.379395
 30
0.0
 40
8.64
  1
S
 50
315.0
 72
     5
 11
1052.018684
 21
-626.266917
 31
0.0
100
AcDbText
  0
TEXT
  5
8A7
100
AcDbEntity
  8
18
100
AcDbText
 10
1072.432124
 20
-626.594924
 30
0.0
 40
8.64
  1
O
 50
45.0
 72
     5
 11
1077.319646
 21
-621.707402
 31
0.0
100
AcDbText
  0
LINE
  5
8A8
100
AcDbEntity
  8
18
100
AcDbLine
 10
1297.925746
 20
-613.060466
 30
0.0
 11
1297.925746
 21
-635.283626
 31
0.0
  0
LINE
  5
8A9
100
AcDbEntity
  8
18
100
AcDbLine
 10
1297.925746
 20
-613.060466
 30
0.0
 11
1287.431476
 21
-613.060466
 31
0.0
  0
LINE
  5
8AA
100
AcDbEntity
  8
18
100
AcDbLine
 10
1249.775566
 20
-613.060466
 30
0.0
 11
1231.256266
 21
-613.060466
 31
0.0
  0
LINE
  5
8AB
100
AcDbEntity
  8
18
100
AcDbLine
 10
1080.908707
 20
-594.020578
 30
0.0
 11
1143.120407
 21
-594.020578
 31
0.0
  0
LINE
  5
8AC
100
AcDbEntity
  8
18
100
AcDbLine
 10
1080.908707
 20
-642.020578
 30
0.0
 11
1143.120407
 21
-642.020578
 31
0.0
  0
LINE
  5
8AD
100
AcDbEntity
  8
18
100
AcDbLine
 10
1249.850656
 20
-605.652746
 30
0.0
 11
1249.850656
 21
-543.441046
 31
0.0
  0
LINE
  5
8AE
100
AcDbEntity
  8
18
100
AcDbLine
 10
1297.850656
 20
-605.652746
 30
0.0
 11
1297.850656
 21
-543.441046
 31
0.0
  0
TEXT
  5
8AF
100
AcDbEntity
  8
18
100
AcDbText
 10
1001.662954
 20
-757.994019
 30
0.0
 40
20.0
  1
ＡＣＴＵＡＴＯＲ　ＰＯＳＩＴＩＯＮ
 72
     5
 11
1337.662954
 21
-757.994019
 31
0.0
100
AcDbText
  0
TEXT
  5
8B0
100
AcDbEntity
  8
18
100
AcDbText
 10
982.833923
 20
-984.282104
 30
0.0
 40
24.0
  1
７００Ｇ－３Ｕ　４００Ａ
 72
     5
 11
1266.033923
 21
-984.282104
 31
0.0
100
AcDbText
  0
LINE
  5
8B1
100
AcDbEntity
  8
20
 62
     3
100
AcDbLine
 10
-1440.0
 20
-1108.0
 30
0.0
 11
1600.0
 21
-1108.0
 31
0.0
  0
LINE
  5
8B2
100
AcDbEntity
  8
20
 62
     3
100
AcDbLine
 10
-1440.0
 20
1056.0
 30
0.0
 11
1600.0
 21
1056.0
 31
0.0
  0
LINE
  5
8B3
100
AcDbEntity
  8
20
 62
     3
100
AcDbLine
 10
-1440.0
 20
1056.0
 30
0.0
 11
-1440.0
 21
-1108.0
 31
0.0
  0
LINE
  5
8B4
100
AcDbEntity
  8
20
 62
     3
100
AcDbLine
 10
1600.0
 20
1056.0
 30
0.0
 11
1600.0
 21
-1108.0
 31
0.0
  0
LINE
  5
8B5
100
AcDbEntity
  8
20
 62
     3
100
AcDbLine
 10
480.0
 20
-1108.0
 30
0.0
 11
480.0
 21
-948.0
 31
0.0
  0
LINE
  5
8B6
100
AcDbEntity
  8
20
 62
     3
100
AcDbLine
 10
856.0
 20
-1108.0
 30
0.0
 11
856.0
 21
-948.0
 31
0.0
  0
LINE
  5
8B7
100
AcDbEntity
  8
20
100
AcDbLine
 10
856.0
 20
-1028.0
 30
0.0
 11
1600.0
 21
-1028.0
 31
0.0
  0
LINE
  5
8B8
100
AcDbEntity
  8
20
 62
     3
100
AcDbLine
 10
480.0
 20
-948.0
 30
0.0
 11
1600.0
 21
-948.0
 31
0.0
  0
LINE
  5
8B9
100
AcDbEntity
  8
20
100
AcDbLine
 10
1440.0
 20
-1028.0
 30
0.0
 11
1440.0
 21
-948.0
 31
0.0
  0
LINE
  5
8BA
100
AcDbEntity
  8
20
100
AcDbLine
 10
1440.0
 20
-988.0
 30
0.0
 11
1600.0
 21
-988.0
 31
0.0
  0
LINE
  5
8BB
100
AcDbEntity
  8
20
100
AcDbLine
 10
968.0
 20
-1108.0
 30
0.0
 11
968.0
 21
-948.0
 31
0.0
  0
LINE
  5
8BC
100
AcDbEntity
  8
20
100
AcDbLine
 10
1048.0
 20
-1108.0
 30
0.0
 11
1048.0
 21
-1028.0
 31
0.0
  0
LINE
  5
8BD
100
AcDbEntity
  8
20
100
AcDbLine
 10
1208.0
 20
-1108.0
 30
0.0
 11
1208.0
 21
-1028.0
 31
0.0
  0
LINE
  5
8BE
100
AcDbEntity
  8
20
100
AcDbLine
 10
989.827316
 20
-1086.172684
 30
0.0
 11
1023.186325
 21
-1052.813675
 31
0.0
  0
TEXT
  5
8BF
100
AcDbEntity
  8
20
100
AcDbText
 10
1052.266632
 20
-1059.975342
 30
0.0
 40
14.4
  1
ＤＲＡＷＩＮＧ　ＮＯ．
 72
     5
 11
1207.786632
 21
-1059.975342
 31
0.0
100
AcDbText
  0
TEXT
  5
8C0
100
AcDbEntity
  8
20
100
AcDbText
 10
1068.0
 20
-1092.0
 30
0.0
 40
24.0
  1
図　　　番
 72
     5
 11
1183.2
 21
-1092.0
 31
0.0
100
AcDbText
  0
TEXT
  5
8C1
100
AcDbEntity
  8
20
100
AcDbText
 10
1488.0
 20
-976.0
 30
0.0
 40
16.0
  1
ＤＡＴＥ
 72
     5
 11
1548.8
 21
-976.0
 31
0.0
100
AcDbText
  0
TEXT
  5
8C2
100
AcDbEntity
  8
20
100
AcDbText
 10
872.008568
 20
-1063.688232
 30
0.0
 40
16.0
  1
ＳＣＡＬＥ
 72
     5
 11
948.808568
 21
-1063.688232
 31
0.0
100
AcDbText
  0
TEXT
  5
8C3
100
AcDbEntity
  8
20
100
AcDbText
 10
864.0
 20
-1092.0
 30
0.0
 40
24.0
  1
尺　　度
 72
     5
 11
955.2
 21
-1092.0
 31
0.0
100
AcDbText
  0
TEXT
  5
8C4
100
AcDbEntity
  8
20
100
AcDbText
 10
860.008568
 20
-979.967078
 30
0.0
 40
16.0
  1
ＦＩＧ．ＮＯ．
 72
     5
 11
968.808568
 21
-979.967078
 31
0.0
100
AcDbText
  0
TEXT
  5
8C5
100
AcDbEntity
  8
20
100
AcDbText
 10
864.0
 20
-1012.0
 30
0.0
 40
24.0
  1
名　　称
 72
     5
 11
955.2
 21
-1012.0
 31
0.0
100
AcDbText
  0
TEXT
  5
8C6
100
AcDbEntity
  8
20
100
AcDbText
 10
484.5242
 20
-1011.762024
 30
0.0
 40
18.4
  1
ＴＯＭＯＥ　ＶＡＬＶＥ　ＣＯ．，ＬＴＤ．
 72
     5
 11
848.8442
 21
-1011.762024
 31
0.0
100
AcDbText
  0
TEXT
  5
8C7
100
AcDbEntity
  8
20
100
AcDbText
 10
540.0
 20
-1066.318481
 30
0.0
 40
32.0
  1
巴バルブ株式会社
 72
     5
 11
789.6
 21
-1066.318481
 31
0.0
100
AcDbText
  0
ENDSEC
  0
SECTION
  2
OBJECTS
  0
DICTIONARY
  5
934
100
AcDbDictionary
  3
ACAD_GROUP
350
935
  3
ACAD_MLINESTYLE
350
936
  0
DICTIONARY
  5
935
102
{ACAD_REACTORS
330
934
102
}
100
AcDbDictionary
  0
DICTIONARY
  5
936
102
{ACAD_REACTORS
330
934
102
}
100
AcDbDictionary
  3
STANDARD
350
937
  0
MLINESTYLE
  5
937
102
{ACAD_REACTORS
330
936
102
}
100
AcDbMlineStyle
  2
STANDARD
 70
     0
  3

 62
     0
 51
90.0
 52
90.0
 71
     2
 49
0.5
 62
   256
  6
BYLAYER
 49
-0.5
 62
   256
  6
BYLAYER
  0
ENDSEC
  0
EOF
